  0
SECTION
  2
HEADER
  9
$ACADVER
  1
AC1015
  9
$ACADMAINTVER
 70
    20
  9
$DWGCODEPAGE
  3
ANSI_932
  9
$INSBASE
 10
0.0
 20
0.0
 30
0.0
  9
$EXTMIN
 10
173.9960207766853
 20
-0.2264616298234614
 30
-0.0000000000112498
  9
$EXTMAX
 10
20385.40654231959
 20
14262.40847994857
 30
0.0000000000002956
  9
$LIMMIN
 10
0.0
 20
0.0
  9
$LIMMAX
 10
21000.0
 20
14850.0
  9
$ORTHOMODE
 70
     0
  9
$REGENMODE
 70
     1
  9
$FILLMODE
 70
     1
  9
$QTEXTMODE
 70
     0
  9
$MIRRTEXT
 70
     1
  9
$LTSCALE
 40
20.0
  9
$ATTMODE
 70
     1
  9
$TEXTSIZE
 40
100.0
  9
$TRACEWID
 40
1.0
  9
$TEXTSTYLE
  7
STYLE2
  9
$CLAYER
  8
寸法
  9
$CELTYPE
  6
BYLAYER
  9
$CECOLOR
 62
   256
  9
$CELTSCALE
 40
50.0
  9
$DISPSILH
 70
     0
  9
$DIMSCALE
 40
1.0
  9
$DIMASZ
 40
125.0
  9
$DIMEXO
 40
25.0
  9
$DIMDLI
 40
7.0
  9
$DIMRND
 40
0.0
  9
$DIMDLE
 40
0.0
  9
$DIMEXE
 40
75.0
  9
$DIMTP
 40
0.0
  9
$DIMTM
 40
0.0
  9
$DIMTXT
 40
150.0
  9
$DIMCEN
 40
0.0
  9
$DIMTSZ
 40
0.0
  9
$DIMTOL
 70
     0
  9
$DIMLIM
 70
     0
  9
$DIMTIH
 70
     0
  9
$DIMTOH
 70
     0
  9
$DIMSE1
 70
     0
  9
$DIMSE2
 70
     0
  9
$DIMTAD
 70
     3
  9
$DIMZIN
 70
     8
  9
$DIMBLK
  1

  9
$DIMASO
 70
     1
  9
$DIMSHO
 70
     1
  9
$DIMPOST
  1

  9
$DIMAPOST
  1

  9
$DIMALT
 70
     0
  9
$DIMALTD
 70
     2
  9
$DIMALTF
 40
0.0394
  9
$DIMLFAC
 40
1.0
  9
$DIMTOFL
 70
     1
  9
$DIMTVP
 40
0.0
  9
$DIMTIX
 70
     1
  9
$DIMSOXD
 70
     0
  9
$DIMSAH
 70
     1
  9
$DIMBLK1
  1
DOTSMALL
  9
$DIMBLK2
  1
DOTSMALL
  9
$DIMSTYLE
  2
INABA_S50G
  9
$DIMCLRD
 70
     0
  9
$DIMCLRE
 70
     0
  9
$DIMCLRT
 70
     7
  9
$DIMTFAC
 40
1.0
  9
$DIMGAP
 40
25.0
  9
$DIMJUST
 70
     0
  9
$DIMSD1
 70
     0
  9
$DIMSD2
 70
     0
  9
$DIMTOLJ
 70
     1
  9
$DIMTZIN
 70
     0
  9
$DIMALTZ
 70
     0
  9
$DIMALTTZ
 70
     0
  9
$DIMUPT
 70
     0
  9
$DIMDEC
 70
     1
  9
$DIMTDEC
 70
     4
  9
$DIMALTU
 70
     2
  9
$DIMALTTD
 70
     2
  9
$DIMTXSTY
  7
STYLE1
  9
$DIMAUNIT
 70
     0
  9
$DIMADEC
 70
     0
  9
$DIMALTRND
 40
0.0
  9
$DIMAZIN
 70
     0
  9
$DIMDSEP
 70
    46
  9
$DIMATFIT
 70
     3
  9
$DIMFRAC
 70
     0
  9
$DIMLDRBLK
  1

  9
$DIMLUNIT
 70
     2
  9
$DIMLWD
 70
    -2
  9
$DIMLWE
 70
    -2
  9
$DIMTMOVE
 70
     0
  9
$LUNITS
 70
     2
  9
$LUPREC
 70
     1
  9
$SKETCHINC
 40
1.0
  9
$FILLETRAD
 40
16.0
  9
$AUNITS
 70
     0
  9
$AUPREC
 70
     0
  9
$MENU
  1
acad
  9
$ELEVATION
 40
0.0
  9
$PELEVATION
 40
0.0
  9
$THICKNESS
 40
0.0
  9
$LIMCHECK
 70
     0
  9
$CHAMFERA
 40
0.0
  9
$CHAMFERB
 40
0.0
  9
$CHAMFERC
 40
30.0
  9
$CHAMFERD
 40
0.7853981633974483
  9
$SKPOLY
 70
     0
  9
$TDCREATE
 40
2450927.380327778
  9
$TDUCREATE
 40
2450927.005327778
  9
$TDUPDATE
 40
2459381.442217882
  9
$TDUUPDATE
 40
2459381.067217882
  9
$TDINDWG
 40
2.3276808912
  9
$TDUSRTIMER
 40
2.3276808449
  9
$USRTIMER
 70
     1
  9
$ANGBASE
 50
0.0
  9
$ANGDIR
 70
     0
  9
$PDMODE
 70
     3
  9
$PDSIZE
 40
2.0
  9
$PLINEWID
 40
0.0
  9
$SPLFRAME
 70
     0
  9
$SPLINETYPE
 70
     6
  9
$SPLINESEGS
 70
     8
  9
$HANDSEED
  5
1CF05
  9
$SURFTAB1
 70
     6
  9
$SURFTAB2
 70
     6
  9
$SURFTYPE
 70
     6
  9
$SURFU
 70
     6
  9
$SURFV
 70
     6
  9
$UCSBASE
  2

  9
$UCSNAME
  2

  9
$UCSORG
 10
0.0
 20
0.0
 30
0.0
  9
$UCSXDIR
 10
1.0
 20
0.0
 30
0.0
  9
$UCSYDIR
 10
0.0
 20
1.0
 30
0.0
  9
$UCSORTHOREF
  2

  9
$UCSORTHOVIEW
 70
     0
  9
$UCSORGTOP
 10
0.0
 20
0.0
 30
0.0
  9
$UCSORGBOTTOM
 10
0.0
 20
0.0
 30
0.0
  9
$UCSORGLEFT
 10
0.0
 20
0.0
 30
0.0
  9
$UCSORGRIGHT
 10
0.0
 20
0.0
 30
0.0
  9
$UCSORGFRONT
 10
0.0
 20
0.0
 30
0.0
  9
$UCSORGBACK
 10
0.0
 20
0.0
 30
0.0
  9
$PUCSBASE
  2

  9
$PUCSNAME
  2

  9
$PUCSORG
 10
0.0
 20
0.0
 30
0.0
  9
$PUCSXDIR
 10
1.0
 20
0.0
 30
0.0
  9
$PUCSYDIR
 10
0.0
 20
1.0
 30
0.0
  9
$PUCSORTHOREF
  2

  9
$PUCSORTHOVIEW
 70
     0
  9
$PUCSORGTOP
 10
0.0
 20
0.0
 30
0.0
  9
$PUCSORGBOTTOM
 10
0.0
 20
0.0
 30
0.0
  9
$PUCSORGLEFT
 10
0.0
 20
0.0
 30
0.0
  9
$PUCSORGRIGHT
 10
0.0
 20
0.0
 30
0.0
  9
$PUCSORGFRONT
 10
0.0
 20
0.0
 30
0.0
  9
$PUCSORGBACK
 10
0.0
 20
0.0
 30
0.0
  9
$USERI1
 70
     0
  9
$USERI2
 70
     0
  9
$USERI3
 70
     0
  9
$USERI4
 70
     0
  9
$USERI5
 70
     0
  9
$USERR1
 40
0.0
  9
$USERR2
 40
0.0
  9
$USERR3
 40
0.0
  9
$USERR4
 40
0.0
  9
$USERR5
 40
0.0
  9
$WORLDVIEW
 70
     1
  9
$SHADEDGE
 70
     3
  9
$SHADEDIF
 70
    70
  9
$TILEMODE
 70
     1
  9
$MAXACTVP
 70
    16
  9
$PINSBASE
 10
0.0
 20
0.0
 30
0.0
  9
$PLIMCHECK
 70
     0
  9
$PEXTMIN
 10
1.000000000000000E+20
 20
1.000000000000000E+20
 30
1.000000000000000E+20
  9
$PEXTMAX
 10
-1.000000000000000E+20
 20
-1.000000000000000E+20
 30
-1.000000000000000E+20
  9
$PLIMMIN
 10
0.0
 20
0.0
  9
$PLIMMAX
 10
420.0
 20
297.0
  9
$UNITMODE
 70
     0
  9
$VISRETAIN
 70
     0
  9
$PLINEGEN
 70
     0
  9
$PSLTSCALE
 70
     0
  9
$TREEDEPTH
 70
  3020
  9
$CMLSTYLE
  2
STANDARD
  9
$CMLJUST
 70
     0
  9
$CMLSCALE
 40
1.0
  9
$PROXYGRAPHICS
 70
     1
  9
$MEASUREMENT
 70
     1
  9
$CELWEIGHT
370
    -1
  9
$ENDCAPS
280
     0
  9
$JOINSTYLE
280
     0
  9
$LWDISPLAY
290
     0
  9
$INSUNITS
 70
     0
  9
$HYPERLINKBASE
  1

  9
$STYLESHEET
  1
inaba.ctb
  9
$XEDIT
290
     1
  9
$CEPSNTYPE
380
     0
  9
$PSTYLEMODE
290
     1
  9
$FINGERPRINTGUID
  2
{65C10FE9-7E40-4DD1-BA08-D9A5372D99C5}
  9
$VERSIONGUID
  2
{EA355595-7EA3-4EB7-BF84-48FDC623B62D}
  9
$EXTNAMES
290
     1
  9
$PSVPSCALE
 40
0.0
  9
$OLESTARTUP
290
     0
  0
ENDSEC
  0
SECTION
  2
CLASSES
  0
CLASS
  1
DICTIONARYVAR
  2
AcDbDictionaryVar
  3
ObjectDBX Classes
 90
        0
280
     0
281
     0
  0
CLASS
  1
ACDBDICTIONARYWDFLT
  2
AcDbDictionaryWithDefault
  3
ObjectDBX Classes
 90
        0
280
     0
281
     0
  0
CLASS
  1
ACDBPLACEHOLDER
  2
AcDbPlaceHolder
  3
ObjectDBX Classes
 90
        0
280
     0
281
     0
  0
CLASS
  1
LAYOUT
  2
AcDbLayout
  3
ObjectDBX Classes
 90
        0
280
     0
281
     0
  0
CLASS
  1
MATERIAL
  2
AcDbMaterial
  3
ObjectDBX Classes
 90
     1153
280
     0
281
     0
  0
CLASS
  1
VISUALSTYLE
  2
AcDbVisualStyle
  3
ObjectDBX Classes
 90
     4095
280
     0
281
     0
  0
CLASS
  1
TABLESTYLE
  2
AcDbTableStyle
  3
ObjectDBX Classes
 90
     4095
280
     0
281
     0
  0
CLASS
  1
SCALE
  2
AcDbScale
  3
ObjectDBX Classes
 90
     1153
280
     0
281
     0
  0
CLASS
  1
MLEADERSTYLE
  2
AcDbMLeaderStyle
  3
ACDB_MLEADERSTYLE_CLASS
 90
     4095
280
     0
281
     0
  0
CLASS
  1
ACDBSECTIONVIEWSTYLE
  2
AcDbSectionViewStyle
  3
ObjectDBX Classes
 90
     1025
280
     0
281
     0
  0
CLASS
  1
ACDBDETAILVIEWSTYLE
  2
AcDbDetailViewStyle
  3
ObjectDBX Classes
 90
     1025
280
     0
281
     0
  0
CLASS
  1
CELLSTYLEMAP
  2
AcDbCellStyleMap
  3
ObjectDBX Classes
 90
     1152
280
     0
281
     0
  0
ENDSEC
  0
SECTION
  2
TABLES
  0
TABLE
  2
VPORT
  5
746D
330
0
100
AcDbSymbolTable
 70
     1
  0
VPORT
  5
1CDF2
330
746D
100
AcDbSymbolTableRecord
100
AcDbViewportTableRecord
  2
*Active
 70
     0
 10
0.0
 20
0.0
 11
1.0
 21
1.0
 12
10528.69194347849
 22
7130.760046577385
 13
0.0
 23
0.0
 14
10.0
 24
10.0
 15
10.0
 25
10.0
 16
0.0
 26
0.0
 36
1.0
 17
0.0
 27
0.0
 37
0.0
 40
14383.42844648808
 41
1.663434903047091
 42
50.0
 43
0.0
 44
0.0
 50
0.0
 51
0.0
 71
     0
 72
     0
 73
     1
 74
     0
 75
     0
 76
     0
 77
     0
 78
     0
281
     0
 65
     1
110
0.0
120
0.0
130
0.0
111
1.0
121
0.0
131
0.0
112
0.0
122
1.0
132
0.0
 79
     0
146
0.0
1001
ACAD_NAV_VCDISPLAY
1070
     3
  0
ENDTAB
  0
TABLE
  2
LTYPE
  5
746A
330
0
100
AcDbSymbolTable
 70
     4
  0
LTYPE
  5
7477
330
746A
100
AcDbSymbolTableRecord
100
AcDbLinetypeTableRecord
  2
BYBLOCK
 70
     0
  3

 72
    65
 73
     0
 40
0.0
  0
LTYPE
  5
7478
330
746A
100
AcDbSymbolTableRecord
100
AcDbLinetypeTableRecord
  2
BYLAYER
 70
     0
  3

 72
    65
 73
     0
 40
0.0
  0
LTYPE
  5
7479
330
746A
100
AcDbSymbolTableRecord
100
AcDbLinetypeTableRecord
  2
CONTINUOUS
 70
     0
  3
Solid line
 72
    65
 73
     0
 40
0.0
  0
LTYPE
  5
7816
330
746A
100
AcDbSymbolTableRecord
100
AcDbLinetypeTableRecord
  2
CENTER
 70
     0
  3
____ _ ____ _ ____ _ ____ _ ____ _ ____ _ ____ 
 72
    65
 73
     4
 40
2.0
 49
1.25
 74
     0
 49
-0.25
 74
     0
 49
0.25
 74
     0
 49
-0.25
 74
     0
  0
LTYPE
  5
781B
330
746A
100
AcDbSymbolTableRecord
100
AcDbLinetypeTableRecord
  2
PHANTOM
 70
     0
  3
______  __  __  ______  __  __  ______  __  __ 
 72
    65
 73
     6
 40
2.5
 49
1.25
 74
     0
 49
-0.25
 74
     0
 49
0.25
 74
     0
 49
-0.25
 74
     0
 49
0.25
 74
     0
 49
-0.25
 74
     0
  0
LTYPE
  5
13F72
330
746A
100
AcDbSymbolTableRecord
100
AcDbLinetypeTableRecord
  2
HIDDEN
 70
     0
  3
__ __ __ __ __ __ __ __ __ __ __ __ __ __ __ __
 72
    65
 73
     2
 40
0.375
 49
0.25
 74
     0
 49
-0.125
 74
     0
  0
ENDTAB
  0
TABLE
  2
LAYER
  5
7467
102
{ACAD_XDICTIONARY
360
1C7CD
102
}
330
0
100
AcDbSymbolTable
 70
    12
  0
LAYER
  5
7474
102
{ACAD_XDICTIONARY
360
1CE5E
102
}
330
7467
100
AcDbSymbolTableRecord
100
AcDbLayerTableRecord
  2
0
 70
     0
 62
     7
  6
CONTINUOUS
370
    -3
390
1BC07
  0
LAYER
  5
DEB2
102
{ACAD_XDICTIONARY
360
1CE60
102
}
330
7467
100
AcDbSymbolTableRecord
100
AcDbLayerTableRecord
  2
センター
 70
     0
 62
     3
  6
CENTER
370
    -3
390
1BC07
  0
LAYER
  5
DEB3
102
{ACAD_XDICTIONARY
360
1CE62
102
}
330
7467
100
AcDbSymbolTableRecord
100
AcDbLayerTableRecord
  2
寸法
 70
     0
 62
     4
  6
CONTINUOUS
370
    -3
390
1BC07
  0
LAYER
  5
DEB4
102
{ACAD_XDICTIONARY
360
1CE64
102
}
330
7467
100
AcDbSymbolTableRecord
100
AcDbLayerTableRecord
  2
部品1
 70
     0
 62
     7
  6
CONTINUOUS
370
    -3
390
1BC07
  0
LAYER
  5
DEB5
102
{ACAD_XDICTIONARY
360
1CE66
102
}
330
7467
100
AcDbSymbolTableRecord
100
AcDbLayerTableRecord
  2
補助
 70
     0
 62
    -1
  6
CONTINUOUS
370
    -3
390
1BC07
  0
LAYER
  5
DEB6
102
{ACAD_XDICTIONARY
360
1CE68
102
}
330
7467
100
AcDbSymbolTableRecord
100
AcDbLayerTableRecord
  2
文字
 70
     0
 62
     7
  6
CONTINUOUS
370
    -3
390
1BC07
  0
LAYER
  5
F255
330
7467
100
AcDbSymbolTableRecord
100
AcDbLayerTableRecord
  2
DEFPOINTS
 70
     0
 62
     7
  6
CONTINUOUS
290
     0
370
    -3
390
1BC07
  0
LAYER
  5
10B54
102
{ACAD_XDICTIONARY
360
1CE6A
102
}
330
7467
100
AcDbSymbolTableRecord
100
AcDbLayerTableRecord
  2
仕様書枠
 70
     0
 62
   230
  6
CONTINUOUS
370
    -3
390
1BC07
  0
LAYER
  5
13F73
102
{ACAD_XDICTIONARY
360
1CE6C
102
}
330
7467
100
AcDbSymbolTableRecord
100
AcDbLayerTableRecord
  2
細線
 70
     0
 62
     5
  6
CONTINUOUS
370
    -3
390
1BC07
  0
LAYER
  5
13F74
102
{ACAD_XDICTIONARY
360
1CE6E
102
}
330
7467
100
AcDbSymbolTableRecord
100
AcDbLayerTableRecord
  2
点線
 70
     0
 62
     2
  6
HIDDEN
370
    -3
390
1BC07
  0
LAYER
  5
1643F
102
{ACAD_XDICTIONARY
360
1CE70
102
}
330
7467
100
AcDbSymbolTableRecord
100
AcDbLayerTableRecord
  2
想像線
 70
     0
 62
     6
  6
PHANTOM
370
    -3
390
1BC07
  0
LAYER
  5
17A5A
102
{ACAD_XDICTIONARY
360
1CE72
102
}
330
7467
100
AcDbSymbolTableRecord
100
AcDbLayerTableRecord
  2
Ｇ．Ｌ
 70
     0
 62
    30
  6
CONTINUOUS
370
    -3
390
1BC07
  0
ENDTAB
  0
TABLE
  2
STYLE
  5
7468
330
0
100
AcDbSymbolTable
 70
     7
  0
STYLE
  5
7475
330
7468
100
AcDbSymbolTableRecord
100
AcDbTextStyleTableRecord
  2
STANDARD
 70
     0
 40
0.0
 41
1.0
 50
0.0
 71
     0
 42
4.0
  3
txt
  4
C:\AutoCAD LT\bigfont.shx
  0
STYLE
  5
763C
330
7468
100
AcDbSymbolTableRecord
100
AcDbTextStyleTableRecord
  2
MSMINCHO
 70
     0
 40
0.0
 41
1.0
 50
0.0
 71
     0
 42
1.199999999999999
  3
C:\AutoCAD LT\msminch2.TTF
  4

  0
STYLE
  5
F706
330
7468
100
AcDbSymbolTableRecord
100
AcDbTextStyleTableRecord
  2
STYLE1
 70
     0
 40
0.0
 41
1.0
 50
0.0
 71
     0
 42
150.0
  3
isocp.shx
  4
bigfont.shx
  0
STYLE
  5
103BF
330
7468
100
AcDbSymbolTableRecord
100
AcDbTextStyleTableRecord
  2
STYLE2
 70
     0
 40
0.0
 41
1.0
 50
0.0
 71
     0
 42
100.0
  3

  4

1001
ACAD
1000
MS PGothic
1071
    32818
  0
STYLE
  5
1B895
330
7468
100
AcDbSymbolTableRecord
100
AcDbTextStyleTableRecord
  2
STYLE3
 70
     0
 40
0.0
 41
1.0
 50
0.0
 71
     0
 42
150.0
  3

  4

1001
ACAD
1000
DFPGothic-EB
1071
    32818
  0
ENDTAB
  0
TABLE
  2
VIEW
  5
746B
330
0
100
AcDbSymbolTable
 70
     0
  0
ENDTAB
  0
TABLE
  2
UCS
  5
746C
330
0
100
AcDbSymbolTable
 70
     0
  0
ENDTAB
  0
TABLE
  2
APPID
  5
746E
330
0
100
AcDbSymbolTable
 70
    10
  0
APPID
  5
7476
330
746E
100
AcDbSymbolTableRecord
100
AcDbRegAppTableRecord
  2
ACAD
 70
     0
  0
APPID
  5
DEA9
330
746E
100
AcDbSymbolTableRecord
100
AcDbRegAppTableRecord
  2
CONTENTBLOCKICON
 70
     0
  0
APPID
  5
DEAA
330
746E
100
AcDbSymbolTableRecord
100
AcDbRegAppTableRecord
  2
CONTENTBLOCKDESCRIPTION
 70
     0
  0
APPID
  5
E71D
330
746E
100
AcDbSymbolTableRecord
100
AcDbRegAppTableRecord
  2
CONTENTTABDATA
 70
     0
  0
APPID
  5
E71E
330
746E
100
AcDbSymbolTableRecord
100
AcDbRegAppTableRecord
  2
CONTENTCURRENTTAB
 70
     0
  0
APPID
  5
F3BA
330
746E
100
AcDbSymbolTableRecord
100
AcDbRegAppTableRecord
  2
DRAWINGVARIABLESXDATA
 70
     0
  0
APPID
  5
1CE4F
330
746E
100
AcDbSymbolTableRecord
100
AcDbRegAppTableRecord
  2
ACAD_NAV_VCDISPLAY
 70
     0
  0
APPID
  5
1CE8B
330
746E
100
AcDbSymbolTableRecord
100
AcDbRegAppTableRecord
  2
ACAD_EXEMPT_FROM_CAD_STANDARDS
 70
     0
  0
APPID
  5
1CEB1
330
746E
100
AcDbSymbolTableRecord
100
AcDbRegAppTableRecord
  2
ACAD_PSEXT
 70
     0
  0
APPID
  5
1CF02
330
746E
100
AcDbSymbolTableRecord
100
AcDbRegAppTableRecord
  2
ACAD_MLEADERVER
 70
     0
  0
ENDTAB
  0
TABLE
  2
DIMSTYLE
  5
746F
330
0
100
AcDbSymbolTable
 70
     9
100
AcDbDimStyleTable
 71
     1
340
F71F
  0
DIMSTYLE
105
7484
330
746F
100
AcDbSymbolTableRecord
100
AcDbDimStyleTableRecord
  2
JIS
 70
     0
 41
2.5
 42
1.0
 43
7.0
 44
1.0
 73
     0
 74
     0
 77
     1
 78
     8
140
2.5
141
0.0
143
0.0394
147
0.0
172
     1
174
     1
175
     1
340
7475
  0
DIMSTYLE
105
F71F
102
{ACAD_REACTORS
330
1B9F7
330
1B9F8
330
1B9FC
330
1B9FD
330
1B9FE
330
1B9FF
330
1BA06
330
1BA07
330
1BA0C
330
1BA0D
330
1BA0E
330
1BA1A
330
1BA20
330
1BA21
330
1BA30
330
1BA31
330
1BA2F
330
1C3E1
330
1C7D5
330
1C836
102
}
330
746F
100
AcDbSymbolTableRecord
100
AcDbDimStyleTableRecord
  2
INABA_S50G
 70
     0
 41
125.0
 42
25.0
 43
7.0
 44
75.0
 73
     0
 74
     0
 77
     3
 78
     8
140
150.0
141
0.0
143
0.0394
147
25.0
172
     1
173
     1
174
     1
178
     7
271
     1
340
F706
341
F770
343
F770
344
F770
  0
DIMSTYLE
105
1818C
330
746F
100
AcDbSymbolTableRecord
100
AcDbDimStyleTableRecord
  2
INABA_S10
 70
     0
 41
25.0
 42
5.0
 43
7.0
 44
15.0
 73
     0
 74
     0
 77
     3
 78
     8
140
30.0
141
0.0
143
0.0394
147
5.0
172
     1
173
     1
174
     1
175
     1
178
     7
289
     0
340
7475
341
13EE2
343
13EE2
344
13EE2
  0
DIMSTYLE
105
1B522
330
746F
100
AcDbSymbolTableRecord
100
AcDbDimStyleTableRecord
  2
INABA_S50
 70
     0
 40
50.0
 41
2.5
 42
0.5
 43
7.0
 44
1.0
 73
     0
 74
     0
 77
     3
 78
     8
140
2.5
141
0.0
143
0.0394
147
0.8
172
     1
173
     1
174
     1
175
     1
178
     7
271
     2
272
     2
289
     0
340
7475
341
13EE2
343
13EE2
344
13EE2
  0
DIMSTYLE
105
1B523
330
746F
100
AcDbSymbolTableRecord
100
AcDbDimStyleTableRecord
  2
物置仕様図15G
 70
     0
 40
30.0
 41
2.5
 42
1.0
 43
7.0
 44
1.0
 73
     0
 74
     0
 77
     3
 78
     8
140
3.0
141
2.5
143
0.0394
144
0.5
145
1.0
147
1.0
173
     1
176
     4
177
     4
178
     7
271
     2
272
     2
279
     2
284
     8
340
7475
341
F770
343
F770
344
F770
  0
DIMSTYLE
105
1BD6A
102
{ACAD_REACTORS
330
1CC6C
330
1CB41
330
1CB42
330
1CB43
330
1CB57
330
1CB5D
330
1CB5F
102
}
330
746F
100
AcDbSymbolTableRecord
100
AcDbDimStyleTableRecord
  2
INABA_S50GUP
 70
     0
 41
125.0
 42
25.0
 43
7.0
 44
75.0
 73
     0
 74
     0
 77
     3
 78
     8
140
150.0
141
0.0
143
0.0394
147
25.0
172
     1
173
     1
174
     1
178
     7
271
     1
340
F706
341
F770
343
F770
344
F770
  0
DIMSTYLE
105
1CE4E
330
746F
100
AcDbSymbolTableRecord
100
AcDbDimStyleTableRecord
  2
INABA_S40G
 70
     0
 40
40.0
 41
2.5
 42
0.5
 43
7.0
 44
1.5
 73
     0
 74
     0
 77
     3
 78
     8
140
3.0
141
0.0
143
0.0394
147
1.0
172
     1
173
     1
174
     1
178
     7
271
     1
340
F706
341
F770
343
F770
344
F770
  0
ENDTAB
  0
TABLE
  2
BLOCK_RECORD
  5
7466
330
0
100
AcDbSymbolTable
 70
    31
  0
BLOCK_RECORD
  5
747D
330
7466
100
AcDbSymbolTableRecord
100
AcDbBlockTableRecord
  2
*MODEL_SPACE
340
1BC0C
  0
BLOCK_RECORD
  5
747A
330
7466
100
AcDbSymbolTableRecord
100
AcDbBlockTableRecord
  2
*PAPER_SPACE
340
1BC0D
  0
BLOCK_RECORD
  5
F770
330
7466
100
AcDbSymbolTableRecord
100
AcDbBlockTableRecord
  2
_DOTSMALL
340
0
102
{BLKREFS
331
1CD8A
331
1CD8B
331
1CD93
331
1CD94
331
1CD9D
331
1CD9E
331
1CDA6
331
1CDA7
331
1CDAF
331
1CDB0
331
1CDB8
331
1CDB9
331
1CDC1
331
1CDC2
331
1BB2E
331
1BB2F
331
1BB38
331
1BB39
331
1BB4D
331
1BB4E
331
1BB57
331
1BB58
331
1BB92
331
1BB93
331
1BB9E
331
1BB9F
331
1BBC1
331
1BBC2
331
1BBCC
331
1BBCD
331
1BBD7
331
1BBD8
331
1BBE3
331
1BBE4
331
1BBEF
331
1BBF0
331
1C41F
331
1C420
331
1C826
331
1C827
331
1C830
331
1C831
331
1C88C
331
1C88D
331
1C89F
331
1C8A0
331
1C8A9
331
1C8AA
331
1C8B2
331
1C8B3
331
1C8BC
331
1C8BD
331
1C8C6
331
1C8C7
102
}
  0
BLOCK_RECORD
  5
13EE2
330
7466
100
AcDbSymbolTableRecord
100
AcDbBlockTableRecord
  2
_OPEN
340
0
  0
BLOCK_RECORD
  5
1BA4C
330
7466
100
AcDbSymbolTableRecord
100
AcDbBlockTableRecord
  2
*D2
340
0
  0
BLOCK_RECORD
  5
1BA58
330
7466
100
AcDbSymbolTableRecord
100
AcDbBlockTableRecord
  2
*D3
340
0
  0
BLOCK_RECORD
  5
1BA63
330
7466
100
AcDbSymbolTableRecord
100
AcDbBlockTableRecord
  2
*D4
340
0
  0
BLOCK_RECORD
  5
1BA6F
330
7466
100
AcDbSymbolTableRecord
100
AcDbBlockTableRecord
  2
*D5
340
0
  0
BLOCK_RECORD
  5
1BA7A
330
7466
100
AcDbSymbolTableRecord
100
AcDbBlockTableRecord
  2
*D6
340
0
  0
BLOCK_RECORD
  5
1BA85
330
7466
100
AcDbSymbolTableRecord
100
AcDbBlockTableRecord
  2
*D7
340
0
  0
BLOCK_RECORD
  5
1BA9E
330
7466
100
AcDbSymbolTableRecord
100
AcDbBlockTableRecord
  2
*D8
340
0
  0
BLOCK_RECORD
  5
1BAAB
330
7466
100
AcDbSymbolTableRecord
100
AcDbBlockTableRecord
  2
*D9
340
0
  0
BLOCK_RECORD
  5
1BAB8
330
7466
100
AcDbSymbolTableRecord
100
AcDbBlockTableRecord
  2
*D10
340
0
  0
BLOCK_RECORD
  5
1BAC5
330
7466
100
AcDbSymbolTableRecord
100
AcDbBlockTableRecord
  2
*D11
340
0
  0
BLOCK_RECORD
  5
1BAD2
330
7466
100
AcDbSymbolTableRecord
100
AcDbBlockTableRecord
  2
*D12
340
0
  0
BLOCK_RECORD
  5
1BADF
330
7466
100
AcDbSymbolTableRecord
100
AcDbBlockTableRecord
  2
*D13
340
0
  0
BLOCK_RECORD
  5
1BAEC
330
7466
100
AcDbSymbolTableRecord
100
AcDbBlockTableRecord
  2
*D14
340
0
  0
BLOCK_RECORD
  5
1BAF8
330
7466
100
AcDbSymbolTableRecord
100
AcDbBlockTableRecord
  2
*D15
340
0
  0
BLOCK_RECORD
  5
1BB04
330
7466
100
AcDbSymbolTableRecord
100
AcDbBlockTableRecord
  2
*D16
340
0
  0
BLOCK_RECORD
  5
1BB10
330
7466
100
AcDbSymbolTableRecord
100
AcDbBlockTableRecord
  2
*D17
340
0
  0
BLOCK_RECORD
  5
1BB1D
330
7466
100
AcDbSymbolTableRecord
100
AcDbBlockTableRecord
  2
*D18
340
0
  0
BLOCK_RECORD
  5
1C3E3
330
7466
100
AcDbSymbolTableRecord
100
AcDbBlockTableRecord
  2
*D19
340
0
  0
BLOCK_RECORD
  5
1C7D6
330
7466
100
AcDbSymbolTableRecord
100
AcDbBlockTableRecord
  2
*D20
340
0
  0
BLOCK_RECORD
  5
1C837
330
7466
100
AcDbSymbolTableRecord
100
AcDbBlockTableRecord
  2
*D21
340
0
  0
BLOCK_RECORD
  5
1CD30
330
7466
100
AcDbSymbolTableRecord
100
AcDbBlockTableRecord
  2
*D22
340
0
  0
BLOCK_RECORD
  5
1CD3D
330
7466
100
AcDbSymbolTableRecord
100
AcDbBlockTableRecord
  2
*D23
340
0
  0
BLOCK_RECORD
  5
1CD49
330
7466
100
AcDbSymbolTableRecord
100
AcDbBlockTableRecord
  2
*D24
340
0
  0
BLOCK_RECORD
  5
1CD56
330
7466
100
AcDbSymbolTableRecord
100
AcDbBlockTableRecord
  2
*D25
340
0
  0
BLOCK_RECORD
  5
1CD62
330
7466
100
AcDbSymbolTableRecord
100
AcDbBlockTableRecord
  2
*D26
340
0
  0
BLOCK_RECORD
  5
1CD6E
330
7466
100
AcDbSymbolTableRecord
100
AcDbBlockTableRecord
  2
*D27
340
0
  0
BLOCK_RECORD
  5
1CD7A
330
7466
100
AcDbSymbolTableRecord
100
AcDbBlockTableRecord
  2
*D28
340
0
  0
ENDTAB
  0
ENDSEC
  0
SECTION
  2
BLOCKS
  0
BLOCK
  5
7489
330
747D
100
AcDbEntity
  8
0
100
AcDbBlockBegin
  2
*MODEL_SPACE
 70
     0
 10
0.0
 20
0.0
 30
0.0
  3
*MODEL_SPACE
  1

  0
ENDBLK
  5
748A
330
747D
100
AcDbEntity
  8
0
100
AcDbBlockEnd
  0
BLOCK
  5
7487
330
747A
100
AcDbEntity
 67
     1
  8
0
100
AcDbBlockBegin
  2
*PAPER_SPACE
 70
     0
 10
0.0
 20
0.0
 30
0.0
  3
*PAPER_SPACE
  1

  0
ENDBLK
  5
7488
330
747A
100
AcDbEntity
 67
     1
  8
0
100
AcDbBlockEnd
  0
BLOCK
  5
F771
330
F770
100
AcDbEntity
  8
0
 48
50.0
100
AcDbBlockBegin
  2
_DOTSMALL
 70
     0
 10
0.0
 20
0.0
 30
0.0
  3
_DOTSMALL
  1

  0
LWPOLYLINE
  5
F772
330
F770
100
AcDbEntity
  8
0
  6
ByBlock
 62
     0
 48
50.0
100
AcDbPolyline
 90
        2
 70
     1
 43
0.5
 10
-0.0625
 20
0.0
 42
1.0
 10
0.0625
 20
0.0
 42
1.0
  0
ENDBLK
  5
F776
330
F770
100
AcDbEntity
  8
0
 48
50.0
100
AcDbBlockEnd
  0
BLOCK
  5
13EE6
330
13EE2
100
AcDbEntity
  8
0
100
AcDbBlockBegin
  2
_OPEN
 70
     0
 10
0.0
 20
0.0
 30
0.0
  3
_OPEN
  1

  0
LINE
  5
13EE3
330
13EE2
100
AcDbEntity
  8
0
  6
ByBlock
 62
     0
100
AcDbLine
 10
-1.0
 20
0.1666666666666666
 30
0.0
 11
0.0
 21
0.0
 31
0.0
  0
LINE
  5
13EE4
330
13EE2
100
AcDbEntity
  8
0
  6
ByBlock
 62
     0
100
AcDbLine
 10
0.0
 20
0.0
 30
0.0
 11
-1.0
 21
-0.1666666666666666
 31
0.0
  0
LINE
  5
13EE5
330
13EE2
100
AcDbEntity
  8
0
  6
ByBlock
 62
     0
100
AcDbLine
 10
0.0
 20
0.0
 30
0.0
 11
-1.0
 21
0.0
 31
0.0
  0
ENDBLK
  5
13EE7
330
13EE2
100
AcDbEntity
  8
0
100
AcDbBlockEnd
  0
BLOCK
  5
1BB2A
330
1BA4C
100
AcDbEntity
  8
0
 48
50.0
100
AcDbBlockBegin
  2
*D2
 70
     1
 10
0.0
 20
0.0
 30
0.0
  3
*D2
  1

  0
LINE
  5
1BB2B
330
1BA4C
100
AcDbEntity
  8
0
  6
ByBlock
 62
     0
 48
50.0
100
AcDbLine
 10
6140.64684778468
 20
7677.500852959584
 30
0.0
 11
7041.646847784679
 21
7677.500852959584
 31
0.0
  0
LINE
  5
1BB2C
330
1BA4C
100
AcDbEntity
  8
0
  6
ByBlock
 62
     0
 48
50.0
100
AcDbLine
 10
6140.64684778468
 20
9567.500852959584
 30
0.0
 11
7041.646847784679
 21
9567.500852959584
 31
0.0
  0
LINE
  5
1BB2D
330
1BA4C
100
AcDbEntity
  8
0
  6
ByBlock
 62
     0
 48
50.0
100
AcDbLine
 10
6966.646847784679
 20
7677.500852959584
 30
0.0
 11
6966.646847784679
 21
9567.500852959584
 31
0.0
  0
INSERT
  5
1BB2E
330
1BA4C
100
AcDbEntity
  8
0
  6
ByBlock
 62
     0
 48
50.0
100
AcDbBlockReference
  2
_DOTSMALL
 10
6966.646847784679
 20
7677.500852959584
 30
0.0
 41
125.0
 42
125.0
 43
125.0
 50
270.0
  0
INSERT
  5
1BB2F
330
1BA4C
100
AcDbEntity
  8
0
  6
ByBlock
 62
     0
 48
50.0
100
AcDbBlockReference
  2
_DOTSMALL
 10
6966.646847784679
 20
9567.500852959584
 30
0.0
 41
125.0
 42
125.0
 43
125.0
 50
90.0
  0
MTEXT
  5
1BB30
330
1BA4C
100
AcDbEntity
  8
0
  6
ByBlock
 62
     7
 48
50.0
100
AcDbMText
 10
6866.646847784679
 20
8622.500852959584
 30
0.0
 40
150.0
 41
0.0
 71
     5
 72
     1
  1
\A1;1890
  7
STYLE1
 11
0.0000000000000001
 21
1.0
 31
0.0
 73
     1
 44
1.0
1001
ACAD
1000
MTEXTBEGIN
1070
    73
1070
     1
1070
    44
1040
1.0
1070
    74
1070
     0
1000
MTEXTEND
  0
POINT
  5
1BB31
330
1BA4C
100
AcDbEntity
  8
DEFPOINTS
  6
ByBlock
 62
     0
 48
50.0
100
AcDbPoint
 10
6115.646847784679
 20
7677.500852959584
 30
0.0
  0
POINT
  5
1BB32
330
1BA4C
100
AcDbEntity
  8
DEFPOINTS
  6
ByBlock
 62
     0
 48
50.0
100
AcDbPoint
 10
6115.646847784679
 20
9567.500852959584
 30
0.0
  0
POINT
  5
1BB33
330
1BA4C
100
AcDbEntity
  8
DEFPOINTS
  6
ByBlock
 62
     0
 48
50.0
100
AcDbPoint
 10
6966.646847784679
 20
9567.500852959584
 30
0.0
  0
ENDBLK
  5
1BB34
330
1BA4C
100
AcDbEntity
  8
0
 48
50.0
100
AcDbBlockEnd
  0
BLOCK
  5
1BB35
330
1BA58
100
AcDbEntity
  8
0
 48
50.0
100
AcDbBlockBegin
  2
*D3
 70
     1
 10
0.0
 20
0.0
 30
0.0
  3
*D3
  1

  0
LINE
  5
1BB36
330
1BA58
100
AcDbEntity
  8
0
  6
ByBlock
 62
     0
 48
50.0
100
AcDbLine
 10
6220.646847784679
 20
7742.500852959584
 30
0.0
 11
6720.715071948747
 21
7742.500852959584
 31
0.0
  0
LINE
  5
1BB37
330
1BA58
100
AcDbEntity
  8
0
  6
ByBlock
 62
     0
 48
50.0
100
AcDbLine
 10
6645.715071948747
 20
9502.500852959583
 30
0.0
 11
6645.715071948747
 21
7742.500852959584
 31
0.0
  0
INSERT
  5
1BB38
330
1BA58
100
AcDbEntity
  8
0
  6
ByBlock
 62
     0
 48
50.0
100
AcDbBlockReference
  2
_DOTSMALL
 10
6645.715071948747
 20
9502.500852959583
 30
0.0
 41
125.0
 42
125.0
 43
125.0
 50
90.0
  0
INSERT
  5
1BB39
330
1BA58
100
AcDbEntity
  8
0
  6
ByBlock
 62
     0
 48
50.0
100
AcDbBlockReference
  2
_DOTSMALL
 10
6645.715071948747
 20
7742.500852959584
 30
0.0
 41
125.0
 42
125.0
 43
125.0
 50
270.0
  0
MTEXT
  5
1BB3A
330
1BA58
100
AcDbEntity
  8
0
  6
ByBlock
 62
     7
 48
50.0
100
AcDbMText
 10
6545.715071948747
 20
8622.500852959584
 30
0.0
 40
150.0
 41
0.0
 71
     5
 72
     1
  1
\A1;1760
  7
STYLE1
 11
0.0000000000000001
 21
1.0
 31
0.0
 73
     1
 44
1.0
1001
ACAD
1000
MTEXTBEGIN
1070
    73
1070
     1
1070
    44
1040
1.0
1070
    74
1070
     0
1000
MTEXTEND
  0
POINT
  5
1BB3B
330
1BA58
100
AcDbEntity
  8
DEFPOINTS
  6
ByBlock
 62
     0
 48
50.0
100
AcDbPoint
 10
6195.646847784679
 20
9502.500852959583
 30
0.0
  0
POINT
  5
1BB3C
330
1BA58
100
AcDbEntity
  8
DEFPOINTS
  6
ByBlock
 62
     0
 48
50.0
100
AcDbPoint
 10
6195.646847784679
 20
7742.500852959584
 30
0.0
  0
POINT
  5
1BB3D
330
1BA58
100
AcDbEntity
  8
DEFPOINTS
  6
ByBlock
 62
     0
 48
50.0
100
AcDbPoint
 10
6645.715071948747
 20
7742.500852959584
 30
0.0
  0
ENDBLK
  5
1BB3E
330
1BA58
100
AcDbEntity
  8
0
 48
50.0
100
AcDbBlockEnd
  0
BLOCK
  5
1BBF7
330
1BA63
100
AcDbEntity
  8
0
 48
50.0
100
AcDbBlockBegin
  2
*D4
 70
     1
 10
0.0
 20
0.0
 30
0.0
  3
*D4
  1

  0
LINE
  5
1C823
330
1BA63
100
AcDbEntity
  8
寸法
 62
     0
 48
50.0
370
    -2
100
AcDbLine
 10
9360.414615522321
 20
7602.626937014527
 30
0.0
 11
9677.935241733576
 21
7295.77538279797
 31
0.0
  0
LINE
  5
1C824
330
1BA63
100
AcDbEntity
  8
寸法
 62
     0
 48
50.0
370
    -2
100
AcDbLine
 10
11242.47711552232
 20
9550.12778997411
 30
0.0
 11
11559.99774173357
 21
9243.276235757553
 31
0.0
  0
LINE
  5
1C825
330
1BA63
100
AcDbEntity
  8
寸法
 62
     0
 48
50.0
370
    -2
100
AcDbLine
 10
9624.003895166614
 20
7347.894571754385
 30
0.0
 11
11506.06639516661
 21
9295.395424713968
 31
0.0
  0
INSERT
  5
1C826
330
1BA63
100
AcDbEntity
  8
寸法
 62
     0
 48
50.0
370
    -2
100
AcDbBlockReference
  2
_DOTSMALL
 10
9624.003895166614
 20
7347.894571754385
 30
0.0
 41
125.0
 42
125.0
 43
125.0
 50
225.978956669298
  0
INSERT
  5
1C827
330
1BA63
100
AcDbEntity
  8
寸法
 62
     0
 48
50.0
370
    -2
100
AcDbBlockReference
  2
_DOTSMALL
 10
11506.06639516661
 20
9295.395424713968
 30
0.0
 41
125.0
 42
125.0
 43
125.0
 50
45.97895666929805
  0
MTEXT
  5
1C828
330
1BA63
100
AcDbEntity
  8
寸法
 62
     7
 48
50.0
100
AcDbMText
 10
10500.64552375908
 20
8398.938762329168
 30
0.0
 40
150.0
 41
0.0
 71
     5
 72
     1
  1
\A1;2708.3
  7
STYLE1
 11
0.6949225194188617
 21
0.7190846208928
 31
0.0
 73
     1
 44
1.0
1001
ACAD
1000
MTEXTBEGIN
1070
    73
1070
     1
1070
    44
1040
1.0
1070
    74
1070
     0
1000
MTEXTEND
  0
POINT
  5
1C829
330
1BA63
100
AcDbEntity
  8
DEFPOINTS
 62
     0
 48
50.0
100
AcDbPoint
 10
9342.4375
 20
7619.999999999999
 30
0.0
  0
POINT
  5
1C82A
330
1BA63
100
AcDbEntity
  8
DEFPOINTS
 62
     0
 48
50.0
100
AcDbPoint
 10
11224.5
 20
9567.500852959584
 30
0.0
  0
POINT
  5
1C82B
330
1BA63
100
AcDbEntity
  8
DEFPOINTS
 62
     0
 48
50.0
100
AcDbPoint
 10
11506.06639516661
 20
9295.395424713968
 30
0.0
  0
ENDBLK
  5
1BC01
330
1BA63
100
AcDbEntity
  8
0
 48
50.0
100
AcDbBlockEnd
  0
BLOCK
  5
1BB4A
330
1BA6F
100
AcDbEntity
  8
0
 48
50.0
100
AcDbBlockBegin
  2
*D5
 70
     1
 10
0.0
 20
0.0
 30
0.0
  3
*D5
  1

  0
LINE
  5
1BB4B
330
1BA6F
100
AcDbEntity
  8
0
  6
ByBlock
 62
     0
 48
50.0
100
AcDbLine
 10
4200.646847784677
 20
7677.500852959584
 30
0.0
 11
3399.646847784679
 21
7677.500852959584
 31
0.0
  0
LINE
  5
1BB4C
330
1BA6F
100
AcDbEntity
  8
0
  6
ByBlock
 62
     0
 48
50.0
100
AcDbLine
 10
3474.646847784678
 20
8622.500852959584
 30
0.0
 11
3474.646847784678
 21
7677.500852959584
 31
0.0
  0
INSERT
  5
1BB4D
330
1BA6F
100
AcDbEntity
  8
0
  6
ByBlock
 62
     0
 48
50.0
100
AcDbBlockReference
  2
_DOTSMALL
 10
3474.646847784678
 20
8622.500852959584
 30
0.0
 41
125.0
 42
125.0
 43
125.0
 50
90.0
  0
INSERT
  5
1BB4E
330
1BA6F
100
AcDbEntity
  8
0
  6
ByBlock
 62
     0
 48
50.0
100
AcDbBlockReference
  2
_DOTSMALL
 10
3474.646847784678
 20
7677.500852959584
 30
0.0
 41
125.0
 42
125.0
 43
125.0
 50
270.0
  0
MTEXT
  5
1BB4F
330
1BA6F
100
AcDbEntity
  8
0
  6
ByBlock
 62
     7
 48
50.0
100
AcDbMText
 10
3374.646847784678
 20
8150.000852959584
 30
0.0
 40
150.0
 41
0.0
 71
     5
 72
     1
  1
\A1;945
  7
STYLE1
 11
0.0000000000000001
 21
1.0
 31
0.0
 73
     1
 44
1.0
1001
ACAD
1000
MTEXTBEGIN
1070
    73
1070
     1
1070
    44
1040
1.0
1070
    74
1070
     0
1000
MTEXTEND
  0
POINT
  5
1BB50
330
1BA6F
100
AcDbEntity
  8
DEFPOINTS
  6
ByBlock
 62
     0
 48
50.0
100
AcDbPoint
 10
5025.646847784678
 20
8622.500852959584
 30
0.0
  0
POINT
  5
1BB51
330
1BA6F
100
AcDbEntity
  8
DEFPOINTS
  6
ByBlock
 62
     0
 48
50.0
100
AcDbPoint
 10
4225.64684778468
 20
7677.500852959584
 30
0.0
  0
POINT
  5
1BB52
330
1BA6F
100
AcDbEntity
  8
DEFPOINTS
  6
ByBlock
 62
     0
 48
50.0
100
AcDbPoint
 10
3474.646847784678
 20
7677.500852959584
 30
0.0
  0
ENDBLK
  5
1BB53
330
1BA6F
100
AcDbEntity
  8
0
 48
50.0
100
AcDbBlockEnd
  0
BLOCK
  5
1BB54
330
1BA7A
100
AcDbEntity
  8
0
 48
50.0
100
AcDbBlockBegin
  2
*D6
 70
     1
 10
0.0
 20
0.0
 30
0.0
  3
*D6
  1

  0
LINE
  5
1BB55
330
1BA7A
100
AcDbEntity
  8
0
  6
ByBlock
 62
     0
 48
50.0
100
AcDbLine
 10
6050.64684778468
 20
7572.500852959584
 30
0.0
 11
6050.64684778468
 21
6983.033796714654
 31
0.0
  0
LINE
  5
1BB56
330
1BA7A
100
AcDbEntity
  8
0
  6
ByBlock
 62
     0
 48
50.0
100
AcDbLine
 10
4290.646847784677
 20
7058.033796714655
 30
0.0
 11
6050.64684778468
 21
7058.033796714655
 31
0.0
  0
INSERT
  5
1BB57
330
1BA7A
100
AcDbEntity
  8
0
  6
ByBlock
 62
     0
 48
50.0
100
AcDbBlockReference
  2
_DOTSMALL
 10
4290.646847784677
 20
7058.033796714655
 30
0.0
 41
125.0
 42
125.0
 43
125.0
 50
180.0
  0
INSERT
  5
1BB58
330
1BA7A
100
AcDbEntity
  8
0
  6
ByBlock
 62
     0
 48
50.0
100
AcDbBlockReference
  2
_DOTSMALL
 10
6050.64684778468
 20
7058.033796714655
 30
0.0
 41
125.0
 42
125.0
 43
125.0
  0
MTEXT
  5
1BB59
330
1BA7A
100
AcDbEntity
  8
0
  6
ByBlock
 62
     7
 48
50.0
100
AcDbMText
 10
5170.646847784679
 20
7158.033796714654
 30
0.0
 40
150.0
 41
0.0
 71
     5
 72
     1
  1
\A1;1760
  7
STYLE1
 73
     1
 44
1.0
1001
ACAD
1000
MTEXTBEGIN
1070
    73
1070
     1
1070
    44
1040
1.0
1070
    74
1070
     0
1000
MTEXTEND
  0
POINT
  5
1BB5A
330
1BA7A
100
AcDbEntity
  8
DEFPOINTS
  6
ByBlock
 62
     0
 48
50.0
100
AcDbPoint
 10
4290.646847784677
 20
7597.500852959583
 30
0.0
  0
POINT
  5
1BB5B
330
1BA7A
100
AcDbEntity
  8
DEFPOINTS
  6
ByBlock
 62
     0
 48
50.0
100
AcDbPoint
 10
6050.64684778468
 20
7597.500852959583
 30
0.0
  0
POINT
  5
1BB5C
330
1BA7A
100
AcDbEntity
  8
DEFPOINTS
  6
ByBlock
 62
     0
 48
50.0
100
AcDbPoint
 10
6050.64684778468
 20
7058.033796714655
 30
0.0
  0
ENDBLK
  5
1BB5D
330
1BA7A
100
AcDbEntity
  8
0
 48
50.0
100
AcDbBlockEnd
  0
BLOCK
  5
1BB5E
330
1BA85
100
AcDbEntity
  8
0
 48
50.0
100
AcDbBlockBegin
  2
*D7
 70
     1
 10
0.0
 20
0.0
 30
0.0
  3
*D7
  1

  0
LINE
  5
1C8AF
330
1BA85
100
AcDbEntity
  8
寸法
 62
     0
 48
50.0
370
    -2
100
AcDbLine
 10
9334.5
 20
7587.500852959583
 30
0.0
 11
9334.5
 21
6671.500852959582
 31
0.0
  0
LINE
  5
1C8B0
330
1BA85
100
AcDbEntity
  8
寸法
 62
     0
 48
50.0
370
    -2
100
AcDbLine
 10
11224.5
 20
7587.500852959583
 30
0.0
 11
11224.5
 21
6671.500852959582
 31
0.0
  0
LINE
  5
1C8B1
330
1BA85
100
AcDbEntity
  8
寸法
 62
     0
 48
50.0
370
    -2
100
AcDbLine
 10
9334.5
 20
6746.500852959584
 30
0.0
 11
11224.5
 21
6746.500852959584
 31
0.0
  0
INSERT
  5
1C8B2
330
1BA85
100
AcDbEntity
  8
寸法
 62
     0
 48
50.0
370
    -2
100
AcDbBlockReference
  2
_DOTSMALL
 10
9334.5
 20
6746.500852959584
 30
0.0
 41
125.0
 42
125.0
 43
125.0
 50
180.0
  0
INSERT
  5
1C8B3
330
1BA85
100
AcDbEntity
  8
寸法
 62
     0
 48
50.0
370
    -2
100
AcDbBlockReference
  2
_DOTSMALL
 10
11224.5
 20
6746.500852959584
 30
0.0
 41
125.0
 42
125.0
 43
125.0
  0
MTEXT
  5
1C8B4
330
1BA85
100
AcDbEntity
  8
寸法
 62
     7
 48
50.0
100
AcDbMText
 10
10279.5
 20
6846.500852959582
 30
0.0
 40
150.0
 41
0.0
 71
     5
 72
     1
  1
\A1;1890
  7
STYLE1
 73
     1
 44
1.0
1001
ACAD
1000
MTEXTBEGIN
1070
    73
1070
     1
1070
    44
1040
1.0
1070
    74
1070
     0
1000
MTEXTEND
  0
POINT
  5
1C8B5
330
1BA85
100
AcDbEntity
  8
DEFPOINTS
 62
     0
 48
50.0
100
AcDbPoint
 10
9334.5
 20
7612.500852959583
 30
0.0
  0
POINT
  5
1C8B6
330
1BA85
100
AcDbEntity
  8
DEFPOINTS
 62
     0
 48
50.0
100
AcDbPoint
 10
11224.5
 20
7612.500852959583
 30
0.0
  0
POINT
  5
1C8B7
330
1BA85
100
AcDbEntity
  8
DEFPOINTS
 62
     0
 48
50.0
100
AcDbPoint
 10
11224.5
 20
6746.500852959584
 30
0.0
  0
ENDBLK
  5
1BB68
330
1BA85
100
AcDbEntity
  8
0
 48
50.0
100
AcDbBlockEnd
  0
BLOCK
  5
1BB75
330
1BA9E
100
AcDbEntity
  8
0
 48
50.0
100
AcDbBlockBegin
  2
*D8
 70
     1
 10
0.0
 20
0.0
 30
0.0
  3
*D8
  1

  0
LINE
  5
1C8A5
330
1BA9E
100
AcDbEntity
  8
寸法
 62
     0
 48
50.0
370
    -2
100
AcDbLine
 10
9284.499999999999
 20
7033.033796714654
 30
0.0
 11
9284.499999999999
 21
6671.500852959582
 31
0.0
  0
LINE
  5
1C8A6
330
1BA9E
100
AcDbEntity
  8
寸法
 62
     0
 48
50.0
370
    -2
100
AcDbLine
 10
9334.5
 20
7587.500852959585
 30
0.0
 11
9334.5
 21
6671.500852959582
 31
0.0
  0
LINE
  5
1C8A7
330
1BA9E
100
AcDbEntity
  8
寸法
 62
     0
 48
50.0
370
    -2
100
AcDbLine
 10
9334.5
 20
6746.500852959584
 30
0.0
 11
9284.499999999999
 21
6746.500852959584
 31
0.0
  0
LINE
  5
1C8A8
330
1BA9E
100
AcDbEntity
  8
寸法
 62
     0
 48
50.0
370
    -2
100
AcDbLine
 10
9284.499999999999
 20
6746.500852959584
 30
0.0
 11
8823.618110236221
 21
6746.500852959584
 31
0.0
  0
INSERT
  5
1C8A9
330
1BA9E
100
AcDbEntity
  8
寸法
 62
     0
 48
50.0
370
    -2
100
AcDbBlockReference
  2
_DOTSMALL
 10
9334.5
 20
6746.500852959584
 30
0.0
 41
125.0
 42
125.0
 43
125.0
  0
INSERT
  5
1C8AA
330
1BA9E
100
AcDbEntity
  8
寸法
 62
     0
 48
50.0
370
    -2
100
AcDbBlockReference
  2
_DOTSMALL
 10
9284.499999999999
 20
6746.500852959584
 30
0.0
 41
125.0
 42
125.0
 43
125.0
 50
180.0
  0
MTEXT
  5
1C8AB
330
1BA9E
100
AcDbEntity
  8
寸法
 62
     7
 48
50.0
100
AcDbMText
 10
8991.059055118109
 20
6854.000852959583
 30
0.0
 40
150.0
 41
0.0
 71
     5
 72
     1
  1
\A1;(50)
  7
STYLE1
 73
     1
 44
1.0
1001
ACAD
1000
MTEXTBEGIN
1070
    73
1070
     1
1070
    44
1040
1.0
1070
    74
1070
     0
1000
MTEXTEND
  0
POINT
  5
1C8AC
330
1BA9E
100
AcDbEntity
  8
DEFPOINTS
 62
     0
 48
50.0
100
AcDbPoint
 10
9284.499999999999
 20
7058.033796714655
 30
0.0
  0
POINT
  5
1C8AD
330
1BA9E
100
AcDbEntity
  8
DEFPOINTS
 62
     0
 48
50.0
100
AcDbPoint
 10
9334.5
 20
7612.500852959583
 30
0.0
  0
POINT
  5
1C8AE
330
1BA9E
100
AcDbEntity
  8
DEFPOINTS
 62
     0
 48
50.0
100
AcDbPoint
 10
9334.5
 20
6746.500852959584
 30
0.0
  0
ENDBLK
  5
1BB80
330
1BA9E
100
AcDbEntity
  8
0
 48
50.0
100
AcDbBlockEnd
  0
BLOCK
  5
1BB81
330
1BAAB
100
AcDbEntity
  8
0
 48
50.0
100
AcDbBlockBegin
  2
*D9
 70
     1
 10
0.0
 20
0.0
 30
0.0
  3
*D9
  1

  0
LINE
  5
1C89B
330
1BAAB
100
AcDbEntity
  8
寸法
 62
     0
 48
50.0
370
    -2
100
AcDbLine
 10
9334.5
 20
7587.500852959583
 30
0.0
 11
9334.5
 21
6983.033796714654
 31
0.0
  0
LINE
  5
1C89C
330
1BAAB
100
AcDbEntity
  8
寸法
 62
     0
 48
50.0
370
    -2
100
AcDbLine
 10
9399.500000000001
 20
7572.500852959584
 30
0.0
 11
9399.500000000001
 21
6983.033796714654
 31
0.0
  0
LINE
  5
1C89D
330
1BAAB
100
AcDbEntity
  8
寸法
 62
     0
 48
50.0
370
    -2
100
AcDbLine
 10
9399.500000000001
 20
7058.033796714655
 30
0.0
 11
9334.5
 21
7058.033796714655
 31
0.0
  0
LINE
  5
1C89E
330
1BAAB
100
AcDbEntity
  8
寸法
 62
     0
 48
50.0
370
    -2
100
AcDbLine
 10
9334.5
 20
7058.033796714655
 30
0.0
 11
8979.310418611644
 21
7058.033796714655
 31
0.0
  0
INSERT
  5
1C89F
330
1BAAB
100
AcDbEntity
  8
寸法
 62
     0
 48
50.0
370
    -2
100
AcDbBlockReference
  2
_DOTSMALL
 10
9399.500000000001
 20
7058.033796714655
 30
0.0
 41
125.0
 42
125.0
 43
125.0
  0
INSERT
  5
1C8A0
330
1BAAB
100
AcDbEntity
  8
寸法
 62
     0
 48
50.0
370
    -2
100
AcDbBlockReference
  2
_DOTSMALL
 10
9334.5
 20
7058.033796714655
 30
0.0
 41
125.0
 42
125.0
 43
125.0
 50
180.0
  0
MTEXT
  5
1C8A1
330
1BAAB
100
AcDbEntity
  8
寸法
 62
     7
 48
50.0
100
AcDbMText
 10
9094.405209305824
 20
7158.033796714654
 30
0.0
 40
150.0
 41
0.0
 71
     5
 72
     1
  1
\A1;65
  7
STYLE1
 73
     1
 44
1.0
1001
ACAD
1000
MTEXTBEGIN
1070
    73
1070
     1
1070
    44
1040
1.0
1070
    74
1070
     0
1000
MTEXTEND
  0
POINT
  5
1C8A2
330
1BAAB
100
AcDbEntity
  8
DEFPOINTS
 62
     0
 48
50.0
100
AcDbPoint
 10
9334.5
 20
7612.500852959583
 30
0.0
  0
POINT
  5
1C8A3
330
1BAAB
100
AcDbEntity
  8
DEFPOINTS
 62
     0
 48
50.0
100
AcDbPoint
 10
9399.500000000001
 20
7597.500852959583
 30
0.0
  0
POINT
  5
1C8A4
330
1BAAB
100
AcDbEntity
  8
DEFPOINTS
 62
     0
 48
50.0
100
AcDbPoint
 10
9399.500000000001
 20
7058.033796714655
 30
0.0
  0
ENDBLK
  5
1BB8C
330
1BAAB
100
AcDbEntity
  8
0
 48
50.0
100
AcDbBlockEnd
  0
BLOCK
  5
1BB8D
330
1BAB8
100
AcDbEntity
  8
0
 48
50.0
100
AcDbBlockBegin
  2
*D10
 70
     1
 10
0.0
 20
0.0
 30
0.0
  3
*D10
  1

  0
LINE
  5
1BB8E
330
1BAB8
100
AcDbEntity
  8
0
  6
ByBlock
 62
     0
 48
50.0
100
AcDbLine
 10
6140.64684778468
 20
7677.500852959584
 30
0.0
 11
7041.64684778468
 21
7677.500852959584
 31
0.0
  0
LINE
  5
1BB8F
330
1BAB8
100
AcDbEntity
  8
0
  6
ByBlock
 62
     0
 48
50.0
100
AcDbLine
 10
6670.715071948747
 20
7547.500852959584
 30
0.0
 11
7041.64684778468
 21
7547.500852959584
 31
0.0
  0
LINE
  5
1BB90
330
1BAB8
100
AcDbEntity
  8
0
  6
ByBlock
 62
     0
 48
50.0
100
AcDbLine
 10
6966.64684778468
 20
7677.500852959584
 30
0.0
 11
6966.64684778468
 21
7547.500852959584
 31
0.0
  0
LINE
  5
1BB91
330
1BAB8
100
AcDbEntity
  8
0
  6
ByBlock
 62
     0
 48
50.0
100
AcDbLine
 10
6966.64684778468
 20
7547.500852959584
 30
0.0
 11
6966.646847784679
 21
7011.618963195804
 31
0.0
  0
INSERT
  5
1BB92
330
1BAB8
100
AcDbEntity
  8
0
  6
ByBlock
 62
     0
 48
50.0
100
AcDbBlockReference
  2
_DOTSMALL
 10
6966.64684778468
 20
7677.500852959584
 30
0.0
 41
125.0
 42
125.0
 43
125.0
 50
90.0
  0
INSERT
  5
1BB93
330
1BAB8
100
AcDbEntity
  8
0
  6
ByBlock
 62
     0
 48
50.0
100
AcDbBlockReference
  2
_DOTSMALL
 10
6966.64684778468
 20
7547.500852959584
 30
0.0
 41
125.0
 42
125.0
 43
125.0
 50
270.0
  0
MTEXT
  5
1BB94
330
1BAB8
100
AcDbEntity
  8
0
  6
ByBlock
 62
     7
 48
50.0
100
AcDbMText
 10
6859.146847784677
 20
7216.559908077694
 30
0.0
 40
150.0
 41
0.0
 71
     5
 72
     1
  1
\A1;(130)
  7
STYLE1
 11
0.0000000000000001
 21
1.0
 31
0.0
 73
     1
 44
1.0
1001
ACAD
1000
MTEXTBEGIN
1070
    73
1070
     1
1070
    44
1040
1.0
1070
    74
1070
     0
1000
MTEXTEND
  0
POINT
  5
1BB95
330
1BAB8
100
AcDbEntity
  8
DEFPOINTS
  6
ByBlock
 62
     0
 48
50.0
100
AcDbPoint
 10
6115.646847784679
 20
7677.500852959584
 30
0.0
  0
POINT
  5
1BB96
330
1BAB8
100
AcDbEntity
  8
DEFPOINTS
  6
ByBlock
 62
     0
 48
50.0
100
AcDbPoint
 10
6645.715071948747
 20
7547.500852959584
 30
0.0
  0
POINT
  5
1BB97
330
1BAB8
100
AcDbEntity
  8
DEFPOINTS
  6
ByBlock
 62
     0
 48
50.0
100
AcDbPoint
 10
6966.64684778468
 20
7547.500852959584
 30
0.0
  0
ENDBLK
  5
1BB98
330
1BAB8
100
AcDbEntity
  8
0
 48
50.0
100
AcDbBlockEnd
  0
BLOCK
  5
1BB99
330
1BAC5
100
AcDbEntity
  8
0
 48
50.0
100
AcDbBlockBegin
  2
*D11
 70
     1
 10
0.0
 20
0.0
 30
0.0
  3
*D11
  1

  0
LINE
  5
1BB9A
330
1BAC5
100
AcDbEntity
  8
0
  6
ByBlock
 62
     0
 48
50.0
100
AcDbLine
 10
6220.646847784679
 20
7742.500852959584
 30
0.0
 11
6720.715071948747
 21
7742.500852959584
 31
0.0
  0
LINE
  5
1BB9B
330
1BAC5
100
AcDbEntity
  8
0
  6
ByBlock
 62
     0
 48
50.0
100
AcDbLine
 10
6140.64684778468
 20
7677.500852959584
 30
0.0
 11
6720.715071948747
 21
7677.500852959584
 31
0.0
  0
LINE
  5
1BB9C
330
1BAC5
100
AcDbEntity
  8
0
  6
ByBlock
 62
     0
 48
50.0
100
AcDbLine
 10
6645.715071948747
 20
7742.500852959584
 30
0.0
 11
6645.715071948747
 21
7677.500852959584
 31
0.0
  0
LINE
  5
1BB9D
330
1BAC5
100
AcDbEntity
  8
0
  6
ByBlock
 62
     0
 48
50.0
100
AcDbLine
 10
6645.715071948747
 20
7677.500852959584
 30
0.0
 11
6645.715071948746
 21
7322.311271571232
 31
0.0
  0
INSERT
  5
1BB9E
330
1BAC5
100
AcDbEntity
  8
0
  6
ByBlock
 62
     0
 48
50.0
100
AcDbBlockReference
  2
_DOTSMALL
 10
6645.715071948747
 20
7742.500852959584
 30
0.0
 41
125.0
 42
125.0
 43
125.0
 50
90.0
  0
INSERT
  5
1BB9F
330
1BAC5
100
AcDbEntity
  8
0
  6
ByBlock
 62
     0
 48
50.0
100
AcDbBlockReference
  2
_DOTSMALL
 10
6645.715071948747
 20
7677.500852959584
 30
0.0
 41
125.0
 42
125.0
 43
125.0
 50
270.0
  0
MTEXT
  5
1BBA0
330
1BAC5
100
AcDbEntity
  8
0
  6
ByBlock
 62
     7
 48
50.0
100
AcDbMText
 10
6545.715071948747
 20
7437.406062265407
 30
0.0
 40
150.0
 41
0.0
 71
     5
 72
     1
  1
\A1;65
  7
STYLE1
 11
0.0000000000000001
 21
1.0
 31
0.0
 73
     1
 44
1.0
1001
ACAD
1000
MTEXTBEGIN
1070
    73
1070
     1
1070
    44
1040
1.0
1070
    74
1070
     0
1000
MTEXTEND
  0
POINT
  5
1BBA1
330
1BAC5
100
AcDbEntity
  8
DEFPOINTS
  6
ByBlock
 62
     0
 48
50.0
100
AcDbPoint
 10
6195.646847784679
 20
7742.500852959584
 30
0.0
  0
POINT
  5
1BBA2
330
1BAC5
100
AcDbEntity
  8
DEFPOINTS
  6
ByBlock
 62
     0
 48
50.0
100
AcDbPoint
 10
6115.646847784679
 20
7677.500852959584
 30
0.0
  0
POINT
  5
1BBA3
330
1BAC5
100
AcDbEntity
  8
DEFPOINTS
  6
ByBlock
 62
     0
 48
50.0
100
AcDbPoint
 10
6645.715071948747
 20
7677.500852959584
 30
0.0
  0
ENDBLK
  5
1BBA4
330
1BAC5
100
AcDbEntity
  8
0
 48
50.0
100
AcDbBlockEnd
  0
BLOCK
  5
1BBA5
330
1BAD2
100
AcDbEntity
  8
0
 48
50.0
100
AcDbBlockBegin
  2
*D12
 70
     1
 10
0.0
 20
0.0
 30
0.0
  3
*D12
  1

  0
LINE
  5
1C8C2
330
1BAD2
100
AcDbEntity
  8
寸法
 62
     0
 48
50.0
370
    -2
100
AcDbLine
 10
11224.5
 20
7587.500852959585
 30
0.0
 11
11224.5
 21
6671.500852959582
 31
0.0
  0
LINE
  5
1C8C3
330
1BAD2
100
AcDbEntity
  8
寸法
 62
     0
 48
50.0
370
    -2
100
AcDbLine
 10
11274.5
 20
7033.033796714654
 30
0.0
 11
11274.5
 21
6671.500852959582
 31
0.0
  0
LINE
  5
1C8C4
330
1BAD2
100
AcDbEntity
  8
寸法
 62
     0
 48
50.0
370
    -2
100
AcDbLine
 10
11224.5
 20
6746.500852959584
 30
0.0
 11
11274.5
 21
6746.500852959584
 31
0.0
  0
LINE
  5
1C8C5
330
1BAD2
100
AcDbEntity
  8
寸法
 62
     0
 48
50.0
370
    -2
100
AcDbLine
 10
11274.5
 20
6746.500852959584
 30
0.0
 11
11734.38188976378
 21
6746.500852959584
 31
0.0
  0
INSERT
  5
1C8C6
330
1BAD2
100
AcDbEntity
  8
寸法
 62
     0
 48
50.0
370
    -2
100
AcDbBlockReference
  2
_DOTSMALL
 10
11224.5
 20
6746.500852959584
 30
0.0
 41
125.0
 42
125.0
 43
125.0
 50
180.0
  0
INSERT
  5
1C8C7
330
1BAD2
100
AcDbEntity
  8
寸法
 62
     0
 48
50.0
370
    -2
100
AcDbBlockReference
  2
_DOTSMALL
 10
11274.5
 20
6746.500852959584
 30
0.0
 41
125.0
 42
125.0
 43
125.0
  0
MTEXT
  5
1C8C8
330
1BAD2
100
AcDbEntity
  8
寸法
 62
     7
 48
50.0
100
AcDbMText
 10
11566.94094488189
 20
6854.000852959583
 30
0.0
 40
150.0
 41
0.0
 71
     5
 72
     1
  1
\A1;(50)
  7
STYLE1
 73
     1
 44
1.0
1001
ACAD
1000
MTEXTBEGIN
1070
    73
1070
     1
1070
    44
1040
1.0
1070
    74
1070
     0
1000
MTEXTEND
  0
POINT
  5
1C8C9
330
1BAD2
100
AcDbEntity
  8
DEFPOINTS
 62
     0
 48
50.0
100
AcDbPoint
 10
11224.5
 20
7612.500852959583
 30
0.0
  0
POINT
  5
1C8CA
330
1BAD2
100
AcDbEntity
  8
DEFPOINTS
 62
     0
 48
50.0
100
AcDbPoint
 10
11274.5
 20
7058.033796714655
 30
0.0
  0
POINT
  5
1C8CB
330
1BAD2
100
AcDbEntity
  8
DEFPOINTS
 62
     0
 48
50.0
100
AcDbPoint
 10
11274.5
 20
6746.500852959584
 30
0.0
  0
ENDBLK
  5
1BBB0
330
1BAD2
100
AcDbEntity
  8
0
 48
50.0
100
AcDbBlockEnd
  0
BLOCK
  5
1BBB1
330
1BADF
100
AcDbEntity
  8
0
 48
50.0
100
AcDbBlockBegin
  2
*D13
 70
     1
 10
0.0
 20
0.0
 30
0.0
  3
*D13
  1

  0
LINE
  5
1C8B8
330
1BADF
100
AcDbEntity
  8
寸法
 62
     0
 48
50.0
370
    -2
100
AcDbLine
 10
11159.5
 20
7572.500852959584
 30
0.0
 11
11159.5
 21
6983.033796714654
 31
0.0
  0
LINE
  5
1C8B9
330
1BADF
100
AcDbEntity
  8
寸法
 62
     0
 48
50.0
370
    -2
100
AcDbLine
 10
11224.5
 20
7587.500852959585
 30
0.0
 11
11224.5
 21
6983.033796714654
 31
0.0
  0
LINE
  5
1C8BA
330
1BADF
100
AcDbEntity
  8
寸法
 62
     0
 48
50.0
370
    -2
100
AcDbLine
 10
11159.5
 20
7058.033796714655
 30
0.0
 11
11224.5
 21
7058.033796714655
 31
0.0
  0
LINE
  5
1C8BB
330
1BADF
100
AcDbEntity
  8
寸法
 62
     0
 48
50.0
370
    -2
100
AcDbLine
 10
11224.5
 20
7058.033796714655
 30
0.0
 11
11579.68958138835
 21
7058.033796714655
 31
0.0
  0
INSERT
  5
1C8BC
330
1BADF
100
AcDbEntity
  8
寸法
 62
     0
 48
50.0
370
    -2
100
AcDbBlockReference
  2
_DOTSMALL
 10
11159.5
 20
7058.033796714655
 30
0.0
 41
125.0
 42
125.0
 43
125.0
 50
180.0
  0
INSERT
  5
1C8BD
330
1BADF
100
AcDbEntity
  8
寸法
 62
     0
 48
50.0
370
    -2
100
AcDbBlockReference
  2
_DOTSMALL
 10
11224.5
 20
7058.033796714655
 30
0.0
 41
125.0
 42
125.0
 43
125.0
  0
MTEXT
  5
1C8BE
330
1BADF
100
AcDbEntity
  8
寸法
 62
     7
 48
50.0
100
AcDbMText
 10
11464.59479069418
 20
7158.033796714654
 30
0.0
 40
150.0
 41
0.0
 71
     5
 72
     1
  1
\A1;65
  7
STYLE1
 73
     1
 44
1.0
1001
ACAD
1000
MTEXTBEGIN
1070
    73
1070
     1
1070
    44
1040
1.0
1070
    74
1070
     0
1000
MTEXTEND
  0
POINT
  5
1C8BF
330
1BADF
100
AcDbEntity
  8
DEFPOINTS
 62
     0
 48
50.0
100
AcDbPoint
 10
11159.5
 20
7597.500852959583
 30
0.0
  0
POINT
  5
1C8C0
330
1BADF
100
AcDbEntity
  8
DEFPOINTS
 62
     0
 48
50.0
100
AcDbPoint
 10
11224.5
 20
7612.500852959583
 30
0.0
  0
POINT
  5
1C8C1
330
1BADF
100
AcDbEntity
  8
DEFPOINTS
 62
     0
 48
50.0
100
AcDbPoint
 10
11224.5
 20
7058.033796714655
 30
0.0
  0
ENDBLK
  5
1BBBC
330
1BADF
100
AcDbEntity
  8
0
 48
50.0
100
AcDbBlockEnd
  0
BLOCK
  5
1BBBD
330
1BAEC
100
AcDbEntity
  8
0
 48
50.0
100
AcDbBlockBegin
  2
*D14
 70
     1
 10
0.0
 20
0.0
 30
0.0
  3
*D14
  1

  0
LINE
  5
1BBBE
330
1BAEC
100
AcDbEntity
  8
0
  6
ByBlock
 62
     0
 48
50.0
100
AcDbLine
 10
4225.64684778468
 20
9592.500852959584
 30
0.0
 11
4225.64684778468
 21
10274.76400268976
 31
0.0
  0
LINE
  5
1BBBF
330
1BAEC
100
AcDbEntity
  8
0
  6
ByBlock
 62
     0
 48
50.0
100
AcDbLine
 10
5170.646847784677
 20
8792.500852959584
 30
0.0
 11
5170.646847784677
 21
10274.76400268976
 31
0.0
  0
LINE
  5
1BBC0
330
1BAEC
100
AcDbEntity
  8
0
  6
ByBlock
 62
     0
 48
50.0
100
AcDbLine
 10
4225.64684778468
 20
10199.76400268976
 30
0.0
 11
5170.646847784677
 21
10199.76400268976
 31
0.0
  0
INSERT
  5
1BBC1
330
1BAEC
100
AcDbEntity
  8
0
  6
ByBlock
 62
     0
 48
50.0
100
AcDbBlockReference
  2
_DOTSMALL
 10
4225.64684778468
 20
10199.76400268976
 30
0.0
 41
125.0
 42
125.0
 43
125.0
 50
180.0
  0
INSERT
  5
1BBC2
330
1BAEC
100
AcDbEntity
  8
0
  6
ByBlock
 62
     0
 48
50.0
100
AcDbBlockReference
  2
_DOTSMALL
 10
5170.646847784677
 20
10199.76400268976
 30
0.0
 41
125.0
 42
125.0
 43
125.0
  0
MTEXT
  5
1BBC3
330
1BAEC
100
AcDbEntity
  8
0
  6
ByBlock
 62
     7
 48
50.0
100
AcDbMText
 10
4698.146847784677
 20
10299.76400268976
 30
0.0
 40
150.0
 41
0.0
 71
     5
 72
     1
  1
\A1;945
  7
STYLE1
 73
     1
 44
1.0
1001
ACAD
1000
MTEXTBEGIN
1070
    73
1070
     1
1070
    44
1040
1.0
1070
    74
1070
     0
1000
MTEXTEND
  0
POINT
  5
1BBC4
330
1BAEC
100
AcDbEntity
  8
DEFPOINTS
  6
ByBlock
 62
     0
 48
50.0
100
AcDbPoint
 10
4225.64684778468
 20
9567.500852959584
 30
0.0
  0
POINT
  5
1BBC5
330
1BAEC
100
AcDbEntity
  8
DEFPOINTS
  6
ByBlock
 62
     0
 48
50.0
100
AcDbPoint
 10
5170.646847784677
 20
8767.500852959583
 30
0.0
  0
POINT
  5
1BBC6
330
1BAEC
100
AcDbEntity
  8
DEFPOINTS
  6
ByBlock
 62
     0
 48
50.0
100
AcDbPoint
 10
5170.646847784677
 20
10199.76400268976
 30
0.0
  0
ENDBLK
  5
1BBC7
330
1BAEC
100
AcDbEntity
  8
0
 48
50.0
100
AcDbBlockEnd
  0
BLOCK
  5
1BBC8
330
1BAF8
100
AcDbEntity
  8
0
 48
50.0
100
AcDbBlockBegin
  2
*D15
 70
     1
 10
0.0
 20
0.0
 30
0.0
  3
*D15
  1

  0
LINE
  5
1BBC9
330
1BAF8
100
AcDbEntity
  8
0
  6
ByBlock
 62
     0
 48
50.0
100
AcDbLine
 10
4200.646847784677
 20
9567.500852959584
 30
0.0
 11
3399.646847784679
 21
9567.500852959584
 31
0.0
  0
LINE
  5
1BBCA
330
1BAF8
100
AcDbEntity
  8
0
  6
ByBlock
 62
     0
 48
50.0
100
AcDbLine
 10
5000.646847784679
 20
8622.500852959584
 30
0.0
 11
3399.646847784679
 21
8622.500852959584
 31
0.0
  0
LINE
  5
1BBCB
330
1BAF8
100
AcDbEntity
  8
0
  6
ByBlock
 62
     0
 48
50.0
100
AcDbLine
 10
3474.646847784678
 20
9567.500852959584
 30
0.0
 11
3474.646847784678
 21
8622.500852959584
 31
0.0
  0
INSERT
  5
1BBCC
330
1BAF8
100
AcDbEntity
  8
0
  6
ByBlock
 62
     0
 48
50.0
100
AcDbBlockReference
  2
_DOTSMALL
 10
3474.646847784678
 20
9567.500852959584
 30
0.0
 41
125.0
 42
125.0
 43
125.0
 50
90.0
  0
INSERT
  5
1BBCD
330
1BAF8
100
AcDbEntity
  8
0
  6
ByBlock
 62
     0
 48
50.0
100
AcDbBlockReference
  2
_DOTSMALL
 10
3474.646847784678
 20
8622.500852959584
 30
0.0
 41
125.0
 42
125.0
 43
125.0
 50
270.0
  0
MTEXT
  5
1BBCE
330
1BAF8
100
AcDbEntity
  8
0
  6
ByBlock
 62
     7
 48
50.0
100
AcDbMText
 10
3374.646847784678
 20
9095.000852959584
 30
0.0
 40
150.0
 41
0.0
 71
     5
 72
     1
  1
\A1;945
  7
STYLE1
 11
0.0000000000000001
 21
1.0
 31
0.0
 73
     1
 44
1.0
1001
ACAD
1000
MTEXTBEGIN
1070
    73
1070
     1
1070
    44
1040
1.0
1070
    74
1070
     0
1000
MTEXTEND
  0
POINT
  5
1BBCF
330
1BAF8
100
AcDbEntity
  8
DEFPOINTS
  6
ByBlock
 62
     0
 48
50.0
100
AcDbPoint
 10
4225.64684778468
 20
9567.500852959584
 30
0.0
  0
POINT
  5
1BBD0
330
1BAF8
100
AcDbEntity
  8
DEFPOINTS
  6
ByBlock
 62
     0
 48
50.0
100
AcDbPoint
 10
5025.646847784678
 20
8622.500852959584
 30
0.0
  0
POINT
  5
1BBD1
330
1BAF8
100
AcDbEntity
  8
DEFPOINTS
  6
ByBlock
 62
     0
 48
50.0
100
AcDbPoint
 10
3474.646847784678
 20
8622.500852959584
 30
0.0
  0
ENDBLK
  5
1BBD2
330
1BAF8
100
AcDbEntity
  8
0
 48
50.0
100
AcDbBlockEnd
  0
BLOCK
  5
1BBD3
330
1BB04
100
AcDbEntity
  8
0
 48
50.0
100
AcDbBlockBegin
  2
*D16
 70
     1
 10
0.0
 20
0.0
 30
0.0
  3
*D16
  1

  0
LINE
  5
1BBD4
330
1BB04
100
AcDbEntity
  8
0
  6
ByBlock
 62
     0
 48
50.0
100
AcDbLine
 10
5170.646847784677
 20
8792.500852959584
 30
0.0
 11
5170.646847784677
 21
10274.76400268976
 31
0.0
  0
LINE
  5
1BBD5
330
1BB04
100
AcDbEntity
  8
0
  6
ByBlock
 62
     0
 48
50.0
100
AcDbLine
 10
6115.646847784679
 20
9592.500852959584
 30
0.0
 11
6115.646847784679
 21
10274.76400268976
 31
0.0
  0
LINE
  5
1BBD6
330
1BB04
100
AcDbEntity
  8
0
  6
ByBlock
 62
     0
 48
50.0
100
AcDbLine
 10
5170.646847784677
 20
10199.76400268976
 30
0.0
 11
6115.646847784679
 21
10199.76400268976
 31
0.0
  0
INSERT
  5
1BBD7
330
1BB04
100
AcDbEntity
  8
0
  6
ByBlock
 62
     0
 48
50.0
100
AcDbBlockReference
  2
_DOTSMALL
 10
5170.646847784677
 20
10199.76400268976
 30
0.0
 41
125.0
 42
125.0
 43
125.0
 50
180.0
  0
INSERT
  5
1BBD8
330
1BB04
100
AcDbEntity
  8
0
  6
ByBlock
 62
     0
 48
50.0
100
AcDbBlockReference
  2
_DOTSMALL
 10
6115.646847784679
 20
10199.76400268976
 30
0.0
 41
125.0
 42
125.0
 43
125.0
  0
MTEXT
  5
1BBD9
330
1BB04
100
AcDbEntity
  8
0
  6
ByBlock
 62
     7
 48
50.0
100
AcDbMText
 10
5643.146847784679
 20
10299.76400268976
 30
0.0
 40
150.0
 41
0.0
 71
     5
 72
     1
  1
\A1;945
  7
STYLE1
 73
     1
 44
1.0
1001
ACAD
1000
MTEXTBEGIN
1070
    73
1070
     1
1070
    44
1040
1.0
1070
    74
1070
     0
1000
MTEXTEND
  0
POINT
  5
1BBDA
330
1BB04
100
AcDbEntity
  8
DEFPOINTS
  6
ByBlock
 62
     0
 48
50.0
100
AcDbPoint
 10
5170.646847784677
 20
8767.500852959583
 30
0.0
  0
POINT
  5
1BBDB
330
1BB04
100
AcDbEntity
  8
DEFPOINTS
  6
ByBlock
 62
     0
 48
50.0
100
AcDbPoint
 10
6115.646847784679
 20
9567.500852959584
 30
0.0
  0
POINT
  5
1BBDC
330
1BB04
100
AcDbEntity
  8
DEFPOINTS
  6
ByBlock
 62
     0
 48
50.0
100
AcDbPoint
 10
6115.646847784679
 20
10199.76400268976
 30
0.0
  0
ENDBLK
  5
1BBDD
330
1BB04
100
AcDbEntity
  8
0
 48
50.0
100
AcDbBlockEnd
  0
BLOCK
  5
1BBDE
330
1BB10
100
AcDbEntity
  8
0
 48
50.0
100
AcDbBlockBegin
  2
*D17
 70
     1
 10
0.0
 20
0.0
 30
0.0
  3
*D17
  1

  0
LINE
  5
1BBDF
330
1BB10
100
AcDbEntity
  8
0
  6
ByBlock
 62
     0
 48
50.0
100
AcDbLine
 10
6140.64684778468
 20
9567.500852959584
 30
0.0
 11
7041.646847784679
 21
9567.500852959584
 31
0.0
  0
LINE
  5
1BBE0
330
1BB10
100
AcDbEntity
  8
0
  6
ByBlock
 62
     0
 48
50.0
100
AcDbLine
 10
6670.715071948747
 20
9657.500852959584
 30
0.0
 11
7041.646847784679
 21
9657.500852959584
 31
0.0
  0
LINE
  5
1BBE1
330
1BB10
100
AcDbEntity
  8
0
  6
ByBlock
 62
     0
 48
50.0
100
AcDbLine
 10
6966.646847784679
 20
9567.500852959584
 30
0.0
 11
6966.646847784679
 21
9657.500852959584
 31
0.0
  0
LINE
  5
1BBE2
330
1BB10
100
AcDbEntity
  8
0
  6
ByBlock
 62
     0
 48
50.0
100
AcDbLine
 10
6966.646847784679
 20
9657.500852959584
 30
0.0
 11
6966.646847784679
 21
10118.9068922975
 31
0.0
  0
INSERT
  5
1BBE3
330
1BB10
100
AcDbEntity
  8
0
  6
ByBlock
 62
     0
 48
50.0
100
AcDbBlockReference
  2
_DOTSMALL
 10
6966.646847784679
 20
9567.500852959584
 30
0.0
 41
125.0
 42
125.0
 43
125.0
 50
270.0
  0
INSERT
  5
1BBE4
330
1BB10
100
AcDbEntity
  8
0
  6
ByBlock
 62
     0
 48
50.0
100
AcDbBlockReference
  2
_DOTSMALL
 10
6966.646847784679
 20
9657.500852959584
 30
0.0
 41
125.0
 42
125.0
 43
125.0
 50
90.0
  0
MTEXT
  5
1BBE5
330
1BB10
100
AcDbEntity
  8
0
  6
ByBlock
 62
     7
 48
50.0
100
AcDbMText
 10
6859.110595858202
 20
9951.203872628546
 30
0.0
 40
150.0
 41
0.0
 71
     5
 72
     1
  1
\A1;(90)
  7
STYLE1
 11
0.0000000000000001
 21
1.0
 31
0.0
 73
     1
 44
1.0
1001
ACAD
1000
MTEXTBEGIN
1070
    73
1070
     1
1070
    44
1040
1.0
1070
    74
1070
     0
1000
MTEXTEND
  0
POINT
  5
1BBE6
330
1BB10
100
AcDbEntity
  8
DEFPOINTS
  6
ByBlock
 62
     0
 48
50.0
100
AcDbPoint
 10
6115.646847784679
 20
9567.500852959584
 30
0.0
  0
POINT
  5
1BBE7
330
1BB10
100
AcDbEntity
  8
DEFPOINTS
  6
ByBlock
 62
     0
 48
50.0
100
AcDbPoint
 10
6645.715071948747
 20
9657.500852959584
 30
0.0
  0
POINT
  5
1BBE8
330
1BB10
100
AcDbEntity
  8
DEFPOINTS
  6
ByBlock
 62
     0
 48
50.0
100
AcDbPoint
 10
6966.646847784679
 20
9657.500852959584
 30
0.0
  0
ENDBLK
  5
1BBE9
330
1BB10
100
AcDbEntity
  8
0
 48
50.0
100
AcDbBlockEnd
  0
BLOCK
  5
1BBEA
330
1BB1D
100
AcDbEntity
  8
0
 48
50.0
100
AcDbBlockBegin
  2
*D18
 70
     1
 10
0.0
 20
0.0
 30
0.0
  3
*D18
  1

  0
LINE
  5
1BBEB
330
1BB1D
100
AcDbEntity
  8
0
  6
ByBlock
 62
     0
 48
50.0
100
AcDbLine
 10
6140.64684778468
 20
9567.500852959584
 30
0.0
 11
6720.715071948747
 21
9567.500852959584
 31
0.0
  0
LINE
  5
1BBEC
330
1BB1D
100
AcDbEntity
  8
0
  6
ByBlock
 62
     0
 48
50.0
100
AcDbLine
 10
6220.646847784679
 20
9502.500852959583
 30
0.0
 11
6720.715071948747
 21
9502.500852959583
 31
0.0
  0
LINE
  5
1BBED
330
1BB1D
100
AcDbEntity
  8
0
  6
ByBlock
 62
     0
 48
50.0
100
AcDbLine
 10
6645.715071948747
 20
9502.500852959583
 30
0.0
 11
6645.715071948747
 21
9567.500852959584
 31
0.0
  0
LINE
  5
1BBEE
330
1BB1D
100
AcDbEntity
  8
0
  6
ByBlock
 62
     0
 48
50.0
100
AcDbLine
 10
6645.715071948747
 20
9567.500852959584
 30
0.0
 11
6645.715071948747
 21
9922.690434347936
 31
0.0
  0
INSERT
  5
1BBEF
330
1BB1D
100
AcDbEntity
  8
0
  6
ByBlock
 62
     0
 48
50.0
100
AcDbBlockReference
  2
_DOTSMALL
 10
6645.715071948747
 20
9502.500852959583
 30
0.0
 41
125.0
 42
125.0
 43
125.0
 50
270.0
  0
INSERT
  5
1BBF0
330
1BB1D
100
AcDbEntity
  8
0
  6
ByBlock
 62
     0
 48
50.0
100
AcDbBlockReference
  2
_DOTSMALL
 10
6645.715071948747
 20
9567.500852959584
 30
0.0
 41
125.0
 42
125.0
 43
125.0
 50
90.0
  0
MTEXT
  5
1BBF1
330
1BB1D
100
AcDbEntity
  8
0
  6
ByBlock
 62
     7
 48
50.0
100
AcDbMText
 10
6545.715071948747
 20
9807.59564365376
 30
0.0
 40
150.0
 41
0.0
 71
     5
 72
     1
  1
\A1;65
  7
STYLE1
 11
0.0000000000000001
 21
1.0
 31
0.0
 73
     1
 44
1.0
1001
ACAD
1000
MTEXTBEGIN
1070
    73
1070
     1
1070
    44
1040
1.0
1070
    74
1070
     0
1000
MTEXTEND
  0
POINT
  5
1BBF2
330
1BB1D
100
AcDbEntity
  8
DEFPOINTS
  6
ByBlock
 62
     0
 48
50.0
100
AcDbPoint
 10
6115.646847784679
 20
9567.500852959584
 30
0.0
  0
POINT
  5
1BBF3
330
1BB1D
100
AcDbEntity
  8
DEFPOINTS
  6
ByBlock
 62
     0
 48
50.0
100
AcDbPoint
 10
6195.646847784679
 20
9502.500852959583
 30
0.0
  0
POINT
  5
1BBF4
330
1BB1D
100
AcDbEntity
  8
DEFPOINTS
  6
ByBlock
 62
     0
 48
50.0
100
AcDbPoint
 10
6645.715071948747
 20
9502.500852959583
 30
0.0
  0
ENDBLK
  5
1BBF5
330
1BB1D
100
AcDbEntity
  8
0
 48
50.0
100
AcDbBlockEnd
  0
BLOCK
  5
1C3EE
330
1C3E3
100
AcDbEntity
  8
0
 48
50.0
100
AcDbBlockBegin
  2
*D19
 70
     1
 10
0.0
 20
0.0
 30
0.0
  3
*D19
  1

  0
LINE
  5
1C41B
330
1C3E3
100
AcDbEntity
  8
寸法
 62
     0
 48
50.0
370
    -2
100
AcDbLine
 10
11104.5
 20
8079.458806993635
 30
0.0
 11
11104.5
 21
8003.459057446937
 31
0.0
  0
LINE
  5
1C41C
330
1C3E3
100
AcDbEntity
  8
寸法
 62
     0
 48
50.0
370
    -2
100
AcDbLine
 10
11224.5
 20
8079.458806993635
 30
0.0
 11
11224.5
 21
8003.459057446937
 31
0.0
  0
LINE
  5
1C41D
330
1C3E3
100
AcDbEntity
  8
寸法
 62
     0
 48
50.0
370
    -2
100
AcDbLine
 10
11104.5
 20
8078.459057446936
 30
0.0
 11
11224.5
 21
8078.459057446936
 31
0.0
  0
LINE
  5
1C41E
330
1C3E3
100
AcDbEntity
  8
寸法
 62
     0
 48
50.0
370
    -2
100
AcDbLine
 10
11224.5
 20
8078.459057446936
 30
0.0
 11
11671.92249350503
 21
8078.459057446936
 31
0.0
  0
INSERT
  5
1C41F
330
1C3E3
100
AcDbEntity
  8
寸法
 62
     0
 48
50.0
370
    -2
100
AcDbBlockReference
  2
_DOTSMALL
 10
11104.5
 20
8078.459057446936
 30
0.0
 41
125.0
 42
125.0
 43
125.0
 50
180.0
  0
INSERT
  5
1C420
330
1C3E3
100
AcDbEntity
  8
寸法
 62
     0
 48
50.0
370
    -2
100
AcDbBlockReference
  2
_DOTSMALL
 10
11224.5
 20
8078.459057446936
 30
0.0
 41
125.0
 42
125.0
 43
125.0
  0
MTEXT
  5
1C421
330
1C3E3
100
AcDbEntity
  8
寸法
 62
     7
 48
50.0
100
AcDbMText
 10
11526.86343838692
 20
8178.473821226463
 30
0.0
 40
150.0
 41
0.0
 71
     5
 72
     1
  1
\A1;120
  7
STYLE1
 73
     1
 44
1.0
1001
ACAD
1000
MTEXTBEGIN
1070
    73
1070
     1
1070
    44
1040
1.0
1070
    74
1070
     0
1000
MTEXTEND
  0
POINT
  5
1C422
330
1C3E3
100
AcDbEntity
  8
DEFPOINTS
 62
     0
 48
50.0
100
AcDbPoint
 10
11104.5
 20
8104.458806993635
 30
0.0
  0
POINT
  5
1C423
330
1C3E3
100
AcDbEntity
  8
DEFPOINTS
 62
     0
 48
50.0
100
AcDbPoint
 10
11224.5
 20
8104.458806993635
 30
0.0
  0
POINT
  5
1C424
330
1C3E3
100
AcDbEntity
  8
DEFPOINTS
 62
     0
 48
50.0
100
AcDbPoint
 10
11224.5
 20
8078.459057446936
 30
0.0
  0
ENDBLK
  5
1C3EF
330
1C3E3
100
AcDbEntity
  8
0
 48
50.0
100
AcDbBlockEnd
  0
BLOCK
  5
1C7E2
330
1C7D6
100
AcDbEntity
  8
0
 48
50.0
100
AcDbBlockBegin
  2
*D20
 70
     1
 10
0.0
 20
0.0
 30
0.0
  3
*D20
  1

  0
LINE
  5
1C82C
330
1C7D6
100
AcDbEntity
  8
寸法
 62
     0
 48
50.0
370
    -2
100
AcDbLine
 10
9742.371276319012
 20
7797.500852959584
 30
0.0
 11
9692.371276319013
 21
7797.500852959584
 31
0.0
  0
LINE
  5
1C82D
330
1C7D6
100
AcDbEntity
  8
寸法
 62
     0
 48
50.0
370
    -2
100
AcDbLine
 10
9742.371276319012
 20
7612.500852959583
 30
0.0
 11
9692.371276319013
 21
7612.500852959583
 31
0.0
  0
LINE
  5
1C82E
330
1C7D6
100
AcDbEntity
  8
寸法
 62
     0
 48
50.0
370
    -2
100
AcDbLine
 10
9767.371276319012
 20
7612.500852959583
 30
0.0
 11
9767.371276319012
 21
7797.500852959584
 31
0.0
  0
LINE
  5
1C82F
330
1C7D6
100
AcDbEntity
  8
寸法
 62
     0
 48
50.0
370
    -2
100
AcDbLine
 10
9767.371276319012
 20
7797.500852959584
 30
0.0
 11
9767.371276319012
 21
8218.71405639518
 31
0.0
  0
INSERT
  5
1C830
330
1C7D6
100
AcDbEntity
  8
寸法
 62
     0
 48
50.0
370
    -2
100
AcDbBlockReference
  2
_DOTSMALL
 10
9767.371276319012
 20
7612.500852959583
 30
0.0
 41
125.0
 42
125.0
 43
125.0
 50
270.0
  0
INSERT
  5
1C831
330
1C7D6
100
AcDbEntity
  8
寸法
 62
     0
 48
50.0
370
    -2
100
AcDbBlockReference
  2
_DOTSMALL
 10
9767.371276319012
 20
7797.500852959584
 30
0.0
 41
125.0
 42
125.0
 43
125.0
 50
90.0
  0
MTEXT
  5
1C832
330
1C7D6
100
AcDbEntity
  8
寸法
 62
     7
 48
50.0
100
AcDbMText
 10
9667.371276319013
 20
8070.607454677382
 30
0.0
 40
150.0
 41
0.0
 71
     5
 72
     1
  1
\A1;185
  7
STYLE1
 11
0.0000000000000001
 21
1.0
 31
0.0
 73
     1
 44
1.0
1001
ACAD
1000
MTEXTBEGIN
1070
    73
1070
     1
1070
    44
1040
1.0
1070
    74
1070
     0
1000
MTEXTEND
  0
POINT
  5
1C833
330
1C7D6
100
AcDbEntity
  8
DEFPOINTS
 62
     0
 48
50.0
100
AcDbPoint
 10
9767.371276319012
 20
7797.500852959584
 30
0.0
  0
POINT
  5
1C834
330
1C7D6
100
AcDbEntity
  8
DEFPOINTS
 62
     0
 48
50.0
100
AcDbPoint
 10
9767.371276319012
 20
7612.500852959583
 30
0.0
  0
POINT
  5
1C835
330
1C7D6
100
AcDbEntity
  8
DEFPOINTS
 62
     0
 48
50.0
100
AcDbPoint
 10
9767.371276319012
 20
7612.500852959583
 30
0.0
  0
ENDBLK
  5
1C7E3
330
1C7D6
100
AcDbEntity
  8
0
 48
50.0
100
AcDbBlockEnd
  0
BLOCK
  5
1C843
330
1C837
100
AcDbEntity
  8
0
 48
50.0
100
AcDbBlockBegin
  2
*D21
 70
     1
 10
0.0
 20
0.0
 30
0.0
  3
*D21
  1

  0
LINE
  5
1C888
330
1C837
100
AcDbEntity
  8
寸法
 62
     0
 48
50.0
370
    -2
100
AcDbLine
 10
9309.499999999999
 20
7677.500852959582
 30
0.0
 11
8508.561596435942
 21
7677.500852959582
 31
0.0
  0
LINE
  5
1C889
330
1C837
100
AcDbEntity
  8
寸法
 62
     0
 48
50.0
370
    -2
100
AcDbLine
 10
9309.499999999999
 20
7612.500852959583
 30
0.0
 11
8508.561596435942
 21
7612.500852959583
 31
0.0
  0
LINE
  5
1C88A
330
1C837
100
AcDbEntity
  8
寸法
 62
     0
 48
50.0
370
    -2
100
AcDbLine
 10
8583.56159643594
 20
7677.500852959582
 30
0.0
 11
8583.56159643594
 21
7612.500852959583
 31
0.0
  0
LINE
  5
1C88B
330
1C837
100
AcDbEntity
  8
寸法
 62
     0
 48
50.0
370
    -2
100
AcDbLine
 10
8583.56159643594
 20
7612.500852959583
 30
0.0
 11
8583.56159643594
 21
6703.787649523988
 31
0.0
  0
INSERT
  5
1C88C
330
1C837
100
AcDbEntity
  8
寸法
 62
     0
 48
50.0
370
    -2
100
AcDbBlockReference
  2
_DOTSMALL
 10
8583.56159643594
 20
7677.500852959582
 30
0.0
 41
125.0
 42
125.0
 43
125.0
 50
90.0
  0
INSERT
  5
1C88D
330
1C837
100
AcDbEntity
  8
寸法
 62
     0
 48
50.0
370
    -2
100
AcDbBlockReference
  2
_DOTSMALL
 10
8583.56159643594
 20
7612.500852959583
 30
0.0
 41
125.0
 42
125.0
 43
125.0
 50
270.0
  0
MTEXT
  5
1C88E
330
1C837
100
AcDbEntity
  8
寸法
 62
     7
 48
50.0
100
AcDbMText
 10
8483.56159643594
 20
7095.644251241786
 30
0.0
 40
150.0
 41
0.0
 71
     5
 72
     1
  1
\A1;扉の出65
  7
STYLE1
 11
0.0000000000000001
 21
1.0
 31
0.0
 73
     1
 44
1.0
1001
ACAD
1000
MTEXTBEGIN
1070
    73
1070
     1
1070
    44
1040
1.0
1070
    74
1070
     0
1000
MTEXTEND
  0
POINT
  5
1C88F
330
1C837
100
AcDbEntity
  8
DEFPOINTS
 62
     0
 48
50.0
100
AcDbPoint
 10
9334.5
 20
7677.500852959582
 30
0.0
  0
POINT
  5
1C890
330
1C837
100
AcDbEntity
  8
DEFPOINTS
 62
     0
 48
50.0
100
AcDbPoint
 10
9334.5
 20
7612.500852959583
 30
0.0
  0
POINT
  5
1C891
330
1C837
100
AcDbEntity
  8
DEFPOINTS
 62
     0
 48
50.0
100
AcDbPoint
 10
8583.56159643594
 20
7612.500852959583
 30
0.0
  0
ENDBLK
  5
1C844
330
1C837
100
AcDbEntity
  8
0
 48
50.0
100
AcDbBlockEnd
  0
BLOCK
  5
1CD3B
330
1CD30
100
AcDbEntity
  8
0
 48
50.0
100
AcDbBlockBegin
  2
*D22
 70
     1
 10
0.0
 20
0.0
 30
0.0
  3
*D22
  1

  0
LINE
  5
1CD86
330
1CD30
100
AcDbEntity
  8
寸法
 62
     0
 48
50.0
370
    -2
100
AcDbLine
 10
9850.494285221992
 20
2615.662879184638
 30
0.0
 11
9850.494285221992
 21
2909.396221082585
 31
0.0
  0
LINE
  5
1CD87
330
1CD30
100
AcDbEntity
  8
寸法
 62
     0
 48
50.0
370
    -2
100
AcDbLine
 10
9993.994285221994
 20
2675.970571492329
 30
0.0
 11
9993.994285221994
 21
2909.396221082585
 31
0.0
  0
LINE
  5
1CD88
330
1CD30
100
AcDbEntity
  8
寸法
 62
     0
 48
50.0
370
    -2
100
AcDbLine
 10
9993.994285221994
 20
2834.396221082585
 30
0.0
 11
9850.494285221992
 21
2834.396221082585
 31
0.0
  0
LINE
  5
1CD89
330
1CD30
100
AcDbEntity
  8
寸法
 62
     0
 48
50.0
370
    -2
100
AcDbLine
 10
9850.494285221992
 20
2834.396221082585
 30
0.0
 11
9555.367897629755
 21
2834.396221082585
 31
0.0
  0
INSERT
  5
1CD8A
330
1CD30
100
AcDbEntity
  8
寸法
 62
     0
 48
50.0
370
    -2
100
AcDbBlockReference
  2
_DOTSMALL
 10
9993.994285221994
 20
2834.396221082585
 30
0.0
 41
125.0
 42
125.0
 43
125.0
  0
INSERT
  5
1CD8B
330
1CD30
100
AcDbEntity
  8
寸法
 62
     0
 48
50.0
370
    -2
100
AcDbBlockReference
  2
_DOTSMALL
 10
9850.494285221992
 20
2834.396221082585
 30
0.0
 41
125.0
 42
125.0
 43
125.0
 50
180.0
  0
MTEXT
  5
1CD8C
330
1CD30
100
AcDbEntity
  8
寸法
 62
     7
 48
50.0
100
AcDbMText
 10
9640.431091425877
 20
2909.396221082585
 30
0.0
 40
100.0
 41
0.0
 71
     5
 72
     1
  1
\A1;65
  7
STYLE1
 73
     1
 44
1.0
1001
ACAD
1000
MTEXTBEGIN
1070
    73
1070
     1
1070
    44
1040
1.0
1070
    74
1070
     0
1000
MTEXTEND
  0
POINT
  5
1CD8D
330
1CD30
100
AcDbEntity
  8
DEFPOINTS
 62
     0
 48
50.0
100
AcDbPoint
 10
9850.494285221992
 20
2590.662879184638
 30
0.0
  0
POINT
  5
1CD8E
330
1CD30
100
AcDbEntity
  8
DEFPOINTS
 62
     0
 48
50.0
100
AcDbPoint
 10
9993.994285221994
 20
2650.970571492329
 30
0.0
  0
POINT
  5
1CD8F
330
1CD30
100
AcDbEntity
  8
DEFPOINTS
 62
     0
 48
50.0
100
AcDbPoint
 10
9993.994285221994
 20
2834.396221082585
 30
0.0
  0
ENDBLK
  5
1CD3C
330
1CD30
100
AcDbEntity
  8
0
 48
50.0
100
AcDbBlockEnd
  0
BLOCK
  5
1CD47
330
1CD3D
100
AcDbEntity
  8
0
 48
50.0
100
AcDbBlockBegin
  2
*D23
 70
     1
 10
0.0
 20
0.0
 30
0.0
  3
*D23
  1

  0
LINE
  5
1CD90
330
1CD3D
100
AcDbEntity
  8
寸法
 62
     0
 48
50.0
370
    -2
100
AcDbLine
 10
9861.263515991225
 20
2721.201340723099
 30
0.0
 11
9861.263515991225
 21
3130.97513913456
 31
0.0
  0
LINE
  5
1CD91
330
1CD3D
100
AcDbEntity
  8
寸法
 62
     0
 48
50.0
370
    -2
100
AcDbLine
 10
10051.87890060661
 20
2722.278263800023
 30
0.0
 11
10051.87890060661
 21
3130.97513913456
 31
0.0
  0
LINE
  5
1CD92
330
1CD3D
100
AcDbEntity
  8
寸法
 62
     0
 48
50.0
370
    -2
100
AcDbLine
 10
9861.263515991225
 20
3055.97513913456
 30
0.0
 11
10051.87890060661
 21
3055.97513913456
 31
0.0
  0
INSERT
  5
1CD93
330
1CD3D
100
AcDbEntity
  8
寸法
 62
     0
 48
50.0
370
    -2
100
AcDbBlockReference
  2
_DOTSMALL
 10
9861.263515991225
 20
3055.97513913456
 30
0.0
 41
125.0
 42
125.0
 43
125.0
 50
180.0
  0
INSERT
  5
1CD94
330
1CD3D
100
AcDbEntity
  8
寸法
 62
     0
 48
50.0
370
    -2
100
AcDbBlockReference
  2
_DOTSMALL
 10
10051.87890060661
 20
3055.97513913456
 30
0.0
 41
125.0
 42
125.0
 43
125.0
  0
MTEXT
  5
1CD95
330
1CD3D
100
AcDbEntity
  8
寸法
 62
     7
 48
50.0
100
AcDbMText
 10
9956.571208298917
 20
3130.97513913456
 30
0.0
 40
100.0
 41
0.0
 71
     5
 72
     1
  1
\A1;88.5
  7
STYLE1
 73
     1
 44
1.0
1001
ACAD
1000
MTEXTBEGIN
1070
    73
1070
     1
1070
    44
1040
1.0
1070
    74
1070
     0
1000
MTEXTEND
  0
POINT
  5
1CD96
330
1CD3D
100
AcDbEntity
  8
DEFPOINTS
 62
     0
 48
50.0
100
AcDbPoint
 10
9861.263515991225
 20
2696.201340723099
 30
0.0
  0
POINT
  5
1CD97
330
1CD3D
100
AcDbEntity
  8
DEFPOINTS
 62
     0
 48
50.0
100
AcDbPoint
 10
10051.87890060661
 20
2697.278263800023
 30
0.0
  0
POINT
  5
1CD98
330
1CD3D
100
AcDbEntity
  8
DEFPOINTS
 62
     0
 48
50.0
100
AcDbPoint
 10
10051.87890060661
 20
3055.97513913456
 30
0.0
  0
ENDBLK
  5
1CD48
330
1CD3D
100
AcDbEntity
  8
0
 48
50.0
100
AcDbBlockEnd
  0
BLOCK
  5
1CD54
330
1CD49
100
AcDbEntity
  8
0
 48
50.0
100
AcDbBlockBegin
  2
*D24
 70
     1
 10
0.0
 20
0.0
 30
0.0
  3
*D24
  1

  0
LINE
  5
1CD99
330
1CD49
100
AcDbEntity
  8
寸法
 62
     0
 48
50.0
370
    -2
100
AcDbLine
 10
9955.494285221988
 20
2650.970571492329
 30
0.0
 11
9234.10898730132
 21
2650.970571492329
 31
0.0
  0
LINE
  5
1CD9A
330
1CD49
100
AcDbEntity
  8
寸法
 62
     0
 48
50.0
370
    -2
100
AcDbLine
 10
9825.494285221992
 20
2590.662879184638
 30
0.0
 11
9234.10898730132
 21
2590.662879184638
 31
0.0
  0
LINE
  5
1CD9B
330
1CD49
100
AcDbEntity
  8
寸法
 62
     0
 48
50.0
370
    -2
100
AcDbLine
 10
9309.108987301319
 20
2590.662879184638
 30
0.0
 11
9309.108987301319
 21
2650.970571492329
 31
0.0
  0
LINE
  5
1CD9C
330
1CD49
100
AcDbEntity
  8
寸法
 62
     0
 48
50.0
370
    -2
100
AcDbLine
 10
9309.108987301319
 20
2650.970571492329
 30
0.0
 11
9309.108987301319
 21
3064.382644983144
 31
0.0
  0
INSERT
  5
1CD9D
330
1CD49
100
AcDbEntity
  8
寸法
 62
     0
 48
50.0
370
    -2
100
AcDbBlockReference
  2
_DOTSMALL
 10
9309.108987301319
 20
2590.662879184638
 30
0.0
 41
125.0
 42
125.0
 43
125.0
 50
270.0
  0
INSERT
  5
1CD9E
330
1CD49
100
AcDbEntity
  8
寸法
 62
     0
 48
50.0
370
    -2
100
AcDbBlockReference
  2
_DOTSMALL
 10
9309.108987301319
 20
2650.970571492329
 30
0.0
 41
125.0
 42
125.0
 43
125.0
 50
90.0
  0
MTEXT
  5
1CD9F
330
1CD49
100
AcDbEntity
  8
寸法
 62
     7
 48
50.0
100
AcDbMText
 10
9234.10898730132
 20
2920.176608237739
 30
0.0
 40
100.0
 41
0.0
 71
     5
 72
     1
  1
\A1;出30
  7
STYLE1
 11
0.0000000000000001
 21
1.0
 31
0.0
 73
     1
 44
1.0
1001
ACAD
1000
MTEXTBEGIN
1070
    73
1070
     1
1070
    44
1040
1.0
1070
    74
1070
     0
1000
MTEXTEND
  0
POINT
  5
1CDA0
330
1CD49
100
AcDbEntity
  8
DEFPOINTS
 62
     0
 48
50.0
100
AcDbPoint
 10
9980.494285221988
 20
2650.970571492329
 30
0.0
  0
POINT
  5
1CDA1
330
1CD49
100
AcDbEntity
  8
DEFPOINTS
 62
     0
 48
50.0
100
AcDbPoint
 10
9850.494285221992
 20
2590.662879184638
 30
0.0
  0
POINT
  5
1CDA2
330
1CD49
100
AcDbEntity
  8
DEFPOINTS
 62
     0
 48
50.0
100
AcDbPoint
 10
9309.108987301319
 20
2590.662879184638
 30
0.0
  0
ENDBLK
  5
1CD55
330
1CD49
100
AcDbEntity
  8
0
 48
50.0
100
AcDbBlockEnd
  0
BLOCK
  5
1CD60
330
1CD56
100
AcDbEntity
  8
0
 48
50.0
100
AcDbBlockBegin
  2
*D25
 70
     1
 10
0.0
 20
0.0
 30
0.0
  3
*D25
  1

  0
LINE
  5
1CDA3
330
1CD56
100
AcDbEntity
  8
寸法
 62
     0
 48
50.0
370
    -2
100
AcDbLine
 10
7043.070381697582
 20
2540.133159419849
 30
0.0
 11
7043.070381697582
 21
2990.133159419849
 31
0.0
  0
LINE
  5
1CDA4
330
1CD56
100
AcDbEntity
  8
寸法
 62
     0
 48
50.0
370
    -2
100
AcDbLine
 10
6803.07038169758
 20
2540.133159419849
 30
0.0
 11
6803.07038169758
 21
2990.133159419849
 31
0.0
  0
LINE
  5
1CDA5
330
1CD56
100
AcDbEntity
  8
寸法
 62
     0
 48
50.0
370
    -2
100
AcDbLine
 10
7043.070381697582
 20
2915.133159419849
 30
0.0
 11
6803.07038169758
 21
2915.133159419849
 31
0.0
  0
INSERT
  5
1CDA6
330
1CD56
100
AcDbEntity
  8
寸法
 62
     0
 48
50.0
370
    -2
100
AcDbBlockReference
  2
_DOTSMALL
 10
7043.070381697582
 20
2915.133159419849
 30
0.0
 41
125.0
 42
125.0
 43
125.0
  0
INSERT
  5
1CDA7
330
1CD56
100
AcDbEntity
  8
寸法
 62
     0
 48
50.0
370
    -2
100
AcDbBlockReference
  2
_DOTSMALL
 10
6803.07038169758
 20
2915.133159419849
 30
0.0
 41
125.0
 42
125.0
 43
125.0
 50
180.0
  0
MTEXT
  5
1CDA8
330
1CD56
100
AcDbEntity
  8
寸法
 62
     7
 48
50.0
100
AcDbMText
 10
6923.070381697582
 20
3073.476335272868
 30
0.0
 40
100.0
 41
0.0
 71
     5
 72
     1
  1
\A1;120\P185
  7
STYLE1
 73
     1
 44
1.0
1001
ACAD
1000
MTEXTBEGIN
1070
    73
1070
     1
1070
    44
1040
1.0
1070
    74
1070
     0
1000
MTEXTEND
  0
POINT
  5
1CDA9
330
1CD56
100
AcDbEntity
  8
DEFPOINTS
 62
     0
 48
50.0
100
AcDbPoint
 10
7043.070381697582
 20
2515.133159419849
 30
0.0
  0
POINT
  5
1CDAA
330
1CD56
100
AcDbEntity
  8
DEFPOINTS
 62
     0
 48
50.0
100
AcDbPoint
 10
6803.07038169758
 20
2515.133159419849
 30
0.0
  0
POINT
  5
1CDAB
330
1CD56
100
AcDbEntity
  8
DEFPOINTS
 62
     0
 48
50.0
100
AcDbPoint
 10
6803.07038169758
 20
2915.133159419849
 30
0.0
  0
ENDBLK
  5
1CD61
330
1CD56
100
AcDbEntity
  8
0
 48
50.0
100
AcDbBlockEnd
  0
BLOCK
  5
1CD6C
330
1CD62
100
AcDbEntity
  8
0
 48
50.0
100
AcDbBlockBegin
  2
*D26
 70
     1
 10
0.0
 20
0.0
 30
0.0
  3
*D26
  1

  0
LINE
  5
1CDAC
330
1CD62
100
AcDbEntity
  8
寸法
 62
     0
 48
50.0
370
    -2
100
AcDbLine
 10
6623.070381697582
 20
1250.133159419849
 30
0.0
 11
6623.070381697582
 21
901.1810529639149
 31
0.0
  0
LINE
  5
1CDAD
330
1CD62
100
AcDbEntity
  8
寸法
 62
     0
 48
50.0
370
    -2
100
AcDbLine
 10
7223.07038169758
 20
1250.133159419849
 30
0.0
 11
7223.07038169758
 21
901.1810529639149
 31
0.0
  0
LINE
  5
1CDAE
330
1CD62
100
AcDbEntity
  8
寸法
 62
     0
 48
50.0
370
    -2
100
AcDbLine
 10
6623.070381697582
 20
976.1810529639149
 30
0.0
 11
7223.07038169758
 21
976.1810529639149
 31
0.0
  0
INSERT
  5
1CDAF
330
1CD62
100
AcDbEntity
  8
寸法
 62
     0
 48
50.0
370
    -2
100
AcDbBlockReference
  2
_DOTSMALL
 10
6623.070381697582
 20
976.1810529639149
 30
0.0
 41
125.0
 42
125.0
 43
125.0
 50
180.0
  0
INSERT
  5
1CDB0
330
1CD62
100
AcDbEntity
  8
寸法
 62
     0
 48
50.0
370
    -2
100
AcDbBlockReference
  2
_DOTSMALL
 10
7223.07038169758
 20
976.1810529639149
 30
0.0
 41
125.0
 42
125.0
 43
125.0
  0
MTEXT
  5
1CDB1
330
1CD62
100
AcDbEntity
  8
寸法
 62
     7
 48
50.0
100
AcDbMText
 10
6923.070381697582
 20
1051.181052963915
 30
0.0
 40
100.0
 41
0.0
 71
     5
 72
     1
  1
\A1;300
  7
STYLE1
 73
     1
 44
1.0
1001
ACAD
1000
MTEXTBEGIN
1070
    73
1070
     1
1070
    44
1040
1.0
1070
    74
1070
     0
1000
MTEXTEND
  0
POINT
  5
1CDB2
330
1CD62
100
AcDbEntity
  8
DEFPOINTS
 62
     0
 48
50.0
100
AcDbPoint
 10
6623.070381697582
 20
1275.133159419849
 30
0.0
  0
POINT
  5
1CDB3
330
1CD62
100
AcDbEntity
  8
DEFPOINTS
 62
     0
 48
50.0
100
AcDbPoint
 10
7223.07038169758
 20
1275.133159419849
 30
0.0
  0
POINT
  5
1CDB4
330
1CD62
100
AcDbEntity
  8
DEFPOINTS
 62
     0
 48
50.0
100
AcDbPoint
 10
7223.07038169758
 20
976.1810529639149
 30
0.0
  0
ENDBLK
  5
1CD6D
330
1CD62
100
AcDbEntity
  8
0
 48
50.0
100
AcDbBlockEnd
  0
BLOCK
  5
1CD78
330
1CD6E
100
AcDbEntity
  8
0
 48
50.0
100
AcDbBlockBegin
  2
*D27
 70
     1
 10
0.0
 20
0.0
 30
0.0
  3
*D27
  1

  0
LINE
  5
1CDB5
330
1CD6E
100
AcDbEntity
  8
寸法
 62
     0
 48
50.0
370
    -2
100
AcDbLine
 10
6778.07038169758
 20
2515.133159419849
 30
0.0
 11
5873.601013898428
 21
2515.133159419849
 31
0.0
  0
LINE
  5
1CDB6
330
1CD6E
100
AcDbEntity
  8
寸法
 62
     0
 48
50.0
370
    -2
100
AcDbLine
 10
6518.070381697583
 20
1435.133159419849
 30
0.0
 11
5873.601013898427
 21
1435.133159419849
 31
0.0
  0
LINE
  5
1CDB7
330
1CD6E
100
AcDbEntity
  8
寸法
 62
     0
 48
50.0
370
    -2
100
AcDbLine
 10
5948.601013898428
 20
2515.133159419849
 30
0.0
 11
5948.601013898427
 21
1435.133159419849
 31
0.0
  0
INSERT
  5
1CDB8
330
1CD6E
100
AcDbEntity
  8
寸法
 62
     0
 48
50.0
370
    -2
100
AcDbBlockReference
  2
_DOTSMALL
 10
5948.601013898428
 20
2515.133159419849
 30
0.0
 41
125.0
 42
125.0
 43
125.0
 50
90.0
  0
INSERT
  5
1CDB9
330
1CD6E
100
AcDbEntity
  8
寸法
 62
     0
 48
50.0
370
    -2
100
AcDbBlockReference
  2
_DOTSMALL
 10
5948.601013898427
 20
1435.133159419849
 30
0.0
 41
125.0
 42
125.0
 43
125.0
 50
270.0
  0
MTEXT
  5
1CDBA
330
1CD6E
100
AcDbEntity
  8
寸法
 62
     7
 48
50.0
100
AcDbMText
 10
5873.601013898427
 20
2011.928096017559
 30
0.0
 40
100.0
 41
0.0
 71
     5
 72
     1
  1
\A1;540
  7
STYLE1
 11
0.0000000000000001
 21
1.0
 31
0.0
 73
     1
 44
1.0
1001
ACAD
1000
MTEXTBEGIN
1070
    73
1070
     1
1070
    44
1040
1.0
1070
    74
1070
     0
1000
MTEXTEND
  0
POINT
  5
1CDBB
330
1CD6E
100
AcDbEntity
  8
DEFPOINTS
 62
     0
 48
50.0
100
AcDbPoint
 10
6803.07038169758
 20
2515.133159419849
 30
0.0
  0
POINT
  5
1CDBC
330
1CD6E
100
AcDbEntity
  8
DEFPOINTS
 62
     0
 48
50.0
100
AcDbPoint
 10
6543.070381697583
 20
1435.133159419849
 30
0.0
  0
POINT
  5
1CDBD
330
1CD6E
100
AcDbEntity
  8
DEFPOINTS
 62
     0
 48
50.0
100
AcDbPoint
 10
5948.601013898427
 20
1435.133159419849
 30
0.0
  0
ENDBLK
  5
1CD79
330
1CD6E
100
AcDbEntity
  8
0
 48
50.0
100
AcDbBlockEnd
  0
BLOCK
  5
1CD84
330
1CD7A
100
AcDbEntity
  8
0
 48
50.0
100
AcDbBlockBegin
  2
*D28
 70
     1
 10
0.0
 20
0.0
 30
0.0
  3
*D28
  1

  0
LINE
  5
1CDBE
330
1CD7A
100
AcDbEntity
  8
寸法
 62
     0
 48
50.0
370
    -2
100
AcDbLine
 10
6618.070381697582
 20
1735.133159419849
 30
0.0
 11
6104.800037365972
 21
1735.133159419849
 31
0.0
  0
LINE
  5
1CDBF
330
1CD7A
100
AcDbEntity
  8
寸法
 62
     0
 48
50.0
370
    -2
100
AcDbLine
 10
6518.070381697583
 20
1435.133159419849
 30
0.0
 11
6104.800037365972
 21
1435.133159419849
 31
0.0
  0
LINE
  5
1CDC0
330
1CD7A
100
AcDbEntity
  8
寸法
 62
     0
 48
50.0
370
    -2
100
AcDbLine
 10
6179.800037365972
 20
1735.133159419849
 30
0.0
 11
6179.800037365972
 21
1435.133159419849
 31
0.0
  0
INSERT
  5
1CDC1
330
1CD7A
100
AcDbEntity
  8
寸法
 62
     0
 48
50.0
370
    -2
100
AcDbBlockReference
  2
_DOTSMALL
 10
6179.800037365972
 20
1735.133159419849
 30
0.0
 41
125.0
 42
125.0
 43
125.0
 50
90.0
  0
INSERT
  5
1CDC2
330
1CD7A
100
AcDbEntity
  8
寸法
 62
     0
 48
50.0
370
    -2
100
AcDbBlockReference
  2
_DOTSMALL
 10
6179.800037365972
 20
1435.133159419849
 30
0.0
 41
125.0
 42
125.0
 43
125.0
 50
270.0
  0
MTEXT
  5
1CDC3
330
1CD7A
100
AcDbEntity
  8
寸法
 62
     7
 48
50.0
100
AcDbMText
 10
6104.800037365972
 20
1609.459753811992
 30
0.0
 40
100.0
 41
0.0
 71
     5
 72
     1
  1
\A1;150
  7
STYLE1
 11
0.0000000000000001
 21
1.0
 31
0.0
 73
     1
 44
1.0
1001
ACAD
1000
MTEXTBEGIN
1070
    73
1070
     1
1070
    44
1040
1.0
1070
    74
1070
     0
1000
MTEXTEND
  0
POINT
  5
1CDC4
330
1CD7A
100
AcDbEntity
  8
DEFPOINTS
 62
     0
 48
50.0
100
AcDbPoint
 10
6643.070381697582
 20
1735.133159419849
 30
0.0
  0
POINT
  5
1CDC5
330
1CD7A
100
AcDbEntity
  8
DEFPOINTS
 62
     0
 48
50.0
100
AcDbPoint
 10
6543.070381697583
 20
1435.133159419849
 30
0.0
  0
POINT
  5
1CDC6
330
1CD7A
100
AcDbEntity
  8
DEFPOINTS
 62
     0
 48
50.0
100
AcDbPoint
 10
6179.800037365972
 20
1435.133159419849
 30
0.0
  0
ENDBLK
  5
1CD85
330
1CD7A
100
AcDbEntity
  8
0
 48
50.0
100
AcDbBlockEnd
  0
ENDSEC
  0
SECTION
  2
ENTITIES
  0
MTEXT
  5
763F
330
747D
100
AcDbEntity
  8
0
100
AcDbMText
 10
302.846345836809
 20
280.1983726409901
 30
0.0
 40
3.5
 41
5.323721266742722
 71
     1
 72
     5
  1

  7
MSMINCHO
 73
     1
 44
1.0
1001
ACAD
1000
MTEXTBEGIN
1070
    73
1070
     1
1070
    44
1040
1.0
1070
    74
1070
     0
1000
MTEXTEND
  0
LINE
  5
10B56
330
747D
100
AcDbEntity
  8
補助
  6
PHANTOM
 62
   230
 48
50.0
100
AcDbLine
 10
175.0
 20
0.0
 30
0.0
 11
174.9999999999993
 21
14262.0
 31
0.0
  0
LINE
  5
10B57
330
747D
100
AcDbEntity
  8
補助
  6
PHANTOM
 62
   230
 48
50.0
100
AcDbLine
 10
174.9999999999993
 20
14262.0
 30
0.0
 11
20384.0
 21
14262.0
 31
0.0
  0
LINE
  5
10B59
330
747D
100
AcDbEntity
  8
仕様書枠
  6
Continuous
 48
50.0
100
AcDbLine
 10
16384.0
 20
1500.0
 30
0.0
 11
16384.0
 21
-0.0000000000000912
 31
0.0
  0
LINE
  5
10B5C
330
747D
100
AcDbEntity
  8
仕様書枠
 48
50.0
100
AcDbLine
 10
20384.0
 20
1500.0
 30
0.0
 11
20384.0
 21
-0.0000000000001137
 31
0.0
  0
LINE
  5
10B5D
330
747D
100
AcDbEntity
  8
仕様書枠
 48
50.0
100
AcDbLine
 10
175.0
 20
0.0
 30
0.0
 11
20384.0
 21
-0.0000000000001137
 31
0.0
  0
LINE
  5
10B5E
330
747D
100
AcDbEntity
  8
補助
  6
PHANTOM
 62
   230
 48
50.0
100
AcDbLine
 10
20384.0
 20
14262.0
 30
0.0
 11
20384.0
 21
1500.0
 31
0.0
  0
LINE
  5
10B6C
330
747D
100
AcDbEntity
  8
仕様書枠
 48
50.0
100
AcDbLine
 10
16384.0
 20
1500.0
 30
0.0
 11
20384.0
 21
1500.0
 31
0.0
  0
LINE
  5
10B72
330
747D
100
AcDbEntity
  8
仕様書枠
 62
     7
 48
50.0
100
AcDbLine
 10
16484.0
 20
500.0
 30
0.0
 11
20284.0
 21
500.0
 31
0.0
  0
TEXT
  5
10B73
330
747D
100
AcDbEntity
  8
仕様書枠
 62
     7
 48
50.0
100
AcDbText
 10
16453.72382072112
 20
1118.863259287425
 30
0.0
 40
250.0
  1
基 礎 図
  7
STYLE2
100
AcDbText
  0
LINE
  5
10B7B
330
747D
100
AcDbEntity
  8
仕様書枠
 48
50.0
100
AcDbLine
 10
16384.0
 20
1000.0
 30
0.0
 11
17814.0
 21
1000.0
 31
0.0
  0
LINE
  5
10B88
330
747D
100
AcDbEntity
  8
仕様書枠
  6
Continuous
 48
50.0
100
AcDbLine
 10
17814.0
 20
1500.0
 30
0.0
 11
17814.0
 21
1000.0
 31
0.0
  0
TEXT
  5
10BB0
330
747D
100
AcDbEntity
  8
仕様書枠
 62
     7
 48
50.0
100
AcDbText
 10
18108.75008258934
 20
604.8708912389265
 30
0.0
 40
200.0
  1
ＳＭＫ-３６ＳＮ
  7
STYLE2
100
AcDbText
  0
LEADER
  5
17260
330
747D
100
AcDbEntity
  8
寸法
 48
50.0
100
AcDbLeader
  3
INABA_S50G
 73
     0
 75
     1
 40
150.0
 41
860.0
 76
     3
 10
9699.320522190479
 20
9657.500852959584
 30
0.0
 10
8990.095398436416
 20
10232.30160327645
 30
0.0
 10
8865.095398436416
 20
10232.30160327645
 30
0.0
340
17261
213
-102.8979556385311
223
-35.3351163571715
233
0.0
1001
ACAD
1000
DSTYLE
1002
{
1070
   341
1005
0
1070
    40
1040
1.0
1070
   343
1005
0
1070
   344
1005
0
1002
}
  0
MTEXT
  5
17261
102
{ACAD_REACTORS
330
17260
102
}
330
747D
100
AcDbEntity
  8
部品1
 62
     7
 48
50.0
100
AcDbMText
 10
8942.993354074948
 20
10367.63671963362
 30
0.0
 40
150.0
 41
0.0
 71
     6
 72
     1
  1
\A1;屋根の外寸
  7
STYLE1
 73
     1
 44
1.0
1001
ACAD
1000
MTEXTBEGIN
1070
    73
1070
     1
1070
    44
1040
1.0
1070
    74
1070
     0
1000
MTEXTEND
  0
TEXT
  5
19791
330
747D
100
AcDbEntity
  8
文字
 62
     7
 48
50.0
100
AcDbText
 10
7750.832233889645
 20
4194.559639791536
 30
0.0
 40
150.0
  1
（　）内寸法は屋根の出幅です。
  7
STYLE1
100
AcDbText
  0
LINE
  5
19792
330
747D
100
AcDbEntity
  8
部品1
100
AcDbLine
 10
10469.25225848195
 20
4130.039078648786
 30
0.0
 11
7731.589651626532
 21
4130.039078648786
 31
0.0
  0
LEADER
  5
19EAB
330
747D
100
AcDbEntity
  8
寸法
 48
50.0
100
AcDbLeader
  3
INABA_S50G
 71
     0
 73
     0
 75
     1
 40
150.0
 41
1400.0
 76
     3
 10
9399.500000000001
 20
9502.500852959583
 30
0.0
 10
9218.376864764357
 20
9819.498455965925
 30
0.0
 10
9093.376864764357
 20
9819.498455965925
 30
0.0
340
19EAC
  0
MTEXT
  5
19EAC
102
{ACAD_REACTORS
330
19EAB
102
}
330
747D
100
AcDbEntity
  8
細線
 62
     7
 48
50.0
100
AcDbMText
 10
9068.376864764356
 20
9919.498455965925
 30
0.0
 40
150.0
 41
0.0
 71
     6
 72
     1
  1
\A1;アンカーボルト芯
  7
STYLE1
 73
     1
 44
1.0
1001
ACAD
1000
MTEXTBEGIN
1070
    73
1070
     1
1070
    44
1040
1.0
1070
    74
1070
     0
1000
MTEXTEND
  0
TEXT
  5
1A1E3
330
747D
100
AcDbEntity
  8
文字
 62
     7
 48
50.0
100
AcDbText
 10
16511.75668531126
 20
270.5931184260626
 30
0.0
 40
100.0
  1
※寒冷地等は、地域の実情に合わせた基礎にしてください。
  7
STYLE2
100
AcDbText
  0
TEXT
  5
1A1E4
330
747D
100
AcDbEntity
  8
文字
 62
     7
 48
50.0
100
AcDbText
 10
16511.75668531126
 20
99.7578908648793
 30
0.0
 40
100.0
  1
※布基礎には換気口を設けてください。
  7
STYLE2
100
AcDbText
  0
LEADER
  5
1A20D
330
747D
100
AcDbEntity
  8
寸法
 48
50.0
100
AcDbLeader
  3
INABA_S50G
 73
     0
 74
     0
 75
     1
 40
150.0
 41
850.0
 76
     3
 10
10279.5
 20
9567.500852959584
 30
0.0
 10
10343.02015379076
 20
9869.677042812222
 30
0.0
 10
10468.02015379076
 20
9869.677042812222
 30
0.0
340
1A20E
1001
ACAD
1000
DSTYLE
1002
{
1070
   341
1005
0
1070
    40
1040
1.0
1070
   343
1005
0
1070
   344
1005
0
1002
}
  0
MTEXT
  5
1A20E
102
{ACAD_REACTORS
330
1A20D
102
}
330
747D
100
AcDbEntity
  8
部品1
 62
     7
 48
50.0
100
AcDbMText
 10
10493.02015379076
 20
9969.677042812222
 30
0.0
 40
150.0
 41
0.0
 71
     4
 72
     1
  1
\A1;床下換気口
  7
STYLE1
 73
     1
 44
1.0
1001
ACAD
1000
MTEXTBEGIN
1070
    73
1070
     1
1070
    44
1040
1.0
1070
    74
1070
     0
1000
MTEXTEND
  0
TEXT
  5
1B8A8
330
747D
100
AcDbEntity
  8
文字
 62
     7
 48
50.0
100
AcDbText
 10
16501.79587498052
 20
596.5925826289065
 30
0.0
 40
200.0
  1
機種名
  7
STYLE2
100
AcDbText
  0
TEXT
  5
1B8AF
330
747D
100
AcDbEntity
  8
文字
 62
     7
 48
50.0
100
AcDbText
 10
19055.23044944207
 20
1289.447132864036
 30
0.0
 40
125.0
  1
<縮尺> S=1/50
  7
STYLE2
100
AcDbText
  0
LINE
  5
1B9F4
102
{ACAD_REACTORS
330
1C7CC
102
}
330
747D
100
AcDbEntity
  8
部品1
 48
50.0
100
AcDbLine
 10
11224.5
 20
7612.500852959583
 30
0.0
 11
11224.5
 21
9567.500852959584
 31
0.0
  0
LINE
  5
1B9F5
330
747D
100
AcDbEntity
  8
想像線
 48
20.0
100
AcDbLine
 10
11274.5
 20
7547.500852959584
 30
0.0
 11
11274.5
 21
9657.500852959584
 31
0.0
  0
DIMENSION
  5
1B9F7
330
747D
100
AcDbEntity
  8
寸法
 48
50.0
100
AcDbDimension
  2
*D2
 10
12075.5
 20
9567.500852959584
 30
0.0
 11
11975.5
 21
8622.500852959584
 31
0.0
 12
5108.853152215321
 22
0.0
 32
0.0
 70
    32
 71
     5
 42
-1.0
  3
INABA_S50G
100
AcDbAlignedDimension
 13
11224.5
 23
7677.500852959584
 33
0.0
 14
11224.5
 24
9567.500852959584
 34
0.0
 50
90.0
100
AcDbRotatedDimension
  0
DIMENSION
  5
1B9F8
330
747D
100
AcDbEntity
  8
寸法
 48
50.0
100
AcDbDimension
  2
*D3
 10
11754.56822416407
 20
7742.500852959584
 30
0.0
 11
11654.56822416407
 21
8622.500852959584
 31
0.0
 12
5108.853152215321
 22
0.0
 32
0.0
 70
    32
 71
     5
 42
-1.0
  3
INABA_S50G
100
AcDbAlignedDimension
 13
11304.5
 23
9502.500852959583
 33
0.0
 14
11304.5
 24
7742.500852959584
 34
0.0
 50
90.0
100
AcDbRotatedDimension
1001
ACAD
1000
DSTYLE
1002
{
1070
    75
1070
     1
1070
   279
1070
     1
1002
}
  0
LINE
  5
1B9F9
102
{ACAD_REACTORS
330
1C7CC
102
}
330
747D
100
AcDbEntity
  8
部品1
 48
50.0
100
AcDbLine
 10
9334.5
 20
9567.500852959584
 30
0.0
 11
9334.5
 21
7612.500852959583
 31
0.0
  0
LINE
  5
1B9FA
330
747D
100
AcDbEntity
  8
想像線
 48
20.0
100
AcDbLine
 10
9284.499999999999
 20
9657.500852959584
 30
0.0
 11
9284.499999999999
 21
7547.500852959584
 31
0.0
  0
DIMENSION
  5
1B9FC
330
747D
100
AcDbEntity
  8
寸法
 48
50.0
100
AcDbDimension
  2
*D4
 10
11506.06639516661
 20
9295.395424713968
 30
0.0
 11
10572.56460225516
 21
8329.436250704416
 31
0.0
 70
   161
 71
     5
 42
2708.305526742608
  3
INABA_S50G
100
AcDbAlignedDimension
 13
9342.4375
 23
7620.0
 33
0.0
 14
11224.5
 24
9567.500852959584
 34
0.0
  0
DIMENSION
  5
1B9FD
330
747D
100
AcDbEntity
  8
寸法
 48
50.0
100
AcDbDimension
  2
*D5
 10
8583.5
 20
7677.500852959584
 30
0.0
 11
8483.500000000002
 21
8150.000852959584
 31
0.0
 12
5108.853152215321
 22
0.0
 32
0.0
 70
    32
 71
     5
 42
-1.0
  3
INABA_S50G
100
AcDbAlignedDimension
 13
10134.5
 23
8622.500852959584
 33
0.0
 14
9334.5
 24
7677.500852959584
 34
0.0
 50
90.0
100
AcDbRotatedDimension
1001
ACAD
1000
DSTYLE
1002
{
1070
    75
1070
     1
1070
   279
1070
     1
1002
}
  0
DIMENSION
  5
1B9FE
330
747D
100
AcDbEntity
  8
寸法
 48
50.0
100
AcDbDimension
  2
*D6
 10
11159.5
 20
7058.033796714655
 30
0.0
 11
10279.5
 21
7158.033796714654
 31
0.0
 12
5108.853152215321
 22
0.0
 32
0.0
 70
    32
 71
     5
 42
-1.0
  3
INABA_S50G
100
AcDbAlignedDimension
 13
9399.500000000001
 23
7597.500852959583
 33
0.0
 14
11159.5
 24
7597.500852959583
 34
0.0
100
AcDbRotatedDimension
1001
ACAD
1000
DSTYLE
1002
{
1070
    75
1070
     1
1070
   279
1070
     1
1002
}
  0
DIMENSION
  5
1B9FF
330
747D
100
AcDbEntity
  8
寸法
 48
50.0
100
AcDbDimension
  2
*D7
 10
11224.5
 20
6746.500852959584
 30
0.0
 11
10279.5
 21
6846.500852959582
 31
0.0
 70
    32
 71
     5
 42
1890.0
  3
INABA_S50G
100
AcDbAlignedDimension
 13
9334.5
 23
7612.500852959583
 33
0.0
 14
11224.5
 24
7612.500852959583
 34
0.0
100
AcDbRotatedDimension
  0
LINE
  5
1BA01
330
747D
100
AcDbEntity
  8
想像線
 48
20.0
100
AcDbLine
 10
9284.499999999999
 20
7547.500852959584
 30
0.0
 11
11274.5
 21
7547.500852959584
 31
0.0
  0
DIMENSION
  5
1BA06
330
747D
100
AcDbEntity
  8
寸法
 48
50.0
100
AcDbDimension
  2
*D8
 10
9334.5
 20
6746.500852959584
 30
0.0
 11
8991.059055118109
 21
6746.500852959584
 31
0.0
 70
   160
  1
(<>)
 71
     5
 42
50.0
  3
INABA_S50G
100
AcDbAlignedDimension
 13
9284.499999999999
 23
7058.033796714655
 33
0.0
 14
9334.5
 24
7612.500852959583
 34
0.0
100
AcDbRotatedDimension
  0
DIMENSION
  5
1BA07
330
747D
100
AcDbEntity
  8
寸法
 48
50.0
100
AcDbDimension
  2
*D9
 10
9399.500000000001
 20
7058.033796714655
 30
0.0
 11
9094.405209305824
 21
7058.033796714655
 31
0.0
 70
   160
 71
     5
 42
65.0
  3
INABA_S50G
100
AcDbAlignedDimension
 13
9334.5
 23
7612.500852959583
 33
0.0
 14
9399.500000000001
 24
7597.500852959583
 34
0.0
100
AcDbRotatedDimension
  0
LINE
  5
1BA08
330
747D
100
AcDbEntity
  8
センター
 48
5.0
100
AcDbLine
 10
9544.500000000001
 20
7742.500852959584
 30
0.0
 11
9254.5
 21
7742.500852959584
 31
0.0
  0
LINE
  5
1BA0A
102
{ACAD_REACTORS
330
1C7CC
102
}
330
747D
100
AcDbEntity
  8
センター
 48
5.0
100
AcDbLine
 10
9399.500000000001
 20
7597.500852959583
 30
0.0
 11
9399.500000000001
 21
7887.500852959583
 31
0.0
  0
DIMENSION
  5
1BA0C
330
747D
100
AcDbEntity
  8
寸法
 48
50.0
100
AcDbDimension
  2
*D10
 10
12075.5
 20
7547.500852959584
 30
0.0
 11
12075.5
 21
7216.559908077694
 31
0.0
 12
5108.853152215321
 22
0.0
 32
0.0
 70
   160
  1
(<>)
 71
     5
 42
-1.0
  3
INABA_S50G
100
AcDbAlignedDimension
 13
11224.5
 23
7677.500852959584
 33
0.0
 14
11754.56822416407
 24
7547.500852959584
 34
0.0
 50
90.0
100
AcDbRotatedDimension
  0
DIMENSION
  5
1BA0D
330
747D
100
AcDbEntity
  8
寸法
 48
50.0
100
AcDbDimension
  2
*D11
 10
11754.56822416407
 20
7677.500852959584
 30
0.0
 11
11754.56822416407
 21
7437.406062265407
 31
0.0
 12
5108.853152215321
 22
0.0
 32
0.0
 70
   160
 71
     5
 42
-1.0
  3
INABA_S50G
100
AcDbAlignedDimension
 13
11304.5
 23
7742.500852959584
 33
0.0
 14
11224.5
 24
7677.500852959584
 34
0.0
 50
90.0
100
AcDbRotatedDimension
1001
ACAD
1000
DSTYLE
1002
{
1002
}
  0
DIMENSION
  5
1BA0E
330
747D
100
AcDbEntity
  8
寸法
 48
50.0
100
AcDbDimension
  2
*D12
 10
11274.5
 20
6746.500852959584
 30
0.0
 11
11566.94094488189
 21
6746.500852959584
 31
0.0
 70
   160
  1
(<>)
 71
     5
 42
50.0
  3
INABA_S50G
100
AcDbAlignedDimension
 13
11224.5
 23
7612.500852959583
 33
0.0
 14
11274.5
 24
7058.033796714655
 34
0.0
100
AcDbRotatedDimension
  0
LINE
  5
1BA0F
102
{ACAD_REACTORS
330
1C7AB
330
1C7CC
102
}
330
747D
100
AcDbEntity
  8
部品1
 48
50.0
100
AcDbLine
 10
9334.5
 20
7612.500852959583
 30
0.0
 11
11224.5
 21
7612.500852959583
 31
0.0
  0
DIMENSION
  5
1BA1A
330
747D
100
AcDbEntity
  8
寸法
 48
50.0
100
AcDbDimension
  2
*D13
 10
11224.5
 20
7058.033796714655
 30
0.0
 11
11464.59479069418
 21
7058.033796714655
 31
0.0
 70
   160
 71
     5
 42
65.0
  3
INABA_S50G
100
AcDbAlignedDimension
 13
11159.5
 23
7597.500852959583
 33
0.0
 14
11224.5
 24
7612.500852959583
 34
0.0
100
AcDbRotatedDimension
1001
ACAD
1000
DSTYLE
1002
{
1002
}
  0
LINE
  5
1BA1B
102
{ACAD_REACTORS
330
1C7CC
102
}
330
747D
100
AcDbEntity
  8
センター
 48
5.0
100
AcDbLine
 10
11159.5
 20
7597.500852959583
 30
0.0
 11
11159.5
 21
7887.500852959583
 31
0.0
  0
LINE
  5
1BA1C
330
747D
100
AcDbEntity
  8
センター
 48
5.0
100
AcDbLine
 10
11014.5
 20
7742.500852959584
 30
0.0
 11
11304.5
 21
7742.500852959584
 31
0.0
  0
LINE
  5
1BA1E
330
747D
100
AcDbEntity
  8
想像線
 48
20.0
100
AcDbLine
 10
11274.5
 20
9657.500852959584
 30
0.0
 11
9284.499999999999
 21
9657.500852959584
 31
0.0
  0
LINE
  5
1BA1F
330
747D
100
AcDbEntity
  8
部品1
 48
50.0
100
AcDbLine
 10
11224.5
 20
9567.500852959584
 30
0.0
 11
9334.5
 21
9567.500852959584
 31
0.0
  0
DIMENSION
  5
1BA20
330
747D
100
AcDbEntity
  8
寸法
 48
50.0
100
AcDbDimension
  2
*D14
 10
10279.5
 20
10199.76400268976
 30
0.0
 11
9807.0
 21
10299.76400268976
 31
0.0
 12
5108.853152215321
 22
0.0
 32
0.0
 70
    32
 71
     5
 42
-1.0
  3
INABA_S50G
100
AcDbAlignedDimension
 13
9334.5
 23
9567.500852959584
 33
0.0
 14
10279.5
 24
8767.500852959583
 34
0.0
100
AcDbRotatedDimension
  0
DIMENSION
  5
1BA21
330
747D
100
AcDbEntity
  8
寸法
 48
50.0
100
AcDbDimension
  2
*D15
 10
8583.5
 20
8622.500852959584
 30
0.0
 11
8483.500000000002
 21
9095.000852959584
 31
0.0
 12
5108.853152215321
 22
0.0
 32
0.0
 70
    32
 71
     5
 42
-1.0
  3
INABA_S50G
100
AcDbAlignedDimension
 13
9334.5
 23
9567.500852959584
 33
0.0
 14
10134.5
 24
8622.500852959584
 34
0.0
 50
90.0
100
AcDbRotatedDimension
  0
MTEXT
  5
1BA22
102
{ACAD_REACTORS
330
1BA23
102
}
330
747D
100
AcDbEntity
  8
細線
 62
     7
 48
50.0
100
AcDbMText
 10
10042.81719445054
 20
8917.774686005916
 30
0.0
 40
150.0
 41
0.0
 71
     6
 72
     1
  1
\A1;C.B
  7
STYLE1
 73
     1
 44
1.0
1001
ACAD
1000
MTEXTBEGIN
1070
    73
1070
     1
1070
    44
1040
1.0
1070
    74
1070
     0
1000
MTEXTEND
  0
LEADER
  5
1BA23
330
747D
100
AcDbEntity
  8
寸法
 48
50.0
100
AcDbLeader
  3
INABA_S50G
 71
     0
 73
     0
 75
     1
 40
150.0
 41
231.9898538650463
 76
     3
 10
10239.97954949903
 20
8696.875239356408
 30
0.0
 10
10192.81719445055
 20
8817.774686005916
 30
0.0
 10
10067.81719445055
 20
8817.774686005916
 30
0.0
340
1BA22
  0
LINE
  5
1BA2D
330
747D
100
AcDbEntity
  8
センター
 48
5.0
100
AcDbLine
 10
9544.500000000001
 20
9502.500852959583
 30
0.0
 11
9254.5
 21
9502.500852959583
 31
0.0
  0
LINE
  5
1BA2E
330
747D
100
AcDbEntity
  8
センター
 48
5.0
100
AcDbLine
 10
9399.500000000001
 20
9647.500852959584
 30
0.0
 11
9399.500000000001
 21
9357.500852959583
 31
0.0
  0
DIMENSION
  5
1BA2F
330
747D
100
AcDbEntity
  8
寸法
 48
50.0
100
AcDbDimension
  2
*D16
 10
11224.5
 20
10199.76400268976
 30
0.0
 11
10752.0
 21
10299.76400268976
 31
0.0
 12
5108.853152215321
 22
0.0
 32
0.0
 70
    32
 71
     5
 42
-1.0
  3
INABA_S50G
100
AcDbAlignedDimension
 13
10279.5
 23
8767.500852959583
 33
0.0
 14
11224.5
 24
9567.500852959584
 34
0.0
100
AcDbRotatedDimension
  0
DIMENSION
  5
1BA30
330
747D
100
AcDbEntity
  8
寸法
 48
50.0
100
AcDbDimension
  2
*D17
 10
12075.5
 20
9657.500852959584
 30
0.0
 11
12075.5
 21
9951.203872628546
 31
0.0
 12
5108.853152215321
 22
0.0
 32
0.0
 70
   160
  1
(<>)
 71
     5
 42
-1.0
  3
INABA_S50G
100
AcDbAlignedDimension
 13
11224.5
 23
9567.500852959584
 33
0.0
 14
11754.56822416407
 24
9657.500852959584
 34
0.0
 50
90.0
100
AcDbRotatedDimension
  0
DIMENSION
  5
1BA31
330
747D
100
AcDbEntity
  8
寸法
 48
50.0
100
AcDbDimension
  2
*D18
 10
11754.56822416407
 20
9502.500852959583
 30
0.0
 11
11754.56822416407
 21
9807.59564365376
 31
0.0
 12
5108.853152215321
 22
0.0
 32
0.0
 70
   160
 71
     5
 42
-1.0
  3
INABA_S50G
100
AcDbAlignedDimension
 13
11224.5
 23
9567.500852959584
 33
0.0
 14
11304.5
 24
9502.500852959583
 34
0.0
 50
90.0
100
AcDbRotatedDimension
  0
LINE
  5
1BA32
330
747D
100
AcDbEntity
  8
部品1
 48
50.0
100
AcDbLine
 10
10379.5
 20
8722.500852959583
 30
0.0
 11
10379.5
 21
8522.500852959584
 31
0.0
  0
LINE
  5
1BA33
330
747D
100
AcDbEntity
  8
センター
 48
5.0
100
AcDbLine
 10
10279.5
 20
8767.500852959583
 30
0.0
 11
10279.5
 21
8477.500852959584
 31
0.0
  0
LINE
  5
1BA34
330
747D
100
AcDbEntity
  8
部品1
 48
50.0
100
AcDbLine
 10
10179.5
 20
8522.500852959584
 30
0.0
 11
10179.5
 21
8722.500852959583
 31
0.0
  0
LINE
  5
1BA35
330
747D
100
AcDbEntity
  8
部品1
 48
50.0
100
AcDbLine
 10
10379.5
 20
8522.500852959584
 30
0.0
 11
10179.5
 21
8522.500852959584
 31
0.0
  0
LINE
  5
1BA36
330
747D
100
AcDbEntity
  8
センター
 48
5.0
100
AcDbLine
 10
10424.5
 20
8622.500852959584
 30
0.0
 11
10134.5
 21
8622.500852959584
 31
0.0
  0
LINE
  5
1BA37
330
747D
100
AcDbEntity
  8
部品1
 48
50.0
100
AcDbLine
 10
10179.5
 20
8722.500852959583
 30
0.0
 11
10379.5
 21
8722.500852959583
 31
0.0
  0
LINE
  5
1BA4A
330
747D
100
AcDbEntity
  8
センター
 48
5.0
100
AcDbLine
 10
11159.5
 20
9647.500852959584
 30
0.0
 11
11159.5
 21
9357.500852959583
 31
0.0
  0
LINE
  5
1BA4B
330
747D
100
AcDbEntity
  8
センター
 48
5.0
100
AcDbLine
 10
11014.5
 20
9502.500852959583
 30
0.0
 11
11304.5
 21
9502.500852959583
 31
0.0
  0
LINE
  5
1C3CF
330
747D
100
AcDbEntity
  8
部品1
 48
50.0
100
AcDbLine
 10
11104.5
 20
9447.500852959583
 30
0.0
 11
9454.500000000001
 21
9447.500852959583
 31
0.0
  0
LINE
  5
1C3D0
330
747D
100
AcDbEntity
  8
部品1
 48
50.0
100
AcDbLine
 10
9454.500000000001
 20
9447.500852959583
 30
0.0
 11
9454.500000000001
 21
7797.500852959584
 31
0.0
  0
LINE
  5
1C3D1
102
{ACAD_REACTORS
330
1C7AB
102
}
330
747D
100
AcDbEntity
  8
部品1
 48
50.0
100
AcDbLine
 10
9454.500000000001
 20
7797.500852959584
 30
0.0
 11
11104.5
 21
7797.500852959583
 31
0.0
  0
LINE
  5
1C3D2
330
747D
100
AcDbEntity
  8
部品1
 48
50.0
100
AcDbLine
 10
11104.5
 20
7797.500852959583
 30
0.0
 11
11104.5
 21
9447.500852959583
 31
0.0
  0
LINE
  5
1C3D5
330
747D
100
AcDbEntity
  8
部品1
 48
50.0
100
AcDbLine
 10
10379.5
 20
9447.500852959583
 30
0.0
 11
10379.5
 21
9567.500852959584
 31
0.0
  0
LINE
  5
1C3D6
330
747D
100
AcDbEntity
  8
部品1
 48
50.0
100
AcDbLine
 10
10179.5
 20
9447.500852959583
 30
0.0
 11
10179.5
 21
9567.500852959584
 31
0.0
  0
HATCH
  5
1C3D7
330
747D
100
AcDbEntity
  8
細線
 48
50.0
100
AcDbHatch
 10
0.0
 20
0.0
 30
0.0
210
0.0
220
0.0
230
1.0
  2
ANSI31
 70
     0
 71
     0
 91
        1
 92
        7
 72
     0
 73
     1
 93
        4
 10
10379.5
 20
9567.500852959584
 10
10179.5
 20
9567.500852959581
 10
10179.5
 20
9447.500852959583
 10
10379.5
 20
9447.50085295958
 97
        0
 75
     0
 76
     1
 52
0.0
 41
10.0
 77
     0
 78
     1
 53
45.0
 43
-885.2604898900171
 44
-2763.384467224605
 45
-22.45064030267288
 46
22.45064030267288
 79
     0
 47
8.911149211678541
 98
        1
 10
10227.23110698226
 20
9495.181250971219
  0
LINE
  5
1C3D9
102
{ACAD_REACTORS
330
1C7AB
330
1C7CC
102
}
330
747D
100
AcDbEntity
  8
部品1
 48
50.0
100
AcDbLine
 10
10179.5
 20
7612.500852959583
 30
0.0
 11
10179.5
 21
7797.500852959584
 31
0.0
  0
LINE
  5
1C3DA
102
{ACAD_REACTORS
330
1C7AB
330
1C7CC
102
}
330
747D
100
AcDbEntity
  8
部品1
 48
50.0
100
AcDbLine
 10
10379.5
 20
7612.500852959583
 30
0.0
 11
10379.5
 21
7797.500852959584
 31
0.0
  0
HATCH
  5
1C3DB
330
747D
100
AcDbEntity
  8
細線
 48
50.0
100
AcDbHatch
 10
0.0
 20
0.0
 30
0.0
210
0.0
220
0.0
230
1.0
  2
ANSI31
 70
     0
 71
     0
 91
        1
 92
        7
 72
     0
 73
     1
 93
        4
 10
9454.500000000001
 20
8722.500852959587
 10
9454.500000000001
 20
8522.500852959584
 10
9334.5
 20
8522.500852959584
 10
9334.5
 20
8722.500852959583
 97
        0
 75
     0
 76
     1
 52
90.0
 41
10.0
 77
     0
 78
     1
 53
45.0
 43
-2876.385320184192
 44
-2542.259636930434
 45
22.45064030267288
 46
-22.45064030267288
 79
     0
 47
8.911149211678541
 98
        1
 10
9382.180398011639
 20
8570.231959941844
  0
LINE
  5
1C3DC
330
747D
100
AcDbEntity
  8
部品1
 48
50.0
100
AcDbLine
 10
9454.500000000001
 20
8522.500852959584
 30
0.0
 11
9334.5
 21
8522.500852959584
 31
0.0
  0
LINE
  5
1C3DD
330
747D
100
AcDbEntity
  8
部品1
 48
50.0
100
AcDbLine
 10
9454.500000000001
 20
8722.500852959583
 30
0.0
 11
9334.5
 21
8722.500852959583
 31
0.0
  0
HATCH
  5
1C3DE
330
747D
100
AcDbEntity
  8
細線
 48
50.0
100
AcDbHatch
 10
0.0
 20
0.0
 30
0.0
210
0.0
220
0.0
230
1.0
  2
ANSI31
 70
     0
 71
     0
 91
        1
 92
        7
 72
     0
 73
     1
 93
        4
 10
11224.5
 20
8722.500852959587
 10
11224.5
 20
8522.500852959584
 10
11104.5
 20
8522.500852959584
 10
11104.5
 20
8722.500852959583
 97
        0
 75
     0
 76
     1
 52
90.0
 41
10.0
 77
     0
 78
     1
 53
45.0
 43
-1106.385320184194
 44
-2542.259636930434
 45
22.45064030267288
 46
-22.45064030267288
 79
     0
 47
8.911149211678541
 98
        1
 10
11152.18039801163
 20
8570.231959941844
  0
LINE
  5
1C3DF
330
747D
100
AcDbEntity
  8
部品1
 48
50.0
100
AcDbLine
 10
11224.5
 20
8522.500852959584
 30
0.0
 11
11104.5
 21
8522.500852959584
 31
0.0
  0
LINE
  5
1C3E0
330
747D
100
AcDbEntity
  8
部品1
 48
50.0
100
AcDbLine
 10
11224.5
 20
8722.500852959583
 30
0.0
 11
11104.5
 21
8722.500852959583
 31
0.0
  0
DIMENSION
  5
1C3E1
330
747D
100
AcDbEntity
  8
寸法
 48
50.0
100
AcDbDimension
  2
*D19
 10
11224.5
 20
8078.459057446936
 30
0.0
 11
11526.86343838692
 21
8078.459057446936
 31
0.0
 70
   160
 71
     5
 42
120.0
  3
INABA_S50G
100
AcDbAlignedDimension
 13
11104.5
 23
8104.458806993635
 33
0.0
 14
11224.5
 24
8104.458806993635
 34
0.0
100
AcDbRotatedDimension
  0
HATCH
  5
1C7AB
330
747D
100
AcDbEntity
  8
細線
 48
50.0
100
AcDbHatch
 10
0.0
 20
0.0
 30
0.0
210
0.0
220
0.0
230
1.0
  2
LINE
 70
     0
 71
     1
 91
        1
 92
        7
 72
     0
 73
     1
 93
        4
 10
10379.5
 20
7797.500852959583
 10
10179.5
 20
7797.500852959583
 10
10179.5
 20
7612.500852959583
 10
10379.5
 20
7612.500852959583
 97
        4
330
1C3D1
330
1C3D9
330
1BA0F
330
1C3DA
 75
     0
 76
     1
 52
45.0
 41
10.0
 77
     0
 78
     1
 53
45.0
 43
0.0
 44
0.0
 45
-22.45064030267288
 46
22.45064030267288
 79
     0
 47
2.107723026915709
 98
        1
 10
10349.99536240342
 20
7699.167009490716
  0
LINE
  5
1C7AC
102
{ACAD_REACTORS
330
1C7CC
102
}
330
747D
100
AcDbEntity
  8
想像線
 48
4.0
100
AcDbLine
 10
9334.5
 20
7677.500852959584
 30
0.0
 11
11224.5
 21
7677.500852959584
 31
0.0
  0
HATCH
  5
1C7CC
330
747D
100
AcDbEntity
  8
寸法
 48
50.0
100
AcDbHatch
 10
0.0
 20
0.0
 30
0.0
210
0.0
220
0.0
230
1.0
  2
DOTS
 70
     0
 71
     1
 91
        4
 92
        7
 72
     0
 73
     1
 93
        4
 10
11159.5
 20
7612.500852959583
 10
11159.49999999999
 20
7677.500852959584
 10
10379.5
 20
7677.500852959584
 10
10379.5
 20
7612.500852959583
 97
        4
330
1C7AC
330
1C3DA
330
1BA0F
330
1BA1B
 92
        7
 72
     0
 73
     1
 93
        4
 10
11224.49999999999
 20
7677.500852959584
 10
11159.5
 20
7677.500852959584
 10
11159.5
 20
7612.500852959583
 10
11224.5
 20
7612.500852959583
 97
        4
330
1C7AC
330
1BA1B
330
1BA0F
330
1B9F4
 92
        7
 72
     0
 73
     1
 93
        4
 10
10179.49999999999
 20
7677.500852959585
 10
9399.500000000001
 20
7677.500852959582
 10
9399.500000000001
 20
7612.500852959583
 10
10179.5
 20
7612.500852959583
 97
        4
330
1C7AC
330
1BA0A
330
1BA0F
330
1C3D9
 92
        7
 72
     0
 73
     1
 93
        4
 10
9399.500000000001
 20
7677.500852959585
 10
9334.500000000002
 20
7677.500852959584
 10
9334.5
 20
7612.500852959583
 10
9399.500000000001
 20
7612.500852959581
 97
        4
330
1C7AC
330
1B9F9
330
1BA0F
330
1BA0A
 75
     0
 76
     1
 52
0.0
 41
9.0
 77
     0
 78
     1
 53
0.0
 43
0.0
 44
0.0
 45
7.143749999999998
 46
14.2875
 79
     2
 49
0.0
 49
-14.2875
 47
2.654400091535583
 98
        4
 10
10557.69090904784
 20
7635.778714172758
 10
11205.65251050818
 20
7635.778714172758
 10
10151.38711274917
 20
7646.396315829973
 10
9383.924457154147
 20
7654.35949403901
  0
TEXT
  5
1C7D4
330
747D
100
AcDbEntity
  8
寸法
 48
50.0
100
AcDbText
 10
10125.8359865824
 20
7363.473282370342
 30
0.0
 40
120.0
  1
扉面
  7
STYLE1
100
AcDbText
  0
DIMENSION
  5
1C7D5
330
747D
100
AcDbEntity
  8
寸法
 48
50.0
100
AcDbDimension
  2
*D20
 10
9767.371276319012
 20
7612.500852959583
 30
0.0
 11
9767.371276319012
 21
8070.607454677382
 31
0.0
 70
   160
 71
     5
 42
184.9999999999991
  3
INABA_S50G
100
AcDbAlignedDimension
 13
9767.371276319012
 23
7797.500852959584
 33
0.0
 14
9767.371276319012
 24
7612.500852959583
 34
0.0
 50
90.0
100
AcDbRotatedDimension
1001
ACAD
1000
DSTYLE
1002
{
1070
   341
1005
0
1002
}
  0
DIMENSION
  5
1C836
330
747D
100
AcDbEntity
  8
寸法
 48
50.0
100
AcDbDimension
  2
*D21
 10
8583.56159643594
 20
7612.500852959583
 30
0.0
 11
8583.56159643594
 21
7095.644251241786
 31
0.0
 70
   160
  1
扉の出65
 71
     5
 42
64.99999999999818
  3
INABA_S50G
100
AcDbAlignedDimension
 13
9334.5
 23
7677.500852959582
 33
0.0
 14
9334.5
 24
7612.500852959583
 34
0.0
 50
90.0
100
AcDbRotatedDimension
1001
ACAD
1000
DSTYLE
1002
{
1070
   341
1005
0
1002
}
  0
LINE
  5
1CB35
330
747D
100
AcDbEntity
  8
部品1
 48
50.0
100
AcDbLine
 10
10415.10485148721
 20
823.2551147814627
 30
0.0
 11
9374.335079308975
 21
823.2551147814627
 31
0.0
  0
LINE
  5
1CB36
330
747D
100
AcDbEntity
  8
部品1
 48
50.0
100
AcDbLine
 10
10415.10485148721
 20
663.2551147814629
 30
0.0
 11
9374.335079308975
 21
663.2551147814629
 31
0.0
  0
TEXT
  5
1CB37
330
747D
100
AcDbEntity
  8
部品1
 48
50.0
100
AcDbText
 10
9435.937514447214
 20
697.2474065139595
 30
0.0
 40
96.0
  1
アンカー部詳細
  7
STYLE2
100
AcDbText
  0
LINE
  5
1CB38
330
747D
100
AcDbEntity
  8
細線
 48
50.0
100
AcDbLine
 10
5727.604250469815
 20
523.6871696812213
 30
0.0
 11
13850.18092776281
 21
523.6871696812227
 31
0.0
  0
ARC
  5
1CB39
330
747D
100
AcDbEntity
  8
細線
 48
50.0
100
AcDbCircle
 10
10213.53737839028
 20
3389.34884292198
 30
0.0
 40
80.0
100
AcDbArc
 50
270.0
 51
0.0
  0
ARC
  5
1CB3A
330
747D
100
AcDbEntity
  8
細線
 48
50.0
100
AcDbCircle
 10
10213.53737839028
 20
3469.348842921981
 30
0.0
 40
80.0
100
AcDbArc
 50
0.0
 51
90.0
  0
LINE
  5
1CB3D
330
747D
100
AcDbEntity
  8
Ｇ．Ｌ
 48
50.0
100
AcDbLine
 10
10090.49428522199
 20
2114.49898632256
 30
0.0
 11
10608.16916251319
 21
2114.49898632256
 31
0.0
  0
LINE
  5
1CB3E
330
747D
100
AcDbEntity
  8
部品1
 48
50.0
100
AcDbLine
 10
10370.49428522199
 20
1510.662879184638
 30
0.0
 11
9570.494285221995
 21
1510.662879184638
 31
0.0
  0
LINE
  5
1CB3F
330
747D
100
AcDbEntity
  8
部品1
 48
50.0
100
AcDbLine
 10
10370.49428522199
 20
1350.662879184638
 30
0.0
 11
9570.494285221995
 21
1350.662879184638
 31
0.0
  0
LINE
  5
1CB40
330
747D
100
AcDbEntity
  8
細線
 48
50.0
100
AcDbLine
 10
5727.604250469815
 20
3429.34884292198
 30
0.0
 11
5727.604250469815
 21
523.6871696812207
 31
0.0
  0
DIMENSION
  5
1CB41
330
747D
100
AcDbEntity
  8
寸法
 48
50.0
100
AcDbDimension
  2
*D23
 10
10051.87890060661
 20
3055.97513913456
 30
0.0
 11
9956.571208298917
 21
3055.97513913456
 31
0.0
 70
   160
  1
88.5
 71
     5
 42
190.6153846153847
  3
INABA_S50GUP
100
AcDbAlignedDimension
 13
9861.263515991225
 23
2696.201340723099
 33
0.0
 14
10051.87890060661
 24
2697.278263800023
 34
0.0
100
AcDbRotatedDimension
1001
ACAD
1000
DSTYLE
1002
{
1070
   140
1040
100.0
1002
}
  0
DIMENSION
  5
1CB42
330
747D
100
AcDbEntity
  8
寸法
 48
50.0
100
AcDbDimension
  2
*D24
 10
9309.108987301319
 20
2590.662879184638
 30
0.0
 11
9309.108987301319
 21
2920.176608237739
 31
0.0
 70
   160
  1
出30
 71
     5
 42
60.30769230769147
  3
INABA_S50GUP
100
AcDbAlignedDimension
 13
9980.494285221988
 23
2650.970571492329
 33
0.0
 14
9850.494285221992
 24
2590.662879184638
 34
0.0
 50
90.0
100
AcDbRotatedDimension
1001
ACAD
1000
DSTYLE
1002
{
1070
   140
1040
100.0
1002
}
  0
DIMENSION
  5
1CB43
330
747D
100
AcDbEntity
  8
寸法
 48
50.0
100
AcDbDimension
  2
*D25
 10
6803.07038169758
 20
2915.133159419849
 30
0.0
 11
6923.070381697582
 21
2915.133159419849
 31
0.0
 70
   160
  1
120\P185
 71
     5
 42
240.0
  3
INABA_S50GUP
100
AcDbAlignedDimension
 13
7043.070381697582
 23
2515.133159419849
 33
0.0
 14
6803.07038169758
 24
2515.133159419849
 34
0.0
100
AcDbRotatedDimension
1001
ACAD
1000
DSTYLE
1002
{
1070
   140
1040
100.0
1002
}
  0
LINE
  5
1CB44
330
747D
100
AcDbEntity
  8
細線
100
AcDbLine
 10
6973.37722288879
 20
2483.122853130142
 30
0.0
 11
7002.881291567017
 21
2481.485108432753
 31
0.0
  0
LINE
  5
1CB45
330
747D
100
AcDbEntity
  8
部品1
 48
50.0
100
AcDbLine
 10
6803.070381697579
 20
2515.133159419849
 30
0.0
 11
7043.070381697581
 21
2515.133159419849
 31
0.0
  0
LINE
  5
1CB46
330
747D
100
AcDbEntity
  8
細線
 48
50.0
100
AcDbLine
 10
6952.511265780064
 20
2346.216119791125
 30
0.0
 11
7043.070381697581
 21
2436.775235708647
 31
0.0
  0
LINE
  5
1CB47
330
747D
100
AcDbEntity
  8
細線
 48
50.0
100
AcDbLine
 10
6953.070381697578
 20
2313.099275254637
 30
0.0
 11
7043.070381697581
 21
2403.099275254637
 31
0.0
  0
LINE
  5
1CB48
330
747D
100
AcDbEntity
  8
細線
 48
50.0
100
AcDbLine
 10
6953.070381697587
 20
1943.691591622564
 30
0.0
 11
7043.070381697581
 21
2033.691591622561
 31
0.0
  0
LINE
  5
1CB49
330
747D
100
AcDbEntity
  8
細線
 48
50.0
100
AcDbLine
 10
6953.070381697584
 20
2011.043512530584
 30
0.0
 11
7043.070381697581
 21
2101.043512530583
 31
0.0
  0
LINE
  5
1CB4A
330
747D
100
AcDbEntity
  8
細線
 48
50.0
100
AcDbLine
 10
6953.070381697584
 20
1977.367552076572
 30
0.0
 11
7043.070381697581
 21
2067.367552076568
 31
0.0
  0
LINE
  5
1CB4B
330
747D
100
AcDbEntity
  8
細線
 48
50.0
100
AcDbLine
 10
6938.685909825675
 20
2366.066724290744
 30
0.0
 11
7043.070381697581
 21
2470.451196162656
 31
0.0
  0
LINE
  5
1CB4C
330
747D
100
AcDbEntity
  8
細線
 48
50.0
100
AcDbLine
 10
6953.070381697587
 20
1741.63582889851
 30
0.0
 11
7043.070381697581
 21
1831.635828898505
 31
0.0
  0
LINE
  5
1CB4D
330
747D
100
AcDbEntity
  8
細線
 48
50.0
100
AcDbLine
 10
6953.070381697587
 20
1674.28390799049
 30
0.0
 11
7043.070381697581
 21
1764.283907990486
 31
0.0
  0
LINE
  5
1CB4E
330
747D
100
AcDbEntity
  8
細線
 48
50.0
100
AcDbLine
 10
6953.070381697587
 20
1707.959868444501
 30
0.0
 11
7043.070381697581
 21
1797.959868444495
 31
0.0
  0
LINE
  5
1CB4F
330
747D
100
AcDbEntity
  8
細線
 48
50.0
100
AcDbLine
 10
6983.327316759016
 20
1435.133159419849
 30
0.0
 11
7103.328426565444
 21
1555.134269226273
 31
0.0
  0
LINE
  5
1CB50
330
747D
100
AcDbEntity
  8
細線
 48
50.0
100
AcDbLine
 10
6915.975395850998
 20
1435.133159419849
 30
0.0
 11
7035.975395850996
 21
1555.133159419849
 31
0.0
  0
LINE
  5
1CB51
330
747D
100
AcDbEntity
  8
細線
 48
50.0
100
AcDbLine
 10
6949.65135630501
 20
1435.133159419849
 30
0.0
 11
7069.651356305008
 21
1555.133159419849
 31
0.0
  0
LINE
  5
1CB52
330
747D
100
AcDbEntity
  8
部品1
 48
50.0
100
AcDbLine
 10
6693.070381697579
 20
1555.133159419849
 30
0.0
 11
7153.070381697578
 21
1555.133159419849
 31
0.0
  0
LINE
  5
1CB53
330
747D
100
AcDbEntity
  8
部品1
 48
50.0
100
AcDbLine
 10
6693.070381697579
 20
1575.133159419849
 30
0.0
 11
7153.070381697578
 21
1575.133159419849
 31
0.0
  0
LINE
  5
1CB54
330
747D
100
AcDbEntity
  8
細線
 48
50.0
100
AcDbLine
 10
6950.938336150213
 20
1275.133159419849
 30
0.0
 11
6993.81020693919
 21
1435.133159419849
 31
0.0
  0
LINE
  5
1CB55
330
747D
100
AcDbEntity
  8
部品1
 48
50.0
100
AcDbLine
 10
7323.070381697579
 20
1275.133159419849
 30
0.0
 11
6523.070381697579
 21
1275.133159419849
 31
0.0
  0
LINE
  5
1CB56
330
747D
100
AcDbEntity
  8
部品1
 48
50.0
100
AcDbLine
 10
7323.070381697579
 20
1435.133159419849
 30
0.0
 11
6523.070381697579
 21
1435.133159419849
 31
0.0
  0
DIMENSION
  5
1CB57
330
747D
100
AcDbEntity
  8
寸法
 48
50.0
100
AcDbDimension
  2
*D26
 10
7223.07038169758
 20
976.1810529639149
 30
0.0
 11
6923.070381697582
 21
976.1810529639149
 31
0.0
 70
   160
  1
300
 71
     5
 42
600.0
  3
INABA_S50GUP
100
AcDbAlignedDimension
 13
6623.070381697582
 23
1275.133159419849
 33
0.0
 14
7223.07038169758
 24
1275.133159419849
 34
0.0
100
AcDbRotatedDimension
1001
ACAD
1000
DSTYLE
1002
{
1070
   140
1040
100.0
1002
}
  0
LEADER
  5
1CB58
330
747D
100
AcDbEntity
  8
寸法
 48
50.0
100
AcDbLeader
  3
INABA_S50G
 71
     0
 73
     0
 74
     0
 75
     1
 40
101.39087296526
 41
174.1421356237309
 76
     3
 10
6923.070381697582
 20
1585.133159419849
 30
0.0
 10
7206.473722053882
 20
1117.22933353945
 30
0.0
 10
7331.473722053882
 20
1117.22933353945
 30
0.0
340
1CB59
  0
MTEXT
  5
1CB59
102
{ACAD_REACTORS
330
1CB58
102
}
330
747D
100
AcDbEntity
  8
寸法
 62
     7
 48
50.0
100
AcDbMText
 10
7356.473722053881
 20
1192.92477002208
 30
0.0
 40
100.0
 41
0.0
 71
     4
 72
     1
  1
D13
  7
STYLE1
 73
     1
 44
1.0
1001
ACAD
1000
MTEXTBEGIN
1070
    73
1070
     1
1070
    44
1040
1.0
1070
    74
1070
     0
1000
MTEXTEND
  0
LINE
  5
1CB5A
330
747D
100
AcDbEntity
  8
部品1
 48
50.0
100
AcDbLine
 10
6803.070381697579
 20
1735.133159419849
 30
0.0
 11
6803.070381697579
 21
2515.133159419849
 31
0.0
  0
LINE
  5
1CB5B
330
747D
100
AcDbEntity
  8
部品1
 48
50.0
100
AcDbLine
 10
6953.070381697587
 20
1585.133159419849
 30
0.0
 11
6953.070381697578
 21
2340.451196162656
 31
0.0
  0
LINE
  5
1CB5C
330
747D
100
AcDbEntity
  8
部品1
 48
50.0
100
AcDbLine
 10
6933.070381697587
 20
1585.133159419849
 30
0.0
 11
6933.07038169758
 21
2340.451196162656
 31
0.0
  0
DIMENSION
  5
1CB5D
330
747D
100
AcDbEntity
  8
寸法
 48
50.0
100
AcDbDimension
  2
*D27
 10
5948.601013898427
 20
1435.133159419849
 30
0.0
 11
5948.601013898427
 21
2011.928096017559
 31
0.0
 70
   160
  1
540
 71
     5
 42
1080.0
  3
INABA_S50GUP
100
AcDbAlignedDimension
 13
6803.07038169758
 23
2515.133159419849
 33
0.0
 14
6543.070381697583
 24
1435.133159419849
 34
0.0
 50
90.0
100
AcDbRotatedDimension
1001
ACAD
1000
DSTYLE
1002
{
1070
   140
1040
100.0
1002
}
  0
LINE
  5
1CB5E
330
747D
100
AcDbEntity
  8
細線
 48
50.0
100
AcDbLine
 10
6803.070381697579
 20
1793.691591622562
 30
0.0
 11
6933.070381697587
 21
1923.691591622564
 31
0.0
  0
DIMENSION
  5
1CB5F
330
747D
100
AcDbEntity
  8
寸法
 48
50.0
100
AcDbDimension
  2
*D28
 10
6179.800037365972
 20
1435.133159419849
 30
0.0
 11
6179.800037365972
 21
1609.459753811992
 31
0.0
 70
   160
  1
150
 71
     5
 42
300.0
  3
INABA_S50GUP
100
AcDbAlignedDimension
 13
6643.070381697582
 23
1735.133159419849
 33
0.0
 14
6543.070381697583
 24
1435.133159419849
 34
0.0
 50
90.0
100
AcDbRotatedDimension
1001
ACAD
1000
DSTYLE
1002
{
1070
   140
1040
100.0
1002
}
  0
LINE
  5
1CB60
330
747D
100
AcDbEntity
  8
細線
 48
50.0
100
AcDbLine
 10
6556.498111413967
 20
1275.133159419849
 30
0.0
 11
6599.369982202948
 21
1435.133159419849
 31
0.0
  0
LEADER
  5
1CB61
330
747D
100
AcDbEntity
  8
寸法
 48
50.0
100
AcDbLeader
  3
INABA_S50G
 71
     0
 73
     0
 75
     1
 40
101.39087296526
 41
170.0787401574803
 76
     3
 10
6762.816005845016
 20
1585.133159419849
 30
0.0
 10
6525.919720168871
 20
1240.159469633083
 30
0.0
 10
6400.919720168871
 20
1240.159469633083
 30
0.0
340
1CB62
  0
MTEXT
  5
1CB62
102
{ACAD_REACTORS
330
1CB61
102
}
330
747D
100
AcDbEntity
  8
寸法
 62
     7
 48
50.0
100
AcDbMText
 10
6375.919720168871
 20
1315.854906115714
 30
0.0
 40
100.0
 41
0.0
 71
     6
 72
     1
  1
D10
  7
STYLE1
 73
     1
 44
1.0
1001
ACAD
1000
MTEXTBEGIN
1070
    73
1070
     1
1070
    44
1040
1.0
1070
    74
1070
     0
1000
MTEXTEND
  0
LINE
  5
1CB63
330
747D
100
AcDbEntity
  8
細線
 48
50.0
100
AcDbLine
 10
6564.536587186903
 20
1305.133159419849
 30
0.0
 11
6572.575062959836
 21
1275.133159419849
 31
0.0
  0
LINE
  5
1CB64
330
747D
100
AcDbEntity
  8
部品1
 48
50.0
100
AcDbLine
 10
6523.070381697579
 20
1275.133159419849
 30
0.0
 11
6523.070381697579
 21
1435.133159419849
 31
0.0
  0
LINE
  5
1CB65
330
747D
100
AcDbEntity
  8
細線
 48
50.0
100
AcDbLine
 10
6646.567712218923
 20
1435.133159419849
 30
0.0
 11
6766.567712218922
 21
1555.133159419849
 31
0.0
  0
LINE
  5
1CB66
330
747D
100
AcDbEntity
  8
細線
 48
50.0
100
AcDbLine
 10
6680.243672672935
 20
1435.133159419849
 30
0.0
 11
6800.243672672936
 21
1555.133159419849
 31
0.0
  0
LINE
  5
1CB67
330
747D
100
AcDbEntity
  8
部品1
 48
50.0
100
AcDbLine
 10
6623.070381697579
 20
1435.133159419849
 30
0.0
 11
6623.070381697579
 21
1735.133159419849
 31
0.0
  0
LINE
  5
1CB68
330
747D
100
AcDbEntity
  8
細線
 48
50.0
100
AcDbLine
 10
6713.919633126941
 20
1435.133159419849
 30
0.0
 11
6833.919633126942
 21
1555.133159419849
 31
0.0
  0
LINE
  5
1CB69
330
747D
100
AcDbEntity
  8
細線
 48
50.0
100
AcDbLine
 10
6788.551618798138
 20
1405.133159419849
 30
0.0
 11
6780.513143025205
 21
1435.133159419849
 31
0.0
  0
LINE
  5
1CB6A
330
747D
100
AcDbEntity
  8
細線
 48
50.0
100
AcDbLine
 10
6753.718223782087
 20
1275.133159419849
 30
0.0
 11
6796.590094571071
 21
1435.133159419849
 31
0.0
  0
LINE
  5
1CB6B
330
747D
100
AcDbEntity
  8
細線
 48
50.0
100
AcDbLine
 10
6689.941562614078
 20
1405.133159419849
 30
0.0
 11
6681.903086841143
 21
1435.133159419849
 31
0.0
  0
LINE
  5
1CB6C
330
747D
100
AcDbEntity
  8
細線
 48
50.0
100
AcDbLine
 10
6591.331506430015
 20
1405.133159419849
 30
0.0
 11
6583.293030657081
 21
1435.133159419849
 31
0.0
  0
LINE
  5
1CB6D
330
747D
100
AcDbEntity
  8
細線
 48
50.0
100
AcDbLine
 10
6655.108167598027
 20
1275.133159419849
 30
0.0
 11
6697.980038387012
 21
1435.133159419849
 31
0.0
  0
LINE
  5
1CB6E
330
747D
100
AcDbEntity
  8
細線
 48
50.0
100
AcDbLine
 10
6761.756699555026
 20
1305.133159419849
 30
0.0
 11
6769.795175327961
 21
1275.133159419849
 31
0.0
  0
LINE
  5
1CB6F
330
747D
100
AcDbEntity
  8
細線
 48
50.0
100
AcDbLine
 10
6663.146643370964
 20
1305.133159419849
 30
0.0
 11
6671.185119143896
 21
1275.133159419849
 31
0.0
  0
LINE
  5
1CB70
330
747D
100
AcDbEntity
  8
細線
 48
50.0
100
AcDbLine
 10
6985.771731166258
 20
1405.133159419849
 30
0.0
 11
6977.733255393326
 21
1435.133159419849
 31
0.0
  0
LINE
  5
1CB71
330
747D
100
AcDbEntity
  8
細線
 48
50.0
100
AcDbLine
 10
6887.161674982199
 20
1405.133159419849
 30
0.0
 11
6879.123199209264
 21
1435.133159419849
 31
0.0
  0
LINE
  5
1CB72
330
747D
100
AcDbEntity
  8
細線
 48
50.0
100
AcDbLine
 10
6852.32827996615
 20
1275.133159419849
 30
0.0
 11
6895.20015075513
 21
1435.133159419849
 31
0.0
  0
LINE
  5
1CB73
330
747D
100
AcDbEntity
  8
細線
 48
50.0
100
AcDbLine
 10
6958.976811923145
 20
1305.133159419849
 30
0.0
 11
6967.015287696078
 21
1275.133159419849
 31
0.0
  0
LINE
  5
1CB74
330
747D
100
AcDbEntity
  8
細線
 48
50.0
100
AcDbLine
 10
6860.366755739088
 20
1305.133159419849
 30
0.0
 11
6868.405231512021
 21
1275.133159419849
 31
0.0
  0
LINE
  5
1CB75
330
747D
100
AcDbEntity
  8
部品1
 48
50.0
100
AcDbLine
 10
6623.070381697579
 20
1735.133159419849
 30
0.0
 11
6803.070381697579
 21
1735.133159419849
 31
0.0
  0
LINE
  5
1CB76
330
747D
100
AcDbEntity
  8
細線
 48
50.0
100
AcDbLine
 10
6786.567712218922
 20
1575.133159419849
 30
0.0
 11
6933.07038169758
 21
1721.635828898508
 31
0.0
  0
LINE
  5
1CB77
330
747D
100
AcDbEntity
  8
細線
 48
50.0
100
AcDbLine
 10
6623.070381697579
 20
1681.043512530584
 30
0.0
 11
6677.160028586849
 21
1735.133159419849
 31
0.0
  0
LINE
  5
1CB78
330
747D
100
AcDbEntity
  8
細線
 48
50.0
100
AcDbLine
 10
6623.070381697579
 20
1647.367552076573
 30
0.0
 11
6710.835989040861
 21
1735.133159419849
 31
0.0
  0
LINE
  5
1CB79
330
747D
100
AcDbEntity
  8
細線
 48
50.0
100
AcDbLine
 10
6623.070381697583
 20
1613.691591622563
 30
0.0
 11
6744.511949494867
 21
1735.133159419849
 31
0.0
  0
LINE
  5
1CB7A
330
747D
100
AcDbEntity
  8
部品1
 48
50.0
100
AcDbLine
 10
6693.070381697579
 20
1555.133159419849
 30
0.0
 11
6693.070381697579
 21
1575.133159419849
 31
0.0
  0
CIRCLE
  5
1CB7B
330
747D
100
AcDbEntity
  8
部品1
 48
50.0
100
AcDbCircle
 10
6763.07038169758
 20
1585.133159419849
 30
0.0
 40
10.0
  0
LINE
  5
1CB7C
330
747D
100
AcDbEntity
  8
細線
 48
50.0
100
AcDbLine
 10
6913.070381697584
 20
1634.283907990488
 30
0.0
 11
6933.070381697587
 21
1654.28390799049
 31
0.0
  0
LINE
  5
1CB7D
330
747D
100
AcDbEntity
  8
部品1
 48
50.0
100
AcDbLine
 10
6913.070381697581
 20
1657.792177791252
 30
0.0
 11
6893.07038169758
 21
1657.792177791252
 31
0.0
  0
LINE
  5
1CB7E
330
747D
100
AcDbEntity
  8
細線
 48
50.0
100
AcDbLine
 10
6902.90269104434
 20
1657.792177791252
 30
0.0
 11
6933.070381697587
 21
1687.959868444499
 31
0.0
  0
ARC
  5
1CB7F
330
747D
100
AcDbEntity
  8
部品1
 48
50.0
100
AcDbCircle
 10
6923.070381697581
 20
1585.133159419849
 30
0.0
 40
30.0
100
AcDbArc
 50
340.5287793654919
 51
0.0
  0
ARC
  5
1CB80
330
747D
100
AcDbEntity
  8
部品1
 48
50.0
100
AcDbCircle
 10
6923.070381697581
 20
1585.133159419849
 30
0.0
 40
30.0
100
AcDbArc
 50
180.0
 51
199.4712206345081
  0
LINE
  5
1CB81
330
747D
100
AcDbEntity
  8
細線
 48
50.0
100
AcDbLine
 10
6820.243672672936
 20
1575.133159419849
 30
0.0
 11
6893.07038169758
 21
1647.959868444497
 31
0.0
  0
LINE
  5
1CB82
330
747D
100
AcDbEntity
  8
部品1
 48
50.0
100
AcDbLine
 10
6913.070381697581
 20
1657.792177791252
 30
0.0
 11
6913.070381697581
 21
1585.133159419849
 31
0.0
  0
LINE
  5
1CB83
330
747D
100
AcDbEntity
  8
部品1
 48
50.0
100
AcDbLine
 10
6893.07038169758
 20
1657.792177791252
 30
0.0
 11
6893.07038169758
 21
1585.133159419849
 31
0.0
  0
LINE
  5
1CB84
330
747D
100
AcDbEntity
  8
細線
 48
50.0
100
AcDbLine
 10
6853.919633126941
 20
1575.133159419849
 30
0.0
 11
6893.07038169758
 21
1614.283907990486
 31
0.0
  0
CIRCLE
  5
1CB85
330
747D
100
AcDbEntity
  8
部品1
 48
50.0
100
AcDbCircle
 10
6923.070381697581
 20
1585.133159419849
 30
0.0
 40
10.0
  0
LEADER
  5
1CB86
330
747D
100
AcDbEntity
  8
寸法
 48
50.0
100
AcDbLeader
  3
INABA_S50G
 71
     0
 73
     0
 75
     1
 40
132.9441738241594
 41
490.0787401574803
 76
     3
 10
6941.62817723559
 20
2212.792177791253
 30
0.0
 10
6718.357546735576
 20
1941.57512525878
 30
0.0
 10
6593.357546735576
 20
1941.57512525878
 30
0.0
340
1CB87
213
-20.50276907354419
223
30.78492082892717
233
0.0
  0
MTEXT
  5
1CB87
102
{ACAD_REACTORS
330
1CB86
102
}
330
747D
100
AcDbEntity
  8
寸法
 62
     7
 48
50.0
100
AcDbMText
 10
6588.860315809121
 20
2002.262291341933
 30
0.0
 40
100.0
 41
0.0
 71
     6
 72
     1
  1
\A1;D10@300
  7
STYLE1
 73
     1
 44
1.0
1001
ACAD
1000
MTEXTBEGIN
1070
    73
1070
     1
1070
    44
1040
1.0
1070
    74
1070
     0
1000
MTEXTEND
  0
MTEXT
  5
1CB88
102
{ACAD_REACTORS
330
1CB89
102
}
330
747D
100
AcDbEntity
  8
寸法
 62
     7
 48
50.0
100
AcDbMText
 10
6720.68312530059
 20
2780.778434422402
 30
0.0
 40
100.0
 41
0.0
 71
     6
 72
     1
  1
\A1;金コテ押エ
  7
STYLE1
 73
     1
 44
1.0
1001
ACAD
1000
MTEXTBEGIN
1070
    73
1070
     1
1070
    44
1040
1.0
1070
    74
1070
     0
1000
MTEXTEND
  0
LEADER
  5
1CB89
330
747D
100
AcDbEntity
  8
寸法
 48
50.0
100
AcDbLeader
  3
INABA_S50G
 71
     0
 73
     0
 75
     1
 40
100.0
 41
566.6666666666665
 76
     3
 10
6903.07038169758
 20
2515.133159419849
 30
0.0
 10
6870.68312530059
 20
2705.778434422402
 30
0.0
 10
6745.68312530059
 20
2705.778434422402
 30
0.0
340
1CB88
  0
MTEXT
  5
1CB8A
102
{ACAD_REACTORS
330
1CB8C
102
}
330
747D
100
AcDbEntity
  8
寸法
 62
     7
 48
50.0
100
AcDbMText
 10
6663.487787293902
 20
2359.804174770106
 30
0.0
 40
100.0
 41
0.0
 71
     6
 72
     1
  1
D13
  7
STYLE1
 73
     1
 44
1.0
1001
ACAD
1000
MTEXTBEGIN
1070
    73
1070
     1
1070
    44
1040
1.0
1070
    74
1070
     0
1000
MTEXTEND
  0
TEXT
  5
1CB8B
330
747D
100
AcDbEntity
  8
部品1
 48
50.0
100
AcDbText
 10
6433.743770980761
 20
2124.49898632256
 30
0.0
 40
100.0
  1
G.L
  7
STYLE1
100
AcDbText
  0
LEADER
  5
1CB8C
330
747D
100
AcDbEntity
  8
寸法
 48
50.0
100
AcDbLeader
  3
INABA_S50G
 71
     0
 73
     0
 40
101.39087296526
 41
174.1421356237309
 76
     2
 10
6923.070381697582
 20
2340.451196162656
 30
0.0
 10
6688.487787293903
 20
2284.108738287477
 30
0.0
340
1CB8A
  0
LINE
  5
1CB8D
330
747D
100
AcDbEntity
  8
Ｇ．Ｌ
 48
50.0
100
AcDbLine
 10
6285.395504406384
 20
2115.133159419849
 30
0.0
 11
6803.070381697579
 21
2115.133159419849
 31
0.0
  0
LINE
  5
1CB8E
330
747D
100
AcDbEntity
  8
部品1
 48
50.0
100
AcDbLine
 10
6335.269417509706
 20
2198.603284268273
 30
0.0
 11
6383.460916560236
 21
2115.133159419849
 31
0.0
  0
LINE
  5
1CB8F
330
747D
100
AcDbEntity
  8
部品1
 48
50.0
100
AcDbLine
 10
6335.269417509706
 20
2198.603284268273
 30
0.0
 11
6431.652415610763
 21
2198.603284268273
 31
0.0
  0
LINE
  5
1CB90
330
747D
100
AcDbEntity
  8
部品1
 48
50.0
100
AcDbLine
 10
6431.652415610763
 20
2198.603284268273
 30
0.0
 11
6383.460916560236
 21
2115.133159419849
 31
0.0
  0
LINE
  5
1CB91
330
747D
100
AcDbEntity
  8
細線
 48
50.0
100
AcDbLine
 10
6803.070381697579
 20
1861.043512530581
 30
0.0
 11
6933.07038169758
 21
1991.043512530582
 31
0.0
  0
LINE
  5
1CB92
330
747D
100
AcDbEntity
  8
細線
 48
50.0
100
AcDbLine
 10
6803.070381697579
 20
1827.367552076571
 30
0.0
 11
6933.070381697584
 21
1957.36755207657
 31
0.0
  0
CIRCLE
  5
1CB93
330
747D
100
AcDbEntity
  8
部品1
 48
50.0
100
AcDbCircle
 10
6923.070381697581
 20
2340.451196162656
 30
0.0
 40
10.0
  0
ARC
  5
1CB94
330
747D
100
AcDbEntity
  8
部品1
 48
50.0
100
AcDbCircle
 10
6923.070381697581
 20
2340.451196162656
 30
0.0
 40
30.0
100
AcDbArc
 50
0.0
 51
180.0
  0
LINE
  5
1CB95
330
747D
100
AcDbEntity
  8
部品1
 48
50.0
100
AcDbLine
 10
6913.070381697581
 20
2267.792177791253
 30
0.0
 11
6913.070381697581
 21
2340.451196162656
 31
0.0
  0
LINE
  5
1CB96
330
747D
100
AcDbEntity
  8
細線
 48
50.0
100
AcDbLine
 10
6913.070381697581
 20
2306.775235708647
 30
0.0
 11
6933.07038169758
 21
2326.775235708646
 31
0.0
  0
LINE
  5
1CB97
330
747D
100
AcDbEntity
  8
部品1
 48
50.0
100
AcDbLine
 10
6893.07038169758
 20
2267.792177791255
 30
0.0
 11
6893.07038169758
 21
2340.451196162658
 31
0.0
  0
LINE
  5
1CB98
330
747D
100
AcDbEntity
  8
部品1
 48
50.0
100
AcDbLine
 10
6913.070381697581
 20
2267.792177791253
 30
0.0
 11
6893.07038169758
 21
2267.792177791255
 31
0.0
  0
LINE
  5
1CB99
330
747D
100
AcDbEntity
  8
細線
 48
50.0
100
AcDbLine
 10
6913.070381697584
 20
2273.099275254637
 30
0.0
 11
6933.07038169758
 21
2293.099275254637
 31
0.0
  0
LINE
  5
1CB9A
330
747D
100
AcDbEntity
  8
細線
 48
50.0
100
AcDbLine
 10
6803.070381697579
 20
2230.451196162656
 30
0.0
 11
6893.07038169758
 21
2320.451196162656
 31
0.0
  0
LINE
  5
1CB9B
330
747D
100
AcDbEntity
  8
細線
 48
50.0
100
AcDbLine
 10
6803.070381697579
 20
2163.099275254637
 30
0.0
 11
6907.763284234199
 21
2267.792177791253
 31
0.0
  0
LINE
  5
1CB9C
330
747D
100
AcDbEntity
  8
細線
 48
50.0
100
AcDbLine
 10
6803.070381697579
 20
2196.775235708646
 30
0.0
 11
6893.07038169758
 21
2286.775235708647
 31
0.0
  0
LINE
  5
1CB9D
330
747D
100
AcDbEntity
  8
細線
100
AcDbLine
 10
6840.60870520361
 20
2474.934299934137
 30
0.0
 11
6876.669279951044
 21
2474.934299934137
 31
0.0
  0
LINE
  5
1CB9E
330
747D
100
AcDbEntity
  8
細線
100
AcDbLine
 10
6917.647234250354
 20
2481.485108432753
 30
0.0
 11
6973.37722288879
 21
2483.122853130142
 31
0.0
  0
LINE
  5
1CB9F
330
747D
100
AcDbEntity
  8
細線
100
AcDbLine
 10
6876.669279951044
 20
2474.934299934137
 30
0.0
 11
6917.647234250354
 21
2481.485108432753
 31
0.0
  0
LINE
  5
1CBA0
330
747D
100
AcDbEntity
  8
細線
100
AcDbLine
 10
6803.070381697579
 20
2484.760541063888
 30
0.0
 11
6840.60870520361
 21
2474.934299934137
 31
0.0
  0
LINE
  5
1CBA1
330
747D
100
AcDbEntity
  8
細線
 48
50.0
100
AcDbLine
 10
6803.070381697579
 20
2466.182919340721
 30
0.0
 11
6817.79389450889
 21
2480.906432152027
 31
0.0
  0
LINE
  5
1CBA2
330
747D
100
AcDbEntity
  8
細線
 48
50.0
100
AcDbLine
 10
6803.070381697579
 20
2432.506958886712
 30
0.0
 11
6845.497722745007
 21
2474.934299934137
 31
0.0
  0
LINE
  5
1CBA3
330
747D
100
AcDbEntity
  8
細線
100
AcDbLine
 10
8549.751595216813
 20
2215.13315941985
 30
0.0
 11
8644.939000895385
 21
2310.320565098422
 31
0.0
  0
LINE
  5
1CBA4
330
747D
100
AcDbEntity
  8
細線
100
AcDbLine
 10
8589.751595216808
 20
2215.13315941985
 30
0.0
 11
8644.939000895385
 21
2270.320565098427
 31
0.0
  0
LINE
  5
1CBA5
330
747D
100
AcDbEntity
  8
細線
 48
50.0
100
AcDbLine
 10
8629.33595172926
 20
1935.13315941985
 30
0.0
 11
8637.374427502193
 21
1905.13315941985
 31
0.0
  0
LINE
  5
1CBA6
330
747D
100
AcDbEntity
  8
細線
 48
50.0
100
AcDbLine
 10
8621.297475956328
 20
1905.13315941985
 30
0.0
 11
8664.169346745302
 21
2065.13315941985
 31
0.0
  0
MTEXT
  5
1CBA7
102
{ACAD_REACTORS
330
1CBA8
102
}
330
747D
100
AcDbEntity
  8
寸法
 62
     7
 48
50.0
100
AcDbMText
 10
8512.03951329052
 20
2749.480778115984
 30
0.0
 40
100.0
 41
0.0
 71
     4
 72
     1
  1
C.B
  7
STYLE1
 73
     1
 44
1.0
1001
ACAD
1000
MTEXTBEGIN
1070
    73
1070
     1
1070
    44
1040
1.0
1070
    74
1070
     0
1000
MTEXTEND
  0
LEADER
  5
1CBA8
330
747D
100
AcDbEntity
  8
寸法
 48
50.0
100
AcDbLeader
  3
INABA_S50G
 71
     0
 73
     0
 74
     0
 75
     1
 40
100.0
 41
154.6599025766975
 76
     3
 10
8307.7579628064
 20
2450.440890006249
 30
0.0
 10
8362.03951329052
 20
2674.480778115984
 30
0.0
 10
8487.03951329052
 20
2674.480778115984
 30
0.0
340
1CBA7
  0
LINE
  5
1CBA9
330
747D
100
AcDbEntity
  8
部品1
 48
50.0
100
AcDbLine
 10
8644.939000895385
 20
2515.133159419849
 30
0.0
 11
7864.939000895386
 21
2515.133159419849
 31
0.0
  0
LINE
  5
1CBAA
330
747D
100
AcDbEntity
  8
部品1
100
AcDbLine
 10
7619.239054576556
 20
2065.13315941985
 30
0.0
 11
8890.638947214215
 21
2065.13315941985
 31
0.0
  0
LINE
  5
1CBAB
330
747D
100
AcDbEntity
  8
部品1
100
AcDbLine
 10
7619.239054576556
 20
1905.133159419854
 30
0.0
 11
8890.638947214215
 21
1905.133159419854
 31
0.0
  0
LINE
  5
1CBAC
330
747D
100
AcDbEntity
  8
Ｇ．Ｌ
 48
50.0
100
AcDbLine
 10
7043.070381697581
 20
2215.133159419849
 30
0.0
 11
9071.179341309653
 21
2215.13315941985
 31
0.0
  0
LINE
  5
1CBAD
330
747D
100
AcDbEntity
  8
部品1
 48
50.0
100
AcDbLine
 10
7043.070381697581
 20
2515.133159419849
 30
0.0
 11
7043.070381697581
 21
1735.133159419849
 31
0.0
  0
MTEXT
  5
1CBAE
102
{ACAD_REACTORS
330
1CBAF
102
}
330
747D
100
AcDbEntity
  8
寸法
 62
     7
 48
50.0
100
AcDbMText
 10
7431.057347856658
 20
1421.525019952562
 30
0.0
 40
100.0
 41
0.0
 71
     4
 72
     1
  1
\A1;D10@300
  7
STYLE1
 73
     1
 44
1.0
1001
ACAD
1000
MTEXTBEGIN
1070
    73
1070
     1
1070
    44
1040
1.0
1070
    74
1070
     0
1000
MTEXTEND
  0
LEADER
  5
1CBAF
330
747D
100
AcDbEntity
  8
寸法
 48
50.0
100
AcDbLeader
  3
INABA_S50G
 71
     0
 73
     0
 74
     0
 75
     1
 40
132.9441738241594
 41
490.0787401574803
 76
     3
 10
7127.064312850082
 20
1566.418766649942
 30
0.0
 10
7281.057347856658
 20
1330.052933040482
 30
0.0
 10
7406.057347856658
 20
1330.052933040482
 30
0.0
340
1CBAE
  0
LINE
  5
1CBB0
330
747D
100
AcDbEntity
  8
部品1
 48
50.0
100
AcDbLine
 10
7690.015961550834
 20
663.2551147814629
 30
0.0
 11
7050.015961550835
 21
663.2551147814629
 31
0.0
  0
LINE
  5
1CBB1
330
747D
100
AcDbEntity
  8
部品1
 48
50.0
100
AcDbLine
 10
7690.015961550834
 20
823.2551147814627
 30
0.0
 11
7050.015961550835
 21
823.2551147814627
 31
0.0
  0
TEXT
  5
1CBB2
330
747D
100
AcDbEntity
  8
部品1
 48
50.0
100
AcDbText
 10
7092.206462895051
 20
694.4629009861346
 30
0.0
 40
96.0
  1
基礎断面
  7
STYLE2
100
AcDbText
  0
LINE
  5
1CBB3
330
747D
100
AcDbEntity
  8
部品1
 48
50.0
100
AcDbLine
 10
7050.015961550835
 20
823.2551147814627
 30
0.0
 11
7050.015961550835
 21
663.2551147814629
 31
0.0
  0
LINE
  5
1CBB4
330
747D
100
AcDbEntity
  8
部品1
 48
50.0
100
AcDbLine
 10
7690.015961550834
 20
823.2551147814627
 30
0.0
 11
7690.015961550834
 21
663.2551147814629
 31
0.0
  0
LEADER
  5
1CBB5
330
747D
100
AcDbEntity
  8
寸法
 48
50.0
100
AcDbLeader
  3
INABA_S50G
 71
     0
 73
     0
 74
     0
 75
     1
 40
101.39087296526
 41
170.0787401574803
 76
     3
 10
7083.07038169758
 20
1585.133159419849
 30
0.0
 10
7137.3519321817
 20
1808.477611046954
 30
0.0
 10
7262.3519321817
 20
1808.477611046954
 30
0.0
340
1CBB6
  0
MTEXT
  5
1CBB6
102
{ACAD_REACTORS
330
1CBB5
102
}
330
747D
100
AcDbEntity
  8
寸法
 62
     7
 48
50.0
100
AcDbMText
 10
7287.351932181699
 20
1884.173047529584
 30
0.0
 40
100.0
 41
0.0
 71
     4
 72
     1
  1
D10
  7
STYLE1
 73
     1
 44
1.0
1001
ACAD
1000
MTEXTBEGIN
1070
    73
1070
     1
1070
    44
1040
1.0
1070
    74
1070
     0
1000
MTEXTEND
  0
LINE
  5
1CBB7
330
747D
100
AcDbEntity
  8
部品1
 48
50.0
100
AcDbLine
 10
7223.070381697579
 20
1735.133159419849
 30
0.0
 11
7223.070381697579
 21
1435.133159419849
 31
0.0
  0
LINE
  5
1CBB8
330
747D
100
AcDbEntity
  8
細線
 48
50.0
100
AcDbLine
 10
7185.383079483073
 20
1435.133159419849
 30
0.0
 11
7223.070381697579
 21
1472.820461634355
 31
0.0
  0
LINE
  5
1CBB9
330
747D
100
AcDbEntity
  8
細線
 48
50.0
100
AcDbLine
 10
7182.991843534384
 20
1405.133159419849
 30
0.0
 11
7174.95336776145
 21
1435.133159419849
 31
0.0
  0
LINE
  5
1CBBA
330
747D
100
AcDbEntity
  8
細線
 48
50.0
100
AcDbLine
 10
7084.381787350321
 20
1405.133159419849
 30
0.0
 11
7076.343311577388
 21
1435.133159419849
 31
0.0
  0
LINE
  5
1CBBB
330
747D
100
AcDbEntity
  8
細線
 48
50.0
100
AcDbLine
 10
7148.158448518334
 20
1275.133159419849
 30
0.0
 11
7191.030319307312
 21
1435.133159419849
 31
0.0
  0
LINE
  5
1CBBC
330
747D
100
AcDbEntity
  8
細線
 48
50.0
100
AcDbLine
 10
7156.196924291268
 20
1305.133159419849
 30
0.0
 11
7164.235400064201
 21
1275.133159419849
 31
0.0
  0
LINE
  5
1CBBD
330
747D
100
AcDbEntity
  8
細線
 48
50.0
100
AcDbLine
 10
7049.548392334273
 20
1275.133159419849
 30
0.0
 11
7092.420263123251
 21
1435.133159419849
 31
0.0
  0
LINE
  5
1CBBE
330
747D
100
AcDbEntity
  8
細線
 48
50.0
100
AcDbLine
 10
7057.586868107207
 20
1305.133159419849
 30
0.0
 11
7065.62534388014
 21
1275.133159419849
 31
0.0
  0
LINE
  5
1CBBF
330
747D
100
AcDbEntity
  8
細線
 48
50.0
100
AcDbLine
 10
7281.601899718444
 20
1405.133159419849
 30
0.0
 11
7273.56342394551
 21
1435.133159419849
 31
0.0
  0
LINE
  5
1CBC0
330
747D
100
AcDbEntity
  8
部品1
 48
50.0
100
AcDbLine
 10
7323.070381697579
 20
1275.133159419849
 30
0.0
 11
7323.070381697579
 21
1435.133159419849
 31
0.0
  0
LINE
  5
1CBC1
330
747D
100
AcDbEntity
  8
細線
 48
50.0
100
AcDbLine
 10
7246.768504702394
 20
1275.133159419849
 30
0.0
 11
7289.640375491373
 21
1435.133159419849
 31
0.0
  0
LINE
  5
1CBC2
330
747D
100
AcDbEntity
  8
細線
 48
50.0
100
AcDbLine
 10
7254.806980475328
 20
1305.133159419849
 30
0.0
 11
7262.84545624826
 21
1275.133159419849
 31
0.0
  0
LINE
  5
1CBC3
330
747D
100
AcDbEntity
  8
細線
 48
50.0
100
AcDbLine
 10
7219.059039937085
 20
1435.133159419849
 30
0.0
 11
7223.070381697579
 21
1439.144501180346
 31
0.0
  0
LINE
  5
1CBC4
330
747D
100
AcDbEntity
  8
細線
 48
50.0
100
AcDbLine
 10
7055.975395850994
 20
1575.133159419849
 30
0.0
 11
7215.975395851001
 21
1735.133159419849
 31
0.0
  0
LINE
  5
1CBC5
330
747D
100
AcDbEntity
  8
部品1
 48
50.0
100
AcDbLine
 10
7043.070381697581
 20
1735.133159419849
 30
0.0
 11
7223.070381697579
 21
1735.133159419849
 31
0.0
  0
LINE
  5
1CBC6
330
747D
100
AcDbEntity
  8
細線
 48
50.0
100
AcDbLine
 10
7089.651356305011
 20
1575.133159419849
 30
0.0
 11
7223.070381697579
 21
1708.552184812423
 31
0.0
  0
LINE
  5
1CBC7
330
747D
100
AcDbEntity
  8
細線
 48
50.0
100
AcDbLine
 10
7123.32731675902
 20
1575.133159419849
 30
0.0
 11
7223.070381697579
 21
1674.876224358411
 31
0.0
  0
LINE
  5
1CBC8
330
747D
100
AcDbEntity
  8
部品1
 48
50.0
100
AcDbLine
 10
7153.070381697578
 20
1555.133159419849
 30
0.0
 11
7153.070381697578
 21
1575.133159419849
 31
0.0
  0
CIRCLE
  5
1CBC9
330
747D
100
AcDbEntity
  8
部品1
 48
50.0
100
AcDbCircle
 10
7083.07038169758
 20
1585.133159419849
 30
0.0
 40
10.0
  0
LINE
  5
1CBCA
330
747D
100
AcDbEntity
  8
細線
100
AcDbLine
 10
7891.679725364205
 20
2065.13315941985
 30
0.0
 11
7741.6797253642
 21
2215.13315941985
 31
0.0
  0
LINE
  5
1CBCB
330
747D
100
AcDbEntity
  8
細線
100
AcDbLine
 10
7931.679725364218
 20
2065.13315941985
 30
0.0
 11
7781.67972536422
 21
2215.13315941985
 31
0.0
  0
LINE
  5
1CBCC
330
747D
100
AcDbEntity
  8
部品1
100
AcDbLine
 10
7719.239054576556
 20
2215.13315941985
 30
0.0
 11
7719.239054576558
 21
2065.13315941985
 31
0.0
  0
LINE
  5
1CBCD
330
747D
100
AcDbEntity
  8
細線
 48
50.0
100
AcDbLine
 10
7635.196914115724
 20
1905.13315941985
 30
0.0
 11
7678.068784904701
 21
2065.13315941985
 31
0.0
  0
LINE
  5
1CBCE
330
747D
100
AcDbEntity
  8
細線
 48
50.0
100
AcDbLine
 10
7643.235389888658
 20
1935.13315941985
 30
0.0
 11
7651.273865661591
 21
1905.13315941985
 31
0.0
  0
LINE
  5
1CBCF
330
747D
100
AcDbEntity
  8
細線
 48
50.0
100
AcDbLine
 10
7670.030309131769
 20
2035.13315941985
 30
0.0
 11
7661.991833358836
 21
2065.13315941985
 31
0.0
  0
LINE
  5
1CBD0
330
747D
100
AcDbEntity
  8
細線
 48
50.0
100
AcDbLine
 10
7733.806970299781
 20
1905.13315941985
 30
0.0
 11
7776.678841088759
 21
2065.13315941985
 31
0.0
  0
LINE
  5
1CBD1
330
747D
100
AcDbEntity
  8
細線
 48
50.0
100
AcDbLine
 10
7741.845446072715
 20
1935.13315941985
 30
0.0
 11
7749.88392184565
 21
1905.13315941985
 31
0.0
  0
LINE
  5
1CBD2
330
747D
100
AcDbEntity
  8
細線
 48
50.0
100
AcDbLine
 10
7768.640365315826
 20
2035.13315941985
 30
0.0
 11
7760.601889542893
 21
2065.13315941985
 31
0.0
  0
LINE
  5
1CBD3
330
747D
100
AcDbEntity
  8
部品1
100
AcDbLine
 10
7619.239054576556
 20
2065.13315941985
 30
0.0
 11
7619.239054576556
 21
1905.133159419854
 31
0.0
  0
LINE
  5
1CBD4
330
747D
100
AcDbEntity
  8
細線
100
AcDbLine
 10
7002.881291567017
 20
2481.485108432753
 30
0.0
 11
7043.070381697581
 21
2473.29655523675
 31
0.0
  0
LINE
  5
1CBD5
330
747D
100
AcDbEntity
  8
細線
100
AcDbLine
 10
8229.751595216812
 20
2215.13315941985
 30
0.0
 11
8529.751595216813
 21
2515.133159419849
 31
0.0
  0
LINE
  5
1CBD6
330
747D
100
AcDbEntity
  8
細線
100
AcDbLine
 10
8269.751595216813
 20
2215.13315941985
 30
0.0
 11
8569.751595216812
 21
2515.133159419849
 31
0.0
  0
LINE
  5
1CBD7
330
747D
100
AcDbEntity
  8
部品1
 48
50.0
100
AcDbLine
 10
7864.939000895386
 20
2515.133159419849
 30
0.0
 11
7864.939000895386
 21
2215.13315941985
 31
0.0
  0
LINE
  5
1CBD8
330
747D
100
AcDbEntity
  8
細線
100
AcDbLine
 10
7909.75159521681
 20
2215.133159419849
 30
0.0
 11
8209.751595216813
 21
2515.133159419849
 31
0.0
  0
LINE
  5
1CBD9
330
747D
100
AcDbEntity
  8
細線
100
AcDbLine
 10
7949.751595216813
 20
2215.13315941985
 30
0.0
 11
8249.751595216809
 21
2515.133159419849
 31
0.0
  0
LINE
  5
1CBDA
330
747D
100
AcDbEntity
  8
細線
100
AcDbLine
 10
8251.679725364223
 20
2065.13315941985
 30
0.0
 11
8101.679725364206
 21
2215.13315941985
 31
0.0
  0
LINE
  5
1CBDB
330
747D
100
AcDbEntity
  8
細線
100
AcDbLine
 10
8291.679725364224
 20
2065.13315941985
 30
0.0
 11
8141.679725364211
 21
2215.13315941985
 31
0.0
  0
LINE
  5
1CBDC
330
747D
100
AcDbEntity
  8
細線
100
AcDbLine
 10
8211.679725364207
 20
2065.13315941985
 30
0.0
 11
8061.679725364205
 21
2215.13315941985
 31
0.0
  0
LINE
  5
1CBDD
330
747D
100
AcDbEntity
  8
細線
100
AcDbLine
 10
7971.679725364225
 20
2065.13315941985
 30
0.0
 11
7821.679725364214
 21
2215.133159419849
 31
0.0
  0
LINE
  5
1CBDE
330
747D
100
AcDbEntity
  8
細線
 48
50.0
100
AcDbLine
 10
7867.250421499893
 20
2035.13315941985
 30
0.0
 11
7859.211945726959
 21
2065.13315941985
 31
0.0
  0
LINE
  5
1CBDF
330
747D
100
AcDbEntity
  8
細線
 48
50.0
100
AcDbLine
 10
7840.45550225678
 20
1935.13315941985
 30
0.0
 11
7848.493978029715
 21
1905.13315941985
 31
0.0
  0
LINE
  5
1CBE0
330
747D
100
AcDbEntity
  8
細線
 48
50.0
100
AcDbLine
 10
7965.860477683951
 20
2035.13315941985
 30
0.0
 11
7957.822001911016
 21
2065.13315941985
 31
0.0
  0
LINE
  5
1CBE1
330
747D
100
AcDbEntity
  8
細線
 48
50.0
100
AcDbLine
 10
7939.065558440837
 20
1935.13315941985
 30
0.0
 11
7947.104034213769
 21
1905.13315941985
 31
0.0
  0
LINE
  5
1CBE2
330
747D
100
AcDbEntity
  8
細線
 48
50.0
100
AcDbLine
 10
7931.027082667904
 20
1905.13315941985
 30
0.0
 11
7973.898953456886
 21
2065.13315941985
 31
0.0
  0
LINE
  5
1CBE3
330
747D
100
AcDbEntity
  8
細線
 48
50.0
100
AcDbLine
 10
7832.417026483847
 20
1905.13315941985
 30
0.0
 11
7875.288897272826
 21
2065.13315941985
 31
0.0
  0
LINE
  5
1CBE4
330
747D
100
AcDbEntity
  8
細線
 48
50.0
100
AcDbLine
 10
8064.470533868014
 20
2035.13315941985
 30
0.0
 11
8056.432058095081
 21
2065.13315941985
 31
0.0
  0
LINE
  5
1CBE5
330
747D
100
AcDbEntity
  8
細線
 48
50.0
100
AcDbLine
 10
8163.080590052071
 20
2035.13315941985
 30
0.0
 11
8155.042114279138
 21
2065.13315941985
 31
0.0
  0
LINE
  5
1CBE6
330
747D
100
AcDbEntity
  8
細線
 48
50.0
100
AcDbLine
 10
8136.285670808961
 20
1935.13315941985
 30
0.0
 11
8144.324146581894
 21
1905.13315941985
 31
0.0
  0
LINE
  5
1CBE7
330
747D
100
AcDbEntity
  8
細線
 48
50.0
100
AcDbLine
 10
8128.247195036028
 20
1905.13315941985
 30
0.0
 11
8171.119065825006
 21
2065.13315941985
 31
0.0
  0
LINE
  5
1CBE8
330
747D
100
AcDbEntity
  8
細線
 48
50.0
100
AcDbLine
 10
8037.675614624902
 20
1935.13315941985
 30
0.0
 11
8045.714090397835
 21
1905.13315941985
 31
0.0
  0
LINE
  5
1CBE9
330
747D
100
AcDbEntity
  8
細線
 48
50.0
100
AcDbLine
 10
8029.637138851965
 20
1905.13315941985
 30
0.0
 11
8072.509009640947
 21
2065.13315941985
 31
0.0
  0
LINE
  5
1CBEA
330
747D
100
AcDbEntity
  8
細線
100
AcDbLine
 10
8611.679725364217
 20
2065.13315941985
 30
0.0
 11
8461.679725364222
 21
2215.13315941985
 31
0.0
  0
LINE
  5
1CBEB
330
747D
100
AcDbEntity
  8
細線
100
AcDbLine
 10
8571.679725364218
 20
2065.13315941985
 30
0.0
 11
8421.679725364212
 21
2215.13315941985
 31
0.0
  0
LINE
  5
1CBEC
330
747D
100
AcDbEntity
  8
細線
100
AcDbLine
 10
8531.679725364202
 20
2065.13315941985
 30
0.0
 11
8381.679725364213
 21
2215.13315941985
 31
0.0
  0
LINE
  5
1CBED
330
747D
100
AcDbEntity
  8
細線
 48
50.0
100
AcDbLine
 10
8424.077363588207
 20
1905.13315941985
 30
0.0
 11
8466.949234377185
 21
2065.13315941985
 31
0.0
  0
LINE
  5
1CBEE
330
747D
100
AcDbEntity
  8
細線
 48
50.0
100
AcDbLine
 10
8261.690646236131
 20
2035.13315941985
 30
0.0
 11
8253.652170463196
 21
2065.13315941985
 31
0.0
  0
LINE
  5
1CBEF
330
747D
100
AcDbEntity
  8
細線
 48
50.0
100
AcDbLine
 10
8360.300702420191
 20
2035.13315941985
 30
0.0
 11
8352.262226647257
 21
2065.13315941985
 31
0.0
  0
LINE
  5
1CBF0
330
747D
100
AcDbEntity
  8
細線
 48
50.0
100
AcDbLine
 10
8333.505783177079
 20
1935.13315941985
 30
0.0
 11
8341.544258950014
 21
1905.13315941985
 31
0.0
  0
LINE
  5
1CBF1
330
747D
100
AcDbEntity
  8
細線
 48
50.0
100
AcDbLine
 10
8325.467307404146
 20
1905.13315941985
 30
0.0
 11
8368.339178193128
 21
2065.13315941985
 31
0.0
  0
LINE
  5
1CBF2
330
747D
100
AcDbEntity
  8
細線
 48
50.0
100
AcDbLine
 10
8234.895726993018
 20
1935.13315941985
 30
0.0
 11
8242.934202765951
 21
1905.13315941985
 31
0.0
  0
LINE
  5
1CBF3
330
747D
100
AcDbEntity
  8
細線
 48
50.0
100
AcDbLine
 10
8226.857251220087
 20
1905.13315941985
 30
0.0
 11
8269.729122009064
 21
2065.13315941985
 31
0.0
  0
LINE
  5
1CBF4
330
747D
100
AcDbEntity
  8
細線
 48
50.0
100
AcDbLine
 10
8557.520814788313
 20
2035.13315941985
 30
0.0
 11
8549.48233901538
 21
2065.13315941985
 31
0.0
  0
LINE
  5
1CBF5
330
747D
100
AcDbEntity
  8
細線
 48
50.0
100
AcDbLine
 10
8530.7258955452
 20
1935.13315941985
 30
0.0
 11
8538.764371318135
 21
1905.13315941985
 31
0.0
  0
LINE
  5
1CBF6
330
747D
100
AcDbEntity
  8
細線
 48
50.0
100
AcDbLine
 10
8522.687419772266
 20
1905.13315941985
 30
0.0
 11
8565.559290561244
 21
2065.13315941985
 31
0.0
  0
LINE
  5
1CBF7
330
747D
100
AcDbEntity
  8
細線
 48
50.0
100
AcDbLine
 10
8432.115839361143
 20
1935.13315941985
 30
0.0
 11
8440.154315134074
 21
1905.13315941985
 31
0.0
  0
LINE
  5
1CBF8
330
747D
100
AcDbEntity
  8
細線
 48
50.0
100
AcDbLine
 10
8458.910758604252
 20
2035.13315941985
 30
0.0
 11
8450.872282831317
 21
2065.13315941985
 31
0.0
  0
LINE
  5
1CBF9
330
747D
100
AcDbEntity
  8
細線
100
AcDbLine
 10
7864.939000895386
 20
2490.320565098425
 30
0.0
 11
7889.751595216812
 21
2515.133159419849
 31
0.0
  0
LINE
  5
1CBFA
330
747D
100
AcDbEntity
  8
細線
100
AcDbLine
 10
7864.939000895386
 20
2450.320565098426
 30
0.0
 11
7929.751595216811
 21
2515.133159419849
 31
0.0
  0
LINE
  5
1CBFB
330
747D
100
AcDbEntity
  8
細線
 48
50.0
100
AcDbLine
 10
10000.494285222
 20
1749.813627755278
 30
0.0
 11
10090.49428522199
 21
1839.813627755274
 31
0.0
  0
LINE
  5
1CBFC
330
747D
100
AcDbEntity
  8
細線
 48
50.0
100
AcDbLine
 10
10000.494285222
 20
1783.48958820929
 30
0.0
 11
10090.49428522199
 21
1873.489588209284
 31
0.0
  0
LINE
  5
1CBFD
330
747D
100
AcDbEntity
  8
部品1
 48
50.0
100
AcDbLine
 10
10090.49428522199
 20
2590.662879184638
 30
0.0
 11
10090.49428522199
 21
1810.662879184638
 31
0.0
  0
LINE
  5
1CBFE
330
747D
100
AcDbEntity
  8
部品1
 48
50.0
100
AcDbLine
 10
9850.494285221994
 20
1810.662879184638
 30
0.0
 11
9850.494285221994
 21
2590.662879184638
 31
0.0
  0
LINE
  5
1CBFF
330
747D
100
AcDbEntity
  8
部品1
 48
50.0
100
AcDbLine
 10
9980.494285222
 20
1660.662879184638
 30
0.0
 11
9980.494285221993
 21
2305.039852923524
 31
0.0
  0
LINE
  5
1CC00
330
747D
100
AcDbEntity
  8
部品1
 48
50.0
100
AcDbLine
 10
10000.494285222
 20
1660.662879184638
 30
0.0
 11
10000.49428522199
 21
2319.006471356929
 31
0.0
  0
LINE
  5
1CC01
330
747D
100
AcDbEntity
  8
部品1
 48
50.0
100
AcDbLine
 10
9374.335079308975
 20
823.2551147814627
 30
0.0
 11
9374.335079308975
 21
663.2551147814629
 31
0.0
  0
LINE
  5
1CC02
330
747D
100
AcDbEntity
  8
細線
 48
50.0
100
AcDbLine
 10
9833.991615743336
 20
1650.662879184638
 30
0.0
 11
9980.494285221993
 21
1797.165548663297
 31
0.0
  0
LINE
  5
1CC03
330
747D
100
AcDbEntity
  8
細線
 48
50.0
100
AcDbLine
 10
9761.343536651358
 20
1510.662879184638
 30
0.0
 11
9881.343536651357
 21
1630.662879184638
 31
0.0
  0
LINE
  5
1CC04
330
747D
100
AcDbEntity
  8
部品1
 48
50.0
100
AcDbLine
 10
9740.494285221997
 20
1650.662879184638
 30
0.0
 11
10200.49428522199
 21
1650.662879184638
 31
0.0
  0
LINE
  5
1CC05
330
747D
100
AcDbEntity
  8
部品1
 48
50.0
100
AcDbLine
 10
9740.494285221997
 20
1630.662879184638
 30
0.0
 11
10200.49428522199
 21
1630.662879184638
 31
0.0
  0
LINE
  5
1CC06
330
747D
100
AcDbEntity
  8
部品1
 48
50.0
100
AcDbLine
 10
9670.494285221996
 20
1510.662879184638
 30
0.0
 11
9670.494285221996
 21
1810.662879184638
 31
0.0
  0
LINE
  5
1CC07
330
747D
100
AcDbEntity
  8
細線
 48
50.0
100
AcDbLine
 10
9693.991615743335
 20
1510.662879184638
 30
0.0
 11
9813.991615743336
 21
1630.662879184638
 31
0.0
  0
LINE
  5
1CC08
330
747D
100
AcDbEntity
  8
細線
 48
50.0
100
AcDbLine
 10
9727.667576197347
 20
1510.662879184638
 30
0.0
 11
9847.66757619735
 21
1630.662879184638
 31
0.0
  0
LINE
  5
1CC09
330
747D
100
AcDbEntity
  8
細線
 48
50.0
100
AcDbLine
 10
9638.755409954427
 20
1480.662879184638
 30
0.0
 11
9630.716934181497
 21
1510.662879184638
 31
0.0
  0
LINE
  5
1CC0A
330
747D
100
AcDbEntity
  8
細線
 48
50.0
100
AcDbLine
 10
9611.960490711318
 20
1380.662879184638
 30
0.0
 11
9619.998966484253
 21
1350.662879184638
 31
0.0
  0
LINE
  5
1CC0B
330
747D
100
AcDbEntity
  8
細線
 48
50.0
100
AcDbLine
 10
9603.922014938381
 20
1350.662879184638
 30
0.0
 11
9646.793885727362
 21
1510.662879184638
 31
0.0
  0
LINE
  5
1CC0C
330
747D
100
AcDbEntity
  8
部品1
 48
50.0
100
AcDbLine
 10
9570.494285221995
 20
1350.662879184638
 30
0.0
 11
9570.494285221995
 21
1510.662879184638
 31
0.0
  0
LINE
  5
1CC0D
330
747D
100
AcDbEntity
  8
細線
 48
50.0
100
AcDbLine
 10
9835.975522322554
 20
1480.662879184638
 30
0.0
 11
9827.937046549621
 21
1510.662879184638
 31
0.0
  0
LINE
  5
1CC0E
330
747D
100
AcDbEntity
  8
細線
 48
50.0
100
AcDbLine
 10
9809.180603079441
 20
1380.662879184638
 30
0.0
 11
9817.219078852374
 21
1350.662879184638
 31
0.0
  0
LINE
  5
1CC0F
330
747D
100
AcDbEntity
  8
細線
 48
50.0
100
AcDbLine
 10
9801.142127306505
 20
1350.662879184638
 30
0.0
 11
9844.013998095483
 21
1510.662879184638
 31
0.0
  0
LINE
  5
1CC10
330
747D
100
AcDbEntity
  8
細線
 48
50.0
100
AcDbLine
 10
9737.365466138491
 20
1480.662879184638
 30
0.0
 11
9729.326990365555
 21
1510.662879184638
 31
0.0
  0
LINE
  5
1CC11
330
747D
100
AcDbEntity
  8
細線
 48
50.0
100
AcDbLine
 10
9710.570546895381
 20
1380.662879184638
 30
0.0
 11
9718.609022668312
 21
1350.662879184638
 31
0.0
  0
LINE
  5
1CC12
330
747D
100
AcDbEntity
  8
細線
 48
50.0
100
AcDbLine
 10
9702.53207112244
 20
1350.662879184638
 30
0.0
 11
9745.403941911426
 21
1510.662879184638
 31
0.0
  0
CIRCLE
  5
1CC13
330
747D
100
AcDbEntity
  8
部品1
 48
50.0
100
AcDbCircle
 10
9810.494285221992
 20
1660.662879184638
 30
0.0
 40
10.0
  0
LINE
  5
1CC14
330
747D
100
AcDbEntity
  8
細線
 48
50.0
100
AcDbLine
 10
9670.494285221998
 20
1689.221311387352
 30
0.0
 11
9791.935853019282
 21
1810.662879184638
 31
0.0
  0
LINE
  5
1CC15
330
747D
100
AcDbEntity
  8
細線
 48
50.0
100
AcDbLine
 10
9670.494285221996
 20
1722.897271841362
 30
0.0
 11
9758.259892565277
 21
1810.662879184638
 31
0.0
  0
LINE
  5
1CC16
330
747D
100
AcDbEntity
  8
細線
 48
50.0
100
AcDbLine
 10
9670.494285221996
 20
1756.573232295373
 30
0.0
 11
9724.58393211126
 21
1810.662879184638
 31
0.0
  0
LINE
  5
1CC17
330
747D
100
AcDbEntity
  8
部品1
 48
50.0
100
AcDbLine
 10
9740.494285221997
 20
1630.662879184638
 30
0.0
 11
9740.494285221997
 21
1650.662879184638
 31
0.0
  0
LINE
  5
1CC18
330
747D
100
AcDbEntity
  8
部品1
 48
50.0
100
AcDbLine
 10
9670.494285221996
 20
1810.662879184638
 30
0.0
 11
9850.494285221994
 21
1810.662879184638
 31
0.0
  0
LINE
  5
1CC19
330
747D
100
AcDbEntity
  8
細線
 48
50.0
100
AcDbLine
 10
10232.80698300748
 20
1510.662879184638
 30
0.0
 11
10270.49428522199
 21
1548.350181399143
 31
0.0
  0
LINE
  5
1CC1A
330
747D
100
AcDbEntity
  8
部品1
 48
50.0
100
AcDbLine
 10
10270.49428522199
 20
1810.662879184638
 30
0.0
 11
10270.49428522199
 21
1510.662879184638
 31
0.0
  0
LINE
  5
1CC1B
330
747D
100
AcDbEntity
  8
細線
 48
50.0
100
AcDbLine
 10
10030.75122028343
 20
1510.662879184638
 30
0.0
 11
10150.75233008986
 21
1630.663988991062
 31
0.0
  0
LINE
  5
1CC1C
330
747D
100
AcDbEntity
  8
細線
 48
50.0
100
AcDbLine
 10
9997.075259829424
 20
1510.662879184638
 30
0.0
 11
10117.07525982942
 21
1630.662879184638
 31
0.0
  0
LINE
  5
1CC1D
330
747D
100
AcDbEntity
  8
細線
 48
50.0
100
AcDbLine
 10
9963.39929937541
 20
1510.662879184638
 30
0.0
 11
10083.39929937541
 21
1630.662879184638
 31
0.0
  0
LINE
  5
1CC1E
330
747D
100
AcDbEntity
  8
細線
 48
50.0
100
AcDbLine
 10
10033.19563469067
 20
1480.662879184638
 30
0.0
 11
10025.15715891774
 21
1510.662879184638
 31
0.0
  0
LINE
  5
1CC1F
330
747D
100
AcDbEntity
  8
細線
 48
50.0
100
AcDbLine
 10
10006.40071544756
 20
1380.662879184638
 30
0.0
 11
10014.43919122049
 21
1350.662879184638
 31
0.0
  0
LINE
  5
1CC20
330
747D
100
AcDbEntity
  8
細線
 48
50.0
100
AcDbLine
 10
9934.585578506613
 20
1480.662879184638
 30
0.0
 11
9926.547102733678
 21
1510.662879184638
 31
0.0
  0
LINE
  5
1CC21
330
747D
100
AcDbEntity
  8
細線
 48
50.0
100
AcDbLine
 10
9907.790659263504
 20
1380.662879184638
 30
0.0
 11
9915.829135036437
 21
1350.662879184638
 31
0.0
  0
LINE
  5
1CC22
330
747D
100
AcDbEntity
  8
細線
 48
50.0
100
AcDbLine
 10
9899.752183490564
 20
1350.662879184638
 30
0.0
 11
9942.624054279542
 21
1510.662879184638
 31
0.0
  0
LINE
  5
1CC23
330
747D
100
AcDbEntity
  8
細線
 48
50.0
100
AcDbLine
 10
9998.362239674627
 20
1350.662879184638
 30
0.0
 11
10041.2341104636
 21
1510.662879184638
 31
0.0
  0
LINE
  5
1CC24
330
747D
100
AcDbEntity
  8
細線
 48
50.0
100
AcDbLine
 10
10266.4829434615
 20
1510.662879184638
 30
0.0
 11
10270.49428522199
 21
1514.674220945135
 31
0.0
  0
LINE
  5
1CC25
330
747D
100
AcDbEntity
  8
細線
 48
50.0
100
AcDbLine
 10
10230.41574705879
 20
1480.662879184638
 30
0.0
 11
10222.37727128586
 21
1510.662879184638
 31
0.0
  0
LINE
  5
1CC26
330
747D
100
AcDbEntity
  8
細線
 48
50.0
100
AcDbLine
 10
10203.62082781568
 20
1380.662879184638
 30
0.0
 11
10211.65930358861
 21
1350.662879184638
 31
0.0
  0
LINE
  5
1CC27
330
747D
100
AcDbEntity
  8
細線
 48
50.0
100
AcDbLine
 10
10131.80569087473
 20
1480.662879184638
 30
0.0
 11
10123.7672151018
 21
1510.662879184638
 31
0.0
  0
LINE
  5
1CC28
330
747D
100
AcDbEntity
  8
細線
 48
50.0
100
AcDbLine
 10
10105.01077163162
 20
1380.662879184638
 30
0.0
 11
10113.04924740455
 21
1350.662879184638
 31
0.0
  0
LINE
  5
1CC29
330
747D
100
AcDbEntity
  8
細線
 48
50.0
100
AcDbLine
 10
10096.97229585868
 20
1350.662879184638
 30
0.0
 11
10139.84416664766
 21
1510.662879184638
 31
0.0
  0
LINE
  5
1CC2A
330
747D
100
AcDbEntity
  8
細線
 48
50.0
100
AcDbLine
 10
10195.58235204275
 20
1350.662879184638
 30
0.0
 11
10238.45422283172
 21
1510.662879184638
 31
0.0
  0
ARC
  5
1CC2B
330
747D
100
AcDbEntity
  8
部品1
 48
50.0
100
AcDbCircle
 10
9970.494285221995
 20
1660.662879184638
 30
0.0
 40
30.0
100
AcDbArc
 50
340.5287793654919
 51
0.0
  0
LINE
  5
1CC2C
330
747D
100
AcDbEntity
  8
細線
 48
50.0
100
AcDbLine
 10
9950.326594568753
 20
1733.321897556041
 30
0.0
 11
9980.494285222
 21
1763.489588209288
 31
0.0
  0
LINE
  5
1CC2D
330
747D
100
AcDbEntity
  8
細線
 48
50.0
100
AcDbLine
 10
9960.494285221997
 20
1709.813627755277
 30
0.0
 11
9980.494285222
 21
1729.813627755278
 31
0.0
  0
CIRCLE
  5
1CC2E
330
747D
100
AcDbEntity
  8
部品1
 48
50.0
100
AcDbCircle
 10
9970.494285221995
 20
1660.662879184638
 30
0.0
 40
10.0
  0
LINE
  5
1CC2F
330
747D
100
AcDbEntity
  8
部品1
 48
50.0
100
AcDbLine
 10
9960.494285221994
 20
1733.321897556041
 30
0.0
 11
9940.494285221994
 21
1733.321897556041
 31
0.0
  0
ARC
  5
1CC30
330
747D
100
AcDbEntity
  8
部品1
 48
50.0
100
AcDbCircle
 10
9970.494285221995
 20
1660.662879184638
 30
0.0
 40
30.0
100
AcDbArc
 50
180.0
 51
199.4712206345081
  0
LINE
  5
1CC31
330
747D
100
AcDbEntity
  8
細線
 48
50.0
100
AcDbLine
 10
9901.343536651358
 20
1650.662879184638
 30
0.0
 11
9940.494285221994
 21
1689.813627755275
 31
0.0
  0
LINE
  5
1CC32
330
747D
100
AcDbEntity
  8
細線
 48
50.0
100
AcDbLine
 10
9867.66757619735
 20
1650.662879184638
 30
0.0
 11
9940.494285221994
 21
1723.489588209285
 31
0.0
  0
LINE
  5
1CC33
330
747D
100
AcDbEntity
  8
部品1
 48
50.0
100
AcDbLine
 10
9960.494285221994
 20
1733.321897556041
 30
0.0
 11
9960.494285221994
 21
1660.662879184638
 31
0.0
  0
LINE
  5
1CC34
330
747D
100
AcDbEntity
  8
部品1
 48
50.0
100
AcDbLine
 10
9940.494285221994
 20
1733.321897556041
 30
0.0
 11
9940.494285221994
 21
1660.662879184638
 31
0.0
  0
CIRCLE
  5
1CC35
330
747D
100
AcDbEntity
  8
部品1
 48
50.0
100
AcDbCircle
 10
10130.49428522199
 20
1660.662879184638
 30
0.0
 40
10.0
  0
LINE
  5
1CC36
330
747D
100
AcDbEntity
  8
部品1
 48
50.0
100
AcDbLine
 10
10200.49428522199
 20
1630.662879184638
 30
0.0
 11
10200.49428522199
 21
1650.662879184638
 31
0.0
  0
LINE
  5
1CC37
330
747D
100
AcDbEntity
  8
部品1
 48
50.0
100
AcDbLine
 10
10090.49428522199
 20
1810.662879184638
 30
0.0
 11
10270.49428522199
 21
1810.662879184638
 31
0.0
  0
LINE
  5
1CC38
330
747D
100
AcDbEntity
  8
細線
 48
50.0
100
AcDbLine
 10
10137.07525982942
 20
1650.662879184638
 30
0.0
 11
10270.49428522199
 21
1784.081904577211
 31
0.0
  0
LINE
  5
1CC39
330
747D
100
AcDbEntity
  8
細線
 48
50.0
100
AcDbLine
 10
10170.75122028343
 20
1650.662879184638
 30
0.0
 11
10270.49428522199
 21
1750.405944123199
 31
0.0
  0
LINE
  5
1CC3A
330
747D
100
AcDbEntity
  8
細線
 48
50.0
100
AcDbLine
 10
10103.39929937541
 20
1650.662879184638
 30
0.0
 11
10263.39929937541
 21
1810.662879184638
 31
0.0
  0
LINE
  5
1CC3B
330
747D
100
AcDbEntity
  8
部品1
 48
50.0
100
AcDbLine
 10
9394.190833860958
 20
2197.96911117098
 30
0.0
 11
9490.573831962018
 21
2197.96911117098
 31
0.0
  0
LINE
  5
1CC3C
330
747D
100
AcDbEntity
  8
部品1
 48
50.0
100
AcDbLine
 10
9490.573831962018
 20
2197.96911117098
 30
0.0
 11
9442.38233291149
 21
2114.498986322557
 31
0.0
  0
LINE
  5
1CC3D
330
747D
100
AcDbEntity
  8
Ｇ．Ｌ
 48
50.0
100
AcDbLine
 10
9332.819407930797
 20
2114.49898632256
 30
0.0
 11
9850.494285221994
 21
2114.49898632256
 31
0.0
  0
LINE
  5
1CC3E
330
747D
100
AcDbEntity
  8
部品1
 48
50.0
100
AcDbLine
 10
8644.939000895385
 20
2215.13315941985
 30
0.0
 11
8644.939000895385
 21
2515.133159419849
 31
0.0
  0
LINE
  5
1CC3F
330
747D
100
AcDbEntity
  8
部品1
100
AcDbLine
 10
8790.638947214215
 20
2215.13315941985
 30
0.0
 11
8790.638947214215
 21
2065.13315941985
 31
0.0
  0
LINE
  5
1CC40
330
747D
100
AcDbEntity
  8
細線
 48
50.0
100
AcDbLine
 10
8818.517588324448
 20
1905.13315941985
 30
0.0
 11
8861.38945911343
 21
2065.13315941985
 31
0.0
  0
LINE
  5
1CC41
330
747D
100
AcDbEntity
  8
細線
 48
50.0
100
AcDbLine
 10
8754.740927156436
 20
2035.13315941985
 30
0.0
 11
8746.702451383503
 21
2065.13315941985
 31
0.0
  0
LINE
  5
1CC42
330
747D
100
AcDbEntity
  8
細線
 48
50.0
100
AcDbLine
 10
8826.556064097381
 20
1935.13315941985
 30
0.0
 11
8834.594539870314
 21
1905.13315941985
 31
0.0
  0
LINE
  5
1CC43
330
747D
100
AcDbEntity
  8
細線
 48
50.0
100
AcDbLine
 10
8727.94600791332
 20
1935.13315941985
 30
0.0
 11
8735.984483686252
 21
1905.13315941985
 31
0.0
  0
LINE
  5
1CC44
330
747D
100
AcDbEntity
  8
細線
 48
50.0
100
AcDbLine
 10
8719.907532140387
 20
1905.13315941985
 30
0.0
 11
8762.779402929366
 21
2065.13315941985
 31
0.0
  0
LINE
  5
1CC45
330
747D
100
AcDbEntity
  8
細線
 48
50.0
100
AcDbLine
 10
8656.130870972374
 20
2035.13315941985
 30
0.0
 11
8648.092395199441
 21
2065.13315941985
 31
0.0
  0
LINE
  5
1CC46
330
747D
100
AcDbEntity
  8
部品1
100
AcDbLine
 10
8890.638947214215
 20
2065.13315941985
 30
0.0
 11
8890.638947214215
 21
1905.133159419854
 31
0.0
  0
LINE
  5
1CC47
330
747D
100
AcDbEntity
  8
細線
 48
50.0
100
AcDbLine
 10
8853.350983340497
 20
2035.13315941985
 30
0.0
 11
8845.312507567561
 21
2065.13315941985
 31
0.0
  0
LINE
  5
1CC48
330
747D
100
AcDbEntity
  8
細線
100
AcDbLine
 10
8790.638947214215
 20
2166.173937569847
 30
0.0
 11
8741.679725364209
 21
2215.13315941985
 31
0.0
  0
LINE
  5
1CC49
330
747D
100
AcDbEntity
  8
細線
100
AcDbLine
 10
8790.638947214215
 20
2206.173937569857
 30
0.0
 11
8781.679725364222
 21
2215.13315941985
 31
0.0
  0
LINE
  5
1CC4A
330
747D
100
AcDbEntity
  8
細線
100
AcDbLine
 10
8790.638947214217
 20
2126.173937569837
 30
0.0
 11
8701.679725364211
 21
2215.13315941985
 31
0.0
  0
LINE
  5
1CC4B
330
747D
100
AcDbEntity
  8
部品1
 48
50.0
100
AcDbLine
 10
9394.190833860958
 20
2197.96911117098
 30
0.0
 11
9442.38233291149
 21
2114.498986322557
 31
0.0
  0
LINE
  5
1CC4C
330
747D
100
AcDbEntity
  8
部品1
 48
50.0
100
AcDbLine
 10
9980.494285221993
 20
2340.662879184638
 30
0.0
 11
9980.494285221993
 21
2415.980915927445
 31
0.0
  0
LINE
  5
1CC4D
330
747D
100
AcDbEntity
  8
細線
 48
50.0
100
AcDbLine
 10
9960.494285221994
 20
2382.304955473435
 30
0.0
 11
9980.494285221993
 21
2402.304955473435
 31
0.0
  0
LINE
  5
1CC4E
330
747D
100
AcDbEntity
  8
細線
 48
50.0
100
AcDbLine
 10
9850.494285221994
 20
2305.980915927445
 30
0.0
 11
9940.494285221994
 21
2395.980915927445
 31
0.0
  0
LINE
  5
1CC4F
330
747D
100
AcDbEntity
  8
部品1
 48
50.0
100
AcDbLine
 10
9940.494285221994
 20
2343.321897556043
 30
0.0
 11
9940.494285221994
 21
2415.980915927447
 31
0.0
  0
LINE
  5
1CC50
330
747D
100
AcDbEntity
  8
部品1
 48
50.0
100
AcDbLine
 10
9960.494285221994
 20
2343.321897556041
 30
0.0
 11
9960.494285221994
 21
2415.980915927445
 31
0.0
  0
LINE
  5
1CC51
330
747D
100
AcDbEntity
  8
部品1
 48
50.0
100
AcDbLine
 10
9980.494285221993
 20
2340.662879184638
 30
0.0
 11
9980.494285221993
 21
2415.980915927445
 31
0.0
  0
LINE
  5
1CC52
330
747D
100
AcDbEntity
  8
部品1
 48
50.0
100
AcDbLine
 10
10007.49428522199
 20
2340.662879184638
 30
0.0
 11
10007.49428522199
 21
2590.662879184638
 31
0.0
  0
LINE
  5
1CC53
330
747D
100
AcDbEntity
  8
部品1
 48
50.0
100
AcDbLine
 10
9980.494285221993
 20
2340.662879184638
 30
0.0
 11
9980.494285221993
 21
2590.662879184638
 31
0.0
  0
LINE
  5
1CC54
330
747D
100
AcDbEntity
  8
細線
 48
50.0
100
AcDbLine
 10
9850.494285221994
 20
2272.304955473435
 30
0.0
 11
9940.494285221994
 21
2362.304955473435
 31
0.0
  0
LINE
  5
1CC55
330
747D
100
AcDbEntity
  8
細線
 48
50.0
100
AcDbLine
 10
9850.494285221994
 20
2238.628995019426
 30
0.0
 11
9920.494285221996
 21
2308.628995019426
 31
0.0
  0
LINE
  5
1CC56
330
747D
100
AcDbEntity
  8
細線
 48
50.0
100
AcDbLine
 10
9850.494285221994
 20
1936.57323229537
 30
0.0
 11
9980.494285221993
 21
2066.573232295371
 31
0.0
  0
LINE
  5
1CC57
330
747D
100
AcDbEntity
  8
細線
 48
50.0
100
AcDbLine
 10
9850.494285221994
 20
1902.89727184136
 30
0.0
 11
9980.494285222
 21
2032.897271841359
 31
0.0
  0
LINE
  5
1CC58
330
747D
100
AcDbEntity
  8
細線
 48
50.0
100
AcDbLine
 10
9850.494285221994
 20
1869.221311387351
 30
0.0
 11
9980.494285222
 21
1999.221311387353
 31
0.0
  0
TEXT
  5
1CC59
330
747D
100
AcDbEntity
  8
部品1
 48
50.0
100
AcDbText
 10
9492.665187332017
 20
2123.864813225267
 30
0.0
 40
100.0
  1
G.L
  7
STYLE1
100
AcDbText
  0
LINE
  5
1CC5A
330
747D
100
AcDbEntity
  8
細線
 48
50.0
100
AcDbLine
 10
10000.494285222
 20
2019.221311387353
 30
0.0
 11
10090.49428522199
 21
2109.221311387349
 31
0.0
  0
LINE
  5
1CC5B
330
747D
100
AcDbEntity
  8
細線
 48
50.0
100
AcDbLine
 10
10000.49428522199
 20
2052.897271841361
 30
0.0
 11
10090.49428522199
 21
2142.897271841357
 31
0.0
  0
LINE
  5
1CC5C
330
747D
100
AcDbEntity
  8
細線
 48
50.0
100
AcDbLine
 10
10000.49428522199
 20
2086.573232295373
 30
0.0
 11
10090.49428522199
 21
2176.573232295373
 31
0.0
  0
LINE
  5
1CC5D
330
747D
100
AcDbEntity
  8
細線
 48
50.0
100
AcDbLine
 10
10000.494285222
 20
1817.165548663299
 30
0.0
 11
10090.49428522199
 21
1907.165548663293
 31
0.0
  0
LINE
  5
1CC5E
330
747D
100
AcDbEntity
  8
部品1
 48
50.0
100
AcDbLine
 10
9970.494285221995
 20
2330.662879184638
 30
0.0
 11
9920.494285221996
 21
2330.662879184638
 31
0.0
  0
LINE
  5
1CC5F
330
747D
100
AcDbEntity
  8
部品1
 48
50.0
100
AcDbLine
 10
9970.494285221995
 20
2303.662879184638
 30
0.0
 11
9920.494285221996
 21
2303.662879184638
 31
0.0
  0
LINE
  5
1CC60
330
747D
100
AcDbEntity
  8
部品1
 48
50.0
100
AcDbLine
 10
9920.494285221996
 20
2303.662879184638
 30
0.0
 11
9920.494285221996
 21
2330.662879184638
 31
0.0
  0
ARC
  5
1CC61
330
747D
100
AcDbEntity
  8
部品1
 48
50.0
100
AcDbCircle
 10
9970.494285221995
 20
2340.662879184638
 30
0.0
 40
10.0
100
AcDbArc
 50
270.0
 51
0.0
  0
LINE
  5
1CC62
330
747D
100
AcDbEntity
  8
細線
 48
50.0
100
AcDbLine
 10
9960.494285221997
 20
2348.628995019426
 30
0.0
 11
9980.494285221993
 21
2368.628995019426
 31
0.0
  0
LINE
  5
1CC63
330
747D
100
AcDbEntity
  8
部品1
 48
50.0
100
AcDbLine
 10
9960.494285221994
 20
2343.321897556041
 30
0.0
 11
9940.494285221994
 21
2343.321897556043
 31
0.0
  0
LINE
  5
1CC64
330
747D
100
AcDbEntity
  8
細線
 48
50.0
100
AcDbLine
 10
9942.528169387209
 20
2330.662879184638
 30
0.0
 11
9955.187187758612
 21
2343.321897556041
 31
0.0
  0
ARC
  5
1CC65
330
747D
100
AcDbEntity
  8
部品1
 48
50.0
100
AcDbCircle
 10
9970.494285221995
 20
2340.662879184638
 30
0.0
 40
37.0
100
AcDbArc
 50
270.0
 51
0.0
  0
LINE
  5
1CC66
330
747D
100
AcDbEntity
  8
部品1
100
AcDbLine
 10
9861.26351599122
 20
2696.201340723099
 30
0.0
 11
9874.186592914298
 21
2699.432109953868
 31
0.0
  0
LINE
  5
1CC67
330
747D
100
AcDbEntity
  8
部品1
100
AcDbLine
 10
9878.494285221997
 20
2593.893648415408
 30
0.0
 11
9861.26351599122
 21
2593.893648415408
 31
0.0
  0
LINE
  5
1CC68
330
747D
100
AcDbEntity
  8
細線
 48
50.0
100
AcDbLine
 10
9850.494285221994
 20
2541.71263910551
 30
0.0
 11
9865.217798033304
 21
2556.436151916816
 31
0.0
  0
LINE
  5
1CC69
330
747D
100
AcDbEntity
  8
細線
100
AcDbLine
 10
9850.494285221994
 20
2560.290260828677
 30
0.0
 11
9888.032608728025
 21
2550.464019698927
 31
0.0
  0
LINE
  5
1CC6A
330
747D
100
AcDbEntity
  8
細線
 48
50.0
100
AcDbLine
 10
9850.494285221994
 20
2508.036678651501
 30
0.0
 11
9892.921626269421
 21
2550.464019698927
 31
0.0
  0
LINE
  5
1CC6B
330
747D
100
AcDbEntity
  8
部品1
 48
50.0
100
AcDbLine
 10
9850.494285221994
 20
2590.662879184638
 30
0.0
 11
10090.49428522199
 21
2590.662879184638
 31
0.0
  0
DIMENSION
  5
1CC6C
330
747D
100
AcDbEntity
  8
寸法
 48
50.0
100
AcDbDimension
  2
*D22
 10
9993.994285221994
 20
2834.396221082585
 30
0.0
 11
9640.431091425877
 21
2834.396221082585
 31
0.0
 70
   160
  1
65
 71
     5
 42
143.5
  3
INABA_S50GUP
100
AcDbAlignedDimension
 13
9850.494285221992
 23
2590.662879184638
 33
0.0
 14
9993.994285221994
 24
2650.970571492329
 34
0.0
100
AcDbRotatedDimension
1001
ACAD
1000
DSTYLE
1002
{
1070
   140
1040
100.0
1002
}
  0
LINE
  5
1CC6D
330
747D
100
AcDbEntity
  8
部品1
100
AcDbLine
 10
9861.26351599122
 20
2593.893648415408
 30
0.0
 11
9861.26351599122
 21
2696.201340723099
 31
0.0
  0
LINE
  5
1CC6E
330
747D
100
AcDbEntity
  8
部品1
100
AcDbLine
 10
10051.87890060661
 20
2697.278263800023
 30
0.0
 11
10051.87890060661
 21
2593.893648415408
 31
0.0
  0
LINE
  5
1CC6F
330
747D
100
AcDbEntity
  8
部品1
100
AcDbLine
 10
10051.87890060661
 20
2593.893648415408
 30
0.0
 11
10069.10966983737
 21
2593.893648415408
 31
0.0
  0
LINE
  5
1CC70
330
747D
100
AcDbEntity
  8
細線
 48
50.0
100
AcDbLine
 10
10007.49428522199
 20
2462.98091592744
 30
0.0
 11
10090.49428522199
 21
2545.980915927445
 31
0.0
  0
LINE
  5
1CC71
330
747D
100
AcDbEntity
  8
細線
100
AcDbLine
 10
10050.30519509143
 20
2557.014828197542
 30
0.0
 11
10090.49428522199
 21
2548.826275001538
 31
0.0
  0
LINE
  5
1CC72
330
747D
100
AcDbEntity
  8
細線
 48
50.0
100
AcDbLine
 10
10007.49428522199
 20
2395.628995019426
 30
0.0
 11
10090.49428522199
 21
2478.628995019426
 31
0.0
  0
LINE
  5
1CC73
330
747D
100
AcDbEntity
  8
細線
 48
50.0
100
AcDbLine
 10
10007.49428522199
 20
2429.304955473429
 30
0.0
 11
10090.49428522199
 21
2512.304955473436
 31
0.0
  0
ARC
  5
1CC74
330
747D
100
AcDbEntity
  8
部品1
100
AcDbCircle
 10
10012.30197752968
 20
2608.222965889015
 30
0.0
 40
7.3858052918609
100
AcDbArc
 50
43.1932563689624
 51
136.8067436310376
  0
LINE
  5
1CC75
330
747D
100
AcDbEntity
  8
部品1
100
AcDbLine
 10
10006.91736214506
 20
2613.278263800023
 30
0.0
 11
10006.91736214506
 21
2594.970571492329
 31
0.0
  0
LINE
  5
1CC76
330
747D
100
AcDbEntity
  8
部品1
100
AcDbLine
 10
10017.6865929143
 20
2613.278263800025
 30
0.0
 11
10017.6865929143
 21
2594.970571492329
 31
0.0
  0
LINE
  5
1CC77
330
747D
100
AcDbEntity
  8
部品1
100
AcDbLine
 10
10014.45582368353
 20
2616.509033030792
 30
0.0
 11
10017.6865929143
 21
2613.278263800025
 31
0.0
  0
LINE
  5
1CC78
330
747D
100
AcDbEntity
  8
部品1
100
AcDbLine
 10
10021.99428522199
 20
2594.970571492329
 30
0.0
 11
10021.99428522199
 21
2590.662879184638
 31
0.0
  0
LINE
  5
1CC79
330
747D
100
AcDbEntity
  8
部品1
100
AcDbLine
 10
10048.64813137584
 20
2617.414017500401
 30
0.0
 11
10048.64813137584
 21
2594.970571492329
 31
0.0
  0
LINE
  5
1CC7A
330
747D
100
AcDbEntity
  8
部品1
 48
50.0
100
AcDbLine
 10
10007.49428522199
 20
2616.509033030792
 30
0.0
 11
10007.49428522199
 21
2650.970571492329
 31
0.0
  0
LINE
  5
1CC7B
330
747D
100
AcDbEntity
  8
細線
100
AcDbLine
 10
10020.8011264132
 20
2558.652572894931
 30
0.0
 11
10050.30519509143
 21
2557.014828197542
 31
0.0
  0
LINE
  5
1CC7C
330
747D
100
AcDbEntity
  8
細線
 48
50.0
100
AcDbLine
 10
9976.494285221995
 20
2622.042368262053
 30
0.0
 11
9997.14497344037
 21
2616.509033030792
 31
0.0
  0
ARC
  5
1CC7D
330
747D
100
AcDbEntity
  8
部品1
100
AcDbCircle
 10
9975.6865929143
 20
2608.222965889015
 30
0.0
 40
7.3858052918609
100
AcDbArc
 50
43.1932563689624
 51
136.8067436310376
  0
LINE
  5
1CC7E
330
747D
100
AcDbEntity
  8
部品1
100
AcDbLine
 10
9881.725054452759
 20
2598.201340723099
 30
0.0
 11
9881.725054452759
 21
2594.970571492329
 31
0.0
  0
LINE
  5
1CC7F
330
747D
100
AcDbEntity
  8
部品1
100
AcDbLine
 10
9970.301977529684
 20
2613.278263800023
 30
0.0
 11
9970.301977529684
 21
2594.970571492329
 31
0.0
  0
LINE
  5
1CC80
330
747D
100
AcDbEntity
  8
部品1
100
AcDbLine
 10
9970.301977529684
 20
2613.278263800023
 30
0.0
 11
9973.532746760454
 21
2616.509033030792
 31
0.0
  0
LINE
  5
1CC81
330
747D
100
AcDbEntity
  8
部品1
100
AcDbLine
 10
9981.071208298915
 20
2613.278263800025
 30
0.0
 11
9981.071208298915
 21
2594.970571492329
 31
0.0
  0
LINE
  5
1CC82
330
747D
100
AcDbEntity
  8
部品1
100
AcDbLine
 10
9864.494285221994
 20
2598.201340723099
 30
0.0
 11
9864.494285221994
 21
2617.414017500401
 31
0.0
  0
LINE
  5
1CC83
330
747D
100
AcDbEntity
  8
部品1
100
AcDbLine
 10
9881.725054452759
 20
2598.201340723099
 30
0.0
 11
9864.494285221994
 21
2598.201340723099
 31
0.0
  0
LINE
  5
1CC84
330
747D
100
AcDbEntity
  8
部品1
100
AcDbLine
 10
9965.994285221995
 20
2594.970571492329
 30
0.0
 11
9965.994285221995
 21
2590.662879184638
 31
0.0
  0
LINE
  5
1CC85
330
747D
100
AcDbEntity
  8
部品1
 48
50.0
100
AcDbLine
 10
9980.494285221993
 20
2616.509033030792
 30
0.0
 11
9980.494285221986
 21
2650.970571492329
 31
0.0
  0
LINE
  5
1CC86
330
747D
100
AcDbEntity
  8
細線
100
AcDbLine
 10
9924.093183475457
 20
2550.464019698927
 30
0.0
 11
9965.071137774769
 21
2557.014828197542
 31
0.0
  0
LINE
  5
1CC87
330
747D
100
AcDbEntity
  8
細線
100
AcDbLine
 10
9888.032608728025
 20
2550.464019698927
 30
0.0
 11
9924.093183475457
 21
2550.464019698927
 31
0.0
  0
LINE
  5
1CC88
330
747D
100
AcDbEntity
  8
部品1
 48
50.0
100
AcDbLine
 10
10007.49428522199
 20
2650.970571492329
 30
0.0
 11
9980.494285221993
 21
2650.970571492329
 31
0.0
  0
LINE
  5
1CC89
330
747D
100
AcDbEntity
  8
細線
 48
50.0
100
AcDbLine
 10
9976.494285221995
 20
2646.042368262053
 30
0.0
 11
10011.69428522199
 21
2636.610556688478
 31
0.0
  0
LINE
  5
1CC8A
330
747D
100
AcDbEntity
  8
部品1
100
AcDbLine
 10
9881.725054452759
 20
2594.970571492329
 30
0.0
 11
10048.64813137584
 21
2594.970571492329
 31
0.0
  0
LINE
  5
1CC8B
330
747D
100
AcDbEntity
  8
部品1
100
AcDbLine
 10
9965.994285221995
 20
2594.970571492329
 30
0.0
 11
10021.99428522199
 21
2594.970571492329
 31
0.0
  0
LINE
  5
1CC8C
330
747D
100
AcDbEntity
  8
部品1
100
AcDbLine
 10
9973.532746760454
 20
2616.509033030792
 30
0.0
 11
10014.45582368353
 21
2616.509033030792
 31
0.0
  0
LINE
  5
1CC8D
330
747D
100
AcDbEntity
  8
部品1
100
AcDbLine
 10
9970.301977529684
 20
2613.278263800025
 30
0.0
 11
10017.6865929143
 21
2613.278263800021
 31
0.0
  0
ARC
  5
1CC8E
330
747D
100
AcDbEntity
  8
部品1
100
AcDbCircle
 10
9993.994285221994
 20
2580.660123482745
 30
0.0
 40
35.0848827120379
100
AcDbArc
 50
68.38687878208739
 51
111.6131212179126
  0
LINE
  5
1CC8F
330
747D
100
AcDbEntity
  8
細線
 48
50.0
100
AcDbLine
 10
9976.494285221995
 20
2634.042368262057
 30
0.0
 11
10011.69428522199
 21
2624.610556688481
 31
0.0
  0
LINE
  5
1CC90
330
747D
100
AcDbEntity
  8
細線
100
AcDbLine
 10
9965.071137774769
 20
2557.014828197542
 30
0.0
 11
10020.8011264132
 21
2558.652572894931
 31
0.0
  0
CIRCLE
  5
1CC91
330
747D
100
AcDbEntity
  8
部品1
 48
50.0
100
AcDbCircle
 10
9970.494285221995
 20
2415.980915927445
 30
0.0
 40
10.0
  0
ARC
  5
1CC92
330
747D
100
AcDbEntity
  8
部品1
 48
50.0
100
AcDbCircle
 10
9970.494285221995
 20
2415.980915927445
 30
0.0
 40
30.0
100
AcDbArc
 50
70.52877936552873
 51
180.0
  0
LINE
  5
1CC93
330
747D
100
AcDbEntity
  8
部品1
100
AcDbLine
 10
10010.1865929143
 20
2697.278263800023
 30
0.0
 11
10051.87890060661
 21
2697.278263800023
 31
0.0
  0
LINE
  5
1CC94
330
747D
100
AcDbEntity
  8
部品1
100
AcDbLine
 10
10010.1865929143
 20
2712.355186876946
 30
0.0
 11
10010.1865929143
 21
2697.278263800023
 31
0.0
  0
LINE
  5
1CC95
330
747D
100
AcDbEntity
  8
部品1
100
AcDbLine
 10
9947.72505445276
 20
2712.355186876946
 30
0.0
 11
9947.72505445276
 21
2738.201340723099
 31
0.0
  0
LINE
  5
1CC96
330
747D
100
AcDbEntity
  8
部品1
100
AcDbLine
 10
9980.032746760457
 20
2738.201340723099
 30
0.0
 11
9980.032746760457
 21
2712.355186876946
 31
0.0
  0
LINE
  5
1CC97
330
747D
100
AcDbEntity
  8
部品1
100
AcDbLine
 10
9874.186592914298
 20
2699.432109953868
 30
0.0
 11
9874.186592914298
 21
2712.355186876946
 31
0.0
  0
LINE
  5
1CC98
330
747D
100
AcDbEntity
  8
部品1
100
AcDbLine
 10
9874.186592914298
 20
2712.355186876946
 30
0.0
 11
9947.72505445276
 21
2712.355186876946
 31
0.0
  0
LINE
  5
1CC99
330
747D
100
AcDbEntity
  8
部品1
100
AcDbLine
 10
9947.72505445276
 20
2738.201340723099
 30
0.0
 11
9980.032746760457
 21
2738.201340723099
 31
0.0
  0
LINE
  5
1CC9A
330
747D
100
AcDbEntity
  8
部品1
100
AcDbLine
 10
9980.032746760457
 20
2712.355186876946
 30
0.0
 11
10010.1865929143
 21
2712.355186876946
 31
0.0
  0
LINE
  5
1CC9B
330
747D
100
AcDbEntity
  8
細線
 48
50.0
100
AcDbLine
 10
5727.604250469815
 20
3429.34884292198
 30
0.0
 11
9284.247799842347
 21
3429.34884292198
 31
0.0
  0
LINE
  5
1CC9C
330
747D
100
AcDbEntity
  8
細線
 48
50.0
100
AcDbLine
 10
10213.53737839028
 20
3549.348842921979
 30
0.0
 11
9364.247799842347
 21
3549.348842921979
 31
0.0
  0
TEXT
  5
1CC9D
330
747D
100
AcDbEntity
  8
部品1
 48
50.0
100
AcDbText
 10
9384.996874774024
 20
3374.435624735046
 30
0.0
 40
112.0
  1
基礎詳細図
  7
STYLE2
100
AcDbText
  0
LINE
  5
1CC9E
330
747D
100
AcDbEntity
  8
細線
 48
50.0
100
AcDbLine
 10
10213.53737839028
 20
3309.348842921981
 30
0.0
 11
9364.247799842347
 21
3309.348842921981
 31
0.0
  0
ARC
  5
1CC9F
330
747D
100
AcDbEntity
  8
細線
 48
50.0
100
AcDbCircle
 10
9364.247799842347
 20
3469.348842921981
 30
0.0
 40
80.0
100
AcDbArc
 50
90.0
 51
180.0
  0
LINE
  5
1CCA0
330
747D
100
AcDbEntity
  8
細線
 48
50.0
100
AcDbLine
 10
9284.247799842347
 20
3389.34884292198
 30
0.0
 11
9284.247799842347
 21
3469.348842921981
 31
0.0
  0
ARC
  5
1CCA1
330
747D
100
AcDbEntity
  8
細線
 48
50.0
100
AcDbCircle
 10
9364.247799842347
 20
3389.34884292198
 30
0.0
 40
80.0
100
AcDbArc
 50
180.0
 51
270.0
  0
LINE
  5
1CCA2
330
747D
100
AcDbEntity
  8
細線
 48
50.0
100
AcDbLine
 10
13850.18092776281
 20
3429.34884292198
 30
0.0
 11
13850.18092776281
 21
523.6871696812227
 31
0.0
  0
MTEXT
  5
1CCA3
102
{ACAD_REACTORS
330
1CCA4
102
}
330
747D
100
AcDbEntity
  8
寸法
 62
     7
 48
50.0
100
AcDbMText
 10
13171.23444701714
 20
2085.894359914182
 30
0.0
 40
100.0
 41
0.0
 71
     4
 72
     1
  1
防湿シート
  7
STYLE1
 73
     1
 44
1.0
1001
ACAD
1000
MTEXTBEGIN
1070
    73
1070
     1
1070
    44
1040
1.0
1070
    74
1070
     0
1000
MTEXTEND
  0
LEADER
  5
1CCA4
330
747D
100
AcDbEntity
  8
寸法
 48
50.0
100
AcDbLeader
  3
INABA_S50G
 71
     0
 73
     0
 74
     0
 75
     1
 40
100.0
 41
546.6666666666667
 76
     3
 10
12873.53428155252
 20
2167.458072144327
 30
0.0
 10
13021.23444701714
 20
2010.894359914182
 30
0.0
 10
13146.23444701714
 20
2010.894359914182
 30
0.0
340
1CCA3
  0
LINE
  5
1CCA5
330
747D
100
AcDbEntity
  8
部品1
 48
50.0
100
AcDbLine
 10
13026.13450741841
 20
823.2551147814627
 30
0.0
 11
11634.8212384208
 21
823.2551147814627
 31
0.0
  0
LINE
  5
1CCA6
330
747D
100
AcDbEntity
  8
部品1
 48
50.0
100
AcDbLine
 10
13026.13450741841
 20
663.2551147814629
 30
0.0
 11
11634.8212384208
 21
663.2551147814629
 31
0.0
  0
TEXT
  5
1CCA7
330
747D
100
AcDbEntity
  8
部品1
 48
50.0
100
AcDbText
 10
11694.96730996897
 20
700.4984537953158
 30
0.0
 40
96.0
  1
床下湿気防止用基礎
  7
STYLE2
100
AcDbText
  0
LINE
  5
1CCA8
330
747D
100
AcDbEntity
  8
Ｇ．Ｌ
 48
50.0
100
AcDbLine
 10
11431.4820059016
 20
2114.498986322561
 30
0.0
 11
11949.15688319279
 21
2114.498986322561
 31
0.0
  0
CIRCLE
  5
1CCA9
330
747D
100
AcDbEntity
  8
部品1
 48
50.0
100
AcDbCircle
 10
11909.1568831928
 20
1660.662879184638
 30
0.0
 40
10.0
  0
LINE
  5
1CCAA
330
747D
100
AcDbEntity
  8
部品1
 48
50.0
100
AcDbLine
 10
11769.1568831928
 20
1810.662879184638
 30
0.0
 11
11949.15688319279
 21
1810.662879184638
 31
0.0
  0
LINE
  5
1CCAB
330
747D
100
AcDbEntity
  8
細線
 48
50.0
100
AcDbLine
 10
11907.84320105024
 20
1380.662879184639
 30
0.0
 11
11915.88167682317
 21
1350.662879184639
 31
0.0
  0
LINE
  5
1CCAC
330
747D
100
AcDbEntity
  8
細線
 48
50.0
100
AcDbLine
 10
11899.8047252773
 20
1350.662879184639
 30
0.0
 11
11942.67659606629
 21
1510.662879184638
 31
0.0
  0
LINE
  5
1CCAD
330
747D
100
AcDbEntity
  8
細線
 48
50.0
100
AcDbLine
 10
11860.00613462216
 20
1510.662879184638
 30
0.0
 11
11980.00613462216
 21
1630.662879184639
 31
0.0
  0
LINE
  5
1CCAE
330
747D
100
AcDbEntity
  8
細線
 48
50.0
100
AcDbLine
 10
11826.33017416815
 20
1510.662879184638
 30
0.0
 11
11946.33017416815
 21
1630.662879184639
 31
0.0
  0
LINE
  5
1CCAF
330
747D
100
AcDbEntity
  8
部品1
 48
50.0
100
AcDbLine
 10
12469.1568831928
 20
1510.662879184638
 30
0.0
 11
11669.1568831928
 21
1510.662879184638
 31
0.0
  0
LINE
  5
1CCB0
330
747D
100
AcDbEntity
  8
部品1
 48
50.0
100
AcDbLine
 10
12469.1568831928
 20
1350.662879184639
 30
0.0
 11
11669.1568831928
 21
1350.662879184639
 31
0.0
  0
LINE
  5
1CCB1
330
747D
100
AcDbEntity
  8
部品1
 48
50.0
100
AcDbLine
 10
11839.1568831928
 20
1650.662879184639
 30
0.0
 11
12299.1568831928
 21
1650.662879184639
 31
0.0
  0
LINE
  5
1CCB2
330
747D
100
AcDbEntity
  8
部品1
 48
50.0
100
AcDbLine
 10
11839.1568831928
 20
1630.662879184639
 30
0.0
 11
12299.1568831928
 21
1630.662879184639
 31
0.0
  0
LINE
  5
1CCB3
330
747D
100
AcDbEntity
  8
部品1
 48
50.0
100
AcDbLine
 10
10415.10485148721
 20
823.2551147814627
 30
0.0
 11
10415.10485148721
 21
663.2551147814629
 31
0.0
  0
LINE
  5
1CCB4
330
747D
100
AcDbEntity
  8
細線
 48
50.0
100
AcDbLine
 10
10329.02580324285
 20
1480.662879184638
 30
0.0
 11
10320.98732746992
 21
1510.662879184638
 31
0.0
  0
LINE
  5
1CCB5
330
747D
100
AcDbEntity
  8
細線
 48
50.0
100
AcDbLine
 10
10302.23088399974
 20
1380.662879184638
 30
0.0
 11
10310.26935977267
 21
1350.662879184638
 31
0.0
  0
LINE
  5
1CCB6
330
747D
100
AcDbEntity
  8
部品1
 48
50.0
100
AcDbLine
 10
10370.49428522199
 20
1350.662879184638
 30
0.0
 11
10370.49428522199
 21
1510.662879184638
 31
0.0
  0
LINE
  5
1CCB7
330
747D
100
AcDbEntity
  8
細線
 48
50.0
100
AcDbLine
 10
10294.19240822681
 20
1350.662879184638
 30
0.0
 11
10337.06427901579
 21
1510.662879184638
 31
0.0
  0
LINE
  5
1CCB8
330
747D
100
AcDbEntity
  8
部品1
 48
50.0
100
AcDbLine
 10
11634.8212384208
 20
823.2551147814627
 30
0.0
 11
11634.8212384208
 21
663.2551147814629
 31
0.0
  0
LINE
  5
1CCB9
330
747D
100
AcDbEntity
  8
部品1
 48
50.0
100
AcDbLine
 10
11769.1568831928
 20
1510.662879184638
 30
0.0
 11
11769.1568831928
 21
1810.662879184638
 31
0.0
  0
LINE
  5
1CCBA
330
747D
100
AcDbEntity
  8
細線
 48
50.0
100
AcDbLine
 10
11792.65421371414
 20
1510.662879184638
 30
0.0
 11
11912.65421371414
 21
1630.662879184639
 31
0.0
  0
LINE
  5
1CCBB
330
747D
100
AcDbEntity
  8
細線
 48
50.0
100
AcDbLine
 10
11702.58461290918
 20
1350.662879184639
 30
0.0
 11
11745.45648369816
 21
1510.662879184638
 31
0.0
  0
LINE
  5
1CCBC
330
747D
100
AcDbEntity
  8
部品1
 48
50.0
100
AcDbLine
 10
11669.1568831928
 20
1350.662879184639
 30
0.0
 11
11669.1568831928
 21
1510.662879184638
 31
0.0
  0
LINE
  5
1CCBD
330
747D
100
AcDbEntity
  8
細線
 48
50.0
100
AcDbLine
 10
11809.23314486618
 20
1380.662879184639
 30
0.0
 11
11817.27162063911
 21
1350.662879184639
 31
0.0
  0
LINE
  5
1CCBE
330
747D
100
AcDbEntity
  8
細線
 48
50.0
100
AcDbLine
 10
11801.19466909324
 20
1350.662879184639
 30
0.0
 11
11844.06653988222
 21
1510.662879184638
 31
0.0
  0
LINE
  5
1CCBF
330
747D
100
AcDbEntity
  8
細線
 48
50.0
100
AcDbLine
 10
11836.02806410929
 20
1480.662879184639
 30
0.0
 11
11827.98958833636
 21
1510.662879184638
 31
0.0
  0
LINE
  5
1CCC0
330
747D
100
AcDbEntity
  8
細線
 48
50.0
100
AcDbLine
 10
11710.62308868212
 20
1380.662879184639
 30
0.0
 11
11718.66156445505
 21
1350.662879184639
 31
0.0
  0
LINE
  5
1CCC1
330
747D
100
AcDbEntity
  8
細線
 48
50.0
100
AcDbLine
 10
11737.41800792523
 20
1480.662879184639
 30
0.0
 11
11729.3795321523
 21
1510.662879184638
 31
0.0
  0
LINE
  5
1CCC2
330
747D
100
AcDbEntity
  8
部品1
 48
50.0
100
AcDbLine
 10
11839.1568831928
 20
1630.662879184639
 30
0.0
 11
11839.1568831928
 21
1650.662879184639
 31
0.0
  0
LINE
  5
1CCC3
330
747D
100
AcDbEntity
  8
細線
 48
50.0
100
AcDbLine
 10
11769.1568831928
 20
1722.897271841363
 30
0.0
 11
11856.92249053608
 21
1810.662879184638
 31
0.0
  0
LINE
  5
1CCC4
330
747D
100
AcDbEntity
  8
細線
 48
50.0
100
AcDbLine
 10
11769.1568831928
 20
1756.573232295373
 30
0.0
 11
11823.24653008206
 21
1810.662879184638
 31
0.0
  0
LINE
  5
1CCC5
330
747D
100
AcDbEntity
  8
細線
 48
50.0
100
AcDbLine
 10
11769.1568831928
 20
1689.221311387353
 30
0.0
 11
11890.59845099008
 21
1810.662879184638
 31
0.0
  0
LINE
  5
1CCC7
330
747D
100
AcDbEntity
  8
部品1
 48
50.0
100
AcDbLine
 10
11492.85343183176
 20
2197.969111170981
 30
0.0
 11
11589.23642993282
 21
2197.969111170981
 31
0.0
  0
LINE
  5
1CCC8
330
747D
100
AcDbEntity
  8
部品1
 48
50.0
100
AcDbLine
 10
11492.85343183176
 20
2197.969111170981
 30
0.0
 11
11541.04493088229
 21
2114.498986322558
 31
0.0
  0
TEXT
  5
1CCC9
330
747D
100
AcDbEntity
  8
部品1
 48
50.0
100
AcDbText
 10
11591.32778530282
 20
2123.864813225269
 30
0.0
 40
100.0
  1
G.L
  7
STYLE1
100
AcDbText
  0
LINE
  5
1CCCA
330
747D
100
AcDbEntity
  8
部品1
 48
50.0
100
AcDbLine
 10
11589.23642993282
 20
2197.969111170981
 30
0.0
 11
11541.04493088229
 21
2114.498986322558
 31
0.0
  0
LINE
  5
1CCCB
330
747D
100
AcDbEntity
  8
細線
 48
50.0
100
AcDbLine
 10
12099.1568831928
 20
1749.813627755279
 30
0.0
 11
12189.15688319279
 21
1839.813627755276
 31
0.0
  0
LINE
  5
1CCCC
330
747D
100
AcDbEntity
  8
細線
 48
50.0
100
AcDbLine
 10
12099.1568831928
 20
1783.48958820929
 30
0.0
 11
12189.15688319279
 21
1873.489588209285
 31
0.0
  0
LINE
  5
1CCCD
330
747D
100
AcDbEntity
  8
部品1
 48
50.0
100
AcDbLine
 10
12189.15688319279
 20
2590.662879184639
 30
0.0
 11
12189.15688319279
 21
1810.662879184638
 31
0.0
  0
LINE
  5
1CCCE
330
747D
100
AcDbEntity
  8
部品1
 48
50.0
100
AcDbLine
 10
11949.15688319279
 20
1810.662879184638
 30
0.0
 11
11949.15688319279
 21
2590.662879184639
 31
0.0
  0
LINE
  5
1CCCF
330
747D
100
AcDbEntity
  8
部品1
 48
50.0
100
AcDbLine
 10
12079.1568831928
 20
1660.662879184638
 30
0.0
 11
12079.1568831928
 21
2415.980915927446
 31
0.0
  0
LINE
  5
1CCD0
330
747D
100
AcDbEntity
  8
部品1
 48
50.0
100
AcDbLine
 10
12099.1568831928
 20
1660.662879184638
 30
0.0
 11
12099.1568831928
 21
2415.980915927446
 31
0.0
  0
LINE
  5
1CCD1
330
747D
100
AcDbEntity
  8
細線
 48
50.0
100
AcDbLine
 10
12202.06189734621
 20
1650.662879184639
 30
0.0
 11
12362.06189734622
 21
1810.662879184638
 31
0.0
  0
LINE
  5
1CCD2
330
747D
100
AcDbEntity
  8
部品1
 48
50.0
100
AcDbLine
 10
12189.15688319279
 20
1810.662879184638
 30
0.0
 11
12369.1568831928
 21
1810.662879184638
 31
0.0
  0
LINE
  5
1CCD3
330
747D
100
AcDbEntity
  8
細線
 48
50.0
100
AcDbLine
 10
12235.73785780023
 20
1650.662879184639
 30
0.0
 11
12369.1568831928
 21
1784.081904577212
 31
0.0
  0
LINE
  5
1CCD4
330
747D
100
AcDbEntity
  8
細線
 48
50.0
100
AcDbLine
 10
12269.41381825424
 20
1650.662879184639
 30
0.0
 11
12369.1568831928
 21
1750.4059441232
 31
0.0
  0
LINE
  5
1CCD5
330
747D
100
AcDbEntity
  8
細線
 48
50.0
100
AcDbLine
 10
12294.24495001355
 20
1350.662879184639
 30
0.0
 11
12337.11682080253
 21
1510.662879184638
 31
0.0
  0
LINE
  5
1CCD6
330
747D
100
AcDbEntity
  8
細線
 48
50.0
100
AcDbLine
 10
12329.0783450296
 20
1480.662879184639
 30
0.0
 11
12321.03986925666
 21
1510.662879184638
 31
0.0
  0
LINE
  5
1CCD7
330
747D
100
AcDbEntity
  8
細線
 48
50.0
100
AcDbLine
 10
12129.41381825423
 20
1510.662879184638
 30
0.0
 11
12249.41492806066
 21
1630.663988991063
 31
0.0
  0
LINE
  5
1CCD8
330
747D
100
AcDbEntity
  8
細線
 48
50.0
100
AcDbLine
 10
12062.06189734621
 20
1510.662879184638
 30
0.0
 11
12182.06189734621
 21
1630.662879184639
 31
0.0
  0
LINE
  5
1CCD9
330
747D
100
AcDbEntity
  8
細線
 48
50.0
100
AcDbLine
 10
12095.73785780023
 20
1510.662879184638
 30
0.0
 11
12215.73785780023
 21
1630.662879184639
 31
0.0
  0
LINE
  5
1CCDA
330
747D
100
AcDbEntity
  8
細線
 48
50.0
100
AcDbLine
 10
12097.02483764543
 20
1350.662879184639
 30
0.0
 11
12139.89670843441
 21
1510.662879184638
 31
0.0
  0
LINE
  5
1CCDB
330
747D
100
AcDbEntity
  8
細線
 48
50.0
100
AcDbLine
 10
12105.06331341836
 20
1380.662879184639
 30
0.0
 11
12113.10178919129
 21
1350.662879184639
 31
0.0
  0
LINE
  5
1CCDC
330
747D
100
AcDbEntity
  8
細線
 48
50.0
100
AcDbLine
 10
12006.4532572343
 20
1380.662879184639
 30
0.0
 11
12014.49173300724
 21
1350.662879184639
 31
0.0
  0
LINE
  5
1CCDD
330
747D
100
AcDbEntity
  8
細線
 48
50.0
100
AcDbLine
 10
11998.41478146137
 20
1350.662879184639
 30
0.0
 11
12041.28665225034
 21
1510.662879184638
 31
0.0
  0
LINE
  5
1CCDE
330
747D
100
AcDbEntity
  8
細線
 48
50.0
100
AcDbLine
 10
12033.24817647742
 20
1480.662879184639
 30
0.0
 11
12025.20970070448
 21
1510.662879184638
 31
0.0
  0
LINE
  5
1CCDF
330
747D
100
AcDbEntity
  8
細線
 48
50.0
100
AcDbLine
 10
11934.63812029335
 20
1480.662879184639
 30
0.0
 11
11926.59964452042
 21
1510.662879184638
 31
0.0
  0
LINE
  5
1CCE0
330
747D
100
AcDbEntity
  8
細線
 48
50.0
100
AcDbLine
 10
12203.67336960242
 20
1380.662879184639
 30
0.0
 11
12211.71184537535
 21
1350.662879184639
 31
0.0
  0
LINE
  5
1CCE1
330
747D
100
AcDbEntity
  8
細線
 48
50.0
100
AcDbLine
 10
12195.63489382949
 20
1350.662879184639
 30
0.0
 11
12238.50676461847
 21
1510.662879184638
 31
0.0
  0
LINE
  5
1CCE2
330
747D
100
AcDbEntity
  8
細線
 48
50.0
100
AcDbLine
 10
12302.28342578648
 20
1380.662879184639
 30
0.0
 11
12310.32190155942
 21
1350.662879184639
 31
0.0
  0
LINE
  5
1CCE3
330
747D
100
AcDbEntity
  8
細線
 48
50.0
100
AcDbLine
 10
12230.46828884554
 20
1480.662879184639
 30
0.0
 11
12222.4298130726
 21
1510.662879184638
 31
0.0
  0
LINE
  5
1CCE4
330
747D
100
AcDbEntity
  8
細線
 48
50.0
100
AcDbLine
 10
12131.85823266148
 20
1480.662879184639
 30
0.0
 11
12123.81975688854
 21
1510.662879184638
 31
0.0
  0
LINE
  5
1CCE5
330
747D
100
AcDbEntity
  8
細線
 48
50.0
100
AcDbLine
 10
12000.00613462216
 20
1650.662879184639
 30
0.0
 11
12039.1568831928
 21
1689.813627755276
 31
0.0
  0
CIRCLE
  5
1CCE6
330
747D
100
AcDbEntity
  8
部品1
 48
50.0
100
AcDbCircle
 10
12069.15688319279
 20
1660.662879184638
 30
0.0
 40
10.0
  0
LINE
  5
1CCE7
330
747D
100
AcDbEntity
  8
細線
 48
50.0
100
AcDbLine
 10
11966.33017416815
 20
1650.662879184639
 30
0.0
 11
12039.1568831928
 21
1723.489588209287
 31
0.0
  0
LINE
  5
1CCE8
330
747D
100
AcDbEntity
  8
部品1
 48
50.0
100
AcDbLine
 10
12059.1568831928
 20
1733.321897556042
 30
0.0
 11
12059.1568831928
 21
1660.662879184638
 31
0.0
  0
LINE
  5
1CCE9
330
747D
100
AcDbEntity
  8
部品1
 48
50.0
100
AcDbLine
 10
12039.1568831928
 20
1733.321897556042
 30
0.0
 11
12039.1568831928
 21
1660.662879184638
 31
0.0
  0
ARC
  5
1CCEA
330
747D
100
AcDbEntity
  8
部品1
 48
50.0
100
AcDbCircle
 10
12069.15688319279
 20
1660.662879184638
 30
0.0
 40
30.0
100
AcDbArc
 50
340.5287793654919
 51
0.0
  0
ARC
  5
1CCEB
330
747D
100
AcDbEntity
  8
部品1
 48
50.0
100
AcDbCircle
 10
12069.15688319279
 20
1660.662879184638
 30
0.0
 40
30.0
100
AcDbArc
 50
180.0
 51
199.4712206345081
  0
LINE
  5
1CCEC
330
747D
100
AcDbEntity
  8
部品1
 48
50.0
100
AcDbLine
 10
12059.1568831928
 20
1733.321897556042
 30
0.0
 11
12039.1568831928
 21
1733.321897556042
 31
0.0
  0
LINE
  5
1CCED
330
747D
100
AcDbEntity
  8
細線
 48
50.0
100
AcDbLine
 10
12048.98919253955
 20
1733.321897556042
 30
0.0
 11
12079.1568831928
 21
1763.489588209289
 31
0.0
  0
LINE
  5
1CCEE
330
747D
100
AcDbEntity
  8
細線
 48
50.0
100
AcDbLine
 10
12059.1568831928
 20
1709.813627755277
 30
0.0
 11
12079.1568831928
 21
1729.813627755279
 31
0.0
  0
LINE
  5
1CCEF
330
747D
100
AcDbEntity
  8
細線
 48
50.0
100
AcDbLine
 10
11932.65421371414
 20
1650.662879184639
 30
0.0
 11
12079.1568831928
 21
1797.165548663298
 31
0.0
  0
CIRCLE
  5
1CCF0
330
747D
100
AcDbEntity
  8
部品1
 48
50.0
100
AcDbCircle
 10
12229.15688319279
 20
1660.662879184638
 30
0.0
 40
10.0
  0
LINE
  5
1CCF1
330
747D
100
AcDbEntity
  8
部品1
 48
50.0
100
AcDbLine
 10
12299.1568831928
 20
1630.662879184639
 30
0.0
 11
12299.1568831928
 21
1650.662879184639
 31
0.0
  0
LINE
  5
1CCF2
330
747D
100
AcDbEntity
  8
細線
 48
50.0
100
AcDbLine
 10
12331.46958097829
 20
1510.662879184638
 30
0.0
 11
12369.1568831928
 21
1548.350181399144
 31
0.0
  0
LINE
  5
1CCF3
330
747D
100
AcDbEntity
  8
部品1
 48
50.0
100
AcDbLine
 10
12369.1568831928
 20
1810.662879184638
 30
0.0
 11
12369.1568831928
 21
1510.662879184638
 31
0.0
  0
LINE
  5
1CCF4
330
747D
100
AcDbEntity
  8
細線
 48
50.0
100
AcDbLine
 10
12400.89348197054
 20
1380.662879184639
 30
0.0
 11
12408.93195774348
 21
1350.662879184639
 31
0.0
  0
LINE
  5
1CCF5
330
747D
100
AcDbEntity
  8
部品1
 48
50.0
100
AcDbLine
 10
12469.1568831928
 20
1350.662879184639
 30
0.0
 11
12469.1568831928
 21
1510.662879184638
 31
0.0
  0
LINE
  5
1CCF6
330
747D
100
AcDbEntity
  8
細線
 48
50.0
100
AcDbLine
 10
12392.85500619761
 20
1350.662879184639
 30
0.0
 11
12435.72687698659
 21
1510.662879184638
 31
0.0
  0
LINE
  5
1CCF7
330
747D
100
AcDbEntity
  8
細線
 48
50.0
100
AcDbLine
 10
12427.68840121366
 20
1480.662879184639
 30
0.0
 11
12419.64992544072
 21
1510.662879184638
 31
0.0
  0
LINE
  5
1CCF8
330
747D
100
AcDbEntity
  8
細線
 48
50.0
100
AcDbLine
 10
12365.1455414323
 20
1510.662879184638
 30
0.0
 11
12369.1568831928
 21
1514.674220945136
 31
0.0
  0
LINE
  5
1CCF9
330
747D
100
AcDbEntity
  8
部品1
 48
50.0
100
AcDbLine
 10
13026.13450741841
 20
823.2551147814627
 30
0.0
 11
13026.13450741841
 21
663.2551147814629
 31
0.0
  0
LWPOLYLINE
  5
1CCFA
330
747D
100
AcDbEntity
  8
部品1
 48
50.0
100
AcDbPolyline
 90
        4
 70
     0
 43
15.0
 10
12189.15688319279
 20
2114.498986322561
 10
12706.83176048399
 20
2114.498986322561
 42
0.1559987191059798
 10
12873.53428155252
 20
2167.458072144327
 42
-0.1900569176366468
 10
13072.45609679104
 20
2198.439255588273
  0
LINE
  5
1CCFB
330
747D
100
AcDbEntity
  8
部品1
 48
50.0
100
AcDbLine
 10
12039.1568831928
 20
2343.321897556044
 30
0.0
 11
12039.1568831928
 21
2415.980915927447
 31
0.0
  0
LINE
  5
1CCFC
330
747D
100
AcDbEntity
  8
細線
 48
50.0
100
AcDbLine
 10
12059.1568831928
 20
2382.304955473436
 30
0.0
 11
12079.1568831928
 21
2402.304955473436
 31
0.0
  0
LINE
  5
1CCFD
330
747D
100
AcDbEntity
  8
部品1
 48
50.0
100
AcDbLine
 10
12059.1568831928
 20
2343.321897556042
 30
0.0
 11
12059.1568831928
 21
2415.980915927446
 31
0.0
  0
LINE
  5
1CCFE
330
747D
100
AcDbEntity
  8
細線
 48
50.0
100
AcDbLine
 10
11949.15688319279
 20
2305.980915927445
 30
0.0
 11
12039.1568831928
 21
2395.980915927446
 31
0.0
  0
LINE
  5
1CCFF
330
747D
100
AcDbEntity
  8
細線
 48
50.0
100
AcDbLine
 10
12099.1568831928
 20
2388.628995019427
 30
0.0
 11
12189.15688319279
 21
2478.628995019427
 31
0.0
  0
LINE
  5
1CD00
330
747D
100
AcDbEntity
  8
細線
 48
50.0
100
AcDbLine
 10
12321.19466909324
 20
1934.498986322561
 30
0.0
 11
12364.06653988223
 21
2094.498986322561
 31
0.0
  0
LINE
  5
1CD01
330
747D
100
AcDbEntity
  8
部品1
 48
50.0
100
AcDbLine
 10
12189.15688319279
 20
2114.498986322561
 30
0.0
 11
12706.83176048399
 21
2114.498986322561
 31
0.0
  0
LINE
  5
1CD02
330
747D
100
AcDbEntity
  8
部品1
 48
50.0
100
AcDbLine
 10
12189.15688319279
 20
2364.498986322561
 30
0.0
 11
12706.83176048399
 21
2364.498986322561
 31
0.0
  0
LINE
  5
1CD03
330
747D
100
AcDbEntity
  8
部品1
 48
50.0
100
AcDbLine
 10
12189.15688319279
 20
2134.498986322561
 30
0.0
 11
12706.83176048399
 21
2134.498986322561
 31
0.0
  0
LINE
  5
1CD04
330
747D
100
AcDbEntity
  8
部品1
 48
50.0
100
AcDbLine
 10
12189.15688319279
 20
2094.498986322561
 30
0.0
 11
12706.83176048399
 21
2094.498986322561
 31
0.0
  0
LINE
  5
1CD05
330
747D
100
AcDbEntity
  8
部品1
 48
50.0
100
AcDbLine
 10
12190.2417135361
 20
1934.498986322561
 30
0.0
 11
12706.83176048399
 21
1934.498986322561
 31
0.0
  0
HATCH
  5
1CD06
330
747D
100
AcDbEntity
  8
寸法
 62
     5
 48
50.0
100
AcDbHatch
 10
0.0
 20
0.0
 30
0.0
210
0.0
220
0.0
230
1.0
  2
PLAST
 70
     0
 71
     0
 91
        1
 92
        7
 72
     0
 73
     1
 93
        4
 10
12706.83176048399
 20
2364.49898632256
 10
12189.1568831928
 20
2364.498986322561
 10
12189.1568831928
 20
2134.498986322561
 10
12706.83176048399
 20
2134.498986322562
 97
        0
 75
     0
 76
     1
 52
315.0
 41
25.0
 77
     0
 78
     3
 53
315.0
 43
-798.2100805578192
 44
-3228.128111154769
 45
112.2532015133644
 46
112.2532015133644
 79
     0
 53
315.0
 43
-784.1784303686489
 44
-3214.096460965599
 45
112.2532015133644
 46
112.2532015133644
 79
     0
 53
315.0
 43
-770.1467801794779
 44
-3200.064810776427
 45
112.2532015133644
 46
112.2532015133644
 79
     0
 47
1.387886003246494
 98
        1
 10
12417.70741401876
 20
2301.184573359933
  0
LINE
  5
1CD07
330
747D
100
AcDbEntity
  8
細線
 48
50.0
100
AcDbLine
 10
12099.1568831928
 20
2019.221311387354
 30
0.0
 11
12189.15688319279
 21
2109.221311387351
 31
0.0
  0
LINE
  5
1CD08
330
747D
100
AcDbEntity
  8
細線
 48
50.0
100
AcDbLine
 10
12099.1568831928
 20
2086.573232295374
 30
0.0
 11
12189.15688319279
 21
2176.573232295373
 31
0.0
  0
LINE
  5
1CD09
330
747D
100
AcDbEntity
  8
細線
 48
50.0
100
AcDbLine
 10
12099.1568831928
 20
2052.897271841362
 30
0.0
 11
12189.15688319279
 21
2142.897271841358
 31
0.0
  0
LINE
  5
1CD0A
330
747D
100
AcDbEntity
  8
細線
 48
50.0
100
AcDbLine
 10
12099.1568831928
 20
1817.1655486633
 30
0.0
 11
12189.15688319279
 21
1907.165548663294
 31
0.0
  0
LINE
  5
1CD0B
330
747D
100
AcDbEntity
  8
細線
 48
50.0
100
AcDbLine
 10
11949.15688319279
 20
1936.573232295371
 30
0.0
 11
12079.1568831928
 21
2066.573232295372
 31
0.0
  0
LINE
  5
1CD0C
330
747D
100
AcDbEntity
  8
細線
 48
50.0
100
AcDbLine
 10
11949.15688319279
 20
1902.897271841361
 30
0.0
 11
12079.1568831928
 21
2032.89727184136
 31
0.0
  0
LINE
  5
1CD0D
330
747D
100
AcDbEntity
  8
細線
 48
50.0
100
AcDbLine
 10
11949.15688319279
 20
1869.221311387352
 30
0.0
 11
12079.1568831928
 21
1999.221311387354
 31
0.0
  0
LINE
  5
1CD0E
330
747D
100
AcDbEntity
  8
細線
 48
50.0
100
AcDbLine
 10
12222.58461290918
 20
1934.498986322561
 30
0.0
 11
12265.45648369816
 21
2094.498986322561
 31
0.0
  0
LINE
  5
1CD0F
330
747D
100
AcDbEntity
  8
細線
 48
50.0
100
AcDbLine
 10
12230.62308868212
 20
1964.498986322561
 30
0.0
 11
12238.66156445505
 21
1934.498986322561
 31
0.0
  0
LINE
  5
1CD10
330
747D
100
AcDbEntity
  8
細線
 48
50.0
100
AcDbLine
 10
12257.41800792523
 20
2064.498986322561
 30
0.0
 11
12249.3795321523
 21
2094.498986322561
 31
0.0
  0
LINE
  5
1CD11
330
747D
100
AcDbEntity
  8
細線
 48
50.0
100
AcDbLine
 10
12059.1568831928
 20
2348.628995019427
 30
0.0
 11
12079.1568831928
 21
2368.628995019427
 31
0.0
  0
LINE
  5
1CD12
330
747D
100
AcDbEntity
  8
部品1
 48
50.0
100
AcDbLine
 10
12059.1568831928
 20
2343.321897556042
 30
0.0
 11
12039.1568831928
 21
2343.321897556044
 31
0.0
  0
LINE
  5
1CD13
330
747D
100
AcDbEntity
  8
細線
 48
50.0
100
AcDbLine
 10
11949.15688319279
 20
2272.304955473436
 30
0.0
 11
12039.1568831928
 21
2362.304955473436
 31
0.0
  0
LINE
  5
1CD14
330
747D
100
AcDbEntity
  8
細線
 48
50.0
100
AcDbLine
 10
11949.15688319279
 20
2238.628995019427
 30
0.0
 11
12053.84978572942
 21
2343.321897556042
 31
0.0
  0
LINE
  5
1CD15
330
747D
100
AcDbEntity
  8
細線
 48
50.0
100
AcDbLine
 10
12518.41478146137
 20
1934.498986322561
 30
0.0
 11
12561.28665225034
 21
2094.498986322561
 31
0.0
  0
LINE
  5
1CD16
330
747D
100
AcDbEntity
  8
細線
 48
50.0
100
AcDbLine
 10
12526.4532572343
 20
1964.498986322561
 30
0.0
 11
12534.49173300724
 21
1934.498986322561
 31
0.0
  0
LINE
  5
1CD17
330
747D
100
AcDbEntity
  8
細線
 48
50.0
100
AcDbLine
 10
12419.80472527731
 20
1934.498986322561
 30
0.0
 11
12462.67659606629
 21
2094.498986322561
 31
0.0
  0
LINE
  5
1CD18
330
747D
100
AcDbEntity
  8
細線
 48
50.0
100
AcDbLine
 10
12427.84320105024
 20
1964.498986322561
 30
0.0
 11
12435.88167682317
 21
1934.498986322561
 31
0.0
  0
LINE
  5
1CD19
330
747D
100
AcDbEntity
  8
細線
 48
50.0
100
AcDbLine
 10
12454.63812029335
 20
2064.498986322561
 30
0.0
 11
12446.59964452042
 21
2094.498986322561
 31
0.0
  0
LINE
  5
1CD1A
330
747D
100
AcDbEntity
  8
細線
 48
50.0
100
AcDbLine
 10
12329.23314486618
 20
1964.498986322561
 30
0.0
 11
12337.27162063911
 21
1934.498986322561
 31
0.0
  0
LINE
  5
1CD1B
330
747D
100
AcDbEntity
  8
細線
 48
50.0
100
AcDbLine
 10
12356.02806410929
 20
2064.498986322561
 30
0.0
 11
12347.98958833636
 21
2094.498986322561
 31
0.0
  0
LINE
  5
1CD1C
330
747D
100
AcDbEntity
  8
細線
 48
50.0
100
AcDbLine
 10
12617.02483764543
 20
1934.498986322561
 30
0.0
 11
12659.89670843441
 21
2094.498986322561
 31
0.0
  0
LINE
  5
1CD1D
330
747D
100
AcDbEntity
  8
細線
 48
50.0
100
AcDbLine
 10
12625.06331341836
 20
1964.498986322561
 30
0.0
 11
12633.10178919129
 21
1934.498986322561
 31
0.0
  0
LINE
  5
1CD1E
330
747D
100
AcDbEntity
  8
細線
 48
50.0
100
AcDbLine
 10
12651.85823266148
 20
2064.498986322561
 30
0.0
 11
12643.81975688854
 21
2094.498986322561
 31
0.0
  0
LINE
  5
1CD1F
330
747D
100
AcDbEntity
  8
細線
 48
50.0
100
AcDbLine
 10
12553.24817647741
 20
2064.498986322561
 30
0.0
 11
12545.20970070448
 21
2094.498986322561
 31
0.0
  0
LINE
  5
1CD20
330
747D
100
AcDbEntity
  8
細線
100
AcDbLine
 10
12119.463724384
 20
2558.652572894932
 30
0.0
 11
12148.96779306223
 21
2557.014828197543
 31
0.0
  0
LINE
  5
1CD21
330
747D
100
AcDbEntity
  8
細線
 48
50.0
100
AcDbLine
 10
12084.77241132089
 20
2441.596444055534
 30
0.0
 11
12189.15688319279
 21
2545.980915927446
 31
0.0
  0
LINE
  5
1CD22
330
747D
100
AcDbEntity
  8
細線
 48
50.0
100
AcDbLine
 10
12098.59776727528
 20
2421.745839555914
 30
0.0
 11
12189.15688319279
 21
2512.304955473436
 31
0.0
  0
LINE
  5
1CD23
330
747D
100
AcDbEntity
  8
部品1
 48
50.0
100
AcDbLine
 10
11949.15688319279
 20
2590.662879184639
 30
0.0
 11
12189.15688319279
 21
2590.662879184639
 31
0.0
  0
LINE
  5
1CD24
330
747D
100
AcDbEntity
  8
細線
100
AcDbLine
 10
12022.75578144626
 20
2550.464019698927
 30
0.0
 11
12063.73373574557
 21
2557.014828197543
 31
0.0
  0
LINE
  5
1CD25
330
747D
100
AcDbEntity
  8
細線
100
AcDbLine
 10
11986.69520669882
 20
2550.464019698927
 30
0.0
 11
12022.75578144626
 21
2550.464019698927
 31
0.0
  0
LINE
  5
1CD26
330
747D
100
AcDbEntity
  8
細線
100
AcDbLine
 10
12063.73373574557
 20
2557.014828197543
 30
0.0
 11
12119.463724384
 21
2558.652572894932
 31
0.0
  0
LINE
  5
1CD27
330
747D
100
AcDbEntity
  8
細線
 48
50.0
100
AcDbLine
 10
11949.15688319279
 20
2508.036678651502
 30
0.0
 11
11991.58422424022
 21
2550.464019698927
 31
0.0
  0
LINE
  5
1CD28
330
747D
100
AcDbEntity
  8
細線
 48
50.0
100
AcDbLine
 10
11949.15688319279
 20
2541.712639105511
 30
0.0
 11
11963.8803960041
 21
2556.436151916817
 31
0.0
  0
LINE
  5
1CD29
330
747D
100
AcDbEntity
  8
細線
100
AcDbLine
 10
11949.15688319279
 20
2560.290260828678
 30
0.0
 11
11986.69520669882
 21
2550.464019698927
 31
0.0
  0
ARC
  5
1CD2A
330
747D
100
AcDbEntity
  8
部品1
 48
50.0
100
AcDbCircle
 10
12069.15688319279
 20
2415.980915927446
 30
0.0
 40
30.0
100
AcDbArc
 50
0.0
 51
180.0
  0
CIRCLE
  5
1CD2B
330
747D
100
AcDbEntity
  8
部品1
 48
50.0
100
AcDbCircle
 10
12069.15688319279
 20
2415.980915927446
 30
0.0
 40
10.0
  0
LINE
  5
1CD2C
330
747D
100
AcDbEntity
  8
細線
100
AcDbLine
 10
12148.96779306223
 20
2557.014828197543
 30
0.0
 11
12189.15688319279
 21
2548.82627500154
 31
0.0
  0
LINE
  5
1CD2D
330
747D
100
AcDbEntity
  8
細線
 48
50.0
100
AcDbLine
 10
10293.53737839028
 20
3429.348842921978
 30
0.0
 11
13850.18092776281
 21
3429.34884292198
 31
0.0
  0
LINE
  5
1CD2E
330
747D
100
AcDbEntity
  8
細線
 48
50.0
100
AcDbLine
 10
10293.53737839028
 20
3389.34884292198
 30
0.0
 11
10293.53737839028
 21
3389.34884292198
 31
0.0
  0
LINE
  5
1CD2F
330
747D
100
AcDbEntity
  8
細線
 48
50.0
100
AcDbLine
 10
10293.53737839028
 20
3469.348842921981
 30
0.0
 11
10293.53737839028
 21
3389.34884292198
 31
0.0
  0
LEADER
  5
1CE59
330
747D
100
AcDbEntity
  8
寸法
 48
50.0
100
AcDbLeader
  3
INABA_S50G
 71
     0
 73
     0
 74
     0
 75
     1
 40
100.0
 41
793.3333333333333
 76
     3
 10
10000.49426917989
 20
2459.778948851559
 30
0.0
 10
10148.19443464451
 20
2677.608760443604
 30
0.0
 10
10273.19443464451
 20
2677.608760443604
 30
0.0
340
1CE5A
  0
MTEXT
  5
1CE5A
102
{ACAD_REACTORS
330
1CE59
102
}
330
747D
100
AcDbEntity
  8
寸法
 62
     7
 48
50.0
100
AcDbMText
 10
10298.19443464451
 20
2752.608760443604
 30
0.0
 40
100.0
 41
0.0
 71
     4
 72
     1
  1
アンカーボルト
  7
STYLE1
 73
     1
 44
1.0
1001
ACAD
1000
MTEXTBEGIN
1070
    73
1070
     1
1070
    44
1040
1.0
1070
    74
1070
     0
1000
MTEXTEND
  0
TEXT
  5
1CE5B
330
747D
100
AcDbEntity
  8
部品1
 48
50.0
100
AcDbText
 10
10287.68555888749
 20
2530.823872062836
 30
0.0
 40
100.0
  1
M12\U+00D7200(市販品)
  7
STYLE1
100
AcDbText
  0
TEXT
  5
1CE5C
330
747D
100
AcDbEntity
  8
部品1
 48
50.0
100
AcDbText
 10
10287.68555888749
 20
2416.166259921054
 30
0.0
 40
100.0
  1
または
  7
STYLE1
100
AcDbText
  0
TEXT
  5
1CE5D
330
747D
100
AcDbEntity
  8
部品1
 48
50.0
100
AcDbText
 10
10287.68555888749
 20
2298.829091417461
 30
0.0
 40
100.0
  1
W1/2\U+00D7200(市販品)
  7
STYLE1
100
AcDbText
  0
ENDSEC
  0
SECTION
  2
OBJECTS
  0
DICTIONARY
  5
7471
330
0
100
AcDbDictionary
281
     1
  3
ACAD_CIP_PREVIOUS_PRODUCT_INFO
350
1CE4D
  3
ACAD_COLOR
350
1BC09
  3
ACAD_DETAILVIEWSTYLE
350
1CE48
  3
ACAD_GROUP
350
7472
  3
ACAD_LAYOUT
350
1BC0A
  3
ACAD_MATERIAL
350
1BC08
  3
ACAD_MLEADERSTYLE
350
1CE44
  3
ACAD_MLINESTYLE
350
7473
  3
ACAD_PLOTSETTINGS
350
1BC0B
  3
ACAD_PLOTSTYLENAME
350
1BC06
  3
ACAD_SCALELIST
350
1CE32
  3
ACAD_SECTIONVIEWSTYLE
350
1CE46
  3
ACAD_TABLESTYLE
350
1CE30
  3
ACAD_VISUALSTYLE
350
1CE17
  3
ACDB_RECOMPOSE_DATA
350
1CEBE
  3
ACDBVARIABLEDICTIONARY
350
1152B
  3
AcDsDecomposeData
350
1CEC5
  3
CONTENTDICTIONARY
350
E71C
  3
DRAWINGVARIABLESDICT
350
F3B9
  3
DWGPROPS
350
1CEBF
  0
DICTIONARY
  5
1C7CD
330
7467
100
AcDbDictionary
280
     1
281
     1
  3
ACAD_LAYERSTATES
360
1C7CE
  0
DICTIONARY
  5
1CE5E
330
7474
100
AcDbDictionary
280
     1
281
     1
  3
ADSK_XREC_LAYER_RECONCILED
360
1CE5F
  0
DICTIONARY
  5
1CE60
330
DEB2
100
AcDbDictionary
280
     1
281
     1
  3
ADSK_XREC_LAYER_RECONCILED
360
1CE61
  0
DICTIONARY
  5
1CE62
330
DEB3
100
AcDbDictionary
280
     1
281
     1
  3
ADSK_XREC_LAYER_RECONCILED
360
1CE63
  0
DICTIONARY
  5
1CE64
330
DEB4
100
AcDbDictionary
280
     1
281
     1
  3
ADSK_XREC_LAYER_RECONCILED
360
1CE65
  0
DICTIONARY
  5
1CE66
330
DEB5
100
AcDbDictionary
280
     1
281
     1
  3
ADSK_XREC_LAYER_RECONCILED
360
1CE67
  0
DICTIONARY
  5
1CE68
330
DEB6
100
AcDbDictionary
280
     1
281
     1
  3
ADSK_XREC_LAYER_RECONCILED
360
1CE69
  0
DICTIONARY
  5
1CE6A
330
10B54
100
AcDbDictionary
280
     1
281
     1
  3
ADSK_XREC_LAYER_RECONCILED
360
1CE6B
  0
DICTIONARY
  5
1CE6C
330
13F73
100
AcDbDictionary
280
     1
281
     1
  3
ADSK_XREC_LAYER_RECONCILED
360
1CE6D
  0
DICTIONARY
  5
1CE6E
330
13F74
100
AcDbDictionary
280
     1
281
     1
  3
ADSK_XREC_LAYER_RECONCILED
360
1CE6F
  0
DICTIONARY
  5
1CE70
330
1643F
100
AcDbDictionary
280
     1
281
     1
  3
ADSK_XREC_LAYER_RECONCILED
360
1CE71
  0
DICTIONARY
  5
1CE72
330
17A5A
100
AcDbDictionary
280
     1
281
     1
  3
ADSK_XREC_LAYER_RECONCILED
360
1CE73
  0
XRECORD
  5
1CE4D
102
{ACAD_REACTORS
330
7471
102
}
330
7471
100
AcDbXrecord
280
     1
300
ACDLT
300
2014
300
ACDLT_F_S
  0
DICTIONARY
  5
1BC09
102
{ACAD_REACTORS
330
7471
102
}
330
7471
100
AcDbDictionary
281
     1
  0
DICTIONARY
  5
1CE48
102
{ACAD_REACTORS
330
7471
102
}
330
7471
100
AcDbDictionary
281
     1
  3
Metric50
350
1CE49
  0
DICTIONARY
  5
7472
102
{ACAD_REACTORS
330
7471
102
}
330
7471
100
AcDbDictionary
281
     1
  0
DICTIONARY
  5
1BC0A
102
{ACAD_REACTORS
330
7471
102
}
330
7471
100
AcDbDictionary
281
     1
  3
Model
350
1BC0C
  3
レイアウト1
350
1BC0D
  0
DICTIONARY
  5
1BC08
102
{ACAD_REACTORS
330
7471
102
}
330
7471
100
AcDbDictionary
281
     1
  3
ByBlock
350
1CE07
  3
ByLayer
350
1CDFF
  3
Global
350
1CE0F
  0
DICTIONARY
  5
1CE44
102
{ACAD_REACTORS
330
7471
102
}
330
7471
100
AcDbDictionary
281
     1
  3
Standard
350
1CE45
  0
DICTIONARY
  5
7473
102
{ACAD_REACTORS
330
7471
102
}
330
7471
100
AcDbDictionary
281
     1
  3
STANDARD
350
7480
  0
DICTIONARY
  5
1BC0B
102
{ACAD_REACTORS
330
7471
102
}
330
7471
100
AcDbDictionary
281
     1
  0
ACDBDICTIONARYWDFLT
  5
1BC06
102
{ACAD_REACTORS
330
7471
102
}
330
7471
100
AcDbDictionary
281
     1
  3
Normal
350
1BC07
100
AcDbDictionaryWithDefault
340
1BC07
  0
DICTIONARY
  5
1CE32
102
{ACAD_REACTORS
330
7471
102
}
330
7471
100
AcDbDictionary
281
     1
  3
A0
350
1CE33
  3
A1
350
1CE34
  3
A2
350
1CE35
  3
A3
350
1CE36
  3
A4
350
1CE37
  3
A5
350
1CE38
  3
A6
350
1CE39
  3
A7
350
1CE3A
  3
A8
350
1CE3B
  3
A9
350
1CE3C
  3
B0
350
1CE3D
  3
B1
350
1CE3E
  3
B2
350
1CE3F
  3
B3
350
1CE40
  3
B4
350
1CE41
  3
B5
350
1CE42
  3
B6
350
1CE43
  0
DICTIONARY
  5
1CE46
102
{ACAD_REACTORS
330
7471
102
}
330
7471
100
AcDbDictionary
281
     1
  3
Metric50
350
1CE47
  0
DICTIONARY
  5
1CE30
102
{ACAD_REACTORS
330
7471
102
}
330
7471
100
AcDbDictionary
281
     1
  3
Standard
350
1CE31
  0
DICTIONARY
  5
1CE17
102
{ACAD_REACTORS
330
7471
102
}
330
7471
100
AcDbDictionary
281
     1
  3
2dWireframe
350
1CE1D
  3
Basic
350
1CE1C
  3
Brighten
350
1CE23
  3
ColorChange
350
1CE27
  3
Conceptual
350
1CE20
  3
Dim
350
1CE22
  3
EdgeColorOff
350
1CE2F
  3
Facepattern
350
1CE26
  3
Flat
350
1CE18
  3
FlatWithEdges
350
1CE19
  3
Gouraud
350
1CE1A
  3
GouraudWithEdges
350
1CE1B
  3
Hidden
350
1CE1F
  3
JitterOff
350
1CE2D
  3
Linepattern
350
1CE25
  3
OverhangOff
350
1CE2E
  3
Realistic
350
1CE21
  3
Shaded
350
1CE2C
  3
Shaded with edges
350
1CE2B
  3
Shades of Gray
350
1CE28
  3
Sketchy
350
1CE29
  3
Thicken
350
1CE24
  3
Wireframe
350
1CE1E
  3
X-Ray
350
1CE2A
  0
XRECORD
  5
1CEBE
102
{ACAD_REACTORS
330
7471
102
}
330
7471
100
AcDbXrecord
280
     1
 90
        1
330
1CE31
  0
DICTIONARY
  5
1152B
102
{ACAD_REACTORS
330
7471
102
}
330
7471
100
AcDbDictionary
281
     1
  3
CANNOSCALE
350
1CE7E
  3
CMLEADERSTYLE
350
1CE7A
  3
CTABLESTYLE
350
1CE79
  3
CVIEWDETAILSTYLE
350
1CE7B
  3
CVIEWSECTIONSTYLE
350
1CE7C
  3
DIMASSOC
350
1CDF0
  3
INDEXCTL
350
1CEBA
  3
LAYEREVAL
350
1CE80
  3
LAYERNOTIFY
350
1CE81
  3
LIGHTINGUNITS
350
1CE7F
  3
MSLTSCALE
350
1CE7D
  3
PROJECTNAME
350
1CDF1
  3
SORTENTS
350
1152C
  3
XCLIPFRAME
350
1CEBB
  0
DICTIONARY
  5
1CEC5
102
{ACAD_REACTORS
330
7471
102
}
330
7471
100
AcDbDictionary
281
     1
  3
AcDsRecords
350
1CEC7
  3
AcDsSchemas
350
1CEC6
1001
ACAD
1070
     2
  0
DICTIONARY
  5
E71C
102
{ACAD_REACTORS
330
7471
102
}
330
7471
100
AcDbDictionary
281
     1
  0
DICTIONARY
  5
F3B9
102
{ACAD_REACTORS
330
7471
102
}
330
7471
100
AcDbDictionary
281
     1
1001
DRAWINGVARIABLESXDATA
1000
POLARMODE
1000
1
  0
XRECORD
  5
1CEBF
102
{ACAD_REACTORS
330
7471
102
}
330
7471
100
AcDbXrecord
280
     1
  1
DWGPROPS COOKIE
  2

  3

  4

  6

  7

  8
hayashi.mizuki
  9

300
=
301
=
302
=
303
=
304
=
305
=
306
=
307
=
308
=
309
=
 40
2.327678587962962
 41
2450927.380327778
 42
2459381.442217882
  1

 90
        0
  0
DICTIONARY
  5
1C7CE
102
{ACAD_REACTORS
330
1C7CD
102
}
330
1C7CD
100
AcDbDictionary
281
     1
  0
XRECORD
  5
1CE5F
102
{ACAD_REACTORS
330
1CE5E
102
}
330
1CE5E
100
AcDbXrecord
280
     1
290
     1
  0
XRECORD
  5
1CE61
102
{ACAD_REACTORS
330
1CE60
102
}
330
1CE60
100
AcDbXrecord
280
     1
290
     1
  0
XRECORD
  5
1CE63
102
{ACAD_REACTORS
330
1CE62
102
}
330
1CE62
100
AcDbXrecord
280
     1
290
     1
  0
XRECORD
  5
1CE65
102
{ACAD_REACTORS
330
1CE64
102
}
330
1CE64
100
AcDbXrecord
280
     1
290
     1
  0
XRECORD
  5
1CE67
102
{ACAD_REACTORS
330
1CE66
102
}
330
1CE66
100
AcDbXrecord
280
     1
290
     1
  0
XRECORD
  5
1CE69
102
{ACAD_REACTORS
330
1CE68
102
}
330
1CE68
100
AcDbXrecord
280
     1
290
     1
  0
XRECORD
  5
1CE6B
102
{ACAD_REACTORS
330
1CE6A
102
}
330
1CE6A
100
AcDbXrecord
280
     1
290
     1
  0
XRECORD
  5
1CE6D
102
{ACAD_REACTORS
330
1CE6C
102
}
330
1CE6C
100
AcDbXrecord
280
     1
290
     1
  0
XRECORD
  5
1CE6F
102
{ACAD_REACTORS
330
1CE6E
102
}
330
1CE6E
100
AcDbXrecord
280
     1
290
     1
  0
XRECORD
  5
1CE71
102
{ACAD_REACTORS
330
1CE70
102
}
330
1CE70
100
AcDbXrecord
280
     1
290
     1
  0
XRECORD
  5
1CE73
102
{ACAD_REACTORS
330
1CE72
102
}
330
1CE72
100
AcDbXrecord
280
     1
290
     1
  0
ACDBDETAILVIEWSTYLE
  5
1CE49
102
{ACAD_XDICTIONARY
360
1CE76
102
}
102
{ACAD_REACTORS
330
1CE48
102
}
330
1CE48
100
AcDbModelDocViewStyle
 70
     0
  3
Metric50
290
     0
100
AcDbDetailViewStyle
 70
     0
 71
     0
 90
        3
 71
     1
340
7475
 40
5.0
340
0
 40
5.0
300

 40
0.0
280
     1
 71
     2
340
7479
 90
       25
 71
     3
340
7475
 40
5.0
 90
        0
 40
15.0
 90
        1
300
%<\AcVar ViewDetailId>% (%<\AcVar ViewScale \f "%sn">%)
 71
     4
340
7479
 90
       25
340
7479
 90
       25
280
     0
  0
LAYOUT
  5
1BC0C
102
{ACAD_XDICTIONARY
360
1CECA
102
}
102
{ACAD_REACTORS
330
1BC0A
102
}
330
1BC0A
100
AcDbPlotSettings
  1

  2
横.pc3
  4
A3
  6

 40
3.174999952316284
 41
3.174999952316284
 42
3.17498779296875
 43
3.17498779296875
 44
420.1583251953125
 45
297.0318298339844
 46
0.9432763065320557
 47
0.0
 48
0.0
 49
0.0
140
0.0
141
0.0
142
1.0
143
49.06613649856484
 70
 11956
 72
     1
 73
     0
 74
     1
  7
inaba.ctb
 75
     0
147
0.0203806549967359
148
-173.9960207766853
149
0.2264616298234614
100
AcDbLayout
  1
Model
 70
     1
 71
     0
 10
0.0
 20
0.0
 11
12.0
 21
9.0
 12
0.0
 22
0.0
 32
0.0
 14
0.0
 24
0.0
 34
0.0
 15
0.0
 25
0.0
 35
0.0
146
0.0
 13
0.0
 23
0.0
 33
0.0
 16
1.0
 26
0.0
 36
0.0
 17
0.0
 27
1.0
 37
0.0
 76
     0
330
747D
331
1CDF2
1001
ACAD_PSEXT
1000
横.pc3
1000
CubePDF
1000
CubePDF:
1000
CubePDF
1070
     0
  0
LAYOUT
  5
1BC0D
102
{ACAD_XDICTIONARY
360
1CECC
102
}
102
{ACAD_REACTORS
330
1BC0A
102
}
330
1BC0A
100
AcDbPlotSettings
  1

  2
Microsoft Office Document Image Writer
  4

  6

 40
0.0
 41
0.0
 42
0.0
 43
0.0
 44
0.0
 45
0.0
 46
0.0
 47
0.0
 48
0.0
 49
0.0
140
0.0
141
0.0
142
1.0
143
1.0
 70
   688
 72
     0
 73
     0
 74
     5
  7
inaba.ctb
 75
    16
147
1.0
148
0.0
149
0.0
100
AcDbLayout
  1
レイアウト1
 70
     0
 71
     1
 10
0.0
 20
0.0
 11
420.0
 21
297.0
 12
0.0
 22
0.0
 32
0.0
 14
1.000000000000000E+20
 24
1.000000000000000E+20
 34
1.000000000000000E+20
 15
-1.000000000000000E+20
 25
-1.000000000000000E+20
 35
-1.000000000000000E+20
146
0.0
 13
0.0
 23
0.0
 33
0.0
 16
1.0
 26
0.0
 36
0.0
 17
0.0
 27
1.0
 37
0.0
 76
     0
330
747A
  0
MATERIAL
  5
1CE07
102
{ACAD_XDICTIONARY
360
1CE08
102
}
102
{ACAD_REACTORS
330
1BC08
102
}
330
1BC08
100
AcDbMaterial
  1
ByBlock
 72
     0
 43
0.0208333333333333
 43
0.0
 43
0.0
 43
0.0
 43
0.0
 43
0.0208333333333333
 43
0.0
 43
0.0
 43
0.0
 43
0.0
 43
1.0
 43
0.0
 43
0.0
 43
0.0
 43
0.0
 43
1.0
 77
     0
 47
0.0208333333333333
 47
0.0
 47
0.0
 47
0.0
 47
0.0
 47
0.0208333333333333
 47
0.0
 47
0.0
 47
0.0
 47
0.0
 47
1.0
 47
0.0
 47
0.0
 47
0.0
 47
0.0
 47
1.0
171
     0
 49
0.0208333333333333
 49
0.0
 49
0.0
 49
0.0
 49
0.0
 49
0.0208333333333333
 49
0.0
 49
0.0
 49
0.0
 49
0.0
 49
1.0
 49
0.0
 49
0.0
 49
0.0
 49
0.0
 49
1.0
175
     0
142
0.0208333333333333
142
0.0
142
0.0
142
0.0
142
0.0
142
0.0208333333333333
142
0.0
142
0.0
142
0.0
142
0.0
142
1.0
142
0.0
142
0.0
142
0.0
142
0.0
142
1.0
179
     0
144
0.0208333333333333
144
0.0
144
0.0
144
0.0
144
0.0
144
0.0208333333333333
144
0.0
144
0.0
144
0.0
144
0.0
144
1.0
144
0.0
144
0.0
144
0.0
144
0.0
144
1.0
147
0.0208333333333333
147
0.0
147
0.0
147
0.0
147
0.0
147
0.0208333333333333
147
0.0
147
0.0
147
0.0
147
0.0
147
1.0
147
0.0
147
0.0
147
0.0
147
0.0
147
1.0
  0
MATERIAL
  5
1CDFF
102
{ACAD_XDICTIONARY
360
1CE00
102
}
102
{ACAD_REACTORS
330
1BC08
102
}
330
1BC08
100
AcDbMaterial
  1
ByLayer
 72
     0
 43
0.0208333333333333
 43
0.0
 43
0.0
 43
0.0
 43
0.0
 43
0.0208333333333333
 43
0.0
 43
0.0
 43
0.0
 43
0.0
 43
1.0
 43
0.0
 43
0.0
 43
0.0
 43
0.0
 43
1.0
 77
     0
 47
0.0208333333333333
 47
0.0
 47
0.0
 47
0.0
 47
0.0
 47
0.0208333333333333
 47
0.0
 47
0.0
 47
0.0
 47
0.0
 47
1.0
 47
0.0
 47
0.0
 47
0.0
 47
0.0
 47
1.0
171
     0
 49
0.0208333333333333
 49
0.0
 49
0.0
 49
0.0
 49
0.0
 49
0.0208333333333333
 49
0.0
 49
0.0
 49
0.0
 49
0.0
 49
1.0
 49
0.0
 49
0.0
 49
0.0
 49
0.0
 49
1.0
175
     0
142
0.0208333333333333
142
0.0
142
0.0
142
0.0
142
0.0
142
0.0208333333333333
142
0.0
142
0.0
142
0.0
142
0.0
142
1.0
142
0.0
142
0.0
142
0.0
142
0.0
142
1.0
179
     0
144
0.0208333333333333
144
0.0
144
0.0
144
0.0
144
0.0
144
0.0208333333333333
144
0.0
144
0.0
144
0.0
144
0.0
144
1.0
144
0.0
144
0.0
144
0.0
144
0.0
144
1.0
147
0.0208333333333333
147
0.0
147
0.0
147
0.0
147
0.0
147
0.0208333333333333
147
0.0
147
0.0
147
0.0
147
0.0
147
1.0
147
0.0
147
0.0
147
0.0
147
0.0
147
1.0
  0
MATERIAL
  5
1CE0F
102
{ACAD_XDICTIONARY
360
1CE10
102
}
102
{ACAD_REACTORS
330
1BC08
102
}
330
1BC08
100
AcDbMaterial
  1
Global
 72
     0
 43
0.0208333333333333
 43
0.0
 43
0.0
 43
0.0
 43
0.0
 43
0.0208333333333333
 43
0.0
 43
0.0
 43
0.0
 43
0.0
 43
1.0
 43
0.0
 43
0.0
 43
0.0
 43
0.0
 43
1.0
 77
     0
 47
0.0208333333333333
 47
0.0
 47
0.0
 47
0.0
 47
0.0
 47
0.0208333333333333
 47
0.0
 47
0.0
 47
0.0
 47
0.0
 47
1.0
 47
0.0
 47
0.0
 47
0.0
 47
0.0
 47
1.0
171
     0
 49
0.0208333333333333
 49
0.0
 49
0.0
 49
0.0
 49
0.0
 49
0.0208333333333333
 49
0.0
 49
0.0
 49
0.0
 49
0.0
 49
1.0
 49
0.0
 49
0.0
 49
0.0
 49
0.0
 49
1.0
175
     0
142
0.0208333333333333
142
0.0
142
0.0
142
0.0
142
0.0
142
0.0208333333333333
142
0.0
142
0.0
142
0.0
142
0.0
142
1.0
142
0.0
142
0.0
142
0.0
142
0.0
142
1.0
179
     0
144
0.0208333333333333
144
0.0
144
0.0
144
0.0
144
0.0
144
0.0208333333333333
144
0.0
144
0.0
144
0.0
144
0.0
144
1.0
144
0.0
144
0.0
144
0.0
144
0.0
144
1.0
147
0.0208333333333333
147
0.0
147
0.0
147
0.0
147
0.0
147
0.0208333333333333
147
0.0
147
0.0
147
0.0
147
0.0
147
1.0
147
0.0
147
0.0
147
0.0
147
0.0
147
1.0
  0
MLEADERSTYLE
  5
1CE45
102
{ACAD_REACTORS
330
1CE44
102
}
330
1CE44
100
AcDbMLeaderStyle
170
     2
171
     1
172
     0
 90
        2
 40
0.0
 41
0.0
173
     1
 91
-1056964608
340
7477
 92
       -2
290
     1
 42
2.0
291
     1
 43
0.36
  3
Standard
 44
4.0
300

342
7475
174
     1
178
     6
175
     1
176
     0
 93
-1056964608
 45
4.0
292
     0
297
     0
 46
4.0
 94
-1056964608
 47
1.0
 49
1.0
140
1.0
293
     1
141
0.0
294
     1
177
     0
142
1.0
295
     0
296
     0
143
0.125
1001
ACAD_MLEADERVER
1070
     2
  0
MLINESTYLE
  5
7480
102
{ACAD_REACTORS
330
7473
102
}
330
7473
100
AcDbMlineStyle
  2
STANDARD
 70
     0
  3

 62
     0
 51
90.0
 52
90.0
 71
     2
 49
0.5
 62
   256
  6
BYLAYER
 49
-0.5
 62
   256
  6
BYLAYER
  0
ACDBPLACEHOLDER
  5
1BC07
102
{ACAD_REACTORS
330
1BC06
102
}
330
1BC06
  0
SCALE
  5
1CE33
102
{ACAD_REACTORS
330
1CE32
102
}
330
1CE32
100
AcDbScale
 70
     0
300
1:1
140
1.0
141
1.0
290
     1
  0
SCALE
  5
1CE34
102
{ACAD_REACTORS
330
1CE32
102
}
330
1CE32
100
AcDbScale
 70
     0
300
1:2
140
1.0
141
2.0
290
     0
  0
SCALE
  5
1CE35
102
{ACAD_REACTORS
330
1CE32
102
}
330
1CE32
100
AcDbScale
 70
     0
300
1:4
140
1.0
141
4.0
290
     0
  0
SCALE
  5
1CE36
102
{ACAD_REACTORS
330
1CE32
102
}
330
1CE32
100
AcDbScale
 70
     0
300
1:5
140
1.0
141
5.0
290
     0
  0
SCALE
  5
1CE37
102
{ACAD_REACTORS
330
1CE32
102
}
330
1CE32
100
AcDbScale
 70
     0
300
1:8
140
1.0
141
8.0
290
     0
  0
SCALE
  5
1CE38
102
{ACAD_REACTORS
330
1CE32
102
}
330
1CE32
100
AcDbScale
 70
     0
300
1:10
140
1.0
141
10.0
290
     0
  0
SCALE
  5
1CE39
102
{ACAD_REACTORS
330
1CE32
102
}
330
1CE32
100
AcDbScale
 70
     0
300
1:16
140
1.0
141
16.0
290
     0
  0
SCALE
  5
1CE3A
102
{ACAD_REACTORS
330
1CE32
102
}
330
1CE32
100
AcDbScale
 70
     0
300
1:20
140
1.0
141
20.0
290
     0
  0
SCALE
  5
1CE3B
102
{ACAD_REACTORS
330
1CE32
102
}
330
1CE32
100
AcDbScale
 70
     0
300
1:30
140
1.0
141
30.0
290
     0
  0
SCALE
  5
1CE3C
102
{ACAD_REACTORS
330
1CE32
102
}
330
1CE32
100
AcDbScale
 70
     0
300
1:40
140
1.0
141
40.0
290
     0
  0
SCALE
  5
1CE3D
102
{ACAD_REACTORS
330
1CE32
102
}
330
1CE32
100
AcDbScale
 70
     0
300
1:50
140
1.0
141
50.0
290
     0
  0
SCALE
  5
1CE3E
102
{ACAD_REACTORS
330
1CE32
102
}
330
1CE32
100
AcDbScale
 70
     0
300
1:100
140
1.0
141
100.0
290
     0
  0
SCALE
  5
1CE3F
102
{ACAD_REACTORS
330
1CE32
102
}
330
1CE32
100
AcDbScale
 70
     0
300
2:1
140
2.0
141
1.0
290
     0
  0
SCALE
  5
1CE40
102
{ACAD_REACTORS
330
1CE32
102
}
330
1CE32
100
AcDbScale
 70
     0
300
4:1
140
4.0
141
1.0
290
     0
  0
SCALE
  5
1CE41
102
{ACAD_REACTORS
330
1CE32
102
}
330
1CE32
100
AcDbScale
 70
     0
300
8:1
140
8.0
141
1.0
290
     0
  0
SCALE
  5
1CE42
102
{ACAD_REACTORS
330
1CE32
102
}
330
1CE32
100
AcDbScale
 70
     0
300
10:1
140
10.0
141
1.0
290
     0
  0
SCALE
  5
1CE43
102
{ACAD_REACTORS
330
1CE32
102
}
330
1CE32
100
AcDbScale
 70
     0
300
100:1
140
100.0
141
1.0
290
     0
  0
ACDBSECTIONVIEWSTYLE
  5
1CE47
102
{ACAD_XDICTIONARY
360
1CE74
102
}
102
{ACAD_REACTORS
330
1CE46
102
}
330
1CE46
100
AcDbModelDocViewStyle
 70
     0
  3
Metric50
290
     0
100
AcDbSectionViewStyle
 70
     0
 71
     0
 90
      102
 71
     1
340
7475
 40
5.0
340
0
340
0
 40
5.0
300
I, O, Q, S, X, Z
 40
10.0
 90
        0
 40
2.5
 90
        0
 71
     2
340
7479
 90
       25
340
7479
 90
       50
 40
5.0
 40
2.5
 40
5.0
 71
     3
340
7475
 40
5.0
 90
        0
 40
15.0
 90
        1
300
%<\AcVar ViewSectionStartId>%-%<\AcVar ViewSectionEndId>% (%<\AcVar ViewScale \f "%sn">%)
 71
     4
300
ANSI31
 40
1.0
 90
        0
290
     0
290
     0
 90
        6
 40
0.0
 40
1.570796326794896
 40
0.2617993877991494
 40
1.308996938995747
 40
-0.2617993877991494
 40
1.832595714594046
  0
TABLESTYLE
  5
1CE31
102
{ACAD_XDICTIONARY
360
1CEBC
102
}
102
{ACAD_REACTORS
330
1CE30
102
}
330
1CE30
100
AcDbTableStyle
  3
Standard
 70
     0
 71
     0
 40
1.5
 41
1.5
280
     0
281
     0
  7
STANDARD
140
4.5
170
     2
 62
     0
 63
     7
283
     0
274
    -2
284
     1
 64
     0
275
    -2
285
     1
 65
     0
276
    -2
286
     1
 66
     0
277
    -2
287
     1
 67
     0
278
    -2
288
     1
 68
     0
279
    -2
289
     1
 69
     0
  7
STANDARD
140
6.0
170
     5
 62
     0
 63
     7
283
     0
274
    -2
284
     1
 64
     0
275
    -2
285
     1
 65
     0
276
    -2
286
     1
 66
     0
277
    -2
287
     1
 67
     0
278
    -2
288
     1
 68
     0
279
    -2
289
     1
 69
     0
  7
STANDARD
140
4.5
170
     5
 62
     0
 63
     7
283
     0
274
    -2
284
     1
 64
     0
275
    -2
285
     1
 65
     0
276
    -2
286
     1
 66
     0
277
    -2
287
     1
 67
     0
278
    -2
288
     1
 68
     0
279
    -2
289
     1
 69
     0
  0
VISUALSTYLE
  5
1CE1D
102
{ACAD_XDICTIONARY
360
1CEDB
102
}
102
{ACAD_REACTORS
330
1CE17
102
}
330
1CE17
100
AcDbVisualStyle
  2
2dWireframe
 70
     4
 71
     0
 72
     2
 73
     0
 90
        0
 40
-0.6
 41
-30.0
 62
     5
 63
     7
 74
     1
 91
        4
 64
     7
 65
   257
 75
     1
175
     1
 42
1.0
 92
        0
 66
   257
 43
1.0
 76
     1
 77
     6
 78
     2
 67
     7
 79
     5
170
     0
171
     0
290
     0
174
     0
 93
        1
 44
0.0
173
     0
291
     0
 45
0.0
1001
ACAD
1000
AcDbSavedByObjectVersion
1070
     0
  0
VISUALSTYLE
  5
1CE1C
102
{ACAD_XDICTIONARY
360
1CED9
102
}
102
{ACAD_REACTORS
330
1CE17
102
}
330
1CE17
100
AcDbVisualStyle
  2
Basic
 70
     7
 71
     1
 72
     0
 73
     1
 90
        0
 40
-0.6
 41
-30.0
 62
     5
 63
     7
 74
     0
 91
        4
 64
     7
 65
   257
 75
     1
175
     1
 42
1.0
 92
        8
 66
     7
 43
1.0
 76
     1
 77
     6
 78
     2
 67
     7
 79
     5
170
     0
171
     0
290
     0
174
     0
 93
        1
 44
0.0
173
     0
291
     1
 45
0.0
1001
ACAD
1000
AcDbSavedByObjectVersion
1070
     0
  0
VISUALSTYLE
  5
1CE23
102
{ACAD_XDICTIONARY
360
1CEE7
102
}
102
{ACAD_REACTORS
330
1CE17
102
}
330
1CE17
100
AcDbVisualStyle
  2
Brighten
 70
    12
 71
     2
 72
     2
 73
     0
 90
        0
 40
-0.6
 41
-30.0
 62
     5
 63
     7
 74
     1
 91
        4
 64
     7
 65
   257
 75
     1
175
     1
 42
1.0
 92
        8
 66
     7
 43
1.0
 76
     1
 77
     6
 78
     2
 67
     7
 79
     5
170
     0
171
     0
290
     0
174
     0
 93
        1
 44
50.0
173
     0
291
     1
 45
0.0
1001
ACAD
1000
AcDbSavedByObjectVersion
1070
     0
  0
VISUALSTYLE
  5
1CE27
102
{ACAD_XDICTIONARY
360
1CEEF
102
}
102
{ACAD_REACTORS
330
1CE17
102
}
330
1CE17
100
AcDbVisualStyle
  2
ColorChange
 70
    16
 71
     2
 72
     2
 73
     3
 90
        0
 40
-0.6
 41
-30.0
 62
     5
 63
     8
 74
     1
 91
        4
 64
     7
 65
   257
 75
     1
175
     1
 42
1.0
 92
        8
 66
     8
 43
1.0
 76
     1
 77
     6
 78
     2
 67
     7
 79
     5
170
     0
171
     0
290
     0
174
     0
 93
        1
 44
0.0
173
     0
291
     1
 45
0.0
1001
ACAD
1000
AcDbSavedByObjectVersion
1070
     0
  0
VISUALSTYLE
  5
1CE20
102
{ACAD_XDICTIONARY
360
1CEE1
102
}
102
{ACAD_REACTORS
330
1CE17
102
}
330
1CE17
100
AcDbVisualStyle
  2
Conceptual
 70
     9
 71
     3
 72
     2
 73
     0
 90
        0
 40
-0.6
 41
-30.0
 62
     5
 63
     7
 74
     2
 91
        2
 64
     7
 65
   257
 75
     1
175
     1
 42
179.0
 92
        8
 66
     7
 43
1.0
 76
     1
 77
     6
 78
     2
 67
     7
 79
     3
170
     0
171
     0
290
     0
174
     0
 93
        1
 44
0.0
173
     0
291
     0
 45
0.0
1001
ACAD
1000
AcDbSavedByObjectVersion
1070
     0
  0
VISUALSTYLE
  5
1CE22
102
{ACAD_XDICTIONARY
360
1CEE5
102
}
102
{ACAD_REACTORS
330
1CE17
102
}
330
1CE17
100
AcDbVisualStyle
  2
Dim
 70
    11
 71
     2
 72
     2
 73
     0
 90
        0
 40
-0.6
 41
-30.0
 62
     5
 63
     7
 74
     1
 91
        4
 64
     7
 65
   257
 75
     1
175
     1
 42
1.0
 92
        8
 66
     7
 43
1.0
 76
     1
 77
     6
 78
     2
 67
     7
 79
     5
170
     0
171
     0
290
     0
174
     0
 93
        1
 44
-50.0
173
     0
291
     1
 45
0.0
1001
ACAD
1000
AcDbSavedByObjectVersion
1070
     0
  0
VISUALSTYLE
  5
1CE2F
102
{ACAD_XDICTIONARY
360
1CEFF
102
}
102
{ACAD_REACTORS
330
1CE17
102
}
330
1CE17
100
AcDbVisualStyle
  2
EdgeColorOff
 70
    22
 71
     2
 72
     2
 73
     0
 90
        0
 40
-0.6
 41
-30.0
 62
     5
 63
     7
 74
     1
 91
        4
 64
     7
 65
   257
 75
     1
175
     1
 42
1.0
 92
        8
 66
     7
 43
1.0
 76
     1
 77
     6
 78
     2
 67
     7
 79
     5
170
     0
171
     0
290
     0
174
     0
 93
        1
 44
0.0
173
     0
291
     1
 45
0.0
1001
ACAD
1000
AcDbSavedByObjectVersion
1070
     0
  0
VISUALSTYLE
  5
1CE26
102
{ACAD_XDICTIONARY
360
1CEED
102
}
102
{ACAD_REACTORS
330
1CE17
102
}
330
1CE17
100
AcDbVisualStyle
  2
Facepattern
 70
    15
 71
     2
 72
     2
 73
     0
 90
        0
 40
-0.6
 41
-30.0
 62
     5
 63
     7
 74
     1
 91
        4
 64
     7
 65
   257
 75
     1
175
     1
 42
1.0
 92
        8
 66
     7
 43
1.0
 76
     1
 77
     6
 78
     2
 67
     7
 79
     5
170
     0
171
     0
290
     0
174
     0
 93
        1
 44
0.0
173
     0
291
     1
 45
0.0
1001
ACAD
1000
AcDbSavedByObjectVersion
1070
     0
  0
VISUALSTYLE
  5
1CE18
102
{ACAD_XDICTIONARY
360
1CED1
102
}
102
{ACAD_REACTORS
330
1CE17
102
}
330
1CE17
100
AcDbVisualStyle
  2
Flat
 70
     0
 71
     2
 72
     1
 73
     1
 90
        2
 40
-0.6
 41
30.0
 62
     5
 63
     7
 74
     0
 91
        0
 64
     7
 65
   257
 75
     1
175
     1
 42
1.0
 92
        8
 66
     7
 43
1.0
 76
     1
 77
     6
 78
     2
 67
     7
 79
     5
170
     0
171
     0
290
     0
174
     0
 93
       13
 44
0.0
173
     0
291
     1
 45
0.0
1001
ACAD
1000
AcDbSavedByObjectVersion
1070
     0
  0
VISUALSTYLE
  5
1CE19
102
{ACAD_XDICTIONARY
360
1CED3
102
}
102
{ACAD_REACTORS
330
1CE17
102
}
330
1CE17
100
AcDbVisualStyle
  2
FlatWithEdges
 70
     1
 71
     2
 72
     1
 73
     1
 90
        2
 40
-0.6
 41
30.0
 62
     5
 63
     7
 74
     1
 91
        0
 64
     7
 65
   257
 75
     1
175
     1
 42
1.0
 92
        0
 66
   257
 43
1.0
 76
     1
 77
     6
 78
     2
 67
     7
 79
     5
170
     0
171
     0
290
     0
174
     0
 93
       13
 44
0.0
173
     0
291
     1
 45
0.0
1001
ACAD
1000
AcDbSavedByObjectVersion
1070
     0
  0
VISUALSTYLE
  5
1CE1A
102
{ACAD_XDICTIONARY
360
1CED5
102
}
102
{ACAD_REACTORS
330
1CE17
102
}
330
1CE17
100
AcDbVisualStyle
  2
Gouraud
 70
     2
 71
     2
 72
     2
 73
     1
 90
        2
 40
-0.6
 41
30.0
 62
     5
 63
     7
 74
     0
 91
        0
 64
     7
 65
   257
 75
     1
175
     1
 42
1.0
 92
        0
 66
     7
 43
1.0
 76
     1
 77
     6
 78
     2
 67
     7
 79
     5
170
     0
171
     0
290
     0
174
     0
 93
       13
 44
0.0
173
     0
291
     1
 45
0.0
1001
ACAD
1000
AcDbSavedByObjectVersion
1070
     0
  0
VISUALSTYLE
  5
1CE1B
102
{ACAD_XDICTIONARY
360
1CED7
102
}
102
{ACAD_REACTORS
330
1CE17
102
}
330
1CE17
100
AcDbVisualStyle
  2
GouraudWithEdges
 70
     3
 71
     2
 72
     2
 73
     1
 90
        2
 40
-0.6
 41
30.0
 62
     5
 63
     7
 74
     1
 91
        0
 64
     7
 65
   257
 75
     1
175
     1
 42
1.0
 92
        0
 66
   257
 43
1.0
 76
     1
 77
     6
 78
     2
 67
     7
 79
     5
170
     0
171
     0
290
     0
174
     0
 93
       13
 44
0.0
173
     0
291
     1
 45
0.0
1001
ACAD
1000
AcDbSavedByObjectVersion
1070
     0
  0
VISUALSTYLE
  5
1CE1F
102
{ACAD_XDICTIONARY
360
1CEDF
102
}
102
{ACAD_REACTORS
330
1CE17
102
}
330
1CE17
100
AcDbVisualStyle
  2
Hidden
 70
     6
 71
     1
 72
     2
 73
     2
 90
        0
 40
-0.6
 41
-30.0
 62
     5
 63
     7
 74
     2
 91
        2
 64
     7
 65
   257
 75
     2
175
     1
 42
40.0
 92
        0
 66
   257
 43
1.0
 76
     1
 77
     6
 78
     2
 67
     7
 79
     3
170
     0
171
     0
290
     0
174
     0
 93
        1
 44
0.0
173
     0
291
     0
 45
0.0
1001
ACAD
1000
AcDbSavedByObjectVersion
1070
     0
  0
VISUALSTYLE
  5
1CE2D
102
{ACAD_XDICTIONARY
360
1CEFB
102
}
102
{ACAD_REACTORS
330
1CE17
102
}
330
1CE17
100
AcDbVisualStyle
  2
JitterOff
 70
    20
 71
     2
 72
     2
 73
     0
 90
        0
 40
-0.6
 41
-30.0
 62
     5
 63
     7
 74
     1
 91
        4
 64
     7
 65
   257
 75
     1
175
     1
 42
1.0
 92
       10
 66
     7
 43
1.0
 76
     1
 77
     6
 78
     2
 67
     7
 79
     5
170
     0
171
     0
290
     0
174
     0
 93
        1
 44
0.0
173
     0
291
     1
 45
0.0
1001
ACAD
1000
AcDbSavedByObjectVersion
1070
     0
  0
VISUALSTYLE
  5
1CE25
102
{ACAD_XDICTIONARY
360
1CEEB
102
}
102
{ACAD_REACTORS
330
1CE17
102
}
330
1CE17
100
AcDbVisualStyle
  2
Linepattern
 70
    14
 71
     2
 72
     2
 73
     0
 90
        0
 40
-0.6
 41
-30.0
 62
     5
 63
     7
 74
     1
 91
        4
 64
     7
 65
   257
 75
     7
175
     7
 42
1.0
 92
        8
 66
     7
 43
1.0
 76
     1
 77
     6
 78
     2
 67
     7
 79
     5
170
     0
171
     0
290
     0
174
     0
 93
        1
 44
0.0
173
     0
291
     1
 45
0.0
1001
ACAD
1000
AcDbSavedByObjectVersion
1070
     0
  0
VISUALSTYLE
  5
1CE2E
102
{ACAD_XDICTIONARY
360
1CEFD
102
}
102
{ACAD_REACTORS
330
1CE17
102
}
330
1CE17
100
AcDbVisualStyle
  2
OverhangOff
 70
    21
 71
     2
 72
     2
 73
     0
 90
        0
 40
-0.6
 41
-30.0
 62
     5
 63
     7
 74
     1
 91
        4
 64
     7
 65
   257
 75
     1
175
     1
 42
1.0
 92
        9
 66
     7
 43
1.0
 76
     1
 77
     6
 78
     2
 67
     7
 79
     5
170
     0
171
     0
290
     0
174
     0
 93
        1
 44
0.0
173
     0
291
     1
 45
0.0
1001
ACAD
1000
AcDbSavedByObjectVersion
1070
     0
  0
VISUALSTYLE
  5
1CE21
102
{ACAD_XDICTIONARY
360
1CEE3
102
}
102
{ACAD_REACTORS
330
1CE17
102
}
330
1CE17
100
AcDbVisualStyle
  2
Realistic
 70
     8
 71
     2
 72
     3
 73
     0
 90
        2
 40
-0.6
 41
30.0
 62
     5
 63
     7
 74
     0
 91
        0
 64
     7
 65
   257
 75
     1
175
     1
 42
1.0
 92
        8
 66
   257
 43
1.0
 76
     1
 77
     6
 78
     2
 67
     7
 79
     3
170
     0
171
     0
290
     0
174
     0
 93
       13
 44
0.0
173
     0
291
     0
 45
0.0
1001
ACAD
1000
AcDbSavedByObjectVersion
1070
     0
  0
VISUALSTYLE
  5
1CE2C
102
{ACAD_XDICTIONARY
360
1CEF9
102
}
102
{ACAD_REACTORS
330
1CE17
102
}
330
1CE17
100
AcDbVisualStyle
  2
Shaded
 70
    27
 71
     2
 72
     2
 73
     1
 90
        2
 40
-0.6
 41
30.0
 62
     5
 63
     7
 74
     0
 91
        4
 64
     7
 65
   257
 75
     1
175
     1
 42
1.0
 92
        8
 66
   257
 43
1.0
 76
     1
 77
     6
 78
     2
 67
     8
 79
     3
170
     0
171
     0
290
     0
174
     0
 93
        5
 44
0.0
173
     0
291
     0
 45
0.0
1001
ACAD
1000
AcDbSavedByObjectVersion
1070
     0
  0
VISUALSTYLE
  5
1CE2B
102
{ACAD_XDICTIONARY
360
1CEF7
102
}
102
{ACAD_REACTORS
330
1CE17
102
}
330
1CE17
100
AcDbVisualStyle
  2
Shaded with edges
 70
    26
 71
     2
 72
     2
 73
     1
 90
        2
 40
-0.6
 41
30.0
 62
     5
 63
     7
 74
     1
 91
       10
 64
     7
 65
   257
 75
     2
175
     1
 42
1.0
 92
        8
 66
   257
 43
1.0
 76
     1
 77
     6
 78
     2
 67
     7
 79
     3
170
     0
171
     0
290
     0
174
     0
 93
        5
 44
0.0
173
     0
291
     0
 45
0.0
1001
ACAD
1000
AcDbSavedByObjectVersion
1070
     0
  0
VISUALSTYLE
  5
1CE28
102
{ACAD_XDICTIONARY
360
1CEF1
102
}
102
{ACAD_REACTORS
330
1CE17
102
}
330
1CE17
100
AcDbVisualStyle
  2
Shades of Gray
 70
    23
 71
     2
 72
     2
 73
     3
 90
        0
 40
-0.6
 41
-30.0
 62
     5
 63
     7
 74
     2
 91
        2
 64
     7
 65
     7
 75
     1
175
     1
 42
40.0
 92
        8
 66
     7
 43
1.0
 76
     1
 77
     6
 78
     2
 67
     7
 79
     3
170
     0
171
     0
290
     0
174
     0
 93
        1
 44
0.0
173
     0
291
     0
 45
0.0
1001
ACAD
1000
AcDbSavedByObjectVersion
1070
     0
  0
VISUALSTYLE
  5
1CE29
102
{ACAD_XDICTIONARY
360
1CEF3
102
}
102
{ACAD_REACTORS
330
1CE17
102
}
330
1CE17
100
AcDbVisualStyle
  2
Sketchy
 70
    24
 71
     1
 72
     2
 73
     2
 90
        0
 40
-0.6
 41
-30.0
 62
     5
 63
     7
 74
     2
 91
        2
 64
     7
 65
     7
 75
     1
175
     1
 42
40.0
 92
       11
 66
     7
 43
1.0
 76
     1
 77
     6
 78
     2
 67
     7
 79
     6
170
     0
171
     0
290
     0
174
     0
 93
        1
 44
0.0
173
     0
291
     0
 45
0.0
1001
ACAD
1000
AcDbSavedByObjectVersion
1070
     0
  0
VISUALSTYLE
  5
1CE24
102
{ACAD_XDICTIONARY
360
1CEE9
102
}
102
{ACAD_REACTORS
330
1CE17
102
}
330
1CE17
100
AcDbVisualStyle
  2
Thicken
 70
    13
 71
     2
 72
     2
 73
     0
 90
        0
 40
-0.6
 41
-30.0
 62
     5
 63
     7
 74
     1
 91
        4
 64
     7
 65
   257
 75
     1
175
     1
 42
1.0
 92
       12
 66
     7
 43
1.0
 76
     1
 77
     6
 78
     2
 67
     7
 79
     5
170
     0
171
     0
290
     0
174
     0
 93
        1
 44
0.0
173
     0
291
     1
 45
0.0
1001
ACAD
1000
AcDbSavedByObjectVersion
1070
     0
  0
VISUALSTYLE
  5
1CE1E
102
{ACAD_XDICTIONARY
360
1CEDD
102
}
102
{ACAD_REACTORS
330
1CE17
102
}
330
1CE17
100
AcDbVisualStyle
  2
Wireframe
 70
     5
 71
     0
 72
     2
 73
     0
 90
        0
 40
-0.6
 41
-30.0
 62
     5
 63
     7
 74
     1
 91
        4
 64
     7
 65
   257
 75
     1
175
     1
 42
1.0
 92
        0
 66
   257
 43
1.0
 76
     1
 77
     6
 78
     2
 67
     7
 79
     3
170
     0
171
     0
290
     0
174
     0
 93
        1
 44
0.0
173
     0
291
     0
 45
0.0
1001
ACAD
1000
AcDbSavedByObjectVersion
1070
     0
  0
VISUALSTYLE
  5
1CE2A
102
{ACAD_XDICTIONARY
360
1CEF5
102
}
102
{ACAD_REACTORS
330
1CE17
102
}
330
1CE17
100
AcDbVisualStyle
  2
X-Ray
 70
    25
 71
     2
 72
     2
 73
     1
 90
        1
 40
0.5
 41
-30.0
 62
     5
 63
     7
 74
     1
 91
        0
 64
     7
 65
   257
 75
     1
175
     1
 42
1.0
 92
        8
 66
     7
 43
1.0
 76
     1
 77
     6
 78
     2
 67
     7
 79
     3
170
     0
171
     0
290
     0
174
     0
 93
       13
 44
0.0
173
     0
291
     0
 45
0.0
1001
ACAD
1000
AcDbSavedByObjectVersion
1070
     0
  0
DICTIONARYVAR
  5
1CE7E
102
{ACAD_REACTORS
330
1152B
102
}
330
1152B
100
DictionaryVariables
280
     0
  1
1:1
  0
DICTIONARYVAR
  5
1CE7A
102
{ACAD_REACTORS
330
1152B
102
}
330
1152B
100
DictionaryVariables
280
     0
  1
STANDARD
  0
DICTIONARYVAR
  5
1CE79
102
{ACAD_REACTORS
330
1152B
102
}
330
1152B
100
DictionaryVariables
280
     0
  1
STANDARD
  0
DICTIONARYVAR
  5
1CE7B
102
{ACAD_REACTORS
330
1152B
102
}
330
1152B
100
DictionaryVariables
280
     0
  1
Metric50
  0
DICTIONARYVAR
  5
1CE7C
102
{ACAD_REACTORS
330
1152B
102
}
330
1152B
100
DictionaryVariables
280
     0
  1
Metric50
  0
DICTIONARYVAR
  5
1CDF0
102
{ACAD_REACTORS
330
1152B
102
}
330
1152B
100
DictionaryVariables
280
     0
  1
1
  0
DICTIONARYVAR
  5
1CEBA
102
{ACAD_REACTORS
330
1152B
102
}
330
1152B
100
DictionaryVariables
280
     0
  1
0
  0
DICTIONARYVAR
  5
1CE80
102
{ACAD_REACTORS
330
1152B
102
}
330
1152B
100
DictionaryVariables
280
     0
  1
1
  0
DICTIONARYVAR
  5
1CE81
102
{ACAD_REACTORS
330
1152B
102
}
330
1152B
100
DictionaryVariables
280
     0
  1
15
  0
DICTIONARYVAR
  5
1CE7F
102
{ACAD_REACTORS
330
1152B
102
}
330
1152B
100
DictionaryVariables
280
     0
  1
0
  0
DICTIONARYVAR
  5
1CE7D
102
{ACAD_REACTORS
330
1152B
102
}
330
1152B
100
DictionaryVariables
280
     0
  1
0
  0
DICTIONARYVAR
  5
1CDF1
102
{ACAD_REACTORS
330
1152B
102
}
330
1152B
100
DictionaryVariables
280
     0
  1

  0
DICTIONARYVAR
  5
1152C
102
{ACAD_REACTORS
330
1152B
102
}
330
1152B
100
DictionaryVariables
280
     0
  1
96
  0
DICTIONARYVAR
  5
1CEBB
102
{ACAD_REACTORS
330
1152B
102
}
330
1152B
100
DictionaryVariables
280
     0
  1
2
  0
DICTIONARY
  5
1CEC7
102
{ACAD_REACTORS
330
1CEC5
102
}
330
1CEC5
100
AcDbDictionary
281
     1
  0
DICTIONARY
  5
1CEC6
102
{ACAD_REACTORS
330
1CEC5
102
}
330
1CEC5
100
AcDbDictionary
281
     1
  3
140687019787392
350
1CEC0
  3
140687019787408
350
1CEC1
  3
140687019787424
350
1CEC2
  3
140687019787440
350
1CEC3
  3
140687019787456
350
1CEC4
  0
DICTIONARY
  5
1CE76
330
1CE49
100
AcDbDictionary
280
     1
281
     1
  3
ACAD_XREC_ROUNDTRIP
360
1CF04
  0
DICTIONARY
  5
1CECA
330
1BC0C
100
AcDbDictionary
280
     1
281
     1
  3
ACAD_XREC_ROUNDTRIP
360
1CECB
  0
DICTIONARY
  5
1CECC
330
1BC0D
100
AcDbDictionary
280
     1
281
     1
  3
ACAD_XREC_ROUNDTRIP
360
1CECD
  0
DICTIONARY
  5
1CE08
330
1CE07
100
AcDbDictionary
280
     1
281
     1
  3
ACAD_XREC_ROUNDTRIP
360
1CECF
  3
BUMPTILE
360
1CE0A
  3
DIFFUSETILE
360
1CE09
  3
OPACITYTILE
360
1CE0D
  3
REFLECTIONTILE
360
1CE0C
  3
REFRACTIONTILE
360
1CE0E
  3
SPECULARTILE
360
1CE0B
  0
DICTIONARY
  5
1CE00
330
1CDFF
100
AcDbDictionary
280
     1
281
     1
  3
ACAD_XREC_ROUNDTRIP
360
1CECE
  3
BUMPTILE
360
1CE02
  3
DIFFUSETILE
360
1CE01
  3
OPACITYTILE
360
1CE05
  3
REFLECTIONTILE
360
1CE04
  3
REFRACTIONTILE
360
1CE06
  3
SPECULARTILE
360
1CE03
  0
DICTIONARY
  5
1CE10
330
1CE0F
100
AcDbDictionary
280
     1
281
     1
  3
ACAD_XREC_ROUNDTRIP
360
1CED0
  3
BUMPTILE
360
1CE12
  3
DIFFUSETILE
360
1CE11
  3
OPACITYTILE
360
1CE15
  3
REFLECTIONTILE
360
1CE14
  3
REFRACTIONTILE
360
1CE16
  3
SPECULARTILE
360
1CE13
  0
DICTIONARY
  5
1CE74
330
1CE47
100
AcDbDictionary
280
     1
281
     1
  3
ACAD_XREC_ROUNDTRIP
360
1CF03
  0
DICTIONARY
  5
1CEBC
330
1CE31
100
AcDbDictionary
280
     1
281
     1
  3
ACAD_ROUNDTRIP_2008_TABLESTYLE_CELLSTYLEMAP
360
1CEBD
  3
ACAD_XREC_ROUNDTRIP
360
1CF01
  0
DICTIONARY
  5
1CEDB
330
1CE1D
100
AcDbDictionary
280
     1
281
     1
  3
ACAD_XREC_ROUNDTRIP
360
1CEDC
  0
DICTIONARY
  5
1CED9
330
1CE1C
100
AcDbDictionary
280
     1
281
     1
  3
ACAD_XREC_ROUNDTRIP
360
1CEDA
  0
DICTIONARY
  5
1CEE7
330
1CE23
100
AcDbDictionary
280
     1
281
     1
  3
ACAD_XREC_ROUNDTRIP
360
1CEE8
  0
DICTIONARY
  5
1CEEF
330
1CE27
100
AcDbDictionary
280
     1
281
     1
  3
ACAD_XREC_ROUNDTRIP
360
1CEF0
  0
DICTIONARY
  5
1CEE1
330
1CE20
100
AcDbDictionary
280
     1
281
     1
  3
ACAD_XREC_ROUNDTRIP
360
1CEE2
  0
DICTIONARY
  5
1CEE5
330
1CE22
100
AcDbDictionary
280
     1
281
     1
  3
ACAD_XREC_ROUNDTRIP
360
1CEE6
  0
DICTIONARY
  5
1CEFF
330
1CE2F
100
AcDbDictionary
280
     1
281
     1
  3
ACAD_XREC_ROUNDTRIP
360
1CF00
  0
DICTIONARY
  5
1CEED
330
1CE26
100
AcDbDictionary
280
     1
281
     1
  3
ACAD_XREC_ROUNDTRIP
360
1CEEE
  0
DICTIONARY
  5
1CED1
330
1CE18
100
AcDbDictionary
280
     1
281
     1
  3
ACAD_XREC_ROUNDTRIP
360
1CED2
  0
DICTIONARY
  5
1CED3
330
1CE19
100
AcDbDictionary
280
     1
281
     1
  3
ACAD_XREC_ROUNDTRIP
360
1CED4
  0
DICTIONARY
  5
1CED5
330
1CE1A
100
AcDbDictionary
280
     1
281
     1
  3
ACAD_XREC_ROUNDTRIP
360
1CED6
  0
DICTIONARY
  5
1CED7
330
1CE1B
100
AcDbDictionary
280
     1
281
     1
  3
ACAD_XREC_ROUNDTRIP
360
1CED8
  0
DICTIONARY
  5
1CEDF
330
1CE1F
100
AcDbDictionary
280
     1
281
     1
  3
ACAD_XREC_ROUNDTRIP
360
1CEE0
  0
DICTIONARY
  5
1CEFB
330
1CE2D
100
AcDbDictionary
280
     1
281
     1
  3
ACAD_XREC_ROUNDTRIP
360
1CEFC
  0
DICTIONARY
  5
1CEEB
330
1CE25
100
AcDbDictionary
280
     1
281
     1
  3
ACAD_XREC_ROUNDTRIP
360
1CEEC
  0
DICTIONARY
  5
1CEFD
330
1CE2E
100
AcDbDictionary
280
     1
281
     1
  3
ACAD_XREC_ROUNDTRIP
360
1CEFE
  0
DICTIONARY
  5
1CEE3
330
1CE21
100
AcDbDictionary
280
     1
281
     1
  3
ACAD_XREC_ROUNDTRIP
360
1CEE4
  0
DICTIONARY
  5
1CEF9
330
1CE2C
100
AcDbDictionary
280
     1
281
     1
  3
ACAD_XREC_ROUNDTRIP
360
1CEFA
  0
DICTIONARY
  5
1CEF7
330
1CE2B
100
AcDbDictionary
280
     1
281
     1
  3
ACAD_XREC_ROUNDTRIP
360
1CEF8
  0
DICTIONARY
  5
1CEF1
330
1CE28
100
AcDbDictionary
280
     1
281
     1
  3
ACAD_XREC_ROUNDTRIP
360
1CEF2
  0
DICTIONARY
  5
1CEF3
330
1CE29
100
AcDbDictionary
280
     1
281
     1
  3
ACAD_XREC_ROUNDTRIP
360
1CEF4
  0
DICTIONARY
  5
1CEE9
330
1CE24
100
AcDbDictionary
280
     1
281
     1
  3
ACAD_XREC_ROUNDTRIP
360
1CEEA
  0
DICTIONARY
  5
1CEDD
330
1CE1E
100
AcDbDictionary
280
     1
281
     1
  3
ACAD_XREC_ROUNDTRIP
360
1CEDE
  0
DICTIONARY
  5
1CEF5
330
1CE2A
100
AcDbDictionary
280
     1
281
     1
  3
ACAD_XREC_ROUNDTRIP
360
1CEF6
  0
XRECORD
  5
1CEC0
102
{ACAD_REACTORS
330
1CEC6
102
}
330
1CEC6
100
AcDbXrecord
280
     1
  1
AcDb_Thumbnail_Schema
102
{ATTRRECORD
341
1CEC1
  2
AcDbDs::TreatedAsObjectData
280
     1
291
     1
102
ATTRRECORD}
102
{ATTRRECORD
341
1CEC2
  2
AcDbDs::Legacy
280
     1
291
     1
102
ATTRRECORD}
  2
AcDbDs::ID
280
    10
 91
        8
102
{ATTRRECORD
341
1CEC3
  2
AcDs:Indexable
280
     1
291
     1
102
ATTRRECORD}
102
{ATTRRECORD
341
1CEC4
  2
AcDbDs::HandleAttribute
280
     7
282
     1
102
ATTRRECORD}
  2
Thumbnail_Data
280
    15
 91
        0
  0
XRECORD
  5
1CEC1
102
{ACAD_REACTORS
330
1CEC6
102
}
330
1CEC6
100
AcDbXrecord
280
     1
  1
AcDbDs::TreatedAsObjectDataSchema
  2
AcDbDs::TreatedAsObjectData
280
     1
 91
        0
  0
XRECORD
  5
1CEC2
102
{ACAD_REACTORS
330
1CEC6
102
}
330
1CEC6
100
AcDbXrecord
280
     1
  1
AcDbDs::LegacySchema
  2
AcDbDs::Legacy
280
     1
 91
        0
  0
XRECORD
  5
1CEC3
102
{ACAD_REACTORS
330
1CEC6
102
}
330
1CEC6
100
AcDbXrecord
280
     1
  1
AcDbDs::IndexedPropertySchema
  2
AcDs:Indexable
280
     1
 91
        0
  0
XRECORD
  5
1CEC4
102
{ACAD_REACTORS
330
1CEC6
102
}
330
1CEC6
100
AcDbXrecord
280
     1
  1
AcDbDs::HandleAttributeSchema
  2
AcDbDs::HandleAttribute
280
     7
 91
        1
284
     1
  0
XRECORD
  5
1CF04
102
{ACAD_REACTORS
330
1CE76
102
}
330
1CE76
100
AcDbXrecord
280
     1
102
DISPLAYNAME
  1
Metric50
102
FLAGS
 90
        0
  0
XRECORD
  5
1CECB
102
{ACAD_REACTORS
330
1CECA
102
}
330
1CECA
100
AcDbXrecord
280
     1
102
SHADEPLOT
 70
     1
102
SHADEPLOTRESLEVEL
 70
     2
102
SHADEPLOTCUSTOMDPI
 70
   300
  0
XRECORD
  5
1CECD
102
{ACAD_REACTORS
330
1CECC
102
}
330
1CECC
100
AcDbXrecord
280
     1
102
SHADEPLOT
 70
     0
102
SHADEPLOTRESLEVEL
 70
     2
102
SHADEPLOTCUSTOMDPI
 70
   300
  0
XRECORD
  5
1CECF
102
{ACAD_REACTORS
330
1CE08
102
}
330
1CE08
100
AcDbXrecord
280
     1
102
MATERIAL
148
0.0
149
0.0
149
0.0
 93
        0
 94
      127
282
     0
 72
     0
 77
     0
171
     0
175
     0
179
     0
273
     0
  0
XRECORD
  5
1CE0A
102
{ACAD_REACTORS
330
1CE08
102
}
330
1CE08
100
AcDbXrecord
280
     1
270
     1
271
     1
  0
XRECORD
  5
1CE09
102
{ACAD_REACTORS
330
1CE08
102
}
330
1CE08
100
AcDbXrecord
280
     1
270
     1
271
     1
  0
XRECORD
  5
1CE0D
102
{ACAD_REACTORS
330
1CE08
102
}
330
1CE08
100
AcDbXrecord
280
     1
270
     1
271
     1
  0
XRECORD
  5
1CE0C
102
{ACAD_REACTORS
330
1CE08
102
}
330
1CE08
100
AcDbXrecord
280
     1
270
     1
271
     1
  0
XRECORD
  5
1CE0E
102
{ACAD_REACTORS
330
1CE08
102
}
330
1CE08
100
AcDbXrecord
280
     1
270
     1
271
     1
  0
XRECORD
  5
1CE0B
102
{ACAD_REACTORS
330
1CE08
102
}
330
1CE08
100
AcDbXrecord
280
     1
270
     1
271
     1
  0
XRECORD
  5
1CECE
102
{ACAD_REACTORS
330
1CE00
102
}
330
1CE00
100
AcDbXrecord
280
     1
102
MATERIAL
148
0.0
149
0.0
149
0.0
 93
        0
 94
      127
282
     0
 72
     0
 77
     0
171
     0
175
     0
179
     0
273
     0
  0
XRECORD
  5
1CE02
102
{ACAD_REACTORS
330
1CE00
102
}
330
1CE00
100
AcDbXrecord
280
     1
270
     1
271
     1
  0
XRECORD
  5
1CE01
102
{ACAD_REACTORS
330
1CE00
102
}
330
1CE00
100
AcDbXrecord
280
     1
270
     1
271
     1
  0
XRECORD
  5
1CE05
102
{ACAD_REACTORS
330
1CE00
102
}
330
1CE00
100
AcDbXrecord
280
     1
270
     1
271
     1
  0
XRECORD
  5
1CE04
102
{ACAD_REACTORS
330
1CE00
102
}
330
1CE00
100
AcDbXrecord
280
     1
270
     1
271
     1
  0
XRECORD
  5
1CE06
102
{ACAD_REACTORS
330
1CE00
102
}
330
1CE00
100
AcDbXrecord
280
     1
270
     1
271
     1
  0
XRECORD
  5
1CE03
102
{ACAD_REACTORS
330
1CE00
102
}
330
1CE00
100
AcDbXrecord
280
     1
270
     1
271
     1
  0
XRECORD
  5
1CED0
102
{ACAD_REACTORS
330
1CE10
102
}
330
1CE10
100
AcDbXrecord
280
     1
102
MATERIAL
148
0.0
149
0.0
149
0.0
 93
        0
 94
      127
282
     0
 72
     0
 77
     0
171
     0
175
     0
179
     0
273
     0
  0
XRECORD
  5
1CE12
102
{ACAD_REACTORS
330
1CE10
102
}
330
1CE10
100
AcDbXrecord
280
     1
270
     1
271
     1
  0
XRECORD
  5
1CE11
102
{ACAD_REACTORS
330
1CE10
102
}
330
1CE10
100
AcDbXrecord
280
     1
270
     1
271
     1
  0
XRECORD
  5
1CE15
102
{ACAD_REACTORS
330
1CE10
102
}
330
1CE10
100
AcDbXrecord
280
     1
270
     1
271
     1
  0
XRECORD
  5
1CE14
102
{ACAD_REACTORS
330
1CE10
102
}
330
1CE10
100
AcDbXrecord
280
     1
270
     1
271
     1
  0
XRECORD
  5
1CE16
102
{ACAD_REACTORS
330
1CE10
102
}
330
1CE10
100
AcDbXrecord
280
     1
270
     1
271
     1
  0
XRECORD
  5
1CE13
102
{ACAD_REACTORS
330
1CE10
102
}
330
1CE10
100
AcDbXrecord
280
     1
270
     1
271
     1
  0
XRECORD
  5
1CF03
102
{ACAD_REACTORS
330
1CE74
102
}
330
1CE74
100
AcDbXrecord
280
     1
102
DISPLAYNAME
  1
Metric50
102
FLAGS
 90
        0
  0
CELLSTYLEMAP
  5
1CEBD
102
{ACAD_REACTORS
330
1CEBC
102
}
330
1CEBC
100
AcDbCellStyleMap
 90
        3
300
CELLSTYLE
  1
TABLEFORMAT_BEGIN
 90
        5
170
     1
 91
        0
 92
    32768
 62
   257
 93
        1
300
CONTENTFORMAT
  1
CONTENTFORMAT_BEGIN
 90
        0
 91
        0
 92
      512
 93
        0
300

 40
0.0
140
1.0
 94
        5
 62
     0
340
7475
144
6.0
309
CONTENTFORMAT_END
171
     1
301
MARGIN
  1
CELLMARGIN_BEGIN
 40
1.5
 40
1.5
 40
1.5
 40
1.5
 40
4.5
 40
4.5
309
CELLMARGIN_END
 94
        6
 95
        1
302
GRIDFORMAT
  1
GRIDFORMAT_BEGIN
 90
        0
 91
        1
 62
     0
 92
       -2
340
0
 93
        0
 40
1.125
309
GRIDFORMAT_END
 95
        2
302
GRIDFORMAT
  1
GRIDFORMAT_BEGIN
 90
        0
 91
        1
 62
     0
 92
       -2
340
0
 93
        0
 40
1.125
309
GRIDFORMAT_END
 95
        4
302
GRIDFORMAT
  1
GRIDFORMAT_BEGIN
 90
        0
 91
        1
 62
     0
 92
       -2
340
0
 93
        0
 40
1.125
309
GRIDFORMAT_END
 95
        8
302
GRIDFORMAT
  1
GRIDFORMAT_BEGIN
 90
        0
 91
        1
 62
     0
 92
       -2
340
0
 93
        0
 40
1.125
309
GRIDFORMAT_END
 95
       16
302
GRIDFORMAT
  1
GRIDFORMAT_BEGIN
 90
        0
 91
        1
 62
     0
 92
       -2
340
0
 93
        0
 40
1.125
309
GRIDFORMAT_END
 95
       32
302
GRIDFORMAT
  1
GRIDFORMAT_BEGIN
 90
        0
 91
        1
 62
     0
 92
       -2
340
0
 93
        0
 40
1.125
309
GRIDFORMAT_END
309
TABLEFORMAT_END
  1
CELLSTYLE_BEGIN
 90
        1
 91
        1
300
_TITLE
309
CELLSTYLE_END
300
CELLSTYLE
  1
TABLEFORMAT_BEGIN
 90
        5
170
     1
 91
        0
 92
        0
 62
   257
 93
        1
300
CONTENTFORMAT
  1
CONTENTFORMAT_BEGIN
 90
        0
 91
        0
 92
      512
 93
        0
300

 40
0.0
140
1.0
 94
        5
 62
     0
340
7475
144
4.5
309
CONTENTFORMAT_END
171
     1
301
MARGIN
  1
CELLMARGIN_BEGIN
 40
1.5
 40
1.5
 40
1.5
 40
1.5
 40
4.5
 40
4.5
309
CELLMARGIN_END
 94
        6
 95
        1
302
GRIDFORMAT
  1
GRIDFORMAT_BEGIN
 90
        0
 91
        1
 62
     0
 92
       -2
340
0
 93
        0
 40
1.125
309
GRIDFORMAT_END
 95
        2
302
GRIDFORMAT
  1
GRIDFORMAT_BEGIN
 90
        0
 91
        1
 62
     0
 92
       -2
340
0
 93
        0
 40
1.125
309
GRIDFORMAT_END
 95
        4
302
GRIDFORMAT
  1
GRIDFORMAT_BEGIN
 90
        0
 91
        1
 62
     0
 92
       -2
340
0
 93
        0
 40
1.125
309
GRIDFORMAT_END
 95
        8
302
GRIDFORMAT
  1
GRIDFORMAT_BEGIN
 90
        0
 91
        1
 62
     0
 92
       -2
340
0
 93
        0
 40
1.125
309
GRIDFORMAT_END
 95
       16
302
GRIDFORMAT
  1
GRIDFORMAT_BEGIN
 90
        0
 91
        1
 62
     0
 92
       -2
340
0
 93
        0
 40
1.125
309
GRIDFORMAT_END
 95
       32
302
GRIDFORMAT
  1
GRIDFORMAT_BEGIN
 90
        0
 91
        1
 62
     0
 92
       -2
340
0
 93
        0
 40
1.125
309
GRIDFORMAT_END
309
TABLEFORMAT_END
  1
CELLSTYLE_BEGIN
 90
        2
 91
        1
300
_HEADER
309
CELLSTYLE_END
300
CELLSTYLE
  1
TABLEFORMAT_BEGIN
 90
        5
170
     1
 91
        0
 92
        0
 62
   257
 93
        1
300
CONTENTFORMAT
  1
CONTENTFORMAT_BEGIN
 90
        0
 91
        0
 92
      512
 93
        0
300

 40
0.0
140
1.0
 94
        2
 62
     0
340
7475
144
4.5
309
CONTENTFORMAT_END
171
     1
301
MARGIN
  1
CELLMARGIN_BEGIN
 40
1.5
 40
1.5
 40
1.5
 40
1.5
 40
4.5
 40
4.5
309
CELLMARGIN_END
 94
        6
 95
        1
302
GRIDFORMAT
  1
GRIDFORMAT_BEGIN
 90
        0
 91
        1
 62
     0
 92
       -2
340
0
 93
        0
 40
1.125
309
GRIDFORMAT_END
 95
        2
302
GRIDFORMAT
  1
GRIDFORMAT_BEGIN
 90
        0
 91
        1
 62
     0
 92
       -2
340
0
 93
        0
 40
1.125
309
GRIDFORMAT_END
 95
        4
302
GRIDFORMAT
  1
GRIDFORMAT_BEGIN
 90
        0
 91
        1
 62
     0
 92
       -2
340
0
 93
        0
 40
1.125
309
GRIDFORMAT_END
 95
        8
302
GRIDFORMAT
  1
GRIDFORMAT_BEGIN
 90
        0
 91
        1
 62
     0
 92
       -2
340
0
 93
        0
 40
1.125
309
GRIDFORMAT_END
 95
       16
302
GRIDFORMAT
  1
GRIDFORMAT_BEGIN
 90
        0
 91
        1
 62
     0
 92
       -2
340
0
 93
        0
 40
1.125
309
GRIDFORMAT_END
 95
       32
302
GRIDFORMAT
  1
GRIDFORMAT_BEGIN
 90
        0
 91
        1
 62
     0
 92
       -2
340
0
 93
        0
 40
1.125
309
GRIDFORMAT_END
309
TABLEFORMAT_END
  1
CELLSTYLE_BEGIN
 90
        3
 91
        2
300
_DATA
309
CELLSTYLE_END
  0
XRECORD
  5
1CF01
102
{ACAD_REACTORS
330
1CEBC
102
}
330
1CEBC
100
AcDbXrecord
280
     1
102
ACAD_ROUNDTRIP_PRE2007_TABLESTYLE
 90
      512
 91
        0
  1

 92
      512
 93
        0
  2

 94
      512
 95
        0
  3

  0
XRECORD
  5
1CEDC
102
{ACAD_REACTORS
330
1CEDB
102
}
330
1CEDB
100
AcDbXrecord
280
     1
102
RTVSPost2010Prop28
280
     1
102
RTVSPost2010PropOp28
 70
     1
102
RTVSPost2010Prop29
280
     1
102
RTVSPost2010PropOp29
 70
     1
102
RTVSPost2010Prop30
280
     0
102
RTVSPost2010PropOp30
 70
     1
102
RTVSPost2010Prop31
280
     0
102
RTVSPost2010PropOp31
 70
     1
102
RTVSPost2010Prop32
280
     0
102
RTVSPost2010PropOp32
 70
     1
102
RTVSPost2010Prop33
280
     0
102
RTVSPost2010PropOp33
 70
     1
102
RTVSPost2010Prop34
280
     0
102
RTVSPost2010PropOp34
 70
     1
102
RTVSPost2010Prop35
280
     0
102
RTVSPost2010PropOp35
 70
     1
102
RTVSPost2010Prop36
280
     0
102
RTVSPost2010PropOp36
 70
     1
102
RTVSPost2010Prop37
 90
       50
102
RTVSPost2010PropOp37
 70
     1
102
RTVSPost2010Prop38
140
0.0
102
RTVSPost2010PropOp38
 70
     1
102
RTVSPost2010Prop39
140
1.0
102
RTVSPost2010PropOp39
 70
     1
102
RTVSPost2010Prop40
 90
        0
102
RTVSPost2010PropOp40
 70
     1
102
RTVSPost2010Prop41ColorIndex
 90
       18
102
RTVSPost2010Prop41ColorRGB
 90
        0
102
RTVSPost2010PropOp41
 70
     1
102
RTVSPost2010Prop42
 90
       50
102
RTVSPost2010PropOp42
 70
     1
102
RTVSPost2010Prop43
 90
        3
102
RTVSPost2010PropOp43
 70
     1
102
RTVSPost2010Prop44ColorIndex
 90
        5
102
RTVSPost2010Prop44ColorRGB
 90
      255
102
RTVSPost2010PropOp44
 70
     1
102
RTVSPost2010Prop45
280
     0
102
RTVSPost2010PropOp45
 70
     1
102
RTVSPost2010Prop46
 90
       50
102
RTVSPost2010PropOp46
 70
     1
102
RTVSPost2010Prop47
 90
       50
102
RTVSPost2010PropOp47
 70
     1
102
RTVSPost2010Prop48
 90
       50
102
RTVSPost2010PropOp48
 70
     1
102
RTVSPost2010Prop49
280
     0
102
RTVSPost2010PropOp49
 70
     1
102
RTVSPost2010Prop50
 90
       50
102
RTVSPost2010PropOp50
 70
     1
102
RTVSPost2010Prop51ColorIndex
 90
      256
102
RTVSPost2010Prop51ColorRGB
 90
-16777216
102
RTVSPost2010PropOp51
 70
     0
102
RTVSPost2010Prop52
140
1.0
102
RTVSPost2010PropOp52
 70
     0
102
RTVSPost2010Prop53
 90
        2
102
RTVSPost2010PropOp53
 70
     1
102
RTVSPost2010Prop54
  1
strokes_ogs.tif
102
RTVSPost2010PropOp54
 70
     1
102
RTVSPost2010Prop55
280
     0
102
RTVSPost2010PropOp55
 70
     1
102
RTVSPost2010Prop56
140
1.0
102
RTVSPost2010PropOp56
 70
     1
102
RTVSPost2010Prop57
140
1.0
102
RTVSPost2010PropOp57
 70
     1
102
RTVSPropertyOp0
 70
     1
102
RTVSPropertyOp1
 70
     1
102
RTVSPropertyOp2
 70
     1
102
RTVSPropertyOp3
 70
     1
102
RTVSPropertyOp4
 70
     1
102
RTVSPropertyOp5
 70
     1
102
RTVSPropertyOp6
 70
     1
102
RTVSPropertyOp7
 70
     1
102
RTVSPropertyOp8
 70
     1
102
RTVSPropertyOp9
 70
     1
102
RTVSPropertyOp10
 70
     1
102
RTVSPropertyOp11
 70
     1
102
RTVSPropertyOp12
 70
     1
102
RTVSPropertyOp13
 70
     1
102
RTVSPropertyOp14
 70
     1
102
RTVSPropertyOp15
 70
     1
102
RTVSPropertyOp16
 70
     1
102
RTVSPropertyOp17
 70
     1
102
RTVSPropertyOp18
 70
     1
102
RTVSPropertyOp19
 70
     1
102
RTVSPropertyOp20
 70
     1
102
RTVSPropertyOp21
 70
     1
102
RTVSPropertyOp22
 70
     1
102
RTVSPropertyOp23
 70
     1
102
RTVSPropertyOp24
 70
     1
102
RTVSPropertyOp25
 70
     1
102
RTVSPropertyOp26
 70
     1
102
RTVSPropertyOp27
 70
     1
102
RTVSPropertyOp28
 70
     1
102
RTVSPropertyOp29
 70
     1
102
RTVSPropertyOp30
 70
     1
102
RTVSPropertyOp31
 70
     1
102
RTVSPropertyOp32
 70
     1
102
RTVSPropertyOp33
 70
     1
102
RTVSPropertyOp34
 70
     1
102
RTVSPropertyOp35
 70
     1
102
RTVSPropertyOp36
 70
     1
102
RTVSPropertyOp37
 70
     1
102
RTVSPropertyOp38
 70
     1
102
RTVSPropertyOp39
 70
     1
102
RTVSPropertyOp40
 70
     1
102
RTVSPropertyOp41
 70
     1
102
RTVSPropertyOp42
 70
     1
102
RTVSPropertyOp43
 70
     1
102
RTVSPropertyOp44
 70
     1
102
RTVSPropertyOp45
 70
     1
102
RTVSPropertyOp46
 70
     1
102
RTVSPropertyOp47
 70
     1
102
RTVSPropertyOp48
 70
     1
102
RTVSPropertyOp49
 70
     1
102
RTVSPropertyOp50
 70
     1
102
RTVSPropertyOp51
 70
     0
102
RTVSPropertyOp52
 70
     0
102
RTVSPropertyOp53
 70
     1
102
RTVSPropertyOp54
 70
     1
102
RTVSPropertyOp55
 70
     1
102
RTVSPropertyOp56
 70
     1
102
RTVSPropertyOp57
 70
     1
102
RTVSPropertyOp58
 70
     1
102
RTVSPropertyOp59
 70
     1
102
RTVSPropertyOp60
 70
     1
102
RTVSPropertyOp61
 70
     1
102
RTVSPropertyOp62
 70
     1
  0
XRECORD
  5
1CEDA
102
{ACAD_REACTORS
330
1CED9
102
}
330
1CED9
100
AcDbXrecord
280
     1
102
RTVSPost2010Prop28
280
     0
102
RTVSPost2010PropOp28
 70
     1
102
RTVSPost2010Prop29
280
     1
102
RTVSPost2010PropOp29
 70
     1
102
RTVSPost2010Prop30
280
     1
102
RTVSPost2010PropOp30
 70
     1
102
RTVSPost2010Prop31
280
     0
102
RTVSPost2010PropOp31
 70
     1
102
RTVSPost2010Prop32
280
     0
102
RTVSPost2010PropOp32
 70
     1
102
RTVSPost2010Prop33
280
     0
102
RTVSPost2010PropOp33
 70
     1
102
RTVSPost2010Prop34
280
     0
102
RTVSPost2010PropOp34
 70
     1
102
RTVSPost2010Prop35
280
     0
102
RTVSPost2010PropOp35
 70
     1
102
RTVSPost2010Prop36
280
     0
102
RTVSPost2010PropOp36
 70
     1
102
RTVSPost2010Prop37
 90
       50
102
RTVSPost2010PropOp37
 70
     1
102
RTVSPost2010Prop38
140
0.0
102
RTVSPost2010PropOp38
 70
     1
102
RTVSPost2010Prop39
140
1.0
102
RTVSPost2010PropOp39
 70
     1
102
RTVSPost2010Prop40
 90
        0
102
RTVSPost2010PropOp40
 70
     1
102
RTVSPost2010Prop41ColorIndex
 90
       18
102
RTVSPost2010Prop41ColorRGB
 90
        0
102
RTVSPost2010PropOp41
 70
     1
102
RTVSPost2010Prop42
 90
       50
102
RTVSPost2010PropOp42
 70
     1
102
RTVSPost2010Prop43
 90
        3
102
RTVSPost2010PropOp43
 70
     1
102
RTVSPost2010Prop44ColorIndex
 90
        5
102
RTVSPost2010Prop44ColorRGB
 90
      255
102
RTVSPost2010PropOp44
 70
     1
102
RTVSPost2010Prop45
280
     0
102
RTVSPost2010PropOp45
 70
     1
102
RTVSPost2010Prop46
 90
       50
102
RTVSPost2010PropOp46
 70
     1
102
RTVSPost2010Prop47
 90
       50
102
RTVSPost2010PropOp47
 70
     1
102
RTVSPost2010Prop48
 90
       50
102
RTVSPost2010PropOp48
 70
     1
102
RTVSPost2010Prop49
280
     0
102
RTVSPost2010PropOp49
 70
     1
102
RTVSPost2010Prop50
 90
       50
102
RTVSPost2010PropOp50
 70
     1
102
RTVSPost2010Prop51ColorIndex
 90
      256
102
RTVSPost2010Prop51ColorRGB
 90
-16777216
102
RTVSPost2010PropOp51
 70
     0
102
RTVSPost2010Prop52
140
1.0
102
RTVSPost2010PropOp52
 70
     0
102
RTVSPost2010Prop53
 90
        2
102
RTVSPost2010PropOp53
 70
     1
102
RTVSPost2010Prop54
  1
strokes_ogs.tif
102
RTVSPost2010PropOp54
 70
     1
102
RTVSPost2010Prop55
280
     0
102
RTVSPost2010PropOp55
 70
     1
102
RTVSPost2010Prop56
140
1.0
102
RTVSPost2010PropOp56
 70
     1
102
RTVSPost2010Prop57
140
1.0
102
RTVSPost2010PropOp57
 70
     1
102
RTVSPropertyOp0
 70
     1
102
RTVSPropertyOp1
 70
     1
102
RTVSPropertyOp2
 70
     1
102
RTVSPropertyOp3
 70
     1
102
RTVSPropertyOp4
 70
     1
102
RTVSPropertyOp5
 70
     1
102
RTVSPropertyOp6
 70
     1
102
RTVSPropertyOp7
 70
     1
102
RTVSPropertyOp8
 70
     1
102
RTVSPropertyOp9
 70
     1
102
RTVSPropertyOp10
 70
     1
102
RTVSPropertyOp11
 70
     1
102
RTVSPropertyOp12
 70
     1
102
RTVSPropertyOp13
 70
     1
102
RTVSPropertyOp14
 70
     1
102
RTVSPropertyOp15
 70
     1
102
RTVSPropertyOp16
 70
     1
102
RTVSPropertyOp17
 70
     1
102
RTVSPropertyOp18
 70
     1
102
RTVSPropertyOp19
 70
     1
102
RTVSPropertyOp20
 70
     1
102
RTVSPropertyOp21
 70
     1
102
RTVSPropertyOp22
 70
     1
102
RTVSPropertyOp23
 70
     1
102
RTVSPropertyOp24
 70
     1
102
RTVSPropertyOp25
 70
     1
102
RTVSPropertyOp26
 70
     1
102
RTVSPropertyOp27
 70
     1
102
RTVSPropertyOp28
 70
     1
102
RTVSPropertyOp29
 70
     1
102
RTVSPropertyOp30
 70
     1
102
RTVSPropertyOp31
 70
     1
102
RTVSPropertyOp32
 70
     1
102
RTVSPropertyOp33
 70
     1
102
RTVSPropertyOp34
 70
     1
102
RTVSPropertyOp35
 70
     1
102
RTVSPropertyOp36
 70
     1
102
RTVSPropertyOp37
 70
     1
102
RTVSPropertyOp38
 70
     1
102
RTVSPropertyOp39
 70
     1
102
RTVSPropertyOp40
 70
     1
102
RTVSPropertyOp41
 70
     1
102
RTVSPropertyOp42
 70
     1
102
RTVSPropertyOp43
 70
     1
102
RTVSPropertyOp44
 70
     1
102
RTVSPropertyOp45
 70
     1
102
RTVSPropertyOp46
 70
     1
102
RTVSPropertyOp47
 70
     1
102
RTVSPropertyOp48
 70
     1
102
RTVSPropertyOp49
 70
     1
102
RTVSPropertyOp50
 70
     1
102
RTVSPropertyOp51
 70
     0
102
RTVSPropertyOp52
 70
     0
102
RTVSPropertyOp53
 70
     1
102
RTVSPropertyOp54
 70
     1
102
RTVSPropertyOp55
 70
     1
102
RTVSPropertyOp56
 70
     1
102
RTVSPropertyOp57
 70
     1
102
RTVSPropertyOp58
 70
     1
102
RTVSPropertyOp59
 70
     1
102
RTVSPropertyOp60
 70
     1
102
RTVSPropertyOp61
 70
     1
102
RTVSPropertyOp62
 70
     1
  0
XRECORD
  5
1CEE8
102
{ACAD_REACTORS
330
1CEE7
102
}
330
1CEE7
100
AcDbXrecord
280
     1
102
RTVSPost2010Prop28
280
     0
102
RTVSPost2010PropOp28
 70
     1
102
RTVSPost2010Prop29
280
     1
102
RTVSPost2010PropOp29
 70
     1
102
RTVSPost2010Prop30
280
     1
102
RTVSPost2010PropOp30
 70
     1
102
RTVSPost2010Prop31
280
     0
102
RTVSPost2010PropOp31
 70
     1
102
RTVSPost2010Prop32
280
     0
102
RTVSPost2010PropOp32
 70
     1
102
RTVSPost2010Prop33
280
     0
102
RTVSPost2010PropOp33
 70
     1
102
RTVSPost2010Prop34
280
     0
102
RTVSPost2010PropOp34
 70
     1
102
RTVSPost2010Prop35
280
     0
102
RTVSPost2010PropOp35
 70
     1
102
RTVSPost2010Prop36
280
     0
102
RTVSPost2010PropOp36
 70
     1
102
RTVSPost2010Prop37
 90
       50
102
RTVSPost2010PropOp37
 70
     1
102
RTVSPost2010Prop38
140
0.0
102
RTVSPost2010PropOp38
 70
     1
102
RTVSPost2010Prop39
140
1.0
102
RTVSPost2010PropOp39
 70
     1
102
RTVSPost2010Prop40
 90
        0
102
RTVSPost2010PropOp40
 70
     1
102
RTVSPost2010Prop41ColorIndex
 90
       18
102
RTVSPost2010Prop41ColorRGB
 90
        0
102
RTVSPost2010PropOp41
 70
     1
102
RTVSPost2010Prop42
 90
       50
102
RTVSPost2010PropOp42
 70
     1
102
RTVSPost2010Prop43
 90
        3
102
RTVSPost2010PropOp43
 70
     1
102
RTVSPost2010Prop44ColorIndex
 90
        5
102
RTVSPost2010Prop44ColorRGB
 90
      255
102
RTVSPost2010PropOp44
 70
     1
102
RTVSPost2010Prop45
280
     0
102
RTVSPost2010PropOp45
 70
     1
102
RTVSPost2010Prop46
 90
       50
102
RTVSPost2010PropOp46
 70
     1
102
RTVSPost2010Prop47
 90
       50
102
RTVSPost2010PropOp47
 70
     1
102
RTVSPost2010Prop48
 90
       50
102
RTVSPost2010PropOp48
 70
     1
102
RTVSPost2010Prop49
280
     0
102
RTVSPost2010PropOp49
 70
     1
102
RTVSPost2010Prop50
 90
       50
102
RTVSPost2010PropOp50
 70
     1
102
RTVSPost2010Prop51ColorIndex
 90
      256
102
RTVSPost2010Prop51ColorRGB
 90
-16777216
102
RTVSPost2010PropOp51
 70
     0
102
RTVSPost2010Prop52
140
1.0
102
RTVSPost2010PropOp52
 70
     0
102
RTVSPost2010Prop53
 90
        2
102
RTVSPost2010PropOp53
 70
     1
102
RTVSPost2010Prop54
  1
strokes_ogs.tif
102
RTVSPost2010PropOp54
 70
     1
102
RTVSPost2010Prop55
280
     0
102
RTVSPost2010PropOp55
 70
     1
102
RTVSPost2010Prop56
140
1.0
102
RTVSPost2010PropOp56
 70
     1
102
RTVSPost2010Prop57
140
1.0
102
RTVSPost2010PropOp57
 70
     1
102
RTVSPropertyOp0
 70
     1
102
RTVSPropertyOp1
 70
     1
102
RTVSPropertyOp2
 70
     1
102
RTVSPropertyOp3
 70
     1
102
RTVSPropertyOp4
 70
     1
102
RTVSPropertyOp5
 70
     1
102
RTVSPropertyOp6
 70
     1
102
RTVSPropertyOp7
 70
     1
102
RTVSPropertyOp8
 70
     1
102
RTVSPropertyOp9
 70
     1
102
RTVSPropertyOp10
 70
     1
102
RTVSPropertyOp11
 70
     1
102
RTVSPropertyOp12
 70
     1
102
RTVSPropertyOp13
 70
     1
102
RTVSPropertyOp14
 70
     1
102
RTVSPropertyOp15
 70
     1
102
RTVSPropertyOp16
 70
     1
102
RTVSPropertyOp17
 70
     1
102
RTVSPropertyOp18
 70
     1
102
RTVSPropertyOp19
 70
     1
102
RTVSPropertyOp20
 70
     1
102
RTVSPropertyOp21
 70
     1
102
RTVSPropertyOp22
 70
     1
102
RTVSPropertyOp23
 70
     1
102
RTVSPropertyOp24
 70
     1
102
RTVSPropertyOp25
 70
     1
102
RTVSPropertyOp26
 70
     1
102
RTVSPropertyOp27
 70
     1
102
RTVSPropertyOp28
 70
     1
102
RTVSPropertyOp29
 70
     1
102
RTVSPropertyOp30
 70
     1
102
RTVSPropertyOp31
 70
     1
102
RTVSPropertyOp32
 70
     1
102
RTVSPropertyOp33
 70
     1
102
RTVSPropertyOp34
 70
     1
102
RTVSPropertyOp35
 70
     1
102
RTVSPropertyOp36
 70
     1
102
RTVSPropertyOp37
 70
     1
102
RTVSPropertyOp38
 70
     1
102
RTVSPropertyOp39
 70
     1
102
RTVSPropertyOp40
 70
     1
102
RTVSPropertyOp41
 70
     1
102
RTVSPropertyOp42
 70
     1
102
RTVSPropertyOp43
 70
     1
102
RTVSPropertyOp44
 70
     1
102
RTVSPropertyOp45
 70
     1
102
RTVSPropertyOp46
 70
     1
102
RTVSPropertyOp47
 70
     1
102
RTVSPropertyOp48
 70
     1
102
RTVSPropertyOp49
 70
     1
102
RTVSPropertyOp50
 70
     1
102
RTVSPropertyOp51
 70
     0
102
RTVSPropertyOp52
 70
     0
102
RTVSPropertyOp53
 70
     1
102
RTVSPropertyOp54
 70
     1
102
RTVSPropertyOp55
 70
     1
102
RTVSPropertyOp56
 70
     1
102
RTVSPropertyOp57
 70
     1
102
RTVSPropertyOp58
 70
     1
102
RTVSPropertyOp59
 70
     1
102
RTVSPropertyOp60
 70
     1
102
RTVSPropertyOp61
 70
     1
102
RTVSPropertyOp62
 70
     1
  0
XRECORD
  5
1CEF0
102
{ACAD_REACTORS
330
1CEEF
102
}
330
1CEEF
100
AcDbXrecord
280
     1
102
RTVSPost2010Prop28
280
     0
102
RTVSPost2010PropOp28
 70
     1
102
RTVSPost2010Prop29
280
     1
102
RTVSPost2010PropOp29
 70
     1
102
RTVSPost2010Prop30
280
     1
102
RTVSPost2010PropOp30
 70
     1
102
RTVSPost2010Prop31
280
     0
102
RTVSPost2010PropOp31
 70
     1
102
RTVSPost2010Prop32
280
     0
102
RTVSPost2010PropOp32
 70
     1
102
RTVSPost2010Prop33
280
     0
102
RTVSPost2010PropOp33
 70
     1
102
RTVSPost2010Prop34
280
     0
102
RTVSPost2010PropOp34
 70
     1
102
RTVSPost2010Prop35
280
     0
102
RTVSPost2010PropOp35
 70
     1
102
RTVSPost2010Prop36
280
     0
102
RTVSPost2010PropOp36
 70
     1
102
RTVSPost2010Prop37
 90
       50
102
RTVSPost2010PropOp37
 70
     1
102
RTVSPost2010Prop38
140
0.0
102
RTVSPost2010PropOp38
 70
     1
102
RTVSPost2010Prop39
140
1.0
102
RTVSPost2010PropOp39
 70
     1
102
RTVSPost2010Prop40
 90
        0
102
RTVSPost2010PropOp40
 70
     1
102
RTVSPost2010Prop41ColorIndex
 90
       18
102
RTVSPost2010Prop41ColorRGB
 90
        0
102
RTVSPost2010PropOp41
 70
     1
102
RTVSPost2010Prop42
 90
       50
102
RTVSPost2010PropOp42
 70
     1
102
RTVSPost2010Prop43
 90
        3
102
RTVSPost2010PropOp43
 70
     1
102
RTVSPost2010Prop44ColorIndex
 90
        5
102
RTVSPost2010Prop44ColorRGB
 90
      255
102
RTVSPost2010PropOp44
 70
     1
102
RTVSPost2010Prop45
280
     0
102
RTVSPost2010PropOp45
 70
     1
102
RTVSPost2010Prop46
 90
       50
102
RTVSPost2010PropOp46
 70
     1
102
RTVSPost2010Prop47
 90
       50
102
RTVSPost2010PropOp47
 70
     1
102
RTVSPost2010Prop48
 90
       50
102
RTVSPost2010PropOp48
 70
     1
102
RTVSPost2010Prop49
280
     0
102
RTVSPost2010PropOp49
 70
     1
102
RTVSPost2010Prop50
 90
       50
102
RTVSPost2010PropOp50
 70
     1
102
RTVSPost2010Prop51ColorIndex
 90
      256
102
RTVSPost2010Prop51ColorRGB
 90
-16777216
102
RTVSPost2010PropOp51
 70
     0
102
RTVSPost2010Prop52
140
1.0
102
RTVSPost2010PropOp52
 70
     0
102
RTVSPost2010Prop53
 90
        2
102
RTVSPost2010PropOp53
 70
     1
102
RTVSPost2010Prop54
  1
strokes_ogs.tif
102
RTVSPost2010PropOp54
 70
     1
102
RTVSPost2010Prop55
280
     0
102
RTVSPost2010PropOp55
 70
     1
102
RTVSPost2010Prop56
140
1.0
102
RTVSPost2010PropOp56
 70
     1
102
RTVSPost2010Prop57
140
1.0
102
RTVSPost2010PropOp57
 70
     1
102
RTVSPropertyOp0
 70
     1
102
RTVSPropertyOp1
 70
     1
102
RTVSPropertyOp2
 70
     1
102
RTVSPropertyOp3
 70
     1
102
RTVSPropertyOp4
 70
     1
102
RTVSPropertyOp5
 70
     1
102
RTVSPropertyOp6
 70
     1
102
RTVSPropertyOp7
 70
     1
102
RTVSPropertyOp8
 70
     1
102
RTVSPropertyOp9
 70
     1
102
RTVSPropertyOp10
 70
     1
102
RTVSPropertyOp11
 70
     1
102
RTVSPropertyOp12
 70
     1
102
RTVSPropertyOp13
 70
     1
102
RTVSPropertyOp14
 70
     1
102
RTVSPropertyOp15
 70
     1
102
RTVSPropertyOp16
 70
     1
102
RTVSPropertyOp17
 70
     1
102
RTVSPropertyOp18
 70
     1
102
RTVSPropertyOp19
 70
     1
102
RTVSPropertyOp20
 70
     1
102
RTVSPropertyOp21
 70
     1
102
RTVSPropertyOp22
 70
     1
102
RTVSPropertyOp23
 70
     1
102
RTVSPropertyOp24
 70
     1
102
RTVSPropertyOp25
 70
     1
102
RTVSPropertyOp26
 70
     1
102
RTVSPropertyOp27
 70
     1
102
RTVSPropertyOp28
 70
     1
102
RTVSPropertyOp29
 70
     1
102
RTVSPropertyOp30
 70
     1
102
RTVSPropertyOp31
 70
     1
102
RTVSPropertyOp32
 70
     1
102
RTVSPropertyOp33
 70
     1
102
RTVSPropertyOp34
 70
     1
102
RTVSPropertyOp35
 70
     1
102
RTVSPropertyOp36
 70
     1
102
RTVSPropertyOp37
 70
     1
102
RTVSPropertyOp38
 70
     1
102
RTVSPropertyOp39
 70
     1
102
RTVSPropertyOp40
 70
     1
102
RTVSPropertyOp41
 70
     1
102
RTVSPropertyOp42
 70
     1
102
RTVSPropertyOp43
 70
     1
102
RTVSPropertyOp44
 70
     1
102
RTVSPropertyOp45
 70
     1
102
RTVSPropertyOp46
 70
     1
102
RTVSPropertyOp47
 70
     1
102
RTVSPropertyOp48
 70
     1
102
RTVSPropertyOp49
 70
     1
102
RTVSPropertyOp50
 70
     1
102
RTVSPropertyOp51
 70
     0
102
RTVSPropertyOp52
 70
     0
102
RTVSPropertyOp53
 70
     1
102
RTVSPropertyOp54
 70
     1
102
RTVSPropertyOp55
 70
     1
102
RTVSPropertyOp56
 70
     1
102
RTVSPropertyOp57
 70
     1
102
RTVSPropertyOp58
 70
     1
102
RTVSPropertyOp59
 70
     1
102
RTVSPropertyOp60
 70
     1
102
RTVSPropertyOp61
 70
     1
102
RTVSPropertyOp62
 70
     1
  0
XRECORD
  5
1CEE2
102
{ACAD_REACTORS
330
1CEE1
102
}
330
1CEE1
100
AcDbXrecord
280
     1
102
RTVSPost2010Prop28
280
     0
102
RTVSPost2010PropOp28
 70
     1
102
RTVSPost2010Prop29
280
     1
102
RTVSPost2010PropOp29
 70
     1
102
RTVSPost2010Prop30
280
     1
102
RTVSPost2010PropOp30
 70
     1
102
RTVSPost2010Prop31
280
     0
102
RTVSPost2010PropOp31
 70
     1
102
RTVSPost2010Prop32
280
     0
102
RTVSPost2010PropOp32
 70
     1
102
RTVSPost2010Prop33
280
     0
102
RTVSPost2010PropOp33
 70
     1
102
RTVSPost2010Prop34
280
     0
102
RTVSPost2010PropOp34
 70
     1
102
RTVSPost2010Prop35
280
     0
102
RTVSPost2010PropOp35
 70
     1
102
RTVSPost2010Prop36
280
     0
102
RTVSPost2010PropOp36
 70
     1
102
RTVSPost2010Prop37
 90
       50
102
RTVSPost2010PropOp37
 70
     1
102
RTVSPost2010Prop38
140
0.0
102
RTVSPost2010PropOp38
 70
     1
102
RTVSPost2010Prop39
140
1.0
102
RTVSPost2010PropOp39
 70
     1
102
RTVSPost2010Prop40
 90
        0
102
RTVSPost2010PropOp40
 70
     1
102
RTVSPost2010Prop41ColorIndex
 90
       18
102
RTVSPost2010Prop41ColorRGB
 90
        0
102
RTVSPost2010PropOp41
 70
     1
102
RTVSPost2010Prop42
 90
       50
102
RTVSPost2010PropOp42
 70
     1
102
RTVSPost2010Prop43
 90
        3
102
RTVSPost2010PropOp43
 70
     1
102
RTVSPost2010Prop44ColorIndex
 90
        5
102
RTVSPost2010Prop44ColorRGB
 90
      255
102
RTVSPost2010PropOp44
 70
     1
102
RTVSPost2010Prop45
280
     0
102
RTVSPost2010PropOp45
 70
     1
102
RTVSPost2010Prop46
 90
       50
102
RTVSPost2010PropOp46
 70
     1
102
RTVSPost2010Prop47
 90
       50
102
RTVSPost2010PropOp47
 70
     1
102
RTVSPost2010Prop48
 90
       50
102
RTVSPost2010PropOp48
 70
     1
102
RTVSPost2010Prop49
280
     0
102
RTVSPost2010PropOp49
 70
     1
102
RTVSPost2010Prop50
 90
       50
102
RTVSPost2010PropOp50
 70
     1
102
RTVSPost2010Prop51ColorIndex
 90
      256
102
RTVSPost2010Prop51ColorRGB
 90
-16777216
102
RTVSPost2010PropOp51
 70
     0
102
RTVSPost2010Prop52
140
1.0
102
RTVSPost2010PropOp52
 70
     0
102
RTVSPost2010Prop53
 90
        2
102
RTVSPost2010PropOp53
 70
     1
102
RTVSPost2010Prop54
  1
strokes_ogs.tif
102
RTVSPost2010PropOp54
 70
     1
102
RTVSPost2010Prop55
280
     0
102
RTVSPost2010PropOp55
 70
     1
102
RTVSPost2010Prop56
140
1.0
102
RTVSPost2010PropOp56
 70
     1
102
RTVSPost2010Prop57
140
1.0
102
RTVSPost2010PropOp57
 70
     1
102
RTVSPropertyOp0
 70
     1
102
RTVSPropertyOp1
 70
     1
102
RTVSPropertyOp2
 70
     1
102
RTVSPropertyOp3
 70
     1
102
RTVSPropertyOp4
 70
     1
102
RTVSPropertyOp5
 70
     1
102
RTVSPropertyOp6
 70
     1
102
RTVSPropertyOp7
 70
     1
102
RTVSPropertyOp8
 70
     1
102
RTVSPropertyOp9
 70
     1
102
RTVSPropertyOp10
 70
     1
102
RTVSPropertyOp11
 70
     1
102
RTVSPropertyOp12
 70
     1
102
RTVSPropertyOp13
 70
     1
102
RTVSPropertyOp14
 70
     1
102
RTVSPropertyOp15
 70
     1
102
RTVSPropertyOp16
 70
     1
102
RTVSPropertyOp17
 70
     1
102
RTVSPropertyOp18
 70
     1
102
RTVSPropertyOp19
 70
     1
102
RTVSPropertyOp20
 70
     1
102
RTVSPropertyOp21
 70
     1
102
RTVSPropertyOp22
 70
     1
102
RTVSPropertyOp23
 70
     1
102
RTVSPropertyOp24
 70
     1
102
RTVSPropertyOp25
 70
     1
102
RTVSPropertyOp26
 70
     1
102
RTVSPropertyOp27
 70
     1
102
RTVSPropertyOp28
 70
     1
102
RTVSPropertyOp29
 70
     1
102
RTVSPropertyOp30
 70
     1
102
RTVSPropertyOp31
 70
     1
102
RTVSPropertyOp32
 70
     1
102
RTVSPropertyOp33
 70
     1
102
RTVSPropertyOp34
 70
     1
102
RTVSPropertyOp35
 70
     1
102
RTVSPropertyOp36
 70
     1
102
RTVSPropertyOp37
 70
     1
102
RTVSPropertyOp38
 70
     1
102
RTVSPropertyOp39
 70
     1
102
RTVSPropertyOp40
 70
     1
102
RTVSPropertyOp41
 70
     1
102
RTVSPropertyOp42
 70
     1
102
RTVSPropertyOp43
 70
     1
102
RTVSPropertyOp44
 70
     1
102
RTVSPropertyOp45
 70
     1
102
RTVSPropertyOp46
 70
     1
102
RTVSPropertyOp47
 70
     1
102
RTVSPropertyOp48
 70
     1
102
RTVSPropertyOp49
 70
     1
102
RTVSPropertyOp50
 70
     1
102
RTVSPropertyOp51
 70
     0
102
RTVSPropertyOp52
 70
     0
102
RTVSPropertyOp53
 70
     1
102
RTVSPropertyOp54
 70
     1
102
RTVSPropertyOp55
 70
     1
102
RTVSPropertyOp56
 70
     1
102
RTVSPropertyOp57
 70
     1
102
RTVSPropertyOp58
 70
     1
102
RTVSPropertyOp59
 70
     1
102
RTVSPropertyOp60
 70
     1
102
RTVSPropertyOp61
 70
     1
102
RTVSPropertyOp62
 70
     1
  0
XRECORD
  5
1CEE6
102
{ACAD_REACTORS
330
1CEE5
102
}
330
1CEE5
100
AcDbXrecord
280
     1
102
RTVSPost2010Prop28
280
     0
102
RTVSPost2010PropOp28
 70
     1
102
RTVSPost2010Prop29
280
     1
102
RTVSPost2010PropOp29
 70
     1
102
RTVSPost2010Prop30
280
     1
102
RTVSPost2010PropOp30
 70
     1
102
RTVSPost2010Prop31
280
     0
102
RTVSPost2010PropOp31
 70
     1
102
RTVSPost2010Prop32
280
     0
102
RTVSPost2010PropOp32
 70
     1
102
RTVSPost2010Prop33
280
     0
102
RTVSPost2010PropOp33
 70
     1
102
RTVSPost2010Prop34
280
     0
102
RTVSPost2010PropOp34
 70
     1
102
RTVSPost2010Prop35
280
     0
102
RTVSPost2010PropOp35
 70
     1
102
RTVSPost2010Prop36
280
     0
102
RTVSPost2010PropOp36
 70
     1
102
RTVSPost2010Prop37
 90
       50
102
RTVSPost2010PropOp37
 70
     1
102
RTVSPost2010Prop38
140
0.0
102
RTVSPost2010PropOp38
 70
     1
102
RTVSPost2010Prop39
140
1.0
102
RTVSPost2010PropOp39
 70
     1
102
RTVSPost2010Prop40
 90
        0
102
RTVSPost2010PropOp40
 70
     1
102
RTVSPost2010Prop41ColorIndex
 90
       18
102
RTVSPost2010Prop41ColorRGB
 90
        0
102
RTVSPost2010PropOp41
 70
     1
102
RTVSPost2010Prop42
 90
       50
102
RTVSPost2010PropOp42
 70
     1
102
RTVSPost2010Prop43
 90
        3
102
RTVSPost2010PropOp43
 70
     1
102
RTVSPost2010Prop44ColorIndex
 90
        5
102
RTVSPost2010Prop44ColorRGB
 90
      255
102
RTVSPost2010PropOp44
 70
     1
102
RTVSPost2010Prop45
280
     0
102
RTVSPost2010PropOp45
 70
     1
102
RTVSPost2010Prop46
 90
       50
102
RTVSPost2010PropOp46
 70
     1
102
RTVSPost2010Prop47
 90
       50
102
RTVSPost2010PropOp47
 70
     1
102
RTVSPost2010Prop48
 90
       50
102
RTVSPost2010PropOp48
 70
     1
102
RTVSPost2010Prop49
280
     0
102
RTVSPost2010PropOp49
 70
     1
102
RTVSPost2010Prop50
 90
       50
102
RTVSPost2010PropOp50
 70
     1
102
RTVSPost2010Prop51ColorIndex
 90
      256
102
RTVSPost2010Prop51ColorRGB
 90
-16777216
102
RTVSPost2010PropOp51
 70
     0
102
RTVSPost2010Prop52
140
1.0
102
RTVSPost2010PropOp52
 70
     0
102
RTVSPost2010Prop53
 90
        2
102
RTVSPost2010PropOp53
 70
     1
102
RTVSPost2010Prop54
  1
strokes_ogs.tif
102
RTVSPost2010PropOp54
 70
     1
102
RTVSPost2010Prop55
280
     0
102
RTVSPost2010PropOp55
 70
     1
102
RTVSPost2010Prop56
140
1.0
102
RTVSPost2010PropOp56
 70
     1
102
RTVSPost2010Prop57
140
1.0
102
RTVSPost2010PropOp57
 70
     1
102
RTVSPropertyOp0
 70
     1
102
RTVSPropertyOp1
 70
     1
102
RTVSPropertyOp2
 70
     1
102
RTVSPropertyOp3
 70
     1
102
RTVSPropertyOp4
 70
     1
102
RTVSPropertyOp5
 70
     1
102
RTVSPropertyOp6
 70
     1
102
RTVSPropertyOp7
 70
     1
102
RTVSPropertyOp8
 70
     1
102
RTVSPropertyOp9
 70
     1
102
RTVSPropertyOp10
 70
     1
102
RTVSPropertyOp11
 70
     1
102
RTVSPropertyOp12
 70
     1
102
RTVSPropertyOp13
 70
     1
102
RTVSPropertyOp14
 70
     1
102
RTVSPropertyOp15
 70
     1
102
RTVSPropertyOp16
 70
     1
102
RTVSPropertyOp17
 70
     1
102
RTVSPropertyOp18
 70
     1
102
RTVSPropertyOp19
 70
     1
102
RTVSPropertyOp20
 70
     1
102
RTVSPropertyOp21
 70
     1
102
RTVSPropertyOp22
 70
     1
102
RTVSPropertyOp23
 70
     1
102
RTVSPropertyOp24
 70
     1
102
RTVSPropertyOp25
 70
     1
102
RTVSPropertyOp26
 70
     1
102
RTVSPropertyOp27
 70
     1
102
RTVSPropertyOp28
 70
     1
102
RTVSPropertyOp29
 70
     1
102
RTVSPropertyOp30
 70
     1
102
RTVSPropertyOp31
 70
     1
102
RTVSPropertyOp32
 70
     1
102
RTVSPropertyOp33
 70
     1
102
RTVSPropertyOp34
 70
     1
102
RTVSPropertyOp35
 70
     1
102
RTVSPropertyOp36
 70
     1
102
RTVSPropertyOp37
 70
     1
102
RTVSPropertyOp38
 70
     1
102
RTVSPropertyOp39
 70
     1
102
RTVSPropertyOp40
 70
     1
102
RTVSPropertyOp41
 70
     1
102
RTVSPropertyOp42
 70
     1
102
RTVSPropertyOp43
 70
     1
102
RTVSPropertyOp44
 70
     1
102
RTVSPropertyOp45
 70
     1
102
RTVSPropertyOp46
 70
     1
102
RTVSPropertyOp47
 70
     1
102
RTVSPropertyOp48
 70
     1
102
RTVSPropertyOp49
 70
     1
102
RTVSPropertyOp50
 70
     1
102
RTVSPropertyOp51
 70
     0
102
RTVSPropertyOp52
 70
     0
102
RTVSPropertyOp53
 70
     1
102
RTVSPropertyOp54
 70
     1
102
RTVSPropertyOp55
 70
     1
102
RTVSPropertyOp56
 70
     1
102
RTVSPropertyOp57
 70
     1
102
RTVSPropertyOp58
 70
     1
102
RTVSPropertyOp59
 70
     1
102
RTVSPropertyOp60
 70
     1
102
RTVSPropertyOp61
 70
     1
102
RTVSPropertyOp62
 70
     1
  0
XRECORD
  5
1CF00
102
{ACAD_REACTORS
330
1CEFF
102
}
330
1CEFF
100
AcDbXrecord
280
     1
102
RTVSPost2010Prop28
280
     0
102
RTVSPost2010PropOp28
 70
     1
102
RTVSPost2010Prop29
280
     1
102
RTVSPost2010PropOp29
 70
     1
102
RTVSPost2010Prop30
280
     1
102
RTVSPost2010PropOp30
 70
     1
102
RTVSPost2010Prop31
280
     0
102
RTVSPost2010PropOp31
 70
     1
102
RTVSPost2010Prop32
280
     0
102
RTVSPost2010PropOp32
 70
     1
102
RTVSPost2010Prop33
280
     0
102
RTVSPost2010PropOp33
 70
     1
102
RTVSPost2010Prop34
280
     0
102
RTVSPost2010PropOp34
 70
     1
102
RTVSPost2010Prop35
280
     0
102
RTVSPost2010PropOp35
 70
     1
102
RTVSPost2010Prop36
280
     0
102
RTVSPost2010PropOp36
 70
     1
102
RTVSPost2010Prop37
 90
       50
102
RTVSPost2010PropOp37
 70
     0
102
RTVSPost2010Prop38
140
0.0
102
RTVSPost2010PropOp38
 70
     0
102
RTVSPost2010Prop39
140
1.0
102
RTVSPost2010PropOp39
 70
     0
102
RTVSPost2010Prop40
 90
        0
102
RTVSPost2010PropOp40
 70
     0
102
RTVSPost2010Prop41ColorIndex
 90
       18
102
RTVSPost2010Prop41ColorRGB
 90
        0
102
RTVSPost2010PropOp41
 70
     0
102
RTVSPost2010Prop42
 90
       50
102
RTVSPost2010PropOp42
 70
     0
102
RTVSPost2010Prop43
 90
        3
102
RTVSPost2010PropOp43
 70
     0
102
RTVSPost2010Prop44ColorIndex
 90
        5
102
RTVSPost2010Prop44ColorRGB
 90
      255
102
RTVSPost2010PropOp44
 70
     0
102
RTVSPost2010Prop45
280
     0
102
RTVSPost2010PropOp45
 70
     1
102
RTVSPost2010Prop46
 90
       50
102
RTVSPost2010PropOp46
 70
     0
102
RTVSPost2010Prop47
 90
       50
102
RTVSPost2010PropOp47
 70
     0
102
RTVSPost2010Prop48
 90
       50
102
RTVSPost2010PropOp48
 70
     0
102
RTVSPost2010Prop49
280
     0
102
RTVSPost2010PropOp49
 70
     1
102
RTVSPost2010Prop50
 90
       50
102
RTVSPost2010PropOp50
 70
     0
102
RTVSPost2010Prop51ColorIndex
 90
      256
102
RTVSPost2010Prop51ColorRGB
 90
-16777216
102
RTVSPost2010PropOp51
 70
     0
102
RTVSPost2010Prop52
140
1.0
102
RTVSPost2010PropOp52
 70
     0
102
RTVSPost2010Prop53
 90
        2
102
RTVSPost2010PropOp53
 70
     0
102
RTVSPost2010Prop54
  1
strokes_ogs.tif
102
RTVSPost2010PropOp54
 70
     0
102
RTVSPost2010Prop55
280
     0
102
RTVSPost2010PropOp55
 70
     1
102
RTVSPost2010Prop56
140
1.0
102
RTVSPost2010PropOp56
 70
     0
102
RTVSPost2010Prop57
140
1.0
102
RTVSPost2010PropOp57
 70
     0
102
RTVSPropertyOp0
 70
     0
102
RTVSPropertyOp1
 70
     0
102
RTVSPropertyOp2
 70
     0
102
RTVSPropertyOp3
 70
     0
102
RTVSPropertyOp4
 70
     0
102
RTVSPropertyOp5
 70
     0
102
RTVSPropertyOp6
 70
     0
102
RTVSPropertyOp7
 70
     0
102
RTVSPropertyOp8
 70
     0
102
RTVSPropertyOp9
 70
     0
102
RTVSPropertyOp10
 70
     0
102
RTVSPropertyOp11
 70
     0
102
RTVSPropertyOp12
 70
     0
102
RTVSPropertyOp13
 70
     0
102
RTVSPropertyOp14
 70
     2
102
RTVSPropertyOp15
 70
     0
102
RTVSPropertyOp16
 70
     0
102
RTVSPropertyOp17
 70
     0
102
RTVSPropertyOp18
 70
     0
102
RTVSPropertyOp19
 70
     0
102
RTVSPropertyOp20
 70
     0
102
RTVSPropertyOp21
 70
     0
102
RTVSPropertyOp22
 70
     0
102
RTVSPropertyOp23
 70
     0
102
RTVSPropertyOp24
 70
     0
102
RTVSPropertyOp25
 70
     0
102
RTVSPropertyOp26
 70
     0
102
RTVSPropertyOp27
 70
     0
102
RTVSPropertyOp28
 70
     1
102
RTVSPropertyOp29
 70
     1
102
RTVSPropertyOp30
 70
     1
102
RTVSPropertyOp31
 70
     1
102
RTVSPropertyOp32
 70
     1
102
RTVSPropertyOp33
 70
     1
102
RTVSPropertyOp34
 70
     1
102
RTVSPropertyOp35
 70
     1
102
RTVSPropertyOp36
 70
     1
102
RTVSPropertyOp37
 70
     0
102
RTVSPropertyOp38
 70
     0
102
RTVSPropertyOp39
 70
     0
102
RTVSPropertyOp40
 70
     0
102
RTVSPropertyOp41
 70
     0
102
RTVSPropertyOp42
 70
     0
102
RTVSPropertyOp43
 70
     0
102
RTVSPropertyOp44
 70
     0
102
RTVSPropertyOp45
 70
     1
102
RTVSPropertyOp46
 70
     0
102
RTVSPropertyOp47
 70
     0
102
RTVSPropertyOp48
 70
     0
102
RTVSPropertyOp49
 70
     1
102
RTVSPropertyOp50
 70
     0
102
RTVSPropertyOp51
 70
     0
102
RTVSPropertyOp52
 70
     0
102
RTVSPropertyOp53
 70
     0
102
RTVSPropertyOp54
 70
     0
102
RTVSPropertyOp55
 70
     1
102
RTVSPropertyOp56
 70
     0
102
RTVSPropertyOp57
 70
     0
102
RTVSPropertyOp58
 70
     1
102
RTVSPropertyOp59
 70
     1
102
RTVSPropertyOp60
 70
     1
102
RTVSPropertyOp61
 70
     1
102
RTVSPropertyOp62
 70
     1
  0
XRECORD
  5
1CEEE
102
{ACAD_REACTORS
330
1CEED
102
}
330
1CEED
100
AcDbXrecord
280
     1
102
RTVSPost2010Prop28
280
     0
102
RTVSPost2010PropOp28
 70
     1
102
RTVSPost2010Prop29
280
     1
102
RTVSPost2010PropOp29
 70
     1
102
RTVSPost2010Prop30
280
     1
102
RTVSPost2010PropOp30
 70
     1
102
RTVSPost2010Prop31
280
     0
102
RTVSPost2010PropOp31
 70
     1
102
RTVSPost2010Prop32
280
     0
102
RTVSPost2010PropOp32
 70
     1
102
RTVSPost2010Prop33
280
     0
102
RTVSPost2010PropOp33
 70
     1
102
RTVSPost2010Prop34
280
     0
102
RTVSPost2010PropOp34
 70
     1
102
RTVSPost2010Prop35
280
     0
102
RTVSPost2010PropOp35
 70
     1
102
RTVSPost2010Prop36
280
     0
102
RTVSPost2010PropOp36
 70
     1
102
RTVSPost2010Prop37
 90
       50
102
RTVSPost2010PropOp37
 70
     1
102
RTVSPost2010Prop38
140
0.0
102
RTVSPost2010PropOp38
 70
     1
102
RTVSPost2010Prop39
140
1.0
102
RTVSPost2010PropOp39
 70
     1
102
RTVSPost2010Prop40
 90
        0
102
RTVSPost2010PropOp40
 70
     1
102
RTVSPost2010Prop41ColorIndex
 90
       18
102
RTVSPost2010Prop41ColorRGB
 90
        0
102
RTVSPost2010PropOp41
 70
     1
102
RTVSPost2010Prop42
 90
       50
102
RTVSPost2010PropOp42
 70
     1
102
RTVSPost2010Prop43
 90
        3
102
RTVSPost2010PropOp43
 70
     1
102
RTVSPost2010Prop44ColorIndex
 90
        5
102
RTVSPost2010Prop44ColorRGB
 90
      255
102
RTVSPost2010PropOp44
 70
     1
102
RTVSPost2010Prop45
280
     0
102
RTVSPost2010PropOp45
 70
     1
102
RTVSPost2010Prop46
 90
       50
102
RTVSPost2010PropOp46
 70
     1
102
RTVSPost2010Prop47
 90
       50
102
RTVSPost2010PropOp47
 70
     1
102
RTVSPost2010Prop48
 90
       50
102
RTVSPost2010PropOp48
 70
     1
102
RTVSPost2010Prop49
280
     0
102
RTVSPost2010PropOp49
 70
     1
102
RTVSPost2010Prop50
 90
       50
102
RTVSPost2010PropOp50
 70
     1
102
RTVSPost2010Prop51ColorIndex
 90
      256
102
RTVSPost2010Prop51ColorRGB
 90
-16777216
102
RTVSPost2010PropOp51
 70
     0
102
RTVSPost2010Prop52
140
1.0
102
RTVSPost2010PropOp52
 70
     0
102
RTVSPost2010Prop53
 90
        2
102
RTVSPost2010PropOp53
 70
     1
102
RTVSPost2010Prop54
  1
strokes_ogs.tif
102
RTVSPost2010PropOp54
 70
     1
102
RTVSPost2010Prop55
280
     0
102
RTVSPost2010PropOp55
 70
     1
102
RTVSPost2010Prop56
140
1.0
102
RTVSPost2010PropOp56
 70
     1
102
RTVSPost2010Prop57
140
1.0
102
RTVSPost2010PropOp57
 70
     1
102
RTVSPropertyOp0
 70
     1
102
RTVSPropertyOp1
 70
     1
102
RTVSPropertyOp2
 70
     1
102
RTVSPropertyOp3
 70
     1
102
RTVSPropertyOp4
 70
     1
102
RTVSPropertyOp5
 70
     1
102
RTVSPropertyOp6
 70
     1
102
RTVSPropertyOp7
 70
     1
102
RTVSPropertyOp8
 70
     1
102
RTVSPropertyOp9
 70
     1
102
RTVSPropertyOp10
 70
     1
102
RTVSPropertyOp11
 70
     1
102
RTVSPropertyOp12
 70
     1
102
RTVSPropertyOp13
 70
     1
102
RTVSPropertyOp14
 70
     1
102
RTVSPropertyOp15
 70
     1
102
RTVSPropertyOp16
 70
     1
102
RTVSPropertyOp17
 70
     1
102
RTVSPropertyOp18
 70
     1
102
RTVSPropertyOp19
 70
     1
102
RTVSPropertyOp20
 70
     1
102
RTVSPropertyOp21
 70
     1
102
RTVSPropertyOp22
 70
     1
102
RTVSPropertyOp23
 70
     1
102
RTVSPropertyOp24
 70
     1
102
RTVSPropertyOp25
 70
     1
102
RTVSPropertyOp26
 70
     1
102
RTVSPropertyOp27
 70
     1
102
RTVSPropertyOp28
 70
     1
102
RTVSPropertyOp29
 70
     1
102
RTVSPropertyOp30
 70
     1
102
RTVSPropertyOp31
 70
     1
102
RTVSPropertyOp32
 70
     1
102
RTVSPropertyOp33
 70
     1
102
RTVSPropertyOp34
 70
     1
102
RTVSPropertyOp35
 70
     1
102
RTVSPropertyOp36
 70
     1
102
RTVSPropertyOp37
 70
     1
102
RTVSPropertyOp38
 70
     1
102
RTVSPropertyOp39
 70
     1
102
RTVSPropertyOp40
 70
     1
102
RTVSPropertyOp41
 70
     1
102
RTVSPropertyOp42
 70
     1
102
RTVSPropertyOp43
 70
     1
102
RTVSPropertyOp44
 70
     1
102
RTVSPropertyOp45
 70
     1
102
RTVSPropertyOp46
 70
     1
102
RTVSPropertyOp47
 70
     1
102
RTVSPropertyOp48
 70
     1
102
RTVSPropertyOp49
 70
     1
102
RTVSPropertyOp50
 70
     1
102
RTVSPropertyOp51
 70
     0
102
RTVSPropertyOp52
 70
     0
102
RTVSPropertyOp53
 70
     1
102
RTVSPropertyOp54
 70
     1
102
RTVSPropertyOp55
 70
     1
102
RTVSPropertyOp56
 70
     1
102
RTVSPropertyOp57
 70
     1
102
RTVSPropertyOp58
 70
     1
102
RTVSPropertyOp59
 70
     1
102
RTVSPropertyOp60
 70
     1
102
RTVSPropertyOp61
 70
     1
102
RTVSPropertyOp62
 70
     1
  0
XRECORD
  5
1CED2
102
{ACAD_REACTORS
330
1CED1
102
}
330
1CED1
100
AcDbXrecord
280
     1
102
RTVSPost2010Prop28
280
     0
102
RTVSPost2010PropOp28
 70
     1
102
RTVSPost2010Prop29
280
     1
102
RTVSPost2010PropOp29
 70
     1
102
RTVSPost2010Prop30
280
     1
102
RTVSPost2010PropOp30
 70
     1
102
RTVSPost2010Prop31
280
     0
102
RTVSPost2010PropOp31
 70
     1
102
RTVSPost2010Prop32
280
     0
102
RTVSPost2010PropOp32
 70
     1
102
RTVSPost2010Prop33
280
     0
102
RTVSPost2010PropOp33
 70
     1
102
RTVSPost2010Prop34
280
     0
102
RTVSPost2010PropOp34
 70
     1
102
RTVSPost2010Prop35
280
     0
102
RTVSPost2010PropOp35
 70
     1
102
RTVSPost2010Prop36
280
     0
102
RTVSPost2010PropOp36
 70
     1
102
RTVSPost2010Prop37
 90
       50
102
RTVSPost2010PropOp37
 70
     1
102
RTVSPost2010Prop38
140
0.0
102
RTVSPost2010PropOp38
 70
     1
102
RTVSPost2010Prop39
140
1.0
102
RTVSPost2010PropOp39
 70
     1
102
RTVSPost2010Prop40
 90
        0
102
RTVSPost2010PropOp40
 70
     1
102
RTVSPost2010Prop41ColorIndex
 90
       18
102
RTVSPost2010Prop41ColorRGB
 90
        0
102
RTVSPost2010PropOp41
 70
     1
102
RTVSPost2010Prop42
 90
       50
102
RTVSPost2010PropOp42
 70
     1
102
RTVSPost2010Prop43
 90
        3
102
RTVSPost2010PropOp43
 70
     1
102
RTVSPost2010Prop44ColorIndex
 90
        5
102
RTVSPost2010Prop44ColorRGB
 90
      255
102
RTVSPost2010PropOp44
 70
     1
102
RTVSPost2010Prop45
280
     0
102
RTVSPost2010PropOp45
 70
     1
102
RTVSPost2010Prop46
 90
       50
102
RTVSPost2010PropOp46
 70
     1
102
RTVSPost2010Prop47
 90
       50
102
RTVSPost2010PropOp47
 70
     1
102
RTVSPost2010Prop48
 90
       50
102
RTVSPost2010PropOp48
 70
     1
102
RTVSPost2010Prop49
280
     0
102
RTVSPost2010PropOp49
 70
     1
102
RTVSPost2010Prop50
 90
       50
102
RTVSPost2010PropOp50
 70
     1
102
RTVSPost2010Prop51ColorIndex
 90
      256
102
RTVSPost2010Prop51ColorRGB
 90
-16777216
102
RTVSPost2010PropOp51
 70
     0
102
RTVSPost2010Prop52
140
1.0
102
RTVSPost2010PropOp52
 70
     0
102
RTVSPost2010Prop53
 90
        2
102
RTVSPost2010PropOp53
 70
     1
102
RTVSPost2010Prop54
  1
strokes_ogs.tif
102
RTVSPost2010PropOp54
 70
     1
102
RTVSPost2010Prop55
280
     0
102
RTVSPost2010PropOp55
 70
     1
102
RTVSPost2010Prop56
140
1.0
102
RTVSPost2010PropOp56
 70
     1
102
RTVSPost2010Prop57
140
1.0
102
RTVSPost2010PropOp57
 70
     1
102
RTVSPropertyOp0
 70
     1
102
RTVSPropertyOp1
 70
     1
102
RTVSPropertyOp2
 70
     1
102
RTVSPropertyOp3
 70
     1
102
RTVSPropertyOp4
 70
     1
102
RTVSPropertyOp5
 70
     1
102
RTVSPropertyOp6
 70
     1
102
RTVSPropertyOp7
 70
     1
102
RTVSPropertyOp8
 70
     1
102
RTVSPropertyOp9
 70
     1
102
RTVSPropertyOp10
 70
     1
102
RTVSPropertyOp11
 70
     1
102
RTVSPropertyOp12
 70
     1
102
RTVSPropertyOp13
 70
     1
102
RTVSPropertyOp14
 70
     1
102
RTVSPropertyOp15
 70
     1
102
RTVSPropertyOp16
 70
     1
102
RTVSPropertyOp17
 70
     1
102
RTVSPropertyOp18
 70
     1
102
RTVSPropertyOp19
 70
     1
102
RTVSPropertyOp20
 70
     1
102
RTVSPropertyOp21
 70
     1
102
RTVSPropertyOp22
 70
     1
102
RTVSPropertyOp23
 70
     1
102
RTVSPropertyOp24
 70
     1
102
RTVSPropertyOp25
 70
     1
102
RTVSPropertyOp26
 70
     1
102
RTVSPropertyOp27
 70
     1
102
RTVSPropertyOp28
 70
     1
102
RTVSPropertyOp29
 70
     1
102
RTVSPropertyOp30
 70
     1
102
RTVSPropertyOp31
 70
     1
102
RTVSPropertyOp32
 70
     1
102
RTVSPropertyOp33
 70
     1
102
RTVSPropertyOp34
 70
     1
102
RTVSPropertyOp35
 70
     1
102
RTVSPropertyOp36
 70
     1
102
RTVSPropertyOp37
 70
     1
102
RTVSPropertyOp38
 70
     1
102
RTVSPropertyOp39
 70
     1
102
RTVSPropertyOp40
 70
     1
102
RTVSPropertyOp41
 70
     1
102
RTVSPropertyOp42
 70
     1
102
RTVSPropertyOp43
 70
     1
102
RTVSPropertyOp44
 70
     1
102
RTVSPropertyOp45
 70
     1
102
RTVSPropertyOp46
 70
     1
102
RTVSPropertyOp47
 70
     1
102
RTVSPropertyOp48
 70
     1
102
RTVSPropertyOp49
 70
     1
102
RTVSPropertyOp50
 70
     1
102
RTVSPropertyOp51
 70
     0
102
RTVSPropertyOp52
 70
     0
102
RTVSPropertyOp53
 70
     1
102
RTVSPropertyOp54
 70
     1
102
RTVSPropertyOp55
 70
     1
102
RTVSPropertyOp56
 70
     1
102
RTVSPropertyOp57
 70
     1
102
RTVSPropertyOp58
 70
     1
102
RTVSPropertyOp59
 70
     1
102
RTVSPropertyOp60
 70
     1
102
RTVSPropertyOp61
 70
     1
102
RTVSPropertyOp62
 70
     1
  0
XRECORD
  5
1CED4
102
{ACAD_REACTORS
330
1CED3
102
}
330
1CED3
100
AcDbXrecord
280
     1
102
RTVSPost2010Prop28
280
     0
102
RTVSPost2010PropOp28
 70
     1
102
RTVSPost2010Prop29
280
     1
102
RTVSPost2010PropOp29
 70
     1
102
RTVSPost2010Prop30
280
     1
102
RTVSPost2010PropOp30
 70
     1
102
RTVSPost2010Prop31
280
     0
102
RTVSPost2010PropOp31
 70
     1
102
RTVSPost2010Prop32
280
     0
102
RTVSPost2010PropOp32
 70
     1
102
RTVSPost2010Prop33
280
     0
102
RTVSPost2010PropOp33
 70
     1
102
RTVSPost2010Prop34
280
     0
102
RTVSPost2010PropOp34
 70
     1
102
RTVSPost2010Prop35
280
     0
102
RTVSPost2010PropOp35
 70
     1
102
RTVSPost2010Prop36
280
     0
102
RTVSPost2010PropOp36
 70
     1
102
RTVSPost2010Prop37
 90
       50
102
RTVSPost2010PropOp37
 70
     1
102
RTVSPost2010Prop38
140
0.0
102
RTVSPost2010PropOp38
 70
     1
102
RTVSPost2010Prop39
140
1.0
102
RTVSPost2010PropOp39
 70
     1
102
RTVSPost2010Prop40
 90
        0
102
RTVSPost2010PropOp40
 70
     1
102
RTVSPost2010Prop41ColorIndex
 90
       18
102
RTVSPost2010Prop41ColorRGB
 90
        0
102
RTVSPost2010PropOp41
 70
     1
102
RTVSPost2010Prop42
 90
       50
102
RTVSPost2010PropOp42
 70
     1
102
RTVSPost2010Prop43
 90
        3
102
RTVSPost2010PropOp43
 70
     1
102
RTVSPost2010Prop44ColorIndex
 90
        5
102
RTVSPost2010Prop44ColorRGB
 90
      255
102
RTVSPost2010PropOp44
 70
     1
102
RTVSPost2010Prop45
280
     0
102
RTVSPost2010PropOp45
 70
     1
102
RTVSPost2010Prop46
 90
       50
102
RTVSPost2010PropOp46
 70
     1
102
RTVSPost2010Prop47
 90
       50
102
RTVSPost2010PropOp47
 70
     1
102
RTVSPost2010Prop48
 90
       50
102
RTVSPost2010PropOp48
 70
     1
102
RTVSPost2010Prop49
280
     0
102
RTVSPost2010PropOp49
 70
     1
102
RTVSPost2010Prop50
 90
       50
102
RTVSPost2010PropOp50
 70
     1
102
RTVSPost2010Prop51ColorIndex
 90
      256
102
RTVSPost2010Prop51ColorRGB
 90
-16777216
102
RTVSPost2010PropOp51
 70
     0
102
RTVSPost2010Prop52
140
1.0
102
RTVSPost2010PropOp52
 70
     0
102
RTVSPost2010Prop53
 90
        2
102
RTVSPost2010PropOp53
 70
     1
102
RTVSPost2010Prop54
  1
strokes_ogs.tif
102
RTVSPost2010PropOp54
 70
     1
102
RTVSPost2010Prop55
280
     0
102
RTVSPost2010PropOp55
 70
     1
102
RTVSPost2010Prop56
140
1.0
102
RTVSPost2010PropOp56
 70
     1
102
RTVSPost2010Prop57
140
1.0
102
RTVSPost2010PropOp57
 70
     1
102
RTVSPropertyOp0
 70
     1
102
RTVSPropertyOp1
 70
     1
102
RTVSPropertyOp2
 70
     1
102
RTVSPropertyOp3
 70
     1
102
RTVSPropertyOp4
 70
     1
102
RTVSPropertyOp5
 70
     1
102
RTVSPropertyOp6
 70
     1
102
RTVSPropertyOp7
 70
     1
102
RTVSPropertyOp8
 70
     1
102
RTVSPropertyOp9
 70
     1
102
RTVSPropertyOp10
 70
     1
102
RTVSPropertyOp11
 70
     1
102
RTVSPropertyOp12
 70
     1
102
RTVSPropertyOp13
 70
     1
102
RTVSPropertyOp14
 70
     1
102
RTVSPropertyOp15
 70
     1
102
RTVSPropertyOp16
 70
     1
102
RTVSPropertyOp17
 70
     1
102
RTVSPropertyOp18
 70
     1
102
RTVSPropertyOp19
 70
     1
102
RTVSPropertyOp20
 70
     1
102
RTVSPropertyOp21
 70
     1
102
RTVSPropertyOp22
 70
     1
102
RTVSPropertyOp23
 70
     1
102
RTVSPropertyOp24
 70
     1
102
RTVSPropertyOp25
 70
     1
102
RTVSPropertyOp26
 70
     1
102
RTVSPropertyOp27
 70
     1
102
RTVSPropertyOp28
 70
     1
102
RTVSPropertyOp29
 70
     1
102
RTVSPropertyOp30
 70
     1
102
RTVSPropertyOp31
 70
     1
102
RTVSPropertyOp32
 70
     1
102
RTVSPropertyOp33
 70
     1
102
RTVSPropertyOp34
 70
     1
102
RTVSPropertyOp35
 70
     1
102
RTVSPropertyOp36
 70
     1
102
RTVSPropertyOp37
 70
     1
102
RTVSPropertyOp38
 70
     1
102
RTVSPropertyOp39
 70
     1
102
RTVSPropertyOp40
 70
     1
102
RTVSPropertyOp41
 70
     1
102
RTVSPropertyOp42
 70
     1
102
RTVSPropertyOp43
 70
     1
102
RTVSPropertyOp44
 70
     1
102
RTVSPropertyOp45
 70
     1
102
RTVSPropertyOp46
 70
     1
102
RTVSPropertyOp47
 70
     1
102
RTVSPropertyOp48
 70
     1
102
RTVSPropertyOp49
 70
     1
102
RTVSPropertyOp50
 70
     1
102
RTVSPropertyOp51
 70
     0
102
RTVSPropertyOp52
 70
     0
102
RTVSPropertyOp53
 70
     1
102
RTVSPropertyOp54
 70
     1
102
RTVSPropertyOp55
 70
     1
102
RTVSPropertyOp56
 70
     1
102
RTVSPropertyOp57
 70
     1
102
RTVSPropertyOp58
 70
     1
102
RTVSPropertyOp59
 70
     1
102
RTVSPropertyOp60
 70
     1
102
RTVSPropertyOp61
 70
     1
102
RTVSPropertyOp62
 70
     1
  0
XRECORD
  5
1CED6
102
{ACAD_REACTORS
330
1CED5
102
}
330
1CED5
100
AcDbXrecord
280
     1
102
RTVSPost2010Prop28
280
     0
102
RTVSPost2010PropOp28
 70
     1
102
RTVSPost2010Prop29
280
     1
102
RTVSPost2010PropOp29
 70
     1
102
RTVSPost2010Prop30
280
     1
102
RTVSPost2010PropOp30
 70
     1
102
RTVSPost2010Prop31
280
     0
102
RTVSPost2010PropOp31
 70
     1
102
RTVSPost2010Prop32
280
     0
102
RTVSPost2010PropOp32
 70
     1
102
RTVSPost2010Prop33
280
     0
102
RTVSPost2010PropOp33
 70
     1
102
RTVSPost2010Prop34
280
     0
102
RTVSPost2010PropOp34
 70
     1
102
RTVSPost2010Prop35
280
     0
102
RTVSPost2010PropOp35
 70
     1
102
RTVSPost2010Prop36
280
     0
102
RTVSPost2010PropOp36
 70
     1
102
RTVSPost2010Prop37
 90
       50
102
RTVSPost2010PropOp37
 70
     1
102
RTVSPost2010Prop38
140
0.0
102
RTVSPost2010PropOp38
 70
     1
102
RTVSPost2010Prop39
140
1.0
102
RTVSPost2010PropOp39
 70
     1
102
RTVSPost2010Prop40
 90
        0
102
RTVSPost2010PropOp40
 70
     1
102
RTVSPost2010Prop41ColorIndex
 90
       18
102
RTVSPost2010Prop41ColorRGB
 90
        0
102
RTVSPost2010PropOp41
 70
     1
102
RTVSPost2010Prop42
 90
       50
102
RTVSPost2010PropOp42
 70
     1
102
RTVSPost2010Prop43
 90
        3
102
RTVSPost2010PropOp43
 70
     1
102
RTVSPost2010Prop44ColorIndex
 90
        5
102
RTVSPost2010Prop44ColorRGB
 90
      255
102
RTVSPost2010PropOp44
 70
     1
102
RTVSPost2010Prop45
280
     0
102
RTVSPost2010PropOp45
 70
     1
102
RTVSPost2010Prop46
 90
       50
102
RTVSPost2010PropOp46
 70
     1
102
RTVSPost2010Prop47
 90
       50
102
RTVSPost2010PropOp47
 70
     1
102
RTVSPost2010Prop48
 90
       50
102
RTVSPost2010PropOp48
 70
     1
102
RTVSPost2010Prop49
280
     0
102
RTVSPost2010PropOp49
 70
     1
102
RTVSPost2010Prop50
 90
       50
102
RTVSPost2010PropOp50
 70
     1
102
RTVSPost2010Prop51ColorIndex
 90
      256
102
RTVSPost2010Prop51ColorRGB
 90
-16777216
102
RTVSPost2010PropOp51
 70
     0
102
RTVSPost2010Prop52
140
1.0
102
RTVSPost2010PropOp52
 70
     0
102
RTVSPost2010Prop53
 90
        2
102
RTVSPost2010PropOp53
 70
     1
102
RTVSPost2010Prop54
  1
strokes_ogs.tif
102
RTVSPost2010PropOp54
 70
     1
102
RTVSPost2010Prop55
280
     0
102
RTVSPost2010PropOp55
 70
     1
102
RTVSPost2010Prop56
140
1.0
102
RTVSPost2010PropOp56
 70
     1
102
RTVSPost2010Prop57
140
1.0
102
RTVSPost2010PropOp57
 70
     1
102
RTVSPropertyOp0
 70
     1
102
RTVSPropertyOp1
 70
     1
102
RTVSPropertyOp2
 70
     1
102
RTVSPropertyOp3
 70
     1
102
RTVSPropertyOp4
 70
     1
102
RTVSPropertyOp5
 70
     1
102
RTVSPropertyOp6
 70
     1
102
RTVSPropertyOp7
 70
     1
102
RTVSPropertyOp8
 70
     1
102
RTVSPropertyOp9
 70
     1
102
RTVSPropertyOp10
 70
     1
102
RTVSPropertyOp11
 70
     1
102
RTVSPropertyOp12
 70
     1
102
RTVSPropertyOp13
 70
     1
102
RTVSPropertyOp14
 70
     1
102
RTVSPropertyOp15
 70
     1
102
RTVSPropertyOp16
 70
     1
102
RTVSPropertyOp17
 70
     1
102
RTVSPropertyOp18
 70
     1
102
RTVSPropertyOp19
 70
     1
102
RTVSPropertyOp20
 70
     1
102
RTVSPropertyOp21
 70
     1
102
RTVSPropertyOp22
 70
     1
102
RTVSPropertyOp23
 70
     1
102
RTVSPropertyOp24
 70
     1
102
RTVSPropertyOp25
 70
     1
102
RTVSPropertyOp26
 70
     1
102
RTVSPropertyOp27
 70
     1
102
RTVSPropertyOp28
 70
     1
102
RTVSPropertyOp29
 70
     1
102
RTVSPropertyOp30
 70
     1
102
RTVSPropertyOp31
 70
     1
102
RTVSPropertyOp32
 70
     1
102
RTVSPropertyOp33
 70
     1
102
RTVSPropertyOp34
 70
     1
102
RTVSPropertyOp35
 70
     1
102
RTVSPropertyOp36
 70
     1
102
RTVSPropertyOp37
 70
     1
102
RTVSPropertyOp38
 70
     1
102
RTVSPropertyOp39
 70
     1
102
RTVSPropertyOp40
 70
     1
102
RTVSPropertyOp41
 70
     1
102
RTVSPropertyOp42
 70
     1
102
RTVSPropertyOp43
 70
     1
102
RTVSPropertyOp44
 70
     1
102
RTVSPropertyOp45
 70
     1
102
RTVSPropertyOp46
 70
     1
102
RTVSPropertyOp47
 70
     1
102
RTVSPropertyOp48
 70
     1
102
RTVSPropertyOp49
 70
     1
102
RTVSPropertyOp50
 70
     1
102
RTVSPropertyOp51
 70
     0
102
RTVSPropertyOp52
 70
     0
102
RTVSPropertyOp53
 70
     1
102
RTVSPropertyOp54
 70
     1
102
RTVSPropertyOp55
 70
     1
102
RTVSPropertyOp56
 70
     1
102
RTVSPropertyOp57
 70
     1
102
RTVSPropertyOp58
 70
     1
102
RTVSPropertyOp59
 70
     1
102
RTVSPropertyOp60
 70
     1
102
RTVSPropertyOp61
 70
     1
102
RTVSPropertyOp62
 70
     1
  0
XRECORD
  5
1CED8
102
{ACAD_REACTORS
330
1CED7
102
}
330
1CED7
100
AcDbXrecord
280
     1
102
RTVSPost2010Prop28
280
     0
102
RTVSPost2010PropOp28
 70
     1
102
RTVSPost2010Prop29
280
     1
102
RTVSPost2010PropOp29
 70
     1
102
RTVSPost2010Prop30
280
     1
102
RTVSPost2010PropOp30
 70
     1
102
RTVSPost2010Prop31
280
     0
102
RTVSPost2010PropOp31
 70
     1
102
RTVSPost2010Prop32
280
     0
102
RTVSPost2010PropOp32
 70
     1
102
RTVSPost2010Prop33
280
     0
102
RTVSPost2010PropOp33
 70
     1
102
RTVSPost2010Prop34
280
     0
102
RTVSPost2010PropOp34
 70
     1
102
RTVSPost2010Prop35
280
     0
102
RTVSPost2010PropOp35
 70
     1
102
RTVSPost2010Prop36
280
     0
102
RTVSPost2010PropOp36
 70
     1
102
RTVSPost2010Prop37
 90
       50
102
RTVSPost2010PropOp37
 70
     1
102
RTVSPost2010Prop38
140
0.0
102
RTVSPost2010PropOp38
 70
     1
102
RTVSPost2010Prop39
140
1.0
102
RTVSPost2010PropOp39
 70
     1
102
RTVSPost2010Prop40
 90
        0
102
RTVSPost2010PropOp40
 70
     1
102
RTVSPost2010Prop41ColorIndex
 90
       18
102
RTVSPost2010Prop41ColorRGB
 90
        0
102
RTVSPost2010PropOp41
 70
     1
102
RTVSPost2010Prop42
 90
       50
102
RTVSPost2010PropOp42
 70
     1
102
RTVSPost2010Prop43
 90
        3
102
RTVSPost2010PropOp43
 70
     1
102
RTVSPost2010Prop44ColorIndex
 90
        5
102
RTVSPost2010Prop44ColorRGB
 90
      255
102
RTVSPost2010PropOp44
 70
     1
102
RTVSPost2010Prop45
280
     0
102
RTVSPost2010PropOp45
 70
     1
102
RTVSPost2010Prop46
 90
       50
102
RTVSPost2010PropOp46
 70
     1
102
RTVSPost2010Prop47
 90
       50
102
RTVSPost2010PropOp47
 70
     1
102
RTVSPost2010Prop48
 90
       50
102
RTVSPost2010PropOp48
 70
     1
102
RTVSPost2010Prop49
280
     0
102
RTVSPost2010PropOp49
 70
     1
102
RTVSPost2010Prop50
 90
       50
102
RTVSPost2010PropOp50
 70
     1
102
RTVSPost2010Prop51ColorIndex
 90
      256
102
RTVSPost2010Prop51ColorRGB
 90
-16777216
102
RTVSPost2010PropOp51
 70
     0
102
RTVSPost2010Prop52
140
1.0
102
RTVSPost2010PropOp52
 70
     0
102
RTVSPost2010Prop53
 90
        2
102
RTVSPost2010PropOp53
 70
     1
102
RTVSPost2010Prop54
  1
strokes_ogs.tif
102
RTVSPost2010PropOp54
 70
     1
102
RTVSPost2010Prop55
280
     0
102
RTVSPost2010PropOp55
 70
     1
102
RTVSPost2010Prop56
140
1.0
102
RTVSPost2010PropOp56
 70
     1
102
RTVSPost2010Prop57
140
1.0
102
RTVSPost2010PropOp57
 70
     1
102
RTVSPropertyOp0
 70
     1
102
RTVSPropertyOp1
 70
     1
102
RTVSPropertyOp2
 70
     1
102
RTVSPropertyOp3
 70
     1
102
RTVSPropertyOp4
 70
     1
102
RTVSPropertyOp5
 70
     1
102
RTVSPropertyOp6
 70
     1
102
RTVSPropertyOp7
 70
     1
102
RTVSPropertyOp8
 70
     1
102
RTVSPropertyOp9
 70
     1
102
RTVSPropertyOp10
 70
     1
102
RTVSPropertyOp11
 70
     1
102
RTVSPropertyOp12
 70
     1
102
RTVSPropertyOp13
 70
     1
102
RTVSPropertyOp14
 70
     1
102
RTVSPropertyOp15
 70
     1
102
RTVSPropertyOp16
 70
     1
102
RTVSPropertyOp17
 70
     1
102
RTVSPropertyOp18
 70
     1
102
RTVSPropertyOp19
 70
     1
102
RTVSPropertyOp20
 70
     1
102
RTVSPropertyOp21
 70
     1
102
RTVSPropertyOp22
 70
     1
102
RTVSPropertyOp23
 70
     1
102
RTVSPropertyOp24
 70
     1
102
RTVSPropertyOp25
 70
     1
102
RTVSPropertyOp26
 70
     1
102
RTVSPropertyOp27
 70
     1
102
RTVSPropertyOp28
 70
     1
102
RTVSPropertyOp29
 70
     1
102
RTVSPropertyOp30
 70
     1
102
RTVSPropertyOp31
 70
     1
102
RTVSPropertyOp32
 70
     1
102
RTVSPropertyOp33
 70
     1
102
RTVSPropertyOp34
 70
     1
102
RTVSPropertyOp35
 70
     1
102
RTVSPropertyOp36
 70
     1
102
RTVSPropertyOp37
 70
     1
102
RTVSPropertyOp38
 70
     1
102
RTVSPropertyOp39
 70
     1
102
RTVSPropertyOp40
 70
     1
102
RTVSPropertyOp41
 70
     1
102
RTVSPropertyOp42
 70
     1
102
RTVSPropertyOp43
 70
     1
102
RTVSPropertyOp44
 70
     1
102
RTVSPropertyOp45
 70
     1
102
RTVSPropertyOp46
 70
     1
102
RTVSPropertyOp47
 70
     1
102
RTVSPropertyOp48
 70
     1
102
RTVSPropertyOp49
 70
     1
102
RTVSPropertyOp50
 70
     1
102
RTVSPropertyOp51
 70
     0
102
RTVSPropertyOp52
 70
     0
102
RTVSPropertyOp53
 70
     1
102
RTVSPropertyOp54
 70
     1
102
RTVSPropertyOp55
 70
     1
102
RTVSPropertyOp56
 70
     1
102
RTVSPropertyOp57
 70
     1
102
RTVSPropertyOp58
 70
     1
102
RTVSPropertyOp59
 70
     1
102
RTVSPropertyOp60
 70
     1
102
RTVSPropertyOp61
 70
     1
102
RTVSPropertyOp62
 70
     1
  0
XRECORD
  5
1CEE0
102
{ACAD_REACTORS
330
1CEDF
102
}
330
1CEDF
100
AcDbXrecord
280
     1
102
RTVSPost2010Prop28
280
     0
102
RTVSPost2010PropOp28
 70
     1
102
RTVSPost2010Prop29
280
     1
102
RTVSPost2010PropOp29
 70
     1
102
RTVSPost2010Prop30
280
     1
102
RTVSPost2010PropOp30
 70
     1
102
RTVSPost2010Prop31
280
     0
102
RTVSPost2010PropOp31
 70
     1
102
RTVSPost2010Prop32
280
     0
102
RTVSPost2010PropOp32
 70
     1
102
RTVSPost2010Prop33
280
     0
102
RTVSPost2010PropOp33
 70
     1
102
RTVSPost2010Prop34
280
     0
102
RTVSPost2010PropOp34
 70
     1
102
RTVSPost2010Prop35
280
     0
102
RTVSPost2010PropOp35
 70
     1
102
RTVSPost2010Prop36
280
     0
102
RTVSPost2010PropOp36
 70
     1
102
RTVSPost2010Prop37
 90
       50
102
RTVSPost2010PropOp37
 70
     1
102
RTVSPost2010Prop38
140
0.0
102
RTVSPost2010PropOp38
 70
     1
102
RTVSPost2010Prop39
140
1.0
102
RTVSPost2010PropOp39
 70
     1
102
RTVSPost2010Prop40
 90
        0
102
RTVSPost2010PropOp40
 70
     1
102
RTVSPost2010Prop41ColorIndex
 90
       18
102
RTVSPost2010Prop41ColorRGB
 90
        0
102
RTVSPost2010PropOp41
 70
     1
102
RTVSPost2010Prop42
 90
       50
102
RTVSPost2010PropOp42
 70
     1
102
RTVSPost2010Prop43
 90
        3
102
RTVSPost2010PropOp43
 70
     1
102
RTVSPost2010Prop44ColorIndex
 90
        5
102
RTVSPost2010Prop44ColorRGB
 90
      255
102
RTVSPost2010PropOp44
 70
     1
102
RTVSPost2010Prop45
280
     0
102
RTVSPost2010PropOp45
 70
     1
102
RTVSPost2010Prop46
 90
       50
102
RTVSPost2010PropOp46
 70
     1
102
RTVSPost2010Prop47
 90
       50
102
RTVSPost2010PropOp47
 70
     1
102
RTVSPost2010Prop48
 90
       50
102
RTVSPost2010PropOp48
 70
     1
102
RTVSPost2010Prop49
280
     0
102
RTVSPost2010PropOp49
 70
     1
102
RTVSPost2010Prop50
 90
       50
102
RTVSPost2010PropOp50
 70
     1
102
RTVSPost2010Prop51ColorIndex
 90
      256
102
RTVSPost2010Prop51ColorRGB
 90
-16777216
102
RTVSPost2010PropOp51
 70
     0
102
RTVSPost2010Prop52
140
1.0
102
RTVSPost2010PropOp52
 70
     0
102
RTVSPost2010Prop53
 90
        2
102
RTVSPost2010PropOp53
 70
     1
102
RTVSPost2010Prop54
  1
strokes_ogs.tif
102
RTVSPost2010PropOp54
 70
     1
102
RTVSPost2010Prop55
280
     0
102
RTVSPost2010PropOp55
 70
     1
102
RTVSPost2010Prop56
140
1.0
102
RTVSPost2010PropOp56
 70
     1
102
RTVSPost2010Prop57
140
1.0
102
RTVSPost2010PropOp57
 70
     1
102
RTVSPropertyOp0
 70
     1
102
RTVSPropertyOp1
 70
     1
102
RTVSPropertyOp2
 70
     1
102
RTVSPropertyOp3
 70
     1
102
RTVSPropertyOp4
 70
     1
102
RTVSPropertyOp5
 70
     1
102
RTVSPropertyOp6
 70
     1
102
RTVSPropertyOp7
 70
     1
102
RTVSPropertyOp8
 70
     1
102
RTVSPropertyOp9
 70
     1
102
RTVSPropertyOp10
 70
     1
102
RTVSPropertyOp11
 70
     1
102
RTVSPropertyOp12
 70
     1
102
RTVSPropertyOp13
 70
     1
102
RTVSPropertyOp14
 70
     1
102
RTVSPropertyOp15
 70
     1
102
RTVSPropertyOp16
 70
     1
102
RTVSPropertyOp17
 70
     1
102
RTVSPropertyOp18
 70
     1
102
RTVSPropertyOp19
 70
     1
102
RTVSPropertyOp20
 70
     1
102
RTVSPropertyOp21
 70
     1
102
RTVSPropertyOp22
 70
     1
102
RTVSPropertyOp23
 70
     1
102
RTVSPropertyOp24
 70
     1
102
RTVSPropertyOp25
 70
     1
102
RTVSPropertyOp26
 70
     1
102
RTVSPropertyOp27
 70
     1
102
RTVSPropertyOp28
 70
     1
102
RTVSPropertyOp29
 70
     1
102
RTVSPropertyOp30
 70
     1
102
RTVSPropertyOp31
 70
     1
102
RTVSPropertyOp32
 70
     1
102
RTVSPropertyOp33
 70
     1
102
RTVSPropertyOp34
 70
     1
102
RTVSPropertyOp35
 70
     1
102
RTVSPropertyOp36
 70
     1
102
RTVSPropertyOp37
 70
     1
102
RTVSPropertyOp38
 70
     1
102
RTVSPropertyOp39
 70
     1
102
RTVSPropertyOp40
 70
     1
102
RTVSPropertyOp41
 70
     1
102
RTVSPropertyOp42
 70
     1
102
RTVSPropertyOp43
 70
     1
102
RTVSPropertyOp44
 70
     1
102
RTVSPropertyOp45
 70
     1
102
RTVSPropertyOp46
 70
     1
102
RTVSPropertyOp47
 70
     1
102
RTVSPropertyOp48
 70
     1
102
RTVSPropertyOp49
 70
     1
102
RTVSPropertyOp50
 70
     1
102
RTVSPropertyOp51
 70
     0
102
RTVSPropertyOp52
 70
     0
102
RTVSPropertyOp53
 70
     1
102
RTVSPropertyOp54
 70
     1
102
RTVSPropertyOp55
 70
     1
102
RTVSPropertyOp56
 70
     1
102
RTVSPropertyOp57
 70
     1
102
RTVSPropertyOp58
 70
     1
102
RTVSPropertyOp59
 70
     1
102
RTVSPropertyOp60
 70
     1
102
RTVSPropertyOp61
 70
     1
102
RTVSPropertyOp62
 70
     1
  0
XRECORD
  5
1CEFC
102
{ACAD_REACTORS
330
1CEFB
102
}
330
1CEFB
100
AcDbXrecord
280
     1
102
RTVSPost2010Prop28
280
     0
102
RTVSPost2010PropOp28
 70
     1
102
RTVSPost2010Prop29
280
     1
102
RTVSPost2010PropOp29
 70
     1
102
RTVSPost2010Prop30
280
     1
102
RTVSPost2010PropOp30
 70
     1
102
RTVSPost2010Prop31
280
     0
102
RTVSPost2010PropOp31
 70
     1
102
RTVSPost2010Prop32
280
     0
102
RTVSPost2010PropOp32
 70
     1
102
RTVSPost2010Prop33
280
     0
102
RTVSPost2010PropOp33
 70
     1
102
RTVSPost2010Prop34
280
     0
102
RTVSPost2010PropOp34
 70
     1
102
RTVSPost2010Prop35
280
     0
102
RTVSPost2010PropOp35
 70
     1
102
RTVSPost2010Prop36
280
     0
102
RTVSPost2010PropOp36
 70
     1
102
RTVSPost2010Prop37
 90
       50
102
RTVSPost2010PropOp37
 70
     0
102
RTVSPost2010Prop38
140
0.0
102
RTVSPost2010PropOp38
 70
     0
102
RTVSPost2010Prop39
140
1.0
102
RTVSPost2010PropOp39
 70
     0
102
RTVSPost2010Prop40
 90
        0
102
RTVSPost2010PropOp40
 70
     0
102
RTVSPost2010Prop41ColorIndex
 90
       18
102
RTVSPost2010Prop41ColorRGB
 90
        0
102
RTVSPost2010PropOp41
 70
     0
102
RTVSPost2010Prop42
 90
       50
102
RTVSPost2010PropOp42
 70
     0
102
RTVSPost2010Prop43
 90
        3
102
RTVSPost2010PropOp43
 70
     0
102
RTVSPost2010Prop44ColorIndex
 90
        5
102
RTVSPost2010Prop44ColorRGB
 90
      255
102
RTVSPost2010PropOp44
 70
     0
102
RTVSPost2010Prop45
280
     0
102
RTVSPost2010PropOp45
 70
     1
102
RTVSPost2010Prop46
 90
       50
102
RTVSPost2010PropOp46
 70
     0
102
RTVSPost2010Prop47
 90
       50
102
RTVSPost2010PropOp47
 70
     0
102
RTVSPost2010Prop48
 90
       50
102
RTVSPost2010PropOp48
 70
     0
102
RTVSPost2010Prop49
280
     0
102
RTVSPost2010PropOp49
 70
     1
102
RTVSPost2010Prop50
 90
       50
102
RTVSPost2010PropOp50
 70
     0
102
RTVSPost2010Prop51ColorIndex
 90
      256
102
RTVSPost2010Prop51ColorRGB
 90
-16777216
102
RTVSPost2010PropOp51
 70
     0
102
RTVSPost2010Prop52
140
1.0
102
RTVSPost2010PropOp52
 70
     0
102
RTVSPost2010Prop53
 90
        2
102
RTVSPost2010PropOp53
 70
     0
102
RTVSPost2010Prop54
  1
strokes_ogs.tif
102
RTVSPost2010PropOp54
 70
     0
102
RTVSPost2010Prop55
280
     0
102
RTVSPost2010PropOp55
 70
     1
102
RTVSPost2010Prop56
140
1.0
102
RTVSPost2010PropOp56
 70
     0
102
RTVSPost2010Prop57
140
1.0
102
RTVSPost2010PropOp57
 70
     0
102
RTVSPropertyOp0
 70
     0
102
RTVSPropertyOp1
 70
     0
102
RTVSPropertyOp2
 70
     0
102
RTVSPropertyOp3
 70
     0
102
RTVSPropertyOp4
 70
     0
102
RTVSPropertyOp5
 70
     0
102
RTVSPropertyOp6
 70
     0
102
RTVSPropertyOp7
 70
     0
102
RTVSPropertyOp8
 70
     0
102
RTVSPropertyOp9
 70
     0
102
RTVSPropertyOp10
 70
     0
102
RTVSPropertyOp11
 70
     0
102
RTVSPropertyOp12
 70
     0
102
RTVSPropertyOp13
 70
     0
102
RTVSPropertyOp14
 70
     2
102
RTVSPropertyOp15
 70
     0
102
RTVSPropertyOp16
 70
     0
102
RTVSPropertyOp17
 70
     0
102
RTVSPropertyOp18
 70
     0
102
RTVSPropertyOp19
 70
     0
102
RTVSPropertyOp20
 70
     0
102
RTVSPropertyOp21
 70
     0
102
RTVSPropertyOp22
 70
     0
102
RTVSPropertyOp23
 70
     0
102
RTVSPropertyOp24
 70
     0
102
RTVSPropertyOp25
 70
     0
102
RTVSPropertyOp26
 70
     0
102
RTVSPropertyOp27
 70
     0
102
RTVSPropertyOp28
 70
     1
102
RTVSPropertyOp29
 70
     1
102
RTVSPropertyOp30
 70
     1
102
RTVSPropertyOp31
 70
     1
102
RTVSPropertyOp32
 70
     1
102
RTVSPropertyOp33
 70
     1
102
RTVSPropertyOp34
 70
     1
102
RTVSPropertyOp35
 70
     1
102
RTVSPropertyOp36
 70
     1
102
RTVSPropertyOp37
 70
     0
102
RTVSPropertyOp38
 70
     0
102
RTVSPropertyOp39
 70
     0
102
RTVSPropertyOp40
 70
     0
102
RTVSPropertyOp41
 70
     0
102
RTVSPropertyOp42
 70
     0
102
RTVSPropertyOp43
 70
     0
102
RTVSPropertyOp44
 70
     0
102
RTVSPropertyOp45
 70
     1
102
RTVSPropertyOp46
 70
     0
102
RTVSPropertyOp47
 70
     0
102
RTVSPropertyOp48
 70
     0
102
RTVSPropertyOp49
 70
     1
102
RTVSPropertyOp50
 70
     0
102
RTVSPropertyOp51
 70
     0
102
RTVSPropertyOp52
 70
     0
102
RTVSPropertyOp53
 70
     0
102
RTVSPropertyOp54
 70
     0
102
RTVSPropertyOp55
 70
     1
102
RTVSPropertyOp56
 70
     0
102
RTVSPropertyOp57
 70
     0
102
RTVSPropertyOp58
 70
     1
102
RTVSPropertyOp59
 70
     1
102
RTVSPropertyOp60
 70
     1
102
RTVSPropertyOp61
 70
     1
102
RTVSPropertyOp62
 70
     1
  0
XRECORD
  5
1CEEC
102
{ACAD_REACTORS
330
1CEEB
102
}
330
1CEEB
100
AcDbXrecord
280
     1
102
RTVSPost2010Prop28
280
     0
102
RTVSPost2010PropOp28
 70
     1
102
RTVSPost2010Prop29
280
     1
102
RTVSPost2010PropOp29
 70
     1
102
RTVSPost2010Prop30
280
     1
102
RTVSPost2010PropOp30
 70
     1
102
RTVSPost2010Prop31
280
     0
102
RTVSPost2010PropOp31
 70
     1
102
RTVSPost2010Prop32
280
     0
102
RTVSPost2010PropOp32
 70
     1
102
RTVSPost2010Prop33
280
     0
102
RTVSPost2010PropOp33
 70
     1
102
RTVSPost2010Prop34
280
     0
102
RTVSPost2010PropOp34
 70
     1
102
RTVSPost2010Prop35
280
     0
102
RTVSPost2010PropOp35
 70
     1
102
RTVSPost2010Prop36
280
     0
102
RTVSPost2010PropOp36
 70
     1
102
RTVSPost2010Prop37
 90
       50
102
RTVSPost2010PropOp37
 70
     1
102
RTVSPost2010Prop38
140
0.0
102
RTVSPost2010PropOp38
 70
     1
102
RTVSPost2010Prop39
140
1.0
102
RTVSPost2010PropOp39
 70
     1
102
RTVSPost2010Prop40
 90
        0
102
RTVSPost2010PropOp40
 70
     1
102
RTVSPost2010Prop41ColorIndex
 90
       18
102
RTVSPost2010Prop41ColorRGB
 90
        0
102
RTVSPost2010PropOp41
 70
     1
102
RTVSPost2010Prop42
 90
       50
102
RTVSPost2010PropOp42
 70
     1
102
RTVSPost2010Prop43
 90
        3
102
RTVSPost2010PropOp43
 70
     1
102
RTVSPost2010Prop44ColorIndex
 90
        5
102
RTVSPost2010Prop44ColorRGB
 90
      255
102
RTVSPost2010PropOp44
 70
     1
102
RTVSPost2010Prop45
280
     0
102
RTVSPost2010PropOp45
 70
     1
102
RTVSPost2010Prop46
 90
       50
102
RTVSPost2010PropOp46
 70
     1
102
RTVSPost2010Prop47
 90
       50
102
RTVSPost2010PropOp47
 70
     1
102
RTVSPost2010Prop48
 90
       50
102
RTVSPost2010PropOp48
 70
     1
102
RTVSPost2010Prop49
280
     0
102
RTVSPost2010PropOp49
 70
     1
102
RTVSPost2010Prop50
 90
       50
102
RTVSPost2010PropOp50
 70
     1
102
RTVSPost2010Prop51ColorIndex
 90
      256
102
RTVSPost2010Prop51ColorRGB
 90
-16777216
102
RTVSPost2010PropOp51
 70
     0
102
RTVSPost2010Prop52
140
1.0
102
RTVSPost2010PropOp52
 70
     0
102
RTVSPost2010Prop53
 90
        2
102
RTVSPost2010PropOp53
 70
     1
102
RTVSPost2010Prop54
  1
strokes_ogs.tif
102
RTVSPost2010PropOp54
 70
     1
102
RTVSPost2010Prop55
280
     0
102
RTVSPost2010PropOp55
 70
     1
102
RTVSPost2010Prop56
140
1.0
102
RTVSPost2010PropOp56
 70
     1
102
RTVSPost2010Prop57
140
1.0
102
RTVSPost2010PropOp57
 70
     1
102
RTVSPropertyOp0
 70
     1
102
RTVSPropertyOp1
 70
     1
102
RTVSPropertyOp2
 70
     1
102
RTVSPropertyOp3
 70
     1
102
RTVSPropertyOp4
 70
     1
102
RTVSPropertyOp5
 70
     1
102
RTVSPropertyOp6
 70
     1
102
RTVSPropertyOp7
 70
     1
102
RTVSPropertyOp8
 70
     1
102
RTVSPropertyOp9
 70
     1
102
RTVSPropertyOp10
 70
     1
102
RTVSPropertyOp11
 70
     1
102
RTVSPropertyOp12
 70
     1
102
RTVSPropertyOp13
 70
     1
102
RTVSPropertyOp14
 70
     1
102
RTVSPropertyOp15
 70
     1
102
RTVSPropertyOp16
 70
     1
102
RTVSPropertyOp17
 70
     1
102
RTVSPropertyOp18
 70
     1
102
RTVSPropertyOp19
 70
     1
102
RTVSPropertyOp20
 70
     1
102
RTVSPropertyOp21
 70
     1
102
RTVSPropertyOp22
 70
     1
102
RTVSPropertyOp23
 70
     1
102
RTVSPropertyOp24
 70
     1
102
RTVSPropertyOp25
 70
     1
102
RTVSPropertyOp26
 70
     1
102
RTVSPropertyOp27
 70
     1
102
RTVSPropertyOp28
 70
     1
102
RTVSPropertyOp29
 70
     1
102
RTVSPropertyOp30
 70
     1
102
RTVSPropertyOp31
 70
     1
102
RTVSPropertyOp32
 70
     1
102
RTVSPropertyOp33
 70
     1
102
RTVSPropertyOp34
 70
     1
102
RTVSPropertyOp35
 70
     1
102
RTVSPropertyOp36
 70
     1
102
RTVSPropertyOp37
 70
     1
102
RTVSPropertyOp38
 70
     1
102
RTVSPropertyOp39
 70
     1
102
RTVSPropertyOp40
 70
     1
102
RTVSPropertyOp41
 70
     1
102
RTVSPropertyOp42
 70
     1
102
RTVSPropertyOp43
 70
     1
102
RTVSPropertyOp44
 70
     1
102
RTVSPropertyOp45
 70
     1
102
RTVSPropertyOp46
 70
     1
102
RTVSPropertyOp47
 70
     1
102
RTVSPropertyOp48
 70
     1
102
RTVSPropertyOp49
 70
     1
102
RTVSPropertyOp50
 70
     1
102
RTVSPropertyOp51
 70
     0
102
RTVSPropertyOp52
 70
     0
102
RTVSPropertyOp53
 70
     1
102
RTVSPropertyOp54
 70
     1
102
RTVSPropertyOp55
 70
     1
102
RTVSPropertyOp56
 70
     1
102
RTVSPropertyOp57
 70
     1
102
RTVSPropertyOp58
 70
     1
102
RTVSPropertyOp59
 70
     1
102
RTVSPropertyOp60
 70
     1
102
RTVSPropertyOp61
 70
     1
102
RTVSPropertyOp62
 70
     1
  0
XRECORD
  5
1CEFE
102
{ACAD_REACTORS
330
1CEFD
102
}
330
1CEFD
100
AcDbXrecord
280
     1
102
RTVSPost2010Prop28
280
     0
102
RTVSPost2010PropOp28
 70
     1
102
RTVSPost2010Prop29
280
     1
102
RTVSPost2010PropOp29
 70
     1
102
RTVSPost2010Prop30
280
     1
102
RTVSPost2010PropOp30
 70
     1
102
RTVSPost2010Prop31
280
     0
102
RTVSPost2010PropOp31
 70
     1
102
RTVSPost2010Prop32
280
     0
102
RTVSPost2010PropOp32
 70
     1
102
RTVSPost2010Prop33
280
     0
102
RTVSPost2010PropOp33
 70
     1
102
RTVSPost2010Prop34
280
     0
102
RTVSPost2010PropOp34
 70
     1
102
RTVSPost2010Prop35
280
     0
102
RTVSPost2010PropOp35
 70
     1
102
RTVSPost2010Prop36
280
     0
102
RTVSPost2010PropOp36
 70
     1
102
RTVSPost2010Prop37
 90
       50
102
RTVSPost2010PropOp37
 70
     0
102
RTVSPost2010Prop38
140
0.0
102
RTVSPost2010PropOp38
 70
     0
102
RTVSPost2010Prop39
140
1.0
102
RTVSPost2010PropOp39
 70
     0
102
RTVSPost2010Prop40
 90
        0
102
RTVSPost2010PropOp40
 70
     0
102
RTVSPost2010Prop41ColorIndex
 90
       18
102
RTVSPost2010Prop41ColorRGB
 90
        0
102
RTVSPost2010PropOp41
 70
     0
102
RTVSPost2010Prop42
 90
       50
102
RTVSPost2010PropOp42
 70
     0
102
RTVSPost2010Prop43
 90
        3
102
RTVSPost2010PropOp43
 70
     0
102
RTVSPost2010Prop44ColorIndex
 90
        5
102
RTVSPost2010Prop44ColorRGB
 90
      255
102
RTVSPost2010PropOp44
 70
     0
102
RTVSPost2010Prop45
280
     0
102
RTVSPost2010PropOp45
 70
     1
102
RTVSPost2010Prop46
 90
       50
102
RTVSPost2010PropOp46
 70
     0
102
RTVSPost2010Prop47
 90
       50
102
RTVSPost2010PropOp47
 70
     0
102
RTVSPost2010Prop48
 90
       50
102
RTVSPost2010PropOp48
 70
     0
102
RTVSPost2010Prop49
280
     0
102
RTVSPost2010PropOp49
 70
     1
102
RTVSPost2010Prop50
 90
       50
102
RTVSPost2010PropOp50
 70
     0
102
RTVSPost2010Prop51ColorIndex
 90
      256
102
RTVSPost2010Prop51ColorRGB
 90
-16777216
102
RTVSPost2010PropOp51
 70
     0
102
RTVSPost2010Prop52
140
1.0
102
RTVSPost2010PropOp52
 70
     0
102
RTVSPost2010Prop53
 90
        2
102
RTVSPost2010PropOp53
 70
     0
102
RTVSPost2010Prop54
  1
strokes_ogs.tif
102
RTVSPost2010PropOp54
 70
     0
102
RTVSPost2010Prop55
280
     0
102
RTVSPost2010PropOp55
 70
     1
102
RTVSPost2010Prop56
140
1.0
102
RTVSPost2010PropOp56
 70
     0
102
RTVSPost2010Prop57
140
1.0
102
RTVSPost2010PropOp57
 70
     0
102
RTVSPropertyOp0
 70
     0
102
RTVSPropertyOp1
 70
     0
102
RTVSPropertyOp2
 70
     0
102
RTVSPropertyOp3
 70
     0
102
RTVSPropertyOp4
 70
     0
102
RTVSPropertyOp5
 70
     0
102
RTVSPropertyOp6
 70
     0
102
RTVSPropertyOp7
 70
     0
102
RTVSPropertyOp8
 70
     0
102
RTVSPropertyOp9
 70
     0
102
RTVSPropertyOp10
 70
     0
102
RTVSPropertyOp11
 70
     0
102
RTVSPropertyOp12
 70
     0
102
RTVSPropertyOp13
 70
     0
102
RTVSPropertyOp14
 70
     2
102
RTVSPropertyOp15
 70
     0
102
RTVSPropertyOp16
 70
     0
102
RTVSPropertyOp17
 70
     0
102
RTVSPropertyOp18
 70
     0
102
RTVSPropertyOp19
 70
     0
102
RTVSPropertyOp20
 70
     0
102
RTVSPropertyOp21
 70
     0
102
RTVSPropertyOp22
 70
     0
102
RTVSPropertyOp23
 70
     0
102
RTVSPropertyOp24
 70
     0
102
RTVSPropertyOp25
 70
     0
102
RTVSPropertyOp26
 70
     0
102
RTVSPropertyOp27
 70
     0
102
RTVSPropertyOp28
 70
     1
102
RTVSPropertyOp29
 70
     1
102
RTVSPropertyOp30
 70
     1
102
RTVSPropertyOp31
 70
     1
102
RTVSPropertyOp32
 70
     1
102
RTVSPropertyOp33
 70
     1
102
RTVSPropertyOp34
 70
     1
102
RTVSPropertyOp35
 70
     1
102
RTVSPropertyOp36
 70
     1
102
RTVSPropertyOp37
 70
     0
102
RTVSPropertyOp38
 70
     0
102
RTVSPropertyOp39
 70
     0
102
RTVSPropertyOp40
 70
     0
102
RTVSPropertyOp41
 70
     0
102
RTVSPropertyOp42
 70
     0
102
RTVSPropertyOp43
 70
     0
102
RTVSPropertyOp44
 70
     0
102
RTVSPropertyOp45
 70
     1
102
RTVSPropertyOp46
 70
     0
102
RTVSPropertyOp47
 70
     0
102
RTVSPropertyOp48
 70
     0
102
RTVSPropertyOp49
 70
     1
102
RTVSPropertyOp50
 70
     0
102
RTVSPropertyOp51
 70
     0
102
RTVSPropertyOp52
 70
     0
102
RTVSPropertyOp53
 70
     0
102
RTVSPropertyOp54
 70
     0
102
RTVSPropertyOp55
 70
     1
102
RTVSPropertyOp56
 70
     0
102
RTVSPropertyOp57
 70
     0
102
RTVSPropertyOp58
 70
     1
102
RTVSPropertyOp59
 70
     1
102
RTVSPropertyOp60
 70
     1
102
RTVSPropertyOp61
 70
     1
102
RTVSPropertyOp62
 70
     1
  0
XRECORD
  5
1CEE4
102
{ACAD_REACTORS
330
1CEE3
102
}
330
1CEE3
100
AcDbXrecord
280
     1
102
RTVSPost2010Prop28
280
     0
102
RTVSPost2010PropOp28
 70
     1
102
RTVSPost2010Prop29
280
     1
102
RTVSPost2010PropOp29
 70
     1
102
RTVSPost2010Prop30
280
     1
102
RTVSPost2010PropOp30
 70
     1
102
RTVSPost2010Prop31
280
     0
102
RTVSPost2010PropOp31
 70
     1
102
RTVSPost2010Prop32
280
     0
102
RTVSPost2010PropOp32
 70
     1
102
RTVSPost2010Prop33
280
     0
102
RTVSPost2010PropOp33
 70
     1
102
RTVSPost2010Prop34
280
     0
102
RTVSPost2010PropOp34
 70
     1
102
RTVSPost2010Prop35
280
     0
102
RTVSPost2010PropOp35
 70
     1
102
RTVSPost2010Prop36
280
     0
102
RTVSPost2010PropOp36
 70
     1
102
RTVSPost2010Prop37
 90
       50
102
RTVSPost2010PropOp37
 70
     1
102
RTVSPost2010Prop38
140
0.0
102
RTVSPost2010PropOp38
 70
     1
102
RTVSPost2010Prop39
140
1.0
102
RTVSPost2010PropOp39
 70
     1
102
RTVSPost2010Prop40
 90
        0
102
RTVSPost2010PropOp40
 70
     1
102
RTVSPost2010Prop41ColorIndex
 90
       18
102
RTVSPost2010Prop41ColorRGB
 90
        0
102
RTVSPost2010PropOp41
 70
     1
102
RTVSPost2010Prop42
 90
       50
102
RTVSPost2010PropOp42
 70
     1
102
RTVSPost2010Prop43
 90
        3
102
RTVSPost2010PropOp43
 70
     1
102
RTVSPost2010Prop44ColorIndex
 90
        5
102
RTVSPost2010Prop44ColorRGB
 90
      255
102
RTVSPost2010PropOp44
 70
     1
102
RTVSPost2010Prop45
280
     0
102
RTVSPost2010PropOp45
 70
     1
102
RTVSPost2010Prop46
 90
       50
102
RTVSPost2010PropOp46
 70
     1
102
RTVSPost2010Prop47
 90
       50
102
RTVSPost2010PropOp47
 70
     1
102
RTVSPost2010Prop48
 90
       50
102
RTVSPost2010PropOp48
 70
     1
102
RTVSPost2010Prop49
280
     0
102
RTVSPost2010PropOp49
 70
     1
102
RTVSPost2010Prop50
 90
       50
102
RTVSPost2010PropOp50
 70
     1
102
RTVSPost2010Prop51ColorIndex
 90
      256
102
RTVSPost2010Prop51ColorRGB
 90
-16777216
102
RTVSPost2010PropOp51
 70
     0
102
RTVSPost2010Prop52
140
1.0
102
RTVSPost2010PropOp52
 70
     0
102
RTVSPost2010Prop53
 90
        2
102
RTVSPost2010PropOp53
 70
     1
102
RTVSPost2010Prop54
  1
strokes_ogs.tif
102
RTVSPost2010PropOp54
 70
     1
102
RTVSPost2010Prop55
280
     0
102
RTVSPost2010PropOp55
 70
     1
102
RTVSPost2010Prop56
140
1.0
102
RTVSPost2010PropOp56
 70
     1
102
RTVSPost2010Prop57
140
1.0
102
RTVSPost2010PropOp57
 70
     1
102
RTVSPropertyOp0
 70
     1
102
RTVSPropertyOp1
 70
     1
102
RTVSPropertyOp2
 70
     1
102
RTVSPropertyOp3
 70
     1
102
RTVSPropertyOp4
 70
     1
102
RTVSPropertyOp5
 70
     1
102
RTVSPropertyOp6
 70
     1
102
RTVSPropertyOp7
 70
     1
102
RTVSPropertyOp8
 70
     1
102
RTVSPropertyOp9
 70
     1
102
RTVSPropertyOp10
 70
     1
102
RTVSPropertyOp11
 70
     1
102
RTVSPropertyOp12
 70
     1
102
RTVSPropertyOp13
 70
     1
102
RTVSPropertyOp14
 70
     1
102
RTVSPropertyOp15
 70
     1
102
RTVSPropertyOp16
 70
     1
102
RTVSPropertyOp17
 70
     1
102
RTVSPropertyOp18
 70
     1
102
RTVSPropertyOp19
 70
     1
102
RTVSPropertyOp20
 70
     1
102
RTVSPropertyOp21
 70
     1
102
RTVSPropertyOp22
 70
     1
102
RTVSPropertyOp23
 70
     1
102
RTVSPropertyOp24
 70
     1
102
RTVSPropertyOp25
 70
     1
102
RTVSPropertyOp26
 70
     1
102
RTVSPropertyOp27
 70
     1
102
RTVSPropertyOp28
 70
     1
102
RTVSPropertyOp29
 70
     1
102
RTVSPropertyOp30
 70
     1
102
RTVSPropertyOp31
 70
     1
102
RTVSPropertyOp32
 70
     1
102
RTVSPropertyOp33
 70
     1
102
RTVSPropertyOp34
 70
     1
102
RTVSPropertyOp35
 70
     1
102
RTVSPropertyOp36
 70
     1
102
RTVSPropertyOp37
 70
     1
102
RTVSPropertyOp38
 70
     1
102
RTVSPropertyOp39
 70
     1
102
RTVSPropertyOp40
 70
     1
102
RTVSPropertyOp41
 70
     1
102
RTVSPropertyOp42
 70
     1
102
RTVSPropertyOp43
 70
     1
102
RTVSPropertyOp44
 70
     1
102
RTVSPropertyOp45
 70
     1
102
RTVSPropertyOp46
 70
     1
102
RTVSPropertyOp47
 70
     1
102
RTVSPropertyOp48
 70
     1
102
RTVSPropertyOp49
 70
     1
102
RTVSPropertyOp50
 70
     1
102
RTVSPropertyOp51
 70
     0
102
RTVSPropertyOp52
 70
     0
102
RTVSPropertyOp53
 70
     1
102
RTVSPropertyOp54
 70
     1
102
RTVSPropertyOp55
 70
     1
102
RTVSPropertyOp56
 70
     1
102
RTVSPropertyOp57
 70
     1
102
RTVSPropertyOp58
 70
     1
102
RTVSPropertyOp59
 70
     1
102
RTVSPropertyOp60
 70
     1
102
RTVSPropertyOp61
 70
     1
102
RTVSPropertyOp62
 70
     1
  0
XRECORD
  5
1CEFA
102
{ACAD_REACTORS
330
1CEF9
102
}
330
1CEF9
100
AcDbXrecord
280
     1
102
RTVSPost2010Prop28
280
     0
102
RTVSPost2010PropOp28
 70
     1
102
RTVSPost2010Prop29
280
     1
102
RTVSPost2010PropOp29
 70
     1
102
RTVSPost2010Prop30
280
     1
102
RTVSPost2010PropOp30
 70
     1
102
RTVSPost2010Prop31
280
     0
102
RTVSPost2010PropOp31
 70
     1
102
RTVSPost2010Prop32
280
     0
102
RTVSPost2010PropOp32
 70
     1
102
RTVSPost2010Prop33
280
     0
102
RTVSPost2010PropOp33
 70
     1
102
RTVSPost2010Prop34
280
     0
102
RTVSPost2010PropOp34
 70
     1
102
RTVSPost2010Prop35
280
     0
102
RTVSPost2010PropOp35
 70
     1
102
RTVSPost2010Prop36
280
     0
102
RTVSPost2010PropOp36
 70
     1
102
RTVSPost2010Prop37
 90
       50
102
RTVSPost2010PropOp37
 70
     1
102
RTVSPost2010Prop38
140
0.0
102
RTVSPost2010PropOp38
 70
     1
102
RTVSPost2010Prop39
140
1.0
102
RTVSPost2010PropOp39
 70
     1
102
RTVSPost2010Prop40
 90
        0
102
RTVSPost2010PropOp40
 70
     1
102
RTVSPost2010Prop41ColorIndex
 90
       18
102
RTVSPost2010Prop41ColorRGB
 90
        0
102
RTVSPost2010PropOp41
 70
     1
102
RTVSPost2010Prop42
 90
       50
102
RTVSPost2010PropOp42
 70
     1
102
RTVSPost2010Prop43
 90
        3
102
RTVSPost2010PropOp43
 70
     1
102
RTVSPost2010Prop44ColorIndex
 90
        5
102
RTVSPost2010Prop44ColorRGB
 90
      255
102
RTVSPost2010PropOp44
 70
     1
102
RTVSPost2010Prop45
280
     0
102
RTVSPost2010PropOp45
 70
     1
102
RTVSPost2010Prop46
 90
       50
102
RTVSPost2010PropOp46
 70
     1
102
RTVSPost2010Prop47
 90
       50
102
RTVSPost2010PropOp47
 70
     1
102
RTVSPost2010Prop48
 90
       50
102
RTVSPost2010PropOp48
 70
     1
102
RTVSPost2010Prop49
280
     0
102
RTVSPost2010PropOp49
 70
     1
102
RTVSPost2010Prop50
 90
       50
102
RTVSPost2010PropOp50
 70
     1
102
RTVSPost2010Prop51ColorIndex
 90
      256
102
RTVSPost2010Prop51ColorRGB
 90
-16777216
102
RTVSPost2010PropOp51
 70
     0
102
RTVSPost2010Prop52
140
1.0
102
RTVSPost2010PropOp52
 70
     0
102
RTVSPost2010Prop53
 90
        2
102
RTVSPost2010PropOp53
 70
     1
102
RTVSPost2010Prop54
  1
strokes_ogs.tif
102
RTVSPost2010PropOp54
 70
     1
102
RTVSPost2010Prop55
280
     0
102
RTVSPost2010PropOp55
 70
     1
102
RTVSPost2010Prop56
140
1.0
102
RTVSPost2010PropOp56
 70
     1
102
RTVSPost2010Prop57
140
1.0
102
RTVSPost2010PropOp57
 70
     1
102
RTVSPropertyOp0
 70
     1
102
RTVSPropertyOp1
 70
     1
102
RTVSPropertyOp2
 70
     1
102
RTVSPropertyOp3
 70
     1
102
RTVSPropertyOp4
 70
     1
102
RTVSPropertyOp5
 70
     1
102
RTVSPropertyOp6
 70
     1
102
RTVSPropertyOp7
 70
     1
102
RTVSPropertyOp8
 70
     1
102
RTVSPropertyOp9
 70
     1
102
RTVSPropertyOp10
 70
     1
102
RTVSPropertyOp11
 70
     1
102
RTVSPropertyOp12
 70
     1
102
RTVSPropertyOp13
 70
     1
102
RTVSPropertyOp14
 70
     1
102
RTVSPropertyOp15
 70
     1
102
RTVSPropertyOp16
 70
     1
102
RTVSPropertyOp17
 70
     1
102
RTVSPropertyOp18
 70
     1
102
RTVSPropertyOp19
 70
     1
102
RTVSPropertyOp20
 70
     1
102
RTVSPropertyOp21
 70
     1
102
RTVSPropertyOp22
 70
     1
102
RTVSPropertyOp23
 70
     1
102
RTVSPropertyOp24
 70
     1
102
RTVSPropertyOp25
 70
     1
102
RTVSPropertyOp26
 70
     1
102
RTVSPropertyOp27
 70
     1
102
RTVSPropertyOp28
 70
     1
102
RTVSPropertyOp29
 70
     1
102
RTVSPropertyOp30
 70
     1
102
RTVSPropertyOp31
 70
     1
102
RTVSPropertyOp32
 70
     1
102
RTVSPropertyOp33
 70
     1
102
RTVSPropertyOp34
 70
     1
102
RTVSPropertyOp35
 70
     1
102
RTVSPropertyOp36
 70
     1
102
RTVSPropertyOp37
 70
     1
102
RTVSPropertyOp38
 70
     1
102
RTVSPropertyOp39
 70
     1
102
RTVSPropertyOp40
 70
     1
102
RTVSPropertyOp41
 70
     1
102
RTVSPropertyOp42
 70
     1
102
RTVSPropertyOp43
 70
     1
102
RTVSPropertyOp44
 70
     1
102
RTVSPropertyOp45
 70
     1
102
RTVSPropertyOp46
 70
     1
102
RTVSPropertyOp47
 70
     1
102
RTVSPropertyOp48
 70
     1
102
RTVSPropertyOp49
 70
     1
102
RTVSPropertyOp50
 70
     1
102
RTVSPropertyOp51
 70
     0
102
RTVSPropertyOp52
 70
     0
102
RTVSPropertyOp53
 70
     1
102
RTVSPropertyOp54
 70
     1
102
RTVSPropertyOp55
 70
     1
102
RTVSPropertyOp56
 70
     1
102
RTVSPropertyOp57
 70
     1
102
RTVSPropertyOp58
 70
     1
102
RTVSPropertyOp59
 70
     1
102
RTVSPropertyOp60
 70
     1
102
RTVSPropertyOp61
 70
     1
102
RTVSPropertyOp62
 70
     1
  0
XRECORD
  5
1CEF8
102
{ACAD_REACTORS
330
1CEF7
102
}
330
1CEF7
100
AcDbXrecord
280
     1
102
RTVSPost2010Prop28
280
     0
102
RTVSPost2010PropOp28
 70
     1
102
RTVSPost2010Prop29
280
     1
102
RTVSPost2010PropOp29
 70
     1
102
RTVSPost2010Prop30
280
     1
102
RTVSPost2010PropOp30
 70
     1
102
RTVSPost2010Prop31
280
     0
102
RTVSPost2010PropOp31
 70
     1
102
RTVSPost2010Prop32
280
     0
102
RTVSPost2010PropOp32
 70
     1
102
RTVSPost2010Prop33
280
     0
102
RTVSPost2010PropOp33
 70
     1
102
RTVSPost2010Prop34
280
     0
102
RTVSPost2010PropOp34
 70
     1
102
RTVSPost2010Prop35
280
     0
102
RTVSPost2010PropOp35
 70
     1
102
RTVSPost2010Prop36
280
     0
102
RTVSPost2010PropOp36
 70
     1
102
RTVSPost2010Prop37
 90
       50
102
RTVSPost2010PropOp37
 70
     1
102
RTVSPost2010Prop38
140
0.0
102
RTVSPost2010PropOp38
 70
     1
102
RTVSPost2010Prop39
140
1.0
102
RTVSPost2010PropOp39
 70
     1
102
RTVSPost2010Prop40
 90
        0
102
RTVSPost2010PropOp40
 70
     1
102
RTVSPost2010Prop41ColorIndex
 90
       18
102
RTVSPost2010Prop41ColorRGB
 90
        0
102
RTVSPost2010PropOp41
 70
     1
102
RTVSPost2010Prop42
 90
       50
102
RTVSPost2010PropOp42
 70
     1
102
RTVSPost2010Prop43
 90
        3
102
RTVSPost2010PropOp43
 70
     1
102
RTVSPost2010Prop44ColorIndex
 90
        5
102
RTVSPost2010Prop44ColorRGB
 90
      255
102
RTVSPost2010PropOp44
 70
     1
102
RTVSPost2010Prop45
280
     0
102
RTVSPost2010PropOp45
 70
     1
102
RTVSPost2010Prop46
 90
       50
102
RTVSPost2010PropOp46
 70
     1
102
RTVSPost2010Prop47
 90
       50
102
RTVSPost2010PropOp47
 70
     1
102
RTVSPost2010Prop48
 90
       50
102
RTVSPost2010PropOp48
 70
     1
102
RTVSPost2010Prop49
280
     0
102
RTVSPost2010PropOp49
 70
     1
102
RTVSPost2010Prop50
 90
       50
102
RTVSPost2010PropOp50
 70
     1
102
RTVSPost2010Prop51ColorIndex
 90
      256
102
RTVSPost2010Prop51ColorRGB
 90
-16777216
102
RTVSPost2010PropOp51
 70
     0
102
RTVSPost2010Prop52
140
1.0
102
RTVSPost2010PropOp52
 70
     0
102
RTVSPost2010Prop53
 90
        2
102
RTVSPost2010PropOp53
 70
     1
102
RTVSPost2010Prop54
  1
strokes_ogs.tif
102
RTVSPost2010PropOp54
 70
     1
102
RTVSPost2010Prop55
280
     0
102
RTVSPost2010PropOp55
 70
     1
102
RTVSPost2010Prop56
140
1.0
102
RTVSPost2010PropOp56
 70
     1
102
RTVSPost2010Prop57
140
1.0
102
RTVSPost2010PropOp57
 70
     1
102
RTVSPropertyOp0
 70
     1
102
RTVSPropertyOp1
 70
     1
102
RTVSPropertyOp2
 70
     1
102
RTVSPropertyOp3
 70
     1
102
RTVSPropertyOp4
 70
     1
102
RTVSPropertyOp5
 70
     1
102
RTVSPropertyOp6
 70
     1
102
RTVSPropertyOp7
 70
     1
102
RTVSPropertyOp8
 70
     1
102
RTVSPropertyOp9
 70
     1
102
RTVSPropertyOp10
 70
     1
102
RTVSPropertyOp11
 70
     1
102
RTVSPropertyOp12
 70
     1
102
RTVSPropertyOp13
 70
     1
102
RTVSPropertyOp14
 70
     1
102
RTVSPropertyOp15
 70
     1
102
RTVSPropertyOp16
 70
     1
102
RTVSPropertyOp17
 70
     1
102
RTVSPropertyOp18
 70
     1
102
RTVSPropertyOp19
 70
     1
102
RTVSPropertyOp20
 70
     1
102
RTVSPropertyOp21
 70
     1
102
RTVSPropertyOp22
 70
     1
102
RTVSPropertyOp23
 70
     1
102
RTVSPropertyOp24
 70
     1
102
RTVSPropertyOp25
 70
     1
102
RTVSPropertyOp26
 70
     1
102
RTVSPropertyOp27
 70
     1
102
RTVSPropertyOp28
 70
     1
102
RTVSPropertyOp29
 70
     1
102
RTVSPropertyOp30
 70
     1
102
RTVSPropertyOp31
 70
     1
102
RTVSPropertyOp32
 70
     1
102
RTVSPropertyOp33
 70
     1
102
RTVSPropertyOp34
 70
     1
102
RTVSPropertyOp35
 70
     1
102
RTVSPropertyOp36
 70
     1
102
RTVSPropertyOp37
 70
     1
102
RTVSPropertyOp38
 70
     1
102
RTVSPropertyOp39
 70
     1
102
RTVSPropertyOp40
 70
     1
102
RTVSPropertyOp41
 70
     1
102
RTVSPropertyOp42
 70
     1
102
RTVSPropertyOp43
 70
     1
102
RTVSPropertyOp44
 70
     1
102
RTVSPropertyOp45
 70
     1
102
RTVSPropertyOp46
 70
     1
102
RTVSPropertyOp47
 70
     1
102
RTVSPropertyOp48
 70
     1
102
RTVSPropertyOp49
 70
     1
102
RTVSPropertyOp50
 70
     1
102
RTVSPropertyOp51
 70
     0
102
RTVSPropertyOp52
 70
     0
102
RTVSPropertyOp53
 70
     1
102
RTVSPropertyOp54
 70
     1
102
RTVSPropertyOp55
 70
     1
102
RTVSPropertyOp56
 70
     1
102
RTVSPropertyOp57
 70
     1
102
RTVSPropertyOp58
 70
     1
102
RTVSPropertyOp59
 70
     1
102
RTVSPropertyOp60
 70
     1
102
RTVSPropertyOp61
 70
     1
102
RTVSPropertyOp62
 70
     1
  0
XRECORD
  5
1CEF2
102
{ACAD_REACTORS
330
1CEF1
102
}
330
1CEF1
100
AcDbXrecord
280
     1
102
RTVSPost2010Prop28
280
     0
102
RTVSPost2010PropOp28
 70
     1
102
RTVSPost2010Prop29
280
     1
102
RTVSPost2010PropOp29
 70
     1
102
RTVSPost2010Prop30
280
     1
102
RTVSPost2010PropOp30
 70
     1
102
RTVSPost2010Prop31
280
     0
102
RTVSPost2010PropOp31
 70
     1
102
RTVSPost2010Prop32
280
     0
102
RTVSPost2010PropOp32
 70
     1
102
RTVSPost2010Prop33
280
     0
102
RTVSPost2010PropOp33
 70
     1
102
RTVSPost2010Prop34
280
     0
102
RTVSPost2010PropOp34
 70
     1
102
RTVSPost2010Prop35
280
     0
102
RTVSPost2010PropOp35
 70
     1
102
RTVSPost2010Prop36
280
     0
102
RTVSPost2010PropOp36
 70
     1
102
RTVSPost2010Prop37
 90
       50
102
RTVSPost2010PropOp37
 70
     1
102
RTVSPost2010Prop38
140
0.0
102
RTVSPost2010PropOp38
 70
     1
102
RTVSPost2010Prop39
140
1.0
102
RTVSPost2010PropOp39
 70
     1
102
RTVSPost2010Prop40
 90
        0
102
RTVSPost2010PropOp40
 70
     1
102
RTVSPost2010Prop41ColorIndex
 90
       18
102
RTVSPost2010Prop41ColorRGB
 90
        0
102
RTVSPost2010PropOp41
 70
     1
102
RTVSPost2010Prop42
 90
       50
102
RTVSPost2010PropOp42
 70
     1
102
RTVSPost2010Prop43
 90
        3
102
RTVSPost2010PropOp43
 70
     1
102
RTVSPost2010Prop44ColorIndex
 90
        5
102
RTVSPost2010Prop44ColorRGB
 90
      255
102
RTVSPost2010PropOp44
 70
     1
102
RTVSPost2010Prop45
280
     0
102
RTVSPost2010PropOp45
 70
     1
102
RTVSPost2010Prop46
 90
       50
102
RTVSPost2010PropOp46
 70
     1
102
RTVSPost2010Prop47
 90
       50
102
RTVSPost2010PropOp47
 70
     1
102
RTVSPost2010Prop48
 90
       50
102
RTVSPost2010PropOp48
 70
     1
102
RTVSPost2010Prop49
280
     0
102
RTVSPost2010PropOp49
 70
     1
102
RTVSPost2010Prop50
 90
       50
102
RTVSPost2010PropOp50
 70
     1
102
RTVSPost2010Prop51ColorIndex
 90
      256
102
RTVSPost2010Prop51ColorRGB
 90
-16777216
102
RTVSPost2010PropOp51
 70
     0
102
RTVSPost2010Prop52
140
1.0
102
RTVSPost2010PropOp52
 70
     0
102
RTVSPost2010Prop53
 90
        2
102
RTVSPost2010PropOp53
 70
     1
102
RTVSPost2010Prop54
  1
strokes_ogs.tif
102
RTVSPost2010PropOp54
 70
     1
102
RTVSPost2010Prop55
280
     0
102
RTVSPost2010PropOp55
 70
     1
102
RTVSPost2010Prop56
140
1.0
102
RTVSPost2010PropOp56
 70
     1
102
RTVSPost2010Prop57
140
1.0
102
RTVSPost2010PropOp57
 70
     1
102
RTVSPropertyOp0
 70
     1
102
RTVSPropertyOp1
 70
     1
102
RTVSPropertyOp2
 70
     1
102
RTVSPropertyOp3
 70
     1
102
RTVSPropertyOp4
 70
     1
102
RTVSPropertyOp5
 70
     1
102
RTVSPropertyOp6
 70
     1
102
RTVSPropertyOp7
 70
     1
102
RTVSPropertyOp8
 70
     1
102
RTVSPropertyOp9
 70
     1
102
RTVSPropertyOp10
 70
     1
102
RTVSPropertyOp11
 70
     1
102
RTVSPropertyOp12
 70
     1
102
RTVSPropertyOp13
 70
     1
102
RTVSPropertyOp14
 70
     1
102
RTVSPropertyOp15
 70
     1
102
RTVSPropertyOp16
 70
     1
102
RTVSPropertyOp17
 70
     1
102
RTVSPropertyOp18
 70
     1
102
RTVSPropertyOp19
 70
     1
102
RTVSPropertyOp20
 70
     1
102
RTVSPropertyOp21
 70
     1
102
RTVSPropertyOp22
 70
     1
102
RTVSPropertyOp23
 70
     1
102
RTVSPropertyOp24
 70
     1
102
RTVSPropertyOp25
 70
     1
102
RTVSPropertyOp26
 70
     1
102
RTVSPropertyOp27
 70
     1
102
RTVSPropertyOp28
 70
     1
102
RTVSPropertyOp29
 70
     1
102
RTVSPropertyOp30
 70
     1
102
RTVSPropertyOp31
 70
     1
102
RTVSPropertyOp32
 70
     1
102
RTVSPropertyOp33
 70
     1
102
RTVSPropertyOp34
 70
     1
102
RTVSPropertyOp35
 70
     1
102
RTVSPropertyOp36
 70
     1
102
RTVSPropertyOp37
 70
     1
102
RTVSPropertyOp38
 70
     1
102
RTVSPropertyOp39
 70
     1
102
RTVSPropertyOp40
 70
     1
102
RTVSPropertyOp41
 70
     1
102
RTVSPropertyOp42
 70
     1
102
RTVSPropertyOp43
 70
     1
102
RTVSPropertyOp44
 70
     1
102
RTVSPropertyOp45
 70
     1
102
RTVSPropertyOp46
 70
     1
102
RTVSPropertyOp47
 70
     1
102
RTVSPropertyOp48
 70
     1
102
RTVSPropertyOp49
 70
     1
102
RTVSPropertyOp50
 70
     1
102
RTVSPropertyOp51
 70
     0
102
RTVSPropertyOp52
 70
     0
102
RTVSPropertyOp53
 70
     1
102
RTVSPropertyOp54
 70
     1
102
RTVSPropertyOp55
 70
     1
102
RTVSPropertyOp56
 70
     1
102
RTVSPropertyOp57
 70
     1
102
RTVSPropertyOp58
 70
     1
102
RTVSPropertyOp59
 70
     1
102
RTVSPropertyOp60
 70
     1
102
RTVSPropertyOp61
 70
     1
102
RTVSPropertyOp62
 70
     1
  0
XRECORD
  5
1CEF4
102
{ACAD_REACTORS
330
1CEF3
102
}
330
1CEF3
100
AcDbXrecord
280
     1
102
RTVSPost2010Prop28
280
     0
102
RTVSPost2010PropOp28
 70
     1
102
RTVSPost2010Prop29
280
     1
102
RTVSPost2010PropOp29
 70
     1
102
RTVSPost2010Prop30
280
     1
102
RTVSPost2010PropOp30
 70
     1
102
RTVSPost2010Prop31
280
     0
102
RTVSPost2010PropOp31
 70
     1
102
RTVSPost2010Prop32
280
     0
102
RTVSPost2010PropOp32
 70
     1
102
RTVSPost2010Prop33
280
     0
102
RTVSPost2010PropOp33
 70
     1
102
RTVSPost2010Prop34
280
     0
102
RTVSPost2010PropOp34
 70
     1
102
RTVSPost2010Prop35
280
     0
102
RTVSPost2010PropOp35
 70
     1
102
RTVSPost2010Prop36
280
     0
102
RTVSPost2010PropOp36
 70
     1
102
RTVSPost2010Prop37
 90
       50
102
RTVSPost2010PropOp37
 70
     1
102
RTVSPost2010Prop38
140
0.0
102
RTVSPost2010PropOp38
 70
     1
102
RTVSPost2010Prop39
140
1.0
102
RTVSPost2010PropOp39
 70
     1
102
RTVSPost2010Prop40
 90
        0
102
RTVSPost2010PropOp40
 70
     1
102
RTVSPost2010Prop41ColorIndex
 90
       18
102
RTVSPost2010Prop41ColorRGB
 90
        0
102
RTVSPost2010PropOp41
 70
     1
102
RTVSPost2010Prop42
 90
       50
102
RTVSPost2010PropOp42
 70
     1
102
RTVSPost2010Prop43
 90
        3
102
RTVSPost2010PropOp43
 70
     1
102
RTVSPost2010Prop44ColorIndex
 90
        5
102
RTVSPost2010Prop44ColorRGB
 90
      255
102
RTVSPost2010PropOp44
 70
     1
102
RTVSPost2010Prop45
280
     0
102
RTVSPost2010PropOp45
 70
     1
102
RTVSPost2010Prop46
 90
       50
102
RTVSPost2010PropOp46
 70
     1
102
RTVSPost2010Prop47
 90
       50
102
RTVSPost2010PropOp47
 70
     1
102
RTVSPost2010Prop48
 90
       50
102
RTVSPost2010PropOp48
 70
     1
102
RTVSPost2010Prop49
280
     0
102
RTVSPost2010PropOp49
 70
     1
102
RTVSPost2010Prop50
 90
       50
102
RTVSPost2010PropOp50
 70
     1
102
RTVSPost2010Prop51ColorIndex
 90
      256
102
RTVSPost2010Prop51ColorRGB
 90
-16777216
102
RTVSPost2010PropOp51
 70
     0
102
RTVSPost2010Prop52
140
1.0
102
RTVSPost2010PropOp52
 70
     0
102
RTVSPost2010Prop53
 90
        2
102
RTVSPost2010PropOp53
 70
     1
102
RTVSPost2010Prop54
  1
strokes_ogs.tif
102
RTVSPost2010PropOp54
 70
     1
102
RTVSPost2010Prop55
280
     0
102
RTVSPost2010PropOp55
 70
     1
102
RTVSPost2010Prop56
140
1.0
102
RTVSPost2010PropOp56
 70
     1
102
RTVSPost2010Prop57
140
1.0
102
RTVSPost2010PropOp57
 70
     1
102
RTVSPropertyOp0
 70
     1
102
RTVSPropertyOp1
 70
     1
102
RTVSPropertyOp2
 70
     1
102
RTVSPropertyOp3
 70
     1
102
RTVSPropertyOp4
 70
     1
102
RTVSPropertyOp5
 70
     1
102
RTVSPropertyOp6
 70
     1
102
RTVSPropertyOp7
 70
     1
102
RTVSPropertyOp8
 70
     1
102
RTVSPropertyOp9
 70
     1
102
RTVSPropertyOp10
 70
     1
102
RTVSPropertyOp11
 70
     1
102
RTVSPropertyOp12
 70
     1
102
RTVSPropertyOp13
 70
     1
102
RTVSPropertyOp14
 70
     1
102
RTVSPropertyOp15
 70
     1
102
RTVSPropertyOp16
 70
     1
102
RTVSPropertyOp17
 70
     1
102
RTVSPropertyOp18
 70
     1
102
RTVSPropertyOp19
 70
     1
102
RTVSPropertyOp20
 70
     1
102
RTVSPropertyOp21
 70
     1
102
RTVSPropertyOp22
 70
     1
102
RTVSPropertyOp23
 70
     1
102
RTVSPropertyOp24
 70
     1
102
RTVSPropertyOp25
 70
     1
102
RTVSPropertyOp26
 70
     1
102
RTVSPropertyOp27
 70
     1
102
RTVSPropertyOp28
 70
     1
102
RTVSPropertyOp29
 70
     1
102
RTVSPropertyOp30
 70
     1
102
RTVSPropertyOp31
 70
     1
102
RTVSPropertyOp32
 70
     1
102
RTVSPropertyOp33
 70
     1
102
RTVSPropertyOp34
 70
     1
102
RTVSPropertyOp35
 70
     1
102
RTVSPropertyOp36
 70
     1
102
RTVSPropertyOp37
 70
     1
102
RTVSPropertyOp38
 70
     1
102
RTVSPropertyOp39
 70
     1
102
RTVSPropertyOp40
 70
     1
102
RTVSPropertyOp41
 70
     1
102
RTVSPropertyOp42
 70
     1
102
RTVSPropertyOp43
 70
     1
102
RTVSPropertyOp44
 70
     1
102
RTVSPropertyOp45
 70
     1
102
RTVSPropertyOp46
 70
     1
102
RTVSPropertyOp47
 70
     1
102
RTVSPropertyOp48
 70
     1
102
RTVSPropertyOp49
 70
     1
102
RTVSPropertyOp50
 70
     1
102
RTVSPropertyOp51
 70
     0
102
RTVSPropertyOp52
 70
     0
102
RTVSPropertyOp53
 70
     1
102
RTVSPropertyOp54
 70
     1
102
RTVSPropertyOp55
 70
     1
102
RTVSPropertyOp56
 70
     1
102
RTVSPropertyOp57
 70
     1
102
RTVSPropertyOp58
 70
     1
102
RTVSPropertyOp59
 70
     1
102
RTVSPropertyOp60
 70
     1
102
RTVSPropertyOp61
 70
     1
102
RTVSPropertyOp62
 70
     1
  0
XRECORD
  5
1CEEA
102
{ACAD_REACTORS
330
1CEE9
102
}
330
1CEE9
100
AcDbXrecord
280
     1
102
RTVSPost2010Prop28
280
     0
102
RTVSPost2010PropOp28
 70
     1
102
RTVSPost2010Prop29
280
     1
102
RTVSPost2010PropOp29
 70
     1
102
RTVSPost2010Prop30
280
     1
102
RTVSPost2010PropOp30
 70
     1
102
RTVSPost2010Prop31
280
     0
102
RTVSPost2010PropOp31
 70
     1
102
RTVSPost2010Prop32
280
     0
102
RTVSPost2010PropOp32
 70
     1
102
RTVSPost2010Prop33
280
     0
102
RTVSPost2010PropOp33
 70
     1
102
RTVSPost2010Prop34
280
     0
102
RTVSPost2010PropOp34
 70
     1
102
RTVSPost2010Prop35
280
     0
102
RTVSPost2010PropOp35
 70
     1
102
RTVSPost2010Prop36
280
     0
102
RTVSPost2010PropOp36
 70
     1
102
RTVSPost2010Prop37
 90
       50
102
RTVSPost2010PropOp37
 70
     1
102
RTVSPost2010Prop38
140
0.0
102
RTVSPost2010PropOp38
 70
     1
102
RTVSPost2010Prop39
140
1.0
102
RTVSPost2010PropOp39
 70
     1
102
RTVSPost2010Prop40
 90
        0
102
RTVSPost2010PropOp40
 70
     1
102
RTVSPost2010Prop41ColorIndex
 90
       18
102
RTVSPost2010Prop41ColorRGB
 90
        0
102
RTVSPost2010PropOp41
 70
     1
102
RTVSPost2010Prop42
 90
       50
102
RTVSPost2010PropOp42
 70
     1
102
RTVSPost2010Prop43
 90
        3
102
RTVSPost2010PropOp43
 70
     1
102
RTVSPost2010Prop44ColorIndex
 90
        5
102
RTVSPost2010Prop44ColorRGB
 90
      255
102
RTVSPost2010PropOp44
 70
     1
102
RTVSPost2010Prop45
280
     0
102
RTVSPost2010PropOp45
 70
     1
102
RTVSPost2010Prop46
 90
       50
102
RTVSPost2010PropOp46
 70
     1
102
RTVSPost2010Prop47
 90
       50
102
RTVSPost2010PropOp47
 70
     1
102
RTVSPost2010Prop48
 90
       50
102
RTVSPost2010PropOp48
 70
     1
102
RTVSPost2010Prop49
280
     0
102
RTVSPost2010PropOp49
 70
     1
102
RTVSPost2010Prop50
 90
       50
102
RTVSPost2010PropOp50
 70
     1
102
RTVSPost2010Prop51ColorIndex
 90
      256
102
RTVSPost2010Prop51ColorRGB
 90
-16777216
102
RTVSPost2010PropOp51
 70
     0
102
RTVSPost2010Prop52
140
1.0
102
RTVSPost2010PropOp52
 70
     0
102
RTVSPost2010Prop53
 90
        2
102
RTVSPost2010PropOp53
 70
     1
102
RTVSPost2010Prop54
  1
strokes_ogs.tif
102
RTVSPost2010PropOp54
 70
     1
102
RTVSPost2010Prop55
280
     0
102
RTVSPost2010PropOp55
 70
     1
102
RTVSPost2010Prop56
140
1.0
102
RTVSPost2010PropOp56
 70
     1
102
RTVSPost2010Prop57
140
1.0
102
RTVSPost2010PropOp57
 70
     1
102
RTVSPropertyOp0
 70
     1
102
RTVSPropertyOp1
 70
     1
102
RTVSPropertyOp2
 70
     1
102
RTVSPropertyOp3
 70
     1
102
RTVSPropertyOp4
 70
     1
102
RTVSPropertyOp5
 70
     1
102
RTVSPropertyOp6
 70
     1
102
RTVSPropertyOp7
 70
     1
102
RTVSPropertyOp8
 70
     1
102
RTVSPropertyOp9
 70
     1
102
RTVSPropertyOp10
 70
     1
102
RTVSPropertyOp11
 70
     1
102
RTVSPropertyOp12
 70
     1
102
RTVSPropertyOp13
 70
     1
102
RTVSPropertyOp14
 70
     1
102
RTVSPropertyOp15
 70
     1
102
RTVSPropertyOp16
 70
     1
102
RTVSPropertyOp17
 70
     1
102
RTVSPropertyOp18
 70
     1
102
RTVSPropertyOp19
 70
     1
102
RTVSPropertyOp20
 70
     1
102
RTVSPropertyOp21
 70
     1
102
RTVSPropertyOp22
 70
     1
102
RTVSPropertyOp23
 70
     1
102
RTVSPropertyOp24
 70
     1
102
RTVSPropertyOp25
 70
     1
102
RTVSPropertyOp26
 70
     1
102
RTVSPropertyOp27
 70
     1
102
RTVSPropertyOp28
 70
     1
102
RTVSPropertyOp29
 70
     1
102
RTVSPropertyOp30
 70
     1
102
RTVSPropertyOp31
 70
     1
102
RTVSPropertyOp32
 70
     1
102
RTVSPropertyOp33
 70
     1
102
RTVSPropertyOp34
 70
     1
102
RTVSPropertyOp35
 70
     1
102
RTVSPropertyOp36
 70
     1
102
RTVSPropertyOp37
 70
     1
102
RTVSPropertyOp38
 70
     1
102
RTVSPropertyOp39
 70
     1
102
RTVSPropertyOp40
 70
     1
102
RTVSPropertyOp41
 70
     1
102
RTVSPropertyOp42
 70
     1
102
RTVSPropertyOp43
 70
     1
102
RTVSPropertyOp44
 70
     1
102
RTVSPropertyOp45
 70
     1
102
RTVSPropertyOp46
 70
     1
102
RTVSPropertyOp47
 70
     1
102
RTVSPropertyOp48
 70
     1
102
RTVSPropertyOp49
 70
     1
102
RTVSPropertyOp50
 70
     1
102
RTVSPropertyOp51
 70
     0
102
RTVSPropertyOp52
 70
     0
102
RTVSPropertyOp53
 70
     1
102
RTVSPropertyOp54
 70
     1
102
RTVSPropertyOp55
 70
     1
102
RTVSPropertyOp56
 70
     1
102
RTVSPropertyOp57
 70
     1
102
RTVSPropertyOp58
 70
     1
102
RTVSPropertyOp59
 70
     1
102
RTVSPropertyOp60
 70
     1
102
RTVSPropertyOp61
 70
     1
102
RTVSPropertyOp62
 70
     1
  0
XRECORD
  5
1CEDE
102
{ACAD_REACTORS
330
1CEDD
102
}
330
1CEDD
100
AcDbXrecord
280
     1
102
RTVSPost2010Prop28
280
     0
102
RTVSPost2010PropOp28
 70
     1
102
RTVSPost2010Prop29
280
     1
102
RTVSPost2010PropOp29
 70
     1
102
RTVSPost2010Prop30
280
     1
102
RTVSPost2010PropOp30
 70
     1
102
RTVSPost2010Prop31
280
     0
102
RTVSPost2010PropOp31
 70
     1
102
RTVSPost2010Prop32
280
     0
102
RTVSPost2010PropOp32
 70
     1
102
RTVSPost2010Prop33
280
     0
102
RTVSPost2010PropOp33
 70
     1
102
RTVSPost2010Prop34
280
     0
102
RTVSPost2010PropOp34
 70
     1
102
RTVSPost2010Prop35
280
     0
102
RTVSPost2010PropOp35
 70
     1
102
RTVSPost2010Prop36
280
     0
102
RTVSPost2010PropOp36
 70
     1
102
RTVSPost2010Prop37
 90
       50
102
RTVSPost2010PropOp37
 70
     1
102
RTVSPost2010Prop38
140
0.0
102
RTVSPost2010PropOp38
 70
     1
102
RTVSPost2010Prop39
140
1.0
102
RTVSPost2010PropOp39
 70
     1
102
RTVSPost2010Prop40
 90
        0
102
RTVSPost2010PropOp40
 70
     1
102
RTVSPost2010Prop41ColorIndex
 90
       18
102
RTVSPost2010Prop41ColorRGB
 90
        0
102
RTVSPost2010PropOp41
 70
     1
102
RTVSPost2010Prop42
 90
       50
102
RTVSPost2010PropOp42
 70
     1
102
RTVSPost2010Prop43
 90
        3
102
RTVSPost2010PropOp43
 70
     1
102
RTVSPost2010Prop44ColorIndex
 90
        5
102
RTVSPost2010Prop44ColorRGB
 90
      255
102
RTVSPost2010PropOp44
 70
     1
102
RTVSPost2010Prop45
280
     0
102
RTVSPost2010PropOp45
 70
     1
102
RTVSPost2010Prop46
 90
       50
102
RTVSPost2010PropOp46
 70
     1
102
RTVSPost2010Prop47
 90
       50
102
RTVSPost2010PropOp47
 70
     1
102
RTVSPost2010Prop48
 90
       50
102
RTVSPost2010PropOp48
 70
     1
102
RTVSPost2010Prop49
280
     0
102
RTVSPost2010PropOp49
 70
     1
102
RTVSPost2010Prop50
 90
       50
102
RTVSPost2010PropOp50
 70
     1
102
RTVSPost2010Prop51ColorIndex
 90
      256
102
RTVSPost2010Prop51ColorRGB
 90
-16777216
102
RTVSPost2010PropOp51
 70
     0
102
RTVSPost2010Prop52
140
1.0
102
RTVSPost2010PropOp52
 70
     0
102
RTVSPost2010Prop53
 90
        2
102
RTVSPost2010PropOp53
 70
     1
102
RTVSPost2010Prop54
  1
strokes_ogs.tif
102
RTVSPost2010PropOp54
 70
     1
102
RTVSPost2010Prop55
280
     0
102
RTVSPost2010PropOp55
 70
     1
102
RTVSPost2010Prop56
140
1.0
102
RTVSPost2010PropOp56
 70
     1
102
RTVSPost2010Prop57
140
1.0
102
RTVSPost2010PropOp57
 70
     1
102
RTVSPropertyOp0
 70
     1
102
RTVSPropertyOp1
 70
     1
102
RTVSPropertyOp2
 70
     1
102
RTVSPropertyOp3
 70
     1
102
RTVSPropertyOp4
 70
     1
102
RTVSPropertyOp5
 70
     1
102
RTVSPropertyOp6
 70
     1
102
RTVSPropertyOp7
 70
     1
102
RTVSPropertyOp8
 70
     1
102
RTVSPropertyOp9
 70
     1
102
RTVSPropertyOp10
 70
     1
102
RTVSPropertyOp11
 70
     1
102
RTVSPropertyOp12
 70
     1
102
RTVSPropertyOp13
 70
     1
102
RTVSPropertyOp14
 70
     1
102
RTVSPropertyOp15
 70
     1
102
RTVSPropertyOp16
 70
     1
102
RTVSPropertyOp17
 70
     1
102
RTVSPropertyOp18
 70
     1
102
RTVSPropertyOp19
 70
     1
102
RTVSPropertyOp20
 70
     1
102
RTVSPropertyOp21
 70
     1
102
RTVSPropertyOp22
 70
     1
102
RTVSPropertyOp23
 70
     1
102
RTVSPropertyOp24
 70
     1
102
RTVSPropertyOp25
 70
     1
102
RTVSPropertyOp26
 70
     1
102
RTVSPropertyOp27
 70
     1
102
RTVSPropertyOp28
 70
     1
102
RTVSPropertyOp29
 70
     1
102
RTVSPropertyOp30
 70
     1
102
RTVSPropertyOp31
 70
     1
102
RTVSPropertyOp32
 70
     1
102
RTVSPropertyOp33
 70
     1
102
RTVSPropertyOp34
 70
     1
102
RTVSPropertyOp35
 70
     1
102
RTVSPropertyOp36
 70
     1
102
RTVSPropertyOp37
 70
     1
102
RTVSPropertyOp38
 70
     1
102
RTVSPropertyOp39
 70
     1
102
RTVSPropertyOp40
 70
     1
102
RTVSPropertyOp41
 70
     1
102
RTVSPropertyOp42
 70
     1
102
RTVSPropertyOp43
 70
     1
102
RTVSPropertyOp44
 70
     1
102
RTVSPropertyOp45
 70
     1
102
RTVSPropertyOp46
 70
     1
102
RTVSPropertyOp47
 70
     1
102
RTVSPropertyOp48
 70
     1
102
RTVSPropertyOp49
 70
     1
102
RTVSPropertyOp50
 70
     1
102
RTVSPropertyOp51
 70
     0
102
RTVSPropertyOp52
 70
     0
102
RTVSPropertyOp53
 70
     1
102
RTVSPropertyOp54
 70
     1
102
RTVSPropertyOp55
 70
     1
102
RTVSPropertyOp56
 70
     1
102
RTVSPropertyOp57
 70
     1
102
RTVSPropertyOp58
 70
     1
102
RTVSPropertyOp59
 70
     1
102
RTVSPropertyOp60
 70
     1
102
RTVSPropertyOp61
 70
     1
102
RTVSPropertyOp62
 70
     1
  0
XRECORD
  5
1CEF6
102
{ACAD_REACTORS
330
1CEF5
102
}
330
1CEF5
100
AcDbXrecord
280
     1
102
RTVSPost2010Prop28
280
     0
102
RTVSPost2010PropOp28
 70
     1
102
RTVSPost2010Prop29
280
     1
102
RTVSPost2010PropOp29
 70
     1
102
RTVSPost2010Prop30
280
     1
102
RTVSPost2010PropOp30
 70
     1
102
RTVSPost2010Prop31
280
     0
102
RTVSPost2010PropOp31
 70
     1
102
RTVSPost2010Prop32
280
     0
102
RTVSPost2010PropOp32
 70
     1
102
RTVSPost2010Prop33
280
     0
102
RTVSPost2010PropOp33
 70
     1
102
RTVSPost2010Prop34
280
     0
102
RTVSPost2010PropOp34
 70
     1
102
RTVSPost2010Prop35
280
     0
102
RTVSPost2010PropOp35
 70
     1
102
RTVSPost2010Prop36
280
     0
102
RTVSPost2010PropOp36
 70
     1
102
RTVSPost2010Prop37
 90
       50
102
RTVSPost2010PropOp37
 70
     1
102
RTVSPost2010Prop38
140
0.0
102
RTVSPost2010PropOp38
 70
     1
102
RTVSPost2010Prop39
140
1.0
102
RTVSPost2010PropOp39
 70
     1
102
RTVSPost2010Prop40
 90
        0
102
RTVSPost2010PropOp40
 70
     1
102
RTVSPost2010Prop41ColorIndex
 90
       18
102
RTVSPost2010Prop41ColorRGB
 90
        0
102
RTVSPost2010PropOp41
 70
     1
102
RTVSPost2010Prop42
 90
       50
102
RTVSPost2010PropOp42
 70
     1
102
RTVSPost2010Prop43
 90
        3
102
RTVSPost2010PropOp43
 70
     1
102
RTVSPost2010Prop44ColorIndex
 90
        5
102
RTVSPost2010Prop44ColorRGB
 90
      255
102
RTVSPost2010PropOp44
 70
     1
102
RTVSPost2010Prop45
280
     0
102
RTVSPost2010PropOp45
 70
     1
102
RTVSPost2010Prop46
 90
       50
102
RTVSPost2010PropOp46
 70
     1
102
RTVSPost2010Prop47
 90
       50
102
RTVSPost2010PropOp47
 70
     1
102
RTVSPost2010Prop48
 90
       50
102
RTVSPost2010PropOp48
 70
     1
102
RTVSPost2010Prop49
280
     0
102
RTVSPost2010PropOp49
 70
     1
102
RTVSPost2010Prop50
 90
       50
102
RTVSPost2010PropOp50
 70
     1
102
RTVSPost2010Prop51ColorIndex
 90
      256
102
RTVSPost2010Prop51ColorRGB
 90
-16777216
102
RTVSPost2010PropOp51
 70
     0
102
RTVSPost2010Prop52
140
1.0
102
RTVSPost2010PropOp52
 70
     0
102
RTVSPost2010Prop53
 90
        2
102
RTVSPost2010PropOp53
 70
     1
102
RTVSPost2010Prop54
  1
strokes_ogs.tif
102
RTVSPost2010PropOp54
 70
     1
102
RTVSPost2010Prop55
280
     0
102
RTVSPost2010PropOp55
 70
     1
102
RTVSPost2010Prop56
140
1.0
102
RTVSPost2010PropOp56
 70
     1
102
RTVSPost2010Prop57
140
1.0
102
RTVSPost2010PropOp57
 70
     1
102
RTVSPropertyOp0
 70
     1
102
RTVSPropertyOp1
 70
     1
102
RTVSPropertyOp2
 70
     1
102
RTVSPropertyOp3
 70
     1
102
RTVSPropertyOp4
 70
     1
102
RTVSPropertyOp5
 70
     1
102
RTVSPropertyOp6
 70
     1
102
RTVSPropertyOp7
 70
     1
102
RTVSPropertyOp8
 70
     1
102
RTVSPropertyOp9
 70
     1
102
RTVSPropertyOp10
 70
     1
102
RTVSPropertyOp11
 70
     1
102
RTVSPropertyOp12
 70
     1
102
RTVSPropertyOp13
 70
     1
102
RTVSPropertyOp14
 70
     1
102
RTVSPropertyOp15
 70
     1
102
RTVSPropertyOp16
 70
     1
102
RTVSPropertyOp17
 70
     1
102
RTVSPropertyOp18
 70
     1
102
RTVSPropertyOp19
 70
     1
102
RTVSPropertyOp20
 70
     1
102
RTVSPropertyOp21
 70
     1
102
RTVSPropertyOp22
 70
     1
102
RTVSPropertyOp23
 70
     1
102
RTVSPropertyOp24
 70
     1
102
RTVSPropertyOp25
 70
     1
102
RTVSPropertyOp26
 70
     1
102
RTVSPropertyOp27
 70
     1
102
RTVSPropertyOp28
 70
     1
102
RTVSPropertyOp29
 70
     1
102
RTVSPropertyOp30
 70
     1
102
RTVSPropertyOp31
 70
     1
102
RTVSPropertyOp32
 70
     1
102
RTVSPropertyOp33
 70
     1
102
RTVSPropertyOp34
 70
     1
102
RTVSPropertyOp35
 70
     1
102
RTVSPropertyOp36
 70
     1
102
RTVSPropertyOp37
 70
     1
102
RTVSPropertyOp38
 70
     1
102
RTVSPropertyOp39
 70
     1
102
RTVSPropertyOp40
 70
     1
102
RTVSPropertyOp41
 70
     1
102
RTVSPropertyOp42
 70
     1
102
RTVSPropertyOp43
 70
     1
102
RTVSPropertyOp44
 70
     1
102
RTVSPropertyOp45
 70
     1
102
RTVSPropertyOp46
 70
     1
102
RTVSPropertyOp47
 70
     1
102
RTVSPropertyOp48
 70
     1
102
RTVSPropertyOp49
 70
     1
102
RTVSPropertyOp50
 70
     1
102
RTVSPropertyOp51
 70
     0
102
RTVSPropertyOp52
 70
     0
102
RTVSPropertyOp53
 70
     1
102
RTVSPropertyOp54
 70
     1
102
RTVSPropertyOp55
 70
     1
102
RTVSPropertyOp56
 70
     1
102
RTVSPropertyOp57
 70
     1
102
RTVSPropertyOp58
 70
     1
102
RTVSPropertyOp59
 70
     1
102
RTVSPropertyOp60
 70
     1
102
RTVSPropertyOp61
 70
     1
102
RTVSPropertyOp62
 70
     1
  0
ENDSEC
  0
EOF
