  0
SECTION
  2
HEADER
  9
$ACADVER
  1
AC1015
  9
$ACADMAINTVER
 70
    20
  9
$DWGCODEPAGE
  3
ANSI_932
  9
$INSBASE
 10
0.0
 20
0.0
 30
0.0
  9
$EXTMIN
 10
173.9960207766853
 20
-0.2043207111528318
 30
-0.000000000000013
  9
$EXTMAX
 10
20385.40654231959
 20
14262.40935601709
 30
0.0000000000000023
  9
$LIMMIN
 10
0.0
 20
0.0
  9
$LIMMAX
 10
21000.0
 20
14850.0
  9
$ORTHOMODE
 70
     0
  9
$REGENMODE
 70
     1
  9
$FILLMODE
 70
     1
  9
$QTEXTMODE
 70
     0
  9
$MIRRTEXT
 70
     1
  9
$LTSCALE
 40
20.0
  9
$ATTMODE
 70
     1
  9
$TEXTSIZE
 40
100.0
  9
$TRACEWID
 40
1.0
  9
$TEXTSTYLE
  7
STYLE2
  9
$CLAYER
  8
寸法
  9
$CELTYPE
  6
BYLAYER
  9
$CECOLOR
 62
   256
  9
$CELTSCALE
 40
50.0
  9
$DISPSILH
 70
     0
  9
$DIMSCALE
 40
1.0
  9
$DIMASZ
 40
125.0
  9
$DIMEXO
 40
25.0
  9
$DIMDLI
 40
7.0
  9
$DIMRND
 40
0.0
  9
$DIMDLE
 40
0.0
  9
$DIMEXE
 40
75.0
  9
$DIMTP
 40
0.0
  9
$DIMTM
 40
0.0
  9
$DIMTXT
 40
150.0
  9
$DIMCEN
 40
0.0
  9
$DIMTSZ
 40
0.0
  9
$DIMTOL
 70
     0
  9
$DIMLIM
 70
     0
  9
$DIMTIH
 70
     0
  9
$DIMTOH
 70
     0
  9
$DIMSE1
 70
     0
  9
$DIMSE2
 70
     0
  9
$DIMTAD
 70
     3
  9
$DIMZIN
 70
     8
  9
$DIMBLK
  1

  9
$DIMASO
 70
     1
  9
$DIMSHO
 70
     1
  9
$DIMPOST
  1

  9
$DIMAPOST
  1

  9
$DIMALT
 70
     0
  9
$DIMALTD
 70
     2
  9
$DIMALTF
 40
0.0394
  9
$DIMLFAC
 40
1.0
  9
$DIMTOFL
 70
     1
  9
$DIMTVP
 40
0.0
  9
$DIMTIX
 70
     1
  9
$DIMSOXD
 70
     0
  9
$DIMSAH
 70
     1
  9
$DIMBLK1
  1
DOTSMALL
  9
$DIMBLK2
  1
DOTSMALL
  9
$DIMSTYLE
  2
INABA_S50G
  9
$DIMCLRD
 70
     0
  9
$DIMCLRE
 70
     0
  9
$DIMCLRT
 70
     7
  9
$DIMTFAC
 40
1.0
  9
$DIMGAP
 40
25.0
  9
$DIMJUST
 70
     0
  9
$DIMSD1
 70
     0
  9
$DIMSD2
 70
     0
  9
$DIMTOLJ
 70
     1
  9
$DIMTZIN
 70
     0
  9
$DIMALTZ
 70
     0
  9
$DIMALTTZ
 70
     0
  9
$DIMUPT
 70
     0
  9
$DIMDEC
 70
     1
  9
$DIMTDEC
 70
     4
  9
$DIMALTU
 70
     2
  9
$DIMALTTD
 70
     2
  9
$DIMTXSTY
  7
STYLE1
  9
$DIMAUNIT
 70
     0
  9
$DIMADEC
 70
     0
  9
$DIMALTRND
 40
0.0
  9
$DIMAZIN
 70
     0
  9
$DIMDSEP
 70
    46
  9
$DIMATFIT
 70
     3
  9
$DIMFRAC
 70
     0
  9
$DIMLDRBLK
  1

  9
$DIMLUNIT
 70
     2
  9
$DIMLWD
 70
    -2
  9
$DIMLWE
 70
    -2
  9
$DIMTMOVE
 70
     0
  9
$LUNITS
 70
     2
  9
$LUPREC
 70
     1
  9
$SKETCHINC
 40
1.0
  9
$FILLETRAD
 40
16.0
  9
$AUNITS
 70
     0
  9
$AUPREC
 70
     0
  9
$MENU
  1
acad
  9
$ELEVATION
 40
0.0
  9
$PELEVATION
 40
0.0
  9
$THICKNESS
 40
0.0
  9
$LIMCHECK
 70
     0
  9
$CHAMFERA
 40
0.0
  9
$CHAMFERB
 40
0.0
  9
$CHAMFERC
 40
0.0
  9
$CHAMFERD
 40
0.0
  9
$SKPOLY
 70
     0
  9
$TDCREATE
 40
2450927.380327778
  9
$TDUCREATE
 40
2450927.005327778
  9
$TDUPDATE
 40
2459381.442331169
  9
$TDUUPDATE
 40
2459381.067331169
  9
$TDINDWG
 40
2.4488434491
  9
$TDUSRTIMER
 40
2.4488434491
  9
$USRTIMER
 70
     1
  9
$ANGBASE
 50
0.0
  9
$ANGDIR
 70
     0
  9
$PDMODE
 70
     3
  9
$PDSIZE
 40
2.0
  9
$PLINEWID
 40
0.0
  9
$SPLFRAME
 70
     0
  9
$SPLINETYPE
 70
     6
  9
$SPLINESEGS
 70
     8
  9
$HANDSEED
  5
1FC3E
  9
$SURFTAB1
 70
     6
  9
$SURFTAB2
 70
     6
  9
$SURFTYPE
 70
     6
  9
$SURFU
 70
     6
  9
$SURFV
 70
     6
  9
$UCSBASE
  2

  9
$UCSNAME
  2

  9
$UCSORG
 10
0.0
 20
0.0
 30
0.0
  9
$UCSXDIR
 10
1.0
 20
0.0
 30
0.0
  9
$UCSYDIR
 10
0.0
 20
1.0
 30
0.0
  9
$UCSORTHOREF
  2

  9
$UCSORTHOVIEW
 70
     0
  9
$UCSORGTOP
 10
0.0
 20
0.0
 30
0.0
  9
$UCSORGBOTTOM
 10
0.0
 20
0.0
 30
0.0
  9
$UCSORGLEFT
 10
0.0
 20
0.0
 30
0.0
  9
$UCSORGRIGHT
 10
0.0
 20
0.0
 30
0.0
  9
$UCSORGFRONT
 10
0.0
 20
0.0
 30
0.0
  9
$UCSORGBACK
 10
0.0
 20
0.0
 30
0.0
  9
$PUCSBASE
  2

  9
$PUCSNAME
  2

  9
$PUCSORG
 10
0.0
 20
0.0
 30
0.0
  9
$PUCSXDIR
 10
1.0
 20
0.0
 30
0.0
  9
$PUCSYDIR
 10
0.0
 20
1.0
 30
0.0
  9
$PUCSORTHOREF
  2

  9
$PUCSORTHOVIEW
 70
     0
  9
$PUCSORGTOP
 10
0.0
 20
0.0
 30
0.0
  9
$PUCSORGBOTTOM
 10
0.0
 20
0.0
 30
0.0
  9
$PUCSORGLEFT
 10
0.0
 20
0.0
 30
0.0
  9
$PUCSORGRIGHT
 10
0.0
 20
0.0
 30
0.0
  9
$PUCSORGFRONT
 10
0.0
 20
0.0
 30
0.0
  9
$PUCSORGBACK
 10
0.0
 20
0.0
 30
0.0
  9
$USERI1
 70
     0
  9
$USERI2
 70
     0
  9
$USERI3
 70
     0
  9
$USERI4
 70
     0
  9
$USERI5
 70
     0
  9
$USERR1
 40
0.0
  9
$USERR2
 40
0.0
  9
$USERR3
 40
0.0
  9
$USERR4
 40
0.0
  9
$USERR5
 40
0.0
  9
$WORLDVIEW
 70
     1
  9
$SHADEDGE
 70
     3
  9
$SHADEDIF
 70
    70
  9
$TILEMODE
 70
     1
  9
$MAXACTVP
 70
    16
  9
$PINSBASE
 10
0.0
 20
0.0
 30
0.0
  9
$PLIMCHECK
 70
     0
  9
$PEXTMIN
 10
1.000000000000000E+20
 20
1.000000000000000E+20
 30
1.000000000000000E+20
  9
$PEXTMAX
 10
-1.000000000000000E+20
 20
-1.000000000000000E+20
 30
-1.000000000000000E+20
  9
$PLIMMIN
 10
0.0
 20
0.0
  9
$PLIMMAX
 10
420.0
 20
297.0
  9
$UNITMODE
 70
     0
  9
$VISRETAIN
 70
     0
  9
$PLINEGEN
 70
     0
  9
$PSLTSCALE
 70
     0
  9
$TREEDEPTH
 70
  3020
  9
$CMLSTYLE
  2
STANDARD
  9
$CMLJUST
 70
     0
  9
$CMLSCALE
 40
1.0
  9
$PROXYGRAPHICS
 70
     1
  9
$MEASUREMENT
 70
     1
  9
$CELWEIGHT
370
    -1
  9
$ENDCAPS
280
     0
  9
$JOINSTYLE
280
     0
  9
$LWDISPLAY
290
     0
  9
$INSUNITS
 70
     0
  9
$HYPERLINKBASE
  1

  9
$STYLESHEET
  1
inaba.ctb
  9
$XEDIT
290
     1
  9
$CEPSNTYPE
380
     0
  9
$PSTYLEMODE
290
     1
  9
$FINGERPRINTGUID
  2
{286F451B-49D6-4BB6-827D-4AA92722FF04}
  9
$VERSIONGUID
  2
{D808F50C-4AAF-473D-9781-2AC214CCBEAE}
  9
$EXTNAMES
290
     1
  9
$PSVPSCALE
 40
0.0
  9
$OLESTARTUP
290
     0
  0
ENDSEC
  0
SECTION
  2
CLASSES
  0
CLASS
  1
DICTIONARYVAR
  2
AcDbDictionaryVar
  3
ObjectDBX Classes
 90
        0
280
     0
281
     0
  0
CLASS
  1
ACDBDICTIONARYWDFLT
  2
AcDbDictionaryWithDefault
  3
ObjectDBX Classes
 90
        0
280
     0
281
     0
  0
CLASS
  1
ACDBPLACEHOLDER
  2
AcDbPlaceHolder
  3
ObjectDBX Classes
 90
        0
280
     0
281
     0
  0
CLASS
  1
LAYOUT
  2
AcDbLayout
  3
ObjectDBX Classes
 90
        0
280
     0
281
     0
  0
CLASS
  1
MATERIAL
  2
AcDbMaterial
  3
ObjectDBX Classes
 90
     1153
280
     0
281
     0
  0
CLASS
  1
VISUALSTYLE
  2
AcDbVisualStyle
  3
ObjectDBX Classes
 90
     4095
280
     0
281
     0
  0
CLASS
  1
TABLESTYLE
  2
AcDbTableStyle
  3
ObjectDBX Classes
 90
     4095
280
     0
281
     0
  0
CLASS
  1
SCALE
  2
AcDbScale
  3
ObjectDBX Classes
 90
     1153
280
     0
281
     0
  0
CLASS
  1
MLEADERSTYLE
  2
AcDbMLeaderStyle
  3
ACDB_MLEADERSTYLE_CLASS
 90
     4095
280
     0
281
     0
  0
CLASS
  1
ACDBSECTIONVIEWSTYLE
  2
AcDbSectionViewStyle
  3
ObjectDBX Classes
 90
     1025
280
     0
281
     0
  0
CLASS
  1
ACDBDETAILVIEWSTYLE
  2
AcDbDetailViewStyle
  3
ObjectDBX Classes
 90
     1025
280
     0
281
     0
  0
CLASS
  1
CELLSTYLEMAP
  2
AcDbCellStyleMap
  3
ObjectDBX Classes
 90
     1152
280
     0
281
     0
  0
ENDSEC
  0
SECTION
  2
TABLES
  0
TABLE
  2
VPORT
  5
746D
330
0
100
AcDbSymbolTable
 70
     1
  0
VPORT
  5
1FB40
330
746D
100
AcDbSymbolTableRecord
100
AcDbViewportTableRecord
  2
*Active
 70
     0
 10
0.0
 20
0.0
 11
1.0
 21
1.0
 12
10279.70128154813
 22
7130.771555564435
 13
0.0
 23
0.0
 14
10.0
 24
10.0
 15
10.0
 25
10.0
 16
0.0
 26
0.0
 36
1.0
 17
0.0
 27
0.0
 37
0.0
 40
14383.3504773256
 41
1.663434903047091
 42
50.0
 43
0.0
 44
0.0
 50
0.0
 51
0.0
 71
     0
 72
     0
 73
     1
 74
     0
 75
     0
 76
     0
 77
     0
 78
     0
281
     0
 65
     1
110
0.0
120
0.0
130
0.0
111
1.0
121
0.0
131
0.0
112
0.0
122
1.0
132
0.0
 79
     0
146
0.0
1001
ACAD_NAV_VCDISPLAY
1070
     3
  0
ENDTAB
  0
TABLE
  2
LTYPE
  5
746A
330
0
100
AcDbSymbolTable
 70
     3
  0
LTYPE
  5
7477
330
746A
100
AcDbSymbolTableRecord
100
AcDbLinetypeTableRecord
  2
BYBLOCK
 70
     0
  3

 72
    65
 73
     0
 40
0.0
  0
LTYPE
  5
7478
330
746A
100
AcDbSymbolTableRecord
100
AcDbLinetypeTableRecord
  2
BYLAYER
 70
     0
  3

 72
    65
 73
     0
 40
0.0
  0
LTYPE
  5
7479
330
746A
100
AcDbSymbolTableRecord
100
AcDbLinetypeTableRecord
  2
CONTINUOUS
 70
     0
  3
Solid line
 72
    65
 73
     0
 40
0.0
  0
LTYPE
  5
7816
330
746A
100
AcDbSymbolTableRecord
100
AcDbLinetypeTableRecord
  2
CENTER
 70
     0
  3
____ _ ____ _ ____ _ ____ _ ____ _ ____ _ ____ 
 72
    65
 73
     4
 40
2.0
 49
1.25
 74
     0
 49
-0.25
 74
     0
 49
0.25
 74
     0
 49
-0.25
 74
     0
  0
LTYPE
  5
781B
330
746A
100
AcDbSymbolTableRecord
100
AcDbLinetypeTableRecord
  2
PHANTOM
 70
     0
  3
______  __  __  ______  __  __  ______  __  __ 
 72
    65
 73
     6
 40
2.5
 49
1.25
 74
     0
 49
-0.25
 74
     0
 49
0.25
 74
     0
 49
-0.25
 74
     0
 49
0.25
 74
     0
 49
-0.25
 74
     0
  0
ENDTAB
  0
TABLE
  2
LAYER
  5
7467
102
{ACAD_XDICTIONARY
360
1DF82
102
}
330
0
100
AcDbSymbolTable
 70
    11
  0
LAYER
  5
7474
102
{ACAD_XDICTIONARY
360
1FBAB
102
}
330
7467
100
AcDbSymbolTableRecord
100
AcDbLayerTableRecord
  2
0
 70
     0
 62
     7
  6
CONTINUOUS
370
    -3
390
1C4CE
  0
LAYER
  5
DEB2
102
{ACAD_XDICTIONARY
360
1FBAD
102
}
330
7467
100
AcDbSymbolTableRecord
100
AcDbLayerTableRecord
  2
センター
 70
     0
 62
     3
  6
CENTER
370
    -3
390
1C4CE
  0
LAYER
  5
DEB3
102
{ACAD_XDICTIONARY
360
1FBAF
102
}
330
7467
100
AcDbSymbolTableRecord
100
AcDbLayerTableRecord
  2
寸法
 70
     0
 62
     4
  6
CONTINUOUS
370
    -3
390
1C4CE
  0
LAYER
  5
DEB4
102
{ACAD_XDICTIONARY
360
1FBB1
102
}
330
7467
100
AcDbSymbolTableRecord
100
AcDbLayerTableRecord
  2
部品1
 70
     0
 62
     7
  6
CONTINUOUS
370
    -3
390
1C4CE
  0
LAYER
  5
DEB5
102
{ACAD_XDICTIONARY
360
1FBB3
102
}
330
7467
100
AcDbSymbolTableRecord
100
AcDbLayerTableRecord
  2
補助
 70
     0
 62
    -1
  6
CONTINUOUS
370
    -3
390
1C4CE
  0
LAYER
  5
DEB6
102
{ACAD_XDICTIONARY
360
1FBB5
102
}
330
7467
100
AcDbSymbolTableRecord
100
AcDbLayerTableRecord
  2
文字
 70
     0
 62
     7
  6
CONTINUOUS
370
    -3
390
1C4CE
  0
LAYER
  5
F255
330
7467
100
AcDbSymbolTableRecord
100
AcDbLayerTableRecord
  2
DEFPOINTS
 70
     0
 62
     7
  6
CONTINUOUS
290
     0
370
    -3
390
1C4CE
  0
LAYER
  5
10B54
102
{ACAD_XDICTIONARY
360
1FBB7
102
}
330
7467
100
AcDbSymbolTableRecord
100
AcDbLayerTableRecord
  2
仕様書枠
 70
     0
 62
   230
  6
CONTINUOUS
370
    -3
390
1C4CE
  0
LAYER
  5
13F73
102
{ACAD_XDICTIONARY
360
1FBB9
102
}
330
7467
100
AcDbSymbolTableRecord
100
AcDbLayerTableRecord
  2
細線
 70
     0
 62
     5
  6
CONTINUOUS
370
    -3
390
1C4CE
  0
LAYER
  5
1643F
102
{ACAD_XDICTIONARY
360
1FBBB
102
}
330
7467
100
AcDbSymbolTableRecord
100
AcDbLayerTableRecord
  2
想像線
 70
     0
 62
     6
  6
PHANTOM
370
    -3
390
1C4CE
  0
LAYER
  5
17A5A
102
{ACAD_XDICTIONARY
360
1FBBD
102
}
330
7467
100
AcDbSymbolTableRecord
100
AcDbLayerTableRecord
  2
Ｇ．Ｌ
 70
     0
 62
    30
  6
CONTINUOUS
370
    -3
390
1C4CE
  0
ENDTAB
  0
TABLE
  2
STYLE
  5
7468
330
0
100
AcDbSymbolTable
 70
     6
  0
STYLE
  5
7475
330
7468
100
AcDbSymbolTableRecord
100
AcDbTextStyleTableRecord
  2
STANDARD
 70
     0
 40
0.0
 41
1.0
 50
0.0
 71
     0
 42
4.0
  3
txt
  4
C:\AutoCAD LT\bigfont.shx
  0
STYLE
  5
763C
330
7468
100
AcDbSymbolTableRecord
100
AcDbTextStyleTableRecord
  2
MSMINCHO
 70
     0
 40
0.0
 41
1.0
 50
0.0
 71
     0
 42
1.199999999999999
  3
C:\AutoCAD LT\msminch2.TTF
  4

  0
STYLE
  5
F706
330
7468
100
AcDbSymbolTableRecord
100
AcDbTextStyleTableRecord
  2
STYLE1
 70
     0
 40
0.0
 41
1.0
 50
0.0
 71
     0
 42
150.0
  3
isocp.shx
  4
bigfont.shx
  0
STYLE
  5
103BF
330
7468
100
AcDbSymbolTableRecord
100
AcDbTextStyleTableRecord
  2
STYLE2
 70
     0
 40
0.0
 41
1.0
 50
0.0
 71
     0
 42
100.0
  3

  4

1001
ACAD
1000
MS PGothic
1071
    32818
  0
STYLE
  5
1E221
330
7468
100
AcDbSymbolTableRecord
100
AcDbTextStyleTableRecord
  2
STYLE3
 70
     0
 40
0.0
 41
1.0
 50
0.0
 71
     0
 42
100.0
  3

  4

1001
ACAD
1000
DFPGothic-EB
1071
    32818
  0
ENDTAB
  0
TABLE
  2
VIEW
  5
746B
330
0
100
AcDbSymbolTable
 70
     0
  0
ENDTAB
  0
TABLE
  2
UCS
  5
746C
330
0
100
AcDbSymbolTable
 70
     0
  0
ENDTAB
  0
TABLE
  2
APPID
  5
746E
330
0
100
AcDbSymbolTable
 70
    10
  0
APPID
  5
7476
330
746E
100
AcDbSymbolTableRecord
100
AcDbRegAppTableRecord
  2
ACAD
 70
     0
  0
APPID
  5
DEA9
330
746E
100
AcDbSymbolTableRecord
100
AcDbRegAppTableRecord
  2
CONTENTBLOCKICON
 70
     0
  0
APPID
  5
DEAA
330
746E
100
AcDbSymbolTableRecord
100
AcDbRegAppTableRecord
  2
CONTENTBLOCKDESCRIPTION
 70
     0
  0
APPID
  5
E71D
330
746E
100
AcDbSymbolTableRecord
100
AcDbRegAppTableRecord
  2
CONTENTTABDATA
 70
     0
  0
APPID
  5
E71E
330
746E
100
AcDbSymbolTableRecord
100
AcDbRegAppTableRecord
  2
CONTENTCURRENTTAB
 70
     0
  0
APPID
  5
F3BA
330
746E
100
AcDbSymbolTableRecord
100
AcDbRegAppTableRecord
  2
DRAWINGVARIABLESXDATA
 70
     0
  0
APPID
  5
1FB9C
330
746E
100
AcDbSymbolTableRecord
100
AcDbRegAppTableRecord
  2
ACAD_NAV_VCDISPLAY
 70
     0
  0
APPID
  5
1FBD6
330
746E
100
AcDbSymbolTableRecord
100
AcDbRegAppTableRecord
  2
ACAD_EXEMPT_FROM_CAD_STANDARDS
 70
     0
  0
APPID
  5
1FBF2
330
746E
100
AcDbSymbolTableRecord
100
AcDbRegAppTableRecord
  2
ACAD_PSEXT
 70
     0
  0
APPID
  5
1FC3B
330
746E
100
AcDbSymbolTableRecord
100
AcDbRegAppTableRecord
  2
ACAD_MLEADERVER
 70
     0
  0
ENDTAB
  0
TABLE
  2
DIMSTYLE
  5
746F
330
0
100
AcDbSymbolTable
 70
     4
100
AcDbDimStyleTable
 71
     1
340
F71F
  0
DIMSTYLE
105
F71F
102
{ACAD_REACTORS
330
1F89E
330
1F8A2
330
1F8A3
330
1F8A4
330
1F8A7
330
1F8A8
330
1F8A9
330
1F8AE
330
1F8AF
330
1F8B7
330
1F8C9
330
1F8CA
330
1F8CB
330
1F8CC
330
1F8CD
330
1F8CE
330
1F8CF
330
1F8D2
330
1F8D5
102
}
330
746F
100
AcDbSymbolTableRecord
100
AcDbDimStyleTableRecord
  2
INABA_S50G
 70
     0
 41
125.0
 42
25.0
 43
7.0
 44
75.0
 73
     0
 74
     0
 77
     3
 78
     8
140
150.0
141
0.0
143
0.0394
147
25.0
172
     1
173
     1
174
     1
178
     7
271
     1
340
F706
341
F770
343
F770
344
F770
  0
DIMSTYLE
105
1DA5D
102
{ACAD_REACTORS
330
1E9A5
330
1E9A7
330
1E9A8
330
1E9BA
330
1E9C3
330
1E9C4
330
1EAD0
102
}
330
746F
100
AcDbSymbolTableRecord
100
AcDbDimStyleTableRecord
  2
INABA_S50GUP
 70
     0
 41
125.0
 42
25.0
 43
7.0
 44
75.0
 73
     0
 74
     0
 77
     3
 78
     8
140
150.0
141
0.0
143
0.0394
147
25.0
172
     1
173
     1
174
     1
178
     7
271
     1
340
F706
341
F770
343
F770
344
F770
  0
DIMSTYLE
105
1E222
330
746F
100
AcDbSymbolTableRecord
100
AcDbDimStyleTableRecord
  2
INABA_S40G
 70
     0
 40
40.0
 41
2.5
 42
0.5
 43
7.0
 44
1.5
 73
     0
 74
     0
 77
     3
 78
     8
140
3.0
141
0.0
143
0.0394
147
1.0
172
     1
173
     1
174
     1
178
     7
271
     1
340
F706
341
F770
343
F770
344
F770
  0
ENDTAB
  0
TABLE
  2
BLOCK_RECORD
  5
7466
330
0
100
AcDbSymbolTable
 70
    28
  0
BLOCK_RECORD
  5
747D
330
7466
100
AcDbSymbolTableRecord
100
AcDbBlockTableRecord
  2
*MODEL_SPACE
340
1C4D3
  0
BLOCK_RECORD
  5
747A
330
7466
100
AcDbSymbolTableRecord
100
AcDbBlockTableRecord
  2
*PAPER_SPACE
340
1C4D4
  0
BLOCK_RECORD
  5
F770
330
7466
100
AcDbSymbolTableRecord
100
AcDbBlockTableRecord
  2
_DOTSMALL
340
0
102
{BLKREFS
331
1FA98
331
1FA99
331
1FAA0
331
1FAA1
331
1FAA9
331
1FAAA
331
1FAB3
331
1FAB4
331
1FABD
331
1FABE
331
1FAC5
331
1FAC6
331
1FACE
331
1FACF
331
1FAD8
331
1FAD9
331
1FAE2
331
1FAE3
331
1FAEC
331
1FAED
331
1FAF6
331
1FAF7
331
1FAFF
331
1FB00
331
1FB08
331
1FB09
331
1FB11
331
1FB12
331
1FB1B
331
1FB1C
331
1FB25
331
1FB26
331
1FB2F
331
1FB30
331
1FA7D
331
1FA7E
331
1FA85
331
1FA86
331
1FA8E
331
1FA8F
331
1EC47
331
1EC48
331
1EC51
331
1EC52
331
1EC5A
331
1EC5B
331
1EC6C
331
1EC6D
331
1EC75
331
1EC76
331
1EC7E
331
1EC7F
102
}
  0
BLOCK_RECORD
  5
1EB95
330
7466
100
AcDbSymbolTableRecord
100
AcDbBlockTableRecord
  2
*D1
340
0
  0
BLOCK_RECORD
  5
1EBA1
330
7466
100
AcDbSymbolTableRecord
100
AcDbBlockTableRecord
  2
*D2
340
0
  0
BLOCK_RECORD
  5
1EBAD
330
7466
100
AcDbSymbolTableRecord
100
AcDbBlockTableRecord
  2
*D3
340
0
  0
BLOCK_RECORD
  5
1EBBA
330
7466
100
AcDbSymbolTableRecord
100
AcDbBlockTableRecord
  2
*D4
340
0
  0
BLOCK_RECORD
  5
1EBC6
330
7466
100
AcDbSymbolTableRecord
100
AcDbBlockTableRecord
  2
*D5
340
0
  0
BLOCK_RECORD
  5
1EBD2
330
7466
100
AcDbSymbolTableRecord
100
AcDbBlockTableRecord
  2
*D6
340
0
  0
BLOCK_RECORD
  5
1EBDE
330
7466
100
AcDbSymbolTableRecord
100
AcDbBlockTableRecord
  2
*D7
340
0
  0
BLOCK_RECORD
  5
1F8DC
330
7466
100
AcDbSymbolTableRecord
100
AcDbBlockTableRecord
  2
*D8
340
0
  0
BLOCK_RECORD
  5
1F8E8
330
7466
100
AcDbSymbolTableRecord
100
AcDbBlockTableRecord
  2
*D9
340
0
  0
BLOCK_RECORD
  5
1F8F4
330
7466
100
AcDbSymbolTableRecord
100
AcDbBlockTableRecord
  2
*D10
340
0
  0
BLOCK_RECORD
  5
1F8FF
330
7466
100
AcDbSymbolTableRecord
100
AcDbBlockTableRecord
  2
*D11
340
0
  0
BLOCK_RECORD
  5
1F90B
330
7466
100
AcDbSymbolTableRecord
100
AcDbBlockTableRecord
  2
*D12
340
0
  0
BLOCK_RECORD
  5
1F918
330
7466
100
AcDbSymbolTableRecord
100
AcDbBlockTableRecord
  2
*D13
340
0
  0
BLOCK_RECORD
  5
1F925
330
7466
100
AcDbSymbolTableRecord
100
AcDbBlockTableRecord
  2
*D14
340
0
  0
BLOCK_RECORD
  5
1F931
330
7466
100
AcDbSymbolTableRecord
100
AcDbBlockTableRecord
  2
*D15
340
0
  0
BLOCK_RECORD
  5
1F93D
330
7466
100
AcDbSymbolTableRecord
100
AcDbBlockTableRecord
  2
*D16
340
0
  0
BLOCK_RECORD
  5
1F948
330
7466
100
AcDbSymbolTableRecord
100
AcDbBlockTableRecord
  2
*D17
340
0
  0
BLOCK_RECORD
  5
1F955
330
7466
100
AcDbSymbolTableRecord
100
AcDbBlockTableRecord
  2
*D18
340
0
  0
BLOCK_RECORD
  5
1F962
330
7466
100
AcDbSymbolTableRecord
100
AcDbBlockTableRecord
  2
*D19
340
0
  0
BLOCK_RECORD
  5
1F96F
330
7466
100
AcDbSymbolTableRecord
100
AcDbBlockTableRecord
  2
*D20
340
0
  0
BLOCK_RECORD
  5
1F97C
330
7466
100
AcDbSymbolTableRecord
100
AcDbBlockTableRecord
  2
*D21
340
0
  0
BLOCK_RECORD
  5
1F989
330
7466
100
AcDbSymbolTableRecord
100
AcDbBlockTableRecord
  2
*D22
340
0
  0
BLOCK_RECORD
  5
1F996
330
7466
100
AcDbSymbolTableRecord
100
AcDbBlockTableRecord
  2
*D23
340
0
  0
BLOCK_RECORD
  5
1F9A3
330
7466
100
AcDbSymbolTableRecord
100
AcDbBlockTableRecord
  2
*D24
340
0
  0
BLOCK_RECORD
  5
1F9AF
330
7466
100
AcDbSymbolTableRecord
100
AcDbBlockTableRecord
  2
*D25
340
0
  0
BLOCK_RECORD
  5
1F9BA
330
7466
100
AcDbSymbolTableRecord
100
AcDbBlockTableRecord
  2
*D26
340
0
  0
ENDTAB
  0
ENDSEC
  0
SECTION
  2
BLOCKS
  0
BLOCK
  5
7489
330
747D
100
AcDbEntity
  8
0
100
AcDbBlockBegin
  2
*MODEL_SPACE
 70
     0
 10
0.0
 20
0.0
 30
0.0
  3
*MODEL_SPACE
  1

  0
ENDBLK
  5
748A
330
747D
100
AcDbEntity
  8
0
100
AcDbBlockEnd
  0
BLOCK
  5
7487
330
747A
100
AcDbEntity
 67
     1
  8
0
100
AcDbBlockBegin
  2
*PAPER_SPACE
 70
     0
 10
0.0
 20
0.0
 30
0.0
  3
*PAPER_SPACE
  1

  0
ENDBLK
  5
7488
330
747A
100
AcDbEntity
 67
     1
  8
0
100
AcDbBlockEnd
  0
BLOCK
  5
F771
330
F770
100
AcDbEntity
  8
0
 48
50.0
100
AcDbBlockBegin
  2
_DOTSMALL
 70
     0
 10
0.0
 20
0.0
 30
0.0
  3
_DOTSMALL
  1

  0
LWPOLYLINE
  5
F772
330
F770
100
AcDbEntity
  8
0
  6
ByBlock
 62
     0
 48
50.0
100
AcDbPolyline
 90
        2
 70
     1
 43
0.5
 10
-0.0625
 20
0.0
 42
1.0
 10
0.0625
 20
0.0
 42
1.0
  0
ENDBLK
  5
F776
330
F770
100
AcDbEntity
  8
0
 48
50.0
100
AcDbBlockEnd
  0
BLOCK
  5
1EB9F
330
1EB95
100
AcDbEntity
  8
0
 48
50.0
100
AcDbBlockBegin
  2
*D1
 70
     1
 10
0.0
 20
0.0
 30
0.0
  3
*D1
  1

  0
LINE
  5
1FA7A
330
1EB95
100
AcDbEntity
  8
寸法
 62
     0
 48
50.0
370
    -2
100
AcDbLine
 10
7564.125198068325
 20
2814.712156520047
 30
0.0
 11
7564.125198068325
 21
3264.712156520047
 31
0.0
  0
LINE
  5
1FA7B
330
1EB95
100
AcDbEntity
  8
寸法
 62
     0
 48
50.0
370
    -2
100
AcDbLine
 10
7324.125198068324
 20
2814.712156520047
 30
0.0
 11
7324.125198068324
 21
3264.712156520047
 31
0.0
  0
LINE
  5
1FA7C
330
1EB95
100
AcDbEntity
  8
寸法
 62
     0
 48
50.0
370
    -2
100
AcDbLine
 10
7564.125198068325
 20
3189.712156520047
 30
0.0
 11
7324.125198068324
 21
3189.712156520047
 31
0.0
  0
INSERT
  5
1FA7D
330
1EB95
100
AcDbEntity
  8
寸法
 62
     0
 48
50.0
370
    -2
100
AcDbBlockReference
  2
_DOTSMALL
 10
7564.125198068325
 20
3189.712156520047
 30
0.0
 41
125.0
 42
125.0
 43
125.0
  0
INSERT
  5
1FA7E
330
1EB95
100
AcDbEntity
  8
寸法
 62
     0
 48
50.0
370
    -2
100
AcDbBlockReference
  2
_DOTSMALL
 10
7324.125198068324
 20
3189.712156520047
 30
0.0
 41
125.0
 42
125.0
 43
125.0
 50
180.0
  0
MTEXT
  5
1FA7F
330
1EB95
100
AcDbEntity
  8
寸法
 62
     7
 48
50.0
100
AcDbMText
 10
7444.125198068324
 20
3264.721999039732
 30
0.0
 40
100.0
 41
0.0
 71
     5
 72
     1
  1
\A1;120
  7
STYLE1
 73
     1
 44
1.0
1001
ACAD
1000
MTEXTBEGIN
1070
    73
1070
     1
1070
    44
1040
1.0
1070
    74
1070
     0
1000
MTEXTEND
  0
POINT
  5
1FA80
330
1EB95
100
AcDbEntity
  8
DEFPOINTS
 62
     0
 48
50.0
100
AcDbPoint
 10
7564.125198068325
 20
2789.712156520047
 30
0.0
  0
POINT
  5
1FA81
330
1EB95
100
AcDbEntity
  8
DEFPOINTS
 62
     0
 48
50.0
100
AcDbPoint
 10
7324.125198068324
 20
2789.712156520047
 30
0.0
  0
POINT
  5
1FA82
330
1EB95
100
AcDbEntity
  8
DEFPOINTS
 62
     0
 48
50.0
100
AcDbPoint
 10
7324.125198068324
 20
3189.712156520047
 30
0.0
  0
ENDBLK
  5
1EBA0
330
1EB95
100
AcDbEntity
  8
0
 48
50.0
100
AcDbBlockEnd
  0
BLOCK
  5
1EBAB
330
1EBA1
100
AcDbEntity
  8
0
 48
50.0
100
AcDbBlockBegin
  2
*D2
 70
     1
 10
0.0
 20
0.0
 30
0.0
  3
*D2
  1

  0
LINE
  5
1EC57
330
1EBA1
100
AcDbEntity
  8
寸法
 62
     0
 48
50.0
370
    -2
100
AcDbLine
 10
10382.31833236196
 20
2995.780337823297
 30
0.0
 11
10382.31833236196
 21
3405.554136234758
 31
0.0
  0
LINE
  5
1EC58
330
1EBA1
100
AcDbEntity
  8
寸法
 62
     0
 48
50.0
370
    -2
100
AcDbLine
 10
10572.93371697735
 20
2996.857260900221
 30
0.0
 11
10572.93371697735
 21
3405.554136234758
 31
0.0
  0
LINE
  5
1EC59
330
1EBA1
100
AcDbEntity
  8
寸法
 62
     0
 48
50.0
370
    -2
100
AcDbLine
 10
10382.31833236196
 20
3330.554136234758
 30
0.0
 11
10572.93371697735
 21
3330.554136234758
 31
0.0
  0
INSERT
  5
1EC5A
330
1EBA1
100
AcDbEntity
  8
寸法
 62
     0
 48
50.0
370
    -2
100
AcDbBlockReference
  2
_DOTSMALL
 10
10382.31833236196
 20
3330.554136234758
 30
0.0
 41
125.0
 42
125.0
 43
125.0
 50
180.0
  0
INSERT
  5
1EC5B
330
1EBA1
100
AcDbEntity
  8
寸法
 62
     0
 48
50.0
370
    -2
100
AcDbBlockReference
  2
_DOTSMALL
 10
10572.93371697735
 20
3330.554136234758
 30
0.0
 41
125.0
 42
125.0
 43
125.0
  0
MTEXT
  5
1EC5C
330
1EBA1
100
AcDbEntity
  8
寸法
 62
     7
 48
50.0
100
AcDbMText
 10
10477.62602466966
 20
3405.554136234758
 30
0.0
 40
100.0
 41
0.0
 71
     5
 72
     1
  1
\A1;88.5
  7
STYLE1
 73
     1
 44
1.0
1001
ACAD
1000
MTEXTBEGIN
1070
    73
1070
     1
1070
    44
1040
1.0
1070
    74
1070
     0
1000
MTEXTEND
  0
POINT
  5
1EC5D
330
1EBA1
100
AcDbEntity
  8
DEFPOINTS
 62
     0
 48
50.0
100
AcDbPoint
 10
10382.31833236196
 20
2970.780337823297
 30
0.0
  0
POINT
  5
1EC5E
330
1EBA1
100
AcDbEntity
  8
DEFPOINTS
 62
     0
 48
50.0
100
AcDbPoint
 10
10572.93371697735
 20
2971.85726090022
 30
0.0
  0
POINT
  5
1EC5F
330
1EBA1
100
AcDbEntity
  8
DEFPOINTS
 62
     0
 48
50.0
100
AcDbPoint
 10
10572.93371697735
 20
3330.554136234758
 30
0.0
  0
ENDBLK
  5
1EBAC
330
1EBA1
100
AcDbEntity
  8
0
 48
50.0
100
AcDbBlockEnd
  0
BLOCK
  5
1EBB8
330
1EBAD
100
AcDbEntity
  8
0
 48
50.0
100
AcDbBlockBegin
  2
*D3
 70
     1
 10
0.0
 20
0.0
 30
0.0
  3
*D3
  1

  0
LINE
  5
1EC4D
330
1EBAD
100
AcDbEntity
  8
寸法
 62
     0
 48
50.0
370
    -2
100
AcDbLine
 10
10476.54910159273
 20
2925.549568592527
 30
0.0
 11
9755.163803672065
 21
2925.549568592527
 31
0.0
  0
LINE
  5
1EC4E
330
1EBAD
100
AcDbEntity
  8
寸法
 62
     0
 48
50.0
370
    -2
100
AcDbLine
 10
10346.54910159273
 20
2865.241876284836
 30
0.0
 11
9755.163803672065
 21
2865.241876284836
 31
0.0
  0
LINE
  5
1EC4F
330
1EBAD
100
AcDbEntity
  8
寸法
 62
     0
 48
50.0
370
    -2
100
AcDbLine
 10
9830.163803672064
 20
2865.241876284836
 30
0.0
 11
9830.163803672064
 21
2925.549568592527
 31
0.0
  0
LINE
  5
1EC50
330
1EBAD
100
AcDbEntity
  8
寸法
 62
     0
 48
50.0
370
    -2
100
AcDbLine
 10
9830.163803672064
 20
2925.549568592527
 30
0.0
 11
9830.163803672064
 21
3338.961642083342
 31
0.0
  0
INSERT
  5
1EC51
330
1EBAD
100
AcDbEntity
  8
寸法
 62
     0
 48
50.0
370
    -2
100
AcDbBlockReference
  2
_DOTSMALL
 10
9830.163803672064
 20
2865.241876284836
 30
0.0
 41
125.0
 42
125.0
 43
125.0
 50
270.0
  0
INSERT
  5
1EC52
330
1EBAD
100
AcDbEntity
  8
寸法
 62
     0
 48
50.0
370
    -2
100
AcDbBlockReference
  2
_DOTSMALL
 10
9830.163803672064
 20
2925.549568592527
 30
0.0
 41
125.0
 42
125.0
 43
125.0
 50
90.0
  0
MTEXT
  5
1EC53
330
1EBAD
100
AcDbEntity
  8
寸法
 62
     7
 48
50.0
100
AcDbMText
 10
9755.163803672065
 20
3194.755605337937
 30
0.0
 40
100.0
 41
0.0
 71
     5
 72
     1
  1
\A1;出30
  7
STYLE1
 11
0.0000000000000001
 21
1.0
 31
0.0
 73
     1
 44
1.0
1001
ACAD
1000
MTEXTBEGIN
1070
    73
1070
     1
1070
    44
1040
1.0
1070
    74
1070
     0
1000
MTEXTEND
  0
POINT
  5
1EC54
330
1EBAD
100
AcDbEntity
  8
DEFPOINTS
 62
     0
 48
50.0
100
AcDbPoint
 10
10501.54910159273
 20
2925.549568592527
 30
0.0
  0
POINT
  5
1EC55
330
1EBAD
100
AcDbEntity
  8
DEFPOINTS
 62
     0
 48
50.0
100
AcDbPoint
 10
10371.54910159273
 20
2865.241876284836
 30
0.0
  0
POINT
  5
1EC56
330
1EBAD
100
AcDbEntity
  8
DEFPOINTS
 62
     0
 48
50.0
100
AcDbPoint
 10
9830.163803672064
 20
2865.241876284836
 30
0.0
  0
ENDBLK
  5
1EBB9
330
1EBAD
100
AcDbEntity
  8
0
 48
50.0
100
AcDbBlockEnd
  0
BLOCK
  5
1EBC4
330
1EBBA
100
AcDbEntity
  8
0
 48
50.0
100
AcDbBlockBegin
  2
*D4
 70
     1
 10
0.0
 20
0.0
 30
0.0
  3
*D4
  1

  0
LINE
  5
1EC72
330
1EBBA
100
AcDbEntity
  8
寸法
 62
     0
 48
50.0
370
    -2
100
AcDbLine
 10
7144.125198068326
 20
1524.712156520047
 30
0.0
 11
7144.125198068326
 21
1175.760050064113
 31
0.0
  0
LINE
  5
1EC73
330
1EBBA
100
AcDbEntity
  8
寸法
 62
     0
 48
50.0
370
    -2
100
AcDbLine
 10
7744.125198068323
 20
1524.712156520047
 30
0.0
 11
7744.125198068323
 21
1175.760050064113
 31
0.0
  0
LINE
  5
1EC74
330
1EBBA
100
AcDbEntity
  8
寸法
 62
     0
 48
50.0
370
    -2
100
AcDbLine
 10
7144.125198068326
 20
1250.760050064113
 30
0.0
 11
7744.125198068323
 21
1250.760050064113
 31
0.0
  0
INSERT
  5
1EC75
330
1EBBA
100
AcDbEntity
  8
寸法
 62
     0
 48
50.0
370
    -2
100
AcDbBlockReference
  2
_DOTSMALL
 10
7144.125198068326
 20
1250.760050064113
 30
0.0
 41
125.0
 42
125.0
 43
125.0
 50
180.0
  0
INSERT
  5
1EC76
330
1EBBA
100
AcDbEntity
  8
寸法
 62
     0
 48
50.0
370
    -2
100
AcDbBlockReference
  2
_DOTSMALL
 10
7744.125198068323
 20
1250.760050064113
 30
0.0
 41
125.0
 42
125.0
 43
125.0
  0
MTEXT
  5
1EC77
330
1EBBA
100
AcDbEntity
  8
寸法
 62
     7
 48
50.0
100
AcDbMText
 10
7444.125198068324
 20
1325.760050064113
 30
0.0
 40
100.0
 41
0.0
 71
     5
 72
     1
  1
\A1;300
  7
STYLE1
 73
     1
 44
1.0
1001
ACAD
1000
MTEXTBEGIN
1070
    73
1070
     1
1070
    44
1040
1.0
1070
    74
1070
     0
1000
MTEXTEND
  0
POINT
  5
1EC78
330
1EBBA
100
AcDbEntity
  8
DEFPOINTS
 62
     0
 48
50.0
100
AcDbPoint
 10
7144.125198068326
 20
1549.712156520047
 30
0.0
  0
POINT
  5
1EC79
330
1EBBA
100
AcDbEntity
  8
DEFPOINTS
 62
     0
 48
50.0
100
AcDbPoint
 10
7744.125198068323
 20
1549.712156520047
 30
0.0
  0
POINT
  5
1EC7A
330
1EBBA
100
AcDbEntity
  8
DEFPOINTS
 62
     0
 48
50.0
100
AcDbPoint
 10
7744.125198068323
 20
1250.760050064113
 30
0.0
  0
ENDBLK
  5
1EBC5
330
1EBBA
100
AcDbEntity
  8
0
 48
50.0
100
AcDbBlockEnd
  0
BLOCK
  5
1EBD0
330
1EBC6
100
AcDbEntity
  8
0
 48
50.0
100
AcDbBlockBegin
  2
*D5
 70
     1
 10
0.0
 20
0.0
 30
0.0
  3
*D5
  1

  0
LINE
  5
1EC69
330
1EBC6
100
AcDbEntity
  8
寸法
 62
     0
 48
50.0
370
    -2
100
AcDbLine
 10
7299.125198068324
 20
2789.712156520047
 30
0.0
 11
6394.65583026917
 21
2789.712156520048
 31
0.0
  0
LINE
  5
1EC6A
330
1EBC6
100
AcDbEntity
  8
寸法
 62
     0
 48
50.0
370
    -2
100
AcDbLine
 10
7039.125198068325
 20
1709.712156520047
 30
0.0
 11
6394.655830269169
 21
1709.712156520047
 31
0.0
  0
LINE
  5
1EC6B
330
1EBC6
100
AcDbEntity
  8
寸法
 62
     0
 48
50.0
370
    -2
100
AcDbLine
 10
6469.65583026917
 20
2789.712156520048
 30
0.0
 11
6469.65583026917
 21
1709.712156520047
 31
0.0
  0
INSERT
  5
1EC6C
330
1EBC6
100
AcDbEntity
  8
寸法
 62
     0
 48
50.0
370
    -2
100
AcDbBlockReference
  2
_DOTSMALL
 10
6469.65583026917
 20
2789.712156520048
 30
0.0
 41
125.0
 42
125.0
 43
125.0
 50
90.0
  0
INSERT
  5
1EC6D
330
1EBC6
100
AcDbEntity
  8
寸法
 62
     0
 48
50.0
370
    -2
100
AcDbBlockReference
  2
_DOTSMALL
 10
6469.65583026917
 20
1709.712156520047
 30
0.0
 41
125.0
 42
125.0
 43
125.0
 50
270.0
  0
MTEXT
  5
1EC6E
330
1EBC6
100
AcDbEntity
  8
寸法
 62
     7
 48
50.0
100
AcDbMText
 10
6394.655830269169
 20
2286.507093117757
 30
0.0
 40
100.0
 41
0.0
 71
     5
 72
     1
  1
\A1;540
  7
STYLE1
 11
0.0000000000000001
 21
1.0
 31
0.0
 73
     1
 44
1.0
1001
ACAD
1000
MTEXTBEGIN
1070
    73
1070
     1
1070
    44
1040
1.0
1070
    74
1070
     0
1000
MTEXTEND
  0
POINT
  5
1EC6F
330
1EBC6
100
AcDbEntity
  8
DEFPOINTS
 62
     0
 48
50.0
100
AcDbPoint
 10
7324.125198068324
 20
2789.712156520047
 30
0.0
  0
POINT
  5
1EC70
330
1EBC6
100
AcDbEntity
  8
DEFPOINTS
 62
     0
 48
50.0
100
AcDbPoint
 10
7064.125198068325
 20
1709.712156520047
 30
0.0
  0
POINT
  5
1EC71
330
1EBC6
100
AcDbEntity
  8
DEFPOINTS
 62
     0
 48
50.0
100
AcDbPoint
 10
6469.65583026917
 20
1709.712156520047
 30
0.0
  0
ENDBLK
  5
1EBD1
330
1EBC6
100
AcDbEntity
  8
0
 48
50.0
100
AcDbBlockEnd
  0
BLOCK
  5
1EBDC
330
1EBD2
100
AcDbEntity
  8
0
 48
50.0
100
AcDbBlockBegin
  2
*D6
 70
     1
 10
0.0
 20
0.0
 30
0.0
  3
*D6
  1

  0
LINE
  5
1EC7B
330
1EBD2
100
AcDbEntity
  8
寸法
 62
     0
 48
50.0
370
    -2
100
AcDbLine
 10
7139.125198068325
 20
2009.712156520047
 30
0.0
 11
6625.854853736716
 21
2009.712156520047
 31
0.0
  0
LINE
  5
1EC7C
330
1EBD2
100
AcDbEntity
  8
寸法
 62
     0
 48
50.0
370
    -2
100
AcDbLine
 10
7039.125198068325
 20
1709.712156520047
 30
0.0
 11
6625.854853736716
 21
1709.712156520047
 31
0.0
  0
LINE
  5
1EC7D
330
1EBD2
100
AcDbEntity
  8
寸法
 62
     0
 48
50.0
370
    -2
100
AcDbLine
 10
6700.854853736716
 20
2009.712156520047
 30
0.0
 11
6700.854853736716
 21
1709.712156520047
 31
0.0
  0
INSERT
  5
1EC7E
330
1EBD2
100
AcDbEntity
  8
寸法
 62
     0
 48
50.0
370
    -2
100
AcDbBlockReference
  2
_DOTSMALL
 10
6700.854853736716
 20
2009.712156520047
 30
0.0
 41
125.0
 42
125.0
 43
125.0
 50
90.0
  0
INSERT
  5
1EC7F
330
1EBD2
100
AcDbEntity
  8
寸法
 62
     0
 48
50.0
370
    -2
100
AcDbBlockReference
  2
_DOTSMALL
 10
6700.854853736716
 20
1709.712156520047
 30
0.0
 41
125.0
 42
125.0
 43
125.0
 50
270.0
  0
MTEXT
  5
1EC80
330
1EBD2
100
AcDbEntity
  8
寸法
 62
     7
 48
50.0
100
AcDbMText
 10
6625.854853736716
 20
1884.03875091219
 30
0.0
 40
100.0
 41
0.0
 71
     5
 72
     1
  1
\A1;150
  7
STYLE1
 11
0.0000000000000001
 21
1.0
 31
0.0
 73
     1
 44
1.0
1001
ACAD
1000
MTEXTBEGIN
1070
    73
1070
     1
1070
    44
1040
1.0
1070
    74
1070
     0
1000
MTEXTEND
  0
POINT
  5
1EC81
330
1EBD2
100
AcDbEntity
  8
DEFPOINTS
 62
     0
 48
50.0
100
AcDbPoint
 10
7164.125198068325
 20
2009.712156520047
 30
0.0
  0
POINT
  5
1EC82
330
1EBD2
100
AcDbEntity
  8
DEFPOINTS
 62
     0
 48
50.0
100
AcDbPoint
 10
7064.125198068325
 20
1709.712156520047
 30
0.0
  0
POINT
  5
1EC83
330
1EBD2
100
AcDbEntity
  8
DEFPOINTS
 62
     0
 48
50.0
100
AcDbPoint
 10
6700.854853736716
 20
1709.712156520047
 30
0.0
  0
ENDBLK
  5
1EBDD
330
1EBD2
100
AcDbEntity
  8
0
 48
50.0
100
AcDbBlockEnd
  0
BLOCK
  5
1EBE9
330
1EBDE
100
AcDbEntity
  8
0
 48
50.0
100
AcDbBlockBegin
  2
*D7
 70
     1
 10
0.0
 20
0.0
 30
0.0
  3
*D7
  1

  0
LINE
  5
1EC43
330
1EBDE
100
AcDbEntity
  8
寸法
 62
     0
 48
50.0
370
    -2
100
AcDbLine
 10
10371.54910159273
 20
2890.241876284836
 30
0.0
 11
10371.54910159273
 21
3183.975218182783
 31
0.0
  0
LINE
  5
1EC44
330
1EBDE
100
AcDbEntity
  8
寸法
 62
     0
 48
50.0
370
    -2
100
AcDbLine
 10
10515.04910159273
 20
2950.549568592527
 30
0.0
 11
10515.04910159273
 21
3183.975218182783
 31
0.0
  0
LINE
  5
1EC45
330
1EBDE
100
AcDbEntity
  8
寸法
 62
     0
 48
50.0
370
    -2
100
AcDbLine
 10
10515.04910159273
 20
3108.975218182783
 30
0.0
 11
10371.54910159273
 21
3108.975218182783
 31
0.0
  0
LINE
  5
1EC46
330
1EBDE
100
AcDbEntity
  8
寸法
 62
     0
 48
50.0
370
    -2
100
AcDbLine
 10
10371.54910159273
 20
3108.975218182783
 30
0.0
 11
10076.4227140005
 21
3108.975218182783
 31
0.0
  0
INSERT
  5
1EC47
330
1EBDE
100
AcDbEntity
  8
寸法
 62
     0
 48
50.0
370
    -2
100
AcDbBlockReference
  2
_DOTSMALL
 10
10515.04910159273
 20
3108.975218182783
 30
0.0
 41
125.0
 42
125.0
 43
125.0
  0
INSERT
  5
1EC48
330
1EBDE
100
AcDbEntity
  8
寸法
 62
     0
 48
50.0
370
    -2
100
AcDbBlockReference
  2
_DOTSMALL
 10
10371.54910159273
 20
3108.975218182783
 30
0.0
 41
125.0
 42
125.0
 43
125.0
 50
180.0
  0
MTEXT
  5
1EC49
330
1EBDE
100
AcDbEntity
  8
寸法
 62
     7
 48
50.0
100
AcDbMText
 10
10161.48590779662
 20
3183.975218182783
 30
0.0
 40
100.0
 41
0.0
 71
     5
 72
     1
  1
\A1;65
  7
STYLE1
 73
     1
 44
1.0
1001
ACAD
1000
MTEXTBEGIN
1070
    73
1070
     1
1070
    44
1040
1.0
1070
    74
1070
     0
1000
MTEXTEND
  0
POINT
  5
1EC4A
330
1EBDE
100
AcDbEntity
  8
DEFPOINTS
 62
     0
 48
50.0
100
AcDbPoint
 10
10371.54910159273
 20
2865.241876284836
 30
0.0
  0
POINT
  5
1EC4B
330
1EBDE
100
AcDbEntity
  8
DEFPOINTS
 62
     0
 48
50.0
100
AcDbPoint
 10
10515.04910159273
 20
2925.549568592527
 30
0.0
  0
POINT
  5
1EC4C
330
1EBDE
100
AcDbEntity
  8
DEFPOINTS
 62
     0
 48
50.0
100
AcDbPoint
 10
10515.04910159273
 20
3108.975218182783
 30
0.0
  0
ENDBLK
  5
1EBEA
330
1EBDE
100
AcDbEntity
  8
0
 48
50.0
100
AcDbBlockEnd
  0
BLOCK
  5
1F8E6
330
1F8DC
100
AcDbEntity
  8
0
 48
50.0
100
AcDbBlockBegin
  2
*D8
 70
     1
 10
0.0
 20
0.0
 30
0.0
  3
*D8
  1

  0
LINE
  5
1FB0E
330
1F8DC
100
AcDbEntity
  8
寸法
 62
     0
 48
50.0
370
    -2
100
AcDbLine
 10
10279.5
 20
8264.065974324534
 30
0.0
 11
10279.5
 21
9746.329124054712
 31
0.0
  0
LINE
  5
1FB0F
330
1F8DC
100
AcDbEntity
  8
寸法
 62
     0
 48
50.0
370
    -2
100
AcDbLine
 10
11224.5
 20
9064.065974324533
 30
0.0
 11
11224.5
 21
9746.329124054712
 31
0.0
  0
LINE
  5
1FB10
330
1F8DC
100
AcDbEntity
  8
寸法
 62
     0
 48
50.0
370
    -2
100
AcDbLine
 10
10279.5
 20
9671.329124054713
 30
0.0
 11
11224.5
 21
9671.329124054713
 31
0.0
  0
INSERT
  5
1FB11
330
1F8DC
100
AcDbEntity
  8
寸法
 62
     0
 48
50.0
370
    -2
100
AcDbBlockReference
  2
_DOTSMALL
 10
10279.5
 20
9671.329124054713
 30
0.0
 41
125.0
 42
125.0
 43
125.0
 50
180.0
  0
INSERT
  5
1FB12
330
1F8DC
100
AcDbEntity
  8
寸法
 62
     0
 48
50.0
370
    -2
100
AcDbBlockReference
  2
_DOTSMALL
 10
11224.5
 20
9671.329124054713
 30
0.0
 41
125.0
 42
125.0
 43
125.0
  0
MTEXT
  5
1FB13
330
1F8DC
100
AcDbEntity
  8
寸法
 62
     7
 48
50.0
100
AcDbMText
 10
10752.0
 20
9771.329124054712
 30
0.0
 40
150.0
 41
0.0
 71
     5
 72
     1
  1
\A1;945
  7
STYLE1
 73
     1
 44
1.0
1001
ACAD
1000
MTEXTBEGIN
1070
    73
1070
     1
1070
    44
1040
1.0
1070
    74
1070
     0
1000
MTEXTEND
  0
POINT
  5
1FB14
330
1F8DC
100
AcDbEntity
  8
DEFPOINTS
 62
     0
 48
50.0
100
AcDbPoint
 10
10279.5
 20
8239.065974324534
 30
0.0
  0
POINT
  5
1FB15
330
1F8DC
100
AcDbEntity
  8
DEFPOINTS
 62
     0
 48
50.0
100
AcDbPoint
 10
11224.5
 20
9039.065974324534
 30
0.0
  0
POINT
  5
1FB16
330
1F8DC
100
AcDbEntity
  8
DEFPOINTS
 62
     0
 48
50.0
100
AcDbPoint
 10
11224.5
 20
9671.329124054713
 30
0.0
  0
ENDBLK
  5
1F8E7
330
1F8DC
100
AcDbEntity
  8
0
 48
50.0
100
AcDbBlockEnd
  0
BLOCK
  5
1F8F2
330
1F8E8
100
AcDbEntity
  8
0
 48
50.0
100
AcDbBlockBegin
  2
*D9
 70
     1
 10
0.0
 20
0.0
 30
0.0
  3
*D9
  1

  0
LINE
  5
1FACB
330
1F8E8
100
AcDbEntity
  8
寸法
 62
     0
 48
50.0
370
    -2
100
AcDbLine
 10
9334.5
 20
7124.065974324533
 30
0.0
 11
9334.5
 21
6143.065974324533
 31
0.0
  0
LINE
  5
1FACC
330
1F8E8
100
AcDbEntity
  8
寸法
 62
     0
 48
50.0
370
    -2
100
AcDbLine
 10
11224.5
 20
7124.065974324533
 30
0.0
 11
11224.5
 21
6143.065974324533
 31
0.0
  0
LINE
  5
1FACD
330
1F8E8
100
AcDbEntity
  8
寸法
 62
     0
 48
50.0
370
    -2
100
AcDbLine
 10
9334.5
 20
6218.065974324535
 30
0.0
 11
11224.5
 21
6218.065974324535
 31
0.0
  0
INSERT
  5
1FACE
330
1F8E8
100
AcDbEntity
  8
寸法
 62
     0
 48
50.0
370
    -2
100
AcDbBlockReference
  2
_DOTSMALL
 10
9334.5
 20
6218.065974324535
 30
0.0
 41
125.0
 42
125.0
 43
125.0
 50
180.0
  0
INSERT
  5
1FACF
330
1F8E8
100
AcDbEntity
  8
寸法
 62
     0
 48
50.0
370
    -2
100
AcDbBlockReference
  2
_DOTSMALL
 10
11224.5
 20
6218.065974324535
 30
0.0
 41
125.0
 42
125.0
 43
125.0
  0
MTEXT
  5
1FAD0
330
1F8E8
100
AcDbEntity
  8
寸法
 62
     7
 48
50.0
100
AcDbMText
 10
10279.5
 20
6318.065974324533
 30
0.0
 40
150.0
 41
0.0
 71
     5
 72
     1
  1
\A1;1890
  7
STYLE1
 73
     1
 44
1.0
1001
ACAD
1000
MTEXTBEGIN
1070
    73
1070
     1
1070
    44
1040
1.0
1070
    74
1070
     0
1000
MTEXTEND
  0
POINT
  5
1FAD1
330
1F8E8
100
AcDbEntity
  8
DEFPOINTS
 62
     0
 48
50.0
100
AcDbPoint
 10
9334.5
 20
7149.065974324533
 30
0.0
  0
POINT
  5
1FAD2
330
1F8E8
100
AcDbEntity
  8
DEFPOINTS
 62
     0
 48
50.0
100
AcDbPoint
 10
11224.5
 20
7149.065974324535
 30
0.0
  0
POINT
  5
1FAD3
330
1F8E8
100
AcDbEntity
  8
DEFPOINTS
 62
     0
 48
50.0
100
AcDbPoint
 10
11224.5
 20
6218.065974324535
 30
0.0
  0
ENDBLK
  5
1F8F3
330
1F8E8
100
AcDbEntity
  8
0
 48
50.0
100
AcDbBlockEnd
  0
BLOCK
  5
1F8FD
330
1F8F4
100
AcDbEntity
  8
0
 48
50.0
100
AcDbBlockBegin
  2
*D10
 70
     1
 10
0.0
 20
0.0
 30
0.0
  3
*D10
  1

  0
LINE
  5
1FAC3
330
1F8F4
100
AcDbEntity
  8
寸法
 62
     0
 48
50.0
370
    -2
100
AcDbLine
 10
11159.5
 20
7044.065974324535
 30
0.0
 11
11159.5
 21
6454.598918079604
 31
0.0
  0
LINE
  5
1FAC4
330
1F8F4
100
AcDbEntity
  8
寸法
 62
     0
 48
50.0
370
    -2
100
AcDbLine
 10
9399.500000000001
 20
6529.598918079606
 30
0.0
 11
11159.5
 21
6529.598918079606
 31
0.0
  0
INSERT
  5
1FAC5
330
1F8F4
100
AcDbEntity
  8
寸法
 62
     0
 48
50.0
370
    -2
100
AcDbBlockReference
  2
_DOTSMALL
 10
9399.500000000001
 20
6529.598918079606
 30
0.0
 41
125.0
 42
125.0
 43
125.0
 50
180.0
  0
INSERT
  5
1FAC6
330
1F8F4
100
AcDbEntity
  8
寸法
 62
     0
 48
50.0
370
    -2
100
AcDbBlockReference
  2
_DOTSMALL
 10
11159.5
 20
6529.598918079606
 30
0.0
 41
125.0
 42
125.0
 43
125.0
  0
MTEXT
  5
1FAC7
330
1F8F4
100
AcDbEntity
  8
寸法
 62
     7
 48
50.0
100
AcDbMText
 10
10279.5
 20
6629.598918079604
 30
0.0
 40
150.0
 41
0.0
 71
     5
 72
     1
  1
\A1;1760
  7
STYLE1
 73
     1
 44
1.0
1001
ACAD
1000
MTEXTBEGIN
1070
    73
1070
     1
1070
    44
1040
1.0
1070
    74
1070
     0
1000
MTEXTEND
  0
POINT
  5
1FAC8
330
1F8F4
100
AcDbEntity
  8
DEFPOINTS
 62
     0
 48
50.0
100
AcDbPoint
 10
9399.500000000001
 20
7069.065974324534
 30
0.0
  0
POINT
  5
1FAC9
330
1F8F4
100
AcDbEntity
  8
DEFPOINTS
 62
     0
 48
50.0
100
AcDbPoint
 10
11159.5
 20
7069.065974324534
 30
0.0
  0
POINT
  5
1FACA
330
1F8F4
100
AcDbEntity
  8
DEFPOINTS
 62
     0
 48
50.0
100
AcDbPoint
 10
11159.5
 20
6529.598918079606
 30
0.0
  0
ENDBLK
  5
1F8FE
330
1F8F4
100
AcDbEntity
  8
0
 48
50.0
100
AcDbBlockEnd
  0
BLOCK
  5
1F909
330
1F8FF
100
AcDbEntity
  8
0
 48
50.0
100
AcDbBlockBegin
  2
*D11
 70
     1
 10
0.0
 20
0.0
 30
0.0
  3
*D11
  1

  0
LINE
  5
1FAA6
330
1F8FF
100
AcDbEntity
  8
寸法
 62
     0
 48
50.0
370
    -2
100
AcDbLine
 10
9352.177669529664
 20
7131.388304794871
 30
0.0
 11
9680.597610844158
 21
6802.968363480379
 31
0.0
  0
LINE
  5
1FAA7
330
1F8FF
100
AcDbEntity
  8
寸法
 62
     0
 48
50.0
370
    -2
100
AcDbLine
 10
11242.17766952966
 20
9021.388304794871
 30
0.0
 11
11570.59761084415
 21
8692.96836348038
 31
0.0
  0
LINE
  5
1FAA8
330
1F8FF
100
AcDbEntity
  8
寸法
 62
     0
 48
50.0
370
    -2
100
AcDbLine
 10
9627.564602255167
 20
6856.00137206937
 30
0.0
 11
11517.56460225516
 21
8746.00137206937
 31
0.0
  0
INSERT
  5
1FAA9
330
1F8FF
100
AcDbEntity
  8
寸法
 62
     0
 48
50.0
370
    -2
100
AcDbBlockReference
  2
_DOTSMALL
 10
9627.564602255167
 20
6856.00137206937
 30
0.0
 41
125.0
 42
125.0
 43
125.0
 50
225.0
  0
INSERT
  5
1FAAA
330
1F8FF
100
AcDbEntity
  8
寸法
 62
     0
 48
50.0
370
    -2
100
AcDbBlockReference
  2
_DOTSMALL
 10
11517.56460225516
 20
8746.00137206937
 30
0.0
 41
125.0
 42
125.0
 43
125.0
 50
45.0
  0
MTEXT
  5
1FAAB
330
1F8FF
100
AcDbEntity
  8
寸法
 62
     7
 48
50.0
100
AcDbMText
 10
10501.84348456789
 20
7871.722489756642
 30
0.0
 40
150.0
 41
0.0
 71
     5
 72
     1
  1
\A1;2672.9
  7
STYLE1
 11
0.7071067811865476
 21
0.7071067811865475
 31
0.0
 73
     1
 44
1.0
1001
ACAD
1000
MTEXTBEGIN
1070
    73
1070
     1
1070
    44
1040
1.0
1070
    74
1070
     0
1000
MTEXTEND
  0
POINT
  5
1FAAC
330
1F8FF
100
AcDbEntity
  8
DEFPOINTS
 62
     0
 48
50.0
100
AcDbPoint
 10
9334.5
 20
7149.065974324535
 30
0.0
  0
POINT
  5
1FAAD
330
1F8FF
100
AcDbEntity
  8
DEFPOINTS
 62
     0
 48
50.0
100
AcDbPoint
 10
11224.5
 20
9039.065974324534
 30
0.0
  0
POINT
  5
1FAAE
330
1F8FF
100
AcDbEntity
  8
DEFPOINTS
 62
     0
 48
50.0
100
AcDbPoint
 10
11517.56460225516
 20
8746.00137206937
 30
0.0
  0
ENDBLK
  5
1F90A
330
1F8FF
100
AcDbEntity
  8
0
 48
50.0
100
AcDbBlockEnd
  0
BLOCK
  5
1F916
330
1F90B
100
AcDbEntity
  8
0
 48
50.0
100
AcDbBlockBegin
  2
*D12
 70
     1
 10
0.0
 20
0.0
 30
0.0
  3
*D12
  1

  0
LINE
  5
1FAB9
330
1F90B
100
AcDbEntity
  8
寸法
 62
     0
 48
50.0
370
    -2
100
AcDbLine
 10
9334.5
 20
7124.065974324533
 30
0.0
 11
9334.5
 21
6454.598918079604
 31
0.0
  0
LINE
  5
1FABA
330
1F90B
100
AcDbEntity
  8
寸法
 62
     0
 48
50.0
370
    -2
100
AcDbLine
 10
9399.500000000001
 20
7044.065974324535
 30
0.0
 11
9399.500000000001
 21
6454.598918079604
 31
0.0
  0
LINE
  5
1FABB
330
1F90B
100
AcDbEntity
  8
寸法
 62
     0
 48
50.0
370
    -2
100
AcDbLine
 10
9399.500000000001
 20
6529.598918079606
 30
0.0
 11
9334.5
 21
6529.598918079606
 31
0.0
  0
LINE
  5
1FABC
330
1F90B
100
AcDbEntity
  8
寸法
 62
     0
 48
50.0
370
    -2
100
AcDbLine
 10
9334.5
 20
6529.598918079606
 30
0.0
 11
8979.310418611644
 21
6529.598918079606
 31
0.0
  0
INSERT
  5
1FABD
330
1F90B
100
AcDbEntity
  8
寸法
 62
     0
 48
50.0
370
    -2
100
AcDbBlockReference
  2
_DOTSMALL
 10
9399.500000000001
 20
6529.598918079606
 30
0.0
 41
125.0
 42
125.0
 43
125.0
  0
INSERT
  5
1FABE
330
1F90B
100
AcDbEntity
  8
寸法
 62
     0
 48
50.0
370
    -2
100
AcDbBlockReference
  2
_DOTSMALL
 10
9334.5
 20
6529.598918079606
 30
0.0
 41
125.0
 42
125.0
 43
125.0
 50
180.0
  0
MTEXT
  5
1FABF
330
1F90B
100
AcDbEntity
  8
寸法
 62
     7
 48
50.0
100
AcDbMText
 10
9094.405209305824
 20
6629.598918079604
 30
0.0
 40
150.0
 41
0.0
 71
     5
 72
     1
  1
\A1;65
  7
STYLE1
 73
     1
 44
1.0
1001
ACAD
1000
MTEXTBEGIN
1070
    73
1070
     1
1070
    44
1040
1.0
1070
    74
1070
     0
1000
MTEXTEND
  0
POINT
  5
1FAC0
330
1F90B
100
AcDbEntity
  8
DEFPOINTS
 62
     0
 48
50.0
100
AcDbPoint
 10
9334.5
 20
7149.065974324533
 30
0.0
  0
POINT
  5
1FAC1
330
1F90B
100
AcDbEntity
  8
DEFPOINTS
 62
     0
 48
50.0
100
AcDbPoint
 10
9399.500000000001
 20
7069.065974324534
 30
0.0
  0
POINT
  5
1FAC2
330
1F90B
100
AcDbEntity
  8
DEFPOINTS
 62
     0
 48
50.0
100
AcDbPoint
 10
9399.500000000001
 20
6529.598918079606
 30
0.0
  0
ENDBLK
  5
1F917
330
1F90B
100
AcDbEntity
  8
0
 48
50.0
100
AcDbBlockEnd
  0
BLOCK
  5
1F923
330
1F918
100
AcDbEntity
  8
0
 48
50.0
100
AcDbBlockBegin
  2
*D13
 70
     1
 10
0.0
 20
0.0
 30
0.0
  3
*D13
  1

  0
LINE
  5
1FAAF
330
1F918
100
AcDbEntity
  8
寸法
 62
     0
 48
50.0
370
    -2
100
AcDbLine
 10
9284.499999999999
 20
6504.598918079604
 30
0.0
 11
9284.499999999999
 21
6143.065974324533
 31
0.0
  0
LINE
  5
1FAB0
330
1F918
100
AcDbEntity
  8
寸法
 62
     0
 48
50.0
370
    -2
100
AcDbLine
 10
9334.5
 20
7124.065974324533
 30
0.0
 11
9334.5
 21
6143.065974324533
 31
0.0
  0
LINE
  5
1FAB1
330
1F918
100
AcDbEntity
  8
寸法
 62
     0
 48
50.0
370
    -2
100
AcDbLine
 10
9334.5
 20
6218.065974324535
 30
0.0
 11
9284.499999999999
 21
6218.065974324535
 31
0.0
  0
LINE
  5
1FAB2
330
1F918
100
AcDbEntity
  8
寸法
 62
     0
 48
50.0
370
    -2
100
AcDbLine
 10
9284.499999999999
 20
6218.065974324535
 30
0.0
 11
8823.618110236221
 21
6218.065974324535
 31
0.0
  0
INSERT
  5
1FAB3
330
1F918
100
AcDbEntity
  8
寸法
 62
     0
 48
50.0
370
    -2
100
AcDbBlockReference
  2
_DOTSMALL
 10
9334.5
 20
6218.065974324535
 30
0.0
 41
125.0
 42
125.0
 43
125.0
  0
INSERT
  5
1FAB4
330
1F918
100
AcDbEntity
  8
寸法
 62
     0
 48
50.0
370
    -2
100
AcDbBlockReference
  2
_DOTSMALL
 10
9284.499999999999
 20
6218.065974324535
 30
0.0
 41
125.0
 42
125.0
 43
125.0
 50
180.0
  0
MTEXT
  5
1FAB5
330
1F918
100
AcDbEntity
  8
寸法
 62
     7
 48
50.0
100
AcDbMText
 10
8991.059055118109
 20
6325.565974324533
 30
0.0
 40
150.0
 41
0.0
 71
     5
 72
     1
  1
\A1;(50)
  7
STYLE1
 73
     1
 44
1.0
1001
ACAD
1000
MTEXTBEGIN
1070
    73
1070
     1
1070
    44
1040
1.0
1070
    74
1070
     0
1000
MTEXTEND
  0
POINT
  5
1FAB6
330
1F918
100
AcDbEntity
  8
DEFPOINTS
 62
     0
 48
50.0
100
AcDbPoint
 10
9284.499999999999
 20
6529.598918079606
 30
0.0
  0
POINT
  5
1FAB7
330
1F918
100
AcDbEntity
  8
DEFPOINTS
 62
     0
 48
50.0
100
AcDbPoint
 10
9334.5
 20
7149.065974324535
 30
0.0
  0
POINT
  5
1FAB8
330
1F918
100
AcDbEntity
  8
DEFPOINTS
 62
     0
 48
50.0
100
AcDbPoint
 10
9334.5
 20
6218.065974324535
 30
0.0
  0
ENDBLK
  5
1F924
330
1F918
100
AcDbEntity
  8
0
 48
50.0
100
AcDbBlockEnd
  0
BLOCK
  5
1F92F
330
1F925
100
AcDbEntity
  8
0
 48
50.0
100
AcDbBlockBegin
  2
*D14
 70
     1
 10
0.0
 20
0.0
 30
0.0
  3
*D14
  1

  0
LINE
  5
1FB05
330
1F925
100
AcDbEntity
  8
寸法
 62
     0
 48
50.0
370
    -2
100
AcDbLine
 10
9334.5
 20
9064.065974324533
 30
0.0
 11
9334.5
 21
9746.329124054712
 31
0.0
  0
LINE
  5
1FB06
330
1F925
100
AcDbEntity
  8
寸法
 62
     0
 48
50.0
370
    -2
100
AcDbLine
 10
10279.5
 20
8264.065974324534
 30
0.0
 11
10279.5
 21
9746.329124054712
 31
0.0
  0
LINE
  5
1FB07
330
1F925
100
AcDbEntity
  8
寸法
 62
     0
 48
50.0
370
    -2
100
AcDbLine
 10
9334.5
 20
9671.329124054713
 30
0.0
 11
10279.5
 21
9671.329124054713
 31
0.0
  0
INSERT
  5
1FB08
330
1F925
100
AcDbEntity
  8
寸法
 62
     0
 48
50.0
370
    -2
100
AcDbBlockReference
  2
_DOTSMALL
 10
9334.5
 20
9671.329124054713
 30
0.0
 41
125.0
 42
125.0
 43
125.0
 50
180.0
  0
INSERT
  5
1FB09
330
1F925
100
AcDbEntity
  8
寸法
 62
     0
 48
50.0
370
    -2
100
AcDbBlockReference
  2
_DOTSMALL
 10
10279.5
 20
9671.329124054713
 30
0.0
 41
125.0
 42
125.0
 43
125.0
  0
MTEXT
  5
1FB0A
330
1F925
100
AcDbEntity
  8
寸法
 62
     7
 48
50.0
100
AcDbMText
 10
9807.0
 20
9771.329124054712
 30
0.0
 40
150.0
 41
0.0
 71
     5
 72
     1
  1
\A1;945
  7
STYLE1
 73
     1
 44
1.0
1001
ACAD
1000
MTEXTBEGIN
1070
    73
1070
     1
1070
    44
1040
1.0
1070
    74
1070
     0
1000
MTEXTEND
  0
POINT
  5
1FB0B
330
1F925
100
AcDbEntity
  8
DEFPOINTS
 62
     0
 48
50.0
100
AcDbPoint
 10
9334.5
 20
9039.065974324534
 30
0.0
  0
POINT
  5
1FB0C
330
1F925
100
AcDbEntity
  8
DEFPOINTS
 62
     0
 48
50.0
100
AcDbPoint
 10
10279.5
 20
8239.065974324534
 30
0.0
  0
POINT
  5
1FB0D
330
1F925
100
AcDbEntity
  8
DEFPOINTS
 62
     0
 48
50.0
100
AcDbPoint
 10
10279.5
 20
9671.329124054713
 30
0.0
  0
ENDBLK
  5
1F930
330
1F925
100
AcDbEntity
  8
0
 48
50.0
100
AcDbBlockEnd
  0
BLOCK
  5
1F93B
330
1F931
100
AcDbEntity
  8
0
 48
50.0
100
AcDbBlockBegin
  2
*D15
 70
     1
 10
0.0
 20
0.0
 30
0.0
  3
*D15
  1

  0
LINE
  5
1FAFC
330
1F931
100
AcDbEntity
  8
寸法
 62
     0
 48
50.0
370
    -2
100
AcDbLine
 10
9309.499999999999
 20
9039.065974324534
 30
0.0
 11
8508.500000000003
 21
9039.065974324534
 31
0.0
  0
LINE
  5
1FAFD
330
1F931
100
AcDbEntity
  8
寸法
 62
     0
 48
50.0
370
    -2
100
AcDbLine
 10
10109.5
 20
8094.065974324534
 30
0.0
 11
8508.500000000003
 21
8094.065974324534
 31
0.0
  0
LINE
  5
1FAFE
330
1F931
100
AcDbEntity
  8
寸法
 62
     0
 48
50.0
370
    -2
100
AcDbLine
 10
8583.5
 20
9039.065974324534
 30
0.0
 11
8583.5
 21
8094.065974324534
 31
0.0
  0
INSERT
  5
1FAFF
330
1F931
100
AcDbEntity
  8
寸法
 62
     0
 48
50.0
370
    -2
100
AcDbBlockReference
  2
_DOTSMALL
 10
8583.5
 20
9039.065974324534
 30
0.0
 41
125.0
 42
125.0
 43
125.0
 50
90.0
  0
INSERT
  5
1FB00
330
1F931
100
AcDbEntity
  8
寸法
 62
     0
 48
50.0
370
    -2
100
AcDbBlockReference
  2
_DOTSMALL
 10
8583.5
 20
8094.065974324534
 30
0.0
 41
125.0
 42
125.0
 43
125.0
 50
270.0
  0
MTEXT
  5
1FB01
330
1F931
100
AcDbEntity
  8
寸法
 62
     7
 48
50.0
100
AcDbMText
 10
8483.499999999997
 20
8566.565974324536
 30
0.0
 40
150.0
 41
0.0
 71
     5
 72
     1
  1
\A1;945
  7
STYLE1
 11
0.0000000000000001
 21
1.0
 31
0.0
 73
     1
 44
1.0
1001
ACAD
1000
MTEXTBEGIN
1070
    73
1070
     1
1070
    44
1040
1.0
1070
    74
1070
     0
1000
MTEXTEND
  0
POINT
  5
1FB02
330
1F931
100
AcDbEntity
  8
DEFPOINTS
 62
     0
 48
50.0
100
AcDbPoint
 10
9334.5
 20
9039.065974324534
 30
0.0
  0
POINT
  5
1FB03
330
1F931
100
AcDbEntity
  8
DEFPOINTS
 62
     0
 48
50.0
100
AcDbPoint
 10
10134.5
 20
8094.065974324534
 30
0.0
  0
POINT
  5
1FB04
330
1F931
100
AcDbEntity
  8
DEFPOINTS
 62
     0
 48
50.0
100
AcDbPoint
 10
8583.5
 20
8094.065974324534
 30
0.0
  0
ENDBLK
  5
1F93C
330
1F931
100
AcDbEntity
  8
0
 48
50.0
100
AcDbBlockEnd
  0
BLOCK
  5
1F946
330
1F93D
100
AcDbEntity
  8
0
 48
50.0
100
AcDbBlockBegin
  2
*D16
 70
     1
 10
0.0
 20
0.0
 30
0.0
  3
*D16
  1

  0
LINE
  5
1FA9E
330
1F93D
100
AcDbEntity
  8
寸法
 62
     0
 48
50.0
370
    -2
100
AcDbLine
 10
9309.499999999999
 20
7149.065974324535
 30
0.0
 11
8508.500000000003
 21
7149.065974324535
 31
0.0
  0
LINE
  5
1FA9F
330
1F93D
100
AcDbEntity
  8
寸法
 62
     0
 48
50.0
370
    -2
100
AcDbLine
 10
8583.5
 20
8094.065974324534
 30
0.0
 11
8583.5
 21
7149.065974324535
 31
0.0
  0
INSERT
  5
1FAA0
330
1F93D
100
AcDbEntity
  8
寸法
 62
     0
 48
50.0
370
    -2
100
AcDbBlockReference
  2
_DOTSMALL
 10
8583.5
 20
8094.065974324534
 30
0.0
 41
125.0
 42
125.0
 43
125.0
 50
90.0
  0
INSERT
  5
1FAA1
330
1F93D
100
AcDbEntity
  8
寸法
 62
     0
 48
50.0
370
    -2
100
AcDbBlockReference
  2
_DOTSMALL
 10
8583.5
 20
7149.065974324535
 30
0.0
 41
125.0
 42
125.0
 43
125.0
 50
270.0
  0
MTEXT
  5
1FAA2
330
1F93D
100
AcDbEntity
  8
寸法
 62
     7
 48
50.0
100
AcDbMText
 10
8483.499999999997
 20
7621.565974324536
 30
0.0
 40
150.0
 41
0.0
 71
     5
 72
     1
  1
\A1;945
  7
STYLE1
 11
0.0000000000000001
 21
1.0
 31
0.0
 73
     1
 44
1.0
1001
ACAD
1000
MTEXTBEGIN
1070
    73
1070
     1
1070
    44
1040
1.0
1070
    74
1070
     0
1000
MTEXTEND
  0
POINT
  5
1FAA3
330
1F93D
100
AcDbEntity
  8
DEFPOINTS
 62
     0
 48
50.0
100
AcDbPoint
 10
10134.5
 20
8094.065974324534
 30
0.0
  0
POINT
  5
1FAA4
330
1F93D
100
AcDbEntity
  8
DEFPOINTS
 62
     0
 48
50.0
100
AcDbPoint
 10
9334.5
 20
7149.065974324535
 30
0.0
  0
POINT
  5
1FAA5
330
1F93D
100
AcDbEntity
  8
DEFPOINTS
 62
     0
 48
50.0
100
AcDbPoint
 10
8583.5
 20
7149.065974324535
 30
0.0
  0
ENDBLK
  5
1F947
330
1F93D
100
AcDbEntity
  8
0
 48
50.0
100
AcDbBlockEnd
  0
BLOCK
  5
1F953
330
1F948
100
AcDbEntity
  8
0
 48
50.0
100
AcDbBlockBegin
  2
*D17
 70
     1
 10
0.0
 20
0.0
 30
0.0
  3
*D17
  1

  0
LINE
  5
1FA94
330
1F948
100
AcDbEntity
  8
寸法
 62
     0
 48
50.0
370
    -2
100
AcDbLine
 10
9742.371276319012
 20
7269.065974324535
 30
0.0
 11
9692.371276319013
 21
7269.065974324535
 31
0.0
  0
LINE
  5
1FA95
330
1F948
100
AcDbEntity
  8
寸法
 62
     0
 48
50.0
370
    -2
100
AcDbLine
 10
9742.371276319012
 20
7149.065974324533
 30
0.0
 11
9692.371276319013
 21
7149.065974324533
 31
0.0
  0
LINE
  5
1FA96
330
1F948
100
AcDbEntity
  8
寸法
 62
     0
 48
50.0
370
    -2
100
AcDbLine
 10
9767.371276319012
 20
7149.065974324533
 30
0.0
 11
9767.371276319012
 21
7269.065974324535
 31
0.0
  0
LINE
  5
1FA97
330
1F948
100
AcDbEntity
  8
寸法
 62
     0
 48
50.0
370
    -2
100
AcDbLine
 10
9767.371276319012
 20
7269.065974324535
 30
0.0
 11
9767.371276319012
 21
7752.231631160441
 31
0.0
  0
INSERT
  5
1FA98
330
1F948
100
AcDbEntity
  8
寸法
 62
     0
 48
50.0
370
    -2
100
AcDbBlockReference
  2
_DOTSMALL
 10
9767.371276319012
 20
7149.065974324533
 30
0.0
 41
125.0
 42
125.0
 43
125.0
 50
270.0
  0
INSERT
  5
1FA99
330
1F948
100
AcDbEntity
  8
寸法
 62
     0
 48
50.0
370
    -2
100
AcDbBlockReference
  2
_DOTSMALL
 10
9767.371276319012
 20
7269.065974324535
 30
0.0
 41
125.0
 42
125.0
 43
125.0
 50
90.0
  0
MTEXT
  5
1FA9A
330
1F948
100
AcDbEntity
  8
寸法
 62
     7
 48
50.0
100
AcDbMText
 10
9667.356512539484
 20
7607.172576042332
 30
0.0
 40
150.0
 41
0.0
 71
     5
 72
     1
  1
\A1;120
  7
STYLE1
 11
0.0000000000000001
 21
1.0
 31
0.0
 73
     1
 44
1.0
1001
ACAD
1000
MTEXTBEGIN
1070
    73
1070
     1
1070
    44
1040
1.0
1070
    74
1070
     0
1000
MTEXTEND
  0
POINT
  5
1FA9B
330
1F948
100
AcDbEntity
  8
DEFPOINTS
 62
     0
 48
50.0
100
AcDbPoint
 10
9767.371276319012
 20
7269.065974324535
 30
0.0
  0
POINT
  5
1FA9C
330
1F948
100
AcDbEntity
  8
DEFPOINTS
 62
     0
 48
50.0
100
AcDbPoint
 10
9767.371276319012
 20
7149.065974324533
 30
0.0
  0
POINT
  5
1FA9D
330
1F948
100
AcDbEntity
  8
DEFPOINTS
 62
     0
 48
50.0
100
AcDbPoint
 10
9767.371276319012
 20
7149.065974324533
 30
0.0
  0
ENDBLK
  5
1F954
330
1F948
100
AcDbEntity
  8
0
 48
50.0
100
AcDbBlockEnd
  0
BLOCK
  5
1F960
330
1F955
100
AcDbEntity
  8
0
 48
50.0
100
AcDbBlockBegin
  2
*D18
 70
     1
 10
0.0
 20
0.0
 30
0.0
  3
*D18
  1

  0
LINE
  5
1FAF2
330
1F955
100
AcDbEntity
  8
寸法
 62
     0
 48
50.0
370
    -2
100
AcDbLine
 10
11159.5
 20
7044.065974324535
 30
0.0
 11
11159.5
 21
6454.598918079604
 31
0.0
  0
LINE
  5
1FAF3
330
1F955
100
AcDbEntity
  8
寸法
 62
     0
 48
50.0
370
    -2
100
AcDbLine
 10
11224.5
 20
7124.065974324536
 30
0.0
 11
11224.5
 21
6454.598918079604
 31
0.0
  0
LINE
  5
1FAF4
330
1F955
100
AcDbEntity
  8
寸法
 62
     0
 48
50.0
370
    -2
100
AcDbLine
 10
11159.5
 20
6529.598918079606
 30
0.0
 11
11224.5
 21
6529.598918079606
 31
0.0
  0
LINE
  5
1FAF5
330
1F955
100
AcDbEntity
  8
寸法
 62
     0
 48
50.0
370
    -2
100
AcDbLine
 10
11224.5
 20
6529.598918079606
 30
0.0
 11
11579.68958138835
 21
6529.598918079606
 31
0.0
  0
INSERT
  5
1FAF6
330
1F955
100
AcDbEntity
  8
寸法
 62
     0
 48
50.0
370
    -2
100
AcDbBlockReference
  2
_DOTSMALL
 10
11159.5
 20
6529.598918079606
 30
0.0
 41
125.0
 42
125.0
 43
125.0
 50
180.0
  0
INSERT
  5
1FAF7
330
1F955
100
AcDbEntity
  8
寸法
 62
     0
 48
50.0
370
    -2
100
AcDbBlockReference
  2
_DOTSMALL
 10
11224.5
 20
6529.598918079606
 30
0.0
 41
125.0
 42
125.0
 43
125.0
  0
MTEXT
  5
1FAF8
330
1F955
100
AcDbEntity
  8
寸法
 62
     7
 48
50.0
100
AcDbMText
 10
11464.59479069418
 20
6629.598918079604
 30
0.0
 40
150.0
 41
0.0
 71
     5
 72
     1
  1
\A1;65
  7
STYLE1
 73
     1
 44
1.0
1001
ACAD
1000
MTEXTBEGIN
1070
    73
1070
     1
1070
    44
1040
1.0
1070
    74
1070
     0
1000
MTEXTEND
  0
POINT
  5
1FAF9
330
1F955
100
AcDbEntity
  8
DEFPOINTS
 62
     0
 48
50.0
100
AcDbPoint
 10
11159.5
 20
7069.065974324534
 30
0.0
  0
POINT
  5
1FAFA
330
1F955
100
AcDbEntity
  8
DEFPOINTS
 62
     0
 48
50.0
100
AcDbPoint
 10
11224.5
 20
7149.065974324535
 30
0.0
  0
POINT
  5
1FAFB
330
1F955
100
AcDbEntity
  8
DEFPOINTS
 62
     0
 48
50.0
100
AcDbPoint
 10
11224.5
 20
6529.598918079606
 30
0.0
  0
ENDBLK
  5
1F961
330
1F955
100
AcDbEntity
  8
0
 48
50.0
100
AcDbBlockEnd
  0
BLOCK
  5
1F96D
330
1F962
100
AcDbEntity
  8
0
 48
50.0
100
AcDbBlockBegin
  2
*D19
 70
     1
 10
0.0
 20
0.0
 30
0.0
  3
*D19
  1

  0
LINE
  5
1FAD4
330
1F962
100
AcDbEntity
  8
寸法
 62
     0
 48
50.0
370
    -2
100
AcDbLine
 10
11224.5
 20
7124.065974324536
 30
0.0
 11
11224.5
 21
6143.065974324533
 31
0.0
  0
LINE
  5
1FAD5
330
1F962
100
AcDbEntity
  8
寸法
 62
     0
 48
50.0
370
    -2
100
AcDbLine
 10
11274.5
 20
6504.598918079604
 30
0.0
 11
11274.5
 21
6143.065974324533
 31
0.0
  0
LINE
  5
1FAD6
330
1F962
100
AcDbEntity
  8
寸法
 62
     0
 48
50.0
370
    -2
100
AcDbLine
 10
11224.5
 20
6218.065974324535
 30
0.0
 11
11274.5
 21
6218.065974324535
 31
0.0
  0
LINE
  5
1FAD7
330
1F962
100
AcDbEntity
  8
寸法
 62
     0
 48
50.0
370
    -2
100
AcDbLine
 10
11274.5
 20
6218.065974324535
 30
0.0
 11
11734.38188976378
 21
6218.065974324535
 31
0.0
  0
INSERT
  5
1FAD8
330
1F962
100
AcDbEntity
  8
寸法
 62
     0
 48
50.0
370
    -2
100
AcDbBlockReference
  2
_DOTSMALL
 10
11224.5
 20
6218.065974324535
 30
0.0
 41
125.0
 42
125.0
 43
125.0
 50
180.0
  0
INSERT
  5
1FAD9
330
1F962
100
AcDbEntity
  8
寸法
 62
     0
 48
50.0
370
    -2
100
AcDbBlockReference
  2
_DOTSMALL
 10
11274.5
 20
6218.065974324535
 30
0.0
 41
125.0
 42
125.0
 43
125.0
  0
MTEXT
  5
1FADA
330
1F962
100
AcDbEntity
  8
寸法
 62
     7
 48
50.0
100
AcDbMText
 10
11566.94094488189
 20
6325.565974324533
 30
0.0
 40
150.0
 41
0.0
 71
     5
 72
     1
  1
\A1;(50)
  7
STYLE1
 73
     1
 44
1.0
1001
ACAD
1000
MTEXTBEGIN
1070
    73
1070
     1
1070
    44
1040
1.0
1070
    74
1070
     0
1000
MTEXTEND
  0
POINT
  5
1FADB
330
1F962
100
AcDbEntity
  8
DEFPOINTS
 62
     0
 48
50.0
100
AcDbPoint
 10
11224.5
 20
7149.065974324535
 30
0.0
  0
POINT
  5
1FADC
330
1F962
100
AcDbEntity
  8
DEFPOINTS
 62
     0
 48
50.0
100
AcDbPoint
 10
11274.5
 20
6529.598918079606
 30
0.0
  0
POINT
  5
1FADD
330
1F962
100
AcDbEntity
  8
DEFPOINTS
 62
     0
 48
50.0
100
AcDbPoint
 10
11274.5
 20
6218.065974324535
 30
0.0
  0
ENDBLK
  5
1F96E
330
1F962
100
AcDbEntity
  8
0
 48
50.0
100
AcDbBlockEnd
  0
BLOCK
  5
1F97A
330
1F96F
100
AcDbEntity
  8
0
 48
50.0
100
AcDbBlockBegin
  2
*D20
 70
     1
 10
0.0
 20
0.0
 30
0.0
  3
*D20
  1

  0
LINE
  5
1FAE8
330
1F96F
100
AcDbEntity
  8
寸法
 62
     0
 48
50.0
370
    -2
100
AcDbLine
 10
11329.5
 20
7214.065974324532
 30
0.0
 11
11829.56822416407
 21
7214.065974324532
 31
0.0
  0
LINE
  5
1FAE9
330
1F96F
100
AcDbEntity
  8
寸法
 62
     0
 48
50.0
370
    -2
100
AcDbLine
 10
11249.5
 20
7149.065974324535
 30
0.0
 11
11829.56822416407
 21
7149.065974324535
 31
0.0
  0
LINE
  5
1FAEA
330
1F96F
100
AcDbEntity
  8
寸法
 62
     0
 48
50.0
370
    -2
100
AcDbLine
 10
11754.56822416407
 20
7214.065974324532
 30
0.0
 11
11754.56822416407
 21
7149.065974324535
 31
0.0
  0
LINE
  5
1FAEB
330
1F96F
100
AcDbEntity
  8
寸法
 62
     0
 48
50.0
370
    -2
100
AcDbLine
 10
11754.56822416407
 20
7149.065974324535
 30
0.0
 11
11754.56822416407
 21
6793.87639293618
 31
0.0
  0
INSERT
  5
1FAEC
330
1F96F
100
AcDbEntity
  8
寸法
 62
     0
 48
50.0
370
    -2
100
AcDbBlockReference
  2
_DOTSMALL
 10
11754.56822416407
 20
7214.065974324532
 30
0.0
 41
125.0
 42
125.0
 43
125.0
 50
90.0
  0
INSERT
  5
1FAED
330
1F96F
100
AcDbEntity
  8
寸法
 62
     0
 48
50.0
370
    -2
100
AcDbBlockReference
  2
_DOTSMALL
 10
11754.56822416407
 20
7149.065974324535
 30
0.0
 41
125.0
 42
125.0
 43
125.0
 50
270.0
  0
MTEXT
  5
1FAEE
330
1F96F
100
AcDbEntity
  8
寸法
 62
     7
 48
50.0
100
AcDbMText
 10
11654.56822416407
 20
6908.971183630358
 30
0.0
 40
150.0
 41
0.0
 71
     5
 72
     1
  1
\A1;65
  7
STYLE1
 11
0.0000000000000001
 21
1.0
 31
0.0
 73
     1
 44
1.0
1001
ACAD
1000
MTEXTBEGIN
1070
    73
1070
     1
1070
    44
1040
1.0
1070
    74
1070
     0
1000
MTEXTEND
  0
POINT
  5
1FAEF
330
1F96F
100
AcDbEntity
  8
DEFPOINTS
 62
     0
 48
50.0
100
AcDbPoint
 10
11304.5
 20
7214.065974324532
 30
0.0
  0
POINT
  5
1FAF0
330
1F96F
100
AcDbEntity
  8
DEFPOINTS
 62
     0
 48
50.0
100
AcDbPoint
 10
11224.5
 20
7149.065974324535
 30
0.0
  0
POINT
  5
1FAF1
330
1F96F
100
AcDbEntity
  8
DEFPOINTS
 62
     0
 48
50.0
100
AcDbPoint
 10
11754.56822416407
 20
7149.065974324535
 30
0.0
  0
ENDBLK
  5
1F97B
330
1F96F
100
AcDbEntity
  8
0
 48
50.0
100
AcDbBlockEnd
  0
BLOCK
  5
1F987
330
1F97C
100
AcDbEntity
  8
0
 48
50.0
100
AcDbBlockBegin
  2
*D21
 70
     1
 10
0.0
 20
0.0
 30
0.0
  3
*D21
  1

  0
LINE
  5
1FADE
330
1F97C
100
AcDbEntity
  8
寸法
 62
     0
 48
50.0
370
    -2
100
AcDbLine
 10
11249.5
 20
7149.065974324535
 30
0.0
 11
12150.5
 21
7149.065974324535
 31
0.0
  0
LINE
  5
1FADF
330
1F97C
100
AcDbEntity
  8
寸法
 62
     0
 48
50.0
370
    -2
100
AcDbLine
 10
11779.56822416406
 20
7019.065974324535
 30
0.0
 11
12150.5
 21
7019.065974324535
 31
0.0
  0
LINE
  5
1FAE0
330
1F97C
100
AcDbEntity
  8
寸法
 62
     0
 48
50.0
370
    -2
100
AcDbLine
 10
12075.5
 20
7149.065974324535
 30
0.0
 11
12075.5
 21
7019.065974324535
 31
0.0
  0
LINE
  5
1FAE1
330
1F97C
100
AcDbEntity
  8
寸法
 62
     0
 48
50.0
370
    -2
100
AcDbLine
 10
12075.5
 20
7019.065974324535
 30
0.0
 11
12075.5
 21
6483.184084560753
 31
0.0
  0
INSERT
  5
1FAE2
330
1F97C
100
AcDbEntity
  8
寸法
 62
     0
 48
50.0
370
    -2
100
AcDbBlockReference
  2
_DOTSMALL
 10
12075.5
 20
7149.065974324535
 30
0.0
 41
125.0
 42
125.0
 43
125.0
 50
90.0
  0
INSERT
  5
1FAE3
330
1F97C
100
AcDbEntity
  8
寸法
 62
     0
 48
50.0
370
    -2
100
AcDbBlockReference
  2
_DOTSMALL
 10
12075.5
 20
7019.065974324535
 30
0.0
 41
125.0
 42
125.0
 43
125.0
 50
270.0
  0
MTEXT
  5
1FAE4
330
1F97C
100
AcDbEntity
  8
寸法
 62
     7
 48
50.0
100
AcDbMText
 10
11968.0
 20
6688.125029442645
 30
0.0
 40
150.0
 41
0.0
 71
     5
 72
     1
  1
\A1;(130)
  7
STYLE1
 11
0.0000000000000001
 21
1.0
 31
0.0
 73
     1
 44
1.0
1001
ACAD
1000
MTEXTBEGIN
1070
    73
1070
     1
1070
    44
1040
1.0
1070
    74
1070
     0
1000
MTEXTEND
  0
POINT
  5
1FAE5
330
1F97C
100
AcDbEntity
  8
DEFPOINTS
 62
     0
 48
50.0
100
AcDbPoint
 10
11224.5
 20
7149.065974324535
 30
0.0
  0
POINT
  5
1FAE6
330
1F97C
100
AcDbEntity
  8
DEFPOINTS
 62
     0
 48
50.0
100
AcDbPoint
 10
11754.56822416407
 20
7019.065974324535
 30
0.0
  0
POINT
  5
1FAE7
330
1F97C
100
AcDbEntity
  8
DEFPOINTS
 62
     0
 48
50.0
100
AcDbPoint
 10
12075.5
 20
7019.065974324535
 30
0.0
  0
ENDBLK
  5
1F988
330
1F97C
100
AcDbEntity
  8
0
 48
50.0
100
AcDbBlockEnd
  0
BLOCK
  5
1F994
330
1F989
100
AcDbEntity
  8
0
 48
50.0
100
AcDbBlockBegin
  2
*D22
 70
     1
 10
0.0
 20
0.0
 30
0.0
  3
*D22
  1

  0
LINE
  5
1FB2B
330
1F989
100
AcDbEntity
  8
寸法
 62
     0
 48
50.0
370
    -2
100
AcDbLine
 10
11249.5
 20
9039.065974324534
 30
0.0
 11
11829.56822416407
 21
9039.065974324534
 31
0.0
  0
LINE
  5
1FB2C
330
1F989
100
AcDbEntity
  8
寸法
 62
     0
 48
50.0
370
    -2
100
AcDbLine
 10
11329.5
 20
8974.065974324535
 30
0.0
 11
11829.56822416407
 21
8974.065974324535
 31
0.0
  0
LINE
  5
1FB2D
330
1F989
100
AcDbEntity
  8
寸法
 62
     0
 48
50.0
370
    -2
100
AcDbLine
 10
11754.56822416407
 20
8974.065974324535
 30
0.0
 11
11754.56822416407
 21
9039.065974324534
 31
0.0
  0
LINE
  5
1FB2E
330
1F989
100
AcDbEntity
  8
寸法
 62
     0
 48
50.0
370
    -2
100
AcDbLine
 10
11754.56822416407
 20
9039.065974324534
 30
0.0
 11
11754.56822416407
 21
9394.255555712886
 31
0.0
  0
INSERT
  5
1FB2F
330
1F989
100
AcDbEntity
  8
寸法
 62
     0
 48
50.0
370
    -2
100
AcDbBlockReference
  2
_DOTSMALL
 10
11754.56822416407
 20
8974.065974324535
 30
0.0
 41
125.0
 42
125.0
 43
125.0
 50
270.0
  0
INSERT
  5
1FB30
330
1F989
100
AcDbEntity
  8
寸法
 62
     0
 48
50.0
370
    -2
100
AcDbBlockReference
  2
_DOTSMALL
 10
11754.56822416407
 20
9039.065974324534
 30
0.0
 41
125.0
 42
125.0
 43
125.0
 50
90.0
  0
MTEXT
  5
1FB31
330
1F989
100
AcDbEntity
  8
寸法
 62
     7
 48
50.0
100
AcDbMText
 10
11654.56822416407
 20
9279.160765018714
 30
0.0
 40
150.0
 41
0.0
 71
     5
 72
     1
  1
\A1;65
  7
STYLE1
 11
0.0000000000000001
 21
1.0
 31
0.0
 73
     1
 44
1.0
1001
ACAD
1000
MTEXTBEGIN
1070
    73
1070
     1
1070
    44
1040
1.0
1070
    74
1070
     0
1000
MTEXTEND
  0
POINT
  5
1FB32
330
1F989
100
AcDbEntity
  8
DEFPOINTS
 62
     0
 48
50.0
100
AcDbPoint
 10
11224.5
 20
9039.065974324534
 30
0.0
  0
POINT
  5
1FB33
330
1F989
100
AcDbEntity
  8
DEFPOINTS
 62
     0
 48
50.0
100
AcDbPoint
 10
11304.5
 20
8974.065974324535
 30
0.0
  0
POINT
  5
1FB34
330
1F989
100
AcDbEntity
  8
DEFPOINTS
 62
     0
 48
50.0
100
AcDbPoint
 10
11754.56822416407
 20
8974.065974324535
 30
0.0
  0
ENDBLK
  5
1F995
330
1F989
100
AcDbEntity
  8
0
 48
50.0
100
AcDbBlockEnd
  0
BLOCK
  5
1F9A1
330
1F996
100
AcDbEntity
  8
0
 48
50.0
100
AcDbBlockBegin
  2
*D23
 70
     1
 10
0.0
 20
0.0
 30
0.0
  3
*D23
  1

  0
LINE
  5
1FB21
330
1F996
100
AcDbEntity
  8
寸法
 62
     0
 48
50.0
370
    -2
100
AcDbLine
 10
11249.5
 20
9039.065974324534
 30
0.0
 11
12150.5
 21
9039.065974324534
 31
0.0
  0
LINE
  5
1FB22
330
1F996
100
AcDbEntity
  8
寸法
 62
     0
 48
50.0
370
    -2
100
AcDbLine
 10
11779.56822416406
 20
9129.065974324532
 30
0.0
 11
12150.5
 21
9129.065974324532
 31
0.0
  0
LINE
  5
1FB23
330
1F996
100
AcDbEntity
  8
寸法
 62
     0
 48
50.0
370
    -2
100
AcDbLine
 10
12075.5
 20
9039.065974324534
 30
0.0
 11
12075.5
 21
9129.065974324532
 31
0.0
  0
LINE
  5
1FB24
330
1F996
100
AcDbEntity
  8
寸法
 62
     0
 48
50.0
370
    -2
100
AcDbLine
 10
12075.5
 20
9129.065974324532
 30
0.0
 11
12075.5
 21
9590.472013662454
 31
0.0
  0
INSERT
  5
1FB25
330
1F996
100
AcDbEntity
  8
寸法
 62
     0
 48
50.0
370
    -2
100
AcDbBlockReference
  2
_DOTSMALL
 10
12075.5
 20
9039.065974324534
 30
0.0
 41
125.0
 42
125.0
 43
125.0
 50
270.0
  0
INSERT
  5
1FB26
330
1F996
100
AcDbEntity
  8
寸法
 62
     0
 48
50.0
370
    -2
100
AcDbBlockReference
  2
_DOTSMALL
 10
12075.5
 20
9129.065974324532
 30
0.0
 41
125.0
 42
125.0
 43
125.0
 50
90.0
  0
MTEXT
  5
1FB27
330
1F996
100
AcDbEntity
  8
寸法
 62
     7
 48
50.0
100
AcDbMText
 10
11967.96374807352
 20
9422.768993993491
 30
0.0
 40
150.0
 41
0.0
 71
     5
 72
     1
  1
\A1;(90)
  7
STYLE1
 11
0.0000000000000001
 21
1.0
 31
0.0
 73
     1
 44
1.0
1001
ACAD
1000
MTEXTBEGIN
1070
    73
1070
     1
1070
    44
1040
1.0
1070
    74
1070
     0
1000
MTEXTEND
  0
POINT
  5
1FB28
330
1F996
100
AcDbEntity
  8
DEFPOINTS
 62
     0
 48
50.0
100
AcDbPoint
 10
11224.5
 20
9039.065974324534
 30
0.0
  0
POINT
  5
1FB29
330
1F996
100
AcDbEntity
  8
DEFPOINTS
 62
     0
 48
50.0
100
AcDbPoint
 10
11754.56822416407
 20
9129.065974324532
 30
0.0
  0
POINT
  5
1FB2A
330
1F996
100
AcDbEntity
  8
DEFPOINTS
 62
     0
 48
50.0
100
AcDbPoint
 10
12075.5
 20
9129.065974324532
 30
0.0
  0
ENDBLK
  5
1F9A2
330
1F996
100
AcDbEntity
  8
0
 48
50.0
100
AcDbBlockEnd
  0
BLOCK
  5
1F9AD
330
1F9A3
100
AcDbEntity
  8
0
 48
50.0
100
AcDbBlockBegin
  2
*D24
 70
     1
 10
0.0
 20
0.0
 30
0.0
  3
*D24
  1

  0
LINE
  5
1FA8B
330
1F9A3
100
AcDbEntity
  8
寸法
 62
     0
 48
50.0
370
    -2
100
AcDbLine
 10
11249.5
 20
7149.065974324535
 30
0.0
 11
12150.5
 21
7149.065974324535
 31
0.0
  0
LINE
  5
1FA8C
330
1F9A3
100
AcDbEntity
  8
寸法
 62
     0
 48
50.0
370
    -2
100
AcDbLine
 10
11249.5
 20
9039.065974324534
 30
0.0
 11
12150.5
 21
9039.065974324534
 31
0.0
  0
LINE
  5
1FA8D
330
1F9A3
100
AcDbEntity
  8
寸法
 62
     0
 48
50.0
370
    -2
100
AcDbLine
 10
12075.5
 20
7149.065974324535
 30
0.0
 11
12075.5
 21
9039.065974324534
 31
0.0
  0
INSERT
  5
1FA8E
330
1F9A3
100
AcDbEntity
  8
寸法
 62
     0
 48
50.0
370
    -2
100
AcDbBlockReference
  2
_DOTSMALL
 10
12075.5
 20
7149.065974324535
 30
0.0
 41
125.0
 42
125.0
 43
125.0
 50
270.0
  0
INSERT
  5
1FA8F
330
1F9A3
100
AcDbEntity
  8
寸法
 62
     0
 48
50.0
370
    -2
100
AcDbBlockReference
  2
_DOTSMALL
 10
12075.5
 20
9039.065974324534
 30
0.0
 41
125.0
 42
125.0
 43
125.0
 50
90.0
  0
MTEXT
  5
1FA90
330
1F9A3
100
AcDbEntity
  8
寸法
 62
     7
 48
50.0
100
AcDbMText
 10
11975.5
 20
8094.065974324534
 30
0.0
 40
150.0
 41
0.0
 71
     5
 72
     1
  1
\A1;1890
  7
STYLE1
 11
0.0000000000000001
 21
1.0
 31
0.0
 73
     1
 44
1.0
1001
ACAD
1000
MTEXTBEGIN
1070
    73
1070
     1
1070
    44
1040
1.0
1070
    74
1070
     0
1000
MTEXTEND
  0
POINT
  5
1FA91
330
1F9A3
100
AcDbEntity
  8
DEFPOINTS
 62
     0
 48
50.0
100
AcDbPoint
 10
11224.5
 20
7149.065974324535
 30
0.0
  0
POINT
  5
1FA92
330
1F9A3
100
AcDbEntity
  8
DEFPOINTS
 62
     0
 48
50.0
100
AcDbPoint
 10
11224.5
 20
9039.065974324534
 30
0.0
  0
POINT
  5
1FA93
330
1F9A3
100
AcDbEntity
  8
DEFPOINTS
 62
     0
 48
50.0
100
AcDbPoint
 10
12075.5
 20
9039.065974324534
 30
0.0
  0
ENDBLK
  5
1F9AE
330
1F9A3
100
AcDbEntity
  8
0
 48
50.0
100
AcDbBlockEnd
  0
BLOCK
  5
1F9B8
330
1F9AF
100
AcDbEntity
  8
0
 48
50.0
100
AcDbBlockBegin
  2
*D25
 70
     1
 10
0.0
 20
0.0
 30
0.0
  3
*D25
  1

  0
LINE
  5
1FA83
330
1F9AF
100
AcDbEntity
  8
寸法
 62
     0
 48
50.0
370
    -2
100
AcDbLine
 10
11329.5
 20
7214.065974324532
 30
0.0
 11
11829.56822416407
 21
7214.065974324532
 31
0.0
  0
LINE
  5
1FA84
330
1F9AF
100
AcDbEntity
  8
寸法
 62
     0
 48
50.0
370
    -2
100
AcDbLine
 10
11754.56822416407
 20
8974.065974324535
 30
0.0
 11
11754.56822416407
 21
7214.065974324532
 31
0.0
  0
INSERT
  5
1FA85
330
1F9AF
100
AcDbEntity
  8
寸法
 62
     0
 48
50.0
370
    -2
100
AcDbBlockReference
  2
_DOTSMALL
 10
11754.56822416407
 20
8974.065974324535
 30
0.0
 41
125.0
 42
125.0
 43
125.0
 50
90.0
  0
INSERT
  5
1FA86
330
1F9AF
100
AcDbEntity
  8
寸法
 62
     0
 48
50.0
370
    -2
100
AcDbBlockReference
  2
_DOTSMALL
 10
11754.56822416407
 20
7214.065974324532
 30
0.0
 41
125.0
 42
125.0
 43
125.0
 50
270.0
  0
MTEXT
  5
1FA87
330
1F9AF
100
AcDbEntity
  8
寸法
 62
     7
 48
50.0
100
AcDbMText
 10
11654.56822416406
 20
8094.065974324534
 30
0.0
 40
150.0
 41
0.0
 71
     5
 72
     1
  1
\A1;1760
  7
STYLE1
 11
0.0000000000000001
 21
1.0
 31
0.0
 73
     1
 44
1.0
1001
ACAD
1000
MTEXTBEGIN
1070
    73
1070
     1
1070
    44
1040
1.0
1070
    74
1070
     0
1000
MTEXTEND
  0
POINT
  5
1FA88
330
1F9AF
100
AcDbEntity
  8
DEFPOINTS
 62
     0
 48
50.0
100
AcDbPoint
 10
11304.5
 20
8974.065974324535
 30
0.0
  0
POINT
  5
1FA89
330
1F9AF
100
AcDbEntity
  8
DEFPOINTS
 62
     0
 48
50.0
100
AcDbPoint
 10
11304.5
 20
7214.065974324532
 30
0.0
  0
POINT
  5
1FA8A
330
1F9AF
100
AcDbEntity
  8
DEFPOINTS
 62
     0
 48
50.0
100
AcDbPoint
 10
11754.56822416407
 20
7214.065974324532
 30
0.0
  0
ENDBLK
  5
1F9B9
330
1F9AF
100
AcDbEntity
  8
0
 48
50.0
100
AcDbBlockEnd
  0
BLOCK
  5
1F9C5
330
1F9BA
100
AcDbEntity
  8
0
 48
50.0
100
AcDbBlockBegin
  2
*D26
 70
     1
 10
0.0
 20
0.0
 30
0.0
  3
*D26
  1

  0
LINE
  5
1FB17
330
1F9BA
100
AcDbEntity
  8
寸法
 62
     0
 48
50.0
370
    -2
100
AcDbLine
 10
11104.5
 20
7551.023928358586
 30
0.0
 11
11104.5
 21
7475.024178811887
 31
0.0
  0
LINE
  5
1FB18
330
1F9BA
100
AcDbEntity
  8
寸法
 62
     0
 48
50.0
370
    -2
100
AcDbLine
 10
11224.5
 20
7551.023928358586
 30
0.0
 11
11224.5
 21
7475.024178811887
 31
0.0
  0
LINE
  5
1FB19
330
1F9BA
100
AcDbEntity
  8
寸法
 62
     0
 48
50.0
370
    -2
100
AcDbLine
 10
11104.5
 20
7550.024178811887
 30
0.0
 11
11224.5
 21
7550.024178811887
 31
0.0
  0
LINE
  5
1FB1A
330
1F9BA
100
AcDbEntity
  8
寸法
 62
     0
 48
50.0
370
    -2
100
AcDbLine
 10
11224.5
 20
7550.024178811887
 30
0.0
 11
11671.92249350503
 21
7550.024178811887
 31
0.0
  0
INSERT
  5
1FB1B
330
1F9BA
100
AcDbEntity
  8
寸法
 62
     0
 48
50.0
370
    -2
100
AcDbBlockReference
  2
_DOTSMALL
 10
11104.5
 20
7550.024178811887
 30
0.0
 41
125.0
 42
125.0
 43
125.0
 50
180.0
  0
INSERT
  5
1FB1C
330
1F9BA
100
AcDbEntity
  8
寸法
 62
     0
 48
50.0
370
    -2
100
AcDbBlockReference
  2
_DOTSMALL
 10
11224.5
 20
7550.024178811887
 30
0.0
 41
125.0
 42
125.0
 43
125.0
  0
MTEXT
  5
1FB1D
330
1F9BA
100
AcDbEntity
  8
寸法
 62
     7
 48
50.0
100
AcDbMText
 10
11526.86343838692
 20
7650.038942591414
 30
0.0
 40
150.0
 41
0.0
 71
     5
 72
     1
  1
\A1;120
  7
STYLE1
 73
     1
 44
1.0
1001
ACAD
1000
MTEXTBEGIN
1070
    73
1070
     1
1070
    44
1040
1.0
1070
    74
1070
     0
1000
MTEXTEND
  0
POINT
  5
1FB1E
330
1F9BA
100
AcDbEntity
  8
DEFPOINTS
 62
     0
 48
50.0
100
AcDbPoint
 10
11104.5
 20
7576.023928358586
 30
0.0
  0
POINT
  5
1FB1F
330
1F9BA
100
AcDbEntity
  8
DEFPOINTS
 62
     0
 48
50.0
100
AcDbPoint
 10
11224.5
 20
7576.023928358586
 30
0.0
  0
POINT
  5
1FB20
330
1F9BA
100
AcDbEntity
  8
DEFPOINTS
 62
     0
 48
50.0
100
AcDbPoint
 10
11224.5
 20
7550.024178811887
 30
0.0
  0
ENDBLK
  5
1F9C6
330
1F9BA
100
AcDbEntity
  8
0
 48
50.0
100
AcDbBlockEnd
  0
ENDSEC
  0
SECTION
  2
ENTITIES
  0
MTEXT
  5
763F
330
747D
100
AcDbEntity
  8
0
100
AcDbMText
 10
302.846345836809
 20
280.1983726409901
 30
0.0
 40
3.5
 41
5.323721266742722
 71
     1
 72
     5
  1

  7
MSMINCHO
 73
     1
 44
1.0
1001
ACAD
1000
MTEXTBEGIN
1070
    73
1070
     1
1070
    44
1040
1.0
1070
    74
1070
     0
1000
MTEXTEND
  0
LINE
  5
10B56
330
747D
100
AcDbEntity
  8
補助
  6
PHANTOM
 62
   230
 48
50.0
100
AcDbLine
 10
175.0
 20
0.0
 30
0.0
 11
174.9999999999993
 21
14262.0
 31
0.0
  0
LINE
  5
10B57
330
747D
100
AcDbEntity
  8
補助
  6
PHANTOM
 62
   230
 48
50.0
100
AcDbLine
 10
174.9999999999993
 20
14262.0
 30
0.0
 11
20384.0
 21
14262.0
 31
0.0
  0
LINE
  5
10B5D
330
747D
100
AcDbEntity
  8
仕様書枠
 48
50.0
100
AcDbLine
 10
175.0
 20
0.0
 30
0.0
 11
20384.0
 21
-0.0000000000001137
 31
0.0
  0
LINE
  5
10B5E
330
747D
100
AcDbEntity
  8
補助
  6
PHANTOM
 62
   230
 48
50.0
100
AcDbLine
 10
20384.0
 20
14262.0
 30
0.0
 11
20384.0
 21
1500.0
 31
0.0
  0
TEXT
  5
19791
330
747D
100
AcDbEntity
  8
文字
 62
     7
 48
50.0
100
AcDbText
 10
11546.38590425657
 20
4082.453213633587
 30
0.0
 40
150.0
  1
（　）内寸法は屋根の出幅です。
  7
STYLE1
100
AcDbText
  0
LINE
  5
19792
330
747D
100
AcDbEntity
  8
部品1
100
AcDbLine
 10
14264.80592884888
 20
4017.932652490837
 30
0.0
 11
11527.14332199346
 21
4017.932652490837
 31
0.0
  0
ARC
  5
1E99C
330
747D
100
AcDbEntity
  8
細線
 48
50.0
100
AcDbCircle
 10
10734.59219476102
 20
3743.927840022177
 30
0.0
 40
80.0
100
AcDbArc
 50
0.0
 51
90.0
  0
ARC
  5
1E99D
330
747D
100
AcDbEntity
  8
細線
 48
50.0
100
AcDbCircle
 10
10734.59219476102
 20
3663.927840022178
 30
0.0
 40
80.0
100
AcDbArc
 50
270.0
 51
0.0
  0
LINE
  5
1E99E
330
747D
100
AcDbEntity
  8
Ｇ．Ｌ
 48
50.0
100
AcDbLine
 10
10611.54910159273
 20
2389.077983422758
 30
0.0
 11
11129.22397888393
 21
2389.077983422758
 31
0.0
  0
LINE
  5
1E99F
330
747D
100
AcDbEntity
  8
部品1
 48
50.0
100
AcDbLine
 10
10891.54910159273
 20
1625.241876284835
 30
0.0
 11
10091.54910159273
 21
1625.241876284835
 31
0.0
  0
LINE
  5
1E9A0
330
747D
100
AcDbEntity
  8
部品1
 48
50.0
100
AcDbLine
 10
10891.54910159273
 20
1785.241876284835
 30
0.0
 11
10091.54910159273
 21
1785.241876284835
 31
0.0
  0
LINE
  5
1E9A1
330
747D
100
AcDbEntity
  8
部品1
 48
50.0
100
AcDbLine
 10
10936.15966785795
 20
1097.834111881661
 30
0.0
 11
9895.389895679715
 21
1097.834111881661
 31
0.0
  0
LINE
  5
1E9A2
330
747D
100
AcDbEntity
  8
部品1
 48
50.0
100
AcDbLine
 10
10936.15966785795
 20
937.8341118816607
 30
0.0
 11
9895.389895679715
 21
937.8341118816607
 31
0.0
  0
TEXT
  5
1E9A3
330
747D
100
AcDbEntity
  8
部品1
 48
50.0
100
AcDbText
 10
9956.992330817957
 20
971.8264036141572
 30
0.0
 40
96.0
  1
アンカー部詳細
  7
STYLE2
100
AcDbText
  0
LINE
  5
1E9A4
330
747D
100
AcDbEntity
  8
細線
 48
50.0
100
AcDbLine
 10
6248.659066840559
 20
798.266166781419
 30
0.0
 11
14371.23574413355
 21
798.2661667814205
 31
0.0
  0
DIMENSION
  5
1E9A5
330
747D
100
AcDbEntity
  8
寸法
 48
50.0
100
AcDbDimension
  2
*D1
 10
7324.125198068324
 20
3189.712156520047
 30
0.0
 11
7444.125198068324
 21
3189.712156520047
 31
0.0
 70
   160
  1
120
 71
     5
 42
240.0000000000018
  3
INABA_S50GUP
100
AcDbAlignedDimension
 13
7564.125198068325
 23
2789.712156520047
 33
0.0
 14
7324.125198068324
 24
2789.712156520047
 34
0.0
100
AcDbRotatedDimension
1001
ACAD
1000
DSTYLE
1002
{
1070
   140
1040
100.0
1002
}
  0
LINE
  5
1E9A6
330
747D
100
AcDbEntity
  8
細線
 48
50.0
100
AcDbLine
 10
6248.659066840559
 20
3703.927840022178
 30
0.0
 11
6248.659066840559
 21
798.2661667814186
 31
0.0
  0
DIMENSION
  5
1E9A7
330
747D
100
AcDbEntity
  8
寸法
 48
50.0
100
AcDbDimension
  2
*D2
 10
10572.93371697735
 20
3330.554136234758
 30
0.0
 11
10477.62602466966
 21
3330.554136234758
 31
0.0
 70
   160
  1
88.5
 71
     5
 42
190.6153846153847
  3
INABA_S50GUP
100
AcDbAlignedDimension
 13
10382.31833236196
 23
2970.780337823297
 33
0.0
 14
10572.93371697735
 24
2971.85726090022
 34
0.0
100
AcDbRotatedDimension
1001
ACAD
1000
DSTYLE
1002
{
1070
   140
1040
100.0
1002
}
  0
DIMENSION
  5
1E9A8
330
747D
100
AcDbEntity
  8
寸法
 48
50.0
100
AcDbDimension
  2
*D3
 10
9830.163803672064
 20
2865.241876284836
 30
0.0
 11
9830.163803672064
 21
3194.755605337937
 31
0.0
 70
   160
  1
出30
 71
     5
 42
60.30769230769147
  3
INABA_S50GUP
100
AcDbAlignedDimension
 13
10501.54910159273
 23
2925.549568592527
 33
0.0
 14
10371.54910159273
 24
2865.241876284836
 34
0.0
 50
90.0
100
AcDbRotatedDimension
1001
ACAD
1000
DSTYLE
1002
{
1070
   140
1040
100.0
1002
}
  0
LEADER
  5
1E9A9
330
747D
100
AcDbEntity
  8
寸法
 48
50.0
100
AcDbLeader
  3
INABA_S50G
 71
     0
 73
     0
 74
     0
 75
     1
 40
101.39087296526
 41
174.1421356237309
 76
     3
 10
7444.125198068324
 20
1859.712156520046
 30
0.0
 10
7727.528538424623
 20
1391.808330639648
 30
0.0
 10
7852.528538424623
 20
1391.808330639648
 30
0.0
340
1E9AA
  0
MTEXT
  5
1E9AA
102
{ACAD_REACTORS
330
1E9A9
102
}
330
747D
100
AcDbEntity
  8
寸法
 62
     7
 48
50.0
100
AcDbMText
 10
7877.528538424623
 20
1467.503767122278
 30
0.0
 40
100.0
 41
0.0
 71
     4
 72
     1
  1
D13
  7
STYLE1
 73
     1
 44
1.0
1001
ACAD
1000
MTEXTBEGIN
1070
    73
1070
     1
1070
    44
1040
1.0
1070
    74
1070
     0
1000
MTEXTEND
  0
LINE
  5
1E9AB
330
747D
100
AcDbEntity
  8
細線
100
AcDbLine
 10
7494.432039259533
 20
2757.70185023034
 30
0.0
 11
7523.936107937759
 21
2756.064105532953
 31
0.0
  0
LINE
  5
1E9AC
330
747D
100
AcDbEntity
  8
部品1
 48
50.0
100
AcDbLine
 10
7324.125198068323
 20
2789.712156520047
 30
0.0
 11
7564.125198068324
 21
2789.712156520047
 31
0.0
  0
LINE
  5
1E9AD
330
747D
100
AcDbEntity
  8
細線
 48
50.0
100
AcDbLine
 10
7474.125198068323
 20
2587.678272354835
 30
0.0
 11
7564.125198068324
 21
2677.678272354835
 31
0.0
  0
LINE
  5
1E9AE
330
747D
100
AcDbEntity
  8
細線
 48
50.0
100
AcDbLine
 10
7459.740726196418
 20
2640.645721390942
 30
0.0
 11
7564.125198068324
 21
2745.030193262854
 31
0.0
  0
LINE
  5
1E9AF
330
747D
100
AcDbEntity
  8
細線
 48
50.0
100
AcDbLine
 10
7473.566082150806
 20
2620.795116891323
 30
0.0
 11
7564.125198068324
 21
2711.354232808844
 31
0.0
  0
LINE
  5
1E9B0
330
747D
100
AcDbEntity
  8
細線
 48
50.0
100
AcDbLine
 10
7474.125198068326
 20
2251.94654917677
 30
0.0
 11
7564.125198068324
 21
2341.946549176766
 31
0.0
  0
LINE
  5
1E9B1
330
747D
100
AcDbEntity
  8
細線
 48
50.0
100
AcDbLine
 10
7474.125198068326
 20
2285.622509630782
 30
0.0
 11
7564.125198068324
 21
2375.622509630781
 31
0.0
  0
LINE
  5
1E9B2
330
747D
100
AcDbEntity
  8
細線
 48
50.0
100
AcDbLine
 10
7474.12519806833
 20
2218.270588722762
 30
0.0
 11
7564.125198068324
 21
2308.270588722759
 31
0.0
  0
LINE
  5
1E9B3
330
747D
100
AcDbEntity
  8
細線
 48
50.0
100
AcDbLine
 10
7474.12519806833
 20
1982.538865544698
 30
0.0
 11
7564.125198068324
 21
2072.538865544693
 31
0.0
  0
LINE
  5
1E9B4
330
747D
100
AcDbEntity
  8
細線
 48
50.0
100
AcDbLine
 10
7474.12519806833
 20
1948.862905090688
 30
0.0
 11
7564.125198068324
 21
2038.862905090684
 31
0.0
  0
LINE
  5
1E9B5
330
747D
100
AcDbEntity
  8
細線
 48
50.0
100
AcDbLine
 10
7474.12519806833
 20
2016.214825998708
 30
0.0
 11
7564.125198068324
 21
2106.214825998703
 31
0.0
  0
LINE
  5
1E9B6
330
747D
100
AcDbEntity
  8
細線
 48
50.0
100
AcDbLine
 10
7471.993152520955
 20
1549.712156520047
 30
0.0
 11
7514.865023309933
 21
1709.712156520047
 31
0.0
  0
LINE
  5
1E9B7
330
747D
100
AcDbEntity
  8
細線
 48
50.0
100
AcDbLine
 10
7470.706172675753
 20
1709.712156520047
 30
0.0
 11
7590.706172675753
 21
1829.712156520047
 31
0.0
  0
LINE
  5
1E9B8
330
747D
100
AcDbEntity
  8
細線
 48
50.0
100
AcDbLine
 10
7437.030212221739
 20
1709.712156520047
 30
0.0
 11
7557.030212221739
 21
1829.712156520047
 31
0.0
  0
LINE
  5
1E9B9
330
747D
100
AcDbEntity
  8
細線
 48
50.0
100
AcDbLine
 10
7504.382133129759
 20
1709.712156520047
 30
0.0
 11
7624.383242936186
 21
1829.713266326471
 31
0.0
  0
DIMENSION
  5
1E9BA
330
747D
100
AcDbEntity
  8
寸法
 48
50.0
100
AcDbDimension
  2
*D4
 10
7744.125198068323
 20
1250.760050064113
 30
0.0
 11
7444.125198068324
 21
1250.760050064113
 31
0.0
 70
   160
  1
300
 71
     5
 42
600.0
  3
INABA_S50GUP
100
AcDbAlignedDimension
 13
7144.125198068326
 23
1549.712156520047
 33
0.0
 14
7744.125198068323
 24
1549.712156520047
 34
0.0
100
AcDbRotatedDimension
1001
ACAD
1000
DSTYLE
1002
{
1070
   140
1040
100.0
1002
}
  0
LINE
  5
1E9BB
330
747D
100
AcDbEntity
  8
部品1
 48
50.0
100
AcDbLine
 10
7844.125198068323
 20
1709.712156520047
 30
0.0
 11
7044.125198068323
 21
1709.712156520047
 31
0.0
  0
LINE
  5
1E9BC
330
747D
100
AcDbEntity
  8
部品1
 48
50.0
100
AcDbLine
 10
7844.125198068323
 20
1549.712156520047
 30
0.0
 11
7044.125198068323
 21
1549.712156520047
 31
0.0
  0
LINE
  5
1E9BD
330
747D
100
AcDbEntity
  8
部品1
 48
50.0
100
AcDbLine
 10
7214.125198068323
 20
1849.712156520047
 30
0.0
 11
7674.125198068323
 21
1849.712156520047
 31
0.0
  0
LINE
  5
1E9BE
330
747D
100
AcDbEntity
  8
部品1
 48
50.0
100
AcDbLine
 10
7214.125198068323
 20
1829.712156520047
 30
0.0
 11
7674.125198068323
 21
1829.712156520047
 31
0.0
  0
LINE
  5
1E9BF
330
747D
100
AcDbEntity
  8
細線
 48
50.0
100
AcDbLine
 10
7324.125198068323
 20
2068.27058872276
 30
0.0
 11
7454.12519806833
 21
2198.270588722762
 31
0.0
  0
LINE
  5
1E9C0
330
747D
100
AcDbEntity
  8
部品1
 48
50.0
100
AcDbLine
 10
7454.12519806833
 20
1859.712156520046
 30
0.0
 11
7454.125198068322
 21
2615.030193262854
 31
0.0
  0
LINE
  5
1E9C1
330
747D
100
AcDbEntity
  8
部品1
 48
50.0
100
AcDbLine
 10
7474.12519806833
 20
1859.712156520046
 30
0.0
 11
7474.125198068323
 21
2615.030193262854
 31
0.0
  0
LINE
  5
1E9C2
330
747D
100
AcDbEntity
  8
部品1
 48
50.0
100
AcDbLine
 10
7324.125198068323
 20
2009.712156520047
 30
0.0
 11
7324.125198068323
 21
2789.712156520047
 31
0.0
  0
DIMENSION
  5
1E9C3
330
747D
100
AcDbEntity
  8
寸法
 48
50.0
100
AcDbDimension
  2
*D5
 10
6469.65583026917
 20
1709.712156520047
 30
0.0
 11
6469.65583026917
 21
2286.507093117757
 31
0.0
 70
   160
  1
540
 71
     5
 42
1080.0
  3
INABA_S50GUP
100
AcDbAlignedDimension
 13
7324.125198068324
 23
2789.712156520047
 33
0.0
 14
7064.125198068325
 24
1709.712156520047
 34
0.0
 50
90.0
100
AcDbRotatedDimension
1001
ACAD
1000
DSTYLE
1002
{
1070
   140
1040
100.0
1002
}
  0
DIMENSION
  5
1E9C4
330
747D
100
AcDbEntity
  8
寸法
 48
50.0
100
AcDbDimension
  2
*D6
 10
6700.854853736716
 20
1709.712156520047
 30
0.0
 11
6700.854853736716
 21
1884.03875091219
 31
0.0
 70
   160
  1
150
 71
     5
 42
300.0
  3
INABA_S50GUP
100
AcDbAlignedDimension
 13
7164.125198068325
 23
2009.712156520047
 33
0.0
 14
7064.125198068325
 24
1709.712156520047
 34
0.0
 50
90.0
100
AcDbRotatedDimension
1001
ACAD
1000
DSTYLE
1002
{
1070
   140
1040
100.0
1002
}
  0
LEADER
  5
1E9C5
330
747D
100
AcDbEntity
  8
寸法
 48
50.0
100
AcDbLeader
  3
INABA_S50G
 71
     0
 73
     0
 75
     1
 40
101.39087296526
 41
170.0787401574803
 76
     3
 10
7283.870822215759
 20
1859.712156520046
 30
0.0
 10
7046.974536539614
 20
1514.738466733281
 30
0.0
 10
6921.974536539614
 20
1514.738466733281
 30
0.0
340
1E9C6
  0
MTEXT
  5
1E9C6
102
{ACAD_REACTORS
330
1E9C5
102
}
330
747D
100
AcDbEntity
  8
寸法
 62
     7
 48
50.0
100
AcDbMText
 10
6896.974536539613
 20
1590.433903215911
 30
0.0
 40
100.0
 41
0.0
 71
     6
 72
     1
  1
D10
  7
STYLE1
 73
     1
 44
1.0
1001
ACAD
1000
MTEXTBEGIN
1070
    73
1070
     1
1070
    44
1040
1.0
1070
    74
1070
     0
1000
MTEXTEND
  0
LINE
  5
1E9C7
330
747D
100
AcDbEntity
  8
細線
 48
50.0
100
AcDbLine
 10
7077.55292778471
 20
1549.712156520047
 30
0.0
 11
7120.424798573691
 21
1709.712156520047
 31
0.0
  0
LINE
  5
1E9C8
330
747D
100
AcDbEntity
  8
部品1
 48
50.0
100
AcDbLine
 10
7044.125198068323
 20
1549.712156520047
 30
0.0
 11
7044.125198068323
 21
1709.712156520047
 31
0.0
  0
LINE
  5
1E9C9
330
747D
100
AcDbEntity
  8
細線
 48
50.0
100
AcDbLine
 10
7085.591403557646
 20
1579.712156520047
 30
0.0
 11
7093.629879330579
 21
1549.712156520047
 31
0.0
  0
LINE
  5
1E9CA
330
747D
100
AcDbEntity
  8
細線
 48
50.0
100
AcDbLine
 10
7234.974449497684
 20
1709.712156520047
 30
0.0
 11
7354.974449497683
 21
1829.712156520047
 31
0.0
  0
LINE
  5
1E9CB
330
747D
100
AcDbEntity
  8
部品1
 48
50.0
100
AcDbLine
 10
7144.125198068323
 20
1709.712156520047
 30
0.0
 11
7144.125198068323
 21
2009.712156520047
 31
0.0
  0
LINE
  5
1E9CC
330
747D
100
AcDbEntity
  8
細線
 48
50.0
100
AcDbLine
 10
7201.298489043678
 20
1709.712156520047
 30
0.0
 11
7321.298489043678
 21
1829.712156520047
 31
0.0
  0
LINE
  5
1E9CD
330
747D
100
AcDbEntity
  8
細線
 48
50.0
100
AcDbLine
 10
7167.622528589665
 20
1709.712156520047
 30
0.0
 11
7287.622528589665
 21
1829.712156520047
 31
0.0
  0
LINE
  5
1E9CE
330
747D
100
AcDbEntity
  8
細線
 48
50.0
100
AcDbLine
 10
7274.77304015283
 20
1549.712156520047
 30
0.0
 11
7317.644910941814
 21
1709.712156520047
 31
0.0
  0
LINE
  5
1E9CF
330
747D
100
AcDbEntity
  8
細線
 48
50.0
100
AcDbLine
 10
7309.60643516888
 20
1679.712156520047
 30
0.0
 11
7301.567959395946
 21
1709.712156520047
 31
0.0
  0
LINE
  5
1E9D0
330
747D
100
AcDbEntity
  8
細線
 48
50.0
100
AcDbLine
 10
7282.811515925769
 20
1579.712156520047
 30
0.0
 11
7290.849991698703
 21
1549.712156520047
 31
0.0
  0
LINE
  5
1E9D1
330
747D
100
AcDbEntity
  8
細線
 48
50.0
100
AcDbLine
 10
7184.201459741706
 20
1579.712156520047
 30
0.0
 11
7192.239935514641
 21
1549.712156520047
 31
0.0
  0
LINE
  5
1E9D2
330
747D
100
AcDbEntity
  8
細線
 48
50.0
100
AcDbLine
 10
7112.386322800758
 20
1679.712156520047
 30
0.0
 11
7104.347847027823
 21
1709.712156520047
 31
0.0
  0
LINE
  5
1E9D3
330
747D
100
AcDbEntity
  8
細線
 48
50.0
100
AcDbLine
 10
7210.996378984821
 20
1679.712156520047
 30
0.0
 11
7202.957903211886
 21
1709.712156520047
 31
0.0
  0
LINE
  5
1E9D4
330
747D
100
AcDbEntity
  8
細線
 48
50.0
100
AcDbLine
 10
7176.162983968771
 20
1549.712156520047
 30
0.0
 11
7219.034854757753
 21
1709.712156520047
 31
0.0
  0
LINE
  5
1E9D5
330
747D
100
AcDbEntity
  8
細線
 48
50.0
100
AcDbLine
 10
7480.031628293888
 20
1579.712156520047
 30
0.0
 11
7488.070104066821
 21
1549.712156520047
 31
0.0
  0
LINE
  5
1E9D6
330
747D
100
AcDbEntity
  8
細線
 48
50.0
100
AcDbLine
 10
7506.826547537001
 20
1679.712156520047
 30
0.0
 11
7498.788071764067
 21
1709.712156520047
 31
0.0
  0
LINE
  5
1E9D7
330
747D
100
AcDbEntity
  8
細線
 48
50.0
100
AcDbLine
 10
7381.421572109832
 20
1579.712156520047
 30
0.0
 11
7389.460047882764
 21
1549.712156520047
 31
0.0
  0
LINE
  5
1E9D8
330
747D
100
AcDbEntity
  8
細線
 48
50.0
100
AcDbLine
 10
7373.383096336894
 20
1549.712156520047
 30
0.0
 11
7416.254967125872
 21
1709.712156520047
 31
0.0
  0
LINE
  5
1E9D9
330
747D
100
AcDbEntity
  8
細線
 48
50.0
100
AcDbLine
 10
7408.216491352941
 20
1679.712156520047
 30
0.0
 11
7400.178015580007
 21
1709.712156520047
 31
0.0
  0
LINE
  5
1E9DA
330
747D
100
AcDbEntity
  8
細線
 48
50.0
100
AcDbLine
 10
7307.622528589665
 20
1849.712156520047
 30
0.0
 11
7454.125198068322
 21
1996.214825998706
 31
0.0
  0
LINE
  5
1E9DB
330
747D
100
AcDbEntity
  8
部品1
 48
50.0
100
AcDbLine
 10
7144.125198068323
 20
2009.712156520047
 30
0.0
 11
7324.125198068323
 21
2009.712156520047
 31
0.0
  0
CIRCLE
  5
1E9DC
330
747D
100
AcDbEntity
  8
部品1
 48
50.0
100
AcDbCircle
 10
7284.125198068323
 20
1859.712156520046
 30
0.0
 40
10.0
  0
LINE
  5
1E9DD
330
747D
100
AcDbEntity
  8
細線
 48
50.0
100
AcDbLine
 10
7144.125198068323
 20
1955.622509630781
 30
0.0
 11
7198.21484495759
 21
2009.712156520047
 31
0.0
  0
LINE
  5
1E9DE
330
747D
100
AcDbEntity
  8
部品1
 48
50.0
100
AcDbLine
 10
7214.125198068323
 20
1829.712156520047
 30
0.0
 11
7214.125198068323
 21
1849.712156520047
 31
0.0
  0
LINE
  5
1E9DF
330
747D
100
AcDbEntity
  8
細線
 48
50.0
100
AcDbLine
 10
7144.125198068326
 20
1888.270588722761
 30
0.0
 11
7265.56676586561
 21
2009.712156520047
 31
0.0
  0
LINE
  5
1E9E0
330
747D
100
AcDbEntity
  8
細線
 48
50.0
100
AcDbLine
 10
7144.125198068323
 20
1921.946549176771
 30
0.0
 11
7231.890805411604
 21
2009.712156520047
 31
0.0
  0
CIRCLE
  5
1E9E1
330
747D
100
AcDbEntity
  8
部品1
 48
50.0
100
AcDbCircle
 10
7444.125198068324
 20
1859.712156520046
 30
0.0
 40
10.0
  0
LINE
  5
1E9E2
330
747D
100
AcDbEntity
  8
部品1
 48
50.0
100
AcDbLine
 10
7434.125198068322
 20
1932.37117489145
 30
0.0
 11
7434.125198068322
 21
1859.712156520046
 31
0.0
  0
ARC
  5
1E9E3
330
747D
100
AcDbEntity
  8
部品1
 48
50.0
100
AcDbCircle
 10
7444.125198068324
 20
1859.712156520046
 30
0.0
 40
30.0
100
AcDbArc
 50
340.5287793654919
 51
0.0
  0
LINE
  5
1E9E4
330
747D
100
AcDbEntity
  8
細線
 48
50.0
100
AcDbLine
 10
7423.957507415082
 20
1932.37117489145
 30
0.0
 11
7454.12519806833
 21
1962.538865544697
 31
0.0
  0
LINE
  5
1E9E5
330
747D
100
AcDbEntity
  8
細線
 48
50.0
100
AcDbLine
 10
7434.125198068326
 20
1908.862905090686
 30
0.0
 11
7454.12519806833
 21
1928.862905090687
 31
0.0
  0
LINE
  5
1E9E6
330
747D
100
AcDbEntity
  8
細線
 48
50.0
100
AcDbLine
 10
7374.974449497684
 20
1849.712156520047
 30
0.0
 11
7414.125198068323
 21
1888.862905090684
 31
0.0
  0
LINE
  5
1E9E7
330
747D
100
AcDbEntity
  8
部品1
 48
50.0
100
AcDbLine
 10
7414.125198068323
 20
1932.37117489145
 30
0.0
 11
7414.125198068323
 21
1859.712156520046
 31
0.0
  0
LINE
  5
1E9E8
330
747D
100
AcDbEntity
  8
細線
 48
50.0
100
AcDbLine
 10
7341.298489043679
 20
1849.712156520047
 30
0.0
 11
7414.125198068323
 21
1922.538865544695
 31
0.0
  0
ARC
  5
1E9E9
330
747D
100
AcDbEntity
  8
部品1
 48
50.0
100
AcDbCircle
 10
7444.125198068324
 20
1859.712156520046
 30
0.0
 40
30.0
100
AcDbArc
 50
180.0
 51
199.4712206345081
  0
LINE
  5
1E9EA
330
747D
100
AcDbEntity
  8
部品1
 48
50.0
100
AcDbLine
 10
7434.125198068322
 20
1932.37117489145
 30
0.0
 11
7414.125198068323
 21
1932.37117489145
 31
0.0
  0
LEADER
  5
1E9EB
330
747D
100
AcDbEntity
  8
寸法
 48
50.0
100
AcDbLeader
  3
INABA_S50G
 71
     0
 73
     0
 75
     1
 40
132.9441738241594
 41
490.0787401574803
 76
     3
 10
7462.682993606333
 20
2487.37117489145
 30
0.0
 10
7239.412363106319
 20
2216.154122358978
 30
0.0
 10
7114.412363106319
 20
2216.154122358978
 30
0.0
340
1E9EC
213
-20.50276907354419
223
30.78492082892717
233
0.0
  0
MTEXT
  5
1E9EC
102
{ACAD_REACTORS
330
1E9EB
102
}
330
747D
100
AcDbEntity
  8
寸法
 62
     7
 48
50.0
100
AcDbMText
 10
7109.915132179864
 20
2276.841288442131
 30
0.0
 40
100.0
 41
0.0
 71
     6
 72
     1
  1
\A1;D10@300
  7
STYLE1
 73
     1
 44
1.0
1001
ACAD
1000
MTEXTBEGIN
1070
    73
1070
     1
1070
    44
1040
1.0
1070
    74
1070
     0
1000
MTEXTEND
  0
LEADER
  5
1E9ED
330
747D
100
AcDbEntity
  8
寸法
 48
50.0
100
AcDbLeader
  3
INABA_S50G
 71
     0
 73
     0
 75
     1
 40
100.0
 41
566.6666666666665
 76
     3
 10
7424.125198068324
 20
2789.712156520047
 30
0.0
 10
7391.737941671332
 20
2980.3574315226
 30
0.0
 10
7266.737941671332
 20
2980.3574315226
 30
0.0
340
1E9EE
  0
MTEXT
  5
1E9EE
102
{ACAD_REACTORS
330
1E9ED
102
}
330
747D
100
AcDbEntity
  8
寸法
 62
     7
 48
50.0
100
AcDbMText
 10
7241.737941671329
 20
3055.3574315226
 30
0.0
 40
100.0
 41
0.0
 71
     6
 72
     1
  1
\A1;金コテ押エ
  7
STYLE1
 73
     1
 44
1.0
1001
ACAD
1000
MTEXTBEGIN
1070
    73
1070
     1
1070
    44
1040
1.0
1070
    74
1070
     0
1000
MTEXTEND
  0
MTEXT
  5
1E9EF
102
{ACAD_REACTORS
330
1E9F0
102
}
330
747D
100
AcDbEntity
  8
寸法
 62
     7
 48
50.0
100
AcDbMText
 10
7184.542603664645
 20
2634.383171870304
 30
0.0
 40
100.0
 41
0.0
 71
     6
 72
     1
  1
D13
  7
STYLE1
 73
     1
 44
1.0
1001
ACAD
1000
MTEXTBEGIN
1070
    73
1070
     1
1070
    44
1040
1.0
1070
    74
1070
     0
1000
MTEXTEND
  0
LEADER
  5
1E9F0
330
747D
100
AcDbEntity
  8
寸法
 48
50.0
100
AcDbLeader
  3
INABA_S50G
 71
     0
 73
     0
 40
101.39087296526
 41
174.1421356237309
 76
     2
 10
7444.125198068324
 20
2615.030193262854
 30
0.0
 10
7209.542603664646
 20
2558.687735387675
 30
0.0
340
1E9EF
  0
TEXT
  5
1E9F1
330
747D
100
AcDbEntity
  8
部品1
 48
50.0
100
AcDbText
 10
6954.798587351503
 20
2399.077983422758
 30
0.0
 40
100.0
  1
G.L
  7
STYLE1
100
AcDbText
  0
LINE
  5
1E9F2
330
747D
100
AcDbEntity
  8
Ｇ．Ｌ
 48
50.0
100
AcDbLine
 10
6806.450320777127
 20
2389.712156520047
 30
0.0
 11
7324.125198068323
 21
2389.712156520047
 31
0.0
  0
LINE
  5
1E9F3
330
747D
100
AcDbEntity
  8
部品1
 48
50.0
100
AcDbLine
 10
6856.324233880449
 20
2473.182281368471
 30
0.0
 11
6952.707231981505
 21
2473.182281368471
 31
0.0
  0
LINE
  5
1E9F4
330
747D
100
AcDbEntity
  8
部品1
 48
50.0
100
AcDbLine
 10
6856.324233880449
 20
2473.182281368471
 30
0.0
 11
6904.515732930978
 21
2389.712156520047
 31
0.0
  0
LINE
  5
1E9F5
330
747D
100
AcDbEntity
  8
部品1
 48
50.0
100
AcDbLine
 10
6952.707231981505
 20
2473.182281368471
 30
0.0
 11
6904.515732930978
 21
2389.712156520047
 31
0.0
  0
LINE
  5
1E9F6
330
747D
100
AcDbEntity
  8
細線
 48
50.0
100
AcDbLine
 10
7324.125198068323
 20
2135.622509630779
 30
0.0
 11
7454.125198068322
 21
2265.62250963078
 31
0.0
  0
LINE
  5
1E9F7
330
747D
100
AcDbEntity
  8
細線
 48
50.0
100
AcDbLine
 10
7324.125198068323
 20
2101.94654917677
 30
0.0
 11
7454.125198068327
 21
2231.946549176768
 31
0.0
  0
LINE
  5
1E9F8
330
747D
100
AcDbEntity
  8
細線
 48
50.0
100
AcDbLine
 10
7434.125198068326
 20
2547.678272354835
 30
0.0
 11
7454.125198068322
 21
2567.678272354835
 31
0.0
  0
LINE
  5
1E9F9
330
747D
100
AcDbEntity
  8
細線
 48
50.0
100
AcDbLine
 10
7434.125198068322
 20
2581.354232808844
 30
0.0
 11
7454.125198068322
 21
2601.354232808845
 31
0.0
  0
LINE
  5
1E9FA
330
747D
100
AcDbEntity
  8
部品1
 48
50.0
100
AcDbLine
 10
7434.125198068322
 20
2542.37117489145
 30
0.0
 11
7434.125198068322
 21
2615.030193262854
 31
0.0
  0
CIRCLE
  5
1E9FB
330
747D
100
AcDbEntity
  8
部品1
 48
50.0
100
AcDbCircle
 10
7444.125198068324
 20
2615.030193262854
 30
0.0
 40
10.0
  0
LINE
  5
1E9FC
330
747D
100
AcDbEntity
  8
細線
 48
50.0
100
AcDbLine
 10
7324.125198068323
 20
2471.354232808844
 30
0.0
 11
7414.125198068323
 21
2561.354232808844
 31
0.0
  0
LINE
  5
1E9FD
330
747D
100
AcDbEntity
  8
細線
 48
50.0
100
AcDbLine
 10
7324.125198068323
 20
2505.030193262854
 30
0.0
 11
7414.125198068323
 21
2595.030193262854
 31
0.0
  0
LINE
  5
1E9FE
330
747D
100
AcDbEntity
  8
部品1
 48
50.0
100
AcDbLine
 10
7414.125198068323
 20
2542.371174891452
 30
0.0
 11
7414.125198068323
 21
2615.030193262855
 31
0.0
  0
LINE
  5
1E9FF
330
747D
100
AcDbEntity
  8
細線
 48
50.0
100
AcDbLine
 10
7324.125198068323
 20
2437.678272354835
 30
0.0
 11
7428.818100604941
 21
2542.37117489145
 31
0.0
  0
LINE
  5
1EA00
330
747D
100
AcDbEntity
  8
部品1
 48
50.0
100
AcDbLine
 10
7434.125198068322
 20
2542.37117489145
 30
0.0
 11
7414.125198068323
 21
2542.371174891452
 31
0.0
  0
ARC
  5
1EA01
330
747D
100
AcDbEntity
  8
部品1
 48
50.0
100
AcDbCircle
 10
7444.125198068324
 20
2615.030193262854
 30
0.0
 40
30.0
100
AcDbArc
 50
0.0
 51
180.0
  0
LINE
  5
1EA02
330
747D
100
AcDbEntity
  8
細線
100
AcDbLine
 10
7438.702050621097
 20
2756.064105532953
 30
0.0
 11
7494.432039259533
 21
2757.70185023034
 31
0.0
  0
LINE
  5
1EA03
330
747D
100
AcDbEntity
  8
細線
 48
50.0
100
AcDbLine
 10
7324.125198068323
 20
2707.08595598691
 30
0.0
 11
7366.55253911575
 21
2749.513297034335
 31
0.0
  0
LINE
  5
1EA04
330
747D
100
AcDbEntity
  8
細線
 48
50.0
100
AcDbLine
 10
7324.125198068323
 20
2740.761916440919
 30
0.0
 11
7338.848710879632
 21
2755.485429252225
 31
0.0
  0
LINE
  5
1EA05
330
747D
100
AcDbEntity
  8
細線
100
AcDbLine
 10
7324.125198068323
 20
2759.339538164086
 30
0.0
 11
7361.663521574351
 21
2749.513297034335
 31
0.0
  0
LINE
  5
1EA06
330
747D
100
AcDbEntity
  8
細線
100
AcDbLine
 10
7361.663521574351
 20
2749.513297034335
 30
0.0
 11
7397.724096321785
 21
2749.513297034335
 31
0.0
  0
LINE
  5
1EA07
330
747D
100
AcDbEntity
  8
細線
100
AcDbLine
 10
7397.724096321785
 20
2749.513297034335
 30
0.0
 11
7438.702050621097
 21
2756.064105532953
 31
0.0
  0
LEADER
  5
1EA08
330
747D
100
AcDbEntity
  8
寸法
 48
50.0
100
AcDbLeader
  3
INABA_S50G
 71
     0
 73
     0
 74
     0
 75
     1
 40
100.0
 41
154.6599025766975
 76
     3
 10
8828.812779177145
 20
2725.019887106447
 30
0.0
 10
8883.094329661265
 20
2949.059775216182
 30
0.0
 10
9008.094329661265
 20
2949.059775216182
 30
0.0
340
1EA09
  0
MTEXT
  5
1EA09
102
{ACAD_REACTORS
330
1EA08
102
}
330
747D
100
AcDbEntity
  8
寸法
 62
     7
 48
50.0
100
AcDbMText
 10
9033.094329661265
 20
3024.059775216182
 30
0.0
 40
100.0
 41
0.0
 71
     4
 72
     1
  1
C.B
  7
STYLE1
 73
     1
 44
1.0
1001
ACAD
1000
MTEXTBEGIN
1070
    73
1070
     1
1070
    44
1040
1.0
1070
    74
1070
     0
1000
MTEXTEND
  0
LINE
  5
1EA0A
330
747D
100
AcDbEntity
  8
細線
100
AcDbLine
 10
9110.806411587553
 20
2489.712156520048
 30
0.0
 11
9165.993817266128
 21
2544.899562198625
 31
0.0
  0
LINE
  5
1EA0B
330
747D
100
AcDbEntity
  8
細線
100
AcDbLine
 10
9070.806411587557
 20
2489.712156520048
 30
0.0
 11
9165.993817266128
 21
2584.89956219862
 31
0.0
  0
LINE
  5
1EA0C
330
747D
100
AcDbEntity
  8
細線
 48
50.0
100
AcDbLine
 10
9142.352292327068
 20
2179.712156520048
 30
0.0
 11
9185.224163116046
 21
2339.712156520048
 31
0.0
  0
LINE
  5
1EA0D
330
747D
100
AcDbEntity
  8
細線
 48
50.0
100
AcDbLine
 10
9150.390768100001
 20
2209.712156520048
 30
0.0
 11
9158.429243872935
 21
2179.712156520048
 31
0.0
  0
LINE
  5
1EA0E
330
747D
100
AcDbEntity
  8
Ｇ．Ｌ
 48
50.0
100
AcDbLine
 10
7564.125198068324
 20
2489.712156520047
 30
0.0
 11
9592.234157680396
 21
2489.712156520048
 31
0.0
  0
LINE
  5
1EA0F
330
747D
100
AcDbEntity
  8
部品1
100
AcDbLine
 10
8140.293870947299
 20
2179.712156520051
 30
0.0
 11
9411.693763584954
 21
2179.712156520051
 31
0.0
  0
LINE
  5
1EA10
330
747D
100
AcDbEntity
  8
部品1
100
AcDbLine
 10
8140.293870947299
 20
2339.712156520048
 30
0.0
 11
9411.693763584954
 21
2339.712156520048
 31
0.0
  0
LINE
  5
1EA11
330
747D
100
AcDbEntity
  8
部品1
 48
50.0
100
AcDbLine
 10
9165.993817266128
 20
2789.712156520047
 30
0.0
 11
8385.993817266125
 21
2789.712156520047
 31
0.0
  0
LINE
  5
1EA12
330
747D
100
AcDbEntity
  8
部品1
 48
50.0
100
AcDbLine
 10
7564.125198068324
 20
2789.712156520047
 30
0.0
 11
7564.125198068324
 21
2009.712156520047
 31
0.0
  0
LEADER
  5
1EA13
330
747D
100
AcDbEntity
  8
寸法
 48
50.0
100
AcDbLeader
  3
INABA_S50G
 71
     0
 73
     0
 74
     0
 75
     1
 40
132.9441738241594
 41
490.0787401574803
 76
     3
 10
7648.119129220823
 20
1840.99776375014
 30
0.0
 10
7802.112164227401
 20
1604.631930140679
 30
0.0
 10
7927.112164227401
 20
1604.631930140679
 30
0.0
340
1EA14
  0
MTEXT
  5
1EA14
102
{ACAD_REACTORS
330
1EA13
102
}
330
747D
100
AcDbEntity
  8
寸法
 62
     7
 48
50.0
100
AcDbMText
 10
7952.112164227401
 20
1696.104017052759
 30
0.0
 40
100.0
 41
0.0
 71
     4
 72
     1
  1
\A1;D10@300
  7
STYLE1
 73
     1
 44
1.0
1001
ACAD
1000
MTEXTBEGIN
1070
    73
1070
     1
1070
    44
1040
1.0
1070
    74
1070
     0
1000
MTEXTEND
  0
TEXT
  5
1EA15
330
747D
100
AcDbEntity
  8
部品1
 48
50.0
100
AcDbText
 10
7613.261279265792
 20
969.0418980863324
 30
0.0
 40
96.0
  1
基礎断面
  7
STYLE2
100
AcDbText
  0
LINE
  5
1EA16
330
747D
100
AcDbEntity
  8
部品1
 48
50.0
100
AcDbLine
 10
8211.070777921577
 20
1097.834111881661
 30
0.0
 11
7571.070777921578
 21
1097.834111881661
 31
0.0
  0
LINE
  5
1EA17
330
747D
100
AcDbEntity
  8
部品1
 48
50.0
100
AcDbLine
 10
8211.070777921577
 20
937.8341118816607
 30
0.0
 11
7571.070777921578
 21
937.8341118816607
 31
0.0
  0
LINE
  5
1EA18
330
747D
100
AcDbEntity
  8
部品1
 48
50.0
100
AcDbLine
 10
7571.070777921578
 20
1097.834111881661
 30
0.0
 11
7571.070777921578
 21
937.8341118816607
 31
0.0
  0
LINE
  5
1EA19
330
747D
100
AcDbEntity
  8
部品1
 48
50.0
100
AcDbLine
 10
8211.070777921577
 20
1097.834111881661
 30
0.0
 11
8211.070777921577
 21
937.8341118816607
 31
0.0
  0
LEADER
  5
1EA1A
330
747D
100
AcDbEntity
  8
寸法
 48
50.0
100
AcDbLeader
  3
INABA_S50G
 71
     0
 73
     0
 74
     0
 75
     1
 40
101.39087296526
 41
170.0787401574803
 76
     3
 10
7604.125198068323
 20
1859.712156520046
 30
0.0
 10
7658.406748552443
 20
2083.056608147153
 30
0.0
 10
7783.406748552443
 20
2083.056608147153
 30
0.0
340
1EA1B
  0
MTEXT
  5
1EA1B
102
{ACAD_REACTORS
330
1EA1A
102
}
330
747D
100
AcDbEntity
  8
寸法
 62
     7
 48
50.0
100
AcDbMText
 10
7808.406748552441
 20
2158.752044629782
 30
0.0
 40
100.0
 41
0.0
 71
     4
 72
     1
  1
D10
  7
STYLE1
 73
     1
 44
1.0
1001
ACAD
1000
MTEXTBEGIN
1070
    73
1070
     1
1070
    44
1040
1.0
1070
    74
1070
     0
1000
MTEXTEND
  0
LINE
  5
1EA1C
330
747D
100
AcDbEntity
  8
部品1
 48
50.0
100
AcDbLine
 10
7744.125198068323
 20
2009.712156520047
 30
0.0
 11
7744.125198068323
 21
1709.712156520047
 31
0.0
  0
LINE
  5
1EA1D
330
747D
100
AcDbEntity
  8
細線
 48
50.0
100
AcDbLine
 10
7706.437895853814
 20
1709.712156520047
 30
0.0
 11
7744.125198068323
 21
1747.399458734552
 31
0.0
  0
LINE
  5
1EA1E
330
747D
100
AcDbEntity
  8
細線
 48
50.0
100
AcDbLine
 10
7677.251740662009
 20
1579.712156520047
 30
0.0
 11
7685.290216434943
 21
1549.712156520047
 31
0.0
  0
LINE
  5
1EA1F
330
747D
100
AcDbEntity
  8
細線
 48
50.0
100
AcDbLine
 10
7669.213264889076
 20
1549.712156520047
 30
0.0
 11
7712.085135678056
 21
1709.712156520047
 31
0.0
  0
LINE
  5
1EA20
330
747D
100
AcDbEntity
  8
細線
 48
50.0
100
AcDbLine
 10
7704.046659905126
 20
1679.712156520047
 30
0.0
 11
7696.008184132193
 21
1709.712156520047
 31
0.0
  0
LINE
  5
1EA21
330
747D
100
AcDbEntity
  8
細線
 48
50.0
100
AcDbLine
 10
7578.64168447795
 20
1579.712156520047
 30
0.0
 11
7586.680160250883
 21
1549.712156520047
 31
0.0
  0
LINE
  5
1EA22
330
747D
100
AcDbEntity
  8
細線
 48
50.0
100
AcDbLine
 10
7570.603208705016
 20
1549.712156520047
 30
0.0
 11
7613.475079493993
 21
1709.712156520047
 31
0.0
  0
LINE
  5
1EA23
330
747D
100
AcDbEntity
  8
細線
 48
50.0
100
AcDbLine
 10
7605.436603721066
 20
1679.712156520047
 30
0.0
 11
7597.398127948132
 21
1709.712156520047
 31
0.0
  0
LINE
  5
1EA24
330
747D
100
AcDbEntity
  8
部品1
 48
50.0
100
AcDbLine
 10
7844.125198068323
 20
1549.712156520047
 30
0.0
 11
7844.125198068323
 21
1709.712156520047
 31
0.0
  0
LINE
  5
1EA25
330
747D
100
AcDbEntity
  8
細線
 48
50.0
100
AcDbLine
 10
7740.113856307829
 20
1709.712156520047
 30
0.0
 11
7744.125198068323
 21
1713.723498280543
 31
0.0
  0
LINE
  5
1EA26
330
747D
100
AcDbEntity
  8
細線
 48
50.0
100
AcDbLine
 10
7775.861796846071
 20
1579.712156520047
 30
0.0
 11
7783.900272619004
 21
1549.712156520047
 31
0.0
  0
LINE
  5
1EA27
330
747D
100
AcDbEntity
  8
細線
 48
50.0
100
AcDbLine
 10
7767.823321073136
 20
1549.712156520047
 30
0.0
 11
7810.695191862115
 21
1709.712156520047
 31
0.0
  0
LINE
  5
1EA28
330
747D
100
AcDbEntity
  8
細線
 48
50.0
100
AcDbLine
 10
7802.656716089187
 20
1679.712156520047
 30
0.0
 11
7794.618240316252
 21
1709.712156520047
 31
0.0
  0
LINE
  5
1EA29
330
747D
100
AcDbEntity
  8
細線
 48
50.0
100
AcDbLine
 10
7644.382133129763
 20
1849.712156520047
 30
0.0
 11
7744.125198068323
 21
1949.455221458608
 31
0.0
  0
LINE
  5
1EA2A
330
747D
100
AcDbEntity
  8
細線
 48
50.0
100
AcDbLine
 10
7610.706172675754
 20
1849.712156520047
 30
0.0
 11
7744.125198068323
 21
1983.13118191262
 31
0.0
  0
LINE
  5
1EA2B
330
747D
100
AcDbEntity
  8
部品1
 48
50.0
100
AcDbLine
 10
7564.125198068324
 20
2009.712156520047
 30
0.0
 11
7744.125198068323
 21
2009.712156520047
 31
0.0
  0
LINE
  5
1EA2C
330
747D
100
AcDbEntity
  8
細線
 48
50.0
100
AcDbLine
 10
7577.030212221735
 20
1849.712156520047
 30
0.0
 11
7737.030212221745
 21
2009.712156520047
 31
0.0
  0
CIRCLE
  5
1EA2D
330
747D
100
AcDbEntity
  8
部品1
 48
50.0
100
AcDbCircle
 10
7604.125198068323
 20
1859.712156520046
 30
0.0
 40
10.0
  0
LINE
  5
1EA2E
330
747D
100
AcDbEntity
  8
部品1
 48
50.0
100
AcDbLine
 10
7674.125198068323
 20
1829.712156520047
 30
0.0
 11
7674.125198068323
 21
1849.712156520047
 31
0.0
  0
LINE
  5
1EA2F
330
747D
100
AcDbEntity
  8
細線
100
AcDbLine
 10
8452.73454173496
 20
2339.712156520048
 30
0.0
 11
8302.734541734961
 21
2489.712156520048
 31
0.0
  0
LINE
  5
1EA30
330
747D
100
AcDbEntity
  8
細線
100
AcDbLine
 10
8412.73454173495
 20
2339.712156520048
 30
0.0
 11
8262.734541734943
 21
2489.712156520048
 31
0.0
  0
LINE
  5
1EA31
330
747D
100
AcDbEntity
  8
部品1
100
AcDbLine
 10
8240.293870947299
 20
2489.712156520048
 30
0.0
 11
8240.293870947303
 21
2339.712156520048
 31
0.0
  0
LINE
  5
1EA32
330
747D
100
AcDbEntity
  8
細線
 48
50.0
100
AcDbLine
 10
8289.695181686569
 20
2309.712156520048
 30
0.0
 11
8281.656705913636
 21
2339.712156520048
 31
0.0
  0
LINE
  5
1EA33
330
747D
100
AcDbEntity
  8
細線
 48
50.0
100
AcDbLine
 10
8262.900262443457
 20
2209.712156520048
 30
0.0
 11
8270.938738216392
 21
2179.712156520048
 31
0.0
  0
LINE
  5
1EA34
330
747D
100
AcDbEntity
  8
細線
 48
50.0
100
AcDbLine
 10
8254.861786670524
 20
2179.712156520048
 30
0.0
 11
8297.733657459501
 21
2339.712156520048
 31
0.0
  0
LINE
  5
1EA35
330
747D
100
AcDbEntity
  8
部品1
100
AcDbLine
 10
8140.293870947299
 20
2339.712156520048
 30
0.0
 11
8140.293870947299
 21
2179.712156520051
 31
0.0
  0
LINE
  5
1EA36
330
747D
100
AcDbEntity
  8
細線
 48
50.0
100
AcDbLine
 10
8191.085125502512
 20
2309.712156520048
 30
0.0
 11
8183.046649729579
 21
2339.712156520048
 31
0.0
  0
LINE
  5
1EA37
330
747D
100
AcDbEntity
  8
細線
 48
50.0
100
AcDbLine
 10
8164.2902062594
 20
2209.712156520048
 30
0.0
 11
8172.328682032334
 21
2179.712156520048
 31
0.0
  0
LINE
  5
1EA38
330
747D
100
AcDbEntity
  8
細線
 48
50.0
100
AcDbLine
 10
8156.251730486467
 20
2179.712156520048
 30
0.0
 11
8199.123601275445
 21
2339.712156520048
 31
0.0
  0
LINE
  5
1EA39
330
747D
100
AcDbEntity
  8
細線
100
AcDbLine
 10
7523.936107937759
 20
2756.064105532953
 30
0.0
 11
7564.125198068324
 21
2747.875552336947
 31
0.0
  0
LINE
  5
1EA3A
330
747D
100
AcDbEntity
  8
細線
100
AcDbLine
 10
8470.806411587558
 20
2489.712156520048
 30
0.0
 11
8770.806411587553
 21
2789.712156520047
 31
0.0
  0
LINE
  5
1EA3B
330
747D
100
AcDbEntity
  8
部品1
 48
50.0
100
AcDbLine
 10
8385.993817266125
 20
2789.712156520047
 30
0.0
 11
8385.993817266125
 21
2489.712156520048
 31
0.0
  0
LINE
  5
1EA3C
330
747D
100
AcDbEntity
  8
細線
100
AcDbLine
 10
8430.806411587553
 20
2489.712156520047
 30
0.0
 11
8730.806411587554
 21
2789.712156520047
 31
0.0
  0
LINE
  5
1EA3D
330
747D
100
AcDbEntity
  8
細線
100
AcDbLine
 10
8790.806411587555
 20
2489.712156520048
 30
0.0
 11
9090.806411587553
 21
2789.712156520047
 31
0.0
  0
LINE
  5
1EA3E
330
747D
100
AcDbEntity
  8
細線
100
AcDbLine
 10
8750.806411587555
 20
2489.712156520048
 30
0.0
 11
9050.806411587553
 21
2789.712156520047
 31
0.0
  0
LINE
  5
1EA3F
330
747D
100
AcDbEntity
  8
細線
100
AcDbLine
 10
8812.734541734966
 20
2339.712156520048
 30
0.0
 11
8662.734541734954
 21
2489.712156520048
 31
0.0
  0
LINE
  5
1EA40
330
747D
100
AcDbEntity
  8
細線
100
AcDbLine
 10
8772.734541734964
 20
2339.712156520048
 30
0.0
 11
8622.734541734947
 21
2489.712156520048
 31
0.0
  0
LINE
  5
1EA41
330
747D
100
AcDbEntity
  8
細線
100
AcDbLine
 10
8492.734541734968
 20
2339.712156520048
 30
0.0
 11
8342.734541734957
 21
2489.712156520047
 31
0.0
  0
LINE
  5
1EA42
330
747D
100
AcDbEntity
  8
細線
100
AcDbLine
 10
8732.73454173495
 20
2339.712156520048
 30
0.0
 11
8582.73454173495
 21
2489.712156520048
 31
0.0
  0
LINE
  5
1EA43
330
747D
100
AcDbEntity
  8
細線
 48
50.0
100
AcDbLine
 10
8452.081899038647
 20
2179.712156520048
 30
0.0
 11
8494.953769827629
 21
2339.712156520048
 31
0.0
  0
LINE
  5
1EA44
330
747D
100
AcDbEntity
  8
細線
 48
50.0
100
AcDbLine
 10
8460.12037481158
 20
2209.712156520048
 30
0.0
 11
8468.158850584513
 21
2179.712156520048
 31
0.0
  0
LINE
  5
1EA45
330
747D
100
AcDbEntity
  8
細線
 48
50.0
100
AcDbLine
 10
8486.915294054695
 20
2309.712156520048
 30
0.0
 11
8478.87681828176
 21
2339.712156520048
 31
0.0
  0
LINE
  5
1EA46
330
747D
100
AcDbEntity
  8
細線
 48
50.0
100
AcDbLine
 10
8353.471842854593
 20
2179.712156520048
 30
0.0
 11
8396.343713643567
 21
2339.712156520048
 31
0.0
  0
LINE
  5
1EA47
330
747D
100
AcDbEntity
  8
細線
 48
50.0
100
AcDbLine
 10
8361.510318627523
 20
2209.712156520048
 30
0.0
 11
8369.548794400456
 21
2179.712156520048
 31
0.0
  0
LINE
  5
1EA48
330
747D
100
AcDbEntity
  8
細線
 48
50.0
100
AcDbLine
 10
8388.305237870634
 20
2309.712156520048
 30
0.0
 11
8380.266762097701
 21
2339.712156520048
 31
0.0
  0
LINE
  5
1EA49
330
747D
100
AcDbEntity
  8
細線
 48
50.0
100
AcDbLine
 10
8657.340487179702
 20
2209.712156520048
 30
0.0
 11
8665.378962952637
 21
2179.712156520048
 31
0.0
  0
LINE
  5
1EA4A
330
747D
100
AcDbEntity
  8
細線
 48
50.0
100
AcDbLine
 10
8684.135406422814
 20
2309.712156520048
 30
0.0
 11
8676.096930649881
 21
2339.712156520048
 31
0.0
  0
LINE
  5
1EA4B
330
747D
100
AcDbEntity
  8
細線
 48
50.0
100
AcDbLine
 10
8550.691955222708
 20
2179.712156520048
 30
0.0
 11
8593.56382601169
 21
2339.712156520048
 31
0.0
  0
LINE
  5
1EA4C
330
747D
100
AcDbEntity
  8
細線
 48
50.0
100
AcDbLine
 10
8558.730430995645
 20
2209.712156520048
 30
0.0
 11
8566.768906768578
 21
2179.712156520048
 31
0.0
  0
LINE
  5
1EA4D
330
747D
100
AcDbEntity
  8
細線
 48
50.0
100
AcDbLine
 10
8585.525350238757
 20
2309.712156520048
 30
0.0
 11
8577.486874465824
 21
2339.712156520048
 31
0.0
  0
LINE
  5
1EA4E
330
747D
100
AcDbEntity
  8
細線
 48
50.0
100
AcDbLine
 10
8649.302011406769
 20
2179.712156520048
 30
0.0
 11
8692.173882195747
 21
2339.712156520048
 31
0.0
  0
LINE
  5
1EA4F
330
747D
100
AcDbEntity
  8
細線
100
AcDbLine
 10
9052.734541734945
 20
2339.712156520048
 30
0.0
 11
8902.734541734956
 21
2489.712156520048
 31
0.0
  0
LINE
  5
1EA50
330
747D
100
AcDbEntity
  8
細線
100
AcDbLine
 10
9092.734541734959
 20
2339.712156520048
 30
0.0
 11
8942.734541734955
 21
2489.712156520048
 31
0.0
  0
LINE
  5
1EA51
330
747D
100
AcDbEntity
  8
細線
100
AcDbLine
 10
9132.73454173496
 20
2339.712156520048
 30
0.0
 11
8982.734541734966
 21
2489.712156520048
 31
0.0
  0
LINE
  5
1EA52
330
747D
100
AcDbEntity
  8
細線
 48
50.0
100
AcDbLine
 10
8945.13217995895
 20
2179.712156520048
 30
0.0
 11
8988.004050747928
 21
2339.712156520048
 31
0.0
  0
LINE
  5
1EA53
330
747D
100
AcDbEntity
  8
細線
 48
50.0
100
AcDbLine
 10
8881.355518790931
 20
2309.712156520048
 30
0.0
 11
8873.317043017999
 21
2339.712156520048
 31
0.0
  0
LINE
  5
1EA54
330
747D
100
AcDbEntity
  8
細線
 48
50.0
100
AcDbLine
 10
8747.912067590828
 20
2179.712156520048
 30
0.0
 11
8790.783938379806
 21
2339.712156520048
 31
0.0
  0
LINE
  5
1EA55
330
747D
100
AcDbEntity
  8
細線
 48
50.0
100
AcDbLine
 10
8755.950543363761
 20
2209.712156520048
 30
0.0
 11
8763.989019136694
 21
2179.712156520048
 31
0.0
  0
LINE
  5
1EA56
330
747D
100
AcDbEntity
  8
細線
 48
50.0
100
AcDbLine
 10
8782.745462606873
 20
2309.712156520048
 30
0.0
 11
8774.706986833939
 21
2339.712156520048
 31
0.0
  0
LINE
  5
1EA57
330
747D
100
AcDbEntity
  8
細線
 48
50.0
100
AcDbLine
 10
8846.522123774887
 20
2179.712156520048
 30
0.0
 11
8889.393994563871
 21
2339.712156520048
 31
0.0
  0
LINE
  5
1EA58
330
747D
100
AcDbEntity
  8
細線
 48
50.0
100
AcDbLine
 10
8854.560599547822
 20
2209.712156520048
 30
0.0
 11
8862.599075320757
 21
2179.712156520048
 31
0.0
  0
LINE
  5
1EA59
330
747D
100
AcDbEntity
  8
細線
 48
50.0
100
AcDbLine
 10
9078.575631159056
 20
2309.712156520048
 30
0.0
 11
9070.537155386125
 21
2339.712156520048
 31
0.0
  0
LINE
  5
1EA5A
330
747D
100
AcDbEntity
  8
細線
 48
50.0
100
AcDbLine
 10
8979.965574974995
 20
2309.712156520048
 30
0.0
 11
8971.92709920206
 21
2339.712156520048
 31
0.0
  0
LINE
  5
1EA5B
330
747D
100
AcDbEntity
  8
細線
 48
50.0
100
AcDbLine
 10
8953.170655731883
 20
2209.712156520048
 30
0.0
 11
8961.209131504816
 21
2179.712156520048
 31
0.0
  0
LINE
  5
1EA5C
330
747D
100
AcDbEntity
  8
細線
 48
50.0
100
AcDbLine
 10
9051.780711915943
 20
2209.712156520048
 30
0.0
 11
9059.819187688878
 21
2179.712156520048
 31
0.0
  0
LINE
  5
1EA5D
330
747D
100
AcDbEntity
  8
細線
 48
50.0
100
AcDbLine
 10
9043.742236143009
 20
2179.712156520048
 30
0.0
 11
9086.614106931984
 21
2339.712156520048
 31
0.0
  0
LINE
  5
1EA5E
330
747D
100
AcDbEntity
  8
細線
100
AcDbLine
 10
8385.993817266125
 20
2764.899562198623
 30
0.0
 11
8410.806411587554
 21
2789.712156520047
 31
0.0
  0
LINE
  5
1EA5F
330
747D
100
AcDbEntity
  8
細線
100
AcDbLine
 10
8385.993817266125
 20
2724.899562198623
 30
0.0
 11
8450.806411587553
 21
2789.712156520047
 31
0.0
  0
LINE
  5
1EA60
330
747D
100
AcDbEntity
  8
細線
 48
50.0
100
AcDbLine
 10
10521.54910159274
 20
2024.392624855476
 30
0.0
 11
10611.54910159273
 21
2114.392624855473
 31
0.0
  0
LINE
  5
1EA61
330
747D
100
AcDbEntity
  8
細線
 48
50.0
100
AcDbLine
 10
10521.54910159274
 20
2058.068585309487
 30
0.0
 11
10611.54910159273
 21
2148.068585309482
 31
0.0
  0
LINE
  5
1EA62
330
747D
100
AcDbEntity
  8
部品1
 48
50.0
100
AcDbLine
 10
10521.54910159274
 20
1935.241876284835
 30
0.0
 11
10521.54910159273
 21
2593.585468457127
 31
0.0
  0
LINE
  5
1EA63
330
747D
100
AcDbEntity
  8
部品1
 48
50.0
100
AcDbLine
 10
10501.54910159274
 20
1935.241876284835
 30
0.0
 11
10501.54910159273
 21
2579.618850023722
 31
0.0
  0
LINE
  5
1EA64
330
747D
100
AcDbEntity
  8
部品1
 48
50.0
100
AcDbLine
 10
10611.54910159273
 20
2865.241876284836
 30
0.0
 11
10611.54910159273
 21
2085.241876284836
 31
0.0
  0
LINE
  5
1EA65
330
747D
100
AcDbEntity
  8
部品1
 48
50.0
100
AcDbLine
 10
10371.54910159273
 20
2085.241876284836
 30
0.0
 11
10371.54910159273
 21
2865.241876284836
 31
0.0
  0
LINE
  5
1EA66
330
747D
100
AcDbEntity
  8
部品1
 48
50.0
100
AcDbLine
 10
9895.389895679715
 20
1097.834111881661
 30
0.0
 11
9895.389895679715
 21
937.8341118816607
 31
0.0
  0
LINE
  5
1EA67
330
747D
100
AcDbEntity
  8
細線
 48
50.0
100
AcDbLine
 10
10282.39835302209
 20
1785.241876284835
 30
0.0
 11
10402.39835302209
 21
1905.241876284836
 31
0.0
  0
LINE
  5
1EA68
330
747D
100
AcDbEntity
  8
部品1
 48
50.0
100
AcDbLine
 10
10261.54910159273
 20
1905.241876284836
 30
0.0
 11
10721.54910159273
 21
1905.241876284836
 31
0.0
  0
LINE
  5
1EA69
330
747D
100
AcDbEntity
  8
部品1
 48
50.0
100
AcDbLine
 10
10261.54910159273
 20
1925.241876284836
 30
0.0
 11
10721.54910159273
 21
1925.241876284836
 31
0.0
  0
LINE
  5
1EA6A
330
747D
100
AcDbEntity
  8
細線
 48
50.0
100
AcDbLine
 10
10355.04643211408
 20
1925.241876284836
 30
0.0
 11
10501.54910159273
 21
2071.744545763495
 31
0.0
  0
LINE
  5
1EA6B
330
747D
100
AcDbEntity
  8
細線
 48
50.0
100
AcDbLine
 10
10248.72239256809
 20
1785.241876284835
 30
0.0
 11
10368.72239256809
 21
1905.241876284836
 31
0.0
  0
LINE
  5
1EA6C
330
747D
100
AcDbEntity
  8
細線
 48
50.0
100
AcDbLine
 10
10215.04643211408
 20
1785.241876284835
 30
0.0
 11
10335.04643211408
 21
1905.241876284836
 31
0.0
  0
LINE
  5
1EA6D
330
747D
100
AcDbEntity
  8
部品1
 48
50.0
100
AcDbLine
 10
10191.54910159273
 20
1785.241876284835
 30
0.0
 11
10191.54910159273
 21
2085.241876284836
 31
0.0
  0
LINE
  5
1EA6E
330
747D
100
AcDbEntity
  8
部品1
 48
50.0
100
AcDbLine
 10
10091.54910159273
 20
1625.241876284835
 30
0.0
 11
10091.54910159273
 21
1785.241876284835
 31
0.0
  0
LINE
  5
1EA6F
330
747D
100
AcDbEntity
  8
細線
 48
50.0
100
AcDbLine
 10
10124.97683130912
 20
1625.241876284835
 30
0.0
 11
10167.8487020981
 21
1785.241876284835
 31
0.0
  0
LINE
  5
1EA70
330
747D
100
AcDbEntity
  8
細線
 48
50.0
100
AcDbLine
 10
10133.01530708206
 20
1655.241876284835
 30
0.0
 11
10141.05378285499
 21
1625.241876284835
 31
0.0
  0
LINE
  5
1EA71
330
747D
100
AcDbEntity
  8
細線
 48
50.0
100
AcDbLine
 10
10159.81022632517
 20
1755.241876284836
 30
0.0
 11
10151.77175055224
 21
1785.241876284835
 31
0.0
  0
LINE
  5
1EA72
330
747D
100
AcDbEntity
  8
細線
 48
50.0
100
AcDbLine
 10
10322.19694367724
 20
1625.241876284835
 30
0.0
 11
10365.06881446622
 21
1785.241876284835
 31
0.0
  0
LINE
  5
1EA73
330
747D
100
AcDbEntity
  8
細線
 48
50.0
100
AcDbLine
 10
10330.23541945018
 20
1655.241876284835
 30
0.0
 11
10338.27389522311
 21
1625.241876284835
 31
0.0
  0
LINE
  5
1EA74
330
747D
100
AcDbEntity
  8
細線
 48
50.0
100
AcDbLine
 10
10357.03033869329
 20
1755.241876284836
 30
0.0
 11
10348.99186292036
 21
1785.241876284835
 31
0.0
  0
LINE
  5
1EA75
330
747D
100
AcDbEntity
  8
細線
 48
50.0
100
AcDbLine
 10
10223.58688749318
 20
1625.241876284835
 30
0.0
 11
10266.45875828216
 21
1785.241876284835
 31
0.0
  0
LINE
  5
1EA76
330
747D
100
AcDbEntity
  8
細線
 48
50.0
100
AcDbLine
 10
10231.62536326612
 20
1655.241876284835
 30
0.0
 11
10239.66383903905
 21
1625.241876284835
 31
0.0
  0
LINE
  5
1EA77
330
747D
100
AcDbEntity
  8
細線
 48
50.0
100
AcDbLine
 10
10258.42028250923
 20
1755.241876284836
 30
0.0
 11
10250.3818067363
 21
1785.241876284835
 31
0.0
  0
CIRCLE
  5
1EA78
330
747D
100
AcDbEntity
  8
部品1
 48
50.0
100
AcDbCircle
 10
10331.54910159273
 20
1935.241876284835
 30
0.0
 40
10.0
  0
LINE
  5
1EA79
330
747D
100
AcDbEntity
  8
細線
 48
50.0
100
AcDbLine
 10
10191.54910159273
 20
2031.152229395571
 30
0.0
 11
10245.638748482
 21
2085.241876284836
 31
0.0
  0
LINE
  5
1EA7A
330
747D
100
AcDbEntity
  8
細線
 48
50.0
100
AcDbLine
 10
10191.54910159273
 20
1997.47626894156
 30
0.0
 11
10279.31470893602
 21
2085.241876284836
 31
0.0
  0
LINE
  5
1EA7B
330
747D
100
AcDbEntity
  8
部品1
 48
50.0
100
AcDbLine
 10
10261.54910159273
 20
1905.241876284836
 30
0.0
 11
10261.54910159273
 21
1925.241876284836
 31
0.0
  0
LINE
  5
1EA7C
330
747D
100
AcDbEntity
  8
部品1
 48
50.0
100
AcDbLine
 10
10191.54910159273
 20
2085.241876284836
 30
0.0
 11
10371.54910159273
 21
2085.241876284836
 31
0.0
  0
LINE
  5
1EA7D
330
747D
100
AcDbEntity
  8
細線
 48
50.0
100
AcDbLine
 10
10191.54910159274
 20
1963.80030848755
 30
0.0
 11
10312.99066939002
 21
2085.241876284836
 31
0.0
  0
LINE
  5
1EA7E
330
747D
100
AcDbEntity
  8
細線
 48
50.0
100
AcDbLine
 10
10753.86179937823
 20
1785.241876284835
 30
0.0
 11
10791.54910159273
 21
1822.929178499341
 31
0.0
  0
LINE
  5
1EA7F
330
747D
100
AcDbEntity
  8
細線
 48
50.0
100
AcDbLine
 10
10551.80603665417
 20
1785.241876284835
 30
0.0
 11
10671.8071464606
 21
1905.24298609126
 31
0.0
  0
LINE
  5
1EA80
330
747D
100
AcDbEntity
  8
細線
 48
50.0
100
AcDbLine
 10
10518.13007620016
 20
1785.241876284835
 30
0.0
 11
10638.13007620016
 21
1905.241876284836
 31
0.0
  0
LINE
  5
1EA81
330
747D
100
AcDbEntity
  8
部品1
 48
50.0
100
AcDbLine
 10
10791.54910159273
 20
2085.241876284836
 30
0.0
 11
10791.54910159273
 21
1785.241876284835
 31
0.0
  0
LINE
  5
1EA82
330
747D
100
AcDbEntity
  8
細線
 48
50.0
100
AcDbLine
 10
10484.45411574615
 20
1785.241876284835
 30
0.0
 11
10604.45411574615
 21
1905.241876284836
 31
0.0
  0
LINE
  5
1EA83
330
747D
100
AcDbEntity
  8
細線
 48
50.0
100
AcDbLine
 10
10519.41705604537
 20
1625.241876284835
 30
0.0
 11
10562.28892683434
 21
1785.241876284835
 31
0.0
  0
LINE
  5
1EA84
330
747D
100
AcDbEntity
  8
細線
 48
50.0
100
AcDbLine
 10
10527.4555318183
 20
1655.241876284835
 30
0.0
 11
10535.49400759123
 21
1625.241876284835
 31
0.0
  0
LINE
  5
1EA85
330
747D
100
AcDbEntity
  8
細線
 48
50.0
100
AcDbLine
 10
10554.25045106141
 20
1755.241876284836
 30
0.0
 11
10546.21197528848
 21
1785.241876284835
 31
0.0
  0
LINE
  5
1EA86
330
747D
100
AcDbEntity
  8
細線
 48
50.0
100
AcDbLine
 10
10420.8069998613
 20
1625.241876284835
 30
0.0
 11
10463.67887065028
 21
1785.241876284835
 31
0.0
  0
LINE
  5
1EA87
330
747D
100
AcDbEntity
  8
細線
 48
50.0
100
AcDbLine
 10
10428.84547563424
 20
1655.241876284835
 30
0.0
 11
10436.88395140717
 21
1625.241876284835
 31
0.0
  0
LINE
  5
1EA88
330
747D
100
AcDbEntity
  8
細線
 48
50.0
100
AcDbLine
 10
10455.64039487735
 20
1755.241876284836
 30
0.0
 11
10447.60191910442
 21
1785.241876284835
 31
0.0
  0
LINE
  5
1EA89
330
747D
100
AcDbEntity
  8
細線
 48
50.0
100
AcDbLine
 10
10716.63716841349
 20
1625.241876284835
 30
0.0
 11
10759.50903920247
 21
1785.241876284835
 31
0.0
  0
LINE
  5
1EA8A
330
747D
100
AcDbEntity
  8
細線
 48
50.0
100
AcDbLine
 10
10724.67564418642
 20
1655.241876284835
 30
0.0
 11
10732.71411995935
 21
1625.241876284835
 31
0.0
  0
LINE
  5
1EA8B
330
747D
100
AcDbEntity
  8
細線
 48
50.0
100
AcDbLine
 10
10751.47056342954
 20
1755.241876284836
 30
0.0
 11
10743.4320876566
 21
1785.241876284835
 31
0.0
  0
LINE
  5
1EA8C
330
747D
100
AcDbEntity
  8
細線
 48
50.0
100
AcDbLine
 10
10787.53775983224
 20
1785.241876284835
 30
0.0
 11
10791.54910159273
 21
1789.253218045332
 31
0.0
  0
LINE
  5
1EA8D
330
747D
100
AcDbEntity
  8
細線
 48
50.0
100
AcDbLine
 10
10618.02711222943
 20
1625.241876284835
 30
0.0
 11
10660.8989830184
 21
1785.241876284835
 31
0.0
  0
LINE
  5
1EA8E
330
747D
100
AcDbEntity
  8
細線
 48
50.0
100
AcDbLine
 10
10652.86050724548
 20
1755.241876284836
 30
0.0
 11
10644.82203147254
 21
1785.241876284835
 31
0.0
  0
LINE
  5
1EA8F
330
747D
100
AcDbEntity
  8
細線
 48
50.0
100
AcDbLine
 10
10626.06558800236
 20
1655.241876284835
 30
0.0
 11
10634.10406377529
 21
1625.241876284835
 31
0.0
  0
ARC
  5
1EA90
330
747D
100
AcDbEntity
  8
部品1
 48
50.0
100
AcDbCircle
 10
10491.54910159273
 20
1935.241876284835
 30
0.0
 40
30.0
100
AcDbArc
 50
340.5287793654919
 51
0.0
  0
LINE
  5
1EA91
330
747D
100
AcDbEntity
  8
細線
 48
50.0
100
AcDbLine
 10
10422.39835302209
 20
1925.241876284836
 30
0.0
 11
10461.54910159273
 21
1964.392624855473
 31
0.0
  0
LINE
  5
1EA92
330
747D
100
AcDbEntity
  8
細線
 48
50.0
100
AcDbLine
 10
10388.72239256809
 20
1925.241876284836
 30
0.0
 11
10461.54910159273
 21
1998.068585309484
 31
0.0
  0
LINE
  5
1EA93
330
747D
100
AcDbEntity
  8
部品1
 48
50.0
100
AcDbLine
 10
10461.54910159273
 20
2007.900894656239
 30
0.0
 11
10461.54910159273
 21
1935.241876284835
 31
0.0
  0
LINE
  5
1EA94
330
747D
100
AcDbEntity
  8
部品1
 48
50.0
100
AcDbLine
 10
10481.54910159273
 20
2007.900894656239
 30
0.0
 11
10481.54910159273
 21
1935.241876284835
 31
0.0
  0
ARC
  5
1EA95
330
747D
100
AcDbEntity
  8
部品1
 48
50.0
100
AcDbCircle
 10
10491.54910159273
 20
1935.241876284835
 30
0.0
 40
30.0
100
AcDbArc
 50
180.0
 51
199.4712206345081
  0
LINE
  5
1EA96
330
747D
100
AcDbEntity
  8
部品1
 48
50.0
100
AcDbLine
 10
10481.54910159273
 20
2007.900894656239
 30
0.0
 11
10461.54910159273
 21
2007.900894656239
 31
0.0
  0
CIRCLE
  5
1EA97
330
747D
100
AcDbEntity
  8
部品1
 48
50.0
100
AcDbCircle
 10
10491.54910159273
 20
1935.241876284835
 30
0.0
 40
10.0
  0
LINE
  5
1EA98
330
747D
100
AcDbEntity
  8
細線
 48
50.0
100
AcDbLine
 10
10481.54910159274
 20
1984.392624855474
 30
0.0
 11
10501.54910159274
 21
2004.392624855476
 31
0.0
  0
LINE
  5
1EA99
330
747D
100
AcDbEntity
  8
細線
 48
50.0
100
AcDbLine
 10
10471.38141093949
 20
2007.900894656239
 30
0.0
 11
10501.54910159274
 21
2038.068585309486
 31
0.0
  0
LINE
  5
1EA9A
330
747D
100
AcDbEntity
  8
部品1
 48
50.0
100
AcDbLine
 10
10721.54910159273
 20
1905.241876284836
 30
0.0
 11
10721.54910159273
 21
1925.241876284836
 31
0.0
  0
CIRCLE
  5
1EA9B
330
747D
100
AcDbEntity
  8
部品1
 48
50.0
100
AcDbCircle
 10
10651.54910159273
 20
1935.241876284835
 30
0.0
 40
10.0
  0
LINE
  5
1EA9C
330
747D
100
AcDbEntity
  8
細線
 48
50.0
100
AcDbLine
 10
10624.45411574615
 20
1925.241876284836
 30
0.0
 11
10784.45411574616
 21
2085.241876284836
 31
0.0
  0
LINE
  5
1EA9D
330
747D
100
AcDbEntity
  8
部品1
 48
50.0
100
AcDbLine
 10
10611.54910159273
 20
2085.241876284836
 30
0.0
 11
10791.54910159273
 21
2085.241876284836
 31
0.0
  0
LINE
  5
1EA9E
330
747D
100
AcDbEntity
  8
細線
 48
50.0
100
AcDbLine
 10
10691.80603665417
 20
1925.241876284836
 30
0.0
 11
10791.54910159273
 21
2024.984941223397
 31
0.0
  0
LINE
  5
1EA9F
330
747D
100
AcDbEntity
  8
細線
 48
50.0
100
AcDbLine
 10
10658.13007620016
 20
1925.241876284836
 30
0.0
 11
10791.54910159273
 21
2058.660901677409
 31
0.0
  0
LINE
  5
1EAA0
330
747D
100
AcDbEntity
  8
部品1
 48
50.0
100
AcDbLine
 10
9915.245650231703
 20
2472.548108271178
 30
0.0
 11
10011.62864833276
 21
2472.548108271178
 31
0.0
  0
LINE
  5
1EAA1
330
747D
100
AcDbEntity
  8
Ｇ．Ｌ
 48
50.0
100
AcDbLine
 10
9853.874224301542
 20
2389.077983422758
 30
0.0
 11
10371.54910159273
 21
2389.077983422758
 31
0.0
  0
LINE
  5
1EAA2
330
747D
100
AcDbEntity
  8
部品1
 48
50.0
100
AcDbLine
 10
10011.62864833276
 20
2472.548108271178
 30
0.0
 11
9963.437149282233
 21
2389.077983422754
 31
0.0
  0
LINE
  5
1EAA3
330
747D
100
AcDbEntity
  8
部品1
 48
50.0
100
AcDbLine
 10
9165.993817266128
 20
2489.712156520048
 30
0.0
 11
9165.993817266128
 21
2789.712156520047
 31
0.0
  0
LINE
  5
1EAA4
330
747D
100
AcDbEntity
  8
部品1
100
AcDbLine
 10
9311.693763584955
 20
2489.712156520048
 30
0.0
 11
9311.693763584955
 21
2339.712156520048
 31
0.0
  0
LINE
  5
1EAA5
330
747D
100
AcDbEntity
  8
細線
 48
50.0
100
AcDbLine
 10
9339.572404695191
 20
2179.712156520048
 30
0.0
 11
9382.444275484173
 21
2339.712156520048
 31
0.0
  0
LINE
  5
1EAA6
330
747D
100
AcDbEntity
  8
細線
 48
50.0
100
AcDbLine
 10
9347.610880468124
 20
2209.712156520048
 30
0.0
 11
9355.649356241057
 21
2179.712156520048
 31
0.0
  0
LINE
  5
1EAA7
330
747D
100
AcDbEntity
  8
細線
 48
50.0
100
AcDbLine
 10
9177.185687343117
 20
2309.712156520048
 30
0.0
 11
9169.147211570184
 21
2339.712156520048
 31
0.0
  0
LINE
  5
1EAA8
330
747D
100
AcDbEntity
  8
細線
 48
50.0
100
AcDbLine
 10
9249.000824284063
 20
2209.712156520048
 30
0.0
 11
9257.039300056996
 21
2179.712156520048
 31
0.0
  0
LINE
  5
1EAA9
330
747D
100
AcDbEntity
  8
細線
 48
50.0
100
AcDbLine
 10
9240.96234851113
 20
2179.712156520048
 30
0.0
 11
9283.834219300109
 21
2339.712156520048
 31
0.0
  0
LINE
  5
1EAAA
330
747D
100
AcDbEntity
  8
細線
 48
50.0
100
AcDbLine
 10
9275.795743527181
 20
2309.712156520048
 30
0.0
 11
9267.757267754245
 21
2339.712156520048
 31
0.0
  0
LINE
  5
1EAAB
330
747D
100
AcDbEntity
  8
細線
 48
50.0
100
AcDbLine
 10
9374.405799711238
 20
2309.712156520048
 30
0.0
 11
9366.367323938304
 21
2339.712156520048
 31
0.0
  0
LINE
  5
1EAAC
330
747D
100
AcDbEntity
  8
部品1
100
AcDbLine
 10
9411.693763584954
 20
2339.712156520048
 30
0.0
 11
9411.693763584954
 21
2179.712156520051
 31
0.0
  0
LINE
  5
1EAAD
330
747D
100
AcDbEntity
  8
細線
100
AcDbLine
 10
9311.693763584955
 20
2480.752934670055
 30
0.0
 11
9302.734541734965
 21
2489.712156520048
 31
0.0
  0
LINE
  5
1EAAE
330
747D
100
AcDbEntity
  8
細線
100
AcDbLine
 10
9311.693763584955
 20
2440.752934670045
 30
0.0
 11
9262.734541734952
 21
2489.712156520048
 31
0.0
  0
LINE
  5
1EAAF
330
747D
100
AcDbEntity
  8
細線
100
AcDbLine
 10
9311.69376358496
 20
2400.752934670035
 30
0.0
 11
9222.734541734954
 21
2489.712156520048
 31
0.0
  0
LINE
  5
1EAB0
330
747D
100
AcDbEntity
  8
部品1
 48
50.0
100
AcDbLine
 10
9915.245650231703
 20
2472.548108271178
 30
0.0
 11
9963.437149282233
 21
2389.077983422754
 31
0.0
  0
LINE
  5
1EAB1
330
747D
100
AcDbEntity
  8
部品1
 48
50.0
100
AcDbLine
 10
10501.54910159273
 20
2615.241876284836
 30
0.0
 11
10501.54910159273
 21
2690.559913027643
 31
0.0
  0
LINE
  5
1EAB2
330
747D
100
AcDbEntity
  8
部品1
 48
50.0
100
AcDbLine
 10
10501.54910159273
 20
2615.241876284836
 30
0.0
 11
10501.54910159273
 21
2690.559913027643
 31
0.0
  0
LINE
  5
1EAB3
330
747D
100
AcDbEntity
  8
部品1
 48
50.0
100
AcDbLine
 10
10501.54910159273
 20
2615.241876284836
 30
0.0
 11
10501.54910159273
 21
2865.241876284836
 31
0.0
  0
LINE
  5
1EAB4
330
747D
100
AcDbEntity
  8
部品1
 48
50.0
100
AcDbLine
 10
10528.54910159273
 20
2615.241876284836
 30
0.0
 11
10528.54910159273
 21
2865.241876284836
 31
0.0
  0
LINE
  5
1EAB5
330
747D
100
AcDbEntity
  8
細線
 48
50.0
100
AcDbLine
 10
10371.54910159273
 20
2580.559913027642
 30
0.0
 11
10461.54910159273
 21
2670.559913027644
 31
0.0
  0
LINE
  5
1EAB6
330
747D
100
AcDbEntity
  8
部品1
 48
50.0
100
AcDbLine
 10
10481.54910159273
 20
2617.900894656239
 30
0.0
 11
10481.54910159273
 21
2690.559913027643
 31
0.0
  0
LINE
  5
1EAB7
330
747D
100
AcDbEntity
  8
部品1
 48
50.0
100
AcDbLine
 10
10461.54910159273
 20
2617.900894656241
 30
0.0
 11
10461.54910159273
 21
2690.559913027644
 31
0.0
  0
LINE
  5
1EAB8
330
747D
100
AcDbEntity
  8
細線
 48
50.0
100
AcDbLine
 10
10481.54910159273
 20
2656.883952573633
 30
0.0
 11
10501.54910159273
 21
2676.883952573633
 31
0.0
  0
LINE
  5
1EAB9
330
747D
100
AcDbEntity
  8
細線
 48
50.0
100
AcDbLine
 10
10371.54910159273
 20
2546.883952573633
 30
0.0
 11
10461.54910159273
 21
2636.883952573633
 31
0.0
  0
LINE
  5
1EABA
330
747D
100
AcDbEntity
  8
細線
 48
50.0
100
AcDbLine
 10
10371.54910159273
 20
2513.207992119624
 30
0.0
 11
10441.54910159273
 21
2583.207992119624
 31
0.0
  0
LINE
  5
1EABB
330
747D
100
AcDbEntity
  8
細線
 48
50.0
100
AcDbLine
 10
10371.54910159273
 20
2143.800308487549
 30
0.0
 11
10501.54910159274
 21
2273.800308487551
 31
0.0
  0
LINE
  5
1EABC
330
747D
100
AcDbEntity
  8
細線
 48
50.0
100
AcDbLine
 10
10371.54910159273
 20
2177.476268941559
 30
0.0
 11
10501.54910159274
 21
2307.476268941556
 31
0.0
  0
LINE
  5
1EABD
330
747D
100
AcDbEntity
  8
細線
 48
50.0
100
AcDbLine
 10
10371.54910159273
 20
2211.152229395568
 30
0.0
 11
10501.54910159273
 21
2341.152229395569
 31
0.0
  0
TEXT
  5
1EABE
330
747D
100
AcDbEntity
  8
部品1
 48
50.0
100
AcDbText
 10
10013.72000370275
 20
2398.443810325465
 30
0.0
 40
100.0
  1
G.L
  7
STYLE1
100
AcDbText
  0
LINE
  5
1EABF
330
747D
100
AcDbEntity
  8
細線
 48
50.0
100
AcDbLine
 10
10521.54910159274
 20
2293.800308487551
 30
0.0
 11
10611.54910159273
 21
2383.800308487547
 31
0.0
  0
LINE
  5
1EAC0
330
747D
100
AcDbEntity
  8
細線
 48
50.0
100
AcDbLine
 10
10521.54910159274
 20
2361.152229395571
 30
0.0
 11
10611.54910159273
 21
2451.15222939557
 31
0.0
  0
LINE
  5
1EAC1
330
747D
100
AcDbEntity
  8
細線
 48
50.0
100
AcDbLine
 10
10521.54910159274
 20
2327.476268941559
 30
0.0
 11
10611.54910159273
 21
2417.476268941555
 31
0.0
  0
LINE
  5
1EAC2
330
747D
100
AcDbEntity
  8
細線
 48
50.0
100
AcDbLine
 10
10521.54910159274
 20
2091.744545763497
 30
0.0
 11
10611.54910159273
 21
2181.744545763491
 31
0.0
  0
LINE
  5
1EAC3
330
747D
100
AcDbEntity
  8
部品1
 48
50.0
100
AcDbLine
 10
10491.54910159273
 20
2578.241876284836
 30
0.0
 11
10441.54910159273
 21
2578.241876284836
 31
0.0
  0
LINE
  5
1EAC4
330
747D
100
AcDbEntity
  8
部品1
 48
50.0
100
AcDbLine
 10
10491.54910159273
 20
2605.241876284836
 30
0.0
 11
10441.54910159273
 21
2605.241876284836
 31
0.0
  0
LINE
  5
1EAC5
330
747D
100
AcDbEntity
  8
部品1
 48
50.0
100
AcDbLine
 10
10441.54910159273
 20
2578.241876284836
 30
0.0
 11
10441.54910159273
 21
2605.241876284836
 31
0.0
  0
LINE
  5
1EAC6
330
747D
100
AcDbEntity
  8
細線
 48
50.0
100
AcDbLine
 10
10463.58298575795
 20
2605.241876284836
 30
0.0
 11
10476.24200412935
 21
2617.900894656239
 31
0.0
  0
LINE
  5
1EAC7
330
747D
100
AcDbEntity
  8
部品1
 48
50.0
100
AcDbLine
 10
10481.54910159273
 20
2617.900894656239
 30
0.0
 11
10461.54910159273
 21
2617.900894656241
 31
0.0
  0
ARC
  5
1EAC8
330
747D
100
AcDbEntity
  8
部品1
 48
50.0
100
AcDbCircle
 10
10491.54910159273
 20
2615.241876284836
 30
0.0
 40
37.0
100
AcDbArc
 50
270.0
 51
0.0
  0
LINE
  5
1EAC9
330
747D
100
AcDbEntity
  8
細線
 48
50.0
100
AcDbLine
 10
10481.54910159274
 20
2623.207992119624
 30
0.0
 11
10501.54910159273
 21
2643.207992119624
 31
0.0
  0
ARC
  5
1EACA
330
747D
100
AcDbEntity
  8
部品1
 48
50.0
100
AcDbCircle
 10
10491.54910159273
 20
2615.241876284836
 30
0.0
 40
10.0
100
AcDbArc
 50
270.0
 51
0.0
  0
LINE
  5
1EACB
330
747D
100
AcDbEntity
  8
細線
 48
50.0
100
AcDbLine
 10
10371.54910159273
 20
2816.291636205708
 30
0.0
 11
10386.27261440404
 21
2831.015149017014
 31
0.0
  0
LINE
  5
1EACC
330
747D
100
AcDbEntity
  8
部品1
100
AcDbLine
 10
10399.54910159273
 20
2868.472645515605
 30
0.0
 11
10382.31833236196
 21
2868.472645515605
 31
0.0
  0
LINE
  5
1EACD
330
747D
100
AcDbEntity
  8
部品1
100
AcDbLine
 10
10382.31833236196
 20
2970.780337823297
 30
0.0
 11
10395.24140928504
 21
2974.011107054066
 31
0.0
  0
LINE
  5
1EACE
330
747D
100
AcDbEntity
  8
細線
 48
50.0
100
AcDbLine
 10
10371.54910159273
 20
2782.615675751698
 30
0.0
 11
10413.97644264016
 21
2825.043016799124
 31
0.0
  0
LINE
  5
1EACF
330
747D
100
AcDbEntity
  8
細線
100
AcDbLine
 10
10371.54910159273
 20
2834.869257928875
 30
0.0
 11
10409.08742509876
 21
2825.043016799124
 31
0.0
  0
DIMENSION
  5
1EAD0
330
747D
100
AcDbEntity
  8
寸法
 48
50.0
100
AcDbDimension
  2
*D7
 10
10515.04910159273
 20
3108.975218182783
 30
0.0
 11
10161.48590779662
 21
3108.975218182783
 31
0.0
 70
   160
  1
65
 71
     5
 42
143.5
  3
INABA_S50GUP
100
AcDbAlignedDimension
 13
10371.54910159273
 23
2865.241876284836
 33
0.0
 14
10515.04910159273
 24
2925.549568592527
 34
0.0
100
AcDbRotatedDimension
1001
ACAD
1000
DSTYLE
1002
{
1070
   140
1040
100.0
1002
}
  0
LINE
  5
1EAD1
330
747D
100
AcDbEntity
  8
部品1
 48
50.0
100
AcDbLine
 10
10371.54910159273
 20
2865.241876284836
 30
0.0
 11
10611.54910159273
 21
2865.241876284836
 31
0.0
  0
LINE
  5
1EAD2
330
747D
100
AcDbEntity
  8
部品1
100
AcDbLine
 10
10382.31833236196
 20
2868.472645515605
 30
0.0
 11
10382.31833236196
 21
2970.780337823297
 31
0.0
  0
LINE
  5
1EAD3
330
747D
100
AcDbEntity
  8
部品1
100
AcDbLine
 10
10572.93371697735
 20
2971.85726090022
 30
0.0
 11
10572.93371697735
 21
2868.472645515605
 31
0.0
  0
LINE
  5
1EAD4
330
747D
100
AcDbEntity
  8
部品1
100
AcDbLine
 10
10572.93371697735
 20
2868.472645515605
 30
0.0
 11
10590.16448620812
 21
2868.472645515605
 31
0.0
  0
LINE
  5
1EAD5
330
747D
100
AcDbEntity
  8
細線
 48
50.0
100
AcDbLine
 10
10528.54910159273
 20
2703.883952573627
 30
0.0
 11
10611.54910159273
 21
2786.883952573633
 31
0.0
  0
LINE
  5
1EAD6
330
747D
100
AcDbEntity
  8
細線
100
AcDbLine
 10
10571.36001146217
 20
2831.593825297739
 30
0.0
 11
10611.54910159273
 21
2823.405272101736
 31
0.0
  0
LINE
  5
1EAD7
330
747D
100
AcDbEntity
  8
細線
 48
50.0
100
AcDbLine
 10
10528.54910159273
 20
2737.559913027638
 30
0.0
 11
10611.54910159273
 21
2820.559913027643
 31
0.0
  0
LINE
  5
1EAD8
330
747D
100
AcDbEntity
  8
細線
 48
50.0
100
AcDbLine
 10
10528.54910159273
 20
2670.207992119624
 30
0.0
 11
10611.54910159273
 21
2753.207992119624
 31
0.0
  0
ARC
  5
1EAD9
330
747D
100
AcDbEntity
  8
部品1
100
AcDbCircle
 10
10515.04910159273
 20
2855.239120582943
 30
0.0
 40
35.0848827120379
100
AcDbArc
 50
68.38687878208857
 51
111.6131212179114
  0
LINE
  5
1EADA
330
747D
100
AcDbEntity
  8
部品1
 48
50.0
100
AcDbLine
 10
10528.54910159273
 20
2925.549568592527
 30
0.0
 11
10501.54910159273
 21
2925.549568592527
 31
0.0
  0
LINE
  5
1EADB
330
747D
100
AcDbEntity
  8
部品1
 48
50.0
100
AcDbLine
 10
10501.54910159273
 20
2891.08803013099
 30
0.0
 11
10501.54910159273
 21
2925.549568592527
 31
0.0
  0
LINE
  5
1EADC
330
747D
100
AcDbEntity
  8
部品1
100
AcDbLine
 10
10502.12602466966
 20
2887.857260900223
 30
0.0
 11
10502.12602466966
 21
2869.549568592527
 31
0.0
  0
LINE
  5
1EADD
330
747D
100
AcDbEntity
  8
細線
100
AcDbLine
 10
10541.85594278394
 20
2833.231569995129
 30
0.0
 11
10571.36001146217
 21
2831.593825297739
 31
0.0
  0
LINE
  5
1EADE
330
747D
100
AcDbEntity
  8
部品1
 48
50.0
100
AcDbLine
 10
10528.54910159273
 20
2891.08803013099
 30
0.0
 11
10528.54910159273
 21
2925.549568592527
 31
0.0
  0
LINE
  5
1EADF
330
747D
100
AcDbEntity
  8
部品1
100
AcDbLine
 10
10569.70294774658
 20
2891.993014600599
 30
0.0
 11
10569.70294774658
 21
2869.549568592527
 31
0.0
  0
LINE
  5
1EAE0
330
747D
100
AcDbEntity
  8
部品1
100
AcDbLine
 10
10543.04910159273
 20
2869.549568592527
 30
0.0
 11
10543.04910159273
 21
2865.241876284836
 31
0.0
  0
LINE
  5
1EAE1
330
747D
100
AcDbEntity
  8
部品1
100
AcDbLine
 10
10535.51064005427
 20
2891.08803013099
 30
0.0
 11
10538.74140928504
 21
2887.857260900223
 31
0.0
  0
LINE
  5
1EAE2
330
747D
100
AcDbEntity
  8
部品1
100
AcDbLine
 10
10538.74140928504
 20
2887.857260900223
 30
0.0
 11
10538.74140928504
 21
2869.549568592527
 31
0.0
  0
LINE
  5
1EAE3
330
747D
100
AcDbEntity
  8
部品1
100
AcDbLine
 10
10527.9721785158
 20
2887.857260900221
 30
0.0
 11
10527.9721785158
 21
2869.549568592527
 31
0.0
  0
ARC
  5
1EAE4
330
747D
100
AcDbEntity
  8
部品1
100
AcDbCircle
 10
10533.35679390042
 20
2882.801962989212
 30
0.0
 40
7.3858052918609
100
AcDbArc
 50
43.19325636896477
 51
136.8067436310352
  0
LINE
  5
1EAE5
330
747D
100
AcDbEntity
  8
細線
100
AcDbLine
 10
10409.08742509876
 20
2825.043016799124
 30
0.0
 11
10445.1479998462
 21
2825.043016799124
 31
0.0
  0
LINE
  5
1EAE6
330
747D
100
AcDbEntity
  8
部品1
100
AcDbLine
 10
10402.7798708235
 20
2872.780337823297
 30
0.0
 11
10385.54910159273
 21
2872.780337823297
 31
0.0
  0
LINE
  5
1EAE7
330
747D
100
AcDbEntity
  8
部品1
100
AcDbLine
 10
10385.54910159273
 20
2872.780337823297
 30
0.0
 11
10385.54910159273
 21
2891.993014600599
 31
0.0
  0
LINE
  5
1EAE8
330
747D
100
AcDbEntity
  8
部品1
100
AcDbLine
 10
10402.7798708235
 20
2872.780337823297
 30
0.0
 11
10402.7798708235
 21
2869.549568592527
 31
0.0
  0
LINE
  5
1EAE9
330
747D
100
AcDbEntity
  8
細線
100
AcDbLine
 10
10445.1479998462
 20
2825.043016799124
 30
0.0
 11
10486.12595414551
 21
2831.593825297739
 31
0.0
  0
LINE
  5
1EAEA
330
747D
100
AcDbEntity
  8
部品1
100
AcDbLine
 10
10487.04910159273
 20
2869.549568592527
 30
0.0
 11
10487.04910159273
 21
2865.241876284836
 31
0.0
  0
LINE
  5
1EAEB
330
747D
100
AcDbEntity
  8
部品1
100
AcDbLine
 10
10491.35679390042
 20
2887.857260900221
 30
0.0
 11
10494.58756313119
 21
2891.08803013099
 31
0.0
  0
LINE
  5
1EAEC
330
747D
100
AcDbEntity
  8
部品1
100
AcDbLine
 10
10491.35679390042
 20
2887.857260900221
 30
0.0
 11
10491.35679390042
 21
2869.549568592527
 31
0.0
  0
ARC
  5
1EAED
330
747D
100
AcDbEntity
  8
部品1
 48
50.0
100
AcDbCircle
 10
10491.54910159273
 20
2690.559913027643
 30
0.0
 40
30.0
100
AcDbArc
 50
70.52877936552764
 51
180.0
  0
CIRCLE
  5
1EAEE
330
747D
100
AcDbEntity
  8
部品1
 48
50.0
100
AcDbCircle
 10
10491.54910159273
 20
2690.559913027643
 30
0.0
 40
10.0
  0
LINE
  5
1EAEF
330
747D
100
AcDbEntity
  8
部品1
100
AcDbLine
 10
10402.7798708235
 20
2869.549568592527
 30
0.0
 11
10569.70294774658
 21
2869.549568592527
 31
0.0
  0
LINE
  5
1EAF0
330
747D
100
AcDbEntity
  8
細線
100
AcDbLine
 10
10486.12595414551
 20
2831.593825297739
 30
0.0
 11
10541.85594278394
 21
2833.231569995129
 31
0.0
  0
LINE
  5
1EAF1
330
747D
100
AcDbEntity
  8
細線
 48
50.0
100
AcDbLine
 10
10497.54910159274
 20
2908.621365362254
 30
0.0
 11
10532.74910159273
 21
2899.189553788678
 31
0.0
  0
LINE
  5
1EAF2
330
747D
100
AcDbEntity
  8
部品1
100
AcDbLine
 10
10491.35679390042
 20
2887.857260900223
 30
0.0
 11
10538.74140928504
 21
2887.857260900219
 31
0.0
  0
LINE
  5
1EAF3
330
747D
100
AcDbEntity
  8
部品1
100
AcDbLine
 10
10494.58756313119
 20
2891.08803013099
 30
0.0
 11
10535.51064005427
 21
2891.08803013099
 31
0.0
  0
LINE
  5
1EAF4
330
747D
100
AcDbEntity
  8
部品1
100
AcDbLine
 10
10487.04910159273
 20
2869.549568592527
 30
0.0
 11
10543.04910159273
 21
2869.549568592527
 31
0.0
  0
LINE
  5
1EAF5
330
747D
100
AcDbEntity
  8
細線
 48
50.0
100
AcDbLine
 10
10497.54910159274
 20
2920.621365362251
 30
0.0
 11
10532.74910159273
 21
2911.189553788677
 31
0.0
  0
ARC
  5
1EAF6
330
747D
100
AcDbEntity
  8
部品1
100
AcDbCircle
 10
10496.74140928504
 20
2882.801962989212
 30
0.0
 40
7.3858052918609
100
AcDbArc
 50
43.19325636896477
 51
136.8067436310352
  0
LINE
  5
1EAF7
330
747D
100
AcDbEntity
  8
細線
 48
50.0
100
AcDbLine
 10
10497.54910159274
 20
2896.621365362251
 30
0.0
 11
10518.19978981111
 21
2891.08803013099
 31
0.0
  0
LINE
  5
1EAF8
330
747D
100
AcDbEntity
  8
部品1
100
AcDbLine
 10
10501.08756313119
 20
2986.934183977144
 30
0.0
 11
10531.24140928504
 21
2986.934183977144
 31
0.0
  0
LINE
  5
1EAF9
330
747D
100
AcDbEntity
  8
部品1
100
AcDbLine
 10
10531.24140928504
 20
2986.934183977144
 30
0.0
 11
10531.24140928504
 21
2971.85726090022
 31
0.0
  0
LINE
  5
1EAFA
330
747D
100
AcDbEntity
  8
部品1
100
AcDbLine
 10
10531.24140928504
 20
2971.85726090022
 30
0.0
 11
10572.93371697735
 21
2971.85726090022
 31
0.0
  0
LINE
  5
1EAFB
330
747D
100
AcDbEntity
  8
部品1
100
AcDbLine
 10
10501.08756313119
 20
3012.780337823298
 30
0.0
 11
10501.08756313119
 21
2986.934183977144
 31
0.0
  0
LINE
  5
1EAFC
330
747D
100
AcDbEntity
  8
部品1
100
AcDbLine
 10
10395.24140928504
 20
2986.934183977144
 30
0.0
 11
10468.7798708235
 21
2986.934183977144
 31
0.0
  0
LINE
  5
1EAFD
330
747D
100
AcDbEntity
  8
部品1
100
AcDbLine
 10
10395.24140928504
 20
2974.011107054066
 30
0.0
 11
10395.24140928504
 21
2986.934183977144
 31
0.0
  0
LINE
  5
1EAFE
330
747D
100
AcDbEntity
  8
部品1
100
AcDbLine
 10
10468.7798708235
 20
2986.934183977144
 30
0.0
 11
10468.7798708235
 21
3012.780337823298
 31
0.0
  0
LINE
  5
1EAFF
330
747D
100
AcDbEntity
  8
部品1
100
AcDbLine
 10
10468.7798708235
 20
3012.780337823298
 30
0.0
 11
10501.08756313119
 21
3012.780337823298
 31
0.0
  0
LINE
  5
1EB00
330
747D
100
AcDbEntity
  8
細線
 48
50.0
100
AcDbLine
 10
6248.659066840559
 20
3703.927840022178
 30
0.0
 11
9805.30261621309
 21
3703.927840022178
 31
0.0
  0
LINE
  5
1EB01
330
747D
100
AcDbEntity
  8
細線
 48
50.0
100
AcDbLine
 10
10734.59219476102
 20
3823.927840022178
 30
0.0
 11
9885.30261621309
 21
3823.927840022178
 31
0.0
  0
TEXT
  5
1EB02
330
747D
100
AcDbEntity
  8
部品1
 48
50.0
100
AcDbText
 10
9906.051691144766
 20
3649.014621835244
 30
0.0
 40
112.0
  1
基礎詳細図
  7
STYLE2
100
AcDbText
  0
LINE
  5
1EB03
330
747D
100
AcDbEntity
  8
細線
 48
50.0
100
AcDbLine
 10
10734.59219476102
 20
3583.927840022177
 30
0.0
 11
9885.30261621309
 21
3583.927840022177
 31
0.0
  0
ARC
  5
1EB04
330
747D
100
AcDbEntity
  8
細線
 48
50.0
100
AcDbCircle
 10
9885.30261621309
 20
3743.927840022177
 30
0.0
 40
80.0
100
AcDbArc
 50
90.0
 51
180.0
  0
LINE
  5
1EB05
330
747D
100
AcDbEntity
  8
細線
 48
50.0
100
AcDbLine
 10
9805.30261621309
 20
3663.927840022178
 30
0.0
 11
9805.30261621309
 21
3743.927840022177
 31
0.0
  0
ARC
  5
1EB06
330
747D
100
AcDbEntity
  8
細線
 48
50.0
100
AcDbCircle
 10
9885.30261621309
 20
3663.927840022178
 30
0.0
 40
80.0
100
AcDbArc
 50
180.0
 51
270.0
  0
LINE
  5
1EB07
330
747D
100
AcDbEntity
  8
細線
 48
50.0
100
AcDbLine
 10
14371.23574413355
 20
3703.927840022178
 30
0.0
 11
14371.23574413355
 21
798.2661667814205
 31
0.0
  0
LEADER
  5
1EB08
330
747D
100
AcDbEntity
  8
寸法
 48
50.0
100
AcDbLeader
  3
INABA_S50G
 71
     0
 73
     0
 74
     0
 75
     1
 40
100.0
 41
546.6666666666667
 76
     3
 10
13394.58909792327
 20
2442.037069244527
 30
0.0
 10
13542.28926338789
 20
2285.47335701438
 30
0.0
 10
13667.28926338789
 20
2285.47335701438
 30
0.0
340
1EB09
  0
MTEXT
  5
1EB09
102
{ACAD_REACTORS
330
1EB08
102
}
330
747D
100
AcDbEntity
  8
寸法
 62
     7
 48
50.0
100
AcDbMText
 10
13692.28926338789
 20
2360.47335701438
 30
0.0
 40
100.0
 41
0.0
 71
     4
 72
     1
  1
防湿シート
  7
STYLE1
 73
     1
 44
1.0
1001
ACAD
1000
MTEXTBEGIN
1070
    73
1070
     1
1070
    44
1040
1.0
1070
    74
1070
     0
1000
MTEXTEND
  0
CIRCLE
  5
1EB0A
330
747D
100
AcDbEntity
  8
部品1
 48
50.0
100
AcDbCircle
 10
12430.21169956354
 20
1935.241876284836
 30
0.0
 40
10.0
  0
LINE
  5
1EB0B
330
747D
100
AcDbEntity
  8
部品1
 48
50.0
100
AcDbLine
 10
12290.21169956354
 20
2085.241876284837
 30
0.0
 11
12470.21169956354
 21
2085.241876284837
 31
0.0
  0
LINE
  5
1EB0C
330
747D
100
AcDbEntity
  8
部品1
 48
50.0
100
AcDbLine
 10
12360.21169956354
 20
1925.241876284836
 30
0.0
 11
12820.21169956354
 21
1925.241876284836
 31
0.0
  0
LINE
  5
1EB0D
330
747D
100
AcDbEntity
  8
部品1
 48
50.0
100
AcDbLine
 10
12360.21169956354
 20
1905.241876284836
 30
0.0
 11
12820.21169956354
 21
1905.241876284836
 31
0.0
  0
LINE
  5
1EB0E
330
747D
100
AcDbEntity
  8
細線
 48
50.0
100
AcDbLine
 10
12428.89801742098
 20
1655.241876284836
 30
0.0
 11
12436.93649319392
 21
1625.241876284836
 31
0.0
  0
LINE
  5
1EB0F
330
747D
100
AcDbEntity
  8
細線
 48
50.0
100
AcDbLine
 10
12420.85954164805
 20
1625.241876284836
 30
0.0
 11
12463.73141243703
 21
1785.241876284836
 31
0.0
  0
LINE
  5
1EB10
330
747D
100
AcDbEntity
  8
部品1
 48
50.0
100
AcDbLine
 10
12990.21169956354
 20
1785.241876284836
 30
0.0
 11
12190.21169956354
 21
1785.241876284836
 31
0.0
  0
LINE
  5
1EB11
330
747D
100
AcDbEntity
  8
部品1
 48
50.0
100
AcDbLine
 10
12990.21169956354
 20
1625.241876284836
 30
0.0
 11
12190.21169956354
 21
1625.241876284836
 31
0.0
  0
LINE
  5
1EB12
330
747D
100
AcDbEntity
  8
部品1
 48
50.0
100
AcDbLine
 10
13547.18932378915
 20
1097.834111881661
 30
0.0
 11
12155.87605479154
 21
1097.834111881661
 31
0.0
  0
LINE
  5
1EB13
330
747D
100
AcDbEntity
  8
部品1
 48
50.0
100
AcDbLine
 10
13547.18932378915
 20
937.8341118816607
 30
0.0
 11
12155.87605479154
 21
937.8341118816607
 31
0.0
  0
TEXT
  5
1EB14
330
747D
100
AcDbEntity
  8
部品1
 48
50.0
100
AcDbText
 10
12216.02212633971
 20
975.0774508955135
 30
0.0
 40
96.0
  1
床下湿気防止用基礎
  7
STYLE2
100
AcDbText
  0
LINE
  5
1EB15
330
747D
100
AcDbEntity
  8
細線
 48
50.0
100
AcDbLine
 10
12381.0609509929
 20
1785.241876284836
 30
0.0
 11
12501.0609509929
 21
1905.241876284836
 31
0.0
  0
LINE
  5
1EB16
330
747D
100
AcDbEntity
  8
細線
 48
50.0
100
AcDbLine
 10
12347.38499053889
 20
1785.241876284836
 30
0.0
 11
12467.38499053889
 21
1905.241876284836
 31
0.0
  0
LINE
  5
1EB17
330
747D
100
AcDbEntity
  8
Ｇ．Ｌ
 48
50.0
100
AcDbLine
 10
11952.53682227234
 20
2389.07798342276
 30
0.0
 11
12470.21169956354
 21
2389.07798342276
 31
0.0
  0
LINE
  5
1EB18
330
747D
100
AcDbEntity
  8
部品1
 48
50.0
100
AcDbLine
 10
10936.15966785795
 20
1097.834111881661
 30
0.0
 11
10936.15966785795
 21
937.8341118816607
 31
0.0
  0
LINE
  5
1EB19
330
747D
100
AcDbEntity
  8
細線
 48
50.0
100
AcDbLine
 10
10815.24722459755
 20
1625.241876284835
 30
0.0
 11
10858.11909538653
 21
1785.241876284835
 31
0.0
  0
LINE
  5
1EB1A
330
747D
100
AcDbEntity
  8
細線
 48
50.0
100
AcDbLine
 10
10823.28570037048
 20
1655.241876284835
 30
0.0
 11
10831.32417614342
 21
1625.241876284835
 31
0.0
  0
LINE
  5
1EB1B
330
747D
100
AcDbEntity
  8
細線
 48
50.0
100
AcDbLine
 10
10850.0806196136
 20
1755.241876284836
 30
0.0
 11
10842.04214384066
 21
1785.241876284835
 31
0.0
  0
LINE
  5
1EB1C
330
747D
100
AcDbEntity
  8
部品1
 48
50.0
100
AcDbLine
 10
10891.54910159273
 20
1625.241876284835
 30
0.0
 11
10891.54910159273
 21
1785.241876284835
 31
0.0
  0
LINE
  5
1EB1D
330
747D
100
AcDbEntity
  8
部品1
 48
50.0
100
AcDbLine
 10
12155.87605479154
 20
1097.834111881661
 30
0.0
 11
12155.87605479154
 21
937.8341118816607
 31
0.0
  0
LINE
  5
1EB1E
330
747D
100
AcDbEntity
  8
部品1
 48
50.0
100
AcDbLine
 10
12290.21169956354
 20
1785.241876284836
 30
0.0
 11
12290.21169956354
 21
2085.241876284837
 31
0.0
  0
LINE
  5
1EB1F
330
747D
100
AcDbEntity
  8
細線
 48
50.0
100
AcDbLine
 10
12313.70903008488
 20
1785.241876284836
 30
0.0
 11
12433.70903008488
 21
1905.241876284836
 31
0.0
  0
LINE
  5
1EB20
330
747D
100
AcDbEntity
  8
細線
 48
50.0
100
AcDbLine
 10
12223.63942927992
 20
1625.241876284836
 30
0.0
 11
12266.51130006891
 21
1785.241876284836
 31
0.0
  0
LINE
  5
1EB21
330
747D
100
AcDbEntity
  8
部品1
 48
50.0
100
AcDbLine
 10
12190.21169956354
 20
1625.241876284836
 30
0.0
 11
12190.21169956354
 21
1785.241876284836
 31
0.0
  0
LINE
  5
1EB22
330
747D
100
AcDbEntity
  8
細線
 48
50.0
100
AcDbLine
 10
12357.08288048003
 20
1755.241876284836
 30
0.0
 11
12349.0444047071
 21
1785.241876284836
 31
0.0
  0
LINE
  5
1EB23
330
747D
100
AcDbEntity
  8
細線
 48
50.0
100
AcDbLine
 10
12231.67790505286
 20
1655.241876284836
 30
0.0
 11
12239.7163808258
 21
1625.241876284836
 31
0.0
  0
LINE
  5
1EB24
330
747D
100
AcDbEntity
  8
細線
 48
50.0
100
AcDbLine
 10
12258.47282429597
 20
1755.241876284836
 30
0.0
 11
12250.43434852304
 21
1785.241876284836
 31
0.0
  0
LINE
  5
1EB25
330
747D
100
AcDbEntity
  8
細線
 48
50.0
100
AcDbLine
 10
12330.28796123692
 20
1655.241876284836
 30
0.0
 11
12338.32643700986
 21
1625.241876284836
 31
0.0
  0
LINE
  5
1EB26
330
747D
100
AcDbEntity
  8
細線
 48
50.0
100
AcDbLine
 10
12322.24948546399
 20
1625.241876284836
 30
0.0
 11
12365.12135625297
 21
1785.241876284836
 31
0.0
  0
LINE
  5
1EB27
330
747D
100
AcDbEntity
  8
部品1
 48
50.0
100
AcDbLine
 10
12360.21169956354
 20
1905.241876284836
 30
0.0
 11
12360.21169956354
 21
1925.241876284836
 31
0.0
  0
LINE
  5
1EB28
330
747D
100
AcDbEntity
  8
細線
 48
50.0
100
AcDbLine
 10
12290.21169956354
 20
2031.152229395571
 30
0.0
 11
12344.30134645281
 21
2085.241876284837
 31
0.0
  0
LINE
  5
1EB29
330
747D
100
AcDbEntity
  8
細線
 48
50.0
100
AcDbLine
 10
12290.21169956354
 20
1997.476268941561
 30
0.0
 11
12377.97730690682
 21
2085.241876284837
 31
0.0
  0
LINE
  5
1EB2A
330
747D
100
AcDbEntity
  8
細線
 48
50.0
100
AcDbLine
 10
12290.21169956354
 20
1963.800308487551
 30
0.0
 11
12411.65326736082
 21
2085.241876284837
 31
0.0
  0
LINE
  5
1EB2C
330
747D
100
AcDbEntity
  8
部品1
 48
50.0
100
AcDbLine
 10
12013.90824820251
 20
2472.548108271178
 30
0.0
 11
12110.29124630356
 21
2472.548108271178
 31
0.0
  0
LINE
  5
1EB2D
330
747D
100
AcDbEntity
  8
部品1
 48
50.0
100
AcDbLine
 10
12013.90824820251
 20
2472.548108271178
 30
0.0
 11
12062.09974725303
 21
2389.077983422755
 31
0.0
  0
TEXT
  5
1EB2E
330
747D
100
AcDbEntity
  8
部品1
 48
50.0
100
AcDbText
 10
12112.38260167356
 20
2398.443810325466
 30
0.0
 40
100.0
  1
G.L
  7
STYLE1
100
AcDbText
  0
LINE
  5
1EB2F
330
747D
100
AcDbEntity
  8
部品1
 48
50.0
100
AcDbLine
 10
12110.29124630356
 20
2472.548108271178
 30
0.0
 11
12062.09974725303
 21
2389.077983422755
 31
0.0
  0
LINE
  5
1EB30
330
747D
100
AcDbEntity
  8
細線
 48
50.0
100
AcDbLine
 10
12620.21169956355
 20
2024.392624855477
 30
0.0
 11
12710.21169956354
 21
2114.392624855474
 31
0.0
  0
LINE
  5
1EB31
330
747D
100
AcDbEntity
  8
細線
 48
50.0
100
AcDbLine
 10
12620.21169956355
 20
2058.068585309488
 30
0.0
 11
12710.21169956354
 21
2148.068585309483
 31
0.0
  0
LINE
  5
1EB32
330
747D
100
AcDbEntity
  8
部品1
 48
50.0
100
AcDbLine
 10
12710.21169956354
 20
2865.241876284837
 30
0.0
 11
12710.21169956354
 21
2085.241876284837
 31
0.0
  0
LINE
  5
1EB33
330
747D
100
AcDbEntity
  8
部品1
 48
50.0
100
AcDbLine
 10
12470.21169956354
 20
2085.241876284837
 30
0.0
 11
12470.21169956354
 21
2865.241876284837
 31
0.0
  0
LINE
  5
1EB34
330
747D
100
AcDbEntity
  8
部品1
 48
50.0
100
AcDbLine
 10
12600.21169956355
 20
1935.241876284836
 30
0.0
 11
12600.21169956354
 21
2690.559913027643
 31
0.0
  0
LINE
  5
1EB35
330
747D
100
AcDbEntity
  8
部品1
 48
50.0
100
AcDbLine
 10
12620.21169956355
 20
1935.241876284836
 30
0.0
 11
12620.21169956354
 21
2690.559913027643
 31
0.0
  0
LINE
  5
1EB36
330
747D
100
AcDbEntity
  8
細線
 48
50.0
100
AcDbLine
 10
12756.79267417097
 20
1925.241876284836
 30
0.0
 11
12890.21169956354
 21
2058.660901677411
 31
0.0
  0
LINE
  5
1EB37
330
747D
100
AcDbEntity
  8
細線
 48
50.0
100
AcDbLine
 10
12790.46863462498
 20
1925.241876284836
 30
0.0
 11
12890.21169956354
 21
2024.984941223398
 31
0.0
  0
LINE
  5
1EB38
330
747D
100
AcDbEntity
  8
細線
 48
50.0
100
AcDbLine
 10
12723.11671371695
 20
1925.241876284836
 30
0.0
 11
12883.11671371696
 21
2085.241876284837
 31
0.0
  0
LINE
  5
1EB39
330
747D
100
AcDbEntity
  8
部品1
 48
50.0
100
AcDbLine
 10
12710.21169956354
 20
2085.241876284837
 30
0.0
 11
12890.21169956354
 21
2085.241876284837
 31
0.0
  0
LINE
  5
1EB3A
330
747D
100
AcDbEntity
  8
細線
 48
50.0
100
AcDbLine
 10
12815.29976638429
 20
1625.241876284836
 30
0.0
 11
12858.17163717327
 21
1785.241876284836
 31
0.0
  0
LINE
  5
1EB3B
330
747D
100
AcDbEntity
  8
細線
 48
50.0
100
AcDbLine
 10
12850.13316140034
 20
1755.241876284836
 30
0.0
 11
12842.09468562741
 21
1785.241876284836
 31
0.0
  0
LINE
  5
1EB3C
330
747D
100
AcDbEntity
  8
細線
 48
50.0
100
AcDbLine
 10
12650.46863462497
 20
1785.241876284836
 30
0.0
 11
12770.4697444314
 21
1905.242986091261
 31
0.0
  0
LINE
  5
1EB3D
330
747D
100
AcDbEntity
  8
細線
 48
50.0
100
AcDbLine
 10
12583.11671371695
 20
1785.241876284836
 30
0.0
 11
12703.11671371695
 21
1905.241876284836
 31
0.0
  0
LINE
  5
1EB3E
330
747D
100
AcDbEntity
  8
細線
 48
50.0
100
AcDbLine
 10
12616.79267417097
 20
1785.241876284836
 30
0.0
 11
12736.79267417097
 21
1905.241876284836
 31
0.0
  0
LINE
  5
1EB3F
330
747D
100
AcDbEntity
  8
細線
 48
50.0
100
AcDbLine
 10
12618.07965401617
 20
1625.241876284836
 30
0.0
 11
12660.95152480515
 21
1785.241876284836
 31
0.0
  0
LINE
  5
1EB40
330
747D
100
AcDbEntity
  8
細線
 48
50.0
100
AcDbLine
 10
12626.1181297891
 20
1655.241876284836
 30
0.0
 11
12634.15660556204
 21
1625.241876284836
 31
0.0
  0
LINE
  5
1EB41
330
747D
100
AcDbEntity
  8
細線
 48
50.0
100
AcDbLine
 10
12455.6929366641
 20
1755.241876284836
 30
0.0
 11
12447.65446089116
 21
1785.241876284836
 31
0.0
  0
LINE
  5
1EB42
330
747D
100
AcDbEntity
  8
細線
 48
50.0
100
AcDbLine
 10
12527.50807360505
 20
1655.241876284836
 30
0.0
 11
12535.54654937798
 21
1625.241876284836
 31
0.0
  0
LINE
  5
1EB43
330
747D
100
AcDbEntity
  8
細線
 48
50.0
100
AcDbLine
 10
12519.46959783211
 20
1625.241876284836
 30
0.0
 11
12562.34146862109
 21
1785.241876284836
 31
0.0
  0
LINE
  5
1EB44
330
747D
100
AcDbEntity
  8
細線
 48
50.0
100
AcDbLine
 10
12554.30299284816
 20
1755.241876284836
 30
0.0
 11
12546.26451707522
 21
1785.241876284836
 31
0.0
  0
LINE
  5
1EB45
330
747D
100
AcDbEntity
  8
細線
 48
50.0
100
AcDbLine
 10
12823.33824215723
 20
1655.241876284836
 30
0.0
 11
12831.37671793016
 21
1625.241876284836
 31
0.0
  0
LINE
  5
1EB46
330
747D
100
AcDbEntity
  8
細線
 48
50.0
100
AcDbLine
 10
12652.91304903222
 20
1755.241876284836
 30
0.0
 11
12644.87457325929
 21
1785.241876284836
 31
0.0
  0
LINE
  5
1EB47
330
747D
100
AcDbEntity
  8
細線
 48
50.0
100
AcDbLine
 10
12724.72818597316
 20
1655.241876284836
 30
0.0
 11
12732.7666617461
 21
1625.241876284836
 31
0.0
  0
LINE
  5
1EB48
330
747D
100
AcDbEntity
  8
細線
 48
50.0
100
AcDbLine
 10
12751.52310521628
 20
1755.241876284836
 30
0.0
 11
12743.48462944335
 21
1785.241876284836
 31
0.0
  0
LINE
  5
1EB49
330
747D
100
AcDbEntity
  8
細線
 48
50.0
100
AcDbLine
 10
12716.68971020023
 20
1625.241876284836
 30
0.0
 11
12759.56158098921
 21
1785.241876284836
 31
0.0
  0
LINE
  5
1EB4A
330
747D
100
AcDbEntity
  8
部品1
 48
50.0
100
AcDbLine
 10
12580.21169956354
 20
2007.90089465624
 30
0.0
 11
12560.21169956354
 21
2007.90089465624
 31
0.0
  0
LINE
  5
1EB4B
330
747D
100
AcDbEntity
  8
細線
 48
50.0
100
AcDbLine
 10
12570.0440089103
 20
2007.90089465624
 30
0.0
 11
12600.21169956355
 21
2038.068585309487
 31
0.0
  0
LINE
  5
1EB4C
330
747D
100
AcDbEntity
  8
部品1
 48
50.0
100
AcDbLine
 10
12560.21169956354
 20
2007.90089465624
 30
0.0
 11
12560.21169956354
 21
1935.241876284836
 31
0.0
  0
ARC
  5
1EB4D
330
747D
100
AcDbEntity
  8
部品1
 48
50.0
100
AcDbCircle
 10
12590.21169956354
 20
1935.241876284836
 30
0.0
 40
30.0
100
AcDbArc
 50
180.0
 51
199.4712206345081
  0
CIRCLE
  5
1EB4E
330
747D
100
AcDbEntity
  8
部品1
 48
50.0
100
AcDbCircle
 10
12590.21169956354
 20
1935.241876284836
 30
0.0
 40
10.0
  0
LINE
  5
1EB4F
330
747D
100
AcDbEntity
  8
部品1
 48
50.0
100
AcDbLine
 10
12580.21169956354
 20
2007.90089465624
 30
0.0
 11
12580.21169956354
 21
1935.241876284836
 31
0.0
  0
ARC
  5
1EB50
330
747D
100
AcDbEntity
  8
部品1
 48
50.0
100
AcDbCircle
 10
12590.21169956354
 20
1935.241876284836
 30
0.0
 40
30.0
100
AcDbArc
 50
340.5287793654919
 51
0.0
  0
LINE
  5
1EB51
330
747D
100
AcDbEntity
  8
細線
 48
50.0
100
AcDbLine
 10
12580.21169956354
 20
1984.392624855475
 30
0.0
 11
12600.21169956355
 21
2004.392624855477
 31
0.0
  0
LINE
  5
1EB52
330
747D
100
AcDbEntity
  8
細線
 48
50.0
100
AcDbLine
 10
12487.38499053889
 20
1925.241876284836
 30
0.0
 11
12560.21169956354
 21
1998.068585309485
 31
0.0
  0
LINE
  5
1EB53
330
747D
100
AcDbEntity
  8
細線
 48
50.0
100
AcDbLine
 10
12453.70903008488
 20
1925.241876284836
 30
0.0
 11
12600.21169956354
 21
2071.744545763496
 31
0.0
  0
LINE
  5
1EB54
330
747D
100
AcDbEntity
  8
細線
 48
50.0
100
AcDbLine
 10
12521.0609509929
 20
1925.241876284836
 30
0.0
 11
12560.21169956354
 21
1964.392624855473
 31
0.0
  0
LINE
  5
1EB55
330
747D
100
AcDbEntity
  8
部品1
 48
50.0
100
AcDbLine
 10
12820.21169956354
 20
1905.241876284836
 30
0.0
 11
12820.21169956354
 21
1925.241876284836
 31
0.0
  0
CIRCLE
  5
1EB56
330
747D
100
AcDbEntity
  8
部品1
 48
50.0
100
AcDbCircle
 10
12750.21169956354
 20
1935.241876284836
 30
0.0
 40
10.0
  0
LINE
  5
1EB57
330
747D
100
AcDbEntity
  8
細線
 48
50.0
100
AcDbLine
 10
12852.52439734903
 20
1785.241876284836
 30
0.0
 11
12890.21169956354
 21
1822.929178499342
 31
0.0
  0
LINE
  5
1EB58
330
747D
100
AcDbEntity
  8
部品1
 48
50.0
100
AcDbLine
 10
12890.21169956354
 20
2085.241876284837
 30
0.0
 11
12890.21169956354
 21
1785.241876284836
 31
0.0
  0
LINE
  5
1EB59
330
747D
100
AcDbEntity
  8
部品1
 48
50.0
100
AcDbLine
 10
12990.21169956354
 20
1625.241876284836
 30
0.0
 11
12990.21169956354
 21
1785.241876284836
 31
0.0
  0
LINE
  5
1EB5A
330
747D
100
AcDbEntity
  8
細線
 48
50.0
100
AcDbLine
 10
12886.20035780304
 20
1785.241876284836
 30
0.0
 11
12890.21169956354
 21
1789.253218045334
 31
0.0
  0
LINE
  5
1EB5B
330
747D
100
AcDbEntity
  8
細線
 48
50.0
100
AcDbLine
 10
12921.94829834129
 20
1655.241876284836
 30
0.0
 11
12929.98677411422
 21
1625.241876284836
 31
0.0
  0
LINE
  5
1EB5C
330
747D
100
AcDbEntity
  8
細線
 48
50.0
100
AcDbLine
 10
12913.90982256835
 20
1625.241876284836
 30
0.0
 11
12956.78169335733
 21
1785.241876284836
 31
0.0
  0
LINE
  5
1EB5D
330
747D
100
AcDbEntity
  8
細線
 48
50.0
100
AcDbLine
 10
12948.7432175844
 20
1755.241876284836
 30
0.0
 11
12940.70474181147
 21
1785.241876284836
 31
0.0
  0
LINE
  5
1EB5E
330
747D
100
AcDbEntity
  8
部品1
 48
50.0
100
AcDbLine
 10
13547.18932378915
 20
1097.834111881661
 30
0.0
 11
13547.18932378915
 21
937.8341118816607
 31
0.0
  0
LWPOLYLINE
  5
1EB5F
330
747D
100
AcDbEntity
  8
部品1
 48
50.0
100
AcDbPolyline
 90
        4
 70
     0
 43
15.0
 10
12710.21169956354
 20
2389.07798342276
 10
13227.88657685473
 20
2389.07798342276
 42
0.1559987191059798
 10
13394.58909792327
 20
2442.037069244527
 42
-0.1900569176366468
 10
13593.51091316178
 20
2473.018252688471
  0
LINE
  5
1EB60
330
747D
100
AcDbEntity
  8
部品1
 48
50.0
100
AcDbLine
 10
12560.21169956354
 20
2617.900894656242
 30
0.0
 11
12560.21169956354
 21
2690.559913027645
 31
0.0
  0
LINE
  5
1EB61
330
747D
100
AcDbEntity
  8
細線
 48
50.0
100
AcDbLine
 10
12580.21169956354
 20
2656.883952573634
 30
0.0
 11
12600.21169956354
 21
2676.883952573634
 31
0.0
  0
LINE
  5
1EB62
330
747D
100
AcDbEntity
  8
部品1
 48
50.0
100
AcDbLine
 10
12580.21169956354
 20
2617.90089465624
 30
0.0
 11
12580.21169956354
 21
2690.559913027643
 31
0.0
  0
LINE
  5
1EB63
330
747D
100
AcDbEntity
  8
細線
 48
50.0
100
AcDbLine
 10
12620.21169956354
 20
2663.207992119625
 30
0.0
 11
12710.21169956354
 21
2753.207992119625
 31
0.0
  0
LINE
  5
1EB64
330
747D
100
AcDbEntity
  8
細線
 48
50.0
100
AcDbLine
 10
12470.21169956354
 20
2580.559913027644
 30
0.0
 11
12560.21169956354
 21
2670.559913027644
 31
0.0
  0
LINE
  5
1EB65
330
747D
100
AcDbEntity
  8
細線
 48
50.0
100
AcDbLine
 10
12842.24948546399
 20
2209.077983422758
 30
0.0
 11
12885.12135625297
 21
2369.077983422759
 31
0.0
  0
LINE
  5
1EB66
330
747D
100
AcDbEntity
  8
部品1
 48
50.0
100
AcDbLine
 10
12710.21169956354
 20
2639.07798342276
 30
0.0
 11
13227.88657685473
 21
2639.07798342276
 31
0.0
  0
LINE
  5
1EB67
330
747D
100
AcDbEntity
  8
部品1
 48
50.0
100
AcDbLine
 10
12710.21169956354
 20
2389.07798342276
 30
0.0
 11
13227.88657685473
 21
2389.07798342276
 31
0.0
  0
LINE
  5
1EB68
330
747D
100
AcDbEntity
  8
部品1
 48
50.0
100
AcDbLine
 10
12710.21169956354
 20
2409.07798342276
 30
0.0
 11
13227.88657685473
 21
2409.07798342276
 31
0.0
  0
LINE
  5
1EB69
330
747D
100
AcDbEntity
  8
部品1
 48
50.0
100
AcDbLine
 10
12710.21169956354
 20
2369.077983422759
 30
0.0
 11
13227.88657685473
 21
2369.077983422759
 31
0.0
  0
LINE
  5
1EB6A
330
747D
100
AcDbEntity
  8
部品1
 48
50.0
100
AcDbLine
 10
12711.29652990684
 20
2209.077983422758
 30
0.0
 11
13227.88657685473
 21
2209.077983422758
 31
0.0
  0
HATCH
  5
1EB6B
330
747D
100
AcDbEntity
  8
寸法
 62
     5
 48
50.0
100
AcDbHatch
 10
0.0
 20
0.0
 30
0.0
210
0.0
220
0.0
230
1.0
  2
PLAST
 70
     0
 71
     0
 91
        1
 92
        7
 72
     0
 73
     1
 93
        4
 10
13227.88657685473
 20
2639.077983422758
 10
12710.21169956354
 20
2639.07798342276
 10
12710.21169956354
 20
2409.07798342276
 10
13227.88657685473
 20
2409.07798342276
 97
        0
 75
     0
 76
     1
 52
315.0
 41
25.0
 77
     0
 78
     3
 53
315.0
 43
-277.1552641870767
 44
-2953.549114054571
 45
112.2532015133644
 46
112.2532015133644
 79
     0
 53
315.0
 43
-263.1236139979064
 44
-2939.517463865401
 45
112.2532015133644
 46
112.2532015133644
 79
     0
 53
315.0
 43
-249.0919638087353
 44
-2925.48581367623
 45
112.2532015133644
 46
112.2532015133644
 79
     0
 47
1.387886003246494
 98
        1
 10
12938.7622303895
 20
2575.763570460131
  0
LINE
  5
1EB6C
330
747D
100
AcDbEntity
  8
細線
 48
50.0
100
AcDbLine
 10
12620.21169956355
 20
2293.800308487552
 30
0.0
 11
12710.21169956354
 21
2383.800308487548
 31
0.0
  0
LINE
  5
1EB6D
330
747D
100
AcDbEntity
  8
細線
 48
50.0
100
AcDbLine
 10
12620.21169956354
 20
2361.152229395571
 30
0.0
 11
12710.21169956354
 21
2451.15222939557
 31
0.0
  0
LINE
  5
1EB6E
330
747D
100
AcDbEntity
  8
細線
 48
50.0
100
AcDbLine
 10
12620.21169956354
 20
2327.476268941559
 30
0.0
 11
12710.21169956354
 21
2417.476268941556
 31
0.0
  0
LINE
  5
1EB6F
330
747D
100
AcDbEntity
  8
細線
 48
50.0
100
AcDbLine
 10
12620.21169956355
 20
2091.744545763498
 30
0.0
 11
12710.21169956354
 21
2181.744545763492
 31
0.0
  0
LINE
  5
1EB70
330
747D
100
AcDbEntity
  8
細線
 48
50.0
100
AcDbLine
 10
12470.21169956354
 20
2211.152229395569
 30
0.0
 11
12600.21169956354
 21
2341.15222939557
 31
0.0
  0
LINE
  5
1EB71
330
747D
100
AcDbEntity
  8
細線
 48
50.0
100
AcDbLine
 10
12470.21169956354
 20
2177.476268941559
 30
0.0
 11
12600.21169956354
 21
2307.476268941558
 31
0.0
  0
LINE
  5
1EB72
330
747D
100
AcDbEntity
  8
細線
 48
50.0
100
AcDbLine
 10
12470.21169956354
 20
2143.80030848755
 30
0.0
 11
12600.21169956355
 21
2273.800308487552
 31
0.0
  0
LINE
  5
1EB73
330
747D
100
AcDbEntity
  8
細線
 48
50.0
100
AcDbLine
 10
12778.47282429597
 20
2339.077983422759
 30
0.0
 11
12770.43434852304
 21
2369.077983422759
 31
0.0
  0
LINE
  5
1EB74
330
747D
100
AcDbEntity
  8
細線
 48
50.0
100
AcDbLine
 10
12743.63942927992
 20
2209.077983422758
 30
0.0
 11
12786.51130006891
 21
2369.077983422759
 31
0.0
  0
LINE
  5
1EB75
330
747D
100
AcDbEntity
  8
細線
 48
50.0
100
AcDbLine
 10
12751.67790505286
 20
2239.07798342276
 30
0.0
 11
12759.7163808258
 21
2209.077983422758
 31
0.0
  0
LINE
  5
1EB76
330
747D
100
AcDbEntity
  8
部品1
 48
50.0
100
AcDbLine
 10
12580.21169956354
 20
2617.90089465624
 30
0.0
 11
12560.21169956354
 21
2617.900894656242
 31
0.0
  0
LINE
  5
1EB77
330
747D
100
AcDbEntity
  8
細線
 48
50.0
100
AcDbLine
 10
12580.21169956354
 20
2623.207992119624
 30
0.0
 11
12600.21169956354
 21
2643.207992119625
 31
0.0
  0
LINE
  5
1EB78
330
747D
100
AcDbEntity
  8
細線
 48
50.0
100
AcDbLine
 10
12470.21169956354
 20
2513.207992119625
 30
0.0
 11
12574.90460210016
 21
2617.90089465624
 31
0.0
  0
LINE
  5
1EB79
330
747D
100
AcDbEntity
  8
細線
 48
50.0
100
AcDbLine
 10
12470.21169956354
 20
2546.883952573634
 30
0.0
 11
12560.21169956354
 21
2636.883952573634
 31
0.0
  0
LINE
  5
1EB7A
330
747D
100
AcDbEntity
  8
細線
 48
50.0
100
AcDbLine
 10
13047.50807360504
 20
2239.07798342276
 30
0.0
 11
13055.54654937798
 21
2209.077983422758
 31
0.0
  0
LINE
  5
1EB7B
330
747D
100
AcDbEntity
  8
細線
 48
50.0
100
AcDbLine
 10
13039.46959783211
 20
2209.077983422758
 30
0.0
 11
13082.34146862109
 21
2369.077983422759
 31
0.0
  0
LINE
  5
1EB7C
330
747D
100
AcDbEntity
  8
細線
 48
50.0
100
AcDbLine
 10
12975.6929366641
 20
2339.077983422759
 30
0.0
 11
12967.65446089116
 21
2369.077983422759
 31
0.0
  0
LINE
  5
1EB7D
330
747D
100
AcDbEntity
  8
細線
 48
50.0
100
AcDbLine
 10
12877.08288048003
 20
2339.077983422759
 30
0.0
 11
12869.0444047071
 21
2369.077983422759
 31
0.0
  0
LINE
  5
1EB7E
330
747D
100
AcDbEntity
  8
細線
 48
50.0
100
AcDbLine
 10
12850.28796123692
 20
2239.07798342276
 30
0.0
 11
12858.32643700986
 21
2209.077983422758
 31
0.0
  0
LINE
  5
1EB7F
330
747D
100
AcDbEntity
  8
細線
 48
50.0
100
AcDbLine
 10
12948.89801742098
 20
2239.07798342276
 30
0.0
 11
12956.93649319392
 21
2209.077983422758
 31
0.0
  0
LINE
  5
1EB80
330
747D
100
AcDbEntity
  8
細線
 48
50.0
100
AcDbLine
 10
12940.85954164805
 20
2209.077983422758
 30
0.0
 11
12983.73141243703
 21
2369.077983422759
 31
0.0
  0
LINE
  5
1EB81
330
747D
100
AcDbEntity
  8
細線
 48
50.0
100
AcDbLine
 10
13074.30299284816
 20
2339.077983422759
 30
0.0
 11
13066.26451707522
 21
2369.077983422759
 31
0.0
  0
LINE
  5
1EB82
330
747D
100
AcDbEntity
  8
細線
 48
50.0
100
AcDbLine
 10
13146.1181297891
 20
2239.07798342276
 30
0.0
 11
13154.15660556204
 21
2209.077983422758
 31
0.0
  0
LINE
  5
1EB83
330
747D
100
AcDbEntity
  8
細線
 48
50.0
100
AcDbLine
 10
13138.07965401617
 20
2209.077983422758
 30
0.0
 11
13180.95152480515
 21
2369.077983422759
 31
0.0
  0
LINE
  5
1EB84
330
747D
100
AcDbEntity
  8
細線
 48
50.0
100
AcDbLine
 10
13172.91304903222
 20
2339.077983422759
 30
0.0
 11
13164.87457325929
 21
2369.077983422759
 31
0.0
  0
LINE
  5
1EB85
330
747D
100
AcDbEntity
  8
細線
 48
50.0
100
AcDbLine
 10
12605.82722769163
 20
2716.175441155732
 30
0.0
 11
12710.21169956354
 21
2820.559913027643
 31
0.0
  0
LINE
  5
1EB86
330
747D
100
AcDbEntity
  8
細線
100
AcDbLine
 10
12640.51854075475
 20
2833.23156999513
 30
0.0
 11
12670.02260943298
 21
2831.593825297741
 31
0.0
  0
LINE
  5
1EB87
330
747D
100
AcDbEntity
  8
細線
 48
50.0
100
AcDbLine
 10
12619.65258364602
 20
2696.324836656112
 30
0.0
 11
12710.21169956354
 21
2786.883952573634
 31
0.0
  0
LINE
  5
1EB88
330
747D
100
AcDbEntity
  8
部品1
 48
50.0
100
AcDbLine
 10
12470.21169956354
 20
2865.241876284837
 30
0.0
 11
12710.21169956354
 21
2865.241876284837
 31
0.0
  0
LINE
  5
1EB89
330
747D
100
AcDbEntity
  8
細線
100
AcDbLine
 10
12584.78855211631
 20
2831.593825297741
 30
0.0
 11
12640.51854075475
 21
2833.23156999513
 31
0.0
  0
CIRCLE
  5
1EB8A
330
747D
100
AcDbEntity
  8
部品1
 48
50.0
100
AcDbCircle
 10
12590.21169956354
 20
2690.559913027643
 30
0.0
 40
10.0
  0
ARC
  5
1EB8B
330
747D
100
AcDbEntity
  8
部品1
 48
50.0
100
AcDbCircle
 10
12590.21169956354
 20
2690.559913027643
 30
0.0
 40
30.0
100
AcDbArc
 50
0.0
 51
180.0
  0
LINE
  5
1EB8C
330
747D
100
AcDbEntity
  8
細線
 48
50.0
100
AcDbLine
 10
12470.21169956354
 20
2782.6156757517
 30
0.0
 11
12512.63904061097
 21
2825.043016799125
 31
0.0
  0
LINE
  5
1EB8D
330
747D
100
AcDbEntity
  8
細線
100
AcDbLine
 10
12470.21169956354
 20
2834.869257928876
 30
0.0
 11
12507.75002306957
 21
2825.043016799125
 31
0.0
  0
LINE
  5
1EB8E
330
747D
100
AcDbEntity
  8
細線
 48
50.0
100
AcDbLine
 10
12470.21169956354
 20
2816.29163620571
 30
0.0
 11
12484.93521237485
 21
2831.015149017014
 31
0.0
  0
LINE
  5
1EB8F
330
747D
100
AcDbEntity
  8
細線
100
AcDbLine
 10
12507.75002306957
 20
2825.043016799125
 30
0.0
 11
12543.810597817
 21
2825.043016799125
 31
0.0
  0
LINE
  5
1EB90
330
747D
100
AcDbEntity
  8
細線
100
AcDbLine
 10
12543.810597817
 20
2825.043016799125
 30
0.0
 11
12584.78855211631
 21
2831.593825297741
 31
0.0
  0
LINE
  5
1EB91
330
747D
100
AcDbEntity
  8
細線
100
AcDbLine
 10
12670.02260943298
 20
2831.593825297741
 30
0.0
 11
12710.21169956354
 21
2823.405272101737
 31
0.0
  0
LINE
  5
1EB92
330
747D
100
AcDbEntity
  8
細線
 48
50.0
100
AcDbLine
 10
10814.59219476102
 20
3703.927840022177
 30
0.0
 11
14371.23574413355
 21
3703.927840022178
 31
0.0
  0
LINE
  5
1EB93
330
747D
100
AcDbEntity
  8
細線
 48
50.0
100
AcDbLine
 10
10814.59219476102
 20
3663.927840022178
 30
0.0
 11
10814.59219476102
 21
3663.927840022178
 31
0.0
  0
LINE
  5
1EB94
330
747D
100
AcDbEntity
  8
細線
 48
50.0
100
AcDbLine
 10
10814.59219476102
 20
3743.927840022177
 30
0.0
 11
10814.59219476102
 21
3663.927840022178
 31
0.0
  0
TEXT
  5
1ECA4
330
747D
100
AcDbEntity
  8
文字
 62
     7
 48
50.0
100
AcDbText
 10
17278.23669998441
 20
477.2740661031251
 30
0.0
 40
160.0
  1
機種名
  7
STYLE2
100
AcDbText
  0
TEXT
  5
1ECA5
330
747D
100
AcDbEntity
  8
文字
 62
     7
 48
50.0
100
AcDbText
 10
17286.20534824901
 20
79.80631269190358
 30
0.0
 40
80.0
  1
※布基礎には換気口を設けてください。
  7
STYLE2
100
AcDbText
  0
TEXT
  5
1ECA6
330
747D
100
AcDbEntity
  8
文字
 62
     7
 48
50.0
100
AcDbText
 10
17286.20534824901
 20
216.4744947408502
 30
0.0
 40
80.0
  1
※寒冷地等は、地域の実情に合わせた基礎にしてください。
  7
STYLE2
100
AcDbText
  0
LINE
  5
1ECA7
330
747D
100
AcDbEntity
  8
仕様書枠
 48
50.0
100
AcDbLine
 10
17184.0
 20
799.9999999999999
 30
0.0
 11
18328.0
 21
799.9999999999999
 31
0.0
  0
TEXT
  5
1ECA8
330
747D
100
AcDbEntity
  8
仕様書枠
 62
     7
 48
50.0
100
AcDbText
 10
17239.77905657689
 20
895.0906074299401
 30
0.0
 40
200.0
  1
基 礎 図
  7
STYLE2
100
AcDbText
  0
LINE
  5
1ECA9
330
747D
100
AcDbEntity
  8
仕様書枠
 62
     7
 48
50.0
100
AcDbLine
 10
17264.0
 20
399.9999999999998
 30
0.0
 11
20304.0
 21
399.9999999999998
 31
0.0
  0
LINE
  5
1ECAA
330
747D
100
AcDbEntity
  8
仕様書枠
 48
50.0
100
AcDbLine
 10
17184.0
 20
1200.0
 30
0.0
 11
20384.0
 21
1200.0
 31
0.0
  0
LINE
  5
1ECAB
330
747D
100
AcDbEntity
  8
仕様書枠
  6
Continuous
 48
50.0
100
AcDbLine
 10
17184.0
 20
1200.0
 30
0.0
 11
17184.0
 21
-0.0000000000001137
 31
0.0
  0
TEXT
  5
1ECAC
330
747D
100
AcDbEntity
  8
仕様書枠
 62
     7
 48
50.0
100
AcDbText
 10
18455.46049815618
 20
483.8967129911408
 30
0.0
 40
160.0
  1
SMK-３６SGMN
  7
STYLE2
100
AcDbText
  0
LINE
  5
1ECAD
330
747D
100
AcDbEntity
  8
仕様書枠
  6
Continuous
 48
50.0
100
AcDbLine
 10
18328.0
 20
1200.0
 30
0.0
 11
18328.0
 21
799.9999999999999
 31
0.0
  0
TEXT
  5
1ECAE
330
747D
100
AcDbEntity
  8
文字
 62
     7
 48
50.0
100
AcDbText
 10
19242.7381962197
 20
1031.557706291228
 30
0.0
 40
100.0
  1
<縮尺> S=1/50
  7
STYLE2
100
AcDbText
  0
LINE
  5
1ECAF
330
747D
100
AcDbEntity
  8
仕様書枠
 48
50.0
100
AcDbLine
 10
20384.0
 20
1200.0
 30
0.0
 11
20384.0
 21
-0.0000000000001137
 31
0.0
  0
LINE
  5
1F89B
102
{ACAD_REACTORS
330
1F8BB
102
}
330
747D
100
AcDbEntity
  8
部品1
 48
4.0
100
AcDbLine
 10
9334.5
 20
7149.065974324535
 30
0.0
 11
11224.5
 21
7149.065974324535
 31
0.0
  0
LINE
  5
1F89C
102
{ACAD_REACTORS
330
1F8BB
102
}
330
747D
100
AcDbEntity
  8
部品1
 48
50.0
100
AcDbLine
 10
9454.500000000001
 20
7269.065974324535
 30
0.0
 11
11104.5
 21
7269.065974324532
 31
0.0
  0
LINE
  5
1F89D
330
747D
100
AcDbEntity
  8
部品1
 48
50.0
100
AcDbLine
 10
11104.5
 20
8919.065974324535
 30
0.0
 11
9454.500000000001
 21
8919.065974324535
 31
0.0
  0
DIMENSION
  5
1F89E
330
747D
100
AcDbEntity
  8
寸法
 48
50.0
100
AcDbDimension
  2
*D8
 10
11224.5
 20
9671.329124054713
 30
0.0
 11
10752.0
 21
9771.329124054712
 31
0.0
 70
    32
 71
     5
 42
945.0
  3
INABA_S50G
100
AcDbAlignedDimension
 13
10279.5
 23
8239.065974324534
 33
0.0
 14
11224.5
 24
9039.065974324534
 34
0.0
100
AcDbRotatedDimension
  0
LINE
  5
1F89F
330
747D
100
AcDbEntity
  8
部品1
 48
50.0
100
AcDbLine
 10
11224.5
 20
9039.065974324534
 30
0.0
 11
9334.5
 21
9039.065974324534
 31
0.0
  0
LINE
  5
1F8A0
330
747D
100
AcDbEntity
  8
想像線
 48
20.0
100
AcDbLine
 10
11274.5
 20
9129.065974324532
 30
0.0
 11
9284.499999999999
 21
9129.065974324534
 31
0.0
  0
LINE
  5
1F8A1
330
747D
100
AcDbEntity
  8
想像線
 48
20.0
100
AcDbLine
 10
9284.499999999999
 20
7019.065974324535
 30
0.0
 11
11274.5
 21
7019.065974324535
 31
0.0
  0
DIMENSION
  5
1F8A2
330
747D
100
AcDbEntity
  8
寸法
 48
50.0
100
AcDbDimension
  2
*D9
 10
11224.5
 20
6218.065974324535
 30
0.0
 11
10279.5
 21
6318.065974324533
 31
0.0
 70
    32
 71
     5
 42
1890.0
  3
INABA_S50G
100
AcDbAlignedDimension
 13
9334.5
 23
7149.065974324533
 33
0.0
 14
11224.5
 24
7149.065974324535
 34
0.0
100
AcDbRotatedDimension
  0
DIMENSION
  5
1F8A3
330
747D
100
AcDbEntity
  8
寸法
 48
50.0
100
AcDbDimension
  2
*D10
 10
11159.5
 20
6529.598918079606
 30
0.0
 11
10279.5
 21
6629.598918079604
 31
0.0
 70
    32
 71
     5
 42
1760.0
  3
INABA_S50G
100
AcDbAlignedDimension
 13
9399.500000000001
 23
7069.065974324534
 33
0.0
 14
11159.5
 24
7069.065974324534
 34
0.0
100
AcDbRotatedDimension
1001
ACAD
1000
DSTYLE
1002
{
1070
    75
1070
     1
1070
   279
1070
     1
1002
}
  0
DIMENSION
  5
1F8A4
330
747D
100
AcDbEntity
  8
寸法
 48
50.0
100
AcDbDimension
  2
*D11
 10
11517.56460225516
 20
8746.00137206937
 30
0.0
 11
10572.56460225516
 21
7801.001372069368
 31
0.0
 70
   161
 71
     5
 42
2672.86363288515
  3
INABA_S50G
100
AcDbAlignedDimension
 13
9334.5
 23
7149.065974324535
 33
0.0
 14
11224.5
 24
9039.065974324534
 34
0.0
  0
MTEXT
  5
1F8A5
102
{ACAD_REACTORS
330
1F8A6
102
}
330
747D
100
AcDbEntity
  8
部品1
 62
     7
 48
50.0
100
AcDbMText
 10
10519.67390744861
 20
9441.242164177173
 30
0.0
 40
150.0
 41
0.0
 71
     4
 72
     1
  1
\A1;床下換気口
  7
STYLE1
 73
     1
 44
1.0
1001
ACAD
1000
MTEXTBEGIN
1070
    73
1070
     1
1070
    44
1040
1.0
1070
    74
1070
     0
1000
MTEXTEND
  0
LEADER
  5
1F8A6
330
747D
100
AcDbEntity
  8
寸法
 48
50.0
100
AcDbLeader
  3
INABA_S50G
 73
     0
 74
     0
 75
     1
 40
150.0
 41
850.0
 76
     3
 10
10279.5
 20
9039.065974324534
 30
0.0
 10
10369.67390744861
 20
9341.242164177172
 30
0.0
 10
10494.67390744861
 20
9341.242164177172
 30
0.0
340
1F8A5
1001
ACAD
1000
DSTYLE
1002
{
1070
   341
1005
0
1070
    40
1040
1.0
1070
   343
1005
0
1070
   344
1005
0
1002
}
  0
DIMENSION
  5
1F8A7
330
747D
100
AcDbEntity
  8
寸法
 48
50.0
100
AcDbDimension
  2
*D12
 10
9399.500000000001
 20
6529.598918079606
 30
0.0
 11
9094.405209305824
 21
6529.598918079606
 31
0.0
 70
   160
 71
     5
 42
65.0
  3
INABA_S50G
100
AcDbAlignedDimension
 13
9334.5
 23
7149.065974324533
 33
0.0
 14
9399.500000000001
 24
7069.065974324534
 34
0.0
100
AcDbRotatedDimension
  0
DIMENSION
  5
1F8A8
330
747D
100
AcDbEntity
  8
寸法
 48
50.0
100
AcDbDimension
  2
*D13
 10
9334.5
 20
6218.065974324535
 30
0.0
 11
8991.059055118109
 21
6218.065974324535
 31
0.0
 70
   160
  1
(<>)
 71
     5
 42
50.0
  3
INABA_S50G
100
AcDbAlignedDimension
 13
9284.499999999999
 23
6529.598918079606
 33
0.0
 14
9334.5
 24
7149.065974324535
 34
0.0
100
AcDbRotatedDimension
  0
DIMENSION
  5
1F8A9
330
747D
100
AcDbEntity
  8
寸法
 48
50.0
100
AcDbDimension
  2
*D14
 10
10279.5
 20
9671.329124054713
 30
0.0
 11
9807.0
 21
9771.329124054712
 31
0.0
 70
    32
 71
     5
 42
945.0
  3
INABA_S50G
100
AcDbAlignedDimension
 13
9334.5
 23
9039.065974324534
 33
0.0
 14
10279.5
 24
8239.065974324534
 34
0.0
100
AcDbRotatedDimension
  0
LEADER
  5
1F8AA
330
747D
100
AcDbEntity
  8
寸法
 48
50.0
100
AcDbLeader
  3
INABA_S50G
 71
     0
 73
     0
 75
     1
 40
150.0
 41
1400.0
 76
     3
 10
9399.500000000001
 20
8974.065974324535
 30
0.0
 10
9218.376864764357
 20
9291.063577330877
 30
0.0
 10
9093.376864764357
 20
9291.063577330877
 30
0.0
340
1F8AB
  0
MTEXT
  5
1F8AB
102
{ACAD_REACTORS
330
1F8AA
102
}
330
747D
100
AcDbEntity
  8
細線
 62
     7
 48
50.0
100
AcDbMText
 10
9068.376864764356
 20
9391.063577330877
 30
0.0
 40
150.0
 41
0.0
 71
     6
 72
     1
  1
\A1;アンカーボルト芯
  7
STYLE1
 73
     1
 44
1.0
1001
ACAD
1000
MTEXTBEGIN
1070
    73
1070
     1
1070
    44
1040
1.0
1070
    74
1070
     0
1000
MTEXTEND
  0
LEADER
  5
1F8AC
330
747D
100
AcDbEntity
  8
寸法
 48
50.0
100
AcDbLeader
  3
INABA_S50G
 73
     0
 75
     1
 40
150.0
 41
860.0
 76
     3
 10
9699.320522190479
 20
9129.065974324534
 30
0.0
 10
8990.095398436416
 20
9703.866724641407
 30
0.0
 10
8865.095398436416
 20
9703.866724641407
 30
0.0
340
1F8AD
213
-102.8979556385311
223
-35.3351163571715
233
0.0
1001
ACAD
1000
DSTYLE
1002
{
1070
   341
1005
0
1070
    40
1040
1.0
1070
   343
1005
0
1070
   344
1005
0
1002
}
  0
MTEXT
  5
1F8AD
102
{ACAD_REACTORS
330
1F8AC
102
}
330
747D
100
AcDbEntity
  8
部品1
 62
     7
 48
50.0
100
AcDbMText
 10
8942.993354074948
 20
9839.201840998576
 30
0.0
 40
150.0
 41
0.0
 71
     6
 72
     1
  1
\A1;屋根の外寸
  7
STYLE1
 73
     1
 44
1.0
1001
ACAD
1000
MTEXTBEGIN
1070
    73
1070
     1
1070
    44
1040
1.0
1070
    74
1070
     0
1000
MTEXTEND
  0
DIMENSION
  5
1F8AE
330
747D
100
AcDbEntity
  8
寸法
 48
50.0
100
AcDbDimension
  2
*D15
 10
8583.5
 20
8094.065974324534
 30
0.0
 11
8483.499999999997
 21
8566.565974324536
 31
0.0
 70
    32
 71
     5
 42
945.0
  3
INABA_S50G
100
AcDbAlignedDimension
 13
9334.5
 23
9039.065974324534
 33
0.0
 14
10134.5
 24
8094.065974324534
 34
0.0
 50
90.0
100
AcDbRotatedDimension
  0
DIMENSION
  5
1F8AF
330
747D
100
AcDbEntity
  8
寸法
 48
50.0
100
AcDbDimension
  2
*D16
 10
8583.5
 20
7149.065974324535
 30
0.0
 11
8483.499999999997
 21
7621.565974324536
 31
0.0
 70
    32
 71
     5
 42
945.0
  3
INABA_S50G
100
AcDbAlignedDimension
 13
10134.5
 23
8094.065974324534
 33
0.0
 14
9334.5
 24
7149.065974324535
 34
0.0
 50
90.0
100
AcDbRotatedDimension
1001
ACAD
1000
DSTYLE
1002
{
1070
    75
1070
     1
1070
   279
1070
     1
1002
}
  0
HATCH
  5
1F8B0
330
747D
100
AcDbEntity
  8
細線
 48
50.0
100
AcDbHatch
 10
0.0
 20
0.0
 30
0.0
210
0.0
220
0.0
230
1.0
  2
ANSI31
 70
     0
 71
     0
 91
        1
 92
        7
 72
     0
 73
     1
 93
        4
 10
9454.500000000001
 20
8194.065974324537
 10
9454.500000000001
 20
7994.065974324533
 10
9334.5
 20
7994.065974324533
 10
9334.5
 20
8194.065974324535
 97
        0
 75
     0
 76
     1
 52
90.0
 41
10.0
 77
     0
 78
     1
 53
45.0
 43
-2876.385320184192
 44
-3070.694515565483
 45
22.45064030267288
 46
-22.45064030267288
 79
     0
 47
8.911149211678541
 98
        1
 10
9382.180398011639
 20
8041.797081306794
  0
LINE
  5
1F8B1
330
747D
100
AcDbEntity
  8
部品1
 48
50.0
100
AcDbLine
 10
9454.500000000001
 20
8919.065974324535
 30
0.0
 11
9454.500000000001
 21
7269.065974324535
 31
0.0
  0
LINE
  5
1F8B2
330
747D
100
AcDbEntity
  8
部品1
 48
50.0
100
AcDbLine
 10
10179.5
 20
7994.065974324533
 30
0.0
 11
10179.5
 21
8194.065974324535
 31
0.0
  0
LINE
  5
1F8B3
330
747D
100
AcDbEntity
  8
センター
 48
5.0
100
AcDbLine
 10
10279.5
 20
8239.065974324534
 30
0.0
 11
10279.5
 21
7949.065974324533
 31
0.0
  0
LINE
  5
1F8B4
330
747D
100
AcDbEntity
  8
部品1
 48
50.0
100
AcDbLine
 10
10379.5
 20
8194.065974324535
 30
0.0
 11
10379.5
 21
7994.065974324533
 31
0.0
  0
LINE
  5
1F8B5
330
747D
100
AcDbEntity
  8
想像線
 48
20.0
100
AcDbLine
 10
9284.499999999999
 20
9129.065974324534
 30
0.0
 11
9284.499999999999
 21
7019.065974324535
 31
0.0
  0
LINE
  5
1F8B6
330
747D
100
AcDbEntity
  8
部品1
 48
50.0
100
AcDbLine
 10
9334.5
 20
9039.065974324534
 30
0.0
 11
9334.5
 21
7149.065974324535
 31
0.0
  0
DIMENSION
  5
1F8B7
330
747D
100
AcDbEntity
  8
寸法
 48
50.0
100
AcDbDimension
  2
*D17
 10
9767.371276319012
 20
7149.065974324533
 30
0.0
 11
9767.371276319012
 21
7607.172576042332
 31
0.0
 70
   160
 71
     5
 42
120.0000000000009
  3
INABA_S50G
100
AcDbAlignedDimension
 13
9767.371276319012
 23
7269.065974324535
 33
0.0
 14
9767.371276319012
 24
7149.065974324533
 34
0.0
 50
90.0
100
AcDbRotatedDimension
1001
ACAD
1000
DSTYLE
1002
{
1070
   341
1005
0
1002
}
  0
LINE
  5
1F8B8
330
747D
100
AcDbEntity
  8
センター
 48
5.0
100
AcDbLine
 10
9544.500000000001
 20
7214.065974324532
 30
0.0
 11
9254.5
 21
7214.065974324532
 31
0.0
  0
LINE
  5
1F8B9
330
747D
100
AcDbEntity
  8
センター
 48
5.0
100
AcDbLine
 10
9399.500000000001
 20
7069.065974324534
 30
0.0
 11
9399.500000000001
 21
7359.065974324534
 31
0.0
  0
LINE
  5
1F8BA
330
747D
100
AcDbEntity
  8
部品1
 48
50.0
100
AcDbLine
 10
9454.500000000001
 20
7994.065974324533
 30
0.0
 11
9334.5
 21
7994.065974324533
 31
0.0
  0
HATCH
  5
1F8BB
330
747D
100
AcDbEntity
  8
細線
 48
50.0
100
AcDbHatch
 10
0.0
 20
0.0
 30
0.0
210
0.0
220
0.0
230
1.0
  2
LINE
 70
     0
 71
     1
 91
        1
 92
        7
 72
     0
 73
     1
 93
        4
 10
10379.5
 20
7269.065974324533
 10
10179.5
 20
7269.065974324535
 10
10179.5
 20
7149.065974324535
 10
10379.5
 20
7149.065974324535
 97
        4
330
1F89C
330
1F8BC
330
1F89B
330
1F8BD
 75
     0
 76
     1
 52
45.0
 41
10.0
 77
     0
 78
     1
 53
45.0
 43
0.0
 44
-528.4348786350492
 45
-22.45064030267288
 46
22.45064030267288
 79
     0
 47
0.6648821901683261
 98
        1
 10
10328.75014842496
 20
7201.232155885482
  0
LINE
  5
1F8BC
102
{ACAD_REACTORS
330
1F8BB
102
}
330
747D
100
AcDbEntity
  8
部品1
 48
50.0
100
AcDbLine
 10
10179.5
 20
7149.065974324535
 30
0.0
 11
10179.5
 21
7269.065974324535
 31
0.0
  0
LINE
  5
1F8BD
102
{ACAD_REACTORS
330
1F8BB
102
}
330
747D
100
AcDbEntity
  8
部品1
 48
50.0
100
AcDbLine
 10
10379.5
 20
7149.065974324535
 30
0.0
 11
10379.5
 21
7269.065974324535
 31
0.0
  0
LINE
  5
1F8BE
330
747D
100
AcDbEntity
  8
部品1
 48
50.0
100
AcDbLine
 10
10379.5
 20
7994.065974324533
 30
0.0
 11
10179.5
 21
7994.065974324533
 31
0.0
  0
LINE
  5
1F8BF
330
747D
100
AcDbEntity
  8
部品1
 48
50.0
100
AcDbLine
 10
9454.500000000001
 20
8194.065974324535
 30
0.0
 11
9334.5
 21
8194.065974324535
 31
0.0
  0
LINE
  5
1F8C0
330
747D
100
AcDbEntity
  8
センター
 48
5.0
100
AcDbLine
 10
9544.500000000001
 20
8974.065974324535
 30
0.0
 11
9254.5
 21
8974.065974324535
 31
0.0
  0
LINE
  5
1F8C1
330
747D
100
AcDbEntity
  8
センター
 48
5.0
100
AcDbLine
 10
9399.500000000001
 20
9119.065974324534
 30
0.0
 11
9399.500000000001
 21
8829.065974324533
 31
0.0
  0
LEADER
  5
1F8C2
330
747D
100
AcDbEntity
  8
寸法
 48
50.0
100
AcDbLeader
  3
INABA_S50G
 71
     0
 73
     0
 75
     1
 40
150.0
 41
231.9898538650463
 76
     3
 10
10239.97954949903
 20
8168.44036072136
 30
0.0
 10
10192.81719445055
 20
8289.339807370867
 30
0.0
 10
10067.81719445055
 20
8289.339807370867
 30
0.0
340
1F8C3
  0
MTEXT
  5
1F8C3
102
{ACAD_REACTORS
330
1F8C2
102
}
330
747D
100
AcDbEntity
  8
細線
 62
     7
 48
50.0
100
AcDbMText
 10
10042.81719445054
 20
8389.339807370864
 30
0.0
 40
150.0
 41
0.0
 71
     6
 72
     1
  1
\A1;C.B
  7
STYLE1
 73
     1
 44
1.0
1001
ACAD
1000
MTEXTBEGIN
1070
    73
1070
     1
1070
    44
1040
1.0
1070
    74
1070
     0
1000
MTEXTEND
  0
LINE
  5
1F8C4
330
747D
100
AcDbEntity
  8
部品1
 48
50.0
100
AcDbLine
 10
10179.5
 20
8194.065974324535
 30
0.0
 11
10379.5
 21
8194.065974324535
 31
0.0
  0
LINE
  5
1F8C5
330
747D
100
AcDbEntity
  8
センター
 48
5.0
100
AcDbLine
 10
10424.5
 20
8094.065974324534
 30
0.0
 11
10134.5
 21
8094.065974324534
 31
0.0
  0
HATCH
  5
1F8C6
330
747D
100
AcDbEntity
  8
細線
 48
50.0
100
AcDbHatch
 10
0.0
 20
0.0
 30
0.0
210
0.0
220
0.0
230
1.0
  2
ANSI31
 70
     0
 71
     0
 91
        1
 92
        7
 72
     0
 73
     1
 93
        4
 10
10379.5
 20
9039.065974324534
 10
10179.5
 20
9039.065974324532
 10
10179.5
 20
8919.065974324535
 10
10379.5
 20
8919.06597432453
 97
        0
 75
     0
 76
     1
 52
0.0
 41
10.0
 77
     0
 78
     1
 53
45.0
 43
-885.2604898900171
 44
-3291.819345859654
 45
-22.45064030267288
 46
22.45064030267288
 79
     0
 47
8.911149211678541
 98
        1
 10
10227.23110698226
 20
8966.746372336173
  0
LINE
  5
1F8C7
330
747D
100
AcDbEntity
  8
部品1
 48
50.0
100
AcDbLine
 10
10179.5
 20
8919.065974324535
 30
0.0
 11
10179.5
 21
9039.065974324534
 31
0.0
  0
LINE
  5
1F8C8
330
747D
100
AcDbEntity
  8
部品1
 48
50.0
100
AcDbLine
 10
10379.5
 20
8919.065974324535
 30
0.0
 11
10379.5
 21
9039.065974324534
 31
0.0
  0
DIMENSION
  5
1F8C9
330
747D
100
AcDbEntity
  8
寸法
 48
50.0
100
AcDbDimension
  2
*D18
 10
11224.5
 20
6529.598918079606
 30
0.0
 11
11464.59479069418
 21
6529.598918079606
 31
0.0
 70
   160
 71
     5
 42
65.0
  3
INABA_S50G
100
AcDbAlignedDimension
 13
11159.5
 23
7069.065974324534
 33
0.0
 14
11224.5
 24
7149.065974324535
 34
0.0
100
AcDbRotatedDimension
1001
ACAD
1000
DSTYLE
1002
{
1002
}
  0
DIMENSION
  5
1F8CA
330
747D
100
AcDbEntity
  8
寸法
 48
50.0
100
AcDbDimension
  2
*D19
 10
11274.5
 20
6218.065974324535
 30
0.0
 11
11566.94094488189
 21
6218.065974324535
 31
0.0
 70
   160
  1
(<>)
 71
     5
 42
50.0
  3
INABA_S50G
100
AcDbAlignedDimension
 13
11224.5
 23
7149.065974324535
 33
0.0
 14
11274.5
 24
6529.598918079606
 34
0.0
100
AcDbRotatedDimension
  0
DIMENSION
  5
1F8CB
330
747D
100
AcDbEntity
  8
寸法
 48
50.0
100
AcDbDimension
  2
*D20
 10
11754.56822416407
 20
7149.065974324535
 30
0.0
 11
11754.56822416407
 21
6908.971183630358
 31
0.0
 70
   160
 71
     5
 42
65.0
  3
INABA_S50G
100
AcDbAlignedDimension
 13
11304.5
 23
7214.065974324532
 33
0.0
 14
11224.5
 24
7149.065974324535
 34
0.0
 50
90.0
100
AcDbRotatedDimension
1001
ACAD
1000
DSTYLE
1002
{
1002
}
  0
DIMENSION
  5
1F8CC
330
747D
100
AcDbEntity
  8
寸法
 48
50.0
100
AcDbDimension
  2
*D21
 10
12075.5
 20
7019.065974324535
 30
0.0
 11
12075.5
 21
6688.125029442645
 31
0.0
 70
   160
  1
(<>)
 71
     5
 42
130.0
  3
INABA_S50G
100
AcDbAlignedDimension
 13
11224.5
 23
7149.065974324535
 33
0.0
 14
11754.56822416407
 24
7019.065974324535
 34
0.0
 50
90.0
100
AcDbRotatedDimension
  0
DIMENSION
  5
1F8CD
330
747D
100
AcDbEntity
  8
寸法
 48
50.0
100
AcDbDimension
  2
*D22
 10
11754.56822416407
 20
8974.065974324535
 30
0.0
 11
11754.56822416407
 21
9279.160765018714
 31
0.0
 70
   160
 71
     5
 42
65.0
  3
INABA_S50G
100
AcDbAlignedDimension
 13
11224.5
 23
9039.065974324534
 33
0.0
 14
11304.5
 24
8974.065974324535
 34
0.0
 50
90.0
100
AcDbRotatedDimension
  0
DIMENSION
  5
1F8CE
330
747D
100
AcDbEntity
  8
寸法
 48
50.0
100
AcDbDimension
  2
*D23
 10
12075.5
 20
9129.065974324532
 30
0.0
 11
12075.5
 21
9422.768993993491
 31
0.0
 70
   160
  1
(<>)
 71
     5
 42
89.99999999999818
  3
INABA_S50G
100
AcDbAlignedDimension
 13
11224.5
 23
9039.065974324534
 33
0.0
 14
11754.56822416407
 24
9129.065974324532
 34
0.0
 50
90.0
100
AcDbRotatedDimension
  0
DIMENSION
  5
1F8CF
330
747D
100
AcDbEntity
  8
寸法
 48
50.0
100
AcDbDimension
  2
*D24
 10
12075.5
 20
9039.065974324534
 30
0.0
 11
11975.5
 21
8094.065974324534
 31
0.0
 70
    32
 71
     5
 42
1889.999999999999
  3
INABA_S50G
100
AcDbAlignedDimension
 13
11224.5
 23
7149.065974324535
 33
0.0
 14
11224.5
 24
9039.065974324534
 34
0.0
 50
90.0
100
AcDbRotatedDimension
  0
HATCH
  5
1F8D0
330
747D
100
AcDbEntity
  8
細線
 48
50.0
100
AcDbHatch
 10
0.0
 20
0.0
 30
0.0
210
0.0
220
0.0
230
1.0
  2
ANSI31
 70
     0
 71
     0
 91
        1
 92
        7
 72
     0
 73
     1
 93
        4
 10
11224.5
 20
8194.065974324537
 10
11224.5
 20
7994.065974324533
 10
11104.5
 20
7994.065974324533
 10
11104.5
 20
8194.065974324535
 97
        0
 75
     0
 76
     1
 52
90.0
 41
10.0
 77
     0
 78
     1
 53
45.0
 43
-1106.385320184194
 44
-3070.694515565483
 45
22.45064030267288
 46
-22.45064030267288
 79
     0
 47
8.911149211678541
 98
        1
 10
11152.18039801163
 20
8041.797081306794
  0
LINE
  5
1F8D1
330
747D
100
AcDbEntity
  8
部品1
 48
50.0
100
AcDbLine
 10
11104.5
 20
7269.065974324532
 30
0.0
 11
11104.5
 21
8919.065974324535
 31
0.0
  0
DIMENSION
  5
1F8D2
330
747D
100
AcDbEntity
  8
寸法
 48
50.0
100
AcDbDimension
  2
*D25
 10
11754.56822416407
 20
7214.065974324532
 30
0.0
 11
11654.56822416406
 21
8094.065974324534
 31
0.0
 70
    32
 71
     5
 42
1759.999999999999
  3
INABA_S50G
100
AcDbAlignedDimension
 13
11304.5
 23
8974.065974324535
 33
0.0
 14
11304.5
 24
7214.065974324532
 34
0.0
 50
90.0
100
AcDbRotatedDimension
1001
ACAD
1000
DSTYLE
1002
{
1070
    75
1070
     1
1070
   279
1070
     1
1002
}
  0
LINE
  5
1F8D3
330
747D
100
AcDbEntity
  8
想像線
 48
20.0
100
AcDbLine
 10
11274.5
 20
7019.065974324535
 30
0.0
 11
11274.5
 21
9129.065974324532
 31
0.0
  0
LINE
  5
1F8D4
330
747D
100
AcDbEntity
  8
部品1
 48
50.0
100
AcDbLine
 10
11224.5
 20
7149.065974324535
 30
0.0
 11
11224.5
 21
9039.065974324534
 31
0.0
  0
DIMENSION
  5
1F8D5
330
747D
100
AcDbEntity
  8
寸法
 48
50.0
100
AcDbDimension
  2
*D26
 10
11224.5
 20
7550.024178811887
 30
0.0
 11
11526.86343838692
 21
7550.024178811887
 31
0.0
 70
   160
 71
     5
 42
120.0
  3
INABA_S50G
100
AcDbAlignedDimension
 13
11104.5
 23
7576.023928358586
 33
0.0
 14
11224.5
 24
7576.023928358586
 34
0.0
100
AcDbRotatedDimension
  0
LINE
  5
1F8D6
330
747D
100
AcDbEntity
  8
センター
 48
5.0
100
AcDbLine
 10
11159.5
 20
7069.065974324534
 30
0.0
 11
11159.5
 21
7359.065974324534
 31
0.0
  0
LINE
  5
1F8D7
330
747D
100
AcDbEntity
  8
センター
 48
5.0
100
AcDbLine
 10
11014.5
 20
7214.065974324532
 30
0.0
 11
11304.5
 21
7214.065974324532
 31
0.0
  0
LINE
  5
1F8D8
330
747D
100
AcDbEntity
  8
部品1
 48
50.0
100
AcDbLine
 10
11224.5
 20
7994.065974324533
 30
0.0
 11
11104.5
 21
7994.065974324533
 31
0.0
  0
LINE
  5
1F8D9
330
747D
100
AcDbEntity
  8
部品1
 48
50.0
100
AcDbLine
 10
11224.5
 20
8194.065974324535
 30
0.0
 11
11104.5
 21
8194.065974324535
 31
0.0
  0
LINE
  5
1F8DA
330
747D
100
AcDbEntity
  8
センター
 48
5.0
100
AcDbLine
 10
11159.5
 20
9119.065974324534
 30
0.0
 11
11159.5
 21
8829.065974324533
 31
0.0
  0
LINE
  5
1F8DB
330
747D
100
AcDbEntity
  8
センター
 48
5.0
100
AcDbLine
 10
11014.5
 20
8974.065974324535
 30
0.0
 11
11304.5
 21
8974.065974324535
 31
0.0
  0
LEADER
  5
1FBA6
330
747D
100
AcDbEntity
  8
寸法
 48
50.0
100
AcDbLeader
  3
INABA_S50G
 71
     0
 73
     0
 74
     0
 75
     1
 40
100.0
 41
793.3333333333333
 76
     3
 10
10521.54908555062
 20
2759.535336924831
 30
0.0
 10
10669.24925101525
 20
2977.365148516875
 30
0.0
 10
10794.24925101525
 20
2977.365148516875
 30
0.0
340
1FBA7
  0
MTEXT
  5
1FBA7
102
{ACAD_REACTORS
330
1FBA6
102
}
330
747D
100
AcDbEntity
  8
寸法
 62
     7
 48
50.0
100
AcDbMText
 10
10819.24925101525
 20
3052.365148516875
 30
0.0
 40
100.0
 41
0.0
 71
     4
 72
     1
  1
アンカーボルト
  7
STYLE1
 73
     1
 44
1.0
1001
ACAD
1000
MTEXTBEGIN
1070
    73
1070
     1
1070
    44
1040
1.0
1070
    74
1070
     0
1000
MTEXTEND
  0
TEXT
  5
1FBA8
330
747D
100
AcDbEntity
  8
部品1
 48
50.0
100
AcDbText
 10
10808.74037525823
 20
2830.580260136107
 30
0.0
 40
100.0
  1
M12\U+00D7200(市販品)
  7
STYLE1
100
AcDbText
  0
TEXT
  5
1FBA9
330
747D
100
AcDbEntity
  8
部品1
 48
50.0
100
AcDbText
 10
10808.74037525823
 20
2715.922647994326
 30
0.0
 40
100.0
  1
または
  7
STYLE1
100
AcDbText
  0
TEXT
  5
1FBAA
330
747D
100
AcDbEntity
  8
部品1
 48
50.0
100
AcDbText
 10
10808.74037525823
 20
2598.585479490733
 30
0.0
 40
100.0
  1
W1/2\U+00D7200(市販品)
  7
STYLE1
100
AcDbText
  0
ENDSEC
  0
SECTION
  2
OBJECTS
  0
DICTIONARY
  5
7471
330
0
100
AcDbDictionary
281
     1
  3
ACAD_CIP_PREVIOUS_PRODUCT_INFO
350
1FB9B
  3
ACAD_COLOR
350
1C4D0
  3
ACAD_DETAILVIEWSTYLE
350
1FB96
  3
ACAD_GROUP
350
7472
  3
ACAD_LAYOUT
350
1C4D1
  3
ACAD_MATERIAL
350
1C4CF
  3
ACAD_MLEADERSTYLE
350
1FB92
  3
ACAD_MLINESTYLE
350
7473
  3
ACAD_PLOTSETTINGS
350
1C4D2
  3
ACAD_PLOTSTYLENAME
350
1C4CD
  3
ACAD_SCALELIST
350
1FB80
  3
ACAD_SECTIONVIEWSTYLE
350
1FB94
  3
ACAD_TABLESTYLE
350
1FB7E
  3
ACAD_VISUALSTYLE
350
1FB65
  3
ACDB_RECOMPOSE_DATA
350
1FBF7
  3
ACDBVARIABLEDICTIONARY
350
1152B
  3
AcDsDecomposeData
350
1FBFE
  3
CONTENTDICTIONARY
350
E71C
  3
DRAWINGVARIABLESDICT
350
F3B9
  3
DWGPROPS
350
1FBF8
  0
DICTIONARY
  5
1DF82
330
7467
100
AcDbDictionary
280
     1
281
     1
  3
ACAD_LAYERSTATES
360
1DF83
  0
DICTIONARY
  5
1FBAB
330
7474
100
AcDbDictionary
280
     1
281
     1
  3
ADSK_XREC_LAYER_RECONCILED
360
1FBAC
  0
DICTIONARY
  5
1FBAD
330
DEB2
100
AcDbDictionary
280
     1
281
     1
  3
ADSK_XREC_LAYER_RECONCILED
360
1FBAE
  0
DICTIONARY
  5
1FBAF
330
DEB3
100
AcDbDictionary
280
     1
281
     1
  3
ADSK_XREC_LAYER_RECONCILED
360
1FBB0
  0
DICTIONARY
  5
1FBB1
330
DEB4
100
AcDbDictionary
280
     1
281
     1
  3
ADSK_XREC_LAYER_RECONCILED
360
1FBB2
  0
DICTIONARY
  5
1FBB3
330
DEB5
100
AcDbDictionary
280
     1
281
     1
  3
ADSK_XREC_LAYER_RECONCILED
360
1FBB4
  0
DICTIONARY
  5
1FBB5
330
DEB6
100
AcDbDictionary
280
     1
281
     1
  3
ADSK_XREC_LAYER_RECONCILED
360
1FBB6
  0
DICTIONARY
  5
1FBB7
330
10B54
100
AcDbDictionary
280
     1
281
     1
  3
ADSK_XREC_LAYER_RECONCILED
360
1FBB8
  0
DICTIONARY
  5
1FBB9
330
13F73
100
AcDbDictionary
280
     1
281
     1
  3
ADSK_XREC_LAYER_RECONCILED
360
1FBBA
  0
DICTIONARY
  5
1FBBB
330
1643F
100
AcDbDictionary
280
     1
281
     1
  3
ADSK_XREC_LAYER_RECONCILED
360
1FBBC
  0
DICTIONARY
  5
1FBBD
330
17A5A
100
AcDbDictionary
280
     1
281
     1
  3
ADSK_XREC_LAYER_RECONCILED
360
1FBBE
  0
XRECORD
  5
1FB9B
102
{ACAD_REACTORS
330
7471
102
}
330
7471
100
AcDbXrecord
280
     1
300
ACDLT
300
2014
300
ACDLT_F_S
  0
DICTIONARY
  5
1C4D0
102
{ACAD_REACTORS
330
7471
102
}
330
7471
100
AcDbDictionary
281
     1
  0
DICTIONARY
  5
1FB96
102
{ACAD_REACTORS
330
7471
102
}
330
7471
100
AcDbDictionary
281
     1
  3
Metric50
350
1FB97
  0
DICTIONARY
  5
7472
102
{ACAD_REACTORS
330
7471
102
}
330
7471
100
AcDbDictionary
281
     1
  0
DICTIONARY
  5
1C4D1
102
{ACAD_REACTORS
330
7471
102
}
330
7471
100
AcDbDictionary
281
     1
  3
Model
350
1C4D3
  3
レイアウト1
350
1C4D4
  0
DICTIONARY
  5
1C4CF
102
{ACAD_REACTORS
330
7471
102
}
330
7471
100
AcDbDictionary
281
     1
  3
ByBlock
350
1FB55
  3
ByLayer
350
1FB4D
  3
Global
350
1FB5D
  0
DICTIONARY
  5
1FB92
102
{ACAD_REACTORS
330
7471
102
}
330
7471
100
AcDbDictionary
281
     1
  3
Standard
350
1FB93
  0
DICTIONARY
  5
7473
102
{ACAD_REACTORS
330
7471
102
}
330
7471
100
AcDbDictionary
281
     1
  3
STANDARD
350
7480
  0
DICTIONARY
  5
1C4D2
102
{ACAD_REACTORS
330
7471
102
}
330
7471
100
AcDbDictionary
281
     1
  0
ACDBDICTIONARYWDFLT
  5
1C4CD
102
{ACAD_REACTORS
330
7471
102
}
330
7471
100
AcDbDictionary
281
     1
  3
Normal
350
1C4CE
100
AcDbDictionaryWithDefault
340
1C4CE
  0
DICTIONARY
  5
1FB80
102
{ACAD_REACTORS
330
7471
102
}
330
7471
100
AcDbDictionary
281
     1
  3
A0
350
1FB81
  3
A1
350
1FB82
  3
A2
350
1FB83
  3
A3
350
1FB84
  3
A4
350
1FB85
  3
A5
350
1FB86
  3
A6
350
1FB87
  3
A7
350
1FB88
  3
A8
350
1FB89
  3
A9
350
1FB8A
  3
B0
350
1FB8B
  3
B1
350
1FB8C
  3
B2
350
1FB8D
  3
B3
350
1FB8E
  3
B4
350
1FB8F
  3
B5
350
1FB90
  3
B6
350
1FB91
  0
DICTIONARY
  5
1FB94
102
{ACAD_REACTORS
330
7471
102
}
330
7471
100
AcDbDictionary
281
     1
  3
Metric50
350
1FB95
  0
DICTIONARY
  5
1FB7E
102
{ACAD_REACTORS
330
7471
102
}
330
7471
100
AcDbDictionary
281
     1
  3
Standard
350
1FB7F
  0
DICTIONARY
  5
1FB65
102
{ACAD_REACTORS
330
7471
102
}
330
7471
100
AcDbDictionary
281
     1
  3
2dWireframe
350
1FB6B
  3
Basic
350
1FB6A
  3
Brighten
350
1FB71
  3
ColorChange
350
1FB75
  3
Conceptual
350
1FB6E
  3
Dim
350
1FB70
  3
EdgeColorOff
350
1FB7D
  3
Facepattern
350
1FB74
  3
Flat
350
1FB66
  3
FlatWithEdges
350
1FB67
  3
Gouraud
350
1FB68
  3
GouraudWithEdges
350
1FB69
  3
Hidden
350
1FB6D
  3
JitterOff
350
1FB7B
  3
Linepattern
350
1FB73
  3
OverhangOff
350
1FB7C
  3
Realistic
350
1FB6F
  3
Shaded
350
1FB7A
  3
Shaded with edges
350
1FB79
  3
Shades of Gray
350
1FB76
  3
Sketchy
350
1FB77
  3
Thicken
350
1FB72
  3
Wireframe
350
1FB6C
  3
X-Ray
350
1FB78
  0
XRECORD
  5
1FBF7
102
{ACAD_REACTORS
330
7471
102
}
330
7471
100
AcDbXrecord
280
     1
 90
        1
330
1FB7F
  0
DICTIONARY
  5
1152B
102
{ACAD_REACTORS
330
7471
102
}
330
7471
100
AcDbDictionary
281
     1
  3
CANNOSCALE
350
1FBC9
  3
CMLEADERSTYLE
350
1FBC5
  3
CTABLESTYLE
350
1FBC4
  3
CVIEWDETAILSTYLE
350
1FBC6
  3
CVIEWSECTIONSTYLE
350
1FBC7
  3
DIMASSOC
350
1ECC5
  3
INDEXCTL
350
1FBF3
  3
LAYEREVAL
350
1FBCB
  3
LAYERNOTIFY
350
1FBCC
  3
LIGHTINGUNITS
350
1FBCA
  3
MSLTSCALE
350
1FBC8
  3
PROJECTNAME
350
1ECC6
  3
SORTENTS
350
1152C
  3
XCLIPFRAME
350
1FBF4
  0
DICTIONARY
  5
1FBFE
102
{ACAD_REACTORS
330
7471
102
}
330
7471
100
AcDbDictionary
281
     1
  3
AcDsRecords
350
1FC00
  3
AcDsSchemas
350
1FBFF
1001
ACAD
1070
     2
  0
DICTIONARY
  5
E71C
102
{ACAD_REACTORS
330
7471
102
}
330
7471
100
AcDbDictionary
281
     1
  0
DICTIONARY
  5
F3B9
102
{ACAD_REACTORS
330
7471
102
}
330
7471
100
AcDbDictionary
281
     1
1001
DRAWINGVARIABLESXDATA
1000
POLARMODE
1000
1
  0
XRECORD
  5
1FBF8
102
{ACAD_REACTORS
330
7471
102
}
330
7471
100
AcDbXrecord
280
     1
  1
DWGPROPS COOKIE
  2

  3

  4

  6

  7

  8
hayashi.mizuki
  9

300
=
301
=
302
=
303
=
304
=
305
=
306
=
307
=
308
=
309
=
 40
2.448841284722222
 41
2450927.380327778
 42
2459381.442331169
  1

 90
        0
  0
DICTIONARY
  5
1DF83
102
{ACAD_REACTORS
330
1DF82
102
}
330
1DF82
100
AcDbDictionary
281
     1
  0
XRECORD
  5
1FBAC
102
{ACAD_REACTORS
330
1FBAB
102
}
330
1FBAB
100
AcDbXrecord
280
     1
290
     1
  0
XRECORD
  5
1FBAE
102
{ACAD_REACTORS
330
1FBAD
102
}
330
1FBAD
100
AcDbXrecord
280
     1
290
     1
  0
XRECORD
  5
1FBB0
102
{ACAD_REACTORS
330
1FBAF
102
}
330
1FBAF
100
AcDbXrecord
280
     1
290
     1
  0
XRECORD
  5
1FBB2
102
{ACAD_REACTORS
330
1FBB1
102
}
330
1FBB1
100
AcDbXrecord
280
     1
290
     1
  0
XRECORD
  5
1FBB4
102
{ACAD_REACTORS
330
1FBB3
102
}
330
1FBB3
100
AcDbXrecord
280
     1
290
     1
  0
XRECORD
  5
1FBB6
102
{ACAD_REACTORS
330
1FBB5
102
}
330
1FBB5
100
AcDbXrecord
280
     1
290
     1
  0
XRECORD
  5
1FBB8
102
{ACAD_REACTORS
330
1FBB7
102
}
330
1FBB7
100
AcDbXrecord
280
     1
290
     1
  0
XRECORD
  5
1FBBA
102
{ACAD_REACTORS
330
1FBB9
102
}
330
1FBB9
100
AcDbXrecord
280
     1
290
     1
  0
XRECORD
  5
1FBBC
102
{ACAD_REACTORS
330
1FBBB
102
}
330
1FBBB
100
AcDbXrecord
280
     1
290
     1
  0
XRECORD
  5
1FBBE
102
{ACAD_REACTORS
330
1FBBD
102
}
330
1FBBD
100
AcDbXrecord
280
     1
290
     1
  0
ACDBDETAILVIEWSTYLE
  5
1FB97
102
{ACAD_XDICTIONARY
360
1FBC1
102
}
102
{ACAD_REACTORS
330
1FB96
102
}
330
1FB96
100
AcDbModelDocViewStyle
 70
     0
  3
Metric50
290
     0
100
AcDbDetailViewStyle
 70
     0
 71
     0
 90
        3
 71
     1
340
7475
 40
5.0
340
0
 40
5.0
300

 40
0.0
280
     1
 71
     2
340
7479
 90
       25
 71
     3
340
7475
 40
5.0
 90
        0
 40
15.0
 90
        1
300
%<\AcVar ViewDetailId>% (%<\AcVar ViewScale \f "%sn">%)
 71
     4
340
7479
 90
       25
340
7479
 90
       25
280
     0
  0
LAYOUT
  5
1C4D3
102
{ACAD_XDICTIONARY
360
1FC01
102
}
102
{ACAD_REACTORS
330
1C4D1
102
}
330
1C4D1
100
AcDbPlotSettings
  1

  2
横.pc3
  4
A3
  6

 40
3.174999952316284
 41
3.174999952316284
 42
3.17498779296875
 43
3.17498779296875
 44
420.1583251953125
 45
297.0318298339844
 46
0.9429692290487992
 47
0.0
 48
0.0
 49
0.0
140
0.0
141
0.0
142
1.0
143
49.06606334349609
 70
 11956
 72
     1
 73
     0
 74
     1
  7
inaba.ctb
 75
     0
147
0.0203806853832824
148
-173.9960207766853
149
0.2043207111528318
100
AcDbLayout
  1
Model
 70
     1
 71
     0
 10
0.0
 20
0.0
 11
12.0
 21
9.0
 12
0.0
 22
0.0
 32
0.0
 14
0.0
 24
0.0
 34
0.0
 15
0.0
 25
0.0
 35
0.0
146
0.0
 13
0.0
 23
0.0
 33
0.0
 16
1.0
 26
0.0
 36
0.0
 17
0.0
 27
1.0
 37
0.0
 76
     0
330
747D
331
1FB40
1001
ACAD_PSEXT
1000
横.pc3
1000
CubePDF
1000
CubePDF:
1000
CubePDF
1070
     0
  0
LAYOUT
  5
1C4D4
102
{ACAD_XDICTIONARY
360
1FC03
102
}
102
{ACAD_REACTORS
330
1C4D1
102
}
330
1C4D1
100
AcDbPlotSettings
  1

  2
EPSON LP-8300
  4

  6

 40
0.0
 41
0.0
 42
0.0
 43
0.0
 44
0.0
 45
0.0
 46
0.0
 47
0.0
 48
0.0
 49
0.0
140
0.0
141
0.0
142
1.0
143
1.0
 70
   688
 72
     0
 73
     0
 74
     5
  7
inaba.ctb
 75
    16
147
1.0
148
0.0
149
0.0
100
AcDbLayout
  1
レイアウト1
 70
     0
 71
     1
 10
0.0
 20
0.0
 11
420.0
 21
297.0
 12
0.0
 22
0.0
 32
0.0
 14
1.000000000000000E+20
 24
1.000000000000000E+20
 34
1.000000000000000E+20
 15
-1.000000000000000E+20
 25
-1.000000000000000E+20
 35
-1.000000000000000E+20
146
0.0
 13
0.0
 23
0.0
 33
0.0
 16
1.0
 26
0.0
 36
0.0
 17
0.0
 27
1.0
 37
0.0
 76
     0
330
747A
  0
MATERIAL
  5
1FB55
102
{ACAD_XDICTIONARY
360
1FB56
102
}
102
{ACAD_REACTORS
330
1C4CF
102
}
330
1C4CF
100
AcDbMaterial
  1
ByBlock
 72
     0
 43
0.0208333333333333
 43
0.0
 43
0.0
 43
0.0
 43
0.0
 43
0.0208333333333333
 43
0.0
 43
0.0
 43
0.0
 43
0.0
 43
1.0
 43
0.0
 43
0.0
 43
0.0
 43
0.0
 43
1.0
 77
     0
 47
0.0208333333333333
 47
0.0
 47
0.0
 47
0.0
 47
0.0
 47
0.0208333333333333
 47
0.0
 47
0.0
 47
0.0
 47
0.0
 47
1.0
 47
0.0
 47
0.0
 47
0.0
 47
0.0
 47
1.0
171
     0
 49
0.0208333333333333
 49
0.0
 49
0.0
 49
0.0
 49
0.0
 49
0.0208333333333333
 49
0.0
 49
0.0
 49
0.0
 49
0.0
 49
1.0
 49
0.0
 49
0.0
 49
0.0
 49
0.0
 49
1.0
175
     0
142
0.0208333333333333
142
0.0
142
0.0
142
0.0
142
0.0
142
0.0208333333333333
142
0.0
142
0.0
142
0.0
142
0.0
142
1.0
142
0.0
142
0.0
142
0.0
142
0.0
142
1.0
179
     0
144
0.0208333333333333
144
0.0
144
0.0
144
0.0
144
0.0
144
0.0208333333333333
144
0.0
144
0.0
144
0.0
144
0.0
144
1.0
144
0.0
144
0.0
144
0.0
144
0.0
144
1.0
147
0.0208333333333333
147
0.0
147
0.0
147
0.0
147
0.0
147
0.0208333333333333
147
0.0
147
0.0
147
0.0
147
0.0
147
1.0
147
0.0
147
0.0
147
0.0
147
0.0
147
1.0
  0
MATERIAL
  5
1FB4D
102
{ACAD_XDICTIONARY
360
1FB4E
102
}
102
{ACAD_REACTORS
330
1C4CF
102
}
330
1C4CF
100
AcDbMaterial
  1
ByLayer
 72
     0
 43
0.0208333333333333
 43
0.0
 43
0.0
 43
0.0
 43
0.0
 43
0.0208333333333333
 43
0.0
 43
0.0
 43
0.0
 43
0.0
 43
1.0
 43
0.0
 43
0.0
 43
0.0
 43
0.0
 43
1.0
 77
     0
 47
0.0208333333333333
 47
0.0
 47
0.0
 47
0.0
 47
0.0
 47
0.0208333333333333
 47
0.0
 47
0.0
 47
0.0
 47
0.0
 47
1.0
 47
0.0
 47
0.0
 47
0.0
 47
0.0
 47
1.0
171
     0
 49
0.0208333333333333
 49
0.0
 49
0.0
 49
0.0
 49
0.0
 49
0.0208333333333333
 49
0.0
 49
0.0
 49
0.0
 49
0.0
 49
1.0
 49
0.0
 49
0.0
 49
0.0
 49
0.0
 49
1.0
175
     0
142
0.0208333333333333
142
0.0
142
0.0
142
0.0
142
0.0
142
0.0208333333333333
142
0.0
142
0.0
142
0.0
142
0.0
142
1.0
142
0.0
142
0.0
142
0.0
142
0.0
142
1.0
179
     0
144
0.0208333333333333
144
0.0
144
0.0
144
0.0
144
0.0
144
0.0208333333333333
144
0.0
144
0.0
144
0.0
144
0.0
144
1.0
144
0.0
144
0.0
144
0.0
144
0.0
144
1.0
147
0.0208333333333333
147
0.0
147
0.0
147
0.0
147
0.0
147
0.0208333333333333
147
0.0
147
0.0
147
0.0
147
0.0
147
1.0
147
0.0
147
0.0
147
0.0
147
0.0
147
1.0
  0
MATERIAL
  5
1FB5D
102
{ACAD_XDICTIONARY
360
1FB5E
102
}
102
{ACAD_REACTORS
330
1C4CF
102
}
330
1C4CF
100
AcDbMaterial
  1
Global
 72
     0
 43
0.0208333333333333
 43
0.0
 43
0.0
 43
0.0
 43
0.0
 43
0.0208333333333333
 43
0.0
 43
0.0
 43
0.0
 43
0.0
 43
1.0
 43
0.0
 43
0.0
 43
0.0
 43
0.0
 43
1.0
 77
     0
 47
0.0208333333333333
 47
0.0
 47
0.0
 47
0.0
 47
0.0
 47
0.0208333333333333
 47
0.0
 47
0.0
 47
0.0
 47
0.0
 47
1.0
 47
0.0
 47
0.0
 47
0.0
 47
0.0
 47
1.0
171
     0
 49
0.0208333333333333
 49
0.0
 49
0.0
 49
0.0
 49
0.0
 49
0.0208333333333333
 49
0.0
 49
0.0
 49
0.0
 49
0.0
 49
1.0
 49
0.0
 49
0.0
 49
0.0
 49
0.0
 49
1.0
175
     0
142
0.0208333333333333
142
0.0
142
0.0
142
0.0
142
0.0
142
0.0208333333333333
142
0.0
142
0.0
142
0.0
142
0.0
142
1.0
142
0.0
142
0.0
142
0.0
142
0.0
142
1.0
179
     0
144
0.0208333333333333
144
0.0
144
0.0
144
0.0
144
0.0
144
0.0208333333333333
144
0.0
144
0.0
144
0.0
144
0.0
144
1.0
144
0.0
144
0.0
144
0.0
144
0.0
144
1.0
147
0.0208333333333333
147
0.0
147
0.0
147
0.0
147
0.0
147
0.0208333333333333
147
0.0
147
0.0
147
0.0
147
0.0
147
1.0
147
0.0
147
0.0
147
0.0
147
0.0
147
1.0
  0
MLEADERSTYLE
  5
1FB93
102
{ACAD_REACTORS
330
1FB92
102
}
330
1FB92
100
AcDbMLeaderStyle
170
     2
171
     1
172
     0
 90
        2
 40
0.0
 41
0.0
173
     1
 91
-1056964608
340
7477
 92
       -2
290
     1
 42
2.0
291
     1
 43
0.36
  3
Standard
 44
4.0
300

342
7475
174
     1
178
     6
175
     1
176
     0
 93
-1056964608
 45
4.0
292
     0
297
     0
 46
4.0
 94
-1056964608
 47
1.0
 49
1.0
140
1.0
293
     1
141
0.0
294
     1
177
     0
142
1.0
295
     0
296
     0
143
0.125
1001
ACAD_MLEADERVER
1070
     2
  0
MLINESTYLE
  5
7480
102
{ACAD_REACTORS
330
7473
102
}
330
7473
100
AcDbMlineStyle
  2
STANDARD
 70
     0
  3

 62
     0
 51
90.0
 52
90.0
 71
     2
 49
0.5
 62
   256
  6
BYLAYER
 49
-0.5
 62
   256
  6
BYLAYER
  0
ACDBPLACEHOLDER
  5
1C4CE
102
{ACAD_REACTORS
330
1C4CD
102
}
330
1C4CD
  0
SCALE
  5
1FB81
102
{ACAD_REACTORS
330
1FB80
102
}
330
1FB80
100
AcDbScale
 70
     0
300
1:1
140
1.0
141
1.0
290
     1
  0
SCALE
  5
1FB82
102
{ACAD_REACTORS
330
1FB80
102
}
330
1FB80
100
AcDbScale
 70
     0
300
1:2
140
1.0
141
2.0
290
     0
  0
SCALE
  5
1FB83
102
{ACAD_REACTORS
330
1FB80
102
}
330
1FB80
100
AcDbScale
 70
     0
300
1:4
140
1.0
141
4.0
290
     0
  0
SCALE
  5
1FB84
102
{ACAD_REACTORS
330
1FB80
102
}
330
1FB80
100
AcDbScale
 70
     0
300
1:5
140
1.0
141
5.0
290
     0
  0
SCALE
  5
1FB85
102
{ACAD_REACTORS
330
1FB80
102
}
330
1FB80
100
AcDbScale
 70
     0
300
1:8
140
1.0
141
8.0
290
     0
  0
SCALE
  5
1FB86
102
{ACAD_REACTORS
330
1FB80
102
}
330
1FB80
100
AcDbScale
 70
     0
300
1:10
140
1.0
141
10.0
290
     0
  0
SCALE
  5
1FB87
102
{ACAD_REACTORS
330
1FB80
102
}
330
1FB80
100
AcDbScale
 70
     0
300
1:16
140
1.0
141
16.0
290
     0
  0
SCALE
  5
1FB88
102
{ACAD_REACTORS
330
1FB80
102
}
330
1FB80
100
AcDbScale
 70
     0
300
1:20
140
1.0
141
20.0
290
     0
  0
SCALE
  5
1FB89
102
{ACAD_REACTORS
330
1FB80
102
}
330
1FB80
100
AcDbScale
 70
     0
300
1:30
140
1.0
141
30.0
290
     0
  0
SCALE
  5
1FB8A
102
{ACAD_REACTORS
330
1FB80
102
}
330
1FB80
100
AcDbScale
 70
     0
300
1:40
140
1.0
141
40.0
290
     0
  0
SCALE
  5
1FB8B
102
{ACAD_REACTORS
330
1FB80
102
}
330
1FB80
100
AcDbScale
 70
     0
300
1:50
140
1.0
141
50.0
290
     0
  0
SCALE
  5
1FB8C
102
{ACAD_REACTORS
330
1FB80
102
}
330
1FB80
100
AcDbScale
 70
     0
300
1:100
140
1.0
141
100.0
290
     0
  0
SCALE
  5
1FB8D
102
{ACAD_REACTORS
330
1FB80
102
}
330
1FB80
100
AcDbScale
 70
     0
300
2:1
140
2.0
141
1.0
290
     0
  0
SCALE
  5
1FB8E
102
{ACAD_REACTORS
330
1FB80
102
}
330
1FB80
100
AcDbScale
 70
     0
300
4:1
140
4.0
141
1.0
290
     0
  0
SCALE
  5
1FB8F
102
{ACAD_REACTORS
330
1FB80
102
}
330
1FB80
100
AcDbScale
 70
     0
300
8:1
140
8.0
141
1.0
290
     0
  0
SCALE
  5
1FB90
102
{ACAD_REACTORS
330
1FB80
102
}
330
1FB80
100
AcDbScale
 70
     0
300
10:1
140
10.0
141
1.0
290
     0
  0
SCALE
  5
1FB91
102
{ACAD_REACTORS
330
1FB80
102
}
330
1FB80
100
AcDbScale
 70
     0
300
100:1
140
100.0
141
1.0
290
     0
  0
ACDBSECTIONVIEWSTYLE
  5
1FB95
102
{ACAD_XDICTIONARY
360
1FBBF
102
}
102
{ACAD_REACTORS
330
1FB94
102
}
330
1FB94
100
AcDbModelDocViewStyle
 70
     0
  3
Metric50
290
     0
100
AcDbSectionViewStyle
 70
     0
 71
     0
 90
      102
 71
     1
340
7475
 40
5.0
340
0
340
0
 40
5.0
300
I, O, Q, S, X, Z
 40
10.0
 90
        0
 40
2.5
 90
        0
 71
     2
340
7479
 90
       25
340
7479
 90
       50
 40
5.0
 40
2.5
 40
5.0
 71
     3
340
7475
 40
5.0
 90
        0
 40
15.0
 90
        1
300
%<\AcVar ViewSectionStartId>%-%<\AcVar ViewSectionEndId>% (%<\AcVar ViewScale \f "%sn">%)
 71
     4
300
ANSI31
 40
1.0
 90
        0
290
     0
290
     0
 90
        6
 40
0.0
 40
1.570796326794896
 40
0.2617993877991494
 40
1.308996938995747
 40
-0.2617993877991494
 40
1.832595714594046
  0
TABLESTYLE
  5
1FB7F
102
{ACAD_XDICTIONARY
360
1FBF5
102
}
102
{ACAD_REACTORS
330
1FB7E
102
}
330
1FB7E
100
AcDbTableStyle
  3
Standard
 70
     0
 71
     0
 40
1.5
 41
1.5
280
     0
281
     0
  7
STANDARD
140
4.5
170
     2
 62
     0
 63
     7
283
     0
274
    -2
284
     1
 64
     0
275
    -2
285
     1
 65
     0
276
    -2
286
     1
 66
     0
277
    -2
287
     1
 67
     0
278
    -2
288
     1
 68
     0
279
    -2
289
     1
 69
     0
  7
STANDARD
140
6.0
170
     5
 62
     0
 63
     7
283
     0
274
    -2
284
     1
 64
     0
275
    -2
285
     1
 65
     0
276
    -2
286
     1
 66
     0
277
    -2
287
     1
 67
     0
278
    -2
288
     1
 68
     0
279
    -2
289
     1
 69
     0
  7
STANDARD
140
4.5
170
     5
 62
     0
 63
     7
283
     0
274
    -2
284
     1
 64
     0
275
    -2
285
     1
 65
     0
276
    -2
286
     1
 66
     0
277
    -2
287
     1
 67
     0
278
    -2
288
     1
 68
     0
279
    -2
289
     1
 69
     0
  0
VISUALSTYLE
  5
1FB6B
102
{ACAD_XDICTIONARY
360
1FC14
102
}
102
{ACAD_REACTORS
330
1FB65
102
}
330
1FB65
100
AcDbVisualStyle
  2
2dWireframe
 70
     4
 71
     0
 72
     2
 73
     0
 90
        0
 40
-0.6
 41
-30.0
 62
     5
 63
     7
 74
     1
 91
        4
 64
     7
 65
   257
 75
     1
175
     1
 42
1.0
 92
        0
 66
   257
 43
1.0
 76
     1
 77
     6
 78
     2
 67
     7
 79
     5
170
     0
171
     0
290
     0
174
     0
 93
        1
 44
0.0
173
     0
291
     0
 45
0.0
1001
ACAD
1000
AcDbSavedByObjectVersion
1070
     0
  0
VISUALSTYLE
  5
1FB6A
102
{ACAD_XDICTIONARY
360
1FC12
102
}
102
{ACAD_REACTORS
330
1FB65
102
}
330
1FB65
100
AcDbVisualStyle
  2
Basic
 70
     7
 71
     1
 72
     0
 73
     1
 90
        0
 40
-0.6
 41
-30.0
 62
     5
 63
     7
 74
     0
 91
        4
 64
     7
 65
   257
 75
     1
175
     1
 42
1.0
 92
        8
 66
     7
 43
1.0
 76
     1
 77
     6
 78
     2
 67
     7
 79
     5
170
     0
171
     0
290
     0
174
     0
 93
        1
 44
0.0
173
     0
291
     1
 45
0.0
1001
ACAD
1000
AcDbSavedByObjectVersion
1070
     0
  0
VISUALSTYLE
  5
1FB71
102
{ACAD_XDICTIONARY
360
1FC20
102
}
102
{ACAD_REACTORS
330
1FB65
102
}
330
1FB65
100
AcDbVisualStyle
  2
Brighten
 70
    12
 71
     2
 72
     2
 73
     0
 90
        0
 40
-0.6
 41
-30.0
 62
     5
 63
     7
 74
     1
 91
        4
 64
     7
 65
   257
 75
     1
175
     1
 42
1.0
 92
        8
 66
     7
 43
1.0
 76
     1
 77
     6
 78
     2
 67
     7
 79
     5
170
     0
171
     0
290
     0
174
     0
 93
        1
 44
50.0
173
     0
291
     1
 45
0.0
1001
ACAD
1000
AcDbSavedByObjectVersion
1070
     0
  0
VISUALSTYLE
  5
1FB75
102
{ACAD_XDICTIONARY
360
1FC28
102
}
102
{ACAD_REACTORS
330
1FB65
102
}
330
1FB65
100
AcDbVisualStyle
  2
ColorChange
 70
    16
 71
     2
 72
     2
 73
     3
 90
        0
 40
-0.6
 41
-30.0
 62
     5
 63
     8
 74
     1
 91
        4
 64
     7
 65
   257
 75
     1
175
     1
 42
1.0
 92
        8
 66
     8
 43
1.0
 76
     1
 77
     6
 78
     2
 67
     7
 79
     5
170
     0
171
     0
290
     0
174
     0
 93
        1
 44
0.0
173
     0
291
     1
 45
0.0
1001
ACAD
1000
AcDbSavedByObjectVersion
1070
     0
  0
VISUALSTYLE
  5
1FB6E
102
{ACAD_XDICTIONARY
360
1FC1A
102
}
102
{ACAD_REACTORS
330
1FB65
102
}
330
1FB65
100
AcDbVisualStyle
  2
Conceptual
 70
     9
 71
     3
 72
     2
 73
     0
 90
        0
 40
-0.6
 41
-30.0
 62
     5
 63
     7
 74
     2
 91
        2
 64
     7
 65
   257
 75
     1
175
     1
 42
179.0
 92
        8
 66
     7
 43
1.0
 76
     1
 77
     6
 78
     2
 67
     7
 79
     3
170
     0
171
     0
290
     0
174
     0
 93
        1
 44
0.0
173
     0
291
     0
 45
0.0
1001
ACAD
1000
AcDbSavedByObjectVersion
1070
     0
  0
VISUALSTYLE
  5
1FB70
102
{ACAD_XDICTIONARY
360
1FC1E
102
}
102
{ACAD_REACTORS
330
1FB65
102
}
330
1FB65
100
AcDbVisualStyle
  2
Dim
 70
    11
 71
     2
 72
     2
 73
     0
 90
        0
 40
-0.6
 41
-30.0
 62
     5
 63
     7
 74
     1
 91
        4
 64
     7
 65
   257
 75
     1
175
     1
 42
1.0
 92
        8
 66
     7
 43
1.0
 76
     1
 77
     6
 78
     2
 67
     7
 79
     5
170
     0
171
     0
290
     0
174
     0
 93
        1
 44
-50.0
173
     0
291
     1
 45
0.0
1001
ACAD
1000
AcDbSavedByObjectVersion
1070
     0
  0
VISUALSTYLE
  5
1FB7D
102
{ACAD_XDICTIONARY
360
1FC38
102
}
102
{ACAD_REACTORS
330
1FB65
102
}
330
1FB65
100
AcDbVisualStyle
  2
EdgeColorOff
 70
    22
 71
     2
 72
     2
 73
     0
 90
        0
 40
-0.6
 41
-30.0
 62
     5
 63
     7
 74
     1
 91
        4
 64
     7
 65
   257
 75
     1
175
     1
 42
1.0
 92
        8
 66
     7
 43
1.0
 76
     1
 77
     6
 78
     2
 67
     7
 79
     5
170
     0
171
     0
290
     0
174
     0
 93
        1
 44
0.0
173
     0
291
     1
 45
0.0
1001
ACAD
1000
AcDbSavedByObjectVersion
1070
     0
  0
VISUALSTYLE
  5
1FB74
102
{ACAD_XDICTIONARY
360
1FC26
102
}
102
{ACAD_REACTORS
330
1FB65
102
}
330
1FB65
100
AcDbVisualStyle
  2
Facepattern
 70
    15
 71
     2
 72
     2
 73
     0
 90
        0
 40
-0.6
 41
-30.0
 62
     5
 63
     7
 74
     1
 91
        4
 64
     7
 65
   257
 75
     1
175
     1
 42
1.0
 92
        8
 66
     7
 43
1.0
 76
     1
 77
     6
 78
     2
 67
     7
 79
     5
170
     0
171
     0
290
     0
174
     0
 93
        1
 44
0.0
173
     0
291
     1
 45
0.0
1001
ACAD
1000
AcDbSavedByObjectVersion
1070
     0
  0
VISUALSTYLE
  5
1FB66
102
{ACAD_XDICTIONARY
360
1FC0A
102
}
102
{ACAD_REACTORS
330
1FB65
102
}
330
1FB65
100
AcDbVisualStyle
  2
Flat
 70
     0
 71
     2
 72
     1
 73
     1
 90
        2
 40
-0.6
 41
30.0
 62
     5
 63
     7
 74
     0
 91
        0
 64
     7
 65
   257
 75
     1
175
     1
 42
1.0
 92
        8
 66
     7
 43
1.0
 76
     1
 77
     6
 78
     2
 67
     7
 79
     5
170
     0
171
     0
290
     0
174
     0
 93
       13
 44
0.0
173
     0
291
     1
 45
0.0
1001
ACAD
1000
AcDbSavedByObjectVersion
1070
     0
  0
VISUALSTYLE
  5
1FB67
102
{ACAD_XDICTIONARY
360
1FC0C
102
}
102
{ACAD_REACTORS
330
1FB65
102
}
330
1FB65
100
AcDbVisualStyle
  2
FlatWithEdges
 70
     1
 71
     2
 72
     1
 73
     1
 90
        2
 40
-0.6
 41
30.0
 62
     5
 63
     7
 74
     1
 91
        0
 64
     7
 65
   257
 75
     1
175
     1
 42
1.0
 92
        0
 66
   257
 43
1.0
 76
     1
 77
     6
 78
     2
 67
     7
 79
     5
170
     0
171
     0
290
     0
174
     0
 93
       13
 44
0.0
173
     0
291
     1
 45
0.0
1001
ACAD
1000
AcDbSavedByObjectVersion
1070
     0
  0
VISUALSTYLE
  5
1FB68
102
{ACAD_XDICTIONARY
360
1FC0E
102
}
102
{ACAD_REACTORS
330
1FB65
102
}
330
1FB65
100
AcDbVisualStyle
  2
Gouraud
 70
     2
 71
     2
 72
     2
 73
     1
 90
        2
 40
-0.6
 41
30.0
 62
     5
 63
     7
 74
     0
 91
        0
 64
     7
 65
   257
 75
     1
175
     1
 42
1.0
 92
        0
 66
     7
 43
1.0
 76
     1
 77
     6
 78
     2
 67
     7
 79
     5
170
     0
171
     0
290
     0
174
     0
 93
       13
 44
0.0
173
     0
291
     1
 45
0.0
1001
ACAD
1000
AcDbSavedByObjectVersion
1070
     0
  0
VISUALSTYLE
  5
1FB69
102
{ACAD_XDICTIONARY
360
1FC10
102
}
102
{ACAD_REACTORS
330
1FB65
102
}
330
1FB65
100
AcDbVisualStyle
  2
GouraudWithEdges
 70
     3
 71
     2
 72
     2
 73
     1
 90
        2
 40
-0.6
 41
30.0
 62
     5
 63
     7
 74
     1
 91
        0
 64
     7
 65
   257
 75
     1
175
     1
 42
1.0
 92
        0
 66
   257
 43
1.0
 76
     1
 77
     6
 78
     2
 67
     7
 79
     5
170
     0
171
     0
290
     0
174
     0
 93
       13
 44
0.0
173
     0
291
     1
 45
0.0
1001
ACAD
1000
AcDbSavedByObjectVersion
1070
     0
  0
VISUALSTYLE
  5
1FB6D
102
{ACAD_XDICTIONARY
360
1FC18
102
}
102
{ACAD_REACTORS
330
1FB65
102
}
330
1FB65
100
AcDbVisualStyle
  2
Hidden
 70
     6
 71
     1
 72
     2
 73
     2
 90
        0
 40
-0.6
 41
-30.0
 62
     5
 63
     7
 74
     2
 91
        2
 64
     7
 65
   257
 75
     2
175
     1
 42
40.0
 92
        0
 66
   257
 43
1.0
 76
     1
 77
     6
 78
     2
 67
     7
 79
     3
170
     0
171
     0
290
     0
174
     0
 93
        1
 44
0.0
173
     0
291
     0
 45
0.0
1001
ACAD
1000
AcDbSavedByObjectVersion
1070
     0
  0
VISUALSTYLE
  5
1FB7B
102
{ACAD_XDICTIONARY
360
1FC34
102
}
102
{ACAD_REACTORS
330
1FB65
102
}
330
1FB65
100
AcDbVisualStyle
  2
JitterOff
 70
    20
 71
     2
 72
     2
 73
     0
 90
        0
 40
-0.6
 41
-30.0
 62
     5
 63
     7
 74
     1
 91
        4
 64
     7
 65
   257
 75
     1
175
     1
 42
1.0
 92
       10
 66
     7
 43
1.0
 76
     1
 77
     6
 78
     2
 67
     7
 79
     5
170
     0
171
     0
290
     0
174
     0
 93
        1
 44
0.0
173
     0
291
     1
 45
0.0
1001
ACAD
1000
AcDbSavedByObjectVersion
1070
     0
  0
VISUALSTYLE
  5
1FB73
102
{ACAD_XDICTIONARY
360
1FC24
102
}
102
{ACAD_REACTORS
330
1FB65
102
}
330
1FB65
100
AcDbVisualStyle
  2
Linepattern
 70
    14
 71
     2
 72
     2
 73
     0
 90
        0
 40
-0.6
 41
-30.0
 62
     5
 63
     7
 74
     1
 91
        4
 64
     7
 65
   257
 75
     7
175
     7
 42
1.0
 92
        8
 66
     7
 43
1.0
 76
     1
 77
     6
 78
     2
 67
     7
 79
     5
170
     0
171
     0
290
     0
174
     0
 93
        1
 44
0.0
173
     0
291
     1
 45
0.0
1001
ACAD
1000
AcDbSavedByObjectVersion
1070
     0
  0
VISUALSTYLE
  5
1FB7C
102
{ACAD_XDICTIONARY
360
1FC36
102
}
102
{ACAD_REACTORS
330
1FB65
102
}
330
1FB65
100
AcDbVisualStyle
  2
OverhangOff
 70
    21
 71
     2
 72
     2
 73
     0
 90
        0
 40
-0.6
 41
-30.0
 62
     5
 63
     7
 74
     1
 91
        4
 64
     7
 65
   257
 75
     1
175
     1
 42
1.0
 92
        9
 66
     7
 43
1.0
 76
     1
 77
     6
 78
     2
 67
     7
 79
     5
170
     0
171
     0
290
     0
174
     0
 93
        1
 44
0.0
173
     0
291
     1
 45
0.0
1001
ACAD
1000
AcDbSavedByObjectVersion
1070
     0
  0
VISUALSTYLE
  5
1FB6F
102
{ACAD_XDICTIONARY
360
1FC1C
102
}
102
{ACAD_REACTORS
330
1FB65
102
}
330
1FB65
100
AcDbVisualStyle
  2
Realistic
 70
     8
 71
     2
 72
     3
 73
     0
 90
        2
 40
-0.6
 41
30.0
 62
     5
 63
     7
 74
     0
 91
        0
 64
     7
 65
   257
 75
     1
175
     1
 42
1.0
 92
        8
 66
   257
 43
1.0
 76
     1
 77
     6
 78
     2
 67
     7
 79
     3
170
     0
171
     0
290
     0
174
     0
 93
       13
 44
0.0
173
     0
291
     0
 45
0.0
1001
ACAD
1000
AcDbSavedByObjectVersion
1070
     0
  0
VISUALSTYLE
  5
1FB7A
102
{ACAD_XDICTIONARY
360
1FC32
102
}
102
{ACAD_REACTORS
330
1FB65
102
}
330
1FB65
100
AcDbVisualStyle
  2
Shaded
 70
    27
 71
     2
 72
     2
 73
     1
 90
        2
 40
-0.6
 41
30.0
 62
     5
 63
     7
 74
     0
 91
        4
 64
     7
 65
   257
 75
     1
175
     1
 42
1.0
 92
        8
 66
   257
 43
1.0
 76
     1
 77
     6
 78
     2
 67
     8
 79
     3
170
     0
171
     0
290
     0
174
     0
 93
        5
 44
0.0
173
     0
291
     0
 45
0.0
1001
ACAD
1000
AcDbSavedByObjectVersion
1070
     0
  0
VISUALSTYLE
  5
1FB79
102
{ACAD_XDICTIONARY
360
1FC30
102
}
102
{ACAD_REACTORS
330
1FB65
102
}
330
1FB65
100
AcDbVisualStyle
  2
Shaded with edges
 70
    26
 71
     2
 72
     2
 73
     1
 90
        2
 40
-0.6
 41
30.0
 62
     5
 63
     7
 74
     1
 91
       10
 64
     7
 65
   257
 75
     2
175
     1
 42
1.0
 92
        8
 66
   257
 43
1.0
 76
     1
 77
     6
 78
     2
 67
     7
 79
     3
170
     0
171
     0
290
     0
174
     0
 93
        5
 44
0.0
173
     0
291
     0
 45
0.0
1001
ACAD
1000
AcDbSavedByObjectVersion
1070
     0
  0
VISUALSTYLE
  5
1FB76
102
{ACAD_XDICTIONARY
360
1FC2A
102
}
102
{ACAD_REACTORS
330
1FB65
102
}
330
1FB65
100
AcDbVisualStyle
  2
Shades of Gray
 70
    23
 71
     2
 72
     2
 73
     3
 90
        0
 40
-0.6
 41
-30.0
 62
     5
 63
     7
 74
     2
 91
        2
 64
     7
 65
     7
 75
     1
175
     1
 42
40.0
 92
        8
 66
     7
 43
1.0
 76
     1
 77
     6
 78
     2
 67
     7
 79
     3
170
     0
171
     0
290
     0
174
     0
 93
        1
 44
0.0
173
     0
291
     0
 45
0.0
1001
ACAD
1000
AcDbSavedByObjectVersion
1070
     0
  0
VISUALSTYLE
  5
1FB77
102
{ACAD_XDICTIONARY
360
1FC2C
102
}
102
{ACAD_REACTORS
330
1FB65
102
}
330
1FB65
100
AcDbVisualStyle
  2
Sketchy
 70
    24
 71
     1
 72
     2
 73
     2
 90
        0
 40
-0.6
 41
-30.0
 62
     5
 63
     7
 74
     2
 91
        2
 64
     7
 65
     7
 75
     1
175
     1
 42
40.0
 92
       11
 66
     7
 43
1.0
 76
     1
 77
     6
 78
     2
 67
     7
 79
     6
170
     0
171
     0
290
     0
174
     0
 93
        1
 44
0.0
173
     0
291
     0
 45
0.0
1001
ACAD
1000
AcDbSavedByObjectVersion
1070
     0
  0
VISUALSTYLE
  5
1FB72
102
{ACAD_XDICTIONARY
360
1FC22
102
}
102
{ACAD_REACTORS
330
1FB65
102
}
330
1FB65
100
AcDbVisualStyle
  2
Thicken
 70
    13
 71
     2
 72
     2
 73
     0
 90
        0
 40
-0.6
 41
-30.0
 62
     5
 63
     7
 74
     1
 91
        4
 64
     7
 65
   257
 75
     1
175
     1
 42
1.0
 92
       12
 66
     7
 43
1.0
 76
     1
 77
     6
 78
     2
 67
     7
 79
     5
170
     0
171
     0
290
     0
174
     0
 93
        1
 44
0.0
173
     0
291
     1
 45
0.0
1001
ACAD
1000
AcDbSavedByObjectVersion
1070
     0
  0
VISUALSTYLE
  5
1FB6C
102
{ACAD_XDICTIONARY
360
1FC16
102
}
102
{ACAD_REACTORS
330
1FB65
102
}
330
1FB65
100
AcDbVisualStyle
  2
Wireframe
 70
     5
 71
     0
 72
     2
 73
     0
 90
        0
 40
-0.6
 41
-30.0
 62
     5
 63
     7
 74
     1
 91
        4
 64
     7
 65
   257
 75
     1
175
     1
 42
1.0
 92
        0
 66
   257
 43
1.0
 76
     1
 77
     6
 78
     2
 67
     7
 79
     3
170
     0
171
     0
290
     0
174
     0
 93
        1
 44
0.0
173
     0
291
     0
 45
0.0
1001
ACAD
1000
AcDbSavedByObjectVersion
1070
     0
  0
VISUALSTYLE
  5
1FB78
102
{ACAD_XDICTIONARY
360
1FC2E
102
}
102
{ACAD_REACTORS
330
1FB65
102
}
330
1FB65
100
AcDbVisualStyle
  2
X-Ray
 70
    25
 71
     2
 72
     2
 73
     1
 90
        1
 40
0.5
 41
-30.0
 62
     5
 63
     7
 74
     1
 91
        0
 64
     7
 65
   257
 75
     1
175
     1
 42
1.0
 92
        8
 66
     7
 43
1.0
 76
     1
 77
     6
 78
     2
 67
     7
 79
     3
170
     0
171
     0
290
     0
174
     0
 93
       13
 44
0.0
173
     0
291
     0
 45
0.0
1001
ACAD
1000
AcDbSavedByObjectVersion
1070
     0
  0
DICTIONARYVAR
  5
1FBC9
102
{ACAD_REACTORS
330
1152B
102
}
330
1152B
100
DictionaryVariables
280
     0
  1
1:1
  0
DICTIONARYVAR
  5
1FBC5
102
{ACAD_REACTORS
330
1152B
102
}
330
1152B
100
DictionaryVariables
280
     0
  1
STANDARD
  0
DICTIONARYVAR
  5
1FBC4
102
{ACAD_REACTORS
330
1152B
102
}
330
1152B
100
DictionaryVariables
280
     0
  1
STANDARD
  0
DICTIONARYVAR
  5
1FBC6
102
{ACAD_REACTORS
330
1152B
102
}
330
1152B
100
DictionaryVariables
280
     0
  1
Metric50
  0
DICTIONARYVAR
  5
1FBC7
102
{ACAD_REACTORS
330
1152B
102
}
330
1152B
100
DictionaryVariables
280
     0
  1
Metric50
  0
DICTIONARYVAR
  5
1ECC5
102
{ACAD_REACTORS
330
1152B
102
}
330
1152B
100
DictionaryVariables
280
     0
  1
1
  0
DICTIONARYVAR
  5
1FBF3
102
{ACAD_REACTORS
330
1152B
102
}
330
1152B
100
DictionaryVariables
280
     0
  1
0
  0
DICTIONARYVAR
  5
1FBCB
102
{ACAD_REACTORS
330
1152B
102
}
330
1152B
100
DictionaryVariables
280
     0
  1
1
  0
DICTIONARYVAR
  5
1FBCC
102
{ACAD_REACTORS
330
1152B
102
}
330
1152B
100
DictionaryVariables
280
     0
  1
15
  0
DICTIONARYVAR
  5
1FBCA
102
{ACAD_REACTORS
330
1152B
102
}
330
1152B
100
DictionaryVariables
280
     0
  1
0
  0
DICTIONARYVAR
  5
1FBC8
102
{ACAD_REACTORS
330
1152B
102
}
330
1152B
100
DictionaryVariables
280
     0
  1
0
  0
DICTIONARYVAR
  5
1ECC6
102
{ACAD_REACTORS
330
1152B
102
}
330
1152B
100
DictionaryVariables
280
     0
  1

  0
DICTIONARYVAR
  5
1152C
102
{ACAD_REACTORS
330
1152B
102
}
330
1152B
100
DictionaryVariables
280
     0
  1
96
  0
DICTIONARYVAR
  5
1FBF4
102
{ACAD_REACTORS
330
1152B
102
}
330
1152B
100
DictionaryVariables
280
     0
  1
2
  0
DICTIONARY
  5
1FC00
102
{ACAD_REACTORS
330
1FBFE
102
}
330
1FBFE
100
AcDbDictionary
281
     1
  0
DICTIONARY
  5
1FBFF
102
{ACAD_REACTORS
330
1FBFE
102
}
330
1FBFE
100
AcDbDictionary
281
     1
  3
140687019619984
350
1FBF9
  3
140687019620000
350
1FBFA
  3
140687019620016
350
1FBFB
  3
140687019620032
350
1FBFC
  3
140687019620048
350
1FBFD
  0
DICTIONARY
  5
1FBC1
330
1FB97
100
AcDbDictionary
280
     1
281
     1
  3
ACAD_XREC_ROUNDTRIP
360
1FC3D
  0
DICTIONARY
  5
1FC01
330
1C4D3
100
AcDbDictionary
280
     1
281
     1
  3
ACAD_XREC_ROUNDTRIP
360
1FC02
  0
DICTIONARY
  5
1FC03
330
1C4D4
100
AcDbDictionary
280
     1
281
     1
  3
ACAD_XREC_ROUNDTRIP
360
1FC04
  0
DICTIONARY
  5
1FB56
330
1FB55
100
AcDbDictionary
280
     1
281
     1
  3
ACAD_XREC_ROUNDTRIP
360
1FC08
  3
BUMPTILE
360
1FB58
  3
DIFFUSETILE
360
1FB57
  3
OPACITYTILE
360
1FB5B
  3
REFLECTIONTILE
360
1FB5A
  3
REFRACTIONTILE
360
1FB5C
  3
SPECULARTILE
360
1FB59
  0
DICTIONARY
  5
1FB4E
330
1FB4D
100
AcDbDictionary
280
     1
281
     1
  3
ACAD_XREC_ROUNDTRIP
360
1FC07
  3
BUMPTILE
360
1FB50
  3
DIFFUSETILE
360
1FB4F
  3
OPACITYTILE
360
1FB53
  3
REFLECTIONTILE
360
1FB52
  3
REFRACTIONTILE
360
1FB54
  3
SPECULARTILE
360
1FB51
  0
DICTIONARY
  5
1FB5E
330
1FB5D
100
AcDbDictionary
280
     1
281
     1
  3
ACAD_XREC_ROUNDTRIP
360
1FC09
  3
BUMPTILE
360
1FB60
  3
DIFFUSETILE
360
1FB5F
  3
OPACITYTILE
360
1FB63
  3
REFLECTIONTILE
360
1FB62
  3
REFRACTIONTILE
360
1FB64
  3
SPECULARTILE
360
1FB61
  0
DICTIONARY
  5
1FBBF
330
1FB95
100
AcDbDictionary
280
     1
281
     1
  3
ACAD_XREC_ROUNDTRIP
360
1FC3C
  0
DICTIONARY
  5
1FBF5
330
1FB7F
100
AcDbDictionary
280
     1
281
     1
  3
ACAD_ROUNDTRIP_2008_TABLESTYLE_CELLSTYLEMAP
360
1FBF6
  3
ACAD_XREC_ROUNDTRIP
360
1FC3A
  0
DICTIONARY
  5
1FC14
330
1FB6B
100
AcDbDictionary
280
     1
281
     1
  3
ACAD_XREC_ROUNDTRIP
360
1FC15
  0
DICTIONARY
  5
1FC12
330
1FB6A
100
AcDbDictionary
280
     1
281
     1
  3
ACAD_XREC_ROUNDTRIP
360
1FC13
  0
DICTIONARY
  5
1FC20
330
1FB71
100
AcDbDictionary
280
     1
281
     1
  3
ACAD_XREC_ROUNDTRIP
360
1FC21
  0
DICTIONARY
  5
1FC28
330
1FB75
100
AcDbDictionary
280
     1
281
     1
  3
ACAD_XREC_ROUNDTRIP
360
1FC29
  0
DICTIONARY
  5
1FC1A
330
1FB6E
100
AcDbDictionary
280
     1
281
     1
  3
ACAD_XREC_ROUNDTRIP
360
1FC1B
  0
DICTIONARY
  5
1FC1E
330
1FB70
100
AcDbDictionary
280
     1
281
     1
  3
ACAD_XREC_ROUNDTRIP
360
1FC1F
  0
DICTIONARY
  5
1FC38
330
1FB7D
100
AcDbDictionary
280
     1
281
     1
  3
ACAD_XREC_ROUNDTRIP
360
1FC39
  0
DICTIONARY
  5
1FC26
330
1FB74
100
AcDbDictionary
280
     1
281
     1
  3
ACAD_XREC_ROUNDTRIP
360
1FC27
  0
DICTIONARY
  5
1FC0A
330
1FB66
100
AcDbDictionary
280
     1
281
     1
  3
ACAD_XREC_ROUNDTRIP
360
1FC0B
  0
DICTIONARY
  5
1FC0C
330
1FB67
100
AcDbDictionary
280
     1
281
     1
  3
ACAD_XREC_ROUNDTRIP
360
1FC0D
  0
DICTIONARY
  5
1FC0E
330
1FB68
100
AcDbDictionary
280
     1
281
     1
  3
ACAD_XREC_ROUNDTRIP
360
1FC0F
  0
DICTIONARY
  5
1FC10
330
1FB69
100
AcDbDictionary
280
     1
281
     1
  3
ACAD_XREC_ROUNDTRIP
360
1FC11
  0
DICTIONARY
  5
1FC18
330
1FB6D
100
AcDbDictionary
280
     1
281
     1
  3
ACAD_XREC_ROUNDTRIP
360
1FC19
  0
DICTIONARY
  5
1FC34
330
1FB7B
100
AcDbDictionary
280
     1
281
     1
  3
ACAD_XREC_ROUNDTRIP
360
1FC35
  0
DICTIONARY
  5
1FC24
330
1FB73
100
AcDbDictionary
280
     1
281
     1
  3
ACAD_XREC_ROUNDTRIP
360
1FC25
  0
DICTIONARY
  5
1FC36
330
1FB7C
100
AcDbDictionary
280
     1
281
     1
  3
ACAD_XREC_ROUNDTRIP
360
1FC37
  0
DICTIONARY
  5
1FC1C
330
1FB6F
100
AcDbDictionary
280
     1
281
     1
  3
ACAD_XREC_ROUNDTRIP
360
1FC1D
  0
DICTIONARY
  5
1FC32
330
1FB7A
100
AcDbDictionary
280
     1
281
     1
  3
ACAD_XREC_ROUNDTRIP
360
1FC33
  0
DICTIONARY
  5
1FC30
330
1FB79
100
AcDbDictionary
280
     1
281
     1
  3
ACAD_XREC_ROUNDTRIP
360
1FC31
  0
DICTIONARY
  5
1FC2A
330
1FB76
100
AcDbDictionary
280
     1
281
     1
  3
ACAD_XREC_ROUNDTRIP
360
1FC2B
  0
DICTIONARY
  5
1FC2C
330
1FB77
100
AcDbDictionary
280
     1
281
     1
  3
ACAD_XREC_ROUNDTRIP
360
1FC2D
  0
DICTIONARY
  5
1FC22
330
1FB72
100
AcDbDictionary
280
     1
281
     1
  3
ACAD_XREC_ROUNDTRIP
360
1FC23
  0
DICTIONARY
  5
1FC16
330
1FB6C
100
AcDbDictionary
280
     1
281
     1
  3
ACAD_XREC_ROUNDTRIP
360
1FC17
  0
DICTIONARY
  5
1FC2E
330
1FB78
100
AcDbDictionary
280
     1
281
     1
  3
ACAD_XREC_ROUNDTRIP
360
1FC2F
  0
XRECORD
  5
1FBF9
102
{ACAD_REACTORS
330
1FBFF
102
}
330
1FBFF
100
AcDbXrecord
280
     1
  1
AcDb_Thumbnail_Schema
102
{ATTRRECORD
341
1FBFA
  2
AcDbDs::TreatedAsObjectData
280
     1
291
     1
102
ATTRRECORD}
102
{ATTRRECORD
341
1FBFB
  2
AcDbDs::Legacy
280
     1
291
     1
102
ATTRRECORD}
  2
AcDbDs::ID
280
    10
 91
        8
102
{ATTRRECORD
341
1FBFC
  2
AcDs:Indexable
280
     1
291
     1
102
ATTRRECORD}
102
{ATTRRECORD
341
1FBFD
  2
AcDbDs::HandleAttribute
280
     7
282
     1
102
ATTRRECORD}
  2
Thumbnail_Data
280
    15
 91
        0
  0
XRECORD
  5
1FBFA
102
{ACAD_REACTORS
330
1FBFF
102
}
330
1FBFF
100
AcDbXrecord
280
     1
  1
AcDbDs::TreatedAsObjectDataSchema
  2
AcDbDs::TreatedAsObjectData
280
     1
 91
        0
  0
XRECORD
  5
1FBFB
102
{ACAD_REACTORS
330
1FBFF
102
}
330
1FBFF
100
AcDbXrecord
280
     1
  1
AcDbDs::LegacySchema
  2
AcDbDs::Legacy
280
     1
 91
        0
  0
XRECORD
  5
1FBFC
102
{ACAD_REACTORS
330
1FBFF
102
}
330
1FBFF
100
AcDbXrecord
280
     1
  1
AcDbDs::IndexedPropertySchema
  2
AcDs:Indexable
280
     1
 91
        0
  0
XRECORD
  5
1FBFD
102
{ACAD_REACTORS
330
1FBFF
102
}
330
1FBFF
100
AcDbXrecord
280
     1
  1
AcDbDs::HandleAttributeSchema
  2
AcDbDs::HandleAttribute
280
     7
 91
        1
284
     1
  0
XRECORD
  5
1FC3D
102
{ACAD_REACTORS
330
1FBC1
102
}
330
1FBC1
100
AcDbXrecord
280
     1
102
DISPLAYNAME
  1
Metric50
102
FLAGS
 90
        0
  0
XRECORD
  5
1FC02
102
{ACAD_REACTORS
330
1FC01
102
}
330
1FC01
100
AcDbXrecord
280
     1
102
SHADEPLOT
 70
     0
102
SHADEPLOTRESLEVEL
 70
     2
102
SHADEPLOTCUSTOMDPI
 70
   150
  0
XRECORD
  5
1FC04
102
{ACAD_REACTORS
330
1FC03
102
}
330
1FC03
100
AcDbXrecord
280
     1
102
SHADEPLOT
 70
     0
102
SHADEPLOTRESLEVEL
 70
     2
102
SHADEPLOTCUSTOMDPI
 70
   300
  0
XRECORD
  5
1FC08
102
{ACAD_REACTORS
330
1FB56
102
}
330
1FB56
100
AcDbXrecord
280
     1
102
MATERIAL
148
0.0
149
0.0
149
0.0
 93
        0
 94
      127
282
     0
 72
     0
 77
     0
171
     0
175
     0
179
     0
273
     0
  0
XRECORD
  5
1FB58
102
{ACAD_REACTORS
330
1FB56
102
}
330
1FB56
100
AcDbXrecord
280
     1
270
     1
271
     1
  0
XRECORD
  5
1FB57
102
{ACAD_REACTORS
330
1FB56
102
}
330
1FB56
100
AcDbXrecord
280
     1
270
     1
271
     1
  0
XRECORD
  5
1FB5B
102
{ACAD_REACTORS
330
1FB56
102
}
330
1FB56
100
AcDbXrecord
280
     1
270
     1
271
     1
  0
XRECORD
  5
1FB5A
102
{ACAD_REACTORS
330
1FB56
102
}
330
1FB56
100
AcDbXrecord
280
     1
270
     1
271
     1
  0
XRECORD
  5
1FB5C
102
{ACAD_REACTORS
330
1FB56
102
}
330
1FB56
100
AcDbXrecord
280
     1
270
     1
271
     1
  0
XRECORD
  5
1FB59
102
{ACAD_REACTORS
330
1FB56
102
}
330
1FB56
100
AcDbXrecord
280
     1
270
     1
271
     1
  0
XRECORD
  5
1FC07
102
{ACAD_REACTORS
330
1FB4E
102
}
330
1FB4E
100
AcDbXrecord
280
     1
102
MATERIAL
148
0.0
149
0.0
149
0.0
 93
        0
 94
      127
282
     0
 72
     0
 77
     0
171
     0
175
     0
179
     0
273
     0
  0
XRECORD
  5
1FB50
102
{ACAD_REACTORS
330
1FB4E
102
}
330
1FB4E
100
AcDbXrecord
280
     1
270
     1
271
     1
  0
XRECORD
  5
1FB4F
102
{ACAD_REACTORS
330
1FB4E
102
}
330
1FB4E
100
AcDbXrecord
280
     1
270
     1
271
     1
  0
XRECORD
  5
1FB53
102
{ACAD_REACTORS
330
1FB4E
102
}
330
1FB4E
100
AcDbXrecord
280
     1
270
     1
271
     1
  0
XRECORD
  5
1FB52
102
{ACAD_REACTORS
330
1FB4E
102
}
330
1FB4E
100
AcDbXrecord
280
     1
270
     1
271
     1
  0
XRECORD
  5
1FB54
102
{ACAD_REACTORS
330
1FB4E
102
}
330
1FB4E
100
AcDbXrecord
280
     1
270
     1
271
     1
  0
XRECORD
  5
1FB51
102
{ACAD_REACTORS
330
1FB4E
102
}
330
1FB4E
100
AcDbXrecord
280
     1
270
     1
271
     1
  0
XRECORD
  5
1FC09
102
{ACAD_REACTORS
330
1FB5E
102
}
330
1FB5E
100
AcDbXrecord
280
     1
102
MATERIAL
148
0.0
149
0.0
149
0.0
 93
        0
 94
      127
282
     0
 72
     0
 77
     0
171
     0
175
     0
179
     0
273
     0
  0
XRECORD
  5
1FB60
102
{ACAD_REACTORS
330
1FB5E
102
}
330
1FB5E
100
AcDbXrecord
280
     1
270
     1
271
     1
  0
XRECORD
  5
1FB5F
102
{ACAD_REACTORS
330
1FB5E
102
}
330
1FB5E
100
AcDbXrecord
280
     1
270
     1
271
     1
  0
XRECORD
  5
1FB63
102
{ACAD_REACTORS
330
1FB5E
102
}
330
1FB5E
100
AcDbXrecord
280
     1
270
     1
271
     1
  0
XRECORD
  5
1FB62
102
{ACAD_REACTORS
330
1FB5E
102
}
330
1FB5E
100
AcDbXrecord
280
     1
270
     1
271
     1
  0
XRECORD
  5
1FB64
102
{ACAD_REACTORS
330
1FB5E
102
}
330
1FB5E
100
AcDbXrecord
280
     1
270
     1
271
     1
  0
XRECORD
  5
1FB61
102
{ACAD_REACTORS
330
1FB5E
102
}
330
1FB5E
100
AcDbXrecord
280
     1
270
     1
271
     1
  0
XRECORD
  5
1FC3C
102
{ACAD_REACTORS
330
1FBBF
102
}
330
1FBBF
100
AcDbXrecord
280
     1
102
DISPLAYNAME
  1
Metric50
102
FLAGS
 90
        0
  0
CELLSTYLEMAP
  5
1FBF6
102
{ACAD_REACTORS
330
1FBF5
102
}
330
1FBF5
100
AcDbCellStyleMap
 90
        3
300
CELLSTYLE
  1
TABLEFORMAT_BEGIN
 90
        5
170
     1
 91
        0
 92
    32768
 62
   257
 93
        1
300
CONTENTFORMAT
  1
CONTENTFORMAT_BEGIN
 90
        0
 91
        0
 92
      512
 93
        0
300

 40
0.0
140
1.0
 94
        5
 62
     0
340
7475
144
6.0
309
CONTENTFORMAT_END
171
     1
301
MARGIN
  1
CELLMARGIN_BEGIN
 40
1.5
 40
1.5
 40
1.5
 40
1.5
 40
4.5
 40
4.5
309
CELLMARGIN_END
 94
        6
 95
        1
302
GRIDFORMAT
  1
GRIDFORMAT_BEGIN
 90
        0
 91
        1
 62
     0
 92
       -2
340
0
 93
        0
 40
1.125
309
GRIDFORMAT_END
 95
        2
302
GRIDFORMAT
  1
GRIDFORMAT_BEGIN
 90
        0
 91
        1
 62
     0
 92
       -2
340
0
 93
        0
 40
1.125
309
GRIDFORMAT_END
 95
        4
302
GRIDFORMAT
  1
GRIDFORMAT_BEGIN
 90
        0
 91
        1
 62
     0
 92
       -2
340
0
 93
        0
 40
1.125
309
GRIDFORMAT_END
 95
        8
302
GRIDFORMAT
  1
GRIDFORMAT_BEGIN
 90
        0
 91
        1
 62
     0
 92
       -2
340
0
 93
        0
 40
1.125
309
GRIDFORMAT_END
 95
       16
302
GRIDFORMAT
  1
GRIDFORMAT_BEGIN
 90
        0
 91
        1
 62
     0
 92
       -2
340
0
 93
        0
 40
1.125
309
GRIDFORMAT_END
 95
       32
302
GRIDFORMAT
  1
GRIDFORMAT_BEGIN
 90
        0
 91
        1
 62
     0
 92
       -2
340
0
 93
        0
 40
1.125
309
GRIDFORMAT_END
309
TABLEFORMAT_END
  1
CELLSTYLE_BEGIN
 90
        1
 91
        1
300
_TITLE
309
CELLSTYLE_END
300
CELLSTYLE
  1
TABLEFORMAT_BEGIN
 90
        5
170
     1
 91
        0
 92
        0
 62
   257
 93
        1
300
CONTENTFORMAT
  1
CONTENTFORMAT_BEGIN
 90
        0
 91
        0
 92
      512
 93
        0
300

 40
0.0
140
1.0
 94
        5
 62
     0
340
7475
144
4.5
309
CONTENTFORMAT_END
171
     1
301
MARGIN
  1
CELLMARGIN_BEGIN
 40
1.5
 40
1.5
 40
1.5
 40
1.5
 40
4.5
 40
4.5
309
CELLMARGIN_END
 94
        6
 95
        1
302
GRIDFORMAT
  1
GRIDFORMAT_BEGIN
 90
        0
 91
        1
 62
     0
 92
       -2
340
0
 93
        0
 40
1.125
309
GRIDFORMAT_END
 95
        2
302
GRIDFORMAT
  1
GRIDFORMAT_BEGIN
 90
        0
 91
        1
 62
     0
 92
       -2
340
0
 93
        0
 40
1.125
309
GRIDFORMAT_END
 95
        4
302
GRIDFORMAT
  1
GRIDFORMAT_BEGIN
 90
        0
 91
        1
 62
     0
 92
       -2
340
0
 93
        0
 40
1.125
309
GRIDFORMAT_END
 95
        8
302
GRIDFORMAT
  1
GRIDFORMAT_BEGIN
 90
        0
 91
        1
 62
     0
 92
       -2
340
0
 93
        0
 40
1.125
309
GRIDFORMAT_END
 95
       16
302
GRIDFORMAT
  1
GRIDFORMAT_BEGIN
 90
        0
 91
        1
 62
     0
 92
       -2
340
0
 93
        0
 40
1.125
309
GRIDFORMAT_END
 95
       32
302
GRIDFORMAT
  1
GRIDFORMAT_BEGIN
 90
        0
 91
        1
 62
     0
 92
       -2
340
0
 93
        0
 40
1.125
309
GRIDFORMAT_END
309
TABLEFORMAT_END
  1
CELLSTYLE_BEGIN
 90
        2
 91
        1
300
_HEADER
309
CELLSTYLE_END
300
CELLSTYLE
  1
TABLEFORMAT_BEGIN
 90
        5
170
     1
 91
        0
 92
        0
 62
   257
 93
        1
300
CONTENTFORMAT
  1
CONTENTFORMAT_BEGIN
 90
        0
 91
        0
 92
      512
 93
        0
300

 40
0.0
140
1.0
 94
        2
 62
     0
340
7475
144
4.5
309
CONTENTFORMAT_END
171
     1
301
MARGIN
  1
CELLMARGIN_BEGIN
 40
1.5
 40
1.5
 40
1.5
 40
1.5
 40
4.5
 40
4.5
309
CELLMARGIN_END
 94
        6
 95
        1
302
GRIDFORMAT
  1
GRIDFORMAT_BEGIN
 90
        0
 91
        1
 62
     0
 92
       -2
340
0
 93
        0
 40
1.125
309
GRIDFORMAT_END
 95
        2
302
GRIDFORMAT
  1
GRIDFORMAT_BEGIN
 90
        0
 91
        1
 62
     0
 92
       -2
340
0
 93
        0
 40
1.125
309
GRIDFORMAT_END
 95
        4
302
GRIDFORMAT
  1
GRIDFORMAT_BEGIN
 90
        0
 91
        1
 62
     0
 92
       -2
340
0
 93
        0
 40
1.125
309
GRIDFORMAT_END
 95
        8
302
GRIDFORMAT
  1
GRIDFORMAT_BEGIN
 90
        0
 91
        1
 62
     0
 92
       -2
340
0
 93
        0
 40
1.125
309
GRIDFORMAT_END
 95
       16
302
GRIDFORMAT
  1
GRIDFORMAT_BEGIN
 90
        0
 91
        1
 62
     0
 92
       -2
340
0
 93
        0
 40
1.125
309
GRIDFORMAT_END
 95
       32
302
GRIDFORMAT
  1
GRIDFORMAT_BEGIN
 90
        0
 91
        1
 62
     0
 92
       -2
340
0
 93
        0
 40
1.125
309
GRIDFORMAT_END
309
TABLEFORMAT_END
  1
CELLSTYLE_BEGIN
 90
        3
 91
        2
300
_DATA
309
CELLSTYLE_END
  0
XRECORD
  5
1FC3A
102
{ACAD_REACTORS
330
1FBF5
102
}
330
1FBF5
100
AcDbXrecord
280
     1
102
ACAD_ROUNDTRIP_PRE2007_TABLESTYLE
 90
      512
 91
        0
  1

 92
      512
 93
        0
  2

 94
      512
 95
        0
  3

  0
XRECORD
  5
1FC15
102
{ACAD_REACTORS
330
1FC14
102
}
330
1FC14
100
AcDbXrecord
280
     1
102
RTVSPost2010Prop28
280
     1
102
RTVSPost2010PropOp28
 70
     1
102
RTVSPost2010Prop29
280
     1
102
RTVSPost2010PropOp29
 70
     1
102
RTVSPost2010Prop30
280
     0
102
RTVSPost2010PropOp30
 70
     1
102
RTVSPost2010Prop31
280
     0
102
RTVSPost2010PropOp31
 70
     1
102
RTVSPost2010Prop32
280
     0
102
RTVSPost2010PropOp32
 70
     1
102
RTVSPost2010Prop33
280
     0
102
RTVSPost2010PropOp33
 70
     1
102
RTVSPost2010Prop34
280
     0
102
RTVSPost2010PropOp34
 70
     1
102
RTVSPost2010Prop35
280
     0
102
RTVSPost2010PropOp35
 70
     1
102
RTVSPost2010Prop36
280
     0
102
RTVSPost2010PropOp36
 70
     1
102
RTVSPost2010Prop37
 90
       50
102
RTVSPost2010PropOp37
 70
     1
102
RTVSPost2010Prop38
140
0.0
102
RTVSPost2010PropOp38
 70
     1
102
RTVSPost2010Prop39
140
1.0
102
RTVSPost2010PropOp39
 70
     1
102
RTVSPost2010Prop40
 90
        0
102
RTVSPost2010PropOp40
 70
     1
102
RTVSPost2010Prop41ColorIndex
 90
       18
102
RTVSPost2010Prop41ColorRGB
 90
        0
102
RTVSPost2010PropOp41
 70
     1
102
RTVSPost2010Prop42
 90
       50
102
RTVSPost2010PropOp42
 70
     1
102
RTVSPost2010Prop43
 90
        3
102
RTVSPost2010PropOp43
 70
     1
102
RTVSPost2010Prop44ColorIndex
 90
        5
102
RTVSPost2010Prop44ColorRGB
 90
      255
102
RTVSPost2010PropOp44
 70
     1
102
RTVSPost2010Prop45
280
     0
102
RTVSPost2010PropOp45
 70
     1
102
RTVSPost2010Prop46
 90
       50
102
RTVSPost2010PropOp46
 70
     1
102
RTVSPost2010Prop47
 90
       50
102
RTVSPost2010PropOp47
 70
     1
102
RTVSPost2010Prop48
 90
       50
102
RTVSPost2010PropOp48
 70
     1
102
RTVSPost2010Prop49
280
     0
102
RTVSPost2010PropOp49
 70
     1
102
RTVSPost2010Prop50
 90
       50
102
RTVSPost2010PropOp50
 70
     1
102
RTVSPost2010Prop51ColorIndex
 90
      256
102
RTVSPost2010Prop51ColorRGB
 90
-16777216
102
RTVSPost2010PropOp51
 70
     0
102
RTVSPost2010Prop52
140
1.0
102
RTVSPost2010PropOp52
 70
     0
102
RTVSPost2010Prop53
 90
        2
102
RTVSPost2010PropOp53
 70
     1
102
RTVSPost2010Prop54
  1
strokes_ogs.tif
102
RTVSPost2010PropOp54
 70
     1
102
RTVSPost2010Prop55
280
     0
102
RTVSPost2010PropOp55
 70
     1
102
RTVSPost2010Prop56
140
1.0
102
RTVSPost2010PropOp56
 70
     1
102
RTVSPost2010Prop57
140
1.0
102
RTVSPost2010PropOp57
 70
     1
102
RTVSPropertyOp0
 70
     1
102
RTVSPropertyOp1
 70
     1
102
RTVSPropertyOp2
 70
     1
102
RTVSPropertyOp3
 70
     1
102
RTVSPropertyOp4
 70
     1
102
RTVSPropertyOp5
 70
     1
102
RTVSPropertyOp6
 70
     1
102
RTVSPropertyOp7
 70
     1
102
RTVSPropertyOp8
 70
     1
102
RTVSPropertyOp9
 70
     1
102
RTVSPropertyOp10
 70
     1
102
RTVSPropertyOp11
 70
     1
102
RTVSPropertyOp12
 70
     1
102
RTVSPropertyOp13
 70
     1
102
RTVSPropertyOp14
 70
     1
102
RTVSPropertyOp15
 70
     1
102
RTVSPropertyOp16
 70
     1
102
RTVSPropertyOp17
 70
     1
102
RTVSPropertyOp18
 70
     1
102
RTVSPropertyOp19
 70
     1
102
RTVSPropertyOp20
 70
     1
102
RTVSPropertyOp21
 70
     1
102
RTVSPropertyOp22
 70
     1
102
RTVSPropertyOp23
 70
     1
102
RTVSPropertyOp24
 70
     1
102
RTVSPropertyOp25
 70
     1
102
RTVSPropertyOp26
 70
     1
102
RTVSPropertyOp27
 70
     1
102
RTVSPropertyOp28
 70
     1
102
RTVSPropertyOp29
 70
     1
102
RTVSPropertyOp30
 70
     1
102
RTVSPropertyOp31
 70
     1
102
RTVSPropertyOp32
 70
     1
102
RTVSPropertyOp33
 70
     1
102
RTVSPropertyOp34
 70
     1
102
RTVSPropertyOp35
 70
     1
102
RTVSPropertyOp36
 70
     1
102
RTVSPropertyOp37
 70
     1
102
RTVSPropertyOp38
 70
     1
102
RTVSPropertyOp39
 70
     1
102
RTVSPropertyOp40
 70
     1
102
RTVSPropertyOp41
 70
     1
102
RTVSPropertyOp42
 70
     1
102
RTVSPropertyOp43
 70
     1
102
RTVSPropertyOp44
 70
     1
102
RTVSPropertyOp45
 70
     1
102
RTVSPropertyOp46
 70
     1
102
RTVSPropertyOp47
 70
     1
102
RTVSPropertyOp48
 70
     1
102
RTVSPropertyOp49
 70
     1
102
RTVSPropertyOp50
 70
     1
102
RTVSPropertyOp51
 70
     0
102
RTVSPropertyOp52
 70
     0
102
RTVSPropertyOp53
 70
     1
102
RTVSPropertyOp54
 70
     1
102
RTVSPropertyOp55
 70
     1
102
RTVSPropertyOp56
 70
     1
102
RTVSPropertyOp57
 70
     1
102
RTVSPropertyOp58
 70
     1
102
RTVSPropertyOp59
 70
     1
102
RTVSPropertyOp60
 70
     1
102
RTVSPropertyOp61
 70
     1
102
RTVSPropertyOp62
 70
     1
  0
XRECORD
  5
1FC13
102
{ACAD_REACTORS
330
1FC12
102
}
330
1FC12
100
AcDbXrecord
280
     1
102
RTVSPost2010Prop28
280
     0
102
RTVSPost2010PropOp28
 70
     1
102
RTVSPost2010Prop29
280
     1
102
RTVSPost2010PropOp29
 70
     1
102
RTVSPost2010Prop30
280
     1
102
RTVSPost2010PropOp30
 70
     1
102
RTVSPost2010Prop31
280
     0
102
RTVSPost2010PropOp31
 70
     1
102
RTVSPost2010Prop32
280
     0
102
RTVSPost2010PropOp32
 70
     1
102
RTVSPost2010Prop33
280
     0
102
RTVSPost2010PropOp33
 70
     1
102
RTVSPost2010Prop34
280
     0
102
RTVSPost2010PropOp34
 70
     1
102
RTVSPost2010Prop35
280
     0
102
RTVSPost2010PropOp35
 70
     1
102
RTVSPost2010Prop36
280
     0
102
RTVSPost2010PropOp36
 70
     1
102
RTVSPost2010Prop37
 90
       50
102
RTVSPost2010PropOp37
 70
     1
102
RTVSPost2010Prop38
140
0.0
102
RTVSPost2010PropOp38
 70
     1
102
RTVSPost2010Prop39
140
1.0
102
RTVSPost2010PropOp39
 70
     1
102
RTVSPost2010Prop40
 90
        0
102
RTVSPost2010PropOp40
 70
     1
102
RTVSPost2010Prop41ColorIndex
 90
       18
102
RTVSPost2010Prop41ColorRGB
 90
        0
102
RTVSPost2010PropOp41
 70
     1
102
RTVSPost2010Prop42
 90
       50
102
RTVSPost2010PropOp42
 70
     1
102
RTVSPost2010Prop43
 90
        3
102
RTVSPost2010PropOp43
 70
     1
102
RTVSPost2010Prop44ColorIndex
 90
        5
102
RTVSPost2010Prop44ColorRGB
 90
      255
102
RTVSPost2010PropOp44
 70
     1
102
RTVSPost2010Prop45
280
     0
102
RTVSPost2010PropOp45
 70
     1
102
RTVSPost2010Prop46
 90
       50
102
RTVSPost2010PropOp46
 70
     1
102
RTVSPost2010Prop47
 90
       50
102
RTVSPost2010PropOp47
 70
     1
102
RTVSPost2010Prop48
 90
       50
102
RTVSPost2010PropOp48
 70
     1
102
RTVSPost2010Prop49
280
     0
102
RTVSPost2010PropOp49
 70
     1
102
RTVSPost2010Prop50
 90
       50
102
RTVSPost2010PropOp50
 70
     1
102
RTVSPost2010Prop51ColorIndex
 90
      256
102
RTVSPost2010Prop51ColorRGB
 90
-16777216
102
RTVSPost2010PropOp51
 70
     0
102
RTVSPost2010Prop52
140
1.0
102
RTVSPost2010PropOp52
 70
     0
102
RTVSPost2010Prop53
 90
        2
102
RTVSPost2010PropOp53
 70
     1
102
RTVSPost2010Prop54
  1
strokes_ogs.tif
102
RTVSPost2010PropOp54
 70
     1
102
RTVSPost2010Prop55
280
     0
102
RTVSPost2010PropOp55
 70
     1
102
RTVSPost2010Prop56
140
1.0
102
RTVSPost2010PropOp56
 70
     1
102
RTVSPost2010Prop57
140
1.0
102
RTVSPost2010PropOp57
 70
     1
102
RTVSPropertyOp0
 70
     1
102
RTVSPropertyOp1
 70
     1
102
RTVSPropertyOp2
 70
     1
102
RTVSPropertyOp3
 70
     1
102
RTVSPropertyOp4
 70
     1
102
RTVSPropertyOp5
 70
     1
102
RTVSPropertyOp6
 70
     1
102
RTVSPropertyOp7
 70
     1
102
RTVSPropertyOp8
 70
     1
102
RTVSPropertyOp9
 70
     1
102
RTVSPropertyOp10
 70
     1
102
RTVSPropertyOp11
 70
     1
102
RTVSPropertyOp12
 70
     1
102
RTVSPropertyOp13
 70
     1
102
RTVSPropertyOp14
 70
     1
102
RTVSPropertyOp15
 70
     1
102
RTVSPropertyOp16
 70
     1
102
RTVSPropertyOp17
 70
     1
102
RTVSPropertyOp18
 70
     1
102
RTVSPropertyOp19
 70
     1
102
RTVSPropertyOp20
 70
     1
102
RTVSPropertyOp21
 70
     1
102
RTVSPropertyOp22
 70
     1
102
RTVSPropertyOp23
 70
     1
102
RTVSPropertyOp24
 70
     1
102
RTVSPropertyOp25
 70
     1
102
RTVSPropertyOp26
 70
     1
102
RTVSPropertyOp27
 70
     1
102
RTVSPropertyOp28
 70
     1
102
RTVSPropertyOp29
 70
     1
102
RTVSPropertyOp30
 70
     1
102
RTVSPropertyOp31
 70
     1
102
RTVSPropertyOp32
 70
     1
102
RTVSPropertyOp33
 70
     1
102
RTVSPropertyOp34
 70
     1
102
RTVSPropertyOp35
 70
     1
102
RTVSPropertyOp36
 70
     1
102
RTVSPropertyOp37
 70
     1
102
RTVSPropertyOp38
 70
     1
102
RTVSPropertyOp39
 70
     1
102
RTVSPropertyOp40
 70
     1
102
RTVSPropertyOp41
 70
     1
102
RTVSPropertyOp42
 70
     1
102
RTVSPropertyOp43
 70
     1
102
RTVSPropertyOp44
 70
     1
102
RTVSPropertyOp45
 70
     1
102
RTVSPropertyOp46
 70
     1
102
RTVSPropertyOp47
 70
     1
102
RTVSPropertyOp48
 70
     1
102
RTVSPropertyOp49
 70
     1
102
RTVSPropertyOp50
 70
     1
102
RTVSPropertyOp51
 70
     0
102
RTVSPropertyOp52
 70
     0
102
RTVSPropertyOp53
 70
     1
102
RTVSPropertyOp54
 70
     1
102
RTVSPropertyOp55
 70
     1
102
RTVSPropertyOp56
 70
     1
102
RTVSPropertyOp57
 70
     1
102
RTVSPropertyOp58
 70
     1
102
RTVSPropertyOp59
 70
     1
102
RTVSPropertyOp60
 70
     1
102
RTVSPropertyOp61
 70
     1
102
RTVSPropertyOp62
 70
     1
  0
XRECORD
  5
1FC21
102
{ACAD_REACTORS
330
1FC20
102
}
330
1FC20
100
AcDbXrecord
280
     1
102
RTVSPost2010Prop28
280
     0
102
RTVSPost2010PropOp28
 70
     1
102
RTVSPost2010Prop29
280
     1
102
RTVSPost2010PropOp29
 70
     1
102
RTVSPost2010Prop30
280
     1
102
RTVSPost2010PropOp30
 70
     1
102
RTVSPost2010Prop31
280
     0
102
RTVSPost2010PropOp31
 70
     1
102
RTVSPost2010Prop32
280
     0
102
RTVSPost2010PropOp32
 70
     1
102
RTVSPost2010Prop33
280
     0
102
RTVSPost2010PropOp33
 70
     1
102
RTVSPost2010Prop34
280
     0
102
RTVSPost2010PropOp34
 70
     1
102
RTVSPost2010Prop35
280
     0
102
RTVSPost2010PropOp35
 70
     1
102
RTVSPost2010Prop36
280
     0
102
RTVSPost2010PropOp36
 70
     1
102
RTVSPost2010Prop37
 90
       50
102
RTVSPost2010PropOp37
 70
     1
102
RTVSPost2010Prop38
140
0.0
102
RTVSPost2010PropOp38
 70
     1
102
RTVSPost2010Prop39
140
1.0
102
RTVSPost2010PropOp39
 70
     1
102
RTVSPost2010Prop40
 90
        0
102
RTVSPost2010PropOp40
 70
     1
102
RTVSPost2010Prop41ColorIndex
 90
       18
102
RTVSPost2010Prop41ColorRGB
 90
        0
102
RTVSPost2010PropOp41
 70
     1
102
RTVSPost2010Prop42
 90
       50
102
RTVSPost2010PropOp42
 70
     1
102
RTVSPost2010Prop43
 90
        3
102
RTVSPost2010PropOp43
 70
     1
102
RTVSPost2010Prop44ColorIndex
 90
        5
102
RTVSPost2010Prop44ColorRGB
 90
      255
102
RTVSPost2010PropOp44
 70
     1
102
RTVSPost2010Prop45
280
     0
102
RTVSPost2010PropOp45
 70
     1
102
RTVSPost2010Prop46
 90
       50
102
RTVSPost2010PropOp46
 70
     1
102
RTVSPost2010Prop47
 90
       50
102
RTVSPost2010PropOp47
 70
     1
102
RTVSPost2010Prop48
 90
       50
102
RTVSPost2010PropOp48
 70
     1
102
RTVSPost2010Prop49
280
     0
102
RTVSPost2010PropOp49
 70
     1
102
RTVSPost2010Prop50
 90
       50
102
RTVSPost2010PropOp50
 70
     1
102
RTVSPost2010Prop51ColorIndex
 90
      256
102
RTVSPost2010Prop51ColorRGB
 90
-16777216
102
RTVSPost2010PropOp51
 70
     0
102
RTVSPost2010Prop52
140
1.0
102
RTVSPost2010PropOp52
 70
     0
102
RTVSPost2010Prop53
 90
        2
102
RTVSPost2010PropOp53
 70
     1
102
RTVSPost2010Prop54
  1
strokes_ogs.tif
102
RTVSPost2010PropOp54
 70
     1
102
RTVSPost2010Prop55
280
     0
102
RTVSPost2010PropOp55
 70
     1
102
RTVSPost2010Prop56
140
1.0
102
RTVSPost2010PropOp56
 70
     1
102
RTVSPost2010Prop57
140
1.0
102
RTVSPost2010PropOp57
 70
     1
102
RTVSPropertyOp0
 70
     1
102
RTVSPropertyOp1
 70
     1
102
RTVSPropertyOp2
 70
     1
102
RTVSPropertyOp3
 70
     1
102
RTVSPropertyOp4
 70
     1
102
RTVSPropertyOp5
 70
     1
102
RTVSPropertyOp6
 70
     1
102
RTVSPropertyOp7
 70
     1
102
RTVSPropertyOp8
 70
     1
102
RTVSPropertyOp9
 70
     1
102
RTVSPropertyOp10
 70
     1
102
RTVSPropertyOp11
 70
     1
102
RTVSPropertyOp12
 70
     1
102
RTVSPropertyOp13
 70
     1
102
RTVSPropertyOp14
 70
     1
102
RTVSPropertyOp15
 70
     1
102
RTVSPropertyOp16
 70
     1
102
RTVSPropertyOp17
 70
     1
102
RTVSPropertyOp18
 70
     1
102
RTVSPropertyOp19
 70
     1
102
RTVSPropertyOp20
 70
     1
102
RTVSPropertyOp21
 70
     1
102
RTVSPropertyOp22
 70
     1
102
RTVSPropertyOp23
 70
     1
102
RTVSPropertyOp24
 70
     1
102
RTVSPropertyOp25
 70
     1
102
RTVSPropertyOp26
 70
     1
102
RTVSPropertyOp27
 70
     1
102
RTVSPropertyOp28
 70
     1
102
RTVSPropertyOp29
 70
     1
102
RTVSPropertyOp30
 70
     1
102
RTVSPropertyOp31
 70
     1
102
RTVSPropertyOp32
 70
     1
102
RTVSPropertyOp33
 70
     1
102
RTVSPropertyOp34
 70
     1
102
RTVSPropertyOp35
 70
     1
102
RTVSPropertyOp36
 70
     1
102
RTVSPropertyOp37
 70
     1
102
RTVSPropertyOp38
 70
     1
102
RTVSPropertyOp39
 70
     1
102
RTVSPropertyOp40
 70
     1
102
RTVSPropertyOp41
 70
     1
102
RTVSPropertyOp42
 70
     1
102
RTVSPropertyOp43
 70
     1
102
RTVSPropertyOp44
 70
     1
102
RTVSPropertyOp45
 70
     1
102
RTVSPropertyOp46
 70
     1
102
RTVSPropertyOp47
 70
     1
102
RTVSPropertyOp48
 70
     1
102
RTVSPropertyOp49
 70
     1
102
RTVSPropertyOp50
 70
     1
102
RTVSPropertyOp51
 70
     0
102
RTVSPropertyOp52
 70
     0
102
RTVSPropertyOp53
 70
     1
102
RTVSPropertyOp54
 70
     1
102
RTVSPropertyOp55
 70
     1
102
RTVSPropertyOp56
 70
     1
102
RTVSPropertyOp57
 70
     1
102
RTVSPropertyOp58
 70
     1
102
RTVSPropertyOp59
 70
     1
102
RTVSPropertyOp60
 70
     1
102
RTVSPropertyOp61
 70
     1
102
RTVSPropertyOp62
 70
     1
  0
XRECORD
  5
1FC29
102
{ACAD_REACTORS
330
1FC28
102
}
330
1FC28
100
AcDbXrecord
280
     1
102
RTVSPost2010Prop28
280
     0
102
RTVSPost2010PropOp28
 70
     1
102
RTVSPost2010Prop29
280
     1
102
RTVSPost2010PropOp29
 70
     1
102
RTVSPost2010Prop30
280
     1
102
RTVSPost2010PropOp30
 70
     1
102
RTVSPost2010Prop31
280
     0
102
RTVSPost2010PropOp31
 70
     1
102
RTVSPost2010Prop32
280
     0
102
RTVSPost2010PropOp32
 70
     1
102
RTVSPost2010Prop33
280
     0
102
RTVSPost2010PropOp33
 70
     1
102
RTVSPost2010Prop34
280
     0
102
RTVSPost2010PropOp34
 70
     1
102
RTVSPost2010Prop35
280
     0
102
RTVSPost2010PropOp35
 70
     1
102
RTVSPost2010Prop36
280
     0
102
RTVSPost2010PropOp36
 70
     1
102
RTVSPost2010Prop37
 90
       50
102
RTVSPost2010PropOp37
 70
     1
102
RTVSPost2010Prop38
140
0.0
102
RTVSPost2010PropOp38
 70
     1
102
RTVSPost2010Prop39
140
1.0
102
RTVSPost2010PropOp39
 70
     1
102
RTVSPost2010Prop40
 90
        0
102
RTVSPost2010PropOp40
 70
     1
102
RTVSPost2010Prop41ColorIndex
 90
       18
102
RTVSPost2010Prop41ColorRGB
 90
        0
102
RTVSPost2010PropOp41
 70
     1
102
RTVSPost2010Prop42
 90
       50
102
RTVSPost2010PropOp42
 70
     1
102
RTVSPost2010Prop43
 90
        3
102
RTVSPost2010PropOp43
 70
     1
102
RTVSPost2010Prop44ColorIndex
 90
        5
102
RTVSPost2010Prop44ColorRGB
 90
      255
102
RTVSPost2010PropOp44
 70
     1
102
RTVSPost2010Prop45
280
     0
102
RTVSPost2010PropOp45
 70
     1
102
RTVSPost2010Prop46
 90
       50
102
RTVSPost2010PropOp46
 70
     1
102
RTVSPost2010Prop47
 90
       50
102
RTVSPost2010PropOp47
 70
     1
102
RTVSPost2010Prop48
 90
       50
102
RTVSPost2010PropOp48
 70
     1
102
RTVSPost2010Prop49
280
     0
102
RTVSPost2010PropOp49
 70
     1
102
RTVSPost2010Prop50
 90
       50
102
RTVSPost2010PropOp50
 70
     1
102
RTVSPost2010Prop51ColorIndex
 90
      256
102
RTVSPost2010Prop51ColorRGB
 90
-16777216
102
RTVSPost2010PropOp51
 70
     0
102
RTVSPost2010Prop52
140
1.0
102
RTVSPost2010PropOp52
 70
     0
102
RTVSPost2010Prop53
 90
        2
102
RTVSPost2010PropOp53
 70
     1
102
RTVSPost2010Prop54
  1
strokes_ogs.tif
102
RTVSPost2010PropOp54
 70
     1
102
RTVSPost2010Prop55
280
     0
102
RTVSPost2010PropOp55
 70
     1
102
RTVSPost2010Prop56
140
1.0
102
RTVSPost2010PropOp56
 70
     1
102
RTVSPost2010Prop57
140
1.0
102
RTVSPost2010PropOp57
 70
     1
102
RTVSPropertyOp0
 70
     1
102
RTVSPropertyOp1
 70
     1
102
RTVSPropertyOp2
 70
     1
102
RTVSPropertyOp3
 70
     1
102
RTVSPropertyOp4
 70
     1
102
RTVSPropertyOp5
 70
     1
102
RTVSPropertyOp6
 70
     1
102
RTVSPropertyOp7
 70
     1
102
RTVSPropertyOp8
 70
     1
102
RTVSPropertyOp9
 70
     1
102
RTVSPropertyOp10
 70
     1
102
RTVSPropertyOp11
 70
     1
102
RTVSPropertyOp12
 70
     1
102
RTVSPropertyOp13
 70
     1
102
RTVSPropertyOp14
 70
     1
102
RTVSPropertyOp15
 70
     1
102
RTVSPropertyOp16
 70
     1
102
RTVSPropertyOp17
 70
     1
102
RTVSPropertyOp18
 70
     1
102
RTVSPropertyOp19
 70
     1
102
RTVSPropertyOp20
 70
     1
102
RTVSPropertyOp21
 70
     1
102
RTVSPropertyOp22
 70
     1
102
RTVSPropertyOp23
 70
     1
102
RTVSPropertyOp24
 70
     1
102
RTVSPropertyOp25
 70
     1
102
RTVSPropertyOp26
 70
     1
102
RTVSPropertyOp27
 70
     1
102
RTVSPropertyOp28
 70
     1
102
RTVSPropertyOp29
 70
     1
102
RTVSPropertyOp30
 70
     1
102
RTVSPropertyOp31
 70
     1
102
RTVSPropertyOp32
 70
     1
102
RTVSPropertyOp33
 70
     1
102
RTVSPropertyOp34
 70
     1
102
RTVSPropertyOp35
 70
     1
102
RTVSPropertyOp36
 70
     1
102
RTVSPropertyOp37
 70
     1
102
RTVSPropertyOp38
 70
     1
102
RTVSPropertyOp39
 70
     1
102
RTVSPropertyOp40
 70
     1
102
RTVSPropertyOp41
 70
     1
102
RTVSPropertyOp42
 70
     1
102
RTVSPropertyOp43
 70
     1
102
RTVSPropertyOp44
 70
     1
102
RTVSPropertyOp45
 70
     1
102
RTVSPropertyOp46
 70
     1
102
RTVSPropertyOp47
 70
     1
102
RTVSPropertyOp48
 70
     1
102
RTVSPropertyOp49
 70
     1
102
RTVSPropertyOp50
 70
     1
102
RTVSPropertyOp51
 70
     0
102
RTVSPropertyOp52
 70
     0
102
RTVSPropertyOp53
 70
     1
102
RTVSPropertyOp54
 70
     1
102
RTVSPropertyOp55
 70
     1
102
RTVSPropertyOp56
 70
     1
102
RTVSPropertyOp57
 70
     1
102
RTVSPropertyOp58
 70
     1
102
RTVSPropertyOp59
 70
     1
102
RTVSPropertyOp60
 70
     1
102
RTVSPropertyOp61
 70
     1
102
RTVSPropertyOp62
 70
     1
  0
XRECORD
  5
1FC1B
102
{ACAD_REACTORS
330
1FC1A
102
}
330
1FC1A
100
AcDbXrecord
280
     1
102
RTVSPost2010Prop28
280
     0
102
RTVSPost2010PropOp28
 70
     1
102
RTVSPost2010Prop29
280
     1
102
RTVSPost2010PropOp29
 70
     1
102
RTVSPost2010Prop30
280
     1
102
RTVSPost2010PropOp30
 70
     1
102
RTVSPost2010Prop31
280
     0
102
RTVSPost2010PropOp31
 70
     1
102
RTVSPost2010Prop32
280
     0
102
RTVSPost2010PropOp32
 70
     1
102
RTVSPost2010Prop33
280
     0
102
RTVSPost2010PropOp33
 70
     1
102
RTVSPost2010Prop34
280
     0
102
RTVSPost2010PropOp34
 70
     1
102
RTVSPost2010Prop35
280
     0
102
RTVSPost2010PropOp35
 70
     1
102
RTVSPost2010Prop36
280
     0
102
RTVSPost2010PropOp36
 70
     1
102
RTVSPost2010Prop37
 90
       50
102
RTVSPost2010PropOp37
 70
     1
102
RTVSPost2010Prop38
140
0.0
102
RTVSPost2010PropOp38
 70
     1
102
RTVSPost2010Prop39
140
1.0
102
RTVSPost2010PropOp39
 70
     1
102
RTVSPost2010Prop40
 90
        0
102
RTVSPost2010PropOp40
 70
     1
102
RTVSPost2010Prop41ColorIndex
 90
       18
102
RTVSPost2010Prop41ColorRGB
 90
        0
102
RTVSPost2010PropOp41
 70
     1
102
RTVSPost2010Prop42
 90
       50
102
RTVSPost2010PropOp42
 70
     1
102
RTVSPost2010Prop43
 90
        3
102
RTVSPost2010PropOp43
 70
     1
102
RTVSPost2010Prop44ColorIndex
 90
        5
102
RTVSPost2010Prop44ColorRGB
 90
      255
102
RTVSPost2010PropOp44
 70
     1
102
RTVSPost2010Prop45
280
     0
102
RTVSPost2010PropOp45
 70
     1
102
RTVSPost2010Prop46
 90
       50
102
RTVSPost2010PropOp46
 70
     1
102
RTVSPost2010Prop47
 90
       50
102
RTVSPost2010PropOp47
 70
     1
102
RTVSPost2010Prop48
 90
       50
102
RTVSPost2010PropOp48
 70
     1
102
RTVSPost2010Prop49
280
     0
102
RTVSPost2010PropOp49
 70
     1
102
RTVSPost2010Prop50
 90
       50
102
RTVSPost2010PropOp50
 70
     1
102
RTVSPost2010Prop51ColorIndex
 90
      256
102
RTVSPost2010Prop51ColorRGB
 90
-16777216
102
RTVSPost2010PropOp51
 70
     0
102
RTVSPost2010Prop52
140
1.0
102
RTVSPost2010PropOp52
 70
     0
102
RTVSPost2010Prop53
 90
        2
102
RTVSPost2010PropOp53
 70
     1
102
RTVSPost2010Prop54
  1
strokes_ogs.tif
102
RTVSPost2010PropOp54
 70
     1
102
RTVSPost2010Prop55
280
     0
102
RTVSPost2010PropOp55
 70
     1
102
RTVSPost2010Prop56
140
1.0
102
RTVSPost2010PropOp56
 70
     1
102
RTVSPost2010Prop57
140
1.0
102
RTVSPost2010PropOp57
 70
     1
102
RTVSPropertyOp0
 70
     1
102
RTVSPropertyOp1
 70
     1
102
RTVSPropertyOp2
 70
     1
102
RTVSPropertyOp3
 70
     1
102
RTVSPropertyOp4
 70
     1
102
RTVSPropertyOp5
 70
     1
102
RTVSPropertyOp6
 70
     1
102
RTVSPropertyOp7
 70
     1
102
RTVSPropertyOp8
 70
     1
102
RTVSPropertyOp9
 70
     1
102
RTVSPropertyOp10
 70
     1
102
RTVSPropertyOp11
 70
     1
102
RTVSPropertyOp12
 70
     1
102
RTVSPropertyOp13
 70
     1
102
RTVSPropertyOp14
 70
     1
102
RTVSPropertyOp15
 70
     1
102
RTVSPropertyOp16
 70
     1
102
RTVSPropertyOp17
 70
     1
102
RTVSPropertyOp18
 70
     1
102
RTVSPropertyOp19
 70
     1
102
RTVSPropertyOp20
 70
     1
102
RTVSPropertyOp21
 70
     1
102
RTVSPropertyOp22
 70
     1
102
RTVSPropertyOp23
 70
     1
102
RTVSPropertyOp24
 70
     1
102
RTVSPropertyOp25
 70
     1
102
RTVSPropertyOp26
 70
     1
102
RTVSPropertyOp27
 70
     1
102
RTVSPropertyOp28
 70
     1
102
RTVSPropertyOp29
 70
     1
102
RTVSPropertyOp30
 70
     1
102
RTVSPropertyOp31
 70
     1
102
RTVSPropertyOp32
 70
     1
102
RTVSPropertyOp33
 70
     1
102
RTVSPropertyOp34
 70
     1
102
RTVSPropertyOp35
 70
     1
102
RTVSPropertyOp36
 70
     1
102
RTVSPropertyOp37
 70
     1
102
RTVSPropertyOp38
 70
     1
102
RTVSPropertyOp39
 70
     1
102
RTVSPropertyOp40
 70
     1
102
RTVSPropertyOp41
 70
     1
102
RTVSPropertyOp42
 70
     1
102
RTVSPropertyOp43
 70
     1
102
RTVSPropertyOp44
 70
     1
102
RTVSPropertyOp45
 70
     1
102
RTVSPropertyOp46
 70
     1
102
RTVSPropertyOp47
 70
     1
102
RTVSPropertyOp48
 70
     1
102
RTVSPropertyOp49
 70
     1
102
RTVSPropertyOp50
 70
     1
102
RTVSPropertyOp51
 70
     0
102
RTVSPropertyOp52
 70
     0
102
RTVSPropertyOp53
 70
     1
102
RTVSPropertyOp54
 70
     1
102
RTVSPropertyOp55
 70
     1
102
RTVSPropertyOp56
 70
     1
102
RTVSPropertyOp57
 70
     1
102
RTVSPropertyOp58
 70
     1
102
RTVSPropertyOp59
 70
     1
102
RTVSPropertyOp60
 70
     1
102
RTVSPropertyOp61
 70
     1
102
RTVSPropertyOp62
 70
     1
  0
XRECORD
  5
1FC1F
102
{ACAD_REACTORS
330
1FC1E
102
}
330
1FC1E
100
AcDbXrecord
280
     1
102
RTVSPost2010Prop28
280
     0
102
RTVSPost2010PropOp28
 70
     1
102
RTVSPost2010Prop29
280
     1
102
RTVSPost2010PropOp29
 70
     1
102
RTVSPost2010Prop30
280
     1
102
RTVSPost2010PropOp30
 70
     1
102
RTVSPost2010Prop31
280
     0
102
RTVSPost2010PropOp31
 70
     1
102
RTVSPost2010Prop32
280
     0
102
RTVSPost2010PropOp32
 70
     1
102
RTVSPost2010Prop33
280
     0
102
RTVSPost2010PropOp33
 70
     1
102
RTVSPost2010Prop34
280
     0
102
RTVSPost2010PropOp34
 70
     1
102
RTVSPost2010Prop35
280
     0
102
RTVSPost2010PropOp35
 70
     1
102
RTVSPost2010Prop36
280
     0
102
RTVSPost2010PropOp36
 70
     1
102
RTVSPost2010Prop37
 90
       50
102
RTVSPost2010PropOp37
 70
     1
102
RTVSPost2010Prop38
140
0.0
102
RTVSPost2010PropOp38
 70
     1
102
RTVSPost2010Prop39
140
1.0
102
RTVSPost2010PropOp39
 70
     1
102
RTVSPost2010Prop40
 90
        0
102
RTVSPost2010PropOp40
 70
     1
102
RTVSPost2010Prop41ColorIndex
 90
       18
102
RTVSPost2010Prop41ColorRGB
 90
        0
102
RTVSPost2010PropOp41
 70
     1
102
RTVSPost2010Prop42
 90
       50
102
RTVSPost2010PropOp42
 70
     1
102
RTVSPost2010Prop43
 90
        3
102
RTVSPost2010PropOp43
 70
     1
102
RTVSPost2010Prop44ColorIndex
 90
        5
102
RTVSPost2010Prop44ColorRGB
 90
      255
102
RTVSPost2010PropOp44
 70
     1
102
RTVSPost2010Prop45
280
     0
102
RTVSPost2010PropOp45
 70
     1
102
RTVSPost2010Prop46
 90
       50
102
RTVSPost2010PropOp46
 70
     1
102
RTVSPost2010Prop47
 90
       50
102
RTVSPost2010PropOp47
 70
     1
102
RTVSPost2010Prop48
 90
       50
102
RTVSPost2010PropOp48
 70
     1
102
RTVSPost2010Prop49
280
     0
102
RTVSPost2010PropOp49
 70
     1
102
RTVSPost2010Prop50
 90
       50
102
RTVSPost2010PropOp50
 70
     1
102
RTVSPost2010Prop51ColorIndex
 90
      256
102
RTVSPost2010Prop51ColorRGB
 90
-16777216
102
RTVSPost2010PropOp51
 70
     0
102
RTVSPost2010Prop52
140
1.0
102
RTVSPost2010PropOp52
 70
     0
102
RTVSPost2010Prop53
 90
        2
102
RTVSPost2010PropOp53
 70
     1
102
RTVSPost2010Prop54
  1
strokes_ogs.tif
102
RTVSPost2010PropOp54
 70
     1
102
RTVSPost2010Prop55
280
     0
102
RTVSPost2010PropOp55
 70
     1
102
RTVSPost2010Prop56
140
1.0
102
RTVSPost2010PropOp56
 70
     1
102
RTVSPost2010Prop57
140
1.0
102
RTVSPost2010PropOp57
 70
     1
102
RTVSPropertyOp0
 70
     1
102
RTVSPropertyOp1
 70
     1
102
RTVSPropertyOp2
 70
     1
102
RTVSPropertyOp3
 70
     1
102
RTVSPropertyOp4
 70
     1
102
RTVSPropertyOp5
 70
     1
102
RTVSPropertyOp6
 70
     1
102
RTVSPropertyOp7
 70
     1
102
RTVSPropertyOp8
 70
     1
102
RTVSPropertyOp9
 70
     1
102
RTVSPropertyOp10
 70
     1
102
RTVSPropertyOp11
 70
     1
102
RTVSPropertyOp12
 70
     1
102
RTVSPropertyOp13
 70
     1
102
RTVSPropertyOp14
 70
     1
102
RTVSPropertyOp15
 70
     1
102
RTVSPropertyOp16
 70
     1
102
RTVSPropertyOp17
 70
     1
102
RTVSPropertyOp18
 70
     1
102
RTVSPropertyOp19
 70
     1
102
RTVSPropertyOp20
 70
     1
102
RTVSPropertyOp21
 70
     1
102
RTVSPropertyOp22
 70
     1
102
RTVSPropertyOp23
 70
     1
102
RTVSPropertyOp24
 70
     1
102
RTVSPropertyOp25
 70
     1
102
RTVSPropertyOp26
 70
     1
102
RTVSPropertyOp27
 70
     1
102
RTVSPropertyOp28
 70
     1
102
RTVSPropertyOp29
 70
     1
102
RTVSPropertyOp30
 70
     1
102
RTVSPropertyOp31
 70
     1
102
RTVSPropertyOp32
 70
     1
102
RTVSPropertyOp33
 70
     1
102
RTVSPropertyOp34
 70
     1
102
RTVSPropertyOp35
 70
     1
102
RTVSPropertyOp36
 70
     1
102
RTVSPropertyOp37
 70
     1
102
RTVSPropertyOp38
 70
     1
102
RTVSPropertyOp39
 70
     1
102
RTVSPropertyOp40
 70
     1
102
RTVSPropertyOp41
 70
     1
102
RTVSPropertyOp42
 70
     1
102
RTVSPropertyOp43
 70
     1
102
RTVSPropertyOp44
 70
     1
102
RTVSPropertyOp45
 70
     1
102
RTVSPropertyOp46
 70
     1
102
RTVSPropertyOp47
 70
     1
102
RTVSPropertyOp48
 70
     1
102
RTVSPropertyOp49
 70
     1
102
RTVSPropertyOp50
 70
     1
102
RTVSPropertyOp51
 70
     0
102
RTVSPropertyOp52
 70
     0
102
RTVSPropertyOp53
 70
     1
102
RTVSPropertyOp54
 70
     1
102
RTVSPropertyOp55
 70
     1
102
RTVSPropertyOp56
 70
     1
102
RTVSPropertyOp57
 70
     1
102
RTVSPropertyOp58
 70
     1
102
RTVSPropertyOp59
 70
     1
102
RTVSPropertyOp60
 70
     1
102
RTVSPropertyOp61
 70
     1
102
RTVSPropertyOp62
 70
     1
  0
XRECORD
  5
1FC39
102
{ACAD_REACTORS
330
1FC38
102
}
330
1FC38
100
AcDbXrecord
280
     1
102
RTVSPost2010Prop28
280
     0
102
RTVSPost2010PropOp28
 70
     1
102
RTVSPost2010Prop29
280
     1
102
RTVSPost2010PropOp29
 70
     1
102
RTVSPost2010Prop30
280
     1
102
RTVSPost2010PropOp30
 70
     1
102
RTVSPost2010Prop31
280
     0
102
RTVSPost2010PropOp31
 70
     1
102
RTVSPost2010Prop32
280
     0
102
RTVSPost2010PropOp32
 70
     1
102
RTVSPost2010Prop33
280
     0
102
RTVSPost2010PropOp33
 70
     1
102
RTVSPost2010Prop34
280
     0
102
RTVSPost2010PropOp34
 70
     1
102
RTVSPost2010Prop35
280
     0
102
RTVSPost2010PropOp35
 70
     1
102
RTVSPost2010Prop36
280
     0
102
RTVSPost2010PropOp36
 70
     1
102
RTVSPost2010Prop37
 90
       50
102
RTVSPost2010PropOp37
 70
     0
102
RTVSPost2010Prop38
140
0.0
102
RTVSPost2010PropOp38
 70
     0
102
RTVSPost2010Prop39
140
1.0
102
RTVSPost2010PropOp39
 70
     0
102
RTVSPost2010Prop40
 90
        0
102
RTVSPost2010PropOp40
 70
     0
102
RTVSPost2010Prop41ColorIndex
 90
       18
102
RTVSPost2010Prop41ColorRGB
 90
        0
102
RTVSPost2010PropOp41
 70
     0
102
RTVSPost2010Prop42
 90
       50
102
RTVSPost2010PropOp42
 70
     0
102
RTVSPost2010Prop43
 90
        3
102
RTVSPost2010PropOp43
 70
     0
102
RTVSPost2010Prop44ColorIndex
 90
        5
102
RTVSPost2010Prop44ColorRGB
 90
      255
102
RTVSPost2010PropOp44
 70
     0
102
RTVSPost2010Prop45
280
     0
102
RTVSPost2010PropOp45
 70
     1
102
RTVSPost2010Prop46
 90
       50
102
RTVSPost2010PropOp46
 70
     0
102
RTVSPost2010Prop47
 90
       50
102
RTVSPost2010PropOp47
 70
     0
102
RTVSPost2010Prop48
 90
       50
102
RTVSPost2010PropOp48
 70
     0
102
RTVSPost2010Prop49
280
     0
102
RTVSPost2010PropOp49
 70
     1
102
RTVSPost2010Prop50
 90
       50
102
RTVSPost2010PropOp50
 70
     0
102
RTVSPost2010Prop51ColorIndex
 90
      256
102
RTVSPost2010Prop51ColorRGB
 90
-16777216
102
RTVSPost2010PropOp51
 70
     0
102
RTVSPost2010Prop52
140
1.0
102
RTVSPost2010PropOp52
 70
     0
102
RTVSPost2010Prop53
 90
        2
102
RTVSPost2010PropOp53
 70
     0
102
RTVSPost2010Prop54
  1
strokes_ogs.tif
102
RTVSPost2010PropOp54
 70
     0
102
RTVSPost2010Prop55
280
     0
102
RTVSPost2010PropOp55
 70
     1
102
RTVSPost2010Prop56
140
1.0
102
RTVSPost2010PropOp56
 70
     0
102
RTVSPost2010Prop57
140
1.0
102
RTVSPost2010PropOp57
 70
     0
102
RTVSPropertyOp0
 70
     0
102
RTVSPropertyOp1
 70
     0
102
RTVSPropertyOp2
 70
     0
102
RTVSPropertyOp3
 70
     0
102
RTVSPropertyOp4
 70
     0
102
RTVSPropertyOp5
 70
     0
102
RTVSPropertyOp6
 70
     0
102
RTVSPropertyOp7
 70
     0
102
RTVSPropertyOp8
 70
     0
102
RTVSPropertyOp9
 70
     0
102
RTVSPropertyOp10
 70
     0
102
RTVSPropertyOp11
 70
     0
102
RTVSPropertyOp12
 70
     0
102
RTVSPropertyOp13
 70
     0
102
RTVSPropertyOp14
 70
     2
102
RTVSPropertyOp15
 70
     0
102
RTVSPropertyOp16
 70
     0
102
RTVSPropertyOp17
 70
     0
102
RTVSPropertyOp18
 70
     0
102
RTVSPropertyOp19
 70
     0
102
RTVSPropertyOp20
 70
     0
102
RTVSPropertyOp21
 70
     0
102
RTVSPropertyOp22
 70
     0
102
RTVSPropertyOp23
 70
     0
102
RTVSPropertyOp24
 70
     0
102
RTVSPropertyOp25
 70
     0
102
RTVSPropertyOp26
 70
     0
102
RTVSPropertyOp27
 70
     0
102
RTVSPropertyOp28
 70
     1
102
RTVSPropertyOp29
 70
     1
102
RTVSPropertyOp30
 70
     1
102
RTVSPropertyOp31
 70
     1
102
RTVSPropertyOp32
 70
     1
102
RTVSPropertyOp33
 70
     1
102
RTVSPropertyOp34
 70
     1
102
RTVSPropertyOp35
 70
     1
102
RTVSPropertyOp36
 70
     1
102
RTVSPropertyOp37
 70
     0
102
RTVSPropertyOp38
 70
     0
102
RTVSPropertyOp39
 70
     0
102
RTVSPropertyOp40
 70
     0
102
RTVSPropertyOp41
 70
     0
102
RTVSPropertyOp42
 70
     0
102
RTVSPropertyOp43
 70
     0
102
RTVSPropertyOp44
 70
     0
102
RTVSPropertyOp45
 70
     1
102
RTVSPropertyOp46
 70
     0
102
RTVSPropertyOp47
 70
     0
102
RTVSPropertyOp48
 70
     0
102
RTVSPropertyOp49
 70
     1
102
RTVSPropertyOp50
 70
     0
102
RTVSPropertyOp51
 70
     0
102
RTVSPropertyOp52
 70
     0
102
RTVSPropertyOp53
 70
     0
102
RTVSPropertyOp54
 70
     0
102
RTVSPropertyOp55
 70
     1
102
RTVSPropertyOp56
 70
     0
102
RTVSPropertyOp57
 70
     0
102
RTVSPropertyOp58
 70
     1
102
RTVSPropertyOp59
 70
     1
102
RTVSPropertyOp60
 70
     1
102
RTVSPropertyOp61
 70
     1
102
RTVSPropertyOp62
 70
     1
  0
XRECORD
  5
1FC27
102
{ACAD_REACTORS
330
1FC26
102
}
330
1FC26
100
AcDbXrecord
280
     1
102
RTVSPost2010Prop28
280
     0
102
RTVSPost2010PropOp28
 70
     1
102
RTVSPost2010Prop29
280
     1
102
RTVSPost2010PropOp29
 70
     1
102
RTVSPost2010Prop30
280
     1
102
RTVSPost2010PropOp30
 70
     1
102
RTVSPost2010Prop31
280
     0
102
RTVSPost2010PropOp31
 70
     1
102
RTVSPost2010Prop32
280
     0
102
RTVSPost2010PropOp32
 70
     1
102
RTVSPost2010Prop33
280
     0
102
RTVSPost2010PropOp33
 70
     1
102
RTVSPost2010Prop34
280
     0
102
RTVSPost2010PropOp34
 70
     1
102
RTVSPost2010Prop35
280
     0
102
RTVSPost2010PropOp35
 70
     1
102
RTVSPost2010Prop36
280
     0
102
RTVSPost2010PropOp36
 70
     1
102
RTVSPost2010Prop37
 90
       50
102
RTVSPost2010PropOp37
 70
     1
102
RTVSPost2010Prop38
140
0.0
102
RTVSPost2010PropOp38
 70
     1
102
RTVSPost2010Prop39
140
1.0
102
RTVSPost2010PropOp39
 70
     1
102
RTVSPost2010Prop40
 90
        0
102
RTVSPost2010PropOp40
 70
     1
102
RTVSPost2010Prop41ColorIndex
 90
       18
102
RTVSPost2010Prop41ColorRGB
 90
        0
102
RTVSPost2010PropOp41
 70
     1
102
RTVSPost2010Prop42
 90
       50
102
RTVSPost2010PropOp42
 70
     1
102
RTVSPost2010Prop43
 90
        3
102
RTVSPost2010PropOp43
 70
     1
102
RTVSPost2010Prop44ColorIndex
 90
        5
102
RTVSPost2010Prop44ColorRGB
 90
      255
102
RTVSPost2010PropOp44
 70
     1
102
RTVSPost2010Prop45
280
     0
102
RTVSPost2010PropOp45
 70
     1
102
RTVSPost2010Prop46
 90
       50
102
RTVSPost2010PropOp46
 70
     1
102
RTVSPost2010Prop47
 90
       50
102
RTVSPost2010PropOp47
 70
     1
102
RTVSPost2010Prop48
 90
       50
102
RTVSPost2010PropOp48
 70
     1
102
RTVSPost2010Prop49
280
     0
102
RTVSPost2010PropOp49
 70
     1
102
RTVSPost2010Prop50
 90
       50
102
RTVSPost2010PropOp50
 70
     1
102
RTVSPost2010Prop51ColorIndex
 90
      256
102
RTVSPost2010Prop51ColorRGB
 90
-16777216
102
RTVSPost2010PropOp51
 70
     0
102
RTVSPost2010Prop52
140
1.0
102
RTVSPost2010PropOp52
 70
     0
102
RTVSPost2010Prop53
 90
        2
102
RTVSPost2010PropOp53
 70
     1
102
RTVSPost2010Prop54
  1
strokes_ogs.tif
102
RTVSPost2010PropOp54
 70
     1
102
RTVSPost2010Prop55
280
     0
102
RTVSPost2010PropOp55
 70
     1
102
RTVSPost2010Prop56
140
1.0
102
RTVSPost2010PropOp56
 70
     1
102
RTVSPost2010Prop57
140
1.0
102
RTVSPost2010PropOp57
 70
     1
102
RTVSPropertyOp0
 70
     1
102
RTVSPropertyOp1
 70
     1
102
RTVSPropertyOp2
 70
     1
102
RTVSPropertyOp3
 70
     1
102
RTVSPropertyOp4
 70
     1
102
RTVSPropertyOp5
 70
     1
102
RTVSPropertyOp6
 70
     1
102
RTVSPropertyOp7
 70
     1
102
RTVSPropertyOp8
 70
     1
102
RTVSPropertyOp9
 70
     1
102
RTVSPropertyOp10
 70
     1
102
RTVSPropertyOp11
 70
     1
102
RTVSPropertyOp12
 70
     1
102
RTVSPropertyOp13
 70
     1
102
RTVSPropertyOp14
 70
     1
102
RTVSPropertyOp15
 70
     1
102
RTVSPropertyOp16
 70
     1
102
RTVSPropertyOp17
 70
     1
102
RTVSPropertyOp18
 70
     1
102
RTVSPropertyOp19
 70
     1
102
RTVSPropertyOp20
 70
     1
102
RTVSPropertyOp21
 70
     1
102
RTVSPropertyOp22
 70
     1
102
RTVSPropertyOp23
 70
     1
102
RTVSPropertyOp24
 70
     1
102
RTVSPropertyOp25
 70
     1
102
RTVSPropertyOp26
 70
     1
102
RTVSPropertyOp27
 70
     1
102
RTVSPropertyOp28
 70
     1
102
RTVSPropertyOp29
 70
     1
102
RTVSPropertyOp30
 70
     1
102
RTVSPropertyOp31
 70
     1
102
RTVSPropertyOp32
 70
     1
102
RTVSPropertyOp33
 70
     1
102
RTVSPropertyOp34
 70
     1
102
RTVSPropertyOp35
 70
     1
102
RTVSPropertyOp36
 70
     1
102
RTVSPropertyOp37
 70
     1
102
RTVSPropertyOp38
 70
     1
102
RTVSPropertyOp39
 70
     1
102
RTVSPropertyOp40
 70
     1
102
RTVSPropertyOp41
 70
     1
102
RTVSPropertyOp42
 70
     1
102
RTVSPropertyOp43
 70
     1
102
RTVSPropertyOp44
 70
     1
102
RTVSPropertyOp45
 70
     1
102
RTVSPropertyOp46
 70
     1
102
RTVSPropertyOp47
 70
     1
102
RTVSPropertyOp48
 70
     1
102
RTVSPropertyOp49
 70
     1
102
RTVSPropertyOp50
 70
     1
102
RTVSPropertyOp51
 70
     0
102
RTVSPropertyOp52
 70
     0
102
RTVSPropertyOp53
 70
     1
102
RTVSPropertyOp54
 70
     1
102
RTVSPropertyOp55
 70
     1
102
RTVSPropertyOp56
 70
     1
102
RTVSPropertyOp57
 70
     1
102
RTVSPropertyOp58
 70
     1
102
RTVSPropertyOp59
 70
     1
102
RTVSPropertyOp60
 70
     1
102
RTVSPropertyOp61
 70
     1
102
RTVSPropertyOp62
 70
     1
  0
XRECORD
  5
1FC0B
102
{ACAD_REACTORS
330
1FC0A
102
}
330
1FC0A
100
AcDbXrecord
280
     1
102
RTVSPost2010Prop28
280
     0
102
RTVSPost2010PropOp28
 70
     1
102
RTVSPost2010Prop29
280
     1
102
RTVSPost2010PropOp29
 70
     1
102
RTVSPost2010Prop30
280
     1
102
RTVSPost2010PropOp30
 70
     1
102
RTVSPost2010Prop31
280
     0
102
RTVSPost2010PropOp31
 70
     1
102
RTVSPost2010Prop32
280
     0
102
RTVSPost2010PropOp32
 70
     1
102
RTVSPost2010Prop33
280
     0
102
RTVSPost2010PropOp33
 70
     1
102
RTVSPost2010Prop34
280
     0
102
RTVSPost2010PropOp34
 70
     1
102
RTVSPost2010Prop35
280
     0
102
RTVSPost2010PropOp35
 70
     1
102
RTVSPost2010Prop36
280
     0
102
RTVSPost2010PropOp36
 70
     1
102
RTVSPost2010Prop37
 90
       50
102
RTVSPost2010PropOp37
 70
     1
102
RTVSPost2010Prop38
140
0.0
102
RTVSPost2010PropOp38
 70
     1
102
RTVSPost2010Prop39
140
1.0
102
RTVSPost2010PropOp39
 70
     1
102
RTVSPost2010Prop40
 90
        0
102
RTVSPost2010PropOp40
 70
     1
102
RTVSPost2010Prop41ColorIndex
 90
       18
102
RTVSPost2010Prop41ColorRGB
 90
        0
102
RTVSPost2010PropOp41
 70
     1
102
RTVSPost2010Prop42
 90
       50
102
RTVSPost2010PropOp42
 70
     1
102
RTVSPost2010Prop43
 90
        3
102
RTVSPost2010PropOp43
 70
     1
102
RTVSPost2010Prop44ColorIndex
 90
        5
102
RTVSPost2010Prop44ColorRGB
 90
      255
102
RTVSPost2010PropOp44
 70
     1
102
RTVSPost2010Prop45
280
     0
102
RTVSPost2010PropOp45
 70
     1
102
RTVSPost2010Prop46
 90
       50
102
RTVSPost2010PropOp46
 70
     1
102
RTVSPost2010Prop47
 90
       50
102
RTVSPost2010PropOp47
 70
     1
102
RTVSPost2010Prop48
 90
       50
102
RTVSPost2010PropOp48
 70
     1
102
RTVSPost2010Prop49
280
     0
102
RTVSPost2010PropOp49
 70
     1
102
RTVSPost2010Prop50
 90
       50
102
RTVSPost2010PropOp50
 70
     1
102
RTVSPost2010Prop51ColorIndex
 90
      256
102
RTVSPost2010Prop51ColorRGB
 90
-16777216
102
RTVSPost2010PropOp51
 70
     0
102
RTVSPost2010Prop52
140
1.0
102
RTVSPost2010PropOp52
 70
     0
102
RTVSPost2010Prop53
 90
        2
102
RTVSPost2010PropOp53
 70
     1
102
RTVSPost2010Prop54
  1
strokes_ogs.tif
102
RTVSPost2010PropOp54
 70
     1
102
RTVSPost2010Prop55
280
     0
102
RTVSPost2010PropOp55
 70
     1
102
RTVSPost2010Prop56
140
1.0
102
RTVSPost2010PropOp56
 70
     1
102
RTVSPost2010Prop57
140
1.0
102
RTVSPost2010PropOp57
 70
     1
102
RTVSPropertyOp0
 70
     1
102
RTVSPropertyOp1
 70
     1
102
RTVSPropertyOp2
 70
     1
102
RTVSPropertyOp3
 70
     1
102
RTVSPropertyOp4
 70
     1
102
RTVSPropertyOp5
 70
     1
102
RTVSPropertyOp6
 70
     1
102
RTVSPropertyOp7
 70
     1
102
RTVSPropertyOp8
 70
     1
102
RTVSPropertyOp9
 70
     1
102
RTVSPropertyOp10
 70
     1
102
RTVSPropertyOp11
 70
     1
102
RTVSPropertyOp12
 70
     1
102
RTVSPropertyOp13
 70
     1
102
RTVSPropertyOp14
 70
     1
102
RTVSPropertyOp15
 70
     1
102
RTVSPropertyOp16
 70
     1
102
RTVSPropertyOp17
 70
     1
102
RTVSPropertyOp18
 70
     1
102
RTVSPropertyOp19
 70
     1
102
RTVSPropertyOp20
 70
     1
102
RTVSPropertyOp21
 70
     1
102
RTVSPropertyOp22
 70
     1
102
RTVSPropertyOp23
 70
     1
102
RTVSPropertyOp24
 70
     1
102
RTVSPropertyOp25
 70
     1
102
RTVSPropertyOp26
 70
     1
102
RTVSPropertyOp27
 70
     1
102
RTVSPropertyOp28
 70
     1
102
RTVSPropertyOp29
 70
     1
102
RTVSPropertyOp30
 70
     1
102
RTVSPropertyOp31
 70
     1
102
RTVSPropertyOp32
 70
     1
102
RTVSPropertyOp33
 70
     1
102
RTVSPropertyOp34
 70
     1
102
RTVSPropertyOp35
 70
     1
102
RTVSPropertyOp36
 70
     1
102
RTVSPropertyOp37
 70
     1
102
RTVSPropertyOp38
 70
     1
102
RTVSPropertyOp39
 70
     1
102
RTVSPropertyOp40
 70
     1
102
RTVSPropertyOp41
 70
     1
102
RTVSPropertyOp42
 70
     1
102
RTVSPropertyOp43
 70
     1
102
RTVSPropertyOp44
 70
     1
102
RTVSPropertyOp45
 70
     1
102
RTVSPropertyOp46
 70
     1
102
RTVSPropertyOp47
 70
     1
102
RTVSPropertyOp48
 70
     1
102
RTVSPropertyOp49
 70
     1
102
RTVSPropertyOp50
 70
     1
102
RTVSPropertyOp51
 70
     0
102
RTVSPropertyOp52
 70
     0
102
RTVSPropertyOp53
 70
     1
102
RTVSPropertyOp54
 70
     1
102
RTVSPropertyOp55
 70
     1
102
RTVSPropertyOp56
 70
     1
102
RTVSPropertyOp57
 70
     1
102
RTVSPropertyOp58
 70
     1
102
RTVSPropertyOp59
 70
     1
102
RTVSPropertyOp60
 70
     1
102
RTVSPropertyOp61
 70
     1
102
RTVSPropertyOp62
 70
     1
  0
XRECORD
  5
1FC0D
102
{ACAD_REACTORS
330
1FC0C
102
}
330
1FC0C
100
AcDbXrecord
280
     1
102
RTVSPost2010Prop28
280
     0
102
RTVSPost2010PropOp28
 70
     1
102
RTVSPost2010Prop29
280
     1
102
RTVSPost2010PropOp29
 70
     1
102
RTVSPost2010Prop30
280
     1
102
RTVSPost2010PropOp30
 70
     1
102
RTVSPost2010Prop31
280
     0
102
RTVSPost2010PropOp31
 70
     1
102
RTVSPost2010Prop32
280
     0
102
RTVSPost2010PropOp32
 70
     1
102
RTVSPost2010Prop33
280
     0
102
RTVSPost2010PropOp33
 70
     1
102
RTVSPost2010Prop34
280
     0
102
RTVSPost2010PropOp34
 70
     1
102
RTVSPost2010Prop35
280
     0
102
RTVSPost2010PropOp35
 70
     1
102
RTVSPost2010Prop36
280
     0
102
RTVSPost2010PropOp36
 70
     1
102
RTVSPost2010Prop37
 90
       50
102
RTVSPost2010PropOp37
 70
     1
102
RTVSPost2010Prop38
140
0.0
102
RTVSPost2010PropOp38
 70
     1
102
RTVSPost2010Prop39
140
1.0
102
RTVSPost2010PropOp39
 70
     1
102
RTVSPost2010Prop40
 90
        0
102
RTVSPost2010PropOp40
 70
     1
102
RTVSPost2010Prop41ColorIndex
 90
       18
102
RTVSPost2010Prop41ColorRGB
 90
        0
102
RTVSPost2010PropOp41
 70
     1
102
RTVSPost2010Prop42
 90
       50
102
RTVSPost2010PropOp42
 70
     1
102
RTVSPost2010Prop43
 90
        3
102
RTVSPost2010PropOp43
 70
     1
102
RTVSPost2010Prop44ColorIndex
 90
        5
102
RTVSPost2010Prop44ColorRGB
 90
      255
102
RTVSPost2010PropOp44
 70
     1
102
RTVSPost2010Prop45
280
     0
102
RTVSPost2010PropOp45
 70
     1
102
RTVSPost2010Prop46
 90
       50
102
RTVSPost2010PropOp46
 70
     1
102
RTVSPost2010Prop47
 90
       50
102
RTVSPost2010PropOp47
 70
     1
102
RTVSPost2010Prop48
 90
       50
102
RTVSPost2010PropOp48
 70
     1
102
RTVSPost2010Prop49
280
     0
102
RTVSPost2010PropOp49
 70
     1
102
RTVSPost2010Prop50
 90
       50
102
RTVSPost2010PropOp50
 70
     1
102
RTVSPost2010Prop51ColorIndex
 90
      256
102
RTVSPost2010Prop51ColorRGB
 90
-16777216
102
RTVSPost2010PropOp51
 70
     0
102
RTVSPost2010Prop52
140
1.0
102
RTVSPost2010PropOp52
 70
     0
102
RTVSPost2010Prop53
 90
        2
102
RTVSPost2010PropOp53
 70
     1
102
RTVSPost2010Prop54
  1
strokes_ogs.tif
102
RTVSPost2010PropOp54
 70
     1
102
RTVSPost2010Prop55
280
     0
102
RTVSPost2010PropOp55
 70
     1
102
RTVSPost2010Prop56
140
1.0
102
RTVSPost2010PropOp56
 70
     1
102
RTVSPost2010Prop57
140
1.0
102
RTVSPost2010PropOp57
 70
     1
102
RTVSPropertyOp0
 70
     1
102
RTVSPropertyOp1
 70
     1
102
RTVSPropertyOp2
 70
     1
102
RTVSPropertyOp3
 70
     1
102
RTVSPropertyOp4
 70
     1
102
RTVSPropertyOp5
 70
     1
102
RTVSPropertyOp6
 70
     1
102
RTVSPropertyOp7
 70
     1
102
RTVSPropertyOp8
 70
     1
102
RTVSPropertyOp9
 70
     1
102
RTVSPropertyOp10
 70
     1
102
RTVSPropertyOp11
 70
     1
102
RTVSPropertyOp12
 70
     1
102
RTVSPropertyOp13
 70
     1
102
RTVSPropertyOp14
 70
     1
102
RTVSPropertyOp15
 70
     1
102
RTVSPropertyOp16
 70
     1
102
RTVSPropertyOp17
 70
     1
102
RTVSPropertyOp18
 70
     1
102
RTVSPropertyOp19
 70
     1
102
RTVSPropertyOp20
 70
     1
102
RTVSPropertyOp21
 70
     1
102
RTVSPropertyOp22
 70
     1
102
RTVSPropertyOp23
 70
     1
102
RTVSPropertyOp24
 70
     1
102
RTVSPropertyOp25
 70
     1
102
RTVSPropertyOp26
 70
     1
102
RTVSPropertyOp27
 70
     1
102
RTVSPropertyOp28
 70
     1
102
RTVSPropertyOp29
 70
     1
102
RTVSPropertyOp30
 70
     1
102
RTVSPropertyOp31
 70
     1
102
RTVSPropertyOp32
 70
     1
102
RTVSPropertyOp33
 70
     1
102
RTVSPropertyOp34
 70
     1
102
RTVSPropertyOp35
 70
     1
102
RTVSPropertyOp36
 70
     1
102
RTVSPropertyOp37
 70
     1
102
RTVSPropertyOp38
 70
     1
102
RTVSPropertyOp39
 70
     1
102
RTVSPropertyOp40
 70
     1
102
RTVSPropertyOp41
 70
     1
102
RTVSPropertyOp42
 70
     1
102
RTVSPropertyOp43
 70
     1
102
RTVSPropertyOp44
 70
     1
102
RTVSPropertyOp45
 70
     1
102
RTVSPropertyOp46
 70
     1
102
RTVSPropertyOp47
 70
     1
102
RTVSPropertyOp48
 70
     1
102
RTVSPropertyOp49
 70
     1
102
RTVSPropertyOp50
 70
     1
102
RTVSPropertyOp51
 70
     0
102
RTVSPropertyOp52
 70
     0
102
RTVSPropertyOp53
 70
     1
102
RTVSPropertyOp54
 70
     1
102
RTVSPropertyOp55
 70
     1
102
RTVSPropertyOp56
 70
     1
102
RTVSPropertyOp57
 70
     1
102
RTVSPropertyOp58
 70
     1
102
RTVSPropertyOp59
 70
     1
102
RTVSPropertyOp60
 70
     1
102
RTVSPropertyOp61
 70
     1
102
RTVSPropertyOp62
 70
     1
  0
XRECORD
  5
1FC0F
102
{ACAD_REACTORS
330
1FC0E
102
}
330
1FC0E
100
AcDbXrecord
280
     1
102
RTVSPost2010Prop28
280
     0
102
RTVSPost2010PropOp28
 70
     1
102
RTVSPost2010Prop29
280
     1
102
RTVSPost2010PropOp29
 70
     1
102
RTVSPost2010Prop30
280
     1
102
RTVSPost2010PropOp30
 70
     1
102
RTVSPost2010Prop31
280
     0
102
RTVSPost2010PropOp31
 70
     1
102
RTVSPost2010Prop32
280
     0
102
RTVSPost2010PropOp32
 70
     1
102
RTVSPost2010Prop33
280
     0
102
RTVSPost2010PropOp33
 70
     1
102
RTVSPost2010Prop34
280
     0
102
RTVSPost2010PropOp34
 70
     1
102
RTVSPost2010Prop35
280
     0
102
RTVSPost2010PropOp35
 70
     1
102
RTVSPost2010Prop36
280
     0
102
RTVSPost2010PropOp36
 70
     1
102
RTVSPost2010Prop37
 90
       50
102
RTVSPost2010PropOp37
 70
     1
102
RTVSPost2010Prop38
140
0.0
102
RTVSPost2010PropOp38
 70
     1
102
RTVSPost2010Prop39
140
1.0
102
RTVSPost2010PropOp39
 70
     1
102
RTVSPost2010Prop40
 90
        0
102
RTVSPost2010PropOp40
 70
     1
102
RTVSPost2010Prop41ColorIndex
 90
       18
102
RTVSPost2010Prop41ColorRGB
 90
        0
102
RTVSPost2010PropOp41
 70
     1
102
RTVSPost2010Prop42
 90
       50
102
RTVSPost2010PropOp42
 70
     1
102
RTVSPost2010Prop43
 90
        3
102
RTVSPost2010PropOp43
 70
     1
102
RTVSPost2010Prop44ColorIndex
 90
        5
102
RTVSPost2010Prop44ColorRGB
 90
      255
102
RTVSPost2010PropOp44
 70
     1
102
RTVSPost2010Prop45
280
     0
102
RTVSPost2010PropOp45
 70
     1
102
RTVSPost2010Prop46
 90
       50
102
RTVSPost2010PropOp46
 70
     1
102
RTVSPost2010Prop47
 90
       50
102
RTVSPost2010PropOp47
 70
     1
102
RTVSPost2010Prop48
 90
       50
102
RTVSPost2010PropOp48
 70
     1
102
RTVSPost2010Prop49
280
     0
102
RTVSPost2010PropOp49
 70
     1
102
RTVSPost2010Prop50
 90
       50
102
RTVSPost2010PropOp50
 70
     1
102
RTVSPost2010Prop51ColorIndex
 90
      256
102
RTVSPost2010Prop51ColorRGB
 90
-16777216
102
RTVSPost2010PropOp51
 70
     0
102
RTVSPost2010Prop52
140
1.0
102
RTVSPost2010PropOp52
 70
     0
102
RTVSPost2010Prop53
 90
        2
102
RTVSPost2010PropOp53
 70
     1
102
RTVSPost2010Prop54
  1
strokes_ogs.tif
102
RTVSPost2010PropOp54
 70
     1
102
RTVSPost2010Prop55
280
     0
102
RTVSPost2010PropOp55
 70
     1
102
RTVSPost2010Prop56
140
1.0
102
RTVSPost2010PropOp56
 70
     1
102
RTVSPost2010Prop57
140
1.0
102
RTVSPost2010PropOp57
 70
     1
102
RTVSPropertyOp0
 70
     1
102
RTVSPropertyOp1
 70
     1
102
RTVSPropertyOp2
 70
     1
102
RTVSPropertyOp3
 70
     1
102
RTVSPropertyOp4
 70
     1
102
RTVSPropertyOp5
 70
     1
102
RTVSPropertyOp6
 70
     1
102
RTVSPropertyOp7
 70
     1
102
RTVSPropertyOp8
 70
     1
102
RTVSPropertyOp9
 70
     1
102
RTVSPropertyOp10
 70
     1
102
RTVSPropertyOp11
 70
     1
102
RTVSPropertyOp12
 70
     1
102
RTVSPropertyOp13
 70
     1
102
RTVSPropertyOp14
 70
     1
102
RTVSPropertyOp15
 70
     1
102
RTVSPropertyOp16
 70
     1
102
RTVSPropertyOp17
 70
     1
102
RTVSPropertyOp18
 70
     1
102
RTVSPropertyOp19
 70
     1
102
RTVSPropertyOp20
 70
     1
102
RTVSPropertyOp21
 70
     1
102
RTVSPropertyOp22
 70
     1
102
RTVSPropertyOp23
 70
     1
102
RTVSPropertyOp24
 70
     1
102
RTVSPropertyOp25
 70
     1
102
RTVSPropertyOp26
 70
     1
102
RTVSPropertyOp27
 70
     1
102
RTVSPropertyOp28
 70
     1
102
RTVSPropertyOp29
 70
     1
102
RTVSPropertyOp30
 70
     1
102
RTVSPropertyOp31
 70
     1
102
RTVSPropertyOp32
 70
     1
102
RTVSPropertyOp33
 70
     1
102
RTVSPropertyOp34
 70
     1
102
RTVSPropertyOp35
 70
     1
102
RTVSPropertyOp36
 70
     1
102
RTVSPropertyOp37
 70
     1
102
RTVSPropertyOp38
 70
     1
102
RTVSPropertyOp39
 70
     1
102
RTVSPropertyOp40
 70
     1
102
RTVSPropertyOp41
 70
     1
102
RTVSPropertyOp42
 70
     1
102
RTVSPropertyOp43
 70
     1
102
RTVSPropertyOp44
 70
     1
102
RTVSPropertyOp45
 70
     1
102
RTVSPropertyOp46
 70
     1
102
RTVSPropertyOp47
 70
     1
102
RTVSPropertyOp48
 70
     1
102
RTVSPropertyOp49
 70
     1
102
RTVSPropertyOp50
 70
     1
102
RTVSPropertyOp51
 70
     0
102
RTVSPropertyOp52
 70
     0
102
RTVSPropertyOp53
 70
     1
102
RTVSPropertyOp54
 70
     1
102
RTVSPropertyOp55
 70
     1
102
RTVSPropertyOp56
 70
     1
102
RTVSPropertyOp57
 70
     1
102
RTVSPropertyOp58
 70
     1
102
RTVSPropertyOp59
 70
     1
102
RTVSPropertyOp60
 70
     1
102
RTVSPropertyOp61
 70
     1
102
RTVSPropertyOp62
 70
     1
  0
XRECORD
  5
1FC11
102
{ACAD_REACTORS
330
1FC10
102
}
330
1FC10
100
AcDbXrecord
280
     1
102
RTVSPost2010Prop28
280
     0
102
RTVSPost2010PropOp28
 70
     1
102
RTVSPost2010Prop29
280
     1
102
RTVSPost2010PropOp29
 70
     1
102
RTVSPost2010Prop30
280
     1
102
RTVSPost2010PropOp30
 70
     1
102
RTVSPost2010Prop31
280
     0
102
RTVSPost2010PropOp31
 70
     1
102
RTVSPost2010Prop32
280
     0
102
RTVSPost2010PropOp32
 70
     1
102
RTVSPost2010Prop33
280
     0
102
RTVSPost2010PropOp33
 70
     1
102
RTVSPost2010Prop34
280
     0
102
RTVSPost2010PropOp34
 70
     1
102
RTVSPost2010Prop35
280
     0
102
RTVSPost2010PropOp35
 70
     1
102
RTVSPost2010Prop36
280
     0
102
RTVSPost2010PropOp36
 70
     1
102
RTVSPost2010Prop37
 90
       50
102
RTVSPost2010PropOp37
 70
     1
102
RTVSPost2010Prop38
140
0.0
102
RTVSPost2010PropOp38
 70
     1
102
RTVSPost2010Prop39
140
1.0
102
RTVSPost2010PropOp39
 70
     1
102
RTVSPost2010Prop40
 90
        0
102
RTVSPost2010PropOp40
 70
     1
102
RTVSPost2010Prop41ColorIndex
 90
       18
102
RTVSPost2010Prop41ColorRGB
 90
        0
102
RTVSPost2010PropOp41
 70
     1
102
RTVSPost2010Prop42
 90
       50
102
RTVSPost2010PropOp42
 70
     1
102
RTVSPost2010Prop43
 90
        3
102
RTVSPost2010PropOp43
 70
     1
102
RTVSPost2010Prop44ColorIndex
 90
        5
102
RTVSPost2010Prop44ColorRGB
 90
      255
102
RTVSPost2010PropOp44
 70
     1
102
RTVSPost2010Prop45
280
     0
102
RTVSPost2010PropOp45
 70
     1
102
RTVSPost2010Prop46
 90
       50
102
RTVSPost2010PropOp46
 70
     1
102
RTVSPost2010Prop47
 90
       50
102
RTVSPost2010PropOp47
 70
     1
102
RTVSPost2010Prop48
 90
       50
102
RTVSPost2010PropOp48
 70
     1
102
RTVSPost2010Prop49
280
     0
102
RTVSPost2010PropOp49
 70
     1
102
RTVSPost2010Prop50
 90
       50
102
RTVSPost2010PropOp50
 70
     1
102
RTVSPost2010Prop51ColorIndex
 90
      256
102
RTVSPost2010Prop51ColorRGB
 90
-16777216
102
RTVSPost2010PropOp51
 70
     0
102
RTVSPost2010Prop52
140
1.0
102
RTVSPost2010PropOp52
 70
     0
102
RTVSPost2010Prop53
 90
        2
102
RTVSPost2010PropOp53
 70
     1
102
RTVSPost2010Prop54
  1
strokes_ogs.tif
102
RTVSPost2010PropOp54
 70
     1
102
RTVSPost2010Prop55
280
     0
102
RTVSPost2010PropOp55
 70
     1
102
RTVSPost2010Prop56
140
1.0
102
RTVSPost2010PropOp56
 70
     1
102
RTVSPost2010Prop57
140
1.0
102
RTVSPost2010PropOp57
 70
     1
102
RTVSPropertyOp0
 70
     1
102
RTVSPropertyOp1
 70
     1
102
RTVSPropertyOp2
 70
     1
102
RTVSPropertyOp3
 70
     1
102
RTVSPropertyOp4
 70
     1
102
RTVSPropertyOp5
 70
     1
102
RTVSPropertyOp6
 70
     1
102
RTVSPropertyOp7
 70
     1
102
RTVSPropertyOp8
 70
     1
102
RTVSPropertyOp9
 70
     1
102
RTVSPropertyOp10
 70
     1
102
RTVSPropertyOp11
 70
     1
102
RTVSPropertyOp12
 70
     1
102
RTVSPropertyOp13
 70
     1
102
RTVSPropertyOp14
 70
     1
102
RTVSPropertyOp15
 70
     1
102
RTVSPropertyOp16
 70
     1
102
RTVSPropertyOp17
 70
     1
102
RTVSPropertyOp18
 70
     1
102
RTVSPropertyOp19
 70
     1
102
RTVSPropertyOp20
 70
     1
102
RTVSPropertyOp21
 70
     1
102
RTVSPropertyOp22
 70
     1
102
RTVSPropertyOp23
 70
     1
102
RTVSPropertyOp24
 70
     1
102
RTVSPropertyOp25
 70
     1
102
RTVSPropertyOp26
 70
     1
102
RTVSPropertyOp27
 70
     1
102
RTVSPropertyOp28
 70
     1
102
RTVSPropertyOp29
 70
     1
102
RTVSPropertyOp30
 70
     1
102
RTVSPropertyOp31
 70
     1
102
RTVSPropertyOp32
 70
     1
102
RTVSPropertyOp33
 70
     1
102
RTVSPropertyOp34
 70
     1
102
RTVSPropertyOp35
 70
     1
102
RTVSPropertyOp36
 70
     1
102
RTVSPropertyOp37
 70
     1
102
RTVSPropertyOp38
 70
     1
102
RTVSPropertyOp39
 70
     1
102
RTVSPropertyOp40
 70
     1
102
RTVSPropertyOp41
 70
     1
102
RTVSPropertyOp42
 70
     1
102
RTVSPropertyOp43
 70
     1
102
RTVSPropertyOp44
 70
     1
102
RTVSPropertyOp45
 70
     1
102
RTVSPropertyOp46
 70
     1
102
RTVSPropertyOp47
 70
     1
102
RTVSPropertyOp48
 70
     1
102
RTVSPropertyOp49
 70
     1
102
RTVSPropertyOp50
 70
     1
102
RTVSPropertyOp51
 70
     0
102
RTVSPropertyOp52
 70
     0
102
RTVSPropertyOp53
 70
     1
102
RTVSPropertyOp54
 70
     1
102
RTVSPropertyOp55
 70
     1
102
RTVSPropertyOp56
 70
     1
102
RTVSPropertyOp57
 70
     1
102
RTVSPropertyOp58
 70
     1
102
RTVSPropertyOp59
 70
     1
102
RTVSPropertyOp60
 70
     1
102
RTVSPropertyOp61
 70
     1
102
RTVSPropertyOp62
 70
     1
  0
XRECORD
  5
1FC19
102
{ACAD_REACTORS
330
1FC18
102
}
330
1FC18
100
AcDbXrecord
280
     1
102
RTVSPost2010Prop28
280
     0
102
RTVSPost2010PropOp28
 70
     1
102
RTVSPost2010Prop29
280
     1
102
RTVSPost2010PropOp29
 70
     1
102
RTVSPost2010Prop30
280
     1
102
RTVSPost2010PropOp30
 70
     1
102
RTVSPost2010Prop31
280
     0
102
RTVSPost2010PropOp31
 70
     1
102
RTVSPost2010Prop32
280
     0
102
RTVSPost2010PropOp32
 70
     1
102
RTVSPost2010Prop33
280
     0
102
RTVSPost2010PropOp33
 70
     1
102
RTVSPost2010Prop34
280
     0
102
RTVSPost2010PropOp34
 70
     1
102
RTVSPost2010Prop35
280
     0
102
RTVSPost2010PropOp35
 70
     1
102
RTVSPost2010Prop36
280
     0
102
RTVSPost2010PropOp36
 70
     1
102
RTVSPost2010Prop37
 90
       50
102
RTVSPost2010PropOp37
 70
     1
102
RTVSPost2010Prop38
140
0.0
102
RTVSPost2010PropOp38
 70
     1
102
RTVSPost2010Prop39
140
1.0
102
RTVSPost2010PropOp39
 70
     1
102
RTVSPost2010Prop40
 90
        0
102
RTVSPost2010PropOp40
 70
     1
102
RTVSPost2010Prop41ColorIndex
 90
       18
102
RTVSPost2010Prop41ColorRGB
 90
        0
102
RTVSPost2010PropOp41
 70
     1
102
RTVSPost2010Prop42
 90
       50
102
RTVSPost2010PropOp42
 70
     1
102
RTVSPost2010Prop43
 90
        3
102
RTVSPost2010PropOp43
 70
     1
102
RTVSPost2010Prop44ColorIndex
 90
        5
102
RTVSPost2010Prop44ColorRGB
 90
      255
102
RTVSPost2010PropOp44
 70
     1
102
RTVSPost2010Prop45
280
     0
102
RTVSPost2010PropOp45
 70
     1
102
RTVSPost2010Prop46
 90
       50
102
RTVSPost2010PropOp46
 70
     1
102
RTVSPost2010Prop47
 90
       50
102
RTVSPost2010PropOp47
 70
     1
102
RTVSPost2010Prop48
 90
       50
102
RTVSPost2010PropOp48
 70
     1
102
RTVSPost2010Prop49
280
     0
102
RTVSPost2010PropOp49
 70
     1
102
RTVSPost2010Prop50
 90
       50
102
RTVSPost2010PropOp50
 70
     1
102
RTVSPost2010Prop51ColorIndex
 90
      256
102
RTVSPost2010Prop51ColorRGB
 90
-16777216
102
RTVSPost2010PropOp51
 70
     0
102
RTVSPost2010Prop52
140
1.0
102
RTVSPost2010PropOp52
 70
     0
102
RTVSPost2010Prop53
 90
        2
102
RTVSPost2010PropOp53
 70
     1
102
RTVSPost2010Prop54
  1
strokes_ogs.tif
102
RTVSPost2010PropOp54
 70
     1
102
RTVSPost2010Prop55
280
     0
102
RTVSPost2010PropOp55
 70
     1
102
RTVSPost2010Prop56
140
1.0
102
RTVSPost2010PropOp56
 70
     1
102
RTVSPost2010Prop57
140
1.0
102
RTVSPost2010PropOp57
 70
     1
102
RTVSPropertyOp0
 70
     1
102
RTVSPropertyOp1
 70
     1
102
RTVSPropertyOp2
 70
     1
102
RTVSPropertyOp3
 70
     1
102
RTVSPropertyOp4
 70
     1
102
RTVSPropertyOp5
 70
     1
102
RTVSPropertyOp6
 70
     1
102
RTVSPropertyOp7
 70
     1
102
RTVSPropertyOp8
 70
     1
102
RTVSPropertyOp9
 70
     1
102
RTVSPropertyOp10
 70
     1
102
RTVSPropertyOp11
 70
     1
102
RTVSPropertyOp12
 70
     1
102
RTVSPropertyOp13
 70
     1
102
RTVSPropertyOp14
 70
     1
102
RTVSPropertyOp15
 70
     1
102
RTVSPropertyOp16
 70
     1
102
RTVSPropertyOp17
 70
     1
102
RTVSPropertyOp18
 70
     1
102
RTVSPropertyOp19
 70
     1
102
RTVSPropertyOp20
 70
     1
102
RTVSPropertyOp21
 70
     1
102
RTVSPropertyOp22
 70
     1
102
RTVSPropertyOp23
 70
     1
102
RTVSPropertyOp24
 70
     1
102
RTVSPropertyOp25
 70
     1
102
RTVSPropertyOp26
 70
     1
102
RTVSPropertyOp27
 70
     1
102
RTVSPropertyOp28
 70
     1
102
RTVSPropertyOp29
 70
     1
102
RTVSPropertyOp30
 70
     1
102
RTVSPropertyOp31
 70
     1
102
RTVSPropertyOp32
 70
     1
102
RTVSPropertyOp33
 70
     1
102
RTVSPropertyOp34
 70
     1
102
RTVSPropertyOp35
 70
     1
102
RTVSPropertyOp36
 70
     1
102
RTVSPropertyOp37
 70
     1
102
RTVSPropertyOp38
 70
     1
102
RTVSPropertyOp39
 70
     1
102
RTVSPropertyOp40
 70
     1
102
RTVSPropertyOp41
 70
     1
102
RTVSPropertyOp42
 70
     1
102
RTVSPropertyOp43
 70
     1
102
RTVSPropertyOp44
 70
     1
102
RTVSPropertyOp45
 70
     1
102
RTVSPropertyOp46
 70
     1
102
RTVSPropertyOp47
 70
     1
102
RTVSPropertyOp48
 70
     1
102
RTVSPropertyOp49
 70
     1
102
RTVSPropertyOp50
 70
     1
102
RTVSPropertyOp51
 70
     0
102
RTVSPropertyOp52
 70
     0
102
RTVSPropertyOp53
 70
     1
102
RTVSPropertyOp54
 70
     1
102
RTVSPropertyOp55
 70
     1
102
RTVSPropertyOp56
 70
     1
102
RTVSPropertyOp57
 70
     1
102
RTVSPropertyOp58
 70
     1
102
RTVSPropertyOp59
 70
     1
102
RTVSPropertyOp60
 70
     1
102
RTVSPropertyOp61
 70
     1
102
RTVSPropertyOp62
 70
     1
  0
XRECORD
  5
1FC35
102
{ACAD_REACTORS
330
1FC34
102
}
330
1FC34
100
AcDbXrecord
280
     1
102
RTVSPost2010Prop28
280
     0
102
RTVSPost2010PropOp28
 70
     1
102
RTVSPost2010Prop29
280
     1
102
RTVSPost2010PropOp29
 70
     1
102
RTVSPost2010Prop30
280
     1
102
RTVSPost2010PropOp30
 70
     1
102
RTVSPost2010Prop31
280
     0
102
RTVSPost2010PropOp31
 70
     1
102
RTVSPost2010Prop32
280
     0
102
RTVSPost2010PropOp32
 70
     1
102
RTVSPost2010Prop33
280
     0
102
RTVSPost2010PropOp33
 70
     1
102
RTVSPost2010Prop34
280
     0
102
RTVSPost2010PropOp34
 70
     1
102
RTVSPost2010Prop35
280
     0
102
RTVSPost2010PropOp35
 70
     1
102
RTVSPost2010Prop36
280
     0
102
RTVSPost2010PropOp36
 70
     1
102
RTVSPost2010Prop37
 90
       50
102
RTVSPost2010PropOp37
 70
     0
102
RTVSPost2010Prop38
140
0.0
102
RTVSPost2010PropOp38
 70
     0
102
RTVSPost2010Prop39
140
1.0
102
RTVSPost2010PropOp39
 70
     0
102
RTVSPost2010Prop40
 90
        0
102
RTVSPost2010PropOp40
 70
     0
102
RTVSPost2010Prop41ColorIndex
 90
       18
102
RTVSPost2010Prop41ColorRGB
 90
        0
102
RTVSPost2010PropOp41
 70
     0
102
RTVSPost2010Prop42
 90
       50
102
RTVSPost2010PropOp42
 70
     0
102
RTVSPost2010Prop43
 90
        3
102
RTVSPost2010PropOp43
 70
     0
102
RTVSPost2010Prop44ColorIndex
 90
        5
102
RTVSPost2010Prop44ColorRGB
 90
      255
102
RTVSPost2010PropOp44
 70
     0
102
RTVSPost2010Prop45
280
     0
102
RTVSPost2010PropOp45
 70
     1
102
RTVSPost2010Prop46
 90
       50
102
RTVSPost2010PropOp46
 70
     0
102
RTVSPost2010Prop47
 90
       50
102
RTVSPost2010PropOp47
 70
     0
102
RTVSPost2010Prop48
 90
       50
102
RTVSPost2010PropOp48
 70
     0
102
RTVSPost2010Prop49
280
     0
102
RTVSPost2010PropOp49
 70
     1
102
RTVSPost2010Prop50
 90
       50
102
RTVSPost2010PropOp50
 70
     0
102
RTVSPost2010Prop51ColorIndex
 90
      256
102
RTVSPost2010Prop51ColorRGB
 90
-16777216
102
RTVSPost2010PropOp51
 70
     0
102
RTVSPost2010Prop52
140
1.0
102
RTVSPost2010PropOp52
 70
     0
102
RTVSPost2010Prop53
 90
        2
102
RTVSPost2010PropOp53
 70
     0
102
RTVSPost2010Prop54
  1
strokes_ogs.tif
102
RTVSPost2010PropOp54
 70
     0
102
RTVSPost2010Prop55
280
     0
102
RTVSPost2010PropOp55
 70
     1
102
RTVSPost2010Prop56
140
1.0
102
RTVSPost2010PropOp56
 70
     0
102
RTVSPost2010Prop57
140
1.0
102
RTVSPost2010PropOp57
 70
     0
102
RTVSPropertyOp0
 70
     0
102
RTVSPropertyOp1
 70
     0
102
RTVSPropertyOp2
 70
     0
102
RTVSPropertyOp3
 70
     0
102
RTVSPropertyOp4
 70
     0
102
RTVSPropertyOp5
 70
     0
102
RTVSPropertyOp6
 70
     0
102
RTVSPropertyOp7
 70
     0
102
RTVSPropertyOp8
 70
     0
102
RTVSPropertyOp9
 70
     0
102
RTVSPropertyOp10
 70
     0
102
RTVSPropertyOp11
 70
     0
102
RTVSPropertyOp12
 70
     0
102
RTVSPropertyOp13
 70
     0
102
RTVSPropertyOp14
 70
     2
102
RTVSPropertyOp15
 70
     0
102
RTVSPropertyOp16
 70
     0
102
RTVSPropertyOp17
 70
     0
102
RTVSPropertyOp18
 70
     0
102
RTVSPropertyOp19
 70
     0
102
RTVSPropertyOp20
 70
     0
102
RTVSPropertyOp21
 70
     0
102
RTVSPropertyOp22
 70
     0
102
RTVSPropertyOp23
 70
     0
102
RTVSPropertyOp24
 70
     0
102
RTVSPropertyOp25
 70
     0
102
RTVSPropertyOp26
 70
     0
102
RTVSPropertyOp27
 70
     0
102
RTVSPropertyOp28
 70
     1
102
RTVSPropertyOp29
 70
     1
102
RTVSPropertyOp30
 70
     1
102
RTVSPropertyOp31
 70
     1
102
RTVSPropertyOp32
 70
     1
102
RTVSPropertyOp33
 70
     1
102
RTVSPropertyOp34
 70
     1
102
RTVSPropertyOp35
 70
     1
102
RTVSPropertyOp36
 70
     1
102
RTVSPropertyOp37
 70
     0
102
RTVSPropertyOp38
 70
     0
102
RTVSPropertyOp39
 70
     0
102
RTVSPropertyOp40
 70
     0
102
RTVSPropertyOp41
 70
     0
102
RTVSPropertyOp42
 70
     0
102
RTVSPropertyOp43
 70
     0
102
RTVSPropertyOp44
 70
     0
102
RTVSPropertyOp45
 70
     1
102
RTVSPropertyOp46
 70
     0
102
RTVSPropertyOp47
 70
     0
102
RTVSPropertyOp48
 70
     0
102
RTVSPropertyOp49
 70
     1
102
RTVSPropertyOp50
 70
     0
102
RTVSPropertyOp51
 70
     0
102
RTVSPropertyOp52
 70
     0
102
RTVSPropertyOp53
 70
     0
102
RTVSPropertyOp54
 70
     0
102
RTVSPropertyOp55
 70
     1
102
RTVSPropertyOp56
 70
     0
102
RTVSPropertyOp57
 70
     0
102
RTVSPropertyOp58
 70
     1
102
RTVSPropertyOp59
 70
     1
102
RTVSPropertyOp60
 70
     1
102
RTVSPropertyOp61
 70
     1
102
RTVSPropertyOp62
 70
     1
  0
XRECORD
  5
1FC25
102
{ACAD_REACTORS
330
1FC24
102
}
330
1FC24
100
AcDbXrecord
280
     1
102
RTVSPost2010Prop28
280
     0
102
RTVSPost2010PropOp28
 70
     1
102
RTVSPost2010Prop29
280
     1
102
RTVSPost2010PropOp29
 70
     1
102
RTVSPost2010Prop30
280
     1
102
RTVSPost2010PropOp30
 70
     1
102
RTVSPost2010Prop31
280
     0
102
RTVSPost2010PropOp31
 70
     1
102
RTVSPost2010Prop32
280
     0
102
RTVSPost2010PropOp32
 70
     1
102
RTVSPost2010Prop33
280
     0
102
RTVSPost2010PropOp33
 70
     1
102
RTVSPost2010Prop34
280
     0
102
RTVSPost2010PropOp34
 70
     1
102
RTVSPost2010Prop35
280
     0
102
RTVSPost2010PropOp35
 70
     1
102
RTVSPost2010Prop36
280
     0
102
RTVSPost2010PropOp36
 70
     1
102
RTVSPost2010Prop37
 90
       50
102
RTVSPost2010PropOp37
 70
     1
102
RTVSPost2010Prop38
140
0.0
102
RTVSPost2010PropOp38
 70
     1
102
RTVSPost2010Prop39
140
1.0
102
RTVSPost2010PropOp39
 70
     1
102
RTVSPost2010Prop40
 90
        0
102
RTVSPost2010PropOp40
 70
     1
102
RTVSPost2010Prop41ColorIndex
 90
       18
102
RTVSPost2010Prop41ColorRGB
 90
        0
102
RTVSPost2010PropOp41
 70
     1
102
RTVSPost2010Prop42
 90
       50
102
RTVSPost2010PropOp42
 70
     1
102
RTVSPost2010Prop43
 90
        3
102
RTVSPost2010PropOp43
 70
     1
102
RTVSPost2010Prop44ColorIndex
 90
        5
102
RTVSPost2010Prop44ColorRGB
 90
      255
102
RTVSPost2010PropOp44
 70
     1
102
RTVSPost2010Prop45
280
     0
102
RTVSPost2010PropOp45
 70
     1
102
RTVSPost2010Prop46
 90
       50
102
RTVSPost2010PropOp46
 70
     1
102
RTVSPost2010Prop47
 90
       50
102
RTVSPost2010PropOp47
 70
     1
102
RTVSPost2010Prop48
 90
       50
102
RTVSPost2010PropOp48
 70
     1
102
RTVSPost2010Prop49
280
     0
102
RTVSPost2010PropOp49
 70
     1
102
RTVSPost2010Prop50
 90
       50
102
RTVSPost2010PropOp50
 70
     1
102
RTVSPost2010Prop51ColorIndex
 90
      256
102
RTVSPost2010Prop51ColorRGB
 90
-16777216
102
RTVSPost2010PropOp51
 70
     0
102
RTVSPost2010Prop52
140
1.0
102
RTVSPost2010PropOp52
 70
     0
102
RTVSPost2010Prop53
 90
        2
102
RTVSPost2010PropOp53
 70
     1
102
RTVSPost2010Prop54
  1
strokes_ogs.tif
102
RTVSPost2010PropOp54
 70
     1
102
RTVSPost2010Prop55
280
     0
102
RTVSPost2010PropOp55
 70
     1
102
RTVSPost2010Prop56
140
1.0
102
RTVSPost2010PropOp56
 70
     1
102
RTVSPost2010Prop57
140
1.0
102
RTVSPost2010PropOp57
 70
     1
102
RTVSPropertyOp0
 70
     1
102
RTVSPropertyOp1
 70
     1
102
RTVSPropertyOp2
 70
     1
102
RTVSPropertyOp3
 70
     1
102
RTVSPropertyOp4
 70
     1
102
RTVSPropertyOp5
 70
     1
102
RTVSPropertyOp6
 70
     1
102
RTVSPropertyOp7
 70
     1
102
RTVSPropertyOp8
 70
     1
102
RTVSPropertyOp9
 70
     1
102
RTVSPropertyOp10
 70
     1
102
RTVSPropertyOp11
 70
     1
102
RTVSPropertyOp12
 70
     1
102
RTVSPropertyOp13
 70
     1
102
RTVSPropertyOp14
 70
     1
102
RTVSPropertyOp15
 70
     1
102
RTVSPropertyOp16
 70
     1
102
RTVSPropertyOp17
 70
     1
102
RTVSPropertyOp18
 70
     1
102
RTVSPropertyOp19
 70
     1
102
RTVSPropertyOp20
 70
     1
102
RTVSPropertyOp21
 70
     1
102
RTVSPropertyOp22
 70
     1
102
RTVSPropertyOp23
 70
     1
102
RTVSPropertyOp24
 70
     1
102
RTVSPropertyOp25
 70
     1
102
RTVSPropertyOp26
 70
     1
102
RTVSPropertyOp27
 70
     1
102
RTVSPropertyOp28
 70
     1
102
RTVSPropertyOp29
 70
     1
102
RTVSPropertyOp30
 70
     1
102
RTVSPropertyOp31
 70
     1
102
RTVSPropertyOp32
 70
     1
102
RTVSPropertyOp33
 70
     1
102
RTVSPropertyOp34
 70
     1
102
RTVSPropertyOp35
 70
     1
102
RTVSPropertyOp36
 70
     1
102
RTVSPropertyOp37
 70
     1
102
RTVSPropertyOp38
 70
     1
102
RTVSPropertyOp39
 70
     1
102
RTVSPropertyOp40
 70
     1
102
RTVSPropertyOp41
 70
     1
102
RTVSPropertyOp42
 70
     1
102
RTVSPropertyOp43
 70
     1
102
RTVSPropertyOp44
 70
     1
102
RTVSPropertyOp45
 70
     1
102
RTVSPropertyOp46
 70
     1
102
RTVSPropertyOp47
 70
     1
102
RTVSPropertyOp48
 70
     1
102
RTVSPropertyOp49
 70
     1
102
RTVSPropertyOp50
 70
     1
102
RTVSPropertyOp51
 70
     0
102
RTVSPropertyOp52
 70
     0
102
RTVSPropertyOp53
 70
     1
102
RTVSPropertyOp54
 70
     1
102
RTVSPropertyOp55
 70
     1
102
RTVSPropertyOp56
 70
     1
102
RTVSPropertyOp57
 70
     1
102
RTVSPropertyOp58
 70
     1
102
RTVSPropertyOp59
 70
     1
102
RTVSPropertyOp60
 70
     1
102
RTVSPropertyOp61
 70
     1
102
RTVSPropertyOp62
 70
     1
  0
XRECORD
  5
1FC37
102
{ACAD_REACTORS
330
1FC36
102
}
330
1FC36
100
AcDbXrecord
280
     1
102
RTVSPost2010Prop28
280
     0
102
RTVSPost2010PropOp28
 70
     1
102
RTVSPost2010Prop29
280
     1
102
RTVSPost2010PropOp29
 70
     1
102
RTVSPost2010Prop30
280
     1
102
RTVSPost2010PropOp30
 70
     1
102
RTVSPost2010Prop31
280
     0
102
RTVSPost2010PropOp31
 70
     1
102
RTVSPost2010Prop32
280
     0
102
RTVSPost2010PropOp32
 70
     1
102
RTVSPost2010Prop33
280
     0
102
RTVSPost2010PropOp33
 70
     1
102
RTVSPost2010Prop34
280
     0
102
RTVSPost2010PropOp34
 70
     1
102
RTVSPost2010Prop35
280
     0
102
RTVSPost2010PropOp35
 70
     1
102
RTVSPost2010Prop36
280
     0
102
RTVSPost2010PropOp36
 70
     1
102
RTVSPost2010Prop37
 90
       50
102
RTVSPost2010PropOp37
 70
     0
102
RTVSPost2010Prop38
140
0.0
102
RTVSPost2010PropOp38
 70
     0
102
RTVSPost2010Prop39
140
1.0
102
RTVSPost2010PropOp39
 70
     0
102
RTVSPost2010Prop40
 90
        0
102
RTVSPost2010PropOp40
 70
     0
102
RTVSPost2010Prop41ColorIndex
 90
       18
102
RTVSPost2010Prop41ColorRGB
 90
        0
102
RTVSPost2010PropOp41
 70
     0
102
RTVSPost2010Prop42
 90
       50
102
RTVSPost2010PropOp42
 70
     0
102
RTVSPost2010Prop43
 90
        3
102
RTVSPost2010PropOp43
 70
     0
102
RTVSPost2010Prop44ColorIndex
 90
        5
102
RTVSPost2010Prop44ColorRGB
 90
      255
102
RTVSPost2010PropOp44
 70
     0
102
RTVSPost2010Prop45
280
     0
102
RTVSPost2010PropOp45
 70
     1
102
RTVSPost2010Prop46
 90
       50
102
RTVSPost2010PropOp46
 70
     0
102
RTVSPost2010Prop47
 90
       50
102
RTVSPost2010PropOp47
 70
     0
102
RTVSPost2010Prop48
 90
       50
102
RTVSPost2010PropOp48
 70
     0
102
RTVSPost2010Prop49
280
     0
102
RTVSPost2010PropOp49
 70
     1
102
RTVSPost2010Prop50
 90
       50
102
RTVSPost2010PropOp50
 70
     0
102
RTVSPost2010Prop51ColorIndex
 90
      256
102
RTVSPost2010Prop51ColorRGB
 90
-16777216
102
RTVSPost2010PropOp51
 70
     0
102
RTVSPost2010Prop52
140
1.0
102
RTVSPost2010PropOp52
 70
     0
102
RTVSPost2010Prop53
 90
        2
102
RTVSPost2010PropOp53
 70
     0
102
RTVSPost2010Prop54
  1
strokes_ogs.tif
102
RTVSPost2010PropOp54
 70
     0
102
RTVSPost2010Prop55
280
     0
102
RTVSPost2010PropOp55
 70
     1
102
RTVSPost2010Prop56
140
1.0
102
RTVSPost2010PropOp56
 70
     0
102
RTVSPost2010Prop57
140
1.0
102
RTVSPost2010PropOp57
 70
     0
102
RTVSPropertyOp0
 70
     0
102
RTVSPropertyOp1
 70
     0
102
RTVSPropertyOp2
 70
     0
102
RTVSPropertyOp3
 70
     0
102
RTVSPropertyOp4
 70
     0
102
RTVSPropertyOp5
 70
     0
102
RTVSPropertyOp6
 70
     0
102
RTVSPropertyOp7
 70
     0
102
RTVSPropertyOp8
 70
     0
102
RTVSPropertyOp9
 70
     0
102
RTVSPropertyOp10
 70
     0
102
RTVSPropertyOp11
 70
     0
102
RTVSPropertyOp12
 70
     0
102
RTVSPropertyOp13
 70
     0
102
RTVSPropertyOp14
 70
     2
102
RTVSPropertyOp15
 70
     0
102
RTVSPropertyOp16
 70
     0
102
RTVSPropertyOp17
 70
     0
102
RTVSPropertyOp18
 70
     0
102
RTVSPropertyOp19
 70
     0
102
RTVSPropertyOp20
 70
     0
102
RTVSPropertyOp21
 70
     0
102
RTVSPropertyOp22
 70
     0
102
RTVSPropertyOp23
 70
     0
102
RTVSPropertyOp24
 70
     0
102
RTVSPropertyOp25
 70
     0
102
RTVSPropertyOp26
 70
     0
102
RTVSPropertyOp27
 70
     0
102
RTVSPropertyOp28
 70
     1
102
RTVSPropertyOp29
 70
     1
102
RTVSPropertyOp30
 70
     1
102
RTVSPropertyOp31
 70
     1
102
RTVSPropertyOp32
 70
     1
102
RTVSPropertyOp33
 70
     1
102
RTVSPropertyOp34
 70
     1
102
RTVSPropertyOp35
 70
     1
102
RTVSPropertyOp36
 70
     1
102
RTVSPropertyOp37
 70
     0
102
RTVSPropertyOp38
 70
     0
102
RTVSPropertyOp39
 70
     0
102
RTVSPropertyOp40
 70
     0
102
RTVSPropertyOp41
 70
     0
102
RTVSPropertyOp42
 70
     0
102
RTVSPropertyOp43
 70
     0
102
RTVSPropertyOp44
 70
     0
102
RTVSPropertyOp45
 70
     1
102
RTVSPropertyOp46
 70
     0
102
RTVSPropertyOp47
 70
     0
102
RTVSPropertyOp48
 70
     0
102
RTVSPropertyOp49
 70
     1
102
RTVSPropertyOp50
 70
     0
102
RTVSPropertyOp51
 70
     0
102
RTVSPropertyOp52
 70
     0
102
RTVSPropertyOp53
 70
     0
102
RTVSPropertyOp54
 70
     0
102
RTVSPropertyOp55
 70
     1
102
RTVSPropertyOp56
 70
     0
102
RTVSPropertyOp57
 70
     0
102
RTVSPropertyOp58
 70
     1
102
RTVSPropertyOp59
 70
     1
102
RTVSPropertyOp60
 70
     1
102
RTVSPropertyOp61
 70
     1
102
RTVSPropertyOp62
 70
     1
  0
XRECORD
  5
1FC1D
102
{ACAD_REACTORS
330
1FC1C
102
}
330
1FC1C
100
AcDbXrecord
280
     1
102
RTVSPost2010Prop28
280
     0
102
RTVSPost2010PropOp28
 70
     1
102
RTVSPost2010Prop29
280
     1
102
RTVSPost2010PropOp29
 70
     1
102
RTVSPost2010Prop30
280
     1
102
RTVSPost2010PropOp30
 70
     1
102
RTVSPost2010Prop31
280
     0
102
RTVSPost2010PropOp31
 70
     1
102
RTVSPost2010Prop32
280
     0
102
RTVSPost2010PropOp32
 70
     1
102
RTVSPost2010Prop33
280
     0
102
RTVSPost2010PropOp33
 70
     1
102
RTVSPost2010Prop34
280
     0
102
RTVSPost2010PropOp34
 70
     1
102
RTVSPost2010Prop35
280
     0
102
RTVSPost2010PropOp35
 70
     1
102
RTVSPost2010Prop36
280
     0
102
RTVSPost2010PropOp36
 70
     1
102
RTVSPost2010Prop37
 90
       50
102
RTVSPost2010PropOp37
 70
     1
102
RTVSPost2010Prop38
140
0.0
102
RTVSPost2010PropOp38
 70
     1
102
RTVSPost2010Prop39
140
1.0
102
RTVSPost2010PropOp39
 70
     1
102
RTVSPost2010Prop40
 90
        0
102
RTVSPost2010PropOp40
 70
     1
102
RTVSPost2010Prop41ColorIndex
 90
       18
102
RTVSPost2010Prop41ColorRGB
 90
        0
102
RTVSPost2010PropOp41
 70
     1
102
RTVSPost2010Prop42
 90
       50
102
RTVSPost2010PropOp42
 70
     1
102
RTVSPost2010Prop43
 90
        3
102
RTVSPost2010PropOp43
 70
     1
102
RTVSPost2010Prop44ColorIndex
 90
        5
102
RTVSPost2010Prop44ColorRGB
 90
      255
102
RTVSPost2010PropOp44
 70
     1
102
RTVSPost2010Prop45
280
     0
102
RTVSPost2010PropOp45
 70
     1
102
RTVSPost2010Prop46
 90
       50
102
RTVSPost2010PropOp46
 70
     1
102
RTVSPost2010Prop47
 90
       50
102
RTVSPost2010PropOp47
 70
     1
102
RTVSPost2010Prop48
 90
       50
102
RTVSPost2010PropOp48
 70
     1
102
RTVSPost2010Prop49
280
     0
102
RTVSPost2010PropOp49
 70
     1
102
RTVSPost2010Prop50
 90
       50
102
RTVSPost2010PropOp50
 70
     1
102
RTVSPost2010Prop51ColorIndex
 90
      256
102
RTVSPost2010Prop51ColorRGB
 90
-16777216
102
RTVSPost2010PropOp51
 70
     0
102
RTVSPost2010Prop52
140
1.0
102
RTVSPost2010PropOp52
 70
     0
102
RTVSPost2010Prop53
 90
        2
102
RTVSPost2010PropOp53
 70
     1
102
RTVSPost2010Prop54
  1
strokes_ogs.tif
102
RTVSPost2010PropOp54
 70
     1
102
RTVSPost2010Prop55
280
     0
102
RTVSPost2010PropOp55
 70
     1
102
RTVSPost2010Prop56
140
1.0
102
RTVSPost2010PropOp56
 70
     1
102
RTVSPost2010Prop57
140
1.0
102
RTVSPost2010PropOp57
 70
     1
102
RTVSPropertyOp0
 70
     1
102
RTVSPropertyOp1
 70
     1
102
RTVSPropertyOp2
 70
     1
102
RTVSPropertyOp3
 70
     1
102
RTVSPropertyOp4
 70
     1
102
RTVSPropertyOp5
 70
     1
102
RTVSPropertyOp6
 70
     1
102
RTVSPropertyOp7
 70
     1
102
RTVSPropertyOp8
 70
     1
102
RTVSPropertyOp9
 70
     1
102
RTVSPropertyOp10
 70
     1
102
RTVSPropertyOp11
 70
     1
102
RTVSPropertyOp12
 70
     1
102
RTVSPropertyOp13
 70
     1
102
RTVSPropertyOp14
 70
     1
102
RTVSPropertyOp15
 70
     1
102
RTVSPropertyOp16
 70
     1
102
RTVSPropertyOp17
 70
     1
102
RTVSPropertyOp18
 70
     1
102
RTVSPropertyOp19
 70
     1
102
RTVSPropertyOp20
 70
     1
102
RTVSPropertyOp21
 70
     1
102
RTVSPropertyOp22
 70
     1
102
RTVSPropertyOp23
 70
     1
102
RTVSPropertyOp24
 70
     1
102
RTVSPropertyOp25
 70
     1
102
RTVSPropertyOp26
 70
     1
102
RTVSPropertyOp27
 70
     1
102
RTVSPropertyOp28
 70
     1
102
RTVSPropertyOp29
 70
     1
102
RTVSPropertyOp30
 70
     1
102
RTVSPropertyOp31
 70
     1
102
RTVSPropertyOp32
 70
     1
102
RTVSPropertyOp33
 70
     1
102
RTVSPropertyOp34
 70
     1
102
RTVSPropertyOp35
 70
     1
102
RTVSPropertyOp36
 70
     1
102
RTVSPropertyOp37
 70
     1
102
RTVSPropertyOp38
 70
     1
102
RTVSPropertyOp39
 70
     1
102
RTVSPropertyOp40
 70
     1
102
RTVSPropertyOp41
 70
     1
102
RTVSPropertyOp42
 70
     1
102
RTVSPropertyOp43
 70
     1
102
RTVSPropertyOp44
 70
     1
102
RTVSPropertyOp45
 70
     1
102
RTVSPropertyOp46
 70
     1
102
RTVSPropertyOp47
 70
     1
102
RTVSPropertyOp48
 70
     1
102
RTVSPropertyOp49
 70
     1
102
RTVSPropertyOp50
 70
     1
102
RTVSPropertyOp51
 70
     0
102
RTVSPropertyOp52
 70
     0
102
RTVSPropertyOp53
 70
     1
102
RTVSPropertyOp54
 70
     1
102
RTVSPropertyOp55
 70
     1
102
RTVSPropertyOp56
 70
     1
102
RTVSPropertyOp57
 70
     1
102
RTVSPropertyOp58
 70
     1
102
RTVSPropertyOp59
 70
     1
102
RTVSPropertyOp60
 70
     1
102
RTVSPropertyOp61
 70
     1
102
RTVSPropertyOp62
 70
     1
  0
XRECORD
  5
1FC33
102
{ACAD_REACTORS
330
1FC32
102
}
330
1FC32
100
AcDbXrecord
280
     1
102
RTVSPost2010Prop28
280
     0
102
RTVSPost2010PropOp28
 70
     1
102
RTVSPost2010Prop29
280
     1
102
RTVSPost2010PropOp29
 70
     1
102
RTVSPost2010Prop30
280
     1
102
RTVSPost2010PropOp30
 70
     1
102
RTVSPost2010Prop31
280
     0
102
RTVSPost2010PropOp31
 70
     1
102
RTVSPost2010Prop32
280
     0
102
RTVSPost2010PropOp32
 70
     1
102
RTVSPost2010Prop33
280
     0
102
RTVSPost2010PropOp33
 70
     1
102
RTVSPost2010Prop34
280
     0
102
RTVSPost2010PropOp34
 70
     1
102
RTVSPost2010Prop35
280
     0
102
RTVSPost2010PropOp35
 70
     1
102
RTVSPost2010Prop36
280
     0
102
RTVSPost2010PropOp36
 70
     1
102
RTVSPost2010Prop37
 90
       50
102
RTVSPost2010PropOp37
 70
     1
102
RTVSPost2010Prop38
140
0.0
102
RTVSPost2010PropOp38
 70
     1
102
RTVSPost2010Prop39
140
1.0
102
RTVSPost2010PropOp39
 70
     1
102
RTVSPost2010Prop40
 90
        0
102
RTVSPost2010PropOp40
 70
     1
102
RTVSPost2010Prop41ColorIndex
 90
       18
102
RTVSPost2010Prop41ColorRGB
 90
        0
102
RTVSPost2010PropOp41
 70
     1
102
RTVSPost2010Prop42
 90
       50
102
RTVSPost2010PropOp42
 70
     1
102
RTVSPost2010Prop43
 90
        3
102
RTVSPost2010PropOp43
 70
     1
102
RTVSPost2010Prop44ColorIndex
 90
        5
102
RTVSPost2010Prop44ColorRGB
 90
      255
102
RTVSPost2010PropOp44
 70
     1
102
RTVSPost2010Prop45
280
     0
102
RTVSPost2010PropOp45
 70
     1
102
RTVSPost2010Prop46
 90
       50
102
RTVSPost2010PropOp46
 70
     1
102
RTVSPost2010Prop47
 90
       50
102
RTVSPost2010PropOp47
 70
     1
102
RTVSPost2010Prop48
 90
       50
102
RTVSPost2010PropOp48
 70
     1
102
RTVSPost2010Prop49
280
     0
102
RTVSPost2010PropOp49
 70
     1
102
RTVSPost2010Prop50
 90
       50
102
RTVSPost2010PropOp50
 70
     1
102
RTVSPost2010Prop51ColorIndex
 90
      256
102
RTVSPost2010Prop51ColorRGB
 90
-16777216
102
RTVSPost2010PropOp51
 70
     0
102
RTVSPost2010Prop52
140
1.0
102
RTVSPost2010PropOp52
 70
     0
102
RTVSPost2010Prop53
 90
        2
102
RTVSPost2010PropOp53
 70
     1
102
RTVSPost2010Prop54
  1
strokes_ogs.tif
102
RTVSPost2010PropOp54
 70
     1
102
RTVSPost2010Prop55
280
     0
102
RTVSPost2010PropOp55
 70
     1
102
RTVSPost2010Prop56
140
1.0
102
RTVSPost2010PropOp56
 70
     1
102
RTVSPost2010Prop57
140
1.0
102
RTVSPost2010PropOp57
 70
     1
102
RTVSPropertyOp0
 70
     1
102
RTVSPropertyOp1
 70
     1
102
RTVSPropertyOp2
 70
     1
102
RTVSPropertyOp3
 70
     1
102
RTVSPropertyOp4
 70
     1
102
RTVSPropertyOp5
 70
     1
102
RTVSPropertyOp6
 70
     1
102
RTVSPropertyOp7
 70
     1
102
RTVSPropertyOp8
 70
     1
102
RTVSPropertyOp9
 70
     1
102
RTVSPropertyOp10
 70
     1
102
RTVSPropertyOp11
 70
     1
102
RTVSPropertyOp12
 70
     1
102
RTVSPropertyOp13
 70
     1
102
RTVSPropertyOp14
 70
     1
102
RTVSPropertyOp15
 70
     1
102
RTVSPropertyOp16
 70
     1
102
RTVSPropertyOp17
 70
     1
102
RTVSPropertyOp18
 70
     1
102
RTVSPropertyOp19
 70
     1
102
RTVSPropertyOp20
 70
     1
102
RTVSPropertyOp21
 70
     1
102
RTVSPropertyOp22
 70
     1
102
RTVSPropertyOp23
 70
     1
102
RTVSPropertyOp24
 70
     1
102
RTVSPropertyOp25
 70
     1
102
RTVSPropertyOp26
 70
     1
102
RTVSPropertyOp27
 70
     1
102
RTVSPropertyOp28
 70
     1
102
RTVSPropertyOp29
 70
     1
102
RTVSPropertyOp30
 70
     1
102
RTVSPropertyOp31
 70
     1
102
RTVSPropertyOp32
 70
     1
102
RTVSPropertyOp33
 70
     1
102
RTVSPropertyOp34
 70
     1
102
RTVSPropertyOp35
 70
     1
102
RTVSPropertyOp36
 70
     1
102
RTVSPropertyOp37
 70
     1
102
RTVSPropertyOp38
 70
     1
102
RTVSPropertyOp39
 70
     1
102
RTVSPropertyOp40
 70
     1
102
RTVSPropertyOp41
 70
     1
102
RTVSPropertyOp42
 70
     1
102
RTVSPropertyOp43
 70
     1
102
RTVSPropertyOp44
 70
     1
102
RTVSPropertyOp45
 70
     1
102
RTVSPropertyOp46
 70
     1
102
RTVSPropertyOp47
 70
     1
102
RTVSPropertyOp48
 70
     1
102
RTVSPropertyOp49
 70
     1
102
RTVSPropertyOp50
 70
     1
102
RTVSPropertyOp51
 70
     0
102
RTVSPropertyOp52
 70
     0
102
RTVSPropertyOp53
 70
     1
102
RTVSPropertyOp54
 70
     1
102
RTVSPropertyOp55
 70
     1
102
RTVSPropertyOp56
 70
     1
102
RTVSPropertyOp57
 70
     1
102
RTVSPropertyOp58
 70
     1
102
RTVSPropertyOp59
 70
     1
102
RTVSPropertyOp60
 70
     1
102
RTVSPropertyOp61
 70
     1
102
RTVSPropertyOp62
 70
     1
  0
XRECORD
  5
1FC31
102
{ACAD_REACTORS
330
1FC30
102
}
330
1FC30
100
AcDbXrecord
280
     1
102
RTVSPost2010Prop28
280
     0
102
RTVSPost2010PropOp28
 70
     1
102
RTVSPost2010Prop29
280
     1
102
RTVSPost2010PropOp29
 70
     1
102
RTVSPost2010Prop30
280
     1
102
RTVSPost2010PropOp30
 70
     1
102
RTVSPost2010Prop31
280
     0
102
RTVSPost2010PropOp31
 70
     1
102
RTVSPost2010Prop32
280
     0
102
RTVSPost2010PropOp32
 70
     1
102
RTVSPost2010Prop33
280
     0
102
RTVSPost2010PropOp33
 70
     1
102
RTVSPost2010Prop34
280
     0
102
RTVSPost2010PropOp34
 70
     1
102
RTVSPost2010Prop35
280
     0
102
RTVSPost2010PropOp35
 70
     1
102
RTVSPost2010Prop36
280
     0
102
RTVSPost2010PropOp36
 70
     1
102
RTVSPost2010Prop37
 90
       50
102
RTVSPost2010PropOp37
 70
     1
102
RTVSPost2010Prop38
140
0.0
102
RTVSPost2010PropOp38
 70
     1
102
RTVSPost2010Prop39
140
1.0
102
RTVSPost2010PropOp39
 70
     1
102
RTVSPost2010Prop40
 90
        0
102
RTVSPost2010PropOp40
 70
     1
102
RTVSPost2010Prop41ColorIndex
 90
       18
102
RTVSPost2010Prop41ColorRGB
 90
        0
102
RTVSPost2010PropOp41
 70
     1
102
RTVSPost2010Prop42
 90
       50
102
RTVSPost2010PropOp42
 70
     1
102
RTVSPost2010Prop43
 90
        3
102
RTVSPost2010PropOp43
 70
     1
102
RTVSPost2010Prop44ColorIndex
 90
        5
102
RTVSPost2010Prop44ColorRGB
 90
      255
102
RTVSPost2010PropOp44
 70
     1
102
RTVSPost2010Prop45
280
     0
102
RTVSPost2010PropOp45
 70
     1
102
RTVSPost2010Prop46
 90
       50
102
RTVSPost2010PropOp46
 70
     1
102
RTVSPost2010Prop47
 90
       50
102
RTVSPost2010PropOp47
 70
     1
102
RTVSPost2010Prop48
 90
       50
102
RTVSPost2010PropOp48
 70
     1
102
RTVSPost2010Prop49
280
     0
102
RTVSPost2010PropOp49
 70
     1
102
RTVSPost2010Prop50
 90
       50
102
RTVSPost2010PropOp50
 70
     1
102
RTVSPost2010Prop51ColorIndex
 90
      256
102
RTVSPost2010Prop51ColorRGB
 90
-16777216
102
RTVSPost2010PropOp51
 70
     0
102
RTVSPost2010Prop52
140
1.0
102
RTVSPost2010PropOp52
 70
     0
102
RTVSPost2010Prop53
 90
        2
102
RTVSPost2010PropOp53
 70
     1
102
RTVSPost2010Prop54
  1
strokes_ogs.tif
102
RTVSPost2010PropOp54
 70
     1
102
RTVSPost2010Prop55
280
     0
102
RTVSPost2010PropOp55
 70
     1
102
RTVSPost2010Prop56
140
1.0
102
RTVSPost2010PropOp56
 70
     1
102
RTVSPost2010Prop57
140
1.0
102
RTVSPost2010PropOp57
 70
     1
102
RTVSPropertyOp0
 70
     1
102
RTVSPropertyOp1
 70
     1
102
RTVSPropertyOp2
 70
     1
102
RTVSPropertyOp3
 70
     1
102
RTVSPropertyOp4
 70
     1
102
RTVSPropertyOp5
 70
     1
102
RTVSPropertyOp6
 70
     1
102
RTVSPropertyOp7
 70
     1
102
RTVSPropertyOp8
 70
     1
102
RTVSPropertyOp9
 70
     1
102
RTVSPropertyOp10
 70
     1
102
RTVSPropertyOp11
 70
     1
102
RTVSPropertyOp12
 70
     1
102
RTVSPropertyOp13
 70
     1
102
RTVSPropertyOp14
 70
     1
102
RTVSPropertyOp15
 70
     1
102
RTVSPropertyOp16
 70
     1
102
RTVSPropertyOp17
 70
     1
102
RTVSPropertyOp18
 70
     1
102
RTVSPropertyOp19
 70
     1
102
RTVSPropertyOp20
 70
     1
102
RTVSPropertyOp21
 70
     1
102
RTVSPropertyOp22
 70
     1
102
RTVSPropertyOp23
 70
     1
102
RTVSPropertyOp24
 70
     1
102
RTVSPropertyOp25
 70
     1
102
RTVSPropertyOp26
 70
     1
102
RTVSPropertyOp27
 70
     1
102
RTVSPropertyOp28
 70
     1
102
RTVSPropertyOp29
 70
     1
102
RTVSPropertyOp30
 70
     1
102
RTVSPropertyOp31
 70
     1
102
RTVSPropertyOp32
 70
     1
102
RTVSPropertyOp33
 70
     1
102
RTVSPropertyOp34
 70
     1
102
RTVSPropertyOp35
 70
     1
102
RTVSPropertyOp36
 70
     1
102
RTVSPropertyOp37
 70
     1
102
RTVSPropertyOp38
 70
     1
102
RTVSPropertyOp39
 70
     1
102
RTVSPropertyOp40
 70
     1
102
RTVSPropertyOp41
 70
     1
102
RTVSPropertyOp42
 70
     1
102
RTVSPropertyOp43
 70
     1
102
RTVSPropertyOp44
 70
     1
102
RTVSPropertyOp45
 70
     1
102
RTVSPropertyOp46
 70
     1
102
RTVSPropertyOp47
 70
     1
102
RTVSPropertyOp48
 70
     1
102
RTVSPropertyOp49
 70
     1
102
RTVSPropertyOp50
 70
     1
102
RTVSPropertyOp51
 70
     0
102
RTVSPropertyOp52
 70
     0
102
RTVSPropertyOp53
 70
     1
102
RTVSPropertyOp54
 70
     1
102
RTVSPropertyOp55
 70
     1
102
RTVSPropertyOp56
 70
     1
102
RTVSPropertyOp57
 70
     1
102
RTVSPropertyOp58
 70
     1
102
RTVSPropertyOp59
 70
     1
102
RTVSPropertyOp60
 70
     1
102
RTVSPropertyOp61
 70
     1
102
RTVSPropertyOp62
 70
     1
  0
XRECORD
  5
1FC2B
102
{ACAD_REACTORS
330
1FC2A
102
}
330
1FC2A
100
AcDbXrecord
280
     1
102
RTVSPost2010Prop28
280
     0
102
RTVSPost2010PropOp28
 70
     1
102
RTVSPost2010Prop29
280
     1
102
RTVSPost2010PropOp29
 70
     1
102
RTVSPost2010Prop30
280
     1
102
RTVSPost2010PropOp30
 70
     1
102
RTVSPost2010Prop31
280
     0
102
RTVSPost2010PropOp31
 70
     1
102
RTVSPost2010Prop32
280
     0
102
RTVSPost2010PropOp32
 70
     1
102
RTVSPost2010Prop33
280
     0
102
RTVSPost2010PropOp33
 70
     1
102
RTVSPost2010Prop34
280
     0
102
RTVSPost2010PropOp34
 70
     1
102
RTVSPost2010Prop35
280
     0
102
RTVSPost2010PropOp35
 70
     1
102
RTVSPost2010Prop36
280
     0
102
RTVSPost2010PropOp36
 70
     1
102
RTVSPost2010Prop37
 90
       50
102
RTVSPost2010PropOp37
 70
     1
102
RTVSPost2010Prop38
140
0.0
102
RTVSPost2010PropOp38
 70
     1
102
RTVSPost2010Prop39
140
1.0
102
RTVSPost2010PropOp39
 70
     1
102
RTVSPost2010Prop40
 90
        0
102
RTVSPost2010PropOp40
 70
     1
102
RTVSPost2010Prop41ColorIndex
 90
       18
102
RTVSPost2010Prop41ColorRGB
 90
        0
102
RTVSPost2010PropOp41
 70
     1
102
RTVSPost2010Prop42
 90
       50
102
RTVSPost2010PropOp42
 70
     1
102
RTVSPost2010Prop43
 90
        3
102
RTVSPost2010PropOp43
 70
     1
102
RTVSPost2010Prop44ColorIndex
 90
        5
102
RTVSPost2010Prop44ColorRGB
 90
      255
102
RTVSPost2010PropOp44
 70
     1
102
RTVSPost2010Prop45
280
     0
102
RTVSPost2010PropOp45
 70
     1
102
RTVSPost2010Prop46
 90
       50
102
RTVSPost2010PropOp46
 70
     1
102
RTVSPost2010Prop47
 90
       50
102
RTVSPost2010PropOp47
 70
     1
102
RTVSPost2010Prop48
 90
       50
102
RTVSPost2010PropOp48
 70
     1
102
RTVSPost2010Prop49
280
     0
102
RTVSPost2010PropOp49
 70
     1
102
RTVSPost2010Prop50
 90
       50
102
RTVSPost2010PropOp50
 70
     1
102
RTVSPost2010Prop51ColorIndex
 90
      256
102
RTVSPost2010Prop51ColorRGB
 90
-16777216
102
RTVSPost2010PropOp51
 70
     0
102
RTVSPost2010Prop52
140
1.0
102
RTVSPost2010PropOp52
 70
     0
102
RTVSPost2010Prop53
 90
        2
102
RTVSPost2010PropOp53
 70
     1
102
RTVSPost2010Prop54
  1
strokes_ogs.tif
102
RTVSPost2010PropOp54
 70
     1
102
RTVSPost2010Prop55
280
     0
102
RTVSPost2010PropOp55
 70
     1
102
RTVSPost2010Prop56
140
1.0
102
RTVSPost2010PropOp56
 70
     1
102
RTVSPost2010Prop57
140
1.0
102
RTVSPost2010PropOp57
 70
     1
102
RTVSPropertyOp0
 70
     1
102
RTVSPropertyOp1
 70
     1
102
RTVSPropertyOp2
 70
     1
102
RTVSPropertyOp3
 70
     1
102
RTVSPropertyOp4
 70
     1
102
RTVSPropertyOp5
 70
     1
102
RTVSPropertyOp6
 70
     1
102
RTVSPropertyOp7
 70
     1
102
RTVSPropertyOp8
 70
     1
102
RTVSPropertyOp9
 70
     1
102
RTVSPropertyOp10
 70
     1
102
RTVSPropertyOp11
 70
     1
102
RTVSPropertyOp12
 70
     1
102
RTVSPropertyOp13
 70
     1
102
RTVSPropertyOp14
 70
     1
102
RTVSPropertyOp15
 70
     1
102
RTVSPropertyOp16
 70
     1
102
RTVSPropertyOp17
 70
     1
102
RTVSPropertyOp18
 70
     1
102
RTVSPropertyOp19
 70
     1
102
RTVSPropertyOp20
 70
     1
102
RTVSPropertyOp21
 70
     1
102
RTVSPropertyOp22
 70
     1
102
RTVSPropertyOp23
 70
     1
102
RTVSPropertyOp24
 70
     1
102
RTVSPropertyOp25
 70
     1
102
RTVSPropertyOp26
 70
     1
102
RTVSPropertyOp27
 70
     1
102
RTVSPropertyOp28
 70
     1
102
RTVSPropertyOp29
 70
     1
102
RTVSPropertyOp30
 70
     1
102
RTVSPropertyOp31
 70
     1
102
RTVSPropertyOp32
 70
     1
102
RTVSPropertyOp33
 70
     1
102
RTVSPropertyOp34
 70
     1
102
RTVSPropertyOp35
 70
     1
102
RTVSPropertyOp36
 70
     1
102
RTVSPropertyOp37
 70
     1
102
RTVSPropertyOp38
 70
     1
102
RTVSPropertyOp39
 70
     1
102
RTVSPropertyOp40
 70
     1
102
RTVSPropertyOp41
 70
     1
102
RTVSPropertyOp42
 70
     1
102
RTVSPropertyOp43
 70
     1
102
RTVSPropertyOp44
 70
     1
102
RTVSPropertyOp45
 70
     1
102
RTVSPropertyOp46
 70
     1
102
RTVSPropertyOp47
 70
     1
102
RTVSPropertyOp48
 70
     1
102
RTVSPropertyOp49
 70
     1
102
RTVSPropertyOp50
 70
     1
102
RTVSPropertyOp51
 70
     0
102
RTVSPropertyOp52
 70
     0
102
RTVSPropertyOp53
 70
     1
102
RTVSPropertyOp54
 70
     1
102
RTVSPropertyOp55
 70
     1
102
RTVSPropertyOp56
 70
     1
102
RTVSPropertyOp57
 70
     1
102
RTVSPropertyOp58
 70
     1
102
RTVSPropertyOp59
 70
     1
102
RTVSPropertyOp60
 70
     1
102
RTVSPropertyOp61
 70
     1
102
RTVSPropertyOp62
 70
     1
  0
XRECORD
  5
1FC2D
102
{ACAD_REACTORS
330
1FC2C
102
}
330
1FC2C
100
AcDbXrecord
280
     1
102
RTVSPost2010Prop28
280
     0
102
RTVSPost2010PropOp28
 70
     1
102
RTVSPost2010Prop29
280
     1
102
RTVSPost2010PropOp29
 70
     1
102
RTVSPost2010Prop30
280
     1
102
RTVSPost2010PropOp30
 70
     1
102
RTVSPost2010Prop31
280
     0
102
RTVSPost2010PropOp31
 70
     1
102
RTVSPost2010Prop32
280
     0
102
RTVSPost2010PropOp32
 70
     1
102
RTVSPost2010Prop33
280
     0
102
RTVSPost2010PropOp33
 70
     1
102
RTVSPost2010Prop34
280
     0
102
RTVSPost2010PropOp34
 70
     1
102
RTVSPost2010Prop35
280
     0
102
RTVSPost2010PropOp35
 70
     1
102
RTVSPost2010Prop36
280
     0
102
RTVSPost2010PropOp36
 70
     1
102
RTVSPost2010Prop37
 90
       50
102
RTVSPost2010PropOp37
 70
     1
102
RTVSPost2010Prop38
140
0.0
102
RTVSPost2010PropOp38
 70
     1
102
RTVSPost2010Prop39
140
1.0
102
RTVSPost2010PropOp39
 70
     1
102
RTVSPost2010Prop40
 90
        0
102
RTVSPost2010PropOp40
 70
     1
102
RTVSPost2010Prop41ColorIndex
 90
       18
102
RTVSPost2010Prop41ColorRGB
 90
        0
102
RTVSPost2010PropOp41
 70
     1
102
RTVSPost2010Prop42
 90
       50
102
RTVSPost2010PropOp42
 70
     1
102
RTVSPost2010Prop43
 90
        3
102
RTVSPost2010PropOp43
 70
     1
102
RTVSPost2010Prop44ColorIndex
 90
        5
102
RTVSPost2010Prop44ColorRGB
 90
      255
102
RTVSPost2010PropOp44
 70
     1
102
RTVSPost2010Prop45
280
     0
102
RTVSPost2010PropOp45
 70
     1
102
RTVSPost2010Prop46
 90
       50
102
RTVSPost2010PropOp46
 70
     1
102
RTVSPost2010Prop47
 90
       50
102
RTVSPost2010PropOp47
 70
     1
102
RTVSPost2010Prop48
 90
       50
102
RTVSPost2010PropOp48
 70
     1
102
RTVSPost2010Prop49
280
     0
102
RTVSPost2010PropOp49
 70
     1
102
RTVSPost2010Prop50
 90
       50
102
RTVSPost2010PropOp50
 70
     1
102
RTVSPost2010Prop51ColorIndex
 90
      256
102
RTVSPost2010Prop51ColorRGB
 90
-16777216
102
RTVSPost2010PropOp51
 70
     0
102
RTVSPost2010Prop52
140
1.0
102
RTVSPost2010PropOp52
 70
     0
102
RTVSPost2010Prop53
 90
        2
102
RTVSPost2010PropOp53
 70
     1
102
RTVSPost2010Prop54
  1
strokes_ogs.tif
102
RTVSPost2010PropOp54
 70
     1
102
RTVSPost2010Prop55
280
     0
102
RTVSPost2010PropOp55
 70
     1
102
RTVSPost2010Prop56
140
1.0
102
RTVSPost2010PropOp56
 70
     1
102
RTVSPost2010Prop57
140
1.0
102
RTVSPost2010PropOp57
 70
     1
102
RTVSPropertyOp0
 70
     1
102
RTVSPropertyOp1
 70
     1
102
RTVSPropertyOp2
 70
     1
102
RTVSPropertyOp3
 70
     1
102
RTVSPropertyOp4
 70
     1
102
RTVSPropertyOp5
 70
     1
102
RTVSPropertyOp6
 70
     1
102
RTVSPropertyOp7
 70
     1
102
RTVSPropertyOp8
 70
     1
102
RTVSPropertyOp9
 70
     1
102
RTVSPropertyOp10
 70
     1
102
RTVSPropertyOp11
 70
     1
102
RTVSPropertyOp12
 70
     1
102
RTVSPropertyOp13
 70
     1
102
RTVSPropertyOp14
 70
     1
102
RTVSPropertyOp15
 70
     1
102
RTVSPropertyOp16
 70
     1
102
RTVSPropertyOp17
 70
     1
102
RTVSPropertyOp18
 70
     1
102
RTVSPropertyOp19
 70
     1
102
RTVSPropertyOp20
 70
     1
102
RTVSPropertyOp21
 70
     1
102
RTVSPropertyOp22
 70
     1
102
RTVSPropertyOp23
 70
     1
102
RTVSPropertyOp24
 70
     1
102
RTVSPropertyOp25
 70
     1
102
RTVSPropertyOp26
 70
     1
102
RTVSPropertyOp27
 70
     1
102
RTVSPropertyOp28
 70
     1
102
RTVSPropertyOp29
 70
     1
102
RTVSPropertyOp30
 70
     1
102
RTVSPropertyOp31
 70
     1
102
RTVSPropertyOp32
 70
     1
102
RTVSPropertyOp33
 70
     1
102
RTVSPropertyOp34
 70
     1
102
RTVSPropertyOp35
 70
     1
102
RTVSPropertyOp36
 70
     1
102
RTVSPropertyOp37
 70
     1
102
RTVSPropertyOp38
 70
     1
102
RTVSPropertyOp39
 70
     1
102
RTVSPropertyOp40
 70
     1
102
RTVSPropertyOp41
 70
     1
102
RTVSPropertyOp42
 70
     1
102
RTVSPropertyOp43
 70
     1
102
RTVSPropertyOp44
 70
     1
102
RTVSPropertyOp45
 70
     1
102
RTVSPropertyOp46
 70
     1
102
RTVSPropertyOp47
 70
     1
102
RTVSPropertyOp48
 70
     1
102
RTVSPropertyOp49
 70
     1
102
RTVSPropertyOp50
 70
     1
102
RTVSPropertyOp51
 70
     0
102
RTVSPropertyOp52
 70
     0
102
RTVSPropertyOp53
 70
     1
102
RTVSPropertyOp54
 70
     1
102
RTVSPropertyOp55
 70
     1
102
RTVSPropertyOp56
 70
     1
102
RTVSPropertyOp57
 70
     1
102
RTVSPropertyOp58
 70
     1
102
RTVSPropertyOp59
 70
     1
102
RTVSPropertyOp60
 70
     1
102
RTVSPropertyOp61
 70
     1
102
RTVSPropertyOp62
 70
     1
  0
XRECORD
  5
1FC23
102
{ACAD_REACTORS
330
1FC22
102
}
330
1FC22
100
AcDbXrecord
280
     1
102
RTVSPost2010Prop28
280
     0
102
RTVSPost2010PropOp28
 70
     1
102
RTVSPost2010Prop29
280
     1
102
RTVSPost2010PropOp29
 70
     1
102
RTVSPost2010Prop30
280
     1
102
RTVSPost2010PropOp30
 70
     1
102
RTVSPost2010Prop31
280
     0
102
RTVSPost2010PropOp31
 70
     1
102
RTVSPost2010Prop32
280
     0
102
RTVSPost2010PropOp32
 70
     1
102
RTVSPost2010Prop33
280
     0
102
RTVSPost2010PropOp33
 70
     1
102
RTVSPost2010Prop34
280
     0
102
RTVSPost2010PropOp34
 70
     1
102
RTVSPost2010Prop35
280
     0
102
RTVSPost2010PropOp35
 70
     1
102
RTVSPost2010Prop36
280
     0
102
RTVSPost2010PropOp36
 70
     1
102
RTVSPost2010Prop37
 90
       50
102
RTVSPost2010PropOp37
 70
     1
102
RTVSPost2010Prop38
140
0.0
102
RTVSPost2010PropOp38
 70
     1
102
RTVSPost2010Prop39
140
1.0
102
RTVSPost2010PropOp39
 70
     1
102
RTVSPost2010Prop40
 90
        0
102
RTVSPost2010PropOp40
 70
     1
102
RTVSPost2010Prop41ColorIndex
 90
       18
102
RTVSPost2010Prop41ColorRGB
 90
        0
102
RTVSPost2010PropOp41
 70
     1
102
RTVSPost2010Prop42
 90
       50
102
RTVSPost2010PropOp42
 70
     1
102
RTVSPost2010Prop43
 90
        3
102
RTVSPost2010PropOp43
 70
     1
102
RTVSPost2010Prop44ColorIndex
 90
        5
102
RTVSPost2010Prop44ColorRGB
 90
      255
102
RTVSPost2010PropOp44
 70
     1
102
RTVSPost2010Prop45
280
     0
102
RTVSPost2010PropOp45
 70
     1
102
RTVSPost2010Prop46
 90
       50
102
RTVSPost2010PropOp46
 70
     1
102
RTVSPost2010Prop47
 90
       50
102
RTVSPost2010PropOp47
 70
     1
102
RTVSPost2010Prop48
 90
       50
102
RTVSPost2010PropOp48
 70
     1
102
RTVSPost2010Prop49
280
     0
102
RTVSPost2010PropOp49
 70
     1
102
RTVSPost2010Prop50
 90
       50
102
RTVSPost2010PropOp50
 70
     1
102
RTVSPost2010Prop51ColorIndex
 90
      256
102
RTVSPost2010Prop51ColorRGB
 90
-16777216
102
RTVSPost2010PropOp51
 70
     0
102
RTVSPost2010Prop52
140
1.0
102
RTVSPost2010PropOp52
 70
     0
102
RTVSPost2010Prop53
 90
        2
102
RTVSPost2010PropOp53
 70
     1
102
RTVSPost2010Prop54
  1
strokes_ogs.tif
102
RTVSPost2010PropOp54
 70
     1
102
RTVSPost2010Prop55
280
     0
102
RTVSPost2010PropOp55
 70
     1
102
RTVSPost2010Prop56
140
1.0
102
RTVSPost2010PropOp56
 70
     1
102
RTVSPost2010Prop57
140
1.0
102
RTVSPost2010PropOp57
 70
     1
102
RTVSPropertyOp0
 70
     1
102
RTVSPropertyOp1
 70
     1
102
RTVSPropertyOp2
 70
     1
102
RTVSPropertyOp3
 70
     1
102
RTVSPropertyOp4
 70
     1
102
RTVSPropertyOp5
 70
     1
102
RTVSPropertyOp6
 70
     1
102
RTVSPropertyOp7
 70
     1
102
RTVSPropertyOp8
 70
     1
102
RTVSPropertyOp9
 70
     1
102
RTVSPropertyOp10
 70
     1
102
RTVSPropertyOp11
 70
     1
102
RTVSPropertyOp12
 70
     1
102
RTVSPropertyOp13
 70
     1
102
RTVSPropertyOp14
 70
     1
102
RTVSPropertyOp15
 70
     1
102
RTVSPropertyOp16
 70
     1
102
RTVSPropertyOp17
 70
     1
102
RTVSPropertyOp18
 70
     1
102
RTVSPropertyOp19
 70
     1
102
RTVSPropertyOp20
 70
     1
102
RTVSPropertyOp21
 70
     1
102
RTVSPropertyOp22
 70
     1
102
RTVSPropertyOp23
 70
     1
102
RTVSPropertyOp24
 70
     1
102
RTVSPropertyOp25
 70
     1
102
RTVSPropertyOp26
 70
     1
102
RTVSPropertyOp27
 70
     1
102
RTVSPropertyOp28
 70
     1
102
RTVSPropertyOp29
 70
     1
102
RTVSPropertyOp30
 70
     1
102
RTVSPropertyOp31
 70
     1
102
RTVSPropertyOp32
 70
     1
102
RTVSPropertyOp33
 70
     1
102
RTVSPropertyOp34
 70
     1
102
RTVSPropertyOp35
 70
     1
102
RTVSPropertyOp36
 70
     1
102
RTVSPropertyOp37
 70
     1
102
RTVSPropertyOp38
 70
     1
102
RTVSPropertyOp39
 70
     1
102
RTVSPropertyOp40
 70
     1
102
RTVSPropertyOp41
 70
     1
102
RTVSPropertyOp42
 70
     1
102
RTVSPropertyOp43
 70
     1
102
RTVSPropertyOp44
 70
     1
102
RTVSPropertyOp45
 70
     1
102
RTVSPropertyOp46
 70
     1
102
RTVSPropertyOp47
 70
     1
102
RTVSPropertyOp48
 70
     1
102
RTVSPropertyOp49
 70
     1
102
RTVSPropertyOp50
 70
     1
102
RTVSPropertyOp51
 70
     0
102
RTVSPropertyOp52
 70
     0
102
RTVSPropertyOp53
 70
     1
102
RTVSPropertyOp54
 70
     1
102
RTVSPropertyOp55
 70
     1
102
RTVSPropertyOp56
 70
     1
102
RTVSPropertyOp57
 70
     1
102
RTVSPropertyOp58
 70
     1
102
RTVSPropertyOp59
 70
     1
102
RTVSPropertyOp60
 70
     1
102
RTVSPropertyOp61
 70
     1
102
RTVSPropertyOp62
 70
     1
  0
XRECORD
  5
1FC17
102
{ACAD_REACTORS
330
1FC16
102
}
330
1FC16
100
AcDbXrecord
280
     1
102
RTVSPost2010Prop28
280
     0
102
RTVSPost2010PropOp28
 70
     1
102
RTVSPost2010Prop29
280
     1
102
RTVSPost2010PropOp29
 70
     1
102
RTVSPost2010Prop30
280
     1
102
RTVSPost2010PropOp30
 70
     1
102
RTVSPost2010Prop31
280
     0
102
RTVSPost2010PropOp31
 70
     1
102
RTVSPost2010Prop32
280
     0
102
RTVSPost2010PropOp32
 70
     1
102
RTVSPost2010Prop33
280
     0
102
RTVSPost2010PropOp33
 70
     1
102
RTVSPost2010Prop34
280
     0
102
RTVSPost2010PropOp34
 70
     1
102
RTVSPost2010Prop35
280
     0
102
RTVSPost2010PropOp35
 70
     1
102
RTVSPost2010Prop36
280
     0
102
RTVSPost2010PropOp36
 70
     1
102
RTVSPost2010Prop37
 90
       50
102
RTVSPost2010PropOp37
 70
     1
102
RTVSPost2010Prop38
140
0.0
102
RTVSPost2010PropOp38
 70
     1
102
RTVSPost2010Prop39
140
1.0
102
RTVSPost2010PropOp39
 70
     1
102
RTVSPost2010Prop40
 90
        0
102
RTVSPost2010PropOp40
 70
     1
102
RTVSPost2010Prop41ColorIndex
 90
       18
102
RTVSPost2010Prop41ColorRGB
 90
        0
102
RTVSPost2010PropOp41
 70
     1
102
RTVSPost2010Prop42
 90
       50
102
RTVSPost2010PropOp42
 70
     1
102
RTVSPost2010Prop43
 90
        3
102
RTVSPost2010PropOp43
 70
     1
102
RTVSPost2010Prop44ColorIndex
 90
        5
102
RTVSPost2010Prop44ColorRGB
 90
      255
102
RTVSPost2010PropOp44
 70
     1
102
RTVSPost2010Prop45
280
     0
102
RTVSPost2010PropOp45
 70
     1
102
RTVSPost2010Prop46
 90
       50
102
RTVSPost2010PropOp46
 70
     1
102
RTVSPost2010Prop47
 90
       50
102
RTVSPost2010PropOp47
 70
     1
102
RTVSPost2010Prop48
 90
       50
102
RTVSPost2010PropOp48
 70
     1
102
RTVSPost2010Prop49
280
     0
102
RTVSPost2010PropOp49
 70
     1
102
RTVSPost2010Prop50
 90
       50
102
RTVSPost2010PropOp50
 70
     1
102
RTVSPost2010Prop51ColorIndex
 90
      256
102
RTVSPost2010Prop51ColorRGB
 90
-16777216
102
RTVSPost2010PropOp51
 70
     0
102
RTVSPost2010Prop52
140
1.0
102
RTVSPost2010PropOp52
 70
     0
102
RTVSPost2010Prop53
 90
        2
102
RTVSPost2010PropOp53
 70
     1
102
RTVSPost2010Prop54
  1
strokes_ogs.tif
102
RTVSPost2010PropOp54
 70
     1
102
RTVSPost2010Prop55
280
     0
102
RTVSPost2010PropOp55
 70
     1
102
RTVSPost2010Prop56
140
1.0
102
RTVSPost2010PropOp56
 70
     1
102
RTVSPost2010Prop57
140
1.0
102
RTVSPost2010PropOp57
 70
     1
102
RTVSPropertyOp0
 70
     1
102
RTVSPropertyOp1
 70
     1
102
RTVSPropertyOp2
 70
     1
102
RTVSPropertyOp3
 70
     1
102
RTVSPropertyOp4
 70
     1
102
RTVSPropertyOp5
 70
     1
102
RTVSPropertyOp6
 70
     1
102
RTVSPropertyOp7
 70
     1
102
RTVSPropertyOp8
 70
     1
102
RTVSPropertyOp9
 70
     1
102
RTVSPropertyOp10
 70
     1
102
RTVSPropertyOp11
 70
     1
102
RTVSPropertyOp12
 70
     1
102
RTVSPropertyOp13
 70
     1
102
RTVSPropertyOp14
 70
     1
102
RTVSPropertyOp15
 70
     1
102
RTVSPropertyOp16
 70
     1
102
RTVSPropertyOp17
 70
     1
102
RTVSPropertyOp18
 70
     1
102
RTVSPropertyOp19
 70
     1
102
RTVSPropertyOp20
 70
     1
102
RTVSPropertyOp21
 70
     1
102
RTVSPropertyOp22
 70
     1
102
RTVSPropertyOp23
 70
     1
102
RTVSPropertyOp24
 70
     1
102
RTVSPropertyOp25
 70
     1
102
RTVSPropertyOp26
 70
     1
102
RTVSPropertyOp27
 70
     1
102
RTVSPropertyOp28
 70
     1
102
RTVSPropertyOp29
 70
     1
102
RTVSPropertyOp30
 70
     1
102
RTVSPropertyOp31
 70
     1
102
RTVSPropertyOp32
 70
     1
102
RTVSPropertyOp33
 70
     1
102
RTVSPropertyOp34
 70
     1
102
RTVSPropertyOp35
 70
     1
102
RTVSPropertyOp36
 70
     1
102
RTVSPropertyOp37
 70
     1
102
RTVSPropertyOp38
 70
     1
102
RTVSPropertyOp39
 70
     1
102
RTVSPropertyOp40
 70
     1
102
RTVSPropertyOp41
 70
     1
102
RTVSPropertyOp42
 70
     1
102
RTVSPropertyOp43
 70
     1
102
RTVSPropertyOp44
 70
     1
102
RTVSPropertyOp45
 70
     1
102
RTVSPropertyOp46
 70
     1
102
RTVSPropertyOp47
 70
     1
102
RTVSPropertyOp48
 70
     1
102
RTVSPropertyOp49
 70
     1
102
RTVSPropertyOp50
 70
     1
102
RTVSPropertyOp51
 70
     0
102
RTVSPropertyOp52
 70
     0
102
RTVSPropertyOp53
 70
     1
102
RTVSPropertyOp54
 70
     1
102
RTVSPropertyOp55
 70
     1
102
RTVSPropertyOp56
 70
     1
102
RTVSPropertyOp57
 70
     1
102
RTVSPropertyOp58
 70
     1
102
RTVSPropertyOp59
 70
     1
102
RTVSPropertyOp60
 70
     1
102
RTVSPropertyOp61
 70
     1
102
RTVSPropertyOp62
 70
     1
  0
XRECORD
  5
1FC2F
102
{ACAD_REACTORS
330
1FC2E
102
}
330
1FC2E
100
AcDbXrecord
280
     1
102
RTVSPost2010Prop28
280
     0
102
RTVSPost2010PropOp28
 70
     1
102
RTVSPost2010Prop29
280
     1
102
RTVSPost2010PropOp29
 70
     1
102
RTVSPost2010Prop30
280
     1
102
RTVSPost2010PropOp30
 70
     1
102
RTVSPost2010Prop31
280
     0
102
RTVSPost2010PropOp31
 70
     1
102
RTVSPost2010Prop32
280
     0
102
RTVSPost2010PropOp32
 70
     1
102
RTVSPost2010Prop33
280
     0
102
RTVSPost2010PropOp33
 70
     1
102
RTVSPost2010Prop34
280
     0
102
RTVSPost2010PropOp34
 70
     1
102
RTVSPost2010Prop35
280
     0
102
RTVSPost2010PropOp35
 70
     1
102
RTVSPost2010Prop36
280
     0
102
RTVSPost2010PropOp36
 70
     1
102
RTVSPost2010Prop37
 90
       50
102
RTVSPost2010PropOp37
 70
     1
102
RTVSPost2010Prop38
140
0.0
102
RTVSPost2010PropOp38
 70
     1
102
RTVSPost2010Prop39
140
1.0
102
RTVSPost2010PropOp39
 70
     1
102
RTVSPost2010Prop40
 90
        0
102
RTVSPost2010PropOp40
 70
     1
102
RTVSPost2010Prop41ColorIndex
 90
       18
102
RTVSPost2010Prop41ColorRGB
 90
        0
102
RTVSPost2010PropOp41
 70
     1
102
RTVSPost2010Prop42
 90
       50
102
RTVSPost2010PropOp42
 70
     1
102
RTVSPost2010Prop43
 90
        3
102
RTVSPost2010PropOp43
 70
     1
102
RTVSPost2010Prop44ColorIndex
 90
        5
102
RTVSPost2010Prop44ColorRGB
 90
      255
102
RTVSPost2010PropOp44
 70
     1
102
RTVSPost2010Prop45
280
     0
102
RTVSPost2010PropOp45
 70
     1
102
RTVSPost2010Prop46
 90
       50
102
RTVSPost2010PropOp46
 70
     1
102
RTVSPost2010Prop47
 90
       50
102
RTVSPost2010PropOp47
 70
     1
102
RTVSPost2010Prop48
 90
       50
102
RTVSPost2010PropOp48
 70
     1
102
RTVSPost2010Prop49
280
     0
102
RTVSPost2010PropOp49
 70
     1
102
RTVSPost2010Prop50
 90
       50
102
RTVSPost2010PropOp50
 70
     1
102
RTVSPost2010Prop51ColorIndex
 90
      256
102
RTVSPost2010Prop51ColorRGB
 90
-16777216
102
RTVSPost2010PropOp51
 70
     0
102
RTVSPost2010Prop52
140
1.0
102
RTVSPost2010PropOp52
 70
     0
102
RTVSPost2010Prop53
 90
        2
102
RTVSPost2010PropOp53
 70
     1
102
RTVSPost2010Prop54
  1
strokes_ogs.tif
102
RTVSPost2010PropOp54
 70
     1
102
RTVSPost2010Prop55
280
     0
102
RTVSPost2010PropOp55
 70
     1
102
RTVSPost2010Prop56
140
1.0
102
RTVSPost2010PropOp56
 70
     1
102
RTVSPost2010Prop57
140
1.0
102
RTVSPost2010PropOp57
 70
     1
102
RTVSPropertyOp0
 70
     1
102
RTVSPropertyOp1
 70
     1
102
RTVSPropertyOp2
 70
     1
102
RTVSPropertyOp3
 70
     1
102
RTVSPropertyOp4
 70
     1
102
RTVSPropertyOp5
 70
     1
102
RTVSPropertyOp6
 70
     1
102
RTVSPropertyOp7
 70
     1
102
RTVSPropertyOp8
 70
     1
102
RTVSPropertyOp9
 70
     1
102
RTVSPropertyOp10
 70
     1
102
RTVSPropertyOp11
 70
     1
102
RTVSPropertyOp12
 70
     1
102
RTVSPropertyOp13
 70
     1
102
RTVSPropertyOp14
 70
     1
102
RTVSPropertyOp15
 70
     1
102
RTVSPropertyOp16
 70
     1
102
RTVSPropertyOp17
 70
     1
102
RTVSPropertyOp18
 70
     1
102
RTVSPropertyOp19
 70
     1
102
RTVSPropertyOp20
 70
     1
102
RTVSPropertyOp21
 70
     1
102
RTVSPropertyOp22
 70
     1
102
RTVSPropertyOp23
 70
     1
102
RTVSPropertyOp24
 70
     1
102
RTVSPropertyOp25
 70
     1
102
RTVSPropertyOp26
 70
     1
102
RTVSPropertyOp27
 70
     1
102
RTVSPropertyOp28
 70
     1
102
RTVSPropertyOp29
 70
     1
102
RTVSPropertyOp30
 70
     1
102
RTVSPropertyOp31
 70
     1
102
RTVSPropertyOp32
 70
     1
102
RTVSPropertyOp33
 70
     1
102
RTVSPropertyOp34
 70
     1
102
RTVSPropertyOp35
 70
     1
102
RTVSPropertyOp36
 70
     1
102
RTVSPropertyOp37
 70
     1
102
RTVSPropertyOp38
 70
     1
102
RTVSPropertyOp39
 70
     1
102
RTVSPropertyOp40
 70
     1
102
RTVSPropertyOp41
 70
     1
102
RTVSPropertyOp42
 70
     1
102
RTVSPropertyOp43
 70
     1
102
RTVSPropertyOp44
 70
     1
102
RTVSPropertyOp45
 70
     1
102
RTVSPropertyOp46
 70
     1
102
RTVSPropertyOp47
 70
     1
102
RTVSPropertyOp48
 70
     1
102
RTVSPropertyOp49
 70
     1
102
RTVSPropertyOp50
 70
     1
102
RTVSPropertyOp51
 70
     0
102
RTVSPropertyOp52
 70
     0
102
RTVSPropertyOp53
 70
     1
102
RTVSPropertyOp54
 70
     1
102
RTVSPropertyOp55
 70
     1
102
RTVSPropertyOp56
 70
     1
102
RTVSPropertyOp57
 70
     1
102
RTVSPropertyOp58
 70
     1
102
RTVSPropertyOp59
 70
     1
102
RTVSPropertyOp60
 70
     1
102
RTVSPropertyOp61
 70
     1
102
RTVSPropertyOp62
 70
     1
  0
ENDSEC
  0
EOF
