  0
SECTION
  2
HEADER
  9
$ACADVER
  1
AC1015
  9
$ACADMAINTVER
 70
    20
  9
$DWGCODEPAGE
  3
ANSI_932
  9
$INSBASE
 10
0.0
 20
0.0
 30
0.0
  9
$EXTMIN
 10
139.196816621341
 20
-0.7250533989645192
 30
-0.0000000349181948
  9
$EXTMAX
 10
16309.6069721384
 20
11409.94112792278
 30
0.0000000814935746
  9
$LIMMIN
 10
0.0
 20
0.0
  9
$LIMMAX
 10
16800.0
 20
11880.0
  9
$ORTHOMODE
 70
     0
  9
$REGENMODE
 70
     1
  9
$FILLMODE
 70
     1
  9
$QTEXTMODE
 70
     0
  9
$MIRRTEXT
 70
     1
  9
$LTSCALE
 40
20.0
  9
$ATTMODE
 70
     1
  9
$TEXTSIZE
 40
100.0
  9
$TRACEWID
 40
1.0
  9
$TEXTSTYLE
  7
STYLE2
  9
$CLAYER
  8
寸法
  9
$CELTYPE
  6
BYLAYER
  9
$CECOLOR
 62
   256
  9
$CELTSCALE
 40
50.0
  9
$DISPSILH
 70
     0
  9
$DIMSCALE
 40
40.0
  9
$DIMASZ
 40
2.5
  9
$DIMEXO
 40
0.5
  9
$DIMDLI
 40
7.0
  9
$DIMRND
 40
0.0
  9
$DIMDLE
 40
0.0
  9
$DIMEXE
 40
1.5
  9
$DIMTP
 40
0.0
  9
$DIMTM
 40
0.0
  9
$DIMTXT
 40
3.0
  9
$DIMCEN
 40
0.0
  9
$DIMTSZ
 40
0.0
  9
$DIMTOL
 70
     0
  9
$DIMLIM
 70
     0
  9
$DIMTIH
 70
     0
  9
$DIMTOH
 70
     0
  9
$DIMSE1
 70
     0
  9
$DIMSE2
 70
     0
  9
$DIMTAD
 70
     3
  9
$DIMZIN
 70
     8
  9
$DIMBLK
  1

  9
$DIMASO
 70
     1
  9
$DIMSHO
 70
     1
  9
$DIMPOST
  1

  9
$DIMAPOST
  1

  9
$DIMALT
 70
     0
  9
$DIMALTD
 70
     2
  9
$DIMALTF
 40
0.0394
  9
$DIMLFAC
 40
1.0
  9
$DIMTOFL
 70
     1
  9
$DIMTVP
 40
0.0
  9
$DIMTIX
 70
     0
  9
$DIMSOXD
 70
     0
  9
$DIMSAH
 70
     1
  9
$DIMBLK1
  1
DOTSMALL
  9
$DIMBLK2
  1
DOTSMALL
  9
$DIMSTYLE
  2
INABA_S40G
  9
$DIMCLRD
 70
     0
  9
$DIMCLRE
 70
     0
  9
$DIMCLRT
 70
     7
  9
$DIMTFAC
 40
1.0
  9
$DIMGAP
 40
1.0
  9
$DIMJUST
 70
     0
  9
$DIMSD1
 70
     0
  9
$DIMSD2
 70
     0
  9
$DIMTOLJ
 70
     1
  9
$DIMTZIN
 70
     0
  9
$DIMALTZ
 70
     0
  9
$DIMALTTZ
 70
     0
  9
$DIMUPT
 70
     0
  9
$DIMDEC
 70
     1
  9
$DIMTDEC
 70
     1
  9
$DIMALTU
 70
     2
  9
$DIMALTTD
 70
     2
  9
$DIMTXSTY
  7
STYLE1
  9
$DIMAUNIT
 70
     0
  9
$DIMADEC
 70
     0
  9
$DIMALTRND
 40
0.0
  9
$DIMAZIN
 70
     0
  9
$DIMDSEP
 70
    46
  9
$DIMATFIT
 70
     3
  9
$DIMFRAC
 70
     0
  9
$DIMLDRBLK
  1

  9
$DIMLUNIT
 70
     2
  9
$DIMLWD
 70
    -2
  9
$DIMLWE
 70
    -2
  9
$DIMTMOVE
 70
     0
  9
$LUNITS
 70
     2
  9
$LUPREC
 70
     1
  9
$SKETCHINC
 40
1.0
  9
$FILLETRAD
 40
0.0
  9
$AUNITS
 70
     0
  9
$AUPREC
 70
     0
  9
$MENU
  1
acad
  9
$ELEVATION
 40
0.0
  9
$PELEVATION
 40
0.0
  9
$THICKNESS
 40
0.0
  9
$LIMCHECK
 70
     0
  9
$CHAMFERA
 40
3.0
  9
$CHAMFERB
 40
3.0
  9
$CHAMFERC
 40
0.0
  9
$CHAMFERD
 40
0.0
  9
$SKPOLY
 70
     0
  9
$TDCREATE
 40
2451368.612993866
  9
$TDUCREATE
 40
2451368.237993866
  9
$TDUPDATE
 40
2459381.582294398
  9
$TDUUPDATE
 40
2459381.207294398
  9
$TDINDWG
 40
1.5709646528
  9
$TDUSRTIMER
 40
1.5709646528
  9
$USRTIMER
 70
     1
  9
$ANGBASE
 50
0.0
  9
$ANGDIR
 70
     0
  9
$PDMODE
 70
     3
  9
$PDSIZE
 40
2.0
  9
$PLINEWID
 40
0.0
  9
$SPLFRAME
 70
     0
  9
$SPLINETYPE
 70
     6
  9
$SPLINESEGS
 70
     8
  9
$HANDSEED
  5
20776
  9
$SURFTAB1
 70
     6
  9
$SURFTAB2
 70
     6
  9
$SURFTYPE
 70
     6
  9
$SURFU
 70
     6
  9
$SURFV
 70
     6
  9
$UCSBASE
  2

  9
$UCSNAME
  2

  9
$UCSORG
 10
0.0
 20
0.0
 30
0.0
  9
$UCSXDIR
 10
1.0
 20
0.0
 30
0.0
  9
$UCSYDIR
 10
0.0
 20
1.0
 30
0.0
  9
$UCSORTHOREF
  2

  9
$UCSORTHOVIEW
 70
     0
  9
$UCSORGTOP
 10
0.0
 20
0.0
 30
0.0
  9
$UCSORGBOTTOM
 10
0.0
 20
0.0
 30
0.0
  9
$UCSORGLEFT
 10
0.0
 20
0.0
 30
0.0
  9
$UCSORGRIGHT
 10
0.0
 20
0.0
 30
0.0
  9
$UCSORGFRONT
 10
0.0
 20
0.0
 30
0.0
  9
$UCSORGBACK
 10
0.0
 20
0.0
 30
0.0
  9
$PUCSBASE
  2

  9
$PUCSNAME
  2

  9
$PUCSORG
 10
0.0
 20
0.0
 30
0.0
  9
$PUCSXDIR
 10
1.0
 20
0.0
 30
0.0
  9
$PUCSYDIR
 10
0.0
 20
1.0
 30
0.0
  9
$PUCSORTHOREF
  2

  9
$PUCSORTHOVIEW
 70
     0
  9
$PUCSORGTOP
 10
0.0
 20
0.0
 30
0.0
  9
$PUCSORGBOTTOM
 10
0.0
 20
0.0
 30
0.0
  9
$PUCSORGLEFT
 10
0.0
 20
0.0
 30
0.0
  9
$PUCSORGRIGHT
 10
0.0
 20
0.0
 30
0.0
  9
$PUCSORGFRONT
 10
0.0
 20
0.0
 30
0.0
  9
$PUCSORGBACK
 10
0.0
 20
0.0
 30
0.0
  9
$USERI1
 70
     0
  9
$USERI2
 70
     0
  9
$USERI3
 70
     0
  9
$USERI4
 70
     0
  9
$USERI5
 70
     0
  9
$USERR1
 40
0.0
  9
$USERR2
 40
0.0
  9
$USERR3
 40
0.0
  9
$USERR4
 40
0.0
  9
$USERR5
 40
0.0
  9
$WORLDVIEW
 70
     1
  9
$SHADEDGE
 70
     3
  9
$SHADEDIF
 70
    70
  9
$TILEMODE
 70
     1
  9
$MAXACTVP
 70
    16
  9
$PINSBASE
 10
0.0
 20
0.0
 30
0.0
  9
$PLIMCHECK
 70
     0
  9
$PEXTMIN
 10
1.000000000000000E+20
 20
1.000000000000000E+20
 30
1.000000000000000E+20
  9
$PEXTMAX
 10
-1.000000000000000E+20
 20
-1.000000000000000E+20
 30
-1.000000000000000E+20
  9
$PLIMMIN
 10
0.0
 20
0.0
  9
$PLIMMAX
 10
420.0
 20
297.0
  9
$UNITMODE
 70
     0
  9
$VISRETAIN
 70
     0
  9
$PLINEGEN
 70
     0
  9
$PSLTSCALE
 70
     0
  9
$TREEDEPTH
 70
  3020
  9
$CMLSTYLE
  2
STANDARD
  9
$CMLJUST
 70
     0
  9
$CMLSCALE
 40
1.0
  9
$PROXYGRAPHICS
 70
     1
  9
$MEASUREMENT
 70
     1
  9
$CELWEIGHT
370
    -1
  9
$ENDCAPS
280
     0
  9
$JOINSTYLE
280
     0
  9
$LWDISPLAY
290
     0
  9
$INSUNITS
 70
     0
  9
$HYPERLINKBASE
  1

  9
$STYLESHEET
  1
inaba.ctb
  9
$XEDIT
290
     1
  9
$CEPSNTYPE
380
     0
  9
$PSTYLEMODE
290
     1
  9
$FINGERPRINTGUID
  2
{3B57B35E-7D77-4BBF-81B7-6C583B9EB24C}
  9
$VERSIONGUID
  2
{4F61E5E1-290D-4FAA-87CF-1FF724A8FA60}
  9
$EXTNAMES
290
     1
  9
$PSVPSCALE
 40
0.0
  9
$OLESTARTUP
290
     0
  0
ENDSEC
  0
SECTION
  2
CLASSES
  0
CLASS
  1
ACDBDICTIONARYWDFLT
  2
AcDbDictionaryWithDefault
  3
ObjectDBX Classes
 90
        0
280
     0
281
     0
  0
CLASS
  1
MATERIAL
  2
AcDbMaterial
  3
ObjectDBX Classes
 90
     1153
280
     0
281
     0
  0
CLASS
  1
VISUALSTYLE
  2
AcDbVisualStyle
  3
ObjectDBX Classes
 90
     4095
280
     0
281
     0
  0
CLASS
  1
TABLESTYLE
  2
AcDbTableStyle
  3
ObjectDBX Classes
 90
     4095
280
     0
281
     0
  0
CLASS
  1
SCALE
  2
AcDbScale
  3
ObjectDBX Classes
 90
     1153
280
     0
281
     0
  0
CLASS
  1
MLEADERSTYLE
  2
AcDbMLeaderStyle
  3
ACDB_MLEADERSTYLE_CLASS
 90
     4095
280
     0
281
     0
  0
CLASS
  1
ACDBSECTIONVIEWSTYLE
  2
AcDbSectionViewStyle
  3
ObjectDBX Classes
 90
     1025
280
     0
281
     0
  0
CLASS
  1
ACDBDETAILVIEWSTYLE
  2
AcDbDetailViewStyle
  3
ObjectDBX Classes
 90
     1025
280
     0
281
     0
  0
CLASS
  1
DICTIONARYVAR
  2
AcDbDictionaryVar
  3
ObjectDBX Classes
 90
        0
280
     0
281
     0
  0
CLASS
  1
SORTENTSTABLE
  2
AcDbSortentsTable
  3
ObjectDBX Classes
 90
        0
280
     0
281
     0
  0
CLASS
  1
CELLSTYLEMAP
  2
AcDbCellStyleMap
  3
ObjectDBX Classes
 90
     1152
280
     0
281
     0
  0
CLASS
  1
ACDBPLACEHOLDER
  2
AcDbPlaceHolder
  3
ObjectDBX Classes
 90
        0
280
     0
281
     0
  0
CLASS
  1
LAYOUT
  2
AcDbLayout
  3
ObjectDBX Classes
 90
        0
280
     0
281
     0
  0
ENDSEC
  0
SECTION
  2
TABLES
  0
TABLE
  2
VPORT
  5
746D
330
0
100
AcDbSymbolTable
 70
     1
  0
VPORT
  5
1E22C
330
746D
100
AcDbSymbolTableRecord
100
AcDbViewportTableRecord
  2
*Active
 70
     0
 10
0.0
 20
0.0
 11
1.0
 21
1.0
 12
8600.625537067761
 22
5704.796475140369
 13
0.0
 23
0.0
 14
10.0
 24
10.0
 15
10.0
 25
10.0
 16
0.0
 26
0.0
 36
1.0
 17
0.0
 27
0.0
 37
0.0
 40
11520.92962786401
 41
1.663434903047091
 42
50.0
 43
0.0
 44
0.0
 50
0.0
 51
0.0
 71
     0
 72
     0
 73
     1
 74
     0
 75
     0
 76
     0
 77
     0
 78
     0
281
     0
 65
     1
110
0.0
120
0.0
130
0.0
111
1.0
121
0.0
131
0.0
112
0.0
122
1.0
132
0.0
 79
     0
146
0.0
1001
ACAD_NAV_VCDISPLAY
1070
     3
  0
ENDTAB
  0
TABLE
  2
LTYPE
  5
746A
330
0
100
AcDbSymbolTable
 70
     4
  0
LTYPE
  5
7477
330
746A
100
AcDbSymbolTableRecord
100
AcDbLinetypeTableRecord
  2
BYBLOCK
 70
     0
  3

 72
    65
 73
     0
 40
0.0
  0
LTYPE
  5
7478
330
746A
100
AcDbSymbolTableRecord
100
AcDbLinetypeTableRecord
  2
BYLAYER
 70
     0
  3

 72
    65
 73
     0
 40
0.0
  0
LTYPE
  5
7479
330
746A
100
AcDbSymbolTableRecord
100
AcDbLinetypeTableRecord
  2
CONTINUOUS
 70
     0
  3
Solid line
 72
    65
 73
     0
 40
0.0
  0
LTYPE
  5
7816
330
746A
100
AcDbSymbolTableRecord
100
AcDbLinetypeTableRecord
  2
CENTER
 70
     0
  3
____ _ ____ _ ____ _ ____ _ ____ _ ____ _ ____ 
 72
    65
 73
     4
 40
2.0
 49
1.25
 74
     0
 49
-0.25
 74
     0
 49
0.25
 74
     0
 49
-0.25
 74
     0
  0
LTYPE
  5
781A
330
746A
100
AcDbSymbolTableRecord
100
AcDbLinetypeTableRecord
  2
HIDDEN
 70
     0
  3
__ __ __ __ __ __ __ __ __ __ __ __ __ __ __ __
 72
    65
 73
     2
 40
0.375
 49
0.25
 74
     0
 49
-0.125
 74
     0
  0
LTYPE
  5
781B
330
746A
100
AcDbSymbolTableRecord
100
AcDbLinetypeTableRecord
  2
PHANTOM
 70
     0
  3
______  __  __  ______  __  __  ______  __  __ 
 72
    65
 73
     6
 40
2.5
 49
1.25
 74
     0
 49
-0.25
 74
     0
 49
0.25
 74
     0
 49
-0.25
 74
     0
 49
0.25
 74
     0
 49
-0.25
 74
     0
  0
ENDTAB
  0
TABLE
  2
LAYER
  5
7467
102
{ACAD_XDICTIONARY
360
1E584
102
}
330
0
100
AcDbSymbolTable
 70
    13
  0
LAYER
  5
7474
102
{ACAD_XDICTIONARY
360
1ED3C
102
}
330
7467
100
AcDbSymbolTableRecord
100
AcDbLayerTableRecord
  2
0
 70
     0
 62
     7
  6
CONTINUOUS
370
    -3
390
159AE
  0
LAYER
  5
DEB2
102
{ACAD_XDICTIONARY
360
1ED3E
102
}
330
7467
100
AcDbSymbolTableRecord
100
AcDbLayerTableRecord
  2
センター
 70
     0
 62
     3
  6
CENTER
370
    -3
390
159AE
  0
LAYER
  5
DEB3
102
{ACAD_XDICTIONARY
360
1ED40
102
}
330
7467
100
AcDbSymbolTableRecord
100
AcDbLayerTableRecord
  2
寸法
 70
     0
 62
     4
  6
CONTINUOUS
370
    -3
390
159AE
  0
LAYER
  5
DEB4
102
{ACAD_XDICTIONARY
360
1ED42
102
}
330
7467
100
AcDbSymbolTableRecord
100
AcDbLayerTableRecord
  2
部品1
 70
     0
 62
     7
  6
CONTINUOUS
370
    -3
390
159AE
  0
LAYER
  5
DEB5
102
{ACAD_XDICTIONARY
360
1ED44
102
}
330
7467
100
AcDbSymbolTableRecord
100
AcDbLayerTableRecord
  2
補助
 70
     0
 62
    -1
  6
CONTINUOUS
370
    -3
390
159AE
  0
LAYER
  5
DEB6
102
{ACAD_XDICTIONARY
360
1ED46
102
}
330
7467
100
AcDbSymbolTableRecord
100
AcDbLayerTableRecord
  2
文字
 70
     0
 62
     7
  6
CONTINUOUS
370
    -3
390
159AE
  0
LAYER
  5
F255
330
7467
100
AcDbSymbolTableRecord
100
AcDbLayerTableRecord
  2
DEFPOINTS
 70
     0
 62
     7
  6
CONTINUOUS
290
     0
370
    -3
390
159AE
  0
LAYER
  5
10B54
102
{ACAD_XDICTIONARY
360
1ED48
102
}
330
7467
100
AcDbSymbolTableRecord
100
AcDbLayerTableRecord
  2
仕様書枠
 70
     0
 62
   230
  6
CONTINUOUS
370
    -3
390
159AE
  0
LAYER
  5
11729
102
{ACAD_XDICTIONARY
360
1ED4A
102
}
330
7467
100
AcDbSymbolTableRecord
100
AcDbLayerTableRecord
  2
Ｇ．Ｌ
 70
     0
 62
    30
  6
CONTINUOUS
370
    -3
390
159AE
  0
LAYER
  5
1173F
102
{ACAD_XDICTIONARY
360
1ED4C
102
}
330
7467
100
AcDbSymbolTableRecord
100
AcDbLayerTableRecord
  2
細線
 70
     0
 62
     5
  6
CONTINUOUS
370
    -3
390
159AE
  0
LAYER
  5
12CC4
102
{ACAD_XDICTIONARY
360
1ED4E
102
}
330
7467
100
AcDbSymbolTableRecord
100
AcDbLayerTableRecord
  2
想像線
 70
     0
 62
     6
  6
PHANTOM
370
    -3
390
159AE
  0
LAYER
  5
1C644
102
{ACAD_XDICTIONARY
360
1ED52
102
}
330
7467
100
AcDbSymbolTableRecord
100
AcDbLayerTableRecord
  2
点線
 70
     0
 62
     2
  6
HIDDEN
370
    -3
390
159AE
  0
LAYER
  5
1E582
102
{ACAD_XDICTIONARY
360
1E583
102
}
330
7467
100
AcDbSymbolTableRecord
100
AcDbLayerTableRecord
  2
部品
 70
     0
 62
     7
  6
CONTINUOUS
370
    -3
390
159AE
  0
ENDTAB
  0
TABLE
  2
STYLE
  5
7468
330
0
100
AcDbSymbolTable
 70
     5
  0
STYLE
  5
7475
330
7468
100
AcDbSymbolTableRecord
100
AcDbTextStyleTableRecord
  2
STANDARD
 70
     0
 40
0.0
 41
1.0
 50
0.0
 71
     0
 42
4.0
  3
txt
  4
C:\AutoCAD LT\bigfont.shx
  0
STYLE
  5
F706
330
7468
100
AcDbSymbolTableRecord
100
AcDbTextStyleTableRecord
  2
STYLE1
 70
     0
 40
0.0
 41
1.0
 50
0.0
 71
     0
 42
100.0
  3
isocp.shx
  4
bigfont.shx
  0
STYLE
  5
103BF
330
7468
100
AcDbSymbolTableRecord
100
AcDbTextStyleTableRecord
  2
STYLE2
 70
     0
 40
0.0
 41
1.0
 50
0.0
 71
     0
 42
100.0
  3

  4

1001
ACAD
1000
MS PGothic
1071
    32818
  0
STYLE
  5
206FE
330
7468
100
AcDbSymbolTableRecord
100
AcDbTextStyleTableRecord
  2
STYLE3
 70
     0
 40
0.0
 41
1.0
 50
0.0
 71
     0
 42
100.0
  3

  4

1001
ACAD
1000
MS PGothic
1071
    32818
  0
ENDTAB
  0
TABLE
  2
VIEW
  5
746B
330
0
100
AcDbSymbolTable
 70
     1
  0
ENDTAB
  0
TABLE
  2
UCS
  5
746C
330
0
100
AcDbSymbolTable
 70
     0
  0
ENDTAB
  0
TABLE
  2
APPID
  5
746E
330
0
100
AcDbSymbolTable
 70
    12
  0
APPID
  5
7476
330
746E
100
AcDbSymbolTableRecord
100
AcDbRegAppTableRecord
  2
ACAD
 70
     0
  0
APPID
  5
DEA9
330
746E
100
AcDbSymbolTableRecord
100
AcDbRegAppTableRecord
  2
CONTENTBLOCKICON
 70
     0
  0
APPID
  5
DEAA
330
746E
100
AcDbSymbolTableRecord
100
AcDbRegAppTableRecord
  2
CONTENTBLOCKDESCRIPTION
 70
     0
  0
APPID
  5
E71D
330
746E
100
AcDbSymbolTableRecord
100
AcDbRegAppTableRecord
  2
CONTENTTABDATA
 70
     0
  0
APPID
  5
E71E
330
746E
100
AcDbSymbolTableRecord
100
AcDbRegAppTableRecord
  2
CONTENTCURRENTTAB
 70
     0
  0
APPID
  5
F3BA
330
746E
100
AcDbSymbolTableRecord
100
AcDbRegAppTableRecord
  2
DRAWINGVARIABLESXDATA
 70
     0
  0
APPID
  5
1E282
330
746E
100
AcDbSymbolTableRecord
100
AcDbRegAppTableRecord
  2
ACAD_NAV_VCDISPLAY
 70
     0
  0
APPID
  5
1E2BF
330
746E
100
AcDbSymbolTableRecord
100
AcDbRegAppTableRecord
  2
ACAD_EXEMPT_FROM_CAD_STANDARDS
 70
     0
  0
APPID
  5
1F88E
330
746E
100
AcDbSymbolTableRecord
100
AcDbRegAppTableRecord
  2
ACAD_PSEXT
 70
     0
  0
APPID
  5
1FC34
330
746E
100
AcDbSymbolTableRecord
100
AcDbRegAppTableRecord
  2
GradientColor1ACI
 70
     0
  0
APPID
  5
1FC35
330
746E
100
AcDbSymbolTableRecord
100
AcDbRegAppTableRecord
  2
GradientColor2ACI
 70
     0
  0
APPID
  5
2076F
330
746E
100
AcDbSymbolTableRecord
100
AcDbRegAppTableRecord
  2
ACAD_MLEADERVER
 70
     0
  0
ENDTAB
  0
TABLE
  2
DIMSTYLE
  5
746F
330
0
100
AcDbSymbolTable
 70
     3
100
AcDbDimStyleTable
 71
     1
340
F71F
  0
DIMSTYLE
105
F71F
102
{ACAD_REACTORS
330
1F09C
330
1F09B
330
1F09A
330
1F080
330
1F07E
330
1F07A
330
1F068
330
1F064
330
1F061
330
1F058
330
1F056
330
1F052
330
1F044
330
1F042
330
1F03A
330
1F039
330
1F038
330
202D9
330
2031B
330
20376
330
20377
330
20382
330
20501
330
2050E
330
2051B
330
20528
330
20562
330
2056F
102
}
330
746F
100
AcDbSymbolTableRecord
100
AcDbDimStyleTableRecord
  2
INABA_S40G
 70
     0
 40
40.0
 41
2.5
 42
0.5
 43
7.0
 44
1.5
 73
     0
 74
     0
 77
     3
 78
     8
140
3.0
141
0.0
143
0.0394
147
1.0
172
     1
173
     1
174
     1
178
     7
271
     1
288
     1
340
F706
341
F770
343
F770
344
F770
  0
DIMSTYLE
105
206FF
330
746F
100
AcDbSymbolTableRecord
100
AcDbDimStyleTableRecord
  2
INABA_S50G
 70
     0
 41
125.0
 42
25.0
 43
7.0
 44
75.0
 73
     0
 74
     0
 77
     3
 78
     8
140
150.0
141
0.0
143
0.0394
147
25.0
172
     1
173
     1
174
     1
178
     7
271
     1
340
F706
341
F770
343
F770
344
F770
  0
ENDTAB
  0
TABLE
  2
BLOCK_RECORD
  5
7466
330
0
100
AcDbSymbolTable
 70
    27
  0
BLOCK_RECORD
  5
747D
330
7466
100
AcDbSymbolTableRecord
100
AcDbBlockTableRecord
  2
*MODEL_SPACE
340
159B3
  0
BLOCK_RECORD
  5
747A
330
7466
100
AcDbSymbolTableRecord
100
AcDbBlockTableRecord
  2
*PAPER_SPACE
340
159B4
  0
BLOCK_RECORD
  5
F770
330
7466
100
AcDbSymbolTableRecord
100
AcDbBlockTableRecord
  2
_DOTSMALL
340
0
102
{BLKREFS
331
1F741
331
1F742
331
1F753
331
1F754
331
1F768
331
1F769
331
1F773
331
1F774
331
1F77C
331
1F77D
331
1F790
331
1F791
331
1F7E5
331
1F7E6
331
204D8
331
204E0
331
204E1
331
204E9
331
204EA
331
20569
331
2056A
331
2060E
331
2060F
331
206B0
331
206B1
331
206B9
331
206BA
331
206C2
331
206C3
331
206CB
331
206CC
331
206D4
331
206D5
331
206DD
331
206DE
331
206E6
331
206E7
331
1F7F7
331
1F7F8
331
1F801
331
1F802
331
1FC6E
331
1FC6F
331
1FC77
331
1FC78
331
204C5
331
204C6
331
204CE
331
204CF
331
204D7
102
}
  0
BLOCK_RECORD
  5
1F241
330
7466
100
AcDbSymbolTableRecord
100
AcDbBlockTableRecord
  2
*D1
340
0
  0
BLOCK_RECORD
  5
1F24C
330
7466
100
AcDbSymbolTableRecord
100
AcDbBlockTableRecord
  2
*D2
340
0
  0
BLOCK_RECORD
  5
1F259
330
7466
100
AcDbSymbolTableRecord
100
AcDbBlockTableRecord
  2
*D3
340
0
  0
BLOCK_RECORD
  5
1F265
330
7466
100
AcDbSymbolTableRecord
100
AcDbBlockTableRecord
  2
*D4
340
0
  0
BLOCK_RECORD
  5
1F271
330
7466
100
AcDbSymbolTableRecord
100
AcDbBlockTableRecord
  2
*D5
340
0
  0
BLOCK_RECORD
  5
1F27E
330
7466
100
AcDbSymbolTableRecord
100
AcDbBlockTableRecord
  2
*D6
340
0
  0
BLOCK_RECORD
  5
1F28B
330
7466
100
AcDbSymbolTableRecord
100
AcDbBlockTableRecord
  2
*D7
340
0
  0
BLOCK_RECORD
  5
1F298
330
7466
100
AcDbSymbolTableRecord
100
AcDbBlockTableRecord
  2
*D8
340
0
  0
BLOCK_RECORD
  5
1F2A4
330
7466
100
AcDbSymbolTableRecord
100
AcDbBlockTableRecord
  2
*D9
340
0
  0
BLOCK_RECORD
  5
1F2B0
330
7466
100
AcDbSymbolTableRecord
100
AcDbBlockTableRecord
  2
*D10
340
0
  0
BLOCK_RECORD
  5
1F2BC
330
7466
100
AcDbSymbolTableRecord
100
AcDbBlockTableRecord
  2
*D11
340
0
  0
BLOCK_RECORD
  5
1F2C9
330
7466
100
AcDbSymbolTableRecord
100
AcDbBlockTableRecord
  2
*D12
340
0
  0
BLOCK_RECORD
  5
1F2D4
330
7466
100
AcDbSymbolTableRecord
100
AcDbBlockTableRecord
  2
*D13
340
0
  0
BLOCK_RECORD
  5
1F2E0
330
7466
100
AcDbSymbolTableRecord
100
AcDbBlockTableRecord
  2
*D14
340
0
  0
BLOCK_RECORD
  5
20486
330
7466
100
AcDbSymbolTableRecord
100
AcDbBlockTableRecord
  2
*D15
340
0
  0
BLOCK_RECORD
  5
20492
330
7466
100
AcDbSymbolTableRecord
100
AcDbBlockTableRecord
  2
*D16
340
0
  0
BLOCK_RECORD
  5
2049E
330
7466
100
AcDbSymbolTableRecord
100
AcDbBlockTableRecord
  2
*D17
340
0
  0
BLOCK_RECORD
  5
204AA
330
7466
100
AcDbSymbolTableRecord
100
AcDbBlockTableRecord
  2
*D18
340
0
  0
BLOCK_RECORD
  5
204B6
330
7466
100
AcDbSymbolTableRecord
100
AcDbBlockTableRecord
  2
*D19
340
0
  0
BLOCK_RECORD
  5
20502
330
7466
100
AcDbSymbolTableRecord
100
AcDbBlockTableRecord
  2
*D20
340
0
  0
BLOCK_RECORD
  5
2050F
330
7466
100
AcDbSymbolTableRecord
100
AcDbBlockTableRecord
  2
*D21
340
0
  0
BLOCK_RECORD
  5
2051C
330
7466
100
AcDbSymbolTableRecord
100
AcDbBlockTableRecord
  2
*D22
340
0
  0
BLOCK_RECORD
  5
20529
330
7466
100
AcDbSymbolTableRecord
100
AcDbBlockTableRecord
  2
*D23
340
0
  0
BLOCK_RECORD
  5
20563
330
7466
100
AcDbSymbolTableRecord
100
AcDbBlockTableRecord
  2
*D24
340
0
  0
BLOCK_RECORD
  5
20570
330
7466
100
AcDbSymbolTableRecord
100
AcDbBlockTableRecord
  2
*D25
340
0
  0
ENDTAB
  0
ENDSEC
  0
SECTION
  2
BLOCKS
  0
BLOCK
  5
7489
330
747D
100
AcDbEntity
  8
0
100
AcDbBlockBegin
  2
*MODEL_SPACE
 70
     0
 10
0.0
 20
0.0
 30
0.0
  3
*MODEL_SPACE
  1

  0
ENDBLK
  5
748A
330
747D
100
AcDbEntity
  8
0
100
AcDbBlockEnd
  0
BLOCK
  5
7487
330
747A
100
AcDbEntity
 67
     1
  8
0
100
AcDbBlockBegin
  2
*PAPER_SPACE
 70
     0
 10
0.0
 20
0.0
 30
0.0
  3
*PAPER_SPACE
  1

  0
ENDBLK
  5
7488
330
747A
100
AcDbEntity
 67
     1
  8
0
100
AcDbBlockEnd
  0
BLOCK
  5
F771
330
F770
100
AcDbEntity
  8
0
 48
50.0
100
AcDbBlockBegin
  2
_DOTSMALL
 70
     0
 10
0.0
 20
0.0
 30
0.0
  3
_DOTSMALL
  1

  0
LWPOLYLINE
  5
F772
330
F770
100
AcDbEntity
  8
0
  6
ByBlock
 62
     0
 48
50.0
100
AcDbPolyline
 90
        2
 70
     1
 43
0.5
 10
-0.0625
 20
0.0
 42
1.0
 10
0.0625
 20
0.0
 42
1.0
  0
ENDBLK
  5
F776
330
F770
100
AcDbEntity
  8
0
 48
50.0
100
AcDbBlockEnd
  0
BLOCK
  5
1F242
330
1F241
100
AcDbEntity
  8
0
 48
50.0
100
AcDbBlockBegin
  2
*D1
 70
     1
 10
0.0
 20
0.0
 30
0.0
  3
*D1
  1

  0
LINE
  5
1FC6B
330
1F241
100
AcDbEntity
  8
寸法
 62
     0
 48
50.0
370
    -2
100
AcDbLine
 10
8343.6
 20
6455.800000000002
 30
0.0
 11
10269.6
 21
6455.8
 31
0.0
  0
LINE
  5
1FC6C
330
1F241
100
AcDbEntity
  8
寸法
 62
     0
 48
50.0
370
    -2
100
AcDbLine
 10
9619.600000000001
 20
5804.800000000002
 30
0.0
 11
10269.6
 21
5804.800000000001
 31
0.0
  0
LINE
  5
1FC6D
330
1F241
100
AcDbEntity
  8
寸法
 62
     0
 48
50.0
370
    -2
100
AcDbLine
 10
10209.6
 20
6455.800000000002
 30
0.0
 11
10209.6
 21
5804.800000000002
 31
0.0
  0
INSERT
  5
1FC6E
330
1F241
100
AcDbEntity
  8
寸法
 62
     0
 48
50.0
370
    -2
100
AcDbBlockReference
  2
_DOTSMALL
 10
10209.6
 20
6455.800000000002
 30
0.0
 41
100.0
 42
100.0
 43
100.0
 50
90.0
  0
INSERT
  5
1FC6F
330
1F241
100
AcDbEntity
  8
寸法
 62
     0
 48
50.0
370
    -2
100
AcDbBlockReference
  2
_DOTSMALL
 10
10209.6
 20
5804.800000000002
 30
0.0
 41
100.0
 42
100.0
 43
100.0
 50
270.0
  0
MTEXT
  5
1FC70
330
1F241
100
AcDbEntity
  8
寸法
 62
     7
 48
50.0
100
AcDbMText
 10
10109.59999999999
 20
6130.300000000003
 30
0.0
 40
120.0
 41
0.0
 71
     5
 72
     1
  1
\A1;651
  7
STYLE1
 11
0.0000000000000001
 21
1.0
 31
0.0
 73
     1
 44
1.0
1001
ACAD
1000
MTEXTBEGIN
1070
    73
1070
     1
1070
    44
1040
1.0
1070
    74
1070
     0
1000
MTEXTEND
  0
POINT
  5
1FC71
330
1F241
100
AcDbEntity
  8
DEFPOINTS
 62
     0
 48
50.0
100
AcDbPoint
 10
8323.6
 20
6455.800000000002
 30
0.0
  0
POINT
  5
1FC72
330
1F241
100
AcDbEntity
  8
DEFPOINTS
 62
     0
 48
50.0
100
AcDbPoint
 10
9599.6
 20
5804.800000000002
 30
0.0
  0
POINT
  5
1FC73
330
1F241
100
AcDbEntity
  8
DEFPOINTS
 62
     0
 48
50.0
100
AcDbPoint
 10
10209.6
 20
5804.800000000002
 30
0.0
  0
ENDBLK
  5
1F243
330
1F241
100
AcDbEntity
  8
0
 48
50.0
100
AcDbBlockEnd
  0
BLOCK
  5
1F24D
330
1F24C
100
AcDbEntity
  8
0
 48
50.0
100
AcDbBlockBegin
  2
*D2
 70
     1
 10
0.0
 20
0.0
 30
0.0
  3
*D2
  1

  0
LINE
  5
1F78B
330
1F24C
100
AcDbEntity
  8
寸法
 62
     0
 48
50.0
370
    -2
100
AcDbLine
 10
6827.600000000001
 20
5804.800000000002
 30
0.0
 11
6177.599999999999
 21
5804.800000000002
 31
0.0
  0
LINE
  5
1F78C
330
1F24C
100
AcDbEntity
  8
寸法
 62
     0
 48
50.0
370
    -2
100
AcDbLine
 10
8103.6
 20
5739.800000000002
 30
0.0
 11
6177.599999999999
 21
5739.800000000002
 31
0.0
  0
LINE
  5
1F78D
330
1F24C
100
AcDbEntity
  8
寸法
 62
     0
 48
50.0
370
    -2
100
AcDbLine
 10
6237.6
 20
5804.800000000002
 30
0.0
 11
6237.6
 21
5904.800000000002
 31
0.0
  0
LINE
  5
1F78E
330
1F24C
100
AcDbEntity
  8
寸法
 62
     0
 48
50.0
370
    -2
100
AcDbLine
 10
6237.6
 20
5739.800000000002
 30
0.0
 11
6237.6
 21
4872.829437251524
 31
0.0
  0
LINE
  5
1F78F
330
1F24C
100
AcDbEntity
  8
寸法
 62
     0
 48
50.0
370
    -2
100
AcDbLine
 10
6237.6
 20
5804.800000000002
 30
0.0
 11
6237.6
 21
5739.800000000002
 31
0.0
  0
INSERT
  5
1F790
330
1F24C
100
AcDbEntity
  8
寸法
 62
     0
 48
50.0
370
    -2
100
AcDbBlockReference
  2
_DOTSMALL
 10
6237.6
 20
5804.800000000002
 30
0.0
 41
100.0
 42
100.0
 43
100.0
 50
270.0
  0
INSERT
  5
1F791
330
1F24C
100
AcDbEntity
  8
寸法
 62
     0
 48
50.0
370
    -2
100
AcDbBlockReference
  2
_DOTSMALL
 10
6237.6
 20
5739.800000000002
 30
0.0
 41
100.0
 42
100.0
 43
100.0
 50
90.0
  0
MTEXT
  5
1F792
330
1F24C
100
AcDbEntity
  8
寸法
 62
     7
 48
50.0
100
AcDbMText
 10
6137.599999999999
 20
5206.314718625765
 30
0.0
 40
120.0
 41
0.0
 71
     5
 72
     1
  1
\A1;扉の出65
  7
STYLE1
 11
0.0000000000000001
 21
1.0
 31
0.0
 73
     1
 44
1.0
1001
ACAD
1000
MTEXTBEGIN
1070
    73
1070
     1
1070
    44
1040
1.0
1070
    74
1070
     0
1000
MTEXTEND
  0
POINT
  5
1F793
330
1F24C
100
AcDbEntity
  8
DEFPOINTS
 62
     0
 48
50.0
100
AcDbPoint
 10
6847.599999999999
 20
5804.800000000002
 30
0.0
  0
POINT
  5
1F794
330
1F24C
100
AcDbEntity
  8
DEFPOINTS
 62
     0
 48
50.0
100
AcDbPoint
 10
8123.600000000001
 20
5739.800000000002
 30
0.0
  0
POINT
  5
1F795
330
1F24C
100
AcDbEntity
  8
DEFPOINTS
 62
     0
 48
50.0
100
AcDbPoint
 10
6237.6
 20
5739.800000000002
 30
0.0
  0
ENDBLK
  5
1F24E
330
1F24C
100
AcDbEntity
  8
0
 48
50.0
100
AcDbBlockEnd
  0
BLOCK
  5
1F25A
330
1F259
100
AcDbEntity
  8
0
 48
50.0
100
AcDbBlockBegin
  2
*D3
 70
     1
 10
0.0
 20
0.0
 30
0.0
  3
*D3
  1

  0
LINE
  5
1F7F4
330
1F259
100
AcDbEntity
  8
寸法
 62
     0
 48
50.0
370
    -2
100
AcDbLine
 10
9619.600000000001
 20
5804.800000000002
 30
0.0
 11
10619.6
 21
5804.800000000001
 31
0.0
  0
LINE
  5
1F7F5
330
1F259
100
AcDbEntity
  8
寸法
 62
     0
 48
50.0
370
    -2
100
AcDbLine
 10
9619.600000000001
 20
7106.800000000003
 30
0.0
 11
10619.6
 21
7106.800000000001
 31
0.0
  0
LINE
  5
1F7F6
330
1F259
100
AcDbEntity
  8
寸法
 62
     0
 48
50.0
370
    -2
100
AcDbLine
 10
10559.6
 20
5804.800000000001
 30
0.0
 11
10559.6
 21
7106.800000000001
 31
0.0
  0
INSERT
  5
1F7F7
330
1F259
100
AcDbEntity
  8
寸法
 62
     0
 48
50.0
370
    -2
100
AcDbBlockReference
  2
_DOTSMALL
 10
10559.6
 20
5804.800000000001
 30
0.0
 41
100.0
 42
100.0
 43
100.0
 50
270.0
  0
INSERT
  5
1F7F8
330
1F259
100
AcDbEntity
  8
寸法
 62
     0
 48
50.0
370
    -2
100
AcDbBlockReference
  2
_DOTSMALL
 10
10559.6
 20
7106.800000000001
 30
0.0
 41
100.0
 42
100.0
 43
100.0
 50
90.0
  0
MTEXT
  5
1F7F9
330
1F259
100
AcDbEntity
  8
寸法
 62
     7
 48
50.0
100
AcDbMText
 10
10459.58818897637
 20
6455.800000000003
 30
0.0
 40
120.0
 41
0.0
 71
     5
 72
     1
  1
\A1;1302
  7
STYLE1
 11
0.0000000000000001
 21
1.0
 31
0.0
 73
     1
 44
1.0
1001
ACAD
1000
MTEXTBEGIN
1070
    73
1070
     1
1070
    44
1040
1.0
1070
    74
1070
     0
1000
MTEXTEND
  0
POINT
  5
1F7FA
330
1F259
100
AcDbEntity
  8
DEFPOINTS
 62
     0
 48
50.0
100
AcDbPoint
 10
9599.6
 20
5804.800000000002
 30
0.0
  0
POINT
  5
1F7FB
330
1F259
100
AcDbEntity
  8
DEFPOINTS
 62
     0
 48
50.0
100
AcDbPoint
 10
9599.6
 20
7106.800000000003
 30
0.0
  0
POINT
  5
1F7FC
330
1F259
100
AcDbEntity
  8
DEFPOINTS
 62
     0
 48
50.0
100
AcDbPoint
 10
10559.6
 20
7106.800000000001
 30
0.0
  0
ENDBLK
  5
1F25B
330
1F259
100
AcDbEntity
  8
0
 48
50.0
100
AcDbBlockEnd
  0
BLOCK
  5
1F266
330
1F265
100
AcDbEntity
  8
0
 48
50.0
100
AcDbBlockBegin
  2
*D4
 70
     1
 10
0.0
 20
0.0
 30
0.0
  3
*D4
  1

  0
LINE
  5
1F779
330
1F265
100
AcDbEntity
  8
寸法
 62
     0
 48
50.0
370
    -2
100
AcDbLine
 10
6992.6
 20
5639.800000000002
 30
0.0
 11
6992.6
 21
4809.800000000002
 31
0.0
  0
LINE
  5
1F77A
330
1F265
100
AcDbEntity
  8
寸法
 62
     0
 48
50.0
370
    -2
100
AcDbLine
 10
9454.600000000001
 20
5639.800000000002
 30
0.0
 11
9454.600000000001
 21
4809.800000000002
 31
0.0
  0
LINE
  5
1F77B
330
1F265
100
AcDbEntity
  8
寸法
 62
     0
 48
50.0
370
    -2
100
AcDbLine
 10
6992.6
 20
4869.800000000002
 30
0.0
 11
9454.600000000001
 21
4869.800000000002
 31
0.0
  0
INSERT
  5
1F77C
330
1F265
100
AcDbEntity
  8
寸法
 62
     0
 48
50.0
370
    -2
100
AcDbBlockReference
  2
_DOTSMALL
 10
6992.6
 20
4869.800000000002
 30
0.0
 41
100.0
 42
100.0
 43
100.0
 50
180.0
  0
INSERT
  5
1F77D
330
1F265
100
AcDbEntity
  8
寸法
 62
     0
 48
50.0
370
    -2
100
AcDbBlockReference
  2
_DOTSMALL
 10
9454.600000000001
 20
4869.800000000002
 30
0.0
 41
100.0
 42
100.0
 43
100.0
  0
MTEXT
  5
1F77E
330
1F265
100
AcDbEntity
  8
寸法
 62
     7
 48
50.0
100
AcDbMText
 10
8223.600000000001
 20
4969.811811023624
 30
0.0
 40
120.0
 41
0.0
 71
     5
 72
     1
  1
\A1;2462
  7
STYLE1
 73
     1
 44
1.0
1001
ACAD
1000
MTEXTBEGIN
1070
    73
1070
     1
1070
    44
1040
1.0
1070
    74
1070
     0
1000
MTEXTEND
  0
POINT
  5
1F77F
330
1F265
100
AcDbEntity
  8
DEFPOINTS
 62
     0
 48
50.0
100
AcDbPoint
 10
6992.6
 20
5659.800000000002
 30
0.0
  0
POINT
  5
1F780
330
1F265
100
AcDbEntity
  8
DEFPOINTS
 62
     0
 48
50.0
100
AcDbPoint
 10
9454.600000000001
 20
5659.800000000002
 30
0.0
  0
POINT
  5
1F781
330
1F265
100
AcDbEntity
  8
DEFPOINTS
 62
     0
 48
50.0
100
AcDbPoint
 10
9454.600000000001
 20
4869.800000000002
 30
0.0
  0
ENDBLK
  5
1F267
330
1F265
100
AcDbEntity
  8
0
 48
50.0
100
AcDbBlockEnd
  0
BLOCK
  5
1F272
330
1F271
100
AcDbEntity
  8
0
 48
50.0
100
AcDbBlockBegin
  2
*D5
 70
     1
 10
0.0
 20
0.0
 30
0.0
  3
*D5
  1

  0
LINE
  5
1F76E
330
1F271
100
AcDbEntity
  8
寸法
 62
     0
 48
50.0
370
    -2
100
AcDbLine
 10
6937.6
 20
5649.800000000002
 30
0.0
 11
6937.6
 21
4809.800000000002
 31
0.0
  0
LINE
  5
1F76F
330
1F271
100
AcDbEntity
  8
寸法
 62
     0
 48
50.0
370
    -2
100
AcDbLine
 10
6992.6
 20
5639.800000000002
 30
0.0
 11
6992.6
 21
4809.800000000002
 31
0.0
  0
LINE
  5
1F770
330
1F271
100
AcDbEntity
  8
寸法
 62
     0
 48
50.0
370
    -2
100
AcDbLine
 10
6992.6
 20
4869.800000000002
 30
0.0
 11
7092.6
 21
4869.800000000002
 31
0.0
  0
LINE
  5
1F771
330
1F271
100
AcDbEntity
  8
寸法
 62
     0
 48
50.0
370
    -2
100
AcDbLine
 10
6937.6
 20
4869.800000000002
 30
0.0
 11
6429.694488188977
 21
4869.800000000002
 31
0.0
  0
LINE
  5
1F772
330
1F271
100
AcDbEntity
  8
寸法
 62
     0
 48
50.0
370
    -2
100
AcDbLine
 10
6992.6
 20
4869.800000000002
 30
0.0
 11
6937.6
 21
4869.800000000002
 31
0.0
  0
INSERT
  5
1F773
330
1F271
100
AcDbEntity
  8
寸法
 62
     0
 48
50.0
370
    -2
100
AcDbBlockReference
  2
_DOTSMALL
 10
6992.6
 20
4869.800000000002
 30
0.0
 41
100.0
 42
100.0
 43
100.0
 50
180.0
  0
INSERT
  5
1F774
330
1F271
100
AcDbEntity
  8
寸法
 62
     0
 48
50.0
370
    -2
100
AcDbBlockReference
  2
_DOTSMALL
 10
6937.6
 20
4869.800000000002
 30
0.0
 41
100.0
 42
100.0
 43
100.0
  0
MTEXT
  5
1F775
330
1F271
100
AcDbEntity
  8
寸法
 62
     7
 48
50.0
100
AcDbMText
 10
6583.647244094489
 20
4975.800000000003
 30
0.0
 40
120.0
 41
0.0
 71
     5
 72
     1
  1
\A1;(55)
  7
STYLE1
 73
     1
 44
1.0
1001
ACAD
1000
MTEXTBEGIN
1070
    73
1070
     1
1070
    44
1040
1.0
1070
    74
1070
     0
1000
MTEXTEND
  0
POINT
  5
1F776
330
1F271
100
AcDbEntity
  8
DEFPOINTS
 62
     0
 48
50.0
100
AcDbPoint
 10
6937.6
 20
5669.800000000002
 30
0.0
  0
POINT
  5
1F777
330
1F271
100
AcDbEntity
  8
DEFPOINTS
 62
     0
 48
50.0
100
AcDbPoint
 10
6992.6
 20
5659.800000000002
 30
0.0
  0
POINT
  5
1F778
330
1F271
100
AcDbEntity
  8
DEFPOINTS
 62
     0
 48
50.0
100
AcDbPoint
 10
6992.6
 20
4869.800000000002
 30
0.0
  0
ENDBLK
  5
1F273
330
1F271
100
AcDbEntity
  8
0
 48
50.0
100
AcDbBlockEnd
  0
BLOCK
  5
1F27F
330
1F27E
100
AcDbEntity
  8
0
 48
50.0
100
AcDbBlockBegin
  2
*D6
 70
     1
 10
0.0
 20
0.0
 30
0.0
  3
*D6
  1

  0
LINE
  5
1F763
330
1F27E
100
AcDbEntity
  8
寸法
 62
     0
 48
50.0
370
    -2
100
AcDbLine
 10
9454.600000000001
 20
5639.800000000002
 30
0.0
 11
9454.600000000001
 21
4809.800000000002
 31
0.0
  0
LINE
  5
1F764
330
1F27E
100
AcDbEntity
  8
寸法
 62
     0
 48
50.0
370
    -2
100
AcDbLine
 10
9509.6
 20
5649.800000000002
 30
0.0
 11
9509.6
 21
4809.800000000002
 31
0.0
  0
LINE
  5
1F765
330
1F27E
100
AcDbEntity
  8
寸法
 62
     0
 48
50.0
370
    -2
100
AcDbLine
 10
9454.600000000001
 20
4869.800000000002
 30
0.0
 11
9354.600000000001
 21
4869.800000000002
 31
0.0
  0
LINE
  5
1F766
330
1F27E
100
AcDbEntity
  8
寸法
 62
     0
 48
50.0
370
    -2
100
AcDbLine
 10
9509.6
 20
4869.800000000002
 30
0.0
 11
10017.50551181102
 21
4869.800000000002
 31
0.0
  0
LINE
  5
1F767
330
1F27E
100
AcDbEntity
  8
寸法
 62
     0
 48
50.0
370
    -2
100
AcDbLine
 10
9454.600000000001
 20
4869.800000000002
 30
0.0
 11
9509.6
 21
4869.800000000002
 31
0.0
  0
INSERT
  5
1F768
330
1F27E
100
AcDbEntity
  8
寸法
 62
     0
 48
50.0
370
    -2
100
AcDbBlockReference
  2
_DOTSMALL
 10
9454.600000000001
 20
4869.800000000002
 30
0.0
 41
100.0
 42
100.0
 43
100.0
  0
INSERT
  5
1F769
330
1F27E
100
AcDbEntity
  8
寸法
 62
     0
 48
50.0
370
    -2
100
AcDbBlockReference
  2
_DOTSMALL
 10
9509.6
 20
4869.800000000002
 30
0.0
 41
100.0
 42
100.0
 43
100.0
 50
180.0
  0
MTEXT
  5
1F76A
330
1F27E
100
AcDbEntity
  8
寸法
 62
     7
 48
50.0
100
AcDbMText
 10
9863.552755905512
 20
4975.800000000003
 30
0.0
 40
120.0
 41
0.0
 71
     5
 72
     1
  1
\A1;(55)
  7
STYLE1
 73
     1
 44
1.0
1001
ACAD
1000
MTEXTBEGIN
1070
    73
1070
     1
1070
    44
1040
1.0
1070
    74
1070
     0
1000
MTEXTEND
  0
POINT
  5
1F76B
330
1F27E
100
AcDbEntity
  8
DEFPOINTS
 62
     0
 48
50.0
100
AcDbPoint
 10
9454.600000000001
 20
5659.800000000002
 30
0.0
  0
POINT
  5
1F76C
330
1F27E
100
AcDbEntity
  8
DEFPOINTS
 62
     0
 48
50.0
100
AcDbPoint
 10
9509.6
 20
5669.800000000002
 30
0.0
  0
POINT
  5
1F76D
330
1F27E
100
AcDbEntity
  8
DEFPOINTS
 62
     0
 48
50.0
100
AcDbPoint
 10
9509.6
 20
4869.800000000002
 30
0.0
  0
ENDBLK
  5
1F280
330
1F27E
100
AcDbEntity
  8
0
 48
50.0
100
AcDbBlockEnd
  0
BLOCK
  5
1F28C
330
1F28B
100
AcDbEntity
  8
0
 48
50.0
100
AcDbBlockBegin
  2
*D7
 70
     1
 10
0.0
 20
0.0
 30
0.0
  3
*D7
  1

  0
LINE
  5
1F7FD
330
1F28B
100
AcDbEntity
  8
寸法
 62
     0
 48
50.0
370
    -2
100
AcDbLine
 10
9619.600000000001
 20
5804.800000000002
 30
0.0
 11
10619.6
 21
5804.800000000001
 31
0.0
  0
LINE
  5
1F7FE
330
1F28B
100
AcDbEntity
  8
寸法
 62
     0
 48
50.0
370
    -2
100
AcDbLine
 10
9529.6
 20
5669.800000000002
 30
0.0
 11
10619.6
 21
5669.800000000002
 31
0.0
  0
LINE
  5
1F7FF
330
1F28B
100
AcDbEntity
  8
寸法
 62
     0
 48
50.0
370
    -2
100
AcDbLine
 10
10559.6
 20
5804.800000000001
 30
0.0
 11
10559.6
 21
5669.800000000002
 31
0.0
  0
LINE
  5
1F800
330
1F28B
100
AcDbEntity
  8
寸法
 62
     0
 48
50.0
370
    -2
100
AcDbLine
 10
10559.6
 20
5669.800000000002
 30
0.0
 11
10559.6
 21
5155.906299212596
 31
0.0
  0
INSERT
  5
1F801
330
1F28B
100
AcDbEntity
  8
寸法
 62
     0
 48
50.0
370
    -2
100
AcDbBlockReference
  2
_DOTSMALL
 10
10559.6
 20
5804.800000000001
 30
0.0
 41
100.0
 42
100.0
 43
100.0
 50
90.0
  0
INSERT
  5
1F802
330
1F28B
100
AcDbEntity
  8
寸法
 62
     0
 48
50.0
370
    -2
100
AcDbBlockReference
  2
_DOTSMALL
 10
10559.6
 20
5669.800000000002
 30
0.0
 41
100.0
 42
100.0
 43
100.0
 50
270.0
  0
MTEXT
  5
1F803
330
1F28B
100
AcDbEntity
  8
寸法
 62
     7
 48
50.0
100
AcDbMText
 10
10453.6
 20
5339.859055118111
 30
0.0
 40
120.0
 41
0.0
 71
     5
 72
     1
  1
\A1;(135)
  7
STYLE1
 11
0.0000000000000001
 21
1.0
 31
0.0
 73
     1
 44
1.0
1001
ACAD
1000
MTEXTBEGIN
1070
    73
1070
     1
1070
    44
1040
1.0
1070
    74
1070
     0
1000
MTEXTEND
  0
POINT
  5
1F804
330
1F28B
100
AcDbEntity
  8
DEFPOINTS
 62
     0
 48
50.0
100
AcDbPoint
 10
9599.6
 20
5804.800000000002
 30
0.0
  0
POINT
  5
1F805
330
1F28B
100
AcDbEntity
  8
DEFPOINTS
 62
     0
 48
50.0
100
AcDbPoint
 10
9509.6
 20
5669.800000000002
 30
0.0
  0
POINT
  5
1F806
330
1F28B
100
AcDbEntity
  8
DEFPOINTS
 62
     0
 48
50.0
100
AcDbPoint
 10
10559.6
 20
5669.800000000002
 30
0.0
  0
ENDBLK
  5
1F28D
330
1F28B
100
AcDbEntity
  8
0
 48
50.0
100
AcDbBlockEnd
  0
BLOCK
  5
1F299
330
1F298
100
AcDbEntity
  8
0
 48
50.0
100
AcDbBlockBegin
  2
*D8
 70
     1
 10
0.0
 20
0.0
 30
0.0
  3
*D8
  1

  0
LINE
  5
1F750
330
1F298
100
AcDbEntity
  8
寸法
 62
     0
 48
50.0
370
    -2
100
AcDbLine
 10
7092.6
 20
7226.800000000001
 30
0.0
 11
7092.6
 21
7561.800000000002
 31
0.0
  0
LINE
  5
1F751
330
1F298
100
AcDbEntity
  8
寸法
 62
     0
 48
50.0
370
    -2
100
AcDbLine
 10
6892.6
 20
7226.800000000004
 30
0.0
 11
6892.6
 21
7561.800000000002
 31
0.0
  0
LINE
  5
1F752
330
1F298
100
AcDbEntity
  8
寸法
 62
     0
 48
50.0
370
    -2
100
AcDbLine
 10
7092.6
 20
7501.800000000002
 30
0.0
 11
6892.6
 21
7501.800000000002
 31
0.0
  0
INSERT
  5
1F753
330
1F298
100
AcDbEntity
  8
寸法
 62
     0
 48
50.0
370
    -2
100
AcDbBlockReference
  2
_DOTSMALL
 10
7092.6
 20
7501.800000000002
 30
0.0
 41
100.0
 42
100.0
 43
100.0
  0
INSERT
  5
1F754
330
1F298
100
AcDbEntity
  8
寸法
 62
     0
 48
50.0
370
    -2
100
AcDbBlockReference
  2
_DOTSMALL
 10
6892.6
 20
7501.800000000002
 30
0.0
 41
100.0
 42
100.0
 43
100.0
 50
180.0
  0
MTEXT
  5
1F755
330
1F298
100
AcDbEntity
  8
寸法
 62
     7
 48
50.0
100
AcDbMText
 10
6992.6
 20
7601.811811023624
 30
0.0
 40
120.0
 41
0.0
 71
     5
 72
     1
  1
\A1;200
  7
STYLE1
 73
     1
 44
1.0
1001
ACAD
1000
MTEXTBEGIN
1070
    73
1070
     1
1070
    44
1040
1.0
1070
    74
1070
     0
1000
MTEXTEND
  0
POINT
  5
1F756
330
1F298
100
AcDbEntity
  8
DEFPOINTS
 62
     0
 48
50.0
100
AcDbPoint
 10
7092.6
 20
7206.800000000002
 30
0.0
  0
POINT
  5
1F757
330
1F298
100
AcDbEntity
  8
DEFPOINTS
 62
     0
 48
50.0
100
AcDbPoint
 10
6892.6
 20
7206.800000000004
 30
0.0
  0
POINT
  5
1F758
330
1F298
100
AcDbEntity
  8
DEFPOINTS
 62
     0
 48
50.0
100
AcDbPoint
 10
6892.6
 20
7501.800000000002
 30
0.0
  0
ENDBLK
  5
1F29A
330
1F298
100
AcDbEntity
  8
0
 48
50.0
100
AcDbBlockEnd
  0
BLOCK
  5
1F2A5
330
1F2A4
100
AcDbEntity
  8
0
 48
50.0
100
AcDbBlockBegin
  2
*D9
 70
     1
 10
0.0
 20
0.0
 30
0.0
  3
*D9
  1

  0
LINE
  5
1FC74
330
1F2A4
100
AcDbEntity
  8
寸法
 62
     0
 48
50.0
370
    -2
100
AcDbLine
 10
9619.600000000001
 20
7106.800000000003
 30
0.0
 11
10269.6
 21
7106.800000000001
 31
0.0
  0
LINE
  5
1FC75
330
1F2A4
100
AcDbEntity
  8
寸法
 62
     0
 48
50.0
370
    -2
100
AcDbLine
 10
8343.6
 20
6455.800000000002
 30
0.0
 11
10269.6
 21
6455.8
 31
0.0
  0
LINE
  5
1FC76
330
1F2A4
100
AcDbEntity
  8
寸法
 62
     0
 48
50.0
370
    -2
100
AcDbLine
 10
10209.6
 20
7106.800000000003
 30
0.0
 11
10209.6
 21
6455.800000000002
 31
0.0
  0
INSERT
  5
1FC77
330
1F2A4
100
AcDbEntity
  8
寸法
 62
     0
 48
50.0
370
    -2
100
AcDbBlockReference
  2
_DOTSMALL
 10
10209.6
 20
7106.800000000003
 30
0.0
 41
100.0
 42
100.0
 43
100.0
 50
90.0
  0
INSERT
  5
1FC78
330
1F2A4
100
AcDbEntity
  8
寸法
 62
     0
 48
50.0
370
    -2
100
AcDbBlockReference
  2
_DOTSMALL
 10
10209.6
 20
6455.800000000002
 30
0.0
 41
100.0
 42
100.0
 43
100.0
 50
270.0
  0
MTEXT
  5
1FC79
330
1F2A4
100
AcDbEntity
  8
寸法
 62
     7
 48
50.0
100
AcDbMText
 10
10109.59999999999
 20
6781.300000000003
 30
0.0
 40
120.0
 41
0.0
 71
     5
 72
     1
  1
\A1;651
  7
STYLE1
 11
0.0000000000000001
 21
1.0
 31
0.0
 73
     1
 44
1.0
1001
ACAD
1000
MTEXTBEGIN
1070
    73
1070
     1
1070
    44
1040
1.0
1070
    74
1070
     0
1000
MTEXTEND
  0
POINT
  5
1FC7A
330
1F2A4
100
AcDbEntity
  8
DEFPOINTS
 62
     0
 48
50.0
100
AcDbPoint
 10
9599.6
 20
7106.800000000003
 30
0.0
  0
POINT
  5
1FC7B
330
1F2A4
100
AcDbEntity
  8
DEFPOINTS
 62
     0
 48
50.0
100
AcDbPoint
 10
8323.6
 20
6455.800000000002
 30
0.0
  0
POINT
  5
1FC7C
330
1F2A4
100
AcDbEntity
  8
DEFPOINTS
 62
     0
 48
50.0
100
AcDbPoint
 10
10209.6
 20
6455.800000000002
 30
0.0
  0
ENDBLK
  5
1F2A6
330
1F2A4
100
AcDbEntity
  8
0
 48
50.0
100
AcDbBlockEnd
  0
BLOCK
  5
1F2B1
330
1F2B0
100
AcDbEntity
  8
0
 48
50.0
100
AcDbBlockBegin
  2
*D10
 70
     1
 10
0.0
 20
0.0
 30
0.0
  3
*D10
  1

  0
LINE
  5
1F73E
330
1F2B0
100
AcDbEntity
  8
寸法
 62
     0
 48
50.0
370
    -2
100
AcDbLine
 10
6872.6
 20
7206.800000000002
 30
0.0
 11
6577.600000000002
 21
7206.800000000002
 31
0.0
  0
LINE
  5
1F73F
330
1F2B0
100
AcDbEntity
  8
寸法
 62
     0
 48
50.0
370
    -2
100
AcDbLine
 10
6872.6
 20
7006.800000000002
 30
0.0
 11
6577.600000000002
 21
7006.800000000002
 31
0.0
  0
LINE
  5
1F740
330
1F2B0
100
AcDbEntity
  8
寸法
 62
     0
 48
50.0
370
    -2
100
AcDbLine
 10
6637.600000000002
 20
7206.800000000002
 30
0.0
 11
6637.600000000002
 21
7006.800000000002
 31
0.0
  0
INSERT
  5
1F741
330
1F2B0
100
AcDbEntity
  8
寸法
 62
     0
 48
50.0
370
    -2
100
AcDbBlockReference
  2
_DOTSMALL
 10
6637.600000000002
 20
7206.800000000002
 30
0.0
 41
100.0
 42
100.0
 43
100.0
 50
90.0
  0
INSERT
  5
1F742
330
1F2B0
100
AcDbEntity
  8
寸法
 62
     0
 48
50.0
370
    -2
100
AcDbBlockReference
  2
_DOTSMALL
 10
6637.600000000002
 20
7006.800000000002
 30
0.0
 41
100.0
 42
100.0
 43
100.0
 50
270.0
  0
MTEXT
  5
1F743
330
1F2B0
100
AcDbEntity
  8
寸法
 62
     7
 48
50.0
100
AcDbMText
 10
6537.588188976378
 20
7106.800000000004
 30
0.0
 40
120.0
 41
0.0
 71
     5
 72
     1
  1
\A1;200
  7
STYLE1
 11
0.0000000000000001
 21
1.0
 31
0.0
 73
     1
 44
1.0
1001
ACAD
1000
MTEXTBEGIN
1070
    73
1070
     1
1070
    44
1040
1.0
1070
    74
1070
     0
1000
MTEXTEND
  0
POINT
  5
1F744
330
1F2B0
100
AcDbEntity
  8
DEFPOINTS
 62
     0
 48
50.0
100
AcDbPoint
 10
6892.6
 20
7206.800000000002
 30
0.0
  0
POINT
  5
1F745
330
1F2B0
100
AcDbEntity
  8
DEFPOINTS
 62
     0
 48
50.0
100
AcDbPoint
 10
6892.6
 20
7006.800000000002
 30
0.0
  0
POINT
  5
1F746
330
1F2B0
100
AcDbEntity
  8
DEFPOINTS
 62
     0
 48
50.0
100
AcDbPoint
 10
6637.600000000002
 20
7006.800000000002
 30
0.0
  0
ENDBLK
  5
1F2B2
330
1F2B0
100
AcDbEntity
  8
0
 48
50.0
100
AcDbBlockEnd
  0
BLOCK
  5
1F2BD
330
1F2BC
100
AcDbEntity
  8
0
 48
50.0
100
AcDbBlockBegin
  2
*D11
 70
     1
 10
0.0
 20
0.0
 30
0.0
  3
*D11
  1

  0
LINE
  5
1F7E1
330
1F2BC
100
AcDbEntity
  8
寸法
 62
     0
 48
50.0
370
    -2
100
AcDbLine
 10
9619.600000000001
 20
7106.800000000003
 30
0.0
 11
10619.6
 21
7106.800000000001
 31
0.0
  0
LINE
  5
1F7E2
330
1F2BC
100
AcDbEntity
  8
寸法
 62
     0
 48
50.0
370
    -2
100
AcDbLine
 10
9529.6
 20
7201.8
 30
0.0
 11
10619.6
 21
7201.8
 31
0.0
  0
LINE
  5
1F7E3
330
1F2BC
100
AcDbEntity
  8
寸法
 62
     0
 48
50.0
370
    -2
100
AcDbLine
 10
10559.6
 20
7106.800000000001
 30
0.0
 11
10559.6
 21
7201.8
 31
0.0
  0
LINE
  5
1F7E4
330
1F2BC
100
AcDbEntity
  8
寸法
 62
     0
 48
50.0
370
    -2
100
AcDbLine
 10
10559.6
 20
7201.8
 30
0.0
 11
10559.6
 21
7648.66543540413
 31
0.0
  0
INSERT
  5
1F7E5
330
1F2BC
100
AcDbEntity
  8
寸法
 62
     0
 48
50.0
370
    -2
100
AcDbBlockReference
  2
_DOTSMALL
 10
10559.6
 20
7106.800000000001
 30
0.0
 41
100.0
 42
100.0
 43
100.0
 50
270.0
  0
INSERT
  5
1F7E6
330
1F2BC
100
AcDbEntity
  8
寸法
 62
     0
 48
50.0
370
    -2
100
AcDbBlockReference
  2
_DOTSMALL
 10
10559.6
 20
7201.8
 30
0.0
 41
100.0
 42
100.0
 43
100.0
 50
90.0
  0
MTEXT
  5
1F7E7
330
1F2BC
100
AcDbEntity
  8
寸法
 62
     7
 48
50.0
100
AcDbMText
 10
10453.57099845882
 20
7494.503019668963
 30
0.0
 40
120.0
 41
0.0
 71
     5
 72
     1
  1
\A1;(95)
  7
STYLE1
 11
0.0000000000000001
 21
1.0
 31
0.0
 73
     1
 44
1.0
1001
ACAD
1000
MTEXTBEGIN
1070
    73
1070
     1
1070
    44
1040
1.0
1070
    74
1070
     0
1000
MTEXTEND
  0
POINT
  5
1F7E8
330
1F2BC
100
AcDbEntity
  8
DEFPOINTS
 62
     0
 48
50.0
100
AcDbPoint
 10
9599.6
 20
7106.800000000003
 30
0.0
  0
POINT
  5
1F7E9
330
1F2BC
100
AcDbEntity
  8
DEFPOINTS
 62
     0
 48
50.0
100
AcDbPoint
 10
9509.6
 20
7201.8
 30
0.0
  0
POINT
  5
1F7EA
330
1F2BC
100
AcDbEntity
  8
DEFPOINTS
 62
     0
 48
50.0
100
AcDbPoint
 10
10559.6
 20
7201.8
 30
0.0
  0
ENDBLK
  5
1F2BE
330
1F2BC
100
AcDbEntity
  8
0
 48
50.0
100
AcDbBlockEnd
  0
BLOCK
  5
1F2CA
330
1F2C9
100
AcDbEntity
  8
0
 48
50.0
100
AcDbBlockBegin
  2
*D12
 70
     1
 10
0.0
 20
0.0
 30
0.0
  3
*D12
  1

  0
LINE
  5
206E3
330
1F2C9
100
AcDbEntity
  8
寸法
  6
HIDDEN
 62
     0
 48
20.0
370
    -2
100
AcDbLine
 10
7464.600000000003
 20
6310.799999999986
 30
0.0
 11
6177.600000000001
 21
6310.799999999986
 31
0.0
  0
LINE
  5
206E4
330
1F2C9
100
AcDbEntity
  8
寸法
  6
HIDDEN
 62
     0
 48
20.0
370
    -2
100
AcDbLine
 10
6827.600000000001
 20
5804.800000000002
 30
0.0
 11
6177.6
 21
5804.800000000002
 31
0.0
  0
LINE
  5
206E5
330
1F2C9
100
AcDbEntity
  8
寸法
  6
HIDDEN
 62
     0
 48
20.0
370
    -2
100
AcDbLine
 10
6237.600000000001
 20
6310.799999999986
 30
0.0
 11
6237.6
 21
5804.800000000002
 31
0.0
  0
INSERT
  5
206E6
330
1F2C9
100
AcDbEntity
  8
寸法
  6
HIDDEN
 62
     0
 48
20.0
370
    -2
100
AcDbBlockReference
  2
_DOTSMALL
 10
6237.600000000001
 20
6310.799999999986
 30
0.0
 41
100.0
 42
100.0
 43
100.0
 50
90.0
  0
INSERT
  5
206E7
330
1F2C9
100
AcDbEntity
  8
寸法
  6
HIDDEN
 62
     0
 48
20.0
370
    -2
100
AcDbBlockReference
  2
_DOTSMALL
 10
6237.6
 20
5804.800000000002
 30
0.0
 41
100.0
 42
100.0
 43
100.0
 50
270.0
  0
MTEXT
  5
206E8
330
1F2C9
100
AcDbEntity
  8
寸法
  6
HIDDEN
 62
     7
 48
20.0
100
AcDbMText
 10
6137.599999999999
 20
6057.799999999996
 30
0.0
 40
120.0
 41
0.0
 71
     5
 72
     1
  1
\A1;506
  7
STYLE1
 11
0.0000000000000001
 21
1.0
 31
0.0
 73
     1
 44
1.0
1001
ACAD
1000
MTEXTBEGIN
1070
    73
1070
     1
1070
    44
1040
1.0
1070
    74
1070
     0
1000
MTEXTEND
  0
POINT
  5
206E9
330
1F2C9
100
AcDbEntity
  8
DEFPOINTS
  6
HIDDEN
 62
     0
 48
20.0
100
AcDbPoint
 10
7484.600000000002
 20
6310.799999999986
 30
0.0
  0
POINT
  5
206EA
330
1F2C9
100
AcDbEntity
  8
DEFPOINTS
  6
HIDDEN
 62
     0
 48
20.0
100
AcDbPoint
 10
6847.599999999999
 20
5804.800000000002
 30
0.0
  0
POINT
  5
206EB
330
1F2C9
100
AcDbEntity
  8
DEFPOINTS
  6
HIDDEN
 62
     0
 48
20.0
100
AcDbPoint
 10
6237.6
 20
5804.800000000002
 30
0.0
  0
ENDBLK
  5
1F2CB
330
1F2C9
100
AcDbEntity
  8
0
 48
50.0
100
AcDbBlockEnd
  0
BLOCK
  5
1F2D5
330
1F2D4
100
AcDbEntity
  8
0
 48
50.0
100
AcDbBlockBegin
  2
*D13
 70
     1
 10
0.0
 20
0.0
 30
0.0
  3
*D13
  1

  0
LINE
  5
206DA
330
1F2D4
100
AcDbEntity
  8
寸法
  6
HIDDEN
 62
     0
 48
20.0
370
    -2
100
AcDbLine
 10
7464.600000000003
 20
6745.799999999984
 30
0.0
 11
6177.6
 21
6745.799999999984
 31
0.0
  0
LINE
  5
206DB
330
1F2D4
100
AcDbEntity
  8
寸法
  6
HIDDEN
 62
     0
 48
20.0
370
    -2
100
AcDbLine
 10
7464.600000000003
 20
6310.799999999986
 30
0.0
 11
6177.6
 21
6310.799999999986
 31
0.0
  0
LINE
  5
206DC
330
1F2D4
100
AcDbEntity
  8
寸法
  6
HIDDEN
 62
     0
 48
20.0
370
    -2
100
AcDbLine
 10
6237.6
 20
6745.799999999984
 30
0.0
 11
6237.6
 21
6310.799999999986
 31
0.0
  0
INSERT
  5
206DD
330
1F2D4
100
AcDbEntity
  8
寸法
  6
HIDDEN
 62
     0
 48
20.0
370
    -2
100
AcDbBlockReference
  2
_DOTSMALL
 10
6237.6
 20
6745.799999999984
 30
0.0
 41
100.0
 42
100.0
 43
100.0
 50
90.0
  0
INSERT
  5
206DE
330
1F2D4
100
AcDbEntity
  8
寸法
  6
HIDDEN
 62
     0
 48
20.0
370
    -2
100
AcDbBlockReference
  2
_DOTSMALL
 10
6237.6
 20
6310.799999999986
 30
0.0
 41
100.0
 42
100.0
 43
100.0
 50
270.0
  0
MTEXT
  5
206DF
330
1F2D4
100
AcDbEntity
  8
寸法
  6
HIDDEN
 62
     7
 48
20.0
100
AcDbMText
 10
6137.599999999999
 20
6528.299999999987
 30
0.0
 40
120.0
 41
0.0
 71
     5
 72
     1
  1
\A1;435
  7
STYLE1
 11
0.0000000000000001
 21
1.0
 31
0.0
 73
     1
 44
1.0
1001
ACAD
1000
MTEXTBEGIN
1070
    73
1070
     1
1070
    44
1040
1.0
1070
    74
1070
     0
1000
MTEXTEND
  0
POINT
  5
206E0
330
1F2D4
100
AcDbEntity
  8
DEFPOINTS
  6
HIDDEN
 62
     0
 48
20.0
100
AcDbPoint
 10
7484.600000000002
 20
6745.799999999984
 30
0.0
  0
POINT
  5
206E1
330
1F2D4
100
AcDbEntity
  8
DEFPOINTS
  6
HIDDEN
 62
     0
 48
20.0
100
AcDbPoint
 10
7484.600000000002
 20
6310.799999999986
 30
0.0
  0
POINT
  5
206E2
330
1F2D4
100
AcDbEntity
  8
DEFPOINTS
  6
HIDDEN
 62
     0
 48
20.0
100
AcDbPoint
 10
6237.6
 20
6310.799999999986
 30
0.0
  0
ENDBLK
  5
1F2D6
330
1F2D4
100
AcDbEntity
  8
0
 48
50.0
100
AcDbBlockEnd
  0
BLOCK
  5
1F2E1
330
1F2E0
100
AcDbEntity
  8
0
 48
50.0
100
AcDbBlockBegin
  2
*D14
 70
     1
 10
0.0
 20
0.0
 30
0.0
  3
*D14
  1

  0
LINE
  5
206D1
330
1F2E0
100
AcDbEntity
  8
寸法
  6
HIDDEN
 62
     0
 48
20.0
370
    -2
100
AcDbLine
 10
6411.913993709337
 20
7106.800000000003
 30
0.0
 11
6177.6
 21
7106.800000000003
 31
0.0
  0
LINE
  5
206D2
330
1F2E0
100
AcDbEntity
  8
寸法
  6
HIDDEN
 62
     0
 48
20.0
370
    -2
100
AcDbLine
 10
7464.600000000003
 20
6745.799999999984
 30
0.0
 11
6177.6
 21
6745.799999999984
 31
0.0
  0
LINE
  5
206D3
330
1F2E0
100
AcDbEntity
  8
寸法
  6
HIDDEN
 62
     0
 48
20.0
370
    -2
100
AcDbLine
 10
6237.6
 20
7106.800000000003
 30
0.0
 11
6237.6
 21
6745.799999999984
 31
0.0
  0
INSERT
  5
206D4
330
1F2E0
100
AcDbEntity
  8
寸法
  6
HIDDEN
 62
     0
 48
20.0
370
    -2
100
AcDbBlockReference
  2
_DOTSMALL
 10
6237.6
 20
7106.800000000003
 30
0.0
 41
100.0
 42
100.0
 43
100.0
 50
90.0
  0
INSERT
  5
206D5
330
1F2E0
100
AcDbEntity
  8
寸法
  6
HIDDEN
 62
     0
 48
20.0
370
    -2
100
AcDbBlockReference
  2
_DOTSMALL
 10
6237.6
 20
6745.799999999984
 30
0.0
 41
100.0
 42
100.0
 43
100.0
 50
270.0
  0
MTEXT
  5
206D6
330
1F2E0
100
AcDbEntity
  8
寸法
  6
HIDDEN
 62
     7
 48
20.0
100
AcDbMText
 10
6137.599999999999
 20
6926.299999999995
 30
0.0
 40
120.0
 41
0.0
 71
     5
 72
     1
  1
\A1;361
  7
STYLE1
 11
0.0000000000000001
 21
1.0
 31
0.0
 73
     1
 44
1.0
1001
ACAD
1000
MTEXTBEGIN
1070
    73
1070
     1
1070
    44
1040
1.0
1070
    74
1070
     0
1000
MTEXTEND
  0
POINT
  5
206D7
330
1F2E0
100
AcDbEntity
  8
DEFPOINTS
  6
HIDDEN
 62
     0
 48
20.0
100
AcDbPoint
 10
6431.913993709336
 20
7106.800000000003
 30
0.0
  0
POINT
  5
206D8
330
1F2E0
100
AcDbEntity
  8
DEFPOINTS
  6
HIDDEN
 62
     0
 48
20.0
100
AcDbPoint
 10
7484.600000000002
 20
6745.799999999984
 30
0.0
  0
POINT
  5
206D9
330
1F2E0
100
AcDbEntity
  8
DEFPOINTS
  6
HIDDEN
 62
     0
 48
20.0
100
AcDbPoint
 10
6237.6
 20
6745.799999999984
 30
0.0
  0
ENDBLK
  5
1F2E2
330
1F2E0
100
AcDbEntity
  8
0
 48
50.0
100
AcDbBlockEnd
  0
BLOCK
  5
20487
330
20486
100
AcDbEntity
  8
0
 48
50.0
100
AcDbBlockBegin
  2
*D15
 70
     1
 10
0.0
 20
0.0
 30
0.0
  3
*D15
  1

  0
LINE
  5
204C2
330
20486
100
AcDbEntity
  8
寸法
 62
     0
 48
50.0
370
    -2
100
AcDbLine
 10
9299.830017163008
 20
1484.777956760628
 30
0.0
 11
8992.202006232092
 21
1484.777956760628
 31
0.0
  0
LINE
  5
204C3
330
20486
100
AcDbEntity
  8
寸法
 62
     0
 48
50.0
370
    -2
100
AcDbLine
 10
9095.830017163008
 20
1284.777956760628
 30
0.0
 11
8992.202006232092
 21
1284.777956760628
 31
0.0
  0
LINE
  5
204C4
330
20486
100
AcDbEntity
  8
寸法
 62
     0
 48
50.0
370
    -2
100
AcDbLine
 10
9052.202006232091
 20
1484.777956760628
 30
0.0
 11
9052.202006232091
 21
1284.777956760628
 31
0.0
  0
INSERT
  5
204C5
330
20486
100
AcDbEntity
  8
寸法
 62
     0
 48
50.0
370
    -2
100
AcDbBlockReference
  2
_DOTSMALL
 10
9052.202006232091
 20
1484.777956760628
 30
0.0
 41
100.0
 42
100.0
 43
100.0
 50
90.0
  0
INSERT
  5
204C6
330
20486
100
AcDbEntity
  8
寸法
 62
     0
 48
50.0
370
    -2
100
AcDbBlockReference
  2
_DOTSMALL
 10
9052.202006232091
 20
1284.777956760628
 30
0.0
 41
100.0
 42
100.0
 43
100.0
 50
270.0
  0
MTEXT
  5
204C7
330
20486
100
AcDbEntity
  8
寸法
 62
     7
 48
50.0
100
AcDbMText
 10
8952.202006232091
 20
1384.777956760627
 30
0.0
 40
120.0
 41
0.0
 71
     5
 72
     1
  1
\A1;b
  7
STYLE1
 11
0.0000000000000001
 21
1.0
 31
0.0
 73
     1
 44
1.0
1001
ACAD
1000
MTEXTBEGIN
1070
    73
1070
     1
1070
    44
1040
1.0
1070
    74
1070
     0
1000
MTEXTEND
  0
POINT
  5
204C8
330
20486
100
AcDbEntity
  8
DEFPOINTS
 62
     0
 48
50.0
100
AcDbPoint
 10
9319.83001716301
 20
1484.777956760628
 30
0.0
  0
POINT
  5
204C9
330
20486
100
AcDbEntity
  8
DEFPOINTS
 62
     0
 48
50.0
100
AcDbPoint
 10
9115.830017163009
 20
1284.777956760628
 30
0.0
  0
POINT
  5
204CA
330
20486
100
AcDbEntity
  8
DEFPOINTS
 62
     0
 48
50.0
100
AcDbPoint
 10
9052.202006232091
 20
1284.777956760628
 30
0.0
  0
ENDBLK
  5
20488
330
20486
100
AcDbEntity
  8
0
 48
50.0
100
AcDbBlockEnd
  0
BLOCK
  5
20493
330
20492
100
AcDbEntity
  8
0
 48
50.0
100
AcDbBlockBegin
  2
*D16
 70
     1
 10
0.0
 20
0.0
 30
0.0
  3
*D16
  1

  0
LINE
  5
204CB
330
20492
100
AcDbEntity
  8
寸法
 62
     0
 48
50.0
370
    -2
100
AcDbLine
 10
11059.83001716301
 20
1664.777956760627
 30
0.0
 11
10752.20200623209
 21
1664.777956760627
 31
0.0
  0
LINE
  5
204CC
330
20492
100
AcDbEntity
  8
寸法
 62
     0
 48
50.0
370
    -2
100
AcDbLine
 10
10855.83001716301
 20
1284.777956760628
 30
0.0
 11
10752.20200623209
 21
1284.777956760628
 31
0.0
  0
LINE
  5
204CD
330
20492
100
AcDbEntity
  8
寸法
 62
     0
 48
50.0
370
    -2
100
AcDbLine
 10
10812.20200623209
 20
1664.777956760627
 30
0.0
 11
10812.20200623209
 21
1284.777956760628
 31
0.0
  0
INSERT
  5
204CE
330
20492
100
AcDbEntity
  8
寸法
 62
     0
 48
50.0
370
    -2
100
AcDbBlockReference
  2
_DOTSMALL
 10
10812.20200623209
 20
1664.777956760627
 30
0.0
 41
100.0
 42
100.0
 43
100.0
 50
90.0
  0
INSERT
  5
204CF
330
20492
100
AcDbEntity
  8
寸法
 62
     0
 48
50.0
370
    -2
100
AcDbBlockReference
  2
_DOTSMALL
 10
10812.20200623209
 20
1284.777956760628
 30
0.0
 41
100.0
 42
100.0
 43
100.0
 50
270.0
  0
MTEXT
  5
204D0
330
20492
100
AcDbEntity
  8
寸法
 62
     7
 48
50.0
100
AcDbMText
 10
10712.20200623209
 20
1474.777956760628
 30
0.0
 40
120.0
 41
0.0
 71
     5
 72
     1
  1
\A1;c
  7
STYLE1
 11
0.0000000000000001
 21
1.0
 31
0.0
 73
     1
 44
1.0
1001
ACAD
1000
MTEXTBEGIN
1070
    73
1070
     1
1070
    44
1040
1.0
1070
    74
1070
     0
1000
MTEXTEND
  0
POINT
  5
204D1
330
20492
100
AcDbEntity
  8
DEFPOINTS
 62
     0
 48
50.0
100
AcDbPoint
 10
11079.83001716301
 20
1664.777956760627
 30
0.0
  0
POINT
  5
204D2
330
20492
100
AcDbEntity
  8
DEFPOINTS
 62
     0
 48
50.0
100
AcDbPoint
 10
10875.83001716301
 20
1284.777956760628
 30
0.0
  0
POINT
  5
204D3
330
20492
100
AcDbEntity
  8
DEFPOINTS
 62
     0
 48
50.0
100
AcDbPoint
 10
10812.20200623209
 20
1284.777956760628
 30
0.0
  0
ENDBLK
  5
20494
330
20492
100
AcDbEntity
  8
0
 48
50.0
100
AcDbBlockEnd
  0
BLOCK
  5
2049F
330
2049E
100
AcDbEntity
  8
0
 48
50.0
100
AcDbBlockBegin
  2
*D17
 70
     1
 10
0.0
 20
0.0
 30
0.0
  3
*D17
  1

  0
LINE
  5
204D4
330
2049E
100
AcDbEntity
  8
寸法
 62
     0
 48
50.0
370
    -2
100
AcDbLine
 10
7335.830017163008
 20
1284.777956760628
 30
0.0
 11
7114.573995301173
 21
1284.777956760628
 31
0.0
  0
LINE
  5
204D5
330
2049E
100
AcDbEntity
  8
寸法
 62
     0
 48
50.0
370
    -2
100
AcDbLine
 10
7335.830017163008
 20
884.7779567606284
 30
0.0
 11
7114.573995301173
 21
884.7779567606284
 31
0.0
  0
LINE
  5
204D6
330
2049E
100
AcDbEntity
  8
寸法
 62
     0
 48
50.0
370
    -2
100
AcDbLine
 10
7174.573995301172
 20
1284.777956760628
 30
0.0
 11
7174.573995301172
 21
884.7779567606284
 31
0.0
  0
INSERT
  5
204D7
330
2049E
100
AcDbEntity
  8
寸法
 62
     0
 48
50.0
370
    -2
100
AcDbBlockReference
  2
_DOTSMALL
 10
7174.573995301172
 20
1284.777956760628
 30
0.0
 41
100.0
 42
100.0
 43
100.0
 50
90.0
  0
INSERT
  5
204D8
330
2049E
100
AcDbEntity
  8
寸法
 62
     0
 48
50.0
370
    -2
100
AcDbBlockReference
  2
_DOTSMALL
 10
7174.573995301172
 20
884.7779567606284
 30
0.0
 41
100.0
 42
100.0
 43
100.0
 50
270.0
  0
MTEXT
  5
204D9
330
2049E
100
AcDbEntity
  8
寸法
 62
     7
 48
50.0
100
AcDbMText
 10
7074.56218427755
 20
1084.777956760628
 30
0.0
 40
120.0
 41
0.0
 71
     5
 72
     1
  1
\A1;200
  7
STYLE1
 11
0.0000000000000001
 21
1.0
 31
0.0
 73
     1
 44
1.0
1001
ACAD
1000
MTEXTBEGIN
1070
    73
1070
     1
1070
    44
1040
1.0
1070
    74
1070
     0
1000
MTEXTEND
  0
POINT
  5
204DA
330
2049E
100
AcDbEntity
  8
DEFPOINTS
 62
     0
 48
50.0
100
AcDbPoint
 10
7355.830017163007
 20
1284.777956760628
 30
0.0
  0
POINT
  5
204DB
330
2049E
100
AcDbEntity
  8
DEFPOINTS
 62
     0
 48
50.0
100
AcDbPoint
 10
7355.830017163007
 20
884.7779567606284
 30
0.0
  0
POINT
  5
204DC
330
2049E
100
AcDbEntity
  8
DEFPOINTS
 62
     0
 48
50.0
100
AcDbPoint
 10
7174.573995301172
 20
884.7779567606284
 30
0.0
  0
ENDBLK
  5
204A0
330
2049E
100
AcDbEntity
  8
0
 48
50.0
100
AcDbBlockEnd
  0
BLOCK
  5
204AB
330
204AA
100
AcDbEntity
  8
0
 48
50.0
100
AcDbBlockBegin
  2
*D18
 70
     1
 10
0.0
 20
0.0
 30
0.0
  3
*D18
  1

  0
LINE
  5
204DD
330
204AA
100
AcDbEntity
  8
寸法
 62
     0
 48
50.0
370
    -2
100
AcDbLine
 10
7539.830017163007
 20
1484.777956760628
 30
0.0
 11
7114.573995301173
 21
1484.777956760628
 31
0.0
  0
LINE
  5
204DE
330
204AA
100
AcDbEntity
  8
寸法
 62
     0
 48
50.0
370
    -2
100
AcDbLine
 10
7335.830017163008
 20
1284.777956760628
 30
0.0
 11
7114.573995301173
 21
1284.777956760628
 31
0.0
  0
LINE
  5
204DF
330
204AA
100
AcDbEntity
  8
寸法
 62
     0
 48
50.0
370
    -2
100
AcDbLine
 10
7174.573995301172
 20
1484.777956760628
 30
0.0
 11
7174.573995301172
 21
1284.777956760628
 31
0.0
  0
INSERT
  5
204E0
330
204AA
100
AcDbEntity
  8
寸法
 62
     0
 48
50.0
370
    -2
100
AcDbBlockReference
  2
_DOTSMALL
 10
7174.573995301172
 20
1484.777956760628
 30
0.0
 41
100.0
 42
100.0
 43
100.0
 50
90.0
  0
INSERT
  5
204E1
330
204AA
100
AcDbEntity
  8
寸法
 62
     0
 48
50.0
370
    -2
100
AcDbBlockReference
  2
_DOTSMALL
 10
7174.573995301172
 20
1284.777956760628
 30
0.0
 41
100.0
 42
100.0
 43
100.0
 50
270.0
  0
MTEXT
  5
204E2
330
204AA
100
AcDbEntity
  8
寸法
 62
     7
 48
50.0
100
AcDbMText
 10
7074.573995301172
 20
1384.777956760627
 30
0.0
 40
120.0
 41
0.0
 71
     5
 72
     1
  1
\A1;a
  7
STYLE1
 11
0.0000000000000001
 21
1.0
 31
0.0
 73
     1
 44
1.0
1001
ACAD
1000
MTEXTBEGIN
1070
    73
1070
     1
1070
    44
1040
1.0
1070
    74
1070
     0
1000
MTEXTEND
  0
POINT
  5
204E3
330
204AA
100
AcDbEntity
  8
DEFPOINTS
 62
     0
 48
50.0
100
AcDbPoint
 10
7559.830017163007
 20
1484.777956760628
 30
0.0
  0
POINT
  5
204E4
330
204AA
100
AcDbEntity
  8
DEFPOINTS
 62
     0
 48
50.0
100
AcDbPoint
 10
7355.830017163007
 20
1284.777956760628
 30
0.0
  0
POINT
  5
204E5
330
204AA
100
AcDbEntity
  8
DEFPOINTS
 62
     0
 48
50.0
100
AcDbPoint
 10
7174.573995301172
 20
1284.777956760628
 30
0.0
  0
ENDBLK
  5
204AC
330
204AA
100
AcDbEntity
  8
0
 48
50.0
100
AcDbBlockEnd
  0
BLOCK
  5
204B7
330
204B6
100
AcDbEntity
  8
0
 48
50.0
100
AcDbBlockBegin
  2
*D19
 70
     1
 10
0.0
 20
0.0
 30
0.0
  3
*D19
  1

  0
LINE
  5
204E6
330
204B6
100
AcDbEntity
  8
寸法
 62
     0
 48
50.0
370
    -2
100
AcDbLine
 10
7755.830017163008
 20
864.7779567606285
 30
0.0
 11
7755.830017163008
 21
598.2949912753242
 31
0.0
  0
LINE
  5
204E7
330
204B6
100
AcDbEntity
  8
寸法
 62
     0
 48
50.0
370
    -2
100
AcDbLine
 10
7355.830017163007
 20
864.7779567606285
 30
0.0
 11
7355.830017163007
 21
598.2949912753242
 31
0.0
  0
LINE
  5
204E8
330
204B6
100
AcDbEntity
  8
寸法
 62
     0
 48
50.0
370
    -2
100
AcDbLine
 10
7755.830017163008
 20
658.2949912753242
 30
0.0
 11
7355.830017163007
 21
658.2949912753242
 31
0.0
  0
INSERT
  5
204E9
330
204B6
100
AcDbEntity
  8
寸法
 62
     0
 48
50.0
370
    -2
100
AcDbBlockReference
  2
_DOTSMALL
 10
7755.830017163008
 20
658.2949912753242
 30
0.0
 41
100.0
 42
100.0
 43
100.0
  0
INSERT
  5
204EA
330
204B6
100
AcDbEntity
  8
寸法
 62
     0
 48
50.0
370
    -2
100
AcDbBlockReference
  2
_DOTSMALL
 10
7355.830017163007
 20
658.2949912753242
 30
0.0
 41
100.0
 42
100.0
 43
100.0
 50
180.0
  0
MTEXT
  5
204EB
330
204B6
100
AcDbEntity
  8
寸法
 62
     7
 48
50.0
100
AcDbMText
 10
7555.830017163008
 20
758.3068022989463
 30
0.0
 40
120.0
 41
0.0
 71
     5
 72
     1
  1
\A1;200
  7
STYLE1
 73
     1
 44
1.0
1001
ACAD
1000
MTEXTBEGIN
1070
    73
1070
     1
1070
    44
1040
1.0
1070
    74
1070
     0
1000
MTEXTEND
  0
POINT
  5
204EC
330
204B6
100
AcDbEntity
  8
DEFPOINTS
 62
     0
 48
50.0
100
AcDbPoint
 10
7755.830017163008
 20
884.7779567606284
 30
0.0
  0
POINT
  5
204ED
330
204B6
100
AcDbEntity
  8
DEFPOINTS
 62
     0
 48
50.0
100
AcDbPoint
 10
7355.830017163007
 20
884.7779567606284
 30
0.0
  0
POINT
  5
204EE
330
204B6
100
AcDbEntity
  8
DEFPOINTS
 62
     0
 48
50.0
100
AcDbPoint
 10
7355.830017163007
 20
658.2949912753242
 30
0.0
  0
ENDBLK
  5
204B8
330
204B6
100
AcDbEntity
  8
0
 48
50.0
100
AcDbBlockEnd
  0
BLOCK
  5
20503
330
20502
100
AcDbEntity
  8
0
 48
50.0
100
AcDbBlockBegin
  2
*D20
 70
     1
 10
0.0
 20
0.0
 30
0.0
  3
*D20
  1

  0
LINE
  5
206C8
330
20502
100
AcDbEntity
  8
寸法
  6
HIDDEN
 62
     0
 48
10.0
370
    -2
100
AcDbLine
 10
6992.6
 20
7703.944059368897
 30
0.0
 11
6992.6
 21
7900.064702170006
 31
0.0
  0
LINE
  5
206C9
330
20502
100
AcDbEntity
  8
寸法
  6
HIDDEN
 62
     0
 48
10.0
370
    -2
100
AcDbLine
 10
7629.600000000002
 20
6910.799999999984
 30
0.0
 11
7629.600000000002
 21
7900.064702170006
 31
0.0
  0
LINE
  5
206CA
330
20502
100
AcDbEntity
  8
寸法
  6
HIDDEN
 62
     0
 48
10.0
370
    -2
100
AcDbLine
 10
6992.6
 20
7840.064702170007
 30
0.0
 11
7629.600000000002
 21
7840.064702170007
 31
0.0
  0
INSERT
  5
206CB
330
20502
100
AcDbEntity
  8
寸法
  6
HIDDEN
 62
     0
 48
10.0
370
    -2
100
AcDbBlockReference
  2
_DOTSMALL
 10
6992.6
 20
7840.064702170007
 30
0.0
 41
100.0
 42
100.0
 43
100.0
 50
180.0
  0
INSERT
  5
206CC
330
20502
100
AcDbEntity
  8
寸法
  6
HIDDEN
 62
     0
 48
10.0
370
    -2
100
AcDbBlockReference
  2
_DOTSMALL
 10
7629.600000000002
 20
7840.064702170007
 30
0.0
 41
100.0
 42
100.0
 43
100.0
  0
MTEXT
  5
206CD
330
20502
100
AcDbEntity
  8
寸法
  6
HIDDEN
 62
     7
 48
10.0
100
AcDbMText
 10
7311.100000000002
 20
7940.064702170007
 30
0.0
 40
120.0
 41
0.0
 71
     5
 72
     1
  1
\A1;637
  7
STYLE1
 73
     1
 44
1.0
1001
ACAD
1000
MTEXTBEGIN
1070
    73
1070
     1
1070
    44
1040
1.0
1070
    74
1070
     0
1000
MTEXTEND
  0
POINT
  5
206CE
330
20502
100
AcDbEntity
  8
DEFPOINTS
  6
HIDDEN
 62
     0
 48
10.0
100
AcDbPoint
 10
6992.6
 20
7683.944059368896
 30
0.0
  0
POINT
  5
206CF
330
20502
100
AcDbEntity
  8
DEFPOINTS
  6
HIDDEN
 62
     0
 48
10.0
100
AcDbPoint
 10
7629.600000000002
 20
6890.799999999984
 30
0.0
  0
POINT
  5
206D0
330
20502
100
AcDbEntity
  8
DEFPOINTS
  6
HIDDEN
 62
     0
 48
10.0
100
AcDbPoint
 10
7629.600000000002
 20
7840.064702170007
 30
0.0
  0
ENDBLK
  5
20504
330
20502
100
AcDbEntity
  8
0
 48
50.0
100
AcDbBlockEnd
  0
BLOCK
  5
20510
330
2050F
100
AcDbEntity
  8
0
 48
50.0
100
AcDbBlockBegin
  2
*D21
 70
     1
 10
0.0
 20
0.0
 30
0.0
  3
*D21
  1

  0
LINE
  5
206BF
330
2050F
100
AcDbEntity
  8
寸法
  6
HIDDEN
 62
     0
 48
10.0
370
    -2
100
AcDbLine
 10
7629.600000000002
 20
6910.799999999984
 30
0.0
 11
7629.600000000002
 21
7900.064702170006
 31
0.0
  0
LINE
  5
206C0
330
2050F
100
AcDbEntity
  8
寸法
  6
HIDDEN
 62
     0
 48
10.0
370
    -2
100
AcDbLine
 10
8223.600000000001
 20
7126.800000000002
 30
0.0
 11
8223.600000000001
 21
7900.064702170006
 31
0.0
  0
LINE
  5
206C1
330
2050F
100
AcDbEntity
  8
寸法
  6
HIDDEN
 62
     0
 48
10.0
370
    -2
100
AcDbLine
 10
7629.600000000002
 20
7840.064702170007
 30
0.0
 11
8223.600000000001
 21
7840.064702170007
 31
0.0
  0
INSERT
  5
206C2
330
2050F
100
AcDbEntity
  8
寸法
  6
HIDDEN
 62
     0
 48
10.0
370
    -2
100
AcDbBlockReference
  2
_DOTSMALL
 10
7629.600000000002
 20
7840.064702170007
 30
0.0
 41
100.0
 42
100.0
 43
100.0
 50
180.0
  0
INSERT
  5
206C3
330
2050F
100
AcDbEntity
  8
寸法
  6
HIDDEN
 62
     0
 48
10.0
370
    -2
100
AcDbBlockReference
  2
_DOTSMALL
 10
8223.600000000001
 20
7840.064702170007
 30
0.0
 41
100.0
 42
100.0
 43
100.0
  0
MTEXT
  5
206C4
330
2050F
100
AcDbEntity
  8
寸法
  6
HIDDEN
 62
     7
 48
10.0
100
AcDbMText
 10
7926.600000000002
 20
7940.064702170007
 30
0.0
 40
120.0
 41
0.0
 71
     5
 72
     1
  1
\A1;594
  7
STYLE1
 73
     1
 44
1.0
1001
ACAD
1000
MTEXTBEGIN
1070
    73
1070
     1
1070
    44
1040
1.0
1070
    74
1070
     0
1000
MTEXTEND
  0
POINT
  5
206C5
330
2050F
100
AcDbEntity
  8
DEFPOINTS
  6
HIDDEN
 62
     0
 48
10.0
100
AcDbPoint
 10
7629.600000000002
 20
6890.799999999984
 30
0.0
  0
POINT
  5
206C6
330
2050F
100
AcDbEntity
  8
DEFPOINTS
  6
HIDDEN
 62
     0
 48
10.0
100
AcDbPoint
 10
8223.600000000001
 20
7106.800000000003
 30
0.0
  0
POINT
  5
206C7
330
2050F
100
AcDbEntity
  8
DEFPOINTS
  6
HIDDEN
 62
     0
 48
10.0
100
AcDbPoint
 10
8223.600000000001
 20
7840.064702170007
 30
0.0
  0
ENDBLK
  5
20511
330
2050F
100
AcDbEntity
  8
0
 48
50.0
100
AcDbBlockEnd
  0
BLOCK
  5
2051D
330
2051C
100
AcDbEntity
  8
0
 48
50.0
100
AcDbBlockBegin
  2
*D22
 70
     1
 10
0.0
 20
0.0
 30
0.0
  3
*D22
  1

  0
LINE
  5
206B6
330
2051C
100
AcDbEntity
  8
寸法
  6
HIDDEN
 62
     0
 48
10.0
370
    -2
100
AcDbLine
 10
8223.600000000001
 20
7126.800000000002
 30
0.0
 11
8223.600000000001
 21
7900.064702170006
 31
0.0
  0
LINE
  5
206B7
330
2051C
100
AcDbEntity
  8
寸法
  6
HIDDEN
 62
     0
 48
10.0
370
    -2
100
AcDbLine
 10
8817.599999999998
 20
6910.799999999984
 30
0.0
 11
8817.599999999998
 21
7900.064702170006
 31
0.0
  0
LINE
  5
206B8
330
2051C
100
AcDbEntity
  8
寸法
  6
HIDDEN
 62
     0
 48
10.0
370
    -2
100
AcDbLine
 10
8223.600000000001
 20
7840.064702170007
 30
0.0
 11
8817.599999999998
 21
7840.064702170007
 31
0.0
  0
INSERT
  5
206B9
330
2051C
100
AcDbEntity
  8
寸法
  6
HIDDEN
 62
     0
 48
10.0
370
    -2
100
AcDbBlockReference
  2
_DOTSMALL
 10
8223.600000000001
 20
7840.064702170007
 30
0.0
 41
100.0
 42
100.0
 43
100.0
 50
180.0
  0
INSERT
  5
206BA
330
2051C
100
AcDbEntity
  8
寸法
  6
HIDDEN
 62
     0
 48
10.0
370
    -2
100
AcDbBlockReference
  2
_DOTSMALL
 10
8817.599999999998
 20
7840.064702170007
 30
0.0
 41
100.0
 42
100.0
 43
100.0
  0
MTEXT
  5
206BB
330
2051C
100
AcDbEntity
  8
寸法
  6
HIDDEN
 62
     7
 48
10.0
100
AcDbMText
 10
8520.599999999999
 20
7940.064702170007
 30
0.0
 40
120.0
 41
0.0
 71
     5
 72
     1
  1
\A1;594
  7
STYLE1
 73
     1
 44
1.0
1001
ACAD
1000
MTEXTBEGIN
1070
    73
1070
     1
1070
    44
1040
1.0
1070
    74
1070
     0
1000
MTEXTEND
  0
POINT
  5
206BC
330
2051C
100
AcDbEntity
  8
DEFPOINTS
  6
HIDDEN
 62
     0
 48
10.0
100
AcDbPoint
 10
8223.600000000001
 20
7106.800000000003
 30
0.0
  0
POINT
  5
206BD
330
2051C
100
AcDbEntity
  8
DEFPOINTS
  6
HIDDEN
 62
     0
 48
10.0
100
AcDbPoint
 10
8817.599999999998
 20
6890.799999999984
 30
0.0
  0
POINT
  5
206BE
330
2051C
100
AcDbEntity
  8
DEFPOINTS
  6
HIDDEN
 62
     0
 48
10.0
100
AcDbPoint
 10
8817.599999999998
 20
7840.064702170007
 30
0.0
  0
ENDBLK
  5
2051E
330
2051C
100
AcDbEntity
  8
0
 48
50.0
100
AcDbBlockEnd
  0
BLOCK
  5
2052A
330
20529
100
AcDbEntity
  8
0
 48
50.0
100
AcDbBlockBegin
  2
*D23
 70
     1
 10
0.0
 20
0.0
 30
0.0
  3
*D23
  1

  0
LINE
  5
206AD
330
20529
100
AcDbEntity
  8
寸法
  6
HIDDEN
 62
     0
 48
10.0
370
    -2
100
AcDbLine
 10
8817.599999999998
 20
6910.799999999984
 30
0.0
 11
8817.599999999998
 21
7900.064702170006
 31
0.0
  0
LINE
  5
206AE
330
20529
100
AcDbEntity
  8
寸法
  6
HIDDEN
 62
     0
 48
10.0
370
    -2
100
AcDbLine
 10
9454.600000000001
 20
7271.800000000002
 30
0.0
 11
9454.600000000001
 21
7900.064702170006
 31
0.0
  0
LINE
  5
206AF
330
20529
100
AcDbEntity
  8
寸法
  6
HIDDEN
 62
     0
 48
10.0
370
    -2
100
AcDbLine
 10
8817.599999999998
 20
7840.064702170007
 30
0.0
 11
9454.600000000001
 21
7840.064702170007
 31
0.0
  0
INSERT
  5
206B0
330
20529
100
AcDbEntity
  8
寸法
  6
HIDDEN
 62
     0
 48
10.0
370
    -2
100
AcDbBlockReference
  2
_DOTSMALL
 10
8817.599999999998
 20
7840.064702170007
 30
0.0
 41
100.0
 42
100.0
 43
100.0
 50
180.0
  0
INSERT
  5
206B1
330
20529
100
AcDbEntity
  8
寸法
  6
HIDDEN
 62
     0
 48
10.0
370
    -2
100
AcDbBlockReference
  2
_DOTSMALL
 10
9454.600000000001
 20
7840.064702170007
 30
0.0
 41
100.0
 42
100.0
 43
100.0
  0
MTEXT
  5
206B2
330
20529
100
AcDbEntity
  8
寸法
  6
HIDDEN
 62
     7
 48
10.0
100
AcDbMText
 10
9136.099999999998
 20
7940.064702170007
 30
0.0
 40
120.0
 41
0.0
 71
     5
 72
     1
  1
\A1;637
  7
STYLE1
 73
     1
 44
1.0
1001
ACAD
1000
MTEXTBEGIN
1070
    73
1070
     1
1070
    44
1040
1.0
1070
    74
1070
     0
1000
MTEXTEND
  0
POINT
  5
206B3
330
20529
100
AcDbEntity
  8
DEFPOINTS
  6
HIDDEN
 62
     0
 48
10.0
100
AcDbPoint
 10
8817.599999999998
 20
6890.799999999984
 30
0.0
  0
POINT
  5
206B4
330
20529
100
AcDbEntity
  8
DEFPOINTS
  6
HIDDEN
 62
     0
 48
10.0
100
AcDbPoint
 10
9454.600000000001
 20
7251.800000000002
 30
0.0
  0
POINT
  5
206B5
330
20529
100
AcDbEntity
  8
DEFPOINTS
  6
HIDDEN
 62
     0
 48
10.0
100
AcDbPoint
 10
9454.600000000001
 20
7840.064702170007
 30
0.0
  0
ENDBLK
  5
2052B
330
20529
100
AcDbEntity
  8
0
 48
50.0
100
AcDbBlockEnd
  0
BLOCK
  5
20564
330
20563
100
AcDbEntity
  8
0
 48
50.0
100
AcDbBlockBegin
  2
*D24
 70
     1
 10
0.0
 20
0.0
 30
0.0
  3
*D24
  1

  0
LINE
  5
20566
330
20563
100
AcDbEntity
  8
寸法
 62
     0
 48
50.0
370
    -2
100
AcDbLine
 10
6992.6
 20
7703.944059368897
 30
0.0
 11
6992.6
 21
8330.083902896655
 31
0.0
  0
LINE
  5
20567
330
20563
100
AcDbEntity
  8
寸法
 62
     0
 48
50.0
370
    -2
100
AcDbLine
 10
8223.600000000001
 20
7146.800000000002
 30
0.0
 11
8223.600000000001
 21
8330.083902896655
 31
0.0
  0
LINE
  5
20568
330
20563
100
AcDbEntity
  8
寸法
 62
     0
 48
50.0
370
    -2
100
AcDbLine
 10
6992.6
 20
8270.083902896656
 30
0.0
 11
8223.600000000001
 21
8270.083902896656
 31
0.0
  0
INSERT
  5
20569
330
20563
100
AcDbEntity
  8
寸法
 62
     0
 48
50.0
370
    -2
100
AcDbBlockReference
  2
_DOTSMALL
 10
6992.6
 20
8270.083902896656
 30
0.0
 41
100.0
 42
100.0
 43
100.0
 50
180.0
  0
INSERT
  5
2056A
330
20563
100
AcDbEntity
  8
寸法
 62
     0
 48
50.0
370
    -2
100
AcDbBlockReference
  2
_DOTSMALL
 10
8223.600000000001
 20
8270.083902896656
 30
0.0
 41
100.0
 42
100.0
 43
100.0
  0
MTEXT
  5
2056B
330
20563
100
AcDbEntity
  8
寸法
 62
     7
 48
50.0
100
AcDbMText
 10
7608.1
 20
8370.095713920276
 30
0.0
 40
120.0
 41
0.0
 71
     5
 72
     1
  1
\A1;1231
  7
STYLE1
 73
     1
 44
1.0
1001
ACAD
1000
MTEXTBEGIN
1070
    73
1070
     1
1070
    44
1040
1.0
1070
    74
1070
     0
1000
MTEXTEND
  0
POINT
  5
2056C
330
20563
100
AcDbEntity
  8
DEFPOINTS
 62
     0
 48
50.0
100
AcDbPoint
 10
6992.6
 20
7683.944059368896
 30
0.0
  0
POINT
  5
2056D
330
20563
100
AcDbEntity
  8
DEFPOINTS
 62
     0
 48
50.0
100
AcDbPoint
 10
8223.600000000001
 20
7126.800000000002
 30
0.0
  0
POINT
  5
2056E
330
20563
100
AcDbEntity
  8
DEFPOINTS
 62
     0
 48
50.0
100
AcDbPoint
 10
8223.600000000001
 20
8270.083902896656
 30
0.0
  0
ENDBLK
  5
20565
330
20563
100
AcDbEntity
  8
0
 48
50.0
100
AcDbBlockEnd
  0
BLOCK
  5
20571
330
20570
100
AcDbEntity
  8
0
 48
50.0
100
AcDbBlockBegin
  2
*D25
 70
     1
 10
0.0
 20
0.0
 30
0.0
  3
*D25
  1

  0
LINE
  5
2060B
330
20570
100
AcDbEntity
  8
寸法
 62
     0
 48
50.0
370
    -2
100
AcDbLine
 10
8223.600000000001
 20
7126.800000000002
 30
0.0
 11
8223.600000000001
 21
8330.083902896655
 31
0.0
  0
LINE
  5
2060C
330
20570
100
AcDbEntity
  8
寸法
 62
     0
 48
50.0
370
    -2
100
AcDbLine
 10
9454.600000000001
 20
7271.800000000002
 30
0.0
 11
9454.600000000001
 21
8330.083902896655
 31
0.0
  0
LINE
  5
2060D
330
20570
100
AcDbEntity
  8
寸法
 62
     0
 48
50.0
370
    -2
100
AcDbLine
 10
8223.600000000001
 20
8270.083902896656
 30
0.0
 11
9454.600000000001
 21
8270.083902896656
 31
0.0
  0
INSERT
  5
2060E
330
20570
100
AcDbEntity
  8
寸法
 62
     0
 48
50.0
370
    -2
100
AcDbBlockReference
  2
_DOTSMALL
 10
8223.600000000001
 20
8270.083902896656
 30
0.0
 41
100.0
 42
100.0
 43
100.0
 50
180.0
  0
INSERT
  5
2060F
330
20570
100
AcDbEntity
  8
寸法
 62
     0
 48
50.0
370
    -2
100
AcDbBlockReference
  2
_DOTSMALL
 10
9454.600000000001
 20
8270.083902896656
 30
0.0
 41
100.0
 42
100.0
 43
100.0
  0
MTEXT
  5
20610
330
20570
100
AcDbEntity
  8
寸法
 62
     7
 48
50.0
100
AcDbMText
 10
8839.1
 20
8370.095713920276
 30
0.0
 40
120.0
 41
0.0
 71
     5
 72
     1
  1
\A1;1231
  7
STYLE1
 73
     1
 44
1.0
1001
ACAD
1000
MTEXTBEGIN
1070
    73
1070
     1
1070
    44
1040
1.0
1070
    74
1070
     0
1000
MTEXTEND
  0
POINT
  5
20611
330
20570
100
AcDbEntity
  8
DEFPOINTS
 62
     0
 48
50.0
100
AcDbPoint
 10
8223.600000000001
 20
7106.800000000003
 30
0.0
  0
POINT
  5
20612
330
20570
100
AcDbEntity
  8
DEFPOINTS
 62
     0
 48
50.0
100
AcDbPoint
 10
9454.600000000001
 20
7251.800000000002
 30
0.0
  0
POINT
  5
20613
330
20570
100
AcDbEntity
  8
DEFPOINTS
 62
     0
 48
50.0
100
AcDbPoint
 10
9454.600000000001
 20
8270.083902896656
 30
0.0
  0
ENDBLK
  5
20572
330
20570
100
AcDbEntity
  8
0
 48
50.0
100
AcDbBlockEnd
  0
ENDSEC
  0
SECTION
  2
ENTITIES
  0
LINE
  5
10B57
330
747D
100
AcDbEntity
  8
補助
  6
PHANTOM
 62
   230
 48
50.0
100
AcDbLine
 10
139.9999999999995
 20
11409.6
 30
0.0
 11
16307.2
 21
11409.6
 31
0.0
  0
LINE
  5
10B5D
330
747D
100
AcDbEntity
  8
仕様書枠
 48
50.0
100
AcDbLine
 10
140.0
 20
0.0
 30
0.0
 11
16307.2
 21
-0.0000000000000909
 31
0.0
  0
LINE
  5
10B5E
330
747D
100
AcDbEntity
  8
補助
  6
PHANTOM
 62
   230
 48
50.0
100
AcDbLine
 10
16307.2
 20
11409.6
 30
0.0
 11
16307.2
 21
1200.0
 31
0.0
  0
LINE
  5
10B6D
330
747D
100
AcDbEntity
  8
補助
  6
PHANTOM
 62
   230
 48
50.0
100
AcDbLine
 10
13107.2
 20
11409.6
 30
0.0
 11
13107.2
 21
4800.0
 31
0.0
  0
LINE
  5
10B6F
330
747D
100
AcDbEntity
  8
補助
  6
PHANTOM
 62
   230
 48
50.0
100
AcDbLine
 10
13107.2
 20
4800.0
 30
0.0
 11
16307.2
 21
4800.0
 31
0.0
  0
LINE
  5
1E2B2
330
747D
100
AcDbEntity
  8
仕様書枠
  6
Continuous
 48
50.0
100
AcDbLine
 10
13107.2
 20
1200.0
 30
0.0
 11
13107.2
 21
0.0
 31
0.0
  0
LINE
  5
1E2B3
330
747D
100
AcDbEntity
  8
仕様書枠
 48
50.0
100
AcDbLine
 10
16307.2
 20
1200.0
 30
0.0
 11
16307.2
 21
0.0
 31
0.0
  0
LINE
  5
1E2B5
330
747D
100
AcDbEntity
  8
仕様書枠
 48
50.0
100
AcDbLine
 10
13107.2
 20
1200.0
 30
0.0
 11
16307.2
 21
1200.0
 31
0.0
  0
LINE
  5
1E2B6
330
747D
100
AcDbEntity
  8
仕様書枠
 62
     7
 48
50.0
100
AcDbLine
 10
13187.2
 20
400.0
 30
0.0
 11
16227.2
 21
400.0
 31
0.0
  0
TEXT
  5
1E2B7
330
747D
100
AcDbEntity
  8
仕様書枠
 62
     7
 48
50.0
100
AcDbText
 10
13162.9790565769
 20
895.0906074299405
 30
0.0
 40
200.0
  1
基 礎 図
  7
STYLE2
100
AcDbText
  0
LINE
  5
1E2B8
330
747D
100
AcDbEntity
  8
仕様書枠
 48
50.0
100
AcDbLine
 10
13107.2
 20
800.0
 30
0.0
 11
14251.2
 21
800.0
 31
0.0
  0
LINE
  5
1E2B9
330
747D
100
AcDbEntity
  8
仕様書枠
  6
Continuous
 48
50.0
100
AcDbLine
 10
14251.2
 20
1200.0
 30
0.0
 11
14251.2
 21
800.0
 31
0.0
  0
TEXT
  5
1E2BA
330
747D
100
AcDbEntity
  8
文字
 62
     7
 48
50.0
100
AcDbText
 10
13209.4053442172
 20
162.2419670731237
 30
0.0
 40
80.0
  1
※寒冷地等は、地域の実情に合わせた基礎にしてください。
  7
STYLE2
100
AcDbText
  0
TEXT
  5
1E2BB
330
747D
100
AcDbEntity
  8
文字
 62
     7
 48
50.0
100
AcDbText
 10
13201.43669998441
 20
477.2740661031252
 30
0.0
 40
160.0
  1
機種名
  7
STYLE2
100
AcDbText
  0
TEXT
  5
1E2BC
330
747D
100
AcDbEntity
  8
仕様書枠
 62
     7
 48
50.0
100
AcDbText
 10
14492.02509413847
 20
483.8967129911411
 30
0.0
 40
160.0
  1
ＳＭＫ-３２ＳN
  7
STYLE2
100
AcDbText
  0
TEXT
  5
1E2BD
330
747D
100
AcDbEntity
  8
文字
 62
     7
 48
50.0
100
AcDbText
 10
15124.85083330759
 20
1031.557706291228
 30
0.0
 40
100.0
  1
<縮尺> S=1/40
  7
STYLE2
100
AcDbText
  0
TEXT
  5
1E2BE
330
747D
100
AcDbEntity
  8
文字
 62
     7
 48
50.0
100
AcDbText
 10
14708.83350340506
 20
838.2527270729188
 30
0.0
 40
100.0
  1
～一般型･多雪地型～
  7
STYLE2
100
AcDbText
  0
LINE
  5
1E2C1
330
747D
100
AcDbEntity
  8
補助
  6
PHANTOM
 62
   230
 48
50.0
100
AcDbLine
 10
140.0
 20
11409.6
 30
0.0
 11
140.0
 21
0.0
 31
0.0
  0
LINE
  5
1E6F4
330
747D
100
AcDbEntity
  8
寸法
 48
50.0
100
AcDbLine
 10
10029.43104675867
 20
3636.8364496059
 30
0.0
 11
6745.782265545305
 21
3636.8364496059
 31
0.0
  0
TEXT
  5
1E6F5
330
747D
100
AcDbEntity
  8
文字
 62
     7
 48
50.0
100
AcDbText
 10
7166.562789555503
 20
3688.452898520099
 30
0.0
 40
120.0
  1
重量物を入れる場合（根太部ブロック追加）
  7
STYLE1
100
AcDbText
  0
LINE
  5
1E6F6
102
{ACAD_REACTORS
330
1E6FA
102
}
330
747D
100
AcDbEntity
  8
細線
 48
10.0
100
AcDbLine
 10
6793.526948561805
 20
3704.064558385878
 30
0.0
 11
7113.526948561805
 21
3704.064558385878
 31
0.0
  0
LINE
  5
1E6F7
102
{ACAD_REACTORS
330
1E6FA
102
}
330
747D
100
AcDbEntity
  8
細線
 48
10.0
100
AcDbLine
 10
6793.526948561805
 20
3864.064558385878
 30
0.0
 11
7113.526948561805
 21
3864.064558385878
 31
0.0
  0
LINE
  5
1E6F8
102
{ACAD_REACTORS
330
1E6FA
102
}
330
747D
100
AcDbEntity
  8
細線
 48
10.0
100
AcDbLine
 10
6793.526948561805
 20
3704.064558385878
 30
0.0
 11
6793.526948561805
 21
3864.064558385878
 31
0.0
  0
LINE
  5
1E6F9
102
{ACAD_REACTORS
330
1E6FA
102
}
330
747D
100
AcDbEntity
  8
細線
 48
10.0
100
AcDbLine
 10
7113.526948561805
 20
3864.064558385878
 30
0.0
 11
7113.526948561805
 21
3704.064558385878
 31
0.0
  0
HATCH
  5
1E6FA
330
747D
100
AcDbEntity
  8
部品1
 48
50.0
100
AcDbHatch
 10
0.0
 20
0.0
 30
0.0
210
0.0
220
0.0
230
1.0
  2
DOTS
 70
     0
 71
     1
 91
        1
 92
        7
 72
     0
 73
     1
 93
        4
 10
6793.526948561805
 20
3864.064558385878
 10
6793.526948561805
 20
3704.064558385878
 10
7113.526948561805
 20
3704.064558385878
 10
7113.526948561805
 20
3864.064558385878
 97
        4
330
1E6F7
330
1E6F8
330
1E6F6
330
1E6F9
 75
     0
 76
     1
 52
0.0
 41
12.0
 77
     0
 78
     1
 53
0.0
 43
2285.7822655453
 44
2996.8364496059
 45
9.525
 46
19.05
 79
     2
 49
0.0
 49
-19.05
 47
4.354393451972202
 98
        1
 10
7009.525717630925
 20
3834.605806674815
  0
TEXT
  5
1E6FB
330
747D
100
AcDbEntity
  8
文字
 62
     7
 48
50.0
100
AcDbText
 10
6761.176331355793
 20
4022.153319890484
 30
0.0
 40
120.0
  1
（　）内寸法は屋根の出幅です。
  7
STYLE1
100
AcDbText
  0
LINE
  5
1E6FC
330
747D
100
AcDbEntity
  8
寸法
 48
50.0
100
AcDbLine
 10
8935.912351029639
 20
3970.536870976284
 30
0.0
 11
6745.782265545305
 21
3970.536870976284
 31
0.0
  0
MTEXT
  5
1F035
102
{ACAD_REACTORS
330
1F052
102
}
330
747D
100
AcDbEntity
  8
細線
 62
     7
 48
50.0
100
AcDbMText
 10
9607.801632652925
 20
6309.784030553824
 30
0.0
 40
120.0
 41
0.0
 71
     4
 72
     1
  1
\A1;C.B
  7
STYLE1
 73
     1
 44
1.0
1001
ACAD
1000
MTEXTBEGIN
1070
    73
1070
     1
1070
    44
1040
1.0
1070
    74
1070
     0
1000
MTEXTEND
  0
DIMENSION
  5
1F038
330
747D
100
AcDbEntity
  8
寸法
 48
50.0
100
AcDbDimension
  2
*D1
 10
10209.6
 20
5804.800000000002
 30
0.0
 11
10109.59999999999
 21
6130.300000000003
 31
0.0
 70
    32
 71
     5
 42
651.0
  3
INABA_S40G
100
AcDbAlignedDimension
 13
8323.6
 23
6455.800000000002
 33
0.0
 14
9599.6
 24
5804.800000000002
 34
0.0
 50
90.0
100
AcDbRotatedDimension
1001
ACAD
1000
DSTYLE
1002
{
1070
   174
1070
     0
1070
   272
1070
     1
1070
   288
1070
     0
1070
   341
1005
0
1002
}
  0
DIMENSION
  5
1F039
330
747D
100
AcDbEntity
  8
寸法
 48
50.0
100
AcDbDimension
  2
*D2
 10
6237.6
 20
5739.800000000002
 30
0.0
 11
6237.599999999998
 21
5206.314718625765
 31
0.0
 70
   160
  1
扉の出<>
 71
     5
 42
65.0
  3
INABA_S40G
100
AcDbAlignedDimension
 13
6847.599999999999
 23
5804.800000000002
 33
0.0
 14
8123.600000000001
 24
5739.800000000002
 34
0.0
 50
90.0
100
AcDbRotatedDimension
1001
ACAD
1000
DSTYLE
1002
{
1070
   174
1070
     0
1070
   272
1070
     1
1070
   288
1070
     0
1070
   341
1005
0
1002
}
  0
DIMENSION
  5
1F03A
330
747D
100
AcDbEntity
  8
寸法
 48
50.0
100
AcDbDimension
  2
*D3
 10
10559.6
 20
7106.800000000001
 30
0.0
 11
10459.58818897637
 21
6455.800000000003
 31
0.0
 70
    32
 71
     5
 42
1302.0
  3
INABA_S40G
100
AcDbAlignedDimension
 13
9599.6
 23
5804.800000000002
 33
0.0
 14
9599.6
 24
7106.800000000003
 34
0.0
 50
90.0
100
AcDbRotatedDimension
1001
ACAD
1000
DSTYLE
1002
{
1070
   174
1070
     0
1070
   272
1070
     1
1070
   288
1070
     0
1070
   341
1005
0
1002
}
  0
LINE
  5
1F03B
330
747D
100
AcDbEntity
  8
想像線
 48
20.0
100
AcDbLine
 10
9509.6
 20
5669.800000000002
 30
0.0
 11
9509.6
 21
7201.8
 31
0.0
  0
LINE
  5
1F03C
330
747D
100
AcDbEntity
  8
想像線
 48
20.0
100
AcDbLine
 10
6937.6
 20
7201.800000000002
 30
0.0
 11
6937.6
 21
5669.800000000002
 31
0.0
  0
LINE
  5
1F03D
330
747D
100
AcDbEntity
  8
点線
 48
10.0
100
AcDbLine
 10
9354.600000000001
 20
5904.8
 30
0.0
 11
9554.6
 21
5904.8
 31
0.0
  0
LINE
  5
1F03E
330
747D
100
AcDbEntity
  8
点線
 48
10.0
100
AcDbLine
 10
9354.600000000001
 20
5704.8
 30
0.0
 11
9554.6
 21
5704.8
 31
0.0
  0
LINE
  5
1F03F
330
747D
100
AcDbEntity
  8
センター
 48
5.0
100
AcDbLine
 10
9599.6
 20
5804.800000000002
 30
0.0
 11
9309.600000000001
 21
5804.800000000002
 31
0.0
  0
LINE
  5
1F040
330
747D
100
AcDbEntity
  8
部品1
 48
50.0
100
AcDbLine
 10
9054.6
 20
6004.800000000003
 30
0.0
 11
9454.600000000001
 21
6004.800000000003
 31
0.0
  0
LINE
  5
1F041
330
747D
100
AcDbEntity
  8
部品1
 48
50.0
100
AcDbLine
 10
9054.6
 20
5804.800000000002
 30
0.0
 11
9454.600000000001
 21
5804.800000000002
 31
0.0
  0
DIMENSION
  5
1F042
330
747D
100
AcDbEntity
  8
寸法
 48
50.0
100
AcDbDimension
  2
*D4
 10
9454.600000000001
 20
4869.800000000002
 30
0.0
 11
8223.600000000001
 21
4969.811811023624
 31
0.0
 70
    32
 71
     5
 42
2462.0
  3
INABA_S40G
100
AcDbAlignedDimension
 13
6992.6
 23
5659.800000000002
 33
0.0
 14
9454.600000000001
 24
5659.800000000002
 34
0.0
100
AcDbRotatedDimension
1001
ACAD
1000
DSTYLE
1002
{
1070
   174
1070
     0
1070
   272
1070
     1
1070
   288
1070
     0
1070
   341
1005
0
1002
}
  0
LINE
  5
1F043
330
747D
100
AcDbEntity
  8
想像線
 48
20.0
100
AcDbLine
 10
6937.6
 20
5669.800000000002
 30
0.0
 11
9509.6
 21
5669.800000000002
 31
0.0
  0
DIMENSION
  5
1F044
330
747D
100
AcDbEntity
  8
寸法
 48
50.0
100
AcDbDimension
  2
*D5
 10
6992.6
 20
4869.800000000002
 30
0.0
 11
6583.647244094489
 21
4869.800000000002
 31
0.0
 70
   160
  1
(<>)
 71
     5
 42
55.0
  3
INABA_S40G
100
AcDbAlignedDimension
 13
6937.6
 23
5669.800000000002
 33
0.0
 14
6992.6
 24
5659.800000000002
 34
0.0
100
AcDbRotatedDimension
1001
ACAD
1000
DSTYLE
1002
{
1070
   174
1070
     0
1070
   272
1070
     1
1070
   288
1070
     0
1070
   341
1005
0
1002
}
  0
LINE
  5
1F045
330
747D
100
AcDbEntity
  8
部品1
 48
50.0
100
AcDbLine
 10
6992.6
 20
5804.800000000002
 30
0.0
 11
7392.6
 21
5804.800000000002
 31
0.0
  0
LINE
  5
1F046
330
747D
100
AcDbEntity
  8
部品1
 48
50.0
100
AcDbLine
 10
6992.6
 20
6004.800000000003
 30
0.0
 11
7392.6
 21
6004.800000000003
 31
0.0
  0
LINE
  5
1F047
330
747D
100
AcDbEntity
  8
センター
 48
5.0
100
AcDbLine
 10
6992.6
 20
5949.800000000002
 30
0.0
 11
6992.6
 21
5659.800000000002
 31
0.0
  0
LINE
  5
1F048
330
747D
100
AcDbEntity
  8
部品1
 48
50.0
100
AcDbLine
 10
6992.6
 20
6004.800000000003
 30
0.0
 11
6992.6
 21
5804.800000000002
 31
0.0
  0
LINE
  5
1F049
330
747D
100
AcDbEntity
  8
点線
 48
10.0
100
AcDbLine
 10
7092.6
 20
5704.8
 30
0.0
 11
7092.6
 21
5904.8
 31
0.0
  0
LINE
  5
1F04A
330
747D
100
AcDbEntity
  8
点線
 48
10.0
100
AcDbLine
 10
6892.6
 20
5704.8
 30
0.0
 11
6892.6
 21
5904.8
 31
0.0
  0
LINE
  5
1F04B
330
747D
100
AcDbEntity
  8
点線
 48
10.0
100
AcDbLine
 10
7092.6
 20
5704.8
 30
0.0
 11
6892.6
 21
5704.8
 31
0.0
  0
LINE
  5
1F04C
330
747D
100
AcDbEntity
  8
点線
 48
10.0
100
AcDbLine
 10
7092.6
 20
5904.8
 30
0.0
 11
6892.6
 21
5904.8
 31
0.0
  0
LINE
  5
1F04D
330
747D
100
AcDbEntity
  8
センター
 48
5.0
100
AcDbLine
 10
7137.6
 20
5804.800000000002
 30
0.0
 11
6847.599999999999
 21
5804.800000000002
 31
0.0
  0
LINE
  5
1F04E
330
747D
100
AcDbEntity
  8
部品1
 48
50.0
100
AcDbLine
 10
8123.600000000001
 20
5939.800000000002
 30
0.0
 11
8523.6
 21
5939.800000000002
 31
0.0
  0
LINE
  5
1F04F
330
747D
100
AcDbEntity
  8
部品1
 48
50.0
100
AcDbLine
 10
8123.600000000001
 20
5739.800000000002
 30
0.0
 11
8523.6
 21
5739.800000000002
 31
0.0
  0
LINE
  5
1F050
330
747D
100
AcDbEntity
  8
部品1
 48
50.0
100
AcDbLine
 10
7392.6
 20
6004.800000000003
 30
0.0
 11
7392.6
 21
5804.800000000002
 31
0.0
  0
LINE
  5
1F051
330
747D
100
AcDbEntity
  8
部品1
 48
50.0
100
AcDbLine
 10
8123.600000000001
 20
5739.800000000002
 30
0.0
 11
8123.600000000001
 21
5939.800000000002
 31
0.0
  0
LEADER
  5
1F052
330
747D
100
AcDbEntity
  8
寸法
 48
50.0
100
AcDbLeader
  3
INABA_S40G
 71
     0
 73
     0
 74
     0
 75
     1
 40
120.0
 41
185.591883092037
 76
     3
 10
9369.687981124533
 20
6002.170133390634
 30
0.0
 10
9467.801632652925
 20
6209.784030553824
 30
0.0
 10
9567.801632652924
 20
6209.784030553824
 30
0.0
340
1F035
1001
ACAD
1000
DSTYLE
1002
{
1070
   174
1070
     0
1070
   272
1070
     1
1070
   288
1070
     0
1070
   341
1005
0
1002
}
  0
LINE
  5
1F053
330
747D
100
AcDbEntity
  8
部品1
 48
50.0
100
AcDbLine
 10
9054.6
 20
5804.800000000002
 30
0.0
 11
9054.6
 21
6004.800000000003
 31
0.0
  0
LINE
  5
1F054
330
747D
100
AcDbEntity
  8
部品1
 48
50.0
100
AcDbLine
 10
8523.6
 20
5739.800000000002
 30
0.0
 11
8523.6
 21
5939.800000000002
 31
0.0
  0
LINE
  5
1F055
330
747D
100
AcDbEntity
  8
点線
 48
10.0
100
AcDbLine
 10
9354.600000000001
 20
5704.8
 30
0.0
 11
9354.600000000001
 21
5904.8
 31
0.0
  0
DIMENSION
  5
1F056
330
747D
100
AcDbEntity
  8
寸法
 48
50.0
100
AcDbDimension
  2
*D6
 10
9509.6
 20
4869.800000000002
 30
0.0
 11
9863.552755905512
 21
4869.800000000002
 31
0.0
 70
   160
  1
(<>)
 71
     5
 42
55.0
  3
INABA_S40G
100
AcDbAlignedDimension
 13
9454.600000000001
 23
5659.800000000002
 33
0.0
 14
9509.6
 24
5669.800000000002
 34
0.0
100
AcDbRotatedDimension
1001
ACAD
1000
DSTYLE
1002
{
1070
   174
1070
     0
1070
   272
1070
     1
1070
   288
1070
     0
1070
   341
1005
0
1002
}
  0
LINE
  5
1F057
330
747D
100
AcDbEntity
  8
センター
 48
5.0
100
AcDbLine
 10
9454.600000000001
 20
5949.800000000002
 30
0.0
 11
9454.600000000001
 21
5659.800000000002
 31
0.0
  0
DIMENSION
  5
1F058
330
747D
100
AcDbEntity
  8
寸法
 48
50.0
100
AcDbDimension
  2
*D7
 10
10559.6
 20
5669.800000000002
 30
0.0
 11
10559.6
 21
5339.859055118111
 31
0.0
 70
   160
  1
(<>)
 71
     5
 42
135.0
  3
INABA_S40G
100
AcDbAlignedDimension
 13
9599.6
 23
5804.800000000002
 33
0.0
 14
9509.6
 24
5669.800000000002
 34
0.0
 50
90.0
100
AcDbRotatedDimension
1001
ACAD
1000
DSTYLE
1002
{
1070
   174
1070
     0
1070
   272
1070
     1
1070
   288
1070
     0
1070
   341
1005
0
1002
}
  0
LINE
  5
1F059
330
747D
100
AcDbEntity
  8
部品1
 48
50.0
100
AcDbLine
 10
9454.600000000001
 20
5804.800000000002
 30
0.0
 11
9454.600000000001
 21
6004.800000000003
 31
0.0
  0
LINE
  5
1F05A
330
747D
100
AcDbEntity
  8
点線
 48
10.0
100
AcDbLine
 10
9554.6
 20
5704.8
 30
0.0
 11
9554.6
 21
5904.8
 31
0.0
  0
LINE
  5
1F05B
330
747D
100
AcDbEntity
  8
点線
 48
10.0
100
AcDbLine
 10
9354.600000000001
 20
7206.800000000002
 30
0.0
 11
9554.6
 21
7206.800000000002
 31
0.0
  0
LINE
  5
1F05C
330
747D
100
AcDbEntity
  8
点線
 48
10.0
100
AcDbLine
 10
9354.600000000001
 20
7006.800000000002
 30
0.0
 11
9554.6
 21
7006.800000000002
 31
0.0
  0
LINE
  5
1F05D
330
747D
100
AcDbEntity
  8
センター
 48
5.0
100
AcDbLine
 10
9599.6
 20
7106.800000000003
 30
0.0
 11
9309.600000000001
 21
7106.800000000003
 31
0.0
  0
LINE
  5
1F05E
330
747D
100
AcDbEntity
  8
部品1
 48
50.0
100
AcDbLine
 10
9454.600000000001
 20
7106.800000000003
 30
0.0
 11
9054.6
 21
7106.800000000003
 31
0.0
  0
LINE
  5
1F05F
330
747D
100
AcDbEntity
  8
部品1
 48
50.0
100
AcDbLine
 10
9454.600000000001
 20
6906.800000000003
 30
0.0
 11
9054.6
 21
6906.800000000003
 31
0.0
  0
LINE
  5
1F060
330
747D
100
AcDbEntity
  8
想像線
 48
20.0
100
AcDbLine
 10
9509.6
 20
7201.8
 30
0.0
 11
6937.6
 21
7201.800000000002
 31
0.0
  0
DIMENSION
  5
1F061
330
747D
100
AcDbEntity
  8
寸法
 48
50.0
100
AcDbDimension
  2
*D8
 10
6892.6
 20
7501.800000000002
 30
0.0
 11
6992.6
 21
7501.800000000002
 31
0.0
 70
   160
 71
     5
 42
200.0
  3
INABA_S40G
100
AcDbAlignedDimension
 13
7092.6
 23
7206.800000000002
 33
0.0
 14
6892.6
 24
7206.800000000004
 34
0.0
100
AcDbRotatedDimension
1001
ACAD
1000
DSTYLE
1002
{
1070
   174
1070
     0
1070
   272
1070
     1
1070
   288
1070
     0
1070
   341
1005
0
1002
}
  0
LINE
  5
1F062
330
747D
100
AcDbEntity
  8
部品1
 48
50.0
100
AcDbLine
 10
7392.6
 20
6906.800000000003
 30
0.0
 11
6992.6
 21
6906.800000000003
 31
0.0
  0
LINE
  5
1F063
330
747D
100
AcDbEntity
  8
部品1
 48
50.0
100
AcDbLine
 10
7392.6
 20
7106.800000000003
 30
0.0
 11
6992.6
 21
7106.800000000003
 31
0.0
  0
DIMENSION
  5
1F064
330
747D
100
AcDbEntity
  8
寸法
 48
50.0
100
AcDbDimension
  2
*D9
 10
10209.6
 20
6455.800000000002
 30
0.0
 11
10109.59999999999
 21
6781.300000000003
 31
0.0
 70
    32
 71
     5
 42
651.0
  3
INABA_S40G
100
AcDbAlignedDimension
 13
9599.6
 23
7106.800000000003
 33
0.0
 14
8323.6
 24
6455.800000000002
 34
0.0
 50
90.0
100
AcDbRotatedDimension
1001
ACAD
1000
DSTYLE
1002
{
1070
   174
1070
     0
1070
   272
1070
     1
1070
   288
1070
     0
1070
   341
1005
0
1002
}
  0
LINE
  5
1F065
330
747D
100
AcDbEntity
  8
センター
 48
5.0
100
AcDbLine
 10
6992.6
 20
7251.800000000002
 30
0.0
 11
6992.6
 21
6961.800000000002
 31
0.0
  0
LINE
  5
1F066
330
747D
100
AcDbEntity
  8
点線
 48
10.0
100
AcDbLine
 10
7092.6
 20
7206.800000000002
 30
0.0
 11
7092.6
 21
7006.800000000002
 31
0.0
  0
LINE
  5
1F067
330
747D
100
AcDbEntity
  8
点線
 48
10.0
100
AcDbLine
 10
6892.6
 20
7206.800000000002
 30
0.0
 11
6892.6
 21
7006.800000000002
 31
0.0
  0
DIMENSION
  5
1F068
330
747D
100
AcDbEntity
  8
寸法
 48
50.0
100
AcDbDimension
  2
*D10
 10
6637.600000000002
 20
7006.800000000002
 30
0.0
 11
6637.6
 21
7106.800000000004
 31
0.0
 70
   160
 71
     5
 42
200.0
  3
INABA_S40G
100
AcDbAlignedDimension
 13
6892.6
 23
7206.800000000002
 33
0.0
 14
6892.6
 24
7006.800000000002
 34
0.0
 50
90.0
100
AcDbRotatedDimension
1001
ACAD
1000
DSTYLE
1002
{
1070
   174
1070
     0
1070
   272
1070
     1
1070
   288
1070
     0
1070
   341
1005
0
1002
}
  0
LINE
  5
1F069
330
747D
100
AcDbEntity
  8
部品1
 48
50.0
100
AcDbLine
 10
6992.6
 20
7106.800000000003
 30
0.0
 11
6992.6
 21
6906.800000000003
 31
0.0
  0
LINE
  5
1F06A
330
747D
100
AcDbEntity
  8
点線
 48
10.0
100
AcDbLine
 10
7092.6
 20
7006.800000000002
 30
0.0
 11
6892.6
 21
7006.800000000002
 31
0.0
  0
LINE
  5
1F06B
330
747D
100
AcDbEntity
  8
センター
 48
5.0
100
AcDbLine
 10
7137.6
 20
7106.800000000003
 30
0.0
 11
6847.599999999999
 21
7106.800000000003
 31
0.0
  0
LINE
  5
1F06C
330
747D
100
AcDbEntity
  8
点線
 48
10.0
100
AcDbLine
 10
7092.6
 20
7206.800000000002
 30
0.0
 11
6892.6
 21
7206.800000000002
 31
0.0
  0
LINE
  5
1F06D
330
747D
100
AcDbEntity
  8
部品1
 48
50.0
100
AcDbLine
 10
8123.600000000001
 20
6555.800000000002
 30
0.0
 11
8323.6
 21
6555.800000000002
 31
0.0
  0
LINE
  5
1F06E
330
747D
100
AcDbEntity
  8
部品1
 48
50.0
100
AcDbLine
 10
8323.6
 20
6355.800000000002
 30
0.0
 11
8123.600000000001
 21
6355.800000000002
 31
0.0
  0
LINE
  5
1F070
330
747D
100
AcDbEntity
  8
部品1
 48
50.0
100
AcDbLine
 10
8123.600000000001
 20
6355.800000000002
 30
0.0
 11
8123.600000000001
 21
6555.800000000002
 31
0.0
  0
LINE
  5
1F072
330
747D
100
AcDbEntity
  8
部品1
 48
50.0
100
AcDbLine
 10
8323.6
 20
6555.800000000002
 30
0.0
 11
8323.6
 21
6355.800000000002
 31
0.0
  0
LINE
  5
1F073
330
747D
100
AcDbEntity
  8
部品1
 48
50.0
100
AcDbLine
 10
8123.600000000001
 20
7106.800000000003
 30
0.0
 11
8323.6
 21
7106.800000000003
 31
0.0
  0
LINE
  5
1F074
330
747D
100
AcDbEntity
  8
部品1
 48
50.0
100
AcDbLine
 10
8323.6
 20
6906.800000000003
 30
0.0
 11
8123.600000000001
 21
6906.800000000003
 31
0.0
  0
LINE
  5
1F075
330
747D
100
AcDbEntity
  8
部品1
 48
50.0
100
AcDbLine
 10
7392.6
 20
7106.800000000003
 30
0.0
 11
7392.6
 21
6906.800000000003
 31
0.0
  0
LINE
  5
1F076
330
747D
100
AcDbEntity
  8
部品1
 48
50.0
100
AcDbLine
 10
8123.600000000001
 20
6906.800000000003
 30
0.0
 11
8123.600000000001
 21
7106.800000000003
 31
0.0
  0
LINE
  5
1F077
330
747D
100
AcDbEntity
  8
点線
 48
10.0
100
AcDbLine
 10
9354.600000000001
 20
7206.800000000002
 30
0.0
 11
9354.600000000001
 21
7006.800000000002
 31
0.0
  0
LINE
  5
1F078
330
747D
100
AcDbEntity
  8
部品1
 48
50.0
100
AcDbLine
 10
8323.6
 20
7106.800000000003
 30
0.0
 11
8323.6
 21
6906.800000000003
 31
0.0
  0
LINE
  5
1F079
330
747D
100
AcDbEntity
  8
部品1
 48
50.0
100
AcDbLine
 10
9054.6
 20
6906.800000000003
 30
0.0
 11
9054.6
 21
7106.800000000003
 31
0.0
  0
DIMENSION
  5
1F07A
330
747D
100
AcDbEntity
  8
寸法
 48
50.0
100
AcDbDimension
  2
*D11
 10
10559.6
 20
7201.8
 30
0.0
 11
10559.6
 21
7494.503019668963
 31
0.0
 70
   160
  1
(<>)
 71
     5
 42
94.99999999999818
  3
INABA_S40G
100
AcDbAlignedDimension
 13
9599.6
 23
7106.800000000003
 33
0.0
 14
9509.6
 24
7201.8
 34
0.0
 50
90.0
100
AcDbRotatedDimension
1001
ACAD
1000
DSTYLE
1002
{
1070
   174
1070
     0
1070
   272
1070
     1
1070
   288
1070
     0
1070
   341
1005
0
1002
}
  0
LINE
  5
1F07B
330
747D
100
AcDbEntity
  8
点線
 48
10.0
100
AcDbLine
 10
9554.6
 20
7206.800000000002
 30
0.0
 11
9554.6
 21
7006.800000000002
 31
0.0
  0
LINE
  5
1F07C
330
747D
100
AcDbEntity
  8
センター
 48
5.0
100
AcDbLine
 10
9454.600000000001
 20
7251.800000000002
 30
0.0
 11
9454.600000000001
 21
6961.800000000002
 31
0.0
  0
LINE
  5
1F07D
330
747D
100
AcDbEntity
  8
部品1
 48
50.0
100
AcDbLine
 10
9454.600000000001
 20
6906.800000000003
 30
0.0
 11
9454.600000000001
 21
7106.800000000003
 31
0.0
  0
LEADER
  5
1F07E
330
747D
100
AcDbEntity
  8
寸法
 48
50.0
100
AcDbLeader
  3
INABA_S40G
 73
     0
 74
     0
 75
     1
 40
120.0
 41
688.0
 76
     3
 10
9294.746288533774
 20
7201.8
 30
0.0
 10
9893.376665351199
 20
7715.818762297884
 30
0.0
 10
9993.376665351199
 20
7715.818762297884
 30
0.0
340
1F07F
1001
ACAD
1000
DSTYLE
1002
{
1070
   174
1070
     0
1070
   272
1070
     1
1070
   288
1070
     0
1070
   341
1005
0
1002
}
  0
MTEXT
  5
1F07F
102
{ACAD_REACTORS
330
1F07E
102
}
330
747D
100
AcDbEntity
  8
部品1
 62
     7
 48
50.0
100
AcDbMText
 10
10721.3766653512
 20
7815.818762297884
 30
0.0
 40
120.0
 41
0.0
 71
     6
 72
     1
  1
\A1;屋根の外寸
  7
STYLE1
 73
     1
 44
1.0
1001
ACAD
1000
MTEXTBEGIN
1070
    73
1070
     1
1070
    44
1040
1.0
1070
    74
1070
     0
1000
MTEXTEND
  0
LEADER
  5
1F080
330
747D
100
AcDbEntity
  8
寸法
 48
50.0
100
AcDbLeader
  3
INABA_S40G
 71
     0
 73
     0
 75
     1
 40
320.0
 41
1240.0
 76
     3
 10
6921.692584709861
 20
7156.811716734813
 30
0.0
 10
6632.518168033406
 20
7567.389902241288
 30
0.0
 10
6532.518168033407
 20
7567.389902241288
 30
0.0
340
1F081
1001
ACAD
1000
DSTYLE
1002
{
1070
   174
1070
     0
1070
   272
1070
     1
1070
   288
1070
     0
1070
   341
1005
0
1002
}
  0
MTEXT
  5
1F081
102
{ACAD_REACTORS
330
1F080
102
}
330
747D
100
AcDbEntity
  8
細線
 62
     7
 48
50.0
100
AcDbMText
 10
5252.518168033406
 20
7767.389902241288
 30
0.0
 40
120.0
 41
0.0
 71
     4
 72
     1
  1
\A1;組立後\P現場打コンクリート
  7
STYLE1
 73
     1
 44
1.0
1001
ACAD
1000
MTEXTBEGIN
1070
    73
1070
     1
1070
    44
1040
1.0
1070
    74
1070
     0
1000
MTEXTEND
  0
LINE
  5
1F082
330
747D
100
AcDbEntity
  8
細線
 48
10.0
100
AcDbLine
 10
7529.600000000002
 20
6110.799999999984
 30
0.0
 11
7529.600000000002
 21
6510.799999999983
 31
0.0
  0
LINE
  5
1F083
330
747D
100
AcDbEntity
  8
センター
 48
5.0
100
AcDbLine
 10
7629.600000000002
 20
6455.799999999983
 30
0.0
 11
7629.600000000002
 21
6165.799999999983
 31
0.0
  0
LINE
  5
1F084
330
747D
100
AcDbEntity
  8
細線
 48
10.0
100
AcDbLine
 10
7729.600000000002
 20
6510.799999999983
 30
0.0
 11
7729.600000000002
 21
6110.799999999984
 31
0.0
  0
LINE
  5
1F085
330
747D
100
AcDbEntity
  8
細線
 48
10.0
100
AcDbLine
 10
7729.600000000002
 20
6110.799999999984
 30
0.0
 11
7529.600000000002
 21
6110.799999999984
 31
0.0
  0
LINE
  5
1F086
330
747D
100
AcDbEntity
  8
細線
 48
10.0
100
AcDbLine
 10
7529.600000000002
 20
6645.799999999984
 30
0.0
 11
7529.600000000002
 21
6845.799999999984
 31
0.0
  0
LINE
  5
1F087
330
747D
100
AcDbEntity
  8
センター
 48
5.0
100
AcDbLine
 10
7629.600000000002
 20
6890.799999999984
 30
0.0
 11
7629.600000000002
 21
6600.799999999984
 31
0.0
  0
LINE
  5
1F088
330
747D
100
AcDbEntity
  8
細線
 48
10.0
100
AcDbLine
 10
7729.600000000002
 20
6845.799999999984
 30
0.0
 11
7729.600000000002
 21
6645.799999999984
 31
0.0
  0
LINE
  5
1F089
330
747D
100
AcDbEntity
  8
細線
 48
10.0
100
AcDbLine
 10
7529.600000000002
 20
6510.799999999983
 30
0.0
 11
7729.600000000002
 21
6510.799999999983
 31
0.0
  0
LINE
  5
1F08A
330
747D
100
AcDbEntity
  8
センター
 48
5.0
100
AcDbLine
 10
7484.600000000002
 20
6310.799999999984
 30
0.0
 11
7774.600000000003
 21
6310.799999999984
 31
0.0
  0
LINE
  5
1F08B
330
747D
100
AcDbEntity
  8
細線
 48
10.0
100
AcDbLine
 10
7729.600000000002
 20
6645.799999999984
 30
0.0
 11
7529.600000000002
 21
6645.799999999984
 31
0.0
  0
LINE
  5
1F08C
330
747D
100
AcDbEntity
  8
センター
 48
5.0
100
AcDbLine
 10
7774.600000000003
 20
6745.799999999984
 30
0.0
 11
7484.600000000002
 21
6745.799999999984
 31
0.0
  0
LINE
  5
1F08D
330
747D
100
AcDbEntity
  8
細線
 48
10.0
100
AcDbLine
 10
7529.600000000002
 20
6845.799999999984
 30
0.0
 11
7729.600000000002
 21
6845.799999999984
 31
0.0
  0
DIMENSION
  5
1F09A
330
747D
100
AcDbEntity
  8
寸法
  6
HIDDEN
 48
20.0
100
AcDbDimension
  2
*D12
 10
6237.6
 20
5804.800000000002
 30
0.0
 11
6137.599999999999
 21
6057.799999999996
 31
0.0
 70
    32
 71
     5
 42
505.9999999999836
  3
INABA_S40G
100
AcDbAlignedDimension
 13
7484.600000000002
 23
6310.799999999986
 33
0.0
 14
6847.599999999999
 24
5804.800000000002
 34
0.0
 50
90.0
100
AcDbRotatedDimension
1001
ACAD
1000
DSTYLE
1002
{
1070
   174
1070
     0
1070
   272
1070
     1
1070
   288
1070
     0
1070
   341
1005
0
1002
}
  0
DIMENSION
  5
1F09B
330
747D
100
AcDbEntity
  8
寸法
  6
HIDDEN
 48
20.0
100
AcDbDimension
  2
*D13
 10
6237.6
 20
6310.799999999986
 30
0.0
 11
6137.599999999999
 21
6528.299999999987
 31
0.0
 70
    32
 71
     5
 42
434.9999999999981
  3
INABA_S40G
100
AcDbAlignedDimension
 13
7484.600000000002
 23
6745.799999999984
 33
0.0
 14
7484.600000000002
 24
6310.799999999986
 34
0.0
 50
90.0
100
AcDbRotatedDimension
1001
ACAD
1000
DSTYLE
1002
{
1070
   174
1070
     0
1070
   272
1070
     1
1070
   288
1070
     0
1070
   341
1005
0
1002
}
  0
DIMENSION
  5
1F09C
330
747D
100
AcDbEntity
  8
寸法
  6
HIDDEN
 48
20.0
100
AcDbDimension
  2
*D14
 10
6237.6
 20
6745.799999999984
 30
0.0
 11
6137.599999999999
 21
6926.299999999995
 31
0.0
 70
    32
 71
     5
 42
361.0000000000182
  3
INABA_S40G
100
AcDbAlignedDimension
 13
6431.913993709336
 23
7106.800000000003
 33
0.0
 14
7484.600000000002
 24
6745.799999999984
 34
0.0
 50
90.0
100
AcDbRotatedDimension
1001
ACAD
1000
DSTYLE
1002
{
1070
   174
1070
     0
1070
   272
1070
     1
1070
   288
1070
     0
1070
   341
1005
0
1002
}
  0
LINE
  5
1F09D
330
747D
100
AcDbEntity
  8
細線
 48
10.0
100
AcDbLine
 10
7727.771377007631
 20
6845.712513967871
 30
0.0
 11
7727.771377007631
 21
6845.712513967871
 31
0.0
  0
HATCH
  5
1FC59
330
747D
100
AcDbEntity
  8
部品1
 48
50.0
100
AcDbHatch
 10
0.0
 20
0.0
 30
0.0
210
0.0
220
0.0
230
1.0
  2
DOTS
 70
     0
 71
     1
 91
        1
 92
        1
 93
        4
 72
     1
 10
7529.600000000002
 20
6110.799999999984
 11
7729.600000000002
 21
6110.799999999984
 72
     1
 10
7729.600000000002
 20
6110.799999999984
 11
7729.600000000002
 21
6510.799999999983
 72
     1
 10
7729.600000000002
 20
6510.799999999983
 11
7529.600000000002
 21
6510.799999999983
 72
     1
 10
7529.600000000002
 20
6510.799999999983
 11
7529.600000000002
 21
6110.799999999984
 97
        0
 75
     1
 76
     1
 52
45.0
 41
20.0
 77
     0
 78
     1
 53
45.0
 43
5192.47168870913
 44
-5803.16509413674
 45
-11.22532015133644
 46
33.67596045400933
 79
     2
 49
0.0
 49
-31.75
 98
        1
 10
5192.47168870913
 20
-5803.16509413674
1001
GradientColor1ACI
1070
     5
1001
GradientColor2ACI
1070
     2
1001
ACAD
1010
0.0
1020
0.0
1030
0.0
  0
HATCH
  5
1FC5B
330
747D
100
AcDbEntity
  8
部品1
 48
50.0
100
AcDbHatch
 10
0.0
 20
0.0
 30
0.0
210
0.0
220
0.0
230
1.0
  2
DOTS
 70
     0
 71
     1
 91
        1
 92
        1
 93
        4
 72
     1
 10
7529.600000000002
 20
6845.799999999984
 11
7729.600000000002
 21
6845.799999999984
 72
     1
 10
7729.600000000002
 20
6845.799999999984
 11
7729.600000000002
 21
6645.799999999984
 72
     1
 10
7729.600000000002
 20
6645.799999999984
 11
7529.600000000002
 21
6645.799999999984
 72
     1
 10
7529.600000000002
 20
6645.799999999984
 11
7529.600000000002
 21
6845.799999999984
 97
        0
 75
     1
 76
     1
 52
45.0
 41
20.0
 77
     0
 78
     1
 53
45.0
 43
5192.47168870913
 44
-4933.16509413674
 45
-11.22532015133644
 46
33.67596045400933
 79
     2
 49
0.0
 49
-31.75
 98
        1
 10
5192.47168870913
 20
-4933.16509413674
1001
GradientColor1ACI
1070
     5
1001
GradientColor2ACI
1070
     2
1001
ACAD
1010
0.0
1020
0.0
1030
0.0
  0
LINE
  5
1FC5C
330
747D
100
AcDbEntity
  8
細線
 48
10.0
100
AcDbLine
 10
8717.599999999999
 20
6110.799999999984
 30
0.0
 11
8717.599999999999
 21
6510.799999999983
 31
0.0
  0
LINE
  5
1FC5D
330
747D
100
AcDbEntity
  8
センター
 48
5.0
100
AcDbLine
 10
8817.599999999998
 20
6455.799999999983
 30
0.0
 11
8817.599999999998
 21
6165.799999999983
 31
0.0
  0
LINE
  5
1FC5E
330
747D
100
AcDbEntity
  8
細線
 48
10.0
100
AcDbLine
 10
8917.599999999998
 20
6510.799999999983
 30
0.0
 11
8917.599999999998
 21
6110.799999999984
 31
0.0
  0
LINE
  5
1FC5F
330
747D
100
AcDbEntity
  8
細線
 48
10.0
100
AcDbLine
 10
8917.599999999998
 20
6110.799999999984
 30
0.0
 11
8717.599999999999
 21
6110.799999999984
 31
0.0
  0
LINE
  5
1FC60
330
747D
100
AcDbEntity
  8
細線
 48
10.0
100
AcDbLine
 10
8717.599999999999
 20
6645.799999999984
 30
0.0
 11
8717.599999999999
 21
6845.799999999984
 31
0.0
  0
LINE
  5
1FC61
330
747D
100
AcDbEntity
  8
センター
 48
5.0
100
AcDbLine
 10
8817.599999999998
 20
6890.799999999984
 30
0.0
 11
8817.599999999998
 21
6600.799999999984
 31
0.0
  0
LINE
  5
1FC62
330
747D
100
AcDbEntity
  8
細線
 48
10.0
100
AcDbLine
 10
8917.599999999998
 20
6845.799999999984
 30
0.0
 11
8917.599999999998
 21
6645.799999999984
 31
0.0
  0
LINE
  5
1FC63
330
747D
100
AcDbEntity
  8
細線
 48
10.0
100
AcDbLine
 10
8717.599999999999
 20
6510.799999999983
 30
0.0
 11
8917.599999999998
 21
6510.799999999983
 31
0.0
  0
LINE
  5
1FC64
330
747D
100
AcDbEntity
  8
センター
 48
5.0
100
AcDbLine
 10
8672.599999999999
 20
6310.799999999984
 30
0.0
 11
8962.6
 21
6310.799999999984
 31
0.0
  0
LINE
  5
1FC65
330
747D
100
AcDbEntity
  8
細線
 48
10.0
100
AcDbLine
 10
8917.599999999998
 20
6645.799999999984
 30
0.0
 11
8717.599999999999
 21
6645.799999999984
 31
0.0
  0
LINE
  5
1FC66
330
747D
100
AcDbEntity
  8
センター
 48
5.0
100
AcDbLine
 10
8962.6
 20
6745.799999999984
 30
0.0
 11
8672.599999999999
 21
6745.799999999984
 31
0.0
  0
LINE
  5
1FC67
330
747D
100
AcDbEntity
  8
細線
 48
10.0
100
AcDbLine
 10
8717.599999999999
 20
6845.799999999984
 30
0.0
 11
8917.599999999998
 21
6845.799999999984
 31
0.0
  0
LINE
  5
1FC68
330
747D
100
AcDbEntity
  8
細線
 48
10.0
100
AcDbLine
 10
8915.771377007628
 20
6845.712513967871
 30
0.0
 11
8915.771377007628
 21
6845.712513967871
 31
0.0
  0
HATCH
  5
1FC69
330
747D
100
AcDbEntity
  8
部品1
 48
50.0
100
AcDbHatch
 10
0.0
 20
0.0
 30
0.0
210
0.0
220
0.0
230
1.0
  2
DOTS
 70
     0
 71
     0
 91
        1
 92
        1
 93
        4
 72
     1
 10
8717.599999999999
 20
6110.799999999984
 11
8917.599999999998
 21
6110.799999999984
 72
     1
 10
8917.599999999998
 20
6110.799999999984
 11
8917.599999999998
 21
6510.799999999983
 72
     1
 10
8917.599999999998
 20
6510.799999999983
 11
8717.599999999999
 21
6510.799999999983
 72
     1
 10
8717.599999999999
 20
6510.799999999983
 11
8717.599999999999
 21
6110.799999999984
 97
        0
 75
     1
 76
     1
 52
45.0
 41
20.0
 77
     0
 78
     1
 53
45.0
 43
5192.47168870913
 44
-5803.16509413674
 45
-11.22532015133644
 46
33.67596045400933
 79
     2
 49
0.0
 49
-31.75
 98
        1
 10
6380.471688709127
 20
-5803.16509413674
1001
GradientColor1ACI
1070
     5
1001
GradientColor2ACI
1070
     2
1001
ACAD
1010
0.0
1020
0.0
1030
0.0
  0
HATCH
  5
1FC6A
330
747D
100
AcDbEntity
  8
部品1
 48
50.0
100
AcDbHatch
 10
0.0
 20
0.0
 30
0.0
210
0.0
220
0.0
230
1.0
  2
DOTS
 70
     0
 71
     0
 91
        1
 92
        1
 93
        4
 72
     1
 10
8717.599999999999
 20
6845.799999999984
 11
8917.599999999998
 21
6845.799999999984
 72
     1
 10
8917.599999999998
 20
6845.799999999984
 11
8917.599999999998
 21
6645.799999999984
 72
     1
 10
8917.599999999998
 20
6645.799999999984
 11
8717.599999999999
 21
6645.799999999984
 72
     1
 10
8717.599999999999
 20
6645.799999999984
 11
8717.599999999999
 21
6845.799999999984
 97
        0
 75
     1
 76
     1
 52
45.0
 41
20.0
 77
     0
 78
     1
 53
45.0
 43
5192.47168870913
 44
-4933.16509413674
 45
-11.22532015133644
 46
33.67596045400933
 79
     2
 49
0.0
 49
-31.75
 98
        1
 10
6380.471688709127
 20
-4933.16509413674
1001
GradientColor1ACI
1070
     5
1001
GradientColor2ACI
1070
     2
1001
ACAD
1010
0.0
1020
0.0
1030
0.0
  0
DIMENSION
  5
202D9
330
747D
100
AcDbEntity
  8
寸法
 48
50.0
100
AcDbDimension
  2
*D15
 10
9052.202006232091
 20
1284.777956760628
 30
0.0
 11
9052.202006232091
 21
1384.777956760627
 31
0.0
 70
   160
  1
b
 71
     5
 42
200.0000000000004
  3
INABA_S40G
100
AcDbAlignedDimension
 13
9319.83001716301
 23
1484.777956760628
 33
0.0
 14
9115.830017163009
 24
1284.777956760628
 34
0.0
 50
90.0
100
AcDbRotatedDimension
1001
ACAD
1000
DSTYLE
1002
{
1070
   174
1070
     0
1070
   272
1070
     1
1070
   288
1070
     0
1070
   341
1005
0
1002
}
  0
LINE
  5
202DA
330
747D
100
AcDbEntity
  8
部品1
 48
10.0
100
AcDbLine
 10
9319.83001716301
 20
1484.777956760628
 30
0.0
 11
9319.83001716301
 21
2218.556312929367
 31
0.0
  0
LINE
  5
202DB
330
747D
100
AcDbEntity
  8
部品1
 48
10.0
100
AcDbLine
 10
9447.830017163012
 20
1484.777956760628
 30
0.0
 11
9447.83001716301
 21
2218.556312929367
 31
0.0
  0
LINE
  5
202DC
330
747D
100
AcDbEntity
  8
Ｇ．Ｌ
100
AcDbLine
 10
8373.600000000001
 20
1284.777956760628
 30
0.0
 11
9833.600000000002
 21
1284.777956760628
 31
0.0
  0
LINE
  5
202DD
330
747D
100
AcDbEntity
  8
細線
100
AcDbLine
 10
9688.871856138796
 20
1284.777956760628
 30
0.0
 11
9488.8718561388
 21
1484.777956760628
 31
0.0
  0
LINE
  5
202DE
330
747D
100
AcDbEntity
  8
細線
100
AcDbLine
 10
9719.830017163008
 20
1296.246202607611
 30
0.0
 11
9531.298263009992
 21
1484.777956760628
 31
0.0
  0
LINE
  5
202DF
330
747D
100
AcDbEntity
  8
部品1
 48
10.0
100
AcDbLine
 10
9319.83001716301
 20
1484.777956760628
 30
0.0
 11
9360.830017163008
 21
1484.777956760628
 31
0.0
  0
LINE
  5
202E0
330
747D
100
AcDbEntity
  8
部品1
 48
10.0
100
AcDbLine
 10
9444.83001716301
 20
1484.777956760628
 30
0.0
 11
9719.83001716301
 21
1484.777956760628
 31
0.0
  0
LINE
  5
202E1
330
747D
100
AcDbEntity
  8
部品1
 48
10.0
100
AcDbLine
 10
9319.83001716301
 20
1484.777956760628
 30
0.0
 11
9360.830017163008
 21
1484.777956760629
 31
0.0
  0
LINE
  5
202E2
330
747D
100
AcDbEntity
  8
部品1
 48
10.0
100
AcDbLine
 10
9444.83001716301
 20
1484.777956760629
 30
0.0
 11
9835.167664516294
 21
1484.777956760628
 31
0.0
  0
LINE
  5
202E3
330
747D
100
AcDbEntity
  8
細線
100
AcDbLine
 10
9462.597686159098
 20
1284.777956760629
 30
0.0
 11
9444.83001716301
 21
1302.54562575672
 31
0.0
  0
LINE
  5
202E4
330
747D
100
AcDbEntity
  8
細線
100
AcDbLine
 10
9360.830017163008
 20
1386.545625756723
 30
0.0
 11
9319.83001716301
 21
1427.545625756723
 31
0.0
  0
LINE
  5
202E5
330
747D
100
AcDbEntity
  8
細線
100
AcDbLine
 10
9505.024093030295
 20
1284.777956760628
 30
0.0
 11
9444.830017163006
 21
1344.972032627916
 31
0.0
  0
LINE
  5
202E6
330
747D
100
AcDbEntity
  8
細線
100
AcDbLine
 10
9360.830017163008
 20
1428.972032627914
 30
0.0
 11
9319.83001716301
 21
1469.972032627913
 31
0.0
  0
LINE
  5
202E7
330
747D
100
AcDbEntity
  8
部品1
 48
10.0
100
AcDbLine
 10
9319.83001716301
 20
1284.777956760628
 30
0.0
 11
9319.83001716301
 21
1484.777956760628
 31
0.0
  0
LINE
  5
202E8
330
747D
100
AcDbEntity
  8
部品1
 48
10.0
100
AcDbLine
 10
9719.83001716301
 20
1484.777956760628
 30
0.0
 11
9719.83001716301
 21
1284.777956760628
 31
0.0
  0
LINE
  5
202E9
330
747D
100
AcDbEntity
  8
部品1
 48
10.0
100
AcDbLine
 10
9463.83001716301
 20
1598.777956760627
 30
0.0
 11
9835.167664516294
 21
1598.777956760627
 31
0.0
  0
LINE
  5
202EA
330
747D
100
AcDbEntity
  8
部品1
 48
10.0
100
AcDbLine
 10
9447.83001716301
 20
1582.777956760628
 30
0.0
 11
9835.167664516294
 21
1582.777956760628
 31
0.0
  0
LINE
  5
202EB
330
747D
100
AcDbEntity
  8
部品1
 48
10.0
100
AcDbLine
 10
9463.83001716301
 20
1582.777956760628
 30
0.0
 11
9463.83001716301
 21
2218.556312929367
 31
0.0
  0
LINE
  5
202EC
330
747D
100
AcDbEntity
  8
部品1
 48
10.0
100
AcDbLine
 10
9479.830017163008
 20
1598.777956760627
 30
0.0
 11
9479.830017163008
 21
2218.556312929367
 31
0.0
  0
CIRCLE
  5
202ED
330
747D
100
AcDbEntity
  8
部品
100
AcDbCircle
 10
9379.830017163008
 20
1534.777956760628
 30
0.0
 40
16.0
  0
LINE
  5
202EE
330
747D
100
AcDbEntity
  8
部品
100
AcDbLine
 10
9305.830017163009
 20
1527.777956760628
 30
0.0
 11
9305.830017163009
 21
1541.777956760628
 31
0.0
  0
LINE
  5
202EF
330
747D
100
AcDbEntity
  8
部品
100
AcDbLine
 10
9313.830017163009
 20
1548.777956760628
 30
0.0
 11
9312.830017163008
 21
1548.777956760628
 31
0.0
  0
LINE
  5
202F0
330
747D
100
AcDbEntity
  8
部品
100
AcDbLine
 10
9313.830017163009
 20
1520.777956760628
 30
0.0
 11
9312.830017163008
 21
1520.777956760628
 31
0.0
  0
ARC
  5
202F1
330
747D
100
AcDbEntity
  8
部品
100
AcDbCircle
 10
9312.830017163008
 20
1541.777956760628
 30
0.0
 40
7.0
100
AcDbArc
 50
90.0
 51
180.0
  0
ARC
  5
202F2
330
747D
100
AcDbEntity
  8
部品
100
AcDbCircle
 10
9312.830017163008
 20
1527.777956760628
 30
0.0
 40
7.0
100
AcDbArc
 50
180.0
 51
270.0
  0
LINE
  5
202F3
330
747D
100
AcDbEntity
  8
部品
100
AcDbLine
 10
9319.83001716301
 20
1550.777956760628
 30
0.0
 11
9313.830017163009
 21
1550.777956760628
 31
0.0
  0
LINE
  5
202F4
330
747D
100
AcDbEntity
  8
部品
100
AcDbLine
 10
9319.83001716301
 20
1518.777956760628
 30
0.0
 11
9313.830017163009
 21
1518.777956760628
 31
0.0
  0
LINE
  5
202F5
330
747D
100
AcDbEntity
  8
部品
100
AcDbLine
 10
9319.83001716301
 20
1518.777956760628
 30
0.0
 11
9319.83001716301
 21
1550.777956760628
 31
0.0
  0
LINE
  5
202F6
330
747D
100
AcDbEntity
  8
部品
100
AcDbLine
 10
9313.830017163009
 20
1518.777956760628
 30
0.0
 11
9313.830017163009
 21
1550.777956760628
 31
0.0
  0
CIRCLE
  5
202F7
330
747D
100
AcDbEntity
  8
部品
100
AcDbCircle
 10
9425.83001716301
 20
1534.777956760628
 30
0.0
 40
16.0
  0
ARC
  5
202F8
330
747D
100
AcDbEntity
  8
細線
100
AcDbCircle
 10
9416.830017163009
 20
1314.777956760628
 30
0.0
 40
1.0
100
AcDbArc
 50
0.0
 51
90.0
  0
ARC
  5
202F9
330
747D
100
AcDbEntity
  8
細線
100
AcDbCircle
 10
9388.830017163009
 20
1314.777956760628
 30
0.0
 40
1.0
100
AcDbArc
 50
90.0
 51
180.0
  0
ARC
  5
202FA
330
747D
100
AcDbEntity
  8
細線
100
AcDbCircle
 10
9388.830017163009
 20
1350.777956760628
 30
0.0
 40
1.0
100
AcDbArc
 50
180.0
 51
270.0
  0
ARC
  5
202FB
330
747D
100
AcDbEntity
  8
細線
100
AcDbCircle
 10
9416.830017163009
 20
1350.777956760628
 30
0.0
 40
1.0
100
AcDbArc
 50
270.0
 51
0.0
  0
ARC
  5
202FC
330
747D
100
AcDbEntity
  8
細線
100
AcDbCircle
 10
9416.830017163009
 20
1354.777956760628
 30
0.0
 40
1.0
100
AcDbArc
 50
0.0
 51
90.0
  0
ARC
  5
202FD
330
747D
100
AcDbEntity
  8
細線
100
AcDbCircle
 10
9388.830017163009
 20
1354.777956760628
 30
0.0
 40
1.0
100
AcDbArc
 50
90.0
 51
180.0
  0
LINE
  5
202FE
330
747D
100
AcDbEntity
  8
細線
100
AcDbLine
 10
9387.830017163009
 20
1314.777956760628
 30
0.0
 11
9387.830017163009
 21
1312.977956760631
 31
0.0
  0
LINE
  5
202FF
330
747D
100
AcDbEntity
  8
細線
100
AcDbLine
 10
9417.830017163009
 20
1314.777956760628
 30
0.0
 11
9417.830017163009
 21
1312.977956760631
 31
0.0
  0
LINE
  5
20300
330
747D
100
AcDbEntity
  8
細線
100
AcDbLine
 10
9417.830017163009
 20
1354.777956760628
 30
0.0
 11
9417.830017163009
 21
1350.777956760628
 31
0.0
  0
LINE
  5
20301
330
747D
100
AcDbEntity
  8
細線
100
AcDbLine
 10
9387.830017163009
 20
1354.777956760628
 30
0.0
 11
9387.830017163009
 21
1350.777956760628
 31
0.0
  0
LINE
  5
20302
330
747D
100
AcDbEntity
  8
細線
100
AcDbLine
 10
9388.830017163009
 20
1355.777956760628
 30
0.0
 11
9416.830017163009
 21
1355.777956760628
 31
0.0
  0
LINE
  5
20303
330
747D
100
AcDbEntity
  8
細線
100
AcDbLine
 10
9388.830017163009
 20
1315.777956760628
 30
0.0
 11
9392.830017163012
 21
1315.777956760628
 31
0.0
  0
LINE
  5
20304
330
747D
100
AcDbEntity
  8
細線
100
AcDbLine
 10
9412.830017163008
 20
1315.777956760628
 30
0.0
 11
9416.830017163009
 21
1315.777956760628
 31
0.0
  0
LINE
  5
20305
330
747D
100
AcDbEntity
  8
部品1
100
AcDbLine
 10
9444.83001716301
 20
1293.977956760629
 30
0.0
 11
9360.830017163008
 21
1293.977956760629
 31
0.0
  0
LINE
  5
20306
330
747D
100
AcDbEntity
  8
細線
100
AcDbLine
 10
9388.830017163009
 20
1349.777956760628
 30
0.0
 11
9416.830017163009
 21
1349.777956760628
 31
0.0
  0
LINE
  5
20307
330
747D
100
AcDbEntity
  8
部品1
100
AcDbLine
 10
9444.83001716301
 20
1284.777956760628
 30
0.0
 11
9360.830017163008
 21
1284.777956760628
 31
0.0
  0
LINE
  5
20308
330
747D
100
AcDbEntity
  8
部品1
100
AcDbLine
 10
9370.830017163008
 20
1596.777956760627
 30
0.0
 11
9434.830017163008
 21
1596.777956760627
 31
0.0
  0
LINE
  5
20309
330
747D
100
AcDbEntity
  8
部品1
 48
0.3
100
AcDbLine
 10
9444.83001716301
 20
1284.777956760628
 30
0.0
 11
9444.83001716301
 21
1586.777956760627
 31
0.0
  0
ARC
  5
2030A
330
747D
100
AcDbEntity
  8
部品1
 48
0.3
100
AcDbCircle
 10
9434.830017163008
 20
1586.777956760627
 30
0.0
 40
10.0
100
AcDbArc
 50
0.0
 51
90.0
  0
LINE
  5
2030B
330
747D
100
AcDbEntity
  8
部品1
 48
0.3
100
AcDbLine
 10
9360.830017163008
 20
1284.777956760628
 30
0.0
 11
9360.830017163008
 21
1586.777956760627
 31
0.0
  0
ARC
  5
2030C
330
747D
100
AcDbEntity
  8
部品1
 48
0.3
100
AcDbCircle
 10
9370.830017163008
 20
1586.777956760627
 30
0.0
 40
10.0
100
AcDbArc
 50
90.0
 51
180.0
  0
ARC
  5
2030D
330
747D
100
AcDbEntity
  8
細線
100
AcDbCircle
 10
9388.830017163009
 20
1505.777956760628
 30
0.0
 40
1.0
100
AcDbArc
 50
180.0
 51
270.0
  0
ARC
  5
2030E
330
747D
100
AcDbEntity
  8
細線
100
AcDbCircle
 10
9416.830017163009
 20
1505.777956760628
 30
0.0
 40
1.0
100
AcDbArc
 50
270.0
 51
0.0
  0
ARC
  5
2030F
330
747D
100
AcDbEntity
  8
細線
100
AcDbCircle
 10
9416.830017163009
 20
1509.777956760628
 30
0.0
 40
1.0
100
AcDbArc
 50
0.0
 51
90.0
  0
ARC
  5
20310
330
747D
100
AcDbEntity
  8
細線
100
AcDbCircle
 10
9388.830017163009
 20
1509.777956760628
 30
0.0
 40
1.0
100
AcDbArc
 50
90.0
 51
180.0
  0
LINE
  5
20311
330
747D
100
AcDbEntity
  8
細線
100
AcDbLine
 10
9417.830017163009
 20
1509.777956760628
 30
0.0
 11
9417.830017163009
 21
1505.777956760628
 31
0.0
  0
LINE
  5
20312
330
747D
100
AcDbEntity
  8
細線
100
AcDbLine
 10
9387.830017163009
 20
1509.777956760628
 30
0.0
 11
9387.830017163009
 21
1505.777956760628
 31
0.0
  0
LINE
  5
20313
330
747D
100
AcDbEntity
  8
細線
100
AcDbLine
 10
9388.830017163009
 20
1510.777956760628
 30
0.0
 11
9416.830017163009
 21
1510.777956760628
 31
0.0
  0
LINE
  5
20314
330
747D
100
AcDbEntity
  8
細線
100
AcDbLine
 10
9388.830017163009
 20
1504.777956760628
 30
0.0
 11
9416.830017163009
 21
1504.777956760628
 31
0.0
  0
ARC
  5
20315
330
747D
100
AcDbEntity
  8
細線
100
AcDbCircle
 10
9379.830017163008
 20
1574.777956760628
 30
0.0
 40
8.0
100
AcDbArc
 50
0.0
 51
180.0
  0
LINE
  5
20316
330
747D
100
AcDbEntity
  8
細線
 48
70.0
100
AcDbLine
 10
9371.830017163009
 20
1548.634363221179
 30
0.0
 11
9371.830017163009
 21
1574.777956760628
 31
0.0
  0
LINE
  5
20317
330
747D
100
AcDbEntity
  8
細線
 48
70.0
100
AcDbLine
 10
9387.830017163009
 20
1574.777956760628
 30
0.0
 11
9387.830017163009
 21
1548.634363221179
 31
0.0
  0
ARC
  5
20318
330
747D
100
AcDbEntity
  8
細線
100
AcDbCircle
 10
9425.83001716301
 20
1574.777956760628
 30
0.0
 40
8.0
100
AcDbArc
 50
0.0
 51
180.0
  0
LINE
  5
20319
330
747D
100
AcDbEntity
  8
細線
 48
70.0
100
AcDbLine
 10
9417.830017163009
 20
1548.634363221179
 30
0.0
 11
9417.830017163009
 21
1574.777956760628
 31
0.0
  0
LINE
  5
2031A
330
747D
100
AcDbEntity
  8
細線
 48
70.0
100
AcDbLine
 10
9433.830017163009
 20
1574.777956760628
 30
0.0
 11
9433.830017163009
 21
1548.634363221179
 31
0.0
  0
DIMENSION
  5
2031B
330
747D
100
AcDbEntity
  8
寸法
 48
50.0
100
AcDbDimension
  2
*D16
 10
10812.20200623209
 20
1284.777956760628
 30
0.0
 11
10812.20200623209
 21
1474.777956760628
 31
0.0
 70
   160
  1
c
 71
     5
 42
379.9999999999998
  3
INABA_S40G
100
AcDbAlignedDimension
 13
11079.83001716301
 23
1664.777956760627
 33
0.0
 14
10875.83001716301
 24
1284.777956760628
 34
0.0
 50
90.0
100
AcDbRotatedDimension
1001
ACAD
1000
DSTYLE
1002
{
1070
   174
1070
     0
1070
   272
1070
     1
1070
   288
1070
     0
1070
   341
1005
0
1002
}
  0
LINE
  5
2031C
330
747D
100
AcDbEntity
  8
部品1
 48
10.0
100
AcDbLine
 10
11079.83001716301
 20
1664.777956760627
 30
0.0
 11
11079.83001716301
 21
2218.556312929368
 31
0.0
  0
LINE
  5
2031D
330
747D
100
AcDbEntity
  8
部品1
 48
10.0
100
AcDbLine
 10
11207.83001716301
 20
1664.777956760627
 30
0.0
 11
11207.83001716301
 21
2218.556312929368
 31
0.0
  0
LINE
  5
2031E
330
747D
100
AcDbEntity
  8
Ｇ．Ｌ
100
AcDbLine
 10
10133.6
 20
1284.777956760628
 30
0.0
 11
11566.56082112587
 21
1284.777956760628
 31
0.0
  0
LINE
  5
2031F
330
747D
100
AcDbEntity
  8
細線
100
AcDbLine
 10
11479.83001716301
 20
1378.820164599783
 30
0.0
 11
11204.83001716301
 21
1653.820164599784
 31
0.0
  0
LINE
  5
20320
330
747D
100
AcDbEntity
  8
細線
100
AcDbLine
 10
11479.83001716301
 20
1421.246571470977
 30
0.0
 11
11236.29863187336
 21
1664.777956760627
 31
0.0
  0
LINE
  5
20321
330
747D
100
AcDbEntity
  8
部品1
 48
10.0
100
AcDbLine
 10
11079.83001716301
 20
1664.777956760627
 30
0.0
 11
11120.83001716301
 21
1664.777956760628
 31
0.0
  0
LINE
  5
20322
330
747D
100
AcDbEntity
  8
部品1
 48
10.0
100
AcDbLine
 10
11204.83001716301
 20
1664.777956760627
 30
0.0
 11
11479.83001716301
 21
1664.777956760627
 31
0.0
  0
LINE
  5
20323
330
747D
100
AcDbEntity
  8
部品1
 48
10.0
100
AcDbLine
 10
11079.83001716301
 20
1664.777956760627
 30
0.0
 11
11120.83001716301
 21
1664.777956760627
 31
0.0
  0
LINE
  5
20324
330
747D
100
AcDbEntity
  8
部品1
 48
10.0
100
AcDbLine
 10
11204.83001716301
 20
1664.777956760628
 30
0.0
 11
11595.16766451629
 21
1664.777956760627
 31
0.0
  0
LINE
  5
20325
330
747D
100
AcDbEntity
  8
細線
100
AcDbLine
 10
11347.59805502247
 20
1284.777956760628
 30
0.0
 11
11204.83001716301
 21
1427.545994620087
 31
0.0
  0
LINE
  5
20326
330
747D
100
AcDbEntity
  8
細線
100
AcDbLine
 10
11120.83001716301
 20
1511.545994620088
 30
0.0
 11
11079.83001716301
 21
1552.545994620088
 31
0.0
  0
LINE
  5
20327
330
747D
100
AcDbEntity
  8
細線
100
AcDbLine
 10
11390.02446189366
 20
1284.777956760629
 30
0.0
 11
11204.83001716301
 21
1469.97240149128
 31
0.0
  0
LINE
  5
20328
330
747D
100
AcDbEntity
  8
細線
100
AcDbLine
 10
11120.83001716301
 20
1553.97240149128
 30
0.0
 11
11079.83001716301
 21
1594.972401491281
 31
0.0
  0
LINE
  5
20329
330
747D
100
AcDbEntity
  8
部品1
 48
10.0
100
AcDbLine
 10
11079.83001716301
 20
1284.777956760628
 30
0.0
 11
11079.83001716301
 21
1664.777956760627
 31
0.0
  0
LINE
  5
2032A
330
747D
100
AcDbEntity
  8
部品1
 48
10.0
100
AcDbLine
 10
11479.83001716301
 20
1664.777956760627
 30
0.0
 11
11479.83001716301
 21
1284.777956760628
 31
0.0
  0
LINE
  5
2032B
330
747D
100
AcDbEntity
  8
部品1
 48
10.0
100
AcDbLine
 10
11223.83001716301
 20
1778.777956760627
 30
0.0
 11
11595.16766451629
 21
1778.777956760627
 31
0.0
  0
LINE
  5
2032C
330
747D
100
AcDbEntity
  8
部品1
 48
10.0
100
AcDbLine
 10
11207.83001716301
 20
1762.777956760627
 30
0.0
 11
11595.16766451629
 21
1762.777956760627
 31
0.0
  0
LINE
  5
2032D
330
747D
100
AcDbEntity
  8
部品1
 48
10.0
100
AcDbLine
 10
11223.83001716301
 20
1762.777956760627
 30
0.0
 11
11223.83001716301
 21
2218.556312929368
 31
0.0
  0
LINE
  5
2032E
330
747D
100
AcDbEntity
  8
部品1
 48
10.0
100
AcDbLine
 10
11239.83001716301
 20
1778.777956760627
 30
0.0
 11
11239.83001716301
 21
2218.556312929368
 31
0.0
  0
CIRCLE
  5
2032F
330
747D
100
AcDbEntity
  8
部品
100
AcDbCircle
 10
11139.83001716301
 20
1714.777956760627
 30
0.0
 40
16.0
  0
LINE
  5
20330
330
747D
100
AcDbEntity
  8
部品
100
AcDbLine
 10
11065.83001716301
 20
1707.777956760628
 30
0.0
 11
11065.83001716301
 21
1721.777956760627
 31
0.0
  0
LINE
  5
20331
330
747D
100
AcDbEntity
  8
部品
100
AcDbLine
 10
11073.83001716301
 20
1728.777956760627
 30
0.0
 11
11072.83001716301
 21
1728.777956760627
 31
0.0
  0
LINE
  5
20332
330
747D
100
AcDbEntity
  8
部品
100
AcDbLine
 10
11073.83001716301
 20
1700.777956760628
 30
0.0
 11
11072.83001716301
 21
1700.777956760628
 31
0.0
  0
ARC
  5
20333
330
747D
100
AcDbEntity
  8
部品
100
AcDbCircle
 10
11072.83001716301
 20
1721.777956760627
 30
0.0
 40
7.0
100
AcDbArc
 50
90.0
 51
180.0
  0
ARC
  5
20334
330
747D
100
AcDbEntity
  8
部品
100
AcDbCircle
 10
11072.83001716301
 20
1707.777956760628
 30
0.0
 40
7.0
100
AcDbArc
 50
180.0
 51
270.0
  0
LINE
  5
20335
330
747D
100
AcDbEntity
  8
部品
100
AcDbLine
 10
11079.83001716301
 20
1730.777956760627
 30
0.0
 11
11073.83001716301
 21
1730.777956760627
 31
0.0
  0
LINE
  5
20336
330
747D
100
AcDbEntity
  8
部品
100
AcDbLine
 10
11079.83001716301
 20
1698.777956760627
 30
0.0
 11
11073.83001716301
 21
1698.777956760627
 31
0.0
  0
LINE
  5
20337
330
747D
100
AcDbEntity
  8
部品
100
AcDbLine
 10
11079.83001716301
 20
1698.777956760627
 30
0.0
 11
11079.83001716301
 21
1730.777956760627
 31
0.0
  0
LINE
  5
20338
330
747D
100
AcDbEntity
  8
部品
100
AcDbLine
 10
11073.83001716301
 20
1698.777956760627
 30
0.0
 11
11073.83001716301
 21
1730.777956760627
 31
0.0
  0
CIRCLE
  5
20339
330
747D
100
AcDbEntity
  8
部品
100
AcDbCircle
 10
11185.83001716301
 20
1714.777956760627
 30
0.0
 40
16.0
  0
LINE
  5
2033A
330
747D
100
AcDbEntity
  8
細線
100
AcDbLine
 10
11120.83001716301
 20
1285.27182464039
 30
0.0
 11
11079.83001716301
 21
1326.271824640389
 31
0.0
  0
LINE
  5
2033B
330
747D
100
AcDbEntity
  8
細線
100
AcDbLine
 10
11120.83001716301
 20
1327.698231511584
 30
0.0
 11
11079.83001716301
 21
1368.698231511583
 31
0.0
  0
ARC
  5
2033C
330
747D
100
AcDbEntity
  8
細線
100
AcDbCircle
 10
11139.83001716301
 20
1644.777956760628
 30
0.0
 40
8.0
100
AcDbArc
 50
180.0
 51
0.0
  0
ARC
  5
2033D
330
747D
100
AcDbEntity
  8
細線
100
AcDbCircle
 10
11139.83001716301
 20
1684.777956760628
 30
0.0
 40
8.0
100
AcDbArc
 50
0.0
 51
180.0
  0
LINE
  5
2033E
330
747D
100
AcDbEntity
  8
細線
100
AcDbLine
 10
11147.83001716301
 20
1684.777956760628
 30
0.0
 11
11147.83001716301
 21
1644.777956760628
 31
0.0
  0
LINE
  5
2033F
330
747D
100
AcDbEntity
  8
細線
100
AcDbLine
 10
11131.83001716301
 20
1684.777956760628
 30
0.0
 11
11131.83001716301
 21
1644.777956760628
 31
0.0
  0
ARC
  5
20340
330
747D
100
AcDbEntity
  8
部品1
100
AcDbCircle
 10
11130.83001568774
 20
1734.777956760626
 30
0.0
 40
10.0
100
AcDbArc
 50
90.0
 51
180.0
  0
ARC
  5
20341
330
747D
100
AcDbEntity
  8
部品1
100
AcDbCircle
 10
11194.83001716301
 20
1734.777956760626
 30
0.0
 40
10.0
100
AcDbArc
 50
0.0
 51
90.0
  0
LINE
  5
20342
330
747D
100
AcDbEntity
  8
細線
 48
0.5
100
AcDbLine
 10
11147.8502212659
 20
1354.977956760628
 30
0.0
 11
11177.80981306012
 21
1354.977956760628
 31
0.0
  0
LINE
  5
20343
330
747D
100
AcDbEntity
  8
部品1
100
AcDbLine
 10
11194.83001716301
 20
1744.777956760627
 30
0.0
 11
11130.83001568774
 21
1744.777956760627
 31
0.0
  0
CIRCLE
  5
20344
330
747D
100
AcDbEntity
  8
細線
100
AcDbCircle
 10
11139.83001716301
 20
1419.777956760628
 30
0.0
 40
5.0
  0
ARC
  5
20345
330
747D
100
AcDbEntity
  8
細線
100
AcDbCircle
 10
11185.83001716301
 20
1644.777956760628
 30
0.0
 40
8.0
100
AcDbArc
 50
180.0
 51
0.0
  0
ARC
  5
20346
330
747D
100
AcDbEntity
  8
細線
100
AcDbCircle
 10
11185.83001716301
 20
1684.777956760628
 30
0.0
 40
8.0
100
AcDbArc
 50
0.0
 51
180.0
  0
LINE
  5
20347
330
747D
100
AcDbEntity
  8
細線
100
AcDbLine
 10
11193.83001716301
 20
1684.777956760628
 30
0.0
 11
11193.83001716301
 21
1644.777956760628
 31
0.0
  0
LINE
  5
20348
330
747D
100
AcDbEntity
  8
細線
100
AcDbLine
 10
11177.83001716301
 20
1684.777956760628
 30
0.0
 11
11177.83001716301
 21
1644.777956760628
 31
0.0
  0
CIRCLE
  5
20349
330
747D
100
AcDbEntity
  8
細線
100
AcDbCircle
 10
11185.83001716301
 20
1419.777956760628
 30
0.0
 40
5.0
  0
LINE
  5
2034A
330
747D
100
AcDbEntity
  8
細線
100
AcDbLine
 10
11176.83001716301
 20
1350.377956760627
 30
0.0
 11
11176.83001716301
 21
1354.977956760628
 31
0.0
  0
LINE
  5
2034B
330
747D
100
AcDbEntity
  8
細線
100
AcDbLine
 10
11148.83001716301
 20
1354.977956760628
 30
0.0
 11
11148.83001716301
 21
1350.377956760627
 31
0.0
  0
LINE
  5
2034C
330
747D
100
AcDbEntity
  8
細線
100
AcDbLine
 10
11154.95312278863
 20
1338.377956760627
 30
0.0
 11
11157.83001716301
 21
1338.377956760627
 31
0.0
  0
LINE
  5
2034D
330
747D
100
AcDbEntity
  8
細線
100
AcDbLine
 10
11167.83001716301
 20
1338.377956760627
 30
0.0
 11
11170.70691153739
 21
1338.377956760627
 31
0.0
  0
ARC
  5
2034E
330
747D
100
AcDbEntity
  8
細線
100
AcDbCircle
 10
11154.95312278863
 20
1342.377956760627
 30
0.0
 40
4.0
100
AcDbArc
 50
194.0362434679265
 51
270.0
  0
ARC
  5
2034F
330
747D
100
AcDbEntity
  8
細線
100
AcDbCircle
 10
11170.70691153739
 20
1342.377956760627
 30
0.0
 40
4.0
100
AcDbArc
 50
270.0
 51
345.9637565320735
  0
LINE
  5
20350
330
747D
100
AcDbEntity
  8
細線
100
AcDbLine
 10
11174.58748153797
 20
1341.407814260482
 30
0.0
 11
11176.83001716301
 21
1350.377956760627
 31
0.0
  0
LINE
  5
20351
330
747D
100
AcDbEntity
  8
細線
100
AcDbLine
 10
11151.07255278805
 20
1341.407814260482
 30
0.0
 11
11148.83001716301
 21
1350.377956760627
 31
0.0
  0
ARC
  5
20352
330
747D
100
AcDbEntity
  8
細線
100
AcDbCircle
 10
11176.83001716301
 20
1314.777956760628
 30
0.0
 40
1.0
100
AcDbArc
 50
0.0
 51
90.0
  0
ARC
  5
20353
330
747D
100
AcDbEntity
  8
細線
100
AcDbCircle
 10
11148.83001716301
 20
1314.777956760628
 30
0.0
 40
1.0
100
AcDbArc
 50
90.0
 51
180.0
  0
ARC
  5
20354
330
747D
100
AcDbEntity
  8
細線
100
AcDbCircle
 10
11148.83001716301
 20
1350.777956760628
 30
0.0
 40
1.0
100
AcDbArc
 50
180.0
 51
270.0
  0
ARC
  5
20355
330
747D
100
AcDbEntity
  8
細線
100
AcDbCircle
 10
11176.83001716301
 20
1350.777956760628
 30
0.0
 40
1.0
100
AcDbArc
 50
270.0
 51
0.0
  0
ARC
  5
20356
330
747D
100
AcDbEntity
  8
細線
100
AcDbCircle
 10
11176.83001716301
 20
1354.777956760628
 30
0.0
 40
1.0
100
AcDbArc
 50
0.0
 51
90.0
  0
ARC
  5
20357
330
747D
100
AcDbEntity
  8
細線
100
AcDbCircle
 10
11148.83001716301
 20
1354.777956760628
 30
0.0
 40
1.0
100
AcDbArc
 50
90.0
 51
180.0
  0
LINE
  5
20358
330
747D
100
AcDbEntity
  8
細線
100
AcDbLine
 10
11147.83001716301
 20
1314.777956760628
 30
0.0
 11
11147.83001716301
 21
1312.977956760631
 31
0.0
  0
LINE
  5
20359
330
747D
100
AcDbEntity
  8
細線
100
AcDbLine
 10
11177.83001716301
 20
1314.777956760628
 30
0.0
 11
11177.83001716301
 21
1312.977956760631
 31
0.0
  0
LINE
  5
2035A
330
747D
100
AcDbEntity
  8
細線
100
AcDbLine
 10
11177.83001716301
 20
1354.777956760628
 30
0.0
 11
11177.83001716301
 21
1350.777956760628
 31
0.0
  0
LINE
  5
2035B
330
747D
100
AcDbEntity
  8
細線
100
AcDbLine
 10
11147.83001716301
 20
1354.777956760628
 30
0.0
 11
11147.83001716301
 21
1350.777956760628
 31
0.0
  0
LINE
  5
2035C
330
747D
100
AcDbEntity
  8
細線
100
AcDbLine
 10
11148.83001716301
 20
1355.777956760628
 30
0.0
 11
11176.83001716301
 21
1355.777956760628
 31
0.0
  0
LINE
  5
2035D
330
747D
100
AcDbEntity
  8
細線
100
AcDbLine
 10
11148.83001716301
 20
1315.777956760628
 30
0.0
 11
11152.83001716301
 21
1315.777956760628
 31
0.0
  0
LINE
  5
2035E
330
747D
100
AcDbEntity
  8
細線
100
AcDbLine
 10
11172.83001716301
 20
1315.777956760628
 30
0.0
 11
11176.83001716301
 21
1315.777956760628
 31
0.0
  0
LINE
  5
2035F
330
747D
100
AcDbEntity
  8
部品1
100
AcDbLine
 10
11204.83001716301
 20
1293.977956760628
 30
0.0
 11
11120.83001716301
 21
1293.977956760628
 31
0.0
  0
LINE
  5
20360
330
747D
100
AcDbEntity
  8
細線
100
AcDbLine
 10
11148.83001716301
 20
1349.777956760628
 30
0.0
 11
11148.98001716301
 21
1349.777956760628
 31
0.0
  0
LINE
  5
20361
330
747D
100
AcDbEntity
  8
細線
100
AcDbLine
 10
11176.68001716301
 20
1349.777956760628
 30
0.0
 11
11176.83001716301
 21
1349.777956760628
 31
0.0
  0
LINE
  5
20362
330
747D
100
AcDbEntity
  8
部品1
100
AcDbLine
 10
11204.83001716301
 20
1284.777956760628
 30
0.0
 11
11120.83001716301
 21
1284.777956760628
 31
0.0
  0
LINE
  5
20363
330
747D
100
AcDbEntity
  8
部品1
100
AcDbLine
 10
11130.83001716301
 20
1596.777956760627
 30
0.0
 11
11194.83001716301
 21
1596.777956760627
 31
0.0
  0
LINE
  5
20364
330
747D
100
AcDbEntity
  8
部品1
 48
0.3
100
AcDbLine
 10
11204.83001716301
 20
1284.777956760628
 30
0.0
 11
11204.83001716301
 21
1734.777956760626
 31
0.0
  0
ARC
  5
20365
330
747D
100
AcDbEntity
  8
部品1
 48
0.3
100
AcDbCircle
 10
11194.83001716301
 20
1586.777956760627
 30
0.0
 40
10.0
100
AcDbArc
 50
0.0
 51
90.0
  0
LINE
  5
20366
330
747D
100
AcDbEntity
  8
部品1
 48
0.3
100
AcDbLine
 10
11120.83001716301
 20
1284.777956760628
 30
0.0
 11
11120.83001716301
 21
1734.783388646846
 31
0.0
  0
ARC
  5
20367
330
747D
100
AcDbEntity
  8
部品1
 48
0.3
100
AcDbCircle
 10
11130.83001716301
 20
1586.777956760627
 30
0.0
 40
10.0
100
AcDbArc
 50
90.0
 51
180.0
  0
ARC
  5
20368
330
747D
100
AcDbEntity
  8
細線
100
AcDbCircle
 10
11148.83001716301
 20
1505.777956760628
 30
0.0
 40
1.0
100
AcDbArc
 50
180.0
 51
270.0
  0
ARC
  5
20369
330
747D
100
AcDbEntity
  8
細線
100
AcDbCircle
 10
11176.83001716301
 20
1505.777956760628
 30
0.0
 40
1.0
100
AcDbArc
 50
270.0
 51
0.0
  0
ARC
  5
2036A
330
747D
100
AcDbEntity
  8
細線
100
AcDbCircle
 10
11176.83001716301
 20
1509.777956760628
 30
0.0
 40
1.0
100
AcDbArc
 50
0.0
 51
90.0
  0
ARC
  5
2036B
330
747D
100
AcDbEntity
  8
細線
100
AcDbCircle
 10
11148.83001716301
 20
1509.777956760628
 30
0.0
 40
1.0
100
AcDbArc
 50
90.0
 51
180.0
  0
LINE
  5
2036C
330
747D
100
AcDbEntity
  8
細線
100
AcDbLine
 10
11177.83001716301
 20
1509.777956760628
 30
0.0
 11
11177.83001716301
 21
1505.777956760628
 31
0.0
  0
LINE
  5
2036D
330
747D
100
AcDbEntity
  8
細線
100
AcDbLine
 10
11147.83001716301
 20
1509.777956760628
 30
0.0
 11
11147.83001716301
 21
1505.777956760628
 31
0.0
  0
LINE
  5
2036E
330
747D
100
AcDbEntity
  8
細線
100
AcDbLine
 10
11148.83001716301
 20
1510.777956760628
 30
0.0
 11
11176.83001716301
 21
1510.777956760628
 31
0.0
  0
LINE
  5
2036F
330
747D
100
AcDbEntity
  8
細線
100
AcDbLine
 10
11148.83001716301
 20
1504.777956760628
 30
0.0
 11
11176.83001716301
 21
1504.777956760628
 31
0.0
  0
ARC
  5
20370
330
747D
100
AcDbEntity
  8
細線
100
AcDbCircle
 10
11139.83001716301
 20
1534.777956760628
 30
0.0
 40
8.0
100
AcDbArc
 50
180.0
 51
0.0
  0
LINE
  5
20371
330
747D
100
AcDbEntity
  8
細線
 48
70.0
100
AcDbLine
 10
11131.83001716301
 20
1534.777956760628
 30
0.0
 11
11131.83001716301
 21
1560.921550300077
 31
0.0
  0
LINE
  5
20372
330
747D
100
AcDbEntity
  8
細線
 48
70.0
100
AcDbLine
 10
11147.83001716301
 20
1560.921550300077
 30
0.0
 11
11147.83001716301
 21
1534.777956760628
 31
0.0
  0
ARC
  5
20373
330
747D
100
AcDbEntity
  8
細線
100
AcDbCircle
 10
11185.83001716301
 20
1534.777956760628
 30
0.0
 40
8.0
100
AcDbArc
 50
180.0
 51
0.0
  0
LINE
  5
20374
330
747D
100
AcDbEntity
  8
細線
 48
70.0
100
AcDbLine
 10
11177.83001716301
 20
1534.777956760628
 30
0.0
 11
11177.83001716301
 21
1560.921550300077
 31
0.0
  0
LINE
  5
20375
330
747D
100
AcDbEntity
  8
細線
 48
70.0
100
AcDbLine
 10
11193.83001716301
 20
1560.921550300077
 30
0.0
 11
11193.83001716301
 21
1534.777956760628
 31
0.0
  0
DIMENSION
  5
20376
330
747D
100
AcDbEntity
  8
寸法
 48
50.0
100
AcDbDimension
  2
*D17
 10
7174.573995301172
 20
884.7779567606284
 30
0.0
 11
7174.573995301172
 21
1084.777956760628
 31
0.0
 70
   160
  1
200
 71
     5
 42
399.9999999999993
  3
INABA_S40G
100
AcDbAlignedDimension
 13
7355.830017163007
 23
1284.777956760628
 33
0.0
 14
7355.830017163007
 24
884.7779567606284
 34
0.0
 50
90.0
100
AcDbRotatedDimension
1001
ACAD
1000
DSTYLE
1002
{
1070
   174
1070
     0
1070
   272
1070
     1
1070
   288
1070
     0
1070
   341
1005
0
1002
}
  0
DIMENSION
  5
20377
330
747D
100
AcDbEntity
  8
寸法
 48
50.0
100
AcDbDimension
  2
*D18
 10
7174.573995301172
 20
1284.777956760628
 30
0.0
 11
7174.573995301172
 21
1384.777956760627
 31
0.0
 70
   160
  1
a
 71
     5
 42
200.0000000000004
  3
INABA_S40G
100
AcDbAlignedDimension
 13
7559.830017163007
 23
1484.777956760628
 33
0.0
 14
7355.830017163007
 24
1284.777956760628
 34
0.0
 50
90.0
100
AcDbRotatedDimension
1001
ACAD
1000
DSTYLE
1002
{
1070
   174
1070
     0
1070
   272
1070
     1
1070
   288
1070
     0
1070
   341
1005
0
1002
}
  0
LINE
  5
20378
330
747D
100
AcDbEntity
  8
部品1
 48
10.0
100
AcDbLine
 10
7559.830017163007
 20
1484.777956760628
 30
0.0
 11
7559.830017163007
 21
2218.556312929367
 31
0.0
  0
LINE
  5
20379
330
747D
100
AcDbEntity
  8
部品1
 48
10.0
100
AcDbLine
 10
7687.830017163012
 20
1484.777956760628
 30
0.0
 11
7687.830017163007
 21
2218.556312929367
 31
0.0
  0
LINE
  5
2037A
330
747D
100
AcDbEntity
  8
Ｇ．Ｌ
100
AcDbLine
 10
6548.396766103301
 20
1284.777956760628
 30
0.0
 11
7600.830017163007
 21
1284.777956760628
 31
0.0
  0
LINE
  5
2037B
330
747D
100
AcDbEntity
  8
Ｇ．Ｌ
100
AcDbLine
 10
7684.830017163007
 20
1284.777956760628
 30
0.0
 11
8073.599999999998
 21
1284.777956760628
 31
0.0
  0
LINE
  5
2037C
330
747D
100
AcDbEntity
  8
細線
100
AcDbLine
 10
7905.872225002162
 20
1284.777956760628
 30
0.0
 11
7705.872225002164
 21
1484.777956760628
 31
0.0
  0
LINE
  5
2037D
330
747D
100
AcDbEntity
  8
細線
100
AcDbLine
 10
7948.298631873355
 20
1284.777956760629
 30
0.0
 11
7748.298631873357
 21
1484.777956760628
 31
0.0
  0
LINE
  5
2037E
330
747D
100
AcDbEntity
  8
部品1
 48
10.0
100
AcDbLine
 10
7559.830017163007
 20
1484.777956760628
 30
0.0
 11
7600.830017163007
 21
1484.777956760628
 31
0.0
  0
LINE
  5
2037F
330
747D
100
AcDbEntity
  8
部品1
 48
10.0
100
AcDbLine
 10
7684.830017163007
 20
1484.777956760628
 30
0.0
 11
7959.830017163007
 21
1484.777956760628
 31
0.0
  0
LINE
  5
20380
330
747D
100
AcDbEntity
  8
部品1
 48
10.0
100
AcDbLine
 10
7559.830017163007
 20
1484.777956760628
 30
0.0
 11
7600.830017163007
 21
1484.777956760629
 31
0.0
  0
LINE
  5
20381
330
747D
100
AcDbEntity
  8
部品1
 48
10.0
100
AcDbLine
 10
7684.830017163007
 20
1484.777956760628
 30
0.0
 11
8075.167664516291
 21
1484.777956760628
 31
0.0
  0
DIMENSION
  5
20382
330
747D
100
AcDbEntity
  8
寸法
 48
50.0
100
AcDbDimension
  2
*D19
 10
7355.830017163007
 20
658.2949912753242
 30
0.0
 11
7555.830017163008
 21
758.3068022989463
 31
0.0
 70
    32
  1
200
 71
     5
 42
400.0
  3
INABA_S40G
100
AcDbAlignedDimension
 13
7755.830017163008
 23
884.7779567606284
 33
0.0
 14
7355.830017163007
 24
884.7779567606284
 34
0.0
100
AcDbRotatedDimension
1001
ACAD
1000
DSTYLE
1002
{
1070
   174
1070
     0
1070
   272
1070
     1
1070
   288
1070
     0
1070
   341
1005
0
1002
}
  0
LINE
  5
20383
330
747D
100
AcDbEntity
  8
細線
  6
HIDDEN
 48
10.0
100
AcDbLine
 10
7355.830017163007
 20
1130.777732462573
 30
0.0
 11
7509.830241461052
 21
1284.777956760628
 31
0.0
  0
LINE
  5
20384
330
747D
100
AcDbEntity
  8
細線
  6
HIDDEN
 48
10.0
100
AcDbLine
 10
7355.830017163007
 20
1159.062003710035
 30
0.0
 11
7481.545970213594
 21
1284.777956760628
 31
0.0
  0
LINE
  5
20385
330
747D
100
AcDbEntity
  8
細線
  6
HIDDEN
 48
10.0
100
AcDbLine
 10
7355.830017163007
 20
1187.346274957496
 30
0.0
 11
7453.261698966137
 21
1284.777956760628
 31
0.0
  0
LINE
  5
20386
330
747D
100
AcDbEntity
  8
細線
  6
HIDDEN
 48
10.0
100
AcDbLine
 10
7355.830017163007
 20
884.7779567606284
 30
0.0
 11
7755.830017163008
 21
884.7779567606284
 31
0.0
  0
LINE
  5
20387
330
747D
100
AcDbEntity
  8
細線
  6
HIDDEN
 48
10.0
100
AcDbLine
 10
7355.830017163007
 20
884.7779567606284
 30
0.0
 11
7355.830017163007
 21
1284.777956760628
 31
0.0
  0
LINE
  5
20388
330
747D
100
AcDbEntity
  8
細線
  6
HIDDEN
 48
10.0
100
AcDbLine
 10
7536.488630313894
 20
884.777956760629
 30
0.0
 11
7601.488630313891
 21
949.7779567606285
 31
0.0
  0
LINE
  5
20389
330
747D
100
AcDbEntity
  8
細線
  6
HIDDEN
 48
10.0
100
AcDbLine
 10
7684.830017163007
 20
1033.119343609747
 30
0.0
 11
7755.830017163008
 21
1104.11934360975
 31
0.0
  0
LINE
  5
2038A
330
747D
100
AcDbEntity
  8
細線
  6
HIDDEN
 48
10.0
100
AcDbLine
 10
7479.920087818971
 20
884.7779567606281
 30
0.0
 11
7600.830017163007
 21
1005.687886104668
 31
0.0
  0
LINE
  5
2038B
330
747D
100
AcDbEntity
  8
細線
  6
HIDDEN
 48
10.0
100
AcDbLine
 10
7684.830017163007
 20
1089.687886104671
 30
0.0
 11
7755.830017163008
 21
1160.687886104673
 31
0.0
  0
LINE
  5
2038C
330
747D
100
AcDbEntity
  8
細線
  6
HIDDEN
 48
10.0
100
AcDbLine
 10
7508.204359066434
 20
884.7779567606298
 30
0.0
 11
7600.830017163007
 21
977.4036148572056
 31
0.0
  0
LINE
  5
2038D
330
747D
100
AcDbEntity
  8
細線
  6
HIDDEN
 48
10.0
100
AcDbLine
 10
7684.830017163007
 20
1061.403614857209
 30
0.0
 11
7755.830017163008
 21
1132.403614857212
 31
0.0
  0
LINE
  5
2038E
330
747D
100
AcDbEntity
  8
細線
  6
HIDDEN
 48
10.0
100
AcDbLine
 10
7755.830017163008
 20
884.7779567606284
 30
0.0
 11
7755.830017163008
 21
1284.777956760628
 31
0.0
  0
LINE
  5
2038F
330
747D
100
AcDbEntity
  8
細線
100
AcDbLine
 10
7600.830017163007
 20
1363.545994620088
 30
0.0
 11
7559.830017163007
 21
1404.545994620088
 31
0.0
  0
LINE
  5
20390
330
747D
100
AcDbEntity
  8
細線
100
AcDbLine
 10
7722.024461893659
 20
1284.777956760628
 30
0.0
 11
7684.830017163007
 21
1321.97240149128
 31
0.0
  0
LINE
  5
20391
330
747D
100
AcDbEntity
  8
細線
100
AcDbLine
 10
7600.830017163007
 20
1405.97240149128
 30
0.0
 11
7559.830017163005
 21
1446.97240149128
 31
0.0
  0
LINE
  5
20392
330
747D
100
AcDbEntity
  8
部品1
 48
10.0
100
AcDbLine
 10
7559.830017163007
 20
1284.777956760628
 30
0.0
 11
7559.830017163007
 21
1484.777956760628
 31
0.0
  0
LINE
  5
20393
330
747D
100
AcDbEntity
  8
部品1
 48
10.0
100
AcDbLine
 10
7959.830017163007
 20
1484.777956760628
 30
0.0
 11
7959.830017163007
 21
1284.777956760628
 31
0.0
  0
LINE
  5
20394
330
747D
100
AcDbEntity
  8
部品1
 48
10.0
100
AcDbLine
 10
7703.830017163006
 20
1598.777956760627
 30
0.0
 11
8075.167664516291
 21
1598.777956760627
 31
0.0
  0
LINE
  5
20395
330
747D
100
AcDbEntity
  8
部品1
 48
10.0
100
AcDbLine
 10
7687.830017163007
 20
1582.777956760628
 30
0.0
 11
8075.167664516291
 21
1582.777956760628
 31
0.0
  0
LINE
  5
20396
330
747D
100
AcDbEntity
  8
部品1
 48
10.0
100
AcDbLine
 10
7703.830017163006
 20
1582.777956760628
 30
0.0
 11
7703.830017163006
 21
2218.556312929367
 31
0.0
  0
LINE
  5
20397
330
747D
100
AcDbEntity
  8
部品1
 48
10.0
100
AcDbLine
 10
7719.830017163006
 20
1598.777956760627
 30
0.0
 11
7719.830017163006
 21
2218.556312929367
 31
0.0
  0
CIRCLE
  5
20398
330
747D
100
AcDbEntity
  8
部品
100
AcDbCircle
 10
7619.830017163007
 20
1534.777956760628
 30
0.0
 40
16.0
  0
LINE
  5
20399
330
747D
100
AcDbEntity
  8
部品
100
AcDbLine
 10
7545.830017163007
 20
1527.777956760628
 30
0.0
 11
7545.830017163007
 21
1541.777956760628
 31
0.0
  0
LINE
  5
2039A
330
747D
100
AcDbEntity
  8
部品
100
AcDbLine
 10
7553.830017163007
 20
1548.777956760628
 30
0.0
 11
7552.830017163008
 21
1548.777956760628
 31
0.0
  0
LINE
  5
2039B
330
747D
100
AcDbEntity
  8
部品
100
AcDbLine
 10
7553.830017163007
 20
1520.777956760628
 30
0.0
 11
7552.830017163008
 21
1520.777956760628
 31
0.0
  0
ARC
  5
2039C
330
747D
100
AcDbEntity
  8
部品
100
AcDbCircle
 10
7552.830017163008
 20
1541.777956760628
 30
0.0
 40
7.0
100
AcDbArc
 50
90.0
 51
180.0
  0
ARC
  5
2039D
330
747D
100
AcDbEntity
  8
部品
100
AcDbCircle
 10
7552.830017163008
 20
1527.777956760628
 30
0.0
 40
7.0
100
AcDbArc
 50
180.0
 51
270.0
  0
LINE
  5
2039E
330
747D
100
AcDbEntity
  8
部品
100
AcDbLine
 10
7559.830017163007
 20
1550.777956760628
 30
0.0
 11
7553.830017163007
 21
1550.777956760628
 31
0.0
  0
LINE
  5
2039F
330
747D
100
AcDbEntity
  8
部品
100
AcDbLine
 10
7559.830017163007
 20
1518.777956760628
 30
0.0
 11
7553.830017163007
 21
1518.777956760628
 31
0.0
  0
LINE
  5
203A0
330
747D
100
AcDbEntity
  8
部品
100
AcDbLine
 10
7559.830017163007
 20
1518.777956760628
 30
0.0
 11
7559.830017163007
 21
1550.777956760628
 31
0.0
  0
LINE
  5
203A1
330
747D
100
AcDbEntity
  8
部品
100
AcDbLine
 10
7553.830017163007
 20
1518.777956760628
 30
0.0
 11
7553.830017163007
 21
1550.777956760628
 31
0.0
  0
CIRCLE
  5
203A2
330
747D
100
AcDbEntity
  8
部品
100
AcDbCircle
 10
7665.830017163007
 20
1534.777956760628
 30
0.0
 40
16.0
  0
ARC
  5
203A3
330
747D
100
AcDbEntity
  8
細線
100
AcDbCircle
 10
7619.830017163007
 20
1464.777956760629
 30
0.0
 40
8.0
100
AcDbArc
 50
180.0
 51
0.0
  0
ARC
  5
203A4
330
747D
100
AcDbEntity
  8
細線
100
AcDbCircle
 10
7619.830017163007
 20
1504.777956760628
 30
0.0
 40
8.0
100
AcDbArc
 50
0.0
 51
180.0
  0
LINE
  5
203A5
330
747D
100
AcDbEntity
  8
細線
100
AcDbLine
 10
7627.830017163008
 20
1504.777956760628
 30
0.0
 11
7627.830017163008
 21
1464.777956760629
 31
0.0
  0
LINE
  5
203A6
330
747D
100
AcDbEntity
  8
細線
100
AcDbLine
 10
7611.830017163007
 20
1504.777956760628
 30
0.0
 11
7611.830017163007
 21
1464.777956760629
 31
0.0
  0
ARC
  5
203A7
330
747D
100
AcDbEntity
  8
部品1
100
AcDbCircle
 10
7610.830015687738
 20
1554.777956760627
 30
0.0
 40
10.0
100
AcDbArc
 50
90.0
 51
180.0
  0
ARC
  5
203A8
330
747D
100
AcDbEntity
  8
部品1
100
AcDbCircle
 10
7674.830017163007
 20
1554.777956760627
 30
0.0
 40
10.0
100
AcDbArc
 50
0.0
 51
90.0
  0
LINE
  5
203A9
330
747D
100
AcDbEntity
  8
細線
 48
0.5
100
AcDbLine
 10
7627.850221265894
 20
1174.977956760628
 30
0.0
 11
7657.809813060122
 21
1174.977956760628
 31
0.0
  0
LINE
  5
203AA
330
747D
100
AcDbEntity
  8
部品1
100
AcDbLine
 10
7674.830017163007
 20
1564.777956760627
 30
0.0
 11
7610.830015687738
 21
1564.777956760627
 31
0.0
  0
ARC
  5
203AB
330
747D
100
AcDbEntity
  8
細線
100
AcDbCircle
 10
7665.830017163007
 20
1464.777956760629
 30
0.0
 40
8.0
100
AcDbArc
 50
180.0
 51
0.0
  0
ARC
  5
203AC
330
747D
100
AcDbEntity
  8
細線
100
AcDbCircle
 10
7665.830017163007
 20
1504.777956760628
 30
0.0
 40
8.0
100
AcDbArc
 50
0.0
 51
180.0
  0
LINE
  5
203AD
330
747D
100
AcDbEntity
  8
細線
100
AcDbLine
 10
7673.830017163007
 20
1504.777956760628
 30
0.0
 11
7673.830017163007
 21
1464.777956760629
 31
0.0
  0
LINE
  5
203AE
330
747D
100
AcDbEntity
  8
細線
100
AcDbLine
 10
7657.830017163007
 20
1504.777956760628
 30
0.0
 11
7657.830017163007
 21
1464.777956760629
 31
0.0
  0
CIRCLE
  5
203AF
330
747D
100
AcDbEntity
  8
細線
100
AcDbCircle
 10
7619.830017163007
 20
1394.777956760628
 30
0.0
 40
5.0
  0
CIRCLE
  5
203B0
330
747D
100
AcDbEntity
  8
細線
100
AcDbCircle
 10
7665.830017163007
 20
1394.777956760628
 30
0.0
 40
5.0
  0
LINE
  5
203B1
330
747D
100
AcDbEntity
  8
細線
100
AcDbLine
 10
7656.830017163007
 20
1170.377956760628
 30
0.0
 11
7656.830017163007
 21
1174.977956760628
 31
0.0
  0
LINE
  5
203B2
330
747D
100
AcDbEntity
  8
細線
100
AcDbLine
 10
7628.830017163007
 20
1174.977956760628
 30
0.0
 11
7628.830017163007
 21
1170.377956760628
 31
0.0
  0
LINE
  5
203B3
330
747D
100
AcDbEntity
  8
細線
100
AcDbLine
 10
7634.953122788626
 20
1158.377956760628
 30
0.0
 11
7650.70691153739
 21
1158.377956760628
 31
0.0
  0
ARC
  5
203B4
330
747D
100
AcDbEntity
  8
細線
100
AcDbCircle
 10
7634.953122788626
 20
1162.377956760628
 30
0.0
 40
4.0
100
AcDbArc
 50
194.0362434679265
 51
270.0
  0
ARC
  5
203B5
330
747D
100
AcDbEntity
  8
細線
100
AcDbCircle
 10
7650.70691153739
 20
1162.377956760628
 30
0.0
 40
4.0
100
AcDbArc
 50
270.0
 51
345.9637565320609
  0
LINE
  5
203B6
330
747D
100
AcDbEntity
  8
細線
100
AcDbLine
 10
7654.587481537972
 20
1161.407814260483
 30
0.0
 11
7656.830017163007
 21
1170.377956760628
 31
0.0
  0
LINE
  5
203B7
330
747D
100
AcDbEntity
  8
細線
100
AcDbLine
 10
7631.072552788044
 20
1161.407814260483
 30
0.0
 11
7628.830017163007
 21
1170.377956760628
 31
0.0
  0
ARC
  5
203B8
330
747D
100
AcDbEntity
  8
細線
100
AcDbCircle
 10
7656.830017163007
 20
979.7779567606285
 30
0.0
 40
1.0
100
AcDbArc
 50
0.0
 51
90.0
  0
ARC
  5
203B9
330
747D
100
AcDbEntity
  8
細線
100
AcDbCircle
 10
7656.830017163007
 20
975.7779567606284
 30
0.0
 40
1.0
100
AcDbArc
 50
270.0
 51
0.0
  0
ARC
  5
203BA
330
747D
100
AcDbEntity
  8
細線
100
AcDbCircle
 10
7628.830017163007
 20
975.7779567606284
 30
0.0
 40
1.0
100
AcDbArc
 50
180.0
 51
270.0
  0
ARC
  5
203BB
330
747D
100
AcDbEntity
  8
細線
100
AcDbCircle
 10
7628.830017163007
 20
979.7779567606285
 30
0.0
 40
1.0
100
AcDbArc
 50
90.0
 51
180.0
  0
ARC
  5
203BC
330
747D
100
AcDbEntity
  8
細線
100
AcDbCircle
 10
7628.830017163007
 20
1015.777956760628
 30
0.0
 40
1.0
100
AcDbArc
 50
180.0
 51
270.0
  0
ARC
  5
203BD
330
747D
100
AcDbEntity
  8
細線
100
AcDbCircle
 10
7656.830017163007
 20
1015.777956760628
 30
0.0
 40
1.0
100
AcDbArc
 50
270.0
 51
0.0
  0
ARC
  5
203BE
330
747D
100
AcDbEntity
  8
細線
100
AcDbCircle
 10
7656.830017163007
 20
1019.777956760628
 30
0.0
 40
1.0
100
AcDbArc
 50
0.0
 51
90.0
  0
ARC
  5
203BF
330
747D
100
AcDbEntity
  8
細線
100
AcDbCircle
 10
7628.830017163007
 20
1019.777956760628
 30
0.0
 40
1.0
100
AcDbArc
 50
90.0
 51
180.0
  0
LINE
  5
203C0
330
747D
100
AcDbEntity
  8
細線
100
AcDbLine
 10
7627.830017163008
 20
979.7779567606285
 30
0.0
 11
7627.830017163008
 21
975.7779567606284
 31
0.0
  0
LINE
  5
203C1
330
747D
100
AcDbEntity
  8
細線
100
AcDbLine
 10
7657.830017163007
 20
979.7779567606285
 30
0.0
 11
7657.830017163007
 21
975.7779567606284
 31
0.0
  0
LINE
  5
203C2
330
747D
100
AcDbEntity
  8
細線
100
AcDbLine
 10
7657.830017163007
 20
1019.777956760628
 30
0.0
 11
7657.830017163007
 21
1015.777956760628
 31
0.0
  0
LINE
  5
203C3
330
747D
100
AcDbEntity
  8
細線
100
AcDbLine
 10
7627.830017163008
 20
1019.777956760628
 30
0.0
 11
7627.830017163008
 21
1015.777956760628
 31
0.0
  0
LINE
  5
203C4
330
747D
100
AcDbEntity
  8
細線
100
AcDbLine
 10
7628.830017163007
 20
1020.777956760628
 30
0.0
 11
7656.830017163007
 21
1020.777956760628
 31
0.0
  0
LINE
  5
203C5
330
747D
100
AcDbEntity
  8
細線
100
AcDbLine
 10
7628.830017163007
 20
980.7779567606285
 30
0.0
 11
7656.830017163007
 21
980.7779567606285
 31
0.0
  0
LINE
  5
203C6
330
747D
100
AcDbEntity
  8
部品1
100
AcDbLine
 10
7684.830017163007
 20
958.9779567606292
 30
0.0
 11
7600.830017163007
 21
958.9779567606292
 31
0.0
  0
LINE
  5
203C7
330
747D
100
AcDbEntity
  8
細線
100
AcDbLine
 10
7628.830017163007
 20
974.7779567606285
 30
0.0
 11
7656.830017163007
 21
974.7779567606285
 31
0.0
  0
LINE
  5
203C8
330
747D
100
AcDbEntity
  8
細線
100
AcDbLine
 10
7628.830017163007
 20
1014.777956760628
 30
0.0
 11
7656.830017163007
 21
1014.777956760628
 31
0.0
  0
LINE
  5
203C9
330
747D
100
AcDbEntity
  8
部品1
100
AcDbLine
 10
7684.830017163007
 20
949.7779567606285
 30
0.0
 11
7600.830017163007
 21
949.7779567606285
 31
0.0
  0
LINE
  5
203CA
330
747D
100
AcDbEntity
  8
部品1
100
AcDbLine
 10
7610.830017163007
 20
1261.777956760628
 30
0.0
 11
7674.830017163007
 21
1261.777956760628
 31
0.0
  0
LINE
  5
203CB
330
747D
100
AcDbEntity
  8
部品1
 48
0.3
100
AcDbLine
 10
7684.830017163007
 20
949.7779567606285
 30
0.0
 11
7684.830017163007
 21
1554.777956760627
 31
0.0
  0
ARC
  5
203CC
330
747D
100
AcDbEntity
  8
部品1
 48
0.3
100
AcDbCircle
 10
7674.830017163007
 20
1251.777956760628
 30
0.0
 40
10.0
100
AcDbArc
 50
0.0
 51
90.0
  0
LINE
  5
203CD
330
747D
100
AcDbEntity
  8
部品1
 48
0.3
100
AcDbLine
 10
7600.830017163007
 20
949.7779567606285
 30
0.0
 11
7600.830017163007
 21
1554.783388647023
 31
0.0
  0
ARC
  5
203CE
330
747D
100
AcDbEntity
  8
部品1
 48
0.3
100
AcDbCircle
 10
7610.830017163007
 20
1251.777956760628
 30
0.0
 40
10.0
100
AcDbArc
 50
90.0
 51
180.0
  0
ARC
  5
203CF
330
747D
100
AcDbEntity
  8
細線
100
AcDbCircle
 10
7628.830017163007
 20
1170.777956760628
 30
0.0
 40
1.0
100
AcDbArc
 50
180.0
 51
270.0
  0
ARC
  5
203D0
330
747D
100
AcDbEntity
  8
細線
100
AcDbCircle
 10
7656.830017163007
 20
1170.777956760628
 30
0.0
 40
1.0
100
AcDbArc
 50
270.0
 51
0.0
  0
ARC
  5
203D1
330
747D
100
AcDbEntity
  8
細線
100
AcDbCircle
 10
7656.830017163007
 20
1174.777956760628
 30
0.0
 40
1.0
100
AcDbArc
 50
0.0
 51
90.0
  0
ARC
  5
203D2
330
747D
100
AcDbEntity
  8
細線
100
AcDbCircle
 10
7628.830017163007
 20
1174.777956760628
 30
0.0
 40
1.0
100
AcDbArc
 50
90.0
 51
180.0
  0
LINE
  5
203D3
330
747D
100
AcDbEntity
  8
細線
100
AcDbLine
 10
7657.830017163007
 20
1174.777956760628
 30
0.0
 11
7657.830017163007
 21
1170.777956760628
 31
0.0
  0
LINE
  5
203D4
330
747D
100
AcDbEntity
  8
細線
100
AcDbLine
 10
7627.830017163008
 20
1174.777956760628
 30
0.0
 11
7627.830017163008
 21
1170.777956760628
 31
0.0
  0
LINE
  5
203D5
330
747D
100
AcDbEntity
  8
細線
100
AcDbLine
 10
7628.830017163007
 20
1175.777956760628
 30
0.0
 11
7656.830017163007
 21
1175.777956760628
 31
0.0
  0
LINE
  5
203D6
330
747D
100
AcDbEntity
  8
細線
100
AcDbLine
 10
7628.830017163007
 20
1169.777956760628
 30
0.0
 11
7628.980017163006
 21
1169.777956760628
 31
0.0
  0
LINE
  5
203D7
330
747D
100
AcDbEntity
  8
細線
100
AcDbLine
 10
7656.680017163008
 20
1169.777956760628
 30
0.0
 11
7656.830017163007
 21
1169.777956760628
 31
0.0
  0
ARC
  5
203D8
330
747D
100
AcDbEntity
  8
細線
100
AcDbCircle
 10
7619.830017163007
 20
1199.777956760628
 30
0.0
 40
8.0
100
AcDbArc
 50
180.0
 51
0.0
  0
LINE
  5
203D9
330
747D
100
AcDbEntity
  8
細線
 48
70.0
100
AcDbLine
 10
7611.830017163007
 20
1199.777956760628
 30
0.0
 11
7611.830017163007
 21
1233.777956760628
 31
0.0
  0
LINE
  5
203DA
330
747D
100
AcDbEntity
  8
細線
 48
70.0
100
AcDbLine
 10
7627.830017163008
 20
1233.777956760628
 30
0.0
 11
7627.830017163008
 21
1199.777956760628
 31
0.0
  0
ARC
  5
203DB
330
747D
100
AcDbEntity
  8
細線
100
AcDbCircle
 10
7665.830017163007
 20
1199.777956760628
 30
0.0
 40
8.0
100
AcDbArc
 50
180.0
 51
0.0
  0
LINE
  5
203DC
330
747D
100
AcDbEntity
  8
細線
100
AcDbLine
 10
5628.697030874235
 20
1184.777956760627
 30
0.0
 11
5728.697030874231
 21
1284.777956760629
 31
0.0
  0
LINE
  5
203DD
330
747D
100
AcDbEntity
  8
細線
100
AcDbLine
 10
5704.126480252824
 20
1284.777956760629
 30
0.0
 11
5504.126480252828
 21
1484.777956760627
 31
0.0
  0
LEADER
  5
203DE
330
747D
100
AcDbEntity
  8
寸法
 48
50.0
100
AcDbLeader
  3
INABA_S40G
 71
     0
 73
     0
 74
     0
 75
     1
 76
     3
 10
5558.084272413669
 20
1484.777956760627
 30
0.0
 10
5723.347854984846
 20
1682.629874569395
 30
0.0
 10
5823.347854984846
 20
1682.629874569395
 30
0.0
213
67.73172584638814
223
0.0
233
0.0
1001
ACAD
1000
DSTYLE
1002
{
1070
   174
1070
     0
1070
   272
1070
     1
1070
   288
1070
     0
1070
   341
1005
0
1002
}
  0
MTEXT
  5
203DF
102
{ACAD_REACTORS
330
203DE
102
}
330
747D
100
AcDbEntity
  8
寸法
 62
     7
 48
50.0
100
AcDbMText
 10
5795.616129138458
 20
1782.629874569395
 30
0.0
 40
120.0
 41
1.0
 71
     4
 72
     1
  1
\A1;C.B
  7
STYLE1
 73
     1
 44
1.0
1001
ACAD
1000
MTEXTBEGIN
1070
    73
1070
     1
1070
    44
1040
1.0
1070
    74
1070
     0
1000
MTEXTEND
  0
LINE
  5
203E0
330
747D
100
AcDbEntity
  8
細線
100
AcDbLine
 10
5746.552887124017
 20
1284.777956760629
 30
0.0
 11
5546.55288712402
 21
1484.777956760627
 31
0.0
  0
LINE
  5
203E1
330
747D
100
AcDbEntity
  8
Ｇ．Ｌ
100
AcDbLine
 10
4833.599999999997
 20
1284.777956760629
 30
0.0
 11
6333.599999999998
 21
1284.777956760629
 31
0.0
  0
LINE
  5
203E2
330
747D
100
AcDbEntity
  8
部品1
100
AcDbLine
 10
5358.084272413671
 20
1484.777956760627
 30
0.0
 11
5758.084272413667
 21
1484.777956760627
 31
0.0
  0
LINE
  5
203E3
330
747D
100
AcDbEntity
  8
部品1
100
AcDbLine
 10
5258.084272413667
 20
1184.777956760625
 30
0.0
 11
5858.084272413667
 21
1184.777956760627
 31
0.0
  0
LINE
  5
203E4
330
747D
100
AcDbEntity
  8
部品1
100
AcDbLine
 10
5258.084272413667
 20
984.777956760624
 30
0.0
 11
5858.084272413667
 21
984.7779567606275
 31
0.0
  0
LINE
  5
203E5
330
747D
100
AcDbEntity
  8
細線
100
AcDbLine
 10
5358.084272413671
 20
1184.777956760625
 30
0.0
 11
5411.67411089989
 21
984.7779567606222
 31
0.0
  0
LINE
  5
203E6
330
747D
100
AcDbEntity
  8
細線
100
AcDbLine
 10
5458.084272413668
 20
1184.777956760627
 30
0.0
 11
5511.67411089989
 21
984.777956760624
 31
0.0
  0
LINE
  5
203E7
330
747D
100
AcDbEntity
  8
細線
100
AcDbLine
 10
5558.084272413667
 20
1184.777956760627
 30
0.0
 11
5611.674110899894
 21
984.777956760624
 31
0.0
  0
LINE
  5
203E8
330
747D
100
AcDbEntity
  8
細線
100
AcDbLine
 10
5258.084272413667
 20
1184.777956760625
 30
0.0
 11
5311.674110899894
 21
984.7779567606222
 31
0.0
  0
LINE
  5
203E9
330
747D
100
AcDbEntity
  8
部品1
100
AcDbLine
 10
5258.084272413667
 20
984.777956760624
 30
0.0
 11
5258.084272413667
 21
1284.777956760629
 31
0.0
  0
LINE
  5
203EA
330
747D
100
AcDbEntity
  8
細線
100
AcDbLine
 10
5398.276651278338
 20
1034.777956760625
 30
0.0
 11
5384.879191656779
 21
984.777956760624
 31
0.0
  0
LINE
  5
203EB
330
747D
100
AcDbEntity
  8
細線
100
AcDbLine
 10
5298.276651278335
 20
1034.777956760625
 30
0.0
 11
5284.879191656779
 21
984.777956760624
 31
0.0
  0
LINE
  5
203EC
330
747D
100
AcDbEntity
  8
細線
100
AcDbLine
 10
5498.276651278334
 20
1034.777956760627
 30
0.0
 11
5484.879191656783
 21
984.7779567606275
 31
0.0
  0
LINE
  5
203ED
330
747D
100
AcDbEntity
  8
細線
100
AcDbLine
 10
5598.276651278335
 20
1034.777956760627
 30
0.0
 11
5584.879191656779
 21
984.7779567606275
 31
0.0
  0
LINE
  5
203EE
330
747D
100
AcDbEntity
  8
部品1
100
AcDbLine
 10
5358.084272413671
 20
1284.777956760629
 30
0.0
 11
5358.084272413671
 21
1484.777956760627
 31
0.0
  0
LINE
  5
203EF
330
747D
100
AcDbEntity
  8
細線
100
AcDbLine
 10
5520.278717144323
 20
1284.777956760629
 30
0.0
 11
5358.084272413667
 21
1446.972401491281
 31
0.0
  0
LINE
  5
203F0
330
747D
100
AcDbEntity
  8
細線
100
AcDbLine
 10
5385.265573369161
 20
1184.777956760627
 30
0.0
 11
5485.265573369157
 21
1284.777956760629
 31
0.0
  0
LINE
  5
203F1
330
747D
100
AcDbEntity
  8
細線
100
AcDbLine
 10
5477.852310273131
 20
1284.777956760629
 30
0.0
 11
5358.084272413671
 21
1404.545994620089
 31
0.0
  0
LINE
  5
203F2
330
747D
100
AcDbEntity
  8
細線
100
AcDbLine
 10
5356.981302121698
 20
1184.777956760627
 30
0.0
 11
5456.981302121694
 21
1284.777956760629
 31
0.0
  0
LINE
  5
203F3
330
747D
100
AcDbEntity
  8
細線
100
AcDbLine
 10
5328.697030874234
 20
1184.777956760625
 30
0.0
 11
5428.697030874235
 21
1284.777956760629
 31
0.0
  0
LINE
  5
203F4
330
747D
100
AcDbEntity
  8
細線
100
AcDbLine
 10
5384.879191656779
 20
1184.777956760625
 30
0.0
 11
5371.481732035223
 21
1134.777956760623
 31
0.0
  0
LINE
  5
203F5
330
747D
100
AcDbEntity
  8
細線
100
AcDbLine
 10
5284.879191656779
 20
1184.777956760625
 30
0.0
 11
5271.481732035226
 21
1134.777956760623
 31
0.0
  0
LINE
  5
203F6
330
747D
100
AcDbEntity
  8
細線
100
AcDbLine
 10
5484.879191656783
 20
1184.777956760627
 30
0.0
 11
5471.481732035223
 21
1134.777956760629
 31
0.0
  0
LINE
  5
203F7
330
747D
100
AcDbEntity
  8
細線
100
AcDbLine
 10
5584.879191656779
 20
1184.777956760627
 30
0.0
 11
5571.481732035227
 21
1134.777956760629
 31
0.0
  0
LINE
  5
203F8
330
747D
100
AcDbEntity
  8
細線
100
AcDbLine
 10
5758.084272413667
 20
1184.777956760627
 30
0.0
 11
5811.67411089989
 21
984.7779567606275
 31
0.0
  0
LINE
  5
203F9
330
747D
100
AcDbEntity
  8
細線
100
AcDbLine
 10
5658.08427241367
 20
1184.777956760627
 30
0.0
 11
5711.67411089989
 21
984.777956760624
 31
0.0
  0
LINE
  5
203FA
330
747D
100
AcDbEntity
  8
部品1
100
AcDbLine
 10
5858.084272413667
 20
1284.777956760629
 30
0.0
 11
5858.084272413667
 21
984.7779567606275
 31
0.0
  0
LINE
  5
203FB
330
747D
100
AcDbEntity
  8
細線
100
AcDbLine
 10
5798.276651278335
 20
1034.777956760627
 30
0.0
 11
5784.879191656782
 21
984.7779567606275
 31
0.0
  0
LINE
  5
203FC
330
747D
100
AcDbEntity
  8
細線
100
AcDbLine
 10
5698.276651278338
 20
1034.777956760627
 30
0.0
 11
5684.879191656779
 21
984.7779567606275
 31
0.0
  0
LINE
  5
203FD
330
747D
100
AcDbEntity
  8
部品1
100
AcDbLine
 10
5758.084272413667
 20
1484.777956760627
 30
0.0
 11
5758.084272413667
 21
1284.777956760629
 31
0.0
  0
LINE
  5
203FE
330
747D
100
AcDbEntity
  8
細線
100
AcDbLine
 10
5685.265573369157
 20
1184.777956760627
 30
0.0
 11
5785.265573369157
 21
1284.777956760629
 31
0.0
  0
LINE
  5
203FF
330
747D
100
AcDbEntity
  8
細線
100
AcDbLine
 10
5656.981302121698
 20
1184.777956760627
 30
0.0
 11
5756.981302121694
 21
1284.777956760629
 31
0.0
  0
LINE
  5
20400
330
747D
100
AcDbEntity
  8
細線
100
AcDbLine
 10
5784.879191656782
 20
1184.777956760627
 30
0.0
 11
5771.481732035223
 21
1134.777956760629
 31
0.0
  0
LINE
  5
20401
330
747D
100
AcDbEntity
  8
細線
100
AcDbLine
 10
5684.879191656779
 20
1184.777956760627
 30
0.0
 11
5671.481732035223
 21
1134.777956760629
 31
0.0
  0
CIRCLE
  5
20402
330
747D
100
AcDbEntity
  8
部品
100
AcDbCircle
 10
11139.83001716301
 20
1574.777956760627
 30
0.0
 40
16.0
  0
CIRCLE
  5
20403
330
747D
100
AcDbEntity
  8
部品
100
AcDbCircle
 10
11185.83001716301
 20
1574.777956760627
 30
0.0
 40
16.0
  0
TEXT
  5
20404
330
747D
100
AcDbEntity
  8
文字
 62
     7
 48
50.0
100
AcDbText
 10
8299.835579104916
 20
519.2591805287015
 30
0.0
 40
90.0
  1
b寸法：100～120mmに対応
  7
STYLE1
100
AcDbText
  0
TEXT
  5
20405
330
747D
100
AcDbEntity
  8
文字
 62
     7
 48
50.0
100
AcDbText
 10
8304.38103365037
 20
381.4278677218354
 30
0.0
 40
90.0
  1
※オールアンカーM10(市販品)が
  7
STYLE1
100
AcDbText
  0
TEXT
  5
20406
330
747D
100
AcDbEntity
  8
文字
 62
     7
 48
50.0
100
AcDbText
 10
8305.744670014005
 20
253.9559563031458
 30
0.0
 40
90.0
  1
  4本必要になります。
  7
STYLE1
100
AcDbText
  0
TEXT
  5
20407
330
747D
100
AcDbEntity
  8
文字
 62
     7
 48
50.0
100
AcDbText
 10
10051.10880309689
 20
519.2591805287015
 30
0.0
 40
90.0
  1
c寸法：135～175,190mmに対応
  7
STYLE1
100
AcDbText
  0
TEXT
  5
20408
330
747D
100
AcDbEntity
  8
文字
 62
     7
 48
50.0
100
AcDbText
 10
10055.19971218781
 20
381.4278677218354
 30
0.0
 40
90.0
  1
※オールアンカーM10(市販品)が
  7
STYLE1
100
AcDbText
  0
TEXT
  5
20409
330
747D
100
AcDbEntity
  8
文字
 62
     7
 48
50.0
100
AcDbText
 10
10056.56334855144
 20
253.9559563031458
 30
0.0
 40
90.0
  1
  4本必要になります。
  7
STYLE1
100
AcDbText
  0
TEXT
  5
2040A
330
747D
100
AcDbEntity
  8
文字
 62
     7
 48
50.0
100
AcDbText
 10
6568.374513419939
 20
354.4173220601883
 30
0.0
 40
90.0
  1
a寸法：100～150mmに対応
  7
STYLE1
100
AcDbText
  0
TEXT
  5
2040B
330
747D
100
AcDbEntity
  8
部品1
100
AcDbText
 10
5234.836310671477
 20
2456.356039658851
 30
0.0
 40
120.0
  1
基礎詳細
  7
STYLE2
100
AcDbText
  0
LINE
  5
2040C
330
747D
100
AcDbEntity
  8
部品1
100
AcDbLine
 10
4703.599999999997
 20
199.9999999999995
 30
0.0
 11
4703.599999999997
 21
2750.0
 31
0.0
  0
LINE
  5
2040D
330
747D
100
AcDbEntity
  8
部品1
100
AcDbLine
 10
11743.6
 20
2299.999999999998
 30
0.0
 11
4703.599999999997
 21
2300.0
 31
0.0
  0
TEXT
  5
2040E
330
747D
100
AcDbEntity
  8
部品1
100
AcDbText
 10
8488.223386099914
 20
2581.113808683444
 30
0.0
 40
120.0
  1
アンカー部詳細
  7
STYLE2
100
AcDbText
  0
LINE
  5
2040F
330
747D
100
AcDbEntity
  8
部品1
100
AcDbLine
 10
6463.599999999998
 20
2750.0
 30
0.0
 11
6463.599999999998
 21
199.9999999999995
 31
0.0
  0
LINE
  5
20410
330
747D
100
AcDbEntity
  8
部品1
100
AcDbLine
 10
8223.600000000001
 20
199.9999999999995
 30
0.0
 11
8223.600000000001
 21
2525.0
 31
0.0
  0
LINE
  5
20411
330
747D
100
AcDbEntity
  8
部品1
100
AcDbLine
 10
4703.599999999997
 20
2750.0
 30
0.0
 11
11743.6
 21
2750.0
 31
0.0
  0
LINE
  5
20412
330
747D
100
AcDbEntity
  8
部品1
100
AcDbLine
 10
9983.600000000002
 20
199.9999999999995
 30
0.0
 11
9983.600000000002
 21
2299.999999999999
 31
0.0
  0
LINE
  5
20413
330
747D
100
AcDbEntity
  8
部品1
100
AcDbLine
 10
11743.6
 20
199.9999999999995
 30
0.0
 11
11743.6
 21
2750.0
 31
0.0
  0
LINE
  5
20414
330
747D
100
AcDbEntity
  8
部品1
100
AcDbLine
 10
11743.6
 20
199.9999999999995
 30
0.0
 11
4703.599999999997
 21
200.0000000000004
 31
0.0
  0
TEXT
  5
20415
330
747D
100
AcDbEntity
  8
部品1
100
AcDbText
 10
5909.477358248525
 20
1292.683998439533
 30
0.0
 40
120.0
  1
▽G.L
  7
STYLE1
100
AcDbText
  0
TEXT
  5
20416
330
747D
100
AcDbEntity
  8
部品1
100
AcDbText
 10
6575.311360514509
 20
1292.683998439533
 30
0.0
 40
120.0
  1
▽G.L
  7
STYLE1
100
AcDbText
  0
TEXT
  5
20417
330
747D
100
AcDbEntity
  8
部品1
100
AcDbText
 10
8378.152906204796
 20
1292.683998439533
 30
0.0
 40
120.0
  1
▽G.L
  7
STYLE1
100
AcDbText
  0
TEXT
  5
20418
330
747D
100
AcDbEntity
  8
部品1
100
AcDbText
 10
10139.24219263214
 20
1292.683998439533
 30
0.0
 40
120.0
  1
▽G.L
  7
STYLE1
100
AcDbText
  0
LINE
  5
20419
330
747D
100
AcDbEntity
  8
部品1
100
AcDbLine
 10
6463.599999999998
 20
2525.0
 30
0.0
 11
11743.6
 21
2525.0
 31
0.0
  0
TEXT
  5
2041A
330
747D
100
AcDbEntity
  8
部品1
100
AcDbText
 10
6716.611797996683
 20
2347.779187780601
 30
0.0
 40
120.0
  1
地盤が土の場合
  7
STYLE2
100
AcDbText
  0
TEXT
  5
2041B
330
747D
100
AcDbEntity
  8
部品1
100
AcDbText
 10
9021.46792096965
 20
2347.779187780601
 30
0.0
 40
120.0
  1
地盤がコンクリートの場合
  7
STYLE2
100
AcDbText
  0
CIRCLE
  5
2041C
330
747D
100
AcDbEntity
  8
細線
100
AcDbCircle
 10
7619.830017163007
 20
1239.777956760628
 30
0.0
 40
10.0
  0
LINE
  5
2041D
330
747D
100
AcDbEntity
  8
細線
 48
70.0
100
AcDbLine
 10
7657.830017163007
 20
1199.777956760628
 30
0.0
 11
7657.830017163007
 21
1233.777956760628
 31
0.0
  0
LINE
  5
2041E
330
747D
100
AcDbEntity
  8
細線
 48
70.0
100
AcDbLine
 10
7673.830017163007
 20
1233.777956760628
 30
0.0
 11
7673.830017163007
 21
1199.777956760628
 31
0.0
  0
CIRCLE
  5
2041F
330
747D
100
AcDbEntity
  8
細線
100
AcDbCircle
 10
7665.830017163007
 20
1239.777956760628
 30
0.0
 40
10.0
  0
LINE
  5
20420
330
747D
100
AcDbEntity
  8
細線
 48
10.0
100
AcDbLine
 10
9449.135448937731
 20
977.859759421344
 30
0.0
 11
9756.05364627699
 21
1284.777956760628
 31
0.0
  0
LINE
  5
20421
330
747D
100
AcDbEntity
  8
細線
 48
10.0
100
AcDbLine
 10
9420.851177690266
 20
977.859759421344
 30
0.0
 11
9727.769375029538
 21
1284.777956760628
 31
0.0
  0
LINE
  5
20422
330
747D
100
AcDbEntity
  8
細線
 48
10.0
100
AcDbLine
 10
9392.566906442809
 20
977.859759421344
 30
0.0
 11
9699.485103782082
 21
1284.77795676063
 31
0.0
  0
LINE
  5
20423
330
747D
100
AcDbEntity
  8
細線
 48
10.0
100
AcDbLine
 10
9022.477060084909
 20
977.859759421344
 30
0.0
 11
9329.395257424168
 21
1284.777956760628
 31
0.0
  0
LINE
  5
20424
330
747D
100
AcDbEntity
  8
細線
 48
10.0
100
AcDbLine
 10
8994.192788837445
 20
977.859759421344
 30
0.0
 11
9301.110986176716
 21
1284.777956760628
 31
0.0
  0
LINE
  5
20425
330
747D
100
AcDbEntity
  8
細線
 48
10.0
100
AcDbLine
 10
8965.908517589987
 20
977.859759421344
 30
0.0
 11
9272.82671492926
 21
1284.77795676063
 31
0.0
  0
LINE
  5
20426
330
747D
100
AcDbEntity
  8
細線
 48
10.0
100
AcDbLine
 10
8595.818671232088
 20
977.859759421344
 30
0.0
 11
8902.736868571347
 21
1284.777956760628
 31
0.0
  0
LINE
  5
20427
330
747D
100
AcDbEntity
  8
細線
 48
10.0
100
AcDbLine
 10
8567.534399984623
 20
977.859759421344
 30
0.0
 11
8874.452597323895
 21
1284.777956760628
 31
0.0
  0
LINE
  5
20428
330
747D
100
AcDbEntity
  8
細線
 48
10.0
100
AcDbLine
 10
8539.250128737165
 20
977.859759421344
 30
0.0
 11
8846.168326076439
 21
1284.77795676063
 31
0.0
  0
LINE
  5
20429
330
747D
100
AcDbEntity
  8
細線
 48
10.0
100
AcDbLine
 10
11182.0962700636
 20
977.8597594213435
 30
0.0
 11
11489.01446740286
 21
1284.777956760628
 31
0.0
  0
LINE
  5
2042A
330
747D
100
AcDbEntity
  8
細線
 48
10.0
100
AcDbLine
 10
11153.81199881614
 20
977.8597594213435
 30
0.0
 11
11460.73019615541
 21
1284.777956760628
 31
0.0
  0
LINE
  5
2042B
330
747D
100
AcDbEntity
  8
細線
 48
10.0
100
AcDbLine
 10
11125.52772756868
 20
977.8597594213435
 30
0.0
 11
11432.44592490795
 21
1284.77795676063
 31
0.0
  0
LINE
  5
2042C
330
747D
100
AcDbEntity
  8
細線
 48
10.0
100
AcDbLine
 10
10755.43788121078
 20
977.8597594213435
 30
0.0
 11
11062.35607855004
 21
1284.777956760628
 31
0.0
  0
LINE
  5
2042D
330
747D
100
AcDbEntity
  8
細線
 48
10.0
100
AcDbLine
 10
10727.15360996331
 20
977.8597594213435
 30
0.0
 11
11034.07180730259
 21
1284.777956760628
 31
0.0
  0
LINE
  5
2042E
330
747D
100
AcDbEntity
  8
細線
 48
10.0
100
AcDbLine
 10
10698.86933871586
 20
977.8597594213435
 30
0.0
 11
11005.78753605513
 21
1284.77795676063
 31
0.0
  0
LINE
  5
2042F
330
747D
100
AcDbEntity
  8
細線
 48
10.0
100
AcDbLine
 10
10328.77949235796
 20
977.8597594213435
 30
0.0
 11
10635.69768969722
 21
1284.777956760628
 31
0.0
  0
LINE
  5
20430
330
747D
100
AcDbEntity
  8
細線
 48
10.0
100
AcDbLine
 10
10300.49522111049
 20
977.8597594213435
 30
0.0
 11
10607.41341844976
 21
1284.777956760628
 31
0.0
  0
LINE
  5
20431
330
747D
100
AcDbEntity
  8
細線
 48
10.0
100
AcDbLine
 10
10272.21094986303
 20
977.8597594213435
 30
0.0
 11
10579.12914720231
 21
1284.77795676063
 31
0.0
  0
LINE
  5
20432
330
747D
100
AcDbEntity
  8
部品1
100
AcDbLine
 10
9408.248398187321
 20
1223.192087488814
 30
0.0
 11
9416.159889010266
 21
1224.378811112256
 31
0.0
  0
LINE
  5
20433
330
747D
100
AcDbEntity
  8
部品1
100
AcDbLine
 10
9409.138440904904
 20
1217.258469371605
 30
0.0
 11
9417.04993172785
 21
1218.445192995048
 31
0.0
  0
LINE
  5
20434
330
747D
100
AcDbEntity
  8
部品1
100
AcDbLine
 10
9410.028483622481
 20
1211.324851254396
 30
0.0
 11
9417.939974445433
 21
1212.511574877839
 31
0.0
  0
LINE
  5
20435
330
747D
100
AcDbEntity
  8
部品1
100
AcDbLine
 10
9389.500145315752
 20
1224.378811112256
 30
0.0
 11
9397.411636138697
 21
1223.192087488814
 31
0.0
  0
LINE
  5
20436
330
747D
100
AcDbEntity
  8
部品1
100
AcDbLine
 10
9388.610102598169
 20
1218.445192995048
 30
0.0
 11
9396.521593421114
 21
1217.258469371605
 31
0.0
  0
LINE
  5
20437
330
747D
100
AcDbEntity
  8
部品1
100
AcDbLine
 10
9387.720059880592
 20
1212.511574877839
 30
0.0
 11
9395.631550703539
 21
1211.324851254396
 31
0.0
  0
LINE
  5
20438
330
747D
100
AcDbEntity
  8
部品1
100
AcDbLine
 10
9410.918526340063
 20
1205.39123313719
 30
0.0
 11
9418.830017163008
 21
1206.57795676063
 31
0.0
  0
LINE
  5
20439
330
747D
100
AcDbEntity
  8
部品1
100
AcDbLine
 10
9386.83001716301
 20
1206.57795676063
 30
0.0
 11
9394.741507985955
 21
1205.39123313719
 31
0.0
  0
LINE
  5
2043A
330
747D
100
AcDbEntity
  8
部品1
100
AcDbLine
 10
9410.918526340063
 20
1205.39123313719
 30
0.0
 11
9404.740517796547
 21
1246.577956760629
 31
0.0
  0
LINE
  5
2043B
330
747D
100
AcDbEntity
  8
部品1
100
AcDbLine
 10
9400.919516529471
 20
1246.577956760629
 30
0.0
 11
9394.741507985955
 21
1205.39123313719
 31
0.0
  0
LINE
  5
2043C
330
747D
100
AcDbEntity
  8
部品1
100
AcDbLine
 10
9418.830017163008
 20
1206.57795676063
 30
0.0
 11
9412.830017163008
 21
1246.577956760629
 31
0.0
  0
LINE
  5
2043D
330
747D
100
AcDbEntity
  8
部品1
100
AcDbLine
 10
9392.830017163008
 20
1246.577956760629
 30
0.0
 11
9386.83001716301
 21
1206.57795676063
 31
0.0
  0
LINE
  5
2043E
330
747D
100
AcDbEntity
  8
部品1
100
AcDbLine
 10
9405.578270034579
 20
1240.992941840443
 30
0.0
 11
9413.489760857524
 21
1242.179665463885
 31
0.0
  0
LINE
  5
2043F
330
747D
100
AcDbEntity
  8
部品1
100
AcDbLine
 10
9406.468312752162
 20
1235.059323723233
 30
0.0
 11
9414.379803575107
 21
1236.246047346676
 31
0.0
  0
LINE
  5
20440
330
747D
100
AcDbEntity
  8
部品1
100
AcDbLine
 10
9407.358355469744
 20
1229.125705606027
 30
0.0
 11
9415.269846292691
 21
1230.312429229467
 31
0.0
  0
LINE
  5
20441
330
747D
100
AcDbEntity
  8
部品1
100
AcDbLine
 10
9392.170273468492
 20
1242.179665463885
 30
0.0
 11
9400.081764291439
 21
1240.992941840443
 31
0.0
  0
LINE
  5
20442
330
747D
100
AcDbEntity
  8
部品1
100
AcDbLine
 10
9391.28023075091
 20
1236.246047346676
 30
0.0
 11
9399.191721573854
 21
1235.059323723233
 31
0.0
  0
LINE
  5
20443
330
747D
100
AcDbEntity
  8
部品1
100
AcDbLine
 10
9390.390188033334
 20
1230.312429229467
 30
0.0
 11
9398.301678856281
 21
1229.125705606027
 31
0.0
  0
LINE
  5
20444
330
747D
100
AcDbEntity
  8
部品1
100
AcDbLine
 10
9400.919516529471
 20
1246.577956760629
 30
0.0
 11
9404.740517796547
 21
1246.577956760629
 31
0.0
  0
LINE
  5
20445
330
747D
100
AcDbEntity
  8
部品1
100
AcDbLine
 10
9412.830017163008
 20
1284.777956760628
 30
0.0
 11
9412.830017163008
 21
1246.577956760629
 31
0.0
  0
LINE
  5
20446
330
747D
100
AcDbEntity
  8
部品1
100
AcDbLine
 10
9392.830017163012
 20
1284.777956760628
 30
0.0
 11
9392.830017163008
 21
1246.577956760629
 31
0.0
  0
LINE
  5
20447
330
747D
100
AcDbEntity
  8
部品1
100
AcDbLine
 10
9395.830017163008
 20
1342.23085278429
 30
0.0
 11
9409.830017163008
 21
1342.23085278429
 31
0.0
  0
LINE
  5
20448
330
747D
100
AcDbEntity
  8
部品1
100
AcDbLine
 10
9409.830017163008
 20
1342.23085278429
 30
0.0
 11
9409.830017163008
 21
1346.23085278429
 31
0.0
  0
LINE
  5
20449
330
747D
100
AcDbEntity
  8
部品1
100
AcDbLine
 10
9395.830017163008
 20
1342.23085278429
 30
0.0
 11
9395.830017163008
 21
1346.23085278429
 31
0.0
  0
LINE
  5
2044A
330
747D
100
AcDbEntity
  8
部品1
100
AcDbLine
 10
9407.830017163009
 20
1333.977956760631
 30
0.0
 11
9407.830017163009
 21
1342.23085278429
 31
0.0
  0
LINE
  5
2044B
330
747D
100
AcDbEntity
  8
部品1
100
AcDbLine
 10
9397.830017163009
 20
1333.977956760631
 30
0.0
 11
9397.830017163009
 21
1342.23085278429
 31
0.0
  0
LINE
  5
2044C
330
747D
100
AcDbEntity
  8
部品1
100
AcDbLine
 10
9395.830017163008
 20
1346.23085278429
 30
0.0
 11
9409.830017163008
 21
1346.23085278429
 31
0.0
  0
ARC
  5
2044D
330
747D
100
AcDbEntity
  8
部品1
100
AcDbCircle
 10
9402.83001716301
 20
1288.889323539812
 30
0.0
 40
23.33946124318486
100
AcDbArc
 50
64.63020194521864
 51
115.3697980547813
  0
ARC
  5
2044E
330
747D
100
AcDbEntity
  8
部品1
100
AcDbCircle
 10
9417.830017163009
 20
1305.463201970313
 30
0.0
 40
6.736691384996243
100
AcDbArc
 50
42.08048849858703
 51
137.9195115014129
  0
ARC
  5
2044F
330
747D
100
AcDbEntity
  8
部品1
100
AcDbCircle
 10
9387.830017163009
 20
1305.463201970313
 30
0.0
 40
6.736691384996243
100
AcDbArc
 50
42.08048849858703
 51
137.9195115014129
  0
LINE
  5
20450
330
747D
100
AcDbEntity
  8
部品1
100
AcDbLine
 10
9382.830017163009
 20
1309.977956760631
 30
0.0
 11
9422.830017163009
 21
1309.977956760631
 31
0.0
  0
LINE
  5
20451
330
747D
100
AcDbEntity
  8
部品1
100
AcDbLine
 10
9432.830017163009
 20
1293.977956760629
 30
0.0
 11
9432.830017163009
 21
1296.977956760638
 31
0.0
  0
LINE
  5
20452
330
747D
100
AcDbEntity
  8
部品1
100
AcDbLine
 10
9419.830017163009
 20
1312.977956760631
 30
0.0
 11
9422.830017163009
 21
1309.977956760631
 31
0.0
  0
LINE
  5
20453
330
747D
100
AcDbEntity
  8
部品1
100
AcDbLine
 10
9385.830017163009
 20
1312.977956760631
 30
0.0
 11
9382.830017163009
 21
1309.977956760631
 31
0.0
  0
LINE
  5
20454
330
747D
100
AcDbEntity
  8
部品1
100
AcDbLine
 10
9422.830017163009
 20
1296.977956760634
 30
0.0
 11
9422.830017163009
 21
1309.977956760631
 31
0.0
  0
LINE
  5
20455
330
747D
100
AcDbEntity
  8
部品1
100
AcDbLine
 10
9382.830017163009
 20
1296.977956760629
 30
0.0
 11
9382.830017163009
 21
1309.977956760631
 31
0.0
  0
LINE
  5
20456
330
747D
100
AcDbEntity
  8
部品1
100
AcDbLine
 10
9385.830017163009
 20
1312.977956760631
 30
0.0
 11
9419.830017163009
 21
1312.977956760631
 31
0.0
  0
LINE
  5
20457
330
747D
100
AcDbEntity
  8
部品1
100
AcDbLine
 10
9412.830017163008
 20
1296.977956760629
 30
0.0
 11
9412.830017163008
 21
1333.977956760631
 31
0.0
  0
LINE
  5
20458
330
747D
100
AcDbEntity
  8
部品1
100
AcDbLine
 10
9392.830017163008
 20
1296.977956760629
 30
0.0
 11
9392.830017163008
 21
1333.977956760631
 31
0.0
  0
LINE
  5
20459
330
747D
100
AcDbEntity
  8
部品1
100
AcDbLine
 10
9392.830017163008
 20
1333.977956760631
 30
0.0
 11
9412.830017163008
 21
1333.977956760631
 31
0.0
  0
LINE
  5
2045A
330
747D
100
AcDbEntity
  8
部品1
100
AcDbLine
 10
9372.830017163009
 20
1293.977956760629
 30
0.0
 11
9372.830017163009
 21
1296.977956760629
 31
0.0
  0
LINE
  5
2045B
330
747D
100
AcDbEntity
  8
部品1
100
AcDbLine
 10
9372.830017163009
 20
1296.977956760629
 30
0.0
 11
9432.830017163009
 21
1296.977956760634
 31
0.0
  0
LINE
  5
2045C
330
747D
100
AcDbEntity
  8
部品1
100
AcDbLine
 10
11168.24839818732
 20
1223.192087488814
 30
0.0
 11
11176.15988901026
 21
1224.378811112255
 31
0.0
  0
LINE
  5
2045D
330
747D
100
AcDbEntity
  8
部品1
100
AcDbLine
 10
11169.1384409049
 20
1217.258469371605
 30
0.0
 11
11177.04993172785
 21
1218.445192995048
 31
0.0
  0
LINE
  5
2045E
330
747D
100
AcDbEntity
  8
部品1
100
AcDbLine
 10
11170.02848362248
 20
1211.324851254395
 30
0.0
 11
11177.93997444543
 21
1212.511574877838
 31
0.0
  0
LINE
  5
2045F
330
747D
100
AcDbEntity
  8
部品1
100
AcDbLine
 10
11149.50014531575
 20
1224.378811112255
 30
0.0
 11
11157.41163613869
 21
1223.192087488814
 31
0.0
  0
LINE
  5
20460
330
747D
100
AcDbEntity
  8
部品1
100
AcDbLine
 10
11148.61010259817
 20
1218.445192995048
 30
0.0
 11
11156.52159342111
 21
1217.258469371605
 31
0.0
  0
LINE
  5
20461
330
747D
100
AcDbEntity
  8
部品1
100
AcDbLine
 10
11147.72005988059
 20
1212.511574877838
 30
0.0
 11
11155.63155070353
 21
1211.324851254395
 31
0.0
  0
LINE
  5
20462
330
747D
100
AcDbEntity
  8
部品1
100
AcDbLine
 10
11170.91852634006
 20
1205.39123313719
 30
0.0
 11
11178.83001716301
 21
1206.577956760629
 31
0.0
  0
LINE
  5
20463
330
747D
100
AcDbEntity
  8
部品1
100
AcDbLine
 10
11146.83001716301
 20
1206.577956760629
 30
0.0
 11
11154.74150798595
 21
1205.39123313719
 31
0.0
  0
LINE
  5
20464
330
747D
100
AcDbEntity
  8
部品1
100
AcDbLine
 10
11170.91852634006
 20
1205.39123313719
 30
0.0
 11
11164.74051779654
 21
1246.577956760629
 31
0.0
  0
LINE
  5
20465
330
747D
100
AcDbEntity
  8
部品1
100
AcDbLine
 10
11160.91951652947
 20
1246.577956760629
 30
0.0
 11
11154.74150798595
 21
1205.39123313719
 31
0.0
  0
LINE
  5
20466
330
747D
100
AcDbEntity
  8
部品1
100
AcDbLine
 10
11178.83001716301
 20
1206.577956760629
 30
0.0
 11
11172.83001716301
 21
1246.577956760629
 31
0.0
  0
LINE
  5
20467
330
747D
100
AcDbEntity
  8
部品1
100
AcDbLine
 10
11152.83001716301
 20
1246.577956760629
 30
0.0
 11
11146.83001716301
 21
1206.577956760629
 31
0.0
  0
LINE
  5
20468
330
747D
100
AcDbEntity
  8
部品1
100
AcDbLine
 10
11165.57827003458
 20
1240.992941840442
 30
0.0
 11
11173.48976085752
 21
1242.179665463885
 31
0.0
  0
LINE
  5
20469
330
747D
100
AcDbEntity
  8
部品1
100
AcDbLine
 10
11166.46831275216
 20
1235.059323723233
 30
0.0
 11
11174.3798035751
 21
1236.246047346676
 31
0.0
  0
LINE
  5
2046A
330
747D
100
AcDbEntity
  8
部品1
100
AcDbLine
 10
11167.35835546974
 20
1229.125705606027
 30
0.0
 11
11175.26984629269
 21
1230.312429229466
 31
0.0
  0
LINE
  5
2046B
330
747D
100
AcDbEntity
  8
部品1
100
AcDbLine
 10
11152.17027346849
 20
1242.179665463885
 30
0.0
 11
11160.08176429144
 21
1240.992941840442
 31
0.0
  0
LINE
  5
2046C
330
747D
100
AcDbEntity
  8
部品1
100
AcDbLine
 10
11151.28023075091
 20
1236.246047346676
 30
0.0
 11
11159.19172157385
 21
1235.059323723233
 31
0.0
  0
LINE
  5
2046D
330
747D
100
AcDbEntity
  8
部品1
100
AcDbLine
 10
11150.39018803333
 20
1230.312429229466
 30
0.0
 11
11158.30167885628
 21
1229.125705606027
 31
0.0
  0
LINE
  5
2046E
330
747D
100
AcDbEntity
  8
部品1
100
AcDbLine
 10
11160.91951652947
 20
1246.577956760629
 30
0.0
 11
11164.74051779654
 21
1246.577956760629
 31
0.0
  0
LINE
  5
2046F
330
747D
100
AcDbEntity
  8
部品1
100
AcDbLine
 10
11172.83001716301
 20
1284.777956760627
 30
0.0
 11
11172.83001716301
 21
1246.577956760629
 31
0.0
  0
LINE
  5
20470
330
747D
100
AcDbEntity
  8
部品1
100
AcDbLine
 10
11152.83001716301
 20
1284.777956760627
 30
0.0
 11
11152.83001716301
 21
1246.577956760629
 31
0.0
  0
LINE
  5
20471
330
747D
100
AcDbEntity
  8
部品1
100
AcDbLine
 10
11155.83001716301
 20
1342.23085278429
 30
0.0
 11
11169.83001716301
 21
1342.23085278429
 31
0.0
  0
LINE
  5
20472
330
747D
100
AcDbEntity
  8
部品1
100
AcDbLine
 10
11169.83001716301
 20
1342.23085278429
 30
0.0
 11
11169.83001716301
 21
1346.23085278429
 31
0.0
  0
LINE
  5
20473
330
747D
100
AcDbEntity
  8
部品1
100
AcDbLine
 10
11155.83001716301
 20
1342.23085278429
 30
0.0
 11
11155.83001716301
 21
1346.23085278429
 31
0.0
  0
LINE
  5
20474
330
747D
100
AcDbEntity
  8
部品1
100
AcDbLine
 10
11167.83001716301
 20
1333.97795676063
 30
0.0
 11
11167.83001716301
 21
1342.23085278429
 31
0.0
  0
LINE
  5
20475
330
747D
100
AcDbEntity
  8
部品1
100
AcDbLine
 10
11157.83001716301
 20
1333.97795676063
 30
0.0
 11
11157.83001716301
 21
1342.23085278429
 31
0.0
  0
LINE
  5
20476
330
747D
100
AcDbEntity
  8
部品1
100
AcDbLine
 10
11155.83001716301
 20
1346.23085278429
 30
0.0
 11
11169.83001716301
 21
1346.23085278429
 31
0.0
  0
ARC
  5
20477
330
747D
100
AcDbEntity
  8
部品1
100
AcDbCircle
 10
11162.83001716301
 20
1288.889323539811
 30
0.0
 40
23.33946124318486
100
AcDbArc
 50
64.63020194521305
 51
115.3697980547869
  0
ARC
  5
20478
330
747D
100
AcDbEntity
  8
部品1
100
AcDbCircle
 10
11177.83001716301
 20
1305.463201970312
 30
0.0
 40
6.736691384996243
100
AcDbArc
 50
42.08048849858703
 51
137.9195115014129
  0
ARC
  5
20479
330
747D
100
AcDbEntity
  8
部品1
100
AcDbCircle
 10
11147.83001716301
 20
1305.463201970312
 30
0.0
 40
6.736691384996243
100
AcDbArc
 50
42.08048849858703
 51
137.9195115014129
  0
LINE
  5
2047A
330
747D
100
AcDbEntity
  8
部品1
100
AcDbLine
 10
11142.83001716301
 20
1309.97795676063
 30
0.0
 11
11182.83001716301
 21
1309.97795676063
 31
0.0
  0
LINE
  5
2047B
330
747D
100
AcDbEntity
  8
部品1
100
AcDbLine
 10
11192.83001716301
 20
1293.977956760629
 30
0.0
 11
11192.83001716301
 21
1296.977956760638
 31
0.0
  0
LINE
  5
2047C
330
747D
100
AcDbEntity
  8
部品1
100
AcDbLine
 10
11179.83001716301
 20
1312.977956760631
 30
0.0
 11
11182.83001716301
 21
1309.97795676063
 31
0.0
  0
LINE
  5
2047D
330
747D
100
AcDbEntity
  8
部品1
100
AcDbLine
 10
11145.83001716301
 20
1312.977956760631
 30
0.0
 11
11142.83001716301
 21
1309.97795676063
 31
0.0
  0
LINE
  5
2047E
330
747D
100
AcDbEntity
  8
部品1
100
AcDbLine
 10
11182.83001716301
 20
1296.977956760634
 30
0.0
 11
11182.83001716301
 21
1309.97795676063
 31
0.0
  0
LINE
  5
2047F
330
747D
100
AcDbEntity
  8
部品1
100
AcDbLine
 10
11142.83001716301
 20
1296.977956760629
 30
0.0
 11
11142.83001716301
 21
1309.97795676063
 31
0.0
  0
LINE
  5
20480
330
747D
100
AcDbEntity
  8
部品1
100
AcDbLine
 10
11145.83001716301
 20
1312.977956760631
 30
0.0
 11
11179.83001716301
 21
1312.977956760631
 31
0.0
  0
LINE
  5
20481
330
747D
100
AcDbEntity
  8
部品1
100
AcDbLine
 10
11172.83001716301
 20
1296.977956760629
 30
0.0
 11
11172.83001716301
 21
1333.97795676063
 31
0.0
  0
LINE
  5
20482
330
747D
100
AcDbEntity
  8
部品1
100
AcDbLine
 10
11152.83001716301
 20
1296.977956760629
 30
0.0
 11
11152.83001716301
 21
1333.97795676063
 31
0.0
  0
LINE
  5
20483
330
747D
100
AcDbEntity
  8
部品1
100
AcDbLine
 10
11152.83001716301
 20
1333.97795676063
 30
0.0
 11
11172.83001716301
 21
1333.97795676063
 31
0.0
  0
LINE
  5
20484
330
747D
100
AcDbEntity
  8
部品1
100
AcDbLine
 10
11132.83001716301
 20
1293.977956760629
 30
0.0
 11
11132.83001716301
 21
1296.977956760629
 31
0.0
  0
LINE
  5
20485
330
747D
100
AcDbEntity
  8
部品1
100
AcDbLine
 10
11132.83001716301
 20
1296.977956760629
 30
0.0
 11
11192.83001716301
 21
1296.977956760634
 31
0.0
  0
DIMENSION
  5
20501
330
747D
100
AcDbEntity
  8
寸法
  6
HIDDEN
 48
10.0
100
AcDbDimension
  2
*D20
 10
7629.600000000002
 20
7840.064702170007
 30
0.0
 11
7311.100000000002
 21
7940.064702170007
 31
0.0
 70
    32
 71
     5
 42
637.0000000000018
  3
INABA_S40G
100
AcDbAlignedDimension
 13
6992.6
 23
7683.944059368896
 33
0.0
 14
7629.600000000002
 24
6890.799999999984
 34
0.0
100
AcDbRotatedDimension
1001
ACAD
1000
DSTYLE
1002
{
1070
   174
1070
     0
1070
   272
1070
     1
1070
   288
1070
     0
1070
   341
1005
0
1002
}
  0
DIMENSION
  5
2050E
330
747D
100
AcDbEntity
  8
寸法
  6
HIDDEN
 48
10.0
100
AcDbDimension
  2
*D21
 10
8223.600000000001
 20
7840.064702170007
 30
0.0
 11
7926.600000000002
 21
7940.064702170007
 31
0.0
 70
    32
 71
     5
 42
593.9999999999981
  3
INABA_S40G
100
AcDbAlignedDimension
 13
7629.600000000002
 23
6890.799999999984
 33
0.0
 14
8223.600000000001
 24
7106.800000000003
 34
0.0
100
AcDbRotatedDimension
1001
ACAD
1000
DSTYLE
1002
{
1070
   174
1070
     0
1070
   272
1070
     1
1070
   288
1070
     0
1070
   341
1005
0
1002
}
  0
DIMENSION
  5
2051B
330
747D
100
AcDbEntity
  8
寸法
  6
HIDDEN
 48
10.0
100
AcDbDimension
  2
*D22
 10
8817.599999999998
 20
7840.064702170007
 30
0.0
 11
8520.599999999999
 21
7940.064702170007
 31
0.0
 70
    32
 71
     5
 42
593.9999999999981
  3
INABA_S40G
100
AcDbAlignedDimension
 13
8223.600000000001
 23
7106.800000000003
 33
0.0
 14
8817.599999999998
 24
6890.799999999984
 34
0.0
100
AcDbRotatedDimension
1001
ACAD
1000
DSTYLE
1002
{
1070
   174
1070
     0
1070
   272
1070
     1
1070
   288
1070
     0
1070
   341
1005
0
1002
}
  0
DIMENSION
  5
20528
330
747D
100
AcDbEntity
  8
寸法
  6
HIDDEN
 48
10.0
100
AcDbDimension
  2
*D23
 10
9454.600000000001
 20
7840.064702170007
 30
0.0
 11
9136.099999999998
 21
7940.064702170007
 31
0.0
 70
    32
 71
     5
 42
637.0000000000018
  3
INABA_S40G
100
AcDbAlignedDimension
 13
8817.599999999998
 23
6890.799999999984
 33
0.0
 14
9454.600000000001
 24
7251.800000000002
 34
0.0
100
AcDbRotatedDimension
1001
ACAD
1000
DSTYLE
1002
{
1070
   174
1070
     0
1070
   272
1070
     1
1070
   288
1070
     0
1070
   341
1005
0
1002
}
  0
DIMENSION
  5
20562
330
747D
100
AcDbEntity
  8
寸法
 48
50.0
100
AcDbDimension
  2
*D24
 10
8223.600000000001
 20
8270.083902896656
 30
0.0
 11
7608.1
 21
8370.095713920276
 31
0.0
 70
    32
 71
     5
 42
1231.0
  3
INABA_S40G
100
AcDbAlignedDimension
 13
6992.6
 23
7683.944059368896
 33
0.0
 14
8223.600000000001
 24
7126.800000000002
 34
0.0
100
AcDbRotatedDimension
1001
ACAD
1000
DSTYLE
1002
{
1070
   174
1070
     0
1070
   272
1070
     1
1070
   288
1070
     0
1070
   341
1005
0
1002
}
  0
DIMENSION
  5
2056F
330
747D
100
AcDbEntity
  8
寸法
 48
50.0
100
AcDbDimension
  2
*D25
 10
9454.600000000001
 20
8270.083902896656
 30
0.0
 11
8839.1
 21
8370.095713920276
 31
0.0
 70
    32
 71
     5
 42
1231.0
  3
INABA_S40G
100
AcDbAlignedDimension
 13
8223.600000000001
 23
7106.800000000003
 33
0.0
 14
9454.600000000001
 24
7251.800000000002
 34
0.0
100
AcDbRotatedDimension
1001
ACAD
1000
DSTYLE
1002
{
1070
   174
1070
     0
1070
   272
1070
     1
1070
   288
1070
     0
1070
   341
1005
0
1002
}
  0
TEXT
  5
20707
330
747D
100
AcDbEntity
  8
文字
 62
     7
 48
50.0
100
AcDbText
 10
16307.2
 20
-0.0000000000000938
 30
0.0
 40
1.0
  1
RW
  7
STYLE3
100
AcDbText
  0
ENDSEC
  0
SECTION
  2
OBJECTS
  0
DICTIONARY
  5
7471
330
0
100
AcDbDictionary
281
     1
  3
ACAD_CIP_PREVIOUS_PRODUCT_INFO
350
1E280
  3
ACAD_COLOR
350
159B0
  3
ACAD_DETAILVIEWSTYLE
350
1E277
  3
ACAD_GROUP
350
7472
  3
ACAD_LAYOUT
350
159B1
  3
ACAD_MATERIAL
350
159AF
  3
ACAD_MLEADERSTYLE
350
1E273
  3
ACAD_MLINESTYLE
350
7473
  3
ACAD_PLOTSETTINGS
350
159B2
  3
ACAD_PLOTSTYLENAME
350
159AD
  3
ACAD_SCALELIST
350
1E261
  3
ACAD_SECTIONVIEWSTYLE
350
1E275
  3
ACAD_TABLESTYLE
350
1E25F
  3
ACAD_VISUALSTYLE
350
1E246
  3
ACDB_RECOMPOSE_DATA
350
2072D
  3
AcDbVariableDictionary
350
1F7BD
  3
AcDsDecomposeData
350
20734
  3
CONTENTDICTIONARY
350
E71C
  3
DRAWINGVARIABLESDICT
350
F3B9
  3
DWGPROPS
350
2072E
  0
DICTIONARY
  5
1E584
330
7467
100
AcDbDictionary
280
     1
281
     1
  3
ACAD_LAYERSTATES
360
1E585
  0
DICTIONARY
  5
1ED3C
330
7474
100
AcDbDictionary
280
     1
281
     1
  3
ADSK_XREC_LAYER_RECONCILED
360
1ED3D
  0
DICTIONARY
  5
1ED3E
330
DEB2
100
AcDbDictionary
280
     1
281
     1
  3
ADSK_XREC_LAYER_RECONCILED
360
1ED3F
  0
DICTIONARY
  5
1ED40
330
DEB3
100
AcDbDictionary
280
     1
281
     1
  3
ADSK_XREC_LAYER_RECONCILED
360
1ED41
  0
DICTIONARY
  5
1ED42
330
DEB4
100
AcDbDictionary
280
     1
281
     1
  3
ADSK_XREC_LAYER_RECONCILED
360
1ED43
  0
DICTIONARY
  5
1ED44
330
DEB5
100
AcDbDictionary
280
     1
281
     1
  3
ADSK_XREC_LAYER_RECONCILED
360
1ED45
  0
DICTIONARY
  5
1ED46
330
DEB6
100
AcDbDictionary
280
     1
281
     1
  3
ADSK_XREC_LAYER_RECONCILED
360
1ED47
  0
DICTIONARY
  5
1ED48
330
10B54
100
AcDbDictionary
280
     1
281
     1
  3
ADSK_XREC_LAYER_RECONCILED
360
1ED49
  0
DICTIONARY
  5
1ED4A
330
11729
100
AcDbDictionary
280
     1
281
     1
  3
ADSK_XREC_LAYER_RECONCILED
360
1ED4B
  0
DICTIONARY
  5
1ED4C
330
1173F
100
AcDbDictionary
280
     1
281
     1
  3
ADSK_XREC_LAYER_RECONCILED
360
1ED4D
  0
DICTIONARY
  5
1ED4E
330
12CC4
100
AcDbDictionary
280
     1
281
     1
  3
ADSK_XREC_LAYER_RECONCILED
360
1ED4F
  0
DICTIONARY
  5
1ED52
330
1C644
100
AcDbDictionary
280
     1
281
     1
  3
ADSK_XREC_LAYER_RECONCILED
360
1ED53
  0
DICTIONARY
  5
1E583
330
1E582
100
AcDbDictionary
280
     1
281
     1
  3
ADSK_XREC_LAYER_RECONCILED
360
1ED54
  0
XRECORD
  5
1E280
102
{ACAD_REACTORS
330
7471
102
}
330
7471
100
AcDbXrecord
280
     1
300
ACDLT
300
2014
300
ACDLT_F_S
  0
DICTIONARY
  5
159B0
102
{ACAD_REACTORS
330
7471
102
}
330
7471
100
AcDbDictionary
281
     1
  0
DICTIONARY
  5
1E277
102
{ACAD_REACTORS
330
7471
102
}
330
7471
100
AcDbDictionary
281
     1
  3
Metric50
350
1E278
  0
DICTIONARY
  5
7472
102
{ACAD_REACTORS
330
7471
102
}
330
7471
100
AcDbDictionary
281
     1
  0
DICTIONARY
  5
159B1
102
{ACAD_REACTORS
330
7471
102
}
330
7471
100
AcDbDictionary
281
     1
  3
Model
350
159B3
  3
レイアウト1
350
159B4
  0
DICTIONARY
  5
159AF
102
{ACAD_REACTORS
330
7471
102
}
330
7471
100
AcDbDictionary
281
     1
  3
ByBlock
350
1E236
  3
ByLayer
350
1E22E
  3
Global
350
1E23E
  0
DICTIONARY
  5
1E273
102
{ACAD_REACTORS
330
7471
102
}
330
7471
100
AcDbDictionary
281
     1
  3
Standard
350
1E274
  0
DICTIONARY
  5
7473
102
{ACAD_REACTORS
330
7471
102
}
330
7471
100
AcDbDictionary
281
     1
  3
STANDARD
350
7480
  0
DICTIONARY
  5
159B2
102
{ACAD_REACTORS
330
7471
102
}
330
7471
100
AcDbDictionary
281
     1
  0
ACDBDICTIONARYWDFLT
  5
159AD
102
{ACAD_REACTORS
330
7471
102
}
330
7471
100
AcDbDictionary
281
     1
  3
Normal
350
159AE
100
AcDbDictionaryWithDefault
340
159AE
  0
DICTIONARY
  5
1E261
102
{ACAD_REACTORS
330
7471
102
}
330
7471
100
AcDbDictionary
281
     1
  3
A0
350
1E262
  3
A1
350
1E263
  3
A2
350
1E264
  3
A3
350
1E265
  3
A4
350
1E266
  3
A5
350
1E267
  3
A6
350
1E268
  3
A7
350
1E269
  3
A8
350
1E26A
  3
A9
350
1E26B
  3
B0
350
1E26C
  3
B1
350
1E26D
  3
B2
350
1E26E
  3
B3
350
1E26F
  3
B4
350
1E270
  3
B5
350
1E271
  3
B6
350
1E272
  0
DICTIONARY
  5
1E275
102
{ACAD_REACTORS
330
7471
102
}
330
7471
100
AcDbDictionary
281
     1
  3
Metric50
350
1E276
  0
DICTIONARY
  5
1E25F
102
{ACAD_REACTORS
330
7471
102
}
330
7471
100
AcDbDictionary
281
     1
  3
Standard
350
1E260
  0
DICTIONARY
  5
1E246
102
{ACAD_REACTORS
330
7471
102
}
330
7471
100
AcDbDictionary
281
     1
  3
2dWireframe
350
1E24C
  3
Basic
350
1E24B
  3
Brighten
350
1E252
  3
ColorChange
350
1E256
  3
Conceptual
350
1E24F
  3
Dim
350
1E251
  3
EdgeColorOff
350
1E25E
  3
Facepattern
350
1E255
  3
Flat
350
1E247
  3
FlatWithEdges
350
1E248
  3
Gouraud
350
1E249
  3
GouraudWithEdges
350
1E24A
  3
Hidden
350
1E24E
  3
JitterOff
350
1E25C
  3
Linepattern
350
1E254
  3
OverhangOff
350
1E25D
  3
Realistic
350
1E250
  3
Shaded
350
1E25B
  3
Shaded with edges
350
1E25A
  3
Shades of Gray
350
1E257
  3
Sketchy
350
1E258
  3
Thicken
350
1E253
  3
Wireframe
350
1E24D
  3
X-Ray
350
1E259
  0
XRECORD
  5
2072D
102
{ACAD_REACTORS
330
7471
102
}
330
7471
100
AcDbXrecord
280
     1
 90
        1
330
1E260
  0
DICTIONARY
  5
1F7BD
102
{ACAD_REACTORS
330
7471
102
}
330
7471
100
AcDbDictionary
281
     1
  3
CANNOSCALE
350
1F7C3
  3
CMLEADERSTYLE
350
1F7BF
  3
CTABLESTYLE
350
1F7BE
  3
CVIEWDETAILSTYLE
350
1F7C0
  3
CVIEWSECTIONSTYLE
350
1F7C1
  3
DIMASSOC
350
2072A
  3
INDEXCTL
350
20728
  3
LAYEREVAL
350
1F7C5
  3
LAYERNOTIFY
350
1F7C6
  3
LIGHTINGUNITS
350
1F7C4
  3
MSLTSCALE
350
1F7C2
  3
SORTENTS
350
20727
  3
XCLIPFRAME
350
20729
  0
DICTIONARY
  5
20734
102
{ACAD_REACTORS
330
7471
102
}
330
7471
100
AcDbDictionary
281
     1
  3
AcDsRecords
350
20736
  3
AcDsSchemas
350
20735
1001
ACAD
1070
     2
  0
DICTIONARY
  5
E71C
102
{ACAD_REACTORS
330
7471
102
}
330
7471
100
AcDbDictionary
281
     1
  0
DICTIONARY
  5
F3B9
102
{ACAD_REACTORS
330
7471
102
}
330
7471
100
AcDbDictionary
281
     1
1001
DRAWINGVARIABLESXDATA
1000
POLARMODE
1000
1
  0
XRECORD
  5
2072E
102
{ACAD_REACTORS
330
7471
102
}
330
7471
100
AcDbXrecord
280
     1
  1
DWGPROPS COOKIE
  2

  3

  4

  6

  7

  8
hayashi.mizuki
  9

300
=
301
=
302
=
303
=
304
=
305
=
306
=
307
=
308
=
309
=
 40
1.570962650462963
 41
2451368.612993866
 42
2459381.582294398
  1

 90
        0
  0
DICTIONARY
  5
1E585
102
{ACAD_REACTORS
330
1E584
102
}
330
1E584
100
AcDbDictionary
281
     1
  0
XRECORD
  5
1ED3D
102
{ACAD_REACTORS
330
1ED3C
102
}
330
1ED3C
100
AcDbXrecord
280
     1
290
     1
  0
XRECORD
  5
1ED3F
102
{ACAD_REACTORS
330
1ED3E
102
}
330
1ED3E
100
AcDbXrecord
280
     1
290
     1
  0
XRECORD
  5
1ED41
102
{ACAD_REACTORS
330
1ED40
102
}
330
1ED40
100
AcDbXrecord
280
     1
290
     1
  0
XRECORD
  5
1ED43
102
{ACAD_REACTORS
330
1ED42
102
}
330
1ED42
100
AcDbXrecord
280
     1
290
     1
  0
XRECORD
  5
1ED45
102
{ACAD_REACTORS
330
1ED44
102
}
330
1ED44
100
AcDbXrecord
280
     1
290
     1
  0
XRECORD
  5
1ED47
102
{ACAD_REACTORS
330
1ED46
102
}
330
1ED46
100
AcDbXrecord
280
     1
290
     1
  0
XRECORD
  5
1ED49
102
{ACAD_REACTORS
330
1ED48
102
}
330
1ED48
100
AcDbXrecord
280
     1
290
     1
  0
XRECORD
  5
1ED4B
102
{ACAD_REACTORS
330
1ED4A
102
}
330
1ED4A
100
AcDbXrecord
280
     1
290
     1
  0
XRECORD
  5
1ED4D
102
{ACAD_REACTORS
330
1ED4C
102
}
330
1ED4C
100
AcDbXrecord
280
     1
290
     1
  0
XRECORD
  5
1ED4F
102
{ACAD_REACTORS
330
1ED4E
102
}
330
1ED4E
100
AcDbXrecord
280
     1
290
     1
  0
XRECORD
  5
1ED53
102
{ACAD_REACTORS
330
1ED52
102
}
330
1ED52
100
AcDbXrecord
280
     1
290
     1
  0
XRECORD
  5
1ED54
102
{ACAD_REACTORS
330
1E583
102
}
330
1E583
100
AcDbXrecord
280
     1
290
     1
  0
ACDBDETAILVIEWSTYLE
  5
1E278
102
{ACAD_XDICTIONARY
360
1F7BA
102
}
102
{ACAD_REACTORS
330
1E277
102
}
330
1E277
100
AcDbModelDocViewStyle
 70
     0
  3
Metric50
290
     0
100
AcDbDetailViewStyle
 70
     0
 71
     0
 90
        3
 71
     1
340
7475
 40
5.0
340
0
 40
5.0
300

 40
0.0
280
     1
 71
     2
340
7479
 90
       25
 71
     3
340
7475
 40
5.0
 90
        0
 40
15.0
 90
        1
300
%<\AcVar ViewDetailId>% (%<\AcVar ViewScale \f "%sn">%)
 71
     4
340
7479
 90
       25
340
7479
 90
       25
280
     0
  0
LAYOUT
  5
159B3
102
{ACAD_XDICTIONARY
360
20737
102
}
102
{ACAD_REACTORS
330
159B1
102
}
330
159B1
100
AcDbPlotSettings
  1

  2
横.pc3
  4
A3
  6

 40
3.174999952316284
 41
3.174999952316284
 42
3.17498779296875
 43
3.17498779296875
 44
420.1583251953125
 45
297.0318298339844
 46
0.0
 47
20.95723260183515
 48
0.0
 49
0.0
140
0.0
141
0.0
142
1.0
143
46.28218143748329
 70
 11956
 72
     1
 73
     0
 74
     0
  7
inaba.ctb
 75
     0
147
0.0216065874369118
148
975.3507400349809
149
51.95196121948083
100
AcDbLayout
  1
Model
 70
     1
 71
     0
 10
0.0
 20
0.0
 11
12.0
 21
9.0
 12
0.0
 22
0.0
 32
0.0
 14
0.0
 24
0.0
 34
0.0
 15
0.0
 25
0.0
 35
0.0
146
0.0
 13
0.0
 23
0.0
 33
0.0
 16
1.0
 26
0.0
 36
0.0
 17
0.0
 27
1.0
 37
0.0
 76
     0
330
747D
331
1E22C
1001
ACAD_PSEXT
1000
横.pc3
1000
CubePDF
1000
CubePDF:
1000
CubePDF
1070
     0
  0
LAYOUT
  5
159B4
102
{ACAD_XDICTIONARY
360
20739
102
}
102
{ACAD_REACTORS
330
159B1
102
}
330
159B1
100
AcDbPlotSettings
  1

  2
自動 EPSON LP-8400FX (TATENO 上)
  4

  6

 40
0.0
 41
0.0
 42
0.0
 43
0.0
 44
0.0
 45
0.0
 46
0.0
 47
0.0
 48
0.0
 49
0.0
140
0.0
141
0.0
142
1.0
143
1.0
 70
   688
 72
     0
 73
     0
 74
     5
  7
inaba.ctb
 75
    16
147
1.0
148
0.0
149
0.0
100
AcDbLayout
  1
レイアウト1
 70
     0
 71
     1
 10
0.0
 20
0.0
 11
420.0
 21
297.0
 12
0.0
 22
0.0
 32
0.0
 14
1.000000000000000E+20
 24
1.000000000000000E+20
 34
1.000000000000000E+20
 15
-1.000000000000000E+20
 25
-1.000000000000000E+20
 35
-1.000000000000000E+20
146
0.0
 13
0.0
 23
0.0
 33
0.0
 16
1.0
 26
0.0
 36
0.0
 17
0.0
 27
1.0
 37
0.0
 76
     0
330
747A
  0
MATERIAL
  5
1E236
102
{ACAD_XDICTIONARY
360
1E237
102
}
102
{ACAD_REACTORS
330
159AF
102
}
330
159AF
100
AcDbMaterial
  1
ByBlock
 72
     0
 43
0.0208333333333333
 43
0.0
 43
0.0
 43
0.0
 43
0.0
 43
0.0208333333333333
 43
0.0
 43
0.0
 43
0.0
 43
0.0
 43
1.0
 43
0.0
 43
0.0
 43
0.0
 43
0.0
 43
1.0
 77
     0
 47
0.0208333333333333
 47
0.0
 47
0.0
 47
0.0
 47
0.0
 47
0.0208333333333333
 47
0.0
 47
0.0
 47
0.0
 47
0.0
 47
1.0
 47
0.0
 47
0.0
 47
0.0
 47
0.0
 47
1.0
171
     0
 49
0.0208333333333333
 49
0.0
 49
0.0
 49
0.0
 49
0.0
 49
0.0208333333333333
 49
0.0
 49
0.0
 49
0.0
 49
0.0
 49
1.0
 49
0.0
 49
0.0
 49
0.0
 49
0.0
 49
1.0
175
     0
142
0.0208333333333333
142
0.0
142
0.0
142
0.0
142
0.0
142
0.0208333333333333
142
0.0
142
0.0
142
0.0
142
0.0
142
1.0
142
0.0
142
0.0
142
0.0
142
0.0
142
1.0
179
     0
144
0.0208333333333333
144
0.0
144
0.0
144
0.0
144
0.0
144
0.0208333333333333
144
0.0
144
0.0
144
0.0
144
0.0
144
1.0
144
0.0
144
0.0
144
0.0
144
0.0
144
1.0
147
0.0208333333333333
147
0.0
147
0.0
147
0.0
147
0.0
147
0.0208333333333333
147
0.0
147
0.0
147
0.0
147
0.0
147
1.0
147
0.0
147
0.0
147
0.0
147
0.0
147
1.0
  0
MATERIAL
  5
1E22E
102
{ACAD_XDICTIONARY
360
1E22F
102
}
102
{ACAD_REACTORS
330
159AF
102
}
330
159AF
100
AcDbMaterial
  1
ByLayer
 72
     0
 43
0.0208333333333333
 43
0.0
 43
0.0
 43
0.0
 43
0.0
 43
0.0208333333333333
 43
0.0
 43
0.0
 43
0.0
 43
0.0
 43
1.0
 43
0.0
 43
0.0
 43
0.0
 43
0.0
 43
1.0
 77
     0
 47
0.0208333333333333
 47
0.0
 47
0.0
 47
0.0
 47
0.0
 47
0.0208333333333333
 47
0.0
 47
0.0
 47
0.0
 47
0.0
 47
1.0
 47
0.0
 47
0.0
 47
0.0
 47
0.0
 47
1.0
171
     0
 49
0.0208333333333333
 49
0.0
 49
0.0
 49
0.0
 49
0.0
 49
0.0208333333333333
 49
0.0
 49
0.0
 49
0.0
 49
0.0
 49
1.0
 49
0.0
 49
0.0
 49
0.0
 49
0.0
 49
1.0
175
     0
142
0.0208333333333333
142
0.0
142
0.0
142
0.0
142
0.0
142
0.0208333333333333
142
0.0
142
0.0
142
0.0
142
0.0
142
1.0
142
0.0
142
0.0
142
0.0
142
0.0
142
1.0
179
     0
144
0.0208333333333333
144
0.0
144
0.0
144
0.0
144
0.0
144
0.0208333333333333
144
0.0
144
0.0
144
0.0
144
0.0
144
1.0
144
0.0
144
0.0
144
0.0
144
0.0
144
1.0
147
0.0208333333333333
147
0.0
147
0.0
147
0.0
147
0.0
147
0.0208333333333333
147
0.0
147
0.0
147
0.0
147
0.0
147
1.0
147
0.0
147
0.0
147
0.0
147
0.0
147
1.0
  0
MATERIAL
  5
1E23E
102
{ACAD_XDICTIONARY
360
1E23F
102
}
102
{ACAD_REACTORS
330
159AF
102
}
330
159AF
100
AcDbMaterial
  1
Global
 72
     0
 43
0.0208333333333333
 43
0.0
 43
0.0
 43
0.0
 43
0.0
 43
0.0208333333333333
 43
0.0
 43
0.0
 43
0.0
 43
0.0
 43
1.0
 43
0.0
 43
0.0
 43
0.0
 43
0.0
 43
1.0
 77
     0
 47
0.0208333333333333
 47
0.0
 47
0.0
 47
0.0
 47
0.0
 47
0.0208333333333333
 47
0.0
 47
0.0
 47
0.0
 47
0.0
 47
1.0
 47
0.0
 47
0.0
 47
0.0
 47
0.0
 47
1.0
171
     0
 49
0.0208333333333333
 49
0.0
 49
0.0
 49
0.0
 49
0.0
 49
0.0208333333333333
 49
0.0
 49
0.0
 49
0.0
 49
0.0
 49
1.0
 49
0.0
 49
0.0
 49
0.0
 49
0.0
 49
1.0
175
     0
142
0.0208333333333333
142
0.0
142
0.0
142
0.0
142
0.0
142
0.0208333333333333
142
0.0
142
0.0
142
0.0
142
0.0
142
1.0
142
0.0
142
0.0
142
0.0
142
0.0
142
1.0
179
     0
144
0.0208333333333333
144
0.0
144
0.0
144
0.0
144
0.0
144
0.0208333333333333
144
0.0
144
0.0
144
0.0
144
0.0
144
1.0
144
0.0
144
0.0
144
0.0
144
0.0
144
1.0
147
0.0208333333333333
147
0.0
147
0.0
147
0.0
147
0.0
147
0.0208333333333333
147
0.0
147
0.0
147
0.0
147
0.0
147
1.0
147
0.0
147
0.0
147
0.0
147
0.0
147
1.0
  0
MLEADERSTYLE
  5
1E274
102
{ACAD_XDICTIONARY
360
20770
102
}
102
{ACAD_REACTORS
330
1E273
102
}
330
1E273
100
AcDbMLeaderStyle
170
     2
171
     1
172
     0
 90
        2
 40
0.0
 41
0.0
173
     1
 91
-1056964608
340
7477
 92
       -2
290
     1
 42
2.0
291
     1
 43
0.36
  3
Standard
 44
4.0
300

342
7475
174
     1
178
     6
175
     1
176
     0
 93
-1056964608
 45
4.0
292
     0
297
     0
 46
4.0
 94
-1056964608
 47
1.0
 49
1.0
140
1.0
293
     1
141
0.0
294
     1
177
     0
142
1.0
295
     0
296
     0
143
0.125
1001
ACAD_MLEADERVER
1070
     2
  0
MLINESTYLE
  5
7480
102
{ACAD_REACTORS
330
7473
102
}
330
7473
100
AcDbMlineStyle
  2
STANDARD
 70
     0
  3

 62
     0
 51
90.0
 52
90.0
 71
     2
 49
0.5
 62
   256
  6
BYLAYER
 49
-0.5
 62
   256
  6
BYLAYER
  0
ACDBPLACEHOLDER
  5
159AE
102
{ACAD_REACTORS
330
159AD
102
}
330
159AD
  0
SCALE
  5
1E262
102
{ACAD_REACTORS
330
1E261
102
}
330
1E261
100
AcDbScale
 70
     0
300
1:1
140
1.0
141
1.0
290
     1
  0
SCALE
  5
1E263
102
{ACAD_REACTORS
330
1E261
102
}
330
1E261
100
AcDbScale
 70
     0
300
1:2
140
1.0
141
2.0
290
     0
  0
SCALE
  5
1E264
102
{ACAD_REACTORS
330
1E261
102
}
330
1E261
100
AcDbScale
 70
     0
300
1:4
140
1.0
141
4.0
290
     0
  0
SCALE
  5
1E265
102
{ACAD_REACTORS
330
1E261
102
}
330
1E261
100
AcDbScale
 70
     0
300
1:5
140
1.0
141
5.0
290
     0
  0
SCALE
  5
1E266
102
{ACAD_REACTORS
330
1E261
102
}
330
1E261
100
AcDbScale
 70
     0
300
1:8
140
1.0
141
8.0
290
     0
  0
SCALE
  5
1E267
102
{ACAD_REACTORS
330
1E261
102
}
330
1E261
100
AcDbScale
 70
     0
300
1:10
140
1.0
141
10.0
290
     0
  0
SCALE
  5
1E268
102
{ACAD_REACTORS
330
1E261
102
}
330
1E261
100
AcDbScale
 70
     0
300
1:16
140
1.0
141
16.0
290
     0
  0
SCALE
  5
1E269
102
{ACAD_REACTORS
330
1E261
102
}
330
1E261
100
AcDbScale
 70
     0
300
1:20
140
1.0
141
20.0
290
     0
  0
SCALE
  5
1E26A
102
{ACAD_REACTORS
330
1E261
102
}
330
1E261
100
AcDbScale
 70
     0
300
1:30
140
1.0
141
30.0
290
     0
  0
SCALE
  5
1E26B
102
{ACAD_REACTORS
330
1E261
102
}
330
1E261
100
AcDbScale
 70
     0
300
1:40
140
1.0
141
40.0
290
     0
  0
SCALE
  5
1E26C
102
{ACAD_REACTORS
330
1E261
102
}
330
1E261
100
AcDbScale
 70
     0
300
1:50
140
1.0
141
50.0
290
     0
  0
SCALE
  5
1E26D
102
{ACAD_REACTORS
330
1E261
102
}
330
1E261
100
AcDbScale
 70
     0
300
1:100
140
1.0
141
100.0
290
     0
  0
SCALE
  5
1E26E
102
{ACAD_REACTORS
330
1E261
102
}
330
1E261
100
AcDbScale
 70
     0
300
2:1
140
2.0
141
1.0
290
     0
  0
SCALE
  5
1E26F
102
{ACAD_REACTORS
330
1E261
102
}
330
1E261
100
AcDbScale
 70
     0
300
4:1
140
4.0
141
1.0
290
     0
  0
SCALE
  5
1E270
102
{ACAD_REACTORS
330
1E261
102
}
330
1E261
100
AcDbScale
 70
     0
300
8:1
140
8.0
141
1.0
290
     0
  0
SCALE
  5
1E271
102
{ACAD_REACTORS
330
1E261
102
}
330
1E261
100
AcDbScale
 70
     0
300
10:1
140
10.0
141
1.0
290
     0
  0
SCALE
  5
1E272
102
{ACAD_REACTORS
330
1E261
102
}
330
1E261
100
AcDbScale
 70
     0
300
100:1
140
100.0
141
1.0
290
     0
  0
ACDBSECTIONVIEWSTYLE
  5
1E276
102
{ACAD_XDICTIONARY
360
1F7B8
102
}
102
{ACAD_REACTORS
330
1E275
102
}
330
1E275
100
AcDbModelDocViewStyle
 70
     0
  3
Metric50
290
     0
100
AcDbSectionViewStyle
 70
     0
 71
     0
 90
      102
 71
     1
340
7475
 40
5.0
340
0
340
0
 40
5.0
300
I, O, Q, S, X, Z
 40
10.0
 90
        0
 40
2.5
 90
        0
 71
     2
340
7479
 90
       25
340
7479
 90
       50
 40
5.0
 40
2.5
 40
5.0
 71
     3
340
7475
 40
5.0
 90
        0
 40
15.0
 90
        1
300
%<\AcVar ViewSectionStartId>%-%<\AcVar ViewSectionEndId>% (%<\AcVar ViewScale \f "%sn">%)
 71
     4
300
ANSI31
 40
1.0
 90
        0
290
     0
290
     0
 90
        6
 40
0.0
 40
1.570796326794896
 40
0.2617993877991494
 40
1.308996938995747
 40
-0.2617993877991494
 40
1.832595714594046
  0
TABLESTYLE
  5
1E260
102
{ACAD_XDICTIONARY
360
2072B
102
}
102
{ACAD_REACTORS
330
1E25F
102
}
330
1E25F
100
AcDbTableStyle
  3
Standard
 70
     0
 71
     0
 40
1.5
 41
1.5
280
     0
281
     0
  7
STANDARD
140
4.5
170
     2
 62
     0
 63
     7
283
     0
274
    -2
284
     1
 64
     0
275
    -2
285
     1
 65
     0
276
    -2
286
     1
 66
     0
277
    -2
287
     1
 67
     0
278
    -2
288
     1
 68
     0
279
    -2
289
     1
 69
     0
  7
STANDARD
140
6.0
170
     5
 62
     0
 63
     7
283
     0
274
    -2
284
     1
 64
     0
275
    -2
285
     1
 65
     0
276
    -2
286
     1
 66
     0
277
    -2
287
     1
 67
     0
278
    -2
288
     1
 68
     0
279
    -2
289
     1
 69
     0
  7
STANDARD
140
4.5
170
     5
 62
     0
 63
     7
283
     0
274
    -2
284
     1
 64
     0
275
    -2
285
     1
 65
     0
276
    -2
286
     1
 66
     0
277
    -2
287
     1
 67
     0
278
    -2
288
     1
 68
     0
279
    -2
289
     1
 69
     0
  0
VISUALSTYLE
  5
1E24C
102
{ACAD_XDICTIONARY
360
20748
102
}
102
{ACAD_REACTORS
330
1E246
102
}
330
1E246
100
AcDbVisualStyle
  2
2dWireframe
 70
     4
 71
     0
 72
     2
 73
     0
 90
        0
 40
-0.6
 41
-30.0
 62
     5
 63
     7
 74
     1
 91
        4
 64
     7
 65
   257
 75
     1
175
     1
 42
1.0
 92
        0
 66
   257
 43
1.0
 76
     1
 77
     6
 78
     2
 67
     7
 79
     5
170
     0
171
     0
290
     0
174
     0
 93
        1
 44
0.0
173
     0
291
     0
 45
0.0
1001
ACAD
1000
AcDbSavedByObjectVersion
1070
     0
  0
VISUALSTYLE
  5
1E24B
102
{ACAD_XDICTIONARY
360
20746
102
}
102
{ACAD_REACTORS
330
1E246
102
}
330
1E246
100
AcDbVisualStyle
  2
Basic
 70
     7
 71
     1
 72
     0
 73
     1
 90
        0
 40
-0.6
 41
-30.0
 62
     5
 63
     7
 74
     0
 91
        4
 64
     7
 65
   257
 75
     1
175
     1
 42
1.0
 92
        8
 66
     7
 43
1.0
 76
     1
 77
     6
 78
     2
 67
     7
 79
     5
170
     0
171
     0
290
     0
174
     0
 93
        1
 44
0.0
173
     0
291
     1
 45
0.0
1001
ACAD
1000
AcDbSavedByObjectVersion
1070
     0
  0
VISUALSTYLE
  5
1E252
102
{ACAD_XDICTIONARY
360
20754
102
}
102
{ACAD_REACTORS
330
1E246
102
}
330
1E246
100
AcDbVisualStyle
  2
Brighten
 70
    12
 71
     2
 72
     2
 73
     0
 90
        0
 40
-0.6
 41
-30.0
 62
     5
 63
     7
 74
     1
 91
        4
 64
     7
 65
   257
 75
     1
175
     1
 42
1.0
 92
        8
 66
     7
 43
1.0
 76
     1
 77
     6
 78
     2
 67
     7
 79
     5
170
     0
171
     0
290
     0
174
     0
 93
        1
 44
50.0
173
     0
291
     1
 45
0.0
1001
ACAD
1000
AcDbSavedByObjectVersion
1070
     0
  0
VISUALSTYLE
  5
1E256
102
{ACAD_XDICTIONARY
360
2075C
102
}
102
{ACAD_REACTORS
330
1E246
102
}
330
1E246
100
AcDbVisualStyle
  2
ColorChange
 70
    16
 71
     2
 72
     2
 73
     3
 90
        0
 40
-0.6
 41
-30.0
 62
     5
 63
     8
 74
     1
 91
        4
 64
     7
 65
   257
 75
     1
175
     1
 42
1.0
 92
        8
 66
     8
 43
1.0
 76
     1
 77
     6
 78
     2
 67
     7
 79
     5
170
     0
171
     0
290
     0
174
     0
 93
        1
 44
0.0
173
     0
291
     1
 45
0.0
1001
ACAD
1000
AcDbSavedByObjectVersion
1070
     0
  0
VISUALSTYLE
  5
1E24F
102
{ACAD_XDICTIONARY
360
2074E
102
}
102
{ACAD_REACTORS
330
1E246
102
}
330
1E246
100
AcDbVisualStyle
  2
Conceptual
 70
     9
 71
     3
 72
     2
 73
     0
 90
        0
 40
-0.6
 41
-30.0
 62
     5
 63
     7
 74
     2
 91
        2
 64
     7
 65
   257
 75
     1
175
     1
 42
179.0
 92
        8
 66
     7
 43
1.0
 76
     1
 77
     6
 78
     2
 67
     7
 79
     3
170
     0
171
     0
290
     0
174
     0
 93
        1
 44
0.0
173
     0
291
     0
 45
0.0
1001
ACAD
1000
AcDbSavedByObjectVersion
1070
     0
  0
VISUALSTYLE
  5
1E251
102
{ACAD_XDICTIONARY
360
20752
102
}
102
{ACAD_REACTORS
330
1E246
102
}
330
1E246
100
AcDbVisualStyle
  2
Dim
 70
    11
 71
     2
 72
     2
 73
     0
 90
        0
 40
-0.6
 41
-30.0
 62
     5
 63
     7
 74
     1
 91
        4
 64
     7
 65
   257
 75
     1
175
     1
 42
1.0
 92
        8
 66
     7
 43
1.0
 76
     1
 77
     6
 78
     2
 67
     7
 79
     5
170
     0
171
     0
290
     0
174
     0
 93
        1
 44
-50.0
173
     0
291
     1
 45
0.0
1001
ACAD
1000
AcDbSavedByObjectVersion
1070
     0
  0
VISUALSTYLE
  5
1E25E
102
{ACAD_XDICTIONARY
360
2076C
102
}
102
{ACAD_REACTORS
330
1E246
102
}
330
1E246
100
AcDbVisualStyle
  2
EdgeColorOff
 70
    22
 71
     2
 72
     2
 73
     0
 90
        0
 40
-0.6
 41
-30.0
 62
     5
 63
     7
 74
     1
 91
        4
 64
     7
 65
   257
 75
     1
175
     1
 42
1.0
 92
        8
 66
     7
 43
1.0
 76
     1
 77
     6
 78
     2
 67
     7
 79
     5
170
     0
171
     0
290
     0
174
     0
 93
        1
 44
0.0
173
     0
291
     1
 45
0.0
1001
ACAD
1000
AcDbSavedByObjectVersion
1070
     0
  0
VISUALSTYLE
  5
1E255
102
{ACAD_XDICTIONARY
360
2075A
102
}
102
{ACAD_REACTORS
330
1E246
102
}
330
1E246
100
AcDbVisualStyle
  2
Facepattern
 70
    15
 71
     2
 72
     2
 73
     0
 90
        0
 40
-0.6
 41
-30.0
 62
     5
 63
     7
 74
     1
 91
        4
 64
     7
 65
   257
 75
     1
175
     1
 42
1.0
 92
        8
 66
     7
 43
1.0
 76
     1
 77
     6
 78
     2
 67
     7
 79
     5
170
     0
171
     0
290
     0
174
     0
 93
        1
 44
0.0
173
     0
291
     1
 45
0.0
1001
ACAD
1000
AcDbSavedByObjectVersion
1070
     0
  0
VISUALSTYLE
  5
1E247
102
{ACAD_XDICTIONARY
360
2073E
102
}
102
{ACAD_REACTORS
330
1E246
102
}
330
1E246
100
AcDbVisualStyle
  2
Flat
 70
     0
 71
     2
 72
     1
 73
     1
 90
        2
 40
-0.6
 41
30.0
 62
     5
 63
     7
 74
     0
 91
        0
 64
     7
 65
   257
 75
     1
175
     1
 42
1.0
 92
        8
 66
     7
 43
1.0
 76
     1
 77
     6
 78
     2
 67
     7
 79
     5
170
     0
171
     0
290
     0
174
     0
 93
       13
 44
0.0
173
     0
291
     1
 45
0.0
1001
ACAD
1000
AcDbSavedByObjectVersion
1070
     0
  0
VISUALSTYLE
  5
1E248
102
{ACAD_XDICTIONARY
360
20740
102
}
102
{ACAD_REACTORS
330
1E246
102
}
330
1E246
100
AcDbVisualStyle
  2
FlatWithEdges
 70
     1
 71
     2
 72
     1
 73
     1
 90
        2
 40
-0.6
 41
30.0
 62
     5
 63
     7
 74
     1
 91
        0
 64
     7
 65
   257
 75
     1
175
     1
 42
1.0
 92
        0
 66
   257
 43
1.0
 76
     1
 77
     6
 78
     2
 67
     7
 79
     5
170
     0
171
     0
290
     0
174
     0
 93
       13
 44
0.0
173
     0
291
     1
 45
0.0
1001
ACAD
1000
AcDbSavedByObjectVersion
1070
     0
  0
VISUALSTYLE
  5
1E249
102
{ACAD_XDICTIONARY
360
20742
102
}
102
{ACAD_REACTORS
330
1E246
102
}
330
1E246
100
AcDbVisualStyle
  2
Gouraud
 70
     2
 71
     2
 72
     2
 73
     1
 90
        2
 40
-0.6
 41
30.0
 62
     5
 63
     7
 74
     0
 91
        0
 64
     7
 65
   257
 75
     1
175
     1
 42
1.0
 92
        0
 66
     7
 43
1.0
 76
     1
 77
     6
 78
     2
 67
     7
 79
     5
170
     0
171
     0
290
     0
174
     0
 93
       13
 44
0.0
173
     0
291
     1
 45
0.0
1001
ACAD
1000
AcDbSavedByObjectVersion
1070
     0
  0
VISUALSTYLE
  5
1E24A
102
{ACAD_XDICTIONARY
360
20744
102
}
102
{ACAD_REACTORS
330
1E246
102
}
330
1E246
100
AcDbVisualStyle
  2
GouraudWithEdges
 70
     3
 71
     2
 72
     2
 73
     1
 90
        2
 40
-0.6
 41
30.0
 62
     5
 63
     7
 74
     1
 91
        0
 64
     7
 65
   257
 75
     1
175
     1
 42
1.0
 92
        0
 66
   257
 43
1.0
 76
     1
 77
     6
 78
     2
 67
     7
 79
     5
170
     0
171
     0
290
     0
174
     0
 93
       13
 44
0.0
173
     0
291
     1
 45
0.0
1001
ACAD
1000
AcDbSavedByObjectVersion
1070
     0
  0
VISUALSTYLE
  5
1E24E
102
{ACAD_XDICTIONARY
360
2074C
102
}
102
{ACAD_REACTORS
330
1E246
102
}
330
1E246
100
AcDbVisualStyle
  2
Hidden
 70
     6
 71
     1
 72
     2
 73
     2
 90
        0
 40
-0.6
 41
-30.0
 62
     5
 63
     7
 74
     2
 91
        2
 64
     7
 65
   257
 75
     2
175
     1
 42
40.0
 92
        0
 66
   257
 43
1.0
 76
     1
 77
     6
 78
     2
 67
     7
 79
     3
170
     0
171
     0
290
     0
174
     0
 93
        1
 44
0.0
173
     0
291
     0
 45
0.0
1001
ACAD
1000
AcDbSavedByObjectVersion
1070
     0
  0
VISUALSTYLE
  5
1E25C
102
{ACAD_XDICTIONARY
360
20768
102
}
102
{ACAD_REACTORS
330
1E246
102
}
330
1E246
100
AcDbVisualStyle
  2
JitterOff
 70
    20
 71
     2
 72
     2
 73
     0
 90
        0
 40
-0.6
 41
-30.0
 62
     5
 63
     7
 74
     1
 91
        4
 64
     7
 65
   257
 75
     1
175
     1
 42
1.0
 92
       10
 66
     7
 43
1.0
 76
     1
 77
     6
 78
     2
 67
     7
 79
     5
170
     0
171
     0
290
     0
174
     0
 93
        1
 44
0.0
173
     0
291
     1
 45
0.0
1001
ACAD
1000
AcDbSavedByObjectVersion
1070
     0
  0
VISUALSTYLE
  5
1E254
102
{ACAD_XDICTIONARY
360
20758
102
}
102
{ACAD_REACTORS
330
1E246
102
}
330
1E246
100
AcDbVisualStyle
  2
Linepattern
 70
    14
 71
     2
 72
     2
 73
     0
 90
        0
 40
-0.6
 41
-30.0
 62
     5
 63
     7
 74
     1
 91
        4
 64
     7
 65
   257
 75
     7
175
     7
 42
1.0
 92
        8
 66
     7
 43
1.0
 76
     1
 77
     6
 78
     2
 67
     7
 79
     5
170
     0
171
     0
290
     0
174
     0
 93
        1
 44
0.0
173
     0
291
     1
 45
0.0
1001
ACAD
1000
AcDbSavedByObjectVersion
1070
     0
  0
VISUALSTYLE
  5
1E25D
102
{ACAD_XDICTIONARY
360
2076A
102
}
102
{ACAD_REACTORS
330
1E246
102
}
330
1E246
100
AcDbVisualStyle
  2
OverhangOff
 70
    21
 71
     2
 72
     2
 73
     0
 90
        0
 40
-0.6
 41
-30.0
 62
     5
 63
     7
 74
     1
 91
        4
 64
     7
 65
   257
 75
     1
175
     1
 42
1.0
 92
        9
 66
     7
 43
1.0
 76
     1
 77
     6
 78
     2
 67
     7
 79
     5
170
     0
171
     0
290
     0
174
     0
 93
        1
 44
0.0
173
     0
291
     1
 45
0.0
1001
ACAD
1000
AcDbSavedByObjectVersion
1070
     0
  0
VISUALSTYLE
  5
1E250
102
{ACAD_XDICTIONARY
360
20750
102
}
102
{ACAD_REACTORS
330
1E246
102
}
330
1E246
100
AcDbVisualStyle
  2
Realistic
 70
     8
 71
     2
 72
     3
 73
     0
 90
        2
 40
-0.6
 41
30.0
 62
     5
 63
     7
 74
     0
 91
        0
 64
     7
 65
   257
 75
     1
175
     1
 42
1.0
 92
        8
 66
   257
 43
1.0
 76
     1
 77
     6
 78
     2
 67
     7
 79
     3
170
     0
171
     0
290
     0
174
     0
 93
       13
 44
0.0
173
     0
291
     0
 45
0.0
1001
ACAD
1000
AcDbSavedByObjectVersion
1070
     0
  0
VISUALSTYLE
  5
1E25B
102
{ACAD_XDICTIONARY
360
20766
102
}
102
{ACAD_REACTORS
330
1E246
102
}
330
1E246
100
AcDbVisualStyle
  2
Shaded
 70
    27
 71
     2
 72
     2
 73
     1
 90
        2
 40
-0.6
 41
30.0
 62
     5
 63
     7
 74
     0
 91
        4
 64
     7
 65
   257
 75
     1
175
     1
 42
1.0
 92
        8
 66
   257
 43
1.0
 76
     1
 77
     6
 78
     2
 67
     8
 79
     3
170
     0
171
     0
290
     0
174
     0
 93
        5
 44
0.0
173
     0
291
     0
 45
0.0
1001
ACAD
1000
AcDbSavedByObjectVersion
1070
     0
  0
VISUALSTYLE
  5
1E25A
102
{ACAD_XDICTIONARY
360
20764
102
}
102
{ACAD_REACTORS
330
1E246
102
}
330
1E246
100
AcDbVisualStyle
  2
Shaded with edges
 70
    26
 71
     2
 72
     2
 73
     1
 90
        2
 40
-0.6
 41
30.0
 62
     5
 63
     7
 74
     1
 91
       10
 64
     7
 65
   257
 75
     2
175
     1
 42
1.0
 92
        8
 66
   257
 43
1.0
 76
     1
 77
     6
 78
     2
 67
     7
 79
     3
170
     0
171
     0
290
     0
174
     0
 93
        5
 44
0.0
173
     0
291
     0
 45
0.0
1001
ACAD
1000
AcDbSavedByObjectVersion
1070
     0
  0
VISUALSTYLE
  5
1E257
102
{ACAD_XDICTIONARY
360
2075E
102
}
102
{ACAD_REACTORS
330
1E246
102
}
330
1E246
100
AcDbVisualStyle
  2
Shades of Gray
 70
    23
 71
     2
 72
     2
 73
     3
 90
        0
 40
-0.6
 41
-30.0
 62
     5
 63
     7
 74
     2
 91
        2
 64
     7
 65
     7
 75
     1
175
     1
 42
40.0
 92
        8
 66
     7
 43
1.0
 76
     1
 77
     6
 78
     2
 67
     7
 79
     3
170
     0
171
     0
290
     0
174
     0
 93
        1
 44
0.0
173
     0
291
     0
 45
0.0
1001
ACAD
1000
AcDbSavedByObjectVersion
1070
     0
  0
VISUALSTYLE
  5
1E258
102
{ACAD_XDICTIONARY
360
20760
102
}
102
{ACAD_REACTORS
330
1E246
102
}
330
1E246
100
AcDbVisualStyle
  2
Sketchy
 70
    24
 71
     1
 72
     2
 73
     2
 90
        0
 40
-0.6
 41
-30.0
 62
     5
 63
     7
 74
     2
 91
        2
 64
     7
 65
     7
 75
     1
175
     1
 42
40.0
 92
       11
 66
     7
 43
1.0
 76
     1
 77
     6
 78
     2
 67
     7
 79
     6
170
     0
171
     0
290
     0
174
     0
 93
        1
 44
0.0
173
     0
291
     0
 45
0.0
1001
ACAD
1000
AcDbSavedByObjectVersion
1070
     0
  0
VISUALSTYLE
  5
1E253
102
{ACAD_XDICTIONARY
360
20756
102
}
102
{ACAD_REACTORS
330
1E246
102
}
330
1E246
100
AcDbVisualStyle
  2
Thicken
 70
    13
 71
     2
 72
     2
 73
     0
 90
        0
 40
-0.6
 41
-30.0
 62
     5
 63
     7
 74
     1
 91
        4
 64
     7
 65
   257
 75
     1
175
     1
 42
1.0
 92
       12
 66
     7
 43
1.0
 76
     1
 77
     6
 78
     2
 67
     7
 79
     5
170
     0
171
     0
290
     0
174
     0
 93
        1
 44
0.0
173
     0
291
     1
 45
0.0
1001
ACAD
1000
AcDbSavedByObjectVersion
1070
     0
  0
VISUALSTYLE
  5
1E24D
102
{ACAD_XDICTIONARY
360
2074A
102
}
102
{ACAD_REACTORS
330
1E246
102
}
330
1E246
100
AcDbVisualStyle
  2
Wireframe
 70
     5
 71
     0
 72
     2
 73
     0
 90
        0
 40
-0.6
 41
-30.0
 62
     5
 63
     7
 74
     1
 91
        4
 64
     7
 65
   257
 75
     1
175
     1
 42
1.0
 92
        0
 66
   257
 43
1.0
 76
     1
 77
     6
 78
     2
 67
     7
 79
     3
170
     0
171
     0
290
     0
174
     0
 93
        1
 44
0.0
173
     0
291
     0
 45
0.0
1001
ACAD
1000
AcDbSavedByObjectVersion
1070
     0
  0
VISUALSTYLE
  5
1E259
102
{ACAD_XDICTIONARY
360
20762
102
}
102
{ACAD_REACTORS
330
1E246
102
}
330
1E246
100
AcDbVisualStyle
  2
X-Ray
 70
    25
 71
     2
 72
     2
 73
     1
 90
        1
 40
0.5
 41
-30.0
 62
     5
 63
     7
 74
     1
 91
        0
 64
     7
 65
   257
 75
     1
175
     1
 42
1.0
 92
        8
 66
     7
 43
1.0
 76
     1
 77
     6
 78
     2
 67
     7
 79
     3
170
     0
171
     0
290
     0
174
     0
 93
       13
 44
0.0
173
     0
291
     0
 45
0.0
1001
ACAD
1000
AcDbSavedByObjectVersion
1070
     0
  0
DICTIONARYVAR
  5
1F7C3
102
{ACAD_REACTORS
330
1F7BD
102
}
330
1F7BD
100
DictionaryVariables
280
     0
  1
1:1
  0
DICTIONARYVAR
  5
1F7BF
102
{ACAD_REACTORS
330
1F7BD
102
}
330
1F7BD
100
DictionaryVariables
280
     0
  1
STANDARD
  0
DICTIONARYVAR
  5
1F7BE
102
{ACAD_REACTORS
330
1F7BD
102
}
330
1F7BD
100
DictionaryVariables
280
     0
  1
STANDARD
  0
DICTIONARYVAR
  5
1F7C0
102
{ACAD_REACTORS
330
1F7BD
102
}
330
1F7BD
100
DictionaryVariables
280
     0
  1
Metric50
  0
DICTIONARYVAR
  5
1F7C1
102
{ACAD_REACTORS
330
1F7BD
102
}
330
1F7BD
100
DictionaryVariables
280
     0
  1
Metric50
  0
DICTIONARYVAR
  5
2072A
102
{ACAD_REACTORS
330
1F7BD
102
}
330
1F7BD
100
DictionaryVariables
280
     0
  1
1
  0
DICTIONARYVAR
  5
20728
102
{ACAD_REACTORS
330
1F7BD
102
}
330
1F7BD
100
DictionaryVariables
280
     0
  1
0
  0
DICTIONARYVAR
  5
1F7C5
102
{ACAD_REACTORS
330
1F7BD
102
}
330
1F7BD
100
DictionaryVariables
280
     0
  1
1
  0
DICTIONARYVAR
  5
1F7C6
102
{ACAD_REACTORS
330
1F7BD
102
}
330
1F7BD
100
DictionaryVariables
280
     0
  1
15
  0
DICTIONARYVAR
  5
1F7C4
102
{ACAD_REACTORS
330
1F7BD
102
}
330
1F7BD
100
DictionaryVariables
280
     0
  1
0
  0
DICTIONARYVAR
  5
1F7C2
102
{ACAD_REACTORS
330
1F7BD
102
}
330
1F7BD
100
DictionaryVariables
280
     0
  1
0
  0
DICTIONARYVAR
  5
20727
102
{ACAD_REACTORS
330
1F7BD
102
}
330
1F7BD
100
DictionaryVariables
280
     0
  1
127
  0
DICTIONARYVAR
  5
20729
102
{ACAD_REACTORS
330
1F7BD
102
}
330
1F7BD
100
DictionaryVariables
280
     0
  1
0
  0
DICTIONARY
  5
20736
102
{ACAD_REACTORS
330
20734
102
}
330
20734
100
AcDbDictionary
281
     1
  0
DICTIONARY
  5
20735
102
{ACAD_REACTORS
330
20734
102
}
330
20734
100
AcDbDictionary
281
     1
  3
140687019372544
350
20730
  3
140687019372560
350
20731
  3
140687019372576
350
20732
  3
140687019372592
350
20733
  3
140687019569008
350
2072F
  0
DICTIONARY
  5
1F7BA
330
1E278
100
AcDbDictionary
280
     1
281
     1
  3
ACAD_XREC_ROUNDTRIP
360
20773
  0
DICTIONARY
  5
20737
330
159B3
100
AcDbDictionary
280
     1
281
     1
  3
ACAD_XREC_ROUNDTRIP
360
20738
  0
DICTIONARY
  5
20739
330
159B4
100
AcDbDictionary
280
     1
281
     1
  3
ACAD_XREC_ROUNDTRIP
360
2073A
  0
DICTIONARY
  5
1E237
330
1E236
100
AcDbDictionary
280
     1
281
     1
  3
ACAD_XREC_ROUNDTRIP
360
2073C
  3
BUMPTILE
360
1E239
  3
DIFFUSETILE
360
1E238
  3
OPACITYTILE
360
1E23C
  3
REFLECTIONTILE
360
1E23B
  3
REFRACTIONTILE
360
1E23D
  3
SPECULARTILE
360
1E23A
  0
DICTIONARY
  5
1E22F
330
1E22E
100
AcDbDictionary
280
     1
281
     1
  3
ACAD_XREC_ROUNDTRIP
360
2073B
  3
BUMPTILE
360
1E231
  3
DIFFUSETILE
360
1E230
  3
OPACITYTILE
360
1E234
  3
REFLECTIONTILE
360
1E233
  3
REFRACTIONTILE
360
1E235
  3
SPECULARTILE
360
1E232
  0
DICTIONARY
  5
1E23F
330
1E23E
100
AcDbDictionary
280
     1
281
     1
  3
ACAD_XREC_ROUNDTRIP
360
2073D
  3
BUMPTILE
360
1E241
  3
DIFFUSETILE
360
1E240
  3
OPACITYTILE
360
1E244
  3
REFLECTIONTILE
360
1E243
  3
REFRACTIONTILE
360
1E245
  3
SPECULARTILE
360
1E242
  0
DICTIONARY
  5
20770
330
1E274
100
AcDbDictionary
280
     1
281
     1
  3
ACAD_XREC_ROUNDTRIP
360
20771
  0
DICTIONARY
  5
1F7B8
330
1E276
100
AcDbDictionary
280
     1
281
     1
  3
ACAD_XREC_ROUNDTRIP
360
20772
  0
DICTIONARY
  5
2072B
330
1E260
100
AcDbDictionary
280
     1
281
     1
  3
ACAD_ROUNDTRIP_2008_TABLESTYLE_CELLSTYLEMAP
360
2072C
  3
ACAD_XREC_ROUNDTRIP
360
2076E
  0
DICTIONARY
  5
20748
330
1E24C
100
AcDbDictionary
280
     1
281
     1
  3
ACAD_XREC_ROUNDTRIP
360
20749
  0
DICTIONARY
  5
20746
330
1E24B
100
AcDbDictionary
280
     1
281
     1
  3
ACAD_XREC_ROUNDTRIP
360
20747
  0
DICTIONARY
  5
20754
330
1E252
100
AcDbDictionary
280
     1
281
     1
  3
ACAD_XREC_ROUNDTRIP
360
20755
  0
DICTIONARY
  5
2075C
330
1E256
100
AcDbDictionary
280
     1
281
     1
  3
ACAD_XREC_ROUNDTRIP
360
2075D
  0
DICTIONARY
  5
2074E
330
1E24F
100
AcDbDictionary
280
     1
281
     1
  3
ACAD_XREC_ROUNDTRIP
360
2074F
  0
DICTIONARY
  5
20752
330
1E251
100
AcDbDictionary
280
     1
281
     1
  3
ACAD_XREC_ROUNDTRIP
360
20753
  0
DICTIONARY
  5
2076C
330
1E25E
100
AcDbDictionary
280
     1
281
     1
  3
ACAD_XREC_ROUNDTRIP
360
2076D
  0
DICTIONARY
  5
2075A
330
1E255
100
AcDbDictionary
280
     1
281
     1
  3
ACAD_XREC_ROUNDTRIP
360
2075B
  0
DICTIONARY
  5
2073E
330
1E247
100
AcDbDictionary
280
     1
281
     1
  3
ACAD_XREC_ROUNDTRIP
360
2073F
  0
DICTIONARY
  5
20740
330
1E248
100
AcDbDictionary
280
     1
281
     1
  3
ACAD_XREC_ROUNDTRIP
360
20741
  0
DICTIONARY
  5
20742
330
1E249
100
AcDbDictionary
280
     1
281
     1
  3
ACAD_XREC_ROUNDTRIP
360
20743
  0
DICTIONARY
  5
20744
330
1E24A
100
AcDbDictionary
280
     1
281
     1
  3
ACAD_XREC_ROUNDTRIP
360
20745
  0
DICTIONARY
  5
2074C
330
1E24E
100
AcDbDictionary
280
     1
281
     1
  3
ACAD_XREC_ROUNDTRIP
360
2074D
  0
DICTIONARY
  5
20768
330
1E25C
100
AcDbDictionary
280
     1
281
     1
  3
ACAD_XREC_ROUNDTRIP
360
20769
  0
DICTIONARY
  5
20758
330
1E254
100
AcDbDictionary
280
     1
281
     1
  3
ACAD_XREC_ROUNDTRIP
360
20759
  0
DICTIONARY
  5
2076A
330
1E25D
100
AcDbDictionary
280
     1
281
     1
  3
ACAD_XREC_ROUNDTRIP
360
2076B
  0
DICTIONARY
  5
20750
330
1E250
100
AcDbDictionary
280
     1
281
     1
  3
ACAD_XREC_ROUNDTRIP
360
20751
  0
DICTIONARY
  5
20766
330
1E25B
100
AcDbDictionary
280
     1
281
     1
  3
ACAD_XREC_ROUNDTRIP
360
20767
  0
DICTIONARY
  5
20764
330
1E25A
100
AcDbDictionary
280
     1
281
     1
  3
ACAD_XREC_ROUNDTRIP
360
20765
  0
DICTIONARY
  5
2075E
330
1E257
100
AcDbDictionary
280
     1
281
     1
  3
ACAD_XREC_ROUNDTRIP
360
2075F
  0
DICTIONARY
  5
20760
330
1E258
100
AcDbDictionary
280
     1
281
     1
  3
ACAD_XREC_ROUNDTRIP
360
20761
  0
DICTIONARY
  5
20756
330
1E253
100
AcDbDictionary
280
     1
281
     1
  3
ACAD_XREC_ROUNDTRIP
360
20757
  0
DICTIONARY
  5
2074A
330
1E24D
100
AcDbDictionary
280
     1
281
     1
  3
ACAD_XREC_ROUNDTRIP
360
2074B
  0
DICTIONARY
  5
20762
330
1E259
100
AcDbDictionary
280
     1
281
     1
  3
ACAD_XREC_ROUNDTRIP
360
20763
  0
XRECORD
  5
20730
102
{ACAD_REACTORS
330
20735
102
}
330
20735
100
AcDbXrecord
280
     1
  1
AcDbDs::TreatedAsObjectDataSchema
  2
AcDbDs::TreatedAsObjectData
280
     1
 91
        0
  0
XRECORD
  5
20731
102
{ACAD_REACTORS
330
20735
102
}
330
20735
100
AcDbXrecord
280
     1
  1
AcDbDs::LegacySchema
  2
AcDbDs::Legacy
280
     1
 91
        0
  0
XRECORD
  5
20732
102
{ACAD_REACTORS
330
20735
102
}
330
20735
100
AcDbXrecord
280
     1
  1
AcDbDs::IndexedPropertySchema
  2
AcDs:Indexable
280
     1
 91
        0
  0
XRECORD
  5
20733
102
{ACAD_REACTORS
330
20735
102
}
330
20735
100
AcDbXrecord
280
     1
  1
AcDbDs::HandleAttributeSchema
  2
AcDbDs::HandleAttribute
280
     7
 91
        1
284
     1
  0
XRECORD
  5
2072F
102
{ACAD_REACTORS
330
20735
102
}
330
20735
100
AcDbXrecord
280
     1
  1
AcDb_Thumbnail_Schema
102
{ATTRRECORD
341
20730
  2
AcDbDs::TreatedAsObjectData
280
     1
291
     1
102
ATTRRECORD}
102
{ATTRRECORD
341
20731
  2
AcDbDs::Legacy
280
     1
291
     1
102
ATTRRECORD}
  2
AcDbDs::ID
280
    10
 91
        8
102
{ATTRRECORD
341
20732
  2
AcDs:Indexable
280
     1
291
     1
102
ATTRRECORD}
102
{ATTRRECORD
341
20733
  2
AcDbDs::HandleAttribute
280
     7
282
     1
102
ATTRRECORD}
  2
Thumbnail_Data
280
    15
 91
        0
  0
XRECORD
  5
20773
102
{ACAD_REACTORS
330
1F7BA
102
}
330
1F7BA
100
AcDbXrecord
280
     1
102
DISPLAYNAME
  1
Metric50
102
FLAGS
 90
        0
  0
XRECORD
  5
20738
102
{ACAD_REACTORS
330
20737
102
}
330
20737
100
AcDbXrecord
280
     1
102
SHADEPLOT
 70
     0
102
SHADEPLOTRESLEVEL
 70
     2
102
SHADEPLOTCUSTOMDPI
 70
   300
  0
XRECORD
  5
2073A
102
{ACAD_REACTORS
330
20739
102
}
330
20739
100
AcDbXrecord
280
     1
102
SHADEPLOT
 70
     0
102
SHADEPLOTRESLEVEL
 70
     2
102
SHADEPLOTCUSTOMDPI
 70
   300
  0
XRECORD
  5
2073C
102
{ACAD_REACTORS
330
1E237
102
}
330
1E237
100
AcDbXrecord
280
     1
102
MATERIAL
148
0.0
149
0.0
149
0.0
 93
        0
 94
      127
282
     0
 72
     0
 77
     0
171
     0
175
     0
179
     0
273
     0
  0
XRECORD
  5
1E239
102
{ACAD_REACTORS
330
1E237
102
}
330
1E237
100
AcDbXrecord
280
     1
270
     1
271
     1
  0
XRECORD
  5
1E238
102
{ACAD_REACTORS
330
1E237
102
}
330
1E237
100
AcDbXrecord
280
     1
270
     1
271
     1
  0
XRECORD
  5
1E23C
102
{ACAD_REACTORS
330
1E237
102
}
330
1E237
100
AcDbXrecord
280
     1
270
     1
271
     1
  0
XRECORD
  5
1E23B
102
{ACAD_REACTORS
330
1E237
102
}
330
1E237
100
AcDbXrecord
280
     1
270
     1
271
     1
  0
XRECORD
  5
1E23D
102
{ACAD_REACTORS
330
1E237
102
}
330
1E237
100
AcDbXrecord
280
     1
270
     1
271
     1
  0
XRECORD
  5
1E23A
102
{ACAD_REACTORS
330
1E237
102
}
330
1E237
100
AcDbXrecord
280
     1
270
     1
271
     1
  0
XRECORD
  5
2073B
102
{ACAD_REACTORS
330
1E22F
102
}
330
1E22F
100
AcDbXrecord
280
     1
102
MATERIAL
148
0.0
149
0.0
149
0.0
 93
        0
 94
      127
282
     0
 72
     0
 77
     0
171
     0
175
     0
179
     0
273
     0
  0
XRECORD
  5
1E231
102
{ACAD_REACTORS
330
1E22F
102
}
330
1E22F
100
AcDbXrecord
280
     1
270
     1
271
     1
  0
XRECORD
  5
1E230
102
{ACAD_REACTORS
330
1E22F
102
}
330
1E22F
100
AcDbXrecord
280
     1
270
     1
271
     1
  0
XRECORD
  5
1E234
102
{ACAD_REACTORS
330
1E22F
102
}
330
1E22F
100
AcDbXrecord
280
     1
270
     1
271
     1
  0
XRECORD
  5
1E233
102
{ACAD_REACTORS
330
1E22F
102
}
330
1E22F
100
AcDbXrecord
280
     1
270
     1
271
     1
  0
XRECORD
  5
1E235
102
{ACAD_REACTORS
330
1E22F
102
}
330
1E22F
100
AcDbXrecord
280
     1
270
     1
271
     1
  0
XRECORD
  5
1E232
102
{ACAD_REACTORS
330
1E22F
102
}
330
1E22F
100
AcDbXrecord
280
     1
270
     1
271
     1
  0
XRECORD
  5
2073D
102
{ACAD_REACTORS
330
1E23F
102
}
330
1E23F
100
AcDbXrecord
280
     1
102
MATERIAL
148
0.0
149
0.0
149
0.0
 93
        0
 94
      127
282
     0
 72
     0
 77
     0
171
     0
175
     0
179
     0
273
     0
  0
XRECORD
  5
1E241
102
{ACAD_REACTORS
330
1E23F
102
}
330
1E23F
100
AcDbXrecord
280
     1
270
     1
271
     1
  0
XRECORD
  5
1E240
102
{ACAD_REACTORS
330
1E23F
102
}
330
1E23F
100
AcDbXrecord
280
     1
270
     1
271
     1
  0
XRECORD
  5
1E244
102
{ACAD_REACTORS
330
1E23F
102
}
330
1E23F
100
AcDbXrecord
280
     1
270
     1
271
     1
  0
XRECORD
  5
1E243
102
{ACAD_REACTORS
330
1E23F
102
}
330
1E23F
100
AcDbXrecord
280
     1
270
     1
271
     1
  0
XRECORD
  5
1E245
102
{ACAD_REACTORS
330
1E23F
102
}
330
1E23F
100
AcDbXrecord
280
     1
270
     1
271
     1
  0
XRECORD
  5
1E242
102
{ACAD_REACTORS
330
1E23F
102
}
330
1E23F
100
AcDbXrecord
280
     1
270
     1
271
     1
  0
XRECORD
  5
20771
102
{ACAD_REACTORS
330
20770
102
}
330
20770
100
AcDbXrecord
280
     1
102
ACAD_ROUNDTRIP_2012_MLEADER_STYLE
298
     1
  0
XRECORD
  5
20772
102
{ACAD_REACTORS
330
1F7B8
102
}
330
1F7B8
100
AcDbXrecord
280
     1
102
DISPLAYNAME
  1
Metric50
102
FLAGS
 90
        0
  0
CELLSTYLEMAP
  5
2072C
102
{ACAD_REACTORS
330
2072B
102
}
330
2072B
100
AcDbCellStyleMap
 90
        3
300
CELLSTYLE
  1
TABLEFORMAT_BEGIN
 90
        5
170
     1
 91
        0
 92
    32768
 62
   257
 93
        1
300
CONTENTFORMAT
  1
CONTENTFORMAT_BEGIN
 90
        0
 91
        0
 92
      512
 93
        0
300

 40
0.0
140
1.0
 94
        5
 62
     0
340
7475
144
6.0
309
CONTENTFORMAT_END
171
     1
301
MARGIN
  1
CELLMARGIN_BEGIN
 40
1.5
 40
1.5
 40
1.5
 40
1.5
 40
4.5
 40
4.5
309
CELLMARGIN_END
 94
        6
 95
        1
302
GRIDFORMAT
  1
GRIDFORMAT_BEGIN
 90
        0
 91
        1
 62
     0
 92
       -2
340
0
 93
        0
 40
1.125
309
GRIDFORMAT_END
 95
        2
302
GRIDFORMAT
  1
GRIDFORMAT_BEGIN
 90
        0
 91
        1
 62
     0
 92
       -2
340
0
 93
        0
 40
1.125
309
GRIDFORMAT_END
 95
        4
302
GRIDFORMAT
  1
GRIDFORMAT_BEGIN
 90
        0
 91
        1
 62
     0
 92
       -2
340
0
 93
        0
 40
1.125
309
GRIDFORMAT_END
 95
        8
302
GRIDFORMAT
  1
GRIDFORMAT_BEGIN
 90
        0
 91
        1
 62
     0
 92
       -2
340
0
 93
        0
 40
1.125
309
GRIDFORMAT_END
 95
       16
302
GRIDFORMAT
  1
GRIDFORMAT_BEGIN
 90
        0
 91
        1
 62
     0
 92
       -2
340
0
 93
        0
 40
1.125
309
GRIDFORMAT_END
 95
       32
302
GRIDFORMAT
  1
GRIDFORMAT_BEGIN
 90
        0
 91
        1
 62
     0
 92
       -2
340
0
 93
        0
 40
1.125
309
GRIDFORMAT_END
309
TABLEFORMAT_END
  1
CELLSTYLE_BEGIN
 90
        1
 91
        1
300
_TITLE
309
CELLSTYLE_END
300
CELLSTYLE
  1
TABLEFORMAT_BEGIN
 90
        5
170
     1
 91
        0
 92
        0
 62
   257
 93
        1
300
CONTENTFORMAT
  1
CONTENTFORMAT_BEGIN
 90
        0
 91
        0
 92
      512
 93
        0
300

 40
0.0
140
1.0
 94
        5
 62
     0
340
7475
144
4.5
309
CONTENTFORMAT_END
171
     1
301
MARGIN
  1
CELLMARGIN_BEGIN
 40
1.5
 40
1.5
 40
1.5
 40
1.5
 40
4.5
 40
4.5
309
CELLMARGIN_END
 94
        6
 95
        1
302
GRIDFORMAT
  1
GRIDFORMAT_BEGIN
 90
        0
 91
        1
 62
     0
 92
       -2
340
0
 93
        0
 40
1.125
309
GRIDFORMAT_END
 95
        2
302
GRIDFORMAT
  1
GRIDFORMAT_BEGIN
 90
        0
 91
        1
 62
     0
 92
       -2
340
0
 93
        0
 40
1.125
309
GRIDFORMAT_END
 95
        4
302
GRIDFORMAT
  1
GRIDFORMAT_BEGIN
 90
        0
 91
        1
 62
     0
 92
       -2
340
0
 93
        0
 40
1.125
309
GRIDFORMAT_END
 95
        8
302
GRIDFORMAT
  1
GRIDFORMAT_BEGIN
 90
        0
 91
        1
 62
     0
 92
       -2
340
0
 93
        0
 40
1.125
309
GRIDFORMAT_END
 95
       16
302
GRIDFORMAT
  1
GRIDFORMAT_BEGIN
 90
        0
 91
        1
 62
     0
 92
       -2
340
0
 93
        0
 40
1.125
309
GRIDFORMAT_END
 95
       32
302
GRIDFORMAT
  1
GRIDFORMAT_BEGIN
 90
        0
 91
        1
 62
     0
 92
       -2
340
0
 93
        0
 40
1.125
309
GRIDFORMAT_END
309
TABLEFORMAT_END
  1
CELLSTYLE_BEGIN
 90
        2
 91
        1
300
_HEADER
309
CELLSTYLE_END
300
CELLSTYLE
  1
TABLEFORMAT_BEGIN
 90
        5
170
     1
 91
        0
 92
        0
 62
   257
 93
        1
300
CONTENTFORMAT
  1
CONTENTFORMAT_BEGIN
 90
        0
 91
        0
 92
      512
 93
        0
300

 40
0.0
140
1.0
 94
        2
 62
     0
340
7475
144
4.5
309
CONTENTFORMAT_END
171
     1
301
MARGIN
  1
CELLMARGIN_BEGIN
 40
1.5
 40
1.5
 40
1.5
 40
1.5
 40
4.5
 40
4.5
309
CELLMARGIN_END
 94
        6
 95
        1
302
GRIDFORMAT
  1
GRIDFORMAT_BEGIN
 90
        0
 91
        1
 62
     0
 92
       -2
340
0
 93
        0
 40
1.125
309
GRIDFORMAT_END
 95
        2
302
GRIDFORMAT
  1
GRIDFORMAT_BEGIN
 90
        0
 91
        1
 62
     0
 92
       -2
340
0
 93
        0
 40
1.125
309
GRIDFORMAT_END
 95
        4
302
GRIDFORMAT
  1
GRIDFORMAT_BEGIN
 90
        0
 91
        1
 62
     0
 92
       -2
340
0
 93
        0
 40
1.125
309
GRIDFORMAT_END
 95
        8
302
GRIDFORMAT
  1
GRIDFORMAT_BEGIN
 90
        0
 91
        1
 62
     0
 92
       -2
340
0
 93
        0
 40
1.125
309
GRIDFORMAT_END
 95
       16
302
GRIDFORMAT
  1
GRIDFORMAT_BEGIN
 90
        0
 91
        1
 62
     0
 92
       -2
340
0
 93
        0
 40
1.125
309
GRIDFORMAT_END
 95
       32
302
GRIDFORMAT
  1
GRIDFORMAT_BEGIN
 90
        0
 91
        1
 62
     0
 92
       -2
340
0
 93
        0
 40
1.125
309
GRIDFORMAT_END
309
TABLEFORMAT_END
  1
CELLSTYLE_BEGIN
 90
        3
 91
        2
300
_DATA
309
CELLSTYLE_END
  0
XRECORD
  5
2076E
102
{ACAD_REACTORS
330
2072B
102
}
330
2072B
100
AcDbXrecord
280
     1
102
ACAD_ROUNDTRIP_PRE2007_TABLESTYLE
 90
      512
 91
        0
  1

 92
      512
 93
        0
  2

 94
      512
 95
        0
  3

  0
XRECORD
  5
20749
102
{ACAD_REACTORS
330
20748
102
}
330
20748
100
AcDbXrecord
280
     1
102
RTVSPost2010Prop28
280
     1
102
RTVSPost2010PropOp28
 70
     1
102
RTVSPost2010Prop29
280
     1
102
RTVSPost2010PropOp29
 70
     1
102
RTVSPost2010Prop30
280
     0
102
RTVSPost2010PropOp30
 70
     1
102
RTVSPost2010Prop31
280
     0
102
RTVSPost2010PropOp31
 70
     1
102
RTVSPost2010Prop32
280
     0
102
RTVSPost2010PropOp32
 70
     1
102
RTVSPost2010Prop33
280
     0
102
RTVSPost2010PropOp33
 70
     1
102
RTVSPost2010Prop34
280
     0
102
RTVSPost2010PropOp34
 70
     1
102
RTVSPost2010Prop35
280
     0
102
RTVSPost2010PropOp35
 70
     1
102
RTVSPost2010Prop36
280
     0
102
RTVSPost2010PropOp36
 70
     1
102
RTVSPost2010Prop37
 90
       50
102
RTVSPost2010PropOp37
 70
     1
102
RTVSPost2010Prop38
140
0.0
102
RTVSPost2010PropOp38
 70
     1
102
RTVSPost2010Prop39
140
1.0
102
RTVSPost2010PropOp39
 70
     1
102
RTVSPost2010Prop40
 90
        0
102
RTVSPost2010PropOp40
 70
     1
102
RTVSPost2010Prop41ColorIndex
 90
       18
102
RTVSPost2010Prop41ColorRGB
 90
        0
102
RTVSPost2010PropOp41
 70
     1
102
RTVSPost2010Prop42
 90
       50
102
RTVSPost2010PropOp42
 70
     1
102
RTVSPost2010Prop43
 90
        3
102
RTVSPost2010PropOp43
 70
     1
102
RTVSPost2010Prop44ColorIndex
 90
        5
102
RTVSPost2010Prop44ColorRGB
 90
      255
102
RTVSPost2010PropOp44
 70
     1
102
RTVSPost2010Prop45
280
     0
102
RTVSPost2010PropOp45
 70
     1
102
RTVSPost2010Prop46
 90
       50
102
RTVSPost2010PropOp46
 70
     1
102
RTVSPost2010Prop47
 90
       50
102
RTVSPost2010PropOp47
 70
     1
102
RTVSPost2010Prop48
 90
       50
102
RTVSPost2010PropOp48
 70
     1
102
RTVSPost2010Prop49
280
     0
102
RTVSPost2010PropOp49
 70
     1
102
RTVSPost2010Prop50
 90
       50
102
RTVSPost2010PropOp50
 70
     1
102
RTVSPost2010Prop51ColorIndex
 90
      256
102
RTVSPost2010Prop51ColorRGB
 90
-16777216
102
RTVSPost2010PropOp51
 70
     0
102
RTVSPost2010Prop52
140
1.0
102
RTVSPost2010PropOp52
 70
     0
102
RTVSPost2010Prop53
 90
        2
102
RTVSPost2010PropOp53
 70
     1
102
RTVSPost2010Prop54
  1
strokes_ogs.tif
102
RTVSPost2010PropOp54
 70
     1
102
RTVSPost2010Prop55
280
     0
102
RTVSPost2010PropOp55
 70
     1
102
RTVSPost2010Prop56
140
1.0
102
RTVSPost2010PropOp56
 70
     1
102
RTVSPost2010Prop57
140
1.0
102
RTVSPost2010PropOp57
 70
     1
102
RTVSPropertyOp0
 70
     1
102
RTVSPropertyOp1
 70
     1
102
RTVSPropertyOp2
 70
     1
102
RTVSPropertyOp3
 70
     1
102
RTVSPropertyOp4
 70
     1
102
RTVSPropertyOp5
 70
     1
102
RTVSPropertyOp6
 70
     1
102
RTVSPropertyOp7
 70
     1
102
RTVSPropertyOp8
 70
     1
102
RTVSPropertyOp9
 70
     1
102
RTVSPropertyOp10
 70
     1
102
RTVSPropertyOp11
 70
     1
102
RTVSPropertyOp12
 70
     1
102
RTVSPropertyOp13
 70
     1
102
RTVSPropertyOp14
 70
     1
102
RTVSPropertyOp15
 70
     1
102
RTVSPropertyOp16
 70
     1
102
RTVSPropertyOp17
 70
     1
102
RTVSPropertyOp18
 70
     1
102
RTVSPropertyOp19
 70
     1
102
RTVSPropertyOp20
 70
     1
102
RTVSPropertyOp21
 70
     1
102
RTVSPropertyOp22
 70
     1
102
RTVSPropertyOp23
 70
     1
102
RTVSPropertyOp24
 70
     1
102
RTVSPropertyOp25
 70
     1
102
RTVSPropertyOp26
 70
     1
102
RTVSPropertyOp27
 70
     1
102
RTVSPropertyOp28
 70
     1
102
RTVSPropertyOp29
 70
     1
102
RTVSPropertyOp30
 70
     1
102
RTVSPropertyOp31
 70
     1
102
RTVSPropertyOp32
 70
     1
102
RTVSPropertyOp33
 70
     1
102
RTVSPropertyOp34
 70
     1
102
RTVSPropertyOp35
 70
     1
102
RTVSPropertyOp36
 70
     1
102
RTVSPropertyOp37
 70
     1
102
RTVSPropertyOp38
 70
     1
102
RTVSPropertyOp39
 70
     1
102
RTVSPropertyOp40
 70
     1
102
RTVSPropertyOp41
 70
     1
102
RTVSPropertyOp42
 70
     1
102
RTVSPropertyOp43
 70
     1
102
RTVSPropertyOp44
 70
     1
102
RTVSPropertyOp45
 70
     1
102
RTVSPropertyOp46
 70
     1
102
RTVSPropertyOp47
 70
     1
102
RTVSPropertyOp48
 70
     1
102
RTVSPropertyOp49
 70
     1
102
RTVSPropertyOp50
 70
     1
102
RTVSPropertyOp51
 70
     0
102
RTVSPropertyOp52
 70
     0
102
RTVSPropertyOp53
 70
     1
102
RTVSPropertyOp54
 70
     1
102
RTVSPropertyOp55
 70
     1
102
RTVSPropertyOp56
 70
     1
102
RTVSPropertyOp57
 70
     1
102
RTVSPropertyOp58
 70
     1
102
RTVSPropertyOp59
 70
     1
102
RTVSPropertyOp60
 70
     1
102
RTVSPropertyOp61
 70
     1
102
RTVSPropertyOp62
 70
     1
  0
XRECORD
  5
20747
102
{ACAD_REACTORS
330
20746
102
}
330
20746
100
AcDbXrecord
280
     1
102
RTVSPost2010Prop28
280
     0
102
RTVSPost2010PropOp28
 70
     1
102
RTVSPost2010Prop29
280
     1
102
RTVSPost2010PropOp29
 70
     1
102
RTVSPost2010Prop30
280
     1
102
RTVSPost2010PropOp30
 70
     1
102
RTVSPost2010Prop31
280
     0
102
RTVSPost2010PropOp31
 70
     1
102
RTVSPost2010Prop32
280
     0
102
RTVSPost2010PropOp32
 70
     1
102
RTVSPost2010Prop33
280
     0
102
RTVSPost2010PropOp33
 70
     1
102
RTVSPost2010Prop34
280
     0
102
RTVSPost2010PropOp34
 70
     1
102
RTVSPost2010Prop35
280
     0
102
RTVSPost2010PropOp35
 70
     1
102
RTVSPost2010Prop36
280
     0
102
RTVSPost2010PropOp36
 70
     1
102
RTVSPost2010Prop37
 90
       50
102
RTVSPost2010PropOp37
 70
     1
102
RTVSPost2010Prop38
140
0.0
102
RTVSPost2010PropOp38
 70
     1
102
RTVSPost2010Prop39
140
1.0
102
RTVSPost2010PropOp39
 70
     1
102
RTVSPost2010Prop40
 90
        0
102
RTVSPost2010PropOp40
 70
     1
102
RTVSPost2010Prop41ColorIndex
 90
       18
102
RTVSPost2010Prop41ColorRGB
 90
        0
102
RTVSPost2010PropOp41
 70
     1
102
RTVSPost2010Prop42
 90
       50
102
RTVSPost2010PropOp42
 70
     1
102
RTVSPost2010Prop43
 90
        3
102
RTVSPost2010PropOp43
 70
     1
102
RTVSPost2010Prop44ColorIndex
 90
        5
102
RTVSPost2010Prop44ColorRGB
 90
      255
102
RTVSPost2010PropOp44
 70
     1
102
RTVSPost2010Prop45
280
     0
102
RTVSPost2010PropOp45
 70
     1
102
RTVSPost2010Prop46
 90
       50
102
RTVSPost2010PropOp46
 70
     1
102
RTVSPost2010Prop47
 90
       50
102
RTVSPost2010PropOp47
 70
     1
102
RTVSPost2010Prop48
 90
       50
102
RTVSPost2010PropOp48
 70
     1
102
RTVSPost2010Prop49
280
     0
102
RTVSPost2010PropOp49
 70
     1
102
RTVSPost2010Prop50
 90
       50
102
RTVSPost2010PropOp50
 70
     1
102
RTVSPost2010Prop51ColorIndex
 90
      256
102
RTVSPost2010Prop51ColorRGB
 90
-16777216
102
RTVSPost2010PropOp51
 70
     0
102
RTVSPost2010Prop52
140
1.0
102
RTVSPost2010PropOp52
 70
     0
102
RTVSPost2010Prop53
 90
        2
102
RTVSPost2010PropOp53
 70
     1
102
RTVSPost2010Prop54
  1
strokes_ogs.tif
102
RTVSPost2010PropOp54
 70
     1
102
RTVSPost2010Prop55
280
     0
102
RTVSPost2010PropOp55
 70
     1
102
RTVSPost2010Prop56
140
1.0
102
RTVSPost2010PropOp56
 70
     1
102
RTVSPost2010Prop57
140
1.0
102
RTVSPost2010PropOp57
 70
     1
102
RTVSPropertyOp0
 70
     1
102
RTVSPropertyOp1
 70
     1
102
RTVSPropertyOp2
 70
     1
102
RTVSPropertyOp3
 70
     1
102
RTVSPropertyOp4
 70
     1
102
RTVSPropertyOp5
 70
     1
102
RTVSPropertyOp6
 70
     1
102
RTVSPropertyOp7
 70
     1
102
RTVSPropertyOp8
 70
     1
102
RTVSPropertyOp9
 70
     1
102
RTVSPropertyOp10
 70
     1
102
RTVSPropertyOp11
 70
     1
102
RTVSPropertyOp12
 70
     1
102
RTVSPropertyOp13
 70
     1
102
RTVSPropertyOp14
 70
     1
102
RTVSPropertyOp15
 70
     1
102
RTVSPropertyOp16
 70
     1
102
RTVSPropertyOp17
 70
     1
102
RTVSPropertyOp18
 70
     1
102
RTVSPropertyOp19
 70
     1
102
RTVSPropertyOp20
 70
     1
102
RTVSPropertyOp21
 70
     1
102
RTVSPropertyOp22
 70
     1
102
RTVSPropertyOp23
 70
     1
102
RTVSPropertyOp24
 70
     1
102
RTVSPropertyOp25
 70
     1
102
RTVSPropertyOp26
 70
     1
102
RTVSPropertyOp27
 70
     1
102
RTVSPropertyOp28
 70
     1
102
RTVSPropertyOp29
 70
     1
102
RTVSPropertyOp30
 70
     1
102
RTVSPropertyOp31
 70
     1
102
RTVSPropertyOp32
 70
     1
102
RTVSPropertyOp33
 70
     1
102
RTVSPropertyOp34
 70
     1
102
RTVSPropertyOp35
 70
     1
102
RTVSPropertyOp36
 70
     1
102
RTVSPropertyOp37
 70
     1
102
RTVSPropertyOp38
 70
     1
102
RTVSPropertyOp39
 70
     1
102
RTVSPropertyOp40
 70
     1
102
RTVSPropertyOp41
 70
     1
102
RTVSPropertyOp42
 70
     1
102
RTVSPropertyOp43
 70
     1
102
RTVSPropertyOp44
 70
     1
102
RTVSPropertyOp45
 70
     1
102
RTVSPropertyOp46
 70
     1
102
RTVSPropertyOp47
 70
     1
102
RTVSPropertyOp48
 70
     1
102
RTVSPropertyOp49
 70
     1
102
RTVSPropertyOp50
 70
     1
102
RTVSPropertyOp51
 70
     0
102
RTVSPropertyOp52
 70
     0
102
RTVSPropertyOp53
 70
     1
102
RTVSPropertyOp54
 70
     1
102
RTVSPropertyOp55
 70
     1
102
RTVSPropertyOp56
 70
     1
102
RTVSPropertyOp57
 70
     1
102
RTVSPropertyOp58
 70
     1
102
RTVSPropertyOp59
 70
     1
102
RTVSPropertyOp60
 70
     1
102
RTVSPropertyOp61
 70
     1
102
RTVSPropertyOp62
 70
     1
  0
XRECORD
  5
20755
102
{ACAD_REACTORS
330
20754
102
}
330
20754
100
AcDbXrecord
280
     1
102
RTVSPost2010Prop28
280
     0
102
RTVSPost2010PropOp28
 70
     1
102
RTVSPost2010Prop29
280
     1
102
RTVSPost2010PropOp29
 70
     1
102
RTVSPost2010Prop30
280
     1
102
RTVSPost2010PropOp30
 70
     1
102
RTVSPost2010Prop31
280
     0
102
RTVSPost2010PropOp31
 70
     1
102
RTVSPost2010Prop32
280
     0
102
RTVSPost2010PropOp32
 70
     1
102
RTVSPost2010Prop33
280
     0
102
RTVSPost2010PropOp33
 70
     1
102
RTVSPost2010Prop34
280
     0
102
RTVSPost2010PropOp34
 70
     1
102
RTVSPost2010Prop35
280
     0
102
RTVSPost2010PropOp35
 70
     1
102
RTVSPost2010Prop36
280
     0
102
RTVSPost2010PropOp36
 70
     1
102
RTVSPost2010Prop37
 90
       50
102
RTVSPost2010PropOp37
 70
     1
102
RTVSPost2010Prop38
140
0.0
102
RTVSPost2010PropOp38
 70
     1
102
RTVSPost2010Prop39
140
1.0
102
RTVSPost2010PropOp39
 70
     1
102
RTVSPost2010Prop40
 90
        0
102
RTVSPost2010PropOp40
 70
     1
102
RTVSPost2010Prop41ColorIndex
 90
       18
102
RTVSPost2010Prop41ColorRGB
 90
        0
102
RTVSPost2010PropOp41
 70
     1
102
RTVSPost2010Prop42
 90
       50
102
RTVSPost2010PropOp42
 70
     1
102
RTVSPost2010Prop43
 90
        3
102
RTVSPost2010PropOp43
 70
     1
102
RTVSPost2010Prop44ColorIndex
 90
        5
102
RTVSPost2010Prop44ColorRGB
 90
      255
102
RTVSPost2010PropOp44
 70
     1
102
RTVSPost2010Prop45
280
     0
102
RTVSPost2010PropOp45
 70
     1
102
RTVSPost2010Prop46
 90
       50
102
RTVSPost2010PropOp46
 70
     1
102
RTVSPost2010Prop47
 90
       50
102
RTVSPost2010PropOp47
 70
     1
102
RTVSPost2010Prop48
 90
       50
102
RTVSPost2010PropOp48
 70
     1
102
RTVSPost2010Prop49
280
     0
102
RTVSPost2010PropOp49
 70
     1
102
RTVSPost2010Prop50
 90
       50
102
RTVSPost2010PropOp50
 70
     1
102
RTVSPost2010Prop51ColorIndex
 90
      256
102
RTVSPost2010Prop51ColorRGB
 90
-16777216
102
RTVSPost2010PropOp51
 70
     0
102
RTVSPost2010Prop52
140
1.0
102
RTVSPost2010PropOp52
 70
     0
102
RTVSPost2010Prop53
 90
        2
102
RTVSPost2010PropOp53
 70
     1
102
RTVSPost2010Prop54
  1
strokes_ogs.tif
102
RTVSPost2010PropOp54
 70
     1
102
RTVSPost2010Prop55
280
     0
102
RTVSPost2010PropOp55
 70
     1
102
RTVSPost2010Prop56
140
1.0
102
RTVSPost2010PropOp56
 70
     1
102
RTVSPost2010Prop57
140
1.0
102
RTVSPost2010PropOp57
 70
     1
102
RTVSPropertyOp0
 70
     1
102
RTVSPropertyOp1
 70
     1
102
RTVSPropertyOp2
 70
     1
102
RTVSPropertyOp3
 70
     1
102
RTVSPropertyOp4
 70
     1
102
RTVSPropertyOp5
 70
     1
102
RTVSPropertyOp6
 70
     1
102
RTVSPropertyOp7
 70
     1
102
RTVSPropertyOp8
 70
     1
102
RTVSPropertyOp9
 70
     1
102
RTVSPropertyOp10
 70
     1
102
RTVSPropertyOp11
 70
     1
102
RTVSPropertyOp12
 70
     1
102
RTVSPropertyOp13
 70
     1
102
RTVSPropertyOp14
 70
     1
102
RTVSPropertyOp15
 70
     1
102
RTVSPropertyOp16
 70
     1
102
RTVSPropertyOp17
 70
     1
102
RTVSPropertyOp18
 70
     1
102
RTVSPropertyOp19
 70
     1
102
RTVSPropertyOp20
 70
     1
102
RTVSPropertyOp21
 70
     1
102
RTVSPropertyOp22
 70
     1
102
RTVSPropertyOp23
 70
     1
102
RTVSPropertyOp24
 70
     1
102
RTVSPropertyOp25
 70
     1
102
RTVSPropertyOp26
 70
     1
102
RTVSPropertyOp27
 70
     1
102
RTVSPropertyOp28
 70
     1
102
RTVSPropertyOp29
 70
     1
102
RTVSPropertyOp30
 70
     1
102
RTVSPropertyOp31
 70
     1
102
RTVSPropertyOp32
 70
     1
102
RTVSPropertyOp33
 70
     1
102
RTVSPropertyOp34
 70
     1
102
RTVSPropertyOp35
 70
     1
102
RTVSPropertyOp36
 70
     1
102
RTVSPropertyOp37
 70
     1
102
RTVSPropertyOp38
 70
     1
102
RTVSPropertyOp39
 70
     1
102
RTVSPropertyOp40
 70
     1
102
RTVSPropertyOp41
 70
     1
102
RTVSPropertyOp42
 70
     1
102
RTVSPropertyOp43
 70
     1
102
RTVSPropertyOp44
 70
     1
102
RTVSPropertyOp45
 70
     1
102
RTVSPropertyOp46
 70
     1
102
RTVSPropertyOp47
 70
     1
102
RTVSPropertyOp48
 70
     1
102
RTVSPropertyOp49
 70
     1
102
RTVSPropertyOp50
 70
     1
102
RTVSPropertyOp51
 70
     0
102
RTVSPropertyOp52
 70
     0
102
RTVSPropertyOp53
 70
     1
102
RTVSPropertyOp54
 70
     1
102
RTVSPropertyOp55
 70
     1
102
RTVSPropertyOp56
 70
     1
102
RTVSPropertyOp57
 70
     1
102
RTVSPropertyOp58
 70
     1
102
RTVSPropertyOp59
 70
     1
102
RTVSPropertyOp60
 70
     1
102
RTVSPropertyOp61
 70
     1
102
RTVSPropertyOp62
 70
     1
  0
XRECORD
  5
2075D
102
{ACAD_REACTORS
330
2075C
102
}
330
2075C
100
AcDbXrecord
280
     1
102
RTVSPost2010Prop28
280
     0
102
RTVSPost2010PropOp28
 70
     1
102
RTVSPost2010Prop29
280
     1
102
RTVSPost2010PropOp29
 70
     1
102
RTVSPost2010Prop30
280
     1
102
RTVSPost2010PropOp30
 70
     1
102
RTVSPost2010Prop31
280
     0
102
RTVSPost2010PropOp31
 70
     1
102
RTVSPost2010Prop32
280
     0
102
RTVSPost2010PropOp32
 70
     1
102
RTVSPost2010Prop33
280
     0
102
RTVSPost2010PropOp33
 70
     1
102
RTVSPost2010Prop34
280
     0
102
RTVSPost2010PropOp34
 70
     1
102
RTVSPost2010Prop35
280
     0
102
RTVSPost2010PropOp35
 70
     1
102
RTVSPost2010Prop36
280
     0
102
RTVSPost2010PropOp36
 70
     1
102
RTVSPost2010Prop37
 90
       50
102
RTVSPost2010PropOp37
 70
     1
102
RTVSPost2010Prop38
140
0.0
102
RTVSPost2010PropOp38
 70
     1
102
RTVSPost2010Prop39
140
1.0
102
RTVSPost2010PropOp39
 70
     1
102
RTVSPost2010Prop40
 90
        0
102
RTVSPost2010PropOp40
 70
     1
102
RTVSPost2010Prop41ColorIndex
 90
       18
102
RTVSPost2010Prop41ColorRGB
 90
        0
102
RTVSPost2010PropOp41
 70
     1
102
RTVSPost2010Prop42
 90
       50
102
RTVSPost2010PropOp42
 70
     1
102
RTVSPost2010Prop43
 90
        3
102
RTVSPost2010PropOp43
 70
     1
102
RTVSPost2010Prop44ColorIndex
 90
        5
102
RTVSPost2010Prop44ColorRGB
 90
      255
102
RTVSPost2010PropOp44
 70
     1
102
RTVSPost2010Prop45
280
     0
102
RTVSPost2010PropOp45
 70
     1
102
RTVSPost2010Prop46
 90
       50
102
RTVSPost2010PropOp46
 70
     1
102
RTVSPost2010Prop47
 90
       50
102
RTVSPost2010PropOp47
 70
     1
102
RTVSPost2010Prop48
 90
       50
102
RTVSPost2010PropOp48
 70
     1
102
RTVSPost2010Prop49
280
     0
102
RTVSPost2010PropOp49
 70
     1
102
RTVSPost2010Prop50
 90
       50
102
RTVSPost2010PropOp50
 70
     1
102
RTVSPost2010Prop51ColorIndex
 90
      256
102
RTVSPost2010Prop51ColorRGB
 90
-16777216
102
RTVSPost2010PropOp51
 70
     0
102
RTVSPost2010Prop52
140
1.0
102
RTVSPost2010PropOp52
 70
     0
102
RTVSPost2010Prop53
 90
        2
102
RTVSPost2010PropOp53
 70
     1
102
RTVSPost2010Prop54
  1
strokes_ogs.tif
102
RTVSPost2010PropOp54
 70
     1
102
RTVSPost2010Prop55
280
     0
102
RTVSPost2010PropOp55
 70
     1
102
RTVSPost2010Prop56
140
1.0
102
RTVSPost2010PropOp56
 70
     1
102
RTVSPost2010Prop57
140
1.0
102
RTVSPost2010PropOp57
 70
     1
102
RTVSPropertyOp0
 70
     1
102
RTVSPropertyOp1
 70
     1
102
RTVSPropertyOp2
 70
     1
102
RTVSPropertyOp3
 70
     1
102
RTVSPropertyOp4
 70
     1
102
RTVSPropertyOp5
 70
     1
102
RTVSPropertyOp6
 70
     1
102
RTVSPropertyOp7
 70
     1
102
RTVSPropertyOp8
 70
     1
102
RTVSPropertyOp9
 70
     1
102
RTVSPropertyOp10
 70
     1
102
RTVSPropertyOp11
 70
     1
102
RTVSPropertyOp12
 70
     1
102
RTVSPropertyOp13
 70
     1
102
RTVSPropertyOp14
 70
     1
102
RTVSPropertyOp15
 70
     1
102
RTVSPropertyOp16
 70
     1
102
RTVSPropertyOp17
 70
     1
102
RTVSPropertyOp18
 70
     1
102
RTVSPropertyOp19
 70
     1
102
RTVSPropertyOp20
 70
     1
102
RTVSPropertyOp21
 70
     1
102
RTVSPropertyOp22
 70
     1
102
RTVSPropertyOp23
 70
     1
102
RTVSPropertyOp24
 70
     1
102
RTVSPropertyOp25
 70
     1
102
RTVSPropertyOp26
 70
     1
102
RTVSPropertyOp27
 70
     1
102
RTVSPropertyOp28
 70
     1
102
RTVSPropertyOp29
 70
     1
102
RTVSPropertyOp30
 70
     1
102
RTVSPropertyOp31
 70
     1
102
RTVSPropertyOp32
 70
     1
102
RTVSPropertyOp33
 70
     1
102
RTVSPropertyOp34
 70
     1
102
RTVSPropertyOp35
 70
     1
102
RTVSPropertyOp36
 70
     1
102
RTVSPropertyOp37
 70
     1
102
RTVSPropertyOp38
 70
     1
102
RTVSPropertyOp39
 70
     1
102
RTVSPropertyOp40
 70
     1
102
RTVSPropertyOp41
 70
     1
102
RTVSPropertyOp42
 70
     1
102
RTVSPropertyOp43
 70
     1
102
RTVSPropertyOp44
 70
     1
102
RTVSPropertyOp45
 70
     1
102
RTVSPropertyOp46
 70
     1
102
RTVSPropertyOp47
 70
     1
102
RTVSPropertyOp48
 70
     1
102
RTVSPropertyOp49
 70
     1
102
RTVSPropertyOp50
 70
     1
102
RTVSPropertyOp51
 70
     0
102
RTVSPropertyOp52
 70
     0
102
RTVSPropertyOp53
 70
     1
102
RTVSPropertyOp54
 70
     1
102
RTVSPropertyOp55
 70
     1
102
RTVSPropertyOp56
 70
     1
102
RTVSPropertyOp57
 70
     1
102
RTVSPropertyOp58
 70
     1
102
RTVSPropertyOp59
 70
     1
102
RTVSPropertyOp60
 70
     1
102
RTVSPropertyOp61
 70
     1
102
RTVSPropertyOp62
 70
     1
  0
XRECORD
  5
2074F
102
{ACAD_REACTORS
330
2074E
102
}
330
2074E
100
AcDbXrecord
280
     1
102
RTVSPost2010Prop28
280
     0
102
RTVSPost2010PropOp28
 70
     1
102
RTVSPost2010Prop29
280
     1
102
RTVSPost2010PropOp29
 70
     1
102
RTVSPost2010Prop30
280
     1
102
RTVSPost2010PropOp30
 70
     1
102
RTVSPost2010Prop31
280
     0
102
RTVSPost2010PropOp31
 70
     1
102
RTVSPost2010Prop32
280
     0
102
RTVSPost2010PropOp32
 70
     1
102
RTVSPost2010Prop33
280
     0
102
RTVSPost2010PropOp33
 70
     1
102
RTVSPost2010Prop34
280
     0
102
RTVSPost2010PropOp34
 70
     1
102
RTVSPost2010Prop35
280
     0
102
RTVSPost2010PropOp35
 70
     1
102
RTVSPost2010Prop36
280
     0
102
RTVSPost2010PropOp36
 70
     1
102
RTVSPost2010Prop37
 90
       50
102
RTVSPost2010PropOp37
 70
     1
102
RTVSPost2010Prop38
140
0.0
102
RTVSPost2010PropOp38
 70
     1
102
RTVSPost2010Prop39
140
1.0
102
RTVSPost2010PropOp39
 70
     1
102
RTVSPost2010Prop40
 90
        0
102
RTVSPost2010PropOp40
 70
     1
102
RTVSPost2010Prop41ColorIndex
 90
       18
102
RTVSPost2010Prop41ColorRGB
 90
        0
102
RTVSPost2010PropOp41
 70
     1
102
RTVSPost2010Prop42
 90
       50
102
RTVSPost2010PropOp42
 70
     1
102
RTVSPost2010Prop43
 90
        3
102
RTVSPost2010PropOp43
 70
     1
102
RTVSPost2010Prop44ColorIndex
 90
        5
102
RTVSPost2010Prop44ColorRGB
 90
      255
102
RTVSPost2010PropOp44
 70
     1
102
RTVSPost2010Prop45
280
     0
102
RTVSPost2010PropOp45
 70
     1
102
RTVSPost2010Prop46
 90
       50
102
RTVSPost2010PropOp46
 70
     1
102
RTVSPost2010Prop47
 90
       50
102
RTVSPost2010PropOp47
 70
     1
102
RTVSPost2010Prop48
 90
       50
102
RTVSPost2010PropOp48
 70
     1
102
RTVSPost2010Prop49
280
     0
102
RTVSPost2010PropOp49
 70
     1
102
RTVSPost2010Prop50
 90
       50
102
RTVSPost2010PropOp50
 70
     1
102
RTVSPost2010Prop51ColorIndex
 90
      256
102
RTVSPost2010Prop51ColorRGB
 90
-16777216
102
RTVSPost2010PropOp51
 70
     0
102
RTVSPost2010Prop52
140
1.0
102
RTVSPost2010PropOp52
 70
     0
102
RTVSPost2010Prop53
 90
        2
102
RTVSPost2010PropOp53
 70
     1
102
RTVSPost2010Prop54
  1
strokes_ogs.tif
102
RTVSPost2010PropOp54
 70
     1
102
RTVSPost2010Prop55
280
     0
102
RTVSPost2010PropOp55
 70
     1
102
RTVSPost2010Prop56
140
1.0
102
RTVSPost2010PropOp56
 70
     1
102
RTVSPost2010Prop57
140
1.0
102
RTVSPost2010PropOp57
 70
     1
102
RTVSPropertyOp0
 70
     1
102
RTVSPropertyOp1
 70
     1
102
RTVSPropertyOp2
 70
     1
102
RTVSPropertyOp3
 70
     1
102
RTVSPropertyOp4
 70
     1
102
RTVSPropertyOp5
 70
     1
102
RTVSPropertyOp6
 70
     1
102
RTVSPropertyOp7
 70
     1
102
RTVSPropertyOp8
 70
     1
102
RTVSPropertyOp9
 70
     1
102
RTVSPropertyOp10
 70
     1
102
RTVSPropertyOp11
 70
     1
102
RTVSPropertyOp12
 70
     1
102
RTVSPropertyOp13
 70
     1
102
RTVSPropertyOp14
 70
     1
102
RTVSPropertyOp15
 70
     1
102
RTVSPropertyOp16
 70
     1
102
RTVSPropertyOp17
 70
     1
102
RTVSPropertyOp18
 70
     1
102
RTVSPropertyOp19
 70
     1
102
RTVSPropertyOp20
 70
     1
102
RTVSPropertyOp21
 70
     1
102
RTVSPropertyOp22
 70
     1
102
RTVSPropertyOp23
 70
     1
102
RTVSPropertyOp24
 70
     1
102
RTVSPropertyOp25
 70
     1
102
RTVSPropertyOp26
 70
     1
102
RTVSPropertyOp27
 70
     1
102
RTVSPropertyOp28
 70
     1
102
RTVSPropertyOp29
 70
     1
102
RTVSPropertyOp30
 70
     1
102
RTVSPropertyOp31
 70
     1
102
RTVSPropertyOp32
 70
     1
102
RTVSPropertyOp33
 70
     1
102
RTVSPropertyOp34
 70
     1
102
RTVSPropertyOp35
 70
     1
102
RTVSPropertyOp36
 70
     1
102
RTVSPropertyOp37
 70
     1
102
RTVSPropertyOp38
 70
     1
102
RTVSPropertyOp39
 70
     1
102
RTVSPropertyOp40
 70
     1
102
RTVSPropertyOp41
 70
     1
102
RTVSPropertyOp42
 70
     1
102
RTVSPropertyOp43
 70
     1
102
RTVSPropertyOp44
 70
     1
102
RTVSPropertyOp45
 70
     1
102
RTVSPropertyOp46
 70
     1
102
RTVSPropertyOp47
 70
     1
102
RTVSPropertyOp48
 70
     1
102
RTVSPropertyOp49
 70
     1
102
RTVSPropertyOp50
 70
     1
102
RTVSPropertyOp51
 70
     0
102
RTVSPropertyOp52
 70
     0
102
RTVSPropertyOp53
 70
     1
102
RTVSPropertyOp54
 70
     1
102
RTVSPropertyOp55
 70
     1
102
RTVSPropertyOp56
 70
     1
102
RTVSPropertyOp57
 70
     1
102
RTVSPropertyOp58
 70
     1
102
RTVSPropertyOp59
 70
     1
102
RTVSPropertyOp60
 70
     1
102
RTVSPropertyOp61
 70
     1
102
RTVSPropertyOp62
 70
     1
  0
XRECORD
  5
20753
102
{ACAD_REACTORS
330
20752
102
}
330
20752
100
AcDbXrecord
280
     1
102
RTVSPost2010Prop28
280
     0
102
RTVSPost2010PropOp28
 70
     1
102
RTVSPost2010Prop29
280
     1
102
RTVSPost2010PropOp29
 70
     1
102
RTVSPost2010Prop30
280
     1
102
RTVSPost2010PropOp30
 70
     1
102
RTVSPost2010Prop31
280
     0
102
RTVSPost2010PropOp31
 70
     1
102
RTVSPost2010Prop32
280
     0
102
RTVSPost2010PropOp32
 70
     1
102
RTVSPost2010Prop33
280
     0
102
RTVSPost2010PropOp33
 70
     1
102
RTVSPost2010Prop34
280
     0
102
RTVSPost2010PropOp34
 70
     1
102
RTVSPost2010Prop35
280
     0
102
RTVSPost2010PropOp35
 70
     1
102
RTVSPost2010Prop36
280
     0
102
RTVSPost2010PropOp36
 70
     1
102
RTVSPost2010Prop37
 90
       50
102
RTVSPost2010PropOp37
 70
     1
102
RTVSPost2010Prop38
140
0.0
102
RTVSPost2010PropOp38
 70
     1
102
RTVSPost2010Prop39
140
1.0
102
RTVSPost2010PropOp39
 70
     1
102
RTVSPost2010Prop40
 90
        0
102
RTVSPost2010PropOp40
 70
     1
102
RTVSPost2010Prop41ColorIndex
 90
       18
102
RTVSPost2010Prop41ColorRGB
 90
        0
102
RTVSPost2010PropOp41
 70
     1
102
RTVSPost2010Prop42
 90
       50
102
RTVSPost2010PropOp42
 70
     1
102
RTVSPost2010Prop43
 90
        3
102
RTVSPost2010PropOp43
 70
     1
102
RTVSPost2010Prop44ColorIndex
 90
        5
102
RTVSPost2010Prop44ColorRGB
 90
      255
102
RTVSPost2010PropOp44
 70
     1
102
RTVSPost2010Prop45
280
     0
102
RTVSPost2010PropOp45
 70
     1
102
RTVSPost2010Prop46
 90
       50
102
RTVSPost2010PropOp46
 70
     1
102
RTVSPost2010Prop47
 90
       50
102
RTVSPost2010PropOp47
 70
     1
102
RTVSPost2010Prop48
 90
       50
102
RTVSPost2010PropOp48
 70
     1
102
RTVSPost2010Prop49
280
     0
102
RTVSPost2010PropOp49
 70
     1
102
RTVSPost2010Prop50
 90
       50
102
RTVSPost2010PropOp50
 70
     1
102
RTVSPost2010Prop51ColorIndex
 90
      256
102
RTVSPost2010Prop51ColorRGB
 90
-16777216
102
RTVSPost2010PropOp51
 70
     0
102
RTVSPost2010Prop52
140
1.0
102
RTVSPost2010PropOp52
 70
     0
102
RTVSPost2010Prop53
 90
        2
102
RTVSPost2010PropOp53
 70
     1
102
RTVSPost2010Prop54
  1
strokes_ogs.tif
102
RTVSPost2010PropOp54
 70
     1
102
RTVSPost2010Prop55
280
     0
102
RTVSPost2010PropOp55
 70
     1
102
RTVSPost2010Prop56
140
1.0
102
RTVSPost2010PropOp56
 70
     1
102
RTVSPost2010Prop57
140
1.0
102
RTVSPost2010PropOp57
 70
     1
102
RTVSPropertyOp0
 70
     1
102
RTVSPropertyOp1
 70
     1
102
RTVSPropertyOp2
 70
     1
102
RTVSPropertyOp3
 70
     1
102
RTVSPropertyOp4
 70
     1
102
RTVSPropertyOp5
 70
     1
102
RTVSPropertyOp6
 70
     1
102
RTVSPropertyOp7
 70
     1
102
RTVSPropertyOp8
 70
     1
102
RTVSPropertyOp9
 70
     1
102
RTVSPropertyOp10
 70
     1
102
RTVSPropertyOp11
 70
     1
102
RTVSPropertyOp12
 70
     1
102
RTVSPropertyOp13
 70
     1
102
RTVSPropertyOp14
 70
     1
102
RTVSPropertyOp15
 70
     1
102
RTVSPropertyOp16
 70
     1
102
RTVSPropertyOp17
 70
     1
102
RTVSPropertyOp18
 70
     1
102
RTVSPropertyOp19
 70
     1
102
RTVSPropertyOp20
 70
     1
102
RTVSPropertyOp21
 70
     1
102
RTVSPropertyOp22
 70
     1
102
RTVSPropertyOp23
 70
     1
102
RTVSPropertyOp24
 70
     1
102
RTVSPropertyOp25
 70
     1
102
RTVSPropertyOp26
 70
     1
102
RTVSPropertyOp27
 70
     1
102
RTVSPropertyOp28
 70
     1
102
RTVSPropertyOp29
 70
     1
102
RTVSPropertyOp30
 70
     1
102
RTVSPropertyOp31
 70
     1
102
RTVSPropertyOp32
 70
     1
102
RTVSPropertyOp33
 70
     1
102
RTVSPropertyOp34
 70
     1
102
RTVSPropertyOp35
 70
     1
102
RTVSPropertyOp36
 70
     1
102
RTVSPropertyOp37
 70
     1
102
RTVSPropertyOp38
 70
     1
102
RTVSPropertyOp39
 70
     1
102
RTVSPropertyOp40
 70
     1
102
RTVSPropertyOp41
 70
     1
102
RTVSPropertyOp42
 70
     1
102
RTVSPropertyOp43
 70
     1
102
RTVSPropertyOp44
 70
     1
102
RTVSPropertyOp45
 70
     1
102
RTVSPropertyOp46
 70
     1
102
RTVSPropertyOp47
 70
     1
102
RTVSPropertyOp48
 70
     1
102
RTVSPropertyOp49
 70
     1
102
RTVSPropertyOp50
 70
     1
102
RTVSPropertyOp51
 70
     0
102
RTVSPropertyOp52
 70
     0
102
RTVSPropertyOp53
 70
     1
102
RTVSPropertyOp54
 70
     1
102
RTVSPropertyOp55
 70
     1
102
RTVSPropertyOp56
 70
     1
102
RTVSPropertyOp57
 70
     1
102
RTVSPropertyOp58
 70
     1
102
RTVSPropertyOp59
 70
     1
102
RTVSPropertyOp60
 70
     1
102
RTVSPropertyOp61
 70
     1
102
RTVSPropertyOp62
 70
     1
  0
XRECORD
  5
2076D
102
{ACAD_REACTORS
330
2076C
102
}
330
2076C
100
AcDbXrecord
280
     1
102
RTVSPost2010Prop28
280
     0
102
RTVSPost2010PropOp28
 70
     0
102
RTVSPost2010Prop29
280
     1
102
RTVSPost2010PropOp29
 70
     0
102
RTVSPost2010Prop30
280
     1
102
RTVSPost2010PropOp30
 70
     0
102
RTVSPost2010Prop31
280
     0
102
RTVSPost2010PropOp31
 70
     0
102
RTVSPost2010Prop32
280
     0
102
RTVSPost2010PropOp32
 70
     0
102
RTVSPost2010Prop33
280
     0
102
RTVSPost2010PropOp33
 70
     0
102
RTVSPost2010Prop34
280
     0
102
RTVSPost2010PropOp34
 70
     0
102
RTVSPost2010Prop35
280
     0
102
RTVSPost2010PropOp35
 70
     0
102
RTVSPost2010Prop36
280
     0
102
RTVSPost2010PropOp36
 70
     0
102
RTVSPost2010Prop37
 90
       50
102
RTVSPost2010PropOp37
 70
     0
102
RTVSPost2010Prop38
140
0.0
102
RTVSPost2010PropOp38
 70
     0
102
RTVSPost2010Prop39
140
1.0
102
RTVSPost2010PropOp39
 70
     0
102
RTVSPost2010Prop40
 90
        0
102
RTVSPost2010PropOp40
 70
     0
102
RTVSPost2010Prop41ColorIndex
 90
       18
102
RTVSPost2010Prop41ColorRGB
 90
        0
102
RTVSPost2010PropOp41
 70
     0
102
RTVSPost2010Prop42
 90
       50
102
RTVSPost2010PropOp42
 70
     0
102
RTVSPost2010Prop43
 90
        3
102
RTVSPost2010PropOp43
 70
     0
102
RTVSPost2010Prop44ColorIndex
 90
        5
102
RTVSPost2010Prop44ColorRGB
 90
      255
102
RTVSPost2010PropOp44
 70
     0
102
RTVSPost2010Prop45
280
     0
102
RTVSPost2010PropOp45
 70
     0
102
RTVSPost2010Prop46
 90
       50
102
RTVSPost2010PropOp46
 70
     0
102
RTVSPost2010Prop47
 90
       50
102
RTVSPost2010PropOp47
 70
     0
102
RTVSPost2010Prop48
 90
       50
102
RTVSPost2010PropOp48
 70
     0
102
RTVSPost2010Prop49
280
     0
102
RTVSPost2010PropOp49
 70
     0
102
RTVSPost2010Prop50
 90
       50
102
RTVSPost2010PropOp50
 70
     0
102
RTVSPost2010Prop51ColorIndex
 90
      256
102
RTVSPost2010Prop51ColorRGB
 90
-16777216
102
RTVSPost2010PropOp51
 70
     0
102
RTVSPost2010Prop52
140
1.0
102
RTVSPost2010PropOp52
 70
     0
102
RTVSPost2010Prop53
 90
        2
102
RTVSPost2010PropOp53
 70
     0
102
RTVSPost2010Prop54
  1
strokes_ogs.tif
102
RTVSPost2010PropOp54
 70
     0
102
RTVSPost2010Prop55
280
     0
102
RTVSPost2010PropOp55
 70
     0
102
RTVSPost2010Prop56
140
1.0
102
RTVSPost2010PropOp56
 70
     0
102
RTVSPost2010Prop57
140
1.0
102
RTVSPost2010PropOp57
 70
     0
102
RTVSPropertyOp0
 70
     0
102
RTVSPropertyOp1
 70
     0
102
RTVSPropertyOp2
 70
     0
102
RTVSPropertyOp3
 70
     0
102
RTVSPropertyOp4
 70
     0
102
RTVSPropertyOp5
 70
     0
102
RTVSPropertyOp6
 70
     0
102
RTVSPropertyOp7
 70
     0
102
RTVSPropertyOp8
 70
     0
102
RTVSPropertyOp9
 70
     0
102
RTVSPropertyOp10
 70
     0
102
RTVSPropertyOp11
 70
     0
102
RTVSPropertyOp12
 70
     0
102
RTVSPropertyOp13
 70
     0
102
RTVSPropertyOp14
 70
     2
102
RTVSPropertyOp15
 70
     0
102
RTVSPropertyOp16
 70
     0
102
RTVSPropertyOp17
 70
     0
102
RTVSPropertyOp18
 70
     0
102
RTVSPropertyOp19
 70
     0
102
RTVSPropertyOp20
 70
     0
102
RTVSPropertyOp21
 70
     0
102
RTVSPropertyOp22
 70
     0
102
RTVSPropertyOp23
 70
     0
102
RTVSPropertyOp24
 70
     0
102
RTVSPropertyOp25
 70
     0
102
RTVSPropertyOp26
 70
     0
102
RTVSPropertyOp27
 70
     0
102
RTVSPropertyOp28
 70
     0
102
RTVSPropertyOp29
 70
     0
102
RTVSPropertyOp30
 70
     0
102
RTVSPropertyOp31
 70
     0
102
RTVSPropertyOp32
 70
     0
102
RTVSPropertyOp33
 70
     0
102
RTVSPropertyOp34
 70
     0
102
RTVSPropertyOp35
 70
     0
102
RTVSPropertyOp36
 70
     0
102
RTVSPropertyOp37
 70
     0
102
RTVSPropertyOp38
 70
     0
102
RTVSPropertyOp39
 70
     0
102
RTVSPropertyOp40
 70
     0
102
RTVSPropertyOp41
 70
     0
102
RTVSPropertyOp42
 70
     0
102
RTVSPropertyOp43
 70
     0
102
RTVSPropertyOp44
 70
     0
102
RTVSPropertyOp45
 70
     0
102
RTVSPropertyOp46
 70
     0
102
RTVSPropertyOp47
 70
     0
102
RTVSPropertyOp48
 70
     0
102
RTVSPropertyOp49
 70
     0
102
RTVSPropertyOp50
 70
     0
102
RTVSPropertyOp51
 70
     0
102
RTVSPropertyOp52
 70
     0
102
RTVSPropertyOp53
 70
     0
102
RTVSPropertyOp54
 70
     0
102
RTVSPropertyOp55
 70
     0
102
RTVSPropertyOp56
 70
     0
102
RTVSPropertyOp57
 70
     0
102
RTVSPropertyOp58
 70
     1
102
RTVSPropertyOp59
 70
     1
102
RTVSPropertyOp60
 70
     1
102
RTVSPropertyOp61
 70
     1
102
RTVSPropertyOp62
 70
     1
  0
XRECORD
  5
2075B
102
{ACAD_REACTORS
330
2075A
102
}
330
2075A
100
AcDbXrecord
280
     1
102
RTVSPost2010Prop28
280
     0
102
RTVSPost2010PropOp28
 70
     1
102
RTVSPost2010Prop29
280
     1
102
RTVSPost2010PropOp29
 70
     1
102
RTVSPost2010Prop30
280
     1
102
RTVSPost2010PropOp30
 70
     1
102
RTVSPost2010Prop31
280
     0
102
RTVSPost2010PropOp31
 70
     1
102
RTVSPost2010Prop32
280
     0
102
RTVSPost2010PropOp32
 70
     1
102
RTVSPost2010Prop33
280
     0
102
RTVSPost2010PropOp33
 70
     1
102
RTVSPost2010Prop34
280
     0
102
RTVSPost2010PropOp34
 70
     1
102
RTVSPost2010Prop35
280
     0
102
RTVSPost2010PropOp35
 70
     1
102
RTVSPost2010Prop36
280
     0
102
RTVSPost2010PropOp36
 70
     1
102
RTVSPost2010Prop37
 90
       50
102
RTVSPost2010PropOp37
 70
     1
102
RTVSPost2010Prop38
140
0.0
102
RTVSPost2010PropOp38
 70
     1
102
RTVSPost2010Prop39
140
1.0
102
RTVSPost2010PropOp39
 70
     1
102
RTVSPost2010Prop40
 90
        0
102
RTVSPost2010PropOp40
 70
     1
102
RTVSPost2010Prop41ColorIndex
 90
       18
102
RTVSPost2010Prop41ColorRGB
 90
        0
102
RTVSPost2010PropOp41
 70
     1
102
RTVSPost2010Prop42
 90
       50
102
RTVSPost2010PropOp42
 70
     1
102
RTVSPost2010Prop43
 90
        3
102
RTVSPost2010PropOp43
 70
     1
102
RTVSPost2010Prop44ColorIndex
 90
        5
102
RTVSPost2010Prop44ColorRGB
 90
      255
102
RTVSPost2010PropOp44
 70
     1
102
RTVSPost2010Prop45
280
     0
102
RTVSPost2010PropOp45
 70
     1
102
RTVSPost2010Prop46
 90
       50
102
RTVSPost2010PropOp46
 70
     1
102
RTVSPost2010Prop47
 90
       50
102
RTVSPost2010PropOp47
 70
     1
102
RTVSPost2010Prop48
 90
       50
102
RTVSPost2010PropOp48
 70
     1
102
RTVSPost2010Prop49
280
     0
102
RTVSPost2010PropOp49
 70
     1
102
RTVSPost2010Prop50
 90
       50
102
RTVSPost2010PropOp50
 70
     1
102
RTVSPost2010Prop51ColorIndex
 90
      256
102
RTVSPost2010Prop51ColorRGB
 90
-16777216
102
RTVSPost2010PropOp51
 70
     0
102
RTVSPost2010Prop52
140
1.0
102
RTVSPost2010PropOp52
 70
     0
102
RTVSPost2010Prop53
 90
        2
102
RTVSPost2010PropOp53
 70
     1
102
RTVSPost2010Prop54
  1
strokes_ogs.tif
102
RTVSPost2010PropOp54
 70
     1
102
RTVSPost2010Prop55
280
     0
102
RTVSPost2010PropOp55
 70
     1
102
RTVSPost2010Prop56
140
1.0
102
RTVSPost2010PropOp56
 70
     1
102
RTVSPost2010Prop57
140
1.0
102
RTVSPost2010PropOp57
 70
     1
102
RTVSPropertyOp0
 70
     1
102
RTVSPropertyOp1
 70
     1
102
RTVSPropertyOp2
 70
     1
102
RTVSPropertyOp3
 70
     1
102
RTVSPropertyOp4
 70
     1
102
RTVSPropertyOp5
 70
     1
102
RTVSPropertyOp6
 70
     1
102
RTVSPropertyOp7
 70
     1
102
RTVSPropertyOp8
 70
     1
102
RTVSPropertyOp9
 70
     1
102
RTVSPropertyOp10
 70
     1
102
RTVSPropertyOp11
 70
     1
102
RTVSPropertyOp12
 70
     1
102
RTVSPropertyOp13
 70
     1
102
RTVSPropertyOp14
 70
     1
102
RTVSPropertyOp15
 70
     1
102
RTVSPropertyOp16
 70
     1
102
RTVSPropertyOp17
 70
     1
102
RTVSPropertyOp18
 70
     1
102
RTVSPropertyOp19
 70
     1
102
RTVSPropertyOp20
 70
     1
102
RTVSPropertyOp21
 70
     1
102
RTVSPropertyOp22
 70
     1
102
RTVSPropertyOp23
 70
     1
102
RTVSPropertyOp24
 70
     1
102
RTVSPropertyOp25
 70
     1
102
RTVSPropertyOp26
 70
     1
102
RTVSPropertyOp27
 70
     1
102
RTVSPropertyOp28
 70
     1
102
RTVSPropertyOp29
 70
     1
102
RTVSPropertyOp30
 70
     1
102
RTVSPropertyOp31
 70
     1
102
RTVSPropertyOp32
 70
     1
102
RTVSPropertyOp33
 70
     1
102
RTVSPropertyOp34
 70
     1
102
RTVSPropertyOp35
 70
     1
102
RTVSPropertyOp36
 70
     1
102
RTVSPropertyOp37
 70
     1
102
RTVSPropertyOp38
 70
     1
102
RTVSPropertyOp39
 70
     1
102
RTVSPropertyOp40
 70
     1
102
RTVSPropertyOp41
 70
     1
102
RTVSPropertyOp42
 70
     1
102
RTVSPropertyOp43
 70
     1
102
RTVSPropertyOp44
 70
     1
102
RTVSPropertyOp45
 70
     1
102
RTVSPropertyOp46
 70
     1
102
RTVSPropertyOp47
 70
     1
102
RTVSPropertyOp48
 70
     1
102
RTVSPropertyOp49
 70
     1
102
RTVSPropertyOp50
 70
     1
102
RTVSPropertyOp51
 70
     0
102
RTVSPropertyOp52
 70
     0
102
RTVSPropertyOp53
 70
     1
102
RTVSPropertyOp54
 70
     1
102
RTVSPropertyOp55
 70
     1
102
RTVSPropertyOp56
 70
     1
102
RTVSPropertyOp57
 70
     1
102
RTVSPropertyOp58
 70
     1
102
RTVSPropertyOp59
 70
     1
102
RTVSPropertyOp60
 70
     1
102
RTVSPropertyOp61
 70
     1
102
RTVSPropertyOp62
 70
     1
  0
XRECORD
  5
2073F
102
{ACAD_REACTORS
330
2073E
102
}
330
2073E
100
AcDbXrecord
280
     1
102
RTVSPost2010Prop28
280
     0
102
RTVSPost2010PropOp28
 70
     1
102
RTVSPost2010Prop29
280
     1
102
RTVSPost2010PropOp29
 70
     1
102
RTVSPost2010Prop30
280
     1
102
RTVSPost2010PropOp30
 70
     1
102
RTVSPost2010Prop31
280
     0
102
RTVSPost2010PropOp31
 70
     1
102
RTVSPost2010Prop32
280
     0
102
RTVSPost2010PropOp32
 70
     1
102
RTVSPost2010Prop33
280
     0
102
RTVSPost2010PropOp33
 70
     1
102
RTVSPost2010Prop34
280
     0
102
RTVSPost2010PropOp34
 70
     1
102
RTVSPost2010Prop35
280
     0
102
RTVSPost2010PropOp35
 70
     1
102
RTVSPost2010Prop36
280
     0
102
RTVSPost2010PropOp36
 70
     1
102
RTVSPost2010Prop37
 90
       50
102
RTVSPost2010PropOp37
 70
     1
102
RTVSPost2010Prop38
140
0.0
102
RTVSPost2010PropOp38
 70
     1
102
RTVSPost2010Prop39
140
1.0
102
RTVSPost2010PropOp39
 70
     1
102
RTVSPost2010Prop40
 90
        0
102
RTVSPost2010PropOp40
 70
     1
102
RTVSPost2010Prop41ColorIndex
 90
       18
102
RTVSPost2010Prop41ColorRGB
 90
        0
102
RTVSPost2010PropOp41
 70
     1
102
RTVSPost2010Prop42
 90
       50
102
RTVSPost2010PropOp42
 70
     1
102
RTVSPost2010Prop43
 90
        3
102
RTVSPost2010PropOp43
 70
     1
102
RTVSPost2010Prop44ColorIndex
 90
        5
102
RTVSPost2010Prop44ColorRGB
 90
      255
102
RTVSPost2010PropOp44
 70
     1
102
RTVSPost2010Prop45
280
     0
102
RTVSPost2010PropOp45
 70
     1
102
RTVSPost2010Prop46
 90
       50
102
RTVSPost2010PropOp46
 70
     1
102
RTVSPost2010Prop47
 90
       50
102
RTVSPost2010PropOp47
 70
     1
102
RTVSPost2010Prop48
 90
       50
102
RTVSPost2010PropOp48
 70
     1
102
RTVSPost2010Prop49
280
     0
102
RTVSPost2010PropOp49
 70
     1
102
RTVSPost2010Prop50
 90
       50
102
RTVSPost2010PropOp50
 70
     1
102
RTVSPost2010Prop51ColorIndex
 90
      256
102
RTVSPost2010Prop51ColorRGB
 90
-16777216
102
RTVSPost2010PropOp51
 70
     0
102
RTVSPost2010Prop52
140
1.0
102
RTVSPost2010PropOp52
 70
     0
102
RTVSPost2010Prop53
 90
        2
102
RTVSPost2010PropOp53
 70
     1
102
RTVSPost2010Prop54
  1
strokes_ogs.tif
102
RTVSPost2010PropOp54
 70
     1
102
RTVSPost2010Prop55
280
     0
102
RTVSPost2010PropOp55
 70
     1
102
RTVSPost2010Prop56
140
1.0
102
RTVSPost2010PropOp56
 70
     1
102
RTVSPost2010Prop57
140
1.0
102
RTVSPost2010PropOp57
 70
     1
102
RTVSPropertyOp0
 70
     1
102
RTVSPropertyOp1
 70
     1
102
RTVSPropertyOp2
 70
     1
102
RTVSPropertyOp3
 70
     1
102
RTVSPropertyOp4
 70
     1
102
RTVSPropertyOp5
 70
     1
102
RTVSPropertyOp6
 70
     1
102
RTVSPropertyOp7
 70
     1
102
RTVSPropertyOp8
 70
     1
102
RTVSPropertyOp9
 70
     1
102
RTVSPropertyOp10
 70
     1
102
RTVSPropertyOp11
 70
     1
102
RTVSPropertyOp12
 70
     1
102
RTVSPropertyOp13
 70
     1
102
RTVSPropertyOp14
 70
     1
102
RTVSPropertyOp15
 70
     1
102
RTVSPropertyOp16
 70
     1
102
RTVSPropertyOp17
 70
     1
102
RTVSPropertyOp18
 70
     1
102
RTVSPropertyOp19
 70
     1
102
RTVSPropertyOp20
 70
     1
102
RTVSPropertyOp21
 70
     1
102
RTVSPropertyOp22
 70
     1
102
RTVSPropertyOp23
 70
     1
102
RTVSPropertyOp24
 70
     1
102
RTVSPropertyOp25
 70
     1
102
RTVSPropertyOp26
 70
     1
102
RTVSPropertyOp27
 70
     1
102
RTVSPropertyOp28
 70
     1
102
RTVSPropertyOp29
 70
     1
102
RTVSPropertyOp30
 70
     1
102
RTVSPropertyOp31
 70
     1
102
RTVSPropertyOp32
 70
     1
102
RTVSPropertyOp33
 70
     1
102
RTVSPropertyOp34
 70
     1
102
RTVSPropertyOp35
 70
     1
102
RTVSPropertyOp36
 70
     1
102
RTVSPropertyOp37
 70
     1
102
RTVSPropertyOp38
 70
     1
102
RTVSPropertyOp39
 70
     1
102
RTVSPropertyOp40
 70
     1
102
RTVSPropertyOp41
 70
     1
102
RTVSPropertyOp42
 70
     1
102
RTVSPropertyOp43
 70
     1
102
RTVSPropertyOp44
 70
     1
102
RTVSPropertyOp45
 70
     1
102
RTVSPropertyOp46
 70
     1
102
RTVSPropertyOp47
 70
     1
102
RTVSPropertyOp48
 70
     1
102
RTVSPropertyOp49
 70
     1
102
RTVSPropertyOp50
 70
     1
102
RTVSPropertyOp51
 70
     0
102
RTVSPropertyOp52
 70
     0
102
RTVSPropertyOp53
 70
     1
102
RTVSPropertyOp54
 70
     1
102
RTVSPropertyOp55
 70
     1
102
RTVSPropertyOp56
 70
     1
102
RTVSPropertyOp57
 70
     1
102
RTVSPropertyOp58
 70
     1
102
RTVSPropertyOp59
 70
     1
102
RTVSPropertyOp60
 70
     1
102
RTVSPropertyOp61
 70
     1
102
RTVSPropertyOp62
 70
     1
  0
XRECORD
  5
20741
102
{ACAD_REACTORS
330
20740
102
}
330
20740
100
AcDbXrecord
280
     1
102
RTVSPost2010Prop28
280
     0
102
RTVSPost2010PropOp28
 70
     1
102
RTVSPost2010Prop29
280
     1
102
RTVSPost2010PropOp29
 70
     1
102
RTVSPost2010Prop30
280
     1
102
RTVSPost2010PropOp30
 70
     1
102
RTVSPost2010Prop31
280
     0
102
RTVSPost2010PropOp31
 70
     1
102
RTVSPost2010Prop32
280
     0
102
RTVSPost2010PropOp32
 70
     1
102
RTVSPost2010Prop33
280
     0
102
RTVSPost2010PropOp33
 70
     1
102
RTVSPost2010Prop34
280
     0
102
RTVSPost2010PropOp34
 70
     1
102
RTVSPost2010Prop35
280
     0
102
RTVSPost2010PropOp35
 70
     1
102
RTVSPost2010Prop36
280
     0
102
RTVSPost2010PropOp36
 70
     1
102
RTVSPost2010Prop37
 90
       50
102
RTVSPost2010PropOp37
 70
     1
102
RTVSPost2010Prop38
140
0.0
102
RTVSPost2010PropOp38
 70
     1
102
RTVSPost2010Prop39
140
1.0
102
RTVSPost2010PropOp39
 70
     1
102
RTVSPost2010Prop40
 90
        0
102
RTVSPost2010PropOp40
 70
     1
102
RTVSPost2010Prop41ColorIndex
 90
       18
102
RTVSPost2010Prop41ColorRGB
 90
        0
102
RTVSPost2010PropOp41
 70
     1
102
RTVSPost2010Prop42
 90
       50
102
RTVSPost2010PropOp42
 70
     1
102
RTVSPost2010Prop43
 90
        3
102
RTVSPost2010PropOp43
 70
     1
102
RTVSPost2010Prop44ColorIndex
 90
        5
102
RTVSPost2010Prop44ColorRGB
 90
      255
102
RTVSPost2010PropOp44
 70
     1
102
RTVSPost2010Prop45
280
     0
102
RTVSPost2010PropOp45
 70
     1
102
RTVSPost2010Prop46
 90
       50
102
RTVSPost2010PropOp46
 70
     1
102
RTVSPost2010Prop47
 90
       50
102
RTVSPost2010PropOp47
 70
     1
102
RTVSPost2010Prop48
 90
       50
102
RTVSPost2010PropOp48
 70
     1
102
RTVSPost2010Prop49
280
     0
102
RTVSPost2010PropOp49
 70
     1
102
RTVSPost2010Prop50
 90
       50
102
RTVSPost2010PropOp50
 70
     1
102
RTVSPost2010Prop51ColorIndex
 90
      256
102
RTVSPost2010Prop51ColorRGB
 90
-16777216
102
RTVSPost2010PropOp51
 70
     0
102
RTVSPost2010Prop52
140
1.0
102
RTVSPost2010PropOp52
 70
     0
102
RTVSPost2010Prop53
 90
        2
102
RTVSPost2010PropOp53
 70
     1
102
RTVSPost2010Prop54
  1
strokes_ogs.tif
102
RTVSPost2010PropOp54
 70
     1
102
RTVSPost2010Prop55
280
     0
102
RTVSPost2010PropOp55
 70
     1
102
RTVSPost2010Prop56
140
1.0
102
RTVSPost2010PropOp56
 70
     1
102
RTVSPost2010Prop57
140
1.0
102
RTVSPost2010PropOp57
 70
     1
102
RTVSPropertyOp0
 70
     1
102
RTVSPropertyOp1
 70
     1
102
RTVSPropertyOp2
 70
     1
102
RTVSPropertyOp3
 70
     1
102
RTVSPropertyOp4
 70
     1
102
RTVSPropertyOp5
 70
     1
102
RTVSPropertyOp6
 70
     1
102
RTVSPropertyOp7
 70
     1
102
RTVSPropertyOp8
 70
     1
102
RTVSPropertyOp9
 70
     1
102
RTVSPropertyOp10
 70
     1
102
RTVSPropertyOp11
 70
     1
102
RTVSPropertyOp12
 70
     1
102
RTVSPropertyOp13
 70
     1
102
RTVSPropertyOp14
 70
     1
102
RTVSPropertyOp15
 70
     1
102
RTVSPropertyOp16
 70
     1
102
RTVSPropertyOp17
 70
     1
102
RTVSPropertyOp18
 70
     1
102
RTVSPropertyOp19
 70
     1
102
RTVSPropertyOp20
 70
     1
102
RTVSPropertyOp21
 70
     1
102
RTVSPropertyOp22
 70
     1
102
RTVSPropertyOp23
 70
     1
102
RTVSPropertyOp24
 70
     1
102
RTVSPropertyOp25
 70
     1
102
RTVSPropertyOp26
 70
     1
102
RTVSPropertyOp27
 70
     1
102
RTVSPropertyOp28
 70
     1
102
RTVSPropertyOp29
 70
     1
102
RTVSPropertyOp30
 70
     1
102
RTVSPropertyOp31
 70
     1
102
RTVSPropertyOp32
 70
     1
102
RTVSPropertyOp33
 70
     1
102
RTVSPropertyOp34
 70
     1
102
RTVSPropertyOp35
 70
     1
102
RTVSPropertyOp36
 70
     1
102
RTVSPropertyOp37
 70
     1
102
RTVSPropertyOp38
 70
     1
102
RTVSPropertyOp39
 70
     1
102
RTVSPropertyOp40
 70
     1
102
RTVSPropertyOp41
 70
     1
102
RTVSPropertyOp42
 70
     1
102
RTVSPropertyOp43
 70
     1
102
RTVSPropertyOp44
 70
     1
102
RTVSPropertyOp45
 70
     1
102
RTVSPropertyOp46
 70
     1
102
RTVSPropertyOp47
 70
     1
102
RTVSPropertyOp48
 70
     1
102
RTVSPropertyOp49
 70
     1
102
RTVSPropertyOp50
 70
     1
102
RTVSPropertyOp51
 70
     0
102
RTVSPropertyOp52
 70
     0
102
RTVSPropertyOp53
 70
     1
102
RTVSPropertyOp54
 70
     1
102
RTVSPropertyOp55
 70
     1
102
RTVSPropertyOp56
 70
     1
102
RTVSPropertyOp57
 70
     1
102
RTVSPropertyOp58
 70
     1
102
RTVSPropertyOp59
 70
     1
102
RTVSPropertyOp60
 70
     1
102
RTVSPropertyOp61
 70
     1
102
RTVSPropertyOp62
 70
     1
  0
XRECORD
  5
20743
102
{ACAD_REACTORS
330
20742
102
}
330
20742
100
AcDbXrecord
280
     1
102
RTVSPost2010Prop28
280
     0
102
RTVSPost2010PropOp28
 70
     1
102
RTVSPost2010Prop29
280
     1
102
RTVSPost2010PropOp29
 70
     1
102
RTVSPost2010Prop30
280
     1
102
RTVSPost2010PropOp30
 70
     1
102
RTVSPost2010Prop31
280
     0
102
RTVSPost2010PropOp31
 70
     1
102
RTVSPost2010Prop32
280
     0
102
RTVSPost2010PropOp32
 70
     1
102
RTVSPost2010Prop33
280
     0
102
RTVSPost2010PropOp33
 70
     1
102
RTVSPost2010Prop34
280
     0
102
RTVSPost2010PropOp34
 70
     1
102
RTVSPost2010Prop35
280
     0
102
RTVSPost2010PropOp35
 70
     1
102
RTVSPost2010Prop36
280
     0
102
RTVSPost2010PropOp36
 70
     1
102
RTVSPost2010Prop37
 90
       50
102
RTVSPost2010PropOp37
 70
     1
102
RTVSPost2010Prop38
140
0.0
102
RTVSPost2010PropOp38
 70
     1
102
RTVSPost2010Prop39
140
1.0
102
RTVSPost2010PropOp39
 70
     1
102
RTVSPost2010Prop40
 90
        0
102
RTVSPost2010PropOp40
 70
     1
102
RTVSPost2010Prop41ColorIndex
 90
       18
102
RTVSPost2010Prop41ColorRGB
 90
        0
102
RTVSPost2010PropOp41
 70
     1
102
RTVSPost2010Prop42
 90
       50
102
RTVSPost2010PropOp42
 70
     1
102
RTVSPost2010Prop43
 90
        3
102
RTVSPost2010PropOp43
 70
     1
102
RTVSPost2010Prop44ColorIndex
 90
        5
102
RTVSPost2010Prop44ColorRGB
 90
      255
102
RTVSPost2010PropOp44
 70
     1
102
RTVSPost2010Prop45
280
     0
102
RTVSPost2010PropOp45
 70
     1
102
RTVSPost2010Prop46
 90
       50
102
RTVSPost2010PropOp46
 70
     1
102
RTVSPost2010Prop47
 90
       50
102
RTVSPost2010PropOp47
 70
     1
102
RTVSPost2010Prop48
 90
       50
102
RTVSPost2010PropOp48
 70
     1
102
RTVSPost2010Prop49
280
     0
102
RTVSPost2010PropOp49
 70
     1
102
RTVSPost2010Prop50
 90
       50
102
RTVSPost2010PropOp50
 70
     1
102
RTVSPost2010Prop51ColorIndex
 90
      256
102
RTVSPost2010Prop51ColorRGB
 90
-16777216
102
RTVSPost2010PropOp51
 70
     0
102
RTVSPost2010Prop52
140
1.0
102
RTVSPost2010PropOp52
 70
     0
102
RTVSPost2010Prop53
 90
        2
102
RTVSPost2010PropOp53
 70
     1
102
RTVSPost2010Prop54
  1
strokes_ogs.tif
102
RTVSPost2010PropOp54
 70
     1
102
RTVSPost2010Prop55
280
     0
102
RTVSPost2010PropOp55
 70
     1
102
RTVSPost2010Prop56
140
1.0
102
RTVSPost2010PropOp56
 70
     1
102
RTVSPost2010Prop57
140
1.0
102
RTVSPost2010PropOp57
 70
     1
102
RTVSPropertyOp0
 70
     1
102
RTVSPropertyOp1
 70
     1
102
RTVSPropertyOp2
 70
     1
102
RTVSPropertyOp3
 70
     1
102
RTVSPropertyOp4
 70
     1
102
RTVSPropertyOp5
 70
     1
102
RTVSPropertyOp6
 70
     1
102
RTVSPropertyOp7
 70
     1
102
RTVSPropertyOp8
 70
     1
102
RTVSPropertyOp9
 70
     1
102
RTVSPropertyOp10
 70
     1
102
RTVSPropertyOp11
 70
     1
102
RTVSPropertyOp12
 70
     1
102
RTVSPropertyOp13
 70
     1
102
RTVSPropertyOp14
 70
     1
102
RTVSPropertyOp15
 70
     1
102
RTVSPropertyOp16
 70
     1
102
RTVSPropertyOp17
 70
     1
102
RTVSPropertyOp18
 70
     1
102
RTVSPropertyOp19
 70
     1
102
RTVSPropertyOp20
 70
     1
102
RTVSPropertyOp21
 70
     1
102
RTVSPropertyOp22
 70
     1
102
RTVSPropertyOp23
 70
     1
102
RTVSPropertyOp24
 70
     1
102
RTVSPropertyOp25
 70
     1
102
RTVSPropertyOp26
 70
     1
102
RTVSPropertyOp27
 70
     1
102
RTVSPropertyOp28
 70
     1
102
RTVSPropertyOp29
 70
     1
102
RTVSPropertyOp30
 70
     1
102
RTVSPropertyOp31
 70
     1
102
RTVSPropertyOp32
 70
     1
102
RTVSPropertyOp33
 70
     1
102
RTVSPropertyOp34
 70
     1
102
RTVSPropertyOp35
 70
     1
102
RTVSPropertyOp36
 70
     1
102
RTVSPropertyOp37
 70
     1
102
RTVSPropertyOp38
 70
     1
102
RTVSPropertyOp39
 70
     1
102
RTVSPropertyOp40
 70
     1
102
RTVSPropertyOp41
 70
     1
102
RTVSPropertyOp42
 70
     1
102
RTVSPropertyOp43
 70
     1
102
RTVSPropertyOp44
 70
     1
102
RTVSPropertyOp45
 70
     1
102
RTVSPropertyOp46
 70
     1
102
RTVSPropertyOp47
 70
     1
102
RTVSPropertyOp48
 70
     1
102
RTVSPropertyOp49
 70
     1
102
RTVSPropertyOp50
 70
     1
102
RTVSPropertyOp51
 70
     0
102
RTVSPropertyOp52
 70
     0
102
RTVSPropertyOp53
 70
     1
102
RTVSPropertyOp54
 70
     1
102
RTVSPropertyOp55
 70
     1
102
RTVSPropertyOp56
 70
     1
102
RTVSPropertyOp57
 70
     1
102
RTVSPropertyOp58
 70
     1
102
RTVSPropertyOp59
 70
     1
102
RTVSPropertyOp60
 70
     1
102
RTVSPropertyOp61
 70
     1
102
RTVSPropertyOp62
 70
     1
  0
XRECORD
  5
20745
102
{ACAD_REACTORS
330
20744
102
}
330
20744
100
AcDbXrecord
280
     1
102
RTVSPost2010Prop28
280
     0
102
RTVSPost2010PropOp28
 70
     1
102
RTVSPost2010Prop29
280
     1
102
RTVSPost2010PropOp29
 70
     1
102
RTVSPost2010Prop30
280
     1
102
RTVSPost2010PropOp30
 70
     1
102
RTVSPost2010Prop31
280
     0
102
RTVSPost2010PropOp31
 70
     1
102
RTVSPost2010Prop32
280
     0
102
RTVSPost2010PropOp32
 70
     1
102
RTVSPost2010Prop33
280
     0
102
RTVSPost2010PropOp33
 70
     1
102
RTVSPost2010Prop34
280
     0
102
RTVSPost2010PropOp34
 70
     1
102
RTVSPost2010Prop35
280
     0
102
RTVSPost2010PropOp35
 70
     1
102
RTVSPost2010Prop36
280
     0
102
RTVSPost2010PropOp36
 70
     1
102
RTVSPost2010Prop37
 90
       50
102
RTVSPost2010PropOp37
 70
     1
102
RTVSPost2010Prop38
140
0.0
102
RTVSPost2010PropOp38
 70
     1
102
RTVSPost2010Prop39
140
1.0
102
RTVSPost2010PropOp39
 70
     1
102
RTVSPost2010Prop40
 90
        0
102
RTVSPost2010PropOp40
 70
     1
102
RTVSPost2010Prop41ColorIndex
 90
       18
102
RTVSPost2010Prop41ColorRGB
 90
        0
102
RTVSPost2010PropOp41
 70
     1
102
RTVSPost2010Prop42
 90
       50
102
RTVSPost2010PropOp42
 70
     1
102
RTVSPost2010Prop43
 90
        3
102
RTVSPost2010PropOp43
 70
     1
102
RTVSPost2010Prop44ColorIndex
 90
        5
102
RTVSPost2010Prop44ColorRGB
 90
      255
102
RTVSPost2010PropOp44
 70
     1
102
RTVSPost2010Prop45
280
     0
102
RTVSPost2010PropOp45
 70
     1
102
RTVSPost2010Prop46
 90
       50
102
RTVSPost2010PropOp46
 70
     1
102
RTVSPost2010Prop47
 90
       50
102
RTVSPost2010PropOp47
 70
     1
102
RTVSPost2010Prop48
 90
       50
102
RTVSPost2010PropOp48
 70
     1
102
RTVSPost2010Prop49
280
     0
102
RTVSPost2010PropOp49
 70
     1
102
RTVSPost2010Prop50
 90
       50
102
RTVSPost2010PropOp50
 70
     1
102
RTVSPost2010Prop51ColorIndex
 90
      256
102
RTVSPost2010Prop51ColorRGB
 90
-16777216
102
RTVSPost2010PropOp51
 70
     0
102
RTVSPost2010Prop52
140
1.0
102
RTVSPost2010PropOp52
 70
     0
102
RTVSPost2010Prop53
 90
        2
102
RTVSPost2010PropOp53
 70
     1
102
RTVSPost2010Prop54
  1
strokes_ogs.tif
102
RTVSPost2010PropOp54
 70
     1
102
RTVSPost2010Prop55
280
     0
102
RTVSPost2010PropOp55
 70
     1
102
RTVSPost2010Prop56
140
1.0
102
RTVSPost2010PropOp56
 70
     1
102
RTVSPost2010Prop57
140
1.0
102
RTVSPost2010PropOp57
 70
     1
102
RTVSPropertyOp0
 70
     1
102
RTVSPropertyOp1
 70
     1
102
RTVSPropertyOp2
 70
     1
102
RTVSPropertyOp3
 70
     1
102
RTVSPropertyOp4
 70
     1
102
RTVSPropertyOp5
 70
     1
102
RTVSPropertyOp6
 70
     1
102
RTVSPropertyOp7
 70
     1
102
RTVSPropertyOp8
 70
     1
102
RTVSPropertyOp9
 70
     1
102
RTVSPropertyOp10
 70
     1
102
RTVSPropertyOp11
 70
     1
102
RTVSPropertyOp12
 70
     1
102
RTVSPropertyOp13
 70
     1
102
RTVSPropertyOp14
 70
     1
102
RTVSPropertyOp15
 70
     1
102
RTVSPropertyOp16
 70
     1
102
RTVSPropertyOp17
 70
     1
102
RTVSPropertyOp18
 70
     1
102
RTVSPropertyOp19
 70
     1
102
RTVSPropertyOp20
 70
     1
102
RTVSPropertyOp21
 70
     1
102
RTVSPropertyOp22
 70
     1
102
RTVSPropertyOp23
 70
     1
102
RTVSPropertyOp24
 70
     1
102
RTVSPropertyOp25
 70
     1
102
RTVSPropertyOp26
 70
     1
102
RTVSPropertyOp27
 70
     1
102
RTVSPropertyOp28
 70
     1
102
RTVSPropertyOp29
 70
     1
102
RTVSPropertyOp30
 70
     1
102
RTVSPropertyOp31
 70
     1
102
RTVSPropertyOp32
 70
     1
102
RTVSPropertyOp33
 70
     1
102
RTVSPropertyOp34
 70
     1
102
RTVSPropertyOp35
 70
     1
102
RTVSPropertyOp36
 70
     1
102
RTVSPropertyOp37
 70
     1
102
RTVSPropertyOp38
 70
     1
102
RTVSPropertyOp39
 70
     1
102
RTVSPropertyOp40
 70
     1
102
RTVSPropertyOp41
 70
     1
102
RTVSPropertyOp42
 70
     1
102
RTVSPropertyOp43
 70
     1
102
RTVSPropertyOp44
 70
     1
102
RTVSPropertyOp45
 70
     1
102
RTVSPropertyOp46
 70
     1
102
RTVSPropertyOp47
 70
     1
102
RTVSPropertyOp48
 70
     1
102
RTVSPropertyOp49
 70
     1
102
RTVSPropertyOp50
 70
     1
102
RTVSPropertyOp51
 70
     0
102
RTVSPropertyOp52
 70
     0
102
RTVSPropertyOp53
 70
     1
102
RTVSPropertyOp54
 70
     1
102
RTVSPropertyOp55
 70
     1
102
RTVSPropertyOp56
 70
     1
102
RTVSPropertyOp57
 70
     1
102
RTVSPropertyOp58
 70
     1
102
RTVSPropertyOp59
 70
     1
102
RTVSPropertyOp60
 70
     1
102
RTVSPropertyOp61
 70
     1
102
RTVSPropertyOp62
 70
     1
  0
XRECORD
  5
2074D
102
{ACAD_REACTORS
330
2074C
102
}
330
2074C
100
AcDbXrecord
280
     1
102
RTVSPost2010Prop28
280
     0
102
RTVSPost2010PropOp28
 70
     1
102
RTVSPost2010Prop29
280
     1
102
RTVSPost2010PropOp29
 70
     1
102
RTVSPost2010Prop30
280
     1
102
RTVSPost2010PropOp30
 70
     1
102
RTVSPost2010Prop31
280
     0
102
RTVSPost2010PropOp31
 70
     1
102
RTVSPost2010Prop32
280
     0
102
RTVSPost2010PropOp32
 70
     1
102
RTVSPost2010Prop33
280
     0
102
RTVSPost2010PropOp33
 70
     1
102
RTVSPost2010Prop34
280
     0
102
RTVSPost2010PropOp34
 70
     1
102
RTVSPost2010Prop35
280
     0
102
RTVSPost2010PropOp35
 70
     1
102
RTVSPost2010Prop36
280
     0
102
RTVSPost2010PropOp36
 70
     1
102
RTVSPost2010Prop37
 90
       50
102
RTVSPost2010PropOp37
 70
     1
102
RTVSPost2010Prop38
140
0.0
102
RTVSPost2010PropOp38
 70
     1
102
RTVSPost2010Prop39
140
1.0
102
RTVSPost2010PropOp39
 70
     1
102
RTVSPost2010Prop40
 90
        0
102
RTVSPost2010PropOp40
 70
     1
102
RTVSPost2010Prop41ColorIndex
 90
       18
102
RTVSPost2010Prop41ColorRGB
 90
        0
102
RTVSPost2010PropOp41
 70
     1
102
RTVSPost2010Prop42
 90
       50
102
RTVSPost2010PropOp42
 70
     1
102
RTVSPost2010Prop43
 90
        3
102
RTVSPost2010PropOp43
 70
     1
102
RTVSPost2010Prop44ColorIndex
 90
        5
102
RTVSPost2010Prop44ColorRGB
 90
      255
102
RTVSPost2010PropOp44
 70
     1
102
RTVSPost2010Prop45
280
     0
102
RTVSPost2010PropOp45
 70
     1
102
RTVSPost2010Prop46
 90
       50
102
RTVSPost2010PropOp46
 70
     1
102
RTVSPost2010Prop47
 90
       50
102
RTVSPost2010PropOp47
 70
     1
102
RTVSPost2010Prop48
 90
       50
102
RTVSPost2010PropOp48
 70
     1
102
RTVSPost2010Prop49
280
     0
102
RTVSPost2010PropOp49
 70
     1
102
RTVSPost2010Prop50
 90
       50
102
RTVSPost2010PropOp50
 70
     1
102
RTVSPost2010Prop51ColorIndex
 90
      256
102
RTVSPost2010Prop51ColorRGB
 90
-16777216
102
RTVSPost2010PropOp51
 70
     0
102
RTVSPost2010Prop52
140
1.0
102
RTVSPost2010PropOp52
 70
     0
102
RTVSPost2010Prop53
 90
        2
102
RTVSPost2010PropOp53
 70
     1
102
RTVSPost2010Prop54
  1
strokes_ogs.tif
102
RTVSPost2010PropOp54
 70
     1
102
RTVSPost2010Prop55
280
     0
102
RTVSPost2010PropOp55
 70
     1
102
RTVSPost2010Prop56
140
1.0
102
RTVSPost2010PropOp56
 70
     1
102
RTVSPost2010Prop57
140
1.0
102
RTVSPost2010PropOp57
 70
     1
102
RTVSPropertyOp0
 70
     1
102
RTVSPropertyOp1
 70
     1
102
RTVSPropertyOp2
 70
     1
102
RTVSPropertyOp3
 70
     1
102
RTVSPropertyOp4
 70
     1
102
RTVSPropertyOp5
 70
     1
102
RTVSPropertyOp6
 70
     1
102
RTVSPropertyOp7
 70
     1
102
RTVSPropertyOp8
 70
     1
102
RTVSPropertyOp9
 70
     1
102
RTVSPropertyOp10
 70
     1
102
RTVSPropertyOp11
 70
     1
102
RTVSPropertyOp12
 70
     1
102
RTVSPropertyOp13
 70
     1
102
RTVSPropertyOp14
 70
     1
102
RTVSPropertyOp15
 70
     1
102
RTVSPropertyOp16
 70
     1
102
RTVSPropertyOp17
 70
     1
102
RTVSPropertyOp18
 70
     1
102
RTVSPropertyOp19
 70
     1
102
RTVSPropertyOp20
 70
     1
102
RTVSPropertyOp21
 70
     1
102
RTVSPropertyOp22
 70
     1
102
RTVSPropertyOp23
 70
     1
102
RTVSPropertyOp24
 70
     1
102
RTVSPropertyOp25
 70
     1
102
RTVSPropertyOp26
 70
     1
102
RTVSPropertyOp27
 70
     1
102
RTVSPropertyOp28
 70
     1
102
RTVSPropertyOp29
 70
     1
102
RTVSPropertyOp30
 70
     1
102
RTVSPropertyOp31
 70
     1
102
RTVSPropertyOp32
 70
     1
102
RTVSPropertyOp33
 70
     1
102
RTVSPropertyOp34
 70
     1
102
RTVSPropertyOp35
 70
     1
102
RTVSPropertyOp36
 70
     1
102
RTVSPropertyOp37
 70
     1
102
RTVSPropertyOp38
 70
     1
102
RTVSPropertyOp39
 70
     1
102
RTVSPropertyOp40
 70
     1
102
RTVSPropertyOp41
 70
     1
102
RTVSPropertyOp42
 70
     1
102
RTVSPropertyOp43
 70
     1
102
RTVSPropertyOp44
 70
     1
102
RTVSPropertyOp45
 70
     1
102
RTVSPropertyOp46
 70
     1
102
RTVSPropertyOp47
 70
     1
102
RTVSPropertyOp48
 70
     1
102
RTVSPropertyOp49
 70
     1
102
RTVSPropertyOp50
 70
     1
102
RTVSPropertyOp51
 70
     0
102
RTVSPropertyOp52
 70
     0
102
RTVSPropertyOp53
 70
     1
102
RTVSPropertyOp54
 70
     1
102
RTVSPropertyOp55
 70
     1
102
RTVSPropertyOp56
 70
     1
102
RTVSPropertyOp57
 70
     1
102
RTVSPropertyOp58
 70
     1
102
RTVSPropertyOp59
 70
     1
102
RTVSPropertyOp60
 70
     1
102
RTVSPropertyOp61
 70
     1
102
RTVSPropertyOp62
 70
     1
  0
XRECORD
  5
20769
102
{ACAD_REACTORS
330
20768
102
}
330
20768
100
AcDbXrecord
280
     1
102
RTVSPost2010Prop28
280
     0
102
RTVSPost2010PropOp28
 70
     0
102
RTVSPost2010Prop29
280
     1
102
RTVSPost2010PropOp29
 70
     0
102
RTVSPost2010Prop30
280
     1
102
RTVSPost2010PropOp30
 70
     0
102
RTVSPost2010Prop31
280
     0
102
RTVSPost2010PropOp31
 70
     0
102
RTVSPost2010Prop32
280
     0
102
RTVSPost2010PropOp32
 70
     0
102
RTVSPost2010Prop33
280
     0
102
RTVSPost2010PropOp33
 70
     0
102
RTVSPost2010Prop34
280
     0
102
RTVSPost2010PropOp34
 70
     0
102
RTVSPost2010Prop35
280
     0
102
RTVSPost2010PropOp35
 70
     0
102
RTVSPost2010Prop36
280
     0
102
RTVSPost2010PropOp36
 70
     0
102
RTVSPost2010Prop37
 90
       50
102
RTVSPost2010PropOp37
 70
     0
102
RTVSPost2010Prop38
140
0.0
102
RTVSPost2010PropOp38
 70
     0
102
RTVSPost2010Prop39
140
1.0
102
RTVSPost2010PropOp39
 70
     0
102
RTVSPost2010Prop40
 90
        0
102
RTVSPost2010PropOp40
 70
     0
102
RTVSPost2010Prop41ColorIndex
 90
       18
102
RTVSPost2010Prop41ColorRGB
 90
        0
102
RTVSPost2010PropOp41
 70
     0
102
RTVSPost2010Prop42
 90
       50
102
RTVSPost2010PropOp42
 70
     0
102
RTVSPost2010Prop43
 90
        3
102
RTVSPost2010PropOp43
 70
     0
102
RTVSPost2010Prop44ColorIndex
 90
        5
102
RTVSPost2010Prop44ColorRGB
 90
      255
102
RTVSPost2010PropOp44
 70
     0
102
RTVSPost2010Prop45
280
     0
102
RTVSPost2010PropOp45
 70
     0
102
RTVSPost2010Prop46
 90
       50
102
RTVSPost2010PropOp46
 70
     0
102
RTVSPost2010Prop47
 90
       50
102
RTVSPost2010PropOp47
 70
     0
102
RTVSPost2010Prop48
 90
       50
102
RTVSPost2010PropOp48
 70
     0
102
RTVSPost2010Prop49
280
     0
102
RTVSPost2010PropOp49
 70
     0
102
RTVSPost2010Prop50
 90
       50
102
RTVSPost2010PropOp50
 70
     0
102
RTVSPost2010Prop51ColorIndex
 90
      256
102
RTVSPost2010Prop51ColorRGB
 90
-16777216
102
RTVSPost2010PropOp51
 70
     0
102
RTVSPost2010Prop52
140
1.0
102
RTVSPost2010PropOp52
 70
     0
102
RTVSPost2010Prop53
 90
        2
102
RTVSPost2010PropOp53
 70
     0
102
RTVSPost2010Prop54
  1
strokes_ogs.tif
102
RTVSPost2010PropOp54
 70
     0
102
RTVSPost2010Prop55
280
     0
102
RTVSPost2010PropOp55
 70
     0
102
RTVSPost2010Prop56
140
1.0
102
RTVSPost2010PropOp56
 70
     0
102
RTVSPost2010Prop57
140
1.0
102
RTVSPost2010PropOp57
 70
     0
102
RTVSPropertyOp0
 70
     0
102
RTVSPropertyOp1
 70
     0
102
RTVSPropertyOp2
 70
     0
102
RTVSPropertyOp3
 70
     0
102
RTVSPropertyOp4
 70
     0
102
RTVSPropertyOp5
 70
     0
102
RTVSPropertyOp6
 70
     0
102
RTVSPropertyOp7
 70
     0
102
RTVSPropertyOp8
 70
     0
102
RTVSPropertyOp9
 70
     0
102
RTVSPropertyOp10
 70
     0
102
RTVSPropertyOp11
 70
     0
102
RTVSPropertyOp12
 70
     0
102
RTVSPropertyOp13
 70
     0
102
RTVSPropertyOp14
 70
     2
102
RTVSPropertyOp15
 70
     0
102
RTVSPropertyOp16
 70
     0
102
RTVSPropertyOp17
 70
     0
102
RTVSPropertyOp18
 70
     0
102
RTVSPropertyOp19
 70
     0
102
RTVSPropertyOp20
 70
     0
102
RTVSPropertyOp21
 70
     0
102
RTVSPropertyOp22
 70
     0
102
RTVSPropertyOp23
 70
     0
102
RTVSPropertyOp24
 70
     0
102
RTVSPropertyOp25
 70
     0
102
RTVSPropertyOp26
 70
     0
102
RTVSPropertyOp27
 70
     0
102
RTVSPropertyOp28
 70
     0
102
RTVSPropertyOp29
 70
     0
102
RTVSPropertyOp30
 70
     0
102
RTVSPropertyOp31
 70
     0
102
RTVSPropertyOp32
 70
     0
102
RTVSPropertyOp33
 70
     0
102
RTVSPropertyOp34
 70
     0
102
RTVSPropertyOp35
 70
     0
102
RTVSPropertyOp36
 70
     0
102
RTVSPropertyOp37
 70
     0
102
RTVSPropertyOp38
 70
     0
102
RTVSPropertyOp39
 70
     0
102
RTVSPropertyOp40
 70
     0
102
RTVSPropertyOp41
 70
     0
102
RTVSPropertyOp42
 70
     0
102
RTVSPropertyOp43
 70
     0
102
RTVSPropertyOp44
 70
     0
102
RTVSPropertyOp45
 70
     0
102
RTVSPropertyOp46
 70
     0
102
RTVSPropertyOp47
 70
     0
102
RTVSPropertyOp48
 70
     0
102
RTVSPropertyOp49
 70
     0
102
RTVSPropertyOp50
 70
     0
102
RTVSPropertyOp51
 70
     0
102
RTVSPropertyOp52
 70
     0
102
RTVSPropertyOp53
 70
     0
102
RTVSPropertyOp54
 70
     0
102
RTVSPropertyOp55
 70
     0
102
RTVSPropertyOp56
 70
     0
102
RTVSPropertyOp57
 70
     0
102
RTVSPropertyOp58
 70
     1
102
RTVSPropertyOp59
 70
     1
102
RTVSPropertyOp60
 70
     1
102
RTVSPropertyOp61
 70
     1
102
RTVSPropertyOp62
 70
     1
  0
XRECORD
  5
20759
102
{ACAD_REACTORS
330
20758
102
}
330
20758
100
AcDbXrecord
280
     1
102
RTVSPost2010Prop28
280
     0
102
RTVSPost2010PropOp28
 70
     1
102
RTVSPost2010Prop29
280
     1
102
RTVSPost2010PropOp29
 70
     1
102
RTVSPost2010Prop30
280
     1
102
RTVSPost2010PropOp30
 70
     1
102
RTVSPost2010Prop31
280
     0
102
RTVSPost2010PropOp31
 70
     1
102
RTVSPost2010Prop32
280
     0
102
RTVSPost2010PropOp32
 70
     1
102
RTVSPost2010Prop33
280
     0
102
RTVSPost2010PropOp33
 70
     1
102
RTVSPost2010Prop34
280
     0
102
RTVSPost2010PropOp34
 70
     1
102
RTVSPost2010Prop35
280
     0
102
RTVSPost2010PropOp35
 70
     1
102
RTVSPost2010Prop36
280
     0
102
RTVSPost2010PropOp36
 70
     1
102
RTVSPost2010Prop37
 90
       50
102
RTVSPost2010PropOp37
 70
     1
102
RTVSPost2010Prop38
140
0.0
102
RTVSPost2010PropOp38
 70
     1
102
RTVSPost2010Prop39
140
1.0
102
RTVSPost2010PropOp39
 70
     1
102
RTVSPost2010Prop40
 90
        0
102
RTVSPost2010PropOp40
 70
     1
102
RTVSPost2010Prop41ColorIndex
 90
       18
102
RTVSPost2010Prop41ColorRGB
 90
        0
102
RTVSPost2010PropOp41
 70
     1
102
RTVSPost2010Prop42
 90
       50
102
RTVSPost2010PropOp42
 70
     1
102
RTVSPost2010Prop43
 90
        3
102
RTVSPost2010PropOp43
 70
     1
102
RTVSPost2010Prop44ColorIndex
 90
        5
102
RTVSPost2010Prop44ColorRGB
 90
      255
102
RTVSPost2010PropOp44
 70
     1
102
RTVSPost2010Prop45
280
     0
102
RTVSPost2010PropOp45
 70
     1
102
RTVSPost2010Prop46
 90
       50
102
RTVSPost2010PropOp46
 70
     1
102
RTVSPost2010Prop47
 90
       50
102
RTVSPost2010PropOp47
 70
     1
102
RTVSPost2010Prop48
 90
       50
102
RTVSPost2010PropOp48
 70
     1
102
RTVSPost2010Prop49
280
     0
102
RTVSPost2010PropOp49
 70
     1
102
RTVSPost2010Prop50
 90
       50
102
RTVSPost2010PropOp50
 70
     1
102
RTVSPost2010Prop51ColorIndex
 90
      256
102
RTVSPost2010Prop51ColorRGB
 90
-16777216
102
RTVSPost2010PropOp51
 70
     0
102
RTVSPost2010Prop52
140
1.0
102
RTVSPost2010PropOp52
 70
     0
102
RTVSPost2010Prop53
 90
        2
102
RTVSPost2010PropOp53
 70
     1
102
RTVSPost2010Prop54
  1
strokes_ogs.tif
102
RTVSPost2010PropOp54
 70
     1
102
RTVSPost2010Prop55
280
     0
102
RTVSPost2010PropOp55
 70
     1
102
RTVSPost2010Prop56
140
1.0
102
RTVSPost2010PropOp56
 70
     1
102
RTVSPost2010Prop57
140
1.0
102
RTVSPost2010PropOp57
 70
     1
102
RTVSPropertyOp0
 70
     1
102
RTVSPropertyOp1
 70
     1
102
RTVSPropertyOp2
 70
     1
102
RTVSPropertyOp3
 70
     1
102
RTVSPropertyOp4
 70
     1
102
RTVSPropertyOp5
 70
     1
102
RTVSPropertyOp6
 70
     1
102
RTVSPropertyOp7
 70
     1
102
RTVSPropertyOp8
 70
     1
102
RTVSPropertyOp9
 70
     1
102
RTVSPropertyOp10
 70
     1
102
RTVSPropertyOp11
 70
     1
102
RTVSPropertyOp12
 70
     1
102
RTVSPropertyOp13
 70
     1
102
RTVSPropertyOp14
 70
     1
102
RTVSPropertyOp15
 70
     1
102
RTVSPropertyOp16
 70
     1
102
RTVSPropertyOp17
 70
     1
102
RTVSPropertyOp18
 70
     1
102
RTVSPropertyOp19
 70
     1
102
RTVSPropertyOp20
 70
     1
102
RTVSPropertyOp21
 70
     1
102
RTVSPropertyOp22
 70
     1
102
RTVSPropertyOp23
 70
     1
102
RTVSPropertyOp24
 70
     1
102
RTVSPropertyOp25
 70
     1
102
RTVSPropertyOp26
 70
     1
102
RTVSPropertyOp27
 70
     1
102
RTVSPropertyOp28
 70
     1
102
RTVSPropertyOp29
 70
     1
102
RTVSPropertyOp30
 70
     1
102
RTVSPropertyOp31
 70
     1
102
RTVSPropertyOp32
 70
     1
102
RTVSPropertyOp33
 70
     1
102
RTVSPropertyOp34
 70
     1
102
RTVSPropertyOp35
 70
     1
102
RTVSPropertyOp36
 70
     1
102
RTVSPropertyOp37
 70
     1
102
RTVSPropertyOp38
 70
     1
102
RTVSPropertyOp39
 70
     1
102
RTVSPropertyOp40
 70
     1
102
RTVSPropertyOp41
 70
     1
102
RTVSPropertyOp42
 70
     1
102
RTVSPropertyOp43
 70
     1
102
RTVSPropertyOp44
 70
     1
102
RTVSPropertyOp45
 70
     1
102
RTVSPropertyOp46
 70
     1
102
RTVSPropertyOp47
 70
     1
102
RTVSPropertyOp48
 70
     1
102
RTVSPropertyOp49
 70
     1
102
RTVSPropertyOp50
 70
     1
102
RTVSPropertyOp51
 70
     0
102
RTVSPropertyOp52
 70
     0
102
RTVSPropertyOp53
 70
     1
102
RTVSPropertyOp54
 70
     1
102
RTVSPropertyOp55
 70
     1
102
RTVSPropertyOp56
 70
     1
102
RTVSPropertyOp57
 70
     1
102
RTVSPropertyOp58
 70
     1
102
RTVSPropertyOp59
 70
     1
102
RTVSPropertyOp60
 70
     1
102
RTVSPropertyOp61
 70
     1
102
RTVSPropertyOp62
 70
     1
  0
XRECORD
  5
2076B
102
{ACAD_REACTORS
330
2076A
102
}
330
2076A
100
AcDbXrecord
280
     1
102
RTVSPost2010Prop28
280
     0
102
RTVSPost2010PropOp28
 70
     0
102
RTVSPost2010Prop29
280
     1
102
RTVSPost2010PropOp29
 70
     0
102
RTVSPost2010Prop30
280
     1
102
RTVSPost2010PropOp30
 70
     0
102
RTVSPost2010Prop31
280
     0
102
RTVSPost2010PropOp31
 70
     0
102
RTVSPost2010Prop32
280
     0
102
RTVSPost2010PropOp32
 70
     0
102
RTVSPost2010Prop33
280
     0
102
RTVSPost2010PropOp33
 70
     0
102
RTVSPost2010Prop34
280
     0
102
RTVSPost2010PropOp34
 70
     0
102
RTVSPost2010Prop35
280
     0
102
RTVSPost2010PropOp35
 70
     0
102
RTVSPost2010Prop36
280
     0
102
RTVSPost2010PropOp36
 70
     0
102
RTVSPost2010Prop37
 90
       50
102
RTVSPost2010PropOp37
 70
     0
102
RTVSPost2010Prop38
140
0.0
102
RTVSPost2010PropOp38
 70
     0
102
RTVSPost2010Prop39
140
1.0
102
RTVSPost2010PropOp39
 70
     0
102
RTVSPost2010Prop40
 90
        0
102
RTVSPost2010PropOp40
 70
     0
102
RTVSPost2010Prop41ColorIndex
 90
       18
102
RTVSPost2010Prop41ColorRGB
 90
        0
102
RTVSPost2010PropOp41
 70
     0
102
RTVSPost2010Prop42
 90
       50
102
RTVSPost2010PropOp42
 70
     0
102
RTVSPost2010Prop43
 90
        3
102
RTVSPost2010PropOp43
 70
     0
102
RTVSPost2010Prop44ColorIndex
 90
        5
102
RTVSPost2010Prop44ColorRGB
 90
      255
102
RTVSPost2010PropOp44
 70
     0
102
RTVSPost2010Prop45
280
     0
102
RTVSPost2010PropOp45
 70
     0
102
RTVSPost2010Prop46
 90
       50
102
RTVSPost2010PropOp46
 70
     0
102
RTVSPost2010Prop47
 90
       50
102
RTVSPost2010PropOp47
 70
     0
102
RTVSPost2010Prop48
 90
       50
102
RTVSPost2010PropOp48
 70
     0
102
RTVSPost2010Prop49
280
     0
102
RTVSPost2010PropOp49
 70
     0
102
RTVSPost2010Prop50
 90
       50
102
RTVSPost2010PropOp50
 70
     0
102
RTVSPost2010Prop51ColorIndex
 90
      256
102
RTVSPost2010Prop51ColorRGB
 90
-16777216
102
RTVSPost2010PropOp51
 70
     0
102
RTVSPost2010Prop52
140
1.0
102
RTVSPost2010PropOp52
 70
     0
102
RTVSPost2010Prop53
 90
        2
102
RTVSPost2010PropOp53
 70
     0
102
RTVSPost2010Prop54
  1
strokes_ogs.tif
102
RTVSPost2010PropOp54
 70
     0
102
RTVSPost2010Prop55
280
     0
102
RTVSPost2010PropOp55
 70
     0
102
RTVSPost2010Prop56
140
1.0
102
RTVSPost2010PropOp56
 70
     0
102
RTVSPost2010Prop57
140
1.0
102
RTVSPost2010PropOp57
 70
     0
102
RTVSPropertyOp0
 70
     0
102
RTVSPropertyOp1
 70
     0
102
RTVSPropertyOp2
 70
     0
102
RTVSPropertyOp3
 70
     0
102
RTVSPropertyOp4
 70
     0
102
RTVSPropertyOp5
 70
     0
102
RTVSPropertyOp6
 70
     0
102
RTVSPropertyOp7
 70
     0
102
RTVSPropertyOp8
 70
     0
102
RTVSPropertyOp9
 70
     0
102
RTVSPropertyOp10
 70
     0
102
RTVSPropertyOp11
 70
     0
102
RTVSPropertyOp12
 70
     0
102
RTVSPropertyOp13
 70
     0
102
RTVSPropertyOp14
 70
     2
102
RTVSPropertyOp15
 70
     0
102
RTVSPropertyOp16
 70
     0
102
RTVSPropertyOp17
 70
     0
102
RTVSPropertyOp18
 70
     0
102
RTVSPropertyOp19
 70
     0
102
RTVSPropertyOp20
 70
     0
102
RTVSPropertyOp21
 70
     0
102
RTVSPropertyOp22
 70
     0
102
RTVSPropertyOp23
 70
     0
102
RTVSPropertyOp24
 70
     0
102
RTVSPropertyOp25
 70
     0
102
RTVSPropertyOp26
 70
     0
102
RTVSPropertyOp27
 70
     0
102
RTVSPropertyOp28
 70
     0
102
RTVSPropertyOp29
 70
     0
102
RTVSPropertyOp30
 70
     0
102
RTVSPropertyOp31
 70
     0
102
RTVSPropertyOp32
 70
     0
102
RTVSPropertyOp33
 70
     0
102
RTVSPropertyOp34
 70
     0
102
RTVSPropertyOp35
 70
     0
102
RTVSPropertyOp36
 70
     0
102
RTVSPropertyOp37
 70
     0
102
RTVSPropertyOp38
 70
     0
102
RTVSPropertyOp39
 70
     0
102
RTVSPropertyOp40
 70
     0
102
RTVSPropertyOp41
 70
     0
102
RTVSPropertyOp42
 70
     0
102
RTVSPropertyOp43
 70
     0
102
RTVSPropertyOp44
 70
     0
102
RTVSPropertyOp45
 70
     0
102
RTVSPropertyOp46
 70
     0
102
RTVSPropertyOp47
 70
     0
102
RTVSPropertyOp48
 70
     0
102
RTVSPropertyOp49
 70
     0
102
RTVSPropertyOp50
 70
     0
102
RTVSPropertyOp51
 70
     0
102
RTVSPropertyOp52
 70
     0
102
RTVSPropertyOp53
 70
     0
102
RTVSPropertyOp54
 70
     0
102
RTVSPropertyOp55
 70
     0
102
RTVSPropertyOp56
 70
     0
102
RTVSPropertyOp57
 70
     0
102
RTVSPropertyOp58
 70
     1
102
RTVSPropertyOp59
 70
     1
102
RTVSPropertyOp60
 70
     1
102
RTVSPropertyOp61
 70
     1
102
RTVSPropertyOp62
 70
     1
  0
XRECORD
  5
20751
102
{ACAD_REACTORS
330
20750
102
}
330
20750
100
AcDbXrecord
280
     1
102
RTVSPost2010Prop28
280
     0
102
RTVSPost2010PropOp28
 70
     1
102
RTVSPost2010Prop29
280
     1
102
RTVSPost2010PropOp29
 70
     1
102
RTVSPost2010Prop30
280
     1
102
RTVSPost2010PropOp30
 70
     1
102
RTVSPost2010Prop31
280
     0
102
RTVSPost2010PropOp31
 70
     1
102
RTVSPost2010Prop32
280
     0
102
RTVSPost2010PropOp32
 70
     1
102
RTVSPost2010Prop33
280
     0
102
RTVSPost2010PropOp33
 70
     1
102
RTVSPost2010Prop34
280
     0
102
RTVSPost2010PropOp34
 70
     1
102
RTVSPost2010Prop35
280
     0
102
RTVSPost2010PropOp35
 70
     1
102
RTVSPost2010Prop36
280
     0
102
RTVSPost2010PropOp36
 70
     1
102
RTVSPost2010Prop37
 90
       50
102
RTVSPost2010PropOp37
 70
     1
102
RTVSPost2010Prop38
140
0.0
102
RTVSPost2010PropOp38
 70
     1
102
RTVSPost2010Prop39
140
1.0
102
RTVSPost2010PropOp39
 70
     1
102
RTVSPost2010Prop40
 90
        0
102
RTVSPost2010PropOp40
 70
     1
102
RTVSPost2010Prop41ColorIndex
 90
       18
102
RTVSPost2010Prop41ColorRGB
 90
        0
102
RTVSPost2010PropOp41
 70
     1
102
RTVSPost2010Prop42
 90
       50
102
RTVSPost2010PropOp42
 70
     1
102
RTVSPost2010Prop43
 90
        3
102
RTVSPost2010PropOp43
 70
     1
102
RTVSPost2010Prop44ColorIndex
 90
        5
102
RTVSPost2010Prop44ColorRGB
 90
      255
102
RTVSPost2010PropOp44
 70
     1
102
RTVSPost2010Prop45
280
     0
102
RTVSPost2010PropOp45
 70
     1
102
RTVSPost2010Prop46
 90
       50
102
RTVSPost2010PropOp46
 70
     1
102
RTVSPost2010Prop47
 90
       50
102
RTVSPost2010PropOp47
 70
     1
102
RTVSPost2010Prop48
 90
       50
102
RTVSPost2010PropOp48
 70
     1
102
RTVSPost2010Prop49
280
     0
102
RTVSPost2010PropOp49
 70
     1
102
RTVSPost2010Prop50
 90
       50
102
RTVSPost2010PropOp50
 70
     1
102
RTVSPost2010Prop51ColorIndex
 90
      256
102
RTVSPost2010Prop51ColorRGB
 90
-16777216
102
RTVSPost2010PropOp51
 70
     0
102
RTVSPost2010Prop52
140
1.0
102
RTVSPost2010PropOp52
 70
     0
102
RTVSPost2010Prop53
 90
        2
102
RTVSPost2010PropOp53
 70
     1
102
RTVSPost2010Prop54
  1
strokes_ogs.tif
102
RTVSPost2010PropOp54
 70
     1
102
RTVSPost2010Prop55
280
     0
102
RTVSPost2010PropOp55
 70
     1
102
RTVSPost2010Prop56
140
1.0
102
RTVSPost2010PropOp56
 70
     1
102
RTVSPost2010Prop57
140
1.0
102
RTVSPost2010PropOp57
 70
     1
102
RTVSPropertyOp0
 70
     1
102
RTVSPropertyOp1
 70
     1
102
RTVSPropertyOp2
 70
     1
102
RTVSPropertyOp3
 70
     1
102
RTVSPropertyOp4
 70
     1
102
RTVSPropertyOp5
 70
     1
102
RTVSPropertyOp6
 70
     1
102
RTVSPropertyOp7
 70
     1
102
RTVSPropertyOp8
 70
     1
102
RTVSPropertyOp9
 70
     1
102
RTVSPropertyOp10
 70
     1
102
RTVSPropertyOp11
 70
     1
102
RTVSPropertyOp12
 70
     1
102
RTVSPropertyOp13
 70
     1
102
RTVSPropertyOp14
 70
     1
102
RTVSPropertyOp15
 70
     1
102
RTVSPropertyOp16
 70
     1
102
RTVSPropertyOp17
 70
     1
102
RTVSPropertyOp18
 70
     1
102
RTVSPropertyOp19
 70
     1
102
RTVSPropertyOp20
 70
     1
102
RTVSPropertyOp21
 70
     1
102
RTVSPropertyOp22
 70
     1
102
RTVSPropertyOp23
 70
     1
102
RTVSPropertyOp24
 70
     1
102
RTVSPropertyOp25
 70
     1
102
RTVSPropertyOp26
 70
     1
102
RTVSPropertyOp27
 70
     1
102
RTVSPropertyOp28
 70
     1
102
RTVSPropertyOp29
 70
     1
102
RTVSPropertyOp30
 70
     1
102
RTVSPropertyOp31
 70
     1
102
RTVSPropertyOp32
 70
     1
102
RTVSPropertyOp33
 70
     1
102
RTVSPropertyOp34
 70
     1
102
RTVSPropertyOp35
 70
     1
102
RTVSPropertyOp36
 70
     1
102
RTVSPropertyOp37
 70
     1
102
RTVSPropertyOp38
 70
     1
102
RTVSPropertyOp39
 70
     1
102
RTVSPropertyOp40
 70
     1
102
RTVSPropertyOp41
 70
     1
102
RTVSPropertyOp42
 70
     1
102
RTVSPropertyOp43
 70
     1
102
RTVSPropertyOp44
 70
     1
102
RTVSPropertyOp45
 70
     1
102
RTVSPropertyOp46
 70
     1
102
RTVSPropertyOp47
 70
     1
102
RTVSPropertyOp48
 70
     1
102
RTVSPropertyOp49
 70
     1
102
RTVSPropertyOp50
 70
     1
102
RTVSPropertyOp51
 70
     0
102
RTVSPropertyOp52
 70
     0
102
RTVSPropertyOp53
 70
     1
102
RTVSPropertyOp54
 70
     1
102
RTVSPropertyOp55
 70
     1
102
RTVSPropertyOp56
 70
     1
102
RTVSPropertyOp57
 70
     1
102
RTVSPropertyOp58
 70
     1
102
RTVSPropertyOp59
 70
     1
102
RTVSPropertyOp60
 70
     1
102
RTVSPropertyOp61
 70
     1
102
RTVSPropertyOp62
 70
     1
  0
XRECORD
  5
20767
102
{ACAD_REACTORS
330
20766
102
}
330
20766
100
AcDbXrecord
280
     1
102
RTVSPost2010Prop28
280
     0
102
RTVSPost2010PropOp28
 70
     1
102
RTVSPost2010Prop29
280
     1
102
RTVSPost2010PropOp29
 70
     1
102
RTVSPost2010Prop30
280
     1
102
RTVSPost2010PropOp30
 70
     1
102
RTVSPost2010Prop31
280
     0
102
RTVSPost2010PropOp31
 70
     1
102
RTVSPost2010Prop32
280
     0
102
RTVSPost2010PropOp32
 70
     1
102
RTVSPost2010Prop33
280
     0
102
RTVSPost2010PropOp33
 70
     1
102
RTVSPost2010Prop34
280
     0
102
RTVSPost2010PropOp34
 70
     1
102
RTVSPost2010Prop35
280
     0
102
RTVSPost2010PropOp35
 70
     1
102
RTVSPost2010Prop36
280
     0
102
RTVSPost2010PropOp36
 70
     1
102
RTVSPost2010Prop37
 90
       50
102
RTVSPost2010PropOp37
 70
     1
102
RTVSPost2010Prop38
140
0.0
102
RTVSPost2010PropOp38
 70
     1
102
RTVSPost2010Prop39
140
1.0
102
RTVSPost2010PropOp39
 70
     1
102
RTVSPost2010Prop40
 90
        0
102
RTVSPost2010PropOp40
 70
     1
102
RTVSPost2010Prop41ColorIndex
 90
       18
102
RTVSPost2010Prop41ColorRGB
 90
        0
102
RTVSPost2010PropOp41
 70
     1
102
RTVSPost2010Prop42
 90
       50
102
RTVSPost2010PropOp42
 70
     1
102
RTVSPost2010Prop43
 90
        3
102
RTVSPost2010PropOp43
 70
     1
102
RTVSPost2010Prop44ColorIndex
 90
        5
102
RTVSPost2010Prop44ColorRGB
 90
      255
102
RTVSPost2010PropOp44
 70
     1
102
RTVSPost2010Prop45
280
     0
102
RTVSPost2010PropOp45
 70
     1
102
RTVSPost2010Prop46
 90
       50
102
RTVSPost2010PropOp46
 70
     1
102
RTVSPost2010Prop47
 90
       50
102
RTVSPost2010PropOp47
 70
     1
102
RTVSPost2010Prop48
 90
       50
102
RTVSPost2010PropOp48
 70
     1
102
RTVSPost2010Prop49
280
     0
102
RTVSPost2010PropOp49
 70
     1
102
RTVSPost2010Prop50
 90
       50
102
RTVSPost2010PropOp50
 70
     1
102
RTVSPost2010Prop51ColorIndex
 90
      256
102
RTVSPost2010Prop51ColorRGB
 90
-16777216
102
RTVSPost2010PropOp51
 70
     0
102
RTVSPost2010Prop52
140
1.0
102
RTVSPost2010PropOp52
 70
     0
102
RTVSPost2010Prop53
 90
        2
102
RTVSPost2010PropOp53
 70
     1
102
RTVSPost2010Prop54
  1
strokes_ogs.tif
102
RTVSPost2010PropOp54
 70
     1
102
RTVSPost2010Prop55
280
     0
102
RTVSPost2010PropOp55
 70
     1
102
RTVSPost2010Prop56
140
1.0
102
RTVSPost2010PropOp56
 70
     1
102
RTVSPost2010Prop57
140
1.0
102
RTVSPost2010PropOp57
 70
     1
102
RTVSPropertyOp0
 70
     1
102
RTVSPropertyOp1
 70
     1
102
RTVSPropertyOp2
 70
     1
102
RTVSPropertyOp3
 70
     1
102
RTVSPropertyOp4
 70
     1
102
RTVSPropertyOp5
 70
     1
102
RTVSPropertyOp6
 70
     1
102
RTVSPropertyOp7
 70
     1
102
RTVSPropertyOp8
 70
     1
102
RTVSPropertyOp9
 70
     1
102
RTVSPropertyOp10
 70
     1
102
RTVSPropertyOp11
 70
     1
102
RTVSPropertyOp12
 70
     1
102
RTVSPropertyOp13
 70
     1
102
RTVSPropertyOp14
 70
     1
102
RTVSPropertyOp15
 70
     1
102
RTVSPropertyOp16
 70
     1
102
RTVSPropertyOp17
 70
     1
102
RTVSPropertyOp18
 70
     1
102
RTVSPropertyOp19
 70
     1
102
RTVSPropertyOp20
 70
     1
102
RTVSPropertyOp21
 70
     1
102
RTVSPropertyOp22
 70
     1
102
RTVSPropertyOp23
 70
     1
102
RTVSPropertyOp24
 70
     1
102
RTVSPropertyOp25
 70
     1
102
RTVSPropertyOp26
 70
     1
102
RTVSPropertyOp27
 70
     1
102
RTVSPropertyOp28
 70
     1
102
RTVSPropertyOp29
 70
     1
102
RTVSPropertyOp30
 70
     1
102
RTVSPropertyOp31
 70
     1
102
RTVSPropertyOp32
 70
     1
102
RTVSPropertyOp33
 70
     1
102
RTVSPropertyOp34
 70
     1
102
RTVSPropertyOp35
 70
     1
102
RTVSPropertyOp36
 70
     1
102
RTVSPropertyOp37
 70
     1
102
RTVSPropertyOp38
 70
     1
102
RTVSPropertyOp39
 70
     1
102
RTVSPropertyOp40
 70
     1
102
RTVSPropertyOp41
 70
     1
102
RTVSPropertyOp42
 70
     1
102
RTVSPropertyOp43
 70
     1
102
RTVSPropertyOp44
 70
     1
102
RTVSPropertyOp45
 70
     1
102
RTVSPropertyOp46
 70
     1
102
RTVSPropertyOp47
 70
     1
102
RTVSPropertyOp48
 70
     1
102
RTVSPropertyOp49
 70
     1
102
RTVSPropertyOp50
 70
     1
102
RTVSPropertyOp51
 70
     0
102
RTVSPropertyOp52
 70
     0
102
RTVSPropertyOp53
 70
     1
102
RTVSPropertyOp54
 70
     1
102
RTVSPropertyOp55
 70
     1
102
RTVSPropertyOp56
 70
     1
102
RTVSPropertyOp57
 70
     1
102
RTVSPropertyOp58
 70
     1
102
RTVSPropertyOp59
 70
     1
102
RTVSPropertyOp60
 70
     1
102
RTVSPropertyOp61
 70
     1
102
RTVSPropertyOp62
 70
     1
  0
XRECORD
  5
20765
102
{ACAD_REACTORS
330
20764
102
}
330
20764
100
AcDbXrecord
280
     1
102
RTVSPost2010Prop28
280
     0
102
RTVSPost2010PropOp28
 70
     1
102
RTVSPost2010Prop29
280
     1
102
RTVSPost2010PropOp29
 70
     1
102
RTVSPost2010Prop30
280
     1
102
RTVSPost2010PropOp30
 70
     1
102
RTVSPost2010Prop31
280
     0
102
RTVSPost2010PropOp31
 70
     1
102
RTVSPost2010Prop32
280
     0
102
RTVSPost2010PropOp32
 70
     1
102
RTVSPost2010Prop33
280
     0
102
RTVSPost2010PropOp33
 70
     1
102
RTVSPost2010Prop34
280
     0
102
RTVSPost2010PropOp34
 70
     1
102
RTVSPost2010Prop35
280
     0
102
RTVSPost2010PropOp35
 70
     1
102
RTVSPost2010Prop36
280
     0
102
RTVSPost2010PropOp36
 70
     1
102
RTVSPost2010Prop37
 90
       50
102
RTVSPost2010PropOp37
 70
     1
102
RTVSPost2010Prop38
140
0.0
102
RTVSPost2010PropOp38
 70
     1
102
RTVSPost2010Prop39
140
1.0
102
RTVSPost2010PropOp39
 70
     1
102
RTVSPost2010Prop40
 90
        0
102
RTVSPost2010PropOp40
 70
     1
102
RTVSPost2010Prop41ColorIndex
 90
       18
102
RTVSPost2010Prop41ColorRGB
 90
        0
102
RTVSPost2010PropOp41
 70
     1
102
RTVSPost2010Prop42
 90
       50
102
RTVSPost2010PropOp42
 70
     1
102
RTVSPost2010Prop43
 90
        3
102
RTVSPost2010PropOp43
 70
     1
102
RTVSPost2010Prop44ColorIndex
 90
        5
102
RTVSPost2010Prop44ColorRGB
 90
      255
102
RTVSPost2010PropOp44
 70
     1
102
RTVSPost2010Prop45
280
     0
102
RTVSPost2010PropOp45
 70
     1
102
RTVSPost2010Prop46
 90
       50
102
RTVSPost2010PropOp46
 70
     1
102
RTVSPost2010Prop47
 90
       50
102
RTVSPost2010PropOp47
 70
     1
102
RTVSPost2010Prop48
 90
       50
102
RTVSPost2010PropOp48
 70
     1
102
RTVSPost2010Prop49
280
     0
102
RTVSPost2010PropOp49
 70
     1
102
RTVSPost2010Prop50
 90
       50
102
RTVSPost2010PropOp50
 70
     1
102
RTVSPost2010Prop51ColorIndex
 90
      256
102
RTVSPost2010Prop51ColorRGB
 90
-16777216
102
RTVSPost2010PropOp51
 70
     0
102
RTVSPost2010Prop52
140
1.0
102
RTVSPost2010PropOp52
 70
     0
102
RTVSPost2010Prop53
 90
        2
102
RTVSPost2010PropOp53
 70
     1
102
RTVSPost2010Prop54
  1
strokes_ogs.tif
102
RTVSPost2010PropOp54
 70
     1
102
RTVSPost2010Prop55
280
     0
102
RTVSPost2010PropOp55
 70
     1
102
RTVSPost2010Prop56
140
1.0
102
RTVSPost2010PropOp56
 70
     1
102
RTVSPost2010Prop57
140
1.0
102
RTVSPost2010PropOp57
 70
     1
102
RTVSPropertyOp0
 70
     1
102
RTVSPropertyOp1
 70
     1
102
RTVSPropertyOp2
 70
     1
102
RTVSPropertyOp3
 70
     1
102
RTVSPropertyOp4
 70
     1
102
RTVSPropertyOp5
 70
     1
102
RTVSPropertyOp6
 70
     1
102
RTVSPropertyOp7
 70
     1
102
RTVSPropertyOp8
 70
     1
102
RTVSPropertyOp9
 70
     1
102
RTVSPropertyOp10
 70
     1
102
RTVSPropertyOp11
 70
     1
102
RTVSPropertyOp12
 70
     1
102
RTVSPropertyOp13
 70
     1
102
RTVSPropertyOp14
 70
     1
102
RTVSPropertyOp15
 70
     1
102
RTVSPropertyOp16
 70
     1
102
RTVSPropertyOp17
 70
     1
102
RTVSPropertyOp18
 70
     1
102
RTVSPropertyOp19
 70
     1
102
RTVSPropertyOp20
 70
     1
102
RTVSPropertyOp21
 70
     1
102
RTVSPropertyOp22
 70
     1
102
RTVSPropertyOp23
 70
     1
102
RTVSPropertyOp24
 70
     1
102
RTVSPropertyOp25
 70
     1
102
RTVSPropertyOp26
 70
     1
102
RTVSPropertyOp27
 70
     1
102
RTVSPropertyOp28
 70
     1
102
RTVSPropertyOp29
 70
     1
102
RTVSPropertyOp30
 70
     1
102
RTVSPropertyOp31
 70
     1
102
RTVSPropertyOp32
 70
     1
102
RTVSPropertyOp33
 70
     1
102
RTVSPropertyOp34
 70
     1
102
RTVSPropertyOp35
 70
     1
102
RTVSPropertyOp36
 70
     1
102
RTVSPropertyOp37
 70
     1
102
RTVSPropertyOp38
 70
     1
102
RTVSPropertyOp39
 70
     1
102
RTVSPropertyOp40
 70
     1
102
RTVSPropertyOp41
 70
     1
102
RTVSPropertyOp42
 70
     1
102
RTVSPropertyOp43
 70
     1
102
RTVSPropertyOp44
 70
     1
102
RTVSPropertyOp45
 70
     1
102
RTVSPropertyOp46
 70
     1
102
RTVSPropertyOp47
 70
     1
102
RTVSPropertyOp48
 70
     1
102
RTVSPropertyOp49
 70
     1
102
RTVSPropertyOp50
 70
     1
102
RTVSPropertyOp51
 70
     0
102
RTVSPropertyOp52
 70
     0
102
RTVSPropertyOp53
 70
     1
102
RTVSPropertyOp54
 70
     1
102
RTVSPropertyOp55
 70
     1
102
RTVSPropertyOp56
 70
     1
102
RTVSPropertyOp57
 70
     1
102
RTVSPropertyOp58
 70
     1
102
RTVSPropertyOp59
 70
     1
102
RTVSPropertyOp60
 70
     1
102
RTVSPropertyOp61
 70
     1
102
RTVSPropertyOp62
 70
     1
  0
XRECORD
  5
2075F
102
{ACAD_REACTORS
330
2075E
102
}
330
2075E
100
AcDbXrecord
280
     1
102
RTVSPost2010Prop28
280
     0
102
RTVSPost2010PropOp28
 70
     1
102
RTVSPost2010Prop29
280
     1
102
RTVSPost2010PropOp29
 70
     1
102
RTVSPost2010Prop30
280
     1
102
RTVSPost2010PropOp30
 70
     1
102
RTVSPost2010Prop31
280
     0
102
RTVSPost2010PropOp31
 70
     1
102
RTVSPost2010Prop32
280
     0
102
RTVSPost2010PropOp32
 70
     1
102
RTVSPost2010Prop33
280
     0
102
RTVSPost2010PropOp33
 70
     1
102
RTVSPost2010Prop34
280
     0
102
RTVSPost2010PropOp34
 70
     1
102
RTVSPost2010Prop35
280
     0
102
RTVSPost2010PropOp35
 70
     1
102
RTVSPost2010Prop36
280
     0
102
RTVSPost2010PropOp36
 70
     1
102
RTVSPost2010Prop37
 90
       50
102
RTVSPost2010PropOp37
 70
     1
102
RTVSPost2010Prop38
140
0.0
102
RTVSPost2010PropOp38
 70
     1
102
RTVSPost2010Prop39
140
1.0
102
RTVSPost2010PropOp39
 70
     1
102
RTVSPost2010Prop40
 90
        0
102
RTVSPost2010PropOp40
 70
     1
102
RTVSPost2010Prop41ColorIndex
 90
       18
102
RTVSPost2010Prop41ColorRGB
 90
        0
102
RTVSPost2010PropOp41
 70
     1
102
RTVSPost2010Prop42
 90
       50
102
RTVSPost2010PropOp42
 70
     1
102
RTVSPost2010Prop43
 90
        3
102
RTVSPost2010PropOp43
 70
     1
102
RTVSPost2010Prop44ColorIndex
 90
        5
102
RTVSPost2010Prop44ColorRGB
 90
      255
102
RTVSPost2010PropOp44
 70
     1
102
RTVSPost2010Prop45
280
     0
102
RTVSPost2010PropOp45
 70
     1
102
RTVSPost2010Prop46
 90
       50
102
RTVSPost2010PropOp46
 70
     1
102
RTVSPost2010Prop47
 90
       50
102
RTVSPost2010PropOp47
 70
     1
102
RTVSPost2010Prop48
 90
       50
102
RTVSPost2010PropOp48
 70
     1
102
RTVSPost2010Prop49
280
     0
102
RTVSPost2010PropOp49
 70
     1
102
RTVSPost2010Prop50
 90
       50
102
RTVSPost2010PropOp50
 70
     1
102
RTVSPost2010Prop51ColorIndex
 90
      256
102
RTVSPost2010Prop51ColorRGB
 90
-16777216
102
RTVSPost2010PropOp51
 70
     0
102
RTVSPost2010Prop52
140
1.0
102
RTVSPost2010PropOp52
 70
     0
102
RTVSPost2010Prop53
 90
        2
102
RTVSPost2010PropOp53
 70
     1
102
RTVSPost2010Prop54
  1
strokes_ogs.tif
102
RTVSPost2010PropOp54
 70
     1
102
RTVSPost2010Prop55
280
     0
102
RTVSPost2010PropOp55
 70
     1
102
RTVSPost2010Prop56
140
1.0
102
RTVSPost2010PropOp56
 70
     1
102
RTVSPost2010Prop57
140
1.0
102
RTVSPost2010PropOp57
 70
     1
102
RTVSPropertyOp0
 70
     1
102
RTVSPropertyOp1
 70
     1
102
RTVSPropertyOp2
 70
     1
102
RTVSPropertyOp3
 70
     1
102
RTVSPropertyOp4
 70
     1
102
RTVSPropertyOp5
 70
     1
102
RTVSPropertyOp6
 70
     1
102
RTVSPropertyOp7
 70
     1
102
RTVSPropertyOp8
 70
     1
102
RTVSPropertyOp9
 70
     1
102
RTVSPropertyOp10
 70
     1
102
RTVSPropertyOp11
 70
     1
102
RTVSPropertyOp12
 70
     1
102
RTVSPropertyOp13
 70
     1
102
RTVSPropertyOp14
 70
     1
102
RTVSPropertyOp15
 70
     1
102
RTVSPropertyOp16
 70
     1
102
RTVSPropertyOp17
 70
     1
102
RTVSPropertyOp18
 70
     1
102
RTVSPropertyOp19
 70
     1
102
RTVSPropertyOp20
 70
     1
102
RTVSPropertyOp21
 70
     1
102
RTVSPropertyOp22
 70
     1
102
RTVSPropertyOp23
 70
     1
102
RTVSPropertyOp24
 70
     1
102
RTVSPropertyOp25
 70
     1
102
RTVSPropertyOp26
 70
     1
102
RTVSPropertyOp27
 70
     1
102
RTVSPropertyOp28
 70
     1
102
RTVSPropertyOp29
 70
     1
102
RTVSPropertyOp30
 70
     1
102
RTVSPropertyOp31
 70
     1
102
RTVSPropertyOp32
 70
     1
102
RTVSPropertyOp33
 70
     1
102
RTVSPropertyOp34
 70
     1
102
RTVSPropertyOp35
 70
     1
102
RTVSPropertyOp36
 70
     1
102
RTVSPropertyOp37
 70
     1
102
RTVSPropertyOp38
 70
     1
102
RTVSPropertyOp39
 70
     1
102
RTVSPropertyOp40
 70
     1
102
RTVSPropertyOp41
 70
     1
102
RTVSPropertyOp42
 70
     1
102
RTVSPropertyOp43
 70
     1
102
RTVSPropertyOp44
 70
     1
102
RTVSPropertyOp45
 70
     1
102
RTVSPropertyOp46
 70
     1
102
RTVSPropertyOp47
 70
     1
102
RTVSPropertyOp48
 70
     1
102
RTVSPropertyOp49
 70
     1
102
RTVSPropertyOp50
 70
     1
102
RTVSPropertyOp51
 70
     0
102
RTVSPropertyOp52
 70
     0
102
RTVSPropertyOp53
 70
     1
102
RTVSPropertyOp54
 70
     1
102
RTVSPropertyOp55
 70
     1
102
RTVSPropertyOp56
 70
     1
102
RTVSPropertyOp57
 70
     1
102
RTVSPropertyOp58
 70
     1
102
RTVSPropertyOp59
 70
     1
102
RTVSPropertyOp60
 70
     1
102
RTVSPropertyOp61
 70
     1
102
RTVSPropertyOp62
 70
     1
  0
XRECORD
  5
20761
102
{ACAD_REACTORS
330
20760
102
}
330
20760
100
AcDbXrecord
280
     1
102
RTVSPost2010Prop28
280
     0
102
RTVSPost2010PropOp28
 70
     1
102
RTVSPost2010Prop29
280
     1
102
RTVSPost2010PropOp29
 70
     1
102
RTVSPost2010Prop30
280
     1
102
RTVSPost2010PropOp30
 70
     1
102
RTVSPost2010Prop31
280
     0
102
RTVSPost2010PropOp31
 70
     1
102
RTVSPost2010Prop32
280
     0
102
RTVSPost2010PropOp32
 70
     1
102
RTVSPost2010Prop33
280
     0
102
RTVSPost2010PropOp33
 70
     1
102
RTVSPost2010Prop34
280
     0
102
RTVSPost2010PropOp34
 70
     1
102
RTVSPost2010Prop35
280
     0
102
RTVSPost2010PropOp35
 70
     1
102
RTVSPost2010Prop36
280
     0
102
RTVSPost2010PropOp36
 70
     1
102
RTVSPost2010Prop37
 90
       50
102
RTVSPost2010PropOp37
 70
     1
102
RTVSPost2010Prop38
140
0.0
102
RTVSPost2010PropOp38
 70
     1
102
RTVSPost2010Prop39
140
1.0
102
RTVSPost2010PropOp39
 70
     1
102
RTVSPost2010Prop40
 90
        0
102
RTVSPost2010PropOp40
 70
     1
102
RTVSPost2010Prop41ColorIndex
 90
       18
102
RTVSPost2010Prop41ColorRGB
 90
        0
102
RTVSPost2010PropOp41
 70
     1
102
RTVSPost2010Prop42
 90
       50
102
RTVSPost2010PropOp42
 70
     1
102
RTVSPost2010Prop43
 90
        3
102
RTVSPost2010PropOp43
 70
     1
102
RTVSPost2010Prop44ColorIndex
 90
        5
102
RTVSPost2010Prop44ColorRGB
 90
      255
102
RTVSPost2010PropOp44
 70
     1
102
RTVSPost2010Prop45
280
     0
102
RTVSPost2010PropOp45
 70
     1
102
RTVSPost2010Prop46
 90
       50
102
RTVSPost2010PropOp46
 70
     1
102
RTVSPost2010Prop47
 90
       50
102
RTVSPost2010PropOp47
 70
     1
102
RTVSPost2010Prop48
 90
       50
102
RTVSPost2010PropOp48
 70
     1
102
RTVSPost2010Prop49
280
     0
102
RTVSPost2010PropOp49
 70
     1
102
RTVSPost2010Prop50
 90
       50
102
RTVSPost2010PropOp50
 70
     1
102
RTVSPost2010Prop51ColorIndex
 90
      256
102
RTVSPost2010Prop51ColorRGB
 90
-16777216
102
RTVSPost2010PropOp51
 70
     0
102
RTVSPost2010Prop52
140
1.0
102
RTVSPost2010PropOp52
 70
     0
102
RTVSPost2010Prop53
 90
        2
102
RTVSPost2010PropOp53
 70
     1
102
RTVSPost2010Prop54
  1
strokes_ogs.tif
102
RTVSPost2010PropOp54
 70
     1
102
RTVSPost2010Prop55
280
     0
102
RTVSPost2010PropOp55
 70
     1
102
RTVSPost2010Prop56
140
1.0
102
RTVSPost2010PropOp56
 70
     1
102
RTVSPost2010Prop57
140
1.0
102
RTVSPost2010PropOp57
 70
     1
102
RTVSPropertyOp0
 70
     1
102
RTVSPropertyOp1
 70
     1
102
RTVSPropertyOp2
 70
     1
102
RTVSPropertyOp3
 70
     1
102
RTVSPropertyOp4
 70
     1
102
RTVSPropertyOp5
 70
     1
102
RTVSPropertyOp6
 70
     1
102
RTVSPropertyOp7
 70
     1
102
RTVSPropertyOp8
 70
     1
102
RTVSPropertyOp9
 70
     1
102
RTVSPropertyOp10
 70
     1
102
RTVSPropertyOp11
 70
     1
102
RTVSPropertyOp12
 70
     1
102
RTVSPropertyOp13
 70
     1
102
RTVSPropertyOp14
 70
     1
102
RTVSPropertyOp15
 70
     1
102
RTVSPropertyOp16
 70
     1
102
RTVSPropertyOp17
 70
     1
102
RTVSPropertyOp18
 70
     1
102
RTVSPropertyOp19
 70
     1
102
RTVSPropertyOp20
 70
     1
102
RTVSPropertyOp21
 70
     1
102
RTVSPropertyOp22
 70
     1
102
RTVSPropertyOp23
 70
     1
102
RTVSPropertyOp24
 70
     1
102
RTVSPropertyOp25
 70
     1
102
RTVSPropertyOp26
 70
     1
102
RTVSPropertyOp27
 70
     1
102
RTVSPropertyOp28
 70
     1
102
RTVSPropertyOp29
 70
     1
102
RTVSPropertyOp30
 70
     1
102
RTVSPropertyOp31
 70
     1
102
RTVSPropertyOp32
 70
     1
102
RTVSPropertyOp33
 70
     1
102
RTVSPropertyOp34
 70
     1
102
RTVSPropertyOp35
 70
     1
102
RTVSPropertyOp36
 70
     1
102
RTVSPropertyOp37
 70
     1
102
RTVSPropertyOp38
 70
     1
102
RTVSPropertyOp39
 70
     1
102
RTVSPropertyOp40
 70
     1
102
RTVSPropertyOp41
 70
     1
102
RTVSPropertyOp42
 70
     1
102
RTVSPropertyOp43
 70
     1
102
RTVSPropertyOp44
 70
     1
102
RTVSPropertyOp45
 70
     1
102
RTVSPropertyOp46
 70
     1
102
RTVSPropertyOp47
 70
     1
102
RTVSPropertyOp48
 70
     1
102
RTVSPropertyOp49
 70
     1
102
RTVSPropertyOp50
 70
     1
102
RTVSPropertyOp51
 70
     0
102
RTVSPropertyOp52
 70
     0
102
RTVSPropertyOp53
 70
     1
102
RTVSPropertyOp54
 70
     1
102
RTVSPropertyOp55
 70
     1
102
RTVSPropertyOp56
 70
     1
102
RTVSPropertyOp57
 70
     1
102
RTVSPropertyOp58
 70
     1
102
RTVSPropertyOp59
 70
     1
102
RTVSPropertyOp60
 70
     1
102
RTVSPropertyOp61
 70
     1
102
RTVSPropertyOp62
 70
     1
  0
XRECORD
  5
20757
102
{ACAD_REACTORS
330
20756
102
}
330
20756
100
AcDbXrecord
280
     1
102
RTVSPost2010Prop28
280
     0
102
RTVSPost2010PropOp28
 70
     1
102
RTVSPost2010Prop29
280
     1
102
RTVSPost2010PropOp29
 70
     1
102
RTVSPost2010Prop30
280
     1
102
RTVSPost2010PropOp30
 70
     1
102
RTVSPost2010Prop31
280
     0
102
RTVSPost2010PropOp31
 70
     1
102
RTVSPost2010Prop32
280
     0
102
RTVSPost2010PropOp32
 70
     1
102
RTVSPost2010Prop33
280
     0
102
RTVSPost2010PropOp33
 70
     1
102
RTVSPost2010Prop34
280
     0
102
RTVSPost2010PropOp34
 70
     1
102
RTVSPost2010Prop35
280
     0
102
RTVSPost2010PropOp35
 70
     1
102
RTVSPost2010Prop36
280
     0
102
RTVSPost2010PropOp36
 70
     1
102
RTVSPost2010Prop37
 90
       50
102
RTVSPost2010PropOp37
 70
     1
102
RTVSPost2010Prop38
140
0.0
102
RTVSPost2010PropOp38
 70
     1
102
RTVSPost2010Prop39
140
1.0
102
RTVSPost2010PropOp39
 70
     1
102
RTVSPost2010Prop40
 90
        0
102
RTVSPost2010PropOp40
 70
     1
102
RTVSPost2010Prop41ColorIndex
 90
       18
102
RTVSPost2010Prop41ColorRGB
 90
        0
102
RTVSPost2010PropOp41
 70
     1
102
RTVSPost2010Prop42
 90
       50
102
RTVSPost2010PropOp42
 70
     1
102
RTVSPost2010Prop43
 90
        3
102
RTVSPost2010PropOp43
 70
     1
102
RTVSPost2010Prop44ColorIndex
 90
        5
102
RTVSPost2010Prop44ColorRGB
 90
      255
102
RTVSPost2010PropOp44
 70
     1
102
RTVSPost2010Prop45
280
     0
102
RTVSPost2010PropOp45
 70
     1
102
RTVSPost2010Prop46
 90
       50
102
RTVSPost2010PropOp46
 70
     1
102
RTVSPost2010Prop47
 90
       50
102
RTVSPost2010PropOp47
 70
     1
102
RTVSPost2010Prop48
 90
       50
102
RTVSPost2010PropOp48
 70
     1
102
RTVSPost2010Prop49
280
     0
102
RTVSPost2010PropOp49
 70
     1
102
RTVSPost2010Prop50
 90
       50
102
RTVSPost2010PropOp50
 70
     1
102
RTVSPost2010Prop51ColorIndex
 90
      256
102
RTVSPost2010Prop51ColorRGB
 90
-16777216
102
RTVSPost2010PropOp51
 70
     0
102
RTVSPost2010Prop52
140
1.0
102
RTVSPost2010PropOp52
 70
     0
102
RTVSPost2010Prop53
 90
        2
102
RTVSPost2010PropOp53
 70
     1
102
RTVSPost2010Prop54
  1
strokes_ogs.tif
102
RTVSPost2010PropOp54
 70
     1
102
RTVSPost2010Prop55
280
     0
102
RTVSPost2010PropOp55
 70
     1
102
RTVSPost2010Prop56
140
1.0
102
RTVSPost2010PropOp56
 70
     1
102
RTVSPost2010Prop57
140
1.0
102
RTVSPost2010PropOp57
 70
     1
102
RTVSPropertyOp0
 70
     1
102
RTVSPropertyOp1
 70
     1
102
RTVSPropertyOp2
 70
     1
102
RTVSPropertyOp3
 70
     1
102
RTVSPropertyOp4
 70
     1
102
RTVSPropertyOp5
 70
     1
102
RTVSPropertyOp6
 70
     1
102
RTVSPropertyOp7
 70
     1
102
RTVSPropertyOp8
 70
     1
102
RTVSPropertyOp9
 70
     1
102
RTVSPropertyOp10
 70
     1
102
RTVSPropertyOp11
 70
     1
102
RTVSPropertyOp12
 70
     1
102
RTVSPropertyOp13
 70
     1
102
RTVSPropertyOp14
 70
     1
102
RTVSPropertyOp15
 70
     1
102
RTVSPropertyOp16
 70
     1
102
RTVSPropertyOp17
 70
     1
102
RTVSPropertyOp18
 70
     1
102
RTVSPropertyOp19
 70
     1
102
RTVSPropertyOp20
 70
     1
102
RTVSPropertyOp21
 70
     1
102
RTVSPropertyOp22
 70
     1
102
RTVSPropertyOp23
 70
     1
102
RTVSPropertyOp24
 70
     1
102
RTVSPropertyOp25
 70
     1
102
RTVSPropertyOp26
 70
     1
102
RTVSPropertyOp27
 70
     1
102
RTVSPropertyOp28
 70
     1
102
RTVSPropertyOp29
 70
     1
102
RTVSPropertyOp30
 70
     1
102
RTVSPropertyOp31
 70
     1
102
RTVSPropertyOp32
 70
     1
102
RTVSPropertyOp33
 70
     1
102
RTVSPropertyOp34
 70
     1
102
RTVSPropertyOp35
 70
     1
102
RTVSPropertyOp36
 70
     1
102
RTVSPropertyOp37
 70
     1
102
RTVSPropertyOp38
 70
     1
102
RTVSPropertyOp39
 70
     1
102
RTVSPropertyOp40
 70
     1
102
RTVSPropertyOp41
 70
     1
102
RTVSPropertyOp42
 70
     1
102
RTVSPropertyOp43
 70
     1
102
RTVSPropertyOp44
 70
     1
102
RTVSPropertyOp45
 70
     1
102
RTVSPropertyOp46
 70
     1
102
RTVSPropertyOp47
 70
     1
102
RTVSPropertyOp48
 70
     1
102
RTVSPropertyOp49
 70
     1
102
RTVSPropertyOp50
 70
     1
102
RTVSPropertyOp51
 70
     0
102
RTVSPropertyOp52
 70
     0
102
RTVSPropertyOp53
 70
     1
102
RTVSPropertyOp54
 70
     1
102
RTVSPropertyOp55
 70
     1
102
RTVSPropertyOp56
 70
     1
102
RTVSPropertyOp57
 70
     1
102
RTVSPropertyOp58
 70
     1
102
RTVSPropertyOp59
 70
     1
102
RTVSPropertyOp60
 70
     1
102
RTVSPropertyOp61
 70
     1
102
RTVSPropertyOp62
 70
     1
  0
XRECORD
  5
2074B
102
{ACAD_REACTORS
330
2074A
102
}
330
2074A
100
AcDbXrecord
280
     1
102
RTVSPost2010Prop28
280
     0
102
RTVSPost2010PropOp28
 70
     1
102
RTVSPost2010Prop29
280
     1
102
RTVSPost2010PropOp29
 70
     1
102
RTVSPost2010Prop30
280
     1
102
RTVSPost2010PropOp30
 70
     1
102
RTVSPost2010Prop31
280
     0
102
RTVSPost2010PropOp31
 70
     1
102
RTVSPost2010Prop32
280
     0
102
RTVSPost2010PropOp32
 70
     1
102
RTVSPost2010Prop33
280
     0
102
RTVSPost2010PropOp33
 70
     1
102
RTVSPost2010Prop34
280
     0
102
RTVSPost2010PropOp34
 70
     1
102
RTVSPost2010Prop35
280
     0
102
RTVSPost2010PropOp35
 70
     1
102
RTVSPost2010Prop36
280
     0
102
RTVSPost2010PropOp36
 70
     1
102
RTVSPost2010Prop37
 90
       50
102
RTVSPost2010PropOp37
 70
     1
102
RTVSPost2010Prop38
140
0.0
102
RTVSPost2010PropOp38
 70
     1
102
RTVSPost2010Prop39
140
1.0
102
RTVSPost2010PropOp39
 70
     1
102
RTVSPost2010Prop40
 90
        0
102
RTVSPost2010PropOp40
 70
     1
102
RTVSPost2010Prop41ColorIndex
 90
       18
102
RTVSPost2010Prop41ColorRGB
 90
        0
102
RTVSPost2010PropOp41
 70
     1
102
RTVSPost2010Prop42
 90
       50
102
RTVSPost2010PropOp42
 70
     1
102
RTVSPost2010Prop43
 90
        3
102
RTVSPost2010PropOp43
 70
     1
102
RTVSPost2010Prop44ColorIndex
 90
        5
102
RTVSPost2010Prop44ColorRGB
 90
      255
102
RTVSPost2010PropOp44
 70
     1
102
RTVSPost2010Prop45
280
     0
102
RTVSPost2010PropOp45
 70
     1
102
RTVSPost2010Prop46
 90
       50
102
RTVSPost2010PropOp46
 70
     1
102
RTVSPost2010Prop47
 90
       50
102
RTVSPost2010PropOp47
 70
     1
102
RTVSPost2010Prop48
 90
       50
102
RTVSPost2010PropOp48
 70
     1
102
RTVSPost2010Prop49
280
     0
102
RTVSPost2010PropOp49
 70
     1
102
RTVSPost2010Prop50
 90
       50
102
RTVSPost2010PropOp50
 70
     1
102
RTVSPost2010Prop51ColorIndex
 90
      256
102
RTVSPost2010Prop51ColorRGB
 90
-16777216
102
RTVSPost2010PropOp51
 70
     0
102
RTVSPost2010Prop52
140
1.0
102
RTVSPost2010PropOp52
 70
     0
102
RTVSPost2010Prop53
 90
        2
102
RTVSPost2010PropOp53
 70
     1
102
RTVSPost2010Prop54
  1
strokes_ogs.tif
102
RTVSPost2010PropOp54
 70
     1
102
RTVSPost2010Prop55
280
     0
102
RTVSPost2010PropOp55
 70
     1
102
RTVSPost2010Prop56
140
1.0
102
RTVSPost2010PropOp56
 70
     1
102
RTVSPost2010Prop57
140
1.0
102
RTVSPost2010PropOp57
 70
     1
102
RTVSPropertyOp0
 70
     1
102
RTVSPropertyOp1
 70
     1
102
RTVSPropertyOp2
 70
     1
102
RTVSPropertyOp3
 70
     1
102
RTVSPropertyOp4
 70
     1
102
RTVSPropertyOp5
 70
     1
102
RTVSPropertyOp6
 70
     1
102
RTVSPropertyOp7
 70
     1
102
RTVSPropertyOp8
 70
     1
102
RTVSPropertyOp9
 70
     1
102
RTVSPropertyOp10
 70
     1
102
RTVSPropertyOp11
 70
     1
102
RTVSPropertyOp12
 70
     1
102
RTVSPropertyOp13
 70
     1
102
RTVSPropertyOp14
 70
     1
102
RTVSPropertyOp15
 70
     1
102
RTVSPropertyOp16
 70
     1
102
RTVSPropertyOp17
 70
     1
102
RTVSPropertyOp18
 70
     1
102
RTVSPropertyOp19
 70
     1
102
RTVSPropertyOp20
 70
     1
102
RTVSPropertyOp21
 70
     1
102
RTVSPropertyOp22
 70
     1
102
RTVSPropertyOp23
 70
     1
102
RTVSPropertyOp24
 70
     1
102
RTVSPropertyOp25
 70
     1
102
RTVSPropertyOp26
 70
     1
102
RTVSPropertyOp27
 70
     1
102
RTVSPropertyOp28
 70
     1
102
RTVSPropertyOp29
 70
     1
102
RTVSPropertyOp30
 70
     1
102
RTVSPropertyOp31
 70
     1
102
RTVSPropertyOp32
 70
     1
102
RTVSPropertyOp33
 70
     1
102
RTVSPropertyOp34
 70
     1
102
RTVSPropertyOp35
 70
     1
102
RTVSPropertyOp36
 70
     1
102
RTVSPropertyOp37
 70
     1
102
RTVSPropertyOp38
 70
     1
102
RTVSPropertyOp39
 70
     1
102
RTVSPropertyOp40
 70
     1
102
RTVSPropertyOp41
 70
     1
102
RTVSPropertyOp42
 70
     1
102
RTVSPropertyOp43
 70
     1
102
RTVSPropertyOp44
 70
     1
102
RTVSPropertyOp45
 70
     1
102
RTVSPropertyOp46
 70
     1
102
RTVSPropertyOp47
 70
     1
102
RTVSPropertyOp48
 70
     1
102
RTVSPropertyOp49
 70
     1
102
RTVSPropertyOp50
 70
     1
102
RTVSPropertyOp51
 70
     0
102
RTVSPropertyOp52
 70
     0
102
RTVSPropertyOp53
 70
     1
102
RTVSPropertyOp54
 70
     1
102
RTVSPropertyOp55
 70
     1
102
RTVSPropertyOp56
 70
     1
102
RTVSPropertyOp57
 70
     1
102
RTVSPropertyOp58
 70
     1
102
RTVSPropertyOp59
 70
     1
102
RTVSPropertyOp60
 70
     1
102
RTVSPropertyOp61
 70
     1
102
RTVSPropertyOp62
 70
     1
  0
XRECORD
  5
20763
102
{ACAD_REACTORS
330
20762
102
}
330
20762
100
AcDbXrecord
280
     1
102
RTVSPost2010Prop28
280
     0
102
RTVSPost2010PropOp28
 70
     1
102
RTVSPost2010Prop29
280
     1
102
RTVSPost2010PropOp29
 70
     1
102
RTVSPost2010Prop30
280
     1
102
RTVSPost2010PropOp30
 70
     1
102
RTVSPost2010Prop31
280
     0
102
RTVSPost2010PropOp31
 70
     1
102
RTVSPost2010Prop32
280
     0
102
RTVSPost2010PropOp32
 70
     1
102
RTVSPost2010Prop33
280
     0
102
RTVSPost2010PropOp33
 70
     1
102
RTVSPost2010Prop34
280
     0
102
RTVSPost2010PropOp34
 70
     1
102
RTVSPost2010Prop35
280
     0
102
RTVSPost2010PropOp35
 70
     1
102
RTVSPost2010Prop36
280
     0
102
RTVSPost2010PropOp36
 70
     1
102
RTVSPost2010Prop37
 90
       50
102
RTVSPost2010PropOp37
 70
     1
102
RTVSPost2010Prop38
140
0.0
102
RTVSPost2010PropOp38
 70
     1
102
RTVSPost2010Prop39
140
1.0
102
RTVSPost2010PropOp39
 70
     1
102
RTVSPost2010Prop40
 90
        0
102
RTVSPost2010PropOp40
 70
     1
102
RTVSPost2010Prop41ColorIndex
 90
       18
102
RTVSPost2010Prop41ColorRGB
 90
        0
102
RTVSPost2010PropOp41
 70
     1
102
RTVSPost2010Prop42
 90
       50
102
RTVSPost2010PropOp42
 70
     1
102
RTVSPost2010Prop43
 90
        3
102
RTVSPost2010PropOp43
 70
     1
102
RTVSPost2010Prop44ColorIndex
 90
        5
102
RTVSPost2010Prop44ColorRGB
 90
      255
102
RTVSPost2010PropOp44
 70
     1
102
RTVSPost2010Prop45
280
     0
102
RTVSPost2010PropOp45
 70
     1
102
RTVSPost2010Prop46
 90
       50
102
RTVSPost2010PropOp46
 70
     1
102
RTVSPost2010Prop47
 90
       50
102
RTVSPost2010PropOp47
 70
     1
102
RTVSPost2010Prop48
 90
       50
102
RTVSPost2010PropOp48
 70
     1
102
RTVSPost2010Prop49
280
     0
102
RTVSPost2010PropOp49
 70
     1
102
RTVSPost2010Prop50
 90
       50
102
RTVSPost2010PropOp50
 70
     1
102
RTVSPost2010Prop51ColorIndex
 90
      256
102
RTVSPost2010Prop51ColorRGB
 90
-16777216
102
RTVSPost2010PropOp51
 70
     0
102
RTVSPost2010Prop52
140
1.0
102
RTVSPost2010PropOp52
 70
     0
102
RTVSPost2010Prop53
 90
        2
102
RTVSPost2010PropOp53
 70
     1
102
RTVSPost2010Prop54
  1
strokes_ogs.tif
102
RTVSPost2010PropOp54
 70
     1
102
RTVSPost2010Prop55
280
     0
102
RTVSPost2010PropOp55
 70
     1
102
RTVSPost2010Prop56
140
1.0
102
RTVSPost2010PropOp56
 70
     1
102
RTVSPost2010Prop57
140
1.0
102
RTVSPost2010PropOp57
 70
     1
102
RTVSPropertyOp0
 70
     1
102
RTVSPropertyOp1
 70
     1
102
RTVSPropertyOp2
 70
     1
102
RTVSPropertyOp3
 70
     1
102
RTVSPropertyOp4
 70
     1
102
RTVSPropertyOp5
 70
     1
102
RTVSPropertyOp6
 70
     1
102
RTVSPropertyOp7
 70
     1
102
RTVSPropertyOp8
 70
     1
102
RTVSPropertyOp9
 70
     1
102
RTVSPropertyOp10
 70
     1
102
RTVSPropertyOp11
 70
     1
102
RTVSPropertyOp12
 70
     1
102
RTVSPropertyOp13
 70
     1
102
RTVSPropertyOp14
 70
     1
102
RTVSPropertyOp15
 70
     1
102
RTVSPropertyOp16
 70
     1
102
RTVSPropertyOp17
 70
     1
102
RTVSPropertyOp18
 70
     1
102
RTVSPropertyOp19
 70
     1
102
RTVSPropertyOp20
 70
     1
102
RTVSPropertyOp21
 70
     1
102
RTVSPropertyOp22
 70
     1
102
RTVSPropertyOp23
 70
     1
102
RTVSPropertyOp24
 70
     1
102
RTVSPropertyOp25
 70
     1
102
RTVSPropertyOp26
 70
     1
102
RTVSPropertyOp27
 70
     1
102
RTVSPropertyOp28
 70
     1
102
RTVSPropertyOp29
 70
     1
102
RTVSPropertyOp30
 70
     1
102
RTVSPropertyOp31
 70
     1
102
RTVSPropertyOp32
 70
     1
102
RTVSPropertyOp33
 70
     1
102
RTVSPropertyOp34
 70
     1
102
RTVSPropertyOp35
 70
     1
102
RTVSPropertyOp36
 70
     1
102
RTVSPropertyOp37
 70
     1
102
RTVSPropertyOp38
 70
     1
102
RTVSPropertyOp39
 70
     1
102
RTVSPropertyOp40
 70
     1
102
RTVSPropertyOp41
 70
     1
102
RTVSPropertyOp42
 70
     1
102
RTVSPropertyOp43
 70
     1
102
RTVSPropertyOp44
 70
     1
102
RTVSPropertyOp45
 70
     1
102
RTVSPropertyOp46
 70
     1
102
RTVSPropertyOp47
 70
     1
102
RTVSPropertyOp48
 70
     1
102
RTVSPropertyOp49
 70
     1
102
RTVSPropertyOp50
 70
     1
102
RTVSPropertyOp51
 70
     0
102
RTVSPropertyOp52
 70
     0
102
RTVSPropertyOp53
 70
     1
102
RTVSPropertyOp54
 70
     1
102
RTVSPropertyOp55
 70
     1
102
RTVSPropertyOp56
 70
     1
102
RTVSPropertyOp57
 70
     1
102
RTVSPropertyOp58
 70
     1
102
RTVSPropertyOp59
 70
     1
102
RTVSPropertyOp60
 70
     1
102
RTVSPropertyOp61
 70
     1
102
RTVSPropertyOp62
 70
     1
  0
ENDSEC
  0
EOF
