  0
SECTION
  2
HEADER
  9
$ACADVER
  1
AC1015
  9
$ACADMAINTVER
 70
     6
  9
$DWGCODEPAGE
  3
ANSI_932
  9
$INSBASE
 10
0.0
 20
0.0
 30
0.0
  9
$EXTMIN
 10
174.9999999999993
 20
-0.0000000000001137
 30
0.0
  9
$EXTMAX
 10
20384.0
 20
14262.0
 30
0.0
  9
$LIMMIN
 10
0.0
 20
0.0
  9
$LIMMAX
 10
21000.0
 20
14850.0
  9
$ORTHOMODE
 70
     0
  9
$REGENMODE
 70
     1
  9
$FILLMODE
 70
     1
  9
$QTEXTMODE
 70
     0
  9
$MIRRTEXT
 70
     1
  9
$LTSCALE
 40
20.0
  9
$ATTMODE
 70
     1
  9
$TEXTSIZE
 40
100.0
  9
$TRACEWID
 40
1.0
  9
$TEXTSTYLE
  7
STYLE3
  9
$CLAYER
  8
部品1
  9
$CELTYPE
  6
BYLAYER
  9
$CECOLOR
 62
   256
  9
$CELTSCALE
 40
50.0
  9
$DISPSILH
 70
     0
  9
$DIMSCALE
 40
1.0
  9
$DIMASZ
 40
125.0
  9
$DIMEXO
 40
25.0
  9
$DIMDLI
 40
7.0
  9
$DIMRND
 40
0.0
  9
$DIMDLE
 40
0.0
  9
$DIMEXE
 40
75.0
  9
$DIMTP
 40
0.0
  9
$DIMTM
 40
0.0
  9
$DIMTXT
 40
150.0
  9
$DIMCEN
 40
0.0
  9
$DIMTSZ
 40
0.0
  9
$DIMTOL
 70
     0
  9
$DIMLIM
 70
     0
  9
$DIMTIH
 70
     0
  9
$DIMTOH
 70
     0
  9
$DIMSE1
 70
     0
  9
$DIMSE2
 70
     0
  9
$DIMTAD
 70
     3
  9
$DIMZIN
 70
     8
  9
$DIMBLK
  1

  9
$DIMASO
 70
     1
  9
$DIMSHO
 70
     1
  9
$DIMPOST
  1

  9
$DIMAPOST
  1

  9
$DIMALT
 70
     0
  9
$DIMALTD
 70
     2
  9
$DIMALTF
 40
0.0394
  9
$DIMLFAC
 40
1.0
  9
$DIMTOFL
 70
     1
  9
$DIMTVP
 40
0.0
  9
$DIMTIX
 70
     1
  9
$DIMSOXD
 70
     0
  9
$DIMSAH
 70
     1
  9
$DIMBLK1
  1
DOTSMALL
  9
$DIMBLK2
  1
DOTSMALL
  9
$DIMSTYLE
  2
INABA_S50G
  9
$DIMCLRD
 70
     0
  9
$DIMCLRE
 70
     0
  9
$DIMCLRT
 70
     7
  9
$DIMTFAC
 40
1.0
  9
$DIMGAP
 40
25.0
  9
$DIMJUST
 70
     0
  9
$DIMSD1
 70
     0
  9
$DIMSD2
 70
     0
  9
$DIMTOLJ
 70
     1
  9
$DIMTZIN
 70
     0
  9
$DIMALTZ
 70
     0
  9
$DIMALTTZ
 70
     0
  9
$DIMUPT
 70
     0
  9
$DIMDEC
 70
     1
  9
$DIMTDEC
 70
     4
  9
$DIMALTU
 70
     2
  9
$DIMALTTD
 70
     2
  9
$DIMTXSTY
  7
STYLE1
  9
$DIMAUNIT
 70
     0
  9
$DIMADEC
 70
     0
  9
$DIMALTRND
 40
0.0
  9
$DIMAZIN
 70
     0
  9
$DIMDSEP
 70
    46
  9
$DIMATFIT
 70
     3
  9
$DIMFRAC
 70
     0
  9
$DIMLDRBLK
  1
DOTSMALL
  9
$DIMLUNIT
 70
     2
  9
$DIMLWD
 70
    -2
  9
$DIMLWE
 70
    -2
  9
$DIMTMOVE
 70
     0
  9
$LUNITS
 70
     2
  9
$LUPREC
 70
     1
  9
$SKETCHINC
 40
1.0
  9
$FILLETRAD
 40
5.0
  9
$AUNITS
 70
     0
  9
$AUPREC
 70
     0
  9
$MENU
  1
acad
  9
$ELEVATION
 40
0.0
  9
$PELEVATION
 40
0.0
  9
$THICKNESS
 40
0.0
  9
$LIMCHECK
 70
     0
  9
$CHAMFERA
 40
0.0
  9
$CHAMFERB
 40
0.0
  9
$CHAMFERC
 40
0.0
  9
$CHAMFERD
 40
0.0
  9
$SKPOLY
 70
     0
  9
$TDCREATE
 40
2452438.731043055
  9
$TDUCREATE
 40
2452438.356043055
  9
$TDUPDATE
 40
2452600.745504166
  9
$TDUUPDATE
 40
2452600.370504166
  9
$TDINDWG
 40
0.2447562731
  9
$TDUSRTIMER
 40
0.2447562731
  9
$USRTIMER
 70
     1
  9
$ANGBASE
 50
0.0
  9
$ANGDIR
 70
     0
  9
$PDMODE
 70
     3
  9
$PDSIZE
 40
2.0
  9
$PLINEWID
 40
0.0
  9
$SPLFRAME
 70
     0
  9
$SPLINETYPE
 70
     6
  9
$SPLINESEGS
 70
     8
  9
$HANDSEED
  5
13720
  9
$SURFTAB1
 70
     6
  9
$SURFTAB2
 70
     6
  9
$SURFTYPE
 70
     6
  9
$SURFU
 70
     6
  9
$SURFV
 70
     6
  9
$UCSBASE
  2

  9
$UCSNAME
  2

  9
$UCSORG
 10
0.0
 20
0.0
 30
0.0
  9
$UCSXDIR
 10
1.0
 20
0.0
 30
0.0
  9
$UCSYDIR
 10
0.0
 20
1.0
 30
0.0
  9
$UCSORTHOREF
  2

  9
$UCSORTHOVIEW
 70
     0
  9
$UCSORGTOP
 10
0.0
 20
0.0
 30
0.0
  9
$UCSORGBOTTOM
 10
0.0
 20
0.0
 30
0.0
  9
$UCSORGLEFT
 10
0.0
 20
0.0
 30
0.0
  9
$UCSORGRIGHT
 10
0.0
 20
0.0
 30
0.0
  9
$UCSORGFRONT
 10
0.0
 20
0.0
 30
0.0
  9
$UCSORGBACK
 10
0.0
 20
0.0
 30
0.0
  9
$PUCSBASE
  2

  9
$PUCSNAME
  2

  9
$PUCSORG
 10
0.0
 20
0.0
 30
0.0
  9
$PUCSXDIR
 10
1.0
 20
0.0
 30
0.0
  9
$PUCSYDIR
 10
0.0
 20
1.0
 30
0.0
  9
$PUCSORTHOREF
  2

  9
$PUCSORTHOVIEW
 70
     0
  9
$PUCSORGTOP
 10
0.0
 20
0.0
 30
0.0
  9
$PUCSORGBOTTOM
 10
0.0
 20
0.0
 30
0.0
  9
$PUCSORGLEFT
 10
0.0
 20
0.0
 30
0.0
  9
$PUCSORGRIGHT
 10
0.0
 20
0.0
 30
0.0
  9
$PUCSORGFRONT
 10
0.0
 20
0.0
 30
0.0
  9
$PUCSORGBACK
 10
0.0
 20
0.0
 30
0.0
  9
$USERI1
 70
     0
  9
$USERI2
 70
     0
  9
$USERI3
 70
     0
  9
$USERI4
 70
     0
  9
$USERI5
 70
     0
  9
$USERR1
 40
0.0
  9
$USERR2
 40
0.0
  9
$USERR3
 40
0.0
  9
$USERR4
 40
0.0
  9
$USERR5
 40
0.0
  9
$WORLDVIEW
 70
     1
  9
$SHADEDGE
 70
     3
  9
$SHADEDIF
 70
    70
  9
$TILEMODE
 70
     1
  9
$MAXACTVP
 70
    16
  9
$PINSBASE
 10
0.0
 20
0.0
 30
0.0
  9
$PLIMCHECK
 70
     0
  9
$PEXTMIN
 10
1.000000000000000E+20
 20
1.000000000000000E+20
 30
1.000000000000000E+20
  9
$PEXTMAX
 10
-1.000000000000000E+20
 20
-1.000000000000000E+20
 30
-1.000000000000000E+20
  9
$PLIMMIN
 10
0.0
 20
0.0
  9
$PLIMMAX
 10
420.0
 20
297.0
  9
$UNITMODE
 70
     0
  9
$VISRETAIN
 70
     0
  9
$PLINEGEN
 70
     0
  9
$PSLTSCALE
 70
     0
  9
$TREEDEPTH
 70
  3020
  9
$CMLSTYLE
  2
STANDARD
  9
$CMLJUST
 70
     0
  9
$CMLSCALE
 40
1.0
  9
$PROXYGRAPHICS
 70
     1
  9
$MEASUREMENT
 70
     0
  9
$CELWEIGHT
370
    -1
  9
$ENDCAPS
280
     0
  9
$JOINSTYLE
280
     0
  9
$LWDISPLAY
290
     0
  9
$INSUNITS
 70
     0
  9
$HYPERLINKBASE
  1

  9
$STYLESHEET
  1

  9
$XEDIT
290
     1
  9
$CEPSNTYPE
380
     0
  9
$PSTYLEMODE
290
     1
  9
$FINGERPRINTGUID
  2
{304C868D-FD79-11D6-9BAC-00C04F07587D}
  9
$VERSIONGUID
  2
{304C868E-FD79-11D6-9BAC-00C04F07587D}
  9
$EXTNAMES
290
     1
  9
$PSVPSCALE
 40
0.0
  9
$OLESTARTUP
290
     0
  0
ENDSEC
  0
SECTION
  2
CLASSES
  0
CLASS
  1
OLE2FRAME
  2
AcDbOle2Frame
  3
AutoCAD 2000
 90
    32768
280
     0
281
     1
  0
CLASS
  1
ACDBDICTIONARYWDFLT
  2
AcDbDictionaryWithDefault
  3
AutoCAD 2000
 90
        0
280
     0
281
     0
  0
CLASS
  1
ACDBPLACEHOLDER
  2
AcDbPlaceHolder
  3
AutoCAD 2000
 90
        0
280
     0
281
     0
  0
CLASS
  1
LAYOUT
  2
AcDbLayout
  3
AutoCAD 2000
 90
        0
280
     0
281
     0
  0
CLASS
  1
LONG_TRANSACTION
  2
AcDbLongTransaction
  3
AutoCAD 2000
 90
    32768
280
     0
281
     0
  0
CLASS
  1
LWPOLYLINE
  2
AcDbPolyline
  3
AutoCAD 2000
 90
    32768
280
     0
281
     1
  0
CLASS
  1
HATCH
  2
AcDbHatch
  3
AutoCAD 2000
 90
    32768
280
     0
281
     1
  0
CLASS
  1
XRECORD
  2
AcDbXrecord
  3
AutoCAD 2000
 90
    32768
280
     0
281
     0
  0
ENDSEC
  0
SECTION
  2
TABLES
  0
TABLE
  2
VPORT
  5
746D
330
0
100
AcDbSymbolTable
 70
     2
  0
VPORT
  5
1371F
330
746D
100
AcDbSymbolTableRecord
100
AcDbViewportTableRecord
  2
*Active
 70
     0
 10
0.0
 20
0.0
 11
1.0
 21
1.0
 12
16336.88210312707
 22
7130.772416696382
 13
0.0
 23
0.0
 14
10.0
 24
10.0
 15
10.0
 25
10.0
 16
0.0
 26
0.0
 36
1.0
 17
0.0
 27
0.0
 37
0.0
 40
14406.18108698476
 41
2.544927536231884
 42
50.0
 43
0.0
 44
0.0
 50
0.0
 51
0.0
 71
     0
 72
     0
 73
     1
 74
     0
 75
     0
 76
     0
 77
     0
 78
     0
281
     0
 65
     1
110
0.0
120
0.0
130
0.0
111
1.0
121
0.0
131
0.0
112
0.0
122
1.0
132
0.0
 79
     0
146
0.0
  0
ENDTAB
  0
TABLE
  2
LTYPE
  5
746A
330
0
100
AcDbSymbolTable
 70
     4
  0
LTYPE
  5
7477
330
746A
100
AcDbSymbolTableRecord
100
AcDbLinetypeTableRecord
  2
BYBLOCK
 70
     0
  3

 72
    65
 73
     0
 40
0.0
  0
LTYPE
  5
7478
330
746A
100
AcDbSymbolTableRecord
100
AcDbLinetypeTableRecord
  2
BYLAYER
 70
     0
  3

 72
    65
 73
     0
 40
0.0
  0
LTYPE
  5
7479
330
746A
100
AcDbSymbolTableRecord
100
AcDbLinetypeTableRecord
  2
CONTINUOUS
 70
     0
  3
Solid line
 72
    65
 73
     0
 40
0.0
  0
LTYPE
  5
7816
330
746A
100
AcDbSymbolTableRecord
100
AcDbLinetypeTableRecord
  2
CENTER
 70
     0
  3
____ _ ____ _ ____ _ ____ _ ____ _ ____ _ ____ 
 72
    65
 73
     4
 40
2.0
 49
1.25
 74
     0
 49
-0.25
 74
     0
 49
0.25
 74
     0
 49
-0.25
 74
     0
  0
LTYPE
  5
781A
330
746A
100
AcDbSymbolTableRecord
100
AcDbLinetypeTableRecord
  2
HIDDEN
 70
     0
  3
__ __ __ __ __ __ __ __ __ __ __ __ __ __ __ __
 72
    65
 73
     2
 40
0.375
 49
0.25
 74
     0
 49
-0.125
 74
     0
  0
LTYPE
  5
781B
330
746A
100
AcDbSymbolTableRecord
100
AcDbLinetypeTableRecord
  2
PHANTOM
 70
     0
  3
______  __  __  ______  __  __  ______  __  __ 
 72
    65
 73
     6
 40
2.5
 49
1.25
 74
     0
 49
-0.25
 74
     0
 49
0.25
 74
     0
 49
-0.25
 74
     0
 49
0.25
 74
     0
 49
-0.25
 74
     0
  0
ENDTAB
  0
TABLE
  2
LAYER
  5
7467
330
0
100
AcDbSymbolTable
 70
    11
  0
LAYER
  5
7474
330
7467
100
AcDbSymbolTableRecord
100
AcDbLayerTableRecord
  2
0
 70
     0
 62
     7
  6
CONTINUOUS
370
    -3
390
13718
  0
LAYER
  5
DEB2
330
7467
100
AcDbSymbolTableRecord
100
AcDbLayerTableRecord
  2
センター
 70
     0
 62
     3
  6
CENTER
370
    -3
390
13718
  0
LAYER
  5
DEB3
330
7467
100
AcDbSymbolTableRecord
100
AcDbLayerTableRecord
  2
寸法
 70
     0
 62
     4
  6
CONTINUOUS
370
    -3
390
13718
  0
LAYER
  5
DEB4
330
7467
100
AcDbSymbolTableRecord
100
AcDbLayerTableRecord
  2
部品1
 70
     0
 62
     7
  6
CONTINUOUS
370
    -3
390
13718
  0
LAYER
  5
DEB5
330
7467
100
AcDbSymbolTableRecord
100
AcDbLayerTableRecord
  2
補助
 70
     0
 62
    -1
  6
CONTINUOUS
370
    -3
390
13718
  0
LAYER
  5
DEB6
330
7467
100
AcDbSymbolTableRecord
100
AcDbLayerTableRecord
  2
文字
 70
     0
 62
     7
  6
CONTINUOUS
370
    -3
390
13718
  0
LAYER
  5
F255
330
7467
100
AcDbSymbolTableRecord
100
AcDbLayerTableRecord
  2
DEFPOINTS
 70
     0
 62
     7
  6
CONTINUOUS
290
     0
370
    -3
390
13718
  0
LAYER
  5
10B54
330
7467
100
AcDbSymbolTableRecord
100
AcDbLayerTableRecord
  2
仕様書枠
 70
     0
 62
   230
  6
CONTINUOUS
370
    -3
390
13718
  0
LAYER
  5
11729
330
7467
100
AcDbSymbolTableRecord
100
AcDbLayerTableRecord
  2
Ｇ_Ｌ
 70
     0
 62
    30
  6
CONTINUOUS
370
    -3
390
13718
  0
LAYER
  5
1173F
330
7467
100
AcDbSymbolTableRecord
100
AcDbLayerTableRecord
  2
細線
 70
     0
 62
     5
  6
CONTINUOUS
370
    -3
390
13718
  0
LAYER
  5
11740
330
7467
100
AcDbSymbolTableRecord
100
AcDbLayerTableRecord
  2
点線
 70
     0
 62
     2
  6
HIDDEN
370
    -3
390
13718
  0
ENDTAB
  0
TABLE
  2
STYLE
  5
7468
330
0
100
AcDbSymbolTable
 70
     4
  0
STYLE
  5
7475
330
7468
100
AcDbSymbolTableRecord
100
AcDbTextStyleTableRecord
  2
STANDARD
 70
     0
 40
0.0
 41
1.0
 50
0.0
 71
     0
 42
4.0
  3
txt
  4
C:\AutoCAD LT\bigfont.shx
  0
STYLE
  5
F706
330
7468
100
AcDbSymbolTableRecord
100
AcDbTextStyleTableRecord
  2
STYLE1
 70
     0
 40
0.0
 41
1.0
 50
0.0
 71
     0
 42
4.0
  3
isocp.shx
  4
bigfont.shx
  0
STYLE
  5
103BF
330
7468
100
AcDbSymbolTableRecord
100
AcDbTextStyleTableRecord
  2
STYLE2
 70
     0
 40
0.0
 41
1.0
 50
0.0
 71
     0
 42
100.0
  3
MS PGothic.ttf
  4

1001
ACAD
1000
MS PGothic
1071
    32818
  0
STYLE
  5
10BAA
330
7468
100
AcDbSymbolTableRecord
100
AcDbTextStyleTableRecord
  2
STYLE3
 70
     0
 40
0.0
 41
1.0
 50
0.0
 71
     0
 42
100.0
  3
DFPGothic-EB.ttf
  4

1001
ACAD
1000
DFPGothic-EB
1071
    32818
  0
ENDTAB
  0
TABLE
  2
VIEW
  5
746B
330
0
100
AcDbSymbolTable
 70
     0
  0
ENDTAB
  0
TABLE
  2
UCS
  5
746C
330
0
100
AcDbSymbolTable
 70
     0
  0
ENDTAB
  0
TABLE
  2
APPID
  5
746E
330
0
100
AcDbSymbolTable
 70
     6
  0
APPID
  5
7476
330
746E
100
AcDbSymbolTableRecord
100
AcDbRegAppTableRecord
  2
ACAD
 70
     0
  0
APPID
  5
DEA9
330
746E
100
AcDbSymbolTableRecord
100
AcDbRegAppTableRecord
  2
CONTENTBLOCKICON
 70
     0
  0
APPID
  5
DEAA
330
746E
100
AcDbSymbolTableRecord
100
AcDbRegAppTableRecord
  2
CONTENTBLOCKDESCRIPTION
 70
     0
  0
APPID
  5
E71D
330
746E
100
AcDbSymbolTableRecord
100
AcDbRegAppTableRecord
  2
CONTENTTABDATA
 70
     0
  0
APPID
  5
E71E
330
746E
100
AcDbSymbolTableRecord
100
AcDbRegAppTableRecord
  2
CONTENTCURRENTTAB
 70
     0
  0
APPID
  5
F3BA
330
746E
100
AcDbSymbolTableRecord
100
AcDbRegAppTableRecord
  2
DRAWINGVARIABLESXDATA
 70
     0
  0
ENDTAB
  0
TABLE
  2
DIMSTYLE
  5
746F
330
0
100
AcDbSymbolTable
 70
     2
100
AcDbDimStyleTable
 71
     0
  0
DIMSTYLE
105
7484
330
746F
100
AcDbSymbolTableRecord
100
AcDbDimStyleTableRecord
  2
JIS
 70
     0
 41
2.5
 42
1.0
 43
7.0
 44
1.0
 73
     0
 74
     0
 77
     1
 78
     8
140
2.5
141
0.0
143
0.0394
147
0.0
172
     1
174
     1
175
     1
340
7475
  0
DIMSTYLE
105
F71F
102
{ACAD_REACTORS
330
11A90
330
11A91
330
11AA0
330
11AA7
330
11AB1
330
11ADB
330
11B12
330
11B53
330
11B69
330
11B9B
330
11BE9
330
11BFB
330
11C8D
330
11E8A
330
11E89
330
11EA3
330
11EA2
330
11EEC
330
12B1F
330
12B20
330
12D48
330
12EE8
330
12EE9
330
12EEF
330
12FE7
330
12FF3
330
131E9
330
13198
330
13200
330
13220
330
1319A
330
131CD
330
13202
330
13214
330
131D3
330
131DF
330
131AA
330
131BC
330
13427
330
13406
330
13442
330
133E1
330
1343D
330
13424
330
13439
330
1338B
102
}
330
746F
100
AcDbSymbolTableRecord
100
AcDbDimStyleTableRecord
  2
INABA_S50G
 70
     0
 41
125.0
 42
25.0
 43
7.0
 44
75.0
 73
     0
 74
     0
 77
     3
 78
     8
140
150.0
141
0.0
143
0.0394
147
25.0
172
     1
173
     1
174
     1
178
     7
271
     1
340
F706
341
F770
343
F770
344
F770
  0
ENDTAB
  0
TABLE
  2
BLOCK_RECORD
  5
7466
330
0
100
AcDbSymbolTable
 70
    48
  0
BLOCK_RECORD
  5
747D
102
{ACAD_XDICTIONARY
360
1367E
102
}
330
7466
100
AcDbSymbolTableRecord
100
AcDbBlockTableRecord
  2
*MODEL_SPACE
340
13719
  0
BLOCK_RECORD
  5
747A
102
{ACAD_XDICTIONARY
360
1367C
102
}
330
7466
100
AcDbSymbolTableRecord
100
AcDbBlockTableRecord
  2
*PAPER_SPACE
340
1371A
  0
BLOCK_RECORD
  5
DEAC
330
7466
100
AcDbSymbolTableRecord
100
AcDbBlockTableRecord
  2
_OPEN
340
0
  0
BLOCK_RECORD
  5
F770
330
7466
100
AcDbSymbolTableRecord
100
AcDbBlockTableRecord
  2
_DOTSMALL
340
0
102
{BLKREFS
331
1333D
331
1333E
331
13049
331
1304A
331
13332
331
13333
331
13348
331
13349
331
11DFC
331
11DFD
331
13685
331
13686
331
11E11
331
11E12
331
1368D
331
1368E
331
12D2A
331
12D2B
331
12D14
331
12D15
331
13695
331
13696
331
1369D
331
1369E
331
11E68
331
11E69
331
1305E
331
1305F
331
136A5
331
136A6
331
1303E
331
1303F
331
136AD
331
136AE
331
11F07
331
11F08
331
136B5
331
136B6
331
13027
331
13028
331
12D68
331
12D69
331
136BD
331
136BE
331
12F3E
331
12F3F
331
12F99
331
12F9A
331
136C5
331
136C6
331
13006
331
13007
331
132D1
331
132D2
331
136CD
331
136CE
331
136ED
331
136EE
331
132E6
331
132E7
331
136D5
331
136D6
331
132BC
331
132BD
331
136F5
331
136F6
331
13325
331
13326
331
136E5
331
136E6
331
13310
331
13311
331
136DD
331
136DE
331
132FB
331
132FC
331
134D4
331
134D5
331
134C9
331
134CA
331
134E9
331
134EA
331
136FD
331
136FE
331
1370D
331
1370E
331
13705
331
13706
331
13501
331
13502
331
134F5
331
134F6
102
}
  0
BLOCK_RECORD
  5
11CEC
330
7466
100
AcDbSymbolTableRecord
100
AcDbBlockTableRecord
  2
*D2
340
0
  0
BLOCK_RECORD
  5
11CF8
330
7466
100
AcDbSymbolTableRecord
100
AcDbBlockTableRecord
  2
*D3
340
0
  0
BLOCK_RECORD
  5
11D0F
330
7466
100
AcDbSymbolTableRecord
100
AcDbBlockTableRecord
  2
*D4
340
0
  0
BLOCK_RECORD
  5
11D1B
330
7466
100
AcDbSymbolTableRecord
100
AcDbBlockTableRecord
  2
*D5
340
0
  0
BLOCK_RECORD
  5
11D27
330
7466
100
AcDbSymbolTableRecord
100
AcDbBlockTableRecord
  2
*D6
340
0
  0
BLOCK_RECORD
  5
11D33
330
7466
100
AcDbSymbolTableRecord
100
AcDbBlockTableRecord
  2
*D7
340
0
  0
BLOCK_RECORD
  5
11D3E
330
7466
100
AcDbSymbolTableRecord
100
AcDbBlockTableRecord
  2
*D8
340
0
  0
BLOCK_RECORD
  5
11D4A
330
7466
100
AcDbSymbolTableRecord
100
AcDbBlockTableRecord
  2
*D9
340
0
  0
BLOCK_RECORD
  5
11D55
330
7466
100
AcDbSymbolTableRecord
100
AcDbBlockTableRecord
  2
*D10
340
0
  0
BLOCK_RECORD
  5
11D61
330
7466
100
AcDbSymbolTableRecord
100
AcDbBlockTableRecord
  2
*D11
340
0
  0
BLOCK_RECORD
  5
11D7A
330
7466
100
AcDbSymbolTableRecord
100
AcDbBlockTableRecord
  2
*D12
340
0
  0
BLOCK_RECORD
  5
11D85
330
7466
100
AcDbSymbolTableRecord
100
AcDbBlockTableRecord
  2
*D13
340
0
  0
BLOCK_RECORD
  5
11D9D
330
7466
100
AcDbSymbolTableRecord
100
AcDbBlockTableRecord
  2
*D14
340
0
  0
BLOCK_RECORD
  5
11E8B
330
7466
100
AcDbSymbolTableRecord
100
AcDbBlockTableRecord
  2
*D15
340
0
  0
BLOCK_RECORD
  5
11E97
330
7466
100
AcDbSymbolTableRecord
100
AcDbBlockTableRecord
  2
*D16
340
0
  0
BLOCK_RECORD
  5
11EA4
330
7466
100
AcDbSymbolTableRecord
100
AcDbBlockTableRecord
  2
*D17
340
0
  0
BLOCK_RECORD
  5
11EB0
330
7466
100
AcDbSymbolTableRecord
100
AcDbBlockTableRecord
  2
*D18
340
0
  0
BLOCK_RECORD
  5
11EF5
330
7466
100
AcDbSymbolTableRecord
100
AcDbBlockTableRecord
  2
*D19
340
0
  0
BLOCK_RECORD
  5
12B91
330
7466
100
AcDbSymbolTableRecord
100
AcDbBlockTableRecord
  2
*D20
340
0
  0
BLOCK_RECORD
  5
12B9C
330
7466
100
AcDbSymbolTableRecord
100
AcDbBlockTableRecord
  2
*D21
340
0
  0
BLOCK_RECORD
  5
12D49
330
7466
100
AcDbSymbolTableRecord
100
AcDbBlockTableRecord
  2
*D22
340
0
  0
BLOCK_RECORD
  5
12F0D
330
7466
100
AcDbSymbolTableRecord
100
AcDbBlockTableRecord
  2
*D23
340
0
  0
BLOCK_RECORD
  5
12F18
330
7466
100
AcDbSymbolTableRecord
100
AcDbBlockTableRecord
  2
*D24
340
0
  0
BLOCK_RECORD
  5
12F24
330
7466
100
AcDbSymbolTableRecord
100
AcDbBlockTableRecord
  2
*D25
340
0
  0
BLOCK_RECORD
  5
12FF6
330
7466
100
AcDbSymbolTableRecord
100
AcDbBlockTableRecord
  2
*D26
340
0
  0
BLOCK_RECORD
  5
13001
330
7466
100
AcDbSymbolTableRecord
100
AcDbBlockTableRecord
  2
*D27
340
0
  0
BLOCK_RECORD
  5
13224
330
7466
100
AcDbSymbolTableRecord
100
AcDbBlockTableRecord
  2
*D28
340
0
  0
BLOCK_RECORD
  5
13230
330
7466
100
AcDbSymbolTableRecord
100
AcDbBlockTableRecord
  2
*D29
340
0
  0
BLOCK_RECORD
  5
1323B
330
7466
100
AcDbSymbolTableRecord
100
AcDbBlockTableRecord
  2
*D30
340
0
  0
BLOCK_RECORD
  5
13246
330
7466
100
AcDbSymbolTableRecord
100
AcDbBlockTableRecord
  2
*D31
340
0
  0
BLOCK_RECORD
  5
13252
330
7466
100
AcDbSymbolTableRecord
100
AcDbBlockTableRecord
  2
*D32
340
0
  0
BLOCK_RECORD
  5
1325D
330
7466
100
AcDbSymbolTableRecord
100
AcDbBlockTableRecord
  2
*D33
340
0
  0
BLOCK_RECORD
  5
13269
330
7466
100
AcDbSymbolTableRecord
100
AcDbBlockTableRecord
  2
*D34
340
0
  0
BLOCK_RECORD
  5
13274
330
7466
100
AcDbSymbolTableRecord
100
AcDbBlockTableRecord
  2
*D35
340
0
  0
BLOCK_RECORD
  5
13280
330
7466
100
AcDbSymbolTableRecord
100
AcDbBlockTableRecord
  2
*D36
340
0
  0
BLOCK_RECORD
  5
1328B
330
7466
100
AcDbSymbolTableRecord
100
AcDbBlockTableRecord
  2
*D37
340
0
  0
BLOCK_RECORD
  5
13297
330
7466
100
AcDbSymbolTableRecord
100
AcDbBlockTableRecord
  2
*D38
340
0
  0
BLOCK_RECORD
  5
132A2
330
7466
100
AcDbSymbolTableRecord
100
AcDbBlockTableRecord
  2
*D39
340
0
  0
BLOCK_RECORD
  5
13452
330
7466
100
AcDbSymbolTableRecord
100
AcDbBlockTableRecord
  2
*D40
340
0
  0
BLOCK_RECORD
  5
1345E
330
7466
100
AcDbSymbolTableRecord
100
AcDbBlockTableRecord
  2
*D41
340
0
  0
BLOCK_RECORD
  5
1346A
330
7466
100
AcDbSymbolTableRecord
100
AcDbBlockTableRecord
  2
*D42
340
0
  0
BLOCK_RECORD
  5
13476
330
7466
100
AcDbSymbolTableRecord
100
AcDbBlockTableRecord
  2
*D43
340
0
  0
BLOCK_RECORD
  5
13481
330
7466
100
AcDbSymbolTableRecord
100
AcDbBlockTableRecord
  2
*D44
340
0
  0
BLOCK_RECORD
  5
1348C
330
7466
100
AcDbSymbolTableRecord
100
AcDbBlockTableRecord
  2
*D45
340
0
  0
BLOCK_RECORD
  5
13497
330
7466
100
AcDbSymbolTableRecord
100
AcDbBlockTableRecord
  2
*D46
340
0
  0
BLOCK_RECORD
  5
134A4
330
7466
100
AcDbSymbolTableRecord
100
AcDbBlockTableRecord
  2
*D47
340
0
  0
ENDTAB
  0
ENDSEC
  0
SECTION
  2
BLOCKS
  0
BLOCK
  5
7489
330
747D
100
AcDbEntity
  8
0
100
AcDbBlockBegin
  2
*MODEL_SPACE
 70
     0
 10
0.0
 20
0.0
 30
0.0
  3
*MODEL_SPACE
  1

  0
ENDBLK
  5
748A
330
747D
100
AcDbEntity
  8
0
100
AcDbBlockEnd
  0
BLOCK
  5
7487
330
747A
100
AcDbEntity
 67
     1
  8
0
100
AcDbBlockBegin
  2
*PAPER_SPACE
 70
     0
 10
0.0
 20
0.0
 30
0.0
  3
*PAPER_SPACE
  1

  0
ENDBLK
  5
7488
330
747A
100
AcDbEntity
 67
     1
  8
0
100
AcDbBlockEnd
  0
BLOCK
  5
DEAD
330
DEAC
100
AcDbEntity
  8
0
100
AcDbBlockBegin
  2
_OPEN
 70
     0
 10
0.0
 20
0.0
 30
0.0
  3
_OPEN
  1

  0
LINE
  5
DEAE
330
DEAC
100
AcDbEntity
  8
0
  6
ByBlock
 62
     0
100
AcDbLine
 10
-1.0
 20
0.1666666666666666
 30
0.0
 11
0.0
 21
0.0
 31
0.0
  0
LINE
  5
DEAF
330
DEAC
100
AcDbEntity
  8
0
  6
ByBlock
 62
     0
100
AcDbLine
 10
0.0
 20
0.0
 30
0.0
 11
-1.0
 21
-0.1666666666666666
 31
0.0
  0
LINE
  5
DEB0
330
DEAC
100
AcDbEntity
  8
0
  6
ByBlock
 62
     0
100
AcDbLine
 10
0.0
 20
0.0
 30
0.0
 11
-1.0
 21
0.0
 31
0.0
  0
ENDBLK
  5
DEB1
330
DEAC
100
AcDbEntity
  8
0
100
AcDbBlockEnd
  0
BLOCK
  5
F771
330
F770
100
AcDbEntity
  8
0
 48
50.0
100
AcDbBlockBegin
  2
_DOTSMALL
 70
     0
 10
0.0
 20
0.0
 30
0.0
  3
_DOTSMALL
  1

  0
LWPOLYLINE
  5
F772
330
F770
100
AcDbEntity
  8
0
  6
ByBlock
 62
     0
 48
50.0
100
AcDbPolyline
 90
        2
 70
     1
 43
0.5
 10
-0.0625
 20
0.0
 42
1.0
 10
0.0625
 20
0.0
 42
1.0
  0
ENDBLK
  5
F776
330
F770
100
AcDbEntity
  8
0
 48
50.0
100
AcDbBlockEnd
  0
BLOCK
  5
13339
330
11CEC
100
AcDbEntity
  8
0
 48
50.0
100
AcDbBlockBegin
  2
*D2
 70
     1
 10
0.0
 20
0.0
 30
0.0
  3
*D2
  1

  0
LINE
  5
1333A
330
11CEC
100
AcDbEntity
  8
0
  6
ByBlock
 62
     0
 48
50.0
100
AcDbLine
 10
15181.25312609225
 20
19630.20389687462
 30
0.0
 11
15588.12442407164
 21
19630.20389687462
 31
0.0
  0
LINE
  5
1333B
330
11CEC
100
AcDbEntity
  8
0
  6
ByBlock
 62
     0
 48
50.0
100
AcDbLine
 10
15181.25312609225
 20
20525.20389687462
 30
0.0
 11
15588.12442407164
 21
20525.20389687462
 31
0.0
  0
LINE
  5
1333C
330
11CEC
100
AcDbEntity
  8
0
  6
ByBlock
 62
     0
 48
50.0
100
AcDbLine
 10
15513.12442407166
 20
19630.20389687462
 30
0.0
 11
15513.12442407166
 21
20525.20389687462
 31
0.0
  0
INSERT
  5
1333D
330
11CEC
100
AcDbEntity
  8
0
  6
ByBlock
 62
     0
 48
50.0
100
AcDbBlockReference
  2
_DOTSMALL
 10
15513.12442407166
 20
19630.20389687462
 30
0.0
 41
125.0
 42
125.0
 43
125.0
 50
270.0
  0
INSERT
  5
1333E
330
11CEC
100
AcDbEntity
  8
0
  6
ByBlock
 62
     0
 48
50.0
100
AcDbBlockReference
  2
_DOTSMALL
 10
15513.12442407166
 20
20525.20389687462
 30
0.0
 41
125.0
 42
125.0
 43
125.0
 50
90.0
  0
MTEXT
  5
1333F
330
11CEC
100
AcDbEntity
  8
0
  6
ByBlock
 62
     7
 48
50.0
100
AcDbMText
 10
15413.12442407166
 20
20077.70389687463
 30
0.0
 40
150.0
 41
0.0
 71
     5
 72
     5
  1
\A1;895
  7
STYLE1
 11
0.0000000000000001
 21
1.0
 31
0.0
 73
     1
 44
1.0
1001
ACAD
1000
MTEXTBEGIN
1070
    73
1070
     1
1070
    44
1040
1.0
1070
    74
1070
     0
1000
MTEXTEND
  0
POINT
  5
13340
330
11CEC
100
AcDbEntity
  8
DEFPOINTS
  6
ByBlock
 62
     0
 48
50.0
100
AcDbPoint
 10
15156.25312609225
 20
19630.20389687462
 30
0.0
  0
POINT
  5
13341
330
11CEC
100
AcDbEntity
  8
DEFPOINTS
  6
ByBlock
 62
     0
 48
50.0
100
AcDbPoint
 10
15156.25312609225
 20
20525.20389687462
 30
0.0
  0
POINT
  5
13342
330
11CEC
100
AcDbEntity
  8
DEFPOINTS
  6
ByBlock
 62
     0
 48
50.0
100
AcDbPoint
 10
15513.12442407166
 20
20525.20389687462
 30
0.0
  0
ENDBLK
  5
13343
330
11CEC
100
AcDbEntity
  8
0
 48
50.0
100
AcDbBlockEnd
  0
BLOCK
  5
13045
330
11CF8
100
AcDbEntity
  8
0
 48
50.0
100
AcDbBlockBegin
  2
*D3
 70
     1
 10
0.0
 20
0.0
 30
0.0
  3
*D3
  1

  0
LINE
  5
13046
330
11CF8
100
AcDbEntity
  8
0
  6
ByBlock
 62
     0
 48
50.0
100
AcDbLine
 10
8935.260966585557
 20
10923.37174011924
 30
0.0
 11
9357.329127438365
 21
10923.37174011924
 31
0.0
  0
LINE
  5
13047
330
11CF8
100
AcDbEntity
  8
0
  6
ByBlock
 62
     0
 48
50.0
100
AcDbLine
 10
8935.260966585557
 20
11878.37174011924
 30
0.0
 11
9357.329127438365
 21
11878.37174011924
 31
0.0
  0
LINE
  5
13048
330
11CF8
100
AcDbEntity
  8
0
  6
ByBlock
 62
     0
 48
50.0
100
AcDbLine
 10
9282.329127438364
 20
10923.37174011924
 30
0.0
 11
9282.329127438364
 21
11878.37174011924
 31
0.0
  0
INSERT
  5
13049
330
11CF8
100
AcDbEntity
  8
0
  6
ByBlock
 62
     0
 48
50.0
100
AcDbBlockReference
  2
_DOTSMALL
 10
9282.329127438364
 20
10923.37174011924
 30
0.0
 41
125.0
 42
125.0
 43
125.0
 50
270.0
  0
INSERT
  5
1304A
330
11CF8
100
AcDbEntity
  8
0
  6
ByBlock
 62
     0
 48
50.0
100
AcDbBlockReference
  2
_DOTSMALL
 10
9282.329127438364
 20
11878.37174011924
 30
0.0
 41
125.0
 42
125.0
 43
125.0
 50
90.0
  0
MTEXT
  5
1304B
330
11CF8
100
AcDbEntity
  8
0
  6
ByBlock
 62
     7
 48
50.0
100
AcDbMText
 10
9182.329127438364
 20
11400.87174011924
 30
0.0
 40
150.0
 41
0.0
 71
     5
 72
     5
  1
\A1;955
  7
STYLE1
 11
0.0000000000000001
 21
1.0
 31
0.0
 73
     1
 44
1.0
1001
ACAD
1000
MTEXTBEGIN
1070
    73
1070
     1
1070
    44
1040
1.0
1070
    74
1070
     0
1000
MTEXTEND
  0
POINT
  5
1304C
330
11CF8
100
AcDbEntity
  8
DEFPOINTS
  6
ByBlock
 62
     0
 48
50.0
100
AcDbPoint
 10
8910.260966585559
 20
10923.37174011924
 30
0.0
  0
POINT
  5
1304D
330
11CF8
100
AcDbEntity
  8
DEFPOINTS
  6
ByBlock
 62
     0
 48
50.0
100
AcDbPoint
 10
8910.260966585559
 20
11878.37174011924
 30
0.0
  0
POINT
  5
1304E
330
11CF8
100
AcDbEntity
  8
DEFPOINTS
  6
ByBlock
 62
     0
 48
50.0
100
AcDbPoint
 10
9282.329127438364
 20
11878.37174011924
 30
0.0
  0
ENDBLK
  5
1304F
330
11CF8
100
AcDbEntity
  8
0
 48
50.0
100
AcDbBlockEnd
  0
BLOCK
  5
1332E
330
11D0F
100
AcDbEntity
  8
0
 48
50.0
100
AcDbBlockBegin
  2
*D4
 70
     1
 10
0.0
 20
0.0
 30
0.0
  3
*D4
  1

  0
LINE
  5
1332F
330
11D0F
100
AcDbEntity
  8
0
  6
ByBlock
 62
     0
 48
50.0
100
AcDbLine
 10
12317.05351740778
 20
19630.20389687463
 30
0.0
 11
12723.92481538717
 21
19630.20389687463
 31
0.0
  0
LINE
  5
13330
330
11D0F
100
AcDbEntity
  8
0
  6
ByBlock
 62
     0
 48
50.0
100
AcDbLine
 10
12317.05351740778
 20
20525.20389687463
 30
0.0
 11
12723.92481538717
 21
20525.20389687463
 31
0.0
  0
LINE
  5
13331
330
11D0F
100
AcDbEntity
  8
0
  6
ByBlock
 62
     0
 48
50.0
100
AcDbLine
 10
12648.92481538717
 20
19630.20389687463
 30
0.0
 11
12648.92481538717
 21
20525.20389687463
 31
0.0
  0
INSERT
  5
13332
330
11D0F
100
AcDbEntity
  8
0
  6
ByBlock
 62
     0
 48
50.0
100
AcDbBlockReference
  2
_DOTSMALL
 10
12648.92481538717
 20
19630.20389687463
 30
0.0
 41
125.0
 42
125.0
 43
125.0
 50
270.0
  0
INSERT
  5
13333
330
11D0F
100
AcDbEntity
  8
0
  6
ByBlock
 62
     0
 48
50.0
100
AcDbBlockReference
  2
_DOTSMALL
 10
12648.92481538717
 20
20525.20389687463
 30
0.0
 41
125.0
 42
125.0
 43
125.0
 50
90.0
  0
MTEXT
  5
13334
330
11D0F
100
AcDbEntity
  8
0
  6
ByBlock
 62
     7
 48
50.0
100
AcDbMText
 10
12548.92481538717
 20
20077.70389687463
 30
0.0
 40
150.0
 41
0.0
 71
     5
 72
     5
  1
\A1;895
  7
STYLE1
 11
0.0000000000000001
 21
1.0
 31
0.0
 73
     1
 44
1.0
1001
ACAD
1000
MTEXTBEGIN
1070
    73
1070
     1
1070
    44
1040
1.0
1070
    74
1070
     0
1000
MTEXTEND
  0
POINT
  5
13335
330
11D0F
100
AcDbEntity
  8
DEFPOINTS
  6
ByBlock
 62
     0
 48
50.0
100
AcDbPoint
 10
12292.05351740778
 20
19630.20389687463
 30
0.0
  0
POINT
  5
13336
330
11D0F
100
AcDbEntity
  8
DEFPOINTS
  6
ByBlock
 62
     0
 48
50.0
100
AcDbPoint
 10
12292.05351740778
 20
20525.20389687463
 30
0.0
  0
POINT
  5
13337
330
11D0F
100
AcDbEntity
  8
DEFPOINTS
  6
ByBlock
 62
     0
 48
50.0
100
AcDbPoint
 10
12648.92481538717
 20
20525.20389687463
 30
0.0
  0
ENDBLK
  5
13338
330
11D0F
100
AcDbEntity
  8
0
 48
50.0
100
AcDbBlockEnd
  0
BLOCK
  5
13344
330
11D1B
100
AcDbEntity
  8
0
 48
50.0
100
AcDbBlockBegin
  2
*D5
 70
     1
 10
0.0
 20
0.0
 30
0.0
  3
*D5
  1

  0
LINE
  5
13345
330
11D1B
100
AcDbEntity
  8
0
  6
ByBlock
 62
     0
 48
50.0
100
AcDbLine
 10
18746.21032457705
 20
19630.20389687462
 30
0.0
 11
19153.08162255645
 21
19630.20389687462
 31
0.0
  0
LINE
  5
13346
330
11D1B
100
AcDbEntity
  8
0
  6
ByBlock
 62
     0
 48
50.0
100
AcDbLine
 10
18746.21032457705
 20
20525.20389687462
 30
0.0
 11
19153.08162255645
 21
20525.20389687462
 31
0.0
  0
LINE
  5
13347
330
11D1B
100
AcDbEntity
  8
0
  6
ByBlock
 62
     0
 48
50.0
100
AcDbLine
 10
19078.08162255646
 20
19630.20389687462
 30
0.0
 11
19078.08162255646
 21
20525.20389687462
 31
0.0
  0
INSERT
  5
13348
330
11D1B
100
AcDbEntity
  8
0
  6
ByBlock
 62
     0
 48
50.0
100
AcDbBlockReference
  2
_DOTSMALL
 10
19078.08162255646
 20
19630.20389687462
 30
0.0
 41
125.0
 42
125.0
 43
125.0
 50
270.0
  0
INSERT
  5
13349
330
11D1B
100
AcDbEntity
  8
0
  6
ByBlock
 62
     0
 48
50.0
100
AcDbBlockReference
  2
_DOTSMALL
 10
19078.08162255646
 20
20525.20389687462
 30
0.0
 41
125.0
 42
125.0
 43
125.0
 50
90.0
  0
MTEXT
  5
1334A
330
11D1B
100
AcDbEntity
  8
0
  6
ByBlock
 62
     7
 48
50.0
100
AcDbMText
 10
18978.08162255645
 20
20077.70389687463
 30
0.0
 40
150.0
 41
0.0
 71
     5
 72
     5
  1
\A1;895
  7
STYLE1
 11
0.0000000000000001
 21
1.0
 31
0.0
 73
     1
 44
1.0
1001
ACAD
1000
MTEXTBEGIN
1070
    73
1070
     1
1070
    44
1040
1.0
1070
    74
1070
     0
1000
MTEXTEND
  0
POINT
  5
1334B
330
11D1B
100
AcDbEntity
  8
DEFPOINTS
  6
ByBlock
 62
     0
 48
50.0
100
AcDbPoint
 10
18721.21032457705
 20
19630.20389687462
 30
0.0
  0
POINT
  5
1334C
330
11D1B
100
AcDbEntity
  8
DEFPOINTS
  6
ByBlock
 62
     0
 48
50.0
100
AcDbPoint
 10
18721.21032457705
 20
20525.20389687462
 30
0.0
  0
POINT
  5
1334D
330
11D1B
100
AcDbEntity
  8
DEFPOINTS
  6
ByBlock
 62
     0
 48
50.0
100
AcDbPoint
 10
19078.08162255646
 20
20525.20389687462
 30
0.0
  0
ENDBLK
  5
1334E
330
11D1B
100
AcDbEntity
  8
0
 48
50.0
100
AcDbBlockEnd
  0
BLOCK
  5
11DF8
330
11D27
100
AcDbEntity
  8
0
 48
50.0
100
AcDbBlockBegin
  2
*D6
 70
     1
 10
0.0
 20
0.0
 30
0.0
  3
*D6
  1

  0
LINE
  5
11DF9
330
11D27
100
AcDbEntity
  8
0
  6
ByBlock
 62
     0
 48
50.0
100
AcDbLine
 10
7706.00716459742
 20
4409.844939325413
 30
0.0
 11
7706.00716459742
 21
3929.401253452816
 31
0.0
  0
LINE
  5
11DFA
330
11D27
100
AcDbEntity
  8
0
  6
ByBlock
 62
     0
 48
50.0
100
AcDbLine
 10
10037.0071645974
 20
4409.844939325416
 30
0.0
 11
10037.0071645974
 21
3929.401253452816
 31
0.0
  0
LINE
  5
11DFB
330
11D27
100
AcDbEntity
  8
0
  6
ByBlock
 62
     0
 48
50.0
100
AcDbLine
 10
7706.00716459742
 20
4004.401253452814
 30
0.0
 11
10037.0071645974
 21
4004.401253452814
 31
0.0
  0
INSERT
  5
11DFC
330
11D27
100
AcDbEntity
  8
0
  6
ByBlock
 62
     0
 48
50.0
100
AcDbBlockReference
  2
_DOTSMALL
 10
7706.00716459742
 20
4004.401253452814
 30
0.0
 41
125.0
 42
125.0
 43
125.0
 50
180.0
  0
INSERT
  5
11DFD
330
11D27
100
AcDbEntity
  8
0
  6
ByBlock
 62
     0
 48
50.0
100
AcDbBlockReference
  2
_DOTSMALL
 10
10037.0071645974
 20
4004.401253452814
 30
0.0
 41
125.0
 42
125.0
 43
125.0
  0
MTEXT
  5
11DFE
330
11D27
100
AcDbEntity
  8
0
  6
ByBlock
 62
     7
 48
50.0
100
AcDbMText
 10
8871.507164597421
 20
4104.416017232343
 30
0.0
 40
150.0
 41
0.0
 71
     5
 72
     5
  1
\A1;2331
  7
STYLE1
 73
     1
 44
1.0
1001
ACAD
1000
MTEXTBEGIN
1070
    73
1070
     1
1070
    44
1040
1.0
1070
    74
1070
     0
1000
MTEXTEND
  0
POINT
  5
11DFF
330
11D27
100
AcDbEntity
  8
DEFPOINTS
  6
ByBlock
 62
     0
 48
50.0
100
AcDbPoint
 10
7706.00716459742
 20
4434.844939325413
 30
0.0
  0
POINT
  5
11E00
330
11D27
100
AcDbEntity
  8
DEFPOINTS
  6
ByBlock
 62
     0
 48
50.0
100
AcDbPoint
 10
10037.0071645974
 20
4434.844939325414
 30
0.0
  0
POINT
  5
11E01
330
11D27
100
AcDbEntity
  8
DEFPOINTS
  6
ByBlock
 62
     0
 48
50.0
100
AcDbPoint
 10
10037.0071645974
 20
4004.401253452814
 30
0.0
  0
ENDBLK
  5
11E02
330
11D27
100
AcDbEntity
  8
0
 48
50.0
100
AcDbBlockEnd
  0
BLOCK
  5
13627
330
11D33
100
AcDbEntity
  8
0
 48
50.0
100
AcDbBlockBegin
  2
*D7
 70
     1
 10
0.0
 20
0.0
 30
0.0
  3
*D7
  1

  0
LINE
  5
13683
330
11D33
100
AcDbEntity
  8
寸法
 62
     0
 48
50.0
100
AcDbLine
 10
12331.55351740778
 20
9988.583082376017
 30
0.0
 11
12723.92481538717
 21
9988.583082376017
 31
0.0
  0
LINE
  5
13684
330
11D33
100
AcDbEntity
  8
寸法
 62
     0
 48
50.0
100
AcDbLine
 10
12648.92481538717
 20
8743.583082376003
 30
0.0
 11
12648.92481538717
 21
9988.583082376017
 31
0.0
  0
INSERT
  5
13685
330
11D33
100
AcDbEntity
  8
寸法
 62
     0
 48
50.0
100
AcDbBlockReference
  2
_DOTSMALL
 10
12648.92481538717
 20
8743.583082376003
 30
0.0
 41
125.0
 42
125.0
 43
125.0
 50
270.0
  0
INSERT
  5
13686
330
11D33
100
AcDbEntity
  8
寸法
 62
     0
 48
50.0
100
AcDbBlockReference
  2
_DOTSMALL
 10
12648.92481538717
 20
9988.583082376017
 30
0.0
 41
125.0
 42
125.0
 43
125.0
 50
90.0
  0
MTEXT
  5
13687
330
11D33
100
AcDbEntity
  8
寸法
 62
     7
 48
50.0
100
AcDbMText
 10
12548.91005160764
 20
9366.083082376013
 30
0.0
 40
150.0
 41
0.0
 71
     5
 72
     5
  1
\A1;1245
  7
STYLE1
 11
0.0000000000000001
 21
1.0
 31
0.0
 73
     1
 44
1.0
  0
POINT
  5
13688
330
11D33
100
AcDbEntity
  8
DEFPOINTS
 62
     0
 48
50.0
100
AcDbPoint
 10
12292.05351740777
 20
8743.583082376003
 30
0.0
  0
POINT
  5
13689
330
11D33
100
AcDbEntity
  8
DEFPOINTS
 62
     0
 48
50.0
100
AcDbPoint
 10
12306.55351740778
 20
9988.583082376017
 30
0.0
  0
POINT
  5
1368A
330
11D33
100
AcDbEntity
  8
DEFPOINTS
 62
     0
 48
50.0
100
AcDbPoint
 10
12648.92481538717
 20
9988.583082376017
 30
0.0
  0
ENDBLK
  5
13630
330
11D33
100
AcDbEntity
  8
0
 48
50.0
100
AcDbBlockEnd
  0
BLOCK
  5
11E0D
330
11D3E
100
AcDbEntity
  8
0
 48
50.0
100
AcDbBlockBegin
  2
*D8
 70
     1
 10
0.0
 20
0.0
 30
0.0
  3
*D8
  1

  0
LINE
  5
11E0E
330
11D3E
100
AcDbEntity
  8
0
  6
ByBlock
 62
     0
 48
50.0
100
AcDbLine
 10
5566.628020814356
 20
4409.844939325416
 30
0.0
 11
5566.628020814356
 21
3929.401253452816
 31
0.0
  0
LINE
  5
11E0F
330
11D3E
100
AcDbEntity
  8
0
  6
ByBlock
 62
     0
 48
50.0
100
AcDbLine
 10
6737.628020814354
 20
4409.844939325416
 30
0.0
 11
6737.628020814354
 21
3929.401253452816
 31
0.0
  0
LINE
  5
11E10
330
11D3E
100
AcDbEntity
  8
0
  6
ByBlock
 62
     0
 48
50.0
100
AcDbLine
 10
5566.628020814356
 20
4004.401253452814
 30
0.0
 11
6737.628020814354
 21
4004.401253452814
 31
0.0
  0
INSERT
  5
11E11
330
11D3E
100
AcDbEntity
  8
0
  6
ByBlock
 62
     0
 48
50.0
100
AcDbBlockReference
  2
_DOTSMALL
 10
5566.628020814356
 20
4004.401253452814
 30
0.0
 41
125.0
 42
125.0
 43
125.0
 50
180.0
  0
INSERT
  5
11E12
330
11D3E
100
AcDbEntity
  8
0
  6
ByBlock
 62
     0
 48
50.0
100
AcDbBlockReference
  2
_DOTSMALL
 10
6737.628020814354
 20
4004.401253452814
 30
0.0
 41
125.0
 42
125.0
 43
125.0
  0
MTEXT
  5
11E13
330
11D3E
100
AcDbEntity
  8
0
  6
ByBlock
 62
     7
 48
50.0
100
AcDbMText
 10
6152.128020814354
 20
4104.401253452816
 30
0.0
 40
150.0
 41
0.0
 71
     5
 72
     5
  1
\A1;1171
  7
STYLE1
 73
     1
 44
1.0
1001
ACAD
1000
MTEXTBEGIN
1070
    73
1070
     1
1070
    44
1040
1.0
1070
    74
1070
     0
1000
MTEXTEND
  0
POINT
  5
11E14
330
11D3E
100
AcDbEntity
  8
DEFPOINTS
  6
ByBlock
 62
     0
 48
50.0
100
AcDbPoint
 10
5566.628020814356
 20
4434.844939325414
 30
0.0
  0
POINT
  5
11E15
330
11D3E
100
AcDbEntity
  8
DEFPOINTS
  6
ByBlock
 62
     0
 48
50.0
100
AcDbPoint
 10
6737.628020814354
 20
4434.844939325414
 30
0.0
  0
POINT
  5
11E16
330
11D3E
100
AcDbEntity
  8
DEFPOINTS
  6
ByBlock
 62
     0
 48
50.0
100
AcDbPoint
 10
6737.628020814354
 20
4004.401253452814
 30
0.0
  0
ENDBLK
  5
11E17
330
11D3E
100
AcDbEntity
  8
0
 48
50.0
100
AcDbBlockEnd
  0
BLOCK
  5
1363B
330
11D4A
100
AcDbEntity
  8
0
 48
50.0
100
AcDbBlockBegin
  2
*D9
 70
     1
 10
0.0
 20
0.0
 30
0.0
  3
*D9
  1

  0
LINE
  5
1368B
330
11D4A
100
AcDbEntity
  8
寸法
 62
     0
 48
50.0
100
AcDbLine
 10
18760.71032457706
 20
9988.583082376012
 30
0.0
 11
19153.08162255645
 21
9988.583082376012
 31
0.0
  0
LINE
  5
1368C
330
11D4A
100
AcDbEntity
  8
寸法
 62
     0
 48
50.0
100
AcDbLine
 10
19078.08162255646
 20
8743.583082375996
 30
0.0
 11
19078.08162255646
 21
9988.583082376012
 31
0.0
  0
INSERT
  5
1368D
330
11D4A
100
AcDbEntity
  8
寸法
 62
     0
 48
50.0
100
AcDbBlockReference
  2
_DOTSMALL
 10
19078.08162255646
 20
8743.583082375996
 30
0.0
 41
125.0
 42
125.0
 43
125.0
 50
270.0
  0
INSERT
  5
1368E
330
11D4A
100
AcDbEntity
  8
寸法
 62
     0
 48
50.0
100
AcDbBlockReference
  2
_DOTSMALL
 10
19078.08162255646
 20
9988.583082376012
 30
0.0
 41
125.0
 42
125.0
 43
125.0
 50
90.0
  0
MTEXT
  5
1368F
330
11D4A
100
AcDbEntity
  8
寸法
 62
     7
 48
50.0
100
AcDbMText
 10
18978.06685877693
 20
9366.083082376006
 30
0.0
 40
150.0
 41
0.0
 71
     5
 72
     5
  1
\A1;1245
  7
STYLE1
 11
0.0000000000000001
 21
1.0
 31
0.0
 73
     1
 44
1.0
  0
POINT
  5
13690
330
11D4A
100
AcDbEntity
  8
DEFPOINTS
 62
     0
 48
50.0
100
AcDbPoint
 10
18721.21032457705
 20
8743.583082375996
 30
0.0
  0
POINT
  5
13691
330
11D4A
100
AcDbEntity
  8
DEFPOINTS
 62
     0
 48
50.0
100
AcDbPoint
 10
18735.71032457706
 20
9988.583082376012
 30
0.0
  0
POINT
  5
13692
330
11D4A
100
AcDbEntity
  8
DEFPOINTS
 62
     0
 48
50.0
100
AcDbPoint
 10
19078.08162255646
 20
9988.583082376012
 30
0.0
  0
ENDBLK
  5
13644
330
11D4A
100
AcDbEntity
  8
0
 48
50.0
100
AcDbBlockEnd
  0
BLOCK
  5
12D26
330
11D55
100
AcDbEntity
  8
0
 48
50.0
100
AcDbBlockBegin
  2
*D10
 70
     1
 10
0.0
 20
0.0
 30
0.0
  3
*D10
  1

  0
LINE
  5
12D27
330
11D55
100
AcDbEntity
  8
0
  6
ByBlock
 62
     0
 48
50.0
100
AcDbLine
 10
7857.243809517979
 20
13894.06531539203
 30
0.0
 11
7857.243809517979
 21
13470.88224340073
 31
0.0
  0
LINE
  5
12D28
330
11D55
100
AcDbEntity
  8
0
  6
ByBlock
 62
     0
 48
50.0
100
AcDbLine
 10
10189.24380951796
 20
13894.06531539203
 30
0.0
 11
10189.24380951796
 21
13470.88224340073
 31
0.0
  0
LINE
  5
12D29
330
11D55
100
AcDbEntity
  8
0
  6
ByBlock
 62
     0
 48
50.0
100
AcDbLine
 10
7857.243809517979
 20
13545.88224340073
 30
0.0
 11
10189.24380951796
 21
13545.88224340073
 31
0.0
  0
INSERT
  5
12D2A
330
11D55
100
AcDbEntity
  8
0
  6
ByBlock
 62
     0
 48
50.0
100
AcDbBlockReference
  2
_DOTSMALL
 10
7857.243809517979
 20
13545.88224340073
 30
0.0
 41
125.0
 42
125.0
 43
125.0
 50
180.0
  0
INSERT
  5
12D2B
330
11D55
100
AcDbEntity
  8
0
  6
ByBlock
 62
     0
 48
50.0
100
AcDbBlockReference
  2
_DOTSMALL
 10
10189.24380951796
 20
13545.88224340073
 30
0.0
 41
125.0
 42
125.0
 43
125.0
  0
MTEXT
  5
12D2C
330
11D55
100
AcDbEntity
  8
0
  6
ByBlock
 62
     7
 48
50.0
100
AcDbMText
 10
9023.243809517978
 20
13645.89700718026
 30
0.0
 40
150.0
 41
0.0
 71
     5
 72
     5
  1
\A1;2332
  7
STYLE1
 73
     1
 44
1.0
1001
ACAD
1000
MTEXTBEGIN
1070
    73
1070
     1
1070
    44
1040
1.0
1070
    74
1070
     0
1000
MTEXTEND
  0
POINT
  5
12D2D
330
11D55
100
AcDbEntity
  8
DEFPOINTS
  6
ByBlock
 62
     0
 48
50.0
100
AcDbPoint
 10
7857.243809517979
 20
13919.06531539202
 30
0.0
  0
POINT
  5
12D2E
330
11D55
100
AcDbEntity
  8
DEFPOINTS
  6
ByBlock
 62
     0
 48
50.0
100
AcDbPoint
 10
10189.24380951796
 20
13919.06531539202
 30
0.0
  0
POINT
  5
12D2F
330
11D55
100
AcDbEntity
  8
DEFPOINTS
  6
ByBlock
 62
     0
 48
50.0
100
AcDbPoint
 10
10189.24380951796
 20
13545.88224340073
 30
0.0
  0
ENDBLK
  5
12D30
330
11D55
100
AcDbEntity
  8
0
 48
50.0
100
AcDbBlockEnd
  0
BLOCK
  5
12D10
330
11D61
100
AcDbEntity
  8
0
 48
50.0
100
AcDbBlockBegin
  2
*D11
 70
     1
 10
0.0
 20
0.0
 30
0.0
  3
*D11
  1

  0
LINE
  5
12D11
330
11D61
100
AcDbEntity
  8
0
  6
ByBlock
 62
     0
 48
50.0
100
AcDbLine
 10
2126.362354666084
 20
13894.06531539203
 30
0.0
 11
2126.362354666084
 21
13470.88224340073
 31
0.0
  0
LINE
  5
12D12
330
11D61
100
AcDbEntity
  8
0
  6
ByBlock
 62
     0
 48
50.0
100
AcDbLine
 10
3298.362354666085
 20
13894.06531539203
 30
0.0
 11
3298.362354666085
 21
13470.88224340073
 31
0.0
  0
LINE
  5
12D13
330
11D61
100
AcDbEntity
  8
0
  6
ByBlock
 62
     0
 48
50.0
100
AcDbLine
 10
2126.362354666084
 20
13545.88224340073
 30
0.0
 11
3298.362354666085
 21
13545.88224340073
 31
0.0
  0
INSERT
  5
12D14
330
11D61
100
AcDbEntity
  8
0
  6
ByBlock
 62
     0
 48
50.0
100
AcDbBlockReference
  2
_DOTSMALL
 10
2126.362354666084
 20
13545.88224340073
 30
0.0
 41
125.0
 42
125.0
 43
125.0
 50
180.0
  0
INSERT
  5
12D15
330
11D61
100
AcDbEntity
  8
0
  6
ByBlock
 62
     0
 48
50.0
100
AcDbBlockReference
  2
_DOTSMALL
 10
3298.362354666085
 20
13545.88224340073
 30
0.0
 41
125.0
 42
125.0
 43
125.0
  0
MTEXT
  5
12D16
330
11D61
100
AcDbEntity
  8
0
  6
ByBlock
 62
     7
 48
50.0
100
AcDbMText
 10
2712.362354666085
 20
13645.89700718026
 30
0.0
 40
150.0
 41
0.0
 71
     5
 72
     5
  1
\A1;1172
  7
STYLE1
 73
     1
 44
1.0
1001
ACAD
1000
MTEXTBEGIN
1070
    73
1070
     1
1070
    44
1040
1.0
1070
    74
1070
     0
1000
MTEXTEND
  0
POINT
  5
12D17
330
11D61
100
AcDbEntity
  8
DEFPOINTS
  6
ByBlock
 62
     0
 48
50.0
100
AcDbPoint
 10
2126.362354666084
 20
13919.06531539202
 30
0.0
  0
POINT
  5
12D18
330
11D61
100
AcDbEntity
  8
DEFPOINTS
  6
ByBlock
 62
     0
 48
50.0
100
AcDbPoint
 10
3298.362354666085
 20
13919.06531539202
 30
0.0
  0
POINT
  5
12D19
330
11D61
100
AcDbEntity
  8
DEFPOINTS
  6
ByBlock
 62
     0
 48
50.0
100
AcDbPoint
 10
3298.362354666085
 20
13545.88224340073
 30
0.0
  0
ENDBLK
  5
12D1A
330
11D61
100
AcDbEntity
  8
0
 48
50.0
100
AcDbBlockEnd
  0
BLOCK
  5
13631
330
11D7A
100
AcDbEntity
  8
0
 48
50.0
100
AcDbBlockBegin
  2
*D12
 70
     1
 10
0.0
 20
0.0
 30
0.0
  3
*D12
  1

  0
LINE
  5
13693
330
11D7A
100
AcDbEntity
  8
寸法
 62
     0
 48
50.0
100
AcDbLine
 10
15195.75312609226
 20
9988.583082376012
 30
0.0
 11
15588.12442407164
 21
9988.583082376012
 31
0.0
  0
LINE
  5
13694
330
11D7A
100
AcDbEntity
  8
寸法
 62
     0
 48
50.0
100
AcDbLine
 10
15513.12442407164
 20
8743.583082375996
 30
0.0
 11
15513.12442407164
 21
9988.583082376012
 31
0.0
  0
INSERT
  5
13695
330
11D7A
100
AcDbEntity
  8
寸法
 62
     0
 48
50.0
100
AcDbBlockReference
  2
_DOTSMALL
 10
15513.12442407164
 20
8743.583082375996
 30
0.0
 41
125.0
 42
125.0
 43
125.0
 50
270.0
  0
INSERT
  5
13696
330
11D7A
100
AcDbEntity
  8
寸法
 62
     0
 48
50.0
100
AcDbBlockReference
  2
_DOTSMALL
 10
15513.12442407164
 20
9988.583082376012
 30
0.0
 41
125.0
 42
125.0
 43
125.0
 50
90.0
  0
MTEXT
  5
13697
330
11D7A
100
AcDbEntity
  8
寸法
 62
     7
 48
50.0
100
AcDbMText
 10
15413.10966029211
 20
9366.083082376006
 30
0.0
 40
150.0
 41
0.0
 71
     5
 72
     5
  1
\A1;1245
  7
STYLE1
 11
0.0000000000000001
 21
1.0
 31
0.0
 73
     1
 44
1.0
  0
POINT
  5
13698
330
11D7A
100
AcDbEntity
  8
DEFPOINTS
 62
     0
 48
50.0
100
AcDbPoint
 10
15156.25312609225
 20
8743.583082375996
 30
0.0
  0
POINT
  5
13699
330
11D7A
100
AcDbEntity
  8
DEFPOINTS
 62
     0
 48
50.0
100
AcDbPoint
 10
15170.75312609225
 20
9988.583082376012
 30
0.0
  0
POINT
  5
1369A
330
11D7A
100
AcDbEntity
  8
DEFPOINTS
 62
     0
 48
50.0
100
AcDbPoint
 10
15513.12442407164
 20
9988.583082376012
 30
0.0
  0
ENDBLK
  5
1363A
330
11D7A
100
AcDbEntity
  8
0
 48
50.0
100
AcDbBlockEnd
  0
BLOCK
  5
11E4E
330
11D85
100
AcDbEntity
  8
0
 48
50.0
100
AcDbBlockBegin
  2
*D13
 70
     1
 10
0.0
 20
0.0
 30
0.0
  3
*D13
  1

  0
LINE
  5
1369B
330
11D85
100
AcDbEntity
  8
寸法
 62
     0
 48
50.0
100
AcDbLine
 10
5612.104174944224
 20
12590.12138126075
 30
0.0
 11
6034.172335797031
 21
12590.12138126075
 31
0.0
  0
LINE
  5
1369C
330
11D85
100
AcDbEntity
  8
寸法
 62
     0
 48
50.0
100
AcDbLine
 10
5959.172335797031
 20
11690.12138126075
 30
0.0
 11
5959.172335797031
 21
12590.12138126075
 31
0.0
  0
INSERT
  5
1369D
330
11D85
100
AcDbEntity
  8
寸法
 62
     0
 48
50.0
100
AcDbBlockReference
  2
_DOTSMALL
 10
5959.172335797031
 20
11690.12138126075
 30
0.0
 41
125.0
 42
125.0
 43
125.0
 50
270.0
  0
INSERT
  5
1369E
330
11D85
100
AcDbEntity
  8
寸法
 62
     0
 48
50.0
100
AcDbBlockReference
  2
_DOTSMALL
 10
5959.172335797031
 20
12590.12138126075
 30
0.0
 41
125.0
 42
125.0
 43
125.0
 50
90.0
  0
MTEXT
  5
1369F
330
11D85
100
AcDbEntity
  8
寸法
 62
     7
 48
50.0
100
AcDbMText
 10
5859.17233579703
 20
12140.12138126076
 30
0.0
 40
150.0
 41
0.0
 71
     5
 72
     5
  1
\A1;900
  7
STYLE1
 11
0.0000000000000001
 21
1.0
 31
0.0
 73
     1
 44
1.0
  0
POINT
  5
136A0
330
11D85
100
AcDbEntity
  8
DEFPOINTS
 62
     0
 48
50.0
100
AcDbPoint
 10
5587.104174944225
 20
11690.12138126075
 30
0.0
  0
POINT
  5
136A1
330
11D85
100
AcDbEntity
  8
DEFPOINTS
 62
     0
 48
50.0
100
AcDbPoint
 10
5587.104174944225
 20
12590.12138126075
 30
0.0
  0
POINT
  5
136A2
330
11D85
100
AcDbEntity
  8
DEFPOINTS
 62
     0
 48
50.0
100
AcDbPoint
 10
5959.172335797031
 20
12590.12138126075
 30
0.0
  0
ENDBLK
  5
11E57
330
11D85
100
AcDbEntity
  8
0
 48
50.0
100
AcDbBlockEnd
  0
BLOCK
  5
11E64
330
11D9D
100
AcDbEntity
  8
0
 48
50.0
100
AcDbBlockBegin
  2
*D14
 70
     1
 10
0.0
 20
0.0
 30
0.0
  3
*D14
  1

  0
LINE
  5
11E65
330
11D9D
100
AcDbEntity
  8
0
  6
ByBlock
 62
     0
 48
50.0
100
AcDbLine
 10
7515.160030318158
 20
18109.10604984283
 30
0.0
 11
7515.160030318158
 21
17628.66236397023
 31
0.0
  0
LINE
  5
11E66
330
11D9D
100
AcDbEntity
  8
0
  6
ByBlock
 62
     0
 48
50.0
100
AcDbLine
 10
9266.160030318159
 20
18109.10604984283
 30
0.0
 11
9266.160030318159
 21
17628.66236397023
 31
0.0
  0
LINE
  5
11E67
330
11D9D
100
AcDbEntity
  8
0
  6
ByBlock
 62
     0
 48
50.0
100
AcDbLine
 10
7515.160030318158
 20
17703.66236397023
 30
0.0
 11
9266.160030318159
 21
17703.66236397023
 31
0.0
  0
INSERT
  5
11E68
330
11D9D
100
AcDbEntity
  8
0
  6
ByBlock
 62
     0
 48
50.0
100
AcDbBlockReference
  2
_DOTSMALL
 10
7515.160030318158
 20
17703.66236397023
 30
0.0
 41
125.0
 42
125.0
 43
125.0
 50
180.0
  0
INSERT
  5
11E69
330
11D9D
100
AcDbEntity
  8
0
  6
ByBlock
 62
     0
 48
50.0
100
AcDbBlockReference
  2
_DOTSMALL
 10
9266.160030318159
 20
17703.66236397023
 30
0.0
 41
125.0
 42
125.0
 43
125.0
  0
MTEXT
  5
11E6A
330
11D9D
100
AcDbEntity
  8
0
  6
ByBlock
 62
     7
 48
50.0
100
AcDbMText
 10
8390.660030318159
 20
17803.66236397023
 30
0.0
 40
150.0
 41
0.0
 71
     5
 72
     5
  1
\A1;1751
  7
STYLE1
 73
     1
 44
1.0
1001
ACAD
1000
MTEXTBEGIN
1070
    73
1070
     1
1070
    44
1040
1.0
1070
    74
1070
     0
1000
MTEXTEND
  0
POINT
  5
11E6B
330
11D9D
100
AcDbEntity
  8
DEFPOINTS
  6
ByBlock
 62
     0
 48
50.0
100
AcDbPoint
 10
7515.160030318158
 20
18134.10604984283
 30
0.0
  0
POINT
  5
11E6C
330
11D9D
100
AcDbEntity
  8
DEFPOINTS
  6
ByBlock
 62
     0
 48
50.0
100
AcDbPoint
 10
9266.160030318159
 20
18134.10604984283
 30
0.0
  0
POINT
  5
11E6D
330
11D9D
100
AcDbEntity
  8
DEFPOINTS
  6
ByBlock
 62
     0
 48
50.0
100
AcDbPoint
 10
9266.160030318159
 20
17703.66236397023
 30
0.0
  0
ENDBLK
  5
11E6E
330
11D9D
100
AcDbEntity
  8
0
 48
50.0
100
AcDbBlockEnd
  0
BLOCK
  5
1305A
330
11E8B
100
AcDbEntity
  8
0
 48
50.0
100
AcDbBlockBegin
  2
*D15
 70
     1
 10
0.0
 20
0.0
 30
0.0
  3
*D15
  1

  0
LINE
  5
1305B
330
11E8B
100
AcDbEntity
  8
0
  6
ByBlock
 62
     0
 48
50.0
100
AcDbLine
 10
12735.68921850672
 20
10923.37174011924
 30
0.0
 11
13157.75737935954
 21
10923.37174011924
 31
0.0
  0
LINE
  5
1305C
330
11E8B
100
AcDbEntity
  8
0
  6
ByBlock
 62
     0
 48
50.0
100
AcDbLine
 10
12735.68921850672
 20
11878.37174011924
 30
0.0
 11
13157.75737935954
 21
11878.37174011924
 31
0.0
  0
LINE
  5
1305D
330
11E8B
100
AcDbEntity
  8
0
  6
ByBlock
 62
     0
 48
50.0
100
AcDbLine
 10
13082.75737935953
 20
10923.37174011924
 30
0.0
 11
13082.75737935953
 21
11878.37174011924
 31
0.0
  0
INSERT
  5
1305E
330
11E8B
100
AcDbEntity
  8
0
  6
ByBlock
 62
     0
 48
50.0
100
AcDbBlockReference
  2
_DOTSMALL
 10
13082.75737935953
 20
10923.37174011924
 30
0.0
 41
125.0
 42
125.0
 43
125.0
 50
270.0
  0
INSERT
  5
1305F
330
11E8B
100
AcDbEntity
  8
0
  6
ByBlock
 62
     0
 48
50.0
100
AcDbBlockReference
  2
_DOTSMALL
 10
13082.75737935953
 20
11878.37174011924
 30
0.0
 41
125.0
 42
125.0
 43
125.0
 50
90.0
  0
MTEXT
  5
13060
330
11E8B
100
AcDbEntity
  8
0
  6
ByBlock
 62
     7
 48
50.0
100
AcDbMText
 10
12982.75737935954
 20
11400.87174011924
 30
0.0
 40
150.0
 41
0.0
 71
     5
 72
     5
  1
\A1;955
  7
STYLE1
 11
0.0000000000000001
 21
1.0
 31
0.0
 73
     1
 44
1.0
1001
ACAD
1000
MTEXTBEGIN
1070
    73
1070
     1
1070
    44
1040
1.0
1070
    74
1070
     0
1000
MTEXTEND
  0
POINT
  5
13061
330
11E8B
100
AcDbEntity
  8
DEFPOINTS
  6
ByBlock
 62
     0
 48
50.0
100
AcDbPoint
 10
12710.68921850672
 20
10923.37174011924
 30
0.0
  0
POINT
  5
13062
330
11E8B
100
AcDbEntity
  8
DEFPOINTS
  6
ByBlock
 62
     0
 48
50.0
100
AcDbPoint
 10
12710.68921850672
 20
11878.37174011924
 30
0.0
  0
POINT
  5
13063
330
11E8B
100
AcDbEntity
  8
DEFPOINTS
  6
ByBlock
 62
     0
 48
50.0
100
AcDbPoint
 10
13082.75737935953
 20
11878.37174011924
 30
0.0
  0
ENDBLK
  5
13064
330
11E8B
100
AcDbEntity
  8
0
 48
50.0
100
AcDbBlockEnd
  0
BLOCK
  5
13050
330
11E97
100
AcDbEntity
  8
0
 48
50.0
100
AcDbBlockBegin
  2
*D16
 70
     1
 10
0.0
 20
0.0
 30
0.0
  3
*D16
  1

  0
LINE
  5
136A3
330
11E97
100
AcDbEntity
  8
寸法
 62
     0
 48
50.0
100
AcDbLine
 10
8941.333941746995
 20
12590.12138126075
 30
0.0
 11
9363.402102599799
 21
12590.12138126075
 31
0.0
  0
LINE
  5
136A4
330
11E97
100
AcDbEntity
  8
寸法
 62
     0
 48
50.0
100
AcDbLine
 10
9288.402102599794
 20
11690.12138126075
 30
0.0
 11
9288.4021025998
 21
12590.12138126075
 31
0.0
  0
INSERT
  5
136A5
330
11E97
100
AcDbEntity
  8
寸法
 62
     0
 48
50.0
100
AcDbBlockReference
  2
_DOTSMALL
 10
9288.402102599794
 20
11690.12138126075
 30
0.0
 41
125.0
 42
125.0
 43
125.0
 50
270.0
  0
INSERT
  5
136A6
330
11E97
100
AcDbEntity
  8
寸法
 62
     0
 48
50.0
100
AcDbBlockReference
  2
_DOTSMALL
 10
9288.4021025998
 20
12590.12138126075
 30
0.0
 41
125.0
 42
125.0
 43
125.0
 50
90.0
  0
MTEXT
  5
136A7
330
11E97
100
AcDbEntity
  8
寸法
 62
     7
 48
50.0
100
AcDbMText
 10
9188.402102599795
 20
12140.12138126076
 30
0.0
 40
150.0
 41
0.0
 71
     5
 72
     5
  1
\A1;900
  7
STYLE1
 11
0.0000000000000001
 21
1.0
 31
0.0
 73
     1
 44
1.0
  0
POINT
  5
136A8
330
11E97
100
AcDbEntity
  8
DEFPOINTS
 62
     0
 48
50.0
100
AcDbPoint
 10
8916.333941746994
 20
11690.12138126075
 30
0.0
  0
POINT
  5
136A9
330
11E97
100
AcDbEntity
  8
DEFPOINTS
 62
     0
 48
50.0
100
AcDbPoint
 10
8916.333941746994
 20
12590.12138126075
 30
0.0
  0
POINT
  5
136AA
330
11E97
100
AcDbEntity
  8
DEFPOINTS
 62
     0
 48
50.0
100
AcDbPoint
 10
9288.4021025998
 20
12590.12138126075
 30
0.0
  0
ENDBLK
  5
13059
330
11E97
100
AcDbEntity
  8
0
 48
50.0
100
AcDbBlockEnd
  0
BLOCK
  5
1303A
330
11EA4
100
AcDbEntity
  8
0
 48
50.0
100
AcDbBlockBegin
  2
*D17
 70
     1
 10
0.0
 20
0.0
 30
0.0
  3
*D17
  1

  0
LINE
  5
1303B
330
11EA4
100
AcDbEntity
  8
0
  6
ByBlock
 62
     0
 48
50.0
100
AcDbLine
 10
5844.807763654842
 20
10923.37174011924
 30
0.0
 11
6266.875924507649
 21
10923.37174011924
 31
0.0
  0
LINE
  5
1303C
330
11EA4
100
AcDbEntity
  8
0
  6
ByBlock
 62
     0
 48
50.0
100
AcDbLine
 10
5844.807763654842
 20
11878.37174011924
 30
0.0
 11
6266.875924507649
 21
11878.37174011924
 31
0.0
  0
LINE
  5
1303D
330
11EA4
100
AcDbEntity
  8
0
  6
ByBlock
 62
     0
 48
50.0
100
AcDbLine
 10
6191.875924507649
 20
10923.37174011924
 30
0.0
 11
6191.875924507649
 21
11878.37174011924
 31
0.0
  0
INSERT
  5
1303E
330
11EA4
100
AcDbEntity
  8
0
  6
ByBlock
 62
     0
 48
50.0
100
AcDbBlockReference
  2
_DOTSMALL
 10
6191.875924507649
 20
10923.37174011924
 30
0.0
 41
125.0
 42
125.0
 43
125.0
 50
270.0
  0
INSERT
  5
1303F
330
11EA4
100
AcDbEntity
  8
0
  6
ByBlock
 62
     0
 48
50.0
100
AcDbBlockReference
  2
_DOTSMALL
 10
6191.875924507649
 20
11878.37174011924
 30
0.0
 41
125.0
 42
125.0
 43
125.0
 50
90.0
  0
MTEXT
  5
13040
330
11EA4
100
AcDbEntity
  8
0
  6
ByBlock
 62
     7
 48
50.0
100
AcDbMText
 10
6091.875924507649
 20
11400.87174011924
 30
0.0
 40
150.0
 41
0.0
 71
     5
 72
     5
  1
\A1;955
  7
STYLE1
 11
0.0000000000000001
 21
1.0
 31
0.0
 73
     1
 44
1.0
1001
ACAD
1000
MTEXTBEGIN
1070
    73
1070
     1
1070
    44
1040
1.0
1070
    74
1070
     0
1000
MTEXTEND
  0
POINT
  5
13041
330
11EA4
100
AcDbEntity
  8
DEFPOINTS
  6
ByBlock
 62
     0
 48
50.0
100
AcDbPoint
 10
5819.807763654843
 20
10923.37174011924
 30
0.0
  0
POINT
  5
13042
330
11EA4
100
AcDbEntity
  8
DEFPOINTS
  6
ByBlock
 62
     0
 48
50.0
100
AcDbPoint
 10
5819.807763654843
 20
11878.37174011924
 30
0.0
  0
POINT
  5
13043
330
11EA4
100
AcDbEntity
  8
DEFPOINTS
  6
ByBlock
 62
     0
 48
50.0
100
AcDbPoint
 10
6191.875924507649
 20
11878.37174011924
 30
0.0
  0
ENDBLK
  5
13044
330
11EA4
100
AcDbEntity
  8
0
 48
50.0
100
AcDbBlockEnd
  0
BLOCK
  5
11EB1
330
11EB0
100
AcDbEntity
  8
0
 48
50.0
100
AcDbBlockBegin
  2
*D18
 70
     1
 10
0.0
 20
0.0
 30
0.0
  3
*D18
  1

  0
LINE
  5
136AB
330
11EB0
100
AcDbEntity
  8
寸法
 62
     0
 48
50.0
100
AcDbLine
 10
2891.878357414091
 20
12590.12138126075
 30
0.0
 11
3313.946518266898
 21
12590.12138126075
 31
0.0
  0
LINE
  5
136AC
330
11EB0
100
AcDbEntity
  8
寸法
 62
     0
 48
50.0
100
AcDbLine
 10
3238.946518266898
 20
11690.12138126075
 30
0.0
 11
3238.946518266898
 21
12590.12138126075
 31
0.0
  0
INSERT
  5
136AD
330
11EB0
100
AcDbEntity
  8
寸法
 62
     0
 48
50.0
100
AcDbBlockReference
  2
_DOTSMALL
 10
3238.946518266898
 20
11690.12138126075
 30
0.0
 41
125.0
 42
125.0
 43
125.0
 50
270.0
  0
INSERT
  5
136AE
330
11EB0
100
AcDbEntity
  8
寸法
 62
     0
 48
50.0
100
AcDbBlockReference
  2
_DOTSMALL
 10
3238.946518266898
 20
12590.12138126075
 30
0.0
 41
125.0
 42
125.0
 43
125.0
 50
90.0
  0
MTEXT
  5
136AF
330
11EB0
100
AcDbEntity
  8
寸法
 62
     7
 48
50.0
100
AcDbMText
 10
3138.946518266897
 20
12140.12138126076
 30
0.0
 40
150.0
 41
0.0
 71
     5
 72
     5
  1
\A1;900
  7
STYLE1
 11
0.0000000000000001
 21
1.0
 31
0.0
 73
     1
 44
1.0
  0
POINT
  5
136B0
330
11EB0
100
AcDbEntity
  8
DEFPOINTS
 62
     0
 48
50.0
100
AcDbPoint
 10
2866.878357414091
 20
11690.12138126075
 30
0.0
  0
POINT
  5
136B1
330
11EB0
100
AcDbEntity
  8
DEFPOINTS
 62
     0
 48
50.0
100
AcDbPoint
 10
2866.878357414091
 20
12590.12138126075
 30
0.0
  0
POINT
  5
136B2
330
11EB0
100
AcDbEntity
  8
DEFPOINTS
 62
     0
 48
50.0
100
AcDbPoint
 10
3238.946518266898
 20
12590.12138126075
 30
0.0
  0
ENDBLK
  5
11EBA
330
11EB0
100
AcDbEntity
  8
0
 48
50.0
100
AcDbBlockEnd
  0
BLOCK
  5
11F02
330
11EF5
100
AcDbEntity
  8
0
 48
50.0
100
AcDbBlockBegin
  2
*D19
 70
     1
 10
0.0
 20
0.0
 30
0.0
  3
*D19
  1

  0
LINE
  5
11F03
330
11EF5
100
AcDbEntity
  8
0
  6
ByBlock
 62
     0
 48
50.0
100
AcDbLine
 10
12557.9587031919
 20
1957.163780420873
 30
0.0
 11
12557.9587031919
 21
1616.062851306327
 31
0.0
  0
LINE
  5
11F04
330
11EF5
100
AcDbEntity
  8
0
  6
ByBlock
 62
     0
 48
50.0
100
AcDbLine
 10
12324.95870319191
 20
3100.663780420866
 30
0.0
 11
12324.95870319191
 21
1616.062851306327
 31
0.0
  0
LINE
  5
11F05
330
11EF5
100
AcDbEntity
  8
0
  6
ByBlock
 62
     0
 48
50.0
100
AcDbLine
 10
12557.9587031919
 20
1691.062851306328
 30
0.0
 11
12324.95870319191
 21
1691.062851306328
 31
0.0
  0
LINE
  5
11F06
330
11EF5
100
AcDbEntity
  8
0
  6
ByBlock
 62
     0
 48
50.0
100
AcDbLine
 10
12324.95870319191
 20
1691.062851306328
 30
0.0
 11
11869.9364446382
 21
1691.062851306328
 31
0.0
  0
INSERT
  5
11F07
330
11EF5
100
AcDbEntity
  8
0
  6
ByBlock
 62
     0
 48
50.0
100
AcDbBlockReference
  2
_DOTSMALL
 10
12557.9587031919
 20
1691.062851306328
 30
0.0
 41
125.0
 42
125.0
 43
125.0
  0
INSERT
  5
11F08
330
11EF5
100
AcDbEntity
  8
0
  6
ByBlock
 62
     0
 48
50.0
100
AcDbBlockReference
  2
_DOTSMALL
 10
12324.95870319191
 20
1691.062851306328
 30
0.0
 41
125.0
 42
125.0
 43
125.0
 50
180.0
  0
MTEXT
  5
11F09
330
11EF5
100
AcDbEntity
  8
0
  6
ByBlock
 62
     7
 48
50.0
100
AcDbMText
 10
12034.94757391504
 20
1791.077615085855
 30
0.0
 40
150.0
 41
0.0
 71
     5
 72
     5
  1
\A1;233
  7
STYLE1
 73
     1
 44
1.0
1001
ACAD
1000
MTEXTBEGIN
1070
    73
1070
     1
1070
    44
1040
1.0
1070
    74
1070
     0
1000
MTEXTEND
  0
POINT
  5
11F0A
330
11EF5
100
AcDbEntity
  8
DEFPOINTS
  6
ByBlock
 62
     0
 48
50.0
100
AcDbPoint
 10
12557.9587031919
 20
1982.163780420873
 30
0.0
  0
POINT
  5
11F0B
330
11EF5
100
AcDbEntity
  8
DEFPOINTS
  6
ByBlock
 62
     0
 48
50.0
100
AcDbPoint
 10
12324.95870319191
 20
3125.663780420866
 30
0.0
  0
POINT
  5
11F0C
330
11EF5
100
AcDbEntity
  8
DEFPOINTS
  6
ByBlock
 62
     0
 48
50.0
100
AcDbPoint
 10
12324.95870319191
 20
1691.062851306328
 30
0.0
  0
ENDBLK
  5
11F0D
330
11EF5
100
AcDbEntity
  8
0
 48
50.0
100
AcDbBlockEnd
  0
BLOCK
  5
12B92
330
12B91
100
AcDbEntity
  8
0
 48
50.0
100
AcDbBlockBegin
  2
*D20
 70
     1
 10
0.0
 20
0.0
 30
0.0
  3
*D20
  1

  0
LINE
  5
136B3
330
12B91
100
AcDbEntity
  8
寸法
 62
     0
 48
50.0
100
AcDbLine
 10
8941.333941746995
 20
9703.583082375995
 30
0.0
 11
9363.402102599799
 21
9703.583082375995
 31
0.0
  0
LINE
  5
136B4
330
12B91
100
AcDbEntity
  8
寸法
 62
     0
 48
50.0
100
AcDbLine
 10
9288.4021025998
 20
8803.583082375997
 30
0.0
 11
9288.4021025998
 21
9703.583082375995
 31
0.0
  0
INSERT
  5
136B5
330
12B91
100
AcDbEntity
  8
寸法
 62
     0
 48
50.0
100
AcDbBlockReference
  2
_DOTSMALL
 10
9288.4021025998
 20
8803.583082375997
 30
0.0
 41
125.0
 42
125.0
 43
125.0
 50
270.0
  0
INSERT
  5
136B6
330
12B91
100
AcDbEntity
  8
寸法
 62
     0
 48
50.0
100
AcDbBlockReference
  2
_DOTSMALL
 10
9288.4021025998
 20
9703.583082375995
 30
0.0
 41
125.0
 42
125.0
 43
125.0
 50
90.0
  0
MTEXT
  5
136B7
330
12B91
100
AcDbEntity
  8
寸法
 62
     7
 48
50.0
100
AcDbMText
 10
9188.402102599795
 20
9253.583082376
 30
0.0
 40
150.0
 41
0.0
 71
     5
 72
     5
  1
\A1;900
  7
STYLE1
 11
0.0000000000000001
 21
1.0
 31
0.0
 73
     1
 44
1.0
  0
POINT
  5
136B8
330
12B91
100
AcDbEntity
  8
DEFPOINTS
 62
     0
 48
50.0
100
AcDbPoint
 10
8916.333941746994
 20
8803.583082375997
 30
0.0
  0
POINT
  5
136B9
330
12B91
100
AcDbEntity
  8
DEFPOINTS
 62
     0
 48
50.0
100
AcDbPoint
 10
8916.333941746994
 20
9703.583082375995
 30
0.0
  0
POINT
  5
136BA
330
12B91
100
AcDbEntity
  8
DEFPOINTS
 62
     0
 48
50.0
100
AcDbPoint
 10
9288.4021025998
 20
9703.583082375995
 30
0.0
  0
ENDBLK
  5
12B9B
330
12B91
100
AcDbEntity
  8
0
 48
50.0
100
AcDbBlockEnd
  0
BLOCK
  5
13023
330
12B9C
100
AcDbEntity
  8
0
 48
50.0
100
AcDbBlockBegin
  2
*D21
 70
     1
 10
0.0
 20
0.0
 30
0.0
  3
*D21
  1

  0
LINE
  5
13024
330
12B9C
100
AcDbEntity
  8
0
  6
ByBlock
 62
     0
 48
50.0
100
AcDbLine
 10
12735.68921850672
 20
8036.833441234477
 30
0.0
 11
13157.75737935954
 21
8036.833441234477
 31
0.0
  0
LINE
  5
13025
330
12B9C
100
AcDbEntity
  8
0
  6
ByBlock
 62
     0
 48
50.0
100
AcDbLine
 10
12735.68921850672
 20
8991.833441234478
 30
0.0
 11
13157.75737935954
 21
8991.833441234478
 31
0.0
  0
LINE
  5
13026
330
12B9C
100
AcDbEntity
  8
0
  6
ByBlock
 62
     0
 48
50.0
100
AcDbLine
 10
13082.75737935953
 20
8036.833441234477
 30
0.0
 11
13082.75737935953
 21
8991.833441234478
 31
0.0
  0
INSERT
  5
13027
330
12B9C
100
AcDbEntity
  8
0
  6
ByBlock
 62
     0
 48
50.0
100
AcDbBlockReference
  2
_DOTSMALL
 10
13082.75737935953
 20
8036.833441234477
 30
0.0
 41
125.0
 42
125.0
 43
125.0
 50
270.0
  0
INSERT
  5
13028
330
12B9C
100
AcDbEntity
  8
0
  6
ByBlock
 62
     0
 48
50.0
100
AcDbBlockReference
  2
_DOTSMALL
 10
13082.75737935953
 20
8991.833441234478
 30
0.0
 41
125.0
 42
125.0
 43
125.0
 50
90.0
  0
MTEXT
  5
13029
330
12B9C
100
AcDbEntity
  8
0
  6
ByBlock
 62
     7
 48
50.0
100
AcDbMText
 10
12982.75737935954
 20
8514.333441234477
 30
0.0
 40
150.0
 41
0.0
 71
     5
 72
     5
  1
\A1;955
  7
STYLE1
 11
0.0000000000000001
 21
1.0
 31
0.0
 73
     1
 44
1.0
1001
ACAD
1000
MTEXTBEGIN
1070
    73
1070
     1
1070
    44
1040
1.0
1070
    74
1070
     0
1000
MTEXTEND
  0
POINT
  5
1302A
330
12B9C
100
AcDbEntity
  8
DEFPOINTS
  6
ByBlock
 62
     0
 48
50.0
100
AcDbPoint
 10
12710.68921850672
 20
8036.833441234477
 30
0.0
  0
POINT
  5
1302B
330
12B9C
100
AcDbEntity
  8
DEFPOINTS
  6
ByBlock
 62
     0
 48
50.0
100
AcDbPoint
 10
12710.68921850672
 20
8991.833441234478
 30
0.0
  0
POINT
  5
1302C
330
12B9C
100
AcDbEntity
  8
DEFPOINTS
  6
ByBlock
 62
     0
 48
50.0
100
AcDbPoint
 10
13082.75737935953
 20
8991.833441234478
 30
0.0
  0
ENDBLK
  5
1302D
330
12B9C
100
AcDbEntity
  8
0
 48
50.0
100
AcDbBlockEnd
  0
BLOCK
  5
12D63
330
12D49
100
AcDbEntity
  8
0
 48
50.0
100
AcDbBlockBegin
  2
*D22
 70
     1
 10
0.0
 20
0.0
 30
0.0
  3
*D22
  1

  0
LINE
  5
12D64
330
12D49
100
AcDbEntity
  8
0
  6
ByBlock
 62
     0
 48
50.0
100
AcDbLine
 10
432.1231972928472
 20
4439.882527195819
 30
0.0
 11
432.1231972928472
 21
4098.781598081274
 31
0.0
  0
LINE
  5
12D65
330
12D49
100
AcDbEntity
  8
0
  6
ByBlock
 62
     0
 48
50.0
100
AcDbLine
 10
665.1231972928399
 20
5583.382527195814
 30
0.0
 11
665.1231972928398
 21
4098.781598081274
 31
0.0
  0
LINE
  5
12D66
330
12D49
100
AcDbEntity
  8
0
  6
ByBlock
 62
     0
 48
50.0
100
AcDbLine
 10
432.1231972928472
 20
4173.781598081274
 30
0.0
 11
665.1231972928398
 21
4173.781598081274
 31
0.0
  0
LINE
  5
12D67
330
12D49
100
AcDbEntity
  8
0
  6
ByBlock
 62
     0
 48
50.0
100
AcDbLine
 10
665.1231972928398
 20
4173.781598081274
 30
0.0
 11
1120.145455846546
 21
4173.781598081274
 31
0.0
  0
INSERT
  5
12D68
330
12D49
100
AcDbEntity
  8
0
  6
ByBlock
 62
     0
 48
50.0
100
AcDbBlockReference
  2
_DOTSMALL
 10
432.1231972928472
 20
4173.781598081274
 30
0.0
 41
125.0
 42
125.0
 43
125.0
 50
180.0
  0
INSERT
  5
12D69
330
12D49
100
AcDbEntity
  8
0
  6
ByBlock
 62
     0
 48
50.0
100
AcDbBlockReference
  2
_DOTSMALL
 10
665.1231972928398
 20
4173.781598081274
 30
0.0
 41
125.0
 42
125.0
 43
125.0
  0
MTEXT
  5
12D6A
330
12D49
100
AcDbEntity
  8
0
  6
ByBlock
 62
     7
 48
50.0
100
AcDbMText
 10
955.1343265696941
 20
4273.796361860801
 30
0.0
 40
150.0
 41
0.0
 71
     5
 72
     5
  1
\A1;233
  7
STYLE1
 73
     1
 44
1.0
1001
ACAD
1000
MTEXTBEGIN
1070
    73
1070
     1
1070
    44
1040
1.0
1070
    74
1070
     0
1000
MTEXTEND
  0
POINT
  5
12D6B
330
12D49
100
AcDbEntity
  8
DEFPOINTS
  6
ByBlock
 62
     0
 48
50.0
100
AcDbPoint
 10
432.1231972928472
 20
4464.882527195819
 30
0.0
  0
POINT
  5
12D6C
330
12D49
100
AcDbEntity
  8
DEFPOINTS
  6
ByBlock
 62
     0
 48
50.0
100
AcDbPoint
 10
665.1231972928399
 20
5608.382527195814
 30
0.0
  0
POINT
  5
12D6D
330
12D49
100
AcDbEntity
  8
DEFPOINTS
  6
ByBlock
 62
     0
 48
50.0
100
AcDbPoint
 10
665.1231972928398
 20
4173.781598081274
 30
0.0
  0
ENDBLK
  5
12D6E
330
12D49
100
AcDbEntity
  8
0
 48
50.0
100
AcDbBlockEnd
  0
BLOCK
  5
12F30
330
12F0D
100
AcDbEntity
  8
0
 48
50.0
100
AcDbBlockBegin
  2
*D23
 70
     1
 10
0.0
 20
0.0
 30
0.0
  3
*D23
  1

  0
LINE
  5
136BB
330
12F0D
100
AcDbEntity
  8
寸法
 62
     0
 48
50.0
100
AcDbLine
 10
5612.104174944222
 20
9703.583082375995
 30
0.0
 11
6034.17233579703
 21
9703.583082375995
 31
0.0
  0
LINE
  5
136BC
330
12F0D
100
AcDbEntity
  8
寸法
 62
     0
 48
50.0
100
AcDbLine
 10
5959.172335797028
 20
8803.583082375997
 30
0.0
 11
5959.172335797028
 21
9703.583082375995
 31
0.0
  0
INSERT
  5
136BD
330
12F0D
100
AcDbEntity
  8
寸法
 62
     0
 48
50.0
100
AcDbBlockReference
  2
_DOTSMALL
 10
5959.172335797028
 20
8803.583082375997
 30
0.0
 41
125.0
 42
125.0
 43
125.0
 50
270.0
  0
INSERT
  5
136BE
330
12F0D
100
AcDbEntity
  8
寸法
 62
     0
 48
50.0
100
AcDbBlockReference
  2
_DOTSMALL
 10
5959.172335797028
 20
9703.583082375995
 30
0.0
 41
125.0
 42
125.0
 43
125.0
 50
90.0
  0
MTEXT
  5
136BF
330
12F0D
100
AcDbEntity
  8
寸法
 62
     7
 48
50.0
100
AcDbMText
 10
5859.172335797029
 20
9253.583082376
 30
0.0
 40
150.0
 41
0.0
 71
     5
 72
     5
  1
\A1;900
  7
STYLE1
 11
0.0000000000000001
 21
1.0
 31
0.0
 73
     1
 44
1.0
  0
POINT
  5
136C0
330
12F0D
100
AcDbEntity
  8
DEFPOINTS
 62
     0
 48
50.0
100
AcDbPoint
 10
5587.104174944222
 20
8803.583082375997
 30
0.0
  0
POINT
  5
136C1
330
12F0D
100
AcDbEntity
  8
DEFPOINTS
 62
     0
 48
50.0
100
AcDbPoint
 10
5587.104174944222
 20
9703.583082375995
 30
0.0
  0
POINT
  5
136C2
330
12F0D
100
AcDbEntity
  8
DEFPOINTS
 62
     0
 48
50.0
100
AcDbPoint
 10
5959.172335797028
 20
9703.583082375995
 30
0.0
  0
ENDBLK
  5
12F39
330
12F0D
100
AcDbEntity
  8
0
 48
50.0
100
AcDbBlockEnd
  0
BLOCK
  5
12F3A
330
12F18
100
AcDbEntity
  8
0
 48
50.0
100
AcDbBlockBegin
  2
*D24
 70
     1
 10
0.0
 20
0.0
 30
0.0
  3
*D24
  1

  0
LINE
  5
12F3B
330
12F18
100
AcDbEntity
  8
0
  6
ByBlock
 62
     0
 48
50.0
100
AcDbLine
 10
20692.38620869754
 20
7398.042383617816
 30
0.0
 11
21114.45436955034
 21
7398.042383617816
 31
0.0
  0
LINE
  5
12F3C
330
12F18
100
AcDbEntity
  8
0
  6
ByBlock
 62
     0
 48
50.0
100
AcDbLine
 10
20692.38620869754
 20
8353.042383617816
 30
0.0
 11
21114.45436955034
 21
8353.042383617816
 31
0.0
  0
LINE
  5
12F3D
330
12F18
100
AcDbEntity
  8
0
  6
ByBlock
 62
     0
 48
50.0
100
AcDbLine
 10
21039.45436955034
 20
7398.042383617816
 30
0.0
 11
21039.45436955034
 21
8353.042383617816
 31
0.0
  0
INSERT
  5
12F3E
330
12F18
100
AcDbEntity
  8
0
  6
ByBlock
 62
     0
 48
50.0
100
AcDbBlockReference
  2
_DOTSMALL
 10
21039.45436955034
 20
7398.042383617816
 30
0.0
 41
125.0
 42
125.0
 43
125.0
 50
270.0
  0
INSERT
  5
12F3F
330
12F18
100
AcDbEntity
  8
0
  6
ByBlock
 62
     0
 48
50.0
100
AcDbBlockReference
  2
_DOTSMALL
 10
21039.45436955034
 20
8353.042383617816
 30
0.0
 41
125.0
 42
125.0
 43
125.0
 50
90.0
  0
MTEXT
  5
12F40
330
12F18
100
AcDbEntity
  8
0
  6
ByBlock
 62
     7
 48
50.0
100
AcDbMText
 10
20939.45436955034
 20
7875.542383617816
 30
0.0
 40
150.0
 41
0.0
 71
     5
 72
     5
  1
\A1;955
  7
STYLE1
 11
0.0000000000000001
 21
1.0
 31
0.0
 73
     1
 44
1.0
1001
ACAD
1000
MTEXTBEGIN
1070
    73
1070
     1
1070
    44
1040
1.0
1070
    74
1070
     0
1000
MTEXTEND
  0
POINT
  5
12F41
330
12F18
100
AcDbEntity
  8
DEFPOINTS
  6
ByBlock
 62
     0
 48
50.0
100
AcDbPoint
 10
20667.38620869753
 20
7398.042383617816
 30
0.0
  0
POINT
  5
12F42
330
12F18
100
AcDbEntity
  8
DEFPOINTS
  6
ByBlock
 62
     0
 48
50.0
100
AcDbPoint
 10
20667.38620869753
 20
8353.042383617816
 30
0.0
  0
POINT
  5
12F43
330
12F18
100
AcDbEntity
  8
DEFPOINTS
  6
ByBlock
 62
     0
 48
50.0
100
AcDbPoint
 10
21039.45436955034
 20
8353.042383617816
 30
0.0
  0
ENDBLK
  5
12F44
330
12F18
100
AcDbEntity
  8
0
 48
50.0
100
AcDbBlockEnd
  0
BLOCK
  5
12F95
330
12F24
100
AcDbEntity
  8
0
 48
50.0
100
AcDbBlockBegin
  2
*D25
 70
     1
 10
0.0
 20
0.0
 30
0.0
  3
*D25
  1

  0
LINE
  5
12F96
330
12F24
100
AcDbEntity
  8
0
  6
ByBlock
 62
     0
 48
50.0
100
AcDbLine
 10
7164.260966585558
 20
13904.06531539204
 30
0.0
 11
7164.260966585558
 21
13470.88224340073
 31
0.0
  0
LINE
  5
12F97
330
12F24
100
AcDbEntity
  8
0
  6
ByBlock
 62
     0
 48
50.0
100
AcDbLine
 10
8916.260966585559
 20
13904.06531539204
 30
0.0
 11
8916.260966585559
 21
13470.88224340073
 31
0.0
  0
LINE
  5
12F98
330
12F24
100
AcDbEntity
  8
0
  6
ByBlock
 62
     0
 48
50.0
100
AcDbLine
 10
7164.260966585558
 20
13545.88224340073
 30
0.0
 11
8916.260966585559
 21
13545.88224340073
 31
0.0
  0
INSERT
  5
12F99
330
12F24
100
AcDbEntity
  8
0
  6
ByBlock
 62
     0
 48
50.0
100
AcDbBlockReference
  2
_DOTSMALL
 10
7164.260966585558
 20
13545.88224340073
 30
0.0
 41
125.0
 42
125.0
 43
125.0
 50
180.0
  0
INSERT
  5
12F9A
330
12F24
100
AcDbEntity
  8
0
  6
ByBlock
 62
     0
 48
50.0
100
AcDbBlockReference
  2
_DOTSMALL
 10
8916.260966585559
 20
13545.88224340073
 30
0.0
 41
125.0
 42
125.0
 43
125.0
  0
MTEXT
  5
12F9B
330
12F24
100
AcDbEntity
  8
0
  6
ByBlock
 62
     7
 48
50.0
100
AcDbMText
 10
8040.260966585558
 20
13645.89700718026
 30
0.0
 40
150.0
 41
0.0
 71
     5
 72
     5
  1
\A1;1752
  7
STYLE1
 73
     1
 44
1.0
1001
ACAD
1000
MTEXTBEGIN
1070
    73
1070
     1
1070
    44
1040
1.0
1070
    74
1070
     0
1000
MTEXTEND
  0
POINT
  5
12F9C
330
12F24
100
AcDbEntity
  8
DEFPOINTS
  6
ByBlock
 62
     0
 48
50.0
100
AcDbPoint
 10
7164.260966585558
 20
13929.06531539204
 30
0.0
  0
POINT
  5
12F9D
330
12F24
100
AcDbEntity
  8
DEFPOINTS
  6
ByBlock
 62
     0
 48
50.0
100
AcDbPoint
 10
8916.260966585559
 20
13929.06531539202
 30
0.0
  0
POINT
  5
12F9E
330
12F24
100
AcDbEntity
  8
DEFPOINTS
  6
ByBlock
 62
     0
 48
50.0
100
AcDbPoint
 10
8916.260966585559
 20
13545.88224340073
 30
0.0
  0
ENDBLK
  5
12F9F
330
12F24
100
AcDbEntity
  8
0
 48
50.0
100
AcDbBlockEnd
  0
BLOCK
  5
12FF7
330
12FF6
100
AcDbEntity
  8
0
 48
50.0
100
AcDbBlockBegin
  2
*D26
 70
     1
 10
0.0
 20
0.0
 30
0.0
  3
*D26
  1

  0
LINE
  5
136C3
330
12FF6
100
AcDbEntity
  8
寸法
 62
     0
 48
50.0
100
AcDbLine
 10
2891.878357414091
 20
9703.583082375999
 30
0.0
 11
3313.946518266898
 21
9703.583082375999
 31
0.0
  0
LINE
  5
136C4
330
12FF6
100
AcDbEntity
  8
寸法
 62
     0
 48
50.0
100
AcDbLine
 10
3238.946518266898
 20
8803.583082375999
 30
0.0
 11
3238.946518266898
 21
9703.583082375999
 31
0.0
  0
INSERT
  5
136C5
330
12FF6
100
AcDbEntity
  8
寸法
 62
     0
 48
50.0
100
AcDbBlockReference
  2
_DOTSMALL
 10
3238.946518266898
 20
8803.583082375999
 30
0.0
 41
125.0
 42
125.0
 43
125.0
 50
270.0
  0
INSERT
  5
136C6
330
12FF6
100
AcDbEntity
  8
寸法
 62
     0
 48
50.0
100
AcDbBlockReference
  2
_DOTSMALL
 10
3238.946518266898
 20
9703.583082375999
 30
0.0
 41
125.0
 42
125.0
 43
125.0
 50
90.0
  0
MTEXT
  5
136C7
330
12FF6
100
AcDbEntity
  8
寸法
 62
     7
 48
50.0
100
AcDbMText
 10
3138.946518266897
 20
9253.583082376
 30
0.0
 40
150.0
 41
0.0
 71
     5
 72
     5
  1
\A1;900
  7
STYLE1
 11
0.0000000000000001
 21
1.0
 31
0.0
 73
     1
 44
1.0
  0
POINT
  5
136C8
330
12FF6
100
AcDbEntity
  8
DEFPOINTS
 62
     0
 48
50.0
100
AcDbPoint
 10
2866.878357414091
 20
8803.583082375999
 30
0.0
  0
POINT
  5
136C9
330
12FF6
100
AcDbEntity
  8
DEFPOINTS
 62
     0
 48
50.0
100
AcDbPoint
 10
2866.878357414091
 20
9703.583082375999
 30
0.0
  0
POINT
  5
136CA
330
12FF6
100
AcDbEntity
  8
DEFPOINTS
 62
     0
 48
50.0
100
AcDbPoint
 10
3238.946518266898
 20
9703.583082375999
 30
0.0
  0
ENDBLK
  5
13000
330
12FF6
100
AcDbEntity
  8
0
 48
50.0
100
AcDbBlockEnd
  0
BLOCK
  5
13002
330
13001
100
AcDbEntity
  8
0
 48
50.0
100
AcDbBlockBegin
  2
*D27
 70
     1
 10
0.0
 20
0.0
 30
0.0
  3
*D27
  1

  0
LINE
  5
13003
330
13001
100
AcDbEntity
  8
0
  6
ByBlock
 62
     0
 48
50.0
100
AcDbLine
 10
8935.260966585557
 20
8036.833441234476
 30
0.0
 11
9357.329127438365
 21
8036.833441234476
 31
0.0
  0
LINE
  5
13004
330
13001
100
AcDbEntity
  8
0
  6
ByBlock
 62
     0
 48
50.0
100
AcDbLine
 10
8935.260966585557
 20
8991.833441234478
 30
0.0
 11
9357.329127438365
 21
8991.833441234478
 31
0.0
  0
LINE
  5
13005
330
13001
100
AcDbEntity
  8
0
  6
ByBlock
 62
     0
 48
50.0
100
AcDbLine
 10
9282.329127438364
 20
8036.833441234476
 30
0.0
 11
9282.329127438364
 21
8991.833441234478
 31
0.0
  0
INSERT
  5
13006
330
13001
100
AcDbEntity
  8
0
  6
ByBlock
 62
     0
 48
50.0
100
AcDbBlockReference
  2
_DOTSMALL
 10
9282.329127438364
 20
8036.833441234476
 30
0.0
 41
125.0
 42
125.0
 43
125.0
 50
270.0
  0
INSERT
  5
13007
330
13001
100
AcDbEntity
  8
0
  6
ByBlock
 62
     0
 48
50.0
100
AcDbBlockReference
  2
_DOTSMALL
 10
9282.329127438364
 20
8991.833441234478
 30
0.0
 41
125.0
 42
125.0
 43
125.0
 50
90.0
  0
MTEXT
  5
13008
330
13001
100
AcDbEntity
  8
0
  6
ByBlock
 62
     7
 48
50.0
100
AcDbMText
 10
9182.329127438364
 20
8514.333441234477
 30
0.0
 40
150.0
 41
0.0
 71
     5
 72
     5
  1
\A1;955
  7
STYLE1
 11
0.0000000000000001
 21
1.0
 31
0.0
 73
     1
 44
1.0
1001
ACAD
1000
MTEXTBEGIN
1070
    73
1070
     1
1070
    44
1040
1.0
1070
    74
1070
     0
1000
MTEXTEND
  0
POINT
  5
13009
330
13001
100
AcDbEntity
  8
DEFPOINTS
  6
ByBlock
 62
     0
 48
50.0
100
AcDbPoint
 10
8910.260966585557
 20
8036.833441234476
 30
0.0
  0
POINT
  5
1300A
330
13001
100
AcDbEntity
  8
DEFPOINTS
  6
ByBlock
 62
     0
 48
50.0
100
AcDbPoint
 10
8910.260966585557
 20
8991.833441234478
 30
0.0
  0
POINT
  5
1300B
330
13001
100
AcDbEntity
  8
DEFPOINTS
  6
ByBlock
 62
     0
 48
50.0
100
AcDbPoint
 10
9282.329127438364
 20
8991.833441234478
 30
0.0
  0
ENDBLK
  5
1300C
330
13001
100
AcDbEntity
  8
0
 48
50.0
100
AcDbBlockEnd
  0
BLOCK
  5
132CD
330
13224
100
AcDbEntity
  8
0
 48
50.0
100
AcDbBlockBegin
  2
*D28
 70
     1
 10
0.0
 20
0.0
 30
0.0
  3
*D28
  1

  0
LINE
  5
132CE
330
13224
100
AcDbEntity
  8
0
  6
ByBlock
 62
     0
 48
50.0
100
AcDbLine
 10
8935.260966585557
 20
3399.882527195822
 30
0.0
 11
9357.329127438365
 21
3399.882527195822
 31
0.0
  0
LINE
  5
132CF
330
13224
100
AcDbEntity
  8
0
  6
ByBlock
 62
     0
 48
50.0
100
AcDbLine
 10
8935.260966585557
 20
4184.882527195822
 30
0.0
 11
9357.329127438365
 21
4184.882527195822
 31
0.0
  0
LINE
  5
132D0
330
13224
100
AcDbEntity
  8
0
  6
ByBlock
 62
     0
 48
50.0
100
AcDbLine
 10
9282.329127438364
 20
3399.882527195822
 30
0.0
 11
9282.329127438364
 21
4184.882527195822
 31
0.0
  0
INSERT
  5
132D1
330
13224
100
AcDbEntity
  8
0
  6
ByBlock
 62
     0
 48
50.0
100
AcDbBlockReference
  2
_DOTSMALL
 10
9282.329127438364
 20
3399.882527195822
 30
0.0
 41
125.0
 42
125.0
 43
125.0
 50
270.0
  0
INSERT
  5
132D2
330
13224
100
AcDbEntity
  8
0
  6
ByBlock
 62
     0
 48
50.0
100
AcDbBlockReference
  2
_DOTSMALL
 10
9282.329127438364
 20
4184.882527195822
 30
0.0
 41
125.0
 42
125.0
 43
125.0
 50
90.0
  0
MTEXT
  5
132D3
330
13224
100
AcDbEntity
  8
0
  6
ByBlock
 62
     7
 48
50.0
100
AcDbMText
 10
9182.329127438364
 20
3792.382527195822
 30
0.0
 40
150.0
 41
0.0
 71
     5
 72
     5
  1
\A1;785
  7
STYLE1
 11
0.0000000000000001
 21
1.0
 31
0.0
 73
     1
 44
1.0
1001
ACAD
1000
MTEXTBEGIN
1070
    73
1070
     1
1070
    44
1040
1.0
1070
    74
1070
     0
1000
MTEXTEND
  0
POINT
  5
132D4
330
13224
100
AcDbEntity
  8
DEFPOINTS
  6
ByBlock
 62
     0
 48
50.0
100
AcDbPoint
 10
8910.260966585557
 20
3399.882527195822
 30
0.0
  0
POINT
  5
132D5
330
13224
100
AcDbEntity
  8
DEFPOINTS
  6
ByBlock
 62
     0
 48
50.0
100
AcDbPoint
 10
8910.260966585557
 20
4184.882527195822
 30
0.0
  0
POINT
  5
132D6
330
13224
100
AcDbEntity
  8
DEFPOINTS
  6
ByBlock
 62
     0
 48
50.0
100
AcDbPoint
 10
9282.329127438364
 20
4184.882527195822
 30
0.0
  0
ENDBLK
  5
132D7
330
13224
100
AcDbEntity
  8
0
 48
50.0
100
AcDbBlockEnd
  0
BLOCK
  5
132C3
330
13230
100
AcDbEntity
  8
0
 48
50.0
100
AcDbBlockBegin
  2
*D29
 70
     1
 10
0.0
 20
0.0
 30
0.0
  3
*D29
  1

  0
LINE
  5
136CB
330
13230
100
AcDbEntity
  8
寸法
 62
     0
 48
50.0
100
AcDbLine
 10
5612.104174944222
 20
6349.817790641758
 30
0.0
 11
6034.17233579703
 21
6349.817790641758
 31
0.0
  0
LINE
  5
136CC
330
13230
100
AcDbEntity
  8
寸法
 62
     0
 48
50.0
100
AcDbLine
 10
5959.172335797028
 20
5279.817790641757
 30
0.0
 11
5959.172335797028
 21
6349.817790641758
 31
0.0
  0
INSERT
  5
136CD
330
13230
100
AcDbEntity
  8
寸法
 62
     0
 48
50.0
100
AcDbBlockReference
  2
_DOTSMALL
 10
5959.172335797028
 20
5279.817790641757
 30
0.0
 41
125.0
 42
125.0
 43
125.0
 50
270.0
  0
INSERT
  5
136CE
330
13230
100
AcDbEntity
  8
寸法
 62
     0
 48
50.0
100
AcDbBlockReference
  2
_DOTSMALL
 10
5959.172335797028
 20
6349.817790641758
 30
0.0
 41
125.0
 42
125.0
 43
125.0
 50
90.0
  0
MTEXT
  5
136CF
330
13230
100
AcDbEntity
  8
寸法
 62
     7
 48
50.0
100
AcDbMText
 10
5859.172335797028
 20
5814.817790641758
 30
0.0
 40
150.0
 41
0.0
 71
     5
 72
     5
  1
\A1;1070
  7
STYLE1
 11
0.0000000000000001
 21
1.0
 31
0.0
 73
     1
 44
1.0
  0
POINT
  5
136D0
330
13230
100
AcDbEntity
  8
DEFPOINTS
 62
     0
 48
50.0
100
AcDbPoint
 10
5587.104174944222
 20
5279.817790641757
 30
0.0
  0
POINT
  5
136D1
330
13230
100
AcDbEntity
  8
DEFPOINTS
 62
     0
 48
50.0
100
AcDbPoint
 10
5587.104174944222
 20
6349.817790641758
 30
0.0
  0
POINT
  5
136D2
330
13230
100
AcDbEntity
  8
DEFPOINTS
 62
     0
 48
50.0
100
AcDbPoint
 10
5959.172335797028
 20
6349.817790641758
 30
0.0
  0
ENDBLK
  5
132CC
330
13230
100
AcDbEntity
  8
0
 48
50.0
100
AcDbBlockEnd
  0
BLOCK
  5
132D8
330
1323B
100
AcDbEntity
  8
0
 48
50.0
100
AcDbBlockBegin
  2
*D30
 70
     1
 10
0.0
 20
0.0
 30
0.0
  3
*D30
  1

  0
LINE
  5
136EB
330
1323B
100
AcDbEntity
  8
寸法
 62
     0
 48
50.0
100
AcDbLine
 10
8941.333941746991
 20
6349.817790641758
 30
0.0
 11
9363.402102599795
 21
6349.817790641758
 31
0.0
  0
LINE
  5
136EC
330
1323B
100
AcDbEntity
  8
寸法
 62
     0
 48
50.0
100
AcDbLine
 10
9288.402102599794
 20
5279.817790641757
 30
0.0
 11
9288.402102599794
 21
6349.817790641758
 31
0.0
  0
INSERT
  5
136ED
330
1323B
100
AcDbEntity
  8
寸法
 62
     0
 48
50.0
100
AcDbBlockReference
  2
_DOTSMALL
 10
9288.402102599794
 20
5279.817790641757
 30
0.0
 41
125.0
 42
125.0
 43
125.0
 50
270.0
  0
INSERT
  5
136EE
330
1323B
100
AcDbEntity
  8
寸法
 62
     0
 48
50.0
100
AcDbBlockReference
  2
_DOTSMALL
 10
9288.402102599794
 20
6349.817790641758
 30
0.0
 41
125.0
 42
125.0
 43
125.0
 50
90.0
  0
MTEXT
  5
136EF
330
1323B
100
AcDbEntity
  8
寸法
 62
     7
 48
50.0
100
AcDbMText
 10
9188.402102599795
 20
5814.817790641758
 30
0.0
 40
150.0
 41
0.0
 71
     5
 72
     5
  1
\A1;1070
  7
STYLE1
 11
0.0000000000000001
 21
1.0
 31
0.0
 73
     1
 44
1.0
  0
POINT
  5
136F0
330
1323B
100
AcDbEntity
  8
DEFPOINTS
 62
     0
 48
50.0
100
AcDbPoint
 10
8916.333941746991
 20
5279.817790641757
 30
0.0
  0
POINT
  5
136F1
330
1323B
100
AcDbEntity
  8
DEFPOINTS
 62
     0
 48
50.0
100
AcDbPoint
 10
8916.333941746991
 20
6349.817790641758
 30
0.0
  0
POINT
  5
136F2
330
1323B
100
AcDbEntity
  8
DEFPOINTS
 62
     0
 48
50.0
100
AcDbPoint
 10
9288.402102599794
 20
6349.817790641758
 30
0.0
  0
ENDBLK
  5
132E1
330
1323B
100
AcDbEntity
  8
0
 48
50.0
100
AcDbBlockEnd
  0
BLOCK
  5
132E2
330
13246
100
AcDbEntity
  8
0
 48
50.0
100
AcDbBlockBegin
  2
*D31
 70
     1
 10
0.0
 20
0.0
 30
0.0
  3
*D31
  1

  0
LINE
  5
132E3
330
13246
100
AcDbEntity
  8
0
  6
ByBlock
 62
     0
 48
50.0
100
AcDbLine
 10
12735.68921850672
 20
3399.882527195822
 30
0.0
 11
13157.75737935954
 21
3399.882527195822
 31
0.0
  0
LINE
  5
132E4
330
13246
100
AcDbEntity
  8
0
  6
ByBlock
 62
     0
 48
50.0
100
AcDbLine
 10
12735.68921850672
 20
4184.882527195822
 30
0.0
 11
13157.75737935954
 21
4184.882527195822
 31
0.0
  0
LINE
  5
132E5
330
13246
100
AcDbEntity
  8
0
  6
ByBlock
 62
     0
 48
50.0
100
AcDbLine
 10
13082.75737935953
 20
3399.882527195822
 30
0.0
 11
13082.75737935953
 21
4184.882527195822
 31
0.0
  0
INSERT
  5
132E6
330
13246
100
AcDbEntity
  8
0
  6
ByBlock
 62
     0
 48
50.0
100
AcDbBlockReference
  2
_DOTSMALL
 10
13082.75737935953
 20
3399.882527195822
 30
0.0
 41
125.0
 42
125.0
 43
125.0
 50
270.0
  0
INSERT
  5
132E7
330
13246
100
AcDbEntity
  8
0
  6
ByBlock
 62
     0
 48
50.0
100
AcDbBlockReference
  2
_DOTSMALL
 10
13082.75737935953
 20
4184.882527195822
 30
0.0
 41
125.0
 42
125.0
 43
125.0
 50
90.0
  0
MTEXT
  5
132E8
330
13246
100
AcDbEntity
  8
0
  6
ByBlock
 62
     7
 48
50.0
100
AcDbMText
 10
12982.75737935954
 20
3792.382527195822
 30
0.0
 40
150.0
 41
0.0
 71
     5
 72
     5
  1
\A1;785
  7
STYLE1
 11
0.0000000000000001
 21
1.0
 31
0.0
 73
     1
 44
1.0
1001
ACAD
1000
MTEXTBEGIN
1070
    73
1070
     1
1070
    44
1040
1.0
1070
    74
1070
     0
1000
MTEXTEND
  0
POINT
  5
132E9
330
13246
100
AcDbEntity
  8
DEFPOINTS
  6
ByBlock
 62
     0
 48
50.0
100
AcDbPoint
 10
12710.68921850672
 20
3399.882527195822
 30
0.0
  0
POINT
  5
132EA
330
13246
100
AcDbEntity
  8
DEFPOINTS
  6
ByBlock
 62
     0
 48
50.0
100
AcDbPoint
 10
12710.68921850672
 20
4184.882527195822
 30
0.0
  0
POINT
  5
132EB
330
13246
100
AcDbEntity
  8
DEFPOINTS
  6
ByBlock
 62
     0
 48
50.0
100
AcDbPoint
 10
13082.75737935953
 20
4184.882527195822
 30
0.0
  0
ENDBLK
  5
132EC
330
13246
100
AcDbEntity
  8
0
 48
50.0
100
AcDbBlockEnd
  0
BLOCK
  5
132AE
330
13252
100
AcDbEntity
  8
0
 48
50.0
100
AcDbBlockBegin
  2
*D32
 70
     1
 10
0.0
 20
0.0
 30
0.0
  3
*D32
  1

  0
LINE
  5
136D3
330
13252
100
AcDbEntity
  8
寸法
 62
     0
 48
50.0
100
AcDbLine
 10
2891.878357414091
 20
6349.817790641758
 30
0.0
 11
3313.946518266897
 21
6349.817790641758
 31
0.0
  0
LINE
  5
136D4
330
13252
100
AcDbEntity
  8
寸法
 62
     0
 48
50.0
100
AcDbLine
 10
3238.946518266897
 20
5279.817790641757
 30
0.0
 11
3238.946518266897
 21
6349.817790641758
 31
0.0
  0
INSERT
  5
136D5
330
13252
100
AcDbEntity
  8
寸法
 62
     0
 48
50.0
100
AcDbBlockReference
  2
_DOTSMALL
 10
3238.946518266897
 20
5279.817790641757
 30
0.0
 41
125.0
 42
125.0
 43
125.0
 50
270.0
  0
INSERT
  5
136D6
330
13252
100
AcDbEntity
  8
寸法
 62
     0
 48
50.0
100
AcDbBlockReference
  2
_DOTSMALL
 10
3238.946518266897
 20
6349.817790641758
 30
0.0
 41
125.0
 42
125.0
 43
125.0
 50
90.0
  0
MTEXT
  5
136D7
330
13252
100
AcDbEntity
  8
寸法
 62
     7
 48
50.0
100
AcDbMText
 10
3138.946518266896
 20
5814.817790641758
 30
0.0
 40
150.0
 41
0.0
 71
     5
 72
     5
  1
\A1;1070
  7
STYLE1
 11
0.0000000000000001
 21
1.0
 31
0.0
 73
     1
 44
1.0
  0
POINT
  5
136D8
330
13252
100
AcDbEntity
  8
DEFPOINTS
 62
     0
 48
50.0
100
AcDbPoint
 10
2866.878357414091
 20
5279.817790641757
 30
0.0
  0
POINT
  5
136D9
330
13252
100
AcDbEntity
  8
DEFPOINTS
 62
     0
 48
50.0
100
AcDbPoint
 10
2866.878357414091
 20
6349.817790641758
 30
0.0
  0
POINT
  5
136DA
330
13252
100
AcDbEntity
  8
DEFPOINTS
 62
     0
 48
50.0
100
AcDbPoint
 10
3238.946518266897
 20
6349.817790641758
 30
0.0
  0
ENDBLK
  5
132B7
330
13252
100
AcDbEntity
  8
0
 48
50.0
100
AcDbBlockEnd
  0
BLOCK
  5
132B8
330
1325D
100
AcDbEntity
  8
0
 48
50.0
100
AcDbBlockBegin
  2
*D33
 70
     1
 10
0.0
 20
0.0
 30
0.0
  3
*D33
  1

  0
LINE
  5
132B9
330
1325D
100
AcDbEntity
  8
0
  6
ByBlock
 62
     0
 48
50.0
100
AcDbLine
 10
5844.807763654841
 20
3399.882527195822
 30
0.0
 11
6266.875924507647
 21
3399.882527195822
 31
0.0
  0
LINE
  5
132BA
330
1325D
100
AcDbEntity
  8
0
  6
ByBlock
 62
     0
 48
50.0
100
AcDbLine
 10
5844.807763654841
 20
4184.882527195822
 30
0.0
 11
6266.875924507647
 21
4184.882527195822
 31
0.0
  0
LINE
  5
132BB
330
1325D
100
AcDbEntity
  8
0
  6
ByBlock
 62
     0
 48
50.0
100
AcDbLine
 10
6191.875924507648
 20
3399.882527195822
 30
0.0
 11
6191.875924507648
 21
4184.882527195822
 31
0.0
  0
INSERT
  5
132BC
330
1325D
100
AcDbEntity
  8
0
  6
ByBlock
 62
     0
 48
50.0
100
AcDbBlockReference
  2
_DOTSMALL
 10
6191.875924507648
 20
3399.882527195822
 30
0.0
 41
125.0
 42
125.0
 43
125.0
 50
270.0
  0
INSERT
  5
132BD
330
1325D
100
AcDbEntity
  8
0
  6
ByBlock
 62
     0
 48
50.0
100
AcDbBlockReference
  2
_DOTSMALL
 10
6191.875924507648
 20
4184.882527195822
 30
0.0
 41
125.0
 42
125.0
 43
125.0
 50
90.0
  0
MTEXT
  5
132BE
330
1325D
100
AcDbEntity
  8
0
  6
ByBlock
 62
     7
 48
50.0
100
AcDbMText
 10
6091.875924507648
 20
3792.382527195821
 30
0.0
 40
150.0
 41
0.0
 71
     5
 72
     5
  1
\A1;785
  7
STYLE1
 11
0.0000000000000001
 21
1.0
 31
0.0
 73
     1
 44
1.0
1001
ACAD
1000
MTEXTBEGIN
1070
    73
1070
     1
1070
    44
1040
1.0
1070
    74
1070
     0
1000
MTEXTEND
  0
POINT
  5
132BF
330
1325D
100
AcDbEntity
  8
DEFPOINTS
  6
ByBlock
 62
     0
 48
50.0
100
AcDbPoint
 10
5819.807763654843
 20
3399.882527195822
 30
0.0
  0
POINT
  5
132C0
330
1325D
100
AcDbEntity
  8
DEFPOINTS
  6
ByBlock
 62
     0
 48
50.0
100
AcDbPoint
 10
5819.807763654843
 20
4184.882527195822
 30
0.0
  0
POINT
  5
132C1
330
1325D
100
AcDbEntity
  8
DEFPOINTS
  6
ByBlock
 62
     0
 48
50.0
100
AcDbPoint
 10
6191.875924507648
 20
4184.882527195822
 30
0.0
  0
ENDBLK
  5
132C2
330
1325D
100
AcDbEntity
  8
0
 48
50.0
100
AcDbBlockEnd
  0
BLOCK
  5
13317
330
13269
100
AcDbEntity
  8
0
 48
50.0
100
AcDbBlockBegin
  2
*D34
 70
     1
 10
0.0
 20
0.0
 30
0.0
  3
*D34
  1

  0
LINE
  5
136F3
330
13269
100
AcDbEntity
  8
寸法
 62
     0
 48
50.0
100
AcDbLine
 10
8941.333941746991
 20
3540.688668615514
 30
0.0
 11
9363.402102599795
 21
3540.688668615512
 31
0.0
  0
LINE
  5
136F4
330
13269
100
AcDbEntity
  8
寸法
 62
     0
 48
50.0
100
AcDbLine
 10
9288.402102599794
 20
2470.688668615514
 30
0.0
 11
9288.402102599794
 21
3540.688668615512
 31
0.0
  0
INSERT
  5
136F5
330
13269
100
AcDbEntity
  8
寸法
 62
     0
 48
50.0
100
AcDbBlockReference
  2
_DOTSMALL
 10
9288.402102599794
 20
2470.688668615514
 30
0.0
 41
125.0
 42
125.0
 43
125.0
 50
270.0
  0
INSERT
  5
136F6
330
13269
100
AcDbEntity
  8
寸法
 62
     0
 48
50.0
100
AcDbBlockReference
  2
_DOTSMALL
 10
9288.402102599794
 20
3540.688668615512
 30
0.0
 41
125.0
 42
125.0
 43
125.0
 50
90.0
  0
MTEXT
  5
136F7
330
13269
100
AcDbEntity
  8
寸法
 62
     7
 48
50.0
100
AcDbMText
 10
9188.402102599795
 20
3005.688668615515
 30
0.0
 40
150.0
 41
0.0
 71
     5
 72
     5
  1
\A1;1070
  7
STYLE1
 11
0.0000000000000001
 21
1.0
 31
0.0
 73
     1
 44
1.0
  0
POINT
  5
136F8
330
13269
100
AcDbEntity
  8
DEFPOINTS
 62
     0
 48
50.0
100
AcDbPoint
 10
8916.333941746991
 20
2470.688668615514
 30
0.0
  0
POINT
  5
136F9
330
13269
100
AcDbEntity
  8
DEFPOINTS
 62
     0
 48
50.0
100
AcDbPoint
 10
8916.333941746991
 20
3540.688668615514
 30
0.0
  0
POINT
  5
136FA
330
13269
100
AcDbEntity
  8
DEFPOINTS
 62
     0
 48
50.0
100
AcDbPoint
 10
9288.402102599794
 20
3540.688668615512
 30
0.0
  0
ENDBLK
  5
13320
330
13269
100
AcDbEntity
  8
0
 48
50.0
100
AcDbBlockEnd
  0
BLOCK
  5
13321
330
13274
100
AcDbEntity
  8
0
 48
50.0
100
AcDbBlockBegin
  2
*D35
 70
     1
 10
0.0
 20
0.0
 30
0.0
  3
*D35
  1

  0
LINE
  5
13322
330
13274
100
AcDbEntity
  8
0
  6
ByBlock
 62
     0
 48
50.0
100
AcDbLine
 10
12735.68921850672
 20
590.7534051695782
 30
0.0
 11
13157.75737935954
 21
590.7534051695782
 31
0.0
  0
LINE
  5
13323
330
13274
100
AcDbEntity
  8
0
  6
ByBlock
 62
     0
 48
50.0
100
AcDbLine
 10
12735.68921850672
 20
1375.753405169578
 30
0.0
 11
13157.75737935954
 21
1375.753405169578
 31
0.0
  0
LINE
  5
13324
330
13274
100
AcDbEntity
  8
0
  6
ByBlock
 62
     0
 48
50.0
100
AcDbLine
 10
13082.75737935953
 20
590.7534051695782
 30
0.0
 11
13082.75737935953
 21
1375.753405169578
 31
0.0
  0
INSERT
  5
13325
330
13274
100
AcDbEntity
  8
0
  6
ByBlock
 62
     0
 48
50.0
100
AcDbBlockReference
  2
_DOTSMALL
 10
13082.75737935953
 20
590.7534051695782
 30
0.0
 41
125.0
 42
125.0
 43
125.0
 50
270.0
  0
INSERT
  5
13326
330
13274
100
AcDbEntity
  8
0
  6
ByBlock
 62
     0
 48
50.0
100
AcDbBlockReference
  2
_DOTSMALL
 10
13082.75737935953
 20
1375.753405169578
 30
0.0
 41
125.0
 42
125.0
 43
125.0
 50
90.0
  0
MTEXT
  5
13327
330
13274
100
AcDbEntity
  8
0
  6
ByBlock
 62
     7
 48
50.0
100
AcDbMText
 10
12982.75737935954
 20
983.2534051695782
 30
0.0
 40
150.0
 41
0.0
 71
     5
 72
     5
  1
\A1;785
  7
STYLE1
 11
0.0000000000000001
 21
1.0
 31
0.0
 73
     1
 44
1.0
1001
ACAD
1000
MTEXTBEGIN
1070
    73
1070
     1
1070
    44
1040
1.0
1070
    74
1070
     0
1000
MTEXTEND
  0
POINT
  5
13328
330
13274
100
AcDbEntity
  8
DEFPOINTS
  6
ByBlock
 62
     0
 48
50.0
100
AcDbPoint
 10
12710.68921850672
 20
590.7534051695782
 30
0.0
  0
POINT
  5
13329
330
13274
100
AcDbEntity
  8
DEFPOINTS
  6
ByBlock
 62
     0
 48
50.0
100
AcDbPoint
 10
12710.68921850672
 20
1375.753405169578
 30
0.0
  0
POINT
  5
1332A
330
13274
100
AcDbEntity
  8
DEFPOINTS
  6
ByBlock
 62
     0
 48
50.0
100
AcDbPoint
 10
13082.75737935953
 20
1375.753405169578
 30
0.0
  0
ENDBLK
  5
1332B
330
13274
100
AcDbEntity
  8
0
 48
50.0
100
AcDbBlockEnd
  0
BLOCK
  5
13302
330
13280
100
AcDbEntity
  8
0
 48
50.0
100
AcDbBlockBegin
  2
*D36
 70
     1
 10
0.0
 20
0.0
 30
0.0
  3
*D36
  1

  0
LINE
  5
136E3
330
13280
100
AcDbEntity
  8
寸法
 62
     0
 48
50.0
100
AcDbLine
 10
5612.104174944222
 20
3540.688668615514
 30
0.0
 11
6034.17233579703
 21
3540.688668615514
 31
0.0
  0
LINE
  5
136E4
330
13280
100
AcDbEntity
  8
寸法
 62
     0
 48
50.0
100
AcDbLine
 10
5959.172335797028
 20
2470.688668615514
 30
0.0
 11
5959.172335797028
 21
3540.688668615514
 31
0.0
  0
INSERT
  5
136E5
330
13280
100
AcDbEntity
  8
寸法
 62
     0
 48
50.0
100
AcDbBlockReference
  2
_DOTSMALL
 10
5959.172335797028
 20
2470.688668615514
 30
0.0
 41
125.0
 42
125.0
 43
125.0
 50
270.0
  0
INSERT
  5
136E6
330
13280
100
AcDbEntity
  8
寸法
 62
     0
 48
50.0
100
AcDbBlockReference
  2
_DOTSMALL
 10
5959.172335797028
 20
3540.688668615514
 30
0.0
 41
125.0
 42
125.0
 43
125.0
 50
90.0
  0
MTEXT
  5
136E7
330
13280
100
AcDbEntity
  8
寸法
 62
     7
 48
50.0
100
AcDbMText
 10
5859.172335797029
 20
3005.688668615515
 30
0.0
 40
150.0
 41
0.0
 71
     5
 72
     5
  1
\A1;1070
  7
STYLE1
 11
0.0000000000000001
 21
1.0
 31
0.0
 73
     1
 44
1.0
  0
POINT
  5
136E8
330
13280
100
AcDbEntity
  8
DEFPOINTS
 62
     0
 48
50.0
100
AcDbPoint
 10
5587.104174944222
 20
2470.688668615514
 30
0.0
  0
POINT
  5
136E9
330
13280
100
AcDbEntity
  8
DEFPOINTS
 62
     0
 48
50.0
100
AcDbPoint
 10
5587.104174944222
 20
3540.688668615514
 30
0.0
  0
POINT
  5
136EA
330
13280
100
AcDbEntity
  8
DEFPOINTS
 62
     0
 48
50.0
100
AcDbPoint
 10
5959.172335797028
 20
3540.688668615514
 30
0.0
  0
ENDBLK
  5
1330B
330
13280
100
AcDbEntity
  8
0
 48
50.0
100
AcDbBlockEnd
  0
BLOCK
  5
1330C
330
1328B
100
AcDbEntity
  8
0
 48
50.0
100
AcDbBlockBegin
  2
*D37
 70
     1
 10
0.0
 20
0.0
 30
0.0
  3
*D37
  1

  0
LINE
  5
1330D
330
1328B
100
AcDbEntity
  8
0
  6
ByBlock
 62
     0
 48
50.0
100
AcDbLine
 10
8935.260966585557
 20
590.7534051695773
 30
0.0
 11
9357.329127438365
 21
590.7534051695773
 31
0.0
  0
LINE
  5
1330E
330
1328B
100
AcDbEntity
  8
0
  6
ByBlock
 62
     0
 48
50.0
100
AcDbLine
 10
8935.260966585557
 20
1375.753405169578
 30
0.0
 11
9357.329127438365
 21
1375.753405169578
 31
0.0
  0
LINE
  5
1330F
330
1328B
100
AcDbEntity
  8
0
  6
ByBlock
 62
     0
 48
50.0
100
AcDbLine
 10
9282.329127438364
 20
590.7534051695773
 30
0.0
 11
9282.329127438364
 21
1375.753405169578
 31
0.0
  0
INSERT
  5
13310
330
1328B
100
AcDbEntity
  8
0
  6
ByBlock
 62
     0
 48
50.0
100
AcDbBlockReference
  2
_DOTSMALL
 10
9282.329127438364
 20
590.7534051695773
 30
0.0
 41
125.0
 42
125.0
 43
125.0
 50
270.0
  0
INSERT
  5
13311
330
1328B
100
AcDbEntity
  8
0
  6
ByBlock
 62
     0
 48
50.0
100
AcDbBlockReference
  2
_DOTSMALL
 10
9282.329127438364
 20
1375.753405169578
 30
0.0
 41
125.0
 42
125.0
 43
125.0
 50
90.0
  0
MTEXT
  5
13312
330
1328B
100
AcDbEntity
  8
0
  6
ByBlock
 62
     7
 48
50.0
100
AcDbMText
 10
9182.329127438364
 20
983.2534051695779
 30
0.0
 40
150.0
 41
0.0
 71
     5
 72
     5
  1
\A1;785
  7
STYLE1
 11
0.0000000000000001
 21
1.0
 31
0.0
 73
     1
 44
1.0
1001
ACAD
1000
MTEXTBEGIN
1070
    73
1070
     1
1070
    44
1040
1.0
1070
    74
1070
     0
1000
MTEXTEND
  0
POINT
  5
13313
330
1328B
100
AcDbEntity
  8
DEFPOINTS
  6
ByBlock
 62
     0
 48
50.0
100
AcDbPoint
 10
8910.260966585557
 20
590.7534051695773
 30
0.0
  0
POINT
  5
13314
330
1328B
100
AcDbEntity
  8
DEFPOINTS
  6
ByBlock
 62
     0
 48
50.0
100
AcDbPoint
 10
8910.260966585557
 20
1375.753405169578
 30
0.0
  0
POINT
  5
13315
330
1328B
100
AcDbEntity
  8
DEFPOINTS
  6
ByBlock
 62
     0
 48
50.0
100
AcDbPoint
 10
9282.329127438364
 20
1375.753405169578
 30
0.0
  0
ENDBLK
  5
13316
330
1328B
100
AcDbEntity
  8
0
 48
50.0
100
AcDbBlockEnd
  0
BLOCK
  5
132ED
330
13297
100
AcDbEntity
  8
0
 48
50.0
100
AcDbBlockBegin
  2
*D38
 70
     1
 10
0.0
 20
0.0
 30
0.0
  3
*D38
  1

  0
LINE
  5
136DB
330
13297
100
AcDbEntity
  8
寸法
 62
     0
 48
50.0
100
AcDbLine
 10
2891.878357414091
 20
3540.688668615516
 30
0.0
 11
3313.946518266897
 21
3540.688668615515
 31
0.0
  0
LINE
  5
136DC
330
13297
100
AcDbEntity
  8
寸法
 62
     0
 48
50.0
100
AcDbLine
 10
3238.946518266897
 20
2470.688668615515
 30
0.0
 11
3238.946518266897
 21
3540.688668615515
 31
0.0
  0
INSERT
  5
136DD
330
13297
100
AcDbEntity
  8
寸法
 62
     0
 48
50.0
100
AcDbBlockReference
  2
_DOTSMALL
 10
3238.946518266897
 20
2470.688668615515
 30
0.0
 41
125.0
 42
125.0
 43
125.0
 50
270.0
  0
INSERT
  5
136DE
330
13297
100
AcDbEntity
  8
寸法
 62
     0
 48
50.0
100
AcDbBlockReference
  2
_DOTSMALL
 10
3238.946518266897
 20
3540.688668615515
 30
0.0
 41
125.0
 42
125.0
 43
125.0
 50
90.0
  0
MTEXT
  5
136DF
330
13297
100
AcDbEntity
  8
寸法
 62
     7
 48
50.0
100
AcDbMText
 10
3138.946518266896
 20
3005.688668615515
 30
0.0
 40
150.0
 41
0.0
 71
     5
 72
     5
  1
\A1;1070
  7
STYLE1
 11
0.0000000000000001
 21
1.0
 31
0.0
 73
     1
 44
1.0
  0
POINT
  5
136E0
330
13297
100
AcDbEntity
  8
DEFPOINTS
 62
     0
 48
50.0
100
AcDbPoint
 10
2866.878357414091
 20
2470.688668615515
 30
0.0
  0
POINT
  5
136E1
330
13297
100
AcDbEntity
  8
DEFPOINTS
 62
     0
 48
50.0
100
AcDbPoint
 10
2866.878357414091
 20
3540.688668615516
 30
0.0
  0
POINT
  5
136E2
330
13297
100
AcDbEntity
  8
DEFPOINTS
 62
     0
 48
50.0
100
AcDbPoint
 10
3238.946518266897
 20
3540.688668615515
 30
0.0
  0
ENDBLK
  5
132F6
330
13297
100
AcDbEntity
  8
0
 48
50.0
100
AcDbBlockEnd
  0
BLOCK
  5
132F7
330
132A2
100
AcDbEntity
  8
0
 48
50.0
100
AcDbBlockBegin
  2
*D39
 70
     1
 10
0.0
 20
0.0
 30
0.0
  3
*D39
  1

  0
LINE
  5
132F8
330
132A2
100
AcDbEntity
  8
0
  6
ByBlock
 62
     0
 48
50.0
100
AcDbLine
 10
5844.807763654841
 20
590.7534051695791
 30
0.0
 11
6266.875924507647
 21
590.7534051695791
 31
0.0
  0
LINE
  5
132F9
330
132A2
100
AcDbEntity
  8
0
  6
ByBlock
 62
     0
 48
50.0
100
AcDbLine
 10
5844.807763654841
 20
1375.75340516958
 30
0.0
 11
6266.875924507647
 21
1375.75340516958
 31
0.0
  0
LINE
  5
132FA
330
132A2
100
AcDbEntity
  8
0
  6
ByBlock
 62
     0
 48
50.0
100
AcDbLine
 10
6191.875924507648
 20
590.7534051695791
 30
0.0
 11
6191.875924507648
 21
1375.75340516958
 31
0.0
  0
INSERT
  5
132FB
330
132A2
100
AcDbEntity
  8
0
  6
ByBlock
 62
     0
 48
50.0
100
AcDbBlockReference
  2
_DOTSMALL
 10
6191.875924507648
 20
590.7534051695791
 30
0.0
 41
125.0
 42
125.0
 43
125.0
 50
270.0
  0
INSERT
  5
132FC
330
132A2
100
AcDbEntity
  8
0
  6
ByBlock
 62
     0
 48
50.0
100
AcDbBlockReference
  2
_DOTSMALL
 10
6191.875924507648
 20
1375.75340516958
 30
0.0
 41
125.0
 42
125.0
 43
125.0
 50
90.0
  0
MTEXT
  5
132FD
330
132A2
100
AcDbEntity
  8
0
  6
ByBlock
 62
     7
 48
50.0
100
AcDbMText
 10
6091.875924507648
 20
983.2534051695798
 30
0.0
 40
150.0
 41
0.0
 71
     5
 72
     5
  1
\A1;785
  7
STYLE1
 11
0.0000000000000001
 21
1.0
 31
0.0
 73
     1
 44
1.0
1001
ACAD
1000
MTEXTBEGIN
1070
    73
1070
     1
1070
    44
1040
1.0
1070
    74
1070
     0
1000
MTEXTEND
  0
POINT
  5
132FE
330
132A2
100
AcDbEntity
  8
DEFPOINTS
  6
ByBlock
 62
     0
 48
50.0
100
AcDbPoint
 10
5819.807763654843
 20
590.7534051695791
 30
0.0
  0
POINT
  5
132FF
330
132A2
100
AcDbEntity
  8
DEFPOINTS
  6
ByBlock
 62
     0
 48
50.0
100
AcDbPoint
 10
5819.807763654843
 20
1375.75340516958
 30
0.0
  0
POINT
  5
13300
330
132A2
100
AcDbEntity
  8
DEFPOINTS
  6
ByBlock
 62
     0
 48
50.0
100
AcDbPoint
 10
6191.875924507648
 20
1375.75340516958
 30
0.0
  0
ENDBLK
  5
13301
330
132A2
100
AcDbEntity
  8
0
 48
50.0
100
AcDbBlockEnd
  0
BLOCK
  5
134D0
330
13452
100
AcDbEntity
  8
0
 48
50.0
100
AcDbBlockBegin
  2
*D40
 70
     1
 10
0.0
 20
0.0
 30
0.0
  3
*D40
  1

  0
LINE
  5
134D1
330
13452
100
AcDbEntity
  8
0
  6
ByBlock
 62
     0
 48
50.0
100
AcDbLine
 10
15181.25312609225
 20
1685.688668615513
 30
0.0
 11
15588.12442407164
 21
1685.688668615513
 31
0.0
  0
LINE
  5
134D2
330
13452
100
AcDbEntity
  8
0
  6
ByBlock
 62
     0
 48
50.0
100
AcDbLine
 10
15181.25312609225
 20
2410.688668615514
 30
0.0
 11
15588.12442407164
 21
2410.688668615514
 31
0.0
  0
LINE
  5
134D3
330
13452
100
AcDbEntity
  8
0
  6
ByBlock
 62
     0
 48
50.0
100
AcDbLine
 10
15513.12442407164
 20
1685.688668615513
 30
0.0
 11
15513.12442407164
 21
2410.688668615514
 31
0.0
  0
INSERT
  5
134D4
330
13452
100
AcDbEntity
  8
0
  6
ByBlock
 62
     0
 48
50.0
100
AcDbBlockReference
  2
_DOTSMALL
 10
15513.12442407164
 20
1685.688668615513
 30
0.0
 41
125.0
 42
125.0
 43
125.0
 50
270.0
  0
INSERT
  5
134D5
330
13452
100
AcDbEntity
  8
0
  6
ByBlock
 62
     0
 48
50.0
100
AcDbBlockReference
  2
_DOTSMALL
 10
15513.12442407164
 20
2410.688668615514
 30
0.0
 41
125.0
 42
125.0
 43
125.0
 50
90.0
  0
MTEXT
  5
134D6
330
13452
100
AcDbEntity
  8
0
  6
ByBlock
 62
     7
 48
50.0
100
AcDbMText
 10
15413.10966029213
 20
2048.188668615514
 30
0.0
 40
150.0
 41
0.0
 71
     5
 72
     5
  1
\A1;725
  7
STYLE1
 11
0.0000000000000001
 21
1.0
 31
0.0
 73
     1
 44
1.0
1001
ACAD
1000
MTEXTBEGIN
1070
    73
1070
     1
1070
    44
1040
1.0
1070
    74
1070
     0
1000
MTEXTEND
  0
POINT
  5
134D7
330
13452
100
AcDbEntity
  8
DEFPOINTS
  6
ByBlock
 62
     0
 48
50.0
100
AcDbPoint
 10
15156.25312609225
 20
1685.688668615513
 30
0.0
  0
POINT
  5
134D8
330
13452
100
AcDbEntity
  8
DEFPOINTS
  6
ByBlock
 62
     0
 48
50.0
100
AcDbPoint
 10
15156.25312609225
 20
2410.688668615514
 30
0.0
  0
POINT
  5
134D9
330
13452
100
AcDbEntity
  8
DEFPOINTS
  6
ByBlock
 62
     0
 48
50.0
100
AcDbPoint
 10
15513.12442407164
 20
2410.688668615514
 30
0.0
  0
ENDBLK
  5
134DA
330
13452
100
AcDbEntity
  8
0
 48
50.0
100
AcDbBlockEnd
  0
BLOCK
  5
134C5
330
1345E
100
AcDbEntity
  8
0
 48
50.0
100
AcDbBlockBegin
  2
*D41
 70
     1
 10
0.0
 20
0.0
 30
0.0
  3
*D41
  1

  0
LINE
  5
134C6
330
1345E
100
AcDbEntity
  8
0
  6
ByBlock
 62
     0
 48
50.0
100
AcDbLine
 10
12317.05351740778
 20
1685.688668615517
 30
0.0
 11
12723.92481538717
 21
1685.688668615517
 31
0.0
  0
LINE
  5
134C7
330
1345E
100
AcDbEntity
  8
0
  6
ByBlock
 62
     0
 48
50.0
100
AcDbLine
 10
12317.05351740778
 20
2410.688668615518
 30
0.0
 11
12723.92481538717
 21
2410.688668615518
 31
0.0
  0
LINE
  5
134C8
330
1345E
100
AcDbEntity
  8
0
  6
ByBlock
 62
     0
 48
50.0
100
AcDbLine
 10
12648.92481538717
 20
1685.688668615517
 30
0.0
 11
12648.92481538717
 21
2410.688668615518
 31
0.0
  0
INSERT
  5
134C9
330
1345E
100
AcDbEntity
  8
0
  6
ByBlock
 62
     0
 48
50.0
100
AcDbBlockReference
  2
_DOTSMALL
 10
12648.92481538717
 20
1685.688668615517
 30
0.0
 41
125.0
 42
125.0
 43
125.0
 50
270.0
  0
INSERT
  5
134CA
330
1345E
100
AcDbEntity
  8
0
  6
ByBlock
 62
     0
 48
50.0
100
AcDbBlockReference
  2
_DOTSMALL
 10
12648.92481538717
 20
2410.688668615518
 30
0.0
 41
125.0
 42
125.0
 43
125.0
 50
90.0
  0
MTEXT
  5
134CB
330
1345E
100
AcDbEntity
  8
0
  6
ByBlock
 62
     7
 48
50.0
100
AcDbMText
 10
12548.91005160764
 20
2048.188668615517
 30
0.0
 40
150.0
 41
0.0
 71
     5
 72
     5
  1
\A1;725
  7
STYLE1
 11
0.0000000000000001
 21
1.0
 31
0.0
 73
     1
 44
1.0
1001
ACAD
1000
MTEXTBEGIN
1070
    73
1070
     1
1070
    44
1040
1.0
1070
    74
1070
     0
1000
MTEXTEND
  0
POINT
  5
134CC
330
1345E
100
AcDbEntity
  8
DEFPOINTS
  6
ByBlock
 62
     0
 48
50.0
100
AcDbPoint
 10
12292.05351740777
 20
1685.688668615517
 30
0.0
  0
POINT
  5
134CD
330
1345E
100
AcDbEntity
  8
DEFPOINTS
  6
ByBlock
 62
     0
 48
50.0
100
AcDbPoint
 10
12292.05351740777
 20
2410.688668615518
 30
0.0
  0
POINT
  5
134CE
330
1345E
100
AcDbEntity
  8
DEFPOINTS
  6
ByBlock
 62
     0
 48
50.0
100
AcDbPoint
 10
12648.92481538717
 20
2410.688668615518
 30
0.0
  0
ENDBLK
  5
134CF
330
1345E
100
AcDbEntity
  8
0
 48
50.0
100
AcDbBlockEnd
  0
BLOCK
  5
134E5
330
1346A
100
AcDbEntity
  8
0
 48
50.0
100
AcDbBlockBegin
  2
*D42
 70
     1
 10
0.0
 20
0.0
 30
0.0
  3
*D42
  1

  0
LINE
  5
134E6
330
1346A
100
AcDbEntity
  8
0
  6
ByBlock
 62
     0
 48
50.0
100
AcDbLine
 10
18746.21032457705
 20
1685.688668615513
 30
0.0
 11
19153.08162255645
 21
1685.688668615513
 31
0.0
  0
LINE
  5
134E7
330
1346A
100
AcDbEntity
  8
0
  6
ByBlock
 62
     0
 48
50.0
100
AcDbLine
 10
18746.21032457705
 20
2410.688668615514
 30
0.0
 11
19153.08162255645
 21
2410.688668615514
 31
0.0
  0
LINE
  5
134E8
330
1346A
100
AcDbEntity
  8
0
  6
ByBlock
 62
     0
 48
50.0
100
AcDbLine
 10
19078.08162255646
 20
1685.688668615513
 30
0.0
 11
19078.08162255646
 21
2410.688668615514
 31
0.0
  0
INSERT
  5
134E9
330
1346A
100
AcDbEntity
  8
0
  6
ByBlock
 62
     0
 48
50.0
100
AcDbBlockReference
  2
_DOTSMALL
 10
19078.08162255646
 20
1685.688668615513
 30
0.0
 41
125.0
 42
125.0
 43
125.0
 50
270.0
  0
INSERT
  5
134EA
330
1346A
100
AcDbEntity
  8
0
  6
ByBlock
 62
     0
 48
50.0
100
AcDbBlockReference
  2
_DOTSMALL
 10
19078.08162255646
 20
2410.688668615514
 30
0.0
 41
125.0
 42
125.0
 43
125.0
 50
90.0
  0
MTEXT
  5
134EB
330
1346A
100
AcDbEntity
  8
0
  6
ByBlock
 62
     7
 48
50.0
100
AcDbMText
 10
18978.06685877693
 20
2048.188668615514
 30
0.0
 40
150.0
 41
0.0
 71
     5
 72
     5
  1
\A1;725
  7
STYLE1
 11
0.0000000000000001
 21
1.0
 31
0.0
 73
     1
 44
1.0
1001
ACAD
1000
MTEXTBEGIN
1070
    73
1070
     1
1070
    44
1040
1.0
1070
    74
1070
     0
1000
MTEXTEND
  0
POINT
  5
134EC
330
1346A
100
AcDbEntity
  8
DEFPOINTS
  6
ByBlock
 62
     0
 48
50.0
100
AcDbPoint
 10
18721.21032457705
 20
1685.688668615513
 30
0.0
  0
POINT
  5
134ED
330
1346A
100
AcDbEntity
  8
DEFPOINTS
  6
ByBlock
 62
     0
 48
50.0
100
AcDbPoint
 10
18721.21032457705
 20
2410.688668615514
 30
0.0
  0
POINT
  5
134EE
330
1346A
100
AcDbEntity
  8
DEFPOINTS
  6
ByBlock
 62
     0
 48
50.0
100
AcDbPoint
 10
19078.08162255646
 20
2410.688668615514
 30
0.0
  0
ENDBLK
  5
134EF
330
1346A
100
AcDbEntity
  8
0
 48
50.0
100
AcDbBlockEnd
  0
BLOCK
  5
13659
330
13476
100
AcDbEntity
  8
0
 48
50.0
100
AcDbBlockBegin
  2
*D43
 70
     1
 10
0.0
 20
0.0
 30
0.0
  3
*D43
  1

  0
LINE
  5
136FB
330
13476
100
AcDbEntity
  8
寸法
 62
     0
 48
50.0
100
AcDbLine
 10
12331.55351740778
 20
3825.688668615532
 30
0.0
 11
12723.92481538717
 21
3825.688668615532
 31
0.0
  0
LINE
  5
136FC
330
13476
100
AcDbEntity
  8
寸法
 62
     0
 48
50.0
100
AcDbLine
 10
12648.92481538717
 20
2410.688668615518
 30
0.0
 11
12648.92481538717
 21
3825.688668615532
 31
0.0
  0
INSERT
  5
136FD
330
13476
100
AcDbEntity
  8
寸法
 62
     0
 48
50.0
100
AcDbBlockReference
  2
_DOTSMALL
 10
12648.92481538717
 20
2410.688668615518
 30
0.0
 41
125.0
 42
125.0
 43
125.0
 50
270.0
  0
INSERT
  5
136FE
330
13476
100
AcDbEntity
  8
寸法
 62
     0
 48
50.0
100
AcDbBlockReference
  2
_DOTSMALL
 10
12648.92481538717
 20
3825.688668615532
 30
0.0
 41
125.0
 42
125.0
 43
125.0
 50
90.0
  0
MTEXT
  5
136FF
330
13476
100
AcDbEntity
  8
寸法
 62
     7
 48
50.0
100
AcDbMText
 10
12548.92481538717
 20
3118.188668615526
 30
0.0
 40
150.0
 41
0.0
 71
     5
 72
     5
  1
\A1;1415
  7
STYLE1
 11
0.0000000000000001
 21
1.0
 31
0.0
 73
     1
 44
1.0
  0
POINT
  5
13700
330
13476
100
AcDbEntity
  8
DEFPOINTS
 62
     0
 48
50.0
100
AcDbPoint
 10
12292.05351740777
 20
2410.688668615518
 30
0.0
  0
POINT
  5
13701
330
13476
100
AcDbEntity
  8
DEFPOINTS
 62
     0
 48
50.0
100
AcDbPoint
 10
12306.55351740778
 20
3825.688668615532
 30
0.0
  0
POINT
  5
13702
330
13476
100
AcDbEntity
  8
DEFPOINTS
 62
     0
 48
50.0
100
AcDbPoint
 10
12648.92481538717
 20
3825.688668615532
 30
0.0
  0
ENDBLK
  5
13662
330
13476
100
AcDbEntity
  8
0
 48
50.0
100
AcDbBlockEnd
  0
BLOCK
  5
13645
330
13481
100
AcDbEntity
  8
0
 48
50.0
100
AcDbBlockBegin
  2
*D44
 70
     1
 10
0.0
 20
0.0
 30
0.0
  3
*D44
  1

  0
LINE
  5
1370B
330
13481
100
AcDbEntity
  8
寸法
 62
     0
 48
50.0
100
AcDbLine
 10
18760.71032457706
 20
3825.688668615528
 30
0.0
 11
19153.08162255645
 21
3825.688668615528
 31
0.0
  0
LINE
  5
1370C
330
13481
100
AcDbEntity
  8
寸法
 62
     0
 48
50.0
100
AcDbLine
 10
19078.08162255646
 20
2410.688668615514
 30
0.0
 11
19078.08162255646
 21
3825.688668615528
 31
0.0
  0
INSERT
  5
1370D
330
13481
100
AcDbEntity
  8
寸法
 62
     0
 48
50.0
100
AcDbBlockReference
  2
_DOTSMALL
 10
19078.08162255646
 20
2410.688668615514
 30
0.0
 41
125.0
 42
125.0
 43
125.0
 50
270.0
  0
INSERT
  5
1370E
330
13481
100
AcDbEntity
  8
寸法
 62
     0
 48
50.0
100
AcDbBlockReference
  2
_DOTSMALL
 10
19078.08162255646
 20
3825.688668615528
 30
0.0
 41
125.0
 42
125.0
 43
125.0
 50
90.0
  0
MTEXT
  5
1370F
330
13481
100
AcDbEntity
  8
寸法
 62
     7
 48
50.0
100
AcDbMText
 10
18978.08162255645
 20
3118.188668615524
 30
0.0
 40
150.0
 41
0.0
 71
     5
 72
     5
  1
\A1;1415
  7
STYLE1
 11
0.0000000000000001
 21
1.0
 31
0.0
 73
     1
 44
1.0
  0
POINT
  5
13710
330
13481
100
AcDbEntity
  8
DEFPOINTS
 62
     0
 48
50.0
100
AcDbPoint
 10
18721.21032457705
 20
2410.688668615514
 30
0.0
  0
POINT
  5
13711
330
13481
100
AcDbEntity
  8
DEFPOINTS
 62
     0
 48
50.0
100
AcDbPoint
 10
18735.71032457706
 20
3825.688668615528
 30
0.0
  0
POINT
  5
13712
330
13481
100
AcDbEntity
  8
DEFPOINTS
 62
     0
 48
50.0
100
AcDbPoint
 10
19078.08162255646
 20
3825.688668615528
 30
0.0
  0
ENDBLK
  5
1364E
330
13481
100
AcDbEntity
  8
0
 48
50.0
100
AcDbBlockEnd
  0
BLOCK
  5
1364F
330
1348C
100
AcDbEntity
  8
0
 48
50.0
100
AcDbBlockBegin
  2
*D45
 70
     1
 10
0.0
 20
0.0
 30
0.0
  3
*D45
  1

  0
LINE
  5
13703
330
1348C
100
AcDbEntity
  8
寸法
 62
     0
 48
50.0
100
AcDbLine
 10
15195.75312609226
 20
3825.688668615528
 30
0.0
 11
15588.12442407164
 21
3825.688668615528
 31
0.0
  0
LINE
  5
13704
330
1348C
100
AcDbEntity
  8
寸法
 62
     0
 48
50.0
100
AcDbLine
 10
15513.12442407164
 20
2410.688668615513
 30
0.0
 11
15513.12442407164
 21
3825.688668615528
 31
0.0
  0
INSERT
  5
13705
330
1348C
100
AcDbEntity
  8
寸法
 62
     0
 48
50.0
100
AcDbBlockReference
  2
_DOTSMALL
 10
15513.12442407164
 20
2410.688668615513
 30
0.0
 41
125.0
 42
125.0
 43
125.0
 50
270.0
  0
INSERT
  5
13706
330
1348C
100
AcDbEntity
  8
寸法
 62
     0
 48
50.0
100
AcDbBlockReference
  2
_DOTSMALL
 10
15513.12442407164
 20
3825.688668615528
 30
0.0
 41
125.0
 42
125.0
 43
125.0
 50
90.0
  0
MTEXT
  5
13707
330
1348C
100
AcDbEntity
  8
寸法
 62
     7
 48
50.0
100
AcDbMText
 10
15413.12442407165
 20
3118.188668615523
 30
0.0
 40
150.0
 41
0.0
 71
     5
 72
     5
  1
\A1;1415
  7
STYLE1
 11
0.0000000000000001
 21
1.0
 31
0.0
 73
     1
 44
1.0
  0
POINT
  5
13708
330
1348C
100
AcDbEntity
  8
DEFPOINTS
 62
     0
 48
50.0
100
AcDbPoint
 10
15156.25312609225
 20
2410.688668615514
 30
0.0
  0
POINT
  5
13709
330
1348C
100
AcDbEntity
  8
DEFPOINTS
 62
     0
 48
50.0
100
AcDbPoint
 10
15170.75312609225
 20
3825.688668615528
 30
0.0
  0
POINT
  5
1370A
330
1348C
100
AcDbEntity
  8
DEFPOINTS
 62
     0
 48
50.0
100
AcDbPoint
 10
15513.12442407164
 20
3825.688668615528
 30
0.0
  0
ENDBLK
  5
13658
330
1348C
100
AcDbEntity
  8
0
 48
50.0
100
AcDbBlockEnd
  0
BLOCK
  5
134FC
330
13497
100
AcDbEntity
  8
0
 48
50.0
100
AcDbBlockBegin
  2
*D46
 70
     1
 10
0.0
 20
0.0
 30
0.0
  3
*D46
  1

  0
LINE
  5
134FD
330
13497
100
AcDbEntity
  8
0
  6
ByBlock
 62
     0
 48
50.0
100
AcDbLine
 10
20127.05225746138
 20
2385.688668615514
 30
0.0
 11
20127.05225746138
 21
2214.587739500968
 31
0.0
  0
LINE
  5
134FE
330
13497
100
AcDbEntity
  8
0
  6
ByBlock
 62
     0
 48
50.0
100
AcDbLine
 10
19894.05225746139
 20
3699.18866861551
 30
0.0
 11
19894.05225746139
 21
2214.587739500968
 31
0.0
  0
LINE
  5
134FF
330
13497
100
AcDbEntity
  8
0
  6
ByBlock
 62
     0
 48
50.0
100
AcDbLine
 10
20127.05225746138
 20
2289.587739500968
 30
0.0
 11
19894.05225746139
 21
2289.587739500968
 31
0.0
  0
LINE
  5
13500
330
13497
100
AcDbEntity
  8
0
  6
ByBlock
 62
     0
 48
50.0
100
AcDbLine
 10
19894.05225746139
 20
2289.587739500968
 30
0.0
 11
19439.02999890768
 21
2289.587739500968
 31
0.0
  0
INSERT
  5
13501
330
13497
100
AcDbEntity
  8
0
  6
ByBlock
 62
     0
 48
50.0
100
AcDbBlockReference
  2
_DOTSMALL
 10
20127.05225746138
 20
2289.587739500968
 30
0.0
 41
125.0
 42
125.0
 43
125.0
  0
INSERT
  5
13502
330
13497
100
AcDbEntity
  8
0
  6
ByBlock
 62
     0
 48
50.0
100
AcDbBlockReference
  2
_DOTSMALL
 10
19894.05225746139
 20
2289.587739500968
 30
0.0
 41
125.0
 42
125.0
 43
125.0
 50
180.0
  0
MTEXT
  5
13503
330
13497
100
AcDbEntity
  8
0
  6
ByBlock
 62
     7
 48
50.0
100
AcDbMText
 10
19604.04112818453
 20
2389.602503280495
 30
0.0
 40
150.0
 41
0.0
 71
     5
 72
     5
  1
\A1;233
  7
STYLE1
 73
     1
 44
1.0
1001
ACAD
1000
MTEXTBEGIN
1070
    73
1070
     1
1070
    44
1040
1.0
1070
    74
1070
     0
1000
MTEXTEND
  0
POINT
  5
13504
330
13497
100
AcDbEntity
  8
DEFPOINTS
  6
ByBlock
 62
     0
 48
50.0
100
AcDbPoint
 10
20127.05225746138
 20
2410.688668615514
 30
0.0
  0
POINT
  5
13505
330
13497
100
AcDbEntity
  8
DEFPOINTS
  6
ByBlock
 62
     0
 48
50.0
100
AcDbPoint
 10
19894.05225746139
 20
3724.18866861551
 30
0.0
  0
POINT
  5
13506
330
13497
100
AcDbEntity
  8
DEFPOINTS
  6
ByBlock
 62
     0
 48
50.0
100
AcDbPoint
 10
19894.05225746139
 20
2289.587739500968
 30
0.0
  0
ENDBLK
  5
13507
330
13497
100
AcDbEntity
  8
0
 48
50.0
100
AcDbBlockEnd
  0
BLOCK
  5
134F0
330
134A4
100
AcDbEntity
  8
0
 48
50.0
100
AcDbBlockBegin
  2
*D47
 70
     1
 10
0.0
 20
0.0
 30
0.0
  3
*D47
  1

  0
LINE
  5
134F1
330
134A4
100
AcDbEntity
  8
0
  6
ByBlock
 62
     0
 48
50.0
100
AcDbLine
 10
10165.61228020409
 20
2385.688668615514
 30
0.0
 11
10165.61228020409
 21
2214.587739500968
 31
0.0
  0
LINE
  5
134F2
330
134A4
100
AcDbEntity
  8
0
  6
ByBlock
 62
     0
 48
50.0
100
AcDbLine
 10
10398.61228020409
 20
3699.18866861551
 30
0.0
 11
10398.61228020409
 21
2214.587739500968
 31
0.0
  0
LINE
  5
134F3
330
134A4
100
AcDbEntity
  8
0
  6
ByBlock
 62
     0
 48
50.0
100
AcDbLine
 10
10165.61228020409
 20
2289.587739500968
 30
0.0
 11
10398.61228020409
 21
2289.587739500968
 31
0.0
  0
LINE
  5
134F4
330
134A4
100
AcDbEntity
  8
0
  6
ByBlock
 62
     0
 48
50.0
100
AcDbLine
 10
10398.61228020409
 20
2289.587739500968
 30
0.0
 11
10853.63453875779
 21
2289.587739500968
 31
0.0
  0
INSERT
  5
134F5
330
134A4
100
AcDbEntity
  8
0
  6
ByBlock
 62
     0
 48
50.0
100
AcDbBlockReference
  2
_DOTSMALL
 10
10165.61228020409
 20
2289.587739500968
 30
0.0
 41
125.0
 42
125.0
 43
125.0
 50
180.0
  0
INSERT
  5
134F6
330
134A4
100
AcDbEntity
  8
0
  6
ByBlock
 62
     0
 48
50.0
100
AcDbBlockReference
  2
_DOTSMALL
 10
10398.61228020409
 20
2289.587739500968
 30
0.0
 41
125.0
 42
125.0
 43
125.0
  0
MTEXT
  5
134F7
330
134A4
100
AcDbEntity
  8
0
  6
ByBlock
 62
     7
 48
50.0
100
AcDbMText
 10
10688.62340948094
 20
2389.602503280495
 30
0.0
 40
150.0
 41
0.0
 71
     5
 72
     5
  1
\A1;233
  7
STYLE1
 73
     1
 44
1.0
1001
ACAD
1000
MTEXTBEGIN
1070
    73
1070
     1
1070
    44
1040
1.0
1070
    74
1070
     0
1000
MTEXTEND
  0
POINT
  5
134F8
330
134A4
100
AcDbEntity
  8
DEFPOINTS
  6
ByBlock
 62
     0
 48
50.0
100
AcDbPoint
 10
10165.61228020409
 20
2410.688668615514
 30
0.0
  0
POINT
  5
134F9
330
134A4
100
AcDbEntity
  8
DEFPOINTS
  6
ByBlock
 62
     0
 48
50.0
100
AcDbPoint
 10
10398.61228020409
 20
3724.18866861551
 30
0.0
  0
POINT
  5
134FA
330
134A4
100
AcDbEntity
  8
DEFPOINTS
  6
ByBlock
 62
     0
 48
50.0
100
AcDbPoint
 10
10398.61228020409
 20
2289.587739500968
 30
0.0
  0
ENDBLK
  5
134FB
330
134A4
100
AcDbEntity
  8
0
 48
50.0
100
AcDbBlockEnd
  0
ENDSEC
  0
SECTION
  2
ENTITIES
  0
LINE
  5
10B56
330
747D
100
AcDbEntity
  8
補助
  6
PHANTOM
 62
   230
 48
50.0
100
AcDbLine
 10
175.0
 20
0.0
 30
0.0
 11
174.9999999999993
 21
14262.0
 31
0.0
  0
LINE
  5
10B57
330
747D
100
AcDbEntity
  8
補助
  6
PHANTOM
 62
   230
 48
50.0
100
AcDbLine
 10
174.9999999999993
 20
14262.0
 30
0.0
 11
20384.0
 21
14262.0
 31
0.0
  0
LINE
  5
10B59
330
747D
100
AcDbEntity
  8
仕様書枠
  6
Continuous
 48
50.0
100
AcDbLine
 10
16384.0
 20
1500.0
 30
0.0
 11
16384.0
 21
-0.0000000000000912
 31
0.0
  0
LINE
  5
10B5C
330
747D
100
AcDbEntity
  8
仕様書枠
 48
50.0
100
AcDbLine
 10
20384.0
 20
1500.0
 30
0.0
 11
20384.0
 21
-0.0000000000001137
 31
0.0
  0
LINE
  5
10B5D
330
747D
100
AcDbEntity
  8
仕様書枠
 48
50.0
100
AcDbLine
 10
175.0
 20
0.0
 30
0.0
 11
20384.0
 21
-0.0000000000001137
 31
0.0
  0
LINE
  5
10B5E
330
747D
100
AcDbEntity
  8
補助
  6
PHANTOM
 62
   230
 48
50.0
100
AcDbLine
 10
20384.0
 20
14262.0
 30
0.0
 11
20384.0
 21
1500.0
 31
0.0
  0
LINE
  5
10B6C
330
747D
100
AcDbEntity
  8
仕様書枠
 48
50.0
100
AcDbLine
 10
16384.0
 20
1500.0
 30
0.0
 11
20384.0
 21
1500.0
 31
0.0
  0
LINE
  5
10B72
330
747D
100
AcDbEntity
  8
文字
 62
     7
 48
50.0
100
AcDbLine
 10
16484.0
 20
500.0
 30
0.0
 11
20284.0
 21
500.0
 31
0.0
  0
TEXT
  5
10B73
330
747D
100
AcDbEntity
  8
文字
 62
     7
 48
50.0
100
AcDbText
 10
16453.72382072111
 20
1118.863259287425
 30
0.0
 40
250.0
  1
外 形 図
  7
STYLE2
100
AcDbText
  0
TEXT
  5
10B74
330
747D
100
AcDbEntity
  8
文字
 62
     7
 48
50.0
100
AcDbText
 10
16501.79587498051
 20
596.5925826289068
 30
0.0
 40
200.0
  1
機種名
  7
STYLE2
100
AcDbText
  0
TEXT
  5
10B79
330
747D
100
AcDbEntity
  8
文字
 62
     7
 48
50.0
100
AcDbText
 10
18155.16479652749
 20
1289.447132864035
 30
0.0
 40
125.0
  1
<縮尺> S=1/50
  7
STYLE2
100
AcDbText
  0
LINE
  5
10B7B
330
747D
100
AcDbEntity
  8
仕様書枠
 48
50.0
100
AcDbLine
 10
16384.0
 20
1000.0
 30
0.0
 11
17814.0
 21
1000.0
 31
0.0
  0
LINE
  5
10B88
330
747D
100
AcDbEntity
  8
仕様書枠
  6
Continuous
 48
50.0
100
AcDbLine
 10
17814.0
 20
1500.0
 30
0.0
 11
17814.0
 21
1000.0
 31
0.0
  0
TEXT
  5
10BB0
330
747D
100
AcDbEntity
  8
文字
 62
     7
 48
50.0
100
AcDbText
 10
18131.66103778714
 20
604.8708912389266
 30
0.0
 40
200.0
  1
ガラス窓1
  7
STYLE3
100
AcDbText
  0
DIMENSION
  5
11A90
330
747D
100
AcDbEntity
  8
寸法
 48
50.0
100
AcDbDimension
  2
*D2
 10
15513.12442407164
 20
8743.583082375996
 30
0.0
 11
15413.12442407165
 21
8296.083082375998
 31
0.0
 12
-0.000000000001819
 22
-11781.62081449863
 32
0.0
 70
    32
 71
     5
 42
-1.0
  3
INABA_S50G
100
AcDbAlignedDimension
 13
15156.25312609225
 23
7848.583082375997
 33
0.0
 14
15156.25312609225
 24
8743.583082375996
 34
0.0
 50
90.0
100
AcDbRotatedDimension
  0
DIMENSION
  5
11A91
330
747D
100
AcDbEntity
  8
寸法
 48
50.0
100
AcDbDimension
  2
*D3
 10
5959.172335797031
 20
11690.12138126075
 30
0.0
 11
5859.172335797032
 21
11212.62138126075
 31
0.0
 12
-3323.156791641332
 22
-188.2503588584803
 32
0.0
 70
    32
 71
     5
 42
-1.0
  3
INABA_S50G
100
AcDbAlignedDimension
 13
5587.104174944225
 23
10735.12138126075
 33
0.0
 14
5587.104174944225
 24
11690.12138126075
 34
0.0
 50
90.0
100
AcDbRotatedDimension
  0
LINE
  5
11A92
330
747D
100
AcDbEntity
  8
部品1
 48
50.0
100
AcDbLine
 10
13416.25312609225
 20
9753.583082375996
 30
0.0
 11
13416.25312609225
 21
7903.583082375996
 31
0.0
  0
LINE
  5
11A93
330
747D
100
AcDbEntity
  8
部品1
 48
50.0
100
AcDbLine
 10
15156.25312609225
 20
9753.583082375996
 30
0.0
 11
15156.25312609225
 21
7903.583082375996
 31
0.0
  0
LINE
  5
11A95
330
747D
100
AcDbEntity
  8
部品1
 48
50.0
100
AcDbLine
 10
14576.25312609225
 20
8744.083082375997
 30
0.0
 11
14576.25312609225
 21
7903.583082375996
 31
0.0
  0
LINE
  5
11A96
330
747D
100
AcDbEntity
  8
部品1
 48
50.0
100
AcDbLine
 10
13996.25312609225
 20
8744.083082375997
 30
0.0
 11
13996.25312609225
 21
7903.583082375996
 31
0.0
  0
LINE
  5
11A9A
330
747D
100
AcDbEntity
  8
部品1
 48
50.0
100
AcDbLine
 10
5587.104174944225
 20
12735.12138126075
 30
0.0
 11
5587.104174944225
 21
10790.12138126075
 31
0.0
  0
LINE
  5
11A9B
330
747D
100
AcDbEntity
  8
部品1
 48
50.0
100
AcDbLine
 10
5007.104174944225
 20
11690.12138126075
 30
0.0
 11
5007.104174944225
 21
10790.12138126075
 31
0.0
  0
LINE
  5
11A9C
330
747D
100
AcDbEntity
  8
部品1
 48
50.0
100
AcDbLine
 10
4427.104174944225
 20
11690.12138126075
 30
0.0
 11
4427.104174944225
 21
10790.12138126075
 31
0.0
  0
LINE
  5
11A9D
330
747D
100
AcDbEntity
  8
部品1
 48
50.0
100
AcDbLine
 10
3847.104174944225
 20
12735.12138126074
 30
0.0
 11
3847.104174944225
 21
10790.12138126075
 31
0.0
  0
LINE
  5
11A9E
330
747D
100
AcDbEntity
  8
部品1
 48
50.0
100
AcDbLine
 10
18141.21032457705
 20
8744.083082375997
 30
0.0
 11
18141.21032457705
 21
7903.583082375996
 31
0.0
  0
LINE
  5
11A9F
330
747D
100
AcDbEntity
  8
部品1
 48
50.0
100
AcDbLine
 10
11712.05351740778
 20
8744.083082375999
 30
0.0
 11
11712.05351740778
 21
7903.583082376001
 31
0.0
  0
DIMENSION
  5
11AA0
330
747D
100
AcDbEntity
  8
寸法
 48
50.0
100
AcDbDimension
  2
*D4
 10
12648.92481538717
 20
8743.583082376003
 30
0.0
 11
12548.92481538717
 21
8296.083082375998
 31
0.0
 12
-0.000000000001819
 22
-11781.62081449863
 32
0.0
 70
    32
 71
     5
 42
-1.0
  3
INABA_S50G
100
AcDbAlignedDimension
 13
12292.05351740777
 23
7848.583082376001
 33
0.0
 14
12292.05351740777
 24
8743.583082376003
 34
0.0
 50
90.0
100
AcDbRotatedDimension
  0
LINE
  5
11AA1
330
747D
100
AcDbEntity
  8
部品1
 48
50.0
100
AcDbLine
 10
11132.05351740778
 20
9753.583082376
 30
0.0
 11
11132.05351740778
 21
7903.583082375996
 31
0.0
  0
LINE
  5
11AA2
330
747D
100
AcDbEntity
  8
部品1
 48
50.0
100
AcDbLine
 10
12292.05351740777
 20
9753.583082376
 30
0.0
 11
12292.05351740777
 21
7903.583082376001
 31
0.0
  0
LINE
  5
11AA3
330
747D
100
AcDbEntity
  8
部品1
 48
50.0
100
AcDbLine
 10
16981.21032457706
 20
8744.083082375997
 30
0.0
 11
16981.21032457706
 21
7903.583082375996
 31
0.0
  0
LINE
  5
11AA4
330
747D
100
AcDbEntity
  8
部品1
 48
50.0
100
AcDbLine
 10
17561.21032457706
 20
8744.083082375997
 30
0.0
 11
17561.21032457706
 21
7903.583082375996
 31
0.0
  0
LINE
  5
11AA5
330
747D
100
AcDbEntity
  8
部品1
 48
50.0
100
AcDbLine
 10
18721.21032457705
 20
9753.583082375996
 30
0.0
 11
18721.21032457705
 21
7903.583082375996
 31
0.0
  0
LINE
  5
11AA6
330
747D
100
AcDbEntity
  8
部品1
 48
50.0
100
AcDbLine
 10
16401.21032457705
 20
9753.583082376
 30
0.0
 11
16401.21032457706
 21
7903.583082375996
 31
0.0
  0
DIMENSION
  5
11AA7
330
747D
100
AcDbEntity
  8
寸法
 48
50.0
100
AcDbDimension
  2
*D5
 10
19078.08162255646
 20
8743.583082375996
 30
0.0
 11
18978.08162255645
 21
8296.083082375998
 31
0.0
 12
-0.000000000001819
 22
-11781.62081449863
 32
0.0
 70
    32
 71
     5
 42
-1.0
  3
INABA_S50G
100
AcDbAlignedDimension
 13
18721.21032457705
 23
7848.583082375997
 33
0.0
 14
18721.21032457705
 24
8743.583082375996
 34
0.0
 50
90.0
100
AcDbRotatedDimension
  0
LINE
  5
11AA8
330
747D
100
AcDbEntity
  8
部品1
 48
50.0
100
AcDbLine
 10
18721.21032457705
 20
7903.583082375996
 30
0.0
 11
16401.21032457706
 21
7903.583082375996
 31
0.0
  0
LINE
  5
11AAA
330
747D
100
AcDbEntity
  8
部品1
 62
     2
 48
50.0
100
AcDbLine
 10
18726.71032457706
 20
13686.81495653354
 30
0.0
 11
16395.71032457705
 21
13686.81495653354
 31
0.0
  0
LINE
  5
11AAB
330
747D
100
AcDbEntity
  8
部品1
 62
     2
 48
50.0
100
AcDbLine
 10
18714.31032457706
 20
13702.31495653354
 30
0.0
 11
16408.11032457706
 21
13702.31495653354
 31
0.0
  0
DIMENSION
  5
11AB1
330
747D
100
AcDbEntity
  8
寸法
 48
50.0
100
AcDbDimension
  2
*D6
 10
18726.71032457706
 20
13256.37127066094
 30
0.0
 11
17561.21032457706
 21
13356.38603444047
 31
0.0
 12
8689.703159979643
 22
9251.970017208128
 32
0.0
 70
    32
 71
     5
 42
-1.0
  3
INABA_S50G
100
AcDbAlignedDimension
 13
16395.71032457705
 23
13686.81495653354
 33
0.0
 14
18726.71032457706
 24
13686.81495653354
 34
0.0
100
AcDbRotatedDimension
  0
LINE
  5
11AB3
330
747D
100
AcDbEntity
  8
部品1
 62
     2
 48
50.0
100
AcDbLine
 10
16391.21032457706
 20
9988.583082376012
 30
0.0
 11
18735.71032457706
 21
9988.583082376012
 31
0.0
  0
LINE
  5
11AB4
330
747D
100
AcDbEntity
  8
部品1
 62
     2
 48
50.0
100
AcDbLine
 10
16401.21032457706
 20
10018.583082376
 30
0.0
 11
18721.21032457705
 21
10018.583082376
 31
0.0
  0
LINE
  5
11AB5
330
747D
100
AcDbEntity
  8
部品1
 62
     2
 48
50.0
100
AcDbLine
 10
16391.21032457706
 20
9753.583082375996
 30
0.0
 11
18731.21032457706
 21
9753.583082375996
 31
0.0
  0
LINE
  5
11AB6
330
747D
100
AcDbEntity
  8
部品1
 62
     2
 48
50.0
100
AcDbLine
 10
16391.21032457706
 20
9823.583082376003
 30
0.0
 11
18731.21032457706
 21
9823.583082376003
 31
0.0
  0
LINE
  5
11AB7
330
747D
100
AcDbEntity
  8
部品1
 62
     2
 48
50.0
100
AcDbLine
 10
16401.21032457706
 20
9887.083082376005
 30
0.0
 11
18731.21032457706
 21
9887.083082376005
 31
0.0
  0
LINE
  5
11AB8
330
747D
100
AcDbEntity
  8
部品1
 62
     2
 48
50.0
100
AcDbLine
 10
16430.21032457705
 20
9659.083082376021
 30
0.0
 11
18692.21032457706
 21
9659.083082376021
 31
0.0
  0
LINE
  5
11AB9
330
747D
100
AcDbEntity
  8
部品1
 62
     2
 48
50.0
100
AcDbLine
 10
16430.21032457705
 20
9623.083082376005
 30
0.0
 11
18692.21032457706
 21
9623.083082376005
 31
0.0
  0
LINE
  5
11ABA
330
747D
100
AcDbEntity
  8
部品1
 62
     2
 48
50.0
100
AcDbLine
 10
16430.21032457705
 20
9587.083082376016
 30
0.0
 11
18692.21032457706
 21
9587.083082376016
 31
0.0
  0
LINE
  5
11ABB
330
747D
100
AcDbEntity
  8
部品1
 62
     2
 48
50.0
100
AcDbLine
 10
16430.21032457705
 20
9688.583082375998
 30
0.0
 11
18692.21032457706
 21
9688.583082375998
 31
0.0
  0
LINE
  5
11ABC
330
747D
100
AcDbEntity
  8
部品1
 62
     2
 48
50.0
100
AcDbLine
 10
16430.21032457705
 20
9703.583082375995
 30
0.0
 11
18692.21032457706
 21
9703.583082375995
 31
0.0
  0
LINE
  5
11ABD
330
747D
100
AcDbEntity
  8
部品1
 62
     2
 48
50.0
100
AcDbLine
 10
16430.21032457705
 20
9551.083082376004
 30
0.0
 11
18692.21032457706
 21
9551.083082376004
 31
0.0
  0
LINE
  5
11ABE
330
747D
100
AcDbEntity
  8
部品1
 62
     2
 48
50.0
100
AcDbLine
 10
16430.21032457705
 20
9515.083082376012
 30
0.0
 11
18692.21032457706
 21
9515.083082376012
 31
0.0
  0
LINE
  5
11ABF
330
747D
100
AcDbEntity
  8
部品1
 62
     2
 48
50.0
100
AcDbLine
 10
16430.21032457705
 20
9479.083082375998
 30
0.0
 11
18692.21032457706
 21
9479.083082375998
 31
0.0
  0
LINE
  5
11AC0
330
747D
100
AcDbEntity
  8
部品1
 62
     2
 48
50.0
100
AcDbLine
 10
16430.21032457705
 20
9443.083082376011
 30
0.0
 11
18692.21032457706
 21
9443.083082376011
 31
0.0
  0
LINE
  5
11AC1
330
747D
100
AcDbEntity
  8
部品1
 62
     2
 48
50.0
100
AcDbLine
 10
16430.21032457705
 20
9407.083082376018
 30
0.0
 11
18692.21032457706
 21
9407.083082376018
 31
0.0
  0
LINE
  5
11AC2
330
747D
100
AcDbEntity
  8
部品1
 62
     2
 48
50.0
100
AcDbLine
 10
16430.21032457705
 20
9371.083082376008
 30
0.0
 11
18692.21032457706
 21
9371.083082376008
 31
0.0
  0
LINE
  5
11AC3
330
747D
100
AcDbEntity
  8
部品1
 62
     2
 48
50.0
100
AcDbLine
 10
16430.21032457705
 20
9335.083082376021
 30
0.0
 11
18692.21032457706
 21
9335.083082376021
 31
0.0
  0
LINE
  5
11AC4
330
747D
100
AcDbEntity
  8
部品1
 62
     2
 48
50.0
100
AcDbLine
 10
16430.21032457705
 20
9299.083082376006
 30
0.0
 11
18692.21032457706
 21
9299.083082376006
 31
0.0
  0
LINE
  5
11AC5
330
747D
100
AcDbEntity
  8
部品1
 62
     2
 48
50.0
100
AcDbLine
 10
16430.21032457705
 20
9263.083082376011
 30
0.0
 11
18692.21032457706
 21
9263.083082376011
 31
0.0
  0
LINE
  5
11AC6
330
747D
100
AcDbEntity
  8
部品1
 62
     2
 48
50.0
100
AcDbLine
 10
16430.21032457705
 20
9227.083082376005
 30
0.0
 11
18692.21032457706
 21
9227.083082376005
 31
0.0
  0
LINE
  5
11AC7
330
747D
100
AcDbEntity
  8
部品1
 62
     2
 48
50.0
100
AcDbLine
 10
16430.21032457705
 20
9191.083082376012
 30
0.0
 11
18692.21032457706
 21
9191.083082376012
 31
0.0
  0
LINE
  5
11AC8
330
747D
100
AcDbEntity
  8
部品1
 62
     2
 48
50.0
100
AcDbLine
 10
16430.21032457705
 20
9155.083082375995
 30
0.0
 11
18692.21032457706
 21
9155.083082375995
 31
0.0
  0
LINE
  5
11AC9
330
747D
100
AcDbEntity
  8
部品1
 62
     2
 48
50.0
100
AcDbLine
 10
16430.21032457705
 20
9119.083082376013
 30
0.0
 11
18692.21032457706
 21
9119.083082376013
 31
0.0
  0
LINE
  5
11ACA
330
747D
100
AcDbEntity
  8
部品1
 62
     2
 48
50.0
100
AcDbLine
 10
16430.21032457705
 20
9083.08308237602
 30
0.0
 11
18692.21032457706
 21
9083.08308237602
 31
0.0
  0
LINE
  5
11ACB
330
747D
100
AcDbEntity
  8
部品1
 62
     2
 48
50.0
100
AcDbLine
 10
16430.21032457705
 20
9047.083082376003
 30
0.0
 11
18692.21032457706
 21
9047.083082376003
 31
0.0
  0
LINE
  5
11ACC
330
747D
100
AcDbEntity
  8
部品1
 62
     2
 48
50.0
100
AcDbLine
 10
16430.21032457705
 20
9011.083082376021
 30
0.0
 11
18692.21032457706
 21
9011.083082376021
 31
0.0
  0
LINE
  5
11ACD
330
747D
100
AcDbEntity
  8
部品1
 62
     2
 48
50.0
100
AcDbLine
 10
16430.21032457705
 20
8975.083082376004
 30
0.0
 11
18692.21032457706
 21
8975.083082376004
 31
0.0
  0
LINE
  5
11ACE
330
747D
100
AcDbEntity
  8
部品1
 62
     2
 48
50.0
100
AcDbLine
 10
16430.21032457705
 20
8939.083082376011
 30
0.0
 11
18692.21032457706
 21
8939.083082376011
 31
0.0
  0
LINE
  5
11ACF
330
747D
100
AcDbEntity
  8
部品1
 62
     2
 48
50.0
100
AcDbLine
 10
16430.21032457705
 20
8903.083082376001
 30
0.0
 11
18692.21032457706
 21
8903.083082376001
 31
0.0
  0
LINE
  5
11AD0
330
747D
100
AcDbEntity
  8
部品1
 62
     2
 48
50.0
100
AcDbLine
 10
16430.21032457705
 20
8867.08308237601
 30
0.0
 11
18692.21032457706
 21
8867.08308237601
 31
0.0
  0
LINE
  5
11AD1
330
747D
100
AcDbEntity
  8
部品1
 62
     2
 48
50.0
100
AcDbLine
 10
16401.21032457706
 20
8744.083082375997
 30
0.0
 11
18721.21032457705
 21
8744.083082375997
 31
0.0
  0
LINE
  5
11AD2
330
747D
100
AcDbEntity
  8
部品1
 62
     2
 48
50.0
100
AcDbLine
 10
16430.21032457705
 20
8780.083082375995
 30
0.0
 11
18692.21032457706
 21
8780.083082375995
 31
0.0
  0
LINE
  5
11AD3
330
747D
100
AcDbEntity
  8
部品1
 62
     2
 48
50.0
100
AcDbLine
 10
16430.21032457705
 20
8831.083082375997
 30
0.0
 11
18692.21032457706
 21
8831.083082375997
 31
0.0
  0
LINE
  5
11AD4
330
747D
100
AcDbEntity
  8
部品1
 62
     2
 48
50.0
100
AcDbLine
 10
16430.21032457705
 20
8795.083082376008
 30
0.0
 11
18692.21032457706
 21
8795.083082376008
 31
0.0
  0
ARC
  5
11AD8
330
747D
100
AcDbEntity
  8
部品1
 62
     2
 48
50.0
100
AcDbCircle
 10
11117.55351740778
 20
9978.083082376011
 30
0.0
 40
10.5
100
AcDbArc
 50
90.0
 51
180.0
  0
LINE
  5
11AD9
330
747D
100
AcDbEntity
  8
部品1
 62
     2
 48
50.0
100
AcDbLine
 10
11107.05351740778
 20
9887.083082376005
 30
0.0
 11
11122.05351740777
 21
9887.083082376005
 31
0.0
  0
LINE
  5
11ADA
330
747D
100
AcDbEntity
  8
部品1
 62
     2
 48
50.0
100
AcDbLine
 10
11107.05351740778
 20
9978.083082376011
 30
0.0
 11
11107.05351740778
 21
9887.083082376005
 31
0.0
  0
DIMENSION
  5
11ADB
330
747D
100
AcDbEntity
  8
寸法
 48
50.0
100
AcDbDimension
  2
*D7
 10
12648.92481538717
 20
9988.583082376017
 30
0.0
 11
12548.91005160764
 21
9366.083082376013
 31
0.0
 70
    32
 71
     5
 42
-1.0
  3
INABA_S50G
100
AcDbAlignedDimension
 13
12292.05351740777
 23
8743.583082376003
 33
0.0
 14
12306.55351740778
 24
9988.583082376017
 34
0.0
 50
90.0
100
AcDbRotatedDimension
1001
ACAD
1000
DSTYLE
1002
{
1070
   287
1070
     4
1070
    75
1070
     1
1070
   279
1070
     1
1002
}
  0
LINE
  5
11ADC
330
747D
100
AcDbEntity
  8
部品1
 62
     2
 48
50.0
100
AcDbLine
 10
11161.05351740777
 20
9753.583082376
 30
0.0
 11
11161.05351740777
 21
8744.083082375999
 31
0.0
  0
LINE
  5
11ADD
330
747D
100
AcDbEntity
  8
部品1
 62
     2
 48
50.0
100
AcDbLine
 10
12263.05351740778
 20
9753.583082376
 30
0.0
 11
12263.05351740778
 21
8744.083082375999
 31
0.0
  0
LINE
  5
11ADE
330
747D
100
AcDbEntity
  8
部品1
 62
     2
 48
50.0
100
AcDbLine
 10
16430.21032457705
 20
9753.583082375996
 30
0.0
 11
16430.21032457705
 21
8744.083082375997
 31
0.0
  0
LINE
  5
11ADF
330
747D
100
AcDbEntity
  8
部品1
 62
     2
 48
50.0
100
AcDbLine
 10
11161.05351740777
 20
8795.083082376011
 30
0.0
 11
12263.05351740778
 21
8795.083082376011
 31
0.0
  0
LINE
  5
11AE0
330
747D
100
AcDbEntity
  8
部品1
 62
     2
 48
50.0
100
AcDbLine
 10
11161.05351740777
 20
8780.083082376
 30
0.0
 11
12263.05351740778
 21
8780.083082376
 31
0.0
  0
LINE
  5
11AE1
330
747D
100
AcDbEntity
  8
部品1
 62
     2
 48
50.0
100
AcDbLine
 10
11132.05351740778
 20
8744.083082375999
 30
0.0
 11
12292.05351740777
 21
8744.083082375999
 31
0.0
  0
LINE
  5
11AE2
330
747D
100
AcDbEntity
  8
部品1
 62
     2
 48
50.0
100
AcDbLine
 10
11161.05351740777
 20
9191.083082376012
 30
0.0
 11
12263.05351740778
 21
9191.083082376012
 31
0.0
  0
LINE
  5
11AE3
330
747D
100
AcDbEntity
  8
部品1
 62
     2
 48
50.0
100
AcDbLine
 10
11161.05351740777
 20
9227.083082376005
 30
0.0
 11
12263.05351740778
 21
9227.083082376005
 31
0.0
  0
LINE
  5
11AE4
330
747D
100
AcDbEntity
  8
部品1
 62
     2
 48
50.0
100
AcDbLine
 10
11161.05351740777
 20
9263.083082376018
 30
0.0
 11
12263.05351740778
 21
9263.083082376018
 31
0.0
  0
LINE
  5
11AE5
330
747D
100
AcDbEntity
  8
部品1
 62
     2
 48
50.0
100
AcDbLine
 10
11161.05351740777
 20
8831.083082375997
 30
0.0
 11
12263.05351740778
 21
8831.083082375997
 31
0.0
  0
LINE
  5
11AE6
330
747D
100
AcDbEntity
  8
部品1
 62
     2
 48
50.0
100
AcDbLine
 10
11161.05351740777
 20
8867.08308237601
 30
0.0
 11
12263.05351740778
 21
8867.08308237601
 31
0.0
  0
LINE
  5
11AE7
330
747D
100
AcDbEntity
  8
部品1
 62
     2
 48
50.0
100
AcDbLine
 10
11161.05351740777
 20
8903.083082376005
 30
0.0
 11
12263.05351740778
 21
8903.083082376005
 31
0.0
  0
LINE
  5
11AE8
330
747D
100
AcDbEntity
  8
部品1
 62
     2
 48
50.0
100
AcDbLine
 10
11161.05351740777
 20
8939.083082376015
 30
0.0
 11
12263.05351740778
 21
8939.083082376015
 31
0.0
  0
LINE
  5
11AE9
330
747D
100
AcDbEntity
  8
部品1
 62
     2
 48
50.0
100
AcDbLine
 10
11161.05351740777
 20
8975.083082376004
 30
0.0
 11
12263.05351740778
 21
8975.083082376004
 31
0.0
  0
LINE
  5
11AEA
330
747D
100
AcDbEntity
  8
部品1
 62
     2
 48
50.0
100
AcDbLine
 10
11161.05351740777
 20
9011.083082376021
 30
0.0
 11
12263.05351740778
 21
9011.083082376021
 31
0.0
  0
LINE
  5
11AEB
330
747D
100
AcDbEntity
  8
部品1
 62
     2
 48
50.0
100
AcDbLine
 10
11161.05351740777
 20
9047.083082376008
 30
0.0
 11
12263.05351740778
 21
9047.083082376008
 31
0.0
  0
LINE
  5
11AEC
330
747D
100
AcDbEntity
  8
部品1
 62
     2
 48
50.0
100
AcDbLine
 10
11161.05351740777
 20
9083.08308237602
 30
0.0
 11
12263.05351740778
 21
9083.08308237602
 31
0.0
  0
LINE
  5
11AED
330
747D
100
AcDbEntity
  8
部品1
 62
     2
 48
50.0
100
AcDbLine
 10
11161.05351740777
 20
9119.083082376013
 30
0.0
 11
12263.05351740778
 21
9119.083082376013
 31
0.0
  0
LINE
  5
11AEE
330
747D
100
AcDbEntity
  8
部品1
 62
     2
 48
50.0
100
AcDbLine
 10
11161.05351740777
 20
9155.083082376
 30
0.0
 11
12263.05351740778
 21
9155.083082376
 31
0.0
  0
LINE
  5
11AEF
330
747D
100
AcDbEntity
  8
部品1
 62
     2
 48
50.0
100
AcDbLine
 10
11161.05351740777
 20
9515.083082376015
 30
0.0
 11
12263.05351740778
 21
9515.083082376015
 31
0.0
  0
LINE
  5
11AF0
330
747D
100
AcDbEntity
  8
部品1
 62
     2
 48
50.0
100
AcDbLine
 10
11161.05351740777
 20
9551.083082376004
 30
0.0
 11
12263.05351740778
 21
9551.083082376004
 31
0.0
  0
LINE
  5
11AF1
330
747D
100
AcDbEntity
  8
部品1
 62
     2
 48
50.0
100
AcDbLine
 10
11161.05351740777
 20
9703.583082375999
 30
0.0
 11
12263.05351740778
 21
9703.583082375999
 31
0.0
  0
LINE
  5
11AF2
330
747D
100
AcDbEntity
  8
部品1
 62
     2
 48
50.0
100
AcDbLine
 10
11161.05351740777
 20
9688.583082375998
 30
0.0
 11
12263.05351740778
 21
9688.583082375998
 31
0.0
  0
LINE
  5
11AF3
330
747D
100
AcDbEntity
  8
部品1
 62
     2
 48
50.0
100
AcDbLine
 10
11161.05351740777
 20
9587.083082376018
 30
0.0
 11
12263.05351740778
 21
9587.083082376018
 31
0.0
  0
LINE
  5
11AF4
330
747D
100
AcDbEntity
  8
部品1
 62
     2
 48
50.0
100
AcDbLine
 10
11161.05351740777
 20
9623.083082376009
 30
0.0
 11
12263.05351740778
 21
9623.083082376009
 31
0.0
  0
LINE
  5
11AF5
330
747D
100
AcDbEntity
  8
部品1
 62
     2
 48
50.0
100
AcDbLine
 10
11161.05351740777
 20
9659.083082376021
 30
0.0
 11
12263.05351740778
 21
9659.083082376021
 31
0.0
  0
LINE
  5
11AF6
330
747D
100
AcDbEntity
  8
部品1
 62
     2
 48
50.0
100
AcDbLine
 10
11161.05351740777
 20
9299.083082376006
 30
0.0
 11
12263.05351740778
 21
9299.083082376006
 31
0.0
  0
LINE
  5
11AF7
330
747D
100
AcDbEntity
  8
部品1
 62
     2
 48
50.0
100
AcDbLine
 10
11161.05351740777
 20
9335.083082376021
 30
0.0
 11
12263.05351740778
 21
9335.083082376021
 31
0.0
  0
LINE
  5
11AF8
330
747D
100
AcDbEntity
  8
部品1
 62
     2
 48
50.0
100
AcDbLine
 10
11161.05351740777
 20
9371.083082376008
 30
0.0
 11
12263.05351740778
 21
9371.083082376008
 31
0.0
  0
LINE
  5
11AF9
330
747D
100
AcDbEntity
  8
部品1
 62
     2
 48
50.0
100
AcDbLine
 10
11161.05351740777
 20
9407.083082376024
 30
0.0
 11
12263.05351740778
 21
9407.083082376024
 31
0.0
  0
LINE
  5
11AFA
330
747D
100
AcDbEntity
  8
部品1
 62
     2
 48
50.0
100
AcDbLine
 10
11161.05351740777
 20
9443.083082376011
 30
0.0
 11
12263.05351740778
 21
9443.083082376011
 31
0.0
  0
LINE
  5
11AFB
330
747D
100
AcDbEntity
  8
部品1
 62
     2
 48
50.0
100
AcDbLine
 10
11161.05351740777
 20
9479.083082375998
 30
0.0
 11
12263.05351740778
 21
9479.083082375998
 31
0.0
  0
LINE
  5
11AFC
330
747D
100
AcDbEntity
  8
部品1
 62
     2
 48
50.0
100
AcDbLine
 10
11132.05351740778
 20
9887.083082376005
 30
0.0
 11
12302.05351740778
 21
9887.083082376005
 31
0.0
  0
LINE
  5
11AFD
330
747D
100
AcDbEntity
  8
部品1
 62
     2
 48
50.0
100
AcDbLine
 10
11132.05351740778
 20
10018.583082376
 30
0.0
 11
12292.05351740777
 21
10018.583082376
 31
0.0
  0
LINE
  5
11AFE
330
747D
100
AcDbEntity
  8
部品1
 62
     2
 48
50.0
100
AcDbLine
 10
11122.05351740777
 20
9988.583082376017
 30
0.0
 11
12306.55351740778
 21
9988.583082376017
 31
0.0
  0
LINE
  5
11AFF
330
747D
100
AcDbEntity
  8
部品1
 62
     2
 48
50.0
100
AcDbLine
 10
11122.05351740777
 20
9823.583082376003
 30
0.0
 11
12302.05351740778
 21
9823.583082376003
 31
0.0
  0
LINE
  5
11B00
330
747D
100
AcDbEntity
  8
部品1
 62
     2
 48
50.0
100
AcDbLine
 10
11122.05351740777
 20
9753.583082376
 30
0.0
 11
12302.05351740778
 21
9753.583082376
 31
0.0
  0
LINE
  5
11B01
330
747D
100
AcDbEntity
  8
部品1
 62
     2
 48
50.0
100
AcDbLine
 10
11122.05351740777
 20
9887.083082376005
 30
0.0
 11
11122.05351740777
 21
9988.583082376017
 31
0.0
  0
LINE
  5
11B02
330
747D
100
AcDbEntity
  8
部品1
 62
     2
 48
50.0
100
AcDbLine
 10
11122.05351740777
 20
9887.083082376005
 30
0.0
 11
11712.05351740778
 21
9887.083082376005
 31
0.0
  0
LINE
  5
11B03
330
747D
100
AcDbEntity
  8
部品1
 62
     2
 48
50.0
100
AcDbLine
 10
11122.05351740777
 20
9887.083082376005
 30
0.0
 11
11122.05351740777
 21
9753.583082376
 31
0.0
  0
LINE
  5
11B04
330
747D
100
AcDbEntity
  8
部品1
 62
     2
 48
50.0
100
AcDbLine
 10
11122.05351740777
 20
9988.583082376017
 30
0.0
 11
11117.55351740778
 21
9988.583082376017
 31
0.0
  0
LINE
  5
11B05
330
747D
100
AcDbEntity
  8
部品1
 62
     2
 48
50.0
100
AcDbLine
 10
12302.05351740778
 20
9887.083082376005
 30
0.0
 11
12302.05351740778
 21
9988.583082376017
 31
0.0
  0
LINE
  5
11B06
330
747D
100
AcDbEntity
  8
部品1
 62
     2
 48
50.0
100
AcDbLine
 10
12317.05351740778
 20
9978.083082376011
 30
0.0
 11
12317.05351740778
 21
9887.083082376005
 31
0.0
  0
LINE
  5
11B07
330
747D
100
AcDbEntity
  8
部品1
 62
     2
 48
50.0
100
AcDbLine
 10
12317.05351740778
 20
9887.083082376005
 30
0.0
 11
12302.05351740778
 21
9887.083082376005
 31
0.0
  0
ARC
  5
11B08
330
747D
100
AcDbEntity
  8
部品1
 62
     2
 48
50.0
100
AcDbCircle
 10
12306.55351740778
 20
9978.083082376011
 30
0.0
 40
10.5
100
AcDbArc
 50
0.0
 51
90.0
  0
LINE
  5
11B09
330
747D
100
AcDbEntity
  8
部品1
 62
     2
 48
50.0
100
AcDbLine
 10
12302.05351740778
 20
9988.583082376017
 30
0.0
 11
12306.55351740778
 21
9988.583082376017
 31
0.0
  0
LINE
  5
11B0A
330
747D
100
AcDbEntity
  8
部品1
 62
     2
 48
50.0
100
AcDbLine
 10
12302.05351740778
 20
9887.083082376005
 30
0.0
 11
12302.05351740778
 21
9753.583082376
 31
0.0
  0
LINE
  5
11B0B
330
747D
100
AcDbEntity
  8
部品1
 62
     2
 48
50.0
100
AcDbLine
 10
16391.21032457706
 20
9887.083082376005
 30
0.0
 11
17561.21032457706
 21
9887.083082376005
 31
0.0
  0
ARC
  5
11B0C
330
747D
100
AcDbEntity
  8
部品1
 62
     2
 48
50.0
100
AcDbCircle
 10
16386.71032457706
 20
9978.083082376011
 30
0.0
 40
10.5
100
AcDbArc
 50
90.0
 51
180.0
  0
LINE
  5
11B0D
330
747D
100
AcDbEntity
  8
部品1
 62
     2
 48
50.0
100
AcDbLine
 10
16391.21032457706
 20
9988.583082376012
 30
0.0
 11
16386.71032457706
 21
9988.583082376012
 31
0.0
  0
LINE
  5
11B0E
330
747D
100
AcDbEntity
  8
部品1
 62
     2
 48
50.0
100
AcDbLine
 10
16391.21032457706
 20
9887.083082376005
 30
0.0
 11
16391.21032457706
 21
9753.583082375996
 31
0.0
  0
LINE
  5
11B0F
330
747D
100
AcDbEntity
  8
部品1
 62
     2
 48
50.0
100
AcDbLine
 10
16376.21032457706
 20
9887.083082376005
 30
0.0
 11
16391.21032457706
 21
9887.083082376005
 31
0.0
  0
LINE
  5
11B10
330
747D
100
AcDbEntity
  8
部品1
 62
     2
 48
50.0
100
AcDbLine
 10
16376.21032457706
 20
9978.083082376011
 30
0.0
 11
16376.21032457706
 21
9887.083082376005
 31
0.0
  0
LINE
  5
11B11
330
747D
100
AcDbEntity
  8
部品1
 62
     2
 48
50.0
100
AcDbLine
 10
16391.21032457706
 20
9887.083082376005
 30
0.0
 11
16391.21032457706
 21
9988.583082376012
 31
0.0
  0
DIMENSION
  5
11B12
330
747D
100
AcDbEntity
  8
寸法
 48
50.0
100
AcDbDimension
  2
*D8
 10
12297.55351740774
 20
13256.37127066094
 30
0.0
 11
11712.05351740774
 21
13356.37127066094
 31
0.0
 12
5559.925496593392
 22
9251.970017208135
 32
0.0
 70
    32
 71
     5
 42
-1.0
  3
INABA_S50G
100
AcDbAlignedDimension
 13
11126.55351740774
 23
13686.81495653355
 33
0.0
 14
12297.55351740774
 24
13686.81495653355
 34
0.0
100
AcDbRotatedDimension
  0
LINE
  5
11B15
330
747D
100
AcDbEntity
  8
部品1
 62
     2
 48
50.0
100
AcDbLine
 10
12297.55351740774
 20
13686.81495653355
 30
0.0
 11
11126.55351740774
 21
13686.81495653355
 31
0.0
  0
LINE
  5
11B16
330
747D
100
AcDbEntity
  8
部品1
 62
     2
 48
50.0
100
AcDbLine
 10
12285.15351740774
 20
13702.31495653355
 30
0.0
 11
11138.95351740774
 21
13702.31495653355
 31
0.0
  0
LINE
  5
11B1F
330
747D
100
AcDbEntity
  8
部品1
 62
     2
 48
50.0
100
AcDbLine
 10
11126.55351740774
 20
13740.81495653355
 30
0.0
 11
11126.55351740774
 21
13686.81495653355
 31
0.0
  0
LINE
  5
11B20
330
747D
100
AcDbEntity
  8
部品1
 62
     2
 48
50.0
100
AcDbLine
 10
11161.05351740774
 20
13740.81495653355
 30
0.0
 11
11161.05351740774
 21
13686.81495653355
 31
0.0
  0
LINE
  5
11B2F
330
747D
100
AcDbEntity
  8
部品1
 62
     2
 48
50.0
100
AcDbLine
 10
12263.05351740774
 20
13740.81495653355
 30
0.0
 11
12263.05351740774
 21
13686.81495653355
 31
0.0
  0
LINE
  5
11B30
330
747D
100
AcDbEntity
  8
部品1
 62
     2
 48
50.0
100
AcDbLine
 10
12297.55351740774
 20
13740.81495653355
 30
0.0
 11
12297.55351740774
 21
13686.81495653355
 31
0.0
  0
LINE
  5
11B43
330
747D
100
AcDbEntity
  8
部品1
 62
     2
 48
50.0
100
AcDbLine
 10
16395.71032457705
 20
13740.81495653354
 30
0.0
 11
16395.71032457705
 21
13686.81495653354
 31
0.0
  0
LINE
  5
11B44
330
747D
100
AcDbEntity
  8
部品1
 62
     2
 48
50.0
100
AcDbLine
 10
16430.21032457705
 20
13740.81495653354
 30
0.0
 11
16430.21032457705
 21
13686.81495653354
 31
0.0
  0
LINE
  5
11B52
330
747D
100
AcDbEntity
  8
部品1
 62
     2
 48
50.0
100
AcDbLine
 10
18692.21032457706
 20
9753.583082375996
 30
0.0
 11
18692.21032457706
 21
8744.083082375997
 31
0.0
  0
DIMENSION
  5
11B53
330
747D
100
AcDbEntity
  8
寸法
 48
50.0
100
AcDbDimension
  2
*D9
 10
19078.08162255646
 20
9988.583082376012
 30
0.0
 11
18978.06685877693
 21
9366.083082376006
 31
0.0
 70
    32
 71
     5
 42
-1.0
  3
INABA_S50G
100
AcDbAlignedDimension
 13
18721.21032457705
 23
8743.583082375996
 33
0.0
 14
18735.71032457706
 24
9988.583082376012
 34
0.0
 50
90.0
100
AcDbRotatedDimension
1001
ACAD
1000
DSTYLE
1002
{
1070
   287
1070
     4
1070
    75
1070
     1
1070
   279
1070
     1
1002
}
  0
LINE
  5
11B54
330
747D
100
AcDbEntity
  8
部品1
 62
     2
 48
50.0
100
AcDbLine
 10
18731.21032457706
 20
9988.583082376012
 30
0.0
 11
18735.71032457706
 21
9988.583082376012
 31
0.0
  0
ARC
  5
11B55
330
747D
100
AcDbEntity
  8
部品1
 62
     2
 48
50.0
100
AcDbCircle
 10
18735.71032457706
 20
9978.083082376011
 30
0.0
 40
10.5
100
AcDbArc
 50
0.0
 51
90.0
  0
LINE
  5
11B56
330
747D
100
AcDbEntity
  8
部品1
 62
     2
 48
50.0
100
AcDbLine
 10
18746.21032457706
 20
9887.083082376005
 30
0.0
 11
18731.21032457706
 21
9887.083082376005
 31
0.0
  0
LINE
  5
11B57
330
747D
100
AcDbEntity
  8
部品1
 62
     2
 48
50.0
100
AcDbLine
 10
18731.21032457706
 20
9887.083082376005
 30
0.0
 11
18731.21032457706
 21
9753.583082375996
 31
0.0
  0
LINE
  5
11B58
330
747D
100
AcDbEntity
  8
部品1
 62
     2
 48
50.0
100
AcDbLine
 10
18746.21032457706
 20
9978.083082376011
 30
0.0
 11
18746.21032457706
 21
9887.083082376005
 31
0.0
  0
LINE
  5
11B59
330
747D
100
AcDbEntity
  8
部品1
 62
     2
 48
50.0
100
AcDbLine
 10
18731.21032457706
 20
9887.083082376005
 30
0.0
 11
18731.21032457706
 21
9988.583082376012
 31
0.0
  0
LINE
  5
11B5D
330
747D
100
AcDbEntity
  8
部品1
 62
     2
 48
50.0
100
AcDbLine
 10
18692.21032457706
 20
13740.81495653354
 30
0.0
 11
18692.21032457706
 21
13686.81495653354
 31
0.0
  0
LINE
  5
11B5E
330
747D
100
AcDbEntity
  8
部品1
 62
     2
 48
50.0
100
AcDbLine
 10
18726.71032457706
 20
13740.81495653354
 30
0.0
 11
18726.71032457706
 21
13686.81495653354
 31
0.0
  0
LINE
  5
11B63
330
747D
100
AcDbEntity
  8
部品1
 62
     2
 48
50.0
100
AcDbLine
 10
8308.333941746992
 20
13766.81495653355
 30
0.0
 11
8884.333941746994
 21
13766.81495653355
 31
0.0
  0
LINE
  5
11B64
330
747D
100
AcDbEntity
  8
部品1
 62
     2
 48
50.0
100
AcDbLine
 10
8308.333941746992
 20
13743.81495653355
 30
0.0
 11
8884.333941746994
 21
13743.81495653355
 31
0.0
  0
LINE
  5
11B65
330
747D
100
AcDbEntity
  8
部品1
 62
     2
 48
50.0
100
AcDbLine
 10
8326.333941746995
 20
13755.31495653355
 30
0.0
 11
8863.333941746992
 21
13755.31495653355
 31
0.0
  0
LINE
  5
11B66
330
747D
100
AcDbEntity
  8
部品1
 62
     2
 48
50.0
100
AcDbLine
 10
8884.333941746994
 20
13796.81495653354
 30
0.0
 11
6628.333941746993
 21
13796.81495653354
 31
0.0
  0
LINE
  5
11B67
330
747D
100
AcDbEntity
  8
部品1
 62
     2
 48
50.0
100
AcDbLine
 10
8916.333941746994
 20
13805.81495653355
 30
0.0
 11
6596.333941746992
 21
13805.81495653355
 31
0.0
  0
LINE
  5
11B68
330
747D
100
AcDbEntity
  8
部品1
 62
     2
 48
50.0
100
AcDbLine
 10
6596.333941746992
 20
13740.81495653355
 30
0.0
 11
8916.333941746994
 21
13740.81495653355
 31
0.0
  0
DIMENSION
  5
11B69
330
747D
100
AcDbEntity
  8
寸法
 48
50.0
100
AcDbDimension
  2
*D10
 10
8922.333941746995
 20
13367.63188454225
 30
0.0
 11
7756.333941746992
 21
13467.64664832178
 31
0.0
 12
-1266.909867770986
 22
-178.2503588584804
 32
0.0
 70
    32
 71
     5
 42
-1.0
  3
INABA_S50G
100
AcDbAlignedDimension
 13
6590.333941746992
 23
13740.81495653355
 33
0.0
 14
8922.333941746995
 24
13740.81495653355
 34
0.0
100
AcDbRotatedDimension
  0
LINE
  5
11B6A
330
747D
100
AcDbEntity
  8
部品1
 62
     2
 48
50.0
100
AcDbLine
 10
8332.333941746991
 20
12512.62138126076
 30
0.0
 11
8857.333941746992
 21
12512.62138126076
 31
0.0
  0
LINE
  5
11B6B
330
747D
100
AcDbEntity
  8
部品1
 62
     2
 48
50.0
100
AcDbLine
 10
8332.333941746991
 20
11776.12138126075
 30
0.0
 11
8857.333941746992
 21
11776.12138126075
 31
0.0
  0
LINE
  5
11B6C
330
747D
100
AcDbEntity
  8
部品1
 62
     2
 48
50.0
100
AcDbLine
 10
8308.33394174699
 20
11733.12138126075
 30
0.0
 11
8884.333941746991
 21
11733.12138126075
 31
0.0
  0
LINE
  5
11B6D
330
747D
100
AcDbEntity
  8
部品1
 62
     2
 48
50.0
100
AcDbLine
 10
6596.333941746992
 20
12590.12138126075
 30
0.0
 11
8916.333941746994
 21
12590.12138126075
 31
0.0
  0
LINE
  5
11B6E
330
747D
100
AcDbEntity
  8
部品1
 62
     2
 48
50.0
100
AcDbLine
 10
6596.333941746992
 20
12572.12138126075
 30
0.0
 11
8916.333941746994
 21
12572.12138126075
 31
0.0
  0
LINE
  5
11B6F
330
747D
100
AcDbEntity
  8
部品1
 62
     2
 48
50.0
100
AcDbLine
 10
6596.333941746992
 20
12542.62138126075
 30
0.0
 11
8916.333941746994
 21
12542.62138126075
 31
0.0
  0
LINE
  5
11B70
330
747D
100
AcDbEntity
  8
部品1
 62
     2
 48
50.0
100
AcDbLine
 10
6596.333941746992
 20
11690.12138126075
 30
0.0
 11
8916.333941746994
 21
11690.12138126075
 31
0.0
  0
LINE
  5
11B71
330
747D
100
AcDbEntity
  8
部品1
 62
     2
 48
50.0
100
AcDbLine
 10
8884.333941746994
 20
11722.12138126075
 30
0.0
 11
6628.333941746993
 21
11722.12138126075
 31
0.0
  0
LINE
  5
11B72
330
747D
100
AcDbEntity
  8
部品1
 62
     2
 48
50.0
100
AcDbLine
 10
8332.333941746993
 20
12542.62138126075
 30
0.0
 11
8332.333941746993
 21
11733.12138126075
 31
0.0
  0
LINE
  5
11B73
330
747D
100
AcDbEntity
  8
部品1
 62
     2
 48
50.0
100
AcDbLine
 10
8308.333941746992
 20
12542.62138126075
 30
0.0
 11
8308.333941746992
 21
11733.12138126075
 31
0.0
  0
LINE
  5
11B74
330
747D
100
AcDbEntity
  8
部品1
 62
     2
 48
50.0
100
AcDbLine
 10
7756.333941746992
 20
12542.62138126075
 30
0.0
 11
7756.333941746993
 21
11742.12138126075
 31
0.0
  0
LINE
  5
11B75
330
747D
100
AcDbEntity
  8
部品1
 62
     2
 48
50.0
100
AcDbLine
 10
7783.333941746993
 20
12542.62138126075
 30
0.0
 11
7783.333941746993
 21
11742.12138126075
 31
0.0
  0
LINE
  5
11B76
330
747D
100
AcDbEntity
  8
部品1
 48
50.0
100
AcDbLine
 10
6596.333941746992
 20
12735.12138126075
 30
0.0
 11
6596.333941746992
 21
10790.12138126075
 31
0.0
  0
LINE
  5
11B77
330
747D
100
AcDbEntity
  8
部品1
 62
     2
 48
50.0
100
AcDbLine
 10
7729.333941746992
 20
12542.62138126075
 30
0.0
 11
7729.333941746992
 21
11742.12138126075
 31
0.0
  0
LINE
  5
11B78
330
747D
100
AcDbEntity
  8
部品1
 62
     2
 48
50.0
100
AcDbLine
 10
6655.333941746992
 20
12542.62138126075
 30
0.0
 11
6655.333941746994
 21
11733.12138126075
 31
0.0
  0
LINE
  5
11B79
330
747D
100
AcDbEntity
  8
部品1
 62
     2
 48
50.0
100
AcDbLine
 10
6628.333941746993
 20
12542.62138126075
 30
0.0
 11
6628.333941746993
 21
11690.12138126075
 31
0.0
  0
LINE
  5
11B7A
330
747D
100
AcDbEntity
  8
部品1
 62
     2
 48
50.0
100
AcDbLine
 10
7204.333941746992
 20
12542.62138126075
 30
0.0
 11
7204.333941746992
 21
11733.12138126075
 31
0.0
  0
LINE
  5
11B7B
330
747D
100
AcDbEntity
  8
部品1
 62
     2
 48
50.0
100
AcDbLine
 10
7180.333941746993
 20
12542.62138126075
 30
0.0
 11
7180.333941746993
 21
11733.12138126075
 31
0.0
  0
LINE
  5
11B7C
330
747D
100
AcDbEntity
  8
部品1
 62
     2
 48
50.0
100
AcDbLine
 10
2834.878357414091
 20
12542.62138126075
 30
0.0
 11
2834.878357414091
 21
11690.12138126075
 31
0.0
  0
LINE
  5
11B7D
330
747D
100
AcDbEntity
  8
部品1
 62
     2
 48
50.0
100
AcDbLine
 10
2807.878357414091
 20
12542.62138126075
 30
0.0
 11
2807.878357414089
 21
11733.12138126075
 31
0.0
  0
LINE
  5
11B7E
330
747D
100
AcDbEntity
  8
部品1
 62
     2
 48
50.0
100
AcDbLine
 10
2274.878357414092
 20
12542.62138126075
 30
0.0
 11
2274.878357414092
 21
11733.12138126075
 31
0.0
  0
LINE
  5
11B7F
330
747D
100
AcDbEntity
  8
部品1
 62
     2
 48
50.0
100
AcDbLine
 10
2298.878357414092
 20
12542.62138126075
 30
0.0
 11
2298.878357414092
 21
11733.12138126075
 31
0.0
  0
LINE
  5
11B80
330
747D
100
AcDbEntity
  8
部品1
 62
     2
 48
50.0
100
AcDbLine
 10
1738.878357414091
 20
12542.62138126075
 30
0.0
 11
1738.878357414091
 21
11690.12138126075
 31
0.0
  0
LINE
  5
11B81
330
747D
100
AcDbEntity
  8
部品1
 62
     2
 48
50.0
100
AcDbLine
 10
1765.878357414092
 20
12542.62138126075
 30
0.0
 11
1765.878357414092
 21
11742.12138126075
 31
0.0
  0
LINE
  5
11B82
330
747D
100
AcDbEntity
  8
部品1
 48
50.0
100
AcDbLine
 10
1706.878357414091
 20
12735.12138126074
 30
0.0
 11
1706.878357414091
 21
10790.12138126075
 31
0.0
  0
LINE
  5
11B83
330
747D
100
AcDbEntity
  8
部品1
 48
50.0
100
AcDbLine
 10
2866.878357414091
 20
12735.12138126074
 30
0.0
 11
2866.878357414091
 21
10790.12138126075
 31
0.0
  0
LINE
  5
11B84
330
747D
100
AcDbEntity
  8
部品1
 62
     2
 48
50.0
100
AcDbLine
 10
1706.878357414091
 20
11690.12138126075
 30
0.0
 11
2866.878357414091
 21
11690.12138126075
 31
0.0
  0
LINE
  5
11B85
330
747D
100
AcDbEntity
  8
部品1
 62
     2
 48
50.0
100
AcDbLine
 10
1738.878357414091
 20
11722.12138126075
 30
0.0
 11
2834.878357414091
 21
11722.12138126075
 31
0.0
  0
LINE
  5
11B86
330
747D
100
AcDbEntity
  8
部品1
 62
     2
 48
50.0
100
AcDbLine
 10
1765.878357414092
 20
11776.12138126075
 30
0.0
 11
2274.878357414092
 21
11776.12138126075
 31
0.0
  0
LINE
  5
11B87
330
747D
100
AcDbEntity
  8
部品1
 62
     2
 48
50.0
100
AcDbLine
 10
1763.878357414092
 20
11742.12138126075
 30
0.0
 11
2274.878357414089
 21
11742.12138126075
 31
0.0
  0
LINE
  5
11B88
330
747D
100
AcDbEntity
  8
部品1
 62
     2
 48
50.0
100
AcDbLine
 10
1738.878357414091
 20
11733.12138126075
 30
0.0
 11
1763.203357414093
 21
11733.12138126075
 31
0.0
  0
LINE
  5
11B89
330
747D
100
AcDbEntity
  8
部品1
 62
     2
 48
50.0
100
AcDbLine
 10
1763.878357414092
 20
11742.12138126075
 30
0.0
 11
1762.378357414092
 21
11722.12138126075
 31
0.0
  0
LINE
  5
11B8A
330
747D
100
AcDbEntity
  8
部品1
 48
50.0
100
AcDbLine
 10
8336.333941746994
 20
11690.12138126075
 30
0.0
 11
8336.333941746994
 21
10790.12138126075
 31
0.0
  0
LINE
  5
11B8B
330
747D
100
AcDbEntity
  8
部品1
 48
50.0
100
AcDbLine
 10
7756.333941746992
 20
11690.12138126075
 30
0.0
 11
7756.333941746992
 21
10790.12138126075
 31
0.0
  0
LINE
  5
11B8C
330
747D
100
AcDbEntity
  8
部品1
 48
50.0
100
AcDbLine
 10
7176.333941746992
 20
11690.12138126075
 30
0.0
 11
7176.333941746992
 21
10790.12138126075
 31
0.0
  0
LINE
  5
11B8D
330
747D
100
AcDbEntity
  8
部品1
 48
50.0
100
AcDbLine
 10
2286.878357414092
 20
11690.12138126075
 30
0.0
 11
2286.878357414092
 21
10790.12138126075
 31
0.0
  0
LINE
  5
11B8E
330
747D
100
AcDbEntity
  8
部品1
 62
     2
 48
50.0
100
AcDbLine
 10
2298.878357414089
 20
11776.12138126075
 30
0.0
 11
2807.878357414089
 21
11776.12138126075
 31
0.0
  0
LINE
  5
11B8F
330
747D
100
AcDbEntity
  8
部品1
 62
     2
 48
50.0
100
AcDbLine
 10
2274.878357414089
 20
11733.12138126075
 30
0.0
 11
2834.878357414089
 21
11733.12138126075
 31
0.0
  0
LINE
  5
11B90
330
747D
100
AcDbEntity
  8
部品1
 62
     2
 48
50.0
100
AcDbLine
 10
8308.33394174699
 20
11742.12138126075
 30
0.0
 11
7204.333941746994
 21
11742.12138126075
 31
0.0
  0
LINE
  5
11B91
330
747D
100
AcDbEntity
  8
部品1
 62
     2
 48
50.0
100
AcDbLine
 10
7729.333941746992
 20
11776.12138126075
 30
0.0
 11
7204.333941746992
 21
11776.12138126075
 31
0.0
  0
LINE
  5
11B92
330
747D
100
AcDbEntity
  8
部品1
 62
     2
 48
50.0
100
AcDbLine
 10
7204.333941746994
 20
11733.12138126075
 30
0.0
 11
6628.333941746996
 21
11733.12138126075
 31
0.0
  0
LINE
  5
11B93
330
747D
100
AcDbEntity
  8
部品1
 62
     2
 48
50.0
100
AcDbLine
 10
7180.333941746993
 20
11776.12138126075
 30
0.0
 11
6655.333941746994
 21
11776.12138126075
 31
0.0
  0
LINE
  5
11B94
330
747D
100
AcDbEntity
  8
部品1
 62
     2
 48
50.0
100
AcDbLine
 10
7783.333941746993
 20
11776.12138126075
 30
0.0
 11
8308.333941746992
 21
11776.12138126075
 31
0.0
  0
DIMENSION
  5
11B9B
330
747D
100
AcDbEntity
  8
寸法
 48
50.0
100
AcDbDimension
  2
*D11
 10
2872.878357414091
 20
13367.63188454225
 30
0.0
 11
2286.878357414092
 21
13467.64664832178
 31
0.0
 12
-425.4839972519934
 22
-178.2503588584768
 32
0.0
 70
    32
 71
     5
 42
-1.0
  3
INABA_S50G
100
AcDbAlignedDimension
 13
1700.878357414092
 23
13740.81495653356
 33
0.0
 14
2872.878357414091
 24
13740.81495653356
 34
0.0
100
AcDbRotatedDimension
  0
LINE
  5
11B9C
330
747D
100
AcDbEntity
  8
部品1
 62
     2
 48
50.0
100
AcDbLine
 10
1706.878357414091
 20
12590.12138126075
 30
0.0
 11
2866.878357414091
 21
12590.12138126075
 31
0.0
  0
LINE
  5
11B9D
330
747D
100
AcDbEntity
  8
部品1
 62
     2
 48
50.0
100
AcDbLine
 10
1706.878357414091
 20
12572.12138126075
 30
0.0
 11
2866.878357414091
 21
12572.12138126075
 31
0.0
  0
LINE
  5
11B9E
330
747D
100
AcDbEntity
  8
部品1
 62
     2
 48
50.0
100
AcDbLine
 10
1706.878357414091
 20
12542.62138126075
 30
0.0
 11
2866.878357414091
 21
12542.62138126075
 31
0.0
  0
LINE
  5
11B9F
330
747D
100
AcDbEntity
  8
部品1
 62
     2
 48
50.0
100
AcDbLine
 10
1765.878357414092
 20
12512.62138126076
 30
0.0
 11
2274.878357414092
 21
12512.62138126076
 31
0.0
  0
LINE
  5
11BA8
330
747D
100
AcDbEntity
  8
部品1
 62
     2
 48
50.0
100
AcDbLine
 10
2298.878357414089
 20
12512.62138126076
 30
0.0
 11
2807.878357414091
 21
12512.62138126076
 31
0.0
  0
LINE
  5
11BA9
330
747D
100
AcDbEntity
  8
部品1
 62
     2
 48
50.0
100
AcDbLine
 10
7729.333941746992
 20
12512.62138126076
 30
0.0
 11
7204.333941746992
 21
12512.62138126076
 31
0.0
  0
LINE
  5
11BAA
330
747D
100
AcDbEntity
  8
部品1
 62
     2
 48
50.0
100
AcDbLine
 10
7180.333941746993
 20
12512.62138126076
 30
0.0
 11
6655.333941746992
 21
12512.62138126076
 31
0.0
  0
LINE
  5
11BAB
330
747D
100
AcDbEntity
  8
部品1
 62
     2
 48
50.0
100
AcDbLine
 10
7783.333941746993
 20
12512.62138126076
 30
0.0
 11
8308.333941746992
 21
12512.62138126076
 31
0.0
  0
LINE
  5
11BBB
330
747D
100
AcDbEntity
  8
部品1
 62
     2
 48
50.0
100
AcDbLine
 10
7735.333941746993
 20
13782.31495653355
 30
0.0
 11
7198.333941746992
 21
13782.31495653355
 31
0.0
  0
LINE
  5
11BBC
330
747D
100
AcDbEntity
  8
部品1
 62
     2
 48
50.0
100
AcDbLine
 10
7756.333941746993
 20
13770.81495653355
 30
0.0
 11
7180.333941746993
 21
13770.81495653355
 31
0.0
  0
LINE
  5
11BBD
330
747D
100
AcDbEntity
  8
部品1
 62
     2
 48
50.0
100
AcDbLine
 10
7756.333941746993
 20
13793.81495653354
 30
0.0
 11
7180.333941746993
 21
13793.81495653354
 31
0.0
  0
LINE
  5
11BBE
330
747D
100
AcDbEntity
  8
部品1
 62
     2
 48
50.0
100
AcDbLine
 10
6596.333941746992
 20
13790.81495653355
 30
0.0
 11
6596.333941746992
 21
13805.81495653355
 31
0.0
  0
LINE
  5
11BBF
330
747D
100
AcDbEntity
  8
部品1
 62
     2
 48
50.0
100
AcDbLine
 10
6614.333941746993
 20
13790.81495653355
 30
0.0
 11
6628.333941746993
 21
13790.81495653355
 31
0.0
  0
LINE
  5
11BC0
330
747D
100
AcDbEntity
  8
部品1
 62
     2
 48
50.0
100
AcDbLine
 10
6655.333941746992
 20
13743.81495653355
 30
0.0
 11
6655.333941746992
 21
13766.81495653355
 31
0.0
  0
LINE
  5
11BC1
330
747D
100
AcDbEntity
  8
部品1
 62
     2
 48
50.0
100
AcDbLine
 10
6628.333941746993
 20
13740.81495653355
 30
0.0
 11
6628.333941746993
 21
13796.81495653354
 31
0.0
  0
LINE
  5
11BC3
330
747D
100
AcDbEntity
  8
部品1
 48
50.0
100
AcDbLine
 10
6578.333941746993
 20
13775.81495653354
 30
0.0
 11
6578.333941746993
 21
13790.81495653355
 31
0.0
  0
LINE
  5
11BC4
330
747D
100
AcDbEntity
  8
部品1
 48
50.0
100
AcDbLine
 10
6614.333941746993
 20
13775.81495653354
 30
0.0
 11
6614.333941746993
 21
13790.81495653355
 31
0.0
  0
LINE
  5
11BC5
330
747D
100
AcDbEntity
  8
部品1
 48
50.0
100
AcDbLine
 10
6596.333941746992
 20
13740.81495653355
 30
0.0
 11
6596.333941746992
 21
13775.81495653354
 31
0.0
  0
LINE
  5
11BC6
330
747D
100
AcDbEntity
  8
部品1
 62
     2
 48
50.0
100
AcDbLine
 10
7204.333941746992
 20
13743.81495653355
 30
0.0
 11
7204.333941746992
 21
13766.81495653355
 31
0.0
  0
LINE
  5
11BC7
330
747D
100
AcDbEntity
  8
部品1
 62
     2
 48
50.0
100
AcDbLine
 10
7204.333941746992
 20
13770.81495653354
 30
0.0
 11
7204.333941746992
 21
13793.81495653354
 31
0.0
  0
LINE
  5
11BC8
330
747D
100
AcDbEntity
  8
部品1
 62
     2
 48
50.0
100
AcDbLine
 10
7180.333941746993
 20
13743.81495653355
 30
0.0
 11
7180.333941746993
 21
13766.81495653355
 31
0.0
  0
LINE
  5
11BC9
330
747D
100
AcDbEntity
  8
部品1
 62
     2
 48
50.0
100
AcDbLine
 10
7180.333941746993
 20
13770.81495653355
 30
0.0
 11
7180.333941746993
 21
13793.81495653354
 31
0.0
  0
LINE
  5
11BCA
330
747D
100
AcDbEntity
  8
部品1
 62
     2
 48
50.0
100
AcDbLine
 10
7204.333941746992
 20
13766.81495653355
 30
0.0
 11
6628.333941746993
 21
13766.81495653355
 31
0.0
  0
LINE
  5
11BCB
330
747D
100
AcDbEntity
  8
部品1
 62
     2
 48
50.0
100
AcDbLine
 10
7204.333941746992
 20
13743.81495653355
 30
0.0
 11
6628.333941746993
 21
13743.81495653355
 31
0.0
  0
LINE
  5
11BCC
330
747D
100
AcDbEntity
  8
部品1
 62
     2
 48
50.0
100
AcDbLine
 10
7186.333941746993
 20
13755.31495653355
 30
0.0
 11
6649.333941746992
 21
13755.31495653355
 31
0.0
  0
LINE
  5
11BCD
330
747D
100
AcDbEntity
  8
部品1
 62
     2
 48
50.0
100
AcDbLine
 10
7729.333941746992
 20
13770.81495653355
 30
0.0
 11
7729.333941746993
 21
13793.81495653354
 31
0.0
  0
LINE
  5
11BCE
330
747D
100
AcDbEntity
  8
部品1
 62
     2
 48
50.0
100
AcDbLine
 10
8332.333941746993
 20
13743.81495653355
 30
0.0
 11
8332.333941746993
 21
13766.81495653355
 31
0.0
  0
LINE
  5
11BCF
330
747D
100
AcDbEntity
  8
部品1
 62
     2
 48
50.0
100
AcDbLine
 10
8308.333941746992
 20
13743.81495653355
 30
0.0
 11
8308.333941746992
 21
13766.81495653355
 31
0.0
  0
LINE
  5
11BD0
330
747D
100
AcDbEntity
  8
部品1
 62
     2
 48
50.0
100
AcDbLine
 10
8308.333941746992
 20
13770.81495653354
 30
0.0
 11
8308.333941746992
 21
13793.81495653354
 31
0.0
  0
LINE
  5
11BD1
330
747D
100
AcDbEntity
  8
部品1
 62
     2
 48
50.0
100
AcDbLine
 10
8332.333941746993
 20
13770.81495653355
 30
0.0
 11
8332.333941746993
 21
13793.81495653354
 31
0.0
  0
LINE
  5
11BD2
330
747D
100
AcDbEntity
  8
部品1
 62
     2
 48
50.0
100
AcDbLine
 10
7756.333941746991
 20
13770.81495653355
 30
0.0
 11
7756.333941746993
 21
13793.81495653354
 31
0.0
  0
LINE
  5
11BD3
330
747D
100
AcDbEntity
  8
部品1
 62
     2
 48
50.0
100
AcDbLine
 10
7783.333941746993
 20
13770.81495653355
 30
0.0
 11
7783.33394174699
 21
13793.81495653354
 31
0.0
  0
LINE
  5
11BD4
330
747D
100
AcDbEntity
  8
部品1
 62
     2
 48
50.0
100
AcDbLine
 10
7777.333941746992
 20
13782.31495653355
 30
0.0
 11
8314.333941746992
 21
13782.31495653355
 31
0.0
  0
LINE
  5
11BD5
330
747D
100
AcDbEntity
  8
部品1
 62
     2
 48
50.0
100
AcDbLine
 10
7756.333941746991
 20
13793.81495653354
 30
0.0
 11
8332.333941746993
 21
13793.81495653354
 31
0.0
  0
LINE
  5
11BD6
330
747D
100
AcDbEntity
  8
部品1
 62
     2
 48
50.0
100
AcDbLine
 10
7756.333941746991
 20
13770.81495653355
 30
0.0
 11
8332.333941746993
 21
13770.81495653355
 31
0.0
  0
LINE
  5
11BD7
330
747D
100
AcDbEntity
  8
部品1
 62
     2
 48
50.0
100
AcDbLine
 10
8884.333941746994
 20
12542.62138126075
 30
0.0
 11
8884.333941746994
 21
11690.12138126075
 31
0.0
  0
LINE
  5
11BD8
330
747D
100
AcDbEntity
  8
部品1
 62
     2
 48
50.0
100
AcDbLine
 10
8857.333941746992
 20
12542.62138126075
 30
0.0
 11
8857.333941746992
 21
11733.12138126075
 31
0.0
  0
LINE
  5
11BD9
330
747D
100
AcDbEntity
  8
部品1
 48
50.0
100
AcDbLine
 10
8916.333941746991
 20
12735.12138126075
 30
0.0
 11
8916.333941746994
 21
10790.12138126075
 31
0.0
  0
LINE
  5
11BDB
330
747D
100
AcDbEntity
  8
部品1
 48
50.0
100
AcDbLine
 10
8898.333941746992
 20
13775.81495653354
 30
0.0
 11
8898.333941746992
 21
13790.81495653355
 31
0.0
  0
LINE
  5
11BDC
330
747D
100
AcDbEntity
  8
部品1
 48
50.0
100
AcDbLine
 10
8934.333941746992
 20
13775.81495653354
 30
0.0
 11
8934.333941746992
 21
13790.81495653355
 31
0.0
  0
LINE
  5
11BDD
330
747D
100
AcDbEntity
  8
部品1
 48
50.0
100
AcDbLine
 10
8916.333941746994
 20
13740.81495653355
 30
0.0
 11
8916.333941746994
 21
13775.81495653354
 31
0.0
  0
LINE
  5
11BDE
330
747D
100
AcDbEntity
  8
部品1
 62
     2
 48
50.0
100
AcDbLine
 10
8884.333941746994
 20
13740.81495653355
 30
0.0
 11
8884.333941746994
 21
13796.81495653354
 31
0.0
  0
LINE
  5
11BDF
330
747D
100
AcDbEntity
  8
部品1
 62
     2
 48
50.0
100
AcDbLine
 10
8857.333941746992
 20
13743.81495653355
 30
0.0
 11
8857.333941746992
 21
13766.81495653355
 31
0.0
  0
LINE
  5
11BE0
330
747D
100
AcDbEntity
  8
部品1
 62
     2
 48
50.0
100
AcDbLine
 10
8898.333941746992
 20
13790.81495653355
 30
0.0
 11
8884.333941746994
 21
13790.81495653355
 31
0.0
  0
LINE
  5
11BE1
330
747D
100
AcDbEntity
  8
部品1
 62
     2
 48
50.0
100
AcDbLine
 10
8916.333941746994
 20
13790.81495653355
 30
0.0
 11
8916.333941746994
 21
13805.81495653355
 31
0.0
  0
DIMENSION
  5
11BE9
330
747D
100
AcDbEntity
  8
寸法
 48
50.0
100
AcDbDimension
  2
*D12
 10
15513.12442407164
 20
9988.583082376012
 30
0.0
 11
15413.10966029211
 21
9366.083082376006
 31
0.0
 70
    32
 71
     5
 42
-1.0
  3
INABA_S50G
100
AcDbAlignedDimension
 13
15156.25312609225
 23
8743.583082375996
 33
0.0
 14
15170.75312609225
 24
9988.583082376012
 34
0.0
 50
90.0
100
AcDbRotatedDimension
1001
ACAD
1000
DSTYLE
1002
{
1070
   287
1070
     4
1070
    75
1070
     1
1070
   279
1070
     1
1002
}
  0
LINE
  5
11BEB
330
747D
100
AcDbEntity
  8
部品1
 62
     2
 48
50.0
100
AcDbLine
 10
15166.25312609225
 20
9887.083082376005
 30
0.0
 11
15166.25312609225
 21
9988.583082376012
 31
0.0
  0
LINE
  5
11BEC
330
747D
100
AcDbEntity
  8
部品1
 62
     2
 48
50.0
100
AcDbLine
 10
15181.25312609226
 20
9978.083082376011
 30
0.0
 11
15181.25312609226
 21
9887.083082376005
 31
0.0
  0
LINE
  5
11BED
330
747D
100
AcDbEntity
  8
部品1
 62
     2
 48
50.0
100
AcDbLine
 10
13406.25312609225
 20
9887.083082376005
 30
0.0
 11
13406.25312609225
 21
9988.583082376012
 31
0.0
  0
LINE
  5
11BEE
330
747D
100
AcDbEntity
  8
部品1
 62
     2
 48
50.0
100
AcDbLine
 10
13391.25312609225
 20
9978.083082376011
 30
0.0
 11
13391.25312609225
 21
9887.083082376005
 31
0.0
  0
LINE
  5
11BEF
330
747D
100
AcDbEntity
  8
部品1
 62
     2
 48
50.0
100
AcDbLine
 10
3904.104174944225
 20
11742.12138126075
 30
0.0
 11
4705.104174944221
 21
11742.12138126075
 31
0.0
  0
LINE
  5
11BF0
330
747D
100
AcDbEntity
  8
部品1
 62
     2
 48
50.0
100
AcDbLine
 10
3906.104174944224
 20
11776.12138126075
 30
0.0
 11
4705.104174944223
 21
11776.12138126075
 31
0.0
  0
LINE
  5
11BF1
330
747D
100
AcDbEntity
  8
部品1
 62
     2
 48
50.0
100
AcDbLine
 10
3906.104174944224
 20
12512.62138126076
 30
0.0
 11
4705.104174944223
 21
12512.62138126076
 31
0.0
  0
LINE
  5
11BF2
330
747D
100
AcDbEntity
  8
部品1
 62
     2
 48
50.0
100
AcDbLine
 10
3879.104174944225
 20
11722.12138126075
 30
0.0
 11
5555.104174944225
 21
11722.12138126075
 31
0.0
  0
LINE
  5
11BF3
330
747D
100
AcDbEntity
  8
部品1
 62
     2
 48
50.0
100
AcDbLine
 10
3847.104174944225
 20
12542.62138126075
 30
0.0
 11
5587.104174944225
 21
12542.62138126075
 31
0.0
  0
LINE
  5
11BF4
330
747D
100
AcDbEntity
  8
部品1
 62
     2
 48
50.0
100
AcDbLine
 10
3847.104174944225
 20
12572.12138126075
 30
0.0
 11
5587.104174944225
 21
12572.12138126075
 31
0.0
  0
LINE
  5
11BF5
330
747D
100
AcDbEntity
  8
部品1
 62
     2
 48
50.0
100
AcDbLine
 10
3847.104174944225
 20
12590.12138126075
 30
0.0
 11
5587.104174944225
 21
12590.12138126075
 31
0.0
  0
LINE
  5
11BF6
330
747D
100
AcDbEntity
  8
部品1
 62
     2
 48
50.0
100
AcDbLine
 10
3847.104174944225
 20
11690.12138126075
 30
0.0
 11
5587.104174944225
 21
11690.12138126075
 31
0.0
  0
LINE
  5
11BF7
330
747D
100
AcDbEntity
  8
部品1
 62
     2
 48
50.0
100
AcDbLine
 10
3906.104174944224
 20
12542.62138126075
 30
0.0
 11
3906.104174944224
 21
11742.12138126075
 31
0.0
  0
LINE
  5
11BF8
330
747D
100
AcDbEntity
  8
部品1
 62
     2
 48
50.0
100
AcDbLine
 10
3879.104174944225
 20
12542.62138126075
 30
0.0
 11
3879.104174944225
 21
11690.12138126075
 31
0.0
  0
LINE
  5
11BF9
330
747D
100
AcDbEntity
  8
部品1
 62
     2
 48
50.0
100
AcDbLine
 10
3904.104174944225
 20
11742.12138126075
 30
0.0
 11
3902.604174944224
 21
11722.12138126075
 31
0.0
  0
LINE
  5
11BFA
330
747D
100
AcDbEntity
  8
部品1
 62
     2
 48
50.0
100
AcDbLine
 10
3879.104174944225
 20
11733.12138126075
 30
0.0
 11
3903.429174944225
 21
11733.12138126075
 31
0.0
  0
DIMENSION
  5
11BFB
330
747D
100
AcDbEntity
  8
寸法
 48
50.0
100
AcDbDimension
  2
*D13
 10
5959.172335797031
 20
12590.12138126075
 30
0.0
 11
5859.17233579703
 21
12140.12138126076
 31
0.0
 70
    32
 71
     5
 42
-1.0
  3
INABA_S50G
100
AcDbAlignedDimension
 13
5587.104174944225
 23
11690.12138126075
 33
0.0
 14
5587.104174944225
 24
12590.12138126075
 34
0.0
 50
90.0
100
AcDbRotatedDimension
1001
ACAD
1000
DSTYLE
1002
{
1070
   287
1070
     4
1070
    75
1070
     1
1070
   279
1070
     1
1002
}
  0
LINE
  5
11BFC
330
747D
100
AcDbEntity
  8
部品1
 62
     2
 48
50.0
100
AcDbLine
 10
13445.25312609225
 20
9753.583082375996
 30
0.0
 11
13445.25312609225
 21
8744.083082375997
 31
0.0
  0
LINE
  5
11BFD
330
747D
100
AcDbEntity
  8
部品1
 62
     2
 48
50.0
100
AcDbLine
 10
15127.25312609225
 20
9753.583082375996
 30
0.0
 11
15127.25312609225
 21
8744.083082375997
 31
0.0
  0
LINE
  5
11BFE
330
747D
100
AcDbEntity
  8
部品1
 62
     2
 48
50.0
100
AcDbLine
 10
4729.104174944223
 20
12542.62138126075
 30
0.0
 11
4729.104174944223
 21
11733.12138126075
 31
0.0
  0
LINE
  5
11BFF
330
747D
100
AcDbEntity
  8
部品1
 62
     2
 48
50.0
100
AcDbLine
 10
4705.104174944223
 20
12542.62138126075
 30
0.0
 11
4705.104174944223
 21
11733.12138126075
 31
0.0
  0
LINE
  5
11C00
330
747D
100
AcDbEntity
  8
部品1
 62
     2
 48
50.0
100
AcDbLine
 10
5528.104174944225
 20
12542.62138126075
 30
0.0
 11
5528.104174944221
 21
11733.12138126075
 31
0.0
  0
LINE
  5
11C01
330
747D
100
AcDbEntity
  8
部品1
 62
     2
 48
50.0
100
AcDbLine
 10
5555.104174944225
 20
12542.62138126075
 30
0.0
 11
5555.104174944225
 21
11690.12138126075
 31
0.0
  0
LINE
  5
11C02
330
747D
100
AcDbEntity
  8
部品1
 62
     2
 48
50.0
100
AcDbLine
 10
4705.104174944221
 20
11733.12138126075
 30
0.0
 11
5555.104174944221
 21
11733.12138126075
 31
0.0
  0
LINE
  5
11C03
330
747D
100
AcDbEntity
  8
部品1
 62
     2
 48
50.0
100
AcDbLine
 10
4729.104174944221
 20
11776.12138126075
 30
0.0
 11
5528.104174944221
 21
11776.12138126075
 31
0.0
  0
LINE
  5
11C04
330
747D
100
AcDbEntity
  8
部品1
 62
     2
 48
50.0
100
AcDbLine
 10
13445.25312609225
 20
8795.083082376008
 30
0.0
 11
15127.25312609225
 21
8795.083082376008
 31
0.0
  0
LINE
  5
11C05
330
747D
100
AcDbEntity
  8
部品1
 62
     2
 48
50.0
100
AcDbLine
 10
13445.25312609225
 20
8831.083082375997
 30
0.0
 11
15127.25312609225
 21
8831.083082375997
 31
0.0
  0
LINE
  5
11C06
330
747D
100
AcDbEntity
  8
部品1
 62
     2
 48
50.0
100
AcDbLine
 10
13445.25312609225
 20
8867.08308237601
 30
0.0
 11
15127.25312609225
 21
8867.08308237601
 31
0.0
  0
LINE
  5
11C07
330
747D
100
AcDbEntity
  8
部品1
 62
     2
 48
50.0
100
AcDbLine
 10
13445.25312609225
 20
8903.083082376001
 30
0.0
 11
15127.25312609225
 21
8903.083082376001
 31
0.0
  0
LINE
  5
11C08
330
747D
100
AcDbEntity
  8
部品1
 62
     2
 48
50.0
100
AcDbLine
 10
13445.25312609225
 20
8939.083082376011
 30
0.0
 11
15127.25312609225
 21
8939.083082376011
 31
0.0
  0
LINE
  5
11C09
330
747D
100
AcDbEntity
  8
部品1
 62
     2
 48
50.0
100
AcDbLine
 10
13445.25312609225
 20
8975.083082376004
 30
0.0
 11
15127.25312609225
 21
8975.083082376004
 31
0.0
  0
LINE
  5
11C0A
330
747D
100
AcDbEntity
  8
部品1
 62
     2
 48
50.0
100
AcDbLine
 10
13445.25312609225
 20
9011.083082376021
 30
0.0
 11
15127.25312609225
 21
9011.083082376021
 31
0.0
  0
LINE
  5
11C0B
330
747D
100
AcDbEntity
  8
部品1
 62
     2
 48
50.0
100
AcDbLine
 10
13445.25312609225
 20
8780.083082375995
 30
0.0
 11
15127.25312609225
 21
8780.083082375995
 31
0.0
  0
LINE
  5
11C0C
330
747D
100
AcDbEntity
  8
部品1
 62
     2
 48
50.0
100
AcDbLine
 10
13416.25312609225
 20
8744.083082375997
 30
0.0
 11
15156.25312609225
 21
8744.083082375997
 31
0.0
  0
LINE
  5
11C0D
330
747D
100
AcDbEntity
  8
部品1
 62
     2
 48
50.0
100
AcDbLine
 10
13391.25312609225
 20
9887.083082376005
 30
0.0
 11
13406.25312609225
 21
9887.083082376005
 31
0.0
  0
LINE
  5
11C0E
330
747D
100
AcDbEntity
  8
部品1
 62
     2
 48
50.0
100
AcDbLine
 10
4729.104174944221
 20
12512.62138126076
 30
0.0
 11
5528.104174944225
 21
12512.62138126076
 31
0.0
  0
LINE
  5
11C0F
330
747D
100
AcDbEntity
  8
部品1
 62
     2
 48
50.0
100
AcDbLine
 10
13445.25312609225
 20
9047.083082376003
 30
0.0
 11
15127.25312609225
 21
9047.083082376003
 31
0.0
  0
LINE
  5
11C10
330
747D
100
AcDbEntity
  8
部品1
 62
     2
 48
50.0
100
AcDbLine
 10
13445.25312609225
 20
9083.08308237602
 30
0.0
 11
15127.25312609225
 21
9083.08308237602
 31
0.0
  0
LINE
  5
11C11
330
747D
100
AcDbEntity
  8
部品1
 62
     2
 48
50.0
100
AcDbLine
 10
13445.25312609225
 20
9119.083082376013
 30
0.0
 11
15127.25312609225
 21
9119.083082376013
 31
0.0
  0
LINE
  5
11C12
330
747D
100
AcDbEntity
  8
部品1
 62
     2
 48
50.0
100
AcDbLine
 10
13445.25312609225
 20
9155.083082375995
 30
0.0
 11
15127.25312609225
 21
9155.083082375995
 31
0.0
  0
LINE
  5
11C13
330
747D
100
AcDbEntity
  8
部品1
 62
     2
 48
50.0
100
AcDbLine
 10
13445.25312609225
 20
9191.083082376012
 30
0.0
 11
15127.25312609225
 21
9191.083082376012
 31
0.0
  0
LINE
  5
11C14
330
747D
100
AcDbEntity
  8
部品1
 62
     2
 48
50.0
100
AcDbLine
 10
13445.25312609225
 20
9227.083082376005
 30
0.0
 11
15127.25312609225
 21
9227.083082376005
 31
0.0
  0
LINE
  5
11C15
330
747D
100
AcDbEntity
  8
部品1
 62
     2
 48
50.0
100
AcDbLine
 10
13445.25312609225
 20
9263.083082376011
 30
0.0
 11
15127.25312609225
 21
9263.083082376011
 31
0.0
  0
LINE
  5
11C16
330
747D
100
AcDbEntity
  8
部品1
 62
     2
 48
50.0
100
AcDbLine
 10
13445.25312609225
 20
9299.083082376006
 30
0.0
 11
15127.25312609225
 21
9299.083082376006
 31
0.0
  0
LINE
  5
11C17
330
747D
100
AcDbEntity
  8
部品1
 62
     2
 48
50.0
100
AcDbLine
 10
13445.25312609225
 20
9335.083082376021
 30
0.0
 11
15127.25312609225
 21
9335.083082376021
 31
0.0
  0
LINE
  5
11C18
330
747D
100
AcDbEntity
  8
部品1
 62
     2
 48
50.0
100
AcDbLine
 10
13445.25312609225
 20
9371.083082376005
 30
0.0
 11
15127.25312609225
 21
9371.083082376005
 31
0.0
  0
LINE
  5
11C19
330
747D
100
AcDbEntity
  8
部品1
 62
     2
 48
50.0
100
AcDbLine
 10
13445.25312609225
 20
9407.083082376018
 30
0.0
 11
15127.25312609225
 21
9407.083082376018
 31
0.0
  0
LINE
  5
11C1A
330
747D
100
AcDbEntity
  8
部品1
 62
     2
 48
50.0
100
AcDbLine
 10
13445.25312609225
 20
9443.083082376011
 30
0.0
 11
15127.25312609225
 21
9443.083082376011
 31
0.0
  0
LINE
  5
11C1B
330
747D
100
AcDbEntity
  8
部品1
 62
     2
 48
50.0
100
AcDbLine
 10
13445.25312609225
 20
9479.083082375998
 30
0.0
 11
15127.25312609225
 21
9479.083082375998
 31
0.0
  0
LINE
  5
11C1C
330
747D
100
AcDbEntity
  8
部品1
 62
     2
 48
50.0
100
AcDbLine
 10
13445.25312609225
 20
9703.583082375995
 30
0.0
 11
15127.25312609225
 21
9703.583082375995
 31
0.0
  0
LINE
  5
11C1D
330
747D
100
AcDbEntity
  8
部品1
 62
     2
 48
50.0
100
AcDbLine
 10
13445.25312609225
 20
9688.583082375998
 30
0.0
 11
15127.25312609225
 21
9688.583082375998
 31
0.0
  0
LINE
  5
11C1E
330
747D
100
AcDbEntity
  8
部品1
 62
     2
 48
50.0
100
AcDbLine
 10
13445.25312609225
 20
9515.083082376012
 30
0.0
 11
15127.25312609225
 21
9515.083082376012
 31
0.0
  0
LINE
  5
11C1F
330
747D
100
AcDbEntity
  8
部品1
 62
     2
 48
50.0
100
AcDbLine
 10
13445.25312609225
 20
9551.083082376004
 30
0.0
 11
15127.25312609225
 21
9551.083082376004
 31
0.0
  0
LINE
  5
11C20
330
747D
100
AcDbEntity
  8
部品1
 62
     2
 48
50.0
100
AcDbLine
 10
13445.25312609225
 20
9587.083082376016
 30
0.0
 11
15127.25312609225
 21
9587.083082376016
 31
0.0
  0
LINE
  5
11C21
330
747D
100
AcDbEntity
  8
部品1
 62
     2
 48
50.0
100
AcDbLine
 10
13445.25312609225
 20
9623.083082376005
 30
0.0
 11
15127.25312609225
 21
9623.083082376005
 31
0.0
  0
LINE
  5
11C22
330
747D
100
AcDbEntity
  8
部品1
 62
     2
 48
50.0
100
AcDbLine
 10
13445.25312609225
 20
9659.083082376021
 30
0.0
 11
15127.25312609225
 21
9659.083082376021
 31
0.0
  0
LINE
  5
11C23
330
747D
100
AcDbEntity
  8
部品1
 62
     2
 48
50.0
100
AcDbLine
 10
13406.25312609225
 20
9887.083082376005
 30
0.0
 11
14576.25312609225
 21
9887.083082376005
 31
0.0
  0
LINE
  5
11C24
330
747D
100
AcDbEntity
  8
部品1
 62
     2
 48
50.0
100
AcDbLine
 10
13416.25312609225
 20
9887.083082376005
 30
0.0
 11
15166.25312609225
 21
9887.083082376005
 31
0.0
  0
LINE
  5
11C25
330
747D
100
AcDbEntity
  8
部品1
 62
     2
 48
50.0
100
AcDbLine
 10
13406.25312609225
 20
9823.583082376003
 30
0.0
 11
15166.25312609225
 21
9823.583082376003
 31
0.0
  0
LINE
  5
11C26
330
747D
100
AcDbEntity
  8
部品1
 62
     2
 48
50.0
100
AcDbLine
 10
13406.25312609225
 20
9753.583082375996
 30
0.0
 11
15166.25312609225
 21
9753.583082375996
 31
0.0
  0
LINE
  5
11C27
330
747D
100
AcDbEntity
  8
部品1
 62
     2
 48
50.0
100
AcDbLine
 10
13406.25312609225
 20
9887.083082376005
 30
0.0
 11
13406.25312609225
 21
9753.583082375996
 31
0.0
  0
LINE
  5
11C28
330
747D
100
AcDbEntity
  8
部品1
 62
     2
 48
50.0
100
AcDbLine
 10
15166.25312609225
 20
9887.083082376005
 30
0.0
 11
15166.25312609225
 21
9753.583082375996
 31
0.0
  0
LINE
  5
11C29
330
747D
100
AcDbEntity
  8
部品1
 62
     2
 48
50.0
100
AcDbLine
 10
15181.25312609226
 20
9887.083082376005
 30
0.0
 11
15166.25312609225
 21
9887.083082376005
 31
0.0
  0
LINE
  5
11C3D
330
747D
100
AcDbEntity
  8
部品1
 62
     2
 48
50.0
100
AcDbLine
 10
13406.25312609225
 20
9988.583082376012
 30
0.0
 11
13401.75312609225
 21
9988.583082376012
 31
0.0
  0
ARC
  5
11C4C
330
747D
100
AcDbEntity
  8
部品1
 62
     2
 48
50.0
100
AcDbCircle
 10
13401.75312609225
 20
9978.083082376011
 30
0.0
 40
10.5
100
AcDbArc
 50
90.0
 51
180.0
  0
LINE
  5
11C52
330
747D
100
AcDbEntity
  8
部品1
 62
     2
 48
50.0
100
AcDbLine
 10
13416.25312609225
 20
10018.583082376
 30
0.0
 11
15156.25312609225
 21
10018.583082376
 31
0.0
  0
LINE
  5
11C53
330
747D
100
AcDbEntity
  8
部品1
 62
     2
 48
50.0
100
AcDbLine
 10
13406.25312609225
 20
9988.583082376012
 30
0.0
 11
15170.75312609225
 21
9988.583082376012
 31
0.0
  0
ARC
  5
11C68
330
747D
100
AcDbEntity
  8
部品1
 62
     2
 48
50.0
100
AcDbCircle
 10
15170.75312609225
 20
9978.083082376011
 30
0.0
 40
10.5
100
AcDbArc
 50
0.0
 51
90.0
  0
LINE
  5
11C69
330
747D
100
AcDbEntity
  8
部品1
 62
     2
 48
50.0
100
AcDbLine
 10
15166.25312609225
 20
9988.583082376012
 30
0.0
 11
15170.75312609225
 21
9988.583082376012
 31
0.0
  0
DIMENSION
  5
11C8D
330
747D
100
AcDbEntity
  8
寸法
 48
50.0
100
AcDbDimension
  2
*D14
 10
15161.7531260922
 20
13256.37127066094
 30
0.0
 11
14286.2531260922
 21
13356.37127066094
 31
0.0
 12
5895.59309577406
 22
-4447.291093309284
 32
0.0
 70
    32
 71
     5
 42
-1.0
  3
INABA_S50G
100
AcDbAlignedDimension
 13
13410.7531260922
 23
13686.81495653355
 33
0.0
 14
15161.7531260922
 24
13686.81495653355
 34
0.0
100
AcDbRotatedDimension
  0
LINE
  5
11CC3
330
747D
100
AcDbEntity
  8
部品1
 62
     2
 48
50.0
100
AcDbLine
 10
13445.25312609222
 20
13740.81495653355
 30
0.0
 11
13445.25312609222
 21
13686.81495653355
 31
0.0
  0
LINE
  5
11CC4
330
747D
100
AcDbEntity
  8
部品1
 62
     2
 48
50.0
100
AcDbLine
 10
13410.7531260922
 20
13740.81495653355
 30
0.0
 11
13410.7531260922
 21
13686.81495653355
 31
0.0
  0
LINE
  5
11CC5
330
747D
100
AcDbEntity
  8
部品1
 62
     2
 48
50.0
100
AcDbLine
 10
15161.7531260922
 20
13740.81495653355
 30
0.0
 11
15161.7531260922
 21
13686.81495653355
 31
0.0
  0
LINE
  5
11CC6
330
747D
100
AcDbEntity
  8
部品1
 62
     2
 48
50.0
100
AcDbLine
 10
15127.25312609221
 20
13740.81495653355
 30
0.0
 11
15127.25312609221
 21
13686.81495653355
 31
0.0
  0
LINE
  5
11CC7
330
747D
100
AcDbEntity
  8
部品1
 62
     2
 48
50.0
100
AcDbLine
 10
15149.35312609221
 20
13702.31495653355
 30
0.0
 11
13423.15312609221
 21
13702.31495653355
 31
0.0
  0
LINE
  5
11CC8
330
747D
100
AcDbEntity
  8
部品1
 62
     2
 48
50.0
100
AcDbLine
 10
15161.7531260922
 20
13686.81495653355
 30
0.0
 11
13410.7531260922
 21
13686.81495653355
 31
0.0
  0
LINE
  5
11E88
330
747D
100
AcDbEntity
  8
部品1
 48
50.0
100
AcDbLine
 10
8916.333941746994
 20
10790.12138126075
 30
0.0
 11
6596.333941746992
 21
10790.12138126075
 31
0.0
  0
DIMENSION
  5
11E89
330
747D
100
AcDbEntity
  8
寸法
 48
50.0
100
AcDbDimension
  2
*D16
 10
9288.4021025998
 20
12590.12138126075
 30
0.0
 11
9188.402102599795
 21
12140.12138126076
 31
0.0
 70
    32
 71
     5
 42
-1.0
  3
INABA_S50G
100
AcDbAlignedDimension
 13
8916.333941746994
 23
11690.12138126075
 33
0.0
 14
8916.333941746994
 24
12590.12138126075
 34
0.0
 50
90.0
100
AcDbRotatedDimension
1001
ACAD
1000
DSTYLE
1002
{
1070
   287
1070
     4
1070
    75
1070
     1
1070
   279
1070
     1
1002
}
  0
DIMENSION
  5
11E8A
330
747D
100
AcDbEntity
  8
寸法
 48
50.0
100
AcDbDimension
  2
*D15
 10
9288.4021025998
 20
11690.12138126075
 30
0.0
 11
9188.4021025998
 21
11212.62138126075
 31
0.0
 12
-3794.355276759743
 22
-188.2503588584803
 32
0.0
 70
    32
 71
     5
 42
-1.0
  3
INABA_S50G
100
AcDbAlignedDimension
 13
8916.333941746994
 23
10735.12138126075
 33
0.0
 14
8916.333941746994
 24
11690.12138126075
 34
0.0
 50
90.0
100
AcDbRotatedDimension
  0
DIMENSION
  5
11EA2
330
747D
100
AcDbEntity
  8
寸法
 48
50.0
100
AcDbDimension
  2
*D18
 10
3238.946518266898
 20
12590.12138126075
 30
0.0
 11
3138.946518266897
 21
12140.12138126076
 31
0.0
 70
    32
 71
     5
 42
-1.0
  3
INABA_S50G
100
AcDbAlignedDimension
 13
2866.878357414091
 23
11690.12138126075
 33
0.0
 14
2866.878357414091
 24
12590.12138126075
 34
0.0
 50
90.0
100
AcDbRotatedDimension
1001
ACAD
1000
DSTYLE
1002
{
1070
   287
1070
     4
1070
    75
1070
     1
1070
   279
1070
     1
1002
}
  0
DIMENSION
  5
11EA3
330
747D
100
AcDbEntity
  8
寸法
 48
50.0
100
AcDbDimension
  2
*D17
 10
3238.946518266898
 20
11690.12138126075
 30
0.0
 11
3138.946518266898
 21
11212.62138126075
 31
0.0
 12
-2952.92940624075
 22
-188.2503588584803
 32
0.0
 70
    32
 71
     5
 42
-1.0
  3
INABA_S50G
100
AcDbAlignedDimension
 13
2866.878357414091
 23
10735.12138126075
 33
0.0
 14
2866.878357414091
 24
11690.12138126075
 34
0.0
 50
90.0
100
AcDbRotatedDimension
  0
LINE
  5
11EC5
330
747D
100
AcDbEntity
  8
部品1
 48
50.0
100
AcDbLine
 10
5587.104174944225
 20
10790.12138126075
 30
0.0
 11
3847.104174944225
 21
10790.12138126075
 31
0.0
  0
LINE
  5
11EC6
330
747D
100
AcDbEntity
  8
部品1
 48
50.0
100
AcDbLine
 10
2866.878357414091
 20
10790.12138126075
 30
0.0
 11
1706.878357414091
 21
10790.12138126075
 31
0.0
  0
LINE
  5
11EC7
330
747D
100
AcDbEntity
  8
部品1
 48
50.0
100
AcDbLine
 10
12292.05351740777
 20
7903.583082375996
 30
0.0
 11
11132.05351740778
 21
7903.583082375996
 31
0.0
  0
LINE
  5
11EC8
330
747D
100
AcDbEntity
  8
部品1
 48
50.0
100
AcDbLine
 10
15156.25312609225
 20
7903.583082375996
 30
0.0
 11
13416.25312609225
 21
7903.583082375996
 31
0.0
  0
LINE
  5
11EE9
330
747D
100
AcDbEntity
  8
部品1
 48
50.0
100
AcDbLine
 10
20127.05225746138
 20
10018.58308237599
 30
0.0
 11
20127.05225746138
 21
7903.583082375989
 31
0.0
  0
LINE
  5
11EEA
330
747D
100
AcDbEntity
  8
部品1
 62
     2
 48
50.0
100
AcDbLine
 10
19894.05225746139
 20
9948.100732376005
 30
0.0
 11
19894.05225746139
 21
9887.083082375994
 31
0.0
  0
LINE
  5
11EEB
330
747D
100
AcDbEntity
  8
部品1
 62
     2
 48
50.0
100
AcDbLine
 10
20127.05225746138
 20
8743.583082375996
 30
0.0
 11
20127.05225746138
 21
10018.58308237599
 31
0.0
  0
DIMENSION
  5
11EEC
330
747D
100
AcDbEntity
  8
寸法
 48
50.0
100
AcDbDimension
  2
*D19
 10
19894.05225746139
 20
8452.482153261451
 30
0.0
 11
19604.04112818453
 21
8452.482153261451
 31
0.0
 12
7569.09355426948
 22
6761.419301955125
 32
0.0
 70
   160
 71
     5
 42
-1.0
  3
INABA_S50G
100
AcDbAlignedDimension
 13
20127.05225746138
 23
8743.583082375996
 33
0.0
 14
19894.05225746139
 24
9887.083082375994
 34
0.0
100
AcDbRotatedDimension
  0
LINE
  5
11EED
330
747D
100
AcDbEntity
  8
部品1
 62
     2
 48
50.0
100
AcDbLine
 10
20073.05225746138
 20
8743.583082375996
 30
0.0
 11
20073.05225746138
 21
9753.583082375989
 31
0.0
  0
LINE
  5
11EEE
330
747D
100
AcDbEntity
  8
部品1
 62
     2
 48
50.0
100
AcDbLine
 10
20127.05225746138
 20
8743.583082375996
 30
0.0
 11
20073.05225746138
 21
8743.583082375996
 31
0.0
  0
LINE
  5
11EEF
330
747D
100
AcDbEntity
  8
部品1
 62
     2
 48
50.0
100
AcDbLine
 10
19894.05225746139
 20
9887.083082375994
 30
0.0
 11
20127.05225746138
 21
9887.083082375994
 31
0.0
  0
LINE
  5
11EF0
330
747D
100
AcDbEntity
  8
部品1
 62
     2
 48
50.0
100
AcDbLine
 10
20029.10075746138
 20
9753.583082375989
 30
0.0
 11
20127.05225746138
 21
9753.583082375989
 31
0.0
  0
LINE
  5
11EF1
330
747D
100
AcDbEntity
  8
部品1
 62
     2
 48
50.0
100
AcDbLine
 10
19909.05225746144
 20
9823.583082375971
 30
0.0
 11
20029.10075746138
 21
9753.583082375989
 31
0.0
  0
LINE
  5
11EF2
330
747D
100
AcDbEntity
  8
部品1
 62
     2
 48
50.0
100
AcDbLine
 10
19909.05225746144
 20
9887.083082375994
 30
0.0
 11
19909.05225746144
 21
9823.583082375971
 31
0.0
  0
LINE
  5
11EF3
330
747D
100
AcDbEntity
  8
部品1
 62
     2
 48
50.0
100
AcDbLine
 10
19903.1543574614
 20
9958.507232376
 30
0.0
 11
20127.05225746138
 21
9988.583082376004
 31
0.0
  0
ARC
  5
11EF4
330
747D
100
AcDbEntity
  8
部品1
 62
     2
 48
50.0
100
AcDbCircle
 10
19904.55225746144
 20
9948.100732376005
 30
0.0
 40
10.5
100
AcDbArc
 50
97.65065100000001
 51
180.0
  0
LINE
  5
11F1C
330
747D
100
AcDbEntity
  8
部品1
 48
50.0
100
AcDbLine
 10
8916.333941746994
 20
12735.12138126075
 30
0.0
 11
6596.333941746992
 21
12735.12138126075
 31
0.0
  0
TEXT
  5
12AFE
330
747D
100
AcDbEntity
  8
部品1
100
AcDbText
 10
4614.043848415809
 20
1281.195240312026
 30
0.0
 40
150.0
  1
GM
  7
STYLE3
 72
     1
 11
4711.505777349819
 21
1356.195240312026
 31
0.0
100
AcDbText
 73
     2
  0
TEXT
  5
12B1C
330
747D
100
AcDbEntity
  8
文字
 62
     7
 48
50.0
100
AcDbText
 10
623.3536029583482
 20
11596.68691933377
 30
0.0
 40
150.0
  1
Sタイプ
  7
STYLE3
100
AcDbText
  0
TEXT
  5
12B1D
330
747D
100
AcDbEntity
  8
文字
 62
     7
 48
50.0
100
AcDbText
 10
612.3467556102768
 20
8600.803849212596
 30
0.0
 40
150.0
  1
Hタイプ
  7
STYLE3
100
AcDbText
  0
DIMENSION
  5
12B1F
330
747D
100
AcDbEntity
  8
寸法
 48
50.0
100
AcDbDimension
  2
*D20
 10
9288.4021025998
 20
9703.583082375995
 30
0.0
 11
9188.402102599795
 21
9253.583082376
 31
0.0
 70
    32
 71
     5
 42
-1.0
  3
INABA_S50G
100
AcDbAlignedDimension
 13
8916.333941746994
 23
8803.583082375997
 33
0.0
 14
8916.333941746994
 24
9703.583082375995
 34
0.0
 50
90.0
100
AcDbRotatedDimension
1001
ACAD
1000
DSTYLE
1002
{
1070
   287
1070
     4
1070
    75
1070
     1
1070
   279
1070
     1
1002
}
  0
DIMENSION
  5
12B20
330
747D
100
AcDbEntity
  8
寸法
 48
50.0
100
AcDbDimension
  2
*D21
 10
9288.4021025998
 20
8803.583082375997
 30
0.0
 11
9188.4021025998
 21
8326.083082375999
 31
0.0
 12
-3794.355276759743
 22
-188.2503588584803
 32
0.0
 70
    32
 71
     5
 42
-1.0
  3
INABA_S50G
100
AcDbAlignedDimension
 13
8916.333941746994
 23
7848.583082375997
 33
0.0
 14
8916.333941746994
 24
8803.583082375997
 34
0.0
 50
90.0
100
AcDbRotatedDimension
  0
LINE
  5
12B21
330
747D
100
AcDbEntity
  8
部品1
 48
50.0
100
AcDbLine
 10
8916.333941746989
 20
10018.58308237599
 30
0.0
 11
6596.333941746991
 21
10018.583082376
 31
0.0
  0
LINE
  5
12B3E
330
747D
100
AcDbEntity
  8
部品1
 48
50.0
100
AcDbLine
 10
6596.333941746991
 20
10018.583082376
 30
0.0
 11
6596.333941746992
 21
7903.583082375996
 31
0.0
  0
LINE
  5
12B3F
330
747D
100
AcDbEntity
  8
部品1
 48
50.0
100
AcDbLine
 10
8916.333941746991
 20
10018.583082376
 30
0.0
 11
8916.333941746994
 21
7903.583082375996
 31
0.0
  0
TEXT
  5
12B41
330
747D
100
AcDbEntity
  8
部品1
100
AcDbText
 10
4685.013753702491
 20
7327.416237102373
 30
0.0
 40
150.0
  1
GSK
  7
STYLE3
 72
     1
 11
4831.206647103506
 21
7402.416237102373
 31
0.0
100
AcDbText
 73
     2
  0
LINE
  5
12B5A
330
747D
100
AcDbEntity
  8
部品1
 62
     2
 48
50.0
100
AcDbLine
 10
6596.333941746992
 20
9703.583082375995
 30
0.0
 11
8916.333941746994
 21
9703.583082375995
 31
0.0
  0
LINE
  5
12B5B
330
747D
100
AcDbEntity
  8
部品1
 62
     2
 48
50.0
100
AcDbLine
 10
6596.333941746992
 20
9685.583082375998
 30
0.0
 11
8916.333941746994
 21
9685.583082375998
 31
0.0
  0
LINE
  5
12B5C
330
747D
100
AcDbEntity
  8
部品1
 62
     2
 48
50.0
100
AcDbLine
 10
6596.333941746992
 20
9656.083082375999
 30
0.0
 11
8916.333941746994
 21
9656.083082375999
 31
0.0
  0
LINE
  5
12B5D
330
747D
100
AcDbEntity
  8
部品1
 62
     2
 48
50.0
100
AcDbLine
 10
6596.333941746992
 20
8803.583082375997
 30
0.0
 11
8916.333941746994
 21
8803.583082375997
 31
0.0
  0
LINE
  5
12B5E
330
747D
100
AcDbEntity
  8
部品1
 62
     2
 48
50.0
100
AcDbLine
 10
8884.333941746994
 20
8835.583082375997
 30
0.0
 11
6628.333941746993
 21
8835.583082375997
 31
0.0
  0
LINE
  5
12B5F
330
747D
100
AcDbEntity
  8
部品1
 62
     2
 48
50.0
100
AcDbLine
 10
8308.33394174699
 20
8855.583082375998
 30
0.0
 11
7204.333941746994
 21
8855.583082375998
 31
0.0
  0
LINE
  5
12B60
330
747D
100
AcDbEntity
  8
部品1
 62
     2
 48
50.0
100
AcDbLine
 10
7729.333941746992
 20
8889.583082375999
 30
0.0
 11
7204.333941746992
 21
8889.583082375999
 31
0.0
  0
LINE
  5
12B61
330
747D
100
AcDbEntity
  8
部品1
 62
     2
 48
50.0
100
AcDbLine
 10
7729.333941746992
 20
9626.083082375998
 30
0.0
 11
7204.333941746992
 21
9626.083082375998
 31
0.0
  0
LINE
  5
12B62
330
747D
100
AcDbEntity
  8
部品1
 48
50.0
100
AcDbLine
 10
8916.333941746994
 20
7903.583082375996
 30
0.0
 11
6596.333941746992
 21
7903.583082375996
 31
0.0
  0
LINE
  5
12B63
330
747D
100
AcDbEntity
  8
部品1
 48
50.0
100
AcDbLine
 10
7176.333941746992
 20
8803.583082375997
 30
0.0
 11
7176.333941746992
 21
7903.583082375996
 31
0.0
  0
LINE
  5
12B64
330
747D
100
AcDbEntity
  8
部品1
 62
     2
 48
50.0
100
AcDbLine
 10
7180.333941746993
 20
9626.083082375998
 30
0.0
 11
6655.333941746992
 21
9626.083082375998
 31
0.0
  0
LINE
  5
12B65
330
747D
100
AcDbEntity
  8
部品1
 62
     2
 48
50.0
100
AcDbLine
 10
7204.333941746994
 20
8846.583082375998
 30
0.0
 11
6628.333941746996
 21
8846.583082375998
 31
0.0
  0
LINE
  5
12B66
330
747D
100
AcDbEntity
  8
部品1
 62
     2
 48
50.0
100
AcDbLine
 10
7180.333941746993
 20
8889.583082375997
 30
0.0
 11
6655.333941746994
 21
8889.583082375997
 31
0.0
  0
LINE
  5
12B67
330
747D
100
AcDbEntity
  8
部品1
 62
     2
 48
50.0
100
AcDbLine
 10
6655.333941746992
 20
9656.083082375999
 30
0.0
 11
6655.333941746994
 21
8846.583082375998
 31
0.0
  0
LINE
  5
12B68
330
747D
100
AcDbEntity
  8
部品1
 62
     2
 48
50.0
100
AcDbLine
 10
6628.333941746993
 20
9656.083082375999
 30
0.0
 11
6628.333941746993
 21
8803.583082375997
 31
0.0
  0
LINE
  5
12B69
330
747D
100
AcDbEntity
  8
部品1
 62
     2
 48
50.0
100
AcDbLine
 10
7204.333941746992
 20
9656.083082375999
 30
0.0
 11
7204.333941746992
 21
8846.583082375998
 31
0.0
  0
LINE
  5
12B6A
330
747D
100
AcDbEntity
  8
部品1
 62
     2
 48
50.0
100
AcDbLine
 10
7180.333941746993
 20
9656.083082375999
 30
0.0
 11
7180.333941746993
 21
8846.583082375998
 31
0.0
  0
LINE
  5
12B6B
330
747D
100
AcDbEntity
  8
部品1
 48
50.0
100
AcDbLine
 10
8336.333941746994
 20
8803.583082375997
 30
0.0
 11
8336.333941746994
 21
7903.583082375996
 31
0.0
  0
LINE
  5
12B6C
330
747D
100
AcDbEntity
  8
部品1
 48
50.0
100
AcDbLine
 10
7756.333941746992
 20
8803.583082375997
 30
0.0
 11
7756.333941746992
 21
7903.583082375996
 31
0.0
  0
LINE
  5
12B6D
330
747D
100
AcDbEntity
  8
部品1
 62
     2
 48
50.0
100
AcDbLine
 10
8332.333941746991
 20
9626.083082375998
 30
0.0
 11
8857.333941746992
 21
9626.083082375998
 31
0.0
  0
LINE
  5
12B6E
330
747D
100
AcDbEntity
  8
部品1
 62
     2
 48
50.0
100
AcDbLine
 10
8332.333941746991
 20
8889.583082375997
 30
0.0
 11
8857.333941746992
 21
8889.583082375997
 31
0.0
  0
LINE
  5
12B6F
330
747D
100
AcDbEntity
  8
部品1
 62
     2
 48
50.0
100
AcDbLine
 10
8308.33394174699
 20
8846.583082375998
 30
0.0
 11
8884.333941746991
 21
8846.583082375998
 31
0.0
  0
LINE
  5
12B70
330
747D
100
AcDbEntity
  8
部品1
 62
     2
 48
50.0
100
AcDbLine
 10
8332.333941746993
 20
9656.083082375999
 30
0.0
 11
8332.333941746993
 21
8846.583082375998
 31
0.0
  0
LINE
  5
12B71
330
747D
100
AcDbEntity
  8
部品1
 62
     2
 48
50.0
100
AcDbLine
 10
8308.333941746992
 20
9656.083082375999
 30
0.0
 11
8308.333941746992
 21
8846.583082375998
 31
0.0
  0
LINE
  5
12B72
330
747D
100
AcDbEntity
  8
部品1
 62
     2
 48
50.0
100
AcDbLine
 10
7756.333941746992
 20
9656.083082375999
 30
0.0
 11
7756.333941746993
 21
8855.583082375998
 31
0.0
  0
LINE
  5
12B73
330
747D
100
AcDbEntity
  8
部品1
 62
     2
 48
50.0
100
AcDbLine
 10
7783.333941746993
 20
9656.083082375999
 30
0.0
 11
7783.333941746993
 21
8855.583082375998
 31
0.0
  0
LINE
  5
12B74
330
747D
100
AcDbEntity
  8
部品1
 62
     2
 48
50.0
100
AcDbLine
 10
7729.333941746992
 20
9656.083082375999
 30
0.0
 11
7729.333941746992
 21
8855.583082375998
 31
0.0
  0
LINE
  5
12B75
330
747D
100
AcDbEntity
  8
部品1
 62
     2
 48
50.0
100
AcDbLine
 10
7783.333941746993
 20
8889.583082375999
 30
0.0
 11
8308.333941746992
 21
8889.583082375999
 31
0.0
  0
LINE
  5
12B76
330
747D
100
AcDbEntity
  8
部品1
 62
     2
 48
50.0
100
AcDbLine
 10
7783.333941746993
 20
9626.083082375998
 30
0.0
 11
8308.333941746992
 21
9626.083082375998
 31
0.0
  0
LINE
  5
12B77
330
747D
100
AcDbEntity
  8
部品1
 62
     2
 48
50.0
100
AcDbLine
 10
8884.333941746994
 20
9656.083082375999
 30
0.0
 11
8884.333941746994
 21
8803.583082375997
 31
0.0
  0
LINE
  5
12B78
330
747D
100
AcDbEntity
  8
部品1
 62
     2
 48
50.0
100
AcDbLine
 10
8857.333941746992
 20
9656.083082375999
 30
0.0
 11
8857.333941746992
 21
8846.583082375998
 31
0.0
  0
LINE
  5
12BC1
330
747D
100
AcDbEntity
  8
部品1
 48
50.0
100
AcDbLine
 10
5587.104174944222
 20
12735.12138126075
 30
0.0
 11
3847.104174944225
 21
12735.12138126075
 31
0.0
  0
LINE
  5
12BC2
330
747D
100
AcDbEntity
  8
部品1
 48
50.0
100
AcDbLine
 10
2866.878357414091
 20
12735.12138126074
 30
0.0
 11
1706.878357414091
 21
12735.12138126074
 31
0.0
  0
TEXT
  5
12BE6
330
747D
100
AcDbEntity
  8
文字
 62
     7
 48
50.0
100
AcDbText
 10
627.1515942092154
 20
5646.352319223235
 30
0.0
 40
150.0
  1
Sタイプ
  7
STYLE3
100
AcDbText
  0
TEXT
  5
12BE7
330
747D
100
AcDbEntity
  8
文字
 62
     7
 48
50.0
100
AcDbText
 10
603.5596722134032
 20
2741.499228475553
 30
0.0
 40
150.0
  1
Hタイプ
  7
STYLE3
100
AcDbText
  0
LINE
  5
12CFC
330
747D
100
AcDbEntity
  8
部品1
 48
50.0
100
AcDbLine
 10
11132.05351740778
 20
10018.583082376
 30
0.0
 11
11132.05351740778
 21
9988.583082376017
 31
0.0
  0
LINE
  5
12CFD
330
747D
100
AcDbEntity
  8
部品1
 48
50.0
100
AcDbLine
 10
12292.05351740777
 20
10018.583082376
 30
0.0
 11
12292.05351740777
 21
9988.583082376017
 31
0.0
  0
LINE
  5
12CFE
330
747D
100
AcDbEntity
  8
部品1
 48
50.0
100
AcDbLine
 10
13416.25312609225
 20
10018.583082376
 30
0.0
 11
13416.25312609225
 21
9988.583082376012
 31
0.0
  0
LINE
  5
12CFF
330
747D
100
AcDbEntity
  8
部品1
 48
50.0
100
AcDbLine
 10
15156.25312609225
 20
10018.583082376
 30
0.0
 11
15156.25312609225
 21
9988.583082376012
 31
0.0
  0
LINE
  5
12D00
330
747D
100
AcDbEntity
  8
部品1
 48
50.0
100
AcDbLine
 10
16401.21032457706
 20
10018.583082376
 30
0.0
 11
16401.21032457706
 21
9988.583082376012
 31
0.0
  0
LINE
  5
12D01
330
747D
100
AcDbEntity
  8
部品1
 48
50.0
100
AcDbLine
 10
18721.21032457705
 20
10018.583082376
 30
0.0
 11
18721.21032457705
 21
9988.583082376012
 31
0.0
  0
LINE
  5
12D38
330
747D
100
AcDbEntity
  8
部品1
 48
50.0
100
AcDbLine
 10
10165.61228020409
 20
10018.58308237599
 30
0.0
 11
10165.61228020409
 21
7903.583082375989
 31
0.0
  0
LINE
  5
12D39
330
747D
100
AcDbEntity
  8
部品1
 62
     2
 48
50.0
100
AcDbLine
 10
10165.61228020409
 20
8743.583082375996
 30
0.0
 11
10165.61228020409
 21
10018.58308237599
 31
0.0
  0
LINE
  5
12D3A
330
747D
100
AcDbEntity
  8
部品1
 62
     2
 48
50.0
100
AcDbLine
 10
10219.61228020409
 20
8743.583082375996
 30
0.0
 11
10219.61228020409
 21
9753.583082375989
 31
0.0
  0
LINE
  5
12D3F
330
747D
100
AcDbEntity
  8
部品1
 62
     2
 48
50.0
100
AcDbLine
 10
10165.61228020409
 20
8743.583082375996
 30
0.0
 11
10219.61228020409
 21
8743.583082375996
 31
0.0
  0
LINE
  5
12D40
330
747D
100
AcDbEntity
  8
部品1
 62
     2
 48
50.0
100
AcDbLine
 10
10383.61228020403
 20
9823.583082375971
 30
0.0
 11
10263.5637802041
 21
9753.583082375989
 31
0.0
  0
LINE
  5
12D41
330
747D
100
AcDbEntity
  8
部品1
 62
     2
 48
50.0
100
AcDbLine
 10
10389.51018020407
 20
9958.507232376
 30
0.0
 11
10165.61228020409
 21
9988.583082376004
 31
0.0
  0
LINE
  5
12D42
330
747D
100
AcDbEntity
  8
部品1
 62
     2
 48
50.0
100
AcDbLine
 10
10398.61228020409
 20
9887.083082375994
 30
0.0
 11
10165.61228020409
 21
9887.083082375994
 31
0.0
  0
LINE
  5
12D43
330
747D
100
AcDbEntity
  8
部品1
 62
     2
 48
50.0
100
AcDbLine
 10
10383.61228020403
 20
9887.083082375994
 30
0.0
 11
10383.61228020403
 21
9823.583082375971
 31
0.0
  0
LINE
  5
12D44
330
747D
100
AcDbEntity
  8
部品1
 62
     2
 48
50.0
100
AcDbLine
 10
10398.61228020409
 20
9948.100732376005
 30
0.0
 11
10398.61228020409
 21
9887.083082375994
 31
0.0
  0
ARC
  5
12D45
330
747D
100
AcDbEntity
  8
部品1
 62
     2
 48
50.0
100
AcDbCircle
 10
10388.11228020404
 20
9948.100732376005
 30
0.0
 40
10.5
100
AcDbArc
 50
0.000000000000007
 51
82.34934900000002
  0
LINE
  5
12D46
330
747D
100
AcDbEntity
  8
部品1
 62
     2
 48
50.0
100
AcDbLine
 10
10263.5637802041
 20
9753.583082375989
 30
0.0
 11
10165.61228020409
 21
9753.583082375989
 31
0.0
  0
DIMENSION
  5
12D48
330
747D
100
AcDbEntity
  8
寸法
 48
50.0
100
AcDbDimension
  2
*D22
 10
10398.61228020409
 20
8452.482153261451
 30
0.0
 11
10688.62340948094
 21
8452.482153261451
 31
0.0
 12
9733.489082911253
 22
4278.700555180178
 32
0.0
 70
   160
 71
     5
 42
-1.0
  3
INABA_S50G
100
AcDbAlignedDimension
 13
10165.61228020409
 23
8743.583082375996
 33
0.0
 14
10398.61228020409
 24
9887.083082375994
 34
0.0
100
AcDbRotatedDimension
  0
LINE
  5
12D9D
330
747D
100
AcDbEntity
  8
部品1
 48
50.0
100
AcDbLine
 10
6614.333941746993
 20
13790.81495653355
 30
0.0
 11
6464.333941746993
 21
13790.81495653355
 31
0.0
  0
LINE
  5
12D9E
330
747D
100
AcDbEntity
  8
部品1
 48
50.0
100
AcDbLine
 10
6614.333941746993
 20
13775.81495653354
 30
0.0
 11
6464.333941746993
 21
13775.81495653354
 31
0.0
  0
LINE
  5
12D9F
330
747D
100
AcDbEntity
  8
部品1
 48
50.0
100
AcDbLine
 10
6596.333941746992
 20
13740.81495653355
 30
0.0
 11
6464.333941746993
 21
13740.81495653355
 31
0.0
  0
LINE
  5
12DA0
330
747D
100
AcDbEntity
  8
部品1
 48
50.0
100
AcDbLine
 10
8916.333941746994
 20
13740.81495653355
 30
0.0
 11
9048.333941746992
 21
13740.81495653355
 31
0.0
  0
LINE
  5
12DA1
330
747D
100
AcDbEntity
  8
部品1
 48
50.0
100
AcDbLine
 10
8898.333941746992
 20
13775.81495653354
 30
0.0
 11
9048.333941746992
 21
13775.81495653354
 31
0.0
  0
LINE
  5
12DA2
330
747D
100
AcDbEntity
  8
部品1
 48
50.0
100
AcDbLine
 10
8898.333941746992
 20
13790.81495653355
 30
0.0
 11
9048.333941746992
 21
13790.81495653355
 31
0.0
  0
LINE
  5
12E7A
330
747D
100
AcDbEntity
  8
部品1
 62
     2
 48
50.0
100
AcDbLine
 10
3906.104174944223
 20
9626.083082375998
 30
0.0
 11
4705.104174944223
 21
9626.083082375998
 31
0.0
  0
LINE
  5
12E7B
330
747D
100
AcDbEntity
  8
部品1
 62
     2
 48
50.0
100
AcDbLine
 10
3906.104174944223
 20
8889.583082375997
 30
0.0
 11
4705.104174944223
 21
8889.583082375997
 31
0.0
  0
LINE
  5
12E7C
330
747D
100
AcDbEntity
  8
部品1
 62
     2
 48
50.0
100
AcDbLine
 10
3904.104174944222
 20
8855.583082375998
 30
0.0
 11
4705.104174944218
 21
8855.583082375998
 31
0.0
  0
LINE
  5
12E7D
330
747D
100
AcDbEntity
  8
部品1
 62
     2
 48
50.0
100
AcDbLine
 10
3847.104174944222
 20
8803.583082375997
 30
0.0
 11
5587.104174944222
 21
8803.583082375997
 31
0.0
  0
LINE
  5
12E7E
330
747D
100
AcDbEntity
  8
部品1
 62
     2
 48
50.0
100
AcDbLine
 10
3847.104174944222
 20
9703.583082375995
 30
0.0
 11
5587.104174944222
 21
9703.583082375995
 31
0.0
  0
LINE
  5
12E7F
330
747D
100
AcDbEntity
  8
部品1
 62
     2
 48
50.0
100
AcDbLine
 10
3847.104174944222
 20
9685.583082375998
 30
0.0
 11
5587.104174944222
 21
9685.583082375998
 31
0.0
  0
LINE
  5
12E80
330
747D
100
AcDbEntity
  8
部品1
 62
     2
 48
50.0
100
AcDbLine
 10
3847.104174944222
 20
9656.083082375999
 30
0.0
 11
5587.104174944222
 21
9656.083082375999
 31
0.0
  0
LINE
  5
12E81
330
747D
100
AcDbEntity
  8
部品1
 62
     2
 48
50.0
100
AcDbLine
 10
3879.104174944222
 20
8835.583082375997
 30
0.0
 11
5555.104174944222
 21
8835.583082375997
 31
0.0
  0
LINE
  5
12E82
330
747D
100
AcDbEntity
  8
部品1
 48
50.0
100
AcDbLine
 10
3847.104174944222
 20
10018.58308237599
 30
0.0
 11
3847.104174944222
 21
7903.583082375996
 31
0.0
  0
LINE
  5
12E83
330
747D
100
AcDbEntity
  8
部品1
 62
     2
 48
50.0
100
AcDbLine
 10
3879.104174944222
 20
9656.083082375999
 30
0.0
 11
3879.104174944222
 21
8803.583082375997
 31
0.0
  0
LINE
  5
12E84
330
747D
100
AcDbEntity
  8
部品1
 62
     2
 48
50.0
100
AcDbLine
 10
3906.104174944223
 20
9656.083082375999
 30
0.0
 11
3906.104174944223
 21
8855.583082375998
 31
0.0
  0
LINE
  5
12E85
330
747D
100
AcDbEntity
  8
部品1
 62
     2
 48
50.0
100
AcDbLine
 10
3879.104174944222
 20
8846.583082375998
 30
0.0
 11
3903.429174944223
 21
8846.583082375998
 31
0.0
  0
LINE
  5
12E86
330
747D
100
AcDbEntity
  8
部品1
 62
     2
 48
50.0
100
AcDbLine
 10
3904.104174944222
 20
8855.583082375998
 30
0.0
 11
3902.604174944222
 21
8835.583082375997
 31
0.0
  0
LINE
  5
12E8B
330
747D
100
AcDbEntity
  8
部品1
 48
50.0
100
AcDbLine
 10
5587.104174944219
 20
10018.58308237599
 30
0.0
 11
5587.104174944222
 21
7903.583082375996
 31
0.0
  0
LINE
  5
12E8C
330
747D
100
AcDbEntity
  8
部品1
 48
50.0
100
AcDbLine
 10
5007.104174944223
 20
8803.583082375997
 30
0.0
 11
5007.104174944223
 21
7903.583082375996
 31
0.0
  0
LINE
  5
12E8D
330
747D
100
AcDbEntity
  8
部品1
 48
50.0
100
AcDbLine
 10
4427.104174944223
 20
8803.583082375997
 30
0.0
 11
4427.104174944223
 21
7903.583082375996
 31
0.0
  0
LINE
  5
12EB2
330
747D
100
AcDbEntity
  8
部品1
 62
     2
 48
50.0
100
AcDbLine
 10
4729.104174944218
 20
9626.083082375998
 30
0.0
 11
5528.104174944222
 21
9626.083082375998
 31
0.0
  0
LINE
  5
12EB3
330
747D
100
AcDbEntity
  8
部品1
 62
     2
 48
50.0
100
AcDbLine
 10
4729.104174944218
 20
8889.583082375997
 30
0.0
 11
5528.104174944218
 21
8889.583082375997
 31
0.0
  0
LINE
  5
12EB4
330
747D
100
AcDbEntity
  8
部品1
 62
     2
 48
50.0
100
AcDbLine
 10
4705.104174944218
 20
8846.583082375998
 30
0.0
 11
5555.104174944219
 21
8846.583082375998
 31
0.0
  0
LINE
  5
12EB5
330
747D
100
AcDbEntity
  8
部品1
 62
     2
 48
50.0
100
AcDbLine
 10
4705.104174944223
 20
9656.083082375999
 30
0.0
 11
4705.104174944223
 21
8846.583082375998
 31
0.0
  0
LINE
  5
12EB6
330
747D
100
AcDbEntity
  8
部品1
 62
     2
 48
50.0
100
AcDbLine
 10
4729.104174944223
 20
9656.083082375999
 30
0.0
 11
4729.104174944223
 21
8846.583082375998
 31
0.0
  0
LINE
  5
12EB7
330
747D
100
AcDbEntity
  8
部品1
 62
     2
 48
50.0
100
AcDbLine
 10
5555.104174944222
 20
9656.083082375999
 30
0.0
 11
5555.104174944222
 21
8803.583082375997
 31
0.0
  0
LINE
  5
12EB8
330
747D
100
AcDbEntity
  8
部品1
 62
     2
 48
50.0
100
AcDbLine
 10
5528.104174944222
 20
9656.083082375999
 30
0.0
 11
5528.104174944218
 21
8846.583082375998
 31
0.0
  0
DIMENSION
  5
12EE8
330
747D
100
AcDbEntity
  8
寸法
 48
50.0
100
AcDbDimension
  2
*D23
 10
5959.172335797028
 20
9703.583082375995
 30
0.0
 11
5859.172335797029
 21
9253.583082376
 31
0.0
 70
    32
 71
     5
 42
-1.0
  3
INABA_S50G
100
AcDbAlignedDimension
 13
5587.104174944222
 23
8803.583082375997
 33
0.0
 14
5587.104174944222
 24
9703.583082375995
 34
0.0
 50
90.0
100
AcDbRotatedDimension
1001
ACAD
1000
DSTYLE
1002
{
1070
   287
1070
     4
1070
    75
1070
     1
1070
   279
1070
     1
1002
}
  0
DIMENSION
  5
12EE9
330
747D
100
AcDbEntity
  8
寸法
 48
50.0
100
AcDbDimension
  2
*D24
 10
5959.172335797028
 20
8803.583082375997
 30
0.0
 11
5859.17233579703
 21
8326.083082375999
 31
0.0
 12
-15080.28203375331
 22
450.5406987581808
 32
0.0
 70
    32
 71
     5
 42
-1.0
  3
INABA_S50G
100
AcDbAlignedDimension
 13
5587.104174944222
 23
7848.583082375997
 33
0.0
 14
5587.104174944222
 24
8803.583082375997
 34
0.0
 50
90.0
100
AcDbRotatedDimension
  0
LINE
  5
12EEA
330
747D
100
AcDbEntity
  8
部品1
 62
     2
 48
50.0
100
AcDbLine
 10
3847.104174944225
 20
13740.81495653356
 30
0.0
 11
5587.104174944225
 21
13740.81495653356
 31
0.0
  0
LINE
  5
12EEB
330
747D
100
AcDbEntity
  8
部品1
 62
     2
 48
50.0
100
AcDbLine
 10
4723.104174944224
 20
13752.31495653355
 30
0.0
 11
5534.104174944225
 21
13752.31495653356
 31
0.0
  0
LINE
  5
12EEC
330
747D
100
AcDbEntity
  8
部品1
 62
     2
 48
50.0
100
AcDbLine
 10
4705.104174944223
 20
13763.81495653355
 30
0.0
 11
5555.104174944225
 21
13763.81495653355
 31
0.0
  0
LINE
  5
12EED
330
747D
100
AcDbEntity
  8
部品1
 62
     2
 48
50.0
100
AcDbLine
 10
5555.104174944225
 20
13801.81495653356
 30
0.0
 11
3879.10417494423
 21
13801.81495653356
 31
0.0
  0
LINE
  5
12EEE
330
747D
100
AcDbEntity
  8
部品1
 62
     2
 48
50.0
100
AcDbLine
 10
5587.104174944225
 20
13802.81495653355
 30
0.0
 11
3847.104174944225
 21
13802.81495653355
 31
0.0
  0
DIMENSION
  5
12EEF
330
747D
100
AcDbEntity
  8
寸法
 48
50.0
100
AcDbDimension
  2
*D25
 10
5593.104174944225
 20
13357.63188454225
 30
0.0
 11
4717.104174944224
 21
13457.64664832177
 31
0.0
 12
-3323.156791641332
 22
-188.2503588584803
 32
0.0
 70
    32
 71
     5
 42
-1.0
  3
INABA_S50G
100
AcDbAlignedDimension
 13
3841.104174944224
 23
13740.81495653356
 33
0.0
 14
5593.104174944225
 24
13740.81495653356
 34
0.0
100
AcDbRotatedDimension
  0
LINE
  5
12EF0
330
747D
100
AcDbEntity
  8
部品1
 62
     2
 48
50.0
100
AcDbLine
 10
3879.104174944226
 20
13774.11495653356
 30
0.0
 11
4729.104174944223
 21
13774.11495653354
 31
0.0
  0
LINE
  5
12EF1
330
747D
100
AcDbEntity
  8
部品1
 62
     2
 48
50.0
100
AcDbLine
 10
3879.104174944226
 20
13797.11495653356
 30
0.0
 11
4729.104174944223
 21
13797.11495653354
 31
0.0
  0
LINE
  5
12EF2
330
747D
100
AcDbEntity
  8
部品1
 62
     2
 48
50.0
100
AcDbLine
 10
3900.104174944226
 20
13785.61495653356
 30
0.0
 11
4711.104174944225
 21
13785.61495653354
 31
0.0
  0
LINE
  5
12EF3
330
747D
100
AcDbEntity
  8
部品1
 62
     2
 48
50.0
100
AcDbLine
 10
3847.104174944225
 20
13790.81495653355
 30
0.0
 11
3847.104174944225
 21
13802.81495653355
 31
0.0
  0
LINE
  5
12EF4
330
747D
100
AcDbEntity
  8
部品1
 62
     2
 48
50.0
100
AcDbLine
 10
3906.104174944227
 20
13774.11495653356
 30
0.0
 11
3906.104174944227
 21
13797.11495653356
 31
0.0
  0
LINE
  5
12EF5
330
747D
100
AcDbEntity
  8
部品1
 62
     2
 48
50.0
100
AcDbLine
 10
3879.10417494423
 20
13790.81495653355
 30
0.0
 11
3865.104174944224
 21
13790.81495653355
 31
0.0
  0
LINE
  5
12EF6
330
747D
100
AcDbEntity
  8
部品1
 62
     2
 48
50.0
100
AcDbLine
 10
3879.104174944225
 20
13740.81495653356
 30
0.0
 11
3879.10417494423
 21
13801.81495653356
 31
0.0
  0
LINE
  5
12EF7
330
747D
100
AcDbEntity
  8
部品1
 48
50.0
100
AcDbLine
 10
3865.104174944217
 20
13775.81495653355
 30
0.0
 11
3865.104174944217
 21
13790.81495653355
 31
0.0
  0
LINE
  5
12EF8
330
747D
100
AcDbEntity
  8
部品1
 48
50.0
100
AcDbLine
 10
3829.104174944217
 20
13775.81495653355
 30
0.0
 11
3829.104174944217
 21
13790.81495653355
 31
0.0
  0
LINE
  5
12EF9
330
747D
100
AcDbEntity
  8
部品1
 48
50.0
100
AcDbLine
 10
3847.104174944222
 20
13740.81495653356
 30
0.0
 11
3847.104174944221
 21
13775.81495653355
 31
0.0
  0
LINE
  5
12EFA
330
747D
100
AcDbEntity
  8
部品1
 62
     2
 48
50.0
100
AcDbLine
 10
4729.104174944223
 20
13740.81495653356
 30
0.0
 11
4729.104174944223
 21
13763.81495653355
 31
0.0
  0
LINE
  5
12EFB
330
747D
100
AcDbEntity
  8
部品1
 62
     2
 48
50.0
100
AcDbLine
 10
4705.104174944223
 20
13740.81495653356
 30
0.0
 11
4705.104174944223
 21
13763.81495653355
 31
0.0
  0
LINE
  5
12EFC
330
747D
100
AcDbEntity
  8
部品1
 62
     2
 48
50.0
100
AcDbLine
 10
4705.104174944223
 20
13774.11495653354
 30
0.0
 11
4705.104174944223
 21
13797.11495653354
 31
0.0
  0
LINE
  5
12EFD
330
747D
100
AcDbEntity
  8
部品1
 62
     2
 48
50.0
100
AcDbLine
 10
4729.104174944223
 20
13774.11495653354
 30
0.0
 11
4729.104174944223
 21
13797.11495653354
 31
0.0
  0
LINE
  5
12EFE
330
747D
100
AcDbEntity
  8
部品1
 48
50.0
100
AcDbLine
 10
5569.104174944218
 20
13790.81495653355
 30
0.0
 11
5719.104174944217
 21
13790.81495653355
 31
0.0
  0
LINE
  5
12EFF
330
747D
100
AcDbEntity
  8
部品1
 62
     2
 48
50.0
100
AcDbLine
 10
5528.104174944225
 20
13740.81495653356
 30
0.0
 11
5528.104174944225
 21
13763.81495653355
 31
0.0
  0
LINE
  5
12F00
330
747D
100
AcDbEntity
  8
部品1
 62
     2
 48
50.0
100
AcDbLine
 10
5555.104174944225
 20
13740.81495653356
 30
0.0
 11
5555.104174944225
 21
13801.81495653356
 31
0.0
  0
LINE
  5
12F01
330
747D
100
AcDbEntity
  8
部品1
 62
     2
 48
50.0
100
AcDbLine
 10
5569.104174944225
 20
13790.81495653355
 30
0.0
 11
5555.104174944225
 21
13790.81495653355
 31
0.0
  0
LINE
  5
12F02
330
747D
100
AcDbEntity
  8
部品1
 62
     2
 48
50.0
100
AcDbLine
 10
5587.104174944225
 20
13790.81495653355
 30
0.0
 11
5587.104174944225
 21
13802.81495653355
 31
0.0
  0
LINE
  5
12F04
330
747D
100
AcDbEntity
  8
部品1
 48
50.0
100
AcDbLine
 10
5587.104174944225
 20
13740.81495653356
 30
0.0
 11
5719.104174944221
 21
13740.81495653356
 31
0.0
  0
LINE
  5
12F06
330
747D
100
AcDbEntity
  8
部品1
 48
50.0
100
AcDbLine
 10
5605.104174944218
 20
13775.81495653354
 30
0.0
 11
5605.104174944218
 21
13790.81495653355
 31
0.0
  0
LINE
  5
12F07
330
747D
100
AcDbEntity
  8
部品1
 48
50.0
100
AcDbLine
 10
5569.104174944218
 20
13775.81495653354
 30
0.0
 11
5569.104174944218
 21
13790.81495653355
 31
0.0
  0
LINE
  5
12F0A
330
747D
100
AcDbEntity
  8
部品1
 48
50.0
100
AcDbLine
 10
5587.104174944225
 20
13740.81495653356
 30
0.0
 11
5587.104174944221
 21
13775.81495653354
 31
0.0
  0
LINE
  5
12F5B
330
747D
100
AcDbEntity
  8
部品1
 48
50.0
100
AcDbLine
 10
3847.104174944222
 20
10018.58308237599
 30
0.0
 11
5587.104174944219
 21
10018.583082376
 31
0.0
  0
LINE
  5
12F5C
330
747D
100
AcDbEntity
  8
部品1
 48
50.0
100
AcDbLine
 10
3847.104174944222
 20
7903.583082375996
 30
0.0
 11
5587.104174944222
 21
7903.583082375999
 31
0.0
  0
LINE
  5
12F5D
330
747D
100
AcDbEntity
  8
部品1
 48
50.0
100
AcDbLine
 10
5569.104174944218
 20
13775.81495653354
 30
0.0
 11
5719.104174944217
 21
13775.81495653354
 31
0.0
  0
LINE
  5
12F5F
330
747D
100
AcDbEntity
  8
部品1
 48
50.0
100
AcDbLine
 10
3847.104174944225
 20
13740.81495653356
 30
0.0
 11
3715.104174944228
 21
13740.81495653356
 31
0.0
  0
LINE
  5
12F60
330
747D
100
AcDbEntity
  8
部品1
 48
50.0
100
AcDbLine
 10
3865.104174944232
 20
13790.81495653355
 30
0.0
 11
3715.104174944232
 21
13790.81495653355
 31
0.0
  0
LINE
  5
12F61
330
747D
100
AcDbEntity
  8
部品1
 48
50.0
100
AcDbLine
 10
3865.104174944232
 20
13775.81495653354
 30
0.0
 11
3715.104174944232
 21
13775.81495653354
 31
0.0
  0
LINE
  5
12FDB
330
747D
100
AcDbEntity
  8
部品1
 62
     2
 48
50.0
100
AcDbLine
 10
1738.878357414091
 20
8846.583082375998
 30
0.0
 11
1763.203357414093
 21
8846.583082375998
 31
0.0
  0
LINE
  5
12FDC
330
747D
100
AcDbEntity
  8
部品1
 62
     2
 48
50.0
100
AcDbLine
 10
1706.878357414091
 20
8803.583082375999
 30
0.0
 11
2866.878357414091
 21
8803.583082375999
 31
0.0
  0
LINE
  5
12FDD
330
747D
100
AcDbEntity
  8
部品1
 62
     2
 48
50.0
100
AcDbLine
 10
1706.878357414091
 20
9703.583082375999
 30
0.0
 11
2866.878357414091
 21
9703.583082375999
 31
0.0
  0
LINE
  5
12FDE
330
747D
100
AcDbEntity
  8
部品1
 62
     2
 48
50.0
100
AcDbLine
 10
1706.878357414091
 20
9685.583082375998
 30
0.0
 11
2866.878357414091
 21
9685.583082375998
 31
0.0
  0
LINE
  5
12FDF
330
747D
100
AcDbEntity
  8
部品1
 62
     2
 48
50.0
100
AcDbLine
 10
1706.878357414091
 20
9656.083082375999
 30
0.0
 11
2866.878357414091
 21
9656.083082375999
 31
0.0
  0
LINE
  5
12FE0
330
747D
100
AcDbEntity
  8
部品1
 62
     2
 48
50.0
100
AcDbLine
 10
1738.878357414091
 20
8835.583082375999
 30
0.0
 11
2834.878357414091
 21
8835.583082375999
 31
0.0
  0
LINE
  5
12FE1
330
747D
100
AcDbEntity
  8
部品1
 48
50.0
100
AcDbLine
 10
1706.878357414091
 20
10018.583082376
 30
0.0
 11
2866.878357414089
 21
10018.583082376
 31
0.0
  0
LINE
  5
12FE2
330
747D
100
AcDbEntity
  8
部品1
 48
50.0
100
AcDbLine
 10
1706.878357414091
 20
7903.583082375996
 30
0.0
 11
2866.878357414091
 21
7903.583082376001
 31
0.0
  0
LINE
  5
12FE3
330
747D
100
AcDbEntity
  8
部品1
 48
50.0
100
AcDbLine
 10
1706.878357414091
 20
10018.583082376
 30
0.0
 11
1706.878357414091
 21
7903.583082375996
 31
0.0
  0
LINE
  5
12FE4
330
747D
100
AcDbEntity
  8
部品1
 62
     2
 48
50.0
100
AcDbLine
 10
1738.878357414091
 20
9656.083082375999
 30
0.0
 11
1738.878357414091
 21
8803.583082375999
 31
0.0
  0
LINE
  5
12FE5
330
747D
100
AcDbEntity
  8
部品1
 62
     2
 48
50.0
100
AcDbLine
 10
2834.878357414091
 20
9656.083082375999
 30
0.0
 11
2834.878357414091
 21
8803.583082375999
 31
0.0
  0
LINE
  5
12FE6
330
747D
100
AcDbEntity
  8
部品1
 62
     2
 48
50.0
100
AcDbLine
 10
2807.878357414091
 20
9656.083082375999
 30
0.0
 11
2807.878357414089
 21
8846.583082375998
 31
0.0
  0
DIMENSION
  5
12FE7
330
747D
100
AcDbEntity
  8
寸法
 48
50.0
100
AcDbDimension
  2
*D26
 10
3238.946518266898
 20
9703.583082375999
 30
0.0
 11
3138.946518266897
 21
9253.583082376
 31
0.0
 70
    32
 71
     5
 42
-1.0
  3
INABA_S50G
100
AcDbAlignedDimension
 13
2866.878357414091
 23
8803.583082375999
 33
0.0
 14
2866.878357414091
 24
9703.583082375999
 34
0.0
 50
90.0
100
AcDbRotatedDimension
1001
ACAD
1000
DSTYLE
1002
{
1070
   287
1070
     4
1070
    75
1070
     1
1070
   279
1070
     1
1002
}
  0
LINE
  5
12FE8
330
747D
100
AcDbEntity
  8
部品1
 48
50.0
100
AcDbLine
 10
2866.878357414089
 20
10018.583082376
 30
0.0
 11
2866.878357414091
 21
7903.583082376001
 31
0.0
  0
LINE
  5
12FE9
330
747D
100
AcDbEntity
  8
部品1
 62
     2
 48
50.0
100
AcDbLine
 10
1765.878357414092
 20
9656.083082375999
 30
0.0
 11
1765.878357414092
 21
8855.583082375998
 31
0.0
  0
LINE
  5
12FEA
330
747D
100
AcDbEntity
  8
部品1
 62
     2
 48
50.0
100
AcDbLine
 10
2274.878357414092
 20
9656.083082375999
 30
0.0
 11
2274.878357414092
 21
8846.583082375998
 31
0.0
  0
LINE
  5
12FEB
330
747D
100
AcDbEntity
  8
部品1
 62
     2
 48
50.0
100
AcDbLine
 10
2298.878357414092
 20
9656.083082375999
 30
0.0
 11
2298.878357414092
 21
8846.583082375998
 31
0.0
  0
LINE
  5
12FEC
330
747D
100
AcDbEntity
  8
部品1
 62
     2
 48
50.0
100
AcDbLine
 10
2274.878357414089
 20
8846.583082375998
 30
0.0
 11
2834.878357414089
 21
8846.583082375998
 31
0.0
  0
LINE
  5
12FEE
330
747D
100
AcDbEntity
  8
部品1
 48
50.0
100
AcDbLine
 10
2286.878357414092
 20
8803.583082375999
 30
0.0
 11
2286.878357414092
 21
7903.583082375996
 31
0.0
  0
LINE
  5
12FEF
330
747D
100
AcDbEntity
  8
部品1
 62
     2
 48
50.0
100
AcDbLine
 10
1765.878357414092
 20
8889.583082375999
 30
0.0
 11
2274.878357414092
 21
8889.583082375999
 31
0.0
  0
LINE
  5
12FF0
330
747D
100
AcDbEntity
  8
部品1
 62
     2
 48
50.0
100
AcDbLine
 10
1763.878357414092
 20
8855.583082375998
 30
0.0
 11
2274.878357414089
 21
8855.583082375998
 31
0.0
  0
LINE
  5
12FF1
330
747D
100
AcDbEntity
  8
部品1
 62
     2
 48
50.0
100
AcDbLine
 10
1763.878357414092
 20
8855.583082375998
 30
0.0
 11
1762.378357414092
 21
8835.583082375999
 31
0.0
  0
LINE
  5
12FF2
330
747D
100
AcDbEntity
  8
部品1
 62
     2
 48
50.0
100
AcDbLine
 10
2298.878357414089
 20
8889.583082375999
 30
0.0
 11
2807.878357414089
 21
8889.583082375999
 31
0.0
  0
DIMENSION
  5
12FF3
330
747D
100
AcDbEntity
  8
寸法
 48
50.0
100
AcDbDimension
  2
*D27
 10
3238.946518266898
 20
8803.583082375999
 30
0.0
 11
3428.946518266899
 21
8326.083082375999
 31
0.0
 12
-6043.382609171466
 22
-188.2503588584803
 32
0.0
 70
    32
 71
     5
 42
-1.0
  3
INABA_S50G
100
AcDbAlignedDimension
 13
2866.878357414091
 23
7848.583082375997
 33
0.0
 14
2866.878357414091
 24
8803.583082375999
 34
0.0
 50
90.0
100
AcDbRotatedDimension
  0
LINE
  5
12FF4
330
747D
100
AcDbEntity
  8
部品1
 62
     2
 48
50.0
100
AcDbLine
 10
1765.878357414092
 20
9626.083082375998
 30
0.0
 11
2274.878357414092
 21
9626.083082375998
 31
0.0
  0
LINE
  5
12FF5
330
747D
100
AcDbEntity
  8
部品1
 62
     2
 48
50.0
100
AcDbLine
 10
2298.878357414089
 20
9626.083082375998
 30
0.0
 11
2807.878357414091
 21
9626.083082375998
 31
0.0
  0
LINE
  5
1309A
330
747D
100
AcDbEntity
  8
部品1
 62
     2
 48
50.0
100
AcDbLine
 10
1738.878357414096
 20
13774.11495653354
 30
0.0
 11
2298.878357414094
 21
13774.11495653354
 31
0.0
  0
LINE
  5
1309B
330
747D
100
AcDbEntity
  8
部品1
 62
     2
 48
50.0
100
AcDbLine
 10
1738.878357414096
 20
13797.11495653354
 30
0.0
 11
2298.878357414094
 21
13797.11495653354
 31
0.0
  0
LINE
  5
1309C
330
747D
100
AcDbEntity
  8
部品1
 62
     2
 48
50.0
100
AcDbLine
 10
1706.878357414094
 20
13740.81495653356
 30
0.0
 11
2866.878357414094
 21
13740.81495653355
 31
0.0
  0
LINE
  5
1309D
330
747D
100
AcDbEntity
  8
部品1
 62
     2
 48
50.0
100
AcDbLine
 10
2834.878357414094
 20
13801.81495653355
 30
0.0
 11
1738.878357414099
 21
13801.81495653356
 31
0.0
  0
LINE
  5
1309E
330
747D
100
AcDbEntity
  8
部品1
 62
     2
 48
50.0
100
AcDbLine
 10
2866.878357414094
 20
13802.81495653355
 30
0.0
 11
1706.878357414094
 21
13802.81495653355
 31
0.0
  0
LINE
  5
1309F
330
747D
100
AcDbEntity
  8
部品1
 48
50.0
100
AcDbLine
 10
1724.878357414101
 20
13775.81495653354
 30
0.0
 11
1574.8783574141
 21
13775.81495653354
 31
0.0
  0
LINE
  5
130A0
330
747D
100
AcDbEntity
  8
部品1
 48
50.0
100
AcDbLine
 10
1724.878357414101
 20
13790.81495653355
 30
0.0
 11
1574.8783574141
 21
13790.81495653355
 31
0.0
  0
LINE
  5
130A1
330
747D
100
AcDbEntity
  8
部品1
 48
50.0
100
AcDbLine
 10
1706.878357414094
 20
13740.81495653356
 30
0.0
 11
1574.878357414098
 21
13740.81495653356
 31
0.0
  0
LINE
  5
130A2
330
747D
100
AcDbEntity
  8
部品1
 62
     2
 48
50.0
100
AcDbLine
 10
1706.878357414094
 20
13790.81495653355
 30
0.0
 11
1706.878357414094
 21
13802.81495653355
 31
0.0
  0
LINE
  5
130A3
330
747D
100
AcDbEntity
  8
部品1
 62
     2
 48
50.0
100
AcDbLine
 10
1738.878357414099
 20
13790.81495653355
 30
0.0
 11
1724.878357414094
 21
13790.81495653355
 31
0.0
  0
LINE
  5
130A4
330
747D
100
AcDbEntity
  8
部品1
 62
     2
 48
50.0
100
AcDbLine
 10
1738.878357414094
 20
13740.81495653356
 30
0.0
 11
1738.878357414099
 21
13801.81495653356
 31
0.0
  0
LINE
  5
130A5
330
747D
100
AcDbEntity
  8
部品1
 48
50.0
100
AcDbLine
 10
1724.878357414087
 20
13775.81495653355
 30
0.0
 11
1724.878357414087
 21
13790.81495653355
 31
0.0
  0
LINE
  5
130A6
330
747D
100
AcDbEntity
  8
部品1
 48
50.0
100
AcDbLine
 10
1688.878357414087
 20
13775.81495653355
 30
0.0
 11
1688.878357414087
 21
13790.81495653355
 31
0.0
  0
LINE
  5
130A7
330
747D
100
AcDbEntity
  8
部品1
 48
50.0
100
AcDbLine
 10
1706.878357414091
 20
13740.81495653356
 30
0.0
 11
1706.87835741409
 21
13775.81495653355
 31
0.0
  0
LINE
  5
130A8
330
747D
100
AcDbEntity
  8
部品1
 62
     2
 48
50.0
100
AcDbLine
 10
2274.878357414094
 20
13763.81495653355
 30
0.0
 11
2834.878357414094
 21
13763.81495653355
 31
0.0
  0
LINE
  5
130A9
330
747D
100
AcDbEntity
  8
部品1
 62
     2
 48
50.0
100
AcDbLine
 10
1759.878357414096
 20
13785.61495653354
 30
0.0
 11
2280.878357414093
 21
13785.61495653354
 31
0.0
  0
LINE
  5
130AA
330
747D
100
AcDbEntity
  8
部品1
 62
     2
 48
50.0
100
AcDbLine
 10
1765.878357414096
 20
13774.11495653354
 30
0.0
 11
1765.878357414096
 21
13797.11495653354
 31
0.0
  0
LINE
  5
130AB
330
747D
100
AcDbEntity
  8
部品1
 62
     2
 48
50.0
100
AcDbLine
 10
2274.878357414094
 20
13740.81495653355
 30
0.0
 11
2274.878357414094
 21
13763.81495653355
 31
0.0
  0
LINE
  5
130AC
330
747D
100
AcDbEntity
  8
部品1
 62
     2
 48
50.0
100
AcDbLine
 10
2274.878357414094
 20
13774.11495653354
 30
0.0
 11
2274.878357414094
 21
13797.11495653354
 31
0.0
  0
LINE
  5
130AD
330
747D
100
AcDbEntity
  8
部品1
 62
     2
 48
50.0
100
AcDbLine
 10
2292.878357414094
 20
13752.31495653355
 30
0.0
 11
2813.878357414094
 21
13752.31495653355
 31
0.0
  0
LINE
  5
130AE
330
747D
100
AcDbEntity
  8
部品1
 62
     2
 48
50.0
100
AcDbLine
 10
2298.878357414094
 20
13740.81495653355
 30
0.0
 11
2298.878357414094
 21
13763.81495653355
 31
0.0
  0
LINE
  5
130AF
330
747D
100
AcDbEntity
  8
部品1
 62
     2
 48
50.0
100
AcDbLine
 10
2298.878357414094
 20
13774.11495653354
 30
0.0
 11
2298.878357414094
 21
13797.11495653354
 31
0.0
  0
LINE
  5
130B0
330
747D
100
AcDbEntity
  8
部品1
 62
     2
 48
50.0
100
AcDbLine
 10
2807.878357414094
 20
13740.81495653355
 30
0.0
 11
2807.878357414094
 21
13763.81495653355
 31
0.0
  0
LINE
  5
130B1
330
747D
100
AcDbEntity
  8
部品1
 48
50.0
100
AcDbLine
 10
2866.878357414094
 20
13740.81495653356
 30
0.0
 11
2998.87835741409
 21
13740.81495653356
 31
0.0
  0
LINE
  5
130B2
330
747D
100
AcDbEntity
  8
部品1
 48
50.0
100
AcDbLine
 10
2848.878357414087
 20
13790.81495653355
 30
0.0
 11
2998.878357414087
 21
13790.81495653355
 31
0.0
  0
LINE
  5
130B3
330
747D
100
AcDbEntity
  8
部品1
 48
50.0
100
AcDbLine
 10
2848.878357414087
 20
13775.81495653354
 30
0.0
 11
2998.878357414087
 21
13775.81495653354
 31
0.0
  0
LINE
  5
130B4
330
747D
100
AcDbEntity
  8
部品1
 62
     2
 48
50.0
100
AcDbLine
 10
2834.878357414094
 20
13740.81495653355
 30
0.0
 11
2834.878357414094
 21
13801.81495653355
 31
0.0
  0
LINE
  5
130B5
330
747D
100
AcDbEntity
  8
部品1
 62
     2
 48
50.0
100
AcDbLine
 10
2848.878357414094
 20
13790.81495653355
 30
0.0
 11
2834.878357414094
 21
13790.81495653355
 31
0.0
  0
LINE
  5
130B6
330
747D
100
AcDbEntity
  8
部品1
 62
     2
 48
50.0
100
AcDbLine
 10
2866.878357414094
 20
13790.81495653355
 30
0.0
 11
2866.878357414094
 21
13802.81495653355
 31
0.0
  0
LINE
  5
130B7
330
747D
100
AcDbEntity
  8
部品1
 48
50.0
100
AcDbLine
 10
2884.878357414087
 20
13775.81495653354
 30
0.0
 11
2884.878357414087
 21
13790.81495653355
 31
0.0
  0
LINE
  5
130B8
330
747D
100
AcDbEntity
  8
部品1
 48
50.0
100
AcDbLine
 10
2848.878357414087
 20
13775.81495653354
 30
0.0
 11
2848.878357414087
 21
13790.81495653355
 31
0.0
  0
LINE
  5
130B9
330
747D
100
AcDbEntity
  8
部品1
 48
50.0
100
AcDbLine
 10
2866.878357414094
 20
13740.81495653355
 30
0.0
 11
2866.878357414091
 21
13775.81495653354
 31
0.0
  0
LINE
  5
13172
330
747D
100
AcDbEntity
  8
部品1
 48
50.0
100
AcDbLine
 10
8916.333941746991
 20
6494.817790641758
 30
0.0
 11
6596.333941746991
 21
6494.817790641755
 31
0.0
  0
LINE
  5
13173
330
747D
100
AcDbEntity
  8
部品1
 62
     2
 48
50.0
100
AcDbLine
 10
6596.333941746991
 20
6349.817790641758
 30
0.0
 11
8916.333941746991
 21
6349.817790641758
 31
0.0
  0
LINE
  5
13174
330
747D
100
AcDbEntity
  8
部品1
 62
     2
 48
50.0
100
AcDbLine
 10
6596.333941746991
 20
6331.817790641759
 30
0.0
 11
8916.333941746991
 21
6331.817790641759
 31
0.0
  0
LINE
  5
13175
330
747D
100
AcDbEntity
  8
部品1
 62
     2
 48
50.0
100
AcDbLine
 10
6596.333941746991
 20
6302.317790641758
 30
0.0
 11
8916.333941746991
 21
6302.317790641758
 31
0.0
  0
LINE
  5
13176
330
747D
100
AcDbEntity
  8
部品1
 62
     2
 48
50.0
100
AcDbLine
 10
6596.333941746991
 20
5279.817790641757
 30
0.0
 11
8916.333941746991
 21
5279.817790641757
 31
0.0
  0
LINE
  5
13177
330
747D
100
AcDbEntity
  8
部品1
 62
     2
 48
50.0
100
AcDbLine
 10
8884.333941746991
 20
5311.817790641757
 30
0.0
 11
6628.333941746991
 21
5311.817790641757
 31
0.0
  0
LINE
  5
13178
330
747D
100
AcDbEntity
  8
部品1
 62
     2
 48
50.0
100
AcDbLine
 10
7204.333941746994
 20
5322.817790641757
 30
0.0
 11
6628.333941746993
 21
5322.817790641757
 31
0.0
  0
LINE
  5
13179
330
747D
100
AcDbEntity
  8
部品1
 62
     2
 48
50.0
100
AcDbLine
 10
7180.333941746993
 20
5365.817790641759
 30
0.0
 11
6655.333941746992
 21
5365.817790641759
 31
0.0
  0
LINE
  5
1317A
330
747D
100
AcDbEntity
  8
部品1
 62
     2
 48
50.0
100
AcDbLine
 10
7180.333941746993
 20
6272.317790641759
 30
0.0
 11
6655.333941746992
 21
6272.317790641759
 31
0.0
  0
LINE
  5
1317B
330
747D
100
AcDbEntity
  8
部品1
 48
50.0
100
AcDbLine
 10
8916.333941746987
 20
3855.688668615512
 30
0.0
 11
6596.333941746991
 21
3855.688668615517
 31
0.0
  0
LINE
  5
1317C
330
747D
100
AcDbEntity
  8
部品1
 62
     2
 48
50.0
100
AcDbLine
 10
6596.333941746991
 20
3540.688668615514
 30
0.0
 11
8916.333941746991
 21
3540.688668615514
 31
0.0
  0
LINE
  5
1317D
330
747D
100
AcDbEntity
  8
部品1
 62
     2
 48
50.0
100
AcDbLine
 10
6596.333941746991
 20
3522.688668615514
 30
0.0
 11
8916.333941746991
 21
3522.688668615514
 31
0.0
  0
LINE
  5
1317E
330
747D
100
AcDbEntity
  8
部品1
 62
     2
 48
50.0
100
AcDbLine
 10
6596.333941746991
 20
3493.188668615514
 30
0.0
 11
8916.333941746991
 21
3493.188668615514
 31
0.0
  0
LINE
  5
1317F
330
747D
100
AcDbEntity
  8
部品1
 62
     2
 48
50.0
100
AcDbLine
 10
6596.333941746991
 20
2470.688668615514
 30
0.0
 11
8916.333941746991
 21
2470.688668615514
 31
0.0
  0
LINE
  5
13180
330
747D
100
AcDbEntity
  8
部品1
 62
     2
 48
50.0
100
AcDbLine
 10
8884.333941746991
 20
2502.688668615514
 30
0.0
 11
6628.333941746991
 21
2502.688668615514
 31
0.0
  0
LINE
  5
13181
330
747D
100
AcDbEntity
  8
部品1
 62
     2
 48
50.0
100
AcDbLine
 10
7180.333941746993
 20
3463.188668615514
 30
0.0
 11
6655.333941746992
 21
3463.188668615514
 31
0.0
  0
LINE
  5
13182
330
747D
100
AcDbEntity
  8
部品1
 62
     2
 48
50.0
100
AcDbLine
 10
7204.333941746994
 20
2513.688668615514
 30
0.0
 11
6628.333941746993
 21
2513.688668615514
 31
0.0
  0
LINE
  5
13183
330
747D
100
AcDbEntity
  8
部品1
 62
     2
 48
50.0
100
AcDbLine
 10
7180.333941746993
 20
2556.688668615514
 30
0.0
 11
6655.333941746992
 21
2556.688668615514
 31
0.0
  0
LINE
  5
13184
330
747D
100
AcDbEntity
  8
部品1
 48
50.0
100
AcDbLine
 10
8916.333941746991
 20
1740.688668615514
 30
0.0
 11
6596.333941746991
 21
1740.688668615514
 31
0.0
  0
LINE
  5
13185
330
747D
100
AcDbEntity
  8
部品1
 48
50.0
100
AcDbLine
 10
8916.333941746991
 20
4549.817790641759
 30
0.0
 11
6596.333941746991
 21
4549.817790641759
 31
0.0
  0
LINE
  5
13186
330
747D
100
AcDbEntity
  8
部品1
 48
50.0
100
AcDbLine
 10
2866.878357414091
 20
6494.817790641748
 30
0.0
 11
2866.878357414091
 21
4549.817790641759
 31
0.0
  0
LINE
  5
13187
330
747D
100
AcDbEntity
  8
部品1
 48
50.0
100
AcDbLine
 10
1706.87835741409
 20
6494.817790641744
 30
0.0
 11
1706.87835741409
 21
4549.817790641759
 31
0.0
  0
LINE
  5
13188
330
747D
100
AcDbEntity
  8
部品1
 48
50.0
100
AcDbLine
 10
6596.333941746991
 20
6494.817790641755
 30
0.0
 11
6596.333941746991
 21
4549.817790641759
 31
0.0
  0
LINE
  5
13189
330
747D
100
AcDbEntity
  8
部品1
 48
50.0
100
AcDbLine
 10
3847.104174944222
 20
6494.817790641748
 30
0.0
 11
3847.104174944222
 21
4549.817790641759
 31
0.0
  0
LINE
  5
1318A
330
747D
100
AcDbEntity
  8
部品1
 48
50.0
100
AcDbLine
 10
5587.104174944222
 20
6494.81779064175
 30
0.0
 11
5587.104174944222
 21
4549.817790641759
 31
0.0
  0
LINE
  5
1318B
330
747D
100
AcDbEntity
  8
部品1
 62
     2
 48
50.0
100
AcDbLine
 10
6655.333941746992
 20
6302.317790641758
 30
0.0
 11
6655.333941746992
 21
5322.817790641757
 31
0.0
  0
LINE
  5
1318C
330
747D
100
AcDbEntity
  8
部品1
 62
     2
 48
50.0
100
AcDbLine
 10
4729.104174944223
 20
6302.317790641758
 30
0.0
 11
4729.104174944223
 21
5322.817790641757
 31
0.0
  0
LINE
  5
1318D
330
747D
100
AcDbEntity
  8
部品1
 62
     2
 48
50.0
100
AcDbLine
 10
5528.104174944222
 20
6302.317790641758
 30
0.0
 11
5528.104174944218
 21
5322.817790641757
 31
0.0
  0
LINE
  5
1318E
330
747D
100
AcDbEntity
  8
部品1
 62
     2
 48
50.0
100
AcDbLine
 10
3906.104174944223
 20
6302.317790641758
 30
0.0
 11
3906.104174944223
 21
5331.817790641759
 31
0.0
  0
LINE
  5
1318F
330
747D
100
AcDbEntity
  8
部品1
 62
     2
 48
50.0
100
AcDbLine
 10
4705.104174944223
 20
6302.317790641758
 30
0.0
 11
4705.104174944223
 21
5322.817790641757
 31
0.0
  0
LINE
  5
13190
330
747D
100
AcDbEntity
  8
部品1
 62
     2
 48
50.0
100
AcDbLine
 10
2807.878357414089
 20
6302.317790641758
 30
0.0
 11
2807.878357414087
 21
5322.817790641757
 31
0.0
  0
LINE
  5
13191
330
747D
100
AcDbEntity
  8
部品1
 62
     2
 48
50.0
100
AcDbLine
 10
2274.87835741409
 20
6302.317790641758
 30
0.0
 11
2274.87835741409
 21
5322.817790641757
 31
0.0
  0
LINE
  5
13192
330
747D
100
AcDbEntity
  8
部品1
 62
     2
 48
50.0
100
AcDbLine
 10
2298.87835741409
 20
6302.317790641758
 30
0.0
 11
2298.87835741409
 21
5322.817790641757
 31
0.0
  0
LINE
  5
13193
330
747D
100
AcDbEntity
  8
部品1
 62
     2
 48
50.0
100
AcDbLine
 10
1765.878357414091
 20
6302.317790641758
 30
0.0
 11
1765.878357414091
 21
5331.817790641759
 31
0.0
  0
LINE
  5
13194
330
747D
100
AcDbEntity
  8
部品1
 62
     2
 48
50.0
100
AcDbLine
 10
6628.333941746991
 20
6302.317790641758
 30
0.0
 11
6628.333941746991
 21
5279.817790641757
 31
0.0
  0
LINE
  5
13195
330
747D
100
AcDbEntity
  8
部品1
 62
     2
 48
50.0
100
AcDbLine
 10
2834.87835741409
 20
6302.317790641758
 30
0.0
 11
2834.87835741409
 21
5279.817790641757
 31
0.0
  0
LINE
  5
13196
330
747D
100
AcDbEntity
  8
部品1
 62
     2
 48
50.0
100
AcDbLine
 10
1738.87835741409
 20
6302.317790641758
 30
0.0
 11
1738.87835741409
 21
5279.817790641757
 31
0.0
  0
LINE
  5
13197
330
747D
100
AcDbEntity
  8
部品1
 62
     2
 48
50.0
100
AcDbLine
 10
3879.104174944222
 20
6302.317790641758
 30
0.0
 11
3879.104174944222
 21
5279.817790641757
 31
0.0
  0
DIMENSION
  5
13198
330
747D
100
AcDbEntity
  8
寸法
 48
50.0
100
AcDbDimension
  2
*D29
 10
5959.172335797028
 20
6349.817790641758
 30
0.0
 11
5859.172335797028
 21
5814.817790641758
 31
0.0
 70
    32
 71
     5
 42
-1.0
  3
INABA_S50G
100
AcDbAlignedDimension
 13
5587.104174944222
 23
5279.817790641757
 33
0.0
 14
5587.104174944222
 24
6349.817790641758
 34
0.0
 50
90.0
100
AcDbRotatedDimension
1001
ACAD
1000
DSTYLE
1002
{
1070
   287
1070
     4
1070
    75
1070
     1
1070
   279
1070
     1
1002
}
  0
LINE
  5
13199
330
747D
100
AcDbEntity
  8
部品1
 62
     2
 48
50.0
100
AcDbLine
 10
5555.104174944222
 20
6302.317790641758
 30
0.0
 11
5555.104174944222
 21
5279.817790641757
 31
0.0
  0
DIMENSION
  5
1319A
330
747D
100
AcDbEntity
  8
寸法
 48
50.0
100
AcDbDimension
  2
*D32
 10
3238.946518266897
 20
6349.817790641758
 30
0.0
 11
3138.946518266896
 21
5814.817790641758
 31
0.0
 70
    32
 71
     5
 42
-1.0
  3
INABA_S50G
100
AcDbAlignedDimension
 13
2866.878357414091
 23
5279.817790641757
 33
0.0
 14
2866.878357414091
 24
6349.817790641758
 34
0.0
 50
90.0
100
AcDbRotatedDimension
1001
ACAD
1000
DSTYLE
1002
{
1070
   287
1070
     4
1070
    75
1070
     1
1070
   279
1070
     1
1002
}
  0
LINE
  5
1319B
330
747D
100
AcDbEntity
  8
部品1
 62
     2
 48
50.0
100
AcDbLine
 10
3879.104174944222
 20
5311.817790641757
 30
0.0
 11
5555.104174944222
 21
5311.817790641757
 31
0.0
  0
LINE
  5
1319C
330
747D
100
AcDbEntity
  8
部品1
 62
     2
 48
50.0
100
AcDbLine
 10
3879.104174944222
 20
5322.817790641757
 30
0.0
 11
3903.429174944223
 21
5322.817790641757
 31
0.0
  0
LINE
  5
1319D
330
747D
100
AcDbEntity
  8
部品1
 62
     2
 48
50.0
100
AcDbLine
 10
3847.104174944222
 20
5279.817790641757
 30
0.0
 11
5587.104174944222
 21
5279.817790641757
 31
0.0
  0
LINE
  5
1319E
330
747D
100
AcDbEntity
  8
部品1
 62
     2
 48
50.0
100
AcDbLine
 10
3879.104174944222
 20
2513.688668615514
 30
0.0
 11
3903.429174944223
 21
2513.688668615514
 31
0.0
  0
LINE
  5
1319F
330
747D
100
AcDbEntity
  8
部品1
 62
     2
 48
50.0
100
AcDbLine
 10
3847.104174944222
 20
2470.688668615514
 30
0.0
 11
5587.104174944222
 21
2470.688668615514
 31
0.0
  0
LINE
  5
131A0
330
747D
100
AcDbEntity
  8
部品1
 62
     2
 48
50.0
100
AcDbLine
 10
3847.104174944222
 20
3540.688668615514
 30
0.0
 11
5587.104174944222
 21
3540.688668615514
 31
0.0
  0
LINE
  5
131A1
330
747D
100
AcDbEntity
  8
部品1
 62
     2
 48
50.0
100
AcDbLine
 10
3847.104174944222
 20
3522.688668615514
 30
0.0
 11
5587.104174944222
 21
3522.688668615514
 31
0.0
  0
LINE
  5
131A2
330
747D
100
AcDbEntity
  8
部品1
 62
     2
 48
50.0
100
AcDbLine
 10
3847.104174944222
 20
3493.188668615514
 30
0.0
 11
5587.104174944222
 21
3493.188668615514
 31
0.0
  0
LINE
  5
131A3
330
747D
100
AcDbEntity
  8
部品1
 62
     2
 48
50.0
100
AcDbLine
 10
3879.104174944222
 20
2502.688668615514
 30
0.0
 11
5555.104174944222
 21
2502.688668615514
 31
0.0
  0
LINE
  5
131A4
330
747D
100
AcDbEntity
  8
部品1
 48
50.0
100
AcDbLine
 10
3847.104174944222
 20
3855.688668615512
 30
0.0
 11
5587.104174944219
 21
3855.688668615517
 31
0.0
  0
LINE
  5
131A5
330
747D
100
AcDbEntity
  8
部品1
 48
50.0
100
AcDbLine
 10
3847.104174944222
 20
1740.688668615512
 30
0.0
 11
5587.104174944222
 21
1740.688668615515
 31
0.0
  0
LINE
  5
131A6
330
747D
100
AcDbEntity
  8
部品1
 48
50.0
100
AcDbLine
 10
5587.104174944222
 20
4549.817790641759
 30
0.0
 11
3847.104174944222
 21
4549.817790641759
 31
0.0
  0
LINE
  5
131A7
330
747D
100
AcDbEntity
  8
部品1
 62
     2
 48
50.0
100
AcDbLine
 10
2274.87835741409
 20
3493.188668615516
 30
0.0
 11
2274.87835741409
 21
2513.688668615515
 31
0.0
  0
LINE
  5
131A8
330
747D
100
AcDbEntity
  8
部品1
 62
     2
 48
50.0
100
AcDbLine
 10
2298.87835741409
 20
3493.188668615516
 30
0.0
 11
2298.87835741409
 21
2513.688668615515
 31
0.0
  0
LINE
  5
131A9
330
747D
100
AcDbEntity
  8
部品1
 48
50.0
100
AcDbLine
 10
2866.878357414087
 20
3855.688668615515
 30
0.0
 11
2866.878357414091
 21
1740.688668615515
 31
0.0
  0
DIMENSION
  5
131AA
330
747D
100
AcDbEntity
  8
寸法
 48
50.0
100
AcDbDimension
  2
*D38
 10
3238.946518266897
 20
3540.688668615515
 30
0.0
 11
3138.946518266896
 21
3005.688668615515
 31
0.0
 70
    32
 71
     5
 42
-1.0
  3
INABA_S50G
100
AcDbAlignedDimension
 13
2866.878357414091
 23
2470.688668615515
 33
0.0
 14
2866.878357414091
 24
3540.688668615516
 34
0.0
 50
90.0
100
AcDbRotatedDimension
1001
ACAD
1000
DSTYLE
1002
{
1070
   287
1070
     4
1070
    75
1070
     1
1070
   279
1070
     1
1002
}
  0
LINE
  5
131AB
330
747D
100
AcDbEntity
  8
部品1
 62
     2
 48
50.0
100
AcDbLine
 10
2807.878357414089
 20
3493.188668615516
 30
0.0
 11
2807.878357414087
 21
2513.688668615515
 31
0.0
  0
LINE
  5
131AC
330
747D
100
AcDbEntity
  8
部品1
 62
     2
 48
50.0
100
AcDbLine
 10
2834.87835741409
 20
3493.188668615516
 30
0.0
 11
2834.87835741409
 21
2470.688668615515
 31
0.0
  0
LINE
  5
131AD
330
747D
100
AcDbEntity
  8
部品1
 62
     2
 48
50.0
100
AcDbLine
 10
1765.878357414091
 20
3493.188668615516
 30
0.0
 11
1765.878357414091
 21
2522.688668615515
 31
0.0
  0
LINE
  5
131AE
330
747D
100
AcDbEntity
  8
部品1
 62
     2
 48
50.0
100
AcDbLine
 10
1738.87835741409
 20
3493.188668615516
 30
0.0
 11
1738.87835741409
 21
2470.688668615515
 31
0.0
  0
LINE
  5
131AF
330
747D
100
AcDbEntity
  8
部品1
 48
50.0
100
AcDbLine
 10
1706.87835741409
 20
3855.688668615515
 30
0.0
 11
1706.87835741409
 21
1740.688668615515
 31
0.0
  0
LINE
  5
131B0
330
747D
100
AcDbEntity
  8
部品1
 48
50.0
100
AcDbLine
 10
3847.104174944222
 20
3855.688668615512
 30
0.0
 11
3847.104174944222
 21
1740.688668615512
 31
0.0
  0
LINE
  5
131B1
330
747D
100
AcDbEntity
  8
部品1
 62
     2
 48
50.0
100
AcDbLine
 10
3879.104174944222
 20
3493.188668615514
 30
0.0
 11
3879.104174944222
 21
2470.688668615514
 31
0.0
  0
LINE
  5
131B2
330
747D
100
AcDbEntity
  8
部品1
 62
     2
 48
50.0
100
AcDbLine
 10
2298.878357414087
 20
2556.688668615516
 30
0.0
 11
2807.878357414087
 21
2556.688668615516
 31
0.0
  0
LINE
  5
131B3
330
747D
100
AcDbEntity
  8
部品1
 62
     2
 48
50.0
100
AcDbLine
 10
2274.878357414086
 20
2513.688668615515
 30
0.0
 11
2834.878357414087
 21
2513.688668615515
 31
0.0
  0
LINE
  5
131B4
330
747D
100
AcDbEntity
  8
部品1
 62
     2
 48
50.0
100
AcDbLine
 10
1706.87835741409
 20
2470.688668615515
 30
0.0
 11
2866.878357414091
 21
2470.688668615515
 31
0.0
  0
LINE
  5
131B5
330
747D
100
AcDbEntity
  8
部品1
 62
     2
 48
50.0
100
AcDbLine
 10
1738.87835741409
 20
2502.688668615515
 30
0.0
 11
2834.87835741409
 21
2502.688668615515
 31
0.0
  0
LINE
  5
131B6
330
747D
100
AcDbEntity
  8
部品1
 48
50.0
100
AcDbLine
 10
1706.87835741409
 20
1740.688668615515
 30
0.0
 11
2866.878357414091
 21
1740.688668615517
 31
0.0
  0
LINE
  5
131B7
330
747D
100
AcDbEntity
  8
部品1
 48
50.0
100
AcDbLine
 10
2286.87835741409
 20
2470.688668615515
 30
0.0
 11
2286.87835741409
 21
1740.688668615515
 31
0.0
  0
LINE
  5
131B8
330
747D
100
AcDbEntity
  8
部品1
 62
     2
 48
50.0
100
AcDbLine
 10
1763.878357414091
 20
2522.688668615515
 30
0.0
 11
2274.878357414086
 21
2522.688668615515
 31
0.0
  0
LINE
  5
131B9
330
747D
100
AcDbEntity
  8
部品1
 62
     2
 48
50.0
100
AcDbLine
 10
1765.878357414091
 20
2556.688668615516
 30
0.0
 11
2274.87835741409
 21
2556.688668615516
 31
0.0
  0
LINE
  5
131BA
330
747D
100
AcDbEntity
  8
部品1
 62
     2
 48
50.0
100
AcDbLine
 10
1763.878357414091
 20
2522.688668615515
 30
0.0
 11
1762.378357414091
 21
2502.688668615515
 31
0.0
  0
LINE
  5
131BB
330
747D
100
AcDbEntity
  8
部品1
 62
     2
 48
50.0
100
AcDbLine
 10
1738.87835741409
 20
2513.688668615515
 30
0.0
 11
1763.203357414091
 21
2513.688668615515
 31
0.0
  0
DIMENSION
  5
131BC
330
747D
100
AcDbEntity
  8
寸法
 48
50.0
100
AcDbDimension
  2
*D39
 10
3238.946518266897
 20
2470.688668615515
 30
0.0
 11
3138.946518266897
 21
2078.188668615515
 31
0.0
 12
-2952.92940624075
 22
1094.935263445935
 32
0.0
 70
    32
 71
     5
 42
-1.0
  3
INABA_S50G
100
AcDbAlignedDimension
 13
2866.878357414091
 23
1685.688668615514
 33
0.0
 14
2866.878357414091
 24
2470.688668615515
 34
0.0
 50
90.0
100
AcDbRotatedDimension
  0
LINE
  5
131BD
330
747D
100
AcDbEntity
  8
部品1
 62
     2
 48
50.0
100
AcDbLine
 10
1738.87835741409
 20
5311.817790641757
 30
0.0
 11
2834.87835741409
 21
5311.817790641757
 31
0.0
  0
LINE
  5
131BE
330
747D
100
AcDbEntity
  8
部品1
 62
     2
 48
50.0
100
AcDbLine
 10
2298.878357414087
 20
5365.817790641759
 30
0.0
 11
2807.878357414087
 21
5365.817790641759
 31
0.0
  0
LINE
  5
131BF
330
747D
100
AcDbEntity
  8
部品1
 62
     2
 48
50.0
100
AcDbLine
 10
2274.878357414086
 20
5322.817790641757
 30
0.0
 11
2834.878357414087
 21
5322.817790641757
 31
0.0
  0
LINE
  5
131C0
330
747D
100
AcDbEntity
  8
部品1
 62
     2
 48
50.0
100
AcDbLine
 10
1706.87835741409
 20
5279.817790641757
 30
0.0
 11
2866.878357414091
 21
5279.817790641757
 31
0.0
  0
LINE
  5
131C1
330
747D
100
AcDbEntity
  8
部品1
 62
     2
 48
50.0
100
AcDbLine
 10
2298.878357414087
 20
3463.188668615515
 30
0.0
 11
2807.878357414089
 21
3463.188668615515
 31
0.0
  0
LINE
  5
131C2
330
747D
100
AcDbEntity
  8
部品1
 62
     2
 48
50.0
100
AcDbLine
 10
1706.87835741409
 20
3540.688668615516
 30
0.0
 11
2866.878357414091
 21
3540.688668615516
 31
0.0
  0
LINE
  5
131C3
330
747D
100
AcDbEntity
  8
部品1
 62
     2
 48
50.0
100
AcDbLine
 10
1706.87835741409
 20
3522.688668615516
 30
0.0
 11
2866.878357414091
 21
3522.688668615516
 31
0.0
  0
LINE
  5
131C4
330
747D
100
AcDbEntity
  8
部品1
 62
     2
 48
50.0
100
AcDbLine
 10
1706.87835741409
 20
3493.188668615516
 30
0.0
 11
2866.878357414091
 21
3493.188668615516
 31
0.0
  0
LINE
  5
131C5
330
747D
100
AcDbEntity
  8
部品1
 48
50.0
100
AcDbLine
 10
1706.87835741409
 20
3855.688668615515
 30
0.0
 11
2866.878357414087
 21
3855.688668615519
 31
0.0
  0
LINE
  5
131C6
330
747D
100
AcDbEntity
  8
部品1
 48
50.0
100
AcDbLine
 10
2866.878357414091
 20
4549.817790641759
 30
0.0
 11
1706.87835741409
 21
4549.817790641759
 31
0.0
  0
LINE
  5
131C7
330
747D
100
AcDbEntity
  8
部品1
 62
     2
 48
50.0
100
AcDbLine
 10
1765.878357414091
 20
3463.188668615515
 30
0.0
 11
2274.87835741409
 21
3463.188668615515
 31
0.0
  0
LINE
  5
131C8
330
747D
100
AcDbEntity
  8
部品1
 62
     2
 48
50.0
100
AcDbLine
 10
1765.878357414091
 20
5365.817790641759
 30
0.0
 11
2274.87835741409
 21
5365.817790641759
 31
0.0
  0
LINE
  5
131C9
330
747D
100
AcDbEntity
  8
部品1
 62
     2
 48
50.0
100
AcDbLine
 10
1763.878357414091
 20
5331.817790641759
 30
0.0
 11
2274.878357414086
 21
5331.817790641759
 31
0.0
  0
LINE
  5
131CA
330
747D
100
AcDbEntity
  8
部品1
 62
     2
 48
50.0
100
AcDbLine
 10
1738.87835741409
 20
5322.817790641757
 30
0.0
 11
1763.203357414091
 21
5322.817790641757
 31
0.0
  0
LINE
  5
131CB
330
747D
100
AcDbEntity
  8
部品1
 62
     2
 48
50.0
100
AcDbLine
 10
1763.878357414091
 20
5331.817790641759
 30
0.0
 11
1762.378357414091
 21
5311.817790641757
 31
0.0
  0
LINE
  5
131CC
330
747D
100
AcDbEntity
  8
部品1
 48
50.0
100
AcDbLine
 10
2286.87835741409
 20
5279.817790641757
 30
0.0
 11
2286.87835741409
 21
4549.817790641759
 31
0.0
  0
DIMENSION
  5
131CD
330
747D
100
AcDbEntity
  8
寸法
 48
50.0
100
AcDbDimension
  2
*D33
 10
3238.946518266897
 20
5279.817790641757
 30
0.0
 11
3138.946518266897
 21
4887.317790641755
 31
0.0
 12
-2952.92940624075
 22
1094.935263445935
 32
0.0
 70
    32
 71
     5
 42
-1.0
  3
INABA_S50G
100
AcDbAlignedDimension
 13
2866.878357414091
 23
4494.817790641757
 33
0.0
 14
2866.878357414091
 24
5279.817790641757
 34
0.0
 50
90.0
100
AcDbRotatedDimension
  0
LINE
  5
131CE
330
747D
100
AcDbEntity
  8
部品1
 48
50.0
100
AcDbLine
 10
6596.333941746991
 20
3855.688668615523
 30
0.0
 11
6596.333941746991
 21
1740.688668615514
 31
0.0
  0
LINE
  5
131CF
330
747D
100
AcDbEntity
  8
部品1
 62
     2
 48
50.0
100
AcDbLine
 10
6655.333941746992
 20
3493.188668615514
 30
0.0
 11
6655.333941746992
 21
2513.688668615514
 31
0.0
  0
LINE
  5
131D0
330
747D
100
AcDbEntity
  8
部品1
 62
     2
 48
50.0
100
AcDbLine
 10
6628.333941746991
 20
3493.188668615514
 30
0.0
 11
6628.333941746991
 21
2470.688668615514
 31
0.0
  0
LINE
  5
131D1
330
747D
100
AcDbEntity
  8
部品1
 62
     2
 48
50.0
100
AcDbLine
 10
5555.104174944222
 20
3493.188668615514
 30
0.0
 11
5555.104174944222
 21
2470.688668615514
 31
0.0
  0
LINE
  5
131D2
330
747D
100
AcDbEntity
  8
部品1
 62
     2
 48
50.0
100
AcDbLine
 10
5528.104174944222
 20
3493.188668615514
 30
0.0
 11
5528.104174944218
 21
2513.688668615514
 31
0.0
  0
DIMENSION
  5
131D3
330
747D
100
AcDbEntity
  8
寸法
 48
50.0
100
AcDbDimension
  2
*D36
 10
5959.172335797028
 20
3540.688668615514
 30
0.0
 11
5859.172335797029
 21
3005.688668615515
 31
0.0
 70
    32
 71
     5
 42
-1.0
  3
INABA_S50G
100
AcDbAlignedDimension
 13
5587.104174944222
 23
2470.688668615514
 33
0.0
 14
5587.104174944222
 24
3540.688668615514
 34
0.0
 50
90.0
100
AcDbRotatedDimension
1001
ACAD
1000
DSTYLE
1002
{
1070
   287
1070
     4
1070
    75
1070
     1
1070
   279
1070
     1
1002
}
  0
LINE
  5
131D4
330
747D
100
AcDbEntity
  8
部品1
 48
50.0
100
AcDbLine
 10
5587.104174944219
 20
3855.688668615512
 30
0.0
 11
5587.104174944222
 21
1740.688668615515
 31
0.0
  0
LINE
  5
131D5
330
747D
100
AcDbEntity
  8
部品1
 62
     2
 48
50.0
100
AcDbLine
 10
3906.104174944223
 20
3493.188668615514
 30
0.0
 11
3906.104174944223
 21
2522.688668615514
 31
0.0
  0
LINE
  5
131D6
330
747D
100
AcDbEntity
  8
部品1
 62
     2
 48
50.0
100
AcDbLine
 10
4705.104174944222
 20
3493.188668615514
 30
0.0
 11
4705.104174944222
 21
2513.688668615514
 31
0.0
  0
LINE
  5
131D7
330
747D
100
AcDbEntity
  8
部品1
 62
     2
 48
50.0
100
AcDbLine
 10
4729.104174944222
 20
3493.188668615514
 30
0.0
 11
4729.104174944222
 21
2513.688668615514
 31
0.0
  0
LINE
  5
131D8
330
747D
100
AcDbEntity
  8
部品1
 62
     2
 48
50.0
100
AcDbLine
 10
4705.104174944218
 20
2513.688668615514
 30
0.0
 11
5555.104174944219
 21
2513.688668615514
 31
0.0
  0
LINE
  5
131D9
330
747D
100
AcDbEntity
  8
部品1
 48
50.0
100
AcDbLine
 10
5007.104174944223
 20
2470.688668615514
 30
0.0
 11
5007.104174944223
 21
1740.688668615512
 31
0.0
  0
LINE
  5
131DA
330
747D
100
AcDbEntity
  8
部品1
 48
50.0
100
AcDbLine
 10
4427.104174944221
 20
2470.688668615514
 30
0.0
 11
4427.104174944221
 21
1740.688668615512
 31
0.0
  0
LINE
  5
131DB
330
747D
100
AcDbEntity
  8
部品1
 62
     2
 48
50.0
100
AcDbLine
 10
3906.104174944223
 20
2556.688668615514
 30
0.0
 11
4705.104174944222
 21
2556.688668615514
 31
0.0
  0
LINE
  5
131DC
330
747D
100
AcDbEntity
  8
部品1
 62
     2
 48
50.0
100
AcDbLine
 10
3904.104174944222
 20
2522.688668615514
 30
0.0
 11
4705.104174944218
 21
2522.688668615514
 31
0.0
  0
LINE
  5
131DD
330
747D
100
AcDbEntity
  8
部品1
 62
     2
 48
50.0
100
AcDbLine
 10
3904.104174944222
 20
2522.688668615514
 30
0.0
 11
3902.604174944222
 21
2502.688668615514
 31
0.0
  0
LINE
  5
131DE
330
747D
100
AcDbEntity
  8
部品1
 62
     2
 48
50.0
100
AcDbLine
 10
4729.104174944218
 20
2556.688668615514
 30
0.0
 11
5528.104174944218
 21
2556.688668615514
 31
0.0
  0
DIMENSION
  5
131DF
330
747D
100
AcDbEntity
  8
寸法
 48
50.0
100
AcDbDimension
  2
*D37
 10
5959.172335797028
 20
2470.688668615514
 30
0.0
 11
5859.17233579703
 21
2078.188668615513
 31
0.0
 12
-3323.156791641332
 22
1094.935263445935
 32
0.0
 70
    32
 71
     5
 42
-1.0
  3
INABA_S50G
100
AcDbAlignedDimension
 13
5587.104174944222
 23
1685.688668615512
 33
0.0
 14
5587.104174944222
 24
2470.688668615514
 34
0.0
 50
90.0
100
AcDbRotatedDimension
  0
LINE
  5
131E0
330
747D
100
AcDbEntity
  8
部品1
 62
     2
 48
50.0
100
AcDbLine
 10
4705.10417494422
 20
5322.817790641757
 30
0.0
 11
5555.104174944219
 21
5322.817790641757
 31
0.0
  0
LINE
  5
131E1
330
747D
100
AcDbEntity
  8
部品1
 62
     2
 48
50.0
100
AcDbLine
 10
3906.104174944223
 20
3463.188668615514
 30
0.0
 11
4705.104174944222
 21
3463.188668615514
 31
0.0
  0
LINE
  5
131E2
330
747D
100
AcDbEntity
  8
部品1
 62
     2
 48
50.0
100
AcDbLine
 10
4729.104174944218
 20
3463.188668615514
 30
0.0
 11
5528.104174944222
 21
3463.188668615514
 31
0.0
  0
LINE
  5
131E3
330
747D
100
AcDbEntity
  8
部品1
 48
50.0
100
AcDbLine
 10
4427.104174944224
 20
5279.817790641757
 30
0.0
 11
4427.104174944224
 21
4549.817790641759
 31
0.0
  0
LINE
  5
131E4
330
747D
100
AcDbEntity
  8
部品1
 62
     2
 48
50.0
100
AcDbLine
 10
3904.104174944222
 20
5331.817790641759
 30
0.0
 11
4705.10417494422
 21
5331.817790641759
 31
0.0
  0
LINE
  5
131E5
330
747D
100
AcDbEntity
  8
部品1
 62
     2
 48
50.0
100
AcDbLine
 10
3906.104174944223
 20
5365.817790641759
 30
0.0
 11
4705.104174944223
 21
5365.817790641759
 31
0.0
  0
LINE
  5
131E6
330
747D
100
AcDbEntity
  8
部品1
 62
     2
 48
50.0
100
AcDbLine
 10
3904.104174944222
 20
5331.817790641759
 30
0.0
 11
3902.604174944222
 21
5311.817790641757
 31
0.0
  0
LINE
  5
131E7
330
747D
100
AcDbEntity
  8
部品1
 48
50.0
100
AcDbLine
 10
5007.104174944223
 20
5279.817790641757
 30
0.0
 11
5007.104174944223
 21
4549.817790641759
 31
0.0
  0
LINE
  5
131E8
330
747D
100
AcDbEntity
  8
部品1
 62
     2
 48
50.0
100
AcDbLine
 10
4729.10417494422
 20
5365.817790641759
 30
0.0
 11
5528.104174944218
 21
5365.817790641759
 31
0.0
  0
DIMENSION
  5
131E9
330
747D
100
AcDbEntity
  8
寸法
 48
50.0
100
AcDbDimension
  2
*D28
 10
5959.172335797028
 20
5279.817790641757
 30
0.0
 11
5859.17233579703
 21
4887.317790641759
 31
0.0
 12
-3323.156791641332
 22
1094.935263445935
 32
0.0
 70
    32
 71
     5
 42
-1.0
  3
INABA_S50G
100
AcDbAlignedDimension
 13
5587.104174944222
 23
4494.817790641757
 33
0.0
 14
5587.104174944222
 24
5279.817790641757
 34
0.0
 50
90.0
100
AcDbRotatedDimension
  0
LINE
  5
131EA
330
747D
100
AcDbEntity
  8
部品1
 48
50.0
100
AcDbLine
 10
5587.104174944222
 20
6494.81779064175
 30
0.0
 11
3847.104174944222
 21
6494.81779064175
 31
0.0
  0
LINE
  5
131EB
330
747D
100
AcDbEntity
  8
部品1
 62
     2
 48
50.0
100
AcDbLine
 10
3847.104174944222
 20
6302.317790641758
 30
0.0
 11
5587.104174944222
 21
6302.317790641758
 31
0.0
  0
LINE
  5
131EC
330
747D
100
AcDbEntity
  8
部品1
 62
     2
 48
50.0
100
AcDbLine
 10
3847.104174944222
 20
6331.817790641759
 30
0.0
 11
5587.104174944222
 21
6331.817790641759
 31
0.0
  0
LINE
  5
131ED
330
747D
100
AcDbEntity
  8
部品1
 62
     2
 48
50.0
100
AcDbLine
 10
3847.104174944222
 20
6349.817790641758
 30
0.0
 11
5587.104174944222
 21
6349.817790641758
 31
0.0
  0
LINE
  5
131EE
330
747D
100
AcDbEntity
  8
部品1
 48
50.0
100
AcDbLine
 10
2866.878357414091
 20
6494.817790641748
 30
0.0
 11
1706.87835741409
 21
6494.817790641748
 31
0.0
  0
LINE
  5
131EF
330
747D
100
AcDbEntity
  8
部品1
 62
     2
 48
50.0
100
AcDbLine
 10
1706.87835741409
 20
6349.817790641758
 30
0.0
 11
2866.878357414091
 21
6349.817790641758
 31
0.0
  0
LINE
  5
131F0
330
747D
100
AcDbEntity
  8
部品1
 62
     2
 48
50.0
100
AcDbLine
 10
1706.87835741409
 20
6331.817790641759
 30
0.0
 11
2866.878357414091
 21
6331.817790641759
 31
0.0
  0
LINE
  5
131F1
330
747D
100
AcDbEntity
  8
部品1
 62
     2
 48
50.0
100
AcDbLine
 10
1706.87835741409
 20
6302.317790641758
 30
0.0
 11
2866.878357414091
 21
6302.317790641758
 31
0.0
  0
LINE
  5
131F2
330
747D
100
AcDbEntity
  8
部品1
 62
     2
 48
50.0
100
AcDbLine
 10
2298.878357414087
 20
6272.317790641759
 30
0.0
 11
2807.878357414089
 21
6272.317790641759
 31
0.0
  0
LINE
  5
131F3
330
747D
100
AcDbEntity
  8
部品1
 62
     2
 48
50.0
100
AcDbLine
 10
1765.878357414091
 20
6272.317790641759
 30
0.0
 11
2274.87835741409
 21
6272.317790641759
 31
0.0
  0
LINE
  5
131F4
330
747D
100
AcDbEntity
  8
部品1
 62
     2
 48
50.0
100
AcDbLine
 10
3906.104174944223
 20
6272.317790641759
 30
0.0
 11
4705.104174944223
 21
6272.317790641759
 31
0.0
  0
LINE
  5
131F5
330
747D
100
AcDbEntity
  8
部品1
 62
     2
 48
50.0
100
AcDbLine
 10
4729.10417494422
 20
6272.317790641759
 30
0.0
 11
5528.104174944222
 21
6272.317790641759
 31
0.0
  0
LINE
  5
131F6
330
747D
100
AcDbEntity
  8
部品1
 48
50.0
100
AcDbLine
 10
8916.333941746991
 20
6494.817790641758
 30
0.0
 11
8916.333941746991
 21
4549.817790641759
 31
0.0
  0
LINE
  5
131F7
330
747D
100
AcDbEntity
  8
部品1
 62
     2
 48
50.0
100
AcDbLine
 10
8857.333941746992
 20
6302.317790641758
 30
0.0
 11
8857.333941746992
 21
5322.817790641757
 31
0.0
  0
LINE
  5
131F8
330
747D
100
AcDbEntity
  8
部品1
 62
     2
 48
50.0
100
AcDbLine
 10
8332.333941746991
 20
6302.317790641758
 30
0.0
 11
8332.333941746991
 21
5322.817790641757
 31
0.0
  0
LINE
  5
131F9
330
747D
100
AcDbEntity
  8
部品1
 62
     2
 48
50.0
100
AcDbLine
 10
8308.33394174699
 20
6302.317790641758
 30
0.0
 11
8308.33394174699
 21
5322.817790641757
 31
0.0
  0
LINE
  5
131FA
330
747D
100
AcDbEntity
  8
部品1
 62
     2
 48
50.0
100
AcDbLine
 10
7756.333941746991
 20
6302.317790641758
 30
0.0
 11
7756.333941746993
 21
5331.817790641759
 31
0.0
  0
LINE
  5
131FB
330
747D
100
AcDbEntity
  8
部品1
 62
     2
 48
50.0
100
AcDbLine
 10
7783.33394174699
 20
6302.317790641758
 30
0.0
 11
7783.33394174699
 21
5331.817790641759
 31
0.0
  0
LINE
  5
131FC
330
747D
100
AcDbEntity
  8
部品1
 62
     2
 48
50.0
100
AcDbLine
 10
7729.333941746991
 20
6302.317790641758
 30
0.0
 11
7729.333941746991
 21
5331.817790641759
 31
0.0
  0
LINE
  5
131FD
330
747D
100
AcDbEntity
  8
部品1
 62
     2
 48
50.0
100
AcDbLine
 10
7204.333941746991
 20
6302.317790641758
 30
0.0
 11
7204.333941746991
 21
5322.817790641757
 31
0.0
  0
LINE
  5
131FE
330
747D
100
AcDbEntity
  8
部品1
 62
     2
 48
50.0
100
AcDbLine
 10
7180.333941746991
 20
6302.317790641758
 30
0.0
 11
7180.333941746991
 21
5322.817790641757
 31
0.0
  0
LINE
  5
131FF
330
747D
100
AcDbEntity
  8
部品1
 62
     2
 48
50.0
100
AcDbLine
 10
8884.333941746991
 20
6302.317790641758
 30
0.0
 11
8884.333941746991
 21
5279.817790641757
 31
0.0
  0
DIMENSION
  5
13200
330
747D
100
AcDbEntity
  8
寸法
 48
50.0
100
AcDbDimension
  2
*D30
 10
9288.402102599794
 20
6349.817790641758
 30
0.0
 11
9188.402102599795
 21
5814.817790641758
 31
0.0
 70
    32
 71
     5
 42
-1.0
  3
INABA_S50G
100
AcDbAlignedDimension
 13
8916.333941746991
 23
5279.817790641757
 33
0.0
 14
8916.333941746991
 24
6349.817790641758
 34
0.0
 50
90.0
100
AcDbRotatedDimension
1001
ACAD
1000
DSTYLE
1002
{
1070
   287
1070
     4
1070
    75
1070
     1
1070
   279
1070
     1
1002
}
  0
LINE
  5
13201
330
747D
100
AcDbEntity
  8
部品1
 48
50.0
100
AcDbLine
 10
8916.333941746991
 20
3855.688668615523
 30
0.0
 11
8916.333941746991
 21
1740.688668615514
 31
0.0
  0
DIMENSION
  5
13202
330
747D
100
AcDbEntity
  8
寸法
 48
50.0
100
AcDbDimension
  2
*D34
 10
9288.402102599794
 20
3540.688668615512
 30
0.0
 11
9188.402102599795
 21
3005.688668615515
 31
0.0
 70
    32
 71
     5
 42
-1.0
  3
INABA_S50G
100
AcDbAlignedDimension
 13
8916.333941746991
 23
2470.688668615514
 33
0.0
 14
8916.333941746991
 24
3540.688668615514
 34
0.0
 50
90.0
100
AcDbRotatedDimension
1001
ACAD
1000
DSTYLE
1002
{
1070
   287
1070
     4
1070
    75
1070
     1
1070
   279
1070
     1
1002
}
  0
LINE
  5
13203
330
747D
100
AcDbEntity
  8
部品1
 62
     2
 48
50.0
100
AcDbLine
 10
7204.333941746991
 20
3493.188668615514
 30
0.0
 11
7204.333941746991
 21
2513.688668615514
 31
0.0
  0
LINE
  5
13204
330
747D
100
AcDbEntity
  8
部品1
 62
     2
 48
50.0
100
AcDbLine
 10
7180.333941746991
 20
3493.188668615514
 30
0.0
 11
7180.333941746991
 21
2513.688668615514
 31
0.0
  0
LINE
  5
13205
330
747D
100
AcDbEntity
  8
部品1
 62
     2
 48
50.0
100
AcDbLine
 10
8332.333941746991
 20
3493.188668615514
 30
0.0
 11
8332.333941746991
 21
2513.688668615514
 31
0.0
  0
LINE
  5
13206
330
747D
100
AcDbEntity
  8
部品1
 62
     2
 48
50.0
100
AcDbLine
 10
8308.33394174699
 20
3493.188668615514
 30
0.0
 11
8308.33394174699
 21
2513.688668615514
 31
0.0
  0
LINE
  5
13207
330
747D
100
AcDbEntity
  8
部品1
 62
     2
 48
50.0
100
AcDbLine
 10
7756.333941746991
 20
3493.188668615514
 30
0.0
 11
7756.333941746993
 21
2522.688668615514
 31
0.0
  0
LINE
  5
13208
330
747D
100
AcDbEntity
  8
部品1
 62
     2
 48
50.0
100
AcDbLine
 10
7783.33394174699
 20
3493.188668615514
 30
0.0
 11
7783.33394174699
 21
2522.688668615514
 31
0.0
  0
LINE
  5
13209
330
747D
100
AcDbEntity
  8
部品1
 62
     2
 48
50.0
100
AcDbLine
 10
7729.333941746991
 20
3493.188668615514
 30
0.0
 11
7729.333941746991
 21
2522.688668615514
 31
0.0
  0
LINE
  5
1320A
330
747D
100
AcDbEntity
  8
部品1
 62
     2
 48
50.0
100
AcDbLine
 10
8884.333941746991
 20
3493.188668615514
 30
0.0
 11
8884.333941746991
 21
2470.688668615514
 31
0.0
  0
LINE
  5
1320B
330
747D
100
AcDbEntity
  8
部品1
 62
     2
 48
50.0
100
AcDbLine
 10
8857.333941746992
 20
3493.188668615514
 30
0.0
 11
8857.333941746992
 21
2513.688668615514
 31
0.0
  0
LINE
  5
1320C
330
747D
100
AcDbEntity
  8
部品1
 62
     2
 48
50.0
100
AcDbLine
 10
8332.333941746991
 20
2556.688668615514
 30
0.0
 11
8857.333941746986
 21
2556.688668615514
 31
0.0
  0
LINE
  5
1320D
330
747D
100
AcDbEntity
  8
部品1
 62
     2
 48
50.0
100
AcDbLine
 10
8308.33394174699
 20
2513.688668615514
 30
0.0
 11
8884.333941746991
 21
2513.688668615514
 31
0.0
  0
LINE
  5
1320E
330
747D
100
AcDbEntity
  8
部品1
 48
50.0
100
AcDbLine
 10
7176.333941746991
 20
2470.688668615514
 30
0.0
 11
7176.333941746991
 21
1740.688668615514
 31
0.0
  0
LINE
  5
1320F
330
747D
100
AcDbEntity
  8
部品1
 48
50.0
100
AcDbLine
 10
8336.333941746991
 20
2470.688668615514
 30
0.0
 11
8336.333941746991
 21
1740.688668615514
 31
0.0
  0
LINE
  5
13210
330
747D
100
AcDbEntity
  8
部品1
 48
50.0
100
AcDbLine
 10
7756.333941746991
 20
2470.688668615514
 30
0.0
 11
7756.333941746991
 21
1740.688668615514
 31
0.0
  0
LINE
  5
13211
330
747D
100
AcDbEntity
  8
部品1
 62
     2
 48
50.0
100
AcDbLine
 10
8308.33394174699
 20
2522.688668615514
 30
0.0
 11
7204.333941746994
 21
2522.688668615514
 31
0.0
  0
LINE
  5
13212
330
747D
100
AcDbEntity
  8
部品1
 62
     2
 48
50.0
100
AcDbLine
 10
7729.333941746991
 20
2556.688668615516
 30
0.0
 11
7204.333941746991
 21
2556.688668615516
 31
0.0
  0
LINE
  5
13213
330
747D
100
AcDbEntity
  8
部品1
 62
     2
 48
50.0
100
AcDbLine
 10
7783.33394174699
 20
2556.688668615516
 30
0.0
 11
8308.33394174699
 21
2556.688668615516
 31
0.0
  0
DIMENSION
  5
13214
330
747D
100
AcDbEntity
  8
寸法
 48
50.0
100
AcDbDimension
  2
*D35
 10
9288.402102599794
 20
2470.688668615514
 30
0.0
 11
9188.402102599795
 21
2078.188668615513
 31
0.0
 12
-3794.355276759743
 22
1094.935263445935
 32
0.0
 70
    32
 71
     5
 42
-1.0
  3
INABA_S50G
100
AcDbAlignedDimension
 13
8916.333941746991
 23
1685.688668615513
 33
0.0
 14
8916.333941746991
 24
2470.688668615514
 34
0.0
 50
90.0
100
AcDbRotatedDimension
  0
LINE
  5
13215
330
747D
100
AcDbEntity
  8
部品1
 62
     2
 48
50.0
100
AcDbLine
 10
8332.333941746991
 20
5365.817790641759
 30
0.0
 11
8857.333941746986
 21
5365.817790641759
 31
0.0
  0
LINE
  5
13216
330
747D
100
AcDbEntity
  8
部品1
 62
     2
 48
50.0
100
AcDbLine
 10
8308.33394174699
 20
5322.817790641757
 30
0.0
 11
8884.333941746991
 21
5322.817790641757
 31
0.0
  0
LINE
  5
13217
330
747D
100
AcDbEntity
  8
部品1
 62
     2
 48
50.0
100
AcDbLine
 10
8332.333941746991
 20
3463.188668615514
 30
0.0
 11
8857.333941746992
 21
3463.188668615514
 31
0.0
  0
LINE
  5
13218
330
747D
100
AcDbEntity
  8
部品1
 62
     2
 48
50.0
100
AcDbLine
 10
7729.333941746991
 20
3463.188668615515
 30
0.0
 11
7204.333941746991
 21
3463.188668615515
 31
0.0
  0
LINE
  5
13219
330
747D
100
AcDbEntity
  8
部品1
 62
     2
 48
50.0
100
AcDbLine
 10
7783.33394174699
 20
3463.188668615515
 30
0.0
 11
8308.33394174699
 21
3463.188668615515
 31
0.0
  0
LINE
  5
1321A
330
747D
100
AcDbEntity
  8
部品1
 62
     2
 48
50.0
100
AcDbLine
 10
8308.33394174699
 20
5331.817790641759
 30
0.0
 11
7204.333941746994
 21
5331.817790641759
 31
0.0
  0
LINE
  5
1321B
330
747D
100
AcDbEntity
  8
部品1
 62
     2
 48
50.0
100
AcDbLine
 10
7729.333941746991
 20
5365.817790641759
 30
0.0
 11
7204.333941746991
 21
5365.817790641759
 31
0.0
  0
LINE
  5
1321C
330
747D
100
AcDbEntity
  8
部品1
 48
50.0
100
AcDbLine
 10
7176.333941746991
 20
5279.817790641757
 30
0.0
 11
7176.333941746991
 21
4549.817790641759
 31
0.0
  0
LINE
  5
1321D
330
747D
100
AcDbEntity
  8
部品1
 48
50.0
100
AcDbLine
 10
8336.333941746991
 20
5279.817790641757
 30
0.0
 11
8336.333941746991
 21
4549.817790641759
 31
0.0
  0
LINE
  5
1321E
330
747D
100
AcDbEntity
  8
部品1
 48
50.0
100
AcDbLine
 10
7756.333941746991
 20
5279.817790641757
 30
0.0
 11
7756.333941746991
 21
4549.817790641759
 31
0.0
  0
LINE
  5
1321F
330
747D
100
AcDbEntity
  8
部品1
 62
     2
 48
50.0
100
AcDbLine
 10
7783.33394174699
 20
5365.817790641759
 30
0.0
 11
8308.33394174699
 21
5365.817790641759
 31
0.0
  0
DIMENSION
  5
13220
330
747D
100
AcDbEntity
  8
寸法
 48
50.0
100
AcDbDimension
  2
*D31
 10
9288.402102599794
 20
5279.817790641757
 30
0.0
 11
9188.402102599795
 21
4887.317790641759
 31
0.0
 12
-3794.355276759743
 22
1094.935263445935
 32
0.0
 70
    32
 71
     5
 42
-1.0
  3
INABA_S50G
100
AcDbAlignedDimension
 13
8916.333941746991
 23
4494.817790641757
 33
0.0
 14
8916.333941746991
 24
5279.817790641757
 34
0.0
 50
90.0
100
AcDbRotatedDimension
  0
LINE
  5
13221
330
747D
100
AcDbEntity
  8
部品1
 62
     2
 48
50.0
100
AcDbLine
 10
8332.333941746991
 20
6272.317790641759
 30
0.0
 11
8857.333941746992
 21
6272.317790641759
 31
0.0
  0
LINE
  5
13222
330
747D
100
AcDbEntity
  8
部品1
 62
     2
 48
50.0
100
AcDbLine
 10
7729.333941746991
 20
6272.317790641759
 30
0.0
 11
7204.333941746991
 21
6272.317790641759
 31
0.0
  0
LINE
  5
13223
330
747D
100
AcDbEntity
  8
部品1
 62
     2
 48
50.0
100
AcDbLine
 10
7783.33394174699
 20
6272.317790641759
 30
0.0
 11
8308.33394174699
 21
6272.317790641759
 31
0.0
  0
TEXT
  5
1338A
330
747D
100
AcDbEntity
  8
部品1
100
AcDbText
 10
14254.16270485051
 20
7327.416237102372
 30
0.0
 40
150.0
  1
RSK
  7
STYLE3
 72
     1
 11
14400.35559825153
 21
7402.416237102372
 31
0.0
100
AcDbText
 73
     2
  0
DIMENSION
  5
1338B
330
747D
100
AcDbEntity
  8
寸法
 48
50.0
100
AcDbDimension
  2
*D47
 10
10398.61228020409
 20
2289.587739500968
 30
0.0
 11
10688.62340948094
 21
2289.587739500968
 31
0.0
 70
   160
 71
     5
 42
-1.0
  3
INABA_S50G
100
AcDbAlignedDimension
 13
10165.61228020409
 23
2410.688668615514
 33
0.0
 14
10398.61228020409
 24
3724.18866861551
 34
0.0
100
AcDbRotatedDimension
  0
LINE
  5
1338C
330
747D
100
AcDbEntity
  8
部品1
 62
     2
 48
50.0
100
AcDbLine
 10
10219.61228020409
 20
2410.688668615514
 30
0.0
 11
10219.61228020409
 21
3590.688668615507
 31
0.0
  0
LINE
  5
1338D
330
747D
100
AcDbEntity
  8
部品1
 62
     2
 48
50.0
100
AcDbLine
 10
10165.61228020409
 20
2410.688668615514
 30
0.0
 11
10165.61228020409
 21
3855.688668615512
 31
0.0
  0
LINE
  5
1338E
330
747D
100
AcDbEntity
  8
部品1
 48
50.0
100
AcDbLine
 10
10165.61228020409
 20
3855.688668615512
 30
0.0
 11
10165.61228020409
 21
1740.688668615506
 31
0.0
  0
LINE
  5
1338F
330
747D
100
AcDbEntity
  8
部品1
 62
     2
 48
50.0
100
AcDbLine
 10
10165.61228020409
 20
2410.688668615514
 30
0.0
 11
10219.61228020409
 21
2410.688668615514
 31
0.0
  0
LINE
  5
13390
330
747D
100
AcDbEntity
  8
部品1
 62
     2
 48
50.0
100
AcDbLine
 10
10398.61228020409
 20
3724.18866861551
 30
0.0
 11
10165.61228020409
 21
3724.18866861551
 31
0.0
  0
LINE
  5
13391
330
747D
100
AcDbEntity
  8
部品1
 62
     2
 48
50.0
100
AcDbLine
 10
10389.51018020407
 20
3795.612818615515
 30
0.0
 11
10165.61228020409
 21
3825.688668615521
 31
0.0
  0
LINE
  5
13392
330
747D
100
AcDbEntity
  8
部品1
 62
     2
 48
50.0
100
AcDbLine
 10
10383.61228020403
 20
3660.688668615488
 30
0.0
 11
10263.5637802041
 21
3590.688668615507
 31
0.0
  0
LINE
  5
13393
330
747D
100
AcDbEntity
  8
部品1
 62
     2
 48
50.0
100
AcDbLine
 10
10263.5637802041
 20
3590.688668615507
 30
0.0
 11
10165.61228020409
 21
3590.688668615507
 31
0.0
  0
ARC
  5
13394
330
747D
100
AcDbEntity
  8
部品1
 62
     2
 48
50.0
100
AcDbCircle
 10
10388.11228020404
 20
3785.206318615518
 30
0.0
 40
10.5
100
AcDbArc
 50
0.000000000000007
 51
82.34934900000002
  0
LINE
  5
13395
330
747D
100
AcDbEntity
  8
部品1
 62
     2
 48
50.0
100
AcDbLine
 10
10398.61228020409
 20
3785.206318615518
 30
0.0
 11
10398.61228020409
 21
3724.18866861551
 31
0.0
  0
LINE
  5
13396
330
747D
100
AcDbEntity
  8
部品1
 62
     2
 48
50.0
100
AcDbLine
 10
10383.61228020403
 20
3724.18866861551
 30
0.0
 11
10383.61228020403
 21
3660.688668615488
 31
0.0
  0
TEXT
  5
13397
330
747D
100
AcDbEntity
  8
部品1
100
AcDbText
 10
14254.16270485051
 20
1164.521823341889
 30
0.0
 40
150.0
  1
RGM
  7
STYLE3
 72
     1
 11
14400.35559825153
 21
1239.521823341889
 31
0.0
100
AcDbText
 73
     2
  0
LINE
  5
13398
330
747D
100
AcDbEntity
  8
部品1
 62
     2
 48
50.0
100
AcDbLine
 10
16430.21032457705
 20
3388.188668615521
 30
0.0
 11
18692.21032457706
 21
3388.188668615521
 31
0.0
  0
LINE
  5
13399
330
747D
100
AcDbEntity
  8
部品1
 62
     2
 48
50.0
100
AcDbLine
 10
16430.21032457705
 20
3352.188668615528
 30
0.0
 11
18692.21032457706
 21
3352.188668615528
 31
0.0
  0
LINE
  5
1339A
330
747D
100
AcDbEntity
  8
部品1
 62
     2
 48
50.0
100
AcDbLine
 10
16430.21032457705
 20
3316.188668615517
 30
0.0
 11
18692.21032457706
 21
3316.188668615517
 31
0.0
  0
LINE
  5
1339B
330
747D
100
AcDbEntity
  8
部品1
 62
     2
 48
50.0
100
AcDbLine
 10
16430.21032457705
 20
3280.188668615528
 30
0.0
 11
18692.21032457706
 21
3280.188668615528
 31
0.0
  0
LINE
  5
1339C
330
747D
100
AcDbEntity
  8
部品1
 62
     2
 48
50.0
100
AcDbLine
 10
16430.21032457705
 20
3244.188668615535
 30
0.0
 11
18692.21032457706
 21
3244.188668615535
 31
0.0
  0
LINE
  5
1339D
330
747D
100
AcDbEntity
  8
部品1
 62
     2
 48
50.0
100
AcDbLine
 10
16430.21032457705
 20
3208.188668615525
 30
0.0
 11
18692.21032457706
 21
3208.188668615525
 31
0.0
  0
LINE
  5
1339E
330
747D
100
AcDbEntity
  8
部品1
 62
     2
 48
50.0
100
AcDbLine
 10
16430.21032457705
 20
3172.188668615536
 30
0.0
 11
18692.21032457706
 21
3172.188668615536
 31
0.0
  0
LINE
  5
1339F
330
747D
100
AcDbEntity
  8
部品1
 62
     2
 48
50.0
100
AcDbLine
 10
16430.21032457705
 20
3136.188668615521
 30
0.0
 11
18692.21032457706
 21
3136.188668615521
 31
0.0
  0
LINE
  5
133A0
330
747D
100
AcDbEntity
  8
部品1
 62
     2
 48
50.0
100
AcDbLine
 10
16430.21032457705
 20
3100.188668615528
 30
0.0
 11
18692.21032457706
 21
3100.188668615528
 31
0.0
  0
LINE
  5
133A1
330
747D
100
AcDbEntity
  8
部品1
 62
     2
 48
50.0
100
AcDbLine
 10
16430.21032457705
 20
3064.188668615521
 30
0.0
 11
18692.21032457706
 21
3064.188668615521
 31
0.0
  0
LINE
  5
133A2
330
747D
100
AcDbEntity
  8
部品1
 62
     2
 48
50.0
100
AcDbLine
 10
16430.21032457705
 20
3028.188668615528
 30
0.0
 11
18692.21032457706
 21
3028.188668615528
 31
0.0
  0
LINE
  5
133A3
330
747D
100
AcDbEntity
  8
部品1
 62
     2
 48
50.0
100
AcDbLine
 10
16430.21032457705
 20
2992.188668615514
 30
0.0
 11
18692.21032457706
 21
2992.188668615514
 31
0.0
  0
LINE
  5
133A4
330
747D
100
AcDbEntity
  8
部品1
 62
     2
 48
50.0
100
AcDbLine
 10
16430.21032457705
 20
2956.188668615528
 30
0.0
 11
18692.21032457706
 21
2956.188668615528
 31
0.0
  0
LINE
  5
133A5
330
747D
100
AcDbEntity
  8
部品1
 62
     2
 48
50.0
100
AcDbLine
 10
16430.21032457705
 20
2920.188668615535
 30
0.0
 11
18692.21032457706
 21
2920.188668615535
 31
0.0
  0
LINE
  5
133A6
330
747D
100
AcDbEntity
  8
部品1
 62
     2
 48
50.0
100
AcDbLine
 10
16430.21032457705
 20
2884.188668615521
 30
0.0
 11
18692.21032457706
 21
2884.188668615521
 31
0.0
  0
LINE
  5
133A7
330
747D
100
AcDbEntity
  8
部品1
 62
     2
 48
50.0
100
AcDbLine
 10
16430.21032457705
 20
2848.188668615536
 30
0.0
 11
18692.21032457706
 21
2848.188668615536
 31
0.0
  0
LINE
  5
133A8
330
747D
100
AcDbEntity
  8
部品1
 62
     2
 48
50.0
100
AcDbLine
 10
16430.21032457705
 20
2812.188668615521
 30
0.0
 11
18692.21032457706
 21
2812.188668615521
 31
0.0
  0
LINE
  5
133A9
330
747D
100
AcDbEntity
  8
部品1
 62
     2
 48
50.0
100
AcDbLine
 10
16430.21032457705
 20
2776.188668615528
 30
0.0
 11
18692.21032457706
 21
2776.188668615528
 31
0.0
  0
LINE
  5
133AA
330
747D
100
AcDbEntity
  8
部品1
 62
     2
 48
50.0
100
AcDbLine
 10
16430.21032457705
 20
2740.188668615517
 30
0.0
 11
18692.21032457706
 21
2740.188668615517
 31
0.0
  0
LINE
  5
133AB
330
747D
100
AcDbEntity
  8
部品1
 62
     2
 48
50.0
100
AcDbLine
 10
16430.21032457705
 20
2704.188668615528
 30
0.0
 11
18692.21032457706
 21
2704.188668615528
 31
0.0
  0
LINE
  5
133AC
330
747D
100
AcDbEntity
  8
部品1
 62
     2
 48
50.0
100
AcDbLine
 10
16401.21032457706
 20
2411.188668615514
 30
0.0
 11
18721.21032457705
 21
2411.188668615514
 31
0.0
  0
LINE
  5
133AD
330
747D
100
AcDbEntity
  8
部品1
 62
     2
 48
50.0
100
AcDbLine
 10
16430.21032457705
 20
2447.188668615514
 30
0.0
 11
18692.21032457706
 21
2447.188668615514
 31
0.0
  0
LINE
  5
133AE
330
747D
100
AcDbEntity
  8
部品1
 62
     2
 48
50.0
100
AcDbLine
 10
16430.21032457705
 20
2668.188668615513
 30
0.0
 11
18692.21032457706
 21
2668.188668615513
 31
0.0
  0
LINE
  5
133AF
330
747D
100
AcDbEntity
  8
部品1
 62
     2
 48
50.0
100
AcDbLine
 10
16430.21032457705
 20
2462.188668615524
 30
0.0
 11
18692.21032457706
 21
2462.188668615524
 31
0.0
  0
LINE
  5
133B0
330
747D
100
AcDbEntity
  8
部品1
 62
     2
 48
50.0
100
AcDbLine
 10
16391.21032457706
 20
3825.688668615528
 30
0.0
 11
18735.71032457706
 21
3825.688668615528
 31
0.0
  0
LINE
  5
133B1
330
747D
100
AcDbEntity
  8
部品1
 62
     2
 48
50.0
100
AcDbLine
 10
16401.21032457706
 20
3855.688668615525
 30
0.0
 11
18721.21032457705
 21
3855.688668615525
 31
0.0
  0
LINE
  5
133B2
330
747D
100
AcDbEntity
  8
部品1
 62
     2
 48
50.0
100
AcDbLine
 10
16391.21032457706
 20
3590.688668615514
 30
0.0
 11
18731.21032457706
 21
3590.688668615514
 31
0.0
  0
LINE
  5
133B3
330
747D
100
AcDbEntity
  8
部品1
 62
     2
 48
50.0
100
AcDbLine
 10
16391.21032457706
 20
3660.688668615521
 30
0.0
 11
18731.21032457706
 21
3660.688668615521
 31
0.0
  0
LINE
  5
133B4
330
747D
100
AcDbEntity
  8
部品1
 62
     2
 48
50.0
100
AcDbLine
 10
16401.21032457706
 20
3724.188668615521
 30
0.0
 11
18731.21032457706
 21
3724.188668615521
 31
0.0
  0
LINE
  5
133B5
330
747D
100
AcDbEntity
  8
部品1
 62
     2
 48
50.0
100
AcDbLine
 10
16430.21032457705
 20
3496.188668615536
 30
0.0
 11
18692.21032457706
 21
3496.188668615536
 31
0.0
  0
LINE
  5
133B6
330
747D
100
AcDbEntity
  8
部品1
 62
     2
 48
50.0
100
AcDbLine
 10
16430.21032457705
 20
3460.188668615521
 30
0.0
 11
18692.21032457706
 21
3460.188668615521
 31
0.0
  0
LINE
  5
133B7
330
747D
100
AcDbEntity
  8
部品1
 62
     2
 48
50.0
100
AcDbLine
 10
16430.21032457705
 20
3424.188668615532
 30
0.0
 11
18692.21032457706
 21
3424.188668615532
 31
0.0
  0
LINE
  5
133B8
330
747D
100
AcDbEntity
  8
部品1
 62
     2
 48
50.0
100
AcDbLine
 10
16430.21032457705
 20
3525.688668615514
 30
0.0
 11
18692.21032457706
 21
3525.688668615514
 31
0.0
  0
LINE
  5
133B9
330
747D
100
AcDbEntity
  8
部品1
 62
     2
 48
50.0
100
AcDbLine
 10
16430.21032457705
 20
3540.688668615514
 30
0.0
 11
18692.21032457706
 21
3540.688668615514
 31
0.0
  0
LINE
  5
133BA
330
747D
100
AcDbEntity
  8
部品1
 62
     2
 48
50.0
100
AcDbLine
 10
16391.21032457706
 20
3724.188668615521
 30
0.0
 11
17561.21032457706
 21
3724.188668615521
 31
0.0
  0
LINE
  5
133BB
330
747D
100
AcDbEntity
  8
部品1
 48
50.0
100
AcDbLine
 10
18721.21032457705
 20
1740.688668615514
 30
0.0
 11
16401.21032457706
 21
1740.688668615514
 31
0.0
  0
LINE
  5
133BC
330
747D
100
AcDbEntity
  8
部品1
 62
     2
 48
50.0
100
AcDbLine
 10
13406.25312609225
 20
3825.688668615528
 30
0.0
 11
15170.75312609225
 21
3825.688668615528
 31
0.0
  0
LINE
  5
133BD
330
747D
100
AcDbEntity
  8
部品1
 62
     2
 48
50.0
100
AcDbLine
 10
13416.25312609225
 20
3855.688668615525
 30
0.0
 11
15156.25312609225
 21
3855.688668615525
 31
0.0
  0
LINE
  5
133BE
330
747D
100
AcDbEntity
  8
部品1
 62
     2
 48
50.0
100
AcDbLine
 10
13406.25312609225
 20
3590.688668615514
 30
0.0
 11
15166.25312609225
 21
3590.688668615514
 31
0.0
  0
LINE
  5
133BF
330
747D
100
AcDbEntity
  8
部品1
 62
     2
 48
50.0
100
AcDbLine
 10
13406.25312609225
 20
3660.688668615521
 30
0.0
 11
15166.25312609225
 21
3660.688668615521
 31
0.0
  0
LINE
  5
133C0
330
747D
100
AcDbEntity
  8
部品1
 62
     2
 48
50.0
100
AcDbLine
 10
13416.25312609225
 20
3724.188668615521
 30
0.0
 11
15166.25312609225
 21
3724.188668615521
 31
0.0
  0
LINE
  5
133C1
330
747D
100
AcDbEntity
  8
部品1
 62
     2
 48
50.0
100
AcDbLine
 10
13406.25312609225
 20
3724.188668615521
 30
0.0
 11
14576.25312609225
 21
3724.188668615521
 31
0.0
  0
LINE
  5
133C2
330
747D
100
AcDbEntity
  8
部品1
 62
     2
 48
50.0
100
AcDbLine
 10
13445.25312609225
 20
3496.188668615536
 30
0.0
 11
15127.25312609225
 21
3496.188668615536
 31
0.0
  0
LINE
  5
133C3
330
747D
100
AcDbEntity
  8
部品1
 62
     2
 48
50.0
100
AcDbLine
 10
13445.25312609225
 20
3460.188668615521
 30
0.0
 11
15127.25312609225
 21
3460.188668615521
 31
0.0
  0
LINE
  5
133C4
330
747D
100
AcDbEntity
  8
部品1
 62
     2
 48
50.0
100
AcDbLine
 10
13445.25312609225
 20
3424.188668615532
 30
0.0
 11
15127.25312609225
 21
3424.188668615532
 31
0.0
  0
LINE
  5
133C5
330
747D
100
AcDbEntity
  8
部品1
 62
     2
 48
50.0
100
AcDbLine
 10
13445.25312609225
 20
3525.688668615514
 30
0.0
 11
15127.25312609225
 21
3525.688668615514
 31
0.0
  0
LINE
  5
133C6
330
747D
100
AcDbEntity
  8
部品1
 62
     2
 48
50.0
100
AcDbLine
 10
13445.25312609225
 20
3540.688668615514
 30
0.0
 11
15127.25312609225
 21
3540.688668615514
 31
0.0
  0
LINE
  5
133C7
330
747D
100
AcDbEntity
  8
部品1
 62
     2
 48
50.0
100
AcDbLine
 10
13445.25312609225
 20
3388.188668615521
 30
0.0
 11
15127.25312609225
 21
3388.188668615521
 31
0.0
  0
LINE
  5
133C8
330
747D
100
AcDbEntity
  8
部品1
 62
     2
 48
50.0
100
AcDbLine
 10
13445.25312609225
 20
3352.188668615528
 30
0.0
 11
15127.25312609225
 21
3352.188668615528
 31
0.0
  0
LINE
  5
133C9
330
747D
100
AcDbEntity
  8
部品1
 62
     2
 48
50.0
100
AcDbLine
 10
13445.25312609225
 20
3316.188668615514
 30
0.0
 11
15127.25312609225
 21
3316.188668615514
 31
0.0
  0
LINE
  5
133CA
330
747D
100
AcDbEntity
  8
部品1
 62
     2
 48
50.0
100
AcDbLine
 10
13445.25312609225
 20
3280.188668615528
 30
0.0
 11
15127.25312609225
 21
3280.188668615528
 31
0.0
  0
LINE
  5
133CB
330
747D
100
AcDbEntity
  8
部品1
 62
     2
 48
50.0
100
AcDbLine
 10
13445.25312609225
 20
3244.188668615535
 30
0.0
 11
15127.25312609225
 21
3244.188668615535
 31
0.0
  0
LINE
  5
133CC
330
747D
100
AcDbEntity
  8
部品1
 62
     2
 48
50.0
100
AcDbLine
 10
13445.25312609225
 20
3208.188668615521
 30
0.0
 11
15127.25312609225
 21
3208.188668615521
 31
0.0
  0
LINE
  5
133CD
330
747D
100
AcDbEntity
  8
部品1
 62
     2
 48
50.0
100
AcDbLine
 10
13445.25312609225
 20
3172.188668615536
 30
0.0
 11
15127.25312609225
 21
3172.188668615536
 31
0.0
  0
LINE
  5
133CE
330
747D
100
AcDbEntity
  8
部品1
 62
     2
 48
50.0
100
AcDbLine
 10
13445.25312609225
 20
3136.188668615521
 30
0.0
 11
15127.25312609225
 21
3136.188668615521
 31
0.0
  0
LINE
  5
133CF
330
747D
100
AcDbEntity
  8
部品1
 62
     2
 48
50.0
100
AcDbLine
 10
13445.25312609225
 20
3100.188668615528
 30
0.0
 11
15127.25312609225
 21
3100.188668615528
 31
0.0
  0
LINE
  5
133D0
330
747D
100
AcDbEntity
  8
部品1
 62
     2
 48
50.0
100
AcDbLine
 10
13445.25312609225
 20
3064.188668615521
 30
0.0
 11
15127.25312609225
 21
3064.188668615521
 31
0.0
  0
LINE
  5
133D1
330
747D
100
AcDbEntity
  8
部品1
 62
     2
 48
50.0
100
AcDbLine
 10
13445.25312609225
 20
3028.188668615528
 30
0.0
 11
15127.25312609225
 21
3028.188668615528
 31
0.0
  0
LINE
  5
133D2
330
747D
100
AcDbEntity
  8
部品1
 62
     2
 48
50.0
100
AcDbLine
 10
13445.25312609225
 20
2992.188668615514
 30
0.0
 11
15127.25312609225
 21
2992.188668615514
 31
0.0
  0
LINE
  5
133D3
330
747D
100
AcDbEntity
  8
部品1
 62
     2
 48
50.0
100
AcDbLine
 10
13445.25312609225
 20
2956.188668615528
 30
0.0
 11
15127.25312609225
 21
2956.188668615528
 31
0.0
  0
LINE
  5
133D4
330
747D
100
AcDbEntity
  8
部品1
 62
     2
 48
50.0
100
AcDbLine
 10
13445.25312609225
 20
2920.188668615535
 30
0.0
 11
15127.25312609225
 21
2920.188668615535
 31
0.0
  0
LINE
  5
133D5
330
747D
100
AcDbEntity
  8
部品1
 62
     2
 48
50.0
100
AcDbLine
 10
13445.25312609225
 20
2884.188668615521
 30
0.0
 11
15127.25312609225
 21
2884.188668615521
 31
0.0
  0
LINE
  5
133D6
330
747D
100
AcDbEntity
  8
部品1
 62
     2
 48
50.0
100
AcDbLine
 10
13416.25312609225
 20
2411.188668615514
 30
0.0
 11
15156.25312609225
 21
2411.188668615514
 31
0.0
  0
LINE
  5
133D7
330
747D
100
AcDbEntity
  8
部品1
 62
     2
 48
50.0
100
AcDbLine
 10
13445.25312609225
 20
2447.188668615514
 30
0.0
 11
15127.25312609225
 21
2447.188668615514
 31
0.0
  0
LINE
  5
133D8
330
747D
100
AcDbEntity
  8
部品1
 62
     2
 48
50.0
100
AcDbLine
 10
13445.25312609225
 20
2848.188668615536
 30
0.0
 11
15127.25312609225
 21
2848.188668615536
 31
0.0
  0
LINE
  5
133D9
330
747D
100
AcDbEntity
  8
部品1
 62
     2
 48
50.0
100
AcDbLine
 10
13445.25312609225
 20
2812.188668615521
 30
0.0
 11
15127.25312609225
 21
2812.188668615521
 31
0.0
  0
LINE
  5
133DA
330
747D
100
AcDbEntity
  8
部品1
 62
     2
 48
50.0
100
AcDbLine
 10
13445.25312609225
 20
2776.188668615528
 30
0.0
 11
15127.25312609225
 21
2776.188668615528
 31
0.0
  0
LINE
  5
133DB
330
747D
100
AcDbEntity
  8
部品1
 62
     2
 48
50.0
100
AcDbLine
 10
13445.25312609225
 20
2740.188668615517
 30
0.0
 11
15127.25312609225
 21
2740.188668615517
 31
0.0
  0
LINE
  5
133DC
330
747D
100
AcDbEntity
  8
部品1
 62
     2
 48
50.0
100
AcDbLine
 10
13445.25312609225
 20
2704.188668615528
 30
0.0
 11
15127.25312609225
 21
2704.188668615528
 31
0.0
  0
LINE
  5
133DD
330
747D
100
AcDbEntity
  8
部品1
 62
     2
 48
50.0
100
AcDbLine
 10
13445.25312609225
 20
2668.188668615513
 30
0.0
 11
15127.25312609225
 21
2668.188668615513
 31
0.0
  0
LINE
  5
133DE
330
747D
100
AcDbEntity
  8
部品1
 62
     2
 48
50.0
100
AcDbLine
 10
13445.25312609225
 20
2462.188668615524
 30
0.0
 11
15127.25312609225
 21
2462.188668615524
 31
0.0
  0
LINE
  5
133DF
330
747D
100
AcDbEntity
  8
部品1
 48
50.0
100
AcDbLine
 10
15156.25312609225
 20
1740.688668615514
 30
0.0
 11
13416.25312609225
 21
1740.688668615514
 31
0.0
  0
LINE
  5
133E0
330
747D
100
AcDbEntity
  8
部品1
 62
     2
 48
50.0
100
AcDbLine
 10
13445.25312609225
 20
3590.688668615514
 30
0.0
 11
13445.25312609225
 21
2411.188668615514
 31
0.0
  0
DIMENSION
  5
133E1
330
747D
100
AcDbEntity
  8
寸法
 48
50.0
100
AcDbDimension
  2
*D43
 10
12648.92481538717
 20
3825.688668615532
 30
0.0
 11
12548.92481538717
 21
3118.188668615526
 31
0.0
 70
    32
 71
     5
 42
-1.0
  3
INABA_S50G
100
AcDbAlignedDimension
 13
12292.05351740777
 23
2410.688668615518
 33
0.0
 14
12306.55351740778
 24
3825.688668615532
 34
0.0
 50
90.0
100
AcDbRotatedDimension
1001
ACAD
1000
DSTYLE
1002
{
1070
   287
1070
     4
1070
    75
1070
     1
1070
   279
1070
     1
1002
}
  0
LINE
  5
133E2
330
747D
100
AcDbEntity
  8
部品1
 62
     2
 48
50.0
100
AcDbLine
 10
11161.05351740777
 20
3590.688668615517
 30
0.0
 11
11161.05351740777
 21
2411.188668615517
 31
0.0
  0
LINE
  5
133E3
330
747D
100
AcDbEntity
  8
部品1
 62
     2
 48
50.0
100
AcDbLine
 10
12263.05351740778
 20
3590.688668615517
 30
0.0
 11
12263.05351740778
 21
2411.188668615517
 31
0.0
  0
LINE
  5
133E4
330
747D
100
AcDbEntity
  8
部品1
 48
50.0
100
AcDbLine
 10
12292.05351740777
 20
3590.688668615517
 30
0.0
 11
12292.05351740777
 21
1740.688668615517
 31
0.0
  0
LINE
  5
133E5
330
747D
100
AcDbEntity
  8
部品1
 48
50.0
100
AcDbLine
 10
11132.05351740778
 20
3590.688668615517
 30
0.0
 11
11132.05351740778
 21
1740.688668615514
 31
0.0
  0
LINE
  5
133E6
330
747D
100
AcDbEntity
  8
部品1
 48
50.0
100
AcDbLine
 10
13416.25312609225
 20
3590.688668615514
 30
0.0
 11
13416.25312609225
 21
1740.688668615514
 31
0.0
  0
LINE
  5
133E7
330
747D
100
AcDbEntity
  8
部品1
 62
     2
 48
50.0
100
AcDbLine
 10
11161.05351740777
 20
3540.688668615517
 30
0.0
 11
12263.05351740778
 21
3540.688668615517
 31
0.0
  0
LINE
  5
133E8
330
747D
100
AcDbEntity
  8
部品1
 62
     2
 48
50.0
100
AcDbLine
 10
11161.05351740777
 20
3525.688668615517
 30
0.0
 11
12263.05351740778
 21
3525.688668615517
 31
0.0
  0
LINE
  5
133E9
330
747D
100
AcDbEntity
  8
部品1
 62
     2
 48
50.0
100
AcDbLine
 10
11161.05351740777
 20
3424.188668615536
 30
0.0
 11
12263.05351740778
 21
3424.188668615536
 31
0.0
  0
LINE
  5
133EA
330
747D
100
AcDbEntity
  8
部品1
 62
     2
 48
50.0
100
AcDbLine
 10
11161.05351740777
 20
3460.188668615524
 30
0.0
 11
12263.05351740778
 21
3460.188668615524
 31
0.0
  0
LINE
  5
133EB
330
747D
100
AcDbEntity
  8
部品1
 62
     2
 48
50.0
100
AcDbLine
 10
11161.05351740777
 20
3496.188668615536
 30
0.0
 11
12263.05351740778
 21
3496.188668615536
 31
0.0
  0
LINE
  5
133EC
330
747D
100
AcDbEntity
  8
部品1
 62
     2
 48
50.0
100
AcDbLine
 10
11161.05351740777
 20
2462.188668615528
 30
0.0
 11
12263.05351740778
 21
2462.188668615528
 31
0.0
  0
LINE
  5
133ED
330
747D
100
AcDbEntity
  8
部品1
 62
     2
 48
50.0
100
AcDbLine
 10
11161.05351740777
 20
2447.188668615517
 30
0.0
 11
12263.05351740778
 21
2447.188668615517
 31
0.0
  0
LINE
  5
133EE
330
747D
100
AcDbEntity
  8
部品1
 62
     2
 48
50.0
100
AcDbLine
 10
11132.05351740778
 20
2411.188668615517
 30
0.0
 11
12292.05351740777
 21
2411.188668615517
 31
0.0
  0
LINE
  5
133EF
330
747D
100
AcDbEntity
  8
部品1
 62
     2
 48
50.0
100
AcDbLine
 10
11161.05351740777
 20
3028.188668615528
 30
0.0
 11
12263.05351740778
 21
3028.188668615528
 31
0.0
  0
LINE
  5
133F0
330
747D
100
AcDbEntity
  8
部品1
 62
     2
 48
50.0
100
AcDbLine
 10
11161.05351740777
 20
3064.188668615521
 30
0.0
 11
12263.05351740778
 21
3064.188668615521
 31
0.0
  0
LINE
  5
133F1
330
747D
100
AcDbEntity
  8
部品1
 62
     2
 48
50.0
100
AcDbLine
 10
11161.05351740777
 20
3100.188668615535
 30
0.0
 11
12263.05351740778
 21
3100.188668615535
 31
0.0
  0
LINE
  5
133F2
330
747D
100
AcDbEntity
  8
部品1
 62
     2
 48
50.0
100
AcDbLine
 10
11161.05351740777
 20
2668.188668615513
 30
0.0
 11
12263.05351740778
 21
2668.188668615513
 31
0.0
  0
LINE
  5
133F3
330
747D
100
AcDbEntity
  8
部品1
 62
     2
 48
50.0
100
AcDbLine
 10
11161.05351740777
 20
2704.188668615528
 30
0.0
 11
12263.05351740778
 21
2704.188668615528
 31
0.0
  0
LINE
  5
133F4
330
747D
100
AcDbEntity
  8
部品1
 62
     2
 48
50.0
100
AcDbLine
 10
11161.05351740777
 20
2740.188668615521
 30
0.0
 11
12263.05351740778
 21
2740.188668615521
 31
0.0
  0
LINE
  5
133F5
330
747D
100
AcDbEntity
  8
部品1
 62
     2
 48
50.0
100
AcDbLine
 10
11161.05351740777
 20
2776.188668615532
 30
0.0
 11
12263.05351740778
 21
2776.188668615532
 31
0.0
  0
LINE
  5
133F6
330
747D
100
AcDbEntity
  8
部品1
 62
     2
 48
50.0
100
AcDbLine
 10
11161.05351740777
 20
2812.188668615521
 30
0.0
 11
12263.05351740778
 21
2812.188668615521
 31
0.0
  0
LINE
  5
133F7
330
747D
100
AcDbEntity
  8
部品1
 62
     2
 48
50.0
100
AcDbLine
 10
11161.05351740777
 20
2848.188668615536
 30
0.0
 11
12263.05351740778
 21
2848.188668615536
 31
0.0
  0
LINE
  5
133F8
330
747D
100
AcDbEntity
  8
部品1
 62
     2
 48
50.0
100
AcDbLine
 10
11161.05351740777
 20
2884.188668615525
 30
0.0
 11
12263.05351740778
 21
2884.188668615525
 31
0.0
  0
LINE
  5
133F9
330
747D
100
AcDbEntity
  8
部品1
 62
     2
 48
50.0
100
AcDbLine
 10
11161.05351740777
 20
2920.188668615535
 30
0.0
 11
12263.05351740778
 21
2920.188668615535
 31
0.0
  0
LINE
  5
133FA
330
747D
100
AcDbEntity
  8
部品1
 62
     2
 48
50.0
100
AcDbLine
 10
11161.05351740777
 20
2956.188668615528
 30
0.0
 11
12263.05351740778
 21
2956.188668615528
 31
0.0
  0
LINE
  5
133FB
330
747D
100
AcDbEntity
  8
部品1
 62
     2
 48
50.0
100
AcDbLine
 10
11161.05351740777
 20
2992.188668615517
 30
0.0
 11
12263.05351740778
 21
2992.188668615517
 31
0.0
  0
LINE
  5
133FC
330
747D
100
AcDbEntity
  8
部品1
 62
     2
 48
50.0
100
AcDbLine
 10
11161.05351740777
 20
3136.188668615521
 30
0.0
 11
12263.05351740778
 21
3136.188668615521
 31
0.0
  0
LINE
  5
133FD
330
747D
100
AcDbEntity
  8
部品1
 62
     2
 48
50.0
100
AcDbLine
 10
11161.05351740777
 20
3172.188668615536
 30
0.0
 11
12263.05351740778
 21
3172.188668615536
 31
0.0
  0
LINE
  5
133FE
330
747D
100
AcDbEntity
  8
部品1
 62
     2
 48
50.0
100
AcDbLine
 10
11161.05351740777
 20
3208.188668615525
 30
0.0
 11
12263.05351740778
 21
3208.188668615525
 31
0.0
  0
LINE
  5
133FF
330
747D
100
AcDbEntity
  8
部品1
 62
     2
 48
50.0
100
AcDbLine
 10
11161.05351740777
 20
3352.188668615532
 30
0.0
 11
12263.05351740778
 21
3352.188668615532
 31
0.0
  0
LINE
  5
13400
330
747D
100
AcDbEntity
  8
部品1
 62
     2
 48
50.0
100
AcDbLine
 10
11161.05351740777
 20
3388.188668615521
 30
0.0
 11
12263.05351740778
 21
3388.188668615521
 31
0.0
  0
LINE
  5
13401
330
747D
100
AcDbEntity
  8
部品1
 62
     2
 48
50.0
100
AcDbLine
 10
11161.05351740777
 20
3244.188668615539
 30
0.0
 11
12263.05351740778
 21
3244.188668615539
 31
0.0
  0
LINE
  5
13402
330
747D
100
AcDbEntity
  8
部品1
 62
     2
 48
50.0
100
AcDbLine
 10
11161.05351740777
 20
3280.188668615528
 30
0.0
 11
12263.05351740778
 21
3280.188668615528
 31
0.0
  0
LINE
  5
13403
330
747D
100
AcDbEntity
  8
部品1
 62
     2
 48
50.0
100
AcDbLine
 10
11161.05351740777
 20
3316.188668615517
 30
0.0
 11
12263.05351740778
 21
3316.188668615517
 31
0.0
  0
LINE
  5
13404
330
747D
100
AcDbEntity
  8
部品1
 48
50.0
100
AcDbLine
 10
12292.05351740777
 20
1740.688668615514
 30
0.0
 11
11132.05351740778
 21
1740.688668615514
 31
0.0
  0
LINE
  5
13405
330
747D
100
AcDbEntity
  8
部品1
 48
50.0
100
AcDbLine
 10
11712.05351740778
 20
2411.188668615517
 30
0.0
 11
11712.05351740778
 21
1740.688668615517
 31
0.0
  0
DIMENSION
  5
13406
330
747D
100
AcDbEntity
  8
寸法
 48
50.0
100
AcDbDimension
  2
*D41
 10
12648.92481538717
 20
2410.688668615518
 30
0.0
 11
12548.91005160764
 21
2048.188668615517
 31
0.0
 70
    32
 71
     5
 42
-1.0
  3
INABA_S50G
100
AcDbAlignedDimension
 13
12292.05351740777
 23
1685.688668615517
 33
0.0
 14
12292.05351740777
 24
2410.688668615518
 34
0.0
 50
90.0
100
AcDbRotatedDimension
  0
LINE
  5
13407
330
747D
100
AcDbEntity
  8
部品1
 62
     2
 48
50.0
100
AcDbLine
 10
11132.05351740778
 20
3724.188668615521
 30
0.0
 11
12302.05351740778
 21
3724.188668615521
 31
0.0
  0
LINE
  5
13408
330
747D
100
AcDbEntity
  8
部品1
 62
     2
 48
50.0
100
AcDbLine
 10
11132.05351740778
 20
3855.688668615528
 30
0.0
 11
12292.05351740777
 21
3855.688668615528
 31
0.0
  0
LINE
  5
13409
330
747D
100
AcDbEntity
  8
部品1
 62
     2
 48
50.0
100
AcDbLine
 10
11122.05351740777
 20
3825.688668615532
 30
0.0
 11
12306.55351740778
 21
3825.688668615532
 31
0.0
  0
LINE
  5
1340A
330
747D
100
AcDbEntity
  8
部品1
 62
     2
 48
50.0
100
AcDbLine
 10
11122.05351740777
 20
3660.688668615521
 30
0.0
 11
12302.05351740778
 21
3660.688668615521
 31
0.0
  0
LINE
  5
1340B
330
747D
100
AcDbEntity
  8
部品1
 62
     2
 48
50.0
100
AcDbLine
 10
11122.05351740777
 20
3590.688668615517
 30
0.0
 11
12302.05351740778
 21
3590.688668615517
 31
0.0
  0
LINE
  5
1340C
330
747D
100
AcDbEntity
  8
部品1
 62
     2
 48
50.0
100
AcDbLine
 10
11122.05351740777
 20
3724.188668615521
 30
0.0
 11
11712.05351740778
 21
3724.188668615521
 31
0.0
  0
LINE
  5
1340D
330
747D
100
AcDbEntity
  8
部品1
 62
     2
 48
50.0
100
AcDbLine
 10
11107.05351740778
 20
3724.188668615521
 30
0.0
 11
11122.05351740777
 21
3724.188668615521
 31
0.0
  0
ARC
  5
1340E
330
747D
100
AcDbEntity
  8
部品1
 62
     2
 48
50.0
100
AcDbCircle
 10
11117.55351740778
 20
3815.188668615528
 30
0.0
 40
10.5
100
AcDbArc
 50
90.0
 51
180.0
  0
LINE
  5
1340F
330
747D
100
AcDbEntity
  8
部品1
 62
     2
 48
50.0
100
AcDbLine
 10
11107.05351740778
 20
3815.188668615528
 30
0.0
 11
11107.05351740778
 21
3724.188668615521
 31
0.0
  0
LINE
  5
13410
330
747D
100
AcDbEntity
  8
部品1
 62
     2
 48
50.0
100
AcDbLine
 10
11122.05351740777
 20
3724.188668615521
 30
0.0
 11
11122.05351740777
 21
3825.688668615532
 31
0.0
  0
LINE
  5
13411
330
747D
100
AcDbEntity
  8
部品1
 62
     2
 48
50.0
100
AcDbLine
 10
11122.05351740777
 20
3825.688668615532
 30
0.0
 11
11117.55351740778
 21
3825.688668615532
 31
0.0
  0
LINE
  5
13412
330
747D
100
AcDbEntity
  8
部品1
 48
50.0
100
AcDbLine
 10
11132.05351740778
 20
3855.688668615528
 30
0.0
 11
11132.05351740778
 21
3825.688668615532
 31
0.0
  0
LINE
  5
13413
330
747D
100
AcDbEntity
  8
部品1
 62
     2
 48
50.0
100
AcDbLine
 10
11122.05351740777
 20
3724.188668615521
 30
0.0
 11
11122.05351740777
 21
3590.688668615517
 31
0.0
  0
LINE
  5
13414
330
747D
100
AcDbEntity
  8
部品1
 62
     2
 48
50.0
100
AcDbLine
 10
12302.05351740778
 20
3724.188668615521
 30
0.0
 11
12302.05351740778
 21
3825.688668615532
 31
0.0
  0
LINE
  5
13415
330
747D
100
AcDbEntity
  8
部品1
 62
     2
 48
50.0
100
AcDbLine
 10
12317.05351740778
 20
3815.188668615528
 30
0.0
 11
12317.05351740778
 21
3724.188668615521
 31
0.0
  0
LINE
  5
13416
330
747D
100
AcDbEntity
  8
部品1
 62
     2
 48
50.0
100
AcDbLine
 10
12317.05351740778
 20
3724.188668615521
 30
0.0
 11
12302.05351740778
 21
3724.188668615521
 31
0.0
  0
LINE
  5
13417
330
747D
100
AcDbEntity
  8
部品1
 62
     2
 48
50.0
100
AcDbLine
 10
12302.05351740778
 20
3825.688668615532
 30
0.0
 11
12306.55351740778
 21
3825.688668615532
 31
0.0
  0
LINE
  5
13418
330
747D
100
AcDbEntity
  8
部品1
 48
50.0
100
AcDbLine
 10
12292.05351740777
 20
3855.688668615528
 30
0.0
 11
12292.05351740777
 21
3825.688668615532
 31
0.0
  0
ARC
  5
13419
330
747D
100
AcDbEntity
  8
部品1
 62
     2
 48
50.0
100
AcDbCircle
 10
12306.55351740778
 20
3815.188668615528
 30
0.0
 40
10.5
100
AcDbArc
 50
0.0
 51
90.0
  0
LINE
  5
1341A
330
747D
100
AcDbEntity
  8
部品1
 62
     2
 48
50.0
100
AcDbLine
 10
12302.05351740778
 20
3724.188668615521
 30
0.0
 11
12302.05351740778
 21
3590.688668615517
 31
0.0
  0
LINE
  5
1341B
330
747D
100
AcDbEntity
  8
部品1
 48
50.0
100
AcDbLine
 10
13416.25312609225
 20
3855.688668615525
 30
0.0
 11
13416.25312609225
 21
3825.688668615528
 31
0.0
  0
ARC
  5
1341C
330
747D
100
AcDbEntity
  8
部品1
 62
     2
 48
50.0
100
AcDbCircle
 10
13401.75312609225
 20
3815.188668615528
 30
0.0
 40
10.5
100
AcDbArc
 50
90.0
 51
180.0
  0
LINE
  5
1341D
330
747D
100
AcDbEntity
  8
部品1
 62
     2
 48
50.0
100
AcDbLine
 10
13406.25312609225
 20
3825.688668615528
 30
0.0
 11
13401.75312609225
 21
3825.688668615528
 31
0.0
  0
LINE
  5
1341E
330
747D
100
AcDbEntity
  8
部品1
 62
     2
 48
50.0
100
AcDbLine
 10
13391.25312609225
 20
3724.188668615521
 30
0.0
 11
13406.25312609225
 21
3724.188668615521
 31
0.0
  0
LINE
  5
1341F
330
747D
100
AcDbEntity
  8
部品1
 62
     2
 48
50.0
100
AcDbLine
 10
13391.25312609225
 20
3815.188668615528
 30
0.0
 11
13391.25312609225
 21
3724.188668615521
 31
0.0
  0
LINE
  5
13420
330
747D
100
AcDbEntity
  8
部品1
 62
     2
 48
50.0
100
AcDbLine
 10
13406.25312609225
 20
3724.188668615521
 30
0.0
 11
13406.25312609225
 21
3825.688668615528
 31
0.0
  0
LINE
  5
13421
330
747D
100
AcDbEntity
  8
部品1
 62
     2
 48
50.0
100
AcDbLine
 10
13406.25312609225
 20
3724.188668615521
 30
0.0
 11
13406.25312609225
 21
3590.688668615514
 31
0.0
  0
LINE
  5
13422
330
747D
100
AcDbEntity
  8
部品1
 62
     2
 48
50.0
100
AcDbLine
 10
16430.21032457705
 20
3590.688668615514
 30
0.0
 11
16430.21032457705
 21
2411.188668615514
 31
0.0
  0
LINE
  5
13423
330
747D
100
AcDbEntity
  8
部品1
 62
     2
 48
50.0
100
AcDbLine
 10
15127.25312609225
 20
3590.688668615514
 30
0.0
 11
15127.25312609225
 21
2411.188668615514
 31
0.0
  0
DIMENSION
  5
13424
330
747D
100
AcDbEntity
  8
寸法
 48
50.0
100
AcDbDimension
  2
*D45
 10
15513.12442407164
 20
3825.688668615528
 30
0.0
 11
15413.12442407165
 21
3118.188668615523
 31
0.0
 70
    32
 71
     5
 42
-1.0
  3
INABA_S50G
100
AcDbAlignedDimension
 13
15156.25312609225
 23
2410.688668615514
 33
0.0
 14
15170.75312609225
 24
3825.688668615528
 34
0.0
 50
90.0
100
AcDbRotatedDimension
1001
ACAD
1000
DSTYLE
1002
{
1070
   287
1070
     4
1070
    75
1070
     1
1070
   279
1070
     1
1002
}
  0
LINE
  5
13425
330
747D
100
AcDbEntity
  8
部品1
 48
50.0
100
AcDbLine
 10
15156.25312609225
 20
3590.688668615514
 30
0.0
 11
15156.25312609225
 21
1740.688668615514
 31
0.0
  0
LINE
  5
13426
330
747D
100
AcDbEntity
  8
部品1
 48
50.0
100
AcDbLine
 10
16401.21032457705
 20
3590.688668615517
 30
0.0
 11
16401.21032457706
 21
1740.688668615514
 31
0.0
  0
DIMENSION
  5
13427
330
747D
100
AcDbEntity
  8
寸法
 48
50.0
100
AcDbDimension
  2
*D40
 10
15513.12442407164
 20
2410.688668615514
 30
0.0
 11
15413.10966029213
 21
2048.188668615514
 31
0.0
 70
    32
 71
     5
 42
-1.0
  3
INABA_S50G
100
AcDbAlignedDimension
 13
15156.25312609225
 23
1685.688668615513
 33
0.0
 14
15156.25312609225
 24
2410.688668615514
 34
0.0
 50
90.0
100
AcDbRotatedDimension
  0
LINE
  5
13428
330
747D
100
AcDbEntity
  8
部品1
 48
50.0
100
AcDbLine
 10
14576.25312609225
 20
2411.188668615514
 30
0.0
 11
14576.25312609225
 21
1740.688668615514
 31
0.0
  0
LINE
  5
13429
330
747D
100
AcDbEntity
  8
部品1
 48
50.0
100
AcDbLine
 10
13996.25312609225
 20
2411.188668615514
 30
0.0
 11
13996.25312609225
 21
1740.688668615514
 31
0.0
  0
LINE
  5
1342A
330
747D
100
AcDbEntity
  8
部品1
 48
50.0
100
AcDbLine
 10
16981.21032457706
 20
2411.188668615514
 30
0.0
 11
16981.21032457706
 21
1740.688668615514
 31
0.0
  0
LINE
  5
1342B
330
747D
100
AcDbEntity
  8
部品1
 48
50.0
100
AcDbLine
 10
15156.25312609225
 20
3855.688668615525
 30
0.0
 11
15156.25312609225
 21
3825.688668615528
 31
0.0
  0
LINE
  5
1342C
330
747D
100
AcDbEntity
  8
部品1
 62
     2
 48
50.0
100
AcDbLine
 10
15166.25312609225
 20
3825.688668615528
 30
0.0
 11
15170.75312609225
 21
3825.688668615528
 31
0.0
  0
ARC
  5
1342D
330
747D
100
AcDbEntity
  8
部品1
 62
     2
 48
50.0
100
AcDbCircle
 10
15170.75312609225
 20
3815.188668615528
 30
0.0
 40
10.5
100
AcDbArc
 50
0.0
 51
90.0
  0
LINE
  5
1342E
330
747D
100
AcDbEntity
  8
部品1
 62
     2
 48
50.0
100
AcDbLine
 10
15181.25312609226
 20
3724.188668615521
 30
0.0
 11
15166.25312609225
 21
3724.188668615521
 31
0.0
  0
LINE
  5
1342F
330
747D
100
AcDbEntity
  8
部品1
 62
     2
 48
50.0
100
AcDbLine
 10
15181.25312609226
 20
3815.188668615528
 30
0.0
 11
15181.25312609226
 21
3724.188668615521
 31
0.0
  0
LINE
  5
13430
330
747D
100
AcDbEntity
  8
部品1
 62
     2
 48
50.0
100
AcDbLine
 10
15166.25312609225
 20
3724.188668615521
 30
0.0
 11
15166.25312609225
 21
3825.688668615528
 31
0.0
  0
LINE
  5
13431
330
747D
100
AcDbEntity
  8
部品1
 62
     2
 48
50.0
100
AcDbLine
 10
15166.25312609225
 20
3724.188668615521
 30
0.0
 11
15166.25312609225
 21
3590.688668615514
 31
0.0
  0
LINE
  5
13432
330
747D
100
AcDbEntity
  8
部品1
 62
     2
 48
50.0
100
AcDbLine
 10
16376.21032457706
 20
3815.188668615528
 30
0.0
 11
16376.21032457706
 21
3724.188668615521
 31
0.0
  0
LINE
  5
13433
330
747D
100
AcDbEntity
  8
部品1
 62
     2
 48
50.0
100
AcDbLine
 10
16391.21032457706
 20
3724.188668615521
 30
0.0
 11
16391.21032457706
 21
3825.688668615528
 31
0.0
  0
LINE
  5
13434
330
747D
100
AcDbEntity
  8
部品1
 62
     2
 48
50.0
100
AcDbLine
 10
16376.21032457706
 20
3724.188668615521
 30
0.0
 11
16391.21032457706
 21
3724.188668615521
 31
0.0
  0
ARC
  5
13435
330
747D
100
AcDbEntity
  8
部品1
 62
     2
 48
50.0
100
AcDbCircle
 10
16386.71032457706
 20
3815.188668615528
 30
0.0
 40
10.5
100
AcDbArc
 50
90.0
 51
180.0
  0
LINE
  5
13436
330
747D
100
AcDbEntity
  8
部品1
 62
     2
 48
50.0
100
AcDbLine
 10
16391.21032457706
 20
3825.688668615528
 30
0.0
 11
16386.71032457706
 21
3825.688668615528
 31
0.0
  0
LINE
  5
13437
330
747D
100
AcDbEntity
  8
部品1
 48
50.0
100
AcDbLine
 10
16401.21032457706
 20
3855.688668615525
 30
0.0
 11
16401.21032457706
 21
3825.688668615528
 31
0.0
  0
LINE
  5
13438
330
747D
100
AcDbEntity
  8
部品1
 62
     2
 48
50.0
100
AcDbLine
 10
16391.21032457706
 20
3724.188668615521
 30
0.0
 11
16391.21032457706
 21
3590.688668615514
 31
0.0
  0
DIMENSION
  5
13439
330
747D
100
AcDbEntity
  8
寸法
 48
50.0
100
AcDbDimension
  2
*D46
 10
19894.05225746139
 20
2289.587739500968
 30
0.0
 11
19604.04112818453
 21
2289.587739500968
 31
0.0
 70
   160
 71
     5
 42
-1.0
  3
INABA_S50G
100
AcDbAlignedDimension
 13
20127.05225746138
 23
2410.688668615514
 33
0.0
 14
19894.05225746139
 24
3724.18866861551
 34
0.0
100
AcDbRotatedDimension
  0
LINE
  5
1343A
330
747D
100
AcDbEntity
  8
部品1
 62
     2
 48
50.0
100
AcDbLine
 10
20073.05225746138
 20
2410.688668615514
 30
0.0
 11
20073.05225746138
 21
3590.688668615507
 31
0.0
  0
LINE
  5
1343B
330
747D
100
AcDbEntity
  8
部品1
 62
     2
 48
50.0
100
AcDbLine
 10
20127.05225746138
 20
2410.688668615514
 30
0.0
 11
20127.05225746138
 21
3855.688668615512
 31
0.0
  0
LINE
  5
1343C
330
747D
100
AcDbEntity
  8
部品1
 62
     2
 48
50.0
100
AcDbLine
 10
18692.21032457706
 20
3590.688668615514
 30
0.0
 11
18692.21032457706
 21
2411.188668615514
 31
0.0
  0
DIMENSION
  5
1343D
330
747D
100
AcDbEntity
  8
寸法
 48
50.0
100
AcDbDimension
  2
*D44
 10
19078.08162255646
 20
3825.688668615528
 30
0.0
 11
18978.08162255645
 21
3118.188668615524
 31
0.0
 70
    32
 71
     5
 42
-1.0
  3
INABA_S50G
100
AcDbAlignedDimension
 13
18721.21032457705
 23
2410.688668615514
 33
0.0
 14
18735.71032457706
 24
3825.688668615528
 34
0.0
 50
90.0
100
AcDbRotatedDimension
1001
ACAD
1000
DSTYLE
1002
{
1070
   287
1070
     4
1070
    75
1070
     1
1070
   279
1070
     1
1002
}
  0
LINE
  5
1343E
330
747D
100
AcDbEntity
  8
部品1
 48
50.0
100
AcDbLine
 10
18721.21032457705
 20
3590.688668615514
 30
0.0
 11
18721.21032457705
 21
1740.688668615514
 31
0.0
  0
LINE
  5
1343F
330
747D
100
AcDbEntity
  8
部品1
 48
50.0
100
AcDbLine
 10
20127.05225746138
 20
3855.688668615512
 30
0.0
 11
20127.05225746138
 21
1740.688668615506
 31
0.0
  0
LINE
  5
13440
330
747D
100
AcDbEntity
  8
部品1
 48
50.0
100
AcDbLine
 10
17561.21032457706
 20
2411.188668615514
 30
0.0
 11
17561.21032457706
 21
1740.688668615514
 31
0.0
  0
LINE
  5
13441
330
747D
100
AcDbEntity
  8
部品1
 48
50.0
100
AcDbLine
 10
18141.21032457705
 20
2411.188668615514
 30
0.0
 11
18141.21032457705
 21
1740.688668615514
 31
0.0
  0
DIMENSION
  5
13442
330
747D
100
AcDbEntity
  8
寸法
 48
50.0
100
AcDbDimension
  2
*D42
 10
19078.08162255646
 20
2410.688668615514
 30
0.0
 11
18978.06685877693
 21
2048.188668615514
 31
0.0
 70
    32
 71
     5
 42
-1.0
  3
INABA_S50G
100
AcDbAlignedDimension
 13
18721.21032457705
 23
1685.688668615513
 33
0.0
 14
18721.21032457705
 24
2410.688668615514
 34
0.0
 50
90.0
100
AcDbRotatedDimension
  0
LINE
  5
13443
330
747D
100
AcDbEntity
  8
部品1
 62
     2
 48
50.0
100
AcDbLine
 10
20127.05225746138
 20
2410.688668615514
 30
0.0
 11
20073.05225746138
 21
2410.688668615514
 31
0.0
  0
LINE
  5
13444
330
747D
100
AcDbEntity
  8
部品1
 62
     2
 48
50.0
100
AcDbLine
 10
18746.21032457706
 20
3815.188668615528
 30
0.0
 11
18746.21032457706
 21
3724.188668615521
 31
0.0
  0
LINE
  5
13445
330
747D
100
AcDbEntity
  8
部品1
 62
     2
 48
50.0
100
AcDbLine
 10
18731.21032457706
 20
3724.188668615521
 30
0.0
 11
18731.21032457706
 21
3825.688668615528
 31
0.0
  0
LINE
  5
13446
330
747D
100
AcDbEntity
  8
部品1
 62
     2
 48
50.0
100
AcDbLine
 10
18746.21032457706
 20
3724.188668615521
 30
0.0
 11
18731.21032457706
 21
3724.188668615521
 31
0.0
  0
LINE
  5
13447
330
747D
100
AcDbEntity
  8
部品1
 62
     2
 48
50.0
100
AcDbLine
 10
18731.21032457706
 20
3825.688668615528
 30
0.0
 11
18735.71032457706
 21
3825.688668615528
 31
0.0
  0
ARC
  5
13448
330
747D
100
AcDbEntity
  8
部品1
 62
     2
 48
50.0
100
AcDbCircle
 10
18735.71032457706
 20
3815.188668615528
 30
0.0
 40
10.5
100
AcDbArc
 50
0.0
 51
90.0
  0
LINE
  5
13449
330
747D
100
AcDbEntity
  8
部品1
 48
50.0
100
AcDbLine
 10
18721.21032457705
 20
3855.688668615525
 30
0.0
 11
18721.21032457705
 21
3825.688668615528
 31
0.0
  0
LINE
  5
1344A
330
747D
100
AcDbEntity
  8
部品1
 62
     2
 48
50.0
100
AcDbLine
 10
18731.21032457706
 20
3724.188668615521
 30
0.0
 11
18731.21032457706
 21
3590.688668615514
 31
0.0
  0
LINE
  5
1344B
330
747D
100
AcDbEntity
  8
部品1
 62
     2
 48
50.0
100
AcDbLine
 10
19909.05225746144
 20
3660.688668615488
 30
0.0
 11
20029.10075746138
 21
3590.688668615507
 31
0.0
  0
LINE
  5
1344C
330
747D
100
AcDbEntity
  8
部品1
 62
     2
 48
50.0
100
AcDbLine
 10
19894.05225746139
 20
3724.18866861551
 30
0.0
 11
20127.05225746138
 21
3724.18866861551
 31
0.0
  0
LINE
  5
1344D
330
747D
100
AcDbEntity
  8
部品1
 62
     2
 48
50.0
100
AcDbLine
 10
19903.1543574614
 20
3795.612818615515
 30
0.0
 11
20127.05225746138
 21
3825.688668615521
 31
0.0
  0
LINE
  5
1344E
330
747D
100
AcDbEntity
  8
部品1
 62
     2
 48
50.0
100
AcDbLine
 10
19894.05225746139
 20
3785.206318615518
 30
0.0
 11
19894.05225746139
 21
3724.18866861551
 31
0.0
  0
ARC
  5
1344F
330
747D
100
AcDbEntity
  8
部品1
 62
     2
 48
50.0
100
AcDbCircle
 10
19904.55225746144
 20
3785.206318615518
 30
0.0
 40
10.5
100
AcDbArc
 50
97.65065100000001
 51
180.0
  0
LINE
  5
13450
330
747D
100
AcDbEntity
  8
部品1
 62
     2
 48
50.0
100
AcDbLine
 10
19909.05225746144
 20
3724.18866861551
 30
0.0
 11
19909.05225746144
 21
3660.688668615488
 31
0.0
  0
LINE
  5
13451
330
747D
100
AcDbEntity
  8
部品1
 62
     2
 48
50.0
100
AcDbLine
 10
20029.10075746138
 20
3590.688668615507
 30
0.0
 11
20127.05225746138
 21
3590.688668615507
 31
0.0
  0
LINE
  5
13517
330
747D
100
AcDbEntity
  8
部品1
 62
     2
 48
50.0
100
AcDbLine
 10
16430.21032457705
 20
2524.18866861551
 30
0.0
 11
18692.21032457706
 21
2524.18866861551
 31
0.0
  0
LINE
  5
13518
330
747D
100
AcDbEntity
  8
部品1
 62
     2
 48
50.0
100
AcDbLine
 10
16430.21032457705
 20
2560.18866861552
 30
0.0
 11
18692.21032457706
 21
2560.18866861552
 31
0.0
  0
LINE
  5
13519
330
747D
100
AcDbEntity
  8
部品1
 62
     2
 48
50.0
100
AcDbLine
 10
16430.21032457705
 20
2596.188668615514
 30
0.0
 11
18692.21032457706
 21
2596.188668615514
 31
0.0
  0
LINE
  5
1351A
330
747D
100
AcDbEntity
  8
部品1
 62
     2
 48
50.0
100
AcDbLine
 10
16430.21032457705
 20
2632.188668615528
 30
0.0
 11
18692.21032457706
 21
2632.188668615528
 31
0.0
  0
LINE
  5
1351B
330
747D
100
AcDbEntity
  8
部品1
 62
     2
 48
50.0
100
AcDbLine
 10
16430.21032457705
 20
2488.188668615499
 30
0.0
 11
18692.21032457706
 21
2488.188668615499
 31
0.0
  0
LINE
  5
1351C
330
747D
100
AcDbEntity
  8
部品1
 62
     2
 48
50.0
100
AcDbLine
 10
13445.25312609225
 20
2488.188668615521
 30
0.0
 11
15127.25312609225
 21
2488.188668615521
 31
0.0
  0
LINE
  5
1351D
330
747D
100
AcDbEntity
  8
部品1
 62
     2
 48
50.0
100
AcDbLine
 10
13445.25312609225
 20
2524.188668615535
 30
0.0
 11
15127.25312609225
 21
2524.188668615535
 31
0.0
  0
LINE
  5
1351E
330
747D
100
AcDbEntity
  8
部品1
 62
     2
 48
50.0
100
AcDbLine
 10
13445.25312609225
 20
2560.188668615525
 30
0.0
 11
15127.25312609225
 21
2560.188668615525
 31
0.0
  0
LINE
  5
1351F
330
747D
100
AcDbEntity
  8
部品1
 62
     2
 48
50.0
100
AcDbLine
 10
13445.25312609225
 20
2596.188668615535
 30
0.0
 11
15127.25312609225
 21
2596.188668615535
 31
0.0
  0
LINE
  5
13520
330
747D
100
AcDbEntity
  8
部品1
 62
     2
 48
50.0
100
AcDbLine
 10
13445.25312609225
 20
2632.188668615528
 30
0.0
 11
15127.25312609225
 21
2632.188668615528
 31
0.0
  0
LINE
  5
13522
330
747D
100
AcDbEntity
  8
部品1
 62
     2
 48
50.0
100
AcDbLine
 10
11161.05351740777
 20
2596.18866861551
 30
0.0
 11
12263.05351740778
 21
2596.18866861551
 31
0.0
  0
LINE
  5
13523
330
747D
100
AcDbEntity
  8
部品1
 62
     2
 48
50.0
100
AcDbLine
 10
11161.05351740777
 20
2560.188668615499
 30
0.0
 11
12263.05351740778
 21
2560.188668615499
 31
0.0
  0
LINE
  5
13524
330
747D
100
AcDbEntity
  8
部品1
 62
     2
 48
50.0
100
AcDbLine
 10
11161.05351740777
 20
2524.188668615506
 30
0.0
 11
12263.05351740778
 21
2524.188668615506
 31
0.0
  0
LINE
  5
13525
330
747D
100
AcDbEntity
  8
部品1
 62
     2
 48
50.0
100
AcDbLine
 10
11161.05351740777
 20
2488.188668615492
 30
0.0
 11
12263.05351740778
 21
2488.188668615492
 31
0.0
  0
LINE
  5
13526
330
747D
100
AcDbEntity
  8
部品1
 62
     2
 48
50.0
100
AcDbLine
 10
11161.05351740777
 20
2632.188668615499
 30
0.0
 11
12263.05351740778
 21
2632.188668615499
 31
0.0
  0
LINE
  5
1356C
330
747D
100
AcDbEntity
  8
部品1
 62
     2
 48
50.0
100
AcDbLine
 10
13410.7531260922
 20
13740.81495653355
 30
0.0
 11
15161.7531260922
 21
13740.81495653354
 31
0.0
  0
LINE
  5
1356D
330
747D
100
AcDbEntity
  8
部品1
 62
     2
 48
50.0
100
AcDbLine
 10
15124.25312609225
 20
13801.81495653354
 30
0.0
 11
13448.25312609225
 21
13801.81495653355
 31
0.0
  0
LINE
  5
1356E
330
747D
100
AcDbEntity
  8
部品1
 62
     2
 48
50.0
100
AcDbLine
 10
15156.25312609225
 20
13802.81495653354
 30
0.0
 11
13416.25312609225
 21
13802.81495653355
 31
0.0
  0
LINE
  5
1356F
330
747D
100
AcDbEntity
  8
部品1
 62
     2
 48
50.0
100
AcDbLine
 10
13448.25312609225
 20
13774.11495653354
 30
0.0
 11
14298.25312609225
 21
13774.11495653354
 31
0.0
  0
LINE
  5
13570
330
747D
100
AcDbEntity
  8
部品1
 62
     2
 48
50.0
100
AcDbLine
 10
13448.25312609225
 20
13797.11495653354
 30
0.0
 11
14298.25312609225
 21
13797.11495653354
 31
0.0
  0
LINE
  5
13571
330
747D
100
AcDbEntity
  8
部品1
 62
     2
 48
50.0
100
AcDbLine
 10
13469.25312609225
 20
13785.61495653354
 30
0.0
 11
14280.25312609225
 21
13785.61495653354
 31
0.0
  0
LINE
  5
13573
330
747D
100
AcDbEntity
  8
部品1
 62
     2
 48
50.0
100
AcDbLine
 10
11718.05351740778
 20
13752.31495653354
 30
0.0
 11
12239.05351740778
 21
13752.31495653355
 31
0.0
  0
LINE
  5
13574
330
747D
100
AcDbEntity
  8
部品1
 62
     2
 48
50.0
100
AcDbLine
 10
11700.05351740778
 20
13763.81495653355
 30
0.0
 11
12260.05351740778
 21
13763.81495653355
 31
0.0
  0
LINE
  5
13575
330
747D
100
AcDbEntity
  8
部品1
 62
     2
 48
50.0
100
AcDbLine
 10
11126.55351740774
 20
13740.81495653355
 30
0.0
 11
12297.55351740774
 21
13740.81495653355
 31
0.0
  0
LINE
  5
13576
330
747D
100
AcDbEntity
  8
部品1
 62
     2
 48
50.0
100
AcDbLine
 10
12260.05351740778
 20
13801.81495653355
 30
0.0
 11
11164.05351740778
 21
13801.81495653355
 31
0.0
  0
LINE
  5
13577
330
747D
100
AcDbEntity
  8
部品1
 62
     2
 48
50.0
100
AcDbLine
 10
12292.05351740778
 20
13802.81495653355
 30
0.0
 11
11132.05351740778
 21
13802.81495653355
 31
0.0
  0
LINE
  5
13578
330
747D
100
AcDbEntity
  8
部品1
 62
     2
 48
50.0
100
AcDbLine
 10
11164.05351740778
 20
13797.11495653354
 30
0.0
 11
11724.05351740778
 21
13797.11495653354
 31
0.0
  0
LINE
  5
13579
330
747D
100
AcDbEntity
  8
部品1
 62
     2
 48
50.0
100
AcDbLine
 10
11164.05351740778
 20
13774.11495653354
 30
0.0
 11
11724.05351740778
 21
13774.11495653354
 31
0.0
  0
LINE
  5
1357A
330
747D
100
AcDbEntity
  8
部品1
 62
     2
 48
50.0
100
AcDbLine
 10
11185.05351740778
 20
13785.61495653354
 30
0.0
 11
11706.05351740778
 21
13785.61495653354
 31
0.0
  0
LINE
  5
1357B
330
747D
100
AcDbEntity
  8
部品1
 48
50.0
100
AcDbLine
 10
11150.05351740778
 20
13790.81495653355
 30
0.0
 11
11000.05351740778
 21
13790.81495653354
 31
0.0
  0
LINE
  5
1357C
330
747D
100
AcDbEntity
  8
部品1
 48
50.0
100
AcDbLine
 10
11150.05351740778
 20
13775.81495653354
 30
0.0
 11
11000.05351740778
 21
13775.81495653354
 31
0.0
  0
LINE
  5
1357D
330
747D
100
AcDbEntity
  8
部品1
 48
50.0
100
AcDbLine
 10
11126.55351740774
 20
13740.81495653355
 30
0.0
 11
11000.05351740778
 21
13740.81495653355
 31
0.0
  0
LINE
  5
1357E
330
747D
100
AcDbEntity
  8
部品1
 48
50.0
100
AcDbLine
 10
11114.05351740777
 20
13775.81495653354
 30
0.0
 11
11114.05351740777
 21
13790.81495653355
 31
0.0
  0
LINE
  5
1357F
330
747D
100
AcDbEntity
  8
部品1
 48
50.0
100
AcDbLine
 10
11150.05351740777
 20
13775.81495653354
 30
0.0
 11
11150.05351740777
 21
13790.81495653355
 31
0.0
  0
LINE
  5
13580
330
747D
100
AcDbEntity
  8
部品1
 62
     2
 48
50.0
100
AcDbLine
 10
11164.05351740778
 20
13790.81495653355
 30
0.0
 11
11150.05351740778
 21
13790.81495653355
 31
0.0
  0
LINE
  5
13581
330
747D
100
AcDbEntity
  8
部品1
 62
     2
 48
50.0
100
AcDbLine
 10
11132.05351740778
 20
13790.81495653355
 30
0.0
 11
11132.05351740778
 21
13802.81495653355
 31
0.0
  0
LINE
  5
13582
330
747D
100
AcDbEntity
  8
部品1
 62
     2
 48
50.0
100
AcDbLine
 10
11191.05351740778
 20
13774.11495653354
 30
0.0
 11
11191.05351740778
 21
13797.11495653354
 31
0.0
  0
LINE
  5
13583
330
747D
100
AcDbEntity
  8
部品1
 48
50.0
100
AcDbLine
 10
11132.05351740778
 20
13740.81495653355
 30
0.0
 11
11132.05351740777
 21
13775.81495653354
 31
0.0
  0
LINE
  5
13584
330
747D
100
AcDbEntity
  8
部品1
 62
     2
 48
50.0
100
AcDbLine
 10
11164.05351740778
 20
13740.81495653355
 30
0.0
 11
11164.05351740778
 21
13801.81495653355
 31
0.0
  0
LINE
  5
13585
330
747D
100
AcDbEntity
  8
部品1
 62
     2
 48
50.0
100
AcDbLine
 10
11700.05351740778
 20
13774.11495653353
 30
0.0
 11
11700.05351740778
 21
13797.11495653353
 31
0.0
  0
LINE
  5
13586
330
747D
100
AcDbEntity
  8
部品1
 62
     2
 48
50.0
100
AcDbLine
 10
11700.05351740778
 20
13740.81495653355
 30
0.0
 11
11700.05351740778
 21
13763.81495653355
 31
0.0
  0
LINE
  5
13587
330
747D
100
AcDbEntity
  8
部品1
 62
     2
 48
50.0
100
AcDbLine
 10
11724.05351740778
 20
13774.11495653354
 30
0.0
 11
11724.05351740778
 21
13797.11495653353
 31
0.0
  0
LINE
  5
13588
330
747D
100
AcDbEntity
  8
部品1
 62
     2
 48
50.0
100
AcDbLine
 10
11724.05351740778
 20
13740.81495653355
 30
0.0
 11
11724.05351740778
 21
13763.81495653355
 31
0.0
  0
LINE
  5
13589
330
747D
100
AcDbEntity
  8
部品1
 48
50.0
100
AcDbLine
 10
12274.05351740777
 20
13775.81495653354
 30
0.0
 11
12424.05351740777
 21
13775.81495653354
 31
0.0
  0
LINE
  5
1358A
330
747D
100
AcDbEntity
  8
部品1
 48
50.0
100
AcDbLine
 10
12274.05351740777
 20
13790.81495653355
 30
0.0
 11
12424.05351740777
 21
13790.81495653354
 31
0.0
  0
LINE
  5
1358B
330
747D
100
AcDbEntity
  8
部品1
 48
50.0
100
AcDbLine
 10
12297.55351740774
 20
13740.81495653355
 30
0.0
 11
12424.05351740777
 21
13740.81495653355
 31
0.0
  0
LINE
  5
1358C
330
747D
100
AcDbEntity
  8
部品1
 48
50.0
100
AcDbLine
 10
12274.05351740777
 20
13775.81495653354
 30
0.0
 11
12274.05351740777
 21
13790.81495653355
 31
0.0
  0
LINE
  5
1358D
330
747D
100
AcDbEntity
  8
部品1
 48
50.0
100
AcDbLine
 10
12310.05351740777
 20
13775.81495653354
 30
0.0
 11
12310.05351740777
 21
13790.81495653355
 31
0.0
  0
LINE
  5
1358E
330
747D
100
AcDbEntity
  8
部品1
 62
     2
 48
50.0
100
AcDbLine
 10
12292.05351740778
 20
13790.81495653355
 30
0.0
 11
12292.05351740778
 21
13802.81495653355
 31
0.0
  0
LINE
  5
1358F
330
747D
100
AcDbEntity
  8
部品1
 62
     2
 48
50.0
100
AcDbLine
 10
12274.05351740778
 20
13790.81495653355
 30
0.0
 11
12260.05351740778
 21
13790.81495653355
 31
0.0
  0
LINE
  5
13590
330
747D
100
AcDbEntity
  8
部品1
 48
50.0
100
AcDbLine
 10
12292.05351740778
 20
13740.81495653355
 30
0.0
 11
12292.05351740777
 21
13775.81495653354
 31
0.0
  0
LINE
  5
13591
330
747D
100
AcDbEntity
  8
部品1
 62
     2
 48
50.0
100
AcDbLine
 10
12260.05351740778
 20
13740.81495653355
 30
0.0
 11
12260.05351740778
 21
13801.81495653355
 31
0.0
  0
LINE
  5
13592
330
747D
100
AcDbEntity
  8
部品1
 62
     2
 48
50.0
100
AcDbLine
 10
12233.05351740778
 20
13740.81495653355
 30
0.0
 11
12233.05351740778
 21
13763.81495653355
 31
0.0
  0
LINE
  5
13593
330
747D
100
AcDbEntity
  8
部品1
 48
50.0
100
AcDbLine
 10
13434.25312609225
 20
13775.81495653354
 30
0.0
 11
13284.25312609226
 21
13775.81495653354
 31
0.0
  0
LINE
  5
13594
330
747D
100
AcDbEntity
  8
部品1
 48
50.0
100
AcDbLine
 10
13434.25312609225
 20
13790.81495653355
 30
0.0
 11
13284.25312609226
 21
13790.81495653354
 31
0.0
  0
LINE
  5
13595
330
747D
100
AcDbEntity
  8
部品1
 48
50.0
100
AcDbLine
 10
13410.7531260922
 20
13740.81495653355
 30
0.0
 11
13284.25312609226
 21
13740.81495653355
 31
0.0
  0
LINE
  5
13596
330
747D
100
AcDbEntity
  8
部品1
 62
     2
 48
50.0
100
AcDbLine
 10
13416.25312609225
 20
13790.81495653355
 30
0.0
 11
13416.25312609225
 21
13802.81495653355
 31
0.0
  0
LINE
  5
13597
330
747D
100
AcDbEntity
  8
部品1
 62
     2
 48
50.0
100
AcDbLine
 10
13448.25312609225
 20
13790.81495653355
 30
0.0
 11
13434.25312609225
 21
13790.81495653355
 31
0.0
  0
LINE
  5
13598
330
747D
100
AcDbEntity
  8
部品1
 48
50.0
100
AcDbLine
 10
13434.25312609224
 20
13775.81495653354
 30
0.0
 11
13434.25312609224
 21
13790.81495653355
 31
0.0
  0
LINE
  5
13599
330
747D
100
AcDbEntity
  8
部品1
 62
     2
 48
50.0
100
AcDbLine
 10
13475.25312609225
 20
13774.11495653354
 30
0.0
 11
13475.25312609225
 21
13797.11495653354
 31
0.0
  0
LINE
  5
1359A
330
747D
100
AcDbEntity
  8
部品1
 48
50.0
100
AcDbLine
 10
13398.25312609224
 20
13775.81495653354
 30
0.0
 11
13398.25312609224
 21
13790.81495653355
 31
0.0
  0
LINE
  5
1359B
330
747D
100
AcDbEntity
  8
部品1
 62
     2
 48
50.0
100
AcDbLine
 10
13448.25312609225
 20
13740.81495653355
 30
0.0
 11
13448.25312609225
 21
13801.81495653355
 31
0.0
  0
LINE
  5
1359C
330
747D
100
AcDbEntity
  8
部品1
 48
50.0
100
AcDbLine
 10
13416.25312609225
 20
13740.81495653355
 30
0.0
 11
13416.25312609225
 21
13775.81495653354
 31
0.0
  0
LINE
  5
1359D
330
747D
100
AcDbEntity
  8
部品1
 62
     2
 48
50.0
100
AcDbLine
 10
18689.21032457706
 20
13796.81495653354
 30
0.0
 11
16433.21032457706
 21
13796.81495653354
 31
0.0
  0
LINE
  5
1359F
330
747D
100
AcDbEntity
  8
部品1
 62
     2
 48
50.0
100
AcDbLine
 10
16395.71032457705
 20
13740.81495653354
 30
0.0
 11
18726.71032457706
 21
13740.81495653354
 31
0.0
  0
LINE
  5
135A0
330
747D
100
AcDbEntity
  8
部品1
 62
     2
 48
50.0
100
AcDbLine
 10
18721.21032457705
 20
13805.81495653354
 30
0.0
 11
16401.21032457706
 21
13805.81495653354
 31
0.0
  0
LINE
  5
135A1
330
747D
100
AcDbEntity
  8
部品1
 62
     2
 48
50.0
100
AcDbLine
 10
17561.21032457706
 20
13770.81495653354
 30
0.0
 11
16985.21032457706
 21
13770.81495653355
 31
0.0
  0
LINE
  5
135A2
330
747D
100
AcDbEntity
  8
部品1
 62
     2
 48
50.0
100
AcDbLine
 10
17561.21032457706
 20
13793.81495653354
 30
0.0
 11
16985.21032457706
 21
13793.81495653354
 31
0.0
  0
LINE
  5
135A3
330
747D
100
AcDbEntity
  8
部品1
 62
     2
 48
50.0
100
AcDbLine
 10
17540.21032457706
 20
13782.31495653354
 30
0.0
 11
17003.21032457706
 21
13782.31495653354
 31
0.0
  0
LINE
  5
135A4
330
747D
100
AcDbEntity
  8
部品1
 48
50.0
100
AcDbLine
 10
15138.25312609224
 20
13790.81495653355
 30
0.0
 11
15288.25312609224
 21
13790.81495653354
 31
0.0
  0
LINE
  5
135A5
330
747D
100
AcDbEntity
  8
部品1
 48
50.0
100
AcDbLine
 10
15138.25312609224
 20
13775.81495653354
 30
0.0
 11
15288.25312609224
 21
13775.81495653354
 31
0.0
  0
LINE
  5
135A6
330
747D
100
AcDbEntity
  8
部品1
 62
     2
 48
50.0
100
AcDbLine
 10
14274.25312609225
 20
13763.81495653354
 30
0.0
 11
15124.25312609225
 21
13763.81495653354
 31
0.0
  0
LINE
  5
135A7
330
747D
100
AcDbEntity
  8
部品1
 62
     2
 48
50.0
100
AcDbLine
 10
14292.25312609225
 20
13752.31495653354
 30
0.0
 11
15103.25312609225
 21
13752.31495653354
 31
0.0
  0
LINE
  5
135A8
330
747D
100
AcDbEntity
  8
部品1
 62
     2
 48
50.0
100
AcDbLine
 10
14274.25312609225
 20
13774.11495653353
 30
0.0
 11
14274.25312609225
 21
13797.11495653353
 31
0.0
  0
LINE
  5
135A9
330
747D
100
AcDbEntity
  8
部品1
 62
     2
 48
50.0
100
AcDbLine
 10
14298.25312609225
 20
13774.11495653354
 30
0.0
 11
14298.25312609225
 21
13797.11495653353
 31
0.0
  0
LINE
  5
135AA
330
747D
100
AcDbEntity
  8
部品1
 62
     2
 48
50.0
100
AcDbLine
 10
14274.25312609225
 20
13740.81495653354
 30
0.0
 11
14274.25312609225
 21
13763.81495653354
 31
0.0
  0
LINE
  5
135AB
330
747D
100
AcDbEntity
  8
部品1
 62
     2
 48
50.0
100
AcDbLine
 10
14298.25312609225
 20
13740.81495653354
 30
0.0
 11
14298.25312609225
 21
13763.81495653354
 31
0.0
  0
LINE
  5
135AC
330
747D
100
AcDbEntity
  8
部品1
 62
     2
 48
50.0
100
AcDbLine
 10
15138.25312609225
 20
13790.81495653354
 30
0.0
 11
15124.25312609225
 21
13790.81495653354
 31
0.0
  0
LINE
  5
135AD
330
747D
100
AcDbEntity
  8
部品1
 48
50.0
100
AcDbLine
 10
15138.25312609224
 20
13775.81495653354
 30
0.0
 11
15138.25312609224
 21
13790.81495653354
 31
0.0
  0
LINE
  5
135AE
330
747D
100
AcDbEntity
  8
部品1
 62
     2
 48
50.0
100
AcDbLine
 10
15097.25312609225
 20
13740.81495653354
 30
0.0
 11
15097.25312609225
 21
13763.81495653354
 31
0.0
  0
LINE
  5
135AF
330
747D
100
AcDbEntity
  8
部品1
 62
     2
 48
50.0
100
AcDbLine
 10
15124.25312609225
 20
13740.81495653354
 30
0.0
 11
15124.25312609225
 21
13801.81495653354
 31
0.0
  0
LINE
  5
135B0
330
747D
100
AcDbEntity
  8
部品1
 62
     2
 48
50.0
100
AcDbLine
 10
15156.25312609225
 20
13790.81495653354
 30
0.0
 11
15156.25312609225
 21
13802.81495653354
 31
0.0
  0
LINE
  5
135B1
330
747D
100
AcDbEntity
  8
部品1
 48
50.0
100
AcDbLine
 10
15174.25312609224
 20
13775.81495653354
 30
0.0
 11
15174.25312609224
 21
13790.81495653354
 31
0.0
  0
LINE
  5
135B2
330
747D
100
AcDbEntity
  8
部品1
 48
50.0
100
AcDbLine
 10
15161.7531260922
 20
13740.81495653354
 30
0.0
 11
15288.25312609225
 21
13740.81495653355
 31
0.0
  0
LINE
  5
135B3
330
747D
100
AcDbEntity
  8
部品1
 48
50.0
100
AcDbLine
 10
15156.25312609225
 20
13740.81495653354
 30
0.0
 11
15156.25312609225
 21
13775.81495653354
 31
0.0
  0
LINE
  5
135B4
330
747D
100
AcDbEntity
  8
部品1
 62
     2
 48
50.0
100
AcDbLine
 10
17009.21032457705
 20
13743.81495653354
 30
0.0
 11
16433.21032457706
 21
13743.81495653354
 31
0.0
  0
LINE
  5
135B5
330
747D
100
AcDbEntity
  8
部品1
 62
     2
 48
50.0
100
AcDbLine
 10
17009.21032457705
 20
13766.81495653354
 30
0.0
 11
16433.21032457706
 21
13766.81495653354
 31
0.0
  0
LINE
  5
135B6
330
747D
100
AcDbEntity
  8
部品1
 62
     2
 48
50.0
100
AcDbLine
 10
16991.21032457705
 20
13755.31495653354
 30
0.0
 11
16454.21032457706
 21
13755.31495653354
 31
0.0
  0
LINE
  5
135B7
330
747D
100
AcDbEntity
  8
部品1
 48
50.0
100
AcDbLine
 10
16419.21032457705
 20
13775.81495653354
 30
0.0
 11
16269.21032457706
 21
13775.81495653354
 31
0.0
  0
LINE
  5
135B8
330
747D
100
AcDbEntity
  8
部品1
 48
50.0
100
AcDbLine
 10
16419.21032457705
 20
13790.81495653354
 30
0.0
 11
16269.21032457706
 21
13790.81495653354
 31
0.0
  0
LINE
  5
135B9
330
747D
100
AcDbEntity
  8
部品1
 48
50.0
100
AcDbLine
 10
16383.21032457706
 20
13775.81495653354
 30
0.0
 11
16383.21032457706
 21
13790.81495653354
 31
0.0
  0
LINE
  5
135BA
330
747D
100
AcDbEntity
  8
部品1
 62
     2
 48
50.0
100
AcDbLine
 10
16401.21032457706
 20
13790.81495653354
 30
0.0
 11
16401.21032457706
 21
13805.81495653354
 31
0.0
  0
LINE
  5
135BB
330
747D
100
AcDbEntity
  8
部品1
 48
50.0
100
AcDbLine
 10
16395.71032457705
 20
13740.81495653354
 30
0.0
 11
16269.21032457706
 21
13740.81495653354
 31
0.0
  0
LINE
  5
135BD
330
747D
100
AcDbEntity
  8
部品1
 48
50.0
100
AcDbLine
 10
16401.21032457706
 20
13740.81495653354
 30
0.0
 11
16401.21032457706
 21
13775.81495653354
 31
0.0
  0
LINE
  5
135BE
330
747D
100
AcDbEntity
  8
部品1
 48
50.0
100
AcDbLine
 10
16419.21032457705
 20
13775.81495653354
 30
0.0
 11
16419.21032457705
 21
13790.81495653354
 31
0.0
  0
LINE
  5
135BF
330
747D
100
AcDbEntity
  8
部品1
 62
     2
 48
50.0
100
AcDbLine
 10
16419.21032457705
 20
13790.81495653354
 30
0.0
 11
16433.21032457706
 21
13790.81495653354
 31
0.0
  0
LINE
  5
135C0
330
747D
100
AcDbEntity
  8
部品1
 62
     2
 48
50.0
100
AcDbLine
 10
16433.21032457706
 20
13740.81495653354
 30
0.0
 11
16433.21032457706
 21
13796.81495653354
 31
0.0
  0
LINE
  5
135C1
330
747D
100
AcDbEntity
  8
部品1
 62
     2
 48
50.0
100
AcDbLine
 10
16460.21032457706
 20
13743.81495653354
 30
0.0
 11
16460.21032457706
 21
13766.81495653354
 31
0.0
  0
LINE
  5
135C2
330
747D
100
AcDbEntity
  8
部品1
 62
     2
 48
50.0
100
AcDbLine
 10
16985.21032457706
 20
13770.81495653355
 30
0.0
 11
16985.21032457706
 21
13793.81495653352
 31
0.0
  0
LINE
  5
135C3
330
747D
100
AcDbEntity
  8
部品1
 62
     2
 48
50.0
100
AcDbLine
 10
17009.21032457705
 20
13770.81495653353
 30
0.0
 11
17009.21032457705
 21
13793.81495653352
 31
0.0
  0
LINE
  5
135C4
330
747D
100
AcDbEntity
  8
部品1
 62
     2
 48
50.0
100
AcDbLine
 10
16985.21032457706
 20
13743.81495653354
 30
0.0
 11
16985.21032457706
 21
13766.81495653354
 31
0.0
  0
LINE
  5
135C5
330
747D
100
AcDbEntity
  8
部品1
 62
     2
 48
50.0
100
AcDbLine
 10
17009.21032457705
 20
13743.81495653354
 30
0.0
 11
17009.21032457705
 21
13766.81495653354
 31
0.0
  0
LINE
  5
135C6
330
747D
100
AcDbEntity
  8
部品1
 62
     2
 48
50.0
100
AcDbLine
 10
18131.21032457706
 20
13755.31495653354
 30
0.0
 11
18668.21032457706
 21
13755.31495653354
 31
0.0
  0
LINE
  5
135C7
330
747D
100
AcDbEntity
  8
部品1
 62
     2
 48
50.0
100
AcDbLine
 10
18113.21032457706
 20
13743.81495653354
 30
0.0
 11
18689.21032457706
 21
13743.81495653354
 31
0.0
  0
LINE
  5
135C8
330
747D
100
AcDbEntity
  8
部品1
 62
     2
 48
50.0
100
AcDbLine
 10
18113.21032457706
 20
13766.81495653354
 30
0.0
 11
18689.21032457706
 21
13766.81495653354
 31
0.0
  0
LINE
  5
135C9
330
747D
100
AcDbEntity
  8
部品1
 62
     2
 48
50.0
100
AcDbLine
 10
17582.21032457706
 20
13782.31495653354
 30
0.0
 11
18119.21032457705
 21
13782.31495653354
 31
0.0
  0
LINE
  5
135CA
330
747D
100
AcDbEntity
  8
部品1
 62
     2
 48
50.0
100
AcDbLine
 10
17561.21032457706
 20
13793.81495653354
 30
0.0
 11
18137.21032457705
 21
13793.81495653354
 31
0.0
  0
LINE
  5
135CB
330
747D
100
AcDbEntity
  8
部品1
 62
     2
 48
50.0
100
AcDbLine
 10
17561.21032457706
 20
13770.81495653354
 30
0.0
 11
18137.21032457705
 21
13770.81495653355
 31
0.0
  0
LINE
  5
135CC
330
747D
100
AcDbEntity
  8
部品1
 62
     2
 48
50.0
100
AcDbLine
 10
17534.21032457706
 20
13770.81495653354
 30
0.0
 11
17534.21032457706
 21
13793.81495653354
 31
0.0
  0
LINE
  5
135CD
330
747D
100
AcDbEntity
  8
部品1
 62
     2
 48
50.0
100
AcDbLine
 10
17561.21032457706
 20
13770.81495653354
 30
0.0
 11
17561.21032457706
 21
13793.81495653354
 31
0.0
  0
LINE
  5
135CE
330
747D
100
AcDbEntity
  8
部品1
 62
     2
 48
50.0
100
AcDbLine
 10
17588.21032457706
 20
13770.81495653354
 30
0.0
 11
17588.21032457706
 21
13793.81495653354
 31
0.0
  0
LINE
  5
135CF
330
747D
100
AcDbEntity
  8
部品1
 62
     2
 48
50.0
100
AcDbLine
 10
18113.21032457706
 20
13770.81495653353
 30
0.0
 11
18113.21032457706
 21
13793.81495653352
 31
0.0
  0
LINE
  5
135D0
330
747D
100
AcDbEntity
  8
部品1
 62
     2
 48
50.0
100
AcDbLine
 10
18137.21032457705
 20
13770.81495653355
 30
0.0
 11
18137.21032457705
 21
13793.81495653352
 31
0.0
  0
LINE
  5
135D1
330
747D
100
AcDbEntity
  8
部品1
 62
     2
 48
50.0
100
AcDbLine
 10
18113.21032457706
 20
13743.81495653354
 30
0.0
 11
18113.21032457706
 21
13766.81495653354
 31
0.0
  0
LINE
  5
135D2
330
747D
100
AcDbEntity
  8
部品1
 62
     2
 48
50.0
100
AcDbLine
 10
18137.21032457705
 20
13743.81495653354
 30
0.0
 11
18137.21032457705
 21
13766.81495653354
 31
0.0
  0
LINE
  5
135D3
330
747D
100
AcDbEntity
  8
部品1
 62
     2
 48
50.0
100
AcDbLine
 10
18662.21032457706
 20
13743.81495653354
 30
0.0
 11
18662.21032457706
 21
13766.81495653354
 31
0.0
  0
LINE
  5
135D4
330
747D
100
AcDbEntity
  8
部品1
 48
50.0
100
AcDbLine
 10
18703.21032457706
 20
13790.81495653354
 30
0.0
 11
18853.21032457706
 21
13790.81495653354
 31
0.0
  0
LINE
  5
135D5
330
747D
100
AcDbEntity
  8
部品1
 48
50.0
100
AcDbLine
 10
18703.21032457706
 20
13775.81495653354
 30
0.0
 11
18853.21032457706
 21
13775.81495653354
 31
0.0
  0
LINE
  5
135D6
330
747D
100
AcDbEntity
  8
部品1
 62
     2
 48
50.0
100
AcDbLine
 10
18721.21032457705
 20
13790.81495653354
 30
0.0
 11
18721.21032457705
 21
13805.81495653354
 31
0.0
  0
LINE
  5
135D7
330
747D
100
AcDbEntity
  8
部品1
 48
50.0
100
AcDbLine
 10
18739.21032457706
 20
13775.81495653354
 30
0.0
 11
18739.21032457706
 21
13790.81495653354
 31
0.0
  0
LINE
  5
135D8
330
747D
100
AcDbEntity
  8
部品1
 62
     2
 48
50.0
100
AcDbLine
 10
18703.21032457706
 20
13790.81495653354
 30
0.0
 11
18689.21032457706
 21
13790.81495653354
 31
0.0
  0
LINE
  5
135D9
330
747D
100
AcDbEntity
  8
部品1
 48
50.0
100
AcDbLine
 10
18703.21032457706
 20
13775.81495653354
 30
0.0
 11
18703.21032457706
 21
13790.81495653354
 31
0.0
  0
LINE
  5
135DA
330
747D
100
AcDbEntity
  8
部品1
 48
50.0
100
AcDbLine
 10
18726.71032457706
 20
13740.81495653354
 30
0.0
 11
18853.21032457706
 21
13740.81495653354
 31
0.0
  0
LINE
  5
135DB
330
747D
100
AcDbEntity
  8
部品1
 48
50.0
100
AcDbLine
 10
18721.21032457705
 20
13740.81495653354
 30
0.0
 11
18721.21032457705
 21
13775.81495653354
 31
0.0
  0
LINE
  5
135DD
330
747D
100
AcDbEntity
  8
部品1
 62
     2
 48
50.0
100
AcDbLine
 10
18689.21032457706
 20
13740.81495653354
 30
0.0
 11
18689.21032457706
 21
13796.81495653354
 31
0.0
  0
ENDSEC
  0
SECTION
  2
OBJECTS
  0
DICTIONARY
  5
7471
330
0
100
AcDbDictionary
281
     1
  3
ACAD_GROUP
350
7472
  3
ACAD_MLINESTYLE
350
7473
  3
CONTENTDICTIONARY
350
E71C
  3
DRAWINGVARIABLESDICT
350
F3B9
  3
ACAD_LAYOUT
350
13671
  3
ACAD_PLOTSETTINGS
350
13672
  3
ACAD_PLOTSTYLENAME
350
13717
1001
ACAD
1000
TREAT_AS_HARD
1070
     0
  0
DICTIONARY
  5
1367E
330
747D
100
AcDbDictionary
281
     1
  3
ACAD_LAYOUTSELFREF
350
1367F
  0
DICTIONARY
  5
1367C
330
747A
100
AcDbDictionary
281
     1
  3
ACAD_LAYOUTSELFREF
350
1367D
  0
DICTIONARY
  5
7472
102
{ACAD_REACTORS
330
7471
102
}
330
7471
100
AcDbDictionary
281
     1
1001
ACAD
1000
TREAT_AS_HARD
1070
     0
  0
DICTIONARY
  5
7473
102
{ACAD_REACTORS
330
7471
102
}
330
7471
100
AcDbDictionary
281
     1
  3
STANDARD
350
7480
1001
ACAD
1000
TREAT_AS_HARD
1070
     0
  0
DICTIONARY
  5
E71C
102
{ACAD_REACTORS
330
7471
102
}
330
7471
100
AcDbDictionary
281
     1
1001
ACAD
1000
TREAT_AS_HARD
1070
     0
  0
DICTIONARY
  5
F3B9
102
{ACAD_REACTORS
330
7471
102
}
330
7471
100
AcDbDictionary
281
     1
1001
DRAWINGVARIABLESXDATA
1000
POLARMODE
1000
1
1001
ACAD
1000
TREAT_AS_HARD
1070
     0
  0
DICTIONARY
  5
13671
102
{ACAD_REACTORS
330
7471
102
}
330
7471
100
AcDbDictionary
281
     1
  3
Model
350
13719
  3
ﾚｲｱｳﾄ1
350
1371A
1001
ACAD
1000
TREAT_AS_HARD
1070
     0
  0
DICTIONARY
  5
13672
102
{ACAD_REACTORS
330
7471
102
}
330
7471
100
AcDbDictionary
281
     1
1001
ACAD
1000
TREAT_AS_HARD
1070
     0
  0
ACDBDICTIONARYWDFLT
  5
13717
102
{ACAD_REACTORS
330
7471
102
}
330
7471
100
AcDbDictionary
281
     1
  3
Normal
350
13718
100
AcDbDictionaryWithDefault
340
13718
  0
XRECORD
  5
1367F
102
{ACAD_REACTORS
330
1367E
102
}
330
1367E
100
AcDbXrecord
280
     1
340
747D
  0
XRECORD
  5
1367D
102
{ACAD_REACTORS
330
1367C
102
}
330
1367C
100
AcDbXrecord
280
     1
340
747A
  0
MLINESTYLE
  5
7480
102
{ACAD_REACTORS
330
7473
102
}
330
7473
100
AcDbMlineStyle
  2
STANDARD
 70
     0
  3

 62
     0
 51
90.0
 52
90.0
 71
     2
 49
0.5
 62
   256
  6
BYLAYER
 49
-0.5
 62
   256
  6
BYLAYER
  0
LAYOUT
  5
13719
102
{ACAD_REACTORS
330
13671
102
}
330
13671
100
AcDbPlotSettings
  1

  2
Canon LASER SHOT LBP-730
  4

  6

 40
0.0
 41
0.0
 42
0.0
 43
0.0
 44
0.0
 45
0.0
 46
0.0
 47
0.0
 48
0.0
 49
0.0
140
0.0
141
0.0
142
1.0
143
1.0
 70
  1712
 72
     0
 73
     0
 74
     0
  7

 75
     0
147
1.0
148
0.0
149
0.0
100
AcDbLayout
  1
Model
 70
     1
 71
     0
 10
0.0
 20
0.0
 11
12.0
 21
9.0
 12
0.0
 22
0.0
 32
0.0
 14
0.0
 24
0.0
 34
0.0
 15
0.0
 25
0.0
 35
0.0
146
0.0
 13
0.0
 23
0.0
 33
0.0
 16
1.0
 26
0.0
 36
0.0
 17
0.0
 27
1.0
 37
0.0
 76
     0
330
747D
  0
LAYOUT
  5
1371A
102
{ACAD_REACTORS
330
13671
102
}
330
13671
100
AcDbPlotSettings
  1

  2
Canon LASER SHOT LBP-730
  4

  6

 40
0.0
 41
0.0
 42
0.0
 43
0.0
 44
0.0
 45
0.0
 46
0.0
 47
0.0
 48
0.0
 49
0.0
140
0.0
141
0.0
142
1.0
143
1.0
 70
   688
 72
     0
 73
     0
 74
     5
  7

 75
    16
147
1.0
148
0.0
149
0.0
100
AcDbLayout
  1
ﾚｲｱｳﾄ1
 70
     0
 71
     1
 10
0.0
 20
0.0
 11
420.0
 21
297.0
 12
0.0
 22
0.0
 32
0.0
 14
1.000000000000000E+20
 24
1.000000000000000E+20
 34
1.000000000000000E+20
 15
-1.000000000000000E+20
 25
-1.000000000000000E+20
 35
-1.000000000000000E+20
146
0.0
 13
0.0
 23
0.0
 33
0.0
 16
1.0
 26
0.0
 36
0.0
 17
0.0
 27
1.0
 37
0.0
 76
     0
330
747A
  0
ACDBPLACEHOLDER
  5
13718
102
{ACAD_REACTORS
330
13717
102
}
330
13717
  0
ENDSEC
  0
EOF
