  0
SECTION
  2
HEADER
  9
$ACADVER
  1
AC1015
  9
$ACADMAINTVER
 70
    20
  9
$DWGCODEPAGE
  3
ANSI_932
  9
$INSBASE
 10
0.0
 20
0.0
 30
0.0
  9
$EXTMIN
 10
139.9999999999995
 20
-0.0000000000000909
 30
0.0
  9
$EXTMAX
 10
16307.2
 20
11409.6
 30
0.0
  9
$LIMMIN
 10
-25.79074261211281
 20
-125.8223078213959
  9
$LIMMAX
 10
16471.10331197129
 20
11496.44801950658
  9
$ORTHOMODE
 70
     0
  9
$REGENMODE
 70
     1
  9
$FILLMODE
 70
     1
  9
$QTEXTMODE
 70
     0
  9
$MIRRTEXT
 70
     1
  9
$LTSCALE
 40
20.0
  9
$ATTMODE
 70
     1
  9
$TEXTSIZE
 40
100.0
  9
$TRACEWID
 40
1.0
  9
$TEXTSTYLE
  7
STYLE3
  9
$CLAYER
  8
部品1
  9
$CELTYPE
  6
BYLAYER
  9
$CECOLOR
 62
   256
  9
$CELTSCALE
 40
50.0
  9
$DISPSILH
 70
     0
  9
$DIMSCALE
 40
40.0
  9
$DIMASZ
 40
0.5
  9
$DIMEXO
 40
0.5
  9
$DIMDLI
 40
7.0
  9
$DIMRND
 40
0.0
  9
$DIMDLE
 40
0.0
  9
$DIMEXE
 40
1.0
  9
$DIMTP
 40
0.0
  9
$DIMTM
 40
0.0
  9
$DIMTXT
 40
3.0
  9
$DIMCEN
 40
0.0
  9
$DIMTSZ
 40
0.0
  9
$DIMTOL
 70
     0
  9
$DIMLIM
 70
     0
  9
$DIMTIH
 70
     0
  9
$DIMTOH
 70
     0
  9
$DIMSE1
 70
     0
  9
$DIMSE2
 70
     0
  9
$DIMTAD
 70
     3
  9
$DIMZIN
 70
     8
  9
$DIMBLK
  1

  9
$DIMASO
 70
     1
  9
$DIMSHO
 70
     1
  9
$DIMPOST
  1

  9
$DIMAPOST
  1

  9
$DIMALT
 70
     0
  9
$DIMALTD
 70
     2
  9
$DIMALTF
 40
0.0394
  9
$DIMLFAC
 40
1.0
  9
$DIMTOFL
 70
     1
  9
$DIMTVP
 40
0.0
  9
$DIMTIX
 70
     1
  9
$DIMSOXD
 70
     1
  9
$DIMSAH
 70
     1
  9
$DIMBLK1
  1
DOT
  9
$DIMBLK2
  1
DOT
  9
$DIMSTYLE
  2
INABA_S40
  9
$DIMCLRD
 70
     0
  9
$DIMCLRE
 70
     0
  9
$DIMCLRT
 70
     7
  9
$DIMTFAC
 40
1.0
  9
$DIMGAP
 40
0.8
  9
$DIMJUST
 70
     0
  9
$DIMSD1
 70
     0
  9
$DIMSD2
 70
     0
  9
$DIMTOLJ
 70
     1
  9
$DIMTZIN
 70
     0
  9
$DIMALTZ
 70
     0
  9
$DIMALTTZ
 70
     0
  9
$DIMUPT
 70
     0
  9
$DIMDEC
 70
     2
  9
$DIMTDEC
 70
     2
  9
$DIMALTU
 70
     2
  9
$DIMALTTD
 70
     2
  9
$DIMTXSTY
  7
STYLE1
  9
$DIMAUNIT
 70
     0
  9
$DIMADEC
 70
     0
  9
$DIMALTRND
 40
0.0
  9
$DIMAZIN
 70
     0
  9
$DIMDSEP
 70
    46
  9
$DIMATFIT
 70
     3
  9
$DIMFRAC
 70
     0
  9
$DIMLDRBLK
  1

  9
$DIMLUNIT
 70
     2
  9
$DIMLWD
 70
    -2
  9
$DIMLWE
 70
    -2
  9
$DIMTMOVE
 70
     0
  9
$LUNITS
 70
     2
  9
$LUPREC
 70
     1
  9
$SKETCHINC
 40
1.0
  9
$FILLETRAD
 40
5.0
  9
$AUNITS
 70
     0
  9
$AUPREC
 70
     0
  9
$MENU
  1
acad
  9
$ELEVATION
 40
0.0
  9
$PELEVATION
 40
0.0
  9
$THICKNESS
 40
0.0
  9
$LIMCHECK
 70
     0
  9
$CHAMFERA
 40
0.0
  9
$CHAMFERB
 40
0.0
  9
$CHAMFERC
 40
0.0
  9
$CHAMFERD
 40
0.0
  9
$SKPOLY
 70
     0
  9
$TDCREATE
 40
2451590.492424190
  9
$TDUCREATE
 40
2451590.117424190
  9
$TDUPDATE
 40
2456527.781341505
  9
$TDUUPDATE
 40
2456527.406341505
  9
$TDINDWG
 40
0.4887107755
  9
$TDUSRTIMER
 40
0.4887096875
  9
$USRTIMER
 70
     1
  9
$ANGBASE
 50
0.0
  9
$ANGDIR
 70
     0
  9
$PDMODE
 70
     3
  9
$PDSIZE
 40
2.0
  9
$PLINEWID
 40
0.0
  9
$SPLFRAME
 70
     0
  9
$SPLINETYPE
 70
     6
  9
$SPLINESEGS
 70
     8
  9
$HANDSEED
  5
1AAE0
  9
$SURFTAB1
 70
     6
  9
$SURFTAB2
 70
     6
  9
$SURFTYPE
 70
     6
  9
$SURFU
 70
     6
  9
$SURFV
 70
     6
  9
$UCSBASE
  2

  9
$UCSNAME
  2

  9
$UCSORG
 10
0.0
 20
0.0
 30
0.0
  9
$UCSXDIR
 10
1.0
 20
0.0
 30
0.0
  9
$UCSYDIR
 10
0.0
 20
1.0
 30
0.0
  9
$UCSORTHOREF
  2

  9
$UCSORTHOVIEW
 70
     0
  9
$UCSORGTOP
 10
0.0
 20
0.0
 30
0.0
  9
$UCSORGBOTTOM
 10
0.0
 20
0.0
 30
0.0
  9
$UCSORGLEFT
 10
0.0
 20
0.0
 30
0.0
  9
$UCSORGRIGHT
 10
0.0
 20
0.0
 30
0.0
  9
$UCSORGFRONT
 10
0.0
 20
0.0
 30
0.0
  9
$UCSORGBACK
 10
0.0
 20
0.0
 30
0.0
  9
$PUCSBASE
  2

  9
$PUCSNAME
  2

  9
$PUCSORG
 10
0.0
 20
0.0
 30
0.0
  9
$PUCSXDIR
 10
1.0
 20
0.0
 30
0.0
  9
$PUCSYDIR
 10
0.0
 20
1.0
 30
0.0
  9
$PUCSORTHOREF
  2

  9
$PUCSORTHOVIEW
 70
     0
  9
$PUCSORGTOP
 10
0.0
 20
0.0
 30
0.0
  9
$PUCSORGBOTTOM
 10
0.0
 20
0.0
 30
0.0
  9
$PUCSORGLEFT
 10
0.0
 20
0.0
 30
0.0
  9
$PUCSORGRIGHT
 10
0.0
 20
0.0
 30
0.0
  9
$PUCSORGFRONT
 10
0.0
 20
0.0
 30
0.0
  9
$PUCSORGBACK
 10
0.0
 20
0.0
 30
0.0
  9
$USERI1
 70
     0
  9
$USERI2
 70
     0
  9
$USERI3
 70
     0
  9
$USERI4
 70
     0
  9
$USERI5
 70
     0
  9
$USERR1
 40
0.0
  9
$USERR2
 40
0.0
  9
$USERR3
 40
0.0
  9
$USERR4
 40
0.0
  9
$USERR5
 40
0.0
  9
$WORLDVIEW
 70
     1
  9
$SHADEDGE
 70
     3
  9
$SHADEDIF
 70
    70
  9
$TILEMODE
 70
     1
  9
$MAXACTVP
 70
    16
  9
$PINSBASE
 10
0.0
 20
0.0
 30
0.0
  9
$PLIMCHECK
 70
     0
  9
$PEXTMIN
 10
1.000000000000000E+20
 20
1.000000000000000E+20
 30
1.000000000000000E+20
  9
$PEXTMAX
 10
-1.000000000000000E+20
 20
-1.000000000000000E+20
 30
-1.000000000000000E+20
  9
$PLIMMIN
 10
0.0
 20
0.0
  9
$PLIMMAX
 10
420.0
 20
297.0
  9
$UNITMODE
 70
     0
  9
$VISRETAIN
 70
     0
  9
$PLINEGEN
 70
     0
  9
$PSLTSCALE
 70
     0
  9
$TREEDEPTH
 70
  3020
  9
$CMLSTYLE
  2
STANDARD
  9
$CMLJUST
 70
     0
  9
$CMLSCALE
 40
1.0
  9
$PROXYGRAPHICS
 70
     1
  9
$MEASUREMENT
 70
     1
  9
$CELWEIGHT
370
    -1
  9
$ENDCAPS
280
     0
  9
$JOINSTYLE
280
     0
  9
$LWDISPLAY
290
     0
  9
$INSUNITS
 70
     0
  9
$HYPERLINKBASE
  1

  9
$STYLESHEET
  1
inaba.ctb
  9
$XEDIT
290
     1
  9
$CEPSNTYPE
380
     0
  9
$PSTYLEMODE
290
     1
  9
$FINGERPRINTGUID
  2
{9E0F4C8E-3C35-47E9-B2F5-84C05B8ACD70}
  9
$VERSIONGUID
  2
{B1644D0F-B370-4EEC-832E-0DEAA779A9C2}
  9
$EXTNAMES
290
     1
  9
$PSVPSCALE
 40
0.0
  9
$OLESTARTUP
290
     0
  0
ENDSEC
  0
SECTION
  2
CLASSES
  0
CLASS
  1
ACDBDICTIONARYWDFLT
  2
AcDbDictionaryWithDefault
  3
ObjectDBX Classes
 90
        0
280
     0
281
     0
  0
CLASS
  1
DICTIONARYVAR
  2
AcDbDictionaryVar
  3
ObjectDBX Classes
 90
        0
280
     0
281
     0
  0
CLASS
  1
ACDBPLACEHOLDER
  2
AcDbPlaceHolder
  3
ObjectDBX Classes
 90
        0
280
     0
281
     0
  0
CLASS
  1
LAYOUT
  2
AcDbLayout
  3
ObjectDBX Classes
 90
        0
280
     0
281
     0
  0
ENDSEC
  0
SECTION
  2
TABLES
  0
TABLE
  2
VPORT
  5
746D
330
0
100
AcDbSymbolTable
 70
     2
  0
VPORT
  5
1AAD8
330
746D
100
AcDbSymbolTableRecord
100
AcDbViewportTableRecord
  2
*Active
 70
     0
 10
0.0
 20
0.0
 11
1.0
 21
1.0
 12
10158.59987697116
 22
5685.312855842594
 13
0.0
 23
0.0
 14
10.0
 24
10.0
 15
10.0
 25
10.0
 16
0.0
 26
0.0
 36
1.0
 17
0.0
 27
0.0
 37
0.0
 40
11908.49335762546
 41
1.718579234972677
 42
50.0
 43
0.0
 44
0.0
 50
0.0
 51
0.0
 71
     0
 72
     0
 73
     1
 74
     0
 75
     0
 76
     0
 77
     0
 78
     0
281
     0
 65
     1
110
0.0
120
0.0
130
0.0
111
1.0
121
0.0
131
0.0
112
0.0
122
1.0
132
0.0
 79
     0
146
0.0
  0
ENDTAB
  0
TABLE
  2
LTYPE
  5
746A
330
0
100
AcDbSymbolTable
 70
    12
  0
LTYPE
  5
7477
330
746A
100
AcDbSymbolTableRecord
100
AcDbLinetypeTableRecord
  2
BYBLOCK
 70
     0
  3

 72
    65
 73
     0
 40
0.0
  0
LTYPE
  5
7478
330
746A
100
AcDbSymbolTableRecord
100
AcDbLinetypeTableRecord
  2
BYLAYER
 70
     0
  3

 72
    65
 73
     0
 40
0.0
  0
LTYPE
  5
7479
330
746A
100
AcDbSymbolTableRecord
100
AcDbLinetypeTableRecord
  2
CONTINUOUS
 70
     0
  3
Solid line
 72
    65
 73
     0
 40
0.0
  0
LTYPE
  5
7816
330
746A
100
AcDbSymbolTableRecord
100
AcDbLinetypeTableRecord
  2
CENTER
 70
     0
  3
____ _ ____ _ ____ _ ____ _ ____ _ ____ _ ____ 
 72
    65
 73
     4
 40
2.0
 49
1.25
 74
     0
 49
-0.25
 74
     0
 49
0.25
 74
     0
 49
-0.25
 74
     0
  0
LTYPE
  5
781A
330
746A
100
AcDbSymbolTableRecord
100
AcDbLinetypeTableRecord
  2
HIDDEN
 70
     0
  3
__ __ __ __ __ __ __ __ __ __ __ __ __ __ __ __
 72
    65
 73
     2
 40
0.375
 49
0.25
 74
     0
 49
-0.125
 74
     0
  0
LTYPE
  5
781B
330
746A
100
AcDbSymbolTableRecord
100
AcDbLinetypeTableRecord
  2
PHANTOM
 70
     0
  3
______  __  __  ______  __  __  ______  __  __ 
 72
    65
 73
     6
 40
2.5
 49
1.25
 74
     0
 49
-0.25
 74
     0
 49
0.25
 74
     0
 49
-0.25
 74
     0
 49
0.25
 74
     0
 49
-0.25
 74
     0
  0
LTYPE
  5
145D8
330
746A
100
AcDbSymbolTableRecord
100
AcDbLinetypeTableRecord
  2
HIDDENX2
 70
     0
  3
Hidden (2x) ____ ____ ____ ____ ____ ____ ____
 72
    65
 73
     2
 40
19.05
 49
12.7
 74
     0
 49
-6.349999999999998
 74
     0
  0
LTYPE
  5
145D9
330
746A
100
AcDbSymbolTableRecord
100
AcDbLinetypeTableRecord
  2
実線５
 70
     0
  3

 72
    65
 73
     0
 40
0.0
  0
LTYPE
  5
145DA
330
746A
100
AcDbSymbolTableRecord
100
AcDbLinetypeTableRecord
  2
一点鎖線３
 70
     0
  3

 72
    65
 73
     4
 40
13.0
 49
10.0
 74
     0
 49
-1.0
 74
     0
 49
1.0
 74
     0
 49
-1.0
 74
     0
  0
LTYPE
  5
145DB
330
746A
100
AcDbSymbolTableRecord
100
AcDbLinetypeTableRecord
  2
実線２
 70
     0
  3

 72
    65
 73
     0
 40
0.0
  0
LTYPE
  5
145DC
330
746A
100
AcDbSymbolTableRecord
100
AcDbLinetypeTableRecord
  2
破線３
 70
     0
  3

 72
    65
 73
     2
 40
4.0
 49
3.0
 74
     0
 49
-1.0
 74
     0
  0
LTYPE
  5
145DD
330
746A
100
AcDbSymbolTableRecord
100
AcDbLinetypeTableRecord
  2
実線９
 70
     0
  3

 72
    65
 73
     0
 40
0.0
  0
LTYPE
  5
145DE
330
746A
100
AcDbSymbolTableRecord
100
AcDbLinetypeTableRecord
  2
実線１
 70
     0
  3

 72
    65
 73
     0
 40
0.0
  0
LTYPE
  5
145DF
330
746A
100
AcDbSymbolTableRecord
100
AcDbLinetypeTableRecord
  2
実線６
 70
     0
  3

 72
    65
 73
     0
 40
0.0
  0
ENDTAB
  0
TABLE
  2
LAYER
  5
7467
102
{ACAD_XDICTIONARY
360
13C05
102
}
330
0
100
AcDbSymbolTable
 70
    17
  0
LAYER
  5
7474
330
7467
100
AcDbSymbolTableRecord
100
AcDbLayerTableRecord
  2
0
 70
     0
 62
     7
  6
CONTINUOUS
370
    -3
390
13A7B
  0
LAYER
  5
DEB2
330
7467
100
AcDbSymbolTableRecord
100
AcDbLayerTableRecord
  2
センター
 70
     0
 62
     3
  6
CENTER
370
    -3
390
13A7B
  0
LAYER
  5
DEB3
330
7467
100
AcDbSymbolTableRecord
100
AcDbLayerTableRecord
  2
寸法
 70
     0
 62
     4
  6
CONTINUOUS
370
    -3
390
13A7B
  0
LAYER
  5
DEB4
330
7467
100
AcDbSymbolTableRecord
100
AcDbLayerTableRecord
  2
部品1
 70
     0
 62
     7
  6
CONTINUOUS
370
    -3
390
13A7B
  0
LAYER
  5
DEB5
330
7467
100
AcDbSymbolTableRecord
100
AcDbLayerTableRecord
  2
補助
 70
     0
 62
    -1
  6
CONTINUOUS
370
    -3
390
13A7B
  0
LAYER
  5
DEB6
330
7467
100
AcDbSymbolTableRecord
100
AcDbLayerTableRecord
  2
文字
 70
     0
 62
     7
  6
CONTINUOUS
370
    -3
390
13A7B
  0
LAYER
  5
F255
330
7467
100
AcDbSymbolTableRecord
100
AcDbLayerTableRecord
  2
DEFPOINTS
 70
     0
 62
     7
  6
CONTINUOUS
290
     0
370
    -3
390
13A7B
  0
LAYER
  5
10B54
330
7467
100
AcDbSymbolTableRecord
100
AcDbLayerTableRecord
  2
仕様書枠
 70
     0
 62
   230
  6
CONTINUOUS
370
    -3
390
13A7B
  0
LAYER
  5
11729
330
7467
100
AcDbSymbolTableRecord
100
AcDbLayerTableRecord
  2
Ｇ．Ｌ
 70
     0
 62
    30
  6
CONTINUOUS
370
    -3
390
13A7B
  0
LAYER
  5
1173F
330
7467
100
AcDbSymbolTableRecord
100
AcDbLayerTableRecord
  2
細線
 70
     0
 62
     5
  6
CONTINUOUS
370
    -3
390
13A7B
  0
LAYER
  5
11740
330
7467
100
AcDbSymbolTableRecord
100
AcDbLayerTableRecord
  2
点線
 70
     0
 62
     2
  6
HIDDEN
370
    -3
390
13A7B
  0
LAYER
  5
11905
330
7467
100
AcDbSymbolTableRecord
100
AcDbLayerTableRecord
  2
破線
 70
     0
 62
     2
  6
HIDDEN
370
    -3
390
13A7B
  0
LAYER
  5
145E0
330
7467
100
AcDbSymbolTableRecord
100
AcDbLayerTableRecord
  2
隠れ線
 70
     0
 62
     2
  6
HIDDENX2
370
    -3
390
13A7B
  0
LAYER
  5
145E1
330
7467
100
AcDbSymbolTableRecord
100
AcDbLayerTableRecord
  2
部品1-1
 70
     0
 62
     7
  6
CONTINUOUS
370
    -3
390
13A7B
  0
LAYER
  5
145E2
330
7467
100
AcDbSymbolTableRecord
100
AcDbLayerTableRecord
  2
GR1-1
 70
     0
 62
     7
  6
CONTINUOUS
370
    -3
390
13A7B
  0
LAYER
  5
145E3
330
7467
100
AcDbSymbolTableRecord
100
AcDbLayerTableRecord
  2
0-1
 70
     0
 62
     7
  6
CONTINUOUS
370
    -3
390
13A7B
  0
LAYER
  5
145E4
330
7467
100
AcDbSymbolTableRecord
100
AcDbLayerTableRecord
  2
点線-1
 70
     0
 62
     7
  6
CONTINUOUS
370
    -3
390
13A7B
  0
ENDTAB
  0
TABLE
  2
STYLE
  5
7468
330
0
100
AcDbSymbolTable
 70
     8
  0
STYLE
  5
7475
330
7468
100
AcDbSymbolTableRecord
100
AcDbTextStyleTableRecord
  2
STANDARD
 70
     0
 40
0.0
 41
1.0
 50
0.0
 71
     0
 42
4.0
  3
txt
  4
C:\AutoCAD LT\bigfont.shx
  0
STYLE
  5
763C
330
7468
100
AcDbSymbolTableRecord
100
AcDbTextStyleTableRecord
  2
MSMINCHO
 70
     0
 40
0.0
 41
1.0
 50
0.0
 71
     0
 42
1.199999999999999
  3
C:\AutoCAD LT\msminch2.TTF
  4

  0
STYLE
  5
F5E9
330
7468
100
AcDbSymbolTableRecord
100
AcDbTextStyleTableRecord
  2

 70
     1
 40
0.0
 41
1.0
 50
0.0
 71
     0
 42
4.0
  3
ltypeshp.shx
  4

  0
STYLE
  5
F706
330
7468
100
AcDbSymbolTableRecord
100
AcDbTextStyleTableRecord
  2
STYLE1
 70
     0
 40
0.0
 41
1.0
 50
0.0
 71
     0
 42
4.0
  3
isocp.shx
  4
bigfont.shx
  0
STYLE
  5
103BF
330
7468
100
AcDbSymbolTableRecord
100
AcDbTextStyleTableRecord
  2
STYLE2
 70
     0
 40
0.0
 41
1.0
 50
0.0
 71
     0
 42
100.0
  3
MS PGothic.ttf
  4

1001
ACAD
1000
MS PGothic
1071
    32818
  0
STYLE
  5
10BAA
330
7468
100
AcDbSymbolTableRecord
100
AcDbTextStyleTableRecord
  2
STYLE3
 70
     0
 40
0.0
 41
1.0
 50
0.0
 71
     0
 42
100.0
  3
DFPGothic-EB.ttf
  4

1001
ACAD
1000
DFPGothic-EB
1071
    32818
  0
STYLE
  5
11906
330
7468
100
AcDbSymbolTableRecord
100
AcDbTextStyleTableRecord
  2
MSGOTHIC
 70
     0
 40
0.0
 41
1.0
 50
0.0
 71
     0
 42
3.5
  3
msgothi2.ttf
  4

  0
STYLE
  5
14F03
330
7468
100
AcDbSymbolTableRecord
100
AcDbTextStyleTableRecord
  2
ISOCP
 70
     0
 40
0.0
 41
1.0
 50
0.0
 71
     0
 42
4.0
  3
isocp.shx
  4
bigfont.shx
  0
ENDTAB
  0
TABLE
  2
VIEW
  5
746B
330
0
100
AcDbSymbolTable
 70
     0
  0
ENDTAB
  0
TABLE
  2
UCS
  5
746C
330
0
100
AcDbSymbolTable
 70
     0
  0
ENDTAB
  0
TABLE
  2
APPID
  5
746E
330
0
100
AcDbSymbolTable
 70
     9
  0
APPID
  5
7476
330
746E
100
AcDbSymbolTableRecord
100
AcDbRegAppTableRecord
  2
ACAD
 70
     0
  0
APPID
  5
DEA9
330
746E
100
AcDbSymbolTableRecord
100
AcDbRegAppTableRecord
  2
CONTENTBLOCKICON
 70
     0
  0
APPID
  5
DEAA
330
746E
100
AcDbSymbolTableRecord
100
AcDbRegAppTableRecord
  2
CONTENTBLOCKDESCRIPTION
 70
     0
  0
APPID
  5
E71D
330
746E
100
AcDbSymbolTableRecord
100
AcDbRegAppTableRecord
  2
CONTENTTABDATA
 70
     0
  0
APPID
  5
E71E
330
746E
100
AcDbSymbolTableRecord
100
AcDbRegAppTableRecord
  2
CONTENTCURRENTTAB
 70
     0
  0
APPID
  5
F3BA
330
746E
100
AcDbSymbolTableRecord
100
AcDbRegAppTableRecord
  2
DRAWINGVARIABLESXDATA
 70
     0
  0
APPID
  5
1A31C
330
746E
100
AcDbSymbolTableRecord
100
AcDbRegAppTableRecord
  2
GENIUS_GENODEF_13
 70
     0
  0
APPID
  5
1A31D
330
746E
100
AcDbSymbolTableRecord
100
AcDbRegAppTableRecord
  2
GENIUS_GENREC_14
 70
     0
  0
APPID
  5
1A31E
330
746E
100
AcDbSymbolTableRecord
100
AcDbRegAppTableRecord
  2
GENIUS_GENOBJ-N-REC_13
 70
     0
  0
ENDTAB
  0
TABLE
  2
DIMSTYLE
  5
746F
330
0
100
AcDbSymbolTable
 70
     9
100
AcDbDimStyleTable
 71
     1
340
F236
  0
DIMSTYLE
105
7484
330
746F
100
AcDbSymbolTableRecord
100
AcDbDimStyleTableRecord
  2
JIS
 70
     0
 41
2.5
 42
1.0
 43
7.0
 44
1.0
 73
     0
 74
     0
 77
     1
 78
     8
140
2.5
141
0.0
143
0.0394
147
0.0
172
     1
174
     1
175
     1
340
7475
  0
DIMSTYLE
105
F236
102
{ACAD_REACTORS
330
136B1
330
136BD
330
136BE
330
136BF
330
136C3
330
136DA
330
120D6
330
120D7
330
120D8
330
120D9
330
120DA
330
12121
330
121FB
330
121FC
330
121FD
330
1221B
330
12240
330
12294
330
1229F
102
}
330
746F
100
AcDbSymbolTableRecord
100
AcDbDimStyleTableRecord
  2
INABA_S40
 70
     0
 40
40.0
 41
2.5
 42
0.5
 43
7.0
 44
1.5
 73
     0
 74
     0
 77
     3
 78
     8
140
3.0
141
0.0
143
0.0394
147
1.0
172
     1
173
     1
174
     1
175
     1
178
     7
289
     0
340
7475
  0
DIMSTYLE
105
F71F
102
{ACAD_REACTORS
330
171E8
330
171E7
330
171E6
330
1723A
330
17340
330
17341
330
1733F
330
1733E
330
17342
330
173D1
330
1A62A
330
1A685
330
1A9C7
102
}
330
746F
100
AcDbSymbolTableRecord
100
AcDbDimStyleTableRecord
  2
INABA_S40G
 70
     0
 40
40.0
 41
2.5
 42
0.5
 43
7.0
 44
1.5
 73
     0
 74
     0
 77
     3
 78
     8
140
3.0
141
0.0
143
0.0394
147
1.0
172
     1
173
     1
174
     1
175
     1
178
     7
271
     1
340
F706
341
F770
343
F770
344
F770
  0
DIMSTYLE
105
11907
102
{ACAD_REACTORS
330
12121
102
}
330
746F
100
AcDbSymbolTableRecord
100
AcDbDimStyleTableRecord
  2
INABA_S50
 70
     0
 40
50.0
 41
0.5
 42
0.5
 43
7.0
 44
1.0
 73
     0
 74
     0
 77
     3
 78
     8
140
2.5
141
0.0
143
0.0394
147
0.8
172
     1
173
     1
174
     1
175
     1
178
     7
271
     2
272
     2
289
     0
340
7475
341
F744
343
F744
344
F744
  0
DIMSTYLE
105
11908
102
{ACAD_REACTORS
330
120D6
330
120D7
330
120D8
330
120D9
330
120DA
330
121FB
330
121FC
330
121FD
330
1221B
330
12240
330
12294
330
1229F
102
}
330
746F
100
AcDbSymbolTableRecord
100
AcDbDimStyleTableRecord
  2
INABA_S50G
 70
     0
 41
125.0
 42
25.0
 43
7.0
 44
75.0
 73
     0
 74
     0
 77
     3
 78
     8
140
150.0
141
0.0
143
0.0394
147
25.0
172
     1
173
     1
174
     1
175
     1
178
     7
271
     1
340
F706
341
F770
343
F770
344
F770
  0
DIMSTYLE
105
145E5
330
746F
100
AcDbSymbolTableRecord
100
AcDbDimStyleTableRecord
  2
INABA_1／6
 70
     0
 40
6.0
 41
2.5
 42
0.5
 43
7.0
 44
1.5
 73
     0
 74
     0
 77
     3
 78
     8
140
2.5
141
0.0
143
0.0394
147
0.8
172
     1
173
     1
174
     1
175
     1
178
     7
289
     0
340
7475
341
1452C
343
1452C
344
1452C
  0
DIMSTYLE
105
14F04
330
746F
100
AcDbSymbolTableRecord
100
AcDbDimStyleTableRecord
  2
INABA_1／4
 70
     0
 40
4.0
 41
2.0
 42
0.5
 43
7.0
 44
1.5
 73
     0
 74
     0
 77
     3
 78
     8
140
2.0
141
0.0
143
0.0394
147
0.5
172
     1
173
     1
174
     1
175
     1
178
     7
289
     0
340
14F03
341
1452C
343
1452C
344
1452C
  0
DIMSTYLE
105
14F05
330
746F
100
AcDbSymbolTableRecord
100
AcDbDimStyleTableRecord
  2
INABA_1／4U
 70
     0
 40
4.0
 41
2.0
 42
0.5
 43
7.0
 44
1.5
 73
     0
 74
     0
 77
     3
 78
     8
140
2.0
141
0.0
143
0.0394
147
0.5
172
     1
173
     1
174
     1
178
     7
288
     1
340
14F03
341
1452C
343
1452C
344
1452C
  0
DIMSTYLE
105
19F5B
330
746F
100
AcDbSymbolTableRecord
100
AcDbDimStyleTableRecord
  2
INABA_S20G
 70
     0
 40
20.0
 41
2.5
 42
0.5
 43
7.0
 44
1.5
 73
     0
 74
     0
 77
     3
 78
     8
140
3.0
141
0.0
143
0.0394
147
1.0
172
     1
173
     1
174
     1
178
     7
271
     1
340
F706
341
F770
343
F770
344
F770
  0
ENDTAB
  0
TABLE
  2
BLOCK_RECORD
  5
7466
330
0
100
AcDbSymbolTable
 70
    70
  0
BLOCK_RECORD
  5
747D
330
7466
100
AcDbSymbolTableRecord
100
AcDbBlockTableRecord
  2
*MODEL_SPACE
340
13A80
  0
BLOCK_RECORD
  5
747A
330
7466
100
AcDbSymbolTableRecord
100
AcDbBlockTableRecord
  2
*PAPER_SPACE
340
13A81
  0
BLOCK_RECORD
  5
ECB3
330
7466
100
AcDbSymbolTableRecord
100
AcDbBlockTableRecord
  2
作図枠S50
340
0
310
2800000020000000200000000100040000000000000200000000000000000000000000000000000000000000000080000080000000808000800000008000800080800000C0C0C000808080000000FF0000FF000000FFFF00FF000000FF00FF00FFFF0000FFFFFF00FFFFFFFFFFFFFFFFFFFFFFFFFFFFFFFFFFFFFFFFFFFFFF
310
FFFFFFFFFFFFFFFFFFFFFFFFFFFFFFFFFFFFFFFFFFFFFFFFFFFFFFFFFFFFFFFFFFFFFFFFFFFFFFFFFFFFFFFFFFFFFFFFFFFFFFFFFFFFFFFFFFFFFFFFFFFFFFFFFFFFFFFFFFFFFFFFFF999999999999999999999999999999999FFFFFFFFFFFFFFFFFFFFFFFFFFFFFF99FFFFFFFFFFFFFFFFFFFFFFFFFFFFFF99FFFFFFFFFFF
310
FFFFFFFFFFFFFFFFFFF99FFFFFFFFFFFFFFFFFFFFFFFFFFFFFF99FFFFFFFFFFFFFFFFFFFFFFFFFFFFFF99FFFFFFFFFFFFFFFFFFFFFFFFFFFFFF99FFFFFFFFFFFFFFFFFFFFFFFFFFFFFF99FFFFFFFFFFFFFFFFFFFFFFFFFFFFFF99FFFFFFFFFFFFFFFFFFFFFFFFFFFFFF99FFFFFFFFFFFFFFFFFFFFFFFFFFFFFF99FFFFFFFFF
310
FFFFFFFFFFFFFFFFFFFFF99FFFFFFFFFFFFFFFFFFFFFFFFFFFFFF99FFFFFFFFFFFFFFFFFFFFFFFFFFFFFF99FFFFFFFFFFFFFFFFFFFFFFFFFFFFFF99FFFFFFFFFFFFFFFFFFFFFFFFFFFFFF99FFFFFFFFFFFFFFFFFFFFFFFFFFFFFF99FFFFFFFFFFFFFFFFFFFFFFFFFFFFFF99FFFFFFFFFFFFFFFFFFFFF99999999999FFFFFFF
310
FFFFFFFFFFFFFF9FFFFFFFFF99999999999999999999999FFFFFFFFFFFFFFFFFFFFFFFFFFFFFFFFFFFFFFFFFFFFFFFFFFFFFFFFFFFFFFFFFFFFFFFFFFFFFFFFFFFFFFFFFFFFFFFFFFFFFFFFFFFFFFFFFFFFFFFFFFFFFFFFFFFFFFFFFFFFFFFFFFFFFFFFFFFFFFFFFFFFFFFFF
  0
BLOCK_RECORD
  5
F744
330
7466
100
AcDbSymbolTableRecord
100
AcDbBlockTableRecord
  2
_DOT
340
0
102
{BLKREFS
331
18D6A
331
18D6B
331
18E18
331
18E19
331
18E21
331
18E22
331
18E2C
331
18E2D
331
18E35
331
18E36
331
18E40
331
18E41
331
18E60
331
18E61
331
19780
331
19781
331
19789
331
1978A
331
1979B
331
1979C
331
197B9
331
197BA
331
19E6A
331
19E6B
331
19E73
331
19E74
331
19E7C
331
19E7D
331
19E87
331
19E88
331
19E92
331
19E93
331
19E9B
331
19E9C
331
1A227
331
1A228
331
1A767
331
1A768
331
1A770
331
1A771
102
}
  0
BLOCK_RECORD
  5
F770
330
7466
100
AcDbSymbolTableRecord
100
AcDbBlockTableRecord
  2
_DOTSMALL
340
0
102
{BLKREFS
331
1983A
331
1983B
331
1984E
331
1984F
331
19859
331
1985A
331
19862
331
19863
331
19E30
331
19E31
331
19E3A
331
19E3B
331
19E45
331
19E46
331
19E4E
331
19E4F
331
19E57
331
19E58
331
19E61
331
19E62
331
1A162
331
1A163
331
1A16B
331
1A16C
331
1A176
331
1A177
331
1A315
331
1A316
331
1A307
331
1A308
331
1A2FB
331
1A2FC
331
1A4E0
331
1A4E1
331
1A4E9
331
1A4EA
331
1A4F2
331
1A4F3
331
1A52A
331
1A52B
331
1A51C
331
1A51D
331
1A510
331
1A511
331
1A701
331
1A702
331
1A740
331
1A741
331
1A74B
331
1A74C
331
1A77D
331
1A77E
331
1A7A5
331
1A7A6
331
1A7D8
331
1A7D9
331
1A7BC
331
1A7BD
331
1A7CA
331
1A7CB
331
1A7B0
331
1A7B1
331
1A91A
331
1A91B
331
1A923
331
1A924
331
1A92E
331
1A92F
331
1A937
331
1A938
331
1A951
331
1A952
331
1A943
331
1A944
331
1A95D
331
1A95E
331
1AA0B
331
1AA0C
331
1AA15
331
1AA16
331
1AA20
331
1AA21
102
}
  0
BLOCK_RECORD
  5
12352
330
7466
100
AcDbSymbolTableRecord
100
AcDbBlockTableRecord
  2
*D3
340
0
  0
BLOCK_RECORD
  5
1235F
330
7466
100
AcDbSymbolTableRecord
100
AcDbBlockTableRecord
  2
*D4
340
0
  0
BLOCK_RECORD
  5
1236B
330
7466
100
AcDbSymbolTableRecord
100
AcDbBlockTableRecord
  2
*D5
340
0
  0
BLOCK_RECORD
  5
12378
330
7466
100
AcDbSymbolTableRecord
100
AcDbBlockTableRecord
  2
*D6
340
0
  0
BLOCK_RECORD
  5
12384
330
7466
100
AcDbSymbolTableRecord
100
AcDbBlockTableRecord
  2
*D7
340
0
  0
BLOCK_RECORD
  5
123B7
330
7466
100
AcDbSymbolTableRecord
100
AcDbBlockTableRecord
  2
*D8
340
0
  0
BLOCK_RECORD
  5
123CF
330
7466
100
AcDbSymbolTableRecord
100
AcDbBlockTableRecord
  2
*D9
340
0
  0
BLOCK_RECORD
  5
123DB
330
7466
100
AcDbSymbolTableRecord
100
AcDbBlockTableRecord
  2
*D10
340
0
  0
BLOCK_RECORD
  5
123E7
330
7466
100
AcDbSymbolTableRecord
100
AcDbBlockTableRecord
  2
*D11
340
0
  0
BLOCK_RECORD
  5
123F3
330
7466
100
AcDbSymbolTableRecord
100
AcDbBlockTableRecord
  2
*D12
340
0
  0
BLOCK_RECORD
  5
12400
330
7466
100
AcDbSymbolTableRecord
100
AcDbBlockTableRecord
  2
*D13
340
0
  0
BLOCK_RECORD
  5
1240C
330
7466
100
AcDbSymbolTableRecord
100
AcDbBlockTableRecord
  2
*D14
340
0
  0
BLOCK_RECORD
  5
12418
330
7466
100
AcDbSymbolTableRecord
100
AcDbBlockTableRecord
  2
*D15
340
0
  0
BLOCK_RECORD
  5
1372F
330
7466
100
AcDbSymbolTableRecord
100
AcDbBlockTableRecord
  2
*D16
340
0
  0
BLOCK_RECORD
  5
1373B
330
7466
100
AcDbSymbolTableRecord
100
AcDbBlockTableRecord
  2
*D17
340
0
  0
BLOCK_RECORD
  5
13749
330
7466
100
AcDbSymbolTableRecord
100
AcDbBlockTableRecord
  2
*D18
340
0
  0
BLOCK_RECORD
  5
13757
330
7466
100
AcDbSymbolTableRecord
100
AcDbBlockTableRecord
  2
*D19
340
0
  0
BLOCK_RECORD
  5
13763
330
7466
100
AcDbSymbolTableRecord
100
AcDbBlockTableRecord
  2
*D20
340
0
  0
BLOCK_RECORD
  5
13794
330
7466
100
AcDbSymbolTableRecord
100
AcDbBlockTableRecord
  2
*D21
340
0
  0
BLOCK_RECORD
  5
1452C
330
7466
100
AcDbSymbolTableRecord
100
AcDbBlockTableRecord
  2
_OPEN
340
0
  0
BLOCK_RECORD
  5
14532
330
7466
100
AcDbSymbolTableRecord
100
AcDbBlockTableRecord
  2
BLKF047
340
0
  0
BLOCK_RECORD
  5
1453C
330
7466
100
AcDbSymbolTableRecord
100
AcDbBlockTableRecord
  2
BLKF048
340
0
102
{BLKREFS
331
1453A
102
}
  0
BLOCK_RECORD
  5
14549
330
7466
100
AcDbSymbolTableRecord
100
AcDbBlockTableRecord
  2
A$C3CBA6BEF
340
0
  0
BLOCK_RECORD
  5
14EE5
330
7466
100
AcDbSymbolTableRecord
100
AcDbBlockTableRecord
  2
_OBLIQUE
340
0
  0
BLOCK_RECORD
  5
171F7
330
7466
100
AcDbSymbolTableRecord
100
AcDbBlockTableRecord
  2
*D27
340
0
  0
BLOCK_RECORD
  5
17203
330
7466
100
AcDbSymbolTableRecord
100
AcDbBlockTableRecord
  2
*D28
340
0
  0
BLOCK_RECORD
  5
17211
330
7466
100
AcDbSymbolTableRecord
100
AcDbBlockTableRecord
  2
*D29
340
0
  0
BLOCK_RECORD
  5
17245
330
7466
100
AcDbSymbolTableRecord
100
AcDbBlockTableRecord
  2
*D30
340
0
  0
BLOCK_RECORD
  5
17360
330
7466
100
AcDbSymbolTableRecord
100
AcDbBlockTableRecord
  2
*D31
340
0
  0
BLOCK_RECORD
  5
1736C
330
7466
100
AcDbSymbolTableRecord
100
AcDbBlockTableRecord
  2
*D32
340
0
  0
BLOCK_RECORD
  5
1737A
330
7466
100
AcDbSymbolTableRecord
100
AcDbBlockTableRecord
  2
*D33
340
0
  0
BLOCK_RECORD
  5
17386
330
7466
100
AcDbSymbolTableRecord
100
AcDbBlockTableRecord
  2
*D34
340
0
  0
BLOCK_RECORD
  5
17393
330
7466
100
AcDbSymbolTableRecord
100
AcDbBlockTableRecord
  2
*D35
340
0
  0
BLOCK_RECORD
  5
173D2
330
7466
100
AcDbSymbolTableRecord
100
AcDbBlockTableRecord
  2
*D36
340
0
  0
BLOCK_RECORD
  5
197C0
330
7466
100
AcDbSymbolTableRecord
100
AcDbBlockTableRecord
  2
_NONE
340
0
  0
BLOCK_RECORD
  5
1A6CD
330
7466
100
AcDbSymbolTableRecord
100
AcDbBlockTableRecord
  2
*D51
340
0
  0
BLOCK_RECORD
  5
1A6E7
330
7466
100
AcDbSymbolTableRecord
100
AcDbBlockTableRecord
  2
*D53
340
0
  0
BLOCK_RECORD
  5
1A9CE
330
7466
100
AcDbSymbolTableRecord
100
AcDbBlockTableRecord
  2
*D67
340
0
  0
ENDTAB
  0
ENDSEC
  0
SECTION
  2
BLOCKS
  0
BLOCK
  5
7489
330
747D
100
AcDbEntity
  8
0
100
AcDbBlockBegin
  2
*MODEL_SPACE
 70
     0
 10
0.0
 20
0.0
 30
0.0
  3
*MODEL_SPACE
  1

  0
ENDBLK
  5
748A
330
747D
100
AcDbEntity
  8
0
100
AcDbBlockEnd
  0
BLOCK
  5
7487
330
747A
100
AcDbEntity
 67
     1
  8
0
100
AcDbBlockBegin
  2
*PAPER_SPACE
 70
     0
 10
0.0
 20
0.0
 30
0.0
  3
*PAPER_SPACE
  1

  0
ENDBLK
  5
7488
330
747A
100
AcDbEntity
 67
     1
  8
0
100
AcDbBlockEnd
  0
BLOCK
  5
ECB4
330
ECB3
100
AcDbEntity
  8
0
100
AcDbBlockBegin
  2
作図枠S50
 70
     0
 10
0.0
 20
0.0
 30
0.0
  3
作図枠S50
  1

  4
作図領域枠 縮尺 1/50
  0
LINE
  5
ECB5
330
ECB3
100
AcDbEntity
  8
補助
100
AcDbLine
 10
14364.0
 20
14262.0
 30
0.0
 11
174.9999999999993
 21
14262.0
 31
0.0
  0
LINE
  5
ECB6
330
ECB3
100
AcDbEntity
  8
補助
100
AcDbLine
 10
174.9999999999993
 20
14262.0
 30
0.0
 11
174.9999999999993
 21
1520.0
 31
0.0
  0
LINE
  5
ECB7
330
ECB3
100
AcDbEntity
  8
補助
100
AcDbLine
 10
174.9999999999993
 20
1520.0
 30
0.0
 11
20384.0
 21
1520.0
 31
0.0
  0
LINE
  5
ECB8
330
ECB3
100
AcDbEntity
  8
補助
100
AcDbLine
 10
20384.0
 20
1520.0
 30
0.0
 11
20384.0
 21
13042.0
 31
0.0
  0
LINE
  5
ECB9
330
ECB3
100
AcDbEntity
  8
補助
100
AcDbLine
 10
20384.0
 20
13042.0
 30
0.0
 11
14364.0
 21
13042.0
 31
0.0
  0
LINE
  5
ECBA
330
ECB3
100
AcDbEntity
  8
補助
100
AcDbLine
 10
14364.0
 20
13042.0
 30
0.0
 11
14364.0
 21
14262.0
 31
0.0
  0
ENDBLK
  5
ECBB
330
ECB3
100
AcDbEntity
  8
0
100
AcDbBlockEnd
  0
BLOCK
  5
F745
330
F744
100
AcDbEntity
  8
0
 48
50.0
100
AcDbBlockBegin
  2
_DOT
 70
     0
 10
0.0
 20
0.0
 30
0.0
  3
_DOT
  1

  0
LWPOLYLINE
  5
F746
330
F744
100
AcDbEntity
  8
0
  6
ByBlock
 62
     0
 48
50.0
100
AcDbPolyline
 90
        2
 70
     1
 43
0.5
 10
-0.25
 20
0.0
 42
1.0
 10
0.25
 20
0.0
 42
1.0
  0
LINE
  5
F74A
330
F744
100
AcDbEntity
  8
0
  6
ByBlock
 62
     0
 48
50.0
100
AcDbLine
 10
-0.5
 20
0.0
 30
0.0
 11
-1.0
 21
0.0
 31
0.0
  0
ENDBLK
  5
F74B
330
F744
100
AcDbEntity
  8
0
 48
50.0
100
AcDbBlockEnd
  0
BLOCK
  5
F771
330
F770
100
AcDbEntity
  8
0
 48
50.0
100
AcDbBlockBegin
  2
_DOTSMALL
 70
     0
 10
0.0
 20
0.0
 30
0.0
  3
_DOTSMALL
  1

  0
LWPOLYLINE
  5
F772
330
F770
100
AcDbEntity
  8
0
  6
ByBlock
 62
     0
 48
50.0
100
AcDbPolyline
 90
        2
 70
     1
 43
0.5
 10
-0.0625
 20
0.0
 42
1.0
 10
0.0625
 20
0.0
 42
1.0
  0
ENDBLK
  5
F776
330
F770
100
AcDbEntity
  8
0
 48
50.0
100
AcDbBlockEnd
  0
BLOCK
  5
129B7
330
12352
100
AcDbEntity
  8
0
 48
50.0
100
AcDbBlockBegin
  2
*D3
 70
     1
 10
0.0
 20
0.0
 30
0.0
  3
*D3
  1

  0
LINE
  5
18E3B
330
12352
100
AcDbEntity
  8
寸法
 62
     0
 48
50.0
370
    -2
100
AcDbLine
 10
7523.904397928898
 20
9326.507603031862
 30
0.0
 11
7523.904397928898
 21
9621.220013050656
 31
0.0
  0
LINE
  5
18E3C
330
12352
100
AcDbEntity
  8
寸法
 62
     0
 48
50.0
370
    -2
100
AcDbLine
 10
7578.904397928898
 20
9326.507603031858
 30
0.0
 11
7578.904397928898
 21
9621.220013050656
 31
0.0
  0
LINE
  5
18E3D
330
12352
100
AcDbEntity
  8
寸法
 62
     0
 48
50.0
370
    -2
100
AcDbLine
 10
7503.904397928898
 20
9581.220013050655
 30
0.0
 11
7483.904397928899
 21
9581.220013050655
 31
0.0
  0
LINE
  5
18E3E
330
12352
100
AcDbEntity
  8
寸法
 62
     0
 48
50.0
370
    -2
100
AcDbLine
 10
7598.904397928897
 20
9581.220013050655
 30
0.0
 11
8073.556345969805
 21
9581.220013050655
 31
0.0
  0
LINE
  5
18E3F
330
12352
100
AcDbEntity
  8
寸法
 62
     0
 48
50.0
370
    -2
100
AcDbLine
 10
7523.904397928898
 20
9581.220013050655
 30
0.0
 11
7578.904397928898
 21
9581.220013050655
 31
0.0
  0
INSERT
  5
18E40
330
12352
100
AcDbEntity
  8
寸法
 62
     0
 48
50.0
370
    -2
100
AcDbBlockReference
  2
_DOT
 10
7523.904397928898
 20
9581.220013050655
 30
0.0
 41
20.0
 42
20.0
 43
20.0
  0
INSERT
  5
18E41
330
12352
100
AcDbEntity
  8
寸法
 62
     0
 48
50.0
370
    -2
100
AcDbBlockReference
  2
_DOT
 10
7578.904397928898
 20
9581.220013050655
 30
0.0
 41
20.0
 42
20.0
 43
20.0
 50
180.0
  0
MTEXT
  5
18E42
330
12352
100
AcDbEntity
  8
寸法
 62
     7
 48
50.0
100
AcDbMText
 10
7973.071064595567
 20
9673.220013050656
 30
0.0
 40
120.0
 41
0.0
 71
     5
 72
     1
  1
\A1;55
  7
STYLE1
 73
     1
 44
1.0
1001
ACAD
1000
MTEXTBEGIN
1070
    73
1070
     1
1070
    44
1040
1.0
1070
    74
1070
     0
1000
MTEXTEND
  0
POINT
  5
18E43
330
12352
100
AcDbEntity
  8
DEFPOINTS
 62
     0
 48
50.0
100
AcDbPoint
 10
7523.904397928898
 20
9306.507603031862
 30
0.0
  0
POINT
  5
18E44
330
12352
100
AcDbEntity
  8
DEFPOINTS
 62
     0
 48
50.0
100
AcDbPoint
 10
7578.904397928898
 20
9306.507603031858
 30
0.0
  0
POINT
  5
18E45
330
12352
100
AcDbEntity
  8
DEFPOINTS
 62
     0
 48
50.0
100
AcDbPoint
 10
7578.904397928898
 20
9581.220013050655
 30
0.0
  0
ENDBLK
  5
129C3
330
12352
100
AcDbEntity
  8
0
 48
50.0
100
AcDbBlockEnd
  0
BLOCK
  5
133B7
330
1235F
100
AcDbEntity
  8
0
 48
50.0
100
AcDbBlockBegin
  2
*D4
 70
     1
 10
0.0
 20
0.0
 30
0.0
  3
*D4
  1

  0
LINE
  5
18E32
330
1235F
100
AcDbEntity
  8
寸法
 62
     0
 48
50.0
370
    -2
100
AcDbLine
 10
7598.904397928897
 20
9306.507603031858
 30
0.0
 11
8689.651514973251
 21
9306.507603031858
 31
0.0
  0
LINE
  5
18E33
330
1235F
100
AcDbEntity
  8
寸法
 62
     0
 48
50.0
370
    -2
100
AcDbLine
 10
7598.904397928897
 20
7516.507603031858
 30
0.0
 11
8689.651514973251
 21
7516.507603031858
 31
0.0
  0
LINE
  5
18E34
330
1235F
100
AcDbEntity
  8
寸法
 62
     0
 48
50.0
370
    -2
100
AcDbLine
 10
8649.651514973252
 20
9286.507603031857
 30
0.0
 11
8649.651514973252
 21
7536.507603031859
 31
0.0
  0
INSERT
  5
18E35
330
1235F
100
AcDbEntity
  8
寸法
 62
     0
 48
50.0
370
    -2
100
AcDbBlockReference
  2
_DOT
 10
8649.651514973252
 20
9306.507603031858
 30
0.0
 41
20.0
 42
20.0
 43
20.0
 50
90.0
  0
INSERT
  5
18E36
330
1235F
100
AcDbEntity
  8
寸法
 62
     0
 48
50.0
370
    -2
100
AcDbBlockReference
  2
_DOT
 10
8649.651514973252
 20
7516.507603031858
 30
0.0
 41
20.0
 42
20.0
 43
20.0
 50
270.0
  0
MTEXT
  5
18E37
330
1235F
100
AcDbEntity
  8
寸法
 62
     7
 48
50.0
100
AcDbMText
 10
8557.651514973249
 20
8411.507603031861
 30
0.0
 40
120.0
 41
0.0
 71
     5
 72
     1
  1
\A1;1790
  7
STYLE1
 11
0.0000000000000001
 21
1.0
 31
0.0
 73
     1
 44
1.0
1001
ACAD
1000
MTEXTBEGIN
1070
    73
1070
     1
1070
    44
1040
1.0
1070
    74
1070
     0
1000
MTEXTEND
  0
POINT
  5
18E38
330
1235F
100
AcDbEntity
  8
DEFPOINTS
 62
     0
 48
50.0
100
AcDbPoint
 10
7578.904397928898
 20
9306.507603031858
 30
0.0
  0
POINT
  5
18E39
330
1235F
100
AcDbEntity
  8
DEFPOINTS
 62
     0
 48
50.0
100
AcDbPoint
 10
7578.904397928898
 20
7516.507603031858
 30
0.0
  0
POINT
  5
18E3A
330
1235F
100
AcDbEntity
  8
DEFPOINTS
 62
     0
 48
50.0
100
AcDbPoint
 10
8649.651514973252
 20
7516.507603031858
 30
0.0
  0
ENDBLK
  5
133C1
330
1235F
100
AcDbEntity
  8
0
 48
50.0
100
AcDbBlockEnd
  0
BLOCK
  5
1299D
330
1236B
100
AcDbEntity
  8
0
 48
50.0
100
AcDbBlockBegin
  2
*D5
 70
     1
 10
0.0
 20
0.0
 30
0.0
  3
*D5
  1

  0
LINE
  5
18E27
330
1236B
100
AcDbEntity
  8
寸法
 62
     0
 48
50.0
370
    -2
100
AcDbLine
 10
7598.904397928897
 20
7571.507603031855
 30
0.0
 11
8389.651514973255
 21
7571.507603031855
 31
0.0
  0
LINE
  5
18E28
330
1236B
100
AcDbEntity
  8
寸法
 62
     0
 48
50.0
370
    -2
100
AcDbLine
 10
7598.904397928897
 20
7516.507603031858
 30
0.0
 11
8389.651514973255
 21
7516.507603031858
 31
0.0
  0
LINE
  5
18E29
330
1236B
100
AcDbEntity
  8
寸法
 62
     0
 48
50.0
370
    -2
100
AcDbLine
 10
8349.651514973254
 20
7591.507603031856
 30
0.0
 11
8349.651514973254
 21
7611.507603031855
 31
0.0
  0
LINE
  5
18E2A
330
1236B
100
AcDbEntity
  8
寸法
 62
     0
 48
50.0
370
    -2
100
AcDbLine
 10
8349.651514973254
 20
7496.507603031858
 30
0.0
 11
8349.651514973254
 21
7021.855654990955
 31
0.0
  0
LINE
  5
18E2B
330
1236B
100
AcDbEntity
  8
寸法
 62
     0
 48
50.0
370
    -2
100
AcDbLine
 10
8349.651514973254
 20
7571.507603031855
 30
0.0
 11
8349.651514973254
 21
7516.507603031858
 31
0.0
  0
INSERT
  5
18E2C
330
1236B
100
AcDbEntity
  8
寸法
 62
     0
 48
50.0
370
    -2
100
AcDbBlockReference
  2
_DOT
 10
8349.651514973254
 20
7571.507603031855
 30
0.0
 41
20.0
 42
20.0
 43
20.0
 50
270.0
  0
INSERT
  5
18E2D
330
1236B
100
AcDbEntity
  8
寸法
 62
     0
 48
50.0
370
    -2
100
AcDbBlockReference
  2
_DOT
 10
8349.651514973254
 20
7516.507603031858
 30
0.0
 41
20.0
 42
20.0
 43
20.0
 50
90.0
  0
MTEXT
  5
18E2E
330
1236B
100
AcDbEntity
  8
寸法
 62
     7
 48
50.0
100
AcDbMText
 10
8257.651514973252
 20
7122.340936365195
 30
0.0
 40
120.0
 41
0.0
 71
     5
 72
     1
  1
\A1;55
  7
STYLE1
 11
0.0000000000000001
 21
1.0
 31
0.0
 73
     1
 44
1.0
1001
ACAD
1000
MTEXTBEGIN
1070
    73
1070
     1
1070
    44
1040
1.0
1070
    74
1070
     0
1000
MTEXTEND
  0
POINT
  5
18E2F
330
1236B
100
AcDbEntity
  8
DEFPOINTS
 62
     0
 48
50.0
100
AcDbPoint
 10
7578.904397928898
 20
7571.507603031855
 30
0.0
  0
POINT
  5
18E30
330
1236B
100
AcDbEntity
  8
DEFPOINTS
 62
     0
 48
50.0
100
AcDbPoint
 10
7578.904397928898
 20
7516.507603031858
 30
0.0
  0
POINT
  5
18E31
330
1236B
100
AcDbEntity
  8
DEFPOINTS
 62
     0
 48
50.0
100
AcDbPoint
 10
8349.651514973254
 20
7516.507603031858
 30
0.0
  0
ENDBLK
  5
129A9
330
1236B
100
AcDbEntity
  8
0
 48
50.0
100
AcDbBlockEnd
  0
BLOCK
  5
133D8
330
12378
100
AcDbEntity
  8
0
 48
50.0
100
AcDbBlockBegin
  2
*D6
 70
     1
 10
0.0
 20
0.0
 30
0.0
  3
*D6
  1

  0
LINE
  5
18E1E
330
12378
100
AcDbEntity
  8
寸法
 62
     0
 48
50.0
370
    -2
100
AcDbLine
 10
7598.904397928897
 20
9251.507603031864
 30
0.0
 11
8389.651514973254
 21
9251.507603031864
 31
0.0
  0
LINE
  5
18E1F
330
12378
100
AcDbEntity
  8
寸法
 62
     0
 48
50.0
370
    -2
100
AcDbLine
 10
7598.904397928897
 20
7571.507603031855
 30
0.0
 11
8389.651514973254
 21
7571.507603031855
 31
0.0
  0
LINE
  5
18E20
330
12378
100
AcDbEntity
  8
寸法
 62
     0
 48
50.0
370
    -2
100
AcDbLine
 10
8349.651514973253
 20
9231.507603031863
 30
0.0
 11
8349.651514973253
 21
7591.507603031856
 31
0.0
  0
INSERT
  5
18E21
330
12378
100
AcDbEntity
  8
寸法
 62
     0
 48
50.0
370
    -2
100
AcDbBlockReference
  2
_DOT
 10
8349.651514973253
 20
9251.507603031864
 30
0.0
 41
20.0
 42
20.0
 43
20.0
 50
90.0
  0
INSERT
  5
18E22
330
12378
100
AcDbEntity
  8
寸法
 62
     0
 48
50.0
370
    -2
100
AcDbBlockReference
  2
_DOT
 10
8349.651514973253
 20
7571.507603031855
 30
0.0
 41
20.0
 42
20.0
 43
20.0
 50
270.0
  0
MTEXT
  5
18E23
330
12378
100
AcDbEntity
  8
寸法
 62
     7
 48
50.0
100
AcDbMText
 10
8257.63970394963
 20
8411.507603031862
 30
0.0
 40
120.0
 41
0.0
 71
     5
 72
     1
  1
\A1;4X420=1680
  7
STYLE1
 11
0.0000000000000001
 21
1.0
 31
0.0
 73
     1
 44
1.0
1001
ACAD
1000
MTEXTBEGIN
1070
    73
1070
     1
1070
    44
1040
1.0
1070
    74
1070
     0
1000
MTEXTEND
  0
POINT
  5
18E24
330
12378
100
AcDbEntity
  8
DEFPOINTS
 62
     0
 48
50.0
100
AcDbPoint
 10
7578.904397928898
 20
9251.507603031864
 30
0.0
  0
POINT
  5
18E25
330
12378
100
AcDbEntity
  8
DEFPOINTS
 62
     0
 48
50.0
100
AcDbPoint
 10
7578.904397928898
 20
7571.507603031855
 30
0.0
  0
POINT
  5
18E26
330
12378
100
AcDbEntity
  8
DEFPOINTS
 62
     0
 48
50.0
100
AcDbPoint
 10
8349.651514973253
 20
7571.507603031855
 30
0.0
  0
ENDBLK
  5
133E2
330
12378
100
AcDbEntity
  8
0
 48
50.0
100
AcDbBlockEnd
  0
BLOCK
  5
129AA
330
12384
100
AcDbEntity
  8
0
 48
50.0
100
AcDbBlockBegin
  2
*D7
 70
     1
 10
0.0
 20
0.0
 30
0.0
  3
*D7
  1

  0
LINE
  5
18E13
330
12384
100
AcDbEntity
  8
寸法
 62
     0
 48
50.0
370
    -2
100
AcDbLine
 10
7598.904397928897
 20
9306.507603031858
 30
0.0
 11
8389.651514973255
 21
9306.507603031858
 31
0.0
  0
LINE
  5
18E14
330
12384
100
AcDbEntity
  8
寸法
 62
     0
 48
50.0
370
    -2
100
AcDbLine
 10
7598.904397928897
 20
9251.507603031864
 30
0.0
 11
8389.651514973255
 21
9251.507603031864
 31
0.0
  0
LINE
  5
18E15
330
12384
100
AcDbEntity
  8
寸法
 62
     0
 48
50.0
370
    -2
100
AcDbLine
 10
8349.651514973254
 20
9231.507603031863
 30
0.0
 11
8349.651514973254
 21
9211.507603031863
 31
0.0
  0
LINE
  5
18E16
330
12384
100
AcDbEntity
  8
寸法
 62
     0
 48
50.0
370
    -2
100
AcDbLine
 10
8349.651514973254
 20
9326.507603031858
 30
0.0
 11
8349.651514973254
 21
9801.15955107276
 31
0.0
  0
LINE
  5
18E17
330
12384
100
AcDbEntity
  8
寸法
 62
     0
 48
50.0
370
    -2
100
AcDbLine
 10
8349.651514973254
 20
9251.507603031864
 30
0.0
 11
8349.651514973254
 21
9306.507603031858
 31
0.0
  0
INSERT
  5
18E18
330
12384
100
AcDbEntity
  8
寸法
 62
     0
 48
50.0
370
    -2
100
AcDbBlockReference
  2
_DOT
 10
8349.651514973254
 20
9251.507603031864
 30
0.0
 41
20.0
 42
20.0
 43
20.0
 50
90.0
  0
INSERT
  5
18E19
330
12384
100
AcDbEntity
  8
寸法
 62
     0
 48
50.0
370
    -2
100
AcDbBlockReference
  2
_DOT
 10
8349.651514973254
 20
9306.507603031858
 30
0.0
 41
20.0
 42
20.0
 43
20.0
 50
270.0
  0
MTEXT
  5
18E1A
330
12384
100
AcDbEntity
  8
寸法
 62
     7
 48
50.0
100
AcDbMText
 10
8257.651514973252
 20
9700.674269698524
 30
0.0
 40
120.0
 41
0.0
 71
     5
 72
     1
  1
\A1;55
  7
STYLE1
 11
0.0000000000000001
 21
1.0
 31
0.0
 73
     1
 44
1.0
1001
ACAD
1000
MTEXTBEGIN
1070
    73
1070
     1
1070
    44
1040
1.0
1070
    74
1070
     0
1000
MTEXTEND
  0
POINT
  5
18E1B
330
12384
100
AcDbEntity
  8
DEFPOINTS
 62
     0
 48
50.0
100
AcDbPoint
 10
7578.904397928898
 20
9306.507603031858
 30
0.0
  0
POINT
  5
18E1C
330
12384
100
AcDbEntity
  8
DEFPOINTS
 62
     0
 48
50.0
100
AcDbPoint
 10
7578.904397928898
 20
9251.507603031864
 30
0.0
  0
POINT
  5
18E1D
330
12384
100
AcDbEntity
  8
DEFPOINTS
 62
     0
 48
50.0
100
AcDbPoint
 10
8349.651514973254
 20
9251.507603031864
 30
0.0
  0
ENDBLK
  5
129B6
330
12384
100
AcDbEntity
  8
0
 48
50.0
100
AcDbBlockEnd
  0
BLOCK
  5
12A7B
330
123B7
100
AcDbEntity
  8
0
 48
50.0
100
AcDbBlockBegin
  2
*D8
 70
     1
 10
0.0
 20
0.0
 30
0.0
  3
*D8
  1

  0
LINE
  5
197B6
330
123B7
100
AcDbEntity
  8
寸法
 62
     0
 48
50.0
370
    -2
100
AcDbLine
 10
7678.904397928896
 20
1968.112805903255
 30
0.0
 11
7678.904397928896
 21
1612.922421664043
 31
0.0
  0
LINE
  5
197B7
330
123B7
100
AcDbEntity
  8
寸法
 62
     0
 48
50.0
370
    -2
100
AcDbLine
 10
7478.904397928896
 20
1968.112805903255
 30
0.0
 11
7478.904397928896
 21
1612.922421664043
 31
0.0
  0
LINE
  5
197B8
330
123B7
100
AcDbEntity
  8
寸法
 62
     0
 48
50.0
370
    -2
100
AcDbLine
 10
7658.904397928896
 20
1652.922421664043
 30
0.0
 11
7498.904397928896
 21
1652.922421664043
 31
0.0
  0
INSERT
  5
197B9
330
123B7
100
AcDbEntity
  8
寸法
 62
     0
 48
50.0
370
    -2
100
AcDbBlockReference
  2
_DOT
 10
7678.904397928896
 20
1652.922421664043
 30
0.0
 41
20.0
 42
20.0
 43
20.0
  0
INSERT
  5
197BA
330
123B7
100
AcDbEntity
  8
寸法
 62
     0
 48
50.0
370
    -2
100
AcDbBlockReference
  2
_DOT
 10
7478.904397928896
 20
1652.922421664043
 30
0.0
 41
20.0
 42
20.0
 43
20.0
 50
180.0
  0
MTEXT
  5
197BB
330
123B7
100
AcDbEntity
  8
寸法
 62
     7
 48
50.0
100
AcDbMText
 10
7578.904397928896
 20
1744.934232687665
 30
0.0
 40
120.0
 41
0.0
 71
     5
 72
     1
  1
\A1;200
  7
STYLE1
 73
     1
 44
1.0
1001
ACAD
1000
MTEXTBEGIN
1070
    73
1070
     1
1070
    44
1040
1.0
1070
    74
1070
     0
1000
MTEXTEND
  0
POINT
  5
197BC
330
123B7
100
AcDbEntity
  8
DEFPOINTS
 62
     0
 48
50.0
100
AcDbPoint
 10
7678.904397928896
 20
1988.112805903255
 30
0.0
  0
POINT
  5
197BD
330
123B7
100
AcDbEntity
  8
DEFPOINTS
 62
     0
 48
50.0
100
AcDbPoint
 10
7478.904397928896
 20
1988.112805903255
 30
0.0
  0
POINT
  5
197BE
330
123B7
100
AcDbEntity
  8
DEFPOINTS
 62
     0
 48
50.0
100
AcDbPoint
 10
7478.904397928896
 20
1652.922421664043
 30
0.0
  0
ENDBLK
  5
12A85
330
123B7
100
AcDbEntity
  8
0
 48
50.0
100
AcDbBlockEnd
  0
BLOCK
  5
13272
330
123CF
100
AcDbEntity
  8
0
 48
50.0
100
AcDbBlockBegin
  2
*D9
 70
     1
 10
0.0
 20
0.0
 30
0.0
  3
*D9
  1

  0
LINE
  5
19786
330
123CF
100
AcDbEntity
  8
寸法
 62
     0
 48
50.0
370
    -2
100
AcDbLine
 10
3998.904397928898
 20
9326.507603031858
 30
0.0
 11
3998.904397928898
 21
9921.220013050657
 31
0.0
  0
LINE
  5
19787
330
123CF
100
AcDbEntity
  8
寸法
 62
     0
 48
50.0
370
    -2
100
AcDbLine
 10
7578.904397928898
 20
9326.507603031858
 30
0.0
 11
7578.904397928898
 21
9921.220013050657
 31
0.0
  0
LINE
  5
19788
330
123CF
100
AcDbEntity
  8
寸法
 62
     0
 48
50.0
370
    -2
100
AcDbLine
 10
4018.904397928897
 20
9881.220013050658
 30
0.0
 11
7558.904397928898
 21
9881.220013050658
 31
0.0
  0
INSERT
  5
19789
330
123CF
100
AcDbEntity
  8
寸法
 62
     0
 48
50.0
370
    -2
100
AcDbBlockReference
  2
_DOT
 10
3998.904397928898
 20
9881.220013050658
 30
0.0
 41
20.0
 42
20.0
 43
20.0
 50
180.0
  0
INSERT
  5
1978A
330
123CF
100
AcDbEntity
  8
寸法
 62
     0
 48
50.0
370
    -2
100
AcDbBlockReference
  2
_DOT
 10
7578.904397928898
 20
9881.220013050658
 30
0.0
 41
20.0
 42
20.0
 43
20.0
  0
MTEXT
  5
1978B
330
123CF
100
AcDbEntity
  8
寸法
 62
     7
 48
50.0
100
AcDbMText
 10
5788.904397928899
 20
9973.220013050656
 30
0.0
 40
120.0
 41
0.0
 71
     5
 72
     1
  1
\A1;3580
  7
STYLE1
 73
     1
 44
1.0
1001
ACAD
1000
MTEXTBEGIN
1070
    73
1070
     1
1070
    44
1040
1.0
1070
    74
1070
     0
1000
MTEXTEND
  0
POINT
  5
1978C
330
123CF
100
AcDbEntity
  8
DEFPOINTS
 62
     0
 48
50.0
100
AcDbPoint
 10
3998.904397928898
 20
9306.507603031858
 30
0.0
  0
POINT
  5
1978D
330
123CF
100
AcDbEntity
  8
DEFPOINTS
 62
     0
 48
50.0
100
AcDbPoint
 10
7578.904397928898
 20
9306.507603031858
 30
0.0
  0
POINT
  5
1978E
330
123CF
100
AcDbEntity
  8
DEFPOINTS
 62
     0
 48
50.0
100
AcDbPoint
 10
7578.904397928898
 20
9881.220013050658
 30
0.0
  0
ENDBLK
  5
1327C
330
123CF
100
AcDbEntity
  8
0
 48
50.0
100
AcDbBlockEnd
  0
BLOCK
  5
133CD
330
123DB
100
AcDbEntity
  8
0
 48
50.0
100
AcDbBlockBegin
  2
*D10
 70
     1
 10
0.0
 20
0.0
 30
0.0
  3
*D10
  1

  0
LINE
  5
19798
330
123DB
100
AcDbEntity
  8
寸法
 62
     0
 48
50.0
370
    -2
100
AcDbLine
 10
4053.904397928898
 20
9326.507603031858
 30
0.0
 11
4053.904397928898
 21
9621.220013050656
 31
0.0
  0
LINE
  5
19799
330
123DB
100
AcDbEntity
  8
寸法
 62
     0
 48
50.0
370
    -2
100
AcDbLine
 10
5733.904397928898
 20
9326.507603031862
 30
0.0
 11
5733.904397928898
 21
9621.220013050656
 31
0.0
  0
LINE
  5
1979A
330
123DB
100
AcDbEntity
  8
寸法
 62
     0
 48
50.0
370
    -2
100
AcDbLine
 10
4073.904397928898
 20
9581.220013050655
 30
0.0
 11
5713.904397928899
 21
9581.220013050655
 31
0.0
  0
INSERT
  5
1979B
330
123DB
100
AcDbEntity
  8
寸法
 62
     0
 48
50.0
370
    -2
100
AcDbBlockReference
  2
_DOT
 10
4053.904397928898
 20
9581.220013050655
 30
0.0
 41
20.0
 42
20.0
 43
20.0
 50
180.0
  0
INSERT
  5
1979C
330
123DB
100
AcDbEntity
  8
寸法
 62
     0
 48
50.0
370
    -2
100
AcDbBlockReference
  2
_DOT
 10
5733.904397928898
 20
9581.220013050655
 30
0.0
 41
20.0
 42
20.0
 43
20.0
  0
MTEXT
  5
1979D
330
123DB
100
AcDbEntity
  8
寸法
 62
     7
 48
50.0
100
AcDbMText
 10
4893.904397928898
 20
9673.231824074278
 30
0.0
 40
120.0
 41
0.0
 71
     5
 72
     1
  1
\A1;4X420=1680
  7
STYLE1
 73
     1
 44
1.0
1001
ACAD
1000
MTEXTBEGIN
1070
    73
1070
     1
1070
    44
1040
1.0
1070
    74
1070
     0
1000
MTEXTEND
  0
POINT
  5
1979E
330
123DB
100
AcDbEntity
  8
DEFPOINTS
 62
     0
 48
50.0
100
AcDbPoint
 10
4053.904397928898
 20
9306.507603031858
 30
0.0
  0
POINT
  5
1979F
330
123DB
100
AcDbEntity
  8
DEFPOINTS
 62
     0
 48
50.0
100
AcDbPoint
 10
5733.904397928898
 20
9306.507603031862
 30
0.0
  0
POINT
  5
197A0
330
123DB
100
AcDbEntity
  8
DEFPOINTS
 62
     0
 48
50.0
100
AcDbPoint
 10
5733.904397928898
 20
9581.220013050655
 30
0.0
  0
ENDBLK
  5
133D7
330
123DB
100
AcDbEntity
  8
0
 48
50.0
100
AcDbBlockEnd
  0
BLOCK
  5
12EE9
330
123E7
100
AcDbEntity
  8
0
 48
50.0
100
AcDbBlockBegin
  2
*D11
 70
     1
 10
0.0
 20
0.0
 30
0.0
  3
*D11
  1

  0
LINE
  5
1A76D
330
123E7
100
AcDbEntity
  8
寸法
 62
     0
 48
50.0
370
    -2
100
AcDbLine
 10
3998.9043979289
 20
7496.507603031858
 30
0.0
 11
3998.9043979289
 21
6709.283217923327
 31
0.0
  0
LINE
  5
1A76E
330
123E7
100
AcDbEntity
  8
寸法
 62
     0
 48
50.0
370
    -2
100
AcDbLine
 10
5788.904397928899
 20
7551.507603031858
 30
0.0
 11
5788.904397928899
 21
6709.283217923327
 31
0.0
  0
LINE
  5
1A76F
330
123E7
100
AcDbEntity
  8
寸法
 62
     0
 48
50.0
370
    -2
100
AcDbLine
 10
4018.9043979289
 20
6749.283217923326
 30
0.0
 11
5768.904397928899
 21
6749.283217923326
 31
0.0
  0
INSERT
  5
1A770
330
123E7
100
AcDbEntity
  8
寸法
 62
     0
 48
50.0
370
    -2
100
AcDbBlockReference
  2
_DOT
 10
3998.9043979289
 20
6749.283217923326
 30
0.0
 41
20.0
 42
20.0
 43
20.0
 50
180.0
  0
INSERT
  5
1A771
330
123E7
100
AcDbEntity
  8
寸法
 62
     0
 48
50.0
370
    -2
100
AcDbBlockReference
  2
_DOT
 10
5788.904397928899
 20
6749.283217923326
 30
0.0
 41
20.0
 42
20.0
 43
20.0
  0
MTEXT
  5
1A772
330
123E7
100
AcDbEntity
  8
寸法
 62
     7
 48
50.0
100
AcDbMText
 10
4893.9043979289
 20
6841.283217923326
 30
0.0
 40
120.0
 41
0.0
 71
     5
 72
     1
  1
\A1;1790
  7
STYLE1
 73
     1
 44
1.0
1001
ACAD
1000
MTEXTBEGIN
1070
    73
1070
     1
1070
    44
1040
1.0
1070
    74
1070
     0
1000
MTEXTEND
  0
POINT
  5
1A773
330
123E7
100
AcDbEntity
  8
DEFPOINTS
 62
     0
 48
50.0
100
AcDbPoint
 10
3998.9043979289
 20
7516.507603031858
 30
0.0
  0
POINT
  5
1A774
330
123E7
100
AcDbEntity
  8
DEFPOINTS
 62
     0
 48
50.0
100
AcDbPoint
 10
5788.904397928899
 20
7571.507603031858
 30
0.0
  0
POINT
  5
1A775
330
123E7
100
AcDbEntity
  8
DEFPOINTS
 62
     0
 48
50.0
100
AcDbPoint
 10
5788.904397928899
 20
6749.283217923326
 30
0.0
  0
ENDBLK
  5
12EF3
330
123E7
100
AcDbEntity
  8
0
 48
50.0
100
AcDbBlockEnd
  0
BLOCK
  5
1296F
330
123F3
100
AcDbEntity
  8
0
 48
50.0
100
AcDbBlockBegin
  2
*D12
 70
     1
 10
0.0
 20
0.0
 30
0.0
  3
*D12
  1

  0
LINE
  5
1977B
330
123F3
100
AcDbEntity
  8
寸法
 62
     0
 48
50.0
370
    -2
100
AcDbLine
 10
3998.904397928898
 20
9326.507603031858
 30
0.0
 11
3998.904397928898
 21
9621.220013050656
 31
0.0
  0
LINE
  5
1977C
330
123F3
100
AcDbEntity
  8
寸法
 62
     0
 48
50.0
370
    -2
100
AcDbLine
 10
4053.904397928898
 20
9326.507603031862
 30
0.0
 11
4053.904397928898
 21
9621.220013050656
 31
0.0
  0
LINE
  5
1977D
330
123F3
100
AcDbEntity
  8
寸法
 62
     0
 48
50.0
370
    -2
100
AcDbLine
 10
4073.904397928898
 20
9581.220013050655
 30
0.0
 11
4093.904397928898
 21
9581.220013050655
 31
0.0
  0
LINE
  5
1977E
330
123F3
100
AcDbEntity
  8
寸法
 62
     0
 48
50.0
370
    -2
100
AcDbLine
 10
3978.904397928898
 20
9581.220013050655
 30
0.0
 11
3757.93383518042
 21
9581.220013050655
 31
0.0
  0
LINE
  5
1977F
330
123F3
100
AcDbEntity
  8
寸法
 62
     0
 48
50.0
370
    -2
100
AcDbLine
 10
4053.904397928898
 20
9581.220013050655
 30
0.0
 11
3998.904397928898
 21
9581.220013050655
 31
0.0
  0
INSERT
  5
19780
330
123F3
100
AcDbEntity
  8
寸法
 62
     0
 48
50.0
370
    -2
100
AcDbBlockReference
  2
_DOT
 10
4053.904397928898
 20
9581.220013050655
 30
0.0
 41
20.0
 42
20.0
 43
20.0
 50
180.0
  0
INSERT
  5
19781
330
123F3
100
AcDbEntity
  8
寸法
 62
     0
 48
50.0
370
    -2
100
AcDbBlockReference
  2
_DOT
 10
3998.904397928898
 20
9581.220013050655
 30
0.0
 41
20.0
 42
20.0
 43
20.0
  0
MTEXT
  5
19782
330
123F3
100
AcDbEntity
  8
寸法
 62
     7
 48
50.0
100
AcDbMText
 10
3858.419116554659
 20
9673.220013050656
 30
0.0
 40
120.0
 41
0.0
 71
     5
 72
     1
  1
\A1;55
  7
STYLE1
 73
     1
 44
1.0
1001
ACAD
1000
MTEXTBEGIN
1070
    73
1070
     1
1070
    44
1040
1.0
1070
    74
1070
     0
1000
MTEXTEND
  0
POINT
  5
19783
330
123F3
100
AcDbEntity
  8
DEFPOINTS
 62
     0
 48
50.0
100
AcDbPoint
 10
3998.904397928898
 20
9306.507603031858
 30
0.0
  0
POINT
  5
19784
330
123F3
100
AcDbEntity
  8
DEFPOINTS
 62
     0
 48
50.0
100
AcDbPoint
 10
4053.904397928898
 20
9306.507603031862
 30
0.0
  0
POINT
  5
19785
330
123F3
100
AcDbEntity
  8
DEFPOINTS
 62
     0
 48
50.0
100
AcDbPoint
 10
4053.904397928898
 20
9581.220013050655
 30
0.0
  0
ENDBLK
  5
1297B
330
123F3
100
AcDbEntity
  8
0
 48
50.0
100
AcDbBlockEnd
  0
BLOCK
  5
12EA7
330
12400
100
AcDbEntity
  8
0
 48
50.0
100
AcDbBlockBegin
  2
*D13
 70
     1
 10
0.0
 20
0.0
 30
0.0
  3
*D13
  1

  0
LINE
  5
1A764
330
12400
100
AcDbEntity
  8
寸法
 62
     0
 48
50.0
370
    -2
100
AcDbLine
 10
5788.904397928899
 20
7551.507603031855
 30
0.0
 11
5788.904397928899
 21
6709.283217923327
 31
0.0
  0
LINE
  5
1A765
330
12400
100
AcDbEntity
  8
寸法
 62
     0
 48
50.0
370
    -2
100
AcDbLine
 10
7578.904397928898
 20
7496.507603031858
 30
0.0
 11
7578.904397928898
 21
6709.283217923327
 31
0.0
  0
LINE
  5
1A766
330
12400
100
AcDbEntity
  8
寸法
 62
     0
 48
50.0
370
    -2
100
AcDbLine
 10
5808.904397928898
 20
6749.283217923326
 30
0.0
 11
7558.904397928898
 21
6749.283217923326
 31
0.0
  0
INSERT
  5
1A767
330
12400
100
AcDbEntity
  8
寸法
 62
     0
 48
50.0
370
    -2
100
AcDbBlockReference
  2
_DOT
 10
5788.904397928899
 20
6749.283217923326
 30
0.0
 41
20.0
 42
20.0
 43
20.0
 50
180.0
  0
INSERT
  5
1A768
330
12400
100
AcDbEntity
  8
寸法
 62
     0
 48
50.0
370
    -2
100
AcDbBlockReference
  2
_DOT
 10
7578.904397928898
 20
6749.283217923326
 30
0.0
 41
20.0
 42
20.0
 43
20.0
  0
MTEXT
  5
1A769
330
12400
100
AcDbEntity
  8
寸法
 62
     7
 48
50.0
100
AcDbMText
 10
6683.904397928898
 20
6841.283217923326
 30
0.0
 40
120.0
 41
0.0
 71
     5
 72
     1
  1
\A1;1790
  7
STYLE1
 73
     1
 44
1.0
1001
ACAD
1000
MTEXTBEGIN
1070
    73
1070
     1
1070
    44
1040
1.0
1070
    74
1070
     0
1000
MTEXTEND
  0
POINT
  5
1A76A
330
12400
100
AcDbEntity
  8
DEFPOINTS
 62
     0
 48
50.0
100
AcDbPoint
 10
5788.904397928899
 20
7571.507603031855
 30
0.0
  0
POINT
  5
1A76B
330
12400
100
AcDbEntity
  8
DEFPOINTS
 62
     0
 48
50.0
100
AcDbPoint
 10
7578.904397928898
 20
7516.507603031858
 30
0.0
  0
POINT
  5
1A76C
330
12400
100
AcDbEntity
  8
DEFPOINTS
 62
     0
 48
50.0
100
AcDbPoint
 10
7578.904397928898
 20
6749.283217923326
 30
0.0
  0
ENDBLK
  5
12EB1
330
12400
100
AcDbEntity
  8
0
 48
50.0
100
AcDbBlockEnd
  0
BLOCK
  5
133C2
330
1240C
100
AcDbEntity
  8
0
 48
50.0
100
AcDbBlockBegin
  2
*D14
 70
     1
 10
0.0
 20
0.0
 30
0.0
  3
*D14
  1

  0
LINE
  5
18E5D
330
1240C
100
AcDbEntity
  8
寸法
 62
     0
 48
50.0
370
    -2
100
AcDbLine
 10
5843.904397928898
 20
9326.507603031862
 30
0.0
 11
5843.904397928898
 21
9621.220013050656
 31
0.0
  0
LINE
  5
18E5E
330
1240C
100
AcDbEntity
  8
寸法
 62
     0
 48
50.0
370
    -2
100
AcDbLine
 10
7523.904397928898
 20
9326.507603031862
 30
0.0
 11
7523.904397928898
 21
9621.220013050656
 31
0.0
  0
LINE
  5
18E5F
330
1240C
100
AcDbEntity
  8
寸法
 62
     0
 48
50.0
370
    -2
100
AcDbLine
 10
5863.904397928898
 20
9581.220013050655
 30
0.0
 11
7503.904397928898
 21
9581.220013050655
 31
0.0
  0
INSERT
  5
18E60
330
1240C
100
AcDbEntity
  8
寸法
 62
     0
 48
50.0
370
    -2
100
AcDbBlockReference
  2
_DOT
 10
5843.904397928898
 20
9581.220013050655
 30
0.0
 41
20.0
 42
20.0
 43
20.0
 50
180.0
  0
INSERT
  5
18E61
330
1240C
100
AcDbEntity
  8
寸法
 62
     0
 48
50.0
370
    -2
100
AcDbBlockReference
  2
_DOT
 10
7523.904397928898
 20
9581.220013050655
 30
0.0
 41
20.0
 42
20.0
 43
20.0
  0
MTEXT
  5
18E62
330
1240C
100
AcDbEntity
  8
寸法
 62
     7
 48
50.0
100
AcDbMText
 10
6683.904397928898
 20
9673.231824074278
 30
0.0
 40
120.0
 41
0.0
 71
     5
 72
     1
  1
\A1;4X420=1680
  7
STYLE1
 73
     1
 44
1.0
1001
ACAD
1000
MTEXTBEGIN
1070
    73
1070
     1
1070
    44
1040
1.0
1070
    74
1070
     0
1000
MTEXTEND
  0
POINT
  5
18E63
330
1240C
100
AcDbEntity
  8
DEFPOINTS
 62
     0
 48
50.0
100
AcDbPoint
 10
5843.904397928898
 20
9306.507603031862
 30
0.0
  0
POINT
  5
18E64
330
1240C
100
AcDbEntity
  8
DEFPOINTS
 62
     0
 48
50.0
100
AcDbPoint
 10
7523.904397928898
 20
9306.507603031862
 30
0.0
  0
POINT
  5
18E65
330
1240C
100
AcDbEntity
  8
DEFPOINTS
 62
     0
 48
50.0
100
AcDbPoint
 10
7523.904397928898
 20
9581.220013050655
 30
0.0
  0
ENDBLK
  5
133CC
330
1240C
100
AcDbEntity
  8
0
 48
50.0
100
AcDbBlockEnd
  0
BLOCK
  5
1297C
330
12418
100
AcDbEntity
  8
0
 48
50.0
100
AcDbBlockBegin
  2
*D15
 70
     1
 10
0.0
 20
0.0
 30
0.0
  3
*D15
  1

  0
LINE
  5
18D67
330
12418
100
AcDbEntity
  8
寸法
 62
     0
 48
50.0
370
    -2
100
AcDbLine
 10
5733.904397928898
 20
9326.507603031862
 30
0.0
 11
5733.904397928898
 21
9621.220013050658
 31
0.0
  0
LINE
  5
18D68
330
12418
100
AcDbEntity
  8
寸法
 62
     0
 48
50.0
370
    -2
100
AcDbLine
 10
5843.904397928898
 20
9326.507603031862
 30
0.0
 11
5843.904397928898
 21
9621.220013050658
 31
0.0
  0
LINE
  5
18D69
330
12418
100
AcDbEntity
  8
寸法
 62
     0
 48
50.0
370
    -2
100
AcDbLine
 10
5753.904397928899
 20
9581.220013050655
 30
0.0
 11
5823.904397928898
 21
9581.220013050655
 31
0.0
  0
INSERT
  5
18D6A
330
12418
100
AcDbEntity
  8
寸法
 62
     0
 48
50.0
370
    -2
100
AcDbBlockReference
  2
_DOT
 10
5733.904397928898
 20
9581.220013050655
 30
0.0
 41
20.0
 42
20.0
 43
20.0
 50
180.0
  0
INSERT
  5
18D6B
330
12418
100
AcDbEntity
  8
寸法
 62
     0
 48
50.0
370
    -2
100
AcDbBlockReference
  2
_DOT
 10
5843.904397928898
 20
9581.220013050655
 30
0.0
 41
20.0
 42
20.0
 43
20.0
  0
MTEXT
  5
18D6C
330
12418
100
AcDbEntity
  8
寸法
 62
     7
 48
50.0
100
AcDbMText
 10
5788.904397928899
 20
9673.220013050658
 30
0.0
 40
120.0
 41
0.0
 71
     5
 72
     1
  1
\A1;110
  7
STYLE1
 73
     1
 44
1.0
1001
ACAD
1000
MTEXTBEGIN
1070
    73
1070
     1
1070
    44
1040
1.0
1070
    74
1070
     0
1000
MTEXTEND
  0
POINT
  5
18D6D
330
12418
100
AcDbEntity
  8
DEFPOINTS
 62
     0
 48
50.0
100
AcDbPoint
 10
5733.904397928898
 20
9306.507603031862
 30
0.0
  0
POINT
  5
18D6E
330
12418
100
AcDbEntity
  8
DEFPOINTS
 62
     0
 48
50.0
100
AcDbPoint
 10
5843.904397928898
 20
9306.507603031862
 30
0.0
  0
POINT
  5
18D6F
330
12418
100
AcDbEntity
  8
DEFPOINTS
 62
     0
 48
50.0
100
AcDbPoint
 10
5843.904397928898
 20
9581.220013050655
 30
0.0
  0
ENDBLK
  5
12986
330
12418
100
AcDbEntity
  8
0
 48
50.0
100
AcDbBlockEnd
  0
BLOCK
  5
137D2
330
1372F
100
AcDbEntity
  8
0
 48
50.0
100
AcDbBlockBegin
  2
*D16
 70
     1
 10
0.0
 20
0.0
 30
0.0
  3
*D16
  1

  0
LINE
  5
19E98
330
1372F
100
AcDbEntity
  8
寸法
 62
     0
 48
50.0
370
    -2
100
AcDbLine
 10
12975.14422886714
 20
2288.112805903256
 30
0.0
 11
13686.35780785321
 21
2288.112805903256
 31
0.0
  0
LINE
  5
19E99
330
1372F
100
AcDbEntity
  8
寸法
 62
     0
 48
50.0
370
    -2
100
AcDbLine
 10
13055.14422886715
 20
4608.112805903256
 30
0.0
 11
13686.35780785321
 21
4608.112805903256
 31
0.0
  0
LINE
  5
19E9A
330
1372F
100
AcDbEntity
  8
寸法
 62
     0
 48
50.0
370
    -2
100
AcDbLine
 10
13646.35780785321
 20
2308.112805903256
 30
0.0
 11
13646.35780785321
 21
4588.112805903256
 31
0.0
  0
INSERT
  5
19E9B
330
1372F
100
AcDbEntity
  8
寸法
 62
     0
 48
50.0
370
    -2
100
AcDbBlockReference
  2
_DOT
 10
13646.35780785321
 20
2288.112805903256
 30
0.0
 41
20.0
 42
20.0
 43
20.0
 50
270.0
  0
INSERT
  5
19E9C
330
1372F
100
AcDbEntity
  8
寸法
 62
     0
 48
50.0
370
    -2
100
AcDbBlockReference
  2
_DOT
 10
13646.35780785321
 20
4608.112805903256
 30
0.0
 41
20.0
 42
20.0
 43
20.0
 50
90.0
  0
MTEXT
  5
19E9D
330
1372F
100
AcDbEntity
  8
寸法
 62
     7
 48
50.0
100
AcDbMText
 10
13554.34599682958
 20
3448.112805903258
 30
0.0
 40
120.0
 41
0.0
 71
     5
 72
     1
  1
\A1;2320
  7
STYLE1
 11
0.0000000000000001
 21
1.0
 31
0.0
 73
     1
 44
1.0
1001
ACAD
1000
MTEXTBEGIN
1070
    73
1070
     1
1070
    44
1040
1.0
1070
    74
1070
     0
1000
MTEXTEND
  0
POINT
  5
19E9E
330
1372F
100
AcDbEntity
  8
DEFPOINTS
 62
     0
 48
50.0
100
AcDbPoint
 10
12955.14422886714
 20
2288.112805903256
 30
0.0
  0
POINT
  5
19E9F
330
1372F
100
AcDbEntity
  8
DEFPOINTS
 62
     0
 48
50.0
100
AcDbPoint
 10
13035.14422886715
 20
4608.112805903256
 30
0.0
  0
POINT
  5
19EA0
330
1372F
100
AcDbEntity
  8
DEFPOINTS
 62
     0
 48
50.0
100
AcDbPoint
 10
13646.35780785321
 20
4608.112805903256
 30
0.0
  0
ENDBLK
  5
137DC
330
1372F
100
AcDbEntity
  8
0
 48
50.0
100
AcDbBlockEnd
  0
BLOCK
  5
137DD
330
1373B
100
AcDbEntity
  8
0
 48
50.0
100
AcDbBlockBegin
  2
*D17
 70
     1
 10
0.0
 20
0.0
 30
0.0
  3
*D17
  1

  0
LINE
  5
19E8D
330
1373B
100
AcDbEntity
  8
寸法
 62
     0
 48
50.0
370
    -2
100
AcDbLine
 10
11145.14422886715
 20
2338.112805903256
 30
0.0
 11
10281.39409968388
 21
2338.112805903256
 31
0.0
  0
LINE
  5
19E8E
330
1373B
100
AcDbEntity
  8
寸法
 62
     0
 48
50.0
370
    -2
100
AcDbLine
 10
11068.14422886714
 20
2288.112805903256
 30
0.0
 11
10281.39409968388
 21
2288.112805903256
 31
0.0
  0
LINE
  5
19E8F
330
1373B
100
AcDbEntity
  8
寸法
 62
     0
 48
50.0
370
    -2
100
AcDbLine
 10
10321.39409968388
 20
2358.112805903256
 30
0.0
 11
10321.39409968388
 21
2378.112805903256
 31
0.0
  0
LINE
  5
19E90
330
1373B
100
AcDbEntity
  8
寸法
 62
     0
 48
50.0
370
    -2
100
AcDbLine
 10
10321.39409968388
 20
2268.112805903256
 30
0.0
 11
10321.39409968388
 21
1806.315561808766
 31
0.0
  0
LINE
  5
19E91
330
1373B
100
AcDbEntity
  8
寸法
 62
     0
 48
50.0
370
    -2
100
AcDbLine
 10
10321.39409968388
 20
2338.112805903256
 30
0.0
 11
10321.39409968388
 21
2288.112805903256
 31
0.0
  0
INSERT
  5
19E92
330
1373B
100
AcDbEntity
  8
寸法
 62
     0
 48
50.0
370
    -2
100
AcDbBlockReference
  2
_DOT
 10
10321.39409968388
 20
2338.112805903256
 30
0.0
 41
20.0
 42
20.0
 43
20.0
 50
270.0
  0
INSERT
  5
19E93
330
1373B
100
AcDbEntity
  8
寸法
 62
     0
 48
50.0
370
    -2
100
AcDbBlockReference
  2
_DOT
 10
10321.39409968388
 20
2288.112805903256
 30
0.0
 41
20.0
 42
20.0
 43
20.0
 50
90.0
  0
MTEXT
  5
19E94
330
1373B
100
AcDbEntity
  8
寸法
 62
     7
 48
50.0
100
AcDbMText
 10
10229.39409968388
 20
1904.362805903256
 30
0.0
 40
120.0
 41
0.0
 71
     5
 72
     1
  1
\A1;50
  7
STYLE1
 11
0.0000000000000001
 21
1.0
 31
0.0
 73
     1
 44
1.0
1001
ACAD
1000
MTEXTBEGIN
1070
    73
1070
     1
1070
    44
1040
1.0
1070
    74
1070
     0
1000
MTEXTEND
  0
POINT
  5
19E95
330
1373B
100
AcDbEntity
  8
DEFPOINTS
 62
     0
 48
50.0
100
AcDbPoint
 10
11165.14422886715
 20
2338.112805903256
 30
0.0
  0
POINT
  5
19E96
330
1373B
100
AcDbEntity
  8
DEFPOINTS
 62
     0
 48
50.0
100
AcDbPoint
 10
11088.14422886714
 20
2288.112805903256
 30
0.0
  0
POINT
  5
19E97
330
1373B
100
AcDbEntity
  8
DEFPOINTS
 62
     0
 48
50.0
100
AcDbPoint
 10
10321.39409968388
 20
2288.112805903256
 30
0.0
  0
ENDBLK
  5
137E9
330
1373B
100
AcDbEntity
  8
0
 48
50.0
100
AcDbBlockEnd
  0
BLOCK
  5
137EA
330
13749
100
AcDbEntity
  8
0
 48
50.0
100
AcDbBlockBegin
  2
*D18
 70
     1
 10
0.0
 20
0.0
 30
0.0
  3
*D18
  1

  0
LINE
  5
19E82
330
13749
100
AcDbEntity
  8
寸法
 62
     0
 48
50.0
370
    -2
100
AcDbLine
 10
11068.14422886714
 20
2288.112805903256
 30
0.0
 11
9981.39409968388
 21
2288.112805903256
 31
0.0
  0
LINE
  5
19E83
330
13749
100
AcDbEntity
  8
寸法
 62
     0
 48
50.0
370
    -2
100
AcDbLine
 10
10088.64315297201
 20
2188.112805903256
 30
0.0
 11
9981.39409968388
 21
2188.112805903256
 31
0.0
  0
LINE
  5
19E84
330
13749
100
AcDbEntity
  8
寸法
 62
     0
 48
50.0
370
    -2
100
AcDbLine
 10
10021.39409968388
 20
2308.112805903256
 30
0.0
 11
10021.39409968388
 21
2328.112805903256
 31
0.0
  0
LINE
  5
19E85
330
13749
100
AcDbEntity
  8
寸法
 62
     0
 48
50.0
370
    -2
100
AcDbLine
 10
10021.39409968388
 20
2168.112805903256
 30
0.0
 11
10021.39409968388
 21
1645.065561808766
 31
0.0
  0
LINE
  5
19E86
330
13749
100
AcDbEntity
  8
寸法
 62
     0
 48
50.0
370
    -2
100
AcDbLine
 10
10021.39409968388
 20
2288.112805903256
 30
0.0
 11
10021.39409968388
 21
2188.112805903256
 31
0.0
  0
INSERT
  5
19E87
330
13749
100
AcDbEntity
  8
寸法
 62
     0
 48
50.0
370
    -2
100
AcDbBlockReference
  2
_DOT
 10
10021.39409968388
 20
2288.112805903256
 30
0.0
 41
20.0
 42
20.0
 43
20.0
 50
270.0
  0
INSERT
  5
19E88
330
13749
100
AcDbEntity
  8
寸法
 62
     0
 48
50.0
370
    -2
100
AcDbBlockReference
  2
_DOT
 10
10021.39409968388
 20
2188.112805903256
 30
0.0
 41
20.0
 42
20.0
 43
20.0
 50
90.0
  0
MTEXT
  5
19E89
330
13749
100
AcDbEntity
  8
寸法
 62
     7
 48
50.0
100
AcDbMText
 10
9929.39409968388
 20
1773.112805903256
 30
0.0
 40
120.0
 41
0.0
 71
     5
 72
     1
  1
\A1;100
  7
STYLE1
 11
0.0000000000000001
 21
1.0
 31
0.0
 73
     1
 44
1.0
1001
ACAD
1000
MTEXTBEGIN
1070
    73
1070
     1
1070
    44
1040
1.0
1070
    74
1070
     0
1000
MTEXTEND
  0
POINT
  5
19E8A
330
13749
100
AcDbEntity
  8
DEFPOINTS
 62
     0
 48
50.0
100
AcDbPoint
 10
11088.14422886714
 20
2288.112805903256
 30
0.0
  0
POINT
  5
19E8B
330
13749
100
AcDbEntity
  8
DEFPOINTS
 62
     0
 48
50.0
100
AcDbPoint
 10
10108.64315297201
 20
2188.112805903256
 30
0.0
  0
POINT
  5
19E8C
330
13749
100
AcDbEntity
  8
DEFPOINTS
 62
     0
 48
50.0
100
AcDbPoint
 10
10021.39409968388
 20
2188.112805903256
 30
0.0
  0
ENDBLK
  5
137F6
330
13749
100
AcDbEntity
  8
0
 48
50.0
100
AcDbBlockEnd
  0
BLOCK
  5
137F7
330
13757
100
AcDbEntity
  8
0
 48
50.0
100
AcDbBlockBegin
  2
*D19
 70
     1
 10
0.0
 20
0.0
 30
0.0
  3
*D19
  1

  0
LINE
  5
19E79
330
13757
100
AcDbEntity
  8
寸法
 62
     0
 48
50.0
370
    -2
100
AcDbLine
 10
11072.64422886715
 20
1988.112805903256
 30
0.0
 11
10645.39965278267
 21
1988.112805903256
 31
0.0
  0
LINE
  5
19E7A
330
13757
100
AcDbEntity
  8
寸法
 62
     0
 48
50.0
370
    -2
100
AcDbLine
 10
11072.64422886715
 20
2188.112805903256
 30
0.0
 11
10645.39965278267
 21
2188.112805903256
 31
0.0
  0
LINE
  5
19E7B
330
13757
100
AcDbEntity
  8
寸法
 62
     0
 48
50.0
370
    -2
100
AcDbLine
 10
10685.39965278267
 20
2008.112805903256
 30
0.0
 11
10685.39965278267
 21
2168.112805903256
 31
0.0
  0
INSERT
  5
19E7C
330
13757
100
AcDbEntity
  8
寸法
 62
     0
 48
50.0
370
    -2
100
AcDbBlockReference
  2
_DOT
 10
10685.39965278267
 20
1988.112805903256
 30
0.0
 41
20.0
 42
20.0
 43
20.0
 50
270.0
  0
INSERT
  5
19E7D
330
13757
100
AcDbEntity
  8
寸法
 62
     0
 48
50.0
370
    -2
100
AcDbBlockReference
  2
_DOT
 10
10685.39965278267
 20
2188.112805903256
 30
0.0
 41
20.0
 42
20.0
 43
20.0
 50
90.0
  0
MTEXT
  5
19E7E
330
13757
100
AcDbEntity
  8
寸法
 62
     7
 48
50.0
100
AcDbMText
 10
10593.38784175905
 20
2045.674129116822
 30
0.0
 40
120.0
 41
0.0
 71
     5
 72
     1
  1
\A1;200
  7
STYLE1
 11
0.0000000000000001
 21
1.0
 31
0.0
 73
     1
 44
1.0
1001
ACAD
1000
MTEXTBEGIN
1070
    73
1070
     1
1070
    44
1040
1.0
1070
    74
1070
     0
1000
MTEXTEND
  0
POINT
  5
19E7F
330
13757
100
AcDbEntity
  8
DEFPOINTS
 62
     0
 48
50.0
100
AcDbPoint
 10
11092.64422886715
 20
1988.112805903256
 30
0.0
  0
POINT
  5
19E80
330
13757
100
AcDbEntity
  8
DEFPOINTS
 62
     0
 48
50.0
100
AcDbPoint
 10
11092.64422886715
 20
2188.112805903256
 30
0.0
  0
POINT
  5
19E81
330
13757
100
AcDbEntity
  8
DEFPOINTS
 62
     0
 48
50.0
100
AcDbPoint
 10
10685.39965278267
 20
2188.112805903256
 30
0.0
  0
ENDBLK
  5
13801
330
13757
100
AcDbEntity
  8
0
 48
50.0
100
AcDbBlockEnd
  0
BLOCK
  5
13802
330
13763
100
AcDbEntity
  8
0
 48
50.0
100
AcDbBlockBegin
  2
*D20
 70
     1
 10
0.0
 20
0.0
 30
0.0
  3
*D20
  1

  0
LINE
  5
19E70
330
13763
100
AcDbEntity
  8
寸法
 62
     0
 48
50.0
370
    -2
100
AcDbLine
 10
11092.64422886715
 20
1968.112805903256
 30
0.0
 11
11092.64422886715
 21
1612.922421664043
 31
0.0
  0
LINE
  5
19E71
330
13763
100
AcDbEntity
  8
寸法
 62
     0
 48
50.0
370
    -2
100
AcDbLine
 10
11292.64422886715
 20
1968.112805903254
 30
0.0
 11
11292.64422886715
 21
1612.922421664043
 31
0.0
  0
LINE
  5
19E72
330
13763
100
AcDbEntity
  8
寸法
 62
     0
 48
50.0
370
    -2
100
AcDbLine
 10
11112.64422886715
 20
1652.922421664043
 30
0.0
 11
11272.64422886715
 21
1652.922421664043
 31
0.0
  0
INSERT
  5
19E73
330
13763
100
AcDbEntity
  8
寸法
 62
     0
 48
50.0
370
    -2
100
AcDbBlockReference
  2
_DOT
 10
11092.64422886715
 20
1652.922421664043
 30
0.0
 41
20.0
 42
20.0
 43
20.0
 50
180.0
  0
INSERT
  5
19E74
330
13763
100
AcDbEntity
  8
寸法
 62
     0
 48
50.0
370
    -2
100
AcDbBlockReference
  2
_DOT
 10
11292.64422886715
 20
1652.922421664043
 30
0.0
 41
20.0
 42
20.0
 43
20.0
  0
MTEXT
  5
19E75
330
13763
100
AcDbEntity
  8
寸法
 62
     7
 48
50.0
100
AcDbMText
 10
11192.64422886715
 20
1744.934232687665
 30
0.0
 40
120.0
 41
0.0
 71
     5
 72
     1
  1
\A1;200
  7
STYLE1
 73
     1
 44
1.0
1001
ACAD
1000
MTEXTBEGIN
1070
    73
1070
     1
1070
    44
1040
1.0
1070
    74
1070
     0
1000
MTEXTEND
  0
POINT
  5
19E76
330
13763
100
AcDbEntity
  8
DEFPOINTS
 62
     0
 48
50.0
100
AcDbPoint
 10
11092.64422886715
 20
1988.112805903256
 30
0.0
  0
POINT
  5
19E77
330
13763
100
AcDbEntity
  8
DEFPOINTS
 62
     0
 48
50.0
100
AcDbPoint
 10
11292.64422886715
 20
1988.112805903254
 30
0.0
  0
POINT
  5
19E78
330
13763
100
AcDbEntity
  8
DEFPOINTS
 62
     0
 48
50.0
100
AcDbPoint
 10
11292.64422886715
 20
1652.922421664043
 30
0.0
  0
ENDBLK
  5
1380C
330
13763
100
AcDbEntity
  8
0
 48
50.0
100
AcDbBlockEnd
  0
BLOCK
  5
1382F
330
13794
100
AcDbEntity
  8
0
 48
50.0
100
AcDbBlockBegin
  2
*D21
 70
     1
 10
0.0
 20
0.0
 30
0.0
  3
*D21
  1

  0
LINE
  5
19E67
330
13794
100
AcDbEntity
  8
寸法
 62
     0
 48
50.0
370
    -2
100
AcDbLine
 10
11145.14422886715
 20
4428.112805903256
 30
0.0
 11
10281.39409968388
 21
4428.112805903256
 31
0.0
  0
LINE
  5
19E68
330
13794
100
AcDbEntity
  8
寸法
 62
     0
 48
50.0
370
    -2
100
AcDbLine
 10
11145.14422886715
 20
2338.112805903256
 30
0.0
 11
10281.39409968388
 21
2338.112805903256
 31
0.0
  0
LINE
  5
19E69
330
13794
100
AcDbEntity
  8
寸法
 62
     0
 48
50.0
370
    -2
100
AcDbLine
 10
10321.39409968388
 20
4408.112805903257
 30
0.0
 11
10321.39409968388
 21
2358.112805903256
 31
0.0
  0
INSERT
  5
19E6A
330
13794
100
AcDbEntity
  8
寸法
 62
     0
 48
50.0
370
    -2
100
AcDbBlockReference
  2
_DOT
 10
10321.39409968388
 20
4428.112805903256
 30
0.0
 41
20.0
 42
20.0
 43
20.0
 50
90.0
  0
INSERT
  5
19E6B
330
13794
100
AcDbEntity
  8
寸法
 62
     0
 48
50.0
370
    -2
100
AcDbBlockReference
  2
_DOT
 10
10321.39409968388
 20
2338.112805903256
 30
0.0
 41
20.0
 42
20.0
 43
20.0
 50
270.0
  0
MTEXT
  5
19E6C
330
13794
100
AcDbEntity
  8
寸法
 62
     7
 48
50.0
100
AcDbMText
 10
10229.38228866026
 20
3383.112805903258
 30
0.0
 40
120.0
 41
0.0
 71
     5
 72
     1
  1
\A1;2090
  7
STYLE1
 11
0.0000000000000001
 21
1.0
 31
0.0
 73
     1
 44
1.0
1001
ACAD
1000
MTEXTBEGIN
1070
    73
1070
     1
1070
    44
1040
1.0
1070
    74
1070
     0
1000
MTEXTEND
  0
POINT
  5
19E6D
330
13794
100
AcDbEntity
  8
DEFPOINTS
 62
     0
 48
50.0
100
AcDbPoint
 10
11165.14422886715
 20
4428.112805903256
 30
0.0
  0
POINT
  5
19E6E
330
13794
100
AcDbEntity
  8
DEFPOINTS
 62
     0
 48
50.0
100
AcDbPoint
 10
11165.14422886715
 20
2338.112805903256
 30
0.0
  0
POINT
  5
19E6F
330
13794
100
AcDbEntity
  8
DEFPOINTS
 62
     0
 48
50.0
100
AcDbPoint
 10
10321.39409968388
 20
2338.112805903256
 30
0.0
  0
ENDBLK
  5
13839
330
13794
100
AcDbEntity
  8
0
 48
50.0
100
AcDbBlockEnd
  0
BLOCK
  5
1452D
330
1452C
100
AcDbEntity
  8
0
100
AcDbBlockBegin
  2
_OPEN
 70
     0
 10
0.0
 20
0.0
 30
0.0
  3
_OPEN
  1

  0
LINE
  5
1452E
330
1452C
100
AcDbEntity
  8
0
  6
ByBlock
 62
     0
100
AcDbLine
 10
-1.0
 20
0.1666666666666666
 30
0.0
 11
0.0
 21
0.0
 31
0.0
  0
LINE
  5
1452F
330
1452C
100
AcDbEntity
  8
0
  6
ByBlock
 62
     0
100
AcDbLine
 10
0.0
 20
0.0
 30
0.0
 11
-1.0
 21
-0.1666666666666666
 31
0.0
  0
LINE
  5
14530
330
1452C
100
AcDbEntity
  8
0
  6
ByBlock
 62
     0
100
AcDbLine
 10
0.0
 20
0.0
 30
0.0
 11
-1.0
 21
0.0
 31
0.0
  0
ENDBLK
  5
14531
330
1452C
100
AcDbEntity
  8
0
100
AcDbBlockEnd
  0
BLOCK
  5
14533
330
14532
100
AcDbEntity
  8
0
100
AcDbBlockBegin
  2
BLKF047
 70
     0
 10
0.0
 20
0.0
 30
0.0
  3
BLKF047
  1

  0
LINE
  5
14534
330
14532
100
AcDbEntity
  8
GR1-1
  6
実線９
 62
     5
100
AcDbLine
 10
127.1418574451926
 20
26.75880758570355
 30
0.0
 11
127.1418574451926
 21
20.75880758570355
 31
0.0
  0
LINE
  5
14535
330
14532
100
AcDbEntity
  8
GR1-1
  6
実線９
 62
     5
100
AcDbLine
 10
161.7418574451927
 20
26.75880758570355
 30
0.0
 11
161.7418574451927
 21
20.75880758570355
 31
0.0
  0
LINE
  5
14536
330
14532
100
AcDbEntity
  8
GR1-1
  6
実線９
 62
     5
100
AcDbLine
 10
160.7418574451922
 20
26.75880758570355
 30
0.0
 11
160.7418574451922
 21
20.75880758570355
 31
0.0
  0
LINE
  5
14537
330
14532
100
AcDbEntity
  8
GR1-1
  6
実線９
 62
     5
100
AcDbLine
 10
128.1418574451929
 20
26.75880758570355
 30
0.0
 11
128.1418574451929
 21
20.75880758570355
 31
0.0
  0
LINE
  5
14538
330
14532
100
AcDbEntity
  8
GR1-1
  6
実線９
 62
     5
100
AcDbLine
 10
127.1418574451926
 20
26.75880758570355
 30
0.0
 11
161.7418574451927
 21
26.75880758570355
 31
0.0
  0
LINE
  5
14539
330
14532
100
AcDbEntity
  8
GR1-1
  6
実線９
 62
     5
100
AcDbLine
 10
127.1418574451926
 20
20.75880758570355
 30
0.0
 11
161.7418574451927
 21
20.75880758570355
 31
0.0
  0
INSERT
  5
1453A
330
14532
100
AcDbEntity
  8
0
100
AcDbBlockReference
  2
BLKF048
 10
0.0
 20
0.0
 30
0.0
  0
ENDBLK
  5
1453B
330
14532
100
AcDbEntity
  8
0
100
AcDbBlockEnd
  0
BLOCK
  5
1453D
330
1453C
100
AcDbEntity
  8
0
100
AcDbBlockBegin
  2
BLKF048
 70
     0
 10
0.0
 20
0.0
 30
0.0
  3
BLKF048
  1

  0
LINE
  5
1453E
330
1453C
100
AcDbEntity
  8
GR1-1
  6
実線９
 62
     5
100
AcDbLine
 10
160.7418574451922
 20
23.69685923576634
 30
0.0
 11
161.7418574451927
 21
24.6968592357668
 31
0.0
  0
LINE
  5
1453F
330
1453C
100
AcDbEntity
  8
GR1-1
  6
実線９
 62
     5
100
AcDbLine
 10
160.7418574451922
 20
25.11107279813967
 30
0.0
 11
161.7418574451927
 21
26.11107279814013
 31
0.0
  0
LINE
  5
14540
330
1453C
100
AcDbEntity
  8
GR1-1
  6
実線９
 62
     5
100
AcDbLine
 10
160.7418574451923
 20
26.52528636051255
 30
0.0
 11
160.9753786703833
 21
26.75880758570355
 31
0.0
  0
LINE
  5
14541
330
1453C
100
AcDbEntity
  8
GR1-1
  6
実線９
 62
     5
100
AcDbLine
 10
128.1053209852943
 20
20.75880758570355
 30
0.0
 11
128.1418574451929
 21
20.79534404560235
 31
0.0
  0
LINE
  5
14542
330
1453C
100
AcDbEntity
  8
GR1-1
  6
実線９
 62
     5
100
AcDbLine
 10
127.1418574451928
 20
21.20955760797523
 30
0.0
 11
128.141857445193
 21
22.20955760797523
 31
0.0
  0
LINE
  5
14543
330
1453C
100
AcDbEntity
  8
GR1-1
  6
実線９
 62
     5
100
AcDbLine
 10
127.1418574451927
 20
22.62377117034811
 30
0.0
 11
128.141857445193
 21
23.62377117034856
 31
0.0
  0
LINE
  5
14544
330
1453C
100
AcDbEntity
  8
GR1-1
  6
実線９
 62
     5
100
AcDbLine
 10
127.1418574451927
 20
24.03798473272145
 30
0.0
 11
128.1418574451929
 21
25.03798473272145
 31
0.0
  0
LINE
  5
14545
330
1453C
100
AcDbEntity
  8
GR1-1
  6
実線９
 62
     5
100
AcDbLine
 10
127.1418574451927
 20
25.45219829509432
 30
0.0
 11
128.1418574451929
 21
26.45219829509432
 31
0.0
  0
LINE
  5
14546
330
1453C
100
AcDbEntity
  8
GR1-1
  6
実線９
 62
     5
100
AcDbLine
 10
160.7418574451922
 20
22.28264567339346
 30
0.0
 11
161.7418574451927
 21
23.28264567339392
 31
0.0
  0
LINE
  5
14547
330
1453C
100
AcDbEntity
  8
GR1-1
  6
実線９
 62
     5
100
AcDbLine
 10
160.7418574451922
 20
20.86843211102013
 30
0.0
 11
161.7418574451927
 21
21.86843211102058
 31
0.0
  0
ENDBLK
  5
14548
330
1453C
100
AcDbEntity
  8
0
100
AcDbBlockEnd
  0
BLOCK
  5
1454A
330
14549
100
AcDbEntity
  8
0
100
AcDbBlockBegin
  2
A$C3CBA6BEF
 70
     0
 10
0.0
 20
0.0
 30
0.0
  3
A$C3CBA6BEF
  1

  0
LINE
  5
1454B
330
14549
100
AcDbEntity
  8
センター
 48
0.6
100
AcDbLine
 10
0.0000000255959094
 20
14.99999976233107
 30
0.0
 11
54.0000000255959
 21
14.99999976233107
 31
0.0
  0
LINE
  5
1454C
330
14549
100
AcDbEntity
  8
センター
 48
0.5
100
AcDbLine
 10
39.00000002559591
 20
29.99999976233107
 30
0.0
 11
39.00000002559591
 21
-0.0000002376689281
 31
0.0
  0
LINE
  5
1454D
330
14549
100
AcDbEntity
  8
センター
 48
0.5
100
AcDbLine
 10
15.00000002559591
 20
29.99999976233107
 30
0.0
 11
15.00000002559591
 21
-0.0000002376689281
 31
0.0
  0
LINE
  5
1454E
330
14549
100
AcDbEntity
  8
センター
 48
0.5
100
AcDbLine
 10
27.00000002559591
 20
29.99999976233107
 30
0.0
 11
27.00000002559591
 21
-0.0000002376689281
 31
0.0
  0
LINE
  5
1454F
330
14549
100
AcDbEntity
  8
細線
100
AcDbLine
 10
30.10000002559593
 20
22.4999997623311
 30
0.0
 11
42.60000002559593
 21
22.49999976233103
 31
0.0
  0
LINE
  5
14550
330
14549
100
AcDbEntity
  8
細線
100
AcDbLine
 10
30.10000002559593
 20
7.499999762331071
 30
0.0
 11
42.60000002559586
 21
7.499999762331015
 31
0.0
  0
LWPOLYLINE
  5
14551
330
14549
100
AcDbEntity
  8
細線
100
AcDbPolyline
 90
        6
 70
     1
 43
0.0
 10
12.25000002559591
 20
19.76313948314549
 10
9.500000025595907
 20
14.99999976233107
 10
12.25000002559591
 20
10.23686004151665
 10
17.75000002559591
 20
10.23686004151665
 10
20.50000002559591
 20
14.99999976233107
 10
17.75000002559591
 20
19.76313948314549
  0
CIRCLE
  5
14552
330
14549
100
AcDbEntity
  8
細線
100
AcDbCircle
 10
15.00000002559591
 20
14.99999976233107
 30
0.0
 40
4.763139720814389
  0
CIRCLE
  5
14553
330
14549
100
AcDbEntity
  8
細線
100
AcDbCircle
 10
15.00000002559591
 20
14.99999976233107
 30
0.0
 40
6.5
  0
LINE
  5
14554
330
14549
100
AcDbEntity
  8
細線
100
AcDbLine
 10
27.00000002559591
 20
20.24999976233107
 30
0.0
 11
27.00000002559591
 21
9.749999762331071
 31
0.0
  0
LINE
  5
14555
330
14549
100
AcDbEntity
  8
細線
  6
HIDDEN
100
AcDbLine
 10
28.60000002559593
 20
20.24999976233107
 30
0.0
 11
28.60000002559593
 21
9.749999762331071
 31
0.0
  0
LINE
  5
14556
330
14549
100
AcDbEntity
  8
部品1
 48
0.5
100
AcDbLine
 10
29.00000002559591
 20
20.99999976233107
 30
0.0
 11
29.00000002559591
 21
8.99999976233107
 31
0.0
  0
LINE
  5
14557
330
14549
100
AcDbEntity
  8
部品1
 48
0.5
100
AcDbLine
 10
25.00000002559591
 20
20.99999976233107
 30
0.0
 11
25.00000002559591
 21
8.99999976233107
 31
0.0
  0
ARC
  5
14558
330
14549
100
AcDbEntity
  8
細線
100
AcDbCircle
 10
30.10000002559593
 20
8.99999976233107
 30
0.0
 40
1.5
100
AcDbArc
 50
180.0
 51
269.9999999999998
  0
LINE
  5
14559
330
14549
100
AcDbEntity
  8
細線
100
AcDbLine
 10
25.00000002559591
 20
9.7499997623311
 30
0.0
 11
28.60000002559593
 21
9.749999762331071
 31
0.0
  0
LINE
  5
1455A
330
14549
100
AcDbEntity
  8
部品1
 48
0.5
100
AcDbLine
 10
25.00000002559591
 20
8.9999997623311
 30
0.0
 11
29.00000002559591
 21
8.99999976233107
 31
0.0
  0
LINE
  5
1455B
330
14549
100
AcDbEntity
  8
細線
100
AcDbLine
 10
28.60000002559593
 20
9.749999762331071
 30
0.0
 11
28.60000002559593
 21
8.99999976233107
 31
0.0
  0
ARC
  5
1455C
330
14549
100
AcDbEntity
  8
細線
100
AcDbCircle
 10
30.10000002559593
 20
20.9999997623311
 30
0.0
 40
1.5
100
AcDbArc
 50
89.99999999999969
 51
180.0
  0
LINE
  5
1455D
330
14549
100
AcDbEntity
  8
部品1
 48
0.5
100
AcDbLine
 10
25.00000002559591
 20
20.9999997623311
 30
0.0
 11
29.00000002559597
 21
20.99999976233107
 31
0.0
  0
LINE
  5
1455E
330
14549
100
AcDbEntity
  8
細線
100
AcDbLine
 10
25.00000002559591
 20
20.2499997623311
 30
0.0
 11
28.60000002559593
 21
20.24999976233107
 31
0.0
  0
LINE
  5
1455F
330
14549
100
AcDbEntity
  8
細線
100
AcDbLine
 10
28.60000002559593
 20
20.9999997623311
 30
0.0
 11
28.60000002559593
 21
20.24999976233107
 31
0.0
  0
LINE
  5
14560
330
14549
100
AcDbEntity
  8
細線
100
AcDbLine
 10
46.60000002559593
 20
18.49999976233104
 30
0.0
 11
46.60000002559593
 21
11.49999976233101
 31
0.0
  0
ARC
  5
14561
330
14549
100
AcDbEntity
  8
細線
100
AcDbCircle
 10
42.60000002559593
 20
11.49999976233101
 30
0.0
 40
4.0
100
AcDbArc
 50
269.9999999999998
 51
0.0
  0
ARC
  5
14562
330
14549
100
AcDbEntity
  8
細線
100
AcDbCircle
 10
42.60000002559593
 20
18.49999976233104
 30
0.0
 40
4.0
100
AcDbArc
 50
0.0
 51
89.9999999999996
  0
ENDBLK
  5
14563
330
14549
100
AcDbEntity
  8
0
100
AcDbBlockEnd
  0
BLOCK
  5
14EE6
330
14EE5
100
AcDbEntity
  8
0
100
AcDbBlockBegin
  2
_OBLIQUE
 70
     0
 10
0.0
 20
0.0
 30
0.0
  3
_OBLIQUE
  1

  0
LINE
  5
14EE7
330
14EE5
100
AcDbEntity
  8
0
  6
ByBlock
 62
     0
100
AcDbLine
 10
-0.5
 20
-0.5
 30
0.0
 11
0.5
 21
0.5
 31
0.0
  0
ENDBLK
  5
14EE8
330
14EE5
100
AcDbEntity
  8
0
100
AcDbBlockEnd
  0
BLOCK
  5
17201
330
171F7
100
AcDbEntity
  8
0
 48
50.0
100
AcDbBlockBegin
  2
*D27
 70
     1
 10
0.0
 20
0.0
 30
0.0
  3
*D27
  1

  0
LINE
  5
1985F
330
171F7
100
AcDbEntity
  8
寸法
 62
     0
 48
50.0
370
    -2
100
AcDbLine
 10
3948.904397928898
 20
4683.112805903262
 30
0.0
 11
3948.904397928898
 21
5156.559691635249
 31
0.0
  0
LINE
  5
19860
330
171F7
100
AcDbEntity
  8
寸法
 62
     0
 48
50.0
370
    -2
100
AcDbLine
 10
7628.904397928903
 20
4683.112805903258
 30
0.0
 11
7628.904397928903
 21
5156.559691635249
 31
0.0
  0
LINE
  5
19861
330
171F7
100
AcDbEntity
  8
寸法
 62
     0
 48
50.0
370
    -2
100
AcDbLine
 10
3948.904397928898
 20
5096.559691635249
 30
0.0
 11
7628.904397928903
 21
5096.559691635249
 31
0.0
  0
INSERT
  5
19862
330
171F7
100
AcDbEntity
  8
寸法
 62
     0
 48
50.0
370
    -2
100
AcDbBlockReference
  2
_DOTSMALL
 10
3948.904397928898
 20
5096.559691635249
 30
0.0
 41
100.0
 42
100.0
 43
100.0
 50
180.0
  0
INSERT
  5
19863
330
171F7
100
AcDbEntity
  8
寸法
 62
     0
 48
50.0
370
    -2
100
AcDbBlockReference
  2
_DOTSMALL
 10
7628.904397928903
 20
5096.559691635249
 30
0.0
 41
100.0
 42
100.0
 43
100.0
  0
MTEXT
  5
19864
330
171F7
100
AcDbEntity
  8
寸法
 62
     7
 48
50.0
100
AcDbMText
 10
5788.9043979289
 20
5196.559691635249
 30
0.0
 40
120.0
 41
0.0
 71
     5
 72
     1
  1
\A1;3680
  7
STYLE1
 73
     1
 44
1.0
1001
ACAD
1000
MTEXTBEGIN
1070
    73
1070
     1
1070
    44
1040
1.0
1070
    74
1070
     0
1000
MTEXTEND
  0
POINT
  5
19865
330
171F7
100
AcDbEntity
  8
DEFPOINTS
 62
     0
 48
50.0
100
AcDbPoint
 10
3948.904397928898
 20
4663.112805903263
 30
0.0
  0
POINT
  5
19866
330
171F7
100
AcDbEntity
  8
DEFPOINTS
 62
     0
 48
50.0
100
AcDbPoint
 10
7628.904397928903
 20
4663.112805903258
 30
0.0
  0
POINT
  5
19867
330
171F7
100
AcDbEntity
  8
DEFPOINTS
 62
     0
 48
50.0
100
AcDbPoint
 10
7628.904397928903
 20
5096.559691635249
 30
0.0
  0
ENDBLK
  5
17202
330
171F7
100
AcDbEntity
  8
0
 48
50.0
100
AcDbBlockEnd
  0
BLOCK
  5
1720F
330
17203
100
AcDbEntity
  8
0
 48
50.0
100
AcDbBlockBegin
  2
*D28
 70
     1
 10
0.0
 20
0.0
 30
0.0
  3
*D28
  1

  0
LINE
  5
19849
330
17203
100
AcDbEntity
  8
寸法
 62
     0
 48
50.0
370
    -2
100
AcDbLine
 10
7628.904397928903
 20
4683.112805903258
 30
0.0
 11
7628.904397928903
 21
4935.654391161499
 31
0.0
  0
LINE
  5
1984A
330
17203
100
AcDbEntity
  8
寸法
 62
     0
 48
50.0
370
    -2
100
AcDbLine
 10
7578.904397928903
 20
4683.112805903259
 30
0.0
 11
7578.904397928903
 21
4935.654391161499
 31
0.0
  0
LINE
  5
1984B
330
17203
100
AcDbEntity
  8
寸法
 62
     0
 48
50.0
370
    -2
100
AcDbLine
 10
7578.904397928903
 20
4875.654391161499
 30
0.0
 11
7478.904397928904
 21
4875.654391161499
 31
0.0
  0
LINE
  5
1984C
330
17203
100
AcDbEntity
  8
寸法
 62
     0
 48
50.0
370
    -2
100
AcDbLine
 10
7628.904397928903
 20
4875.654391161499
 30
0.0
 11
8040.998886117879
 21
4875.654391161499
 31
0.0
  0
LINE
  5
1984D
330
17203
100
AcDbEntity
  8
寸法
 62
     0
 48
50.0
370
    -2
100
AcDbLine
 10
7578.904397928903
 20
4875.654391161499
 30
0.0
 11
7628.904397928903
 21
4875.654391161499
 31
0.0
  0
INSERT
  5
1984E
330
17203
100
AcDbEntity
  8
寸法
 62
     0
 48
50.0
370
    -2
100
AcDbBlockReference
  2
_DOTSMALL
 10
7578.904397928903
 20
4875.654391161499
 30
0.0
 41
100.0
 42
100.0
 43
100.0
  0
INSERT
  5
1984F
330
17203
100
AcDbEntity
  8
寸法
 62
     0
 48
50.0
370
    -2
100
AcDbBlockReference
  2
_DOTSMALL
 10
7628.904397928903
 20
4875.654391161499
 30
0.0
 41
100.0
 42
100.0
 43
100.0
 50
180.0
  0
MTEXT
  5
19850
330
17203
100
AcDbEntity
  8
寸法
 62
     7
 48
50.0
100
AcDbMText
 10
7934.951642023391
 20
4975.654391161499
 30
0.0
 40
120.0
 41
0.0
 71
     5
 72
     1
  1
\A1;50
  7
STYLE1
 73
     1
 44
1.0
1001
ACAD
1000
MTEXTBEGIN
1070
    73
1070
     1
1070
    44
1040
1.0
1070
    74
1070
     0
1000
MTEXTEND
  0
POINT
  5
19851
330
17203
100
AcDbEntity
  8
DEFPOINTS
 62
     0
 48
50.0
100
AcDbPoint
 10
7628.904397928903
 20
4663.112805903258
 30
0.0
  0
POINT
  5
19852
330
17203
100
AcDbEntity
  8
DEFPOINTS
 62
     0
 48
50.0
100
AcDbPoint
 10
7578.904397928903
 20
4663.112805903259
 30
0.0
  0
POINT
  5
19853
330
17203
100
AcDbEntity
  8
DEFPOINTS
 62
     0
 48
50.0
100
AcDbPoint
 10
7578.904397928903
 20
4875.654391161499
 30
0.0
  0
ENDBLK
  5
17210
330
17203
100
AcDbEntity
  8
0
 48
50.0
100
AcDbBlockEnd
  0
BLOCK
  5
1721B
330
17211
100
AcDbEntity
  8
0
 48
50.0
100
AcDbBlockBegin
  2
*D29
 70
     1
 10
0.0
 20
0.0
 30
0.0
  3
*D29
  1

  0
LINE
  5
19856
330
17211
100
AcDbEntity
  8
寸法
 62
     0
 48
50.0
370
    -2
100
AcDbLine
 10
7578.904397928903
 20
4683.112805903258
 30
0.0
 11
7578.904397928903
 21
4935.6543911615
 31
0.0
  0
LINE
  5
19857
330
17211
100
AcDbEntity
  8
寸法
 62
     0
 48
50.0
370
    -2
100
AcDbLine
 10
3998.904397928898
 20
4683.112805903264
 30
0.0
 11
3998.904397928898
 21
4935.6543911615
 31
0.0
  0
LINE
  5
19858
330
17211
100
AcDbEntity
  8
寸法
 62
     0
 48
50.0
370
    -2
100
AcDbLine
 10
7578.904397928903
 20
4875.6543911615
 30
0.0
 11
3998.904397928898
 21
4875.6543911615
 31
0.0
  0
INSERT
  5
19859
330
17211
100
AcDbEntity
  8
寸法
 62
     0
 48
50.0
370
    -2
100
AcDbBlockReference
  2
_DOTSMALL
 10
7578.904397928903
 20
4875.6543911615
 30
0.0
 41
100.0
 42
100.0
 43
100.0
  0
INSERT
  5
1985A
330
17211
100
AcDbEntity
  8
寸法
 62
     0
 48
50.0
370
    -2
100
AcDbBlockReference
  2
_DOTSMALL
 10
3998.904397928898
 20
4875.6543911615
 30
0.0
 41
100.0
 42
100.0
 43
100.0
 50
180.0
  0
MTEXT
  5
1985B
330
17211
100
AcDbEntity
  8
寸法
 62
     7
 48
50.0
100
AcDbMText
 10
5788.9043979289
 20
4975.6543911615
 30
0.0
 40
120.0
 41
0.0
 71
     5
 72
     1
  1
\A1;柱外寸法3580
  7
STYLE1
 73
     1
 44
1.0
1001
ACAD
1000
MTEXTBEGIN
1070
    73
1070
     1
1070
    44
1040
1.0
1070
    74
1070
     0
1000
MTEXTEND
  0
POINT
  5
1985C
330
17211
100
AcDbEntity
  8
DEFPOINTS
 62
     0
 48
50.0
100
AcDbPoint
 10
7578.904397928903
 20
4663.112805903258
 30
0.0
  0
POINT
  5
1985D
330
17211
100
AcDbEntity
  8
DEFPOINTS
 62
     0
 48
50.0
100
AcDbPoint
 10
3998.904397928898
 20
4663.112805903264
 30
0.0
  0
POINT
  5
1985E
330
17211
100
AcDbEntity
  8
DEFPOINTS
 62
     0
 48
50.0
100
AcDbPoint
 10
3998.904397928898
 20
4875.6543911615
 30
0.0
  0
ENDBLK
  5
1721C
330
17211
100
AcDbEntity
  8
0
 48
50.0
100
AcDbBlockEnd
  0
BLOCK
  5
17251
330
17245
100
AcDbEntity
  8
0
 48
50.0
100
AcDbBlockBegin
  2
*D30
 70
     1
 10
0.0
 20
0.0
 30
0.0
  3
*D30
  1

  0
LINE
  5
19835
330
17245
100
AcDbEntity
  8
寸法
 62
     0
 48
50.0
370
    -2
100
AcDbLine
 10
3998.904397928898
 20
4683.112805903264
 30
0.0
 11
3998.904397928898
 21
4935.654391161502
 31
0.0
  0
LINE
  5
19836
330
17245
100
AcDbEntity
  8
寸法
 62
     0
 48
50.0
370
    -2
100
AcDbLine
 10
3948.904397928898
 20
4683.112805903262
 30
0.0
 11
3948.904397928898
 21
4935.654391161502
 31
0.0
  0
LINE
  5
19837
330
17245
100
AcDbEntity
  8
寸法
 62
     0
 48
50.0
370
    -2
100
AcDbLine
 10
3998.904397928898
 20
4875.654391161502
 30
0.0
 11
4098.904397928897
 21
4875.654391161502
 31
0.0
  0
LINE
  5
19838
330
17245
100
AcDbEntity
  8
寸法
 62
     0
 48
50.0
370
    -2
100
AcDbLine
 10
3948.904397928898
 20
4875.654391161502
 30
0.0
 11
3536.809909739922
 21
4875.654391161502
 31
0.0
  0
LINE
  5
19839
330
17245
100
AcDbEntity
  8
寸法
 62
     0
 48
50.0
370
    -2
100
AcDbLine
 10
3998.904397928898
 20
4875.654391161502
 30
0.0
 11
3948.904397928898
 21
4875.654391161502
 31
0.0
  0
INSERT
  5
1983A
330
17245
100
AcDbEntity
  8
寸法
 62
     0
 48
50.0
370
    -2
100
AcDbBlockReference
  2
_DOTSMALL
 10
3998.904397928898
 20
4875.654391161502
 30
0.0
 41
100.0
 42
100.0
 43
100.0
 50
180.0
  0
INSERT
  5
1983B
330
17245
100
AcDbEntity
  8
寸法
 62
     0
 48
50.0
370
    -2
100
AcDbBlockReference
  2
_DOTSMALL
 10
3948.904397928898
 20
4875.654391161502
 30
0.0
 41
100.0
 42
100.0
 43
100.0
  0
MTEXT
  5
1983C
330
17245
100
AcDbEntity
  8
寸法
 62
     7
 48
50.0
100
AcDbMText
 10
3642.857153834409
 20
4975.654391161501
 30
0.0
 40
120.0
 41
0.0
 71
     5
 72
     1
  1
\A1;50
  7
STYLE1
 73
     1
 44
1.0
1001
ACAD
1000
MTEXTBEGIN
1070
    73
1070
     1
1070
    44
1040
1.0
1070
    74
1070
     0
1000
MTEXTEND
  0
POINT
  5
1983D
330
17245
100
AcDbEntity
  8
DEFPOINTS
 62
     0
 48
50.0
100
AcDbPoint
 10
3998.904397928898
 20
4663.112805903264
 30
0.0
  0
POINT
  5
1983E
330
17245
100
AcDbEntity
  8
DEFPOINTS
 62
     0
 48
50.0
100
AcDbPoint
 10
3948.904397928898
 20
4663.112805903263
 30
0.0
  0
POINT
  5
1983F
330
17245
100
AcDbEntity
  8
DEFPOINTS
 62
     0
 48
50.0
100
AcDbPoint
 10
3948.904397928898
 20
4875.654391161502
 30
0.0
  0
ENDBLK
  5
17252
330
17245
100
AcDbEntity
  8
0
 48
50.0
100
AcDbBlockEnd
  0
BLOCK
  5
1736A
330
17360
100
AcDbEntity
  8
0
 48
50.0
100
AcDbBlockBegin
  2
*D31
 70
     1
 10
0.0
 20
0.0
 30
0.0
  3
*D31
  1

  0
LINE
  5
19E4B
330
17360
100
AcDbEntity
  8
寸法
 62
     0
 48
50.0
370
    -2
100
AcDbLine
 10
12955.14422886715
 20
4629.92348551491
 30
0.0
 11
12955.14422886715
 21
5122.205975242728
 31
0.0
  0
LINE
  5
19E4C
330
17360
100
AcDbEntity
  8
寸法
 62
     0
 48
50.0
370
    -2
100
AcDbLine
 10
11165.14422886715
 20
4679.114424026233
 30
0.0
 11
11165.14422886715
 21
5122.205975242728
 31
0.0
  0
LINE
  5
19E4D
330
17360
100
AcDbEntity
  8
寸法
 62
     0
 48
50.0
370
    -2
100
AcDbLine
 10
12955.14422886715
 20
5062.205975242728
 30
0.0
 11
11165.14422886715
 21
5062.205975242728
 31
0.0
  0
INSERT
  5
19E4E
330
17360
100
AcDbEntity
  8
寸法
 62
     0
 48
50.0
370
    -2
100
AcDbBlockReference
  2
_DOTSMALL
 10
12955.14422886715
 20
5062.205975242728
 30
0.0
 41
100.0
 42
100.0
 43
100.0
  0
INSERT
  5
19E4F
330
17360
100
AcDbEntity
  8
寸法
 62
     0
 48
50.0
370
    -2
100
AcDbBlockReference
  2
_DOTSMALL
 10
11165.14422886715
 20
5062.205975242728
 30
0.0
 41
100.0
 42
100.0
 43
100.0
 50
180.0
  0
MTEXT
  5
19E50
330
17360
100
AcDbEntity
  8
寸法
 62
     7
 48
50.0
100
AcDbMText
 10
12074.73987754363
 20
5162.205975242728
 30
0.0
 40
120.0
 41
0.0
 71
     5
 72
     1
  1
\A1;柱外寸法1790
  7
STYLE1
 73
     1
 44
1.0
1001
ACAD
1000
MTEXTBEGIN
1070
    73
1070
     1
1070
    44
1040
1.0
1070
    74
1070
     0
1000
MTEXTEND
  0
POINT
  5
19E51
330
17360
100
AcDbEntity
  8
DEFPOINTS
 62
     0
 48
50.0
100
AcDbPoint
 10
12955.14422886715
 20
4609.923485514911
 30
0.0
  0
POINT
  5
19E52
330
17360
100
AcDbEntity
  8
DEFPOINTS
 62
     0
 48
50.0
100
AcDbPoint
 10
11165.14422886715
 20
4659.114424026233
 30
0.0
  0
POINT
  5
19E53
330
17360
100
AcDbEntity
  8
DEFPOINTS
 62
     0
 48
50.0
100
AcDbPoint
 10
11165.14422886715
 20
5062.205975242728
 30
0.0
  0
ENDBLK
  5
1736B
330
17360
100
AcDbEntity
  8
0
 48
50.0
100
AcDbBlockEnd
  0
BLOCK
  5
17378
330
1736C
100
AcDbEntity
  8
0
 48
50.0
100
AcDbBlockBegin
  2
*D32
 70
     1
 10
0.0
 20
0.0
 30
0.0
  3
*D32
  1

  0
LINE
  5
19E40
330
1736C
100
AcDbEntity
  8
寸法
 62
     0
 48
50.0
370
    -2
100
AcDbLine
 10
11165.14422886715
 20
4679.114424026233
 30
0.0
 11
11165.14422886715
 21
5121.77025948256
 31
0.0
  0
LINE
  5
19E41
330
1736C
100
AcDbEntity
  8
寸法
 62
     0
 48
50.0
370
    -2
100
AcDbLine
 10
11105.14422886715
 20
4683.11280590326
 30
0.0
 11
11105.14422886715
 21
5121.77025948256
 31
0.0
  0
LINE
  5
19E42
330
1736C
100
AcDbEntity
  8
寸法
 62
     0
 48
50.0
370
    -2
100
AcDbLine
 10
11165.14422886715
 20
5061.77025948256
 30
0.0
 11
11265.14422886715
 21
5061.77025948256
 31
0.0
  0
LINE
  5
19E43
330
1736C
100
AcDbEntity
  8
寸法
 62
     0
 48
50.0
370
    -2
100
AcDbLine
 10
11105.14422886715
 20
5061.77025948256
 30
0.0
 11
10685.86863831596
 21
5061.77025948256
 31
0.0
  0
LINE
  5
19E44
330
1736C
100
AcDbEntity
  8
寸法
 62
     0
 48
50.0
370
    -2
100
AcDbLine
 10
11165.14422886715
 20
5061.77025948256
 30
0.0
 11
11105.14422886715
 21
5061.77025948256
 31
0.0
  0
INSERT
  5
19E45
330
1736C
100
AcDbEntity
  8
寸法
 62
     0
 48
50.0
370
    -2
100
AcDbBlockReference
  2
_DOTSMALL
 10
11165.14422886715
 20
5061.77025948256
 30
0.0
 41
100.0
 42
100.0
 43
100.0
 50
180.0
  0
INSERT
  5
19E46
330
1736C
100
AcDbEntity
  8
寸法
 62
     0
 48
50.0
370
    -2
100
AcDbBlockReference
  2
_DOTSMALL
 10
11105.14422886715
 20
5061.77025948256
 30
0.0
 41
100.0
 42
100.0
 43
100.0
  0
MTEXT
  5
19E47
330
1736C
100
AcDbEntity
  8
寸法
 62
     7
 48
50.0
100
AcDbMText
 10
10795.50643359155
 20
5161.770259482561
 30
0.0
 40
120.0
 41
0.0
 71
     5
 72
     1
  1
\A1;60
  7
STYLE1
 73
     1
 44
1.0
1001
ACAD
1000
MTEXTBEGIN
1070
    73
1070
     1
1070
    44
1040
1.0
1070
    74
1070
     0
1000
MTEXTEND
  0
POINT
  5
19E48
330
1736C
100
AcDbEntity
  8
DEFPOINTS
 62
     0
 48
50.0
100
AcDbPoint
 10
11165.14422886715
 20
4659.114424026233
 30
0.0
  0
POINT
  5
19E49
330
1736C
100
AcDbEntity
  8
DEFPOINTS
 62
     0
 48
50.0
100
AcDbPoint
 10
11105.14422886715
 20
4663.112805903261
 30
0.0
  0
POINT
  5
19E4A
330
1736C
100
AcDbEntity
  8
DEFPOINTS
 62
     0
 48
50.0
100
AcDbPoint
 10
11105.14422886715
 20
5061.77025948256
 30
0.0
  0
ENDBLK
  5
17379
330
1736C
100
AcDbEntity
  8
0
 48
50.0
100
AcDbBlockEnd
  0
BLOCK
  5
17384
330
1737A
100
AcDbEntity
  8
0
 48
50.0
100
AcDbBlockBegin
  2
*D33
 70
     1
 10
0.0
 20
0.0
 30
0.0
  3
*D33
  1

  0
LINE
  5
19E54
330
1737A
100
AcDbEntity
  8
寸法
 62
     0
 48
50.0
370
    -2
100
AcDbLine
 10
13035.14422886715
 20
4628.112805903257
 30
0.0
 11
13035.14422886715
 21
5338.732074861173
 31
0.0
  0
LINE
  5
19E55
330
1737A
100
AcDbEntity
  8
寸法
 62
     0
 48
50.0
370
    -2
100
AcDbLine
 10
11105.14422886715
 20
4683.11280590326
 30
0.0
 11
11105.14422886715
 21
5338.732074861173
 31
0.0
  0
LINE
  5
19E56
330
1737A
100
AcDbEntity
  8
寸法
 62
     0
 48
50.0
370
    -2
100
AcDbLine
 10
13035.14422886715
 20
5278.732074861174
 30
0.0
 11
11105.14422886715
 21
5278.732074861174
 31
0.0
  0
INSERT
  5
19E57
330
1737A
100
AcDbEntity
  8
寸法
 62
     0
 48
50.0
370
    -2
100
AcDbBlockReference
  2
_DOTSMALL
 10
13035.14422886715
 20
5278.732074861174
 30
0.0
 41
100.0
 42
100.0
 43
100.0
  0
INSERT
  5
19E58
330
1737A
100
AcDbEntity
  8
寸法
 62
     0
 48
50.0
370
    -2
100
AcDbBlockReference
  2
_DOTSMALL
 10
11105.14422886715
 20
5278.732074861174
 30
0.0
 41
100.0
 42
100.0
 43
100.0
 50
180.0
  0
MTEXT
  5
19E59
330
1737A
100
AcDbEntity
  8
寸法
 62
     7
 48
50.0
100
AcDbMText
 10
12010.94998011811
 20
5378.732074861174
 30
0.0
 40
120.0
 41
0.0
 71
     5
 72
     1
  1
\A1;1930
  7
STYLE1
 73
     1
 44
1.0
1001
ACAD
1000
MTEXTBEGIN
1070
    73
1070
     1
1070
    44
1040
1.0
1070
    74
1070
     0
1000
MTEXTEND
  0
POINT
  5
19E5A
330
1737A
100
AcDbEntity
  8
DEFPOINTS
 62
     0
 48
50.0
100
AcDbPoint
 10
13035.14422886715
 20
4608.112805903257
 30
0.0
  0
POINT
  5
19E5B
330
1737A
100
AcDbEntity
  8
DEFPOINTS
 62
     0
 48
50.0
100
AcDbPoint
 10
11105.14422886715
 20
4663.112805903261
 30
0.0
  0
POINT
  5
19E5C
330
1737A
100
AcDbEntity
  8
DEFPOINTS
 62
     0
 48
50.0
100
AcDbPoint
 10
11105.14422886715
 20
5278.732074861174
 30
0.0
  0
ENDBLK
  5
17385
330
1737A
100
AcDbEntity
  8
0
 48
50.0
100
AcDbBlockEnd
  0
BLOCK
  5
17391
330
17386
100
AcDbEntity
  8
0
 48
50.0
100
AcDbBlockBegin
  2
*D34
 70
     1
 10
0.0
 20
0.0
 30
0.0
  3
*D34
  1

  0
LINE
  5
19E5D
330
17386
100
AcDbEntity
  8
寸法
 62
     0
 48
50.0
370
    -2
100
AcDbLine
 10
12955.14422886715
 20
4629.92348551491
 30
0.0
 11
12955.14422886715
 21
5121.77025948256
 31
0.0
  0
LINE
  5
19E5E
330
17386
100
AcDbEntity
  8
寸法
 62
     0
 48
50.0
370
    -2
100
AcDbLine
 10
13035.14422886715
 20
4628.112805903257
 30
0.0
 11
13035.14422886715
 21
5121.77025948256
 31
0.0
  0
LINE
  5
19E5F
330
17386
100
AcDbEntity
  8
寸法
 62
     0
 48
50.0
370
    -2
100
AcDbLine
 10
12955.14422886715
 20
5061.77025948256
 30
0.0
 11
13035.14422886715
 21
5061.77025948256
 31
0.0
  0
LINE
  5
19E60
330
17386
100
AcDbEntity
  8
寸法
 62
     0
 48
50.0
370
    -2
100
AcDbLine
 10
13035.14422886715
 20
5061.77025948256
 30
0.0
 11
13347.23871705613
 21
5061.77025948256
 31
0.0
  0
INSERT
  5
19E61
330
17386
100
AcDbEntity
  8
寸法
 62
     0
 48
50.0
370
    -2
100
AcDbBlockReference
  2
_DOTSMALL
 10
12955.14422886715
 20
5061.77025948256
 30
0.0
 41
100.0
 42
100.0
 43
100.0
 50
180.0
  0
INSERT
  5
19E62
330
17386
100
AcDbEntity
  8
寸法
 62
     0
 48
50.0
370
    -2
100
AcDbBlockReference
  2
_DOTSMALL
 10
13035.14422886715
 20
5061.77025948256
 30
0.0
 41
100.0
 42
100.0
 43
100.0
  0
MTEXT
  5
19E63
330
17386
100
AcDbEntity
  8
寸法
 62
     7
 48
50.0
100
AcDbMText
 10
13241.19147296164
 20
5161.770259482561
 30
0.0
 40
120.0
 41
0.0
 71
     5
 72
     1
  1
\A1;80
  7
STYLE1
 73
     1
 44
1.0
1001
ACAD
1000
MTEXTBEGIN
1070
    73
1070
     1
1070
    44
1040
1.0
1070
    74
1070
     0
1000
MTEXTEND
  0
POINT
  5
19E64
330
17386
100
AcDbEntity
  8
DEFPOINTS
 62
     0
 48
50.0
100
AcDbPoint
 10
12955.14422886715
 20
4609.923485514911
 30
0.0
  0
POINT
  5
19E65
330
17386
100
AcDbEntity
  8
DEFPOINTS
 62
     0
 48
50.0
100
AcDbPoint
 10
13035.14422886715
 20
4608.112805903257
 30
0.0
  0
POINT
  5
19E66
330
17386
100
AcDbEntity
  8
DEFPOINTS
 62
     0
 48
50.0
100
AcDbPoint
 10
13035.14422886715
 20
5061.77025948256
 30
0.0
  0
ENDBLK
  5
17392
330
17386
100
AcDbEntity
  8
0
 48
50.0
100
AcDbBlockEnd
  0
BLOCK
  5
1739E
330
17393
100
AcDbEntity
  8
0
 48
50.0
100
AcDbBlockBegin
  2
*D35
 70
     1
 10
0.0
 20
0.0
 30
0.0
  3
*D35
  1

  0
LINE
  5
19E36
330
17393
100
AcDbEntity
  8
寸法
 62
     0
 48
50.0
370
    -2
100
AcDbLine
 10
11104.54851515824
 20
4662.410512972917
 30
0.0
 11
10488.61407605299
 21
4680.124663247222
 31
0.0
  0
LINE
  5
19E37
330
17393
100
AcDbEntity
  8
寸法
 62
     0
 48
50.0
370
    -2
100
AcDbLine
 10
11100.49505960162
 20
4521.468789207204
 30
0.0
 11
10484.56062049637
 21
4539.182939481508
 31
0.0
  0
LINE
  5
19E38
330
17393
100
AcDbEntity
  8
寸法
 62
     0
 48
50.0
370
    -2
100
AcDbLine
 10
10544.5358220988
 20
4537.458064776563
 30
0.0
 11
10548.58927765542
 21
4678.399788542278
 31
0.0
  0
LINE
  5
19E39
330
17393
100
AcDbEntity
  8
寸法
 62
     0
 48
50.0
370
    -2
100
AcDbLine
 10
10548.58927765542
 20
4678.399788542278
 30
0.0
 11
10558.93852588509
 21
5038.250998156876
 31
0.0
  0
INSERT
  5
19E3A
330
17393
100
AcDbEntity
  8
寸法
 62
     0
 48
50.0
370
    -2
100
AcDbBlockReference
  2
_DOTSMALL
 10
10544.5358220988
 20
4537.458064776563
 30
0.0
 41
100.0
 42
100.0
 43
100.0
 50
268.35263902564
  0
INSERT
  5
19E3B
330
17393
100
AcDbEntity
  8
寸法
 62
     0
 48
50.0
370
    -2
100
AcDbBlockReference
  2
_DOTSMALL
 10
10548.58927765542
 20
4678.399788542278
 30
0.0
 41
100.0
 42
100.0
 43
100.0
 50
88.35263902563999
  0
MTEXT
  5
19E3C
330
17393
100
AcDbEntity
  8
寸法
 62
     7
 48
50.0
100
AcDbMText
 10
10455.24262802032
 20
4911.179519193188
 30
0.0
 40
120.0
 41
0.0
 71
     5
 72
     1
  1
\A1;141
  7
STYLE1
 11
0.0287479117490846
 21
0.9995866933738499
 31
0.0
 73
     1
 44
1.0
1001
ACAD
1000
MTEXTBEGIN
1070
    73
1070
     1
1070
    44
1040
1.0
1070
    74
1070
     0
1000
MTEXTEND
  0
POINT
  5
19E3D
330
17393
100
AcDbEntity
  8
DEFPOINTS
 62
     0
 48
50.0
100
AcDbPoint
 10
11124.54024902572
 20
4661.835554737936
 30
0.0
  0
POINT
  5
19E3E
330
17393
100
AcDbEntity
  8
DEFPOINTS
 62
     0
 48
50.0
100
AcDbPoint
 10
11120.4867934691
 20
4520.893830972221
 30
0.0
  0
POINT
  5
19E3F
330
17393
100
AcDbEntity
  8
DEFPOINTS
 62
     0
 48
50.0
100
AcDbPoint
 10
10544.5358220988
 20
4537.458064776563
 30
0.0
  0
ENDBLK
  5
1739F
330
17393
100
AcDbEntity
  8
0
 48
50.0
100
AcDbBlockEnd
  0
BLOCK
  5
173DC
330
173D2
100
AcDbEntity
  8
0
 48
50.0
100
AcDbBlockBegin
  2
*D36
 70
     1
 10
0.0
 20
0.0
 30
0.0
  3
*D36
  1

  0
LINE
  5
19E2D
330
173D2
100
AcDbEntity
  8
寸法
 62
     0
 48
50.0
370
    -2
100
AcDbLine
 10
11068.14422886714
 20
2288.112805903256
 30
0.0
 11
9961.394099683889
 21
2288.112805903256
 31
0.0
  0
LINE
  5
19E2E
330
173D2
100
AcDbEntity
  8
寸法
 62
     0
 48
50.0
370
    -2
100
AcDbLine
 10
11085.14422886715
 20
4663.112805903262
 30
0.0
 11
9961.394099683891
 21
4663.112805903263
 31
0.0
  0
LINE
  5
19E2F
330
173D2
100
AcDbEntity
  8
寸法
 62
     0
 48
50.0
370
    -2
100
AcDbLine
 10
10021.39409968389
 20
2288.112805903256
 30
0.0
 11
10021.39409968389
 21
4663.112805903263
 31
0.0
  0
INSERT
  5
19E30
330
173D2
100
AcDbEntity
  8
寸法
 62
     0
 48
50.0
370
    -2
100
AcDbBlockReference
  2
_DOTSMALL
 10
10021.39409968389
 20
2288.112805903256
 30
0.0
 41
100.0
 42
100.0
 43
100.0
 50
270.0
  0
INSERT
  5
19E31
330
173D2
100
AcDbEntity
  8
寸法
 62
     0
 48
50.0
370
    -2
100
AcDbBlockReference
  2
_DOTSMALL
 10
10021.39409968389
 20
4663.112805903263
 30
0.0
 41
100.0
 42
100.0
 43
100.0
 50
90.0
  0
MTEXT
  5
19E32
330
173D2
100
AcDbEntity
  8
寸法
 62
     7
 48
50.0
100
AcDbMText
 10
9921.382288660268
 20
3475.612805903261
 30
0.0
 40
120.0
 41
0.0
 71
     5
 72
     1
  1
\A1;2375
  7
STYLE1
 11
0.0000000000000001
 21
1.0
 31
0.0
 73
     1
 44
1.0
1001
ACAD
1000
MTEXTBEGIN
1070
    73
1070
     1
1070
    44
1040
1.0
1070
    74
1070
     0
1000
MTEXTEND
  0
POINT
  5
19E33
330
173D2
100
AcDbEntity
  8
DEFPOINTS
 62
     0
 48
50.0
100
AcDbPoint
 10
11088.14422886714
 20
2288.112805903256
 30
0.0
  0
POINT
  5
19E34
330
173D2
100
AcDbEntity
  8
DEFPOINTS
 62
     0
 48
50.0
100
AcDbPoint
 10
11105.14422886715
 20
4663.112805903262
 30
0.0
  0
POINT
  5
19E35
330
173D2
100
AcDbEntity
  8
DEFPOINTS
 62
     0
 48
50.0
100
AcDbPoint
 10
10021.39409968389
 20
4663.112805903263
 30
0.0
  0
ENDBLK
  5
173DD
330
173D2
100
AcDbEntity
  8
0
 48
50.0
100
AcDbBlockEnd
  0
BLOCK
  5
197C1
330
197C0
100
AcDbEntity
  8
0
 48
50.0
100
AcDbBlockBegin
  2
_NONE
 70
     0
 10
0.0
 20
0.0
 30
0.0
  3
_NONE
  1

  0
CIRCLE
  5
197C2
330
197C0
100
AcDbEntity
  8
0
  6
ByBlock
 62
     0
 48
50.0
100
AcDbCircle
 10
0.0
 20
0.0
 30
0.0
 40
0.25
  0
ENDBLK
  5
197C3
330
197C0
100
AcDbEntity
  8
0
 48
50.0
100
AcDbBlockEnd
  0
BLOCK
  5
1A6D9
330
1A6CD
100
AcDbEntity
  8
0
 48
50.0
100
AcDbBlockBegin
  2
*D51
 70
     1
 10
0.0
 20
0.0
 30
0.0
  3
*D51
  1

  0
LINE
  5
1A746
330
1A6CD
100
AcDbEntity
  8
寸法
 62
     0
 48
50.0
370
    -2
100
AcDbLine
 10
3978.904397928904
 20
7516.50760303185
 30
0.0
 11
3621.074766502565
 21
7516.50760303185
 31
0.0
  0
LINE
  5
1A747
330
1A6CD
100
AcDbEntity
  8
寸法
 62
     0
 48
50.0
370
    -2
100
AcDbLine
 10
4029.4043979289
 20
7471.507603031863
 30
0.0
 11
3621.074766502565
 21
7471.507603031863
 31
0.0
  0
LINE
  5
1A748
330
1A6CD
100
AcDbEntity
  8
寸法
 62
     0
 48
50.0
370
    -2
100
AcDbLine
 10
3681.074766502565
 20
7516.50760303185
 30
0.0
 11
3681.074766502565
 21
7616.50760303185
 31
0.0
  0
LINE
  5
1A749
330
1A6CD
100
AcDbEntity
  8
寸法
 62
     0
 48
50.0
370
    -2
100
AcDbLine
 10
3681.074766502565
 20
7471.507603031863
 30
0.0
 11
3681.074766502564
 21
7042.537040283384
 31
0.0
  0
LINE
  5
1A74A
330
1A6CD
100
AcDbEntity
  8
寸法
 62
     0
 48
50.0
370
    -2
100
AcDbLine
 10
3681.074766502565
 20
7516.50760303185
 30
0.0
 11
3681.074766502565
 21
7471.507603031863
 31
0.0
  0
INSERT
  5
1A74B
330
1A6CD
100
AcDbEntity
  8
寸法
 62
     0
 48
50.0
370
    -2
100
AcDbBlockReference
  2
_DOTSMALL
 10
3681.074766502565
 20
7516.50760303185
 30
0.0
 41
100.0
 42
100.0
 43
100.0
 50
270.0
  0
INSERT
  5
1A74C
330
1A6CD
100
AcDbEntity
  8
寸法
 62
     0
 48
50.0
370
    -2
100
AcDbBlockReference
  2
_DOTSMALL
 10
3681.074766502565
 20
7471.507603031863
 30
0.0
 41
100.0
 42
100.0
 43
100.0
 50
90.0
  0
MTEXT
  5
1A74D
330
1A6CD
100
AcDbEntity
  8
寸法
 62
     7
 48
50.0
100
AcDbMText
 10
3581.074766502563
 20
7157.022321657625
 30
0.0
 40
120.0
 41
0.0
 71
     5
 72
     1
  1
\A1;45
  7
STYLE1
 11
0.0000000000000001
 21
1.0
 31
0.0
 73
     1
 44
1.0
1001
ACAD
1000
MTEXTBEGIN
1070
    73
1070
     1
1070
    44
1040
1.0
1070
    74
1070
     0
1000
MTEXTEND
  0
POINT
  5
1A74E
330
1A6CD
100
AcDbEntity
  8
DEFPOINTS
 62
     0
 48
50.0
100
AcDbPoint
 10
3998.904397928903
 20
7516.50760303185
 30
0.0
  0
POINT
  5
1A74F
330
1A6CD
100
AcDbEntity
  8
DEFPOINTS
 62
     0
 48
50.0
100
AcDbPoint
 10
4049.4043979289
 20
7471.507603031863
 30
0.0
  0
POINT
  5
1A750
330
1A6CD
100
AcDbEntity
  8
DEFPOINTS
 62
     0
 48
50.0
100
AcDbPoint
 10
3681.074766502565
 20
7471.507603031863
 30
0.0
  0
ENDBLK
  5
1A6DA
330
1A6CD
100
AcDbEntity
  8
0
 48
50.0
100
AcDbBlockEnd
  0
BLOCK
  5
1A6F1
330
1A6E7
100
AcDbEntity
  8
0
 48
50.0
100
AcDbBlockBegin
  2
*D53
 70
     1
 10
0.0
 20
0.0
 30
0.0
  3
*D53
  1

  0
LINE
  5
1A73D
330
1A6E7
100
AcDbEntity
  8
寸法
 62
     0
 48
50.0
370
    -2
100
AcDbLine
 10
4898.404397928899
 20
7451.407603031866
 30
0.0
 11
4898.404397928899
 21
6946.486710272546
 31
0.0
  0
LINE
  5
1A73E
330
1A6E7
100
AcDbEntity
  8
寸法
 62
     0
 48
50.0
370
    -2
100
AcDbLine
 10
4049.4043979289
 20
7451.407603031866
 30
0.0
 11
4049.4043979289
 21
6946.486710272546
 31
0.0
  0
LINE
  5
1A73F
330
1A6E7
100
AcDbEntity
  8
寸法
 62
     0
 48
50.0
370
    -2
100
AcDbLine
 10
4898.404397928899
 20
7006.486710272546
 30
0.0
 11
4049.4043979289
 21
7006.486710272546
 31
0.0
  0
INSERT
  5
1A740
330
1A6E7
100
AcDbEntity
  8
寸法
 62
     0
 48
50.0
370
    -2
100
AcDbBlockReference
  2
_DOTSMALL
 10
4898.404397928899
 20
7006.486710272546
 30
0.0
 41
100.0
 42
100.0
 43
100.0
  0
INSERT
  5
1A741
330
1A6E7
100
AcDbEntity
  8
寸法
 62
     0
 48
50.0
370
    -2
100
AcDbBlockReference
  2
_DOTSMALL
 10
4049.4043979289
 20
7006.486710272546
 30
0.0
 41
100.0
 42
100.0
 43
100.0
 50
180.0
  0
MTEXT
  5
1A742
330
1A6E7
100
AcDbEntity
  8
寸法
 62
     7
 48
50.0
100
AcDbMText
 10
4473.9043979289
 20
7106.486710272545
 30
0.0
 40
120.0
 41
0.0
 71
     5
 72
     1
  1
\A1;849
  7
STYLE1
 73
     1
 44
1.0
1001
ACAD
1000
MTEXTBEGIN
1070
    73
1070
     1
1070
    44
1040
1.0
1070
    74
1070
     0
1000
MTEXTEND
  0
POINT
  5
1A743
330
1A6E7
100
AcDbEntity
  8
DEFPOINTS
 62
     0
 48
50.0
100
AcDbPoint
 10
4898.404397928899
 20
7471.407603031867
 30
0.0
  0
POINT
  5
1A744
330
1A6E7
100
AcDbEntity
  8
DEFPOINTS
 62
     0
 48
50.0
100
AcDbPoint
 10
4049.4043979289
 20
7471.407603031867
 30
0.0
  0
POINT
  5
1A745
330
1A6E7
100
AcDbEntity
  8
DEFPOINTS
 62
     0
 48
50.0
100
AcDbPoint
 10
4049.4043979289
 20
7006.486710272546
 30
0.0
  0
ENDBLK
  5
1A6F2
330
1A6E7
100
AcDbEntity
  8
0
 48
50.0
100
AcDbBlockEnd
  0
BLOCK
  5
1A9D8
330
1A9CE
100
AcDbEntity
  8
0
 48
50.0
100
AcDbBlockBegin
  2
*D67
 70
     1
 10
0.0
 20
0.0
 30
0.0
  3
*D67
  1

  0
LINE
  5
1AA12
330
1A9CE
100
AcDbEntity
  8
寸法
 62
     0
 48
50.0
370
    -2
100
AcDbLine
 10
11100.14422886715
 20
4390.112805903255
 30
0.0
 11
10752.2431340206
 21
4390.112805903255
 31
0.0
  0
LINE
  5
1AA13
330
1A9CE
100
AcDbEntity
  8
寸法
 62
     0
 48
50.0
370
    -2
100
AcDbLine
 10
11100.14422886715
 20
2350.112805903255
 30
0.0
 11
10752.2431340206
 21
2350.112805903255
 31
0.0
  0
LINE
  5
1AA14
330
1A9CE
100
AcDbEntity
  8
寸法
 62
     0
 48
50.0
370
    -2
100
AcDbLine
 10
10812.2431340206
 20
4390.112805903255
 30
0.0
 11
10812.2431340206
 21
2350.112805903255
 31
0.0
  0
INSERT
  5
1AA15
330
1A9CE
100
AcDbEntity
  8
寸法
 62
     0
 48
50.0
370
    -2
100
AcDbBlockReference
  2
_DOTSMALL
 10
10812.2431340206
 20
4390.112805903255
 30
0.0
 41
100.0
 42
100.0
 43
100.0
 50
90.0
  0
INSERT
  5
1AA16
330
1A9CE
100
AcDbEntity
  8
寸法
 62
     0
 48
50.0
370
    -2
100
AcDbBlockReference
  2
_DOTSMALL
 10
10812.2431340206
 20
2350.112805903255
 30
0.0
 41
100.0
 42
100.0
 43
100.0
 50
270.0
  0
MTEXT
  5
1AA17
330
1A9CE
100
AcDbEntity
  8
寸法
 62
     7
 48
50.0
100
AcDbMText
 10
10712.23132299698
 20
3370.112805903258
 30
0.0
 40
120.0
 41
0.0
 71
     5
 72
     1
  1
\A1;有効開口部高サ2040
  7
STYLE1
 11
0.0000000000000001
 21
1.0
 31
0.0
 73
     1
 44
1.0
1001
ACAD
1000
MTEXTBEGIN
1070
    73
1070
     1
1070
    44
1040
1.0
1070
    74
1070
     0
1000
MTEXTEND
  0
POINT
  5
1AA18
330
1A9CE
100
AcDbEntity
  8
DEFPOINTS
 62
     0
 48
50.0
100
AcDbPoint
 10
11120.14422886715
 20
4390.112805903255
 30
0.0
  0
POINT
  5
1AA19
330
1A9CE
100
AcDbEntity
  8
DEFPOINTS
 62
     0
 48
50.0
100
AcDbPoint
 10
11120.14422886715
 20
2350.112805903255
 30
0.0
  0
POINT
  5
1AA1A
330
1A9CE
100
AcDbEntity
  8
DEFPOINTS
 62
     0
 48
50.0
100
AcDbPoint
 10
10812.2431340206
 20
2350.112805903255
 30
0.0
  0
ENDBLK
  5
1A9D9
330
1A9CE
100
AcDbEntity
  8
0
 48
50.0
100
AcDbBlockEnd
  0
ENDSEC
  0
SECTION
  2
ENTITIES
  0
MTEXT
  5
763F
330
747D
100
AcDbEntity
  8
0
100
AcDbMText
 10
302.846345836809
 20
280.1983726409901
 30
0.0
 40
3.5
 41
5.323721266742722
 71
     1
 72
     5
  1

  7
MSMINCHO
 73
     1
 44
1.0
1001
ACAD
1000
MTEXTBEGIN
1070
    73
1070
     1
1070
    44
1040
1.0
1070
    74
1070
     0
1000
MTEXTEND
  0
LINE
  5
10B56
330
747D
100
AcDbEntity
  8
補助
  6
PHANTOM
 62
   230
 48
50.0
100
AcDbLine
 10
140.0
 20
0.0
 30
0.0
 11
139.9999999999995
 21
11409.6
 31
0.0
  0
LINE
  5
10B57
330
747D
100
AcDbEntity
  8
補助
  6
PHANTOM
 62
   230
 48
50.0
100
AcDbLine
 10
139.9999999999995
 20
11409.6
 30
0.0
 11
16307.2
 21
11409.6
 31
0.0
  0
LINE
  5
10B59
330
747D
100
AcDbEntity
  8
仕様書枠
  6
Continuous
 48
50.0
100
AcDbLine
 10
13107.2
 20
1200.0
 30
0.0
 11
13107.2
 21
-0.0000000000000729
 31
0.0
  0
LINE
  5
10B5C
330
747D
100
AcDbEntity
  8
仕様書枠
 48
50.0
100
AcDbLine
 10
16307.2
 20
1200.0
 30
0.0
 11
16307.2
 21
-0.0000000000000909
 31
0.0
  0
LINE
  5
10B5D
330
747D
100
AcDbEntity
  8
仕様書枠
 48
50.0
100
AcDbLine
 10
140.0
 20
0.0
 30
0.0
 11
16307.2
 21
-0.0000000000000909
 31
0.0
  0
LINE
  5
10B5E
330
747D
100
AcDbEntity
  8
補助
  6
PHANTOM
 62
   230
 48
50.0
100
AcDbLine
 10
16307.2
 20
11409.6
 30
0.0
 11
16307.2
 21
1200.0
 31
0.0
  0
LINE
  5
10B6C
330
747D
100
AcDbEntity
  8
仕様書枠
 48
50.0
100
AcDbLine
 10
13107.2
 20
1200.0
 30
0.0
 11
16307.2
 21
1200.0
 31
0.0
  0
LINE
  5
10B6D
330
747D
100
AcDbEntity
  8
補助
  6
PHANTOM
 62
   230
 48
50.0
100
AcDbLine
 10
13107.2
 20
11409.6
 30
0.0
 11
13107.2
 21
4800.0
 31
0.0
  0
LINE
  5
10B6F
330
747D
100
AcDbEntity
  8
補助
  6
PHANTOM
 62
   230
 48
50.0
100
AcDbLine
 10
13107.2
 20
4800.0
 30
0.0
 11
16307.2
 21
4800.0
 31
0.0
  0
LINE
  5
10B72
330
747D
100
AcDbEntity
  8
文字
 62
     7
 48
50.0
100
AcDbLine
 10
13187.2
 20
400.0
 30
0.0
 11
16227.2
 21
400.0
 31
0.0
  0
TEXT
  5
10B73
330
747D
100
AcDbEntity
  8
文字
 62
     7
 48
50.0
100
AcDbText
 10
13162.9790565769
 20
895.0906074299405
 30
0.0
 40
200.0
  1
外 形 図
  7
STYLE2
100
AcDbText
  0
TEXT
  5
10B74
330
747D
100
AcDbEntity
  8
文字
 62
     7
 48
50.0
100
AcDbText
 10
13201.43669998441
 20
477.2740661031255
 30
0.0
 40
160.0
  1
機種名
  7
STYLE2
100
AcDbText
  0
TEXT
  5
10B75
330
747D
100
AcDbEntity
  8
文字
 62
     7
 48
50.0
100
AcDbText
 10
13209.4053442172
 20
228.5435242569016
 30
0.0
 40
100.0
  1
○有効開口寸法 ： 753×2040(mm)
  7
STYLE2
100
AcDbText
  0
TEXT
  5
10B76
330
747D
100
AcDbEntity
  8
文字
 62
     7
 48
50.0
100
AcDbText
 10
13209.4053442172
 20
76.09434707649343
 30
0.0
 40
100.0
  1
○床面積 ： 6.45㎡(1.95坪) 　
  7
STYLE2
100
AcDbText
  0
TEXT
  5
10B79
330
747D
100
AcDbEntity
  8
文字
 62
     7
 48
50.0
100
AcDbText
 10
14524.131837222
 20
1031.557706291228
 30
0.0
 40
100.0
  1
NO.53     <縮尺> S=1/40
  7
STYLE2
100
AcDbText
  0
LINE
  5
10B7B
330
747D
100
AcDbEntity
  8
仕様書枠
 48
50.0
100
AcDbLine
 10
13107.2
 20
800.0
 30
0.0
 11
14251.2
 21
800.0
 31
0.0
  0
LINE
  5
10B88
330
747D
100
AcDbEntity
  8
仕様書枠
  6
Continuous
 48
50.0
100
AcDbLine
 10
14251.2
 20
1200.0
 30
0.0
 11
14251.2
 21
800.0
 31
0.0
  0
TEXT
  5
10EA8
330
747D
100
AcDbEntity
  8
文字
 62
     7
 48
50.0
100
AcDbText
 10
14598.52153016864
 20
838.2527270729186
 30
0.0
 40
100.0
  1
～一般型・多雪地型～
  7
STYLE2
100
AcDbText
  0
DIMENSION
  5
120D6
330
747D
100
AcDbEntity
  8
寸法
 48
50.0
100
AcDbDimension
  2
*D3
 10
7578.904397928898
 20
9581.220013050655
 30
0.0
 11
7973.071064595567
 21
9581.220013050655
 31
0.0
 70
   160
 71
     5
 42
55.0
  3
INABA_S40
100
AcDbAlignedDimension
 13
7523.904397928898
 23
9306.507603031862
 33
0.0
 14
7578.904397928898
 24
9306.507603031858
 34
0.0
100
AcDbRotatedDimension
1001
ACAD
1000
DSTYLE
1002
{
1070
    41
1040
0.5
1070
    44
1040
1.0
1070
   147
1040
0.8
1070
   271
1070
     2
1070
   272
1070
     2
1070
   289
1070
     3
1070
   340
1005
F706
1070
   343
1005
F744
1070
   344
1005
F744
1002
}
  0
DIMENSION
  5
120D7
330
747D
100
AcDbEntity
  8
寸法
 48
50.0
100
AcDbDimension
  2
*D4
 10
8649.651514973252
 20
7516.507603031858
 30
0.0
 11
8557.651514973249
 21
8411.507603031861
 31
0.0
 70
    32
 71
     5
 42
1789.999999999999
  3
INABA_S40
100
AcDbAlignedDimension
 13
7578.904397928898
 23
9306.507603031858
 33
0.0
 14
7578.904397928898
 24
7516.507603031858
 34
0.0
 50
90.0
100
AcDbRotatedDimension
1001
ACAD
1000
DSTYLE
1002
{
1070
    41
1040
0.5
1070
    44
1040
1.0
1070
   147
1040
0.8
1070
   271
1070
     2
1070
   272
1070
     2
1070
   289
1070
     3
1070
   340
1005
F706
1070
   343
1005
F744
1070
   344
1005
F744
1002
}
  0
DIMENSION
  5
120D8
330
747D
100
AcDbEntity
  8
寸法
 48
50.0
100
AcDbDimension
  2
*D5
 10
8349.651514973254
 20
7516.507603031858
 30
0.0
 11
8349.651514973253
 21
7122.340936365195
 31
0.0
 70
   160
 71
     5
 42
54.99999999999636
  3
INABA_S40
100
AcDbAlignedDimension
 13
7578.904397928898
 23
7571.507603031855
 33
0.0
 14
7578.904397928898
 24
7516.507603031858
 34
0.0
 50
90.0
100
AcDbRotatedDimension
1001
ACAD
1000
DSTYLE
1002
{
1070
    41
1040
0.5
1070
    44
1040
1.0
1070
   147
1040
0.8
1070
   271
1070
     2
1070
   272
1070
     2
1070
   289
1070
     3
1070
   340
1005
F706
1070
   343
1005
F744
1070
   344
1005
F744
1002
}
  0
DIMENSION
  5
120D9
330
747D
100
AcDbEntity
  8
寸法
 48
50.0
100
AcDbDimension
  2
*D6
 10
8349.651514973253
 20
7571.507603031855
 30
0.0
 11
8257.63970394963
 21
8411.507603031862
 31
0.0
 70
    32
  1
4X420=<>
 71
     5
 42
1680.000000000008
  3
INABA_S40
100
AcDbAlignedDimension
 13
7578.904397928898
 23
9251.507603031864
 33
0.0
 14
7578.904397928898
 24
7571.507603031855
 34
0.0
 50
90.0
100
AcDbRotatedDimension
1001
ACAD
1000
DSTYLE
1002
{
1070
    41
1040
0.5
1070
    44
1040
1.0
1070
   147
1040
0.8
1070
   271
1070
     2
1070
   272
1070
     2
1070
   289
1070
     3
1070
   340
1005
F706
1070
   343
1005
F744
1070
   344
1005
F744
1002
}
  0
DIMENSION
  5
120DA
330
747D
100
AcDbEntity
  8
寸法
 48
50.0
100
AcDbDimension
  2
*D7
 10
8349.651514973254
 20
9251.507603031864
 30
0.0
 11
8349.651514973253
 21
9700.674269698524
 31
0.0
 70
   160
 71
     5
 42
54.99999999999454
  3
INABA_S40
100
AcDbAlignedDimension
 13
7578.904397928898
 23
9306.507603031858
 33
0.0
 14
7578.904397928898
 24
9251.507603031864
 34
0.0
 50
90.0
100
AcDbRotatedDimension
1001
ACAD
1000
DSTYLE
1002
{
1070
    41
1040
0.5
1070
    44
1040
1.0
1070
   147
1040
0.8
1070
   271
1070
     2
1070
   272
1070
     2
1070
   289
1070
     3
1070
   340
1005
F706
1070
   343
1005
F744
1070
   344
1005
F744
1002
}
  0
LINE
  5
120DB
330
747D
100
AcDbEntity
  8
Ｇ．Ｌ
 48
50.0
100
AcDbLine
 10
2315.037010702756
 20
2188.112805903256
 30
0.0
 11
14038.19928755098
 21
2188.112805903255
 31
0.0
  0
LINE
  5
120ED
330
747D
100
AcDbEntity
  8
部品1
100
AcDbLine
 10
3998.904397928898
 20
4428.112805903256
 30
0.0
 11
5763.904397928898
 21
4428.112805903256
 31
0.0
  0
LINE
  5
120F0
330
747D
100
AcDbEntity
  8
部品1
100
AcDbLine
 10
3998.904397928898
 20
4428.112805903256
 30
0.0
 11
7578.904397928899
 21
4428.112805903256
 31
0.0
  0
LINE
  5
120F1
330
747D
100
AcDbEntity
  8
部品1
100
AcDbLine
 10
3998.904397928898
 20
2288.112805903256
 30
0.0
 11
5763.9043979289
 21
2288.112805903256
 31
0.0
  0
LINE
  5
12102
330
747D
100
AcDbEntity
  8
部品1
100
AcDbLine
 10
3998.904397928898
 20
4522.112805903261
 30
0.0
 11
3998.904397928898
 21
2188.112805903256
 31
0.0
  0
TEXT
  5
12103
330
747D
100
AcDbEntity
  8
部品1
100
AcDbText
 10
2745.973702581164
 20
2202.954510774246
 30
0.0
 40
125.0
  1
G.L
  7
MSGOTHIC
100
AcDbText
  0
LINE
  5
12104
330
747D
100
AcDbEntity
  8
部品1
100
AcDbLine
 10
2603.489748881344
 20
2292.035854357388
 30
0.0
 11
2723.489748881344
 21
2292.035854357388
 31
0.0
  0
LINE
  5
12105
330
747D
100
AcDbEntity
  8
部品1
100
AcDbLine
 10
2723.489748881344
 20
2292.035854357388
 30
0.0
 11
2663.489748881344
 21
2188.112805903256
 31
0.0
  0
LINE
  5
12106
330
747D
100
AcDbEntity
  8
部品1
100
AcDbLine
 10
2663.489748881344
 20
2188.112805903256
 30
0.0
 11
2603.489748881344
 21
2292.035854357388
 31
0.0
  0
LINE
  5
12108
330
747D
100
AcDbEntity
  8
破線
 48
5.0
100
AcDbLine
 10
3993.904397928897
 20
2188.112805903257
 30
0.0
 11
3993.904397928897
 21
2033.112805903256
 31
0.0
  0
LINE
  5
12109
330
747D
100
AcDbEntity
  8
破線
 48
5.0
100
AcDbLine
 10
3898.9043979289
 20
2188.112805903256
 30
0.0
 11
3898.9043979289
 21
1988.112805903255
 31
0.0
  0
LINE
  5
1210A
330
747D
100
AcDbEntity
  8
破線
 48
5.0
100
AcDbLine
 10
4098.904397928897
 20
2188.112805903256
 30
0.0
 11
4098.904397928897
 21
1988.112805903256
 31
0.0
  0
LINE
  5
1210B
330
747D
100
AcDbEntity
  8
破線
 48
5.0
100
AcDbLine
 10
3898.9043979289
 20
1988.112805903255
 30
0.0
 11
4098.9043979289
 21
1988.112805903256
 31
0.0
  0
LINE
  5
1210C
330
747D
100
AcDbEntity
  8
破線
 48
5.0
100
AcDbLine
 10
3973.904397928898
 20
2033.112805903256
 30
0.0
 11
3993.904397928901
 21
2033.112805903256
 31
0.0
  0
LINE
  5
1210D
330
747D
100
AcDbEntity
  8
部品1
100
AcDbLine
 10
3993.904397928897
 20
2333.112805903257
 30
0.0
 11
3993.904397928897
 21
2188.112805903257
 31
0.0
  0
DIMENSION
  5
12121
330
747D
100
AcDbEntity
  8
寸法
 48
50.0
100
AcDbDimension
  2
*D8
 10
7478.904397928896
 20
1652.922421664043
 30
0.0
 11
7578.904397928896
 21
1652.922421664043
 31
0.0
 70
   160
 71
     5
 42
200.0
  3
INABA_S40
100
AcDbAlignedDimension
 13
7678.904397928896
 23
1988.112805903255
 33
0.0
 14
7478.904397928896
 24
1988.112805903255
 34
0.0
100
AcDbRotatedDimension
1001
ACAD
1000
DSTYLE
1002
{
1070
    41
1040
0.5
1070
    44
1040
1.0
1070
   147
1040
0.8
1070
   271
1070
     2
1070
   272
1070
     2
1070
   289
1070
     3
1070
   340
1005
F706
1070
   343
1005
F744
1070
   344
1005
F744
1002
}
  0
LINE
  5
12125
330
747D
100
AcDbEntity
  8
部品1
 48
50.0
100
AcDbLine
 10
5788.904397928899
 20
2338.112805903256
 30
0.0
 11
7578.904397928898
 21
2338.112805903256
 31
0.0
  0
LINE
  5
12130
330
747D
100
AcDbEntity
  8
部品1
100
AcDbLine
 10
5843.904397928898
 20
4428.112805903256
 30
0.0
 11
5843.904397928898
 21
2338.112805903256
 31
0.0
  0
LINE
  5
12131
330
747D
100
AcDbEntity
  8
部品1
100
AcDbLine
 10
6263.904397928898
 20
4428.112805903256
 30
0.0
 11
6263.904397928897
 21
2338.112805903256
 31
0.0
  0
LINE
  5
12161
330
747D
100
AcDbEntity
  8
部品1
 48
50.0
100
AcDbLine
 10
5788.904397928899
 20
2338.112805903256
 30
0.0
 11
4898.404397928893
 21
2338.112805903256
 31
0.0
  0
LINE
  5
12184
330
747D
100
AcDbEntity
  8
部品1
100
AcDbLine
 10
5788.904397928899
 20
4428.112805903256
 30
0.0
 11
5788.904397928899
 21
4522.112805903261
 31
0.0
  0
LINE
  5
12192
330
747D
100
AcDbEntity
  8
部品1
100
AcDbLine
 10
7103.904397928911
 20
4428.112805903256
 30
0.0
 11
7103.904397928909
 21
2338.112805903256
 31
0.0
  0
LINE
  5
121A0
330
747D
100
AcDbEntity
  8
部品1
100
AcDbLine
 10
7103.904397928896
 20
4428.112805903256
 30
0.0
 11
7103.904397928896
 21
2338.112805903256
 31
0.0
  0
LINE
  5
121A7
330
747D
100
AcDbEntity
  8
部品1
100
AcDbLine
 10
6683.904397928898
 20
4428.112805903256
 30
0.0
 11
6683.904397928896
 21
2338.112805903256
 31
0.0
  0
LINE
  5
121B5
330
747D
100
AcDbEntity
  8
部品1
100
AcDbLine
 10
7523.904397928898
 20
4428.112805903256
 30
0.0
 11
7523.904397928896
 21
2338.112805903256
 31
0.0
  0
LINE
  5
121B6
330
747D
100
AcDbEntity
  8
部品1
100
AcDbLine
 10
7578.904397928898
 20
4522.112805903261
 30
0.0
 11
7578.904397928898
 21
2188.112805903256
 31
0.0
  0
LINE
  5
121BD
330
747D
100
AcDbEntity
  8
破線
  6
HIDDEN
 48
5.0
100
AcDbLine
 10
7678.904397928896
 20
1988.112805903255
 30
0.0
 11
7478.904397928896
 21
1988.112805903256
 31
0.0
  0
LINE
  5
121BE
330
747D
100
AcDbEntity
  8
破線
  6
HIDDEN
 48
5.0
100
AcDbLine
 10
7478.904397928897
 20
2188.112805903256
 30
0.0
 11
7478.904397928897
 21
1988.112805903256
 31
0.0
  0
LINE
  5
121C0
330
747D
100
AcDbEntity
  8
破線
 48
5.0
100
AcDbLine
 10
7583.904397928896
 20
2188.112805903257
 30
0.0
 11
7583.904397928896
 21
2033.112805903256
 31
0.0
  0
LINE
  5
121C1
330
747D
100
AcDbEntity
  8
破線
  6
HIDDEN
 48
5.0
100
AcDbLine
 10
7678.904397928896
 20
2188.112805903256
 30
0.0
 11
7678.904397928896
 21
1988.112805903255
 31
0.0
  0
LINE
  5
121C2
330
747D
100
AcDbEntity
  8
破線
 48
5.0
100
AcDbLine
 10
7603.904397928897
 20
2033.112805903256
 30
0.0
 11
7583.904397928896
 21
2033.112805903256
 31
0.0
  0
LINE
  5
121C3
330
747D
100
AcDbEntity
  8
部品1
100
AcDbLine
 10
7583.904397928896
 20
2333.112805903257
 30
0.0
 11
7583.904397928896
 21
2188.112805903257
 31
0.0
  0
LINE
  5
121F1
330
747D
100
AcDbEntity
  8
部品1
100
AcDbLine
 10
3998.904397928897
 20
9251.507603031859
 30
0.0
 11
4026.904397928898
 21
9251.507603031859
 31
0.0
  0
LINE
  5
121F2
330
747D
100
AcDbEntity
  8
部品1
100
AcDbLine
 10
4053.904397928898
 20
9278.507603031867
 30
0.0
 11
4026.904397928899
 21
9278.507603031867
 31
0.0
  0
LINE
  5
121F3
330
747D
100
AcDbEntity
  8
部品1
100
AcDbLine
 10
5733.904397928896
 20
7991.507603031862
 30
0.0
 11
4053.904397928897
 21
7991.507603031859
 31
0.0
  0
LINE
  5
121F4
330
747D
100
AcDbEntity
  8
部品1
100
AcDbLine
 10
5733.904397928896
 20
8411.507603031862
 30
0.0
 11
4053.904397928899
 21
8411.507603031861
 31
0.0
  0
LINE
  5
121F5
330
747D
100
AcDbEntity
  8
部品1
100
AcDbLine
 10
5733.904397928896
 20
8831.507603031862
 30
0.0
 11
4053.904397928902
 21
8831.507603031857
 31
0.0
  0
LINE
  5
121F8
330
747D
100
AcDbEntity
  8
部品1
100
AcDbLine
 10
5788.904397928899
 20
9306.507603031858
 30
0.0
 11
3998.904397928898
 21
9306.507603031858
 31
0.0
  0
LINE
  5
121F9
330
747D
100
AcDbEntity
  8
部品1
100
AcDbLine
 10
3998.904397928897
 20
7571.507603031858
 30
0.0
 11
4026.904397928897
 21
7571.507603031858
 31
0.0
  0
DIMENSION
  5
121FB
330
747D
100
AcDbEntity
  8
寸法
 48
50.0
100
AcDbDimension
  2
*D9
 10
7578.904397928898
 20
9881.220013050658
 30
0.0
 11
5788.904397928899
 21
9973.220013050656
 31
0.0
 70
    32
 71
     5
 42
3580.0
  3
INABA_S40
100
AcDbAlignedDimension
 13
3998.904397928898
 23
9306.507603031858
 33
0.0
 14
7578.904397928898
 24
9306.507603031858
 34
0.0
100
AcDbRotatedDimension
1001
ACAD
1000
DSTYLE
1002
{
1070
    41
1040
0.5
1070
    44
1040
1.0
1070
   147
1040
0.8
1070
   271
1070
     2
1070
   272
1070
     2
1070
   289
1070
     3
1070
   340
1005
F706
1070
   343
1005
F744
1070
   344
1005
F744
1002
}
  0
DIMENSION
  5
121FC
330
747D
100
AcDbEntity
  8
寸法
 48
50.0
100
AcDbDimension
  2
*D10
 10
5733.904397928898
 20
9581.220013050655
 30
0.0
 11
4893.904397928898
 21
9673.231824074278
 31
0.0
 70
    32
  1
4X420=<>
 71
     5
 42
1680.0
  3
INABA_S40
100
AcDbAlignedDimension
 13
4053.904397928898
 23
9306.507603031858
 33
0.0
 14
5733.904397928898
 24
9306.507603031862
 34
0.0
100
AcDbRotatedDimension
1001
ACAD
1000
DSTYLE
1002
{
1070
    41
1040
0.5
1070
    44
1040
1.0
1070
   147
1040
0.8
1070
   271
1070
     2
1070
   272
1070
     2
1070
   289
1070
     3
1070
   340
1005
F706
1070
   343
1005
F744
1070
   344
1005
F744
1002
}
  0
DIMENSION
  5
121FD
330
747D
100
AcDbEntity
  8
寸法
 48
50.0
100
AcDbDimension
  2
*D11
 10
5788.904397928899
 20
6749.283217923326
 30
0.0
 11
4893.9043979289
 21
6749.283217923326
 31
0.0
 70
   160
 71
     5
 42
1789.999999999999
  3
INABA_S40
100
AcDbAlignedDimension
 13
3998.9043979289
 23
7516.507603031858
 33
0.0
 14
5788.904397928899
 24
7571.507603031858
 34
0.0
100
AcDbRotatedDimension
1001
ACAD
1000
DSTYLE
1002
{
1070
    41
1040
0.5
1070
    44
1040
1.0
1070
   147
1040
0.8
1070
   271
1070
     2
1070
   272
1070
     2
1070
   289
1070
     3
1070
   340
1005
F706
1070
   343
1005
F744
1070
   344
1005
F744
1002
}
  0
LINE
  5
12200
330
747D
100
AcDbEntity
  8
部品1
100
AcDbLine
 10
4053.904397928904
 20
9251.507603031859
 30
0.0
 11
4053.904397928894
 21
7571.507603031861
 31
0.0
  0
LINE
  5
12201
330
747D
100
AcDbEntity
  8
破線
  6
HIDDEN
 48
10.0
100
AcDbLine
 10
4077.404397928904
 20
9228.00760303186
 30
0.0
 11
4077.404397928895
 21
7595.007603031858
 31
0.0
  0
LINE
  5
12202
330
747D
100
AcDbEntity
  8
部品1
100
AcDbLine
 10
3998.904397928898
 20
9306.507603031858
 30
0.0
 11
3998.904397928898
 21
7516.507603031858
 31
0.0
  0
LINE
  5
12203
330
747D
100
AcDbEntity
  8
部品1
100
AcDbLine
 10
4026.904397928898
 20
9278.507603031862
 30
0.0
 11
4026.904397928898
 21
9049.507603031861
 31
0.0
  0
LINE
  5
12204
330
747D
100
AcDbEntity
  8
部品1
100
AcDbLine
 10
4026.9043979289
 20
9251.507603031864
 30
0.0
 11
4026.904397928897
 21
7544.507603031859
 31
0.0
  0
LINE
  5
12206
330
747D
100
AcDbEntity
  8
部品1
100
AcDbLine
 10
3998.904397928898
 20
7516.507603031858
 30
0.0
 11
4053.904397928898
 21
7516.507603031858
 31
0.0
  0
LINE
  5
12207
330
747D
100
AcDbEntity
  8
部品1
 48
50.0
100
AcDbLine
 10
4026.904397928897
 20
7544.507603031859
 30
0.0
 11
4053.904397928894
 21
7571.507603031861
 31
0.0
  0
LINE
  5
12209
330
747D
100
AcDbEntity
  8
部品1
100
AcDbLine
 10
4026.904397928898
 20
7571.507603031855
 30
0.0
 11
3998.904397928898
 21
7571.507603031855
 31
0.0
  0
LINE
  5
12215
330
747D
100
AcDbEntity
  8
部品1
100
AcDbLine
 10
4026.904397928898
 20
7991.507603031863
 30
0.0
 11
3998.904397928898
 21
7991.507603031863
 31
0.0
  0
LINE
  5
12216
330
747D
100
AcDbEntity
  8
部品1
100
AcDbLine
 10
4026.904397928898
 20
8411.507603031862
 30
0.0
 11
3998.904397928898
 21
8411.507603031862
 31
0.0
  0
LINE
  5
12217
330
747D
100
AcDbEntity
  8
部品1
100
AcDbLine
 10
4026.904397928898
 20
8831.507603031864
 30
0.0
 11
3998.904397928898
 21
8831.507603031864
 31
0.0
  0
DIMENSION
  5
1221B
330
747D
100
AcDbEntity
  8
寸法
 48
50.0
100
AcDbDimension
  2
*D12
 10
4053.904397928898
 20
9581.220013050655
 30
0.0
 11
3858.419116554659
 21
9581.220013050655
 31
0.0
 70
   160
 71
     5
 42
55.0
  3
INABA_S40
100
AcDbAlignedDimension
 13
3998.904397928898
 23
9306.507603031858
 33
0.0
 14
4053.904397928898
 24
9306.507603031862
 34
0.0
100
AcDbRotatedDimension
1001
ACAD
1000
DSTYLE
1002
{
1070
    41
1040
0.5
1070
    44
1040
1.0
1070
   147
1040
0.8
1070
   271
1070
     2
1070
   272
1070
     2
1070
   289
1070
     3
1070
   340
1005
F706
1070
   343
1005
F744
1070
   344
1005
F744
1002
}
  0
LINE
  5
1221C
330
747D
100
AcDbEntity
  8
部品1
 48
50.0
100
AcDbLine
 10
4026.904397928898
 20
9278.507603031862
 30
0.0
 11
4053.904397928894
 21
9251.507603031859
 31
0.0
  0
LINE
  5
1221D
330
747D
100
AcDbEntity
  8
部品1
100
AcDbLine
 10
4053.904397928898
 20
9306.507603031862
 30
0.0
 11
4053.904397928898
 21
9278.50760303186
 31
0.0
  0
LINE
  5
1221E
330
747D
100
AcDbEntity
  8
部品1
100
AcDbLine
 10
4026.904397928898
 20
9251.507603031864
 30
0.0
 11
3998.904397928898
 21
9251.507603031864
 31
0.0
  0
LINE
  5
12227
330
747D
100
AcDbEntity
  8
部品1
100
AcDbLine
 10
7523.904397928898
 20
9251.507603031864
 30
0.0
 11
7523.904397928898
 21
7571.507603031858
 31
0.0
  0
LINE
  5
1222D
330
747D
100
AcDbEntity
  8
部品1
100
AcDbLine
 10
5843.904397928898
 20
7571.507603031858
 30
0.0
 11
5843.904397928898
 21
9251.507603031859
 31
0.0
  0
LINE
  5
1222E
330
747D
100
AcDbEntity
  8
破線
  6
HIDDEN
 48
10.0
100
AcDbLine
 10
5867.404397928898
 20
7595.007603031858
 30
0.0
 11
5867.404397928897
 21
9228.00760303186
 31
0.0
  0
LINE
  5
1222F
330
747D
100
AcDbEntity
  8
部品1
100
AcDbLine
 10
5816.904397928897
 20
7544.507603031859
 30
0.0
 11
5816.904397928897
 21
9278.507603031863
 31
0.0
  0
LINE
  5
12231
330
747D
100
AcDbEntity
  8
破線
  6
HIDDEN
 48
10.0
100
AcDbLine
 10
5710.404397928898
 20
7595.007603031856
 30
0.0
 11
5710.404397928894
 21
9228.007603031867
 31
0.0
  0
LINE
  5
12232
330
747D
100
AcDbEntity
  8
部品1
100
AcDbLine
 10
5733.904397928898
 20
7571.507603031855
 30
0.0
 11
5733.904397928895
 21
9251.507603031866
 31
0.0
  0
LINE
  5
12233
330
747D
100
AcDbEntity
  8
部品1
100
AcDbLine
 10
5760.904397928898
 20
7544.507603031862
 30
0.0
 11
5760.904397928898
 21
9278.507603031862
 31
0.0
  0
LINE
  5
12234
330
747D
100
AcDbEntity
  8
破線
  6
HIDDEN
 48
10.0
100
AcDbLine
 10
7500.404397928898
 20
9228.007603031867
 30
0.0
 11
7500.404397928898
 21
7595.007603031858
 31
0.0
  0
LINE
  5
12235
330
747D
100
AcDbEntity
  8
部品1
100
AcDbLine
 10
7578.904397928898
 20
9306.507603031858
 30
0.0
 11
7578.904397928898
 21
7516.507603031858
 31
0.0
  0
LINE
  5
12236
330
747D
100
AcDbEntity
  8
部品1
100
AcDbLine
 10
7550.904397928896
 20
9278.50760303186
 30
0.0
 11
7550.904397928896
 21
9049.507603031861
 31
0.0
  0
LINE
  5
12239
330
747D
100
AcDbEntity
  8
部品1
100
AcDbLine
 10
5843.904397928898
 20
7991.507603031862
 30
0.0
 11
7523.904397928898
 21
7991.50760303186
 31
0.0
  0
LINE
  5
1223A
330
747D
100
AcDbEntity
  8
部品1
100
AcDbLine
 10
5843.904397928898
 20
8411.507603031862
 30
0.0
 11
7523.904397928898
 21
8411.507603031862
 31
0.0
  0
LINE
  5
1223B
330
747D
100
AcDbEntity
  8
部品1
100
AcDbLine
 10
5843.904397928898
 20
8831.507603031862
 30
0.0
 11
7523.904397928898
 21
8831.507603031862
 31
0.0
  0
LINE
  5
1223D
330
747D
100
AcDbEntity
  8
部品1
100
AcDbLine
 10
7578.904397928898
 20
7516.507603031858
 30
0.0
 11
5843.904397928898
 21
7516.507603031858
 31
0.0
  0
LINE
  5
1223E
330
747D
100
AcDbEntity
  8
部品1
100
AcDbLine
 10
7578.904397928898
 20
7571.507603031858
 30
0.0
 11
7550.904397928896
 21
7571.507603031858
 31
0.0
  0
LINE
  5
1223F
330
747D
100
AcDbEntity
  8
部品1
100
AcDbLine
 10
7550.904397928896
 20
7544.507603031859
 30
0.0
 11
5816.904397928897
 21
7544.507603031862
 31
0.0
  0
DIMENSION
  5
12240
330
747D
100
AcDbEntity
  8
寸法
 48
50.0
100
AcDbDimension
  2
*D13
 10
7578.904397928898
 20
6749.283217923326
 30
0.0
 11
6683.904397928898
 21
6749.283217923326
 31
0.0
 70
   160
 71
     5
 42
1789.999999999999
  3
INABA_S40
100
AcDbAlignedDimension
 13
5788.904397928899
 23
7571.507603031855
 33
0.0
 14
7578.904397928898
 24
7516.507603031858
 34
0.0
100
AcDbRotatedDimension
1001
ACAD
1000
DSTYLE
1002
{
1070
    41
1040
0.5
1070
    44
1040
1.0
1070
   147
1040
0.8
1070
   271
1070
     2
1070
   272
1070
     2
1070
   289
1070
     3
1070
   340
1005
F706
1070
   343
1005
F744
1070
   344
1005
F744
1002
}
  0
LINE
  5
1226B
330
747D
100
AcDbEntity
  8
破線
  6
HIDDEN
 48
10.0
100
AcDbLine
 10
4077.404397928896
 20
7595.007603031861
 30
0.0
 11
4868.904397928908
 21
7595.007603031857
 31
0.0
  0
LINE
  5
12277
330
747D
100
AcDbEntity
  8
部品1
 48
50.0
100
AcDbLine
 10
5816.904397928897
 20
7544.507603031859
 30
0.0
 11
5843.904397928898
 21
7571.507603031858
 31
0.0
  0
LINE
  5
12278
330
747D
100
AcDbEntity
  8
部品1
 48
50.0
100
AcDbLine
 10
5760.904397928898
 20
7544.507603031862
 30
0.0
 11
5733.904397928898
 21
7571.507603031855
 31
0.0
  0
LINE
  5
12279
330
747D
100
AcDbEntity
  8
部品1
100
AcDbLine
 10
5843.904397928898
 20
7516.507603031861
 30
0.0
 11
5733.904397928901
 21
7516.507603031858
 31
0.0
  0
LINE
  5
1227B
330
747D
100
AcDbEntity
  8
部品1
100
AcDbLine
 10
5843.904397928898
 20
7516.507603031858
 30
0.0
 11
5843.904397928898
 21
7544.507603031859
 31
0.0
  0
LINE
  5
1227C
330
747D
100
AcDbEntity
  8
部品1
100
AcDbLine
 10
5816.904397928897
 20
7571.507603031855
 30
0.0
 11
5788.904397928899
 21
7571.507603031855
 31
0.0
  0
LINE
  5
1227D
330
747D
100
AcDbEntity
  8
部品1
100
AcDbLine
 10
5760.904397928898
 20
7571.507603031855
 30
0.0
 11
5788.904397928899
 21
7571.507603031855
 31
0.0
  0
LINE
  5
1227E
330
747D
100
AcDbEntity
  8
部品1
100
AcDbLine
 10
6263.904397928898
 20
7516.507603031858
 30
0.0
 11
6263.904397928898
 21
7544.507603031859
 31
0.0
  0
LINE
  5
1227F
330
747D
100
AcDbEntity
  8
部品1
100
AcDbLine
 10
7550.904397928896
 20
9251.507603031864
 30
0.0
 11
7550.904397928896
 21
7544.507603031859
 31
0.0
  0
LINE
  5
12282
330
747D
100
AcDbEntity
  8
部品1
100
AcDbLine
 10
6683.904397928898
 20
7516.507603031858
 30
0.0
 11
6683.904397928898
 21
7544.507603031859
 31
0.0
  0
LINE
  5
12287
330
747D
100
AcDbEntity
  8
部品1
100
AcDbLine
 10
7103.904397928896
 20
7516.507603031858
 30
0.0
 11
7103.904397928896
 21
7544.507603031859
 31
0.0
  0
LINE
  5
12289
330
747D
100
AcDbEntity
  8
部品1
 48
50.0
100
AcDbLine
 10
7550.904397928896
 20
7544.507603031859
 30
0.0
 11
7523.904397928898
 21
7571.507603031858
 31
0.0
  0
LINE
  5
1228A
330
747D
100
AcDbEntity
  8
部品1
100
AcDbLine
 10
7523.904397928898
 20
7516.507603031858
 30
0.0
 11
7523.904397928898
 21
7544.507603031859
 31
0.0
  0
LINE
  5
1228B
330
747D
100
AcDbEntity
  8
部品1
100
AcDbLine
 10
7550.904397928896
 20
7571.507603031855
 30
0.0
 11
7578.904397928898
 21
7571.507603031855
 31
0.0
  0
LINE
  5
1228C
330
747D
100
AcDbEntity
  8
部品1
100
AcDbLine
 10
7550.904397928896
 20
7991.507603031863
 30
0.0
 11
7578.904397928898
 21
7991.507603031863
 31
0.0
  0
LINE
  5
1228D
330
747D
100
AcDbEntity
  8
部品1
100
AcDbLine
 10
7550.904397928896
 20
8411.507603031862
 30
0.0
 11
7578.904397928898
 21
8411.507603031862
 31
0.0
  0
LINE
  5
1228E
330
747D
100
AcDbEntity
  8
部品1
100
AcDbLine
 10
7550.904397928896
 20
8831.507603031864
 30
0.0
 11
7578.904397928898
 21
8831.507603031864
 31
0.0
  0
LINE
  5
12292
330
747D
100
AcDbEntity
  8
部品1
100
AcDbLine
 10
7578.904397928898
 20
9251.507603031861
 30
0.0
 11
7550.904397928897
 21
9251.507603031864
 31
0.0
  0
LINE
  5
12293
330
747D
100
AcDbEntity
  8
部品1
100
AcDbLine
 10
5816.904397928897
 20
9278.507603031862
 30
0.0
 11
7103.904397928896
 21
9278.507603031862
 31
0.0
  0
DIMENSION
  5
12294
330
747D
100
AcDbEntity
  8
寸法
 48
50.0
100
AcDbDimension
  2
*D14
 10
7523.904397928898
 20
9581.220013050655
 30
0.0
 11
6683.904397928898
 21
9673.231824074278
 31
0.0
 70
    32
  1
4X420=<>
 71
     5
 42
1680.0
  3
INABA_S40
100
AcDbAlignedDimension
 13
5843.904397928898
 23
9306.507603031862
 33
0.0
 14
7523.904397928898
 24
9306.507603031862
 34
0.0
100
AcDbRotatedDimension
1001
ACAD
1000
DSTYLE
1002
{
1070
    41
1040
0.5
1070
    44
1040
1.0
1070
   147
1040
0.8
1070
   271
1070
     2
1070
   272
1070
     2
1070
   289
1070
     3
1070
   340
1005
F706
1070
   343
1005
F744
1070
   344
1005
F744
1002
}
  0
LINE
  5
12295
330
747D
100
AcDbEntity
  8
部品1
100
AcDbLine
 10
5788.904397928899
 20
9306.507603031858
 30
0.0
 11
7578.904397928899
 21
9306.507603031858
 31
0.0
  0
LINE
  5
12297
330
747D
100
AcDbEntity
  8
部品1
100
AcDbLine
 10
5313.904397928898
 20
9278.507603031862
 30
0.0
 11
4053.904397928898
 21
9278.507603031863
 31
0.0
  0
LINE
  5
12299
330
747D
100
AcDbEntity
  8
部品1
100
AcDbLine
 10
4473.904397928897
 20
9306.507603031862
 30
0.0
 11
4473.904397928897
 21
9278.50760303186
 31
0.0
  0
LINE
  5
1229A
330
747D
100
AcDbEntity
  8
部品1
100
AcDbLine
 10
4893.904397928898
 20
9306.507603031862
 30
0.0
 11
4893.904397928898
 21
9278.50760303186
 31
0.0
  0
LINE
  5
1229B
330
747D
100
AcDbEntity
  8
破線
  6
HIDDEN
 48
10.0
100
AcDbLine
 10
4077.404397928904
 20
9228.007603031873
 30
0.0
 11
4868.904397928898
 21
9228.007603031871
 31
0.0
  0
LINE
  5
1229C
330
747D
100
AcDbEntity
  8
部品1
100
AcDbLine
 10
5760.904397928898
 20
9278.507603031862
 30
0.0
 11
5313.904397928898
 21
9278.507603031862
 31
0.0
  0
LINE
  5
1229D
330
747D
100
AcDbEntity
  8
部品1
100
AcDbLine
 10
5313.904397928898
 20
9306.507603031862
 30
0.0
 11
5313.904397928898
 21
9278.50760303186
 31
0.0
  0
LINE
  5
1229E
330
747D
100
AcDbEntity
  8
部品1
100
AcDbLine
 10
5733.904397928898
 20
9306.507603031862
 30
0.0
 11
5733.904397928898
 21
9278.50760303186
 31
0.0
  0
DIMENSION
  5
1229F
330
747D
100
AcDbEntity
  8
寸法
 48
50.0
100
AcDbDimension
  2
*D15
 10
5843.904397928898
 20
9581.220013050655
 30
0.0
 11
5788.904397928899
 21
9581.220013050655
 31
0.0
 70
   160
 71
     5
 42
110.0
  3
INABA_S40
100
AcDbAlignedDimension
 13
5733.904397928898
 23
9306.507603031862
 33
0.0
 14
5843.904397928898
 24
9306.507603031862
 34
0.0
100
AcDbRotatedDimension
1001
ACAD
1000
DSTYLE
1002
{
1070
    41
1040
0.5
1070
    44
1040
1.0
1070
   147
1040
0.8
1070
   271
1070
     2
1070
   272
1070
     2
1070
   289
1070
     3
1070
   340
1005
F706
1070
   343
1005
F744
1070
   344
1005
F744
1002
}
  0
LINE
  5
122A0
330
747D
100
AcDbEntity
  8
部品1
 48
50.0
100
AcDbLine
 10
5816.904397928897
 20
9278.507603031862
 30
0.0
 11
5843.904397928898
 21
9251.507603031859
 31
0.0
  0
LINE
  5
122A1
330
747D
100
AcDbEntity
  8
部品1
 48
50.0
100
AcDbLine
 10
5760.904397928898
 20
9278.507603031862
 30
0.0
 11
5733.904397928898
 21
9251.507603031866
 31
0.0
  0
LINE
  5
122A2
330
747D
100
AcDbEntity
  8
部品1
100
AcDbLine
 10
5816.904397928897
 20
9251.507603031864
 30
0.0
 11
5788.904397928899
 21
9251.507603031864
 31
0.0
  0
LINE
  5
122A3
330
747D
100
AcDbEntity
  8
部品1
100
AcDbLine
 10
5733.904397928898
 20
9306.507603031862
 30
0.0
 11
5733.904397928898
 21
9278.50760303186
 31
0.0
  0
LINE
  5
122A4
330
747D
100
AcDbEntity
  8
部品1
100
AcDbLine
 10
5760.904397928898
 20
9251.507603031864
 30
0.0
 11
5788.904397928899
 21
9251.507603031864
 31
0.0
  0
LINE
  5
122A5
330
747D
100
AcDbEntity
  8
部品1
100
AcDbLine
 10
5843.904397928898
 20
9306.507603031862
 30
0.0
 11
5843.904397928898
 21
9278.50760303186
 31
0.0
  0
LINE
  5
122A6
330
747D
100
AcDbEntity
  8
部品1
100
AcDbLine
 10
5843.904397928898
 20
9306.507603031862
 30
0.0
 11
5843.904397928898
 21
9278.50760303186
 31
0.0
  0
LINE
  5
122A7
330
747D
100
AcDbEntity
  8
部品1
100
AcDbLine
 10
6263.904397928898
 20
9306.507603031862
 30
0.0
 11
6263.904397928898
 21
9278.50760303186
 31
0.0
  0
LINE
  5
122A9
330
747D
100
AcDbEntity
  8
部品1
100
AcDbLine
 10
6906.404397928898
 20
9278.507603031862
 30
0.0
 11
7301.404397928898
 21
9278.50760303186
 31
0.0
  0
LINE
  5
122AB
330
747D
100
AcDbEntity
  8
部品1
100
AcDbLine
 10
6683.904397928898
 20
9306.507603031862
 30
0.0
 11
6683.904397928898
 21
9278.50760303186
 31
0.0
  0
LINE
  5
122B0
330
747D
100
AcDbEntity
  8
部品1
100
AcDbLine
 10
7103.904397928896
 20
9278.50760303186
 30
0.0
 11
7550.904397928896
 21
9278.507603031858
 31
0.0
  0
LINE
  5
122B1
330
747D
100
AcDbEntity
  8
部品1
100
AcDbLine
 10
7103.904397928896
 20
9306.507603031862
 30
0.0
 11
7103.904397928896
 21
9278.50760303186
 31
0.0
  0
LINE
  5
122B3
330
747D
100
AcDbEntity
  8
部品1
 48
50.0
100
AcDbLine
 10
7550.904397928896
 20
9278.50760303186
 30
0.0
 11
7523.904397928898
 21
9251.507603031864
 31
0.0
  0
LINE
  5
122B4
330
747D
100
AcDbEntity
  8
部品1
100
AcDbLine
 10
7523.904397928898
 20
9306.507603031862
 30
0.0
 11
7523.904397928898
 21
9278.50760303186
 31
0.0
  0
LINE
  5
122B5
330
747D
100
AcDbEntity
  8
部品1
100
AcDbLine
 10
7550.904397928896
 20
9251.507603031864
 30
0.0
 11
7578.904397928898
 21
9251.507603031864
 31
0.0
  0
DIMENSION
  5
136B1
330
747D
100
AcDbEntity
  8
寸法
 48
50.0
100
AcDbDimension
  2
*D16
 10
13646.35780785321
 20
4608.112805903256
 30
0.0
 11
13554.34599682958
 21
3448.112805903258
 31
0.0
 70
    32
 71
     5
 42
2320.000000000001
  3
INABA_S40
100
AcDbAlignedDimension
 13
12955.14422886714
 23
2288.112805903256
 33
0.0
 14
13035.14422886715
 24
4608.112805903256
 34
0.0
 50
90.0
100
AcDbRotatedDimension
1001
ACAD
1000
DSTYLE
1002
{
1070
    41
1040
0.5
1070
    44
1040
1.0
1070
   147
1040
0.8
1070
   271
1070
     2
1070
   272
1070
     2
1070
   289
1070
     3
1070
   340
1005
F706
1070
   343
1005
F744
1070
   344
1005
F744
1002
}
  0
LINE
  5
136B2
330
747D
100
AcDbEntity
  8
部品1
 48
50.0
100
AcDbLine
 10
12907.64422886714
 20
2328.112805903256
 30
0.0
 11
12907.64422886715
 21
2188.112805903256
 31
0.0
  0
LINE
  5
136B3
330
747D
100
AcDbEntity
  8
部品1
 48
50.0
100
AcDbLine
 10
12947.64422886715
 20
2328.112805903257
 30
0.0
 11
12947.64422886714
 21
2188.112805903256
 31
0.0
  0
LINE
  5
136B4
330
747D
100
AcDbEntity
  8
部品1
100
AcDbLine
 10
12755.14422886714
 20
2288.112805903256
 30
0.0
 11
12755.14422886714
 21
2188.112805903256
 31
0.0
  0
LINE
  5
136B5
330
747D
100
AcDbEntity
  8
部品1
 48
50.0
100
AcDbLine
 10
12160.14422886714
 20
2288.112805903256
 30
0.0
 11
12160.14422886714
 21
2188.112805903257
 31
0.0
  0
LINE
  5
136B6
330
747D
100
AcDbEntity
  8
部品1
 48
50.0
100
AcDbLine
 10
11960.14422886714
 20
2288.112805903256
 30
0.0
 11
11960.14422886714
 21
2188.112805903257
 31
0.0
  0
LINE
  5
136B7
330
747D
100
AcDbEntity
  8
部品1
100
AcDbLine
 10
12955.14422886714
 20
4482.994614589261
 30
0.0
 11
12955.14422886715
 21
2188.112805903256
 31
0.0
  0
LINE
  5
136B8
330
747D
100
AcDbEntity
  8
部品1
100
AcDbLine
 10
11365.14422886714
 20
2288.112805903256
 30
0.0
 11
11365.14422886714
 21
2188.112805903256
 31
0.0
  0
LINE
  5
136B9
330
747D
100
AcDbEntity
  8
部品1
 48
50.0
100
AcDbLine
 10
11172.64422886714
 20
2328.112805903257
 30
0.0
 11
11172.64422886715
 21
2188.112805903256
 31
0.0
  0
LINE
  5
136BA
330
747D
100
AcDbEntity
  8
部品1
 48
50.0
100
AcDbLine
 10
11212.64422886715
 20
2328.112805903256
 30
0.0
 11
11212.64422886714
 21
2188.112805903256
 31
0.0
  0
LINE
  5
136BC
330
747D
100
AcDbEntity
  8
部品1
100
AcDbLine
 10
11165.14422886715
 20
4519.971325345503
 30
0.0
 11
11165.14422886715
 21
2188.112805903256
 31
0.0
  0
DIMENSION
  5
136BD
330
747D
100
AcDbEntity
  8
寸法
 48
50.0
100
AcDbDimension
  2
*D17
 10
10321.39409968388
 20
2288.112805903256
 30
0.0
 11
10321.39409968388
 21
1904.362805903256
 31
0.0
 70
   160
 71
     5
 42
50.0
  3
INABA_S40
100
AcDbAlignedDimension
 13
11165.14422886715
 23
2338.112805903256
 33
0.0
 14
11088.14422886714
 24
2288.112805903256
 34
0.0
 50
90.0
100
AcDbRotatedDimension
1001
ACAD
1000
DSTYLE
1002
{
1070
    41
1040
0.5
1070
    44
1040
1.0
1070
   147
1040
0.8
1070
   271
1070
     2
1070
   272
1070
     2
1070
   289
1070
     3
1070
   340
1005
F706
1070
   343
1005
F744
1070
   344
1005
F744
1002
}
  0
DIMENSION
  5
136BE
330
747D
100
AcDbEntity
  8
寸法
 48
50.0
100
AcDbDimension
  2
*D18
 10
10021.39409968388
 20
2188.112805903256
 30
0.0
 11
10021.39409968388
 21
1773.112805903256
 31
0.0
 70
   160
 71
     5
 42
100.0
  3
INABA_S40
100
AcDbAlignedDimension
 13
11088.14422886714
 23
2288.112805903256
 33
0.0
 14
10108.64315297201
 24
2188.112805903256
 34
0.0
 50
90.0
100
AcDbRotatedDimension
1001
ACAD
1000
DSTYLE
1002
{
1070
    41
1040
0.5
1070
    44
1040
1.0
1070
   147
1040
0.8
1070
   271
1070
     2
1070
   272
1070
     2
1070
   289
1070
     3
1070
   340
1005
F706
1070
   343
1005
F744
1070
   344
1005
F744
1002
}
  0
DIMENSION
  5
136BF
330
747D
100
AcDbEntity
  8
寸法
 48
50.0
100
AcDbDimension
  2
*D19
 10
10685.39965278267
 20
2188.112805903256
 30
0.0
 11
10685.39965278267
 21
2045.674129116822
 31
0.0
 70
   160
 71
     5
 42
199.9999999999995
  3
INABA_S40
100
AcDbAlignedDimension
 13
11092.64422886715
 23
1988.112805903256
 33
0.0
 14
11092.64422886715
 24
2188.112805903256
 34
0.0
 50
90.0
100
AcDbRotatedDimension
1001
ACAD
1000
DSTYLE
1002
{
1070
    41
1040
0.5
1070
    44
1040
1.0
1070
   147
1040
0.8
1070
   271
1070
     2
1070
   272
1070
     2
1070
   289
1070
     3
1070
   340
1005
F706
1070
   343
1005
F744
1070
   344
1005
F744
1002
}
  0
LINE
  5
136C2
330
747D
100
AcDbEntity
  8
破線
  6
HIDDEN
 48
5.0
100
AcDbLine
 10
11092.64422886715
 20
1988.112805903256
 30
0.0
 11
11292.64422886715
 21
1988.112805903254
 31
0.0
  0
DIMENSION
  5
136C3
330
747D
100
AcDbEntity
  8
寸法
 48
50.0
100
AcDbDimension
  2
*D20
 10
11292.64422886715
 20
1652.922421664043
 30
0.0
 11
11192.64422886715
 21
1652.922421664043
 31
0.0
 70
   160
 71
     5
 42
200.0
  3
INABA_S40
100
AcDbAlignedDimension
 13
11092.64422886715
 23
1988.112805903256
 33
0.0
 14
11292.64422886715
 24
1988.112805903254
 34
0.0
100
AcDbRotatedDimension
1001
ACAD
1000
DSTYLE
1002
{
1070
    41
1040
0.5
1070
    44
1040
1.0
1070
   147
1040
0.8
1070
   271
1070
     2
1070
   272
1070
     2
1070
   289
1070
     3
1070
   340
1005
F706
1070
   343
1005
F744
1070
   344
1005
F744
1002
}
  0
LINE
  5
136C4
330
747D
100
AcDbEntity
  8
破線
  6
HIDDEN
 48
5.0
100
AcDbLine
 10
11092.64422886715
 20
2188.112805903256
 30
0.0
 11
11092.64422886715
 21
1988.112805903256
 31
0.0
  0
LINE
  5
136C5
330
747D
100
AcDbEntity
  8
破線
  6
HIDDEN
 48
5.0
100
AcDbLine
 10
11212.64422886715
 20
2188.112805903256
 30
0.0
 11
11212.64422886715
 21
2183.112805903256
 31
0.0
  0
LINE
  5
136C6
330
747D
100
AcDbEntity
  8
破線
  6
HIDDEN
 48
5.0
100
AcDbLine
 10
11172.64422886715
 20
2188.112805903256
 30
0.0
 11
11172.64422886715
 21
2183.112805903256
 31
0.0
  0
LINE
  5
136C7
330
747D
100
AcDbEntity
  8
破線
  6
HIDDEN
 48
5.0
100
AcDbLine
 10
11227.64422886715
 20
2035.412805903256
 30
0.0
 11
11227.64422886715
 21
2033.112805903256
 31
0.0
  0
LINE
  5
136C8
330
747D
100
AcDbEntity
  8
破線
  6
HIDDEN
 48
5.0
100
AcDbLine
 10
11157.64422886714
 20
2035.412805903256
 30
0.0
 11
11157.64422886714
 21
2033.112805903256
 31
0.0
  0
LINE
  5
136C9
330
747D
100
AcDbEntity
  8
破線
  6
HIDDEN
 48
5.0
100
AcDbLine
 10
11157.64422886714
 20
2033.112805903256
 30
0.0
 11
11227.64422886715
 21
2033.112805903256
 31
0.0
  0
LINE
  5
136CA
330
747D
100
AcDbEntity
  8
破線
  6
HIDDEN
 48
5.0
100
AcDbLine
 10
11212.64422886715
 20
2183.112805903256
 30
0.0
 11
11227.64422886715
 21
2035.412805903256
 31
0.0
  0
LINE
  5
136CB
330
747D
100
AcDbEntity
  8
破線
  6
HIDDEN
 48
5.0
100
AcDbLine
 10
11172.64422886715
 20
2183.112805903256
 30
0.0
 11
11157.64422886714
 21
2035.412805903256
 31
0.0
  0
LINE
  5
136CC
330
747D
100
AcDbEntity
  8
破線
  6
HIDDEN
 48
5.0
100
AcDbLine
 10
11292.64422886715
 20
2188.112805903256
 30
0.0
 11
11292.64422886715
 21
1988.112805903254
 31
0.0
  0
LINE
  5
136CD
330
747D
100
AcDbEntity
  8
破線
  6
HIDDEN
 48
5.0
100
AcDbLine
 10
12962.64422886715
 20
2033.112805903256
 30
0.0
 11
12892.64422886714
 21
2033.112805903256
 31
0.0
  0
LINE
  5
136CE
330
747D
100
AcDbEntity
  8
破線
  6
HIDDEN
 48
5.0
100
AcDbLine
 10
13027.64422886715
 20
1988.112805903256
 30
0.0
 11
12827.64422886715
 21
1988.112805903256
 31
0.0
  0
LINE
  5
136CF
330
747D
100
AcDbEntity
  8
破線
  6
HIDDEN
 48
5.0
100
AcDbLine
 10
12907.64422886714
 20
2183.112805903256
 30
0.0
 11
12892.64422886714
 21
2035.412805903257
 31
0.0
  0
LINE
  5
136D0
330
747D
100
AcDbEntity
  8
破線
  6
HIDDEN
 48
5.0
100
AcDbLine
 10
12827.64422886714
 20
2188.112805903256
 30
0.0
 11
12827.64422886715
 21
1988.112805903256
 31
0.0
  0
LINE
  5
136D1
330
747D
100
AcDbEntity
  8
破線
  6
HIDDEN
 48
5.0
100
AcDbLine
 10
12892.64422886714
 20
2035.412805903257
 30
0.0
 11
12892.64422886714
 21
2033.112805903256
 31
0.0
  0
LINE
  5
136D2
330
747D
100
AcDbEntity
  8
破線
  6
HIDDEN
 48
5.0
100
AcDbLine
 10
13027.64422886715
 20
2188.112805903256
 30
0.0
 11
13027.64422886715
 21
1988.112805903256
 31
0.0
  0
LINE
  5
136D3
330
747D
100
AcDbEntity
  8
破線
  6
HIDDEN
 48
50.0
100
AcDbLine
 10
12907.64422886715
 20
2188.112805903256
 30
0.0
 11
12907.64422886715
 21
2183.112805903256
 31
0.0
  0
LINE
  5
136D4
330
747D
100
AcDbEntity
  8
破線
  6
HIDDEN
 48
50.0
100
AcDbLine
 10
12947.64422886714
 20
2188.112805903256
 30
0.0
 11
12947.64422886714
 21
2183.112805903257
 31
0.0
  0
LINE
  5
136D5
330
747D
100
AcDbEntity
  8
破線
  6
HIDDEN
 48
5.0
100
AcDbLine
 10
12962.64422886715
 20
2035.412805903257
 30
0.0
 11
12962.64422886715
 21
2033.112805903256
 31
0.0
  0
LINE
  5
136D6
330
747D
100
AcDbEntity
  8
破線
  6
HIDDEN
 48
5.0
100
AcDbLine
 10
12947.64422886715
 20
2183.112805903256
 30
0.0
 11
12962.64422886715
 21
2035.412805903257
 31
0.0
  0
DIMENSION
  5
136DA
330
747D
100
AcDbEntity
  8
寸法
 48
50.0
100
AcDbDimension
  2
*D21
 10
10321.39409968388
 20
2338.112805903256
 30
0.0
 11
10229.38228866026
 21
3383.112805903258
 31
0.0
 70
    32
 71
     5
 42
2090.000000000001
  3
INABA_S40
100
AcDbAlignedDimension
 13
11165.14422886715
 23
4428.112805903256
 33
0.0
 14
11165.14422886715
 24
2338.112805903256
 34
0.0
 50
90.0
100
AcDbRotatedDimension
1001
ACAD
1000
DSTYLE
1002
{
1070
    41
1040
0.5
1070
    44
1040
1.0
1070
   147
1040
0.8
1070
   271
1070
     2
1070
   272
1070
     2
1070
   289
1070
     3
1070
   340
1005
F706
1070
   343
1005
F744
1070
   344
1005
F744
1002
}
  0
LINE
  5
136DB
330
747D
100
AcDbEntity
  8
部品1
100
AcDbLine
 10
12060.14422886714
 20
4428.112805903256
 30
0.0
 11
12060.14422886714
 21
2338.112805903256
 31
0.0
  0
LINE
  5
136E8
330
747D
100
AcDbEntity
  8
部品1
100
AcDbLine
 10
12900.14422886714
 20
4428.112805903256
 30
0.0
 11
12900.14422886715
 21
2338.112805903256
 31
0.0
  0
LINE
  5
136E9
330
747D
100
AcDbEntity
  8
部品1
100
AcDbLine
 10
12480.14422886714
 20
4428.112805903256
 30
0.0
 11
12480.14422886714
 21
2338.112805903256
 31
0.0
  0
LINE
  5
136F0
330
747D
100
AcDbEntity
  8
部品1
100
AcDbLine
 10
11220.14422886714
 20
4428.112805903256
 30
0.0
 11
11220.14422886714
 21
2338.112805903256
 31
0.0
  0
LINE
  5
136F7
330
747D
100
AcDbEntity
  8
部品1
100
AcDbLine
 10
11640.14422886714
 20
4428.112805903256
 30
0.0
 11
11640.14422886714
 21
2338.112805903256
 31
0.0
  0
LINE
  5
136F8
330
747D
100
AcDbEntity
  8
部品1
100
AcDbLine
 10
11165.14422886715
 20
2338.112805903256
 30
0.0
 11
12955.14422886714
 21
2338.112805903256
 31
0.0
  0
LINE
  5
136F9
330
747D
100
AcDbEntity
  8
部品1
100
AcDbLine
 10
11212.64422886714
 20
2288.112805903256
 30
0.0
 11
12907.64422886714
 21
2288.112805903256
 31
0.0
  0
LINE
  5
136FB
330
747D
100
AcDbEntity
  8
部品1
100
AcDbLine
 10
11165.14422886715
 20
2288.112805903256
 30
0.0
 11
11172.64422886714
 21
2288.112805903256
 31
0.0
  0
LINE
  5
136FC
330
747D
100
AcDbEntity
  8
部品1
100
AcDbLine
 10
11177.64422886714
 20
2333.112805903257
 30
0.0
 11
11207.64422886715
 21
2333.112805903256
 31
0.0
  0
ARC
  5
136FD
330
747D
100
AcDbEntity
  8
部品1
 48
50.0
100
AcDbCircle
 10
11177.64422886714
 20
2328.112805903257
 30
0.0
 40
5.0
100
AcDbArc
 50
89.99999999999934
 51
180.0000000000013
  0
ARC
  5
136FE
330
747D
100
AcDbEntity
  8
部品1
 48
50.0
100
AcDbCircle
 10
11207.64422886715
 20
2328.112805903256
 30
0.0
 40
5.0
100
AcDbArc
 50
359.9999999999986
 51
89.99999999999927
  0
LINE
  5
136FF
330
747D
100
AcDbEntity
  8
部品1
100
AcDbLine
 10
12955.14422886714
 20
2288.112805903256
 30
0.0
 11
12947.64422886715
 21
2288.112805903256
 31
0.0
  0
ARC
  5
13700
330
747D
100
AcDbEntity
  8
部品1
 48
50.0
100
AcDbCircle
 10
12912.64422886714
 20
2328.112805903256
 30
0.0
 40
5.0
100
AcDbArc
 50
90.00000000000074
 51
180.0000000000014
  0
LINE
  5
13701
330
747D
100
AcDbEntity
  8
部品1
100
AcDbLine
 10
12942.64422886715
 20
2333.112805903257
 30
0.0
 11
12912.64422886714
 21
2333.112805903256
 31
0.0
  0
ARC
  5
13702
330
747D
100
AcDbEntity
  8
部品1
 48
50.0
100
AcDbCircle
 10
12942.64422886715
 20
2328.112805903257
 30
0.0
 40
5.0
100
AcDbArc
 50
359.9999999999986
 51
90.00000000000062
  0
LINE
  5
13703
330
747D
100
AcDbEntity
  8
部品1
100
AcDbLine
 10
12947.64422886714
 20
2288.112805903256
 30
0.0
 11
12955.14422886714
 21
2288.112805903256
 31
0.0
  0
LINE
  5
13704
330
747D
100
AcDbEntity
  8
部品1
100
AcDbLine
 10
11165.14422886715
 20
4428.112805903256
 30
0.0
 11
12955.14422886714
 21
4428.112805903256
 31
0.0
  0
LINE
  5
1388D
330
747D
100
AcDbEntity
  8
部品1
 48
50.0
100
AcDbLine
 10
5788.904400172469
 20
9278.50760660903
 30
0.0
 11
5760.90440017247
 21
9306.507606609029
 31
0.0
  0
LINE
  5
1388E
330
747D
100
AcDbEntity
  8
部品1
100
AcDbLine
 10
5760.90440017247
 20
9278.50760660903
 30
0.0
 11
5760.90440017247
 21
9306.507606609031
 31
0.0
  0
LINE
  5
1388F
330
747D
100
AcDbEntity
  8
部品1
100
AcDbLine
 10
5816.904400172468
 20
9278.50760660903
 30
0.0
 11
5816.904400172468
 21
9306.507606609024
 31
0.0
  0
LINE
  5
13890
330
747D
100
AcDbEntity
  8
部品1
100
AcDbLine
 10
5760.90440017247
 20
9278.50760660903
 30
0.0
 11
5788.904400172469
 21
9278.50760660903
 31
0.0
  0
TEXT
  5
13EEF
330
747D
100
AcDbEntity
  8
部品1
100
AcDbText
 10
11777.85499717653
 20
1460.284935939622
 30
0.0
 40
135.0
  1
側面図
  7
STYLE2
100
AcDbText
  0
LWPOLYLINE
  5
13EF0
330
747D
100
AcDbEntity
  8
部品1
100
AcDbPolyline
 90
        4
 70
     1
 43
0.0
 10
11688.40889575293
 20
1653.178465158146
 10
11688.40889575293
 20
1413.286143612614
 10
12451.87956198136
 20
1413.286143612614
 10
12451.87956198136
 20
1653.178465158146
  0
LINE
  5
13F74
330
747D
100
AcDbEntity
  8
仕様書枠
 48
50.0
100
AcDbLine
 10
16307.19999999998
 20
8179.599999999998
 30
0.0
 11
16307.2
 21
11409.6
 31
0.0
  0
TEXT
  5
14142
330
747D
100
AcDbEntity
  8
文字
 62
     7
 48
50.0
100
AcDbText
 10
14505.34213575793
 20
483.896712991141
 30
0.0
 40
160.0
  1
ＮＸＰ－６４ＨＤ
  7
STYLE2
100
AcDbText
  0
LWPOLYLINE
  5
14143
330
747D
100
AcDbEntity
  8
部品1
100
AcDbPolyline
 90
        4
 70
     1
 43
0.0
 10
5407.169064814677
 20
1653.178465158146
 10
5407.169064814677
 20
1413.286143612614
 10
6170.639731043118
 20
1413.286143612614
 10
6170.639731043118
 20
1653.178465158146
  0
TEXT
  5
14144
330
747D
100
AcDbEntity
  8
部品1
100
AcDbText
 10
5497.694468552634
 20
1460.284935939622
 30
0.0
 40
135.0
  1
正面図
  7
STYLE2
100
AcDbText
  0
TEXT
  5
14145
330
747D
100
AcDbEntity
  8
部品1
100
AcDbText
 10
5497.088674643734
 20
5711.902613694689
 30
0.0
 40
135.0
  1
平面図
  7
STYLE2
100
AcDbText
  0
LWPOLYLINE
  5
14146
330
747D
100
AcDbEntity
  8
部品1
100
AcDbPolyline
 90
        4
 70
     1
 43
0.0
 10
5407.169064814691
 20
5904.796142913212
 10
5407.169064814691
 20
5664.90382136768
 10
6170.639731043134
 20
5664.90382136768
 10
6170.639731043134
 20
5904.796142913212
  0
DIMENSION
  5
171E6
330
747D
100
AcDbEntity
  8
寸法
 48
50.0
100
AcDbDimension
  2
*D29
 10
3998.904397928898
 20
4875.6543911615
 30
0.0
 11
5788.9043979289
 21
4875.6543911615
 31
0.0
 70
   160
  1
柱外寸法<>
 71
     5
 42
3580.000000000005
  3
INABA_S40G
100
AcDbAlignedDimension
 13
7578.904397928903
 23
4663.112805903258
 33
0.0
 14
3998.904397928898
 24
4663.112805903264
 34
0.0
100
AcDbRotatedDimension
  0
DIMENSION
  5
171E7
330
747D
100
AcDbEntity
  8
寸法
 48
50.0
100
AcDbDimension
  2
*D28
 10
7578.904397928903
 20
4875.654391161499
 30
0.0
 11
7934.951642023391
 21
4875.654391161499
 31
0.0
 70
   160
 71
     5
 42
50.0
  3
INABA_S40G
100
AcDbAlignedDimension
 13
7628.904397928903
 23
4663.112805903258
 33
0.0
 14
7578.904397928903
 24
4663.112805903259
 34
0.0
100
AcDbRotatedDimension
  0
DIMENSION
  5
171E8
330
747D
100
AcDbEntity
  8
寸法
 48
50.0
100
AcDbDimension
  2
*D27
 10
7628.904397928903
 20
5096.559691635249
 30
0.0
 11
5788.9043979289
 21
5096.559691635249
 31
0.0
 70
   160
 71
     5
 42
3680.000000000005
  3
INABA_S40G
100
AcDbAlignedDimension
 13
3948.904397928898
 23
4663.112805903263
 33
0.0
 14
7628.904397928903
 24
4663.112805903258
 34
0.0
100
AcDbRotatedDimension
  0
ARC
  5
171E9
330
747D
100
AcDbEntity
  8
部品1
100
AcDbCircle
 10
7621.49597682247
 20
4656.112805903258
 30
0.0
 40
7.0
100
AcDbArc
 50
356.7526572096623
 51
90.0
  0
ARC
  5
171EA
330
747D
100
AcDbEntity
  8
部品1
100
AcDbCircle
 10
7608.280653361434
 20
4529.11280590326
 30
0.0
 40
7.0
100
AcDbArc
 50
270.0
 51
356.7526572096623
  0
ARC
  5
171EB
330
747D
100
AcDbEntity
  8
部品1
 48
50.0
100
AcDbCircle
 10
7626.652463572114
 20
4635.779805064945
 30
0.0
 40
0.7
100
AcDbArc
 50
277.6581272073639
 51
356.7526572096103
  0
ARC
  5
171EC
330
747D
100
AcDbEntity
  8
部品1
 48
50.0
100
AcDbCircle
 10
7618.416433047271
 20
4543.579805064941
 30
0.0
 40
0.7
100
AcDbArc
 50
277.6581272073639
 51
356.7526572097143
  0
ARC
  5
171ED
330
747D
100
AcDbEntity
  8
部品1
 48
50.0
100
AcDbCircle
 10
7618.909502155831
 20
4539.912805903258
 30
0.0
 40
3.0
100
AcDbArc
 50
97.6581272073639
 51
176.7526572096623
  0
ARC
  5
171EE
330
747D
100
AcDbEntity
  8
部品1
 48
50.0
100
AcDbCircle
 10
7627.145532680676
 20
4632.11280590326
 30
0.0
 40
3.0
100
AcDbArc
 50
97.65812720736477
 51
176.7526572096623
  0
LINE
  5
171EF
330
747D
100
AcDbEntity
  8
部品1
100
AcDbLine
 10
7624.150349784489
 20
4632.282745358361
 30
0.0
 11
7619.11530905638
 21
4543.540152525419
 31
0.0
  0
LINE
  5
171F0
330
747D
100
AcDbEntity
  8
部品1
100
AcDbLine
 10
7615.914319259646
 20
4540.082745358359
 30
0.0
 11
7615.269413452534
 21
4528.71628050802
 31
0.0
  0
LINE
  5
171F1
330
747D
100
AcDbEntity
  8
細線
 48
50.0
100
AcDbLine
 10
7595.904397928904
 20
4663.112805903258
 30
0.0
 11
7595.904397928904
 21
4522.112805903257
 31
0.0
  0
LINE
  5
171F2
330
747D
100
AcDbEntity
  8
部品1
100
AcDbLine
 10
7628.484736913567
 20
4655.716280508019
 30
0.0
 11
7627.351339581221
 21
4635.740152525419
 31
0.0
  0
LINE
  5
171F3
330
747D
100
AcDbEntity
  8
部品1
 48
50.0
100
AcDbLine
 10
7608.280653361434
 20
4522.11280590326
 30
0.0
 11
3969.528142496363
 21
4522.11280590326
 31
0.0
  0
LINE
  5
171F4
330
747D
100
AcDbEntity
  8
細線
 48
50.0
100
AcDbLine
 10
7618.509716392519
 20
4542.886048466775
 30
0.0
 11
3959.299079464505
 21
4542.886048467207
 31
0.0
  0
LINE
  5
171F5
330
747D
100
AcDbEntity
  8
細線
 48
50.0
100
AcDbLine
 10
7626.745746917329
 20
4635.086048466774
 30
0.0
 11
3951.063048939673
 21
4635.086048467207
 31
0.0
  0
LINE
  5
171F6
330
747D
100
AcDbEntity
  8
部品1
 48
50.0
100
AcDbLine
 10
7621.49597682247
 20
4663.112805903258
 30
0.0
 11
3956.312819035328
 21
4663.112805903256
 31
0.0
  0
DIMENSION
  5
1723A
330
747D
100
AcDbEntity
  8
寸法
 48
50.0
100
AcDbDimension
  2
*D30
 10
3948.904397928898
 20
4875.654391161502
 30
0.0
 11
3642.857153834409
 21
4875.654391161502
 31
0.0
 70
   160
 71
     5
 42
50.0
  3
INABA_S40G
100
AcDbAlignedDimension
 13
3998.904397928898
 23
4663.112805903264
 33
0.0
 14
3948.904397928898
 24
4663.112805903263
 34
0.0
100
AcDbRotatedDimension
1001
ACAD
1000
DSTYLE
1002
{
1002
}
  0
LINE
  5
1723B
330
747D
100
AcDbEntity
  8
部品1
100
AcDbLine
 10
3949.324058944228
 20
4655.716280508022
 30
0.0
 11
3950.457456276578
 21
4635.74015252542
 31
0.0
  0
LINE
  5
1723C
330
747D
100
AcDbEntity
  8
部品1
100
AcDbLine
 10
3961.894476598155
 20
4540.082745358364
 30
0.0
 11
3962.539382405263
 21
4528.716280508024
 31
0.0
  0
LINE
  5
1723D
330
747D
100
AcDbEntity
  8
部品1
100
AcDbLine
 10
3953.658446073307
 20
4632.282745358364
 30
0.0
 11
3958.693486801418
 21
4543.540152525421
 31
0.0
  0
ARC
  5
1723E
330
747D
100
AcDbEntity
  8
部品1
 48
50.0
100
AcDbCircle
 10
3950.663263177121
 20
4632.112805903261
 30
0.0
 40
3.0
100
AcDbArc
 50
3.247342790337682
 51
82.34187279263521
  0
ARC
  5
1723F
330
747D
100
AcDbEntity
  8
部品1
 48
50.0
100
AcDbCircle
 10
3958.899293701965
 20
4539.912805903258
 30
0.0
 40
3.0
100
AcDbArc
 50
3.247342790337682
 51
82.34187279263609
  0
ARC
  5
17240
330
747D
100
AcDbEntity
  8
部品1
 48
50.0
100
AcDbCircle
 10
3959.392362810527
 20
4543.579805064943
 30
0.0
 40
0.7
100
AcDbArc
 50
183.2473427902856
 51
262.3418727926361
  0
ARC
  5
17241
330
747D
100
AcDbEntity
  8
部品1
 48
50.0
100
AcDbCircle
 10
3951.156332285686
 20
4635.779805064948
 30
0.0
 40
0.7
100
AcDbArc
 50
183.2473427903897
 51
262.3418727926361
  0
ARC
  5
17242
330
747D
100
AcDbEntity
  8
部品1
100
AcDbCircle
 10
3969.528142496363
 20
4529.112805903261
 30
0.0
 40
7.0
100
AcDbArc
 50
183.2473427903377
 51
270.0
  0
ARC
  5
17243
330
747D
100
AcDbEntity
  8
部品1
100
AcDbCircle
 10
3956.312819035328
 20
4656.112805903261
 30
0.0
 40
7.0
100
AcDbArc
 50
90.0
 51
183.2473427903377
  0
LINE
  5
17244
330
747D
100
AcDbEntity
  8
細線
 48
50.0
100
AcDbLine
 10
3981.904397928898
 20
4663.112805903261
 30
0.0
 11
3981.904397928898
 21
4522.112805903261
 31
0.0
  0
LINE
  5
1730E
330
747D
100
AcDbEntity
  8
細線
 48
50.0
100
AcDbLine
 10
7181.404397928902
 20
4428.112805903256
 30
0.0
 11
7181.404397928904
 21
2338.112805903256
 31
0.0
  0
LINE
  5
1730F
330
747D
100
AcDbEntity
  8
細線
 48
50.0
100
AcDbLine
 10
7166.404397928904
 20
4428.112805903256
 30
0.0
 11
7166.404397928904
 21
2338.112805903256
 31
0.0
  0
LINE
  5
17310
330
747D
100
AcDbEntity
  8
細線
 48
50.0
100
AcDbLine
 10
7306.404397928902
 20
4428.112805903256
 30
0.0
 11
7306.404397928904
 21
2338.112805903256
 31
0.0
  0
LINE
  5
17311
330
747D
100
AcDbEntity
  8
細線
 48
50.0
100
AcDbLine
 10
7321.404397928901
 20
4428.112805903256
 30
0.0
 11
7321.404397928903
 21
2338.112805903256
 31
0.0
  0
LINE
  5
17312
330
747D
100
AcDbEntity
  8
細線
 48
50.0
100
AcDbLine
 10
7461.404397928902
 20
4428.112805903256
 30
0.0
 11
7461.404397928902
 21
2338.112805903256
 31
0.0
  0
LINE
  5
17313
330
747D
100
AcDbEntity
  8
細線
 48
50.0
100
AcDbLine
 10
7446.404397928901
 20
4428.112805903256
 30
0.0
 11
7446.404397928903
 21
2338.112805903256
 31
0.0
  0
LINE
  5
17314
330
747D
100
AcDbEntity
  8
細線
 48
50.0
100
AcDbLine
 10
6761.404397928902
 20
4428.112805903256
 30
0.0
 11
6761.404397928902
 21
2338.112805903256
 31
0.0
  0
LINE
  5
17315
330
747D
100
AcDbEntity
  8
細線
 48
50.0
100
AcDbLine
 10
6746.404397928903
 20
4428.112805903256
 30
0.0
 11
6746.404397928903
 21
2338.112805903256
 31
0.0
  0
LINE
  5
17316
330
747D
100
AcDbEntity
  8
細線
 48
50.0
100
AcDbLine
 10
6886.404397928902
 20
4428.112805903256
 30
0.0
 11
6886.404397928902
 21
2338.112805903256
 31
0.0
  0
LINE
  5
17317
330
747D
100
AcDbEntity
  8
細線
 48
50.0
100
AcDbLine
 10
6901.404397928901
 20
4428.112805903256
 30
0.0
 11
6901.404397928904
 21
2338.112805903256
 31
0.0
  0
LINE
  5
17318
330
747D
100
AcDbEntity
  8
細線
 48
50.0
100
AcDbLine
 10
7041.404397928904
 20
4428.112805903256
 30
0.0
 11
7041.404397928904
 21
2338.112805903256
 31
0.0
  0
LINE
  5
17319
330
747D
100
AcDbEntity
  8
細線
 48
50.0
100
AcDbLine
 10
7026.404397928901
 20
4428.112805903256
 30
0.0
 11
7026.404397928904
 21
2338.112805903256
 31
0.0
  0
LINE
  5
1731A
330
747D
100
AcDbEntity
  8
細線
 48
50.0
100
AcDbLine
 10
6606.404397928902
 20
4428.112805903256
 30
0.0
 11
6606.404397928904
 21
2338.112805903256
 31
0.0
  0
LINE
  5
1731B
330
747D
100
AcDbEntity
  8
細線
 48
50.0
100
AcDbLine
 10
6621.404397928903
 20
4428.112805903256
 30
0.0
 11
6621.404397928903
 21
2338.112805903256
 31
0.0
  0
LINE
  5
1731C
330
747D
100
AcDbEntity
  8
細線
 48
50.0
100
AcDbLine
 10
6481.404397928902
 20
4428.112805903256
 30
0.0
 11
6481.404397928904
 21
2338.112805903256
 31
0.0
  0
LINE
  5
1731D
330
747D
100
AcDbEntity
  8
細線
 48
50.0
100
AcDbLine
 10
6466.404397928903
 20
4428.112805903256
 30
0.0
 11
6466.404397928903
 21
2338.112805903256
 31
0.0
  0
LINE
  5
1731E
330
747D
100
AcDbEntity
  8
細線
 48
50.0
100
AcDbLine
 10
6326.404397928903
 20
4428.112805903256
 30
0.0
 11
6326.404397928904
 21
2338.112805903256
 31
0.0
  0
LINE
  5
1731F
330
747D
100
AcDbEntity
  8
細線
 48
50.0
100
AcDbLine
 10
6341.404397928902
 20
4428.112805903256
 30
0.0
 11
6341.404397928904
 21
2338.112805903256
 31
0.0
  0
LINE
  5
17320
330
747D
100
AcDbEntity
  8
細線
 48
50.0
100
AcDbLine
 10
5921.404397928903
 20
4428.112805903256
 30
0.0
 11
5921.404397928903
 21
2338.112805903256
 31
0.0
  0
LINE
  5
17321
330
747D
100
AcDbEntity
  8
細線
 48
50.0
100
AcDbLine
 10
5906.404397928902
 20
4428.112805903256
 30
0.0
 11
5906.404397928904
 21
2338.112805903256
 31
0.0
  0
LINE
  5
17322
330
747D
100
AcDbEntity
  8
細線
 48
50.0
100
AcDbLine
 10
6046.404397928903
 20
4428.112805903256
 30
0.0
 11
6046.404397928903
 21
2338.112805903256
 31
0.0
  0
LINE
  5
17323
330
747D
100
AcDbEntity
  8
細線
 48
50.0
100
AcDbLine
 10
6061.404397928903
 20
4428.112805903256
 30
0.0
 11
6061.404397928903
 21
2338.112805903256
 31
0.0
  0
LINE
  5
17324
330
747D
100
AcDbEntity
  8
細線
 48
50.0
100
AcDbLine
 10
6201.404397928903
 20
4428.112805903256
 30
0.0
 11
6201.404397928904
 21
2338.112805903256
 31
0.0
  0
LINE
  5
17325
330
747D
100
AcDbEntity
  8
細線
 48
50.0
100
AcDbLine
 10
6186.404397928903
 20
4428.112805903256
 30
0.0
 11
6186.404397928903
 21
2338.112805903256
 31
0.0
  0
LINE
  5
17326
330
747D
100
AcDbEntity
  8
細線
 48
50.0
100
AcDbLine
 10
12557.64422886715
 20
4428.112805903256
 30
0.0
 11
12557.64422886715
 21
2338.112805903256
 31
0.0
  0
LINE
  5
17327
330
747D
100
AcDbEntity
  8
細線
 48
50.0
100
AcDbLine
 10
12542.64422886715
 20
4428.112805903256
 30
0.0
 11
12542.64422886715
 21
2338.112805903256
 31
0.0
  0
LINE
  5
17328
330
747D
100
AcDbEntity
  8
細線
 48
50.0
100
AcDbLine
 10
12682.64422886715
 20
4428.112805903256
 30
0.0
 11
12682.64422886715
 21
2338.112805903256
 31
0.0
  0
LINE
  5
17329
330
747D
100
AcDbEntity
  8
細線
 48
50.0
100
AcDbLine
 10
12697.64422886715
 20
4428.112805903256
 30
0.0
 11
12697.64422886715
 21
2338.112805903256
 31
0.0
  0
LINE
  5
1732A
330
747D
100
AcDbEntity
  8
細線
 48
50.0
100
AcDbLine
 10
12837.64422886715
 20
4428.112805903256
 30
0.0
 11
12837.64422886715
 21
2338.112805903256
 31
0.0
  0
LINE
  5
1732B
330
747D
100
AcDbEntity
  8
細線
 48
50.0
100
AcDbLine
 10
12822.64422886715
 20
4428.112805903256
 30
0.0
 11
12822.64422886715
 21
2338.112805903256
 31
0.0
  0
LINE
  5
1732C
330
747D
100
AcDbEntity
  8
細線
 48
50.0
100
AcDbLine
 10
12137.64422886715
 20
4428.112805903256
 30
0.0
 11
12137.64422886715
 21
2338.112805903256
 31
0.0
  0
LINE
  5
1732D
330
747D
100
AcDbEntity
  8
細線
 48
50.0
100
AcDbLine
 10
12122.64422886715
 20
4428.112805903256
 30
0.0
 11
12122.64422886715
 21
2338.112805903256
 31
0.0
  0
LINE
  5
1732E
330
747D
100
AcDbEntity
  8
細線
 48
50.0
100
AcDbLine
 10
12262.64422886715
 20
4428.112805903256
 30
0.0
 11
12262.64422886715
 21
2338.112805903256
 31
0.0
  0
LINE
  5
1732F
330
747D
100
AcDbEntity
  8
細線
 48
50.0
100
AcDbLine
 10
12277.64422886715
 20
4428.112805903256
 30
0.0
 11
12277.64422886715
 21
2338.112805903256
 31
0.0
  0
LINE
  5
17330
330
747D
100
AcDbEntity
  8
細線
 48
50.0
100
AcDbLine
 10
12417.64422886715
 20
4428.112805903256
 30
0.0
 11
12417.64422886715
 21
2338.112805903256
 31
0.0
  0
LINE
  5
17331
330
747D
100
AcDbEntity
  8
細線
 48
50.0
100
AcDbLine
 10
12402.64422886715
 20
4428.112805903256
 30
0.0
 11
12402.64422886715
 21
2338.112805903256
 31
0.0
  0
LINE
  5
17332
330
747D
100
AcDbEntity
  8
細線
 48
50.0
100
AcDbLine
 10
11982.64422886715
 20
4428.112805903256
 30
0.0
 11
11982.64422886715
 21
2338.112805903256
 31
0.0
  0
LINE
  5
17333
330
747D
100
AcDbEntity
  8
細線
 48
50.0
100
AcDbLine
 10
11997.64422886715
 20
4428.112805903256
 30
0.0
 11
11997.64422886715
 21
2338.112805903256
 31
0.0
  0
LINE
  5
17334
330
747D
100
AcDbEntity
  8
細線
 48
50.0
100
AcDbLine
 10
11857.64422886715
 20
4428.112805903256
 30
0.0
 11
11857.64422886715
 21
2338.112805903256
 31
0.0
  0
LINE
  5
17335
330
747D
100
AcDbEntity
  8
細線
 48
50.0
100
AcDbLine
 10
11842.64422886715
 20
4428.112805903256
 30
0.0
 11
11842.64422886715
 21
2338.112805903256
 31
0.0
  0
LINE
  5
17336
330
747D
100
AcDbEntity
  8
細線
 48
50.0
100
AcDbLine
 10
11702.64422886715
 20
4428.112805903256
 30
0.0
 11
11702.64422886715
 21
2338.112805903256
 31
0.0
  0
LINE
  5
17337
330
747D
100
AcDbEntity
  8
細線
 48
50.0
100
AcDbLine
 10
11717.64422886715
 20
4428.112805903256
 30
0.0
 11
11717.64422886715
 21
2338.112805903256
 31
0.0
  0
LINE
  5
17338
330
747D
100
AcDbEntity
  8
細線
 48
50.0
100
AcDbLine
 10
11562.64422886715
 20
4428.112805903256
 30
0.0
 11
11562.64422886715
 21
2338.112805903256
 31
0.0
  0
LINE
  5
17339
330
747D
100
AcDbEntity
  8
細線
 48
50.0
100
AcDbLine
 10
11577.64422886715
 20
4428.112805903256
 30
0.0
 11
11577.64422886715
 21
2338.112805903256
 31
0.0
  0
LINE
  5
1733A
330
747D
100
AcDbEntity
  8
細線
 48
50.0
100
AcDbLine
 10
11437.64422886715
 20
4428.112805903256
 30
0.0
 11
11437.64422886715
 21
2338.112805903256
 31
0.0
  0
LINE
  5
1733B
330
747D
100
AcDbEntity
  8
細線
 48
50.0
100
AcDbLine
 10
11422.64422886715
 20
4428.112805903256
 30
0.0
 11
11422.64422886715
 21
2338.112805903256
 31
0.0
  0
LINE
  5
1733C
330
747D
100
AcDbEntity
  8
細線
 48
50.0
100
AcDbLine
 10
11282.64422886715
 20
4428.112805903256
 30
0.0
 11
11282.64422886715
 21
2338.112805903256
 31
0.0
  0
LINE
  5
1733D
330
747D
100
AcDbEntity
  8
細線
 48
50.0
100
AcDbLine
 10
11297.64422886715
 20
4428.112805903256
 30
0.0
 11
11297.64422886715
 21
2338.112805903256
 31
0.0
  0
DIMENSION
  5
1733E
330
747D
100
AcDbEntity
  8
寸法
 48
50.0
100
AcDbDimension
  2
*D34
 10
13035.14422886715
 20
5061.77025948256
 30
0.0
 11
13241.19147296164
 21
5061.77025948256
 31
0.0
 70
   160
 71
     5
 42
80.0
  3
INABA_S40G
100
AcDbAlignedDimension
 13
12955.14422886715
 23
4609.923485514911
 33
0.0
 14
13035.14422886715
 24
4608.112805903257
 34
0.0
100
AcDbRotatedDimension
1001
ACAD
1000
DSTYLE
1002
{
1070
   174
1070
     0
1070
   272
1070
     1
1070
   288
1070
     0
1070
   341
1005
0
1002
}
  0
DIMENSION
  5
1733F
330
747D
100
AcDbEntity
  8
寸法
 48
50.0
100
AcDbDimension
  2
*D33
 10
11105.14422886715
 20
5278.732074861174
 30
0.0
 11
12010.94998011811
 21
5278.732074861174
 31
0.0
 70
   160
 71
     5
 42
1930.0
  3
INABA_S40G
100
AcDbAlignedDimension
 13
13035.14422886715
 23
4608.112805903257
 33
0.0
 14
11105.14422886715
 24
4663.112805903261
 34
0.0
100
AcDbRotatedDimension
1001
ACAD
1000
DSTYLE
1002
{
1070
   174
1070
     0
1070
   272
1070
     1
1070
   288
1070
     0
1070
   341
1005
0
1002
}
  0
DIMENSION
  5
17340
330
747D
100
AcDbEntity
  8
寸法
 48
50.0
100
AcDbDimension
  2
*D31
 10
11165.14422886715
 20
5062.205975242728
 30
0.0
 11
12074.73987754363
 21
5062.205975242728
 31
0.0
 70
   160
  1
柱外寸法<>
 71
     5
 42
1790.0
  3
INABA_S40G
100
AcDbAlignedDimension
 13
12955.14422886715
 23
4609.923485514911
 33
0.0
 14
11165.14422886715
 24
4659.114424026233
 34
0.0
100
AcDbRotatedDimension
1001
ACAD
1000
DSTYLE
1002
{
1070
   174
1070
     0
1070
   272
1070
     1
1070
   288
1070
     0
1070
   341
1005
0
1002
}
  0
DIMENSION
  5
17341
330
747D
100
AcDbEntity
  8
寸法
 48
50.0
100
AcDbDimension
  2
*D32
 10
11105.14422886715
 20
5061.77025948256
 30
0.0
 11
10795.50643359155
 21
5061.77025948256
 31
0.0
 70
   160
 71
     5
 42
60.0
  3
INABA_S40G
100
AcDbAlignedDimension
 13
11165.14422886715
 23
4659.114424026233
 33
0.0
 14
11105.14422886715
 24
4663.112805903261
 34
0.0
100
AcDbRotatedDimension
1001
ACAD
1000
DSTYLE
1002
{
1070
   174
1070
     0
1070
   272
1070
     1
1070
   288
1070
     0
1070
   341
1005
0
1002
}
  0
DIMENSION
  5
17342
330
747D
100
AcDbEntity
  8
寸法
 48
50.0
100
AcDbDimension
  2
*D35
 10
10544.5358220988
 20
4537.458064776563
 30
0.0
 11
10555.20129735771
 21
4908.304728018279
 31
0.0
 70
   161
 71
     5
 42
141.0000000000009
  3
INABA_S40G
100
AcDbAlignedDimension
 13
11124.54024902572
 23
4661.835554737936
 33
0.0
 14
11120.4867934691
 24
4520.893830972222
 34
0.0
1001
ACAD
1000
DSTYLE
1002
{
1070
   174
1070
     0
1070
   272
1070
     1
1070
   288
1070
     0
1070
   341
1005
0
1002
}
  0
LINE
  5
17343
330
747D
100
AcDbEntity
  8
部品1
 48
50.0
100
AcDbLine
 10
11910.14422886714
 20
4793.980945004536
 30
0.0
 11
12210.14422886714
 21
4777.780945004535
 31
0.0
  0
TEXT
  5
17344
330
747D
100
AcDbEntity
  8
部品1
 48
50.0
100
AcDbText
 10
12387.237076155
 20
4692.363708938685
 30
0.0
 40
120.0
  1
54
 50
90.0
  7
STYLE1
100
AcDbText
  0
LINE
  5
17345
330
747D
100
AcDbEntity
  8
部品1
 48
50.0
100
AcDbLine
 10
12210.14422886714
 20
4793.980945004536
 30
0.0
 11
12210.14422886714
 21
4777.780945004535
 31
0.0
  0
LINE
  5
17346
330
747D
100
AcDbEntity
  8
部品1
 48
50.0
100
AcDbLine
 10
11910.14422886714
 20
4793.980945004536
 30
0.0
 11
12210.14422886714
 21
4793.980945004536
 31
0.0
  0
ARC
  5
17347
330
747D
100
AcDbEntity
  8
部品1
100
AcDbCircle
 10
13020.77176468108
 20
4502.136563169048
 30
0.0
 40
0.7
100
AcDbArc
 50
275.0921697642102
 51
354.1866997667087
  0
ARC
  5
17348
330
747D
100
AcDbEntity
  8
部品1
100
AcDbCircle
 10
13031.6311104304
 20
4579.179817986972
 30
0.0
 40
0.7
100
AcDbArc
 50
275.0921697642102
 51
354.1866997665532
  0
ARC
  5
17349
330
747D
100
AcDbEntity
  8
部品1
100
AcDbCircle
 10
13031.959515673
 20
4575.494421129882
 30
0.0
 40
3.0
100
AcDbArc
 50
95.09216976441955
 51
174.1866997665532
  0
ARC
  5
1734A
330
747D
100
AcDbEntity
  8
部品1
100
AcDbCircle
 10
13021.10016992368
 20
4498.451166311958
 30
0.0
 40
3.0
100
AcDbArc
 50
95.0921697642102
 51
174.1866997665532
  0
ARC
  5
1734B
330
747D
100
AcDbEntity
  8
部品1
 48
50.0
100
AcDbCircle
 10
13010.07203464858
 20
4488.860421708077
 30
0.0
 40
7.0
100
AcDbArc
 50
267.8377559871574
 51
354.1866997665532
  0
ARC
  5
1734C
330
747D
100
AcDbEntity
  8
部品1
 48
50.0
100
AcDbCircle
 10
13027.39413111309
 20
4599.762968850249
 30
0.0
 40
7.0
100
AcDbArc
 50
354.1866997665532
 51
87.03587545303976
  0
LINE
  5
1734D
330
747D
100
AcDbEntity
  8
部品1
 48
50.0
100
AcDbLine
 10
13018.11559825307
 20
4498.755028028861
 30
0.0
 11
13017.03603521333
 21
4488.151411035302
 31
0.0
  0
LINE
  5
1734E
330
747D
100
AcDbEntity
  8
部品1
 48
50.0
100
AcDbLine
 10
13028.97494400239
 20
4575.798282846785
 30
0.0
 11
13021.46816473756
 21
4502.065662101773
 31
0.0
  0
LINE
  5
1734F
330
747D
100
AcDbEntity
  8
部品1
 48
50.0
100
AcDbLine
 10
13034.35813167785
 20
4599.053958177473
 30
0.0
 11
13032.32751048687
 21
4579.108916919695
 31
0.0
  0
ARC
  5
17350
330
747D
100
AcDbEntity
  8
部品1
100
AcDbCircle
 10
11111.18132073851
 20
4541.92696486216
 30
0.0
 40
0.7
100
AcDbArc
 50
181.0932240292114
 51
260.1877540314855
  0
ARC
  5
17351
330
747D
100
AcDbEntity
  8
部品1
100
AcDbCircle
 10
11106.4086471409
 20
4634.79274306228
 30
0.0
 40
0.7
100
AcDbArc
 50
181.0932240292114
 51
260.1877540314855
  0
ARC
  5
17352
330
747D
100
AcDbEntity
  8
部品1
100
AcDbCircle
 10
11105.77809273788
 20
4631.146868524882
 30
0.0
 40
3.0
100
AcDbArc
 50
1.093224029263535
 51
80.18775403148559
  0
ARC
  5
17353
330
747D
100
AcDbEntity
  8
部品1
100
AcDbCircle
 10
11110.55076633548
 20
4538.281090324763
 30
0.0
 40
3.0
100
AcDbArc
 50
1.093224029263535
 51
80.18775403148559
  0
ARC
  5
17354
330
747D
100
AcDbEntity
  8
部品1
 48
50.0
100
AcDbCircle
 10
11120.75089871069
 20
4527.888846942281
 30
0.0
 40
7.0
100
AcDbArc
 50
181.0932240292635
 51
267.8377559871574
  0
ARC
  5
17355
330
747D
100
AcDbEntity
  8
部品1
 48
50.0
100
AcDbCircle
 10
11112.32724060859
 20
4654.839906475376
 30
0.0
 40
7.0
100
AcDbArc
 50
87.03587545303976
 51
181.0932240292635
  0
LINE
  5
17356
330
747D
100
AcDbEntity
  8
部品1
 48
50.0
100
AcDbLine
 10
11113.55022026192
 20
4538.338327927946
 30
0.0
 11
11113.75217288235
 21
4527.755292534854
 31
0.0
  0
LINE
  5
17357
330
747D
100
AcDbEntity
  8
細線
 48
50.0
100
AcDbLine
 10
11110.94412720524
 20
4541.268376046754
 30
0.0
 11
13020.94779163588
 21
4501.45905707226
 31
0.0
  0
LINE
  5
17358
330
747D
100
AcDbEntity
  8
細線
 48
50.0
100
AcDbLine
 10
11106.18365196796
 20
4634.129887744617
 30
0.0
 11
13031.81963671313
 21
4578.50568310379
 31
0.0
  0
LINE
  5
17359
330
747D
100
AcDbEntity
  8
部品1
 48
50.0
100
AcDbLine
 10
11108.77754666431
 20
4631.204106128065
 30
0.0
 11
11110.48144815568
 21
4541.913609421418
 31
0.0
  0
LINE
  5
1735A
330
747D
100
AcDbEntity
  8
部品1
 48
50.0
100
AcDbLine
 10
11105.32851478025
 20
4654.706352067949
 30
0.0
 11
11105.70877455806
 21
4634.779387621536
 31
0.0
  0
LINE
  5
1735B
330
747D
100
AcDbEntity
  8
細線
 48
50.0
100
AcDbLine
 10
13002.14422886714
 20
4608.079784938552
 30
0.0
 11
12997.39654597914
 21
4482.334012447807
 31
0.0
  0
LINE
  5
1735C
330
747D
100
AcDbEntity
  8
細線
 48
50.0
100
AcDbLine
 10
11138.14422886715
 20
4660.512482278661
 30
0.0
 11
11132.85512731164
 21
4520.426849651307
 31
0.0
  0
LINE
  5
1735D
330
747D
100
AcDbEntity
  8
部品1
100
AcDbLine
 10
11120.4867934691
 20
4520.893830972222
 30
0.0
 11
13009.80792940699
 21
4481.865405738018
 31
0.0
  0
LINE
  5
1735E
330
747D
100
AcDbEntity
  8
部品1
100
AcDbLine
 10
11112.68921522411
 20
4661.830541237523
 30
0.0
 11
13027.7561057286
 21
4606.753603612395
 31
0.0
  0
TEXT
  5
1735F
330
747D
100
AcDbEntity
  8
部品1
 48
50.0
100
AcDbText
 10
11898.41206409087
 20
4829.864967156969
 30
0.0
 40
120.0
  1
1000
  7
STYLE1
100
AcDbText
  0
DIMENSION
  5
173D1
330
747D
100
AcDbEntity
  8
寸法
100
AcDbDimension
  2
*D36
 10
10021.39409968389
 20
4663.112805903263
 30
0.0
 11
9921.382288660268
 21
3475.612805903261
 31
0.0
 70
    32
 71
     5
 42
2375.000000000007
  3
INABA_S40G
100
AcDbAlignedDimension
 13
11088.14422886714
 23
2288.112805903256
 33
0.0
 14
11105.14422886715
 24
4663.112805903262
 34
0.0
 50
90.0
100
AcDbRotatedDimension
1001
ACAD
1000
DSTYLE
1002
{
1070
   174
1070
     0
1070
   272
1070
     1
1070
   288
1070
     0
1070
   341
1005
0
1002
}
  0
LINE
  5
18066
330
747D
100
AcDbEntity
  8
破線
 48
10.0
100
AcDbLine
 10
4918.904397928899
 20
7571.507603031865
 30
0.0
 11
4918.904397928902
 21
9251.507603031866
 31
0.0
  0
LINE
  5
18067
330
747D
100
AcDbEntity
  8
破線
 48
10.0
100
AcDbLine
 10
4868.904397928908
 20
7571.507603031865
 30
0.0
 11
4868.904397928898
 21
9251.507603031866
 31
0.0
  0
LINE
  5
1806E
330
747D
100
AcDbEntity
  8
破線
 48
10.0
100
AcDbLine
 10
6658.904397928903
 20
7571.507603031863
 30
0.0
 11
6658.904397928896
 21
9251.507603031866
 31
0.0
  0
LINE
  5
1806F
330
747D
100
AcDbEntity
  8
破線
 48
10.0
100
AcDbLine
 10
6708.904397928896
 20
7571.507603031863
 30
0.0
 11
6708.904397928899
 21
9251.507603031866
 31
0.0
  0
LINE
  5
18070
330
747D
100
AcDbEntity
  8
破線
  6
HIDDEN
 48
10.0
100
AcDbLine
 10
5867.404397928898
 20
9228.007603031867
 30
0.0
 11
6658.904397928894
 21
9228.007603031857
 31
0.0
  0
LINE
  5
18073
330
747D
100
AcDbEntity
  8
破線
  6
HIDDEN
 48
10.0
100
AcDbLine
 10
5867.404397928898
 20
7595.007603031861
 30
0.0
 11
6658.904397928901
 21
7595.007603031856
 31
0.0
  0
LINE
  5
185D7
330
747D
100
AcDbEntity
  8
部品1
100
AcDbLine
 10
5778.904397928898
 20
4522.11280590326
 30
0.0
 11
5778.904397928896
 21
4663.112805903256
 31
0.0
  0
LINE
  5
18E46
330
747D
100
AcDbEntity
  8
部品1
100
AcDbLine
 10
7523.904397928898
 20
9251.507603031861
 30
0.0
 11
5843.904397928898
 21
9251.507603031859
 31
0.0
  0
LINE
  5
18E47
330
747D
100
AcDbEntity
  8
部品1
100
AcDbLine
 10
7550.904397928896
 20
8831.507603031862
 30
0.0
 11
7578.904397928898
 21
8831.507603031862
 31
0.0
  0
LINE
  5
18E48
330
747D
100
AcDbEntity
  8
部品1
100
AcDbLine
 10
7550.904397928896
 20
8411.507603031862
 30
0.0
 11
7578.904397928898
 21
8411.507603031862
 31
0.0
  0
LINE
  5
18E49
330
747D
100
AcDbEntity
  8
部品1
100
AcDbLine
 10
7550.904397928896
 20
7991.50760303186
 30
0.0
 11
7578.904397928898
 21
7991.50760303186
 31
0.0
  0
LINE
  5
18E4A
330
747D
100
AcDbEntity
  8
部品1
100
AcDbLine
 10
7523.904397928898
 20
7571.507603031858
 30
0.0
 11
5843.904397928898
 21
7571.507603031861
 31
0.0
  0
LINE
  5
1975E
330
747D
100
AcDbEntity
  8
破線
  6
HIDDEN
 48
10.0
100
AcDbLine
 10
6708.904397928897
 20
9228.007603031857
 30
0.0
 11
7500.404397928898
 21
9228.007603031846
 31
0.0
  0
LINE
  5
1975F
330
747D
100
AcDbEntity
  8
破線
  6
HIDDEN
 48
10.0
100
AcDbLine
 10
6708.904397928894
 20
7595.007603031856
 30
0.0
 11
7500.404397928898
 21
7595.007603031852
 31
0.0
  0
LINE
  5
1976C
330
747D
100
AcDbEntity
  8
部品1
100
AcDbLine
 10
4053.904397928903
 20
9251.507603031859
 30
0.0
 11
5733.904397928898
 21
9251.507603031866
 31
0.0
  0
LINE
  5
1976D
330
747D
100
AcDbEntity
  8
部品1
100
AcDbLine
 10
4026.904397928898
 20
8831.507603031857
 30
0.0
 11
3998.904397928898
 21
8831.507603031857
 31
0.0
  0
LINE
  5
1976E
330
747D
100
AcDbEntity
  8
部品1
100
AcDbLine
 10
4026.904397928897
 20
8411.507603031861
 30
0.0
 11
3998.904397928898
 21
8411.507603031857
 31
0.0
  0
LINE
  5
1976F
330
747D
100
AcDbEntity
  8
部品1
100
AcDbLine
 10
4026.904397928897
 20
7991.507603031859
 30
0.0
 11
3998.904397928898
 21
7991.507603031857
 31
0.0
  0
LINE
  5
19770
330
747D
100
AcDbEntity
  8
部品1
100
AcDbLine
 10
4053.904397928893
 20
7571.507603031858
 30
0.0
 11
5733.904397928898
 21
7571.507603031855
 31
0.0
  0
LINE
  5
19772
330
747D
100
AcDbEntity
  8
部品1
100
AcDbLine
 10
5733.9043979289
 20
7516.507603031858
 30
0.0
 11
5733.9043979289
 21
7544.507603031859
 31
0.0
  0
LINE
  5
19773
330
747D
100
AcDbEntity
  8
部品1
100
AcDbLine
 10
3998.9043979289
 20
7516.507603031858
 30
0.0
 11
4053.904397928899
 21
7516.507603031858
 31
0.0
  0
LINE
  5
19777
330
747D
100
AcDbEntity
  8
部品1
100
AcDbLine
 10
4053.904397928899
 20
7516.507603031858
 30
0.0
 11
4053.904397928899
 21
7544.507603031859
 31
0.0
  0
LINE
  5
19779
330
747D
100
AcDbEntity
  8
破線
  6
HIDDEN
 48
10.0
100
AcDbLine
 10
4918.904397928904
 20
9228.007603031871
 30
0.0
 11
5710.404397928898
 21
9228.007603031867
 31
0.0
  0
LINE
  5
1977A
330
747D
100
AcDbEntity
  8
破線
  6
HIDDEN
 48
10.0
100
AcDbLine
 10
4918.904397928898
 20
7595.007603031857
 30
0.0
 11
5710.404397928898
 21
7595.007603031856
 31
0.0
  0
ARC
  5
198B4
330
747D
100
AcDbEntity
  8
部品1
 48
0.01
100
AcDbCircle
 10
7065.9043979289
 20
4460.612805903256
 30
0.0
 40
2.0
100
AcDbArc
 50
180.0
 51
270.0
  0
ARC
  5
198B5
330
747D
100
AcDbEntity
  8
部品1
 48
0.01
100
AcDbCircle
 10
7065.9043979289
 20
4492.112805903256
 30
0.0
 40
2.0
100
AcDbArc
 50
90.0
 51
180.0
  0
ARC
  5
198B6
330
747D
100
AcDbEntity
  8
部品1
 48
0.01
100
AcDbCircle
 10
7241.904397928898
 20
4460.612805903256
 30
0.0
 40
2.0
100
AcDbArc
 50
270.0
 51
0.0
  0
ARC
  5
198B7
330
747D
100
AcDbEntity
  8
部品1
 48
0.01
100
AcDbCircle
 10
7241.904397928898
 20
4492.112805903256
 30
0.0
 40
2.0
100
AcDbArc
 50
0.0
 51
90.0
  0
LINE
  5
198B8
330
747D
100
AcDbEntity
  8
細線
100
AcDbLine
 10
7153.904397928901
 20
4464.612805903256
 30
0.0
 11
7079.904397928899
 21
4464.612805903256
 31
0.0
  0
LINE
  5
198B9
330
747D
100
AcDbEntity
  8
細線
100
AcDbLine
 10
7153.904397928899
 20
4487.612805903256
 30
0.0
 11
7227.904397928899
 21
4487.612805903256
 31
0.0
  0
LINE
  5
198BA
330
747D
100
AcDbEntity
  8
細線
100
AcDbLine
 10
7227.904397928899
 20
4464.612805903256
 30
0.0
 11
7153.904397928899
 21
4464.612805903256
 31
0.0
  0
LINE
  5
198BB
330
747D
100
AcDbEntity
  8
細線
100
AcDbLine
 10
7079.904397928899
 20
4487.612805903256
 30
0.0
 11
7153.904397928899
 21
4487.612805903256
 31
0.0
  0
LINE
  5
198BC
330
747D
100
AcDbEntity
  8
細線
100
AcDbLine
 10
7079.904397928899
 20
4464.612805903256
 30
0.0
 11
7079.904397928899
 21
4487.612805903256
 31
0.0
  0
LINE
  5
198BD
330
747D
100
AcDbEntity
  8
細線
100
AcDbLine
 10
7227.904397928899
 20
4487.612805903256
 30
0.0
 11
7227.904397928899
 21
4464.612805903256
 31
0.0
  0
LINE
  5
198BE
330
747D
100
AcDbEntity
  8
部品1
 48
0.01
100
AcDbLine
 10
7063.9043979289
 20
4460.612805903256
 30
0.0
 11
7063.904397928898
 21
4492.112805903256
 31
0.0
  0
LINE
  5
198BF
330
747D
100
AcDbEntity
  8
部品1
 48
0.01
100
AcDbLine
 10
7241.904397928898
 20
4458.612805903256
 30
0.0
 11
7065.9043979289
 21
4458.612805903256
 31
0.0
  0
LINE
  5
198C0
330
747D
100
AcDbEntity
  8
部品1
 48
0.01
100
AcDbLine
 10
7243.9043979289
 20
4492.112805903256
 30
0.0
 11
7243.9043979289
 21
4460.612805903256
 31
0.0
  0
LINE
  5
198C1
330
747D
100
AcDbEntity
  8
部品1
 48
0.01
100
AcDbLine
 10
7065.9043979289
 20
4494.112805903256
 30
0.0
 11
7241.904397928898
 21
4494.112805903256
 31
0.0
  0
LINE
  5
198C2
330
747D
100
AcDbEntity
  8
細線
100
AcDbLine
 10
7227.904397928899
 20
4481.612805903256
 30
0.0
 11
7153.904397928899
 21
4481.612805903256
 31
0.0
  0
LINE
  5
198C3
330
747D
100
AcDbEntity
  8
細線
100
AcDbLine
 10
7227.904397928899
 20
4475.612805903256
 30
0.0
 11
7153.904397928899
 21
4475.612805903256
 31
0.0
  0
LINE
  5
198C4
330
747D
100
AcDbEntity
  8
細線
100
AcDbLine
 10
7227.9043979289
 20
4469.612805903255
 30
0.0
 11
7153.904397928899
 21
4469.612805903255
 31
0.0
  0
LINE
  5
198C5
330
747D
100
AcDbEntity
  8
細線
100
AcDbLine
 10
7227.904397928899
 20
4481.612805903256
 30
0.0
 11
7158.904397928899
 21
4481.612805903256
 31
0.0
  0
LINE
  5
198C6
330
747D
100
AcDbEntity
  8
細線
100
AcDbLine
 10
7079.904397928899
 20
4481.612805903256
 30
0.0
 11
7153.904397928899
 21
4481.612805903256
 31
0.0
  0
LINE
  5
198C7
330
747D
100
AcDbEntity
  8
細線
100
AcDbLine
 10
7079.904397928899
 20
4469.612805903255
 30
0.0
 11
7153.904397928899
 21
4469.612805903255
 31
0.0
  0
LINE
  5
198C8
330
747D
100
AcDbEntity
  8
細線
100
AcDbLine
 10
7079.904397928899
 20
4475.612805903256
 30
0.0
 11
7153.904397928899
 21
4475.612805903256
 31
0.0
  0
LINE
  5
198C9
330
747D
100
AcDbEntity
  8
細線
100
AcDbLine
 10
7153.904397928899
 20
4487.612805903256
 30
0.0
 11
7153.904397928901
 21
4464.612805903256
 31
0.0
  0
LINE
  5
198CA
330
747D
100
AcDbEntity
  8
細線
100
AcDbLine
 10
6213.904397928899
 20
4487.612805903256
 30
0.0
 11
6213.904397928899
 21
4464.612805903256
 31
0.0
  0
LINE
  5
198CB
330
747D
100
AcDbEntity
  8
細線
100
AcDbLine
 10
6287.904397928897
 20
4475.612805903256
 30
0.0
 11
6213.904397928899
 21
4475.612805903256
 31
0.0
  0
LINE
  5
198CC
330
747D
100
AcDbEntity
  8
細線
100
AcDbLine
 10
6287.904397928897
 20
4469.612805903255
 30
0.0
 11
6213.904397928899
 21
4469.612805903255
 31
0.0
  0
LINE
  5
198CD
330
747D
100
AcDbEntity
  8
細線
100
AcDbLine
 10
6287.904397928897
 20
4481.612805903256
 30
0.0
 11
6213.904397928899
 21
4481.612805903256
 31
0.0
  0
LINE
  5
198CE
330
747D
100
AcDbEntity
  8
細線
100
AcDbLine
 10
6139.904397928899
 20
4481.612805903256
 30
0.0
 11
6208.9043979289
 21
4481.612805903256
 31
0.0
  0
LINE
  5
198CF
330
747D
100
AcDbEntity
  8
細線
100
AcDbLine
 10
6139.904397928898
 20
4469.612805903255
 30
0.0
 11
6213.904397928899
 21
4469.612805903255
 31
0.0
  0
LINE
  5
198D0
330
747D
100
AcDbEntity
  8
細線
100
AcDbLine
 10
6139.904397928899
 20
4475.612805903256
 30
0.0
 11
6213.904397928899
 21
4475.612805903256
 31
0.0
  0
LINE
  5
198D1
330
747D
100
AcDbEntity
  8
細線
100
AcDbLine
 10
6139.904397928899
 20
4481.612805903256
 30
0.0
 11
6213.904397928899
 21
4481.612805903256
 31
0.0
  0
LINE
  5
198D2
330
747D
100
AcDbEntity
  8
部品1
 48
0.01
100
AcDbLine
 10
6301.9043979289
 20
4494.112805903256
 30
0.0
 11
6125.904397928898
 21
4494.112805903256
 31
0.0
  0
LINE
  5
198D3
330
747D
100
AcDbEntity
  8
部品1
 48
0.01
100
AcDbLine
 10
6123.9043979289
 20
4492.112805903256
 30
0.0
 11
6123.9043979289
 21
4460.612805903256
 31
0.0
  0
LINE
  5
198D4
330
747D
100
AcDbEntity
  8
部品1
 48
0.01
100
AcDbLine
 10
6125.904397928898
 20
4458.612805903256
 30
0.0
 11
6301.904397928898
 21
4458.612805903256
 31
0.0
  0
LINE
  5
198D5
330
747D
100
AcDbEntity
  8
部品1
 48
0.01
100
AcDbLine
 10
6303.904397928898
 20
4460.612805903256
 30
0.0
 11
6303.904397928899
 21
4492.112805903256
 31
0.0
  0
LINE
  5
198D6
330
747D
100
AcDbEntity
  8
細線
100
AcDbLine
 10
6139.904397928899
 20
4487.612805903256
 30
0.0
 11
6139.904397928899
 21
4464.612805903256
 31
0.0
  0
LINE
  5
198D7
330
747D
100
AcDbEntity
  8
細線
100
AcDbLine
 10
6287.904397928899
 20
4464.612805903256
 30
0.0
 11
6287.904397928899
 21
4487.612805903256
 31
0.0
  0
LINE
  5
198D8
330
747D
100
AcDbEntity
  8
細線
100
AcDbLine
 10
6287.904397928899
 20
4487.612805903256
 30
0.0
 11
6213.904397928899
 21
4487.612805903256
 31
0.0
  0
LINE
  5
198D9
330
747D
100
AcDbEntity
  8
細線
100
AcDbLine
 10
6139.904397928899
 20
4464.612805903256
 30
0.0
 11
6213.904397928899
 21
4464.612805903256
 31
0.0
  0
LINE
  5
198DA
330
747D
100
AcDbEntity
  8
細線
100
AcDbLine
 10
6213.904397928899
 20
4487.612805903256
 30
0.0
 11
6139.904397928899
 21
4487.612805903256
 31
0.0
  0
LINE
  5
198DB
330
747D
100
AcDbEntity
  8
細線
100
AcDbLine
 10
6213.904397928899
 20
4464.612805903256
 30
0.0
 11
6287.904397928899
 21
4464.612805903256
 31
0.0
  0
ARC
  5
198DC
330
747D
100
AcDbEntity
  8
部品1
 48
0.01
100
AcDbCircle
 10
6125.904397928898
 20
4492.112805903256
 30
0.0
 40
2.0
100
AcDbArc
 50
90.0
 51
180.0
  0
ARC
  5
198DD
330
747D
100
AcDbEntity
  8
部品1
 48
0.01
100
AcDbCircle
 10
6125.904397928898
 20
4460.612805903256
 30
0.0
 40
2.0
100
AcDbArc
 50
180.0
 51
270.0
  0
ARC
  5
198DE
330
747D
100
AcDbEntity
  8
部品1
 48
0.01
100
AcDbCircle
 10
6301.9043979289
 20
4492.112805903256
 30
0.0
 40
2.0
100
AcDbArc
 50
0.0
 51
90.0
  0
ARC
  5
198DF
330
747D
100
AcDbEntity
  8
部品1
 48
0.01
100
AcDbCircle
 10
6301.904397928898
 20
4460.612805903256
 30
0.0
 40
2.0
100
AcDbArc
 50
270.0
 51
0.0
  0
ARC
  5
19911
330
747D
100
AcDbEntity
  8
部品1
 48
0.01
100
AcDbCircle
 10
5275.904397928898
 20
4460.612805903256
 30
0.0
 40
2.0
100
AcDbArc
 50
180.0
 51
270.0
  0
ARC
  5
19912
330
747D
100
AcDbEntity
  8
部品1
 48
0.01
100
AcDbCircle
 10
5275.904397928898
 20
4492.112805903256
 30
0.0
 40
2.0
100
AcDbArc
 50
90.0
 51
180.0
  0
ARC
  5
19913
330
747D
100
AcDbEntity
  8
部品1
 48
0.01
100
AcDbCircle
 10
5451.904397928898
 20
4460.612805903256
 30
0.0
 40
2.0
100
AcDbArc
 50
270.0
 51
0.0
  0
ARC
  5
19914
330
747D
100
AcDbEntity
  8
部品1
 48
0.01
100
AcDbCircle
 10
5451.904397928898
 20
4492.112805903256
 30
0.0
 40
2.0
100
AcDbArc
 50
0.0
 51
90.0
  0
LINE
  5
19915
330
747D
100
AcDbEntity
  8
細線
100
AcDbLine
 10
5363.904397928898
 20
4464.612805903256
 30
0.0
 11
5289.904397928898
 21
4464.612805903256
 31
0.0
  0
LINE
  5
19916
330
747D
100
AcDbEntity
  8
細線
100
AcDbLine
 10
5363.904397928898
 20
4487.612805903256
 30
0.0
 11
5437.904397928898
 21
4487.612805903256
 31
0.0
  0
LINE
  5
19917
330
747D
100
AcDbEntity
  8
細線
100
AcDbLine
 10
5437.904397928898
 20
4464.612805903256
 30
0.0
 11
5363.904397928898
 21
4464.612805903256
 31
0.0
  0
LINE
  5
19918
330
747D
100
AcDbEntity
  8
細線
100
AcDbLine
 10
5289.904397928898
 20
4487.612805903256
 30
0.0
 11
5363.904397928898
 21
4487.612805903256
 31
0.0
  0
LINE
  5
19919
330
747D
100
AcDbEntity
  8
細線
100
AcDbLine
 10
5289.904397928898
 20
4464.612805903256
 30
0.0
 11
5289.904397928898
 21
4487.612805903256
 31
0.0
  0
LINE
  5
1991A
330
747D
100
AcDbEntity
  8
細線
100
AcDbLine
 10
5437.904397928898
 20
4487.612805903256
 30
0.0
 11
5437.904397928898
 21
4464.612805903256
 31
0.0
  0
LINE
  5
1991B
330
747D
100
AcDbEntity
  8
部品1
 48
0.01
100
AcDbLine
 10
5273.904397928898
 20
4460.612805903256
 30
0.0
 11
5273.904397928898
 21
4492.112805903256
 31
0.0
  0
LINE
  5
1991C
330
747D
100
AcDbEntity
  8
部品1
 48
0.01
100
AcDbLine
 10
5451.904397928898
 20
4458.612805903256
 30
0.0
 11
5275.904397928898
 21
4458.612805903256
 31
0.0
  0
LINE
  5
1991D
330
747D
100
AcDbEntity
  8
部品1
 48
0.01
100
AcDbLine
 10
5453.904397928898
 20
4492.112805903256
 30
0.0
 11
5453.904397928898
 21
4460.612805903256
 31
0.0
  0
LINE
  5
1991E
330
747D
100
AcDbEntity
  8
部品1
 48
0.01
100
AcDbLine
 10
5275.904397928898
 20
4494.112805903256
 30
0.0
 11
5451.904397928898
 21
4494.112805903256
 31
0.0
  0
LINE
  5
1991F
330
747D
100
AcDbEntity
  8
細線
100
AcDbLine
 10
5437.904397928898
 20
4481.612805903256
 30
0.0
 11
5363.904397928898
 21
4481.612805903256
 31
0.0
  0
LINE
  5
19920
330
747D
100
AcDbEntity
  8
細線
100
AcDbLine
 10
5437.904397928898
 20
4475.612805903256
 30
0.0
 11
5363.904397928898
 21
4475.612805903256
 31
0.0
  0
LINE
  5
19921
330
747D
100
AcDbEntity
  8
細線
100
AcDbLine
 10
5437.904397928898
 20
4469.612805903255
 30
0.0
 11
5363.904397928898
 21
4469.612805903255
 31
0.0
  0
LINE
  5
19922
330
747D
100
AcDbEntity
  8
細線
100
AcDbLine
 10
5437.904397928898
 20
4481.612805903256
 30
0.0
 11
5368.904397928898
 21
4481.612805903256
 31
0.0
  0
LINE
  5
19923
330
747D
100
AcDbEntity
  8
細線
100
AcDbLine
 10
5289.904397928898
 20
4481.612805903256
 30
0.0
 11
5363.904397928898
 21
4481.612805903256
 31
0.0
  0
LINE
  5
19924
330
747D
100
AcDbEntity
  8
細線
100
AcDbLine
 10
5289.904397928898
 20
4469.612805903255
 30
0.0
 11
5363.904397928898
 21
4469.612805903255
 31
0.0
  0
LINE
  5
19925
330
747D
100
AcDbEntity
  8
細線
100
AcDbLine
 10
5289.904397928898
 20
4475.612805903256
 30
0.0
 11
5363.904397928898
 21
4475.612805903256
 31
0.0
  0
LINE
  5
19926
330
747D
100
AcDbEntity
  8
細線
100
AcDbLine
 10
5363.904397928898
 20
4487.612805903256
 30
0.0
 11
5363.904397928898
 21
4464.612805903256
 31
0.0
  0
LINE
  5
19927
330
747D
100
AcDbEntity
  8
細線
100
AcDbLine
 10
4423.904397928898
 20
4487.612805903256
 30
0.0
 11
4423.904397928896
 21
4464.612805903256
 31
0.0
  0
LINE
  5
19928
330
747D
100
AcDbEntity
  8
細線
100
AcDbLine
 10
4497.904397928897
 20
4475.612805903256
 30
0.0
 11
4423.904397928898
 21
4475.612805903256
 31
0.0
  0
LINE
  5
19929
330
747D
100
AcDbEntity
  8
細線
100
AcDbLine
 10
4497.904397928897
 20
4469.612805903255
 30
0.0
 11
4423.904397928898
 21
4469.612805903255
 31
0.0
  0
LINE
  5
1992A
330
747D
100
AcDbEntity
  8
細線
100
AcDbLine
 10
4497.904397928897
 20
4481.612805903256
 30
0.0
 11
4423.904397928898
 21
4481.612805903256
 31
0.0
  0
LINE
  5
1992B
330
747D
100
AcDbEntity
  8
細線
100
AcDbLine
 10
4349.904397928898
 20
4481.612805903256
 30
0.0
 11
4418.904397928898
 21
4481.612805903256
 31
0.0
  0
LINE
  5
1992C
330
747D
100
AcDbEntity
  8
細線
100
AcDbLine
 10
4349.904397928896
 20
4469.612805903255
 30
0.0
 11
4423.904397928898
 21
4469.612805903255
 31
0.0
  0
LINE
  5
1992D
330
747D
100
AcDbEntity
  8
細線
100
AcDbLine
 10
4349.904397928898
 20
4475.612805903256
 30
0.0
 11
4423.904397928898
 21
4475.612805903256
 31
0.0
  0
LINE
  5
1992E
330
747D
100
AcDbEntity
  8
細線
100
AcDbLine
 10
4349.904397928898
 20
4481.612805903256
 30
0.0
 11
4423.904397928898
 21
4481.612805903256
 31
0.0
  0
LINE
  5
1992F
330
747D
100
AcDbEntity
  8
部品1
 48
0.01
100
AcDbLine
 10
4511.904397928898
 20
4494.112805903256
 30
0.0
 11
4335.904397928898
 21
4494.112805903256
 31
0.0
  0
LINE
  5
19930
330
747D
100
AcDbEntity
  8
部品1
 48
0.01
100
AcDbLine
 10
4333.904397928898
 20
4492.112805903256
 30
0.0
 11
4333.904397928898
 21
4460.612805903256
 31
0.0
  0
LINE
  5
19931
330
747D
100
AcDbEntity
  8
部品1
 48
0.01
100
AcDbLine
 10
4335.904397928898
 20
4458.612805903256
 30
0.0
 11
4511.904397928896
 21
4458.612805903256
 31
0.0
  0
LINE
  5
19932
330
747D
100
AcDbEntity
  8
部品1
 48
0.01
100
AcDbLine
 10
4513.904397928896
 20
4460.612805903256
 30
0.0
 11
4513.904397928898
 21
4492.112805903256
 31
0.0
  0
LINE
  5
19933
330
747D
100
AcDbEntity
  8
細線
100
AcDbLine
 10
4349.904397928898
 20
4487.612805903256
 30
0.0
 11
4349.904397928898
 21
4464.612805903256
 31
0.0
  0
LINE
  5
19934
330
747D
100
AcDbEntity
  8
細線
100
AcDbLine
 10
4497.904397928897
 20
4464.612805903256
 30
0.0
 11
4497.904397928897
 21
4487.612805903256
 31
0.0
  0
LINE
  5
19935
330
747D
100
AcDbEntity
  8
細線
100
AcDbLine
 10
4497.904397928897
 20
4487.612805903256
 30
0.0
 11
4423.904397928898
 21
4487.612805903256
 31
0.0
  0
LINE
  5
19936
330
747D
100
AcDbEntity
  8
細線
100
AcDbLine
 10
4349.904397928898
 20
4464.612805903256
 30
0.0
 11
4423.904397928898
 21
4464.612805903256
 31
0.0
  0
LINE
  5
19937
330
747D
100
AcDbEntity
  8
細線
100
AcDbLine
 10
4423.904397928898
 20
4487.612805903256
 30
0.0
 11
4349.904397928898
 21
4487.612805903256
 31
0.0
  0
LINE
  5
19938
330
747D
100
AcDbEntity
  8
細線
100
AcDbLine
 10
4423.904397928896
 20
4464.612805903256
 30
0.0
 11
4497.904397928897
 21
4464.612805903256
 31
0.0
  0
ARC
  5
19939
330
747D
100
AcDbEntity
  8
部品1
 48
0.01
100
AcDbCircle
 10
4335.904397928898
 20
4492.112805903256
 30
0.0
 40
2.0
100
AcDbArc
 50
90.0
 51
180.0
  0
ARC
  5
1993A
330
747D
100
AcDbEntity
  8
部品1
 48
0.01
100
AcDbCircle
 10
4335.904397928898
 20
4460.612805903256
 30
0.0
 40
2.0
100
AcDbArc
 50
180.0
 51
270.0
  0
ARC
  5
1993B
330
747D
100
AcDbEntity
  8
部品1
 48
0.01
100
AcDbCircle
 10
4511.904397928898
 20
4492.112805903256
 30
0.0
 40
2.0
100
AcDbArc
 50
0.0
 51
90.0
  0
ARC
  5
1993C
330
747D
100
AcDbEntity
  8
部品1
 48
0.01
100
AcDbCircle
 10
4511.904397928896
 20
4460.612805903256
 30
0.0
 40
2.0
100
AcDbArc
 50
270.0
 51
0.0
  0
LINE
  5
19B78
330
747D
100
AcDbEntity
  8
部品1
100
AcDbLine
 10
4893.904397928903
 20
7516.507603031858
 30
0.0
 11
5843.904397928898
 21
7516.507603031858
 31
0.0
  0
LINE
  5
19CC3
330
747D
100
AcDbEntity
  8
部品1
100
AcDbLine
 10
4026.904397928896
 20
7544.507603031843
 30
0.0
 11
4151.016741021401
 21
7544.507603031846
 31
0.0
  0
LINE
  5
19E11
330
747D
100
AcDbEntity
  8
部品1
 48
50.0
100
AcDbLine
 10
4993.904397928895
 20
2288.112805903256
 30
0.0
 11
4993.904397928895
 21
2188.112805903255
 31
0.0
  0
LINE
  5
19E12
330
747D
100
AcDbEntity
  8
部品1
 48
50.0
100
AcDbLine
 10
4793.904397928895
 20
2288.112805903256
 30
0.0
 11
4793.904397928895
 21
2188.112805903255
 31
0.0
  0
LINE
  5
19E1A
330
747D
100
AcDbEntity
  8
部品1
 48
50.0
100
AcDbLine
 10
6783.904397928897
 20
2288.112805903256
 30
0.0
 11
6783.904397928897
 21
2188.112805903256
 31
0.0
  0
LINE
  5
19E1B
330
747D
100
AcDbEntity
  8
部品1
 48
50.0
100
AcDbLine
 10
6583.904397928897
 20
2288.112805903256
 30
0.0
 11
6583.904397928897
 21
2188.112805903256
 31
0.0
  0
LINE
  5
19E1C
330
747D
100
AcDbEntity
  8
部品1
 48
50.0
100
AcDbLine
 10
4398.904397928897
 20
2288.112805903256
 30
0.0
 11
4398.904397928897
 21
2188.112805903256
 31
0.0
  0
LINE
  5
19E1D
330
747D
100
AcDbEntity
  8
部品1
 48
50.0
100
AcDbLine
 10
7178.904397928898
 20
2288.112805903256
 30
0.0
 11
7178.904397928898
 21
2188.112805903256
 31
0.0
  0
LINE
  5
19E1F
330
747D
100
AcDbEntity
  8
部品1
 48
50.0
100
AcDbLine
 10
5988.904397928897
 20
2188.112805903255
 30
0.0
 11
5988.904397928899
 21
2288.112805903256
 31
0.0
  0
LINE
  5
19E20
330
747D
100
AcDbEntity
  8
部品1
 48
50.0
100
AcDbLine
 10
5588.904397928897
 20
2188.112805903255
 30
0.0
 11
5588.904397928899
 21
2288.112805903256
 31
0.0
  0
LINE
  5
19F44
330
747D
100
AcDbEntity
  8
破線
  6
HIDDEN
 48
5.0
100
AcDbLine
 10
5688.904397928898
 20
1988.112805903255
 30
0.0
 11
5888.9043979289
 21
1988.112805903256
 31
0.0
  0
LINE
  5
19F45
330
747D
100
AcDbEntity
  8
破線
  6
HIDDEN
 48
5.0
100
AcDbLine
 10
5813.904397928898
 20
2048.112805903256
 30
0.0
 11
5763.904397928898
 21
2048.112805903256
 31
0.0
  0
LINE
  5
19F46
330
747D
100
AcDbEntity
  8
破線
  6
HIDDEN
 48
5.0
100
AcDbLine
 10
5688.904397928898
 20
2188.112805903256
 30
0.0
 11
5688.904397928898
 21
1988.112805903255
 31
0.0
  0
LINE
  5
19F47
330
747D
100
AcDbEntity
  8
破線
  6
HIDDEN
 48
5.0
100
AcDbLine
 10
5888.904397928898
 20
2188.112805903256
 30
0.0
 11
5888.904397928898
 21
1988.112805903256
 31
0.0
  0
LINE
  5
19F48
330
747D
100
AcDbEntity
  8
破線
  6
HIDDEN
 48
5.0
100
AcDbLine
 10
5763.904397928898
 20
2188.112805903256
 30
0.0
 11
5763.904397928898
 21
2048.112805903256
 31
0.0
  0
LINE
  5
19F49
330
747D
100
AcDbEntity
  8
破線
  6
HIDDEN
 48
5.0
100
AcDbLine
 10
5813.904397928898
 20
2188.112805903256
 30
0.0
 11
5813.904397928898
 21
2048.112805903256
 31
0.0
  0
LINE
  5
19F4A
330
747D
100
AcDbEntity
  8
部品1
 48
50.0
100
AcDbLine
 10
5813.904397928898
 20
2328.112805903256
 30
0.0
 11
5813.904397928898
 21
2188.112805903256
 31
0.0
  0
LINE
  5
19F4B
330
747D
100
AcDbEntity
  8
部品1
 48
50.0
100
AcDbLine
 10
5763.904397928899
 20
2328.112805903256
 30
0.0
 11
5763.904397928898
 21
2188.112805903256
 31
0.0
  0
LINE
  5
19F4C
330
747D
100
AcDbEntity
  8
部品1
 48
50.0
100
AcDbLine
 10
5808.904397928898
 20
2333.112805903255
 30
0.0
 11
5768.904397928899
 21
2333.112805903256
 31
0.0
  0
ARC
  5
19F4D
330
747D
100
AcDbEntity
  8
部品1
 48
50.0
100
AcDbCircle
 10
5768.904397928899
 20
2328.112805903256
 30
0.0
 40
5.0
100
AcDbArc
 50
90.0
 51
180.0
  0
ARC
  5
19F4E
330
747D
100
AcDbEntity
  8
部品1
 48
50.0
100
AcDbCircle
 10
5808.904397928898
 20
2328.112805903256
 30
0.0
 40
5.0
100
AcDbArc
 50
0.0
 51
90.0
  0
LINE
  5
19F4F
330
747D
100
AcDbEntity
  8
部品1
100
AcDbLine
 10
5788.904397928899
 20
2338.112805903256
 30
0.0
 11
5788.904397928896
 21
2333.112805903256
 31
0.0
  0
LINE
  5
19F50
330
747D
100
AcDbEntity
  8
部品1
100
AcDbLine
 10
5813.904397928898
 20
2288.112805903256
 30
0.0
 11
7578.904397928898
 21
2288.112805903256
 31
0.0
  0
TEXT
  5
1A28B
330
747D
100
AcDbEntity
  8
文字
 62
     7
 48
50.0
100
AcDbText
 10
15022.63965474516
 20
9570.01374588372
 30
0.0
 40
100.0
  1
F12            1.0
  7
STYLE1
100
AcDbText
  0
TEXT
  5
1A28C
330
747D
100
AcDbEntity
  8
文字
 62
     7
 48
50.0
100
AcDbText
 10
13248.77747366447
 20
8550.013745883729
 30
0.0
 40
100.0
  1
16
  7
STYLE1
100
AcDbText
  0
TEXT
  5
1A295
330
747D
100
AcDbEntity
  8
文字
 62
     7
 48
50.0
100
AcDbText
 10
13583.11819016569
 20
8550.013745883727
 30
0.0
 40
100.0
  1
アンカープレート
  7
STYLE1
100
AcDbText
  0
TEXT
  5
1A296
330
747D
100
AcDbEntity
  8
文字
 62
     7
 48
50.0
100
AcDbText
 10
15022.63965474515
 20
8550.013745883722
 30
0.0
 40
100.0
  1
F12            2.3
  7
STYLE1
100
AcDbText
  0
LINE
  5
1A297
330
747D
100
AcDbEntity
  8
仕様書枠
 48
50.0
100
AcDbLine
 10
16307.2
 20
10049.6
 30
0.0
 11
13127.2
 21
10049.6
 31
0.0
  0
LINE
  5
1A298
330
747D
100
AcDbEntity
  8
仕様書枠
 48
50.0
100
AcDbLine
 10
16307.2
 20
11409.6
 30
0.0
 11
13127.2
 21
11409.6
 31
0.0
  0
LINE
  5
1A299
330
747D
100
AcDbEntity
  8
仕様書枠
 48
50.0
100
AcDbLine
 10
14785.2
 20
11409.59999999999
 30
0.0
 11
14785.2
 21
8519.599999999998
 31
0.0
  0
LINE
  5
1A29A
330
747D
100
AcDbEntity
  8
仕様書枠
 48
50.0
100
AcDbLine
 10
13490.2
 20
11409.6
 30
0.0
 11
13490.20000000001
 21
8519.600000000002
 31
0.0
  0
LINE
  5
1A29B
330
747D
100
AcDbEntity
  8
仕様書枠
 48
50.0
100
AcDbLine
 10
16307.2
 20
11239.6
 30
0.0
 11
13127.2
 21
11239.6
 31
0.0
  0
LINE
  5
1A29C
330
747D
100
AcDbEntity
  8
仕様書枠
 48
50.0
100
AcDbLine
 10
16307.2
 20
10899.6
 30
0.0
 11
13127.2
 21
10899.6
 31
0.0
  0
LINE
  5
1A29D
330
747D
100
AcDbEntity
  8
仕様書枠
 48
50.0
100
AcDbLine
 10
16307.2
 20
11069.6
 30
0.0
 11
13127.2
 21
11069.6
 31
0.0
  0
LINE
  5
1A29E
330
747D
100
AcDbEntity
  8
仕様書枠
 48
50.0
100
AcDbLine
 10
16307.19999999999
 20
10559.6
 30
0.0
 11
13127.2
 21
10559.6
 31
0.0
  0
LINE
  5
1A29F
330
747D
100
AcDbEntity
  8
仕様書枠
 48
50.0
100
AcDbLine
 10
16307.19999999999
 20
10389.6
 30
0.0
 11
13127.2
 21
10389.6
 31
0.0
  0
LINE
  5
1A2A0
330
747D
100
AcDbEntity
  8
仕様書枠
 48
50.0
100
AcDbLine
 10
16307.19999999999
 20
10729.6
 30
0.0
 11
13127.2
 21
10729.6
 31
0.0
  0
TEXT
  5
1A2A1
330
747D
100
AcDbEntity
  8
文字
 62
     7
 48
50.0
100
AcDbText
 10
13197.42518560407
 20
11270.01374588372
 30
0.0
 40
100.0
  1
品番
  7
STYLE1
100
AcDbText
  0
TEXT
  5
1A2A2
330
747D
100
AcDbEntity
  8
文字
 62
     7
 48
50.0
100
AcDbText
 10
13271.19032244792
 20
11100.01374588373
 30
0.0
 40
100.0
  1
1
  7
STYLE1
100
AcDbText
  0
TEXT
  5
1A2A3
330
747D
100
AcDbEntity
  8
文字
 62
     7
 48
50.0
100
AcDbText
 10
13271.19032244792
 20
10930.01374588373
 30
0.0
 40
100.0
  1
2
  7
STYLE1
100
AcDbText
  0
TEXT
  5
1A2A4
330
747D
100
AcDbEntity
  8
文字
 62
     7
 48
50.0
100
AcDbText
 10
13271.19032244792
 20
10590.01374588373
 30
0.0
 40
100.0
  1
4
  7
STYLE1
100
AcDbText
  0
TEXT
  5
1A2A5
330
747D
100
AcDbEntity
  8
文字
 62
     7
 48
50.0
100
AcDbText
 10
13271.19032244792
 20
10760.01374588373
 30
0.0
 40
100.0
  1
3
  7
STYLE1
100
AcDbText
  0
TEXT
  5
1A2A6
330
747D
100
AcDbEntity
  8
文字
 62
     7
 48
50.0
100
AcDbText
 10
13732.03840939434
 20
11270.01374588372
 30
0.0
 40
100.0
  1
部　　品　　名
  7
STYLE1
100
AcDbText
  0
TEXT
  5
1A2A7
330
747D
100
AcDbEntity
  8
文字
 62
     7
 48
50.0
100
AcDbText
 10
14859.79774614482
 20
11270.01374588372
 30
0.0
 40
100.0
  1
材料（材質）　　単位mm
  7
STYLE1
100
AcDbText
  0
TEXT
  5
1A2A8
330
747D
100
AcDbEntity
  8
文字
 62
     7
 48
50.0
100
AcDbText
 10
13583.11819016569
 20
11100.01374588373
 30
0.0
 40
100.0
  1
土台枠
  7
STYLE1
100
AcDbText
  0
TEXT
  5
1A2A9
330
747D
100
AcDbEntity
  8
文字
 62
     7
 48
50.0
100
AcDbText
 10
13583.1181901657
 20
10760.01374588372
 30
0.0
 40
100.0
  1
柱
  7
STYLE1
100
AcDbText
  0
TEXT
  5
1A2AA
330
747D
100
AcDbEntity
  8
文字
 62
     7
 48
50.0
100
AcDbText
 10
13583.1181901657
 20
10420.01374588373
 30
0.0
 40
100.0
  1
桁前後
  7
STYLE1
100
AcDbText
  0
TEXT
  5
1A2AB
330
747D
100
AcDbEntity
  8
文字
 62
     7
 48
50.0
100
AcDbText
 10
13271.19032244792
 20
10420.01374588372
 30
0.0
 40
100.0
  1
5
  7
STYLE1
100
AcDbText
  0
TEXT
  5
1A2AC
330
747D
100
AcDbEntity
  8
文字
 62
     7
 48
50.0
100
AcDbText
 10
13583.1181901657
 20
10250.01374588373
 30
0.0
 40
100.0
  1
妻板左右
  7
STYLE1
100
AcDbText
  0
TEXT
  5
1A2AD
330
747D
100
AcDbEntity
  8
文字
 62
     7
 48
50.0
100
AcDbText
 10
13248.77747366447
 20
9570.013745883727
 30
0.0
 40
100.0
  1
10
  7
STYLE1
100
AcDbText
  0
TEXT
  5
1A2AE
330
747D
100
AcDbEntity
  8
文字
 62
     7
 48
50.0
100
AcDbText
 10
13583.11819016568
 20
9400.013745883731
 30
0.0
 40
100.0
  1
壁パネル
  7
STYLE1
100
AcDbText
  0
TEXT
  5
1A2AF
330
747D
100
AcDbEntity
  8
文字
 62
     7
 48
50.0
100
AcDbText
 10
13583.11819016569
 20
9740.013745883732
 30
0.0
 40
100.0
  1
屋根パネル
  7
STYLE1
100
AcDbText
  0
TEXT
  5
1A2B0
330
747D
100
AcDbEntity
  8
文字
 62
     7
 48
50.0
100
AcDbText
 10
13583.1181901657
 20
10080.01374588372
 30
0.0
 40
100.0
  1
鼻隠シ前後
  7
STYLE1
100
AcDbText
  0
TEXT
  5
1A2B1
330
747D
100
AcDbEntity
  8
文字
 62
     7
 48
50.0
100
AcDbText
 10
13271.19032244792
 20
9910.01374588373
 30
0.0
 40
100.0
  1
8
  7
STYLE1
100
AcDbText
  0
TEXT
  5
1A2B2
330
747D
100
AcDbEntity
  8
文字
 62
     7
 48
50.0
100
AcDbText
 10
13271.19032244792
 20
9740.013745883729
 30
0.0
 40
100.0
  1
9
  7
STYLE1
100
AcDbText
  0
TEXT
  5
1A2B3
330
747D
100
AcDbEntity
  8
文字
 62
     7
 48
50.0
100
AcDbText
 10
13271.19032244792
 20
10080.01374588373
 30
0.0
 40
100.0
  1
7
  7
STYLE1
100
AcDbText
  0
TEXT
  5
1A2B4
330
747D
100
AcDbEntity
  8
文字
 62
     7
 48
50.0
100
AcDbText
 10
13271.19032244792
 20
10250.01374588373
 30
0.0
 40
100.0
  1
6
  7
STYLE1
100
AcDbText
  0
LINE
  5
1A2B5
330
747D
100
AcDbEntity
  8
仕様書枠
 48
50.0
100
AcDbLine
 10
16307.19999999999
 20
9539.6
 30
0.0
 11
13127.2
 21
9539.6
 31
0.0
  0
LINE
  5
1A2B6
330
747D
100
AcDbEntity
  8
仕様書枠
 48
50.0
100
AcDbLine
 10
16307.19999999999
 20
8859.599999999995
 30
0.0
 11
13127.2
 21
8859.599999999998
 31
0.0
  0
LINE
  5
1A2B7
330
747D
100
AcDbEntity
  8
仕様書枠
 48
50.0
100
AcDbLine
 10
16307.19999999999
 20
9199.599999999994
 30
0.0
 11
13127.2
 21
9199.599999999998
 31
0.0
  0
LINE
  5
1A2B8
330
747D
100
AcDbEntity
  8
仕様書枠
 48
50.0
100
AcDbLine
 10
16307.2
 20
10219.6
 30
0.0
 11
13127.2
 21
10219.6
 31
0.0
  0
LINE
  5
1A2B9
330
747D
100
AcDbEntity
  8
仕様書枠
 48
50.0
100
AcDbLine
 10
16307.2
 20
9709.600000000001
 30
0.0
 11
13127.2
 21
9709.600000000001
 31
0.0
  0
TEXT
  5
1A2BA
330
747D
100
AcDbEntity
  8
文字
 62
     7
 48
50.0
100
AcDbText
 10
13248.77747366447
 20
9400.013745883727
 30
0.0
 40
100.0
  1
11
  7
STYLE1
100
AcDbText
  0
LINE
  5
1A2BB
330
747D
100
AcDbEntity
  8
仕様書枠
 48
50.0
100
AcDbLine
 10
16307.19999999999
 20
8689.599999999995
 30
0.0
 11
13127.2
 21
8689.599999999998
 31
0.0
  0
TEXT
  5
1A2BD
330
747D
100
AcDbEntity
  8
文字
 62
     7
 48
50.0
100
AcDbText
 10
13248.77747366447
 20
9060.013745883729
 30
0.0
 40
100.0
  1
13
  7
STYLE1
100
AcDbText
  0
TEXT
  5
1A2BE
330
747D
100
AcDbEntity
  8
文字
 62
     7
 48
50.0
100
AcDbText
 10
13248.77747366447
 20
9230.013745883729
 30
0.0
 40
100.0
  1
12
  7
STYLE1
100
AcDbText
  0
TEXT
  5
1A2BF
330
747D
100
AcDbEntity
  8
文字
 62
     7
 48
50.0
100
AcDbText
 10
15022.63965474516
 20
11100.01374588372
 30
0.0
 40
100.0
  1
F12            1.2
  7
STYLE1
100
AcDbText
  0
TEXT
  5
1A2C0
330
747D
100
AcDbEntity
  8
文字
 62
     7
 48
50.0
100
AcDbText
 10
15022.63965474518
 20
10760.01374588372
 30
0.0
 40
100.0
  1
F12            1.0
  7
STYLE1
100
AcDbText
  0
TEXT
  5
1A2C1
330
747D
100
AcDbEntity
  8
文字
 62
     7
 48
50.0
100
AcDbText
 10
15022.63965474516
 20
10420.01374588372
 30
0.0
 40
100.0
  1
Y10            1.0
  7
STYLE1
100
AcDbText
  0
TEXT
  5
1A2C2
330
747D
100
AcDbEntity
  8
文字
 62
     7
 48
50.0
100
AcDbText
 10
15022.63965474516
 20
10250.01374588372
 30
0.0
 40
100.0
  1
Y10            0.7
  7
STYLE1
100
AcDbText
  0
TEXT
  5
1A2C3
330
747D
100
AcDbEntity
  8
文字
 62
     7
 48
50.0
100
AcDbText
 10
15022.63965474516
 20
10080.01374588372
 30
0.0
 40
100.0
  1
Y10            0.7
  7
STYLE1
100
AcDbText
  0
TEXT
  5
1A2C4
330
747D
100
AcDbEntity
  8
文字
 62
     7
 48
50.0
100
AcDbText
 10
15022.63965474516
 20
9740.013745883729
 30
0.0
 40
100.0
  1
Y10            0.5
  7
STYLE1
100
AcDbText
  0
TEXT
  5
1A2C5
330
747D
100
AcDbEntity
  8
文字
 62
     7
 48
50.0
100
AcDbText
 10
15022.63965474515
 20
9400.013745883725
 30
0.0
 40
100.0
  1
F12            0.7
  7
STYLE1
100
AcDbText
  0
LINE
  5
1A2C7
330
747D
100
AcDbEntity
  8
仕様書枠
 48
50.0
100
AcDbLine
 10
16307.19999999999
 20
8349.599999999998
 30
0.0
 11
13127.19999999999
 21
8349.6
 31
0.0
  0
TEXT
  5
1A2C8
330
747D
100
AcDbEntity
  8
文字
 62
     7
 48
50.0
100
AcDbText
 10
13229.83081656553
 20
8380.013745883728
 30
0.0
 40
100.0
  1
F12→溶融亜鉛めっき鋼板(JIS G 3302)
  7
STYLE1
100
AcDbText
  0
TEXT
  5
1A2C9
330
747D
100
AcDbEntity
  8
文字
 62
     7
 48
50.0
100
AcDbText
 10
13229.83081656553
 20
8210.013745883726
 30
0.0
 40
100.0
  1
Y10→溶融亜鉛-5％アルミニウム合金めっき鋼板(JIS G 3317)
 41
0.9
  7
STYLE1
100
AcDbText
  0
LINE
  5
1A2CA
330
747D
100
AcDbEntity
  8
仕様書枠
 48
50.0
100
AcDbLine
 10
13127.2
 20
11409.6
 30
0.0
 11
13127.19999999999
 21
8179.6
 31
0.0
  0
LINE
  5
1A2CB
330
747D
100
AcDbEntity
  8
仕様書枠
 48
50.0
100
AcDbLine
 10
16307.19999999999
 20
8519.599999999998
 30
0.0
 11
13127.2
 21
8519.600000000002
 31
0.0
  0
TEXT
  5
1A2CC
330
747D
100
AcDbEntity
  8
文字
 62
     7
 48
50.0
100
AcDbText
 10
13583.1181901657
 20
10590.01374588373
 30
0.0
 40
100.0
  1
床パネル
 41
0.9
  7
STYLE1
100
AcDbText
  0
TEXT
  5
1A2CD
330
747D
100
AcDbEntity
  8
文字
 62
     7
 48
50.0
100
AcDbText
 10
13583.11819016569
 20
10930.01374588372
 30
0.0
 40
100.0
  1
根太
  7
STYLE1
100
AcDbText
  0
TEXT
  5
1A2CE
330
747D
100
AcDbEntity
  8
文字
 62
     7
 48
50.0
100
AcDbText
 10
13248.77747366447
 20
8890.013745883727
 30
0.0
 40
100.0
  1
14
  7
STYLE1
100
AcDbText
  0
TEXT
  5
1A2CF
330
747D
100
AcDbEntity
  8
文字
 62
     7
 48
50.0
100
AcDbText
 10
15022.63965474516
 20
10930.01374588372
 30
0.0
 40
100.0
  1
F12            1.2
  7
STYLE1
100
AcDbText
  0
TEXT
  5
1A2D0
330
747D
100
AcDbEntity
  8
文字
 62
     7
 48
50.0
100
AcDbText
 10
15022.63965474516
 20
10590.01374588372
 30
0.0
 40
100.0
  1
F12            1.0
  7
STYLE1
100
AcDbText
  0
LINE
  5
1A2D5
330
747D
100
AcDbEntity
  8
仕様書枠
 48
50.0
100
AcDbLine
 10
16307.19999999999
 20
8179.599999999998
 30
0.0
 11
13127.19999999999
 21
8179.6
 31
0.0
  0
TEXT
  5
1A2D6
330
747D
100
AcDbEntity
  8
文字
 62
     7
 48
50.0
100
AcDbText
 10
13248.77747366447
 20
8720.013745883729
 30
0.0
 40
100.0
  1
15
  7
STYLE1
100
AcDbText
  0
TEXT
  5
1A2D7
330
747D
100
AcDbEntity
  8
文字
 62
     7
 48
50.0
100
AcDbText
 10
13583.11819016569
 20
9570.013745883732
 30
0.0
 40
100.0
  1
母屋中
  7
STYLE1
100
AcDbText
  0
LINE
  5
1A2D8
330
747D
100
AcDbEntity
  8
仕様書枠
 48
50.0
100
AcDbLine
 10
16307.19999999999
 20
9369.600000000001
 30
0.0
 11
13127.2
 21
9369.600000000001
 31
0.0
  0
TEXT
  5
1A2D9
330
747D
100
AcDbEntity
  8
文字
 62
     7
 48
50.0
100
AcDbText
 10
13583.11819016568
 20
9230.013745883729
 30
0.0
 40
100.0
  1
内壁
  7
STYLE1
100
AcDbText
  0
TEXT
  5
1A2DA
330
747D
100
AcDbEntity
  8
文字
 62
     7
 48
50.0
100
AcDbText
 10
15022.63965474515
 20
9230.013745883722
 30
0.0
 40
100.0
  1
発泡ポリプロピレン
  7
STYLE1
100
AcDbText
  0
TEXT
  5
1A2DC
330
747D
100
AcDbEntity
  8
文字
 62
     7
 48
50.0
100
AcDbText
 10
13583.11819016568
 20
9060.013745883725
 30
0.0
 40
100.0
  1
天井
  7
STYLE1
100
AcDbText
  0
TEXT
  5
1A2DD
330
747D
100
AcDbEntity
  8
文字
 62
     7
 48
50.0
100
AcDbText
 10
15022.63965474515
 20
9060.013745883718
 30
0.0
 40
100.0
  1
発泡ポリプロピレン
  7
STYLE1
100
AcDbText
  0
LINE
  5
1A2DE
330
747D
100
AcDbEntity
  8
仕様書枠
 48
50.0
100
AcDbLine
 10
16307.19999999999
 20
9029.599999999996
 30
0.0
 11
13127.2
 21
9029.599999999996
 31
0.0
  0
TEXT
  5
1A2E4
330
747D
100
AcDbEntity
  8
文字
 62
     7
 48
50.0
100
AcDbText
 10
13583.11819016569
 20
9910.013745883732
 30
0.0
 40
100.0
  1
梁中
  7
STYLE1
100
AcDbText
  0
LINE
  5
1A2E6
330
747D
100
AcDbEntity
  8
仕様書枠
 48
50.0
100
AcDbLine
 10
16307.2
 20
9879.600000000001
 30
0.0
 11
13127.2
 21
9879.600000000001
 31
0.0
  0
TEXT
  5
1A2E7
330
747D
100
AcDbEntity
  8
文字
 62
     7
 48
50.0
100
AcDbText
 10
15022.63965474516
 20
9910.01374588373
 30
0.0
 40
100.0
  1
F12,Y10        1.0
  7
STYLE1
100
AcDbText
  0
LINE
  5
1A4F8
330
747D
100
AcDbEntity
  8
部品1
100
AcDbLine
 10
5313.904397928903
 20
7516.507603031858
 30
0.0
 11
5313.904397928903
 21
7544.507603031857
 31
0.0
  0
LINE
  5
1A4F9
330
747D
100
AcDbEntity
  8
部品1
100
AcDbLine
 10
4893.904397928903
 20
7516.507603031858
 30
0.0
 11
4893.904397928903
 21
7544.507603031857
 31
0.0
  0
LINE
  5
1A4FA
330
747D
100
AcDbEntity
  8
細線
 48
50.0
100
AcDbLine
 10
5236.404397928906
 20
4428.112805903256
 30
0.0
 11
5236.404397928906
 21
2338.112805903256
 31
0.0
  0
LINE
  5
1A4FB
330
747D
100
AcDbEntity
  8
細線
 48
50.0
100
AcDbLine
 10
5251.404397928906
 20
4428.112805903256
 30
0.0
 11
5251.404397928907
 21
2338.112805903256
 31
0.0
  0
LINE
  5
1A4FC
330
747D
100
AcDbEntity
  8
細線
 48
50.0
100
AcDbLine
 10
5111.404397928906
 20
4428.112805903256
 30
0.0
 11
5111.404397928906
 21
2338.112805903256
 31
0.0
  0
LINE
  5
1A4FD
330
747D
100
AcDbEntity
  8
細線
 48
50.0
100
AcDbLine
 10
5096.404397928907
 20
4428.112805903256
 30
0.0
 11
5096.404397928907
 21
2338.112805903256
 31
0.0
  0
LINE
  5
1A4FE
330
747D
100
AcDbEntity
  8
細線
 48
50.0
100
AcDbLine
 10
4956.404397928906
 20
4428.112805903256
 30
0.0
 11
4956.404397928907
 21
2338.112805903256
 31
0.0
  0
LINE
  5
1A4FF
330
747D
100
AcDbEntity
  8
細線
 48
50.0
100
AcDbLine
 10
4971.404397928907
 20
4428.112805903256
 30
0.0
 11
4971.404397928907
 21
2338.112805903256
 31
0.0
  0
LINE
  5
1A500
330
747D
100
AcDbEntity
  8
細線
 48
50.0
100
AcDbLine
 10
5391.404397928906
 20
4428.112805903256
 30
0.0
 11
5391.404397928908
 21
2338.112805903256
 31
0.0
  0
LINE
  5
1A501
330
747D
100
AcDbEntity
  8
細線
 48
50.0
100
AcDbLine
 10
5376.404397928906
 20
4428.112805903256
 30
0.0
 11
5376.404397928907
 21
2338.112805903256
 31
0.0
  0
LINE
  5
1A502
330
747D
100
AcDbEntity
  8
細線
 48
50.0
100
AcDbLine
 10
5516.404397928906
 20
4428.112805903256
 30
0.0
 11
5516.404397928906
 21
2338.112805903256
 31
0.0
  0
LINE
  5
1A503
330
747D
100
AcDbEntity
  8
細線
 48
50.0
100
AcDbLine
 10
5531.404397928906
 20
4428.112805903256
 30
0.0
 11
5531.404397928907
 21
2338.112805903256
 31
0.0
  0
LINE
  5
1A504
330
747D
100
AcDbEntity
  8
細線
 48
50.0
100
AcDbLine
 10
5671.404397928906
 20
4428.112805903256
 30
0.0
 11
5671.404397928906
 21
2338.112805903256
 31
0.0
  0
LINE
  5
1A505
330
747D
100
AcDbEntity
  8
細線
 48
50.0
100
AcDbLine
 10
5656.404397928906
 20
4428.112805903256
 30
0.0
 11
5656.404397928907
 21
2338.112805903256
 31
0.0
  0
LINE
  5
1A506
330
747D
100
AcDbEntity
  8
部品1
100
AcDbLine
 10
5733.904397928902
 20
4428.112805903256
 30
0.0
 11
5733.9043979289
 21
2338.112805903256
 31
0.0
  0
LINE
  5
1A507
330
747D
100
AcDbEntity
  8
部品1
100
AcDbLine
 10
5313.904397928902
 20
4428.112805903256
 30
0.0
 11
5313.9043979289
 21
2338.112805903256
 31
0.0
  0
LINE
  5
1A601
102
{ACAD_REACTORS
330
1A710
102
}
330
747D
100
AcDbEntity
  8
部品1
100
AcDbLine
 10
4050.604397928896
 20
4428.112805903257
 30
0.0
 11
4050.604397928896
 21
2307.312805903256
 31
0.0
  0
LINE
  5
1A602
102
{ACAD_REACTORS
330
1A710
102
}
330
747D
100
AcDbEntity
  8
部品1
100
AcDbLine
 10
4049.4043979289
 20
2333.312805903256
 30
0.0
 11
4898.404397928892
 21
2333.312805903256
 31
0.0
  0
LINE
  5
1A603
102
{ACAD_REACTORS
330
1A710
102
}
330
747D
100
AcDbEntity
  8
細線
100
AcDbLine
 10
4867.404397928901
 20
4174.612805903257
 30
0.0
 11
4867.404397928901
 21
4285.612805903257
 31
0.0
1001
GENIUS_GENREC_14
1002
{
1000
PYDIR
1011
4867.404397928901
1021
4174.612805903257
1031
0.0
1002
}
1002
{
1000
PXDIR
1011
4881.4043979289
1021
4285.612805903257
1031
0.0
1002
}
1002
{
1000
PORI
1011
4867.404397928901
1021
4285.612805903257
1031
0.0
1002
}
1002
{
1000
PINS
1011
4867.404397928901
1021
4285.612805903257
1031
0.0
1002
}
1002
{
1000
PINS2
1011
4881.4043979289
1021
4174.612805903257
1031
0.0
1002
}
1002
{
1000
C
1070
     1
1002
}
1001
GENIUS_GENODEF_13
1002
{
1000
HIER
1070
     0
1002
}
1002
{
1000
MANEDIT
1070
     0
1002
}
1002
{
1000
NOSEL
1070
     0
1002
}
1002
{
1000
BEHIND
1070
     0
1002
}
1002
{
1000
OTHER
1070
     0
1002
}
1002
{
1000
REACTOR
1002
}
1001
GENIUS_GENOBJ-N-REC_13
1002
{
1000
OWNER
1000
GEN
1002
}
  0
LINE
  5
1A604
102
{ACAD_REACTORS
330
1A710
102
}
330
747D
100
AcDbEntity
  8
細線
100
AcDbLine
 10
4881.4043979289
 20
4174.612805903257
 30
0.0
 11
4867.404397928901
 21
4174.612805903257
 31
0.0
1001
GENIUS_GENREC_14
1002
{
1000
PYDIR
1011
4867.404397928901
1021
4174.612805903257
1031
0.0
1002
}
1002
{
1000
PXDIR
1011
4881.4043979289
1021
4285.612805903257
1031
0.0
1002
}
1002
{
1000
PORI
1011
4867.404397928901
1021
4285.612805903257
1031
0.0
1002
}
1002
{
1000
PINS
1011
4867.404397928901
1021
4285.612805903257
1031
0.0
1002
}
1002
{
1000
PINS2
1011
4881.4043979289
1021
4174.612805903257
1031
0.0
1002
}
1002
{
1000
C
1070
     1
1002
}
1001
GENIUS_GENODEF_13
1002
{
1000
HIER
1070
     0
1002
}
1002
{
1000
MANEDIT
1070
     0
1002
}
1002
{
1000
NOSEL
1070
     0
1002
}
1002
{
1000
BEHIND
1070
     0
1002
}
1002
{
1000
OTHER
1070
     0
1002
}
1002
{
1000
REACTOR
1002
}
1001
GENIUS_GENOBJ-N-REC_13
1002
{
1000
OWNER
1000
GEN
1002
}
  0
LINE
  5
1A605
102
{ACAD_REACTORS
330
1A710
102
}
330
747D
100
AcDbEntity
  8
細線
100
AcDbLine
 10
4881.4043979289
 20
4285.612805903257
 30
0.0
 11
4881.4043979289
 21
4174.612805903257
 31
0.0
1001
GENIUS_GENREC_14
1002
{
1000
PYDIR
1011
4867.404397928901
1021
4174.612805903257
1031
0.0
1002
}
1002
{
1000
PXDIR
1011
4881.4043979289
1021
4285.612805903257
1031
0.0
1002
}
1002
{
1000
PORI
1011
4867.404397928901
1021
4285.612805903257
1031
0.0
1002
}
1002
{
1000
PINS
1011
4867.404397928901
1021
4285.612805903257
1031
0.0
1002
}
1002
{
1000
PINS2
1011
4881.4043979289
1021
4174.612805903257
1031
0.0
1002
}
1002
{
1000
C
1070
     1
1002
}
1001
GENIUS_GENODEF_13
1002
{
1000
HIER
1070
     0
1002
}
1002
{
1000
MANEDIT
1070
     0
1002
}
1002
{
1000
NOSEL
1070
     0
1002
}
1002
{
1000
BEHIND
1070
     0
1002
}
1002
{
1000
OTHER
1070
     0
1002
}
1002
{
1000
REACTOR
1002
}
1001
GENIUS_GENOBJ-N-REC_13
1002
{
1000
OWNER
1000
GEN
1002
}
  0
LINE
  5
1A606
102
{ACAD_REACTORS
330
1A710
102
}
330
747D
100
AcDbEntity
  8
細線
100
AcDbLine
 10
4867.404397928901
 20
4285.612805903257
 30
0.0
 11
4881.4043979289
 21
4285.612805903257
 31
0.0
1001
GENIUS_GENREC_14
1002
{
1000
PYDIR
1011
4867.404397928901
1021
4174.612805903257
1031
0.0
1002
}
1002
{
1000
PXDIR
1011
4881.4043979289
1021
4285.612805903257
1031
0.0
1002
}
1002
{
1000
PORI
1011
4867.404397928901
1021
4285.612805903257
1031
0.0
1002
}
1002
{
1000
PINS
1011
4867.404397928901
1021
4285.612805903257
1031
0.0
1002
}
1002
{
1000
PINS2
1011
4881.4043979289
1021
4174.612805903257
1031
0.0
1002
}
1002
{
1000
C
1070
     1
1002
}
1001
GENIUS_GENODEF_13
1002
{
1000
HIER
1070
     0
1002
}
1002
{
1000
MANEDIT
1070
     0
1002
}
1002
{
1000
NOSEL
1070
     0
1002
}
1002
{
1000
BEHIND
1070
     0
1002
}
1002
{
1000
OTHER
1070
     0
1002
}
1002
{
1000
REACTOR
1002
}
1001
GENIUS_GENOBJ-N-REC_13
1002
{
1000
OWNER
1000
GEN
1002
}
  0
LINE
  5
1A607
102
{ACAD_REACTORS
330
1A710
102
}
330
747D
100
AcDbEntity
  8
細線
100
AcDbLine
 10
4867.404397928901
 20
2454.612805903257
 30
0.0
 11
4867.404397928901
 21
2565.612805903257
 31
0.0
1001
GENIUS_GENREC_14
1002
{
1000
PYDIR
1011
4867.404397928901
1021
2454.612805903257
1031
0.0
1002
}
1002
{
1000
PXDIR
1011
4881.4043979289
1021
2565.612805903257
1031
0.0
1002
}
1002
{
1000
PORI
1011
4867.404397928901
1021
2565.612805903257
1031
0.0
1002
}
1002
{
1000
PINS
1011
4867.404397928901
1021
2565.612805903257
1031
0.0
1002
}
1002
{
1000
PINS2
1011
4881.4043979289
1021
2454.612805903257
1031
0.0
1002
}
1002
{
1000
C
1070
     1
1002
}
1001
GENIUS_GENODEF_13
1002
{
1000
HIER
1070
     0
1002
}
1002
{
1000
MANEDIT
1070
     0
1002
}
1002
{
1000
NOSEL
1070
     0
1002
}
1002
{
1000
BEHIND
1070
     0
1002
}
1002
{
1000
OTHER
1070
     0
1002
}
1002
{
1000
REACTOR
1002
}
1001
GENIUS_GENOBJ-N-REC_13
1002
{
1000
OWNER
1000
GEN
1002
}
  0
LINE
  5
1A608
102
{ACAD_REACTORS
330
1A710
102
}
330
747D
100
AcDbEntity
  8
細線
100
AcDbLine
 10
4881.4043979289
 20
2454.612805903257
 30
0.0
 11
4867.404397928901
 21
2454.612805903257
 31
0.0
1001
GENIUS_GENREC_14
1002
{
1000
PYDIR
1011
4867.404397928901
1021
2454.612805903257
1031
0.0
1002
}
1002
{
1000
PXDIR
1011
4881.4043979289
1021
2565.612805903257
1031
0.0
1002
}
1002
{
1000
PORI
1011
4867.404397928901
1021
2565.612805903257
1031
0.0
1002
}
1002
{
1000
PINS
1011
4867.404397928901
1021
2565.612805903257
1031
0.0
1002
}
1002
{
1000
PINS2
1011
4881.4043979289
1021
2454.612805903257
1031
0.0
1002
}
1002
{
1000
C
1070
     1
1002
}
1001
GENIUS_GENODEF_13
1002
{
1000
HIER
1070
     0
1002
}
1002
{
1000
MANEDIT
1070
     0
1002
}
1002
{
1000
NOSEL
1070
     0
1002
}
1002
{
1000
BEHIND
1070
     0
1002
}
1002
{
1000
OTHER
1070
     0
1002
}
1002
{
1000
REACTOR
1002
}
1001
GENIUS_GENOBJ-N-REC_13
1002
{
1000
OWNER
1000
GEN
1002
}
  0
LINE
  5
1A609
102
{ACAD_REACTORS
330
1A710
102
}
330
747D
100
AcDbEntity
  8
細線
100
AcDbLine
 10
4881.4043979289
 20
2565.612805903257
 30
0.0
 11
4881.4043979289
 21
2454.612805903257
 31
0.0
1001
GENIUS_GENREC_14
1002
{
1000
PYDIR
1011
4867.404397928901
1021
2454.612805903257
1031
0.0
1002
}
1002
{
1000
PXDIR
1011
4881.4043979289
1021
2565.612805903257
1031
0.0
1002
}
1002
{
1000
PORI
1011
4867.404397928901
1021
2565.612805903257
1031
0.0
1002
}
1002
{
1000
PINS
1011
4867.404397928901
1021
2565.612805903257
1031
0.0
1002
}
1002
{
1000
PINS2
1011
4881.4043979289
1021
2454.612805903257
1031
0.0
1002
}
1002
{
1000
C
1070
     1
1002
}
1001
GENIUS_GENODEF_13
1002
{
1000
HIER
1070
     0
1002
}
1002
{
1000
MANEDIT
1070
     0
1002
}
1002
{
1000
NOSEL
1070
     0
1002
}
1002
{
1000
BEHIND
1070
     0
1002
}
1002
{
1000
OTHER
1070
     0
1002
}
1002
{
1000
REACTOR
1002
}
1001
GENIUS_GENOBJ-N-REC_13
1002
{
1000
OWNER
1000
GEN
1002
}
  0
LINE
  5
1A60A
102
{ACAD_REACTORS
330
1A710
102
}
330
747D
100
AcDbEntity
  8
細線
100
AcDbLine
 10
4867.404397928901
 20
2565.612805903257
 30
0.0
 11
4881.4043979289
 21
2565.612805903257
 31
0.0
1001
GENIUS_GENREC_14
1002
{
1000
PYDIR
1011
4867.404397928901
1021
2454.612805903257
1031
0.0
1002
}
1002
{
1000
PXDIR
1011
4881.4043979289
1021
2565.612805903257
1031
0.0
1002
}
1002
{
1000
PORI
1011
4867.404397928901
1021
2565.612805903257
1031
0.0
1002
}
1002
{
1000
PINS
1011
4867.404397928901
1021
2565.612805903257
1031
0.0
1002
}
1002
{
1000
PINS2
1011
4881.4043979289
1021
2454.612805903257
1031
0.0
1002
}
1002
{
1000
C
1070
     1
1002
}
1001
GENIUS_GENODEF_13
1002
{
1000
HIER
1070
     0
1002
}
1002
{
1000
MANEDIT
1070
     0
1002
}
1002
{
1000
NOSEL
1070
     0
1002
}
1002
{
1000
BEHIND
1070
     0
1002
}
1002
{
1000
OTHER
1070
     0
1002
}
1002
{
1000
REACTOR
1002
}
1001
GENIUS_GENOBJ-N-REC_13
1002
{
1000
OWNER
1000
GEN
1002
}
  0
LINE
  5
1A60B
102
{ACAD_REACTORS
330
1A710
102
}
330
747D
100
AcDbEntity
  8
細線
100
AcDbLine
 10
4875.404397928885
 20
4285.612805903257
 30
0.0
 11
4875.404397928885
 21
4398.112805903257
 31
0.0
  0
LINE
  5
1A60C
102
{ACAD_REACTORS
330
1A710
102
}
330
747D
100
AcDbEntity
  8
部品1
100
AcDbLine
 10
4878.404397928893
 20
4174.612805903257
 30
0.0
 11
4878.404397928893
 21
2565.612805903257
 31
0.0
  0
LINE
  5
1A60D
102
{ACAD_REACTORS
330
1A710
102
}
330
747D
100
AcDbEntity
  8
細線
100
AcDbLine
 10
4875.4043979289
 20
2565.612805903257
 30
0.0
 11
4875.404397928885
 21
4174.612805903257
 31
0.0
  0
LINE
  5
1A60E
102
{ACAD_REACTORS
330
1A710
102
}
330
747D
100
AcDbEntity
  8
部品1
100
AcDbLine
 10
4878.404397928893
 20
2454.612805903257
 30
0.0
 11
4878.404397928893
 21
2333.312805903256
 31
0.0
  0
LINE
  5
1A60F
102
{ACAD_REACTORS
330
1A710
102
}
330
747D
100
AcDbEntity
  8
細線
100
AcDbLine
 10
4867.404397928901
 20
2510.112805903256
 30
0.0
 11
4881.4043979289
 21
2510.112805903256
 31
0.0
  0
LINE
  5
1A610
102
{ACAD_REACTORS
330
1A710
102
}
330
747D
100
AcDbEntity
  8
細線
100
AcDbLine
 10
4867.404397928901
 20
4230.112805903256
 30
0.0
 11
4881.4043979289
 21
4230.112805903256
 31
0.0
  0
CIRCLE
  5
1A611
102
{ACAD_REACTORS
330
1A710
102
}
330
747D
100
AcDbEntity
  8
細線
100
AcDbCircle
 10
4174.4043979289
 20
3370.112805903256
 30
0.0
 40
30.0
  0
CIRCLE
  5
1A612
102
{ACAD_REACTORS
330
1A710
102
}
330
747D
100
AcDbEntity
  8
細線
100
AcDbCircle
 10
4174.4043979289
 20
3370.112805903256
 30
0.0
 40
24.0
  0
LINE
  5
1A613
102
{ACAD_REACTORS
330
1A710
102
}
330
747D
100
AcDbEntity
  8
部品1
100
AcDbLine
 10
4050.604397928896
 20
4419.51280590326
 30
0.0
 11
4897.204397928902
 21
4419.51280590326
 31
0.0
  0
LINE
  5
1A614
102
{ACAD_REACTORS
330
1A710
102
}
330
747D
100
AcDbEntity
  8
部品1
100
AcDbLine
 10
4069.4043979289
 20
4398.112805903257
 30
0.0
 11
4069.4043979289
 21
4402.112805903256
 31
0.0
  0
LINE
  5
1A615
102
{ACAD_REACTORS
330
1A710
102
}
330
747D
100
AcDbEntity
  8
細線
100
AcDbLine
 10
4064.4043979289
 20
4398.112805903257
 30
0.0
 11
4064.4043979289
 21
2342.112805903257
 31
0.0
  0
LINE
  5
1A616
102
{ACAD_REACTORS
330
1A710
102
}
330
747D
100
AcDbEntity
  8
細線
100
AcDbLine
 10
4119.404397928899
 20
3327.612805903255
 30
0.0
 11
4830.404397928885
 21
3327.612805903255
 31
0.0
  0
LINE
  5
1A617
102
{ACAD_REACTORS
330
1A710
102
}
330
747D
100
AcDbEntity
  8
細線
100
AcDbLine
 10
4119.404397928899
 20
3412.612805903255
 30
0.0
 11
4830.404397928885
 21
3412.612805903255
 31
0.0
  0
LINE
  5
1A618
102
{ACAD_REACTORS
330
1A710
102
}
330
747D
100
AcDbEntity
  8
細線
100
AcDbLine
 10
4119.404397928899
 20
2432.112805903257
 30
0.0
 11
4830.404397928885
 21
2432.112805903257
 31
0.0
  0
LINE
  5
1A619
102
{ACAD_REACTORS
330
1A710
102
}
330
747D
100
AcDbEntity
  8
部品1
100
AcDbLine
 10
4049.4043979289
 20
4422.562805903258
 30
0.0
 11
4898.404397928892
 21
4422.562805903258
 31
0.0
  0
LINE
  5
1A61A
102
{ACAD_REACTORS
330
1A710
102
}
330
747D
100
AcDbEntity
  8
部品1
100
AcDbLine
 10
4878.404397928893
 20
4402.112805903256
 30
0.0
 11
4878.404397928893
 21
4285.612805903257
 31
0.0
  0
LINE
  5
1A61B
102
{ACAD_REACTORS
330
1A710
102
}
330
747D
100
AcDbEntity
  8
部品1
100
AcDbLine
 10
4050.604397928896
 20
4402.112805903258
 30
0.0
 11
4897.204397928902
 21
4402.112805903256
 31
0.0
  0
LINE
  5
1A61C
102
{ACAD_REACTORS
330
1A710
102
}
330
747D
100
AcDbEntity
  8
部品1
100
AcDbLine
 10
4069.4043979289
 20
2333.312805903256
 30
0.0
 11
4069.4043979289
 21
2342.112805903254
 31
0.0
  0
LINE
  5
1A61D
102
{ACAD_REACTORS
330
1A710
102
}
330
747D
100
AcDbEntity
  8
部品1
100
AcDbLine
 10
4897.204397928902
 20
2307.312805903256
 30
0.0
 11
4897.204397928902
 21
4428.112805903257
 31
0.0
  0
LINE
  5
1A61E
102
{ACAD_REACTORS
330
1A710
102
}
330
747D
100
AcDbEntity
  8
細線
100
AcDbLine
 10
4119.404397928899
 20
4308.112805903257
 30
0.0
 11
4830.404397928885
 21
4308.112805903257
 31
0.0
  0
LINE
  5
1A61F
102
{ACAD_REACTORS
330
1A710
102
}
330
747D
100
AcDbEntity
  8
細線
100
AcDbLine
 10
4830.404397928885
 20
2342.112805903257
 30
0.0
 11
4830.404397928885
 21
4398.112805903257
 31
0.0
  0
LINE
  5
1A620
102
{ACAD_REACTORS
330
1A710
102
}
330
747D
100
AcDbEntity
  8
細線
100
AcDbLine
 10
4119.404397928899
 20
4398.112805903257
 30
0.0
 11
4119.404397928899
 21
2342.112805903257
 31
0.0
  0
LINE
  5
1A621
102
{ACAD_REACTORS
330
1A710
102
}
330
747D
100
AcDbEntity
  8
細線
100
AcDbLine
 10
4875.404397928885
 20
4398.112805903257
 30
0.0
 11
4064.4043979289
 21
4398.112805903257
 31
0.0
  0
LINE
  5
1A622
102
{ACAD_REACTORS
330
1A710
102
}
330
747D
100
AcDbEntity
  8
細線
100
AcDbLine
 10
4875.404397928885
 20
2342.112805903257
 30
0.0
 11
4875.404397928885
 21
2454.612805903257
 31
0.0
  0
LINE
  5
1A623
102
{ACAD_REACTORS
330
1A710
102
}
330
747D
100
AcDbEntity
  8
細線
100
AcDbLine
 10
4064.4043979289
 20
2342.112805903257
 30
0.0
 11
4875.404397928885
 21
2342.112805903257
 31
0.0
  0
LINE
  5
1A624
102
{ACAD_REACTORS
330
1A710
102
}
330
747D
100
AcDbEntity
  8
細線
100
AcDbLine
 10
4079.404397928899
 20
4398.112805903257
 30
0.0
 11
4079.404397928899
 21
2342.112805903257
 31
0.0
  0
LINE
  5
1A625
102
{ACAD_REACTORS
330
1A710
102
}
330
747D
100
AcDbEntity
  8
部品1
100
AcDbLine
 10
4898.404397928892
 20
2307.312805903258
 30
0.0
 11
4898.404397928892
 21
4422.562805903258
 31
0.0
  0
LINE
  5
1A626
102
{ACAD_REACTORS
330
1A710
102
}
330
747D
100
AcDbEntity
  8
部品1
100
AcDbLine
 10
4049.4043979289
 20
2307.312805903256
 30
0.0
 11
4898.404397928892
 21
2307.312805903256
 31
0.0
  0
LINE
  5
1A627
102
{ACAD_REACTORS
330
1A710
102
}
330
747D
100
AcDbEntity
  8
部品1
100
AcDbLine
 10
4049.4043979289
 20
4422.562805903258
 30
0.0
 11
4049.4043979289
 21
2307.312805903258
 31
0.0
  0
DIMENSION
  5
1A62A
330
747D
100
AcDbEntity
  8
寸法
 48
50.0
100
AcDbDimension
  2
*D51
 10
3681.074766502565
 20
7471.507603031863
 30
0.0
 11
3681.074766502563
 21
7157.022321657625
 31
0.0
 70
   160
 71
     5
 42
44.99999999998727
  3
INABA_S40G
100
AcDbAlignedDimension
 13
3998.904397928903
 23
7516.50760303185
 33
0.0
 14
4049.4043979289
 24
7471.507603031863
 34
0.0
 50
90.0
100
AcDbRotatedDimension
1001
ACAD
1000
DSTYLE
1002
{
1070
   174
1070
     0
1070
   272
1070
     1
1070
   288
1070
     0
1070
   341
1005
0
1002
}
  0
LINE
  5
1A677
102
{ACAD_REACTORS
330
1A711
102
}
330
747D
100
AcDbEntity
  8
部品1
100
AcDbLine
 10
4151.016741021407
 20
7544.507603031857
 30
0.0
 11
4068.204424820704
 21
7544.507603031857
 31
0.0
  0
ARC
  5
1A67C
102
{ACAD_REACTORS
330
1A711
102
}
330
747D
100
AcDbEntity
  8
細線
100
AcDbCircle
 10
4155.496713979783
 20
7530.297976913442
 30
0.0
 40
1.999999999999318
100
AcDbArc
 50
192.6627699999926
 51
269.9996349996766
  0
ARC
  5
1A67D
102
{ACAD_REACTORS
330
1A711
102
}
330
747D
100
AcDbEntity
  8
細線
100
AcDbCircle
 10
4193.31311997978
 20
7530.297945913442
 30
0.0
 40
1.999999999999318
100
AcDbArc
 50
269.9995260001295
 51
347.337014000003
  0
LINE
  5
1A67E
102
{ACAD_REACTORS
330
1A711
102
}
330
747D
100
AcDbEntity
  8
細線
100
AcDbLine
 10
4193.312463979784
 20
7528.29774791344
 30
0.0
 11
4155.496331979784
 21
7528.29774791344
 31
0.0
  0
ARC
  5
1A67F
102
{ACAD_REACTORS
330
1A711
102
}
330
747D
100
AcDbEntity
  8
細線
100
AcDbCircle
 10
4151.897592979783
 20
7567.79854091344
 30
0.0
 40
1.999999999999318
100
AcDbArc
 50
90.00070999991514
 51
180.1717199999486
  0
ARC
  5
1A680
102
{ACAD_REACTORS
330
1A711
102
}
330
747D
100
AcDbEntity
  8
細線
100
AcDbCircle
 10
4196.912240979787
 20
7567.798479913441
 30
0.0
 40
1.999999999999318
100
AcDbArc
 50
359.8282257599598
 51
89.9999299997324
  0
LINE
  5
1A681
102
{ACAD_REACTORS
330
1A711
102
}
330
747D
100
AcDbEntity
  8
細線
100
AcDbLine
 10
4196.911584979783
 20
7569.79774791344
 30
0.0
 11
4151.897210979778
 21
7569.79774791344
 31
0.0
  0
ARC
  5
1A682
102
{ACAD_REACTORS
330
1A711
102
}
330
747D
100
AcDbEntity
  8
細線
100
AcDbCircle
 10
4305.296146921917
 20
7563.592066052091
 30
0.0
 40
155.4553048750251
100
AcDbArc
 50
178.4516507022735
 51
192.5324382524263
  0
ARC
  5
1A683
102
{ACAD_REACTORS
330
1A711
102
}
330
747D
100
AcDbEntity
  8
細線
100
AcDbCircle
 10
4043.514216871541
 20
7563.592172248931
 30
0.0
 40
155.4547706600797
100
AcDbArc
 50
347.4674920061668
 51
1.548292275740002
  0
LINE
  5
1A684
102
{ACAD_REACTORS
330
1A711
102
}
330
747D
100
AcDbEntity
  8
部品1
100
AcDbLine
 10
4053.904397928899
 20
7544.507603031857
 30
0.0
 11
4053.904397928899
 21
7516.507603031858
 31
0.0
  0
DIMENSION
  5
1A685
330
747D
100
AcDbEntity
  8
寸法
 48
50.0
100
AcDbDimension
  2
*D53
 10
4049.4043979289
 20
7006.486710272546
 30
0.0
 11
4473.9043979289
 21
7106.486710272545
 31
0.0
 70
    32
 71
     5
 42
849.0
  3
INABA_S40G
100
AcDbAlignedDimension
 13
4898.404397928899
 23
7471.407603031867
 33
0.0
 14
4049.4043979289
 24
7471.407603031867
 34
0.0
 50
180.0
100
AcDbRotatedDimension
1001
ACAD
1000
DSTYLE
1002
{
1070
   174
1070
     0
1070
   272
1070
     1
1070
   288
1070
     0
1070
   341
1005
0
1002
}
  0
LINE
  5
1A686
102
{ACAD_REACTORS
330
1A711
102
}
330
747D
100
AcDbEntity
  8
部品1
100
AcDbLine
 10
4893.9043979289
 20
7544.507603031857
 30
0.0
 11
4893.9043979289
 21
7516.507603031858
 31
0.0
  0
LINE
  5
1A687
102
{ACAD_REACTORS
330
1A711
102
}
330
747D
100
AcDbEntity
  8
部品1
100
AcDbLine
 10
4898.404397928899
 20
7516.507603031868
 30
0.0
 11
4898.404397928899
 21
7471.407603031867
 31
0.0
  0
LINE
  5
1A688
102
{ACAD_REACTORS
330
1A711
102
}
330
747D
100
AcDbEntity
  8
部品1
100
AcDbLine
 10
4898.404397928899
 20
7471.40760303187
 30
0.0
 11
4879.448206014068
 21
7471.40760303187
 31
0.0
  0
LINE
  5
1A689
102
{ACAD_REACTORS
330
1A711
102
}
330
747D
100
AcDbEntity
  8
部品1
100
AcDbLine
 10
4878.4043979289
 20
7472.431078414849
 30
0.0
 11
4878.4043979289
 21
7514.00760303187
 31
0.0
  0
LINE
  5
1A68A
102
{ACAD_REACTORS
330
1A711
102
}
330
747D
100
AcDbEntity
  8
部品1
100
AcDbLine
 10
4889.9043979289
 20
7514.00760303187
 30
0.0
 11
4889.9043979289
 21
7519.007603031869
 31
0.0
  0
LINE
  5
1A68B
102
{ACAD_REACTORS
330
1A711
102
}
330
747D
100
AcDbEntity
  8
部品1
100
AcDbLine
 10
4889.9043979289
 20
7519.007603031869
 30
0.0
 11
4893.9043979289
 21
7519.007603031869
 31
0.0
  0
LINE
  5
1A68C
102
{ACAD_REACTORS
330
1A711
102
}
330
747D
100
AcDbEntity
  8
部品1
100
AcDbLine
 10
4893.9043979289
 20
7519.007603031869
 30
0.0
 11
4893.9043979289
 21
7541.007603031864
 31
0.0
  0
LINE
  5
1A68D
102
{ACAD_REACTORS
330
1A711
102
}
330
747D
100
AcDbEntity
  8
部品1
100
AcDbLine
 10
4893.9043979289
 20
7541.007603031864
 30
0.0
 11
4881.604397928897
 21
7541.007603031864
 31
0.0
  0
LINE
  5
1A68E
102
{ACAD_REACTORS
330
1A711
102
}
330
747D
100
AcDbEntity
  8
部品1
100
AcDbLine
 10
4898.404397928899
 20
7514.00760303187
 30
0.0
 11
4878.104397928897
 21
7514.00760303187
 31
0.0
  0
LINE
  5
1A68F
102
{ACAD_REACTORS
330
1A711
102
}
330
747D
100
AcDbEntity
  8
部品1
100
AcDbLine
 10
4879.604397928897
 20
7514.00760303187
 30
0.0
 11
4879.604397928897
 21
7544.507603031857
 31
0.0
  0
LINE
  5
1A690
102
{ACAD_REACTORS
330
1A711
102
}
330
747D
100
AcDbEntity
  8
部品1
100
AcDbLine
 10
4069.4043979289
 20
7471.407603031867
 30
0.0
 11
4069.4043979289
 21
7514.00760303187
 31
0.0
  0
LINE
  5
1A691
102
{ACAD_REACTORS
330
1A711
102
}
330
747D
100
AcDbEntity
  8
部品1
100
AcDbLine
 10
4068.204397928902
 20
7514.00760303187
 30
0.0
 11
4068.204397928902
 21
7544.507603031864
 31
0.0
  0
LINE
  5
1A692
102
{ACAD_REACTORS
330
1A711
102
}
330
747D
100
AcDbEntity
  8
部品1
100
AcDbLine
 10
4049.4043979289
 20
7514.00760303187
 30
0.0
 11
4069.704388381464
 21
7514.00760303187
 31
0.0
  0
LINE
  5
1A693
102
{ACAD_REACTORS
330
1A711
102
}
330
747D
100
AcDbEntity
  8
部品1
100
AcDbLine
 10
4053.904397928899
 20
7541.007603031864
 30
0.0
 11
4066.204388381463
 21
7541.007603031864
 31
0.0
  0
LINE
  5
1A694
102
{ACAD_REACTORS
330
1A711
102
}
330
747D
100
AcDbEntity
  8
部品1
100
AcDbLine
 10
4053.904397928899
 20
7519.007603031869
 30
0.0
 11
4053.904397928899
 21
7541.007603031864
 31
0.0
  0
LINE
  5
1A695
102
{ACAD_REACTORS
330
1A711
102
}
330
747D
100
AcDbEntity
  8
部品1
100
AcDbLine
 10
4057.9043979289
 20
7519.007603031869
 30
0.0
 11
4053.904397928899
 21
7519.007603031869
 31
0.0
  0
LINE
  5
1A696
102
{ACAD_REACTORS
330
1A711
102
}
330
747D
100
AcDbEntity
  8
部品1
100
AcDbLine
 10
4057.9043979289
 20
7514.00760303187
 30
0.0
 11
4057.9043979289
 21
7519.007603031869
 31
0.0
  0
LINE
  5
1A697
102
{ACAD_REACTORS
330
1A711
102
}
330
747D
100
AcDbEntity
  8
部品1
100
AcDbLine
 10
4049.4043979289
 20
7516.507603031868
 30
0.0
 11
4049.4043979289
 21
7471.407603031867
 31
0.0
  0
LINE
  5
1A698
102
{ACAD_REACTORS
330
1A711
102
}
330
747D
100
AcDbEntity
  8
部品1
100
AcDbLine
 10
4869.360589843733
 20
7471.40760303187
 30
0.0
 11
4193.740515833314
 21
7471.407603031867
 31
0.0
  0
CIRCLE
  5
1A699
102
{ACAD_REACTORS
330
1A711
102
}
330
747D
100
AcDbEntity
  8
細線
100
AcDbCircle
 10
4874.4043979289
 20
7467.307603031868
 30
0.0
 40
6.5
  0
LINE
  5
1A69A
102
{ACAD_REACTORS
330
1A711
102
}
330
747D
100
AcDbEntity
  8
部品1
100
AcDbLine
 10
4878.4043979289
 20
7472.784828606922
 30
0.0
 11
4878.4043979289
 21
7510.307603031868
 31
0.0
  0
LINE
  5
1A69B
102
{ACAD_REACTORS
330
1A711
102
}
330
747D
100
AcDbEntity
  8
細線
100
AcDbLine
 10
4878.4043979289
 20
7510.307603031868
 30
0.0
 11
4874.4043979289
 21
7510.307603031868
 31
0.0
  0
LINE
  5
1A69C
102
{ACAD_REACTORS
330
1A711
102
}
330
747D
100
AcDbEntity
  8
細線
100
AcDbLine
 10
4874.4043979289
 20
7510.307603031868
 30
0.0
 11
4874.4043979289
 21
7473.7302193212
 31
0.0
  0
LINE
  5
1A69D
102
{ACAD_REACTORS
330
1A711
102
}
330
747D
100
AcDbEntity
  8
細線
100
AcDbLine
 10
4870.4043979289
 20
7472.784828606922
 30
0.0
 11
4870.4043979289
 21
7478.807071317088
 31
0.0
  0
LINE
  5
1A69E
102
{ACAD_REACTORS
330
1A711
102
}
330
747D
100
AcDbEntity
  8
細線
100
AcDbLine
 10
4074.4043979289
 20
7478.807071317088
 30
0.0
 11
4874.4043979289
 21
7478.807071317088
 31
0.0
  0
LINE
  5
1A69F
102
{ACAD_REACTORS
330
1A711
102
}
330
747D
100
AcDbEntity
  8
細線
100
AcDbLine
 10
4074.4043979289
 20
7506.807071317087
 30
0.0
 11
4874.4043979289
 21
7506.807071317087
 31
0.0
  0
LINE
  5
1A6A0
102
{ACAD_REACTORS
330
1A711
102
}
330
747D
100
AcDbEntity
  8
細線
100
AcDbLine
 10
4830.4043979289
 20
7478.807071317088
 30
0.0
 11
4830.4043979289
 21
7506.807071317087
 31
0.0
  0
LINE
  5
1A6A1
102
{ACAD_REACTORS
330
1A711
102
}
330
747D
100
AcDbEntity
  8
細線
100
AcDbLine
 10
4119.404535248899
 20
7478.807071317088
 30
0.0
 11
4119.404535248899
 21
7506.807071317087
 31
0.0
  0
LINE
  5
1A6A2
102
{ACAD_REACTORS
330
1A711
102
}
330
747D
100
AcDbEntity
  8
細線
100
AcDbLine
 10
4074.4043979289
 20
7506.807071317087
 30
0.0
 11
4074.4043979289
 21
7478.807071317088
 31
0.0
  0
LINE
  5
1A6A3
102
{ACAD_REACTORS
330
1A711
102
}
330
747D
100
AcDbEntity
  8
細線
100
AcDbLine
 10
4159.404544979786
 20
7528.297433913444
 30
0.0
 11
4155.951723979788
 21
7515.694640913442
 31
0.0
  0
LINE
  5
1A6A4
102
{ACAD_REACTORS
330
1A711
102
}
330
747D
100
AcDbEntity
  8
細線
100
AcDbLine
 10
4189.403817979781
 20
7528.297961913441
 30
0.0
 11
4192.856780979783
 21
7515.694682913441
 31
0.0
  0
ARC
  5
1A6A5
102
{ACAD_REACTORS
330
1A711
102
}
330
747D
100
AcDbEntity
  8
細線
100
AcDbCircle
 10
4305.294579037132
 20
7421.892472923694
 30
0.0
 40
155.454770660076
100
AcDbArc
 50
167.4674920061668
 51
181.54829227574
  0
ARC
  5
1A6A6
102
{ACAD_REACTORS
330
1A711
102
}
330
747D
100
AcDbEntity
  8
細線
100
AcDbCircle
 10
4043.51264898677
 20
7421.892579120537
 30
0.0
 40
155.4553048750133
100
AcDbArc
 50
358.4516507022735
 51
12.53243825242636
  0
LINE
  5
1A6A7
102
{ACAD_REACTORS
330
1A711
102
}
330
747D
100
AcDbEntity
  8
細線
100
AcDbLine
 10
4151.897210928904
 20
7415.686897259189
 30
0.0
 11
4196.911584928895
 21
7415.686897259189
 31
0.0
  0
LINE
  5
1A6A8
102
{ACAD_REACTORS
330
1A711
102
}
330
747D
100
AcDbEntity
  8
細線
100
AcDbLine
 10
4206.903772928899
 20
7476.68646305919
 30
0.0
 11
4206.903772928899
 21
7478.807071317088
 31
0.0
  0
LINE
  5
1A6A9
102
{ACAD_REACTORS
330
1A711
102
}
330
747D
100
AcDbEntity
  8
細線
100
AcDbLine
 10
4206.903510979786
 20
7508.797951713443
 30
0.0
 11
4195.349766979782
 21
7512.991527313442
 31
0.0
  0
LINE
  5
1A6AA
102
{ACAD_REACTORS
330
1A711
102
}
330
747D
100
AcDbEntity
  8
細線
100
AcDbLine
 10
4206.903772979788
 20
7508.798182113443
 30
0.0
 11
4206.903772979788
 21
7506.807071317087
 31
0.0
  0
ARC
  5
1A6AB
102
{ACAD_REACTORS
330
1A711
102
}
330
747D
100
AcDbEntity
  8
細線
100
AcDbCircle
 10
4196.715707979778
 20
7516.750659913441
 30
0.0
 40
3.999999999998637
100
AcDbArc
 50
195.3215700000427
 51
250.0509499999092
  0
ARC
  5
1A6AC
102
{ACAD_REACTORS
330
1A711
102
}
330
747D
100
AcDbEntity
  8
細線
100
AcDbCircle
 10
4151.8965549289
 20
7417.686165259192
 30
0.0
 40
1.999999999999318
100
AcDbArc
 50
179.8282257599598
 51
269.9999299997324
  0
LINE
  5
1A6AD
102
{ACAD_REACTORS
330
1A711
102
}
330
747D
100
AcDbEntity
  8
細線
100
AcDbLine
 10
4206.903510928898
 20
7476.68669345919
 30
0.0
 11
4195.349766928901
 21
7472.493117859189
 31
0.0
  0
LINE
  5
1A6AE
102
{ACAD_REACTORS
330
1A711
102
}
330
747D
100
AcDbEntity
  8
細線
100
AcDbLine
 10
4189.4038179289
 20
7457.186683259189
 30
0.0
 11
4192.856780928896
 21
7469.789962259189
 31
0.0
  0
ARC
  5
1A6AF
102
{ACAD_REACTORS
330
1A711
102
}
330
747D
100
AcDbEntity
  8
細線
100
AcDbCircle
 10
4196.715707928905
 20
7468.733985259189
 30
0.0
 40
3.999999999998637
100
AcDbArc
 50
109.9490500000908
 51
164.6784299999572
  0
LINE
  5
1A6B0
102
{ACAD_REACTORS
330
1A711
102
}
330
747D
100
AcDbEntity
  8
細線
100
AcDbLine
 10
4141.905023928901
 20
7476.68646305919
 30
0.0
 11
4141.905023928901
 21
7478.807071317088
 31
0.0
  0
ARC
  5
1A6B1
102
{ACAD_REACTORS
330
1A711
102
}
330
747D
100
AcDbEntity
  8
細線
100
AcDbCircle
 10
4152.094125979785
 20
7516.750628913442
 30
0.0
 40
3.999999999998637
100
AcDbArc
 50
289.9491399999396
 51
344.6784900000253
  0
LINE
  5
1A6B2
102
{ACAD_REACTORS
330
1A711
102
}
330
747D
100
AcDbEntity
  8
細線
100
AcDbLine
 10
4153.458498979782
 20
7512.991918513441
 30
0.0
 11
4141.904758979786
 21
7508.798333313442
 31
0.0
  0
LINE
  5
1A6B3
102
{ACAD_REACTORS
330
1A711
102
}
330
747D
100
AcDbEntity
  8
細線
100
AcDbLine
 10
4141.905023979782
 20
7508.798182113443
 30
0.0
 11
4141.905023979782
 21
7506.807071317087
 31
0.0
  0
ARC
  5
1A6B4
102
{ACAD_REACTORS
330
1A711
102
}
330
747D
100
AcDbEntity
  8
細線
100
AcDbCircle
 10
4152.094125928897
 20
7468.734016259192
 30
0.0
 40
3.999999999998637
100
AcDbArc
 50
15.32150999997468
 51
70.05086000006039
  0
LINE
  5
1A6B5
102
{ACAD_REACTORS
330
1A711
102
}
330
747D
100
AcDbEntity
  8
細線
100
AcDbLine
 10
4159.404544928899
 20
7457.18721125919
 30
0.0
 11
4155.935149591592
 21
7469.850500572831
 31
0.0
  0
ARC
  5
1A6B6
102
{ACAD_REACTORS
330
1A711
102
}
330
747D
100
AcDbEntity
  8
細線
100
AcDbCircle
 10
4196.911202928897
 20
7417.686104259189
 30
0.0
 40
1.999999999999318
100
AcDbArc
 50
270.0007099999151
 51
0.1717199999486262
  0
LINE
  5
1A6B7
102
{ACAD_REACTORS
330
1A711
102
}
330
747D
100
AcDbEntity
  8
細線
100
AcDbLine
 10
4153.458498928901
 20
7472.492726659189
 30
0.0
 11
4141.904758928898
 21
7476.686311859189
 31
0.0
  0
LINE
  5
1A6B8
102
{ACAD_REACTORS
330
1A711
102
}
330
747D
100
AcDbEntity
  8
細線
100
AcDbLine
 10
4155.496331928897
 20
7457.18689725919
 30
0.0
 11
4193.312463928903
 21
7457.18689725919
 31
0.0
  0
ARC
  5
1A6B9
102
{ACAD_REACTORS
330
1A711
102
}
330
747D
100
AcDbEntity
  8
細線
100
AcDbCircle
 10
4155.495675928899
 20
7455.186699259191
 30
0.0
 40
1.999999999999318
100
AcDbArc
 50
89.99952600012946
 51
167.3370140000029
  0
ARC
  5
1A6BA
102
{ACAD_REACTORS
330
1A711
102
}
330
747D
100
AcDbEntity
  8
細線
100
AcDbCircle
 10
4193.312081928898
 20
7455.186668259187
 30
0.0
 40
1.999999999999318
100
AcDbArc
 50
12.66276999999267
 51
89.99963499967666
  0
LINE
  5
1A6BB
102
{ACAD_REACTORS
330
1A711
102
}
330
747D
100
AcDbEntity
  8
部品1
 48
0.3
100
AcDbLine
 10
4878.104397928897
 20
7514.00760303187
 30
0.0
 11
4878.104397928897
 21
7519.507603031868
 31
0.0
  0
LINE
  5
1A6BC
102
{ACAD_REACTORS
330
1A711
102
}
330
747D
100
AcDbEntity
  8
部品1
 48
0.3
100
AcDbLine
 10
4878.104397928897
 20
7519.507603031868
 30
0.0
 11
4881.604397928897
 21
7519.507603031868
 31
0.0
  0
LINE
  5
1A6BD
102
{ACAD_REACTORS
330
1A711
102
}
330
747D
100
AcDbEntity
  8
部品1
 48
0.3
100
AcDbLine
 10
4881.604397928897
 20
7519.507603031868
 30
0.0
 11
4881.604397928897
 21
7544.507603031857
 31
0.0
  0
LINE
  5
1A6BE
102
{ACAD_REACTORS
330
1A711
102
}
330
747D
100
AcDbEntity
  8
部品1
 48
0.3
100
AcDbLine
 10
4878.104397928897
 20
7514.00760303187
 30
0.0
 11
4193.804412916683
 21
7514.00760303187
 31
0.0
  0
LINE
  5
1A6BF
102
{ACAD_REACTORS
330
1A711
102
}
330
747D
100
AcDbEntity
  8
部品1
 48
0.3
100
AcDbLine
 10
4066.204388381463
 20
7519.507603031868
 30
0.0
 11
4066.204388381463
 21
7544.507603031864
 31
0.0
  0
LINE
  5
1A6C0
102
{ACAD_REACTORS
330
1A711
102
}
330
747D
100
AcDbEntity
  8
部品1
 48
0.3
100
AcDbLine
 10
4069.704388381464
 20
7519.507603031868
 30
0.0
 11
4066.204388381463
 21
7519.507603031868
 31
0.0
  0
LINE
  5
1A6C1
102
{ACAD_REACTORS
330
1A711
102
}
330
747D
100
AcDbEntity
  8
部品1
 48
0.3
100
AcDbLine
 10
4069.704388381464
 20
7514.00760303187
 30
0.0
 11
4069.704388381464
 21
7519.507603031868
 31
0.0
  0
LINE
  5
1A6C2
102
{ACAD_REACTORS
330
1A711
102
}
330
747D
100
AcDbEntity
  8
部品1
100
AcDbLine
 10
4879.604371037096
 20
7544.507603031857
 30
0.0
 11
4916.476779910766
 21
7544.507603031857
 31
0.0
  0
LINE
  5
1A6C3
102
{ACAD_REACTORS
330
1A711
102
}
330
747D
100
AcDbEntity
  8
部品1
100
AcDbLine
 10
4916.476779910766
 20
7544.507603031857
 30
0.0
 11
4925.209441447254
 21
7542.330305971461
 31
0.0
  0
LINE
  5
1A6C4
102
{ACAD_REACTORS
330
1A711
102
}
330
747D
100
AcDbEntity
  8
部品1
100
AcDbLine
 10
4031.332015947032
 20
7544.507603031857
 30
0.0
 11
4022.599354410545
 21
7542.330305971461
 31
0.0
  0
LINE
  5
1A6C5
102
{ACAD_REACTORS
330
1A711
102
}
330
747D
100
AcDbEntity
  8
部品1
100
AcDbLine
 10
4068.204424820704
 20
7544.507603031857
 30
0.0
 11
4031.332015947032
 21
7544.507603031857
 31
0.0
  0
LINE
  5
1A6C6
102
{ACAD_REACTORS
330
1A711
102
}
330
747D
100
AcDbEntity
  8
部品1
100
AcDbLine
 10
4155.069345881939
 20
7471.407603031867
 30
0.0
 11
4049.4043979289
 21
7471.407603031867
 31
0.0
  0
LINE
  5
1A6C7
102
{ACAD_REACTORS
330
1A711
102
}
330
747D
100
AcDbEntity
  8
部品1
 48
0.3
100
AcDbLine
 10
4155.005450251135
 20
7514.007603031865
 30
0.0
 11
4069.704388381464
 21
7514.00760303187
 31
0.0
  0
LINE
  5
1A6C8
102
{ACAD_REACTORS
330
1A711
102
}
330
747D
100
AcDbEntity
  8
細線
100
AcDbLine
 10
4079.404382648902
 20
7478.807071317088
 30
0.0
 11
4079.404382648902
 21
7468.807071317087
 31
0.0
  0
LINE
  5
1A6C9
102
{ACAD_REACTORS
330
1A711
102
}
330
747D
100
AcDbEntity
  8
細線
100
AcDbLine
 10
4079.404382648902
 20
7468.807071317087
 30
0.0
 11
4064.404382648901
 21
7468.807071317087
 31
0.0
  0
LINE
  5
1A714
330
747D
100
AcDbEntity
  8
部品1
 48
50.0
100
AcDbLine
 10
4049.4043979289
 20
2338.112805903255
 30
0.0
 11
3998.904397928897
 21
2338.112805903255
 31
0.0
  0
LINE
  5
1A751
330
747D
100
AcDbEntity
  8
部品1
100
AcDbLine
 10
4197.793071348674
 20
7544.507603031846
 30
0.0
 11
5760.904397928898
 21
7544.507603031862
 31
0.0
  0
LINE
  5
1A99C
102
{ACAD_REACTORS
330
1AA11
102
}
330
747D
100
AcDbEntity
  8
部品1
 48
50.0
100
AcDbLine
 10
11165.14422886715
 20
4418.112805903255
 30
0.0
 11
11120.14422886715
 21
4402.112805903259
 31
0.0
  0
LINE
  5
1A99D
102
{ACAD_REACTORS
330
1AA11
102
}
330
747D
100
AcDbEntity
  8
部品1
 48
50.0
100
AcDbLine
 10
11120.14422886715
 20
2307.312805903258
 30
0.0
 11
11165.14422886715
 21
2307.312805903258
 31
0.0
  0
LINE
  5
1A99E
102
{ACAD_REACTORS
330
1AA11
102
}
330
747D
100
AcDbEntity
  8
部品1
 48
50.0
100
AcDbLine
 10
11120.14422886715
 20
4402.112805903259
 30
0.0
 11
11120.14422886715
 21
2307.312805903258
 31
0.0
  0
DIMENSION
  5
1A9C7
330
747D
100
AcDbEntity
  8
寸法
 48
50.0
100
AcDbDimension
  2
*D67
 10
10812.2431340206
 20
2350.112805903255
 30
0.0
 11
10712.23132299698
 21
3370.112805903258
 31
0.0
 70
    32
  1
有効開口部高サ<>
 71
     5
 42
2040.0
  3
INABA_S40G
100
AcDbAlignedDimension
 13
11120.14422886715
 23
4390.112805903255
 33
0.0
 14
11120.14422886715
 24
2350.112805903255
 34
0.0
 50
90.0
100
AcDbRotatedDimension
1001
ACAD
1000
DSTYLE
1002
{
1070
   341
1005
0
1002
}
  0
TEXT
  5
1AAC8
330
747D
100
AcDbEntity
  8
文字
 62
     7
 48
50.0
100
AcDbText
 10
13583.11819016567
 20
8890.013745883729
 30
0.0
 40
100.0
  1
ドア枠
  7
STYLE1
100
AcDbText
  0
TEXT
  5
1AAC9
330
747D
100
AcDbEntity
  8
文字
 62
     7
 48
50.0
100
AcDbText
 10
13583.11819016567
 20
8719.49491288543
 30
0.0
 40
100.0
  1
ドア本体
  7
STYLE1
100
AcDbText
  0
TEXT
  5
1AACA
330
747D
100
AcDbEntity
  8
文字
 62
     7
 48
50.0
100
AcDbText
 10
14841.17090485269
 20
8890.013745883724
 30
0.0
 40
100.0
  1
アルミニウム合金押出形材
  7
STYLE1
100
AcDbText
  0
TEXT
  5
1AACB
330
747D
100
AcDbEntity
  8
文字
 62
     7
 48
50.0
100
AcDbText
 10
14841.17090485269
 20
8720.013745883724
 30
0.0
 40
100.0
  1
アルミニウム合金押出形材
  7
STYLE1
100
AcDbText
  0
ENDSEC
  0
SECTION
  2
OBJECTS
  0
DICTIONARY
  5
7471
330
0
100
AcDbDictionary
281
     1
  3
ACAD_COLOR
350
13A7D
  3
ACAD_GROUP
350
7472
  3
ACAD_LAYOUT
350
13A7E
  3
ACAD_MATERIAL
350
13A7C
  3
ACAD_MLINESTYLE
350
7473
  3
ACAD_PLOTSETTINGS
350
13A7F
  3
ACAD_PLOTSTYLENAME
350
13A7A
  3
ACDBHEADERROUNDTRIPXREC
350
1AAD9
  3
AcDbVariableDictionary
350
18DE8
  3
CONTENTDICTIONARY
350
E71C
  3
DRAWINGVARIABLESDICT
350
F3B9
  0
DICTIONARY
  5
13C05
330
7467
100
AcDbDictionary
280
     1
281
     1
  3
ACAD_LAYERSTATES
360
13C06
  0
DICTIONARY
  5
13A7D
102
{ACAD_REACTORS
330
7471
102
}
330
7471
100
AcDbDictionary
281
     1
  0
DICTIONARY
  5
7472
102
{ACAD_REACTORS
330
7471
102
}
330
7471
100
AcDbDictionary
281
     1
  3
*A1
350
19747
  3
*A10
350
1A1F1
  3
*A11
350
1A223
  3
*A12
350
1A508
  3
*A13
350
1A509
  3
*A14
350
1A50A
  3
*A2
350
1A710
  3
*A3
350
1A711
  3
*A4
350
1A712
  3
*A5
350
1A93D
  3
*A6
350
1AA11
  3
*A7
350
1981E
  3
*A8
350
1A15E
  3
*A9
350
1A17C
  0
DICTIONARY
  5
13A7E
102
{ACAD_REACTORS
330
7471
102
}
330
7471
100
AcDbDictionary
281
     1
  3
Model
350
13A80
  3
レイアウト1
350
13A81
  0
DICTIONARY
  5
13A7C
102
{ACAD_REACTORS
330
7471
102
}
330
7471
100
AcDbDictionary
281
     1
  0
DICTIONARY
  5
7473
102
{ACAD_REACTORS
330
7471
102
}
330
7471
100
AcDbDictionary
281
     1
  3
STANDARD
350
7480
  0
DICTIONARY
  5
13A7F
102
{ACAD_REACTORS
330
7471
102
}
330
7471
100
AcDbDictionary
281
     1
  0
ACDBDICTIONARYWDFLT
  5
13A7A
102
{ACAD_REACTORS
330
7471
102
}
330
7471
100
AcDbDictionary
281
     1
  3
Normal
350
13A7B
100
AcDbDictionaryWithDefault
340
13A7B
  0
DICTIONARY
  5
1AAD9
102
{ACAD_REACTORS
330
7471
102
}
330
7471
100
AcDbDictionary
281
     1
  3
COLORDICT
350
1AADB
  3
MATERIALDICT
350
1AADA
  0
DICTIONARY
  5
18DE8
102
{ACAD_REACTORS
330
7471
102
}
330
7471
100
AcDbDictionary
281
     1
  3
DIMASSOC
350
18DE9
  3
PROJECTNAME
350
18DEA
  0
DICTIONARY
  5
E71C
102
{ACAD_REACTORS
330
7471
102
}
330
7471
100
AcDbDictionary
281
     1
  0
DICTIONARY
  5
F3B9
102
{ACAD_REACTORS
330
7471
102
}
330
7471
100
AcDbDictionary
281
     1
1001
DRAWINGVARIABLESXDATA
1000
POLARMODE
1000
1
  0
DICTIONARY
  5
13C06
102
{ACAD_REACTORS
330
13C05
102
}
330
13C05
100
AcDbDictionary
281
     1
  0
GROUP
  5
19747
102
{ACAD_REACTORS
330
7472
102
}
330
7472
100
AcDbGroup
300

 70
     1
 71
     1
  0
GROUP
  5
1A1F1
102
{ACAD_REACTORS
330
7472
102
}
330
7472
100
AcDbGroup
300

 70
     1
 71
     1
  0
GROUP
  5
1A223
102
{ACAD_REACTORS
330
7472
102
}
330
7472
100
AcDbGroup
300

 70
     1
 71
     1
  0
GROUP
  5
1A508
102
{ACAD_REACTORS
330
7472
102
}
330
7472
100
AcDbGroup
300

 70
     1
 71
     1
  0
GROUP
  5
1A509
102
{ACAD_REACTORS
330
7472
102
}
330
7472
100
AcDbGroup
300

 70
     1
 71
     1
  0
GROUP
  5
1A50A
102
{ACAD_REACTORS
330
7472
102
}
330
7472
100
AcDbGroup
300

 70
     1
 71
     1
  0
GROUP
  5
1A710
102
{ACAD_REACTORS
330
7472
102
}
330
7472
100
AcDbGroup
300

 70
     1
 71
     1
340
1A627
340
1A626
340
1A625
340
1A624
340
1A623
340
1A622
340
1A621
340
1A620
340
1A61F
340
1A61E
340
1A61D
340
1A61C
340
1A61B
340
1A61A
340
1A619
340
1A618
340
1A617
340
1A616
340
1A615
340
1A614
340
1A613
340
1A612
340
1A611
340
1A610
340
1A60F
340
1A60E
340
1A60D
340
1A60C
340
1A60B
340
1A60A
340
1A609
340
1A608
340
1A607
340
1A606
340
1A605
340
1A604
340
1A603
340
1A602
340
1A601
  0
GROUP
  5
1A711
102
{ACAD_REACTORS
330
7472
102
}
330
7472
100
AcDbGroup
300

 70
     1
 71
     1
340
1A6C9
340
1A6C8
340
1A6C7
340
1A6C6
340
1A6C5
340
1A6C4
340
1A6C3
340
1A6C2
340
1A6C1
340
1A6C0
340
1A6BF
340
1A6BE
340
1A6BD
340
1A6BC
340
1A6BB
340
1A6BA
340
1A6B9
340
1A6B8
340
1A6B7
340
1A6B6
340
1A6B5
340
1A6B4
340
1A6B3
340
1A6B2
340
1A6B1
340
1A6B0
340
1A6AF
340
1A6AE
340
1A6AD
340
1A6AC
340
1A6AB
340
1A6AA
340
1A6A9
340
1A6A8
340
1A6A7
340
1A6A6
340
1A6A5
340
1A6A4
340
1A6A3
340
1A6A2
340
1A6A1
340
1A6A0
340
1A69F
340
1A69E
340
1A69D
340
1A69C
340
1A69B
340
1A69A
340
1A699
340
1A698
340
1A697
340
1A696
340
1A695
340
1A694
340
1A693
340
1A692
340
1A691
340
1A690
340
1A68F
340
1A68E
340
1A68D
340
1A68C
340
1A68B
340
1A68A
340
1A689
340
1A688
340
1A687
340
1A686
340
1A684
340
1A683
340
1A682
340
1A681
340
1A680
340
1A67F
340
1A67E
340
1A67D
340
1A67C
340
1A677
  0
GROUP
  5
1A712
102
{ACAD_REACTORS
330
7472
102
}
330
7472
100
AcDbGroup
300

 70
     1
 71
     1
  0
GROUP
  5
1A93D
102
{ACAD_REACTORS
330
7472
102
}
330
7472
100
AcDbGroup
300

 70
     1
 71
     1
  0
GROUP
  5
1AA11
102
{ACAD_REACTORS
330
7472
102
}
330
7472
100
AcDbGroup
300

 70
     1
 71
     1
340
1A99E
340
1A99D
340
1A99C
  0
GROUP
  5
1981E
102
{ACAD_REACTORS
330
7472
102
}
330
7472
100
AcDbGroup
300

 70
     1
 71
     1
  0
GROUP
  5
1A15E
102
{ACAD_REACTORS
330
7472
102
}
330
7472
100
AcDbGroup
300

 70
     1
 71
     1
  0
GROUP
  5
1A17C
102
{ACAD_REACTORS
330
7472
102
}
330
7472
100
AcDbGroup
300

 70
     1
 71
     1
  0
LAYOUT
  5
13A80
102
{ACAD_XDICTIONARY
360
1AADC
102
}
102
{ACAD_REACTORS
330
13A7E
102
}
330
13A7E
100
AcDbPlotSettings
  1

  2
クセロPDF
  4
A3
  6

 40
3.174999999999999
 41
3.174999999999999
 42
3.174987999999999
 43
3.174987999999999
 44
419.946655
 45
296.925995
 46
0.0
 47
0.0
 48
3.619012999999999
 49
-4.192116999999999
140
820.022926
141
573.23922
142
1.0
143
39.99735025379429
 70
 11952
 72
     1
 73
     0
 74
     2
  7
inaba.ctb
 75
     0
147
0.0250016562010914
148
25.79074261211281
149
125.8223078213959
100
AcDbLayout
  1
Model
 70
     1
 71
     0
 10
0.0
 20
0.0
 11
12.0
 21
9.0
 12
0.0
 22
0.0
 32
0.0
 14
0.0
 24
0.0
 34
0.0
 15
0.0
 25
0.0
 35
0.0
146
0.0
 13
0.0
 23
0.0
 33
0.0
 16
1.0
 26
0.0
 36
0.0
 17
0.0
 27
1.0
 37
0.0
 76
     0
330
747D
  0
LAYOUT
  5
13A81
102
{ACAD_XDICTIONARY
360
1AADE
102
}
102
{ACAD_REACTORS
330
13A7E
102
}
330
13A7E
100
AcDbPlotSettings
  1

  2
Microsoft Office Document Image Writer
  4

  6

 40
0.0
 41
0.0
 42
0.0
 43
0.0
 44
0.0
 45
0.0
 46
0.0
 47
0.0
 48
0.0
 49
0.0
140
0.0
141
0.0
142
1.0
143
1.0
 70
   688
 72
     0
 73
     0
 74
     5
  7
inaba.ctb
 75
    16
147
1.0
148
0.0
149
0.0
100
AcDbLayout
  1
レイアウト1
 70
     0
 71
     1
 10
0.0
 20
0.0
 11
420.0
 21
297.0
 12
0.0
 22
0.0
 32
0.0
 14
1.000000000000000E+20
 24
1.000000000000000E+20
 34
1.000000000000000E+20
 15
-1.000000000000000E+20
 25
-1.000000000000000E+20
 35
-1.000000000000000E+20
146
0.0
 13
0.0
 23
0.0
 33
0.0
 16
1.0
 26
0.0
 36
0.0
 17
0.0
 27
1.0
 37
0.0
 76
     0
330
747A
  0
MLINESTYLE
  5
7480
102
{ACAD_REACTORS
330
7473
102
}
330
7473
100
AcDbMlineStyle
  2
STANDARD
 70
     0
  3

 62
     0
 51
90.0
 52
90.0
 71
     2
 49
0.5
 62
   256
  6
BYLAYER
 49
-0.5
 62
   256
  6
BYLAYER
  0
ACDBPLACEHOLDER
  5
13A7B
102
{ACAD_REACTORS
330
13A7A
102
}
330
13A7A
  0
XRECORD
  5
1AADB
102
{ACAD_REACTORS
330
1AAD9
102
}
330
1AAD9
100
AcDbXrecord
280
     1
340
13A7D
  0
XRECORD
  5
1AADA
102
{ACAD_REACTORS
330
1AAD9
102
}
330
1AAD9
100
AcDbXrecord
280
     1
340
13A7C
  0
DICTIONARYVAR
  5
18DE9
102
{ACAD_REACTORS
330
18DE8
102
}
330
18DE8
100
DictionaryVariables
280
     0
  1
1
  0
DICTIONARYVAR
  5
18DEA
102
{ACAD_REACTORS
330
18DE8
102
}
330
18DE8
100
DictionaryVariables
280
     0
  1

  0
DICTIONARY
  5
1AADC
330
13A80
100
AcDbDictionary
280
     1
281
     1
  3
ACAD_XREC_ROUNDTRIP
360
1AADD
  0
DICTIONARY
  5
1AADE
330
13A81
100
AcDbDictionary
280
     1
281
     1
  3
ACAD_XREC_ROUNDTRIP
360
1AADF
  0
XRECORD
  5
1AADD
102
{ACAD_REACTORS
330
1AADC
102
}
330
1AADC
100
AcDbXrecord
280
     1
102
SHADEPLOT
 70
     1
102
SHADEPLOTRESLEVEL
 70
     2
102
SHADEPLOTCUSTOMDPI
 70
   300
  0
XRECORD
  5
1AADF
102
{ACAD_REACTORS
330
1AADE
102
}
330
1AADE
100
AcDbXrecord
280
     1
102
SHADEPLOT
 70
     0
102
SHADEPLOTRESLEVEL
 70
     2
102
SHADEPLOTCUSTOMDPI
 70
   300
  0
ENDSEC
  0
EOF
