  0
SECTION
  2
HEADER
  9
$ACADVER
  1
AC1015
  9
$ACADMAINTVER
 70
    20
  9
$DWGCODEPAGE
  3
ANSI_932
  9
$INSBASE
 10
0.0
 20
0.0
 30
0.0
  9
$EXTMIN
 10
139.196816621341
 20
-0.5436960005536094
 30
-0.0000000000000058
  9
$EXTMAX
 10
16308.32523385566
 20
11409.94830329749
 30
0.0000000000000104
  9
$LIMMIN
 10
0.0
 20
0.0
  9
$LIMMAX
 10
16800.0
 20
11880.0
  9
$ORTHOMODE
 70
     0
  9
$REGENMODE
 70
     1
  9
$FILLMODE
 70
     1
  9
$QTEXTMODE
 70
     0
  9
$MIRRTEXT
 70
     1
  9
$LTSCALE
 40
20.0
  9
$ATTMODE
 70
     1
  9
$TEXTSIZE
 40
100.0
  9
$TRACEWID
 40
1.0
  9
$TEXTSTYLE
  7
STYLE2
  9
$CLAYER
  8
寸法
  9
$CELTYPE
  6
BYLAYER
  9
$CECOLOR
 62
   256
  9
$CELTSCALE
 40
50.0
  9
$DISPSILH
 70
     0
  9
$DIMSCALE
 40
40.0
  9
$DIMASZ
 40
2.5
  9
$DIMEXO
 40
0.5
  9
$DIMDLI
 40
7.0
  9
$DIMRND
 40
0.0
  9
$DIMDLE
 40
0.0
  9
$DIMEXE
 40
1.5
  9
$DIMTP
 40
0.0
  9
$DIMTM
 40
0.0
  9
$DIMTXT
 40
3.0
  9
$DIMCEN
 40
0.0
  9
$DIMTSZ
 40
0.0
  9
$DIMTOL
 70
     0
  9
$DIMLIM
 70
     0
  9
$DIMTIH
 70
     0
  9
$DIMTOH
 70
     0
  9
$DIMSE1
 70
     0
  9
$DIMSE2
 70
     0
  9
$DIMTAD
 70
     3
  9
$DIMZIN
 70
     8
  9
$DIMBLK
  1

  9
$DIMASO
 70
     1
  9
$DIMSHO
 70
     1
  9
$DIMPOST
  1

  9
$DIMAPOST
  1

  9
$DIMALT
 70
     0
  9
$DIMALTD
 70
     2
  9
$DIMALTF
 40
0.0394
  9
$DIMLFAC
 40
1.0
  9
$DIMTOFL
 70
     1
  9
$DIMTVP
 40
0.0
  9
$DIMTIX
 70
     0
  9
$DIMSOXD
 70
     0
  9
$DIMSAH
 70
     1
  9
$DIMBLK1
  1
DOTSMALL
  9
$DIMBLK2
  1
DOTSMALL
  9
$DIMSTYLE
  2
INABA_S40G
  9
$DIMCLRD
 70
     0
  9
$DIMCLRE
 70
     0
  9
$DIMCLRT
 70
     7
  9
$DIMTFAC
 40
1.0
  9
$DIMGAP
 40
1.0
  9
$DIMJUST
 70
     0
  9
$DIMSD1
 70
     0
  9
$DIMSD2
 70
     0
  9
$DIMTOLJ
 70
     1
  9
$DIMTZIN
 70
     0
  9
$DIMALTZ
 70
     0
  9
$DIMALTTZ
 70
     0
  9
$DIMUPT
 70
     0
  9
$DIMDEC
 70
     1
  9
$DIMTDEC
 70
     1
  9
$DIMALTU
 70
     2
  9
$DIMALTTD
 70
     2
  9
$DIMTXSTY
  7
STYLE1
  9
$DIMAUNIT
 70
     0
  9
$DIMADEC
 70
     0
  9
$DIMALTRND
 40
0.0
  9
$DIMAZIN
 70
     0
  9
$DIMDSEP
 70
    46
  9
$DIMATFIT
 70
     3
  9
$DIMFRAC
 70
     0
  9
$DIMLDRBLK
  1

  9
$DIMLUNIT
 70
     2
  9
$DIMLWD
 70
    -2
  9
$DIMLWE
 70
    -2
  9
$DIMTMOVE
 70
     0
  9
$LUNITS
 70
     2
  9
$LUPREC
 70
     1
  9
$SKETCHINC
 40
1.0
  9
$FILLETRAD
 40
0.0
  9
$AUNITS
 70
     0
  9
$AUPREC
 70
     0
  9
$MENU
  1
acad
  9
$ELEVATION
 40
0.0
  9
$PELEVATION
 40
0.0
  9
$THICKNESS
 40
0.0
  9
$LIMCHECK
 70
     0
  9
$CHAMFERA
 40
3.0
  9
$CHAMFERB
 40
3.0
  9
$CHAMFERC
 40
0.0
  9
$CHAMFERD
 40
0.0
  9
$SKPOLY
 70
     0
  9
$TDCREATE
 40
2451368.612993866
  9
$TDUCREATE
 40
2451368.237993866
  9
$TDUPDATE
 40
2456380.848038553
  9
$TDUUPDATE
 40
2456380.473038553
  9
$TDINDWG
 40
1.4321768981
  9
$TDUSRTIMER
 40
1.4321768981
  9
$USRTIMER
 70
     1
  9
$ANGBASE
 50
0.0
  9
$ANGDIR
 70
     0
  9
$PDMODE
 70
     3
  9
$PDSIZE
 40
2.0
  9
$PLINEWID
 40
0.0
  9
$SPLFRAME
 70
     0
  9
$SPLINETYPE
 70
     6
  9
$SPLINESEGS
 70
     8
  9
$HANDSEED
  5
208DF
  9
$SURFTAB1
 70
     6
  9
$SURFTAB2
 70
     6
  9
$SURFTYPE
 70
     6
  9
$SURFU
 70
     6
  9
$SURFV
 70
     6
  9
$UCSBASE
  2

  9
$UCSNAME
  2

  9
$UCSORG
 10
0.0
 20
0.0
 30
0.0
  9
$UCSXDIR
 10
1.0
 20
0.0
 30
0.0
  9
$UCSYDIR
 10
0.0
 20
1.0
 30
0.0
  9
$UCSORTHOREF
  2

  9
$UCSORTHOVIEW
 70
     0
  9
$UCSORGTOP
 10
0.0
 20
0.0
 30
0.0
  9
$UCSORGBOTTOM
 10
0.0
 20
0.0
 30
0.0
  9
$UCSORGLEFT
 10
0.0
 20
0.0
 30
0.0
  9
$UCSORGRIGHT
 10
0.0
 20
0.0
 30
0.0
  9
$UCSORGFRONT
 10
0.0
 20
0.0
 30
0.0
  9
$UCSORGBACK
 10
0.0
 20
0.0
 30
0.0
  9
$PUCSBASE
  2

  9
$PUCSNAME
  2

  9
$PUCSORG
 10
0.0
 20
0.0
 30
0.0
  9
$PUCSXDIR
 10
1.0
 20
0.0
 30
0.0
  9
$PUCSYDIR
 10
0.0
 20
1.0
 30
0.0
  9
$PUCSORTHOREF
  2

  9
$PUCSORTHOVIEW
 70
     0
  9
$PUCSORGTOP
 10
0.0
 20
0.0
 30
0.0
  9
$PUCSORGBOTTOM
 10
0.0
 20
0.0
 30
0.0
  9
$PUCSORGLEFT
 10
0.0
 20
0.0
 30
0.0
  9
$PUCSORGRIGHT
 10
0.0
 20
0.0
 30
0.0
  9
$PUCSORGFRONT
 10
0.0
 20
0.0
 30
0.0
  9
$PUCSORGBACK
 10
0.0
 20
0.0
 30
0.0
  9
$USERI1
 70
     0
  9
$USERI2
 70
     0
  9
$USERI3
 70
     0
  9
$USERI4
 70
     0
  9
$USERI5
 70
     0
  9
$USERR1
 40
0.0
  9
$USERR2
 40
0.0
  9
$USERR3
 40
0.0
  9
$USERR4
 40
0.0
  9
$USERR5
 40
0.0
  9
$WORLDVIEW
 70
     1
  9
$SHADEDGE
 70
     3
  9
$SHADEDIF
 70
    70
  9
$TILEMODE
 70
     1
  9
$MAXACTVP
 70
    16
  9
$PINSBASE
 10
0.0
 20
0.0
 30
0.0
  9
$PLIMCHECK
 70
     0
  9
$PEXTMIN
 10
1.000000000000000E+20
 20
1.000000000000000E+20
 30
1.000000000000000E+20
  9
$PEXTMAX
 10
-1.000000000000000E+20
 20
-1.000000000000000E+20
 30
-1.000000000000000E+20
  9
$PLIMMIN
 10
0.0
 20
0.0
  9
$PLIMMAX
 10
420.0
 20
297.0
  9
$UNITMODE
 70
     0
  9
$VISRETAIN
 70
     0
  9
$PLINEGEN
 70
     0
  9
$PSLTSCALE
 70
     0
  9
$TREEDEPTH
 70
  3020
  9
$CMLSTYLE
  2
STANDARD
  9
$CMLJUST
 70
     0
  9
$CMLSCALE
 40
1.0
  9
$PROXYGRAPHICS
 70
     1
  9
$MEASUREMENT
 70
     1
  9
$CELWEIGHT
370
    -1
  9
$ENDCAPS
280
     0
  9
$JOINSTYLE
280
     0
  9
$LWDISPLAY
290
     0
  9
$INSUNITS
 70
     0
  9
$HYPERLINKBASE
  1

  9
$STYLESHEET
  1
inabass.ctb
  9
$XEDIT
290
     1
  9
$CEPSNTYPE
380
     0
  9
$PSTYLEMODE
290
     1
  9
$FINGERPRINTGUID
  2
{3B57B35E-7D77-4BBF-81B7-6C583B9EB24C}
  9
$VERSIONGUID
  2
{2E1174B0-B1B6-4F7D-9E40-272DAC0B9835}
  9
$EXTNAMES
290
     1
  9
$PSVPSCALE
 40
0.0
  9
$OLESTARTUP
290
     0
  0
ENDSEC
  0
SECTION
  2
CLASSES
  0
CLASS
  1
ACDBDICTIONARYWDFLT
  2
AcDbDictionaryWithDefault
  3
ObjectDBX Classes
 90
        0
280
     0
281
     0
  0
CLASS
  1
DICTIONARYVAR
  2
AcDbDictionaryVar
  3
ObjectDBX Classes
 90
        0
280
     0
281
     0
  0
CLASS
  1
ACDBPLACEHOLDER
  2
AcDbPlaceHolder
  3
ObjectDBX Classes
 90
        0
280
     0
281
     0
  0
CLASS
  1
LAYOUT
  2
AcDbLayout
  3
ObjectDBX Classes
 90
        0
280
     0
281
     0
  0
ENDSEC
  0
SECTION
  2
TABLES
  0
TABLE
  2
VPORT
  5
746D
330
0
100
AcDbSymbolTable
 70
     3
  0
VPORT
  5
208D7
330
746D
100
AcDbSymbolTableRecord
100
AcDbViewportTableRecord
  2
*Active
 70
     0
 10
0.0
 20
0.0
 11
1.0
 21
1.0
 12
8223.7610252385
 22
5704.702303648471
 13
0.0
 23
0.0
 14
10.0
 24
10.0
 15
10.0
 25
10.0
 16
0.0
 26
0.0
 36
1.0
 17
0.0
 27
0.0
 37
0.0
 40
11503.26022693462
 41
1.706919945725915
 42
50.0
 43
0.0
 44
0.0
 50
0.0
 51
0.0
 71
     0
 72
     0
 73
     1
 74
     0
 75
     0
 76
     0
 77
     0
 78
     0
281
     0
 65
     1
110
0.0
120
0.0
130
0.0
111
1.0
121
0.0
131
0.0
112
0.0
122
1.0
132
0.0
 79
     0
146
0.0
  0
ENDTAB
  0
TABLE
  2
LTYPE
  5
746A
330
0
100
AcDbSymbolTable
 70
     4
  0
LTYPE
  5
7477
330
746A
100
AcDbSymbolTableRecord
100
AcDbLinetypeTableRecord
  2
BYBLOCK
 70
     0
  3

 72
    65
 73
     0
 40
0.0
  0
LTYPE
  5
7478
330
746A
100
AcDbSymbolTableRecord
100
AcDbLinetypeTableRecord
  2
BYLAYER
 70
     0
  3

 72
    65
 73
     0
 40
0.0
  0
LTYPE
  5
7479
330
746A
100
AcDbSymbolTableRecord
100
AcDbLinetypeTableRecord
  2
CONTINUOUS
 70
     0
  3
Solid line
 72
    65
 73
     0
 40
0.0
  0
LTYPE
  5
7816
330
746A
100
AcDbSymbolTableRecord
100
AcDbLinetypeTableRecord
  2
CENTER
 70
     0
  3
____ _ ____ _ ____ _ ____ _ ____ _ ____ _ ____ 
 72
    65
 73
     4
 40
2.0
 49
1.25
 74
     0
 49
-0.25
 74
     0
 49
0.25
 74
     0
 49
-0.25
 74
     0
  0
LTYPE
  5
781A
330
746A
100
AcDbSymbolTableRecord
100
AcDbLinetypeTableRecord
  2
HIDDEN
 70
     0
  3
__ __ __ __ __ __ __ __ __ __ __ __ __ __ __ __
 72
    65
 73
     2
 40
0.375
 49
0.25
 74
     0
 49
-0.125
 74
     0
  0
LTYPE
  5
781B
330
746A
100
AcDbSymbolTableRecord
100
AcDbLinetypeTableRecord
  2
PHANTOM
 70
     0
  3
______  __  __  ______  __  __  ______  __  __ 
 72
    65
 73
     6
 40
2.5
 49
1.25
 74
     0
 49
-0.25
 74
     0
 49
0.25
 74
     0
 49
-0.25
 74
     0
 49
0.25
 74
     0
 49
-0.25
 74
     0
  0
ENDTAB
  0
TABLE
  2
LAYER
  5
7467
102
{ACAD_XDICTIONARY
360
1ED5D
102
}
330
0
100
AcDbSymbolTable
 70
    13
  0
LAYER
  5
7474
330
7467
100
AcDbSymbolTableRecord
100
AcDbLayerTableRecord
  2
0
 70
     0
 62
     7
  6
CONTINUOUS
370
    -3
390
159AE
  0
LAYER
  5
DEB2
330
7467
100
AcDbSymbolTableRecord
100
AcDbLayerTableRecord
  2
センター
 70
     0
 62
     3
  6
CENTER
370
    -3
390
159AE
  0
LAYER
  5
DEB3
330
7467
100
AcDbSymbolTableRecord
100
AcDbLayerTableRecord
  2
寸法
 70
     0
 62
     4
  6
CONTINUOUS
370
    -3
390
159AE
  0
LAYER
  5
DEB4
330
7467
100
AcDbSymbolTableRecord
100
AcDbLayerTableRecord
  2
部品1
 70
     0
 62
     7
  6
CONTINUOUS
370
    -3
390
159AE
  0
LAYER
  5
DEB5
330
7467
100
AcDbSymbolTableRecord
100
AcDbLayerTableRecord
  2
補助
 70
     0
 62
    -1
  6
CONTINUOUS
370
    -3
390
159AE
  0
LAYER
  5
DEB6
330
7467
100
AcDbSymbolTableRecord
100
AcDbLayerTableRecord
  2
文字
 70
     0
 62
     7
  6
CONTINUOUS
370
    -3
390
159AE
  0
LAYER
  5
F255
330
7467
100
AcDbSymbolTableRecord
100
AcDbLayerTableRecord
  2
DEFPOINTS
 70
     0
 62
     7
  6
CONTINUOUS
290
     0
370
    -3
390
159AE
  0
LAYER
  5
10B54
330
7467
100
AcDbSymbolTableRecord
100
AcDbLayerTableRecord
  2
仕様書枠
 70
     0
 62
   230
  6
CONTINUOUS
370
    -3
390
159AE
  0
LAYER
  5
11729
330
7467
100
AcDbSymbolTableRecord
100
AcDbLayerTableRecord
  2
Ｇ．Ｌ
 70
     0
 62
    30
  6
CONTINUOUS
370
    -3
390
159AE
  0
LAYER
  5
1173F
330
7467
100
AcDbSymbolTableRecord
100
AcDbLayerTableRecord
  2
細線
 70
     0
 62
     5
  6
CONTINUOUS
370
    -3
390
159AE
  0
LAYER
  5
12CC4
330
7467
100
AcDbSymbolTableRecord
100
AcDbLayerTableRecord
  2
想像線
 70
     0
 62
     6
  6
PHANTOM
370
    -3
390
159AE
  0
LAYER
  5
142E2
330
7467
100
AcDbSymbolTableRecord
100
AcDbLayerTableRecord
  2
破線
 70
     0
 62
     2
  6
HIDDEN
370
    -3
390
159AE
  0
LAYER
  5
1C644
330
7467
100
AcDbSymbolTableRecord
100
AcDbLayerTableRecord
  2
点線
 70
     0
 62
     2
  6
HIDDEN
370
    -3
390
159AE
  0
ENDTAB
  0
TABLE
  2
STYLE
  5
7468
330
0
100
AcDbSymbolTable
 70
     3
  0
STYLE
  5
7475
330
7468
100
AcDbSymbolTableRecord
100
AcDbTextStyleTableRecord
  2
STANDARD
 70
     0
 40
0.0
 41
1.0
 50
0.0
 71
     0
 42
4.0
  3
txt
  4
C:\AutoCAD LT\bigfont.shx
  0
STYLE
  5
F706
330
7468
100
AcDbSymbolTableRecord
100
AcDbTextStyleTableRecord
  2
STYLE1
 70
     0
 40
0.0
 41
1.0
 50
0.0
 71
     0
 42
100.0
  3
isocp.shx
  4
bigfont.shx
  0
STYLE
  5
103BF
330
7468
100
AcDbSymbolTableRecord
100
AcDbTextStyleTableRecord
  2
STYLE2
 70
     0
 40
0.0
 41
1.0
 50
0.0
 71
     0
 42
100.0
  3
MS PGothic.ttf
  4

1001
ACAD
1000
MS PGothic
1071
    32818
  0
ENDTAB
  0
TABLE
  2
VIEW
  5
746B
330
0
100
AcDbSymbolTable
 70
     0
  0
ENDTAB
  0
TABLE
  2
UCS
  5
746C
330
0
100
AcDbSymbolTable
 70
     0
  0
ENDTAB
  0
TABLE
  2
APPID
  5
746E
330
0
100
AcDbSymbolTable
 70
     6
  0
APPID
  5
7476
330
746E
100
AcDbSymbolTableRecord
100
AcDbRegAppTableRecord
  2
ACAD
 70
     0
  0
APPID
  5
DEA9
330
746E
100
AcDbSymbolTableRecord
100
AcDbRegAppTableRecord
  2
CONTENTBLOCKICON
 70
     0
  0
APPID
  5
DEAA
330
746E
100
AcDbSymbolTableRecord
100
AcDbRegAppTableRecord
  2
CONTENTBLOCKDESCRIPTION
 70
     0
  0
APPID
  5
E71D
330
746E
100
AcDbSymbolTableRecord
100
AcDbRegAppTableRecord
  2
CONTENTTABDATA
 70
     0
  0
APPID
  5
E71E
330
746E
100
AcDbSymbolTableRecord
100
AcDbRegAppTableRecord
  2
CONTENTCURRENTTAB
 70
     0
  0
APPID
  5
F3BA
330
746E
100
AcDbSymbolTableRecord
100
AcDbRegAppTableRecord
  2
DRAWINGVARIABLESXDATA
 70
     0
  0
ENDTAB
  0
TABLE
  2
DIMSTYLE
  5
746F
330
0
100
AcDbSymbolTable
 70
     2
100
AcDbDimStyleTable
 71
     1
340
F71F
  0
DIMSTYLE
105
F71F
102
{ACAD_REACTORS
330
1CAB8
330
1CAB7
330
1CAB6
330
1E8FD
330
1E8FC
330
1E8FB
330
1E8FA
330
1E8F9
330
1E8F8
330
1E9AA
330
1F6EE
330
1F6ED
330
2038F
330
2072B
330
20788
330
207F0
330
20852
102
}
330
746F
100
AcDbSymbolTableRecord
100
AcDbDimStyleTableRecord
  2
INABA_S40G
 70
     0
 40
40.0
 41
2.5
 42
0.5
 43
7.0
 44
1.5
 73
     0
 74
     0
 77
     3
 78
     8
140
3.0
141
0.0
143
0.0394
147
1.0
172
     1
173
     1
174
     1
178
     7
271
     1
288
     1
340
F706
341
F770
343
F770
344
F770
  0
DIMSTYLE
105
1C645
330
746F
100
AcDbSymbolTableRecord
100
AcDbDimStyleTableRecord
  2
INABA_S50G
 70
     0
 40
0.0
 41
125.0
 42
25.0
 43
7.0
 44
75.0
 73
     0
 74
     0
 77
     3
 78
     8
140
150.0
141
0.0
143
0.0394
147
25.0
172
     1
173
     1
174
     1
178
     7
271
     1
340
F706
341
F770
343
F770
344
F770
  0
ENDTAB
  0
TABLE
  2
BLOCK_RECORD
  5
7466
330
0
100
AcDbSymbolTable
 70
    55
  0
BLOCK_RECORD
  5
747D
330
7466
100
AcDbSymbolTableRecord
100
AcDbBlockTableRecord
  2
*MODEL_SPACE
340
159B3
  0
BLOCK_RECORD
  5
747A
330
7466
100
AcDbSymbolTableRecord
100
AcDbBlockTableRecord
  2
*PAPER_SPACE
340
159B4
  0
BLOCK_RECORD
  5
F770
330
7466
100
AcDbSymbolTableRecord
100
AcDbBlockTableRecord
  2
_DOTSMALL
340
0
102
{BLKREFS
331
1E214
331
1E215
331
1E1AD
331
1E1AE
331
1E1D1
331
1E1D2
331
1E1C6
331
1E1C7
331
1E187
331
1E188
331
1E1BA
331
1E1BB
331
1E1DF
331
1E1E0
331
1E1A1
331
1E1A2
331
1E194
331
1E195
331
1E220
331
1E221
331
1E24F
331
1E250
331
1E1FA
331
1E1FB
331
1E1ED
331
1E1EE
331
1E207
331
1E208
331
1E22B
331
1E22C
331
1E242
331
1E243
331
1E17A
331
1E17B
331
1E16D
331
1E16E
331
1E160
331
1E161
331
1E155
331
1E156
331
1E236
331
1E237
331
1E65F
331
1E660
331
1FE5A
331
1FE5B
331
1FE6C
331
1FE6D
331
1FE75
331
1FE76
331
1FF0B
331
1FF0C
331
1FF14
331
1FF15
331
1FF1F
331
1FF20
331
1FF28
331
1FF29
331
1FF31
331
1FF32
331
1FF3A
331
1FF3B
331
1FF55
331
1FF56
331
1FF5E
331
1FF5F
331
20344
331
20345
331
2034D
331
2034E
331
20356
331
20357
331
2035F
331
20360
331
203CA
331
203CB
331
20427
331
20428
331
2041B
331
2041C
331
2040F
331
20410
331
20403
331
20404
331
205B8
331
205B9
331
205AC
331
205AD
331
205A0
331
205A1
331
20594
331
20595
331
208B2
331
208B3
331
208BB
331
208BC
331
208C4
331
208C5
331
208CD
331
208CE
102
}
  0
BLOCK_RECORD
  5
1C530
330
7466
100
AcDbSymbolTableRecord
100
AcDbBlockTableRecord
  2
_NONE
340
0
  0
BLOCK_RECORD
  5
1CDBF
330
7466
100
AcDbSymbolTableRecord
100
AcDbBlockTableRecord
  2
*D2
340
0
  0
BLOCK_RECORD
  5
1CDCD
330
7466
100
AcDbSymbolTableRecord
100
AcDbBlockTableRecord
  2
*D3
340
0
  0
BLOCK_RECORD
  5
1CDD8
330
7466
100
AcDbSymbolTableRecord
100
AcDbBlockTableRecord
  2
*D4
340
0
  0
BLOCK_RECORD
  5
1E151
330
7466
100
AcDbSymbolTableRecord
100
AcDbBlockTableRecord
  2
*D5
340
0
  0
BLOCK_RECORD
  5
1E15C
330
7466
100
AcDbSymbolTableRecord
100
AcDbBlockTableRecord
  2
*D6
340
0
  0
BLOCK_RECORD
  5
1E167
330
7466
100
AcDbSymbolTableRecord
100
AcDbBlockTableRecord
  2
*D7
340
0
  0
BLOCK_RECORD
  5
1E174
330
7466
100
AcDbSymbolTableRecord
100
AcDbBlockTableRecord
  2
*D8
340
0
  0
BLOCK_RECORD
  5
1E181
330
7466
100
AcDbSymbolTableRecord
100
AcDbBlockTableRecord
  2
*D9
340
0
  0
BLOCK_RECORD
  5
1E18E
330
7466
100
AcDbSymbolTableRecord
100
AcDbBlockTableRecord
  2
*D10
340
0
  0
BLOCK_RECORD
  5
1E19B
330
7466
100
AcDbSymbolTableRecord
100
AcDbBlockTableRecord
  2
*D11
340
0
  0
BLOCK_RECORD
  5
1E1A8
330
7466
100
AcDbSymbolTableRecord
100
AcDbBlockTableRecord
  2
*D12
340
0
  0
BLOCK_RECORD
  5
1E1B4
330
7466
100
AcDbSymbolTableRecord
100
AcDbBlockTableRecord
  2
*D13
340
0
  0
BLOCK_RECORD
  5
1E1C1
330
7466
100
AcDbSymbolTableRecord
100
AcDbBlockTableRecord
  2
*D14
340
0
  0
BLOCK_RECORD
  5
1E1CD
330
7466
100
AcDbSymbolTableRecord
100
AcDbBlockTableRecord
  2
*D15
340
0
  0
BLOCK_RECORD
  5
1E1D8
330
7466
100
AcDbSymbolTableRecord
100
AcDbBlockTableRecord
  2
*D16
340
0
  0
BLOCK_RECORD
  5
1E1E6
330
7466
100
AcDbSymbolTableRecord
100
AcDbBlockTableRecord
  2
*D17
340
0
  0
BLOCK_RECORD
  5
1E1F4
330
7466
100
AcDbSymbolTableRecord
100
AcDbBlockTableRecord
  2
*D18
340
0
  0
BLOCK_RECORD
  5
1E201
330
7466
100
AcDbSymbolTableRecord
100
AcDbBlockTableRecord
  2
*D19
340
0
  0
BLOCK_RECORD
  5
1E20E
330
7466
100
AcDbSymbolTableRecord
100
AcDbBlockTableRecord
  2
*D20
340
0
  0
BLOCK_RECORD
  5
1E21B
330
7466
100
AcDbSymbolTableRecord
100
AcDbBlockTableRecord
  2
*D21
340
0
  0
BLOCK_RECORD
  5
1E227
330
7466
100
AcDbSymbolTableRecord
100
AcDbBlockTableRecord
  2
*D22
340
0
  0
BLOCK_RECORD
  5
1E232
330
7466
100
AcDbSymbolTableRecord
100
AcDbBlockTableRecord
  2
*D23
340
0
  0
BLOCK_RECORD
  5
1E23D
330
7466
100
AcDbSymbolTableRecord
100
AcDbBlockTableRecord
  2
*D24
340
0
  0
BLOCK_RECORD
  5
1E249
330
7466
100
AcDbSymbolTableRecord
100
AcDbBlockTableRecord
  2
*D25
340
0
  0
BLOCK_RECORD
  5
1E256
330
7466
100
AcDbSymbolTableRecord
100
AcDbBlockTableRecord
  2
A$C56A41A26
340
0
  0
BLOCK_RECORD
  5
1E8FE
330
7466
100
AcDbSymbolTableRecord
100
AcDbBlockTableRecord
  2
*D27
340
0
  0
BLOCK_RECORD
  5
1E90A
330
7466
100
AcDbSymbolTableRecord
100
AcDbBlockTableRecord
  2
*D28
340
0
  0
BLOCK_RECORD
  5
1E916
330
7466
100
AcDbSymbolTableRecord
100
AcDbBlockTableRecord
  2
*D29
340
0
  0
BLOCK_RECORD
  5
1E922
330
7466
100
AcDbSymbolTableRecord
100
AcDbBlockTableRecord
  2
*D30
340
0
  0
BLOCK_RECORD
  5
1E930
330
7466
100
AcDbSymbolTableRecord
100
AcDbBlockTableRecord
  2
*D31
340
0
  0
BLOCK_RECORD
  5
1E93E
330
7466
100
AcDbSymbolTableRecord
100
AcDbBlockTableRecord
  2
*D32
340
0
  0
BLOCK_RECORD
  5
1E9AB
330
7466
100
AcDbSymbolTableRecord
100
AcDbBlockTableRecord
  2
*D33
340
0
  0
BLOCK_RECORD
  5
1F6EF
330
7466
100
AcDbSymbolTableRecord
100
AcDbBlockTableRecord
  2
*D34
340
0
  0
BLOCK_RECORD
  5
1F6FB
330
7466
100
AcDbSymbolTableRecord
100
AcDbBlockTableRecord
  2
*D35
340
0
  0
BLOCK_RECORD
  5
202C6
330
7466
100
AcDbSymbolTableRecord
100
AcDbBlockTableRecord
  2
*D36
340
0
  0
BLOCK_RECORD
  5
202D2
330
7466
100
AcDbSymbolTableRecord
100
AcDbBlockTableRecord
  2
*D37
340
0
  0
BLOCK_RECORD
  5
202DE
330
7466
100
AcDbSymbolTableRecord
100
AcDbBlockTableRecord
  2
*D38
340
0
  0
BLOCK_RECORD
  5
202EA
330
7466
100
AcDbSymbolTableRecord
100
AcDbBlockTableRecord
  2
*D39
340
0
  0
BLOCK_RECORD
  5
20395
330
7466
100
AcDbSymbolTableRecord
100
AcDbBlockTableRecord
  2
*D40
340
0
  0
BLOCK_RECORD
  5
203FE
330
7466
100
AcDbSymbolTableRecord
100
AcDbBlockTableRecord
  2
*D41
340
0
  0
BLOCK_RECORD
  5
2040A
330
7466
100
AcDbSymbolTableRecord
100
AcDbBlockTableRecord
  2
*D42
340
0
  0
BLOCK_RECORD
  5
20416
330
7466
100
AcDbSymbolTableRecord
100
AcDbBlockTableRecord
  2
*D43
340
0
  0
BLOCK_RECORD
  5
20422
330
7466
100
AcDbSymbolTableRecord
100
AcDbBlockTableRecord
  2
*D44
340
0
  0
BLOCK_RECORD
  5
2042E
330
7466
100
AcDbSymbolTableRecord
100
AcDbBlockTableRecord
  2
A$C10E770EA
340
0
  0
BLOCK_RECORD
  5
2058F
330
7466
100
AcDbSymbolTableRecord
100
AcDbBlockTableRecord
  2
*D46
340
0
  0
BLOCK_RECORD
  5
2059B
330
7466
100
AcDbSymbolTableRecord
100
AcDbBlockTableRecord
  2
*D47
340
0
  0
BLOCK_RECORD
  5
205A7
330
7466
100
AcDbSymbolTableRecord
100
AcDbBlockTableRecord
  2
*D48
340
0
  0
BLOCK_RECORD
  5
205B3
330
7466
100
AcDbSymbolTableRecord
100
AcDbBlockTableRecord
  2
*D49
340
0
  0
BLOCK_RECORD
  5
2087F
330
7466
100
AcDbSymbolTableRecord
100
AcDbBlockTableRecord
  2
*D51
340
0
  0
BLOCK_RECORD
  5
2088B
330
7466
100
AcDbSymbolTableRecord
100
AcDbBlockTableRecord
  2
*D52
340
0
  0
BLOCK_RECORD
  5
20897
330
7466
100
AcDbSymbolTableRecord
100
AcDbBlockTableRecord
  2
*D53
340
0
  0
BLOCK_RECORD
  5
208A3
330
7466
100
AcDbSymbolTableRecord
100
AcDbBlockTableRecord
  2
*D54
340
0
  0
ENDTAB
  0
ENDSEC
  0
SECTION
  2
BLOCKS
  0
BLOCK
  5
7489
330
747D
100
AcDbEntity
  8
0
100
AcDbBlockBegin
  2
*MODEL_SPACE
 70
     0
 10
0.0
 20
0.0
 30
0.0
  3
*MODEL_SPACE
  1

  0
ENDBLK
  5
748A
330
747D
100
AcDbEntity
  8
0
100
AcDbBlockEnd
  0
BLOCK
  5
7487
330
747A
100
AcDbEntity
 67
     1
  8
0
100
AcDbBlockBegin
  2
*PAPER_SPACE
 70
     0
 10
0.0
 20
0.0
 30
0.0
  3
*PAPER_SPACE
  1

  0
ENDBLK
  5
7488
330
747A
100
AcDbEntity
 67
     1
  8
0
100
AcDbBlockEnd
  0
BLOCK
  5
F771
330
F770
100
AcDbEntity
  8
0
 48
50.0
100
AcDbBlockBegin
  2
_DOTSMALL
 70
     0
 10
0.0
 20
0.0
 30
0.0
  3
_DOTSMALL
  1

  0
LWPOLYLINE
  5
F772
330
F770
100
AcDbEntity
  8
0
  6
ByBlock
 62
     0
 48
50.0
100
AcDbPolyline
 90
        2
 70
     1
 43
0.5
 10
-0.0625
 20
0.0
 42
1.0
 10
0.0625
 20
0.0
 42
1.0
  0
ENDBLK
  5
F776
330
F770
100
AcDbEntity
  8
0
 48
50.0
100
AcDbBlockEnd
  0
BLOCK
  5
1C531
330
1C530
100
AcDbEntity
  8
0
 48
50.0
100
AcDbBlockBegin
  2
_NONE
 70
     0
 10
0.0
 20
0.0
 30
0.0
  3
_NONE
  1

  0
CIRCLE
  5
1C532
330
1C530
100
AcDbEntity
  8
0
  6
ByBlock
 62
     0
 48
50.0
100
AcDbCircle
 10
0.0
 20
0.0
 30
0.0
 40
0.25
  0
ENDBLK
  5
1C533
330
1C530
100
AcDbEntity
  8
0
 48
50.0
100
AcDbBlockEnd
  0
BLOCK
  5
1CDCB
330
1CDBF
100
AcDbEntity
  8
0
 48
50.0
100
AcDbBlockBegin
  2
*D2
 70
     1
 10
0.0
 20
0.0
 30
0.0
  3
*D2
  1

  0
LINE
  5
1E65A
330
1CDBF
100
AcDbEntity
  8
寸法
 62
     0
 48
50.0
370
    -2
100
AcDbLine
 10
6887.599999999999
 20
5500.0
 30
0.0
 11
6406.888116550749
 21
5500.0
 31
0.0
  0
LINE
  5
1E65B
330
1CDBF
100
AcDbEntity
  8
寸法
 62
     0
 48
50.0
370
    -2
100
AcDbLine
 10
6837.599999999999
 20
5440.0
 30
0.0
 11
6406.888116550749
 21
5440.0
 31
0.0
  0
LINE
  5
1E65C
330
1CDBF
100
AcDbEntity
  8
寸法
 62
     0
 48
50.0
370
    -2
100
AcDbLine
 10
6466.888116550748
 20
5500.0
 30
0.0
 11
6466.888116550748
 21
5600.0
 31
0.0
  0
LINE
  5
1E65D
330
1CDBF
100
AcDbEntity
  8
寸法
 62
     0
 48
50.0
370
    -2
100
AcDbLine
 10
6466.888116550748
 20
5440.0
 30
0.0
 11
6466.888116550748
 21
5340.0
 31
0.0
  0
LINE
  5
1E65E
330
1CDBF
100
AcDbEntity
  8
寸法
 62
     0
 48
50.0
370
    -2
100
AcDbLine
 10
6466.888116550748
 20
5500.0
 30
0.0
 11
6466.888116550748
 21
5440.0
 31
0.0
  0
INSERT
  5
1E65F
330
1CDBF
100
AcDbEntity
  8
寸法
 62
     0
 48
50.0
370
    -2
100
AcDbBlockReference
  2
_DOTSMALL
 10
6466.888116550748
 20
5500.0
 30
0.0
 41
100.0
 42
100.0
 43
100.0
 50
270.0
  0
INSERT
  5
1E660
330
1CDBF
100
AcDbEntity
  8
寸法
 62
     0
 48
50.0
370
    -2
100
AcDbBlockReference
  2
_DOTSMALL
 10
6466.888116550748
 20
5440.0
 30
0.0
 41
100.0
 42
100.0
 43
100.0
 50
90.0
  0
MTEXT
  5
1E661
330
1CDBF
100
AcDbEntity
  8
寸法
 62
     7
 48
50.0
100
AcDbMText
 10
6366.888116550748
 20
5470.000000000002
 30
0.0
 40
120.0
 41
0.0
 71
     5
 72
     1
  1
\A1;b
  7
STYLE1
 11
0.0000000000000001
 21
1.0
 31
0.0
 73
     1
 44
1.0
1001
ACAD
1000
MTEXTBEGIN
1070
    73
1070
     1
1070
    44
1040
1.0
1070
    74
1070
     0
1000
MTEXTEND
  0
POINT
  5
1E662
330
1CDBF
100
AcDbEntity
  8
DEFPOINTS
 62
     0
 48
50.0
100
AcDbPoint
 10
6907.599999999999
 20
5500.0
 30
0.0
  0
POINT
  5
1E663
330
1CDBF
100
AcDbEntity
  8
DEFPOINTS
 62
     0
 48
50.0
100
AcDbPoint
 10
6857.599999999999
 20
5440.0
 30
0.0
  0
POINT
  5
1E664
330
1CDBF
100
AcDbEntity
  8
DEFPOINTS
 62
     0
 48
50.0
100
AcDbPoint
 10
6466.888116550748
 20
5440.0
 30
0.0
  0
ENDBLK
  5
1CDCC
330
1CDBF
100
AcDbEntity
  8
0
 48
50.0
100
AcDbBlockEnd
  0
BLOCK
  5
1CDD6
330
1CDCD
100
AcDbEntity
  8
0
 48
50.0
100
AcDbBlockBegin
  2
*D3
 70
     1
 10
0.0
 20
0.0
 30
0.0
  3
*D3
  1

  0
LINE
  5
1FE72
330
1CDCD
100
AcDbEntity
  8
寸法
 62
     0
 48
50.0
370
    -2
100
AcDbLine
 10
6887.599999999999
 20
7712.0
 30
0.0
 11
6406.88811655075
 21
7712.0
 31
0.0
  0
LINE
  5
1FE73
330
1CDCD
100
AcDbEntity
  8
寸法
 62
     0
 48
50.0
370
    -2
100
AcDbLine
 10
6887.599999999999
 20
5500.0
 30
0.0
 11
6406.888116550749
 21
5500.0
 31
0.0
  0
LINE
  5
1FE74
330
1CDCD
100
AcDbEntity
  8
寸法
 62
     0
 48
50.0
370
    -2
100
AcDbLine
 10
6466.88811655075
 20
7712.0
 30
0.0
 11
6466.888116550748
 21
5500.0
 31
0.0
  0
INSERT
  5
1FE75
330
1CDCD
100
AcDbEntity
  8
寸法
 62
     0
 48
50.0
370
    -2
100
AcDbBlockReference
  2
_DOTSMALL
 10
6466.88811655075
 20
7712.0
 30
0.0
 41
100.0
 42
100.0
 43
100.0
 50
90.0
  0
INSERT
  5
1FE76
330
1CDCD
100
AcDbEntity
  8
寸法
 62
     0
 48
50.0
370
    -2
100
AcDbBlockReference
  2
_DOTSMALL
 10
6466.888116550748
 20
5500.0
 30
0.0
 41
100.0
 42
100.0
 43
100.0
 50
270.0
  0
MTEXT
  5
1FE77
330
1CDCD
100
AcDbEntity
  8
寸法
 62
     7
 48
50.0
100
AcDbMText
 10
6366.876305527126
 20
6606.000000000001
 30
0.0
 40
120.0
 41
0.0
 71
     5
 72
     1
  1
\A1;2212
  7
STYLE1
 11
0.0000000000000001
 21
1.0
 31
0.0
 73
     1
 44
1.0
1001
ACAD
1000
MTEXTBEGIN
1070
    73
1070
     1
1070
    44
1040
1.0
1070
    74
1070
     0
1000
MTEXTEND
  0
POINT
  5
1FE78
330
1CDCD
100
AcDbEntity
  8
DEFPOINTS
 62
     0
 48
50.0
100
AcDbPoint
 10
6907.599999999999
 20
7712.0
 30
0.0
  0
POINT
  5
1FE79
330
1CDCD
100
AcDbEntity
  8
DEFPOINTS
 62
     0
 48
50.0
100
AcDbPoint
 10
6907.599999999999
 20
5500.0
 30
0.0
  0
POINT
  5
1FE7A
330
1CDCD
100
AcDbEntity
  8
DEFPOINTS
 62
     0
 48
50.0
100
AcDbPoint
 10
6466.888116550748
 20
5500.0
 30
0.0
  0
ENDBLK
  5
1CDD7
330
1CDCD
100
AcDbEntity
  8
0
 48
50.0
100
AcDbBlockEnd
  0
BLOCK
  5
1CDE4
330
1CDD8
100
AcDbEntity
  8
0
 48
50.0
100
AcDbBlockBegin
  2
*D4
 70
     1
 10
0.0
 20
0.0
 30
0.0
  3
*D4
  1

  0
LINE
  5
1FE69
330
1CDD8
100
AcDbEntity
  8
寸法
 62
     0
 48
50.0
370
    -2
100
AcDbLine
 10
6837.599999999999
 20
7792.0
 30
0.0
 11
6406.888116550748
 21
7792.0
 31
0.0
  0
LINE
  5
1FE6A
330
1CDD8
100
AcDbEntity
  8
寸法
 62
     0
 48
50.0
370
    -2
100
AcDbLine
 10
6887.599999999999
 20
7712.0
 30
0.0
 11
6406.888116550748
 21
7712.0
 31
0.0
  0
LINE
  5
1FE6B
330
1CDD8
100
AcDbEntity
  8
寸法
 62
     0
 48
50.0
370
    -2
100
AcDbLine
 10
6466.888116550748
 20
7792.0
 30
0.0
 11
6466.888116550748
 21
7712.0
 31
0.0
  0
INSERT
  5
1FE6C
330
1CDD8
100
AcDbEntity
  8
寸法
 62
     0
 48
50.0
370
    -2
100
AcDbBlockReference
  2
_DOTSMALL
 10
6466.888116550748
 20
7792.0
 30
0.0
 41
100.0
 42
100.0
 43
100.0
 50
90.0
  0
INSERT
  5
1FE6D
330
1CDD8
100
AcDbEntity
  8
寸法
 62
     0
 48
50.0
370
    -2
100
AcDbBlockReference
  2
_DOTSMALL
 10
6466.888116550748
 20
7712.0
 30
0.0
 41
100.0
 42
100.0
 43
100.0
 50
270.0
  0
MTEXT
  5
1FE6E
330
1CDD8
100
AcDbEntity
  8
寸法
 62
     7
 48
50.0
100
AcDbMText
 10
6366.888116550747
 20
7752.000000000002
 30
0.0
 40
120.0
 41
0.0
 71
     5
 72
     1
  1
\A1;c
  7
STYLE1
 11
0.0000000000000001
 21
1.0
 31
0.0
 73
     1
 44
1.0
1001
ACAD
1000
MTEXTBEGIN
1070
    73
1070
     1
1070
    44
1040
1.0
1070
    74
1070
     0
1000
MTEXTEND
  0
POINT
  5
1FE6F
330
1CDD8
100
AcDbEntity
  8
DEFPOINTS
 62
     0
 48
50.0
100
AcDbPoint
 10
6857.599999999999
 20
7792.0
 30
0.0
  0
POINT
  5
1FE70
330
1CDD8
100
AcDbEntity
  8
DEFPOINTS
 62
     0
 48
50.0
100
AcDbPoint
 10
6907.599999999999
 20
7712.0
 30
0.0
  0
POINT
  5
1FE71
330
1CDD8
100
AcDbEntity
  8
DEFPOINTS
 62
     0
 48
50.0
100
AcDbPoint
 10
6466.888116550748
 20
7712.0
 30
0.0
  0
ENDBLK
  5
1CDE5
330
1CDD8
100
AcDbEntity
  8
0
 48
50.0
100
AcDbBlockEnd
  0
BLOCK
  5
1E152
330
1E151
100
AcDbEntity
  8
0
 48
50.0
100
AcDbBlockBegin
  2
*D5
 70
     1
 10
0.0
 20
0.0
 30
0.0
  3
*D5
  1

  0
LINE
  5
1E153
330
1E151
100
AcDbEntity
  8
0
  6
ByBlock
 62
     0
 48
50.0
100
AcDbLine
 10
5296.0
 20
8029.0
 30
0.0
 11
5296.0
 21
9017.667619817153
 31
0.0
  0
LINE
  5
1E154
330
1E151
100
AcDbEntity
  8
0
  6
ByBlock
 62
     0
 48
50.0
100
AcDbLine
 10
3496.0
 20
8942.667619817154
 30
0.0
 11
5296.0
 21
8942.667619817154
 31
0.0
  0
INSERT
  5
1E155
330
1E151
100
AcDbEntity
  8
0
  6
ByBlock
 62
     0
 48
50.0
100
AcDbBlockReference
  2
_DOTSMALL
 10
3496.0
 20
8942.667619817154
 30
0.0
 41
125.0
 42
125.0
 43
125.0
 50
180.0
  0
INSERT
  5
1E156
330
1E151
100
AcDbEntity
  8
0
  6
ByBlock
 62
     0
 48
50.0
100
AcDbBlockReference
  2
_DOTSMALL
 10
5296.0
 20
8942.667619817154
 30
0.0
 41
125.0
 42
125.0
 43
125.0
  0
MTEXT
  5
1E157
330
1E151
100
AcDbEntity
  8
0
  6
ByBlock
 62
     7
 48
50.0
100
AcDbMText
 10
4396.0
 20
9042.667619817153
 30
0.0
 40
150.0
 41
0.0
 71
     5
 72
     1
  1
\A1;1800
  7
STYLE1
 73
     1
 44
1.0
1001
ACAD
1000
MTEXTBEGIN
1070
    73
1070
     1
1070
    44
1040
1.0
1070
    74
1070
     0
1000
MTEXTEND
  0
POINT
  5
1E158
330
1E151
100
AcDbEntity
  8
DEFPOINTS
  6
ByBlock
 62
     0
 48
50.0
100
AcDbPoint
 10
3496.0
 20
8004.0
 30
0.0
  0
POINT
  5
1E159
330
1E151
100
AcDbEntity
  8
DEFPOINTS
  6
ByBlock
 62
     0
 48
50.0
100
AcDbPoint
 10
5296.0
 20
8004.0
 30
0.0
  0
POINT
  5
1E15A
330
1E151
100
AcDbEntity
  8
DEFPOINTS
  6
ByBlock
 62
     0
 48
50.0
100
AcDbPoint
 10
5296.0
 20
8942.667619817154
 30
0.0
  0
ENDBLK
  5
1E15B
330
1E151
100
AcDbEntity
  8
0
 48
50.0
100
AcDbBlockEnd
  0
BLOCK
  5
1E15D
330
1E15C
100
AcDbEntity
  8
0
 48
50.0
100
AcDbBlockBegin
  2
*D6
 70
     1
 10
0.0
 20
0.0
 30
0.0
  3
*D6
  1

  0
LINE
  5
1E15E
330
1E15C
100
AcDbEntity
  8
0
  6
ByBlock
 62
     0
 48
50.0
100
AcDbLine
 10
3619.0
 20
7956.0
 30
0.0
 11
3619.0
 21
8805.206924300318
 31
0.0
  0
LINE
  5
1E15F
330
1E15C
100
AcDbEntity
  8
0
  6
ByBlock
 62
     0
 48
50.0
100
AcDbLine
 10
5173.0
 20
8730.206924300317
 30
0.0
 11
3619.0
 21
8730.206924300317
 31
0.0
  0
INSERT
  5
1E160
330
1E15C
100
AcDbEntity
  8
0
  6
ByBlock
 62
     0
 48
50.0
100
AcDbBlockReference
  2
_DOTSMALL
 10
5173.0
 20
8730.206924300317
 30
0.0
 41
125.0
 42
125.0
 43
125.0
  0
INSERT
  5
1E161
330
1E15C
100
AcDbEntity
  8
0
  6
ByBlock
 62
     0
 48
50.0
100
AcDbBlockReference
  2
_DOTSMALL
 10
3619.0
 20
8730.206924300317
 30
0.0
 41
125.0
 42
125.0
 43
125.0
 50
180.0
  0
MTEXT
  5
1E162
330
1E15C
100
AcDbEntity
  8
0
  6
ByBlock
 62
     7
 48
50.0
100
AcDbMText
 10
4396.0
 20
8830.206924300318
 30
0.0
 40
150.0
 41
0.0
 71
     5
 72
     1
  1
\A1;1554
  7
STYLE1
 73
     1
 44
1.0
1001
ACAD
1000
MTEXTBEGIN
1070
    73
1070
     1
1070
    44
1040
1.0
1070
    74
1070
     0
1000
MTEXTEND
  0
POINT
  5
1E163
330
1E15C
100
AcDbEntity
  8
DEFPOINTS
  6
ByBlock
 62
     0
 48
50.0
100
AcDbPoint
 10
5173.0
 20
7931.0
 30
0.0
  0
POINT
  5
1E164
330
1E15C
100
AcDbEntity
  8
DEFPOINTS
  6
ByBlock
 62
     0
 48
50.0
100
AcDbPoint
 10
3619.0
 20
7931.0
 30
0.0
  0
POINT
  5
1E165
330
1E15C
100
AcDbEntity
  8
DEFPOINTS
  6
ByBlock
 62
     0
 48
50.0
100
AcDbPoint
 10
3619.0
 20
8730.206924300317
 30
0.0
  0
ENDBLK
  5
1E166
330
1E15C
100
AcDbEntity
  8
0
 48
50.0
100
AcDbBlockEnd
  0
BLOCK
  5
1E168
330
1E167
100
AcDbEntity
  8
0
 48
50.0
100
AcDbBlockBegin
  2
*D7
 70
     1
 10
0.0
 20
0.0
 30
0.0
  3
*D7
  1

  0
LINE
  5
1E169
330
1E167
100
AcDbEntity
  8
0
  6
ByBlock
 62
     0
 48
50.0
100
AcDbLine
 10
3751.000000000001
 20
2304.000000000004
 30
0.0
 11
4106.75372407693
 21
2304.000000000004
 31
0.0
  0
LINE
  5
1E16A
330
1E167
100
AcDbEntity
  8
0
  6
ByBlock
 62
     0
 48
50.0
100
AcDbLine
 10
3821.000000000001
 20
2504.000000000007
 30
0.0
 11
4106.75372407693
 21
2504.000000000007
 31
0.0
  0
LINE
  5
1E16B
330
1E167
100
AcDbEntity
  8
0
  6
ByBlock
 62
     0
 48
50.0
100
AcDbLine
 10
4031.753724076931
 20
2304.000000000004
 30
0.0
 11
4031.753724076931
 21
2504.000000000007
 31
0.0
  0
LINE
  5
1E16C
330
1E167
100
AcDbEntity
  8
0
  6
ByBlock
 62
     0
 48
50.0
100
AcDbLine
 10
4031.753724076931
 20
2504.000000000007
 30
0.0
 11
4031.753724076931
 21
2952.927165354338
 31
0.0
  0
INSERT
  5
1E16D
330
1E167
100
AcDbEntity
  8
0
  6
ByBlock
 62
     0
 48
50.0
100
AcDbBlockReference
  2
_DOTSMALL
 10
4031.753724076931
 20
2304.000000000004
 30
0.0
 41
125.0
 42
125.0
 43
125.0
 50
270.0
  0
INSERT
  5
1E16E
330
1E167
100
AcDbEntity
  8
0
  6
ByBlock
 62
     0
 48
50.0
100
AcDbBlockReference
  2
_DOTSMALL
 10
4031.753724076931
 20
2504.000000000007
 30
0.0
 41
125.0
 42
125.0
 43
125.0
 50
90.0
  0
MTEXT
  5
1E16F
330
1E167
100
AcDbEntity
  8
0
  6
ByBlock
 62
     7
 48
50.0
100
AcDbMText
 10
3931.738960297403
 20
2790.963582677173
 30
0.0
 40
150.0
 41
0.0
 71
     5
 72
     1
  1
\A1;200
  7
STYLE1
 11
0.0000000000000001
 21
1.0
 31
0.0
 73
     1
 44
1.0
1001
ACAD
1000
MTEXTBEGIN
1070
    73
1070
     1
1070
    44
1040
1.0
1070
    74
1070
     0
1000
MTEXTEND
  0
POINT
  5
1E170
330
1E167
100
AcDbEntity
  8
DEFPOINTS
  6
ByBlock
 62
     0
 48
50.0
100
AcDbPoint
 10
3726.000000000001
 20
2304.000000000004
 30
0.0
  0
POINT
  5
1E171
330
1E167
100
AcDbEntity
  8
DEFPOINTS
  6
ByBlock
 62
     0
 48
50.0
100
AcDbPoint
 10
3796.000000000001
 20
2504.000000000007
 30
0.0
  0
POINT
  5
1E172
330
1E167
100
AcDbEntity
  8
DEFPOINTS
  6
ByBlock
 62
     0
 48
50.0
100
AcDbPoint
 10
4031.753724076931
 20
2504.000000000007
 30
0.0
  0
ENDBLK
  5
1E173
330
1E167
100
AcDbEntity
  8
0
 48
50.0
100
AcDbBlockEnd
  0
BLOCK
  5
1E175
330
1E174
100
AcDbEntity
  8
0
 48
50.0
100
AcDbBlockBegin
  2
*D8
 70
     1
 10
0.0
 20
0.0
 30
0.0
  3
*D8
  1

  0
LINE
  5
1E176
330
1E174
100
AcDbEntity
  8
0
  6
ByBlock
 62
     0
 48
50.0
100
AcDbLine
 10
3751.000000000001
 20
6724.000000000005
 30
0.0
 11
4106.75372407693
 21
6724.000000000005
 31
0.0
  0
LINE
  5
1E177
330
1E174
100
AcDbEntity
  8
0
  6
ByBlock
 62
     0
 48
50.0
100
AcDbLine
 10
3751.000000000002
 20
6624.000000000002
 30
0.0
 11
4106.75372407693
 21
6624.000000000002
 31
0.0
  0
LINE
  5
1E178
330
1E174
100
AcDbEntity
  8
0
  6
ByBlock
 62
     0
 48
50.0
100
AcDbLine
 10
4031.753724076931
 20
6724.000000000005
 30
0.0
 11
4031.753724076931
 21
6624.000000000002
 31
0.0
  0
LINE
  5
1E179
330
1E174
100
AcDbEntity
  8
0
  6
ByBlock
 62
     0
 48
50.0
100
AcDbLine
 10
4031.753724076931
 20
6624.000000000002
 30
0.0
 11
4031.753724076931
 21
6200.857401609004
 31
0.0
  0
INSERT
  5
1E17A
330
1E174
100
AcDbEntity
  8
0
  6
ByBlock
 62
     0
 48
50.0
100
AcDbBlockReference
  2
_DOTSMALL
 10
4031.753724076931
 20
6724.000000000005
 30
0.0
 41
125.0
 42
125.0
 43
125.0
 50
90.0
  0
INSERT
  5
1E17B
330
1E174
100
AcDbEntity
  8
0
  6
ByBlock
 62
     0
 48
50.0
100
AcDbBlockReference
  2
_DOTSMALL
 10
4031.753724076931
 20
6624.000000000002
 30
0.0
 41
125.0
 42
125.0
 43
125.0
 50
270.0
  0
MTEXT
  5
1E17C
330
1E174
100
AcDbEntity
  8
0
  6
ByBlock
 62
     7
 48
50.0
100
AcDbMText
 10
3931.75372407693
 20
6345.916456727114
 30
0.0
 40
150.0
 41
0.0
 71
     5
 72
     1
  1
\A1;100
  7
STYLE1
 11
0.0000000000000001
 21
1.0
 31
0.0
 73
     1
 44
1.0
1001
ACAD
1000
MTEXTBEGIN
1070
    73
1070
     1
1070
    44
1040
1.0
1070
    74
1070
     0
1000
MTEXTEND
  0
POINT
  5
1E17D
330
1E174
100
AcDbEntity
  8
DEFPOINTS
  6
ByBlock
 62
     0
 48
50.0
100
AcDbPoint
 10
3726.000000000001
 20
6724.000000000005
 30
0.0
  0
POINT
  5
1E17E
330
1E174
100
AcDbEntity
  8
DEFPOINTS
  6
ByBlock
 62
     0
 48
50.0
100
AcDbPoint
 10
3726.000000000002
 20
6624.000000000002
 30
0.0
  0
POINT
  5
1E17F
330
1E174
100
AcDbEntity
  8
DEFPOINTS
  6
ByBlock
 62
     0
 48
50.0
100
AcDbPoint
 10
4031.753724076931
 20
6624.000000000002
 30
0.0
  0
ENDBLK
  5
1E180
330
1E174
100
AcDbEntity
  8
0
 48
50.0
100
AcDbBlockEnd
  0
BLOCK
  5
1E182
330
1E181
100
AcDbEntity
  8
0
 48
50.0
100
AcDbBlockBegin
  2
*D9
 70
     1
 10
0.0
 20
0.0
 30
0.0
  3
*D9
  1

  0
LINE
  5
1E183
330
1E181
100
AcDbEntity
  8
0
  6
ByBlock
 62
     0
 48
50.0
100
AcDbLine
 10
3544.000000000006
 20
6822.000000000001
 30
0.0
 11
2925.057733986177
 21
6822.000000000001
 31
0.0
  0
LINE
  5
1E184
330
1E181
100
AcDbEntity
  8
0
  6
ByBlock
 62
     0
 48
50.0
100
AcDbLine
 10
3471.0
 20
6624.0
 30
0.0
 11
2925.057733986177
 21
6624.0
 31
0.0
  0
LINE
  5
1E185
330
1E181
100
AcDbEntity
  8
0
  6
ByBlock
 62
     0
 48
50.0
100
AcDbLine
 10
3000.057733986178
 20
6822.000000000001
 30
0.0
 11
3000.057733986178
 21
6624.0
 31
0.0
  0
LINE
  5
1E186
330
1E181
100
AcDbEntity
  8
0
  6
ByBlock
 62
     0
 48
50.0
100
AcDbLine
 10
3000.057733986178
 20
6624.0
 30
0.0
 11
3000.057733986178
 21
6143.206976370337
 31
0.0
  0
INSERT
  5
1E187
330
1E181
100
AcDbEntity
  8
0
  6
ByBlock
 62
     0
 48
50.0
100
AcDbBlockReference
  2
_DOTSMALL
 10
3000.057733986178
 20
6822.000000000001
 30
0.0
 41
125.0
 42
125.0
 43
125.0
 50
90.0
  0
INSERT
  5
1E188
330
1E181
100
AcDbEntity
  8
0
  6
ByBlock
 62
     0
 48
50.0
100
AcDbBlockReference
  2
_DOTSMALL
 10
3000.057733986178
 20
6624.0
 30
0.0
 41
125.0
 42
125.0
 43
125.0
 50
270.0
  0
MTEXT
  5
1E189
330
1E181
100
AcDbEntity
  8
0
  6
ByBlock
 62
     7
 48
50.0
100
AcDbMText
 10
2900.057733986177
 20
6288.469051157409
 30
0.0
 40
150.0
 41
0.0
 71
     5
 72
     1
  1
\A1;198
  7
STYLE1
 11
0.0000000000000001
 21
1.0
 31
0.0
 73
     1
 44
1.0
1001
ACAD
1000
MTEXTBEGIN
1070
    73
1070
     1
1070
    44
1040
1.0
1070
    74
1070
     0
1000
MTEXTEND
  0
POINT
  5
1E18A
330
1E181
100
AcDbEntity
  8
DEFPOINTS
  6
ByBlock
 62
     0
 48
50.0
100
AcDbPoint
 10
3569.000000000006
 20
6822.000000000001
 30
0.0
  0
POINT
  5
1E18B
330
1E181
100
AcDbEntity
  8
DEFPOINTS
  6
ByBlock
 62
     0
 48
50.0
100
AcDbPoint
 10
3496.0
 20
6624.0
 30
0.0
  0
POINT
  5
1E18C
330
1E181
100
AcDbEntity
  8
DEFPOINTS
  6
ByBlock
 62
     0
 48
50.0
100
AcDbPoint
 10
3000.057733986178
 20
6624.0
 30
0.0
  0
ENDBLK
  5
1E18D
330
1E181
100
AcDbEntity
  8
0
 48
50.0
100
AcDbBlockEnd
  0
BLOCK
  5
1E18F
330
1E18E
100
AcDbEntity
  8
0
 48
50.0
100
AcDbBlockBegin
  2
*D10
 70
     1
 10
0.0
 20
0.0
 30
0.0
  3
*D10
  1

  0
LINE
  5
1E190
330
1E18E
100
AcDbEntity
  8
0
  6
ByBlock
 62
     0
 48
50.0
100
AcDbLine
 10
3438.740228660987
 20
8755.206924300313
 30
0.0
 11
3438.740228660987
 21
9017.667619817155
 31
0.0
  0
LINE
  5
1E191
330
1E18E
100
AcDbEntity
  8
0
  6
ByBlock
 62
     0
 48
50.0
100
AcDbLine
 10
3496.0
 20
8029.0
 30
0.0
 11
3496.0
 21
9017.667619817155
 31
0.0
  0
LINE
  5
1E192
330
1E18E
100
AcDbEntity
  8
0
  6
ByBlock
 62
     0
 48
50.0
100
AcDbLine
 10
3496.0
 20
8942.667619817155
 30
0.0
 11
3438.740228660987
 21
8942.667619817155
 31
0.0
  0
LINE
  5
1E193
330
1E18E
100
AcDbEntity
  8
0
  6
ByBlock
 62
     0
 48
50.0
100
AcDbLine
 10
3438.740228660987
 20
8942.667619817155
 30
0.0
 11
3198.30367565484
 21
8942.667619817155
 31
0.0
  0
INSERT
  5
1E194
330
1E18E
100
AcDbEntity
  8
0
  6
ByBlock
 62
     0
 48
50.0
100
AcDbBlockReference
  2
_DOTSMALL
 10
3496.0
 20
8942.667619817155
 30
0.0
 41
125.0
 42
125.0
 43
125.0
  0
INSERT
  5
1E195
330
1E18E
100
AcDbEntity
  8
0
  6
ByBlock
 62
     0
 48
50.0
100
AcDbBlockReference
  2
_DOTSMALL
 10
3438.740228660987
 20
8942.667619817155
 30
0.0
 41
125.0
 42
125.0
 43
125.0
 50
180.0
  0
MTEXT
  5
1E196
330
1E18E
100
AcDbEntity
  8
0
  6
ByBlock
 62
     7
 48
50.0
100
AcDbMText
 10
3256.021952157913
 20
9042.667619817155
 30
0.0
 40
150.0
 41
0.0
 71
     5
 72
     1
  1
\A1;a
  7
STYLE1
 73
     1
 44
1.0
1001
ACAD
1000
MTEXTBEGIN
1070
    73
1070
     1
1070
    44
1040
1.0
1070
    74
1070
     0
1000
MTEXTEND
  0
POINT
  5
1E197
330
1E18E
100
AcDbEntity
  8
DEFPOINTS
  6
ByBlock
 62
     0
 48
50.0
100
AcDbPoint
 10
3438.740228660987
 20
8730.206924300313
 30
0.0
  0
POINT
  5
1E198
330
1E18E
100
AcDbEntity
  8
DEFPOINTS
  6
ByBlock
 62
     0
 48
50.0
100
AcDbPoint
 10
3496.0
 20
8004.0
 30
0.0
  0
POINT
  5
1E199
330
1E18E
100
AcDbEntity
  8
DEFPOINTS
  6
ByBlock
 62
     0
 48
50.0
100
AcDbPoint
 10
3496.0
 20
8942.667619817155
 30
0.0
  0
ENDBLK
  5
1E19A
330
1E18E
100
AcDbEntity
  8
0
 48
50.0
100
AcDbBlockEnd
  0
BLOCK
  5
1E19C
330
1E19B
100
AcDbEntity
  8
0
 48
50.0
100
AcDbBlockBegin
  2
*D11
 70
     1
 10
0.0
 20
0.0
 30
0.0
  3
*D11
  1

  0
LINE
  5
1E19D
330
1E19B
100
AcDbEntity
  8
0
  6
ByBlock
 62
     0
 48
50.0
100
AcDbLine
 10
3619.0
 20
7956.0
 30
0.0
 11
3619.0
 21
8805.206924300318
 31
0.0
  0
LINE
  5
1E19E
330
1E19B
100
AcDbEntity
  8
0
  6
ByBlock
 62
     0
 48
50.0
100
AcDbLine
 10
3496.0
 20
8029.0
 30
0.0
 11
3496.0
 21
8805.206924300318
 31
0.0
  0
LINE
  5
1E19F
330
1E19B
100
AcDbEntity
  8
0
  6
ByBlock
 62
     0
 48
50.0
100
AcDbLine
 10
3619.0
 20
8730.206924300317
 30
0.0
 11
3496.0
 21
8730.206924300317
 31
0.0
  0
LINE
  5
1E1A0
330
1E19B
100
AcDbEntity
  8
0
  6
ByBlock
 62
     0
 48
50.0
100
AcDbLine
 10
3496.0
 20
8730.206924300317
 30
0.0
 11
3067.527025225391
 21
8730.206924300317
 31
0.0
  0
INSERT
  5
1E1A1
330
1E19B
100
AcDbEntity
  8
0
  6
ByBlock
 62
     0
 48
50.0
100
AcDbBlockReference
  2
_DOTSMALL
 10
3619.0
 20
8730.206924300317
 30
0.0
 41
125.0
 42
125.0
 43
125.0
  0
INSERT
  5
1E1A2
330
1E19B
100
AcDbEntity
  8
0
  6
ByBlock
 62
     0
 48
50.0
100
AcDbBlockReference
  2
_DOTSMALL
 10
3496.0
 20
8730.206924300317
 30
0.0
 41
125.0
 42
125.0
 43
125.0
 50
180.0
  0
MTEXT
  5
1E1A3
330
1E19B
100
AcDbEntity
  8
0
  6
ByBlock
 62
     7
 48
50.0
100
AcDbMText
 10
3215.633626943189
 20
8830.221688079843
 30
0.0
 40
150.0
 41
0.0
 71
     5
 72
     1
  1
\A1;123
  7
STYLE1
 73
     1
 44
1.0
1001
ACAD
1000
MTEXTBEGIN
1070
    73
1070
     1
1070
    44
1040
1.0
1070
    74
1070
     0
1000
MTEXTEND
  0
POINT
  5
1E1A4
330
1E19B
100
AcDbEntity
  8
DEFPOINTS
  6
ByBlock
 62
     0
 48
50.0
100
AcDbPoint
 10
3619.0
 20
7931.0
 30
0.0
  0
POINT
  5
1E1A5
330
1E19B
100
AcDbEntity
  8
DEFPOINTS
  6
ByBlock
 62
     0
 48
50.0
100
AcDbPoint
 10
3496.0
 20
8004.0
 30
0.0
  0
POINT
  5
1E1A6
330
1E19B
100
AcDbEntity
  8
DEFPOINTS
  6
ByBlock
 62
     0
 48
50.0
100
AcDbPoint
 10
3496.0
 20
8730.206924300317
 30
0.0
  0
ENDBLK
  5
1E1A7
330
1E19B
100
AcDbEntity
  8
0
 48
50.0
100
AcDbBlockEnd
  0
BLOCK
  5
1E1A9
330
1E1A8
100
AcDbEntity
  8
0
 48
50.0
100
AcDbBlockBegin
  2
*D12
 70
     1
 10
0.0
 20
0.0
 30
0.0
  3
*D12
  1

  0
LINE
  5
1E1AA
330
1E1A8
100
AcDbEntity
  8
0
  6
ByBlock
 62
     0
 48
50.0
100
AcDbLine
 10
3544.0
 20
3881.0
 30
0.0
 11
2925.057733986178
 21
3881.0
 31
0.0
  0
LINE
  5
1E1AB
330
1E1A8
100
AcDbEntity
  8
0
  6
ByBlock
 62
     0
 48
50.0
100
AcDbLine
 10
3544.000000000006
 20
2402.000000000002
 30
0.0
 11
2925.057733986177
 21
2402.000000000002
 31
0.0
  0
LINE
  5
1E1AC
330
1E1A8
100
AcDbEntity
  8
0
  6
ByBlock
 62
     0
 48
50.0
100
AcDbLine
 10
3000.057733986178
 20
3881.0
 30
0.0
 11
3000.057733986178
 21
2402.000000000002
 31
0.0
  0
INSERT
  5
1E1AD
330
1E1A8
100
AcDbEntity
  8
0
  6
ByBlock
 62
     0
 48
50.0
100
AcDbBlockReference
  2
_DOTSMALL
 10
3000.057733986178
 20
3881.0
 30
0.0
 41
125.0
 42
125.0
 43
125.0
 50
90.0
  0
INSERT
  5
1E1AE
330
1E1A8
100
AcDbEntity
  8
0
  6
ByBlock
 62
     0
 48
50.0
100
AcDbBlockReference
  2
_DOTSMALL
 10
3000.057733986178
 20
2402.000000000002
 30
0.0
 41
125.0
 42
125.0
 43
125.0
 50
270.0
  0
MTEXT
  5
1E1AF
330
1E1A8
100
AcDbEntity
  8
0
  6
ByBlock
 62
     7
 48
50.0
100
AcDbMText
 10
2900.057733986177
 20
3104.0
 30
0.0
 40
150.0
 41
0.0
 71
     5
 72
     1
  1
\A1;1479
  7
STYLE1
 11
0.0000000000000001
 21
1.0
 31
0.0
 73
     1
 44
1.0
1001
ACAD
1000
MTEXTBEGIN
1070
    73
1070
     1
1070
    44
1040
1.0
1070
    74
1070
     0
1000
MTEXTEND
  0
POINT
  5
1E1B0
330
1E1A8
100
AcDbEntity
  8
DEFPOINTS
  6
ByBlock
 62
     0
 48
50.0
100
AcDbPoint
 10
3569.0
 20
3881.0
 30
0.0
  0
POINT
  5
1E1B1
330
1E1A8
100
AcDbEntity
  8
DEFPOINTS
  6
ByBlock
 62
     0
 48
50.0
100
AcDbPoint
 10
3569.000000000006
 20
2402.000000000002
 30
0.0
  0
POINT
  5
1E1B2
330
1E1A8
100
AcDbEntity
  8
DEFPOINTS
  6
ByBlock
 62
     0
 48
50.0
100
AcDbPoint
 10
3000.057733986178
 20
2402.000000000002
 30
0.0
  0
ENDBLK
  5
1E1B3
330
1E1A8
100
AcDbEntity
  8
0
 48
50.0
100
AcDbBlockEnd
  0
BLOCK
  5
1E1B5
330
1E1B4
100
AcDbEntity
  8
0
 48
50.0
100
AcDbBlockBegin
  2
*D13
 70
     1
 10
0.0
 20
0.0
 30
0.0
  3
*D13
  1

  0
LINE
  5
1E1B6
330
1E1B4
100
AcDbEntity
  8
0
  6
ByBlock
 62
     0
 48
50.0
100
AcDbLine
 10
3471.0
 20
8004.0
 30
0.0
 11
2925.057733986177
 21
8004.0
 31
0.0
  0
LINE
  5
1E1B7
330
1E1B4
100
AcDbEntity
  8
0
  6
ByBlock
 62
     0
 48
50.0
100
AcDbLine
 10
3544.0
 20
7881.0
 30
0.0
 11
2925.057733986177
 21
7881.0
 31
0.0
  0
LINE
  5
1E1B8
330
1E1B4
100
AcDbEntity
  8
0
  6
ByBlock
 62
     0
 48
50.0
100
AcDbLine
 10
3000.057733986178
 20
7881.0
 30
0.0
 11
3000.057733986178
 21
8004.0
 31
0.0
  0
LINE
  5
1E1B9
330
1E1B4
100
AcDbEntity
  8
0
  6
ByBlock
 62
     0
 48
50.0
100
AcDbLine
 10
3000.057733986178
 20
8004.0
 30
0.0
 11
3000.057733986178
 21
8425.213203435596
 31
0.0
  0
INSERT
  5
1E1BA
330
1E1B4
100
AcDbEntity
  8
0
  6
ByBlock
 62
     0
 48
50.0
100
AcDbBlockReference
  2
_DOTSMALL
 10
3000.057733986178
 20
7881.0
 30
0.0
 41
125.0
 42
125.0
 43
125.0
 50
270.0
  0
INSERT
  5
1E1BB
330
1E1B4
100
AcDbEntity
  8
0
  6
ByBlock
 62
     0
 48
50.0
100
AcDbBlockReference
  2
_DOTSMALL
 10
3000.057733986178
 20
8004.0
 30
0.0
 41
125.0
 42
125.0
 43
125.0
 50
90.0
  0
MTEXT
  5
1E1BC
330
1E1B4
100
AcDbEntity
  8
0
  6
ByBlock
 62
     7
 48
50.0
100
AcDbMText
 10
2900.04297020665
 20
8277.106601717798
 30
0.0
 40
150.0
 41
0.0
 71
     5
 72
     1
  1
\A1;123
  7
STYLE1
 11
0.0000000000000001
 21
1.0
 31
0.0
 73
     1
 44
1.0
1001
ACAD
1000
MTEXTBEGIN
1070
    73
1070
     1
1070
    44
1040
1.0
1070
    74
1070
     0
1000
MTEXTEND
  0
POINT
  5
1E1BD
330
1E1B4
100
AcDbEntity
  8
DEFPOINTS
  6
ByBlock
 62
     0
 48
50.0
100
AcDbPoint
 10
3496.0
 20
8004.0
 30
0.0
  0
POINT
  5
1E1BE
330
1E1B4
100
AcDbEntity
  8
DEFPOINTS
  6
ByBlock
 62
     0
 48
50.0
100
AcDbPoint
 10
3569.0
 20
7881.0
 30
0.0
  0
POINT
  5
1E1BF
330
1E1B4
100
AcDbEntity
  8
DEFPOINTS
  6
ByBlock
 62
     0
 48
50.0
100
AcDbPoint
 10
3000.057733986178
 20
7881.0
 30
0.0
  0
ENDBLK
  5
1E1C0
330
1E1B4
100
AcDbEntity
  8
0
 48
50.0
100
AcDbBlockEnd
  0
BLOCK
  5
1E1C2
330
1E1C1
100
AcDbEntity
  8
0
 48
50.0
100
AcDbBlockBegin
  2
*D14
 70
     1
 10
0.0
 20
0.0
 30
0.0
  3
*D14
  1

  0
LINE
  5
1E1C3
330
1E1C1
100
AcDbEntity
  8
0
  6
ByBlock
 62
     0
 48
50.0
100
AcDbLine
 10
3471.0
 20
6624.0
 30
0.0
 11
2679.56493184821
 21
6624.0
 31
0.0
  0
LINE
  5
1E1C4
330
1E1C1
100
AcDbEntity
  8
0
  6
ByBlock
 62
     0
 48
50.0
100
AcDbLine
 10
2975.057733986178
 20
6494.0
 30
0.0
 11
2679.56493184821
 21
6494.0
 31
0.0
  0
LINE
  5
1E1C5
330
1E1C1
100
AcDbEntity
  8
0
  6
ByBlock
 62
     0
 48
50.0
100
AcDbLine
 10
2754.56493184821
 20
6624.0
 30
0.0
 11
2754.56493184821
 21
6494.0
 31
0.0
  0
INSERT
  5
1E1C6
330
1E1C1
100
AcDbEntity
  8
0
  6
ByBlock
 62
     0
 48
50.0
100
AcDbBlockReference
  2
_DOTSMALL
 10
2754.56493184821
 20
6624.0
 30
0.0
 41
125.0
 42
125.0
 43
125.0
 50
90.0
  0
INSERT
  5
1E1C7
330
1E1C1
100
AcDbEntity
  8
0
  6
ByBlock
 62
     0
 48
50.0
100
AcDbBlockReference
  2
_DOTSMALL
 10
2754.56493184821
 20
6494.0
 30
0.0
 41
125.0
 42
125.0
 43
125.0
 50
270.0
  0
MTEXT
  5
1E1C8
330
1E1C1
100
AcDbEntity
  8
0
  6
ByBlock
 62
     7
 48
50.0
100
AcDbMText
 10
2654.56493184821
 20
6559.0
 30
0.0
 40
150.0
 41
0.0
 71
     5
 72
     1
  1
\A1;b
  7
STYLE1
 11
0.0000000000000001
 21
1.0
 31
0.0
 73
     1
 44
1.0
1001
ACAD
1000
MTEXTBEGIN
1070
    73
1070
     1
1070
    44
1040
1.0
1070
    74
1070
     0
1000
MTEXTEND
  0
POINT
  5
1E1C9
330
1E1C1
100
AcDbEntity
  8
DEFPOINTS
  6
ByBlock
 62
     0
 48
50.0
100
AcDbPoint
 10
3496.0
 20
6624.0
 30
0.0
  0
POINT
  5
1E1CA
330
1E1C1
100
AcDbEntity
  8
DEFPOINTS
  6
ByBlock
 62
     0
 48
50.0
100
AcDbPoint
 10
3000.057733986178
 20
6494.0
 30
0.0
  0
POINT
  5
1E1CB
330
1E1C1
100
AcDbEntity
  8
DEFPOINTS
  6
ByBlock
 62
     0
 48
50.0
100
AcDbPoint
 10
2754.56493184821
 20
6494.0
 30
0.0
  0
ENDBLK
  5
1E1CC
330
1E1C1
100
AcDbEntity
  8
0
 48
50.0
100
AcDbBlockEnd
  0
BLOCK
  5
1E1CE
330
1E1CD
100
AcDbEntity
  8
0
 48
50.0
100
AcDbBlockBegin
  2
*D15
 70
     1
 10
0.0
 20
0.0
 30
0.0
  3
*D15
  1

  0
LINE
  5
1E1CF
330
1E1CD
100
AcDbEntity
  8
0
  6
ByBlock
 62
     0
 48
50.0
100
AcDbLine
 10
3471.0
 20
2204.0
 30
0.0
 11
2679.56493184821
 21
2204.0
 31
0.0
  0
LINE
  5
1E1D0
330
1E1CD
100
AcDbEntity
  8
0
  6
ByBlock
 62
     0
 48
50.0
100
AcDbLine
 10
2754.564931848211
 20
4004.0
 30
0.0
 11
2754.56493184821
 21
2204.0
 31
0.0
  0
INSERT
  5
1E1D1
330
1E1CD
100
AcDbEntity
  8
0
  6
ByBlock
 62
     0
 48
50.0
100
AcDbBlockReference
  2
_DOTSMALL
 10
2754.564931848211
 20
4004.0
 30
0.0
 41
125.0
 42
125.0
 43
125.0
 50
90.0
  0
INSERT
  5
1E1D2
330
1E1CD
100
AcDbEntity
  8
0
  6
ByBlock
 62
     0
 48
50.0
100
AcDbBlockReference
  2
_DOTSMALL
 10
2754.56493184821
 20
2204.0
 30
0.0
 41
125.0
 42
125.0
 43
125.0
 50
270.0
  0
MTEXT
  5
1E1D3
330
1E1CD
100
AcDbEntity
  8
0
  6
ByBlock
 62
     7
 48
50.0
100
AcDbMText
 10
2654.56493184821
 20
3104.0
 30
0.0
 40
150.0
 41
0.0
 71
     5
 72
     1
  1
\A1;1800
  7
STYLE1
 11
0.0000000000000001
 21
1.0
 31
0.0
 73
     1
 44
1.0
1001
ACAD
1000
MTEXTBEGIN
1070
    73
1070
     1
1070
    44
1040
1.0
1070
    74
1070
     0
1000
MTEXTEND
  0
POINT
  5
1E1D4
330
1E1CD
100
AcDbEntity
  8
DEFPOINTS
  6
ByBlock
 62
     0
 48
50.0
100
AcDbPoint
 10
3496.0
 20
4004.0
 30
0.0
  0
POINT
  5
1E1D5
330
1E1CD
100
AcDbEntity
  8
DEFPOINTS
  6
ByBlock
 62
     0
 48
50.0
100
AcDbPoint
 10
3496.0
 20
2204.0
 30
0.0
  0
POINT
  5
1E1D6
330
1E1CD
100
AcDbEntity
  8
DEFPOINTS
  6
ByBlock
 62
     0
 48
50.0
100
AcDbPoint
 10
2754.56493184821
 20
2204.0
 30
0.0
  0
ENDBLK
  5
1E1D7
330
1E1CD
100
AcDbEntity
  8
0
 48
50.0
100
AcDbBlockEnd
  0
BLOCK
  5
1E1D9
330
1E1D8
100
AcDbEntity
  8
0
 48
50.0
100
AcDbBlockBegin
  2
*D16
 70
     1
 10
0.0
 20
0.0
 30
0.0
  3
*D16
  1

  0
LINE
  5
1E1DA
330
1E1D8
100
AcDbEntity
  8
0
  6
ByBlock
 62
     0
 48
50.0
100
AcDbLine
 10
2975.057733986178
 20
8093.999999999997
 30
0.0
 11
2679.56493184821
 21
8093.999999999997
 31
0.0
  0
LINE
  5
1E1DB
330
1E1D8
100
AcDbEntity
  8
0
  6
ByBlock
 62
     0
 48
50.0
100
AcDbLine
 10
3471.0
 20
8004.0
 30
0.0
 11
2679.56493184821
 21
8004.0
 31
0.0
  0
LINE
  5
1E1DC
330
1E1D8
100
AcDbEntity
  8
0
  6
ByBlock
 62
     0
 48
50.0
100
AcDbLine
 10
2754.56493184821
 20
8093.999999999997
 30
0.0
 11
2754.56493184821
 21
8218.999999999997
 31
0.0
  0
LINE
  5
1E1DD
330
1E1D8
100
AcDbEntity
  8
0
  6
ByBlock
 62
     0
 48
50.0
100
AcDbLine
 10
2754.56493184821
 20
8004.0
 30
0.0
 11
2754.56493184821
 21
7879.0
 31
0.0
  0
LINE
  5
1E1DE
330
1E1D8
100
AcDbEntity
  8
0
  6
ByBlock
 62
     0
 48
50.0
100
AcDbLine
 10
2754.56493184821
 20
8093.999999999997
 30
0.0
 11
2754.56493184821
 21
8004.0
 31
0.0
  0
INSERT
  5
1E1DF
330
1E1D8
100
AcDbEntity
  8
0
  6
ByBlock
 62
     0
 48
50.0
100
AcDbBlockReference
  2
_DOTSMALL
 10
2754.56493184821
 20
8093.999999999997
 30
0.0
 41
125.0
 42
125.0
 43
125.0
 50
270.0
  0
INSERT
  5
1E1E0
330
1E1D8
100
AcDbEntity
  8
0
  6
ByBlock
 62
     0
 48
50.0
100
AcDbBlockReference
  2
_DOTSMALL
 10
2754.56493184821
 20
8004.0
 30
0.0
 41
125.0
 42
125.0
 43
125.0
 50
90.0
  0
MTEXT
  5
1E1E1
330
1E1D8
100
AcDbEntity
  8
0
  6
ByBlock
 62
     7
 48
50.0
100
AcDbMText
 10
2654.56493184821
 20
8048.999999999997
 30
0.0
 40
150.0
 41
0.0
 71
     5
 72
     1
  1
\A1;c
  7
STYLE1
 11
0.0000000000000001
 21
1.0
 31
0.0
 73
     1
 44
1.0
1001
ACAD
1000
MTEXTBEGIN
1070
    73
1070
     1
1070
    44
1040
1.0
1070
    74
1070
     0
1000
MTEXTEND
  0
POINT
  5
1E1E2
330
1E1D8
100
AcDbEntity
  8
DEFPOINTS
  6
ByBlock
 62
     0
 48
50.0
100
AcDbPoint
 10
3000.057733986178
 20
8093.999999999997
 30
0.0
  0
POINT
  5
1E1E3
330
1E1D8
100
AcDbEntity
  8
DEFPOINTS
  6
ByBlock
 62
     0
 48
50.0
100
AcDbPoint
 10
3496.0
 20
8004.0
 30
0.0
  0
POINT
  5
1E1E4
330
1E1D8
100
AcDbEntity
  8
DEFPOINTS
  6
ByBlock
 62
     0
 48
50.0
100
AcDbPoint
 10
2754.56493184821
 20
8004.0
 30
0.0
  0
ENDBLK
  5
1E1E5
330
1E1D8
100
AcDbEntity
  8
0
 48
50.0
100
AcDbBlockEnd
  0
BLOCK
  5
1E1E7
330
1E1E6
100
AcDbEntity
  8
0
 48
50.0
100
AcDbBlockBegin
  2
*D17
 70
     1
 10
0.0
 20
0.0
 30
0.0
  3
*D17
  1

  0
LINE
  5
1E1E8
330
1E1E6
100
AcDbEntity
  8
0
  6
ByBlock
 62
     0
 48
50.0
100
AcDbLine
 10
5296.0
 20
8029.0
 30
0.0
 11
5296.0
 21
9017.667619817155
 31
0.0
  0
LINE
  5
1E1E9
330
1E1E6
100
AcDbEntity
  8
0
  6
ByBlock
 62
     0
 48
50.0
100
AcDbLine
 10
5338.740228660987
 20
8755.206924300319
 30
0.0
 11
5338.740228660987
 21
9017.667619817155
 31
0.0
  0
LINE
  5
1E1EA
330
1E1E6
100
AcDbEntity
  8
0
  6
ByBlock
 62
     0
 48
50.0
100
AcDbLine
 10
5296.0
 20
8942.667619817155
 30
0.0
 11
5171.0
 21
8942.667619817155
 31
0.0
  0
LINE
  5
1E1EB
330
1E1E6
100
AcDbEntity
  8
0
  6
ByBlock
 62
     0
 48
50.0
100
AcDbLine
 10
5338.740228660987
 20
8942.667619817155
 30
0.0
 11
5704.176781667134
 21
8942.667619817155
 31
0.0
  0
LINE
  5
1E1EC
330
1E1E6
100
AcDbEntity
  8
0
  6
ByBlock
 62
     0
 48
50.0
100
AcDbLine
 10
5296.0
 20
8942.667619817155
 30
0.0
 11
5338.740228660987
 21
8942.667619817155
 31
0.0
  0
INSERT
  5
1E1ED
330
1E1E6
100
AcDbEntity
  8
0
  6
ByBlock
 62
     0
 48
50.0
100
AcDbBlockReference
  2
_DOTSMALL
 10
5296.0
 20
8942.667619817155
 30
0.0
 41
125.0
 42
125.0
 43
125.0
  0
INSERT
  5
1E1EE
330
1E1E6
100
AcDbEntity
  8
0
  6
ByBlock
 62
     0
 48
50.0
100
AcDbBlockReference
  2
_DOTSMALL
 10
5338.740228660987
 20
8942.667619817155
 30
0.0
 41
125.0
 42
125.0
 43
125.0
 50
180.0
  0
MTEXT
  5
1E1EF
330
1E1E6
100
AcDbEntity
  8
0
  6
ByBlock
 62
     7
 48
50.0
100
AcDbMText
 10
5646.45850516406
 20
9042.667619817155
 30
0.0
 40
150.0
 41
0.0
 71
     5
 72
     1
  1
\A1;a
  7
STYLE1
 73
     1
 44
1.0
1001
ACAD
1000
MTEXTBEGIN
1070
    73
1070
     1
1070
    44
1040
1.0
1070
    74
1070
     0
1000
MTEXTEND
  0
POINT
  5
1E1F0
330
1E1E6
100
AcDbEntity
  8
DEFPOINTS
  6
ByBlock
 62
     0
 48
50.0
100
AcDbPoint
 10
5296.0
 20
8004.0
 30
0.0
  0
POINT
  5
1E1F1
330
1E1E6
100
AcDbEntity
  8
DEFPOINTS
  6
ByBlock
 62
     0
 48
50.0
100
AcDbPoint
 10
5338.740228660987
 20
8730.206924300318
 30
0.0
  0
POINT
  5
1E1F2
330
1E1E6
100
AcDbEntity
  8
DEFPOINTS
  6
ByBlock
 62
     0
 48
50.0
100
AcDbPoint
 10
5338.740228660987
 20
8942.667619817155
 30
0.0
  0
ENDBLK
  5
1E1F3
330
1E1E6
100
AcDbEntity
  8
0
 48
50.0
100
AcDbBlockEnd
  0
BLOCK
  5
1E1F5
330
1E1F4
100
AcDbEntity
  8
0
 48
50.0
100
AcDbBlockBegin
  2
*D18
 70
     1
 10
0.0
 20
0.0
 30
0.0
  3
*D18
  1

  0
LINE
  5
1E1F6
330
1E1F4
100
AcDbEntity
  8
0
  6
ByBlock
 62
     0
 48
50.0
100
AcDbLine
 10
5296.0
 20
8029.0
 30
0.0
 11
5296.0
 21
8805.206924300318
 31
0.0
  0
LINE
  5
1E1F7
330
1E1F4
100
AcDbEntity
  8
0
  6
ByBlock
 62
     0
 48
50.0
100
AcDbLine
 10
5173.0
 20
7956.0
 30
0.0
 11
5173.0
 21
8805.206924300318
 31
0.0
  0
LINE
  5
1E1F8
330
1E1F4
100
AcDbEntity
  8
0
  6
ByBlock
 62
     0
 48
50.0
100
AcDbLine
 10
5173.0
 20
8730.206924300317
 30
0.0
 11
5296.0
 21
8730.206924300317
 31
0.0
  0
LINE
  5
1E1F9
330
1E1F4
100
AcDbEntity
  8
0
  6
ByBlock
 62
     0
 48
50.0
100
AcDbLine
 10
5296.0
 20
8730.206924300317
 30
0.0
 11
5717.213203435597
 21
8730.206924300317
 31
0.0
  0
INSERT
  5
1E1FA
330
1E1F4
100
AcDbEntity
  8
0
  6
ByBlock
 62
     0
 48
50.0
100
AcDbBlockReference
  2
_DOTSMALL
 10
5173.0
 20
8730.206924300317
 30
0.0
 41
125.0
 42
125.0
 43
125.0
 50
180.0
  0
INSERT
  5
1E1FB
330
1E1F4
100
AcDbEntity
  8
0
  6
ByBlock
 62
     0
 48
50.0
100
AcDbBlockReference
  2
_DOTSMALL
 10
5296.0
 20
8730.206924300317
 30
0.0
 41
125.0
 42
125.0
 43
125.0
  0
MTEXT
  5
1E1FC
330
1E1F4
100
AcDbEntity
  8
0
  6
ByBlock
 62
     7
 48
50.0
100
AcDbMText
 10
5569.106601717798
 20
8830.221688079843
 30
0.0
 40
150.0
 41
0.0
 71
     5
 72
     1
  1
\A1;123
  7
STYLE1
 73
     1
 44
1.0
1001
ACAD
1000
MTEXTBEGIN
1070
    73
1070
     1
1070
    44
1040
1.0
1070
    74
1070
     0
1000
MTEXTEND
  0
POINT
  5
1E1FD
330
1E1F4
100
AcDbEntity
  8
DEFPOINTS
  6
ByBlock
 62
     0
 48
50.0
100
AcDbPoint
 10
5296.0
 20
8004.0
 30
0.0
  0
POINT
  5
1E1FE
330
1E1F4
100
AcDbEntity
  8
DEFPOINTS
  6
ByBlock
 62
     0
 48
50.0
100
AcDbPoint
 10
5173.0
 20
7931.0
 30
0.0
  0
POINT
  5
1E1FF
330
1E1F4
100
AcDbEntity
  8
DEFPOINTS
  6
ByBlock
 62
     0
 48
50.0
100
AcDbPoint
 10
5173.0
 20
8730.206924300317
 30
0.0
  0
ENDBLK
  5
1E200
330
1E1F4
100
AcDbEntity
  8
0
 48
50.0
100
AcDbBlockEnd
  0
BLOCK
  5
1E202
330
1E201
100
AcDbEntity
  8
0
 48
50.0
100
AcDbBlockBegin
  2
*D19
 70
     1
 10
0.0
 20
0.0
 30
0.0
  3
*D19
  1

  0
LINE
  5
1E203
330
1E201
100
AcDbEntity
  8
0
  6
ByBlock
 62
     0
 48
50.0
100
AcDbLine
 10
4765.91864628953
 20
8004.0
 30
0.0
 11
5028.847448568776
 21
8004.0
 31
0.0
  0
LINE
  5
1E204
330
1E201
100
AcDbEntity
  8
0
  6
ByBlock
 62
     0
 48
50.0
100
AcDbLine
 10
4765.91864628953
 20
7903.999999999998
 30
0.0
 11
5028.847448568776
 21
7903.999999999998
 31
0.0
  0
LINE
  5
1E205
330
1E201
100
AcDbEntity
  8
0
  6
ByBlock
 62
     0
 48
50.0
100
AcDbLine
 10
4953.847448568776
 20
7903.999999999998
 30
0.0
 11
4953.847448568776
 21
8004.0
 31
0.0
  0
LINE
  5
1E206
330
1E201
100
AcDbEntity
  8
0
  6
ByBlock
 62
     0
 48
50.0
100
AcDbLine
 10
4953.847448568776
 20
8004.0
 30
0.0
 11
4953.847448568776
 21
8419.118110236221
 31
0.0
  0
INSERT
  5
1E207
330
1E201
100
AcDbEntity
  8
0
  6
ByBlock
 62
     0
 48
50.0
100
AcDbBlockReference
  2
_DOTSMALL
 10
4953.847448568776
 20
7903.999999999998
 30
0.0
 41
125.0
 42
125.0
 43
125.0
 50
270.0
  0
INSERT
  5
1E208
330
1E201
100
AcDbEntity
  8
0
  6
ByBlock
 62
     0
 48
50.0
100
AcDbBlockReference
  2
_DOTSMALL
 10
4953.847448568776
 20
8004.0
 30
0.0
 41
125.0
 42
125.0
 43
125.0
 50
90.0
  0
MTEXT
  5
1E209
330
1E201
100
AcDbEntity
  8
0
  6
ByBlock
 62
     7
 48
50.0
100
AcDbMText
 10
4853.847448568776
 20
8274.05905511811
 30
0.0
 40
150.0
 41
0.0
 71
     5
 72
     1
  1
\A1;100
  7
STYLE1
 11
0.0000000000000001
 21
1.0
 31
0.0
 73
     1
 44
1.0
1001
ACAD
1000
MTEXTBEGIN
1070
    73
1070
     1
1070
    44
1040
1.0
1070
    74
1070
     0
1000
MTEXTEND
  0
POINT
  5
1E20A
330
1E201
100
AcDbEntity
  8
DEFPOINTS
  6
ByBlock
 62
     0
 48
50.0
100
AcDbPoint
 10
4740.91864628953
 20
8004.0
 30
0.0
  0
POINT
  5
1E20B
330
1E201
100
AcDbEntity
  8
DEFPOINTS
  6
ByBlock
 62
     0
 48
50.0
100
AcDbPoint
 10
4740.91864628953
 20
7903.999999999998
 30
0.0
  0
POINT
  5
1E20C
330
1E201
100
AcDbEntity
  8
DEFPOINTS
  6
ByBlock
 62
     0
 48
50.0
100
AcDbPoint
 10
4953.847448568776
 20
7903.999999999998
 30
0.0
  0
ENDBLK
  5
1E20D
330
1E201
100
AcDbEntity
  8
0
 48
50.0
100
AcDbBlockEnd
  0
BLOCK
  5
1E20F
330
1E20E
100
AcDbEntity
  8
0
 48
50.0
100
AcDbBlockBegin
  2
*D20
 70
     1
 10
0.0
 20
0.0
 30
0.0
  3
*D20
  1

  0
LINE
  5
1E210
330
1E20E
100
AcDbEntity
  8
0
  6
ByBlock
 62
     0
 48
50.0
100
AcDbLine
 10
3796.000000000001
 20
2529.000000000007
 30
0.0
 11
3796.000000000001
 21
2931.6104948313
 31
0.0
  0
LINE
  5
1E211
330
1E20E
100
AcDbEntity
  8
0
  6
ByBlock
 62
     0
 48
50.0
100
AcDbLine
 10
3595.999999999998
 20
2529.000000000004
 30
0.0
 11
3595.999999999998
 21
2931.6104948313
 31
0.0
  0
LINE
  5
1E212
330
1E20E
100
AcDbEntity
  8
0
  6
ByBlock
 62
     0
 48
50.0
100
AcDbLine
 10
3796.000000000001
 20
2856.610494831301
 30
0.0
 11
3595.999999999998
 21
2856.610494831301
 31
0.0
  0
LINE
  5
1E213
330
1E20E
100
AcDbEntity
  8
0
  6
ByBlock
 62
     0
 48
50.0
100
AcDbLine
 10
3595.999999999998
 20
2856.610494831301
 30
0.0
 11
3122.996254565651
 21
2856.610494831301
 31
0.0
  0
INSERT
  5
1E214
330
1E20E
100
AcDbEntity
  8
0
  6
ByBlock
 62
     0
 48
50.0
100
AcDbBlockReference
  2
_DOTSMALL
 10
3796.000000000001
 20
2856.610494831301
 30
0.0
 41
125.0
 42
125.0
 43
125.0
  0
INSERT
  5
1E215
330
1E20E
100
AcDbEntity
  8
0
  6
ByBlock
 62
     0
 48
50.0
100
AcDbBlockReference
  2
_DOTSMALL
 10
3595.999999999998
 20
2856.610494831301
 30
0.0
 41
125.0
 42
125.0
 43
125.0
 50
180.0
  0
MTEXT
  5
1E216
330
1E20E
100
AcDbEntity
  8
0
  6
ByBlock
 62
     7
 48
50.0
100
AcDbMText
 10
3284.959837242816
 20
2956.625258610828
 30
0.0
 40
150.0
 41
0.0
 71
     5
 72
     1
  1
\A1;200
  7
STYLE1
 73
     1
 44
1.0
1001
ACAD
1000
MTEXTBEGIN
1070
    73
1070
     1
1070
    44
1040
1.0
1070
    74
1070
     0
1000
MTEXTEND
  0
POINT
  5
1E217
330
1E20E
100
AcDbEntity
  8
DEFPOINTS
  6
ByBlock
 62
     0
 48
50.0
100
AcDbPoint
 10
3796.000000000001
 20
2504.000000000007
 30
0.0
  0
POINT
  5
1E218
330
1E20E
100
AcDbEntity
  8
DEFPOINTS
  6
ByBlock
 62
     0
 48
50.0
100
AcDbPoint
 10
3595.999999999998
 20
2504.000000000004
 30
0.0
  0
POINT
  5
1E219
330
1E20E
100
AcDbEntity
  8
DEFPOINTS
  6
ByBlock
 62
     0
 48
50.0
100
AcDbPoint
 10
3595.999999999998
 20
2856.610494831301
 30
0.0
  0
ENDBLK
  5
1E21A
330
1E20E
100
AcDbEntity
  8
0
 48
50.0
100
AcDbBlockEnd
  0
BLOCK
  5
1E21C
330
1E21B
100
AcDbEntity
  8
0
 48
50.0
100
AcDbBlockBegin
  2
*D21
 70
     1
 10
0.0
 20
0.0
 30
0.0
  3
*D21
  1

  0
LINE
  5
1E21D
330
1E21B
100
AcDbEntity
  8
0
  6
ByBlock
 62
     0
 48
50.0
100
AcDbLine
 10
4421.0
 20
2204.000000000009
 30
0.0
 11
4870.266817430558
 21
2204.000000000009
 31
0.0
  0
LINE
  5
1E21E
330
1E21B
100
AcDbEntity
  8
0
  6
ByBlock
 62
     0
 48
50.0
100
AcDbLine
 10
4471.0
 20
3104.0
 30
0.0
 11
4870.266817430558
 21
3104.0
 31
0.0
  0
LINE
  5
1E21F
330
1E21B
100
AcDbEntity
  8
0
  6
ByBlock
 62
     0
 48
50.0
100
AcDbLine
 10
4795.266817430558
 20
2204.000000000009
 30
0.0
 11
4795.266817430558
 21
3104.0
 31
0.0
  0
INSERT
  5
1E220
330
1E21B
100
AcDbEntity
  8
0
  6
ByBlock
 62
     0
 48
50.0
100
AcDbBlockReference
  2
_DOTSMALL
 10
4795.266817430558
 20
2204.000000000009
 30
0.0
 41
125.0
 42
125.0
 43
125.0
 50
270.0
  0
INSERT
  5
1E221
330
1E21B
100
AcDbEntity
  8
0
  6
ByBlock
 62
     0
 48
50.0
100
AcDbBlockReference
  2
_DOTSMALL
 10
4795.266817430558
 20
3104.0
 30
0.0
 41
125.0
 42
125.0
 43
125.0
 50
90.0
  0
MTEXT
  5
1E222
330
1E21B
100
AcDbEntity
  8
0
  6
ByBlock
 62
     7
 48
50.0
100
AcDbMText
 10
4695.266817430558
 20
2654.000000000005
 30
0.0
 40
150.0
 41
0.0
 71
     5
 72
     1
  1
\A1;900
  7
STYLE1
 11
0.0000000000000001
 21
1.0
 31
0.0
 73
     1
 44
1.0
1001
ACAD
1000
MTEXTBEGIN
1070
    73
1070
     1
1070
    44
1040
1.0
1070
    74
1070
     0
1000
MTEXTEND
  0
POINT
  5
1E223
330
1E21B
100
AcDbEntity
  8
DEFPOINTS
  6
ByBlock
 62
     0
 48
50.0
100
AcDbPoint
 10
4396.0
 20
2204.000000000009
 30
0.0
  0
POINT
  5
1E224
330
1E21B
100
AcDbEntity
  8
DEFPOINTS
  6
ByBlock
 62
     0
 48
50.0
100
AcDbPoint
 10
4446.0
 20
3104.0
 30
0.0
  0
POINT
  5
1E225
330
1E21B
100
AcDbEntity
  8
DEFPOINTS
  6
ByBlock
 62
     0
 48
50.0
100
AcDbPoint
 10
4795.266817430558
 20
3104.0
 30
0.0
  0
ENDBLK
  5
1E226
330
1E21B
100
AcDbEntity
  8
0
 48
50.0
100
AcDbBlockEnd
  0
BLOCK
  5
1E228
330
1E227
100
AcDbEntity
  8
0
 48
50.0
100
AcDbBlockBegin
  2
*D22
 70
     1
 10
0.0
 20
0.0
 30
0.0
  3
*D22
  1

  0
LINE
  5
1E229
330
1E227
100
AcDbEntity
  8
0
  6
ByBlock
 62
     0
 48
50.0
100
AcDbLine
 10
4421.0
 20
4004.0
 30
0.0
 11
4870.266817430558
 21
4004.0
 31
0.0
  0
LINE
  5
1E22A
330
1E227
100
AcDbEntity
  8
0
  6
ByBlock
 62
     0
 48
50.0
100
AcDbLine
 10
4795.266817430558
 20
3104.0
 30
0.0
 11
4795.266817430558
 21
4004.0
 31
0.0
  0
INSERT
  5
1E22B
330
1E227
100
AcDbEntity
  8
0
  6
ByBlock
 62
     0
 48
50.0
100
AcDbBlockReference
  2
_DOTSMALL
 10
4795.266817430558
 20
3104.0
 30
0.0
 41
125.0
 42
125.0
 43
125.0
 50
270.0
  0
INSERT
  5
1E22C
330
1E227
100
AcDbEntity
  8
0
  6
ByBlock
 62
     0
 48
50.0
100
AcDbBlockReference
  2
_DOTSMALL
 10
4795.266817430558
 20
4004.0
 30
0.0
 41
125.0
 42
125.0
 43
125.0
 50
90.0
  0
MTEXT
  5
1E22D
330
1E227
100
AcDbEntity
  8
0
  6
ByBlock
 62
     7
 48
50.0
100
AcDbMText
 10
4695.266817430558
 20
3554.0
 30
0.0
 40
150.0
 41
0.0
 71
     5
 72
     1
  1
\A1;900
  7
STYLE1
 11
0.0000000000000001
 21
1.0
 31
0.0
 73
     1
 44
1.0
1001
ACAD
1000
MTEXTBEGIN
1070
    73
1070
     1
1070
    44
1040
1.0
1070
    74
1070
     0
1000
MTEXTEND
  0
POINT
  5
1E22E
330
1E227
100
AcDbEntity
  8
DEFPOINTS
  6
ByBlock
 62
     0
 48
50.0
100
AcDbPoint
 10
4446.0
 20
3104.0
 30
0.0
  0
POINT
  5
1E22F
330
1E227
100
AcDbEntity
  8
DEFPOINTS
  6
ByBlock
 62
     0
 48
50.0
100
AcDbPoint
 10
4396.0
 20
4004.0
 30
0.0
  0
POINT
  5
1E230
330
1E227
100
AcDbEntity
  8
DEFPOINTS
  6
ByBlock
 62
     0
 48
50.0
100
AcDbPoint
 10
4795.266817430558
 20
4004.0
 30
0.0
  0
ENDBLK
  5
1E231
330
1E227
100
AcDbEntity
  8
0
 48
50.0
100
AcDbBlockEnd
  0
BLOCK
  5
1E233
330
1E232
100
AcDbEntity
  8
0
 48
50.0
100
AcDbBlockBegin
  2
*D23
 70
     1
 10
0.0
 20
0.0
 30
0.0
  3
*D23
  1

  0
LINE
  5
1E234
330
1E232
100
AcDbEntity
  8
0
  6
ByBlock
 62
     0
 48
50.0
100
AcDbLine
 10
3496.0
 20
4029.0
 30
0.0
 11
3496.0
 21
4605.909765648328
 31
0.0
  0
LINE
  5
1E235
330
1E232
100
AcDbEntity
  8
0
  6
ByBlock
 62
     0
 48
50.0
100
AcDbLine
 10
4396.0
 20
4530.909765648328
 30
0.0
 11
3496.0
 21
4530.909765648328
 31
0.0
  0
INSERT
  5
1E236
330
1E232
100
AcDbEntity
  8
0
  6
ByBlock
 62
     0
 48
50.0
100
AcDbBlockReference
  2
_DOTSMALL
 10
4396.0
 20
4530.909765648328
 30
0.0
 41
125.0
 42
125.0
 43
125.0
  0
INSERT
  5
1E237
330
1E232
100
AcDbEntity
  8
0
  6
ByBlock
 62
     0
 48
50.0
100
AcDbBlockReference
  2
_DOTSMALL
 10
3496.0
 20
4530.909765648328
 30
0.0
 41
125.0
 42
125.0
 43
125.0
 50
180.0
  0
MTEXT
  5
1E238
330
1E232
100
AcDbEntity
  8
0
  6
ByBlock
 62
     7
 48
50.0
100
AcDbMText
 10
3946.0
 20
4630.909765648328
 30
0.0
 40
150.0
 41
0.0
 71
     5
 72
     1
  1
\A1;900
  7
STYLE1
 73
     1
 44
1.0
1001
ACAD
1000
MTEXTBEGIN
1070
    73
1070
     1
1070
    44
1040
1.0
1070
    74
1070
     0
1000
MTEXTEND
  0
POINT
  5
1E239
330
1E232
100
AcDbEntity
  8
DEFPOINTS
  6
ByBlock
 62
     0
 48
50.0
100
AcDbPoint
 10
4396.0
 20
3304.0
 30
0.0
  0
POINT
  5
1E23A
330
1E232
100
AcDbEntity
  8
DEFPOINTS
  6
ByBlock
 62
     0
 48
50.0
100
AcDbPoint
 10
3496.0
 20
4004.0
 30
0.0
  0
POINT
  5
1E23B
330
1E232
100
AcDbEntity
  8
DEFPOINTS
  6
ByBlock
 62
     0
 48
50.0
100
AcDbPoint
 10
3496.0
 20
4530.909765648328
 30
0.0
  0
ENDBLK
  5
1E23C
330
1E232
100
AcDbEntity
  8
0
 48
50.0
100
AcDbBlockEnd
  0
BLOCK
  5
1E23E
330
1E23D
100
AcDbEntity
  8
0
 48
50.0
100
AcDbBlockBegin
  2
*D24
 70
     1
 10
0.0
 20
0.0
 30
0.0
  3
*D24
  1

  0
LINE
  5
1E23F
330
1E23D
100
AcDbEntity
  8
0
  6
ByBlock
 62
     0
 48
50.0
100
AcDbLine
 10
5296.0
 20
4029.0
 30
0.0
 11
5296.0
 21
4605.909765648328
 31
0.0
  0
LINE
  5
1E240
330
1E23D
100
AcDbEntity
  8
0
  6
ByBlock
 62
     0
 48
50.0
100
AcDbLine
 10
4396.0
 20
3329.0
 30
0.0
 11
4396.0
 21
4605.909765648328
 31
0.0
  0
LINE
  5
1E241
330
1E23D
100
AcDbEntity
  8
0
  6
ByBlock
 62
     0
 48
50.0
100
AcDbLine
 10
5296.0
 20
4530.909765648328
 30
0.0
 11
4396.0
 21
4530.909765648328
 31
0.0
  0
INSERT
  5
1E242
330
1E23D
100
AcDbEntity
  8
0
  6
ByBlock
 62
     0
 48
50.0
100
AcDbBlockReference
  2
_DOTSMALL
 10
5296.0
 20
4530.909765648328
 30
0.0
 41
125.0
 42
125.0
 43
125.0
  0
INSERT
  5
1E243
330
1E23D
100
AcDbEntity
  8
0
  6
ByBlock
 62
     0
 48
50.0
100
AcDbBlockReference
  2
_DOTSMALL
 10
4396.0
 20
4530.909765648328
 30
0.0
 41
125.0
 42
125.0
 43
125.0
 50
180.0
  0
MTEXT
  5
1E244
330
1E23D
100
AcDbEntity
  8
0
  6
ByBlock
 62
     7
 48
50.0
100
AcDbMText
 10
4866.91852200628
 20
4630.909765648328
 30
0.0
 40
150.0
 41
0.0
 71
     5
 72
     1
  1
\A1;900
  7
STYLE1
 73
     1
 44
1.0
1001
ACAD
1000
MTEXTBEGIN
1070
    73
1070
     1
1070
    44
1040
1.0
1070
    74
1070
     0
1000
MTEXTEND
  0
POINT
  5
1E245
330
1E23D
100
AcDbEntity
  8
DEFPOINTS
  6
ByBlock
 62
     0
 48
50.0
100
AcDbPoint
 10
5296.0
 20
4004.0
 30
0.0
  0
POINT
  5
1E246
330
1E23D
100
AcDbEntity
  8
DEFPOINTS
  6
ByBlock
 62
     0
 48
50.0
100
AcDbPoint
 10
4396.0
 20
3304.0
 30
0.0
  0
POINT
  5
1E247
330
1E23D
100
AcDbEntity
  8
DEFPOINTS
  6
ByBlock
 62
     0
 48
50.0
100
AcDbPoint
 10
4396.0
 20
4530.909765648328
 30
0.0
  0
ENDBLK
  5
1E248
330
1E23D
100
AcDbEntity
  8
0
 48
50.0
100
AcDbBlockEnd
  0
BLOCK
  5
1E24A
330
1E249
100
AcDbEntity
  8
0
 48
50.0
100
AcDbBlockBegin
  2
*D25
 70
     1
 10
0.0
 20
0.0
 30
0.0
  3
*D25
  1

  0
LINE
  5
1E24B
330
1E249
100
AcDbEntity
  8
0
  6
ByBlock
 62
     0
 48
50.0
100
AcDbLine
 10
5196.0
 20
7079.000000000007
 30
0.0
 11
5196.0
 21
6928.700321064884
 31
0.0
  0
LINE
  5
1E24C
330
1E249
100
AcDbEntity
  8
0
  6
ByBlock
 62
     0
 48
50.0
100
AcDbLine
 10
5296.0
 20
7079.000000000007
 30
0.0
 11
5296.0
 21
6928.700321064884
 31
0.0
  0
LINE
  5
1E24D
330
1E249
100
AcDbEntity
  8
0
  6
ByBlock
 62
     0
 48
50.0
100
AcDbLine
 10
5196.0
 20
7003.700321064883
 30
0.0
 11
5296.0
 21
7003.700321064883
 31
0.0
  0
LINE
  5
1E24E
330
1E249
100
AcDbEntity
  8
0
  6
ByBlock
 62
     0
 48
50.0
100
AcDbLine
 10
5296.0
 20
7003.700321064883
 30
0.0
 11
5711.11811023622
 21
7003.700321064883
 31
0.0
  0
INSERT
  5
1E24F
330
1E249
100
AcDbEntity
  8
0
  6
ByBlock
 62
     0
 48
50.0
100
AcDbBlockReference
  2
_DOTSMALL
 10
5196.0
 20
7003.700321064883
 30
0.0
 41
125.0
 42
125.0
 43
125.0
 50
180.0
  0
INSERT
  5
1E250
330
1E249
100
AcDbEntity
  8
0
  6
ByBlock
 62
     0
 48
50.0
100
AcDbBlockReference
  2
_DOTSMALL
 10
5296.0
 20
7003.700321064883
 30
0.0
 41
125.0
 42
125.0
 43
125.0
  0
MTEXT
  5
1E251
330
1E249
100
AcDbEntity
  8
0
  6
ByBlock
 62
     7
 48
50.0
100
AcDbMText
 10
5566.05905511811
 20
7103.700321064883
 30
0.0
 40
150.0
 41
0.0
 71
     5
 72
     1
  1
\A1;100
  7
STYLE1
 73
     1
 44
1.0
1001
ACAD
1000
MTEXTBEGIN
1070
    73
1070
     1
1070
    44
1040
1.0
1070
    74
1070
     0
1000
MTEXTEND
  0
POINT
  5
1E252
330
1E249
100
AcDbEntity
  8
DEFPOINTS
  6
ByBlock
 62
     0
 48
50.0
100
AcDbPoint
 10
5196.0
 20
7104.000000000008
 30
0.0
  0
POINT
  5
1E253
330
1E249
100
AcDbEntity
  8
DEFPOINTS
  6
ByBlock
 62
     0
 48
50.0
100
AcDbPoint
 10
5296.0
 20
7104.000000000008
 30
0.0
  0
POINT
  5
1E254
330
1E249
100
AcDbEntity
  8
DEFPOINTS
  6
ByBlock
 62
     0
 48
50.0
100
AcDbPoint
 10
5296.0
 20
7003.700321064883
 30
0.0
  0
ENDBLK
  5
1E255
330
1E249
100
AcDbEntity
  8
0
 48
50.0
100
AcDbBlockEnd
  0
BLOCK
  5
1E2A5
330
1E256
100
AcDbEntity
  8
0
 48
50.0
100
AcDbBlockBegin
  2
A$C56A41A26
 70
     0
 10
0.0
 20
0.0
 30
0.0
  3
A$C56A41A26
  1

  0
LINE
  5
1E257
330
1E256
100
AcDbEntity
  8
部品1
 48
50.0
100
AcDbLine
 10
2708.994140400603
 20
2627.271234847374
 30
0.0
 11
908.9941404006022
 21
2627.271234847374
 31
0.0
  0
LINE
  5
1E258
330
1E256
100
AcDbEntity
  8
部品1
 48
50.0
100
AcDbLine
 10
2708.994140400602
 20
2727.271234847376
 30
0.0
 11
908.9941404006022
 21
2727.271234847376
 31
0.0
  0
LINE
  5
1E259
330
1E256
100
AcDbEntity
  8
想像線
 48
10.0
100
AcDbLine
 10
858.9941404005985
 20
2817.271234847376
 30
0.0
 11
2758.994140400606
 21
2817.27123484738
 31
0.0
  0
LINE
  5
1E25A
330
1E256
100
AcDbEntity
  8
想像線
 48
10.0
100
AcDbLine
 10
2758.994140400603
 20
797.2712348473724
 30
0.0
 11
858.9941404006022
 21
797.271234847376
 31
0.0
  0
LINE
  5
1E25B
330
1E256
100
AcDbEntity
  8
部品1
 48
50.0
100
AcDbLine
 10
2708.994140400602
 20
927.2712348473943
 30
0.0
 11
908.9941404006022
 21
927.271234847376
 31
0.0
  0
DIMENSION
  5
1E25C
330
1E256
100
AcDbEntity
  8
寸法
 48
50.0
100
AcDbDimension
  2
*D8
 10
1444.747864477533
 20
927.2712348473778
 30
0.0
 11
1444.747864477533
 21
649.1876915744906
 31
0.0
 12
-2587.005859599398
 22
-5696.728765152624
 32
0.0
 70
   128
 71
     5
 42
-1.0
  3
INABA_S50G
100
AcDbAlignedDimension
 13
1138.994140400603
 23
1027.271234847381
 33
0.0
 14
1138.994140400604
 24
927.2712348473778
 34
0.0
 50
90.0
100
AcDbRotatedDimension
1001
ACAD
1000
DSTYLE
1002
{
1070
   288
1070
     1
1070
    40
1040
1.0
1002
}
  0
LINE
  5
1E25D
330
1E256
100
AcDbEntity
  8
部品1
 48
50.0
100
AcDbLine
 10
2708.994140400603
 20
1027.271234847398
 30
0.0
 11
908.9941404006022
 21
1027.27123484738
 31
0.0
  0
DIMENSION
  5
1E25E
330
1E256
100
AcDbEntity
  8
寸法
 48
50.0
100
AcDbDimension
  2
*D7
 10
1444.747864477533
 20
1227.271234847383
 30
0.0
 11
1444.747864477533
 21
1514.234817524549
 31
0.0
 12
-2587.005859599398
 22
-1276.728765152624
 32
0.0
 70
   128
 71
     5
 42
-1.0
  3
INABA_S50G
100
AcDbAlignedDimension
 13
1138.994140400603
 23
1027.27123484738
 33
0.0
 14
1208.994140400603
 24
1227.271234847383
 34
0.0
 50
90.0
100
AcDbRotatedDimension
1001
ACAD
1000
DSTYLE
1002
{
1070
   288
1070
     1
1070
    40
1040
1.0
1002
}
  0
MTEXT
  5
1E25F
102
{ACAD_REACTORS
330
1E260
102
}
330
1E256
100
AcDbEntity
  8
寸法
 62
     7
 48
50.0
100
AcDbMText
 10
1566.166025099446
 20
2207.190649171135
 30
0.0
 40
150.0
 41
0.0
 71
     6
 72
     1
  1
\A1;C.B
  7
STYLE1
 73
     1
 44
1.0
1001
ACAD
1000
MTEXTBEGIN
1070
    73
1070
     1
1070
    44
1040
1.0
1070
    74
1070
     0
1000
MTEXTEND
  0
LEADER
  5
1E260
330
1E256
100
AcDbEntity
  8
寸法
 48
50.0
100
AcDbLeader
  3
INABA_S50G
 73
     0
 75
     1
 40
150.0
 41
231.9898538650463
 76
     3
 10
1759.920575772113
 20
1978.037610834701
 30
0.0
 10
1716.166025099446
 20
2107.190649171135
 30
0.0
 10
1591.166025099446
 20
2107.190649171135
 30
0.0
340
1E25F
1001
ACAD
1000
DSTYLE
1002
{
1070
    40
1040
1.0
1002
}
  0
DIMENSION
  5
1E261
330
1E256
100
AcDbEntity
  8
寸法
 48
50.0
100
AcDbDimension
  2
*D6
 10
1031.994140400602
 20
3453.478159147693
 30
0.0
 11
1808.994140400602
 21
3553.478159147693
 31
0.0
 12
-2587.005859599398
 22
-5276.728765152624
 32
0.0
 71
     5
 42
-1.0
  3
INABA_S50G
100
AcDbAlignedDimension
 13
2585.994140400603
 23
2654.271234847376
 33
0.0
 14
1031.994140400602
 24
2654.271234847376
 34
0.0
100
AcDbRotatedDimension
1001
ACAD
1000
DSTYLE
1002
{
1070
    40
1040
1.0
1070
    75
1070
     1
1070
   279
1070
     1
1002
}
  0
DIMENSION
  5
1E262
330
1E256
100
AcDbEntity
  8
寸法
 48
50.0
100
AcDbDimension
  2
*D5
 10
2708.994140400602
 20
3665.93885466453
 30
0.0
 11
1808.994140400602
 21
3765.93885466453
 31
0.0
 12
-2587.005859599398
 22
-5276.728765152624
 32
0.0
 71
     5
 42
-1.0
  3
INABA_S50G
100
AcDbAlignedDimension
 13
908.9941404006022
 23
2727.271234847376
 33
0.0
 14
2708.994140400602
 24
2727.271234847376
 34
0.0
100
AcDbRotatedDimension
1001
ACAD
1000
DSTYLE
1002
{
1070
    40
1040
1.0
1070
    75
1070
     1
1070
   279
1070
     1
1002
}
  0
DIMENSION
  5
1E263
330
1E256
100
AcDbEntity
  8
寸法
 48
50.0
100
AcDbDimension
  2
*D23
 10
908.9941404006022
 20
3254.181000495704
 30
0.0
 11
1358.994140400602
 21
3354.181000495704
 31
0.0
 12
-2587.005859599398
 22
-1276.728765152624
 32
0.0
 71
     5
 42
-1.0
  3
INABA_S50G
100
AcDbAlignedDimension
 13
1808.994140400602
 23
2027.271234847376
 33
0.0
 14
908.9941404006022
 24
2727.271234847376
 34
0.0
100
AcDbRotatedDimension
1001
ACAD
1000
DSTYLE
1002
{
1070
    40
1040
1.0
1070
    75
1070
     1
1070
   279
1070
     1
1070
   288
1070
     1
1002
}
  0
DIMENSION
  5
1E264
330
1E256
100
AcDbEntity
  8
寸法
 48
50.0
100
AcDbDimension
  2
*D20
 10
1008.9941404006
 20
1579.881729678676
 30
0.0
 11
697.9539776434176
 21
1579.881729678676
 31
0.0
 12
-2587.005859599398
 22
-1276.728765152624
 32
0.0
 70
   128
 71
     5
 42
-1.0
  3
INABA_S50G
100
AcDbAlignedDimension
 13
1208.994140400603
 23
1227.271234847383
 33
0.0
 14
1008.9941404006
 24
1227.271234847379
 34
0.0
100
AcDbRotatedDimension
1001
ACAD
1000
DSTYLE
1002
{
1070
    40
1040
1.0
1002
}
  0
LINE
  5
1E265
330
1E256
100
AcDbEntity
  8
部品1
 48
50.0
100
AcDbLine
 10
1008.994140400602
 20
1027.27123484738
 30
0.0
 11
1008.994140400602
 21
2627.271234847373
 31
0.0
  0
DIMENSION
  5
1E266
330
1E256
100
AcDbEntity
  8
寸法
 48
50.0
100
AcDbDimension
  2
*D12
 10
413.0518743867797
 20
1125.271234847378
 30
0.0
 11
413.0518743867797
 21
1827.271234847376
 31
0.0
 12
-2587.005859599398
 22
-1276.728765152624
 32
0.0
 70
   128
 71
     5
 42
-1.0
  3
INABA_S50G
100
AcDbAlignedDimension
 13
981.9941404006021
 23
2604.271234847376
 33
0.0
 14
981.9941404006085
 24
1125.271234847378
 34
0.0
 50
90.0
100
AcDbRotatedDimension
1001
ACAD
1000
DSTYLE
1002
{
1070
   288
1070
     1
1070
    40
1040
1.0
1002
}
  0
DIMENSION
  5
1E267
330
1E256
100
AcDbEntity
  8
寸法
 48
50.0
100
AcDbDimension
  2
*D15
 10
167.5590722488123
 20
927.271234847376
 30
0.0
 11
67.5590722488123
 21
1827.271234847376
 31
0.0
 12
-2587.005859599398
 22
-1276.728765152624
 32
0.0
 71
     5
 42
-1.0
  3
INABA_S50G
100
AcDbAlignedDimension
 13
908.9941404006022
 23
2727.271234847376
 33
0.0
 14
908.9941404006022
 24
927.271234847376
 34
0.0
 50
90.0
100
AcDbRotatedDimension
1001
ACAD
1000
DSTYLE
1002
{
1070
    40
1040
1.0
1070
    75
1070
     1
1070
   279
1070
     1
1002
}
  0
LINE
  5
1E268
330
1E256
100
AcDbEntity
  8
想像線
 48
10.0
100
AcDbLine
 10
858.9941404006022
 20
797.271234847376
 30
0.0
 11
858.9941404006022
 21
2817.27123484738
 31
0.0
  0
LINE
  5
1E269
330
1E256
100
AcDbEntity
  8
部品1
 48
50.0
100
AcDbLine
 10
908.9941404006022
 20
927.271234847376
 30
0.0
 11
908.9941404006022
 21
2727.271234847376
 31
0.0
  0
DIMENSION
  5
1E26A
330
1E256
100
AcDbEntity
  8
寸法
 48
50.0
100
AcDbDimension
  2
*D14
 10
167.5590722488123
 20
797.271234847376
 30
0.0
 11
67.5590722488123
 21
1282.271234847376
 31
0.0
 12
-2587.005859599398
 22
-5696.728765152624
 32
0.0
  1
b
 71
     5
 42
-1.0
  3
INABA_S50G
100
AcDbAlignedDimension
 13
908.9941404006022
 23
927.271234847376
 33
0.0
 14
413.0518743867797
 24
797.271234847376
 34
0.0
 50
90.0
100
AcDbRotatedDimension
1001
ACAD
1000
DSTYLE
1002
{
1070
    40
1040
1.0
1002
}
  0
DIMENSION
  5
1E26B
330
1E256
100
AcDbEntity
  8
寸法
 48
50.0
100
AcDbDimension
  2
*D9
 10
413.0518743867797
 20
927.271234847376
 30
0.0
 11
413.0518743867797
 21
591.7402860047841
 31
0.0
 12
-2587.005859599398
 22
-5696.728765152624
 32
0.0
 70
   128
 71
     5
 42
-1.0
  3
INABA_S50G
100
AcDbAlignedDimension
 13
981.9941404006085
 23
1125.271234847378
 33
0.0
 14
908.9941404006022
 24
927.271234847376
 34
0.0
 50
90.0
100
AcDbRotatedDimension
1001
ACAD
1000
DSTYLE
1002
{
1070
    40
1040
1.0
1002
}
  0
LINE
  5
1E26C
330
1E256
100
AcDbEntity
  8
部品1
 48
50.0
100
AcDbLine
 10
1008.994140400602
 20
1427.27123484738
 30
0.0
 11
908.9941404006022
 21
1427.27123484738
 31
0.0
  0
LINE
  5
1E26D
330
1E256
100
AcDbEntity
  8
点線
 48
10.0
100
AcDbLine
 10
1208.994140400603
 20
1027.27123484738
 30
0.0
 11
1208.994140400603
 21
1227.271234847383
 31
0.0
  0
LINE
  5
1E26E
330
1E256
100
AcDbEntity
  8
センター
 48
2.0
100
AcDbLine
 10
981.9941404006085
 20
1125.271234847378
 30
0.0
 11
1081.994140400608
 21
1125.271234847378
 31
0.0
  0
LINE
  5
1E26F
330
1E256
100
AcDbEntity
  8
センター
 48
2.0
100
AcDbLine
 10
1031.994140400608
 20
1175.271234847378
 30
0.0
 11
1031.994140400608
 21
1075.271234847378
 31
0.0
  0
LINE
  5
1E270
330
1E256
100
AcDbEntity
  8
部品1
 48
50.0
100
AcDbLine
 10
1308.994140400602
 20
927.271234847376
 30
0.0
 11
1308.994140400602
 21
1027.271234847383
 31
0.0
  0
LINE
  5
1E271
330
1E256
100
AcDbEntity
  8
点線
 48
10.0
100
AcDbLine
 10
1208.994140400603
 20
1227.271234847383
 30
0.0
 11
1008.9941404006
 21
1227.271234847379
 31
0.0
  0
LINE
  5
1E272
330
1E256
100
AcDbEntity
  8
部品1
 48
50.0
100
AcDbLine
 10
1308.994140400602
 20
2627.271234847374
 30
0.0
 11
1308.994140400602
 21
2727.271234847382
 31
0.0
  0
DIMENSION
  5
1E273
330
1E256
100
AcDbEntity
  8
寸法
 48
50.0
100
AcDbDimension
  2
*D13
 10
413.0518743867797
 20
2604.271234847376
 30
0.0
 11
413.0518743867797
 21
3000.377836565175
 31
0.0
 12
-2587.005859599398
 22
-5276.728765152624
 32
0.0
 70
   128
 71
     5
 42
-1.0
  3
INABA_S50G
100
AcDbAlignedDimension
 13
908.9941404006022
 23
2727.271234847376
 33
0.0
 14
981.9941404006021
 24
2604.271234847376
 34
0.0
 50
90.0
100
AcDbRotatedDimension
1001
ACAD
1000
DSTYLE
1002
{
1070
    40
1040
1.0
1002
}
  0
DIMENSION
  5
1E274
330
1E256
100
AcDbEntity
  8
寸法
 48
50.0
100
AcDbDimension
  2
*D16
 10
167.5590722488123
 20
2727.271234847376
 30
0.0
 11
67.5590722488123
 21
2772.271234847374
 31
0.0
 12
-2587.005859599398
 22
-5276.728765152624
 32
0.0
  1
c
 71
     5
 42
-1.0
  3
INABA_S50G
100
AcDbAlignedDimension
 13
413.0518743867797
 23
2817.271234847373
 33
0.0
 14
908.9941404006022
 24
2727.271234847376
 34
0.0
 50
90.0
100
AcDbRotatedDimension
1001
ACAD
1000
DSTYLE
1002
{
1070
    40
1040
1.0
1002
}
  0
DIMENSION
  5
1E275
330
1E256
100
AcDbEntity
  8
寸法
 48
50.0
100
AcDbDimension
  2
*D11
 10
908.9941404006022
 20
3453.478159147693
 30
0.0
 11
628.6277673437908
 21
3453.478159147693
 31
0.0
 12
-2587.005859599398
 22
-5276.728765152624
 32
0.0
 70
   128
 71
     5
 42
-1.0
  3
INABA_S50G
100
AcDbAlignedDimension
 13
1031.994140400602
 23
2654.271234847376
 33
0.0
 14
908.9941404006022
 24
2727.271234847376
 34
0.0
100
AcDbRotatedDimension
1001
ACAD
1000
DSTYLE
1002
{
1070
    40
1040
1.0
1002
}
  0
LINE
  5
1E276
330
1E256
100
AcDbEntity
  8
部品1
 48
50.0
100
AcDbLine
 10
1008.994140400602
 20
1827.271234847379
 30
0.0
 11
908.9941404006022
 21
1827.271234847379
 31
0.0
  0
LINE
  5
1E277
330
1E256
100
AcDbEntity
  8
部品1
 48
50.0
100
AcDbLine
 10
1008.994140400602
 20
2227.271234847375
 30
0.0
 11
908.9941404006022
 21
2227.271234847374
 31
0.0
  0
LINE
  5
1E278
330
1E256
100
AcDbEntity
  8
点線
 48
10.0
100
AcDbLine
 10
1208.994140400601
 20
2427.271234847373
 30
0.0
 11
1008.994140400602
 21
2427.271234847375
 31
0.0
  0
LINE
  5
1E279
330
1E256
100
AcDbEntity
  8
センター
 48
2.0
100
AcDbLine
 10
1031.994140400602
 20
2654.271234847376
 30
0.0
 11
1031.994140400602
 21
2554.271234847376
 31
0.0
  0
LINE
  5
1E27A
330
1E256
100
AcDbEntity
  8
センター
 48
2.0
100
AcDbLine
 10
981.9941404006021
 20
2604.271234847376
 30
0.0
 11
1081.994140400602
 21
2604.271234847376
 31
0.0
  0
LINE
  5
1E27B
330
1E256
100
AcDbEntity
  8
点線
 48
10.0
100
AcDbLine
 10
1208.994140400601
 20
2427.271234847373
 30
0.0
 11
1208.994140400602
 21
2627.271234847373
 31
0.0
  0
DIMENSION
  5
1E27C
330
1E256
100
AcDbEntity
  8
寸法
 48
50.0
100
AcDbDimension
  2
*D10
 10
908.9941404006022
 20
3665.938854664532
 30
0.0
 11
669.0160925585151
 21
3665.938854664532
 31
0.0
 12
-2587.005859599398
 22
-5276.728765152624
 32
0.0
 70
   128
  1
a
 71
     5
 42
-1.0
  3
INABA_S50G
100
AcDbAlignedDimension
 13
851.734369061589
 23
3453.478159147689
 33
0.0
 14
908.9941404006022
 24
2727.271234847376
 34
0.0
100
AcDbRotatedDimension
1001
ACAD
1000
DSTYLE
1002
{
1070
    40
1040
1.0
1002
}
  0
LINE
  5
1E27D
330
1E256
100
AcDbEntity
  8
部品1
 48
50.0
100
AcDbLine
 10
1312.994140400602
 20
2727.271234847373
 30
0.0
 11
908.9941404006022
 21
2727.271234847376
 31
0.0
  0
LINE
  5
1E27E
330
1E256
100
AcDbEntity
  8
部品1
 48
50.0
100
AcDbLine
 10
2608.994140400602
 20
1027.271234847396
 30
0.0
 11
2608.994140400601
 21
2627.271234847373
 31
0.0
  0
LINE
  5
1E27F
330
1E256
100
AcDbEntity
  8
想像線
 48
10.0
100
AcDbLine
 10
2758.994140400603
 20
2817.27123484738
 30
0.0
 11
2758.994140400606
 21
797.271234847376
 31
0.0
  0
LINE
  5
1E280
330
1E256
100
AcDbEntity
  8
部品1
 48
50.0
100
AcDbLine
 10
2708.994140400602
 20
927.2712348473943
 30
0.0
 11
2708.994140400602
 21
2727.271234847376
 31
0.0
  0
DIMENSION
  5
1E281
330
1E256
100
AcDbEntity
  8
寸法
 48
50.0
100
AcDbDimension
  2
*D21
 10
2208.260957831161
 20
1827.271234847376
 30
0.0
 11
2208.260957831161
 21
1377.271234847381
 31
0.0
 12
-2587.005859599398
 22
-1276.728765152624
 32
0.0
 70
   128
 71
     5
 42
-1.0
  3
INABA_S50G
100
AcDbAlignedDimension
 13
1808.994140400602
 23
927.271234847385
 33
0.0
 14
1858.994140400602
 24
1827.271234847376
 34
0.0
 50
90.0
100
AcDbRotatedDimension
1001
ACAD
1000
DSTYLE
1002
{
1070
   288
1070
     1
1070
    40
1040
1.0
1002
}
  0
DIMENSION
  5
1E282
330
1E256
100
AcDbEntity
  8
寸法
 48
50.0
100
AcDbDimension
  2
*D25
 10
2708.994140400602
 20
1306.97155591226
 30
0.0
 11
2979.053195518713
 21
1306.97155591226
 31
0.0
 12
-2587.005859599398
 22
-5696.728765152624
 32
0.0
 70
   128
 71
     5
 42
-1.0
  3
INABA_S50G
100
AcDbAlignedDimension
 13
2608.994140400602
 23
1407.271234847383
 33
0.0
 14
2708.994140400602
 24
1407.271234847383
 34
0.0
100
AcDbRotatedDimension
1001
ACAD
1000
DSTYLE
1002
{
1070
    40
1040
1.0
1002
}
  0
TEXT
  5
1E283
330
1E256
100
AcDbEntity
  8
寸法
 48
50.0
100
AcDbText
 10
1431.428391756737
 20
210.9080740941899
 30
0.0
 40
150.0
  1
MBW-32
  7
STYLE2
100
AcDbText
  0
TEXT
  5
1E284
330
1E256
100
AcDbEntity
  8
寸法
 48
50.0
100
AcDbText
 10
1431.428391756737
 20
40.90807409418994
 30
0.0
 40
150.0
  1
MBW-32H
  7
STYLE2
100
AcDbText
  0
TEXT
  5
1E285
330
1E256
100
AcDbEntity
  8
寸法
 48
50.0
100
AcDbText
 10
1679.121083237383
 20
648.2218646227884
 30
0.0
 40
120.0
  1
扉面
  7
STYLE1
100
AcDbText
  0
LINE
  5
1E286
330
1E256
100
AcDbEntity
  8
部品1
 48
50.0
100
AcDbLine
 10
1908.994140400602
 20
1127.27123484739
 30
0.0
 11
1708.994140400602
 21
1127.271234847389
 31
0.0
  0
LINE
  5
1E287
330
1E256
100
AcDbEntity
  8
部品1
 48
50.0
100
AcDbLine
 10
1708.994140400602
 20
1127.271234847389
 30
0.0
 11
1708.994140400602
 21
1027.271234847389
 31
0.0
  0
LINE
  5
1E288
330
1E256
100
AcDbEntity
  8
部品1
 48
50.0
100
AcDbLine
 10
1708.994140400602
 20
927.2712348473797
 30
0.0
 11
1708.994140400602
 21
1027.271234847387
 31
0.0
  0
LINE
  5
1E289
330
1E256
100
AcDbEntity
  8
部品1
 48
50.0
100
AcDbLine
 10
1908.994140400602
 20
1127.271234847389
 30
0.0
 11
1908.994140400602
 21
1027.271234847389
 31
0.0
  0
LINE
  5
1E28A
330
1E256
100
AcDbEntity
  8
部品1
 48
50.0
100
AcDbLine
 10
2108.994140400602
 20
927.271234847376
 30
0.0
 11
2108.994140400602
 21
1027.271234847383
 31
0.0
  0
LINE
  5
1E28B
330
1E256
100
AcDbEntity
  8
センター
 48
2.0
100
AcDbLine
 10
2535.994140400609
 20
1125.271234847378
 30
0.0
 11
2635.994140400609
 21
1125.271234847378
 31
0.0
  0
LINE
  5
1E28C
330
1E256
100
AcDbEntity
  8
点線
 48
10.0
100
AcDbLine
 10
2608.9941404006
 20
1227.271234847396
 30
0.0
 11
2408.994140400601
 21
1227.271234847394
 31
0.0
  0
LINE
  5
1E28D
330
1E256
100
AcDbEntity
  8
点線
 48
10.0
100
AcDbLine
 10
2408.994140400603
 20
1027.271234847396
 30
0.0
 11
2408.994140400601
 21
1227.271234847394
 31
0.0
  0
LINE
  5
1E28E
330
1E256
100
AcDbEntity
  8
部品1
 48
50.0
100
AcDbLine
 10
2308.994140400602
 20
927.2712348473943
 30
0.0
 11
2308.994140400602
 21
1027.27123484739
 31
0.0
  0
LINE
  5
1E28F
330
1E256
100
AcDbEntity
  8
センター
 48
2.0
100
AcDbLine
 10
2585.994140400609
 20
1175.271234847378
 30
0.0
 11
2585.994140400609
 21
1075.271234847378
 31
0.0
  0
LINE
  5
1E290
330
1E256
100
AcDbEntity
  8
部品1
 48
50.0
100
AcDbLine
 10
2708.994140400603
 20
1427.271234847398
 30
0.0
 11
2608.994140400601
 21
1427.271234847396
 31
0.0
  0
DIMENSION
  5
1E291
330
1E256
100
AcDbEntity
  8
寸法
 48
50.0
100
AcDbDimension
  2
*D18
 10
2585.994140400603
 20
3453.478159147693
 30
0.0
 11
2982.100742118401
 21
3453.478159147693
 31
0.0
 12
-2587.005859599398
 22
-5276.728765152624
 32
0.0
 70
   128
 71
     5
 42
-1.0
  3
INABA_S50G
100
AcDbAlignedDimension
 13
2708.994140400602
 23
2727.271234847376
 33
0.0
 14
2585.994140400603
 24
2654.271234847376
 34
0.0
100
AcDbRotatedDimension
1001
ACAD
1000
DSTYLE
1002
{
1070
    40
1040
1.0
1002
}
  0
DIMENSION
  5
1E292
330
1E256
100
AcDbEntity
  8
寸法
 48
50.0
100
AcDbDimension
  2
*D17
 10
2751.734369061589
 20
3665.938854664532
 30
0.0
 11
3059.452645564663
 21
3665.938854664532
 31
0.0
 12
-2587.005859599398
 22
-5276.728765152624
 32
0.0
 70
   128
  1
a
 71
     5
 42
-1.0
  3
INABA_S50G
100
AcDbAlignedDimension
 13
2708.994140400602
 23
2727.271234847376
 33
0.0
 14
2751.734369061589
 24
3453.478159147695
 34
0.0
100
AcDbRotatedDimension
1001
ACAD
1000
DSTYLE
1002
{
1070
    40
1040
1.0
1002
}
  0
LINE
  5
1E293
330
1E256
100
AcDbEntity
  8
部品1
 48
50.0
100
AcDbLine
 10
2308.994140400602
 20
2627.271234847392
 30
0.0
 11
2308.994140400602
 21
2727.271234847389
 31
0.0
  0
LINE
  5
1E294
330
1E256
100
AcDbEntity
  8
部品1
 48
50.0
100
AcDbLine
 10
2108.994140400602
 20
2627.271234847374
 30
0.0
 11
2108.994140400602
 21
2727.271234847382
 31
0.0
  0
LINE
  5
1E295
330
1E256
100
AcDbEntity
  8
部品1
 48
50.0
100
AcDbLine
 10
1708.994140400602
 20
2627.271234847378
 30
0.0
 11
1708.994140400602
 21
2727.271234847385
 31
0.0
  0
DIMENSION
  5
1E296
330
1E256
100
AcDbEntity
  8
寸法
 48
50.0
100
AcDbDimension
  2
*D19
 10
2366.841588969379
 20
2627.271234847374
 30
0.0
 11
2366.841588969379
 21
2997.330289965487
 31
0.0
 12
-2587.005859599398
 22
-5276.728765152624
 32
0.0
 70
   128
 71
     5
 42
-1.0
  3
INABA_S50G
100
AcDbAlignedDimension
 13
2153.912786690133
 23
2727.271234847376
 33
0.0
 14
2153.912786690133
 24
2627.271234847374
 34
0.0
 50
90.0
100
AcDbRotatedDimension
1001
ACAD
1000
DSTYLE
1002
{
1070
    40
1040
1.0
1002
}
  0
DIMENSION
  5
1E297
330
1E256
100
AcDbEntity
  8
寸法
 48
50.0
100
AcDbDimension
  2
*D22
 10
2208.260957831161
 20
2727.271234847376
 30
0.0
 11
2108.260957831161
 21
2277.271234847376
 31
0.0
 12
-2587.005859599398
 22
-1276.728765152624
 32
0.0
 71
     5
 42
-1.0
  3
INABA_S50G
100
AcDbAlignedDimension
 13
1858.994140400602
 23
1827.271234847376
 33
0.0
 14
1808.994140400602
 24
2727.271234847376
 34
0.0
 50
90.0
100
AcDbRotatedDimension
1001
ACAD
1000
DSTYLE
1002
{
1070
    40
1040
1.0
1070
    75
1070
     1
1070
   279
1070
     1
1070
   288
1070
     1
1002
}
  0
DIMENSION
  5
1E298
330
1E256
100
AcDbEntity
  8
寸法
 48
50.0
100
AcDbDimension
  2
*D24
 10
1808.994140400602
 20
3254.181000495704
 30
0.0
 11
2279.912662406881
 21
3254.181000495704
 31
0.0
 12
-2587.005859599398
 22
-1276.728765152624
 32
0.0
 70
   128
 71
     5
 42
-1.0
  3
INABA_S50G
100
AcDbAlignedDimension
 13
2708.994140400602
 23
2727.271234847376
 33
0.0
 14
1808.994140400602
 24
2027.271234847376
 34
0.0
100
AcDbRotatedDimension
1001
ACAD
1000
DSTYLE
1002
{
1070
   288
1070
     1
1070
    40
1040
1.0
1002
}
  0
LINE
  5
1E299
330
1E256
100
AcDbEntity
  8
部品1
 48
50.0
100
AcDbLine
 10
1908.994140400602
 20
2027.271234847376
 30
0.0
 11
1708.994140400602
 21
2027.271234847376
 31
0.0
  0
LINE
  5
1E29A
330
1E256
100
AcDbEntity
  8
部品1
 48
50.0
100
AcDbLine
 10
1908.994140400602
 20
1627.271234847374
 30
0.0
 11
1708.994140400602
 21
1627.271234847374
 31
0.0
  0
LINE
  5
1E29B
330
1E256
100
AcDbEntity
  8
センター
 48
2.0
100
AcDbLine
 10
1758.994140400602
 20
1827.271234847376
 30
0.0
 11
1858.994140400602
 21
1827.271234847376
 31
0.0
  0
LINE
  5
1E29C
330
1E256
100
AcDbEntity
  8
部品1
 48
50.0
100
AcDbLine
 10
1708.994140400602
 20
1627.271234847376
 30
0.0
 11
1708.994140400602
 21
2027.271234847376
 31
0.0
  0
LINE
  5
1E29D
330
1E256
100
AcDbEntity
  8
部品1
 48
50.0
100
AcDbLine
 10
1908.994140400602
 20
1627.271234847374
 30
0.0
 11
1908.994140400602
 21
2027.271234847376
 31
0.0
  0
LINE
  5
1E29E
330
1E256
100
AcDbEntity
  8
センター
 48
2.0
100
AcDbLine
 10
1808.994140400602
 20
1877.271234847376
 30
0.0
 11
1808.994140400602
 21
1777.271234847376
 31
0.0
  0
LINE
  5
1E29F
330
1E256
100
AcDbEntity
  8
部品1
 48
50.0
100
AcDbLine
 10
2708.994140400603
 20
1827.271234847398
 30
0.0
 11
2608.994140400601
 21
1827.271234847396
 31
0.0
  0
LINE
  5
1E2A0
330
1E256
100
AcDbEntity
  8
点線
 48
10.0
100
AcDbLine
 10
2608.994140400601
 20
2427.271234847375
 30
0.0
 11
2408.994140400603
 21
2427.271234847375
 31
0.0
  0
LINE
  5
1E2A1
330
1E256
100
AcDbEntity
  8
センター
 48
2.0
100
AcDbLine
 10
2535.994140400602
 20
2604.271234847376
 30
0.0
 11
2635.994140400602
 21
2604.271234847376
 31
0.0
  0
LINE
  5
1E2A2
330
1E256
100
AcDbEntity
  8
点線
 48
10.0
100
AcDbLine
 10
2408.994140400603
 20
2427.271234847375
 30
0.0
 11
2408.994140400601
 21
2627.271234847373
 31
0.0
  0
LINE
  5
1E2A3
330
1E256
100
AcDbEntity
  8
部品1
 48
50.0
100
AcDbLine
 10
2708.994140400603
 20
2227.271234847374
 30
0.0
 11
2608.994140400602
 21
2227.271234847374
 31
0.0
  0
LINE
  5
1E2A4
330
1E256
100
AcDbEntity
  8
センター
 48
2.0
100
AcDbLine
 10
2585.994140400603
 20
2654.271234847376
 30
0.0
 11
2585.994140400603
 21
2554.271234847376
 31
0.0
  0
ENDBLK
  5
1E2A6
330
1E256
100
AcDbEntity
  8
0
 48
50.0
100
AcDbBlockEnd
  0
BLOCK
  5
1E908
330
1E8FE
100
AcDbEntity
  8
0
 48
50.0
100
AcDbBlockBegin
  2
*D27
 70
     1
 10
0.0
 20
0.0
 30
0.0
  3
*D27
  1

  0
LINE
  5
1FF37
330
1E8FE
100
AcDbEntity
  8
寸法
 62
     0
 48
50.0
370
    -2
100
AcDbLine
 10
8638.600000000002
 20
7732.000000000003
 30
0.0
 11
8638.600000000002
 21
8280.624237135963
 31
0.0
  0
LINE
  5
1FF38
330
1E8FE
100
AcDbEntity
  8
寸法
 62
     0
 48
50.0
370
    -2
100
AcDbLine
 10
9539.599999999998
 20
7732.0
 30
0.0
 11
9539.599999999998
 21
8280.624237135963
 31
0.0
  0
LINE
  5
1FF39
330
1E8FE
100
AcDbEntity
  8
寸法
 62
     0
 48
50.0
370
    -2
100
AcDbLine
 10
8638.600000000002
 20
8220.624237135963
 30
0.0
 11
9539.599999999998
 21
8220.624237135963
 31
0.0
  0
INSERT
  5
1FF3A
330
1E8FE
100
AcDbEntity
  8
寸法
 62
     0
 48
50.0
370
    -2
100
AcDbBlockReference
  2
_DOTSMALL
 10
8638.600000000002
 20
8220.624237135963
 30
0.0
 41
100.0
 42
100.0
 43
100.0
 50
180.0
  0
INSERT
  5
1FF3B
330
1E8FE
100
AcDbEntity
  8
寸法
 62
     0
 48
50.0
370
    -2
100
AcDbBlockReference
  2
_DOTSMALL
 10
9539.599999999998
 20
8220.624237135963
 30
0.0
 41
100.0
 42
100.0
 43
100.0
  0
MTEXT
  5
1FF3C
330
1E8FE
100
AcDbEntity
  8
寸法
 62
     7
 48
50.0
100
AcDbMText
 10
9089.1
 20
8320.624237135962
 30
0.0
 40
120.0
 41
0.0
 71
     5
 72
     1
  1
\A1;901
  7
STYLE1
 73
     1
 44
1.0
1001
ACAD
1000
MTEXTBEGIN
1070
    73
1070
     1
1070
    44
1040
1.0
1070
    74
1070
     0
1000
MTEXTEND
  0
POINT
  5
1FF3D
330
1E8FE
100
AcDbEntity
  8
DEFPOINTS
 62
     0
 48
50.0
100
AcDbPoint
 10
8638.600000000002
 20
7712.000000000003
 30
0.0
  0
POINT
  5
1FF3E
330
1E8FE
100
AcDbEntity
  8
DEFPOINTS
 62
     0
 48
50.0
100
AcDbPoint
 10
9539.599999999998
 20
7712.0
 30
0.0
  0
POINT
  5
1FF3F
330
1E8FE
100
AcDbEntity
  8
DEFPOINTS
 62
     0
 48
50.0
100
AcDbPoint
 10
9539.599999999998
 20
8220.624237135963
 30
0.0
  0
ENDBLK
  5
1E909
330
1E8FE
100
AcDbEntity
  8
0
 48
50.0
100
AcDbBlockEnd
  0
BLOCK
  5
1E914
330
1E90A
100
AcDbEntity
  8
0
 48
50.0
100
AcDbBlockBegin
  2
*D28
 70
     1
 10
0.0
 20
0.0
 30
0.0
  3
*D28
  1

  0
LINE
  5
1FF25
330
1E90A
100
AcDbEntity
  8
寸法
 62
     0
 48
50.0
370
    -2
100
AcDbLine
 10
7808.600000000002
 20
7732.000000000005
 30
0.0
 11
7808.600000000002
 21
8280.624237135963
 31
0.0
  0
LINE
  5
1FF26
330
1E90A
100
AcDbEntity
  8
寸法
 62
     0
 48
50.0
370
    -2
100
AcDbLine
 10
6907.599999999999
 20
7732.0
 30
0.0
 11
6907.599999999999
 21
8280.624237135963
 31
0.0
  0
LINE
  5
1FF27
330
1E90A
100
AcDbEntity
  8
寸法
 62
     0
 48
50.0
370
    -2
100
AcDbLine
 10
7808.600000000002
 20
8220.624237135963
 30
0.0
 11
6907.599999999999
 21
8220.624237135963
 31
0.0
  0
INSERT
  5
1FF28
330
1E90A
100
AcDbEntity
  8
寸法
 62
     0
 48
50.0
370
    -2
100
AcDbBlockReference
  2
_DOTSMALL
 10
7808.600000000002
 20
8220.624237135963
 30
0.0
 41
100.0
 42
100.0
 43
100.0
  0
INSERT
  5
1FF29
330
1E90A
100
AcDbEntity
  8
寸法
 62
     0
 48
50.0
370
    -2
100
AcDbBlockReference
  2
_DOTSMALL
 10
6907.599999999999
 20
8220.624237135963
 30
0.0
 41
100.0
 42
100.0
 43
100.0
 50
180.0
  0
MTEXT
  5
1FF2A
330
1E90A
100
AcDbEntity
  8
寸法
 62
     7
 48
50.0
100
AcDbMText
 10
7358.1
 20
8320.624237135962
 30
0.0
 40
120.0
 41
0.0
 71
     5
 72
     1
  1
\A1;901
  7
STYLE1
 73
     1
 44
1.0
1001
ACAD
1000
MTEXTBEGIN
1070
    73
1070
     1
1070
    44
1040
1.0
1070
    74
1070
     0
1000
MTEXTEND
  0
POINT
  5
1FF2B
330
1E90A
100
AcDbEntity
  8
DEFPOINTS
 62
     0
 48
50.0
100
AcDbPoint
 10
7808.600000000002
 20
7712.000000000006
 30
0.0
  0
POINT
  5
1FF2C
330
1E90A
100
AcDbEntity
  8
DEFPOINTS
 62
     0
 48
50.0
100
AcDbPoint
 10
6907.599999999999
 20
7712.0
 30
0.0
  0
POINT
  5
1FF2D
330
1E90A
100
AcDbEntity
  8
DEFPOINTS
 62
     0
 48
50.0
100
AcDbPoint
 10
6907.599999999999
 20
8220.624237135963
 30
0.0
  0
ENDBLK
  5
1E915
330
1E90A
100
AcDbEntity
  8
0
 48
50.0
100
AcDbBlockEnd
  0
BLOCK
  5
1E920
330
1E916
100
AcDbEntity
  8
0
 48
50.0
100
AcDbBlockBegin
  2
*D29
 70
     1
 10
0.0
 20
0.0
 30
0.0
  3
*D29
  1

  0
LINE
  5
1FF2E
330
1E916
100
AcDbEntity
  8
寸法
 62
     0
 48
50.0
370
    -2
100
AcDbLine
 10
7808.600000000002
 20
7732.000000000005
 30
0.0
 11
7808.600000000002
 21
8280.624237135963
 31
0.0
  0
LINE
  5
1FF2F
330
1E916
100
AcDbEntity
  8
寸法
 62
     0
 48
50.0
370
    -2
100
AcDbLine
 10
8638.600000000002
 20
7732.000000000003
 30
0.0
 11
8638.600000000002
 21
8280.624237135963
 31
0.0
  0
LINE
  5
1FF30
330
1E916
100
AcDbEntity
  8
寸法
 62
     0
 48
50.0
370
    -2
100
AcDbLine
 10
7808.600000000002
 20
8220.624237135963
 30
0.0
 11
8638.600000000002
 21
8220.624237135963
 31
0.0
  0
INSERT
  5
1FF31
330
1E916
100
AcDbEntity
  8
寸法
 62
     0
 48
50.0
370
    -2
100
AcDbBlockReference
  2
_DOTSMALL
 10
7808.600000000002
 20
8220.624237135963
 30
0.0
 41
100.0
 42
100.0
 43
100.0
 50
180.0
  0
INSERT
  5
1FF32
330
1E916
100
AcDbEntity
  8
寸法
 62
     0
 48
50.0
370
    -2
100
AcDbBlockReference
  2
_DOTSMALL
 10
8638.600000000002
 20
8220.624237135963
 30
0.0
 41
100.0
 42
100.0
 43
100.0
  0
MTEXT
  5
1FF33
330
1E916
100
AcDbEntity
  8
寸法
 62
     7
 48
50.0
100
AcDbMText
 10
8223.600000000002
 20
8320.624237135962
 30
0.0
 40
120.0
 41
0.0
 71
     5
 72
     1
  1
\A1;830
  7
STYLE1
 73
     1
 44
1.0
1001
ACAD
1000
MTEXTBEGIN
1070
    73
1070
     1
1070
    44
1040
1.0
1070
    74
1070
     0
1000
MTEXTEND
  0
POINT
  5
1FF34
330
1E916
100
AcDbEntity
  8
DEFPOINTS
 62
     0
 48
50.0
100
AcDbPoint
 10
7808.600000000002
 20
7712.000000000006
 30
0.0
  0
POINT
  5
1FF35
330
1E916
100
AcDbEntity
  8
DEFPOINTS
 62
     0
 48
50.0
100
AcDbPoint
 10
8638.600000000002
 20
7712.000000000003
 30
0.0
  0
POINT
  5
1FF36
330
1E916
100
AcDbEntity
  8
DEFPOINTS
 62
     0
 48
50.0
100
AcDbPoint
 10
8638.600000000002
 20
8220.624237135963
 30
0.0
  0
ENDBLK
  5
1E921
330
1E916
100
AcDbEntity
  8
0
 48
50.0
100
AcDbBlockEnd
  0
BLOCK
  5
1E92E
330
1E922
100
AcDbEntity
  8
0
 48
50.0
100
AcDbBlockBegin
  2
*D30
 70
     1
 10
0.0
 20
0.0
 30
0.0
  3
*D30
  1

  0
LINE
  5
1FF1A
330
1E922
100
AcDbEntity
  8
寸法
 62
     0
 48
50.0
370
    -2
100
AcDbLine
 10
9539.599999999998
 20
7732.0
 30
0.0
 11
9539.599999999998
 21
8538.551625802021
 31
0.0
  0
LINE
  5
1FF1B
330
1E922
100
AcDbEntity
  8
寸法
 62
     0
 48
50.0
370
    -2
100
AcDbLine
 10
9589.599999999999
 20
7812.000000000003
 30
0.0
 11
9589.599999999999
 21
8538.551625802021
 31
0.0
  0
LINE
  5
1FF1C
330
1E922
100
AcDbEntity
  8
寸法
 62
     0
 48
50.0
370
    -2
100
AcDbLine
 10
9539.599999999998
 20
8478.551625802023
 30
0.0
 11
9439.599999999998
 21
8478.551625802023
 31
0.0
  0
LINE
  5
1FF1D
330
1E922
100
AcDbEntity
  8
寸法
 62
     0
 48
50.0
370
    -2
100
AcDbLine
 10
9589.599999999999
 20
8478.551625802023
 30
0.0
 11
9689.599999999998
 21
8478.551625802023
 31
0.0
  0
LINE
  5
1FF1E
330
1E922
100
AcDbEntity
  8
寸法
 62
     0
 48
50.0
370
    -2
100
AcDbLine
 10
9539.599999999998
 20
8478.551625802023
 30
0.0
 11
9589.599999999999
 21
8478.551625802023
 31
0.0
  0
INSERT
  5
1FF1F
330
1E922
100
AcDbEntity
  8
寸法
 62
     0
 48
50.0
370
    -2
100
AcDbBlockReference
  2
_DOTSMALL
 10
9539.599999999998
 20
8478.551625802023
 30
0.0
 41
100.0
 42
100.0
 43
100.0
  0
INSERT
  5
1FF20
330
1E922
100
AcDbEntity
  8
寸法
 62
     0
 48
50.0
370
    -2
100
AcDbBlockReference
  2
_DOTSMALL
 10
9589.599999999999
 20
8478.551625802023
 30
0.0
 41
100.0
 42
100.0
 43
100.0
 50
180.0
  0
MTEXT
  5
1FF21
330
1E922
100
AcDbEntity
  8
寸法
 62
     7
 48
50.0
100
AcDbMText
 10
9564.599999999998
 20
8578.551625802022
 30
0.0
 40
120.0
 41
0.0
 71
     5
 72
     1
  1
\A1;a
  7
STYLE1
 73
     1
 44
1.0
1001
ACAD
1000
MTEXTBEGIN
1070
    73
1070
     1
1070
    44
1040
1.0
1070
    74
1070
     0
1000
MTEXTEND
  0
POINT
  5
1FF22
330
1E922
100
AcDbEntity
  8
DEFPOINTS
 62
     0
 48
50.0
100
AcDbPoint
 10
9539.599999999998
 20
7712.0
 30
0.0
  0
POINT
  5
1FF23
330
1E922
100
AcDbEntity
  8
DEFPOINTS
 62
     0
 48
50.0
100
AcDbPoint
 10
9589.599999999999
 20
7792.000000000005
 30
0.0
  0
POINT
  5
1FF24
330
1E922
100
AcDbEntity
  8
DEFPOINTS
 62
     0
 48
50.0
100
AcDbPoint
 10
9589.599999999999
 20
8478.551625802023
 30
0.0
  0
ENDBLK
  5
1E92F
330
1E922
100
AcDbEntity
  8
0
 48
50.0
100
AcDbBlockEnd
  0
BLOCK
  5
1E93C
330
1E930
100
AcDbEntity
  8
0
 48
50.0
100
AcDbBlockBegin
  2
*D31
 70
     1
 10
0.0
 20
0.0
 30
0.0
  3
*D31
  1

  0
LINE
  5
1FE55
330
1E930
100
AcDbEntity
  8
寸法
 62
     0
 48
50.0
370
    -2
100
AcDbLine
 10
6857.599999999999
 20
7812.0
 30
0.0
 11
6857.599999999999
 21
8538.551625802021
 31
0.0
  0
LINE
  5
1FE56
330
1E930
100
AcDbEntity
  8
寸法
 62
     0
 48
50.0
370
    -2
100
AcDbLine
 10
6907.599999999999
 20
7732.0
 30
0.0
 11
6907.599999999999
 21
8538.551625802021
 31
0.0
  0
LINE
  5
1FE57
330
1E930
100
AcDbEntity
  8
寸法
 62
     0
 48
50.0
370
    -2
100
AcDbLine
 10
6857.599999999999
 20
8478.551625802023
 30
0.0
 11
6757.6
 21
8478.551625802023
 31
0.0
  0
LINE
  5
1FE58
330
1E930
100
AcDbEntity
  8
寸法
 62
     0
 48
50.0
370
    -2
100
AcDbLine
 10
6907.599999999999
 20
8478.551625802023
 30
0.0
 11
7007.6
 21
8478.551625802023
 31
0.0
  0
LINE
  5
1FE59
330
1E930
100
AcDbEntity
  8
寸法
 62
     0
 48
50.0
370
    -2
100
AcDbLine
 10
6857.599999999999
 20
8478.551625802023
 30
0.0
 11
6907.599999999999
 21
8478.551625802023
 31
0.0
  0
INSERT
  5
1FE5A
330
1E930
100
AcDbEntity
  8
寸法
 62
     0
 48
50.0
370
    -2
100
AcDbBlockReference
  2
_DOTSMALL
 10
6857.599999999999
 20
8478.551625802023
 30
0.0
 41
100.0
 42
100.0
 43
100.0
  0
INSERT
  5
1FE5B
330
1E930
100
AcDbEntity
  8
寸法
 62
     0
 48
50.0
370
    -2
100
AcDbBlockReference
  2
_DOTSMALL
 10
6907.599999999999
 20
8478.551625802023
 30
0.0
 41
100.0
 42
100.0
 43
100.0
 50
180.0
  0
MTEXT
  5
1FE5C
330
1E930
100
AcDbEntity
  8
寸法
 62
     7
 48
50.0
100
AcDbMText
 10
6882.6
 20
8578.551625802022
 30
0.0
 40
120.0
 41
0.0
 71
     5
 72
     1
  1
\A1;a
  7
STYLE1
 73
     1
 44
1.0
1001
ACAD
1000
MTEXTBEGIN
1070
    73
1070
     1
1070
    44
1040
1.0
1070
    74
1070
     0
1000
MTEXTEND
  0
POINT
  5
1FE5D
330
1E930
100
AcDbEntity
  8
DEFPOINTS
 62
     0
 48
50.0
100
AcDbPoint
 10
6857.599999999999
 20
7792.0
 30
0.0
  0
POINT
  5
1FE5E
330
1E930
100
AcDbEntity
  8
DEFPOINTS
 62
     0
 48
50.0
100
AcDbPoint
 10
6907.599999999999
 20
7712.0
 30
0.0
  0
POINT
  5
1FE5F
330
1E930
100
AcDbEntity
  8
DEFPOINTS
 62
     0
 48
50.0
100
AcDbPoint
 10
6907.599999999999
 20
8478.551625802023
 30
0.0
  0
ENDBLK
  5
1E93D
330
1E930
100
AcDbEntity
  8
0
 48
50.0
100
AcDbBlockEnd
  0
BLOCK
  5
1E948
330
1E93E
100
AcDbEntity
  8
0
 48
50.0
100
AcDbBlockBegin
  2
*D32
 70
     1
 10
0.0
 20
0.0
 30
0.0
  3
*D32
  1

  0
LINE
  5
1FF5B
330
1E93E
100
AcDbEntity
  8
寸法
 62
     0
 48
50.0
370
    -2
100
AcDbLine
 10
6907.599999999999
 20
7732.0
 30
0.0
 11
6907.599999999999
 21
8538.551625802021
 31
0.0
  0
LINE
  5
1FF5C
330
1E93E
100
AcDbEntity
  8
寸法
 62
     0
 48
50.0
370
    -2
100
AcDbLine
 10
9539.599999999998
 20
7732.0
 30
0.0
 11
9539.599999999998
 21
8538.551625802021
 31
0.0
  0
LINE
  5
1FF5D
330
1E93E
100
AcDbEntity
  8
寸法
 62
     0
 48
50.0
370
    -2
100
AcDbLine
 10
6907.599999999999
 20
8478.551625802023
 30
0.0
 11
9539.599999999998
 21
8478.551625802023
 31
0.0
  0
INSERT
  5
1FF5E
330
1E93E
100
AcDbEntity
  8
寸法
 62
     0
 48
50.0
370
    -2
100
AcDbBlockReference
  2
_DOTSMALL
 10
6907.599999999999
 20
8478.551625802023
 30
0.0
 41
100.0
 42
100.0
 43
100.0
 50
180.0
  0
INSERT
  5
1FF5F
330
1E93E
100
AcDbEntity
  8
寸法
 62
     0
 48
50.0
370
    -2
100
AcDbBlockReference
  2
_DOTSMALL
 10
9539.599999999998
 20
8478.551625802023
 30
0.0
 41
100.0
 42
100.0
 43
100.0
  0
MTEXT
  5
1FF60
330
1E93E
100
AcDbEntity
  8
寸法
 62
     7
 48
50.0
100
AcDbMText
 10
8223.599999999999
 20
8578.563436825644
 30
0.0
 40
120.0
 41
0.0
 71
     5
 72
     1
  1
\A1;2632
  7
STYLE1
 73
     1
 44
1.0
1001
ACAD
1000
MTEXTBEGIN
1070
    73
1070
     1
1070
    44
1040
1.0
1070
    74
1070
     0
1000
MTEXTEND
  0
POINT
  5
1FF61
330
1E93E
100
AcDbEntity
  8
DEFPOINTS
 62
     0
 48
50.0
100
AcDbPoint
 10
6907.599999999999
 20
7712.0
 30
0.0
  0
POINT
  5
1FF62
330
1E93E
100
AcDbEntity
  8
DEFPOINTS
 62
     0
 48
50.0
100
AcDbPoint
 10
9539.599999999998
 20
7712.0
 30
0.0
  0
POINT
  5
1FF63
330
1E93E
100
AcDbEntity
  8
DEFPOINTS
 62
     0
 48
50.0
100
AcDbPoint
 10
9539.599999999998
 20
8478.551625802023
 30
0.0
  0
ENDBLK
  5
1E949
330
1E93E
100
AcDbEntity
  8
0
 48
50.0
100
AcDbBlockEnd
  0
BLOCK
  5
1E9B5
330
1E9AB
100
AcDbEntity
  8
0
 48
50.0
100
AcDbBlockBegin
  2
*D33
 70
     1
 10
0.0
 20
0.0
 30
0.0
  3
*D33
  1

  0
LINE
  5
1FF52
330
1E9AB
100
AcDbEntity
  8
寸法
 62
     0
 48
50.0
370
    -2
100
AcDbLine
 10
6907.599999999999
 20
7732.0
 30
0.0
 11
6907.599999999999
 21
8538.551625802021
 31
0.0
  0
LINE
  5
1FF53
330
1E9AB
100
AcDbEntity
  8
寸法
 62
     0
 48
50.0
370
    -2
100
AcDbLine
 10
9539.599999999998
 20
7732.0
 30
0.0
 11
9539.599999999998
 21
8538.551625802021
 31
0.0
  0
LINE
  5
1FF54
330
1E9AB
100
AcDbEntity
  8
寸法
 62
     0
 48
50.0
370
    -2
100
AcDbLine
 10
6907.599999999999
 20
8478.551625802023
 30
0.0
 11
9539.599999999998
 21
8478.551625802023
 31
0.0
  0
INSERT
  5
1FF55
330
1E9AB
100
AcDbEntity
  8
寸法
 62
     0
 48
50.0
370
    -2
100
AcDbBlockReference
  2
_DOTSMALL
 10
6907.599999999999
 20
8478.551625802023
 30
0.0
 41
100.0
 42
100.0
 43
100.0
 50
180.0
  0
INSERT
  5
1FF56
330
1E9AB
100
AcDbEntity
  8
寸法
 62
     0
 48
50.0
370
    -2
100
AcDbBlockReference
  2
_DOTSMALL
 10
9539.599999999998
 20
8478.551625802023
 30
0.0
 41
100.0
 42
100.0
 43
100.0
  0
MTEXT
  5
1FF57
330
1E9AB
100
AcDbEntity
  8
寸法
 62
     7
 48
50.0
100
AcDbMText
 10
8223.599999999999
 20
8578.563436825644
 30
0.0
 40
120.0
 41
0.0
 71
     5
 72
     1
  1
\A1;2632
  7
STYLE1
 73
     1
 44
1.0
1001
ACAD
1000
MTEXTBEGIN
1070
    73
1070
     1
1070
    44
1040
1.0
1070
    74
1070
     0
1000
MTEXTEND
  0
POINT
  5
1FF58
330
1E9AB
100
AcDbEntity
  8
DEFPOINTS
 62
     0
 48
50.0
100
AcDbPoint
 10
6907.599999999999
 20
7712.0
 30
0.0
  0
POINT
  5
1FF59
330
1E9AB
100
AcDbEntity
  8
DEFPOINTS
 62
     0
 48
50.0
100
AcDbPoint
 10
9539.599999999998
 20
7712.0
 30
0.0
  0
POINT
  5
1FF5A
330
1E9AB
100
AcDbEntity
  8
DEFPOINTS
 62
     0
 48
50.0
100
AcDbPoint
 10
9539.599999999998
 20
8478.551625802023
 30
0.0
  0
ENDBLK
  5
1E9B6
330
1E9AB
100
AcDbEntity
  8
0
 48
50.0
100
AcDbBlockEnd
  0
BLOCK
  5
1F6F9
330
1F6EF
100
AcDbEntity
  8
0
 48
50.0
100
AcDbBlockBegin
  2
*D34
 70
     1
 10
0.0
 20
0.0
 30
0.0
  3
*D34
  1

  0
LINE
  5
1FF08
330
1F6EF
100
AcDbEntity
  8
寸法
 62
     0
 48
50.0
370
    -2
100
AcDbLine
 10
9639.600000000001
 20
5379.999999999992
 30
0.0
 11
9639.600000000001
 21
4866.168926156461
 31
0.0
  0
LINE
  5
1FF09
330
1F6EF
100
AcDbEntity
  8
寸法
 62
     0
 48
50.0
370
    -2
100
AcDbLine
 10
9439.6
 20
5379.999999999992
 30
0.0
 11
9439.6
 21
4866.168926156461
 31
0.0
  0
LINE
  5
1FF0A
330
1F6EF
100
AcDbEntity
  8
寸法
 62
     0
 48
50.0
370
    -2
100
AcDbLine
 10
9639.600000000001
 20
4926.16892615646
 30
0.0
 11
9439.6
 21
4926.16892615646
 31
0.0
  0
INSERT
  5
1FF0B
330
1F6EF
100
AcDbEntity
  8
寸法
 62
     0
 48
50.0
370
    -2
100
AcDbBlockReference
  2
_DOTSMALL
 10
9639.600000000001
 20
4926.16892615646
 30
0.0
 41
100.0
 42
100.0
 43
100.0
  0
INSERT
  5
1FF0C
330
1F6EF
100
AcDbEntity
  8
寸法
 62
     0
 48
50.0
370
    -2
100
AcDbBlockReference
  2
_DOTSMALL
 10
9439.6
 20
4926.16892615646
 30
0.0
 41
100.0
 42
100.0
 43
100.0
 50
180.0
  0
MTEXT
  5
1FF0D
330
1F6EF
100
AcDbEntity
  8
寸法
 62
     7
 48
50.0
100
AcDbMText
 10
9539.6
 20
5026.180737180083
 30
0.0
 40
120.0
 41
0.0
 71
     5
 72
     1
  1
\A1;200
  7
STYLE1
 73
     1
 44
1.0
1001
ACAD
1000
MTEXTBEGIN
1070
    73
1070
     1
1070
    44
1040
1.0
1070
    74
1070
     0
1000
MTEXTEND
  0
POINT
  5
1FF0E
330
1F6EF
100
AcDbEntity
  8
DEFPOINTS
 62
     0
 48
50.0
100
AcDbPoint
 10
9639.600000000001
 20
5399.999999999993
 30
0.0
  0
POINT
  5
1FF0F
330
1F6EF
100
AcDbEntity
  8
DEFPOINTS
 62
     0
 48
50.0
100
AcDbPoint
 10
9439.6
 20
5399.999999999993
 30
0.0
  0
POINT
  5
1FF10
330
1F6EF
100
AcDbEntity
  8
DEFPOINTS
 62
     0
 48
50.0
100
AcDbPoint
 10
9439.6
 20
4926.16892615646
 30
0.0
  0
ENDBLK
  5
1F6FA
330
1F6EF
100
AcDbEntity
  8
0
 48
50.0
100
AcDbBlockEnd
  0
BLOCK
  5
1F705
330
1F6FB
100
AcDbEntity
  8
0
 48
50.0
100
AcDbBlockBegin
  2
*D35
 70
     1
 10
0.0
 20
0.0
 30
0.0
  3
*D35
  1

  0
LINE
  5
1FF11
330
1F6FB
100
AcDbEntity
  8
寸法
 62
     0
 48
50.0
370
    -2
100
AcDbLine
 10
9659.599999999999
 20
5599.999999999993
 30
0.0
 11
10217.84087348511
 21
5599.999999999993
 31
0.0
  0
LINE
  5
1FF12
330
1F6FB
100
AcDbEntity
  8
寸法
 62
     0
 48
50.0
370
    -2
100
AcDbLine
 10
9659.600000000001
 20
5399.999999999993
 30
0.0
 11
10217.84087348511
 21
5399.999999999993
 31
0.0
  0
LINE
  5
1FF13
330
1F6FB
100
AcDbEntity
  8
寸法
 62
     0
 48
50.0
370
    -2
100
AcDbLine
 10
10157.84087348511
 20
5599.999999999993
 30
0.0
 11
10157.84087348511
 21
5399.999999999993
 31
0.0
  0
INSERT
  5
1FF14
330
1F6FB
100
AcDbEntity
  8
寸法
 62
     0
 48
50.0
370
    -2
100
AcDbBlockReference
  2
_DOTSMALL
 10
10157.84087348511
 20
5599.999999999993
 30
0.0
 41
100.0
 42
100.0
 43
100.0
 50
90.0
  0
INSERT
  5
1FF15
330
1F6FB
100
AcDbEntity
  8
寸法
 62
     0
 48
50.0
370
    -2
100
AcDbBlockReference
  2
_DOTSMALL
 10
10157.84087348511
 20
5399.999999999993
 30
0.0
 41
100.0
 42
100.0
 43
100.0
 50
270.0
  0
MTEXT
  5
1FF16
330
1F6FB
100
AcDbEntity
  8
寸法
 62
     7
 48
50.0
100
AcDbMText
 10
10057.82906246149
 20
5499.999999999993
 30
0.0
 40
120.0
 41
0.0
 71
     5
 72
     1
  1
\A1;200
  7
STYLE1
 11
0.0000000000000001
 21
1.0
 31
0.0
 73
     1
 44
1.0
1001
ACAD
1000
MTEXTBEGIN
1070
    73
1070
     1
1070
    44
1040
1.0
1070
    74
1070
     0
1000
MTEXTEND
  0
POINT
  5
1FF17
330
1F6FB
100
AcDbEntity
  8
DEFPOINTS
 62
     0
 48
50.0
100
AcDbPoint
 10
9639.599999999999
 20
5599.999999999993
 30
0.0
  0
POINT
  5
1FF18
330
1F6FB
100
AcDbEntity
  8
DEFPOINTS
 62
     0
 48
50.0
100
AcDbPoint
 10
9639.600000000001
 20
5399.999999999993
 30
0.0
  0
POINT
  5
1FF19
330
1F6FB
100
AcDbEntity
  8
DEFPOINTS
 62
     0
 48
50.0
100
AcDbPoint
 10
10157.84087348511
 20
5399.999999999993
 30
0.0
  0
ENDBLK
  5
1F706
330
1F6FB
100
AcDbEntity
  8
0
 48
50.0
100
AcDbBlockEnd
  0
BLOCK
  5
202D0
330
202C6
100
AcDbEntity
  8
0
 48
50.0
100
AcDbBlockBegin
  2
*D36
 70
     1
 10
0.0
 20
0.0
 30
0.0
  3
*D36
  1

  0
LINE
  5
2035C
330
202C6
100
AcDbEntity
  8
寸法
 62
     0
 48
50.0
370
    -2
100
AcDbLine
 10
6607.305229737185
 20
1140.760787611754
 30
0.0
 11
6473.975482661656
 21
1140.760787611754
 31
0.0
  0
LINE
  5
2035D
330
202C6
100
AcDbEntity
  8
寸法
 62
     0
 48
50.0
370
    -2
100
AcDbLine
 10
6757.305229737184
 20
740.7607876117545
 30
0.0
 11
6473.975482661656
 21
740.7607876117545
 31
0.0
  0
LINE
  5
2035E
330
202C6
100
AcDbEntity
  8
寸法
 62
     0
 48
50.0
370
    -2
100
AcDbLine
 10
6533.975482661656
 20
1140.760787611754
 30
0.0
 11
6533.975482661656
 21
740.7607876117545
 31
0.0
  0
INSERT
  5
2035F
330
202C6
100
AcDbEntity
  8
寸法
 62
     0
 48
50.0
370
    -2
100
AcDbBlockReference
  2
_DOTSMALL
 10
6533.975482661656
 20
1140.760787611754
 30
0.0
 41
100.0
 42
100.0
 43
100.0
 50
90.0
  0
INSERT
  5
20360
330
202C6
100
AcDbEntity
  8
寸法
 62
     0
 48
50.0
370
    -2
100
AcDbBlockReference
  2
_DOTSMALL
 10
6533.975482661656
 20
740.7607876117545
 30
0.0
 41
100.0
 42
100.0
 43
100.0
 50
270.0
  0
MTEXT
  5
20361
330
202C6
100
AcDbEntity
  8
寸法
 62
     7
 48
50.0
100
AcDbMText
 10
6433.963671638034
 20
928.3854207276601
 30
0.0
 40
120.0
 41
0.0
 71
     5
 72
     1
  1
\A1;200
  7
STYLE1
 11
0.0000000000000001
 21
1.0
 31
0.0
 73
     1
 44
1.0
1001
ACAD
1000
MTEXTBEGIN
1070
    73
1070
     1
1070
    44
1040
1.0
1070
    74
1070
     0
1000
MTEXTEND
  0
POINT
  5
20362
330
202C6
100
AcDbEntity
  8
DEFPOINTS
 62
     0
 48
50.0
100
AcDbPoint
 10
6627.305229737185
 20
1140.760787611754
 30
0.0
  0
POINT
  5
20363
330
202C6
100
AcDbEntity
  8
DEFPOINTS
 62
     0
 48
50.0
100
AcDbPoint
 10
6777.305229737184
 20
740.7607876117545
 30
0.0
  0
POINT
  5
20364
330
202C6
100
AcDbEntity
  8
DEFPOINTS
 62
     0
 48
50.0
100
AcDbPoint
 10
6533.975482661656
 20
740.7607876117545
 30
0.0
  0
ENDBLK
  5
202D1
330
202C6
100
AcDbEntity
  8
0
 48
50.0
100
AcDbBlockEnd
  0
BLOCK
  5
202DC
330
202D2
100
AcDbEntity
  8
0
 48
50.0
100
AcDbBlockBegin
  2
*D37
 70
     1
 10
0.0
 20
0.0
 30
0.0
  3
*D37
  1

  0
LINE
  5
20353
330
202D2
100
AcDbEntity
  8
寸法
 62
     0
 48
50.0
370
    -2
100
AcDbLine
 10
8660.911493855794
 20
1340.760787611756
 30
0.0
 11
8923.124741318693
 21
1340.760787611756
 31
0.0
  0
LINE
  5
20354
330
202D2
100
AcDbEntity
  8
寸法
 62
     0
 48
50.0
370
    -2
100
AcDbLine
 10
8680.360730750285
 20
1140.760787611754
 30
0.0
 11
8923.124741318693
 21
1140.760787611754
 31
0.0
  0
LINE
  5
20355
330
202D2
100
AcDbEntity
  8
寸法
 62
     0
 48
50.0
370
    -2
100
AcDbLine
 10
8863.124741318694
 20
1340.760787611756
 30
0.0
 11
8863.124741318694
 21
1140.760787611754
 31
0.0
  0
INSERT
  5
20356
330
202D2
100
AcDbEntity
  8
寸法
 62
     0
 48
50.0
370
    -2
100
AcDbBlockReference
  2
_DOTSMALL
 10
8863.124741318694
 20
1340.760787611756
 30
0.0
 41
100.0
 42
100.0
 43
100.0
 50
90.0
  0
INSERT
  5
20357
330
202D2
100
AcDbEntity
  8
寸法
 62
     0
 48
50.0
370
    -2
100
AcDbBlockReference
  2
_DOTSMALL
 10
8863.124741318694
 20
1140.760787611754
 30
0.0
 41
100.0
 42
100.0
 43
100.0
 50
270.0
  0
MTEXT
  5
20358
330
202D2
100
AcDbEntity
  8
寸法
 62
     7
 48
50.0
100
AcDbMText
 10
8763.124741318694
 20
1240.760787611757
 30
0.0
 40
120.0
 41
0.0
 71
     5
 72
     1
  1
\A1;b
  7
STYLE1
 11
0.0000000000000001
 21
1.0
 31
0.0
 73
     1
 44
1.0
1001
ACAD
1000
MTEXTBEGIN
1070
    73
1070
     1
1070
    44
1040
1.0
1070
    74
1070
     0
1000
MTEXTEND
  0
POINT
  5
20359
330
202D2
100
AcDbEntity
  8
DEFPOINTS
 62
     0
 48
50.0
100
AcDbPoint
 10
8640.911493855794
 20
1340.760787611756
 30
0.0
  0
POINT
  5
2035A
330
202D2
100
AcDbEntity
  8
DEFPOINTS
 62
     0
 48
50.0
100
AcDbPoint
 10
8660.360730750284
 20
1140.760787611754
 30
0.0
  0
POINT
  5
2035B
330
202D2
100
AcDbEntity
  8
DEFPOINTS
 62
     0
 48
50.0
100
AcDbPoint
 10
8863.124741318694
 20
1140.760787611754
 30
0.0
  0
ENDBLK
  5
202DD
330
202D2
100
AcDbEntity
  8
0
 48
50.0
100
AcDbBlockEnd
  0
BLOCK
  5
202E8
330
202DE
100
AcDbEntity
  8
0
 48
50.0
100
AcDbBlockBegin
  2
*D38
 70
     1
 10
0.0
 20
0.0
 30
0.0
  3
*D38
  1

  0
LINE
  5
2034A
330
202DE
100
AcDbEntity
  8
寸法
 62
     0
 48
50.0
370
    -2
100
AcDbLine
 10
10160.80442737293
 20
1440.760787611754
 30
0.0
 11
10403.43998109005
 21
1440.760787611754
 31
0.0
  0
LINE
  5
2034B
330
202DE
100
AcDbEntity
  8
寸法
 62
     0
 48
50.0
370
    -2
100
AcDbLine
 10
10190.69333546326
 20
1140.760787611754
 30
0.0
 11
10403.43998109005
 21
1140.760787611754
 31
0.0
  0
LINE
  5
2034C
330
202DE
100
AcDbEntity
  8
寸法
 62
     0
 48
50.0
370
    -2
100
AcDbLine
 10
10343.43998109005
 20
1440.760787611754
 30
0.0
 11
10343.43998109005
 21
1140.760787611754
 31
0.0
  0
INSERT
  5
2034D
330
202DE
100
AcDbEntity
  8
寸法
 62
     0
 48
50.0
370
    -2
100
AcDbBlockReference
  2
_DOTSMALL
 10
10343.43998109005
 20
1440.760787611754
 30
0.0
 41
100.0
 42
100.0
 43
100.0
 50
90.0
  0
INSERT
  5
2034E
330
202DE
100
AcDbEntity
  8
寸法
 62
     0
 48
50.0
370
    -2
100
AcDbBlockReference
  2
_DOTSMALL
 10
10343.43998109005
 20
1140.760787611754
 30
0.0
 41
100.0
 42
100.0
 43
100.0
 50
270.0
  0
MTEXT
  5
2034F
330
202DE
100
AcDbEntity
  8
寸法
 62
     7
 48
50.0
100
AcDbMText
 10
10243.43998109005
 20
1290.760787611756
 30
0.0
 40
120.0
 41
0.0
 71
     5
 72
     1
  1
\A1;c
  7
STYLE1
 11
0.0000000000000001
 21
1.0
 31
0.0
 73
     1
 44
1.0
1001
ACAD
1000
MTEXTBEGIN
1070
    73
1070
     1
1070
    44
1040
1.0
1070
    74
1070
     0
1000
MTEXTEND
  0
POINT
  5
20350
330
202DE
100
AcDbEntity
  8
DEFPOINTS
 62
     0
 48
50.0
100
AcDbPoint
 10
10140.80442737293
 20
1440.760787611754
 30
0.0
  0
POINT
  5
20351
330
202DE
100
AcDbEntity
  8
DEFPOINTS
 62
     0
 48
50.0
100
AcDbPoint
 10
10170.69333546326
 20
1140.760787611754
 30
0.0
  0
POINT
  5
20352
330
202DE
100
AcDbEntity
  8
DEFPOINTS
 62
     0
 48
50.0
100
AcDbPoint
 10
10343.43998109005
 20
1140.760787611754
 30
0.0
  0
ENDBLK
  5
202E9
330
202DE
100
AcDbEntity
  8
0
 48
50.0
100
AcDbBlockEnd
  0
BLOCK
  5
202F4
330
202EA
100
AcDbEntity
  8
0
 48
50.0
100
AcDbBlockBegin
  2
*D39
 70
     1
 10
0.0
 20
0.0
 30
0.0
  3
*D39
  1

  0
LINE
  5
20341
330
202EA
100
AcDbEntity
  8
寸法
 62
     0
 48
50.0
370
    -2
100
AcDbLine
 10
7047.305229737187
 20
1340.760787611755
 30
0.0
 11
7335.37623409758
 21
1340.760787611755
 31
0.0
  0
LINE
  5
20342
330
202EA
100
AcDbEntity
  8
寸法
 62
     0
 48
50.0
370
    -2
100
AcDbLine
 10
7047.305229737189
 20
1140.760787611754
 30
0.0
 11
7335.37623409758
 21
1140.760787611754
 31
0.0
  0
LINE
  5
20343
330
202EA
100
AcDbEntity
  8
寸法
 62
     0
 48
50.0
370
    -2
100
AcDbLine
 10
7275.376234097581
 20
1340.760787611755
 30
0.0
 11
7275.376234097581
 21
1140.760787611754
 31
0.0
  0
INSERT
  5
20344
330
202EA
100
AcDbEntity
  8
寸法
 62
     0
 48
50.0
370
    -2
100
AcDbBlockReference
  2
_DOTSMALL
 10
7275.376234097581
 20
1340.760787611755
 30
0.0
 41
100.0
 42
100.0
 43
100.0
 50
90.0
  0
INSERT
  5
20345
330
202EA
100
AcDbEntity
  8
寸法
 62
     0
 48
50.0
370
    -2
100
AcDbBlockReference
  2
_DOTSMALL
 10
7275.376234097581
 20
1140.760787611754
 30
0.0
 41
100.0
 42
100.0
 43
100.0
 50
270.0
  0
MTEXT
  5
20346
330
202EA
100
AcDbEntity
  8
寸法
 62
     7
 48
50.0
100
AcDbMText
 10
7175.376234097581
 20
1240.760787611756
 30
0.0
 40
120.0
 41
0.0
 71
     5
 72
     1
  1
\A1;a
  7
STYLE1
 11
0.0000000000000001
 21
1.0
 31
0.0
 73
     1
 44
1.0
1001
ACAD
1000
MTEXTBEGIN
1070
    73
1070
     1
1070
    44
1040
1.0
1070
    74
1070
     0
1000
MTEXTEND
  0
POINT
  5
20347
330
202EA
100
AcDbEntity
  8
DEFPOINTS
 62
     0
 48
50.0
100
AcDbPoint
 10
7027.305229737187
 20
1340.760787611755
 30
0.0
  0
POINT
  5
20348
330
202EA
100
AcDbEntity
  8
DEFPOINTS
 62
     0
 48
50.0
100
AcDbPoint
 10
7027.305229737189
 20
1140.760787611754
 30
0.0
  0
POINT
  5
20349
330
202EA
100
AcDbEntity
  8
DEFPOINTS
 62
     0
 48
50.0
100
AcDbPoint
 10
7275.376234097581
 20
1140.760787611754
 30
0.0
  0
ENDBLK
  5
202F5
330
202EA
100
AcDbEntity
  8
0
 48
50.0
100
AcDbBlockEnd
  0
BLOCK
  5
203A1
330
20395
100
AcDbEntity
  8
0
 48
50.0
100
AcDbBlockBegin
  2
*D40
 70
     1
 10
0.0
 20
0.0
 30
0.0
  3
*D40
  1

  0
LINE
  5
203C5
330
20395
100
AcDbEntity
  8
寸法
 62
     0
 48
50.0
370
    -2
100
AcDbLine
 10
6916.599999999999
 20
5425.0
 30
0.0
 11
6650.03799330112
 21
5425.0
 31
0.0
  0
LINE
  5
203C6
330
20395
100
AcDbEntity
  8
寸法
 62
     0
 48
50.0
370
    -2
100
AcDbLine
 10
6850.543893583843
 20
5499.999999999999
 30
0.0
 11
6650.03799330112
 21
5499.999999999999
 31
0.0
  0
LINE
  5
203C7
330
20395
100
AcDbEntity
  8
寸法
 62
     0
 48
50.0
370
    -2
100
AcDbLine
 10
6710.037993301121
 20
5499.999999999999
 30
0.0
 11
6710.037993301121
 21
5599.999999999998
 31
0.0
  0
LINE
  5
203C8
330
20395
100
AcDbEntity
  8
寸法
 62
     0
 48
50.0
370
    -2
100
AcDbLine
 10
6710.037993301121
 20
5425.0
 30
0.0
 11
6710.037993301121
 21
4558.029437251522
 31
0.0
  0
LINE
  5
203C9
330
20395
100
AcDbEntity
  8
寸法
 62
     0
 48
50.0
370
    -2
100
AcDbLine
 10
6710.037993301121
 20
5499.999999999999
 30
0.0
 11
6710.037993301121
 21
5425.0
 31
0.0
  0
INSERT
  5
203CA
330
20395
100
AcDbEntity
  8
寸法
 62
     0
 48
50.0
370
    -2
100
AcDbBlockReference
  2
_DOTSMALL
 10
6710.037993301121
 20
5499.999999999999
 30
0.0
 41
100.0
 42
100.0
 43
100.0
 50
270.0
  0
INSERT
  5
203CB
330
20395
100
AcDbEntity
  8
寸法
 62
     0
 48
50.0
370
    -2
100
AcDbBlockReference
  2
_DOTSMALL
 10
6710.037993301121
 20
5425.0
 30
0.0
 41
100.0
 42
100.0
 43
100.0
 50
90.0
  0
MTEXT
  5
203CC
330
20395
100
AcDbEntity
  8
寸法
 62
     7
 48
50.0
100
AcDbMText
 10
6610.037993301119
 20
4891.514718625764
 30
0.0
 40
120.0
 41
0.0
 71
     5
 72
     1
  1
\A1;扉の出75
  7
STYLE1
 11
0.0000000000000001
 21
1.0
 31
0.0
 73
     1
 44
1.0
1001
ACAD
1000
MTEXTBEGIN
1070
    73
1070
     1
1070
    44
1040
1.0
1070
    74
1070
     0
1000
MTEXTEND
  0
POINT
  5
203CD
330
20395
100
AcDbEntity
  8
DEFPOINTS
 62
     0
 48
50.0
100
AcDbPoint
 10
6936.6
 20
5425.0
 30
0.0
  0
POINT
  5
203CE
330
20395
100
AcDbEntity
  8
DEFPOINTS
 62
     0
 48
50.0
100
AcDbPoint
 10
6870.543893583842
 20
5499.999999999999
 30
0.0
  0
POINT
  5
203CF
330
20395
100
AcDbEntity
  8
DEFPOINTS
 62
     0
 48
50.0
100
AcDbPoint
 10
6710.037993301121
 20
5499.999999999999
 30
0.0
  0
ENDBLK
  5
203A2
330
20395
100
AcDbEntity
  8
0
 48
50.0
100
AcDbBlockEnd
  0
BLOCK
  5
203FF
330
203FE
100
AcDbEntity
  8
0
 48
50.0
100
AcDbBlockBegin
  2
*D41
 70
     1
 10
0.0
 20
0.0
 30
0.0
  3
*D41
  1

  0
LINE
  5
20400
330
203FE
100
AcDbEntity
  8
寸法
 62
     0
 48
50.0
370
    -2
100
AcDbLine
 10
6399.539401023374
 20
1140.760787611754
 30
0.0
 11
6266.209653947845
 21
1140.760787611754
 31
0.0
  0
LINE
  5
20401
330
203FE
100
AcDbEntity
  8
寸法
 62
     0
 48
50.0
370
    -2
100
AcDbLine
 10
6549.539401023373
 20
740.7607876117545
 30
0.0
 11
6266.209653947845
 21
740.7607876117546
 31
0.0
  0
LINE
  5
20402
330
203FE
100
AcDbEntity
  8
寸法
 62
     0
 48
50.0
370
    -2
100
AcDbLine
 10
6326.209653947844
 20
1140.760787611754
 30
0.0
 11
6326.209653947844
 21
740.7607876117546
 31
0.0
  0
INSERT
  5
20403
330
203FE
100
AcDbEntity
  8
寸法
 62
     0
 48
50.0
370
    -2
100
AcDbBlockReference
  2
_DOTSMALL
 10
6326.209653947844
 20
1140.760787611754
 30
0.0
 41
100.0
 42
100.0
 43
100.0
 50
90.0
  0
INSERT
  5
20404
330
203FE
100
AcDbEntity
  8
寸法
 62
     0
 48
50.0
370
    -2
100
AcDbBlockReference
  2
_DOTSMALL
 10
6326.209653947844
 20
740.7607876117546
 30
0.0
 41
100.0
 42
100.0
 43
100.0
 50
270.0
  0
MTEXT
  5
20405
330
203FE
100
AcDbEntity
  8
寸法
 62
     7
 48
50.0
100
AcDbMText
 10
6226.197842924222
 20
928.3854207276599
 30
0.0
 40
120.0
 41
0.0
 71
     5
 72
     1
  1
\A1;200
  7
STYLE1
 11
0.0000000000000001
 21
1.0
 31
0.0
 73
     1
 44
1.0
1001
ACAD
1000
MTEXTBEGIN
1070
    73
1070
     1
1070
    44
1040
1.0
1070
    74
1070
     0
1000
MTEXTEND
  0
POINT
  5
20406
330
203FE
100
AcDbEntity
  8
DEFPOINTS
 62
     0
 48
50.0
100
AcDbPoint
 10
6419.539401023374
 20
1140.760787611754
 30
0.0
  0
POINT
  5
20407
330
203FE
100
AcDbEntity
  8
DEFPOINTS
 62
     0
 48
50.0
100
AcDbPoint
 10
6569.539401023374
 20
740.7607876117545
 30
0.0
  0
POINT
  5
20408
330
203FE
100
AcDbEntity
  8
DEFPOINTS
 62
     0
 48
50.0
100
AcDbPoint
 10
6326.209653947844
 20
740.7607876117546
 30
0.0
  0
ENDBLK
  5
20409
330
203FE
100
AcDbEntity
  8
0
 48
50.0
100
AcDbBlockEnd
  0
BLOCK
  5
2040B
330
2040A
100
AcDbEntity
  8
0
 48
50.0
100
AcDbBlockBegin
  2
*D42
 70
     1
 10
0.0
 20
0.0
 30
0.0
  3
*D42
  1

  0
LINE
  5
2040C
330
2040A
100
AcDbEntity
  8
寸法
 62
     0
 48
50.0
370
    -2
100
AcDbLine
 10
8453.145665141983
 20
1340.760787611756
 30
0.0
 11
8715.358912604882
 21
1340.760787611756
 31
0.0
  0
LINE
  5
2040D
330
2040A
100
AcDbEntity
  8
寸法
 62
     0
 48
50.0
370
    -2
100
AcDbLine
 10
8472.594902036474
 20
1140.760787611754
 30
0.0
 11
8715.358912604882
 21
1140.760787611754
 31
0.0
  0
LINE
  5
2040E
330
2040A
100
AcDbEntity
  8
寸法
 62
     0
 48
50.0
370
    -2
100
AcDbLine
 10
8655.358912604883
 20
1340.760787611756
 30
0.0
 11
8655.358912604883
 21
1140.760787611754
 31
0.0
  0
INSERT
  5
2040F
330
2040A
100
AcDbEntity
  8
寸法
 62
     0
 48
50.0
370
    -2
100
AcDbBlockReference
  2
_DOTSMALL
 10
8655.358912604883
 20
1340.760787611756
 30
0.0
 41
100.0
 42
100.0
 43
100.0
 50
90.0
  0
INSERT
  5
20410
330
2040A
100
AcDbEntity
  8
寸法
 62
     0
 48
50.0
370
    -2
100
AcDbBlockReference
  2
_DOTSMALL
 10
8655.358912604883
 20
1140.760787611754
 30
0.0
 41
100.0
 42
100.0
 43
100.0
 50
270.0
  0
MTEXT
  5
20411
330
2040A
100
AcDbEntity
  8
寸法
 62
     7
 48
50.0
100
AcDbMText
 10
8555.358912604884
 20
1240.760787611757
 30
0.0
 40
120.0
 41
0.0
 71
     5
 72
     1
  1
\A1;b
  7
STYLE1
 11
0.0000000000000001
 21
1.0
 31
0.0
 73
     1
 44
1.0
1001
ACAD
1000
MTEXTBEGIN
1070
    73
1070
     1
1070
    44
1040
1.0
1070
    74
1070
     0
1000
MTEXTEND
  0
POINT
  5
20412
330
2040A
100
AcDbEntity
  8
DEFPOINTS
 62
     0
 48
50.0
100
AcDbPoint
 10
8433.145665141983
 20
1340.760787611756
 30
0.0
  0
POINT
  5
20413
330
2040A
100
AcDbEntity
  8
DEFPOINTS
 62
     0
 48
50.0
100
AcDbPoint
 10
8452.594902036473
 20
1140.760787611754
 30
0.0
  0
POINT
  5
20414
330
2040A
100
AcDbEntity
  8
DEFPOINTS
 62
     0
 48
50.0
100
AcDbPoint
 10
8655.358912604883
 20
1140.760787611754
 30
0.0
  0
ENDBLK
  5
20415
330
2040A
100
AcDbEntity
  8
0
 48
50.0
100
AcDbBlockEnd
  0
BLOCK
  5
20417
330
20416
100
AcDbEntity
  8
0
 48
50.0
100
AcDbBlockBegin
  2
*D43
 70
     1
 10
0.0
 20
0.0
 30
0.0
  3
*D43
  1

  0
LINE
  5
20418
330
20416
100
AcDbEntity
  8
寸法
 62
     0
 48
50.0
370
    -2
100
AcDbLine
 10
9953.038598659123
 20
1440.760787611754
 30
0.0
 11
10195.67415237624
 21
1440.760787611754
 31
0.0
  0
LINE
  5
20419
330
20416
100
AcDbEntity
  8
寸法
 62
     0
 48
50.0
370
    -2
100
AcDbLine
 10
9982.927506749454
 20
1140.760787611754
 30
0.0
 11
10195.67415237624
 21
1140.760787611754
 31
0.0
  0
LINE
  5
2041A
330
20416
100
AcDbEntity
  8
寸法
 62
     0
 48
50.0
370
    -2
100
AcDbLine
 10
10135.67415237624
 20
1440.760787611754
 30
0.0
 11
10135.67415237624
 21
1140.760787611754
 31
0.0
  0
INSERT
  5
2041B
330
20416
100
AcDbEntity
  8
寸法
 62
     0
 48
50.0
370
    -2
100
AcDbBlockReference
  2
_DOTSMALL
 10
10135.67415237624
 20
1440.760787611754
 30
0.0
 41
100.0
 42
100.0
 43
100.0
 50
90.0
  0
INSERT
  5
2041C
330
20416
100
AcDbEntity
  8
寸法
 62
     0
 48
50.0
370
    -2
100
AcDbBlockReference
  2
_DOTSMALL
 10
10135.67415237624
 20
1140.760787611754
 30
0.0
 41
100.0
 42
100.0
 43
100.0
 50
270.0
  0
MTEXT
  5
2041D
330
20416
100
AcDbEntity
  8
寸法
 62
     7
 48
50.0
100
AcDbMText
 10
10035.67415237624
 20
1290.760787611756
 30
0.0
 40
120.0
 41
0.0
 71
     5
 72
     1
  1
\A1;c
  7
STYLE1
 11
0.0000000000000001
 21
1.0
 31
0.0
 73
     1
 44
1.0
1001
ACAD
1000
MTEXTBEGIN
1070
    73
1070
     1
1070
    44
1040
1.0
1070
    74
1070
     0
1000
MTEXTEND
  0
POINT
  5
2041E
330
20416
100
AcDbEntity
  8
DEFPOINTS
 62
     0
 48
50.0
100
AcDbPoint
 10
9933.038598659123
 20
1440.760787611754
 30
0.0
  0
POINT
  5
2041F
330
20416
100
AcDbEntity
  8
DEFPOINTS
 62
     0
 48
50.0
100
AcDbPoint
 10
9962.927506749455
 20
1140.760787611754
 30
0.0
  0
POINT
  5
20420
330
20416
100
AcDbEntity
  8
DEFPOINTS
 62
     0
 48
50.0
100
AcDbPoint
 10
10135.67415237624
 20
1140.760787611754
 30
0.0
  0
ENDBLK
  5
20421
330
20416
100
AcDbEntity
  8
0
 48
50.0
100
AcDbBlockEnd
  0
BLOCK
  5
20423
330
20422
100
AcDbEntity
  8
0
 48
50.0
100
AcDbBlockBegin
  2
*D44
 70
     1
 10
0.0
 20
0.0
 30
0.0
  3
*D44
  1

  0
LINE
  5
20424
330
20422
100
AcDbEntity
  8
寸法
 62
     0
 48
50.0
370
    -2
100
AcDbLine
 10
6839.539401023376
 20
1340.760787611755
 30
0.0
 11
7127.610405383769
 21
1340.760787611755
 31
0.0
  0
LINE
  5
20425
330
20422
100
AcDbEntity
  8
寸法
 62
     0
 48
50.0
370
    -2
100
AcDbLine
 10
6839.539401023377
 20
1140.760787611754
 30
0.0
 11
7127.610405383769
 21
1140.760787611754
 31
0.0
  0
LINE
  5
20426
330
20422
100
AcDbEntity
  8
寸法
 62
     0
 48
50.0
370
    -2
100
AcDbLine
 10
7067.610405383771
 20
1340.760787611755
 30
0.0
 11
7067.610405383771
 21
1140.760787611754
 31
0.0
  0
INSERT
  5
20427
330
20422
100
AcDbEntity
  8
寸法
 62
     0
 48
50.0
370
    -2
100
AcDbBlockReference
  2
_DOTSMALL
 10
7067.610405383771
 20
1340.760787611755
 30
0.0
 41
100.0
 42
100.0
 43
100.0
 50
90.0
  0
INSERT
  5
20428
330
20422
100
AcDbEntity
  8
寸法
 62
     0
 48
50.0
370
    -2
100
AcDbBlockReference
  2
_DOTSMALL
 10
7067.610405383771
 20
1140.760787611754
 30
0.0
 41
100.0
 42
100.0
 43
100.0
 50
270.0
  0
MTEXT
  5
20429
330
20422
100
AcDbEntity
  8
寸法
 62
     7
 48
50.0
100
AcDbMText
 10
6967.61040538377
 20
1240.760787611756
 30
0.0
 40
120.0
 41
0.0
 71
     5
 72
     1
  1
\A1;a
  7
STYLE1
 11
0.0000000000000001
 21
1.0
 31
0.0
 73
     1
 44
1.0
1001
ACAD
1000
MTEXTBEGIN
1070
    73
1070
     1
1070
    44
1040
1.0
1070
    74
1070
     0
1000
MTEXTEND
  0
POINT
  5
2042A
330
20422
100
AcDbEntity
  8
DEFPOINTS
 62
     0
 48
50.0
100
AcDbPoint
 10
6819.539401023376
 20
1340.760787611755
 30
0.0
  0
POINT
  5
2042B
330
20422
100
AcDbEntity
  8
DEFPOINTS
 62
     0
 48
50.0
100
AcDbPoint
 10
6819.539401023378
 20
1140.760787611754
 30
0.0
  0
POINT
  5
2042C
330
20422
100
AcDbEntity
  8
DEFPOINTS
 62
     0
 48
50.0
100
AcDbPoint
 10
7067.610405383771
 20
1140.760787611754
 30
0.0
  0
ENDBLK
  5
2042D
330
20422
100
AcDbEntity
  8
0
 48
50.0
100
AcDbBlockEnd
  0
BLOCK
  5
2058D
330
2042E
100
AcDbEntity
  8
0
 48
50.0
100
AcDbBlockBegin
  2
A$C10E770EA
 70
     0
 10
0.0
 20
0.0
 30
0.0
  3
A$C10E770EA
  1

  0
LINE
  5
2042F
330
2042E
100
AcDbEntity
  8
部品1
 48
50.0
100
AcDbLine
 10
-6137.660598976627
 20
740.7607876117564
 30
0.0
 11
-6537.660598976626
 21
740.7607876117546
 31
0.0
  0
LINE
  5
20430
330
2042E
100
AcDbEntity
  8
部品1
 48
50.0
100
AcDbLine
 10
-6137.660598976626
 20
1140.760787611754
 30
0.0
 11
-6137.660598976627
 21
740.7607876117564
 31
0.0
  0
LINE
  5
20431
330
2042E
100
AcDbEntity
  8
部品1
 48
50.0
100
AcDbLine
 10
-6537.660598976626
 20
740.7607876117546
 30
0.0
 11
-6537.660598976626
 21
1140.760787611754
 31
0.0
  0
TEXT
  5
20432
330
2042E
100
AcDbEntity
  8
部品1
100
AcDbText
 10
-6933.819023190885
 20
402.0913671270182
 30
0.0
 40
80.0
  1
a寸法：100～150mmに対応
  7
STYLE2
100
AcDbText
  0
TEXT
  5
20433
330
2042E
100
AcDbEntity
  8
部品1
100
AcDbText
 10
-3816.414654012049
 20
378.6220795440777
 30
0.0
 40
80.0
  1
  が4本必要になります。
  7
STYLE2
100
AcDbText
  0
TEXT
  5
20434
330
2042E
100
AcDbEntity
  8
部品1
100
AcDbText
 10
-3817.778290375685
 20
528.3190492410468
 30
0.0
 40
80.0
  1
\U+203BオールアンカーM10(市販品)
  7
STYLE2
100
AcDbText
  0
TEXT
  5
20435
330
2042E
100
AcDbEntity
  8
部品1
100
AcDbText
 10
-3821.869199466596
 20
673.9251098471078
 30
0.0
 40
80.0
  1
c寸法：135～175,190mmに対応
  7
STYLE2
100
AcDbText
  0
TEXT
  5
20436
330
2042E
100
AcDbEntity
  8
部品1
100
AcDbText
 10
-5375.29195308214
 20
378.6220795440777
 30
0.0
 40
80.0
  1
  が4本必要になります。
  7
STYLE2
100
AcDbText
  0
TEXT
  5
20437
330
2042E
100
AcDbEntity
  8
部品1
100
AcDbText
 10
-5376.655589445776
 20
528.3190492410468
 30
0.0
 40
80.0
  1
\U+203BオールアンカーM10(市販品)
  7
STYLE2
100
AcDbText
  0
TEXT
  5
20438
330
2042E
100
AcDbEntity
  8
部品1
100
AcDbText
 10
-5381.20104399123
 20
673.9251098471078
 30
0.0
 40
80.0
  1
b寸法：100～120mmに対応
  7
STYLE2
100
AcDbText
  0
DIMENSION
  5
20439
330
2042E
100
AcDbEntity
  8
寸法
 48
50.0
100
AcDbDimension
  2
*D44
 10
-6039.589594616231
 20
1140.760787611754
 30
0.0
 11
-6139.589594616231
 21
1240.760787611756
 31
0.0
 12
-13107.2
 22
0.0000000000000729
 32
0.0
  1
a
 71
     5
 42
200.0000000000009
  3
INABA_S40G
100
AcDbAlignedDimension
 13
-6287.660598976625
 23
1340.760787611755
 33
0.0
 14
-6287.660598976623
 24
1140.760787611754
 34
0.0
 50
90.0
100
AcDbRotatedDimension
1001
ACAD
1000
DSTYLE
1002
{
1070
   174
1070
     0
1070
   272
1070
     1
1070
   288
1070
     0
1070
   341
1005
0
1002
}
  0
LINE
  5
2043A
330
2042E
100
AcDbEntity
  8
部品1
 48
50.0
100
AcDbLine
 10
-2270.368301239827
 20
2600.000000000002
 30
0.0
 11
-2270.368301239827
 21
200.0000000000001
 31
0.0
  0
TEXT
  5
2043B
330
2042E
100
AcDbEntity
  8
部品1
100
AcDbText
 10
-4709.02352039455
 20
2175.866049504641
 30
0.0
 40
120.0
  1
地盤がコンクリートの場合
  7
STYLE2
100
AcDbText
  0
LINE
  5
2043C
330
2042E
100
AcDbEntity
  8
部品1
100
AcDbLine
 10
-3222.272493250546
 20
1469.904381151202
 30
0.0
 11
-3222.272493250546
 21
1454.360787611753
 31
0.0
  0
LINE
  5
2043D
330
2042E
100
AcDbEntity
  8
部品1
100
AcDbLine
 10
-3206.272493250546
 20
1469.904381151202
 30
0.0
 11
-3206.272493250546
 21
1454.360787611753
 31
0.0
  0
LINE
  5
2043E
330
2042E
100
AcDbEntity
  8
部品1
100
AcDbLine
 10
-3174.272493250546
 20
1544.360787611757
 30
0.0
 11
-3174.272493250546
 21
1441.006256599767
 31
0.0
  0
LINE
  5
2043F
330
2042E
100
AcDbEntity
  8
部品1
100
AcDbLine
 10
-3254.272493250546
 20
1544.360787611753
 30
0.0
 11
-3254.272493250546
 21
1441.006256599761
 31
0.0
  0
ARC
  5
20440
330
2042E
100
AcDbEntity
  8
部品1
100
AcDbCircle
 10
-3214.272493250546
 20
1454.360787611753
 30
0.0
 40
8.0
100
AcDbArc
 50
288.1948723386653
 51
0.0
  0
ARC
  5
20441
330
2042E
100
AcDbEntity
  8
部品1
100
AcDbCircle
 10
-3214.272493250546
 20
1454.360787611753
 30
0.0
 40
8.0
100
AcDbArc
 50
180.0
 51
251.8051276613347
  0
ARC
  5
20442
330
2042E
100
AcDbEntity
  8
部品1
100
AcDbCircle
 10
-3183.326552730791
 20
1436.760787611751
 30
0.0
 40
10.0
100
AcDbArc
 50
5.684241598185932
 51
90.0
  0
ARC
  5
20443
330
2042E
100
AcDbEntity
  8
部品1
100
AcDbCircle
 10
-3245.218433770303
 20
1436.760787611754
 30
0.0
 40
10.0
100
AcDbArc
 50
90.0
 51
174.315758401814
  0
LINE
  5
20444
330
2042E
100
AcDbEntity
  8
部品1
100
AcDbLine
 10
-3245.218433770303
 20
1446.760787611754
 30
0.0
 11
-3183.326552730791
 21
1446.760787611751
 31
0.0
  0
CIRCLE
  5
20445
330
2042E
100
AcDbEntity
  8
部品1
100
AcDbCircle
 10
-3214.272493250546
 20
1384.360787611753
 30
0.0
 40
16.0
  0
LINE
  5
20446
330
2042E
100
AcDbEntity
  8
細線
100
AcDbLine
 10
-3206.272493250546
 20
1424.760787611751
 30
0.0
 11
-3206.272493250546
 21
1398.217194072305
 31
0.0
  0
LINE
  5
20447
330
2042E
100
AcDbEntity
  8
細線
100
AcDbLine
 10
-3222.272493250546
 20
1424.760787611751
 30
0.0
 11
-3222.272493250546
 21
1398.217194072305
 31
0.0
  0
LINE
  5
20448
330
2042E
100
AcDbEntity
  8
細線
100
AcDbLine
 10
-3199.272493250547
 20
1360.760787611751
 30
0.0
 11
-3199.272493250547
 21
1354.760787611751
 31
0.0
  0
LINE
  5
20449
330
2042E
100
AcDbEntity
  8
細線
100
AcDbLine
 10
-3229.272493250546
 20
1360.760787611754
 30
0.0
 11
-3229.272493250546
 21
1354.760787611754
 31
0.0
  0
LINE
  5
2044A
330
2042E
100
AcDbEntity
  8
細線
100
AcDbLine
 10
-3229.272493250546
 20
1360.760787611754
 30
0.0
 11
-3199.272493250547
 21
1360.760787611754
 31
0.0
  0
LINE
  5
2044B
330
2042E
100
AcDbEntity
  8
細線
100
AcDbLine
 10
-3229.272493250546
 20
1354.760787611754
 30
0.0
 11
-3199.272493250547
 21
1354.760787611754
 31
0.0
  0
ARC
  5
2044C
330
2042E
100
AcDbEntity
  8
細線
100
AcDbCircle
 10
-3214.272493250546
 20
1424.760787611751
 30
0.0
 40
8.0
100
AcDbArc
 50
0.0
 51
180.0
  0
CIRCLE
  5
2044D
330
2042E
100
AcDbEntity
  8
細線
100
AcDbCircle
 10
-3214.272493250546
 20
1524.360787611753
 30
0.0
 40
8.0
  0
CIRCLE
  5
2044E
330
2042E
100
AcDbEntity
  8
部品1
100
AcDbCircle
 10
-3214.272493250546
 20
1483.760787611754
 30
0.0
 40
16.0
  0
ARC
  5
2044F
330
2042E
100
AcDbEntity
  8
部品1
100
AcDbCircle
 10
-3214.272493250546
 20
1494.360787611753
 30
0.0
 40
8.0
100
AcDbArc
 50
28.00674301450301
 51
151.993256985497
  0
ARC
  5
20450
330
2042E
100
AcDbEntity
  8
部品1
100
AcDbCircle
 10
-3184.272493250546
 20
1544.360787611757
 30
0.0
 40
10.0
100
AcDbArc
 50
0.0
 51
90.0
  0
ARC
  5
20451
330
2042E
100
AcDbEntity
  8
部品1
100
AcDbCircle
 10
-3244.272493250547
 20
1544.360787611753
 30
0.0
 40
10.0
100
AcDbArc
 50
90.0
 51
180.0
  0
LINE
  5
20452
330
2042E
100
AcDbEntity
  8
部品1
100
AcDbLine
 10
-3244.272493250547
 20
1554.360787611753
 30
0.0
 11
-3184.272493250546
 21
1554.360787611757
 31
0.0
  0
LINE
  5
20453
330
2042E
100
AcDbEntity
  8
細線
100
AcDbLine
 10
-3262.351825321204
 20
1367.416722334008
 30
0.0
 11
-3335.695890598951
 21
1440.760787611754
 31
0.0
  0
LINE
  5
20454
330
2042E
100
AcDbEntity
  8
細線
100
AcDbLine
 10
-3258.42068772757
 20
1405.911991611565
 30
0.0
 11
-3293.269483727758
 21
1440.760787611754
 31
0.0
  0
LINE
  5
20455
330
2042E
100
AcDbEntity
  8
部品1
100
AcDbLine
 10
-3144.272493250547
 20
1152.760787611754
 30
0.0
 11
-3144.272493250547
 21
1140.760787611754
 31
0.0
  0
LINE
  5
20456
330
2042E
100
AcDbEntity
  8
部品1
100
AcDbLine
 10
-3204.272493250547
 20
1173.160787611756
 30
0.0
 11
-3199.272493250547
 21
1173.160787611756
 31
0.0
  0
LINE
  5
20457
330
2042E
100
AcDbEntity
  8
部品1
100
AcDbLine
 10
-3229.272493250546
 20
1207.160787611756
 30
0.0
 11
-3199.272493250547
 21
1207.160787611756
 31
0.0
  0
LINE
  5
20458
330
2042E
100
AcDbEntity
  8
部品1
100
AcDbLine
 10
-3229.272493250546
 20
1213.160787611756
 30
0.0
 11
-3199.272493250547
 21
1213.160787611756
 31
0.0
  0
LINE
  5
20459
330
2042E
100
AcDbEntity
  8
部品1
100
AcDbLine
 10
-3229.272493250546
 20
1213.160787611756
 30
0.0
 11
-3229.272493250546
 21
1207.160787611756
 31
0.0
  0
LINE
  5
2045A
330
2042E
100
AcDbEntity
  8
部品1
100
AcDbLine
 10
-3199.272493250547
 20
1213.160787611752
 30
0.0
 11
-3199.272493250547
 21
1207.160787611752
 31
0.0
  0
LINE
  5
2045B
330
2042E
100
AcDbEntity
  8
部品1
100
AcDbLine
 10
-3221.272493250546
 20
1205.013683635414
 30
0.0
 11
-3207.272493250547
 21
1205.013683635414
 31
0.0
  0
LINE
  5
2045C
330
2042E
100
AcDbEntity
  8
部品1
100
AcDbLine
 10
-3224.272493250546
 20
1192.760787611754
 30
0.0
 11
-3204.272493250547
 21
1192.760787611754
 31
0.0
  0
LINE
  5
2045D
330
2042E
100
AcDbEntity
  8
部品1
100
AcDbLine
 10
-3231.272493250546
 20
1171.760787611754
 30
0.0
 11
-3234.272493250546
 21
1168.760787611754
 31
0.0
  0
LINE
  5
2045E
330
2042E
100
AcDbEntity
  8
部品1
100
AcDbLine
 10
-3231.272493250546
 20
1171.760787611754
 30
0.0
 11
-3197.272493250546
 21
1171.760787611754
 31
0.0
  0
LINE
  5
2045F
330
2042E
100
AcDbEntity
  8
部品1
100
AcDbLine
 10
-3197.272493250546
 20
1171.760787611754
 30
0.0
 11
-3194.272493250546
 21
1168.760787611754
 31
0.0
  0
LINE
  5
20460
330
2042E
100
AcDbEntity
  8
部品1
100
AcDbLine
 10
-3229.272493250546
 20
1173.160787611756
 30
0.0
 11
-3229.272493250546
 21
1171.760787611754
 31
0.0
  0
LINE
  5
20461
330
2042E
100
AcDbEntity
  8
部品1
100
AcDbLine
 10
-3199.272493250547
 20
1173.160787611752
 30
0.0
 11
-3199.272493250547
 21
1171.760787611754
 31
0.0
  0
LINE
  5
20462
330
2042E
100
AcDbEntity
  8
部品1
100
AcDbLine
 10
-3244.272493250547
 20
1155.760787611754
 30
0.0
 11
-3184.272493250546
 21
1155.760787611758
 31
0.0
  0
LINE
  5
20463
330
2042E
100
AcDbEntity
  8
部品1
100
AcDbLine
 10
-3244.272493250547
 20
1152.760787611754
 30
0.0
 11
-3244.272493250547
 21
1155.760787611754
 31
0.0
  0
LINE
  5
20464
330
2042E
100
AcDbEntity
  8
部品1
100
AcDbLine
 10
-3184.272493250546
 20
1152.760787611754
 30
0.0
 11
-3184.272493250546
 21
1155.760787611762
 31
0.0
  0
LINE
  5
20465
330
2042E
100
AcDbEntity
  8
部品1
100
AcDbLine
 10
-3234.272493250546
 20
1155.760787611754
 30
0.0
 11
-3234.272493250546
 21
1168.760787611754
 31
0.0
  0
LINE
  5
20466
330
2042E
100
AcDbEntity
  8
部品1
100
AcDbLine
 10
-3224.272493250546
 20
1155.760787611754
 30
0.0
 11
-3224.272493250546
 21
1192.760787611754
 31
0.0
  0
LINE
  5
20467
330
2042E
100
AcDbEntity
  8
部品1
100
AcDbLine
 10
-3204.272493250547
 20
1155.760787611754
 30
0.0
 11
-3204.272493250547
 21
1192.760787611754
 31
0.0
  0
LINE
  5
20468
330
2042E
100
AcDbEntity
  8
部品1
100
AcDbLine
 10
-3194.272493250546
 20
1155.760787611758
 30
0.0
 11
-3194.272493250546
 21
1168.760787611754
 31
0.0
  0
LINE
  5
20469
330
2042E
100
AcDbEntity
  8
部品1
100
AcDbLine
 10
-3229.272493250546
 20
1173.160787611756
 30
0.0
 11
-3224.272493250546
 21
1173.160787611756
 31
0.0
  0
LINE
  5
2046A
330
2042E
100
AcDbEntity
  8
部品1
100
AcDbLine
 10
-3204.272493250547
 20
1173.160787611756
 30
0.0
 11
-3199.272493250547
 21
1173.160787611756
 31
0.0
  0
LINE
  5
2046B
330
2042E
100
AcDbEntity
  8
部品1
100
AcDbLine
 10
-3234.272493250546
 20
1168.760787611754
 30
0.0
 11
-3194.272493250546
 21
1168.760787611754
 31
0.0
  0
ARC
  5
2046C
330
2042E
100
AcDbEntity
  8
部品1
100
AcDbCircle
 10
-3229.272493250546
 20
1164.246032821436
 30
0.0
 40
6.736691384996243
100
AcDbArc
 50
42.08048849858749
 51
137.9195115014125
  0
ARC
  5
2046D
330
2042E
100
AcDbEntity
  8
部品1
100
AcDbCircle
 10
-3199.272493250547
 20
1164.246032821436
 30
0.0
 40
6.736691384996243
100
AcDbArc
 50
42.08048849858749
 51
137.9195115014125
  0
ARC
  5
2046E
330
2042E
100
AcDbEntity
  8
部品1
100
AcDbCircle
 10
-3214.272493250546
 20
1147.672154390937
 30
0.0
 40
23.33946124318486
100
AcDbArc
 50
64.63020194521586
 51
115.3697980547841
  0
LINE
  5
2046F
330
2042E
100
AcDbEntity
  8
部品1
100
AcDbLine
 10
-3221.272493250546
 20
1201.013683635414
 30
0.0
 11
-3207.272493250547
 21
1201.013683635414
 31
0.0
  0
LINE
  5
20470
330
2042E
100
AcDbEntity
  8
部品1
100
AcDbLine
 10
-3219.272493250546
 20
1192.760787611754
 30
0.0
 11
-3219.272493250546
 21
1201.013683635414
 31
0.0
  0
LINE
  5
20471
330
2042E
100
AcDbEntity
  8
部品1
100
AcDbLine
 10
-3209.272493250546
 20
1192.760787611754
 30
0.0
 11
-3209.272493250546
 21
1201.013683635414
 31
0.0
  0
LINE
  5
20472
330
2042E
100
AcDbEntity
  8
部品1
100
AcDbLine
 10
-3224.272493250546
 20
1140.760787611754
 30
0.0
 11
-3224.272493250546
 21
1105.360787611753
 31
0.0
  0
LINE
  5
20473
330
2042E
100
AcDbEntity
  8
部品1
100
AcDbLine
 10
-3204.272493250547
 20
1140.760787611754
 30
0.0
 11
-3204.272493250547
 21
1105.360787611753
 31
0.0
  0
LINE
  5
20474
330
2042E
100
AcDbEntity
  8
部品1
100
AcDbLine
 10
-3216.182993884084
 20
1105.360787611753
 30
0.0
 11
-3212.361992617009
 21
1105.360787611753
 31
0.0
  0
LINE
  5
20475
330
2042E
100
AcDbEntity
  8
部品1
100
AcDbLine
 10
-3227.602365097804
 20
1083.161641963379
 30
0.0
 11
-3219.690874274859
 21
1081.97491833994
 31
0.0
  0
LINE
  5
20476
330
2042E
100
AcDbEntity
  8
部品1
100
AcDbLine
 10
-3226.712322380221
 20
1089.09526008059
 30
0.0
 11
-3218.800831557279
 21
1087.908536457151
 31
0.0
  0
LINE
  5
20477
330
2042E
100
AcDbEntity
  8
部品1
100
AcDbLine
 10
-3225.822279662645
 20
1095.028878197801
 30
0.0
 11
-3217.910788839699
 21
1093.842154574358
 31
0.0
  0
LINE
  5
20478
330
2042E
100
AcDbEntity
  8
部品1
100
AcDbLine
 10
-3224.932236945062
 20
1100.962496315009
 30
0.0
 11
-3217.020746122116
 21
1099.775772691566
 31
0.0
  0
LINE
  5
20479
330
2042E
100
AcDbEntity
  8
部品1
100
AcDbLine
 10
-3208.854112226234
 20
1081.97491833994
 30
0.0
 11
-3200.942621403289
 21
1083.161641963379
 31
0.0
  0
LINE
  5
2047A
330
2042E
100
AcDbEntity
  8
部品1
100
AcDbLine
 10
-3209.74415494381
 20
1087.908536457151
 30
0.0
 11
-3201.832664120864
 21
1089.09526008059
 31
0.0
  0
LINE
  5
2047B
330
2042E
100
AcDbEntity
  8
部品1
100
AcDbLine
 10
-3210.634197661394
 20
1093.842154574358
 30
0.0
 11
-3202.722706838448
 21
1095.028878197801
 31
0.0
  0
LINE
  5
2047C
330
2042E
100
AcDbEntity
  8
部品1
100
AcDbLine
 10
-3211.524240378976
 20
1099.775772691566
 30
0.0
 11
-3203.612749556031
 21
1100.962496315009
 31
0.0
  0
LINE
  5
2047D
330
2042E
100
AcDbEntity
  8
部品1
100
AcDbLine
 10
-3221.272493250546
 20
1201.013683635414
 30
0.0
 11
-3221.272493250546
 21
1205.013683635414
 31
0.0
  0
LINE
  5
2047E
330
2042E
100
AcDbEntity
  8
部品1
100
AcDbLine
 10
-3207.272493250547
 20
1201.013683635414
 30
0.0
 11
-3207.272493250547
 21
1205.013683635414
 31
0.0
  0
LINE
  5
2047F
330
2042E
100
AcDbEntity
  8
部品1
100
AcDbLine
 10
-3229.272493250546
 20
1171.760787611754
 30
0.0
 11
-3199.272493250547
 21
1171.760787611754
 31
0.0
  0
LINE
  5
20480
330
2042E
100
AcDbEntity
  8
部品1
100
AcDbLine
 10
-3199.272493250547
 20
1173.160787611752
 30
0.0
 11
-3199.272493250547
 21
1171.760787611754
 31
0.0
  0
LINE
  5
20481
330
2042E
100
AcDbEntity
  8
部品1
100
AcDbLine
 10
-3229.272493250546
 20
1173.160787611756
 30
0.0
 11
-3229.272493250546
 21
1171.760787611751
 31
0.0
  0
LINE
  5
20482
330
2042E
100
AcDbEntity
  8
部品1
100
AcDbLine
 10
-3229.272493250546
 20
1173.160787611756
 30
0.0
 11
-3224.272493250546
 21
1173.160787611756
 31
0.0
  0
LINE
  5
20483
330
2042E
100
AcDbEntity
  8
部品1
100
AcDbLine
 10
-3199.272493250547
 20
1213.160787611752
 30
0.0
 11
-3199.272493250547
 21
1207.160787611752
 31
0.0
  0
LINE
  5
20484
330
2042E
100
AcDbEntity
  8
部品1
100
AcDbLine
 10
-3229.272493250546
 20
1213.160787611756
 30
0.0
 11
-3229.272493250546
 21
1207.160787611756
 31
0.0
  0
LINE
  5
20485
330
2042E
100
AcDbEntity
  8
部品1
100
AcDbLine
 10
-3229.272493250546
 20
1213.160787611756
 30
0.0
 11
-3199.272493250547
 21
1213.160787611756
 31
0.0
  0
LINE
  5
20486
330
2042E
100
AcDbEntity
  8
部品1
100
AcDbLine
 10
-3229.272493250546
 20
1207.160787611756
 30
0.0
 11
-3199.272493250547
 21
1207.160787611756
 31
0.0
  0
LINE
  5
20487
330
2042E
100
AcDbEntity
  8
部品1
100
AcDbLine
 10
-3284.272493250546
 20
1152.760787611754
 30
0.0
 11
-3284.272493250546
 21
1140.760787611754
 31
0.0
  0
LINE
  5
20488
330
2042E
100
AcDbEntity
  8
部品1
100
AcDbLine
 10
-3230.272493250546
 20
1065.360787611753
 30
0.0
 11
-3222.361002427601
 21
1064.174063988313
 31
0.0
  0
LINE
  5
20489
330
2042E
100
AcDbEntity
  8
部品1
100
AcDbLine
 10
-3206.183984073492
 20
1064.174063988313
 30
0.0
 11
-3198.272493250546
 21
1065.360787611753
 31
0.0
  0
LINE
  5
2048A
330
2042E
100
AcDbEntity
  8
部品1
100
AcDbLine
 10
-3229.382450532963
 20
1071.294405728964
 30
0.0
 11
-3221.470959710018
 21
1070.107682105521
 31
0.0
  0
LINE
  5
2048B
330
2042E
100
AcDbEntity
  8
部品1
100
AcDbLine
 10
-3228.492407815387
 20
1077.228023846172
 30
0.0
 11
-3220.580916992441
 21
1076.041300222729
 31
0.0
  0
LINE
  5
2048C
330
2042E
100
AcDbEntity
  8
部品1
100
AcDbLine
 10
-3207.074026791075
 20
1070.107682105521
 30
0.0
 11
-3199.162535968126
 21
1071.294405728964
 31
0.0
  0
LINE
  5
2048D
330
2042E
100
AcDbEntity
  8
部品1
100
AcDbLine
 10
-3207.964069508651
 20
1076.041300222729
 30
0.0
 11
-3200.052578685705
 21
1077.228023846172
 31
0.0
  0
LINE
  5
2048E
330
2042E
100
AcDbEntity
  8
部品1
100
AcDbLine
 10
-3224.272493250546
 20
1105.360787611753
 30
0.0
 11
-3230.272493250546
 21
1065.360787611753
 31
0.0
  0
LINE
  5
2048F
330
2042E
100
AcDbEntity
  8
部品1
100
AcDbLine
 10
-3198.272493250546
 20
1065.360787611753
 30
0.0
 11
-3204.272493250547
 21
1105.360787611753
 31
0.0
  0
LINE
  5
20490
330
2042E
100
AcDbEntity
  8
部品1
100
AcDbLine
 10
-3216.182993884084
 20
1105.360787611753
 30
0.0
 11
-3222.361002427601
 21
1064.174063988313
 31
0.0
  0
LINE
  5
20491
330
2042E
100
AcDbEntity
  8
部品1
100
AcDbLine
 10
-3206.183984073492
 20
1064.174063988313
 30
0.0
 11
-3212.361992617009
 21
1105.360787611753
 31
0.0
  0
LINE
  5
20492
330
2042E
100
AcDbEntity
  8
部品1
100
AcDbLine
 10
-3284.272493250546
 20
1140.760787611754
 30
0.0
 11
-3144.272493250547
 21
1140.760787611754
 31
0.0
  0
LINE
  5
20493
330
2042E
100
AcDbEntity
  8
部品1
100
AcDbLine
 10
-3284.272493250546
 20
1152.760787611754
 30
0.0
 11
-3144.272493250547
 21
1152.760787611754
 31
0.0
  0
LINE
  5
20494
330
2042E
100
AcDbEntity
  8
部品1
100
AcDbLine
 10
-3173.375724242474
 20
1437.751248310655
 30
0.0
 11
-3144.272493250547
 21
1152.760787611754
 31
0.0
  0
LINE
  5
20495
330
2042E
100
AcDbEntity
  8
部品1
100
AcDbLine
 10
-3255.169262258615
 20
1437.751248310655
 30
0.0
 11
-3284.272493250546
 21
1152.760787611754
 31
0.0
  0
DIMENSION
  5
20496
330
2042E
100
AcDbEntity
  8
寸法
 48
50.0
100
AcDbDimension
  2
*D43
 10
-2971.525847623762
 20
1140.760787611754
 30
0.0
 11
-3071.525847623762
 21
1290.760787611756
 31
0.0
 12
-13107.2
 22
0.0000000000000729
 32
0.0
  1
c
 71
     5
 42
300.0
  3
INABA_S40G
100
AcDbAlignedDimension
 13
-3174.161401340878
 23
1440.760787611754
 33
0.0
 14
-3144.272493250547
 24
1140.760787611754
 34
0.0
 50
90.0
100
AcDbRotatedDimension
1001
ACAD
1000
DSTYLE
1002
{
1070
   174
1070
     0
1070
   272
1070
     1
1070
   288
1070
     0
1070
   341
1005
0
1002
}
  0
LINE
  5
20497
330
2042E
100
AcDbEntity
  8
細線
 48
10.0
100
AcDbLine
 10
-3186.707734959642
 20
833.8425902724704
 30
0.0
 11
-2879.789537620369
 21
1140.760787611754
 31
0.0
  0
LINE
  5
20498
330
2042E
100
AcDbEntity
  8
細線
 48
10.0
100
AcDbLine
 10
-3158.423463712183
 20
833.8425902724704
 30
0.0
 11
-2851.505266372909
 21
1140.760787611754
 31
0.0
  0
LINE
  5
20499
330
2042E
100
AcDbEntity
  8
細線
 48
10.0
100
AcDbLine
 10
-3130.139192464725
 20
833.8425902724704
 30
0.0
 11
-2823.220995125442
 21
1140.760787611756
 31
0.0
  0
LINE
  5
2049A
330
2042E
100
AcDbEntity
  8
細線
100
AcDbLine
 10
-3488.244230558348
 20
1140.760787611754
 30
0.0
 11
-3574.272493250546
 21
1226.789050303954
 31
0.0
  0
LINE
  5
2049B
330
2042E
100
AcDbEntity
  8
細線
100
AcDbLine
 10
-3445.817823687156
 20
1140.760787611754
 30
0.0
 11
-3574.272493250546
 21
1269.215457175147
 31
0.0
  0
LINE
  5
2049C
330
2042E
100
AcDbEntity
  8
部品1
100
AcDbLine
 10
-3574.272493250546
 20
1140.760787611751
 30
0.0
 11
-3574.272493250546
 21
1440.760787611754
 31
0.0
  0
LINE
  5
2049D
330
2042E
100
AcDbEntity
  8
細線
 48
10.0
100
AcDbLine
 10
-3797.069890049254
 20
1076.797212888527
 30
0.0
 11
-3733.106315326028
 21
1140.760787611754
 31
0.0
  0
LINE
  5
2049E
330
2042E
100
AcDbEntity
  8
細線
 48
10.0
100
AcDbLine
 10
-3797.069890049252
 20
1048.512941641072
 30
0.0
 11
-3704.822044078575
 21
1140.760787611754
 31
0.0
  0
LINE
  5
2049F
330
2042E
100
AcDbEntity
  8
細線
 48
10.0
100
AcDbLine
 10
-3797.069890049255
 20
1020.228670393613
 30
0.0
 11
-3676.537772831124
 21
1140.760787611754
 31
0.0
  0
LINE
  5
204A0
330
2042E
100
AcDbEntity
  8
細線
 48
10.0
100
AcDbLine
 10
-3556.797581317542
 20
833.8425902724704
 30
0.0
 11
-3249.879383978283
 21
1140.760787611754
 31
0.0
  0
LINE
  5
204A1
330
2042E
100
AcDbEntity
  8
細線
 48
10.0
100
AcDbLine
 10
-3585.081852565007
 20
833.8425902724704
 30
0.0
 11
-3278.163655225736
 21
1140.760787611754
 31
0.0
  0
LINE
  5
204A2
330
2042E
100
AcDbEntity
  8
細線
 48
10.0
100
AcDbLine
 10
-3613.366123812465
 20
833.8425902724704
 30
0.0
 11
-3306.447926473191
 21
1140.760787611756
 31
0.0
  0
LINE
  5
204A3
330
2042E
100
AcDbEntity
  8
細線
100
AcDbLine
 10
-3279.386754893627
 20
1200.603888797927
 30
0.0
 11
-3519.543653707458
 21
1440.760787611754
 31
0.0
  0
LINE
  5
204A4
330
2042E
100
AcDbEntity
  8
細線
100
AcDbLine
 10
-3283.317892487265
 20
1162.10861952037
 30
0.0
 11
-3561.970060578651
 21
1440.760787611754
 31
0.0
  0
LINE
  5
204A5
330
2042E
100
AcDbEntity
  8
部品1
100
AcDbLine
 10
-3797.069890049254
 20
1534.760787611756
 30
0.0
 11
-3254.272493250543
 21
1534.760787611756
 31
0.0
  0
LINE
  5
204A6
330
2042E
100
AcDbEntity
  8
部品1
100
AcDbLine
 10
-3797.069890049254
 20
1540.760787611756
 30
0.0
 11
-3284.272493250543
 21
1540.760787611756
 31
0.0
  0
LINE
  5
204A7
330
2042E
100
AcDbEntity
  8
部品1
100
AcDbLine
 10
-3797.069890049254
 20
1440.760787611754
 30
0.0
 11
-3254.383585160211
 21
1440.760787611756
 31
0.0
  0
TEXT
  5
204A8
330
2042E
100
AcDbEntity
  8
部品1
100
AcDbText
 10
-4310.115894695153
 20
1148.666829290658
 30
0.0
 40
120.0
  1
▽G.L
  7
STYLE1
100
AcDbText
  0
LINE
  5
204A9
330
2042E
100
AcDbEntity
  8
細線
 48
10.0
100
AcDbLine
 10
-4389.095116627781
 20
833.8425902724704
 30
0.0
 11
-4082.176919288506
 21
1140.760787611754
 31
0.0
  0
LINE
  5
204AA
330
2042E
100
AcDbEntity
  8
細線
 48
10.0
100
AcDbLine
 10
-4360.81084538032
 20
833.8425902724704
 30
0.0
 11
-4053.892648041046
 21
1140.760787611754
 31
0.0
  0
LINE
  5
204AB
330
2042E
100
AcDbEntity
  8
細線
 48
10.0
100
AcDbLine
 10
-4332.526574132856
 20
833.8425902724704
 30
0.0
 11
-4025.60837679358
 21
1140.760787611754
 31
0.0
  0
LINE
  5
204AC
330
2042E
100
AcDbEntity
  8
細線
100
AcDbLine
 10
-4709.605097963527
 20
1360.760787611751
 30
0.0
 11
-4709.605097963527
 21
1354.760787611751
 31
0.0
  0
LINE
  5
204AD
330
2042E
100
AcDbEntity
  8
細線
100
AcDbLine
 10
-4739.605097963528
 20
1360.760787611756
 30
0.0
 11
-4739.605097963528
 21
1354.760787611756
 31
0.0
  0
LINE
  5
204AE
330
2042E
100
AcDbEntity
  8
細線
100
AcDbLine
 10
-4739.605097963528
 20
1354.760787611756
 30
0.0
 11
-4709.605097963527
 21
1354.760787611756
 31
0.0
  0
ARC
  5
204AF
330
2042E
100
AcDbEntity
  8
部品1
100
AcDbCircle
 10
-4693.659157443772
 20
1436.760787611753
 30
0.0
 40
10.0
100
AcDbArc
 50
5.684241598185932
 51
90.0
  0
LINE
  5
204B0
330
2042E
100
AcDbEntity
  8
部品1
100
AcDbLine
 10
-4755.551038483283
 20
1446.760787611754
 30
0.0
 11
-4693.659157443772
 21
1446.760787611752
 31
0.0
  0
ARC
  5
204B1
330
2042E
100
AcDbEntity
  8
細線
100
AcDbCircle
 10
-4724.605097963528
 20
1424.760787611752
 30
0.0
 40
8.0
100
AcDbArc
 50
0.0
 51
180.0
  0
LINE
  5
204B2
330
2042E
100
AcDbEntity
  8
細線
100
AcDbLine
 10
-4716.605097963527
 20
1424.760787611752
 30
0.0
 11
-4716.605097963527
 21
1398.617194072307
 31
0.0
  0
LINE
  5
204B3
330
2042E
100
AcDbEntity
  8
細線
100
AcDbLine
 10
-4732.605097963527
 20
1424.760787611752
 30
0.0
 11
-4732.605097963527
 21
1398.617194072307
 31
0.0
  0
LINE
  5
204B4
330
2042E
100
AcDbEntity
  8
細線
100
AcDbLine
 10
-4739.605097963528
 20
1360.760787611756
 30
0.0
 11
-4709.605097963527
 21
1360.760787611756
 31
0.0
  0
CIRCLE
  5
204B5
330
2042E
100
AcDbEntity
  8
部品1
100
AcDbCircle
 10
-4724.605097963528
 20
1384.760787611754
 30
0.0
 40
16.0
  0
ARC
  5
204B6
330
2042E
100
AcDbEntity
  8
部品1
100
AcDbCircle
 10
-4755.551038483283
 20
1436.760787611756
 30
0.0
 40
10.0
100
AcDbArc
 50
90.0
 51
174.315758401814
  0
LINE
  5
204B7
330
2042E
100
AcDbEntity
  8
部品1
100
AcDbLine
 10
-4721.856845091958
 20
1099.775772691568
 30
0.0
 11
-4713.945354269012
 21
1100.962496315011
 31
0.0
  0
LINE
  5
204B8
330
2042E
100
AcDbEntity
  8
部品1
100
AcDbLine
 10
-4720.966802374374
 20
1093.842154574358
 30
0.0
 11
-4713.055311551428
 21
1095.028878197801
 31
0.0
  0
LINE
  5
204B9
330
2042E
100
AcDbEntity
  8
部品1
100
AcDbLine
 10
-4720.076759656791
 20
1087.908536457153
 30
0.0
 11
-4712.165268833845
 21
1089.095260080592
 31
0.0
  0
LINE
  5
204BA
330
2042E
100
AcDbEntity
  8
部品1
100
AcDbLine
 10
-4719.186716939215
 20
1081.97491833994
 30
0.0
 11
-4711.27522611627
 21
1083.161641963381
 31
0.0
  0
LINE
  5
204BB
330
2042E
100
AcDbEntity
  8
部品1
100
AcDbLine
 10
-4718.296674221632
 20
1076.04130022273
 30
0.0
 11
-4710.385183398686
 21
1077.228023846173
 31
0.0
  0
LINE
  5
204BC
330
2042E
100
AcDbEntity
  8
部品1
100
AcDbLine
 10
-4717.406631504056
 20
1070.107682105521
 30
0.0
 11
-4709.495140681103
 21
1071.294405728964
 31
0.0
  0
LINE
  5
204BD
330
2042E
100
AcDbEntity
  8
部品1
100
AcDbLine
 10
-4735.264841658043
 20
1100.962496315011
 30
0.0
 11
-4727.353350835097
 21
1099.775772691568
 31
0.0
  0
LINE
  5
204BE
330
2042E
100
AcDbEntity
  8
部品1
100
AcDbLine
 10
-4736.154884375626
 20
1095.028878197801
 30
0.0
 11
-4728.24339355268
 21
1093.842154574358
 31
0.0
  0
LINE
  5
204BF
330
2042E
100
AcDbEntity
  8
部品1
100
AcDbLine
 10
-4737.044927093202
 20
1089.095260080592
 30
0.0
 11
-4729.133436270256
 21
1087.908536457153
 31
0.0
  0
LINE
  5
204C0
330
2042E
100
AcDbEntity
  8
部品1
100
AcDbLine
 10
-4737.934969810785
 20
1083.161641963381
 30
0.0
 11
-4730.023478987839
 21
1081.97491833994
 31
0.0
  0
LINE
  5
204C1
330
2042E
100
AcDbEntity
  8
部品1
100
AcDbLine
 10
-4738.825012528368
 20
1077.228023846173
 30
0.0
 11
-4730.913521705423
 21
1076.04130022273
 31
0.0
  0
LINE
  5
204C2
330
2042E
100
AcDbEntity
  8
部品1
100
AcDbLine
 10
-4739.715055245944
 20
1071.294405728964
 30
0.0
 11
-4731.803564422999
 21
1070.107682105521
 31
0.0
  0
LINE
  5
204C3
330
2042E
100
AcDbEntity
  8
部品1
100
AcDbLine
 10
-4716.516588786473
 20
1064.174063988315
 30
0.0
 11
-4708.605097963527
 21
1065.360787611755
 31
0.0
  0
LINE
  5
204C4
330
2042E
100
AcDbEntity
  8
部品1
100
AcDbLine
 10
-4740.605097963527
 20
1065.360787611755
 30
0.0
 11
-4732.693607140581
 21
1064.174063988315
 31
0.0
  0
LINE
  5
204C5
330
2042E
100
AcDbEntity
  8
部品1
100
AcDbLine
 10
-4716.516588786473
 20
1064.174063988315
 30
0.0
 11
-4722.694597329989
 21
1105.360787611755
 31
0.0
  0
LINE
  5
204C6
330
2042E
100
AcDbEntity
  8
部品1
100
AcDbLine
 10
-4726.515598597065
 20
1105.360787611755
 30
0.0
 11
-4732.693607140581
 21
1064.174063988315
 31
0.0
  0
LINE
  5
204C7
330
2042E
100
AcDbEntity
  8
部品1
100
AcDbLine
 10
-4708.605097963527
 20
1065.360787611755
 30
0.0
 11
-4714.605097963527
 21
1105.360787611755
 31
0.0
  0
LINE
  5
204C8
330
2042E
100
AcDbEntity
  8
部品1
100
AcDbLine
 10
-4734.605097963527
 20
1105.360787611755
 30
0.0
 11
-4740.605097963527
 21
1065.360787611755
 31
0.0
  0
LINE
  5
204C9
330
2042E
100
AcDbEntity
  8
部品1
100
AcDbLine
 10
-4726.515598597065
 20
1105.360787611755
 30
0.0
 11
-4722.694597329989
 21
1105.360787611755
 31
0.0
  0
LINE
  5
204CA
330
2042E
100
AcDbEntity
  8
部品1
100
AcDbLine
 10
-4714.605097963527
 20
1140.760787611754
 30
0.0
 11
-4714.605097963527
 21
1105.360787611755
 31
0.0
  0
LINE
  5
204CB
330
2042E
100
AcDbEntity
  8
部品1
100
AcDbLine
 10
-4734.605097963527
 20
1140.760787611754
 30
0.0
 11
-4734.605097963527
 21
1105.360787611755
 31
0.0
  0
LINE
  5
204CC
330
2042E
100
AcDbEntity
  8
部品1
100
AcDbLine
 10
-4731.605097963528
 20
1201.013683635416
 30
0.0
 11
-4717.605097963527
 21
1201.013683635416
 31
0.0
  0
LINE
  5
204CD
330
2042E
100
AcDbEntity
  8
部品1
100
AcDbLine
 10
-4717.605097963527
 20
1201.013683635416
 30
0.0
 11
-4717.605097963527
 21
1205.013683635416
 31
0.0
  0
LINE
  5
204CE
330
2042E
100
AcDbEntity
  8
部品1
100
AcDbLine
 10
-4731.605097963528
 20
1201.013683635416
 30
0.0
 11
-4731.605097963528
 21
1205.013683635416
 31
0.0
  0
LINE
  5
204CF
330
2042E
100
AcDbEntity
  8
部品1
100
AcDbLine
 10
-4719.605097963527
 20
1192.760787611756
 30
0.0
 11
-4719.605097963527
 21
1201.013683635416
 31
0.0
  0
LINE
  5
204D0
330
2042E
100
AcDbEntity
  8
部品1
100
AcDbLine
 10
-4729.605097963527
 20
1192.760787611756
 30
0.0
 11
-4729.605097963527
 21
1201.013683635416
 31
0.0
  0
LINE
  5
204D1
330
2042E
100
AcDbEntity
  8
部品1
100
AcDbLine
 10
-4731.605097963528
 20
1205.013683635416
 30
0.0
 11
-4717.605097963527
 21
1205.013683635416
 31
0.0
  0
ARC
  5
204D2
330
2042E
100
AcDbEntity
  8
部品1
100
AcDbCircle
 10
-4724.605097963528
 20
1147.672154390937
 30
0.0
 40
23.33946124318486
100
AcDbArc
 50
64.63020194521586
 51
115.3697980547841
  0
ARC
  5
204D3
330
2042E
100
AcDbEntity
  8
部品1
100
AcDbCircle
 10
-4709.605097963527
 20
1164.246032821438
 30
0.0
 40
6.736691384996243
100
AcDbArc
 50
42.08048849858749
 51
137.9195115014125
  0
ARC
  5
204D4
330
2042E
100
AcDbEntity
  8
部品1
100
AcDbCircle
 10
-4739.605097963528
 20
1164.246032821438
 30
0.0
 40
6.736691384996243
100
AcDbArc
 50
42.08048849858749
 51
137.9195115014125
  0
LINE
  5
204D5
330
2042E
100
AcDbEntity
  8
部品1
100
AcDbLine
 10
-4744.605097963527
 20
1168.760787611756
 30
0.0
 11
-4704.605097963527
 21
1168.760787611756
 31
0.0
  0
LINE
  5
204D6
330
2042E
100
AcDbEntity
  8
部品1
100
AcDbLine
 10
-4714.605097963527
 20
1173.160787611758
 30
0.0
 11
-4709.605097963527
 21
1173.160787611758
 31
0.0
  0
LINE
  5
204D7
330
2042E
100
AcDbEntity
  8
部品1
100
AcDbLine
 10
-4694.605097963527
 20
1152.760787611754
 30
0.0
 11
-4694.605097963527
 21
1155.760787611763
 31
0.0
  0
LINE
  5
204D8
330
2042E
100
AcDbEntity
  8
部品1
100
AcDbLine
 10
-4754.605097963527
 20
1152.760787611754
 30
0.0
 11
-4754.605097963527
 21
1155.760787611754
 31
0.0
  0
LINE
  5
204D9
330
2042E
100
AcDbEntity
  8
部品1
100
AcDbLine
 10
-4707.605097963527
 20
1171.760787611756
 30
0.0
 11
-4704.605097963527
 21
1168.760787611756
 31
0.0
  0
LINE
  5
204DA
330
2042E
100
AcDbEntity
  8
部品1
100
AcDbLine
 10
-4741.605097963527
 20
1171.760787611756
 30
0.0
 11
-4744.605097963527
 21
1168.760787611756
 31
0.0
  0
LINE
  5
204DB
330
2042E
100
AcDbEntity
  8
部品1
100
AcDbLine
 10
-4704.605097963527
 20
1155.76078761176
 30
0.0
 11
-4704.605097963527
 21
1168.760787611756
 31
0.0
  0
LINE
  5
204DC
330
2042E
100
AcDbEntity
  8
部品1
100
AcDbLine
 10
-4744.605097963527
 20
1155.760787611754
 30
0.0
 11
-4744.605097963527
 21
1168.760787611756
 31
0.0
  0
LINE
  5
204DD
330
2042E
100
AcDbEntity
  8
部品1
100
AcDbLine
 10
-4741.605097963527
 20
1171.760787611756
 30
0.0
 11
-4707.605097963527
 21
1171.760787611756
 31
0.0
  0
LINE
  5
204DE
330
2042E
100
AcDbEntity
  8
部品1
100
AcDbLine
 10
-4714.605097963527
 20
1155.760787611754
 30
0.0
 11
-4714.605097963527
 21
1192.760787611756
 31
0.0
  0
LINE
  5
204DF
330
2042E
100
AcDbEntity
  8
部品1
100
AcDbLine
 10
-4734.605097963527
 20
1155.760787611754
 30
0.0
 11
-4734.605097963527
 21
1192.760787611756
 31
0.0
  0
LINE
  5
204E0
330
2042E
100
AcDbEntity
  8
部品1
100
AcDbLine
 10
-4734.605097963527
 20
1192.760787611756
 30
0.0
 11
-4714.605097963527
 21
1192.760787611756
 31
0.0
  0
LINE
  5
204E1
330
2042E
100
AcDbEntity
  8
部品1
100
AcDbLine
 10
-4754.605097963527
 20
1155.760787611754
 30
0.0
 11
-4694.605097963527
 21
1155.76078761176
 31
0.0
  0
LINE
  5
204E2
330
2042E
100
AcDbEntity
  8
部品1
100
AcDbLine
 10
-4709.605097963527
 20
1173.160787611752
 30
0.0
 11
-4709.605097963527
 21
1171.760787611756
 31
0.0
  0
LINE
  5
204E3
330
2042E
100
AcDbEntity
  8
部品1
100
AcDbLine
 10
-4709.605097963527
 20
1213.160787611754
 30
0.0
 11
-4709.605097963527
 21
1207.160787611754
 31
0.0
  0
LINE
  5
204E4
330
2042E
100
AcDbEntity
  8
部品1
100
AcDbLine
 10
-4654.605097963528
 20
1152.760787611754
 30
0.0
 11
-4654.605097963528
 21
1140.760787611754
 31
0.0
  0
LINE
  5
204E5
330
2042E
100
AcDbEntity
  8
部品1
100
AcDbLine
 10
-4739.605097963528
 20
1173.160787611758
 30
0.0
 11
-4739.605097963528
 21
1171.760787611756
 31
0.0
  0
LINE
  5
204E6
330
2042E
100
AcDbEntity
  8
部品1
100
AcDbLine
 10
-4739.605097963528
 20
1213.160787611758
 30
0.0
 11
-4739.605097963528
 21
1207.160787611758
 31
0.0
  0
LINE
  5
204E7
330
2042E
100
AcDbEntity
  8
部品1
100
AcDbLine
 10
-4739.605097963528
 20
1173.160787611758
 30
0.0
 11
-4734.605097963527
 21
1173.160787611758
 31
0.0
  0
LINE
  5
204E8
330
2042E
100
AcDbEntity
  8
部品1
100
AcDbLine
 10
-4739.605097963528
 20
1213.160787611758
 30
0.0
 11
-4709.605097963527
 21
1213.160787611758
 31
0.0
  0
LINE
  5
204E9
330
2042E
100
AcDbEntity
  8
部品1
100
AcDbLine
 10
-4739.605097963528
 20
1207.160787611758
 30
0.0
 11
-4709.605097963527
 21
1207.160787611758
 31
0.0
  0
LINE
  5
204EA
330
2042E
100
AcDbEntity
  8
部品1
100
AcDbLine
 10
-4794.605097963527
 20
1152.760787611754
 30
0.0
 11
-4794.605097963527
 21
1140.760787611754
 31
0.0
  0
LINE
  5
204EB
330
2042E
100
AcDbEntity
  8
部品1
100
AcDbLine
 10
-4794.605097963527
 20
1140.760787611754
 30
0.0
 11
-4654.605097963528
 21
1140.760787611754
 31
0.0
  0
LINE
  5
204EC
330
2042E
100
AcDbEntity
  8
部品1
100
AcDbLine
 10
-4794.605097963527
 20
1152.760787611754
 30
0.0
 11
-4654.605097963528
 21
1152.760787611754
 31
0.0
  0
LINE
  5
204ED
330
2042E
100
AcDbEntity
  8
部品1
100
AcDbLine
 10
-4765.501866971596
 20
1437.751248310656
 30
0.0
 11
-4794.605097963527
 21
1152.760787611754
 31
0.0
  0
LINE
  5
204EE
330
2042E
100
AcDbEntity
  8
部品1
100
AcDbLine
 10
-4683.708328955452
 20
1437.751248310656
 30
0.0
 11
-4654.605097963528
 21
1152.760787611754
 31
0.0
  0
LINE
  5
204EF
330
2042E
100
AcDbEntity
  8
細線
100
AcDbLine
 10
-4789.719359606608
 20
1200.603888797927
 30
0.0
 11
-4929.876258420439
 21
1340.760787611754
 31
0.0
  0
LINE
  5
204F0
330
2042E
100
AcDbEntity
  8
細線
100
AcDbLine
 10
-4793.650497200245
 20
1162.10861952037
 30
0.0
 11
-4972.302665291632
 21
1340.760787611754
 31
0.0
  0
LINE
  5
204F1
330
2042E
100
AcDbEntity
  8
細線
 48
10.0
100
AcDbLine
 10
-5399.859531207117
 20
1074.769071004164
 30
0.0
 11
-5333.867814599531
 21
1140.760787611754
 31
0.0
  0
LINE
  5
204F2
330
2042E
100
AcDbEntity
  8
細線
 48
10.0
100
AcDbLine
 10
-5399.859531207117
 20
1046.484799756705
 30
0.0
 11
-5305.583543352079
 21
1140.760787611754
 31
0.0
  0
LINE
  5
204F3
330
2042E
100
AcDbEntity
  8
細線
 48
10.0
100
AcDbLine
 10
-5399.859531207121
 20
1103.05334225162
 30
0.0
 11
-5362.152085846982
 21
1140.760787611754
 31
0.0
  0
LINE
  5
204F4
330
2042E
100
AcDbEntity
  8
部品1
100
AcDbLine
 10
-5084.605097963527
 20
1140.760787611754
 30
0.0
 11
-5084.605097963527
 21
1340.760787611756
 31
0.0
  0
LINE
  5
204F5
330
2042E
100
AcDbEntity
  8
細線
100
AcDbLine
 10
-4956.150428400136
 20
1140.760787611754
 30
0.0
 11
-5084.605097963527
 21
1269.215457175147
 31
0.0
  0
LINE
  5
204F6
330
2042E
100
AcDbEntity
  8
細線
100
AcDbLine
 10
-4998.576835271329
 20
1140.760787611754
 30
0.0
 11
-5084.605097963527
 21
1226.789050303954
 31
0.0
  0
LINE
  5
204F7
330
2042E
100
AcDbEntity
  8
部品1
100
AcDbLine
 10
-5399.859531207121
 20
1434.760787611758
 30
0.0
 11
-4765.807252872162
 21
1434.760787611758
 31
0.0
  0
LINE
  5
204F8
330
2042E
100
AcDbEntity
  8
部品1
100
AcDbLine
 10
-5399.859531207121
 20
1440.760787611758
 30
0.0
 11
-4794.605097963524
 21
1440.760787611756
 31
0.0
  0
LINE
  5
204F9
330
2042E
100
AcDbEntity
  8
部品1
100
AcDbLine
 10
-5399.859531207121
 20
1340.760787611756
 30
0.0
 11
-4775.406534569281
 21
1340.760787611756
 31
0.0
  0
LINE
  5
204FA
330
2042E
100
AcDbEntity
  8
細線
 48
10.0
100
AcDbLine
 10
-5185.843351838499
 20
833.8425902724704
 30
0.0
 11
-4878.925154499238
 21
1140.760787611754
 31
0.0
  0
LINE
  5
204FB
330
2042E
100
AcDbEntity
  8
細線
 48
10.0
100
AcDbLine
 10
-5242.411894333423
 20
833.8425902724704
 30
0.0
 11
-4935.493696994146
 21
1140.760787611754
 31
0.0
  0
LINE
  5
204FC
330
2042E
100
AcDbEntity
  8
細線
 48
10.0
100
AcDbLine
 10
-5214.127623085961
 20
833.8425902724704
 30
0.0
 11
-4907.209425746691
 21
1140.760787611754
 31
0.0
  0
LINE
  5
204FD
330
2042E
100
AcDbEntity
  8
Ｇ．Ｌ
100
AcDbLine
 10
-5399.859531207117
 20
1140.760787611754
 30
0.0
 11
-3935.824292442836
 21
1140.760787611754
 31
0.0
  0
DIMENSION
  5
204FE
330
2042E
100
AcDbEntity
  8
寸法
 48
50.0
100
AcDbDimension
  2
*D42
 10
-4451.841087395118
 20
1140.760787611754
 30
0.0
 11
-4551.841087395118
 21
1240.760787611757
 31
0.0
 12
-13107.2
 22
0.0000000000000729
 32
0.0
  1
b
 71
     5
 42
200.0000000000018
  3
INABA_S40G
100
AcDbAlignedDimension
 13
-4674.054334858017
 23
1340.760787611756
 33
0.0
 14
-4654.605097963528
 24
1140.760787611754
 34
0.0
 50
90.0
100
AcDbRotatedDimension
1001
ACAD
1000
DSTYLE
1002
{
1070
   174
1070
     0
1070
   272
1070
     1
1070
   288
1070
     0
1070
   341
1005
0
1002
}
  0
LINE
  5
204FF
330
2042E
100
AcDbEntity
  8
細線
 48
10.0
100
AcDbLine
 10
-4759.184962985677
 20
833.8425902724704
 30
0.0
 11
-4452.266765646398
 21
1140.760787611754
 31
0.0
  0
LINE
  5
20500
330
2042E
100
AcDbEntity
  8
細線
 48
10.0
100
AcDbLine
 10
-4815.753505480597
 20
833.8425902724704
 30
0.0
 11
-4508.835308141324
 21
1140.760787611754
 31
0.0
  0
LINE
  5
20501
330
2042E
100
AcDbEntity
  8
細線
 48
10.0
100
AcDbLine
 10
-4787.469234233138
 20
833.8425902724704
 30
0.0
 11
-4480.551036893865
 21
1140.760787611754
 31
0.0
  0
LINE
  5
20502
330
2042E
100
AcDbEntity
  8
部品1
 48
50.0
100
AcDbLine
 10
-3870.368301239827
 20
2120.0
 30
0.0
 11
-3870.368301239827
 21
200.0000000000001
 31
0.0
  0
LINE
  5
20503
330
2042E
100
AcDbEntity
  8
部品1
100
AcDbLine
 10
-4684.605097963523
 20
1940.760787611754
 30
0.0
 11
-4684.60509796352
 21
1441.006256599761
 31
0.0
  0
LINE
  5
20504
330
2042E
100
AcDbEntity
  8
細線
 48
50.0
100
AcDbLine
 10
-5229.605097963528
 20
1940.760787611754
 30
0.0
 11
-5229.605097963528
 21
1440.760787611756
 31
0.0
  0
LINE
  5
20505
330
2042E
100
AcDbEntity
  8
細線
 48
50.0
100
AcDbLine
 10
-5199.605097963527
 20
1940.760787611754
 30
0.0
 11
-5199.605097963527
 21
1440.760787611756
 31
0.0
  0
LINE
  5
20506
330
2042E
100
AcDbEntity
  8
細線
 48
50.0
100
AcDbLine
 10
-4949.605097963527
 20
1940.760787611754
 30
0.0
 11
-4949.605097963527
 21
1440.760787611756
 31
0.0
  0
LINE
  5
20507
330
2042E
100
AcDbEntity
  8
細線
 48
50.0
100
AcDbLine
 10
-4919.605097963527
 20
1940.760787611754
 30
0.0
 11
-4919.605097963527
 21
1440.760787611756
 31
0.0
  0
LINE
  5
20508
330
2042E
100
AcDbEntity
  8
部品1
100
AcDbLine
 10
-4794.605097963524
 20
1940.760787611754
 30
0.0
 11
-4794.60509796352
 21
1434.760787611758
 31
0.0
  0
LINE
  5
20509
330
2042E
100
AcDbEntity
  8
細線
 48
50.0
100
AcDbLine
 10
-3409.272493250546
 20
2040.760787611753
 30
0.0
 11
-3409.272493250546
 21
1540.760787611756
 31
0.0
  0
LINE
  5
2050A
330
2042E
100
AcDbEntity
  8
細線
 48
50.0
100
AcDbLine
 10
-3439.272493250547
 20
2040.760787611753
 30
0.0
 11
-3439.272493250547
 21
1540.760787611756
 31
0.0
  0
LINE
  5
2050B
330
2042E
100
AcDbEntity
  8
細線
 48
50.0
100
AcDbLine
 10
-3689.272493250547
 20
2040.760787611753
 30
0.0
 11
-3689.272493250547
 21
1540.760787611756
 31
0.0
  0
LINE
  5
2050C
330
2042E
100
AcDbEntity
  8
細線
 48
50.0
100
AcDbLine
 10
-3719.272493250546
 20
2040.760787611753
 30
0.0
 11
-3719.272493250546
 21
1540.760787611756
 31
0.0
  0
LINE
  5
2050D
330
2042E
100
AcDbEntity
  8
部品1
100
AcDbLine
 10
-3174.272493250543
 20
2040.760787611753
 30
0.0
 11
-3174.272493250539
 21
1541.006256599761
 31
0.0
  0
LINE
  5
2050E
330
2042E
100
AcDbEntity
  8
部品1
100
AcDbLine
 10
-3284.272493250543
 20
2040.760787611753
 30
0.0
 11
-3284.272493250539
 21
1534.760787611756
 31
0.0
  0
LINE
  5
2050F
330
2042E
100
AcDbEntity
  8
Ｇ．Ｌ
100
AcDbLine
 10
-3797.069890049254
 20
1140.760787611754
 30
0.0
 11
-2352.178188044107
 21
1140.760787611754
 31
0.0
  0
LINE
  5
20510
330
2042E
100
AcDbEntity
  8
細線
 48
10.0
100
AcDbLine
 10
-2760.049346106822
 20
833.8425902724704
 30
0.0
 11
-2453.131148767543
 21
1140.760787611754
 31
0.0
  0
LINE
  5
20511
330
2042E
100
AcDbEntity
  8
細線
 48
10.0
100
AcDbLine
 10
-2731.765074859364
 20
833.8425902724704
 30
0.0
 11
-2424.846877520091
 21
1140.760787611754
 31
0.0
  0
LINE
  5
20512
330
2042E
100
AcDbEntity
  8
細線
 48
10.0
100
AcDbLine
 10
-2703.480803611898
 20
833.8425902724704
 30
0.0
 11
-2396.562606272617
 21
1140.760787611754
 31
0.0
  0
TEXT
  5
20513
330
2042E
100
AcDbEntity
  8
部品1
100
AcDbText
 10
-2724.202258598757
 20
1148.666829290658
 30
0.0
 40
120.0
  1
▽G.L
  7
STYLE1
100
AcDbText
  0
TEXT
  5
20514
330
2042E
100
AcDbEntity
  8
部品1
100
AcDbText
 10
-6858.214939801257
 20
2178.285116341204
 30
0.0
 40
120.0
  1
地盤が土の場合
  7
STYLE2
100
AcDbText
  0
CIRCLE
  5
20515
330
2042E
100
AcDbEntity
  8
部品1
100
AcDbCircle
 10
-6327.660598976627
 20
1384.760787611754
 30
0.0
 40
16.0
  0
ARC
  5
20516
330
2042E
100
AcDbEntity
  8
部品1
100
AcDbCircle
 10
-6297.660598976626
 20
1404.760787611754
 30
0.0
 40
10.0
100
AcDbArc
 50
0.0
 51
90.0
  0
LINE
  5
20517
330
2042E
100
AcDbEntity
  8
細線
100
AcDbLine
 10
-6319.660598976627
 20
1354.760787611754
 30
0.0
 11
-6319.660598976627
 21
1314.760787611754
 31
0.0
  0
LINE
  5
20518
330
2042E
100
AcDbEntity
  8
細線
100
AcDbLine
 10
-6335.660598976627
 20
1354.760787611754
 30
0.0
 11
-6335.660598976627
 21
1314.760787611754
 31
0.0
  0
ARC
  5
20519
330
2042E
100
AcDbEntity
  8
細線
100
AcDbCircle
 10
-6327.660598976627
 20
1314.760787611754
 30
0.0
 40
8.0
100
AcDbArc
 50
180.0
 51
0.0
  0
ARC
  5
2051A
330
2042E
100
AcDbEntity
  8
細線
100
AcDbCircle
 10
-6327.660598976627
 20
1354.760787611754
 30
0.0
 40
8.0
100
AcDbArc
 50
0.0
 51
180.0
  0
ARC
  5
2051B
330
2042E
100
AcDbEntity
  8
部品1
100
AcDbCircle
 10
-6357.660598976627
 20
1404.760787611754
 30
0.0
 40
10.0
100
AcDbArc
 50
90.0
 51
180.0
  0
LINE
  5
2051C
330
2042E
100
AcDbEntity
  8
部品1
100
AcDbLine
 10
-6357.660598976627
 20
1414.760787611754
 30
0.0
 11
-6297.660598976626
 21
1414.760787611754
 31
0.0
  0
LINE
  5
2051D
330
2042E
100
AcDbEntity
  8
細線
100
AcDbLine
 10
-6335.660598976627
 20
1075.904381151204
 30
0.0
 11
-6335.660598976627
 21
1050.16078761175
 31
0.0
  0
LINE
  5
2051E
330
2042E
100
AcDbEntity
  8
細線
100
AcDbLine
 10
-6319.660598976627
 20
1075.904381151204
 30
0.0
 11
-6319.660598976627
 21
1050.16078761175
 31
0.0
  0
LINE
  5
2051F
330
2042E
100
AcDbEntity
  8
細線
100
AcDbLine
 10
-6313.660598976627
 20
1020.160787611756
 30
0.0
 11
-6312.660598976627
 21
1020.160787611752
 31
0.0
  0
LINE
  5
20520
330
2042E
100
AcDbEntity
  8
細線
100
AcDbLine
 10
-6312.660598976627
 20
1026.16078761175
 30
0.0
 11
-6312.660598976627
 21
1020.16078761175
 31
0.0
  0
ARC
  5
20521
330
2042E
100
AcDbEntity
  8
細線
100
AcDbCircle
 10
-6319.783704602241
 20
1012.160787611749
 30
0.0
 40
4.0
100
AcDbArc
 50
270.0
 51
345.9637565320445
  0
LINE
  5
20522
330
2042E
100
AcDbEntity
  8
細線
100
AcDbLine
 10
-6313.660598976627
 20
1020.16078761175
 30
0.0
 11
-6315.903134601665
 21
1011.190645111601
 31
0.0
  0
LINE
  5
20523
330
2042E
100
AcDbEntity
  8
細線
100
AcDbLine
 10
-6313.660598976627
 20
1024.760787611751
 30
0.0
 11
-6313.660598976627
 21
1020.160787611752
 31
0.0
  0
ARC
  5
20524
330
2042E
100
AcDbEntity
  8
細線
100
AcDbCircle
 10
-6335.537493351004
 20
1012.160787611747
 30
0.0
 40
4.0
100
AcDbArc
 50
194.0362434679555
 51
270.0
  0
LINE
  5
20525
330
2042E
100
AcDbEntity
  8
細線
100
AcDbLine
 10
-6341.660598976627
 20
1020.16078761175
 30
0.0
 11
-6339.418063351588
 21
1011.190645111601
 31
0.0
  0
LINE
  5
20526
330
2042E
100
AcDbEntity
  8
細線
100
AcDbLine
 10
-6341.660598976627
 20
1024.760787611749
 30
0.0
 11
-6341.660598976627
 21
1020.160787611752
 31
0.0
  0
LINE
  5
20527
330
2042E
100
AcDbEntity
  8
細線
100
AcDbLine
 10
-6335.537493351004
 20
1008.160787611745
 30
0.0
 11
-6319.783704602241
 21
1008.16078761175
 31
0.0
  0
LINE
  5
20528
330
2042E
100
AcDbEntity
  8
細線
100
AcDbLine
 10
-6342.660598976626
 20
1024.760787611749
 30
0.0
 11
-6312.660598976627
 21
1024.760787611754
 31
0.0
  0
LINE
  5
20529
330
2042E
100
AcDbEntity
  8
細線
100
AcDbLine
 10
-6342.660598976626
 20
1026.160787611756
 30
0.0
 11
-6342.660598976626
 21
1020.160787611752
 31
0.0
  0
ARC
  5
2052A
330
2042E
100
AcDbEntity
  8
細線
100
AcDbCircle
 10
-6327.660598976627
 20
1050.16078761175
 30
0.0
 40
8.0
100
AcDbArc
 50
180.0
 51
0.0
  0
LINE
  5
2052B
330
2042E
100
AcDbEntity
  8
細線
100
AcDbLine
 10
-6342.660598976626
 20
1026.160787611756
 30
0.0
 11
-6312.660598976627
 21
1026.160787611752
 31
0.0
  0
LINE
  5
2052C
330
2042E
100
AcDbEntity
  8
細線
100
AcDbLine
 10
-6342.660598976626
 20
1020.160787611756
 30
0.0
 11
-6341.660598976627
 21
1020.160787611756
 31
0.0
  0
CIRCLE
  5
2052D
330
2042E
100
AcDbEntity
  8
細線
100
AcDbCircle
 10
-6327.660598976627
 20
1089.760787611754
 30
0.0
 40
16.0
  0
CIRCLE
  5
2052E
330
2042E
100
AcDbEntity
  8
細線
100
AcDbCircle
 10
-6327.660598976627
 20
1244.760787611756
 30
0.0
 40
7.0
  0
CIRCLE
  5
2052F
330
2042E
100
AcDbEntity
  8
細線
100
AcDbCircle
 10
-6327.660598976627
 20
1244.760787611756
 30
0.0
 40
6.0
  0
ARC
  5
20530
330
2042E
100
AcDbEntity
  8
部品1
100
AcDbCircle
 10
-6296.71465845687
 20
1102.160787611748
 30
0.0
 40
10.0
100
AcDbArc
 50
5.684241598185932
 51
90.0
  0
LINE
  5
20531
330
2042E
100
AcDbEntity
  8
細線
  6
HIDDEN
 48
10.0
100
AcDbLine
 10
-6287.113153319738
 20
1104.955621972072
 30
0.0
 11
-6251.307987680057
 21
1140.760787611756
 31
0.0
  0
LINE
  5
20532
330
2042E
100
AcDbEntity
  8
細線
  6
HIDDEN
 48
10.0
100
AcDbLine
 10
-6287.660598976627
 20
1132.692447562642
 30
0.0
 11
-6279.592258927512
 21
1140.760787611754
 31
0.0
  0
ARC
  5
20533
330
2042E
100
AcDbEntity
  8
部品1
100
AcDbCircle
 10
-6358.606539496382
 20
1102.160787611752
 30
0.0
 40
10.0
100
AcDbArc
 50
90.0
 51
174.315758401814
  0
LINE
  5
20534
330
2042E
100
AcDbEntity
  8
部品1
100
AcDbLine
 10
-6358.606539496382
 20
1112.160787611754
 30
0.0
 11
-6296.71465845687
 21
1112.160787611748
 31
0.0
  0
LINE
  5
20535
330
2042E
100
AcDbEntity
  8
部品1
100
AcDbLine
 10
-6367.660598976627
 20
1404.760787611754
 30
0.0
 11
-6367.660598976627
 21
1106.406256599763
 31
0.0
  0
LINE
  5
20536
330
2042E
100
AcDbEntity
  8
部品1
100
AcDbLine
 10
-6287.660598976627
 20
1403.760787611754
 30
0.0
 11
-6287.660598976623
 21
1106.406256599763
 31
0.0
  0
LINE
  5
20537
330
2042E
100
AcDbEntity
  8
細線
100
AcDbLine
 10
-6367.660598976627
 20
1175.489627154842
 30
0.0
 11
-6532.931759433539
 21
1340.760787611754
 31
0.0
  0
LINE
  5
20538
330
2042E
100
AcDbEntity
  8
細線
100
AcDbLine
 10
-6601.632336284429
 20
1140.760787611754
 30
0.0
 11
-6687.660598976626
 21
1226.789050303954
 31
0.0
  0
LINE
  5
20539
330
2042E
100
AcDbEntity
  8
部品1
100
AcDbLine
 10
-6687.660598976626
 20
1140.760787611754
 30
0.0
 11
-6687.660598976626
 21
1340.760787611754
 31
0.0
  0
LINE
  5
2053A
330
2042E
100
AcDbEntity
  8
細線
100
AcDbLine
 10
-6375.358166304732
 20
1140.760787611754
 30
0.0
 11
-6575.358166304731
 21
1340.760787611754
 31
0.0
  0
LINE
  5
2053B
330
2042E
100
AcDbEntity
  8
細線
100
AcDbLine
 10
-6559.205929413235
 20
1140.760787611754
 30
0.0
 11
-6687.660598976626
 21
1269.215457175147
 31
0.0
  0
LINE
  5
2053C
330
2042E
100
AcDbEntity
  8
部品1
100
AcDbLine
 10
-6257.660598976627
 20
818.1607876117542
 30
0.0
 11
-6257.660598976627
 21
806.1607876117543
 31
0.0
  0
LINE
  5
2053D
330
2042E
100
AcDbEntity
  8
細線
100
AcDbLine
 10
-6312.660598976627
 20
876.1607876117487
 30
0.0
 11
-6312.660598976627
 21
870.1607876117488
 31
0.0
  0
LINE
  5
2053E
330
2042E
100
AcDbEntity
  8
細線
100
AcDbLine
 10
-6312.660598976627
 20
836.1607876117506
 30
0.0
 11
-6312.660598976627
 21
830.1607876117506
 31
0.0
  0
LINE
  5
2053F
330
2042E
100
AcDbEntity
  8
細線
100
AcDbLine
 10
-6342.660598976626
 20
876.1607876117578
 30
0.0
 11
-6342.660598976626
 21
870.1607876117524
 31
0.0
  0
LINE
  5
20540
330
2042E
100
AcDbEntity
  8
細線
100
AcDbLine
 10
-6342.660598976626
 20
836.160787611756
 30
0.0
 11
-6342.660598976626
 21
830.1607876117524
 31
0.0
  0
LINE
  5
20541
330
2042E
100
AcDbEntity
  8
細線
100
AcDbLine
 10
-6342.660598976626
 20
870.1607876117579
 30
0.0
 11
-6312.660598976627
 21
870.1607876117524
 31
0.0
  0
LINE
  5
20542
330
2042E
100
AcDbEntity
  8
細線
100
AcDbLine
 10
-6342.660598976626
 20
876.1607876117578
 30
0.0
 11
-6312.660598976627
 21
876.1607876117524
 31
0.0
  0
LINE
  5
20543
330
2042E
100
AcDbEntity
  8
細線
100
AcDbLine
 10
-6342.660598976626
 20
836.160787611756
 30
0.0
 11
-6312.660598976627
 21
836.1607876117524
 31
0.0
  0
LINE
  5
20544
330
2042E
100
AcDbEntity
  8
細線
100
AcDbLine
 10
-6342.660598976626
 20
830.1607876117561
 30
0.0
 11
-6312.660598976627
 21
830.1607876117524
 31
0.0
  0
LINE
  5
20545
330
2042E
100
AcDbEntity
  8
部品1
100
AcDbLine
 10
-6397.660598976627
 20
818.1607876117524
 30
0.0
 11
-6397.660598976627
 21
806.1607876117543
 31
0.0
  0
LINE
  5
20546
330
2042E
100
AcDbEntity
  8
部品1
100
AcDbLine
 10
-6397.660598976627
 20
806.1607876117543
 30
0.0
 11
-6257.660598976627
 21
806.1607876117543
 31
0.0
  0
LINE
  5
20547
330
2042E
100
AcDbEntity
  8
部品1
100
AcDbLine
 10
-6397.660598976627
 20
818.1607876117542
 30
0.0
 11
-6257.660598976627
 21
818.1607876117542
 31
0.0
  0
LINE
  5
20548
330
2042E
100
AcDbEntity
  8
部品1
100
AcDbLine
 10
-6286.763829968552
 20
1103.151248310656
 30
0.0
 11
-6257.660598976627
 21
818.1607876117542
 31
0.0
  0
LINE
  5
20549
330
2042E
100
AcDbEntity
  8
部品1
100
AcDbLine
 10
-6368.557367984695
 20
1103.151248310656
 30
0.0
 11
-6397.660598976627
 21
818.1607876117542
 31
0.0
  0
LINE
  5
2054A
330
2042E
100
AcDbEntity
  8
細線
  6
HIDDEN
 48
10.0
100
AcDbLine
 10
-6537.660598976626
 20
854.408176315168
 30
0.0
 11
-6377.615173220004
 21
1014.453602071808
 31
0.0
  0
LINE
  5
2054B
330
2042E
100
AcDbEntity
  8
細線
  6
HIDDEN
 48
10.0
100
AcDbLine
 10
-6537.660598976626
 20
910.9767188100905
 30
0.0
 11
-6371.181372826789
 21
1077.455944959931
 31
0.0
  0
LINE
  5
2054C
330
2042E
100
AcDbEntity
  8
細線
  6
HIDDEN
 48
10.0
100
AcDbLine
 10
-6537.660598976626
 20
882.6924475626293
 30
0.0
 11
-6374.398273023393
 21
1045.954773515872
 31
0.0
  0
LINE
  5
2054D
330
2042E
100
AcDbEntity
  8
Ｇ．Ｌ
100
AcDbLine
 10
-6287.660598976627
 20
1140.760787611754
 30
0.0
 11
-5535.564356738288
 21
1140.760787611754
 31
0.0
  0
LINE
  5
2054E
330
2042E
100
AcDbEntity
  8
細線
  6
HIDDEN
 48
10.0
100
AcDbLine
 10
-6224.649598827209
 20
740.7607876117564
 30
0.0
 11
-6137.660598976627
 21
827.7497874623396
 31
0.0
  0
LINE
  5
2054F
330
2042E
100
AcDbEntity
  8
細線
  6
HIDDEN
 48
10.0
100
AcDbLine
 10
-6281.218141322131
 20
740.7607876117555
 30
0.0
 11
-6137.660598976626
 21
884.318329957264
 31
0.0
  0
LINE
  5
20550
330
2042E
100
AcDbEntity
  8
細線
  6
HIDDEN
 48
10.0
100
AcDbLine
 10
-6252.93387007467
 20
740.7607876117564
 30
0.0
 11
-6137.660598976627
 21
856.0340587098036
 31
0.0
  0
TEXT
  5
20551
330
2042E
100
AcDbEntity
  8
部品1
100
AcDbText
 10
-5903.097051907016
 20
1148.666829290658
 30
0.0
 40
120.0
  1
▽G.L
  7
STYLE1
100
AcDbText
  0
LINE
  5
20552
330
2042E
100
AcDbEntity
  8
細線
100
AcDbLine
 10
-7818.699631422491
 20
1040.760787611754
 30
0.0
 11
-7832.097091044047
 21
990.7607876117564
 31
0.0
  0
LINE
  5
20553
330
2042E
100
AcDbEntity
  8
細線
100
AcDbLine
 10
-7718.699631422487
 20
1040.760787611754
 30
0.0
 11
-7732.097091044046
 21
990.7607876117564
 31
0.0
  0
LINE
  5
20554
330
2042E
100
AcDbEntity
  8
細線
100
AcDbLine
 10
-7846.597520957572
 20
1040.760787611754
 30
0.0
 11
-7746.597520957576
 21
1140.760787611756
 31
0.0
  0
LINE
  5
20555
330
2042E
100
AcDbEntity
  8
細線
100
AcDbLine
 10
-7818.313249710112
 20
1040.760787611754
 30
0.0
 11
-7718.313249710113
 21
1140.760787611756
 31
0.0
  0
LINE
  5
20556
330
2042E
100
AcDbEntity
  8
部品1
100
AcDbLine
 10
-7745.494550665601
 20
1340.760787611754
 30
0.0
 11
-7745.494550665601
 21
1140.760787611756
 31
0.0
  0
TEXT
  5
20557
330
2042E
100
AcDbEntity
  8
部品1
100
AcDbText
 10
-7522.241924798173
 20
1148.66682929066
 30
0.0
 40
120.0
  1
▽G.L
  7
STYLE1
100
AcDbText
  0
LINE
  5
20558
330
2042E
100
AcDbEntity
  8
細線
100
AcDbLine
 10
-7805.302171800931
 20
890.7607876117547
 30
0.0
 11
-7818.699631422491
 21
840.7607876117547
 31
0.0
  0
LINE
  5
20559
330
2042E
100
AcDbEntity
  8
細線
100
AcDbLine
 10
-7705.302171800934
 20
890.7607876117547
 30
0.0
 11
-7718.699631422487
 21
840.7607876117547
 31
0.0
  0
LINE
  5
2055A
330
2042E
100
AcDbEntity
  8
部品1
100
AcDbLine
 10
-7645.494550665602
 20
1140.760787611756
 30
0.0
 11
-7645.494550665602
 21
840.7607876117547
 31
0.0
  0
LINE
  5
2055B
330
2042E
100
AcDbEntity
  8
細線
100
AcDbLine
 10
-7845.494550665598
 20
1040.760787611754
 30
0.0
 11
-7791.90471217938
 21
840.7607876117509
 31
0.0
  0
LINE
  5
2055C
330
2042E
100
AcDbEntity
  8
細線
100
AcDbLine
 10
-7745.494550665601
 20
1040.760787611754
 30
0.0
 11
-7691.904712179379
 21
840.7607876117547
 31
0.0
  0
LINE
  5
2055D
330
2042E
100
AcDbEntity
  8
部品1
100
AcDbLine
 10
-7002.91503222022
 20
1440.760787611756
 30
0.0
 11
-6397.660598976627
 21
1440.760787611754
 31
0.0
  0
LINE
  5
2055E
330
2042E
100
AcDbEntity
  8
部品1
100
AcDbLine
 10
-7002.91503222022
 20
1340.760787611754
 30
0.0
 11
-6367.660598976627
 21
1340.760787611754
 31
0.0
  0
LINE
  5
2055F
330
2042E
100
AcDbEntity
  8
Ｇ．Ｌ
100
AcDbLine
 10
-7002.91503222022
 20
1140.760787611754
 30
0.0
 11
-6367.660598976627
 21
1140.760787611754
 31
0.0
  0
DIMENSION
  5
20560
330
2042E
100
AcDbEntity
  8
寸法
 48
50.0
100
AcDbDimension
  2
*D41
 10
-6780.990346052156
 20
740.7607876117547
 30
0.0
 11
-6780.990346052156
 21
928.3854207276601
 31
0.0
 12
-13107.2
 22
0.0000000000000729
 32
0.0
 70
   128
  1
200
 71
     5
 42
399.9999999999999
  3
INABA_S40G
100
AcDbAlignedDimension
 13
-6687.660598976626
 23
1140.760787611754
 33
0.0
 14
-6537.660598976626
 24
740.7607876117546
 34
0.0
 50
90.0
100
AcDbRotatedDimension
1001
ACAD
1000
DSTYLE
1002
{
1070
   174
1070
     0
1070
   272
1070
     1
1070
   288
1070
     0
1070
   341
1005
0
1002
}
  0
LINE
  5
20561
330
2042E
100
AcDbEntity
  8
部品1
100
AcDbLine
 10
-7002.91503222022
 20
1434.760787611754
 30
0.0
 11
-6287.660598976627
 21
1434.760787611754
 31
0.0
  0
LINE
  5
20562
330
2042E
100
AcDbEntity
  8
部品1
100
AcDbLine
 10
-6397.660598976627
 20
1940.760787611752
 30
0.0
 11
-6397.660598976623
 21
1434.760787611756
 31
0.0
  0
LINE
  5
20563
330
2042E
100
AcDbEntity
  8
部品1
100
AcDbLine
 10
-6287.660598976627
 20
1940.760787611752
 30
0.0
 11
-6287.660598976627
 21
1140.760787611754
 31
0.0
  0
LINE
  5
20564
330
2042E
100
AcDbEntity
  8
部品1
 48
50.0
100
AcDbLine
 10
-7070.368301239827
 20
2600.0
 30
0.0
 11
-7070.368301239827
 21
200.0000000000001
 31
0.0
  0
LINE
  5
20565
330
2042E
100
AcDbEntity
  8
部品1
 48
50.0
100
AcDbLine
 10
-5470.368301239827
 20
2360.0
 30
0.0
 11
-5470.368301239827
 21
200.0000000000001
 31
0.0
  0
LINE
  5
20566
330
2042E
100
AcDbEntity
  8
細線
 48
50.0
100
AcDbLine
 10
-6552.660598976626
 20
1940.760787611752
 30
0.0
 11
-6552.660598976626
 21
1440.760787611754
 31
0.0
  0
LINE
  5
20567
330
2042E
100
AcDbEntity
  8
細線
 48
50.0
100
AcDbLine
 10
-6522.660598976627
 20
1940.760787611752
 30
0.0
 11
-6522.660598976627
 21
1440.760787611754
 31
0.0
  0
LINE
  5
20568
330
2042E
100
AcDbEntity
  8
細線
 48
50.0
100
AcDbLine
 10
-6802.660598976626
 20
1940.760787611752
 30
0.0
 11
-6802.660598976626
 21
1440.760787611754
 31
0.0
  0
LINE
  5
20569
330
2042E
100
AcDbEntity
  8
細線
 48
50.0
100
AcDbLine
 10
-6832.660598976627
 20
1940.760787611752
 30
0.0
 11
-6832.660598976627
 21
1440.760787611754
 31
0.0
  0
LINE
  5
2056A
330
2042E
100
AcDbEntity
  8
細線
100
AcDbLine
 10
-7918.699631422491
 20
1040.760787611754
 30
0.0
 11
-7932.097091044044
 21
990.7607876117564
 31
0.0
  0
LINE
  5
2056B
330
2042E
100
AcDbEntity
  8
細線
100
AcDbLine
 10
-8018.699631422487
 20
1040.760787611754
 30
0.0
 11
-8032.097091044047
 21
990.7607876117564
 31
0.0
  0
LINE
  5
2056C
330
2042E
100
AcDbEntity
  8
細線
100
AcDbLine
 10
-8218.699631422492
 20
1040.760787611753
 30
0.0
 11
-8232.097091044044
 21
990.7607876117509
 31
0.0
  0
LINE
  5
2056D
330
2042E
100
AcDbEntity
  8
細線
100
AcDbLine
 10
-8118.699631422492
 20
1040.760787611753
 30
0.0
 11
-8132.097091044046
 21
990.7607876117509
 31
0.0
  0
LINE
  5
2056E
330
2042E
100
AcDbEntity
  8
細線
100
AcDbLine
 10
-8174.881792205034
 20
1040.760787611753
 30
0.0
 11
-8074.881792205035
 21
1140.760787611756
 31
0.0
  0
LINE
  5
2056F
330
2042E
100
AcDbEntity
  8
細線
100
AcDbLine
 10
-8146.597520957572
 20
1040.760787611754
 30
0.0
 11
-8046.597520957575
 21
1140.760787611756
 31
0.0
  0
LINE
  5
20570
330
2042E
100
AcDbEntity
  8
細線
100
AcDbLine
 10
-8025.726512806139
 20
1140.760787611756
 30
0.0
 11
-8145.494550665599
 21
1260.528825471216
 31
0.0
  0
LINE
  5
20571
330
2042E
100
AcDbEntity
  8
細線
100
AcDbLine
 10
-8118.313249710109
 20
1040.760787611754
 30
0.0
 11
-8018.313249710113
 21
1140.760787611756
 31
0.0
  0
LINE
  5
20572
330
2042E
100
AcDbEntity
  8
細線
100
AcDbLine
 10
-7983.300105934947
 20
1140.760787611756
 30
0.0
 11
-8145.494550665601
 21
1302.955232342408
 31
0.0
  0
LINE
  5
20573
330
2042E
100
AcDbEntity
  8
部品1
100
AcDbLine
 10
-8145.494550665599
 20
1140.760787611756
 30
0.0
 11
-8145.494550665599
 21
1340.760787611754
 31
0.0
  0
LINE
  5
20574
330
2042E
100
AcDbEntity
  8
細線
100
AcDbLine
 10
-7905.302171800935
 20
890.7607876117547
 30
0.0
 11
-7918.699631422491
 21
840.7607876117547
 31
0.0
  0
LINE
  5
20575
330
2042E
100
AcDbEntity
  8
細線
100
AcDbLine
 10
-8005.302171800934
 20
890.7607876117547
 30
0.0
 11
-8018.699631422487
 21
840.7607876117547
 31
0.0
  0
LINE
  5
20576
330
2042E
100
AcDbEntity
  8
細線
100
AcDbLine
 10
-8205.302171800935
 20
890.7607876117527
 30
0.0
 11
-8218.699631422492
 21
840.7607876117509
 31
0.0
  0
LINE
  5
20577
330
2042E
100
AcDbEntity
  8
細線
100
AcDbLine
 10
-8105.302171800932
 20
890.7607876117527
 30
0.0
 11
-8118.699631422492
 21
840.7607876117509
 31
0.0
  0
LINE
  5
20578
330
2042E
100
AcDbEntity
  8
部品1
100
AcDbLine
 10
-8245.494550665602
 20
840.7607876117509
 30
0.0
 11
-8245.494550665602
 21
1140.760787611756
 31
0.0
  0
LINE
  5
20579
330
2042E
100
AcDbEntity
  8
細線
100
AcDbLine
 10
-8245.494550665602
 20
1040.760787611753
 30
0.0
 11
-8191.904712179375
 21
840.7607876117491
 31
0.0
  0
LINE
  5
2057A
330
2042E
100
AcDbEntity
  8
細線
100
AcDbLine
 10
-7945.494550665602
 20
1040.760787611754
 30
0.0
 11
-7891.904712179375
 21
840.7607876117509
 31
0.0
  0
LINE
  5
2057B
330
2042E
100
AcDbEntity
  8
細線
100
AcDbLine
 10
-8045.494550665601
 20
1040.760787611754
 30
0.0
 11
-7991.90471217938
 21
840.7607876117509
 31
0.0
  0
LINE
  5
2057C
330
2042E
100
AcDbEntity
  8
細線
100
AcDbLine
 10
-8145.494550665599
 20
1040.760787611753
 30
0.0
 11
-8091.904712179379
 21
840.7607876117491
 31
0.0
  0
LINE
  5
2057D
330
2042E
100
AcDbEntity
  8
部品1
 48
50.0
100
AcDbLine
 10
-8670.368301239827
 20
2600.0
 30
0.0
 11
-8670.368301239827
 21
200.0000000000001
 31
0.0
  0
LINE
  5
2057E
330
2042E
100
AcDbEntity
  8
部品1
100
AcDbLine
 10
-8245.494550665602
 20
840.7607876117509
 30
0.0
 11
-7645.494550665602
 21
840.7607876117547
 31
0.0
  0
LINE
  5
2057F
330
2042E
100
AcDbEntity
  8
部品1
100
AcDbLine
 10
-8245.494550665602
 20
1040.760787611753
 30
0.0
 11
-7645.494550665602
 21
1040.760787611754
 31
0.0
  0
LINE
  5
20580
330
2042E
100
AcDbEntity
  8
部品1
100
AcDbLine
 10
-8145.494550665599
 20
1340.760787611754
 30
0.0
 11
-7745.494550665601
 21
1340.760787611754
 31
0.0
  0
LINE
  5
20581
330
2042E
100
AcDbEntity
  8
Ｇ．Ｌ
100
AcDbLine
 10
-8575.595556710926
 20
1140.760787611756
 30
0.0
 11
-7144.702272887766
 21
1140.760787611756
 31
0.0
  0
LINE
  5
20582
330
2042E
100
AcDbEntity
  8
細線
100
AcDbLine
 10
-7757.025935955254
 20
1140.760787611756
 30
0.0
 11
-7957.025935955249
 21
1340.760787611754
 31
0.0
  0
TEXT
  5
20583
330
2042E
100
AcDbEntity
  8
部品1
100
AcDbText
 10
-8204.768280235027
 20
2307.972217178321
 30
0.0
 40
120.0
  1
基礎詳細
  7
STYLE2
100
AcDbText
  0
MTEXT
  5
20584
102
{ACAD_REACTORS
330
20585
102
}
330
2042E
100
AcDbEntity
  8
寸法
 62
     7
 48
50.0
100
AcDbMText
 10
-7707.962693940811
 20
1638.612705420522
 30
0.0
 40
120.0
 41
1.0
 71
     4
 72
     1
  1
\A1;C.B
  7
STYLE1
 73
     1
 44
1.0
1001
ACAD
1000
MTEXTBEGIN
1070
    73
1070
     1
1070
    44
1040
1.0
1070
    74
1070
     0
1000
MTEXTEND
  0
LEADER
  5
20585
330
2042E
100
AcDbEntity
  8
寸法
 48
50.0
100
AcDbLeader
  3
INABA_S50G
 71
     0
 73
     0
 74
     0
 75
     1
 40
120.0
 41
185.591883092037
 76
     3
 10
-7945.4945506656
 20
1340.760787611754
 30
0.0
 10
-7790.230968094424
 20
1553.612705420522
 30
0.0
 10
-7665.230968094424
 20
1553.612705420522
 30
0.0
340
20584
213
67.73172584638814
223
0.0
233
0.0
1001
ACAD
1000
DSTYLE
1002
{
1070
    40
1040
1.0
1002
}
  0
LINE
  5
20586
330
2042E
100
AcDbEntity
  8
細線
100
AcDbLine
 10
-7799.452342826445
 20
1140.760787611756
 30
0.0
 11
-7999.452342826441
 21
1340.760787611754
 31
0.0
  0
LINE
  5
20587
330
2042E
100
AcDbEntity
  8
細線
100
AcDbLine
 10
-7874.881792205035
 20
1040.760787611754
 30
0.0
 11
-7774.881792205039
 21
1140.760787611756
 31
0.0
  0
TEXT
  5
20588
330
2042E
100
AcDbEntity
  8
部品1
100
AcDbText
 10
-5416.640984861135
 20
2414.063814602734
 30
0.0
 40
120.0
  1
アンカー部詳細
  7
STYLE2
100
AcDbText
  0
LINE
  5
20589
330
2042E
100
AcDbEntity
  8
部品1
 48
50.0
100
AcDbLine
 10
-8670.368301239827
 20
200.0000000000001
 30
0.0
 11
-2270.368301239827
 21
200.0000000000001
 31
0.0
  0
LINE
  5
2058A
330
2042E
100
AcDbEntity
  8
部品1
 48
50.0
100
AcDbLine
 10
-2270.368301239827
 20
2600.0
 30
0.0
 11
-8670.368301239827
 21
2600.000000000002
 31
0.0
  0
LINE
  5
2058B
330
2042E
100
AcDbEntity
  8
部品1
 48
50.0
100
AcDbLine
 10
-2270.368301239827
 20
2360.0
 30
0.0
 11
-7070.368301239827
 21
2360.0
 31
0.0
  0
LINE
  5
2058C
330
2042E
100
AcDbEntity
  8
部品1
 48
50.0
100
AcDbLine
 10
-8670.368301239827
 20
2120.0
 30
0.0
 11
-2270.368301239827
 21
2120.0
 31
0.0
  0
ENDBLK
  5
2058E
330
2042E
100
AcDbEntity
  8
0
 48
50.0
100
AcDbBlockEnd
  0
BLOCK
  5
20590
330
2058F
100
AcDbEntity
  8
0
 48
50.0
100
AcDbBlockBegin
  2
*D46
 70
     1
 10
0.0
 20
0.0
 30
0.0
  3
*D46
  1

  0
LINE
  5
20591
330
2058F
100
AcDbEntity
  8
寸法
 62
     0
 48
50.0
370
    -2
100
AcDbLine
 10
6399.539401023374
 20
1140.760787611754
 30
0.0
 11
6266.209653947845
 21
1140.760787611754
 31
0.0
  0
LINE
  5
20592
330
2058F
100
AcDbEntity
  8
寸法
 62
     0
 48
50.0
370
    -2
100
AcDbLine
 10
6549.539401023373
 20
740.7607876117545
 30
0.0
 11
6266.209653947845
 21
740.7607876117546
 31
0.0
  0
LINE
  5
20593
330
2058F
100
AcDbEntity
  8
寸法
 62
     0
 48
50.0
370
    -2
100
AcDbLine
 10
6326.209653947844
 20
1140.760787611754
 30
0.0
 11
6326.209653947844
 21
740.7607876117546
 31
0.0
  0
INSERT
  5
20594
330
2058F
100
AcDbEntity
  8
寸法
 62
     0
 48
50.0
370
    -2
100
AcDbBlockReference
  2
_DOTSMALL
 10
6326.209653947844
 20
1140.760787611754
 30
0.0
 41
100.0
 42
100.0
 43
100.0
 50
90.0
  0
INSERT
  5
20595
330
2058F
100
AcDbEntity
  8
寸法
 62
     0
 48
50.0
370
    -2
100
AcDbBlockReference
  2
_DOTSMALL
 10
6326.209653947844
 20
740.7607876117546
 30
0.0
 41
100.0
 42
100.0
 43
100.0
 50
270.0
  0
MTEXT
  5
20596
330
2058F
100
AcDbEntity
  8
寸法
 62
     7
 48
50.0
100
AcDbMText
 10
6226.197842924222
 20
928.3854207276599
 30
0.0
 40
120.0
 41
0.0
 71
     5
 72
     1
  1
\A1;200
  7
STYLE1
 11
0.0000000000000001
 21
1.0
 31
0.0
 73
     1
 44
1.0
1001
ACAD
1000
MTEXTBEGIN
1070
    73
1070
     1
1070
    44
1040
1.0
1070
    74
1070
     0
1000
MTEXTEND
  0
POINT
  5
20597
330
2058F
100
AcDbEntity
  8
DEFPOINTS
 62
     0
 48
50.0
100
AcDbPoint
 10
6419.539401023374
 20
1140.760787611754
 30
0.0
  0
POINT
  5
20598
330
2058F
100
AcDbEntity
  8
DEFPOINTS
 62
     0
 48
50.0
100
AcDbPoint
 10
6569.539401023374
 20
740.7607876117545
 30
0.0
  0
POINT
  5
20599
330
2058F
100
AcDbEntity
  8
DEFPOINTS
 62
     0
 48
50.0
100
AcDbPoint
 10
6326.209653947844
 20
740.7607876117546
 30
0.0
  0
ENDBLK
  5
2059A
330
2058F
100
AcDbEntity
  8
0
 48
50.0
100
AcDbBlockEnd
  0
BLOCK
  5
2059C
330
2059B
100
AcDbEntity
  8
0
 48
50.0
100
AcDbBlockBegin
  2
*D47
 70
     1
 10
0.0
 20
0.0
 30
0.0
  3
*D47
  1

  0
LINE
  5
2059D
330
2059B
100
AcDbEntity
  8
寸法
 62
     0
 48
50.0
370
    -2
100
AcDbLine
 10
8453.145665141983
 20
1340.760787611756
 30
0.0
 11
8715.358912604882
 21
1340.760787611756
 31
0.0
  0
LINE
  5
2059E
330
2059B
100
AcDbEntity
  8
寸法
 62
     0
 48
50.0
370
    -2
100
AcDbLine
 10
8472.594902036474
 20
1140.760787611754
 30
0.0
 11
8715.358912604882
 21
1140.760787611754
 31
0.0
  0
LINE
  5
2059F
330
2059B
100
AcDbEntity
  8
寸法
 62
     0
 48
50.0
370
    -2
100
AcDbLine
 10
8655.358912604883
 20
1340.760787611756
 30
0.0
 11
8655.358912604883
 21
1140.760787611754
 31
0.0
  0
INSERT
  5
205A0
330
2059B
100
AcDbEntity
  8
寸法
 62
     0
 48
50.0
370
    -2
100
AcDbBlockReference
  2
_DOTSMALL
 10
8655.358912604883
 20
1340.760787611756
 30
0.0
 41
100.0
 42
100.0
 43
100.0
 50
90.0
  0
INSERT
  5
205A1
330
2059B
100
AcDbEntity
  8
寸法
 62
     0
 48
50.0
370
    -2
100
AcDbBlockReference
  2
_DOTSMALL
 10
8655.358912604883
 20
1140.760787611754
 30
0.0
 41
100.0
 42
100.0
 43
100.0
 50
270.0
  0
MTEXT
  5
205A2
330
2059B
100
AcDbEntity
  8
寸法
 62
     7
 48
50.0
100
AcDbMText
 10
8555.358912604884
 20
1240.760787611757
 30
0.0
 40
120.0
 41
0.0
 71
     5
 72
     1
  1
\A1;b
  7
STYLE1
 11
0.0000000000000001
 21
1.0
 31
0.0
 73
     1
 44
1.0
1001
ACAD
1000
MTEXTBEGIN
1070
    73
1070
     1
1070
    44
1040
1.0
1070
    74
1070
     0
1000
MTEXTEND
  0
POINT
  5
205A3
330
2059B
100
AcDbEntity
  8
DEFPOINTS
 62
     0
 48
50.0
100
AcDbPoint
 10
8433.145665141983
 20
1340.760787611756
 30
0.0
  0
POINT
  5
205A4
330
2059B
100
AcDbEntity
  8
DEFPOINTS
 62
     0
 48
50.0
100
AcDbPoint
 10
8452.594902036473
 20
1140.760787611754
 30
0.0
  0
POINT
  5
205A5
330
2059B
100
AcDbEntity
  8
DEFPOINTS
 62
     0
 48
50.0
100
AcDbPoint
 10
8655.358912604883
 20
1140.760787611754
 30
0.0
  0
ENDBLK
  5
205A6
330
2059B
100
AcDbEntity
  8
0
 48
50.0
100
AcDbBlockEnd
  0
BLOCK
  5
205A8
330
205A7
100
AcDbEntity
  8
0
 48
50.0
100
AcDbBlockBegin
  2
*D48
 70
     1
 10
0.0
 20
0.0
 30
0.0
  3
*D48
  1

  0
LINE
  5
205A9
330
205A7
100
AcDbEntity
  8
寸法
 62
     0
 48
50.0
370
    -2
100
AcDbLine
 10
9953.038598659123
 20
1440.760787611754
 30
0.0
 11
10195.67415237624
 21
1440.760787611754
 31
0.0
  0
LINE
  5
205AA
330
205A7
100
AcDbEntity
  8
寸法
 62
     0
 48
50.0
370
    -2
100
AcDbLine
 10
9982.927506749454
 20
1140.760787611754
 30
0.0
 11
10195.67415237624
 21
1140.760787611754
 31
0.0
  0
LINE
  5
205AB
330
205A7
100
AcDbEntity
  8
寸法
 62
     0
 48
50.0
370
    -2
100
AcDbLine
 10
10135.67415237624
 20
1440.760787611754
 30
0.0
 11
10135.67415237624
 21
1140.760787611754
 31
0.0
  0
INSERT
  5
205AC
330
205A7
100
AcDbEntity
  8
寸法
 62
     0
 48
50.0
370
    -2
100
AcDbBlockReference
  2
_DOTSMALL
 10
10135.67415237624
 20
1440.760787611754
 30
0.0
 41
100.0
 42
100.0
 43
100.0
 50
90.0
  0
INSERT
  5
205AD
330
205A7
100
AcDbEntity
  8
寸法
 62
     0
 48
50.0
370
    -2
100
AcDbBlockReference
  2
_DOTSMALL
 10
10135.67415237624
 20
1140.760787611754
 30
0.0
 41
100.0
 42
100.0
 43
100.0
 50
270.0
  0
MTEXT
  5
205AE
330
205A7
100
AcDbEntity
  8
寸法
 62
     7
 48
50.0
100
AcDbMText
 10
10035.67415237624
 20
1290.760787611756
 30
0.0
 40
120.0
 41
0.0
 71
     5
 72
     1
  1
\A1;c
  7
STYLE1
 11
0.0000000000000001
 21
1.0
 31
0.0
 73
     1
 44
1.0
1001
ACAD
1000
MTEXTBEGIN
1070
    73
1070
     1
1070
    44
1040
1.0
1070
    74
1070
     0
1000
MTEXTEND
  0
POINT
  5
205AF
330
205A7
100
AcDbEntity
  8
DEFPOINTS
 62
     0
 48
50.0
100
AcDbPoint
 10
9933.038598659123
 20
1440.760787611754
 30
0.0
  0
POINT
  5
205B0
330
205A7
100
AcDbEntity
  8
DEFPOINTS
 62
     0
 48
50.0
100
AcDbPoint
 10
9962.927506749455
 20
1140.760787611754
 30
0.0
  0
POINT
  5
205B1
330
205A7
100
AcDbEntity
  8
DEFPOINTS
 62
     0
 48
50.0
100
AcDbPoint
 10
10135.67415237624
 20
1140.760787611754
 30
0.0
  0
ENDBLK
  5
205B2
330
205A7
100
AcDbEntity
  8
0
 48
50.0
100
AcDbBlockEnd
  0
BLOCK
  5
205B4
330
205B3
100
AcDbEntity
  8
0
 48
50.0
100
AcDbBlockBegin
  2
*D49
 70
     1
 10
0.0
 20
0.0
 30
0.0
  3
*D49
  1

  0
LINE
  5
205B5
330
205B3
100
AcDbEntity
  8
寸法
 62
     0
 48
50.0
370
    -2
100
AcDbLine
 10
6839.539401023376
 20
1340.760787611755
 30
0.0
 11
7127.610405383769
 21
1340.760787611755
 31
0.0
  0
LINE
  5
205B6
330
205B3
100
AcDbEntity
  8
寸法
 62
     0
 48
50.0
370
    -2
100
AcDbLine
 10
6839.539401023377
 20
1140.760787611754
 30
0.0
 11
7127.610405383769
 21
1140.760787611754
 31
0.0
  0
LINE
  5
205B7
330
205B3
100
AcDbEntity
  8
寸法
 62
     0
 48
50.0
370
    -2
100
AcDbLine
 10
7067.610405383771
 20
1340.760787611755
 30
0.0
 11
7067.610405383771
 21
1140.760787611754
 31
0.0
  0
INSERT
  5
205B8
330
205B3
100
AcDbEntity
  8
寸法
 62
     0
 48
50.0
370
    -2
100
AcDbBlockReference
  2
_DOTSMALL
 10
7067.610405383771
 20
1340.760787611755
 30
0.0
 41
100.0
 42
100.0
 43
100.0
 50
90.0
  0
INSERT
  5
205B9
330
205B3
100
AcDbEntity
  8
寸法
 62
     0
 48
50.0
370
    -2
100
AcDbBlockReference
  2
_DOTSMALL
 10
7067.610405383771
 20
1140.760787611754
 30
0.0
 41
100.0
 42
100.0
 43
100.0
 50
270.0
  0
MTEXT
  5
205BA
330
205B3
100
AcDbEntity
  8
寸法
 62
     7
 48
50.0
100
AcDbMText
 10
6967.61040538377
 20
1240.760787611756
 30
0.0
 40
120.0
 41
0.0
 71
     5
 72
     1
  1
\A1;a
  7
STYLE1
 11
0.0000000000000001
 21
1.0
 31
0.0
 73
     1
 44
1.0
1001
ACAD
1000
MTEXTBEGIN
1070
    73
1070
     1
1070
    44
1040
1.0
1070
    74
1070
     0
1000
MTEXTEND
  0
POINT
  5
205BB
330
205B3
100
AcDbEntity
  8
DEFPOINTS
 62
     0
 48
50.0
100
AcDbPoint
 10
6819.539401023376
 20
1340.760787611755
 30
0.0
  0
POINT
  5
205BC
330
205B3
100
AcDbEntity
  8
DEFPOINTS
 62
     0
 48
50.0
100
AcDbPoint
 10
6819.539401023378
 20
1140.760787611754
 30
0.0
  0
POINT
  5
205BD
330
205B3
100
AcDbEntity
  8
DEFPOINTS
 62
     0
 48
50.0
100
AcDbPoint
 10
7067.610405383771
 20
1140.760787611754
 30
0.0
  0
ENDBLK
  5
205BE
330
205B3
100
AcDbEntity
  8
0
 48
50.0
100
AcDbBlockEnd
  0
BLOCK
  5
20889
330
2087F
100
AcDbEntity
  8
0
 48
50.0
100
AcDbBlockBegin
  2
*D51
 70
     1
 10
0.0
 20
0.0
 30
0.0
  3
*D51
  1

  0
LINE
  5
208AF
330
2087F
100
AcDbEntity
  8
寸法
 62
     0
 48
50.0
370
    -2
100
AcDbLine
 10
6839.539401023376
 20
1340.760787611755
 30
0.0
 11
7127.610405383769
 21
1340.760787611755
 31
0.0
  0
LINE
  5
208B0
330
2087F
100
AcDbEntity
  8
寸法
 62
     0
 48
50.0
370
    -2
100
AcDbLine
 10
6839.539401023377
 20
1140.760787611754
 30
0.0
 11
7127.610405383769
 21
1140.760787611754
 31
0.0
  0
LINE
  5
208B1
330
2087F
100
AcDbEntity
  8
寸法
 62
     0
 48
50.0
370
    -2
100
AcDbLine
 10
7067.610405383771
 20
1340.760787611755
 30
0.0
 11
7067.610405383771
 21
1140.760787611754
 31
0.0
  0
INSERT
  5
208B2
330
2087F
100
AcDbEntity
  8
寸法
 62
     0
 48
50.0
370
    -2
100
AcDbBlockReference
  2
_DOTSMALL
 10
7067.610405383771
 20
1340.760787611755
 30
0.0
 41
100.0
 42
100.0
 43
100.0
 50
90.0
  0
INSERT
  5
208B3
330
2087F
100
AcDbEntity
  8
寸法
 62
     0
 48
50.0
370
    -2
100
AcDbBlockReference
  2
_DOTSMALL
 10
7067.610405383771
 20
1140.760787611754
 30
0.0
 41
100.0
 42
100.0
 43
100.0
 50
270.0
  0
MTEXT
  5
208B4
330
2087F
100
AcDbEntity
  8
寸法
 62
     7
 48
50.0
100
AcDbMText
 10
6967.61040538377
 20
1240.760787611756
 30
0.0
 40
120.0
 41
0.0
 71
     5
 72
     1
  1
\A1;a
  7
STYLE1
 11
0.0000000000000001
 21
1.0
 31
0.0
 73
     1
 44
1.0
1001
ACAD
1000
MTEXTBEGIN
1070
    73
1070
     1
1070
    44
1040
1.0
1070
    74
1070
     0
1000
MTEXTEND
  0
POINT
  5
208B5
330
2087F
100
AcDbEntity
  8
DEFPOINTS
 62
     0
 48
50.0
100
AcDbPoint
 10
6819.539401023376
 20
1340.760787611755
 30
0.0
  0
POINT
  5
208B6
330
2087F
100
AcDbEntity
  8
DEFPOINTS
 62
     0
 48
50.0
100
AcDbPoint
 10
6819.539401023378
 20
1140.760787611754
 30
0.0
  0
POINT
  5
208B7
330
2087F
100
AcDbEntity
  8
DEFPOINTS
 62
     0
 48
50.0
100
AcDbPoint
 10
7067.610405383771
 20
1140.760787611754
 30
0.0
  0
ENDBLK
  5
2088A
330
2087F
100
AcDbEntity
  8
0
 48
50.0
100
AcDbBlockEnd
  0
BLOCK
  5
20895
330
2088B
100
AcDbEntity
  8
0
 48
50.0
100
AcDbBlockBegin
  2
*D52
 70
     1
 10
0.0
 20
0.0
 30
0.0
  3
*D52
  1

  0
LINE
  5
208B8
330
2088B
100
AcDbEntity
  8
寸法
 62
     0
 48
50.0
370
    -2
100
AcDbLine
 10
9953.038598659123
 20
1440.760787611754
 30
0.0
 11
10195.67415237624
 21
1440.760787611754
 31
0.0
  0
LINE
  5
208B9
330
2088B
100
AcDbEntity
  8
寸法
 62
     0
 48
50.0
370
    -2
100
AcDbLine
 10
9982.927506749454
 20
1140.760787611754
 30
0.0
 11
10195.67415237624
 21
1140.760787611754
 31
0.0
  0
LINE
  5
208BA
330
2088B
100
AcDbEntity
  8
寸法
 62
     0
 48
50.0
370
    -2
100
AcDbLine
 10
10135.67415237624
 20
1440.760787611754
 30
0.0
 11
10135.67415237624
 21
1140.760787611754
 31
0.0
  0
INSERT
  5
208BB
330
2088B
100
AcDbEntity
  8
寸法
 62
     0
 48
50.0
370
    -2
100
AcDbBlockReference
  2
_DOTSMALL
 10
10135.67415237624
 20
1440.760787611754
 30
0.0
 41
100.0
 42
100.0
 43
100.0
 50
90.0
  0
INSERT
  5
208BC
330
2088B
100
AcDbEntity
  8
寸法
 62
     0
 48
50.0
370
    -2
100
AcDbBlockReference
  2
_DOTSMALL
 10
10135.67415237624
 20
1140.760787611754
 30
0.0
 41
100.0
 42
100.0
 43
100.0
 50
270.0
  0
MTEXT
  5
208BD
330
2088B
100
AcDbEntity
  8
寸法
 62
     7
 48
50.0
100
AcDbMText
 10
10035.67415237624
 20
1290.760787611756
 30
0.0
 40
120.0
 41
0.0
 71
     5
 72
     1
  1
\A1;c
  7
STYLE1
 11
0.0000000000000001
 21
1.0
 31
0.0
 73
     1
 44
1.0
1001
ACAD
1000
MTEXTBEGIN
1070
    73
1070
     1
1070
    44
1040
1.0
1070
    74
1070
     0
1000
MTEXTEND
  0
POINT
  5
208BE
330
2088B
100
AcDbEntity
  8
DEFPOINTS
 62
     0
 48
50.0
100
AcDbPoint
 10
9933.038598659123
 20
1440.760787611754
 30
0.0
  0
POINT
  5
208BF
330
2088B
100
AcDbEntity
  8
DEFPOINTS
 62
     0
 48
50.0
100
AcDbPoint
 10
9962.927506749455
 20
1140.760787611754
 30
0.0
  0
POINT
  5
208C0
330
2088B
100
AcDbEntity
  8
DEFPOINTS
 62
     0
 48
50.0
100
AcDbPoint
 10
10135.67415237624
 20
1140.760787611754
 30
0.0
  0
ENDBLK
  5
20896
330
2088B
100
AcDbEntity
  8
0
 48
50.0
100
AcDbBlockEnd
  0
BLOCK
  5
208A1
330
20897
100
AcDbEntity
  8
0
 48
50.0
100
AcDbBlockBegin
  2
*D53
 70
     1
 10
0.0
 20
0.0
 30
0.0
  3
*D53
  1

  0
LINE
  5
208C1
330
20897
100
AcDbEntity
  8
寸法
 62
     0
 48
50.0
370
    -2
100
AcDbLine
 10
8453.145665141983
 20
1340.760787611756
 30
0.0
 11
8715.358912604882
 21
1340.760787611756
 31
0.0
  0
LINE
  5
208C2
330
20897
100
AcDbEntity
  8
寸法
 62
     0
 48
50.0
370
    -2
100
AcDbLine
 10
8472.594902036474
 20
1140.760787611754
 30
0.0
 11
8715.358912604882
 21
1140.760787611754
 31
0.0
  0
LINE
  5
208C3
330
20897
100
AcDbEntity
  8
寸法
 62
     0
 48
50.0
370
    -2
100
AcDbLine
 10
8655.358912604883
 20
1340.760787611756
 30
0.0
 11
8655.358912604883
 21
1140.760787611754
 31
0.0
  0
INSERT
  5
208C4
330
20897
100
AcDbEntity
  8
寸法
 62
     0
 48
50.0
370
    -2
100
AcDbBlockReference
  2
_DOTSMALL
 10
8655.358912604883
 20
1340.760787611756
 30
0.0
 41
100.0
 42
100.0
 43
100.0
 50
90.0
  0
INSERT
  5
208C5
330
20897
100
AcDbEntity
  8
寸法
 62
     0
 48
50.0
370
    -2
100
AcDbBlockReference
  2
_DOTSMALL
 10
8655.358912604883
 20
1140.760787611754
 30
0.0
 41
100.0
 42
100.0
 43
100.0
 50
270.0
  0
MTEXT
  5
208C6
330
20897
100
AcDbEntity
  8
寸法
 62
     7
 48
50.0
100
AcDbMText
 10
8555.358912604884
 20
1240.760787611757
 30
0.0
 40
120.0
 41
0.0
 71
     5
 72
     1
  1
\A1;b
  7
STYLE1
 11
0.0000000000000001
 21
1.0
 31
0.0
 73
     1
 44
1.0
1001
ACAD
1000
MTEXTBEGIN
1070
    73
1070
     1
1070
    44
1040
1.0
1070
    74
1070
     0
1000
MTEXTEND
  0
POINT
  5
208C7
330
20897
100
AcDbEntity
  8
DEFPOINTS
 62
     0
 48
50.0
100
AcDbPoint
 10
8433.145665141983
 20
1340.760787611756
 30
0.0
  0
POINT
  5
208C8
330
20897
100
AcDbEntity
  8
DEFPOINTS
 62
     0
 48
50.0
100
AcDbPoint
 10
8452.594902036473
 20
1140.760787611754
 30
0.0
  0
POINT
  5
208C9
330
20897
100
AcDbEntity
  8
DEFPOINTS
 62
     0
 48
50.0
100
AcDbPoint
 10
8655.358912604883
 20
1140.760787611754
 30
0.0
  0
ENDBLK
  5
208A2
330
20897
100
AcDbEntity
  8
0
 48
50.0
100
AcDbBlockEnd
  0
BLOCK
  5
208AD
330
208A3
100
AcDbEntity
  8
0
 48
50.0
100
AcDbBlockBegin
  2
*D54
 70
     1
 10
0.0
 20
0.0
 30
0.0
  3
*D54
  1

  0
LINE
  5
208CA
330
208A3
100
AcDbEntity
  8
寸法
 62
     0
 48
50.0
370
    -2
100
AcDbLine
 10
6399.539401023374
 20
1140.760787611754
 30
0.0
 11
6266.209653947845
 21
1140.760787611754
 31
0.0
  0
LINE
  5
208CB
330
208A3
100
AcDbEntity
  8
寸法
 62
     0
 48
50.0
370
    -2
100
AcDbLine
 10
6549.539401023373
 20
740.7607876117545
 30
0.0
 11
6266.209653947845
 21
740.7607876117546
 31
0.0
  0
LINE
  5
208CC
330
208A3
100
AcDbEntity
  8
寸法
 62
     0
 48
50.0
370
    -2
100
AcDbLine
 10
6326.209653947844
 20
1140.760787611754
 30
0.0
 11
6326.209653947844
 21
740.7607876117546
 31
0.0
  0
INSERT
  5
208CD
330
208A3
100
AcDbEntity
  8
寸法
 62
     0
 48
50.0
370
    -2
100
AcDbBlockReference
  2
_DOTSMALL
 10
6326.209653947844
 20
1140.760787611754
 30
0.0
 41
100.0
 42
100.0
 43
100.0
 50
90.0
  0
INSERT
  5
208CE
330
208A3
100
AcDbEntity
  8
寸法
 62
     0
 48
50.0
370
    -2
100
AcDbBlockReference
  2
_DOTSMALL
 10
6326.209653947844
 20
740.7607876117546
 30
0.0
 41
100.0
 42
100.0
 43
100.0
 50
270.0
  0
MTEXT
  5
208CF
330
208A3
100
AcDbEntity
  8
寸法
 62
     7
 48
50.0
100
AcDbMText
 10
6226.197842924222
 20
928.3854207276599
 30
0.0
 40
120.0
 41
0.0
 71
     5
 72
     1
  1
\A1;200
  7
STYLE1
 11
0.0000000000000001
 21
1.0
 31
0.0
 73
     1
 44
1.0
1001
ACAD
1000
MTEXTBEGIN
1070
    73
1070
     1
1070
    44
1040
1.0
1070
    74
1070
     0
1000
MTEXTEND
  0
POINT
  5
208D0
330
208A3
100
AcDbEntity
  8
DEFPOINTS
 62
     0
 48
50.0
100
AcDbPoint
 10
6419.539401023374
 20
1140.760787611754
 30
0.0
  0
POINT
  5
208D1
330
208A3
100
AcDbEntity
  8
DEFPOINTS
 62
     0
 48
50.0
100
AcDbPoint
 10
6569.539401023374
 20
740.7607876117545
 30
0.0
  0
POINT
  5
208D2
330
208A3
100
AcDbEntity
  8
DEFPOINTS
 62
     0
 48
50.0
100
AcDbPoint
 10
6326.209653947844
 20
740.7607876117546
 30
0.0
  0
ENDBLK
  5
208AE
330
208A3
100
AcDbEntity
  8
0
 48
50.0
100
AcDbBlockEnd
  0
ENDSEC
  0
SECTION
  2
ENTITIES
  0
LINE
  5
10B57
330
747D
100
AcDbEntity
  8
補助
  6
PHANTOM
 62
   230
 48
50.0
100
AcDbLine
 10
139.9999999999995
 20
11409.6
 30
0.0
 11
16307.2
 21
11409.6
 31
0.0
  0
LINE
  5
10B59
330
747D
100
AcDbEntity
  8
仕様書枠
  6
Continuous
 48
50.0
100
AcDbLine
 10
13107.2
 20
1200.0
 30
0.0
 11
13107.2
 21
-0.0000000000000729
 31
0.0
  0
LINE
  5
10B5C
330
747D
100
AcDbEntity
  8
仕様書枠
 48
50.0
100
AcDbLine
 10
16307.2
 20
1200.0
 30
0.0
 11
16307.2
 21
-0.0000000000000909
 31
0.0
  0
LINE
  5
10B5D
330
747D
100
AcDbEntity
  8
仕様書枠
 48
50.0
100
AcDbLine
 10
140.0
 20
0.0
 30
0.0
 11
16307.2
 21
-0.0000000000000909
 31
0.0
  0
LINE
  5
10B5E
330
747D
100
AcDbEntity
  8
補助
  6
PHANTOM
 62
   230
 48
50.0
100
AcDbLine
 10
16307.2
 20
11409.6
 30
0.0
 11
16307.2
 21
1200.0
 31
0.0
  0
LINE
  5
10B6C
330
747D
100
AcDbEntity
  8
仕様書枠
 48
50.0
100
AcDbLine
 10
13107.2
 20
1200.0
 30
0.0
 11
16307.2
 21
1200.0
 31
0.0
  0
LINE
  5
10B6D
330
747D
100
AcDbEntity
  8
補助
  6
PHANTOM
 62
   230
 48
50.0
100
AcDbLine
 10
13107.2
 20
11409.6
 30
0.0
 11
13107.2
 21
4800.0
 31
0.0
  0
LINE
  5
10B6F
330
747D
100
AcDbEntity
  8
補助
  6
PHANTOM
 62
   230
 48
50.0
100
AcDbLine
 10
13107.2
 20
4800.0
 30
0.0
 11
16307.2
 21
4800.0
 31
0.0
  0
LINE
  5
10B72
330
747D
100
AcDbEntity
  8
文字
 62
     7
 48
50.0
100
AcDbLine
 10
13187.2
 20
400.0
 30
0.0
 11
16227.2
 21
400.0
 31
0.0
  0
TEXT
  5
10B73
330
747D
100
AcDbEntity
  8
文字
 62
     7
 48
50.0
100
AcDbText
 10
13162.9790565769
 20
895.0906074299405
 30
0.0
 40
200.0
  1
基 礎 図
  7
STYLE2
100
AcDbText
  0
TEXT
  5
10B74
330
747D
100
AcDbEntity
  8
文字
 62
     7
 48
50.0
100
AcDbText
 10
13201.43669998441
 20
477.2740661031255
 30
0.0
 40
160.0
  1
機種名
  7
STYLE2
100
AcDbText
  0
TEXT
  5
10B79
330
747D
100
AcDbEntity
  8
文字
 62
     7
 48
50.0
100
AcDbText
 10
14524.131837222
 20
1031.557706291228
 30
0.0
 40
100.0
  1
NO.08      <縮尺> S=1/40
  7
STYLE2
100
AcDbText
  0
LINE
  5
10B7B
330
747D
100
AcDbEntity
  8
仕様書枠
 48
50.0
100
AcDbLine
 10
13107.2
 20
800.0
 30
0.0
 11
14251.2
 21
800.0
 31
0.0
  0
LINE
  5
10B88
330
747D
100
AcDbEntity
  8
仕様書枠
  6
Continuous
 48
50.0
100
AcDbLine
 10
14251.2
 20
1200.0
 30
0.0
 11
14251.2
 21
800.0
 31
0.0
  0
TEXT
  5
14DEF
330
747D
100
AcDbEntity
  8
文字
 62
     7
 48
50.0
100
AcDbText
 10
14641.2525855784
 20
871.1744590657925
 30
0.0
 40
100.0
  1
～一般型・多雪地型～
  7
STYLE2
100
AcDbText
  0
TEXT
  5
15A76
330
747D
100
AcDbEntity
  8
文字
 62
     7
 48
50.0
100
AcDbText
 10
14297.57997527204
 20
488.1241585855691
 30
0.0
 40
160.0
  1
NXP-60ST・HT
  7
STYLE2
100
AcDbText
  0
TEXT
  5
1C9B2
330
747D
100
AcDbEntity
  8
部品1
 48
50.0
100
AcDbText
 10
9907.367337153672
 20
5975.7581817548
 30
0.0
 40
80.0
  1
(a=50,b=60,c=80)
  7
STYLE1
100
AcDbText
  0
TEXT
  5
1C9B3
330
747D
100
AcDbEntity
  8
部品1
 48
50.0
100
AcDbText
 10
9793.667096427723
 20
6109.314707840744
 30
0.0
 40
80.0
  1
※a,b,cは屋根の出幅です。
  7
STYLE1
100
AcDbText
  0
MTEXT
  5
1C9B4
102
{ACAD_REACTORS
330
1C9B5
102
}
330
747D
100
AcDbEntity
  8
部品1
 62
     7
 48
50.0
100
AcDbMText
 10
10659.83718660449
 20
6320.982608040209
 30
0.0
 40
120.0
 41
0.0
 71
     6
 72
     1
  1
\A1;屋根の外寸
  7
STYLE1
 73
     1
 44
1.0
1001
ACAD
1000
MTEXTBEGIN
1070
    73
1070
     1
1070
    44
1040
1.0
1070
    74
1070
     0
1000
MTEXTEND
  0
LEADER
  5
1C9B5
330
747D
100
AcDbEntity
  8
寸法
 48
50.0
100
AcDbLeader
  3
INABA_S50G
 71
     0
 73
     0
 74
     0
 75
     1
 40
120.0
 41
672.0
 76
     3
 10
9589.599999999999
 20
6616.0
 30
0.0
 10
9837.837186604492
 20
6235.98260804021
 30
0.0
 10
9962.837186604492
 20
6235.98260804021
 30
0.0
340
1C9B4
1001
ACAD
1000
DSTYLE
1002
{
1070
   341
1005
1C530
1070
    40
1040
1.0
1070
   343
1005
1C530
1070
   344
1005
1C530
1002
}
  0
LINE
  5
1C9BB
330
747D
100
AcDbEntity
  8
想像線
 48
10.0
100
AcDbLine
 10
9589.600000000004
 20
5439.999999999996
 30
0.0
 11
6860.600000000001
 21
5440.000000000001
 31
0.0
  0
LINE
  5
1C9BC
330
747D
100
AcDbEntity
  8
想像線
 48
10.0
100
AcDbLine
 10
6857.599999999999
 20
7792.0
 30
0.0
 11
9589.599999999993
 21
7792.0
 31
0.0
  0
DIMENSION
  5
1CAB6
330
747D
100
AcDbEntity
  8
寸法
 48
50.0
100
AcDbDimension
  2
*D2
 10
6466.888116550748
 20
5440.0
 30
0.0
 11
6466.888116550748
 21
5470.000000000002
 31
0.0
 70
   160
  1
b
 71
     5
 42
60.0
  3
INABA_S40G
100
AcDbAlignedDimension
 13
6907.599999999999
 23
5500.0
 33
0.0
 14
6857.599999999999
 24
5440.0
 34
0.0
 50
90.0
100
AcDbRotatedDimension
1001
ACAD
1000
DSTYLE
1002
{
1070
   174
1070
     0
1070
   272
1070
     1
1070
   288
1070
     0
1070
   341
1005
0
1002
}
  0
DIMENSION
  5
1CAB7
330
747D
100
AcDbEntity
  8
寸法
 48
50.0
100
AcDbDimension
  2
*D3
 10
6466.888116550748
 20
5500.0
 30
0.0
 11
6366.876305527126
 21
6606.000000000001
 31
0.0
 70
    32
 71
     5
 42
2212.0
  3
INABA_S40G
100
AcDbAlignedDimension
 13
6907.599999999999
 23
7712.0
 33
0.0
 14
6907.599999999999
 24
5500.0
 34
0.0
 50
90.0
100
AcDbRotatedDimension
1001
ACAD
1000
DSTYLE
1002
{
1070
   174
1070
     0
1070
   272
1070
     1
1070
   288
1070
     0
1070
   341
1005
0
1002
}
  0
DIMENSION
  5
1CAB8
330
747D
100
AcDbEntity
  8
寸法
 48
50.0
100
AcDbDimension
  2
*D4
 10
6466.888116550748
 20
7712.0
 30
0.0
 11
6466.888116550747
 21
7752.000000000002
 31
0.0
 70
   160
  1
c
 71
     5
 42
80.0
  3
INABA_S40G
100
AcDbAlignedDimension
 13
6857.599999999999
 23
7792.0
 33
0.0
 14
6907.599999999999
 24
7712.0
 34
0.0
 50
90.0
100
AcDbRotatedDimension
1001
ACAD
1000
DSTYLE
1002
{
1070
   174
1070
     0
1070
   272
1070
     1
1070
   288
1070
     0
1070
   341
1005
0
1002
}
  0
LINE
  5
1CAB9
330
747D
100
AcDbEntity
  8
想像線
 48
10.0
100
AcDbLine
 10
6857.600000000001
 20
5443.000000000001
 30
0.0
 11
6857.599999999997
 21
7791.999999999998
 31
0.0
  0
LINE
  5
1CAC3
330
747D
100
AcDbEntity
  8
部品1
 48
50.0
100
AcDbLine
 10
7903.600000000003
 20
5425.000000000006
 30
0.0
 11
7713.600000000004
 21
5425.000000000006
 31
0.0
  0
LINE
  5
1CAC4
330
747D
100
AcDbEntity
  8
部品1
 48
50.0
100
AcDbLine
 10
7903.600000000003
 20
5615.000000000005
 30
0.0
 11
7713.600000000004
 21
5615.000000000005
 31
0.0
  0
LINE
  5
1CAC5
330
747D
100
AcDbEntity
  8
部品1
 48
50.0
100
AcDbLine
 10
7713.600000000004
 20
5425.000000000009
 30
0.0
 11
7713.600000000004
 21
5615.000000000009
 31
0.0
  0
LINE
  5
1CAC6
330
747D
100
AcDbEntity
  8
部品1
 48
50.0
100
AcDbLine
 10
7903.600000000003
 20
5425.000000000009
 30
0.0
 11
7903.600000000003
 21
5615.000000000009
 31
0.0
  0
LINE
  5
1CAC7
330
747D
100
AcDbEntity
  8
部品1
 48
50.0
100
AcDbLine
 10
7297.599999999999
 20
7712.0
 30
0.0
 11
6907.599999999999
 21
7712.0
 31
0.0
  0
LINE
  5
1CAC8
330
747D
100
AcDbEntity
  8
部品1
 48
50.0
100
AcDbLine
 10
7297.599999999999
 20
7711.999999999996
 30
0.0
 11
6907.599999999999
 21
7712.0
 31
0.0
  0
LINE
  5
1CAC9
330
747D
100
AcDbEntity
  8
部品1
 48
50.0
100
AcDbLine
 10
7297.599999999999
 20
7522.0
 30
0.0
 11
6907.599999999999
 21
7522.0
 31
0.0
  0
LINE
  5
1CACE
330
747D
100
AcDbEntity
  8
部品1
 48
50.0
100
AcDbLine
 10
6907.599999999999
 20
7522.0
 30
0.0
 11
6907.599999999999
 21
7712.0
 31
0.0
  0
LINE
  5
1CAD0
330
747D
100
AcDbEntity
  8
部品1
 48
50.0
100
AcDbLine
 10
7297.599999999999
 20
7522.0
 30
0.0
 11
7297.599999999999
 21
7712.0
 31
0.0
  0
LINE
  5
1CAD1
330
747D
100
AcDbEntity
  8
部品1
 48
50.0
100
AcDbLine
 10
7903.600000000001
 20
7712.000000000006
 30
0.0
 11
7713.600000000003
 21
7712.000000000006
 31
0.0
  0
LINE
  5
1CAD2
330
747D
100
AcDbEntity
  8
部品1
 48
50.0
100
AcDbLine
 10
7903.600000000001
 20
7522.000000000005
 30
0.0
 11
7713.600000000003
 21
7522.000000000005
 31
0.0
  0
LINE
  5
1CAD3
330
747D
100
AcDbEntity
  8
部品1
 48
50.0
100
AcDbLine
 10
7713.600000000003
 20
7522.00000000001
 30
0.0
 11
7713.600000000003
 21
7712.000000000009
 31
0.0
  0
LINE
  5
1CAD4
330
747D
100
AcDbEntity
  8
部品1
 48
50.0
100
AcDbLine
 10
7903.600000000001
 20
7522.00000000001
 30
0.0
 11
7903.600000000001
 21
7712.000000000009
 31
0.0
  0
LINE
  5
1CCF0
330
747D
100
AcDbEntity
  8
想像線
 48
10.0
100
AcDbLine
 10
9589.599999999993
 20
7792.0
 30
0.0
 11
9589.600000000004
 21
5440.0
 31
0.0
  0
LINE
  5
1CCF3
330
747D
100
AcDbEntity
  8
部品1
 48
50.0
100
AcDbLine
 10
9149.600000000001
 20
5690.0
 30
0.0
 11
9539.6
 21
5690.0
 31
0.0
  0
LINE
  5
1CCF4
330
747D
100
AcDbEntity
  8
部品1
 48
50.0
100
AcDbLine
 10
9149.600000000001
 20
5500.0
 30
0.0
 11
9539.6
 21
5500.0
 31
0.0
  0
LINE
  5
1CCF5
330
747D
100
AcDbEntity
  8
部品1
 48
50.0
100
AcDbLine
 10
9149.600000000001
 20
5500.000000000003
 30
0.0
 11
9539.6
 21
5500.0
 31
0.0
  0
LINE
  5
1CCF6
330
747D
100
AcDbEntity
  8
部品1
 48
50.0
100
AcDbLine
 10
9149.600000000001
 20
5690.0
 30
0.0
 11
9149.600000000001
 21
5500.0
 31
0.0
  0
LINE
  5
1CCFB
330
747D
100
AcDbEntity
  8
部品1
 48
50.0
100
AcDbLine
 10
9539.6
 20
5690.0
 30
0.0
 11
9539.6
 21
5500.0
 31
0.0
  0
LINE
  5
1CCFF
330
747D
100
AcDbEntity
  8
部品1
 48
50.0
100
AcDbLine
 10
9149.599999999997
 20
7711.999999999996
 30
0.0
 11
9539.599999999998
 21
7712.0
 31
0.0
  0
LINE
  5
1CD00
330
747D
100
AcDbEntity
  8
部品1
 48
50.0
100
AcDbLine
 10
9149.599999999997
 20
7712.0
 30
0.0
 11
9539.599999999998
 21
7712.0
 31
0.0
  0
LINE
  5
1CD01
330
747D
100
AcDbEntity
  8
部品1
 48
50.0
100
AcDbLine
 10
9149.599999999997
 20
7522.0
 30
0.0
 11
9539.599999999998
 21
7522.0
 31
0.0
  0
LINE
  5
1CD02
330
747D
100
AcDbEntity
  8
部品1
 48
50.0
100
AcDbLine
 10
9149.599999999997
 20
7522.0
 30
0.0
 11
9149.599999999997
 21
7712.0
 31
0.0
  0
LINE
  5
1CD04
330
747D
100
AcDbEntity
  8
部品1
 48
50.0
100
AcDbLine
 10
9539.599999999998
 20
7522.0
 30
0.0
 11
9539.599999999998
 21
7712.0
 31
0.0
  0
TEXT
  5
1D002
330
747D
100
AcDbEntity
  8
文字
 62
     7
 48
50.0
100
AcDbText
 10
13188.16259899338
 20
246.7109242801889
 30
0.0
 40
80.0
  1
※寒冷地等は地域の実情に合わせた基礎にして下さい。
  7
STYLE2
100
AcDbText
  0
TEXT
  5
1D6DB
330
747D
100
AcDbEntity
  8
部品1
 48
50.0
100
AcDbText
 10
8102.735210891813
 20
5297.533387806431
 30
0.0
 40
120.0
  1
扉面
  7
STYLE1
 72
     1
 11
8230.735210891813
 21
5281.533387806432
 31
0.0
100
AcDbText
 73
     1
  0
LINE
  5
1E666
330
747D
100
AcDbEntity
  8
想像線
 48
10.0
100
AcDbLine
 10
6857.600000000001
 20
5443.000000000001
 30
0.0
 11
6860.600000000001
 21
5440.000000000001
 31
0.0
  0
DIMENSION
  5
1E8F8
330
747D
100
AcDbEntity
  8
寸法
 48
50.0
100
AcDbDimension
  2
*D32
 10
9539.599999999998
 20
8478.551625802023
 30
0.0
 11
8223.599999999999
 21
8478.551625802023
 31
0.0
 70
   160
 71
     5
 42
2632.0
  3
INABA_S40G
100
AcDbAlignedDimension
 13
6907.599999999999
 23
7712.0
 33
0.0
 14
9539.599999999998
 24
7712.0
 34
0.0
100
AcDbRotatedDimension
1001
ACAD
1000
DSTYLE
1002
{
1070
   174
1070
     0
1070
   272
1070
     1
1070
   288
1070
     0
1070
   341
1005
0
1002
}
  0
DIMENSION
  5
1E8F9
330
747D
100
AcDbEntity
  8
寸法
 48
50.0
100
AcDbDimension
  2
*D31
 10
6907.599999999999
 20
8478.551625802023
 30
0.0
 11
6882.6
 21
8478.551625802023
 31
0.0
 70
   160
  1
a
 71
     5
 42
50.0
  3
INABA_S40G
100
AcDbAlignedDimension
 13
6857.599999999999
 23
7792.0
 33
0.0
 14
6907.599999999999
 24
7712.0
 34
0.0
100
AcDbRotatedDimension
1001
ACAD
1000
DSTYLE
1002
{
1070
   174
1070
     0
1070
   272
1070
     1
1070
   288
1070
     0
1070
   341
1005
0
1002
}
  0
DIMENSION
  5
1E8FA
330
747D
100
AcDbEntity
  8
寸法
 48
50.0
100
AcDbDimension
  2
*D30
 10
9589.599999999999
 20
8478.551625802023
 30
0.0
 11
9564.599999999998
 21
8478.551625802023
 31
0.0
 70
   160
  1
a
 71
     5
 42
50.0
  3
INABA_S40G
100
AcDbAlignedDimension
 13
9539.599999999998
 23
7712.0
 33
0.0
 14
9589.599999999999
 24
7792.000000000005
 34
0.0
100
AcDbRotatedDimension
1001
ACAD
1000
DSTYLE
1002
{
1070
   174
1070
     0
1070
   272
1070
     1
1070
   288
1070
     0
1070
   341
1005
0
1002
}
  0
DIMENSION
  5
1E8FB
330
747D
100
AcDbEntity
  8
寸法
 48
50.0
100
AcDbDimension
  2
*D29
 10
8638.600000000002
 20
8220.624237135963
 30
0.0
 11
8223.600000000002
 21
8320.624237135962
 31
0.0
 70
    32
 71
     5
 42
830.0
  3
INABA_S40G
100
AcDbAlignedDimension
 13
7808.600000000002
 23
7712.000000000006
 33
0.0
 14
8638.600000000002
 24
7712.000000000003
 34
0.0
100
AcDbRotatedDimension
1001
ACAD
1000
DSTYLE
1002
{
1070
   174
1070
     0
1070
   272
1070
     1
1070
   288
1070
     0
1070
   341
1005
0
1002
}
  0
DIMENSION
  5
1E8FC
330
747D
100
AcDbEntity
  8
寸法
 48
50.0
100
AcDbDimension
  2
*D28
 10
6907.599999999999
 20
8220.624237135963
 30
0.0
 11
7358.1
 21
8320.624237135962
 31
0.0
 70
    32
 71
     5
 42
901.0000000000037
  3
INABA_S40G
100
AcDbAlignedDimension
 13
7808.600000000002
 23
7712.000000000006
 33
0.0
 14
6907.599999999999
 24
7712.0
 34
0.0
100
AcDbRotatedDimension
1001
ACAD
1000
DSTYLE
1002
{
1070
   174
1070
     0
1070
   272
1070
     1
1070
   288
1070
     0
1070
   341
1005
0
1002
}
  0
DIMENSION
  5
1E8FD
330
747D
100
AcDbEntity
  8
寸法
 48
50.0
100
AcDbDimension
  2
*D27
 10
9539.599999999998
 20
8220.624237135963
 30
0.0
 11
9089.1
 21
8320.624237135962
 31
0.0
 70
    32
 71
     5
 42
900.9999999999964
  3
INABA_S40G
100
AcDbAlignedDimension
 13
8638.600000000002
 23
7712.000000000003
 33
0.0
 14
9539.599999999998
 24
7712.0
 34
0.0
100
AcDbRotatedDimension
1001
ACAD
1000
DSTYLE
1002
{
1070
   174
1070
     0
1070
   272
1070
     1
1070
   288
1070
     0
1070
   341
1005
0
1002
}
  0
DIMENSION
  5
1E9AA
330
747D
100
AcDbEntity
  8
寸法
 48
50.0
100
AcDbDimension
  2
*D33
 10
9539.599999999998
 20
8478.551625802023
 30
0.0
 11
8223.599999999999
 21
8478.551625802023
 31
0.0
 70
   160
 71
     5
 42
2632.0
  3
INABA_S40G
100
AcDbAlignedDimension
 13
6907.599999999999
 23
7712.0
 33
0.0
 14
9539.599999999998
 24
7712.0
 34
0.0
100
AcDbRotatedDimension
1001
ACAD
1000
DSTYLE
1002
{
1070
   174
1070
     0
1070
   272
1070
     1
1070
   288
1070
     0
1070
   341
1005
0
1002
}
  0
LINE
  5
1E9C4
330
747D
100
AcDbEntity
  8
部品1
 48
50.0
100
AcDbLine
 10
8733.6
 20
7522.000000000007
 30
0.0
 11
8733.6
 21
7712.000000000007
 31
0.0
  0
LINE
  5
1E9C5
330
747D
100
AcDbEntity
  8
部品1
 48
50.0
100
AcDbLine
 10
8543.600000000003
 20
7522.000000000007
 30
0.0
 11
8543.600000000003
 21
7712.000000000007
 31
0.0
  0
LINE
  5
1E9C6
330
747D
100
AcDbEntity
  8
部品1
 48
50.0
100
AcDbLine
 10
8733.6
 20
7522.000000000004
 30
0.0
 11
8543.600000000003
 21
7522.000000000004
 31
0.0
  0
LINE
  5
1E9C7
330
747D
100
AcDbEntity
  8
部品1
 48
50.0
100
AcDbLine
 10
8733.6
 20
7712.000000000003
 30
0.0
 11
8543.600000000003
 21
7712.000000000003
 31
0.0
  0
LINE
  5
1E9C8
330
747D
100
AcDbEntity
  8
部品1
 48
50.0
100
AcDbLine
 10
8733.600000000002
 20
5500.000000000007
 30
0.0
 11
8733.600000000002
 21
5690.000000000008
 31
0.0
  0
LINE
  5
1E9C9
330
747D
100
AcDbEntity
  8
部品1
 48
50.0
100
AcDbLine
 10
8543.600000000003
 20
5500.000000000007
 30
0.0
 11
8543.600000000003
 21
5690.000000000008
 31
0.0
  0
LINE
  5
1E9CA
330
747D
100
AcDbEntity
  8
部品1
 48
50.0
100
AcDbLine
 10
8733.600000000002
 20
5690.000000000003
 30
0.0
 11
8543.600000000003
 21
5690.000000000003
 31
0.0
  0
LINE
  5
1E9CB
330
747D
100
AcDbEntity
  8
部品1
 48
50.0
100
AcDbLine
 10
8733.600000000002
 20
5500.000000000003
 30
0.0
 11
8543.600000000003
 21
5500.000000000003
 31
0.0
  0
LEADER
  5
1EB63
330
747D
100
AcDbEntity
  8
寸法
 48
50.0
100
AcDbLeader
  3
INABA_S50G
 71
     0
 73
     0
 74
     0
 75
     1
 40
120.0
 41
1282.349242404918
 76
     3
 10
9634.440685572831
 20
7701.456639287918
 30
0.0
 10
9890.827897155237
 20
7897.800576904058
 30
0.0
 10
10015.82789715523
 20
7897.800576904058
 30
0.0
340
1EB64
1001
ACAD
1000
DSTYLE
1002
{
1070
   341
1005
1C530
1070
    40
1040
1.0
1070
   343
1005
1C530
1070
   344
1005
1C530
1002
}
  0
MTEXT
  5
1EB64
102
{ACAD_REACTORS
330
1EB63
102
}
330
747D
100
AcDbEntity
  8
部品1
 62
     7
 48
50.0
100
AcDbMText
 10
10040.82789715523
 20
7982.800576904057
 30
0.0
 40
120.0
 41
0.0
 71
     4
 72
     1
  1
現場打コンクリート
  7
STYLE1
 73
     1
 44
1.0
1001
ACAD
1000
MTEXTBEGIN
1070
    73
1070
     1
1070
    44
1040
1.0
1070
    74
1070
     0
1000
MTEXTEND
  0
TEXT
  5
1EB65
330
747D
100
AcDbEntity
  8
部品1
 48
50.0
100
AcDbText
 10
10048.95182925034
 20
8109.278165376133
 30
0.0
 40
120.0
  1
組立後
  7
STYLE1
100
AcDbText
  0
LINE
  5
1ECE1
330
747D
100
AcDbEntity
  8
点線
 48
10.0
100
AcDbLine
 10
9639.599999999999
 20
5599.999999999999
 30
0.0
 11
9639.600000000001
 21
5399.999999999999
 31
0.0
  0
LINE
  5
1ECE2
330
747D
100
AcDbEntity
  8
点線
 48
10.0
100
AcDbLine
 10
9439.6
 20
5399.999999999999
 30
0.0
 11
9639.600000000001
 21
5399.999999999999
 31
0.0
  0
LINE
  5
1ECE3
330
747D
100
AcDbEntity
  8
点線
 48
10.0
100
AcDbLine
 10
9439.6
 20
5600.0
 30
0.0
 11
9439.6
 21
5399.999999999999
 31
0.0
  0
LINE
  5
1ECE4
330
747D
100
AcDbEntity
  8
点線
 48
10.0
100
AcDbLine
 10
9439.6
 20
5600.0
 30
0.0
 11
9639.599999999999
 21
5599.999999999999
 31
0.0
  0
LINE
  5
1ECE5
330
747D
100
AcDbEntity
  8
点線
 48
10.0
100
AcDbLine
 10
6807.6
 20
5399.999999999999
 30
0.0
 11
7007.6
 21
5399.999999999999
 31
0.0
  0
LINE
  5
1ECE6
330
747D
100
AcDbEntity
  8
点線
 48
10.0
100
AcDbLine
 10
6807.6
 20
5600.0
 30
0.0
 11
6807.6
 21
5399.999999999999
 31
0.0
  0
LINE
  5
1ECE7
330
747D
100
AcDbEntity
  8
点線
 48
10.0
100
AcDbLine
 10
7007.6
 20
5599.999999999999
 30
0.0
 11
7007.6
 21
5399.999999999999
 31
0.0
  0
LINE
  5
1ECE8
330
747D
100
AcDbEntity
  8
点線
 48
10.0
100
AcDbLine
 10
6807.6
 20
5600.0
 30
0.0
 11
7007.6
 21
5599.999999999999
 31
0.0
  0
LINE
  5
1ED13
330
747D
100
AcDbEntity
  8
点線
 48
10.0
100
AcDbLine
 10
6807.599999999999
 20
7611.999999999992
 30
0.0
 11
7007.6
 21
7611.999999999992
 31
0.0
  0
LINE
  5
1ED14
330
747D
100
AcDbEntity
  8
点線
 48
10.0
100
AcDbLine
 10
7007.599999999996
 20
7811.999999999992
 30
0.0
 11
7007.6
 21
7611.999999999992
 31
0.0
  0
LINE
  5
1ED15
330
747D
100
AcDbEntity
  8
点線
 48
10.0
100
AcDbLine
 10
6807.599999999999
 20
7811.999999999994
 30
0.0
 11
6807.599999999999
 21
7611.999999999992
 31
0.0
  0
LINE
  5
1ED16
330
747D
100
AcDbEntity
  8
点線
 48
10.0
100
AcDbLine
 10
6807.599999999999
 20
7811.999999999994
 30
0.0
 11
7007.599999999996
 21
7811.999999999992
 31
0.0
  0
LINE
  5
1ED17
330
747D
100
AcDbEntity
  8
点線
 48
10.0
100
AcDbLine
 10
9439.599999999998
 20
7811.999999999994
 30
0.0
 11
9439.599999999998
 21
7611.999999999992
 31
0.0
  0
LINE
  5
1ED18
330
747D
100
AcDbEntity
  8
点線
 48
10.0
100
AcDbLine
 10
9439.599999999998
 20
7611.999999999992
 30
0.0
 11
9639.599999999999
 21
7611.999999999992
 31
0.0
  0
LINE
  5
1ED19
330
747D
100
AcDbEntity
  8
点線
 48
10.0
100
AcDbLine
 10
9439.599999999998
 20
7811.999999999994
 30
0.0
 11
9639.599999999997
 21
7811.999999999992
 31
0.0
  0
LINE
  5
1ED1A
330
747D
100
AcDbEntity
  8
点線
 48
10.0
100
AcDbLine
 10
9639.599999999997
 20
7811.999999999992
 30
0.0
 11
9639.599999999999
 21
7611.999999999992
 31
0.0
  0
TEXT
  5
1F34D
330
747D
100
AcDbEntity
  8
文字
 48
50.0
100
AcDbText
 10
7308.552229389291
 20
7221.437820004372
 30
0.0
 40
120.0
  1
100x190x390
  7
STYLE1
100
AcDbText
  0
MTEXT
  5
1F34E
102
{ACAD_REACTORS
330
1F34F
102
}
330
747D
100
AcDbEntity
  8
部品1
 62
     7
 48
50.0
100
AcDbMText
 10
7447.493414253826
 20
7473.936419497994
 30
0.0
 40
120.0
 41
0.0
 71
     4
 72
     1
  1
\A1;C.B
  7
STYLE1
 73
     1
 44
1.0
1001
ACAD
1000
MTEXTBEGIN
1070
    73
1070
     1
1070
    44
1040
1.0
1070
    74
1070
     0
1000
MTEXTEND
  0
LEADER
  5
1F34F
330
747D
100
AcDbEntity
  8
寸法
 48
50.0
100
AcDbLeader
  3
INABA_S50G
 71
     0
 73
     0
 74
     0
 75
     1
 40
120.0
 41
185.591883092037
 76
     3
 10
7229.116701030521
 20
7604.069562767072
 30
0.0
 10
7297.493414253826
 20
7388.936419497993
 30
0.0
 10
7422.493414253826
 20
7388.936419497993
 30
0.0
340
1F34E
1001
ACAD
1000
DSTYLE
1002
{
1070
   341
1005
1C530
1070
    40
1040
1.0
1070
   343
1005
1C530
1070
   344
1005
1C530
1002
}
  0
TEXT
  5
1F6EC
330
747D
100
AcDbEntity
  8
文字
 48
50.0
100
AcDbText
 10
10071.86642648089
 20
7707.363529387935
 30
0.0
 40
120.0
  1
深サ:200
  7
STYLE1
100
AcDbText
  0
DIMENSION
  5
1F6ED
330
747D
100
AcDbEntity
  8
寸法
 48
50.0
100
AcDbDimension
  2
*D35
 10
10157.84087348511
 20
5399.999999999993
 30
0.0
 11
10157.84087348511
 21
5499.999999999993
 31
0.0
 70
   160
 71
     5
 42
200.0
  3
INABA_S40G
100
AcDbAlignedDimension
 13
9639.599999999999
 23
5599.999999999993
 33
0.0
 14
9639.600000000001
 24
5399.999999999993
 34
0.0
 50
90.0
100
AcDbRotatedDimension
1001
ACAD
1000
DSTYLE
1002
{
1070
   174
1070
     0
1070
   272
1070
     1
1070
   288
1070
     0
1070
   341
1005
0
1002
}
  0
DIMENSION
  5
1F6EE
330
747D
100
AcDbEntity
  8
寸法
 48
50.0
100
AcDbDimension
  2
*D34
 10
9439.6
 20
4926.16892615646
 30
0.0
 11
9539.6
 21
4926.16892615646
 31
0.0
 70
   160
 71
     5
 42
200.0
  3
INABA_S40G
100
AcDbAlignedDimension
 13
9639.600000000001
 23
5399.999999999993
 33
0.0
 14
9439.6
 24
5399.999999999993
 34
0.0
100
AcDbRotatedDimension
1001
ACAD
1000
DSTYLE
1002
{
1070
   174
1070
     0
1070
   272
1070
     1
1070
   288
1070
     0
1070
   341
1005
0
1002
}
  0
LINE
  5
1FF69
330
747D
100
AcDbEntity
  8
部品1
 48
50.0
100
AcDbLine
 10
7713.600000000006
 20
6041.0
 30
0.0
 11
7713.600000000003
 21
6431.0
 31
0.0
  0
LINE
  5
1FF6A
330
747D
100
AcDbEntity
  8
部品1
 48
50.0
100
AcDbLine
 10
7713.600000000003
 20
6041.0
 30
0.0
 11
7713.600000000003
 21
6431.0
 31
0.0
  0
LINE
  5
1FF6B
330
747D
100
AcDbEntity
  8
部品1
 48
50.0
100
AcDbLine
 10
7903.600000000003
 20
6041.0
 30
0.0
 11
7903.600000000003
 21
6431.0
 31
0.0
  0
LINE
  5
1FF6C
330
747D
100
AcDbEntity
  8
部品1
 48
50.0
100
AcDbLine
 10
7903.600000000003
 20
6431.0
 30
0.0
 11
7713.600000000003
 21
6431.0
 31
0.0
  0
LINE
  5
1FF6D
330
747D
100
AcDbEntity
  8
部品1
 48
50.0
100
AcDbLine
 10
7903.600000000003
 20
6041.0
 30
0.0
 11
7713.600000000003
 21
6041.0
 31
0.0
  0
LINE
  5
1FF6E
330
747D
100
AcDbEntity
  8
部品1
 48
50.0
100
AcDbLine
 10
8733.600000000002
 20
6041.0
 30
0.0
 11
8543.600000000003
 21
6041.0
 31
0.0
  0
LINE
  5
1FF6F
330
747D
100
AcDbEntity
  8
部品1
 48
50.0
100
AcDbLine
 10
8733.600000000002
 20
6431.0
 30
0.0
 11
8543.600000000003
 21
6431.0
 31
0.0
  0
LINE
  5
1FF70
330
747D
100
AcDbEntity
  8
部品1
 48
50.0
100
AcDbLine
 10
8733.600000000002
 20
6041.0
 30
0.0
 11
8733.600000000002
 21
6431.0
 31
0.0
  0
LINE
  5
1FF71
330
747D
100
AcDbEntity
  8
部品1
 48
50.0
100
AcDbLine
 10
8543.600000000003
 20
6041.0
 30
0.0
 11
8543.600000000003
 21
6431.0
 31
0.0
  0
LINE
  5
1FF72
330
747D
100
AcDbEntity
  8
部品1
 48
50.0
100
AcDbLine
 10
8543.600000000006
 20
6041.0
 30
0.0
 11
8543.600000000003
 21
6431.0
 31
0.0
  0
LINE
  5
1FF7B
330
747D
100
AcDbEntity
  8
部品1
 48
50.0
100
AcDbLine
 10
8543.600000000013
 20
6780.999999999996
 30
0.0
 11
8543.60000000001
 21
7170.999999999996
 31
0.0
  0
LINE
  5
1FF7C
330
747D
100
AcDbEntity
  8
部品1
 48
50.0
100
AcDbLine
 10
8543.60000000001
 20
6780.999999999996
 30
0.0
 11
8543.60000000001
 21
7170.999999999996
 31
0.0
  0
LINE
  5
1FF7D
330
747D
100
AcDbEntity
  8
部品1
 48
50.0
100
AcDbLine
 10
8733.600000000009
 20
6780.999999999996
 30
0.0
 11
8733.600000000009
 21
7170.999999999996
 31
0.0
  0
LINE
  5
1FF7E
330
747D
100
AcDbEntity
  8
部品1
 48
50.0
100
AcDbLine
 10
8733.600000000009
 20
7170.999999999996
 30
0.0
 11
8543.60000000001
 21
7170.999999999996
 31
0.0
  0
LINE
  5
1FF7F
330
747D
100
AcDbEntity
  8
部品1
 48
50.0
100
AcDbLine
 10
8733.600000000009
 20
6780.999999999996
 30
0.0
 11
8543.60000000001
 21
6780.999999999996
 31
0.0
  0
LINE
  5
1FF88
330
747D
100
AcDbEntity
  8
部品1
 48
50.0
100
AcDbLine
 10
7903.60000000001
 20
6780.999999999996
 30
0.0
 11
7713.60000000001
 21
6780.999999999996
 31
0.0
  0
LINE
  5
1FF89
330
747D
100
AcDbEntity
  8
部品1
 48
50.0
100
AcDbLine
 10
7903.60000000001
 20
7170.999999999996
 30
0.0
 11
7713.60000000001
 21
7170.999999999996
 31
0.0
  0
LINE
  5
1FF8A
330
747D
100
AcDbEntity
  8
部品1
 48
50.0
100
AcDbLine
 10
7903.60000000001
 20
6780.999999999996
 30
0.0
 11
7903.60000000001
 21
7170.999999999996
 31
0.0
  0
LINE
  5
1FF8B
330
747D
100
AcDbEntity
  8
部品1
 48
50.0
100
AcDbLine
 10
7713.60000000001
 20
6780.999999999996
 30
0.0
 11
7713.60000000001
 21
7170.999999999996
 31
0.0
  0
LINE
  5
1FF8C
330
747D
100
AcDbEntity
  8
部品1
 48
50.0
100
AcDbLine
 10
7713.600000000013
 20
6780.999999999996
 30
0.0
 11
7713.60000000001
 21
7170.999999999996
 31
0.0
  0
LINE
  5
1FF9E
330
747D
100
AcDbEntity
  8
部品1
 48
50.0
100
AcDbLine
 10
7297.6
 20
5690.0
 30
0.0
 11
7297.6
 21
5500.0
 31
0.0
  0
LINE
  5
1FF9F
330
747D
100
AcDbEntity
  8
部品1
 48
50.0
100
AcDbLine
 10
6907.599999999999
 20
5690.0
 30
0.0
 11
6907.599999999999
 21
5500.0
 31
0.0
  0
LINE
  5
1FFA0
330
747D
100
AcDbEntity
  8
部品1
 48
50.0
100
AcDbLine
 10
6907.599999999999
 20
5500.000000000003
 30
0.0
 11
7297.6
 21
5500.0
 31
0.0
  0
LINE
  5
1FFA1
330
747D
100
AcDbEntity
  8
部品1
 48
50.0
100
AcDbLine
 10
6907.599999999999
 20
5500.0
 30
0.0
 11
7297.6
 21
5500.0
 31
0.0
  0
LINE
  5
1FFA2
330
747D
100
AcDbEntity
  8
部品1
 48
50.0
100
AcDbLine
 10
6907.599999999999
 20
5690.0
 30
0.0
 11
7297.6
 21
5690.0
 31
0.0
  0
LINE
  5
1FFC5
330
747D
100
AcDbEntity
  8
寸法
 62
     0
 48
50.0
100
AcDbLine
 10
6907.599999999998
 20
6511.000000000001
 30
0.0
 11
7097.599999999999
 21
6511.000000000001
 31
0.0
  0
LINE
  5
1FFC6
330
747D
100
AcDbEntity
  8
寸法
 62
     0
 48
50.0
100
AcDbLine
 10
6907.599999999998
 20
6701.0
 30
0.0
 11
7097.599999999999
 21
6701.0
 31
0.0
  0
LINE
  5
1FFC7
330
747D
100
AcDbEntity
  8
部品1
 48
50.0
100
AcDbLine
 10
7097.599999999999
 20
6511.000000000001
 30
0.0
 11
7097.599999999999
 21
6701.0
 31
0.0
  0
LINE
  5
1FFC8
330
747D
100
AcDbEntity
  8
部品1
 48
50.0
100
AcDbLine
 10
6907.599999999999
 20
6511.0
 30
0.0
 11
6907.599999999999
 21
6701.0
 31
0.0
  0
LINE
  5
1FFC9
330
747D
100
AcDbEntity
  8
寸法
 62
     0
 48
50.0
100
AcDbLine
 10
9349.599999999997
 20
6701.0
 30
0.0
 11
9349.599999999997
 21
6511.000000000001
 31
0.0
  0
LINE
  5
1FFCA
330
747D
100
AcDbEntity
  8
部品1
 48
50.0
100
AcDbLine
 10
9539.599999999998
 20
6511.000000000001
 30
0.0
 11
9539.599999999998
 21
6701.0
 31
0.0
  0
LINE
  5
1FFCB
330
747D
100
AcDbEntity
  8
寸法
 62
     0
 48
50.0
100
AcDbLine
 10
9349.599999999997
 20
6701.0
 30
0.0
 11
9539.599999999998
 21
6701.0
 31
0.0
  0
LINE
  5
1FFCC
330
747D
100
AcDbEntity
  8
寸法
 62
     0
 48
50.0
100
AcDbLine
 10
9349.599999999997
 20
6511.000000000001
 30
0.0
 11
9539.599999999998
 21
6511.000000000001
 31
0.0
  0
DIMENSION
  5
2038F
330
747D
100
AcDbEntity
  8
寸法
 48
50.0
100
AcDbDimension
  2
*D40
 10
6710.037993301121
 20
5499.999999999999
 30
0.0
 11
6710.03799330112
 21
4891.514718625764
 31
0.0
 70
   160
  1
扉の出<>
 71
     5
 42
74.99999999999818
  3
INABA_S40G
100
AcDbAlignedDimension
 13
6936.6
 23
5425.0
 33
0.0
 14
6870.543893583842
 24
5499.999999999999
 34
0.0
 50
90.0
100
AcDbRotatedDimension
1001
ACAD
1000
DSTYLE
1002
{
1070
   341
1005
0
1002
}
  0
LINE
  5
20390
102
{ACAD_REACTORS
330
203AE
102
}
330
747D
100
AcDbEntity
  8
想像線
 48
10.0
100
AcDbLine
 10
8670.599999999998
 20
5425.000000000004
 30
0.0
 11
8670.599999999998
 21
5500.0
 31
0.0
  0
LINE
  5
20391
102
{ACAD_REACTORS
330
203AE
102
}
330
747D
100
AcDbEntity
  8
想像線
 48
10.0
100
AcDbLine
 10
6936.6
 20
5500.0
 30
0.0
 11
8670.599999999998
 21
5500.000000000003
 31
0.0
  0
LINE
  5
20392
102
{ACAD_REACTORS
330
203AE
102
}
330
747D
100
AcDbEntity
  8
想像線
 48
10.0
100
AcDbLine
 10
6936.6
 20
5425.0
 30
0.0
 11
6936.6
 21
5500.0
 31
0.0
  0
HATCH
  5
20393
102
{ACAD_REACTORS
330
203AE
102
}
330
747D
100
AcDbEntity
  8
寸法
 48
50.0
100
AcDbHatch
 10
0.0
 20
0.0
 30
0.0
210
0.0
220
0.0
230
1.0
  2
DOTS
 70
     0
 71
     0
 91
        1
 92
        7
 72
     0
 73
     1
 93
        4
 10
8670.599999999998
 20
5500.000000000003
 10
6936.600000000002
 20
5500.0
 10
6936.6
 20
5425.0
 10
8670.599999999998
 20
5425.000000000004
 97
        0
 75
     0
 76
     1
 52
0.0
 41
10.0
 77
     0
 78
     1
 53
0.0
 43
-173.7936156968508
 44
784.8721425423136
 45
7.9375
 46
15.875
 79
     2
 49
0.0
 49
-15.875
 47
3.549710751249138
 98
        1
 10
7555.003986455638
 20
5495.942190535872
  0
LINE
  5
20394
102
{ACAD_REACTORS
330
203AE
102
}
330
747D
100
AcDbEntity
  8
想像線
 48
10.0
100
AcDbLine
 10
6936.6
 20
5425.0
 30
0.0
 11
8670.599999999998
 21
5425.000000000004
 31
0.0
  0
LINE
  5
20721
330
747D
100
AcDbEntity
  8
部品1
 48
50.0
100
AcDbLine
 10
6969.539401023372
 20
740.7607876117562
 30
0.0
 11
6569.539401023374
 21
740.7607876117545
 31
0.0
  0
LINE
  5
20722
330
747D
100
AcDbEntity
  8
部品1
 48
50.0
100
AcDbLine
 10
6969.539401023374
 20
1140.760787611754
 30
0.0
 11
6969.539401023372
 21
740.7607876117562
 31
0.0
  0
LINE
  5
20723
330
747D
100
AcDbEntity
  8
部品1
 48
50.0
100
AcDbLine
 10
6569.539401023374
 20
740.7607876117545
 30
0.0
 11
6569.539401023374
 21
1140.760787611754
 31
0.0
  0
TEXT
  5
20724
330
747D
100
AcDbEntity
  8
部品1
100
AcDbText
 10
6173.380976809117
 20
402.0913671270181
 30
0.0
 40
80.0
  1
a寸法：100～150mmに対応
  7
STYLE2
100
AcDbText
  0
TEXT
  5
20725
330
747D
100
AcDbEntity
  8
部品1
100
AcDbText
 10
9290.785345987952
 20
378.6220795440777
 30
0.0
 40
80.0
  1
  が4本必要になります。
  7
STYLE2
100
AcDbText
  0
TEXT
  5
20726
330
747D
100
AcDbEntity
  8
部品1
100
AcDbText
 10
9289.421709624315
 20
528.3190492410467
 30
0.0
 40
80.0
  1
\U+203BオールアンカーM10(市販品)
  7
STYLE2
100
AcDbText
  0
TEXT
  5
20727
330
747D
100
AcDbEntity
  8
部品1
100
AcDbText
 10
9285.330800533406
 20
673.9251098471076
 30
0.0
 40
80.0
  1
c寸法：135～175,190mmに対応
  7
STYLE2
100
AcDbText
  0
TEXT
  5
20728
330
747D
100
AcDbEntity
  8
部品1
100
AcDbText
 10
7731.908046917862
 20
378.6220795440777
 30
0.0
 40
80.0
  1
  が4本必要になります。
  7
STYLE2
100
AcDbText
  0
TEXT
  5
20729
330
747D
100
AcDbEntity
  8
部品1
100
AcDbText
 10
7730.544410554225
 20
528.3190492410467
 30
0.0
 40
80.0
  1
\U+203BオールアンカーM10(市販品)
  7
STYLE2
100
AcDbText
  0
TEXT
  5
2072A
330
747D
100
AcDbEntity
  8
部品1
100
AcDbText
 10
7725.99895600877
 20
673.9251098471076
 30
0.0
 40
80.0
  1
b寸法：100～120mmに対応
  7
STYLE2
100
AcDbText
  0
DIMENSION
  5
2072B
330
747D
100
AcDbEntity
  8
寸法
 48
50.0
100
AcDbDimension
  2
*D51
 10
7067.610405383771
 20
1140.760787611754
 30
0.0
 11
6967.61040538377
 21
1240.760787611756
 31
0.0
 70
    32
  1
a
 71
     5
 42
200.0000000000009
  3
INABA_S40G
100
AcDbAlignedDimension
 13
6819.539401023376
 23
1340.760787611755
 33
0.0
 14
6819.539401023378
 24
1140.760787611754
 34
0.0
 50
90.0
100
AcDbRotatedDimension
1001
ACAD
1000
DSTYLE
1002
{
1070
   174
1070
     0
1070
   272
1070
     1
1070
   288
1070
     0
1070
   341
1005
0
1002
}
  0
LINE
  5
2072C
330
747D
100
AcDbEntity
  8
部品1
 48
50.0
100
AcDbLine
 10
10836.83169876017
 20
2600.000000000002
 30
0.0
 11
10836.83169876017
 21
200.0
 31
0.0
  0
TEXT
  5
2072D
330
747D
100
AcDbEntity
  8
部品1
100
AcDbText
 10
8398.176479605451
 20
2175.866049504641
 30
0.0
 40
120.0
  1
地盤がコンクリートの場合
  7
STYLE2
100
AcDbText
  0
LINE
  5
2072E
330
747D
100
AcDbEntity
  8
部品1
100
AcDbLine
 10
9884.927506749455
 20
1469.904381151202
 30
0.0
 11
9884.927506749455
 21
1454.360787611753
 31
0.0
  0
LINE
  5
2072F
330
747D
100
AcDbEntity
  8
部品1
100
AcDbLine
 10
9900.927506749454
 20
1469.904381151202
 30
0.0
 11
9900.927506749454
 21
1454.360787611753
 31
0.0
  0
LINE
  5
20730
330
747D
100
AcDbEntity
  8
部品1
100
AcDbLine
 10
9932.927506749456
 20
1544.360787611757
 30
0.0
 11
9932.927506749456
 21
1441.006256599767
 31
0.0
  0
LINE
  5
20731
330
747D
100
AcDbEntity
  8
部品1
100
AcDbLine
 10
9852.927506749455
 20
1544.360787611753
 30
0.0
 11
9852.927506749455
 21
1441.006256599761
 31
0.0
  0
ARC
  5
20732
330
747D
100
AcDbEntity
  8
部品1
100
AcDbCircle
 10
9892.927506749455
 20
1454.360787611753
 30
0.0
 40
8.0
100
AcDbArc
 50
288.1948723386656
 51
0.0
  0
ARC
  5
20733
330
747D
100
AcDbEntity
  8
部品1
100
AcDbCircle
 10
9892.927506749455
 20
1454.360787611753
 30
0.0
 40
8.0
100
AcDbArc
 50
180.0
 51
251.8051276613344
  0
ARC
  5
20734
330
747D
100
AcDbEntity
  8
部品1
100
AcDbCircle
 10
9923.87344726921
 20
1436.760787611751
 30
0.0
 40
10.0
100
AcDbArc
 50
5.684241598181141
 51
90.0
  0
ARC
  5
20735
330
747D
100
AcDbEntity
  8
部品1
100
AcDbCircle
 10
9861.981566229699
 20
1436.760787611754
 30
0.0
 40
10.0
100
AcDbArc
 50
90.0
 51
174.3157584018188
  0
LINE
  5
20736
330
747D
100
AcDbEntity
  8
部品1
100
AcDbLine
 10
9861.981566229699
 20
1446.760787611754
 30
0.0
 11
9923.87344726921
 21
1446.760787611751
 31
0.0
  0
CIRCLE
  5
20737
330
747D
100
AcDbEntity
  8
部品1
100
AcDbCircle
 10
9892.927506749455
 20
1384.360787611753
 30
0.0
 40
16.0
  0
LINE
  5
20738
330
747D
100
AcDbEntity
  8
細線
100
AcDbLine
 10
9900.927506749454
 20
1424.760787611751
 30
0.0
 11
9900.927506749454
 21
1398.217194072305
 31
0.0
  0
LINE
  5
20739
330
747D
100
AcDbEntity
  8
細線
100
AcDbLine
 10
9884.927506749455
 20
1424.760787611751
 30
0.0
 11
9884.927506749455
 21
1398.217194072305
 31
0.0
  0
LINE
  5
2073A
330
747D
100
AcDbEntity
  8
細線
100
AcDbLine
 10
9907.927506749455
 20
1360.760787611751
 30
0.0
 11
9907.927506749455
 21
1354.760787611751
 31
0.0
  0
LINE
  5
2073B
330
747D
100
AcDbEntity
  8
細線
100
AcDbLine
 10
9877.927506749456
 20
1360.760787611754
 30
0.0
 11
9877.927506749456
 21
1354.760787611754
 31
0.0
  0
LINE
  5
2073C
330
747D
100
AcDbEntity
  8
細線
100
AcDbLine
 10
9877.927506749456
 20
1360.760787611754
 30
0.0
 11
9907.927506749455
 21
1360.760787611754
 31
0.0
  0
LINE
  5
2073D
330
747D
100
AcDbEntity
  8
細線
100
AcDbLine
 10
9877.927506749456
 20
1354.760787611754
 30
0.0
 11
9907.927506749455
 21
1354.760787611754
 31
0.0
  0
ARC
  5
2073E
330
747D
100
AcDbEntity
  8
細線
100
AcDbCircle
 10
9892.927506749455
 20
1424.760787611751
 30
0.0
 40
8.0
100
AcDbArc
 50
0.0
 51
180.0
  0
CIRCLE
  5
2073F
330
747D
100
AcDbEntity
  8
細線
100
AcDbCircle
 10
9892.927506749455
 20
1524.360787611753
 30
0.0
 40
8.0
  0
CIRCLE
  5
20740
330
747D
100
AcDbEntity
  8
部品1
100
AcDbCircle
 10
9892.927506749455
 20
1483.760787611754
 30
0.0
 40
16.0
  0
ARC
  5
20741
330
747D
100
AcDbEntity
  8
部品1
100
AcDbCircle
 10
9892.927506749455
 20
1494.360787611753
 30
0.0
 40
8.0
100
AcDbArc
 50
28.00674301450512
 51
151.9932569854948
  0
ARC
  5
20742
330
747D
100
AcDbEntity
  8
部品1
100
AcDbCircle
 10
9922.927506749454
 20
1544.360787611757
 30
0.0
 40
10.0
100
AcDbArc
 50
0.0
 51
90.0
  0
ARC
  5
20743
330
747D
100
AcDbEntity
  8
部品1
100
AcDbCircle
 10
9862.927506749455
 20
1544.360787611753
 30
0.0
 40
10.0
100
AcDbArc
 50
90.0
 51
180.0
  0
LINE
  5
20744
330
747D
100
AcDbEntity
  8
部品1
100
AcDbLine
 10
9862.927506749455
 20
1554.360787611753
 30
0.0
 11
9922.927506749454
 21
1554.360787611757
 31
0.0
  0
LINE
  5
20745
330
747D
100
AcDbEntity
  8
細線
100
AcDbLine
 10
9844.848174678796
 20
1367.416722334008
 30
0.0
 11
9771.50410940105
 21
1440.760787611754
 31
0.0
  0
LINE
  5
20746
330
747D
100
AcDbEntity
  8
細線
100
AcDbLine
 10
9848.779312272432
 20
1405.911991611565
 30
0.0
 11
9813.930516272243
 21
1440.760787611754
 31
0.0
  0
LINE
  5
20747
330
747D
100
AcDbEntity
  8
部品1
100
AcDbLine
 10
9962.927506749455
 20
1152.760787611754
 30
0.0
 11
9962.927506749455
 21
1140.760787611754
 31
0.0
  0
LINE
  5
20748
330
747D
100
AcDbEntity
  8
部品1
100
AcDbLine
 10
9902.927506749456
 20
1173.160787611756
 30
0.0
 11
9907.927506749455
 21
1173.160787611756
 31
0.0
  0
LINE
  5
20749
330
747D
100
AcDbEntity
  8
部品1
100
AcDbLine
 10
9877.927506749456
 20
1207.160787611756
 30
0.0
 11
9907.927506749455
 21
1207.160787611756
 31
0.0
  0
LINE
  5
2074A
330
747D
100
AcDbEntity
  8
部品1
100
AcDbLine
 10
9877.927506749456
 20
1213.160787611756
 30
0.0
 11
9907.927506749455
 21
1213.160787611756
 31
0.0
  0
LINE
  5
2074B
330
747D
100
AcDbEntity
  8
部品1
100
AcDbLine
 10
9877.927506749456
 20
1213.160787611756
 30
0.0
 11
9877.927506749456
 21
1207.160787611756
 31
0.0
  0
LINE
  5
2074C
330
747D
100
AcDbEntity
  8
部品1
100
AcDbLine
 10
9907.927506749455
 20
1213.160787611752
 30
0.0
 11
9907.927506749455
 21
1207.160787611752
 31
0.0
  0
LINE
  5
2074D
330
747D
100
AcDbEntity
  8
部品1
100
AcDbLine
 10
9885.927506749455
 20
1205.013683635414
 30
0.0
 11
9899.927506749456
 21
1205.013683635414
 31
0.0
  0
LINE
  5
2074E
330
747D
100
AcDbEntity
  8
部品1
100
AcDbLine
 10
9882.927506749455
 20
1192.760787611754
 30
0.0
 11
9902.927506749456
 21
1192.760787611754
 31
0.0
  0
LINE
  5
2074F
330
747D
100
AcDbEntity
  8
部品1
100
AcDbLine
 10
9875.927506749455
 20
1171.760787611754
 30
0.0
 11
9872.927506749455
 21
1168.760787611754
 31
0.0
  0
LINE
  5
20750
330
747D
100
AcDbEntity
  8
部品1
100
AcDbLine
 10
9875.927506749455
 20
1171.760787611754
 30
0.0
 11
9909.927506749454
 21
1171.760787611754
 31
0.0
  0
LINE
  5
20751
330
747D
100
AcDbEntity
  8
部品1
100
AcDbLine
 10
9909.927506749454
 20
1171.760787611754
 30
0.0
 11
9912.927506749454
 21
1168.760787611754
 31
0.0
  0
LINE
  5
20752
330
747D
100
AcDbEntity
  8
部品1
100
AcDbLine
 10
9877.927506749456
 20
1173.160787611756
 30
0.0
 11
9877.927506749456
 21
1171.760787611754
 31
0.0
  0
LINE
  5
20753
330
747D
100
AcDbEntity
  8
部品1
100
AcDbLine
 10
9907.927506749455
 20
1173.160787611752
 30
0.0
 11
9907.927506749455
 21
1171.760787611754
 31
0.0
  0
LINE
  5
20754
330
747D
100
AcDbEntity
  8
部品1
100
AcDbLine
 10
9862.927506749455
 20
1155.760787611754
 30
0.0
 11
9922.927506749454
 21
1155.760787611758
 31
0.0
  0
LINE
  5
20755
330
747D
100
AcDbEntity
  8
部品1
100
AcDbLine
 10
9862.927506749455
 20
1152.760787611754
 30
0.0
 11
9862.927506749455
 21
1155.760787611754
 31
0.0
  0
LINE
  5
20756
330
747D
100
AcDbEntity
  8
部品1
100
AcDbLine
 10
9922.927506749454
 20
1152.760787611754
 30
0.0
 11
9922.927506749454
 21
1155.760787611762
 31
0.0
  0
LINE
  5
20757
330
747D
100
AcDbEntity
  8
部品1
100
AcDbLine
 10
9872.927506749455
 20
1155.760787611754
 30
0.0
 11
9872.927506749455
 21
1168.760787611754
 31
0.0
  0
LINE
  5
20758
330
747D
100
AcDbEntity
  8
部品1
100
AcDbLine
 10
9882.927506749455
 20
1155.760787611754
 30
0.0
 11
9882.927506749455
 21
1192.760787611754
 31
0.0
  0
LINE
  5
20759
330
747D
100
AcDbEntity
  8
部品1
100
AcDbLine
 10
9902.927506749456
 20
1155.760787611754
 30
0.0
 11
9902.927506749456
 21
1192.760787611754
 31
0.0
  0
LINE
  5
2075A
330
747D
100
AcDbEntity
  8
部品1
100
AcDbLine
 10
9912.927506749454
 20
1155.760787611758
 30
0.0
 11
9912.927506749454
 21
1168.760787611754
 31
0.0
  0
LINE
  5
2075B
330
747D
100
AcDbEntity
  8
部品1
100
AcDbLine
 10
9877.927506749456
 20
1173.160787611756
 30
0.0
 11
9882.927506749455
 21
1173.160787611756
 31
0.0
  0
LINE
  5
2075C
330
747D
100
AcDbEntity
  8
部品1
100
AcDbLine
 10
9902.927506749456
 20
1173.160787611756
 30
0.0
 11
9907.927506749455
 21
1173.160787611756
 31
0.0
  0
LINE
  5
2075D
330
747D
100
AcDbEntity
  8
部品1
100
AcDbLine
 10
9872.927506749455
 20
1168.760787611754
 30
0.0
 11
9912.927506749454
 21
1168.760787611754
 31
0.0
  0
ARC
  5
2075E
330
747D
100
AcDbEntity
  8
部品1
100
AcDbCircle
 10
9877.927506749456
 20
1164.246032821436
 30
0.0
 40
6.736691384996243
100
AcDbArc
 50
42.08048849858776
 51
137.9195115014122
  0
ARC
  5
2075F
330
747D
100
AcDbEntity
  8
部品1
100
AcDbCircle
 10
9907.927506749455
 20
1164.246032821436
 30
0.0
 40
6.736691384996243
100
AcDbArc
 50
42.08048849858776
 51
137.9195115014122
  0
ARC
  5
20760
330
747D
100
AcDbEntity
  8
部品1
100
AcDbCircle
 10
9892.927506749455
 20
1147.672154390937
 30
0.0
 40
23.33946124318486
100
AcDbArc
 50
64.63020194521535
 51
115.3697980547846
  0
LINE
  5
20761
330
747D
100
AcDbEntity
  8
部品1
100
AcDbLine
 10
9885.927506749455
 20
1201.013683635414
 30
0.0
 11
9899.927506749456
 21
1201.013683635414
 31
0.0
  0
LINE
  5
20762
330
747D
100
AcDbEntity
  8
部品1
100
AcDbLine
 10
9887.927506749456
 20
1192.760787611754
 30
0.0
 11
9887.927506749456
 21
1201.013683635414
 31
0.0
  0
LINE
  5
20763
330
747D
100
AcDbEntity
  8
部品1
100
AcDbLine
 10
9897.927506749454
 20
1192.760787611754
 30
0.0
 11
9897.927506749454
 21
1201.013683635414
 31
0.0
  0
LINE
  5
20764
330
747D
100
AcDbEntity
  8
部品1
100
AcDbLine
 10
9882.927506749455
 20
1140.760787611754
 30
0.0
 11
9882.927506749455
 21
1105.360787611753
 31
0.0
  0
LINE
  5
20765
330
747D
100
AcDbEntity
  8
部品1
100
AcDbLine
 10
9902.927506749456
 20
1140.760787611754
 30
0.0
 11
9902.927506749456
 21
1105.360787611753
 31
0.0
  0
LINE
  5
20766
330
747D
100
AcDbEntity
  8
部品1
100
AcDbLine
 10
9891.017006115918
 20
1105.360787611753
 30
0.0
 11
9894.838007382993
 21
1105.360787611753
 31
0.0
  0
LINE
  5
20767
330
747D
100
AcDbEntity
  8
部品1
100
AcDbLine
 10
9879.597634902197
 20
1083.161641963379
 30
0.0
 11
9887.509125725143
 21
1081.97491833994
 31
0.0
  0
LINE
  5
20768
330
747D
100
AcDbEntity
  8
部品1
100
AcDbLine
 10
9880.487677619781
 20
1089.09526008059
 30
0.0
 11
9888.399168442722
 21
1087.908536457151
 31
0.0
  0
LINE
  5
20769
330
747D
100
AcDbEntity
  8
部品1
100
AcDbLine
 10
9881.377720337356
 20
1095.028878197801
 30
0.0
 11
9889.289211160303
 21
1093.842154574358
 31
0.0
  0
LINE
  5
2076A
330
747D
100
AcDbEntity
  8
部品1
100
AcDbLine
 10
9882.26776305494
 20
1100.962496315009
 30
0.0
 11
9890.179253877885
 21
1099.775772691566
 31
0.0
  0
LINE
  5
2076B
330
747D
100
AcDbEntity
  8
部品1
100
AcDbLine
 10
9898.345887773768
 20
1081.97491833994
 30
0.0
 11
9906.257378596713
 21
1083.161641963379
 31
0.0
  0
LINE
  5
2076C
330
747D
100
AcDbEntity
  8
部品1
100
AcDbLine
 10
9897.455845056192
 20
1087.908536457151
 30
0.0
 11
9905.367335879137
 21
1089.09526008059
 31
0.0
  0
LINE
  5
2076D
330
747D
100
AcDbEntity
  8
部品1
100
AcDbLine
 10
9896.565802338608
 20
1093.842154574358
 30
0.0
 11
9904.477293161555
 21
1095.028878197801
 31
0.0
  0
LINE
  5
2076E
330
747D
100
AcDbEntity
  8
部品1
100
AcDbLine
 10
9895.675759621026
 20
1099.775772691566
 30
0.0
 11
9903.587250443971
 21
1100.962496315009
 31
0.0
  0
LINE
  5
2076F
330
747D
100
AcDbEntity
  8
部品1
100
AcDbLine
 10
9885.927506749455
 20
1201.013683635414
 30
0.0
 11
9885.927506749455
 21
1205.013683635414
 31
0.0
  0
LINE
  5
20770
330
747D
100
AcDbEntity
  8
部品1
100
AcDbLine
 10
9899.927506749456
 20
1201.013683635414
 30
0.0
 11
9899.927506749456
 21
1205.013683635414
 31
0.0
  0
LINE
  5
20771
330
747D
100
AcDbEntity
  8
部品1
100
AcDbLine
 10
9877.927506749456
 20
1171.760787611754
 30
0.0
 11
9907.927506749455
 21
1171.760787611754
 31
0.0
  0
LINE
  5
20772
330
747D
100
AcDbEntity
  8
部品1
100
AcDbLine
 10
9907.927506749455
 20
1173.160787611752
 30
0.0
 11
9907.927506749455
 21
1171.760787611754
 31
0.0
  0
LINE
  5
20773
330
747D
100
AcDbEntity
  8
部品1
100
AcDbLine
 10
9877.927506749456
 20
1173.160787611756
 30
0.0
 11
9877.927506749456
 21
1171.760787611751
 31
0.0
  0
LINE
  5
20774
330
747D
100
AcDbEntity
  8
部品1
100
AcDbLine
 10
9877.927506749456
 20
1173.160787611756
 30
0.0
 11
9882.927506749455
 21
1173.160787611756
 31
0.0
  0
LINE
  5
20775
330
747D
100
AcDbEntity
  8
部品1
100
AcDbLine
 10
9907.927506749455
 20
1213.160787611752
 30
0.0
 11
9907.927506749455
 21
1207.160787611752
 31
0.0
  0
LINE
  5
20776
330
747D
100
AcDbEntity
  8
部品1
100
AcDbLine
 10
9877.927506749456
 20
1213.160787611756
 30
0.0
 11
9877.927506749456
 21
1207.160787611756
 31
0.0
  0
LINE
  5
20777
330
747D
100
AcDbEntity
  8
部品1
100
AcDbLine
 10
9877.927506749456
 20
1213.160787611756
 30
0.0
 11
9907.927506749455
 21
1213.160787611756
 31
0.0
  0
LINE
  5
20778
330
747D
100
AcDbEntity
  8
部品1
100
AcDbLine
 10
9877.927506749456
 20
1207.160787611756
 30
0.0
 11
9907.927506749455
 21
1207.160787611756
 31
0.0
  0
LINE
  5
20779
330
747D
100
AcDbEntity
  8
部品1
100
AcDbLine
 10
9822.927506749454
 20
1152.760787611754
 30
0.0
 11
9822.927506749454
 21
1140.760787611754
 31
0.0
  0
LINE
  5
2077A
330
747D
100
AcDbEntity
  8
部品1
100
AcDbLine
 10
9876.927506749455
 20
1065.360787611753
 30
0.0
 11
9884.838997572401
 21
1064.174063988313
 31
0.0
  0
LINE
  5
2077B
330
747D
100
AcDbEntity
  8
部品1
100
AcDbLine
 10
9901.016015926508
 20
1064.174063988313
 30
0.0
 11
9908.927506749456
 21
1065.360787611753
 31
0.0
  0
LINE
  5
2077C
330
747D
100
AcDbEntity
  8
部品1
100
AcDbLine
 10
9877.817549467039
 20
1071.294405728964
 30
0.0
 11
9885.729040289984
 21
1070.107682105521
 31
0.0
  0
LINE
  5
2077D
330
747D
100
AcDbEntity
  8
部品1
100
AcDbLine
 10
9878.707592184614
 20
1077.228023846172
 30
0.0
 11
9886.619083007559
 21
1076.041300222729
 31
0.0
  0
LINE
  5
2077E
330
747D
100
AcDbEntity
  8
部品1
100
AcDbLine
 10
9900.125973208925
 20
1070.107682105521
 30
0.0
 11
9908.037464031876
 21
1071.294405728964
 31
0.0
  0
LINE
  5
2077F
330
747D
100
AcDbEntity
  8
部品1
100
AcDbLine
 10
9899.23593049135
 20
1076.041300222729
 30
0.0
 11
9907.147421314297
 21
1077.228023846172
 31
0.0
  0
LINE
  5
20780
330
747D
100
AcDbEntity
  8
部品1
100
AcDbLine
 10
9882.927506749455
 20
1105.360787611753
 30
0.0
 11
9876.927506749455
 21
1065.360787611753
 31
0.0
  0
LINE
  5
20781
330
747D
100
AcDbEntity
  8
部品1
100
AcDbLine
 10
9908.927506749456
 20
1065.360787611753
 30
0.0
 11
9902.927506749456
 21
1105.360787611753
 31
0.0
  0
LINE
  5
20782
330
747D
100
AcDbEntity
  8
部品1
100
AcDbLine
 10
9891.017006115918
 20
1105.360787611753
 30
0.0
 11
9884.838997572401
 21
1064.174063988313
 31
0.0
  0
LINE
  5
20783
330
747D
100
AcDbEntity
  8
部品1
100
AcDbLine
 10
9901.016015926508
 20
1064.174063988313
 30
0.0
 11
9894.838007382993
 21
1105.360787611753
 31
0.0
  0
LINE
  5
20784
330
747D
100
AcDbEntity
  8
部品1
100
AcDbLine
 10
9822.927506749454
 20
1140.760787611754
 30
0.0
 11
9962.927506749455
 21
1140.760787611754
 31
0.0
  0
LINE
  5
20785
330
747D
100
AcDbEntity
  8
部品1
100
AcDbLine
 10
9822.927506749454
 20
1152.760787611754
 30
0.0
 11
9962.927506749455
 21
1152.760787611754
 31
0.0
  0
LINE
  5
20786
330
747D
100
AcDbEntity
  8
部品1
100
AcDbLine
 10
9933.824275757526
 20
1437.751248310655
 30
0.0
 11
9962.927506749455
 21
1152.760787611754
 31
0.0
  0
LINE
  5
20787
330
747D
100
AcDbEntity
  8
部品1
100
AcDbLine
 10
9852.030737741387
 20
1437.751248310655
 30
0.0
 11
9822.927506749454
 21
1152.760787611754
 31
0.0
  0
DIMENSION
  5
20788
330
747D
100
AcDbEntity
  8
寸法
 48
50.0
100
AcDbDimension
  2
*D52
 10
10135.67415237624
 20
1140.760787611754
 30
0.0
 11
10035.67415237624
 21
1290.760787611756
 31
0.0
 70
    32
  1
c
 71
     5
 42
300.0
  3
INABA_S40G
100
AcDbAlignedDimension
 13
9933.038598659123
 23
1440.760787611754
 33
0.0
 14
9962.927506749455
 24
1140.760787611754
 34
0.0
 50
90.0
100
AcDbRotatedDimension
1001
ACAD
1000
DSTYLE
1002
{
1070
   174
1070
     0
1070
   272
1070
     1
1070
   288
1070
     0
1070
   341
1005
0
1002
}
  0
LINE
  5
20789
330
747D
100
AcDbEntity
  8
細線
 48
10.0
100
AcDbLine
 10
9920.492265040358
 20
833.8425902724702
 30
0.0
 11
10227.41046237963
 21
1140.760787611754
 31
0.0
  0
LINE
  5
2078A
330
747D
100
AcDbEntity
  8
細線
 48
10.0
100
AcDbLine
 10
9948.776536287818
 20
833.8425902724702
 30
0.0
 11
10255.69473362709
 21
1140.760787611754
 31
0.0
  0
LINE
  5
2078B
330
747D
100
AcDbEntity
  8
細線
 48
10.0
100
AcDbLine
 10
9977.060807535275
 20
833.8425902724702
 30
0.0
 11
10283.97900487456
 21
1140.760787611756
 31
0.0
  0
LINE
  5
2078C
330
747D
100
AcDbEntity
  8
細線
100
AcDbLine
 10
9618.955769441653
 20
1140.760787611754
 30
0.0
 11
9532.927506749455
 21
1226.789050303954
 31
0.0
  0
LINE
  5
2078D
330
747D
100
AcDbEntity
  8
細線
100
AcDbLine
 10
9661.382176312846
 20
1140.760787611754
 30
0.0
 11
9532.927506749455
 21
1269.215457175147
 31
0.0
  0
LINE
  5
2078E
330
747D
100
AcDbEntity
  8
部品1
100
AcDbLine
 10
9532.927506749455
 20
1140.760787611751
 30
0.0
 11
9532.927506749455
 21
1440.760787611754
 31
0.0
  0
LINE
  5
2078F
330
747D
100
AcDbEntity
  8
細線
 48
10.0
100
AcDbLine
 10
9310.130109950748
 20
1076.797212888527
 30
0.0
 11
9374.093684673972
 21
1140.760787611754
 31
0.0
  0
LINE
  5
20790
330
747D
100
AcDbEntity
  8
細線
 48
10.0
100
AcDbLine
 10
9310.130109950749
 20
1048.512941641072
 30
0.0
 11
9402.377955921426
 21
1140.760787611754
 31
0.0
  0
LINE
  5
20791
330
747D
100
AcDbEntity
  8
細線
 48
10.0
100
AcDbLine
 10
9310.130109950746
 20
1020.228670393613
 30
0.0
 11
9430.662227168879
 21
1140.760787611754
 31
0.0
  0
LINE
  5
20792
330
747D
100
AcDbEntity
  8
細線
 48
10.0
100
AcDbLine
 10
9550.402418682459
 20
833.8425902724702
 30
0.0
 11
9857.320616021718
 21
1140.760787611754
 31
0.0
  0
LINE
  5
20793
330
747D
100
AcDbEntity
  8
細線
 48
10.0
100
AcDbLine
 10
9522.118147434994
 20
833.8425902724702
 30
0.0
 11
9829.036344774266
 21
1140.760787611754
 31
0.0
  0
LINE
  5
20794
330
747D
100
AcDbEntity
  8
細線
 48
10.0
100
AcDbLine
 10
9493.833876187537
 20
833.8425902724702
 30
0.0
 11
9800.75207352681
 21
1140.760787611756
 31
0.0
  0
LINE
  5
20795
330
747D
100
AcDbEntity
  8
細線
100
AcDbLine
 10
9827.813245106375
 20
1200.603888797927
 30
0.0
 11
9587.656346292543
 21
1440.760787611754
 31
0.0
  0
LINE
  5
20796
330
747D
100
AcDbEntity
  8
細線
100
AcDbLine
 10
9823.882107512737
 20
1162.10861952037
 30
0.0
 11
9545.22993942135
 21
1440.760787611754
 31
0.0
  0
LINE
  5
20797
330
747D
100
AcDbEntity
  8
部品1
100
AcDbLine
 10
9310.130109950748
 20
1534.760787611756
 30
0.0
 11
9852.927506749459
 21
1534.760787611756
 31
0.0
  0
LINE
  5
20798
330
747D
100
AcDbEntity
  8
部品1
100
AcDbLine
 10
9310.130109950748
 20
1540.760787611756
 30
0.0
 11
9822.927506749458
 21
1540.760787611756
 31
0.0
  0
LINE
  5
20799
330
747D
100
AcDbEntity
  8
部品1
100
AcDbLine
 10
9310.130109950748
 20
1440.760787611754
 30
0.0
 11
9852.816414839791
 21
1440.760787611756
 31
0.0
  0
TEXT
  5
2079A
330
747D
100
AcDbEntity
  8
部品1
100
AcDbText
 10
8797.084105304849
 20
1148.666829290658
 30
0.0
 40
120.0
  1
▽G.L
  7
STYLE1
100
AcDbText
  0
LINE
  5
2079B
330
747D
100
AcDbEntity
  8
細線
 48
10.0
100
AcDbLine
 10
8718.10488337222
 20
833.8425902724702
 30
0.0
 11
9025.023080711495
 21
1140.760787611754
 31
0.0
  0
LINE
  5
2079C
330
747D
100
AcDbEntity
  8
細線
 48
10.0
100
AcDbLine
 10
8746.389154619681
 20
833.8425902724702
 30
0.0
 11
9053.307351958954
 21
1140.760787611754
 31
0.0
  0
LINE
  5
2079D
330
747D
100
AcDbEntity
  8
細線
 48
10.0
100
AcDbLine
 10
8774.673425867144
 20
833.8425902724702
 30
0.0
 11
9081.591623206421
 21
1140.760787611754
 31
0.0
  0
LINE
  5
2079E
330
747D
100
AcDbEntity
  8
細線
100
AcDbLine
 10
8397.594902036473
 20
1360.760787611751
 30
0.0
 11
8397.594902036473
 21
1354.760787611751
 31
0.0
  0
LINE
  5
2079F
330
747D
100
AcDbEntity
  8
細線
100
AcDbLine
 10
8367.594902036474
 20
1360.760787611756
 30
0.0
 11
8367.594902036474
 21
1354.760787611756
 31
0.0
  0
LINE
  5
207A0
330
747D
100
AcDbEntity
  8
細線
100
AcDbLine
 10
8367.594902036474
 20
1354.760787611756
 30
0.0
 11
8397.594902036473
 21
1354.760787611756
 31
0.0
  0
ARC
  5
207A1
330
747D
100
AcDbEntity
  8
部品1
100
AcDbCircle
 10
8413.540842556228
 20
1436.760787611753
 30
0.0
 40
10.0
100
AcDbArc
 50
5.684241598181141
 51
90.0
  0
LINE
  5
207A2
330
747D
100
AcDbEntity
  8
部品1
100
AcDbLine
 10
8351.648961516717
 20
1446.760787611754
 30
0.0
 11
8413.540842556228
 21
1446.760787611752
 31
0.0
  0
ARC
  5
207A3
330
747D
100
AcDbEntity
  8
細線
100
AcDbCircle
 10
8382.594902036473
 20
1424.760787611752
 30
0.0
 40
8.0
100
AcDbArc
 50
0.0
 51
180.0
  0
LINE
  5
207A4
330
747D
100
AcDbEntity
  8
細線
100
AcDbLine
 10
8390.594902036474
 20
1424.760787611752
 30
0.0
 11
8390.594902036474
 21
1398.617194072307
 31
0.0
  0
LINE
  5
207A5
330
747D
100
AcDbEntity
  8
細線
100
AcDbLine
 10
8374.594902036474
 20
1424.760787611752
 30
0.0
 11
8374.594902036474
 21
1398.617194072307
 31
0.0
  0
LINE
  5
207A6
330
747D
100
AcDbEntity
  8
細線
100
AcDbLine
 10
8367.594902036474
 20
1360.760787611756
 30
0.0
 11
8397.594902036473
 21
1360.760787611756
 31
0.0
  0
CIRCLE
  5
207A7
330
747D
100
AcDbEntity
  8
部品1
100
AcDbCircle
 10
8382.594902036473
 20
1384.760787611754
 30
0.0
 40
16.0
  0
ARC
  5
207A8
330
747D
100
AcDbEntity
  8
部品1
100
AcDbCircle
 10
8351.648961516717
 20
1436.760787611756
 30
0.0
 40
10.0
100
AcDbArc
 50
90.0
 51
174.3157584018188
  0
LINE
  5
207A9
330
747D
100
AcDbEntity
  8
部品1
100
AcDbLine
 10
8385.343154908044
 20
1099.775772691568
 30
0.0
 11
8393.254645730989
 21
1100.962496315011
 31
0.0
  0
LINE
  5
207AA
330
747D
100
AcDbEntity
  8
部品1
100
AcDbLine
 10
8386.233197625626
 20
1093.842154574358
 30
0.0
 11
8394.144688448573
 21
1095.028878197801
 31
0.0
  0
LINE
  5
207AB
330
747D
100
AcDbEntity
  8
部品1
100
AcDbLine
 10
8387.12324034321
 20
1087.908536457153
 30
0.0
 11
8395.034731166155
 21
1089.095260080592
 31
0.0
  0
LINE
  5
207AC
330
747D
100
AcDbEntity
  8
部品1
100
AcDbLine
 10
8388.013283060784
 20
1081.97491833994
 30
0.0
 11
8395.924773883733
 21
1083.161641963381
 31
0.0
  0
LINE
  5
207AD
330
747D
100
AcDbEntity
  8
部品1
100
AcDbLine
 10
8388.903325778368
 20
1076.04130022273
 30
0.0
 11
8396.814816601315
 21
1077.228023846173
 31
0.0
  0
LINE
  5
207AE
330
747D
100
AcDbEntity
  8
部品1
100
AcDbLine
 10
8389.793368495944
 20
1070.107682105521
 30
0.0
 11
8397.704859318897
 21
1071.294405728964
 31
0.0
  0
LINE
  5
207AF
330
747D
100
AcDbEntity
  8
部品1
100
AcDbLine
 10
8371.935158341958
 20
1100.962496315011
 30
0.0
 11
8379.846649164903
 21
1099.775772691568
 31
0.0
  0
LINE
  5
207B0
330
747D
100
AcDbEntity
  8
部品1
100
AcDbLine
 10
8371.045115624374
 20
1095.028878197801
 30
0.0
 11
8378.956606447321
 21
1093.842154574358
 31
0.0
  0
LINE
  5
207B1
330
747D
100
AcDbEntity
  8
部品1
100
AcDbLine
 10
8370.155072906799
 20
1089.095260080592
 30
0.0
 11
8378.066563729744
 21
1087.908536457153
 31
0.0
  0
LINE
  5
207B2
330
747D
100
AcDbEntity
  8
部品1
100
AcDbLine
 10
8369.265030189216
 20
1083.161641963381
 30
0.0
 11
8377.176521012161
 21
1081.97491833994
 31
0.0
  0
LINE
  5
207B3
330
747D
100
AcDbEntity
  8
部品1
100
AcDbLine
 10
8368.374987471632
 20
1077.228023846173
 30
0.0
 11
8376.286478294579
 21
1076.04130022273
 31
0.0
  0
LINE
  5
207B4
330
747D
100
AcDbEntity
  8
部品1
100
AcDbLine
 10
8367.484944754057
 20
1071.294405728964
 30
0.0
 11
8375.396435577002
 21
1070.107682105521
 31
0.0
  0
LINE
  5
207B5
330
747D
100
AcDbEntity
  8
部品1
100
AcDbLine
 10
8390.683411213528
 20
1064.174063988315
 30
0.0
 11
8398.594902036473
 21
1065.360787611755
 31
0.0
  0
LINE
  5
207B6
330
747D
100
AcDbEntity
  8
部品1
100
AcDbLine
 10
8366.594902036473
 20
1065.360787611755
 30
0.0
 11
8374.506392859419
 21
1064.174063988315
 31
0.0
  0
LINE
  5
207B7
330
747D
100
AcDbEntity
  8
部品1
100
AcDbLine
 10
8390.683411213528
 20
1064.174063988315
 30
0.0
 11
8384.505402670011
 21
1105.360787611755
 31
0.0
  0
LINE
  5
207B8
330
747D
100
AcDbEntity
  8
部品1
100
AcDbLine
 10
8380.684401402936
 20
1105.360787611755
 30
0.0
 11
8374.506392859419
 21
1064.174063988315
 31
0.0
  0
LINE
  5
207B9
330
747D
100
AcDbEntity
  8
部品1
100
AcDbLine
 10
8398.594902036473
 20
1065.360787611755
 30
0.0
 11
8392.594902036474
 21
1105.360787611755
 31
0.0
  0
LINE
  5
207BA
330
747D
100
AcDbEntity
  8
部品1
100
AcDbLine
 10
8372.594902036473
 20
1105.360787611755
 30
0.0
 11
8366.594902036473
 21
1065.360787611755
 31
0.0
  0
LINE
  5
207BB
330
747D
100
AcDbEntity
  8
部品1
100
AcDbLine
 10
8380.684401402936
 20
1105.360787611755
 30
0.0
 11
8384.505402670011
 21
1105.360787611755
 31
0.0
  0
LINE
  5
207BC
330
747D
100
AcDbEntity
  8
部品1
100
AcDbLine
 10
8392.594902036474
 20
1140.760787611754
 30
0.0
 11
8392.594902036474
 21
1105.360787611755
 31
0.0
  0
LINE
  5
207BD
330
747D
100
AcDbEntity
  8
部品1
100
AcDbLine
 10
8372.594902036473
 20
1140.760787611754
 30
0.0
 11
8372.594902036473
 21
1105.360787611755
 31
0.0
  0
LINE
  5
207BE
330
747D
100
AcDbEntity
  8
部品1
100
AcDbLine
 10
8375.594902036473
 20
1201.013683635416
 30
0.0
 11
8389.594902036474
 21
1201.013683635416
 31
0.0
  0
LINE
  5
207BF
330
747D
100
AcDbEntity
  8
部品1
100
AcDbLine
 10
8389.594902036474
 20
1201.013683635416
 30
0.0
 11
8389.594902036474
 21
1205.013683635416
 31
0.0
  0
LINE
  5
207C0
330
747D
100
AcDbEntity
  8
部品1
100
AcDbLine
 10
8375.594902036473
 20
1201.013683635416
 30
0.0
 11
8375.594902036473
 21
1205.013683635416
 31
0.0
  0
LINE
  5
207C1
330
747D
100
AcDbEntity
  8
部品1
100
AcDbLine
 10
8387.594902036473
 20
1192.760787611756
 30
0.0
 11
8387.594902036473
 21
1201.013683635416
 31
0.0
  0
LINE
  5
207C2
330
747D
100
AcDbEntity
  8
部品1
100
AcDbLine
 10
8377.594902036474
 20
1192.760787611756
 30
0.0
 11
8377.594902036474
 21
1201.013683635416
 31
0.0
  0
LINE
  5
207C3
330
747D
100
AcDbEntity
  8
部品1
100
AcDbLine
 10
8375.594902036473
 20
1205.013683635416
 30
0.0
 11
8389.594902036474
 21
1205.013683635416
 31
0.0
  0
ARC
  5
207C4
330
747D
100
AcDbEntity
  8
部品1
100
AcDbCircle
 10
8382.594902036473
 20
1147.672154390937
 30
0.0
 40
23.33946124318486
100
AcDbArc
 50
64.63020194521535
 51
115.3697980547846
  0
ARC
  5
207C5
330
747D
100
AcDbEntity
  8
部品1
100
AcDbCircle
 10
8397.594902036473
 20
1164.246032821438
 30
0.0
 40
6.736691384996243
100
AcDbArc
 50
42.08048849858776
 51
137.9195115014122
  0
ARC
  5
207C6
330
747D
100
AcDbEntity
  8
部品1
100
AcDbCircle
 10
8367.594902036474
 20
1164.246032821438
 30
0.0
 40
6.736691384996243
100
AcDbArc
 50
42.08048849858776
 51
137.9195115014122
  0
LINE
  5
207C7
330
747D
100
AcDbEntity
  8
部品1
100
AcDbLine
 10
8362.594902036473
 20
1168.760787611756
 30
0.0
 11
8402.594902036474
 21
1168.760787611756
 31
0.0
  0
LINE
  5
207C8
330
747D
100
AcDbEntity
  8
部品1
100
AcDbLine
 10
8392.594902036474
 20
1173.160787611758
 30
0.0
 11
8397.594902036473
 21
1173.160787611758
 31
0.0
  0
LINE
  5
207C9
330
747D
100
AcDbEntity
  8
部品1
100
AcDbLine
 10
8412.594902036472
 20
1152.760787611754
 30
0.0
 11
8412.594902036472
 21
1155.760787611763
 31
0.0
  0
LINE
  5
207CA
330
747D
100
AcDbEntity
  8
部品1
100
AcDbLine
 10
8352.594902036473
 20
1152.760787611754
 30
0.0
 11
8352.594902036473
 21
1155.760787611754
 31
0.0
  0
LINE
  5
207CB
330
747D
100
AcDbEntity
  8
部品1
100
AcDbLine
 10
8399.594902036474
 20
1171.760787611756
 30
0.0
 11
8402.594902036474
 21
1168.760787611756
 31
0.0
  0
LINE
  5
207CC
330
747D
100
AcDbEntity
  8
部品1
100
AcDbLine
 10
8365.594902036473
 20
1171.760787611756
 30
0.0
 11
8362.594902036473
 21
1168.760787611756
 31
0.0
  0
LINE
  5
207CD
330
747D
100
AcDbEntity
  8
部品1
100
AcDbLine
 10
8402.594902036474
 20
1155.76078761176
 30
0.0
 11
8402.594902036474
 21
1168.760787611756
 31
0.0
  0
LINE
  5
207CE
330
747D
100
AcDbEntity
  8
部品1
100
AcDbLine
 10
8362.594902036473
 20
1155.760787611754
 30
0.0
 11
8362.594902036473
 21
1168.760787611756
 31
0.0
  0
LINE
  5
207CF
330
747D
100
AcDbEntity
  8
部品1
100
AcDbLine
 10
8365.594902036473
 20
1171.760787611756
 30
0.0
 11
8399.594902036474
 21
1171.760787611756
 31
0.0
  0
LINE
  5
207D0
330
747D
100
AcDbEntity
  8
部品1
100
AcDbLine
 10
8392.594902036474
 20
1155.760787611754
 30
0.0
 11
8392.594902036474
 21
1192.760787611756
 31
0.0
  0
LINE
  5
207D1
330
747D
100
AcDbEntity
  8
部品1
100
AcDbLine
 10
8372.594902036473
 20
1155.760787611754
 30
0.0
 11
8372.594902036473
 21
1192.760787611756
 31
0.0
  0
LINE
  5
207D2
330
747D
100
AcDbEntity
  8
部品1
100
AcDbLine
 10
8372.594902036473
 20
1192.760787611756
 30
0.0
 11
8392.594902036474
 21
1192.760787611756
 31
0.0
  0
LINE
  5
207D3
330
747D
100
AcDbEntity
  8
部品1
100
AcDbLine
 10
8352.594902036473
 20
1155.760787611754
 30
0.0
 11
8412.594902036472
 21
1155.76078761176
 31
0.0
  0
LINE
  5
207D4
330
747D
100
AcDbEntity
  8
部品1
100
AcDbLine
 10
8397.594902036473
 20
1173.160787611752
 30
0.0
 11
8397.594902036473
 21
1171.760787611756
 31
0.0
  0
LINE
  5
207D5
330
747D
100
AcDbEntity
  8
部品1
100
AcDbLine
 10
8397.594902036473
 20
1213.160787611754
 30
0.0
 11
8397.594902036473
 21
1207.160787611754
 31
0.0
  0
LINE
  5
207D6
330
747D
100
AcDbEntity
  8
部品1
100
AcDbLine
 10
8452.594902036473
 20
1152.760787611754
 30
0.0
 11
8452.594902036473
 21
1140.760787611754
 31
0.0
  0
LINE
  5
207D7
330
747D
100
AcDbEntity
  8
部品1
100
AcDbLine
 10
8367.594902036474
 20
1173.160787611758
 30
0.0
 11
8367.594902036474
 21
1171.760787611756
 31
0.0
  0
LINE
  5
207D8
330
747D
100
AcDbEntity
  8
部品1
100
AcDbLine
 10
8367.594902036474
 20
1213.160787611758
 30
0.0
 11
8367.594902036474
 21
1207.160787611758
 31
0.0
  0
LINE
  5
207D9
330
747D
100
AcDbEntity
  8
部品1
100
AcDbLine
 10
8367.594902036474
 20
1173.160787611758
 30
0.0
 11
8372.594902036473
 21
1173.160787611758
 31
0.0
  0
LINE
  5
207DA
330
747D
100
AcDbEntity
  8
部品1
100
AcDbLine
 10
8367.594902036474
 20
1213.160787611758
 30
0.0
 11
8397.594902036473
 21
1213.160787611758
 31
0.0
  0
LINE
  5
207DB
330
747D
100
AcDbEntity
  8
部品1
100
AcDbLine
 10
8367.594902036474
 20
1207.160787611758
 30
0.0
 11
8397.594902036473
 21
1207.160787611758
 31
0.0
  0
LINE
  5
207DC
330
747D
100
AcDbEntity
  8
部品1
100
AcDbLine
 10
8312.594902036472
 20
1152.760787611754
 30
0.0
 11
8312.594902036472
 21
1140.760787611754
 31
0.0
  0
LINE
  5
207DD
330
747D
100
AcDbEntity
  8
部品1
100
AcDbLine
 10
8312.594902036472
 20
1140.760787611754
 30
0.0
 11
8452.594902036473
 21
1140.760787611754
 31
0.0
  0
LINE
  5
207DE
330
747D
100
AcDbEntity
  8
部品1
100
AcDbLine
 10
8312.594902036472
 20
1152.760787611754
 30
0.0
 11
8452.594902036473
 21
1152.760787611754
 31
0.0
  0
LINE
  5
207DF
330
747D
100
AcDbEntity
  8
部品1
100
AcDbLine
 10
8341.698133028407
 20
1437.751248310656
 30
0.0
 11
8312.594902036472
 21
1152.760787611754
 31
0.0
  0
LINE
  5
207E0
330
747D
100
AcDbEntity
  8
部品1
100
AcDbLine
 10
8423.491671044549
 20
1437.751248310656
 30
0.0
 11
8452.594902036473
 21
1152.760787611754
 31
0.0
  0
LINE
  5
207E1
330
747D
100
AcDbEntity
  8
細線
100
AcDbLine
 10
8317.480640393393
 20
1200.603888797927
 30
0.0
 11
8177.323741579561
 21
1340.760787611754
 31
0.0
  0
LINE
  5
207E2
330
747D
100
AcDbEntity
  8
細線
100
AcDbLine
 10
8313.549502799755
 20
1162.10861952037
 30
0.0
 11
8134.897334708368
 21
1340.760787611754
 31
0.0
  0
LINE
  5
207E3
330
747D
100
AcDbEntity
  8
細線
 48
10.0
100
AcDbLine
 10
7707.340468792883
 20
1074.769071004164
 30
0.0
 11
7773.332185400469
 21
1140.760787611754
 31
0.0
  0
LINE
  5
207E4
330
747D
100
AcDbEntity
  8
細線
 48
10.0
100
AcDbLine
 10
7707.340468792883
 20
1046.484799756705
 30
0.0
 11
7801.616456647922
 21
1140.760787611754
 31
0.0
  0
LINE
  5
207E5
330
747D
100
AcDbEntity
  8
細線
 48
10.0
100
AcDbLine
 10
7707.34046879288
 20
1103.05334225162
 30
0.0
 11
7745.047914153018
 21
1140.760787611754
 31
0.0
  0
LINE
  5
207E6
330
747D
100
AcDbEntity
  8
部品1
100
AcDbLine
 10
8022.594902036473
 20
1140.760787611754
 30
0.0
 11
8022.594902036473
 21
1340.760787611756
 31
0.0
  0
LINE
  5
207E7
330
747D
100
AcDbEntity
  8
細線
100
AcDbLine
 10
8151.049571599864
 20
1140.760787611754
 30
0.0
 11
8022.594902036473
 21
1269.215457175147
 31
0.0
  0
LINE
  5
207E8
330
747D
100
AcDbEntity
  8
細線
100
AcDbLine
 10
8108.623164728671
 20
1140.760787611754
 30
0.0
 11
8022.594902036473
 21
1226.789050303954
 31
0.0
  0
LINE
  5
207E9
330
747D
100
AcDbEntity
  8
部品1
100
AcDbLine
 10
7707.34046879288
 20
1434.760787611758
 30
0.0
 11
8341.392747127839
 21
1434.760787611758
 31
0.0
  0
LINE
  5
207EA
330
747D
100
AcDbEntity
  8
部品1
100
AcDbLine
 10
7707.34046879288
 20
1440.760787611758
 30
0.0
 11
8312.594902036478
 21
1440.760787611756
 31
0.0
  0
LINE
  5
207EB
330
747D
100
AcDbEntity
  8
部品1
100
AcDbLine
 10
7707.34046879288
 20
1340.760787611756
 30
0.0
 11
8331.793465430719
 21
1340.760787611756
 31
0.0
  0
LINE
  5
207EC
330
747D
100
AcDbEntity
  8
細線
 48
10.0
100
AcDbLine
 10
7921.356648161502
 20
833.8425902724702
 30
0.0
 11
8228.274845500761
 21
1140.760787611754
 31
0.0
  0
LINE
  5
207ED
330
747D
100
AcDbEntity
  8
細線
 48
10.0
100
AcDbLine
 10
7864.788105666578
 20
833.8425902724702
 30
0.0
 11
8171.706303005853
 21
1140.760787611754
 31
0.0
  0
LINE
  5
207EE
330
747D
100
AcDbEntity
  8
細線
 48
10.0
100
AcDbLine
 10
7893.07237691404
 20
833.8425902724702
 30
0.0
 11
8199.990574253311
 21
1140.760787611754
 31
0.0
  0
LINE
  5
207EF
330
747D
100
AcDbEntity
  8
Ｇ．Ｌ
100
AcDbLine
 10
7707.340468792883
 20
1140.760787611754
 30
0.0
 11
9171.375707557166
 21
1140.760787611754
 31
0.0
  0
DIMENSION
  5
207F0
330
747D
100
AcDbEntity
  8
寸法
 48
50.0
100
AcDbDimension
  2
*D53
 10
8655.358912604883
 20
1140.760787611754
 30
0.0
 11
8555.358912604884
 21
1240.760787611757
 31
0.0
 70
    32
  1
b
 71
     5
 42
200.0000000000018
  3
INABA_S40G
100
AcDbAlignedDimension
 13
8433.145665141983
 23
1340.760787611756
 33
0.0
 14
8452.594902036473
 24
1140.760787611754
 34
0.0
 50
90.0
100
AcDbRotatedDimension
1001
ACAD
1000
DSTYLE
1002
{
1070
   174
1070
     0
1070
   272
1070
     1
1070
   288
1070
     0
1070
   341
1005
0
1002
}
  0
LINE
  5
207F1
330
747D
100
AcDbEntity
  8
細線
 48
10.0
100
AcDbLine
 10
8348.015037014324
 20
833.8425902724702
 30
0.0
 11
8654.933234353602
 21
1140.760787611754
 31
0.0
  0
LINE
  5
207F2
330
747D
100
AcDbEntity
  8
細線
 48
10.0
100
AcDbLine
 10
8291.446494519403
 20
833.8425902724702
 30
0.0
 11
8598.364691858677
 21
1140.760787611754
 31
0.0
  0
LINE
  5
207F3
330
747D
100
AcDbEntity
  8
細線
 48
10.0
100
AcDbLine
 10
8319.730765766863
 20
833.8425902724702
 30
0.0
 11
8626.648963106136
 21
1140.760787611754
 31
0.0
  0
LINE
  5
207F4
330
747D
100
AcDbEntity
  8
部品1
 48
50.0
100
AcDbLine
 10
9236.831698760175
 20
2120.0
 30
0.0
 11
9236.831698760175
 21
200.0
 31
0.0
  0
LINE
  5
207F5
330
747D
100
AcDbEntity
  8
部品1
100
AcDbLine
 10
8422.594902036477
 20
1940.760787611754
 30
0.0
 11
8422.594902036481
 21
1441.006256599761
 31
0.0
  0
LINE
  5
207F6
330
747D
100
AcDbEntity
  8
細線
 48
50.0
100
AcDbLine
 10
7877.594902036474
 20
1940.760787611754
 30
0.0
 11
7877.594902036474
 21
1440.760787611756
 31
0.0
  0
LINE
  5
207F7
330
747D
100
AcDbEntity
  8
細線
 48
50.0
100
AcDbLine
 10
7907.594902036473
 20
1940.760787611754
 30
0.0
 11
7907.594902036473
 21
1440.760787611756
 31
0.0
  0
LINE
  5
207F8
330
747D
100
AcDbEntity
  8
細線
 48
50.0
100
AcDbLine
 10
8157.594902036473
 20
1940.760787611754
 30
0.0
 11
8157.594902036473
 21
1440.760787611756
 31
0.0
  0
LINE
  5
207F9
330
747D
100
AcDbEntity
  8
細線
 48
50.0
100
AcDbLine
 10
8187.594902036472
 20
1940.760787611754
 30
0.0
 11
8187.594902036472
 21
1440.760787611756
 31
0.0
  0
LINE
  5
207FA
330
747D
100
AcDbEntity
  8
部品1
100
AcDbLine
 10
8312.594902036478
 20
1940.760787611754
 30
0.0
 11
8312.594902036481
 21
1434.760787611758
 31
0.0
  0
LINE
  5
207FB
330
747D
100
AcDbEntity
  8
細線
 48
50.0
100
AcDbLine
 10
9697.927506749454
 20
2040.760787611753
 30
0.0
 11
9697.927506749454
 21
1540.760787611756
 31
0.0
  0
LINE
  5
207FC
330
747D
100
AcDbEntity
  8
細線
 48
50.0
100
AcDbLine
 10
9667.927506749455
 20
2040.760787611753
 30
0.0
 11
9667.927506749455
 21
1540.760787611756
 31
0.0
  0
LINE
  5
207FD
330
747D
100
AcDbEntity
  8
細線
 48
50.0
100
AcDbLine
 10
9417.927506749455
 20
2040.760787611753
 30
0.0
 11
9417.927506749455
 21
1540.760787611756
 31
0.0
  0
LINE
  5
207FE
330
747D
100
AcDbEntity
  8
細線
 48
50.0
100
AcDbLine
 10
9387.927506749454
 20
2040.760787611753
 30
0.0
 11
9387.927506749454
 21
1540.760787611756
 31
0.0
  0
LINE
  5
207FF
330
747D
100
AcDbEntity
  8
部品1
100
AcDbLine
 10
9932.927506749457
 20
2040.760787611753
 30
0.0
 11
9932.927506749463
 21
1541.006256599761
 31
0.0
  0
LINE
  5
20800
330
747D
100
AcDbEntity
  8
部品1
100
AcDbLine
 10
9822.927506749458
 20
2040.760787611753
 30
0.0
 11
9822.927506749463
 21
1534.760787611756
 31
0.0
  0
LINE
  5
20801
330
747D
100
AcDbEntity
  8
Ｇ．Ｌ
100
AcDbLine
 10
9310.130109950748
 20
1140.760787611754
 30
0.0
 11
10755.02181195589
 21
1140.760787611754
 31
0.0
  0
LINE
  5
20802
330
747D
100
AcDbEntity
  8
細線
 48
10.0
100
AcDbLine
 10
10347.15065389318
 20
833.8425902724702
 30
0.0
 11
10654.06885123246
 21
1140.760787611754
 31
0.0
  0
LINE
  5
20803
330
747D
100
AcDbEntity
  8
細線
 48
10.0
100
AcDbLine
 10
10375.43492514063
 20
833.8425902724702
 30
0.0
 11
10682.35312247991
 21
1140.760787611754
 31
0.0
  0
LINE
  5
20804
330
747D
100
AcDbEntity
  8
細線
 48
10.0
100
AcDbLine
 10
10403.7191963881
 20
833.8425902724702
 30
0.0
 11
10710.63739372738
 21
1140.760787611754
 31
0.0
  0
TEXT
  5
20805
330
747D
100
AcDbEntity
  8
部品1
100
AcDbText
 10
10382.99774140124
 20
1148.666829290658
 30
0.0
 40
120.0
  1
▽G.L
  7
STYLE1
100
AcDbText
  0
TEXT
  5
20806
330
747D
100
AcDbEntity
  8
部品1
100
AcDbText
 10
6248.985060198744
 20
2178.285116341204
 30
0.0
 40
120.0
  1
地盤が土の場合
  7
STYLE2
100
AcDbText
  0
CIRCLE
  5
20807
330
747D
100
AcDbEntity
  8
部品1
100
AcDbCircle
 10
6779.539401023374
 20
1384.760787611754
 30
0.0
 40
16.0
  0
ARC
  5
20808
330
747D
100
AcDbEntity
  8
部品1
100
AcDbCircle
 10
6809.539401023375
 20
1404.760787611754
 30
0.0
 40
10.0
100
AcDbArc
 50
0.0
 51
90.0
  0
LINE
  5
20809
330
747D
100
AcDbEntity
  8
細線
100
AcDbLine
 10
6787.539401023375
 20
1354.760787611754
 30
0.0
 11
6787.539401023375
 21
1314.760787611754
 31
0.0
  0
LINE
  5
2080A
330
747D
100
AcDbEntity
  8
細線
100
AcDbLine
 10
6771.539401023374
 20
1354.760787611754
 30
0.0
 11
6771.539401023374
 21
1314.760787611754
 31
0.0
  0
ARC
  5
2080B
330
747D
100
AcDbEntity
  8
細線
100
AcDbCircle
 10
6779.539401023374
 20
1314.760787611754
 30
0.0
 40
8.0
100
AcDbArc
 50
180.0
 51
0.0
  0
ARC
  5
2080C
330
747D
100
AcDbEntity
  8
細線
100
AcDbCircle
 10
6779.539401023374
 20
1354.760787611754
 30
0.0
 40
8.0
100
AcDbArc
 50
0.0
 51
180.0
  0
ARC
  5
2080D
330
747D
100
AcDbEntity
  8
部品1
100
AcDbCircle
 10
6749.539401023374
 20
1404.760787611754
 30
0.0
 40
10.0
100
AcDbArc
 50
90.0
 51
180.0
  0
LINE
  5
2080E
330
747D
100
AcDbEntity
  8
部品1
100
AcDbLine
 10
6749.539401023374
 20
1414.760787611754
 30
0.0
 11
6809.539401023375
 21
1414.760787611754
 31
0.0
  0
LINE
  5
2080F
330
747D
100
AcDbEntity
  8
細線
100
AcDbLine
 10
6771.539401023374
 20
1075.904381151204
 30
0.0
 11
6771.539401023374
 21
1050.16078761175
 31
0.0
  0
LINE
  5
20810
330
747D
100
AcDbEntity
  8
細線
100
AcDbLine
 10
6787.539401023375
 20
1075.904381151204
 30
0.0
 11
6787.539401023375
 21
1050.16078761175
 31
0.0
  0
LINE
  5
20811
330
747D
100
AcDbEntity
  8
細線
100
AcDbLine
 10
6793.539401023373
 20
1020.160787611756
 30
0.0
 11
6794.539401023374
 21
1020.160787611752
 31
0.0
  0
LINE
  5
20812
330
747D
100
AcDbEntity
  8
細線
100
AcDbLine
 10
6794.539401023374
 20
1026.16078761175
 30
0.0
 11
6794.539401023374
 21
1020.16078761175
 31
0.0
  0
ARC
  5
20813
330
747D
100
AcDbEntity
  8
細線
100
AcDbCircle
 10
6787.416295397759
 20
1012.160787611748
 30
0.0
 40
4.0
100
AcDbArc
 50
270.0
 51
345.9637565320528
  0
LINE
  5
20814
330
747D
100
AcDbEntity
  8
細線
100
AcDbLine
 10
6793.539401023373
 20
1020.16078761175
 30
0.0
 11
6791.296865398336
 21
1011.190645111601
 31
0.0
  0
LINE
  5
20815
330
747D
100
AcDbEntity
  8
細線
100
AcDbLine
 10
6793.539401023373
 20
1024.760787611751
 30
0.0
 11
6793.539401023373
 21
1020.160787611752
 31
0.0
  0
ARC
  5
20816
330
747D
100
AcDbEntity
  8
細線
100
AcDbCircle
 10
6771.662506648997
 20
1012.160787611747
 30
0.0
 40
4.0
100
AcDbArc
 50
194.0362434679471
 51
270.0
  0
LINE
  5
20817
330
747D
100
AcDbEntity
  8
細線
100
AcDbLine
 10
6765.539401023374
 20
1020.16078761175
 30
0.0
 11
6767.781936648413
 21
1011.190645111601
 31
0.0
  0
LINE
  5
20818
330
747D
100
AcDbEntity
  8
細線
100
AcDbLine
 10
6765.539401023374
 20
1024.760787611749
 30
0.0
 11
6765.539401023374
 21
1020.160787611752
 31
0.0
  0
LINE
  5
20819
330
747D
100
AcDbEntity
  8
細線
100
AcDbLine
 10
6771.662506648997
 20
1008.160787611745
 30
0.0
 11
6787.416295397759
 21
1008.16078761175
 31
0.0
  0
LINE
  5
2081A
330
747D
100
AcDbEntity
  8
細線
100
AcDbLine
 10
6764.539401023374
 20
1024.760787611749
 30
0.0
 11
6794.539401023374
 21
1024.760787611754
 31
0.0
  0
LINE
  5
2081B
330
747D
100
AcDbEntity
  8
細線
100
AcDbLine
 10
6764.539401023374
 20
1026.160787611756
 30
0.0
 11
6764.539401023374
 21
1020.160787611752
 31
0.0
  0
ARC
  5
2081C
330
747D
100
AcDbEntity
  8
細線
100
AcDbCircle
 10
6779.539401023374
 20
1050.16078761175
 30
0.0
 40
8.0
100
AcDbArc
 50
180.0
 51
0.0
  0
LINE
  5
2081D
330
747D
100
AcDbEntity
  8
細線
100
AcDbLine
 10
6764.539401023374
 20
1026.160787611756
 30
0.0
 11
6794.539401023374
 21
1026.160787611752
 31
0.0
  0
LINE
  5
2081E
330
747D
100
AcDbEntity
  8
細線
100
AcDbLine
 10
6764.539401023374
 20
1020.160787611756
 30
0.0
 11
6765.539401023374
 21
1020.160787611756
 31
0.0
  0
CIRCLE
  5
2081F
330
747D
100
AcDbEntity
  8
細線
100
AcDbCircle
 10
6779.539401023374
 20
1089.760787611754
 30
0.0
 40
16.0
  0
CIRCLE
  5
20820
330
747D
100
AcDbEntity
  8
細線
100
AcDbCircle
 10
6779.539401023374
 20
1244.760787611756
 30
0.0
 40
7.0
  0
CIRCLE
  5
20821
330
747D
100
AcDbEntity
  8
細線
100
AcDbCircle
 10
6779.539401023374
 20
1244.760787611756
 30
0.0
 40
6.0
  0
ARC
  5
20822
330
747D
100
AcDbEntity
  8
部品1
100
AcDbCircle
 10
6810.485341543129
 20
1102.160787611748
 30
0.0
 40
10.0
100
AcDbArc
 50
5.684241598181141
 51
90.0
  0
LINE
  5
20823
330
747D
100
AcDbEntity
  8
細線
  6
HIDDEN
 48
10.0
100
AcDbLine
 10
6820.086846680261
 20
1104.955621972072
 30
0.0
 11
6855.892012319944
 21
1140.760787611756
 31
0.0
  0
LINE
  5
20824
330
747D
100
AcDbEntity
  8
細線
  6
HIDDEN
 48
10.0
100
AcDbLine
 10
6819.539401023374
 20
1132.692447562642
 30
0.0
 11
6827.607741072488
 21
1140.760787611754
 31
0.0
  0
ARC
  5
20825
330
747D
100
AcDbEntity
  8
部品1
100
AcDbCircle
 10
6748.593460503617
 20
1102.160787611752
 30
0.0
 40
10.0
100
AcDbArc
 50
90.0
 51
174.3157584018188
  0
LINE
  5
20826
330
747D
100
AcDbEntity
  8
部品1
100
AcDbLine
 10
6748.593460503617
 20
1112.160787611754
 30
0.0
 11
6810.485341543129
 21
1112.160787611748
 31
0.0
  0
LINE
  5
20827
330
747D
100
AcDbEntity
  8
部品1
100
AcDbLine
 10
6739.539401023375
 20
1404.760787611754
 30
0.0
 11
6739.539401023375
 21
1106.406256599763
 31
0.0
  0
LINE
  5
20828
330
747D
100
AcDbEntity
  8
部品1
100
AcDbLine
 10
6819.539401023374
 20
1403.760787611754
 30
0.0
 11
6819.539401023378
 21
1106.406256599763
 31
0.0
  0
LINE
  5
20829
330
747D
100
AcDbEntity
  8
細線
100
AcDbLine
 10
6739.539401023375
 20
1175.489627154842
 30
0.0
 11
6574.268240566462
 21
1340.760787611754
 31
0.0
  0
LINE
  5
2082A
330
747D
100
AcDbEntity
  8
細線
100
AcDbLine
 10
6505.567663715573
 20
1140.760787611754
 30
0.0
 11
6419.539401023374
 21
1226.789050303954
 31
0.0
  0
LINE
  5
2082B
330
747D
100
AcDbEntity
  8
部品1
100
AcDbLine
 10
6419.539401023374
 20
1140.760787611754
 30
0.0
 11
6419.539401023374
 21
1340.760787611754
 31
0.0
  0
LINE
  5
2082C
330
747D
100
AcDbEntity
  8
細線
100
AcDbLine
 10
6731.841833695269
 20
1140.760787611754
 30
0.0
 11
6531.841833695269
 21
1340.760787611754
 31
0.0
  0
LINE
  5
2082D
330
747D
100
AcDbEntity
  8
細線
100
AcDbLine
 10
6547.994070586764
 20
1140.760787611754
 30
0.0
 11
6419.539401023374
 21
1269.215457175147
 31
0.0
  0
LINE
  5
2082E
330
747D
100
AcDbEntity
  8
部品1
100
AcDbLine
 10
6849.539401023374
 20
818.160787611754
 30
0.0
 11
6849.539401023374
 21
806.1607876117541
 31
0.0
  0
LINE
  5
2082F
330
747D
100
AcDbEntity
  8
細線
100
AcDbLine
 10
6794.539401023374
 20
876.1607876117487
 30
0.0
 11
6794.539401023374
 21
870.1607876117487
 31
0.0
  0
LINE
  5
20830
330
747D
100
AcDbEntity
  8
細線
100
AcDbLine
 10
6794.539401023374
 20
836.1607876117505
 30
0.0
 11
6794.539401023374
 21
830.1607876117504
 31
0.0
  0
LINE
  5
20831
330
747D
100
AcDbEntity
  8
細線
100
AcDbLine
 10
6764.539401023374
 20
876.1607876117578
 30
0.0
 11
6764.539401023374
 21
870.1607876117522
 31
0.0
  0
LINE
  5
20832
330
747D
100
AcDbEntity
  8
細線
100
AcDbLine
 10
6764.539401023374
 20
836.160787611756
 30
0.0
 11
6764.539401023374
 21
830.1607876117524
 31
0.0
  0
LINE
  5
20833
330
747D
100
AcDbEntity
  8
細線
100
AcDbLine
 10
6764.539401023374
 20
870.1607876117577
 30
0.0
 11
6794.539401023374
 21
870.1607876117522
 31
0.0
  0
LINE
  5
20834
330
747D
100
AcDbEntity
  8
細線
100
AcDbLine
 10
6764.539401023374
 20
876.1607876117578
 30
0.0
 11
6794.539401023374
 21
876.1607876117523
 31
0.0
  0
LINE
  5
20835
330
747D
100
AcDbEntity
  8
細線
100
AcDbLine
 10
6764.539401023374
 20
836.160787611756
 30
0.0
 11
6794.539401023374
 21
836.1607876117522
 31
0.0
  0
LINE
  5
20836
330
747D
100
AcDbEntity
  8
細線
100
AcDbLine
 10
6764.539401023374
 20
830.1607876117559
 30
0.0
 11
6794.539401023374
 21
830.1607876117524
 31
0.0
  0
LINE
  5
20837
330
747D
100
AcDbEntity
  8
部品1
100
AcDbLine
 10
6709.539401023374
 20
818.1607876117523
 30
0.0
 11
6709.539401023374
 21
806.1607876117541
 31
0.0
  0
LINE
  5
20838
330
747D
100
AcDbEntity
  8
部品1
100
AcDbLine
 10
6709.539401023374
 20
806.1607876117541
 30
0.0
 11
6849.539401023374
 21
806.1607876117541
 31
0.0
  0
LINE
  5
20839
330
747D
100
AcDbEntity
  8
部品1
100
AcDbLine
 10
6709.539401023374
 20
818.160787611754
 30
0.0
 11
6849.539401023374
 21
818.160787611754
 31
0.0
  0
LINE
  5
2083A
330
747D
100
AcDbEntity
  8
部品1
100
AcDbLine
 10
6820.436170031449
 20
1103.151248310656
 30
0.0
 11
6849.539401023374
 21
818.160787611754
 31
0.0
  0
LINE
  5
2083B
330
747D
100
AcDbEntity
  8
部品1
100
AcDbLine
 10
6738.642632015306
 20
1103.151248310656
 30
0.0
 11
6709.539401023374
 21
818.160787611754
 31
0.0
  0
LINE
  5
2083C
330
747D
100
AcDbEntity
  8
細線
  6
HIDDEN
 48
10.0
100
AcDbLine
 10
6569.539401023376
 20
854.408176315168
 30
0.0
 11
6729.584826779998
 21
1014.453602071808
 31
0.0
  0
LINE
  5
2083D
330
747D
100
AcDbEntity
  8
細線
  6
HIDDEN
 48
10.0
100
AcDbLine
 10
6569.539401023374
 20
910.9767188100905
 30
0.0
 11
6736.01862717321
 21
1077.455944959931
 31
0.0
  0
LINE
  5
2083E
330
747D
100
AcDbEntity
  8
細線
  6
HIDDEN
 48
10.0
100
AcDbLine
 10
6569.539401023376
 20
882.6924475626292
 30
0.0
 11
6732.801726976608
 21
1045.954773515872
 31
0.0
  0
LINE
  5
2083F
330
747D
100
AcDbEntity
  8
Ｇ．Ｌ
100
AcDbLine
 10
6819.539401023374
 20
1140.760787611754
 30
0.0
 11
7571.635643261712
 21
1140.760787611754
 31
0.0
  0
LINE
  5
20840
330
747D
100
AcDbEntity
  8
細線
  6
HIDDEN
 48
10.0
100
AcDbLine
 10
6882.550401172792
 20
740.7607876117562
 30
0.0
 11
6969.539401023372
 21
827.7497874623396
 31
0.0
  0
LINE
  5
20841
330
747D
100
AcDbEntity
  8
細線
  6
HIDDEN
 48
10.0
100
AcDbLine
 10
6825.981858677869
 20
740.7607876117554
 30
0.0
 11
6969.539401023374
 21
884.3183299572638
 31
0.0
  0
LINE
  5
20842
330
747D
100
AcDbEntity
  8
細線
  6
HIDDEN
 48
10.0
100
AcDbLine
 10
6854.266129925331
 20
740.7607876117562
 30
0.0
 11
6969.539401023372
 21
856.0340587098036
 31
0.0
  0
TEXT
  5
20843
330
747D
100
AcDbEntity
  8
部品1
100
AcDbText
 10
7204.102948092985
 20
1148.666829290658
 30
0.0
 40
120.0
  1
▽G.L
  7
STYLE1
100
AcDbText
  0
LINE
  5
20844
330
747D
100
AcDbEntity
  8
細線
100
AcDbLine
 10
5288.50036857751
 20
1040.760787611754
 30
0.0
 11
5275.102908955954
 21
990.7607876117562
 31
0.0
  0
LINE
  5
20845
330
747D
100
AcDbEntity
  8
細線
100
AcDbLine
 10
5388.500368577513
 20
1040.760787611754
 30
0.0
 11
5375.102908955954
 21
990.7607876117562
 31
0.0
  0
LINE
  5
20846
330
747D
100
AcDbEntity
  8
細線
100
AcDbLine
 10
5260.602479042429
 20
1040.760787611754
 30
0.0
 11
5360.602479042426
 21
1140.760787611756
 31
0.0
  0
LINE
  5
20847
330
747D
100
AcDbEntity
  8
細線
100
AcDbLine
 10
5288.886750289888
 20
1040.760787611754
 30
0.0
 11
5388.886750289888
 21
1140.760787611756
 31
0.0
  0
LINE
  5
20848
330
747D
100
AcDbEntity
  8
部品1
100
AcDbLine
 10
5361.705449334398
 20
1340.760787611754
 30
0.0
 11
5361.705449334398
 21
1140.760787611756
 31
0.0
  0
TEXT
  5
20849
330
747D
100
AcDbEntity
  8
部品1
100
AcDbText
 10
5584.958075201829
 20
1148.66682929066
 30
0.0
 40
120.0
  1
▽G.L
  7
STYLE1
100
AcDbText
  0
LINE
  5
2084A
330
747D
100
AcDbEntity
  8
細線
100
AcDbLine
 10
5301.89782819907
 20
890.7607876117545
 30
0.0
 11
5288.50036857751
 21
840.7607876117545
 31
0.0
  0
LINE
  5
2084B
330
747D
100
AcDbEntity
  8
細線
100
AcDbLine
 10
5401.897828199065
 20
890.7607876117545
 30
0.0
 11
5388.500368577513
 21
840.7607876117545
 31
0.0
  0
LINE
  5
2084C
330
747D
100
AcDbEntity
  8
部品1
100
AcDbLine
 10
5461.705449334399
 20
1140.760787611756
 30
0.0
 11
5461.705449334399
 21
840.7607876117545
 31
0.0
  0
LINE
  5
2084D
330
747D
100
AcDbEntity
  8
細線
100
AcDbLine
 10
5261.705449334402
 20
1040.760787611754
 30
0.0
 11
5315.295287820621
 21
840.7607876117507
 31
0.0
  0
LINE
  5
2084E
330
747D
100
AcDbEntity
  8
細線
100
AcDbLine
 10
5361.705449334398
 20
1040.760787611754
 30
0.0
 11
5415.295287820621
 21
840.7607876117545
 31
0.0
  0
LINE
  5
2084F
330
747D
100
AcDbEntity
  8
部品1
100
AcDbLine
 10
6104.28496777978
 20
1440.760787611756
 30
0.0
 11
6709.539401023374
 21
1440.760787611754
 31
0.0
  0
LINE
  5
20850
330
747D
100
AcDbEntity
  8
部品1
100
AcDbLine
 10
6104.28496777978
 20
1340.760787611754
 30
0.0
 11
6739.539401023375
 21
1340.760787611754
 31
0.0
  0
LINE
  5
20851
330
747D
100
AcDbEntity
  8
Ｇ．Ｌ
100
AcDbLine
 10
6104.28496777978
 20
1140.760787611754
 30
0.0
 11
6739.539401023375
 21
1140.760787611754
 31
0.0
  0
DIMENSION
  5
20852
330
747D
100
AcDbEntity
  8
寸法
 48
50.0
100
AcDbDimension
  2
*D54
 10
6326.209653947844
 20
740.7607876117546
 30
0.0
 11
6326.209653947844
 21
928.3854207276599
 31
0.0
 70
   160
  1
200
 71
     5
 42
399.9999999999999
  3
INABA_S40G
100
AcDbAlignedDimension
 13
6419.539401023374
 23
1140.760787611754
 33
0.0
 14
6569.539401023374
 24
740.7607876117545
 34
0.0
 50
90.0
100
AcDbRotatedDimension
1001
ACAD
1000
DSTYLE
1002
{
1070
   174
1070
     0
1070
   272
1070
     1
1070
   288
1070
     0
1070
   341
1005
0
1002
}
  0
LINE
  5
20853
330
747D
100
AcDbEntity
  8
部品1
100
AcDbLine
 10
6104.28496777978
 20
1434.760787611754
 30
0.0
 11
6819.539401023374
 21
1434.760787611754
 31
0.0
  0
LINE
  5
20854
330
747D
100
AcDbEntity
  8
部品1
100
AcDbLine
 10
6709.539401023374
 20
1940.760787611752
 30
0.0
 11
6709.539401023377
 21
1434.760787611756
 31
0.0
  0
LINE
  5
20855
330
747D
100
AcDbEntity
  8
部品1
100
AcDbLine
 10
6819.539401023374
 20
1940.760787611752
 30
0.0
 11
6819.539401023374
 21
1140.760787611754
 31
0.0
  0
LINE
  5
20856
330
747D
100
AcDbEntity
  8
部品1
 48
50.0
100
AcDbLine
 10
6036.831698760174
 20
2600.0
 30
0.0
 11
6036.831698760174
 21
200.0
 31
0.0
  0
LINE
  5
20857
330
747D
100
AcDbEntity
  8
部品1
 48
50.0
100
AcDbLine
 10
7636.831698760174
 20
2360.0
 30
0.0
 11
7636.831698760174
 21
200.0
 31
0.0
  0
LINE
  5
20858
330
747D
100
AcDbEntity
  8
細線
 48
50.0
100
AcDbLine
 10
6554.539401023373
 20
1940.760787611752
 30
0.0
 11
6554.539401023373
 21
1440.760787611754
 31
0.0
  0
LINE
  5
20859
330
747D
100
AcDbEntity
  8
細線
 48
50.0
100
AcDbLine
 10
6584.539401023374
 20
1940.760787611752
 30
0.0
 11
6584.539401023374
 21
1440.760787611754
 31
0.0
  0
LINE
  5
2085A
330
747D
100
AcDbEntity
  8
細線
 48
50.0
100
AcDbLine
 10
6304.539401023374
 20
1940.760787611752
 30
0.0
 11
6304.539401023374
 21
1440.760787611754
 31
0.0
  0
LINE
  5
2085B
330
747D
100
AcDbEntity
  8
細線
 48
50.0
100
AcDbLine
 10
6274.539401023374
 20
1940.760787611752
 30
0.0
 11
6274.539401023374
 21
1440.760787611754
 31
0.0
  0
LINE
  5
2085C
330
747D
100
AcDbEntity
  8
細線
100
AcDbLine
 10
5188.500368577511
 20
1040.760787611754
 30
0.0
 11
5175.102908955958
 21
990.7607876117562
 31
0.0
  0
LINE
  5
2085D
330
747D
100
AcDbEntity
  8
細線
100
AcDbLine
 10
5088.500368577514
 20
1040.760787611754
 30
0.0
 11
5075.102908955955
 21
990.7607876117562
 31
0.0
  0
LINE
  5
2085E
330
747D
100
AcDbEntity
  8
細線
100
AcDbLine
 10
4888.50036857751
 20
1040.760787611753
 30
0.0
 11
4875.102908955958
 21
990.7607876117507
 31
0.0
  0
LINE
  5
2085F
330
747D
100
AcDbEntity
  8
細線
100
AcDbLine
 10
4988.50036857751
 20
1040.760787611753
 30
0.0
 11
4975.102908955954
 21
990.7607876117507
 31
0.0
  0
LINE
  5
20860
330
747D
100
AcDbEntity
  8
細線
100
AcDbLine
 10
4932.318207794966
 20
1040.760787611753
 30
0.0
 11
5032.318207794966
 21
1140.760787611756
 31
0.0
  0
LINE
  5
20861
330
747D
100
AcDbEntity
  8
細線
100
AcDbLine
 10
4960.602479042429
 20
1040.760787611754
 30
0.0
 11
5060.602479042426
 21
1140.760787611756
 31
0.0
  0
LINE
  5
20862
330
747D
100
AcDbEntity
  8
細線
100
AcDbLine
 10
5081.473487193862
 20
1140.760787611756
 30
0.0
 11
4961.705449334402
 21
1260.528825471216
 31
0.0
  0
LINE
  5
20863
330
747D
100
AcDbEntity
  8
細線
100
AcDbLine
 10
4988.886750289892
 20
1040.760787611754
 30
0.0
 11
5088.886750289888
 21
1140.760787611756
 31
0.0
  0
LINE
  5
20864
330
747D
100
AcDbEntity
  8
細線
100
AcDbLine
 10
5123.899894065054
 20
1140.760787611756
 30
0.0
 11
4961.705449334399
 21
1302.955232342408
 31
0.0
  0
LINE
  5
20865
330
747D
100
AcDbEntity
  8
部品1
100
AcDbLine
 10
4961.705449334402
 20
1140.760787611756
 30
0.0
 11
4961.705449334402
 21
1340.760787611754
 31
0.0
  0
LINE
  5
20866
330
747D
100
AcDbEntity
  8
細線
100
AcDbLine
 10
5201.897828199065
 20
890.7607876117545
 30
0.0
 11
5188.500368577511
 21
840.7607876117545
 31
0.0
  0
LINE
  5
20867
330
747D
100
AcDbEntity
  8
細線
100
AcDbLine
 10
5101.897828199065
 20
890.7607876117545
 30
0.0
 11
5088.500368577514
 21
840.7607876117545
 31
0.0
  0
LINE
  5
20868
330
747D
100
AcDbEntity
  8
細線
100
AcDbLine
 10
4901.897828199065
 20
890.7607876117527
 30
0.0
 11
4888.50036857751
 21
840.7607876117507
 31
0.0
  0
LINE
  5
20869
330
747D
100
AcDbEntity
  8
細線
100
AcDbLine
 10
5001.897828199069
 20
890.7607876117527
 30
0.0
 11
4988.50036857751
 21
840.7607876117507
 31
0.0
  0
LINE
  5
2086A
330
747D
100
AcDbEntity
  8
部品1
100
AcDbLine
 10
4861.705449334398
 20
840.7607876117507
 30
0.0
 11
4861.705449334398
 21
1140.760787611756
 31
0.0
  0
LINE
  5
2086B
330
747D
100
AcDbEntity
  8
細線
100
AcDbLine
 10
4861.705449334398
 20
1040.760787611753
 30
0.0
 11
4915.295287820625
 21
840.760787611749
 31
0.0
  0
LINE
  5
2086C
330
747D
100
AcDbEntity
  8
細線
100
AcDbLine
 10
5161.705449334398
 20
1040.760787611754
 30
0.0
 11
5215.295287820625
 21
840.7607876117507
 31
0.0
  0
LINE
  5
2086D
330
747D
100
AcDbEntity
  8
細線
100
AcDbLine
 10
5061.705449334398
 20
1040.760787611754
 30
0.0
 11
5115.295287820622
 21
840.7607876117507
 31
0.0
  0
LINE
  5
2086E
330
747D
100
AcDbEntity
  8
細線
100
AcDbLine
 10
4961.705449334402
 20
1040.760787611753
 30
0.0
 11
5015.295287820621
 21
840.760787611749
 31
0.0
  0
LINE
  5
2086F
330
747D
100
AcDbEntity
  8
部品1
 48
50.0
100
AcDbLine
 10
4436.831698760173
 20
2600.0
 30
0.0
 11
4436.831698760173
 21
200.0
 31
0.0
  0
LINE
  5
20870
330
747D
100
AcDbEntity
  8
部品1
100
AcDbLine
 10
4861.705449334398
 20
840.7607876117507
 30
0.0
 11
5461.705449334399
 21
840.7607876117545
 31
0.0
  0
LINE
  5
20871
330
747D
100
AcDbEntity
  8
部品1
100
AcDbLine
 10
4861.705449334398
 20
1040.760787611753
 30
0.0
 11
5461.705449334399
 21
1040.760787611754
 31
0.0
  0
LINE
  5
20872
330
747D
100
AcDbEntity
  8
部品1
100
AcDbLine
 10
4961.705449334402
 20
1340.760787611754
 30
0.0
 11
5361.705449334398
 21
1340.760787611754
 31
0.0
  0
LINE
  5
20873
330
747D
100
AcDbEntity
  8
Ｇ．Ｌ
100
AcDbLine
 10
4531.604443289075
 20
1140.760787611756
 30
0.0
 11
5962.497727112236
 21
1140.760787611756
 31
0.0
  0
LINE
  5
20874
330
747D
100
AcDbEntity
  8
細線
100
AcDbLine
 10
5350.174064044748
 20
1140.760787611756
 30
0.0
 11
5150.174064044751
 21
1340.760787611754
 31
0.0
  0
TEXT
  5
20875
330
747D
100
AcDbEntity
  8
部品1
100
AcDbText
 10
4902.431719764972
 20
2307.972217178321
 30
0.0
 40
120.0
  1
基礎詳細
  7
STYLE2
100
AcDbText
  0
MTEXT
  5
20876
102
{ACAD_REACTORS
330
20877
102
}
330
747D
100
AcDbEntity
  8
寸法
 62
     7
 48
50.0
100
AcDbMText
 10
5399.237306059188
 20
1638.612705420522
 30
0.0
 40
120.0
 41
1.0
 71
     4
 72
     1
  1
\A1;C.B
  7
STYLE1
 73
     1
 44
1.0
1001
ACAD
1000
MTEXTBEGIN
1070
    73
1070
     1
1070
    44
1040
1.0
1070
    74
1070
     0
1000
MTEXTEND
  0
LEADER
  5
20877
330
747D
100
AcDbEntity
  8
寸法
 48
50.0
100
AcDbLeader
  3
INABA_S50G
 71
     0
 73
     0
 74
     0
 75
     1
 40
120.0
 41
185.591883092037
 76
     3
 10
5161.705449334401
 20
1340.760787611754
 30
0.0
 10
5316.969031905578
 20
1553.612705420522
 30
0.0
 10
5441.969031905578
 20
1553.612705420522
 30
0.0
340
20876
213
67.73172584638814
223
0.0
233
0.0
1001
ACAD
1000
DSTYLE
1002
{
1070
    40
1040
1.0
1002
}
  0
LINE
  5
20878
330
747D
100
AcDbEntity
  8
細線
100
AcDbLine
 10
5307.747657173555
 20
1140.760787611756
 30
0.0
 11
5107.747657173558
 21
1340.760787611754
 31
0.0
  0
LINE
  5
20879
330
747D
100
AcDbEntity
  8
細線
100
AcDbLine
 10
5232.318207794966
 20
1040.760787611754
 30
0.0
 11
5332.318207794962
 21
1140.760787611756
 31
0.0
  0
TEXT
  5
2087A
330
747D
100
AcDbEntity
  8
部品1
100
AcDbText
 10
7690.559015138866
 20
2414.063814602734
 30
0.0
 40
120.0
  1
アンカー部詳細
  7
STYLE2
100
AcDbText
  0
LINE
  5
2087B
330
747D
100
AcDbEntity
  8
部品1
 48
50.0
100
AcDbLine
 10
4436.831698760173
 20
200.0
 30
0.0
 11
10836.83169876017
 21
200.0
 31
0.0
  0
LINE
  5
2087C
330
747D
100
AcDbEntity
  8
部品1
 48
50.0
100
AcDbLine
 10
10836.83169876017
 20
2600.0
 30
0.0
 11
4436.831698760173
 21
2600.000000000002
 31
0.0
  0
LINE
  5
2087D
330
747D
100
AcDbEntity
  8
部品1
 48
50.0
100
AcDbLine
 10
10836.83169876017
 20
2360.0
 30
0.0
 11
6036.831698760174
 21
2360.0
 31
0.0
  0
LINE
  5
2087E
330
747D
100
AcDbEntity
  8
部品1
 48
50.0
100
AcDbLine
 10
4436.831698760173
 20
2120.0
 30
0.0
 11
10836.83169876017
 21
2120.0
 31
0.0
  0
ENDSEC
  0
SECTION
  2
OBJECTS
  0
DICTIONARY
  5
7471
330
0
100
AcDbDictionary
281
     1
  3
ACAD_COLOR
350
159B0
  3
ACAD_GROUP
350
7472
  3
ACAD_LAYOUT
350
159B1
  3
ACAD_MATERIAL
350
159AF
  3
ACAD_MLINESTYLE
350
7473
  3
ACAD_PLOTSETTINGS
350
159B2
  3
ACAD_PLOTSTYLENAME
350
159AD
  3
ACDBHEADERROUNDTRIPXREC
350
208D8
  3
AcDbVariableDictionary
350
208D4
  3
CONTENTDICTIONARY
350
E71C
  3
DRAWINGVARIABLESDICT
350
F3B9
  0
DICTIONARY
  5
1ED5D
330
7467
100
AcDbDictionary
280
     1
281
     1
  3
ACAD_LAYERSTATES
360
1ED5E
  0
DICTIONARY
  5
159B0
102
{ACAD_REACTORS
330
7471
102
}
330
7471
100
AcDbDictionary
281
     1
  0
DICTIONARY
  5
7472
102
{ACAD_REACTORS
330
7471
102
}
330
7471
100
AcDbDictionary
281
     1
  3
*A1
350
203AE
  0
DICTIONARY
  5
159B1
102
{ACAD_REACTORS
330
7471
102
}
330
7471
100
AcDbDictionary
281
     1
  3
Model
350
159B3
  3
レイアウト1
350
159B4
  0
DICTIONARY
  5
159AF
102
{ACAD_REACTORS
330
7471
102
}
330
7471
100
AcDbDictionary
281
     1
  0
DICTIONARY
  5
7473
102
{ACAD_REACTORS
330
7471
102
}
330
7471
100
AcDbDictionary
281
     1
  3
STANDARD
350
7480
  0
DICTIONARY
  5
159B2
102
{ACAD_REACTORS
330
7471
102
}
330
7471
100
AcDbDictionary
281
     1
  0
ACDBDICTIONARYWDFLT
  5
159AD
102
{ACAD_REACTORS
330
7471
102
}
330
7471
100
AcDbDictionary
281
     1
  3
Normal
350
159AE
100
AcDbDictionaryWithDefault
340
159AE
  0
DICTIONARY
  5
208D8
102
{ACAD_REACTORS
330
7471
102
}
330
7471
100
AcDbDictionary
281
     1
  3
COLORDICT
350
208DA
  3
MATERIALDICT
350
208D9
  0
DICTIONARY
  5
208D4
102
{ACAD_REACTORS
330
7471
102
}
330
7471
100
AcDbDictionary
281
     1
  3
DIMASSOC
350
208D5
  3
PROJECTNAME
350
208D6
  0
DICTIONARY
  5
E71C
102
{ACAD_REACTORS
330
7471
102
}
330
7471
100
AcDbDictionary
281
     1
  0
DICTIONARY
  5
F3B9
102
{ACAD_REACTORS
330
7471
102
}
330
7471
100
AcDbDictionary
281
     1
1001
DRAWINGVARIABLESXDATA
1000
POLARMODE
1000
1
  0
DICTIONARY
  5
1ED5E
102
{ACAD_REACTORS
330
1ED5D
102
}
330
1ED5D
100
AcDbDictionary
281
     1
  0
GROUP
  5
203AE
102
{ACAD_REACTORS
330
7472
102
}
330
7472
100
AcDbGroup
300

 70
     1
 71
     1
340
20394
340
20393
340
20392
340
20391
340
20390
  0
LAYOUT
  5
159B3
102
{ACAD_XDICTIONARY
360
208DB
102
}
102
{ACAD_REACTORS
330
159B1
102
}
330
159B1
100
AcDbPlotSettings
  1

  2
iR C3880
  4
A3
  6

 40
5.873749732971191
 41
5.873747825622558
 42
5.873748779296875
 43
5.873748779296875
 44
296.9259948730469
 45
419.9466552734374
 46
0.0
 47
0.0
 48
0.0
 49
0.0
140
0.0
141
0.0
142
1.0
143
41.65811991999086
 70
 11952
 72
     1
 73
     1
 74
     2
  7
inabass.ctb
 75
     0
147
0.0240049239360925
148
0.0
149
0.0
100
AcDbLayout
  1
Model
 70
     1
 71
     0
 10
0.0
 20
0.0
 11
12.0
 21
9.0
 12
0.0
 22
0.0
 32
0.0
 14
0.0
 24
0.0
 34
0.0
 15
0.0
 25
0.0
 35
0.0
146
0.0
 13
0.0
 23
0.0
 33
0.0
 16
1.0
 26
0.0
 36
0.0
 17
0.0
 27
1.0
 37
0.0
 76
     0
330
747D
  0
LAYOUT
  5
159B4
102
{ACAD_XDICTIONARY
360
208DD
102
}
102
{ACAD_REACTORS
330
159B1
102
}
330
159B1
100
AcDbPlotSettings
  1

  2
自動 EPSON LP-8400FX (TATENO 上)
  4

  6

 40
0.0
 41
0.0
 42
0.0
 43
0.0
 44
0.0
 45
0.0
 46
0.0
 47
0.0
 48
0.0
 49
0.0
140
0.0
141
0.0
142
1.0
143
1.0
 70
   688
 72
     0
 73
     0
 74
     5
  7
inaba.ctb
 75
    16
147
1.0
148
0.0
149
0.0
100
AcDbLayout
  1
レイアウト1
 70
     0
 71
     1
 10
0.0
 20
0.0
 11
420.0
 21
297.0
 12
0.0
 22
0.0
 32
0.0
 14
1.000000000000000E+20
 24
1.000000000000000E+20
 34
1.000000000000000E+20
 15
-1.000000000000000E+20
 25
-1.000000000000000E+20
 35
-1.000000000000000E+20
146
0.0
 13
0.0
 23
0.0
 33
0.0
 16
1.0
 26
0.0
 36
0.0
 17
0.0
 27
1.0
 37
0.0
 76
     0
330
747A
  0
MLINESTYLE
  5
7480
102
{ACAD_REACTORS
330
7473
102
}
330
7473
100
AcDbMlineStyle
  2
STANDARD
 70
     0
  3

 62
     0
 51
90.0
 52
90.0
 71
     2
 49
0.5
 62
   256
  6
BYLAYER
 49
-0.5
 62
   256
  6
BYLAYER
  0
ACDBPLACEHOLDER
  5
159AE
102
{ACAD_REACTORS
330
159AD
102
}
330
159AD
  0
XRECORD
  5
208DA
102
{ACAD_REACTORS
330
208D8
102
}
330
208D8
100
AcDbXrecord
280
     1
340
159B0
  0
XRECORD
  5
208D9
102
{ACAD_REACTORS
330
208D8
102
}
330
208D8
100
AcDbXrecord
280
     1
340
159AF
  0
DICTIONARYVAR
  5
208D5
102
{ACAD_REACTORS
330
208D4
102
}
330
208D4
100
DictionaryVariables
280
     0
  1
1
  0
DICTIONARYVAR
  5
208D6
102
{ACAD_REACTORS
330
208D4
102
}
330
208D4
100
DictionaryVariables
280
     0
  1

  0
DICTIONARY
  5
208DB
330
159B3
100
AcDbDictionary
280
     1
281
     1
  3
ACAD_XREC_ROUNDTRIP
360
208DC
  0
DICTIONARY
  5
208DD
330
159B4
100
AcDbDictionary
280
     1
281
     1
  3
ACAD_XREC_ROUNDTRIP
360
208DE
  0
XRECORD
  5
208DC
102
{ACAD_REACTORS
330
208DB
102
}
330
208DB
100
AcDbXrecord
280
     1
102
SHADEPLOT
 70
     1
102
SHADEPLOTRESLEVEL
 70
     2
102
SHADEPLOTCUSTOMDPI
 70
   300
  0
XRECORD
  5
208DE
102
{ACAD_REACTORS
330
208DD
102
}
330
208DD
100
AcDbXrecord
280
     1
102
SHADEPLOT
 70
     0
102
SHADEPLOTRESLEVEL
 70
     2
102
SHADEPLOTCUSTOMDPI
 70
   300
  0
ENDSEC
  0
EOF
