  0
SECTION
  2
HEADER
  9
$ACADVER
  1
AC1015
  9
$ACADMAINTVER
 70
    20
  9
$DWGCODEPAGE
  3
ANSI_932
  9
$INSBASE
 10
0.0
 20
0.0
 30
0.0
  9
$EXTMIN
 10
139.196816621341
 20
-0.9062337598370504
 30
-0.000000000000013
  9
$EXTMAX
 10
16308.32523385566
 20
11409.93395955253
 30
0.0000000000000023
  9
$LIMMIN
 10
0.0
 20
0.0
  9
$LIMMAX
 10
16800.0
 20
11880.0
  9
$ORTHOMODE
 70
     0
  9
$REGENMODE
 70
     1
  9
$FILLMODE
 70
     1
  9
$QTEXTMODE
 70
     0
  9
$MIRRTEXT
 70
     1
  9
$LTSCALE
 40
20.0
  9
$ATTMODE
 70
     1
  9
$TEXTSIZE
 40
100.0
  9
$TRACEWID
 40
1.0
  9
$TEXTSTYLE
  7
STYLE2
  9
$CLAYER
  8
寸法
  9
$CELTYPE
  6
BYLAYER
  9
$CECOLOR
 62
   256
  9
$CELTSCALE
 40
50.0
  9
$DISPSILH
 70
     0
  9
$DIMSCALE
 40
40.0
  9
$DIMASZ
 40
2.5
  9
$DIMEXO
 40
0.5
  9
$DIMDLI
 40
7.0
  9
$DIMRND
 40
0.0
  9
$DIMDLE
 40
0.0
  9
$DIMEXE
 40
1.5
  9
$DIMTP
 40
0.0
  9
$DIMTM
 40
0.0
  9
$DIMTXT
 40
3.0
  9
$DIMCEN
 40
0.0
  9
$DIMTSZ
 40
0.0
  9
$DIMTOL
 70
     0
  9
$DIMLIM
 70
     0
  9
$DIMTIH
 70
     0
  9
$DIMTOH
 70
     0
  9
$DIMSE1
 70
     0
  9
$DIMSE2
 70
     0
  9
$DIMTAD
 70
     3
  9
$DIMZIN
 70
     8
  9
$DIMBLK
  1

  9
$DIMASO
 70
     1
  9
$DIMSHO
 70
     1
  9
$DIMPOST
  1

  9
$DIMAPOST
  1

  9
$DIMALT
 70
     0
  9
$DIMALTD
 70
     2
  9
$DIMALTF
 40
0.0394
  9
$DIMLFAC
 40
1.0
  9
$DIMTOFL
 70
     1
  9
$DIMTVP
 40
0.0
  9
$DIMTIX
 70
     0
  9
$DIMSOXD
 70
     0
  9
$DIMSAH
 70
     1
  9
$DIMBLK1
  1
DOTSMALL
  9
$DIMBLK2
  1
DOTSMALL
  9
$DIMSTYLE
  2
INABA_S40G
  9
$DIMCLRD
 70
     0
  9
$DIMCLRE
 70
     0
  9
$DIMCLRT
 70
     7
  9
$DIMTFAC
 40
1.0
  9
$DIMGAP
 40
1.0
  9
$DIMJUST
 70
     0
  9
$DIMSD1
 70
     0
  9
$DIMSD2
 70
     0
  9
$DIMTOLJ
 70
     1
  9
$DIMTZIN
 70
     0
  9
$DIMALTZ
 70
     0
  9
$DIMALTTZ
 70
     0
  9
$DIMUPT
 70
     0
  9
$DIMDEC
 70
     1
  9
$DIMTDEC
 70
     1
  9
$DIMALTU
 70
     2
  9
$DIMALTTD
 70
     2
  9
$DIMTXSTY
  7
STYLE1
  9
$DIMAUNIT
 70
     0
  9
$DIMADEC
 70
     0
  9
$DIMALTRND
 40
0.0
  9
$DIMAZIN
 70
     0
  9
$DIMDSEP
 70
    46
  9
$DIMATFIT
 70
     3
  9
$DIMFRAC
 70
     0
  9
$DIMLDRBLK
  1

  9
$DIMLUNIT
 70
     2
  9
$DIMLWD
 70
    -2
  9
$DIMLWE
 70
    -2
  9
$DIMTMOVE
 70
     0
  9
$LUNITS
 70
     2
  9
$LUPREC
 70
     1
  9
$SKETCHINC
 40
1.0
  9
$FILLETRAD
 40
0.0
  9
$AUNITS
 70
     0
  9
$AUPREC
 70
     0
  9
$MENU
  1
acad
  9
$ELEVATION
 40
0.0
  9
$PELEVATION
 40
0.0
  9
$THICKNESS
 40
0.0
  9
$LIMCHECK
 70
     0
  9
$CHAMFERA
 40
3.0
  9
$CHAMFERB
 40
3.0
  9
$CHAMFERC
 40
0.0
  9
$CHAMFERD
 40
0.0
  9
$SKPOLY
 70
     0
  9
$TDCREATE
 40
2451368.612993866
  9
$TDUCREATE
 40
2451368.237993866
  9
$TDUPDATE
 40
2456380.849533599
  9
$TDUUPDATE
 40
2456380.474533599
  9
$TDINDWG
 40
1.4287440625
  9
$TDUSRTIMER
 40
1.4287440625
  9
$USRTIMER
 70
     1
  9
$ANGBASE
 50
0.0
  9
$ANGDIR
 70
     0
  9
$PDMODE
 70
     3
  9
$PDSIZE
 40
2.0
  9
$PLINEWID
 40
0.0
  9
$SPLFRAME
 70
     0
  9
$SPLINETYPE
 70
     6
  9
$SPLINESEGS
 70
     8
  9
$HANDSEED
  5
20019
  9
$SURFTAB1
 70
     6
  9
$SURFTAB2
 70
     6
  9
$SURFTYPE
 70
     6
  9
$SURFU
 70
     6
  9
$SURFV
 70
     6
  9
$UCSBASE
  2

  9
$UCSNAME
  2

  9
$UCSORG
 10
0.0
 20
0.0
 30
0.0
  9
$UCSXDIR
 10
1.0
 20
0.0
 30
0.0
  9
$UCSYDIR
 10
0.0
 20
1.0
 30
0.0
  9
$UCSORTHOREF
  2

  9
$UCSORTHOVIEW
 70
     0
  9
$UCSORGTOP
 10
0.0
 20
0.0
 30
0.0
  9
$UCSORGBOTTOM
 10
0.0
 20
0.0
 30
0.0
  9
$UCSORGLEFT
 10
0.0
 20
0.0
 30
0.0
  9
$UCSORGRIGHT
 10
0.0
 20
0.0
 30
0.0
  9
$UCSORGFRONT
 10
0.0
 20
0.0
 30
0.0
  9
$UCSORGBACK
 10
0.0
 20
0.0
 30
0.0
  9
$PUCSBASE
  2

  9
$PUCSNAME
  2

  9
$PUCSORG
 10
0.0
 20
0.0
 30
0.0
  9
$PUCSXDIR
 10
1.0
 20
0.0
 30
0.0
  9
$PUCSYDIR
 10
0.0
 20
1.0
 30
0.0
  9
$PUCSORTHOREF
  2

  9
$PUCSORTHOVIEW
 70
     0
  9
$PUCSORGTOP
 10
0.0
 20
0.0
 30
0.0
  9
$PUCSORGBOTTOM
 10
0.0
 20
0.0
 30
0.0
  9
$PUCSORGLEFT
 10
0.0
 20
0.0
 30
0.0
  9
$PUCSORGRIGHT
 10
0.0
 20
0.0
 30
0.0
  9
$PUCSORGFRONT
 10
0.0
 20
0.0
 30
0.0
  9
$PUCSORGBACK
 10
0.0
 20
0.0
 30
0.0
  9
$USERI1
 70
     0
  9
$USERI2
 70
     0
  9
$USERI3
 70
     0
  9
$USERI4
 70
     0
  9
$USERI5
 70
     0
  9
$USERR1
 40
0.0
  9
$USERR2
 40
0.0
  9
$USERR3
 40
0.0
  9
$USERR4
 40
0.0
  9
$USERR5
 40
0.0
  9
$WORLDVIEW
 70
     1
  9
$SHADEDGE
 70
     3
  9
$SHADEDIF
 70
    70
  9
$TILEMODE
 70
     1
  9
$MAXACTVP
 70
    16
  9
$PINSBASE
 10
0.0
 20
0.0
 30
0.0
  9
$PLIMCHECK
 70
     0
  9
$PEXTMIN
 10
1.000000000000000E+20
 20
1.000000000000000E+20
 30
1.000000000000000E+20
  9
$PEXTMAX
 10
-1.000000000000000E+20
 20
-1.000000000000000E+20
 30
-1.000000000000000E+20
  9
$PLIMMIN
 10
0.0
 20
0.0
  9
$PLIMMAX
 10
420.0
 20
297.0
  9
$UNITMODE
 70
     0
  9
$VISRETAIN
 70
     0
  9
$PLINEGEN
 70
     0
  9
$PSLTSCALE
 70
     0
  9
$TREEDEPTH
 70
  3020
  9
$CMLSTYLE
  2
STANDARD
  9
$CMLJUST
 70
     0
  9
$CMLSCALE
 40
1.0
  9
$PROXYGRAPHICS
 70
     1
  9
$MEASUREMENT
 70
     1
  9
$CELWEIGHT
370
    -1
  9
$ENDCAPS
280
     0
  9
$JOINSTYLE
280
     0
  9
$LWDISPLAY
290
     0
  9
$INSUNITS
 70
     0
  9
$HYPERLINKBASE
  1

  9
$STYLESHEET
  1
inabass.ctb
  9
$XEDIT
290
     1
  9
$CEPSNTYPE
380
     0
  9
$PSTYLEMODE
290
     1
  9
$FINGERPRINTGUID
  2
{3B57B35E-7D77-4BBF-81B7-6C583B9EB24C}
  9
$VERSIONGUID
  2
{E8921825-8D77-4CD1-8650-41512E0EB4B4}
  9
$EXTNAMES
290
     1
  9
$PSVPSCALE
 40
0.0
  9
$OLESTARTUP
290
     0
  0
ENDSEC
  0
SECTION
  2
CLASSES
  0
CLASS
  1
ACDBDICTIONARYWDFLT
  2
AcDbDictionaryWithDefault
  3
ObjectDBX Classes
 90
        0
280
     0
281
     0
  0
CLASS
  1
DICTIONARYVAR
  2
AcDbDictionaryVar
  3
ObjectDBX Classes
 90
        0
280
     0
281
     0
  0
CLASS
  1
ACDBPLACEHOLDER
  2
AcDbPlaceHolder
  3
ObjectDBX Classes
 90
        0
280
     0
281
     0
  0
CLASS
  1
LAYOUT
  2
AcDbLayout
  3
ObjectDBX Classes
 90
        0
280
     0
281
     0
  0
ENDSEC
  0
SECTION
  2
TABLES
  0
TABLE
  2
VPORT
  5
746D
330
0
100
AcDbSymbolTable
 70
     3
  0
VPORT
  5
20011
330
746D
100
AcDbSymbolTableRecord
100
AcDbViewportTableRecord
  2
*Active
 70
     0
 10
0.0
 20
0.0
 11
1.0
 21
1.0
 12
8223.761025238502
 22
5704.513862896348
 13
0.0
 23
0.0
 14
10.0
 24
10.0
 15
10.0
 25
10.0
 16
0.0
 26
0.0
 36
1.0
 17
0.0
 27
0.0
 37
0.0
 40
11503.61125179458
 41
1.706919945725915
 42
50.0
 43
0.0
 44
0.0
 50
0.0
 51
0.0
 71
     0
 72
     0
 73
     1
 74
     0
 75
     0
 76
     0
 77
     0
 78
     0
281
     0
 65
     1
110
0.0
120
0.0
130
0.0
111
1.0
121
0.0
131
0.0
112
0.0
122
1.0
132
0.0
 79
     0
146
0.0
  0
ENDTAB
  0
TABLE
  2
LTYPE
  5
746A
330
0
100
AcDbSymbolTable
 70
     4
  0
LTYPE
  5
7477
330
746A
100
AcDbSymbolTableRecord
100
AcDbLinetypeTableRecord
  2
BYBLOCK
 70
     0
  3

 72
    65
 73
     0
 40
0.0
  0
LTYPE
  5
7478
330
746A
100
AcDbSymbolTableRecord
100
AcDbLinetypeTableRecord
  2
BYLAYER
 70
     0
  3

 72
    65
 73
     0
 40
0.0
  0
LTYPE
  5
7479
330
746A
100
AcDbSymbolTableRecord
100
AcDbLinetypeTableRecord
  2
CONTINUOUS
 70
     0
  3
Solid line
 72
    65
 73
     0
 40
0.0
  0
LTYPE
  5
7816
330
746A
100
AcDbSymbolTableRecord
100
AcDbLinetypeTableRecord
  2
CENTER
 70
     0
  3
____ _ ____ _ ____ _ ____ _ ____ _ ____ _ ____ 
 72
    65
 73
     4
 40
2.0
 49
1.25
 74
     0
 49
-0.25
 74
     0
 49
0.25
 74
     0
 49
-0.25
 74
     0
  0
LTYPE
  5
781A
330
746A
100
AcDbSymbolTableRecord
100
AcDbLinetypeTableRecord
  2
HIDDEN
 70
     0
  3
__ __ __ __ __ __ __ __ __ __ __ __ __ __ __ __
 72
    65
 73
     2
 40
0.375
 49
0.25
 74
     0
 49
-0.125
 74
     0
  0
LTYPE
  5
781B
330
746A
100
AcDbSymbolTableRecord
100
AcDbLinetypeTableRecord
  2
PHANTOM
 70
     0
  3
______  __  __  ______  __  __  ______  __  __ 
 72
    65
 73
     6
 40
2.5
 49
1.25
 74
     0
 49
-0.25
 74
     0
 49
0.25
 74
     0
 49
-0.25
 74
     0
 49
0.25
 74
     0
 49
-0.25
 74
     0
  0
ENDTAB
  0
TABLE
  2
LAYER
  5
7467
102
{ACAD_XDICTIONARY
360
1ED5D
102
}
330
0
100
AcDbSymbolTable
 70
    13
  0
LAYER
  5
7474
330
7467
100
AcDbSymbolTableRecord
100
AcDbLayerTableRecord
  2
0
 70
     0
 62
     7
  6
CONTINUOUS
370
    -3
390
159AE
  0
LAYER
  5
DEB2
330
7467
100
AcDbSymbolTableRecord
100
AcDbLayerTableRecord
  2
センター
 70
     0
 62
     3
  6
CENTER
370
    -3
390
159AE
  0
LAYER
  5
DEB3
330
7467
100
AcDbSymbolTableRecord
100
AcDbLayerTableRecord
  2
寸法
 70
     0
 62
     4
  6
CONTINUOUS
370
    -3
390
159AE
  0
LAYER
  5
DEB4
330
7467
100
AcDbSymbolTableRecord
100
AcDbLayerTableRecord
  2
部品1
 70
     0
 62
     7
  6
CONTINUOUS
370
    -3
390
159AE
  0
LAYER
  5
DEB5
330
7467
100
AcDbSymbolTableRecord
100
AcDbLayerTableRecord
  2
補助
 70
     0
 62
    -1
  6
CONTINUOUS
370
    -3
390
159AE
  0
LAYER
  5
DEB6
330
7467
100
AcDbSymbolTableRecord
100
AcDbLayerTableRecord
  2
文字
 70
     0
 62
     7
  6
CONTINUOUS
370
    -3
390
159AE
  0
LAYER
  5
F255
330
7467
100
AcDbSymbolTableRecord
100
AcDbLayerTableRecord
  2
DEFPOINTS
 70
     0
 62
     7
  6
CONTINUOUS
290
     0
370
    -3
390
159AE
  0
LAYER
  5
10B54
330
7467
100
AcDbSymbolTableRecord
100
AcDbLayerTableRecord
  2
仕様書枠
 70
     0
 62
   230
  6
CONTINUOUS
370
    -3
390
159AE
  0
LAYER
  5
11729
330
7467
100
AcDbSymbolTableRecord
100
AcDbLayerTableRecord
  2
Ｇ．Ｌ
 70
     0
 62
    30
  6
CONTINUOUS
370
    -3
390
159AE
  0
LAYER
  5
1173F
330
7467
100
AcDbSymbolTableRecord
100
AcDbLayerTableRecord
  2
細線
 70
     0
 62
     5
  6
CONTINUOUS
370
    -3
390
159AE
  0
LAYER
  5
12CC4
330
7467
100
AcDbSymbolTableRecord
100
AcDbLayerTableRecord
  2
想像線
 70
     0
 62
     6
  6
PHANTOM
370
    -3
390
159AE
  0
LAYER
  5
142E2
330
7467
100
AcDbSymbolTableRecord
100
AcDbLayerTableRecord
  2
破線
 70
     0
 62
     2
  6
HIDDEN
370
    -3
390
159AE
  0
LAYER
  5
1C644
330
7467
100
AcDbSymbolTableRecord
100
AcDbLayerTableRecord
  2
点線
 70
     0
 62
     2
  6
HIDDEN
370
    -3
390
159AE
  0
ENDTAB
  0
TABLE
  2
STYLE
  5
7468
330
0
100
AcDbSymbolTable
 70
     3
  0
STYLE
  5
7475
330
7468
100
AcDbSymbolTableRecord
100
AcDbTextStyleTableRecord
  2
STANDARD
 70
     0
 40
0.0
 41
1.0
 50
0.0
 71
     0
 42
4.0
  3
txt
  4
C:\AutoCAD LT\bigfont.shx
  0
STYLE
  5
F706
330
7468
100
AcDbSymbolTableRecord
100
AcDbTextStyleTableRecord
  2
STYLE1
 70
     0
 40
0.0
 41
1.0
 50
0.0
 71
     0
 42
100.0
  3
isocp.shx
  4
bigfont.shx
  0
STYLE
  5
103BF
330
7468
100
AcDbSymbolTableRecord
100
AcDbTextStyleTableRecord
  2
STYLE2
 70
     0
 40
0.0
 41
1.0
 50
0.0
 71
     0
 42
100.0
  3
MS PGothic.ttf
  4

1001
ACAD
1000
MS PGothic
1071
    32818
  0
ENDTAB
  0
TABLE
  2
VIEW
  5
746B
330
0
100
AcDbSymbolTable
 70
     0
  0
ENDTAB
  0
TABLE
  2
UCS
  5
746C
330
0
100
AcDbSymbolTable
 70
     0
  0
ENDTAB
  0
TABLE
  2
APPID
  5
746E
330
0
100
AcDbSymbolTable
 70
     6
  0
APPID
  5
7476
330
746E
100
AcDbSymbolTableRecord
100
AcDbRegAppTableRecord
  2
ACAD
 70
     0
  0
APPID
  5
DEA9
330
746E
100
AcDbSymbolTableRecord
100
AcDbRegAppTableRecord
  2
CONTENTBLOCKICON
 70
     0
  0
APPID
  5
DEAA
330
746E
100
AcDbSymbolTableRecord
100
AcDbRegAppTableRecord
  2
CONTENTBLOCKDESCRIPTION
 70
     0
  0
APPID
  5
E71D
330
746E
100
AcDbSymbolTableRecord
100
AcDbRegAppTableRecord
  2
CONTENTTABDATA
 70
     0
  0
APPID
  5
E71E
330
746E
100
AcDbSymbolTableRecord
100
AcDbRegAppTableRecord
  2
CONTENTCURRENTTAB
 70
     0
  0
APPID
  5
F3BA
330
746E
100
AcDbSymbolTableRecord
100
AcDbRegAppTableRecord
  2
DRAWINGVARIABLESXDATA
 70
     0
  0
ENDTAB
  0
TABLE
  2
DIMSTYLE
  5
746F
330
0
100
AcDbSymbolTable
 70
     2
100
AcDbDimStyleTable
 71
     1
340
F71F
  0
DIMSTYLE
105
F71F
102
{ACAD_REACTORS
330
1CAB8
330
1CAB7
330
1CAB6
330
1E8FD
330
1E8FC
330
1E8FB
330
1E8FA
330
1E8F9
330
1E8F8
330
1E9AA
330
1F6EE
330
1F6ED
330
1FC47
330
1FE65
330
1FEC2
330
1FF2A
330
1FF8C
102
}
330
746F
100
AcDbSymbolTableRecord
100
AcDbDimStyleTableRecord
  2
INABA_S40G
 70
     0
 40
40.0
 41
2.5
 42
0.5
 43
7.0
 44
1.5
 73
     0
 74
     0
 77
     3
 78
     8
140
3.0
141
0.0
143
0.0394
147
1.0
172
     1
173
     1
174
     1
178
     7
271
     1
288
     1
340
F706
341
F770
343
F770
344
F770
  0
DIMSTYLE
105
1C645
330
746F
100
AcDbSymbolTableRecord
100
AcDbDimStyleTableRecord
  2
INABA_S50G
 70
     0
 40
0.0
 41
125.0
 42
25.0
 43
7.0
 44
75.0
 73
     0
 74
     0
 77
     3
 78
     8
140
150.0
141
0.0
143
0.0394
147
25.0
172
     1
173
     1
174
     1
178
     7
271
     1
340
F706
341
F770
343
F770
344
F770
  0
ENDTAB
  0
TABLE
  2
BLOCK_RECORD
  5
7466
330
0
100
AcDbSymbolTable
 70
    50
  0
BLOCK_RECORD
  5
747D
330
7466
100
AcDbSymbolTableRecord
100
AcDbBlockTableRecord
  2
*MODEL_SPACE
340
159B3
  0
BLOCK_RECORD
  5
747A
330
7466
100
AcDbSymbolTableRecord
100
AcDbBlockTableRecord
  2
*PAPER_SPACE
340
159B4
  0
BLOCK_RECORD
  5
F770
330
7466
100
AcDbSymbolTableRecord
100
AcDbBlockTableRecord
  2
_DOTSMALL
340
0
102
{BLKREFS
331
1E214
331
1E215
331
1E1AD
331
1E1AE
331
1E1D1
331
1E1D2
331
1E1C6
331
1E1C7
331
1E187
331
1E188
331
1E1BA
331
1E1BB
331
1E1DF
331
1E1E0
331
1E1A1
331
1E1A2
331
1E194
331
1E195
331
1E220
331
1E221
331
1E24F
331
1E250
331
1E1FA
331
1E1FB
331
1E1ED
331
1E1EE
331
1E207
331
1E208
331
1E22B
331
1E22C
331
1E242
331
1E243
331
1E17A
331
1E17B
331
1E16D
331
1E16E
331
1E160
331
1E161
331
1E155
331
1E156
331
1E236
331
1E237
331
1E64B
331
1E64C
331
1E654
331
1E655
331
1E65F
331
1E660
331
1E975
331
1E976
331
1F66B
331
1F66C
331
1F674
331
1F675
331
1F797
331
1F798
331
1F7A9
331
1F7AA
331
1F7B2
331
1F7B3
331
1F7E8
331
1F7E9
331
1F804
331
1F805
331
1F80D
331
1F80E
331
1F840
331
1F841
331
1F849
331
1F84A
331
1FC0C
331
1FC0D
331
1FC15
331
1FC16
331
1FCB1
331
1FCB2
331
1FCF2
331
1FCF3
331
1FCE6
331
1FCE7
331
1FCDA
331
1FCDB
331
1FCCE
331
1FCCF
331
1FFEC
331
1FFED
331
1FFF5
331
1FFF6
331
1FFFE
331
1FFFF
331
20007
331
20008
102
}
  0
BLOCK_RECORD
  5
1C530
330
7466
100
AcDbSymbolTableRecord
100
AcDbBlockTableRecord
  2
_NONE
340
0
  0
BLOCK_RECORD
  5
1CDBF
330
7466
100
AcDbSymbolTableRecord
100
AcDbBlockTableRecord
  2
*D2
340
0
  0
BLOCK_RECORD
  5
1CDCD
330
7466
100
AcDbSymbolTableRecord
100
AcDbBlockTableRecord
  2
*D3
340
0
  0
BLOCK_RECORD
  5
1CDD8
330
7466
100
AcDbSymbolTableRecord
100
AcDbBlockTableRecord
  2
*D4
340
0
  0
BLOCK_RECORD
  5
1D86F
330
7466
100
AcDbSymbolTableRecord
100
AcDbBlockTableRecord
  2
*D5
340
0
  0
BLOCK_RECORD
  5
1D87B
330
7466
100
AcDbSymbolTableRecord
100
AcDbBlockTableRecord
  2
*D6
340
0
  0
BLOCK_RECORD
  5
1E151
330
7466
100
AcDbSymbolTableRecord
100
AcDbBlockTableRecord
  2
*D7
340
0
  0
BLOCK_RECORD
  5
1E15C
330
7466
100
AcDbSymbolTableRecord
100
AcDbBlockTableRecord
  2
*D8
340
0
  0
BLOCK_RECORD
  5
1E167
330
7466
100
AcDbSymbolTableRecord
100
AcDbBlockTableRecord
  2
*D9
340
0
  0
BLOCK_RECORD
  5
1E174
330
7466
100
AcDbSymbolTableRecord
100
AcDbBlockTableRecord
  2
*D10
340
0
  0
BLOCK_RECORD
  5
1E181
330
7466
100
AcDbSymbolTableRecord
100
AcDbBlockTableRecord
  2
*D11
340
0
  0
BLOCK_RECORD
  5
1E18E
330
7466
100
AcDbSymbolTableRecord
100
AcDbBlockTableRecord
  2
*D12
340
0
  0
BLOCK_RECORD
  5
1E19B
330
7466
100
AcDbSymbolTableRecord
100
AcDbBlockTableRecord
  2
*D13
340
0
  0
BLOCK_RECORD
  5
1E1A8
330
7466
100
AcDbSymbolTableRecord
100
AcDbBlockTableRecord
  2
*D14
340
0
  0
BLOCK_RECORD
  5
1E1B4
330
7466
100
AcDbSymbolTableRecord
100
AcDbBlockTableRecord
  2
*D15
340
0
  0
BLOCK_RECORD
  5
1E1C1
330
7466
100
AcDbSymbolTableRecord
100
AcDbBlockTableRecord
  2
*D16
340
0
  0
BLOCK_RECORD
  5
1E1CD
330
7466
100
AcDbSymbolTableRecord
100
AcDbBlockTableRecord
  2
*D17
340
0
  0
BLOCK_RECORD
  5
1E1D8
330
7466
100
AcDbSymbolTableRecord
100
AcDbBlockTableRecord
  2
*D18
340
0
  0
BLOCK_RECORD
  5
1E1E6
330
7466
100
AcDbSymbolTableRecord
100
AcDbBlockTableRecord
  2
*D19
340
0
  0
BLOCK_RECORD
  5
1E1F4
330
7466
100
AcDbSymbolTableRecord
100
AcDbBlockTableRecord
  2
*D20
340
0
  0
BLOCK_RECORD
  5
1E201
330
7466
100
AcDbSymbolTableRecord
100
AcDbBlockTableRecord
  2
*D21
340
0
  0
BLOCK_RECORD
  5
1E20E
330
7466
100
AcDbSymbolTableRecord
100
AcDbBlockTableRecord
  2
*D22
340
0
  0
BLOCK_RECORD
  5
1E21B
330
7466
100
AcDbSymbolTableRecord
100
AcDbBlockTableRecord
  2
*D23
340
0
  0
BLOCK_RECORD
  5
1E227
330
7466
100
AcDbSymbolTableRecord
100
AcDbBlockTableRecord
  2
*D24
340
0
  0
BLOCK_RECORD
  5
1E232
330
7466
100
AcDbSymbolTableRecord
100
AcDbBlockTableRecord
  2
*D25
340
0
  0
BLOCK_RECORD
  5
1E23D
330
7466
100
AcDbSymbolTableRecord
100
AcDbBlockTableRecord
  2
*D26
340
0
  0
BLOCK_RECORD
  5
1E249
330
7466
100
AcDbSymbolTableRecord
100
AcDbBlockTableRecord
  2
*D27
340
0
  0
BLOCK_RECORD
  5
1E256
330
7466
100
AcDbSymbolTableRecord
100
AcDbBlockTableRecord
  2
A$C56A41A26
340
0
  0
BLOCK_RECORD
  5
1E8FE
330
7466
100
AcDbSymbolTableRecord
100
AcDbBlockTableRecord
  2
*D29
340
0
  0
BLOCK_RECORD
  5
1E90A
330
7466
100
AcDbSymbolTableRecord
100
AcDbBlockTableRecord
  2
*D30
340
0
  0
BLOCK_RECORD
  5
1E916
330
7466
100
AcDbSymbolTableRecord
100
AcDbBlockTableRecord
  2
*D31
340
0
  0
BLOCK_RECORD
  5
1E922
330
7466
100
AcDbSymbolTableRecord
100
AcDbBlockTableRecord
  2
*D32
340
0
  0
BLOCK_RECORD
  5
1E930
330
7466
100
AcDbSymbolTableRecord
100
AcDbBlockTableRecord
  2
*D33
340
0
  0
BLOCK_RECORD
  5
1E93E
330
7466
100
AcDbSymbolTableRecord
100
AcDbBlockTableRecord
  2
*D34
340
0
  0
BLOCK_RECORD
  5
1E9AB
330
7466
100
AcDbSymbolTableRecord
100
AcDbBlockTableRecord
  2
*D35
340
0
  0
BLOCK_RECORD
  5
1F6EF
330
7466
100
AcDbSymbolTableRecord
100
AcDbBlockTableRecord
  2
*D36
340
0
  0
BLOCK_RECORD
  5
1F6FB
330
7466
100
AcDbSymbolTableRecord
100
AcDbBlockTableRecord
  2
*D37
340
0
  0
BLOCK_RECORD
  5
1FBF1
330
7466
100
AcDbSymbolTableRecord
100
AcDbBlockTableRecord
  2
*D38
340
0
  0
BLOCK_RECORD
  5
1FBFD
330
7466
100
AcDbSymbolTableRecord
100
AcDbBlockTableRecord
  2
*D39
340
0
  0
BLOCK_RECORD
  5
1FC4D
330
7466
100
AcDbSymbolTableRecord
100
AcDbBlockTableRecord
  2
*D40
340
0
  0
BLOCK_RECORD
  5
1FCC9
330
7466
100
AcDbSymbolTableRecord
100
AcDbBlockTableRecord
  2
*D41
340
0
  0
BLOCK_RECORD
  5
1FCD5
330
7466
100
AcDbSymbolTableRecord
100
AcDbBlockTableRecord
  2
*D42
340
0
  0
BLOCK_RECORD
  5
1FCE1
330
7466
100
AcDbSymbolTableRecord
100
AcDbBlockTableRecord
  2
*D43
340
0
  0
BLOCK_RECORD
  5
1FCED
330
7466
100
AcDbSymbolTableRecord
100
AcDbBlockTableRecord
  2
*D44
340
0
  0
BLOCK_RECORD
  5
1FFB9
330
7466
100
AcDbSymbolTableRecord
100
AcDbBlockTableRecord
  2
*D46
340
0
  0
BLOCK_RECORD
  5
1FFC5
330
7466
100
AcDbSymbolTableRecord
100
AcDbBlockTableRecord
  2
*D47
340
0
  0
BLOCK_RECORD
  5
1FFD1
330
7466
100
AcDbSymbolTableRecord
100
AcDbBlockTableRecord
  2
*D48
340
0
  0
BLOCK_RECORD
  5
1FFDD
330
7466
100
AcDbSymbolTableRecord
100
AcDbBlockTableRecord
  2
*D49
340
0
  0
ENDTAB
  0
ENDSEC
  0
SECTION
  2
BLOCKS
  0
BLOCK
  5
7489
330
747D
100
AcDbEntity
  8
0
100
AcDbBlockBegin
  2
*MODEL_SPACE
 70
     0
 10
0.0
 20
0.0
 30
0.0
  3
*MODEL_SPACE
  1

  0
ENDBLK
  5
748A
330
747D
100
AcDbEntity
  8
0
100
AcDbBlockEnd
  0
BLOCK
  5
7487
330
747A
100
AcDbEntity
 67
     1
  8
0
100
AcDbBlockBegin
  2
*PAPER_SPACE
 70
     0
 10
0.0
 20
0.0
 30
0.0
  3
*PAPER_SPACE
  1

  0
ENDBLK
  5
7488
330
747A
100
AcDbEntity
 67
     1
  8
0
100
AcDbBlockEnd
  0
BLOCK
  5
F771
330
F770
100
AcDbEntity
  8
0
 48
50.0
100
AcDbBlockBegin
  2
_DOTSMALL
 70
     0
 10
0.0
 20
0.0
 30
0.0
  3
_DOTSMALL
  1

  0
LWPOLYLINE
  5
F772
330
F770
100
AcDbEntity
  8
0
  6
ByBlock
 62
     0
 48
50.0
100
AcDbPolyline
 90
        2
 70
     1
 43
0.5
 10
-0.0625
 20
0.0
 42
1.0
 10
0.0625
 20
0.0
 42
1.0
  0
ENDBLK
  5
F776
330
F770
100
AcDbEntity
  8
0
 48
50.0
100
AcDbBlockEnd
  0
BLOCK
  5
1C531
330
1C530
100
AcDbEntity
  8
0
 48
50.0
100
AcDbBlockBegin
  2
_NONE
 70
     0
 10
0.0
 20
0.0
 30
0.0
  3
_NONE
  1

  0
CIRCLE
  5
1C532
330
1C530
100
AcDbEntity
  8
0
  6
ByBlock
 62
     0
 48
50.0
100
AcDbCircle
 10
0.0
 20
0.0
 30
0.0
 40
0.25
  0
ENDBLK
  5
1C533
330
1C530
100
AcDbEntity
  8
0
 48
50.0
100
AcDbBlockEnd
  0
BLOCK
  5
1CDCB
330
1CDBF
100
AcDbEntity
  8
0
 48
50.0
100
AcDbBlockBegin
  2
*D2
 70
     1
 10
0.0
 20
0.0
 30
0.0
  3
*D2
  1

  0
LINE
  5
1E65A
330
1CDBF
100
AcDbEntity
  8
寸法
 62
     0
 48
50.0
370
    -2
100
AcDbLine
 10
6887.599999999999
 20
5500.0
 30
0.0
 11
6406.888116550749
 21
5500.0
 31
0.0
  0
LINE
  5
1E65B
330
1CDBF
100
AcDbEntity
  8
寸法
 62
     0
 48
50.0
370
    -2
100
AcDbLine
 10
6837.599999999999
 20
5440.0
 30
0.0
 11
6406.888116550749
 21
5440.0
 31
0.0
  0
LINE
  5
1E65C
330
1CDBF
100
AcDbEntity
  8
寸法
 62
     0
 48
50.0
370
    -2
100
AcDbLine
 10
6466.888116550748
 20
5500.0
 30
0.0
 11
6466.888116550748
 21
5600.0
 31
0.0
  0
LINE
  5
1E65D
330
1CDBF
100
AcDbEntity
  8
寸法
 62
     0
 48
50.0
370
    -2
100
AcDbLine
 10
6466.888116550748
 20
5440.0
 30
0.0
 11
6466.888116550748
 21
5340.0
 31
0.0
  0
LINE
  5
1E65E
330
1CDBF
100
AcDbEntity
  8
寸法
 62
     0
 48
50.0
370
    -2
100
AcDbLine
 10
6466.888116550748
 20
5500.0
 30
0.0
 11
6466.888116550748
 21
5440.0
 31
0.0
  0
INSERT
  5
1E65F
330
1CDBF
100
AcDbEntity
  8
寸法
 62
     0
 48
50.0
370
    -2
100
AcDbBlockReference
  2
_DOTSMALL
 10
6466.888116550748
 20
5500.0
 30
0.0
 41
100.0
 42
100.0
 43
100.0
 50
270.0
  0
INSERT
  5
1E660
330
1CDBF
100
AcDbEntity
  8
寸法
 62
     0
 48
50.0
370
    -2
100
AcDbBlockReference
  2
_DOTSMALL
 10
6466.888116550748
 20
5440.0
 30
0.0
 41
100.0
 42
100.0
 43
100.0
 50
90.0
  0
MTEXT
  5
1E661
330
1CDBF
100
AcDbEntity
  8
寸法
 62
     7
 48
50.0
100
AcDbMText
 10
6366.888116550748
 20
5470.000000000002
 30
0.0
 40
120.0
 41
0.0
 71
     5
 72
     1
  1
\A1;b
  7
STYLE1
 11
0.0000000000000001
 21
1.0
 31
0.0
 73
     1
 44
1.0
1001
ACAD
1000
MTEXTBEGIN
1070
    73
1070
     1
1070
    44
1040
1.0
1070
    74
1070
     0
1000
MTEXTEND
  0
POINT
  5
1E662
330
1CDBF
100
AcDbEntity
  8
DEFPOINTS
 62
     0
 48
50.0
100
AcDbPoint
 10
6907.599999999999
 20
5500.0
 30
0.0
  0
POINT
  5
1E663
330
1CDBF
100
AcDbEntity
  8
DEFPOINTS
 62
     0
 48
50.0
100
AcDbPoint
 10
6857.599999999999
 20
5440.0
 30
0.0
  0
POINT
  5
1E664
330
1CDBF
100
AcDbEntity
  8
DEFPOINTS
 62
     0
 48
50.0
100
AcDbPoint
 10
6466.888116550748
 20
5440.0
 30
0.0
  0
ENDBLK
  5
1CDCC
330
1CDBF
100
AcDbEntity
  8
0
 48
50.0
100
AcDbBlockEnd
  0
BLOCK
  5
1CDD6
330
1CDCD
100
AcDbEntity
  8
0
 48
50.0
100
AcDbBlockBegin
  2
*D3
 70
     1
 10
0.0
 20
0.0
 30
0.0
  3
*D3
  1

  0
LINE
  5
1E651
330
1CDCD
100
AcDbEntity
  8
寸法
 62
     0
 48
50.0
370
    -2
100
AcDbLine
 10
6887.599999999999
 20
7292.0
 30
0.0
 11
6406.88811655075
 21
7292.0
 31
0.0
  0
LINE
  5
1E652
330
1CDCD
100
AcDbEntity
  8
寸法
 62
     0
 48
50.0
370
    -2
100
AcDbLine
 10
6887.599999999999
 20
5500.0
 30
0.0
 11
6406.888116550749
 21
5500.0
 31
0.0
  0
LINE
  5
1E653
330
1CDCD
100
AcDbEntity
  8
寸法
 62
     0
 48
50.0
370
    -2
100
AcDbLine
 10
6466.88811655075
 20
7292.0
 30
0.0
 11
6466.888116550748
 21
5500.0
 31
0.0
  0
INSERT
  5
1E654
330
1CDCD
100
AcDbEntity
  8
寸法
 62
     0
 48
50.0
370
    -2
100
AcDbBlockReference
  2
_DOTSMALL
 10
6466.88811655075
 20
7292.0
 30
0.0
 41
100.0
 42
100.0
 43
100.0
 50
90.0
  0
INSERT
  5
1E655
330
1CDCD
100
AcDbEntity
  8
寸法
 62
     0
 48
50.0
370
    -2
100
AcDbBlockReference
  2
_DOTSMALL
 10
6466.888116550748
 20
5500.0
 30
0.0
 41
100.0
 42
100.0
 43
100.0
 50
270.0
  0
MTEXT
  5
1E656
330
1CDCD
100
AcDbEntity
  8
寸法
 62
     7
 48
50.0
100
AcDbMText
 10
6366.847303985945
 20
6396.000000000002
 30
0.0
 40
120.0
 41
0.0
 71
     5
 72
     1
  1
\A1;1792
  7
STYLE1
 11
0.0000000000000001
 21
1.0
 31
0.0
 73
     1
 44
1.0
1001
ACAD
1000
MTEXTBEGIN
1070
    73
1070
     1
1070
    44
1040
1.0
1070
    74
1070
     0
1000
MTEXTEND
  0
POINT
  5
1E657
330
1CDCD
100
AcDbEntity
  8
DEFPOINTS
 62
     0
 48
50.0
100
AcDbPoint
 10
6907.599999999999
 20
7292.0
 30
0.0
  0
POINT
  5
1E658
330
1CDCD
100
AcDbEntity
  8
DEFPOINTS
 62
     0
 48
50.0
100
AcDbPoint
 10
6907.599999999999
 20
5500.0
 30
0.0
  0
POINT
  5
1E659
330
1CDCD
100
AcDbEntity
  8
DEFPOINTS
 62
     0
 48
50.0
100
AcDbPoint
 10
6466.888116550748
 20
5500.0
 30
0.0
  0
ENDBLK
  5
1CDD7
330
1CDCD
100
AcDbEntity
  8
0
 48
50.0
100
AcDbBlockEnd
  0
BLOCK
  5
1CDE4
330
1CDD8
100
AcDbEntity
  8
0
 48
50.0
100
AcDbBlockBegin
  2
*D4
 70
     1
 10
0.0
 20
0.0
 30
0.0
  3
*D4
  1

  0
LINE
  5
1E648
330
1CDD8
100
AcDbEntity
  8
寸法
 62
     0
 48
50.0
370
    -2
100
AcDbLine
 10
6837.599999999999
 20
7372.0
 30
0.0
 11
6406.888116550749
 21
7372.0
 31
0.0
  0
LINE
  5
1E649
330
1CDD8
100
AcDbEntity
  8
寸法
 62
     0
 48
50.0
370
    -2
100
AcDbLine
 10
6887.599999999999
 20
7292.0
 30
0.0
 11
6406.888116550749
 21
7292.0
 31
0.0
  0
LINE
  5
1E64A
330
1CDD8
100
AcDbEntity
  8
寸法
 62
     0
 48
50.0
370
    -2
100
AcDbLine
 10
6466.888116550748
 20
7372.0
 30
0.0
 11
6466.888116550748
 21
7292.0
 31
0.0
  0
INSERT
  5
1E64B
330
1CDD8
100
AcDbEntity
  8
寸法
 62
     0
 48
50.0
370
    -2
100
AcDbBlockReference
  2
_DOTSMALL
 10
6466.888116550748
 20
7372.0
 30
0.0
 41
100.0
 42
100.0
 43
100.0
 50
90.0
  0
INSERT
  5
1E64C
330
1CDD8
100
AcDbEntity
  8
寸法
 62
     0
 48
50.0
370
    -2
100
AcDbBlockReference
  2
_DOTSMALL
 10
6466.888116550748
 20
7292.0
 30
0.0
 41
100.0
 42
100.0
 43
100.0
 50
270.0
  0
MTEXT
  5
1E64D
330
1CDD8
100
AcDbEntity
  8
寸法
 62
     7
 48
50.0
100
AcDbMText
 10
6366.888116550747
 20
7332.000000000002
 30
0.0
 40
120.0
 41
0.0
 71
     5
 72
     1
  1
\A1;c
  7
STYLE1
 11
0.0000000000000001
 21
1.0
 31
0.0
 73
     1
 44
1.0
1001
ACAD
1000
MTEXTBEGIN
1070
    73
1070
     1
1070
    44
1040
1.0
1070
    74
1070
     0
1000
MTEXTEND
  0
POINT
  5
1E64E
330
1CDD8
100
AcDbEntity
  8
DEFPOINTS
 62
     0
 48
50.0
100
AcDbPoint
 10
6857.599999999999
 20
7372.0
 30
0.0
  0
POINT
  5
1E64F
330
1CDD8
100
AcDbEntity
  8
DEFPOINTS
 62
     0
 48
50.0
100
AcDbPoint
 10
6907.599999999999
 20
7292.0
 30
0.0
  0
POINT
  5
1E650
330
1CDD8
100
AcDbEntity
  8
DEFPOINTS
 62
     0
 48
50.0
100
AcDbPoint
 10
6466.888116550748
 20
7292.0
 30
0.0
  0
ENDBLK
  5
1CDE5
330
1CDD8
100
AcDbEntity
  8
0
 48
50.0
100
AcDbBlockEnd
  0
BLOCK
  5
1D879
330
1D86F
100
AcDbEntity
  8
0
 48
50.0
100
AcDbBlockBegin
  2
*D5
 70
     1
 10
0.0
 20
0.0
 30
0.0
  3
*D5
  1

  0
LINE
  5
1F668
330
1D86F
100
AcDbEntity
  8
寸法
 62
     0
 48
50.0
370
    -2
100
AcDbLine
 10
9039.91396638181
 20
1666.844112873079
 30
0.0
 11
9302.127213844709
 21
1666.844112873079
 31
0.0
  0
LINE
  5
1F669
330
1D86F
100
AcDbEntity
  8
寸法
 62
     0
 48
50.0
370
    -2
100
AcDbLine
 10
9059.363203276298
 20
1466.844112873077
 30
0.0
 11
9302.127213844709
 21
1466.844112873077
 31
0.0
  0
LINE
  5
1F66A
330
1D86F
100
AcDbEntity
  8
寸法
 62
     0
 48
50.0
370
    -2
100
AcDbLine
 10
9242.127213844709
 20
1666.844112873079
 30
0.0
 11
9242.127213844709
 21
1466.844112873077
 31
0.0
  0
INSERT
  5
1F66B
330
1D86F
100
AcDbEntity
  8
寸法
 62
     0
 48
50.0
370
    -2
100
AcDbBlockReference
  2
_DOTSMALL
 10
9242.127213844709
 20
1666.844112873079
 30
0.0
 41
100.0
 42
100.0
 43
100.0
 50
90.0
  0
INSERT
  5
1F66C
330
1D86F
100
AcDbEntity
  8
寸法
 62
     0
 48
50.0
370
    -2
100
AcDbBlockReference
  2
_DOTSMALL
 10
9242.127213844709
 20
1466.844112873077
 30
0.0
 41
100.0
 42
100.0
 43
100.0
 50
270.0
  0
MTEXT
  5
1F66D
330
1D86F
100
AcDbEntity
  8
寸法
 62
     7
 48
50.0
100
AcDbMText
 10
9142.127213844709
 20
1566.84411287308
 30
0.0
 40
120.0
 41
0.0
 71
     5
 72
     1
  1
\A1;b
  7
STYLE1
 11
0.0000000000000001
 21
1.0
 31
0.0
 73
     1
 44
1.0
1001
ACAD
1000
MTEXTBEGIN
1070
    73
1070
     1
1070
    44
1040
1.0
1070
    74
1070
     0
1000
MTEXTEND
  0
POINT
  5
1F66E
330
1D86F
100
AcDbEntity
  8
DEFPOINTS
 62
     0
 48
50.0
100
AcDbPoint
 10
9019.91396638181
 20
1666.844112873079
 30
0.0
  0
POINT
  5
1F66F
330
1D86F
100
AcDbEntity
  8
DEFPOINTS
 62
     0
 48
50.0
100
AcDbPoint
 10
9039.363203276298
 20
1466.844112873077
 30
0.0
  0
POINT
  5
1F670
330
1D86F
100
AcDbEntity
  8
DEFPOINTS
 62
     0
 48
50.0
100
AcDbPoint
 10
9242.127213844709
 20
1466.844112873077
 30
0.0
  0
ENDBLK
  5
1D87A
330
1D86F
100
AcDbEntity
  8
0
 48
50.0
100
AcDbBlockEnd
  0
BLOCK
  5
1D885
330
1D87B
100
AcDbEntity
  8
0
 48
50.0
100
AcDbBlockBegin
  2
*D6
 70
     1
 10
0.0
 20
0.0
 30
0.0
  3
*D6
  1

  0
LINE
  5
1F671
330
1D87B
100
AcDbEntity
  8
寸法
 62
     0
 48
50.0
370
    -2
100
AcDbLine
 10
10539.80689989894
 20
1766.844112873077
 30
0.0
 11
10782.44245361606
 21
1766.844112873077
 31
0.0
  0
LINE
  5
1F672
330
1D87B
100
AcDbEntity
  8
寸法
 62
     0
 48
50.0
370
    -2
100
AcDbLine
 10
10569.69580798928
 20
1466.844112873077
 30
0.0
 11
10782.44245361606
 21
1466.844112873077
 31
0.0
  0
LINE
  5
1F673
330
1D87B
100
AcDbEntity
  8
寸法
 62
     0
 48
50.0
370
    -2
100
AcDbLine
 10
10722.44245361606
 20
1766.844112873077
 30
0.0
 11
10722.44245361606
 21
1466.844112873077
 31
0.0
  0
INSERT
  5
1F674
330
1D87B
100
AcDbEntity
  8
寸法
 62
     0
 48
50.0
370
    -2
100
AcDbBlockReference
  2
_DOTSMALL
 10
10722.44245361606
 20
1766.844112873077
 30
0.0
 41
100.0
 42
100.0
 43
100.0
 50
90.0
  0
INSERT
  5
1F675
330
1D87B
100
AcDbEntity
  8
寸法
 62
     0
 48
50.0
370
    -2
100
AcDbBlockReference
  2
_DOTSMALL
 10
10722.44245361606
 20
1466.844112873077
 30
0.0
 41
100.0
 42
100.0
 43
100.0
 50
270.0
  0
MTEXT
  5
1F676
330
1D87B
100
AcDbEntity
  8
寸法
 62
     7
 48
50.0
100
AcDbMText
 10
10622.44245361606
 20
1616.844112873079
 30
0.0
 40
120.0
 41
0.0
 71
     5
 72
     1
  1
\A1;c
  7
STYLE1
 11
0.0000000000000001
 21
1.0
 31
0.0
 73
     1
 44
1.0
1001
ACAD
1000
MTEXTBEGIN
1070
    73
1070
     1
1070
    44
1040
1.0
1070
    74
1070
     0
1000
MTEXTEND
  0
POINT
  5
1F677
330
1D87B
100
AcDbEntity
  8
DEFPOINTS
 62
     0
 48
50.0
100
AcDbPoint
 10
10519.80689989894
 20
1766.844112873077
 30
0.0
  0
POINT
  5
1F678
330
1D87B
100
AcDbEntity
  8
DEFPOINTS
 62
     0
 48
50.0
100
AcDbPoint
 10
10549.69580798928
 20
1466.844112873077
 30
0.0
  0
POINT
  5
1F679
330
1D87B
100
AcDbEntity
  8
DEFPOINTS
 62
     0
 48
50.0
100
AcDbPoint
 10
10722.44245361606
 20
1466.844112873077
 30
0.0
  0
ENDBLK
  5
1D886
330
1D87B
100
AcDbEntity
  8
0
 48
50.0
100
AcDbBlockEnd
  0
BLOCK
  5
1E152
330
1E151
100
AcDbEntity
  8
0
 48
50.0
100
AcDbBlockBegin
  2
*D7
 70
     1
 10
0.0
 20
0.0
 30
0.0
  3
*D7
  1

  0
LINE
  5
1E153
330
1E151
100
AcDbEntity
  8
0
  6
ByBlock
 62
     0
 48
50.0
100
AcDbLine
 10
5296.0
 20
8029.0
 30
0.0
 11
5296.0
 21
9017.667619817153
 31
0.0
  0
LINE
  5
1E154
330
1E151
100
AcDbEntity
  8
0
  6
ByBlock
 62
     0
 48
50.0
100
AcDbLine
 10
3496.0
 20
8942.667619817154
 30
0.0
 11
5296.0
 21
8942.667619817154
 31
0.0
  0
INSERT
  5
1E155
330
1E151
100
AcDbEntity
  8
0
  6
ByBlock
 62
     0
 48
50.0
100
AcDbBlockReference
  2
_DOTSMALL
 10
3496.0
 20
8942.667619817154
 30
0.0
 41
125.0
 42
125.0
 43
125.0
 50
180.0
  0
INSERT
  5
1E156
330
1E151
100
AcDbEntity
  8
0
  6
ByBlock
 62
     0
 48
50.0
100
AcDbBlockReference
  2
_DOTSMALL
 10
5296.0
 20
8942.667619817154
 30
0.0
 41
125.0
 42
125.0
 43
125.0
  0
MTEXT
  5
1E157
330
1E151
100
AcDbEntity
  8
0
  6
ByBlock
 62
     7
 48
50.0
100
AcDbMText
 10
4396.0
 20
9042.667619817153
 30
0.0
 40
150.0
 41
0.0
 71
     5
 72
     1
  1
\A1;1800
  7
STYLE1
 73
     1
 44
1.0
1001
ACAD
1000
MTEXTBEGIN
1070
    73
1070
     1
1070
    44
1040
1.0
1070
    74
1070
     0
1000
MTEXTEND
  0
POINT
  5
1E158
330
1E151
100
AcDbEntity
  8
DEFPOINTS
  6
ByBlock
 62
     0
 48
50.0
100
AcDbPoint
 10
3496.0
 20
8004.0
 30
0.0
  0
POINT
  5
1E159
330
1E151
100
AcDbEntity
  8
DEFPOINTS
  6
ByBlock
 62
     0
 48
50.0
100
AcDbPoint
 10
5296.0
 20
8004.0
 30
0.0
  0
POINT
  5
1E15A
330
1E151
100
AcDbEntity
  8
DEFPOINTS
  6
ByBlock
 62
     0
 48
50.0
100
AcDbPoint
 10
5296.0
 20
8942.667619817154
 30
0.0
  0
ENDBLK
  5
1E15B
330
1E151
100
AcDbEntity
  8
0
 48
50.0
100
AcDbBlockEnd
  0
BLOCK
  5
1E15D
330
1E15C
100
AcDbEntity
  8
0
 48
50.0
100
AcDbBlockBegin
  2
*D8
 70
     1
 10
0.0
 20
0.0
 30
0.0
  3
*D8
  1

  0
LINE
  5
1E15E
330
1E15C
100
AcDbEntity
  8
0
  6
ByBlock
 62
     0
 48
50.0
100
AcDbLine
 10
3619.0
 20
7956.0
 30
0.0
 11
3619.0
 21
8805.206924300318
 31
0.0
  0
LINE
  5
1E15F
330
1E15C
100
AcDbEntity
  8
0
  6
ByBlock
 62
     0
 48
50.0
100
AcDbLine
 10
5173.0
 20
8730.206924300317
 30
0.0
 11
3619.0
 21
8730.206924300317
 31
0.0
  0
INSERT
  5
1E160
330
1E15C
100
AcDbEntity
  8
0
  6
ByBlock
 62
     0
 48
50.0
100
AcDbBlockReference
  2
_DOTSMALL
 10
5173.0
 20
8730.206924300317
 30
0.0
 41
125.0
 42
125.0
 43
125.0
  0
INSERT
  5
1E161
330
1E15C
100
AcDbEntity
  8
0
  6
ByBlock
 62
     0
 48
50.0
100
AcDbBlockReference
  2
_DOTSMALL
 10
3619.0
 20
8730.206924300317
 30
0.0
 41
125.0
 42
125.0
 43
125.0
 50
180.0
  0
MTEXT
  5
1E162
330
1E15C
100
AcDbEntity
  8
0
  6
ByBlock
 62
     7
 48
50.0
100
AcDbMText
 10
4396.0
 20
8830.206924300318
 30
0.0
 40
150.0
 41
0.0
 71
     5
 72
     1
  1
\A1;1554
  7
STYLE1
 73
     1
 44
1.0
1001
ACAD
1000
MTEXTBEGIN
1070
    73
1070
     1
1070
    44
1040
1.0
1070
    74
1070
     0
1000
MTEXTEND
  0
POINT
  5
1E163
330
1E15C
100
AcDbEntity
  8
DEFPOINTS
  6
ByBlock
 62
     0
 48
50.0
100
AcDbPoint
 10
5173.0
 20
7931.0
 30
0.0
  0
POINT
  5
1E164
330
1E15C
100
AcDbEntity
  8
DEFPOINTS
  6
ByBlock
 62
     0
 48
50.0
100
AcDbPoint
 10
3619.0
 20
7931.0
 30
0.0
  0
POINT
  5
1E165
330
1E15C
100
AcDbEntity
  8
DEFPOINTS
  6
ByBlock
 62
     0
 48
50.0
100
AcDbPoint
 10
3619.0
 20
8730.206924300317
 30
0.0
  0
ENDBLK
  5
1E166
330
1E15C
100
AcDbEntity
  8
0
 48
50.0
100
AcDbBlockEnd
  0
BLOCK
  5
1E168
330
1E167
100
AcDbEntity
  8
0
 48
50.0
100
AcDbBlockBegin
  2
*D9
 70
     1
 10
0.0
 20
0.0
 30
0.0
  3
*D9
  1

  0
LINE
  5
1E169
330
1E167
100
AcDbEntity
  8
0
  6
ByBlock
 62
     0
 48
50.0
100
AcDbLine
 10
3751.000000000001
 20
2304.000000000004
 30
0.0
 11
4106.75372407693
 21
2304.000000000004
 31
0.0
  0
LINE
  5
1E16A
330
1E167
100
AcDbEntity
  8
0
  6
ByBlock
 62
     0
 48
50.0
100
AcDbLine
 10
3821.000000000001
 20
2504.000000000007
 30
0.0
 11
4106.75372407693
 21
2504.000000000007
 31
0.0
  0
LINE
  5
1E16B
330
1E167
100
AcDbEntity
  8
0
  6
ByBlock
 62
     0
 48
50.0
100
AcDbLine
 10
4031.753724076931
 20
2304.000000000004
 30
0.0
 11
4031.753724076931
 21
2504.000000000007
 31
0.0
  0
LINE
  5
1E16C
330
1E167
100
AcDbEntity
  8
0
  6
ByBlock
 62
     0
 48
50.0
100
AcDbLine
 10
4031.753724076931
 20
2504.000000000007
 30
0.0
 11
4031.753724076931
 21
2952.927165354338
 31
0.0
  0
INSERT
  5
1E16D
330
1E167
100
AcDbEntity
  8
0
  6
ByBlock
 62
     0
 48
50.0
100
AcDbBlockReference
  2
_DOTSMALL
 10
4031.753724076931
 20
2304.000000000004
 30
0.0
 41
125.0
 42
125.0
 43
125.0
 50
270.0
  0
INSERT
  5
1E16E
330
1E167
100
AcDbEntity
  8
0
  6
ByBlock
 62
     0
 48
50.0
100
AcDbBlockReference
  2
_DOTSMALL
 10
4031.753724076931
 20
2504.000000000007
 30
0.0
 41
125.0
 42
125.0
 43
125.0
 50
90.0
  0
MTEXT
  5
1E16F
330
1E167
100
AcDbEntity
  8
0
  6
ByBlock
 62
     7
 48
50.0
100
AcDbMText
 10
3931.738960297403
 20
2790.963582677173
 30
0.0
 40
150.0
 41
0.0
 71
     5
 72
     1
  1
\A1;200
  7
STYLE1
 11
0.0000000000000001
 21
1.0
 31
0.0
 73
     1
 44
1.0
1001
ACAD
1000
MTEXTBEGIN
1070
    73
1070
     1
1070
    44
1040
1.0
1070
    74
1070
     0
1000
MTEXTEND
  0
POINT
  5
1E170
330
1E167
100
AcDbEntity
  8
DEFPOINTS
  6
ByBlock
 62
     0
 48
50.0
100
AcDbPoint
 10
3726.000000000001
 20
2304.000000000004
 30
0.0
  0
POINT
  5
1E171
330
1E167
100
AcDbEntity
  8
DEFPOINTS
  6
ByBlock
 62
     0
 48
50.0
100
AcDbPoint
 10
3796.000000000001
 20
2504.000000000007
 30
0.0
  0
POINT
  5
1E172
330
1E167
100
AcDbEntity
  8
DEFPOINTS
  6
ByBlock
 62
     0
 48
50.0
100
AcDbPoint
 10
4031.753724076931
 20
2504.000000000007
 30
0.0
  0
ENDBLK
  5
1E173
330
1E167
100
AcDbEntity
  8
0
 48
50.0
100
AcDbBlockEnd
  0
BLOCK
  5
1E175
330
1E174
100
AcDbEntity
  8
0
 48
50.0
100
AcDbBlockBegin
  2
*D10
 70
     1
 10
0.0
 20
0.0
 30
0.0
  3
*D10
  1

  0
LINE
  5
1E176
330
1E174
100
AcDbEntity
  8
0
  6
ByBlock
 62
     0
 48
50.0
100
AcDbLine
 10
3751.000000000001
 20
6724.000000000005
 30
0.0
 11
4106.75372407693
 21
6724.000000000005
 31
0.0
  0
LINE
  5
1E177
330
1E174
100
AcDbEntity
  8
0
  6
ByBlock
 62
     0
 48
50.0
100
AcDbLine
 10
3751.000000000002
 20
6624.000000000002
 30
0.0
 11
4106.75372407693
 21
6624.000000000002
 31
0.0
  0
LINE
  5
1E178
330
1E174
100
AcDbEntity
  8
0
  6
ByBlock
 62
     0
 48
50.0
100
AcDbLine
 10
4031.753724076931
 20
6724.000000000005
 30
0.0
 11
4031.753724076931
 21
6624.000000000002
 31
0.0
  0
LINE
  5
1E179
330
1E174
100
AcDbEntity
  8
0
  6
ByBlock
 62
     0
 48
50.0
100
AcDbLine
 10
4031.753724076931
 20
6624.000000000002
 30
0.0
 11
4031.753724076931
 21
6200.857401609004
 31
0.0
  0
INSERT
  5
1E17A
330
1E174
100
AcDbEntity
  8
0
  6
ByBlock
 62
     0
 48
50.0
100
AcDbBlockReference
  2
_DOTSMALL
 10
4031.753724076931
 20
6724.000000000005
 30
0.0
 41
125.0
 42
125.0
 43
125.0
 50
90.0
  0
INSERT
  5
1E17B
330
1E174
100
AcDbEntity
  8
0
  6
ByBlock
 62
     0
 48
50.0
100
AcDbBlockReference
  2
_DOTSMALL
 10
4031.753724076931
 20
6624.000000000002
 30
0.0
 41
125.0
 42
125.0
 43
125.0
 50
270.0
  0
MTEXT
  5
1E17C
330
1E174
100
AcDbEntity
  8
0
  6
ByBlock
 62
     7
 48
50.0
100
AcDbMText
 10
3931.75372407693
 20
6345.916456727114
 30
0.0
 40
150.0
 41
0.0
 71
     5
 72
     1
  1
\A1;100
  7
STYLE1
 11
0.0000000000000001
 21
1.0
 31
0.0
 73
     1
 44
1.0
1001
ACAD
1000
MTEXTBEGIN
1070
    73
1070
     1
1070
    44
1040
1.0
1070
    74
1070
     0
1000
MTEXTEND
  0
POINT
  5
1E17D
330
1E174
100
AcDbEntity
  8
DEFPOINTS
  6
ByBlock
 62
     0
 48
50.0
100
AcDbPoint
 10
3726.000000000001
 20
6724.000000000005
 30
0.0
  0
POINT
  5
1E17E
330
1E174
100
AcDbEntity
  8
DEFPOINTS
  6
ByBlock
 62
     0
 48
50.0
100
AcDbPoint
 10
3726.000000000002
 20
6624.000000000002
 30
0.0
  0
POINT
  5
1E17F
330
1E174
100
AcDbEntity
  8
DEFPOINTS
  6
ByBlock
 62
     0
 48
50.0
100
AcDbPoint
 10
4031.753724076931
 20
6624.000000000002
 30
0.0
  0
ENDBLK
  5
1E180
330
1E174
100
AcDbEntity
  8
0
 48
50.0
100
AcDbBlockEnd
  0
BLOCK
  5
1E182
330
1E181
100
AcDbEntity
  8
0
 48
50.0
100
AcDbBlockBegin
  2
*D11
 70
     1
 10
0.0
 20
0.0
 30
0.0
  3
*D11
  1

  0
LINE
  5
1E183
330
1E181
100
AcDbEntity
  8
0
  6
ByBlock
 62
     0
 48
50.0
100
AcDbLine
 10
3544.000000000006
 20
6822.000000000001
 30
0.0
 11
2925.057733986177
 21
6822.000000000001
 31
0.0
  0
LINE
  5
1E184
330
1E181
100
AcDbEntity
  8
0
  6
ByBlock
 62
     0
 48
50.0
100
AcDbLine
 10
3471.0
 20
6624.0
 30
0.0
 11
2925.057733986177
 21
6624.0
 31
0.0
  0
LINE
  5
1E185
330
1E181
100
AcDbEntity
  8
0
  6
ByBlock
 62
     0
 48
50.0
100
AcDbLine
 10
3000.057733986178
 20
6822.000000000001
 30
0.0
 11
3000.057733986178
 21
6624.0
 31
0.0
  0
LINE
  5
1E186
330
1E181
100
AcDbEntity
  8
0
  6
ByBlock
 62
     0
 48
50.0
100
AcDbLine
 10
3000.057733986178
 20
6624.0
 30
0.0
 11
3000.057733986178
 21
6143.206976370337
 31
0.0
  0
INSERT
  5
1E187
330
1E181
100
AcDbEntity
  8
0
  6
ByBlock
 62
     0
 48
50.0
100
AcDbBlockReference
  2
_DOTSMALL
 10
3000.057733986178
 20
6822.000000000001
 30
0.0
 41
125.0
 42
125.0
 43
125.0
 50
90.0
  0
INSERT
  5
1E188
330
1E181
100
AcDbEntity
  8
0
  6
ByBlock
 62
     0
 48
50.0
100
AcDbBlockReference
  2
_DOTSMALL
 10
3000.057733986178
 20
6624.0
 30
0.0
 41
125.0
 42
125.0
 43
125.0
 50
270.0
  0
MTEXT
  5
1E189
330
1E181
100
AcDbEntity
  8
0
  6
ByBlock
 62
     7
 48
50.0
100
AcDbMText
 10
2900.057733986177
 20
6288.469051157409
 30
0.0
 40
150.0
 41
0.0
 71
     5
 72
     1
  1
\A1;198
  7
STYLE1
 11
0.0000000000000001
 21
1.0
 31
0.0
 73
     1
 44
1.0
1001
ACAD
1000
MTEXTBEGIN
1070
    73
1070
     1
1070
    44
1040
1.0
1070
    74
1070
     0
1000
MTEXTEND
  0
POINT
  5
1E18A
330
1E181
100
AcDbEntity
  8
DEFPOINTS
  6
ByBlock
 62
     0
 48
50.0
100
AcDbPoint
 10
3569.000000000006
 20
6822.000000000001
 30
0.0
  0
POINT
  5
1E18B
330
1E181
100
AcDbEntity
  8
DEFPOINTS
  6
ByBlock
 62
     0
 48
50.0
100
AcDbPoint
 10
3496.0
 20
6624.0
 30
0.0
  0
POINT
  5
1E18C
330
1E181
100
AcDbEntity
  8
DEFPOINTS
  6
ByBlock
 62
     0
 48
50.0
100
AcDbPoint
 10
3000.057733986178
 20
6624.0
 30
0.0
  0
ENDBLK
  5
1E18D
330
1E181
100
AcDbEntity
  8
0
 48
50.0
100
AcDbBlockEnd
  0
BLOCK
  5
1E18F
330
1E18E
100
AcDbEntity
  8
0
 48
50.0
100
AcDbBlockBegin
  2
*D12
 70
     1
 10
0.0
 20
0.0
 30
0.0
  3
*D12
  1

  0
LINE
  5
1E190
330
1E18E
100
AcDbEntity
  8
0
  6
ByBlock
 62
     0
 48
50.0
100
AcDbLine
 10
3438.740228660987
 20
8755.206924300313
 30
0.0
 11
3438.740228660987
 21
9017.667619817155
 31
0.0
  0
LINE
  5
1E191
330
1E18E
100
AcDbEntity
  8
0
  6
ByBlock
 62
     0
 48
50.0
100
AcDbLine
 10
3496.0
 20
8029.0
 30
0.0
 11
3496.0
 21
9017.667619817155
 31
0.0
  0
LINE
  5
1E192
330
1E18E
100
AcDbEntity
  8
0
  6
ByBlock
 62
     0
 48
50.0
100
AcDbLine
 10
3496.0
 20
8942.667619817155
 30
0.0
 11
3438.740228660987
 21
8942.667619817155
 31
0.0
  0
LINE
  5
1E193
330
1E18E
100
AcDbEntity
  8
0
  6
ByBlock
 62
     0
 48
50.0
100
AcDbLine
 10
3438.740228660987
 20
8942.667619817155
 30
0.0
 11
3198.30367565484
 21
8942.667619817155
 31
0.0
  0
INSERT
  5
1E194
330
1E18E
100
AcDbEntity
  8
0
  6
ByBlock
 62
     0
 48
50.0
100
AcDbBlockReference
  2
_DOTSMALL
 10
3496.0
 20
8942.667619817155
 30
0.0
 41
125.0
 42
125.0
 43
125.0
  0
INSERT
  5
1E195
330
1E18E
100
AcDbEntity
  8
0
  6
ByBlock
 62
     0
 48
50.0
100
AcDbBlockReference
  2
_DOTSMALL
 10
3438.740228660987
 20
8942.667619817155
 30
0.0
 41
125.0
 42
125.0
 43
125.0
 50
180.0
  0
MTEXT
  5
1E196
330
1E18E
100
AcDbEntity
  8
0
  6
ByBlock
 62
     7
 48
50.0
100
AcDbMText
 10
3256.021952157913
 20
9042.667619817155
 30
0.0
 40
150.0
 41
0.0
 71
     5
 72
     1
  1
\A1;a
  7
STYLE1
 73
     1
 44
1.0
1001
ACAD
1000
MTEXTBEGIN
1070
    73
1070
     1
1070
    44
1040
1.0
1070
    74
1070
     0
1000
MTEXTEND
  0
POINT
  5
1E197
330
1E18E
100
AcDbEntity
  8
DEFPOINTS
  6
ByBlock
 62
     0
 48
50.0
100
AcDbPoint
 10
3438.740228660987
 20
8730.206924300313
 30
0.0
  0
POINT
  5
1E198
330
1E18E
100
AcDbEntity
  8
DEFPOINTS
  6
ByBlock
 62
     0
 48
50.0
100
AcDbPoint
 10
3496.0
 20
8004.0
 30
0.0
  0
POINT
  5
1E199
330
1E18E
100
AcDbEntity
  8
DEFPOINTS
  6
ByBlock
 62
     0
 48
50.0
100
AcDbPoint
 10
3496.0
 20
8942.667619817155
 30
0.0
  0
ENDBLK
  5
1E19A
330
1E18E
100
AcDbEntity
  8
0
 48
50.0
100
AcDbBlockEnd
  0
BLOCK
  5
1E19C
330
1E19B
100
AcDbEntity
  8
0
 48
50.0
100
AcDbBlockBegin
  2
*D13
 70
     1
 10
0.0
 20
0.0
 30
0.0
  3
*D13
  1

  0
LINE
  5
1E19D
330
1E19B
100
AcDbEntity
  8
0
  6
ByBlock
 62
     0
 48
50.0
100
AcDbLine
 10
3619.0
 20
7956.0
 30
0.0
 11
3619.0
 21
8805.206924300318
 31
0.0
  0
LINE
  5
1E19E
330
1E19B
100
AcDbEntity
  8
0
  6
ByBlock
 62
     0
 48
50.0
100
AcDbLine
 10
3496.0
 20
8029.0
 30
0.0
 11
3496.0
 21
8805.206924300318
 31
0.0
  0
LINE
  5
1E19F
330
1E19B
100
AcDbEntity
  8
0
  6
ByBlock
 62
     0
 48
50.0
100
AcDbLine
 10
3619.0
 20
8730.206924300317
 30
0.0
 11
3496.0
 21
8730.206924300317
 31
0.0
  0
LINE
  5
1E1A0
330
1E19B
100
AcDbEntity
  8
0
  6
ByBlock
 62
     0
 48
50.0
100
AcDbLine
 10
3496.0
 20
8730.206924300317
 30
0.0
 11
3067.527025225391
 21
8730.206924300317
 31
0.0
  0
INSERT
  5
1E1A1
330
1E19B
100
AcDbEntity
  8
0
  6
ByBlock
 62
     0
 48
50.0
100
AcDbBlockReference
  2
_DOTSMALL
 10
3619.0
 20
8730.206924300317
 30
0.0
 41
125.0
 42
125.0
 43
125.0
  0
INSERT
  5
1E1A2
330
1E19B
100
AcDbEntity
  8
0
  6
ByBlock
 62
     0
 48
50.0
100
AcDbBlockReference
  2
_DOTSMALL
 10
3496.0
 20
8730.206924300317
 30
0.0
 41
125.0
 42
125.0
 43
125.0
 50
180.0
  0
MTEXT
  5
1E1A3
330
1E19B
100
AcDbEntity
  8
0
  6
ByBlock
 62
     7
 48
50.0
100
AcDbMText
 10
3215.633626943189
 20
8830.221688079843
 30
0.0
 40
150.0
 41
0.0
 71
     5
 72
     1
  1
\A1;123
  7
STYLE1
 73
     1
 44
1.0
1001
ACAD
1000
MTEXTBEGIN
1070
    73
1070
     1
1070
    44
1040
1.0
1070
    74
1070
     0
1000
MTEXTEND
  0
POINT
  5
1E1A4
330
1E19B
100
AcDbEntity
  8
DEFPOINTS
  6
ByBlock
 62
     0
 48
50.0
100
AcDbPoint
 10
3619.0
 20
7931.0
 30
0.0
  0
POINT
  5
1E1A5
330
1E19B
100
AcDbEntity
  8
DEFPOINTS
  6
ByBlock
 62
     0
 48
50.0
100
AcDbPoint
 10
3496.0
 20
8004.0
 30
0.0
  0
POINT
  5
1E1A6
330
1E19B
100
AcDbEntity
  8
DEFPOINTS
  6
ByBlock
 62
     0
 48
50.0
100
AcDbPoint
 10
3496.0
 20
8730.206924300317
 30
0.0
  0
ENDBLK
  5
1E1A7
330
1E19B
100
AcDbEntity
  8
0
 48
50.0
100
AcDbBlockEnd
  0
BLOCK
  5
1E1A9
330
1E1A8
100
AcDbEntity
  8
0
 48
50.0
100
AcDbBlockBegin
  2
*D14
 70
     1
 10
0.0
 20
0.0
 30
0.0
  3
*D14
  1

  0
LINE
  5
1E1AA
330
1E1A8
100
AcDbEntity
  8
0
  6
ByBlock
 62
     0
 48
50.0
100
AcDbLine
 10
3544.0
 20
3881.0
 30
0.0
 11
2925.057733986178
 21
3881.0
 31
0.0
  0
LINE
  5
1E1AB
330
1E1A8
100
AcDbEntity
  8
0
  6
ByBlock
 62
     0
 48
50.0
100
AcDbLine
 10
3544.000000000006
 20
2402.000000000002
 30
0.0
 11
2925.057733986177
 21
2402.000000000002
 31
0.0
  0
LINE
  5
1E1AC
330
1E1A8
100
AcDbEntity
  8
0
  6
ByBlock
 62
     0
 48
50.0
100
AcDbLine
 10
3000.057733986178
 20
3881.0
 30
0.0
 11
3000.057733986178
 21
2402.000000000002
 31
0.0
  0
INSERT
  5
1E1AD
330
1E1A8
100
AcDbEntity
  8
0
  6
ByBlock
 62
     0
 48
50.0
100
AcDbBlockReference
  2
_DOTSMALL
 10
3000.057733986178
 20
3881.0
 30
0.0
 41
125.0
 42
125.0
 43
125.0
 50
90.0
  0
INSERT
  5
1E1AE
330
1E1A8
100
AcDbEntity
  8
0
  6
ByBlock
 62
     0
 48
50.0
100
AcDbBlockReference
  2
_DOTSMALL
 10
3000.057733986178
 20
2402.000000000002
 30
0.0
 41
125.0
 42
125.0
 43
125.0
 50
270.0
  0
MTEXT
  5
1E1AF
330
1E1A8
100
AcDbEntity
  8
0
  6
ByBlock
 62
     7
 48
50.0
100
AcDbMText
 10
2900.057733986177
 20
3104.0
 30
0.0
 40
150.0
 41
0.0
 71
     5
 72
     1
  1
\A1;1479
  7
STYLE1
 11
0.0000000000000001
 21
1.0
 31
0.0
 73
     1
 44
1.0
1001
ACAD
1000
MTEXTBEGIN
1070
    73
1070
     1
1070
    44
1040
1.0
1070
    74
1070
     0
1000
MTEXTEND
  0
POINT
  5
1E1B0
330
1E1A8
100
AcDbEntity
  8
DEFPOINTS
  6
ByBlock
 62
     0
 48
50.0
100
AcDbPoint
 10
3569.0
 20
3881.0
 30
0.0
  0
POINT
  5
1E1B1
330
1E1A8
100
AcDbEntity
  8
DEFPOINTS
  6
ByBlock
 62
     0
 48
50.0
100
AcDbPoint
 10
3569.000000000006
 20
2402.000000000002
 30
0.0
  0
POINT
  5
1E1B2
330
1E1A8
100
AcDbEntity
  8
DEFPOINTS
  6
ByBlock
 62
     0
 48
50.0
100
AcDbPoint
 10
3000.057733986178
 20
2402.000000000002
 30
0.0
  0
ENDBLK
  5
1E1B3
330
1E1A8
100
AcDbEntity
  8
0
 48
50.0
100
AcDbBlockEnd
  0
BLOCK
  5
1E1B5
330
1E1B4
100
AcDbEntity
  8
0
 48
50.0
100
AcDbBlockBegin
  2
*D15
 70
     1
 10
0.0
 20
0.0
 30
0.0
  3
*D15
  1

  0
LINE
  5
1E1B6
330
1E1B4
100
AcDbEntity
  8
0
  6
ByBlock
 62
     0
 48
50.0
100
AcDbLine
 10
3471.0
 20
8004.0
 30
0.0
 11
2925.057733986177
 21
8004.0
 31
0.0
  0
LINE
  5
1E1B7
330
1E1B4
100
AcDbEntity
  8
0
  6
ByBlock
 62
     0
 48
50.0
100
AcDbLine
 10
3544.0
 20
7881.0
 30
0.0
 11
2925.057733986177
 21
7881.0
 31
0.0
  0
LINE
  5
1E1B8
330
1E1B4
100
AcDbEntity
  8
0
  6
ByBlock
 62
     0
 48
50.0
100
AcDbLine
 10
3000.057733986178
 20
7881.0
 30
0.0
 11
3000.057733986178
 21
8004.0
 31
0.0
  0
LINE
  5
1E1B9
330
1E1B4
100
AcDbEntity
  8
0
  6
ByBlock
 62
     0
 48
50.0
100
AcDbLine
 10
3000.057733986178
 20
8004.0
 30
0.0
 11
3000.057733986178
 21
8425.213203435596
 31
0.0
  0
INSERT
  5
1E1BA
330
1E1B4
100
AcDbEntity
  8
0
  6
ByBlock
 62
     0
 48
50.0
100
AcDbBlockReference
  2
_DOTSMALL
 10
3000.057733986178
 20
7881.0
 30
0.0
 41
125.0
 42
125.0
 43
125.0
 50
270.0
  0
INSERT
  5
1E1BB
330
1E1B4
100
AcDbEntity
  8
0
  6
ByBlock
 62
     0
 48
50.0
100
AcDbBlockReference
  2
_DOTSMALL
 10
3000.057733986178
 20
8004.0
 30
0.0
 41
125.0
 42
125.0
 43
125.0
 50
90.0
  0
MTEXT
  5
1E1BC
330
1E1B4
100
AcDbEntity
  8
0
  6
ByBlock
 62
     7
 48
50.0
100
AcDbMText
 10
2900.04297020665
 20
8277.106601717798
 30
0.0
 40
150.0
 41
0.0
 71
     5
 72
     1
  1
\A1;123
  7
STYLE1
 11
0.0000000000000001
 21
1.0
 31
0.0
 73
     1
 44
1.0
1001
ACAD
1000
MTEXTBEGIN
1070
    73
1070
     1
1070
    44
1040
1.0
1070
    74
1070
     0
1000
MTEXTEND
  0
POINT
  5
1E1BD
330
1E1B4
100
AcDbEntity
  8
DEFPOINTS
  6
ByBlock
 62
     0
 48
50.0
100
AcDbPoint
 10
3496.0
 20
8004.0
 30
0.0
  0
POINT
  5
1E1BE
330
1E1B4
100
AcDbEntity
  8
DEFPOINTS
  6
ByBlock
 62
     0
 48
50.0
100
AcDbPoint
 10
3569.0
 20
7881.0
 30
0.0
  0
POINT
  5
1E1BF
330
1E1B4
100
AcDbEntity
  8
DEFPOINTS
  6
ByBlock
 62
     0
 48
50.0
100
AcDbPoint
 10
3000.057733986178
 20
7881.0
 30
0.0
  0
ENDBLK
  5
1E1C0
330
1E1B4
100
AcDbEntity
  8
0
 48
50.0
100
AcDbBlockEnd
  0
BLOCK
  5
1E1C2
330
1E1C1
100
AcDbEntity
  8
0
 48
50.0
100
AcDbBlockBegin
  2
*D16
 70
     1
 10
0.0
 20
0.0
 30
0.0
  3
*D16
  1

  0
LINE
  5
1E1C3
330
1E1C1
100
AcDbEntity
  8
0
  6
ByBlock
 62
     0
 48
50.0
100
AcDbLine
 10
3471.0
 20
6624.0
 30
0.0
 11
2679.56493184821
 21
6624.0
 31
0.0
  0
LINE
  5
1E1C4
330
1E1C1
100
AcDbEntity
  8
0
  6
ByBlock
 62
     0
 48
50.0
100
AcDbLine
 10
2975.057733986178
 20
6494.0
 30
0.0
 11
2679.56493184821
 21
6494.0
 31
0.0
  0
LINE
  5
1E1C5
330
1E1C1
100
AcDbEntity
  8
0
  6
ByBlock
 62
     0
 48
50.0
100
AcDbLine
 10
2754.56493184821
 20
6624.0
 30
0.0
 11
2754.56493184821
 21
6494.0
 31
0.0
  0
INSERT
  5
1E1C6
330
1E1C1
100
AcDbEntity
  8
0
  6
ByBlock
 62
     0
 48
50.0
100
AcDbBlockReference
  2
_DOTSMALL
 10
2754.56493184821
 20
6624.0
 30
0.0
 41
125.0
 42
125.0
 43
125.0
 50
90.0
  0
INSERT
  5
1E1C7
330
1E1C1
100
AcDbEntity
  8
0
  6
ByBlock
 62
     0
 48
50.0
100
AcDbBlockReference
  2
_DOTSMALL
 10
2754.56493184821
 20
6494.0
 30
0.0
 41
125.0
 42
125.0
 43
125.0
 50
270.0
  0
MTEXT
  5
1E1C8
330
1E1C1
100
AcDbEntity
  8
0
  6
ByBlock
 62
     7
 48
50.0
100
AcDbMText
 10
2654.56493184821
 20
6559.0
 30
0.0
 40
150.0
 41
0.0
 71
     5
 72
     1
  1
\A1;b
  7
STYLE1
 11
0.0000000000000001
 21
1.0
 31
0.0
 73
     1
 44
1.0
1001
ACAD
1000
MTEXTBEGIN
1070
    73
1070
     1
1070
    44
1040
1.0
1070
    74
1070
     0
1000
MTEXTEND
  0
POINT
  5
1E1C9
330
1E1C1
100
AcDbEntity
  8
DEFPOINTS
  6
ByBlock
 62
     0
 48
50.0
100
AcDbPoint
 10
3496.0
 20
6624.0
 30
0.0
  0
POINT
  5
1E1CA
330
1E1C1
100
AcDbEntity
  8
DEFPOINTS
  6
ByBlock
 62
     0
 48
50.0
100
AcDbPoint
 10
3000.057733986178
 20
6494.0
 30
0.0
  0
POINT
  5
1E1CB
330
1E1C1
100
AcDbEntity
  8
DEFPOINTS
  6
ByBlock
 62
     0
 48
50.0
100
AcDbPoint
 10
2754.56493184821
 20
6494.0
 30
0.0
  0
ENDBLK
  5
1E1CC
330
1E1C1
100
AcDbEntity
  8
0
 48
50.0
100
AcDbBlockEnd
  0
BLOCK
  5
1E1CE
330
1E1CD
100
AcDbEntity
  8
0
 48
50.0
100
AcDbBlockBegin
  2
*D17
 70
     1
 10
0.0
 20
0.0
 30
0.0
  3
*D17
  1

  0
LINE
  5
1E1CF
330
1E1CD
100
AcDbEntity
  8
0
  6
ByBlock
 62
     0
 48
50.0
100
AcDbLine
 10
3471.0
 20
2204.0
 30
0.0
 11
2679.56493184821
 21
2204.0
 31
0.0
  0
LINE
  5
1E1D0
330
1E1CD
100
AcDbEntity
  8
0
  6
ByBlock
 62
     0
 48
50.0
100
AcDbLine
 10
2754.564931848211
 20
4004.0
 30
0.0
 11
2754.56493184821
 21
2204.0
 31
0.0
  0
INSERT
  5
1E1D1
330
1E1CD
100
AcDbEntity
  8
0
  6
ByBlock
 62
     0
 48
50.0
100
AcDbBlockReference
  2
_DOTSMALL
 10
2754.564931848211
 20
4004.0
 30
0.0
 41
125.0
 42
125.0
 43
125.0
 50
90.0
  0
INSERT
  5
1E1D2
330
1E1CD
100
AcDbEntity
  8
0
  6
ByBlock
 62
     0
 48
50.0
100
AcDbBlockReference
  2
_DOTSMALL
 10
2754.56493184821
 20
2204.0
 30
0.0
 41
125.0
 42
125.0
 43
125.0
 50
270.0
  0
MTEXT
  5
1E1D3
330
1E1CD
100
AcDbEntity
  8
0
  6
ByBlock
 62
     7
 48
50.0
100
AcDbMText
 10
2654.56493184821
 20
3104.0
 30
0.0
 40
150.0
 41
0.0
 71
     5
 72
     1
  1
\A1;1800
  7
STYLE1
 11
0.0000000000000001
 21
1.0
 31
0.0
 73
     1
 44
1.0
1001
ACAD
1000
MTEXTBEGIN
1070
    73
1070
     1
1070
    44
1040
1.0
1070
    74
1070
     0
1000
MTEXTEND
  0
POINT
  5
1E1D4
330
1E1CD
100
AcDbEntity
  8
DEFPOINTS
  6
ByBlock
 62
     0
 48
50.0
100
AcDbPoint
 10
3496.0
 20
4004.0
 30
0.0
  0
POINT
  5
1E1D5
330
1E1CD
100
AcDbEntity
  8
DEFPOINTS
  6
ByBlock
 62
     0
 48
50.0
100
AcDbPoint
 10
3496.0
 20
2204.0
 30
0.0
  0
POINT
  5
1E1D6
330
1E1CD
100
AcDbEntity
  8
DEFPOINTS
  6
ByBlock
 62
     0
 48
50.0
100
AcDbPoint
 10
2754.56493184821
 20
2204.0
 30
0.0
  0
ENDBLK
  5
1E1D7
330
1E1CD
100
AcDbEntity
  8
0
 48
50.0
100
AcDbBlockEnd
  0
BLOCK
  5
1E1D9
330
1E1D8
100
AcDbEntity
  8
0
 48
50.0
100
AcDbBlockBegin
  2
*D18
 70
     1
 10
0.0
 20
0.0
 30
0.0
  3
*D18
  1

  0
LINE
  5
1E1DA
330
1E1D8
100
AcDbEntity
  8
0
  6
ByBlock
 62
     0
 48
50.0
100
AcDbLine
 10
2975.057733986178
 20
8093.999999999997
 30
0.0
 11
2679.56493184821
 21
8093.999999999997
 31
0.0
  0
LINE
  5
1E1DB
330
1E1D8
100
AcDbEntity
  8
0
  6
ByBlock
 62
     0
 48
50.0
100
AcDbLine
 10
3471.0
 20
8004.0
 30
0.0
 11
2679.56493184821
 21
8004.0
 31
0.0
  0
LINE
  5
1E1DC
330
1E1D8
100
AcDbEntity
  8
0
  6
ByBlock
 62
     0
 48
50.0
100
AcDbLine
 10
2754.56493184821
 20
8093.999999999997
 30
0.0
 11
2754.56493184821
 21
8218.999999999997
 31
0.0
  0
LINE
  5
1E1DD
330
1E1D8
100
AcDbEntity
  8
0
  6
ByBlock
 62
     0
 48
50.0
100
AcDbLine
 10
2754.56493184821
 20
8004.0
 30
0.0
 11
2754.56493184821
 21
7879.0
 31
0.0
  0
LINE
  5
1E1DE
330
1E1D8
100
AcDbEntity
  8
0
  6
ByBlock
 62
     0
 48
50.0
100
AcDbLine
 10
2754.56493184821
 20
8093.999999999997
 30
0.0
 11
2754.56493184821
 21
8004.0
 31
0.0
  0
INSERT
  5
1E1DF
330
1E1D8
100
AcDbEntity
  8
0
  6
ByBlock
 62
     0
 48
50.0
100
AcDbBlockReference
  2
_DOTSMALL
 10
2754.56493184821
 20
8093.999999999997
 30
0.0
 41
125.0
 42
125.0
 43
125.0
 50
270.0
  0
INSERT
  5
1E1E0
330
1E1D8
100
AcDbEntity
  8
0
  6
ByBlock
 62
     0
 48
50.0
100
AcDbBlockReference
  2
_DOTSMALL
 10
2754.56493184821
 20
8004.0
 30
0.0
 41
125.0
 42
125.0
 43
125.0
 50
90.0
  0
MTEXT
  5
1E1E1
330
1E1D8
100
AcDbEntity
  8
0
  6
ByBlock
 62
     7
 48
50.0
100
AcDbMText
 10
2654.56493184821
 20
8048.999999999997
 30
0.0
 40
150.0
 41
0.0
 71
     5
 72
     1
  1
\A1;c
  7
STYLE1
 11
0.0000000000000001
 21
1.0
 31
0.0
 73
     1
 44
1.0
1001
ACAD
1000
MTEXTBEGIN
1070
    73
1070
     1
1070
    44
1040
1.0
1070
    74
1070
     0
1000
MTEXTEND
  0
POINT
  5
1E1E2
330
1E1D8
100
AcDbEntity
  8
DEFPOINTS
  6
ByBlock
 62
     0
 48
50.0
100
AcDbPoint
 10
3000.057733986178
 20
8093.999999999997
 30
0.0
  0
POINT
  5
1E1E3
330
1E1D8
100
AcDbEntity
  8
DEFPOINTS
  6
ByBlock
 62
     0
 48
50.0
100
AcDbPoint
 10
3496.0
 20
8004.0
 30
0.0
  0
POINT
  5
1E1E4
330
1E1D8
100
AcDbEntity
  8
DEFPOINTS
  6
ByBlock
 62
     0
 48
50.0
100
AcDbPoint
 10
2754.56493184821
 20
8004.0
 30
0.0
  0
ENDBLK
  5
1E1E5
330
1E1D8
100
AcDbEntity
  8
0
 48
50.0
100
AcDbBlockEnd
  0
BLOCK
  5
1E1E7
330
1E1E6
100
AcDbEntity
  8
0
 48
50.0
100
AcDbBlockBegin
  2
*D19
 70
     1
 10
0.0
 20
0.0
 30
0.0
  3
*D19
  1

  0
LINE
  5
1E1E8
330
1E1E6
100
AcDbEntity
  8
0
  6
ByBlock
 62
     0
 48
50.0
100
AcDbLine
 10
5296.0
 20
8029.0
 30
0.0
 11
5296.0
 21
9017.667619817155
 31
0.0
  0
LINE
  5
1E1E9
330
1E1E6
100
AcDbEntity
  8
0
  6
ByBlock
 62
     0
 48
50.0
100
AcDbLine
 10
5338.740228660987
 20
8755.206924300319
 30
0.0
 11
5338.740228660987
 21
9017.667619817155
 31
0.0
  0
LINE
  5
1E1EA
330
1E1E6
100
AcDbEntity
  8
0
  6
ByBlock
 62
     0
 48
50.0
100
AcDbLine
 10
5296.0
 20
8942.667619817155
 30
0.0
 11
5171.0
 21
8942.667619817155
 31
0.0
  0
LINE
  5
1E1EB
330
1E1E6
100
AcDbEntity
  8
0
  6
ByBlock
 62
     0
 48
50.0
100
AcDbLine
 10
5338.740228660987
 20
8942.667619817155
 30
0.0
 11
5704.176781667134
 21
8942.667619817155
 31
0.0
  0
LINE
  5
1E1EC
330
1E1E6
100
AcDbEntity
  8
0
  6
ByBlock
 62
     0
 48
50.0
100
AcDbLine
 10
5296.0
 20
8942.667619817155
 30
0.0
 11
5338.740228660987
 21
8942.667619817155
 31
0.0
  0
INSERT
  5
1E1ED
330
1E1E6
100
AcDbEntity
  8
0
  6
ByBlock
 62
     0
 48
50.0
100
AcDbBlockReference
  2
_DOTSMALL
 10
5296.0
 20
8942.667619817155
 30
0.0
 41
125.0
 42
125.0
 43
125.0
  0
INSERT
  5
1E1EE
330
1E1E6
100
AcDbEntity
  8
0
  6
ByBlock
 62
     0
 48
50.0
100
AcDbBlockReference
  2
_DOTSMALL
 10
5338.740228660987
 20
8942.667619817155
 30
0.0
 41
125.0
 42
125.0
 43
125.0
 50
180.0
  0
MTEXT
  5
1E1EF
330
1E1E6
100
AcDbEntity
  8
0
  6
ByBlock
 62
     7
 48
50.0
100
AcDbMText
 10
5646.45850516406
 20
9042.667619817155
 30
0.0
 40
150.0
 41
0.0
 71
     5
 72
     1
  1
\A1;a
  7
STYLE1
 73
     1
 44
1.0
1001
ACAD
1000
MTEXTBEGIN
1070
    73
1070
     1
1070
    44
1040
1.0
1070
    74
1070
     0
1000
MTEXTEND
  0
POINT
  5
1E1F0
330
1E1E6
100
AcDbEntity
  8
DEFPOINTS
  6
ByBlock
 62
     0
 48
50.0
100
AcDbPoint
 10
5296.0
 20
8004.0
 30
0.0
  0
POINT
  5
1E1F1
330
1E1E6
100
AcDbEntity
  8
DEFPOINTS
  6
ByBlock
 62
     0
 48
50.0
100
AcDbPoint
 10
5338.740228660987
 20
8730.206924300318
 30
0.0
  0
POINT
  5
1E1F2
330
1E1E6
100
AcDbEntity
  8
DEFPOINTS
  6
ByBlock
 62
     0
 48
50.0
100
AcDbPoint
 10
5338.740228660987
 20
8942.667619817155
 30
0.0
  0
ENDBLK
  5
1E1F3
330
1E1E6
100
AcDbEntity
  8
0
 48
50.0
100
AcDbBlockEnd
  0
BLOCK
  5
1E1F5
330
1E1F4
100
AcDbEntity
  8
0
 48
50.0
100
AcDbBlockBegin
  2
*D20
 70
     1
 10
0.0
 20
0.0
 30
0.0
  3
*D20
  1

  0
LINE
  5
1E1F6
330
1E1F4
100
AcDbEntity
  8
0
  6
ByBlock
 62
     0
 48
50.0
100
AcDbLine
 10
5296.0
 20
8029.0
 30
0.0
 11
5296.0
 21
8805.206924300318
 31
0.0
  0
LINE
  5
1E1F7
330
1E1F4
100
AcDbEntity
  8
0
  6
ByBlock
 62
     0
 48
50.0
100
AcDbLine
 10
5173.0
 20
7956.0
 30
0.0
 11
5173.0
 21
8805.206924300318
 31
0.0
  0
LINE
  5
1E1F8
330
1E1F4
100
AcDbEntity
  8
0
  6
ByBlock
 62
     0
 48
50.0
100
AcDbLine
 10
5173.0
 20
8730.206924300317
 30
0.0
 11
5296.0
 21
8730.206924300317
 31
0.0
  0
LINE
  5
1E1F9
330
1E1F4
100
AcDbEntity
  8
0
  6
ByBlock
 62
     0
 48
50.0
100
AcDbLine
 10
5296.0
 20
8730.206924300317
 30
0.0
 11
5717.213203435597
 21
8730.206924300317
 31
0.0
  0
INSERT
  5
1E1FA
330
1E1F4
100
AcDbEntity
  8
0
  6
ByBlock
 62
     0
 48
50.0
100
AcDbBlockReference
  2
_DOTSMALL
 10
5173.0
 20
8730.206924300317
 30
0.0
 41
125.0
 42
125.0
 43
125.0
 50
180.0
  0
INSERT
  5
1E1FB
330
1E1F4
100
AcDbEntity
  8
0
  6
ByBlock
 62
     0
 48
50.0
100
AcDbBlockReference
  2
_DOTSMALL
 10
5296.0
 20
8730.206924300317
 30
0.0
 41
125.0
 42
125.0
 43
125.0
  0
MTEXT
  5
1E1FC
330
1E1F4
100
AcDbEntity
  8
0
  6
ByBlock
 62
     7
 48
50.0
100
AcDbMText
 10
5569.106601717798
 20
8830.221688079843
 30
0.0
 40
150.0
 41
0.0
 71
     5
 72
     1
  1
\A1;123
  7
STYLE1
 73
     1
 44
1.0
1001
ACAD
1000
MTEXTBEGIN
1070
    73
1070
     1
1070
    44
1040
1.0
1070
    74
1070
     0
1000
MTEXTEND
  0
POINT
  5
1E1FD
330
1E1F4
100
AcDbEntity
  8
DEFPOINTS
  6
ByBlock
 62
     0
 48
50.0
100
AcDbPoint
 10
5296.0
 20
8004.0
 30
0.0
  0
POINT
  5
1E1FE
330
1E1F4
100
AcDbEntity
  8
DEFPOINTS
  6
ByBlock
 62
     0
 48
50.0
100
AcDbPoint
 10
5173.0
 20
7931.0
 30
0.0
  0
POINT
  5
1E1FF
330
1E1F4
100
AcDbEntity
  8
DEFPOINTS
  6
ByBlock
 62
     0
 48
50.0
100
AcDbPoint
 10
5173.0
 20
8730.206924300317
 30
0.0
  0
ENDBLK
  5
1E200
330
1E1F4
100
AcDbEntity
  8
0
 48
50.0
100
AcDbBlockEnd
  0
BLOCK
  5
1E202
330
1E201
100
AcDbEntity
  8
0
 48
50.0
100
AcDbBlockBegin
  2
*D21
 70
     1
 10
0.0
 20
0.0
 30
0.0
  3
*D21
  1

  0
LINE
  5
1E203
330
1E201
100
AcDbEntity
  8
0
  6
ByBlock
 62
     0
 48
50.0
100
AcDbLine
 10
4765.91864628953
 20
8004.0
 30
0.0
 11
5028.847448568776
 21
8004.0
 31
0.0
  0
LINE
  5
1E204
330
1E201
100
AcDbEntity
  8
0
  6
ByBlock
 62
     0
 48
50.0
100
AcDbLine
 10
4765.91864628953
 20
7903.999999999998
 30
0.0
 11
5028.847448568776
 21
7903.999999999998
 31
0.0
  0
LINE
  5
1E205
330
1E201
100
AcDbEntity
  8
0
  6
ByBlock
 62
     0
 48
50.0
100
AcDbLine
 10
4953.847448568776
 20
7903.999999999998
 30
0.0
 11
4953.847448568776
 21
8004.0
 31
0.0
  0
LINE
  5
1E206
330
1E201
100
AcDbEntity
  8
0
  6
ByBlock
 62
     0
 48
50.0
100
AcDbLine
 10
4953.847448568776
 20
8004.0
 30
0.0
 11
4953.847448568776
 21
8419.118110236221
 31
0.0
  0
INSERT
  5
1E207
330
1E201
100
AcDbEntity
  8
0
  6
ByBlock
 62
     0
 48
50.0
100
AcDbBlockReference
  2
_DOTSMALL
 10
4953.847448568776
 20
7903.999999999998
 30
0.0
 41
125.0
 42
125.0
 43
125.0
 50
270.0
  0
INSERT
  5
1E208
330
1E201
100
AcDbEntity
  8
0
  6
ByBlock
 62
     0
 48
50.0
100
AcDbBlockReference
  2
_DOTSMALL
 10
4953.847448568776
 20
8004.0
 30
0.0
 41
125.0
 42
125.0
 43
125.0
 50
90.0
  0
MTEXT
  5
1E209
330
1E201
100
AcDbEntity
  8
0
  6
ByBlock
 62
     7
 48
50.0
100
AcDbMText
 10
4853.847448568776
 20
8274.05905511811
 30
0.0
 40
150.0
 41
0.0
 71
     5
 72
     1
  1
\A1;100
  7
STYLE1
 11
0.0000000000000001
 21
1.0
 31
0.0
 73
     1
 44
1.0
1001
ACAD
1000
MTEXTBEGIN
1070
    73
1070
     1
1070
    44
1040
1.0
1070
    74
1070
     0
1000
MTEXTEND
  0
POINT
  5
1E20A
330
1E201
100
AcDbEntity
  8
DEFPOINTS
  6
ByBlock
 62
     0
 48
50.0
100
AcDbPoint
 10
4740.91864628953
 20
8004.0
 30
0.0
  0
POINT
  5
1E20B
330
1E201
100
AcDbEntity
  8
DEFPOINTS
  6
ByBlock
 62
     0
 48
50.0
100
AcDbPoint
 10
4740.91864628953
 20
7903.999999999998
 30
0.0
  0
POINT
  5
1E20C
330
1E201
100
AcDbEntity
  8
DEFPOINTS
  6
ByBlock
 62
     0
 48
50.0
100
AcDbPoint
 10
4953.847448568776
 20
7903.999999999998
 30
0.0
  0
ENDBLK
  5
1E20D
330
1E201
100
AcDbEntity
  8
0
 48
50.0
100
AcDbBlockEnd
  0
BLOCK
  5
1E20F
330
1E20E
100
AcDbEntity
  8
0
 48
50.0
100
AcDbBlockBegin
  2
*D22
 70
     1
 10
0.0
 20
0.0
 30
0.0
  3
*D22
  1

  0
LINE
  5
1E210
330
1E20E
100
AcDbEntity
  8
0
  6
ByBlock
 62
     0
 48
50.0
100
AcDbLine
 10
3796.000000000001
 20
2529.000000000007
 30
0.0
 11
3796.000000000001
 21
2931.6104948313
 31
0.0
  0
LINE
  5
1E211
330
1E20E
100
AcDbEntity
  8
0
  6
ByBlock
 62
     0
 48
50.0
100
AcDbLine
 10
3595.999999999998
 20
2529.000000000004
 30
0.0
 11
3595.999999999998
 21
2931.6104948313
 31
0.0
  0
LINE
  5
1E212
330
1E20E
100
AcDbEntity
  8
0
  6
ByBlock
 62
     0
 48
50.0
100
AcDbLine
 10
3796.000000000001
 20
2856.610494831301
 30
0.0
 11
3595.999999999998
 21
2856.610494831301
 31
0.0
  0
LINE
  5
1E213
330
1E20E
100
AcDbEntity
  8
0
  6
ByBlock
 62
     0
 48
50.0
100
AcDbLine
 10
3595.999999999998
 20
2856.610494831301
 30
0.0
 11
3122.996254565651
 21
2856.610494831301
 31
0.0
  0
INSERT
  5
1E214
330
1E20E
100
AcDbEntity
  8
0
  6
ByBlock
 62
     0
 48
50.0
100
AcDbBlockReference
  2
_DOTSMALL
 10
3796.000000000001
 20
2856.610494831301
 30
0.0
 41
125.0
 42
125.0
 43
125.0
  0
INSERT
  5
1E215
330
1E20E
100
AcDbEntity
  8
0
  6
ByBlock
 62
     0
 48
50.0
100
AcDbBlockReference
  2
_DOTSMALL
 10
3595.999999999998
 20
2856.610494831301
 30
0.0
 41
125.0
 42
125.0
 43
125.0
 50
180.0
  0
MTEXT
  5
1E216
330
1E20E
100
AcDbEntity
  8
0
  6
ByBlock
 62
     7
 48
50.0
100
AcDbMText
 10
3284.959837242816
 20
2956.625258610828
 30
0.0
 40
150.0
 41
0.0
 71
     5
 72
     1
  1
\A1;200
  7
STYLE1
 73
     1
 44
1.0
1001
ACAD
1000
MTEXTBEGIN
1070
    73
1070
     1
1070
    44
1040
1.0
1070
    74
1070
     0
1000
MTEXTEND
  0
POINT
  5
1E217
330
1E20E
100
AcDbEntity
  8
DEFPOINTS
  6
ByBlock
 62
     0
 48
50.0
100
AcDbPoint
 10
3796.000000000001
 20
2504.000000000007
 30
0.0
  0
POINT
  5
1E218
330
1E20E
100
AcDbEntity
  8
DEFPOINTS
  6
ByBlock
 62
     0
 48
50.0
100
AcDbPoint
 10
3595.999999999998
 20
2504.000000000004
 30
0.0
  0
POINT
  5
1E219
330
1E20E
100
AcDbEntity
  8
DEFPOINTS
  6
ByBlock
 62
     0
 48
50.0
100
AcDbPoint
 10
3595.999999999998
 20
2856.610494831301
 30
0.0
  0
ENDBLK
  5
1E21A
330
1E20E
100
AcDbEntity
  8
0
 48
50.0
100
AcDbBlockEnd
  0
BLOCK
  5
1E21C
330
1E21B
100
AcDbEntity
  8
0
 48
50.0
100
AcDbBlockBegin
  2
*D23
 70
     1
 10
0.0
 20
0.0
 30
0.0
  3
*D23
  1

  0
LINE
  5
1E21D
330
1E21B
100
AcDbEntity
  8
0
  6
ByBlock
 62
     0
 48
50.0
100
AcDbLine
 10
4421.0
 20
2204.000000000009
 30
0.0
 11
4870.266817430558
 21
2204.000000000009
 31
0.0
  0
LINE
  5
1E21E
330
1E21B
100
AcDbEntity
  8
0
  6
ByBlock
 62
     0
 48
50.0
100
AcDbLine
 10
4471.0
 20
3104.0
 30
0.0
 11
4870.266817430558
 21
3104.0
 31
0.0
  0
LINE
  5
1E21F
330
1E21B
100
AcDbEntity
  8
0
  6
ByBlock
 62
     0
 48
50.0
100
AcDbLine
 10
4795.266817430558
 20
2204.000000000009
 30
0.0
 11
4795.266817430558
 21
3104.0
 31
0.0
  0
INSERT
  5
1E220
330
1E21B
100
AcDbEntity
  8
0
  6
ByBlock
 62
     0
 48
50.0
100
AcDbBlockReference
  2
_DOTSMALL
 10
4795.266817430558
 20
2204.000000000009
 30
0.0
 41
125.0
 42
125.0
 43
125.0
 50
270.0
  0
INSERT
  5
1E221
330
1E21B
100
AcDbEntity
  8
0
  6
ByBlock
 62
     0
 48
50.0
100
AcDbBlockReference
  2
_DOTSMALL
 10
4795.266817430558
 20
3104.0
 30
0.0
 41
125.0
 42
125.0
 43
125.0
 50
90.0
  0
MTEXT
  5
1E222
330
1E21B
100
AcDbEntity
  8
0
  6
ByBlock
 62
     7
 48
50.0
100
AcDbMText
 10
4695.266817430558
 20
2654.000000000005
 30
0.0
 40
150.0
 41
0.0
 71
     5
 72
     1
  1
\A1;900
  7
STYLE1
 11
0.0000000000000001
 21
1.0
 31
0.0
 73
     1
 44
1.0
1001
ACAD
1000
MTEXTBEGIN
1070
    73
1070
     1
1070
    44
1040
1.0
1070
    74
1070
     0
1000
MTEXTEND
  0
POINT
  5
1E223
330
1E21B
100
AcDbEntity
  8
DEFPOINTS
  6
ByBlock
 62
     0
 48
50.0
100
AcDbPoint
 10
4396.0
 20
2204.000000000009
 30
0.0
  0
POINT
  5
1E224
330
1E21B
100
AcDbEntity
  8
DEFPOINTS
  6
ByBlock
 62
     0
 48
50.0
100
AcDbPoint
 10
4446.0
 20
3104.0
 30
0.0
  0
POINT
  5
1E225
330
1E21B
100
AcDbEntity
  8
DEFPOINTS
  6
ByBlock
 62
     0
 48
50.0
100
AcDbPoint
 10
4795.266817430558
 20
3104.0
 30
0.0
  0
ENDBLK
  5
1E226
330
1E21B
100
AcDbEntity
  8
0
 48
50.0
100
AcDbBlockEnd
  0
BLOCK
  5
1E228
330
1E227
100
AcDbEntity
  8
0
 48
50.0
100
AcDbBlockBegin
  2
*D24
 70
     1
 10
0.0
 20
0.0
 30
0.0
  3
*D24
  1

  0
LINE
  5
1E229
330
1E227
100
AcDbEntity
  8
0
  6
ByBlock
 62
     0
 48
50.0
100
AcDbLine
 10
4421.0
 20
4004.0
 30
0.0
 11
4870.266817430558
 21
4004.0
 31
0.0
  0
LINE
  5
1E22A
330
1E227
100
AcDbEntity
  8
0
  6
ByBlock
 62
     0
 48
50.0
100
AcDbLine
 10
4795.266817430558
 20
3104.0
 30
0.0
 11
4795.266817430558
 21
4004.0
 31
0.0
  0
INSERT
  5
1E22B
330
1E227
100
AcDbEntity
  8
0
  6
ByBlock
 62
     0
 48
50.0
100
AcDbBlockReference
  2
_DOTSMALL
 10
4795.266817430558
 20
3104.0
 30
0.0
 41
125.0
 42
125.0
 43
125.0
 50
270.0
  0
INSERT
  5
1E22C
330
1E227
100
AcDbEntity
  8
0
  6
ByBlock
 62
     0
 48
50.0
100
AcDbBlockReference
  2
_DOTSMALL
 10
4795.266817430558
 20
4004.0
 30
0.0
 41
125.0
 42
125.0
 43
125.0
 50
90.0
  0
MTEXT
  5
1E22D
330
1E227
100
AcDbEntity
  8
0
  6
ByBlock
 62
     7
 48
50.0
100
AcDbMText
 10
4695.266817430558
 20
3554.0
 30
0.0
 40
150.0
 41
0.0
 71
     5
 72
     1
  1
\A1;900
  7
STYLE1
 11
0.0000000000000001
 21
1.0
 31
0.0
 73
     1
 44
1.0
1001
ACAD
1000
MTEXTBEGIN
1070
    73
1070
     1
1070
    44
1040
1.0
1070
    74
1070
     0
1000
MTEXTEND
  0
POINT
  5
1E22E
330
1E227
100
AcDbEntity
  8
DEFPOINTS
  6
ByBlock
 62
     0
 48
50.0
100
AcDbPoint
 10
4446.0
 20
3104.0
 30
0.0
  0
POINT
  5
1E22F
330
1E227
100
AcDbEntity
  8
DEFPOINTS
  6
ByBlock
 62
     0
 48
50.0
100
AcDbPoint
 10
4396.0
 20
4004.0
 30
0.0
  0
POINT
  5
1E230
330
1E227
100
AcDbEntity
  8
DEFPOINTS
  6
ByBlock
 62
     0
 48
50.0
100
AcDbPoint
 10
4795.266817430558
 20
4004.0
 30
0.0
  0
ENDBLK
  5
1E231
330
1E227
100
AcDbEntity
  8
0
 48
50.0
100
AcDbBlockEnd
  0
BLOCK
  5
1E233
330
1E232
100
AcDbEntity
  8
0
 48
50.0
100
AcDbBlockBegin
  2
*D25
 70
     1
 10
0.0
 20
0.0
 30
0.0
  3
*D25
  1

  0
LINE
  5
1E234
330
1E232
100
AcDbEntity
  8
0
  6
ByBlock
 62
     0
 48
50.0
100
AcDbLine
 10
3496.0
 20
4029.0
 30
0.0
 11
3496.0
 21
4605.909765648328
 31
0.0
  0
LINE
  5
1E235
330
1E232
100
AcDbEntity
  8
0
  6
ByBlock
 62
     0
 48
50.0
100
AcDbLine
 10
4396.0
 20
4530.909765648328
 30
0.0
 11
3496.0
 21
4530.909765648328
 31
0.0
  0
INSERT
  5
1E236
330
1E232
100
AcDbEntity
  8
0
  6
ByBlock
 62
     0
 48
50.0
100
AcDbBlockReference
  2
_DOTSMALL
 10
4396.0
 20
4530.909765648328
 30
0.0
 41
125.0
 42
125.0
 43
125.0
  0
INSERT
  5
1E237
330
1E232
100
AcDbEntity
  8
0
  6
ByBlock
 62
     0
 48
50.0
100
AcDbBlockReference
  2
_DOTSMALL
 10
3496.0
 20
4530.909765648328
 30
0.0
 41
125.0
 42
125.0
 43
125.0
 50
180.0
  0
MTEXT
  5
1E238
330
1E232
100
AcDbEntity
  8
0
  6
ByBlock
 62
     7
 48
50.0
100
AcDbMText
 10
3946.0
 20
4630.909765648328
 30
0.0
 40
150.0
 41
0.0
 71
     5
 72
     1
  1
\A1;900
  7
STYLE1
 73
     1
 44
1.0
1001
ACAD
1000
MTEXTBEGIN
1070
    73
1070
     1
1070
    44
1040
1.0
1070
    74
1070
     0
1000
MTEXTEND
  0
POINT
  5
1E239
330
1E232
100
AcDbEntity
  8
DEFPOINTS
  6
ByBlock
 62
     0
 48
50.0
100
AcDbPoint
 10
4396.0
 20
3304.0
 30
0.0
  0
POINT
  5
1E23A
330
1E232
100
AcDbEntity
  8
DEFPOINTS
  6
ByBlock
 62
     0
 48
50.0
100
AcDbPoint
 10
3496.0
 20
4004.0
 30
0.0
  0
POINT
  5
1E23B
330
1E232
100
AcDbEntity
  8
DEFPOINTS
  6
ByBlock
 62
     0
 48
50.0
100
AcDbPoint
 10
3496.0
 20
4530.909765648328
 30
0.0
  0
ENDBLK
  5
1E23C
330
1E232
100
AcDbEntity
  8
0
 48
50.0
100
AcDbBlockEnd
  0
BLOCK
  5
1E23E
330
1E23D
100
AcDbEntity
  8
0
 48
50.0
100
AcDbBlockBegin
  2
*D26
 70
     1
 10
0.0
 20
0.0
 30
0.0
  3
*D26
  1

  0
LINE
  5
1E23F
330
1E23D
100
AcDbEntity
  8
0
  6
ByBlock
 62
     0
 48
50.0
100
AcDbLine
 10
5296.0
 20
4029.0
 30
0.0
 11
5296.0
 21
4605.909765648328
 31
0.0
  0
LINE
  5
1E240
330
1E23D
100
AcDbEntity
  8
0
  6
ByBlock
 62
     0
 48
50.0
100
AcDbLine
 10
4396.0
 20
3329.0
 30
0.0
 11
4396.0
 21
4605.909765648328
 31
0.0
  0
LINE
  5
1E241
330
1E23D
100
AcDbEntity
  8
0
  6
ByBlock
 62
     0
 48
50.0
100
AcDbLine
 10
5296.0
 20
4530.909765648328
 30
0.0
 11
4396.0
 21
4530.909765648328
 31
0.0
  0
INSERT
  5
1E242
330
1E23D
100
AcDbEntity
  8
0
  6
ByBlock
 62
     0
 48
50.0
100
AcDbBlockReference
  2
_DOTSMALL
 10
5296.0
 20
4530.909765648328
 30
0.0
 41
125.0
 42
125.0
 43
125.0
  0
INSERT
  5
1E243
330
1E23D
100
AcDbEntity
  8
0
  6
ByBlock
 62
     0
 48
50.0
100
AcDbBlockReference
  2
_DOTSMALL
 10
4396.0
 20
4530.909765648328
 30
0.0
 41
125.0
 42
125.0
 43
125.0
 50
180.0
  0
MTEXT
  5
1E244
330
1E23D
100
AcDbEntity
  8
0
  6
ByBlock
 62
     7
 48
50.0
100
AcDbMText
 10
4866.91852200628
 20
4630.909765648328
 30
0.0
 40
150.0
 41
0.0
 71
     5
 72
     1
  1
\A1;900
  7
STYLE1
 73
     1
 44
1.0
1001
ACAD
1000
MTEXTBEGIN
1070
    73
1070
     1
1070
    44
1040
1.0
1070
    74
1070
     0
1000
MTEXTEND
  0
POINT
  5
1E245
330
1E23D
100
AcDbEntity
  8
DEFPOINTS
  6
ByBlock
 62
     0
 48
50.0
100
AcDbPoint
 10
5296.0
 20
4004.0
 30
0.0
  0
POINT
  5
1E246
330
1E23D
100
AcDbEntity
  8
DEFPOINTS
  6
ByBlock
 62
     0
 48
50.0
100
AcDbPoint
 10
4396.0
 20
3304.0
 30
0.0
  0
POINT
  5
1E247
330
1E23D
100
AcDbEntity
  8
DEFPOINTS
  6
ByBlock
 62
     0
 48
50.0
100
AcDbPoint
 10
4396.0
 20
4530.909765648328
 30
0.0
  0
ENDBLK
  5
1E248
330
1E23D
100
AcDbEntity
  8
0
 48
50.0
100
AcDbBlockEnd
  0
BLOCK
  5
1E24A
330
1E249
100
AcDbEntity
  8
0
 48
50.0
100
AcDbBlockBegin
  2
*D27
 70
     1
 10
0.0
 20
0.0
 30
0.0
  3
*D27
  1

  0
LINE
  5
1E24B
330
1E249
100
AcDbEntity
  8
0
  6
ByBlock
 62
     0
 48
50.0
100
AcDbLine
 10
5196.0
 20
7079.000000000007
 30
0.0
 11
5196.0
 21
6928.700321064884
 31
0.0
  0
LINE
  5
1E24C
330
1E249
100
AcDbEntity
  8
0
  6
ByBlock
 62
     0
 48
50.0
100
AcDbLine
 10
5296.0
 20
7079.000000000007
 30
0.0
 11
5296.0
 21
6928.700321064884
 31
0.0
  0
LINE
  5
1E24D
330
1E249
100
AcDbEntity
  8
0
  6
ByBlock
 62
     0
 48
50.0
100
AcDbLine
 10
5196.0
 20
7003.700321064883
 30
0.0
 11
5296.0
 21
7003.700321064883
 31
0.0
  0
LINE
  5
1E24E
330
1E249
100
AcDbEntity
  8
0
  6
ByBlock
 62
     0
 48
50.0
100
AcDbLine
 10
5296.0
 20
7003.700321064883
 30
0.0
 11
5711.11811023622
 21
7003.700321064883
 31
0.0
  0
INSERT
  5
1E24F
330
1E249
100
AcDbEntity
  8
0
  6
ByBlock
 62
     0
 48
50.0
100
AcDbBlockReference
  2
_DOTSMALL
 10
5196.0
 20
7003.700321064883
 30
0.0
 41
125.0
 42
125.0
 43
125.0
 50
180.0
  0
INSERT
  5
1E250
330
1E249
100
AcDbEntity
  8
0
  6
ByBlock
 62
     0
 48
50.0
100
AcDbBlockReference
  2
_DOTSMALL
 10
5296.0
 20
7003.700321064883
 30
0.0
 41
125.0
 42
125.0
 43
125.0
  0
MTEXT
  5
1E251
330
1E249
100
AcDbEntity
  8
0
  6
ByBlock
 62
     7
 48
50.0
100
AcDbMText
 10
5566.05905511811
 20
7103.700321064883
 30
0.0
 40
150.0
 41
0.0
 71
     5
 72
     1
  1
\A1;100
  7
STYLE1
 73
     1
 44
1.0
1001
ACAD
1000
MTEXTBEGIN
1070
    73
1070
     1
1070
    44
1040
1.0
1070
    74
1070
     0
1000
MTEXTEND
  0
POINT
  5
1E252
330
1E249
100
AcDbEntity
  8
DEFPOINTS
  6
ByBlock
 62
     0
 48
50.0
100
AcDbPoint
 10
5196.0
 20
7104.000000000008
 30
0.0
  0
POINT
  5
1E253
330
1E249
100
AcDbEntity
  8
DEFPOINTS
  6
ByBlock
 62
     0
 48
50.0
100
AcDbPoint
 10
5296.0
 20
7104.000000000008
 30
0.0
  0
POINT
  5
1E254
330
1E249
100
AcDbEntity
  8
DEFPOINTS
  6
ByBlock
 62
     0
 48
50.0
100
AcDbPoint
 10
5296.0
 20
7003.700321064883
 30
0.0
  0
ENDBLK
  5
1E255
330
1E249
100
AcDbEntity
  8
0
 48
50.0
100
AcDbBlockEnd
  0
BLOCK
  5
1E2A5
330
1E256
100
AcDbEntity
  8
0
 48
50.0
100
AcDbBlockBegin
  2
A$C56A41A26
 70
     0
 10
0.0
 20
0.0
 30
0.0
  3
A$C56A41A26
  1

  0
LINE
  5
1E257
330
1E256
100
AcDbEntity
  8
部品1
 48
50.0
100
AcDbLine
 10
2708.994140400603
 20
2627.271234847374
 30
0.0
 11
908.9941404006022
 21
2627.271234847374
 31
0.0
  0
LINE
  5
1E258
330
1E256
100
AcDbEntity
  8
部品1
 48
50.0
100
AcDbLine
 10
2708.994140400602
 20
2727.271234847376
 30
0.0
 11
908.9941404006022
 21
2727.271234847376
 31
0.0
  0
LINE
  5
1E259
330
1E256
100
AcDbEntity
  8
想像線
 48
10.0
100
AcDbLine
 10
858.9941404005985
 20
2817.271234847376
 30
0.0
 11
2758.994140400606
 21
2817.27123484738
 31
0.0
  0
LINE
  5
1E25A
330
1E256
100
AcDbEntity
  8
想像線
 48
10.0
100
AcDbLine
 10
2758.994140400603
 20
797.2712348473724
 30
0.0
 11
858.9941404006022
 21
797.271234847376
 31
0.0
  0
LINE
  5
1E25B
330
1E256
100
AcDbEntity
  8
部品1
 48
50.0
100
AcDbLine
 10
2708.994140400602
 20
927.2712348473943
 30
0.0
 11
908.9941404006022
 21
927.271234847376
 31
0.0
  0
DIMENSION
  5
1E25C
330
1E256
100
AcDbEntity
  8
寸法
 48
50.0
100
AcDbDimension
  2
*D10
 10
1444.747864477533
 20
927.2712348473778
 30
0.0
 11
1444.747864477533
 21
649.1876915744906
 31
0.0
 12
-2587.005859599398
 22
-5696.728765152624
 32
0.0
 70
   128
 71
     5
 42
-1.0
  3
INABA_S50G
100
AcDbAlignedDimension
 13
1138.994140400603
 23
1027.271234847381
 33
0.0
 14
1138.994140400604
 24
927.2712348473778
 34
0.0
 50
90.0
100
AcDbRotatedDimension
1001
ACAD
1000
DSTYLE
1002
{
1070
   288
1070
     1
1070
    40
1040
1.0
1002
}
  0
LINE
  5
1E25D
330
1E256
100
AcDbEntity
  8
部品1
 48
50.0
100
AcDbLine
 10
2708.994140400603
 20
1027.271234847398
 30
0.0
 11
908.9941404006022
 21
1027.27123484738
 31
0.0
  0
DIMENSION
  5
1E25E
330
1E256
100
AcDbEntity
  8
寸法
 48
50.0
100
AcDbDimension
  2
*D9
 10
1444.747864477533
 20
1227.271234847383
 30
0.0
 11
1444.747864477533
 21
1514.234817524549
 31
0.0
 12
-2587.005859599398
 22
-1276.728765152624
 32
0.0
 70
   128
 71
     5
 42
-1.0
  3
INABA_S50G
100
AcDbAlignedDimension
 13
1138.994140400603
 23
1027.27123484738
 33
0.0
 14
1208.994140400603
 24
1227.271234847383
 34
0.0
 50
90.0
100
AcDbRotatedDimension
1001
ACAD
1000
DSTYLE
1002
{
1070
   288
1070
     1
1070
    40
1040
1.0
1002
}
  0
MTEXT
  5
1E25F
102
{ACAD_REACTORS
330
1E260
102
}
330
1E256
100
AcDbEntity
  8
寸法
 62
     7
 48
50.0
100
AcDbMText
 10
1566.166025099446
 20
2207.190649171135
 30
0.0
 40
150.0
 41
0.0
 71
     6
 72
     1
  1
\A1;C.B
  7
STYLE1
 73
     1
 44
1.0
1001
ACAD
1000
MTEXTBEGIN
1070
    73
1070
     1
1070
    44
1040
1.0
1070
    74
1070
     0
1000
MTEXTEND
  0
LEADER
  5
1E260
330
1E256
100
AcDbEntity
  8
寸法
 48
50.0
100
AcDbLeader
  3
INABA_S50G
 73
     0
 75
     1
 40
150.0
 41
231.9898538650463
 76
     3
 10
1759.920575772113
 20
1978.037610834701
 30
0.0
 10
1716.166025099446
 20
2107.190649171135
 30
0.0
 10
1591.166025099446
 20
2107.190649171135
 30
0.0
340
1E25F
1001
ACAD
1000
DSTYLE
1002
{
1070
    40
1040
1.0
1002
}
  0
DIMENSION
  5
1E261
330
1E256
100
AcDbEntity
  8
寸法
 48
50.0
100
AcDbDimension
  2
*D8
 10
1031.994140400602
 20
3453.478159147693
 30
0.0
 11
1808.994140400602
 21
3553.478159147693
 31
0.0
 12
-2587.005859599398
 22
-5276.728765152624
 32
0.0
 71
     5
 42
-1.0
  3
INABA_S50G
100
AcDbAlignedDimension
 13
2585.994140400603
 23
2654.271234847376
 33
0.0
 14
1031.994140400602
 24
2654.271234847376
 34
0.0
100
AcDbRotatedDimension
1001
ACAD
1000
DSTYLE
1002
{
1070
    40
1040
1.0
1070
    75
1070
     1
1070
   279
1070
     1
1002
}
  0
DIMENSION
  5
1E262
330
1E256
100
AcDbEntity
  8
寸法
 48
50.0
100
AcDbDimension
  2
*D7
 10
2708.994140400602
 20
3665.93885466453
 30
0.0
 11
1808.994140400602
 21
3765.93885466453
 31
0.0
 12
-2587.005859599398
 22
-5276.728765152624
 32
0.0
 71
     5
 42
-1.0
  3
INABA_S50G
100
AcDbAlignedDimension
 13
908.9941404006022
 23
2727.271234847376
 33
0.0
 14
2708.994140400602
 24
2727.271234847376
 34
0.0
100
AcDbRotatedDimension
1001
ACAD
1000
DSTYLE
1002
{
1070
    40
1040
1.0
1070
    75
1070
     1
1070
   279
1070
     1
1002
}
  0
DIMENSION
  5
1E263
330
1E256
100
AcDbEntity
  8
寸法
 48
50.0
100
AcDbDimension
  2
*D25
 10
908.9941404006022
 20
3254.181000495704
 30
0.0
 11
1358.994140400602
 21
3354.181000495704
 31
0.0
 12
-2587.005859599398
 22
-1276.728765152624
 32
0.0
 71
     5
 42
-1.0
  3
INABA_S50G
100
AcDbAlignedDimension
 13
1808.994140400602
 23
2027.271234847376
 33
0.0
 14
908.9941404006022
 24
2727.271234847376
 34
0.0
100
AcDbRotatedDimension
1001
ACAD
1000
DSTYLE
1002
{
1070
    40
1040
1.0
1070
    75
1070
     1
1070
   279
1070
     1
1070
   288
1070
     1
1002
}
  0
DIMENSION
  5
1E264
330
1E256
100
AcDbEntity
  8
寸法
 48
50.0
100
AcDbDimension
  2
*D22
 10
1008.9941404006
 20
1579.881729678676
 30
0.0
 11
697.9539776434176
 21
1579.881729678676
 31
0.0
 12
-2587.005859599398
 22
-1276.728765152624
 32
0.0
 70
   128
 71
     5
 42
-1.0
  3
INABA_S50G
100
AcDbAlignedDimension
 13
1208.994140400603
 23
1227.271234847383
 33
0.0
 14
1008.9941404006
 24
1227.271234847379
 34
0.0
100
AcDbRotatedDimension
1001
ACAD
1000
DSTYLE
1002
{
1070
    40
1040
1.0
1002
}
  0
LINE
  5
1E265
330
1E256
100
AcDbEntity
  8
部品1
 48
50.0
100
AcDbLine
 10
1008.994140400602
 20
1027.27123484738
 30
0.0
 11
1008.994140400602
 21
2627.271234847373
 31
0.0
  0
DIMENSION
  5
1E266
330
1E256
100
AcDbEntity
  8
寸法
 48
50.0
100
AcDbDimension
  2
*D14
 10
413.0518743867797
 20
1125.271234847378
 30
0.0
 11
413.0518743867797
 21
1827.271234847376
 31
0.0
 12
-2587.005859599398
 22
-1276.728765152624
 32
0.0
 70
   128
 71
     5
 42
-1.0
  3
INABA_S50G
100
AcDbAlignedDimension
 13
981.9941404006021
 23
2604.271234847376
 33
0.0
 14
981.9941404006085
 24
1125.271234847378
 34
0.0
 50
90.0
100
AcDbRotatedDimension
1001
ACAD
1000
DSTYLE
1002
{
1070
   288
1070
     1
1070
    40
1040
1.0
1002
}
  0
DIMENSION
  5
1E267
330
1E256
100
AcDbEntity
  8
寸法
 48
50.0
100
AcDbDimension
  2
*D17
 10
167.5590722488123
 20
927.271234847376
 30
0.0
 11
67.5590722488123
 21
1827.271234847376
 31
0.0
 12
-2587.005859599398
 22
-1276.728765152624
 32
0.0
 71
     5
 42
-1.0
  3
INABA_S50G
100
AcDbAlignedDimension
 13
908.9941404006022
 23
2727.271234847376
 33
0.0
 14
908.9941404006022
 24
927.271234847376
 34
0.0
 50
90.0
100
AcDbRotatedDimension
1001
ACAD
1000
DSTYLE
1002
{
1070
    40
1040
1.0
1070
    75
1070
     1
1070
   279
1070
     1
1002
}
  0
LINE
  5
1E268
330
1E256
100
AcDbEntity
  8
想像線
 48
10.0
100
AcDbLine
 10
858.9941404006022
 20
797.271234847376
 30
0.0
 11
858.9941404006022
 21
2817.27123484738
 31
0.0
  0
LINE
  5
1E269
330
1E256
100
AcDbEntity
  8
部品1
 48
50.0
100
AcDbLine
 10
908.9941404006022
 20
927.271234847376
 30
0.0
 11
908.9941404006022
 21
2727.271234847376
 31
0.0
  0
DIMENSION
  5
1E26A
330
1E256
100
AcDbEntity
  8
寸法
 48
50.0
100
AcDbDimension
  2
*D16
 10
167.5590722488123
 20
797.271234847376
 30
0.0
 11
67.5590722488123
 21
1282.271234847376
 31
0.0
 12
-2587.005859599398
 22
-5696.728765152624
 32
0.0
  1
b
 71
     5
 42
-1.0
  3
INABA_S50G
100
AcDbAlignedDimension
 13
908.9941404006022
 23
927.271234847376
 33
0.0
 14
413.0518743867797
 24
797.271234847376
 34
0.0
 50
90.0
100
AcDbRotatedDimension
1001
ACAD
1000
DSTYLE
1002
{
1070
    40
1040
1.0
1002
}
  0
DIMENSION
  5
1E26B
330
1E256
100
AcDbEntity
  8
寸法
 48
50.0
100
AcDbDimension
  2
*D11
 10
413.0518743867797
 20
927.271234847376
 30
0.0
 11
413.0518743867797
 21
591.7402860047841
 31
0.0
 12
-2587.005859599398
 22
-5696.728765152624
 32
0.0
 70
   128
 71
     5
 42
-1.0
  3
INABA_S50G
100
AcDbAlignedDimension
 13
981.9941404006085
 23
1125.271234847378
 33
0.0
 14
908.9941404006022
 24
927.271234847376
 34
0.0
 50
90.0
100
AcDbRotatedDimension
1001
ACAD
1000
DSTYLE
1002
{
1070
    40
1040
1.0
1002
}
  0
LINE
  5
1E26C
330
1E256
100
AcDbEntity
  8
部品1
 48
50.0
100
AcDbLine
 10
1008.994140400602
 20
1427.27123484738
 30
0.0
 11
908.9941404006022
 21
1427.27123484738
 31
0.0
  0
LINE
  5
1E26D
330
1E256
100
AcDbEntity
  8
点線
 48
10.0
100
AcDbLine
 10
1208.994140400603
 20
1027.27123484738
 30
0.0
 11
1208.994140400603
 21
1227.271234847383
 31
0.0
  0
LINE
  5
1E26E
330
1E256
100
AcDbEntity
  8
センター
 48
2.0
100
AcDbLine
 10
981.9941404006085
 20
1125.271234847378
 30
0.0
 11
1081.994140400608
 21
1125.271234847378
 31
0.0
  0
LINE
  5
1E26F
330
1E256
100
AcDbEntity
  8
センター
 48
2.0
100
AcDbLine
 10
1031.994140400608
 20
1175.271234847378
 30
0.0
 11
1031.994140400608
 21
1075.271234847378
 31
0.0
  0
LINE
  5
1E270
330
1E256
100
AcDbEntity
  8
部品1
 48
50.0
100
AcDbLine
 10
1308.994140400602
 20
927.271234847376
 30
0.0
 11
1308.994140400602
 21
1027.271234847383
 31
0.0
  0
LINE
  5
1E271
330
1E256
100
AcDbEntity
  8
点線
 48
10.0
100
AcDbLine
 10
1208.994140400603
 20
1227.271234847383
 30
0.0
 11
1008.9941404006
 21
1227.271234847379
 31
0.0
  0
LINE
  5
1E272
330
1E256
100
AcDbEntity
  8
部品1
 48
50.0
100
AcDbLine
 10
1308.994140400602
 20
2627.271234847374
 30
0.0
 11
1308.994140400602
 21
2727.271234847382
 31
0.0
  0
DIMENSION
  5
1E273
330
1E256
100
AcDbEntity
  8
寸法
 48
50.0
100
AcDbDimension
  2
*D15
 10
413.0518743867797
 20
2604.271234847376
 30
0.0
 11
413.0518743867797
 21
3000.377836565175
 31
0.0
 12
-2587.005859599398
 22
-5276.728765152624
 32
0.0
 70
   128
 71
     5
 42
-1.0
  3
INABA_S50G
100
AcDbAlignedDimension
 13
908.9941404006022
 23
2727.271234847376
 33
0.0
 14
981.9941404006021
 24
2604.271234847376
 34
0.0
 50
90.0
100
AcDbRotatedDimension
1001
ACAD
1000
DSTYLE
1002
{
1070
    40
1040
1.0
1002
}
  0
DIMENSION
  5
1E274
330
1E256
100
AcDbEntity
  8
寸法
 48
50.0
100
AcDbDimension
  2
*D18
 10
167.5590722488123
 20
2727.271234847376
 30
0.0
 11
67.5590722488123
 21
2772.271234847374
 31
0.0
 12
-2587.005859599398
 22
-5276.728765152624
 32
0.0
  1
c
 71
     5
 42
-1.0
  3
INABA_S50G
100
AcDbAlignedDimension
 13
413.0518743867797
 23
2817.271234847373
 33
0.0
 14
908.9941404006022
 24
2727.271234847376
 34
0.0
 50
90.0
100
AcDbRotatedDimension
1001
ACAD
1000
DSTYLE
1002
{
1070
    40
1040
1.0
1002
}
  0
DIMENSION
  5
1E275
330
1E256
100
AcDbEntity
  8
寸法
 48
50.0
100
AcDbDimension
  2
*D13
 10
908.9941404006022
 20
3453.478159147693
 30
0.0
 11
628.6277673437908
 21
3453.478159147693
 31
0.0
 12
-2587.005859599398
 22
-5276.728765152624
 32
0.0
 70
   128
 71
     5
 42
-1.0
  3
INABA_S50G
100
AcDbAlignedDimension
 13
1031.994140400602
 23
2654.271234847376
 33
0.0
 14
908.9941404006022
 24
2727.271234847376
 34
0.0
100
AcDbRotatedDimension
1001
ACAD
1000
DSTYLE
1002
{
1070
    40
1040
1.0
1002
}
  0
LINE
  5
1E276
330
1E256
100
AcDbEntity
  8
部品1
 48
50.0
100
AcDbLine
 10
1008.994140400602
 20
1827.271234847379
 30
0.0
 11
908.9941404006022
 21
1827.271234847379
 31
0.0
  0
LINE
  5
1E277
330
1E256
100
AcDbEntity
  8
部品1
 48
50.0
100
AcDbLine
 10
1008.994140400602
 20
2227.271234847375
 30
0.0
 11
908.9941404006022
 21
2227.271234847374
 31
0.0
  0
LINE
  5
1E278
330
1E256
100
AcDbEntity
  8
点線
 48
10.0
100
AcDbLine
 10
1208.994140400601
 20
2427.271234847373
 30
0.0
 11
1008.994140400602
 21
2427.271234847375
 31
0.0
  0
LINE
  5
1E279
330
1E256
100
AcDbEntity
  8
センター
 48
2.0
100
AcDbLine
 10
1031.994140400602
 20
2654.271234847376
 30
0.0
 11
1031.994140400602
 21
2554.271234847376
 31
0.0
  0
LINE
  5
1E27A
330
1E256
100
AcDbEntity
  8
センター
 48
2.0
100
AcDbLine
 10
981.9941404006021
 20
2604.271234847376
 30
0.0
 11
1081.994140400602
 21
2604.271234847376
 31
0.0
  0
LINE
  5
1E27B
330
1E256
100
AcDbEntity
  8
点線
 48
10.0
100
AcDbLine
 10
1208.994140400601
 20
2427.271234847373
 30
0.0
 11
1208.994140400602
 21
2627.271234847373
 31
0.0
  0
DIMENSION
  5
1E27C
330
1E256
100
AcDbEntity
  8
寸法
 48
50.0
100
AcDbDimension
  2
*D12
 10
908.9941404006022
 20
3665.938854664532
 30
0.0
 11
669.0160925585151
 21
3665.938854664532
 31
0.0
 12
-2587.005859599398
 22
-5276.728765152624
 32
0.0
 70
   128
  1
a
 71
     5
 42
-1.0
  3
INABA_S50G
100
AcDbAlignedDimension
 13
851.734369061589
 23
3453.478159147689
 33
0.0
 14
908.9941404006022
 24
2727.271234847376
 34
0.0
100
AcDbRotatedDimension
1001
ACAD
1000
DSTYLE
1002
{
1070
    40
1040
1.0
1002
}
  0
LINE
  5
1E27D
330
1E256
100
AcDbEntity
  8
部品1
 48
50.0
100
AcDbLine
 10
1312.994140400602
 20
2727.271234847373
 30
0.0
 11
908.9941404006022
 21
2727.271234847376
 31
0.0
  0
LINE
  5
1E27E
330
1E256
100
AcDbEntity
  8
部品1
 48
50.0
100
AcDbLine
 10
2608.994140400602
 20
1027.271234847396
 30
0.0
 11
2608.994140400601
 21
2627.271234847373
 31
0.0
  0
LINE
  5
1E27F
330
1E256
100
AcDbEntity
  8
想像線
 48
10.0
100
AcDbLine
 10
2758.994140400603
 20
2817.27123484738
 30
0.0
 11
2758.994140400606
 21
797.271234847376
 31
0.0
  0
LINE
  5
1E280
330
1E256
100
AcDbEntity
  8
部品1
 48
50.0
100
AcDbLine
 10
2708.994140400602
 20
927.2712348473943
 30
0.0
 11
2708.994140400602
 21
2727.271234847376
 31
0.0
  0
DIMENSION
  5
1E281
330
1E256
100
AcDbEntity
  8
寸法
 48
50.0
100
AcDbDimension
  2
*D23
 10
2208.260957831161
 20
1827.271234847376
 30
0.0
 11
2208.260957831161
 21
1377.271234847381
 31
0.0
 12
-2587.005859599398
 22
-1276.728765152624
 32
0.0
 70
   128
 71
     5
 42
-1.0
  3
INABA_S50G
100
AcDbAlignedDimension
 13
1808.994140400602
 23
927.271234847385
 33
0.0
 14
1858.994140400602
 24
1827.271234847376
 34
0.0
 50
90.0
100
AcDbRotatedDimension
1001
ACAD
1000
DSTYLE
1002
{
1070
   288
1070
     1
1070
    40
1040
1.0
1002
}
  0
DIMENSION
  5
1E282
330
1E256
100
AcDbEntity
  8
寸法
 48
50.0
100
AcDbDimension
  2
*D27
 10
2708.994140400602
 20
1306.97155591226
 30
0.0
 11
2979.053195518713
 21
1306.97155591226
 31
0.0
 12
-2587.005859599398
 22
-5696.728765152624
 32
0.0
 70
   128
 71
     5
 42
-1.0
  3
INABA_S50G
100
AcDbAlignedDimension
 13
2608.994140400602
 23
1407.271234847383
 33
0.0
 14
2708.994140400602
 24
1407.271234847383
 34
0.0
100
AcDbRotatedDimension
1001
ACAD
1000
DSTYLE
1002
{
1070
    40
1040
1.0
1002
}
  0
TEXT
  5
1E283
330
1E256
100
AcDbEntity
  8
寸法
 48
50.0
100
AcDbText
 10
1431.428391756737
 20
210.9080740941899
 30
0.0
 40
150.0
  1
MBW-32
  7
STYLE2
100
AcDbText
  0
TEXT
  5
1E284
330
1E256
100
AcDbEntity
  8
寸法
 48
50.0
100
AcDbText
 10
1431.428391756737
 20
40.90807409418994
 30
0.0
 40
150.0
  1
MBW-32H
  7
STYLE2
100
AcDbText
  0
TEXT
  5
1E285
330
1E256
100
AcDbEntity
  8
寸法
 48
50.0
100
AcDbText
 10
1679.121083237383
 20
648.2218646227884
 30
0.0
 40
120.0
  1
扉面
  7
STYLE1
100
AcDbText
  0
LINE
  5
1E286
330
1E256
100
AcDbEntity
  8
部品1
 48
50.0
100
AcDbLine
 10
1908.994140400602
 20
1127.27123484739
 30
0.0
 11
1708.994140400602
 21
1127.271234847389
 31
0.0
  0
LINE
  5
1E287
330
1E256
100
AcDbEntity
  8
部品1
 48
50.0
100
AcDbLine
 10
1708.994140400602
 20
1127.271234847389
 30
0.0
 11
1708.994140400602
 21
1027.271234847389
 31
0.0
  0
LINE
  5
1E288
330
1E256
100
AcDbEntity
  8
部品1
 48
50.0
100
AcDbLine
 10
1708.994140400602
 20
927.2712348473797
 30
0.0
 11
1708.994140400602
 21
1027.271234847387
 31
0.0
  0
LINE
  5
1E289
330
1E256
100
AcDbEntity
  8
部品1
 48
50.0
100
AcDbLine
 10
1908.994140400602
 20
1127.271234847389
 30
0.0
 11
1908.994140400602
 21
1027.271234847389
 31
0.0
  0
LINE
  5
1E28A
330
1E256
100
AcDbEntity
  8
部品1
 48
50.0
100
AcDbLine
 10
2108.994140400602
 20
927.271234847376
 30
0.0
 11
2108.994140400602
 21
1027.271234847383
 31
0.0
  0
LINE
  5
1E28B
330
1E256
100
AcDbEntity
  8
センター
 48
2.0
100
AcDbLine
 10
2535.994140400609
 20
1125.271234847378
 30
0.0
 11
2635.994140400609
 21
1125.271234847378
 31
0.0
  0
LINE
  5
1E28C
330
1E256
100
AcDbEntity
  8
点線
 48
10.0
100
AcDbLine
 10
2608.9941404006
 20
1227.271234847396
 30
0.0
 11
2408.994140400601
 21
1227.271234847394
 31
0.0
  0
LINE
  5
1E28D
330
1E256
100
AcDbEntity
  8
点線
 48
10.0
100
AcDbLine
 10
2408.994140400603
 20
1027.271234847396
 30
0.0
 11
2408.994140400601
 21
1227.271234847394
 31
0.0
  0
LINE
  5
1E28E
330
1E256
100
AcDbEntity
  8
部品1
 48
50.0
100
AcDbLine
 10
2308.994140400602
 20
927.2712348473943
 30
0.0
 11
2308.994140400602
 21
1027.27123484739
 31
0.0
  0
LINE
  5
1E28F
330
1E256
100
AcDbEntity
  8
センター
 48
2.0
100
AcDbLine
 10
2585.994140400609
 20
1175.271234847378
 30
0.0
 11
2585.994140400609
 21
1075.271234847378
 31
0.0
  0
LINE
  5
1E290
330
1E256
100
AcDbEntity
  8
部品1
 48
50.0
100
AcDbLine
 10
2708.994140400603
 20
1427.271234847398
 30
0.0
 11
2608.994140400601
 21
1427.271234847396
 31
0.0
  0
DIMENSION
  5
1E291
330
1E256
100
AcDbEntity
  8
寸法
 48
50.0
100
AcDbDimension
  2
*D20
 10
2585.994140400603
 20
3453.478159147693
 30
0.0
 11
2982.100742118401
 21
3453.478159147693
 31
0.0
 12
-2587.005859599398
 22
-5276.728765152624
 32
0.0
 70
   128
 71
     5
 42
-1.0
  3
INABA_S50G
100
AcDbAlignedDimension
 13
2708.994140400602
 23
2727.271234847376
 33
0.0
 14
2585.994140400603
 24
2654.271234847376
 34
0.0
100
AcDbRotatedDimension
1001
ACAD
1000
DSTYLE
1002
{
1070
    40
1040
1.0
1002
}
  0
DIMENSION
  5
1E292
330
1E256
100
AcDbEntity
  8
寸法
 48
50.0
100
AcDbDimension
  2
*D19
 10
2751.734369061589
 20
3665.938854664532
 30
0.0
 11
3059.452645564663
 21
3665.938854664532
 31
0.0
 12
-2587.005859599398
 22
-5276.728765152624
 32
0.0
 70
   128
  1
a
 71
     5
 42
-1.0
  3
INABA_S50G
100
AcDbAlignedDimension
 13
2708.994140400602
 23
2727.271234847376
 33
0.0
 14
2751.734369061589
 24
3453.478159147695
 34
0.0
100
AcDbRotatedDimension
1001
ACAD
1000
DSTYLE
1002
{
1070
    40
1040
1.0
1002
}
  0
LINE
  5
1E293
330
1E256
100
AcDbEntity
  8
部品1
 48
50.0
100
AcDbLine
 10
2308.994140400602
 20
2627.271234847392
 30
0.0
 11
2308.994140400602
 21
2727.271234847389
 31
0.0
  0
LINE
  5
1E294
330
1E256
100
AcDbEntity
  8
部品1
 48
50.0
100
AcDbLine
 10
2108.994140400602
 20
2627.271234847374
 30
0.0
 11
2108.994140400602
 21
2727.271234847382
 31
0.0
  0
LINE
  5
1E295
330
1E256
100
AcDbEntity
  8
部品1
 48
50.0
100
AcDbLine
 10
1708.994140400602
 20
2627.271234847378
 30
0.0
 11
1708.994140400602
 21
2727.271234847385
 31
0.0
  0
DIMENSION
  5
1E296
330
1E256
100
AcDbEntity
  8
寸法
 48
50.0
100
AcDbDimension
  2
*D21
 10
2366.841588969379
 20
2627.271234847374
 30
0.0
 11
2366.841588969379
 21
2997.330289965487
 31
0.0
 12
-2587.005859599398
 22
-5276.728765152624
 32
0.0
 70
   128
 71
     5
 42
-1.0
  3
INABA_S50G
100
AcDbAlignedDimension
 13
2153.912786690133
 23
2727.271234847376
 33
0.0
 14
2153.912786690133
 24
2627.271234847374
 34
0.0
 50
90.0
100
AcDbRotatedDimension
1001
ACAD
1000
DSTYLE
1002
{
1070
    40
1040
1.0
1002
}
  0
DIMENSION
  5
1E297
330
1E256
100
AcDbEntity
  8
寸法
 48
50.0
100
AcDbDimension
  2
*D24
 10
2208.260957831161
 20
2727.271234847376
 30
0.0
 11
2108.260957831161
 21
2277.271234847376
 31
0.0
 12
-2587.005859599398
 22
-1276.728765152624
 32
0.0
 71
     5
 42
-1.0
  3
INABA_S50G
100
AcDbAlignedDimension
 13
1858.994140400602
 23
1827.271234847376
 33
0.0
 14
1808.994140400602
 24
2727.271234847376
 34
0.0
 50
90.0
100
AcDbRotatedDimension
1001
ACAD
1000
DSTYLE
1002
{
1070
    40
1040
1.0
1070
    75
1070
     1
1070
   279
1070
     1
1070
   288
1070
     1
1002
}
  0
DIMENSION
  5
1E298
330
1E256
100
AcDbEntity
  8
寸法
 48
50.0
100
AcDbDimension
  2
*D26
 10
1808.994140400602
 20
3254.181000495704
 30
0.0
 11
2279.912662406881
 21
3254.181000495704
 31
0.0
 12
-2587.005859599398
 22
-1276.728765152624
 32
0.0
 70
   128
 71
     5
 42
-1.0
  3
INABA_S50G
100
AcDbAlignedDimension
 13
2708.994140400602
 23
2727.271234847376
 33
0.0
 14
1808.994140400602
 24
2027.271234847376
 34
0.0
100
AcDbRotatedDimension
1001
ACAD
1000
DSTYLE
1002
{
1070
   288
1070
     1
1070
    40
1040
1.0
1002
}
  0
LINE
  5
1E299
330
1E256
100
AcDbEntity
  8
部品1
 48
50.0
100
AcDbLine
 10
1908.994140400602
 20
2027.271234847376
 30
0.0
 11
1708.994140400602
 21
2027.271234847376
 31
0.0
  0
LINE
  5
1E29A
330
1E256
100
AcDbEntity
  8
部品1
 48
50.0
100
AcDbLine
 10
1908.994140400602
 20
1627.271234847374
 30
0.0
 11
1708.994140400602
 21
1627.271234847374
 31
0.0
  0
LINE
  5
1E29B
330
1E256
100
AcDbEntity
  8
センター
 48
2.0
100
AcDbLine
 10
1758.994140400602
 20
1827.271234847376
 30
0.0
 11
1858.994140400602
 21
1827.271234847376
 31
0.0
  0
LINE
  5
1E29C
330
1E256
100
AcDbEntity
  8
部品1
 48
50.0
100
AcDbLine
 10
1708.994140400602
 20
1627.271234847376
 30
0.0
 11
1708.994140400602
 21
2027.271234847376
 31
0.0
  0
LINE
  5
1E29D
330
1E256
100
AcDbEntity
  8
部品1
 48
50.0
100
AcDbLine
 10
1908.994140400602
 20
1627.271234847374
 30
0.0
 11
1908.994140400602
 21
2027.271234847376
 31
0.0
  0
LINE
  5
1E29E
330
1E256
100
AcDbEntity
  8
センター
 48
2.0
100
AcDbLine
 10
1808.994140400602
 20
1877.271234847376
 30
0.0
 11
1808.994140400602
 21
1777.271234847376
 31
0.0
  0
LINE
  5
1E29F
330
1E256
100
AcDbEntity
  8
部品1
 48
50.0
100
AcDbLine
 10
2708.994140400603
 20
1827.271234847398
 30
0.0
 11
2608.994140400601
 21
1827.271234847396
 31
0.0
  0
LINE
  5
1E2A0
330
1E256
100
AcDbEntity
  8
点線
 48
10.0
100
AcDbLine
 10
2608.994140400601
 20
2427.271234847375
 30
0.0
 11
2408.994140400603
 21
2427.271234847375
 31
0.0
  0
LINE
  5
1E2A1
330
1E256
100
AcDbEntity
  8
センター
 48
2.0
100
AcDbLine
 10
2535.994140400602
 20
2604.271234847376
 30
0.0
 11
2635.994140400602
 21
2604.271234847376
 31
0.0
  0
LINE
  5
1E2A2
330
1E256
100
AcDbEntity
  8
点線
 48
10.0
100
AcDbLine
 10
2408.994140400603
 20
2427.271234847375
 30
0.0
 11
2408.994140400601
 21
2627.271234847373
 31
0.0
  0
LINE
  5
1E2A3
330
1E256
100
AcDbEntity
  8
部品1
 48
50.0
100
AcDbLine
 10
2708.994140400603
 20
2227.271234847374
 30
0.0
 11
2608.994140400602
 21
2227.271234847374
 31
0.0
  0
LINE
  5
1E2A4
330
1E256
100
AcDbEntity
  8
センター
 48
2.0
100
AcDbLine
 10
2585.994140400603
 20
2654.271234847376
 30
0.0
 11
2585.994140400603
 21
2554.271234847376
 31
0.0
  0
ENDBLK
  5
1E2A6
330
1E256
100
AcDbEntity
  8
0
 48
50.0
100
AcDbBlockEnd
  0
BLOCK
  5
1E908
330
1E8FE
100
AcDbEntity
  8
0
 48
50.0
100
AcDbBlockBegin
  2
*D29
 70
     1
 10
0.0
 20
0.0
 30
0.0
  3
*D29
  1

  0
LINE
  5
1F7E5
330
1E8FE
100
AcDbEntity
  8
寸法
 62
     0
 48
50.0
370
    -2
100
AcDbLine
 10
8638.600000000002
 20
7312.000000000003
 30
0.0
 11
8638.600000000002
 21
7860.624237135962
 31
0.0
  0
LINE
  5
1F7E6
330
1E8FE
100
AcDbEntity
  8
寸法
 62
     0
 48
50.0
370
    -2
100
AcDbLine
 10
9539.599999999998
 20
7411.999999999991
 30
0.0
 11
9539.599999999998
 21
7860.624237135962
 31
0.0
  0
LINE
  5
1F7E7
330
1E8FE
100
AcDbEntity
  8
寸法
 62
     0
 48
50.0
370
    -2
100
AcDbLine
 10
8638.600000000002
 20
7800.624237135962
 30
0.0
 11
9539.599999999998
 21
7800.624237135962
 31
0.0
  0
INSERT
  5
1F7E8
330
1E8FE
100
AcDbEntity
  8
寸法
 62
     0
 48
50.0
370
    -2
100
AcDbBlockReference
  2
_DOTSMALL
 10
8638.600000000002
 20
7800.624237135962
 30
0.0
 41
100.0
 42
100.0
 43
100.0
 50
180.0
  0
INSERT
  5
1F7E9
330
1E8FE
100
AcDbEntity
  8
寸法
 62
     0
 48
50.0
370
    -2
100
AcDbBlockReference
  2
_DOTSMALL
 10
9539.599999999998
 20
7800.624237135962
 30
0.0
 41
100.0
 42
100.0
 43
100.0
  0
MTEXT
  5
1F7EA
330
1E8FE
100
AcDbEntity
  8
寸法
 62
     7
 48
50.0
100
AcDbMText
 10
9089.1
 20
7900.624237135962
 30
0.0
 40
120.0
 41
0.0
 71
     5
 72
     1
  1
\A1;901
  7
STYLE1
 73
     1
 44
1.0
1001
ACAD
1000
MTEXTBEGIN
1070
    73
1070
     1
1070
    44
1040
1.0
1070
    74
1070
     0
1000
MTEXTEND
  0
POINT
  5
1F7EB
330
1E8FE
100
AcDbEntity
  8
DEFPOINTS
 62
     0
 48
50.0
100
AcDbPoint
 10
8638.600000000002
 20
7292.000000000005
 30
0.0
  0
POINT
  5
1F7EC
330
1E8FE
100
AcDbEntity
  8
DEFPOINTS
 62
     0
 48
50.0
100
AcDbPoint
 10
9539.599999999998
 20
7391.999999999992
 30
0.0
  0
POINT
  5
1F7ED
330
1E8FE
100
AcDbEntity
  8
DEFPOINTS
 62
     0
 48
50.0
100
AcDbPoint
 10
9539.599999999998
 20
7800.624237135962
 30
0.0
  0
ENDBLK
  5
1E909
330
1E8FE
100
AcDbEntity
  8
0
 48
50.0
100
AcDbBlockEnd
  0
BLOCK
  5
1E914
330
1E90A
100
AcDbEntity
  8
0
 48
50.0
100
AcDbBlockBegin
  2
*D30
 70
     1
 10
0.0
 20
0.0
 30
0.0
  3
*D30
  1

  0
LINE
  5
1F7A6
330
1E90A
100
AcDbEntity
  8
寸法
 62
     0
 48
50.0
370
    -2
100
AcDbLine
 10
7808.600000000002
 20
7332.000000000005
 30
0.0
 11
7808.600000000002
 21
7860.624237135962
 31
0.0
  0
LINE
  5
1F7A7
330
1E90A
100
AcDbEntity
  8
寸法
 62
     0
 48
50.0
370
    -2
100
AcDbLine
 10
6907.599999999999
 20
7312.0
 30
0.0
 11
6907.599999999999
 21
7860.624237135962
 31
0.0
  0
LINE
  5
1F7A8
330
1E90A
100
AcDbEntity
  8
寸法
 62
     0
 48
50.0
370
    -2
100
AcDbLine
 10
7808.600000000002
 20
7800.624237135962
 30
0.0
 11
6907.599999999999
 21
7800.624237135962
 31
0.0
  0
INSERT
  5
1F7A9
330
1E90A
100
AcDbEntity
  8
寸法
 62
     0
 48
50.0
370
    -2
100
AcDbBlockReference
  2
_DOTSMALL
 10
7808.600000000002
 20
7800.624237135962
 30
0.0
 41
100.0
 42
100.0
 43
100.0
  0
INSERT
  5
1F7AA
330
1E90A
100
AcDbEntity
  8
寸法
 62
     0
 48
50.0
370
    -2
100
AcDbBlockReference
  2
_DOTSMALL
 10
6907.599999999999
 20
7800.624237135962
 30
0.0
 41
100.0
 42
100.0
 43
100.0
 50
180.0
  0
MTEXT
  5
1F7AB
330
1E90A
100
AcDbEntity
  8
寸法
 62
     7
 48
50.0
100
AcDbMText
 10
7358.1
 20
7900.624237135962
 30
0.0
 40
120.0
 41
0.0
 71
     5
 72
     1
  1
\A1;901
  7
STYLE1
 73
     1
 44
1.0
1001
ACAD
1000
MTEXTBEGIN
1070
    73
1070
     1
1070
    44
1040
1.0
1070
    74
1070
     0
1000
MTEXTEND
  0
POINT
  5
1F7AC
330
1E90A
100
AcDbEntity
  8
DEFPOINTS
 62
     0
 48
50.0
100
AcDbPoint
 10
7808.600000000002
 20
7312.000000000006
 30
0.0
  0
POINT
  5
1F7AD
330
1E90A
100
AcDbEntity
  8
DEFPOINTS
 62
     0
 48
50.0
100
AcDbPoint
 10
6907.599999999999
 20
7292.0
 30
0.0
  0
POINT
  5
1F7AE
330
1E90A
100
AcDbEntity
  8
DEFPOINTS
 62
     0
 48
50.0
100
AcDbPoint
 10
6907.599999999999
 20
7800.624237135962
 30
0.0
  0
ENDBLK
  5
1E915
330
1E90A
100
AcDbEntity
  8
0
 48
50.0
100
AcDbBlockEnd
  0
BLOCK
  5
1E920
330
1E916
100
AcDbEntity
  8
0
 48
50.0
100
AcDbBlockBegin
  2
*D31
 70
     1
 10
0.0
 20
0.0
 30
0.0
  3
*D31
  1

  0
LINE
  5
1F7AF
330
1E916
100
AcDbEntity
  8
寸法
 62
     0
 48
50.0
370
    -2
100
AcDbLine
 10
7808.600000000002
 20
7312.000000000006
 30
0.0
 11
7808.600000000002
 21
7860.624237135962
 31
0.0
  0
LINE
  5
1F7B0
330
1E916
100
AcDbEntity
  8
寸法
 62
     0
 48
50.0
370
    -2
100
AcDbLine
 10
8638.600000000002
 20
7312.000000000003
 30
0.0
 11
8638.600000000002
 21
7860.624237135962
 31
0.0
  0
LINE
  5
1F7B1
330
1E916
100
AcDbEntity
  8
寸法
 62
     0
 48
50.0
370
    -2
100
AcDbLine
 10
7808.600000000002
 20
7800.624237135962
 30
0.0
 11
8638.600000000002
 21
7800.624237135962
 31
0.0
  0
INSERT
  5
1F7B2
330
1E916
100
AcDbEntity
  8
寸法
 62
     0
 48
50.0
370
    -2
100
AcDbBlockReference
  2
_DOTSMALL
 10
7808.600000000002
 20
7800.624237135962
 30
0.0
 41
100.0
 42
100.0
 43
100.0
 50
180.0
  0
INSERT
  5
1F7B3
330
1E916
100
AcDbEntity
  8
寸法
 62
     0
 48
50.0
370
    -2
100
AcDbBlockReference
  2
_DOTSMALL
 10
8638.600000000002
 20
7800.624237135962
 30
0.0
 41
100.0
 42
100.0
 43
100.0
  0
MTEXT
  5
1F7B4
330
1E916
100
AcDbEntity
  8
寸法
 62
     7
 48
50.0
100
AcDbMText
 10
8223.600000000002
 20
7900.624237135962
 30
0.0
 40
120.0
 41
0.0
 71
     5
 72
     1
  1
\A1;830
  7
STYLE1
 73
     1
 44
1.0
1001
ACAD
1000
MTEXTBEGIN
1070
    73
1070
     1
1070
    44
1040
1.0
1070
    74
1070
     0
1000
MTEXTEND
  0
POINT
  5
1F7B5
330
1E916
100
AcDbEntity
  8
DEFPOINTS
 62
     0
 48
50.0
100
AcDbPoint
 10
7808.600000000002
 20
7292.000000000006
 30
0.0
  0
POINT
  5
1F7B6
330
1E916
100
AcDbEntity
  8
DEFPOINTS
 62
     0
 48
50.0
100
AcDbPoint
 10
8638.600000000002
 20
7292.000000000005
 30
0.0
  0
POINT
  5
1F7B7
330
1E916
100
AcDbEntity
  8
DEFPOINTS
 62
     0
 48
50.0
100
AcDbPoint
 10
8638.600000000002
 20
7800.624237135962
 30
0.0
  0
ENDBLK
  5
1E921
330
1E916
100
AcDbEntity
  8
0
 48
50.0
100
AcDbBlockEnd
  0
BLOCK
  5
1E92E
330
1E922
100
AcDbEntity
  8
0
 48
50.0
100
AcDbBlockBegin
  2
*D32
 70
     1
 10
0.0
 20
0.0
 30
0.0
  3
*D32
  1

  0
LINE
  5
1F792
330
1E922
100
AcDbEntity
  8
寸法
 62
     0
 48
50.0
370
    -2
100
AcDbLine
 10
9539.599999999998
 20
7312.0
 30
0.0
 11
9539.599999999998
 21
8118.551625802021
 31
0.0
  0
LINE
  5
1F793
330
1E922
100
AcDbEntity
  8
寸法
 62
     0
 48
50.0
370
    -2
100
AcDbLine
 10
9589.599999999999
 20
7392.000000000004
 30
0.0
 11
9589.599999999999
 21
8118.551625802021
 31
0.0
  0
LINE
  5
1F794
330
1E922
100
AcDbEntity
  8
寸法
 62
     0
 48
50.0
370
    -2
100
AcDbLine
 10
9539.599999999998
 20
8058.551625802023
 30
0.0
 11
9439.599999999998
 21
8058.551625802023
 31
0.0
  0
LINE
  5
1F795
330
1E922
100
AcDbEntity
  8
寸法
 62
     0
 48
50.0
370
    -2
100
AcDbLine
 10
9589.599999999999
 20
8058.551625802023
 30
0.0
 11
9689.599999999998
 21
8058.551625802023
 31
0.0
  0
LINE
  5
1F796
330
1E922
100
AcDbEntity
  8
寸法
 62
     0
 48
50.0
370
    -2
100
AcDbLine
 10
9539.599999999998
 20
8058.551625802023
 30
0.0
 11
9589.599999999999
 21
8058.551625802023
 31
0.0
  0
INSERT
  5
1F797
330
1E922
100
AcDbEntity
  8
寸法
 62
     0
 48
50.0
370
    -2
100
AcDbBlockReference
  2
_DOTSMALL
 10
9539.599999999998
 20
8058.551625802023
 30
0.0
 41
100.0
 42
100.0
 43
100.0
  0
INSERT
  5
1F798
330
1E922
100
AcDbEntity
  8
寸法
 62
     0
 48
50.0
370
    -2
100
AcDbBlockReference
  2
_DOTSMALL
 10
9589.599999999999
 20
8058.551625802023
 30
0.0
 41
100.0
 42
100.0
 43
100.0
 50
180.0
  0
MTEXT
  5
1F799
330
1E922
100
AcDbEntity
  8
寸法
 62
     7
 48
50.0
100
AcDbMText
 10
9564.599999999998
 20
8158.551625802022
 30
0.0
 40
120.0
 41
0.0
 71
     5
 72
     1
  1
\A1;a
  7
STYLE1
 73
     1
 44
1.0
1001
ACAD
1000
MTEXTBEGIN
1070
    73
1070
     1
1070
    44
1040
1.0
1070
    74
1070
     0
1000
MTEXTEND
  0
POINT
  5
1F79A
330
1E922
100
AcDbEntity
  8
DEFPOINTS
 62
     0
 48
50.0
100
AcDbPoint
 10
9539.599999999998
 20
7292.0
 30
0.0
  0
POINT
  5
1F79B
330
1E922
100
AcDbEntity
  8
DEFPOINTS
 62
     0
 48
50.0
100
AcDbPoint
 10
9589.599999999999
 20
7372.000000000004
 30
0.0
  0
POINT
  5
1F79C
330
1E922
100
AcDbEntity
  8
DEFPOINTS
 62
     0
 48
50.0
100
AcDbPoint
 10
9589.599999999999
 20
8058.551625802023
 30
0.0
  0
ENDBLK
  5
1E92F
330
1E922
100
AcDbEntity
  8
0
 48
50.0
100
AcDbBlockEnd
  0
BLOCK
  5
1E93C
330
1E930
100
AcDbEntity
  8
0
 48
50.0
100
AcDbBlockBegin
  2
*D33
 70
     1
 10
0.0
 20
0.0
 30
0.0
  3
*D33
  1

  0
LINE
  5
1E970
330
1E930
100
AcDbEntity
  8
寸法
 62
     0
 48
50.0
370
    -2
100
AcDbLine
 10
6857.599999999999
 20
7392.0
 30
0.0
 11
6857.599999999999
 21
8118.551625802021
 31
0.0
  0
LINE
  5
1E971
330
1E930
100
AcDbEntity
  8
寸法
 62
     0
 48
50.0
370
    -2
100
AcDbLine
 10
6907.599999999999
 20
7312.0
 30
0.0
 11
6907.599999999999
 21
8118.551625802021
 31
0.0
  0
LINE
  5
1E972
330
1E930
100
AcDbEntity
  8
寸法
 62
     0
 48
50.0
370
    -2
100
AcDbLine
 10
6857.599999999999
 20
8058.551625802023
 30
0.0
 11
6757.6
 21
8058.551625802023
 31
0.0
  0
LINE
  5
1E973
330
1E930
100
AcDbEntity
  8
寸法
 62
     0
 48
50.0
370
    -2
100
AcDbLine
 10
6907.599999999999
 20
8058.551625802023
 30
0.0
 11
7007.6
 21
8058.551625802023
 31
0.0
  0
LINE
  5
1E974
330
1E930
100
AcDbEntity
  8
寸法
 62
     0
 48
50.0
370
    -2
100
AcDbLine
 10
6857.599999999999
 20
8058.551625802023
 30
0.0
 11
6907.599999999999
 21
8058.551625802023
 31
0.0
  0
INSERT
  5
1E975
330
1E930
100
AcDbEntity
  8
寸法
 62
     0
 48
50.0
370
    -2
100
AcDbBlockReference
  2
_DOTSMALL
 10
6857.599999999999
 20
8058.551625802023
 30
0.0
 41
100.0
 42
100.0
 43
100.0
  0
INSERT
  5
1E976
330
1E930
100
AcDbEntity
  8
寸法
 62
     0
 48
50.0
370
    -2
100
AcDbBlockReference
  2
_DOTSMALL
 10
6907.599999999999
 20
8058.551625802023
 30
0.0
 41
100.0
 42
100.0
 43
100.0
 50
180.0
  0
MTEXT
  5
1E977
330
1E930
100
AcDbEntity
  8
寸法
 62
     7
 48
50.0
100
AcDbMText
 10
6882.6
 20
8158.551625802022
 30
0.0
 40
120.0
 41
0.0
 71
     5
 72
     1
  1
\A1;a
  7
STYLE1
 73
     1
 44
1.0
1001
ACAD
1000
MTEXTBEGIN
1070
    73
1070
     1
1070
    44
1040
1.0
1070
    74
1070
     0
1000
MTEXTEND
  0
POINT
  5
1E978
330
1E930
100
AcDbEntity
  8
DEFPOINTS
 62
     0
 48
50.0
100
AcDbPoint
 10
6857.599999999999
 20
7372.0
 30
0.0
  0
POINT
  5
1E979
330
1E930
100
AcDbEntity
  8
DEFPOINTS
 62
     0
 48
50.0
100
AcDbPoint
 10
6907.599999999999
 20
7292.0
 30
0.0
  0
POINT
  5
1E97A
330
1E930
100
AcDbEntity
  8
DEFPOINTS
 62
     0
 48
50.0
100
AcDbPoint
 10
6907.599999999999
 20
8058.551625802023
 30
0.0
  0
ENDBLK
  5
1E93D
330
1E930
100
AcDbEntity
  8
0
 48
50.0
100
AcDbBlockEnd
  0
BLOCK
  5
1E948
330
1E93E
100
AcDbEntity
  8
0
 48
50.0
100
AcDbBlockBegin
  2
*D34
 70
     1
 10
0.0
 20
0.0
 30
0.0
  3
*D34
  1

  0
LINE
  5
1F80A
330
1E93E
100
AcDbEntity
  8
寸法
 62
     0
 48
50.0
370
    -2
100
AcDbLine
 10
6907.599999999999
 20
7312.0
 30
0.0
 11
6907.599999999999
 21
8118.551625802021
 31
0.0
  0
LINE
  5
1F80B
330
1E93E
100
AcDbEntity
  8
寸法
 62
     0
 48
50.0
370
    -2
100
AcDbLine
 10
9539.599999999998
 20
7332.0
 30
0.0
 11
9539.599999999998
 21
8118.551625802021
 31
0.0
  0
LINE
  5
1F80C
330
1E93E
100
AcDbEntity
  8
寸法
 62
     0
 48
50.0
370
    -2
100
AcDbLine
 10
6907.599999999999
 20
8058.551625802023
 30
0.0
 11
9539.599999999998
 21
8058.551625802023
 31
0.0
  0
INSERT
  5
1F80D
330
1E93E
100
AcDbEntity
  8
寸法
 62
     0
 48
50.0
370
    -2
100
AcDbBlockReference
  2
_DOTSMALL
 10
6907.599999999999
 20
8058.551625802023
 30
0.0
 41
100.0
 42
100.0
 43
100.0
 50
180.0
  0
INSERT
  5
1F80E
330
1E93E
100
AcDbEntity
  8
寸法
 62
     0
 48
50.0
370
    -2
100
AcDbBlockReference
  2
_DOTSMALL
 10
9539.599999999998
 20
8058.551625802023
 30
0.0
 41
100.0
 42
100.0
 43
100.0
  0
MTEXT
  5
1F80F
330
1E93E
100
AcDbEntity
  8
寸法
 62
     7
 48
50.0
100
AcDbMText
 10
8223.599999999999
 20
8158.563436825643
 30
0.0
 40
120.0
 41
0.0
 71
     5
 72
     1
  1
\A1;2632
  7
STYLE1
 73
     1
 44
1.0
1001
ACAD
1000
MTEXTBEGIN
1070
    73
1070
     1
1070
    44
1040
1.0
1070
    74
1070
     0
1000
MTEXTEND
  0
POINT
  5
1F810
330
1E93E
100
AcDbEntity
  8
DEFPOINTS
 62
     0
 48
50.0
100
AcDbPoint
 10
6907.599999999999
 20
7292.0
 30
0.0
  0
POINT
  5
1F811
330
1E93E
100
AcDbEntity
  8
DEFPOINTS
 62
     0
 48
50.0
100
AcDbPoint
 10
9539.599999999998
 20
7312.0
 30
0.0
  0
POINT
  5
1F812
330
1E93E
100
AcDbEntity
  8
DEFPOINTS
 62
     0
 48
50.0
100
AcDbPoint
 10
9539.599999999998
 20
8058.551625802023
 30
0.0
  0
ENDBLK
  5
1E949
330
1E93E
100
AcDbEntity
  8
0
 48
50.0
100
AcDbBlockEnd
  0
BLOCK
  5
1E9B5
330
1E9AB
100
AcDbEntity
  8
0
 48
50.0
100
AcDbBlockBegin
  2
*D35
 70
     1
 10
0.0
 20
0.0
 30
0.0
  3
*D35
  1

  0
LINE
  5
1F801
330
1E9AB
100
AcDbEntity
  8
寸法
 62
     0
 48
50.0
370
    -2
100
AcDbLine
 10
6907.599999999999
 20
7312.0
 30
0.0
 11
6907.599999999999
 21
8118.551625802021
 31
0.0
  0
LINE
  5
1F802
330
1E9AB
100
AcDbEntity
  8
寸法
 62
     0
 48
50.0
370
    -2
100
AcDbLine
 10
9539.599999999998
 20
7332.0
 30
0.0
 11
9539.599999999998
 21
8118.551625802021
 31
0.0
  0
LINE
  5
1F803
330
1E9AB
100
AcDbEntity
  8
寸法
 62
     0
 48
50.0
370
    -2
100
AcDbLine
 10
6907.599999999999
 20
8058.551625802023
 30
0.0
 11
9539.599999999998
 21
8058.551625802023
 31
0.0
  0
INSERT
  5
1F804
330
1E9AB
100
AcDbEntity
  8
寸法
 62
     0
 48
50.0
370
    -2
100
AcDbBlockReference
  2
_DOTSMALL
 10
6907.599999999999
 20
8058.551625802023
 30
0.0
 41
100.0
 42
100.0
 43
100.0
 50
180.0
  0
INSERT
  5
1F805
330
1E9AB
100
AcDbEntity
  8
寸法
 62
     0
 48
50.0
370
    -2
100
AcDbBlockReference
  2
_DOTSMALL
 10
9539.599999999998
 20
8058.551625802023
 30
0.0
 41
100.0
 42
100.0
 43
100.0
  0
MTEXT
  5
1F806
330
1E9AB
100
AcDbEntity
  8
寸法
 62
     7
 48
50.0
100
AcDbMText
 10
8223.599999999999
 20
8158.563436825643
 30
0.0
 40
120.0
 41
0.0
 71
     5
 72
     1
  1
\A1;2632
  7
STYLE1
 73
     1
 44
1.0
1001
ACAD
1000
MTEXTBEGIN
1070
    73
1070
     1
1070
    44
1040
1.0
1070
    74
1070
     0
1000
MTEXTEND
  0
POINT
  5
1F807
330
1E9AB
100
AcDbEntity
  8
DEFPOINTS
 62
     0
 48
50.0
100
AcDbPoint
 10
6907.599999999999
 20
7292.0
 30
0.0
  0
POINT
  5
1F808
330
1E9AB
100
AcDbEntity
  8
DEFPOINTS
 62
     0
 48
50.0
100
AcDbPoint
 10
9539.599999999998
 20
7312.0
 30
0.0
  0
POINT
  5
1F809
330
1E9AB
100
AcDbEntity
  8
DEFPOINTS
 62
     0
 48
50.0
100
AcDbPoint
 10
9539.599999999998
 20
8058.551625802023
 30
0.0
  0
ENDBLK
  5
1E9B6
330
1E9AB
100
AcDbEntity
  8
0
 48
50.0
100
AcDbBlockEnd
  0
BLOCK
  5
1F6F9
330
1F6EF
100
AcDbEntity
  8
0
 48
50.0
100
AcDbBlockBegin
  2
*D36
 70
     1
 10
0.0
 20
0.0
 30
0.0
  3
*D36
  1

  0
LINE
  5
1F846
330
1F6EF
100
AcDbEntity
  8
寸法
 62
     0
 48
50.0
370
    -2
100
AcDbLine
 10
9639.600000000001
 20
5379.999999999992
 30
0.0
 11
9639.600000000001
 21
4866.168926156461
 31
0.0
  0
LINE
  5
1F847
330
1F6EF
100
AcDbEntity
  8
寸法
 62
     0
 48
50.0
370
    -2
100
AcDbLine
 10
9439.6
 20
5379.999999999992
 30
0.0
 11
9439.6
 21
4866.168926156461
 31
0.0
  0
LINE
  5
1F848
330
1F6EF
100
AcDbEntity
  8
寸法
 62
     0
 48
50.0
370
    -2
100
AcDbLine
 10
9639.600000000001
 20
4926.16892615646
 30
0.0
 11
9439.6
 21
4926.16892615646
 31
0.0
  0
INSERT
  5
1F849
330
1F6EF
100
AcDbEntity
  8
寸法
 62
     0
 48
50.0
370
    -2
100
AcDbBlockReference
  2
_DOTSMALL
 10
9639.600000000001
 20
4926.16892615646
 30
0.0
 41
100.0
 42
100.0
 43
100.0
  0
INSERT
  5
1F84A
330
1F6EF
100
AcDbEntity
  8
寸法
 62
     0
 48
50.0
370
    -2
100
AcDbBlockReference
  2
_DOTSMALL
 10
9439.6
 20
4926.16892615646
 30
0.0
 41
100.0
 42
100.0
 43
100.0
 50
180.0
  0
MTEXT
  5
1F84B
330
1F6EF
100
AcDbEntity
  8
寸法
 62
     7
 48
50.0
100
AcDbMText
 10
9539.6
 20
5026.180737180083
 30
0.0
 40
120.0
 41
0.0
 71
     5
 72
     1
  1
\A1;200
  7
STYLE1
 73
     1
 44
1.0
1001
ACAD
1000
MTEXTBEGIN
1070
    73
1070
     1
1070
    44
1040
1.0
1070
    74
1070
     0
1000
MTEXTEND
  0
POINT
  5
1F84C
330
1F6EF
100
AcDbEntity
  8
DEFPOINTS
 62
     0
 48
50.0
100
AcDbPoint
 10
9639.600000000001
 20
5399.999999999993
 30
0.0
  0
POINT
  5
1F84D
330
1F6EF
100
AcDbEntity
  8
DEFPOINTS
 62
     0
 48
50.0
100
AcDbPoint
 10
9439.6
 20
5399.999999999993
 30
0.0
  0
POINT
  5
1F84E
330
1F6EF
100
AcDbEntity
  8
DEFPOINTS
 62
     0
 48
50.0
100
AcDbPoint
 10
9439.6
 20
4926.16892615646
 30
0.0
  0
ENDBLK
  5
1F6FA
330
1F6EF
100
AcDbEntity
  8
0
 48
50.0
100
AcDbBlockEnd
  0
BLOCK
  5
1F705
330
1F6FB
100
AcDbEntity
  8
0
 48
50.0
100
AcDbBlockBegin
  2
*D37
 70
     1
 10
0.0
 20
0.0
 30
0.0
  3
*D37
  1

  0
LINE
  5
1F83D
330
1F6FB
100
AcDbEntity
  8
寸法
 62
     0
 48
50.0
370
    -2
100
AcDbLine
 10
9659.599999999999
 20
5599.999999999993
 30
0.0
 11
10217.84087348511
 21
5599.999999999993
 31
0.0
  0
LINE
  5
1F83E
330
1F6FB
100
AcDbEntity
  8
寸法
 62
     0
 48
50.0
370
    -2
100
AcDbLine
 10
9659.600000000001
 20
5399.999999999993
 30
0.0
 11
10217.84087348511
 21
5399.999999999993
 31
0.0
  0
LINE
  5
1F83F
330
1F6FB
100
AcDbEntity
  8
寸法
 62
     0
 48
50.0
370
    -2
100
AcDbLine
 10
10157.84087348511
 20
5599.999999999993
 30
0.0
 11
10157.84087348511
 21
5399.999999999993
 31
0.0
  0
INSERT
  5
1F840
330
1F6FB
100
AcDbEntity
  8
寸法
 62
     0
 48
50.0
370
    -2
100
AcDbBlockReference
  2
_DOTSMALL
 10
10157.84087348511
 20
5599.999999999993
 30
0.0
 41
100.0
 42
100.0
 43
100.0
 50
90.0
  0
INSERT
  5
1F841
330
1F6FB
100
AcDbEntity
  8
寸法
 62
     0
 48
50.0
370
    -2
100
AcDbBlockReference
  2
_DOTSMALL
 10
10157.84087348511
 20
5399.999999999993
 30
0.0
 41
100.0
 42
100.0
 43
100.0
 50
270.0
  0
MTEXT
  5
1F842
330
1F6FB
100
AcDbEntity
  8
寸法
 62
     7
 48
50.0
100
AcDbMText
 10
10057.82906246149
 20
5499.999999999993
 30
0.0
 40
120.0
 41
0.0
 71
     5
 72
     1
  1
\A1;200
  7
STYLE1
 11
0.0000000000000001
 21
1.0
 31
0.0
 73
     1
 44
1.0
1001
ACAD
1000
MTEXTBEGIN
1070
    73
1070
     1
1070
    44
1040
1.0
1070
    74
1070
     0
1000
MTEXTEND
  0
POINT
  5
1F843
330
1F6FB
100
AcDbEntity
  8
DEFPOINTS
 62
     0
 48
50.0
100
AcDbPoint
 10
9639.599999999999
 20
5599.999999999993
 30
0.0
  0
POINT
  5
1F844
330
1F6FB
100
AcDbEntity
  8
DEFPOINTS
 62
     0
 48
50.0
100
AcDbPoint
 10
9639.600000000001
 20
5399.999999999993
 30
0.0
  0
POINT
  5
1F845
330
1F6FB
100
AcDbEntity
  8
DEFPOINTS
 62
     0
 48
50.0
100
AcDbPoint
 10
10157.84087348511
 20
5399.999999999993
 30
0.0
  0
ENDBLK
  5
1F706
330
1F6FB
100
AcDbEntity
  8
0
 48
50.0
100
AcDbBlockEnd
  0
BLOCK
  5
1FBFB
330
1FBF1
100
AcDbEntity
  8
0
 48
50.0
100
AcDbBlockBegin
  2
*D38
 70
     1
 10
0.0
 20
0.0
 30
0.0
  3
*D38
  1

  0
LINE
  5
1FC09
330
1FBF1
100
AcDbEntity
  8
寸法
 62
     0
 48
50.0
370
    -2
100
AcDbLine
 10
6986.3077022632
 20
1466.844112873077
 30
0.0
 11
6852.97795518767
 21
1466.844112873077
 31
0.0
  0
LINE
  5
1FC0A
330
1FBF1
100
AcDbEntity
  8
寸法
 62
     0
 48
50.0
370
    -2
100
AcDbLine
 10
7136.307702263199
 20
1066.844112873077
 30
0.0
 11
6852.97795518767
 21
1066.844112873077
 31
0.0
  0
LINE
  5
1FC0B
330
1FBF1
100
AcDbEntity
  8
寸法
 62
     0
 48
50.0
370
    -2
100
AcDbLine
 10
6912.977955187669
 20
1466.844112873077
 30
0.0
 11
6912.977955187669
 21
1066.844112873077
 31
0.0
  0
INSERT
  5
1FC0C
330
1FBF1
100
AcDbEntity
  8
寸法
 62
     0
 48
50.0
370
    -2
100
AcDbBlockReference
  2
_DOTSMALL
 10
6912.977955187669
 20
1466.844112873077
 30
0.0
 41
100.0
 42
100.0
 43
100.0
 50
90.0
  0
INSERT
  5
1FC0D
330
1FBF1
100
AcDbEntity
  8
寸法
 62
     0
 48
50.0
370
    -2
100
AcDbBlockReference
  2
_DOTSMALL
 10
6912.977955187669
 20
1066.844112873077
 30
0.0
 41
100.0
 42
100.0
 43
100.0
 50
270.0
  0
MTEXT
  5
1FC0E
330
1FBF1
100
AcDbEntity
  8
寸法
 62
     7
 48
50.0
100
AcDbMText
 10
6812.966144164048
 20
1254.468745988983
 30
0.0
 40
120.0
 41
0.0
 71
     5
 72
     1
  1
\A1;200
  7
STYLE1
 11
0.0000000000000001
 21
1.0
 31
0.0
 73
     1
 44
1.0
1001
ACAD
1000
MTEXTBEGIN
1070
    73
1070
     1
1070
    44
1040
1.0
1070
    74
1070
     0
1000
MTEXTEND
  0
POINT
  5
1FC0F
330
1FBF1
100
AcDbEntity
  8
DEFPOINTS
 62
     0
 48
50.0
100
AcDbPoint
 10
7006.3077022632
 20
1466.844112873077
 30
0.0
  0
POINT
  5
1FC10
330
1FBF1
100
AcDbEntity
  8
DEFPOINTS
 62
     0
 48
50.0
100
AcDbPoint
 10
7156.3077022632
 20
1066.844112873077
 30
0.0
  0
POINT
  5
1FC11
330
1FBF1
100
AcDbEntity
  8
DEFPOINTS
 62
     0
 48
50.0
100
AcDbPoint
 10
6912.977955187669
 20
1066.844112873077
 30
0.0
  0
ENDBLK
  5
1FBFC
330
1FBF1
100
AcDbEntity
  8
0
 48
50.0
100
AcDbBlockEnd
  0
BLOCK
  5
1FC07
330
1FBFD
100
AcDbEntity
  8
0
 48
50.0
100
AcDbBlockBegin
  2
*D39
 70
     1
 10
0.0
 20
0.0
 30
0.0
  3
*D39
  1

  0
LINE
  5
1FC12
330
1FBFD
100
AcDbEntity
  8
寸法
 62
     0
 48
50.0
370
    -2
100
AcDbLine
 10
7426.307702263201
 20
1666.844112873078
 30
0.0
 11
7714.378706623596
 21
1666.844112873078
 31
0.0
  0
LINE
  5
1FC13
330
1FBFD
100
AcDbEntity
  8
寸法
 62
     0
 48
50.0
370
    -2
100
AcDbLine
 10
7426.307702263203
 20
1466.844112873077
 30
0.0
 11
7714.378706623596
 21
1466.844112873077
 31
0.0
  0
LINE
  5
1FC14
330
1FBFD
100
AcDbEntity
  8
寸法
 62
     0
 48
50.0
370
    -2
100
AcDbLine
 10
7654.378706623595
 20
1666.844112873078
 30
0.0
 11
7654.378706623595
 21
1466.844112873077
 31
0.0
  0
INSERT
  5
1FC15
330
1FBFD
100
AcDbEntity
  8
寸法
 62
     0
 48
50.0
370
    -2
100
AcDbBlockReference
  2
_DOTSMALL
 10
7654.378706623595
 20
1666.844112873078
 30
0.0
 41
100.0
 42
100.0
 43
100.0
 50
90.0
  0
INSERT
  5
1FC16
330
1FBFD
100
AcDbEntity
  8
寸法
 62
     0
 48
50.0
370
    -2
100
AcDbBlockReference
  2
_DOTSMALL
 10
7654.378706623595
 20
1466.844112873077
 30
0.0
 41
100.0
 42
100.0
 43
100.0
 50
270.0
  0
MTEXT
  5
1FC17
330
1FBFD
100
AcDbEntity
  8
寸法
 62
     7
 48
50.0
100
AcDbMText
 10
7554.378706623595
 20
1566.844112873079
 30
0.0
 40
120.0
 41
0.0
 71
     5
 72
     1
  1
\A1;a
  7
STYLE1
 11
0.0000000000000001
 21
1.0
 31
0.0
 73
     1
 44
1.0
1001
ACAD
1000
MTEXTBEGIN
1070
    73
1070
     1
1070
    44
1040
1.0
1070
    74
1070
     0
1000
MTEXTEND
  0
POINT
  5
1FC18
330
1FBFD
100
AcDbEntity
  8
DEFPOINTS
 62
     0
 48
50.0
100
AcDbPoint
 10
7406.307702263202
 20
1666.844112873078
 30
0.0
  0
POINT
  5
1FC19
330
1FBFD
100
AcDbEntity
  8
DEFPOINTS
 62
     0
 48
50.0
100
AcDbPoint
 10
7406.307702263203
 20
1466.844112873077
 30
0.0
  0
POINT
  5
1FC1A
330
1FBFD
100
AcDbEntity
  8
DEFPOINTS
 62
     0
 48
50.0
100
AcDbPoint
 10
7654.378706623595
 20
1466.844112873077
 30
0.0
  0
ENDBLK
  5
1FC08
330
1FBFD
100
AcDbEntity
  8
0
 48
50.0
100
AcDbBlockEnd
  0
BLOCK
  5
1FC59
330
1FC4D
100
AcDbEntity
  8
0
 48
50.0
100
AcDbBlockBegin
  2
*D40
 70
     1
 10
0.0
 20
0.0
 30
0.0
  3
*D40
  1

  0
LINE
  5
1FCAC
330
1FC4D
100
AcDbEntity
  8
寸法
 62
     0
 48
50.0
370
    -2
100
AcDbLine
 10
7336.6
 20
5425.0
 30
0.0
 11
7051.185718602908
 21
5425.0
 31
0.0
  0
LINE
  5
1FCAD
330
1FC4D
100
AcDbEntity
  8
寸法
 62
     0
 48
50.0
370
    -2
100
AcDbLine
 10
7270.543893583841
 20
5499.999999999999
 30
0.0
 11
7051.185718602908
 21
5499.999999999999
 31
0.0
  0
LINE
  5
1FCAE
330
1FC4D
100
AcDbEntity
  8
寸法
 62
     0
 48
50.0
370
    -2
100
AcDbLine
 10
7111.185718602908
 20
5499.999999999999
 30
0.0
 11
7111.185718602908
 21
5599.999999999998
 31
0.0
  0
LINE
  5
1FCAF
330
1FC4D
100
AcDbEntity
  8
寸法
 62
     0
 48
50.0
370
    -2
100
AcDbLine
 10
7111.185718602908
 20
5425.0
 30
0.0
 11
7111.185718602908
 21
4558.029437251522
 31
0.0
  0
LINE
  5
1FCB0
330
1FC4D
100
AcDbEntity
  8
寸法
 62
     0
 48
50.0
370
    -2
100
AcDbLine
 10
7111.185718602908
 20
5499.999999999999
 30
0.0
 11
7111.185718602908
 21
5425.0
 31
0.0
  0
INSERT
  5
1FCB1
330
1FC4D
100
AcDbEntity
  8
寸法
 62
     0
 48
50.0
370
    -2
100
AcDbBlockReference
  2
_DOTSMALL
 10
7111.185718602908
 20
5499.999999999999
 30
0.0
 41
100.0
 42
100.0
 43
100.0
 50
270.0
  0
INSERT
  5
1FCB2
330
1FC4D
100
AcDbEntity
  8
寸法
 62
     0
 48
50.0
370
    -2
100
AcDbBlockReference
  2
_DOTSMALL
 10
7111.185718602908
 20
5425.0
 30
0.0
 41
100.0
 42
100.0
 43
100.0
 50
90.0
  0
MTEXT
  5
1FCB3
330
1FC4D
100
AcDbEntity
  8
寸法
 62
     7
 48
50.0
100
AcDbMText
 10
7011.185718602907
 20
4891.514718625764
 30
0.0
 40
120.0
 41
0.0
 71
     5
 72
     1
  1
\A1;扉の出75
  7
STYLE1
 11
0.0000000000000001
 21
1.0
 31
0.0
 73
     1
 44
1.0
1001
ACAD
1000
MTEXTBEGIN
1070
    73
1070
     1
1070
    44
1040
1.0
1070
    74
1070
     0
1000
MTEXTEND
  0
POINT
  5
1FCB4
330
1FC4D
100
AcDbEntity
  8
DEFPOINTS
 62
     0
 48
50.0
100
AcDbPoint
 10
7356.6
 20
5425.0
 30
0.0
  0
POINT
  5
1FCB5
330
1FC4D
100
AcDbEntity
  8
DEFPOINTS
 62
     0
 48
50.0
100
AcDbPoint
 10
7290.543893583842
 20
5499.999999999999
 30
0.0
  0
POINT
  5
1FCB6
330
1FC4D
100
AcDbEntity
  8
DEFPOINTS
 62
     0
 48
50.0
100
AcDbPoint
 10
7111.185718602908
 20
5499.999999999999
 30
0.0
  0
ENDBLK
  5
1FC5A
330
1FC4D
100
AcDbEntity
  8
0
 48
50.0
100
AcDbBlockEnd
  0
BLOCK
  5
1FCCA
330
1FCC9
100
AcDbEntity
  8
0
 48
50.0
100
AcDbBlockBegin
  2
*D41
 70
     1
 10
0.0
 20
0.0
 30
0.0
  3
*D41
  1

  0
LINE
  5
1FCCB
330
1FCC9
100
AcDbEntity
  8
寸法
 62
     0
 48
50.0
370
    -2
100
AcDbLine
 10
6399.539401023374
 20
1140.760787611754
 30
0.0
 11
6266.209653947845
 21
1140.760787611754
 31
0.0
  0
LINE
  5
1FCCC
330
1FCC9
100
AcDbEntity
  8
寸法
 62
     0
 48
50.0
370
    -2
100
AcDbLine
 10
6549.539401023373
 20
740.7607876117545
 30
0.0
 11
6266.209653947845
 21
740.7607876117546
 31
0.0
  0
LINE
  5
1FCCD
330
1FCC9
100
AcDbEntity
  8
寸法
 62
     0
 48
50.0
370
    -2
100
AcDbLine
 10
6326.209653947844
 20
1140.760787611754
 30
0.0
 11
6326.209653947844
 21
740.7607876117546
 31
0.0
  0
INSERT
  5
1FCCE
330
1FCC9
100
AcDbEntity
  8
寸法
 62
     0
 48
50.0
370
    -2
100
AcDbBlockReference
  2
_DOTSMALL
 10
6326.209653947844
 20
1140.760787611754
 30
0.0
 41
100.0
 42
100.0
 43
100.0
 50
90.0
  0
INSERT
  5
1FCCF
330
1FCC9
100
AcDbEntity
  8
寸法
 62
     0
 48
50.0
370
    -2
100
AcDbBlockReference
  2
_DOTSMALL
 10
6326.209653947844
 20
740.7607876117546
 30
0.0
 41
100.0
 42
100.0
 43
100.0
 50
270.0
  0
MTEXT
  5
1FCD0
330
1FCC9
100
AcDbEntity
  8
寸法
 62
     7
 48
50.0
100
AcDbMText
 10
6226.197842924222
 20
928.3854207276599
 30
0.0
 40
120.0
 41
0.0
 71
     5
 72
     1
  1
\A1;200
  7
STYLE1
 11
0.0000000000000001
 21
1.0
 31
0.0
 73
     1
 44
1.0
1001
ACAD
1000
MTEXTBEGIN
1070
    73
1070
     1
1070
    44
1040
1.0
1070
    74
1070
     0
1000
MTEXTEND
  0
POINT
  5
1FCD1
330
1FCC9
100
AcDbEntity
  8
DEFPOINTS
 62
     0
 48
50.0
100
AcDbPoint
 10
6419.539401023374
 20
1140.760787611754
 30
0.0
  0
POINT
  5
1FCD2
330
1FCC9
100
AcDbEntity
  8
DEFPOINTS
 62
     0
 48
50.0
100
AcDbPoint
 10
6569.539401023374
 20
740.7607876117545
 30
0.0
  0
POINT
  5
1FCD3
330
1FCC9
100
AcDbEntity
  8
DEFPOINTS
 62
     0
 48
50.0
100
AcDbPoint
 10
6326.209653947844
 20
740.7607876117546
 30
0.0
  0
ENDBLK
  5
1FCD4
330
1FCC9
100
AcDbEntity
  8
0
 48
50.0
100
AcDbBlockEnd
  0
BLOCK
  5
1FCD6
330
1FCD5
100
AcDbEntity
  8
0
 48
50.0
100
AcDbBlockBegin
  2
*D42
 70
     1
 10
0.0
 20
0.0
 30
0.0
  3
*D42
  1

  0
LINE
  5
1FCD7
330
1FCD5
100
AcDbEntity
  8
寸法
 62
     0
 48
50.0
370
    -2
100
AcDbLine
 10
8453.145665141983
 20
1340.760787611756
 30
0.0
 11
8715.358912604882
 21
1340.760787611756
 31
0.0
  0
LINE
  5
1FCD8
330
1FCD5
100
AcDbEntity
  8
寸法
 62
     0
 48
50.0
370
    -2
100
AcDbLine
 10
8472.594902036474
 20
1140.760787611754
 30
0.0
 11
8715.358912604882
 21
1140.760787611754
 31
0.0
  0
LINE
  5
1FCD9
330
1FCD5
100
AcDbEntity
  8
寸法
 62
     0
 48
50.0
370
    -2
100
AcDbLine
 10
8655.358912604883
 20
1340.760787611756
 30
0.0
 11
8655.358912604883
 21
1140.760787611754
 31
0.0
  0
INSERT
  5
1FCDA
330
1FCD5
100
AcDbEntity
  8
寸法
 62
     0
 48
50.0
370
    -2
100
AcDbBlockReference
  2
_DOTSMALL
 10
8655.358912604883
 20
1340.760787611756
 30
0.0
 41
100.0
 42
100.0
 43
100.0
 50
90.0
  0
INSERT
  5
1FCDB
330
1FCD5
100
AcDbEntity
  8
寸法
 62
     0
 48
50.0
370
    -2
100
AcDbBlockReference
  2
_DOTSMALL
 10
8655.358912604883
 20
1140.760787611754
 30
0.0
 41
100.0
 42
100.0
 43
100.0
 50
270.0
  0
MTEXT
  5
1FCDC
330
1FCD5
100
AcDbEntity
  8
寸法
 62
     7
 48
50.0
100
AcDbMText
 10
8555.358912604884
 20
1240.760787611757
 30
0.0
 40
120.0
 41
0.0
 71
     5
 72
     1
  1
\A1;b
  7
STYLE1
 11
0.0000000000000001
 21
1.0
 31
0.0
 73
     1
 44
1.0
1001
ACAD
1000
MTEXTBEGIN
1070
    73
1070
     1
1070
    44
1040
1.0
1070
    74
1070
     0
1000
MTEXTEND
  0
POINT
  5
1FCDD
330
1FCD5
100
AcDbEntity
  8
DEFPOINTS
 62
     0
 48
50.0
100
AcDbPoint
 10
8433.145665141983
 20
1340.760787611756
 30
0.0
  0
POINT
  5
1FCDE
330
1FCD5
100
AcDbEntity
  8
DEFPOINTS
 62
     0
 48
50.0
100
AcDbPoint
 10
8452.594902036473
 20
1140.760787611754
 30
0.0
  0
POINT
  5
1FCDF
330
1FCD5
100
AcDbEntity
  8
DEFPOINTS
 62
     0
 48
50.0
100
AcDbPoint
 10
8655.358912604883
 20
1140.760787611754
 30
0.0
  0
ENDBLK
  5
1FCE0
330
1FCD5
100
AcDbEntity
  8
0
 48
50.0
100
AcDbBlockEnd
  0
BLOCK
  5
1FCE2
330
1FCE1
100
AcDbEntity
  8
0
 48
50.0
100
AcDbBlockBegin
  2
*D43
 70
     1
 10
0.0
 20
0.0
 30
0.0
  3
*D43
  1

  0
LINE
  5
1FCE3
330
1FCE1
100
AcDbEntity
  8
寸法
 62
     0
 48
50.0
370
    -2
100
AcDbLine
 10
9953.038598659123
 20
1440.760787611754
 30
0.0
 11
10195.67415237624
 21
1440.760787611754
 31
0.0
  0
LINE
  5
1FCE4
330
1FCE1
100
AcDbEntity
  8
寸法
 62
     0
 48
50.0
370
    -2
100
AcDbLine
 10
9982.927506749454
 20
1140.760787611754
 30
0.0
 11
10195.67415237624
 21
1140.760787611754
 31
0.0
  0
LINE
  5
1FCE5
330
1FCE1
100
AcDbEntity
  8
寸法
 62
     0
 48
50.0
370
    -2
100
AcDbLine
 10
10135.67415237624
 20
1440.760787611754
 30
0.0
 11
10135.67415237624
 21
1140.760787611754
 31
0.0
  0
INSERT
  5
1FCE6
330
1FCE1
100
AcDbEntity
  8
寸法
 62
     0
 48
50.0
370
    -2
100
AcDbBlockReference
  2
_DOTSMALL
 10
10135.67415237624
 20
1440.760787611754
 30
0.0
 41
100.0
 42
100.0
 43
100.0
 50
90.0
  0
INSERT
  5
1FCE7
330
1FCE1
100
AcDbEntity
  8
寸法
 62
     0
 48
50.0
370
    -2
100
AcDbBlockReference
  2
_DOTSMALL
 10
10135.67415237624
 20
1140.760787611754
 30
0.0
 41
100.0
 42
100.0
 43
100.0
 50
270.0
  0
MTEXT
  5
1FCE8
330
1FCE1
100
AcDbEntity
  8
寸法
 62
     7
 48
50.0
100
AcDbMText
 10
10035.67415237624
 20
1290.760787611756
 30
0.0
 40
120.0
 41
0.0
 71
     5
 72
     1
  1
\A1;c
  7
STYLE1
 11
0.0000000000000001
 21
1.0
 31
0.0
 73
     1
 44
1.0
1001
ACAD
1000
MTEXTBEGIN
1070
    73
1070
     1
1070
    44
1040
1.0
1070
    74
1070
     0
1000
MTEXTEND
  0
POINT
  5
1FCE9
330
1FCE1
100
AcDbEntity
  8
DEFPOINTS
 62
     0
 48
50.0
100
AcDbPoint
 10
9933.038598659123
 20
1440.760787611754
 30
0.0
  0
POINT
  5
1FCEA
330
1FCE1
100
AcDbEntity
  8
DEFPOINTS
 62
     0
 48
50.0
100
AcDbPoint
 10
9962.927506749455
 20
1140.760787611754
 30
0.0
  0
POINT
  5
1FCEB
330
1FCE1
100
AcDbEntity
  8
DEFPOINTS
 62
     0
 48
50.0
100
AcDbPoint
 10
10135.67415237624
 20
1140.760787611754
 30
0.0
  0
ENDBLK
  5
1FCEC
330
1FCE1
100
AcDbEntity
  8
0
 48
50.0
100
AcDbBlockEnd
  0
BLOCK
  5
1FCEE
330
1FCED
100
AcDbEntity
  8
0
 48
50.0
100
AcDbBlockBegin
  2
*D44
 70
     1
 10
0.0
 20
0.0
 30
0.0
  3
*D44
  1

  0
LINE
  5
1FCEF
330
1FCED
100
AcDbEntity
  8
寸法
 62
     0
 48
50.0
370
    -2
100
AcDbLine
 10
6839.539401023376
 20
1340.760787611755
 30
0.0
 11
7127.610405383769
 21
1340.760787611755
 31
0.0
  0
LINE
  5
1FCF0
330
1FCED
100
AcDbEntity
  8
寸法
 62
     0
 48
50.0
370
    -2
100
AcDbLine
 10
6839.539401023377
 20
1140.760787611754
 30
0.0
 11
7127.610405383769
 21
1140.760787611754
 31
0.0
  0
LINE
  5
1FCF1
330
1FCED
100
AcDbEntity
  8
寸法
 62
     0
 48
50.0
370
    -2
100
AcDbLine
 10
7067.610405383771
 20
1340.760787611755
 30
0.0
 11
7067.610405383771
 21
1140.760787611754
 31
0.0
  0
INSERT
  5
1FCF2
330
1FCED
100
AcDbEntity
  8
寸法
 62
     0
 48
50.0
370
    -2
100
AcDbBlockReference
  2
_DOTSMALL
 10
7067.610405383771
 20
1340.760787611755
 30
0.0
 41
100.0
 42
100.0
 43
100.0
 50
90.0
  0
INSERT
  5
1FCF3
330
1FCED
100
AcDbEntity
  8
寸法
 62
     0
 48
50.0
370
    -2
100
AcDbBlockReference
  2
_DOTSMALL
 10
7067.610405383771
 20
1140.760787611754
 30
0.0
 41
100.0
 42
100.0
 43
100.0
 50
270.0
  0
MTEXT
  5
1FCF4
330
1FCED
100
AcDbEntity
  8
寸法
 62
     7
 48
50.0
100
AcDbMText
 10
6967.61040538377
 20
1240.760787611756
 30
0.0
 40
120.0
 41
0.0
 71
     5
 72
     1
  1
\A1;a
  7
STYLE1
 11
0.0000000000000001
 21
1.0
 31
0.0
 73
     1
 44
1.0
1001
ACAD
1000
MTEXTBEGIN
1070
    73
1070
     1
1070
    44
1040
1.0
1070
    74
1070
     0
1000
MTEXTEND
  0
POINT
  5
1FCF5
330
1FCED
100
AcDbEntity
  8
DEFPOINTS
 62
     0
 48
50.0
100
AcDbPoint
 10
6819.539401023376
 20
1340.760787611755
 30
0.0
  0
POINT
  5
1FCF6
330
1FCED
100
AcDbEntity
  8
DEFPOINTS
 62
     0
 48
50.0
100
AcDbPoint
 10
6819.539401023378
 20
1140.760787611754
 30
0.0
  0
POINT
  5
1FCF7
330
1FCED
100
AcDbEntity
  8
DEFPOINTS
 62
     0
 48
50.0
100
AcDbPoint
 10
7067.610405383771
 20
1140.760787611754
 30
0.0
  0
ENDBLK
  5
1FCF8
330
1FCED
100
AcDbEntity
  8
0
 48
50.0
100
AcDbBlockEnd
  0
BLOCK
  5
1FFC3
330
1FFB9
100
AcDbEntity
  8
0
 48
50.0
100
AcDbBlockBegin
  2
*D46
 70
     1
 10
0.0
 20
0.0
 30
0.0
  3
*D46
  1

  0
LINE
  5
1FFE9
330
1FFB9
100
AcDbEntity
  8
寸法
 62
     0
 48
50.0
370
    -2
100
AcDbLine
 10
6839.539401023376
 20
1340.760787611755
 30
0.0
 11
7127.610405383769
 21
1340.760787611755
 31
0.0
  0
LINE
  5
1FFEA
330
1FFB9
100
AcDbEntity
  8
寸法
 62
     0
 48
50.0
370
    -2
100
AcDbLine
 10
6839.539401023377
 20
1140.760787611754
 30
0.0
 11
7127.610405383769
 21
1140.760787611754
 31
0.0
  0
LINE
  5
1FFEB
330
1FFB9
100
AcDbEntity
  8
寸法
 62
     0
 48
50.0
370
    -2
100
AcDbLine
 10
7067.610405383771
 20
1340.760787611755
 30
0.0
 11
7067.610405383771
 21
1140.760787611754
 31
0.0
  0
INSERT
  5
1FFEC
330
1FFB9
100
AcDbEntity
  8
寸法
 62
     0
 48
50.0
370
    -2
100
AcDbBlockReference
  2
_DOTSMALL
 10
7067.610405383771
 20
1340.760787611755
 30
0.0
 41
100.0
 42
100.0
 43
100.0
 50
90.0
  0
INSERT
  5
1FFED
330
1FFB9
100
AcDbEntity
  8
寸法
 62
     0
 48
50.0
370
    -2
100
AcDbBlockReference
  2
_DOTSMALL
 10
7067.610405383771
 20
1140.760787611754
 30
0.0
 41
100.0
 42
100.0
 43
100.0
 50
270.0
  0
MTEXT
  5
1FFEE
330
1FFB9
100
AcDbEntity
  8
寸法
 62
     7
 48
50.0
100
AcDbMText
 10
6967.61040538377
 20
1240.760787611756
 30
0.0
 40
120.0
 41
0.0
 71
     5
 72
     1
  1
\A1;a
  7
STYLE1
 11
0.0000000000000001
 21
1.0
 31
0.0
 73
     1
 44
1.0
1001
ACAD
1000
MTEXTBEGIN
1070
    73
1070
     1
1070
    44
1040
1.0
1070
    74
1070
     0
1000
MTEXTEND
  0
POINT
  5
1FFEF
330
1FFB9
100
AcDbEntity
  8
DEFPOINTS
 62
     0
 48
50.0
100
AcDbPoint
 10
6819.539401023376
 20
1340.760787611755
 30
0.0
  0
POINT
  5
1FFF0
330
1FFB9
100
AcDbEntity
  8
DEFPOINTS
 62
     0
 48
50.0
100
AcDbPoint
 10
6819.539401023378
 20
1140.760787611754
 30
0.0
  0
POINT
  5
1FFF1
330
1FFB9
100
AcDbEntity
  8
DEFPOINTS
 62
     0
 48
50.0
100
AcDbPoint
 10
7067.610405383771
 20
1140.760787611754
 30
0.0
  0
ENDBLK
  5
1FFC4
330
1FFB9
100
AcDbEntity
  8
0
 48
50.0
100
AcDbBlockEnd
  0
BLOCK
  5
1FFCF
330
1FFC5
100
AcDbEntity
  8
0
 48
50.0
100
AcDbBlockBegin
  2
*D47
 70
     1
 10
0.0
 20
0.0
 30
0.0
  3
*D47
  1

  0
LINE
  5
1FFF2
330
1FFC5
100
AcDbEntity
  8
寸法
 62
     0
 48
50.0
370
    -2
100
AcDbLine
 10
9953.038598659123
 20
1440.760787611754
 30
0.0
 11
10195.67415237624
 21
1440.760787611754
 31
0.0
  0
LINE
  5
1FFF3
330
1FFC5
100
AcDbEntity
  8
寸法
 62
     0
 48
50.0
370
    -2
100
AcDbLine
 10
9982.927506749454
 20
1140.760787611754
 30
0.0
 11
10195.67415237624
 21
1140.760787611754
 31
0.0
  0
LINE
  5
1FFF4
330
1FFC5
100
AcDbEntity
  8
寸法
 62
     0
 48
50.0
370
    -2
100
AcDbLine
 10
10135.67415237624
 20
1440.760787611754
 30
0.0
 11
10135.67415237624
 21
1140.760787611754
 31
0.0
  0
INSERT
  5
1FFF5
330
1FFC5
100
AcDbEntity
  8
寸法
 62
     0
 48
50.0
370
    -2
100
AcDbBlockReference
  2
_DOTSMALL
 10
10135.67415237624
 20
1440.760787611754
 30
0.0
 41
100.0
 42
100.0
 43
100.0
 50
90.0
  0
INSERT
  5
1FFF6
330
1FFC5
100
AcDbEntity
  8
寸法
 62
     0
 48
50.0
370
    -2
100
AcDbBlockReference
  2
_DOTSMALL
 10
10135.67415237624
 20
1140.760787611754
 30
0.0
 41
100.0
 42
100.0
 43
100.0
 50
270.0
  0
MTEXT
  5
1FFF7
330
1FFC5
100
AcDbEntity
  8
寸法
 62
     7
 48
50.0
100
AcDbMText
 10
10035.67415237624
 20
1290.760787611756
 30
0.0
 40
120.0
 41
0.0
 71
     5
 72
     1
  1
\A1;c
  7
STYLE1
 11
0.0000000000000001
 21
1.0
 31
0.0
 73
     1
 44
1.0
1001
ACAD
1000
MTEXTBEGIN
1070
    73
1070
     1
1070
    44
1040
1.0
1070
    74
1070
     0
1000
MTEXTEND
  0
POINT
  5
1FFF8
330
1FFC5
100
AcDbEntity
  8
DEFPOINTS
 62
     0
 48
50.0
100
AcDbPoint
 10
9933.038598659123
 20
1440.760787611754
 30
0.0
  0
POINT
  5
1FFF9
330
1FFC5
100
AcDbEntity
  8
DEFPOINTS
 62
     0
 48
50.0
100
AcDbPoint
 10
9962.927506749455
 20
1140.760787611754
 30
0.0
  0
POINT
  5
1FFFA
330
1FFC5
100
AcDbEntity
  8
DEFPOINTS
 62
     0
 48
50.0
100
AcDbPoint
 10
10135.67415237624
 20
1140.760787611754
 30
0.0
  0
ENDBLK
  5
1FFD0
330
1FFC5
100
AcDbEntity
  8
0
 48
50.0
100
AcDbBlockEnd
  0
BLOCK
  5
1FFDB
330
1FFD1
100
AcDbEntity
  8
0
 48
50.0
100
AcDbBlockBegin
  2
*D48
 70
     1
 10
0.0
 20
0.0
 30
0.0
  3
*D48
  1

  0
LINE
  5
1FFFB
330
1FFD1
100
AcDbEntity
  8
寸法
 62
     0
 48
50.0
370
    -2
100
AcDbLine
 10
8453.145665141983
 20
1340.760787611756
 30
0.0
 11
8715.358912604882
 21
1340.760787611756
 31
0.0
  0
LINE
  5
1FFFC
330
1FFD1
100
AcDbEntity
  8
寸法
 62
     0
 48
50.0
370
    -2
100
AcDbLine
 10
8472.594902036474
 20
1140.760787611754
 30
0.0
 11
8715.358912604882
 21
1140.760787611754
 31
0.0
  0
LINE
  5
1FFFD
330
1FFD1
100
AcDbEntity
  8
寸法
 62
     0
 48
50.0
370
    -2
100
AcDbLine
 10
8655.358912604883
 20
1340.760787611756
 30
0.0
 11
8655.358912604883
 21
1140.760787611754
 31
0.0
  0
INSERT
  5
1FFFE
330
1FFD1
100
AcDbEntity
  8
寸法
 62
     0
 48
50.0
370
    -2
100
AcDbBlockReference
  2
_DOTSMALL
 10
8655.358912604883
 20
1340.760787611756
 30
0.0
 41
100.0
 42
100.0
 43
100.0
 50
90.0
  0
INSERT
  5
1FFFF
330
1FFD1
100
AcDbEntity
  8
寸法
 62
     0
 48
50.0
370
    -2
100
AcDbBlockReference
  2
_DOTSMALL
 10
8655.358912604883
 20
1140.760787611754
 30
0.0
 41
100.0
 42
100.0
 43
100.0
 50
270.0
  0
MTEXT
  5
20000
330
1FFD1
100
AcDbEntity
  8
寸法
 62
     7
 48
50.0
100
AcDbMText
 10
8555.358912604884
 20
1240.760787611757
 30
0.0
 40
120.0
 41
0.0
 71
     5
 72
     1
  1
\A1;b
  7
STYLE1
 11
0.0000000000000001
 21
1.0
 31
0.0
 73
     1
 44
1.0
1001
ACAD
1000
MTEXTBEGIN
1070
    73
1070
     1
1070
    44
1040
1.0
1070
    74
1070
     0
1000
MTEXTEND
  0
POINT
  5
20001
330
1FFD1
100
AcDbEntity
  8
DEFPOINTS
 62
     0
 48
50.0
100
AcDbPoint
 10
8433.145665141983
 20
1340.760787611756
 30
0.0
  0
POINT
  5
20002
330
1FFD1
100
AcDbEntity
  8
DEFPOINTS
 62
     0
 48
50.0
100
AcDbPoint
 10
8452.594902036473
 20
1140.760787611754
 30
0.0
  0
POINT
  5
20003
330
1FFD1
100
AcDbEntity
  8
DEFPOINTS
 62
     0
 48
50.0
100
AcDbPoint
 10
8655.358912604883
 20
1140.760787611754
 30
0.0
  0
ENDBLK
  5
1FFDC
330
1FFD1
100
AcDbEntity
  8
0
 48
50.0
100
AcDbBlockEnd
  0
BLOCK
  5
1FFE7
330
1FFDD
100
AcDbEntity
  8
0
 48
50.0
100
AcDbBlockBegin
  2
*D49
 70
     1
 10
0.0
 20
0.0
 30
0.0
  3
*D49
  1

  0
LINE
  5
20004
330
1FFDD
100
AcDbEntity
  8
寸法
 62
     0
 48
50.0
370
    -2
100
AcDbLine
 10
6399.539401023374
 20
1140.760787611754
 30
0.0
 11
6266.209653947845
 21
1140.760787611754
 31
0.0
  0
LINE
  5
20005
330
1FFDD
100
AcDbEntity
  8
寸法
 62
     0
 48
50.0
370
    -2
100
AcDbLine
 10
6549.539401023373
 20
740.7607876117545
 30
0.0
 11
6266.209653947845
 21
740.7607876117546
 31
0.0
  0
LINE
  5
20006
330
1FFDD
100
AcDbEntity
  8
寸法
 62
     0
 48
50.0
370
    -2
100
AcDbLine
 10
6326.209653947844
 20
1140.760787611754
 30
0.0
 11
6326.209653947844
 21
740.7607876117546
 31
0.0
  0
INSERT
  5
20007
330
1FFDD
100
AcDbEntity
  8
寸法
 62
     0
 48
50.0
370
    -2
100
AcDbBlockReference
  2
_DOTSMALL
 10
6326.209653947844
 20
1140.760787611754
 30
0.0
 41
100.0
 42
100.0
 43
100.0
 50
90.0
  0
INSERT
  5
20008
330
1FFDD
100
AcDbEntity
  8
寸法
 62
     0
 48
50.0
370
    -2
100
AcDbBlockReference
  2
_DOTSMALL
 10
6326.209653947844
 20
740.7607876117546
 30
0.0
 41
100.0
 42
100.0
 43
100.0
 50
270.0
  0
MTEXT
  5
20009
330
1FFDD
100
AcDbEntity
  8
寸法
 62
     7
 48
50.0
100
AcDbMText
 10
6226.197842924222
 20
928.3854207276599
 30
0.0
 40
120.0
 41
0.0
 71
     5
 72
     1
  1
\A1;200
  7
STYLE1
 11
0.0000000000000001
 21
1.0
 31
0.0
 73
     1
 44
1.0
1001
ACAD
1000
MTEXTBEGIN
1070
    73
1070
     1
1070
    44
1040
1.0
1070
    74
1070
     0
1000
MTEXTEND
  0
POINT
  5
2000A
330
1FFDD
100
AcDbEntity
  8
DEFPOINTS
 62
     0
 48
50.0
100
AcDbPoint
 10
6419.539401023374
 20
1140.760787611754
 30
0.0
  0
POINT
  5
2000B
330
1FFDD
100
AcDbEntity
  8
DEFPOINTS
 62
     0
 48
50.0
100
AcDbPoint
 10
6569.539401023374
 20
740.7607876117545
 30
0.0
  0
POINT
  5
2000C
330
1FFDD
100
AcDbEntity
  8
DEFPOINTS
 62
     0
 48
50.0
100
AcDbPoint
 10
6326.209653947844
 20
740.7607876117546
 30
0.0
  0
ENDBLK
  5
1FFE8
330
1FFDD
100
AcDbEntity
  8
0
 48
50.0
100
AcDbBlockEnd
  0
ENDSEC
  0
SECTION
  2
ENTITIES
  0
LINE
  5
10B57
330
747D
100
AcDbEntity
  8
補助
  6
PHANTOM
 62
   230
 48
50.0
100
AcDbLine
 10
139.9999999999995
 20
11409.6
 30
0.0
 11
16307.2
 21
11409.6
 31
0.0
  0
LINE
  5
10B59
330
747D
100
AcDbEntity
  8
仕様書枠
  6
Continuous
 48
50.0
100
AcDbLine
 10
13107.2
 20
1200.0
 30
0.0
 11
13107.2
 21
-0.0000000000000729
 31
0.0
  0
LINE
  5
10B5C
330
747D
100
AcDbEntity
  8
仕様書枠
 48
50.0
100
AcDbLine
 10
16307.2
 20
1200.0
 30
0.0
 11
16307.2
 21
-0.0000000000000909
 31
0.0
  0
LINE
  5
10B5D
330
747D
100
AcDbEntity
  8
仕様書枠
 48
50.0
100
AcDbLine
 10
140.0
 20
0.0
 30
0.0
 11
16307.2
 21
-0.0000000000000909
 31
0.0
  0
LINE
  5
10B5E
330
747D
100
AcDbEntity
  8
補助
  6
PHANTOM
 62
   230
 48
50.0
100
AcDbLine
 10
16307.2
 20
11409.6
 30
0.0
 11
16307.2
 21
1200.0
 31
0.0
  0
LINE
  5
10B6C
330
747D
100
AcDbEntity
  8
仕様書枠
 48
50.0
100
AcDbLine
 10
13107.2
 20
1200.0
 30
0.0
 11
16307.2
 21
1200.0
 31
0.0
  0
LINE
  5
10B6D
330
747D
100
AcDbEntity
  8
補助
  6
PHANTOM
 62
   230
 48
50.0
100
AcDbLine
 10
13107.2
 20
11409.6
 30
0.0
 11
13107.2
 21
4800.0
 31
0.0
  0
LINE
  5
10B6F
330
747D
100
AcDbEntity
  8
補助
  6
PHANTOM
 62
   230
 48
50.0
100
AcDbLine
 10
13107.2
 20
4800.0
 30
0.0
 11
16307.2
 21
4800.0
 31
0.0
  0
LINE
  5
10B72
330
747D
100
AcDbEntity
  8
文字
 62
     7
 48
50.0
100
AcDbLine
 10
13187.2
 20
400.0
 30
0.0
 11
16227.2
 21
400.0
 31
0.0
  0
TEXT
  5
10B73
330
747D
100
AcDbEntity
  8
文字
 62
     7
 48
50.0
100
AcDbText
 10
13162.9790565769
 20
895.0906074299405
 30
0.0
 40
200.0
  1
基 礎 図
  7
STYLE2
100
AcDbText
  0
TEXT
  5
10B74
330
747D
100
AcDbEntity
  8
文字
 62
     7
 48
50.0
100
AcDbText
 10
13201.43669998441
 20
477.2740661031255
 30
0.0
 40
160.0
  1
機種名
  7
STYLE2
100
AcDbText
  0
TEXT
  5
10B79
330
747D
100
AcDbEntity
  8
文字
 62
     7
 48
50.0
100
AcDbText
 10
14524.131837222
 20
1031.557706291228
 30
0.0
 40
100.0
  1
NO.07      <縮尺> S=1/40
  7
STYLE2
100
AcDbText
  0
LINE
  5
10B7B
330
747D
100
AcDbEntity
  8
仕様書枠
 48
50.0
100
AcDbLine
 10
13107.2
 20
800.0
 30
0.0
 11
14251.2
 21
800.0
 31
0.0
  0
LINE
  5
10B88
330
747D
100
AcDbEntity
  8
仕様書枠
  6
Continuous
 48
50.0
100
AcDbLine
 10
14251.2
 20
1200.0
 30
0.0
 11
14251.2
 21
800.0
 31
0.0
  0
TEXT
  5
14DEF
330
747D
100
AcDbEntity
  8
文字
 62
     7
 48
50.0
100
AcDbText
 10
14641.2525855784
 20
871.1744590657925
 30
0.0
 40
100.0
  1
～一般型・多雪地型～
  7
STYLE2
100
AcDbText
  0
TEXT
  5
15A76
330
747D
100
AcDbEntity
  8
文字
 62
     7
 48
50.0
100
AcDbText
 10
14319.00095699762
 20
488.1241585855691
 30
0.0
 40
160.0
  1
NXP-50ST・HT
  7
STYLE2
100
AcDbText
  0
TEXT
  5
1C9B2
330
747D
100
AcDbEntity
  8
部品1
 48
50.0
100
AcDbText
 10
9907.367337153674
 20
5908.154775489851
 30
0.0
 40
80.0
  1
(a=50,b=60,c=80)
  7
STYLE1
100
AcDbText
  0
TEXT
  5
1C9B3
330
747D
100
AcDbEntity
  8
部品1
 48
50.0
100
AcDbText
 10
9793.667096427725
 20
6041.711301575794
 30
0.0
 40
80.0
  1
※a,b,cは屋根の出幅です。
  7
STYLE1
100
AcDbText
  0
MTEXT
  5
1C9B4
102
{ACAD_REACTORS
330
1C9B5
102
}
330
747D
100
AcDbEntity
  8
部品1
 62
     7
 48
50.0
100
AcDbMText
 10
10659.83718660449
 20
6253.37920177526
 30
0.0
 40
120.0
 41
0.0
 71
     6
 72
     1
  1
\A1;屋根の外寸
  7
STYLE1
 73
     1
 44
1.0
1001
ACAD
1000
MTEXTBEGIN
1070
    73
1070
     1
1070
    44
1040
1.0
1070
    74
1070
     0
1000
MTEXTEND
  0
LEADER
  5
1C9B5
330
747D
100
AcDbEntity
  8
寸法
 48
50.0
100
AcDbLeader
  3
INABA_S50G
 71
     0
 73
     0
 74
     0
 75
     1
 40
120.0
 41
672.0
 76
     3
 10
9589.6
 20
6548.396593735052
 30
0.0
 10
9837.837186604494
 20
6168.37920177526
 30
0.0
 10
9962.837186604494
 20
6168.37920177526
 30
0.0
340
1C9B4
1001
ACAD
1000
DSTYLE
1002
{
1070
   341
1005
1C530
1070
    40
1040
1.0
1070
   343
1005
1C530
1070
   344
1005
1C530
1002
}
  0
LINE
  5
1C9BB
330
747D
100
AcDbEntity
  8
想像線
 48
10.0
100
AcDbLine
 10
9589.6
 20
5439.999999999996
 30
0.0
 11
6860.600000000001
 21
5440.000000000001
 31
0.0
  0
LINE
  5
1C9BC
330
747D
100
AcDbEntity
  8
想像線
 48
10.0
100
AcDbLine
 10
6860.599999999998
 20
7372.0
 30
0.0
 11
9586.599999999997
 21
7372.000000000001
 31
0.0
  0
DIMENSION
  5
1CAB6
330
747D
100
AcDbEntity
  8
寸法
 48
50.0
100
AcDbDimension
  2
*D2
 10
6466.888116550748
 20
5440.0
 30
0.0
 11
6466.888116550748
 21
5470.000000000002
 31
0.0
 70
   160
  1
b
 71
     5
 42
60.0
  3
INABA_S40G
100
AcDbAlignedDimension
 13
6907.599999999999
 23
5500.0
 33
0.0
 14
6857.599999999999
 24
5440.0
 34
0.0
 50
90.0
100
AcDbRotatedDimension
1001
ACAD
1000
DSTYLE
1002
{
1070
   174
1070
     0
1070
   272
1070
     1
1070
   288
1070
     0
1070
   341
1005
0
1002
}
  0
DIMENSION
  5
1CAB7
330
747D
100
AcDbEntity
  8
寸法
 48
50.0
100
AcDbDimension
  2
*D3
 10
6466.888116550748
 20
5500.0
 30
0.0
 11
6366.847303985945
 21
6396.000000000002
 31
0.0
 70
    32
 71
     5
 42
1792.0
  3
INABA_S40G
100
AcDbAlignedDimension
 13
6907.599999999999
 23
7292.0
 33
0.0
 14
6907.599999999999
 24
5500.0
 34
0.0
 50
90.0
100
AcDbRotatedDimension
1001
ACAD
1000
DSTYLE
1002
{
1070
   174
1070
     0
1070
   272
1070
     1
1070
   288
1070
     0
1070
   341
1005
0
1002
}
  0
DIMENSION
  5
1CAB8
330
747D
100
AcDbEntity
  8
寸法
 48
50.0
100
AcDbDimension
  2
*D4
 10
6466.888116550748
 20
7292.0
 30
0.0
 11
6466.888116550747
 21
7332.000000000002
 31
0.0
 70
   160
  1
c
 71
     5
 42
80.0
  3
INABA_S40G
100
AcDbAlignedDimension
 13
6857.599999999999
 23
7372.0
 33
0.0
 14
6907.599999999999
 24
7292.0
 34
0.0
 50
90.0
100
AcDbRotatedDimension
1001
ACAD
1000
DSTYLE
1002
{
1070
   174
1070
     0
1070
   272
1070
     1
1070
   288
1070
     0
1070
   341
1005
0
1002
}
  0
LINE
  5
1CAB9
330
747D
100
AcDbEntity
  8
想像線
 48
10.0
100
AcDbLine
 10
6857.600000000001
 20
5443.000000000001
 30
0.0
 11
6857.599999999999
 21
7368.999999999997
 31
0.0
  0
LINE
  5
1CABA
330
747D
100
AcDbEntity
  8
部品1
 48
50.0
100
AcDbLine
 10
7297.6
 20
5500.000000000003
 30
0.0
 11
6907.599999999999
 21
5500.0
 31
0.0
  0
LINE
  5
1CABB
330
747D
100
AcDbEntity
  8
部品1
 48
50.0
100
AcDbLine
 10
7297.6
 20
5500.0
 30
0.0
 11
6907.599999999999
 21
5500.0
 31
0.0
  0
LINE
  5
1CABC
330
747D
100
AcDbEntity
  8
部品1
 48
50.0
100
AcDbLine
 10
7297.6
 20
5690.0
 30
0.0
 11
6907.599999999999
 21
5690.0
 31
0.0
  0
LINE
  5
1CAC0
330
747D
100
AcDbEntity
  8
部品1
 48
50.0
100
AcDbLine
 10
6907.599999999999
 20
5690.0
 30
0.0
 11
6907.599999999999
 21
5500.0
 31
0.0
  0
LINE
  5
1CAC2
330
747D
100
AcDbEntity
  8
部品1
 48
50.0
100
AcDbLine
 10
7297.6
 20
5690.0
 30
0.0
 11
7297.6
 21
5500.0
 31
0.0
  0
LINE
  5
1CAC3
330
747D
100
AcDbEntity
  8
部品1
 48
50.0
100
AcDbLine
 10
7903.600000000003
 20
5425.000000000006
 30
0.0
 11
7713.600000000004
 21
5425.000000000006
 31
0.0
  0
LINE
  5
1CAC4
330
747D
100
AcDbEntity
  8
部品1
 48
50.0
100
AcDbLine
 10
7903.600000000003
 20
5615.000000000005
 30
0.0
 11
7713.600000000004
 21
5615.000000000005
 31
0.0
  0
LINE
  5
1CAC5
330
747D
100
AcDbEntity
  8
部品1
 48
50.0
100
AcDbLine
 10
7713.600000000004
 20
5425.000000000009
 30
0.0
 11
7713.600000000004
 21
5615.000000000009
 31
0.0
  0
LINE
  5
1CAC6
330
747D
100
AcDbEntity
  8
部品1
 48
50.0
100
AcDbLine
 10
7903.600000000003
 20
5425.000000000009
 30
0.0
 11
7903.600000000003
 21
5615.000000000009
 31
0.0
  0
LINE
  5
1CAC7
330
747D
100
AcDbEntity
  8
部品1
 48
50.0
100
AcDbLine
 10
7297.599999999999
 20
7292.0
 30
0.0
 11
6907.599999999999
 21
7292.0
 31
0.0
  0
LINE
  5
1CAC8
330
747D
100
AcDbEntity
  8
部品1
 48
50.0
100
AcDbLine
 10
7297.599999999999
 20
7291.999999999996
 30
0.0
 11
6907.599999999999
 21
7292.0
 31
0.0
  0
LINE
  5
1CAC9
330
747D
100
AcDbEntity
  8
部品1
 48
50.0
100
AcDbLine
 10
7297.599999999999
 20
7102.0
 30
0.0
 11
6907.599999999999
 21
7102.0
 31
0.0
  0
LINE
  5
1CACE
330
747D
100
AcDbEntity
  8
部品1
 48
50.0
100
AcDbLine
 10
6907.599999999999
 20
7102.0
 30
0.0
 11
6907.599999999999
 21
7292.0
 31
0.0
  0
LINE
  5
1CAD0
330
747D
100
AcDbEntity
  8
部品1
 48
50.0
100
AcDbLine
 10
7297.599999999999
 20
7102.0
 30
0.0
 11
7297.599999999999
 21
7292.0
 31
0.0
  0
LINE
  5
1CAD1
330
747D
100
AcDbEntity
  8
部品1
 48
50.0
100
AcDbLine
 10
7903.600000000001
 20
7292.000000000006
 30
0.0
 11
7713.600000000003
 21
7292.000000000006
 31
0.0
  0
LINE
  5
1CAD2
330
747D
100
AcDbEntity
  8
部品1
 48
50.0
100
AcDbLine
 10
7903.600000000001
 20
7102.000000000005
 30
0.0
 11
7713.600000000003
 21
7102.000000000005
 31
0.0
  0
LINE
  5
1CAD3
330
747D
100
AcDbEntity
  8
部品1
 48
50.0
100
AcDbLine
 10
7713.600000000003
 20
7102.00000000001
 30
0.0
 11
7713.600000000003
 21
7292.000000000008
 31
0.0
  0
LINE
  5
1CAD4
330
747D
100
AcDbEntity
  8
部品1
 48
50.0
100
AcDbLine
 10
7903.600000000001
 20
7102.00000000001
 30
0.0
 11
7903.600000000001
 21
7292.000000000008
 31
0.0
  0
LINE
  5
1CCF0
330
747D
100
AcDbEntity
  8
想像線
 48
10.0
100
AcDbLine
 10
9589.599999999997
 20
7369.000000000003
 30
0.0
 11
9589.600000000004
 21
5440.0
 31
0.0
  0
LINE
  5
1CCF3
330
747D
100
AcDbEntity
  8
部品1
 48
50.0
100
AcDbLine
 10
9149.600000000001
 20
5690.0
 30
0.0
 11
9539.6
 21
5690.0
 31
0.0
  0
LINE
  5
1CCF4
330
747D
100
AcDbEntity
  8
部品1
 48
50.0
100
AcDbLine
 10
9149.600000000001
 20
5500.0
 30
0.0
 11
9539.6
 21
5500.0
 31
0.0
  0
LINE
  5
1CCF5
330
747D
100
AcDbEntity
  8
部品1
 48
50.0
100
AcDbLine
 10
9149.600000000001
 20
5500.000000000003
 30
0.0
 11
9539.6
 21
5500.0
 31
0.0
  0
LINE
  5
1CCF6
330
747D
100
AcDbEntity
  8
部品1
 48
50.0
100
AcDbLine
 10
9149.600000000001
 20
5690.0
 30
0.0
 11
9149.600000000001
 21
5500.0
 31
0.0
  0
LINE
  5
1CCFB
330
747D
100
AcDbEntity
  8
部品1
 48
50.0
100
AcDbLine
 10
9539.6
 20
5690.0
 30
0.0
 11
9539.6
 21
5500.0
 31
0.0
  0
LINE
  5
1CCFF
330
747D
100
AcDbEntity
  8
部品1
 48
50.0
100
AcDbLine
 10
9149.599999999997
 20
7291.999999999996
 30
0.0
 11
9539.599999999998
 21
7292.0
 31
0.0
  0
LINE
  5
1CD00
330
747D
100
AcDbEntity
  8
部品1
 48
50.0
100
AcDbLine
 10
9149.599999999997
 20
7292.0
 30
0.0
 11
9539.599999999998
 21
7292.0
 31
0.0
  0
LINE
  5
1CD01
330
747D
100
AcDbEntity
  8
部品1
 48
50.0
100
AcDbLine
 10
9149.599999999997
 20
7102.0
 30
0.0
 11
9539.599999999998
 21
7102.0
 31
0.0
  0
LINE
  5
1CD02
330
747D
100
AcDbEntity
  8
部品1
 48
50.0
100
AcDbLine
 10
9149.599999999997
 20
7102.0
 30
0.0
 11
9149.599999999997
 21
7292.0
 31
0.0
  0
LINE
  5
1CD04
330
747D
100
AcDbEntity
  8
部品1
 48
50.0
100
AcDbLine
 10
9539.599999999998
 20
7102.0
 30
0.0
 11
9539.599999999998
 21
7292.0
 31
0.0
  0
TEXT
  5
1D002
330
747D
100
AcDbEntity
  8
文字
 62
     7
 48
50.0
100
AcDbText
 10
13188.16259899338
 20
246.7109242801889
 30
0.0
 40
80.0
  1
※寒冷地等は地域の実情に合わせた基礎にして下さい。
  7
STYLE2
100
AcDbText
  0
TEXT
  5
1D6DB
330
747D
100
AcDbEntity
  8
部品1
 48
50.0
100
AcDbText
 10
8105.007573782044
 20
5281.533387806432
 30
0.0
 40
120.0
  1
扉面
  7
STYLE1
 72
     1
 11
8233.007573782044
 21
5265.533387806431
 31
0.0
100
AcDbText
 73
     1
  0
LINE
  5
1DD81
330
747D
100
AcDbEntity
  8
想像線
 48
10.0
100
AcDbLine
 10
6860.599999999998
 20
7372.0
 30
0.0
 11
6857.599999999999
 21
7369.0
 31
0.0
  0
LINE
  5
1DD82
330
747D
100
AcDbEntity
  8
想像線
 48
10.0
100
AcDbLine
 10
9586.599999999998
 20
7372.000000000004
 30
0.0
 11
9589.599999999999
 21
7369.000000000004
 31
0.0
  0
LINE
  5
1E472
330
747D
100
AcDbEntity
  8
想像線
 48
10.0
100
AcDbLine
 10
6860.599999999998
 20
7371.999999999999
 30
0.0
 11
6857.599999999999
 21
7368.999999999999
 31
0.0
  0
LINE
  5
1E473
330
747D
100
AcDbEntity
  8
想像線
 48
10.0
100
AcDbLine
 10
9586.599999999997
 20
7372.000000000001
 30
0.0
 11
9589.599999999997
 21
7369.000000000003
 31
0.0
  0
LINE
  5
1E665
330
747D
100
AcDbEntity
  8
想像線
 48
10.0
100
AcDbLine
 10
6860.599999999998
 20
7371.999999999997
 30
0.0
 11
6857.599999999999
 21
7368.999999999997
 31
0.0
  0
LINE
  5
1E666
330
747D
100
AcDbEntity
  8
想像線
 48
10.0
100
AcDbLine
 10
6857.600000000001
 20
5443.000000000001
 30
0.0
 11
6860.600000000001
 21
5440.000000000001
 31
0.0
  0
DIMENSION
  5
1E8F8
330
747D
100
AcDbEntity
  8
寸法
 48
50.0
100
AcDbDimension
  2
*D34
 10
9539.599999999998
 20
8058.551625802023
 30
0.0
 11
8223.599999999999
 21
8058.551625802023
 31
0.0
 70
   160
 71
     5
 42
2632.0
  3
INABA_S40G
100
AcDbAlignedDimension
 13
6907.599999999999
 23
7292.0
 33
0.0
 14
9539.599999999998
 24
7312.0
 34
0.0
100
AcDbRotatedDimension
1001
ACAD
1000
DSTYLE
1002
{
1070
   174
1070
     0
1070
   272
1070
     1
1070
   288
1070
     0
1070
   341
1005
0
1002
}
  0
DIMENSION
  5
1E8F9
330
747D
100
AcDbEntity
  8
寸法
 48
50.0
100
AcDbDimension
  2
*D33
 10
6907.599999999999
 20
8058.551625802023
 30
0.0
 11
6882.6
 21
8058.551625802023
 31
0.0
 70
   160
  1
a
 71
     5
 42
50.0
  3
INABA_S40G
100
AcDbAlignedDimension
 13
6857.599999999999
 23
7372.0
 33
0.0
 14
6907.599999999999
 24
7292.0
 34
0.0
100
AcDbRotatedDimension
1001
ACAD
1000
DSTYLE
1002
{
1070
   174
1070
     0
1070
   272
1070
     1
1070
   288
1070
     0
1070
   341
1005
0
1002
}
  0
DIMENSION
  5
1E8FA
330
747D
100
AcDbEntity
  8
寸法
 48
50.0
100
AcDbDimension
  2
*D32
 10
9589.599999999999
 20
8058.551625802023
 30
0.0
 11
9564.599999999998
 21
8058.551625802023
 31
0.0
 70
   160
  1
a
 71
     5
 42
50.0
  3
INABA_S40G
100
AcDbAlignedDimension
 13
9539.599999999998
 23
7292.0
 33
0.0
 14
9589.599999999999
 24
7372.000000000004
 34
0.0
100
AcDbRotatedDimension
1001
ACAD
1000
DSTYLE
1002
{
1070
   174
1070
     0
1070
   272
1070
     1
1070
   288
1070
     0
1070
   341
1005
0
1002
}
  0
DIMENSION
  5
1E8FB
330
747D
100
AcDbEntity
  8
寸法
 48
50.0
100
AcDbDimension
  2
*D31
 10
8638.600000000002
 20
7800.624237135962
 30
0.0
 11
8223.600000000002
 21
7900.624237135962
 31
0.0
 70
    32
 71
     5
 42
830.0
  3
INABA_S40G
100
AcDbAlignedDimension
 13
7808.600000000002
 23
7292.000000000006
 33
0.0
 14
8638.600000000002
 24
7292.000000000005
 34
0.0
100
AcDbRotatedDimension
1001
ACAD
1000
DSTYLE
1002
{
1070
   174
1070
     0
1070
   272
1070
     1
1070
   288
1070
     0
1070
   341
1005
0
1002
}
  0
DIMENSION
  5
1E8FC
330
747D
100
AcDbEntity
  8
寸法
 48
50.0
100
AcDbDimension
  2
*D30
 10
6907.599999999999
 20
7800.624237135962
 30
0.0
 11
7358.1
 21
7900.624237135962
 31
0.0
 70
    32
 71
     5
 42
901.0000000000037
  3
INABA_S40G
100
AcDbAlignedDimension
 13
7808.600000000002
 23
7312.000000000006
 33
0.0
 14
6907.599999999999
 24
7292.0
 34
0.0
100
AcDbRotatedDimension
1001
ACAD
1000
DSTYLE
1002
{
1070
   174
1070
     0
1070
   272
1070
     1
1070
   288
1070
     0
1070
   341
1005
0
1002
}
  0
DIMENSION
  5
1E8FD
330
747D
100
AcDbEntity
  8
寸法
 48
50.0
100
AcDbDimension
  2
*D29
 10
9539.599999999998
 20
7800.624237135962
 30
0.0
 11
9089.1
 21
7900.624237135962
 31
0.0
 70
    32
 71
     5
 42
900.9999999999964
  3
INABA_S40G
100
AcDbAlignedDimension
 13
8638.600000000002
 23
7292.000000000005
 33
0.0
 14
9539.599999999998
 24
7391.999999999992
 34
0.0
100
AcDbRotatedDimension
1001
ACAD
1000
DSTYLE
1002
{
1070
   174
1070
     0
1070
   272
1070
     1
1070
   288
1070
     0
1070
   341
1005
0
1002
}
  0
DIMENSION
  5
1E9AA
330
747D
100
AcDbEntity
  8
寸法
 48
50.0
100
AcDbDimension
  2
*D35
 10
9539.599999999998
 20
8058.551625802023
 30
0.0
 11
8223.599999999999
 21
8058.551625802023
 31
0.0
 70
   160
 71
     5
 42
2632.0
  3
INABA_S40G
100
AcDbAlignedDimension
 13
6907.599999999999
 23
7292.0
 33
0.0
 14
9539.599999999998
 24
7312.0
 34
0.0
100
AcDbRotatedDimension
1001
ACAD
1000
DSTYLE
1002
{
1070
   174
1070
     0
1070
   272
1070
     1
1070
   288
1070
     0
1070
   341
1005
0
1002
}
  0
LINE
  5
1E9C4
330
747D
100
AcDbEntity
  8
部品1
 48
50.0
100
AcDbLine
 10
8733.6
 20
7102.000000000008
 30
0.0
 11
8733.6
 21
7292.000000000007
 31
0.0
  0
LINE
  5
1E9C5
330
747D
100
AcDbEntity
  8
部品1
 48
50.0
100
AcDbLine
 10
8543.600000000003
 20
7102.000000000008
 30
0.0
 11
8543.600000000003
 21
7292.000000000007
 31
0.0
  0
LINE
  5
1E9C6
330
747D
100
AcDbEntity
  8
部品1
 48
50.0
100
AcDbLine
 10
8733.6
 20
7102.000000000003
 30
0.0
 11
8543.600000000003
 21
7102.000000000003
 31
0.0
  0
LINE
  5
1E9C7
330
747D
100
AcDbEntity
  8
部品1
 48
50.0
100
AcDbLine
 10
8733.6
 20
7292.000000000005
 30
0.0
 11
8543.600000000003
 21
7292.000000000005
 31
0.0
  0
LINE
  5
1E9C8
330
747D
100
AcDbEntity
  8
部品1
 48
50.0
100
AcDbLine
 10
8733.600000000002
 20
5425.000000000007
 30
0.0
 11
8733.600000000002
 21
5615.000000000008
 31
0.0
  0
LINE
  5
1E9C9
330
747D
100
AcDbEntity
  8
部品1
 48
50.0
100
AcDbLine
 10
8543.600000000003
 20
5425.000000000007
 30
0.0
 11
8543.600000000003
 21
5615.000000000008
 31
0.0
  0
LINE
  5
1E9CA
330
747D
100
AcDbEntity
  8
部品1
 48
50.0
100
AcDbLine
 10
8733.600000000002
 20
5615.000000000003
 30
0.0
 11
8543.600000000003
 21
5615.000000000003
 31
0.0
  0
LINE
  5
1E9CB
330
747D
100
AcDbEntity
  8
部品1
 48
50.0
100
AcDbLine
 10
8733.600000000002
 20
5425.000000000004
 30
0.0
 11
8543.600000000003
 21
5425.000000000004
 31
0.0
  0
LEADER
  5
1EB63
330
747D
100
AcDbEntity
  8
寸法
 48
50.0
100
AcDbLeader
  3
INABA_S50G
 71
     0
 73
     0
 74
     0
 75
     1
 40
120.0
 41
1282.349242404918
 76
     3
 10
9634.440685572831
 20
7281.456639287917
 30
0.0
 10
9890.827897155237
 20
7477.800576904058
 30
0.0
 10
10015.82789715523
 20
7477.800576904058
 30
0.0
340
1EB64
1001
ACAD
1000
DSTYLE
1002
{
1070
   341
1005
1C530
1070
    40
1040
1.0
1070
   343
1005
1C530
1070
   344
1005
1C530
1002
}
  0
MTEXT
  5
1EB64
102
{ACAD_REACTORS
330
1EB63
102
}
330
747D
100
AcDbEntity
  8
部品1
 62
     7
 48
50.0
100
AcDbMText
 10
10040.82789715523
 20
7562.800576904057
 30
0.0
 40
120.0
 41
0.0
 71
     4
 72
     1
  1
現場打コンクリート
  7
STYLE1
 73
     1
 44
1.0
1001
ACAD
1000
MTEXTBEGIN
1070
    73
1070
     1
1070
    44
1040
1.0
1070
    74
1070
     0
1000
MTEXTEND
  0
TEXT
  5
1EB65
330
747D
100
AcDbEntity
  8
部品1
 48
50.0
100
AcDbText
 10
10048.95182925034
 20
7689.278165376134
 30
0.0
 40
120.0
  1
組立後
  7
STYLE1
100
AcDbText
  0
LINE
  5
1ECE1
330
747D
100
AcDbEntity
  8
点線
 48
10.0
100
AcDbLine
 10
9639.599999999999
 20
5599.999999999999
 30
0.0
 11
9639.600000000001
 21
5399.999999999999
 31
0.0
  0
LINE
  5
1ECE2
330
747D
100
AcDbEntity
  8
点線
 48
10.0
100
AcDbLine
 10
9439.6
 20
5399.999999999999
 30
0.0
 11
9639.600000000001
 21
5399.999999999999
 31
0.0
  0
LINE
  5
1ECE3
330
747D
100
AcDbEntity
  8
点線
 48
10.0
100
AcDbLine
 10
9439.6
 20
5600.0
 30
0.0
 11
9439.6
 21
5399.999999999999
 31
0.0
  0
LINE
  5
1ECE4
330
747D
100
AcDbEntity
  8
点線
 48
10.0
100
AcDbLine
 10
9439.6
 20
5600.0
 30
0.0
 11
9639.599999999999
 21
5599.999999999999
 31
0.0
  0
LINE
  5
1ECE5
330
747D
100
AcDbEntity
  8
点線
 48
10.0
100
AcDbLine
 10
6807.6
 20
5399.999999999999
 30
0.0
 11
7007.6
 21
5399.999999999999
 31
0.0
  0
LINE
  5
1ECE6
330
747D
100
AcDbEntity
  8
点線
 48
10.0
100
AcDbLine
 10
6807.6
 20
5600.0
 30
0.0
 11
6807.6
 21
5399.999999999999
 31
0.0
  0
LINE
  5
1ECE7
330
747D
100
AcDbEntity
  8
点線
 48
10.0
100
AcDbLine
 10
7007.6
 20
5599.999999999999
 30
0.0
 11
7007.6
 21
5399.999999999999
 31
0.0
  0
LINE
  5
1ECE8
330
747D
100
AcDbEntity
  8
点線
 48
10.0
100
AcDbLine
 10
6807.6
 20
5600.0
 30
0.0
 11
7007.6
 21
5599.999999999999
 31
0.0
  0
LINE
  5
1ED13
330
747D
100
AcDbEntity
  8
点線
 48
10.0
100
AcDbLine
 10
6807.599999999999
 20
7191.999999999992
 30
0.0
 11
7007.6
 21
7191.999999999992
 31
0.0
  0
LINE
  5
1ED14
330
747D
100
AcDbEntity
  8
点線
 48
10.0
100
AcDbLine
 10
7007.599999999996
 20
7391.999999999992
 30
0.0
 11
7007.6
 21
7191.999999999992
 31
0.0
  0
LINE
  5
1ED15
330
747D
100
AcDbEntity
  8
点線
 48
10.0
100
AcDbLine
 10
6807.599999999999
 20
7391.999999999993
 30
0.0
 11
6807.599999999999
 21
7191.999999999992
 31
0.0
  0
LINE
  5
1ED16
330
747D
100
AcDbEntity
  8
点線
 48
10.0
100
AcDbLine
 10
6807.599999999999
 20
7391.999999999993
 30
0.0
 11
7007.599999999996
 21
7391.999999999992
 31
0.0
  0
LINE
  5
1ED17
330
747D
100
AcDbEntity
  8
点線
 48
10.0
100
AcDbLine
 10
9439.599999999998
 20
7391.999999999993
 30
0.0
 11
9439.599999999998
 21
7191.999999999992
 31
0.0
  0
LINE
  5
1ED18
330
747D
100
AcDbEntity
  8
点線
 48
10.0
100
AcDbLine
 10
9439.599999999998
 20
7191.999999999992
 30
0.0
 11
9639.599999999999
 21
7191.999999999992
 31
0.0
  0
LINE
  5
1ED19
330
747D
100
AcDbEntity
  8
点線
 48
10.0
100
AcDbLine
 10
9439.599999999998
 20
7391.999999999993
 30
0.0
 11
9639.599999999997
 21
7391.999999999992
 31
0.0
  0
LINE
  5
1ED1A
330
747D
100
AcDbEntity
  8
点線
 48
10.0
100
AcDbLine
 10
9639.599999999997
 20
7391.999999999992
 30
0.0
 11
9639.599999999999
 21
7191.999999999992
 31
0.0
  0
TEXT
  5
1F34D
330
747D
100
AcDbEntity
  8
文字
 48
50.0
100
AcDbText
 10
7308.552229389291
 20
6767.065264964512
 30
0.0
 40
120.0
  1
100x190x390
  7
STYLE1
100
AcDbText
  0
MTEXT
  5
1F34E
102
{ACAD_REACTORS
330
1F34F
102
}
330
747D
100
AcDbEntity
  8
部品1
 62
     7
 48
50.0
100
AcDbMText
 10
7447.493414253826
 20
7019.563864458134
 30
0.0
 40
120.0
 41
0.0
 71
     4
 72
     1
  1
\A1;C.B
  7
STYLE1
 73
     1
 44
1.0
1001
ACAD
1000
MTEXTBEGIN
1070
    73
1070
     1
1070
    44
1040
1.0
1070
    74
1070
     0
1000
MTEXTEND
  0
LEADER
  5
1F34F
330
747D
100
AcDbEntity
  8
寸法
 48
50.0
100
AcDbLeader
  3
INABA_S50G
 71
     0
 73
     0
 74
     0
 75
     1
 40
120.0
 41
185.591883092037
 76
     3
 10
7229.116701030521
 20
7149.697007727212
 30
0.0
 10
7297.493414253826
 20
6934.563864458134
 30
0.0
 10
7422.493414253826
 20
6934.563864458134
 30
0.0
340
1F34E
1001
ACAD
1000
DSTYLE
1002
{
1070
   341
1005
1C530
1070
    40
1040
1.0
1070
   343
1005
1C530
1070
   344
1005
1C530
1002
}
  0
TEXT
  5
1F6EC
330
747D
100
AcDbEntity
  8
文字
 48
50.0
100
AcDbText
 10
10071.86642648089
 20
7287.363529387935
 30
0.0
 40
120.0
  1
深サ:200
  7
STYLE1
100
AcDbText
  0
DIMENSION
  5
1F6ED
330
747D
100
AcDbEntity
  8
寸法
 48
50.0
100
AcDbDimension
  2
*D37
 10
10157.84087348511
 20
5399.999999999993
 30
0.0
 11
10157.84087348511
 21
5499.999999999993
 31
0.0
 70
   160
  1
<>
 71
     5
 42
200.0
  3
INABA_S40G
100
AcDbAlignedDimension
 13
9639.599999999999
 23
5599.999999999993
 33
0.0
 14
9639.600000000001
 24
5399.999999999993
 34
0.0
 50
90.0
100
AcDbRotatedDimension
1001
ACAD
1000
DSTYLE
1002
{
1070
   174
1070
     0
1070
   272
1070
     1
1070
   288
1070
     0
1070
   341
1005
0
1002
}
  0
DIMENSION
  5
1F6EE
330
747D
100
AcDbEntity
  8
寸法
 48
50.0
100
AcDbDimension
  2
*D36
 10
9439.6
 20
4926.16892615646
 30
0.0
 11
9539.6
 21
4926.16892615646
 31
0.0
 70
   160
  1
<>
 71
     5
 42
200.0
  3
INABA_S40G
100
AcDbAlignedDimension
 13
9639.600000000001
 23
5399.999999999993
 33
0.0
 14
9439.6
 24
5399.999999999993
 34
0.0
100
AcDbRotatedDimension
1001
ACAD
1000
DSTYLE
1002
{
1070
   174
1070
     0
1070
   272
1070
     1
1070
   288
1070
     0
1070
   341
1005
0
1002
}
  0
LINE
  5
1F7EE
330
747D
100
AcDbEntity
  8
部品1
 48
50.0
100
AcDbLine
 10
8733.6
 20
6201.0
 30
0.0
 11
8543.600000000001
 21
6201.0
 31
0.0
  0
LINE
  5
1F7EF
330
747D
100
AcDbEntity
  8
部品1
 48
50.0
100
AcDbLine
 10
8733.6
 20
6591.0
 30
0.0
 11
8543.600000000001
 21
6591.0
 31
0.0
  0
LINE
  5
1F7F0
330
747D
100
AcDbEntity
  8
部品1
 48
50.0
100
AcDbLine
 10
8733.6
 20
6201.0
 30
0.0
 11
8733.6
 21
6591.0
 31
0.0
  0
LINE
  5
1F7F1
330
747D
100
AcDbEntity
  8
部品1
 48
50.0
100
AcDbLine
 10
8543.600000000001
 20
6201.0
 30
0.0
 11
8543.600000000001
 21
6591.0
 31
0.0
  0
LINE
  5
1F7F2
330
747D
100
AcDbEntity
  8
部品1
 48
50.0
100
AcDbLine
 10
8543.600000000003
 20
6201.0
 30
0.0
 11
8543.600000000001
 21
6591.0
 31
0.0
  0
LINE
  5
1F7F3
330
747D
100
AcDbEntity
  8
部品1
 48
50.0
100
AcDbLine
 10
7713.600000000004
 20
6201.0
 30
0.0
 11
7713.600000000001
 21
6591.0
 31
0.0
  0
LINE
  5
1F7F4
330
747D
100
AcDbEntity
  8
部品1
 48
50.0
100
AcDbLine
 10
7713.600000000001
 20
6201.0
 30
0.0
 11
7713.600000000001
 21
6591.0
 31
0.0
  0
LINE
  5
1F7F5
330
747D
100
AcDbEntity
  8
部品1
 48
50.0
100
AcDbLine
 10
7903.6
 20
6201.0
 30
0.0
 11
7903.6
 21
6591.0
 31
0.0
  0
LINE
  5
1F7F6
330
747D
100
AcDbEntity
  8
部品1
 48
50.0
100
AcDbLine
 10
7903.6
 20
6591.0
 30
0.0
 11
7713.600000000001
 21
6591.0
 31
0.0
  0
LINE
  5
1F7F7
330
747D
100
AcDbEntity
  8
部品1
 48
50.0
100
AcDbLine
 10
7903.6
 20
6201.0
 30
0.0
 11
7713.600000000001
 21
6201.0
 31
0.0
  0
LINE
  5
1F82C
330
747D
100
AcDbEntity
  8
寸法
 62
     0
 48
50.0
100
AcDbLine
 10
6907.599999999998
 20
6301.000000000001
 30
0.0
 11
7097.599999999999
 21
6301.000000000001
 31
0.0
  0
LINE
  5
1F82D
330
747D
100
AcDbEntity
  8
寸法
 62
     0
 48
50.0
100
AcDbLine
 10
6907.599999999998
 20
6491.000000000001
 30
0.0
 11
7097.599999999999
 21
6491.000000000001
 31
0.0
  0
LINE
  5
1F82E
330
747D
100
AcDbEntity
  8
部品1
 48
50.0
100
AcDbLine
 10
7097.599999999999
 20
6301.000000000001
 30
0.0
 11
7097.599999999999
 21
6491.000000000001
 31
0.0
  0
LINE
  5
1F82F
330
747D
100
AcDbEntity
  8
部品1
 48
50.0
100
AcDbLine
 10
6907.599999999999
 20
6301.0
 30
0.0
 11
6907.599999999999
 21
6491.000000000001
 31
0.0
  0
LINE
  5
1F830
330
747D
100
AcDbEntity
  8
寸法
 62
     0
 48
50.0
100
AcDbLine
 10
9349.599999999997
 20
6491.000000000001
 30
0.0
 11
9349.599999999997
 21
6301.000000000001
 31
0.0
  0
LINE
  5
1F831
330
747D
100
AcDbEntity
  8
部品1
 48
50.0
100
AcDbLine
 10
9539.599999999998
 20
6301.000000000001
 30
0.0
 11
9539.599999999998
 21
6491.000000000001
 31
0.0
  0
LINE
  5
1F832
330
747D
100
AcDbEntity
  8
寸法
 62
     0
 48
50.0
100
AcDbLine
 10
9349.599999999997
 20
6491.000000000001
 30
0.0
 11
9539.599999999998
 21
6491.000000000001
 31
0.0
  0
LINE
  5
1F833
330
747D
100
AcDbEntity
  8
寸法
 62
     0
 48
50.0
100
AcDbLine
 10
9349.599999999997
 20
6301.000000000001
 30
0.0
 11
9539.599999999998
 21
6301.000000000001
 31
0.0
  0
DIMENSION
  5
1FC47
330
747D
100
AcDbEntity
  8
寸法
 48
50.0
100
AcDbDimension
  2
*D40
 10
7111.185718602908
 20
5499.999999999999
 30
0.0
 11
7111.185718602907
 21
4891.514718625764
 31
0.0
 70
   160
  1
扉の出<>
 71
     5
 42
74.99999999999818
  3
INABA_S40G
100
AcDbAlignedDimension
 13
7356.6
 23
5425.0
 33
0.0
 14
7290.543893583842
 24
5499.999999999999
 34
0.0
 50
90.0
100
AcDbRotatedDimension
1001
ACAD
1000
DSTYLE
1002
{
1070
   341
1005
0
1002
}
  0
LINE
  5
1FC48
102
{ACAD_REACTORS
330
1FC66
102
}
330
747D
100
AcDbEntity
  8
想像線
 48
10.0
100
AcDbLine
 10
9090.6
 20
5425.000000000004
 30
0.0
 11
9090.6
 21
5500.0
 31
0.0
  0
LINE
  5
1FC49
102
{ACAD_REACTORS
330
1FC66
102
}
330
747D
100
AcDbEntity
  8
想像線
 48
10.0
100
AcDbLine
 10
7356.6
 20
5500.0
 30
0.0
 11
9090.6
 21
5500.000000000003
 31
0.0
  0
LINE
  5
1FC4A
102
{ACAD_REACTORS
330
1FC66
102
}
330
747D
100
AcDbEntity
  8
想像線
 48
10.0
100
AcDbLine
 10
7356.6
 20
5425.0
 30
0.0
 11
7356.6
 21
5500.0
 31
0.0
  0
HATCH
  5
1FC4B
102
{ACAD_REACTORS
330
1FC66
102
}
330
747D
100
AcDbEntity
  8
寸法
 48
50.0
100
AcDbHatch
 10
0.0
 20
0.0
 30
0.0
210
0.0
220
0.0
230
1.0
  2
DOTS
 70
     0
 71
     0
 91
        1
 92
        7
 72
     0
 73
     1
 93
        4
 10
9090.6
 20
5500.000000000003
 10
7356.600000000002
 20
5500.0
 10
7356.6
 20
5425.0
 10
9090.6
 20
5425.000000000004
 97
        0
 75
     0
 76
     1
 52
0.0
 41
10.0
 77
     0
 78
     1
 53
0.0
 43
246.2063843031492
 44
784.8721425423136
 45
7.9375
 46
15.875
 79
     2
 49
0.0
 49
-15.875
 47
3.549710751249138
 98
        1
 10
7975.003986455637
 20
5495.942190535872
  0
LINE
  5
1FC4C
102
{ACAD_REACTORS
330
1FC66
102
}
330
747D
100
AcDbEntity
  8
想像線
 48
10.0
100
AcDbLine
 10
7356.6
 20
5425.0
 30
0.0
 11
9090.6
 21
5425.000000000004
 31
0.0
  0
LINE
  5
1FE5B
330
747D
100
AcDbEntity
  8
部品1
 48
50.0
100
AcDbLine
 10
6969.539401023372
 20
740.7607876117562
 30
0.0
 11
6569.539401023374
 21
740.7607876117545
 31
0.0
  0
LINE
  5
1FE5C
330
747D
100
AcDbEntity
  8
部品1
 48
50.0
100
AcDbLine
 10
6969.539401023374
 20
1140.760787611754
 30
0.0
 11
6969.539401023372
 21
740.7607876117562
 31
0.0
  0
LINE
  5
1FE5D
330
747D
100
AcDbEntity
  8
部品1
 48
50.0
100
AcDbLine
 10
6569.539401023374
 20
740.7607876117545
 30
0.0
 11
6569.539401023374
 21
1140.760787611754
 31
0.0
  0
TEXT
  5
1FE5E
330
747D
100
AcDbEntity
  8
部品1
100
AcDbText
 10
6173.380976809117
 20
402.0913671270181
 30
0.0
 40
80.0
  1
a寸法：100～150mmに対応
  7
STYLE2
100
AcDbText
  0
TEXT
  5
1FE5F
330
747D
100
AcDbEntity
  8
部品1
100
AcDbText
 10
9290.785345987952
 20
378.6220795440777
 30
0.0
 40
80.0
  1
  が4本必要になります。
  7
STYLE2
100
AcDbText
  0
TEXT
  5
1FE60
330
747D
100
AcDbEntity
  8
部品1
100
AcDbText
 10
9289.421709624315
 20
528.3190492410467
 30
0.0
 40
80.0
  1
\U+203BオールアンカーM10(市販品)
  7
STYLE2
100
AcDbText
  0
TEXT
  5
1FE61
330
747D
100
AcDbEntity
  8
部品1
100
AcDbText
 10
9285.330800533406
 20
673.9251098471076
 30
0.0
 40
80.0
  1
c寸法：135～175,190mmに対応
  7
STYLE2
100
AcDbText
  0
TEXT
  5
1FE62
330
747D
100
AcDbEntity
  8
部品1
100
AcDbText
 10
7731.908046917862
 20
378.6220795440777
 30
0.0
 40
80.0
  1
  が4本必要になります。
  7
STYLE2
100
AcDbText
  0
TEXT
  5
1FE63
330
747D
100
AcDbEntity
  8
部品1
100
AcDbText
 10
7730.544410554225
 20
528.3190492410467
 30
0.0
 40
80.0
  1
\U+203BオールアンカーM10(市販品)
  7
STYLE2
100
AcDbText
  0
TEXT
  5
1FE64
330
747D
100
AcDbEntity
  8
部品1
100
AcDbText
 10
7725.99895600877
 20
673.9251098471076
 30
0.0
 40
80.0
  1
b寸法：100～120mmに対応
  7
STYLE2
100
AcDbText
  0
DIMENSION
  5
1FE65
330
747D
100
AcDbEntity
  8
寸法
 48
50.0
100
AcDbDimension
  2
*D46
 10
7067.610405383771
 20
1140.760787611754
 30
0.0
 11
6967.61040538377
 21
1240.760787611756
 31
0.0
 70
    32
  1
a
 71
     5
 42
200.0000000000009
  3
INABA_S40G
100
AcDbAlignedDimension
 13
6819.539401023376
 23
1340.760787611755
 33
0.0
 14
6819.539401023378
 24
1140.760787611754
 34
0.0
 50
90.0
100
AcDbRotatedDimension
1001
ACAD
1000
DSTYLE
1002
{
1070
   174
1070
     0
1070
   272
1070
     1
1070
   288
1070
     0
1070
   341
1005
0
1002
}
  0
LINE
  5
1FE66
330
747D
100
AcDbEntity
  8
部品1
 48
50.0
100
AcDbLine
 10
10836.83169876017
 20
2600.000000000002
 30
0.0
 11
10836.83169876017
 21
200.0
 31
0.0
  0
TEXT
  5
1FE67
330
747D
100
AcDbEntity
  8
部品1
100
AcDbText
 10
8398.176479605451
 20
2175.866049504641
 30
0.0
 40
120.0
  1
地盤がコンクリートの場合
  7
STYLE2
100
AcDbText
  0
LINE
  5
1FE68
330
747D
100
AcDbEntity
  8
部品1
100
AcDbLine
 10
9884.927506749455
 20
1469.904381151202
 30
0.0
 11
9884.927506749455
 21
1454.360787611753
 31
0.0
  0
LINE
  5
1FE69
330
747D
100
AcDbEntity
  8
部品1
100
AcDbLine
 10
9900.927506749454
 20
1469.904381151202
 30
0.0
 11
9900.927506749454
 21
1454.360787611753
 31
0.0
  0
LINE
  5
1FE6A
330
747D
100
AcDbEntity
  8
部品1
100
AcDbLine
 10
9932.927506749456
 20
1544.360787611757
 30
0.0
 11
9932.927506749456
 21
1441.006256599767
 31
0.0
  0
LINE
  5
1FE6B
330
747D
100
AcDbEntity
  8
部品1
100
AcDbLine
 10
9852.927506749455
 20
1544.360787611753
 30
0.0
 11
9852.927506749455
 21
1441.006256599761
 31
0.0
  0
ARC
  5
1FE6C
330
747D
100
AcDbEntity
  8
部品1
100
AcDbCircle
 10
9892.927506749455
 20
1454.360787611753
 30
0.0
 40
8.0
100
AcDbArc
 50
288.1948723386656
 51
0.0
  0
ARC
  5
1FE6D
330
747D
100
AcDbEntity
  8
部品1
100
AcDbCircle
 10
9892.927506749455
 20
1454.360787611753
 30
0.0
 40
8.0
100
AcDbArc
 50
180.0
 51
251.8051276613344
  0
ARC
  5
1FE6E
330
747D
100
AcDbEntity
  8
部品1
100
AcDbCircle
 10
9923.87344726921
 20
1436.760787611751
 30
0.0
 40
10.0
100
AcDbArc
 50
5.684241598181141
 51
90.0
  0
ARC
  5
1FE6F
330
747D
100
AcDbEntity
  8
部品1
100
AcDbCircle
 10
9861.981566229699
 20
1436.760787611754
 30
0.0
 40
10.0
100
AcDbArc
 50
90.0
 51
174.3157584018188
  0
LINE
  5
1FE70
330
747D
100
AcDbEntity
  8
部品1
100
AcDbLine
 10
9861.981566229699
 20
1446.760787611754
 30
0.0
 11
9923.87344726921
 21
1446.760787611751
 31
0.0
  0
CIRCLE
  5
1FE71
330
747D
100
AcDbEntity
  8
部品1
100
AcDbCircle
 10
9892.927506749455
 20
1384.360787611753
 30
0.0
 40
16.0
  0
LINE
  5
1FE72
330
747D
100
AcDbEntity
  8
細線
100
AcDbLine
 10
9900.927506749454
 20
1424.760787611751
 30
0.0
 11
9900.927506749454
 21
1398.217194072305
 31
0.0
  0
LINE
  5
1FE73
330
747D
100
AcDbEntity
  8
細線
100
AcDbLine
 10
9884.927506749455
 20
1424.760787611751
 30
0.0
 11
9884.927506749455
 21
1398.217194072305
 31
0.0
  0
LINE
  5
1FE74
330
747D
100
AcDbEntity
  8
細線
100
AcDbLine
 10
9907.927506749455
 20
1360.760787611751
 30
0.0
 11
9907.927506749455
 21
1354.760787611751
 31
0.0
  0
LINE
  5
1FE75
330
747D
100
AcDbEntity
  8
細線
100
AcDbLine
 10
9877.927506749456
 20
1360.760787611754
 30
0.0
 11
9877.927506749456
 21
1354.760787611754
 31
0.0
  0
LINE
  5
1FE76
330
747D
100
AcDbEntity
  8
細線
100
AcDbLine
 10
9877.927506749456
 20
1360.760787611754
 30
0.0
 11
9907.927506749455
 21
1360.760787611754
 31
0.0
  0
LINE
  5
1FE77
330
747D
100
AcDbEntity
  8
細線
100
AcDbLine
 10
9877.927506749456
 20
1354.760787611754
 30
0.0
 11
9907.927506749455
 21
1354.760787611754
 31
0.0
  0
ARC
  5
1FE78
330
747D
100
AcDbEntity
  8
細線
100
AcDbCircle
 10
9892.927506749455
 20
1424.760787611751
 30
0.0
 40
8.0
100
AcDbArc
 50
0.0
 51
180.0
  0
CIRCLE
  5
1FE79
330
747D
100
AcDbEntity
  8
細線
100
AcDbCircle
 10
9892.927506749455
 20
1524.360787611753
 30
0.0
 40
8.0
  0
CIRCLE
  5
1FE7A
330
747D
100
AcDbEntity
  8
部品1
100
AcDbCircle
 10
9892.927506749455
 20
1483.760787611754
 30
0.0
 40
16.0
  0
ARC
  5
1FE7B
330
747D
100
AcDbEntity
  8
部品1
100
AcDbCircle
 10
9892.927506749455
 20
1494.360787611753
 30
0.0
 40
8.0
100
AcDbArc
 50
28.00674301450512
 51
151.9932569854948
  0
ARC
  5
1FE7C
330
747D
100
AcDbEntity
  8
部品1
100
AcDbCircle
 10
9922.927506749454
 20
1544.360787611757
 30
0.0
 40
10.0
100
AcDbArc
 50
0.0
 51
90.0
  0
ARC
  5
1FE7D
330
747D
100
AcDbEntity
  8
部品1
100
AcDbCircle
 10
9862.927506749455
 20
1544.360787611753
 30
0.0
 40
10.0
100
AcDbArc
 50
90.0
 51
180.0
  0
LINE
  5
1FE7E
330
747D
100
AcDbEntity
  8
部品1
100
AcDbLine
 10
9862.927506749455
 20
1554.360787611753
 30
0.0
 11
9922.927506749454
 21
1554.360787611757
 31
0.0
  0
LINE
  5
1FE7F
330
747D
100
AcDbEntity
  8
細線
100
AcDbLine
 10
9844.848174678796
 20
1367.416722334008
 30
0.0
 11
9771.50410940105
 21
1440.760787611754
 31
0.0
  0
LINE
  5
1FE80
330
747D
100
AcDbEntity
  8
細線
100
AcDbLine
 10
9848.779312272432
 20
1405.911991611565
 30
0.0
 11
9813.930516272243
 21
1440.760787611754
 31
0.0
  0
LINE
  5
1FE81
330
747D
100
AcDbEntity
  8
部品1
100
AcDbLine
 10
9962.927506749455
 20
1152.760787611754
 30
0.0
 11
9962.927506749455
 21
1140.760787611754
 31
0.0
  0
LINE
  5
1FE82
330
747D
100
AcDbEntity
  8
部品1
100
AcDbLine
 10
9902.927506749456
 20
1173.160787611756
 30
0.0
 11
9907.927506749455
 21
1173.160787611756
 31
0.0
  0
LINE
  5
1FE83
330
747D
100
AcDbEntity
  8
部品1
100
AcDbLine
 10
9877.927506749456
 20
1207.160787611756
 30
0.0
 11
9907.927506749455
 21
1207.160787611756
 31
0.0
  0
LINE
  5
1FE84
330
747D
100
AcDbEntity
  8
部品1
100
AcDbLine
 10
9877.927506749456
 20
1213.160787611756
 30
0.0
 11
9907.927506749455
 21
1213.160787611756
 31
0.0
  0
LINE
  5
1FE85
330
747D
100
AcDbEntity
  8
部品1
100
AcDbLine
 10
9877.927506749456
 20
1213.160787611756
 30
0.0
 11
9877.927506749456
 21
1207.160787611756
 31
0.0
  0
LINE
  5
1FE86
330
747D
100
AcDbEntity
  8
部品1
100
AcDbLine
 10
9907.927506749455
 20
1213.160787611752
 30
0.0
 11
9907.927506749455
 21
1207.160787611752
 31
0.0
  0
LINE
  5
1FE87
330
747D
100
AcDbEntity
  8
部品1
100
AcDbLine
 10
9885.927506749455
 20
1205.013683635414
 30
0.0
 11
9899.927506749456
 21
1205.013683635414
 31
0.0
  0
LINE
  5
1FE88
330
747D
100
AcDbEntity
  8
部品1
100
AcDbLine
 10
9882.927506749455
 20
1192.760787611754
 30
0.0
 11
9902.927506749456
 21
1192.760787611754
 31
0.0
  0
LINE
  5
1FE89
330
747D
100
AcDbEntity
  8
部品1
100
AcDbLine
 10
9875.927506749455
 20
1171.760787611754
 30
0.0
 11
9872.927506749455
 21
1168.760787611754
 31
0.0
  0
LINE
  5
1FE8A
330
747D
100
AcDbEntity
  8
部品1
100
AcDbLine
 10
9875.927506749455
 20
1171.760787611754
 30
0.0
 11
9909.927506749454
 21
1171.760787611754
 31
0.0
  0
LINE
  5
1FE8B
330
747D
100
AcDbEntity
  8
部品1
100
AcDbLine
 10
9909.927506749454
 20
1171.760787611754
 30
0.0
 11
9912.927506749454
 21
1168.760787611754
 31
0.0
  0
LINE
  5
1FE8C
330
747D
100
AcDbEntity
  8
部品1
100
AcDbLine
 10
9877.927506749456
 20
1173.160787611756
 30
0.0
 11
9877.927506749456
 21
1171.760787611754
 31
0.0
  0
LINE
  5
1FE8D
330
747D
100
AcDbEntity
  8
部品1
100
AcDbLine
 10
9907.927506749455
 20
1173.160787611752
 30
0.0
 11
9907.927506749455
 21
1171.760787611754
 31
0.0
  0
LINE
  5
1FE8E
330
747D
100
AcDbEntity
  8
部品1
100
AcDbLine
 10
9862.927506749455
 20
1155.760787611754
 30
0.0
 11
9922.927506749454
 21
1155.760787611758
 31
0.0
  0
LINE
  5
1FE8F
330
747D
100
AcDbEntity
  8
部品1
100
AcDbLine
 10
9862.927506749455
 20
1152.760787611754
 30
0.0
 11
9862.927506749455
 21
1155.760787611754
 31
0.0
  0
LINE
  5
1FE90
330
747D
100
AcDbEntity
  8
部品1
100
AcDbLine
 10
9922.927506749454
 20
1152.760787611754
 30
0.0
 11
9922.927506749454
 21
1155.760787611762
 31
0.0
  0
LINE
  5
1FE91
330
747D
100
AcDbEntity
  8
部品1
100
AcDbLine
 10
9872.927506749455
 20
1155.760787611754
 30
0.0
 11
9872.927506749455
 21
1168.760787611754
 31
0.0
  0
LINE
  5
1FE92
330
747D
100
AcDbEntity
  8
部品1
100
AcDbLine
 10
9882.927506749455
 20
1155.760787611754
 30
0.0
 11
9882.927506749455
 21
1192.760787611754
 31
0.0
  0
LINE
  5
1FE93
330
747D
100
AcDbEntity
  8
部品1
100
AcDbLine
 10
9902.927506749456
 20
1155.760787611754
 30
0.0
 11
9902.927506749456
 21
1192.760787611754
 31
0.0
  0
LINE
  5
1FE94
330
747D
100
AcDbEntity
  8
部品1
100
AcDbLine
 10
9912.927506749454
 20
1155.760787611758
 30
0.0
 11
9912.927506749454
 21
1168.760787611754
 31
0.0
  0
LINE
  5
1FE95
330
747D
100
AcDbEntity
  8
部品1
100
AcDbLine
 10
9877.927506749456
 20
1173.160787611756
 30
0.0
 11
9882.927506749455
 21
1173.160787611756
 31
0.0
  0
LINE
  5
1FE96
330
747D
100
AcDbEntity
  8
部品1
100
AcDbLine
 10
9902.927506749456
 20
1173.160787611756
 30
0.0
 11
9907.927506749455
 21
1173.160787611756
 31
0.0
  0
LINE
  5
1FE97
330
747D
100
AcDbEntity
  8
部品1
100
AcDbLine
 10
9872.927506749455
 20
1168.760787611754
 30
0.0
 11
9912.927506749454
 21
1168.760787611754
 31
0.0
  0
ARC
  5
1FE98
330
747D
100
AcDbEntity
  8
部品1
100
AcDbCircle
 10
9877.927506749456
 20
1164.246032821436
 30
0.0
 40
6.736691384996243
100
AcDbArc
 50
42.08048849858776
 51
137.9195115014122
  0
ARC
  5
1FE99
330
747D
100
AcDbEntity
  8
部品1
100
AcDbCircle
 10
9907.927506749455
 20
1164.246032821436
 30
0.0
 40
6.736691384996243
100
AcDbArc
 50
42.08048849858776
 51
137.9195115014122
  0
ARC
  5
1FE9A
330
747D
100
AcDbEntity
  8
部品1
100
AcDbCircle
 10
9892.927506749455
 20
1147.672154390937
 30
0.0
 40
23.33946124318486
100
AcDbArc
 50
64.63020194521535
 51
115.3697980547846
  0
LINE
  5
1FE9B
330
747D
100
AcDbEntity
  8
部品1
100
AcDbLine
 10
9885.927506749455
 20
1201.013683635414
 30
0.0
 11
9899.927506749456
 21
1201.013683635414
 31
0.0
  0
LINE
  5
1FE9C
330
747D
100
AcDbEntity
  8
部品1
100
AcDbLine
 10
9887.927506749456
 20
1192.760787611754
 30
0.0
 11
9887.927506749456
 21
1201.013683635414
 31
0.0
  0
LINE
  5
1FE9D
330
747D
100
AcDbEntity
  8
部品1
100
AcDbLine
 10
9897.927506749454
 20
1192.760787611754
 30
0.0
 11
9897.927506749454
 21
1201.013683635414
 31
0.0
  0
LINE
  5
1FE9E
330
747D
100
AcDbEntity
  8
部品1
100
AcDbLine
 10
9882.927506749455
 20
1140.760787611754
 30
0.0
 11
9882.927506749455
 21
1105.360787611753
 31
0.0
  0
LINE
  5
1FE9F
330
747D
100
AcDbEntity
  8
部品1
100
AcDbLine
 10
9902.927506749456
 20
1140.760787611754
 30
0.0
 11
9902.927506749456
 21
1105.360787611753
 31
0.0
  0
LINE
  5
1FEA0
330
747D
100
AcDbEntity
  8
部品1
100
AcDbLine
 10
9891.017006115918
 20
1105.360787611753
 30
0.0
 11
9894.838007382993
 21
1105.360787611753
 31
0.0
  0
LINE
  5
1FEA1
330
747D
100
AcDbEntity
  8
部品1
100
AcDbLine
 10
9879.597634902197
 20
1083.161641963379
 30
0.0
 11
9887.509125725143
 21
1081.97491833994
 31
0.0
  0
LINE
  5
1FEA2
330
747D
100
AcDbEntity
  8
部品1
100
AcDbLine
 10
9880.487677619781
 20
1089.09526008059
 30
0.0
 11
9888.399168442722
 21
1087.908536457151
 31
0.0
  0
LINE
  5
1FEA3
330
747D
100
AcDbEntity
  8
部品1
100
AcDbLine
 10
9881.377720337356
 20
1095.028878197801
 30
0.0
 11
9889.289211160303
 21
1093.842154574358
 31
0.0
  0
LINE
  5
1FEA4
330
747D
100
AcDbEntity
  8
部品1
100
AcDbLine
 10
9882.26776305494
 20
1100.962496315009
 30
0.0
 11
9890.179253877885
 21
1099.775772691566
 31
0.0
  0
LINE
  5
1FEA5
330
747D
100
AcDbEntity
  8
部品1
100
AcDbLine
 10
9898.345887773768
 20
1081.97491833994
 30
0.0
 11
9906.257378596713
 21
1083.161641963379
 31
0.0
  0
LINE
  5
1FEA6
330
747D
100
AcDbEntity
  8
部品1
100
AcDbLine
 10
9897.455845056192
 20
1087.908536457151
 30
0.0
 11
9905.367335879137
 21
1089.09526008059
 31
0.0
  0
LINE
  5
1FEA7
330
747D
100
AcDbEntity
  8
部品1
100
AcDbLine
 10
9896.565802338608
 20
1093.842154574358
 30
0.0
 11
9904.477293161555
 21
1095.028878197801
 31
0.0
  0
LINE
  5
1FEA8
330
747D
100
AcDbEntity
  8
部品1
100
AcDbLine
 10
9895.675759621026
 20
1099.775772691566
 30
0.0
 11
9903.587250443971
 21
1100.962496315009
 31
0.0
  0
LINE
  5
1FEA9
330
747D
100
AcDbEntity
  8
部品1
100
AcDbLine
 10
9885.927506749455
 20
1201.013683635414
 30
0.0
 11
9885.927506749455
 21
1205.013683635414
 31
0.0
  0
LINE
  5
1FEAA
330
747D
100
AcDbEntity
  8
部品1
100
AcDbLine
 10
9899.927506749456
 20
1201.013683635414
 30
0.0
 11
9899.927506749456
 21
1205.013683635414
 31
0.0
  0
LINE
  5
1FEAB
330
747D
100
AcDbEntity
  8
部品1
100
AcDbLine
 10
9877.927506749456
 20
1171.760787611754
 30
0.0
 11
9907.927506749455
 21
1171.760787611754
 31
0.0
  0
LINE
  5
1FEAC
330
747D
100
AcDbEntity
  8
部品1
100
AcDbLine
 10
9907.927506749455
 20
1173.160787611752
 30
0.0
 11
9907.927506749455
 21
1171.760787611754
 31
0.0
  0
LINE
  5
1FEAD
330
747D
100
AcDbEntity
  8
部品1
100
AcDbLine
 10
9877.927506749456
 20
1173.160787611756
 30
0.0
 11
9877.927506749456
 21
1171.760787611751
 31
0.0
  0
LINE
  5
1FEAE
330
747D
100
AcDbEntity
  8
部品1
100
AcDbLine
 10
9877.927506749456
 20
1173.160787611756
 30
0.0
 11
9882.927506749455
 21
1173.160787611756
 31
0.0
  0
LINE
  5
1FEAF
330
747D
100
AcDbEntity
  8
部品1
100
AcDbLine
 10
9907.927506749455
 20
1213.160787611752
 30
0.0
 11
9907.927506749455
 21
1207.160787611752
 31
0.0
  0
LINE
  5
1FEB0
330
747D
100
AcDbEntity
  8
部品1
100
AcDbLine
 10
9877.927506749456
 20
1213.160787611756
 30
0.0
 11
9877.927506749456
 21
1207.160787611756
 31
0.0
  0
LINE
  5
1FEB1
330
747D
100
AcDbEntity
  8
部品1
100
AcDbLine
 10
9877.927506749456
 20
1213.160787611756
 30
0.0
 11
9907.927506749455
 21
1213.160787611756
 31
0.0
  0
LINE
  5
1FEB2
330
747D
100
AcDbEntity
  8
部品1
100
AcDbLine
 10
9877.927506749456
 20
1207.160787611756
 30
0.0
 11
9907.927506749455
 21
1207.160787611756
 31
0.0
  0
LINE
  5
1FEB3
330
747D
100
AcDbEntity
  8
部品1
100
AcDbLine
 10
9822.927506749454
 20
1152.760787611754
 30
0.0
 11
9822.927506749454
 21
1140.760787611754
 31
0.0
  0
LINE
  5
1FEB4
330
747D
100
AcDbEntity
  8
部品1
100
AcDbLine
 10
9876.927506749455
 20
1065.360787611753
 30
0.0
 11
9884.838997572401
 21
1064.174063988313
 31
0.0
  0
LINE
  5
1FEB5
330
747D
100
AcDbEntity
  8
部品1
100
AcDbLine
 10
9901.016015926508
 20
1064.174063988313
 30
0.0
 11
9908.927506749456
 21
1065.360787611753
 31
0.0
  0
LINE
  5
1FEB6
330
747D
100
AcDbEntity
  8
部品1
100
AcDbLine
 10
9877.817549467039
 20
1071.294405728964
 30
0.0
 11
9885.729040289984
 21
1070.107682105521
 31
0.0
  0
LINE
  5
1FEB7
330
747D
100
AcDbEntity
  8
部品1
100
AcDbLine
 10
9878.707592184614
 20
1077.228023846172
 30
0.0
 11
9886.619083007559
 21
1076.041300222729
 31
0.0
  0
LINE
  5
1FEB8
330
747D
100
AcDbEntity
  8
部品1
100
AcDbLine
 10
9900.125973208925
 20
1070.107682105521
 30
0.0
 11
9908.037464031876
 21
1071.294405728964
 31
0.0
  0
LINE
  5
1FEB9
330
747D
100
AcDbEntity
  8
部品1
100
AcDbLine
 10
9899.23593049135
 20
1076.041300222729
 30
0.0
 11
9907.147421314297
 21
1077.228023846172
 31
0.0
  0
LINE
  5
1FEBA
330
747D
100
AcDbEntity
  8
部品1
100
AcDbLine
 10
9882.927506749455
 20
1105.360787611753
 30
0.0
 11
9876.927506749455
 21
1065.360787611753
 31
0.0
  0
LINE
  5
1FEBB
330
747D
100
AcDbEntity
  8
部品1
100
AcDbLine
 10
9908.927506749456
 20
1065.360787611753
 30
0.0
 11
9902.927506749456
 21
1105.360787611753
 31
0.0
  0
LINE
  5
1FEBC
330
747D
100
AcDbEntity
  8
部品1
100
AcDbLine
 10
9891.017006115918
 20
1105.360787611753
 30
0.0
 11
9884.838997572401
 21
1064.174063988313
 31
0.0
  0
LINE
  5
1FEBD
330
747D
100
AcDbEntity
  8
部品1
100
AcDbLine
 10
9901.016015926508
 20
1064.174063988313
 30
0.0
 11
9894.838007382993
 21
1105.360787611753
 31
0.0
  0
LINE
  5
1FEBE
330
747D
100
AcDbEntity
  8
部品1
100
AcDbLine
 10
9822.927506749454
 20
1140.760787611754
 30
0.0
 11
9962.927506749455
 21
1140.760787611754
 31
0.0
  0
LINE
  5
1FEBF
330
747D
100
AcDbEntity
  8
部品1
100
AcDbLine
 10
9822.927506749454
 20
1152.760787611754
 30
0.0
 11
9962.927506749455
 21
1152.760787611754
 31
0.0
  0
LINE
  5
1FEC0
330
747D
100
AcDbEntity
  8
部品1
100
AcDbLine
 10
9933.824275757526
 20
1437.751248310655
 30
0.0
 11
9962.927506749455
 21
1152.760787611754
 31
0.0
  0
LINE
  5
1FEC1
330
747D
100
AcDbEntity
  8
部品1
100
AcDbLine
 10
9852.030737741387
 20
1437.751248310655
 30
0.0
 11
9822.927506749454
 21
1152.760787611754
 31
0.0
  0
DIMENSION
  5
1FEC2
330
747D
100
AcDbEntity
  8
寸法
 48
50.0
100
AcDbDimension
  2
*D47
 10
10135.67415237624
 20
1140.760787611754
 30
0.0
 11
10035.67415237624
 21
1290.760787611756
 31
0.0
 70
    32
  1
c
 71
     5
 42
300.0
  3
INABA_S40G
100
AcDbAlignedDimension
 13
9933.038598659123
 23
1440.760787611754
 33
0.0
 14
9962.927506749455
 24
1140.760787611754
 34
0.0
 50
90.0
100
AcDbRotatedDimension
1001
ACAD
1000
DSTYLE
1002
{
1070
   174
1070
     0
1070
   272
1070
     1
1070
   288
1070
     0
1070
   341
1005
0
1002
}
  0
LINE
  5
1FEC3
330
747D
100
AcDbEntity
  8
細線
 48
10.0
100
AcDbLine
 10
9920.492265040358
 20
833.8425902724702
 30
0.0
 11
10227.41046237963
 21
1140.760787611754
 31
0.0
  0
LINE
  5
1FEC4
330
747D
100
AcDbEntity
  8
細線
 48
10.0
100
AcDbLine
 10
9948.776536287818
 20
833.8425902724702
 30
0.0
 11
10255.69473362709
 21
1140.760787611754
 31
0.0
  0
LINE
  5
1FEC5
330
747D
100
AcDbEntity
  8
細線
 48
10.0
100
AcDbLine
 10
9977.060807535275
 20
833.8425902724702
 30
0.0
 11
10283.97900487456
 21
1140.760787611756
 31
0.0
  0
LINE
  5
1FEC6
330
747D
100
AcDbEntity
  8
細線
100
AcDbLine
 10
9618.955769441653
 20
1140.760787611754
 30
0.0
 11
9532.927506749455
 21
1226.789050303954
 31
0.0
  0
LINE
  5
1FEC7
330
747D
100
AcDbEntity
  8
細線
100
AcDbLine
 10
9661.382176312846
 20
1140.760787611754
 30
0.0
 11
9532.927506749455
 21
1269.215457175147
 31
0.0
  0
LINE
  5
1FEC8
330
747D
100
AcDbEntity
  8
部品1
100
AcDbLine
 10
9532.927506749455
 20
1140.760787611751
 30
0.0
 11
9532.927506749455
 21
1440.760787611754
 31
0.0
  0
LINE
  5
1FEC9
330
747D
100
AcDbEntity
  8
細線
 48
10.0
100
AcDbLine
 10
9310.130109950748
 20
1076.797212888527
 30
0.0
 11
9374.093684673972
 21
1140.760787611754
 31
0.0
  0
LINE
  5
1FECA
330
747D
100
AcDbEntity
  8
細線
 48
10.0
100
AcDbLine
 10
9310.130109950749
 20
1048.512941641072
 30
0.0
 11
9402.377955921426
 21
1140.760787611754
 31
0.0
  0
LINE
  5
1FECB
330
747D
100
AcDbEntity
  8
細線
 48
10.0
100
AcDbLine
 10
9310.130109950746
 20
1020.228670393613
 30
0.0
 11
9430.662227168879
 21
1140.760787611754
 31
0.0
  0
LINE
  5
1FECC
330
747D
100
AcDbEntity
  8
細線
 48
10.0
100
AcDbLine
 10
9550.402418682459
 20
833.8425902724702
 30
0.0
 11
9857.320616021718
 21
1140.760787611754
 31
0.0
  0
LINE
  5
1FECD
330
747D
100
AcDbEntity
  8
細線
 48
10.0
100
AcDbLine
 10
9522.118147434994
 20
833.8425902724702
 30
0.0
 11
9829.036344774266
 21
1140.760787611754
 31
0.0
  0
LINE
  5
1FECE
330
747D
100
AcDbEntity
  8
細線
 48
10.0
100
AcDbLine
 10
9493.833876187537
 20
833.8425902724702
 30
0.0
 11
9800.75207352681
 21
1140.760787611756
 31
0.0
  0
LINE
  5
1FECF
330
747D
100
AcDbEntity
  8
細線
100
AcDbLine
 10
9827.813245106375
 20
1200.603888797927
 30
0.0
 11
9587.656346292543
 21
1440.760787611754
 31
0.0
  0
LINE
  5
1FED0
330
747D
100
AcDbEntity
  8
細線
100
AcDbLine
 10
9823.882107512737
 20
1162.10861952037
 30
0.0
 11
9545.22993942135
 21
1440.760787611754
 31
0.0
  0
LINE
  5
1FED1
330
747D
100
AcDbEntity
  8
部品1
100
AcDbLine
 10
9310.130109950748
 20
1534.760787611756
 30
0.0
 11
9852.927506749459
 21
1534.760787611756
 31
0.0
  0
LINE
  5
1FED2
330
747D
100
AcDbEntity
  8
部品1
100
AcDbLine
 10
9310.130109950748
 20
1540.760787611756
 30
0.0
 11
9822.927506749458
 21
1540.760787611756
 31
0.0
  0
LINE
  5
1FED3
330
747D
100
AcDbEntity
  8
部品1
100
AcDbLine
 10
9310.130109950748
 20
1440.760787611754
 30
0.0
 11
9852.816414839791
 21
1440.760787611756
 31
0.0
  0
TEXT
  5
1FED4
330
747D
100
AcDbEntity
  8
部品1
100
AcDbText
 10
8797.084105304849
 20
1148.666829290658
 30
0.0
 40
120.0
  1
▽G.L
  7
STYLE1
100
AcDbText
  0
LINE
  5
1FED5
330
747D
100
AcDbEntity
  8
細線
 48
10.0
100
AcDbLine
 10
8718.10488337222
 20
833.8425902724702
 30
0.0
 11
9025.023080711495
 21
1140.760787611754
 31
0.0
  0
LINE
  5
1FED6
330
747D
100
AcDbEntity
  8
細線
 48
10.0
100
AcDbLine
 10
8746.389154619681
 20
833.8425902724702
 30
0.0
 11
9053.307351958954
 21
1140.760787611754
 31
0.0
  0
LINE
  5
1FED7
330
747D
100
AcDbEntity
  8
細線
 48
10.0
100
AcDbLine
 10
8774.673425867144
 20
833.8425902724702
 30
0.0
 11
9081.591623206421
 21
1140.760787611754
 31
0.0
  0
LINE
  5
1FED8
330
747D
100
AcDbEntity
  8
細線
100
AcDbLine
 10
8397.594902036473
 20
1360.760787611751
 30
0.0
 11
8397.594902036473
 21
1354.760787611751
 31
0.0
  0
LINE
  5
1FED9
330
747D
100
AcDbEntity
  8
細線
100
AcDbLine
 10
8367.594902036474
 20
1360.760787611756
 30
0.0
 11
8367.594902036474
 21
1354.760787611756
 31
0.0
  0
LINE
  5
1FEDA
330
747D
100
AcDbEntity
  8
細線
100
AcDbLine
 10
8367.594902036474
 20
1354.760787611756
 30
0.0
 11
8397.594902036473
 21
1354.760787611756
 31
0.0
  0
ARC
  5
1FEDB
330
747D
100
AcDbEntity
  8
部品1
100
AcDbCircle
 10
8413.540842556228
 20
1436.760787611753
 30
0.0
 40
10.0
100
AcDbArc
 50
5.684241598181141
 51
90.0
  0
LINE
  5
1FEDC
330
747D
100
AcDbEntity
  8
部品1
100
AcDbLine
 10
8351.648961516717
 20
1446.760787611754
 30
0.0
 11
8413.540842556228
 21
1446.760787611752
 31
0.0
  0
ARC
  5
1FEDD
330
747D
100
AcDbEntity
  8
細線
100
AcDbCircle
 10
8382.594902036473
 20
1424.760787611752
 30
0.0
 40
8.0
100
AcDbArc
 50
0.0
 51
180.0
  0
LINE
  5
1FEDE
330
747D
100
AcDbEntity
  8
細線
100
AcDbLine
 10
8390.594902036474
 20
1424.760787611752
 30
0.0
 11
8390.594902036474
 21
1398.617194072307
 31
0.0
  0
LINE
  5
1FEDF
330
747D
100
AcDbEntity
  8
細線
100
AcDbLine
 10
8374.594902036474
 20
1424.760787611752
 30
0.0
 11
8374.594902036474
 21
1398.617194072307
 31
0.0
  0
LINE
  5
1FEE0
330
747D
100
AcDbEntity
  8
細線
100
AcDbLine
 10
8367.594902036474
 20
1360.760787611756
 30
0.0
 11
8397.594902036473
 21
1360.760787611756
 31
0.0
  0
CIRCLE
  5
1FEE1
330
747D
100
AcDbEntity
  8
部品1
100
AcDbCircle
 10
8382.594902036473
 20
1384.760787611754
 30
0.0
 40
16.0
  0
ARC
  5
1FEE2
330
747D
100
AcDbEntity
  8
部品1
100
AcDbCircle
 10
8351.648961516717
 20
1436.760787611756
 30
0.0
 40
10.0
100
AcDbArc
 50
90.0
 51
174.3157584018188
  0
LINE
  5
1FEE3
330
747D
100
AcDbEntity
  8
部品1
100
AcDbLine
 10
8385.343154908044
 20
1099.775772691568
 30
0.0
 11
8393.254645730989
 21
1100.962496315011
 31
0.0
  0
LINE
  5
1FEE4
330
747D
100
AcDbEntity
  8
部品1
100
AcDbLine
 10
8386.233197625626
 20
1093.842154574358
 30
0.0
 11
8394.144688448573
 21
1095.028878197801
 31
0.0
  0
LINE
  5
1FEE5
330
747D
100
AcDbEntity
  8
部品1
100
AcDbLine
 10
8387.12324034321
 20
1087.908536457153
 30
0.0
 11
8395.034731166155
 21
1089.095260080592
 31
0.0
  0
LINE
  5
1FEE6
330
747D
100
AcDbEntity
  8
部品1
100
AcDbLine
 10
8388.013283060784
 20
1081.97491833994
 30
0.0
 11
8395.924773883733
 21
1083.161641963381
 31
0.0
  0
LINE
  5
1FEE7
330
747D
100
AcDbEntity
  8
部品1
100
AcDbLine
 10
8388.903325778368
 20
1076.04130022273
 30
0.0
 11
8396.814816601315
 21
1077.228023846173
 31
0.0
  0
LINE
  5
1FEE8
330
747D
100
AcDbEntity
  8
部品1
100
AcDbLine
 10
8389.793368495944
 20
1070.107682105521
 30
0.0
 11
8397.704859318897
 21
1071.294405728964
 31
0.0
  0
LINE
  5
1FEE9
330
747D
100
AcDbEntity
  8
部品1
100
AcDbLine
 10
8371.935158341958
 20
1100.962496315011
 30
0.0
 11
8379.846649164903
 21
1099.775772691568
 31
0.0
  0
LINE
  5
1FEEA
330
747D
100
AcDbEntity
  8
部品1
100
AcDbLine
 10
8371.045115624374
 20
1095.028878197801
 30
0.0
 11
8378.956606447321
 21
1093.842154574358
 31
0.0
  0
LINE
  5
1FEEB
330
747D
100
AcDbEntity
  8
部品1
100
AcDbLine
 10
8370.155072906799
 20
1089.095260080592
 30
0.0
 11
8378.066563729744
 21
1087.908536457153
 31
0.0
  0
LINE
  5
1FEEC
330
747D
100
AcDbEntity
  8
部品1
100
AcDbLine
 10
8369.265030189216
 20
1083.161641963381
 30
0.0
 11
8377.176521012161
 21
1081.97491833994
 31
0.0
  0
LINE
  5
1FEED
330
747D
100
AcDbEntity
  8
部品1
100
AcDbLine
 10
8368.374987471632
 20
1077.228023846173
 30
0.0
 11
8376.286478294579
 21
1076.04130022273
 31
0.0
  0
LINE
  5
1FEEE
330
747D
100
AcDbEntity
  8
部品1
100
AcDbLine
 10
8367.484944754057
 20
1071.294405728964
 30
0.0
 11
8375.396435577002
 21
1070.107682105521
 31
0.0
  0
LINE
  5
1FEEF
330
747D
100
AcDbEntity
  8
部品1
100
AcDbLine
 10
8390.683411213528
 20
1064.174063988315
 30
0.0
 11
8398.594902036473
 21
1065.360787611755
 31
0.0
  0
LINE
  5
1FEF0
330
747D
100
AcDbEntity
  8
部品1
100
AcDbLine
 10
8366.594902036473
 20
1065.360787611755
 30
0.0
 11
8374.506392859419
 21
1064.174063988315
 31
0.0
  0
LINE
  5
1FEF1
330
747D
100
AcDbEntity
  8
部品1
100
AcDbLine
 10
8390.683411213528
 20
1064.174063988315
 30
0.0
 11
8384.505402670011
 21
1105.360787611755
 31
0.0
  0
LINE
  5
1FEF2
330
747D
100
AcDbEntity
  8
部品1
100
AcDbLine
 10
8380.684401402936
 20
1105.360787611755
 30
0.0
 11
8374.506392859419
 21
1064.174063988315
 31
0.0
  0
LINE
  5
1FEF3
330
747D
100
AcDbEntity
  8
部品1
100
AcDbLine
 10
8398.594902036473
 20
1065.360787611755
 30
0.0
 11
8392.594902036474
 21
1105.360787611755
 31
0.0
  0
LINE
  5
1FEF4
330
747D
100
AcDbEntity
  8
部品1
100
AcDbLine
 10
8372.594902036473
 20
1105.360787611755
 30
0.0
 11
8366.594902036473
 21
1065.360787611755
 31
0.0
  0
LINE
  5
1FEF5
330
747D
100
AcDbEntity
  8
部品1
100
AcDbLine
 10
8380.684401402936
 20
1105.360787611755
 30
0.0
 11
8384.505402670011
 21
1105.360787611755
 31
0.0
  0
LINE
  5
1FEF6
330
747D
100
AcDbEntity
  8
部品1
100
AcDbLine
 10
8392.594902036474
 20
1140.760787611754
 30
0.0
 11
8392.594902036474
 21
1105.360787611755
 31
0.0
  0
LINE
  5
1FEF7
330
747D
100
AcDbEntity
  8
部品1
100
AcDbLine
 10
8372.594902036473
 20
1140.760787611754
 30
0.0
 11
8372.594902036473
 21
1105.360787611755
 31
0.0
  0
LINE
  5
1FEF8
330
747D
100
AcDbEntity
  8
部品1
100
AcDbLine
 10
8375.594902036473
 20
1201.013683635416
 30
0.0
 11
8389.594902036474
 21
1201.013683635416
 31
0.0
  0
LINE
  5
1FEF9
330
747D
100
AcDbEntity
  8
部品1
100
AcDbLine
 10
8389.594902036474
 20
1201.013683635416
 30
0.0
 11
8389.594902036474
 21
1205.013683635416
 31
0.0
  0
LINE
  5
1FEFA
330
747D
100
AcDbEntity
  8
部品1
100
AcDbLine
 10
8375.594902036473
 20
1201.013683635416
 30
0.0
 11
8375.594902036473
 21
1205.013683635416
 31
0.0
  0
LINE
  5
1FEFB
330
747D
100
AcDbEntity
  8
部品1
100
AcDbLine
 10
8387.594902036473
 20
1192.760787611756
 30
0.0
 11
8387.594902036473
 21
1201.013683635416
 31
0.0
  0
LINE
  5
1FEFC
330
747D
100
AcDbEntity
  8
部品1
100
AcDbLine
 10
8377.594902036474
 20
1192.760787611756
 30
0.0
 11
8377.594902036474
 21
1201.013683635416
 31
0.0
  0
LINE
  5
1FEFD
330
747D
100
AcDbEntity
  8
部品1
100
AcDbLine
 10
8375.594902036473
 20
1205.013683635416
 30
0.0
 11
8389.594902036474
 21
1205.013683635416
 31
0.0
  0
ARC
  5
1FEFE
330
747D
100
AcDbEntity
  8
部品1
100
AcDbCircle
 10
8382.594902036473
 20
1147.672154390937
 30
0.0
 40
23.33946124318486
100
AcDbArc
 50
64.63020194521535
 51
115.3697980547846
  0
ARC
  5
1FEFF
330
747D
100
AcDbEntity
  8
部品1
100
AcDbCircle
 10
8397.594902036473
 20
1164.246032821438
 30
0.0
 40
6.736691384996243
100
AcDbArc
 50
42.08048849858776
 51
137.9195115014122
  0
ARC
  5
1FF00
330
747D
100
AcDbEntity
  8
部品1
100
AcDbCircle
 10
8367.594902036474
 20
1164.246032821438
 30
0.0
 40
6.736691384996243
100
AcDbArc
 50
42.08048849858776
 51
137.9195115014122
  0
LINE
  5
1FF01
330
747D
100
AcDbEntity
  8
部品1
100
AcDbLine
 10
8362.594902036473
 20
1168.760787611756
 30
0.0
 11
8402.594902036474
 21
1168.760787611756
 31
0.0
  0
LINE
  5
1FF02
330
747D
100
AcDbEntity
  8
部品1
100
AcDbLine
 10
8392.594902036474
 20
1173.160787611758
 30
0.0
 11
8397.594902036473
 21
1173.160787611758
 31
0.0
  0
LINE
  5
1FF03
330
747D
100
AcDbEntity
  8
部品1
100
AcDbLine
 10
8412.594902036472
 20
1152.760787611754
 30
0.0
 11
8412.594902036472
 21
1155.760787611763
 31
0.0
  0
LINE
  5
1FF04
330
747D
100
AcDbEntity
  8
部品1
100
AcDbLine
 10
8352.594902036473
 20
1152.760787611754
 30
0.0
 11
8352.594902036473
 21
1155.760787611754
 31
0.0
  0
LINE
  5
1FF05
330
747D
100
AcDbEntity
  8
部品1
100
AcDbLine
 10
8399.594902036474
 20
1171.760787611756
 30
0.0
 11
8402.594902036474
 21
1168.760787611756
 31
0.0
  0
LINE
  5
1FF06
330
747D
100
AcDbEntity
  8
部品1
100
AcDbLine
 10
8365.594902036473
 20
1171.760787611756
 30
0.0
 11
8362.594902036473
 21
1168.760787611756
 31
0.0
  0
LINE
  5
1FF07
330
747D
100
AcDbEntity
  8
部品1
100
AcDbLine
 10
8402.594902036474
 20
1155.76078761176
 30
0.0
 11
8402.594902036474
 21
1168.760787611756
 31
0.0
  0
LINE
  5
1FF08
330
747D
100
AcDbEntity
  8
部品1
100
AcDbLine
 10
8362.594902036473
 20
1155.760787611754
 30
0.0
 11
8362.594902036473
 21
1168.760787611756
 31
0.0
  0
LINE
  5
1FF09
330
747D
100
AcDbEntity
  8
部品1
100
AcDbLine
 10
8365.594902036473
 20
1171.760787611756
 30
0.0
 11
8399.594902036474
 21
1171.760787611756
 31
0.0
  0
LINE
  5
1FF0A
330
747D
100
AcDbEntity
  8
部品1
100
AcDbLine
 10
8392.594902036474
 20
1155.760787611754
 30
0.0
 11
8392.594902036474
 21
1192.760787611756
 31
0.0
  0
LINE
  5
1FF0B
330
747D
100
AcDbEntity
  8
部品1
100
AcDbLine
 10
8372.594902036473
 20
1155.760787611754
 30
0.0
 11
8372.594902036473
 21
1192.760787611756
 31
0.0
  0
LINE
  5
1FF0C
330
747D
100
AcDbEntity
  8
部品1
100
AcDbLine
 10
8372.594902036473
 20
1192.760787611756
 30
0.0
 11
8392.594902036474
 21
1192.760787611756
 31
0.0
  0
LINE
  5
1FF0D
330
747D
100
AcDbEntity
  8
部品1
100
AcDbLine
 10
8352.594902036473
 20
1155.760787611754
 30
0.0
 11
8412.594902036472
 21
1155.76078761176
 31
0.0
  0
LINE
  5
1FF0E
330
747D
100
AcDbEntity
  8
部品1
100
AcDbLine
 10
8397.594902036473
 20
1173.160787611752
 30
0.0
 11
8397.594902036473
 21
1171.760787611756
 31
0.0
  0
LINE
  5
1FF0F
330
747D
100
AcDbEntity
  8
部品1
100
AcDbLine
 10
8397.594902036473
 20
1213.160787611754
 30
0.0
 11
8397.594902036473
 21
1207.160787611754
 31
0.0
  0
LINE
  5
1FF10
330
747D
100
AcDbEntity
  8
部品1
100
AcDbLine
 10
8452.594902036473
 20
1152.760787611754
 30
0.0
 11
8452.594902036473
 21
1140.760787611754
 31
0.0
  0
LINE
  5
1FF11
330
747D
100
AcDbEntity
  8
部品1
100
AcDbLine
 10
8367.594902036474
 20
1173.160787611758
 30
0.0
 11
8367.594902036474
 21
1171.760787611756
 31
0.0
  0
LINE
  5
1FF12
330
747D
100
AcDbEntity
  8
部品1
100
AcDbLine
 10
8367.594902036474
 20
1213.160787611758
 30
0.0
 11
8367.594902036474
 21
1207.160787611758
 31
0.0
  0
LINE
  5
1FF13
330
747D
100
AcDbEntity
  8
部品1
100
AcDbLine
 10
8367.594902036474
 20
1173.160787611758
 30
0.0
 11
8372.594902036473
 21
1173.160787611758
 31
0.0
  0
LINE
  5
1FF14
330
747D
100
AcDbEntity
  8
部品1
100
AcDbLine
 10
8367.594902036474
 20
1213.160787611758
 30
0.0
 11
8397.594902036473
 21
1213.160787611758
 31
0.0
  0
LINE
  5
1FF15
330
747D
100
AcDbEntity
  8
部品1
100
AcDbLine
 10
8367.594902036474
 20
1207.160787611758
 30
0.0
 11
8397.594902036473
 21
1207.160787611758
 31
0.0
  0
LINE
  5
1FF16
330
747D
100
AcDbEntity
  8
部品1
100
AcDbLine
 10
8312.594902036472
 20
1152.760787611754
 30
0.0
 11
8312.594902036472
 21
1140.760787611754
 31
0.0
  0
LINE
  5
1FF17
330
747D
100
AcDbEntity
  8
部品1
100
AcDbLine
 10
8312.594902036472
 20
1140.760787611754
 30
0.0
 11
8452.594902036473
 21
1140.760787611754
 31
0.0
  0
LINE
  5
1FF18
330
747D
100
AcDbEntity
  8
部品1
100
AcDbLine
 10
8312.594902036472
 20
1152.760787611754
 30
0.0
 11
8452.594902036473
 21
1152.760787611754
 31
0.0
  0
LINE
  5
1FF19
330
747D
100
AcDbEntity
  8
部品1
100
AcDbLine
 10
8341.698133028407
 20
1437.751248310656
 30
0.0
 11
8312.594902036472
 21
1152.760787611754
 31
0.0
  0
LINE
  5
1FF1A
330
747D
100
AcDbEntity
  8
部品1
100
AcDbLine
 10
8423.491671044549
 20
1437.751248310656
 30
0.0
 11
8452.594902036473
 21
1152.760787611754
 31
0.0
  0
LINE
  5
1FF1B
330
747D
100
AcDbEntity
  8
細線
100
AcDbLine
 10
8317.480640393393
 20
1200.603888797927
 30
0.0
 11
8177.323741579561
 21
1340.760787611754
 31
0.0
  0
LINE
  5
1FF1C
330
747D
100
AcDbEntity
  8
細線
100
AcDbLine
 10
8313.549502799755
 20
1162.10861952037
 30
0.0
 11
8134.897334708368
 21
1340.760787611754
 31
0.0
  0
LINE
  5
1FF1D
330
747D
100
AcDbEntity
  8
細線
 48
10.0
100
AcDbLine
 10
7707.340468792883
 20
1074.769071004164
 30
0.0
 11
7773.332185400469
 21
1140.760787611754
 31
0.0
  0
LINE
  5
1FF1E
330
747D
100
AcDbEntity
  8
細線
 48
10.0
100
AcDbLine
 10
7707.340468792883
 20
1046.484799756705
 30
0.0
 11
7801.616456647922
 21
1140.760787611754
 31
0.0
  0
LINE
  5
1FF1F
330
747D
100
AcDbEntity
  8
細線
 48
10.0
100
AcDbLine
 10
7707.34046879288
 20
1103.05334225162
 30
0.0
 11
7745.047914153018
 21
1140.760787611754
 31
0.0
  0
LINE
  5
1FF20
330
747D
100
AcDbEntity
  8
部品1
100
AcDbLine
 10
8022.594902036473
 20
1140.760787611754
 30
0.0
 11
8022.594902036473
 21
1340.760787611756
 31
0.0
  0
LINE
  5
1FF21
330
747D
100
AcDbEntity
  8
細線
100
AcDbLine
 10
8151.049571599864
 20
1140.760787611754
 30
0.0
 11
8022.594902036473
 21
1269.215457175147
 31
0.0
  0
LINE
  5
1FF22
330
747D
100
AcDbEntity
  8
細線
100
AcDbLine
 10
8108.623164728671
 20
1140.760787611754
 30
0.0
 11
8022.594902036473
 21
1226.789050303954
 31
0.0
  0
LINE
  5
1FF23
330
747D
100
AcDbEntity
  8
部品1
100
AcDbLine
 10
7707.34046879288
 20
1434.760787611758
 30
0.0
 11
8341.392747127839
 21
1434.760787611758
 31
0.0
  0
LINE
  5
1FF24
330
747D
100
AcDbEntity
  8
部品1
100
AcDbLine
 10
7707.34046879288
 20
1440.760787611758
 30
0.0
 11
8312.594902036478
 21
1440.760787611756
 31
0.0
  0
LINE
  5
1FF25
330
747D
100
AcDbEntity
  8
部品1
100
AcDbLine
 10
7707.34046879288
 20
1340.760787611756
 30
0.0
 11
8331.793465430719
 21
1340.760787611756
 31
0.0
  0
LINE
  5
1FF26
330
747D
100
AcDbEntity
  8
細線
 48
10.0
100
AcDbLine
 10
7921.356648161502
 20
833.8425902724702
 30
0.0
 11
8228.274845500761
 21
1140.760787611754
 31
0.0
  0
LINE
  5
1FF27
330
747D
100
AcDbEntity
  8
細線
 48
10.0
100
AcDbLine
 10
7864.788105666578
 20
833.8425902724702
 30
0.0
 11
8171.706303005853
 21
1140.760787611754
 31
0.0
  0
LINE
  5
1FF28
330
747D
100
AcDbEntity
  8
細線
 48
10.0
100
AcDbLine
 10
7893.07237691404
 20
833.8425902724702
 30
0.0
 11
8199.990574253311
 21
1140.760787611754
 31
0.0
  0
LINE
  5
1FF29
330
747D
100
AcDbEntity
  8
Ｇ．Ｌ
100
AcDbLine
 10
7707.340468792883
 20
1140.760787611754
 30
0.0
 11
9171.375707557166
 21
1140.760787611754
 31
0.0
  0
DIMENSION
  5
1FF2A
330
747D
100
AcDbEntity
  8
寸法
 48
50.0
100
AcDbDimension
  2
*D48
 10
8655.358912604883
 20
1140.760787611754
 30
0.0
 11
8555.358912604884
 21
1240.760787611757
 31
0.0
 70
    32
  1
b
 71
     5
 42
200.0000000000018
  3
INABA_S40G
100
AcDbAlignedDimension
 13
8433.145665141983
 23
1340.760787611756
 33
0.0
 14
8452.594902036473
 24
1140.760787611754
 34
0.0
 50
90.0
100
AcDbRotatedDimension
1001
ACAD
1000
DSTYLE
1002
{
1070
   174
1070
     0
1070
   272
1070
     1
1070
   288
1070
     0
1070
   341
1005
0
1002
}
  0
LINE
  5
1FF2B
330
747D
100
AcDbEntity
  8
細線
 48
10.0
100
AcDbLine
 10
8348.015037014324
 20
833.8425902724702
 30
0.0
 11
8654.933234353602
 21
1140.760787611754
 31
0.0
  0
LINE
  5
1FF2C
330
747D
100
AcDbEntity
  8
細線
 48
10.0
100
AcDbLine
 10
8291.446494519403
 20
833.8425902724702
 30
0.0
 11
8598.364691858677
 21
1140.760787611754
 31
0.0
  0
LINE
  5
1FF2D
330
747D
100
AcDbEntity
  8
細線
 48
10.0
100
AcDbLine
 10
8319.730765766863
 20
833.8425902724702
 30
0.0
 11
8626.648963106136
 21
1140.760787611754
 31
0.0
  0
LINE
  5
1FF2E
330
747D
100
AcDbEntity
  8
部品1
 48
50.0
100
AcDbLine
 10
9236.831698760175
 20
2120.0
 30
0.0
 11
9236.831698760175
 21
200.0
 31
0.0
  0
LINE
  5
1FF2F
330
747D
100
AcDbEntity
  8
部品1
100
AcDbLine
 10
8422.594902036477
 20
1940.760787611754
 30
0.0
 11
8422.594902036481
 21
1441.006256599761
 31
0.0
  0
LINE
  5
1FF30
330
747D
100
AcDbEntity
  8
細線
 48
50.0
100
AcDbLine
 10
7877.594902036474
 20
1940.760787611754
 30
0.0
 11
7877.594902036474
 21
1440.760787611756
 31
0.0
  0
LINE
  5
1FF31
330
747D
100
AcDbEntity
  8
細線
 48
50.0
100
AcDbLine
 10
7907.594902036473
 20
1940.760787611754
 30
0.0
 11
7907.594902036473
 21
1440.760787611756
 31
0.0
  0
LINE
  5
1FF32
330
747D
100
AcDbEntity
  8
細線
 48
50.0
100
AcDbLine
 10
8157.594902036473
 20
1940.760787611754
 30
0.0
 11
8157.594902036473
 21
1440.760787611756
 31
0.0
  0
LINE
  5
1FF33
330
747D
100
AcDbEntity
  8
細線
 48
50.0
100
AcDbLine
 10
8187.594902036472
 20
1940.760787611754
 30
0.0
 11
8187.594902036472
 21
1440.760787611756
 31
0.0
  0
LINE
  5
1FF34
330
747D
100
AcDbEntity
  8
部品1
100
AcDbLine
 10
8312.594902036478
 20
1940.760787611754
 30
0.0
 11
8312.594902036481
 21
1434.760787611758
 31
0.0
  0
LINE
  5
1FF35
330
747D
100
AcDbEntity
  8
細線
 48
50.0
100
AcDbLine
 10
9697.927506749454
 20
2040.760787611753
 30
0.0
 11
9697.927506749454
 21
1540.760787611756
 31
0.0
  0
LINE
  5
1FF36
330
747D
100
AcDbEntity
  8
細線
 48
50.0
100
AcDbLine
 10
9667.927506749455
 20
2040.760787611753
 30
0.0
 11
9667.927506749455
 21
1540.760787611756
 31
0.0
  0
LINE
  5
1FF37
330
747D
100
AcDbEntity
  8
細線
 48
50.0
100
AcDbLine
 10
9417.927506749455
 20
2040.760787611753
 30
0.0
 11
9417.927506749455
 21
1540.760787611756
 31
0.0
  0
LINE
  5
1FF38
330
747D
100
AcDbEntity
  8
細線
 48
50.0
100
AcDbLine
 10
9387.927506749454
 20
2040.760787611753
 30
0.0
 11
9387.927506749454
 21
1540.760787611756
 31
0.0
  0
LINE
  5
1FF39
330
747D
100
AcDbEntity
  8
部品1
100
AcDbLine
 10
9932.927506749457
 20
2040.760787611753
 30
0.0
 11
9932.927506749463
 21
1541.006256599761
 31
0.0
  0
LINE
  5
1FF3A
330
747D
100
AcDbEntity
  8
部品1
100
AcDbLine
 10
9822.927506749458
 20
2040.760787611753
 30
0.0
 11
9822.927506749463
 21
1534.760787611756
 31
0.0
  0
LINE
  5
1FF3B
330
747D
100
AcDbEntity
  8
Ｇ．Ｌ
100
AcDbLine
 10
9310.130109950748
 20
1140.760787611754
 30
0.0
 11
10755.02181195589
 21
1140.760787611754
 31
0.0
  0
LINE
  5
1FF3C
330
747D
100
AcDbEntity
  8
細線
 48
10.0
100
AcDbLine
 10
10347.15065389318
 20
833.8425902724702
 30
0.0
 11
10654.06885123246
 21
1140.760787611754
 31
0.0
  0
LINE
  5
1FF3D
330
747D
100
AcDbEntity
  8
細線
 48
10.0
100
AcDbLine
 10
10375.43492514063
 20
833.8425902724702
 30
0.0
 11
10682.35312247991
 21
1140.760787611754
 31
0.0
  0
LINE
  5
1FF3E
330
747D
100
AcDbEntity
  8
細線
 48
10.0
100
AcDbLine
 10
10403.7191963881
 20
833.8425902724702
 30
0.0
 11
10710.63739372738
 21
1140.760787611754
 31
0.0
  0
TEXT
  5
1FF3F
330
747D
100
AcDbEntity
  8
部品1
100
AcDbText
 10
10382.99774140124
 20
1148.666829290658
 30
0.0
 40
120.0
  1
▽G.L
  7
STYLE1
100
AcDbText
  0
TEXT
  5
1FF40
330
747D
100
AcDbEntity
  8
部品1
100
AcDbText
 10
6248.985060198744
 20
2178.285116341204
 30
0.0
 40
120.0
  1
地盤が土の場合
  7
STYLE2
100
AcDbText
  0
CIRCLE
  5
1FF41
330
747D
100
AcDbEntity
  8
部品1
100
AcDbCircle
 10
6779.539401023374
 20
1384.760787611754
 30
0.0
 40
16.0
  0
ARC
  5
1FF42
330
747D
100
AcDbEntity
  8
部品1
100
AcDbCircle
 10
6809.539401023375
 20
1404.760787611754
 30
0.0
 40
10.0
100
AcDbArc
 50
0.0
 51
90.0
  0
LINE
  5
1FF43
330
747D
100
AcDbEntity
  8
細線
100
AcDbLine
 10
6787.539401023375
 20
1354.760787611754
 30
0.0
 11
6787.539401023375
 21
1314.760787611754
 31
0.0
  0
LINE
  5
1FF44
330
747D
100
AcDbEntity
  8
細線
100
AcDbLine
 10
6771.539401023374
 20
1354.760787611754
 30
0.0
 11
6771.539401023374
 21
1314.760787611754
 31
0.0
  0
ARC
  5
1FF45
330
747D
100
AcDbEntity
  8
細線
100
AcDbCircle
 10
6779.539401023374
 20
1314.760787611754
 30
0.0
 40
8.0
100
AcDbArc
 50
180.0
 51
0.0
  0
ARC
  5
1FF46
330
747D
100
AcDbEntity
  8
細線
100
AcDbCircle
 10
6779.539401023374
 20
1354.760787611754
 30
0.0
 40
8.0
100
AcDbArc
 50
0.0
 51
180.0
  0
ARC
  5
1FF47
330
747D
100
AcDbEntity
  8
部品1
100
AcDbCircle
 10
6749.539401023374
 20
1404.760787611754
 30
0.0
 40
10.0
100
AcDbArc
 50
90.0
 51
180.0
  0
LINE
  5
1FF48
330
747D
100
AcDbEntity
  8
部品1
100
AcDbLine
 10
6749.539401023374
 20
1414.760787611754
 30
0.0
 11
6809.539401023375
 21
1414.760787611754
 31
0.0
  0
LINE
  5
1FF49
330
747D
100
AcDbEntity
  8
細線
100
AcDbLine
 10
6771.539401023374
 20
1075.904381151204
 30
0.0
 11
6771.539401023374
 21
1050.16078761175
 31
0.0
  0
LINE
  5
1FF4A
330
747D
100
AcDbEntity
  8
細線
100
AcDbLine
 10
6787.539401023375
 20
1075.904381151204
 30
0.0
 11
6787.539401023375
 21
1050.16078761175
 31
0.0
  0
LINE
  5
1FF4B
330
747D
100
AcDbEntity
  8
細線
100
AcDbLine
 10
6793.539401023373
 20
1020.160787611756
 30
0.0
 11
6794.539401023374
 21
1020.160787611752
 31
0.0
  0
LINE
  5
1FF4C
330
747D
100
AcDbEntity
  8
細線
100
AcDbLine
 10
6794.539401023374
 20
1026.16078761175
 30
0.0
 11
6794.539401023374
 21
1020.16078761175
 31
0.0
  0
ARC
  5
1FF4D
330
747D
100
AcDbEntity
  8
細線
100
AcDbCircle
 10
6787.416295397759
 20
1012.160787611748
 30
0.0
 40
4.0
100
AcDbArc
 50
270.0
 51
345.9637565320528
  0
LINE
  5
1FF4E
330
747D
100
AcDbEntity
  8
細線
100
AcDbLine
 10
6793.539401023373
 20
1020.16078761175
 30
0.0
 11
6791.296865398336
 21
1011.190645111601
 31
0.0
  0
LINE
  5
1FF4F
330
747D
100
AcDbEntity
  8
細線
100
AcDbLine
 10
6793.539401023373
 20
1024.760787611751
 30
0.0
 11
6793.539401023373
 21
1020.160787611752
 31
0.0
  0
ARC
  5
1FF50
330
747D
100
AcDbEntity
  8
細線
100
AcDbCircle
 10
6771.662506648997
 20
1012.160787611747
 30
0.0
 40
4.0
100
AcDbArc
 50
194.0362434679471
 51
270.0
  0
LINE
  5
1FF51
330
747D
100
AcDbEntity
  8
細線
100
AcDbLine
 10
6765.539401023374
 20
1020.16078761175
 30
0.0
 11
6767.781936648413
 21
1011.190645111601
 31
0.0
  0
LINE
  5
1FF52
330
747D
100
AcDbEntity
  8
細線
100
AcDbLine
 10
6765.539401023374
 20
1024.760787611749
 30
0.0
 11
6765.539401023374
 21
1020.160787611752
 31
0.0
  0
LINE
  5
1FF53
330
747D
100
AcDbEntity
  8
細線
100
AcDbLine
 10
6771.662506648997
 20
1008.160787611745
 30
0.0
 11
6787.416295397759
 21
1008.16078761175
 31
0.0
  0
LINE
  5
1FF54
330
747D
100
AcDbEntity
  8
細線
100
AcDbLine
 10
6764.539401023374
 20
1024.760787611749
 30
0.0
 11
6794.539401023374
 21
1024.760787611754
 31
0.0
  0
LINE
  5
1FF55
330
747D
100
AcDbEntity
  8
細線
100
AcDbLine
 10
6764.539401023374
 20
1026.160787611756
 30
0.0
 11
6764.539401023374
 21
1020.160787611752
 31
0.0
  0
ARC
  5
1FF56
330
747D
100
AcDbEntity
  8
細線
100
AcDbCircle
 10
6779.539401023374
 20
1050.16078761175
 30
0.0
 40
8.0
100
AcDbArc
 50
180.0
 51
0.0
  0
LINE
  5
1FF57
330
747D
100
AcDbEntity
  8
細線
100
AcDbLine
 10
6764.539401023374
 20
1026.160787611756
 30
0.0
 11
6794.539401023374
 21
1026.160787611752
 31
0.0
  0
LINE
  5
1FF58
330
747D
100
AcDbEntity
  8
細線
100
AcDbLine
 10
6764.539401023374
 20
1020.160787611756
 30
0.0
 11
6765.539401023374
 21
1020.160787611756
 31
0.0
  0
CIRCLE
  5
1FF59
330
747D
100
AcDbEntity
  8
細線
100
AcDbCircle
 10
6779.539401023374
 20
1089.760787611754
 30
0.0
 40
16.0
  0
CIRCLE
  5
1FF5A
330
747D
100
AcDbEntity
  8
細線
100
AcDbCircle
 10
6779.539401023374
 20
1244.760787611756
 30
0.0
 40
7.0
  0
CIRCLE
  5
1FF5B
330
747D
100
AcDbEntity
  8
細線
100
AcDbCircle
 10
6779.539401023374
 20
1244.760787611756
 30
0.0
 40
6.0
  0
ARC
  5
1FF5C
330
747D
100
AcDbEntity
  8
部品1
100
AcDbCircle
 10
6810.485341543129
 20
1102.160787611748
 30
0.0
 40
10.0
100
AcDbArc
 50
5.684241598181141
 51
90.0
  0
LINE
  5
1FF5D
330
747D
100
AcDbEntity
  8
細線
  6
HIDDEN
 48
10.0
100
AcDbLine
 10
6820.086846680261
 20
1104.955621972072
 30
0.0
 11
6855.892012319944
 21
1140.760787611756
 31
0.0
  0
LINE
  5
1FF5E
330
747D
100
AcDbEntity
  8
細線
  6
HIDDEN
 48
10.0
100
AcDbLine
 10
6819.539401023374
 20
1132.692447562642
 30
0.0
 11
6827.607741072488
 21
1140.760787611754
 31
0.0
  0
ARC
  5
1FF5F
330
747D
100
AcDbEntity
  8
部品1
100
AcDbCircle
 10
6748.593460503617
 20
1102.160787611752
 30
0.0
 40
10.0
100
AcDbArc
 50
90.0
 51
174.3157584018188
  0
LINE
  5
1FF60
330
747D
100
AcDbEntity
  8
部品1
100
AcDbLine
 10
6748.593460503617
 20
1112.160787611754
 30
0.0
 11
6810.485341543129
 21
1112.160787611748
 31
0.0
  0
LINE
  5
1FF61
330
747D
100
AcDbEntity
  8
部品1
100
AcDbLine
 10
6739.539401023375
 20
1404.760787611754
 30
0.0
 11
6739.539401023375
 21
1106.406256599763
 31
0.0
  0
LINE
  5
1FF62
330
747D
100
AcDbEntity
  8
部品1
100
AcDbLine
 10
6819.539401023374
 20
1403.760787611754
 30
0.0
 11
6819.539401023378
 21
1106.406256599763
 31
0.0
  0
LINE
  5
1FF63
330
747D
100
AcDbEntity
  8
細線
100
AcDbLine
 10
6739.539401023375
 20
1175.489627154842
 30
0.0
 11
6574.268240566462
 21
1340.760787611754
 31
0.0
  0
LINE
  5
1FF64
330
747D
100
AcDbEntity
  8
細線
100
AcDbLine
 10
6505.567663715573
 20
1140.760787611754
 30
0.0
 11
6419.539401023374
 21
1226.789050303954
 31
0.0
  0
LINE
  5
1FF65
330
747D
100
AcDbEntity
  8
部品1
100
AcDbLine
 10
6419.539401023374
 20
1140.760787611754
 30
0.0
 11
6419.539401023374
 21
1340.760787611754
 31
0.0
  0
LINE
  5
1FF66
330
747D
100
AcDbEntity
  8
細線
100
AcDbLine
 10
6731.841833695269
 20
1140.760787611754
 30
0.0
 11
6531.841833695269
 21
1340.760787611754
 31
0.0
  0
LINE
  5
1FF67
330
747D
100
AcDbEntity
  8
細線
100
AcDbLine
 10
6547.994070586764
 20
1140.760787611754
 30
0.0
 11
6419.539401023374
 21
1269.215457175147
 31
0.0
  0
LINE
  5
1FF68
330
747D
100
AcDbEntity
  8
部品1
100
AcDbLine
 10
6849.539401023374
 20
818.160787611754
 30
0.0
 11
6849.539401023374
 21
806.1607876117541
 31
0.0
  0
LINE
  5
1FF69
330
747D
100
AcDbEntity
  8
細線
100
AcDbLine
 10
6794.539401023374
 20
876.1607876117487
 30
0.0
 11
6794.539401023374
 21
870.1607876117487
 31
0.0
  0
LINE
  5
1FF6A
330
747D
100
AcDbEntity
  8
細線
100
AcDbLine
 10
6794.539401023374
 20
836.1607876117505
 30
0.0
 11
6794.539401023374
 21
830.1607876117504
 31
0.0
  0
LINE
  5
1FF6B
330
747D
100
AcDbEntity
  8
細線
100
AcDbLine
 10
6764.539401023374
 20
876.1607876117578
 30
0.0
 11
6764.539401023374
 21
870.1607876117522
 31
0.0
  0
LINE
  5
1FF6C
330
747D
100
AcDbEntity
  8
細線
100
AcDbLine
 10
6764.539401023374
 20
836.160787611756
 30
0.0
 11
6764.539401023374
 21
830.1607876117524
 31
0.0
  0
LINE
  5
1FF6D
330
747D
100
AcDbEntity
  8
細線
100
AcDbLine
 10
6764.539401023374
 20
870.1607876117577
 30
0.0
 11
6794.539401023374
 21
870.1607876117522
 31
0.0
  0
LINE
  5
1FF6E
330
747D
100
AcDbEntity
  8
細線
100
AcDbLine
 10
6764.539401023374
 20
876.1607876117578
 30
0.0
 11
6794.539401023374
 21
876.1607876117523
 31
0.0
  0
LINE
  5
1FF6F
330
747D
100
AcDbEntity
  8
細線
100
AcDbLine
 10
6764.539401023374
 20
836.160787611756
 30
0.0
 11
6794.539401023374
 21
836.1607876117522
 31
0.0
  0
LINE
  5
1FF70
330
747D
100
AcDbEntity
  8
細線
100
AcDbLine
 10
6764.539401023374
 20
830.1607876117559
 30
0.0
 11
6794.539401023374
 21
830.1607876117524
 31
0.0
  0
LINE
  5
1FF71
330
747D
100
AcDbEntity
  8
部品1
100
AcDbLine
 10
6709.539401023374
 20
818.1607876117523
 30
0.0
 11
6709.539401023374
 21
806.1607876117541
 31
0.0
  0
LINE
  5
1FF72
330
747D
100
AcDbEntity
  8
部品1
100
AcDbLine
 10
6709.539401023374
 20
806.1607876117541
 30
0.0
 11
6849.539401023374
 21
806.1607876117541
 31
0.0
  0
LINE
  5
1FF73
330
747D
100
AcDbEntity
  8
部品1
100
AcDbLine
 10
6709.539401023374
 20
818.160787611754
 30
0.0
 11
6849.539401023374
 21
818.160787611754
 31
0.0
  0
LINE
  5
1FF74
330
747D
100
AcDbEntity
  8
部品1
100
AcDbLine
 10
6820.436170031449
 20
1103.151248310656
 30
0.0
 11
6849.539401023374
 21
818.160787611754
 31
0.0
  0
LINE
  5
1FF75
330
747D
100
AcDbEntity
  8
部品1
100
AcDbLine
 10
6738.642632015306
 20
1103.151248310656
 30
0.0
 11
6709.539401023374
 21
818.160787611754
 31
0.0
  0
LINE
  5
1FF76
330
747D
100
AcDbEntity
  8
細線
  6
HIDDEN
 48
10.0
100
AcDbLine
 10
6569.539401023376
 20
854.408176315168
 30
0.0
 11
6729.584826779998
 21
1014.453602071808
 31
0.0
  0
LINE
  5
1FF77
330
747D
100
AcDbEntity
  8
細線
  6
HIDDEN
 48
10.0
100
AcDbLine
 10
6569.539401023374
 20
910.9767188100905
 30
0.0
 11
6736.01862717321
 21
1077.455944959931
 31
0.0
  0
LINE
  5
1FF78
330
747D
100
AcDbEntity
  8
細線
  6
HIDDEN
 48
10.0
100
AcDbLine
 10
6569.539401023376
 20
882.6924475626292
 30
0.0
 11
6732.801726976608
 21
1045.954773515872
 31
0.0
  0
LINE
  5
1FF79
330
747D
100
AcDbEntity
  8
Ｇ．Ｌ
100
AcDbLine
 10
6819.539401023374
 20
1140.760787611754
 30
0.0
 11
7571.635643261712
 21
1140.760787611754
 31
0.0
  0
LINE
  5
1FF7A
330
747D
100
AcDbEntity
  8
細線
  6
HIDDEN
 48
10.0
100
AcDbLine
 10
6882.550401172792
 20
740.7607876117562
 30
0.0
 11
6969.539401023372
 21
827.7497874623396
 31
0.0
  0
LINE
  5
1FF7B
330
747D
100
AcDbEntity
  8
細線
  6
HIDDEN
 48
10.0
100
AcDbLine
 10
6825.981858677869
 20
740.7607876117554
 30
0.0
 11
6969.539401023374
 21
884.3183299572638
 31
0.0
  0
LINE
  5
1FF7C
330
747D
100
AcDbEntity
  8
細線
  6
HIDDEN
 48
10.0
100
AcDbLine
 10
6854.266129925331
 20
740.7607876117562
 30
0.0
 11
6969.539401023372
 21
856.0340587098036
 31
0.0
  0
TEXT
  5
1FF7D
330
747D
100
AcDbEntity
  8
部品1
100
AcDbText
 10
7204.102948092985
 20
1148.666829290658
 30
0.0
 40
120.0
  1
▽G.L
  7
STYLE1
100
AcDbText
  0
LINE
  5
1FF7E
330
747D
100
AcDbEntity
  8
細線
100
AcDbLine
 10
5288.50036857751
 20
1040.760787611754
 30
0.0
 11
5275.102908955954
 21
990.7607876117562
 31
0.0
  0
LINE
  5
1FF7F
330
747D
100
AcDbEntity
  8
細線
100
AcDbLine
 10
5388.500368577513
 20
1040.760787611754
 30
0.0
 11
5375.102908955954
 21
990.7607876117562
 31
0.0
  0
LINE
  5
1FF80
330
747D
100
AcDbEntity
  8
細線
100
AcDbLine
 10
5260.602479042429
 20
1040.760787611754
 30
0.0
 11
5360.602479042426
 21
1140.760787611756
 31
0.0
  0
LINE
  5
1FF81
330
747D
100
AcDbEntity
  8
細線
100
AcDbLine
 10
5288.886750289888
 20
1040.760787611754
 30
0.0
 11
5388.886750289888
 21
1140.760787611756
 31
0.0
  0
LINE
  5
1FF82
330
747D
100
AcDbEntity
  8
部品1
100
AcDbLine
 10
5361.705449334398
 20
1340.760787611754
 30
0.0
 11
5361.705449334398
 21
1140.760787611756
 31
0.0
  0
TEXT
  5
1FF83
330
747D
100
AcDbEntity
  8
部品1
100
AcDbText
 10
5584.958075201829
 20
1148.66682929066
 30
0.0
 40
120.0
  1
▽G.L
  7
STYLE1
100
AcDbText
  0
LINE
  5
1FF84
330
747D
100
AcDbEntity
  8
細線
100
AcDbLine
 10
5301.89782819907
 20
890.7607876117545
 30
0.0
 11
5288.50036857751
 21
840.7607876117545
 31
0.0
  0
LINE
  5
1FF85
330
747D
100
AcDbEntity
  8
細線
100
AcDbLine
 10
5401.897828199065
 20
890.7607876117545
 30
0.0
 11
5388.500368577513
 21
840.7607876117545
 31
0.0
  0
LINE
  5
1FF86
330
747D
100
AcDbEntity
  8
部品1
100
AcDbLine
 10
5461.705449334399
 20
1140.760787611756
 30
0.0
 11
5461.705449334399
 21
840.7607876117545
 31
0.0
  0
LINE
  5
1FF87
330
747D
100
AcDbEntity
  8
細線
100
AcDbLine
 10
5261.705449334402
 20
1040.760787611754
 30
0.0
 11
5315.295287820621
 21
840.7607876117507
 31
0.0
  0
LINE
  5
1FF88
330
747D
100
AcDbEntity
  8
細線
100
AcDbLine
 10
5361.705449334398
 20
1040.760787611754
 30
0.0
 11
5415.295287820621
 21
840.7607876117545
 31
0.0
  0
LINE
  5
1FF89
330
747D
100
AcDbEntity
  8
部品1
100
AcDbLine
 10
6104.28496777978
 20
1440.760787611756
 30
0.0
 11
6709.539401023374
 21
1440.760787611754
 31
0.0
  0
LINE
  5
1FF8A
330
747D
100
AcDbEntity
  8
部品1
100
AcDbLine
 10
6104.28496777978
 20
1340.760787611754
 30
0.0
 11
6739.539401023375
 21
1340.760787611754
 31
0.0
  0
LINE
  5
1FF8B
330
747D
100
AcDbEntity
  8
Ｇ．Ｌ
100
AcDbLine
 10
6104.28496777978
 20
1140.760787611754
 30
0.0
 11
6739.539401023375
 21
1140.760787611754
 31
0.0
  0
DIMENSION
  5
1FF8C
330
747D
100
AcDbEntity
  8
寸法
 48
50.0
100
AcDbDimension
  2
*D49
 10
6326.209653947844
 20
740.7607876117546
 30
0.0
 11
6326.209653947844
 21
928.3854207276599
 31
0.0
 70
   160
  1
200
 71
     5
 42
399.9999999999999
  3
INABA_S40G
100
AcDbAlignedDimension
 13
6419.539401023374
 23
1140.760787611754
 33
0.0
 14
6569.539401023374
 24
740.7607876117545
 34
0.0
 50
90.0
100
AcDbRotatedDimension
1001
ACAD
1000
DSTYLE
1002
{
1070
   174
1070
     0
1070
   272
1070
     1
1070
   288
1070
     0
1070
   341
1005
0
1002
}
  0
LINE
  5
1FF8D
330
747D
100
AcDbEntity
  8
部品1
100
AcDbLine
 10
6104.28496777978
 20
1434.760787611754
 30
0.0
 11
6819.539401023374
 21
1434.760787611754
 31
0.0
  0
LINE
  5
1FF8E
330
747D
100
AcDbEntity
  8
部品1
100
AcDbLine
 10
6709.539401023374
 20
1940.760787611752
 30
0.0
 11
6709.539401023377
 21
1434.760787611756
 31
0.0
  0
LINE
  5
1FF8F
330
747D
100
AcDbEntity
  8
部品1
100
AcDbLine
 10
6819.539401023374
 20
1940.760787611752
 30
0.0
 11
6819.539401023374
 21
1140.760787611754
 31
0.0
  0
LINE
  5
1FF90
330
747D
100
AcDbEntity
  8
部品1
 48
50.0
100
AcDbLine
 10
6036.831698760174
 20
2600.0
 30
0.0
 11
6036.831698760174
 21
200.0
 31
0.0
  0
LINE
  5
1FF91
330
747D
100
AcDbEntity
  8
部品1
 48
50.0
100
AcDbLine
 10
7636.831698760174
 20
2360.0
 30
0.0
 11
7636.831698760174
 21
200.0
 31
0.0
  0
LINE
  5
1FF92
330
747D
100
AcDbEntity
  8
細線
 48
50.0
100
AcDbLine
 10
6554.539401023373
 20
1940.760787611752
 30
0.0
 11
6554.539401023373
 21
1440.760787611754
 31
0.0
  0
LINE
  5
1FF93
330
747D
100
AcDbEntity
  8
細線
 48
50.0
100
AcDbLine
 10
6584.539401023374
 20
1940.760787611752
 30
0.0
 11
6584.539401023374
 21
1440.760787611754
 31
0.0
  0
LINE
  5
1FF94
330
747D
100
AcDbEntity
  8
細線
 48
50.0
100
AcDbLine
 10
6304.539401023374
 20
1940.760787611752
 30
0.0
 11
6304.539401023374
 21
1440.760787611754
 31
0.0
  0
LINE
  5
1FF95
330
747D
100
AcDbEntity
  8
細線
 48
50.0
100
AcDbLine
 10
6274.539401023374
 20
1940.760787611752
 30
0.0
 11
6274.539401023374
 21
1440.760787611754
 31
0.0
  0
LINE
  5
1FF96
330
747D
100
AcDbEntity
  8
細線
100
AcDbLine
 10
5188.500368577511
 20
1040.760787611754
 30
0.0
 11
5175.102908955958
 21
990.7607876117562
 31
0.0
  0
LINE
  5
1FF97
330
747D
100
AcDbEntity
  8
細線
100
AcDbLine
 10
5088.500368577514
 20
1040.760787611754
 30
0.0
 11
5075.102908955955
 21
990.7607876117562
 31
0.0
  0
LINE
  5
1FF98
330
747D
100
AcDbEntity
  8
細線
100
AcDbLine
 10
4888.50036857751
 20
1040.760787611753
 30
0.0
 11
4875.102908955958
 21
990.7607876117507
 31
0.0
  0
LINE
  5
1FF99
330
747D
100
AcDbEntity
  8
細線
100
AcDbLine
 10
4988.50036857751
 20
1040.760787611753
 30
0.0
 11
4975.102908955954
 21
990.7607876117507
 31
0.0
  0
LINE
  5
1FF9A
330
747D
100
AcDbEntity
  8
細線
100
AcDbLine
 10
4932.318207794966
 20
1040.760787611753
 30
0.0
 11
5032.318207794966
 21
1140.760787611756
 31
0.0
  0
LINE
  5
1FF9B
330
747D
100
AcDbEntity
  8
細線
100
AcDbLine
 10
4960.602479042429
 20
1040.760787611754
 30
0.0
 11
5060.602479042426
 21
1140.760787611756
 31
0.0
  0
LINE
  5
1FF9C
330
747D
100
AcDbEntity
  8
細線
100
AcDbLine
 10
5081.473487193862
 20
1140.760787611756
 30
0.0
 11
4961.705449334402
 21
1260.528825471216
 31
0.0
  0
LINE
  5
1FF9D
330
747D
100
AcDbEntity
  8
細線
100
AcDbLine
 10
4988.886750289892
 20
1040.760787611754
 30
0.0
 11
5088.886750289888
 21
1140.760787611756
 31
0.0
  0
LINE
  5
1FF9E
330
747D
100
AcDbEntity
  8
細線
100
AcDbLine
 10
5123.899894065054
 20
1140.760787611756
 30
0.0
 11
4961.705449334399
 21
1302.955232342408
 31
0.0
  0
LINE
  5
1FF9F
330
747D
100
AcDbEntity
  8
部品1
100
AcDbLine
 10
4961.705449334402
 20
1140.760787611756
 30
0.0
 11
4961.705449334402
 21
1340.760787611754
 31
0.0
  0
LINE
  5
1FFA0
330
747D
100
AcDbEntity
  8
細線
100
AcDbLine
 10
5201.897828199065
 20
890.7607876117545
 30
0.0
 11
5188.500368577511
 21
840.7607876117545
 31
0.0
  0
LINE
  5
1FFA1
330
747D
100
AcDbEntity
  8
細線
100
AcDbLine
 10
5101.897828199065
 20
890.7607876117545
 30
0.0
 11
5088.500368577514
 21
840.7607876117545
 31
0.0
  0
LINE
  5
1FFA2
330
747D
100
AcDbEntity
  8
細線
100
AcDbLine
 10
4901.897828199065
 20
890.7607876117527
 30
0.0
 11
4888.50036857751
 21
840.7607876117507
 31
0.0
  0
LINE
  5
1FFA3
330
747D
100
AcDbEntity
  8
細線
100
AcDbLine
 10
5001.897828199069
 20
890.7607876117527
 30
0.0
 11
4988.50036857751
 21
840.7607876117507
 31
0.0
  0
LINE
  5
1FFA4
330
747D
100
AcDbEntity
  8
部品1
100
AcDbLine
 10
4861.705449334398
 20
840.7607876117507
 30
0.0
 11
4861.705449334398
 21
1140.760787611756
 31
0.0
  0
LINE
  5
1FFA5
330
747D
100
AcDbEntity
  8
細線
100
AcDbLine
 10
4861.705449334398
 20
1040.760787611753
 30
0.0
 11
4915.295287820625
 21
840.760787611749
 31
0.0
  0
LINE
  5
1FFA6
330
747D
100
AcDbEntity
  8
細線
100
AcDbLine
 10
5161.705449334398
 20
1040.760787611754
 30
0.0
 11
5215.295287820625
 21
840.7607876117507
 31
0.0
  0
LINE
  5
1FFA7
330
747D
100
AcDbEntity
  8
細線
100
AcDbLine
 10
5061.705449334398
 20
1040.760787611754
 30
0.0
 11
5115.295287820622
 21
840.7607876117507
 31
0.0
  0
LINE
  5
1FFA8
330
747D
100
AcDbEntity
  8
細線
100
AcDbLine
 10
4961.705449334402
 20
1040.760787611753
 30
0.0
 11
5015.295287820621
 21
840.760787611749
 31
0.0
  0
LINE
  5
1FFA9
330
747D
100
AcDbEntity
  8
部品1
 48
50.0
100
AcDbLine
 10
4436.831698760173
 20
2600.0
 30
0.0
 11
4436.831698760173
 21
200.0
 31
0.0
  0
LINE
  5
1FFAA
330
747D
100
AcDbEntity
  8
部品1
100
AcDbLine
 10
4861.705449334398
 20
840.7607876117507
 30
0.0
 11
5461.705449334399
 21
840.7607876117545
 31
0.0
  0
LINE
  5
1FFAB
330
747D
100
AcDbEntity
  8
部品1
100
AcDbLine
 10
4861.705449334398
 20
1040.760787611753
 30
0.0
 11
5461.705449334399
 21
1040.760787611754
 31
0.0
  0
LINE
  5
1FFAC
330
747D
100
AcDbEntity
  8
部品1
100
AcDbLine
 10
4961.705449334402
 20
1340.760787611754
 30
0.0
 11
5361.705449334398
 21
1340.760787611754
 31
0.0
  0
LINE
  5
1FFAD
330
747D
100
AcDbEntity
  8
Ｇ．Ｌ
100
AcDbLine
 10
4531.604443289075
 20
1140.760787611756
 30
0.0
 11
5962.497727112236
 21
1140.760787611756
 31
0.0
  0
LINE
  5
1FFAE
330
747D
100
AcDbEntity
  8
細線
100
AcDbLine
 10
5350.174064044748
 20
1140.760787611756
 30
0.0
 11
5150.174064044751
 21
1340.760787611754
 31
0.0
  0
TEXT
  5
1FFAF
330
747D
100
AcDbEntity
  8
部品1
100
AcDbText
 10
4902.431719764972
 20
2307.972217178321
 30
0.0
 40
120.0
  1
基礎詳細
  7
STYLE2
100
AcDbText
  0
MTEXT
  5
1FFB0
102
{ACAD_REACTORS
330
1FFB1
102
}
330
747D
100
AcDbEntity
  8
寸法
 62
     7
 48
50.0
100
AcDbMText
 10
5399.237306059188
 20
1638.612705420522
 30
0.0
 40
120.0
 41
1.0
 71
     4
 72
     1
  1
\A1;C.B
  7
STYLE1
 73
     1
 44
1.0
1001
ACAD
1000
MTEXTBEGIN
1070
    73
1070
     1
1070
    44
1040
1.0
1070
    74
1070
     0
1000
MTEXTEND
  0
LEADER
  5
1FFB1
330
747D
100
AcDbEntity
  8
寸法
 48
50.0
100
AcDbLeader
  3
INABA_S50G
 71
     0
 73
     0
 74
     0
 75
     1
 40
120.0
 41
185.591883092037
 76
     3
 10
5161.705449334401
 20
1340.760787611754
 30
0.0
 10
5316.969031905578
 20
1553.612705420522
 30
0.0
 10
5441.969031905578
 20
1553.612705420522
 30
0.0
340
1FFB0
213
67.73172584638814
223
0.0
233
0.0
1001
ACAD
1000
DSTYLE
1002
{
1070
    40
1040
1.0
1002
}
  0
LINE
  5
1FFB2
330
747D
100
AcDbEntity
  8
細線
100
AcDbLine
 10
5307.747657173555
 20
1140.760787611756
 30
0.0
 11
5107.747657173558
 21
1340.760787611754
 31
0.0
  0
LINE
  5
1FFB3
330
747D
100
AcDbEntity
  8
細線
100
AcDbLine
 10
5232.318207794966
 20
1040.760787611754
 30
0.0
 11
5332.318207794962
 21
1140.760787611756
 31
0.0
  0
TEXT
  5
1FFB4
330
747D
100
AcDbEntity
  8
部品1
100
AcDbText
 10
7690.559015138866
 20
2414.063814602734
 30
0.0
 40
120.0
  1
アンカー部詳細
  7
STYLE2
100
AcDbText
  0
LINE
  5
1FFB5
330
747D
100
AcDbEntity
  8
部品1
 48
50.0
100
AcDbLine
 10
4436.831698760173
 20
200.0
 30
0.0
 11
10836.83169876017
 21
200.0
 31
0.0
  0
LINE
  5
1FFB6
330
747D
100
AcDbEntity
  8
部品1
 48
50.0
100
AcDbLine
 10
10836.83169876017
 20
2600.0
 30
0.0
 11
4436.831698760173
 21
2600.000000000002
 31
0.0
  0
LINE
  5
1FFB7
330
747D
100
AcDbEntity
  8
部品1
 48
50.0
100
AcDbLine
 10
10836.83169876017
 20
2360.0
 30
0.0
 11
6036.831698760174
 21
2360.0
 31
0.0
  0
LINE
  5
1FFB8
330
747D
100
AcDbEntity
  8
部品1
 48
50.0
100
AcDbLine
 10
4436.831698760173
 20
2120.0
 30
0.0
 11
10836.83169876017
 21
2120.0
 31
0.0
  0
ENDSEC
  0
SECTION
  2
OBJECTS
  0
DICTIONARY
  5
7471
330
0
100
AcDbDictionary
281
     1
  3
ACAD_COLOR
350
159B0
  3
ACAD_GROUP
350
7472
  3
ACAD_LAYOUT
350
159B1
  3
ACAD_MATERIAL
350
159AF
  3
ACAD_MLINESTYLE
350
7473
  3
ACAD_PLOTSETTINGS
350
159B2
  3
ACAD_PLOTSTYLENAME
350
159AD
  3
ACDBHEADERROUNDTRIPXREC
350
20012
  3
AcDbVariableDictionary
350
2000E
  3
CONTENTDICTIONARY
350
E71C
  3
DRAWINGVARIABLESDICT
350
F3B9
  0
DICTIONARY
  5
1ED5D
330
7467
100
AcDbDictionary
280
     1
281
     1
  3
ACAD_LAYERSTATES
360
1ED5E
  0
DICTIONARY
  5
159B0
102
{ACAD_REACTORS
330
7471
102
}
330
7471
100
AcDbDictionary
281
     1
  0
DICTIONARY
  5
7472
102
{ACAD_REACTORS
330
7471
102
}
330
7471
100
AcDbDictionary
281
     1
  3
*A1
350
1FC66
  0
DICTIONARY
  5
159B1
102
{ACAD_REACTORS
330
7471
102
}
330
7471
100
AcDbDictionary
281
     1
  3
Model
350
159B3
  3
レイアウト1
350
159B4
  0
DICTIONARY
  5
159AF
102
{ACAD_REACTORS
330
7471
102
}
330
7471
100
AcDbDictionary
281
     1
  0
DICTIONARY
  5
7473
102
{ACAD_REACTORS
330
7471
102
}
330
7471
100
AcDbDictionary
281
     1
  3
STANDARD
350
7480
  0
DICTIONARY
  5
159B2
102
{ACAD_REACTORS
330
7471
102
}
330
7471
100
AcDbDictionary
281
     1
  0
ACDBDICTIONARYWDFLT
  5
159AD
102
{ACAD_REACTORS
330
7471
102
}
330
7471
100
AcDbDictionary
281
     1
  3
Normal
350
159AE
100
AcDbDictionaryWithDefault
340
159AE
  0
DICTIONARY
  5
20012
102
{ACAD_REACTORS
330
7471
102
}
330
7471
100
AcDbDictionary
281
     1
  3
COLORDICT
350
20014
  3
MATERIALDICT
350
20013
  0
DICTIONARY
  5
2000E
102
{ACAD_REACTORS
330
7471
102
}
330
7471
100
AcDbDictionary
281
     1
  3
DIMASSOC
350
2000F
  3
PROJECTNAME
350
20010
  0
DICTIONARY
  5
E71C
102
{ACAD_REACTORS
330
7471
102
}
330
7471
100
AcDbDictionary
281
     1
  0
DICTIONARY
  5
F3B9
102
{ACAD_REACTORS
330
7471
102
}
330
7471
100
AcDbDictionary
281
     1
1001
DRAWINGVARIABLESXDATA
1000
POLARMODE
1000
1
  0
DICTIONARY
  5
1ED5E
102
{ACAD_REACTORS
330
1ED5D
102
}
330
1ED5D
100
AcDbDictionary
281
     1
  0
GROUP
  5
1FC66
102
{ACAD_REACTORS
330
7472
102
}
330
7472
100
AcDbGroup
300

 70
     1
 71
     1
340
1FC4C
340
1FC4B
340
1FC4A
340
1FC49
340
1FC48
  0
LAYOUT
  5
159B3
102
{ACAD_XDICTIONARY
360
20015
102
}
102
{ACAD_REACTORS
330
159B1
102
}
330
159B1
100
AcDbPlotSettings
  1

  2
iR C3880
  4
A3
  6

 40
5.873749732971191
 41
5.873747825622558
 42
5.873748779296875
 43
5.873748779296875
 44
296.9259948730469
 45
419.9466552734374
 46
0.0
 47
0.0
 48
0.0
 49
0.0
140
0.0
141
0.0
142
1.0
143
41.65811991999086
 70
 11952
 72
     1
 73
     1
 74
     2
  7
inabass.ctb
 75
     0
147
0.0240049239360925
148
0.0
149
0.0
100
AcDbLayout
  1
Model
 70
     1
 71
     0
 10
0.0
 20
0.0
 11
12.0
 21
9.0
 12
0.0
 22
0.0
 32
0.0
 14
0.0
 24
0.0
 34
0.0
 15
0.0
 25
0.0
 35
0.0
146
0.0
 13
0.0
 23
0.0
 33
0.0
 16
1.0
 26
0.0
 36
0.0
 17
0.0
 27
1.0
 37
0.0
 76
     0
330
747D
  0
LAYOUT
  5
159B4
102
{ACAD_XDICTIONARY
360
20017
102
}
102
{ACAD_REACTORS
330
159B1
102
}
330
159B1
100
AcDbPlotSettings
  1

  2
自動 EPSON LP-8400FX (TATENO 上)
  4

  6

 40
0.0
 41
0.0
 42
0.0
 43
0.0
 44
0.0
 45
0.0
 46
0.0
 47
0.0
 48
0.0
 49
0.0
140
0.0
141
0.0
142
1.0
143
1.0
 70
   688
 72
     0
 73
     0
 74
     5
  7
inaba.ctb
 75
    16
147
1.0
148
0.0
149
0.0
100
AcDbLayout
  1
レイアウト1
 70
     0
 71
     1
 10
0.0
 20
0.0
 11
420.0
 21
297.0
 12
0.0
 22
0.0
 32
0.0
 14
1.000000000000000E+20
 24
1.000000000000000E+20
 34
1.000000000000000E+20
 15
-1.000000000000000E+20
 25
-1.000000000000000E+20
 35
-1.000000000000000E+20
146
0.0
 13
0.0
 23
0.0
 33
0.0
 16
1.0
 26
0.0
 36
0.0
 17
0.0
 27
1.0
 37
0.0
 76
     0
330
747A
  0
MLINESTYLE
  5
7480
102
{ACAD_REACTORS
330
7473
102
}
330
7473
100
AcDbMlineStyle
  2
STANDARD
 70
     0
  3

 62
     0
 51
90.0
 52
90.0
 71
     2
 49
0.5
 62
   256
  6
BYLAYER
 49
-0.5
 62
   256
  6
BYLAYER
  0
ACDBPLACEHOLDER
  5
159AE
102
{ACAD_REACTORS
330
159AD
102
}
330
159AD
  0
XRECORD
  5
20014
102
{ACAD_REACTORS
330
20012
102
}
330
20012
100
AcDbXrecord
280
     1
340
159B0
  0
XRECORD
  5
20013
102
{ACAD_REACTORS
330
20012
102
}
330
20012
100
AcDbXrecord
280
     1
340
159AF
  0
DICTIONARYVAR
  5
2000F
102
{ACAD_REACTORS
330
2000E
102
}
330
2000E
100
DictionaryVariables
280
     0
  1
1
  0
DICTIONARYVAR
  5
20010
102
{ACAD_REACTORS
330
2000E
102
}
330
2000E
100
DictionaryVariables
280
     0
  1

  0
DICTIONARY
  5
20015
330
159B3
100
AcDbDictionary
280
     1
281
     1
  3
ACAD_XREC_ROUNDTRIP
360
20016
  0
DICTIONARY
  5
20017
330
159B4
100
AcDbDictionary
280
     1
281
     1
  3
ACAD_XREC_ROUNDTRIP
360
20018
  0
XRECORD
  5
20016
102
{ACAD_REACTORS
330
20015
102
}
330
20015
100
AcDbXrecord
280
     1
102
SHADEPLOT
 70
     1
102
SHADEPLOTRESLEVEL
 70
     2
102
SHADEPLOTCUSTOMDPI
 70
   300
  0
XRECORD
  5
20018
102
{ACAD_REACTORS
330
20017
102
}
330
20017
100
AcDbXrecord
280
     1
102
SHADEPLOT
 70
     0
102
SHADEPLOTRESLEVEL
 70
     2
102
SHADEPLOTCUSTOMDPI
 70
   300
  0
ENDSEC
  0
EOF
