  0
SECTION
  2
HEADER
  9
$ACADVER
  1
AC1015
  9
$ACADMAINTVER
 70
    20
  9
$DWGCODEPAGE
  3
ANSI_932
  9
$INSBASE
 10
0.0
 20
0.0
 30
0.0
  9
$EXTMIN
 10
139.196816621341
 20
-0.5436960005536094
 30
-0.0000000000000058
  9
$EXTMAX
 10
16308.32523385566
 20
11409.94830329749
 30
0.0000000000000104
  9
$LIMMIN
 10
0.0
 20
0.0
  9
$LIMMAX
 10
16800.0
 20
11880.0
  9
$ORTHOMODE
 70
     0
  9
$REGENMODE
 70
     1
  9
$FILLMODE
 70
     1
  9
$QTEXTMODE
 70
     0
  9
$MIRRTEXT
 70
     1
  9
$LTSCALE
 40
20.0
  9
$ATTMODE
 70
     1
  9
$TEXTSIZE
 40
100.0
  9
$TRACEWID
 40
1.0
  9
$TEXTSTYLE
  7
STYLE2
  9
$CLAYER
  8
寸法
  9
$CELTYPE
  6
BYLAYER
  9
$CECOLOR
 62
   256
  9
$CELTSCALE
 40
50.0
  9
$DISPSILH
 70
     0
  9
$DIMSCALE
 40
40.0
  9
$DIMASZ
 40
2.5
  9
$DIMEXO
 40
0.5
  9
$DIMDLI
 40
7.0
  9
$DIMRND
 40
0.0
  9
$DIMDLE
 40
0.0
  9
$DIMEXE
 40
1.5
  9
$DIMTP
 40
0.0
  9
$DIMTM
 40
0.0
  9
$DIMTXT
 40
3.0
  9
$DIMCEN
 40
0.0
  9
$DIMTSZ
 40
0.0
  9
$DIMTOL
 70
     0
  9
$DIMLIM
 70
     0
  9
$DIMTIH
 70
     0
  9
$DIMTOH
 70
     0
  9
$DIMSE1
 70
     0
  9
$DIMSE2
 70
     0
  9
$DIMTAD
 70
     3
  9
$DIMZIN
 70
     8
  9
$DIMBLK
  1

  9
$DIMASO
 70
     1
  9
$DIMSHO
 70
     1
  9
$DIMPOST
  1

  9
$DIMAPOST
  1

  9
$DIMALT
 70
     0
  9
$DIMALTD
 70
     2
  9
$DIMALTF
 40
0.0394
  9
$DIMLFAC
 40
1.0
  9
$DIMTOFL
 70
     1
  9
$DIMTVP
 40
0.0
  9
$DIMTIX
 70
     0
  9
$DIMSOXD
 70
     0
  9
$DIMSAH
 70
     1
  9
$DIMBLK1
  1
DOTSMALL
  9
$DIMBLK2
  1
DOTSMALL
  9
$DIMSTYLE
  2
INABA_S40G
  9
$DIMCLRD
 70
     0
  9
$DIMCLRE
 70
     0
  9
$DIMCLRT
 70
     7
  9
$DIMTFAC
 40
1.0
  9
$DIMGAP
 40
1.0
  9
$DIMJUST
 70
     0
  9
$DIMSD1
 70
     0
  9
$DIMSD2
 70
     0
  9
$DIMTOLJ
 70
     1
  9
$DIMTZIN
 70
     0
  9
$DIMALTZ
 70
     0
  9
$DIMALTTZ
 70
     0
  9
$DIMUPT
 70
     0
  9
$DIMDEC
 70
     1
  9
$DIMTDEC
 70
     1
  9
$DIMALTU
 70
     2
  9
$DIMALTTD
 70
     2
  9
$DIMTXSTY
  7
STYLE1
  9
$DIMAUNIT
 70
     0
  9
$DIMADEC
 70
     0
  9
$DIMALTRND
 40
0.0
  9
$DIMAZIN
 70
     0
  9
$DIMDSEP
 70
    46
  9
$DIMATFIT
 70
     3
  9
$DIMFRAC
 70
     0
  9
$DIMLDRBLK
  1

  9
$DIMLUNIT
 70
     2
  9
$DIMLWD
 70
    -2
  9
$DIMLWE
 70
    -2
  9
$DIMTMOVE
 70
     0
  9
$LUNITS
 70
     2
  9
$LUPREC
 70
     1
  9
$SKETCHINC
 40
1.0
  9
$FILLETRAD
 40
0.0
  9
$AUNITS
 70
     0
  9
$AUPREC
 70
     0
  9
$MENU
  1
acad
  9
$ELEVATION
 40
0.0
  9
$PELEVATION
 40
0.0
  9
$THICKNESS
 40
0.0
  9
$LIMCHECK
 70
     0
  9
$CHAMFERA
 40
3.0
  9
$CHAMFERB
 40
3.0
  9
$CHAMFERC
 40
0.0
  9
$CHAMFERD
 40
0.0
  9
$SKPOLY
 70
     0
  9
$TDCREATE
 40
2451368.612993866
  9
$TDUCREATE
 40
2451368.237993866
  9
$TDUPDATE
 40
2456380.851114178
  9
$TDUUPDATE
 40
2456380.476114178
  9
$TDINDWG
 40
1.4312714352
  9
$TDUSRTIMER
 40
1.4312714352
  9
$USRTIMER
 70
     1
  9
$ANGBASE
 50
0.0
  9
$ANGDIR
 70
     0
  9
$PDMODE
 70
     3
  9
$PDSIZE
 40
2.0
  9
$PLINEWID
 40
0.0
  9
$SPLFRAME
 70
     0
  9
$SPLINETYPE
 70
     6
  9
$SPLINESEGS
 70
     8
  9
$HANDSEED
  5
1FA1D
  9
$SURFTAB1
 70
     6
  9
$SURFTAB2
 70
     6
  9
$SURFTYPE
 70
     6
  9
$SURFU
 70
     6
  9
$SURFV
 70
     6
  9
$UCSBASE
  2

  9
$UCSNAME
  2

  9
$UCSORG
 10
0.0
 20
0.0
 30
0.0
  9
$UCSXDIR
 10
1.0
 20
0.0
 30
0.0
  9
$UCSYDIR
 10
0.0
 20
1.0
 30
0.0
  9
$UCSORTHOREF
  2

  9
$UCSORTHOVIEW
 70
     0
  9
$UCSORGTOP
 10
0.0
 20
0.0
 30
0.0
  9
$UCSORGBOTTOM
 10
0.0
 20
0.0
 30
0.0
  9
$UCSORGLEFT
 10
0.0
 20
0.0
 30
0.0
  9
$UCSORGRIGHT
 10
0.0
 20
0.0
 30
0.0
  9
$UCSORGFRONT
 10
0.0
 20
0.0
 30
0.0
  9
$UCSORGBACK
 10
0.0
 20
0.0
 30
0.0
  9
$PUCSBASE
  2

  9
$PUCSNAME
  2

  9
$PUCSORG
 10
0.0
 20
0.0
 30
0.0
  9
$PUCSXDIR
 10
1.0
 20
0.0
 30
0.0
  9
$PUCSYDIR
 10
0.0
 20
1.0
 30
0.0
  9
$PUCSORTHOREF
  2

  9
$PUCSORTHOVIEW
 70
     0
  9
$PUCSORGTOP
 10
0.0
 20
0.0
 30
0.0
  9
$PUCSORGBOTTOM
 10
0.0
 20
0.0
 30
0.0
  9
$PUCSORGLEFT
 10
0.0
 20
0.0
 30
0.0
  9
$PUCSORGRIGHT
 10
0.0
 20
0.0
 30
0.0
  9
$PUCSORGFRONT
 10
0.0
 20
0.0
 30
0.0
  9
$PUCSORGBACK
 10
0.0
 20
0.0
 30
0.0
  9
$USERI1
 70
     0
  9
$USERI2
 70
     0
  9
$USERI3
 70
     0
  9
$USERI4
 70
     0
  9
$USERI5
 70
     0
  9
$USERR1
 40
0.0
  9
$USERR2
 40
0.0
  9
$USERR3
 40
0.0
  9
$USERR4
 40
0.0
  9
$USERR5
 40
0.0
  9
$WORLDVIEW
 70
     1
  9
$SHADEDGE
 70
     3
  9
$SHADEDIF
 70
    70
  9
$TILEMODE
 70
     1
  9
$MAXACTVP
 70
    16
  9
$PINSBASE
 10
0.0
 20
0.0
 30
0.0
  9
$PLIMCHECK
 70
     0
  9
$PEXTMIN
 10
1.000000000000000E+20
 20
1.000000000000000E+20
 30
1.000000000000000E+20
  9
$PEXTMAX
 10
-1.000000000000000E+20
 20
-1.000000000000000E+20
 30
-1.000000000000000E+20
  9
$PLIMMIN
 10
0.0
 20
0.0
  9
$PLIMMAX
 10
420.0
 20
297.0
  9
$UNITMODE
 70
     0
  9
$VISRETAIN
 70
     0
  9
$PLINEGEN
 70
     0
  9
$PSLTSCALE
 70
     0
  9
$TREEDEPTH
 70
  3020
  9
$CMLSTYLE
  2
STANDARD
  9
$CMLJUST
 70
     0
  9
$CMLSCALE
 40
1.0
  9
$PROXYGRAPHICS
 70
     1
  9
$MEASUREMENT
 70
     1
  9
$CELWEIGHT
370
    -1
  9
$ENDCAPS
280
     0
  9
$JOINSTYLE
280
     0
  9
$LWDISPLAY
290
     0
  9
$INSUNITS
 70
     0
  9
$HYPERLINKBASE
  1

  9
$STYLESHEET
  1
inabass.ctb
  9
$XEDIT
290
     1
  9
$CEPSNTYPE
380
     0
  9
$PSTYLEMODE
290
     1
  9
$FINGERPRINTGUID
  2
{3B57B35E-7D77-4BBF-81B7-6C583B9EB24C}
  9
$VERSIONGUID
  2
{DB449490-309F-43FC-94AF-073A7DDDBCD6}
  9
$EXTNAMES
290
     1
  9
$PSVPSCALE
 40
0.0
  9
$OLESTARTUP
290
     0
  0
ENDSEC
  0
SECTION
  2
CLASSES
  0
CLASS
  1
ACDBDICTIONARYWDFLT
  2
AcDbDictionaryWithDefault
  3
ObjectDBX Classes
 90
        0
280
     0
281
     0
  0
CLASS
  1
DICTIONARYVAR
  2
AcDbDictionaryVar
  3
ObjectDBX Classes
 90
        0
280
     0
281
     0
  0
CLASS
  1
ACDBPLACEHOLDER
  2
AcDbPlaceHolder
  3
ObjectDBX Classes
 90
        0
280
     0
281
     0
  0
CLASS
  1
LAYOUT
  2
AcDbLayout
  3
ObjectDBX Classes
 90
        0
280
     0
281
     0
  0
ENDSEC
  0
SECTION
  2
TABLES
  0
TABLE
  2
VPORT
  5
746D
330
0
100
AcDbSymbolTable
 70
     5
  0
VPORT
  5
1FA15
330
746D
100
AcDbSymbolTableRecord
100
AcDbViewportTableRecord
  2
*Active
 70
     0
 10
0.0
 20
0.0
 11
1.0
 21
1.0
 12
8223.7610252385
 22
5704.702303648471
 13
0.0
 23
0.0
 14
10.0
 24
10.0
 15
10.0
 25
10.0
 16
0.0
 26
0.0
 36
1.0
 17
0.0
 27
0.0
 37
0.0
 40
11503.26022693462
 41
1.706919945725915
 42
50.0
 43
0.0
 44
0.0
 50
0.0
 51
0.0
 71
     0
 72
     0
 73
     1
 74
     0
 75
     0
 76
     0
 77
     0
 78
     0
281
     0
 65
     1
110
0.0
120
0.0
130
0.0
111
1.0
121
0.0
131
0.0
112
0.0
122
1.0
132
0.0
 79
     0
146
0.0
  0
ENDTAB
  0
TABLE
  2
LTYPE
  5
746A
330
0
100
AcDbSymbolTable
 70
     4
  0
LTYPE
  5
7477
330
746A
100
AcDbSymbolTableRecord
100
AcDbLinetypeTableRecord
  2
BYBLOCK
 70
     0
  3

 72
    65
 73
     0
 40
0.0
  0
LTYPE
  5
7478
330
746A
100
AcDbSymbolTableRecord
100
AcDbLinetypeTableRecord
  2
BYLAYER
 70
     0
  3

 72
    65
 73
     0
 40
0.0
  0
LTYPE
  5
7479
330
746A
100
AcDbSymbolTableRecord
100
AcDbLinetypeTableRecord
  2
CONTINUOUS
 70
     0
  3
Solid line
 72
    65
 73
     0
 40
0.0
  0
LTYPE
  5
7816
330
746A
100
AcDbSymbolTableRecord
100
AcDbLinetypeTableRecord
  2
CENTER
 70
     0
  3
____ _ ____ _ ____ _ ____ _ ____ _ ____ _ ____ 
 72
    65
 73
     4
 40
2.0
 49
1.25
 74
     0
 49
-0.25
 74
     0
 49
0.25
 74
     0
 49
-0.25
 74
     0
  0
LTYPE
  5
781A
330
746A
100
AcDbSymbolTableRecord
100
AcDbLinetypeTableRecord
  2
HIDDEN
 70
     0
  3
__ __ __ __ __ __ __ __ __ __ __ __ __ __ __ __
 72
    65
 73
     2
 40
0.375
 49
0.25
 74
     0
 49
-0.125
 74
     0
  0
LTYPE
  5
781B
330
746A
100
AcDbSymbolTableRecord
100
AcDbLinetypeTableRecord
  2
PHANTOM
 70
     0
  3
______  __  __  ______  __  __  ______  __  __ 
 72
    65
 73
     6
 40
2.5
 49
1.25
 74
     0
 49
-0.25
 74
     0
 49
0.25
 74
     0
 49
-0.25
 74
     0
 49
0.25
 74
     0
 49
-0.25
 74
     0
  0
ENDTAB
  0
TABLE
  2
LAYER
  5
7467
102
{ACAD_XDICTIONARY
360
1E67E
102
}
330
0
100
AcDbSymbolTable
 70
    13
  0
LAYER
  5
7474
330
7467
100
AcDbSymbolTableRecord
100
AcDbLayerTableRecord
  2
0
 70
     0
 62
     7
  6
CONTINUOUS
370
    -3
390
159AE
  0
LAYER
  5
DEB2
330
7467
100
AcDbSymbolTableRecord
100
AcDbLayerTableRecord
  2
センター
 70
     0
 62
     3
  6
CENTER
370
    -3
390
159AE
  0
LAYER
  5
DEB3
330
7467
100
AcDbSymbolTableRecord
100
AcDbLayerTableRecord
  2
寸法
 70
     0
 62
     4
  6
CONTINUOUS
370
    -3
390
159AE
  0
LAYER
  5
DEB4
330
7467
100
AcDbSymbolTableRecord
100
AcDbLayerTableRecord
  2
部品1
 70
     0
 62
     7
  6
CONTINUOUS
370
    -3
390
159AE
  0
LAYER
  5
DEB5
330
7467
100
AcDbSymbolTableRecord
100
AcDbLayerTableRecord
  2
補助
 70
     0
 62
    -1
  6
CONTINUOUS
370
    -3
390
159AE
  0
LAYER
  5
DEB6
330
7467
100
AcDbSymbolTableRecord
100
AcDbLayerTableRecord
  2
文字
 70
     0
 62
     7
  6
CONTINUOUS
370
    -3
390
159AE
  0
LAYER
  5
F255
330
7467
100
AcDbSymbolTableRecord
100
AcDbLayerTableRecord
  2
DEFPOINTS
 70
     0
 62
     7
  6
CONTINUOUS
290
     0
370
    -3
390
159AE
  0
LAYER
  5
10B54
330
7467
100
AcDbSymbolTableRecord
100
AcDbLayerTableRecord
  2
仕様書枠
 70
     0
 62
   230
  6
CONTINUOUS
370
    -3
390
159AE
  0
LAYER
  5
11729
330
7467
100
AcDbSymbolTableRecord
100
AcDbLayerTableRecord
  2
Ｇ．Ｌ
 70
     0
 62
    30
  6
CONTINUOUS
370
    -3
390
159AE
  0
LAYER
  5
1173F
330
7467
100
AcDbSymbolTableRecord
100
AcDbLayerTableRecord
  2
細線
 70
     0
 62
     5
  6
CONTINUOUS
370
    -3
390
159AE
  0
LAYER
  5
12CC4
330
7467
100
AcDbSymbolTableRecord
100
AcDbLayerTableRecord
  2
想像線
 70
     0
 62
     6
  6
PHANTOM
370
    -3
390
159AE
  0
LAYER
  5
142E2
330
7467
100
AcDbSymbolTableRecord
100
AcDbLayerTableRecord
  2
破線
 70
     0
 62
     2
  6
HIDDEN
370
    -3
390
159AE
  0
LAYER
  5
1C644
330
7467
100
AcDbSymbolTableRecord
100
AcDbLayerTableRecord
  2
点線
 70
     0
 62
     2
  6
HIDDEN
370
    -3
390
159AE
  0
ENDTAB
  0
TABLE
  2
STYLE
  5
7468
330
0
100
AcDbSymbolTable
 70
     3
  0
STYLE
  5
7475
330
7468
100
AcDbSymbolTableRecord
100
AcDbTextStyleTableRecord
  2
STANDARD
 70
     0
 40
0.0
 41
1.0
 50
0.0
 71
     0
 42
4.0
  3
txt
  4
C:\AutoCAD LT\bigfont.shx
  0
STYLE
  5
F706
330
7468
100
AcDbSymbolTableRecord
100
AcDbTextStyleTableRecord
  2
STYLE1
 70
     0
 40
0.0
 41
1.0
 50
0.0
 71
     0
 42
100.0
  3
isocp.shx
  4
bigfont.shx
  0
STYLE
  5
103BF
330
7468
100
AcDbSymbolTableRecord
100
AcDbTextStyleTableRecord
  2
STYLE2
 70
     0
 40
0.0
 41
1.0
 50
0.0
 71
     0
 42
100.0
  3
MS PGothic.ttf
  4

1001
ACAD
1000
MS PGothic
1071
    32818
  0
ENDTAB
  0
TABLE
  2
VIEW
  5
746B
330
0
100
AcDbSymbolTable
 70
     0
  0
ENDTAB
  0
TABLE
  2
UCS
  5
746C
330
0
100
AcDbSymbolTable
 70
     0
  0
ENDTAB
  0
TABLE
  2
APPID
  5
746E
330
0
100
AcDbSymbolTable
 70
     6
  0
APPID
  5
7476
330
746E
100
AcDbSymbolTableRecord
100
AcDbRegAppTableRecord
  2
ACAD
 70
     0
  0
APPID
  5
DEA9
330
746E
100
AcDbSymbolTableRecord
100
AcDbRegAppTableRecord
  2
CONTENTBLOCKICON
 70
     0
  0
APPID
  5
DEAA
330
746E
100
AcDbSymbolTableRecord
100
AcDbRegAppTableRecord
  2
CONTENTBLOCKDESCRIPTION
 70
     0
  0
APPID
  5
E71D
330
746E
100
AcDbSymbolTableRecord
100
AcDbRegAppTableRecord
  2
CONTENTTABDATA
 70
     0
  0
APPID
  5
E71E
330
746E
100
AcDbSymbolTableRecord
100
AcDbRegAppTableRecord
  2
CONTENTCURRENTTAB
 70
     0
  0
APPID
  5
F3BA
330
746E
100
AcDbSymbolTableRecord
100
AcDbRegAppTableRecord
  2
DRAWINGVARIABLESXDATA
 70
     0
  0
ENDTAB
  0
TABLE
  2
DIMSTYLE
  5
746F
330
0
100
AcDbSymbolTable
 70
     2
100
AcDbDimStyleTable
 71
     1
340
F71F
  0
DIMSTYLE
105
F71F
102
{ACAD_REACTORS
330
1CAB8
330
1CAB7
330
1CAB6
330
1E083
330
1E082
330
1E081
330
1E080
330
1E07F
330
1E07E
330
1EF2F
330
1EF30
330
1F26C
330
1F2D1
330
1F339
330
1F396
330
1F631
102
}
330
746F
100
AcDbSymbolTableRecord
100
AcDbDimStyleTableRecord
  2
INABA_S40G
 70
     0
 40
40.0
 41
2.5
 42
0.5
 43
7.0
 44
1.5
 73
     0
 74
     0
 77
     3
 78
     8
140
3.0
141
0.0
143
0.0394
147
1.0
172
     1
173
     1
174
     1
178
     7
271
     1
288
     1
340
F706
341
F770
343
F770
344
F770
  0
DIMSTYLE
105
1C645
330
746F
100
AcDbSymbolTableRecord
100
AcDbDimStyleTableRecord
  2
INABA_S50G
 70
     0
 40
0.0
 41
125.0
 42
25.0
 43
7.0
 44
75.0
 73
     0
 74
     0
 77
     3
 78
     8
140
150.0
141
0.0
143
0.0394
147
25.0
172
     1
173
     1
174
     1
178
     7
271
     1
340
F706
341
F770
343
F770
344
F770
  0
ENDTAB
  0
TABLE
  2
BLOCK_RECORD
  5
7466
330
0
100
AcDbSymbolTable
 70
    28
  0
BLOCK_RECORD
  5
747D
330
7466
100
AcDbSymbolTableRecord
100
AcDbBlockTableRecord
  2
*MODEL_SPACE
340
159B3
  0
BLOCK_RECORD
  5
747A
330
7466
100
AcDbSymbolTableRecord
100
AcDbBlockTableRecord
  2
*PAPER_SPACE
340
159B4
  0
BLOCK_RECORD
  5
F770
330
7466
100
AcDbSymbolTableRecord
100
AcDbBlockTableRecord
  2
_DOTSMALL
340
0
102
{BLKREFS
331
1E059
331
1E05A
331
1E062
331
1E063
331
1E06D
331
1E06E
331
1E0FB
331
1E0FC
331
1F55F
331
1F560
331
1F568
331
1F569
331
1F57C
331
1F57D
331
1F5A9
331
1F5AA
331
1F5BB
331
1F5BC
331
1F5C4
331
1F5C5
331
1F5CD
331
1F5CE
331
1F66C
331
1F66D
331
1F6CA
331
1F6CB
331
1F6BE
331
1F6BF
331
1F6B2
331
1F6B3
331
1F6A6
331
1F6A7
331
1F9C4
331
1F9C5
331
1F9CD
331
1F9CE
331
1F9D6
331
1F9D7
331
1F9DF
331
1F9E0
331
1F9EF
331
1F9F0
331
1F9F8
331
1F9F9
331
1FA01
331
1FA02
331
1FA0A
331
1FA0B
102
}
  0
BLOCK_RECORD
  5
1C530
330
7466
100
AcDbSymbolTableRecord
100
AcDbBlockTableRecord
  2
_NONE
340
0
  0
BLOCK_RECORD
  5
1CDBF
330
7466
100
AcDbSymbolTableRecord
100
AcDbBlockTableRecord
  2
*D2
340
0
  0
BLOCK_RECORD
  5
1CDCD
330
7466
100
AcDbSymbolTableRecord
100
AcDbBlockTableRecord
  2
*D3
340
0
  0
BLOCK_RECORD
  5
1CDD8
330
7466
100
AcDbSymbolTableRecord
100
AcDbBlockTableRecord
  2
*D4
340
0
  0
BLOCK_RECORD
  5
1E084
330
7466
100
AcDbSymbolTableRecord
100
AcDbBlockTableRecord
  2
*D5
340
0
  0
BLOCK_RECORD
  5
1E090
330
7466
100
AcDbSymbolTableRecord
100
AcDbBlockTableRecord
  2
*D6
340
0
  0
BLOCK_RECORD
  5
1E09C
330
7466
100
AcDbSymbolTableRecord
100
AcDbBlockTableRecord
  2
*D7
340
0
  0
BLOCK_RECORD
  5
1E0A8
330
7466
100
AcDbSymbolTableRecord
100
AcDbBlockTableRecord
  2
*D8
340
0
  0
BLOCK_RECORD
  5
1E0B6
330
7466
100
AcDbSymbolTableRecord
100
AcDbBlockTableRecord
  2
*D9
340
0
  0
BLOCK_RECORD
  5
1E0C4
330
7466
100
AcDbSymbolTableRecord
100
AcDbBlockTableRecord
  2
*D10
340
0
  0
BLOCK_RECORD
  5
1EF31
330
7466
100
AcDbSymbolTableRecord
100
AcDbBlockTableRecord
  2
*D11
340
0
  0
BLOCK_RECORD
  5
1EF3D
330
7466
100
AcDbSymbolTableRecord
100
AcDbBlockTableRecord
  2
*D12
340
0
  0
BLOCK_RECORD
  5
1F443
330
7466
100
AcDbSymbolTableRecord
100
AcDbBlockTableRecord
  2
*D13
340
0
  0
BLOCK_RECORD
  5
1F44F
330
7466
100
AcDbSymbolTableRecord
100
AcDbBlockTableRecord
  2
*D14
340
0
  0
BLOCK_RECORD
  5
1F45B
330
7466
100
AcDbSymbolTableRecord
100
AcDbBlockTableRecord
  2
*D15
340
0
  0
BLOCK_RECORD
  5
1F467
330
7466
100
AcDbSymbolTableRecord
100
AcDbBlockTableRecord
  2
*D16
340
0
  0
BLOCK_RECORD
  5
1F637
330
7466
100
AcDbSymbolTableRecord
100
AcDbBlockTableRecord
  2
*D17
340
0
  0
BLOCK_RECORD
  5
1F6A1
330
7466
100
AcDbSymbolTableRecord
100
AcDbBlockTableRecord
  2
*D18
340
0
  0
BLOCK_RECORD
  5
1F6AD
330
7466
100
AcDbSymbolTableRecord
100
AcDbBlockTableRecord
  2
*D19
340
0
  0
BLOCK_RECORD
  5
1F6B9
330
7466
100
AcDbSymbolTableRecord
100
AcDbBlockTableRecord
  2
*D20
340
0
  0
BLOCK_RECORD
  5
1F6C5
330
7466
100
AcDbSymbolTableRecord
100
AcDbBlockTableRecord
  2
*D21
340
0
  0
BLOCK_RECORD
  5
1F991
330
7466
100
AcDbSymbolTableRecord
100
AcDbBlockTableRecord
  2
*D23
340
0
  0
BLOCK_RECORD
  5
1F99D
330
7466
100
AcDbSymbolTableRecord
100
AcDbBlockTableRecord
  2
*D24
340
0
  0
BLOCK_RECORD
  5
1F9A9
330
7466
100
AcDbSymbolTableRecord
100
AcDbBlockTableRecord
  2
*D25
340
0
  0
BLOCK_RECORD
  5
1F9B5
330
7466
100
AcDbSymbolTableRecord
100
AcDbBlockTableRecord
  2
*D26
340
0
  0
ENDTAB
  0
ENDSEC
  0
SECTION
  2
BLOCKS
  0
BLOCK
  5
7489
330
747D
100
AcDbEntity
  8
0
100
AcDbBlockBegin
  2
*MODEL_SPACE
 70
     0
 10
0.0
 20
0.0
 30
0.0
  3
*MODEL_SPACE
  1

  0
ENDBLK
  5
748A
330
747D
100
AcDbEntity
  8
0
100
AcDbBlockEnd
  0
BLOCK
  5
7487
330
747A
100
AcDbEntity
 67
     1
  8
0
100
AcDbBlockBegin
  2
*PAPER_SPACE
 70
     0
 10
0.0
 20
0.0
 30
0.0
  3
*PAPER_SPACE
  1

  0
ENDBLK
  5
7488
330
747A
100
AcDbEntity
 67
     1
  8
0
100
AcDbBlockEnd
  0
BLOCK
  5
F771
330
F770
100
AcDbEntity
  8
0
 48
50.0
100
AcDbBlockBegin
  2
_DOTSMALL
 70
     0
 10
0.0
 20
0.0
 30
0.0
  3
_DOTSMALL
  1

  0
LWPOLYLINE
  5
F772
330
F770
100
AcDbEntity
  8
0
  6
ByBlock
 62
     0
 48
50.0
100
AcDbPolyline
 90
        2
 70
     1
 43
0.5
 10
-0.0625
 20
0.0
 42
1.0
 10
0.0625
 20
0.0
 42
1.0
  0
ENDBLK
  5
F776
330
F770
100
AcDbEntity
  8
0
 48
50.0
100
AcDbBlockEnd
  0
BLOCK
  5
1C531
330
1C530
100
AcDbEntity
  8
0
 48
50.0
100
AcDbBlockBegin
  2
_NONE
 70
     0
 10
0.0
 20
0.0
 30
0.0
  3
_NONE
  1

  0
CIRCLE
  5
1C532
330
1C530
100
AcDbEntity
  8
0
  6
ByBlock
 62
     0
 48
50.0
100
AcDbCircle
 10
0.0
 20
0.0
 30
0.0
 40
0.25
  0
ENDBLK
  5
1C533
330
1C530
100
AcDbEntity
  8
0
 48
50.0
100
AcDbBlockEnd
  0
BLOCK
  5
1CDCB
330
1CDBF
100
AcDbEntity
  8
0
 48
50.0
100
AcDbBlockBegin
  2
*D2
 70
     1
 10
0.0
 20
0.0
 30
0.0
  3
*D2
  1

  0
LINE
  5
1E068
330
1CDBF
100
AcDbEntity
  8
寸法
 62
     0
 48
50.0
370
    -2
100
AcDbLine
 10
6887.6
 20
5499.999999999999
 30
0.0
 11
6406.88811655075
 21
5499.999999999999
 31
0.0
  0
LINE
  5
1E069
330
1CDBF
100
AcDbEntity
  8
寸法
 62
     0
 48
50.0
370
    -2
100
AcDbLine
 10
6837.600000000001
 20
5439.999999999998
 30
0.0
 11
6406.88811655075
 21
5439.999999999998
 31
0.0
  0
LINE
  5
1E06A
330
1CDBF
100
AcDbEntity
  8
寸法
 62
     0
 48
50.0
370
    -2
100
AcDbLine
 10
6466.88811655075
 20
5499.999999999999
 30
0.0
 11
6466.88811655075
 21
5599.999999999998
 31
0.0
  0
LINE
  5
1E06B
330
1CDBF
100
AcDbEntity
  8
寸法
 62
     0
 48
50.0
370
    -2
100
AcDbLine
 10
6466.88811655075
 20
5439.999999999998
 30
0.0
 11
6466.88811655075
 21
5339.999999999998
 31
0.0
  0
LINE
  5
1E06C
330
1CDBF
100
AcDbEntity
  8
寸法
 62
     0
 48
50.0
370
    -2
100
AcDbLine
 10
6466.88811655075
 20
5499.999999999999
 30
0.0
 11
6466.88811655075
 21
5439.999999999998
 31
0.0
  0
INSERT
  5
1E06D
330
1CDBF
100
AcDbEntity
  8
寸法
 62
     0
 48
50.0
370
    -2
100
AcDbBlockReference
  2
_DOTSMALL
 10
6466.88811655075
 20
5499.999999999999
 30
0.0
 41
100.0
 42
100.0
 43
100.0
 50
270.0
  0
INSERT
  5
1E06E
330
1CDBF
100
AcDbEntity
  8
寸法
 62
     0
 48
50.0
370
    -2
100
AcDbBlockReference
  2
_DOTSMALL
 10
6466.88811655075
 20
5439.999999999998
 30
0.0
 41
100.0
 42
100.0
 43
100.0
 50
90.0
  0
MTEXT
  5
1E06F
330
1CDBF
100
AcDbEntity
  8
寸法
 62
     7
 48
50.0
100
AcDbMText
 10
6366.888116550749
 20
5470.0
 30
0.0
 40
120.0
 41
0.0
 71
     5
 72
     1
  1
\A1;b
  7
STYLE1
 11
0.0000000000000001
 21
1.0
 31
0.0
 73
     1
 44
1.0
1001
ACAD
1000
MTEXTBEGIN
1070
    73
1070
     1
1070
    44
1040
1.0
1070
    74
1070
     0
1000
MTEXTEND
  0
POINT
  5
1E070
330
1CDBF
100
AcDbEntity
  8
DEFPOINTS
 62
     0
 48
50.0
100
AcDbPoint
 10
6907.600000000001
 20
5499.999999999999
 30
0.0
  0
POINT
  5
1E071
330
1CDBF
100
AcDbEntity
  8
DEFPOINTS
 62
     0
 48
50.0
100
AcDbPoint
 10
6857.600000000001
 20
5439.999999999998
 30
0.0
  0
POINT
  5
1E072
330
1CDBF
100
AcDbEntity
  8
DEFPOINTS
 62
     0
 48
50.0
100
AcDbPoint
 10
6466.88811655075
 20
5439.999999999998
 30
0.0
  0
ENDBLK
  5
1CDCC
330
1CDBF
100
AcDbEntity
  8
0
 48
50.0
100
AcDbBlockEnd
  0
BLOCK
  5
1CDD6
330
1CDCD
100
AcDbEntity
  8
0
 48
50.0
100
AcDbBlockBegin
  2
*D3
 70
     1
 10
0.0
 20
0.0
 30
0.0
  3
*D3
  1

  0
LINE
  5
1E05F
330
1CDCD
100
AcDbEntity
  8
寸法
 62
     0
 48
50.0
370
    -2
100
AcDbLine
 10
6887.6
 20
6871.999999999998
 30
0.0
 11
6406.88811655075
 21
6871.999999999998
 31
0.0
  0
LINE
  5
1E060
330
1CDCD
100
AcDbEntity
  8
寸法
 62
     0
 48
50.0
370
    -2
100
AcDbLine
 10
6887.6
 20
5499.999999999999
 30
0.0
 11
6406.88811655075
 21
5499.999999999999
 31
0.0
  0
LINE
  5
1E061
330
1CDCD
100
AcDbEntity
  8
寸法
 62
     0
 48
50.0
370
    -2
100
AcDbLine
 10
6466.888116550752
 20
6871.999999999998
 30
0.0
 11
6466.88811655075
 21
5499.999999999999
 31
0.0
  0
INSERT
  5
1E062
330
1CDCD
100
AcDbEntity
  8
寸法
 62
     0
 48
50.0
370
    -2
100
AcDbBlockReference
  2
_DOTSMALL
 10
6466.888116550752
 20
6871.999999999998
 30
0.0
 41
100.0
 42
100.0
 43
100.0
 50
90.0
  0
INSERT
  5
1E063
330
1CDCD
100
AcDbEntity
  8
寸法
 62
     0
 48
50.0
370
    -2
100
AcDbBlockReference
  2
_DOTSMALL
 10
6466.88811655075
 20
5499.999999999999
 30
0.0
 41
100.0
 42
100.0
 43
100.0
 50
270.0
  0
MTEXT
  5
1E064
330
1CDCD
100
AcDbEntity
  8
寸法
 62
     7
 48
50.0
100
AcDbMText
 10
6366.876305527128
 20
6186.0
 30
0.0
 40
120.0
 41
0.0
 71
     5
 72
     1
  1
\A1;1372
  7
STYLE1
 11
0.0000000000000001
 21
1.0
 31
0.0
 73
     1
 44
1.0
1001
ACAD
1000
MTEXTBEGIN
1070
    73
1070
     1
1070
    44
1040
1.0
1070
    74
1070
     0
1000
MTEXTEND
  0
POINT
  5
1E065
330
1CDCD
100
AcDbEntity
  8
DEFPOINTS
 62
     0
 48
50.0
100
AcDbPoint
 10
6907.600000000001
 20
6871.999999999998
 30
0.0
  0
POINT
  5
1E066
330
1CDCD
100
AcDbEntity
  8
DEFPOINTS
 62
     0
 48
50.0
100
AcDbPoint
 10
6907.600000000001
 20
5499.999999999999
 30
0.0
  0
POINT
  5
1E067
330
1CDCD
100
AcDbEntity
  8
DEFPOINTS
 62
     0
 48
50.0
100
AcDbPoint
 10
6466.88811655075
 20
5499.999999999999
 30
0.0
  0
ENDBLK
  5
1CDD7
330
1CDCD
100
AcDbEntity
  8
0
 48
50.0
100
AcDbBlockEnd
  0
BLOCK
  5
1CDE4
330
1CDD8
100
AcDbEntity
  8
0
 48
50.0
100
AcDbBlockBegin
  2
*D4
 70
     1
 10
0.0
 20
0.0
 30
0.0
  3
*D4
  1

  0
LINE
  5
1E056
330
1CDD8
100
AcDbEntity
  8
寸法
 62
     0
 48
50.0
370
    -2
100
AcDbLine
 10
6837.600000000001
 20
6951.999999999998
 30
0.0
 11
6406.88811655075
 21
6951.999999999998
 31
0.0
  0
LINE
  5
1E057
330
1CDD8
100
AcDbEntity
  8
寸法
 62
     0
 48
50.0
370
    -2
100
AcDbLine
 10
6887.6
 20
6871.999999999998
 30
0.0
 11
6406.88811655075
 21
6871.999999999998
 31
0.0
  0
LINE
  5
1E058
330
1CDD8
100
AcDbEntity
  8
寸法
 62
     0
 48
50.0
370
    -2
100
AcDbLine
 10
6466.888116550752
 20
6951.999999999998
 30
0.0
 11
6466.888116550752
 21
6871.999999999998
 31
0.0
  0
INSERT
  5
1E059
330
1CDD8
100
AcDbEntity
  8
寸法
 62
     0
 48
50.0
370
    -2
100
AcDbBlockReference
  2
_DOTSMALL
 10
6466.888116550752
 20
6951.999999999998
 30
0.0
 41
100.0
 42
100.0
 43
100.0
 50
90.0
  0
INSERT
  5
1E05A
330
1CDD8
100
AcDbEntity
  8
寸法
 62
     0
 48
50.0
370
    -2
100
AcDbBlockReference
  2
_DOTSMALL
 10
6466.888116550752
 20
6871.999999999998
 30
0.0
 41
100.0
 42
100.0
 43
100.0
 50
270.0
  0
MTEXT
  5
1E05B
330
1CDD8
100
AcDbEntity
  8
寸法
 62
     7
 48
50.0
100
AcDbMText
 10
6366.888116550749
 20
6912.0
 30
0.0
 40
120.0
 41
0.0
 71
     5
 72
     1
  1
\A1;c
  7
STYLE1
 11
0.0000000000000001
 21
1.0
 31
0.0
 73
     1
 44
1.0
1001
ACAD
1000
MTEXTBEGIN
1070
    73
1070
     1
1070
    44
1040
1.0
1070
    74
1070
     0
1000
MTEXTEND
  0
POINT
  5
1E05C
330
1CDD8
100
AcDbEntity
  8
DEFPOINTS
 62
     0
 48
50.0
100
AcDbPoint
 10
6857.600000000001
 20
6951.999999999998
 30
0.0
  0
POINT
  5
1E05D
330
1CDD8
100
AcDbEntity
  8
DEFPOINTS
 62
     0
 48
50.0
100
AcDbPoint
 10
6907.600000000001
 20
6871.999999999998
 30
0.0
  0
POINT
  5
1E05E
330
1CDD8
100
AcDbEntity
  8
DEFPOINTS
 62
     0
 48
50.0
100
AcDbPoint
 10
6466.888116550752
 20
6871.999999999998
 30
0.0
  0
ENDBLK
  5
1CDE5
330
1CDD8
100
AcDbEntity
  8
0
 48
50.0
100
AcDbBlockEnd
  0
BLOCK
  5
1E08E
330
1E084
100
AcDbEntity
  8
0
 48
50.0
100
AcDbBlockBegin
  2
*D5
 70
     1
 10
0.0
 20
0.0
 30
0.0
  3
*D5
  1

  0
LINE
  5
1F5B8
330
1E084
100
AcDbEntity
  8
寸法
 62
     0
 48
50.0
370
    -2
100
AcDbLine
 10
8638.600000000002
 20
6892.000000000004
 30
0.0
 11
8638.600000000002
 21
7440.624237135962
 31
0.0
  0
LINE
  5
1F5B9
330
1E084
100
AcDbEntity
  8
寸法
 62
     0
 48
50.0
370
    -2
100
AcDbLine
 10
9539.6
 20
6892.0
 30
0.0
 11
9539.6
 21
7440.624237135962
 31
0.0
  0
LINE
  5
1F5BA
330
1E084
100
AcDbEntity
  8
寸法
 62
     0
 48
50.0
370
    -2
100
AcDbLine
 10
8638.600000000002
 20
7380.624237135963
 30
0.0
 11
9539.6
 21
7380.624237135963
 31
0.0
  0
INSERT
  5
1F5BB
330
1E084
100
AcDbEntity
  8
寸法
 62
     0
 48
50.0
370
    -2
100
AcDbBlockReference
  2
_DOTSMALL
 10
8638.600000000002
 20
7380.624237135963
 30
0.0
 41
100.0
 42
100.0
 43
100.0
 50
180.0
  0
INSERT
  5
1F5BC
330
1E084
100
AcDbEntity
  8
寸法
 62
     0
 48
50.0
370
    -2
100
AcDbBlockReference
  2
_DOTSMALL
 10
9539.6
 20
7380.624237135963
 30
0.0
 41
100.0
 42
100.0
 43
100.0
  0
MTEXT
  5
1F5BD
330
1E084
100
AcDbEntity
  8
寸法
 62
     7
 48
50.0
100
AcDbMText
 10
9089.100000000001
 20
7480.624237135963
 30
0.0
 40
120.0
 41
0.0
 71
     5
 72
     1
  1
\A1;901
  7
STYLE1
 73
     1
 44
1.0
1001
ACAD
1000
MTEXTBEGIN
1070
    73
1070
     1
1070
    44
1040
1.0
1070
    74
1070
     0
1000
MTEXTEND
  0
POINT
  5
1F5BE
330
1E084
100
AcDbEntity
  8
DEFPOINTS
 62
     0
 48
50.0
100
AcDbPoint
 10
8638.600000000002
 20
6872.000000000004
 30
0.0
  0
POINT
  5
1F5BF
330
1E084
100
AcDbEntity
  8
DEFPOINTS
 62
     0
 48
50.0
100
AcDbPoint
 10
9539.6
 20
6872.0
 30
0.0
  0
POINT
  5
1F5C0
330
1E084
100
AcDbEntity
  8
DEFPOINTS
 62
     0
 48
50.0
100
AcDbPoint
 10
9539.6
 20
7380.624237135963
 30
0.0
  0
ENDBLK
  5
1E08F
330
1E084
100
AcDbEntity
  8
0
 48
50.0
100
AcDbBlockEnd
  0
BLOCK
  5
1E09A
330
1E090
100
AcDbEntity
  8
0
 48
50.0
100
AcDbBlockBegin
  2
*D6
 70
     1
 10
0.0
 20
0.0
 30
0.0
  3
*D6
  1

  0
LINE
  5
1F5A6
330
1E090
100
AcDbEntity
  8
寸法
 62
     0
 48
50.0
370
    -2
100
AcDbLine
 10
7808.600000000002
 20
6892.000000000002
 30
0.0
 11
7808.600000000002
 21
7440.624237135962
 31
0.0
  0
LINE
  5
1F5A7
330
1E090
100
AcDbEntity
  8
寸法
 62
     0
 48
50.0
370
    -2
100
AcDbLine
 10
6907.600000000001
 20
6892.0
 30
0.0
 11
6907.600000000001
 21
7440.624237135962
 31
0.0
  0
LINE
  5
1F5A8
330
1E090
100
AcDbEntity
  8
寸法
 62
     0
 48
50.0
370
    -2
100
AcDbLine
 10
7808.600000000002
 20
7380.624237135963
 30
0.0
 11
6907.600000000001
 21
7380.624237135963
 31
0.0
  0
INSERT
  5
1F5A9
330
1E090
100
AcDbEntity
  8
寸法
 62
     0
 48
50.0
370
    -2
100
AcDbBlockReference
  2
_DOTSMALL
 10
7808.600000000002
 20
7380.624237135963
 30
0.0
 41
100.0
 42
100.0
 43
100.0
  0
INSERT
  5
1F5AA
330
1E090
100
AcDbEntity
  8
寸法
 62
     0
 48
50.0
370
    -2
100
AcDbBlockReference
  2
_DOTSMALL
 10
6907.600000000001
 20
7380.624237135963
 30
0.0
 41
100.0
 42
100.0
 43
100.0
 50
180.0
  0
MTEXT
  5
1F5AB
330
1E090
100
AcDbEntity
  8
寸法
 62
     7
 48
50.0
100
AcDbMText
 10
7358.100000000002
 20
7480.624237135963
 30
0.0
 40
120.0
 41
0.0
 71
     5
 72
     1
  1
\A1;901
  7
STYLE1
 73
     1
 44
1.0
1001
ACAD
1000
MTEXTBEGIN
1070
    73
1070
     1
1070
    44
1040
1.0
1070
    74
1070
     0
1000
MTEXTEND
  0
POINT
  5
1F5AC
330
1E090
100
AcDbEntity
  8
DEFPOINTS
 62
     0
 48
50.0
100
AcDbPoint
 10
7808.600000000002
 20
6872.000000000001
 30
0.0
  0
POINT
  5
1F5AD
330
1E090
100
AcDbEntity
  8
DEFPOINTS
 62
     0
 48
50.0
100
AcDbPoint
 10
6907.600000000001
 20
6872.0
 30
0.0
  0
POINT
  5
1F5AE
330
1E090
100
AcDbEntity
  8
DEFPOINTS
 62
     0
 48
50.0
100
AcDbPoint
 10
6907.600000000001
 20
7380.624237135963
 30
0.0
  0
ENDBLK
  5
1E09B
330
1E090
100
AcDbEntity
  8
0
 48
50.0
100
AcDbBlockEnd
  0
BLOCK
  5
1E0A6
330
1E09C
100
AcDbEntity
  8
0
 48
50.0
100
AcDbBlockBegin
  2
*D7
 70
     1
 10
0.0
 20
0.0
 30
0.0
  3
*D7
  1

  0
LINE
  5
1F5C1
330
1E09C
100
AcDbEntity
  8
寸法
 62
     0
 48
50.0
370
    -2
100
AcDbLine
 10
7808.600000000002
 20
6892.000000000002
 30
0.0
 11
7808.600000000002
 21
7440.624237135962
 31
0.0
  0
LINE
  5
1F5C2
330
1E09C
100
AcDbEntity
  8
寸法
 62
     0
 48
50.0
370
    -2
100
AcDbLine
 10
8638.600000000002
 20
6892.000000000004
 30
0.0
 11
8638.600000000002
 21
7440.624237135962
 31
0.0
  0
LINE
  5
1F5C3
330
1E09C
100
AcDbEntity
  8
寸法
 62
     0
 48
50.0
370
    -2
100
AcDbLine
 10
7808.600000000002
 20
7380.624237135963
 30
0.0
 11
8638.600000000002
 21
7380.624237135963
 31
0.0
  0
INSERT
  5
1F5C4
330
1E09C
100
AcDbEntity
  8
寸法
 62
     0
 48
50.0
370
    -2
100
AcDbBlockReference
  2
_DOTSMALL
 10
7808.600000000002
 20
7380.624237135963
 30
0.0
 41
100.0
 42
100.0
 43
100.0
 50
180.0
  0
INSERT
  5
1F5C5
330
1E09C
100
AcDbEntity
  8
寸法
 62
     0
 48
50.0
370
    -2
100
AcDbBlockReference
  2
_DOTSMALL
 10
8638.600000000002
 20
7380.624237135963
 30
0.0
 41
100.0
 42
100.0
 43
100.0
  0
MTEXT
  5
1F5C6
330
1E09C
100
AcDbEntity
  8
寸法
 62
     7
 48
50.0
100
AcDbMText
 10
8223.600000000002
 20
7480.624237135963
 30
0.0
 40
120.0
 41
0.0
 71
     5
 72
     1
  1
\A1;830
  7
STYLE1
 73
     1
 44
1.0
1001
ACAD
1000
MTEXTBEGIN
1070
    73
1070
     1
1070
    44
1040
1.0
1070
    74
1070
     0
1000
MTEXTEND
  0
POINT
  5
1F5C7
330
1E09C
100
AcDbEntity
  8
DEFPOINTS
 62
     0
 48
50.0
100
AcDbPoint
 10
7808.600000000002
 20
6872.000000000001
 30
0.0
  0
POINT
  5
1F5C8
330
1E09C
100
AcDbEntity
  8
DEFPOINTS
 62
     0
 48
50.0
100
AcDbPoint
 10
8638.600000000002
 20
6872.000000000004
 30
0.0
  0
POINT
  5
1F5C9
330
1E09C
100
AcDbEntity
  8
DEFPOINTS
 62
     0
 48
50.0
100
AcDbPoint
 10
8638.600000000002
 20
7380.624237135963
 30
0.0
  0
ENDBLK
  5
1E0A7
330
1E09C
100
AcDbEntity
  8
0
 48
50.0
100
AcDbBlockEnd
  0
BLOCK
  5
1E0B4
330
1E0A8
100
AcDbEntity
  8
0
 48
50.0
100
AcDbBlockBegin
  2
*D8
 70
     1
 10
0.0
 20
0.0
 30
0.0
  3
*D8
  1

  0
LINE
  5
1F577
330
1E0A8
100
AcDbEntity
  8
寸法
 62
     0
 48
50.0
370
    -2
100
AcDbLine
 10
9539.6
 20
6892.0
 30
0.0
 11
9539.6
 21
7698.551625802021
 31
0.0
  0
LINE
  5
1F578
330
1E0A8
100
AcDbEntity
  8
寸法
 62
     0
 48
50.0
370
    -2
100
AcDbLine
 10
9589.6
 20
6972.000000000004
 30
0.0
 11
9589.6
 21
7698.551625802021
 31
0.0
  0
LINE
  5
1F579
330
1E0A8
100
AcDbEntity
  8
寸法
 62
     0
 48
50.0
370
    -2
100
AcDbLine
 10
9539.6
 20
7638.551625802022
 30
0.0
 11
9439.6
 21
7638.551625802022
 31
0.0
  0
LINE
  5
1F57A
330
1E0A8
100
AcDbEntity
  8
寸法
 62
     0
 48
50.0
370
    -2
100
AcDbLine
 10
9589.6
 20
7638.551625802022
 30
0.0
 11
9689.6
 21
7638.551625802022
 31
0.0
  0
LINE
  5
1F57B
330
1E0A8
100
AcDbEntity
  8
寸法
 62
     0
 48
50.0
370
    -2
100
AcDbLine
 10
9539.6
 20
7638.551625802022
 30
0.0
 11
9589.6
 21
7638.551625802022
 31
0.0
  0
INSERT
  5
1F57C
330
1E0A8
100
AcDbEntity
  8
寸法
 62
     0
 48
50.0
370
    -2
100
AcDbBlockReference
  2
_DOTSMALL
 10
9539.6
 20
7638.551625802022
 30
0.0
 41
100.0
 42
100.0
 43
100.0
  0
INSERT
  5
1F57D
330
1E0A8
100
AcDbEntity
  8
寸法
 62
     0
 48
50.0
370
    -2
100
AcDbBlockReference
  2
_DOTSMALL
 10
9589.6
 20
7638.551625802022
 30
0.0
 41
100.0
 42
100.0
 43
100.0
 50
180.0
  0
MTEXT
  5
1F57E
330
1E0A8
100
AcDbEntity
  8
寸法
 62
     7
 48
50.0
100
AcDbMText
 10
9564.6
 20
7738.551625802021
 30
0.0
 40
120.0
 41
0.0
 71
     5
 72
     1
  1
\A1;a
  7
STYLE1
 73
     1
 44
1.0
1001
ACAD
1000
MTEXTBEGIN
1070
    73
1070
     1
1070
    44
1040
1.0
1070
    74
1070
     0
1000
MTEXTEND
  0
POINT
  5
1F57F
330
1E0A8
100
AcDbEntity
  8
DEFPOINTS
 62
     0
 48
50.0
100
AcDbPoint
 10
9539.6
 20
6872.0
 30
0.0
  0
POINT
  5
1F580
330
1E0A8
100
AcDbEntity
  8
DEFPOINTS
 62
     0
 48
50.0
100
AcDbPoint
 10
9589.6
 20
6952.000000000004
 30
0.0
  0
POINT
  5
1F581
330
1E0A8
100
AcDbEntity
  8
DEFPOINTS
 62
     0
 48
50.0
100
AcDbPoint
 10
9589.6
 20
7638.551625802022
 30
0.0
  0
ENDBLK
  5
1E0B5
330
1E0A8
100
AcDbEntity
  8
0
 48
50.0
100
AcDbBlockEnd
  0
BLOCK
  5
1E0C2
330
1E0B6
100
AcDbEntity
  8
0
 48
50.0
100
AcDbBlockBegin
  2
*D9
 70
     1
 10
0.0
 20
0.0
 30
0.0
  3
*D9
  1

  0
LINE
  5
1E0F6
330
1E0B6
100
AcDbEntity
  8
寸法
 62
     0
 48
50.0
370
    -2
100
AcDbLine
 10
6857.600000000001
 20
6972.0
 30
0.0
 11
6857.600000000001
 21
7698.551625802021
 31
0.0
  0
LINE
  5
1E0F7
330
1E0B6
100
AcDbEntity
  8
寸法
 62
     0
 48
50.0
370
    -2
100
AcDbLine
 10
6907.600000000001
 20
6892.0
 30
0.0
 11
6907.600000000001
 21
7698.551625802021
 31
0.0
  0
LINE
  5
1E0F8
330
1E0B6
100
AcDbEntity
  8
寸法
 62
     0
 48
50.0
370
    -2
100
AcDbLine
 10
6857.600000000001
 20
7638.551625802022
 30
0.0
 11
6757.6
 21
7638.551625802022
 31
0.0
  0
LINE
  5
1E0F9
330
1E0B6
100
AcDbEntity
  8
寸法
 62
     0
 48
50.0
370
    -2
100
AcDbLine
 10
6907.600000000001
 20
7638.551625802022
 30
0.0
 11
7007.6
 21
7638.551625802022
 31
0.0
  0
LINE
  5
1E0FA
330
1E0B6
100
AcDbEntity
  8
寸法
 62
     0
 48
50.0
370
    -2
100
AcDbLine
 10
6857.600000000001
 20
7638.551625802022
 30
0.0
 11
6907.600000000001
 21
7638.551625802022
 31
0.0
  0
INSERT
  5
1E0FB
330
1E0B6
100
AcDbEntity
  8
寸法
 62
     0
 48
50.0
370
    -2
100
AcDbBlockReference
  2
_DOTSMALL
 10
6857.600000000001
 20
7638.551625802022
 30
0.0
 41
100.0
 42
100.0
 43
100.0
  0
INSERT
  5
1E0FC
330
1E0B6
100
AcDbEntity
  8
寸法
 62
     0
 48
50.0
370
    -2
100
AcDbBlockReference
  2
_DOTSMALL
 10
6907.600000000001
 20
7638.551625802022
 30
0.0
 41
100.0
 42
100.0
 43
100.0
 50
180.0
  0
MTEXT
  5
1E0FD
330
1E0B6
100
AcDbEntity
  8
寸法
 62
     7
 48
50.0
100
AcDbMText
 10
6882.6
 20
7738.551625802021
 30
0.0
 40
120.0
 41
0.0
 71
     5
 72
     1
  1
\A1;a
  7
STYLE1
 73
     1
 44
1.0
1001
ACAD
1000
MTEXTBEGIN
1070
    73
1070
     1
1070
    44
1040
1.0
1070
    74
1070
     0
1000
MTEXTEND
  0
POINT
  5
1E0FE
330
1E0B6
100
AcDbEntity
  8
DEFPOINTS
 62
     0
 48
50.0
100
AcDbPoint
 10
6857.600000000001
 20
6952.0
 30
0.0
  0
POINT
  5
1E0FF
330
1E0B6
100
AcDbEntity
  8
DEFPOINTS
 62
     0
 48
50.0
100
AcDbPoint
 10
6907.600000000001
 20
6872.0
 30
0.0
  0
POINT
  5
1E100
330
1E0B6
100
AcDbEntity
  8
DEFPOINTS
 62
     0
 48
50.0
100
AcDbPoint
 10
6907.600000000001
 20
7638.551625802022
 30
0.0
  0
ENDBLK
  5
1E0C3
330
1E0B6
100
AcDbEntity
  8
0
 48
50.0
100
AcDbBlockEnd
  0
BLOCK
  5
1E0CE
330
1E0C4
100
AcDbEntity
  8
0
 48
50.0
100
AcDbBlockBegin
  2
*D10
 70
     1
 10
0.0
 20
0.0
 30
0.0
  3
*D10
  1

  0
LINE
  5
1F5CA
330
1E0C4
100
AcDbEntity
  8
寸法
 62
     0
 48
50.0
370
    -2
100
AcDbLine
 10
6907.600000000001
 20
6892.0
 30
0.0
 11
6907.600000000001
 21
7698.551625802021
 31
0.0
  0
LINE
  5
1F5CB
330
1E0C4
100
AcDbEntity
  8
寸法
 62
     0
 48
50.0
370
    -2
100
AcDbLine
 10
9539.6
 20
6892.0
 30
0.0
 11
9539.6
 21
7698.551625802021
 31
0.0
  0
LINE
  5
1F5CC
330
1E0C4
100
AcDbEntity
  8
寸法
 62
     0
 48
50.0
370
    -2
100
AcDbLine
 10
6907.600000000001
 20
7638.551625802022
 30
0.0
 11
9539.6
 21
7638.551625802022
 31
0.0
  0
INSERT
  5
1F5CD
330
1E0C4
100
AcDbEntity
  8
寸法
 62
     0
 48
50.0
370
    -2
100
AcDbBlockReference
  2
_DOTSMALL
 10
6907.600000000001
 20
7638.551625802022
 30
0.0
 41
100.0
 42
100.0
 43
100.0
 50
180.0
  0
INSERT
  5
1F5CE
330
1E0C4
100
AcDbEntity
  8
寸法
 62
     0
 48
50.0
370
    -2
100
AcDbBlockReference
  2
_DOTSMALL
 10
9539.6
 20
7638.551625802022
 30
0.0
 41
100.0
 42
100.0
 43
100.0
  0
MTEXT
  5
1F5CF
330
1E0C4
100
AcDbEntity
  8
寸法
 62
     7
 48
50.0
100
AcDbMText
 10
8223.600000000001
 20
7738.563436825643
 30
0.0
 40
120.0
 41
0.0
 71
     5
 72
     1
  1
\A1;2632
  7
STYLE1
 73
     1
 44
1.0
1001
ACAD
1000
MTEXTBEGIN
1070
    73
1070
     1
1070
    44
1040
1.0
1070
    74
1070
     0
1000
MTEXTEND
  0
POINT
  5
1F5D0
330
1E0C4
100
AcDbEntity
  8
DEFPOINTS
 62
     0
 48
50.0
100
AcDbPoint
 10
6907.600000000001
 20
6872.0
 30
0.0
  0
POINT
  5
1F5D1
330
1E0C4
100
AcDbEntity
  8
DEFPOINTS
 62
     0
 48
50.0
100
AcDbPoint
 10
9539.6
 20
6872.0
 30
0.0
  0
POINT
  5
1F5D2
330
1E0C4
100
AcDbEntity
  8
DEFPOINTS
 62
     0
 48
50.0
100
AcDbPoint
 10
9539.6
 20
7638.551625802022
 30
0.0
  0
ENDBLK
  5
1E0CF
330
1E0C4
100
AcDbEntity
  8
0
 48
50.0
100
AcDbBlockEnd
  0
BLOCK
  5
1EF3B
330
1EF31
100
AcDbEntity
  8
0
 48
50.0
100
AcDbBlockBegin
  2
*D11
 70
     1
 10
0.0
 20
0.0
 30
0.0
  3
*D11
  1

  0
LINE
  5
1F565
330
1EF31
100
AcDbEntity
  8
寸法
 62
     0
 48
50.0
370
    -2
100
AcDbLine
 10
9659.599999999999
 20
5599.999999999993
 30
0.0
 11
10217.84087348511
 21
5599.999999999993
 31
0.0
  0
LINE
  5
1F566
330
1EF31
100
AcDbEntity
  8
寸法
 62
     0
 48
50.0
370
    -2
100
AcDbLine
 10
9659.600000000001
 20
5399.999999999993
 30
0.0
 11
10217.84087348511
 21
5399.999999999993
 31
0.0
  0
LINE
  5
1F567
330
1EF31
100
AcDbEntity
  8
寸法
 62
     0
 48
50.0
370
    -2
100
AcDbLine
 10
10157.84087348511
 20
5599.999999999993
 30
0.0
 11
10157.84087348511
 21
5399.999999999993
 31
0.0
  0
INSERT
  5
1F568
330
1EF31
100
AcDbEntity
  8
寸法
 62
     0
 48
50.0
370
    -2
100
AcDbBlockReference
  2
_DOTSMALL
 10
10157.84087348511
 20
5599.999999999993
 30
0.0
 41
100.0
 42
100.0
 43
100.0
 50
90.0
  0
INSERT
  5
1F569
330
1EF31
100
AcDbEntity
  8
寸法
 62
     0
 48
50.0
370
    -2
100
AcDbBlockReference
  2
_DOTSMALL
 10
10157.84087348511
 20
5399.999999999993
 30
0.0
 41
100.0
 42
100.0
 43
100.0
 50
270.0
  0
MTEXT
  5
1F56A
330
1EF31
100
AcDbEntity
  8
寸法
 62
     7
 48
50.0
100
AcDbMText
 10
9951.82906246149
 20
5499.999999999993
 30
0.0
 40
120.0
 41
0.0
 71
     5
 72
     1
  1
\A1;200\P(250)
  7
STYLE1
 11
0.0000000000000001
 21
1.0
 31
0.0
 73
     1
 44
1.0
1001
ACAD
1000
MTEXTBEGIN
1070
    73
1070
     1
1070
    44
1040
1.0
1070
    74
1070
     0
1000
MTEXTEND
  0
POINT
  5
1F56B
330
1EF31
100
AcDbEntity
  8
DEFPOINTS
 62
     0
 48
50.0
100
AcDbPoint
 10
9639.599999999999
 20
5599.999999999993
 30
0.0
  0
POINT
  5
1F56C
330
1EF31
100
AcDbEntity
  8
DEFPOINTS
 62
     0
 48
50.0
100
AcDbPoint
 10
9639.600000000001
 20
5399.999999999993
 30
0.0
  0
POINT
  5
1F56D
330
1EF31
100
AcDbEntity
  8
DEFPOINTS
 62
     0
 48
50.0
100
AcDbPoint
 10
10157.84087348511
 20
5399.999999999993
 30
0.0
  0
ENDBLK
  5
1EF3C
330
1EF31
100
AcDbEntity
  8
0
 48
50.0
100
AcDbBlockEnd
  0
BLOCK
  5
1EF47
330
1EF3D
100
AcDbEntity
  8
0
 48
50.0
100
AcDbBlockBegin
  2
*D12
 70
     1
 10
0.0
 20
0.0
 30
0.0
  3
*D12
  1

  0
LINE
  5
1F55C
330
1EF3D
100
AcDbEntity
  8
寸法
 62
     0
 48
50.0
370
    -2
100
AcDbLine
 10
9639.600000000001
 20
5379.999999999992
 30
0.0
 11
9639.600000000001
 21
4866.168926156461
 31
0.0
  0
LINE
  5
1F55D
330
1EF3D
100
AcDbEntity
  8
寸法
 62
     0
 48
50.0
370
    -2
100
AcDbLine
 10
9439.6
 20
5379.999999999992
 30
0.0
 11
9439.6
 21
4866.168926156461
 31
0.0
  0
LINE
  5
1F55E
330
1EF3D
100
AcDbEntity
  8
寸法
 62
     0
 48
50.0
370
    -2
100
AcDbLine
 10
9639.600000000001
 20
4926.16892615646
 30
0.0
 11
9439.6
 21
4926.16892615646
 31
0.0
  0
INSERT
  5
1F55F
330
1EF3D
100
AcDbEntity
  8
寸法
 62
     0
 48
50.0
370
    -2
100
AcDbBlockReference
  2
_DOTSMALL
 10
9639.600000000001
 20
4926.16892615646
 30
0.0
 41
100.0
 42
100.0
 43
100.0
  0
INSERT
  5
1F560
330
1EF3D
100
AcDbEntity
  8
寸法
 62
     0
 48
50.0
370
    -2
100
AcDbBlockReference
  2
_DOTSMALL
 10
9439.6
 20
4926.16892615646
 30
0.0
 41
100.0
 42
100.0
 43
100.0
 50
180.0
  0
MTEXT
  5
1F561
330
1EF3D
100
AcDbEntity
  8
寸法
 62
     7
 48
50.0
100
AcDbMText
 10
9539.6
 20
5132.180737180082
 30
0.0
 40
120.0
 41
0.0
 71
     5
 72
     1
  1
\A1;200\P(250)
  7
STYLE1
 73
     1
 44
1.0
1001
ACAD
1000
MTEXTBEGIN
1070
    73
1070
     1
1070
    44
1040
1.0
1070
    74
1070
     0
1000
MTEXTEND
  0
POINT
  5
1F562
330
1EF3D
100
AcDbEntity
  8
DEFPOINTS
 62
     0
 48
50.0
100
AcDbPoint
 10
9639.600000000001
 20
5399.999999999993
 30
0.0
  0
POINT
  5
1F563
330
1EF3D
100
AcDbEntity
  8
DEFPOINTS
 62
     0
 48
50.0
100
AcDbPoint
 10
9439.6
 20
5399.999999999993
 30
0.0
  0
POINT
  5
1F564
330
1EF3D
100
AcDbEntity
  8
DEFPOINTS
 62
     0
 48
50.0
100
AcDbPoint
 10
9439.6
 20
4926.16892615646
 30
0.0
  0
ENDBLK
  5
1EF48
330
1EF3D
100
AcDbEntity
  8
0
 48
50.0
100
AcDbBlockEnd
  0
BLOCK
  5
1F44D
330
1F443
100
AcDbEntity
  8
0
 48
50.0
100
AcDbBlockBegin
  2
*D13
 70
     1
 10
0.0
 20
0.0
 30
0.0
  3
*D13
  1

  0
LINE
  5
1FA07
330
1F443
100
AcDbEntity
  8
寸法
 62
     0
 48
50.0
370
    -2
100
AcDbLine
 10
6439.539401023374
 20
1466.844112873077
 30
0.0
 11
6527.64773039739
 21
1466.844112873077
 31
0.0
  0
LINE
  5
1FA08
330
1F443
100
AcDbEntity
  8
寸法
 62
     0
 48
50.0
370
    -2
100
AcDbLine
 10
6499.539401023374
 20
966.8441128730774
 30
0.0
 11
6407.64773039739
 21
966.8441128730774
 31
0.0
  0
LINE
  5
1FA09
330
1F443
100
AcDbEntity
  8
寸法
 62
     0
 48
50.0
370
    -2
100
AcDbLine
 10
6467.64773039739
 20
1466.844112873077
 30
0.0
 11
6467.64773039739
 21
966.8441128730774
 31
0.0
  0
INSERT
  5
1FA0A
330
1F443
100
AcDbEntity
  8
寸法
 62
     0
 48
50.0
370
    -2
100
AcDbBlockReference
  2
_DOTSMALL
 10
6467.64773039739
 20
1466.844112873077
 30
0.0
 41
100.0
 42
100.0
 43
100.0
 50
90.0
  0
INSERT
  5
1FA0B
330
1F443
100
AcDbEntity
  8
寸法
 62
     0
 48
50.0
370
    -2
100
AcDbBlockReference
  2
_DOTSMALL
 10
6467.64773039739
 20
966.8441128730774
 30
0.0
 41
100.0
 42
100.0
 43
100.0
 50
270.0
  0
MTEXT
  5
1FA0C
330
1F443
100
AcDbEntity
  8
寸法
 62
     7
 48
50.0
100
AcDbMText
 10
6261.635919373768
 20
1214.504488251543
 30
0.0
 40
120.0
 41
0.0
 71
     5
 72
     1
  1
\A1;200\P(250)
  7
STYLE1
 11
0.0000000000000001
 21
1.0
 31
0.0
 73
     1
 44
1.0
1001
ACAD
1000
MTEXTBEGIN
1070
    73
1070
     1
1070
    44
1040
1.0
1070
    74
1070
     0
1000
MTEXTEND
  0
POINT
  5
1FA0D
330
1F443
100
AcDbEntity
  8
DEFPOINTS
 62
     0
 48
50.0
100
AcDbPoint
 10
6419.539401023374
 20
1466.844112873077
 30
0.0
  0
POINT
  5
1FA0E
330
1F443
100
AcDbEntity
  8
DEFPOINTS
 62
     0
 48
50.0
100
AcDbPoint
 10
6519.539401023374
 20
966.8441128730774
 30
0.0
  0
POINT
  5
1FA0F
330
1F443
100
AcDbEntity
  8
DEFPOINTS
 62
     0
 48
50.0
100
AcDbPoint
 10
6467.64773039739
 20
966.8441128730774
 30
0.0
  0
ENDBLK
  5
1F44E
330
1F443
100
AcDbEntity
  8
0
 48
50.0
100
AcDbBlockEnd
  0
BLOCK
  5
1F459
330
1F44F
100
AcDbEntity
  8
0
 48
50.0
100
AcDbBlockBegin
  2
*D14
 70
     1
 10
0.0
 20
0.0
 30
0.0
  3
*D14
  1

  0
LINE
  5
1F9FE
330
1F44F
100
AcDbEntity
  8
寸法
 62
     0
 48
50.0
370
    -2
100
AcDbLine
 10
8453.145665141985
 20
1666.844112873079
 30
0.0
 11
8715.358912604884
 21
1666.844112873079
 31
0.0
  0
LINE
  5
1F9FF
330
1F44F
100
AcDbEntity
  8
寸法
 62
     0
 48
50.0
370
    -2
100
AcDbLine
 10
8472.594902036474
 20
1466.844112873077
 30
0.0
 11
8715.358912604884
 21
1466.844112873077
 31
0.0
  0
LINE
  5
1FA00
330
1F44F
100
AcDbEntity
  8
寸法
 62
     0
 48
50.0
370
    -2
100
AcDbLine
 10
8655.358912604885
 20
1666.844112873079
 30
0.0
 11
8655.358912604885
 21
1466.844112873077
 31
0.0
  0
INSERT
  5
1FA01
330
1F44F
100
AcDbEntity
  8
寸法
 62
     0
 48
50.0
370
    -2
100
AcDbBlockReference
  2
_DOTSMALL
 10
8655.358912604885
 20
1666.844112873079
 30
0.0
 41
100.0
 42
100.0
 43
100.0
 50
90.0
  0
INSERT
  5
1FA02
330
1F44F
100
AcDbEntity
  8
寸法
 62
     0
 48
50.0
370
    -2
100
AcDbBlockReference
  2
_DOTSMALL
 10
8655.358912604885
 20
1466.844112873077
 30
0.0
 41
100.0
 42
100.0
 43
100.0
 50
270.0
  0
MTEXT
  5
1FA03
330
1F44F
100
AcDbEntity
  8
寸法
 62
     7
 48
50.0
100
AcDbMText
 10
8555.358912604885
 20
1566.844112873079
 30
0.0
 40
120.0
 41
0.0
 71
     5
 72
     1
  1
\A1;b
  7
STYLE1
 11
0.0000000000000001
 21
1.0
 31
0.0
 73
     1
 44
1.0
1001
ACAD
1000
MTEXTBEGIN
1070
    73
1070
     1
1070
    44
1040
1.0
1070
    74
1070
     0
1000
MTEXTEND
  0
POINT
  5
1FA04
330
1F44F
100
AcDbEntity
  8
DEFPOINTS
 62
     0
 48
50.0
100
AcDbPoint
 10
8433.145665141985
 20
1666.844112873079
 30
0.0
  0
POINT
  5
1FA05
330
1F44F
100
AcDbEntity
  8
DEFPOINTS
 62
     0
 48
50.0
100
AcDbPoint
 10
8452.594902036473
 20
1466.844112873077
 30
0.0
  0
POINT
  5
1FA06
330
1F44F
100
AcDbEntity
  8
DEFPOINTS
 62
     0
 48
50.0
100
AcDbPoint
 10
8655.358912604885
 20
1466.844112873077
 30
0.0
  0
ENDBLK
  5
1F45A
330
1F44F
100
AcDbEntity
  8
0
 48
50.0
100
AcDbBlockEnd
  0
BLOCK
  5
1F465
330
1F45B
100
AcDbEntity
  8
0
 48
50.0
100
AcDbBlockBegin
  2
*D15
 70
     1
 10
0.0
 20
0.0
 30
0.0
  3
*D15
  1

  0
LINE
  5
1F9F5
330
1F45B
100
AcDbEntity
  8
寸法
 62
     0
 48
50.0
370
    -2
100
AcDbLine
 10
9953.038598659123
 20
1766.844112873077
 30
0.0
 11
10195.67415237624
 21
1766.844112873077
 31
0.0
  0
LINE
  5
1F9F6
330
1F45B
100
AcDbEntity
  8
寸法
 62
     0
 48
50.0
370
    -2
100
AcDbLine
 10
9982.927506749454
 20
1466.844112873077
 30
0.0
 11
10195.67415237624
 21
1466.844112873077
 31
0.0
  0
LINE
  5
1F9F7
330
1F45B
100
AcDbEntity
  8
寸法
 62
     0
 48
50.0
370
    -2
100
AcDbLine
 10
10135.67415237624
 20
1766.844112873077
 30
0.0
 11
10135.67415237624
 21
1466.844112873077
 31
0.0
  0
INSERT
  5
1F9F8
330
1F45B
100
AcDbEntity
  8
寸法
 62
     0
 48
50.0
370
    -2
100
AcDbBlockReference
  2
_DOTSMALL
 10
10135.67415237624
 20
1766.844112873077
 30
0.0
 41
100.0
 42
100.0
 43
100.0
 50
90.0
  0
INSERT
  5
1F9F9
330
1F45B
100
AcDbEntity
  8
寸法
 62
     0
 48
50.0
370
    -2
100
AcDbBlockReference
  2
_DOTSMALL
 10
10135.67415237624
 20
1466.844112873077
 30
0.0
 41
100.0
 42
100.0
 43
100.0
 50
270.0
  0
MTEXT
  5
1F9FA
330
1F45B
100
AcDbEntity
  8
寸法
 62
     7
 48
50.0
100
AcDbMText
 10
10035.67415237624
 20
1616.844112873079
 30
0.0
 40
120.0
 41
0.0
 71
     5
 72
     1
  1
\A1;c
  7
STYLE1
 11
0.0000000000000001
 21
1.0
 31
0.0
 73
     1
 44
1.0
1001
ACAD
1000
MTEXTBEGIN
1070
    73
1070
     1
1070
    44
1040
1.0
1070
    74
1070
     0
1000
MTEXTEND
  0
POINT
  5
1F9FB
330
1F45B
100
AcDbEntity
  8
DEFPOINTS
 62
     0
 48
50.0
100
AcDbPoint
 10
9933.038598659123
 20
1766.844112873077
 30
0.0
  0
POINT
  5
1F9FC
330
1F45B
100
AcDbEntity
  8
DEFPOINTS
 62
     0
 48
50.0
100
AcDbPoint
 10
9962.927506749455
 20
1466.844112873077
 30
0.0
  0
POINT
  5
1F9FD
330
1F45B
100
AcDbEntity
  8
DEFPOINTS
 62
     0
 48
50.0
100
AcDbPoint
 10
10135.67415237624
 20
1466.844112873077
 30
0.0
  0
ENDBLK
  5
1F466
330
1F45B
100
AcDbEntity
  8
0
 48
50.0
100
AcDbBlockEnd
  0
BLOCK
  5
1F471
330
1F467
100
AcDbEntity
  8
0
 48
50.0
100
AcDbBlockBegin
  2
*D16
 70
     1
 10
0.0
 20
0.0
 30
0.0
  3
*D16
  1

  0
LINE
  5
1F9EC
330
1F467
100
AcDbEntity
  8
寸法
 62
     0
 48
50.0
370
    -2
100
AcDbLine
 10
6839.539401023377
 20
1666.844112873078
 30
0.0
 11
7127.610405383771
 21
1666.844112873078
 31
0.0
  0
LINE
  5
1F9ED
330
1F467
100
AcDbEntity
  8
寸法
 62
     0
 48
50.0
370
    -2
100
AcDbLine
 10
6839.539401023377
 20
1466.844112873077
 30
0.0
 11
7127.610405383771
 21
1466.844112873077
 31
0.0
  0
LINE
  5
1F9EE
330
1F467
100
AcDbEntity
  8
寸法
 62
     0
 48
50.0
370
    -2
100
AcDbLine
 10
7067.610405383772
 20
1666.844112873078
 30
0.0
 11
7067.610405383772
 21
1466.844112873077
 31
0.0
  0
INSERT
  5
1F9EF
330
1F467
100
AcDbEntity
  8
寸法
 62
     0
 48
50.0
370
    -2
100
AcDbBlockReference
  2
_DOTSMALL
 10
7067.610405383772
 20
1666.844112873078
 30
0.0
 41
100.0
 42
100.0
 43
100.0
 50
90.0
  0
INSERT
  5
1F9F0
330
1F467
100
AcDbEntity
  8
寸法
 62
     0
 48
50.0
370
    -2
100
AcDbBlockReference
  2
_DOTSMALL
 10
7067.610405383772
 20
1466.844112873077
 30
0.0
 41
100.0
 42
100.0
 43
100.0
 50
270.0
  0
MTEXT
  5
1F9F1
330
1F467
100
AcDbEntity
  8
寸法
 62
     7
 48
50.0
100
AcDbMText
 10
6967.610405383772
 20
1566.844112873079
 30
0.0
 40
120.0
 41
0.0
 71
     5
 72
     1
  1
\A1;a
  7
STYLE1
 11
0.0000000000000001
 21
1.0
 31
0.0
 73
     1
 44
1.0
1001
ACAD
1000
MTEXTBEGIN
1070
    73
1070
     1
1070
    44
1040
1.0
1070
    74
1070
     0
1000
MTEXTEND
  0
POINT
  5
1F9F2
330
1F467
100
AcDbEntity
  8
DEFPOINTS
 62
     0
 48
50.0
100
AcDbPoint
 10
6819.539401023378
 20
1666.844112873078
 30
0.0
  0
POINT
  5
1F9F3
330
1F467
100
AcDbEntity
  8
DEFPOINTS
 62
     0
 48
50.0
100
AcDbPoint
 10
6819.539401023378
 20
1466.844112873077
 30
0.0
  0
POINT
  5
1F9F4
330
1F467
100
AcDbEntity
  8
DEFPOINTS
 62
     0
 48
50.0
100
AcDbPoint
 10
7067.610405383772
 20
1466.844112873077
 30
0.0
  0
ENDBLK
  5
1F472
330
1F467
100
AcDbEntity
  8
0
 48
50.0
100
AcDbBlockEnd
  0
BLOCK
  5
1F643
330
1F637
100
AcDbEntity
  8
0
 48
50.0
100
AcDbBlockBegin
  2
*D17
 70
     1
 10
0.0
 20
0.0
 30
0.0
  3
*D17
  1

  0
LINE
  5
1F667
330
1F637
100
AcDbEntity
  8
寸法
 62
     0
 48
50.0
370
    -2
100
AcDbLine
 10
6916.600000000001
 20
5424.999999999998
 30
0.0
 11
6643.230689952594
 21
5424.999999999998
 31
0.0
  0
LINE
  5
1F668
330
1F637
100
AcDbEntity
  8
寸法
 62
     0
 48
50.0
370
    -2
100
AcDbLine
 10
6850.543893583843
 20
5499.999999999996
 30
0.0
 11
6643.230689952594
 21
5499.999999999996
 31
0.0
  0
LINE
  5
1F669
330
1F637
100
AcDbEntity
  8
寸法
 62
     0
 48
50.0
370
    -2
100
AcDbLine
 10
6703.230689952594
 20
5499.999999999996
 30
0.0
 11
6703.230689952594
 21
5599.999999999996
 31
0.0
  0
LINE
  5
1F66A
330
1F637
100
AcDbEntity
  8
寸法
 62
     0
 48
50.0
370
    -2
100
AcDbLine
 10
6703.230689952594
 20
5424.999999999998
 30
0.0
 11
6703.230689952594
 21
4558.029437251521
 31
0.0
  0
LINE
  5
1F66B
330
1F637
100
AcDbEntity
  8
寸法
 62
     0
 48
50.0
370
    -2
100
AcDbLine
 10
6703.230689952594
 20
5499.999999999996
 30
0.0
 11
6703.230689952594
 21
5424.999999999998
 31
0.0
  0
INSERT
  5
1F66C
330
1F637
100
AcDbEntity
  8
寸法
 62
     0
 48
50.0
370
    -2
100
AcDbBlockReference
  2
_DOTSMALL
 10
6703.230689952594
 20
5499.999999999996
 30
0.0
 41
100.0
 42
100.0
 43
100.0
 50
270.0
  0
INSERT
  5
1F66D
330
1F637
100
AcDbEntity
  8
寸法
 62
     0
 48
50.0
370
    -2
100
AcDbBlockReference
  2
_DOTSMALL
 10
6703.230689952594
 20
5424.999999999998
 30
0.0
 41
100.0
 42
100.0
 43
100.0
 50
90.0
  0
MTEXT
  5
1F66E
330
1F637
100
AcDbEntity
  8
寸法
 62
     7
 48
50.0
100
AcDbMText
 10
6603.230689952593
 20
4891.514718625762
 30
0.0
 40
120.0
 41
0.0
 71
     5
 72
     1
  1
\A1;扉の出75
  7
STYLE1
 11
0.0000000000000001
 21
1.0
 31
0.0
 73
     1
 44
1.0
1001
ACAD
1000
MTEXTBEGIN
1070
    73
1070
     1
1070
    44
1040
1.0
1070
    74
1070
     0
1000
MTEXTEND
  0
POINT
  5
1F66F
330
1F637
100
AcDbEntity
  8
DEFPOINTS
 62
     0
 48
50.0
100
AcDbPoint
 10
6936.6
 20
5424.999999999998
 30
0.0
  0
POINT
  5
1F670
330
1F637
100
AcDbEntity
  8
DEFPOINTS
 62
     0
 48
50.0
100
AcDbPoint
 10
6870.543893583842
 20
5499.999999999996
 30
0.0
  0
POINT
  5
1F671
330
1F637
100
AcDbEntity
  8
DEFPOINTS
 62
     0
 48
50.0
100
AcDbPoint
 10
6703.230689952594
 20
5499.999999999996
 30
0.0
  0
ENDBLK
  5
1F644
330
1F637
100
AcDbEntity
  8
0
 48
50.0
100
AcDbBlockEnd
  0
BLOCK
  5
1F6A2
330
1F6A1
100
AcDbEntity
  8
0
 48
50.0
100
AcDbBlockBegin
  2
*D18
 70
     1
 10
0.0
 20
0.0
 30
0.0
  3
*D18
  1

  0
LINE
  5
1F6A3
330
1F6A1
100
AcDbEntity
  8
寸法
 62
     0
 48
50.0
370
    -2
100
AcDbLine
 10
6399.539401023374
 20
1140.760787611754
 30
0.0
 11
6266.209653947845
 21
1140.760787611754
 31
0.0
  0
LINE
  5
1F6A4
330
1F6A1
100
AcDbEntity
  8
寸法
 62
     0
 48
50.0
370
    -2
100
AcDbLine
 10
6549.539401023373
 20
740.7607876117545
 30
0.0
 11
6266.209653947845
 21
740.7607876117546
 31
0.0
  0
LINE
  5
1F6A5
330
1F6A1
100
AcDbEntity
  8
寸法
 62
     0
 48
50.0
370
    -2
100
AcDbLine
 10
6326.209653947844
 20
1140.760787611754
 30
0.0
 11
6326.209653947844
 21
740.7607876117546
 31
0.0
  0
INSERT
  5
1F6A6
330
1F6A1
100
AcDbEntity
  8
寸法
 62
     0
 48
50.0
370
    -2
100
AcDbBlockReference
  2
_DOTSMALL
 10
6326.209653947844
 20
1140.760787611754
 30
0.0
 41
100.0
 42
100.0
 43
100.0
 50
90.0
  0
INSERT
  5
1F6A7
330
1F6A1
100
AcDbEntity
  8
寸法
 62
     0
 48
50.0
370
    -2
100
AcDbBlockReference
  2
_DOTSMALL
 10
6326.209653947844
 20
740.7607876117546
 30
0.0
 41
100.0
 42
100.0
 43
100.0
 50
270.0
  0
MTEXT
  5
1F6A8
330
1F6A1
100
AcDbEntity
  8
寸法
 62
     7
 48
50.0
100
AcDbMText
 10
6226.197842924222
 20
928.3854207276599
 30
0.0
 40
120.0
 41
0.0
 71
     5
 72
     1
  1
\A1;200
  7
STYLE1
 11
0.0000000000000001
 21
1.0
 31
0.0
 73
     1
 44
1.0
1001
ACAD
1000
MTEXTBEGIN
1070
    73
1070
     1
1070
    44
1040
1.0
1070
    74
1070
     0
1000
MTEXTEND
  0
POINT
  5
1F6A9
330
1F6A1
100
AcDbEntity
  8
DEFPOINTS
 62
     0
 48
50.0
100
AcDbPoint
 10
6419.539401023374
 20
1140.760787611754
 30
0.0
  0
POINT
  5
1F6AA
330
1F6A1
100
AcDbEntity
  8
DEFPOINTS
 62
     0
 48
50.0
100
AcDbPoint
 10
6569.539401023374
 20
740.7607876117545
 30
0.0
  0
POINT
  5
1F6AB
330
1F6A1
100
AcDbEntity
  8
DEFPOINTS
 62
     0
 48
50.0
100
AcDbPoint
 10
6326.209653947844
 20
740.7607876117546
 30
0.0
  0
ENDBLK
  5
1F6AC
330
1F6A1
100
AcDbEntity
  8
0
 48
50.0
100
AcDbBlockEnd
  0
BLOCK
  5
1F6AE
330
1F6AD
100
AcDbEntity
  8
0
 48
50.0
100
AcDbBlockBegin
  2
*D19
 70
     1
 10
0.0
 20
0.0
 30
0.0
  3
*D19
  1

  0
LINE
  5
1F6AF
330
1F6AD
100
AcDbEntity
  8
寸法
 62
     0
 48
50.0
370
    -2
100
AcDbLine
 10
8453.145665141983
 20
1340.760787611756
 30
0.0
 11
8715.358912604882
 21
1340.760787611756
 31
0.0
  0
LINE
  5
1F6B0
330
1F6AD
100
AcDbEntity
  8
寸法
 62
     0
 48
50.0
370
    -2
100
AcDbLine
 10
8472.594902036474
 20
1140.760787611754
 30
0.0
 11
8715.358912604882
 21
1140.760787611754
 31
0.0
  0
LINE
  5
1F6B1
330
1F6AD
100
AcDbEntity
  8
寸法
 62
     0
 48
50.0
370
    -2
100
AcDbLine
 10
8655.358912604883
 20
1340.760787611756
 30
0.0
 11
8655.358912604883
 21
1140.760787611754
 31
0.0
  0
INSERT
  5
1F6B2
330
1F6AD
100
AcDbEntity
  8
寸法
 62
     0
 48
50.0
370
    -2
100
AcDbBlockReference
  2
_DOTSMALL
 10
8655.358912604883
 20
1340.760787611756
 30
0.0
 41
100.0
 42
100.0
 43
100.0
 50
90.0
  0
INSERT
  5
1F6B3
330
1F6AD
100
AcDbEntity
  8
寸法
 62
     0
 48
50.0
370
    -2
100
AcDbBlockReference
  2
_DOTSMALL
 10
8655.358912604883
 20
1140.760787611754
 30
0.0
 41
100.0
 42
100.0
 43
100.0
 50
270.0
  0
MTEXT
  5
1F6B4
330
1F6AD
100
AcDbEntity
  8
寸法
 62
     7
 48
50.0
100
AcDbMText
 10
8555.358912604884
 20
1240.760787611757
 30
0.0
 40
120.0
 41
0.0
 71
     5
 72
     1
  1
\A1;b
  7
STYLE1
 11
0.0000000000000001
 21
1.0
 31
0.0
 73
     1
 44
1.0
1001
ACAD
1000
MTEXTBEGIN
1070
    73
1070
     1
1070
    44
1040
1.0
1070
    74
1070
     0
1000
MTEXTEND
  0
POINT
  5
1F6B5
330
1F6AD
100
AcDbEntity
  8
DEFPOINTS
 62
     0
 48
50.0
100
AcDbPoint
 10
8433.145665141983
 20
1340.760787611756
 30
0.0
  0
POINT
  5
1F6B6
330
1F6AD
100
AcDbEntity
  8
DEFPOINTS
 62
     0
 48
50.0
100
AcDbPoint
 10
8452.594902036473
 20
1140.760787611754
 30
0.0
  0
POINT
  5
1F6B7
330
1F6AD
100
AcDbEntity
  8
DEFPOINTS
 62
     0
 48
50.0
100
AcDbPoint
 10
8655.358912604883
 20
1140.760787611754
 30
0.0
  0
ENDBLK
  5
1F6B8
330
1F6AD
100
AcDbEntity
  8
0
 48
50.0
100
AcDbBlockEnd
  0
BLOCK
  5
1F6BA
330
1F6B9
100
AcDbEntity
  8
0
 48
50.0
100
AcDbBlockBegin
  2
*D20
 70
     1
 10
0.0
 20
0.0
 30
0.0
  3
*D20
  1

  0
LINE
  5
1F6BB
330
1F6B9
100
AcDbEntity
  8
寸法
 62
     0
 48
50.0
370
    -2
100
AcDbLine
 10
9953.038598659123
 20
1440.760787611754
 30
0.0
 11
10195.67415237624
 21
1440.760787611754
 31
0.0
  0
LINE
  5
1F6BC
330
1F6B9
100
AcDbEntity
  8
寸法
 62
     0
 48
50.0
370
    -2
100
AcDbLine
 10
9982.927506749454
 20
1140.760787611754
 30
0.0
 11
10195.67415237624
 21
1140.760787611754
 31
0.0
  0
LINE
  5
1F6BD
330
1F6B9
100
AcDbEntity
  8
寸法
 62
     0
 48
50.0
370
    -2
100
AcDbLine
 10
10135.67415237624
 20
1440.760787611754
 30
0.0
 11
10135.67415237624
 21
1140.760787611754
 31
0.0
  0
INSERT
  5
1F6BE
330
1F6B9
100
AcDbEntity
  8
寸法
 62
     0
 48
50.0
370
    -2
100
AcDbBlockReference
  2
_DOTSMALL
 10
10135.67415237624
 20
1440.760787611754
 30
0.0
 41
100.0
 42
100.0
 43
100.0
 50
90.0
  0
INSERT
  5
1F6BF
330
1F6B9
100
AcDbEntity
  8
寸法
 62
     0
 48
50.0
370
    -2
100
AcDbBlockReference
  2
_DOTSMALL
 10
10135.67415237624
 20
1140.760787611754
 30
0.0
 41
100.0
 42
100.0
 43
100.0
 50
270.0
  0
MTEXT
  5
1F6C0
330
1F6B9
100
AcDbEntity
  8
寸法
 62
     7
 48
50.0
100
AcDbMText
 10
10035.67415237624
 20
1290.760787611756
 30
0.0
 40
120.0
 41
0.0
 71
     5
 72
     1
  1
\A1;c
  7
STYLE1
 11
0.0000000000000001
 21
1.0
 31
0.0
 73
     1
 44
1.0
1001
ACAD
1000
MTEXTBEGIN
1070
    73
1070
     1
1070
    44
1040
1.0
1070
    74
1070
     0
1000
MTEXTEND
  0
POINT
  5
1F6C1
330
1F6B9
100
AcDbEntity
  8
DEFPOINTS
 62
     0
 48
50.0
100
AcDbPoint
 10
9933.038598659123
 20
1440.760787611754
 30
0.0
  0
POINT
  5
1F6C2
330
1F6B9
100
AcDbEntity
  8
DEFPOINTS
 62
     0
 48
50.0
100
AcDbPoint
 10
9962.927506749455
 20
1140.760787611754
 30
0.0
  0
POINT
  5
1F6C3
330
1F6B9
100
AcDbEntity
  8
DEFPOINTS
 62
     0
 48
50.0
100
AcDbPoint
 10
10135.67415237624
 20
1140.760787611754
 30
0.0
  0
ENDBLK
  5
1F6C4
330
1F6B9
100
AcDbEntity
  8
0
 48
50.0
100
AcDbBlockEnd
  0
BLOCK
  5
1F6C6
330
1F6C5
100
AcDbEntity
  8
0
 48
50.0
100
AcDbBlockBegin
  2
*D21
 70
     1
 10
0.0
 20
0.0
 30
0.0
  3
*D21
  1

  0
LINE
  5
1F6C7
330
1F6C5
100
AcDbEntity
  8
寸法
 62
     0
 48
50.0
370
    -2
100
AcDbLine
 10
6839.539401023376
 20
1340.760787611755
 30
0.0
 11
7127.610405383769
 21
1340.760787611755
 31
0.0
  0
LINE
  5
1F6C8
330
1F6C5
100
AcDbEntity
  8
寸法
 62
     0
 48
50.0
370
    -2
100
AcDbLine
 10
6839.539401023377
 20
1140.760787611754
 30
0.0
 11
7127.610405383769
 21
1140.760787611754
 31
0.0
  0
LINE
  5
1F6C9
330
1F6C5
100
AcDbEntity
  8
寸法
 62
     0
 48
50.0
370
    -2
100
AcDbLine
 10
7067.610405383771
 20
1340.760787611755
 30
0.0
 11
7067.610405383771
 21
1140.760787611754
 31
0.0
  0
INSERT
  5
1F6CA
330
1F6C5
100
AcDbEntity
  8
寸法
 62
     0
 48
50.0
370
    -2
100
AcDbBlockReference
  2
_DOTSMALL
 10
7067.610405383771
 20
1340.760787611755
 30
0.0
 41
100.0
 42
100.0
 43
100.0
 50
90.0
  0
INSERT
  5
1F6CB
330
1F6C5
100
AcDbEntity
  8
寸法
 62
     0
 48
50.0
370
    -2
100
AcDbBlockReference
  2
_DOTSMALL
 10
7067.610405383771
 20
1140.760787611754
 30
0.0
 41
100.0
 42
100.0
 43
100.0
 50
270.0
  0
MTEXT
  5
1F6CC
330
1F6C5
100
AcDbEntity
  8
寸法
 62
     7
 48
50.0
100
AcDbMText
 10
6967.61040538377
 20
1240.760787611756
 30
0.0
 40
120.0
 41
0.0
 71
     5
 72
     1
  1
\A1;a
  7
STYLE1
 11
0.0000000000000001
 21
1.0
 31
0.0
 73
     1
 44
1.0
1001
ACAD
1000
MTEXTBEGIN
1070
    73
1070
     1
1070
    44
1040
1.0
1070
    74
1070
     0
1000
MTEXTEND
  0
POINT
  5
1F6CD
330
1F6C5
100
AcDbEntity
  8
DEFPOINTS
 62
     0
 48
50.0
100
AcDbPoint
 10
6819.539401023376
 20
1340.760787611755
 30
0.0
  0
POINT
  5
1F6CE
330
1F6C5
100
AcDbEntity
  8
DEFPOINTS
 62
     0
 48
50.0
100
AcDbPoint
 10
6819.539401023378
 20
1140.760787611754
 30
0.0
  0
POINT
  5
1F6CF
330
1F6C5
100
AcDbEntity
  8
DEFPOINTS
 62
     0
 48
50.0
100
AcDbPoint
 10
7067.610405383771
 20
1140.760787611754
 30
0.0
  0
ENDBLK
  5
1F6D0
330
1F6C5
100
AcDbEntity
  8
0
 48
50.0
100
AcDbBlockEnd
  0
BLOCK
  5
1F99B
330
1F991
100
AcDbEntity
  8
0
 48
50.0
100
AcDbBlockBegin
  2
*D23
 70
     1
 10
0.0
 20
0.0
 30
0.0
  3
*D23
  1

  0
LINE
  5
1F9C1
330
1F991
100
AcDbEntity
  8
寸法
 62
     0
 48
50.0
370
    -2
100
AcDbLine
 10
6839.539401023376
 20
-1754.274720611181
 30
0.0
 11
7127.610405383769
 21
-1754.274720611181
 31
0.0
  0
LINE
  5
1F9C2
330
1F991
100
AcDbEntity
  8
寸法
 62
     0
 48
50.0
370
    -2
100
AcDbLine
 10
6839.539401023377
 20
-1954.274720611181
 30
0.0
 11
7127.610405383769
 21
-1954.274720611181
 31
0.0
  0
LINE
  5
1F9C3
330
1F991
100
AcDbEntity
  8
寸法
 62
     0
 48
50.0
370
    -2
100
AcDbLine
 10
7067.610405383771
 20
-1754.274720611181
 30
0.0
 11
7067.610405383771
 21
-1954.274720611181
 31
0.0
  0
INSERT
  5
1F9C4
330
1F991
100
AcDbEntity
  8
寸法
 62
     0
 48
50.0
370
    -2
100
AcDbBlockReference
  2
_DOTSMALL
 10
7067.610405383771
 20
-1754.274720611181
 30
0.0
 41
100.0
 42
100.0
 43
100.0
 50
90.0
  0
INSERT
  5
1F9C5
330
1F991
100
AcDbEntity
  8
寸法
 62
     0
 48
50.0
370
    -2
100
AcDbBlockReference
  2
_DOTSMALL
 10
7067.610405383771
 20
-1954.274720611181
 30
0.0
 41
100.0
 42
100.0
 43
100.0
 50
270.0
  0
MTEXT
  5
1F9C6
330
1F991
100
AcDbEntity
  8
寸法
 62
     7
 48
50.0
100
AcDbMText
 10
6967.61040538377
 20
-1854.27472061118
 30
0.0
 40
120.0
 41
0.0
 71
     5
 72
     1
  1
\A1;a
  7
STYLE1
 11
0.0000000000000001
 21
1.0
 31
0.0
 73
     1
 44
1.0
1001
ACAD
1000
MTEXTBEGIN
1070
    73
1070
     1
1070
    44
1040
1.0
1070
    74
1070
     0
1000
MTEXTEND
  0
POINT
  5
1F9C7
330
1F991
100
AcDbEntity
  8
DEFPOINTS
 62
     0
 48
50.0
100
AcDbPoint
 10
6819.539401023376
 20
-1754.274720611181
 30
0.0
  0
POINT
  5
1F9C8
330
1F991
100
AcDbEntity
  8
DEFPOINTS
 62
     0
 48
50.0
100
AcDbPoint
 10
6819.539401023378
 20
-1954.274720611181
 30
0.0
  0
POINT
  5
1F9C9
330
1F991
100
AcDbEntity
  8
DEFPOINTS
 62
     0
 48
50.0
100
AcDbPoint
 10
7067.610405383771
 20
-1954.274720611181
 30
0.0
  0
ENDBLK
  5
1F99C
330
1F991
100
AcDbEntity
  8
0
 48
50.0
100
AcDbBlockEnd
  0
BLOCK
  5
1F9A7
330
1F99D
100
AcDbEntity
  8
0
 48
50.0
100
AcDbBlockBegin
  2
*D24
 70
     1
 10
0.0
 20
0.0
 30
0.0
  3
*D24
  1

  0
LINE
  5
1F9CA
330
1F99D
100
AcDbEntity
  8
寸法
 62
     0
 48
50.0
370
    -2
100
AcDbLine
 10
9953.038598659123
 20
-1654.274720611181
 30
0.0
 11
10195.67415237624
 21
-1654.274720611181
 31
0.0
  0
LINE
  5
1F9CB
330
1F99D
100
AcDbEntity
  8
寸法
 62
     0
 48
50.0
370
    -2
100
AcDbLine
 10
9982.927506749454
 20
-1954.274720611181
 30
0.0
 11
10195.67415237624
 21
-1954.274720611181
 31
0.0
  0
LINE
  5
1F9CC
330
1F99D
100
AcDbEntity
  8
寸法
 62
     0
 48
50.0
370
    -2
100
AcDbLine
 10
10135.67415237624
 20
-1654.274720611181
 30
0.0
 11
10135.67415237624
 21
-1954.274720611181
 31
0.0
  0
INSERT
  5
1F9CD
330
1F99D
100
AcDbEntity
  8
寸法
 62
     0
 48
50.0
370
    -2
100
AcDbBlockReference
  2
_DOTSMALL
 10
10135.67415237624
 20
-1654.274720611181
 30
0.0
 41
100.0
 42
100.0
 43
100.0
 50
90.0
  0
INSERT
  5
1F9CE
330
1F99D
100
AcDbEntity
  8
寸法
 62
     0
 48
50.0
370
    -2
100
AcDbBlockReference
  2
_DOTSMALL
 10
10135.67415237624
 20
-1954.274720611181
 30
0.0
 41
100.0
 42
100.0
 43
100.0
 50
270.0
  0
MTEXT
  5
1F9CF
330
1F99D
100
AcDbEntity
  8
寸法
 62
     7
 48
50.0
100
AcDbMText
 10
10035.67415237624
 20
-1804.27472061118
 30
0.0
 40
120.0
 41
0.0
 71
     5
 72
     1
  1
\A1;c
  7
STYLE1
 11
0.0000000000000001
 21
1.0
 31
0.0
 73
     1
 44
1.0
1001
ACAD
1000
MTEXTBEGIN
1070
    73
1070
     1
1070
    44
1040
1.0
1070
    74
1070
     0
1000
MTEXTEND
  0
POINT
  5
1F9D0
330
1F99D
100
AcDbEntity
  8
DEFPOINTS
 62
     0
 48
50.0
100
AcDbPoint
 10
9933.038598659123
 20
-1654.274720611181
 30
0.0
  0
POINT
  5
1F9D1
330
1F99D
100
AcDbEntity
  8
DEFPOINTS
 62
     0
 48
50.0
100
AcDbPoint
 10
9962.927506749455
 20
-1954.274720611181
 30
0.0
  0
POINT
  5
1F9D2
330
1F99D
100
AcDbEntity
  8
DEFPOINTS
 62
     0
 48
50.0
100
AcDbPoint
 10
10135.67415237624
 20
-1954.274720611181
 30
0.0
  0
ENDBLK
  5
1F9A8
330
1F99D
100
AcDbEntity
  8
0
 48
50.0
100
AcDbBlockEnd
  0
BLOCK
  5
1F9B3
330
1F9A9
100
AcDbEntity
  8
0
 48
50.0
100
AcDbBlockBegin
  2
*D25
 70
     1
 10
0.0
 20
0.0
 30
0.0
  3
*D25
  1

  0
LINE
  5
1F9D3
330
1F9A9
100
AcDbEntity
  8
寸法
 62
     0
 48
50.0
370
    -2
100
AcDbLine
 10
8453.145665141983
 20
-1754.27472061118
 30
0.0
 11
8715.358912604882
 21
-1754.27472061118
 31
0.0
  0
LINE
  5
1F9D4
330
1F9A9
100
AcDbEntity
  8
寸法
 62
     0
 48
50.0
370
    -2
100
AcDbLine
 10
8472.594902036474
 20
-1954.274720611181
 30
0.0
 11
8715.358912604882
 21
-1954.274720611182
 31
0.0
  0
LINE
  5
1F9D5
330
1F9A9
100
AcDbEntity
  8
寸法
 62
     0
 48
50.0
370
    -2
100
AcDbLine
 10
8655.358912604883
 20
-1754.27472061118
 30
0.0
 11
8655.358912604883
 21
-1954.274720611181
 31
0.0
  0
INSERT
  5
1F9D6
330
1F9A9
100
AcDbEntity
  8
寸法
 62
     0
 48
50.0
370
    -2
100
AcDbBlockReference
  2
_DOTSMALL
 10
8655.358912604883
 20
-1754.27472061118
 30
0.0
 41
100.0
 42
100.0
 43
100.0
 50
90.0
  0
INSERT
  5
1F9D7
330
1F9A9
100
AcDbEntity
  8
寸法
 62
     0
 48
50.0
370
    -2
100
AcDbBlockReference
  2
_DOTSMALL
 10
8655.358912604883
 20
-1954.274720611181
 30
0.0
 41
100.0
 42
100.0
 43
100.0
 50
270.0
  0
MTEXT
  5
1F9D8
330
1F9A9
100
AcDbEntity
  8
寸法
 62
     7
 48
50.0
100
AcDbMText
 10
8555.358912604884
 20
-1854.274720611179
 30
0.0
 40
120.0
 41
0.0
 71
     5
 72
     1
  1
\A1;b
  7
STYLE1
 11
0.0000000000000001
 21
1.0
 31
0.0
 73
     1
 44
1.0
1001
ACAD
1000
MTEXTBEGIN
1070
    73
1070
     1
1070
    44
1040
1.0
1070
    74
1070
     0
1000
MTEXTEND
  0
POINT
  5
1F9D9
330
1F9A9
100
AcDbEntity
  8
DEFPOINTS
 62
     0
 48
50.0
100
AcDbPoint
 10
8433.145665141983
 20
-1754.27472061118
 30
0.0
  0
POINT
  5
1F9DA
330
1F9A9
100
AcDbEntity
  8
DEFPOINTS
 62
     0
 48
50.0
100
AcDbPoint
 10
8452.594902036473
 20
-1954.274720611181
 30
0.0
  0
POINT
  5
1F9DB
330
1F9A9
100
AcDbEntity
  8
DEFPOINTS
 62
     0
 48
50.0
100
AcDbPoint
 10
8655.358912604883
 20
-1954.274720611181
 30
0.0
  0
ENDBLK
  5
1F9B4
330
1F9A9
100
AcDbEntity
  8
0
 48
50.0
100
AcDbBlockEnd
  0
BLOCK
  5
1F9BF
330
1F9B5
100
AcDbEntity
  8
0
 48
50.0
100
AcDbBlockBegin
  2
*D26
 70
     1
 10
0.0
 20
0.0
 30
0.0
  3
*D26
  1

  0
LINE
  5
1F9DC
330
1F9B5
100
AcDbEntity
  8
寸法
 62
     0
 48
50.0
370
    -2
100
AcDbLine
 10
6399.539401023374
 20
-1954.274720611181
 30
0.0
 11
6266.209653947845
 21
-1954.274720611181
 31
0.0
  0
LINE
  5
1F9DD
330
1F9B5
100
AcDbEntity
  8
寸法
 62
     0
 48
50.0
370
    -2
100
AcDbLine
 10
6549.539401023373
 20
-2354.274720611182
 30
0.0
 11
6266.209653947843
 21
-2354.274720611182
 31
0.0
  0
LINE
  5
1F9DE
330
1F9B5
100
AcDbEntity
  8
寸法
 62
     0
 48
50.0
370
    -2
100
AcDbLine
 10
6326.209653947844
 20
-1954.274720611181
 30
0.0
 11
6326.209653947843
 21
-2354.274720611182
 31
0.0
  0
INSERT
  5
1F9DF
330
1F9B5
100
AcDbEntity
  8
寸法
 62
     0
 48
50.0
370
    -2
100
AcDbBlockReference
  2
_DOTSMALL
 10
6326.209653947844
 20
-1954.274720611181
 30
0.0
 41
100.0
 42
100.0
 43
100.0
 50
90.0
  0
INSERT
  5
1F9E0
330
1F9B5
100
AcDbEntity
  8
寸法
 62
     0
 48
50.0
370
    -2
100
AcDbBlockReference
  2
_DOTSMALL
 10
6326.209653947843
 20
-2354.274720611182
 30
0.0
 41
100.0
 42
100.0
 43
100.0
 50
270.0
  0
MTEXT
  5
1F9E1
330
1F9B5
100
AcDbEntity
  8
寸法
 62
     7
 48
50.0
100
AcDbMText
 10
6226.197842924222
 20
-2166.650087495276
 30
0.0
 40
120.0
 41
0.0
 71
     5
 72
     1
  1
\A1;200
  7
STYLE1
 11
0.0000000000000001
 21
1.0
 31
0.0
 73
     1
 44
1.0
1001
ACAD
1000
MTEXTBEGIN
1070
    73
1070
     1
1070
    44
1040
1.0
1070
    74
1070
     0
1000
MTEXTEND
  0
POINT
  5
1F9E2
330
1F9B5
100
AcDbEntity
  8
DEFPOINTS
 62
     0
 48
50.0
100
AcDbPoint
 10
6419.539401023374
 20
-1954.274720611181
 30
0.0
  0
POINT
  5
1F9E3
330
1F9B5
100
AcDbEntity
  8
DEFPOINTS
 62
     0
 48
50.0
100
AcDbPoint
 10
6569.539401023374
 20
-2354.274720611182
 30
0.0
  0
POINT
  5
1F9E4
330
1F9B5
100
AcDbEntity
  8
DEFPOINTS
 62
     0
 48
50.0
100
AcDbPoint
 10
6326.209653947843
 20
-2354.274720611182
 30
0.0
  0
ENDBLK
  5
1F9C0
330
1F9B5
100
AcDbEntity
  8
0
 48
50.0
100
AcDbBlockEnd
  0
ENDSEC
  0
SECTION
  2
ENTITIES
  0
LINE
  5
10B57
330
747D
100
AcDbEntity
  8
補助
  6
PHANTOM
 62
   230
 48
50.0
100
AcDbLine
 10
139.9999999999995
 20
11409.6
 30
0.0
 11
16307.2
 21
11409.6
 31
0.0
  0
LINE
  5
10B59
330
747D
100
AcDbEntity
  8
仕様書枠
  6
Continuous
 48
50.0
100
AcDbLine
 10
13107.2
 20
1200.0
 30
0.0
 11
13107.2
 21
-0.0000000000000729
 31
0.0
  0
LINE
  5
10B5C
330
747D
100
AcDbEntity
  8
仕様書枠
 48
50.0
100
AcDbLine
 10
16307.2
 20
1200.0
 30
0.0
 11
16307.2
 21
-0.0000000000000909
 31
0.0
  0
LINE
  5
10B5D
330
747D
100
AcDbEntity
  8
仕様書枠
 48
50.0
100
AcDbLine
 10
140.0
 20
0.0
 30
0.0
 11
16307.2
 21
-0.0000000000000909
 31
0.0
  0
LINE
  5
10B5E
330
747D
100
AcDbEntity
  8
補助
  6
PHANTOM
 62
   230
 48
50.0
100
AcDbLine
 10
16307.2
 20
11409.6
 30
0.0
 11
16307.2
 21
1200.0
 31
0.0
  0
LINE
  5
10B6C
330
747D
100
AcDbEntity
  8
仕様書枠
 48
50.0
100
AcDbLine
 10
13107.2
 20
1200.0
 30
0.0
 11
16307.2
 21
1200.0
 31
0.0
  0
LINE
  5
10B6D
330
747D
100
AcDbEntity
  8
補助
  6
PHANTOM
 62
   230
 48
50.0
100
AcDbLine
 10
13107.2
 20
11409.6
 30
0.0
 11
13107.2
 21
4800.0
 31
0.0
  0
LINE
  5
10B6F
330
747D
100
AcDbEntity
  8
補助
  6
PHANTOM
 62
   230
 48
50.0
100
AcDbLine
 10
13107.2
 20
4800.0
 30
0.0
 11
16307.2
 21
4800.0
 31
0.0
  0
LINE
  5
10B72
330
747D
100
AcDbEntity
  8
文字
 62
     7
 48
50.0
100
AcDbLine
 10
13187.2
 20
400.0
 30
0.0
 11
16227.2
 21
400.0
 31
0.0
  0
TEXT
  5
10B73
330
747D
100
AcDbEntity
  8
文字
 62
     7
 48
50.0
100
AcDbText
 10
13162.9790565769
 20
895.0906074299405
 30
0.0
 40
200.0
  1
基 礎 図
  7
STYLE2
100
AcDbText
  0
TEXT
  5
10B74
330
747D
100
AcDbEntity
  8
文字
 62
     7
 48
50.0
100
AcDbText
 10
13201.43669998441
 20
477.2740661031255
 30
0.0
 40
160.0
  1
機種名
  7
STYLE2
100
AcDbText
  0
TEXT
  5
10B79
330
747D
100
AcDbEntity
  8
文字
 62
     7
 48
50.0
100
AcDbText
 10
14524.131837222
 20
1031.557706291228
 30
0.0
 40
100.0
  1
NO.06      <縮尺> S=1/40
  7
STYLE2
100
AcDbText
  0
LINE
  5
10B7B
330
747D
100
AcDbEntity
  8
仕様書枠
 48
50.0
100
AcDbLine
 10
13107.2
 20
800.0
 30
0.0
 11
14251.2
 21
800.0
 31
0.0
  0
LINE
  5
10B88
330
747D
100
AcDbEntity
  8
仕様書枠
  6
Continuous
 48
50.0
100
AcDbLine
 10
14251.2
 20
1200.0
 30
0.0
 11
14251.2
 21
800.0
 31
0.0
  0
TEXT
  5
14DEF
330
747D
100
AcDbEntity
  8
文字
 62
     7
 48
50.0
100
AcDbText
 10
14641.2525855784
 20
871.1744590657925
 30
0.0
 40
100.0
  1
～一般型・多雪地型～
  7
STYLE2
100
AcDbText
  0
TEXT
  5
15A76
330
747D
100
AcDbEntity
  8
文字
 62
     7
 48
50.0
100
AcDbText
 10
14343.17725348178
 20
488.1241585855691
 30
0.0
 40
160.0
  1
NXP-36ST・HT
  7
STYLE2
100
AcDbText
  0
TEXT
  5
1C9B2
330
747D
100
AcDbEntity
  8
部品1
 48
50.0
100
AcDbText
 10
9907.367337153676
 20
5748.278480857502
 30
0.0
 40
80.0
  1
(a=50,b=60,c=80)
  7
STYLE1
100
AcDbText
  0
TEXT
  5
1C9B3
330
747D
100
AcDbEntity
  8
部品1
 48
50.0
100
AcDbText
 10
9793.667096427725
 20
5881.835006943446
 30
0.0
 40
80.0
  1
※a,b,cは屋根の出幅です。
  7
STYLE1
100
AcDbText
  0
MTEXT
  5
1C9B4
102
{ACAD_REACTORS
330
1C9B5
102
}
330
747D
100
AcDbEntity
  8
部品1
 62
     7
 48
50.0
100
AcDbMText
 10
10659.83718660449
 20
6093.50290714291
 30
0.0
 40
120.0
 41
0.0
 71
     6
 72
     1
  1
\A1;屋根の外寸
  7
STYLE1
 73
     1
 44
1.0
1001
ACAD
1000
MTEXTBEGIN
1070
    73
1070
     1
1070
    44
1040
1.0
1070
    74
1070
     0
1000
MTEXTEND
  0
LEADER
  5
1C9B5
330
747D
100
AcDbEntity
  8
寸法
 48
50.0
100
AcDbLeader
  3
INABA_S50G
 71
     0
 73
     0
 74
     0
 75
     1
 40
120.0
 41
672.0
 76
     3
 10
9589.600000000002
 20
6388.520299102702
 30
0.0
 10
9837.837186604495
 20
6008.502907142911
 30
0.0
 10
9962.837186604495
 20
6008.502907142911
 30
0.0
340
1C9B4
1001
ACAD
1000
DSTYLE
1002
{
1070
   341
1005
1C530
1070
    40
1040
1.0
1070
   343
1005
1C530
1070
   344
1005
1C530
1002
}
  0
LINE
  5
1C9BB
330
747D
100
AcDbEntity
  8
想像線
 48
10.0
100
AcDbLine
 10
9589.600000000004
 20
5440.0
 30
0.0
 11
6860.600000000001
 21
5440.0
 31
0.0
  0
LINE
  5
1C9BC
330
747D
100
AcDbEntity
  8
想像線
 48
10.0
100
AcDbLine
 10
6860.600000000001
 20
6952.0
 30
0.0
 11
9589.599999999999
 21
6949.000000000004
 31
0.0
  0
DIMENSION
  5
1CAB6
330
747D
100
AcDbEntity
  8
寸法
 48
50.0
100
AcDbDimension
  2
*D2
 10
6466.88811655075
 20
5439.999999999998
 30
0.0
 11
6466.888116550748
 21
5470.0
 31
0.0
 70
   160
  1
b
 71
     5
 42
60.0
  3
INABA_S40G
100
AcDbAlignedDimension
 13
6907.600000000001
 23
5499.999999999999
 33
0.0
 14
6857.600000000001
 24
5439.999999999998
 34
0.0
 50
90.0
100
AcDbRotatedDimension
1001
ACAD
1000
DSTYLE
1002
{
1070
   174
1070
     0
1070
   272
1070
     1
1070
   288
1070
     0
1070
   341
1005
0
1002
}
  0
DIMENSION
  5
1CAB7
330
747D
100
AcDbEntity
  8
寸法
 48
50.0
100
AcDbDimension
  2
*D3
 10
6466.88811655075
 20
5499.999999999999
 30
0.0
 11
6366.876305527128
 21
6186.0
 31
0.0
 70
    32
 71
     5
 42
1372.0
  3
INABA_S40G
100
AcDbAlignedDimension
 13
6907.600000000001
 23
6871.999999999998
 33
0.0
 14
6907.600000000001
 24
5499.999999999999
 34
0.0
 50
90.0
100
AcDbRotatedDimension
1001
ACAD
1000
DSTYLE
1002
{
1070
   174
1070
     0
1070
   272
1070
     1
1070
   288
1070
     0
1070
   341
1005
0
1002
}
  0
DIMENSION
  5
1CAB8
330
747D
100
AcDbEntity
  8
寸法
 48
50.0
100
AcDbDimension
  2
*D4
 10
6466.888116550752
 20
6871.999999999998
 30
0.0
 11
6466.888116550748
 21
6912.0
 31
0.0
 70
   160
  1
c
 71
     5
 42
80.0
  3
INABA_S40G
100
AcDbAlignedDimension
 13
6857.600000000001
 23
6951.999999999998
 33
0.0
 14
6907.600000000001
 24
6871.999999999998
 34
0.0
 50
90.0
100
AcDbRotatedDimension
1001
ACAD
1000
DSTYLE
1002
{
1070
   174
1070
     0
1070
   272
1070
     1
1070
   288
1070
     0
1070
   341
1005
0
1002
}
  0
LINE
  5
1CAB9
330
747D
100
AcDbEntity
  8
想像線
 48
10.0
100
AcDbLine
 10
6857.600000000001
 20
5443.0
 30
0.0
 11
6857.600000000001
 21
6949.0
 31
0.0
  0
LINE
  5
1CABA
330
747D
100
AcDbEntity
  8
部品1
 48
50.0
100
AcDbLine
 10
7297.6
 20
5500.000000000002
 30
0.0
 11
6907.600000000001
 21
5499.999999999999
 31
0.0
  0
LINE
  5
1CABB
330
747D
100
AcDbEntity
  8
部品1
 48
50.0
100
AcDbLine
 10
7297.6
 20
5499.999999999999
 30
0.0
 11
6907.600000000001
 21
5499.999999999999
 31
0.0
  0
LINE
  5
1CABC
330
747D
100
AcDbEntity
  8
部品1
 48
50.0
100
AcDbLine
 10
7297.6
 20
5689.999999999998
 30
0.0
 11
6907.600000000001
 21
5689.999999999998
 31
0.0
  0
LINE
  5
1CAC0
330
747D
100
AcDbEntity
  8
部品1
 48
50.0
100
AcDbLine
 10
6907.600000000001
 20
5689.999999999998
 30
0.0
 11
6907.600000000001
 21
5499.999999999999
 31
0.0
  0
LINE
  5
1CAC2
330
747D
100
AcDbEntity
  8
部品1
 48
50.0
100
AcDbLine
 10
7297.6
 20
5689.999999999998
 30
0.0
 11
7297.6
 21
5499.999999999999
 31
0.0
  0
LINE
  5
1CAC3
330
747D
100
AcDbEntity
  8
部品1
 48
50.0
100
AcDbLine
 10
7903.600000000003
 20
5425.0
 30
0.0
 11
7713.600000000004
 21
5425.0
 31
0.0
  0
LINE
  5
1CAC4
330
747D
100
AcDbEntity
  8
部品1
 48
50.0
100
AcDbLine
 10
7903.600000000003
 20
5615.000000000001
 30
0.0
 11
7713.600000000004
 21
5615.000000000001
 31
0.0
  0
LINE
  5
1CAC5
330
747D
100
AcDbEntity
  8
部品1
 48
50.0
100
AcDbLine
 10
7713.600000000004
 20
5425.000000000005
 30
0.0
 11
7713.600000000004
 21
5615.000000000005
 31
0.0
  0
LINE
  5
1CAC6
330
747D
100
AcDbEntity
  8
部品1
 48
50.0
100
AcDbLine
 10
7903.600000000003
 20
5425.000000000005
 30
0.0
 11
7903.600000000003
 21
5615.000000000005
 31
0.0
  0
LINE
  5
1CAC7
330
747D
100
AcDbEntity
  8
部品1
 48
50.0
100
AcDbLine
 10
7297.6
 20
6871.999999999998
 30
0.0
 11
6907.600000000001
 21
6871.999999999998
 31
0.0
  0
LINE
  5
1CAC8
330
747D
100
AcDbEntity
  8
部品1
 48
50.0
100
AcDbLine
 10
7297.6
 20
6871.999999999994
 30
0.0
 11
6907.600000000001
 21
6871.999999999998
 31
0.0
  0
LINE
  5
1CAC9
330
747D
100
AcDbEntity
  8
部品1
 48
50.0
100
AcDbLine
 10
7297.6
 20
6681.999999999998
 30
0.0
 11
6907.600000000001
 21
6681.999999999998
 31
0.0
  0
LINE
  5
1CACE
330
747D
100
AcDbEntity
  8
部品1
 48
50.0
100
AcDbLine
 10
6907.600000000001
 20
6681.999999999998
 30
0.0
 11
6907.600000000001
 21
6871.999999999998
 31
0.0
  0
LINE
  5
1CAD0
330
747D
100
AcDbEntity
  8
部品1
 48
50.0
100
AcDbLine
 10
7297.6
 20
6681.999999999998
 30
0.0
 11
7297.6
 21
6871.999999999998
 31
0.0
  0
LINE
  5
1CAD1
330
747D
100
AcDbEntity
  8
部品1
 48
50.0
100
AcDbLine
 10
7903.600000000003
 20
6872.000000000001
 30
0.0
 11
7713.600000000004
 21
6872.000000000001
 31
0.0
  0
LINE
  5
1CAD2
330
747D
100
AcDbEntity
  8
部品1
 48
50.0
100
AcDbLine
 10
7903.600000000003
 20
6682.000000000001
 30
0.0
 11
7713.600000000004
 21
6682.000000000001
 31
0.0
  0
LINE
  5
1CAD3
330
747D
100
AcDbEntity
  8
部品1
 48
50.0
100
AcDbLine
 10
7713.600000000004
 20
6682.000000000005
 30
0.0
 11
7713.600000000004
 21
6872.000000000004
 31
0.0
  0
LINE
  5
1CAD4
330
747D
100
AcDbEntity
  8
部品1
 48
50.0
100
AcDbLine
 10
7903.600000000003
 20
6682.000000000005
 30
0.0
 11
7903.600000000003
 21
6872.000000000004
 31
0.0
  0
LINE
  5
1CCF0
330
747D
100
AcDbEntity
  8
想像線
 48
10.0
100
AcDbLine
 10
9589.599999999999
 20
6949.000000000004
 30
0.0
 11
9589.600000000004
 21
5440.0
 31
0.0
  0
LINE
  5
1CCF3
330
747D
100
AcDbEntity
  8
部品1
 48
50.0
100
AcDbLine
 10
9149.600000000001
 20
5690.0
 30
0.0
 11
9539.6
 21
5690.0
 31
0.0
  0
LINE
  5
1CCF4
330
747D
100
AcDbEntity
  8
部品1
 48
50.0
100
AcDbLine
 10
9149.600000000001
 20
5500.0
 30
0.0
 11
9539.6
 21
5500.0
 31
0.0
  0
LINE
  5
1CCF5
330
747D
100
AcDbEntity
  8
部品1
 48
50.0
100
AcDbLine
 10
9149.600000000001
 20
5500.000000000003
 30
0.0
 11
9539.6
 21
5500.0
 31
0.0
  0
LINE
  5
1CCF6
330
747D
100
AcDbEntity
  8
部品1
 48
50.0
100
AcDbLine
 10
9149.600000000001
 20
5690.0
 30
0.0
 11
9149.600000000001
 21
5500.0
 31
0.0
  0
LINE
  5
1CCFB
330
747D
100
AcDbEntity
  8
部品1
 48
50.0
100
AcDbLine
 10
9539.6
 20
5690.0
 30
0.0
 11
9539.6
 21
5500.0
 31
0.0
  0
LINE
  5
1CCFF
330
747D
100
AcDbEntity
  8
部品1
 48
50.0
100
AcDbLine
 10
9149.600000000001
 20
6871.999999999997
 30
0.0
 11
9539.6
 21
6872.0
 31
0.0
  0
LINE
  5
1CD00
330
747D
100
AcDbEntity
  8
部品1
 48
50.0
100
AcDbLine
 10
9149.600000000001
 20
6872.0
 30
0.0
 11
9539.6
 21
6872.0
 31
0.0
  0
LINE
  5
1CD01
330
747D
100
AcDbEntity
  8
部品1
 48
50.0
100
AcDbLine
 10
9149.600000000001
 20
6682.0
 30
0.0
 11
9539.6
 21
6682.0
 31
0.0
  0
LINE
  5
1CD02
330
747D
100
AcDbEntity
  8
部品1
 48
50.0
100
AcDbLine
 10
9149.600000000001
 20
6682.0
 30
0.0
 11
9149.600000000001
 21
6872.0
 31
0.0
  0
LINE
  5
1CD04
330
747D
100
AcDbEntity
  8
部品1
 48
50.0
100
AcDbLine
 10
9539.6
 20
6682.0
 30
0.0
 11
9539.6
 21
6872.0
 31
0.0
  0
TEXT
  5
1D002
330
747D
100
AcDbEntity
  8
文字
 62
     7
 48
50.0
100
AcDbText
 10
13188.16259899338
 20
246.7109242801889
 30
0.0
 40
80.0
  1
※寒冷地等は地域の実情に合わせた基礎にして下さい。
  7
STYLE2
100
AcDbText
  0
TEXT
  5
1D6DB
330
747D
100
AcDbEntity
  8
部品1
 48
50.0
100
AcDbText
 10
8103.624617350012
 20
5281.533387806432
 30
0.0
 40
120.0
  1
扉面
  7
STYLE1
 72
     1
 11
8231.624617350012
 21
5265.533387806431
 31
0.0
100
AcDbText
 73
     1
  0
LINE
  5
1DD81
330
747D
100
AcDbEntity
  8
想像線
 48
10.0
100
AcDbLine
 10
6860.600000000001
 20
6951.999999999998
 30
0.0
 11
6857.600000000001
 21
6948.999999999998
 31
0.0
  0
LINE
  5
1DD82
330
747D
100
AcDbEntity
  8
想像線
 48
10.0
100
AcDbLine
 10
9586.599999999998
 20
6952.000000000004
 30
0.0
 11
9589.599999999999
 21
6949.000000000004
 31
0.0
  0
LINE
  5
1E073
330
747D
100
AcDbEntity
  8
想像線
 48
10.0
100
AcDbLine
 10
6860.600000000001
 20
6952.0
 30
0.0
 11
6857.600000000001
 21
6949.0
 31
0.0
  0
LINE
  5
1E074
330
747D
100
AcDbEntity
  8
想像線
 48
10.0
100
AcDbLine
 10
6857.600000000001
 20
5443.0
 30
0.0
 11
6860.600000000001
 21
5440.0
 31
0.0
  0
DIMENSION
  5
1E07E
330
747D
100
AcDbEntity
  8
寸法
 48
50.0
100
AcDbDimension
  2
*D10
 10
9539.6
 20
7638.551625802022
 30
0.0
 11
8223.600000000001
 21
7638.551625802022
 31
0.0
 70
   160
 71
     5
 42
2632.0
  3
INABA_S40G
100
AcDbAlignedDimension
 13
6907.600000000001
 23
6872.0
 33
0.0
 14
9539.6
 24
6872.0
 34
0.0
100
AcDbRotatedDimension
1001
ACAD
1000
DSTYLE
1002
{
1070
   174
1070
     0
1070
   272
1070
     1
1070
   288
1070
     0
1070
   341
1005
0
1002
}
  0
DIMENSION
  5
1E07F
330
747D
100
AcDbEntity
  8
寸法
 48
50.0
100
AcDbDimension
  2
*D9
 10
6907.600000000001
 20
7638.551625802022
 30
0.0
 11
6882.6
 21
7638.551625802022
 31
0.0
 70
   160
  1
a
 71
     5
 42
50.0
  3
INABA_S40G
100
AcDbAlignedDimension
 13
6857.600000000001
 23
6952.0
 33
0.0
 14
6907.600000000001
 24
6872.0
 34
0.0
100
AcDbRotatedDimension
1001
ACAD
1000
DSTYLE
1002
{
1070
   174
1070
     0
1070
   272
1070
     1
1070
   288
1070
     0
1070
   341
1005
0
1002
}
  0
DIMENSION
  5
1E080
330
747D
100
AcDbEntity
  8
寸法
 48
50.0
100
AcDbDimension
  2
*D8
 10
9589.6
 20
7638.551625802022
 30
0.0
 11
9564.6
 21
7638.551625802022
 31
0.0
 70
   160
  1
a
 71
     5
 42
50.0
  3
INABA_S40G
100
AcDbAlignedDimension
 13
9539.6
 23
6872.0
 33
0.0
 14
9589.6
 24
6952.000000000004
 34
0.0
100
AcDbRotatedDimension
1001
ACAD
1000
DSTYLE
1002
{
1070
   174
1070
     0
1070
   272
1070
     1
1070
   288
1070
     0
1070
   341
1005
0
1002
}
  0
DIMENSION
  5
1E081
330
747D
100
AcDbEntity
  8
寸法
 48
50.0
100
AcDbDimension
  2
*D7
 10
8638.600000000002
 20
7380.624237135963
 30
0.0
 11
8223.600000000002
 21
7480.624237135963
 31
0.0
 70
    32
 71
     5
 42
829.9999999999991
  3
INABA_S40G
100
AcDbAlignedDimension
 13
7808.600000000002
 23
6872.000000000001
 33
0.0
 14
8638.600000000002
 24
6872.000000000004
 34
0.0
100
AcDbRotatedDimension
1001
ACAD
1000
DSTYLE
1002
{
1070
   174
1070
     0
1070
   272
1070
     1
1070
   288
1070
     0
1070
   341
1005
0
1002
}
  0
DIMENSION
  5
1E082
330
747D
100
AcDbEntity
  8
寸法
 48
50.0
100
AcDbDimension
  2
*D6
 10
6907.600000000001
 20
7380.624237135963
 30
0.0
 11
7358.100000000002
 21
7480.624237135963
 31
0.0
 70
    32
 71
     5
 42
901.0000000000028
  3
INABA_S40G
100
AcDbAlignedDimension
 13
7808.600000000002
 23
6872.000000000001
 33
0.0
 14
6907.600000000001
 24
6872.0
 34
0.0
100
AcDbRotatedDimension
1001
ACAD
1000
DSTYLE
1002
{
1070
   174
1070
     0
1070
   272
1070
     1
1070
   288
1070
     0
1070
   341
1005
0
1002
}
  0
DIMENSION
  5
1E083
330
747D
100
AcDbEntity
  8
寸法
 48
50.0
100
AcDbDimension
  2
*D5
 10
9539.6
 20
7380.624237135963
 30
0.0
 11
9089.100000000001
 21
7480.624237135963
 31
0.0
 70
    32
 71
     5
 42
900.9999999999982
  3
INABA_S40G
100
AcDbAlignedDimension
 13
8638.600000000002
 23
6872.000000000004
 33
0.0
 14
9539.6
 24
6872.0
 34
0.0
100
AcDbRotatedDimension
1001
ACAD
1000
DSTYLE
1002
{
1070
   174
1070
     0
1070
   272
1070
     1
1070
   288
1070
     0
1070
   341
1005
0
1002
}
  0
LINE
  5
1E136
330
747D
100
AcDbEntity
  8
部品1
 48
50.0
100
AcDbLine
 10
8733.600000000002
 20
5500.000000000008
 30
0.0
 11
8733.600000000002
 21
5690.000000000008
 31
0.0
  0
LINE
  5
1E137
330
747D
100
AcDbEntity
  8
部品1
 48
50.0
100
AcDbLine
 10
8543.600000000003
 20
5500.000000000008
 30
0.0
 11
8543.600000000003
 21
5690.000000000008
 31
0.0
  0
LINE
  5
1E138
330
747D
100
AcDbEntity
  8
部品1
 48
50.0
100
AcDbLine
 10
8733.600000000002
 20
5690.000000000004
 30
0.0
 11
8543.600000000003
 21
5690.000000000004
 31
0.0
  0
LINE
  5
1E139
330
747D
100
AcDbEntity
  8
部品1
 48
50.0
100
AcDbLine
 10
8733.600000000002
 20
5500.000000000005
 30
0.0
 11
8543.600000000003
 21
5500.000000000005
 31
0.0
  0
LINE
  5
1E13A
330
747D
100
AcDbEntity
  8
部品1
 48
50.0
100
AcDbLine
 10
8733.600000000002
 20
6682.000000000008
 30
0.0
 11
8733.600000000002
 21
6872.000000000008
 31
0.0
  0
LINE
  5
1E13B
330
747D
100
AcDbEntity
  8
部品1
 48
50.0
100
AcDbLine
 10
8543.600000000003
 20
6682.000000000008
 30
0.0
 11
8543.600000000003
 21
6872.000000000008
 31
0.0
  0
LINE
  5
1E13C
330
747D
100
AcDbEntity
  8
部品1
 48
50.0
100
AcDbLine
 10
8733.600000000002
 20
6682.000000000005
 30
0.0
 11
8543.600000000003
 21
6682.000000000005
 31
0.0
  0
LINE
  5
1E13D
330
747D
100
AcDbEntity
  8
部品1
 48
50.0
100
AcDbLine
 10
8733.600000000002
 20
6872.000000000004
 30
0.0
 11
8543.600000000003
 21
6872.000000000004
 31
0.0
  0
LINE
  5
1E5F6
330
747D
100
AcDbEntity
  8
点線
 48
10.0
100
AcDbLine
 10
9639.599999999999
 20
5599.999999999996
 30
0.0
 11
9639.600000000001
 21
5399.999999999995
 31
0.0
  0
LINE
  5
1E5F7
330
747D
100
AcDbEntity
  8
点線
 48
10.0
100
AcDbLine
 10
9439.6
 20
5399.999999999995
 30
0.0
 11
9639.600000000001
 21
5399.999999999995
 31
0.0
  0
LINE
  5
1E5F8
330
747D
100
AcDbEntity
  8
点線
 48
10.0
100
AcDbLine
 10
9439.6
 20
5599.999999999996
 30
0.0
 11
9439.6
 21
5399.999999999995
 31
0.0
  0
LINE
  5
1E5F9
330
747D
100
AcDbEntity
  8
点線
 48
10.0
100
AcDbLine
 10
9439.6
 20
5599.999999999996
 30
0.0
 11
9639.599999999999
 21
5599.999999999996
 31
0.0
  0
LINE
  5
1E5FA
330
747D
100
AcDbEntity
  8
点線
 48
10.0
100
AcDbLine
 10
6807.6
 20
5399.999999999995
 30
0.0
 11
7007.6
 21
5399.999999999995
 31
0.0
  0
LINE
  5
1E5FB
330
747D
100
AcDbEntity
  8
点線
 48
10.0
100
AcDbLine
 10
6807.6
 20
5599.999999999996
 30
0.0
 11
6807.6
 21
5399.999999999995
 31
0.0
  0
LINE
  5
1E5FC
330
747D
100
AcDbEntity
  8
点線
 48
10.0
100
AcDbLine
 10
7007.6
 20
5599.999999999996
 30
0.0
 11
7007.6
 21
5399.999999999995
 31
0.0
  0
LINE
  5
1E5FD
330
747D
100
AcDbEntity
  8
点線
 48
10.0
100
AcDbLine
 10
6807.6
 20
5599.999999999996
 30
0.0
 11
7007.6
 21
5599.999999999996
 31
0.0
  0
TEXT
  5
1E628
330
747D
100
AcDbEntity
  8
部品1
 48
50.0
100
AcDbText
 10
10048.95182925034
 20
7269.278165376134
 30
0.0
 40
120.0
  1
組立後
  7
STYLE1
100
AcDbText
  0
MTEXT
  5
1E629
102
{ACAD_REACTORS
330
1E62A
102
}
330
747D
100
AcDbEntity
  8
部品1
 62
     7
 48
50.0
100
AcDbMText
 10
10040.82789715524
 20
7142.800576904058
 30
0.0
 40
120.0
 41
0.0
 71
     4
 72
     1
  1
現場打コンクリート
  7
STYLE1
 73
     1
 44
1.0
1001
ACAD
1000
MTEXTBEGIN
1070
    73
1070
     1
1070
    44
1040
1.0
1070
    74
1070
     0
1000
MTEXTEND
  0
LEADER
  5
1E62A
330
747D
100
AcDbEntity
  8
寸法
 48
50.0
100
AcDbLeader
  3
INABA_S50G
 71
     0
 73
     0
 74
     0
 75
     1
 40
120.0
 41
1282.349242404918
 76
     3
 10
9634.440685572833
 20
6861.456639287917
 30
0.0
 10
9890.827897155238
 20
7057.800576904057
 30
0.0
 10
10015.82789715524
 20
7057.800576904057
 30
0.0
340
1E629
1001
ACAD
1000
DSTYLE
1002
{
1070
   341
1005
1C530
1070
    40
1040
1.0
1070
   343
1005
1C530
1070
   344
1005
1C530
1002
}
  0
LINE
  5
1E62B
330
747D
100
AcDbEntity
  8
点線
 48
10.0
100
AcDbLine
 10
9439.6
 20
6971.999999999993
 30
0.0
 11
9439.6
 21
6771.999999999991
 31
0.0
  0
LINE
  5
1E62C
330
747D
100
AcDbEntity
  8
点線
 48
10.0
100
AcDbLine
 10
9439.6
 20
6771.999999999991
 30
0.0
 11
9639.600000000001
 21
6771.999999999991
 31
0.0
  0
LINE
  5
1E62D
330
747D
100
AcDbEntity
  8
点線
 48
10.0
100
AcDbLine
 10
9439.6
 20
6971.999999999993
 30
0.0
 11
9639.599999999999
 21
6971.999999999991
 31
0.0
  0
LINE
  5
1E62E
330
747D
100
AcDbEntity
  8
点線
 48
10.0
100
AcDbLine
 10
9639.599999999999
 20
6971.999999999991
 30
0.0
 11
9639.600000000001
 21
6771.999999999991
 31
0.0
  0
LINE
  5
1E62F
330
747D
100
AcDbEntity
  8
点線
 48
10.0
100
AcDbLine
 10
6807.6
 20
6771.999999999991
 30
0.0
 11
7007.6
 21
6771.999999999991
 31
0.0
  0
LINE
  5
1E630
330
747D
100
AcDbEntity
  8
点線
 48
10.0
100
AcDbLine
 10
6807.6
 20
6971.999999999993
 30
0.0
 11
6807.6
 21
6771.999999999991
 31
0.0
  0
LINE
  5
1E631
330
747D
100
AcDbEntity
  8
点線
 48
10.0
100
AcDbLine
 10
7007.6
 20
6971.999999999991
 30
0.0
 11
7007.6
 21
6771.999999999991
 31
0.0
  0
LINE
  5
1E632
330
747D
100
AcDbEntity
  8
点線
 48
10.0
100
AcDbLine
 10
6807.6
 20
6971.999999999993
 30
0.0
 11
7007.6
 21
6971.999999999991
 31
0.0
  0
TEXT
  5
1EC29
330
747D
100
AcDbEntity
  8
文字
 48
50.0
100
AcDbText
 10
10071.8664264809
 20
6867.363529387934
 30
0.0
 40
120.0
  1
深サ:200(250)
  7
STYLE1
100
AcDbText
  0
LEADER
  5
1EC2A
330
747D
100
AcDbEntity
  8
寸法
 48
50.0
100
AcDbLeader
  3
INABA_S50G
 71
     0
 73
     0
 74
     0
 75
     1
 40
120.0
 41
185.591883092037
 76
     3
 10
7177.173191953271
 20
6797.593703396853
 30
0.0
 10
7245.549905176574
 20
6582.460560127774
 30
0.0
 10
7370.549905176574
 20
6582.460560127774
 30
0.0
340
1EC2B
1001
ACAD
1000
DSTYLE
1002
{
1070
   341
1005
1C530
1070
    40
1040
1.0
1070
   343
1005
1C530
1070
   344
1005
1C530
1002
}
  0
MTEXT
  5
1EC2B
102
{ACAD_REACTORS
330
1EC2A
102
}
330
747D
100
AcDbEntity
  8
部品1
 62
     7
 48
50.0
100
AcDbMText
 10
7395.549905176574
 20
6667.460560127775
 30
0.0
 40
120.0
 41
0.0
 71
     4
 72
     1
  1
\A1;C.B
  7
STYLE1
 73
     1
 44
1.0
1001
ACAD
1000
MTEXTBEGIN
1070
    73
1070
     1
1070
    44
1040
1.0
1070
    74
1070
     0
1000
MTEXTEND
  0
TEXT
  5
1EC2C
330
747D
100
AcDbEntity
  8
文字
 48
50.0
100
AcDbText
 10
7256.608720312039
 20
6414.961960634153
 30
0.0
 40
120.0
  1
100x190x390
  7
STYLE1
100
AcDbText
  0
DIMENSION
  5
1EF2F
330
747D
100
AcDbEntity
  8
寸法
 48
50.0
100
AcDbDimension
  2
*D11
 10
10157.84087348511
 20
5399.999999999993
 30
0.0
 11
10157.84087348511
 21
5499.999999999993
 31
0.0
 70
   160
  1
<>\P(250)
 71
     5
 42
200.0
  3
INABA_S40G
100
AcDbAlignedDimension
 13
9639.599999999999
 23
5599.999999999993
 33
0.0
 14
9639.600000000001
 24
5399.999999999993
 34
0.0
 50
90.0
100
AcDbRotatedDimension
1001
ACAD
1000
DSTYLE
1002
{
1070
   174
1070
     0
1070
   272
1070
     1
1070
   288
1070
     0
1070
   341
1005
0
1002
}
  0
DIMENSION
  5
1EF30
330
747D
100
AcDbEntity
  8
寸法
 48
50.0
100
AcDbDimension
  2
*D12
 10
9439.6
 20
4926.16892615646
 30
0.0
 11
9539.6
 21
4926.16892615646
 31
0.0
 70
   160
  1
<>\P(250)
 71
     5
 42
200.0
  3
INABA_S40G
100
AcDbAlignedDimension
 13
9639.600000000001
 23
5399.999999999993
 33
0.0
 14
9439.6
 24
5399.999999999993
 34
0.0
100
AcDbRotatedDimension
1001
ACAD
1000
DSTYLE
1002
{
1070
   174
1070
     0
1070
   272
1070
     1
1070
   288
1070
     0
1070
   341
1005
0
1002
}
  0
TEXT
  5
1F207
330
747D
100
AcDbEntity
  8
文字
 62
     7
 48
50.0
100
AcDbText
 10
7070.414097067208
 20
225.4540286420542
 30
0.0
 40
100.0
  1
※ （　）内寸法は３６Ｈを示す
  7
STYLE2
100
AcDbText
  0
LINE
  5
1F240
330
747D
100
AcDbEntity
  8
部品1
 48
50.0
100
AcDbLine
 10
4436.831698760173
 20
2446.083325261323
 30
0.0
 11
10836.83169876017
 21
2446.083325261323
 31
0.0
  0
LINE
  5
1F241
330
747D
100
AcDbEntity
  8
部品1
 48
50.0
100
AcDbLine
 10
10836.83169876017
 20
2686.083325261323
 30
0.0
 11
6036.831698760174
 21
2686.083325261323
 31
0.0
  0
LINE
  5
1F242
330
747D
100
AcDbEntity
  8
部品1
 48
50.0
100
AcDbLine
 10
10836.83169876017
 20
2926.083325261323
 30
0.0
 11
4436.831698760173
 21
2926.083325261324
 31
0.0
  0
LINE
  5
1F243
330
747D
100
AcDbEntity
  8
部品1
 48
50.0
100
AcDbLine
 10
4436.831698760173
 20
526.0833252613228
 30
0.0
 11
10836.83169876017
 21
526.0833252613228
 31
0.0
  0
TEXT
  5
1F244
330
747D
100
AcDbEntity
  8
部品1
100
AcDbText
 10
7690.559015138866
 20
2740.147139864057
 30
0.0
 40
120.0
  1
アンカー部詳細
  7
STYLE2
100
AcDbText
  0
LINE
  5
1F245
330
747D
100
AcDbEntity
  8
細線
100
AcDbLine
 10
5232.318207794966
 20
1366.844112873077
 30
0.0
 11
5332.318207794962
 21
1466.844112873079
 31
0.0
  0
LINE
  5
1F246
330
747D
100
AcDbEntity
  8
細線
100
AcDbLine
 10
5307.747657173555
 20
1466.844112873079
 30
0.0
 11
5107.747657173558
 21
1666.844112873077
 31
0.0
  0
LEADER
  5
1F247
330
747D
100
AcDbEntity
  8
寸法
 48
50.0
100
AcDbLeader
  3
INABA_S50G
 71
     0
 73
     0
 74
     0
 75
     1
 40
120.0
 41
185.591883092037
 76
     3
 10
5161.705449334402
 20
1666.844112873077
 30
0.0
 10
5316.969031905578
 20
1879.696030681845
 30
0.0
 10
5441.969031905578
 20
1879.696030681845
 30
0.0
340
1F248
213
67.73172584638814
223
0.0
233
0.0
1001
ACAD
1000
DSTYLE
1002
{
1070
    40
1040
1.0
1002
}
  0
MTEXT
  5
1F248
102
{ACAD_REACTORS
330
1F247
102
}
330
747D
100
AcDbEntity
  8
寸法
 62
     7
 48
50.0
100
AcDbMText
 10
5399.237306059191
 20
1964.696030681846
 30
0.0
 40
120.0
 41
1.0
 71
     4
 72
     1
  1
\A1;C.B
  7
STYLE1
 73
     1
 44
1.0
1001
ACAD
1000
MTEXTBEGIN
1070
    73
1070
     1
1070
    44
1040
1.0
1070
    74
1070
     0
1000
MTEXTEND
  0
TEXT
  5
1F249
330
747D
100
AcDbEntity
  8
部品1
100
AcDbText
 10
4902.431719764974
 20
2634.055542439645
 30
0.0
 40
120.0
  1
基礎詳細
  7
STYLE2
100
AcDbText
  0
LINE
  5
1F24A
330
747D
100
AcDbEntity
  8
細線
100
AcDbLine
 10
5350.174064044748
 20
1466.844112873079
 30
0.0
 11
5150.174064044751
 21
1666.844112873077
 31
0.0
  0
LINE
  5
1F24B
330
747D
100
AcDbEntity
  8
Ｇ．Ｌ
100
AcDbLine
 10
4531.604443289075
 20
1466.844112873079
 30
0.0
 11
5962.497727112236
 21
1466.844112873079
 31
0.0
  0
LINE
  5
1F24C
330
747D
100
AcDbEntity
  8
部品1
100
AcDbLine
 10
4961.705449334402
 20
1666.844112873077
 30
0.0
 11
5361.705449334398
 21
1666.844112873077
 31
0.0
  0
LINE
  5
1F24D
330
747D
100
AcDbEntity
  8
部品1
100
AcDbLine
 10
4861.705449334398
 20
1366.844112873075
 30
0.0
 11
5461.705449334399
 21
1366.844112873077
 31
0.0
  0
LINE
  5
1F24E
330
747D
100
AcDbEntity
  8
部品1
100
AcDbLine
 10
4861.705449334398
 20
1166.844112873073
 30
0.0
 11
5461.705449334399
 21
1166.844112873077
 31
0.0
  0
LINE
  5
1F24F
330
747D
100
AcDbEntity
  8
部品1
 48
50.0
100
AcDbLine
 10
4436.831698760173
 20
2926.083325261323
 30
0.0
 11
4436.831698760173
 21
526.0833252613228
 31
0.0
  0
LINE
  5
1F250
330
747D
100
AcDbEntity
  8
細線
100
AcDbLine
 10
4961.705449334402
 20
1366.844112873075
 30
0.0
 11
5015.295287820621
 21
1166.844112873072
 31
0.0
  0
LINE
  5
1F251
330
747D
100
AcDbEntity
  8
細線
100
AcDbLine
 10
5061.705449334398
 20
1366.844112873077
 30
0.0
 11
5115.295287820622
 21
1166.844112873073
 31
0.0
  0
LINE
  5
1F252
330
747D
100
AcDbEntity
  8
細線
100
AcDbLine
 10
5161.705449334398
 20
1366.844112873077
 30
0.0
 11
5215.295287820625
 21
1166.844112873073
 31
0.0
  0
LINE
  5
1F253
330
747D
100
AcDbEntity
  8
細線
100
AcDbLine
 10
4861.705449334398
 20
1366.844112873075
 30
0.0
 11
4915.295287820625
 21
1166.844112873072
 31
0.0
  0
LINE
  5
1F254
330
747D
100
AcDbEntity
  8
部品1
100
AcDbLine
 10
4861.705449334398
 20
1166.844112873073
 30
0.0
 11
4861.705449334398
 21
1466.844112873079
 31
0.0
  0
LINE
  5
1F255
330
747D
100
AcDbEntity
  8
細線
100
AcDbLine
 10
5001.897828199069
 20
1216.844112873075
 30
0.0
 11
4988.50036857751
 21
1166.844112873073
 31
0.0
  0
LINE
  5
1F256
330
747D
100
AcDbEntity
  8
細線
100
AcDbLine
 10
4901.897828199065
 20
1216.844112873075
 30
0.0
 11
4888.50036857751
 21
1166.844112873073
 31
0.0
  0
LINE
  5
1F257
330
747D
100
AcDbEntity
  8
細線
100
AcDbLine
 10
5101.897828199065
 20
1216.844112873077
 30
0.0
 11
5088.500368577514
 21
1166.844112873077
 31
0.0
  0
LINE
  5
1F258
330
747D
100
AcDbEntity
  8
細線
100
AcDbLine
 10
5201.897828199065
 20
1216.844112873077
 30
0.0
 11
5188.500368577511
 21
1166.844112873077
 31
0.0
  0
LINE
  5
1F259
330
747D
100
AcDbEntity
  8
部品1
100
AcDbLine
 10
4961.705449334402
 20
1466.844112873079
 30
0.0
 11
4961.705449334402
 21
1666.844112873077
 31
0.0
  0
LINE
  5
1F25A
330
747D
100
AcDbEntity
  8
細線
100
AcDbLine
 10
5123.899894065054
 20
1466.844112873079
 30
0.0
 11
4961.705449334399
 21
1629.038557603731
 31
0.0
  0
LINE
  5
1F25B
330
747D
100
AcDbEntity
  8
細線
100
AcDbLine
 10
4988.886750289892
 20
1366.844112873077
 30
0.0
 11
5088.886750289888
 21
1466.844112873079
 31
0.0
  0
LINE
  5
1F25C
330
747D
100
AcDbEntity
  8
細線
100
AcDbLine
 10
5081.473487193862
 20
1466.844112873079
 30
0.0
 11
4961.705449334402
 21
1586.612150732539
 31
0.0
  0
LINE
  5
1F25D
330
747D
100
AcDbEntity
  8
細線
100
AcDbLine
 10
4960.602479042429
 20
1366.844112873077
 30
0.0
 11
5060.602479042426
 21
1466.844112873079
 31
0.0
  0
LINE
  5
1F25E
330
747D
100
AcDbEntity
  8
細線
100
AcDbLine
 10
4932.318207794966
 20
1366.844112873075
 30
0.0
 11
5032.318207794966
 21
1466.844112873079
 31
0.0
  0
LINE
  5
1F25F
330
747D
100
AcDbEntity
  8
細線
100
AcDbLine
 10
4988.50036857751
 20
1366.844112873075
 30
0.0
 11
4975.102908955954
 21
1316.844112873074
 31
0.0
  0
LINE
  5
1F260
330
747D
100
AcDbEntity
  8
細線
100
AcDbLine
 10
4888.50036857751
 20
1366.844112873075
 30
0.0
 11
4875.102908955958
 21
1316.844112873074
 31
0.0
  0
LINE
  5
1F261
330
747D
100
AcDbEntity
  8
細線
100
AcDbLine
 10
5088.500368577514
 20
1366.844112873077
 30
0.0
 11
5075.102908955955
 21
1316.844112873079
 31
0.0
  0
LINE
  5
1F262
330
747D
100
AcDbEntity
  8
細線
100
AcDbLine
 10
5188.500368577511
 20
1366.844112873077
 30
0.0
 11
5175.102908955958
 21
1316.844112873079
 31
0.0
  0
LINE
  5
1F263
330
747D
100
AcDbEntity
  8
細線
 48
50.0
100
AcDbLine
 10
6274.539401023374
 20
2266.844112873076
 30
0.0
 11
6274.539401023374
 21
1766.844112873077
 31
0.0
  0
LINE
  5
1F264
330
747D
100
AcDbEntity
  8
細線
 48
50.0
100
AcDbLine
 10
6304.539401023374
 20
2266.844112873076
 30
0.0
 11
6304.539401023374
 21
1766.844112873077
 31
0.0
  0
LINE
  5
1F265
330
747D
100
AcDbEntity
  8
細線
 48
50.0
100
AcDbLine
 10
6584.539401023374
 20
2266.844112873076
 30
0.0
 11
6584.539401023374
 21
1766.844112873077
 31
0.0
  0
LINE
  5
1F266
330
747D
100
AcDbEntity
  8
細線
 48
50.0
100
AcDbLine
 10
6554.539401023373
 20
2266.844112873076
 30
0.0
 11
6554.539401023373
 21
1766.844112873077
 31
0.0
  0
LINE
  5
1F267
330
747D
100
AcDbEntity
  8
部品1
 48
50.0
100
AcDbLine
 10
7636.831698760174
 20
2686.083325261323
 30
0.0
 11
7636.831698760174
 21
526.0833252613228
 31
0.0
  0
LINE
  5
1F268
330
747D
100
AcDbEntity
  8
部品1
 48
50.0
100
AcDbLine
 10
6036.831698760174
 20
2926.083325261323
 30
0.0
 11
6036.831698760174
 21
526.0833252613228
 31
0.0
  0
LINE
  5
1F269
330
747D
100
AcDbEntity
  8
部品1
100
AcDbLine
 10
6819.539401023374
 20
2266.844112873076
 30
0.0
 11
6819.539401023374
 21
1466.844112873077
 31
0.0
  0
LINE
  5
1F26A
330
747D
100
AcDbEntity
  8
部品1
100
AcDbLine
 10
6709.539401023374
 20
2266.844112873076
 30
0.0
 11
6709.539401023377
 21
1760.844112873079
 31
0.0
  0
LINE
  5
1F26B
330
747D
100
AcDbEntity
  8
部品1
100
AcDbLine
 10
6104.28496777978
 20
1760.844112873077
 30
0.0
 11
6819.539401023374
 21
1760.844112873077
 31
0.0
  0
DIMENSION
  5
1F26C
330
747D
100
AcDbEntity
  8
寸法
 48
50.0
100
AcDbDimension
  2
*D13
 10
6467.64773039739
 20
966.8441128730774
 30
0.0
 11
6467.64773039739
 21
1214.504488251543
 31
0.0
 70
   160
  1
200\P(250)
 71
     5
 42
499.9999999999999
  3
INABA_S40G
100
AcDbAlignedDimension
 13
6419.539401023374
 23
1466.844112873077
 33
0.0
 14
6519.539401023374
 24
966.8441128730774
 34
0.0
 50
90.0
100
AcDbRotatedDimension
1001
ACAD
1000
DSTYLE
1002
{
1070
   174
1070
     0
1070
   272
1070
     1
1070
   288
1070
     0
1070
   341
1005
0
1002
}
  0
LINE
  5
1F26D
330
747D
100
AcDbEntity
  8
Ｇ．Ｌ
100
AcDbLine
 10
6104.28496777978
 20
1466.844112873077
 30
0.0
 11
6739.539401023375
 21
1466.844112873077
 31
0.0
  0
LINE
  5
1F26E
330
747D
100
AcDbEntity
  8
部品1
100
AcDbLine
 10
6104.28496777978
 20
1666.844112873077
 30
0.0
 11
6739.539401023375
 21
1666.844112873077
 31
0.0
  0
LINE
  5
1F26F
330
747D
100
AcDbEntity
  8
部品1
100
AcDbLine
 10
6104.28496777978
 20
1766.844112873079
 30
0.0
 11
6709.539401023374
 21
1766.844112873077
 31
0.0
  0
LINE
  5
1F270
330
747D
100
AcDbEntity
  8
細線
100
AcDbLine
 10
5361.705449334398
 20
1366.844112873077
 30
0.0
 11
5415.295287820621
 21
1166.844112873077
 31
0.0
  0
LINE
  5
1F271
330
747D
100
AcDbEntity
  8
細線
100
AcDbLine
 10
5261.705449334402
 20
1366.844112873077
 30
0.0
 11
5315.295287820621
 21
1166.844112873073
 31
0.0
  0
LINE
  5
1F272
330
747D
100
AcDbEntity
  8
部品1
100
AcDbLine
 10
5461.705449334399
 20
1466.844112873079
 30
0.0
 11
5461.705449334399
 21
1166.844112873077
 31
0.0
  0
LINE
  5
1F273
330
747D
100
AcDbEntity
  8
細線
100
AcDbLine
 10
5401.897828199065
 20
1216.844112873077
 30
0.0
 11
5388.500368577513
 21
1166.844112873077
 31
0.0
  0
LINE
  5
1F274
330
747D
100
AcDbEntity
  8
細線
100
AcDbLine
 10
5301.89782819907
 20
1216.844112873077
 30
0.0
 11
5288.50036857751
 21
1166.844112873077
 31
0.0
  0
TEXT
  5
1F275
330
747D
100
AcDbEntity
  8
部品1
100
AcDbText
 10
5584.958075201829
 20
1474.750154551982
 30
0.0
 40
120.0
  1
▽G.L
  7
STYLE1
100
AcDbText
  0
LINE
  5
1F276
330
747D
100
AcDbEntity
  8
部品1
100
AcDbLine
 10
5361.705449334398
 20
1666.844112873077
 30
0.0
 11
5361.705449334398
 21
1466.844112873079
 31
0.0
  0
LINE
  5
1F277
330
747D
100
AcDbEntity
  8
細線
100
AcDbLine
 10
5288.886750289888
 20
1366.844112873077
 30
0.0
 11
5388.886750289888
 21
1466.844112873079
 31
0.0
  0
LINE
  5
1F278
330
747D
100
AcDbEntity
  8
細線
100
AcDbLine
 10
5260.602479042429
 20
1366.844112873077
 30
0.0
 11
5360.602479042426
 21
1466.844112873079
 31
0.0
  0
LINE
  5
1F279
330
747D
100
AcDbEntity
  8
細線
100
AcDbLine
 10
5388.500368577513
 20
1366.844112873077
 30
0.0
 11
5375.102908955954
 21
1316.844112873079
 31
0.0
  0
LINE
  5
1F27A
330
747D
100
AcDbEntity
  8
細線
100
AcDbLine
 10
5288.50036857751
 20
1366.844112873077
 30
0.0
 11
5275.102908955954
 21
1316.844112873079
 31
0.0
  0
LINE
  5
1F27B
330
747D
100
AcDbEntity
  8
部品1
 48
50.0
100
AcDbLine
 10
7019.539401023374
 20
966.8441128730792
 30
0.0
 11
6519.539401023374
 21
966.8441128730774
 31
0.0
  0
TEXT
  5
1F27C
330
747D
100
AcDbEntity
  8
部品1
100
AcDbText
 10
7204.102948092985
 20
1474.750154551981
 30
0.0
 40
120.0
  1
▽G.L
  7
STYLE1
100
AcDbText
  0
LINE
  5
1F27D
330
747D
100
AcDbEntity
  8
細線
  6
HIDDEN
 48
10.0
100
AcDbLine
 10
6754.266129925333
 20
966.8441128730774
 30
0.0
 11
7019.539401023374
 21
1232.117383971128
 31
0.0
  0
LINE
  5
1F27E
330
747D
100
AcDbEntity
  8
細線
  6
HIDDEN
 48
10.0
100
AcDbLine
 10
6725.981858677873
 20
966.8441128730774
 30
0.0
 11
7019.539401023374
 21
1260.401655218589
 31
0.0
  0
LINE
  5
1F27F
330
747D
100
AcDbEntity
  8
細線
  6
HIDDEN
 48
10.0
100
AcDbLine
 10
6782.550401172791
 20
966.8441128730774
 30
0.0
 11
7019.539401023374
 21
1203.833112723665
 31
0.0
  0
LINE
  5
1F280
330
747D
100
AcDbEntity
  8
Ｇ．Ｌ
100
AcDbLine
 10
6819.539401023374
 20
1466.844112873077
 30
0.0
 11
7571.635643261712
 21
1466.844112873077
 31
0.0
  0
LINE
  5
1F281
330
747D
100
AcDbEntity
  8
部品1
 48
50.0
100
AcDbLine
 10
6519.539401023374
 20
966.8441128730774
 30
0.0
 11
6519.539401023374
 21
1466.844112873077
 31
0.0
  0
LINE
  5
1F282
330
747D
100
AcDbEntity
  8
細線
  6
HIDDEN
 48
10.0
100
AcDbLine
 10
6519.539401023374
 20
1158.77577282395
 30
0.0
 11
6732.801726976608
 21
1372.038098777195
 31
0.0
  0
LINE
  5
1F283
330
747D
100
AcDbEntity
  8
細線
  6
HIDDEN
 48
10.0
100
AcDbLine
 10
6519.539401023374
 20
1187.06004407141
 30
0.0
 11
6736.01862717321
 21
1403.539270221254
 31
0.0
  0
LINE
  5
1F284
330
747D
100
AcDbEntity
  8
細線
  6
HIDDEN
 48
10.0
100
AcDbLine
 10
6519.539401023374
 20
1130.491501576485
 30
0.0
 11
6729.584826779998
 21
1340.536927333131
 31
0.0
  0
LINE
  5
1F285
330
747D
100
AcDbEntity
  8
部品1
100
AcDbLine
 10
6738.642632015306
 20
1429.234573571979
 30
0.0
 11
6709.539401023374
 21
1144.244112873077
 31
0.0
  0
LINE
  5
1F286
330
747D
100
AcDbEntity
  8
部品1
100
AcDbLine
 10
6820.436170031449
 20
1429.234573571979
 30
0.0
 11
6849.539401023374
 21
1144.244112873077
 31
0.0
  0
LINE
  5
1F287
330
747D
100
AcDbEntity
  8
部品1
100
AcDbLine
 10
6709.539401023374
 20
1144.244112873077
 30
0.0
 11
6849.539401023374
 21
1144.244112873077
 31
0.0
  0
LINE
  5
1F288
330
747D
100
AcDbEntity
  8
部品1
100
AcDbLine
 10
6709.539401023374
 20
1132.244112873077
 30
0.0
 11
6849.539401023374
 21
1132.244112873077
 31
0.0
  0
LINE
  5
1F289
330
747D
100
AcDbEntity
  8
部品1
100
AcDbLine
 10
6709.539401023374
 20
1144.244112873075
 30
0.0
 11
6709.539401023374
 21
1132.244112873077
 31
0.0
  0
LINE
  5
1F28A
330
747D
100
AcDbEntity
  8
細線
100
AcDbLine
 10
6764.539401023374
 20
1156.244112873079
 30
0.0
 11
6794.539401023374
 21
1156.244112873075
 31
0.0
  0
LINE
  5
1F28B
330
747D
100
AcDbEntity
  8
細線
100
AcDbLine
 10
6764.539401023374
 20
1162.244112873079
 30
0.0
 11
6794.539401023374
 21
1162.244112873075
 31
0.0
  0
LINE
  5
1F28C
330
747D
100
AcDbEntity
  8
細線
100
AcDbLine
 10
6764.539401023374
 20
1202.24411287308
 30
0.0
 11
6794.539401023374
 21
1202.244112873075
 31
0.0
  0
LINE
  5
1F28D
330
747D
100
AcDbEntity
  8
細線
100
AcDbLine
 10
6764.539401023374
 20
1196.24411287308
 30
0.0
 11
6794.539401023374
 21
1196.244112873075
 31
0.0
  0
LINE
  5
1F28E
330
747D
100
AcDbEntity
  8
細線
100
AcDbLine
 10
6764.539401023374
 20
1162.244112873079
 30
0.0
 11
6764.539401023374
 21
1156.244112873075
 31
0.0
  0
LINE
  5
1F28F
330
747D
100
AcDbEntity
  8
細線
100
AcDbLine
 10
6764.539401023374
 20
1202.24411287308
 30
0.0
 11
6764.539401023374
 21
1196.244112873075
 31
0.0
  0
LINE
  5
1F290
330
747D
100
AcDbEntity
  8
細線
100
AcDbLine
 10
6794.539401023374
 20
1162.244112873073
 30
0.0
 11
6794.539401023374
 21
1156.244112873073
 31
0.0
  0
LINE
  5
1F291
330
747D
100
AcDbEntity
  8
細線
100
AcDbLine
 10
6794.539401023374
 20
1202.244112873071
 30
0.0
 11
6794.539401023374
 21
1196.244112873071
 31
0.0
  0
LINE
  5
1F292
330
747D
100
AcDbEntity
  8
部品1
100
AcDbLine
 10
6849.539401023374
 20
1144.244112873077
 30
0.0
 11
6849.539401023374
 21
1132.244112873077
 31
0.0
  0
LINE
  5
1F293
330
747D
100
AcDbEntity
  8
細線
100
AcDbLine
 10
6547.994070586764
 20
1466.844112873077
 30
0.0
 11
6419.539401023374
 21
1595.29878243647
 31
0.0
  0
LINE
  5
1F294
330
747D
100
AcDbEntity
  8
細線
100
AcDbLine
 10
6731.841833695269
 20
1466.844112873077
 30
0.0
 11
6531.841833695269
 21
1666.844112873077
 31
0.0
  0
LINE
  5
1F295
330
747D
100
AcDbEntity
  8
部品1
100
AcDbLine
 10
6419.539401023374
 20
1466.844112873077
 30
0.0
 11
6419.539401023374
 21
1666.844112873077
 31
0.0
  0
LINE
  5
1F296
330
747D
100
AcDbEntity
  8
細線
100
AcDbLine
 10
6505.567663715573
 20
1466.844112873077
 30
0.0
 11
6419.539401023374
 21
1552.872375565277
 31
0.0
  0
LINE
  5
1F297
330
747D
100
AcDbEntity
  8
細線
100
AcDbLine
 10
6739.539401023375
 20
1501.572952416165
 30
0.0
 11
6574.268240566462
 21
1666.844112873077
 31
0.0
  0
LINE
  5
1F298
330
747D
100
AcDbEntity
  8
部品1
100
AcDbLine
 10
6819.539401023374
 20
1729.844112873077
 30
0.0
 11
6819.539401023378
 21
1432.489581861086
 31
0.0
  0
LINE
  5
1F299
330
747D
100
AcDbEntity
  8
部品1
100
AcDbLine
 10
6739.539401023375
 20
1730.844112873077
 30
0.0
 11
6739.539401023375
 21
1432.489581861086
 31
0.0
  0
LINE
  5
1F29A
330
747D
100
AcDbEntity
  8
部品1
100
AcDbLine
 10
6748.593460503617
 20
1438.244112873077
 30
0.0
 11
6810.485341543129
 21
1438.244112873072
 31
0.0
  0
ARC
  5
1F29B
330
747D
100
AcDbEntity
  8
部品1
100
AcDbCircle
 10
6748.593460503617
 20
1428.244112873075
 30
0.0
 40
10.0
100
AcDbArc
 50
90.0
 51
174.3157584018144
  0
LINE
  5
1F29C
330
747D
100
AcDbEntity
  8
細線
  6
HIDDEN
 48
10.0
100
AcDbLine
 10
6819.539401023374
 20
1458.775772823965
 30
0.0
 11
6827.607741072488
 21
1466.844112873077
 31
0.0
  0
LINE
  5
1F29D
330
747D
100
AcDbEntity
  8
細線
  6
HIDDEN
 48
10.0
100
AcDbLine
 10
6820.086846680261
 20
1431.038947233395
 30
0.0
 11
6855.892012319944
 21
1466.844112873079
 31
0.0
  0
ARC
  5
1F29E
330
747D
100
AcDbEntity
  8
部品1
100
AcDbCircle
 10
6810.485341543129
 20
1428.244112873071
 30
0.0
 40
10.0
100
AcDbArc
 50
5.68424159818561
 51
90.0
  0
CIRCLE
  5
1F29F
330
747D
100
AcDbEntity
  8
細線
100
AcDbCircle
 10
6779.539401023374
 20
1570.844112873079
 30
0.0
 40
6.0
  0
CIRCLE
  5
1F2A0
330
747D
100
AcDbEntity
  8
細線
100
AcDbCircle
 10
6779.539401023374
 20
1570.844112873079
 30
0.0
 40
7.0
  0
CIRCLE
  5
1F2A1
330
747D
100
AcDbEntity
  8
細線
100
AcDbCircle
 10
6779.539401023374
 20
1415.844112873077
 30
0.0
 40
16.0
  0
LINE
  5
1F2A2
330
747D
100
AcDbEntity
  8
細線
100
AcDbLine
 10
6764.539401023374
 20
1346.244112873079
 30
0.0
 11
6765.539401023374
 21
1346.244112873079
 31
0.0
  0
LINE
  5
1F2A3
330
747D
100
AcDbEntity
  8
細線
100
AcDbLine
 10
6764.539401023374
 20
1352.244112873079
 30
0.0
 11
6794.539401023374
 21
1352.244112873075
 31
0.0
  0
ARC
  5
1F2A4
330
747D
100
AcDbEntity
  8
細線
100
AcDbCircle
 10
6779.539401023374
 20
1376.244112873073
 30
0.0
 40
8.0
100
AcDbArc
 50
180.0
 51
0.0
  0
LINE
  5
1F2A5
330
747D
100
AcDbEntity
  8
細線
100
AcDbLine
 10
6764.539401023374
 20
1352.244112873079
 30
0.0
 11
6764.539401023374
 21
1346.244112873075
 31
0.0
  0
LINE
  5
1F2A6
330
747D
100
AcDbEntity
  8
細線
100
AcDbLine
 10
6764.539401023374
 20
1350.844112873072
 30
0.0
 11
6794.539401023374
 21
1350.844112873077
 31
0.0
  0
LINE
  5
1F2A7
330
747D
100
AcDbEntity
  8
細線
100
AcDbLine
 10
6771.662506648997
 20
1334.244112873068
 30
0.0
 11
6787.416295397759
 21
1334.244112873073
 31
0.0
  0
LINE
  5
1F2A8
330
747D
100
AcDbEntity
  8
細線
100
AcDbLine
 10
6765.539401023374
 20
1350.844112873072
 30
0.0
 11
6765.539401023374
 21
1346.244112873075
 31
0.0
  0
LINE
  5
1F2A9
330
747D
100
AcDbEntity
  8
細線
100
AcDbLine
 10
6765.539401023374
 20
1346.244112873073
 30
0.0
 11
6767.781936648413
 21
1337.273970372924
 31
0.0
  0
ARC
  5
1F2AA
330
747D
100
AcDbEntity
  8
細線
100
AcDbCircle
 10
6771.662506648997
 20
1338.244112873069
 30
0.0
 40
4.0
100
AcDbArc
 50
194.036243467977
 51
270.0
  0
LINE
  5
1F2AB
330
747D
100
AcDbEntity
  8
細線
100
AcDbLine
 10
6793.539401023373
 20
1350.844112873074
 30
0.0
 11
6793.539401023373
 21
1346.244112873075
 31
0.0
  0
LINE
  5
1F2AC
330
747D
100
AcDbEntity
  8
細線
100
AcDbLine
 10
6793.539401023373
 20
1346.244112873073
 30
0.0
 11
6791.296865398336
 21
1337.273970372924
 31
0.0
  0
ARC
  5
1F2AD
330
747D
100
AcDbEntity
  8
細線
100
AcDbCircle
 10
6787.416295397759
 20
1338.244112873071
 30
0.0
 40
4.0
100
AcDbArc
 50
270.0
 51
345.963756532023
  0
LINE
  5
1F2AE
330
747D
100
AcDbEntity
  8
細線
100
AcDbLine
 10
6794.539401023374
 20
1352.244112873073
 30
0.0
 11
6794.539401023374
 21
1346.244112873073
 31
0.0
  0
LINE
  5
1F2AF
330
747D
100
AcDbEntity
  8
細線
100
AcDbLine
 10
6793.539401023373
 20
1346.244112873079
 30
0.0
 11
6794.539401023374
 21
1346.244112873075
 31
0.0
  0
LINE
  5
1F2B0
330
747D
100
AcDbEntity
  8
細線
100
AcDbLine
 10
6787.539401023375
 20
1401.987706412526
 30
0.0
 11
6787.539401023375
 21
1376.244112873073
 31
0.0
  0
LINE
  5
1F2B1
330
747D
100
AcDbEntity
  8
細線
100
AcDbLine
 10
6771.539401023374
 20
1401.987706412526
 30
0.0
 11
6771.539401023374
 21
1376.244112873073
 31
0.0
  0
LINE
  5
1F2B2
330
747D
100
AcDbEntity
  8
部品1
100
AcDbLine
 10
6749.539401023374
 20
1740.844112873077
 30
0.0
 11
6809.539401023375
 21
1740.844112873077
 31
0.0
  0
ARC
  5
1F2B3
330
747D
100
AcDbEntity
  8
部品1
100
AcDbCircle
 10
6749.539401023374
 20
1730.844112873077
 30
0.0
 40
10.0
100
AcDbArc
 50
90.0
 51
180.0
  0
ARC
  5
1F2B4
330
747D
100
AcDbEntity
  8
細線
100
AcDbCircle
 10
6779.539401023374
 20
1680.844112873077
 30
0.0
 40
8.0
100
AcDbArc
 50
0.0
 51
180.0
  0
ARC
  5
1F2B5
330
747D
100
AcDbEntity
  8
細線
100
AcDbCircle
 10
6779.539401023374
 20
1640.844112873077
 30
0.0
 40
8.0
100
AcDbArc
 50
180.0
 51
0.0
  0
LINE
  5
1F2B6
330
747D
100
AcDbEntity
  8
細線
100
AcDbLine
 10
6771.539401023374
 20
1680.844112873077
 30
0.0
 11
6771.539401023374
 21
1640.844112873077
 31
0.0
  0
LINE
  5
1F2B7
330
747D
100
AcDbEntity
  8
細線
100
AcDbLine
 10
6787.539401023375
 20
1680.844112873077
 30
0.0
 11
6787.539401023375
 21
1640.844112873077
 31
0.0
  0
ARC
  5
1F2B8
330
747D
100
AcDbEntity
  8
部品1
100
AcDbCircle
 10
6809.539401023375
 20
1730.844112873077
 30
0.0
 40
10.0
100
AcDbArc
 50
0.0
 51
90.0
  0
CIRCLE
  5
1F2B9
330
747D
100
AcDbEntity
  8
部品1
100
AcDbCircle
 10
6779.539401023374
 20
1710.844112873077
 30
0.0
 40
16.0
  0
LINE
  5
1F2BA
330
747D
100
AcDbEntity
  8
部品1
 48
50.0
100
AcDbLine
 10
7019.539401023374
 20
1466.844112873077
 30
0.0
 11
7019.539401023374
 21
966.8441128730792
 31
0.0
  0
TEXT
  5
1F2BB
330
747D
100
AcDbEntity
  8
部品1
100
AcDbText
 10
6248.985060198744
 20
2504.368441602527
 30
0.0
 40
120.0
  1
地盤が土の場合
  7
STYLE2
100
AcDbText
  0
TEXT
  5
1F2BC
330
747D
100
AcDbEntity
  8
部品1
100
AcDbText
 10
10382.99774140124
 20
1474.750154551981
 30
0.0
 40
120.0
  1
▽G.L
  7
STYLE1
100
AcDbText
  0
LINE
  5
1F2BD
330
747D
100
AcDbEntity
  8
細線
 48
10.0
100
AcDbLine
 10
10403.7191963881
 20
1159.925915533793
 30
0.0
 11
10710.63739372738
 21
1466.844112873077
 31
0.0
  0
LINE
  5
1F2BE
330
747D
100
AcDbEntity
  8
細線
 48
10.0
100
AcDbLine
 10
10375.43492514063
 20
1159.925915533793
 30
0.0
 11
10682.35312247991
 21
1466.844112873077
 31
0.0
  0
LINE
  5
1F2BF
330
747D
100
AcDbEntity
  8
細線
 48
10.0
100
AcDbLine
 10
10347.15065389318
 20
1159.925915533793
 30
0.0
 11
10654.06885123246
 21
1466.844112873077
 31
0.0
  0
LINE
  5
1F2C0
330
747D
100
AcDbEntity
  8
Ｇ．Ｌ
100
AcDbLine
 10
9310.130109950749
 20
1466.844112873077
 30
0.0
 11
10755.02181195589
 21
1466.844112873077
 31
0.0
  0
LINE
  5
1F2C1
330
747D
100
AcDbEntity
  8
部品1
100
AcDbLine
 10
9822.927506749458
 20
2366.844112873076
 30
0.0
 11
9822.927506749463
 21
1860.844112873079
 31
0.0
  0
LINE
  5
1F2C2
330
747D
100
AcDbEntity
  8
部品1
100
AcDbLine
 10
9932.927506749457
 20
2366.844112873076
 30
0.0
 11
9932.927506749463
 21
1867.089581861084
 31
0.0
  0
LINE
  5
1F2C3
330
747D
100
AcDbEntity
  8
細線
 48
50.0
100
AcDbLine
 10
9387.927506749454
 20
2366.844112873076
 30
0.0
 11
9387.927506749454
 21
1866.844112873079
 31
0.0
  0
LINE
  5
1F2C4
330
747D
100
AcDbEntity
  8
細線
 48
50.0
100
AcDbLine
 10
9417.927506749455
 20
2366.844112873076
 30
0.0
 11
9417.927506749455
 21
1866.844112873079
 31
0.0
  0
LINE
  5
1F2C5
330
747D
100
AcDbEntity
  8
細線
 48
50.0
100
AcDbLine
 10
9667.927506749455
 20
2366.844112873076
 30
0.0
 11
9667.927506749455
 21
1866.844112873079
 31
0.0
  0
LINE
  5
1F2C6
330
747D
100
AcDbEntity
  8
細線
 48
50.0
100
AcDbLine
 10
9697.927506749454
 20
2366.844112873076
 30
0.0
 11
9697.927506749454
 21
1866.844112873079
 31
0.0
  0
LINE
  5
1F2C7
330
747D
100
AcDbEntity
  8
部品1
100
AcDbLine
 10
8312.594902036478
 20
2266.844112873077
 30
0.0
 11
8312.594902036481
 21
1760.844112873081
 31
0.0
  0
LINE
  5
1F2C8
330
747D
100
AcDbEntity
  8
細線
 48
50.0
100
AcDbLine
 10
8187.594902036472
 20
2266.844112873077
 30
0.0
 11
8187.594902036472
 21
1766.844112873079
 31
0.0
  0
LINE
  5
1F2C9
330
747D
100
AcDbEntity
  8
細線
 48
50.0
100
AcDbLine
 10
8157.594902036473
 20
2266.844112873077
 30
0.0
 11
8157.594902036473
 21
1766.844112873079
 31
0.0
  0
LINE
  5
1F2CA
330
747D
100
AcDbEntity
  8
細線
 48
50.0
100
AcDbLine
 10
7907.594902036473
 20
2266.844112873077
 30
0.0
 11
7907.594902036473
 21
1766.844112873079
 31
0.0
  0
LINE
  5
1F2CB
330
747D
100
AcDbEntity
  8
細線
 48
50.0
100
AcDbLine
 10
7877.594902036474
 20
2266.844112873077
 30
0.0
 11
7877.594902036474
 21
1766.844112873079
 31
0.0
  0
LINE
  5
1F2CC
330
747D
100
AcDbEntity
  8
部品1
100
AcDbLine
 10
8422.594902036477
 20
2266.844112873077
 30
0.0
 11
8422.594902036481
 21
1767.089581861084
 31
0.0
  0
LINE
  5
1F2CD
330
747D
100
AcDbEntity
  8
部品1
 48
50.0
100
AcDbLine
 10
9236.831698760175
 20
2446.083325261323
 30
0.0
 11
9236.831698760175
 21
526.0833252613228
 31
0.0
  0
LINE
  5
1F2CE
330
747D
100
AcDbEntity
  8
細線
 48
10.0
100
AcDbLine
 10
8319.730765766863
 20
1159.925915533793
 30
0.0
 11
8626.648963106136
 21
1466.844112873077
 31
0.0
  0
LINE
  5
1F2CF
330
747D
100
AcDbEntity
  8
細線
 48
10.0
100
AcDbLine
 10
8291.446494519403
 20
1159.925915533793
 30
0.0
 11
8598.364691858677
 21
1466.844112873077
 31
0.0
  0
LINE
  5
1F2D0
330
747D
100
AcDbEntity
  8
細線
 48
10.0
100
AcDbLine
 10
8348.015037014326
 20
1159.925915533793
 30
0.0
 11
8654.933234353602
 21
1466.844112873077
 31
0.0
  0
DIMENSION
  5
1F2D1
330
747D
100
AcDbEntity
  8
寸法
 48
50.0
100
AcDbDimension
  2
*D14
 10
8655.358912604885
 20
1466.844112873077
 30
0.0
 11
8555.358912604885
 21
1566.844112873079
 31
0.0
 70
    32
  1
b
 71
     5
 42
200.0000000000018
  3
INABA_S40G
100
AcDbAlignedDimension
 13
8433.145665141985
 23
1666.844112873079
 33
0.0
 14
8452.594902036473
 24
1466.844112873077
 34
0.0
 50
90.0
100
AcDbRotatedDimension
1001
ACAD
1000
DSTYLE
1002
{
1070
   174
1070
     0
1070
   272
1070
     1
1070
   288
1070
     0
1070
   341
1005
0
1002
}
  0
LINE
  5
1F2D2
330
747D
100
AcDbEntity
  8
Ｇ．Ｌ
100
AcDbLine
 10
7707.340468792883
 20
1466.844112873077
 30
0.0
 11
9171.375707557166
 21
1466.844112873077
 31
0.0
  0
LINE
  5
1F2D3
330
747D
100
AcDbEntity
  8
細線
 48
10.0
100
AcDbLine
 10
7893.07237691404
 20
1159.925915533793
 30
0.0
 11
8199.990574253311
 21
1466.844112873077
 31
0.0
  0
LINE
  5
1F2D4
330
747D
100
AcDbEntity
  8
細線
 48
10.0
100
AcDbLine
 10
7864.788105666578
 20
1159.925915533793
 30
0.0
 11
8171.706303005853
 21
1466.844112873077
 31
0.0
  0
LINE
  5
1F2D5
330
747D
100
AcDbEntity
  8
細線
 48
10.0
100
AcDbLine
 10
7921.356648161503
 20
1159.925915533793
 30
0.0
 11
8228.274845500761
 21
1466.844112873077
 31
0.0
  0
LINE
  5
1F2D6
330
747D
100
AcDbEntity
  8
部品1
100
AcDbLine
 10
7707.34046879288
 20
1666.844112873079
 30
0.0
 11
8331.793465430719
 21
1666.844112873079
 31
0.0
  0
LINE
  5
1F2D7
330
747D
100
AcDbEntity
  8
部品1
100
AcDbLine
 10
7707.34046879288
 20
1766.844112873081
 30
0.0
 11
8312.594902036478
 21
1766.844112873079
 31
0.0
  0
LINE
  5
1F2D8
330
747D
100
AcDbEntity
  8
部品1
100
AcDbLine
 10
7707.34046879288
 20
1760.844112873081
 30
0.0
 11
8341.392747127839
 21
1760.844112873081
 31
0.0
  0
LINE
  5
1F2D9
330
747D
100
AcDbEntity
  8
細線
100
AcDbLine
 10
8108.623164728671
 20
1466.844112873077
 30
0.0
 11
8022.594902036473
 21
1552.872375565277
 31
0.0
  0
LINE
  5
1F2DA
330
747D
100
AcDbEntity
  8
細線
100
AcDbLine
 10
8151.049571599864
 20
1466.844112873077
 30
0.0
 11
8022.594902036473
 21
1595.29878243647
 31
0.0
  0
LINE
  5
1F2DB
330
747D
100
AcDbEntity
  8
部品1
100
AcDbLine
 10
8022.594902036473
 20
1466.844112873077
 30
0.0
 11
8022.594902036473
 21
1666.844112873079
 31
0.0
  0
LINE
  5
1F2DC
330
747D
100
AcDbEntity
  8
細線
 48
10.0
100
AcDbLine
 10
7707.34046879288
 20
1429.136667512943
 30
0.0
 11
7745.047914153018
 21
1466.844112873077
 31
0.0
  0
LINE
  5
1F2DD
330
747D
100
AcDbEntity
  8
細線
 48
10.0
100
AcDbLine
 10
7707.340468792883
 20
1372.568125018028
 30
0.0
 11
7801.616456647922
 21
1466.844112873077
 31
0.0
  0
LINE
  5
1F2DE
330
747D
100
AcDbEntity
  8
細線
 48
10.0
100
AcDbLine
 10
7707.340468792883
 20
1400.852396265487
 30
0.0
 11
7773.332185400469
 21
1466.844112873077
 31
0.0
  0
LINE
  5
1F2DF
330
747D
100
AcDbEntity
  8
細線
100
AcDbLine
 10
8313.549502799755
 20
1488.191944781692
 30
0.0
 11
8134.897334708368
 21
1666.844112873077
 31
0.0
  0
LINE
  5
1F2E0
330
747D
100
AcDbEntity
  8
細線
100
AcDbLine
 10
8317.480640393393
 20
1526.687214059249
 30
0.0
 11
8177.323741579561
 21
1666.844112873077
 31
0.0
  0
LINE
  5
1F2E1
330
747D
100
AcDbEntity
  8
部品1
100
AcDbLine
 10
8423.491671044549
 20
1763.834573571979
 30
0.0
 11
8452.594902036473
 21
1478.844112873077
 31
0.0
  0
LINE
  5
1F2E2
330
747D
100
AcDbEntity
  8
部品1
100
AcDbLine
 10
8341.698133028407
 20
1763.834573571979
 30
0.0
 11
8312.594902036472
 21
1478.844112873077
 31
0.0
  0
LINE
  5
1F2E3
330
747D
100
AcDbEntity
  8
部品1
100
AcDbLine
 10
8312.594902036472
 20
1478.844112873077
 30
0.0
 11
8452.594902036473
 21
1478.844112873077
 31
0.0
  0
LINE
  5
1F2E4
330
747D
100
AcDbEntity
  8
部品1
100
AcDbLine
 10
8312.594902036472
 20
1466.844112873077
 30
0.0
 11
8452.594902036473
 21
1466.844112873077
 31
0.0
  0
LINE
  5
1F2E5
330
747D
100
AcDbEntity
  8
部品1
100
AcDbLine
 10
8312.594902036472
 20
1478.844112873077
 30
0.0
 11
8312.594902036472
 21
1466.844112873077
 31
0.0
  0
LINE
  5
1F2E6
330
747D
100
AcDbEntity
  8
部品1
100
AcDbLine
 10
8367.594902036474
 20
1533.24411287308
 30
0.0
 11
8397.594902036473
 21
1533.24411287308
 31
0.0
  0
LINE
  5
1F2E7
330
747D
100
AcDbEntity
  8
部品1
100
AcDbLine
 10
8367.594902036474
 20
1539.24411287308
 30
0.0
 11
8397.594902036473
 21
1539.24411287308
 31
0.0
  0
LINE
  5
1F2E8
330
747D
100
AcDbEntity
  8
部品1
100
AcDbLine
 10
8367.594902036474
 20
1499.24411287308
 30
0.0
 11
8372.594902036473
 21
1499.24411287308
 31
0.0
  0
LINE
  5
1F2E9
330
747D
100
AcDbEntity
  8
部品1
100
AcDbLine
 10
8367.594902036474
 20
1539.24411287308
 30
0.0
 11
8367.594902036474
 21
1533.24411287308
 31
0.0
  0
LINE
  5
1F2EA
330
747D
100
AcDbEntity
  8
部品1
100
AcDbLine
 10
8367.594902036474
 20
1499.24411287308
 30
0.0
 11
8367.594902036474
 21
1497.844112873079
 31
0.0
  0
LINE
  5
1F2EB
330
747D
100
AcDbEntity
  8
部品1
100
AcDbLine
 10
8452.594902036473
 20
1478.844112873077
 30
0.0
 11
8452.594902036473
 21
1466.844112873077
 31
0.0
  0
LINE
  5
1F2EC
330
747D
100
AcDbEntity
  8
部品1
100
AcDbLine
 10
8397.594902036473
 20
1539.244112873077
 30
0.0
 11
8397.594902036473
 21
1533.244112873077
 31
0.0
  0
LINE
  5
1F2ED
330
747D
100
AcDbEntity
  8
部品1
100
AcDbLine
 10
8397.594902036473
 20
1499.244112873075
 30
0.0
 11
8397.594902036473
 21
1497.844112873079
 31
0.0
  0
LINE
  5
1F2EE
330
747D
100
AcDbEntity
  8
部品1
100
AcDbLine
 10
8352.594902036473
 20
1481.844112873077
 30
0.0
 11
8412.594902036472
 21
1481.844112873083
 31
0.0
  0
LINE
  5
1F2EF
330
747D
100
AcDbEntity
  8
部品1
100
AcDbLine
 10
8372.594902036473
 20
1518.844112873079
 30
0.0
 11
8392.594902036474
 21
1518.844112873079
 31
0.0
  0
LINE
  5
1F2F0
330
747D
100
AcDbEntity
  8
部品1
100
AcDbLine
 10
8372.594902036473
 20
1481.844112873077
 30
0.0
 11
8372.594902036473
 21
1518.844112873079
 31
0.0
  0
LINE
  5
1F2F1
330
747D
100
AcDbEntity
  8
部品1
100
AcDbLine
 10
8392.594902036474
 20
1481.844112873077
 30
0.0
 11
8392.594902036474
 21
1518.844112873079
 31
0.0
  0
LINE
  5
1F2F2
330
747D
100
AcDbEntity
  8
部品1
100
AcDbLine
 10
8365.594902036473
 20
1497.844112873079
 30
0.0
 11
8399.594902036474
 21
1497.844112873079
 31
0.0
  0
LINE
  5
1F2F3
330
747D
100
AcDbEntity
  8
部品1
100
AcDbLine
 10
8362.594902036473
 20
1481.844112873077
 30
0.0
 11
8362.594902036473
 21
1494.844112873079
 31
0.0
  0
LINE
  5
1F2F4
330
747D
100
AcDbEntity
  8
部品1
100
AcDbLine
 10
8402.594902036474
 20
1481.844112873083
 30
0.0
 11
8402.594902036474
 21
1494.844112873079
 31
0.0
  0
LINE
  5
1F2F5
330
747D
100
AcDbEntity
  8
部品1
100
AcDbLine
 10
8365.594902036473
 20
1497.844112873079
 30
0.0
 11
8362.594902036473
 21
1494.844112873079
 31
0.0
  0
LINE
  5
1F2F6
330
747D
100
AcDbEntity
  8
部品1
100
AcDbLine
 10
8399.594902036474
 20
1497.844112873079
 30
0.0
 11
8402.594902036474
 21
1494.844112873079
 31
0.0
  0
LINE
  5
1F2F7
330
747D
100
AcDbEntity
  8
部品1
100
AcDbLine
 10
8352.594902036473
 20
1478.844112873077
 30
0.0
 11
8352.594902036473
 21
1481.844112873077
 31
0.0
  0
LINE
  5
1F2F8
330
747D
100
AcDbEntity
  8
部品1
100
AcDbLine
 10
8412.594902036472
 20
1478.844112873077
 30
0.0
 11
8412.594902036472
 21
1481.844112873086
 31
0.0
  0
LINE
  5
1F2F9
330
747D
100
AcDbEntity
  8
部品1
100
AcDbLine
 10
8392.594902036474
 20
1499.24411287308
 30
0.0
 11
8397.594902036473
 21
1499.24411287308
 31
0.0
  0
LINE
  5
1F2FA
330
747D
100
AcDbEntity
  8
部品1
100
AcDbLine
 10
8362.594902036473
 20
1494.844112873079
 30
0.0
 11
8402.594902036474
 21
1494.844112873079
 31
0.0
  0
ARC
  5
1F2FB
330
747D
100
AcDbEntity
  8
部品1
100
AcDbCircle
 10
8367.594902036474
 20
1490.329358082761
 30
0.0
 40
6.736691384996243
100
AcDbArc
 50
42.08048849856768
 51
137.9195115014323
  0
ARC
  5
1F2FC
330
747D
100
AcDbEntity
  8
部品1
100
AcDbCircle
 10
8397.594902036473
 20
1490.329358082761
 30
0.0
 40
6.736691384996243
100
AcDbArc
 50
42.08048849856768
 51
137.9195115014323
  0
ARC
  5
1F2FD
330
747D
100
AcDbEntity
  8
部品1
100
AcDbCircle
 10
8382.594902036473
 20
1473.75547965226
 30
0.0
 40
23.33946124318486
100
AcDbArc
 50
64.63020194521305
 51
115.3697980547869
  0
LINE
  5
1F2FE
330
747D
100
AcDbEntity
  8
部品1
100
AcDbLine
 10
8375.594902036473
 20
1531.097008896739
 30
0.0
 11
8389.594902036474
 21
1531.097008896739
 31
0.0
  0
LINE
  5
1F2FF
330
747D
100
AcDbEntity
  8
部品1
100
AcDbLine
 10
8377.594902036474
 20
1518.844112873079
 30
0.0
 11
8377.594902036474
 21
1527.097008896739
 31
0.0
  0
LINE
  5
1F300
330
747D
100
AcDbEntity
  8
部品1
100
AcDbLine
 10
8387.594902036473
 20
1518.844112873079
 30
0.0
 11
8387.594902036473
 21
1527.097008896739
 31
0.0
  0
LINE
  5
1F301
330
747D
100
AcDbEntity
  8
部品1
100
AcDbLine
 10
8375.594902036473
 20
1527.097008896739
 30
0.0
 11
8375.594902036473
 21
1531.097008896739
 31
0.0
  0
LINE
  5
1F302
330
747D
100
AcDbEntity
  8
部品1
100
AcDbLine
 10
8389.594902036474
 20
1527.097008896739
 30
0.0
 11
8389.594902036474
 21
1531.097008896739
 31
0.0
  0
LINE
  5
1F303
330
747D
100
AcDbEntity
  8
部品1
100
AcDbLine
 10
8375.594902036473
 20
1527.097008896739
 30
0.0
 11
8389.594902036474
 21
1527.097008896739
 31
0.0
  0
LINE
  5
1F304
330
747D
100
AcDbEntity
  8
部品1
100
AcDbLine
 10
8372.594902036473
 20
1466.844112873077
 30
0.0
 11
8372.594902036473
 21
1431.444112873078
 31
0.0
  0
LINE
  5
1F305
330
747D
100
AcDbEntity
  8
部品1
100
AcDbLine
 10
8392.594902036474
 20
1466.844112873077
 30
0.0
 11
8392.594902036474
 21
1431.444112873078
 31
0.0
  0
LINE
  5
1F306
330
747D
100
AcDbEntity
  8
部品1
100
AcDbLine
 10
8380.684401402936
 20
1431.444112873078
 30
0.0
 11
8384.505402670011
 21
1431.444112873078
 31
0.0
  0
LINE
  5
1F307
330
747D
100
AcDbEntity
  8
部品1
100
AcDbLine
 10
8372.594902036473
 20
1431.444112873078
 30
0.0
 11
8366.594902036473
 21
1391.444112873078
 31
0.0
  0
LINE
  5
1F308
330
747D
100
AcDbEntity
  8
部品1
100
AcDbLine
 10
8398.594902036473
 20
1391.444112873078
 30
0.0
 11
8392.594902036474
 21
1431.444112873078
 31
0.0
  0
LINE
  5
1F309
330
747D
100
AcDbEntity
  8
部品1
100
AcDbLine
 10
8380.684401402936
 20
1431.444112873078
 30
0.0
 11
8374.506392859419
 21
1390.257389249638
 31
0.0
  0
LINE
  5
1F30A
330
747D
100
AcDbEntity
  8
部品1
100
AcDbLine
 10
8390.683411213528
 20
1390.257389249638
 30
0.0
 11
8384.505402670011
 21
1431.444112873078
 31
0.0
  0
LINE
  5
1F30B
330
747D
100
AcDbEntity
  8
部品1
100
AcDbLine
 10
8366.594902036473
 20
1391.444112873078
 30
0.0
 11
8374.506392859419
 21
1390.257389249638
 31
0.0
  0
LINE
  5
1F30C
330
747D
100
AcDbEntity
  8
部品1
100
AcDbLine
 10
8390.683411213528
 20
1390.257389249638
 30
0.0
 11
8398.594902036473
 21
1391.444112873078
 31
0.0
  0
LINE
  5
1F30D
330
747D
100
AcDbEntity
  8
部品1
100
AcDbLine
 10
8367.484944754057
 20
1397.377730990287
 30
0.0
 11
8375.396435577002
 21
1396.191007366844
 31
0.0
  0
LINE
  5
1F30E
330
747D
100
AcDbEntity
  8
部品1
100
AcDbLine
 10
8368.374987471632
 20
1403.311349107496
 30
0.0
 11
8376.286478294579
 21
1402.124625484053
 31
0.0
  0
LINE
  5
1F30F
330
747D
100
AcDbEntity
  8
部品1
100
AcDbLine
 10
8369.265030189216
 20
1409.244967224704
 30
0.0
 11
8377.176521012161
 21
1408.058243601263
 31
0.0
  0
LINE
  5
1F310
330
747D
100
AcDbEntity
  8
部品1
100
AcDbLine
 10
8370.155072906799
 20
1415.178585341915
 30
0.0
 11
8378.066563729744
 21
1413.991861718476
 31
0.0
  0
LINE
  5
1F311
330
747D
100
AcDbEntity
  8
部品1
100
AcDbLine
 10
8371.045115624374
 20
1421.112203459124
 30
0.0
 11
8378.956606447321
 21
1419.925479835681
 31
0.0
  0
LINE
  5
1F312
330
747D
100
AcDbEntity
  8
部品1
100
AcDbLine
 10
8371.935158341958
 20
1427.045821576333
 30
0.0
 11
8379.846649164903
 21
1425.859097952891
 31
0.0
  0
LINE
  5
1F313
330
747D
100
AcDbEntity
  8
部品1
100
AcDbLine
 10
8389.793368495944
 20
1396.191007366844
 30
0.0
 11
8397.704859318897
 21
1397.377730990287
 31
0.0
  0
LINE
  5
1F314
330
747D
100
AcDbEntity
  8
部品1
100
AcDbLine
 10
8388.903325778368
 20
1402.124625484053
 30
0.0
 11
8396.814816601315
 21
1403.311349107496
 31
0.0
  0
LINE
  5
1F315
330
747D
100
AcDbEntity
  8
部品1
100
AcDbLine
 10
8388.013283060784
 20
1408.058243601263
 30
0.0
 11
8395.924773883733
 21
1409.244967224704
 31
0.0
  0
LINE
  5
1F316
330
747D
100
AcDbEntity
  8
部品1
100
AcDbLine
 10
8387.12324034321
 20
1413.991861718476
 30
0.0
 11
8395.034731166155
 21
1415.178585341915
 31
0.0
  0
LINE
  5
1F317
330
747D
100
AcDbEntity
  8
部品1
100
AcDbLine
 10
8386.233197625626
 20
1419.925479835681
 30
0.0
 11
8394.144688448573
 21
1421.112203459124
 31
0.0
  0
LINE
  5
1F318
330
747D
100
AcDbEntity
  8
部品1
100
AcDbLine
 10
8385.343154908044
 20
1425.859097952891
 30
0.0
 11
8393.254645730989
 21
1427.045821576333
 31
0.0
  0
ARC
  5
1F319
330
747D
100
AcDbEntity
  8
部品1
100
AcDbCircle
 10
8351.648961516717
 20
1762.844112873079
 30
0.0
 40
10.0
100
AcDbArc
 50
90.0
 51
174.3157584018144
  0
CIRCLE
  5
1F31A
330
747D
100
AcDbEntity
  8
部品1
100
AcDbCircle
 10
8382.594902036473
 20
1710.844112873077
 30
0.0
 40
16.0
  0
LINE
  5
1F31B
330
747D
100
AcDbEntity
  8
細線
100
AcDbLine
 10
8367.594902036474
 20
1686.844112873079
 30
0.0
 11
8397.594902036473
 21
1686.844112873079
 31
0.0
  0
LINE
  5
1F31C
330
747D
100
AcDbEntity
  8
細線
100
AcDbLine
 10
8374.594902036474
 20
1750.844112873075
 30
0.0
 11
8374.594902036474
 21
1724.70051933363
 31
0.0
  0
LINE
  5
1F31D
330
747D
100
AcDbEntity
  8
細線
100
AcDbLine
 10
8390.594902036474
 20
1750.844112873075
 30
0.0
 11
8390.594902036474
 21
1724.70051933363
 31
0.0
  0
ARC
  5
1F31E
330
747D
100
AcDbEntity
  8
細線
100
AcDbCircle
 10
8382.594902036473
 20
1750.844112873075
 30
0.0
 40
8.0
100
AcDbArc
 50
0.0
 51
180.0
  0
LINE
  5
1F31F
330
747D
100
AcDbEntity
  8
部品1
100
AcDbLine
 10
8351.648961516717
 20
1772.844112873077
 30
0.0
 11
8413.540842556228
 21
1772.844112873076
 31
0.0
  0
ARC
  5
1F320
330
747D
100
AcDbEntity
  8
部品1
100
AcDbCircle
 10
8413.540842556228
 20
1762.844112873075
 30
0.0
 40
10.0
100
AcDbArc
 50
5.68424159818561
 51
90.0
  0
LINE
  5
1F321
330
747D
100
AcDbEntity
  8
細線
100
AcDbLine
 10
8367.594902036474
 20
1680.844112873079
 30
0.0
 11
8397.594902036473
 21
1680.844112873079
 31
0.0
  0
LINE
  5
1F322
330
747D
100
AcDbEntity
  8
細線
100
AcDbLine
 10
8367.594902036474
 20
1686.844112873079
 30
0.0
 11
8367.594902036474
 21
1680.844112873079
 31
0.0
  0
LINE
  5
1F323
330
747D
100
AcDbEntity
  8
細線
100
AcDbLine
 10
8397.594902036473
 20
1686.844112873074
 30
0.0
 11
8397.594902036473
 21
1680.844112873074
 31
0.0
  0
LINE
  5
1F324
330
747D
100
AcDbEntity
  8
細線
 48
10.0
100
AcDbLine
 10
8774.673425867144
 20
1159.925915533793
 30
0.0
 11
9081.591623206421
 21
1466.844112873077
 31
0.0
  0
LINE
  5
1F325
330
747D
100
AcDbEntity
  8
細線
 48
10.0
100
AcDbLine
 10
8746.389154619681
 20
1159.925915533793
 30
0.0
 11
9053.307351958954
 21
1466.844112873077
 31
0.0
  0
LINE
  5
1F326
330
747D
100
AcDbEntity
  8
細線
 48
10.0
100
AcDbLine
 10
8718.104883372221
 20
1159.925915533793
 30
0.0
 11
9025.023080711495
 21
1466.844112873077
 31
0.0
  0
TEXT
  5
1F327
330
747D
100
AcDbEntity
  8
部品1
100
AcDbText
 10
8797.084105304849
 20
1474.750154551981
 30
0.0
 40
120.0
  1
▽G.L
  7
STYLE1
100
AcDbText
  0
LINE
  5
1F328
330
747D
100
AcDbEntity
  8
部品1
100
AcDbLine
 10
9310.130109950749
 20
1766.844112873078
 30
0.0
 11
9852.816414839791
 21
1766.844112873079
 31
0.0
  0
LINE
  5
1F329
330
747D
100
AcDbEntity
  8
部品1
100
AcDbLine
 10
9310.130109950749
 20
1866.844112873079
 30
0.0
 11
9822.927506749458
 21
1866.844112873079
 31
0.0
  0
LINE
  5
1F32A
330
747D
100
AcDbEntity
  8
部品1
100
AcDbLine
 10
9310.130109950749
 20
1860.844112873079
 30
0.0
 11
9852.927506749459
 21
1860.844112873079
 31
0.0
  0
LINE
  5
1F32B
330
747D
100
AcDbEntity
  8
細線
100
AcDbLine
 10
9823.882107512737
 20
1488.191944781692
 30
0.0
 11
9545.22993942135
 21
1766.844112873077
 31
0.0
  0
LINE
  5
1F32C
330
747D
100
AcDbEntity
  8
細線
100
AcDbLine
 10
9827.813245106375
 20
1526.687214059249
 30
0.0
 11
9587.656346292543
 21
1766.844112873077
 31
0.0
  0
LINE
  5
1F32D
330
747D
100
AcDbEntity
  8
細線
 48
10.0
100
AcDbLine
 10
9493.833876187537
 20
1159.925915533793
 30
0.0
 11
9800.75207352681
 21
1466.844112873079
 31
0.0
  0
LINE
  5
1F32E
330
747D
100
AcDbEntity
  8
細線
 48
10.0
100
AcDbLine
 10
9522.118147434996
 20
1159.925915533793
 30
0.0
 11
9829.036344774266
 21
1466.844112873077
 31
0.0
  0
LINE
  5
1F32F
330
747D
100
AcDbEntity
  8
細線
 48
10.0
100
AcDbLine
 10
9550.402418682459
 20
1159.925915533793
 30
0.0
 11
9857.320616021718
 21
1466.844112873077
 31
0.0
  0
LINE
  5
1F330
330
747D
100
AcDbEntity
  8
細線
 48
10.0
100
AcDbLine
 10
9310.130109950746
 20
1346.311995654936
 30
0.0
 11
9430.662227168879
 21
1466.844112873077
 31
0.0
  0
LINE
  5
1F331
330
747D
100
AcDbEntity
  8
細線
 48
10.0
100
AcDbLine
 10
9310.130109950749
 20
1374.596266902395
 30
0.0
 11
9402.377955921426
 21
1466.844112873077
 31
0.0
  0
LINE
  5
1F332
330
747D
100
AcDbEntity
  8
細線
 48
10.0
100
AcDbLine
 10
9310.130109950749
 20
1402.880538149849
 30
0.0
 11
9374.093684673972
 21
1466.844112873077
 31
0.0
  0
LINE
  5
1F333
330
747D
100
AcDbEntity
  8
部品1
100
AcDbLine
 10
9532.927506749455
 20
1466.844112873074
 30
0.0
 11
9532.927506749455
 21
1766.844112873077
 31
0.0
  0
LINE
  5
1F334
330
747D
100
AcDbEntity
  8
細線
100
AcDbLine
 10
9661.382176312846
 20
1466.844112873077
 30
0.0
 11
9532.927506749455
 21
1595.29878243647
 31
0.0
  0
LINE
  5
1F335
330
747D
100
AcDbEntity
  8
細線
100
AcDbLine
 10
9618.955769441653
 20
1466.844112873077
 30
0.0
 11
9532.927506749455
 21
1552.872375565277
 31
0.0
  0
LINE
  5
1F336
330
747D
100
AcDbEntity
  8
細線
 48
10.0
100
AcDbLine
 10
9977.060807535279
 20
1159.925915533793
 30
0.0
 11
10283.97900487456
 21
1466.844112873079
 31
0.0
  0
LINE
  5
1F337
330
747D
100
AcDbEntity
  8
細線
 48
10.0
100
AcDbLine
 10
9948.776536287818
 20
1159.925915533793
 30
0.0
 11
10255.69473362709
 21
1466.844112873077
 31
0.0
  0
LINE
  5
1F338
330
747D
100
AcDbEntity
  8
細線
 48
10.0
100
AcDbLine
 10
9920.492265040358
 20
1159.925915533793
 30
0.0
 11
10227.41046237963
 21
1466.844112873077
 31
0.0
  0
DIMENSION
  5
1F339
330
747D
100
AcDbEntity
  8
寸法
 48
50.0
100
AcDbDimension
  2
*D15
 10
10135.67415237624
 20
1466.844112873077
 30
0.0
 11
10035.67415237624
 21
1616.844112873079
 31
0.0
 70
    32
  1
c
 71
     5
 42
300.0
  3
INABA_S40G
100
AcDbAlignedDimension
 13
9933.038598659123
 23
1766.844112873077
 33
0.0
 14
9962.927506749455
 24
1466.844112873077
 34
0.0
 50
90.0
100
AcDbRotatedDimension
1001
ACAD
1000
DSTYLE
1002
{
1070
   174
1070
     0
1070
   272
1070
     1
1070
   288
1070
     0
1070
   341
1005
0
1002
}
  0
LINE
  5
1F33A
330
747D
100
AcDbEntity
  8
部品1
100
AcDbLine
 10
9852.030737741387
 20
1763.834573571978
 30
0.0
 11
9822.927506749454
 21
1478.844112873077
 31
0.0
  0
LINE
  5
1F33B
330
747D
100
AcDbEntity
  8
部品1
100
AcDbLine
 10
9933.824275757526
 20
1763.834573571978
 30
0.0
 11
9962.927506749455
 21
1478.844112873077
 31
0.0
  0
LINE
  5
1F33C
330
747D
100
AcDbEntity
  8
部品1
100
AcDbLine
 10
9822.927506749454
 20
1478.844112873077
 30
0.0
 11
9962.927506749455
 21
1478.844112873077
 31
0.0
  0
LINE
  5
1F33D
330
747D
100
AcDbEntity
  8
部品1
100
AcDbLine
 10
9822.927506749454
 20
1466.844112873077
 30
0.0
 11
9962.927506749455
 21
1466.844112873077
 31
0.0
  0
LINE
  5
1F33E
330
747D
100
AcDbEntity
  8
部品1
100
AcDbLine
 10
9901.016015926508
 20
1390.257389249637
 30
0.0
 11
9894.838007382993
 21
1431.444112873076
 31
0.0
  0
LINE
  5
1F33F
330
747D
100
AcDbEntity
  8
部品1
100
AcDbLine
 10
9891.017006115918
 20
1431.444112873076
 30
0.0
 11
9884.838997572401
 21
1390.257389249637
 31
0.0
  0
LINE
  5
1F340
330
747D
100
AcDbEntity
  8
部品1
100
AcDbLine
 10
9908.927506749456
 20
1391.444112873076
 30
0.0
 11
9902.927506749456
 21
1431.444112873076
 31
0.0
  0
LINE
  5
1F341
330
747D
100
AcDbEntity
  8
部品1
100
AcDbLine
 10
9882.927506749455
 20
1431.444112873076
 30
0.0
 11
9876.927506749455
 21
1391.444112873076
 31
0.0
  0
LINE
  5
1F342
330
747D
100
AcDbEntity
  8
部品1
100
AcDbLine
 10
9899.23593049135
 20
1402.124625484051
 30
0.0
 11
9907.147421314297
 21
1403.311349107494
 31
0.0
  0
LINE
  5
1F343
330
747D
100
AcDbEntity
  8
部品1
100
AcDbLine
 10
9900.125973208925
 20
1396.191007366844
 30
0.0
 11
9908.037464031876
 21
1397.377730990287
 31
0.0
  0
LINE
  5
1F344
330
747D
100
AcDbEntity
  8
部品1
100
AcDbLine
 10
9878.707592184614
 20
1403.311349107494
 30
0.0
 11
9886.619083007559
 21
1402.124625484051
 31
0.0
  0
LINE
  5
1F345
330
747D
100
AcDbEntity
  8
部品1
100
AcDbLine
 10
9877.817549467039
 20
1397.377730990287
 30
0.0
 11
9885.729040289984
 21
1396.191007366844
 31
0.0
  0
LINE
  5
1F346
330
747D
100
AcDbEntity
  8
部品1
100
AcDbLine
 10
9901.016015926508
 20
1390.257389249637
 30
0.0
 11
9908.927506749456
 21
1391.444112873076
 31
0.0
  0
LINE
  5
1F347
330
747D
100
AcDbEntity
  8
部品1
100
AcDbLine
 10
9876.927506749455
 20
1391.444112873076
 30
0.0
 11
9884.838997572401
 21
1390.257389249637
 31
0.0
  0
LINE
  5
1F348
330
747D
100
AcDbEntity
  8
部品1
100
AcDbLine
 10
9822.927506749454
 20
1478.844112873077
 30
0.0
 11
9822.927506749454
 21
1466.844112873077
 31
0.0
  0
LINE
  5
1F349
330
747D
100
AcDbEntity
  8
部品1
100
AcDbLine
 10
9877.927506749456
 20
1533.244112873079
 30
0.0
 11
9907.927506749455
 21
1533.244112873079
 31
0.0
  0
LINE
  5
1F34A
330
747D
100
AcDbEntity
  8
部品1
100
AcDbLine
 10
9877.927506749456
 20
1539.244112873079
 30
0.0
 11
9907.927506749455
 21
1539.244112873079
 31
0.0
  0
LINE
  5
1F34B
330
747D
100
AcDbEntity
  8
部品1
100
AcDbLine
 10
9877.927506749456
 20
1539.244112873079
 30
0.0
 11
9877.927506749456
 21
1533.244112873079
 31
0.0
  0
LINE
  5
1F34C
330
747D
100
AcDbEntity
  8
部品1
100
AcDbLine
 10
9907.927506749455
 20
1539.244112873075
 30
0.0
 11
9907.927506749455
 21
1533.244112873075
 31
0.0
  0
LINE
  5
1F34D
330
747D
100
AcDbEntity
  8
部品1
100
AcDbLine
 10
9877.927506749456
 20
1499.244112873079
 30
0.0
 11
9882.927506749455
 21
1499.244112873079
 31
0.0
  0
LINE
  5
1F34E
330
747D
100
AcDbEntity
  8
部品1
100
AcDbLine
 10
9877.927506749456
 20
1499.244112873079
 30
0.0
 11
9877.927506749456
 21
1497.844112873074
 31
0.0
  0
LINE
  5
1F34F
330
747D
100
AcDbEntity
  8
部品1
100
AcDbLine
 10
9907.927506749455
 20
1499.244112873075
 30
0.0
 11
9907.927506749455
 21
1497.844112873077
 31
0.0
  0
LINE
  5
1F350
330
747D
100
AcDbEntity
  8
部品1
100
AcDbLine
 10
9877.927506749456
 20
1497.844112873077
 30
0.0
 11
9907.927506749455
 21
1497.844112873077
 31
0.0
  0
LINE
  5
1F351
330
747D
100
AcDbEntity
  8
部品1
100
AcDbLine
 10
9899.927506749456
 20
1527.097008896737
 30
0.0
 11
9899.927506749456
 21
1531.097008896737
 31
0.0
  0
LINE
  5
1F352
330
747D
100
AcDbEntity
  8
部品1
100
AcDbLine
 10
9885.927506749455
 20
1527.097008896737
 30
0.0
 11
9885.927506749455
 21
1531.097008896737
 31
0.0
  0
LINE
  5
1F353
330
747D
100
AcDbEntity
  8
部品1
100
AcDbLine
 10
9895.675759621026
 20
1425.859097952889
 30
0.0
 11
9903.587250443971
 21
1427.045821576332
 31
0.0
  0
LINE
  5
1F354
330
747D
100
AcDbEntity
  8
部品1
100
AcDbLine
 10
9896.565802338608
 20
1419.925479835681
 30
0.0
 11
9904.477293161555
 21
1421.112203459124
 31
0.0
  0
LINE
  5
1F355
330
747D
100
AcDbEntity
  8
部品1
100
AcDbLine
 10
9897.455845056192
 20
1413.991861718474
 30
0.0
 11
9905.367335879137
 21
1415.178585341913
 31
0.0
  0
LINE
  5
1F356
330
747D
100
AcDbEntity
  8
部品1
100
AcDbLine
 10
9898.345887773768
 20
1408.058243601263
 30
0.0
 11
9906.257378596713
 21
1409.244967224702
 31
0.0
  0
LINE
  5
1F357
330
747D
100
AcDbEntity
  8
部品1
100
AcDbLine
 10
9882.26776305494
 20
1427.045821576332
 30
0.0
 11
9890.179253877885
 21
1425.859097952889
 31
0.0
  0
LINE
  5
1F358
330
747D
100
AcDbEntity
  8
部品1
100
AcDbLine
 10
9881.377720337356
 20
1421.112203459124
 30
0.0
 11
9889.289211160303
 21
1419.925479835681
 31
0.0
  0
LINE
  5
1F359
330
747D
100
AcDbEntity
  8
部品1
100
AcDbLine
 10
9880.487677619781
 20
1415.178585341913
 30
0.0
 11
9888.399168442722
 21
1413.991861718474
 31
0.0
  0
LINE
  5
1F35A
330
747D
100
AcDbEntity
  8
部品1
100
AcDbLine
 10
9879.597634902197
 20
1409.244967224702
 30
0.0
 11
9887.509125725143
 21
1408.058243601263
 31
0.0
  0
LINE
  5
1F35B
330
747D
100
AcDbEntity
  8
部品1
100
AcDbLine
 10
9891.017006115918
 20
1431.444112873076
 30
0.0
 11
9894.838007382993
 21
1431.444112873076
 31
0.0
  0
LINE
  5
1F35C
330
747D
100
AcDbEntity
  8
部品1
100
AcDbLine
 10
9902.927506749456
 20
1466.844112873077
 30
0.0
 11
9902.927506749456
 21
1431.444112873076
 31
0.0
  0
LINE
  5
1F35D
330
747D
100
AcDbEntity
  8
部品1
100
AcDbLine
 10
9882.927506749455
 20
1466.844112873077
 30
0.0
 11
9882.927506749455
 21
1431.444112873076
 31
0.0
  0
LINE
  5
1F35E
330
747D
100
AcDbEntity
  8
部品1
100
AcDbLine
 10
9897.927506749454
 20
1518.844112873077
 30
0.0
 11
9897.927506749454
 21
1527.097008896737
 31
0.0
  0
LINE
  5
1F35F
330
747D
100
AcDbEntity
  8
部品1
100
AcDbLine
 10
9887.927506749456
 20
1518.844112873077
 30
0.0
 11
9887.927506749456
 21
1527.097008896737
 31
0.0
  0
LINE
  5
1F360
330
747D
100
AcDbEntity
  8
部品1
100
AcDbLine
 10
9885.927506749455
 20
1527.097008896737
 30
0.0
 11
9899.927506749456
 21
1527.097008896737
 31
0.0
  0
ARC
  5
1F361
330
747D
100
AcDbEntity
  8
部品1
100
AcDbCircle
 10
9892.927506749455
 20
1473.75547965226
 30
0.0
 40
23.33946124318486
100
AcDbArc
 50
64.63020194521305
 51
115.3697980547869
  0
ARC
  5
1F362
330
747D
100
AcDbEntity
  8
部品1
100
AcDbCircle
 10
9907.927506749455
 20
1490.329358082759
 30
0.0
 40
6.736691384996243
100
AcDbArc
 50
42.08048849856768
 51
137.9195115014323
  0
ARC
  5
1F363
330
747D
100
AcDbEntity
  8
部品1
100
AcDbCircle
 10
9877.927506749456
 20
1490.329358082759
 30
0.0
 40
6.736691384996243
100
AcDbArc
 50
42.08048849856768
 51
137.9195115014323
  0
LINE
  5
1F364
330
747D
100
AcDbEntity
  8
部品1
100
AcDbLine
 10
9872.927506749455
 20
1494.844112873077
 30
0.0
 11
9912.927506749454
 21
1494.844112873077
 31
0.0
  0
LINE
  5
1F365
330
747D
100
AcDbEntity
  8
部品1
100
AcDbLine
 10
9902.927506749456
 20
1499.244112873079
 30
0.0
 11
9907.927506749455
 21
1499.244112873079
 31
0.0
  0
LINE
  5
1F366
330
747D
100
AcDbEntity
  8
部品1
100
AcDbLine
 10
9877.927506749456
 20
1499.244112873079
 30
0.0
 11
9882.927506749455
 21
1499.244112873079
 31
0.0
  0
LINE
  5
1F367
330
747D
100
AcDbEntity
  8
部品1
100
AcDbLine
 10
9912.927506749454
 20
1481.844112873081
 30
0.0
 11
9912.927506749454
 21
1494.844112873077
 31
0.0
  0
LINE
  5
1F368
330
747D
100
AcDbEntity
  8
部品1
100
AcDbLine
 10
9902.927506749456
 20
1481.844112873077
 30
0.0
 11
9902.927506749456
 21
1518.844112873077
 31
0.0
  0
LINE
  5
1F369
330
747D
100
AcDbEntity
  8
部品1
100
AcDbLine
 10
9882.927506749455
 20
1481.844112873077
 30
0.0
 11
9882.927506749455
 21
1518.844112873077
 31
0.0
  0
LINE
  5
1F36A
330
747D
100
AcDbEntity
  8
部品1
100
AcDbLine
 10
9872.927506749455
 20
1481.844112873077
 30
0.0
 11
9872.927506749455
 21
1494.844112873077
 31
0.0
  0
LINE
  5
1F36B
330
747D
100
AcDbEntity
  8
部品1
100
AcDbLine
 10
9922.927506749454
 20
1478.844112873077
 30
0.0
 11
9922.927506749454
 21
1481.844112873084
 31
0.0
  0
LINE
  5
1F36C
330
747D
100
AcDbEntity
  8
部品1
100
AcDbLine
 10
9862.927506749455
 20
1478.844112873077
 30
0.0
 11
9862.927506749455
 21
1481.844112873077
 31
0.0
  0
LINE
  5
1F36D
330
747D
100
AcDbEntity
  8
部品1
100
AcDbLine
 10
9862.927506749455
 20
1481.844112873077
 30
0.0
 11
9922.927506749454
 21
1481.844112873081
 31
0.0
  0
LINE
  5
1F36E
330
747D
100
AcDbEntity
  8
部品1
100
AcDbLine
 10
9907.927506749455
 20
1499.244112873075
 30
0.0
 11
9907.927506749455
 21
1497.844112873077
 31
0.0
  0
LINE
  5
1F36F
330
747D
100
AcDbEntity
  8
部品1
100
AcDbLine
 10
9877.927506749456
 20
1499.244112873079
 30
0.0
 11
9877.927506749456
 21
1497.844112873077
 31
0.0
  0
LINE
  5
1F370
330
747D
100
AcDbEntity
  8
部品1
100
AcDbLine
 10
9909.927506749454
 20
1497.844112873077
 30
0.0
 11
9912.927506749454
 21
1494.844112873077
 31
0.0
  0
LINE
  5
1F371
330
747D
100
AcDbEntity
  8
部品1
100
AcDbLine
 10
9875.927506749455
 20
1497.844112873077
 30
0.0
 11
9909.927506749454
 21
1497.844112873077
 31
0.0
  0
LINE
  5
1F372
330
747D
100
AcDbEntity
  8
部品1
100
AcDbLine
 10
9875.927506749455
 20
1497.844112873077
 30
0.0
 11
9872.927506749455
 21
1494.844112873077
 31
0.0
  0
LINE
  5
1F373
330
747D
100
AcDbEntity
  8
部品1
100
AcDbLine
 10
9882.927506749455
 20
1518.844112873077
 30
0.0
 11
9902.927506749456
 21
1518.844112873077
 31
0.0
  0
LINE
  5
1F374
330
747D
100
AcDbEntity
  8
部品1
100
AcDbLine
 10
9885.927506749455
 20
1531.097008896737
 30
0.0
 11
9899.927506749456
 21
1531.097008896737
 31
0.0
  0
LINE
  5
1F375
330
747D
100
AcDbEntity
  8
部品1
100
AcDbLine
 10
9907.927506749455
 20
1539.244112873075
 30
0.0
 11
9907.927506749455
 21
1533.244112873075
 31
0.0
  0
LINE
  5
1F376
330
747D
100
AcDbEntity
  8
部品1
100
AcDbLine
 10
9877.927506749456
 20
1539.244112873079
 30
0.0
 11
9877.927506749456
 21
1533.244112873079
 31
0.0
  0
LINE
  5
1F377
330
747D
100
AcDbEntity
  8
部品1
100
AcDbLine
 10
9877.927506749456
 20
1539.244112873079
 30
0.0
 11
9907.927506749455
 21
1539.244112873079
 31
0.0
  0
LINE
  5
1F378
330
747D
100
AcDbEntity
  8
部品1
100
AcDbLine
 10
9877.927506749456
 20
1533.244112873079
 30
0.0
 11
9907.927506749455
 21
1533.244112873079
 31
0.0
  0
LINE
  5
1F379
330
747D
100
AcDbEntity
  8
部品1
100
AcDbLine
 10
9902.927506749456
 20
1499.244112873079
 30
0.0
 11
9907.927506749455
 21
1499.244112873079
 31
0.0
  0
LINE
  5
1F37A
330
747D
100
AcDbEntity
  8
部品1
100
AcDbLine
 10
9962.927506749455
 20
1478.844112873077
 30
0.0
 11
9962.927506749455
 21
1466.844112873077
 31
0.0
  0
LINE
  5
1F37B
330
747D
100
AcDbEntity
  8
細線
100
AcDbLine
 10
9848.779312272432
 20
1731.995316872888
 30
0.0
 11
9813.930516272243
 21
1766.844112873077
 31
0.0
  0
LINE
  5
1F37C
330
747D
100
AcDbEntity
  8
細線
100
AcDbLine
 10
9844.848174678796
 20
1693.500047595331
 30
0.0
 11
9771.50410940105
 21
1766.844112873077
 31
0.0
  0
LINE
  5
1F37D
330
747D
100
AcDbEntity
  8
部品1
100
AcDbLine
 10
9862.927506749455
 20
1880.444112873076
 30
0.0
 11
9922.927506749454
 21
1880.44411287308
 31
0.0
  0
ARC
  5
1F37E
330
747D
100
AcDbEntity
  8
部品1
100
AcDbCircle
 10
9862.927506749455
 20
1870.444112873076
 30
0.0
 40
10.0
100
AcDbArc
 50
90.0
 51
180.0
  0
ARC
  5
1F37F
330
747D
100
AcDbEntity
  8
部品1
100
AcDbCircle
 10
9922.927506749454
 20
1870.444112873079
 30
0.0
 40
10.0
100
AcDbArc
 50
0.0
 51
90.0
  0
ARC
  5
1F380
330
747D
100
AcDbEntity
  8
部品1
100
AcDbCircle
 10
9892.927506749455
 20
1820.444112873076
 30
0.0
 40
8.0
100
AcDbArc
 50
28.00674301447729
 51
151.9932569855227
  0
CIRCLE
  5
1F381
330
747D
100
AcDbEntity
  8
部品1
100
AcDbCircle
 10
9892.927506749455
 20
1809.844112873077
 30
0.0
 40
16.0
  0
CIRCLE
  5
1F382
330
747D
100
AcDbEntity
  8
細線
100
AcDbCircle
 10
9892.927506749455
 20
1850.444112873076
 30
0.0
 40
8.0
  0
ARC
  5
1F383
330
747D
100
AcDbEntity
  8
細線
100
AcDbCircle
 10
9892.927506749455
 20
1750.844112873074
 30
0.0
 40
8.0
100
AcDbArc
 50
0.0
 51
180.0
  0
LINE
  5
1F384
330
747D
100
AcDbEntity
  8
細線
100
AcDbLine
 10
9877.927506749456
 20
1680.844112873077
 30
0.0
 11
9907.927506749455
 21
1680.844112873077
 31
0.0
  0
LINE
  5
1F385
330
747D
100
AcDbEntity
  8
細線
100
AcDbLine
 10
9877.927506749456
 20
1686.844112873077
 30
0.0
 11
9907.927506749455
 21
1686.844112873077
 31
0.0
  0
LINE
  5
1F386
330
747D
100
AcDbEntity
  8
細線
100
AcDbLine
 10
9877.927506749456
 20
1686.844112873077
 30
0.0
 11
9877.927506749456
 21
1680.844112873077
 31
0.0
  0
LINE
  5
1F387
330
747D
100
AcDbEntity
  8
細線
100
AcDbLine
 10
9907.927506749455
 20
1686.844112873074
 30
0.0
 11
9907.927506749455
 21
1680.844112873074
 31
0.0
  0
LINE
  5
1F388
330
747D
100
AcDbEntity
  8
細線
100
AcDbLine
 10
9884.927506749455
 20
1750.844112873074
 30
0.0
 11
9884.927506749455
 21
1724.300519333628
 31
0.0
  0
LINE
  5
1F389
330
747D
100
AcDbEntity
  8
細線
100
AcDbLine
 10
9900.927506749454
 20
1750.844112873074
 30
0.0
 11
9900.927506749454
 21
1724.300519333628
 31
0.0
  0
CIRCLE
  5
1F38A
330
747D
100
AcDbEntity
  8
部品1
100
AcDbCircle
 10
9892.927506749455
 20
1710.444112873076
 30
0.0
 40
16.0
  0
LINE
  5
1F38B
330
747D
100
AcDbEntity
  8
部品1
100
AcDbLine
 10
9861.981566229699
 20
1772.844112873077
 30
0.0
 11
9923.87344726921
 21
1772.844112873073
 31
0.0
  0
ARC
  5
1F38C
330
747D
100
AcDbEntity
  8
部品1
100
AcDbCircle
 10
9861.981566229699
 20
1762.844112873077
 30
0.0
 40
10.0
100
AcDbArc
 50
90.0
 51
174.3157584018144
  0
ARC
  5
1F38D
330
747D
100
AcDbEntity
  8
部品1
100
AcDbCircle
 10
9923.87344726921
 20
1762.844112873074
 30
0.0
 40
10.0
100
AcDbArc
 50
5.68424159818561
 51
90.0
  0
ARC
  5
1F38E
330
747D
100
AcDbEntity
  8
部品1
100
AcDbCircle
 10
9892.927506749455
 20
1780.444112873076
 30
0.0
 40
8.0
100
AcDbArc
 50
180.0
 51
251.8051276613334
  0
ARC
  5
1F38F
330
747D
100
AcDbEntity
  8
部品1
100
AcDbCircle
 10
9892.927506749455
 20
1780.444112873076
 30
0.0
 40
8.0
100
AcDbArc
 50
288.1948723386665
 51
0.0
  0
LINE
  5
1F390
330
747D
100
AcDbEntity
  8
部品1
100
AcDbLine
 10
9852.927506749455
 20
1870.444112873076
 30
0.0
 11
9852.927506749455
 21
1767.089581861084
 31
0.0
  0
LINE
  5
1F391
330
747D
100
AcDbEntity
  8
部品1
100
AcDbLine
 10
9932.927506749456
 20
1870.444112873079
 30
0.0
 11
9932.927506749456
 21
1767.08958186109
 31
0.0
  0
LINE
  5
1F392
330
747D
100
AcDbEntity
  8
部品1
100
AcDbLine
 10
9900.927506749454
 20
1795.987706412525
 30
0.0
 11
9900.927506749454
 21
1780.444112873076
 31
0.0
  0
LINE
  5
1F393
330
747D
100
AcDbEntity
  8
部品1
100
AcDbLine
 10
9884.927506749455
 20
1795.987706412525
 30
0.0
 11
9884.927506749455
 21
1780.444112873076
 31
0.0
  0
TEXT
  5
1F394
330
747D
100
AcDbEntity
  8
部品1
100
AcDbText
 10
8398.176479605451
 20
2501.949374765964
 30
0.0
 40
120.0
  1
地盤がコンクリートの場合
  7
STYLE2
100
AcDbText
  0
LINE
  5
1F395
330
747D
100
AcDbEntity
  8
部品1
 48
50.0
100
AcDbLine
 10
10836.83169876017
 20
2926.083325261324
 30
0.0
 11
10836.83169876017
 21
526.0833252613228
 31
0.0
  0
DIMENSION
  5
1F396
330
747D
100
AcDbEntity
  8
寸法
 48
50.0
100
AcDbDimension
  2
*D16
 10
7067.610405383772
 20
1466.844112873077
 30
0.0
 11
6967.610405383772
 21
1566.844112873079
 31
0.0
 70
    32
  1
a
 71
     5
 42
200.0000000000009
  3
INABA_S40G
100
AcDbAlignedDimension
 13
6819.539401023378
 23
1666.844112873078
 33
0.0
 14
6819.539401023378
 24
1466.844112873077
 34
0.0
 50
90.0
100
AcDbRotatedDimension
1001
ACAD
1000
DSTYLE
1002
{
1070
   174
1070
     0
1070
   272
1070
     1
1070
   288
1070
     0
1070
   341
1005
0
1002
}
  0
TEXT
  5
1F397
330
747D
100
AcDbEntity
  8
部品1
100
AcDbText
 10
7725.998956008773
 20
1000.00843510843
 30
0.0
 40
80.0
  1
b寸法：100～120mmに対応
  7
STYLE2
100
AcDbText
  0
TEXT
  5
1F398
330
747D
100
AcDbEntity
  8
部品1
100
AcDbText
 10
7730.544410554225
 20
854.40237450237
 30
0.0
 40
80.0
  1
\U+203BオールアンカーM10(市販品)
  7
STYLE2
100
AcDbText
  0
TEXT
  5
1F399
330
747D
100
AcDbEntity
  8
部品1
100
AcDbText
 10
7731.908046917862
 20
704.7054048054006
 30
0.0
 40
80.0
  1
  が4本必要になります。
  7
STYLE2
100
AcDbText
  0
TEXT
  5
1F39A
330
747D
100
AcDbEntity
  8
部品1
100
AcDbText
 10
9285.330800533406
 20
1000.00843510843
 30
0.0
 40
80.0
  1
c寸法：135～175,190mmに対応
  7
STYLE2
100
AcDbText
  0
TEXT
  5
1F39B
330
747D
100
AcDbEntity
  8
部品1
100
AcDbText
 10
9289.421709624319
 20
854.40237450237
 30
0.0
 40
80.0
  1
\U+203BオールアンカーM10(市販品)
  7
STYLE2
100
AcDbText
  0
TEXT
  5
1F39C
330
747D
100
AcDbEntity
  8
部品1
100
AcDbText
 10
9290.785345987954
 20
704.7054048054006
 30
0.0
 40
80.0
  1
  が4本必要になります。
  7
STYLE2
100
AcDbText
  0
TEXT
  5
1F39D
330
747D
100
AcDbEntity
  8
部品1
100
AcDbText
 10
6173.380976809117
 20
728.174692388341
 30
0.0
 40
80.0
  1
a寸法：100～150mmに対応
  7
STYLE2
100
AcDbText
  0
LINE
  5
1F5D3
330
747D
100
AcDbEntity
  8
部品1
 48
50.0
100
AcDbLine
 10
7713.600000000004
 20
6380.999999999998
 30
0.0
 11
7903.600000000003
 21
6380.999999999998
 31
0.0
  0
LINE
  5
1F5D4
330
747D
100
AcDbEntity
  8
部品1
 48
50.0
100
AcDbLine
 10
7713.600000000004
 20
5990.999999999998
 30
0.0
 11
7903.600000000003
 21
5990.999999999998
 31
0.0
  0
LINE
  5
1F5D5
330
747D
100
AcDbEntity
  8
部品1
 48
50.0
100
AcDbLine
 10
7713.600000000004
 20
6380.999999999998
 30
0.0
 11
7713.600000000004
 21
5990.999999999998
 31
0.0
  0
LINE
  5
1F5D6
330
747D
100
AcDbEntity
  8
部品1
 48
50.0
100
AcDbLine
 10
7903.600000000003
 20
6380.999999999998
 30
0.0
 11
7903.600000000003
 21
5990.999999999998
 31
0.0
  0
LINE
  5
1F5D7
330
747D
100
AcDbEntity
  8
部品1
 48
50.0
100
AcDbLine
 10
7903.6
 20
6380.999999999998
 30
0.0
 11
7903.600000000003
 21
5990.999999999998
 31
0.0
  0
LINE
  5
1F5D8
330
747D
100
AcDbEntity
  8
部品1
 48
50.0
100
AcDbLine
 10
8733.599999999999
 20
6381.000000000002
 30
0.0
 11
8733.600000000002
 21
5991.000000000002
 31
0.0
  0
LINE
  5
1F5D9
330
747D
100
AcDbEntity
  8
部品1
 48
50.0
100
AcDbLine
 10
8733.600000000002
 20
6381.000000000002
 30
0.0
 11
8733.600000000002
 21
5991.000000000002
 31
0.0
  0
LINE
  5
1F5DA
330
747D
100
AcDbEntity
  8
部品1
 48
50.0
100
AcDbLine
 10
8543.600000000003
 20
6381.000000000002
 30
0.0
 11
8543.600000000003
 21
5991.000000000002
 31
0.0
  0
LINE
  5
1F5DB
330
747D
100
AcDbEntity
  8
部品1
 48
50.0
100
AcDbLine
 10
8543.600000000003
 20
5991.000000000002
 30
0.0
 11
8733.600000000002
 21
5991.000000000002
 31
0.0
  0
LINE
  5
1F5DC
330
747D
100
AcDbEntity
  8
部品1
 48
50.0
100
AcDbLine
 10
8543.600000000003
 20
6381.000000000002
 30
0.0
 11
8733.600000000002
 21
6381.000000000002
 31
0.0
  0
LINE
  5
1F5F6
330
747D
100
AcDbEntity
  8
寸法
 62
     0
 48
50.0
100
AcDbLine
 10
6907.599999999999
 20
6090.999999999999
 30
0.0
 11
7097.599999999999
 21
6090.999999999999
 31
0.0
  0
LINE
  5
1F5F7
330
747D
100
AcDbEntity
  8
寸法
 62
     0
 48
50.0
100
AcDbLine
 10
6907.599999999999
 20
6280.999999999999
 30
0.0
 11
7097.599999999999
 21
6280.999999999999
 31
0.0
  0
LINE
  5
1F5F8
330
747D
100
AcDbEntity
  8
部品1
 48
50.0
100
AcDbLine
 10
7097.599999999999
 20
6091.0
 30
0.0
 11
7097.599999999999
 21
6280.999999999999
 31
0.0
  0
LINE
  5
1F5F9
330
747D
100
AcDbEntity
  8
部品1
 48
50.0
100
AcDbLine
 10
6907.600000000001
 20
6090.999999999998
 30
0.0
 11
6907.600000000001
 21
6280.999999999999
 31
0.0
  0
LINE
  5
1F5FA
330
747D
100
AcDbEntity
  8
寸法
 62
     0
 48
50.0
100
AcDbLine
 10
9349.599999999998
 20
6280.999999999999
 30
0.0
 11
9349.599999999998
 21
6090.999999999999
 31
0.0
  0
LINE
  5
1F5FB
330
747D
100
AcDbEntity
  8
部品1
 48
50.0
100
AcDbLine
 10
9539.599999999998
 20
6091.0
 30
0.0
 11
9539.599999999998
 21
6280.999999999999
 31
0.0
  0
LINE
  5
1F5FC
330
747D
100
AcDbEntity
  8
寸法
 62
     0
 48
50.0
100
AcDbLine
 10
9349.599999999998
 20
6280.999999999999
 30
0.0
 11
9539.599999999998
 21
6280.999999999999
 31
0.0
  0
LINE
  5
1F5FD
330
747D
100
AcDbEntity
  8
寸法
 62
     0
 48
50.0
100
AcDbLine
 10
9349.599999999998
 20
6090.999999999999
 30
0.0
 11
9539.599999999998
 21
6090.999999999999
 31
0.0
  0
DIMENSION
  5
1F631
330
747D
100
AcDbEntity
  8
寸法
 48
50.0
100
AcDbDimension
  2
*D17
 10
6703.230689952594
 20
5499.999999999996
 30
0.0
 11
6703.230689952594
 21
4891.514718625762
 31
0.0
 70
   160
  1
扉の出<>
 71
     5
 42
74.99999999999818
  3
INABA_S40G
100
AcDbAlignedDimension
 13
6936.6
 23
5424.999999999998
 33
0.0
 14
6870.543893583842
 24
5499.999999999996
 34
0.0
 50
90.0
100
AcDbRotatedDimension
1001
ACAD
1000
DSTYLE
1002
{
1070
   341
1005
0
1002
}
  0
LINE
  5
1F632
102
{ACAD_REACTORS
330
1F650
102
}
330
747D
100
AcDbEntity
  8
想像線
 48
10.0
100
AcDbLine
 10
8670.6
 20
5425.000000000002
 30
0.0
 11
8670.6
 21
5499.999999999999
 31
0.0
  0
LINE
  5
1F633
102
{ACAD_REACTORS
330
1F650
102
}
330
747D
100
AcDbEntity
  8
想像線
 48
10.0
100
AcDbLine
 10
6936.6
 20
5499.999999999999
 30
0.0
 11
8670.6
 21
5500.000000000002
 31
0.0
  0
LINE
  5
1F634
102
{ACAD_REACTORS
330
1F650
102
}
330
747D
100
AcDbEntity
  8
想像線
 48
10.0
100
AcDbLine
 10
6936.6
 20
5424.999999999998
 30
0.0
 11
6936.6
 21
5499.999999999999
 31
0.0
  0
HATCH
  5
1F635
102
{ACAD_REACTORS
330
1F650
102
}
330
747D
100
AcDbEntity
  8
寸法
 48
50.0
100
AcDbHatch
 10
0.0
 20
0.0
 30
0.0
210
0.0
220
0.0
230
1.0
  2
DOTS
 70
     0
 71
     0
 91
        1
 92
        7
 72
     0
 73
     1
 93
        4
 10
8670.6
 20
5500.000000000002
 10
6936.600000000002
 20
5499.999999999999
 10
6936.600000000002
 20
5424.999999999998
 10
8670.6
 20
5425.000000000002
 97
        0
 75
     0
 76
     1
 52
0.0
 41
10.0
 77
     0
 78
     1
 53
0.0
 43
-173.7936156968499
 44
784.8721425423118
 45
7.9375
 46
15.875
 79
     2
 49
0.0
 49
-15.875
 47
3.549710751249138
 98
        1
 10
7555.003986455638
 20
5495.94219053587
  0
LINE
  5
1F636
102
{ACAD_REACTORS
330
1F650
102
}
330
747D
100
AcDbEntity
  8
想像線
 48
10.0
100
AcDbLine
 10
6936.6
 20
5424.999999999998
 30
0.0
 11
8670.6
 21
5425.000000000002
 31
0.0
  0
ENDSEC
  0
SECTION
  2
OBJECTS
  0
DICTIONARY
  5
7471
330
0
100
AcDbDictionary
281
     1
  3
ACAD_COLOR
350
159B0
  3
ACAD_GROUP
350
7472
  3
ACAD_LAYOUT
350
159B1
  3
ACAD_MATERIAL
350
159AF
  3
ACAD_MLINESTYLE
350
7473
  3
ACAD_PLOTSETTINGS
350
159B2
  3
ACAD_PLOTSTYLENAME
350
159AD
  3
ACDBHEADERROUNDTRIPXREC
350
1FA16
  3
AcDbVariableDictionary
350
1FA12
  3
CONTENTDICTIONARY
350
E71C
  3
DRAWINGVARIABLESDICT
350
F3B9
  0
DICTIONARY
  5
1E67E
330
7467
100
AcDbDictionary
280
     1
281
     1
  3
ACAD_LAYERSTATES
360
1E67F
  0
DICTIONARY
  5
159B0
102
{ACAD_REACTORS
330
7471
102
}
330
7471
100
AcDbDictionary
281
     1
  0
DICTIONARY
  5
7472
102
{ACAD_REACTORS
330
7471
102
}
330
7471
100
AcDbDictionary
281
     1
  3
*A1
350
1F650
  0
DICTIONARY
  5
159B1
102
{ACAD_REACTORS
330
7471
102
}
330
7471
100
AcDbDictionary
281
     1
  3
Model
350
159B3
  3
レイアウト1
350
159B4
  0
DICTIONARY
  5
159AF
102
{ACAD_REACTORS
330
7471
102
}
330
7471
100
AcDbDictionary
281
     1
  0
DICTIONARY
  5
7473
102
{ACAD_REACTORS
330
7471
102
}
330
7471
100
AcDbDictionary
281
     1
  3
STANDARD
350
7480
  0
DICTIONARY
  5
159B2
102
{ACAD_REACTORS
330
7471
102
}
330
7471
100
AcDbDictionary
281
     1
  0
ACDBDICTIONARYWDFLT
  5
159AD
102
{ACAD_REACTORS
330
7471
102
}
330
7471
100
AcDbDictionary
281
     1
  3
Normal
350
159AE
100
AcDbDictionaryWithDefault
340
159AE
  0
DICTIONARY
  5
1FA16
102
{ACAD_REACTORS
330
7471
102
}
330
7471
100
AcDbDictionary
281
     1
  3
COLORDICT
350
1FA18
  3
MATERIALDICT
350
1FA17
  0
DICTIONARY
  5
1FA12
102
{ACAD_REACTORS
330
7471
102
}
330
7471
100
AcDbDictionary
281
     1
  3
DIMASSOC
350
1FA13
  3
PROJECTNAME
350
1FA14
  0
DICTIONARY
  5
E71C
102
{ACAD_REACTORS
330
7471
102
}
330
7471
100
AcDbDictionary
281
     1
  0
DICTIONARY
  5
F3B9
102
{ACAD_REACTORS
330
7471
102
}
330
7471
100
AcDbDictionary
281
     1
1001
DRAWINGVARIABLESXDATA
1000
POLARMODE
1000
1
  0
DICTIONARY
  5
1E67F
102
{ACAD_REACTORS
330
1E67E
102
}
330
1E67E
100
AcDbDictionary
281
     1
  0
GROUP
  5
1F650
102
{ACAD_REACTORS
330
7472
102
}
330
7472
100
AcDbGroup
300

 70
     1
 71
     1
340
1F636
340
1F635
340
1F634
340
1F633
340
1F632
  0
LAYOUT
  5
159B3
102
{ACAD_XDICTIONARY
360
1FA19
102
}
102
{ACAD_REACTORS
330
159B1
102
}
330
159B1
100
AcDbPlotSettings
  1

  2
iR C3880
  4
A3
  6

 40
5.873749732971191
 41
5.873747825622558
 42
5.873748779296875
 43
5.873748779296875
 44
296.9259948730469
 45
419.9466552734374
 46
0.0
 47
0.0
 48
0.0
 49
0.0
140
0.0
141
0.0
142
1.0
143
41.65811991999086
 70
 11952
 72
     1
 73
     1
 74
     2
  7
inabass.ctb
 75
     0
147
0.0240049239360925
148
0.0
149
0.0
100
AcDbLayout
  1
Model
 70
     1
 71
     0
 10
0.0
 20
0.0
 11
12.0
 21
9.0
 12
0.0
 22
0.0
 32
0.0
 14
0.0
 24
0.0
 34
0.0
 15
0.0
 25
0.0
 35
0.0
146
0.0
 13
0.0
 23
0.0
 33
0.0
 16
1.0
 26
0.0
 36
0.0
 17
0.0
 27
1.0
 37
0.0
 76
     0
330
747D
  0
LAYOUT
  5
159B4
102
{ACAD_XDICTIONARY
360
1FA1B
102
}
102
{ACAD_REACTORS
330
159B1
102
}
330
159B1
100
AcDbPlotSettings
  1

  2
自動 EPSON LP-8400FX (TATENO 上)
  4

  6

 40
0.0
 41
0.0
 42
0.0
 43
0.0
 44
0.0
 45
0.0
 46
0.0
 47
0.0
 48
0.0
 49
0.0
140
0.0
141
0.0
142
1.0
143
1.0
 70
   688
 72
     0
 73
     0
 74
     5
  7
inaba.ctb
 75
    16
147
1.0
148
0.0
149
0.0
100
AcDbLayout
  1
レイアウト1
 70
     0
 71
     1
 10
0.0
 20
0.0
 11
420.0
 21
297.0
 12
0.0
 22
0.0
 32
0.0
 14
1.000000000000000E+20
 24
1.000000000000000E+20
 34
1.000000000000000E+20
 15
-1.000000000000000E+20
 25
-1.000000000000000E+20
 35
-1.000000000000000E+20
146
0.0
 13
0.0
 23
0.0
 33
0.0
 16
1.0
 26
0.0
 36
0.0
 17
0.0
 27
1.0
 37
0.0
 76
     0
330
747A
  0
MLINESTYLE
  5
7480
102
{ACAD_REACTORS
330
7473
102
}
330
7473
100
AcDbMlineStyle
  2
STANDARD
 70
     0
  3

 62
     0
 51
90.0
 52
90.0
 71
     2
 49
0.5
 62
   256
  6
BYLAYER
 49
-0.5
 62
   256
  6
BYLAYER
  0
ACDBPLACEHOLDER
  5
159AE
102
{ACAD_REACTORS
330
159AD
102
}
330
159AD
  0
XRECORD
  5
1FA18
102
{ACAD_REACTORS
330
1FA16
102
}
330
1FA16
100
AcDbXrecord
280
     1
340
159B0
  0
XRECORD
  5
1FA17
102
{ACAD_REACTORS
330
1FA16
102
}
330
1FA16
100
AcDbXrecord
280
     1
340
159AF
  0
DICTIONARYVAR
  5
1FA13
102
{ACAD_REACTORS
330
1FA12
102
}
330
1FA12
100
DictionaryVariables
280
     0
  1
1
  0
DICTIONARYVAR
  5
1FA14
102
{ACAD_REACTORS
330
1FA12
102
}
330
1FA12
100
DictionaryVariables
280
     0
  1

  0
DICTIONARY
  5
1FA19
330
159B3
100
AcDbDictionary
280
     1
281
     1
  3
ACAD_XREC_ROUNDTRIP
360
1FA1A
  0
DICTIONARY
  5
1FA1B
330
159B4
100
AcDbDictionary
280
     1
281
     1
  3
ACAD_XREC_ROUNDTRIP
360
1FA1C
  0
XRECORD
  5
1FA1A
102
{ACAD_REACTORS
330
1FA19
102
}
330
1FA19
100
AcDbXrecord
280
     1
102
SHADEPLOT
 70
     1
102
SHADEPLOTRESLEVEL
 70
     2
102
SHADEPLOTCUSTOMDPI
 70
   300
  0
XRECORD
  5
1FA1C
102
{ACAD_REACTORS
330
1FA1B
102
}
330
1FA1B
100
AcDbXrecord
280
     1
102
SHADEPLOT
 70
     0
102
SHADEPLOTRESLEVEL
 70
     2
102
SHADEPLOTCUSTOMDPI
 70
   300
  0
ENDSEC
  0
EOF
