  0
SECTION
  2
HEADER
  9
$ACADVER
  1
AC1015
  9
$ACADMAINTVER
 70
    20
  9
$DWGCODEPAGE
  3
ANSI_932
  9
$INSBASE
 10
0.0
 20
0.0
 30
0.0
  9
$EXTMIN
 10
139.196816621341
 20
-0.5436960005536094
 30
-0.0000000000000058
  9
$EXTMAX
 10
16308.32523385566
 20
11409.94830329749
 30
0.0000000000000104
  9
$LIMMIN
 10
0.0
 20
0.0
  9
$LIMMAX
 10
16800.0
 20
11880.0
  9
$ORTHOMODE
 70
     0
  9
$REGENMODE
 70
     1
  9
$FILLMODE
 70
     1
  9
$QTEXTMODE
 70
     0
  9
$MIRRTEXT
 70
     1
  9
$LTSCALE
 40
20.0
  9
$ATTMODE
 70
     1
  9
$TEXTSIZE
 40
100.0
  9
$TRACEWID
 40
1.0
  9
$TEXTSTYLE
  7
STYLE2
  9
$CLAYER
  8
寸法
  9
$CELTYPE
  6
BYLAYER
  9
$CECOLOR
 62
   256
  9
$CELTSCALE
 40
50.0
  9
$DISPSILH
 70
     0
  9
$DIMSCALE
 40
40.0
  9
$DIMASZ
 40
2.5
  9
$DIMEXO
 40
0.5
  9
$DIMDLI
 40
7.0
  9
$DIMRND
 40
0.0
  9
$DIMDLE
 40
0.0
  9
$DIMEXE
 40
1.5
  9
$DIMTP
 40
0.0
  9
$DIMTM
 40
0.0
  9
$DIMTXT
 40
3.0
  9
$DIMCEN
 40
0.0
  9
$DIMTSZ
 40
0.0
  9
$DIMTOL
 70
     0
  9
$DIMLIM
 70
     0
  9
$DIMTIH
 70
     0
  9
$DIMTOH
 70
     0
  9
$DIMSE1
 70
     0
  9
$DIMSE2
 70
     0
  9
$DIMTAD
 70
     3
  9
$DIMZIN
 70
     8
  9
$DIMBLK
  1

  9
$DIMASO
 70
     1
  9
$DIMSHO
 70
     1
  9
$DIMPOST
  1

  9
$DIMAPOST
  1

  9
$DIMALT
 70
     0
  9
$DIMALTD
 70
     2
  9
$DIMALTF
 40
0.0394
  9
$DIMLFAC
 40
1.0
  9
$DIMTOFL
 70
     1
  9
$DIMTVP
 40
0.0
  9
$DIMTIX
 70
     0
  9
$DIMSOXD
 70
     0
  9
$DIMSAH
 70
     1
  9
$DIMBLK1
  1
DOTSMALL
  9
$DIMBLK2
  1
DOTSMALL
  9
$DIMSTYLE
  2
INABA_S40G
  9
$DIMCLRD
 70
     0
  9
$DIMCLRE
 70
     0
  9
$DIMCLRT
 70
     7
  9
$DIMTFAC
 40
1.0
  9
$DIMGAP
 40
1.0
  9
$DIMJUST
 70
     0
  9
$DIMSD1
 70
     0
  9
$DIMSD2
 70
     0
  9
$DIMTOLJ
 70
     1
  9
$DIMTZIN
 70
     0
  9
$DIMALTZ
 70
     0
  9
$DIMALTTZ
 70
     0
  9
$DIMUPT
 70
     0
  9
$DIMDEC
 70
     1
  9
$DIMTDEC
 70
     1
  9
$DIMALTU
 70
     2
  9
$DIMALTTD
 70
     2
  9
$DIMTXSTY
  7
STYLE1
  9
$DIMAUNIT
 70
     0
  9
$DIMADEC
 70
     0
  9
$DIMALTRND
 40
0.0
  9
$DIMAZIN
 70
     0
  9
$DIMDSEP
 70
    46
  9
$DIMATFIT
 70
     3
  9
$DIMFRAC
 70
     0
  9
$DIMLDRBLK
  1

  9
$DIMLUNIT
 70
     2
  9
$DIMLWD
 70
    -2
  9
$DIMLWE
 70
    -2
  9
$DIMTMOVE
 70
     0
  9
$LUNITS
 70
     2
  9
$LUPREC
 70
     1
  9
$SKETCHINC
 40
1.0
  9
$FILLETRAD
 40
0.0
  9
$AUNITS
 70
     0
  9
$AUPREC
 70
     0
  9
$MENU
  1
acad
  9
$ELEVATION
 40
0.0
  9
$PELEVATION
 40
0.0
  9
$THICKNESS
 40
0.0
  9
$LIMCHECK
 70
     0
  9
$CHAMFERA
 40
3.0
  9
$CHAMFERB
 40
3.0
  9
$CHAMFERC
 40
0.0
  9
$CHAMFERD
 40
0.0
  9
$SKPOLY
 70
     0
  9
$TDCREATE
 40
2451368.612993866
  9
$TDUCREATE
 40
2451368.237993866
  9
$TDUPDATE
 40
2456380.852548646
  9
$TDUUPDATE
 40
2456380.477548646
  9
$TDINDWG
 40
1.4121814005
  9
$TDUSRTIMER
 40
1.4121814005
  9
$USRTIMER
 70
     1
  9
$ANGBASE
 50
0.0
  9
$ANGDIR
 70
     0
  9
$PDMODE
 70
     3
  9
$PDSIZE
 40
2.0
  9
$PLINEWID
 40
0.0
  9
$SPLFRAME
 70
     0
  9
$SPLINETYPE
 70
     6
  9
$SPLINESEGS
 70
     8
  9
$HANDSEED
  5
1E7AB
  9
$SURFTAB1
 70
     6
  9
$SURFTAB2
 70
     6
  9
$SURFTYPE
 70
     6
  9
$SURFU
 70
     6
  9
$SURFV
 70
     6
  9
$UCSBASE
  2

  9
$UCSNAME
  2

  9
$UCSORG
 10
0.0
 20
0.0
 30
0.0
  9
$UCSXDIR
 10
1.0
 20
0.0
 30
0.0
  9
$UCSYDIR
 10
0.0
 20
1.0
 30
0.0
  9
$UCSORTHOREF
  2

  9
$UCSORTHOVIEW
 70
     0
  9
$UCSORGTOP
 10
0.0
 20
0.0
 30
0.0
  9
$UCSORGBOTTOM
 10
0.0
 20
0.0
 30
0.0
  9
$UCSORGLEFT
 10
0.0
 20
0.0
 30
0.0
  9
$UCSORGRIGHT
 10
0.0
 20
0.0
 30
0.0
  9
$UCSORGFRONT
 10
0.0
 20
0.0
 30
0.0
  9
$UCSORGBACK
 10
0.0
 20
0.0
 30
0.0
  9
$PUCSBASE
  2

  9
$PUCSNAME
  2

  9
$PUCSORG
 10
0.0
 20
0.0
 30
0.0
  9
$PUCSXDIR
 10
1.0
 20
0.0
 30
0.0
  9
$PUCSYDIR
 10
0.0
 20
1.0
 30
0.0
  9
$PUCSORTHOREF
  2

  9
$PUCSORTHOVIEW
 70
     0
  9
$PUCSORGTOP
 10
0.0
 20
0.0
 30
0.0
  9
$PUCSORGBOTTOM
 10
0.0
 20
0.0
 30
0.0
  9
$PUCSORGLEFT
 10
0.0
 20
0.0
 30
0.0
  9
$PUCSORGRIGHT
 10
0.0
 20
0.0
 30
0.0
  9
$PUCSORGFRONT
 10
0.0
 20
0.0
 30
0.0
  9
$PUCSORGBACK
 10
0.0
 20
0.0
 30
0.0
  9
$USERI1
 70
     0
  9
$USERI2
 70
     0
  9
$USERI3
 70
     0
  9
$USERI4
 70
     0
  9
$USERI5
 70
     0
  9
$USERR1
 40
0.0
  9
$USERR2
 40
0.0
  9
$USERR3
 40
0.0
  9
$USERR4
 40
0.0
  9
$USERR5
 40
0.0
  9
$WORLDVIEW
 70
     1
  9
$SHADEDGE
 70
     3
  9
$SHADEDIF
 70
    70
  9
$TILEMODE
 70
     1
  9
$MAXACTVP
 70
    16
  9
$PINSBASE
 10
0.0
 20
0.0
 30
0.0
  9
$PLIMCHECK
 70
     0
  9
$PEXTMIN
 10
1.000000000000000E+20
 20
1.000000000000000E+20
 30
1.000000000000000E+20
  9
$PEXTMAX
 10
-1.000000000000000E+20
 20
-1.000000000000000E+20
 30
-1.000000000000000E+20
  9
$PLIMMIN
 10
0.0
 20
0.0
  9
$PLIMMAX
 10
420.0
 20
297.0
  9
$UNITMODE
 70
     0
  9
$VISRETAIN
 70
     0
  9
$PLINEGEN
 70
     0
  9
$PSLTSCALE
 70
     0
  9
$TREEDEPTH
 70
  3020
  9
$CMLSTYLE
  2
STANDARD
  9
$CMLJUST
 70
     0
  9
$CMLSCALE
 40
1.0
  9
$PROXYGRAPHICS
 70
     1
  9
$MEASUREMENT
 70
     1
  9
$CELWEIGHT
370
    -1
  9
$ENDCAPS
280
     0
  9
$JOINSTYLE
280
     0
  9
$LWDISPLAY
290
     0
  9
$INSUNITS
 70
     0
  9
$HYPERLINKBASE
  1

  9
$STYLESHEET
  1
inabass.ctb
  9
$XEDIT
290
     1
  9
$CEPSNTYPE
380
     0
  9
$PSTYLEMODE
290
     1
  9
$FINGERPRINTGUID
  2
{3B57B35E-7D77-4BBF-81B7-6C583B9EB24C}
  9
$VERSIONGUID
  2
{B1F3CF38-526B-4C13-9A40-76AD36B4CDBF}
  9
$EXTNAMES
290
     1
  9
$PSVPSCALE
 40
0.0
  9
$OLESTARTUP
290
     0
  0
ENDSEC
  0
SECTION
  2
CLASSES
  0
CLASS
  1
ACDBDICTIONARYWDFLT
  2
AcDbDictionaryWithDefault
  3
ObjectDBX Classes
 90
        0
280
     0
281
     0
  0
CLASS
  1
DICTIONARYVAR
  2
AcDbDictionaryVar
  3
ObjectDBX Classes
 90
        0
280
     0
281
     0
  0
CLASS
  1
ACDBPLACEHOLDER
  2
AcDbPlaceHolder
  3
ObjectDBX Classes
 90
        0
280
     0
281
     0
  0
CLASS
  1
LAYOUT
  2
AcDbLayout
  3
ObjectDBX Classes
 90
        0
280
     0
281
     0
  0
ENDSEC
  0
SECTION
  2
TABLES
  0
TABLE
  2
VPORT
  5
746D
330
0
100
AcDbSymbolTable
 70
     3
  0
VPORT
  5
1E7A3
330
746D
100
AcDbSymbolTableRecord
100
AcDbViewportTableRecord
  2
*Active
 70
     0
 10
0.0
 20
0.0
 11
1.0
 21
1.0
 12
8223.7610252385
 22
5704.702303648471
 13
0.0
 23
0.0
 14
10.0
 24
10.0
 15
10.0
 25
10.0
 16
0.0
 26
0.0
 36
1.0
 17
0.0
 27
0.0
 37
0.0
 40
11503.26022693462
 41
1.706919945725915
 42
50.0
 43
0.0
 44
0.0
 50
0.0
 51
0.0
 71
     0
 72
     0
 73
     1
 74
     0
 75
     0
 76
     0
 77
     0
 78
     0
281
     0
 65
     1
110
0.0
120
0.0
130
0.0
111
1.0
121
0.0
131
0.0
112
0.0
122
1.0
132
0.0
 79
     0
146
0.0
  0
ENDTAB
  0
TABLE
  2
LTYPE
  5
746A
330
0
100
AcDbSymbolTable
 70
     4
  0
LTYPE
  5
7477
330
746A
100
AcDbSymbolTableRecord
100
AcDbLinetypeTableRecord
  2
BYBLOCK
 70
     0
  3

 72
    65
 73
     0
 40
0.0
  0
LTYPE
  5
7478
330
746A
100
AcDbSymbolTableRecord
100
AcDbLinetypeTableRecord
  2
BYLAYER
 70
     0
  3

 72
    65
 73
     0
 40
0.0
  0
LTYPE
  5
7479
330
746A
100
AcDbSymbolTableRecord
100
AcDbLinetypeTableRecord
  2
CONTINUOUS
 70
     0
  3
Solid line
 72
    65
 73
     0
 40
0.0
  0
LTYPE
  5
7816
330
746A
100
AcDbSymbolTableRecord
100
AcDbLinetypeTableRecord
  2
CENTER
 70
     0
  3
____ _ ____ _ ____ _ ____ _ ____ _ ____ _ ____ 
 72
    65
 73
     4
 40
2.0
 49
1.25
 74
     0
 49
-0.25
 74
     0
 49
0.25
 74
     0
 49
-0.25
 74
     0
  0
LTYPE
  5
781A
330
746A
100
AcDbSymbolTableRecord
100
AcDbLinetypeTableRecord
  2
HIDDEN
 70
     0
  3
__ __ __ __ __ __ __ __ __ __ __ __ __ __ __ __
 72
    65
 73
     2
 40
0.375
 49
0.25
 74
     0
 49
-0.125
 74
     0
  0
LTYPE
  5
781B
330
746A
100
AcDbSymbolTableRecord
100
AcDbLinetypeTableRecord
  2
PHANTOM
 70
     0
  3
______  __  __  ______  __  __  ______  __  __ 
 72
    65
 73
     6
 40
2.5
 49
1.25
 74
     0
 49
-0.25
 74
     0
 49
0.25
 74
     0
 49
-0.25
 74
     0
 49
0.25
 74
     0
 49
-0.25
 74
     0
  0
ENDTAB
  0
TABLE
  2
LAYER
  5
7467
102
{ACAD_XDICTIONARY
360
1DE3B
102
}
330
0
100
AcDbSymbolTable
 70
    13
  0
LAYER
  5
7474
330
7467
100
AcDbSymbolTableRecord
100
AcDbLayerTableRecord
  2
0
 70
     0
 62
     7
  6
CONTINUOUS
370
    -3
390
159AE
  0
LAYER
  5
DEB2
330
7467
100
AcDbSymbolTableRecord
100
AcDbLayerTableRecord
  2
センター
 70
     0
 62
     3
  6
CENTER
370
    -3
390
159AE
  0
LAYER
  5
DEB3
330
7467
100
AcDbSymbolTableRecord
100
AcDbLayerTableRecord
  2
寸法
 70
     0
 62
     4
  6
CONTINUOUS
370
    -3
390
159AE
  0
LAYER
  5
DEB4
330
7467
100
AcDbSymbolTableRecord
100
AcDbLayerTableRecord
  2
部品1
 70
     0
 62
     7
  6
CONTINUOUS
370
    -3
390
159AE
  0
LAYER
  5
DEB5
330
7467
100
AcDbSymbolTableRecord
100
AcDbLayerTableRecord
  2
補助
 70
     0
 62
    -1
  6
CONTINUOUS
370
    -3
390
159AE
  0
LAYER
  5
DEB6
330
7467
100
AcDbSymbolTableRecord
100
AcDbLayerTableRecord
  2
文字
 70
     0
 62
     7
  6
CONTINUOUS
370
    -3
390
159AE
  0
LAYER
  5
F255
330
7467
100
AcDbSymbolTableRecord
100
AcDbLayerTableRecord
  2
DEFPOINTS
 70
     0
 62
     7
  6
CONTINUOUS
290
     0
370
    -3
390
159AE
  0
LAYER
  5
10B54
330
7467
100
AcDbSymbolTableRecord
100
AcDbLayerTableRecord
  2
仕様書枠
 70
     0
 62
   230
  6
CONTINUOUS
370
    -3
390
159AE
  0
LAYER
  5
11729
330
7467
100
AcDbSymbolTableRecord
100
AcDbLayerTableRecord
  2
Ｇ．Ｌ
 70
     0
 62
    30
  6
CONTINUOUS
370
    -3
390
159AE
  0
LAYER
  5
1173F
330
7467
100
AcDbSymbolTableRecord
100
AcDbLayerTableRecord
  2
細線
 70
     0
 62
     5
  6
CONTINUOUS
370
    -3
390
159AE
  0
LAYER
  5
12CC4
330
7467
100
AcDbSymbolTableRecord
100
AcDbLayerTableRecord
  2
想像線
 70
     0
 62
     6
  6
PHANTOM
370
    -3
390
159AE
  0
LAYER
  5
142E2
330
7467
100
AcDbSymbolTableRecord
100
AcDbLayerTableRecord
  2
破線
 70
     0
 62
     2
  6
HIDDEN
370
    -3
390
159AE
  0
LAYER
  5
1C644
330
7467
100
AcDbSymbolTableRecord
100
AcDbLayerTableRecord
  2
点線
 70
     0
 62
     2
  6
HIDDEN
370
    -3
390
159AE
  0
ENDTAB
  0
TABLE
  2
STYLE
  5
7468
330
0
100
AcDbSymbolTable
 70
     3
  0
STYLE
  5
7475
330
7468
100
AcDbSymbolTableRecord
100
AcDbTextStyleTableRecord
  2
STANDARD
 70
     0
 40
0.0
 41
1.0
 50
0.0
 71
     0
 42
4.0
  3
txt
  4
C:\AutoCAD LT\bigfont.shx
  0
STYLE
  5
F706
330
7468
100
AcDbSymbolTableRecord
100
AcDbTextStyleTableRecord
  2
STYLE1
 70
     0
 40
0.0
 41
1.0
 50
0.0
 71
     0
 42
100.0
  3
isocp.shx
  4
bigfont.shx
  0
STYLE
  5
103BF
330
7468
100
AcDbSymbolTableRecord
100
AcDbTextStyleTableRecord
  2
STYLE2
 70
     0
 40
0.0
 41
1.0
 50
0.0
 71
     0
 42
100.0
  3
MS PGothic.ttf
  4

1001
ACAD
1000
MS PGothic
1071
    32818
  0
ENDTAB
  0
TABLE
  2
VIEW
  5
746B
330
0
100
AcDbSymbolTable
 70
     0
  0
ENDTAB
  0
TABLE
  2
UCS
  5
746C
330
0
100
AcDbSymbolTable
 70
     0
  0
ENDTAB
  0
TABLE
  2
APPID
  5
746E
330
0
100
AcDbSymbolTable
 70
     6
  0
APPID
  5
7476
330
746E
100
AcDbSymbolTableRecord
100
AcDbRegAppTableRecord
  2
ACAD
 70
     0
  0
APPID
  5
DEA9
330
746E
100
AcDbSymbolTableRecord
100
AcDbRegAppTableRecord
  2
CONTENTBLOCKICON
 70
     0
  0
APPID
  5
DEAA
330
746E
100
AcDbSymbolTableRecord
100
AcDbRegAppTableRecord
  2
CONTENTBLOCKDESCRIPTION
 70
     0
  0
APPID
  5
E71D
330
746E
100
AcDbSymbolTableRecord
100
AcDbRegAppTableRecord
  2
CONTENTTABDATA
 70
     0
  0
APPID
  5
E71E
330
746E
100
AcDbSymbolTableRecord
100
AcDbRegAppTableRecord
  2
CONTENTCURRENTTAB
 70
     0
  0
APPID
  5
F3BA
330
746E
100
AcDbSymbolTableRecord
100
AcDbRegAppTableRecord
  2
DRAWINGVARIABLESXDATA
 70
     0
  0
ENDTAB
  0
TABLE
  2
DIMSTYLE
  5
746F
330
0
100
AcDbSymbolTable
 70
     2
100
AcDbDimStyleTable
 71
     1
340
F71F
  0
DIMSTYLE
105
F71F
102
{ACAD_REACTORS
330
1CCFC
330
1CACA
330
1C9B8
330
1CAB8
330
1CAB7
330
1CAB6
330
1DFBF
330
1DFBE
330
1E3BC
330
1E5F3
330
1E650
330
1E6B8
330
1E71D
102
}
330
746F
100
AcDbSymbolTableRecord
100
AcDbDimStyleTableRecord
  2
INABA_S40G
 70
     0
 40
40.0
 41
2.5
 42
0.5
 43
7.0
 44
1.5
 73
     0
 74
     0
 77
     3
 78
     8
140
3.0
141
0.0
143
0.0394
147
1.0
172
     1
173
     1
174
     1
178
     7
271
     1
288
     1
340
F706
341
F770
343
F770
344
F770
  0
DIMSTYLE
105
1C645
330
746F
100
AcDbSymbolTableRecord
100
AcDbDimStyleTableRecord
  2
INABA_S50G
 70
     0
 40
0.0
 41
125.0
 42
25.0
 43
7.0
 44
75.0
 73
     0
 74
     0
 77
     3
 78
     8
140
150.0
141
0.0
143
0.0394
147
25.0
172
     1
173
     1
174
     1
178
     7
271
     1
340
F706
341
F770
343
F770
344
F770
  0
ENDTAB
  0
TABLE
  2
BLOCK_RECORD
  5
7466
330
0
100
AcDbSymbolTable
 70
    24
  0
BLOCK_RECORD
  5
747D
330
7466
100
AcDbSymbolTableRecord
100
AcDbBlockTableRecord
  2
*MODEL_SPACE
340
159B3
  0
BLOCK_RECORD
  5
747A
330
7466
100
AcDbSymbolTableRecord
100
AcDbBlockTableRecord
  2
*PAPER_SPACE
340
159B4
  0
BLOCK_RECORD
  5
F770
330
7466
100
AcDbSymbolTableRecord
100
AcDbBlockTableRecord
  2
_DOTSMALL
340
0
102
{BLKREFS
331
1D3AA
331
1D3AB
331
1DD5E
331
1DD5F
331
1DD69
331
1DD6A
331
1DD72
331
1DD73
331
1DD7B
331
1DD7C
331
1DD86
331
1DD87
331
1E31B
331
1E31C
331
1E32D
331
1E32E
331
1E336
331
1E337
331
1E33F
331
1E340
331
1E348
331
1E349
331
1E351
331
1E352
331
1E426
331
1E427
331
1E482
331
1E483
331
1E476
331
1E477
331
1E46A
331
1E46B
331
1E45E
331
1E45F
331
1E77E
331
1E77F
331
1E787
331
1E788
331
1E790
331
1E791
331
1E799
331
1E79A
102
}
  0
BLOCK_RECORD
  5
1C530
330
7466
100
AcDbSymbolTableRecord
100
AcDbBlockTableRecord
  2
_NONE
340
0
  0
BLOCK_RECORD
  5
1CD8F
330
7466
100
AcDbSymbolTableRecord
100
AcDbBlockTableRecord
  2
*D2
340
0
  0
BLOCK_RECORD
  5
1CD9C
330
7466
100
AcDbSymbolTableRecord
100
AcDbBlockTableRecord
  2
*D3
340
0
  0
BLOCK_RECORD
  5
1CDBF
330
7466
100
AcDbSymbolTableRecord
100
AcDbBlockTableRecord
  2
*D4
340
0
  0
BLOCK_RECORD
  5
1CDCD
330
7466
100
AcDbSymbolTableRecord
100
AcDbBlockTableRecord
  2
*D5
340
0
  0
BLOCK_RECORD
  5
1CDD8
330
7466
100
AcDbSymbolTableRecord
100
AcDbBlockTableRecord
  2
*D6
340
0
  0
BLOCK_RECORD
  5
1CDE6
330
7466
100
AcDbSymbolTableRecord
100
AcDbBlockTableRecord
  2
*D7
340
0
  0
BLOCK_RECORD
  5
1D857
330
7466
100
AcDbSymbolTableRecord
100
AcDbBlockTableRecord
  2
*D8
340
0
  0
BLOCK_RECORD
  5
1D863
330
7466
100
AcDbSymbolTableRecord
100
AcDbBlockTableRecord
  2
*D9
340
0
  0
BLOCK_RECORD
  5
1D86F
330
7466
100
AcDbSymbolTableRecord
100
AcDbBlockTableRecord
  2
*D10
340
0
  0
BLOCK_RECORD
  5
1D87B
330
7466
100
AcDbSymbolTableRecord
100
AcDbBlockTableRecord
  2
*D11
340
0
  0
BLOCK_RECORD
  5
1DFC8
330
7466
100
AcDbSymbolTableRecord
100
AcDbBlockTableRecord
  2
*D12
340
0
  0
BLOCK_RECORD
  5
1DFD4
330
7466
100
AcDbSymbolTableRecord
100
AcDbBlockTableRecord
  2
*D13
340
0
  0
BLOCK_RECORD
  5
1E3BD
330
7466
100
AcDbSymbolTableRecord
100
AcDbBlockTableRecord
  2
*D14
340
0
  0
BLOCK_RECORD
  5
1E459
330
7466
100
AcDbSymbolTableRecord
100
AcDbBlockTableRecord
  2
*D15
340
0
  0
BLOCK_RECORD
  5
1E465
330
7466
100
AcDbSymbolTableRecord
100
AcDbBlockTableRecord
  2
*D16
340
0
  0
BLOCK_RECORD
  5
1E471
330
7466
100
AcDbSymbolTableRecord
100
AcDbBlockTableRecord
  2
*D17
340
0
  0
BLOCK_RECORD
  5
1E47D
330
7466
100
AcDbSymbolTableRecord
100
AcDbBlockTableRecord
  2
*D18
340
0
  0
BLOCK_RECORD
  5
1E74B
330
7466
100
AcDbSymbolTableRecord
100
AcDbBlockTableRecord
  2
*D20
340
0
  0
BLOCK_RECORD
  5
1E757
330
7466
100
AcDbSymbolTableRecord
100
AcDbBlockTableRecord
  2
*D21
340
0
  0
BLOCK_RECORD
  5
1E763
330
7466
100
AcDbSymbolTableRecord
100
AcDbBlockTableRecord
  2
*D22
340
0
  0
BLOCK_RECORD
  5
1E76F
330
7466
100
AcDbSymbolTableRecord
100
AcDbBlockTableRecord
  2
*D23
340
0
  0
ENDTAB
  0
ENDSEC
  0
SECTION
  2
BLOCKS
  0
BLOCK
  5
7489
330
747D
100
AcDbEntity
  8
0
100
AcDbBlockBegin
  2
*MODEL_SPACE
 70
     0
 10
0.0
 20
0.0
 30
0.0
  3
*MODEL_SPACE
  1

  0
ENDBLK
  5
748A
330
747D
100
AcDbEntity
  8
0
100
AcDbBlockEnd
  0
BLOCK
  5
7487
330
747A
100
AcDbEntity
 67
     1
  8
0
100
AcDbBlockBegin
  2
*PAPER_SPACE
 70
     0
 10
0.0
 20
0.0
 30
0.0
  3
*PAPER_SPACE
  1

  0
ENDBLK
  5
7488
330
747A
100
AcDbEntity
 67
     1
  8
0
100
AcDbBlockEnd
  0
BLOCK
  5
F771
330
F770
100
AcDbEntity
  8
0
 48
50.0
100
AcDbBlockBegin
  2
_DOTSMALL
 70
     0
 10
0.0
 20
0.0
 30
0.0
  3
_DOTSMALL
  1

  0
LWPOLYLINE
  5
F772
330
F770
100
AcDbEntity
  8
0
  6
ByBlock
 62
     0
 48
50.0
100
AcDbPolyline
 90
        2
 70
     1
 43
0.5
 10
-0.0625
 20
0.0
 42
1.0
 10
0.0625
 20
0.0
 42
1.0
  0
ENDBLK
  5
F776
330
F770
100
AcDbEntity
  8
0
 48
50.0
100
AcDbBlockEnd
  0
BLOCK
  5
1C531
330
1C530
100
AcDbEntity
  8
0
 48
50.0
100
AcDbBlockBegin
  2
_NONE
 70
     0
 10
0.0
 20
0.0
 30
0.0
  3
_NONE
  1

  0
CIRCLE
  5
1C532
330
1C530
100
AcDbEntity
  8
0
  6
ByBlock
 62
     0
 48
50.0
100
AcDbCircle
 10
0.0
 20
0.0
 30
0.0
 40
0.25
  0
ENDBLK
  5
1C533
330
1C530
100
AcDbEntity
  8
0
 48
50.0
100
AcDbBlockEnd
  0
BLOCK
  5
1CD9A
330
1CD8F
100
AcDbEntity
  8
0
 48
50.0
100
AcDbBlockBegin
  2
*D2
 70
     1
 10
0.0
 20
0.0
 30
0.0
  3
*D2
  1

  0
LINE
  5
1DD59
330
1CD8F
100
AcDbEntity
  8
寸法
 62
     0
 48
50.0
370
    -2
100
AcDbLine
 10
9119.600000000001
 20
6892.0
 30
0.0
 11
9119.600000000001
 21
7324.412587671623
 31
0.0
  0
LINE
  5
1DD5A
330
1CD8F
100
AcDbEntity
  8
寸法
 62
     0
 48
50.0
370
    -2
100
AcDbLine
 10
9169.6
 20
6972.000000000004
 30
0.0
 11
9169.6
 21
7324.412587671623
 31
0.0
  0
LINE
  5
1DD5B
330
1CD8F
100
AcDbEntity
  8
寸法
 62
     0
 48
50.0
370
    -2
100
AcDbLine
 10
9119.600000000001
 20
7264.412587671623
 30
0.0
 11
9019.600000000002
 21
7264.412587671623
 31
0.0
  0
LINE
  5
1DD5C
330
1CD8F
100
AcDbEntity
  8
寸法
 62
     0
 48
50.0
370
    -2
100
AcDbLine
 10
9169.6
 20
7264.412587671623
 30
0.0
 11
9269.600000000002
 21
7264.412587671623
 31
0.0
  0
LINE
  5
1DD5D
330
1CD8F
100
AcDbEntity
  8
寸法
 62
     0
 48
50.0
370
    -2
100
AcDbLine
 10
9119.600000000001
 20
7264.412587671623
 30
0.0
 11
9169.6
 21
7264.412587671623
 31
0.0
  0
INSERT
  5
1DD5E
330
1CD8F
100
AcDbEntity
  8
寸法
 62
     0
 48
50.0
370
    -2
100
AcDbBlockReference
  2
_DOTSMALL
 10
9119.600000000001
 20
7264.412587671623
 30
0.0
 41
100.0
 42
100.0
 43
100.0
  0
INSERT
  5
1DD5F
330
1CD8F
100
AcDbEntity
  8
寸法
 62
     0
 48
50.0
370
    -2
100
AcDbBlockReference
  2
_DOTSMALL
 10
9169.6
 20
7264.412587671623
 30
0.0
 41
100.0
 42
100.0
 43
100.0
 50
180.0
  0
MTEXT
  5
1DD60
330
1CD8F
100
AcDbEntity
  8
寸法
 62
     7
 48
50.0
100
AcDbMText
 10
9144.600000000002
 20
7364.412587671623
 30
0.0
 40
120.0
 41
0.0
 71
     5
 72
     1
  1
\A1;a
  7
STYLE1
 73
     1
 44
1.0
1001
ACAD
1000
MTEXTBEGIN
1070
    73
1070
     1
1070
    44
1040
1.0
1070
    74
1070
     0
1000
MTEXTEND
  0
POINT
  5
1DD61
330
1CD8F
100
AcDbEntity
  8
DEFPOINTS
 62
     0
 48
50.0
100
AcDbPoint
 10
9119.600000000001
 20
6872.0
 30
0.0
  0
POINT
  5
1DD62
330
1CD8F
100
AcDbEntity
  8
DEFPOINTS
 62
     0
 48
50.0
100
AcDbPoint
 10
9169.6
 20
6952.000000000004
 30
0.0
  0
POINT
  5
1DD63
330
1CD8F
100
AcDbEntity
  8
DEFPOINTS
 62
     0
 48
50.0
100
AcDbPoint
 10
9169.6
 20
7264.412587671623
 30
0.0
  0
ENDBLK
  5
1CD9B
330
1CD8F
100
AcDbEntity
  8
0
 48
50.0
100
AcDbBlockEnd
  0
BLOCK
  5
1CDA5
330
1CD9C
100
AcDbEntity
  8
0
 48
50.0
100
AcDbBlockBegin
  2
*D3
 70
     1
 10
0.0
 20
0.0
 30
0.0
  3
*D3
  1

  0
LINE
  5
1DD78
330
1CD9C
100
AcDbEntity
  8
寸法
 62
     0
 48
50.0
370
    -2
100
AcDbLine
 10
7327.600000000001
 20
6892.0
 30
0.0
 11
7327.600000000001
 21
7324.412587671621
 31
0.0
  0
LINE
  5
1DD79
330
1CD9C
100
AcDbEntity
  8
寸法
 62
     0
 48
50.0
370
    -2
100
AcDbLine
 10
9119.600000000001
 20
6892.0
 30
0.0
 11
9119.600000000001
 21
7324.412587671621
 31
0.0
  0
LINE
  5
1DD7A
330
1CD9C
100
AcDbEntity
  8
寸法
 62
     0
 48
50.0
370
    -2
100
AcDbLine
 10
7327.600000000001
 20
7264.41258767162
 30
0.0
 11
9119.600000000001
 21
7264.41258767162
 31
0.0
  0
INSERT
  5
1DD7B
330
1CD9C
100
AcDbEntity
  8
寸法
 62
     0
 48
50.0
370
    -2
100
AcDbBlockReference
  2
_DOTSMALL
 10
7327.600000000001
 20
7264.41258767162
 30
0.0
 41
100.0
 42
100.0
 43
100.0
 50
180.0
  0
INSERT
  5
1DD7C
330
1CD9C
100
AcDbEntity
  8
寸法
 62
     0
 48
50.0
370
    -2
100
AcDbBlockReference
  2
_DOTSMALL
 10
9119.600000000001
 20
7264.41258767162
 30
0.0
 41
100.0
 42
100.0
 43
100.0
  0
MTEXT
  5
1DD7D
330
1CD9C
100
AcDbEntity
  8
寸法
 62
     7
 48
50.0
100
AcDbMText
 10
8223.600000000001
 20
7364.453400236424
 30
0.0
 40
120.0
 41
0.0
 71
     5
 72
     1
  1
\A1;1792
  7
STYLE1
 73
     1
 44
1.0
1001
ACAD
1000
MTEXTBEGIN
1070
    73
1070
     1
1070
    44
1040
1.0
1070
    74
1070
     0
1000
MTEXTEND
  0
POINT
  5
1DD7E
330
1CD9C
100
AcDbEntity
  8
DEFPOINTS
 62
     0
 48
50.0
100
AcDbPoint
 10
7327.600000000001
 20
6872.0
 30
0.0
  0
POINT
  5
1DD7F
330
1CD9C
100
AcDbEntity
  8
DEFPOINTS
 62
     0
 48
50.0
100
AcDbPoint
 10
9119.600000000001
 20
6872.0
 30
0.0
  0
POINT
  5
1DD80
330
1CD9C
100
AcDbEntity
  8
DEFPOINTS
 62
     0
 48
50.0
100
AcDbPoint
 10
9119.600000000001
 20
7264.41258767162
 30
0.0
  0
ENDBLK
  5
1CDA6
330
1CD9C
100
AcDbEntity
  8
0
 48
50.0
100
AcDbBlockEnd
  0
BLOCK
  5
1CDCB
330
1CDBF
100
AcDbEntity
  8
0
 48
50.0
100
AcDbBlockBegin
  2
*D4
 70
     1
 10
0.0
 20
0.0
 30
0.0
  3
*D4
  1

  0
LINE
  5
1D3A5
330
1CDBF
100
AcDbEntity
  8
寸法
 62
     0
 48
50.0
370
    -2
100
AcDbLine
 10
7307.6
 20
5500.0
 30
0.0
 11
6826.888116550751
 21
5500.0
 31
0.0
  0
LINE
  5
1D3A6
330
1CDBF
100
AcDbEntity
  8
寸法
 62
     0
 48
50.0
370
    -2
100
AcDbLine
 10
7257.6
 20
5440.0
 30
0.0
 11
6826.888116550751
 21
5440.0
 31
0.0
  0
LINE
  5
1D3A7
330
1CDBF
100
AcDbEntity
  8
寸法
 62
     0
 48
50.0
370
    -2
100
AcDbLine
 10
6886.88811655075
 20
5500.0
 30
0.0
 11
6886.88811655075
 21
5600.0
 31
0.0
  0
LINE
  5
1D3A8
330
1CDBF
100
AcDbEntity
  8
寸法
 62
     0
 48
50.0
370
    -2
100
AcDbLine
 10
6886.88811655075
 20
5440.0
 30
0.0
 11
6886.88811655075
 21
5340.0
 31
0.0
  0
LINE
  5
1D3A9
330
1CDBF
100
AcDbEntity
  8
寸法
 62
     0
 48
50.0
370
    -2
100
AcDbLine
 10
6886.88811655075
 20
5500.0
 30
0.0
 11
6886.88811655075
 21
5440.0
 31
0.0
  0
INSERT
  5
1D3AA
330
1CDBF
100
AcDbEntity
  8
寸法
 62
     0
 48
50.0
370
    -2
100
AcDbBlockReference
  2
_DOTSMALL
 10
6886.88811655075
 20
5500.0
 30
0.0
 41
100.0
 42
100.0
 43
100.0
 50
270.0
  0
INSERT
  5
1D3AB
330
1CDBF
100
AcDbEntity
  8
寸法
 62
     0
 48
50.0
370
    -2
100
AcDbBlockReference
  2
_DOTSMALL
 10
6886.88811655075
 20
5440.0
 30
0.0
 41
100.0
 42
100.0
 43
100.0
 50
90.0
  0
MTEXT
  5
1D3AC
330
1CDBF
100
AcDbEntity
  8
寸法
 62
     7
 48
50.0
100
AcDbMText
 10
6786.888116550748
 20
5470.000000000002
 30
0.0
 40
120.0
 41
0.0
 71
     5
 72
     1
  1
\A1;b
  7
STYLE1
 11
0.0000000000000001
 21
1.0
 31
0.0
 73
     1
 44
1.0
1001
ACAD
1000
MTEXTBEGIN
1070
    73
1070
     1
1070
    44
1040
1.0
1070
    74
1070
     0
1000
MTEXTEND
  0
POINT
  5
1D3AD
330
1CDBF
100
AcDbEntity
  8
DEFPOINTS
 62
     0
 48
50.0
100
AcDbPoint
 10
7327.600000000001
 20
5500.0
 30
0.0
  0
POINT
  5
1D3AE
330
1CDBF
100
AcDbEntity
  8
DEFPOINTS
 62
     0
 48
50.0
100
AcDbPoint
 10
7277.600000000001
 20
5440.0
 30
0.0
  0
POINT
  5
1D3AF
330
1CDBF
100
AcDbEntity
  8
DEFPOINTS
 62
     0
 48
50.0
100
AcDbPoint
 10
6886.88811655075
 20
5440.0
 30
0.0
  0
ENDBLK
  5
1CDCC
330
1CDBF
100
AcDbEntity
  8
0
 48
50.0
100
AcDbBlockEnd
  0
BLOCK
  5
1CDD6
330
1CDCD
100
AcDbEntity
  8
0
 48
50.0
100
AcDbBlockBegin
  2
*D5
 70
     1
 10
0.0
 20
0.0
 30
0.0
  3
*D5
  1

  0
LINE
  5
1DD83
330
1CDCD
100
AcDbEntity
  8
寸法
 62
     0
 48
50.0
370
    -2
100
AcDbLine
 10
7307.6
 20
6872.0
 30
0.0
 11
6826.888116550751
 21
6872.0
 31
0.0
  0
LINE
  5
1DD84
330
1CDCD
100
AcDbEntity
  8
寸法
 62
     0
 48
50.0
370
    -2
100
AcDbLine
 10
7307.6
 20
5500.0
 30
0.0
 11
6826.888116550751
 21
5500.0
 31
0.0
  0
LINE
  5
1DD85
330
1CDCD
100
AcDbEntity
  8
寸法
 62
     0
 48
50.0
370
    -2
100
AcDbLine
 10
6886.888116550752
 20
6872.0
 30
0.0
 11
6886.88811655075
 21
5500.0
 31
0.0
  0
INSERT
  5
1DD86
330
1CDCD
100
AcDbEntity
  8
寸法
 62
     0
 48
50.0
370
    -2
100
AcDbBlockReference
  2
_DOTSMALL
 10
6886.888116550752
 20
6872.0
 30
0.0
 41
100.0
 42
100.0
 43
100.0
 50
90.0
  0
INSERT
  5
1DD87
330
1CDCD
100
AcDbEntity
  8
寸法
 62
     0
 48
50.0
370
    -2
100
AcDbBlockReference
  2
_DOTSMALL
 10
6886.88811655075
 20
5500.0
 30
0.0
 41
100.0
 42
100.0
 43
100.0
 50
270.0
  0
MTEXT
  5
1DD88
330
1CDCD
100
AcDbEntity
  8
寸法
 62
     7
 48
50.0
100
AcDbMText
 10
6786.876305527127
 20
6186.000000000002
 30
0.0
 40
120.0
 41
0.0
 71
     5
 72
     1
  1
\A1;1372
  7
STYLE1
 11
0.0000000000000001
 21
1.0
 31
0.0
 73
     1
 44
1.0
1001
ACAD
1000
MTEXTBEGIN
1070
    73
1070
     1
1070
    44
1040
1.0
1070
    74
1070
     0
1000
MTEXTEND
  0
POINT
  5
1DD89
330
1CDCD
100
AcDbEntity
  8
DEFPOINTS
 62
     0
 48
50.0
100
AcDbPoint
 10
7327.600000000001
 20
6872.0
 30
0.0
  0
POINT
  5
1DD8A
330
1CDCD
100
AcDbEntity
  8
DEFPOINTS
 62
     0
 48
50.0
100
AcDbPoint
 10
7327.600000000001
 20
5500.0
 30
0.0
  0
POINT
  5
1DD8B
330
1CDCD
100
AcDbEntity
  8
DEFPOINTS
 62
     0
 48
50.0
100
AcDbPoint
 10
6886.88811655075
 20
5500.0
 30
0.0
  0
ENDBLK
  5
1CDD7
330
1CDCD
100
AcDbEntity
  8
0
 48
50.0
100
AcDbBlockEnd
  0
BLOCK
  5
1CDE4
330
1CDD8
100
AcDbEntity
  8
0
 48
50.0
100
AcDbBlockBegin
  2
*D6
 70
     1
 10
0.0
 20
0.0
 30
0.0
  3
*D6
  1

  0
LINE
  5
1DD6F
330
1CDD8
100
AcDbEntity
  8
寸法
 62
     0
 48
50.0
370
    -2
100
AcDbLine
 10
7257.6
 20
6952.0
 30
0.0
 11
6826.888116550751
 21
6952.0
 31
0.0
  0
LINE
  5
1DD70
330
1CDD8
100
AcDbEntity
  8
寸法
 62
     0
 48
50.0
370
    -2
100
AcDbLine
 10
7307.6
 20
6872.0
 30
0.0
 11
6826.888116550751
 21
6872.0
 31
0.0
  0
LINE
  5
1DD71
330
1CDD8
100
AcDbEntity
  8
寸法
 62
     0
 48
50.0
370
    -2
100
AcDbLine
 10
6886.888116550752
 20
6952.0
 30
0.0
 11
6886.888116550752
 21
6872.0
 31
0.0
  0
INSERT
  5
1DD72
330
1CDD8
100
AcDbEntity
  8
寸法
 62
     0
 48
50.0
370
    -2
100
AcDbBlockReference
  2
_DOTSMALL
 10
6886.888116550752
 20
6952.0
 30
0.0
 41
100.0
 42
100.0
 43
100.0
 50
90.0
  0
INSERT
  5
1DD73
330
1CDD8
100
AcDbEntity
  8
寸法
 62
     0
 48
50.0
370
    -2
100
AcDbBlockReference
  2
_DOTSMALL
 10
6886.888116550752
 20
6872.0
 30
0.0
 41
100.0
 42
100.0
 43
100.0
 50
270.0
  0
MTEXT
  5
1DD74
330
1CDD8
100
AcDbEntity
  8
寸法
 62
     7
 48
50.0
100
AcDbMText
 10
6786.888116550748
 20
6912.000000000002
 30
0.0
 40
120.0
 41
0.0
 71
     5
 72
     1
  1
\A1;c
  7
STYLE1
 11
0.0000000000000001
 21
1.0
 31
0.0
 73
     1
 44
1.0
1001
ACAD
1000
MTEXTBEGIN
1070
    73
1070
     1
1070
    44
1040
1.0
1070
    74
1070
     0
1000
MTEXTEND
  0
POINT
  5
1DD75
330
1CDD8
100
AcDbEntity
  8
DEFPOINTS
 62
     0
 48
50.0
100
AcDbPoint
 10
7277.600000000001
 20
6952.0
 30
0.0
  0
POINT
  5
1DD76
330
1CDD8
100
AcDbEntity
  8
DEFPOINTS
 62
     0
 48
50.0
100
AcDbPoint
 10
7327.600000000001
 20
6872.0
 30
0.0
  0
POINT
  5
1DD77
330
1CDD8
100
AcDbEntity
  8
DEFPOINTS
 62
     0
 48
50.0
100
AcDbPoint
 10
6886.888116550752
 20
6872.0
 30
0.0
  0
ENDBLK
  5
1CDE5
330
1CDD8
100
AcDbEntity
  8
0
 48
50.0
100
AcDbBlockEnd
  0
BLOCK
  5
1CDF1
330
1CDE6
100
AcDbEntity
  8
0
 48
50.0
100
AcDbBlockBegin
  2
*D7
 70
     1
 10
0.0
 20
0.0
 30
0.0
  3
*D7
  1

  0
LINE
  5
1DD64
330
1CDE6
100
AcDbEntity
  8
寸法
 62
     0
 48
50.0
370
    -2
100
AcDbLine
 10
7277.600000000001
 20
6972.0
 30
0.0
 11
7277.600000000001
 21
7324.412587671623
 31
0.0
  0
LINE
  5
1DD65
330
1CDE6
100
AcDbEntity
  8
寸法
 62
     0
 48
50.0
370
    -2
100
AcDbLine
 10
7327.600000000001
 20
6892.0
 30
0.0
 11
7327.600000000001
 21
7324.412587671623
 31
0.0
  0
LINE
  5
1DD66
330
1CDE6
100
AcDbEntity
  8
寸法
 62
     0
 48
50.0
370
    -2
100
AcDbLine
 10
7277.600000000001
 20
7264.412587671623
 30
0.0
 11
7177.600000000001
 21
7264.412587671623
 31
0.0
  0
LINE
  5
1DD67
330
1CDE6
100
AcDbEntity
  8
寸法
 62
     0
 48
50.0
370
    -2
100
AcDbLine
 10
7327.600000000001
 20
7264.412587671623
 30
0.0
 11
7427.600000000001
 21
7264.412587671623
 31
0.0
  0
LINE
  5
1DD68
330
1CDE6
100
AcDbEntity
  8
寸法
 62
     0
 48
50.0
370
    -2
100
AcDbLine
 10
7277.600000000001
 20
7264.412587671623
 30
0.0
 11
7327.600000000001
 21
7264.412587671623
 31
0.0
  0
INSERT
  5
1DD69
330
1CDE6
100
AcDbEntity
  8
寸法
 62
     0
 48
50.0
370
    -2
100
AcDbBlockReference
  2
_DOTSMALL
 10
7277.600000000001
 20
7264.412587671623
 30
0.0
 41
100.0
 42
100.0
 43
100.0
  0
INSERT
  5
1DD6A
330
1CDE6
100
AcDbEntity
  8
寸法
 62
     0
 48
50.0
370
    -2
100
AcDbBlockReference
  2
_DOTSMALL
 10
7327.600000000001
 20
7264.412587671623
 30
0.0
 41
100.0
 42
100.0
 43
100.0
 50
180.0
  0
MTEXT
  5
1DD6B
330
1CDE6
100
AcDbEntity
  8
寸法
 62
     7
 48
50.0
100
AcDbMText
 10
7302.600000000001
 20
7364.412587671623
 30
0.0
 40
120.0
 41
0.0
 71
     5
 72
     1
  1
\A1;a
  7
STYLE1
 73
     1
 44
1.0
1001
ACAD
1000
MTEXTBEGIN
1070
    73
1070
     1
1070
    44
1040
1.0
1070
    74
1070
     0
1000
MTEXTEND
  0
POINT
  5
1DD6C
330
1CDE6
100
AcDbEntity
  8
DEFPOINTS
 62
     0
 48
50.0
100
AcDbPoint
 10
7277.600000000001
 20
6952.0
 30
0.0
  0
POINT
  5
1DD6D
330
1CDE6
100
AcDbEntity
  8
DEFPOINTS
 62
     0
 48
50.0
100
AcDbPoint
 10
7327.600000000001
 20
6872.0
 30
0.0
  0
POINT
  5
1DD6E
330
1CDE6
100
AcDbEntity
  8
DEFPOINTS
 62
     0
 48
50.0
100
AcDbPoint
 10
7327.600000000001
 20
7264.412587671623
 30
0.0
  0
ENDBLK
  5
1CDF2
330
1CDE6
100
AcDbEntity
  8
0
 48
50.0
100
AcDbBlockEnd
  0
BLOCK
  5
1D861
330
1D857
100
AcDbEntity
  8
0
 48
50.0
100
AcDbBlockBegin
  2
*D8
 70
     1
 10
0.0
 20
0.0
 30
0.0
  3
*D8
  1

  0
LINE
  5
1E333
330
1D857
100
AcDbEntity
  8
寸法
 62
     0
 48
50.0
370
    -2
100
AcDbLine
 10
7026.3077022632
 20
1459.959230296372
 30
0.0
 11
7114.416031637215
 21
1459.959230296372
 31
0.0
  0
LINE
  5
1E334
330
1D857
100
AcDbEntity
  8
寸法
 62
     0
 48
50.0
370
    -2
100
AcDbLine
 10
7086.307702263201
 20
959.9592302963719
 30
0.0
 11
6994.416031637216
 21
959.9592302963719
 31
0.0
  0
LINE
  5
1E335
330
1D857
100
AcDbEntity
  8
寸法
 62
     0
 48
50.0
370
    -2
100
AcDbLine
 10
7054.416031637216
 20
1459.959230296372
 30
0.0
 11
7054.416031637216
 21
959.9592302963719
 31
0.0
  0
INSERT
  5
1E336
330
1D857
100
AcDbEntity
  8
寸法
 62
     0
 48
50.0
370
    -2
100
AcDbBlockReference
  2
_DOTSMALL
 10
7054.416031637216
 20
1459.959230296372
 30
0.0
 41
100.0
 42
100.0
 43
100.0
 50
90.0
  0
INSERT
  5
1E337
330
1D857
100
AcDbEntity
  8
寸法
 62
     0
 48
50.0
370
    -2
100
AcDbBlockReference
  2
_DOTSMALL
 10
7054.416031637216
 20
959.9592302963719
 30
0.0
 41
100.0
 42
100.0
 43
100.0
 50
270.0
  0
MTEXT
  5
1E338
330
1D857
100
AcDbEntity
  8
寸法
 62
     7
 48
50.0
100
AcDbMText
 10
6848.404220613594
 20
1207.619605674837
 30
0.0
 40
120.0
 41
0.0
 71
     5
 72
     1
  1
\A1;200\P(250)
  7
STYLE1
 11
0.0000000000000001
 21
1.0
 31
0.0
 73
     1
 44
1.0
1001
ACAD
1000
MTEXTBEGIN
1070
    73
1070
     1
1070
    44
1040
1.0
1070
    74
1070
     0
1000
MTEXTEND
  0
POINT
  5
1E339
330
1D857
100
AcDbEntity
  8
DEFPOINTS
 62
     0
 48
50.0
100
AcDbPoint
 10
7006.3077022632
 20
1459.959230296372
 30
0.0
  0
POINT
  5
1E33A
330
1D857
100
AcDbEntity
  8
DEFPOINTS
 62
     0
 48
50.0
100
AcDbPoint
 10
7106.3077022632
 20
959.9592302963719
 30
0.0
  0
POINT
  5
1E33B
330
1D857
100
AcDbEntity
  8
DEFPOINTS
 62
     0
 48
50.0
100
AcDbPoint
 10
7054.416031637216
 20
959.9592302963719
 30
0.0
  0
ENDBLK
  5
1D862
330
1D857
100
AcDbEntity
  8
0
 48
50.0
100
AcDbBlockEnd
  0
BLOCK
  5
1D86D
330
1D863
100
AcDbEntity
  8
0
 48
50.0
100
AcDbBlockBegin
  2
*D9
 70
     1
 10
0.0
 20
0.0
 30
0.0
  3
*D9
  1

  0
LINE
  5
1E34E
330
1D863
100
AcDbEntity
  8
寸法
 62
     0
 48
50.0
370
    -2
100
AcDbLine
 10
7426.307702263203
 20
1659.959230296373
 30
0.0
 11
7714.378706623596
 21
1659.959230296373
 31
0.0
  0
LINE
  5
1E34F
330
1D863
100
AcDbEntity
  8
寸法
 62
     0
 48
50.0
370
    -2
100
AcDbLine
 10
7426.307702263205
 20
1459.959230296372
 30
0.0
 11
7714.378706623596
 21
1459.959230296371
 31
0.0
  0
LINE
  5
1E350
330
1D863
100
AcDbEntity
  8
寸法
 62
     0
 48
50.0
370
    -2
100
AcDbLine
 10
7654.378706623596
 20
1659.959230296373
 30
0.0
 11
7654.378706623596
 21
1459.959230296372
 31
0.0
  0
INSERT
  5
1E351
330
1D863
100
AcDbEntity
  8
寸法
 62
     0
 48
50.0
370
    -2
100
AcDbBlockReference
  2
_DOTSMALL
 10
7654.378706623596
 20
1659.959230296373
 30
0.0
 41
100.0
 42
100.0
 43
100.0
 50
90.0
  0
INSERT
  5
1E352
330
1D863
100
AcDbEntity
  8
寸法
 62
     0
 48
50.0
370
    -2
100
AcDbBlockReference
  2
_DOTSMALL
 10
7654.378706623596
 20
1459.959230296372
 30
0.0
 41
100.0
 42
100.0
 43
100.0
 50
270.0
  0
MTEXT
  5
1E353
330
1D863
100
AcDbEntity
  8
寸法
 62
     7
 48
50.0
100
AcDbMText
 10
7554.378706623596
 20
1559.959230296374
 30
0.0
 40
120.0
 41
0.0
 71
     5
 72
     1
  1
\A1;a
  7
STYLE1
 11
0.0000000000000001
 21
1.0
 31
0.0
 73
     1
 44
1.0
1001
ACAD
1000
MTEXTBEGIN
1070
    73
1070
     1
1070
    44
1040
1.0
1070
    74
1070
     0
1000
MTEXTEND
  0
POINT
  5
1E354
330
1D863
100
AcDbEntity
  8
DEFPOINTS
 62
     0
 48
50.0
100
AcDbPoint
 10
7406.307702263203
 20
1659.959230296373
 30
0.0
  0
POINT
  5
1E355
330
1D863
100
AcDbEntity
  8
DEFPOINTS
 62
     0
 48
50.0
100
AcDbPoint
 10
7406.307702263204
 20
1459.959230296372
 30
0.0
  0
POINT
  5
1E356
330
1D863
100
AcDbEntity
  8
DEFPOINTS
 62
     0
 48
50.0
100
AcDbPoint
 10
7654.378706623596
 20
1459.959230296372
 30
0.0
  0
ENDBLK
  5
1D86E
330
1D863
100
AcDbEntity
  8
0
 48
50.0
100
AcDbBlockEnd
  0
BLOCK
  5
1D879
330
1D86F
100
AcDbEntity
  8
0
 48
50.0
100
AcDbBlockBegin
  2
*D10
 70
     1
 10
0.0
 20
0.0
 30
0.0
  3
*D10
  1

  0
LINE
  5
1E33C
330
1D86F
100
AcDbEntity
  8
寸法
 62
     0
 48
50.0
370
    -2
100
AcDbLine
 10
9039.91396638181
 20
1659.959230296374
 30
0.0
 11
9302.127213844709
 21
1659.959230296374
 31
0.0
  0
LINE
  5
1E33D
330
1D86F
100
AcDbEntity
  8
寸法
 62
     0
 48
50.0
370
    -2
100
AcDbLine
 10
9059.363203276298
 20
1459.959230296372
 30
0.0
 11
9302.127213844709
 21
1459.959230296372
 31
0.0
  0
LINE
  5
1E33E
330
1D86F
100
AcDbEntity
  8
寸法
 62
     0
 48
50.0
370
    -2
100
AcDbLine
 10
9242.127213844709
 20
1659.959230296374
 30
0.0
 11
9242.127213844709
 21
1459.959230296372
 31
0.0
  0
INSERT
  5
1E33F
330
1D86F
100
AcDbEntity
  8
寸法
 62
     0
 48
50.0
370
    -2
100
AcDbBlockReference
  2
_DOTSMALL
 10
9242.127213844709
 20
1659.959230296374
 30
0.0
 41
100.0
 42
100.0
 43
100.0
 50
90.0
  0
INSERT
  5
1E340
330
1D86F
100
AcDbEntity
  8
寸法
 62
     0
 48
50.0
370
    -2
100
AcDbBlockReference
  2
_DOTSMALL
 10
9242.127213844709
 20
1459.959230296372
 30
0.0
 41
100.0
 42
100.0
 43
100.0
 50
270.0
  0
MTEXT
  5
1E341
330
1D86F
100
AcDbEntity
  8
寸法
 62
     7
 48
50.0
100
AcDbMText
 10
9142.127213844709
 20
1559.959230296374
 30
0.0
 40
120.0
 41
0.0
 71
     5
 72
     1
  1
\A1;b
  7
STYLE1
 11
0.0000000000000001
 21
1.0
 31
0.0
 73
     1
 44
1.0
1001
ACAD
1000
MTEXTBEGIN
1070
    73
1070
     1
1070
    44
1040
1.0
1070
    74
1070
     0
1000
MTEXTEND
  0
POINT
  5
1E342
330
1D86F
100
AcDbEntity
  8
DEFPOINTS
 62
     0
 48
50.0
100
AcDbPoint
 10
9019.91396638181
 20
1659.959230296374
 30
0.0
  0
POINT
  5
1E343
330
1D86F
100
AcDbEntity
  8
DEFPOINTS
 62
     0
 48
50.0
100
AcDbPoint
 10
9039.363203276298
 20
1459.959230296372
 30
0.0
  0
POINT
  5
1E344
330
1D86F
100
AcDbEntity
  8
DEFPOINTS
 62
     0
 48
50.0
100
AcDbPoint
 10
9242.127213844709
 20
1459.959230296372
 30
0.0
  0
ENDBLK
  5
1D87A
330
1D86F
100
AcDbEntity
  8
0
 48
50.0
100
AcDbBlockEnd
  0
BLOCK
  5
1D885
330
1D87B
100
AcDbEntity
  8
0
 48
50.0
100
AcDbBlockBegin
  2
*D11
 70
     1
 10
0.0
 20
0.0
 30
0.0
  3
*D11
  1

  0
LINE
  5
1E345
330
1D87B
100
AcDbEntity
  8
寸法
 62
     0
 48
50.0
370
    -2
100
AcDbLine
 10
10539.80689989894
 20
1759.959230296372
 30
0.0
 11
10782.44245361606
 21
1759.959230296372
 31
0.0
  0
LINE
  5
1E346
330
1D87B
100
AcDbEntity
  8
寸法
 62
     0
 48
50.0
370
    -2
100
AcDbLine
 10
10569.69580798928
 20
1459.959230296372
 30
0.0
 11
10782.44245361606
 21
1459.959230296371
 31
0.0
  0
LINE
  5
1E347
330
1D87B
100
AcDbEntity
  8
寸法
 62
     0
 48
50.0
370
    -2
100
AcDbLine
 10
10722.44245361606
 20
1759.959230296372
 30
0.0
 11
10722.44245361606
 21
1459.959230296372
 31
0.0
  0
INSERT
  5
1E348
330
1D87B
100
AcDbEntity
  8
寸法
 62
     0
 48
50.0
370
    -2
100
AcDbBlockReference
  2
_DOTSMALL
 10
10722.44245361606
 20
1759.959230296372
 30
0.0
 41
100.0
 42
100.0
 43
100.0
 50
90.0
  0
INSERT
  5
1E349
330
1D87B
100
AcDbEntity
  8
寸法
 62
     0
 48
50.0
370
    -2
100
AcDbBlockReference
  2
_DOTSMALL
 10
10722.44245361606
 20
1459.959230296372
 30
0.0
 41
100.0
 42
100.0
 43
100.0
 50
270.0
  0
MTEXT
  5
1E34A
330
1D87B
100
AcDbEntity
  8
寸法
 62
     7
 48
50.0
100
AcDbMText
 10
10622.44245361606
 20
1609.959230296373
 30
0.0
 40
120.0
 41
0.0
 71
     5
 72
     1
  1
\A1;c
  7
STYLE1
 11
0.0000000000000001
 21
1.0
 31
0.0
 73
     1
 44
1.0
1001
ACAD
1000
MTEXTBEGIN
1070
    73
1070
     1
1070
    44
1040
1.0
1070
    74
1070
     0
1000
MTEXTEND
  0
POINT
  5
1E34B
330
1D87B
100
AcDbEntity
  8
DEFPOINTS
 62
     0
 48
50.0
100
AcDbPoint
 10
10519.80689989894
 20
1759.959230296372
 30
0.0
  0
POINT
  5
1E34C
330
1D87B
100
AcDbEntity
  8
DEFPOINTS
 62
     0
 48
50.0
100
AcDbPoint
 10
10549.69580798928
 20
1459.959230296372
 30
0.0
  0
POINT
  5
1E34D
330
1D87B
100
AcDbEntity
  8
DEFPOINTS
 62
     0
 48
50.0
100
AcDbPoint
 10
10722.44245361606
 20
1459.959230296372
 30
0.0
  0
ENDBLK
  5
1D886
330
1D87B
100
AcDbEntity
  8
0
 48
50.0
100
AcDbBlockEnd
  0
BLOCK
  5
1DFD2
330
1DFC8
100
AcDbEntity
  8
0
 48
50.0
100
AcDbBlockBegin
  2
*D12
 70
     1
 10
0.0
 20
0.0
 30
0.0
  3
*D12
  1

  0
LINE
  5
1E318
330
1DFC8
100
AcDbEntity
  8
寸法
 62
     0
 48
50.0
370
    -2
100
AcDbLine
 10
9239.599999999999
 20
5599.999999999992
 30
0.0
 11
9797.840873485114
 21
5599.999999999992
 31
0.0
  0
LINE
  5
1E319
330
1DFC8
100
AcDbEntity
  8
寸法
 62
     0
 48
50.0
370
    -2
100
AcDbLine
 10
9239.600000000001
 20
5399.999999999992
 30
0.0
 11
9797.840873485114
 21
5399.999999999992
 31
0.0
  0
LINE
  5
1E31A
330
1DFC8
100
AcDbEntity
  8
寸法
 62
     0
 48
50.0
370
    -2
100
AcDbLine
 10
9737.840873485113
 20
5599.999999999992
 30
0.0
 11
9737.840873485113
 21
5399.999999999992
 31
0.0
  0
INSERT
  5
1E31B
330
1DFC8
100
AcDbEntity
  8
寸法
 62
     0
 48
50.0
370
    -2
100
AcDbBlockReference
  2
_DOTSMALL
 10
9737.840873485113
 20
5599.999999999992
 30
0.0
 41
100.0
 42
100.0
 43
100.0
 50
90.0
  0
INSERT
  5
1E31C
330
1DFC8
100
AcDbEntity
  8
寸法
 62
     0
 48
50.0
370
    -2
100
AcDbBlockReference
  2
_DOTSMALL
 10
9737.840873485113
 20
5399.999999999992
 30
0.0
 41
100.0
 42
100.0
 43
100.0
 50
270.0
  0
MTEXT
  5
1E31D
330
1DFC8
100
AcDbEntity
  8
寸法
 62
     7
 48
50.0
100
AcDbMText
 10
9531.829062461488
 20
5499.999999999992
 30
0.0
 40
120.0
 41
0.0
 71
     5
 72
     1
  1
\A1;200\P(250)
  7
STYLE1
 11
0.0000000000000001
 21
1.0
 31
0.0
 73
     1
 44
1.0
1001
ACAD
1000
MTEXTBEGIN
1070
    73
1070
     1
1070
    44
1040
1.0
1070
    74
1070
     0
1000
MTEXTEND
  0
POINT
  5
1E31E
330
1DFC8
100
AcDbEntity
  8
DEFPOINTS
 62
     0
 48
50.0
100
AcDbPoint
 10
9219.599999999998
 20
5599.999999999992
 30
0.0
  0
POINT
  5
1E31F
330
1DFC8
100
AcDbEntity
  8
DEFPOINTS
 62
     0
 48
50.0
100
AcDbPoint
 10
9219.600000000001
 20
5399.999999999992
 30
0.0
  0
POINT
  5
1E320
330
1DFC8
100
AcDbEntity
  8
DEFPOINTS
 62
     0
 48
50.0
100
AcDbPoint
 10
9737.840873485113
 20
5399.999999999992
 30
0.0
  0
ENDBLK
  5
1DFD3
330
1DFC8
100
AcDbEntity
  8
0
 48
50.0
100
AcDbBlockEnd
  0
BLOCK
  5
1DFDE
330
1DFD4
100
AcDbEntity
  8
0
 48
50.0
100
AcDbBlockBegin
  2
*D13
 70
     1
 10
0.0
 20
0.0
 30
0.0
  3
*D13
  1

  0
LINE
  5
1E32A
330
1DFD4
100
AcDbEntity
  8
寸法
 62
     0
 48
50.0
370
    -2
100
AcDbLine
 10
9219.600000000001
 20
5379.999999999991
 30
0.0
 11
9219.600000000001
 21
4866.168926156461
 31
0.0
  0
LINE
  5
1E32B
330
1DFD4
100
AcDbEntity
  8
寸法
 62
     0
 48
50.0
370
    -2
100
AcDbLine
 10
9019.600000000002
 20
5379.999999999991
 30
0.0
 11
9019.600000000002
 21
4866.168926156461
 31
0.0
  0
LINE
  5
1E32C
330
1DFD4
100
AcDbEntity
  8
寸法
 62
     0
 48
50.0
370
    -2
100
AcDbLine
 10
9219.600000000001
 20
4926.16892615646
 30
0.0
 11
9019.600000000002
 21
4926.16892615646
 31
0.0
  0
INSERT
  5
1E32D
330
1DFD4
100
AcDbEntity
  8
寸法
 62
     0
 48
50.0
370
    -2
100
AcDbBlockReference
  2
_DOTSMALL
 10
9219.600000000001
 20
4926.16892615646
 30
0.0
 41
100.0
 42
100.0
 43
100.0
  0
INSERT
  5
1E32E
330
1DFD4
100
AcDbEntity
  8
寸法
 62
     0
 48
50.0
370
    -2
100
AcDbBlockReference
  2
_DOTSMALL
 10
9019.600000000002
 20
4926.16892615646
 30
0.0
 41
100.0
 42
100.0
 43
100.0
 50
180.0
  0
MTEXT
  5
1E32F
330
1DFD4
100
AcDbEntity
  8
寸法
 62
     7
 48
50.0
100
AcDbMText
 10
9119.600000000001
 20
5132.180737180082
 30
0.0
 40
120.0
 41
0.0
 71
     5
 72
     1
  1
\A1;200\P(250)
  7
STYLE1
 73
     1
 44
1.0
1001
ACAD
1000
MTEXTBEGIN
1070
    73
1070
     1
1070
    44
1040
1.0
1070
    74
1070
     0
1000
MTEXTEND
  0
POINT
  5
1E330
330
1DFD4
100
AcDbEntity
  8
DEFPOINTS
 62
     0
 48
50.0
100
AcDbPoint
 10
9219.600000000001
 20
5399.999999999992
 30
0.0
  0
POINT
  5
1E331
330
1DFD4
100
AcDbEntity
  8
DEFPOINTS
 62
     0
 48
50.0
100
AcDbPoint
 10
9019.600000000002
 20
5399.999999999992
 30
0.0
  0
POINT
  5
1E332
330
1DFD4
100
AcDbEntity
  8
DEFPOINTS
 62
     0
 48
50.0
100
AcDbPoint
 10
9019.600000000002
 20
4926.16892615646
 30
0.0
  0
ENDBLK
  5
1DFDF
330
1DFD4
100
AcDbEntity
  8
0
 48
50.0
100
AcDbBlockEnd
  0
BLOCK
  5
1E3C9
330
1E3BD
100
AcDbEntity
  8
0
 48
50.0
100
AcDbBlockBegin
  2
*D14
 70
     1
 10
0.0
 20
0.0
 30
0.0
  3
*D14
  1

  0
LINE
  5
1E421
330
1E3BD
100
AcDbEntity
  8
寸法
 62
     0
 48
50.0
370
    -2
100
AcDbLine
 10
7336.6
 20
5425.0
 30
0.0
 11
7053.969776478647
 21
5425.0
 31
0.0
  0
LINE
  5
1E422
330
1E3BD
100
AcDbEntity
  8
寸法
 62
     0
 48
50.0
370
    -2
100
AcDbLine
 10
7270.543893583841
 20
5499.999999999999
 30
0.0
 11
7053.969776478647
 21
5499.999999999999
 31
0.0
  0
LINE
  5
1E423
330
1E3BD
100
AcDbEntity
  8
寸法
 62
     0
 48
50.0
370
    -2
100
AcDbLine
 10
7113.969776478647
 20
5499.999999999999
 30
0.0
 11
7113.969776478647
 21
5599.999999999998
 31
0.0
  0
LINE
  5
1E424
330
1E3BD
100
AcDbEntity
  8
寸法
 62
     0
 48
50.0
370
    -2
100
AcDbLine
 10
7113.969776478647
 20
5425.0
 30
0.0
 11
7113.969776478647
 21
4558.029437251521
 31
0.0
  0
LINE
  5
1E425
330
1E3BD
100
AcDbEntity
  8
寸法
 62
     0
 48
50.0
370
    -2
100
AcDbLine
 10
7113.969776478647
 20
5499.999999999999
 30
0.0
 11
7113.969776478647
 21
5425.0
 31
0.0
  0
INSERT
  5
1E426
330
1E3BD
100
AcDbEntity
  8
寸法
 62
     0
 48
50.0
370
    -2
100
AcDbBlockReference
  2
_DOTSMALL
 10
7113.969776478647
 20
5499.999999999999
 30
0.0
 41
100.0
 42
100.0
 43
100.0
 50
270.0
  0
INSERT
  5
1E427
330
1E3BD
100
AcDbEntity
  8
寸法
 62
     0
 48
50.0
370
    -2
100
AcDbBlockReference
  2
_DOTSMALL
 10
7113.969776478647
 20
5425.0
 30
0.0
 41
100.0
 42
100.0
 43
100.0
 50
90.0
  0
MTEXT
  5
1E428
330
1E3BD
100
AcDbEntity
  8
寸法
 62
     7
 48
50.0
100
AcDbMText
 10
7013.969776478646
 20
4891.514718625761
 30
0.0
 40
120.0
 41
0.0
 71
     5
 72
     1
  1
\A1;扉の出75
  7
STYLE1
 11
0.0000000000000001
 21
1.0
 31
0.0
 73
     1
 44
1.0
1001
ACAD
1000
MTEXTBEGIN
1070
    73
1070
     1
1070
    44
1040
1.0
1070
    74
1070
     0
1000
MTEXTEND
  0
POINT
  5
1E429
330
1E3BD
100
AcDbEntity
  8
DEFPOINTS
 62
     0
 48
50.0
100
AcDbPoint
 10
7356.6
 20
5425.0
 30
0.0
  0
POINT
  5
1E42A
330
1E3BD
100
AcDbEntity
  8
DEFPOINTS
 62
     0
 48
50.0
100
AcDbPoint
 10
7290.543893583842
 20
5499.999999999999
 30
0.0
  0
POINT
  5
1E42B
330
1E3BD
100
AcDbEntity
  8
DEFPOINTS
 62
     0
 48
50.0
100
AcDbPoint
 10
7113.969776478647
 20
5499.999999999999
 30
0.0
  0
ENDBLK
  5
1E3CA
330
1E3BD
100
AcDbEntity
  8
0
 48
50.0
100
AcDbBlockEnd
  0
BLOCK
  5
1E45A
330
1E459
100
AcDbEntity
  8
0
 48
50.0
100
AcDbBlockBegin
  2
*D15
 70
     1
 10
0.0
 20
0.0
 30
0.0
  3
*D15
  1

  0
LINE
  5
1E45B
330
1E459
100
AcDbEntity
  8
寸法
 62
     0
 48
50.0
370
    -2
100
AcDbLine
 10
6439.539401023374
 20
1466.844112873077
 30
0.0
 11
6527.64773039739
 21
1466.844112873077
 31
0.0
  0
LINE
  5
1E45C
330
1E459
100
AcDbEntity
  8
寸法
 62
     0
 48
50.0
370
    -2
100
AcDbLine
 10
6499.539401023374
 20
966.8441128730774
 30
0.0
 11
6407.64773039739
 21
966.8441128730774
 31
0.0
  0
LINE
  5
1E45D
330
1E459
100
AcDbEntity
  8
寸法
 62
     0
 48
50.0
370
    -2
100
AcDbLine
 10
6467.64773039739
 20
1466.844112873077
 30
0.0
 11
6467.64773039739
 21
966.8441128730774
 31
0.0
  0
INSERT
  5
1E45E
330
1E459
100
AcDbEntity
  8
寸法
 62
     0
 48
50.0
370
    -2
100
AcDbBlockReference
  2
_DOTSMALL
 10
6467.64773039739
 20
1466.844112873077
 30
0.0
 41
100.0
 42
100.0
 43
100.0
 50
90.0
  0
INSERT
  5
1E45F
330
1E459
100
AcDbEntity
  8
寸法
 62
     0
 48
50.0
370
    -2
100
AcDbBlockReference
  2
_DOTSMALL
 10
6467.64773039739
 20
966.8441128730774
 30
0.0
 41
100.0
 42
100.0
 43
100.0
 50
270.0
  0
MTEXT
  5
1E460
330
1E459
100
AcDbEntity
  8
寸法
 62
     7
 48
50.0
100
AcDbMText
 10
6261.635919373768
 20
1214.504488251543
 30
0.0
 40
120.0
 41
0.0
 71
     5
 72
     1
  1
\A1;200\P(250)
  7
STYLE1
 11
0.0000000000000001
 21
1.0
 31
0.0
 73
     1
 44
1.0
1001
ACAD
1000
MTEXTBEGIN
1070
    73
1070
     1
1070
    44
1040
1.0
1070
    74
1070
     0
1000
MTEXTEND
  0
POINT
  5
1E461
330
1E459
100
AcDbEntity
  8
DEFPOINTS
 62
     0
 48
50.0
100
AcDbPoint
 10
6419.539401023374
 20
1466.844112873077
 30
0.0
  0
POINT
  5
1E462
330
1E459
100
AcDbEntity
  8
DEFPOINTS
 62
     0
 48
50.0
100
AcDbPoint
 10
6519.539401023374
 20
966.8441128730774
 30
0.0
  0
POINT
  5
1E463
330
1E459
100
AcDbEntity
  8
DEFPOINTS
 62
     0
 48
50.0
100
AcDbPoint
 10
6467.64773039739
 20
966.8441128730774
 30
0.0
  0
ENDBLK
  5
1E464
330
1E459
100
AcDbEntity
  8
0
 48
50.0
100
AcDbBlockEnd
  0
BLOCK
  5
1E466
330
1E465
100
AcDbEntity
  8
0
 48
50.0
100
AcDbBlockBegin
  2
*D16
 70
     1
 10
0.0
 20
0.0
 30
0.0
  3
*D16
  1

  0
LINE
  5
1E467
330
1E465
100
AcDbEntity
  8
寸法
 62
     0
 48
50.0
370
    -2
100
AcDbLine
 10
8453.145665141985
 20
1666.844112873079
 30
0.0
 11
8715.358912604884
 21
1666.844112873079
 31
0.0
  0
LINE
  5
1E468
330
1E465
100
AcDbEntity
  8
寸法
 62
     0
 48
50.0
370
    -2
100
AcDbLine
 10
8472.594902036474
 20
1466.844112873077
 30
0.0
 11
8715.358912604884
 21
1466.844112873077
 31
0.0
  0
LINE
  5
1E469
330
1E465
100
AcDbEntity
  8
寸法
 62
     0
 48
50.0
370
    -2
100
AcDbLine
 10
8655.358912604885
 20
1666.844112873079
 30
0.0
 11
8655.358912604885
 21
1466.844112873077
 31
0.0
  0
INSERT
  5
1E46A
330
1E465
100
AcDbEntity
  8
寸法
 62
     0
 48
50.0
370
    -2
100
AcDbBlockReference
  2
_DOTSMALL
 10
8655.358912604885
 20
1666.844112873079
 30
0.0
 41
100.0
 42
100.0
 43
100.0
 50
90.0
  0
INSERT
  5
1E46B
330
1E465
100
AcDbEntity
  8
寸法
 62
     0
 48
50.0
370
    -2
100
AcDbBlockReference
  2
_DOTSMALL
 10
8655.358912604885
 20
1466.844112873077
 30
0.0
 41
100.0
 42
100.0
 43
100.0
 50
270.0
  0
MTEXT
  5
1E46C
330
1E465
100
AcDbEntity
  8
寸法
 62
     7
 48
50.0
100
AcDbMText
 10
8555.358912604885
 20
1566.844112873079
 30
0.0
 40
120.0
 41
0.0
 71
     5
 72
     1
  1
\A1;b
  7
STYLE1
 11
0.0000000000000001
 21
1.0
 31
0.0
 73
     1
 44
1.0
1001
ACAD
1000
MTEXTBEGIN
1070
    73
1070
     1
1070
    44
1040
1.0
1070
    74
1070
     0
1000
MTEXTEND
  0
POINT
  5
1E46D
330
1E465
100
AcDbEntity
  8
DEFPOINTS
 62
     0
 48
50.0
100
AcDbPoint
 10
8433.145665141985
 20
1666.844112873079
 30
0.0
  0
POINT
  5
1E46E
330
1E465
100
AcDbEntity
  8
DEFPOINTS
 62
     0
 48
50.0
100
AcDbPoint
 10
8452.594902036473
 20
1466.844112873077
 30
0.0
  0
POINT
  5
1E46F
330
1E465
100
AcDbEntity
  8
DEFPOINTS
 62
     0
 48
50.0
100
AcDbPoint
 10
8655.358912604885
 20
1466.844112873077
 30
0.0
  0
ENDBLK
  5
1E470
330
1E465
100
AcDbEntity
  8
0
 48
50.0
100
AcDbBlockEnd
  0
BLOCK
  5
1E472
330
1E471
100
AcDbEntity
  8
0
 48
50.0
100
AcDbBlockBegin
  2
*D17
 70
     1
 10
0.0
 20
0.0
 30
0.0
  3
*D17
  1

  0
LINE
  5
1E473
330
1E471
100
AcDbEntity
  8
寸法
 62
     0
 48
50.0
370
    -2
100
AcDbLine
 10
9953.038598659123
 20
1766.844112873077
 30
0.0
 11
10195.67415237624
 21
1766.844112873077
 31
0.0
  0
LINE
  5
1E474
330
1E471
100
AcDbEntity
  8
寸法
 62
     0
 48
50.0
370
    -2
100
AcDbLine
 10
9982.927506749454
 20
1466.844112873077
 30
0.0
 11
10195.67415237624
 21
1466.844112873077
 31
0.0
  0
LINE
  5
1E475
330
1E471
100
AcDbEntity
  8
寸法
 62
     0
 48
50.0
370
    -2
100
AcDbLine
 10
10135.67415237624
 20
1766.844112873077
 30
0.0
 11
10135.67415237624
 21
1466.844112873077
 31
0.0
  0
INSERT
  5
1E476
330
1E471
100
AcDbEntity
  8
寸法
 62
     0
 48
50.0
370
    -2
100
AcDbBlockReference
  2
_DOTSMALL
 10
10135.67415237624
 20
1766.844112873077
 30
0.0
 41
100.0
 42
100.0
 43
100.0
 50
90.0
  0
INSERT
  5
1E477
330
1E471
100
AcDbEntity
  8
寸法
 62
     0
 48
50.0
370
    -2
100
AcDbBlockReference
  2
_DOTSMALL
 10
10135.67415237624
 20
1466.844112873077
 30
0.0
 41
100.0
 42
100.0
 43
100.0
 50
270.0
  0
MTEXT
  5
1E478
330
1E471
100
AcDbEntity
  8
寸法
 62
     7
 48
50.0
100
AcDbMText
 10
10035.67415237624
 20
1616.844112873079
 30
0.0
 40
120.0
 41
0.0
 71
     5
 72
     1
  1
\A1;c
  7
STYLE1
 11
0.0000000000000001
 21
1.0
 31
0.0
 73
     1
 44
1.0
1001
ACAD
1000
MTEXTBEGIN
1070
    73
1070
     1
1070
    44
1040
1.0
1070
    74
1070
     0
1000
MTEXTEND
  0
POINT
  5
1E479
330
1E471
100
AcDbEntity
  8
DEFPOINTS
 62
     0
 48
50.0
100
AcDbPoint
 10
9933.038598659123
 20
1766.844112873077
 30
0.0
  0
POINT
  5
1E47A
330
1E471
100
AcDbEntity
  8
DEFPOINTS
 62
     0
 48
50.0
100
AcDbPoint
 10
9962.927506749455
 20
1466.844112873077
 30
0.0
  0
POINT
  5
1E47B
330
1E471
100
AcDbEntity
  8
DEFPOINTS
 62
     0
 48
50.0
100
AcDbPoint
 10
10135.67415237624
 20
1466.844112873077
 30
0.0
  0
ENDBLK
  5
1E47C
330
1E471
100
AcDbEntity
  8
0
 48
50.0
100
AcDbBlockEnd
  0
BLOCK
  5
1E47E
330
1E47D
100
AcDbEntity
  8
0
 48
50.0
100
AcDbBlockBegin
  2
*D18
 70
     1
 10
0.0
 20
0.0
 30
0.0
  3
*D18
  1

  0
LINE
  5
1E47F
330
1E47D
100
AcDbEntity
  8
寸法
 62
     0
 48
50.0
370
    -2
100
AcDbLine
 10
6839.539401023377
 20
1666.844112873078
 30
0.0
 11
7127.610405383771
 21
1666.844112873078
 31
0.0
  0
LINE
  5
1E480
330
1E47D
100
AcDbEntity
  8
寸法
 62
     0
 48
50.0
370
    -2
100
AcDbLine
 10
6839.539401023377
 20
1466.844112873077
 30
0.0
 11
7127.610405383771
 21
1466.844112873077
 31
0.0
  0
LINE
  5
1E481
330
1E47D
100
AcDbEntity
  8
寸法
 62
     0
 48
50.0
370
    -2
100
AcDbLine
 10
7067.610405383772
 20
1666.844112873078
 30
0.0
 11
7067.610405383772
 21
1466.844112873077
 31
0.0
  0
INSERT
  5
1E482
330
1E47D
100
AcDbEntity
  8
寸法
 62
     0
 48
50.0
370
    -2
100
AcDbBlockReference
  2
_DOTSMALL
 10
7067.610405383772
 20
1666.844112873078
 30
0.0
 41
100.0
 42
100.0
 43
100.0
 50
90.0
  0
INSERT
  5
1E483
330
1E47D
100
AcDbEntity
  8
寸法
 62
     0
 48
50.0
370
    -2
100
AcDbBlockReference
  2
_DOTSMALL
 10
7067.610405383772
 20
1466.844112873077
 30
0.0
 41
100.0
 42
100.0
 43
100.0
 50
270.0
  0
MTEXT
  5
1E484
330
1E47D
100
AcDbEntity
  8
寸法
 62
     7
 48
50.0
100
AcDbMText
 10
6967.610405383772
 20
1566.844112873079
 30
0.0
 40
120.0
 41
0.0
 71
     5
 72
     1
  1
\A1;a
  7
STYLE1
 11
0.0000000000000001
 21
1.0
 31
0.0
 73
     1
 44
1.0
1001
ACAD
1000
MTEXTBEGIN
1070
    73
1070
     1
1070
    44
1040
1.0
1070
    74
1070
     0
1000
MTEXTEND
  0
POINT
  5
1E485
330
1E47D
100
AcDbEntity
  8
DEFPOINTS
 62
     0
 48
50.0
100
AcDbPoint
 10
6819.539401023378
 20
1666.844112873078
 30
0.0
  0
POINT
  5
1E486
330
1E47D
100
AcDbEntity
  8
DEFPOINTS
 62
     0
 48
50.0
100
AcDbPoint
 10
6819.539401023378
 20
1466.844112873077
 30
0.0
  0
POINT
  5
1E487
330
1E47D
100
AcDbEntity
  8
DEFPOINTS
 62
     0
 48
50.0
100
AcDbPoint
 10
7067.610405383772
 20
1466.844112873077
 30
0.0
  0
ENDBLK
  5
1E488
330
1E47D
100
AcDbEntity
  8
0
 48
50.0
100
AcDbBlockEnd
  0
BLOCK
  5
1E755
330
1E74B
100
AcDbEntity
  8
0
 48
50.0
100
AcDbBlockBegin
  2
*D20
 70
     1
 10
0.0
 20
0.0
 30
0.0
  3
*D20
  1

  0
LINE
  5
1E77B
330
1E74B
100
AcDbEntity
  8
寸法
 62
     0
 48
50.0
370
    -2
100
AcDbLine
 10
6839.539401023377
 20
1666.844112873078
 30
0.0
 11
7127.610405383771
 21
1666.844112873078
 31
0.0
  0
LINE
  5
1E77C
330
1E74B
100
AcDbEntity
  8
寸法
 62
     0
 48
50.0
370
    -2
100
AcDbLine
 10
6839.539401023377
 20
1466.844112873077
 30
0.0
 11
7127.610405383771
 21
1466.844112873077
 31
0.0
  0
LINE
  5
1E77D
330
1E74B
100
AcDbEntity
  8
寸法
 62
     0
 48
50.0
370
    -2
100
AcDbLine
 10
7067.610405383772
 20
1666.844112873078
 30
0.0
 11
7067.610405383772
 21
1466.844112873077
 31
0.0
  0
INSERT
  5
1E77E
330
1E74B
100
AcDbEntity
  8
寸法
 62
     0
 48
50.0
370
    -2
100
AcDbBlockReference
  2
_DOTSMALL
 10
7067.610405383772
 20
1666.844112873078
 30
0.0
 41
100.0
 42
100.0
 43
100.0
 50
90.0
  0
INSERT
  5
1E77F
330
1E74B
100
AcDbEntity
  8
寸法
 62
     0
 48
50.0
370
    -2
100
AcDbBlockReference
  2
_DOTSMALL
 10
7067.610405383772
 20
1466.844112873077
 30
0.0
 41
100.0
 42
100.0
 43
100.0
 50
270.0
  0
MTEXT
  5
1E780
330
1E74B
100
AcDbEntity
  8
寸法
 62
     7
 48
50.0
100
AcDbMText
 10
6967.610405383772
 20
1566.844112873079
 30
0.0
 40
120.0
 41
0.0
 71
     5
 72
     1
  1
\A1;a
  7
STYLE1
 11
0.0000000000000001
 21
1.0
 31
0.0
 73
     1
 44
1.0
1001
ACAD
1000
MTEXTBEGIN
1070
    73
1070
     1
1070
    44
1040
1.0
1070
    74
1070
     0
1000
MTEXTEND
  0
POINT
  5
1E781
330
1E74B
100
AcDbEntity
  8
DEFPOINTS
 62
     0
 48
50.0
100
AcDbPoint
 10
6819.539401023378
 20
1666.844112873078
 30
0.0
  0
POINT
  5
1E782
330
1E74B
100
AcDbEntity
  8
DEFPOINTS
 62
     0
 48
50.0
100
AcDbPoint
 10
6819.539401023378
 20
1466.844112873077
 30
0.0
  0
POINT
  5
1E783
330
1E74B
100
AcDbEntity
  8
DEFPOINTS
 62
     0
 48
50.0
100
AcDbPoint
 10
7067.610405383772
 20
1466.844112873077
 30
0.0
  0
ENDBLK
  5
1E756
330
1E74B
100
AcDbEntity
  8
0
 48
50.0
100
AcDbBlockEnd
  0
BLOCK
  5
1E761
330
1E757
100
AcDbEntity
  8
0
 48
50.0
100
AcDbBlockBegin
  2
*D21
 70
     1
 10
0.0
 20
0.0
 30
0.0
  3
*D21
  1

  0
LINE
  5
1E784
330
1E757
100
AcDbEntity
  8
寸法
 62
     0
 48
50.0
370
    -2
100
AcDbLine
 10
9953.038598659123
 20
1766.844112873077
 30
0.0
 11
10195.67415237624
 21
1766.844112873077
 31
0.0
  0
LINE
  5
1E785
330
1E757
100
AcDbEntity
  8
寸法
 62
     0
 48
50.0
370
    -2
100
AcDbLine
 10
9982.927506749454
 20
1466.844112873077
 30
0.0
 11
10195.67415237624
 21
1466.844112873077
 31
0.0
  0
LINE
  5
1E786
330
1E757
100
AcDbEntity
  8
寸法
 62
     0
 48
50.0
370
    -2
100
AcDbLine
 10
10135.67415237624
 20
1766.844112873077
 30
0.0
 11
10135.67415237624
 21
1466.844112873077
 31
0.0
  0
INSERT
  5
1E787
330
1E757
100
AcDbEntity
  8
寸法
 62
     0
 48
50.0
370
    -2
100
AcDbBlockReference
  2
_DOTSMALL
 10
10135.67415237624
 20
1766.844112873077
 30
0.0
 41
100.0
 42
100.0
 43
100.0
 50
90.0
  0
INSERT
  5
1E788
330
1E757
100
AcDbEntity
  8
寸法
 62
     0
 48
50.0
370
    -2
100
AcDbBlockReference
  2
_DOTSMALL
 10
10135.67415237624
 20
1466.844112873077
 30
0.0
 41
100.0
 42
100.0
 43
100.0
 50
270.0
  0
MTEXT
  5
1E789
330
1E757
100
AcDbEntity
  8
寸法
 62
     7
 48
50.0
100
AcDbMText
 10
10035.67415237624
 20
1616.844112873079
 30
0.0
 40
120.0
 41
0.0
 71
     5
 72
     1
  1
\A1;c
  7
STYLE1
 11
0.0000000000000001
 21
1.0
 31
0.0
 73
     1
 44
1.0
1001
ACAD
1000
MTEXTBEGIN
1070
    73
1070
     1
1070
    44
1040
1.0
1070
    74
1070
     0
1000
MTEXTEND
  0
POINT
  5
1E78A
330
1E757
100
AcDbEntity
  8
DEFPOINTS
 62
     0
 48
50.0
100
AcDbPoint
 10
9933.038598659123
 20
1766.844112873077
 30
0.0
  0
POINT
  5
1E78B
330
1E757
100
AcDbEntity
  8
DEFPOINTS
 62
     0
 48
50.0
100
AcDbPoint
 10
9962.927506749455
 20
1466.844112873077
 30
0.0
  0
POINT
  5
1E78C
330
1E757
100
AcDbEntity
  8
DEFPOINTS
 62
     0
 48
50.0
100
AcDbPoint
 10
10135.67415237624
 20
1466.844112873077
 30
0.0
  0
ENDBLK
  5
1E762
330
1E757
100
AcDbEntity
  8
0
 48
50.0
100
AcDbBlockEnd
  0
BLOCK
  5
1E76D
330
1E763
100
AcDbEntity
  8
0
 48
50.0
100
AcDbBlockBegin
  2
*D22
 70
     1
 10
0.0
 20
0.0
 30
0.0
  3
*D22
  1

  0
LINE
  5
1E78D
330
1E763
100
AcDbEntity
  8
寸法
 62
     0
 48
50.0
370
    -2
100
AcDbLine
 10
8453.145665141985
 20
1666.844112873079
 30
0.0
 11
8715.358912604884
 21
1666.844112873079
 31
0.0
  0
LINE
  5
1E78E
330
1E763
100
AcDbEntity
  8
寸法
 62
     0
 48
50.0
370
    -2
100
AcDbLine
 10
8472.594902036474
 20
1466.844112873077
 30
0.0
 11
8715.358912604884
 21
1466.844112873077
 31
0.0
  0
LINE
  5
1E78F
330
1E763
100
AcDbEntity
  8
寸法
 62
     0
 48
50.0
370
    -2
100
AcDbLine
 10
8655.358912604885
 20
1666.844112873079
 30
0.0
 11
8655.358912604885
 21
1466.844112873077
 31
0.0
  0
INSERT
  5
1E790
330
1E763
100
AcDbEntity
  8
寸法
 62
     0
 48
50.0
370
    -2
100
AcDbBlockReference
  2
_DOTSMALL
 10
8655.358912604885
 20
1666.844112873079
 30
0.0
 41
100.0
 42
100.0
 43
100.0
 50
90.0
  0
INSERT
  5
1E791
330
1E763
100
AcDbEntity
  8
寸法
 62
     0
 48
50.0
370
    -2
100
AcDbBlockReference
  2
_DOTSMALL
 10
8655.358912604885
 20
1466.844112873077
 30
0.0
 41
100.0
 42
100.0
 43
100.0
 50
270.0
  0
MTEXT
  5
1E792
330
1E763
100
AcDbEntity
  8
寸法
 62
     7
 48
50.0
100
AcDbMText
 10
8555.358912604885
 20
1566.844112873079
 30
0.0
 40
120.0
 41
0.0
 71
     5
 72
     1
  1
\A1;b
  7
STYLE1
 11
0.0000000000000001
 21
1.0
 31
0.0
 73
     1
 44
1.0
1001
ACAD
1000
MTEXTBEGIN
1070
    73
1070
     1
1070
    44
1040
1.0
1070
    74
1070
     0
1000
MTEXTEND
  0
POINT
  5
1E793
330
1E763
100
AcDbEntity
  8
DEFPOINTS
 62
     0
 48
50.0
100
AcDbPoint
 10
8433.145665141985
 20
1666.844112873079
 30
0.0
  0
POINT
  5
1E794
330
1E763
100
AcDbEntity
  8
DEFPOINTS
 62
     0
 48
50.0
100
AcDbPoint
 10
8452.594902036473
 20
1466.844112873077
 30
0.0
  0
POINT
  5
1E795
330
1E763
100
AcDbEntity
  8
DEFPOINTS
 62
     0
 48
50.0
100
AcDbPoint
 10
8655.358912604885
 20
1466.844112873077
 30
0.0
  0
ENDBLK
  5
1E76E
330
1E763
100
AcDbEntity
  8
0
 48
50.0
100
AcDbBlockEnd
  0
BLOCK
  5
1E779
330
1E76F
100
AcDbEntity
  8
0
 48
50.0
100
AcDbBlockBegin
  2
*D23
 70
     1
 10
0.0
 20
0.0
 30
0.0
  3
*D23
  1

  0
LINE
  5
1E796
330
1E76F
100
AcDbEntity
  8
寸法
 62
     0
 48
50.0
370
    -2
100
AcDbLine
 10
6439.539401023374
 20
1466.844112873077
 30
0.0
 11
6527.64773039739
 21
1466.844112873077
 31
0.0
  0
LINE
  5
1E797
330
1E76F
100
AcDbEntity
  8
寸法
 62
     0
 48
50.0
370
    -2
100
AcDbLine
 10
6499.539401023374
 20
966.8441128730774
 30
0.0
 11
6407.64773039739
 21
966.8441128730774
 31
0.0
  0
LINE
  5
1E798
330
1E76F
100
AcDbEntity
  8
寸法
 62
     0
 48
50.0
370
    -2
100
AcDbLine
 10
6467.64773039739
 20
1466.844112873077
 30
0.0
 11
6467.64773039739
 21
966.8441128730774
 31
0.0
  0
INSERT
  5
1E799
330
1E76F
100
AcDbEntity
  8
寸法
 62
     0
 48
50.0
370
    -2
100
AcDbBlockReference
  2
_DOTSMALL
 10
6467.64773039739
 20
1466.844112873077
 30
0.0
 41
100.0
 42
100.0
 43
100.0
 50
90.0
  0
INSERT
  5
1E79A
330
1E76F
100
AcDbEntity
  8
寸法
 62
     0
 48
50.0
370
    -2
100
AcDbBlockReference
  2
_DOTSMALL
 10
6467.64773039739
 20
966.8441128730774
 30
0.0
 41
100.0
 42
100.0
 43
100.0
 50
270.0
  0
MTEXT
  5
1E79B
330
1E76F
100
AcDbEntity
  8
寸法
 62
     7
 48
50.0
100
AcDbMText
 10
6261.635919373768
 20
1214.504488251543
 30
0.0
 40
120.0
 41
0.0
 71
     5
 72
     1
  1
\A1;200\P(250)
  7
STYLE1
 11
0.0000000000000001
 21
1.0
 31
0.0
 73
     1
 44
1.0
1001
ACAD
1000
MTEXTBEGIN
1070
    73
1070
     1
1070
    44
1040
1.0
1070
    74
1070
     0
1000
MTEXTEND
  0
POINT
  5
1E79C
330
1E76F
100
AcDbEntity
  8
DEFPOINTS
 62
     0
 48
50.0
100
AcDbPoint
 10
6419.539401023374
 20
1466.844112873077
 30
0.0
  0
POINT
  5
1E79D
330
1E76F
100
AcDbEntity
  8
DEFPOINTS
 62
     0
 48
50.0
100
AcDbPoint
 10
6519.539401023374
 20
966.8441128730774
 30
0.0
  0
POINT
  5
1E79E
330
1E76F
100
AcDbEntity
  8
DEFPOINTS
 62
     0
 48
50.0
100
AcDbPoint
 10
6467.64773039739
 20
966.8441128730774
 30
0.0
  0
ENDBLK
  5
1E77A
330
1E76F
100
AcDbEntity
  8
0
 48
50.0
100
AcDbBlockEnd
  0
ENDSEC
  0
SECTION
  2
ENTITIES
  0
LINE
  5
10B57
330
747D
100
AcDbEntity
  8
補助
  6
PHANTOM
 62
   230
 48
50.0
100
AcDbLine
 10
139.9999999999995
 20
11409.6
 30
0.0
 11
16307.2
 21
11409.6
 31
0.0
  0
LINE
  5
10B59
330
747D
100
AcDbEntity
  8
仕様書枠
  6
Continuous
 48
50.0
100
AcDbLine
 10
13107.2
 20
1200.0
 30
0.0
 11
13107.2
 21
-0.0000000000000729
 31
0.0
  0
LINE
  5
10B5C
330
747D
100
AcDbEntity
  8
仕様書枠
 48
50.0
100
AcDbLine
 10
16307.2
 20
1200.0
 30
0.0
 11
16307.2
 21
-0.0000000000000909
 31
0.0
  0
LINE
  5
10B5D
330
747D
100
AcDbEntity
  8
仕様書枠
 48
50.0
100
AcDbLine
 10
140.0
 20
0.0
 30
0.0
 11
16307.2
 21
-0.0000000000000909
 31
0.0
  0
LINE
  5
10B5E
330
747D
100
AcDbEntity
  8
補助
  6
PHANTOM
 62
   230
 48
50.0
100
AcDbLine
 10
16307.2
 20
11409.6
 30
0.0
 11
16307.2
 21
1200.0
 31
0.0
  0
LINE
  5
10B6C
330
747D
100
AcDbEntity
  8
仕様書枠
 48
50.0
100
AcDbLine
 10
13107.2
 20
1200.0
 30
0.0
 11
16307.2
 21
1200.0
 31
0.0
  0
LINE
  5
10B6D
330
747D
100
AcDbEntity
  8
補助
  6
PHANTOM
 62
   230
 48
50.0
100
AcDbLine
 10
13107.2
 20
11409.6
 30
0.0
 11
13107.2
 21
4800.0
 31
0.0
  0
LINE
  5
10B6F
330
747D
100
AcDbEntity
  8
補助
  6
PHANTOM
 62
   230
 48
50.0
100
AcDbLine
 10
13107.2
 20
4800.0
 30
0.0
 11
16307.2
 21
4800.0
 31
0.0
  0
LINE
  5
10B72
330
747D
100
AcDbEntity
  8
文字
 62
     7
 48
50.0
100
AcDbLine
 10
13187.2
 20
400.0
 30
0.0
 11
16227.2
 21
400.0
 31
0.0
  0
TEXT
  5
10B73
330
747D
100
AcDbEntity
  8
文字
 62
     7
 48
50.0
100
AcDbText
 10
13162.9790565769
 20
895.0906074299405
 30
0.0
 40
200.0
  1
基 礎 図
  7
STYLE2
100
AcDbText
  0
TEXT
  5
10B74
330
747D
100
AcDbEntity
  8
文字
 62
     7
 48
50.0
100
AcDbText
 10
13201.43669998441
 20
477.2740661031255
 30
0.0
 40
160.0
  1
機種名
  7
STYLE2
100
AcDbText
  0
TEXT
  5
10B79
330
747D
100
AcDbEntity
  8
文字
 62
     7
 48
50.0
100
AcDbText
 10
14524.131837222
 20
1031.557706291228
 30
0.0
 40
100.0
  1
NO.01      <縮尺> S=1/40
  7
STYLE2
100
AcDbText
  0
LINE
  5
10B7B
330
747D
100
AcDbEntity
  8
仕様書枠
 48
50.0
100
AcDbLine
 10
13107.2
 20
800.0
 30
0.0
 11
14251.2
 21
800.0
 31
0.0
  0
LINE
  5
10B88
330
747D
100
AcDbEntity
  8
仕様書枠
  6
Continuous
 48
50.0
100
AcDbLine
 10
14251.2
 20
1200.0
 30
0.0
 11
14251.2
 21
800.0
 31
0.0
  0
TEXT
  5
14DEF
330
747D
100
AcDbEntity
  8
文字
 62
     7
 48
50.0
100
AcDbText
 10
14641.2525855784
 20
871.1744590657925
 30
0.0
 40
100.0
  1
～一般型・多雪地型～
  7
STYLE2
100
AcDbText
  0
TEXT
  5
15A76
330
747D
100
AcDbEntity
  8
文字
 62
     7
 48
50.0
100
AcDbText
 10
14282.7249394876
 20
488.1241585855691
 30
0.0
 40
160.0
  1
NXP-25ST・HT
  7
STYLE2
100
AcDbText
  0
TEXT
  5
1C9B2
330
747D
100
AcDbEntity
  8
部品1
 48
50.0
100
AcDbText
 10
9487.367337153674
 20
5797.78838847741
 30
0.0
 40
80.0
  1
(a=50,b=60,c=80)
  7
STYLE1
100
AcDbText
  0
TEXT
  5
1C9B3
330
747D
100
AcDbEntity
  8
部品1
 48
50.0
100
AcDbText
 10
9373.667096427723
 20
5931.344914563354
 30
0.0
 40
80.0
  1
※a,b,cは屋根の出幅です。
  7
STYLE1
100
AcDbText
  0
MTEXT
  5
1C9B4
102
{ACAD_REACTORS
330
1C9B5
102
}
330
747D
100
AcDbEntity
  8
部品1
 62
     7
 48
50.0
100
AcDbMText
 10
10239.83718660449
 20
6143.01281476282
 30
0.0
 40
120.0
 41
0.0
 71
     6
 72
     1
  1
\A1;屋根の外寸
  7
STYLE1
 73
     1
 44
1.0
1001
ACAD
1000
MTEXTBEGIN
1070
    73
1070
     1
1070
    44
1040
1.0
1070
    74
1070
     0
1000
MTEXTEND
  0
LEADER
  5
1C9B5
330
747D
100
AcDbEntity
  8
寸法
 48
50.0
100
AcDbLeader
  3
INABA_S50G
 71
     0
 73
     0
 74
     0
 75
     1
 40
120.0
 41
672.0
 76
     3
 10
9169.6
 20
6438.030206722611
 30
0.0
 10
9417.837186604492
 20
6058.01281476282
 30
0.0
 10
9542.837186604492
 20
6058.01281476282
 30
0.0
340
1C9B4
1001
ACAD
1000
DSTYLE
1002
{
1070
   341
1005
1C530
1070
    40
1040
1.0
1070
   343
1005
1C530
1070
   344
1005
1C530
1002
}
  0
DIMENSION
  5
1C9B8
330
747D
100
AcDbEntity
  8
寸法
 48
50.0
100
AcDbDimension
  2
*D3
 10
9119.600000000001
 20
7264.41258767162
 30
0.0
 11
8223.600000000001
 21
7364.453400236424
 31
0.0
 70
    32
 71
     5
 42
1792.0
  3
INABA_S40G
100
AcDbAlignedDimension
 13
7327.600000000001
 23
6872.0
 33
0.0
 14
9119.600000000001
 24
6872.0
 34
0.0
100
AcDbRotatedDimension
1001
ACAD
1000
DSTYLE
1002
{
1070
   174
1070
     0
1070
   272
1070
     1
1070
   288
1070
     0
1070
   341
1005
0
1002
}
  0
LINE
  5
1C9BB
330
747D
100
AcDbEntity
  8
想像線
 48
10.0
100
AcDbLine
 10
9169.6
 20
5439.999999999996
 30
0.0
 11
7277.600000000001
 21
5440.0
 31
0.0
  0
LINE
  5
1C9BC
330
747D
100
AcDbEntity
  8
想像線
 48
10.0
100
AcDbLine
 10
7277.600000000001
 20
6952.0
 30
0.0
 11
9169.599999999999
 21
6952.000000000002
 31
0.0
  0
DIMENSION
  5
1CAB6
330
747D
100
AcDbEntity
  8
寸法
 48
50.0
100
AcDbDimension
  2
*D4
 10
6886.88811655075
 20
5440.0
 30
0.0
 11
6886.888116550749
 21
5470.000000000002
 31
0.0
 70
   160
  1
b
 71
     5
 42
60.0
  3
INABA_S40G
100
AcDbAlignedDimension
 13
7327.600000000001
 23
5500.0
 33
0.0
 14
7277.600000000001
 24
5440.0
 34
0.0
 50
90.0
100
AcDbRotatedDimension
1001
ACAD
1000
DSTYLE
1002
{
1070
   174
1070
     0
1070
   272
1070
     1
1070
   288
1070
     0
1070
   341
1005
0
1002
}
  0
DIMENSION
  5
1CAB7
330
747D
100
AcDbEntity
  8
寸法
 48
50.0
100
AcDbDimension
  2
*D5
 10
6886.88811655075
 20
5500.0
 30
0.0
 11
6786.876305527127
 21
6186.000000000002
 31
0.0
 70
    32
 71
     5
 42
1372.0
  3
INABA_S40G
100
AcDbAlignedDimension
 13
7327.600000000001
 23
6872.0
 33
0.0
 14
7327.600000000001
 24
5500.0
 34
0.0
 50
90.0
100
AcDbRotatedDimension
1001
ACAD
1000
DSTYLE
1002
{
1070
   174
1070
     0
1070
   272
1070
     1
1070
   288
1070
     0
1070
   341
1005
0
1002
}
  0
DIMENSION
  5
1CAB8
330
747D
100
AcDbEntity
  8
寸法
 48
50.0
100
AcDbDimension
  2
*D6
 10
6886.888116550752
 20
6872.0
 30
0.0
 11
6886.888116550749
 21
6912.000000000002
 31
0.0
 70
   160
  1
c
 71
     5
 42
80.0
  3
INABA_S40G
100
AcDbAlignedDimension
 13
7277.600000000001
 23
6952.0
 33
0.0
 14
7327.600000000001
 24
6872.0
 34
0.0
 50
90.0
100
AcDbRotatedDimension
1001
ACAD
1000
DSTYLE
1002
{
1070
   174
1070
     0
1070
   272
1070
     1
1070
   288
1070
     0
1070
   341
1005
0
1002
}
  0
LINE
  5
1CAB9
330
747D
100
AcDbEntity
  8
想像線
 48
10.0
100
AcDbLine
 10
7277.600000000001
 20
5440.0
 30
0.0
 11
7277.600000000001
 21
6952.0
 31
0.0
  0
LINE
  5
1CABA
330
747D
100
AcDbEntity
  8
部品1
 48
50.0
100
AcDbLine
 10
7717.6
 20
5500.000000000003
 30
0.0
 11
7327.600000000001
 21
5500.0
 31
0.0
  0
LINE
  5
1CABB
330
747D
100
AcDbEntity
  8
部品1
 48
50.0
100
AcDbLine
 10
7717.6
 20
5500.0
 30
0.0
 11
7327.600000000001
 21
5500.0
 31
0.0
  0
LINE
  5
1CABC
330
747D
100
AcDbEntity
  8
部品1
 48
50.0
100
AcDbLine
 10
7717.6
 20
5690.0
 30
0.0
 11
7327.600000000001
 21
5690.0
 31
0.0
  0
LINE
  5
1CAC0
330
747D
100
AcDbEntity
  8
部品1
 48
50.0
100
AcDbLine
 10
7327.600000000001
 20
5690.0
 30
0.0
 11
7327.600000000001
 21
5500.0
 31
0.0
  0
LINE
  5
1CAC2
330
747D
100
AcDbEntity
  8
部品1
 48
50.0
100
AcDbLine
 10
7717.6
 20
5690.0
 30
0.0
 11
7717.6
 21
5500.0
 31
0.0
  0
LINE
  5
1CAC3
330
747D
100
AcDbEntity
  8
部品1
 48
50.0
100
AcDbLine
 10
8318.600000000001
 20
5425.0
 30
0.0
 11
8128.6
 21
5425.0
 31
0.0
  0
LINE
  5
1CAC4
330
747D
100
AcDbEntity
  8
部品1
 48
50.0
100
AcDbLine
 10
8318.600000000001
 20
5615.0
 30
0.0
 11
8128.6
 21
5615.0
 31
0.0
  0
LINE
  5
1CAC5
330
747D
100
AcDbEntity
  8
部品1
 48
50.0
100
AcDbLine
 10
8128.6
 20
5425.000000000004
 30
0.0
 11
8128.6
 21
5615.000000000003
 31
0.0
  0
LINE
  5
1CAC6
330
747D
100
AcDbEntity
  8
部品1
 48
50.0
100
AcDbLine
 10
8318.600000000001
 20
5425.000000000004
 30
0.0
 11
8318.600000000001
 21
5615.000000000003
 31
0.0
  0
LINE
  5
1CAC7
330
747D
100
AcDbEntity
  8
部品1
 48
50.0
100
AcDbLine
 10
7717.6
 20
6872.0
 30
0.0
 11
7327.600000000001
 21
6872.0
 31
0.0
  0
LINE
  5
1CAC8
330
747D
100
AcDbEntity
  8
部品1
 48
50.0
100
AcDbLine
 10
7717.6
 20
6871.999999999997
 30
0.0
 11
7327.600000000001
 21
6872.0
 31
0.0
  0
LINE
  5
1CAC9
330
747D
100
AcDbEntity
  8
部品1
 48
50.0
100
AcDbLine
 10
7717.6
 20
6682.0
 30
0.0
 11
7327.600000000001
 21
6682.0
 31
0.0
  0
DIMENSION
  5
1CACA
330
747D
100
AcDbEntity
  8
寸法
 48
50.0
100
AcDbDimension
  2
*D7
 10
7327.600000000001
 20
7264.412587671623
 30
0.0
 11
7302.600000000001
 21
7264.412587671623
 31
0.0
 70
   160
  1
a
 71
     5
 42
50.0
  3
INABA_S40G
100
AcDbAlignedDimension
 13
7277.600000000001
 23
6952.0
 33
0.0
 14
7327.600000000001
 24
6872.0
 34
0.0
100
AcDbRotatedDimension
1001
ACAD
1000
DSTYLE
1002
{
1070
   174
1070
     0
1070
   272
1070
     1
1070
   288
1070
     0
1070
   341
1005
0
1002
}
  0
LINE
  5
1CACE
330
747D
100
AcDbEntity
  8
部品1
 48
50.0
100
AcDbLine
 10
7327.600000000001
 20
6682.0
 30
0.0
 11
7327.600000000001
 21
6872.0
 31
0.0
  0
LINE
  5
1CAD0
330
747D
100
AcDbEntity
  8
部品1
 48
50.0
100
AcDbLine
 10
7717.6
 20
6682.0
 30
0.0
 11
7717.6
 21
6872.0
 31
0.0
  0
LINE
  5
1CAD1
330
747D
100
AcDbEntity
  8
部品1
 48
50.0
100
AcDbLine
 10
8318.600000000001
 20
6872.0
 30
0.0
 11
8128.6
 21
6872.0
 31
0.0
  0
LINE
  5
1CAD2
330
747D
100
AcDbEntity
  8
部品1
 48
50.0
100
AcDbLine
 10
8318.600000000001
 20
6682.0
 30
0.0
 11
8128.6
 21
6682.0
 31
0.0
  0
LINE
  5
1CAD3
330
747D
100
AcDbEntity
  8
部品1
 48
50.0
100
AcDbLine
 10
8128.6
 20
6682.000000000003
 30
0.0
 11
8128.6
 21
6872.000000000004
 31
0.0
  0
LINE
  5
1CAD4
330
747D
100
AcDbEntity
  8
部品1
 48
50.0
100
AcDbLine
 10
8318.600000000001
 20
6682.000000000003
 30
0.0
 11
8318.600000000001
 21
6872.000000000004
 31
0.0
  0
TEXT
  5
1CCED
330
747D
100
AcDbEntity
  8
部品1
 48
50.0
100
AcDbText
 10
9628.951829250343
 20
7275.382350020533
 30
0.0
 40
120.0
  1
組立後
  7
STYLE1
100
AcDbText
  0
MTEXT
  5
1CCEE
102
{ACAD_REACTORS
330
1CCEF
102
}
330
747D
100
AcDbEntity
  8
部品1
 62
     7
 48
50.0
100
AcDbMText
 10
9620.827897155237
 20
7148.904761548457
 30
0.0
 40
120.0
 41
0.0
 71
     4
 72
     1
  1
現場打コンクリート
  7
STYLE1
 73
     1
 44
1.0
1001
ACAD
1000
MTEXTBEGIN
1070
    73
1070
     1
1070
    44
1040
1.0
1070
    74
1070
     0
1000
MTEXTEND
  0
LEADER
  5
1CCEF
330
747D
100
AcDbEntity
  8
寸法
 48
50.0
100
AcDbLeader
  3
INABA_S50G
 71
     0
 73
     0
 74
     0
 75
     1
 40
120.0
 41
1282.349242404918
 76
     3
 10
9214.440685572832
 20
6867.560823932315
 30
0.0
 10
9470.827897155237
 20
7063.904761548456
 30
0.0
 10
9595.827897155237
 20
7063.904761548456
 30
0.0
340
1CCEE
1001
ACAD
1000
DSTYLE
1002
{
1070
   341
1005
1C530
1070
    40
1040
1.0
1070
   343
1005
1C530
1070
   344
1005
1C530
1002
}
  0
LINE
  5
1CCF0
330
747D
100
AcDbEntity
  8
想像線
 48
10.0
100
AcDbLine
 10
9169.599999999999
 20
6952.000000000002
 30
0.0
 11
9169.600000000004
 21
5440.0
 31
0.0
  0
LINE
  5
1CCF3
330
747D
100
AcDbEntity
  8
部品1
 48
50.0
100
AcDbLine
 10
8729.600000000001
 20
5690.0
 30
0.0
 11
9119.600000000001
 21
5690.0
 31
0.0
  0
LINE
  5
1CCF4
330
747D
100
AcDbEntity
  8
部品1
 48
50.0
100
AcDbLine
 10
8729.600000000001
 20
5500.0
 30
0.0
 11
9119.600000000001
 21
5500.0
 31
0.0
  0
LINE
  5
1CCF5
330
747D
100
AcDbEntity
  8
部品1
 48
50.0
100
AcDbLine
 10
8729.600000000001
 20
5500.000000000003
 30
0.0
 11
9119.600000000001
 21
5500.0
 31
0.0
  0
LINE
  5
1CCF6
330
747D
100
AcDbEntity
  8
部品1
 48
50.0
100
AcDbLine
 10
8729.600000000001
 20
5690.0
 30
0.0
 11
8729.600000000001
 21
5500.0
 31
0.0
  0
LINE
  5
1CCFB
330
747D
100
AcDbEntity
  8
部品1
 48
50.0
100
AcDbLine
 10
9119.600000000001
 20
5690.0
 30
0.0
 11
9119.600000000001
 21
5500.0
 31
0.0
  0
DIMENSION
  5
1CCFC
330
747D
100
AcDbEntity
  8
寸法
 48
50.0
100
AcDbDimension
  2
*D2
 10
9169.6
 20
7264.412587671623
 30
0.0
 11
9144.600000000002
 21
7264.412587671623
 31
0.0
 70
   160
  1
a
 71
     5
 42
50.0
  3
INABA_S40G
100
AcDbAlignedDimension
 13
9119.600000000001
 23
6872.0
 33
0.0
 14
9169.6
 24
6952.000000000004
 34
0.0
100
AcDbRotatedDimension
1001
ACAD
1000
DSTYLE
1002
{
1070
   174
1070
     0
1070
   272
1070
     1
1070
   288
1070
     0
1070
   341
1005
0
1002
}
  0
LINE
  5
1CCFF
330
747D
100
AcDbEntity
  8
部品1
 48
50.0
100
AcDbLine
 10
8729.600000000001
 20
6871.999999999997
 30
0.0
 11
9119.600000000001
 21
6872.0
 31
0.0
  0
LINE
  5
1CD00
330
747D
100
AcDbEntity
  8
部品1
 48
50.0
100
AcDbLine
 10
8729.600000000001
 20
6872.0
 30
0.0
 11
9119.600000000001
 21
6872.0
 31
0.0
  0
LINE
  5
1CD01
330
747D
100
AcDbEntity
  8
部品1
 48
50.0
100
AcDbLine
 10
8729.600000000001
 20
6682.0
 30
0.0
 11
9119.600000000001
 21
6682.0
 31
0.0
  0
LINE
  5
1CD02
330
747D
100
AcDbEntity
  8
部品1
 48
50.0
100
AcDbLine
 10
8729.600000000001
 20
6682.0
 30
0.0
 11
8729.600000000001
 21
6872.0
 31
0.0
  0
LINE
  5
1CD04
330
747D
100
AcDbEntity
  8
部品1
 48
50.0
100
AcDbLine
 10
9119.600000000001
 20
6682.0
 30
0.0
 11
9119.600000000001
 21
6872.0
 31
0.0
  0
TEXT
  5
1D002
330
747D
100
AcDbEntity
  8
文字
 62
     7
 48
50.0
100
AcDbText
 10
13188.16259899338
 20
246.7109242801889
 30
0.0
 40
80.0
  1
※寒冷地等は地域の実情に合わせた基礎にして下さい。
  7
STYLE2
100
AcDbText
  0
TEXT
  5
1D6DB
330
747D
100
AcDbEntity
  8
部品1
 48
50.0
100
AcDbText
 10
8095.600000000001
 20
5281.533387806432
 30
0.0
 40
120.0
  1
扉面
  7
STYLE1
 72
     1
 11
8223.600000000001
 21
5265.533387806431
 31
0.0
100
AcDbText
 73
     1
  0
LINE
  5
1DD8C
330
747D
100
AcDbEntity
  8
部品1
 48
50.0
100
AcDbLine
 10
8318.600000000001
 20
6085.999999999996
 30
0.0
 11
8318.600000000001
 21
6285.999999999996
 31
0.0
  0
LINE
  5
1DD8D
330
747D
100
AcDbEntity
  8
部品1
 48
50.0
100
AcDbLine
 10
8128.6
 20
6086.0
 30
0.0
 11
8128.6
 21
6286.0
 31
0.0
  0
LINE
  5
1DD8E
330
747D
100
AcDbEntity
  8
部品1
 48
50.0
100
AcDbLine
 10
8318.600000000001
 20
6285.999999999996
 30
0.0
 11
8128.6
 21
6285.999999999996
 31
0.0
  0
LINE
  5
1DD8F
330
747D
100
AcDbEntity
  8
部品1
 48
50.0
100
AcDbLine
 10
8318.600000000001
 20
6085.999999999996
 30
0.0
 11
8128.6
 21
6085.999999999996
 31
0.0
  0
DIMENSION
  5
1DFBE
330
747D
100
AcDbEntity
  8
寸法
 48
50.0
100
AcDbDimension
  2
*D13
 10
9019.600000000002
 20
4926.16892615646
 30
0.0
 11
9119.600000000001
 21
4926.16892615646
 31
0.0
 70
   160
  1
<>\P(250)
 71
     5
 42
200.0
  3
INABA_S40G
100
AcDbAlignedDimension
 13
9219.600000000001
 23
5399.999999999992
 33
0.0
 14
9019.600000000002
 24
5399.999999999992
 34
0.0
100
AcDbRotatedDimension
1001
ACAD
1000
DSTYLE
1002
{
1070
   174
1070
     0
1070
   272
1070
     1
1070
   288
1070
     0
1070
   341
1005
0
1002
}
  0
DIMENSION
  5
1DFBF
330
747D
100
AcDbEntity
  8
寸法
 48
50.0
100
AcDbDimension
  2
*D12
 10
9737.840873485113
 20
5399.999999999992
 30
0.0
 11
9737.840873485112
 21
5499.999999999992
 31
0.0
 70
   160
  1
<>\P(250)
 71
     5
 42
200.0
  3
INABA_S40G
100
AcDbAlignedDimension
 13
9219.599999999998
 23
5599.999999999992
 33
0.0
 14
9219.600000000001
 24
5399.999999999992
 34
0.0
 50
90.0
100
AcDbRotatedDimension
1001
ACAD
1000
DSTYLE
1002
{
1070
   174
1070
     0
1070
   272
1070
     1
1070
   288
1070
     0
1070
   341
1005
0
1002
}
  0
LINE
  5
1DFC0
330
747D
100
AcDbEntity
  8
点線
 48
10.0
100
AcDbLine
 10
9019.600000000002
 20
5599.999999999993
 30
0.0
 11
9019.600000000002
 21
5399.999999999992
 31
0.0
  0
LINE
  5
1DFC1
330
747D
100
AcDbEntity
  8
点線
 48
10.0
100
AcDbLine
 10
9219.599999999998
 20
5599.999999999992
 30
0.0
 11
9219.600000000001
 21
5399.999999999992
 31
0.0
  0
LINE
  5
1DFC2
330
747D
100
AcDbEntity
  8
点線
 48
10.0
100
AcDbLine
 10
9019.600000000002
 20
5399.999999999992
 30
0.0
 11
9219.600000000001
 21
5399.999999999992
 31
0.0
  0
LINE
  5
1DFC3
330
747D
100
AcDbEntity
  8
点線
 48
10.0
100
AcDbLine
 10
9019.600000000002
 20
5599.999999999993
 30
0.0
 11
9219.599999999998
 21
5599.999999999992
 31
0.0
  0
LINE
  5
1DFC4
330
747D
100
AcDbEntity
  8
点線
 48
10.0
100
AcDbLine
 10
7227.600000000001
 20
5399.999999999992
 30
0.0
 11
7427.600000000001
 21
5399.999999999992
 31
0.0
  0
LINE
  5
1DFC5
330
747D
100
AcDbEntity
  8
点線
 48
10.0
100
AcDbLine
 10
7227.600000000001
 20
5599.999999999993
 30
0.0
 11
7227.600000000001
 21
5399.999999999992
 31
0.0
  0
LINE
  5
1DFC6
330
747D
100
AcDbEntity
  8
点線
 48
10.0
100
AcDbLine
 10
7227.600000000001
 20
5599.999999999993
 30
0.0
 11
7427.599999999998
 21
5599.999999999992
 31
0.0
  0
LINE
  5
1DFC7
330
747D
100
AcDbEntity
  8
点線
 48
10.0
100
AcDbLine
 10
7427.599999999998
 20
5599.999999999992
 30
0.0
 11
7427.600000000001
 21
5399.999999999992
 31
0.0
  0
LINE
  5
1DFF2
330
747D
100
AcDbEntity
  8
点線
 48
10.0
100
AcDbLine
 10
9019.600000000002
 20
6971.999999999997
 30
0.0
 11
9019.600000000002
 21
6771.999999999995
 31
0.0
  0
LINE
  5
1DFF3
330
747D
100
AcDbEntity
  8
点線
 48
10.0
100
AcDbLine
 10
9019.600000000002
 20
6771.999999999995
 30
0.0
 11
9219.600000000001
 21
6771.999999999995
 31
0.0
  0
LINE
  5
1DFF4
330
747D
100
AcDbEntity
  8
点線
 48
10.0
100
AcDbLine
 10
9019.600000000002
 20
6971.999999999997
 30
0.0
 11
9219.599999999998
 21
6971.999999999995
 31
0.0
  0
LINE
  5
1DFF5
330
747D
100
AcDbEntity
  8
点線
 48
10.0
100
AcDbLine
 10
9219.599999999998
 20
6971.999999999995
 30
0.0
 11
9219.600000000001
 21
6771.999999999995
 31
0.0
  0
LINE
  5
1DFF6
330
747D
100
AcDbEntity
  8
点線
 48
10.0
100
AcDbLine
 10
7227.600000000001
 20
6771.999999999995
 30
0.0
 11
7427.600000000001
 21
6771.999999999995
 31
0.0
  0
LINE
  5
1DFF7
330
747D
100
AcDbEntity
  8
点線
 48
10.0
100
AcDbLine
 10
7427.599999999998
 20
6971.999999999995
 30
0.0
 11
7427.600000000001
 21
6771.999999999995
 31
0.0
  0
LINE
  5
1DFF8
330
747D
100
AcDbEntity
  8
点線
 48
10.0
100
AcDbLine
 10
7227.600000000001
 20
6971.999999999997
 30
0.0
 11
7227.600000000001
 21
6771.999999999995
 31
0.0
  0
LINE
  5
1DFF9
330
747D
100
AcDbEntity
  8
点線
 48
10.0
100
AcDbLine
 10
7227.600000000001
 20
6971.999999999997
 30
0.0
 11
7427.599999999998
 21
6971.999999999995
 31
0.0
  0
TEXT
  5
1E1AE
330
747D
100
AcDbEntity
  8
文字
 48
50.0
100
AcDbText
 10
7728.552229389292
 20
6347.065264964509
 30
0.0
 40
120.0
  1
100x190x390
  7
STYLE1
100
AcDbText
  0
MTEXT
  5
1E1AF
102
{ACAD_REACTORS
330
1E1B0
102
}
330
747D
100
AcDbEntity
  8
部品1
 62
     7
 48
50.0
100
AcDbMText
 10
7867.493414253828
 20
6599.56386445813
 30
0.0
 40
120.0
 41
0.0
 71
     4
 72
     1
  1
\A1;C.B
  7
STYLE1
 73
     1
 44
1.0
1001
ACAD
1000
MTEXTBEGIN
1070
    73
1070
     1
1070
    44
1040
1.0
1070
    74
1070
     0
1000
MTEXTEND
  0
LEADER
  5
1E1B0
330
747D
100
AcDbEntity
  8
寸法
 48
50.0
100
AcDbLeader
  3
INABA_S50G
 71
     0
 73
     0
 74
     0
 75
     1
 40
120.0
 41
185.591883092037
 76
     3
 10
7649.116701030523
 20
6729.697007727209
 30
0.0
 10
7717.493414253827
 20
6514.563864458131
 30
0.0
 10
7842.493414253827
 20
6514.563864458131
 30
0.0
340
1E1AF
1001
ACAD
1000
DSTYLE
1002
{
1070
   341
1005
1C530
1070
    40
1040
1.0
1070
   343
1005
1C530
1070
   344
1005
1C530
1002
}
  0
TEXT
  5
1E2F3
330
747D
100
AcDbEntity
  8
文字
 48
50.0
100
AcDbText
 10
9651.8664264809
 20
6873.467714032333
 30
0.0
 40
120.0
  1
深サ:200(250)
  7
STYLE1
100
AcDbText
  0
LINE
  5
1E39E
102
{ACAD_REACTORS
330
1E3E1
102
}
330
747D
100
AcDbEntity
  8
想像線
 48
10.0
100
AcDbLine
 10
7356.6
 20
5425.0
 30
0.0
 11
9090.6
 21
5425.000000000004
 31
0.0
  0
HATCH
  5
1E39F
102
{ACAD_REACTORS
330
1E3E1
102
}
330
747D
100
AcDbEntity
  8
寸法
 48
50.0
100
AcDbHatch
 10
0.0
 20
0.0
 30
0.0
210
0.0
220
0.0
230
1.0
  2
DOTS
 70
     0
 71
     0
 91
        1
 92
        7
 72
     0
 73
     1
 93
        4
 10
9090.6
 20
5500.000000000003
 10
7356.600000000002
 20
5500.0
 10
7356.6
 20
5425.0
 10
9090.6
 20
5425.000000000004
 97
        0
 75
     0
 76
     1
 52
0.0
 41
10.0
 77
     0
 78
     1
 53
0.0
 43
246.2063843031492
 44
784.8721425423136
 45
7.9375
 46
15.875
 79
     2
 49
0.0
 49
-15.875
 47
3.549710751249138
 98
        1
 10
7975.003986455637
 20
5495.942190535872
  0
LINE
  5
1E3A0
102
{ACAD_REACTORS
330
1E3E1
102
}
330
747D
100
AcDbEntity
  8
想像線
 48
10.0
100
AcDbLine
 10
7356.6
 20
5425.0
 30
0.0
 11
7356.6
 21
5500.0
 31
0.0
  0
LINE
  5
1E3A1
102
{ACAD_REACTORS
330
1E3E1
102
}
330
747D
100
AcDbEntity
  8
想像線
 48
10.0
100
AcDbLine
 10
7356.6
 20
5500.0
 30
0.0
 11
9090.6
 21
5500.000000000003
 31
0.0
  0
LINE
  5
1E3A2
102
{ACAD_REACTORS
330
1E3E1
102
}
330
747D
100
AcDbEntity
  8
想像線
 48
10.0
100
AcDbLine
 10
9090.6
 20
5425.000000000004
 30
0.0
 11
9090.6
 21
5500.0
 31
0.0
  0
DIMENSION
  5
1E3BC
330
747D
100
AcDbEntity
  8
寸法
 48
50.0
100
AcDbDimension
  2
*D14
 10
7113.969776478647
 20
5499.999999999999
 30
0.0
 11
7113.969776478646
 21
4891.514718625761
 31
0.0
 70
   160
  1
扉の出<>
 71
     5
 42
74.99999999999818
  3
INABA_S40G
100
AcDbAlignedDimension
 13
7356.6
 23
5425.0
 33
0.0
 14
7290.543893583842
 24
5499.999999999999
 34
0.0
 50
90.0
100
AcDbRotatedDimension
1001
ACAD
1000
DSTYLE
1002
{
1070
   341
1005
0
1002
}
  0
TEXT
  5
1E5EC
330
747D
100
AcDbEntity
  8
部品1
100
AcDbText
 10
6173.380976809117
 20
728.174692388341
 30
0.0
 40
80.0
  1
a寸法：100～150mmに対応
  7
STYLE2
100
AcDbText
  0
TEXT
  5
1E5ED
330
747D
100
AcDbEntity
  8
部品1
100
AcDbText
 10
9290.785345987954
 20
704.7054048054006
 30
0.0
 40
80.0
  1
  が4本必要になります。
  7
STYLE2
100
AcDbText
  0
TEXT
  5
1E5EE
330
747D
100
AcDbEntity
  8
部品1
100
AcDbText
 10
9289.421709624319
 20
854.40237450237
 30
0.0
 40
80.0
  1
\U+203BオールアンカーM10(市販品)
  7
STYLE2
100
AcDbText
  0
TEXT
  5
1E5EF
330
747D
100
AcDbEntity
  8
部品1
100
AcDbText
 10
9285.330800533406
 20
1000.00843510843
 30
0.0
 40
80.0
  1
c寸法：135～175,190mmに対応
  7
STYLE2
100
AcDbText
  0
TEXT
  5
1E5F0
330
747D
100
AcDbEntity
  8
部品1
100
AcDbText
 10
7731.908046917862
 20
704.7054048054006
 30
0.0
 40
80.0
  1
  が4本必要になります。
  7
STYLE2
100
AcDbText
  0
TEXT
  5
1E5F1
330
747D
100
AcDbEntity
  8
部品1
100
AcDbText
 10
7730.544410554225
 20
854.40237450237
 30
0.0
 40
80.0
  1
\U+203BオールアンカーM10(市販品)
  7
STYLE2
100
AcDbText
  0
TEXT
  5
1E5F2
330
747D
100
AcDbEntity
  8
部品1
100
AcDbText
 10
7725.998956008773
 20
1000.00843510843
 30
0.0
 40
80.0
  1
b寸法：100～120mmに対応
  7
STYLE2
100
AcDbText
  0
DIMENSION
  5
1E5F3
330
747D
100
AcDbEntity
  8
寸法
 48
50.0
100
AcDbDimension
  2
*D20
 10
7067.610405383772
 20
1466.844112873077
 30
0.0
 11
6967.610405383772
 21
1566.844112873079
 31
0.0
 70
    32
  1
a
 71
     5
 42
200.0000000000009
  3
INABA_S40G
100
AcDbAlignedDimension
 13
6819.539401023378
 23
1666.844112873078
 33
0.0
 14
6819.539401023378
 24
1466.844112873077
 34
0.0
 50
90.0
100
AcDbRotatedDimension
1001
ACAD
1000
DSTYLE
1002
{
1070
   174
1070
     0
1070
   272
1070
     1
1070
   288
1070
     0
1070
   341
1005
0
1002
}
  0
LINE
  5
1E5F4
330
747D
100
AcDbEntity
  8
部品1
 48
50.0
100
AcDbLine
 10
10836.83169876017
 20
2926.083325261324
 30
0.0
 11
10836.83169876017
 21
526.0833252613228
 31
0.0
  0
TEXT
  5
1E5F5
330
747D
100
AcDbEntity
  8
部品1
100
AcDbText
 10
8398.176479605451
 20
2501.949374765964
 30
0.0
 40
120.0
  1
地盤がコンクリートの場合
  7
STYLE2
100
AcDbText
  0
LINE
  5
1E5F6
330
747D
100
AcDbEntity
  8
部品1
100
AcDbLine
 10
9884.927506749455
 20
1795.987706412525
 30
0.0
 11
9884.927506749455
 21
1780.444112873076
 31
0.0
  0
LINE
  5
1E5F7
330
747D
100
AcDbEntity
  8
部品1
100
AcDbLine
 10
9900.927506749454
 20
1795.987706412525
 30
0.0
 11
9900.927506749454
 21
1780.444112873076
 31
0.0
  0
LINE
  5
1E5F8
330
747D
100
AcDbEntity
  8
部品1
100
AcDbLine
 10
9932.927506749456
 20
1870.444112873079
 30
0.0
 11
9932.927506749456
 21
1767.08958186109
 31
0.0
  0
LINE
  5
1E5F9
330
747D
100
AcDbEntity
  8
部品1
100
AcDbLine
 10
9852.927506749455
 20
1870.444112873076
 30
0.0
 11
9852.927506749455
 21
1767.089581861084
 31
0.0
  0
ARC
  5
1E5FA
330
747D
100
AcDbEntity
  8
部品1
100
AcDbCircle
 10
9892.927506749455
 20
1780.444112873076
 30
0.0
 40
8.0
100
AcDbArc
 50
288.1948723386656
 51
0.0
  0
ARC
  5
1E5FB
330
747D
100
AcDbEntity
  8
部品1
100
AcDbCircle
 10
9892.927506749455
 20
1780.444112873076
 30
0.0
 40
8.0
100
AcDbArc
 50
180.0
 51
251.8051276613344
  0
ARC
  5
1E5FC
330
747D
100
AcDbEntity
  8
部品1
100
AcDbCircle
 10
9923.87344726921
 20
1762.844112873074
 30
0.0
 40
10.0
100
AcDbArc
 50
5.684241598176082
 51
90.0
  0
ARC
  5
1E5FD
330
747D
100
AcDbEntity
  8
部品1
100
AcDbCircle
 10
9861.981566229699
 20
1762.844112873077
 30
0.0
 40
10.0
100
AcDbArc
 50
90.0
 51
174.3157584018239
  0
LINE
  5
1E5FE
330
747D
100
AcDbEntity
  8
部品1
100
AcDbLine
 10
9861.981566229699
 20
1772.844112873077
 30
0.0
 11
9923.87344726921
 21
1772.844112873073
 31
0.0
  0
CIRCLE
  5
1E5FF
330
747D
100
AcDbEntity
  8
部品1
100
AcDbCircle
 10
9892.927506749455
 20
1710.444112873076
 30
0.0
 40
16.0
  0
LINE
  5
1E600
330
747D
100
AcDbEntity
  8
細線
100
AcDbLine
 10
9900.927506749454
 20
1750.844112873074
 30
0.0
 11
9900.927506749454
 21
1724.300519333628
 31
0.0
  0
LINE
  5
1E601
330
747D
100
AcDbEntity
  8
細線
100
AcDbLine
 10
9884.927506749455
 20
1750.844112873074
 30
0.0
 11
9884.927506749455
 21
1724.300519333628
 31
0.0
  0
LINE
  5
1E602
330
747D
100
AcDbEntity
  8
細線
100
AcDbLine
 10
9907.927506749455
 20
1686.844112873074
 30
0.0
 11
9907.927506749455
 21
1680.844112873074
 31
0.0
  0
LINE
  5
1E603
330
747D
100
AcDbEntity
  8
細線
100
AcDbLine
 10
9877.927506749456
 20
1686.844112873077
 30
0.0
 11
9877.927506749456
 21
1680.844112873077
 31
0.0
  0
LINE
  5
1E604
330
747D
100
AcDbEntity
  8
細線
100
AcDbLine
 10
9877.927506749456
 20
1686.844112873077
 30
0.0
 11
9907.927506749455
 21
1686.844112873077
 31
0.0
  0
LINE
  5
1E605
330
747D
100
AcDbEntity
  8
細線
100
AcDbLine
 10
9877.927506749456
 20
1680.844112873077
 30
0.0
 11
9907.927506749455
 21
1680.844112873077
 31
0.0
  0
ARC
  5
1E606
330
747D
100
AcDbEntity
  8
細線
100
AcDbCircle
 10
9892.927506749455
 20
1750.844112873074
 30
0.0
 40
8.0
100
AcDbArc
 50
0.0
 51
180.0
  0
CIRCLE
  5
1E607
330
747D
100
AcDbEntity
  8
細線
100
AcDbCircle
 10
9892.927506749455
 20
1850.444112873076
 30
0.0
 40
8.0
  0
CIRCLE
  5
1E608
330
747D
100
AcDbEntity
  8
部品1
100
AcDbCircle
 10
9892.927506749455
 20
1809.844112873077
 30
0.0
 40
16.0
  0
ARC
  5
1E609
330
747D
100
AcDbEntity
  8
部品1
100
AcDbCircle
 10
9892.927506749455
 20
1820.444112873076
 30
0.0
 40
8.0
100
AcDbArc
 50
28.00674301449114
 51
151.9932569855088
  0
ARC
  5
1E60A
330
747D
100
AcDbEntity
  8
部品1
100
AcDbCircle
 10
9922.927506749454
 20
1870.444112873079
 30
0.0
 40
10.0
100
AcDbArc
 50
0.0
 51
90.0
  0
ARC
  5
1E60B
330
747D
100
AcDbEntity
  8
部品1
100
AcDbCircle
 10
9862.927506749455
 20
1870.444112873076
 30
0.0
 40
10.0
100
AcDbArc
 50
90.0
 51
180.0
  0
LINE
  5
1E60C
330
747D
100
AcDbEntity
  8
部品1
100
AcDbLine
 10
9862.927506749455
 20
1880.444112873076
 30
0.0
 11
9922.927506749454
 21
1880.44411287308
 31
0.0
  0
LINE
  5
1E60D
330
747D
100
AcDbEntity
  8
細線
100
AcDbLine
 10
9844.848174678796
 20
1693.500047595331
 30
0.0
 11
9771.50410940105
 21
1766.844112873077
 31
0.0
  0
LINE
  5
1E60E
330
747D
100
AcDbEntity
  8
細線
100
AcDbLine
 10
9848.779312272432
 20
1731.995316872888
 30
0.0
 11
9813.930516272243
 21
1766.844112873077
 31
0.0
  0
LINE
  5
1E60F
330
747D
100
AcDbEntity
  8
部品1
100
AcDbLine
 10
9962.927506749455
 20
1478.844112873077
 30
0.0
 11
9962.927506749455
 21
1466.844112873077
 31
0.0
  0
LINE
  5
1E610
330
747D
100
AcDbEntity
  8
部品1
100
AcDbLine
 10
9902.927506749456
 20
1499.244112873079
 30
0.0
 11
9907.927506749455
 21
1499.244112873079
 31
0.0
  0
LINE
  5
1E611
330
747D
100
AcDbEntity
  8
部品1
100
AcDbLine
 10
9877.927506749456
 20
1533.244112873079
 30
0.0
 11
9907.927506749455
 21
1533.244112873079
 31
0.0
  0
LINE
  5
1E612
330
747D
100
AcDbEntity
  8
部品1
100
AcDbLine
 10
9877.927506749456
 20
1539.244112873079
 30
0.0
 11
9907.927506749455
 21
1539.244112873079
 31
0.0
  0
LINE
  5
1E613
330
747D
100
AcDbEntity
  8
部品1
100
AcDbLine
 10
9877.927506749456
 20
1539.244112873079
 30
0.0
 11
9877.927506749456
 21
1533.244112873079
 31
0.0
  0
LINE
  5
1E614
330
747D
100
AcDbEntity
  8
部品1
100
AcDbLine
 10
9907.927506749455
 20
1539.244112873075
 30
0.0
 11
9907.927506749455
 21
1533.244112873075
 31
0.0
  0
LINE
  5
1E615
330
747D
100
AcDbEntity
  8
部品1
100
AcDbLine
 10
9885.927506749455
 20
1531.097008896737
 30
0.0
 11
9899.927506749456
 21
1531.097008896737
 31
0.0
  0
LINE
  5
1E616
330
747D
100
AcDbEntity
  8
部品1
100
AcDbLine
 10
9882.927506749455
 20
1518.844112873077
 30
0.0
 11
9902.927506749456
 21
1518.844112873077
 31
0.0
  0
LINE
  5
1E617
330
747D
100
AcDbEntity
  8
部品1
100
AcDbLine
 10
9875.927506749455
 20
1497.844112873077
 30
0.0
 11
9872.927506749455
 21
1494.844112873077
 31
0.0
  0
LINE
  5
1E618
330
747D
100
AcDbEntity
  8
部品1
100
AcDbLine
 10
9875.927506749455
 20
1497.844112873077
 30
0.0
 11
9909.927506749454
 21
1497.844112873077
 31
0.0
  0
LINE
  5
1E619
330
747D
100
AcDbEntity
  8
部品1
100
AcDbLine
 10
9909.927506749454
 20
1497.844112873077
 30
0.0
 11
9912.927506749454
 21
1494.844112873077
 31
0.0
  0
LINE
  5
1E61A
330
747D
100
AcDbEntity
  8
部品1
100
AcDbLine
 10
9877.927506749456
 20
1499.244112873079
 30
0.0
 11
9877.927506749456
 21
1497.844112873077
 31
0.0
  0
LINE
  5
1E61B
330
747D
100
AcDbEntity
  8
部品1
100
AcDbLine
 10
9907.927506749455
 20
1499.244112873075
 30
0.0
 11
9907.927506749455
 21
1497.844112873077
 31
0.0
  0
LINE
  5
1E61C
330
747D
100
AcDbEntity
  8
部品1
100
AcDbLine
 10
9862.927506749455
 20
1481.844112873077
 30
0.0
 11
9922.927506749454
 21
1481.844112873081
 31
0.0
  0
LINE
  5
1E61D
330
747D
100
AcDbEntity
  8
部品1
100
AcDbLine
 10
9862.927506749455
 20
1478.844112873077
 30
0.0
 11
9862.927506749455
 21
1481.844112873077
 31
0.0
  0
LINE
  5
1E61E
330
747D
100
AcDbEntity
  8
部品1
100
AcDbLine
 10
9922.927506749454
 20
1478.844112873077
 30
0.0
 11
9922.927506749454
 21
1481.844112873084
 31
0.0
  0
LINE
  5
1E61F
330
747D
100
AcDbEntity
  8
部品1
100
AcDbLine
 10
9872.927506749455
 20
1481.844112873077
 30
0.0
 11
9872.927506749455
 21
1494.844112873077
 31
0.0
  0
LINE
  5
1E620
330
747D
100
AcDbEntity
  8
部品1
100
AcDbLine
 10
9882.927506749455
 20
1481.844112873077
 30
0.0
 11
9882.927506749455
 21
1518.844112873077
 31
0.0
  0
LINE
  5
1E621
330
747D
100
AcDbEntity
  8
部品1
100
AcDbLine
 10
9902.927506749456
 20
1481.844112873077
 30
0.0
 11
9902.927506749456
 21
1518.844112873077
 31
0.0
  0
LINE
  5
1E622
330
747D
100
AcDbEntity
  8
部品1
100
AcDbLine
 10
9912.927506749454
 20
1481.844112873081
 30
0.0
 11
9912.927506749454
 21
1494.844112873077
 31
0.0
  0
LINE
  5
1E623
330
747D
100
AcDbEntity
  8
部品1
100
AcDbLine
 10
9877.927506749456
 20
1499.244112873079
 30
0.0
 11
9882.927506749455
 21
1499.244112873079
 31
0.0
  0
LINE
  5
1E624
330
747D
100
AcDbEntity
  8
部品1
100
AcDbLine
 10
9902.927506749456
 20
1499.244112873079
 30
0.0
 11
9907.927506749455
 21
1499.244112873079
 31
0.0
  0
LINE
  5
1E625
330
747D
100
AcDbEntity
  8
部品1
100
AcDbLine
 10
9872.927506749455
 20
1494.844112873077
 30
0.0
 11
9912.927506749454
 21
1494.844112873077
 31
0.0
  0
ARC
  5
1E626
330
747D
100
AcDbEntity
  8
部品1
100
AcDbCircle
 10
9877.927506749456
 20
1490.329358082759
 30
0.0
 40
6.736691384996243
100
AcDbArc
 50
42.08048849858188
 51
137.9195115014181
  0
ARC
  5
1E627
330
747D
100
AcDbEntity
  8
部品1
100
AcDbCircle
 10
9907.927506749455
 20
1490.329358082759
 30
0.0
 40
6.736691384996243
100
AcDbArc
 50
42.08048849858188
 51
137.9195115014181
  0
ARC
  5
1E628
330
747D
100
AcDbEntity
  8
部品1
100
AcDbCircle
 10
9892.927506749455
 20
1473.75547965226
 30
0.0
 40
23.33946124318486
100
AcDbArc
 50
64.63020194521516
 51
115.3697980547848
  0
LINE
  5
1E629
330
747D
100
AcDbEntity
  8
部品1
100
AcDbLine
 10
9885.927506749455
 20
1527.097008896737
 30
0.0
 11
9899.927506749456
 21
1527.097008896737
 31
0.0
  0
LINE
  5
1E62A
330
747D
100
AcDbEntity
  8
部品1
100
AcDbLine
 10
9887.927506749456
 20
1518.844112873077
 30
0.0
 11
9887.927506749456
 21
1527.097008896737
 31
0.0
  0
LINE
  5
1E62B
330
747D
100
AcDbEntity
  8
部品1
100
AcDbLine
 10
9897.927506749454
 20
1518.844112873077
 30
0.0
 11
9897.927506749454
 21
1527.097008896737
 31
0.0
  0
LINE
  5
1E62C
330
747D
100
AcDbEntity
  8
部品1
100
AcDbLine
 10
9882.927506749455
 20
1466.844112873077
 30
0.0
 11
9882.927506749455
 21
1431.444112873076
 31
0.0
  0
LINE
  5
1E62D
330
747D
100
AcDbEntity
  8
部品1
100
AcDbLine
 10
9902.927506749456
 20
1466.844112873077
 30
0.0
 11
9902.927506749456
 21
1431.444112873076
 31
0.0
  0
LINE
  5
1E62E
330
747D
100
AcDbEntity
  8
部品1
100
AcDbLine
 10
9891.017006115918
 20
1431.444112873076
 30
0.0
 11
9894.838007382993
 21
1431.444112873076
 31
0.0
  0
LINE
  5
1E62F
330
747D
100
AcDbEntity
  8
部品1
100
AcDbLine
 10
9879.597634902197
 20
1409.244967224702
 30
0.0
 11
9887.509125725143
 21
1408.058243601263
 31
0.0
  0
LINE
  5
1E630
330
747D
100
AcDbEntity
  8
部品1
100
AcDbLine
 10
9880.487677619781
 20
1415.178585341913
 30
0.0
 11
9888.399168442722
 21
1413.991861718474
 31
0.0
  0
LINE
  5
1E631
330
747D
100
AcDbEntity
  8
部品1
100
AcDbLine
 10
9881.377720337356
 20
1421.112203459124
 30
0.0
 11
9889.289211160303
 21
1419.925479835681
 31
0.0
  0
LINE
  5
1E632
330
747D
100
AcDbEntity
  8
部品1
100
AcDbLine
 10
9882.26776305494
 20
1427.045821576332
 30
0.0
 11
9890.179253877885
 21
1425.859097952889
 31
0.0
  0
LINE
  5
1E633
330
747D
100
AcDbEntity
  8
部品1
100
AcDbLine
 10
9898.345887773768
 20
1408.058243601263
 30
0.0
 11
9906.257378596713
 21
1409.244967224702
 31
0.0
  0
LINE
  5
1E634
330
747D
100
AcDbEntity
  8
部品1
100
AcDbLine
 10
9897.455845056192
 20
1413.991861718474
 30
0.0
 11
9905.367335879137
 21
1415.178585341913
 31
0.0
  0
LINE
  5
1E635
330
747D
100
AcDbEntity
  8
部品1
100
AcDbLine
 10
9896.565802338608
 20
1419.925479835681
 30
0.0
 11
9904.477293161555
 21
1421.112203459124
 31
0.0
  0
LINE
  5
1E636
330
747D
100
AcDbEntity
  8
部品1
100
AcDbLine
 10
9895.675759621026
 20
1425.859097952889
 30
0.0
 11
9903.587250443971
 21
1427.045821576332
 31
0.0
  0
LINE
  5
1E637
330
747D
100
AcDbEntity
  8
部品1
100
AcDbLine
 10
9885.927506749455
 20
1527.097008896737
 30
0.0
 11
9885.927506749455
 21
1531.097008896737
 31
0.0
  0
LINE
  5
1E638
330
747D
100
AcDbEntity
  8
部品1
100
AcDbLine
 10
9899.927506749456
 20
1527.097008896737
 30
0.0
 11
9899.927506749456
 21
1531.097008896737
 31
0.0
  0
LINE
  5
1E639
330
747D
100
AcDbEntity
  8
部品1
100
AcDbLine
 10
9877.927506749456
 20
1497.844112873077
 30
0.0
 11
9907.927506749455
 21
1497.844112873077
 31
0.0
  0
LINE
  5
1E63A
330
747D
100
AcDbEntity
  8
部品1
100
AcDbLine
 10
9907.927506749455
 20
1499.244112873075
 30
0.0
 11
9907.927506749455
 21
1497.844112873077
 31
0.0
  0
LINE
  5
1E63B
330
747D
100
AcDbEntity
  8
部品1
100
AcDbLine
 10
9877.927506749456
 20
1499.244112873079
 30
0.0
 11
9877.927506749456
 21
1497.844112873074
 31
0.0
  0
LINE
  5
1E63C
330
747D
100
AcDbEntity
  8
部品1
100
AcDbLine
 10
9877.927506749456
 20
1499.244112873079
 30
0.0
 11
9882.927506749455
 21
1499.244112873079
 31
0.0
  0
LINE
  5
1E63D
330
747D
100
AcDbEntity
  8
部品1
100
AcDbLine
 10
9907.927506749455
 20
1539.244112873075
 30
0.0
 11
9907.927506749455
 21
1533.244112873075
 31
0.0
  0
LINE
  5
1E63E
330
747D
100
AcDbEntity
  8
部品1
100
AcDbLine
 10
9877.927506749456
 20
1539.244112873079
 30
0.0
 11
9877.927506749456
 21
1533.244112873079
 31
0.0
  0
LINE
  5
1E63F
330
747D
100
AcDbEntity
  8
部品1
100
AcDbLine
 10
9877.927506749456
 20
1539.244112873079
 30
0.0
 11
9907.927506749455
 21
1539.244112873079
 31
0.0
  0
LINE
  5
1E640
330
747D
100
AcDbEntity
  8
部品1
100
AcDbLine
 10
9877.927506749456
 20
1533.244112873079
 30
0.0
 11
9907.927506749455
 21
1533.244112873079
 31
0.0
  0
LINE
  5
1E641
330
747D
100
AcDbEntity
  8
部品1
100
AcDbLine
 10
9822.927506749454
 20
1478.844112873077
 30
0.0
 11
9822.927506749454
 21
1466.844112873077
 31
0.0
  0
LINE
  5
1E642
330
747D
100
AcDbEntity
  8
部品1
100
AcDbLine
 10
9876.927506749455
 20
1391.444112873076
 30
0.0
 11
9884.838997572401
 21
1390.257389249637
 31
0.0
  0
LINE
  5
1E643
330
747D
100
AcDbEntity
  8
部品1
100
AcDbLine
 10
9901.016015926508
 20
1390.257389249637
 30
0.0
 11
9908.927506749456
 21
1391.444112873076
 31
0.0
  0
LINE
  5
1E644
330
747D
100
AcDbEntity
  8
部品1
100
AcDbLine
 10
9877.817549467039
 20
1397.377730990287
 30
0.0
 11
9885.729040289984
 21
1396.191007366844
 31
0.0
  0
LINE
  5
1E645
330
747D
100
AcDbEntity
  8
部品1
100
AcDbLine
 10
9878.707592184614
 20
1403.311349107494
 30
0.0
 11
9886.619083007559
 21
1402.124625484051
 31
0.0
  0
LINE
  5
1E646
330
747D
100
AcDbEntity
  8
部品1
100
AcDbLine
 10
9900.125973208925
 20
1396.191007366844
 30
0.0
 11
9908.037464031876
 21
1397.377730990287
 31
0.0
  0
LINE
  5
1E647
330
747D
100
AcDbEntity
  8
部品1
100
AcDbLine
 10
9899.23593049135
 20
1402.124625484051
 30
0.0
 11
9907.147421314297
 21
1403.311349107494
 31
0.0
  0
LINE
  5
1E648
330
747D
100
AcDbEntity
  8
部品1
100
AcDbLine
 10
9882.927506749455
 20
1431.444112873076
 30
0.0
 11
9876.927506749455
 21
1391.444112873076
 31
0.0
  0
LINE
  5
1E649
330
747D
100
AcDbEntity
  8
部品1
100
AcDbLine
 10
9908.927506749456
 20
1391.444112873076
 30
0.0
 11
9902.927506749456
 21
1431.444112873076
 31
0.0
  0
LINE
  5
1E64A
330
747D
100
AcDbEntity
  8
部品1
100
AcDbLine
 10
9891.017006115918
 20
1431.444112873076
 30
0.0
 11
9884.838997572401
 21
1390.257389249637
 31
0.0
  0
LINE
  5
1E64B
330
747D
100
AcDbEntity
  8
部品1
100
AcDbLine
 10
9901.016015926508
 20
1390.257389249637
 30
0.0
 11
9894.838007382993
 21
1431.444112873076
 31
0.0
  0
LINE
  5
1E64C
330
747D
100
AcDbEntity
  8
部品1
100
AcDbLine
 10
9822.927506749454
 20
1466.844112873077
 30
0.0
 11
9962.927506749455
 21
1466.844112873077
 31
0.0
  0
LINE
  5
1E64D
330
747D
100
AcDbEntity
  8
部品1
100
AcDbLine
 10
9822.927506749454
 20
1478.844112873077
 30
0.0
 11
9962.927506749455
 21
1478.844112873077
 31
0.0
  0
LINE
  5
1E64E
330
747D
100
AcDbEntity
  8
部品1
100
AcDbLine
 10
9933.824275757526
 20
1763.834573571978
 30
0.0
 11
9962.927506749455
 21
1478.844112873077
 31
0.0
  0
LINE
  5
1E64F
330
747D
100
AcDbEntity
  8
部品1
100
AcDbLine
 10
9852.030737741387
 20
1763.834573571978
 30
0.0
 11
9822.927506749454
 21
1478.844112873077
 31
0.0
  0
DIMENSION
  5
1E650
330
747D
100
AcDbEntity
  8
寸法
 48
50.0
100
AcDbDimension
  2
*D21
 10
10135.67415237624
 20
1466.844112873077
 30
0.0
 11
10035.67415237624
 21
1616.844112873079
 31
0.0
 70
    32
  1
c
 71
     5
 42
300.0
  3
INABA_S40G
100
AcDbAlignedDimension
 13
9933.038598659123
 23
1766.844112873077
 33
0.0
 14
9962.927506749455
 24
1466.844112873077
 34
0.0
 50
90.0
100
AcDbRotatedDimension
1001
ACAD
1000
DSTYLE
1002
{
1070
   174
1070
     0
1070
   272
1070
     1
1070
   288
1070
     0
1070
   341
1005
0
1002
}
  0
LINE
  5
1E651
330
747D
100
AcDbEntity
  8
細線
 48
10.0
100
AcDbLine
 10
9920.492265040358
 20
1159.925915533793
 30
0.0
 11
10227.41046237963
 21
1466.844112873077
 31
0.0
  0
LINE
  5
1E652
330
747D
100
AcDbEntity
  8
細線
 48
10.0
100
AcDbLine
 10
9948.776536287818
 20
1159.925915533793
 30
0.0
 11
10255.69473362709
 21
1466.844112873077
 31
0.0
  0
LINE
  5
1E653
330
747D
100
AcDbEntity
  8
細線
 48
10.0
100
AcDbLine
 10
9977.060807535279
 20
1159.925915533793
 30
0.0
 11
10283.97900487456
 21
1466.844112873079
 31
0.0
  0
LINE
  5
1E654
330
747D
100
AcDbEntity
  8
細線
100
AcDbLine
 10
9618.955769441653
 20
1466.844112873077
 30
0.0
 11
9532.927506749455
 21
1552.872375565277
 31
0.0
  0
LINE
  5
1E655
330
747D
100
AcDbEntity
  8
細線
100
AcDbLine
 10
9661.382176312846
 20
1466.844112873077
 30
0.0
 11
9532.927506749455
 21
1595.29878243647
 31
0.0
  0
LINE
  5
1E656
330
747D
100
AcDbEntity
  8
部品1
100
AcDbLine
 10
9532.927506749455
 20
1466.844112873074
 30
0.0
 11
9532.927506749455
 21
1766.844112873077
 31
0.0
  0
LINE
  5
1E657
330
747D
100
AcDbEntity
  8
細線
 48
10.0
100
AcDbLine
 10
9310.130109950749
 20
1402.880538149849
 30
0.0
 11
9374.093684673972
 21
1466.844112873077
 31
0.0
  0
LINE
  5
1E658
330
747D
100
AcDbEntity
  8
細線
 48
10.0
100
AcDbLine
 10
9310.130109950749
 20
1374.596266902395
 30
0.0
 11
9402.377955921426
 21
1466.844112873077
 31
0.0
  0
LINE
  5
1E659
330
747D
100
AcDbEntity
  8
細線
 48
10.0
100
AcDbLine
 10
9310.130109950746
 20
1346.311995654936
 30
0.0
 11
9430.662227168879
 21
1466.844112873077
 31
0.0
  0
LINE
  5
1E65A
330
747D
100
AcDbEntity
  8
細線
 48
10.0
100
AcDbLine
 10
9550.402418682459
 20
1159.925915533793
 30
0.0
 11
9857.320616021718
 21
1466.844112873077
 31
0.0
  0
LINE
  5
1E65B
330
747D
100
AcDbEntity
  8
細線
 48
10.0
100
AcDbLine
 10
9522.118147434996
 20
1159.925915533793
 30
0.0
 11
9829.036344774266
 21
1466.844112873077
 31
0.0
  0
LINE
  5
1E65C
330
747D
100
AcDbEntity
  8
細線
 48
10.0
100
AcDbLine
 10
9493.833876187537
 20
1159.925915533793
 30
0.0
 11
9800.75207352681
 21
1466.844112873079
 31
0.0
  0
LINE
  5
1E65D
330
747D
100
AcDbEntity
  8
細線
100
AcDbLine
 10
9827.813245106375
 20
1526.687214059249
 30
0.0
 11
9587.656346292543
 21
1766.844112873077
 31
0.0
  0
LINE
  5
1E65E
330
747D
100
AcDbEntity
  8
細線
100
AcDbLine
 10
9823.882107512737
 20
1488.191944781692
 30
0.0
 11
9545.22993942135
 21
1766.844112873077
 31
0.0
  0
LINE
  5
1E65F
330
747D
100
AcDbEntity
  8
部品1
100
AcDbLine
 10
9310.130109950749
 20
1860.844112873079
 30
0.0
 11
9852.927506749459
 21
1860.844112873079
 31
0.0
  0
LINE
  5
1E660
330
747D
100
AcDbEntity
  8
部品1
100
AcDbLine
 10
9310.130109950749
 20
1866.844112873079
 30
0.0
 11
9822.927506749458
 21
1866.844112873079
 31
0.0
  0
LINE
  5
1E661
330
747D
100
AcDbEntity
  8
部品1
100
AcDbLine
 10
9310.130109950749
 20
1766.844112873078
 30
0.0
 11
9852.816414839791
 21
1766.844112873079
 31
0.0
  0
TEXT
  5
1E662
330
747D
100
AcDbEntity
  8
部品1
100
AcDbText
 10
8797.084105304849
 20
1474.750154551981
 30
0.0
 40
120.0
  1
▽G.L
  7
STYLE1
100
AcDbText
  0
LINE
  5
1E663
330
747D
100
AcDbEntity
  8
細線
 48
10.0
100
AcDbLine
 10
8718.104883372221
 20
1159.925915533793
 30
0.0
 11
9025.023080711495
 21
1466.844112873077
 31
0.0
  0
LINE
  5
1E664
330
747D
100
AcDbEntity
  8
細線
 48
10.0
100
AcDbLine
 10
8746.389154619681
 20
1159.925915533793
 30
0.0
 11
9053.307351958954
 21
1466.844112873077
 31
0.0
  0
LINE
  5
1E665
330
747D
100
AcDbEntity
  8
細線
 48
10.0
100
AcDbLine
 10
8774.673425867144
 20
1159.925915533793
 30
0.0
 11
9081.591623206421
 21
1466.844112873077
 31
0.0
  0
LINE
  5
1E666
330
747D
100
AcDbEntity
  8
細線
100
AcDbLine
 10
8397.594902036473
 20
1686.844112873074
 30
0.0
 11
8397.594902036473
 21
1680.844112873074
 31
0.0
  0
LINE
  5
1E667
330
747D
100
AcDbEntity
  8
細線
100
AcDbLine
 10
8367.594902036474
 20
1686.844112873079
 30
0.0
 11
8367.594902036474
 21
1680.844112873079
 31
0.0
  0
LINE
  5
1E668
330
747D
100
AcDbEntity
  8
細線
100
AcDbLine
 10
8367.594902036474
 20
1680.844112873079
 30
0.0
 11
8397.594902036473
 21
1680.844112873079
 31
0.0
  0
ARC
  5
1E669
330
747D
100
AcDbEntity
  8
部品1
100
AcDbCircle
 10
8413.540842556228
 20
1762.844112873075
 30
0.0
 40
10.0
100
AcDbArc
 50
5.684241598176082
 51
90.0
  0
LINE
  5
1E66A
330
747D
100
AcDbEntity
  8
部品1
100
AcDbLine
 10
8351.648961516717
 20
1772.844112873077
 30
0.0
 11
8413.540842556228
 21
1772.844112873076
 31
0.0
  0
ARC
  5
1E66B
330
747D
100
AcDbEntity
  8
細線
100
AcDbCircle
 10
8382.594902036473
 20
1750.844112873075
 30
0.0
 40
8.0
100
AcDbArc
 50
0.0
 51
180.0
  0
LINE
  5
1E66C
330
747D
100
AcDbEntity
  8
細線
100
AcDbLine
 10
8390.594902036474
 20
1750.844112873075
 30
0.0
 11
8390.594902036474
 21
1724.70051933363
 31
0.0
  0
LINE
  5
1E66D
330
747D
100
AcDbEntity
  8
細線
100
AcDbLine
 10
8374.594902036474
 20
1750.844112873075
 30
0.0
 11
8374.594902036474
 21
1724.70051933363
 31
0.0
  0
LINE
  5
1E66E
330
747D
100
AcDbEntity
  8
細線
100
AcDbLine
 10
8367.594902036474
 20
1686.844112873079
 30
0.0
 11
8397.594902036473
 21
1686.844112873079
 31
0.0
  0
CIRCLE
  5
1E66F
330
747D
100
AcDbEntity
  8
部品1
100
AcDbCircle
 10
8382.594902036473
 20
1710.844112873077
 30
0.0
 40
16.0
  0
ARC
  5
1E670
330
747D
100
AcDbEntity
  8
部品1
100
AcDbCircle
 10
8351.648961516717
 20
1762.844112873079
 30
0.0
 40
10.0
100
AcDbArc
 50
90.0
 51
174.3157584018239
  0
LINE
  5
1E671
330
747D
100
AcDbEntity
  8
部品1
100
AcDbLine
 10
8385.343154908044
 20
1425.859097952891
 30
0.0
 11
8393.254645730989
 21
1427.045821576333
 31
0.0
  0
LINE
  5
1E672
330
747D
100
AcDbEntity
  8
部品1
100
AcDbLine
 10
8386.233197625626
 20
1419.925479835681
 30
0.0
 11
8394.144688448573
 21
1421.112203459124
 31
0.0
  0
LINE
  5
1E673
330
747D
100
AcDbEntity
  8
部品1
100
AcDbLine
 10
8387.12324034321
 20
1413.991861718476
 30
0.0
 11
8395.034731166155
 21
1415.178585341915
 31
0.0
  0
LINE
  5
1E674
330
747D
100
AcDbEntity
  8
部品1
100
AcDbLine
 10
8388.013283060784
 20
1408.058243601263
 30
0.0
 11
8395.924773883733
 21
1409.244967224704
 31
0.0
  0
LINE
  5
1E675
330
747D
100
AcDbEntity
  8
部品1
100
AcDbLine
 10
8388.903325778368
 20
1402.124625484053
 30
0.0
 11
8396.814816601315
 21
1403.311349107496
 31
0.0
  0
LINE
  5
1E676
330
747D
100
AcDbEntity
  8
部品1
100
AcDbLine
 10
8389.793368495944
 20
1396.191007366844
 30
0.0
 11
8397.704859318897
 21
1397.377730990287
 31
0.0
  0
LINE
  5
1E677
330
747D
100
AcDbEntity
  8
部品1
100
AcDbLine
 10
8371.935158341958
 20
1427.045821576333
 30
0.0
 11
8379.846649164903
 21
1425.859097952891
 31
0.0
  0
LINE
  5
1E678
330
747D
100
AcDbEntity
  8
部品1
100
AcDbLine
 10
8371.045115624374
 20
1421.112203459124
 30
0.0
 11
8378.956606447321
 21
1419.925479835681
 31
0.0
  0
LINE
  5
1E679
330
747D
100
AcDbEntity
  8
部品1
100
AcDbLine
 10
8370.155072906799
 20
1415.178585341915
 30
0.0
 11
8378.066563729744
 21
1413.991861718476
 31
0.0
  0
LINE
  5
1E67A
330
747D
100
AcDbEntity
  8
部品1
100
AcDbLine
 10
8369.265030189216
 20
1409.244967224704
 30
0.0
 11
8377.176521012161
 21
1408.058243601263
 31
0.0
  0
LINE
  5
1E67B
330
747D
100
AcDbEntity
  8
部品1
100
AcDbLine
 10
8368.374987471632
 20
1403.311349107496
 30
0.0
 11
8376.286478294579
 21
1402.124625484053
 31
0.0
  0
LINE
  5
1E67C
330
747D
100
AcDbEntity
  8
部品1
100
AcDbLine
 10
8367.484944754057
 20
1397.377730990287
 30
0.0
 11
8375.396435577002
 21
1396.191007366844
 31
0.0
  0
LINE
  5
1E67D
330
747D
100
AcDbEntity
  8
部品1
100
AcDbLine
 10
8390.683411213528
 20
1390.257389249638
 30
0.0
 11
8398.594902036473
 21
1391.444112873078
 31
0.0
  0
LINE
  5
1E67E
330
747D
100
AcDbEntity
  8
部品1
100
AcDbLine
 10
8366.594902036473
 20
1391.444112873078
 30
0.0
 11
8374.506392859419
 21
1390.257389249638
 31
0.0
  0
LINE
  5
1E67F
330
747D
100
AcDbEntity
  8
部品1
100
AcDbLine
 10
8390.683411213528
 20
1390.257389249638
 30
0.0
 11
8384.505402670011
 21
1431.444112873078
 31
0.0
  0
LINE
  5
1E680
330
747D
100
AcDbEntity
  8
部品1
100
AcDbLine
 10
8380.684401402936
 20
1431.444112873078
 30
0.0
 11
8374.506392859419
 21
1390.257389249638
 31
0.0
  0
LINE
  5
1E681
330
747D
100
AcDbEntity
  8
部品1
100
AcDbLine
 10
8398.594902036473
 20
1391.444112873078
 30
0.0
 11
8392.594902036474
 21
1431.444112873078
 31
0.0
  0
LINE
  5
1E682
330
747D
100
AcDbEntity
  8
部品1
100
AcDbLine
 10
8372.594902036473
 20
1431.444112873078
 30
0.0
 11
8366.594902036473
 21
1391.444112873078
 31
0.0
  0
LINE
  5
1E683
330
747D
100
AcDbEntity
  8
部品1
100
AcDbLine
 10
8380.684401402936
 20
1431.444112873078
 30
0.0
 11
8384.505402670011
 21
1431.444112873078
 31
0.0
  0
LINE
  5
1E684
330
747D
100
AcDbEntity
  8
部品1
100
AcDbLine
 10
8392.594902036474
 20
1466.844112873077
 30
0.0
 11
8392.594902036474
 21
1431.444112873078
 31
0.0
  0
LINE
  5
1E685
330
747D
100
AcDbEntity
  8
部品1
100
AcDbLine
 10
8372.594902036473
 20
1466.844112873077
 30
0.0
 11
8372.594902036473
 21
1431.444112873078
 31
0.0
  0
LINE
  5
1E686
330
747D
100
AcDbEntity
  8
部品1
100
AcDbLine
 10
8375.594902036473
 20
1527.097008896739
 30
0.0
 11
8389.594902036474
 21
1527.097008896739
 31
0.0
  0
LINE
  5
1E687
330
747D
100
AcDbEntity
  8
部品1
100
AcDbLine
 10
8389.594902036474
 20
1527.097008896739
 30
0.0
 11
8389.594902036474
 21
1531.097008896739
 31
0.0
  0
LINE
  5
1E688
330
747D
100
AcDbEntity
  8
部品1
100
AcDbLine
 10
8375.594902036473
 20
1527.097008896739
 30
0.0
 11
8375.594902036473
 21
1531.097008896739
 31
0.0
  0
LINE
  5
1E689
330
747D
100
AcDbEntity
  8
部品1
100
AcDbLine
 10
8387.594902036473
 20
1518.844112873079
 30
0.0
 11
8387.594902036473
 21
1527.097008896739
 31
0.0
  0
LINE
  5
1E68A
330
747D
100
AcDbEntity
  8
部品1
100
AcDbLine
 10
8377.594902036474
 20
1518.844112873079
 30
0.0
 11
8377.594902036474
 21
1527.097008896739
 31
0.0
  0
LINE
  5
1E68B
330
747D
100
AcDbEntity
  8
部品1
100
AcDbLine
 10
8375.594902036473
 20
1531.097008896739
 30
0.0
 11
8389.594902036474
 21
1531.097008896739
 31
0.0
  0
ARC
  5
1E68C
330
747D
100
AcDbEntity
  8
部品1
100
AcDbCircle
 10
8382.594902036473
 20
1473.75547965226
 30
0.0
 40
23.33946124318486
100
AcDbArc
 50
64.63020194521516
 51
115.3697980547848
  0
ARC
  5
1E68D
330
747D
100
AcDbEntity
  8
部品1
100
AcDbCircle
 10
8397.594902036473
 20
1490.329358082761
 30
0.0
 40
6.736691384996243
100
AcDbArc
 50
42.08048849858188
 51
137.9195115014181
  0
ARC
  5
1E68E
330
747D
100
AcDbEntity
  8
部品1
100
AcDbCircle
 10
8367.594902036474
 20
1490.329358082761
 30
0.0
 40
6.736691384996243
100
AcDbArc
 50
42.08048849858188
 51
137.9195115014181
  0
LINE
  5
1E68F
330
747D
100
AcDbEntity
  8
部品1
100
AcDbLine
 10
8362.594902036473
 20
1494.844112873079
 30
0.0
 11
8402.594902036474
 21
1494.844112873079
 31
0.0
  0
LINE
  5
1E690
330
747D
100
AcDbEntity
  8
部品1
100
AcDbLine
 10
8392.594902036474
 20
1499.24411287308
 30
0.0
 11
8397.594902036473
 21
1499.24411287308
 31
0.0
  0
LINE
  5
1E691
330
747D
100
AcDbEntity
  8
部品1
100
AcDbLine
 10
8412.594902036472
 20
1478.844112873077
 30
0.0
 11
8412.594902036472
 21
1481.844112873086
 31
0.0
  0
LINE
  5
1E692
330
747D
100
AcDbEntity
  8
部品1
100
AcDbLine
 10
8352.594902036473
 20
1478.844112873077
 30
0.0
 11
8352.594902036473
 21
1481.844112873077
 31
0.0
  0
LINE
  5
1E693
330
747D
100
AcDbEntity
  8
部品1
100
AcDbLine
 10
8399.594902036474
 20
1497.844112873079
 30
0.0
 11
8402.594902036474
 21
1494.844112873079
 31
0.0
  0
LINE
  5
1E694
330
747D
100
AcDbEntity
  8
部品1
100
AcDbLine
 10
8365.594902036473
 20
1497.844112873079
 30
0.0
 11
8362.594902036473
 21
1494.844112873079
 31
0.0
  0
LINE
  5
1E695
330
747D
100
AcDbEntity
  8
部品1
100
AcDbLine
 10
8402.594902036474
 20
1481.844112873083
 30
0.0
 11
8402.594902036474
 21
1494.844112873079
 31
0.0
  0
LINE
  5
1E696
330
747D
100
AcDbEntity
  8
部品1
100
AcDbLine
 10
8362.594902036473
 20
1481.844112873077
 30
0.0
 11
8362.594902036473
 21
1494.844112873079
 31
0.0
  0
LINE
  5
1E697
330
747D
100
AcDbEntity
  8
部品1
100
AcDbLine
 10
8365.594902036473
 20
1497.844112873079
 30
0.0
 11
8399.594902036474
 21
1497.844112873079
 31
0.0
  0
LINE
  5
1E698
330
747D
100
AcDbEntity
  8
部品1
100
AcDbLine
 10
8392.594902036474
 20
1481.844112873077
 30
0.0
 11
8392.594902036474
 21
1518.844112873079
 31
0.0
  0
LINE
  5
1E699
330
747D
100
AcDbEntity
  8
部品1
100
AcDbLine
 10
8372.594902036473
 20
1481.844112873077
 30
0.0
 11
8372.594902036473
 21
1518.844112873079
 31
0.0
  0
LINE
  5
1E69A
330
747D
100
AcDbEntity
  8
部品1
100
AcDbLine
 10
8372.594902036473
 20
1518.844112873079
 30
0.0
 11
8392.594902036474
 21
1518.844112873079
 31
0.0
  0
LINE
  5
1E69B
330
747D
100
AcDbEntity
  8
部品1
100
AcDbLine
 10
8352.594902036473
 20
1481.844112873077
 30
0.0
 11
8412.594902036472
 21
1481.844112873083
 31
0.0
  0
LINE
  5
1E69C
330
747D
100
AcDbEntity
  8
部品1
100
AcDbLine
 10
8397.594902036473
 20
1499.244112873075
 30
0.0
 11
8397.594902036473
 21
1497.844112873079
 31
0.0
  0
LINE
  5
1E69D
330
747D
100
AcDbEntity
  8
部品1
100
AcDbLine
 10
8397.594902036473
 20
1539.244112873077
 30
0.0
 11
8397.594902036473
 21
1533.244112873077
 31
0.0
  0
LINE
  5
1E69E
330
747D
100
AcDbEntity
  8
部品1
100
AcDbLine
 10
8452.594902036473
 20
1478.844112873077
 30
0.0
 11
8452.594902036473
 21
1466.844112873077
 31
0.0
  0
LINE
  5
1E69F
330
747D
100
AcDbEntity
  8
部品1
100
AcDbLine
 10
8367.594902036474
 20
1499.24411287308
 30
0.0
 11
8367.594902036474
 21
1497.844112873079
 31
0.0
  0
LINE
  5
1E6A0
330
747D
100
AcDbEntity
  8
部品1
100
AcDbLine
 10
8367.594902036474
 20
1539.24411287308
 30
0.0
 11
8367.594902036474
 21
1533.24411287308
 31
0.0
  0
LINE
  5
1E6A1
330
747D
100
AcDbEntity
  8
部品1
100
AcDbLine
 10
8367.594902036474
 20
1499.24411287308
 30
0.0
 11
8372.594902036473
 21
1499.24411287308
 31
0.0
  0
LINE
  5
1E6A2
330
747D
100
AcDbEntity
  8
部品1
100
AcDbLine
 10
8367.594902036474
 20
1539.24411287308
 30
0.0
 11
8397.594902036473
 21
1539.24411287308
 31
0.0
  0
LINE
  5
1E6A3
330
747D
100
AcDbEntity
  8
部品1
100
AcDbLine
 10
8367.594902036474
 20
1533.24411287308
 30
0.0
 11
8397.594902036473
 21
1533.24411287308
 31
0.0
  0
LINE
  5
1E6A4
330
747D
100
AcDbEntity
  8
部品1
100
AcDbLine
 10
8312.594902036472
 20
1478.844112873077
 30
0.0
 11
8312.594902036472
 21
1466.844112873077
 31
0.0
  0
LINE
  5
1E6A5
330
747D
100
AcDbEntity
  8
部品1
100
AcDbLine
 10
8312.594902036472
 20
1466.844112873077
 30
0.0
 11
8452.594902036473
 21
1466.844112873077
 31
0.0
  0
LINE
  5
1E6A6
330
747D
100
AcDbEntity
  8
部品1
100
AcDbLine
 10
8312.594902036472
 20
1478.844112873077
 30
0.0
 11
8452.594902036473
 21
1478.844112873077
 31
0.0
  0
LINE
  5
1E6A7
330
747D
100
AcDbEntity
  8
部品1
100
AcDbLine
 10
8341.698133028407
 20
1763.834573571979
 30
0.0
 11
8312.594902036472
 21
1478.844112873077
 31
0.0
  0
LINE
  5
1E6A8
330
747D
100
AcDbEntity
  8
部品1
100
AcDbLine
 10
8423.491671044549
 20
1763.834573571979
 30
0.0
 11
8452.594902036473
 21
1478.844112873077
 31
0.0
  0
LINE
  5
1E6A9
330
747D
100
AcDbEntity
  8
細線
100
AcDbLine
 10
8317.480640393393
 20
1526.687214059249
 30
0.0
 11
8177.323741579561
 21
1666.844112873077
 31
0.0
  0
LINE
  5
1E6AA
330
747D
100
AcDbEntity
  8
細線
100
AcDbLine
 10
8313.549502799755
 20
1488.191944781692
 30
0.0
 11
8134.897334708368
 21
1666.844112873077
 31
0.0
  0
LINE
  5
1E6AB
330
747D
100
AcDbEntity
  8
細線
 48
10.0
100
AcDbLine
 10
7707.340468792883
 20
1400.852396265487
 30
0.0
 11
7773.332185400469
 21
1466.844112873077
 31
0.0
  0
LINE
  5
1E6AC
330
747D
100
AcDbEntity
  8
細線
 48
10.0
100
AcDbLine
 10
7707.340468792883
 20
1372.568125018028
 30
0.0
 11
7801.616456647922
 21
1466.844112873077
 31
0.0
  0
LINE
  5
1E6AD
330
747D
100
AcDbEntity
  8
細線
 48
10.0
100
AcDbLine
 10
7707.34046879288
 20
1429.136667512943
 30
0.0
 11
7745.047914153018
 21
1466.844112873077
 31
0.0
  0
LINE
  5
1E6AE
330
747D
100
AcDbEntity
  8
部品1
100
AcDbLine
 10
8022.594902036473
 20
1466.844112873077
 30
0.0
 11
8022.594902036473
 21
1666.844112873079
 31
0.0
  0
LINE
  5
1E6AF
330
747D
100
AcDbEntity
  8
細線
100
AcDbLine
 10
8151.049571599864
 20
1466.844112873077
 30
0.0
 11
8022.594902036473
 21
1595.29878243647
 31
0.0
  0
LINE
  5
1E6B0
330
747D
100
AcDbEntity
  8
細線
100
AcDbLine
 10
8108.623164728671
 20
1466.844112873077
 30
0.0
 11
8022.594902036473
 21
1552.872375565277
 31
0.0
  0
LINE
  5
1E6B1
330
747D
100
AcDbEntity
  8
部品1
100
AcDbLine
 10
7707.34046879288
 20
1760.844112873081
 30
0.0
 11
8341.392747127839
 21
1760.844112873081
 31
0.0
  0
LINE
  5
1E6B2
330
747D
100
AcDbEntity
  8
部品1
100
AcDbLine
 10
7707.34046879288
 20
1766.844112873081
 30
0.0
 11
8312.594902036478
 21
1766.844112873079
 31
0.0
  0
LINE
  5
1E6B3
330
747D
100
AcDbEntity
  8
部品1
100
AcDbLine
 10
7707.34046879288
 20
1666.844112873079
 30
0.0
 11
8331.793465430719
 21
1666.844112873079
 31
0.0
  0
LINE
  5
1E6B4
330
747D
100
AcDbEntity
  8
細線
 48
10.0
100
AcDbLine
 10
7921.356648161503
 20
1159.925915533793
 30
0.0
 11
8228.274845500761
 21
1466.844112873077
 31
0.0
  0
LINE
  5
1E6B5
330
747D
100
AcDbEntity
  8
細線
 48
10.0
100
AcDbLine
 10
7864.788105666578
 20
1159.925915533793
 30
0.0
 11
8171.706303005853
 21
1466.844112873077
 31
0.0
  0
LINE
  5
1E6B6
330
747D
100
AcDbEntity
  8
細線
 48
10.0
100
AcDbLine
 10
7893.07237691404
 20
1159.925915533793
 30
0.0
 11
8199.990574253311
 21
1466.844112873077
 31
0.0
  0
LINE
  5
1E6B7
330
747D
100
AcDbEntity
  8
Ｇ．Ｌ
100
AcDbLine
 10
7707.340468792883
 20
1466.844112873077
 30
0.0
 11
9171.375707557166
 21
1466.844112873077
 31
0.0
  0
DIMENSION
  5
1E6B8
330
747D
100
AcDbEntity
  8
寸法
 48
50.0
100
AcDbDimension
  2
*D22
 10
8655.358912604885
 20
1466.844112873077
 30
0.0
 11
8555.358912604885
 21
1566.844112873079
 31
0.0
 70
    32
  1
b
 71
     5
 42
200.0000000000018
  3
INABA_S40G
100
AcDbAlignedDimension
 13
8433.145665141985
 23
1666.844112873079
 33
0.0
 14
8452.594902036473
 24
1466.844112873077
 34
0.0
 50
90.0
100
AcDbRotatedDimension
1001
ACAD
1000
DSTYLE
1002
{
1070
   174
1070
     0
1070
   272
1070
     1
1070
   288
1070
     0
1070
   341
1005
0
1002
}
  0
LINE
  5
1E6B9
330
747D
100
AcDbEntity
  8
細線
 48
10.0
100
AcDbLine
 10
8348.015037014326
 20
1159.925915533793
 30
0.0
 11
8654.933234353602
 21
1466.844112873077
 31
0.0
  0
LINE
  5
1E6BA
330
747D
100
AcDbEntity
  8
細線
 48
10.0
100
AcDbLine
 10
8291.446494519403
 20
1159.925915533793
 30
0.0
 11
8598.364691858677
 21
1466.844112873077
 31
0.0
  0
LINE
  5
1E6BB
330
747D
100
AcDbEntity
  8
細線
 48
10.0
100
AcDbLine
 10
8319.730765766863
 20
1159.925915533793
 30
0.0
 11
8626.648963106136
 21
1466.844112873077
 31
0.0
  0
LINE
  5
1E6BC
330
747D
100
AcDbEntity
  8
部品1
 48
50.0
100
AcDbLine
 10
9236.831698760175
 20
2446.083325261323
 30
0.0
 11
9236.831698760175
 21
526.0833252613228
 31
0.0
  0
LINE
  5
1E6BD
330
747D
100
AcDbEntity
  8
部品1
100
AcDbLine
 10
8422.594902036477
 20
2266.844112873077
 30
0.0
 11
8422.594902036481
 21
1767.089581861084
 31
0.0
  0
LINE
  5
1E6BE
330
747D
100
AcDbEntity
  8
細線
 48
50.0
100
AcDbLine
 10
7877.594902036474
 20
2266.844112873077
 30
0.0
 11
7877.594902036474
 21
1766.844112873079
 31
0.0
  0
LINE
  5
1E6BF
330
747D
100
AcDbEntity
  8
細線
 48
50.0
100
AcDbLine
 10
7907.594902036473
 20
2266.844112873077
 30
0.0
 11
7907.594902036473
 21
1766.844112873079
 31
0.0
  0
LINE
  5
1E6C0
330
747D
100
AcDbEntity
  8
細線
 48
50.0
100
AcDbLine
 10
8157.594902036473
 20
2266.844112873077
 30
0.0
 11
8157.594902036473
 21
1766.844112873079
 31
0.0
  0
LINE
  5
1E6C1
330
747D
100
AcDbEntity
  8
細線
 48
50.0
100
AcDbLine
 10
8187.594902036472
 20
2266.844112873077
 30
0.0
 11
8187.594902036472
 21
1766.844112873079
 31
0.0
  0
LINE
  5
1E6C2
330
747D
100
AcDbEntity
  8
部品1
100
AcDbLine
 10
8312.594902036478
 20
2266.844112873077
 30
0.0
 11
8312.594902036481
 21
1760.844112873081
 31
0.0
  0
LINE
  5
1E6C3
330
747D
100
AcDbEntity
  8
細線
 48
50.0
100
AcDbLine
 10
9697.927506749454
 20
2366.844112873076
 30
0.0
 11
9697.927506749454
 21
1866.844112873079
 31
0.0
  0
LINE
  5
1E6C4
330
747D
100
AcDbEntity
  8
細線
 48
50.0
100
AcDbLine
 10
9667.927506749455
 20
2366.844112873076
 30
0.0
 11
9667.927506749455
 21
1866.844112873079
 31
0.0
  0
LINE
  5
1E6C5
330
747D
100
AcDbEntity
  8
細線
 48
50.0
100
AcDbLine
 10
9417.927506749455
 20
2366.844112873076
 30
0.0
 11
9417.927506749455
 21
1866.844112873079
 31
0.0
  0
LINE
  5
1E6C6
330
747D
100
AcDbEntity
  8
細線
 48
50.0
100
AcDbLine
 10
9387.927506749454
 20
2366.844112873076
 30
0.0
 11
9387.927506749454
 21
1866.844112873079
 31
0.0
  0
LINE
  5
1E6C7
330
747D
100
AcDbEntity
  8
部品1
100
AcDbLine
 10
9932.927506749457
 20
2366.844112873076
 30
0.0
 11
9932.927506749463
 21
1867.089581861084
 31
0.0
  0
LINE
  5
1E6C8
330
747D
100
AcDbEntity
  8
部品1
100
AcDbLine
 10
9822.927506749458
 20
2366.844112873076
 30
0.0
 11
9822.927506749463
 21
1860.844112873079
 31
0.0
  0
LINE
  5
1E6C9
330
747D
100
AcDbEntity
  8
Ｇ．Ｌ
100
AcDbLine
 10
9310.130109950749
 20
1466.844112873077
 30
0.0
 11
10755.02181195589
 21
1466.844112873077
 31
0.0
  0
LINE
  5
1E6CA
330
747D
100
AcDbEntity
  8
細線
 48
10.0
100
AcDbLine
 10
10347.15065389318
 20
1159.925915533793
 30
0.0
 11
10654.06885123246
 21
1466.844112873077
 31
0.0
  0
LINE
  5
1E6CB
330
747D
100
AcDbEntity
  8
細線
 48
10.0
100
AcDbLine
 10
10375.43492514063
 20
1159.925915533793
 30
0.0
 11
10682.35312247991
 21
1466.844112873077
 31
0.0
  0
LINE
  5
1E6CC
330
747D
100
AcDbEntity
  8
細線
 48
10.0
100
AcDbLine
 10
10403.7191963881
 20
1159.925915533793
 30
0.0
 11
10710.63739372738
 21
1466.844112873077
 31
0.0
  0
TEXT
  5
1E6CD
330
747D
100
AcDbEntity
  8
部品1
100
AcDbText
 10
10382.99774140124
 20
1474.750154551981
 30
0.0
 40
120.0
  1
▽G.L
  7
STYLE1
100
AcDbText
  0
TEXT
  5
1E6CE
330
747D
100
AcDbEntity
  8
部品1
100
AcDbText
 10
6248.985060198744
 20
2504.368441602527
 30
0.0
 40
120.0
  1
地盤が土の場合
  7
STYLE2
100
AcDbText
  0
LINE
  5
1E6CF
330
747D
100
AcDbEntity
  8
部品1
 48
50.0
100
AcDbLine
 10
7019.539401023374
 20
1466.844112873077
 30
0.0
 11
7019.539401023374
 21
966.8441128730792
 31
0.0
  0
CIRCLE
  5
1E6D0
330
747D
100
AcDbEntity
  8
部品1
100
AcDbCircle
 10
6779.539401023374
 20
1710.844112873077
 30
0.0
 40
16.0
  0
ARC
  5
1E6D1
330
747D
100
AcDbEntity
  8
部品1
100
AcDbCircle
 10
6809.539401023375
 20
1730.844112873077
 30
0.0
 40
10.0
100
AcDbArc
 50
0.0
 51
90.0
  0
LINE
  5
1E6D2
330
747D
100
AcDbEntity
  8
細線
100
AcDbLine
 10
6787.539401023375
 20
1680.844112873077
 30
0.0
 11
6787.539401023375
 21
1640.844112873077
 31
0.0
  0
LINE
  5
1E6D3
330
747D
100
AcDbEntity
  8
細線
100
AcDbLine
 10
6771.539401023374
 20
1680.844112873077
 30
0.0
 11
6771.539401023374
 21
1640.844112873077
 31
0.0
  0
ARC
  5
1E6D4
330
747D
100
AcDbEntity
  8
細線
100
AcDbCircle
 10
6779.539401023374
 20
1640.844112873077
 30
0.0
 40
8.0
100
AcDbArc
 50
180.0
 51
0.0
  0
ARC
  5
1E6D5
330
747D
100
AcDbEntity
  8
細線
100
AcDbCircle
 10
6779.539401023374
 20
1680.844112873077
 30
0.0
 40
8.0
100
AcDbArc
 50
0.0
 51
180.0
  0
ARC
  5
1E6D6
330
747D
100
AcDbEntity
  8
部品1
100
AcDbCircle
 10
6749.539401023374
 20
1730.844112873077
 30
0.0
 40
10.0
100
AcDbArc
 50
90.0
 51
180.0
  0
LINE
  5
1E6D7
330
747D
100
AcDbEntity
  8
部品1
100
AcDbLine
 10
6749.539401023374
 20
1740.844112873077
 30
0.0
 11
6809.539401023375
 21
1740.844112873077
 31
0.0
  0
LINE
  5
1E6D8
330
747D
100
AcDbEntity
  8
細線
100
AcDbLine
 10
6771.539401023374
 20
1401.987706412526
 30
0.0
 11
6771.539401023374
 21
1376.244112873073
 31
0.0
  0
LINE
  5
1E6D9
330
747D
100
AcDbEntity
  8
細線
100
AcDbLine
 10
6787.539401023375
 20
1401.987706412526
 30
0.0
 11
6787.539401023375
 21
1376.244112873073
 31
0.0
  0
LINE
  5
1E6DA
330
747D
100
AcDbEntity
  8
細線
100
AcDbLine
 10
6793.539401023373
 20
1346.244112873079
 30
0.0
 11
6794.539401023374
 21
1346.244112873075
 31
0.0
  0
LINE
  5
1E6DB
330
747D
100
AcDbEntity
  8
細線
100
AcDbLine
 10
6794.539401023374
 20
1352.244112873073
 30
0.0
 11
6794.539401023374
 21
1346.244112873073
 31
0.0
  0
ARC
  5
1E6DC
330
747D
100
AcDbEntity
  8
細線
100
AcDbCircle
 10
6787.416295397759
 20
1338.244112873071
 30
0.0
 40
4.0
100
AcDbArc
 50
270.0
 51
345.9637565320416
  0
LINE
  5
1E6DD
330
747D
100
AcDbEntity
  8
細線
100
AcDbLine
 10
6793.539401023373
 20
1346.244112873073
 30
0.0
 11
6791.296865398336
 21
1337.273970372924
 31
0.0
  0
LINE
  5
1E6DE
330
747D
100
AcDbEntity
  8
細線
100
AcDbLine
 10
6793.539401023373
 20
1350.844112873074
 30
0.0
 11
6793.539401023373
 21
1346.244112873075
 31
0.0
  0
ARC
  5
1E6DF
330
747D
100
AcDbEntity
  8
細線
100
AcDbCircle
 10
6771.662506648997
 20
1338.244112873069
 30
0.0
 40
4.0
100
AcDbArc
 50
194.0362434679583
 51
270.0
  0
LINE
  5
1E6E0
330
747D
100
AcDbEntity
  8
細線
100
AcDbLine
 10
6765.539401023374
 20
1346.244112873073
 30
0.0
 11
6767.781936648413
 21
1337.273970372924
 31
0.0
  0
LINE
  5
1E6E1
330
747D
100
AcDbEntity
  8
細線
100
AcDbLine
 10
6765.539401023374
 20
1350.844112873072
 30
0.0
 11
6765.539401023374
 21
1346.244112873075
 31
0.0
  0
LINE
  5
1E6E2
330
747D
100
AcDbEntity
  8
細線
100
AcDbLine
 10
6771.662506648997
 20
1334.244112873068
 30
0.0
 11
6787.416295397759
 21
1334.244112873073
 31
0.0
  0
LINE
  5
1E6E3
330
747D
100
AcDbEntity
  8
細線
100
AcDbLine
 10
6764.539401023374
 20
1350.844112873072
 30
0.0
 11
6794.539401023374
 21
1350.844112873077
 31
0.0
  0
LINE
  5
1E6E4
330
747D
100
AcDbEntity
  8
細線
100
AcDbLine
 10
6764.539401023374
 20
1352.244112873079
 30
0.0
 11
6764.539401023374
 21
1346.244112873075
 31
0.0
  0
ARC
  5
1E6E5
330
747D
100
AcDbEntity
  8
細線
100
AcDbCircle
 10
6779.539401023374
 20
1376.244112873073
 30
0.0
 40
8.0
100
AcDbArc
 50
180.0
 51
0.0
  0
LINE
  5
1E6E6
330
747D
100
AcDbEntity
  8
細線
100
AcDbLine
 10
6764.539401023374
 20
1352.244112873079
 30
0.0
 11
6794.539401023374
 21
1352.244112873075
 31
0.0
  0
LINE
  5
1E6E7
330
747D
100
AcDbEntity
  8
細線
100
AcDbLine
 10
6764.539401023374
 20
1346.244112873079
 30
0.0
 11
6765.539401023374
 21
1346.244112873079
 31
0.0
  0
CIRCLE
  5
1E6E8
330
747D
100
AcDbEntity
  8
細線
100
AcDbCircle
 10
6779.539401023374
 20
1415.844112873077
 30
0.0
 40
16.0
  0
CIRCLE
  5
1E6E9
330
747D
100
AcDbEntity
  8
細線
100
AcDbCircle
 10
6779.539401023374
 20
1570.844112873079
 30
0.0
 40
7.0
  0
CIRCLE
  5
1E6EA
330
747D
100
AcDbEntity
  8
細線
100
AcDbCircle
 10
6779.539401023374
 20
1570.844112873079
 30
0.0
 40
6.0
  0
ARC
  5
1E6EB
330
747D
100
AcDbEntity
  8
部品1
100
AcDbCircle
 10
6810.485341543129
 20
1428.244112873071
 30
0.0
 40
10.0
100
AcDbArc
 50
5.684241598176082
 51
90.0
  0
LINE
  5
1E6EC
330
747D
100
AcDbEntity
  8
細線
  6
HIDDEN
 48
10.0
100
AcDbLine
 10
6820.086846680261
 20
1431.038947233395
 30
0.0
 11
6855.892012319944
 21
1466.844112873079
 31
0.0
  0
LINE
  5
1E6ED
330
747D
100
AcDbEntity
  8
細線
  6
HIDDEN
 48
10.0
100
AcDbLine
 10
6819.539401023374
 20
1458.775772823965
 30
0.0
 11
6827.607741072488
 21
1466.844112873077
 31
0.0
  0
ARC
  5
1E6EE
330
747D
100
AcDbEntity
  8
部品1
100
AcDbCircle
 10
6748.593460503617
 20
1428.244112873075
 30
0.0
 40
10.0
100
AcDbArc
 50
90.0
 51
174.3157584018239
  0
LINE
  5
1E6EF
330
747D
100
AcDbEntity
  8
部品1
100
AcDbLine
 10
6748.593460503617
 20
1438.244112873077
 30
0.0
 11
6810.485341543129
 21
1438.244112873072
 31
0.0
  0
LINE
  5
1E6F0
330
747D
100
AcDbEntity
  8
部品1
100
AcDbLine
 10
6739.539401023375
 20
1730.844112873077
 30
0.0
 11
6739.539401023375
 21
1432.489581861086
 31
0.0
  0
LINE
  5
1E6F1
330
747D
100
AcDbEntity
  8
部品1
100
AcDbLine
 10
6819.539401023374
 20
1729.844112873077
 30
0.0
 11
6819.539401023378
 21
1432.489581861086
 31
0.0
  0
LINE
  5
1E6F2
330
747D
100
AcDbEntity
  8
細線
100
AcDbLine
 10
6739.539401023375
 20
1501.572952416165
 30
0.0
 11
6574.268240566462
 21
1666.844112873077
 31
0.0
  0
LINE
  5
1E6F3
330
747D
100
AcDbEntity
  8
細線
100
AcDbLine
 10
6505.567663715573
 20
1466.844112873077
 30
0.0
 11
6419.539401023374
 21
1552.872375565277
 31
0.0
  0
LINE
  5
1E6F4
330
747D
100
AcDbEntity
  8
部品1
100
AcDbLine
 10
6419.539401023374
 20
1466.844112873077
 30
0.0
 11
6419.539401023374
 21
1666.844112873077
 31
0.0
  0
LINE
  5
1E6F5
330
747D
100
AcDbEntity
  8
細線
100
AcDbLine
 10
6731.841833695269
 20
1466.844112873077
 30
0.0
 11
6531.841833695269
 21
1666.844112873077
 31
0.0
  0
LINE
  5
1E6F6
330
747D
100
AcDbEntity
  8
細線
100
AcDbLine
 10
6547.994070586764
 20
1466.844112873077
 30
0.0
 11
6419.539401023374
 21
1595.29878243647
 31
0.0
  0
LINE
  5
1E6F7
330
747D
100
AcDbEntity
  8
部品1
100
AcDbLine
 10
6849.539401023374
 20
1144.244112873077
 30
0.0
 11
6849.539401023374
 21
1132.244112873077
 31
0.0
  0
LINE
  5
1E6F8
330
747D
100
AcDbEntity
  8
細線
100
AcDbLine
 10
6794.539401023374
 20
1202.244112873071
 30
0.0
 11
6794.539401023374
 21
1196.244112873071
 31
0.0
  0
LINE
  5
1E6F9
330
747D
100
AcDbEntity
  8
細線
100
AcDbLine
 10
6794.539401023374
 20
1162.244112873073
 30
0.0
 11
6794.539401023374
 21
1156.244112873073
 31
0.0
  0
LINE
  5
1E6FA
330
747D
100
AcDbEntity
  8
細線
100
AcDbLine
 10
6764.539401023374
 20
1202.24411287308
 30
0.0
 11
6764.539401023374
 21
1196.244112873075
 31
0.0
  0
LINE
  5
1E6FB
330
747D
100
AcDbEntity
  8
細線
100
AcDbLine
 10
6764.539401023374
 20
1162.244112873079
 30
0.0
 11
6764.539401023374
 21
1156.244112873075
 31
0.0
  0
LINE
  5
1E6FC
330
747D
100
AcDbEntity
  8
細線
100
AcDbLine
 10
6764.539401023374
 20
1196.24411287308
 30
0.0
 11
6794.539401023374
 21
1196.244112873075
 31
0.0
  0
LINE
  5
1E6FD
330
747D
100
AcDbEntity
  8
細線
100
AcDbLine
 10
6764.539401023374
 20
1202.24411287308
 30
0.0
 11
6794.539401023374
 21
1202.244112873075
 31
0.0
  0
LINE
  5
1E6FE
330
747D
100
AcDbEntity
  8
細線
100
AcDbLine
 10
6764.539401023374
 20
1162.244112873079
 30
0.0
 11
6794.539401023374
 21
1162.244112873075
 31
0.0
  0
LINE
  5
1E6FF
330
747D
100
AcDbEntity
  8
細線
100
AcDbLine
 10
6764.539401023374
 20
1156.244112873079
 30
0.0
 11
6794.539401023374
 21
1156.244112873075
 31
0.0
  0
LINE
  5
1E700
330
747D
100
AcDbEntity
  8
部品1
100
AcDbLine
 10
6709.539401023374
 20
1144.244112873075
 30
0.0
 11
6709.539401023374
 21
1132.244112873077
 31
0.0
  0
LINE
  5
1E701
330
747D
100
AcDbEntity
  8
部品1
100
AcDbLine
 10
6709.539401023374
 20
1132.244112873077
 30
0.0
 11
6849.539401023374
 21
1132.244112873077
 31
0.0
  0
LINE
  5
1E702
330
747D
100
AcDbEntity
  8
部品1
100
AcDbLine
 10
6709.539401023374
 20
1144.244112873077
 30
0.0
 11
6849.539401023374
 21
1144.244112873077
 31
0.0
  0
LINE
  5
1E703
330
747D
100
AcDbEntity
  8
部品1
100
AcDbLine
 10
6820.436170031449
 20
1429.234573571979
 30
0.0
 11
6849.539401023374
 21
1144.244112873077
 31
0.0
  0
LINE
  5
1E704
330
747D
100
AcDbEntity
  8
部品1
100
AcDbLine
 10
6738.642632015306
 20
1429.234573571979
 30
0.0
 11
6709.539401023374
 21
1144.244112873077
 31
0.0
  0
LINE
  5
1E705
330
747D
100
AcDbEntity
  8
細線
  6
HIDDEN
 48
10.0
100
AcDbLine
 10
6519.539401023374
 20
1130.491501576485
 30
0.0
 11
6729.584826779998
 21
1340.536927333131
 31
0.0
  0
LINE
  5
1E706
330
747D
100
AcDbEntity
  8
細線
  6
HIDDEN
 48
10.0
100
AcDbLine
 10
6519.539401023374
 20
1187.06004407141
 30
0.0
 11
6736.01862717321
 21
1403.539270221254
 31
0.0
  0
LINE
  5
1E707
330
747D
100
AcDbEntity
  8
細線
  6
HIDDEN
 48
10.0
100
AcDbLine
 10
6519.539401023374
 20
1158.77577282395
 30
0.0
 11
6732.801726976608
 21
1372.038098777195
 31
0.0
  0
LINE
  5
1E708
330
747D
100
AcDbEntity
  8
部品1
 48
50.0
100
AcDbLine
 10
6519.539401023374
 20
966.8441128730774
 30
0.0
 11
6519.539401023374
 21
1466.844112873077
 31
0.0
  0
LINE
  5
1E709
330
747D
100
AcDbEntity
  8
Ｇ．Ｌ
100
AcDbLine
 10
6819.539401023374
 20
1466.844112873077
 30
0.0
 11
7571.635643261712
 21
1466.844112873077
 31
0.0
  0
LINE
  5
1E70A
330
747D
100
AcDbEntity
  8
細線
  6
HIDDEN
 48
10.0
100
AcDbLine
 10
6782.550401172791
 20
966.8441128730774
 30
0.0
 11
7019.539401023374
 21
1203.833112723665
 31
0.0
  0
LINE
  5
1E70B
330
747D
100
AcDbEntity
  8
細線
  6
HIDDEN
 48
10.0
100
AcDbLine
 10
6725.981858677873
 20
966.8441128730774
 30
0.0
 11
7019.539401023374
 21
1260.401655218589
 31
0.0
  0
LINE
  5
1E70C
330
747D
100
AcDbEntity
  8
細線
  6
HIDDEN
 48
10.0
100
AcDbLine
 10
6754.266129925333
 20
966.8441128730774
 30
0.0
 11
7019.539401023374
 21
1232.117383971128
 31
0.0
  0
TEXT
  5
1E70D
330
747D
100
AcDbEntity
  8
部品1
100
AcDbText
 10
7204.102948092985
 20
1474.750154551981
 30
0.0
 40
120.0
  1
▽G.L
  7
STYLE1
100
AcDbText
  0
LINE
  5
1E70E
330
747D
100
AcDbEntity
  8
部品1
 48
50.0
100
AcDbLine
 10
7019.539401023374
 20
966.8441128730792
 30
0.0
 11
6519.539401023374
 21
966.8441128730774
 31
0.0
  0
LINE
  5
1E70F
330
747D
100
AcDbEntity
  8
細線
100
AcDbLine
 10
5288.50036857751
 20
1366.844112873077
 30
0.0
 11
5275.102908955954
 21
1316.844112873079
 31
0.0
  0
LINE
  5
1E710
330
747D
100
AcDbEntity
  8
細線
100
AcDbLine
 10
5388.500368577513
 20
1366.844112873077
 30
0.0
 11
5375.102908955954
 21
1316.844112873079
 31
0.0
  0
LINE
  5
1E711
330
747D
100
AcDbEntity
  8
細線
100
AcDbLine
 10
5260.602479042429
 20
1366.844112873077
 30
0.0
 11
5360.602479042426
 21
1466.844112873079
 31
0.0
  0
LINE
  5
1E712
330
747D
100
AcDbEntity
  8
細線
100
AcDbLine
 10
5288.886750289888
 20
1366.844112873077
 30
0.0
 11
5388.886750289888
 21
1466.844112873079
 31
0.0
  0
LINE
  5
1E713
330
747D
100
AcDbEntity
  8
部品1
100
AcDbLine
 10
5361.705449334398
 20
1666.844112873077
 30
0.0
 11
5361.705449334398
 21
1466.844112873079
 31
0.0
  0
TEXT
  5
1E714
330
747D
100
AcDbEntity
  8
部品1
100
AcDbText
 10
5584.958075201829
 20
1474.750154551982
 30
0.0
 40
120.0
  1
▽G.L
  7
STYLE1
100
AcDbText
  0
LINE
  5
1E715
330
747D
100
AcDbEntity
  8
細線
100
AcDbLine
 10
5301.89782819907
 20
1216.844112873077
 30
0.0
 11
5288.50036857751
 21
1166.844112873077
 31
0.0
  0
LINE
  5
1E716
330
747D
100
AcDbEntity
  8
細線
100
AcDbLine
 10
5401.897828199065
 20
1216.844112873077
 30
0.0
 11
5388.500368577513
 21
1166.844112873077
 31
0.0
  0
LINE
  5
1E717
330
747D
100
AcDbEntity
  8
部品1
100
AcDbLine
 10
5461.705449334399
 20
1466.844112873079
 30
0.0
 11
5461.705449334399
 21
1166.844112873077
 31
0.0
  0
LINE
  5
1E718
330
747D
100
AcDbEntity
  8
細線
100
AcDbLine
 10
5261.705449334402
 20
1366.844112873077
 30
0.0
 11
5315.295287820621
 21
1166.844112873073
 31
0.0
  0
LINE
  5
1E719
330
747D
100
AcDbEntity
  8
細線
100
AcDbLine
 10
5361.705449334398
 20
1366.844112873077
 30
0.0
 11
5415.295287820621
 21
1166.844112873077
 31
0.0
  0
LINE
  5
1E71A
330
747D
100
AcDbEntity
  8
部品1
100
AcDbLine
 10
6104.28496777978
 20
1766.844112873079
 30
0.0
 11
6709.539401023374
 21
1766.844112873077
 31
0.0
  0
LINE
  5
1E71B
330
747D
100
AcDbEntity
  8
部品1
100
AcDbLine
 10
6104.28496777978
 20
1666.844112873077
 30
0.0
 11
6739.539401023375
 21
1666.844112873077
 31
0.0
  0
LINE
  5
1E71C
330
747D
100
AcDbEntity
  8
Ｇ．Ｌ
100
AcDbLine
 10
6104.28496777978
 20
1466.844112873077
 30
0.0
 11
6739.539401023375
 21
1466.844112873077
 31
0.0
  0
DIMENSION
  5
1E71D
330
747D
100
AcDbEntity
  8
寸法
 48
50.0
100
AcDbDimension
  2
*D23
 10
6467.64773039739
 20
966.8441128730774
 30
0.0
 11
6467.64773039739
 21
1214.504488251543
 31
0.0
 70
   160
  1
200\P(250)
 71
     5
 42
499.9999999999999
  3
INABA_S40G
100
AcDbAlignedDimension
 13
6419.539401023374
 23
1466.844112873077
 33
0.0
 14
6519.539401023374
 24
966.8441128730774
 34
0.0
 50
90.0
100
AcDbRotatedDimension
1001
ACAD
1000
DSTYLE
1002
{
1070
   174
1070
     0
1070
   272
1070
     1
1070
   288
1070
     0
1070
   341
1005
0
1002
}
  0
LINE
  5
1E71E
330
747D
100
AcDbEntity
  8
部品1
100
AcDbLine
 10
6104.28496777978
 20
1760.844112873077
 30
0.0
 11
6819.539401023374
 21
1760.844112873077
 31
0.0
  0
LINE
  5
1E71F
330
747D
100
AcDbEntity
  8
部品1
100
AcDbLine
 10
6709.539401023374
 20
2266.844112873076
 30
0.0
 11
6709.539401023377
 21
1760.844112873079
 31
0.0
  0
LINE
  5
1E720
330
747D
100
AcDbEntity
  8
部品1
100
AcDbLine
 10
6819.539401023374
 20
2266.844112873076
 30
0.0
 11
6819.539401023374
 21
1466.844112873077
 31
0.0
  0
LINE
  5
1E721
330
747D
100
AcDbEntity
  8
部品1
 48
50.0
100
AcDbLine
 10
6036.831698760174
 20
2926.083325261323
 30
0.0
 11
6036.831698760174
 21
526.0833252613228
 31
0.0
  0
LINE
  5
1E722
330
747D
100
AcDbEntity
  8
部品1
 48
50.0
100
AcDbLine
 10
7636.831698760174
 20
2686.083325261323
 30
0.0
 11
7636.831698760174
 21
526.0833252613228
 31
0.0
  0
LINE
  5
1E723
330
747D
100
AcDbEntity
  8
細線
 48
50.0
100
AcDbLine
 10
6554.539401023373
 20
2266.844112873076
 30
0.0
 11
6554.539401023373
 21
1766.844112873077
 31
0.0
  0
LINE
  5
1E724
330
747D
100
AcDbEntity
  8
細線
 48
50.0
100
AcDbLine
 10
6584.539401023374
 20
2266.844112873076
 30
0.0
 11
6584.539401023374
 21
1766.844112873077
 31
0.0
  0
LINE
  5
1E725
330
747D
100
AcDbEntity
  8
細線
 48
50.0
100
AcDbLine
 10
6304.539401023374
 20
2266.844112873076
 30
0.0
 11
6304.539401023374
 21
1766.844112873077
 31
0.0
  0
LINE
  5
1E726
330
747D
100
AcDbEntity
  8
細線
 48
50.0
100
AcDbLine
 10
6274.539401023374
 20
2266.844112873076
 30
0.0
 11
6274.539401023374
 21
1766.844112873077
 31
0.0
  0
LINE
  5
1E727
330
747D
100
AcDbEntity
  8
細線
100
AcDbLine
 10
5188.500368577511
 20
1366.844112873077
 30
0.0
 11
5175.102908955958
 21
1316.844112873079
 31
0.0
  0
LINE
  5
1E728
330
747D
100
AcDbEntity
  8
細線
100
AcDbLine
 10
5088.500368577514
 20
1366.844112873077
 30
0.0
 11
5075.102908955955
 21
1316.844112873079
 31
0.0
  0
LINE
  5
1E729
330
747D
100
AcDbEntity
  8
細線
100
AcDbLine
 10
4888.50036857751
 20
1366.844112873075
 30
0.0
 11
4875.102908955958
 21
1316.844112873074
 31
0.0
  0
LINE
  5
1E72A
330
747D
100
AcDbEntity
  8
細線
100
AcDbLine
 10
4988.50036857751
 20
1366.844112873075
 30
0.0
 11
4975.102908955954
 21
1316.844112873074
 31
0.0
  0
LINE
  5
1E72B
330
747D
100
AcDbEntity
  8
細線
100
AcDbLine
 10
4932.318207794966
 20
1366.844112873075
 30
0.0
 11
5032.318207794966
 21
1466.844112873079
 31
0.0
  0
LINE
  5
1E72C
330
747D
100
AcDbEntity
  8
細線
100
AcDbLine
 10
4960.602479042429
 20
1366.844112873077
 30
0.0
 11
5060.602479042426
 21
1466.844112873079
 31
0.0
  0
LINE
  5
1E72D
330
747D
100
AcDbEntity
  8
細線
100
AcDbLine
 10
5081.473487193862
 20
1466.844112873079
 30
0.0
 11
4961.705449334402
 21
1586.612150732539
 31
0.0
  0
LINE
  5
1E72E
330
747D
100
AcDbEntity
  8
細線
100
AcDbLine
 10
4988.886750289892
 20
1366.844112873077
 30
0.0
 11
5088.886750289888
 21
1466.844112873079
 31
0.0
  0
LINE
  5
1E72F
330
747D
100
AcDbEntity
  8
細線
100
AcDbLine
 10
5123.899894065054
 20
1466.844112873079
 30
0.0
 11
4961.705449334399
 21
1629.038557603731
 31
0.0
  0
LINE
  5
1E730
330
747D
100
AcDbEntity
  8
部品1
100
AcDbLine
 10
4961.705449334402
 20
1466.844112873079
 30
0.0
 11
4961.705449334402
 21
1666.844112873077
 31
0.0
  0
LINE
  5
1E731
330
747D
100
AcDbEntity
  8
細線
100
AcDbLine
 10
5201.897828199065
 20
1216.844112873077
 30
0.0
 11
5188.500368577511
 21
1166.844112873077
 31
0.0
  0
LINE
  5
1E732
330
747D
100
AcDbEntity
  8
細線
100
AcDbLine
 10
5101.897828199065
 20
1216.844112873077
 30
0.0
 11
5088.500368577514
 21
1166.844112873077
 31
0.0
  0
LINE
  5
1E733
330
747D
100
AcDbEntity
  8
細線
100
AcDbLine
 10
4901.897828199065
 20
1216.844112873075
 30
0.0
 11
4888.50036857751
 21
1166.844112873073
 31
0.0
  0
LINE
  5
1E734
330
747D
100
AcDbEntity
  8
細線
100
AcDbLine
 10
5001.897828199069
 20
1216.844112873075
 30
0.0
 11
4988.50036857751
 21
1166.844112873073
 31
0.0
  0
LINE
  5
1E735
330
747D
100
AcDbEntity
  8
部品1
100
AcDbLine
 10
4861.705449334398
 20
1166.844112873073
 30
0.0
 11
4861.705449334398
 21
1466.844112873079
 31
0.0
  0
LINE
  5
1E736
330
747D
100
AcDbEntity
  8
細線
100
AcDbLine
 10
4861.705449334398
 20
1366.844112873075
 30
0.0
 11
4915.295287820625
 21
1166.844112873072
 31
0.0
  0
LINE
  5
1E737
330
747D
100
AcDbEntity
  8
細線
100
AcDbLine
 10
5161.705449334398
 20
1366.844112873077
 30
0.0
 11
5215.295287820625
 21
1166.844112873073
 31
0.0
  0
LINE
  5
1E738
330
747D
100
AcDbEntity
  8
細線
100
AcDbLine
 10
5061.705449334398
 20
1366.844112873077
 30
0.0
 11
5115.295287820622
 21
1166.844112873073
 31
0.0
  0
LINE
  5
1E739
330
747D
100
AcDbEntity
  8
細線
100
AcDbLine
 10
4961.705449334402
 20
1366.844112873075
 30
0.0
 11
5015.295287820621
 21
1166.844112873072
 31
0.0
  0
LINE
  5
1E73A
330
747D
100
AcDbEntity
  8
部品1
 48
50.0
100
AcDbLine
 10
4436.831698760173
 20
2926.083325261323
 30
0.0
 11
4436.831698760173
 21
526.0833252613228
 31
0.0
  0
LINE
  5
1E73B
330
747D
100
AcDbEntity
  8
部品1
100
AcDbLine
 10
4861.705449334398
 20
1166.844112873073
 30
0.0
 11
5461.705449334399
 21
1166.844112873077
 31
0.0
  0
LINE
  5
1E73C
330
747D
100
AcDbEntity
  8
部品1
100
AcDbLine
 10
4861.705449334398
 20
1366.844112873075
 30
0.0
 11
5461.705449334399
 21
1366.844112873077
 31
0.0
  0
LINE
  5
1E73D
330
747D
100
AcDbEntity
  8
部品1
100
AcDbLine
 10
4961.705449334402
 20
1666.844112873077
 30
0.0
 11
5361.705449334398
 21
1666.844112873077
 31
0.0
  0
LINE
  5
1E73E
330
747D
100
AcDbEntity
  8
Ｇ．Ｌ
100
AcDbLine
 10
4531.604443289075
 20
1466.844112873079
 30
0.0
 11
5962.497727112236
 21
1466.844112873079
 31
0.0
  0
LINE
  5
1E73F
330
747D
100
AcDbEntity
  8
細線
100
AcDbLine
 10
5350.174064044748
 20
1466.844112873079
 30
0.0
 11
5150.174064044751
 21
1666.844112873077
 31
0.0
  0
TEXT
  5
1E740
330
747D
100
AcDbEntity
  8
部品1
100
AcDbText
 10
4902.431719764974
 20
2634.055542439645
 30
0.0
 40
120.0
  1
基礎詳細
  7
STYLE2
100
AcDbText
  0
MTEXT
  5
1E741
102
{ACAD_REACTORS
330
1E742
102
}
330
747D
100
AcDbEntity
  8
寸法
 62
     7
 48
50.0
100
AcDbMText
 10
5399.237306059191
 20
1964.696030681846
 30
0.0
 40
120.0
 41
1.0
 71
     4
 72
     1
  1
\A1;C.B
  7
STYLE1
 73
     1
 44
1.0
1001
ACAD
1000
MTEXTBEGIN
1070
    73
1070
     1
1070
    44
1040
1.0
1070
    74
1070
     0
1000
MTEXTEND
  0
LEADER
  5
1E742
330
747D
100
AcDbEntity
  8
寸法
 48
50.0
100
AcDbLeader
  3
INABA_S50G
 71
     0
 73
     0
 74
     0
 75
     1
 40
120.0
 41
185.591883092037
 76
     3
 10
5161.705449334402
 20
1666.844112873077
 30
0.0
 10
5316.969031905578
 20
1879.696030681845
 30
0.0
 10
5441.969031905578
 20
1879.696030681845
 30
0.0
340
1E741
213
67.73172584638814
223
0.0
233
0.0
1001
ACAD
1000
DSTYLE
1002
{
1070
    40
1040
1.0
1002
}
  0
LINE
  5
1E743
330
747D
100
AcDbEntity
  8
細線
100
AcDbLine
 10
5307.747657173555
 20
1466.844112873079
 30
0.0
 11
5107.747657173558
 21
1666.844112873077
 31
0.0
  0
LINE
  5
1E744
330
747D
100
AcDbEntity
  8
細線
100
AcDbLine
 10
5232.318207794966
 20
1366.844112873077
 30
0.0
 11
5332.318207794962
 21
1466.844112873079
 31
0.0
  0
TEXT
  5
1E745
330
747D
100
AcDbEntity
  8
部品1
100
AcDbText
 10
7690.559015138866
 20
2740.147139864057
 30
0.0
 40
120.0
  1
アンカー部詳細
  7
STYLE2
100
AcDbText
  0
LINE
  5
1E746
330
747D
100
AcDbEntity
  8
部品1
 48
50.0
100
AcDbLine
 10
4436.831698760173
 20
526.0833252613228
 30
0.0
 11
10836.83169876017
 21
526.0833252613228
 31
0.0
  0
LINE
  5
1E747
330
747D
100
AcDbEntity
  8
部品1
 48
50.0
100
AcDbLine
 10
10836.83169876017
 20
2926.083325261323
 30
0.0
 11
4436.831698760173
 21
2926.083325261324
 31
0.0
  0
LINE
  5
1E748
330
747D
100
AcDbEntity
  8
部品1
 48
50.0
100
AcDbLine
 10
10836.83169876017
 20
2686.083325261323
 30
0.0
 11
6036.831698760174
 21
2686.083325261323
 31
0.0
  0
LINE
  5
1E749
330
747D
100
AcDbEntity
  8
部品1
 48
50.0
100
AcDbLine
 10
4436.831698760173
 20
2446.083325261323
 30
0.0
 11
10836.83169876017
 21
2446.083325261323
 31
0.0
  0
TEXT
  5
1E74A
330
747D
100
AcDbEntity
  8
文字
 62
     7
 48
50.0
100
AcDbText
 10
7070.414097067208
 20
225.4540286420542
 30
0.0
 40
100.0
  1
※ （　）内寸法は２５Ｈを示す
  7
STYLE2
100
AcDbText
  0
ENDSEC
  0
SECTION
  2
OBJECTS
  0
DICTIONARY
  5
7471
330
0
100
AcDbDictionary
281
     1
  3
ACAD_COLOR
350
159B0
  3
ACAD_GROUP
350
7472
  3
ACAD_LAYOUT
350
159B1
  3
ACAD_MATERIAL
350
159AF
  3
ACAD_MLINESTYLE
350
7473
  3
ACAD_PLOTSETTINGS
350
159B2
  3
ACAD_PLOTSTYLENAME
350
159AD
  3
ACDBHEADERROUNDTRIPXREC
350
1E7A4
  3
AcDbVariableDictionary
350
1E7A0
  3
CONTENTDICTIONARY
350
E71C
  3
DRAWINGVARIABLESDICT
350
F3B9
  0
DICTIONARY
  5
1DE3B
330
7467
100
AcDbDictionary
280
     1
281
     1
  3
ACAD_LAYERSTATES
360
1DE3C
  0
DICTIONARY
  5
159B0
102
{ACAD_REACTORS
330
7471
102
}
330
7471
100
AcDbDictionary
281
     1
  0
DICTIONARY
  5
7472
102
{ACAD_REACTORS
330
7471
102
}
330
7471
100
AcDbDictionary
281
     1
  3
*A1
350
1E3E1
  0
DICTIONARY
  5
159B1
102
{ACAD_REACTORS
330
7471
102
}
330
7471
100
AcDbDictionary
281
     1
  3
Model
350
159B3
  3
レイアウト1
350
159B4
  0
DICTIONARY
  5
159AF
102
{ACAD_REACTORS
330
7471
102
}
330
7471
100
AcDbDictionary
281
     1
  0
DICTIONARY
  5
7473
102
{ACAD_REACTORS
330
7471
102
}
330
7471
100
AcDbDictionary
281
     1
  3
STANDARD
350
7480
  0
DICTIONARY
  5
159B2
102
{ACAD_REACTORS
330
7471
102
}
330
7471
100
AcDbDictionary
281
     1
  0
ACDBDICTIONARYWDFLT
  5
159AD
102
{ACAD_REACTORS
330
7471
102
}
330
7471
100
AcDbDictionary
281
     1
  3
Normal
350
159AE
100
AcDbDictionaryWithDefault
340
159AE
  0
DICTIONARY
  5
1E7A4
102
{ACAD_REACTORS
330
7471
102
}
330
7471
100
AcDbDictionary
281
     1
  3
COLORDICT
350
1E7A6
  3
MATERIALDICT
350
1E7A5
  0
DICTIONARY
  5
1E7A0
102
{ACAD_REACTORS
330
7471
102
}
330
7471
100
AcDbDictionary
281
     1
  3
DIMASSOC
350
1E7A1
  3
PROJECTNAME
350
1E7A2
  0
DICTIONARY
  5
E71C
102
{ACAD_REACTORS
330
7471
102
}
330
7471
100
AcDbDictionary
281
     1
  0
DICTIONARY
  5
F3B9
102
{ACAD_REACTORS
330
7471
102
}
330
7471
100
AcDbDictionary
281
     1
1001
DRAWINGVARIABLESXDATA
1000
POLARMODE
1000
1
  0
DICTIONARY
  5
1DE3C
102
{ACAD_REACTORS
330
1DE3B
102
}
330
1DE3B
100
AcDbDictionary
281
     1
  0
GROUP
  5
1E3E1
102
{ACAD_REACTORS
330
7472
102
}
330
7472
100
AcDbGroup
300

 70
     1
 71
     1
340
1E3A2
340
1E3A1
340
1E3A0
340
1E39F
340
1E39E
  0
LAYOUT
  5
159B3
102
{ACAD_XDICTIONARY
360
1E7A7
102
}
102
{ACAD_REACTORS
330
159B1
102
}
330
159B1
100
AcDbPlotSettings
  1

  2
iR C3880
  4
A3
  6

 40
5.873749732971191
 41
5.873747825622558
 42
5.873748779296875
 43
5.873748779296875
 44
296.9259948730469
 45
419.9466552734374
 46
0.0
 47
0.0
 48
0.0
 49
0.0
140
0.0
141
0.0
142
1.0
143
41.65811991999086
 70
 11952
 72
     1
 73
     1
 74
     2
  7
inabass.ctb
 75
     0
147
0.0240049239360925
148
0.0
149
0.0
100
AcDbLayout
  1
Model
 70
     1
 71
     0
 10
0.0
 20
0.0
 11
12.0
 21
9.0
 12
0.0
 22
0.0
 32
0.0
 14
0.0
 24
0.0
 34
0.0
 15
0.0
 25
0.0
 35
0.0
146
0.0
 13
0.0
 23
0.0
 33
0.0
 16
1.0
 26
0.0
 36
0.0
 17
0.0
 27
1.0
 37
0.0
 76
     0
330
747D
  0
LAYOUT
  5
159B4
102
{ACAD_XDICTIONARY
360
1E7A9
102
}
102
{ACAD_REACTORS
330
159B1
102
}
330
159B1
100
AcDbPlotSettings
  1

  2
自動 EPSON LP-8400FX (TATENO 上)
  4

  6

 40
0.0
 41
0.0
 42
0.0
 43
0.0
 44
0.0
 45
0.0
 46
0.0
 47
0.0
 48
0.0
 49
0.0
140
0.0
141
0.0
142
1.0
143
1.0
 70
   688
 72
     0
 73
     0
 74
     5
  7
inaba.ctb
 75
    16
147
1.0
148
0.0
149
0.0
100
AcDbLayout
  1
レイアウト1
 70
     0
 71
     1
 10
0.0
 20
0.0
 11
420.0
 21
297.0
 12
0.0
 22
0.0
 32
0.0
 14
1.000000000000000E+20
 24
1.000000000000000E+20
 34
1.000000000000000E+20
 15
-1.000000000000000E+20
 25
-1.000000000000000E+20
 35
-1.000000000000000E+20
146
0.0
 13
0.0
 23
0.0
 33
0.0
 16
1.0
 26
0.0
 36
0.0
 17
0.0
 27
1.0
 37
0.0
 76
     0
330
747A
  0
MLINESTYLE
  5
7480
102
{ACAD_REACTORS
330
7473
102
}
330
7473
100
AcDbMlineStyle
  2
STANDARD
 70
     0
  3

 62
     0
 51
90.0
 52
90.0
 71
     2
 49
0.5
 62
   256
  6
BYLAYER
 49
-0.5
 62
   256
  6
BYLAYER
  0
ACDBPLACEHOLDER
  5
159AE
102
{ACAD_REACTORS
330
159AD
102
}
330
159AD
  0
XRECORD
  5
1E7A6
102
{ACAD_REACTORS
330
1E7A4
102
}
330
1E7A4
100
AcDbXrecord
280
     1
340
159B0
  0
XRECORD
  5
1E7A5
102
{ACAD_REACTORS
330
1E7A4
102
}
330
1E7A4
100
AcDbXrecord
280
     1
340
159AF
  0
DICTIONARYVAR
  5
1E7A1
102
{ACAD_REACTORS
330
1E7A0
102
}
330
1E7A0
100
DictionaryVariables
280
     0
  1
1
  0
DICTIONARYVAR
  5
1E7A2
102
{ACAD_REACTORS
330
1E7A0
102
}
330
1E7A0
100
DictionaryVariables
280
     0
  1

  0
DICTIONARY
  5
1E7A7
330
159B3
100
AcDbDictionary
280
     1
281
     1
  3
ACAD_XREC_ROUNDTRIP
360
1E7A8
  0
DICTIONARY
  5
1E7A9
330
159B4
100
AcDbDictionary
280
     1
281
     1
  3
ACAD_XREC_ROUNDTRIP
360
1E7AA
  0
XRECORD
  5
1E7A8
102
{ACAD_REACTORS
330
1E7A7
102
}
330
1E7A7
100
AcDbXrecord
280
     1
102
SHADEPLOT
 70
     1
102
SHADEPLOTRESLEVEL
 70
     2
102
SHADEPLOTCUSTOMDPI
 70
   300
  0
XRECORD
  5
1E7AA
102
{ACAD_REACTORS
330
1E7A9
102
}
330
1E7A9
100
AcDbXrecord
280
     1
102
SHADEPLOT
 70
     0
102
SHADEPLOTRESLEVEL
 70
     2
102
SHADEPLOTCUSTOMDPI
 70
   300
  0
ENDSEC
  0
EOF
