  0
SECTION
  2
HEADER
  9
$ACADVER
  1
AC1015
  9
$ACADMAINTVER
 70
    20
  9
$DWGCODEPAGE
  3
ANSI_932
  9
$INSBASE
 10
0.0
 20
0.0
 30
0.0
  9
$EXTMIN
 10
139.9999999999995
 20
-0.0000000000000909
 30
0.0
  9
$EXTMAX
 10
16307.2
 20
11409.6
 30
0.0
  9
$LIMMIN
 10
0.0
 20
0.0
  9
$LIMMAX
 10
16800.0
 20
11880.0
  9
$ORTHOMODE
 70
     0
  9
$REGENMODE
 70
     1
  9
$FILLMODE
 70
     1
  9
$QTEXTMODE
 70
     0
  9
$MIRRTEXT
 70
     1
  9
$LTSCALE
 40
20.0
  9
$ATTMODE
 70
     1
  9
$TEXTSIZE
 40
100.0
  9
$TRACEWID
 40
1.0
  9
$TEXTSTYLE
  7
STYLE2
  9
$CLAYER
  8
部品1
  9
$CELTYPE
  6
BYLAYER
  9
$CECOLOR
 62
   256
  9
$CELTSCALE
 40
50.0
  9
$DISPSILH
 70
     0
  9
$DIMSCALE
 40
40.0
  9
$DIMASZ
 40
2.5
  9
$DIMEXO
 40
0.5
  9
$DIMDLI
 40
7.0
  9
$DIMRND
 40
0.0
  9
$DIMDLE
 40
0.0
  9
$DIMEXE
 40
1.5
  9
$DIMTP
 40
0.0
  9
$DIMTM
 40
0.0
  9
$DIMTXT
 40
3.0
  9
$DIMCEN
 40
0.0
  9
$DIMTSZ
 40
0.0
  9
$DIMTOL
 70
     0
  9
$DIMLIM
 70
     0
  9
$DIMTIH
 70
     0
  9
$DIMTOH
 70
     0
  9
$DIMSE1
 70
     0
  9
$DIMSE2
 70
     0
  9
$DIMTAD
 70
     3
  9
$DIMZIN
 70
     8
  9
$DIMBLK
  1

  9
$DIMASO
 70
     1
  9
$DIMSHO
 70
     1
  9
$DIMPOST
  1

  9
$DIMAPOST
  1

  9
$DIMALT
 70
     0
  9
$DIMALTD
 70
     2
  9
$DIMALTF
 40
0.0394
  9
$DIMLFAC
 40
1.0
  9
$DIMTOFL
 70
     1
  9
$DIMTVP
 40
0.0
  9
$DIMTIX
 70
     1
  9
$DIMSOXD
 70
     0
  9
$DIMSAH
 70
     1
  9
$DIMBLK1
  1
DOTSMALL
  9
$DIMBLK2
  1
DOTSMALL
  9
$DIMSTYLE
  2
INABA_S40G
  9
$DIMCLRD
 70
     0
  9
$DIMCLRE
 70
     0
  9
$DIMCLRT
 70
     7
  9
$DIMTFAC
 40
1.0
  9
$DIMGAP
 40
1.0
  9
$DIMJUST
 70
     0
  9
$DIMSD1
 70
     0
  9
$DIMSD2
 70
     0
  9
$DIMTOLJ
 70
     1
  9
$DIMTZIN
 70
     0
  9
$DIMALTZ
 70
     0
  9
$DIMALTTZ
 70
     0
  9
$DIMUPT
 70
     1
  9
$DIMDEC
 70
     1
  9
$DIMTDEC
 70
     4
  9
$DIMALTU
 70
     2
  9
$DIMALTTD
 70
     2
  9
$DIMTXSTY
  7
STYLE1
  9
$DIMAUNIT
 70
     0
  9
$DIMADEC
 70
     0
  9
$DIMALTRND
 40
0.0
  9
$DIMAZIN
 70
     0
  9
$DIMDSEP
 70
    46
  9
$DIMATFIT
 70
     3
  9
$DIMFRAC
 70
     0
  9
$DIMLDRBLK
  1
DOTSMALL
  9
$DIMLUNIT
 70
     2
  9
$DIMLWD
 70
    -2
  9
$DIMLWE
 70
    -2
  9
$DIMTMOVE
 70
     0
  9
$LUNITS
 70
     2
  9
$LUPREC
 70
     1
  9
$SKETCHINC
 40
1.0
  9
$FILLETRAD
 40
0.0
  9
$AUNITS
 70
     0
  9
$AUPREC
 70
     0
  9
$MENU
  1
acad
  9
$ELEVATION
 40
0.0
  9
$PELEVATION
 40
0.0
  9
$THICKNESS
 40
0.0
  9
$LIMCHECK
 70
     0
  9
$CHAMFERA
 40
3.0
  9
$CHAMFERB
 40
3.0
  9
$CHAMFERC
 40
0.0
  9
$CHAMFERD
 40
0.0
  9
$SKPOLY
 70
     0
  9
$TDCREATE
 40
2451368.612993866
  9
$TDUCREATE
 40
2451368.237993866
  9
$TDUPDATE
 40
2456380.835348125
  9
$TDUUPDATE
 40
2456380.460348125
  9
$TDINDWG
 40
1.7940285069
  9
$TDUSRTIMER
 40
1.7940285069
  9
$USRTIMER
 70
     1
  9
$ANGBASE
 50
0.0
  9
$ANGDIR
 70
     0
  9
$PDMODE
 70
     3
  9
$PDSIZE
 40
2.0
  9
$PLINEWID
 40
0.0
  9
$SPLFRAME
 70
     0
  9
$SPLINETYPE
 70
     6
  9
$SPLINESEGS
 70
     8
  9
$HANDSEED
  5
217AB
  9
$SURFTAB1
 70
     6
  9
$SURFTAB2
 70
     6
  9
$SURFTYPE
 70
     6
  9
$SURFU
 70
     6
  9
$SURFV
 70
     6
  9
$UCSBASE
  2

  9
$UCSNAME
  2

  9
$UCSORG
 10
0.0
 20
0.0
 30
0.0
  9
$UCSXDIR
 10
1.0
 20
0.0
 30
0.0
  9
$UCSYDIR
 10
0.0
 20
1.0
 30
0.0
  9
$UCSORTHOREF
  2

  9
$UCSORTHOVIEW
 70
     0
  9
$UCSORGTOP
 10
0.0
 20
0.0
 30
0.0
  9
$UCSORGBOTTOM
 10
0.0
 20
0.0
 30
0.0
  9
$UCSORGLEFT
 10
0.0
 20
0.0
 30
0.0
  9
$UCSORGRIGHT
 10
0.0
 20
0.0
 30
0.0
  9
$UCSORGFRONT
 10
0.0
 20
0.0
 30
0.0
  9
$UCSORGBACK
 10
0.0
 20
0.0
 30
0.0
  9
$PUCSBASE
  2

  9
$PUCSNAME
  2

  9
$PUCSORG
 10
0.0
 20
0.0
 30
0.0
  9
$PUCSXDIR
 10
1.0
 20
0.0
 30
0.0
  9
$PUCSYDIR
 10
0.0
 20
1.0
 30
0.0
  9
$PUCSORTHOREF
  2

  9
$PUCSORTHOVIEW
 70
     0
  9
$PUCSORGTOP
 10
0.0
 20
0.0
 30
0.0
  9
$PUCSORGBOTTOM
 10
0.0
 20
0.0
 30
0.0
  9
$PUCSORGLEFT
 10
0.0
 20
0.0
 30
0.0
  9
$PUCSORGRIGHT
 10
0.0
 20
0.0
 30
0.0
  9
$PUCSORGFRONT
 10
0.0
 20
0.0
 30
0.0
  9
$PUCSORGBACK
 10
0.0
 20
0.0
 30
0.0
  9
$USERI1
 70
     0
  9
$USERI2
 70
     0
  9
$USERI3
 70
     0
  9
$USERI4
 70
     0
  9
$USERI5
 70
     0
  9
$USERR1
 40
0.0
  9
$USERR2
 40
0.0
  9
$USERR3
 40
0.0
  9
$USERR4
 40
0.0
  9
$USERR5
 40
0.0
  9
$WORLDVIEW
 70
     1
  9
$SHADEDGE
 70
     3
  9
$SHADEDIF
 70
    70
  9
$TILEMODE
 70
     1
  9
$MAXACTVP
 70
    16
  9
$PINSBASE
 10
0.0
 20
0.0
 30
0.0
  9
$PLIMCHECK
 70
     0
  9
$PEXTMIN
 10
1.000000000000000E+20
 20
1.000000000000000E+20
 30
1.000000000000000E+20
  9
$PEXTMAX
 10
-1.000000000000000E+20
 20
-1.000000000000000E+20
 30
-1.000000000000000E+20
  9
$PLIMMIN
 10
0.0
 20
0.0
  9
$PLIMMAX
 10
420.0
 20
297.0
  9
$UNITMODE
 70
     0
  9
$VISRETAIN
 70
     0
  9
$PLINEGEN
 70
     0
  9
$PSLTSCALE
 70
     0
  9
$TREEDEPTH
 70
  3020
  9
$CMLSTYLE
  2
STANDARD
  9
$CMLJUST
 70
     0
  9
$CMLSCALE
 40
1.0
  9
$PROXYGRAPHICS
 70
     1
  9
$MEASUREMENT
 70
     1
  9
$CELWEIGHT
370
    -1
  9
$ENDCAPS
280
     0
  9
$JOINSTYLE
280
     0
  9
$LWDISPLAY
290
     0
  9
$INSUNITS
 70
     0
  9
$HYPERLINKBASE
  1

  9
$STYLESHEET
  1
inabass.ctb
  9
$XEDIT
290
     1
  9
$CEPSNTYPE
380
     0
  9
$PSTYLEMODE
290
     1
  9
$FINGERPRINTGUID
  2
{3B57B35E-7D77-4BBF-81B7-6C583B9EB24C}
  9
$VERSIONGUID
  2
{8DC68511-9DB9-426E-9E96-09AB9A432D34}
  9
$EXTNAMES
290
     1
  9
$PSVPSCALE
 40
0.0
  9
$OLESTARTUP
290
     0
  0
ENDSEC
  0
SECTION
  2
CLASSES
  0
CLASS
  1
ACDBDICTIONARYWDFLT
  2
AcDbDictionaryWithDefault
  3
ObjectDBX Classes
 90
        0
280
     0
281
     0
  0
CLASS
  1
DICTIONARYVAR
  2
AcDbDictionaryVar
  3
ObjectDBX Classes
 90
        0
280
     0
281
     0
  0
CLASS
  1
ACDBPLACEHOLDER
  2
AcDbPlaceHolder
  3
ObjectDBX Classes
 90
        0
280
     0
281
     0
  0
CLASS
  1
LAYOUT
  2
AcDbLayout
  3
ObjectDBX Classes
 90
        0
280
     0
281
     0
  0
ENDSEC
  0
SECTION
  2
TABLES
  0
TABLE
  2
VPORT
  5
746D
330
0
100
AcDbSymbolTable
 70
     2
  0
VPORT
  5
217A3
330
746D
100
AcDbSymbolTableRecord
100
AcDbViewportTableRecord
  2
*Active
 70
     0
 10
0.0
 20
0.0
 11
1.0
 21
1.0
 12
8223.7610252385
 22
5704.702303648471
 13
0.0
 23
0.0
 14
10.0
 24
10.0
 15
10.0
 25
10.0
 16
0.0
 26
0.0
 36
1.0
 17
0.0
 27
0.0
 37
0.0
 40
11508.43795287062
 41
1.706919945725915
 42
50.0
 43
0.0
 44
0.0
 50
0.0
 51
0.0
 71
     0
 72
     0
 73
     1
 74
     0
 75
     0
 76
     0
 77
     0
 78
     0
281
     0
 65
     1
110
0.0
120
0.0
130
0.0
111
1.0
121
0.0
131
0.0
112
0.0
122
1.0
132
0.0
 79
     0
146
0.0
  0
ENDTAB
  0
TABLE
  2
LTYPE
  5
746A
330
0
100
AcDbSymbolTable
 70
     3
  0
LTYPE
  5
7477
330
746A
100
AcDbSymbolTableRecord
100
AcDbLinetypeTableRecord
  2
BYBLOCK
 70
     0
  3

 72
    65
 73
     0
 40
0.0
  0
LTYPE
  5
7478
330
746A
100
AcDbSymbolTableRecord
100
AcDbLinetypeTableRecord
  2
BYLAYER
 70
     0
  3

 72
    65
 73
     0
 40
0.0
  0
LTYPE
  5
7479
330
746A
100
AcDbSymbolTableRecord
100
AcDbLinetypeTableRecord
  2
CONTINUOUS
 70
     0
  3
Solid line
 72
    65
 73
     0
 40
0.0
  0
LTYPE
  5
7816
330
746A
100
AcDbSymbolTableRecord
100
AcDbLinetypeTableRecord
  2
CENTER
 70
     0
  3
____ _ ____ _ ____ _ ____ _ ____ _ ____ _ ____ 
 72
    65
 73
     4
 40
2.0
 49
1.25
 74
     0
 49
-0.25
 74
     0
 49
0.25
 74
     0
 49
-0.25
 74
     0
  0
LTYPE
  5
781B
330
746A
100
AcDbSymbolTableRecord
100
AcDbLinetypeTableRecord
  2
PHANTOM
 70
     0
  3
______  __  __  ______  __  __  ______  __  __ 
 72
    65
 73
     6
 40
2.5
 49
1.25
 74
     0
 49
-0.25
 74
     0
 49
0.25
 74
     0
 49
-0.25
 74
     0
 49
0.25
 74
     0
 49
-0.25
 74
     0
  0
ENDTAB
  0
TABLE
  2
LAYER
  5
7467
102
{ACAD_XDICTIONARY
360
2096A
102
}
330
0
100
AcDbSymbolTable
 70
    11
  0
LAYER
  5
7474
330
7467
100
AcDbSymbolTableRecord
100
AcDbLayerTableRecord
  2
0
 70
     0
 62
     7
  6
CONTINUOUS
370
    -3
390
159AE
  0
LAYER
  5
DEB2
330
7467
100
AcDbSymbolTableRecord
100
AcDbLayerTableRecord
  2
センター
 70
     0
 62
     3
  6
CENTER
370
    -3
390
159AE
  0
LAYER
  5
DEB3
330
7467
100
AcDbSymbolTableRecord
100
AcDbLayerTableRecord
  2
寸法
 70
     0
 62
     4
  6
CONTINUOUS
370
    -3
390
159AE
  0
LAYER
  5
DEB4
330
7467
100
AcDbSymbolTableRecord
100
AcDbLayerTableRecord
  2
部品1
 70
     0
 62
     7
  6
CONTINUOUS
370
    -3
390
159AE
  0
LAYER
  5
DEB5
330
7467
100
AcDbSymbolTableRecord
100
AcDbLayerTableRecord
  2
補助
 70
     0
 62
    -1
  6
CONTINUOUS
370
    -3
390
159AE
  0
LAYER
  5
DEB6
330
7467
100
AcDbSymbolTableRecord
100
AcDbLayerTableRecord
  2
文字
 70
     0
 62
     7
  6
CONTINUOUS
370
    -3
390
159AE
  0
LAYER
  5
F255
330
7467
100
AcDbSymbolTableRecord
100
AcDbLayerTableRecord
  2
DEFPOINTS
 70
     0
 62
     7
  6
CONTINUOUS
290
     0
370
    -3
390
159AE
  0
LAYER
  5
10B54
330
7467
100
AcDbSymbolTableRecord
100
AcDbLayerTableRecord
  2
仕様書枠
 70
     0
 62
   230
  6
CONTINUOUS
370
    -3
390
159AE
  0
LAYER
  5
11729
330
7467
100
AcDbSymbolTableRecord
100
AcDbLayerTableRecord
  2
Ｇ．Ｌ
 70
     0
 62
    30
  6
CONTINUOUS
370
    -3
390
159AE
  0
LAYER
  5
1173F
330
7467
100
AcDbSymbolTableRecord
100
AcDbLayerTableRecord
  2
細線
 70
     0
 62
     5
  6
CONTINUOUS
370
    -3
390
159AE
  0
LAYER
  5
12CC4
330
7467
100
AcDbSymbolTableRecord
100
AcDbLayerTableRecord
  2
想像線
 70
     0
 62
     6
  6
PHANTOM
370
    -3
390
159AE
  0
ENDTAB
  0
TABLE
  2
STYLE
  5
7468
330
0
100
AcDbSymbolTable
 70
     3
  0
STYLE
  5
7475
330
7468
100
AcDbSymbolTableRecord
100
AcDbTextStyleTableRecord
  2
STANDARD
 70
     0
 40
0.0
 41
1.0
 50
0.0
 71
     0
 42
4.0
  3
txt
  4
C:\AutoCAD LT\bigfont.shx
  0
STYLE
  5
F706
330
7468
100
AcDbSymbolTableRecord
100
AcDbTextStyleTableRecord
  2
STYLE1
 70
     0
 40
0.0
 41
1.0
 50
0.0
 71
     0
 42
100.0
  3
isocp.shx
  4
bigfont.shx
  0
STYLE
  5
103BF
330
7468
100
AcDbSymbolTableRecord
100
AcDbTextStyleTableRecord
  2
STYLE2
 70
     0
 40
0.0
 41
1.0
 50
0.0
 71
     0
 42
100.0
  3
MS PGothic.ttf
  4

1001
ACAD
1000
MS PGothic
1071
    32818
  0
ENDTAB
  0
TABLE
  2
VIEW
  5
746B
330
0
100
AcDbSymbolTable
 70
     0
  0
ENDTAB
  0
TABLE
  2
UCS
  5
746C
330
0
100
AcDbSymbolTable
 70
     0
  0
ENDTAB
  0
TABLE
  2
APPID
  5
746E
330
0
100
AcDbSymbolTable
 70
     6
  0
APPID
  5
7476
330
746E
100
AcDbSymbolTableRecord
100
AcDbRegAppTableRecord
  2
ACAD
 70
     0
  0
APPID
  5
DEA9
330
746E
100
AcDbSymbolTableRecord
100
AcDbRegAppTableRecord
  2
CONTENTBLOCKICON
 70
     0
  0
APPID
  5
DEAA
330
746E
100
AcDbSymbolTableRecord
100
AcDbRegAppTableRecord
  2
CONTENTBLOCKDESCRIPTION
 70
     0
  0
APPID
  5
E71D
330
746E
100
AcDbSymbolTableRecord
100
AcDbRegAppTableRecord
  2
CONTENTTABDATA
 70
     0
  0
APPID
  5
E71E
330
746E
100
AcDbSymbolTableRecord
100
AcDbRegAppTableRecord
  2
CONTENTCURRENTTAB
 70
     0
  0
APPID
  5
F3BA
330
746E
100
AcDbSymbolTableRecord
100
AcDbRegAppTableRecord
  2
DRAWINGVARIABLESXDATA
 70
     0
  0
ENDTAB
  0
TABLE
  2
DIMSTYLE
  5
746F
330
0
100
AcDbSymbolTable
 70
     1
100
AcDbDimStyleTable
 71
     1
340
F71F
  0
DIMSTYLE
105
F71F
102
{ACAD_REACTORS
330
1FEC1
330
1FE4B
330
1F249
330
1F248
330
1F11C
330
1E98B
330
1E96D
330
1E701
330
1D959
330
1D947
330
1D946
330
1D942
330
1D93F
330
1D93E
330
1D934
330
1D933
330
1D92D
330
1D92C
330
1D929
330
1D927
330
1D926
330
1D925
330
1D920
330
1D91D
330
1D91C
330
1D91B
330
212FF
330
21359
330
21534
330
2153D
330
2153E
330
21553
330
215AD
330
215B3
330
21763
102
}
330
746F
100
AcDbSymbolTableRecord
100
AcDbDimStyleTableRecord
  2
INABA_S40G
 70
     0
 40
40.0
 41
2.5
 42
0.5
 43
7.0
 44
1.5
 73
     0
 74
     0
 77
     3
 78
     8
140
3.0
141
0.0
143
0.0394
147
1.0
172
     1
173
     1
174
     1
178
     7
271
     1
288
     1
340
F706
341
F770
343
F770
344
F770
  0
ENDTAB
  0
TABLE
  2
BLOCK_RECORD
  5
7466
330
0
100
AcDbSymbolTable
 70
    32
  0
BLOCK_RECORD
  5
747D
330
7466
100
AcDbSymbolTableRecord
100
AcDbBlockTableRecord
  2
*MODEL_SPACE
340
159B3
  0
BLOCK_RECORD
  5
747A
330
7466
100
AcDbSymbolTableRecord
100
AcDbBlockTableRecord
  2
*PAPER_SPACE
340
159B4
  0
BLOCK_RECORD
  5
F770
330
7466
100
AcDbSymbolTableRecord
100
AcDbBlockTableRecord
  2
_DOTSMALL
340
0
102
{BLKREFS
331
1FE65
331
1FE66
331
20E6D
331
20E6E
331
20E76
331
20E77
331
20E7F
331
20E80
331
20E9B
331
20E9C
331
20EA5
331
20EA6
331
20EAF
331
20EB0
331
20EBA
331
20EBB
331
20EC4
331
20EC5
331
20ECF
331
20ED0
331
20ED9
331
20EDA
331
20EE4
331
20EE5
331
20EF7
331
20EF8
331
20F0B
331
20F0C
331
20F15
331
20F16
331
20F1E
331
20F1F
331
20F27
331
20F28
331
212A8
331
212A9
331
212B1
331
212B2
331
216AB
331
216AC
331
216B4
331
216B5
331
216BD
331
216BE
331
216C6
331
216C7
331
216CF
331
216D0
331
216DA
331
216DB
331
2170D
331
2170E
331
2171F
331
21720
331
21728
331
21729
331
21733
331
21734
331
21752
331
21753
331
2177E
331
2177F
331
21789
331
2178A
102
}
  0
BLOCK_RECORD
  5
1DA44
330
7466
100
AcDbSymbolTableRecord
100
AcDbBlockTableRecord
  2
*D1
340
0
  0
BLOCK_RECORD
  5
1DA51
330
7466
100
AcDbSymbolTableRecord
100
AcDbBlockTableRecord
  2
*D2
340
0
  0
BLOCK_RECORD
  5
1DA5E
330
7466
100
AcDbSymbolTableRecord
100
AcDbBlockTableRecord
  2
*D3
340
0
  0
BLOCK_RECORD
  5
1DA69
330
7466
100
AcDbSymbolTableRecord
100
AcDbBlockTableRecord
  2
*D4
340
0
  0
BLOCK_RECORD
  5
1DA74
330
7466
100
AcDbSymbolTableRecord
100
AcDbBlockTableRecord
  2
*D5
340
0
  0
BLOCK_RECORD
  5
1DA81
330
7466
100
AcDbSymbolTableRecord
100
AcDbBlockTableRecord
  2
*D6
340
0
  0
BLOCK_RECORD
  5
1DA8E
330
7466
100
AcDbSymbolTableRecord
100
AcDbBlockTableRecord
  2
*D7
340
0
  0
BLOCK_RECORD
  5
1DA9A
330
7466
100
AcDbSymbolTableRecord
100
AcDbBlockTableRecord
  2
*D8
340
0
  0
BLOCK_RECORD
  5
1DAA5
330
7466
100
AcDbSymbolTableRecord
100
AcDbBlockTableRecord
  2
*D9
340
0
  0
BLOCK_RECORD
  5
1DAB2
330
7466
100
AcDbSymbolTableRecord
100
AcDbBlockTableRecord
  2
*D10
340
0
  0
BLOCK_RECORD
  5
1DABE
330
7466
100
AcDbSymbolTableRecord
100
AcDbBlockTableRecord
  2
*D11
340
0
  0
BLOCK_RECORD
  5
1DACB
330
7466
100
AcDbSymbolTableRecord
100
AcDbBlockTableRecord
  2
*D12
340
0
  0
BLOCK_RECORD
  5
1DAD9
330
7466
100
AcDbSymbolTableRecord
100
AcDbBlockTableRecord
  2
*D13
340
0
  0
BLOCK_RECORD
  5
1DAE6
330
7466
100
AcDbSymbolTableRecord
100
AcDbBlockTableRecord
  2
*D14
340
0
  0
BLOCK_RECORD
  5
1DAF3
330
7466
100
AcDbSymbolTableRecord
100
AcDbBlockTableRecord
  2
*D15
340
0
  0
BLOCK_RECORD
  5
1DB00
330
7466
100
AcDbSymbolTableRecord
100
AcDbBlockTableRecord
  2
*D16
340
0
  0
BLOCK_RECORD
  5
1DB1A
330
7466
100
AcDbSymbolTableRecord
100
AcDbBlockTableRecord
  2
*D17
340
0
  0
BLOCK_RECORD
  5
1E9D0
330
7466
100
AcDbSymbolTableRecord
100
AcDbBlockTableRecord
  2
*D18
340
0
  0
BLOCK_RECORD
  5
1EA32
330
7466
100
AcDbSymbolTableRecord
100
AcDbBlockTableRecord
  2
*D19
340
0
  0
BLOCK_RECORD
  5
1F24A
330
7466
100
AcDbSymbolTableRecord
100
AcDbBlockTableRecord
  2
*D20
340
0
  0
BLOCK_RECORD
  5
1F255
330
7466
100
AcDbSymbolTableRecord
100
AcDbBlockTableRecord
  2
*D21
340
0
  0
BLOCK_RECORD
  5
1FE4C
330
7466
100
AcDbSymbolTableRecord
100
AcDbBlockTableRecord
  2
*D22
340
0
  0
BLOCK_RECORD
  5
21300
330
7466
100
AcDbSymbolTableRecord
100
AcDbBlockTableRecord
  2
*D23
340
0
  0
BLOCK_RECORD
  5
2135A
330
7466
100
AcDbSymbolTableRecord
100
AcDbBlockTableRecord
  2
*D24
340
0
  0
BLOCK_RECORD
  5
2165E
330
7466
100
AcDbSymbolTableRecord
100
AcDbBlockTableRecord
  2
*D25
340
0
  0
BLOCK_RECORD
  5
2166A
330
7466
100
AcDbSymbolTableRecord
100
AcDbBlockTableRecord
  2
*D26
340
0
  0
BLOCK_RECORD
  5
21676
330
7466
100
AcDbSymbolTableRecord
100
AcDbBlockTableRecord
  2
*D27
340
0
  0
BLOCK_RECORD
  5
21682
330
7466
100
AcDbSymbolTableRecord
100
AcDbBlockTableRecord
  2
*D28
340
0
  0
BLOCK_RECORD
  5
2168E
330
7466
100
AcDbSymbolTableRecord
100
AcDbBlockTableRecord
  2
*D29
340
0
  0
BLOCK_RECORD
  5
2169A
330
7466
100
AcDbSymbolTableRecord
100
AcDbBlockTableRecord
  2
*D30
340
0
  0
BLOCK_RECORD
  5
21764
330
7466
100
AcDbSymbolTableRecord
100
AcDbBlockTableRecord
  2
*D31
340
0
  0
ENDTAB
  0
ENDSEC
  0
SECTION
  2
BLOCKS
  0
BLOCK
  5
7489
330
747D
100
AcDbEntity
  8
0
100
AcDbBlockBegin
  2
*MODEL_SPACE
 70
     0
 10
0.0
 20
0.0
 30
0.0
  3
*MODEL_SPACE
  1

  0
ENDBLK
  5
748A
330
747D
100
AcDbEntity
  8
0
100
AcDbBlockEnd
  0
BLOCK
  5
7487
330
747A
100
AcDbEntity
 67
     1
  8
0
100
AcDbBlockBegin
  2
*PAPER_SPACE
 70
     0
 10
0.0
 20
0.0
 30
0.0
  3
*PAPER_SPACE
  1

  0
ENDBLK
  5
7488
330
747A
100
AcDbEntity
 67
     1
  8
0
100
AcDbBlockEnd
  0
BLOCK
  5
F771
330
F770
100
AcDbEntity
  8
0
 48
50.0
100
AcDbBlockBegin
  2
_DOTSMALL
 70
     0
 10
0.0
 20
0.0
 30
0.0
  3
_DOTSMALL
  1

  0
LWPOLYLINE
  5
F772
330
F770
100
AcDbEntity
  8
0
  6
ByBlock
 62
     0
 48
50.0
100
AcDbPolyline
 90
        2
 70
     1
 43
0.5
 10
-0.0625
 20
0.0
 42
1.0
 10
0.0625
 20
0.0
 42
1.0
  0
ENDBLK
  5
F776
330
F770
100
AcDbEntity
  8
0
 48
50.0
100
AcDbBlockEnd
  0
BLOCK
  5
1DA4F
330
1DA44
100
AcDbEntity
  8
0
 48
50.0
100
AcDbBlockBegin
  2
*D1
 70
     1
 10
0.0
 20
0.0
 30
0.0
  3
*D1
  1

  0
LINE
  5
2172F
330
1DA44
100
AcDbEntity
  8
寸法
 62
     0
 48
50.0
370
    -2
100
AcDbLine
 10
7149.213011273897
 20
5842.919036112861
 30
0.0
 11
7644.110374929363
 21
5842.919036112861
 31
0.0
  0
LINE
  5
21730
330
1DA44
100
AcDbEntity
  8
寸法
 62
     0
 48
50.0
370
    -2
100
AcDbLine
 10
7149.213011273897
 20
5952.919036112863
 30
0.0
 11
7644.110374929363
 21
5952.919036112863
 31
0.0
  0
LINE
  5
21731
330
1DA44
100
AcDbEntity
  8
寸法
 62
     0
 48
50.0
370
    -2
100
AcDbLine
 10
7584.110374929363
 20
5842.919036112861
 30
0.0
 11
7584.110374929363
 21
5952.919036112863
 31
0.0
  0
LINE
  5
21732
330
1DA44
100
AcDbEntity
  8
寸法
 62
     0
 48
50.0
370
    -2
100
AcDbLine
 10
7584.110374929363
 20
5952.919036112863
 30
0.0
 11
7584.110374929363
 21
6338.013524301842
 31
0.0
  0
INSERT
  5
21733
330
1DA44
100
AcDbEntity
  8
寸法
 62
     0
 48
50.0
370
    -2
100
AcDbBlockReference
  2
_DOTSMALL
 10
7584.110374929363
 20
5842.919036112861
 30
0.0
 41
100.0
 42
100.0
 43
100.0
 50
270.0
  0
INSERT
  5
21734
330
1DA44
100
AcDbEntity
  8
寸法
 62
     0
 48
50.0
370
    -2
100
AcDbBlockReference
  2
_DOTSMALL
 10
7584.110374929363
 20
5952.919036112863
 30
0.0
 41
100.0
 42
100.0
 43
100.0
 50
90.0
  0
MTEXT
  5
21735
330
1DA44
100
AcDbEntity
  8
寸法
 62
     7
 48
50.0
100
AcDbMText
 10
7484.110374929362
 20
6213.966280207356
 30
0.0
 40
120.0
 41
0.0
 71
     5
 72
     1
  1
\A1;110
  7
STYLE1
 11
0.0000000000000001
 21
1.0
 31
0.0
 73
     1
 44
1.0
1001
ACAD
1000
MTEXTBEGIN
1070
    73
1070
     1
1070
    44
1040
1.0
1070
    74
1070
     0
1000
MTEXTEND
  0
POINT
  5
21736
330
1DA44
100
AcDbEntity
  8
DEFPOINTS
 62
     0
 48
50.0
100
AcDbPoint
 10
7129.213011273897
 20
5842.919036112861
 30
0.0
  0
POINT
  5
21737
330
1DA44
100
AcDbEntity
  8
DEFPOINTS
 62
     0
 48
50.0
100
AcDbPoint
 10
7129.213011273897
 20
5952.919036112863
 30
0.0
  0
POINT
  5
21738
330
1DA44
100
AcDbEntity
  8
DEFPOINTS
 62
     0
 48
50.0
100
AcDbPoint
 10
7584.110374929363
 20
5952.919036112863
 30
0.0
  0
ENDBLK
  5
1DA50
330
1DA44
100
AcDbEntity
  8
0
 48
50.0
100
AcDbBlockEnd
  0
BLOCK
  5
1DA5C
330
1DA51
100
AcDbEntity
  8
0
 48
50.0
100
AcDbBlockBegin
  2
*D2
 70
     1
 10
0.0
 20
0.0
 30
0.0
  3
*D2
  1

  0
LINE
  5
2174E
330
1DA51
100
AcDbEntity
  8
寸法
 62
     0
 48
50.0
370
    -2
100
AcDbLine
 10
7149.213011273897
 20
5842.919036112864
 30
0.0
 11
7644.110374929363
 21
5842.919036112864
 31
0.0
  0
LINE
  5
2174F
330
1DA51
100
AcDbEntity
  8
寸法
 62
     0
 48
50.0
370
    -2
100
AcDbLine
 10
7372.213011273896
 20
5647.919036112856
 30
0.0
 11
7644.110374929363
 21
5647.919036112856
 31
0.0
  0
LINE
  5
21750
330
1DA51
100
AcDbEntity
  8
寸法
 62
     0
 48
50.0
370
    -2
100
AcDbLine
 10
7584.110374929363
 20
5842.919036112864
 30
0.0
 11
7584.110374929363
 21
5647.919036112856
 31
0.0
  0
LINE
  5
21751
330
1DA51
100
AcDbEntity
  8
寸法
 62
     0
 48
50.0
370
    -2
100
AcDbLine
 10
7584.110374929363
 20
5647.919036112856
 30
0.0
 11
7584.110374929363
 21
5270.529153705066
 31
0.0
  0
INSERT
  5
21752
330
1DA51
100
AcDbEntity
  8
寸法
 62
     0
 48
50.0
370
    -2
100
AcDbBlockReference
  2
_DOTSMALL
 10
7584.110374929363
 20
5842.919036112864
 30
0.0
 41
100.0
 42
100.0
 43
100.0
 50
90.0
  0
INSERT
  5
21753
330
1DA51
100
AcDbEntity
  8
寸法
 62
     0
 48
50.0
370
    -2
100
AcDbBlockReference
  2
_DOTSMALL
 10
7584.110374929363
 20
5647.919036112856
 30
0.0
 41
100.0
 42
100.0
 43
100.0
 50
270.0
  0
MTEXT
  5
21754
330
1DA51
100
AcDbEntity
  8
寸法
 62
     7
 48
50.0
100
AcDbMText
 10
7484.110374929362
 20
5409.224094908963
 30
0.0
 40
120.0
 41
0.0
 71
     5
 72
     1
  1
\A1;195
  7
STYLE1
 11
0.0000000000000001
 21
1.0
 31
0.0
 73
     1
 44
1.0
1001
ACAD
1000
MTEXTBEGIN
1070
    73
1070
     1
1070
    44
1040
1.0
1070
    74
1070
     0
1000
MTEXTEND
  0
POINT
  5
21755
330
1DA51
100
AcDbEntity
  8
DEFPOINTS
 62
     0
 48
50.0
100
AcDbPoint
 10
7129.213011273897
 20
5842.919036112864
 30
0.0
  0
POINT
  5
21756
330
1DA51
100
AcDbEntity
  8
DEFPOINTS
 62
     0
 48
50.0
100
AcDbPoint
 10
7352.213011273896
 20
5647.919036112856
 30
0.0
  0
POINT
  5
21757
330
1DA51
100
AcDbEntity
  8
DEFPOINTS
 62
     0
 48
50.0
100
AcDbPoint
 10
7584.110374929363
 20
5647.919036112856
 30
0.0
  0
ENDBLK
  5
1DA5D
330
1DA51
100
AcDbEntity
  8
0
 48
50.0
100
AcDbBlockEnd
  0
BLOCK
  5
1DA67
330
1DA5E
100
AcDbEntity
  8
0
 48
50.0
100
AcDbBlockBegin
  2
*D3
 70
     1
 10
0.0
 20
0.0
 30
0.0
  3
*D3
  1

  0
LINE
  5
20F24
330
1DA5E
100
AcDbEntity
  8
寸法
 62
     0
 48
50.0
370
    -2
100
AcDbLine
 10
9416.213011273896
 20
7469.91903611286
 30
0.0
 11
9416.213011273896
 21
8336.250847072712
 31
0.0
  0
LINE
  5
20F25
330
1DA5E
100
AcDbEntity
  8
寸法
 62
     0
 48
50.0
370
    -2
100
AcDbLine
 10
7022.213011273897
 20
7469.91903611286
 30
0.0
 11
7022.213011273897
 21
8336.250847072712
 31
0.0
  0
LINE
  5
20F26
330
1DA5E
100
AcDbEntity
  8
寸法
 62
     0
 48
50.0
370
    -2
100
AcDbLine
 10
9416.213011273896
 20
8276.250847072711
 30
0.0
 11
7022.213011273897
 21
8276.250847072711
 31
0.0
  0
INSERT
  5
20F27
330
1DA5E
100
AcDbEntity
  8
寸法
 62
     0
 48
50.0
370
    -2
100
AcDbBlockReference
  2
_DOTSMALL
 10
9416.213011273896
 20
8276.250847072711
 30
0.0
 41
100.0
 42
100.0
 43
100.0
  0
INSERT
  5
20F28
330
1DA5E
100
AcDbEntity
  8
寸法
 62
     0
 48
50.0
370
    -2
100
AcDbBlockReference
  2
_DOTSMALL
 10
7022.213011273897
 20
8276.250847072711
 30
0.0
 41
100.0
 42
100.0
 43
100.0
 50
180.0
  0
MTEXT
  5
20F29
330
1DA5E
100
AcDbEntity
  8
寸法
 62
     7
 48
50.0
100
AcDbMText
 10
8219.213011273897
 20
8376.262658096333
 30
0.0
 40
120.0
 41
0.0
 71
     5
 72
     1
  1
\A1;2394
  7
STYLE1
 73
     1
 44
1.0
1001
ACAD
1000
MTEXTBEGIN
1070
    73
1070
     1
1070
    44
1040
1.0
1070
    74
1070
     0
1000
MTEXTEND
  0
POINT
  5
20F2A
330
1DA5E
100
AcDbEntity
  8
DEFPOINTS
 62
     0
 48
50.0
100
AcDbPoint
 10
9416.213011273896
 20
7449.919036112861
 30
0.0
  0
POINT
  5
20F2B
330
1DA5E
100
AcDbEntity
  8
DEFPOINTS
 62
     0
 48
50.0
100
AcDbPoint
 10
7022.213011273897
 20
7449.919036112861
 30
0.0
  0
POINT
  5
20F2C
330
1DA5E
100
AcDbEntity
  8
DEFPOINTS
 62
     0
 48
50.0
100
AcDbPoint
 10
7022.213011273897
 20
8276.250847072711
 30
0.0
  0
ENDBLK
  5
1DA68
330
1DA5E
100
AcDbEntity
  8
0
 48
50.0
100
AcDbBlockEnd
  0
BLOCK
  5
1DA72
330
1DA69
100
AcDbEntity
  8
0
 48
50.0
100
AcDbBlockBegin
  2
*D4
 70
     1
 10
0.0
 20
0.0
 30
0.0
  3
*D4
  1

  0
LINE
  5
20F1B
330
1DA69
100
AcDbEntity
  8
寸法
 62
     0
 48
50.0
370
    -2
100
AcDbLine
 10
6899.213011273895
 20
7542.919036112859
 30
0.0
 11
6899.213011273895
 21
8548.711542589549
 31
0.0
  0
LINE
  5
20F1C
330
1DA69
100
AcDbEntity
  8
寸法
 62
     0
 48
50.0
370
    -2
100
AcDbLine
 10
9539.213011273897
 20
7542.919036112862
 30
0.0
 11
9539.213011273897
 21
8548.711542589549
 31
0.0
  0
LINE
  5
20F1D
330
1DA69
100
AcDbEntity
  8
寸法
 62
     0
 48
50.0
370
    -2
100
AcDbLine
 10
6899.213011273895
 20
8488.711542589548
 30
0.0
 11
9539.213011273897
 21
8488.711542589548
 31
0.0
  0
INSERT
  5
20F1E
330
1DA69
100
AcDbEntity
  8
寸法
 62
     0
 48
50.0
370
    -2
100
AcDbBlockReference
  2
_DOTSMALL
 10
6899.213011273895
 20
8488.711542589548
 30
0.0
 41
100.0
 42
100.0
 43
100.0
 50
180.0
  0
INSERT
  5
20F1F
330
1DA69
100
AcDbEntity
  8
寸法
 62
     0
 48
50.0
370
    -2
100
AcDbBlockReference
  2
_DOTSMALL
 10
9539.213011273897
 20
8488.711542589548
 30
0.0
 41
100.0
 42
100.0
 43
100.0
  0
MTEXT
  5
20F20
330
1DA69
100
AcDbEntity
  8
寸法
 62
     7
 48
50.0
100
AcDbMText
 10
8219.213011273897
 20
8588.72335361317
 30
0.0
 40
120.0
 41
0.0
 71
     5
 72
     1
  1
\A1;2640
  7
STYLE1
 73
     1
 44
1.0
1001
ACAD
1000
MTEXTBEGIN
1070
    73
1070
     1
1070
    44
1040
1.0
1070
    74
1070
     0
1000
MTEXTEND
  0
POINT
  5
20F21
330
1DA69
100
AcDbEntity
  8
DEFPOINTS
 62
     0
 48
50.0
100
AcDbPoint
 10
6899.213011273895
 20
7522.919036112859
 30
0.0
  0
POINT
  5
20F22
330
1DA69
100
AcDbEntity
  8
DEFPOINTS
 62
     0
 48
50.0
100
AcDbPoint
 10
9539.213011273897
 20
7522.919036112861
 30
0.0
  0
POINT
  5
20F23
330
1DA69
100
AcDbEntity
  8
DEFPOINTS
 62
     0
 48
50.0
100
AcDbPoint
 10
9539.213011273897
 20
8488.711542589548
 30
0.0
  0
ENDBLK
  5
1DA73
330
1DA69
100
AcDbEntity
  8
0
 48
50.0
100
AcDbBlockEnd
  0
BLOCK
  5
1DA7F
330
1DA74
100
AcDbEntity
  8
0
 48
50.0
100
AcDbBlockBegin
  2
*D5
 70
     1
 10
0.0
 20
0.0
 30
0.0
  3
*D5
  1

  0
LINE
  5
20F11
330
1DA74
100
AcDbEntity
  8
寸法
 62
     0
 48
50.0
370
    -2
100
AcDbLine
 10
7022.213011273897
 20
7469.91903611286
 30
0.0
 11
7022.213011273897
 21
8336.250847072712
 31
0.0
  0
LINE
  5
20F12
330
1DA74
100
AcDbEntity
  8
寸法
 62
     0
 48
50.0
370
    -2
100
AcDbLine
 10
6899.213011273895
 20
7542.919036112859
 30
0.0
 11
6899.213011273895
 21
8336.250847072712
 31
0.0
  0
LINE
  5
20F13
330
1DA74
100
AcDbEntity
  8
寸法
 62
     0
 48
50.0
370
    -2
100
AcDbLine
 10
7022.213011273897
 20
8276.250847072711
 30
0.0
 11
6899.213011273895
 21
8276.250847072711
 31
0.0
  0
LINE
  5
20F14
330
1DA74
100
AcDbEntity
  8
寸法
 62
     0
 48
50.0
370
    -2
100
AcDbLine
 10
6899.213011273895
 20
8276.250847072711
 30
0.0
 11
6522.242448525417
 21
8276.250847072711
 31
0.0
  0
INSERT
  5
20F15
330
1DA74
100
AcDbEntity
  8
寸法
 62
     0
 48
50.0
370
    -2
100
AcDbBlockReference
  2
_DOTSMALL
 10
7022.213011273897
 20
8276.250847072711
 30
0.0
 41
100.0
 42
100.0
 43
100.0
  0
INSERT
  5
20F16
330
1DA74
100
AcDbEntity
  8
寸法
 62
     0
 48
50.0
370
    -2
100
AcDbBlockReference
  2
_DOTSMALL
 10
6899.213011273895
 20
8276.250847072711
 30
0.0
 41
100.0
 42
100.0
 43
100.0
 50
180.0
  0
MTEXT
  5
20F17
330
1DA74
100
AcDbEntity
  8
寸法
 62
     7
 48
50.0
100
AcDbMText
 10
6660.727729899656
 20
8376.262658096333
 30
0.0
 40
120.0
 41
0.0
 71
     5
 72
     1
  1
\A1;123
  7
STYLE1
 73
     1
 44
1.0
1001
ACAD
1000
MTEXTBEGIN
1070
    73
1070
     1
1070
    44
1040
1.0
1070
    74
1070
     0
1000
MTEXTEND
  0
POINT
  5
20F18
330
1DA74
100
AcDbEntity
  8
DEFPOINTS
 62
     0
 48
50.0
100
AcDbPoint
 10
7022.213011273897
 20
7449.919036112861
 30
0.0
  0
POINT
  5
20F19
330
1DA74
100
AcDbEntity
  8
DEFPOINTS
 62
     0
 48
50.0
100
AcDbPoint
 10
6899.213011273895
 20
7522.919036112859
 30
0.0
  0
POINT
  5
20F1A
330
1DA74
100
AcDbEntity
  8
DEFPOINTS
 62
     0
 48
50.0
100
AcDbPoint
 10
6899.213011273895
 20
8276.250847072711
 30
0.0
  0
ENDBLK
  5
1DA80
330
1DA74
100
AcDbEntity
  8
0
 48
50.0
100
AcDbBlockEnd
  0
BLOCK
  5
1DA8C
330
1DA81
100
AcDbEntity
  8
0
 48
50.0
100
AcDbBlockBegin
  2
*D6
 70
     1
 10
0.0
 20
0.0
 30
0.0
  3
*D6
  1

  0
LINE
  5
20F06
330
1DA81
100
AcDbEntity
  8
寸法
 62
     0
 48
50.0
370
    -2
100
AcDbLine
 10
6854.213011273893
 20
8296.250847072711
 30
0.0
 11
6854.213011273893
 21
8548.711542589549
 31
0.0
  0
LINE
  5
20F07
330
1DA81
100
AcDbEntity
  8
寸法
 62
     0
 48
50.0
370
    -2
100
AcDbLine
 10
6899.213011273896
 20
7691.190236682782
 30
0.0
 11
6899.213011273896
 21
8548.711542589549
 31
0.0
  0
LINE
  5
20F08
330
1DA81
100
AcDbEntity
  8
寸法
 62
     0
 48
50.0
370
    -2
100
AcDbLine
 10
6854.213011273893
 20
8488.71154258955
 30
0.0
 11
6754.213011273893
 21
8488.71154258955
 31
0.0
  0
LINE
  5
20F09
330
1DA81
100
AcDbEntity
  8
寸法
 62
     0
 48
50.0
370
    -2
100
AcDbLine
 10
6899.213011273896
 20
8488.71154258955
 30
0.0
 11
6999.213011273896
 21
8488.71154258955
 31
0.0
  0
LINE
  5
20F0A
330
1DA81
100
AcDbEntity
  8
寸法
 62
     0
 48
50.0
370
    -2
100
AcDbLine
 10
6854.213011273893
 20
8488.71154258955
 30
0.0
 11
6899.213011273896
 21
8488.71154258955
 31
0.0
  0
INSERT
  5
20F0B
330
1DA81
100
AcDbEntity
  8
寸法
 62
     0
 48
50.0
370
    -2
100
AcDbBlockReference
  2
_DOTSMALL
 10
6854.213011273893
 20
8488.71154258955
 30
0.0
 41
100.0
 42
100.0
 43
100.0
  0
INSERT
  5
20F0C
330
1DA81
100
AcDbEntity
  8
寸法
 62
     0
 48
50.0
370
    -2
100
AcDbBlockReference
  2
_DOTSMALL
 10
6899.213011273896
 20
8488.71154258955
 30
0.0
 41
100.0
 42
100.0
 43
100.0
 50
180.0
  0
MTEXT
  5
20F0D
330
1DA81
100
AcDbEntity
  8
寸法
 62
     7
 48
50.0
100
AcDbMText
 10
6876.713011273894
 20
8588.71154258955
 30
0.0
 40
120.0
 41
0.0
 71
     5
 72
     1
  1
\A1;a
  7
STYLE1
 73
     1
 44
1.0
1001
ACAD
1000
MTEXTBEGIN
1070
    73
1070
     1
1070
    44
1040
1.0
1070
    74
1070
     0
1000
MTEXTEND
  0
POINT
  5
20F0E
330
1DA81
100
AcDbEntity
  8
DEFPOINTS
 62
     0
 48
50.0
100
AcDbPoint
 10
6854.213011273893
 20
8276.250847072711
 30
0.0
  0
POINT
  5
20F0F
330
1DA81
100
AcDbEntity
  8
DEFPOINTS
 62
     0
 48
50.0
100
AcDbPoint
 10
6899.213011273896
 20
7671.190236682781
 30
0.0
  0
POINT
  5
20F10
330
1DA81
100
AcDbEntity
  8
DEFPOINTS
 62
     0
 48
50.0
100
AcDbPoint
 10
6899.213011273896
 20
8488.71154258955
 30
0.0
  0
ENDBLK
  5
1DA8D
330
1DA81
100
AcDbEntity
  8
0
 48
50.0
100
AcDbBlockEnd
  0
BLOCK
  5
1DA98
330
1DA8E
100
AcDbEntity
  8
0
 48
50.0
100
AcDbBlockBegin
  2
*D7
 70
     1
 10
0.0
 20
0.0
 30
0.0
  3
*D7
  1

  0
LINE
  5
212AE
330
1DA8E
100
AcDbEntity
  8
寸法
 62
     0
 48
50.0
370
    -2
100
AcDbLine
 10
6952.213011273896
 20
7399.919036112861
 30
0.0
 11
6343.270745260077
 21
7399.919036112861
 31
0.0
  0
LINE
  5
212AF
330
1DA8E
100
AcDbEntity
  8
寸法
 62
     0
 48
50.0
370
    -2
100
AcDbLine
 10
6952.213011273904
 20
5845.919036112861
 30
0.0
 11
6343.270745260075
 21
5845.919036112861
 31
0.0
  0
LINE
  5
212B0
330
1DA8E
100
AcDbEntity
  8
寸法
 62
     0
 48
50.0
370
    -2
100
AcDbLine
 10
6403.270745260076
 20
7399.919036112861
 30
0.0
 11
6403.270745260076
 21
5845.919036112861
 31
0.0
  0
INSERT
  5
212B1
330
1DA8E
100
AcDbEntity
  8
寸法
 62
     0
 48
50.0
370
    -2
100
AcDbBlockReference
  2
_DOTSMALL
 10
6403.270745260076
 20
7399.919036112861
 30
0.0
 41
100.0
 42
100.0
 43
100.0
 50
90.0
  0
INSERT
  5
212B2
330
1DA8E
100
AcDbEntity
  8
寸法
 62
     0
 48
50.0
370
    -2
100
AcDbBlockReference
  2
_DOTSMALL
 10
6403.270745260076
 20
5845.919036112861
 30
0.0
 41
100.0
 42
100.0
 43
100.0
 50
270.0
  0
MTEXT
  5
212B3
330
1DA8E
100
AcDbEntity
  8
寸法
 62
     7
 48
50.0
100
AcDbMText
 10
6303.270745260075
 20
6634.05280691343
 30
0.0
 40
120.0
 41
0.0
 71
     5
 72
     1
  1
\A1;1554
  7
STYLE1
 11
0.0000000000000001
 21
1.0
 31
0.0
 73
     1
 44
1.0
1001
ACAD
1000
MTEXTBEGIN
1070
    73
1070
     1
1070
    44
1040
1.0
1070
    74
1070
     0
1000
MTEXTEND
  0
POINT
  5
212B4
330
1DA8E
100
AcDbEntity
  8
DEFPOINTS
 62
     0
 48
50.0
100
AcDbPoint
 10
6972.213011273897
 20
7399.919036112861
 30
0.0
  0
POINT
  5
212B5
330
1DA8E
100
AcDbEntity
  8
DEFPOINTS
 62
     0
 48
50.0
100
AcDbPoint
 10
6972.213011273904
 20
5845.919036112861
 30
0.0
  0
POINT
  5
212B6
330
1DA8E
100
AcDbEntity
  8
DEFPOINTS
 62
     0
 48
50.0
100
AcDbPoint
 10
6403.270745260076
 20
5845.919036112861
 30
0.0
  0
ENDBLK
  5
1DA99
330
1DA8E
100
AcDbEntity
  8
0
 48
50.0
100
AcDbBlockEnd
  0
BLOCK
  5
1DAA3
330
1DA9A
100
AcDbEntity
  8
0
 48
50.0
100
AcDbBlockBegin
  2
*D8
 70
     1
 10
0.0
 20
0.0
 30
0.0
  3
*D8
  1

  0
LINE
  5
20EF4
330
1DA9A
100
AcDbEntity
  8
寸法
 62
     0
 48
50.0
370
    -2
100
AcDbLine
 10
6879.213011273894
 20
7522.919036112863
 30
0.0
 11
6097.77794312211
 21
7522.919036112863
 31
0.0
  0
LINE
  5
20EF5
330
1DA9A
100
AcDbEntity
  8
寸法
 62
     0
 48
50.0
370
    -2
100
AcDbLine
 10
6879.213011273897
 20
5722.919036112859
 30
0.0
 11
6097.777943122109
 21
5722.91903611286
 31
0.0
  0
LINE
  5
20EF6
330
1DA9A
100
AcDbEntity
  8
寸法
 62
     0
 48
50.0
370
    -2
100
AcDbLine
 10
6157.777943122109
 20
7522.919036112863
 30
0.0
 11
6157.777943122109
 21
5722.919036112859
 31
0.0
  0
INSERT
  5
20EF7
330
1DA9A
100
AcDbEntity
  8
寸法
 62
     0
 48
50.0
370
    -2
100
AcDbBlockReference
  2
_DOTSMALL
 10
6157.777943122109
 20
7522.919036112863
 30
0.0
 41
100.0
 42
100.0
 43
100.0
 50
90.0
  0
INSERT
  5
20EF8
330
1DA9A
100
AcDbEntity
  8
寸法
 62
     0
 48
50.0
370
    -2
100
AcDbBlockReference
  2
_DOTSMALL
 10
6157.777943122109
 20
5722.919036112859
 30
0.0
 41
100.0
 42
100.0
 43
100.0
 50
270.0
  0
MTEXT
  5
20EF9
330
1DA9A
100
AcDbEntity
  8
寸法
 62
     7
 48
50.0
100
AcDbMText
 10
6057.777943122108
 20
6651.31453344319
 30
0.0
 40
120.0
 41
0.0
 71
     5
 72
     1
  1
\A1;1800
  7
STYLE1
 11
0.0000000000000001
 21
1.0
 31
0.0
 73
     1
 44
1.0
1001
ACAD
1000
MTEXTBEGIN
1070
    73
1070
     1
1070
    44
1040
1.0
1070
    74
1070
     0
1000
MTEXTEND
  0
POINT
  5
20EFA
330
1DA9A
100
AcDbEntity
  8
DEFPOINTS
 62
     0
 48
50.0
100
AcDbPoint
 10
6899.213011273895
 20
7522.919036112863
 30
0.0
  0
POINT
  5
20EFB
330
1DA9A
100
AcDbEntity
  8
DEFPOINTS
 62
     0
 48
50.0
100
AcDbPoint
 10
6899.213011273897
 20
5722.919036112859
 30
0.0
  0
POINT
  5
20EFC
330
1DA9A
100
AcDbEntity
  8
DEFPOINTS
 62
     0
 48
50.0
100
AcDbPoint
 10
6157.777943122109
 20
5722.919036112859
 30
0.0
  0
ENDBLK
  5
1DAA4
330
1DA9A
100
AcDbEntity
  8
0
 48
50.0
100
AcDbBlockEnd
  0
BLOCK
  5
1DAB0
330
1DAA5
100
AcDbEntity
  8
0
 48
50.0
100
AcDbBlockBegin
  2
*D9
 70
     1
 10
0.0
 20
0.0
 30
0.0
  3
*D9
  1

  0
LINE
  5
212A4
330
1DAA5
100
AcDbEntity
  8
寸法
 62
     0
 48
50.0
370
    -2
100
AcDbLine
 10
6952.213011273904
 20
5845.919036112861
 30
0.0
 11
6343.270745260075
 21
5845.919036112861
 31
0.0
  0
LINE
  5
212A5
330
1DAA5
100
AcDbEntity
  8
寸法
 62
     0
 48
50.0
370
    -2
100
AcDbLine
 10
6879.213011273897
 20
5722.919036112859
 30
0.0
 11
6343.270745260075
 21
5722.919036112859
 31
0.0
  0
LINE
  5
212A6
330
1DAA5
100
AcDbEntity
  8
寸法
 62
     0
 48
50.0
370
    -2
100
AcDbLine
 10
6403.270745260076
 20
5845.919036112861
 30
0.0
 11
6403.270745260076
 21
5722.919036112859
 31
0.0
  0
LINE
  5
212A7
330
1DAA5
100
AcDbEntity
  8
寸法
 62
     0
 48
50.0
370
    -2
100
AcDbLine
 10
6403.270745260076
 20
5722.919036112859
 30
0.0
 11
6403.270745260076
 21
5345.948473364382
 31
0.0
  0
INSERT
  5
212A8
330
1DAA5
100
AcDbEntity
  8
寸法
 62
     0
 48
50.0
370
    -2
100
AcDbBlockReference
  2
_DOTSMALL
 10
6403.270745260076
 20
5845.919036112861
 30
0.0
 41
100.0
 42
100.0
 43
100.0
 50
90.0
  0
INSERT
  5
212A9
330
1DAA5
100
AcDbEntity
  8
寸法
 62
     0
 48
50.0
370
    -2
100
AcDbBlockReference
  2
_DOTSMALL
 10
6403.270745260076
 20
5722.919036112859
 30
0.0
 41
100.0
 42
100.0
 43
100.0
 50
270.0
  0
MTEXT
  5
212AA
330
1DAA5
100
AcDbEntity
  8
寸法
 62
     7
 48
50.0
100
AcDbMText
 10
6303.258934236453
 20
5484.433754738623
 30
0.0
 40
120.0
 41
0.0
 71
     5
 72
     1
  1
\A1;123
  7
STYLE1
 11
0.0000000000000001
 21
1.0
 31
0.0
 73
     1
 44
1.0
1001
ACAD
1000
MTEXTBEGIN
1070
    73
1070
     1
1070
    44
1040
1.0
1070
    74
1070
     0
1000
MTEXTEND
  0
POINT
  5
212AB
330
1DAA5
100
AcDbEntity
  8
DEFPOINTS
 62
     0
 48
50.0
100
AcDbPoint
 10
6972.213011273904
 20
5845.919036112861
 30
0.0
  0
POINT
  5
212AC
330
1DAA5
100
AcDbEntity
  8
DEFPOINTS
 62
     0
 48
50.0
100
AcDbPoint
 10
6899.213011273897
 20
5722.919036112859
 30
0.0
  0
POINT
  5
212AD
330
1DAA5
100
AcDbEntity
  8
DEFPOINTS
 62
     0
 48
50.0
100
AcDbPoint
 10
6403.270745260076
 20
5722.919036112859
 30
0.0
  0
ENDBLK
  5
1DAB1
330
1DAA5
100
AcDbEntity
  8
0
 48
50.0
100
AcDbBlockEnd
  0
BLOCK
  5
1DABC
330
1DAB2
100
AcDbEntity
  8
0
 48
50.0
100
AcDbBlockBegin
  2
*D10
 70
     1
 10
0.0
 20
0.0
 30
0.0
  3
*D10
  1

  0
LINE
  5
20EDF
330
1DAB2
100
AcDbEntity
  8
寸法
 62
     0
 48
50.0
370
    -2
100
AcDbLine
 10
6879.213011273897
 20
5722.919036112859
 30
0.0
 11
6097.777943122109
 21
5722.91903611286
 31
0.0
  0
LINE
  5
20EE0
330
1DAB2
100
AcDbEntity
  8
寸法
 62
     0
 48
50.0
370
    -2
100
AcDbLine
 10
6383.270745260075
 20
5667.919036112859
 30
0.0
 11
6097.777943122109
 21
5667.91903611286
 31
0.0
  0
LINE
  5
20EE1
330
1DAB2
100
AcDbEntity
  8
寸法
 62
     0
 48
50.0
370
    -2
100
AcDbLine
 10
6157.777943122109
 20
5722.919036112859
 30
0.0
 11
6157.777943122109
 21
5822.919036112859
 31
0.0
  0
LINE
  5
20EE2
330
1DAB2
100
AcDbEntity
  8
寸法
 62
     0
 48
50.0
370
    -2
100
AcDbLine
 10
6157.777943122109
 20
5667.919036112859
 30
0.0
 11
6157.777943122109
 21
5567.91903611286
 31
0.0
  0
LINE
  5
20EE3
330
1DAB2
100
AcDbEntity
  8
寸法
 62
     0
 48
50.0
370
    -2
100
AcDbLine
 10
6157.777943122109
 20
5722.919036112859
 30
0.0
 11
6157.777943122109
 21
5667.919036112859
 31
0.0
  0
INSERT
  5
20EE4
330
1DAB2
100
AcDbEntity
  8
寸法
 62
     0
 48
50.0
370
    -2
100
AcDbBlockReference
  2
_DOTSMALL
 10
6157.777943122109
 20
5722.919036112859
 30
0.0
 41
100.0
 42
100.0
 43
100.0
 50
270.0
  0
INSERT
  5
20EE5
330
1DAB2
100
AcDbEntity
  8
寸法
 62
     0
 48
50.0
370
    -2
100
AcDbBlockReference
  2
_DOTSMALL
 10
6157.777943122109
 20
5667.919036112859
 30
0.0
 41
100.0
 42
100.0
 43
100.0
 50
90.0
  0
MTEXT
  5
20EE6
330
1DAB2
100
AcDbEntity
  8
寸法
 62
     7
 48
50.0
100
AcDbMText
 10
6057.777943122108
 20
5695.419036112861
 30
0.0
 40
120.0
 41
0.0
 71
     5
 72
     1
  1
\A1;b
  7
STYLE1
 11
0.0000000000000001
 21
1.0
 31
0.0
 73
     1
 44
1.0
1001
ACAD
1000
MTEXTBEGIN
1070
    73
1070
     1
1070
    44
1040
1.0
1070
    74
1070
     0
1000
MTEXTEND
  0
POINT
  5
20EE7
330
1DAB2
100
AcDbEntity
  8
DEFPOINTS
 62
     0
 48
50.0
100
AcDbPoint
 10
6899.213011273897
 20
5722.919036112859
 30
0.0
  0
POINT
  5
20EE8
330
1DAB2
100
AcDbEntity
  8
DEFPOINTS
 62
     0
 48
50.0
100
AcDbPoint
 10
6403.270745260076
 20
5667.919036112859
 30
0.0
  0
POINT
  5
20EE9
330
1DAB2
100
AcDbEntity
  8
DEFPOINTS
 62
     0
 48
50.0
100
AcDbPoint
 10
6157.777943122109
 20
5667.919036112859
 30
0.0
  0
ENDBLK
  5
1DABD
330
1DAB2
100
AcDbEntity
  8
0
 48
50.0
100
AcDbBlockEnd
  0
BLOCK
  5
1DAC9
330
1DABE
100
AcDbEntity
  8
0
 48
50.0
100
AcDbBlockBegin
  2
*D11
 70
     1
 10
0.0
 20
0.0
 30
0.0
  3
*D11
  1

  0
LINE
  5
20ED5
330
1DABE
100
AcDbEntity
  8
寸法
 62
     0
 48
50.0
370
    -2
100
AcDbLine
 10
6879.213011273896
 20
7522.91903611286
 30
0.0
 11
6343.270745260074
 21
7522.91903611286
 31
0.0
  0
LINE
  5
20ED6
330
1DABE
100
AcDbEntity
  8
寸法
 62
     0
 48
50.0
370
    -2
100
AcDbLine
 10
6952.213011273896
 20
7399.919036112861
 30
0.0
 11
6343.270745260074
 21
7399.919036112861
 31
0.0
  0
LINE
  5
20ED7
330
1DABE
100
AcDbEntity
  8
寸法
 62
     0
 48
50.0
370
    -2
100
AcDbLine
 10
6403.270745260075
 20
7399.919036112861
 30
0.0
 11
6403.270745260075
 21
7522.91903611286
 31
0.0
  0
LINE
  5
20ED8
330
1DABE
100
AcDbEntity
  8
寸法
 62
     0
 48
50.0
370
    -2
100
AcDbLine
 10
6403.270745260075
 20
7522.91903611286
 30
0.0
 11
6403.270745260075
 21
7899.889598861339
 31
0.0
  0
INSERT
  5
20ED9
330
1DABE
100
AcDbEntity
  8
寸法
 62
     0
 48
50.0
370
    -2
100
AcDbBlockReference
  2
_DOTSMALL
 10
6403.270745260075
 20
7399.919036112861
 30
0.0
 41
100.0
 42
100.0
 43
100.0
 50
270.0
  0
INSERT
  5
20EDA
330
1DABE
100
AcDbEntity
  8
寸法
 62
     0
 48
50.0
370
    -2
100
AcDbBlockReference
  2
_DOTSMALL
 10
6403.270745260075
 20
7522.91903611286
 30
0.0
 41
100.0
 42
100.0
 43
100.0
 50
90.0
  0
MTEXT
  5
20EDB
330
1DABE
100
AcDbEntity
  8
寸法
 62
     7
 48
50.0
100
AcDbMText
 10
6303.258934236452
 20
7761.4043174871
 30
0.0
 40
120.0
 41
0.0
 71
     5
 72
     1
  1
\A1;123
  7
STYLE1
 11
0.0000000000000001
 21
1.0
 31
0.0
 73
     1
 44
1.0
1001
ACAD
1000
MTEXTBEGIN
1070
    73
1070
     1
1070
    44
1040
1.0
1070
    74
1070
     0
1000
MTEXTEND
  0
POINT
  5
20EDC
330
1DABE
100
AcDbEntity
  8
DEFPOINTS
 62
     0
 48
50.0
100
AcDbPoint
 10
6899.213011273896
 20
7522.91903611286
 30
0.0
  0
POINT
  5
20EDD
330
1DABE
100
AcDbEntity
  8
DEFPOINTS
 62
     0
 48
50.0
100
AcDbPoint
 10
6972.213011273897
 20
7399.919036112861
 30
0.0
  0
POINT
  5
20EDE
330
1DABE
100
AcDbEntity
  8
DEFPOINTS
 62
     0
 48
50.0
100
AcDbPoint
 10
6403.270745260075
 20
7399.919036112861
 30
0.0
  0
ENDBLK
  5
1DACA
330
1DABE
100
AcDbEntity
  8
0
 48
50.0
100
AcDbBlockEnd
  0
BLOCK
  5
1DAD7
330
1DACB
100
AcDbEntity
  8
0
 48
50.0
100
AcDbBlockBegin
  2
*D12
 70
     1
 10
0.0
 20
0.0
 30
0.0
  3
*D12
  1

  0
LINE
  5
20ECA
330
1DACB
100
AcDbEntity
  8
寸法
 62
     0
 48
50.0
370
    -2
100
AcDbLine
 10
6383.270745260075
 20
7597.91903611286
 30
0.0
 11
6097.777943122107
 21
7597.919036112862
 31
0.0
  0
LINE
  5
20ECB
330
1DACB
100
AcDbEntity
  8
寸法
 62
     0
 48
50.0
370
    -2
100
AcDbLine
 10
6879.213011273896
 20
7522.91903611286
 30
0.0
 11
6097.777943122107
 21
7522.919036112861
 31
0.0
  0
LINE
  5
20ECC
330
1DACB
100
AcDbEntity
  8
寸法
 62
     0
 48
50.0
370
    -2
100
AcDbLine
 10
6157.777943122107
 20
7597.91903611286
 30
0.0
 11
6157.777943122107
 21
7697.91903611286
 31
0.0
  0
LINE
  5
20ECD
330
1DACB
100
AcDbEntity
  8
寸法
 62
     0
 48
50.0
370
    -2
100
AcDbLine
 10
6157.777943122107
 20
7522.91903611286
 30
0.0
 11
6157.777943122107
 21
7422.91903611286
 31
0.0
  0
LINE
  5
20ECE
330
1DACB
100
AcDbEntity
  8
寸法
 62
     0
 48
50.0
370
    -2
100
AcDbLine
 10
6157.777943122107
 20
7597.91903611286
 30
0.0
 11
6157.777943122107
 21
7522.91903611286
 31
0.0
  0
INSERT
  5
20ECF
330
1DACB
100
AcDbEntity
  8
寸法
 62
     0
 48
50.0
370
    -2
100
AcDbBlockReference
  2
_DOTSMALL
 10
6157.777943122107
 20
7597.91903611286
 30
0.0
 41
100.0
 42
100.0
 43
100.0
 50
270.0
  0
INSERT
  5
20ED0
330
1DACB
100
AcDbEntity
  8
寸法
 62
     0
 48
50.0
370
    -2
100
AcDbBlockReference
  2
_DOTSMALL
 10
6157.777943122107
 20
7522.91903611286
 30
0.0
 41
100.0
 42
100.0
 43
100.0
 50
90.0
  0
MTEXT
  5
20ED1
330
1DACB
100
AcDbEntity
  8
寸法
 62
     7
 48
50.0
100
AcDbMText
 10
6057.777943122106
 20
7560.419036112863
 30
0.0
 40
120.0
 41
0.0
 71
     5
 72
     1
  1
\A1;c
  7
STYLE1
 11
0.0000000000000001
 21
1.0
 31
0.0
 73
     1
 44
1.0
1001
ACAD
1000
MTEXTBEGIN
1070
    73
1070
     1
1070
    44
1040
1.0
1070
    74
1070
     0
1000
MTEXTEND
  0
POINT
  5
20ED2
330
1DACB
100
AcDbEntity
  8
DEFPOINTS
 62
     0
 48
50.0
100
AcDbPoint
 10
6403.270745260076
 20
7597.91903611286
 30
0.0
  0
POINT
  5
20ED3
330
1DACB
100
AcDbEntity
  8
DEFPOINTS
 62
     0
 48
50.0
100
AcDbPoint
 10
6899.213011273896
 20
7522.91903611286
 30
0.0
  0
POINT
  5
20ED4
330
1DACB
100
AcDbEntity
  8
DEFPOINTS
 62
     0
 48
50.0
100
AcDbPoint
 10
6157.777943122107
 20
7522.91903611286
 30
0.0
  0
ENDBLK
  5
1DAD8
330
1DACB
100
AcDbEntity
  8
0
 48
50.0
100
AcDbBlockEnd
  0
BLOCK
  5
1DAE4
330
1DAD9
100
AcDbEntity
  8
0
 48
50.0
100
AcDbBlockBegin
  2
*D13
 70
     1
 10
0.0
 20
0.0
 30
0.0
  3
*D13
  1

  0
LINE
  5
20EC0
330
1DAD9
100
AcDbEntity
  8
寸法
 62
     0
 48
50.0
370
    -2
100
AcDbLine
 10
9539.213011273897
 20
7542.919036112862
 30
0.0
 11
9539.213011273897
 21
8336.250847072712
 31
0.0
  0
LINE
  5
20EC1
330
1DAD9
100
AcDbEntity
  8
寸法
 62
     0
 48
50.0
370
    -2
100
AcDbLine
 10
9416.213011273896
 20
7469.91903611286
 30
0.0
 11
9416.213011273896
 21
8336.250847072712
 31
0.0
  0
LINE
  5
20EC2
330
1DAD9
100
AcDbEntity
  8
寸法
 62
     0
 48
50.0
370
    -2
100
AcDbLine
 10
9416.213011273896
 20
8276.250847072711
 30
0.0
 11
9539.213011273897
 21
8276.250847072711
 31
0.0
  0
LINE
  5
20EC3
330
1DAD9
100
AcDbEntity
  8
寸法
 62
     0
 48
50.0
370
    -2
100
AcDbLine
 10
9539.213011273897
 20
8276.250847072711
 30
0.0
 11
9916.183574022372
 21
8276.250847072711
 31
0.0
  0
INSERT
  5
20EC4
330
1DAD9
100
AcDbEntity
  8
寸法
 62
     0
 48
50.0
370
    -2
100
AcDbBlockReference
  2
_DOTSMALL
 10
9416.213011273896
 20
8276.250847072711
 30
0.0
 41
100.0
 42
100.0
 43
100.0
 50
180.0
  0
INSERT
  5
20EC5
330
1DAD9
100
AcDbEntity
  8
寸法
 62
     0
 48
50.0
370
    -2
100
AcDbBlockReference
  2
_DOTSMALL
 10
9539.213011273897
 20
8276.250847072711
 30
0.0
 41
100.0
 42
100.0
 43
100.0
  0
MTEXT
  5
20EC6
330
1DAD9
100
AcDbEntity
  8
寸法
 62
     7
 48
50.0
100
AcDbMText
 10
9777.698292648134
 20
8376.262658096333
 30
0.0
 40
120.0
 41
0.0
 71
     5
 72
     1
  1
\A1;123
  7
STYLE1
 73
     1
 44
1.0
1001
ACAD
1000
MTEXTBEGIN
1070
    73
1070
     1
1070
    44
1040
1.0
1070
    74
1070
     0
1000
MTEXTEND
  0
POINT
  5
20EC7
330
1DAD9
100
AcDbEntity
  8
DEFPOINTS
 62
     0
 48
50.0
100
AcDbPoint
 10
9539.213011273897
 20
7522.919036112861
 30
0.0
  0
POINT
  5
20EC8
330
1DAD9
100
AcDbEntity
  8
DEFPOINTS
 62
     0
 48
50.0
100
AcDbPoint
 10
9416.213011273896
 20
7449.919036112861
 30
0.0
  0
POINT
  5
20EC9
330
1DAD9
100
AcDbEntity
  8
DEFPOINTS
 62
     0
 48
50.0
100
AcDbPoint
 10
9416.213011273896
 20
8276.250847072711
 30
0.0
  0
ENDBLK
  5
1DAE5
330
1DAD9
100
AcDbEntity
  8
0
 48
50.0
100
AcDbBlockEnd
  0
BLOCK
  5
1DAF1
330
1DAE6
100
AcDbEntity
  8
0
 48
50.0
100
AcDbBlockBegin
  2
*D14
 70
     1
 10
0.0
 20
0.0
 30
0.0
  3
*D14
  1

  0
LINE
  5
20EB5
330
1DAE6
100
AcDbEntity
  8
寸法
 62
     0
 48
50.0
370
    -2
100
AcDbLine
 10
9539.213011273897
 20
7691.190236682782
 30
0.0
 11
9539.213011273897
 21
8548.711542589549
 31
0.0
  0
LINE
  5
20EB6
330
1DAE6
100
AcDbEntity
  8
寸法
 62
     0
 48
50.0
370
    -2
100
AcDbLine
 10
9584.213011273895
 20
8296.250847072711
 30
0.0
 11
9584.213011273895
 21
8548.711542589549
 31
0.0
  0
LINE
  5
20EB7
330
1DAE6
100
AcDbEntity
  8
寸法
 62
     0
 48
50.0
370
    -2
100
AcDbLine
 10
9539.213011273897
 20
8488.711542589548
 30
0.0
 11
9439.213011273897
 21
8488.711542589548
 31
0.0
  0
LINE
  5
20EB8
330
1DAE6
100
AcDbEntity
  8
寸法
 62
     0
 48
50.0
370
    -2
100
AcDbLine
 10
9584.213011273895
 20
8488.711542589548
 30
0.0
 11
9684.213011273897
 21
8488.711542589548
 31
0.0
  0
LINE
  5
20EB9
330
1DAE6
100
AcDbEntity
  8
寸法
 62
     0
 48
50.0
370
    -2
100
AcDbLine
 10
9539.213011273897
 20
8488.711542589548
 30
0.0
 11
9584.213011273895
 21
8488.711542589548
 31
0.0
  0
INSERT
  5
20EBA
330
1DAE6
100
AcDbEntity
  8
寸法
 62
     0
 48
50.0
370
    -2
100
AcDbBlockReference
  2
_DOTSMALL
 10
9539.213011273897
 20
8488.711542589548
 30
0.0
 41
100.0
 42
100.0
 43
100.0
  0
INSERT
  5
20EBB
330
1DAE6
100
AcDbEntity
  8
寸法
 62
     0
 48
50.0
370
    -2
100
AcDbBlockReference
  2
_DOTSMALL
 10
9584.213011273895
 20
8488.711542589548
 30
0.0
 41
100.0
 42
100.0
 43
100.0
 50
180.0
  0
MTEXT
  5
20EBC
330
1DAE6
100
AcDbEntity
  8
寸法
 62
     7
 48
50.0
100
AcDbMText
 10
9561.713011273896
 20
8588.711542589548
 30
0.0
 40
120.0
 41
0.0
 71
     5
 72
     1
  1
\A1;a
  7
STYLE1
 73
     1
 44
1.0
1001
ACAD
1000
MTEXTBEGIN
1070
    73
1070
     1
1070
    44
1040
1.0
1070
    74
1070
     0
1000
MTEXTEND
  0
POINT
  5
20EBD
330
1DAE6
100
AcDbEntity
  8
DEFPOINTS
 62
     0
 48
50.0
100
AcDbPoint
 10
9539.213011273897
 20
7671.190236682781
 30
0.0
  0
POINT
  5
20EBE
330
1DAE6
100
AcDbEntity
  8
DEFPOINTS
 62
     0
 48
50.0
100
AcDbPoint
 10
9584.213011273895
 20
8276.250847072711
 30
0.0
  0
POINT
  5
20EBF
330
1DAE6
100
AcDbEntity
  8
DEFPOINTS
 62
     0
 48
50.0
100
AcDbPoint
 10
9584.213011273895
 20
8488.711542589548
 30
0.0
  0
ENDBLK
  5
1DAF2
330
1DAE6
100
AcDbEntity
  8
0
 48
50.0
100
AcDbBlockEnd
  0
BLOCK
  5
1DAFE
330
1DAF3
100
AcDbEntity
  8
0
 48
50.0
100
AcDbBlockBegin
  2
*D15
 70
     1
 10
0.0
 20
0.0
 30
0.0
  3
*D15
  1

  0
LINE
  5
20EAB
330
1DAF3
100
AcDbEntity
  8
寸法
 62
     0
 48
50.0
370
    -2
100
AcDbLine
 10
9539.213011273897
 20
7022.91903611287
 30
0.0
 11
9539.213011273897
 21
6924.422404093454
 31
0.0
  0
LINE
  5
20EAC
330
1DAF3
100
AcDbEntity
  8
寸法
 62
     0
 48
50.0
370
    -2
100
AcDbLine
 10
9419.213011273894
 20
7022.91903611287
 30
0.0
 11
9419.213011273894
 21
6924.422404093454
 31
0.0
  0
LINE
  5
20EAD
330
1DAF3
100
AcDbEntity
  8
寸法
 62
     0
 48
50.0
370
    -2
100
AcDbLine
 10
9419.213011273894
 20
6984.422404093454
 30
0.0
 11
9539.213011273897
 21
6984.422404093454
 31
0.0
  0
LINE
  5
20EAE
330
1DAF3
100
AcDbEntity
  8
寸法
 62
     0
 48
50.0
370
    -2
100
AcDbLine
 10
9539.213011273897
 20
6984.422404093454
 30
0.0
 11
9911.307499462873
 21
6984.422404093454
 31
0.0
  0
INSERT
  5
20EAF
330
1DAF3
100
AcDbEntity
  8
寸法
 62
     0
 48
50.0
370
    -2
100
AcDbBlockReference
  2
_DOTSMALL
 10
9419.213011273894
 20
6984.422404093454
 30
0.0
 41
100.0
 42
100.0
 43
100.0
 50
180.0
  0
INSERT
  5
20EB0
330
1DAF3
100
AcDbEntity
  8
寸法
 62
     0
 48
50.0
370
    -2
100
AcDbBlockReference
  2
_DOTSMALL
 10
9539.213011273897
 20
6984.422404093454
 30
0.0
 41
100.0
 42
100.0
 43
100.0
  0
MTEXT
  5
20EB1
330
1DAF3
100
AcDbEntity
  8
寸法
 62
     7
 48
50.0
100
AcDbMText
 10
9775.260255368385
 20
7084.434215117075
 30
0.0
 40
120.0
 41
0.0
 71
     5
 72
     1
  1
\A1;120
  7
STYLE1
 73
     1
 44
1.0
1001
ACAD
1000
MTEXTBEGIN
1070
    73
1070
     1
1070
    44
1040
1.0
1070
    74
1070
     0
1000
MTEXTEND
  0
POINT
  5
20EB2
330
1DAF3
100
AcDbEntity
  8
DEFPOINTS
 62
     0
 48
50.0
100
AcDbPoint
 10
9539.213011273897
 20
7042.919036112869
 30
0.0
  0
POINT
  5
20EB3
330
1DAF3
100
AcDbEntity
  8
DEFPOINTS
 62
     0
 48
50.0
100
AcDbPoint
 10
9419.213011273894
 20
7042.919036112869
 30
0.0
  0
POINT
  5
20EB4
330
1DAF3
100
AcDbEntity
  8
DEFPOINTS
 62
     0
 48
50.0
100
AcDbPoint
 10
9419.213011273894
 20
6984.422404093454
 30
0.0
  0
ENDBLK
  5
1DAFF
330
1DAF3
100
AcDbEntity
  8
0
 48
50.0
100
AcDbBlockEnd
  0
BLOCK
  5
1DB0B
330
1DB00
100
AcDbEntity
  8
0
 48
50.0
100
AcDbBlockBegin
  2
*D16
 70
     1
 10
0.0
 20
0.0
 30
0.0
  3
*D16
  1

  0
LINE
  5
20EA1
330
1DB00
100
AcDbEntity
  8
寸法
 62
     0
 48
50.0
370
    -2
100
AcDbLine
 10
7149.213011273896
 20
7402.919036112862
 30
0.0
 11
7419.723195186918
 21
7402.919036112862
 31
0.0
  0
LINE
  5
20EA2
330
1DB00
100
AcDbEntity
  8
寸法
 62
     0
 48
50.0
370
    -2
100
AcDbLine
 10
7149.213011273896
 20
7292.919036112856
 30
0.0
 11
7419.723195186918
 21
7292.919036112856
 31
0.0
  0
LINE
  5
20EA3
330
1DB00
100
AcDbEntity
  8
寸法
 62
     0
 48
50.0
370
    -2
100
AcDbLine
 10
7359.723195186919
 20
7402.919036112862
 30
0.0
 11
7359.723195186919
 21
7292.919036112856
 31
0.0
  0
LINE
  5
20EA4
330
1DB00
100
AcDbEntity
  8
寸法
 62
     0
 48
50.0
370
    -2
100
AcDbLine
 10
7359.723195186919
 20
7292.919036112856
 30
0.0
 11
7359.723195186919
 21
6910.551083440445
 31
0.0
  0
INSERT
  5
20EA5
330
1DB00
100
AcDbEntity
  8
寸法
 62
     0
 48
50.0
370
    -2
100
AcDbBlockReference
  2
_DOTSMALL
 10
7359.723195186919
 20
7402.919036112862
 30
0.0
 41
100.0
 42
100.0
 43
100.0
 50
90.0
  0
INSERT
  5
20EA6
330
1DB00
100
AcDbEntity
  8
寸法
 62
     0
 48
50.0
370
    -2
100
AcDbBlockReference
  2
_DOTSMALL
 10
7359.723195186919
 20
7292.919036112856
 30
0.0
 41
100.0
 42
100.0
 43
100.0
 50
270.0
  0
MTEXT
  5
20EA7
330
1DB00
100
AcDbEntity
  8
寸法
 62
     7
 48
50.0
100
AcDbMText
 10
7259.723195186918
 20
7034.598327534934
 30
0.0
 40
120.0
 41
0.0
 71
     5
 72
     1
  1
\A1;110
  7
STYLE1
 11
0.0000000000000001
 21
1.0
 31
0.0
 73
     1
 44
1.0
1001
ACAD
1000
MTEXTBEGIN
1070
    73
1070
     1
1070
    44
1040
1.0
1070
    74
1070
     0
1000
MTEXTEND
  0
POINT
  5
20EA8
330
1DB00
100
AcDbEntity
  8
DEFPOINTS
 62
     0
 48
50.0
100
AcDbPoint
 10
7129.213011273896
 20
7402.919036112862
 30
0.0
  0
POINT
  5
20EA9
330
1DB00
100
AcDbEntity
  8
DEFPOINTS
 62
     0
 48
50.0
100
AcDbPoint
 10
7129.213011273896
 20
7292.919036112856
 30
0.0
  0
POINT
  5
20EAA
330
1DB00
100
AcDbEntity
  8
DEFPOINTS
 62
     0
 48
50.0
100
AcDbPoint
 10
7359.723195186919
 20
7292.919036112856
 30
0.0
  0
ENDBLK
  5
1DB0C
330
1DB00
100
AcDbEntity
  8
0
 48
50.0
100
AcDbBlockEnd
  0
BLOCK
  5
1DB25
330
1DB1A
100
AcDbEntity
  8
0
 48
50.0
100
AcDbBlockBegin
  2
*D17
 70
     1
 10
0.0
 20
0.0
 30
0.0
  3
*D17
  1

  0
LINE
  5
20E97
330
1DB1A
100
AcDbEntity
  8
寸法
 62
     0
 48
50.0
370
    -2
100
AcDbLine
 10
7121.213011273896
 20
7522.919036112859
 30
0.0
 11
7419.723195186918
 21
7522.919036112859
 31
0.0
  0
LINE
  5
20E98
330
1DB1A
100
AcDbEntity
  8
寸法
 62
     0
 48
50.0
370
    -2
100
AcDbLine
 10
7149.213011273896
 20
7402.919036112862
 30
0.0
 11
7419.723195186918
 21
7402.919036112862
 31
0.0
  0
LINE
  5
20E99
330
1DB1A
100
AcDbEntity
  8
寸法
 62
     0
 48
50.0
370
    -2
100
AcDbLine
 10
7359.723195186919
 20
7402.919036112862
 30
0.0
 11
7359.723195186919
 21
7522.919036112859
 31
0.0
  0
LINE
  5
20E9A
330
1DB1A
100
AcDbEntity
  8
寸法
 62
     0
 48
50.0
370
    -2
100
AcDbLine
 10
7359.723195186919
 20
7522.919036112859
 30
0.0
 11
7359.723195186919
 21
7895.013524301835
 31
0.0
  0
INSERT
  5
20E9B
330
1DB1A
100
AcDbEntity
  8
寸法
 62
     0
 48
50.0
370
    -2
100
AcDbBlockReference
  2
_DOTSMALL
 10
7359.723195186919
 20
7402.919036112862
 30
0.0
 41
100.0
 42
100.0
 43
100.0
 50
270.0
  0
INSERT
  5
20E9C
330
1DB1A
100
AcDbEntity
  8
寸法
 62
     0
 48
50.0
370
    -2
100
AcDbBlockReference
  2
_DOTSMALL
 10
7359.723195186919
 20
7522.919036112859
 30
0.0
 41
100.0
 42
100.0
 43
100.0
 50
90.0
  0
MTEXT
  5
20E9D
330
1DB1A
100
AcDbEntity
  8
寸法
 62
     7
 48
50.0
100
AcDbMText
 10
7259.711384163296
 20
7758.966280207349
 30
0.0
 40
120.0
 41
0.0
 71
     5
 72
     1
  1
\A1;120
  7
STYLE1
 11
0.0000000000000001
 21
1.0
 31
0.0
 73
     1
 44
1.0
1001
ACAD
1000
MTEXTBEGIN
1070
    73
1070
     1
1070
    44
1040
1.0
1070
    74
1070
     0
1000
MTEXTEND
  0
POINT
  5
20E9E
330
1DB1A
100
AcDbEntity
  8
DEFPOINTS
 62
     0
 48
50.0
100
AcDbPoint
 10
7101.213011273896
 20
7522.919036112859
 30
0.0
  0
POINT
  5
20E9F
330
1DB1A
100
AcDbEntity
  8
DEFPOINTS
 62
     0
 48
50.0
100
AcDbPoint
 10
7129.213011273896
 20
7402.919036112862
 30
0.0
  0
POINT
  5
20EA0
330
1DB1A
100
AcDbEntity
  8
DEFPOINTS
 62
     0
 48
50.0
100
AcDbPoint
 10
7359.723195186919
 20
7402.919036112862
 30
0.0
  0
ENDBLK
  5
1DB26
330
1DB1A
100
AcDbEntity
  8
0
 48
50.0
100
AcDbBlockEnd
  0
BLOCK
  5
1E9D9
330
1E9D0
100
AcDbEntity
  8
0
 48
50.0
100
AcDbBlockBegin
  2
*D18
 70
     1
 10
0.0
 20
0.0
 30
0.0
  3
*D18
  1

  0
LINE
  5
21725
330
1E9D0
100
AcDbEntity
  8
寸法
 62
     0
 48
50.0
370
    -2
100
AcDbLine
 10
8703.713011273896
 20
6622.919036112868
 30
0.0
 11
8963.516201998267
 21
6622.919036112868
 31
0.0
  0
LINE
  5
21726
330
1E9D0
100
AcDbEntity
  8
寸法
 62
     0
 48
50.0
370
    -2
100
AcDbLine
 10
8794.713011273904
 20
7522.919036112863
 30
0.0
 11
8963.516201998267
 21
7522.919036112863
 31
0.0
  0
LINE
  5
21727
330
1E9D0
100
AcDbEntity
  8
寸法
 62
     0
 48
50.0
370
    -2
100
AcDbLine
 10
8903.516201998268
 20
6622.919036112868
 30
0.0
 11
8903.516201998268
 21
7522.919036112863
 31
0.0
  0
INSERT
  5
21728
330
1E9D0
100
AcDbEntity
  8
寸法
 62
     0
 48
50.0
370
    -2
100
AcDbBlockReference
  2
_DOTSMALL
 10
8903.516201998268
 20
6622.919036112868
 30
0.0
 41
100.0
 42
100.0
 43
100.0
 50
270.0
  0
INSERT
  5
21729
330
1E9D0
100
AcDbEntity
  8
寸法
 62
     0
 48
50.0
370
    -2
100
AcDbBlockReference
  2
_DOTSMALL
 10
8903.516201998268
 20
7522.919036112863
 30
0.0
 41
100.0
 42
100.0
 43
100.0
 50
90.0
  0
MTEXT
  5
2172A
330
1E9D0
100
AcDbEntity
  8
寸法
 62
     7
 48
50.0
100
AcDbMText
 10
8803.516201998265
 20
7072.919036112867
 30
0.0
 40
120.0
 41
0.0
 71
     5
 72
     1
  1
\A1;900
  7
STYLE1
 11
0.0000000000000001
 21
1.0
 31
0.0
 73
     1
 44
1.0
1001
ACAD
1000
MTEXTBEGIN
1070
    73
1070
     1
1070
    44
1040
1.0
1070
    74
1070
     0
1000
MTEXTEND
  0
POINT
  5
2172B
330
1E9D0
100
AcDbEntity
  8
DEFPOINTS
 62
     0
 48
50.0
100
AcDbPoint
 10
8683.713011273896
 20
6622.919036112868
 30
0.0
  0
POINT
  5
2172C
330
1E9D0
100
AcDbEntity
  8
DEFPOINTS
 62
     0
 48
50.0
100
AcDbPoint
 10
8774.713011273906
 20
7522.919036112863
 30
0.0
  0
POINT
  5
2172D
330
1E9D0
100
AcDbEntity
  8
DEFPOINTS
 62
     0
 48
50.0
100
AcDbPoint
 10
8903.516201998268
 20
7522.919036112863
 30
0.0
  0
ENDBLK
  5
1E9DA
330
1E9D0
100
AcDbEntity
  8
0
 48
50.0
100
AcDbBlockEnd
  0
BLOCK
  5
1EA3C
330
1EA32
100
AcDbEntity
  8
0
 48
50.0
100
AcDbBlockBegin
  2
*D19
 70
     1
 10
0.0
 20
0.0
 30
0.0
  3
*D19
  1

  0
LINE
  5
2171C
330
1EA32
100
AcDbEntity
  8
寸法
 62
     0
 48
50.0
370
    -2
100
AcDbLine
 10
8794.713011273904
 20
5647.919036112868
 30
0.0
 11
8963.516201998267
 21
5647.919036112868
 31
0.0
  0
LINE
  5
2171D
330
1EA32
100
AcDbEntity
  8
寸法
 62
     0
 48
50.0
370
    -2
100
AcDbLine
 10
8703.713011273896
 20
6622.919036112868
 30
0.0
 11
8963.516201998267
 21
6622.919036112868
 31
0.0
  0
LINE
  5
2171E
330
1EA32
100
AcDbEntity
  8
寸法
 62
     0
 48
50.0
370
    -2
100
AcDbLine
 10
8903.516201998268
 20
5647.919036112868
 30
0.0
 11
8903.516201998268
 21
6622.919036112868
 31
0.0
  0
INSERT
  5
2171F
330
1EA32
100
AcDbEntity
  8
寸法
 62
     0
 48
50.0
370
    -2
100
AcDbBlockReference
  2
_DOTSMALL
 10
8903.516201998268
 20
5647.919036112868
 30
0.0
 41
100.0
 42
100.0
 43
100.0
 50
270.0
  0
INSERT
  5
21720
330
1EA32
100
AcDbEntity
  8
寸法
 62
     0
 48
50.0
370
    -2
100
AcDbBlockReference
  2
_DOTSMALL
 10
8903.516201998268
 20
6622.919036112868
 30
0.0
 41
100.0
 42
100.0
 43
100.0
 50
90.0
  0
MTEXT
  5
21721
330
1EA32
100
AcDbEntity
  8
寸法
 62
     7
 48
50.0
100
AcDbMText
 10
8803.516201998265
 20
6104.500182931486
 30
0.0
 40
120.0
 41
0.0
 71
     5
 72
     1
  1
\A1;975
  7
STYLE1
 11
0.0000000000000001
 21
1.0
 31
0.0
 73
     1
 44
1.0
1001
ACAD
1000
MTEXTBEGIN
1070
    73
1070
     1
1070
    44
1040
1.0
1070
    74
1070
     0
1000
MTEXTEND
  0
POINT
  5
21722
330
1EA32
100
AcDbEntity
  8
DEFPOINTS
 62
     0
 48
50.0
100
AcDbPoint
 10
8774.713011273902
 20
5647.919036112868
 30
0.0
  0
POINT
  5
21723
330
1EA32
100
AcDbEntity
  8
DEFPOINTS
 62
     0
 48
50.0
100
AcDbPoint
 10
8683.713011273896
 20
6622.919036112868
 30
0.0
  0
POINT
  5
21724
330
1EA32
100
AcDbEntity
  8
DEFPOINTS
 62
     0
 48
50.0
100
AcDbPoint
 10
8903.516201998268
 20
6622.919036112868
 30
0.0
  0
ENDBLK
  5
1EA3D
330
1EA32
100
AcDbEntity
  8
0
 48
50.0
100
AcDbBlockEnd
  0
BLOCK
  5
1F253
330
1F24A
100
AcDbEntity
  8
0
 48
50.0
100
AcDbBlockBegin
  2
*D20
 70
     1
 10
0.0
 20
0.0
 30
0.0
  3
*D20
  1

  0
LINE
  5
20E73
330
1F24A
100
AcDbEntity
  8
寸法
 62
     0
 48
50.0
370
    -2
100
AcDbLine
 10
7804.213011273894
 20
6842.919036112869
 30
0.0
 11
7804.213011273894
 21
8109.828801761191
 31
0.0
  0
LINE
  5
20E74
330
1F24A
100
AcDbEntity
  8
寸法
 62
     0
 48
50.0
370
    -2
100
AcDbLine
 10
6899.213011273895
 20
7542.919036112862
 30
0.0
 11
6899.213011273895
 21
8109.828801761191
 31
0.0
  0
LINE
  5
20E75
330
1F24A
100
AcDbEntity
  8
寸法
 62
     0
 48
50.0
370
    -2
100
AcDbLine
 10
7804.213011273894
 20
8049.82880176119
 30
0.0
 11
6899.213011273895
 21
8049.82880176119
 31
0.0
  0
INSERT
  5
20E76
330
1F24A
100
AcDbEntity
  8
寸法
 62
     0
 48
50.0
370
    -2
100
AcDbBlockReference
  2
_DOTSMALL
 10
7804.213011273894
 20
8049.82880176119
 30
0.0
 41
100.0
 42
100.0
 43
100.0
  0
INSERT
  5
20E77
330
1F24A
100
AcDbEntity
  8
寸法
 62
     0
 48
50.0
370
    -2
100
AcDbBlockReference
  2
_DOTSMALL
 10
6899.213011273895
 20
8049.82880176119
 30
0.0
 41
100.0
 42
100.0
 43
100.0
 50
180.0
  0
MTEXT
  5
20E78
330
1F24A
100
AcDbEntity
  8
寸法
 62
     7
 48
50.0
100
AcDbMText
 10
7351.713011273893
 20
8149.82880176119
 30
0.0
 40
120.0
 41
0.0
 71
     5
 72
     1
  1
\A1;905
  7
STYLE1
 73
     1
 44
1.0
1001
ACAD
1000
MTEXTBEGIN
1070
    73
1070
     1
1070
    44
1040
1.0
1070
    74
1070
     0
1000
MTEXTEND
  0
POINT
  5
20E79
330
1F24A
100
AcDbEntity
  8
DEFPOINTS
 62
     0
 48
50.0
100
AcDbPoint
 10
7804.213011273894
 20
6822.919036112868
 30
0.0
  0
POINT
  5
20E7A
330
1F24A
100
AcDbEntity
  8
DEFPOINTS
 62
     0
 48
50.0
100
AcDbPoint
 10
6899.213011273895
 20
7522.919036112863
 30
0.0
  0
POINT
  5
20E7B
330
1F24A
100
AcDbEntity
  8
DEFPOINTS
 62
     0
 48
50.0
100
AcDbPoint
 10
6899.213011273895
 20
8049.82880176119
 30
0.0
  0
ENDBLK
  5
1F254
330
1F24A
100
AcDbEntity
  8
0
 48
50.0
100
AcDbBlockEnd
  0
BLOCK
  5
1F25F
330
1F255
100
AcDbEntity
  8
0
 48
50.0
100
AcDbBlockBegin
  2
*D21
 70
     1
 10
0.0
 20
0.0
 30
0.0
  3
*D21
  1

  0
LINE
  5
20E7C
330
1F255
100
AcDbEntity
  8
寸法
 62
     0
 48
50.0
370
    -2
100
AcDbLine
 10
9539.213011273892
 20
7542.919036112862
 30
0.0
 11
9539.213011273892
 21
8108.090767068199
 31
0.0
  0
LINE
  5
20E7D
330
1F255
100
AcDbEntity
  8
寸法
 62
     0
 48
50.0
370
    -2
100
AcDbLine
 10
8634.213011273894
 20
6842.919036112869
 30
0.0
 11
8634.213011273894
 21
8108.090767068199
 31
0.0
  0
LINE
  5
20E7E
330
1F255
100
AcDbEntity
  8
寸法
 62
     0
 48
50.0
370
    -2
100
AcDbLine
 10
9539.213011273892
 20
8048.090767068199
 30
0.0
 11
8634.213011273894
 21
8048.090767068199
 31
0.0
  0
INSERT
  5
20E7F
330
1F255
100
AcDbEntity
  8
寸法
 62
     0
 48
50.0
370
    -2
100
AcDbBlockReference
  2
_DOTSMALL
 10
9539.213011273892
 20
8048.090767068199
 30
0.0
 41
100.0
 42
100.0
 43
100.0
  0
INSERT
  5
20E80
330
1F255
100
AcDbEntity
  8
寸法
 62
     0
 48
50.0
370
    -2
100
AcDbBlockReference
  2
_DOTSMALL
 10
8634.213011273894
 20
8048.090767068199
 30
0.0
 41
100.0
 42
100.0
 43
100.0
 50
180.0
  0
MTEXT
  5
20E81
330
1F255
100
AcDbEntity
  8
寸法
 62
     7
 48
50.0
100
AcDbMText
 10
9115.983146456347
 20
8148.090767068199
 30
0.0
 40
120.0
 41
0.0
 71
     5
 72
     1
  1
\A1;905
  7
STYLE1
 73
     1
 44
1.0
1001
ACAD
1000
MTEXTBEGIN
1070
    73
1070
     1
1070
    44
1040
1.0
1070
    74
1070
     0
1000
MTEXTEND
  0
POINT
  5
20E82
330
1F255
100
AcDbEntity
  8
DEFPOINTS
 62
     0
 48
50.0
100
AcDbPoint
 10
9539.213011273892
 20
7522.919036112863
 30
0.0
  0
POINT
  5
20E83
330
1F255
100
AcDbEntity
  8
DEFPOINTS
 62
     0
 48
50.0
100
AcDbPoint
 10
8634.213011273894
 20
6822.919036112868
 30
0.0
  0
POINT
  5
20E84
330
1F255
100
AcDbEntity
  8
DEFPOINTS
 62
     0
 48
50.0
100
AcDbPoint
 10
8634.213011273894
 20
8048.090767068199
 30
0.0
  0
ENDBLK
  5
1F260
330
1F255
100
AcDbEntity
  8
0
 48
50.0
100
AcDbBlockEnd
  0
BLOCK
  5
1FE56
330
1FE4C
100
AcDbEntity
  8
0
 48
50.0
100
AcDbBlockBegin
  2
*D22
 70
     1
 10
0.0
 20
0.0
 30
0.0
  3
*D22
  1

  0
LINE
  5
20E6A
330
1FE4C
100
AcDbEntity
  8
寸法
 62
     0
 48
50.0
370
    -2
100
AcDbLine
 10
7804.213011273894
 20
6842.919036112869
 30
0.0
 11
7804.213011273894
 21
8109.828801761191
 31
0.0
  0
LINE
  5
20E6B
330
1FE4C
100
AcDbEntity
  8
寸法
 62
     0
 48
50.0
370
    -2
100
AcDbLine
 10
8634.213011273894
 20
6842.919036112869
 30
0.0
 11
8634.213011273894
 21
8109.828801761191
 31
0.0
  0
LINE
  5
20E6C
330
1FE4C
100
AcDbEntity
  8
寸法
 62
     0
 48
50.0
370
    -2
100
AcDbLine
 10
7804.213011273894
 20
8049.82880176119
 30
0.0
 11
8634.213011273894
 21
8049.82880176119
 31
0.0
  0
INSERT
  5
20E6D
330
1FE4C
100
AcDbEntity
  8
寸法
 62
     0
 48
50.0
370
    -2
100
AcDbBlockReference
  2
_DOTSMALL
 10
7804.213011273894
 20
8049.82880176119
 30
0.0
 41
100.0
 42
100.0
 43
100.0
 50
180.0
  0
INSERT
  5
20E6E
330
1FE4C
100
AcDbEntity
  8
寸法
 62
     0
 48
50.0
370
    -2
100
AcDbBlockReference
  2
_DOTSMALL
 10
8634.213011273894
 20
8049.82880176119
 30
0.0
 41
100.0
 42
100.0
 43
100.0
  0
MTEXT
  5
20E6F
330
1FE4C
100
AcDbEntity
  8
寸法
 62
     7
 48
50.0
100
AcDbMText
 10
8219.213011273893
 20
8149.82880176119
 30
0.0
 40
120.0
 41
0.0
 71
     5
 72
     1
  1
\A1;830
  7
STYLE1
 73
     1
 44
1.0
1001
ACAD
1000
MTEXTBEGIN
1070
    73
1070
     1
1070
    44
1040
1.0
1070
    74
1070
     0
1000
MTEXTEND
  0
POINT
  5
20E70
330
1FE4C
100
AcDbEntity
  8
DEFPOINTS
 62
     0
 48
50.0
100
AcDbPoint
 10
7804.213011273894
 20
6822.919036112868
 30
0.0
  0
POINT
  5
20E71
330
1FE4C
100
AcDbEntity
  8
DEFPOINTS
 62
     0
 48
50.0
100
AcDbPoint
 10
8634.213011273894
 20
6822.919036112868
 30
0.0
  0
POINT
  5
20E72
330
1FE4C
100
AcDbEntity
  8
DEFPOINTS
 62
     0
 48
50.0
100
AcDbPoint
 10
8634.213011273894
 20
8049.82880176119
 30
0.0
  0
ENDBLK
  5
1FE57
330
1FE4C
100
AcDbEntity
  8
0
 48
50.0
100
AcDbBlockEnd
  0
BLOCK
  5
2130C
330
21300
100
AcDbEntity
  8
0
 48
50.0
100
AcDbBlockBegin
  2
*D23
 70
     1
 10
0.0
 20
0.0
 30
0.0
  3
*D23
  1

  0
LINE
  5
21784
330
21300
100
AcDbEntity
  8
寸法
 62
     0
 48
50.0
370
    -2
100
AcDbLine
 10
7332.213011273896
 20
5647.919036112856
 30
0.0
 11
6660.983429254797
 21
5647.919036112856
 31
0.0
  0
LINE
  5
21785
330
21300
100
AcDbEntity
  8
寸法
 62
     0
 48
50.0
370
    -2
100
AcDbLine
 10
6879.213011273897
 20
5722.919036112859
 30
0.0
 11
6660.983429254797
 21
5722.919036112859
 31
0.0
  0
LINE
  5
21786
330
21300
100
AcDbEntity
  8
寸法
 62
     0
 48
50.0
370
    -2
100
AcDbLine
 10
6720.983429254797
 20
5722.919036112859
 30
0.0
 11
6720.983429254797
 21
5822.919036112859
 31
0.0
  0
LINE
  5
21787
330
21300
100
AcDbEntity
  8
寸法
 62
     0
 48
50.0
370
    -2
100
AcDbLine
 10
6720.983429254797
 20
5647.919036112856
 30
0.0
 11
6720.983429254797
 21
4780.948473364378
 31
0.0
  0
LINE
  5
21788
330
21300
100
AcDbEntity
  8
寸法
 62
     0
 48
50.0
370
    -2
100
AcDbLine
 10
6720.983429254797
 20
5722.919036112859
 30
0.0
 11
6720.983429254797
 21
5647.919036112856
 31
0.0
  0
INSERT
  5
21789
330
21300
100
AcDbEntity
  8
寸法
 62
     0
 48
50.0
370
    -2
100
AcDbBlockReference
  2
_DOTSMALL
 10
6720.983429254797
 20
5722.919036112859
 30
0.0
 41
100.0
 42
100.0
 43
100.0
 50
270.0
  0
INSERT
  5
2178A
330
21300
100
AcDbEntity
  8
寸法
 62
     0
 48
50.0
370
    -2
100
AcDbBlockReference
  2
_DOTSMALL
 10
6720.983429254797
 20
5647.919036112856
 30
0.0
 41
100.0
 42
100.0
 43
100.0
 50
90.0
  0
MTEXT
  5
2178B
330
21300
100
AcDbEntity
  8
寸法
 62
     7
 48
50.0
100
AcDbMText
 10
6620.983429254795
 20
5114.433754738619
 30
0.0
 40
120.0
 41
0.0
 71
     5
 72
     1
  1
\A1;扉の出75
  7
STYLE1
 11
0.0000000000000001
 21
1.0
 31
0.0
 73
     1
 44
1.0
1001
ACAD
1000
MTEXTBEGIN
1070
    73
1070
     1
1070
    44
1040
1.0
1070
    74
1070
     0
1000
MTEXTEND
  0
POINT
  5
2178C
330
21300
100
AcDbEntity
  8
DEFPOINTS
 62
     0
 48
50.0
100
AcDbPoint
 10
7352.213011273896
 20
5647.919036112856
 30
0.0
  0
POINT
  5
2178D
330
21300
100
AcDbEntity
  8
DEFPOINTS
 62
     0
 48
50.0
100
AcDbPoint
 10
6899.213011273897
 20
5722.919036112859
 30
0.0
  0
POINT
  5
2178E
330
21300
100
AcDbEntity
  8
DEFPOINTS
 62
     0
 48
50.0
100
AcDbPoint
 10
6720.983429254797
 20
5722.919036112859
 30
0.0
  0
ENDBLK
  5
2130D
330
21300
100
AcDbEntity
  8
0
 48
50.0
100
AcDbBlockEnd
  0
BLOCK
  5
21364
330
2135A
100
AcDbEntity
  8
0
 48
50.0
100
AcDbBlockBegin
  2
*D24
 70
     1
 10
0.0
 20
0.0
 30
0.0
  3
*D24
  1

  0
LINE
  5
2170A
330
2135A
100
AcDbEntity
  8
寸法
 62
     0
 48
50.0
370
    -2
100
AcDbLine
 10
7352.213011273896
 20
5627.919036112857
 30
0.0
 11
7352.213011273896
 21
5016.50375723307
 31
0.0
  0
LINE
  5
2170B
330
2135A
100
AcDbEntity
  8
寸法
 62
     0
 48
50.0
370
    -2
100
AcDbLine
 10
9087.213011273895
 20
5627.919036112857
 30
0.0
 11
9087.213011273895
 21
5016.50375723307
 31
0.0
  0
LINE
  5
2170C
330
2135A
100
AcDbEntity
  8
寸法
 62
     0
 48
50.0
370
    -2
100
AcDbLine
 10
7352.213011273896
 20
5076.503757233069
 30
0.0
 11
9087.213011273895
 21
5076.503757233069
 31
0.0
  0
INSERT
  5
2170D
330
2135A
100
AcDbEntity
  8
寸法
 62
     0
 48
50.0
370
    -2
100
AcDbBlockReference
  2
_DOTSMALL
 10
7352.213011273896
 20
5076.503757233069
 30
0.0
 41
100.0
 42
100.0
 43
100.0
 50
180.0
  0
INSERT
  5
2170E
330
2135A
100
AcDbEntity
  8
寸法
 62
     0
 48
50.0
370
    -2
100
AcDbBlockReference
  2
_DOTSMALL
 10
9087.213011273895
 20
5076.503757233069
 30
0.0
 41
100.0
 42
100.0
 43
100.0
  0
MTEXT
  5
2170F
330
2135A
100
AcDbEntity
  8
寸法
 62
     7
 48
50.0
100
AcDbMText
 10
8219.713011273896
 20
5176.50375723307
 30
0.0
 40
120.0
 41
0.0
 71
     5
 72
     1
  1
\A1;扉の幅1735
  7
STYLE1
 73
     1
 44
1.0
1001
ACAD
1000
MTEXTBEGIN
1070
    73
1070
     1
1070
    44
1040
1.0
1070
    74
1070
     0
1000
MTEXTEND
  0
POINT
  5
21710
330
2135A
100
AcDbEntity
  8
DEFPOINTS
 62
     0
 48
50.0
100
AcDbPoint
 10
7352.213011273896
 20
5647.919036112856
 30
0.0
  0
POINT
  5
21711
330
2135A
100
AcDbEntity
  8
DEFPOINTS
 62
     0
 48
50.0
100
AcDbPoint
 10
9087.213011273895
 20
5647.919036112856
 30
0.0
  0
POINT
  5
21712
330
2135A
100
AcDbEntity
  8
DEFPOINTS
 62
     0
 48
50.0
100
AcDbPoint
 10
9087.213011273895
 20
5076.503757233069
 30
0.0
  0
ENDBLK
  5
21365
330
2135A
100
AcDbEntity
  8
0
 48
50.0
100
AcDbBlockEnd
  0
BLOCK
  5
21668
330
2165E
100
AcDbEntity
  8
0
 48
50.0
100
AcDbBlockBegin
  2
*D25
 70
     1
 10
0.0
 20
0.0
 30
0.0
  3
*D25
  1

  0
LINE
  5
216A8
330
2165E
100
AcDbEntity
  8
寸法
 62
     0
 48
50.0
370
    -2
100
AcDbLine
 10
6066.611073562799
 20
1953.764973743768
 30
0.0
 11
6066.611073562799
 21
2518.349733639244
 31
0.0
  0
LINE
  5
216A9
330
2165E
100
AcDbEntity
  8
寸法
 62
     0
 48
50.0
370
    -2
100
AcDbLine
 10
5826.611073562799
 20
1953.764973743768
 30
0.0
 11
5826.611073562799
 21
2518.349733639244
 31
0.0
  0
LINE
  5
216AA
330
2165E
100
AcDbEntity
  8
寸法
 62
     0
 48
50.0
370
    -2
100
AcDbLine
 10
6066.611073562799
 20
2458.349733639244
 30
0.0
 11
5826.611073562799
 21
2458.349733639244
 31
0.0
  0
INSERT
  5
216AB
330
2165E
100
AcDbEntity
  8
寸法
 62
     0
 48
50.0
370
    -2
100
AcDbBlockReference
  2
_DOTSMALL
 10
6066.611073562799
 20
2458.349733639244
 30
0.0
 41
100.0
 42
100.0
 43
100.0
  0
INSERT
  5
216AC
330
2165E
100
AcDbEntity
  8
寸法
 62
     0
 48
50.0
370
    -2
100
AcDbBlockReference
  2
_DOTSMALL
 10
5826.611073562799
 20
2458.349733639244
 30
0.0
 41
100.0
 42
100.0
 43
100.0
 50
180.0
  0
MTEXT
  5
216AD
330
2165E
100
AcDbEntity
  8
寸法
 62
     7
 48
50.0
100
AcDbMText
 10
5946.611073562799
 20
2658.361544662866
 30
0.0
 40
120.0
 41
0.0
 71
     5
 72
     1
  1
\A1;120\P195
  7
STYLE1
 73
     1
 44
1.0
1001
ACAD
1000
MTEXTBEGIN
1070
    73
1070
     1
1070
    44
1040
1.0
1070
    74
1070
     0
1000
MTEXTEND
  0
POINT
  5
216AE
330
2165E
100
AcDbEntity
  8
DEFPOINTS
 62
     0
 48
50.0
100
AcDbPoint
 10
6066.611073562799
 20
1933.764973743768
 30
0.0
  0
POINT
  5
216AF
330
2165E
100
AcDbEntity
  8
DEFPOINTS
 62
     0
 48
50.0
100
AcDbPoint
 10
5826.611073562799
 20
1933.764973743768
 30
0.0
  0
POINT
  5
216B0
330
2165E
100
AcDbEntity
  8
DEFPOINTS
 62
     0
 48
50.0
100
AcDbPoint
 10
5826.611073562799
 20
2458.349733639244
 30
0.0
  0
ENDBLK
  5
21669
330
2165E
100
AcDbEntity
  8
0
 48
50.0
100
AcDbBlockEnd
  0
BLOCK
  5
21674
330
2166A
100
AcDbEntity
  8
0
 48
50.0
100
AcDbBlockBegin
  2
*D26
 70
     1
 10
0.0
 20
0.0
 30
0.0
  3
*D26
  1

  0
LINE
  5
216B1
330
2166A
100
AcDbEntity
  8
寸法
 62
     0
 48
50.0
370
    -2
100
AcDbLine
 10
5646.611073562799
 20
1253.764973743767
 30
0.0
 11
5428.585681397226
 21
1253.764973743767
 31
0.0
  0
LINE
  5
216B2
330
2166A
100
AcDbEntity
  8
寸法
 62
     0
 48
50.0
370
    -2
100
AcDbLine
 10
5546.611073562804
 20
953.7649737437668
 30
0.0
 11
5428.585681397226
 21
953.7649737437668
 31
0.0
  0
LINE
  5
216B3
330
2166A
100
AcDbEntity
  8
寸法
 62
     0
 48
50.0
370
    -2
100
AcDbLine
 10
5488.585681397226
 20
1253.764973743767
 30
0.0
 11
5488.585681397226
 21
953.7649737437668
 31
0.0
  0
INSERT
  5
216B4
330
2166A
100
AcDbEntity
  8
寸法
 62
     0
 48
50.0
370
    -2
100
AcDbBlockReference
  2
_DOTSMALL
 10
5488.585681397226
 20
1253.764973743767
 30
0.0
 41
100.0
 42
100.0
 43
100.0
 50
90.0
  0
INSERT
  5
216B5
330
2166A
100
AcDbEntity
  8
寸法
 62
     0
 48
50.0
370
    -2
100
AcDbBlockReference
  2
_DOTSMALL
 10
5488.585681397226
 20
953.7649737437668
 30
0.0
 41
100.0
 42
100.0
 43
100.0
 50
270.0
  0
MTEXT
  5
216B6
330
2166A
100
AcDbEntity
  8
寸法
 62
     7
 48
50.0
100
AcDbMText
 10
5388.585681397226
 20
1103.764973743767
 30
0.0
 40
120.0
 41
0.0
 71
     5
 72
     1
  1
\A1;150
  7
STYLE1
 11
0.0000000000000001
 21
1.0
 31
0.0
 73
     1
 44
1.0
1001
ACAD
1000
MTEXTBEGIN
1070
    73
1070
     1
1070
    44
1040
1.0
1070
    74
1070
     0
1000
MTEXTEND
  0
POINT
  5
216B7
330
2166A
100
AcDbEntity
  8
DEFPOINTS
 62
     0
 48
50.0
100
AcDbPoint
 10
5666.611073562799
 20
1253.764973743767
 30
0.0
  0
POINT
  5
216B8
330
2166A
100
AcDbEntity
  8
DEFPOINTS
 62
     0
 48
50.0
100
AcDbPoint
 10
5566.611073562804
 20
953.7649737437668
 30
0.0
  0
POINT
  5
216B9
330
2166A
100
AcDbEntity
  8
DEFPOINTS
 62
     0
 48
50.0
100
AcDbPoint
 10
5488.585681397226
 20
953.7649737437668
 30
0.0
  0
ENDBLK
  5
21675
330
2166A
100
AcDbEntity
  8
0
 48
50.0
100
AcDbBlockEnd
  0
BLOCK
  5
21680
330
21676
100
AcDbEntity
  8
0
 48
50.0
100
AcDbBlockBegin
  2
*D27
 70
     1
 10
0.0
 20
0.0
 30
0.0
  3
*D27
  1

  0
LINE
  5
216BA
330
21676
100
AcDbEntity
  8
寸法
 62
     0
 48
50.0
370
    -2
100
AcDbLine
 10
5806.611073562799
 20
1933.764973743768
 30
0.0
 11
5005.966135526737
 21
1933.764973743768
 31
0.0
  0
LINE
  5
216BB
330
21676
100
AcDbEntity
  8
寸法
 62
     0
 48
50.0
370
    -2
100
AcDbLine
 10
5546.611073562804
 20
953.7649737437668
 30
0.0
 11
5005.966135526737
 21
953.764973743767
 31
0.0
  0
LINE
  5
216BC
330
21676
100
AcDbEntity
  8
寸法
 62
     0
 48
50.0
370
    -2
100
AcDbLine
 10
5065.966135526736
 20
1933.764973743768
 30
0.0
 11
5065.966135526736
 21
953.764973743767
 31
0.0
  0
INSERT
  5
216BD
330
21676
100
AcDbEntity
  8
寸法
 62
     0
 48
50.0
370
    -2
100
AcDbBlockReference
  2
_DOTSMALL
 10
5065.966135526736
 20
1933.764973743768
 30
0.0
 41
100.0
 42
100.0
 43
100.0
 50
90.0
  0
INSERT
  5
216BE
330
21676
100
AcDbEntity
  8
寸法
 62
     0
 48
50.0
370
    -2
100
AcDbBlockReference
  2
_DOTSMALL
 10
5065.966135526736
 20
953.764973743767
 30
0.0
 41
100.0
 42
100.0
 43
100.0
 50
270.0
  0
MTEXT
  5
216BF
330
21676
100
AcDbEntity
  8
寸法
 62
     7
 48
50.0
100
AcDbMText
 10
4965.966135526736
 20
1443.764973743768
 30
0.0
 40
120.0
 41
0.0
 71
     5
 72
     1
  1
\A1;540
  7
STYLE1
 11
0.0000000000000001
 21
1.0
 31
0.0
 73
     1
 44
1.0
1001
ACAD
1000
MTEXTBEGIN
1070
    73
1070
     1
1070
    44
1040
1.0
1070
    74
1070
     0
1000
MTEXTEND
  0
POINT
  5
216C0
330
21676
100
AcDbEntity
  8
DEFPOINTS
 62
     0
 48
50.0
100
AcDbPoint
 10
5826.611073562799
 20
1933.764973743768
 30
0.0
  0
POINT
  5
216C1
330
21676
100
AcDbEntity
  8
DEFPOINTS
 62
     0
 48
50.0
100
AcDbPoint
 10
5566.611073562804
 20
953.7649737437668
 30
0.0
  0
POINT
  5
216C2
330
21676
100
AcDbEntity
  8
DEFPOINTS
 62
     0
 48
50.0
100
AcDbPoint
 10
5065.966135526736
 20
953.764973743767
 30
0.0
  0
ENDBLK
  5
21681
330
21676
100
AcDbEntity
  8
0
 48
50.0
100
AcDbBlockEnd
  0
BLOCK
  5
2168C
330
21682
100
AcDbEntity
  8
0
 48
50.0
100
AcDbBlockBegin
  2
*D28
 70
     1
 10
0.0
 20
0.0
 30
0.0
  3
*D28
  1

  0
LINE
  5
216C3
330
21682
100
AcDbEntity
  8
寸法
 62
     0
 48
50.0
370
    -2
100
AcDbLine
 10
5666.611073562799
 20
773.7649737437668
 30
0.0
 11
5666.611073562799
 21
434.8128672878337
 31
0.0
  0
LINE
  5
216C4
330
21682
100
AcDbEntity
  8
寸法
 62
     0
 48
50.0
370
    -2
100
AcDbLine
 10
6226.611073562801
 20
773.7649737437668
 30
0.0
 11
6226.611073562801
 21
434.8128672878337
 31
0.0
  0
LINE
  5
216C5
330
21682
100
AcDbEntity
  8
寸法
 62
     0
 48
50.0
370
    -2
100
AcDbLine
 10
5666.611073562799
 20
494.8128672878338
 30
0.0
 11
6226.611073562801
 21
494.8128672878338
 31
0.0
  0
INSERT
  5
216C6
330
21682
100
AcDbEntity
  8
寸法
 62
     0
 48
50.0
370
    -2
100
AcDbBlockReference
  2
_DOTSMALL
 10
5666.611073562799
 20
494.8128672878338
 30
0.0
 41
100.0
 42
100.0
 43
100.0
 50
180.0
  0
INSERT
  5
216C7
330
21682
100
AcDbEntity
  8
寸法
 62
     0
 48
50.0
370
    -2
100
AcDbBlockReference
  2
_DOTSMALL
 10
6226.611073562801
 20
494.8128672878338
 30
0.0
 41
100.0
 42
100.0
 43
100.0
  0
MTEXT
  5
216C8
330
21682
100
AcDbEntity
  8
寸法
 62
     7
 48
50.0
100
AcDbMText
 10
5946.611073562799
 20
594.8128672878338
 30
0.0
 40
120.0
 41
0.0
 71
     5
 72
     1
  1
\A1;300
  7
STYLE1
 73
     1
 44
1.0
1001
ACAD
1000
MTEXTBEGIN
1070
    73
1070
     1
1070
    44
1040
1.0
1070
    74
1070
     0
1000
MTEXTEND
  0
POINT
  5
216C9
330
21682
100
AcDbEntity
  8
DEFPOINTS
 62
     0
 48
50.0
100
AcDbPoint
 10
5666.611073562799
 20
793.7649737437668
 30
0.0
  0
POINT
  5
216CA
330
21682
100
AcDbEntity
  8
DEFPOINTS
 62
     0
 48
50.0
100
AcDbPoint
 10
6226.611073562801
 20
793.7649737437668
 30
0.0
  0
POINT
  5
216CB
330
21682
100
AcDbEntity
  8
DEFPOINTS
 62
     0
 48
50.0
100
AcDbPoint
 10
6226.611073562801
 20
494.8128672878338
 30
0.0
  0
ENDBLK
  5
2168D
330
21682
100
AcDbEntity
  8
0
 48
50.0
100
AcDbBlockEnd
  0
BLOCK
  5
21698
330
2168E
100
AcDbEntity
  8
0
 48
50.0
100
AcDbBlockBegin
  2
*D29
 70
     1
 10
0.0
 20
0.0
 30
0.0
  3
*D29
  1

  0
LINE
  5
216CC
330
2168E
100
AcDbEntity
  8
寸法
 62
     0
 48
50.0
370
    -2
100
AcDbLine
 10
8489.160215034294
 20
1933.764973743768
 30
0.0
 11
9156.495964745349
 21
1933.764973743768
 31
0.0
  0
LINE
  5
216CD
330
2168E
100
AcDbEntity
  8
寸法
 62
     0
 48
50.0
370
    -2
100
AcDbLine
 10
8489.160215034294
 20
1528.764973743766
 30
0.0
 11
9156.495964745349
 21
1528.764973743766
 31
0.0
  0
LINE
  5
216CE
330
2168E
100
AcDbEntity
  8
寸法
 62
     0
 48
50.0
370
    -2
100
AcDbLine
 10
9096.495964745349
 20
1933.764973743768
 30
0.0
 11
9096.495964745349
 21
1528.764973743766
 31
0.0
  0
INSERT
  5
216CF
330
2168E
100
AcDbEntity
  8
寸法
 62
     0
 48
50.0
370
    -2
100
AcDbBlockReference
  2
_DOTSMALL
 10
9096.495964745349
 20
1933.764973743768
 30
0.0
 41
100.0
 42
100.0
 43
100.0
 50
90.0
  0
INSERT
  5
216D0
330
2168E
100
AcDbEntity
  8
寸法
 62
     0
 48
50.0
370
    -2
100
AcDbBlockReference
  2
_DOTSMALL
 10
9096.495964745349
 20
1528.764973743766
 30
0.0
 41
100.0
 42
100.0
 43
100.0
 50
270.0
  0
MTEXT
  5
216D1
330
2168E
100
AcDbEntity
  8
寸法
 62
     7
 48
50.0
100
AcDbMText
 10
8996.495964745347
 20
1731.264973743768
 30
0.0
 40
120.0
 41
0.0
 71
     5
 72
     1
  1
\A1;180
  7
STYLE1
 11
0.0000000000000001
 21
1.0
 31
0.0
 73
     1
 44
1.0
1001
ACAD
1000
MTEXTBEGIN
1070
    73
1070
     1
1070
    44
1040
1.0
1070
    74
1070
     0
1000
MTEXTEND
  0
POINT
  5
216D2
330
2168E
100
AcDbEntity
  8
DEFPOINTS
 62
     0
 48
50.0
100
AcDbPoint
 10
8469.160215034293
 20
1933.764973743768
 30
0.0
  0
POINT
  5
216D3
330
2168E
100
AcDbEntity
  8
DEFPOINTS
 62
     0
 48
50.0
100
AcDbPoint
 10
8469.160215034293
 20
1528.764973743766
 30
0.0
  0
POINT
  5
216D4
330
2168E
100
AcDbEntity
  8
DEFPOINTS
 62
     0
 48
50.0
100
AcDbPoint
 10
9096.495964745349
 20
1528.764973743766
 30
0.0
  0
ENDBLK
  5
21699
330
2168E
100
AcDbEntity
  8
0
 48
50.0
100
AcDbBlockEnd
  0
BLOCK
  5
216A6
330
2169A
100
AcDbEntity
  8
0
 48
50.0
100
AcDbBlockBegin
  2
*D30
 70
     1
 10
0.0
 20
0.0
 30
0.0
  3
*D30
  1

  0
LINE
  5
216D5
330
2169A
100
AcDbEntity
  8
寸法
 62
     0
 48
50.0
370
    -2
100
AcDbLine
 10
8255.160215034292
 20
1999.714973743768
 30
0.0
 11
9501.564297394132
 21
1999.714973743768
 31
0.0
  0
LINE
  5
216D6
330
2169A
100
AcDbEntity
  8
寸法
 62
     0
 48
50.0
370
    -2
100
AcDbLine
 10
8489.160215034294
 20
1933.764973743768
 30
0.0
 11
9501.564297394132
 21
1933.764973743768
 31
0.0
  0
LINE
  5
216D7
330
2169A
100
AcDbEntity
  8
寸法
 62
     0
 48
50.0
370
    -2
100
AcDbLine
 10
9441.564297394132
 20
1999.714973743768
 30
0.0
 11
9441.564297394132
 21
2099.714973743768
 31
0.0
  0
LINE
  5
216D8
330
2169A
100
AcDbEntity
  8
寸法
 62
     0
 48
50.0
370
    -2
100
AcDbLine
 10
9441.564297394132
 20
1933.764973743768
 30
0.0
 11
9441.564297394132
 21
1201.7471669008
 31
0.0
  0
LINE
  5
216D9
330
2169A
100
AcDbEntity
  8
寸法
 62
     0
 48
50.0
370
    -2
100
AcDbLine
 10
9441.564297394132
 20
1999.714973743768
 30
0.0
 11
9441.564297394132
 21
1933.764973743768
 31
0.0
  0
INSERT
  5
216DA
330
2169A
100
AcDbEntity
  8
寸法
 62
     0
 48
50.0
370
    -2
100
AcDbBlockReference
  2
_DOTSMALL
 10
9441.564297394132
 20
1999.714973743768
 30
0.0
 41
100.0
 42
100.0
 43
100.0
 50
270.0
  0
INSERT
  5
216DB
330
2169A
100
AcDbEntity
  8
寸法
 62
     0
 48
50.0
370
    -2
100
AcDbBlockReference
  2
_DOTSMALL
 10
9441.564297394132
 20
1933.764973743768
 30
0.0
 41
100.0
 42
100.0
 43
100.0
 50
90.0
  0
MTEXT
  5
216DC
330
2169A
100
AcDbEntity
  8
寸法
 62
     7
 48
50.0
100
AcDbMText
 10
9341.55248637051
 20
1467.756070322284
 30
0.0
 40
120.0
 41
0.0
 71
     5
 72
     1
  1
\A1;20～25
  7
STYLE1
 11
0.0000000000000001
 21
1.0
 31
0.0
 73
     1
 44
1.0
1001
ACAD
1000
MTEXTBEGIN
1070
    73
1070
     1
1070
    44
1040
1.0
1070
    74
1070
     0
1000
MTEXTEND
  0
POINT
  5
216DD
330
2169A
100
AcDbEntity
  8
DEFPOINTS
 62
     0
 48
50.0
100
AcDbPoint
 10
8235.160215034294
 20
1999.714973743768
 30
0.0
  0
POINT
  5
216DE
330
2169A
100
AcDbEntity
  8
DEFPOINTS
 62
     0
 48
50.0
100
AcDbPoint
 10
8469.160215034293
 20
1933.764973743768
 30
0.0
  0
POINT
  5
216DF
330
2169A
100
AcDbEntity
  8
DEFPOINTS
 62
     0
 48
50.0
100
AcDbPoint
 10
9441.564297394132
 20
1933.764973743768
 30
0.0
  0
ENDBLK
  5
216A7
330
2169A
100
AcDbEntity
  8
0
 48
50.0
100
AcDbBlockEnd
  0
BLOCK
  5
2176F
330
21764
100
AcDbEntity
  8
0
 48
50.0
100
AcDbBlockBegin
  2
*D31
 70
     1
 10
0.0
 20
0.0
 30
0.0
  3
*D31
  1

  0
LINE
  5
2177B
330
21764
100
AcDbEntity
  8
寸法
 62
     0
 48
50.0
370
    -2
100
AcDbLine
 10
6899.213011273897
 20
5702.919036112859
 30
0.0
 11
6899.213011273897
 21
5016.50375723307
 31
0.0
  0
LINE
  5
2177C
330
21764
100
AcDbEntity
  8
寸法
 62
     0
 48
50.0
370
    -2
100
AcDbLine
 10
7352.213011273896
 20
5627.919036112857
 30
0.0
 11
7352.213011273896
 21
5016.50375723307
 31
0.0
  0
LINE
  5
2177D
330
21764
100
AcDbEntity
  8
寸法
 62
     0
 48
50.0
370
    -2
100
AcDbLine
 10
6899.213011273897
 20
5076.503757233069
 30
0.0
 11
7352.213011273896
 21
5076.503757233069
 31
0.0
  0
INSERT
  5
2177E
330
21764
100
AcDbEntity
  8
寸法
 62
     0
 48
50.0
370
    -2
100
AcDbBlockReference
  2
_DOTSMALL
 10
6899.213011273897
 20
5076.503757233069
 30
0.0
 41
100.0
 42
100.0
 43
100.0
 50
180.0
  0
INSERT
  5
2177F
330
21764
100
AcDbEntity
  8
寸法
 62
     0
 48
50.0
370
    -2
100
AcDbBlockReference
  2
_DOTSMALL
 10
7352.213011273896
 20
5076.503757233069
 30
0.0
 41
100.0
 42
100.0
 43
100.0
  0
MTEXT
  5
21780
330
21764
100
AcDbEntity
  8
寸法
 62
     7
 48
50.0
100
AcDbMText
 10
7125.713011273898
 20
5176.50375723307
 30
0.0
 40
120.0
 41
0.0
 71
     5
 72
     1
  1
\A1;453
  7
STYLE1
 73
     1
 44
1.0
1001
ACAD
1000
MTEXTBEGIN
1070
    73
1070
     1
1070
    44
1040
1.0
1070
    74
1070
     0
1000
MTEXTEND
  0
POINT
  5
21781
330
21764
100
AcDbEntity
  8
DEFPOINTS
 62
     0
 48
50.0
100
AcDbPoint
 10
6899.213011273897
 20
5722.919036112859
 30
0.0
  0
POINT
  5
21782
330
21764
100
AcDbEntity
  8
DEFPOINTS
 62
     0
 48
50.0
100
AcDbPoint
 10
7352.213011273896
 20
5647.919036112856
 30
0.0
  0
POINT
  5
21783
330
21764
100
AcDbEntity
  8
DEFPOINTS
 62
     0
 48
50.0
100
AcDbPoint
 10
7352.213011273896
 20
5076.503757233069
 30
0.0
  0
ENDBLK
  5
21770
330
21764
100
AcDbEntity
  8
0
 48
50.0
100
AcDbBlockEnd
  0
ENDSEC
  0
SECTION
  2
ENTITIES
  0
LINE
  5
10B57
330
747D
100
AcDbEntity
  8
補助
  6
PHANTOM
 62
   230
 48
50.0
100
AcDbLine
 10
139.9999999999995
 20
11409.6
 30
0.0
 11
16307.2
 21
11409.6
 31
0.0
  0
LINE
  5
10B59
330
747D
100
AcDbEntity
  8
仕様書枠
  6
Continuous
 48
50.0
100
AcDbLine
 10
13107.2
 20
1200.0
 30
0.0
 11
13107.2
 21
-0.0000000000000729
 31
0.0
  0
LINE
  5
10B5C
330
747D
100
AcDbEntity
  8
仕様書枠
 48
50.0
100
AcDbLine
 10
16307.2
 20
1200.0
 30
0.0
 11
16307.2
 21
-0.0000000000000909
 31
0.0
  0
LINE
  5
10B5D
330
747D
100
AcDbEntity
  8
仕様書枠
 48
50.0
100
AcDbLine
 10
140.0
 20
0.0
 30
0.0
 11
16307.2
 21
-0.0000000000000909
 31
0.0
  0
LINE
  5
10B5E
330
747D
100
AcDbEntity
  8
補助
  6
PHANTOM
 62
   230
 48
50.0
100
AcDbLine
 10
16307.2
 20
11409.6
 30
0.0
 11
16307.2
 21
1200.0
 31
0.0
  0
LINE
  5
10B6C
330
747D
100
AcDbEntity
  8
仕様書枠
 48
50.0
100
AcDbLine
 10
13107.2
 20
1200.0
 30
0.0
 11
16307.2
 21
1200.0
 31
0.0
  0
LINE
  5
10B6D
330
747D
100
AcDbEntity
  8
補助
  6
PHANTOM
 62
   230
 48
50.0
100
AcDbLine
 10
13107.2
 20
11409.6
 30
0.0
 11
13107.2
 21
4800.0
 31
0.0
  0
LINE
  5
10B6F
330
747D
100
AcDbEntity
  8
補助
  6
PHANTOM
 62
   230
 48
50.0
100
AcDbLine
 10
13107.2
 20
4800.0
 30
0.0
 11
16307.2
 21
4800.0
 31
0.0
  0
LINE
  5
10B72
330
747D
100
AcDbEntity
  8
文字
 62
     7
 48
50.0
100
AcDbLine
 10
13187.2
 20
400.0
 30
0.0
 11
16227.2
 21
400.0
 31
0.0
  0
TEXT
  5
10B73
330
747D
100
AcDbEntity
  8
文字
 62
     7
 48
50.0
100
AcDbText
 10
13162.9790565769
 20
895.0906074299405
 30
0.0
 40
200.0
  1
基 礎 図
  7
STYLE2
100
AcDbText
  0
TEXT
  5
10B74
330
747D
100
AcDbEntity
  8
文字
 62
     7
 48
50.0
100
AcDbText
 10
13201.43669998441
 20
477.2740661031255
 30
0.0
 40
160.0
  1
機種名
  7
STYLE2
100
AcDbText
  0
LINE
  5
10B7B
330
747D
100
AcDbEntity
  8
仕様書枠
 48
50.0
100
AcDbLine
 10
13107.2
 20
800.0
 30
0.0
 11
14251.2
 21
800.0
 31
0.0
  0
LINE
  5
10B88
330
747D
100
AcDbEntity
  8
仕様書枠
  6
Continuous
 48
50.0
100
AcDbLine
 10
14251.2
 20
1200.0
 30
0.0
 11
14251.2
 21
800.0
 31
0.0
  0
TEXT
  5
15A76
330
747D
100
AcDbEntity
  8
文字
 62
     7
 48
50.0
100
AcDbText
 10
14379.29029649065
 20
483.8967129911411
 30
0.0
 40
160.0
  1
NXP-50ST・HT
  7
STYLE2
100
AcDbText
  0
TEXT
  5
1D002
330
747D
100
AcDbEntity
  8
文字
 62
     7
 48
50.0
100
AcDbText
 10
13188.16259899338
 20
246.7109242801889
 30
0.0
 40
80.0
  1
※寒冷地等は地域の実情に合わせた基礎にして下さい。
  7
STYLE2
100
AcDbText
  0
DIMENSION
  5
1D91B
330
747D
100
AcDbEntity
  8
寸法
 48
50.0
100
AcDbDimension
  2
*D1
 10
7584.110374929363
 20
5952.919036112863
 30
0.0
 11
7584.110374929363
 21
6213.966280207356
 31
0.0
 70
   160
 71
     5
 42
110.0000000000018
  3
INABA_S40G
100
AcDbAlignedDimension
 13
7129.213011273897
 23
5842.919036112861
 33
0.0
 14
7129.213011273897
 24
5952.919036112863
 34
0.0
 50
90.0
100
AcDbRotatedDimension
  0
DIMENSION
  5
1D91C
330
747D
100
AcDbEntity
  8
寸法
 48
50.0
100
AcDbDimension
  2
*D2
 10
7584.110374929363
 20
5647.919036112856
 30
0.0
 11
7584.110374929363
 21
5409.224094908963
 31
0.0
 70
   160
 71
     5
 42
195.0000000000063
  3
INABA_S40G
100
AcDbAlignedDimension
 13
7129.213011273897
 23
5842.919036112864
 33
0.0
 14
7352.213011273896
 24
5647.919036112856
 34
0.0
 50
90.0
100
AcDbRotatedDimension
  0
DIMENSION
  5
1D91D
330
747D
100
AcDbEntity
  8
寸法
 48
50.0
100
AcDbDimension
  2
*D3
 10
7022.213011273897
 20
8276.250847072711
 30
0.0
 11
8219.213011273897
 21
8376.262658096333
 31
0.0
 70
    32
 71
     5
 42
2394.0
  3
INABA_S40G
100
AcDbAlignedDimension
 13
9416.213011273896
 23
7449.919036112861
 33
0.0
 14
7022.213011273897
 24
7449.919036112861
 34
0.0
100
AcDbRotatedDimension
  0
LINE
  5
1D91E
330
747D
100
AcDbEntity
  8
部品1
 48
50.0
100
AcDbLine
 10
9309.213011273895
 20
5842.919036112876
 30
0.0
 11
7129.213011273897
 21
5842.91903611286
 31
0.0
  0
DIMENSION
  5
1D920
330
747D
100
AcDbEntity
  8
寸法
 48
50.0
100
AcDbDimension
  2
*D4
 10
9539.213011273897
 20
8488.711542589548
 30
0.0
 11
8219.213011273897
 21
8588.72335361317
 31
0.0
 70
    32
 71
     5
 42
2640.000000000002
  3
INABA_S40G
100
AcDbAlignedDimension
 13
6899.213011273895
 23
7522.919036112859
 33
0.0
 14
9539.213011273897
 24
7522.919036112861
 34
0.0
100
AcDbRotatedDimension
  0
LINE
  5
1D922
330
747D
100
AcDbEntity
  8
部品1
 48
50.0
100
AcDbLine
 10
9539.213011273897
 20
7522.919036112863
 30
0.0
 11
6899.213011273897
 21
7522.91903611286
 31
0.0
  0
LINE
  5
1D923
330
747D
100
AcDbEntity
  8
想像線
 48
10.0
100
AcDbLine
 10
9584.213011273895
 20
5667.919036112856
 30
0.0
 11
6857.213011273898
 21
5667.919036112861
 31
0.0
  0
LINE
  5
1D924
330
747D
100
AcDbEntity
  8
想像線
 48
10.0
100
AcDbLine
 10
6857.213011273898
 20
7597.91903611286
 30
0.0
 11
9584.213011273893
 21
7597.919036112864
 31
0.0
  0
DIMENSION
  5
1D925
330
747D
100
AcDbEntity
  8
寸法
 48
50.0
100
AcDbDimension
  2
*D5
 10
6899.213011273895
 20
8276.250847072711
 30
0.0
 11
6660.727729899656
 21
8276.250847072711
 31
0.0
 70
   160
 71
     5
 42
123.0000000000018
  3
INABA_S40G
100
AcDbAlignedDimension
 13
7022.213011273897
 23
7449.919036112861
 33
0.0
 14
6899.213011273895
 24
7522.919036112859
 34
0.0
100
AcDbRotatedDimension
  0
DIMENSION
  5
1D926
330
747D
100
AcDbEntity
  8
寸法
 48
50.0
100
AcDbDimension
  2
*D6
 10
6899.213011273896
 20
8488.71154258955
 30
0.0
 11
6876.713011273894
 21
8488.71154258955
 31
0.0
 70
   160
  1
a
 71
     5
 42
45.00000000000364
  3
INABA_S40G
100
AcDbAlignedDimension
 13
6854.213011273893
 23
8276.250847072711
 33
0.0
 14
6899.213011273896
 24
7671.190236682781
 34
0.0
100
AcDbRotatedDimension
  0
DIMENSION
  5
1D927
330
747D
100
AcDbEntity
  8
寸法
 48
50.0
100
AcDbDimension
  2
*D7
 10
6403.270745260076
 20
5845.919036112861
 30
0.0
 11
6403.270745260075
 21
6634.05280691343
 31
0.0
 70
   160
 71
     5
 42
1553.999999999999
  3
INABA_S40G
100
AcDbAlignedDimension
 13
6972.213011273897
 23
7399.919036112861
 33
0.0
 14
6972.213011273904
 24
5845.919036112861
 34
0.0
 50
90.0
100
AcDbRotatedDimension
  0
DIMENSION
  5
1D929
330
747D
100
AcDbEntity
  8
寸法
 48
50.0
100
AcDbDimension
  2
*D8
 10
6157.777943122109
 20
5722.919036112859
 30
0.0
 11
6157.777943122108
 21
6651.31453344319
 31
0.0
 70
   160
 71
     5
 42
1800.000000000003
  3
INABA_S40G
100
AcDbAlignedDimension
 13
6899.213011273895
 23
7522.919036112863
 33
0.0
 14
6899.213011273897
 24
5722.919036112859
 34
0.0
 50
90.0
100
AcDbRotatedDimension
  0
LINE
  5
1D92A
330
747D
100
AcDbEntity
  8
部品1
 48
50.0
100
AcDbLine
 10
6899.213011273897
 20
5722.919036112859
 30
0.0
 11
6899.213011273897
 21
7522.91903611286
 31
0.0
  0
LINE
  5
1D92B
330
747D
100
AcDbEntity
  8
想像線
 48
10.0
100
AcDbLine
 10
6854.213011273897
 20
5670.919036112861
 30
0.0
 11
6854.213011273897
 21
7594.91903611286
 31
0.0
  0
DIMENSION
  5
1D92C
330
747D
100
AcDbEntity
  8
寸法
 48
50.0
100
AcDbDimension
  2
*D9
 10
6403.270745260076
 20
5722.919036112859
 30
0.0
 11
6403.270745260075
 21
5484.433754738623
 31
0.0
 70
   160
 71
     5
 42
123.0000000000018
  3
INABA_S40G
100
AcDbAlignedDimension
 13
6972.213011273904
 23
5845.919036112861
 33
0.0
 14
6899.213011273897
 24
5722.919036112859
 34
0.0
 50
90.0
100
AcDbRotatedDimension
  0
DIMENSION
  5
1D92D
330
747D
100
AcDbEntity
  8
寸法
 48
50.0
100
AcDbDimension
  2
*D10
 10
6157.777943122109
 20
5667.919036112859
 30
0.0
 11
6157.777943122108
 21
5695.419036112861
 31
0.0
 70
   160
  1
b
 71
     5
 42
55.0
  3
INABA_S40G
100
AcDbAlignedDimension
 13
6899.213011273897
 23
5722.919036112859
 33
0.0
 14
6403.270745260076
 24
5667.919036112859
 34
0.0
 50
90.0
100
AcDbRotatedDimension
  0
LINE
  5
1D92E
330
747D
100
AcDbEntity
  8
センター
 48
2.0
100
AcDbLine
 10
7022.213011273904
 20
5895.919036112861
 30
0.0
 11
7022.213011273904
 21
5795.919036112861
 31
0.0
  0
LINE
  5
1D92F
330
747D
100
AcDbEntity
  8
センター
 48
2.0
100
AcDbLine
 10
6972.213011273904
 20
5845.919036112861
 30
0.0
 11
7072.213011273904
 21
5845.919036112861
 31
0.0
  0
CIRCLE
  5
1D930
330
747D
100
AcDbEntity
  8
部品1
 48
50.0
100
AcDbCircle
 10
7022.213011273904
 20
5845.919036112861
 30
0.0
 40
35.0
  0
LINE
  5
1D931
330
747D
100
AcDbEntity
  8
部品1
 48
50.0
100
AcDbLine
 10
7129.213011273897
 20
5952.919036112863
 30
0.0
 11
7019.213011273897
 21
5952.919036112861
 31
0.0
  0
LINE
  5
1D932
330
747D
100
AcDbEntity
  8
部品1
 48
50.0
100
AcDbLine
 10
7129.213011273897
 20
5842.91903611286
 30
0.0
 11
7129.213011273897
 21
5952.919036112863
 31
0.0
  0
DIMENSION
  5
1D933
330
747D
100
AcDbEntity
  8
寸法
 48
50.0
100
AcDbDimension
  2
*D11
 10
6403.270745260075
 20
7399.919036112861
 30
0.0
 11
6403.270745260073
 21
7761.4043174871
 31
0.0
 70
   160
 71
     5
 42
123.0
  3
INABA_S40G
100
AcDbAlignedDimension
 13
6899.213011273896
 23
7522.91903611286
 33
0.0
 14
6972.213011273897
 24
7399.919036112861
 34
0.0
 50
90.0
100
AcDbRotatedDimension
  0
DIMENSION
  5
1D934
330
747D
100
AcDbEntity
  8
寸法
 48
50.0
100
AcDbDimension
  2
*D12
 10
6157.777943122107
 20
7522.91903611286
 30
0.0
 11
6157.777943122106
 21
7560.419036112863
 31
0.0
 70
   160
  1
c
 71
     5
 42
75.0
  3
INABA_S40G
100
AcDbAlignedDimension
 13
6403.270745260076
 23
7597.91903611286
 33
0.0
 14
6899.213011273896
 24
7522.91903611286
 34
0.0
 50
90.0
100
AcDbRotatedDimension
  0
LINE
  5
1D935
330
747D
100
AcDbEntity
  8
部品1
 48
50.0
100
AcDbLine
 10
7019.213011273897
 20
6722.919036112862
 30
0.0
 11
6899.213011273897
 21
6722.91903611286
 31
0.0
  0
LINE
  5
1D936
330
747D
100
AcDbEntity
  8
部品1
 48
50.0
100
AcDbLine
 10
7019.213011273897
 20
6522.91903611286
 30
0.0
 11
6899.213011273897
 21
6522.91903611286
 31
0.0
  0
LINE
  5
1D938
330
747D
100
AcDbEntity
  8
センター
 48
2.0
100
AcDbLine
 10
7022.213011273897
 20
7449.919036112861
 30
0.0
 11
7022.213011273897
 21
7349.919036112861
 31
0.0
  0
LINE
  5
1D939
330
747D
100
AcDbEntity
  8
センター
 48
2.0
100
AcDbLine
 10
6972.213011273897
 20
7399.919036112861
 30
0.0
 11
7072.213011273897
 21
7399.919036112861
 31
0.0
  0
CIRCLE
  5
1D93A
330
747D
100
AcDbEntity
  8
部品1
 48
50.0
100
AcDbCircle
 10
7022.213011273897
 20
7399.919036112861
 30
0.0
 40
35.0
  0
LINE
  5
1D93B
330
747D
100
AcDbEntity
  8
部品1
 48
50.0
100
AcDbLine
 10
7129.213011273896
 20
7292.919036112856
 30
0.0
 11
7019.213011273897
 21
7292.919036112857
 31
0.0
  0
LINE
  5
1D93C
330
747D
100
AcDbEntity
  8
部品1
 48
50.0
100
AcDbLine
 10
7129.213011273896
 20
7292.919036112856
 30
0.0
 11
7129.213011273896
 21
7402.919036112862
 31
0.0
  0
DIMENSION
  5
1D93E
330
747D
100
AcDbEntity
  8
寸法
 48
50.0
100
AcDbDimension
  2
*D13
 10
9416.213011273896
 20
8276.250847072711
 30
0.0
 11
9777.698292648134
 21
8276.250847072711
 31
0.0
 70
   160
 71
     5
 42
123.0
  3
INABA_S40G
100
AcDbAlignedDimension
 13
9539.213011273897
 23
7522.919036112861
 33
0.0
 14
9416.213011273896
 24
7449.919036112861
 34
0.0
100
AcDbRotatedDimension
  0
DIMENSION
  5
1D93F
330
747D
100
AcDbEntity
  8
寸法
 48
50.0
100
AcDbDimension
  2
*D14
 10
9584.213011273895
 20
8488.711542589548
 30
0.0
 11
9561.713011273896
 21
8488.711542589548
 31
0.0
 70
   160
  1
a
 71
     5
 42
45.0
  3
INABA_S40G
100
AcDbAlignedDimension
 13
9539.213011273897
 23
7671.190236682781
 33
0.0
 14
9584.213011273895
 24
8276.250847072711
 34
0.0
100
AcDbRotatedDimension
  0
DIMENSION
  5
1D942
330
747D
100
AcDbEntity
  8
寸法
 48
50.0
100
AcDbDimension
  2
*D15
 10
9419.213011273894
 20
6984.422404093454
 30
0.0
 11
9775.260255368385
 21
6984.422404093454
 31
0.0
 70
   160
 71
     5
 42
120.0000000000018
  3
INABA_S40G
100
AcDbAlignedDimension
 13
9539.213011273897
 23
7042.919036112869
 33
0.0
 14
9419.213011273894
 24
7042.919036112869
 34
0.0
100
AcDbRotatedDimension
  0
TEXT
  5
1D943
330
747D
100
AcDbEntity
  8
部品1
 48
50.0
100
AcDbText
 10
9626.033077952298
 20
5028.032239333586
 30
0.0
 40
80.0
  1
(a=45,b=55,c=75)
  7
STYLE1
100
AcDbText
  0
TEXT
  5
1D944
330
747D
100
AcDbEntity
  8
部品1
 48
50.0
100
AcDbText
 10
9556.156190347413
 20
5147.763285486725
 30
0.0
 40
80.0
  1
※a,b,cは屋根の出幅です。
  7
STYLE1
100
AcDbText
  0
MTEXT
  5
1D945
102
{ACAD_REACTORS
330
1D946
102
}
330
747D
100
AcDbEntity
  8
部品1
 62
     7
 48
50.0
100
AcDbMText
 10
10421.33878581221
 20
5371.901644153068
 30
0.0
 40
120.0
 41
0.0
 71
     6
 72
     1
  1
\A1;屋根の外寸
  7
STYLE1
 73
     1
 44
1.0
1001
ACAD
1000
MTEXTBEGIN
1070
    73
1070
     1
1070
    44
1040
1.0
1070
    74
1070
     0
1000
MTEXTEND
  0
LEADER
  5
1D946
330
747D
100
AcDbEntity
  8
寸法
 48
50.0
100
AcDbLeader
  3
INABA_S40G
 71
     0
 73
     0
 74
     0
 75
     1
 40
120.0
 41
672.0
 76
     3
 10
9351.101599207723
 20
5666.919036112859
 30
0.0
 10
9609.338785812216
 20
5271.901644153068
 30
0.0
 10
9709.338785812215
 20
5271.901644153068
 30
0.0
340
1D945
  0
DIMENSION
  5
1D947
330
747D
100
AcDbEntity
  8
寸法
 48
50.0
100
AcDbDimension
  2
*D16
 10
7359.723195186919
 20
7292.919036112856
 30
0.0
 11
7359.723195186917
 21
7034.598327534934
 31
0.0
 70
   160
 71
     5
 42
110.0000000000054
  3
INABA_S40G
100
AcDbAlignedDimension
 13
7129.213011273896
 23
7402.919036112862
 33
0.0
 14
7129.213011273896
 24
7292.919036112856
 34
0.0
 50
90.0
100
AcDbRotatedDimension
  0
LINE
  5
1D94A
330
747D
100
AcDbEntity
  8
部品1
 48
50.0
100
AcDbLine
 10
9539.213011273897
 20
5722.919036112878
 30
0.0
 11
9539.213011273897
 21
7522.919036112863
 31
0.0
  0
LINE
  5
1D94B
330
747D
100
AcDbEntity
  8
想像線
 48
10.0
100
AcDbLine
 10
9584.213011273893
 20
7597.919036112864
 30
0.0
 11
9584.213011273901
 21
5667.919036112859
 31
0.0
  0
TEXT
  5
1D94C
330
747D
100
AcDbEntity
  8
部品1
 48
50.0
100
AcDbText
 10
7974.237581531081
 20
5461.4665347094
 30
0.0
 40
120.0
  1
扉面
  7
STYLE1
 72
     1
 11
8102.237581531081
 21
5445.4665347094
 31
0.0
100
AcDbText
 73
     1
  0
LINE
  5
1D94F
330
747D
100
AcDbEntity
  8
部品1
 48
50.0
100
AcDbLine
 10
8119.213011273918
 20
5647.919036112865
 30
0.0
 11
8119.213011273918
 21
5842.919036112864
 31
0.0
  0
LINE
  5
1D950
330
747D
100
AcDbEntity
  8
部品1
 48
50.0
100
AcDbLine
 10
8319.213011273919
 20
5647.919036112869
 30
0.0
 11
8319.213011273918
 21
5842.919036112867
 31
0.0
  0
LINE
  5
1D951
330
747D
100
AcDbEntity
  8
センター
 48
2.0
100
AcDbLine
 10
9366.213011273904
 20
5845.919036112861
 30
0.0
 11
9466.213011273904
 21
5845.919036112861
 31
0.0
  0
CIRCLE
  5
1D952
330
747D
100
AcDbEntity
  8
部品1
 48
50.0
100
AcDbCircle
 10
9416.213011273903
 20
5845.919036112861
 30
0.0
 40
35.0
  0
LINE
  5
1D953
330
747D
100
AcDbEntity
  8
部品1
 48
50.0
100
AcDbLine
 10
9419.213011273896
 20
5952.919036112877
 30
0.0
 11
9309.213011273895
 21
5952.919036112877
 31
0.0
  0
LINE
  5
1D954
330
747D
100
AcDbEntity
  8
部品1
 48
50.0
100
AcDbLine
 10
9309.213011273895
 20
5842.919036112876
 30
0.0
 11
9309.213011273895
 21
5952.919036112877
 31
0.0
  0
LINE
  5
1D955
330
747D
100
AcDbEntity
  8
センター
 48
2.0
100
AcDbLine
 10
9416.213011273903
 20
5895.919036112861
 30
0.0
 11
9416.213011273903
 21
5795.919036112861
 31
0.0
  0
LINE
  5
1D956
330
747D
100
AcDbEntity
  8
部品1
 48
50.0
100
AcDbLine
 10
8319.213011273904
 20
7402.91903611286
 30
0.0
 11
8319.213011273904
 21
7522.91903611286
 31
0.0
  0
LINE
  5
1D957
330
747D
100
AcDbEntity
  8
部品1
 48
50.0
100
AcDbLine
 10
8119.213011273904
 20
7402.91903611286
 30
0.0
 11
8119.213011273904
 21
7522.91903611286
 31
0.0
  0
DIMENSION
  5
1D959
330
747D
100
AcDbEntity
  8
寸法
 48
50.0
100
AcDbDimension
  2
*D17
 10
7359.723195186919
 20
7402.919036112862
 30
0.0
 11
7359.723195186917
 21
7758.966280207349
 31
0.0
 70
   160
 71
     5
 42
119.9999999999963
  3
INABA_S40G
100
AcDbAlignedDimension
 13
7101.213011273896
 23
7522.919036112859
 33
0.0
 14
7129.213011273896
 24
7402.919036112862
 34
0.0
 50
90.0
100
AcDbRotatedDimension
  0
LINE
  5
1D95A
330
747D
100
AcDbEntity
  8
センター
 48
2.0
100
AcDbLine
 10
9366.213011273897
 20
7399.919036112861
 30
0.0
 11
9466.213011273897
 21
7399.919036112861
 31
0.0
  0
CIRCLE
  5
1D95B
330
747D
100
AcDbEntity
  8
部品1
 48
50.0
100
AcDbCircle
 10
9416.213011273896
 20
7399.919036112861
 30
0.0
 40
35.0
  0
LINE
  5
1D95C
330
747D
100
AcDbEntity
  8
部品1
 48
50.0
100
AcDbLine
 10
9419.213011273896
 20
7292.919036112862
 30
0.0
 11
9309.213011273895
 21
7292.919036112859
 31
0.0
  0
LINE
  5
1D95D
330
747D
100
AcDbEntity
  8
部品1
 48
50.0
100
AcDbLine
 10
9309.213011273895
 20
7292.919036112859
 30
0.0
 11
9309.213011273895
 21
7402.919036112859
 31
0.0
  0
LINE
  5
1D95E
330
747D
100
AcDbEntity
  8
部品1
 48
50.0
100
AcDbLine
 10
9539.213011273899
 20
6722.91903611286
 30
0.0
 11
9419.213011273896
 21
6722.91903611286
 31
0.0
  0
LINE
  5
1D95F
330
747D
100
AcDbEntity
  8
部品1
 48
50.0
100
AcDbLine
 10
9539.213011273899
 20
6522.91903611286
 30
0.0
 11
9419.213011273896
 21
6522.919036112861
 31
0.0
  0
LINE
  5
1D961
330
747D
100
AcDbEntity
  8
センター
 48
2.0
100
AcDbLine
 10
9416.213011273896
 20
7449.919036112861
 30
0.0
 11
9416.213011273896
 21
7349.919036112861
 31
0.0
  0
TEXT
  5
1DEDA
330
747D
100
AcDbEntity
  8
文字
 62
     7
 48
50.0
100
AcDbText
 10
13188.16259899338
 20
79.80631269190325
 30
0.0
 40
80.0
  1
※布基礎には換気口を設けてください。
  7
STYLE2
100
AcDbText
  0
MTEXT
  5
1E700
102
{ACAD_REACTORS
330
1E701
102
}
330
747D
100
AcDbEntity
  8
部品1
 62
     7
 48
50.0
100
AcDbMText
 10
10589.02999071
 20
7765.944479920811
 30
0.0
 40
120.0
 41
0.0
 71
     6
 72
     1
  1
基礎ボルト芯
  7
STYLE1
 73
     1
 44
1.0
1001
ACAD
1000
MTEXTBEGIN
1070
    73
1070
     1
1070
    44
1040
1.0
1070
    74
1070
     0
1000
MTEXTEND
  0
LEADER
  5
1E701
330
747D
100
AcDbEntity
  8
寸法
 48
50.0
100
AcDbLeader
  3
INABA_S40G
 71
     0
 73
     0
 74
     0
 75
     1
 40
120.0
 41
846.0000000000002
 76
     3
 10
9416.213011273896
 20
7399.919036112861
 30
0.0
 10
9603.029990710002
 20
7665.944479920812
 30
0.0
 10
9703.029990710001
 20
7665.944479920812
 30
0.0
340
1E700
  0
DIMENSION
  5
1E96D
330
747D
100
AcDbEntity
  8
寸法
 48
50.0
100
AcDbDimension
  2
*D18
 10
8903.516201998268
 20
7522.919036112863
 30
0.0
 11
8803.516201998265
 21
7072.919036112867
 31
0.0
 70
    32
 71
     5
 42
899.9999999999936
  3
INABA_S40G
100
AcDbAlignedDimension
 13
8683.713011273896
 23
6622.919036112868
 33
0.0
 14
8774.713011273906
 24
7522.919036112863
 34
0.0
 50
90.0
100
AcDbRotatedDimension
  0
DIMENSION
  5
1E98B
330
747D
100
AcDbEntity
  8
寸法
 48
50.0
100
AcDbDimension
  2
*D19
 10
8903.516201998268
 20
6622.919036112868
 30
0.0
 11
8903.516201998264
 21
6104.500182931486
 31
0.0
 70
   160
 71
     5
 42
975.0000000000008
  3
INABA_S40G
100
AcDbAlignedDimension
 13
8774.713011273902
 23
5647.919036112868
 33
0.0
 14
8683.713011273896
 24
6622.919036112868
 34
0.0
 50
90.0
100
AcDbRotatedDimension
  0
MTEXT
  5
1F11B
102
{ACAD_REACTORS
330
1F11C
102
}
330
747D
100
AcDbEntity
  8
部品1
 62
     7
 48
50.0
100
AcDbMText
 10
10609.45019787839
 20
6327.901644153087
 30
0.0
 40
120.0
 41
0.0
 71
     6
 72
     1
  1
床下換気口
  7
STYLE1
 73
     1
 44
1.0
1001
ACAD
1000
MTEXTBEGIN
1070
    73
1070
     1
1070
    44
1040
1.0
1070
    74
1070
     0
1000
MTEXTEND
  0
LEADER
  5
1F11C
330
747D
100
AcDbEntity
  8
寸法
 48
50.0
100
AcDbLeader
  3
INABA_S40G
 71
     0
 73
     0
 74
     0
 75
     1
 40
120.0
 41
720.0000000000001
 76
     3
 10
9539.213011273899
 20
6622.919036112879
 30
0.0
 10
9749.45019787839
 20
6227.901644153088
 30
0.0
 10
9849.45019787839
 20
6227.901644153088
 30
0.0
340
1F11B
  0
DIMENSION
  5
1F248
330
747D
100
AcDbEntity
  8
寸法
 48
50.0
100
AcDbDimension
  2
*D21
 10
8634.213011273894
 20
8048.090767068199
 30
0.0
 11
9115.983146456347
 21
8048.090767068199
 31
0.0
 70
   160
 71
     5
 42
904.9999999999981
  3
INABA_S40G
100
AcDbAlignedDimension
 13
9539.213011273892
 23
7522.919036112863
 33
0.0
 14
8634.213011273894
 24
6822.919036112868
 34
0.0
100
AcDbRotatedDimension
  0
DIMENSION
  5
1F249
330
747D
100
AcDbEntity
  8
寸法
 48
50.0
100
AcDbDimension
  2
*D20
 10
6899.213011273895
 20
8049.82880176119
 30
0.0
 11
7351.713011273893
 21
8149.82880176119
 31
0.0
 70
    32
 71
     5
 42
905.0
  3
INABA_S40G
100
AcDbAlignedDimension
 13
7804.213011273894
 23
6822.919036112868
 33
0.0
 14
6899.213011273895
 24
7522.919036112863
 34
0.0
100
AcDbRotatedDimension
  0
LINE
  5
1F940
330
747D
100
AcDbEntity
  8
センター
 48
2.0
100
AcDbLine
 10
8634.213011273896
 20
6672.919036112869
 30
0.0
 11
8634.213011273896
 21
6572.919036112868
 31
0.0
  0
LINE
  5
1F941
330
747D
100
AcDbEntity
  8
部品1
 48
50.0
100
AcDbLine
 10
8734.213011273896
 20
6422.919036112867
 30
0.0
 11
8734.213011273896
 21
6822.91903611287
 31
0.0
  0
LINE
  5
1F942
330
747D
100
AcDbEntity
  8
部品1
 48
50.0
100
AcDbLine
 10
8534.213011273896
 20
6422.919036112867
 30
0.0
 11
8534.2130112739
 21
6822.919036112868
 31
0.0
  0
LINE
  5
1F943
330
747D
100
AcDbEntity
  8
センター
 48
2.0
100
AcDbLine
 10
8584.213011273895
 20
6622.919036112868
 30
0.0
 11
8684.213011273895
 21
6622.919036112868
 31
0.0
  0
LINE
  5
1FDB5
330
747D
100
AcDbEntity
  8
想像線
 48
10.0
100
AcDbLine
 10
6857.213011273898
 20
7597.91903611286
 30
0.0
 11
6854.213011273897
 21
7594.91903611286
 31
0.0
  0
LINE
  5
1FDB9
330
747D
100
AcDbEntity
  8
想像線
 48
10.0
100
AcDbLine
 10
6854.213011273897
 20
5670.919036112861
 30
0.0
 11
6857.213011273898
 21
5667.919036112861
 31
0.0
  0
LINE
  5
1FE23
330
747D
100
AcDbEntity
  8
センター
 48
2.0
100
AcDbLine
 10
7754.213011273894
 20
6622.919036112868
 30
0.0
 11
7854.213011273895
 21
6622.919036112868
 31
0.0
  0
LINE
  5
1FE24
330
747D
100
AcDbEntity
  8
部品1
 48
50.0
100
AcDbLine
 10
7704.213011273894
 20
6422.919036112867
 30
0.0
 11
7704.213011273896
 21
6822.919036112868
 31
0.0
  0
LINE
  5
1FE25
330
747D
100
AcDbEntity
  8
部品1
 48
50.0
100
AcDbLine
 10
7904.213011273893
 20
6422.919036112867
 30
0.0
 11
7904.213011273895
 21
6822.91903611287
 31
0.0
  0
LINE
  5
1FE26
330
747D
100
AcDbEntity
  8
センター
 48
2.0
100
AcDbLine
 10
7804.213011273894
 20
6672.919036112869
 30
0.0
 11
7804.213011273894
 21
6572.919036112868
 31
0.0
  0
DIMENSION
  5
1FE4B
330
747D
100
AcDbEntity
  8
寸法
 48
50.0
100
AcDbDimension
  2
*D22
 10
8634.213011273894
 20
8049.82880176119
 30
0.0
 11
8219.213011273893
 21
8149.82880176119
 31
0.0
 70
    32
 71
     5
 42
830.0
  3
INABA_S40G
100
AcDbAlignedDimension
 13
7804.213011273894
 23
6822.919036112868
 33
0.0
 14
8634.213011273894
 24
6822.919036112868
 34
0.0
100
AcDbRotatedDimension
  0
LINE
  5
1FE61
330
747D
100
AcDbEntity
  8
寸法
 48
50.0
100
AcDbLine
 10
9419.213011273894
 20
7022.91903611287
 30
0.0
 11
9419.213011273894
 21
6924.422404093454
 31
0.0
  0
LINE
  5
1FE62
330
747D
100
AcDbEntity
  8
寸法
 48
50.0
100
AcDbLine
 10
9309.213011273895
 20
7272.919036112859
 30
0.0
 11
9309.213011273895
 21
6924.422404093454
 31
0.0
  0
LINE
  5
1FE63
330
747D
100
AcDbEntity
  8
寸法
 48
50.0
100
AcDbLine
 10
9439.213011273897
 20
6984.422404093454
 30
0.0
 11
9309.213011273895
 21
6984.422404093454
 31
0.0
  0
LINE
  5
1FE64
330
747D
100
AcDbEntity
  8
寸法
 48
50.0
100
AcDbLine
 10
9309.213011273895
 20
6984.422404093454
 30
0.0
 11
9094.111097564427
 21
6984.422404093454
 31
0.0
  0
INSERT
  5
1FE65
330
747D
100
AcDbEntity
  8
寸法
 48
50.0
100
AcDbBlockReference
  2
_DOTSMALL
 10
9419.213011273894
 20
6984.422404093454
 30
0.0
 41
100.0
 42
100.0
 43
100.0
  0
INSERT
  5
1FE66
330
747D
100
AcDbEntity
  8
寸法
 48
50.0
100
AcDbBlockReference
  2
_DOTSMALL
 10
9309.213011273895
 20
6984.422404093454
 30
0.0
 41
100.0
 42
100.0
 43
100.0
 50
180.0
  0
MTEXT
  5
1FE67
330
747D
100
AcDbEntity
  8
寸法
 62
     7
 48
50.0
100
AcDbMText
 10
9180.594947388133
 20
7084.422404093453
 30
0.0
 40
120.0
 41
0.0
 71
     5
 72
     1
  1
110
  7
STYLE1
 73
     1
 44
1.0
1001
ACAD
1000
MTEXTBEGIN
1070
    73
1070
     1
1070
    44
1040
1.0
1070
    74
1070
     0
1000
MTEXTEND
  0
LEADER
  5
1FEC1
330
747D
100
AcDbEntity
  8
寸法
 48
50.0
100
AcDbLeader
  3
INABA_S40G
 71
     0
 73
     0
 75
     1
 40
120.0
 41
185.591883092037
 76
     3
 10
8616.807579692089
 20
6460.912101194046
 30
0.0
 10
8539.482087911549
 20
6249.269870951273
 30
0.0
 10
8439.482087911548
 20
6249.269870951273
 30
0.0
340
1FEC2
210
0.0
220
0.0
230
-1.0
213
-42.79594154601909
223
-61.50908697369414
233
0.0
  0
MTEXT
  5
1FEC2
102
{ACAD_REACTORS
330
1FEC1
102
}
330
747D
100
AcDbEntity
  8
部品1
 62
     7
 48
50.0
100
AcDbMText
 10
8442.278029457567
 20
6330.778957924968
 30
0.0
 40
120.0
 41
0.0
 71
     6
 72
     1
  1
\A1;C.B
  7
STYLE1
 73
     1
 44
1.0
1001
ACAD
1000
MTEXTBEGIN
1070
    73
1070
     1
1070
    44
1040
1.0
1070
    74
1070
     0
1000
MTEXTEND
  0
LINE
  5
2076F
330
747D
100
AcDbEntity
  8
部品1
 48
50.0
100
AcDbLine
 10
7904.213011273895
 20
6822.919036112868
 30
0.0
 11
7704.213011273894
 21
6822.919036112868
 31
0.0
  0
LINE
  5
20770
330
747D
100
AcDbEntity
  8
部品1
 48
50.0
100
AcDbLine
 10
8734.213011273894
 20
6822.919036112868
 30
0.0
 11
8534.213011273894
 21
6822.919036112868
 31
0.0
  0
LINE
  5
20771
330
747D
100
AcDbEntity
  8
部品1
 48
50.0
100
AcDbLine
 10
7904.213011273895
 20
6422.919036112867
 30
0.0
 11
7704.213011273894
 21
6422.919036112867
 31
0.0
  0
LINE
  5
20772
330
747D
100
AcDbEntity
  8
部品1
 48
50.0
100
AcDbLine
 10
8734.213011273894
 20
6422.919036112867
 30
0.0
 11
8534.213011273894
 21
6422.919036112867
 31
0.0
  0
LINE
  5
208AD
330
747D
100
AcDbEntity
  8
部品1
 48
50.0
100
AcDbLine
 10
9419.213011273896
 20
5952.91903611288
 30
0.0
 11
9419.213011273894
 21
7292.919036112862
 31
0.0
  0
LINE
  5
208B8
330
747D
100
AcDbEntity
  8
部品1
 48
50.0
100
AcDbLine
 10
9309.213011273895
 20
7402.919036112859
 30
0.0
 11
7129.213011273896
 21
7402.919036112862
 31
0.0
  0
LINE
  5
208E1
330
747D
100
AcDbEntity
  8
細線
 48
50.0
100
AcDbLine
 10
8122.485603689185
 20
7522.91903611286
 30
0.0
 11
8119.213011273904
 21
7519.646443697578
 31
0.0
  0
LINE
  5
208E2
330
747D
100
AcDbEntity
  8
細線
 48
50.0
100
AcDbLine
 10
8167.386884294531
 20
7522.91903611286
 30
0.0
 11
8119.213011273904
 21
7474.745163092231
 31
0.0
  0
LINE
  5
208E3
330
747D
100
AcDbEntity
  8
細線
 48
50.0
100
AcDbLine
 10
8212.288164899877
 20
7522.91903611286
 30
0.0
 11
8119.213011273904
 21
7429.843882486887
 31
0.0
  0
LINE
  5
208E6
330
747D
100
AcDbEntity
  8
細線
 48
50.0
100
AcDbLine
 10
8257.189445505224
 20
7522.91903611286
 30
0.0
 11
8137.189445505223
 21
7402.91903611286
 31
0.0
  0
LINE
  5
208E7
330
747D
100
AcDbEntity
  8
細線
 48
50.0
100
AcDbLine
 10
8302.090726110568
 20
7522.91903611286
 30
0.0
 11
8182.090726110567
 21
7402.91903611286
 31
0.0
  0
LINE
  5
208E8
330
747D
100
AcDbEntity
  8
細線
 48
50.0
100
AcDbLine
 10
8319.213011273904
 20
7495.140040670849
 30
0.0
 11
8226.992006715915
 21
7402.91903611286
 31
0.0
  0
LINE
  5
208E9
330
747D
100
AcDbEntity
  8
細線
 48
50.0
100
AcDbLine
 10
8319.213011273904
 20
7450.238760065504
 30
0.0
 11
8271.893287321258
 21
7402.91903611286
 31
0.0
  0
LINE
  5
208F2
330
747D
100
AcDbEntity
  8
細線
 48
50.0
100
AcDbLine
 10
8319.213011273904
 20
7405.337479460162
 30
0.0
 11
8316.794567926601
 21
7402.91903611286
 31
0.0
  0
LINE
  5
208F4
330
747D
100
AcDbEntity
  8
細線
 48
50.0
100
AcDbLine
 10
9464.622741244214
 20
6722.91903611286
 30
0.0
 11
9419.213011273894
 21
6677.509306142543
 31
0.0
  0
LINE
  5
208F5
330
747D
100
AcDbEntity
  8
細線
 48
50.0
100
AcDbLine
 10
9509.524021849561
 20
6722.91903611286
 30
0.0
 11
9419.213011273896
 21
6632.608025537193
 31
0.0
  0
LINE
  5
208F6
330
747D
100
AcDbEntity
  8
細線
 48
50.0
100
AcDbLine
 10
9539.213011273899
 20
6707.706744931851
 30
0.0
 11
9419.213011273896
 21
6587.706744931846
 31
0.0
  0
LINE
  5
208F7
330
747D
100
AcDbEntity
  8
細線
 48
50.0
100
AcDbLine
 10
9539.213011273899
 20
6662.805464326504
 30
0.0
 11
9419.213011273896
 21
6542.8054643265
 31
0.0
  0
LINE
  5
208F8
330
747D
100
AcDbEntity
  8
細線
 48
50.0
100
AcDbLine
 10
9539.213011273897
 20
6617.904183721158
 30
0.0
 11
9444.227863665597
 21
6522.919036112861
 31
0.0
  0
LINE
  5
208F9
330
747D
100
AcDbEntity
  8
細線
 48
50.0
100
AcDbLine
 10
9539.213011273899
 20
6573.002903115813
 30
0.0
 11
9489.129144270945
 21
6522.91903611286
 31
0.0
  0
LINE
  5
208FA
330
747D
100
AcDbEntity
  8
細線
 48
50.0
100
AcDbLine
 10
9539.213011273897
 20
6528.101622510466
 30
0.0
 11
9534.03042487629
 21
6522.91903611286
 31
0.0
  0
LINE
  5
208FB
330
747D
100
AcDbEntity
  8
部品1
 48
50.0
100
AcDbLine
 10
7019.213011273897
 20
5952.919036112861
 30
0.0
 11
7019.213011273897
 21
7292.919036112859
 31
0.0
  0
LINE
  5
208FC
330
747D
100
AcDbEntity
  8
細線
 48
50.0
100
AcDbLine
 10
6899.213011273897
 20
6697.509306142541
 30
0.0
 11
6924.622741244218
 21
6722.919036112862
 31
0.0
  0
LINE
  5
208FD
330
747D
100
AcDbEntity
  8
細線
 48
50.0
100
AcDbLine
 10
6899.213011273897
 20
6652.608025537195
 30
0.0
 11
6969.524021849562
 21
6722.919036112862
 31
0.0
  0
LINE
  5
20904
330
747D
100
AcDbEntity
  8
細線
 48
50.0
100
AcDbLine
 10
6899.213011273897
 20
6607.706744931849
 30
0.0
 11
7014.425302454909
 21
6722.919036112862
 31
0.0
  0
LINE
  5
2090A
330
747D
100
AcDbEntity
  8
細線
 48
50.0
100
AcDbLine
 10
6899.213011273897
 20
6562.805464326503
 30
0.0
 11
7019.213011273897
 21
6682.805464326502
 31
0.0
  0
LINE
  5
20910
330
747D
100
AcDbEntity
  8
細線
 48
50.0
100
AcDbLine
 10
6904.2278636656
 20
6522.91903611286
 30
0.0
 11
7019.213011273897
 21
6637.904183721156
 31
0.0
  0
LINE
  5
20916
330
747D
100
AcDbEntity
  8
細線
 48
50.0
100
AcDbLine
 10
6949.129144270945
 20
6522.91903611286
 30
0.0
 11
7019.213011273897
 21
6593.002903115811
 31
0.0
  0
LINE
  5
2091C
330
747D
100
AcDbEntity
  8
細線
 48
50.0
100
AcDbLine
 10
6994.030424876292
 20
6522.91903611286
 30
0.0
 11
7019.213011273897
 21
6548.101622510465
 31
0.0
  0
LINE
  5
212E9
330
747D
100
AcDbEntity
  8
部品1
 48
50.0
100
AcDbLine
 10
9087.213011273899
 20
5647.91903611287
 30
0.0
 11
7352.213011273896
 21
5647.919036112856
 31
0.0
  0
LINE
  5
212FD
330
747D
100
AcDbEntity
  8
部品1
 48
50.0
100
AcDbLine
 10
7352.213011273896
 20
5722.919036112859
 30
0.0
 11
7352.213011273896
 21
5647.919036112856
 31
0.0
  0
LINE
  5
212FE
330
747D
100
AcDbEntity
  8
部品1
 48
50.0
100
AcDbLine
 10
9087.213011273899
 20
5722.91903611287
 30
0.0
 11
9087.213011273899
 21
5647.91903611287
 31
0.0
  0
DIMENSION
  5
212FF
330
747D
100
AcDbEntity
  8
寸法
 48
50.0
100
AcDbDimension
  2
*D23
 10
6720.983429254797
 20
5722.919036112859
 30
0.0
 11
6720.983429254795
 21
5114.433754738619
 31
0.0
 70
   160
  1
扉の出<>
 71
     5
 42
75.00000000000364
  3
INABA_S40G
100
AcDbAlignedDimension
 13
7352.213011273896
 23
5647.919036112856
 33
0.0
 14
6899.213011273897
 24
5722.919036112859
 34
0.0
 50
90.0
100
AcDbRotatedDimension
  0
HATCH
  5
2133C
330
747D
100
AcDbEntity
  8
細線
 48
50.0
100
AcDbHatch
 10
0.0
 20
0.0
 30
0.0
210
0.0
220
0.0
230
1.0
  2
LINE
 70
     0
 71
     0
 91
        2
 92
        7
 72
     0
 73
     1
 93
        4
 10
8319.213011273918
 20
5842.919036112869
 10
8119.213011273918
 20
5842.919036112867
 10
8119.213011273918
 20
5667.919036112859
 10
8319.213011273919
 20
5667.919036112858
 97
        0
 92
        7
 72
     0
 73
     1
 93
        4
 10
8319.213011273919
 20
5667.919036112859
 10
8119.21301127392
 20
5667.91903611286
 10
8119.213011273918
 20
5647.919036112866
 10
8319.213011273919
 20
5647.919036112868
 97
        0
 75
     0
 76
     1
 52
45.0
 41
10.0
 77
     0
 78
     1
 53
45.0
 43
0.0
 44
0.0
 45
-22.45064030267288
 46
22.45064030267288
 79
     0
 47
1.21519092912444
 98
        2
 10
8264.11421157093
 20
5704.854002777829
 10
8249.485469482076
 20
5662.759214561909
  0
DIMENSION
  5
21359
330
747D
100
AcDbEntity
  8
寸法
 48
50.0
100
AcDbDimension
  2
*D24
 10
9087.213011273895
 20
5076.503757233069
 30
0.0
 11
8219.713011273896
 21
5176.50375723307
 31
0.0
 70
    32
  1
扉の幅<>
 71
     5
 42
1734.999999999999
  3
INABA_S40G
100
AcDbAlignedDimension
 13
7352.213011273896
 23
5647.919036112856
 33
0.0
 14
9087.213011273895
 24
5647.919036112856
 34
0.0
100
AcDbRotatedDimension
  0
LINE
  5
21366
330
747D
100
AcDbEntity
  8
部品1
 48
50.0
100
AcDbLine
 10
9539.213011273897
 20
5722.919036112878
 30
0.0
 11
9087.213011273899
 21
5722.91903611287
 31
0.0
  0
MTEXT
  5
21526
330
747D
100
AcDbEntity
  8
寸法
 62
     7
 48
50.0
100
AcDbMText
 10
7895.556878475558
 20
2400.689039260351
 30
0.0
 40
100.0
 41
1.0
 71
     6
 72
     1
  1
\U+203B(別売)
  7
STYLE2
 73
     1
 44
1.0
1001
ACAD
1000
MTEXTBEGIN
1070
    73
1070
     1
1070
    44
1040
1.0
1070
    74
1070
     0
1000
MTEXTEND
  0
LINE
  5
21527
330
747D
100
AcDbEntity
  8
細線
100
AcDbLine
 10
10507.06581738589
 20
1633.764973743768
 30
0.0
 11
10263.77415028991
 21
1877.056640839746
 31
0.0
  0
LINE
  5
21528
330
747D
100
AcDbEntity
  8
細線
100
AcDbLine
 10
10443.4262070791
 20
1633.764973743768
 30
0.0
 11
10263.77415028991
 21
1813.417030532958
 31
0.0
  0
LINE
  5
21529
330
747D
100
AcDbEntity
  8
部品1
100
AcDbLine
 10
10263.77415028991
 20
1933.764973743768
 30
0.0
 11
10863.77415028991
 21
1933.764973743768
 31
0.0
  0
LINE
  5
2152A
330
747D
100
AcDbEntity
  8
細線
100
AcDbLine
 10
10255.06964341407
 20
1519.14132917708
 30
0.0
 11
10369.69328798076
 21
1633.764973743767
 31
0.0
  0
LWPOLYLINE
  5
2152B
330
747D
100
AcDbEntity
  8
部品1
 48
50.0
100
AcDbPolyline
 90
        2
 70
     0
 43
15.0
 10
9783.010072664428
 20
1633.764973743768
 10
11284.37545157896
 20
1633.764973743768
  0
LINE
  5
2152C
330
747D
100
AcDbEntity
  8
部品1
100
AcDbLine
 10
10113.77415028991
 20
1519.14132917708
 30
0.0
 11
11013.77415028991
 21
1519.141329177083
 31
0.0
  0
LINE
  5
2152D
330
747D
100
AcDbEntity
  8
部品1
100
AcDbLine
 10
10113.77415028991
 20
1359.141329177076
 30
0.0
 11
11013.77415028991
 21
1359.14132917708
 31
0.0
  0
LINE
  5
2152E
330
747D
100
AcDbEntity
  8
部品1
100
AcDbLine
 10
4707.810382011017
 20
325.9099991101357
 30
0.0
 11
11604.28507810905
 21
325.9099991101357
 31
0.0
  0
LINE
  5
2152F
330
747D
100
AcDbEntity
  8
部品1
100
AcDbLine
 10
11604.28507810905
 20
3284.979498464823
 30
0.0
 11
4707.810382011017
 21
3284.979498464823
 31
0.0
  0
LINE
  5
21530
330
747D
100
AcDbEntity
  8
部品1
100
AcDbLine
 10
11604.28507810905
 20
3584.979498464825
 30
0.0
 11
4707.810382011017
 21
3584.979498464823
 31
0.0
  0
LEADER
  5
21531
330
747D
100
AcDbEntity
  8
寸法
 48
50.0
100
AcDbLeader
  3
INABA_S40G
 71
     0
 73
     0
 75
     1
 40
141.4772727272727
 41
760.7954545454546
 76
     3
 10
8189.331152706854
 20
1870.659565441616
 30
0.0
 10
7974.576366842672
 20
2926.133418387214
 30
0.0
 10
7874.576366842672
 20
2926.133418387214
 30
0.0
  0
MTEXT
  5
21532
102
{ACAD_REACTORS
330
21531
102
}
330
747D
100
AcDbEntity
  8
寸法
 62
     7
 48
50.0
100
AcDbMText
 10
7834.576366842672
 20
3036.87205475085
 30
0.0
 40
100.0
 41
1.0
 71
     6
 72
     1
  1
\A1;φ70スリーブ
  7
STYLE2
 73
     1
 44
1.0
1001
ACAD
1000
MTEXTBEGIN
1070
    73
1070
     1
1070
    44
1040
1.0
1070
    74
1070
     0
1000
MTEXTEND
  0
LINE
  5
21533
330
747D
100
AcDbEntity
  8
部品1
100
AcDbLine
 10
4707.810382011021
 20
3584.979498464823
 30
0.0
 11
4707.810382011021
 21
325.9099991101357
 31
0.0
  0
DIMENSION
  5
21534
330
747D
100
AcDbEntity
  8
寸法
 48
50.0
100
AcDbDimension
  2
*D25
 10
5826.611073562799
 20
2458.349733639244
 30
0.0
 11
5946.611073562799
 21
2458.349733639244
 31
0.0
 70
   160
  1
120\P195
 71
     5
 42
240.0
  3
INABA_S40G
100
AcDbAlignedDimension
 13
6066.611073562799
 23
1933.764973743768
 33
0.0
 14
5826.611073562799
 24
1933.764973743768
 34
0.0
100
AcDbRotatedDimension
  0
LEADER
  5
21535
330
747D
100
AcDbEntity
  8
寸法
 48
50.0
100
AcDbLeader
  3
INABA_S40G
 71
     0
 73
     0
 74
     0
 75
     1
 40
127.8409090909091
 41
1133.522727272727
 76
     3
 10
8278.410215034293
 20
2270.169084299118
 30
0.0
 10
8378.249702995345
 20
2705.463735557389
 30
0.0
 10
8478.249702995345
 20
2705.463735557389
 30
0.0
  0
MTEXT
  5
21536
102
{ACAD_REACTORS
330
21535
102
}
330
747D
100
AcDbEntity
  8
部品1
 62
     7
 48
50.0
100
AcDbMText
 10
8518.249702995346
 20
2809.384190102843
 30
0.0
 40
100.0
 41
1.0
 71
     4
 72
     1
  1
\A1;ワッシャー(市販品)
  7
STYLE2
 73
     1
 44
1.0
1001
ACAD
1000
MTEXTBEGIN
1070
    73
1070
     1
1070
    44
1040
1.0
1070
    74
1070
     0
1000
MTEXTEND
  0
LEADER
  5
21537
330
747D
100
AcDbEntity
  8
寸法
 48
50.0
100
AcDbLeader
  3
INABA_S40G
 71
     0
 73
     0
 74
     0
 75
     1
 40
127.8409090909091
 41
850.0
 76
     3
 10
8248.410215034294
 20
2432.359075130197
 30
0.0
 10
8338.85267892599
 20
2936.675089013374
 30
0.0
 10
8438.852678925989
 20
2936.675089013374
 30
0.0
  0
MTEXT
  5
21538
102
{ACAD_REACTORS
330
21537
102
}
330
747D
100
AcDbEntity
  8
部品1
 62
     7
 48
50.0
100
AcDbMText
 10
8478.85267892599
 20
3040.595543558828
 30
0.0
 40
100.0
 41
1.0
 71
     4
 72
     1
  1
\A1;ナット(市販品)
  7
STYLE2
 73
     1
 44
1.0
1001
ACAD
1000
MTEXTBEGIN
1070
    73
1070
     1
1070
    44
1040
1.0
1070
    74
1070
     0
1000
MTEXTEND
  0
MTEXT
  5
21539
102
{ACAD_REACTORS
330
2153A
102
}
330
747D
100
AcDbEntity
  8
寸法
 62
     7
 48
50.0
100
AcDbMText
 10
7867.88012460312
 20
2586.016714866457
 30
0.0
 40
100.0
 41
1.0
 71
     6
 72
     1
  1
アンカープレート {\fArial|b0|i0|c0|p32;U}
  7
STYLE2
 73
     1
 44
1.0
1001
ACAD
1000
MTEXTBEGIN
1070
    73
1070
     1
1070
    44
1040
1.0
1070
    74
1070
     0
1000
MTEXTEND
  0
LEADER
  5
2153A
330
747D
100
AcDbEntity
  8
寸法
 48
50.0
100
AcDbLeader
  3
INABA_S40G
 71
     0
 73
     0
 75
     1
 40
132.9545454545455
 41
1129.404378023068
 76
     3
 10
8115.910215034293
 20
2020.714973743768
 30
0.0
 10
8007.88012460312
 20
2479.539442139183
 30
0.0
 10
7907.880124603121
 20
2479.539442139183
 30
0.0
  0
TEXT
  5
2153B
330
747D
100
AcDbEntity
  8
部品1
 48
50.0
100
AcDbText
 10
5308.936196271605
 20
1647.813714097837
 30
0.0
 40
100.0
  1
▽G.L
  7
STYLE2
100
AcDbText
  0
LWPOLYLINE
  5
2153C
330
747D
100
AcDbEntity
  8
部品1
 48
50.0
100
AcDbPolyline
 90
        2
 70
     0
 43
10.0
 10
5308.936196271605
 20
1633.76497374377
 10
5826.611073562799
 20
1633.76497374377
  0
DIMENSION
  5
2153D
330
747D
100
AcDbEntity
  8
寸法
 48
50.0
100
AcDbDimension
  2
*D26
 10
5488.585681397226
 20
953.7649737437668
 30
0.0
 11
5488.585681397226
 21
1103.764973743767
 31
0.0
 70
   160
  1
150
 71
     5
 42
300.0000000000001
  3
INABA_S40G
100
AcDbAlignedDimension
 13
5666.611073562799
 23
1253.764973743767
 33
0.0
 14
5566.611073562804
 24
953.7649737437668
 34
0.0
 50
90.0
100
AcDbRotatedDimension
  0
DIMENSION
  5
2153E
330
747D
100
AcDbEntity
  8
寸法
 48
50.0
100
AcDbDimension
  2
*D27
 10
5065.966135526736
 20
953.764973743767
 30
0.0
 11
5065.966135526736
 21
1443.764973743768
 31
0.0
 70
   160
  1
540
 71
     5
 42
980.0000000000014
  3
INABA_S40G
100
AcDbAlignedDimension
 13
5826.611073562799
 23
1933.764973743768
 33
0.0
 14
5566.611073562804
 24
953.7649737437668
 34
0.0
 50
90.0
100
AcDbRotatedDimension
  0
MTEXT
  5
2153F
102
{ACAD_REACTORS
330
21540
102
}
330
747D
100
AcDbEntity
  8
寸法
 62
     7
 48
50.0
100
AcDbMText
 10
5742.693073644517
 20
2199.410248746321
 30
0.0
 40
100.0
 41
1.0
 71
     6
 72
     1
  1
\A1;金コテ押エ
  7
STYLE2
 73
     1
 44
1.0
1001
ACAD
1000
MTEXTBEGIN
1070
    73
1070
     1
1070
    44
1040
1.0
1070
    74
1070
     0
1000
MTEXTEND
  0
LEADER
  5
21540
330
747D
100
AcDbEntity
  8
寸法
 48
50.0
100
AcDbLeader
  3
INABA_S40G
 71
     0
 73
     0
 75
     1
 40
130.1136363636363
 41
651.1363636363636
 76
     3
 10
5926.611073562801
 20
1933.764973743768
 30
0.0
 10
5867.693073644517
 20
2109.353430564502
 30
0.0
 10
5767.693073644517
 20
2109.353430564502
 30
0.0
  0
LEADER
  5
21541
330
747D
100
AcDbEntity
  8
寸法
 48
50.0
100
AcDbLeader
  3
INABA_S40G
 71
     0
 73
     0
 75
     1
 40
100.0
 41
540.3409090909091
 76
     3
 10
5956.6110735628
 20
1631.423992115171
 30
0.0
 10
5827.883277901928
 20
1354.586081439166
 30
0.0
 10
5727.883277901929
 20
1354.586081439166
 30
0.0
213
-12.16522788236671
223
-5.804645826423211
233
0.0
  0
MTEXT
  5
21542
102
{ACAD_REACTORS
330
21541
102
}
330
747D
100
AcDbEntity
  8
寸法
 62
     7
 48
50.0
100
AcDbMText
 10
5715.048505784294
 20
1435.390727265588
 30
0.0
 40
100.0
 41
1.0
 71
     6
 72
     1
  1
\A1;D10@300
  7
STYLE2
 73
     1
 44
1.0
1001
ACAD
1000
MTEXTBEGIN
1070
    73
1070
     1
1070
    44
1040
1.0
1070
    74
1070
     0
1000
MTEXTEND
  0
MTEXT
  5
21543
102
{ACAD_REACTORS
330
21544
102
}
330
747D
100
AcDbEntity
  8
寸法
 62
     7
 48
50.0
100
AcDbMText
 10
5488.095700265602
 20
623.966416046418
 30
0.0
 40
100.0
 41
1.0
 71
     6
 72
     1
  1
D13
  7
STYLE2
 73
     1
 44
1.0
1001
ACAD
1000
MTEXTBEGIN
1070
    73
1070
     1
1070
    44
1040
1.0
1070
    74
1070
     0
1000
MTEXTEND
  0
LEADER
  5
21544
330
747D
100
AcDbEntity
  8
寸法
 48
50.0
100
AcDbLeader
  3
INABA_S40G
 71
     0
 73
     0
 75
     1
 40
100.0
 41
222.7272727272727
 76
     3
 10
5946.611073562799
 20
1103.764973743767
 30
0.0
 10
5613.095700265602
 20
548.966416046418
 30
0.0
 10
5513.095700265601
 20
548.966416046418
 30
0.0
  0
LEADER
  5
21545
330
747D
100
AcDbEntity
  8
寸法
 48
50.0
100
AcDbLeader
  3
INABA_S40G
 71
     0
 73
     0
 75
     1
 40
100.0
 41
225.0
 76
     3
 10
5786.489764002979
 20
1103.764973743767
 30
0.0
 10
5577.942290818806
 20
774.3616067207222
 30
0.0
 10
5477.942290818806
 20
774.3616067207222
 30
0.0
  0
MTEXT
  5
21546
102
{ACAD_REACTORS
330
21545
102
}
330
747D
100
AcDbEntity
  8
寸法
 62
     7
 48
50.0
100
AcDbMText
 10
5452.942290818808
 20
849.3616067207222
 30
0.0
 40
100.0
 41
1.0
 71
     6
 72
     1
  1
D10
  7
STYLE2
 73
     1
 44
1.0
1001
ACAD
1000
MTEXTBEGIN
1070
    73
1070
     1
1070
    44
1040
1.0
1070
    74
1070
     0
1000
MTEXTEND
  0
LINE
  5
21547
330
747D
100
AcDbEntity
  8
部品1
 48
50.0
100
AcDbLine
 10
6066.611073562801
 20
1933.764973743768
 30
0.0
 11
6066.611073562801
 21
1253.764973743767
 31
0.0
  0
LINE
  5
21548
330
747D
100
AcDbEntity
  8
細線
 48
50.0
100
AcDbLine
 10
5826.611073562801
 20
1312.323405946481
 30
0.0
 11
5956.611073562807
 21
1442.323405946481
 31
0.0
  0
LINE
  5
21549
330
747D
100
AcDbEntity
  8
細線
 48
50.0
100
AcDbLine
 10
5826.611073562801
 20
1379.6753268545
 30
0.0
 11
5956.6110735628
 21
1509.6753268545
 31
0.0
  0
LINE
  5
2154A
330
747D
100
AcDbEntity
  8
細線
 48
50.0
100
AcDbLine
 10
5826.611073562801
 20
1345.99936640049
 30
0.0
 11
5956.611073562807
 21
1475.999366400494
 31
0.0
  0
LINE
  5
2154B
330
747D
100
AcDbEntity
  8
部品1
 48
50.0
100
AcDbLine
 10
5826.611073562801
 20
1253.764973743767
 30
0.0
 11
5826.611073562801
 21
1933.764973743768
 31
0.0
  0
LINE
  5
2154C
330
747D
100
AcDbEntity
  8
部品1
 48
50.0
100
AcDbLine
 10
5956.611073562807
 20
1103.764973743767
 30
0.0
 11
5956.611073562793
 21
1759.083010486574
 31
0.0
  0
LINE
  5
2154D
330
747D
100
AcDbEntity
  8
部品1
 48
50.0
100
AcDbLine
 10
5976.611073562808
 20
1103.764973743767
 30
0.0
 11
5976.611073562801
 21
1759.083010486574
 31
0.0
  0
LINE
  5
2154E
330
747D
100
AcDbEntity
  8
部品1
 48
50.0
100
AcDbLine
 10
6066.611073562801
 20
1253.764973743767
 30
0.0
 11
6226.611073562801
 21
1253.764973743767
 31
0.0
  0
LINE
  5
2154F
330
747D
100
AcDbEntity
  8
細線
 48
50.0
100
AcDbLine
 10
6113.192048170231
 20
1093.764973743767
 30
0.0
 11
6226.611073562801
 21
1207.183999136341
 31
0.0
  0
LINE
  5
21550
330
747D
100
AcDbEntity
  8
細線
 48
50.0
100
AcDbLine
 10
6146.868008624236
 20
1093.764973743767
 30
0.0
 11
6226.611073562801
 21
1173.508038682332
 31
0.0
  0
LINE
  5
21551
330
747D
100
AcDbEntity
  8
細線
 48
50.0
100
AcDbLine
 10
6079.516087716211
 20
1093.764973743767
 30
0.0
 11
6226.611073562801
 21
1240.85995959035
 31
0.0
  0
LEADER
  5
21552
330
747D
100
AcDbEntity
  8
寸法
 48
50.0
100
AcDbLeader
  3
INABA_S40G
 71
     0
 73
     0
 74
     0
 75
     1
 40
100.0
 41
225.0
 76
     3
 10
6106.489764002979
 20
1103.764973743767
 30
0.0
 10
6230.770648321157
 20
984.5186375650518
 30
0.0
 10
6330.770648321156
 20
984.5186375650518
 30
0.0
  0
DIMENSION
  5
21553
330
747D
100
AcDbEntity
  8
寸法
 48
50.0
100
AcDbDimension
  2
*D28
 10
6226.611073562801
 20
494.8128672878338
 30
0.0
 11
5946.611073562799
 21
494.8128672878338
 31
0.0
 70
   160
  1
300
 71
     5
 42
560.0000000000018
  3
INABA_S40G
100
AcDbAlignedDimension
 13
5666.611073562799
 23
793.7649737437668
 33
0.0
 14
6226.611073562801
 24
793.7649737437668
 34
0.0
100
AcDbRotatedDimension
  0
LEADER
  5
21554
330
747D
100
AcDbEntity
  8
寸法
 48
50.0
100
AcDbLeader
  3
INABA_S40G
 71
     0
 73
     0
 74
     0
 75
     1
 40
100.0
 41
540.3409090909091
 76
     3
 10
6039.042534829269
 20
1082.83931072686
 30
0.0
 10
6243.784143389365
 20
655.8007882332385
 30
0.0
 10
6343.784143389364
 20
655.8007882332385
 30
0.0
213
0.0
223
-1.277828345336728
233
0.0
  0
LINE
  5
21555
330
747D
100
AcDbEntity
  8
部品1
 48
50.0
100
AcDbLine
 10
6326.611073562805
 20
953.7649737437668
 30
0.0
 11
5566.611073562804
 21
953.7649737437668
 31
0.0
  0
LINE
  5
21556
330
747D
100
AcDbEntity
  8
部品1
 48
50.0
100
AcDbLine
 10
6326.611073562805
 20
793.7649737437668
 30
0.0
 11
5566.611073562804
 21
793.7649737437668
 31
0.0
  0
LINE
  5
21557
330
747D
100
AcDbEntity
  8
細線
 48
50.0
100
AcDbLine
 10
6120.309735300939
 20
793.7649737437659
 30
0.0
 11
6163.181606089916
 21
953.7649737437659
 31
0.0
  0
LINE
  5
21558
330
747D
100
AcDbEntity
  8
細線
 48
50.0
100
AcDbLine
 10
5923.08962293282
 20
793.7649737437668
 30
0.0
 11
5965.961493721797
 21
953.7649737437668
 31
0.0
  0
LINE
  5
21559
330
747D
100
AcDbEntity
  8
部品1
 48
50.0
100
AcDbLine
 10
5566.611073562804
 20
793.7649737437668
 30
0.0
 11
5566.611073562804
 21
953.7649737437668
 31
0.0
  0
LINE
  5
2155A
330
747D
100
AcDbEntity
  8
細線
 48
50.0
100
AcDbLine
 10
5627.259454380624
 20
793.7649737437659
 30
0.0
 11
5670.131325169602
 21
953.7649737437659
 31
0.0
  0
LINE
  5
2155B
330
747D
100
AcDbEntity
  8
細線
 48
50.0
100
AcDbLine
 10
5824.479566748754
 20
793.7649737437659
 30
0.0
 11
5867.351437537733
 21
953.7649737437659
 31
0.0
  0
LINE
  5
2155C
330
747D
100
AcDbEntity
  8
細線
 48
50.0
100
AcDbLine
 10
5725.869510564696
 20
793.7649737437668
 30
0.0
 11
5768.741381353675
 21
953.7649737437668
 31
0.0
  0
LINE
  5
2155D
330
747D
100
AcDbEntity
  8
細線
 48
50.0
100
AcDbLine
 10
6021.699679116877
 20
793.7649737437668
 30
0.0
 11
6064.571549905859
 21
953.7649737437659
 31
0.0
  0
LINE
  5
2155E
330
747D
100
AcDbEntity
  8
細線
 48
50.0
100
AcDbLine
 10
5733.90798633763
 20
823.7649737437669
 30
0.0
 11
5741.946462110564
 21
793.7649737437668
 31
0.0
  0
LINE
  5
2155F
330
747D
100
AcDbEntity
  8
細線
 48
50.0
100
AcDbLine
 10
5635.297930153566
 20
823.7649737437669
 30
0.0
 11
5643.336405926499
 21
793.7649737437668
 31
0.0
  0
LINE
  5
21560
330
747D
100
AcDbEntity
  8
細線
 48
50.0
100
AcDbLine
 10
5931.12809870576
 20
823.7649737437669
 30
0.0
 11
5939.166574478694
 21
793.7649737437668
 31
0.0
  0
LINE
  5
21561
330
747D
100
AcDbEntity
  8
細線
 48
50.0
100
AcDbLine
 10
5832.518042521694
 20
823.7649737437669
 30
0.0
 11
5840.556518294628
 21
793.7649737437668
 31
0.0
  0
LINE
  5
21562
330
747D
100
AcDbEntity
  8
細線
 48
50.0
100
AcDbLine
 10
6128.348211073875
 20
823.7649737437669
 30
0.0
 11
6136.386686846808
 21
793.7649737437668
 31
0.0
  0
LINE
  5
21563
330
747D
100
AcDbEntity
  8
細線
 48
50.0
100
AcDbLine
 10
6029.738154889817
 20
823.7649737437669
 30
0.0
 11
6037.776630662751
 21
793.7649737437668
 31
0.0
  0
LINE
  5
21564
330
747D
100
AcDbEntity
  8
部品1
 48
50.0
100
AcDbLine
 10
5666.611073562801
 20
1253.764973743767
 30
0.0
 11
5826.611073562801
 21
1253.764973743767
 31
0.0
  0
LINE
  5
21565
330
747D
100
AcDbEntity
  8
細線
 48
50.0
100
AcDbLine
 10
5670.108404084143
 20
953.7649737437668
 30
0.0
 11
5790.108404084143
 21
1073.764973743767
 31
0.0
  0
LINE
  5
21566
330
747D
100
AcDbEntity
  8
細線
 48
50.0
100
AcDbLine
 10
5703.784364538156
 20
953.7649737437668
 30
0.0
 11
5823.784364538156
 21
1073.764973743767
 31
0.0
  0
CIRCLE
  5
21567
330
747D
100
AcDbEntity
  8
部品1
 48
50.0
100
AcDbCircle
 10
5786.611073562801
 20
1103.764973743767
 30
0.0
 40
10.0
  0
LINE
  5
21568
330
747D
100
AcDbEntity
  8
細線
 48
50.0
100
AcDbLine
 10
5737.460324992162
 20
953.7649737437668
 30
0.0
 11
5857.460324992162
 21
1073.764973743767
 31
0.0
  0
LINE
  5
21569
330
747D
100
AcDbEntity
  8
部品1
 48
50.0
100
AcDbLine
 10
5736.611073562801
 20
1093.764973743767
 30
0.0
 11
6156.611073562801
 21
1093.764973743767
 31
0.0
  0
LINE
  5
2156A
330
747D
100
AcDbEntity
  8
部品1
 48
50.0
100
AcDbLine
 10
5736.611073562801
 20
1073.764973743767
 30
0.0
 11
6156.611073562801
 21
1073.764973743767
 31
0.0
  0
LINE
  5
2156B
330
747D
100
AcDbEntity
  8
部品1
 48
50.0
100
AcDbLine
 10
5666.611073562801
 20
953.7649737437668
 30
0.0
 11
5666.611073562801
 21
1253.764973743767
 31
0.0
  0
LINE
  5
2156C
330
747D
100
AcDbEntity
  8
細線
 48
50.0
100
AcDbLine
 10
5566.611073562801
 20
935.4398749509918
 30
0.0
 11
5571.521268985545
 21
953.7649737437668
 31
0.0
  0
LINE
  5
2156D
330
747D
100
AcDbEntity
  8
細線
 48
50.0
100
AcDbLine
 10
5662.092849396676
 20
923.7649737437678
 30
0.0
 11
5654.054373623743
 21
953.7649737437668
 31
0.0
  0
LINE
  5
2156E
330
747D
100
AcDbEntity
  8
細線
 48
50.0
100
AcDbLine
 10
5760.702905580742
 20
923.7649737437678
 30
0.0
 11
5752.664429807808
 21
953.7649737437668
 31
0.0
  0
LINE
  5
2156F
330
747D
100
AcDbEntity
  8
部品1
 48
50.0
100
AcDbLine
 10
5736.611073562801
 20
1093.764973743767
 30
0.0
 11
5736.611073562801
 21
1073.764973743767
 31
0.0
  0
LINE
  5
21570
330
747D
100
AcDbEntity
  8
細線
 48
50.0
100
AcDbLine
 10
5666.611073562794
 20
1152.323405946481
 30
0.0
 11
5768.052641360087
 21
1253.764973743767
 31
0.0
  0
LINE
  5
21571
330
747D
100
AcDbEntity
  8
細線
 48
50.0
100
AcDbLine
 10
5666.611073562794
 20
1219.6753268545
 30
0.0
 11
5700.700720452068
 21
1253.764973743767
 31
0.0
  0
LINE
  5
21572
330
747D
100
AcDbEntity
  8
細線
 48
50.0
100
AcDbLine
 10
5666.611073562794
 20
1185.999366400487
 30
0.0
 11
5734.376680906081
 21
1253.764973743767
 31
0.0
  0
LINE
  5
21573
330
747D
100
AcDbEntity
  8
部品1
 48
50.0
100
AcDbLine
 10
5936.611073562801
 20
1176.423992115171
 30
0.0
 11
5936.611073562801
 21
1103.764973743767
 31
0.0
  0
LINE
  5
21574
330
747D
100
AcDbEntity
  8
細線
 48
50.0
100
AcDbLine
 10
5843.784364538156
 20
1093.764973743767
 30
0.0
 11
5916.611073562801
 21
1166.591682768416
 31
0.0
  0
LINE
  5
21575
330
747D
100
AcDbEntity
  8
部品1
 48
50.0
100
AcDbLine
 10
5916.611073562801
 20
1176.423992115171
 30
0.0
 11
5916.611073562801
 21
1103.764973743767
 31
0.0
  0
LINE
  5
21576
330
747D
100
AcDbEntity
  8
細線
 48
50.0
100
AcDbLine
 10
5877.460324992162
 20
1093.764973743767
 30
0.0
 11
5916.611073562801
 21
1132.915722314406
 31
0.0
  0
LINE
  5
21577
330
747D
100
AcDbEntity
  8
細線
 48
50.0
100
AcDbLine
 10
5810.108404084143
 20
1093.764973743767
 30
0.0
 11
5956.6110735628
 21
1240.267643222425
 31
0.0
  0
LINE
  5
21578
330
747D
100
AcDbEntity
  8
細線
 48
50.0
100
AcDbLine
 10
5939.516087716218
 20
953.7649737437668
 30
0.0
 11
6059.516087716218
 21
1073.764973743767
 31
0.0
  0
LINE
  5
21579
330
747D
100
AcDbEntity
  8
細線
 48
50.0
100
AcDbLine
 10
5973.192048170231
 20
953.7649737437668
 30
0.0
 11
6093.192048170231
 21
1073.764973743767
 31
0.0
  0
CIRCLE
  5
2157A
330
747D
100
AcDbEntity
  8
部品1
 48
50.0
100
AcDbCircle
 10
5946.611073562801
 20
1103.764973743767
 30
0.0
 40
10.0
  0
LINE
  5
2157B
330
747D
100
AcDbEntity
  8
細線
 48
50.0
100
AcDbLine
 10
5859.312961764807
 20
923.7649737437678
 30
0.0
 11
5851.274485991873
 21
953.7649737437668
 31
0.0
  0
ARC
  5
2157C
330
747D
100
AcDbEntity
  8
部品1
 48
50.0
100
AcDbCircle
 10
5946.611073562801
 20
1103.764973743767
 30
0.0
 40
30.0
100
AcDbArc
 50
180.0
 51
199.4712206345081
  0
LINE
  5
2157D
330
747D
100
AcDbEntity
  8
細線
 48
50.0
100
AcDbLine
 10
5957.923017948871
 20
923.7649737437678
 30
0.0
 11
5949.884542175937
 21
953.7649737437668
 31
0.0
  0
ARC
  5
2157E
330
747D
100
AcDbEntity
  8
部品1
 48
50.0
100
AcDbCircle
 10
5946.611073562801
 20
1103.764973743767
 30
0.0
 40
30.0
100
AcDbArc
 50
340.5287793654919
 51
0.0
  0
LINE
  5
2157F
330
747D
100
AcDbEntity
  8
細線
 48
50.0
100
AcDbLine
 10
6056.533074132929
 20
923.7649737437678
 30
0.0
 11
6048.494598359996
 21
953.7649737437668
 31
0.0
  0
CIRCLE
  5
21580
330
747D
100
AcDbEntity
  8
部品1
 48
50.0
100
AcDbCircle
 10
6106.611073562801
 20
1103.764973743767
 30
0.0
 40
10.0
  0
LINE
  5
21581
330
747D
100
AcDbEntity
  8
細線
 48
50.0
100
AcDbLine
 10
6155.143130316987
 20
923.7649737437678
 30
0.0
 11
6147.104654544053
 21
953.7649737437668
 31
0.0
  0
LINE
  5
21582
330
747D
100
AcDbEntity
  8
部品1
 48
50.0
100
AcDbLine
 10
6156.611073562801
 20
1093.764973743767
 30
0.0
 11
6156.611073562801
 21
1073.764973743767
 31
0.0
  0
LINE
  5
21583
330
747D
100
AcDbEntity
  8
細線
 48
50.0
100
AcDbLine
 10
6006.868008624237
 20
953.7649737437668
 30
0.0
 11
6126.869118430658
 21
1073.766083550192
 31
0.0
  0
LINE
  5
21584
330
747D
100
AcDbEntity
  8
細線
 48
50.0
100
AcDbLine
 10
5976.611073562808
 20
1192.915722314406
 30
0.0
 11
6066.611073562794
 21
1282.915722314406
 31
0.0
  0
LINE
  5
21585
330
747D
100
AcDbEntity
  8
細線
 48
50.0
100
AcDbLine
 10
5976.611073562808
 20
1260.267643222429
 30
0.0
 11
6066.611073562794
 21
1350.267643222425
 31
0.0
  0
LINE
  5
21586
330
747D
100
AcDbEntity
  8
細線
 48
50.0
100
AcDbLine
 10
5976.611073562808
 20
1226.591682768419
 30
0.0
 11
6066.611073562794
 21
1316.591682768412
 31
0.0
  0
LINE
  5
21587
330
747D
100
AcDbEntity
  8
細線
 48
50.0
100
AcDbLine
 10
5936.611073562801
 20
1152.915722314406
 30
0.0
 11
5956.611073562807
 21
1172.915722314406
 31
0.0
  0
LINE
  5
21588
330
747D
100
AcDbEntity
  8
細線
 48
50.0
100
AcDbLine
 10
5926.443382909556
 20
1176.423992115171
 30
0.0
 11
5956.611073562807
 21
1206.591682768419
 31
0.0
  0
LINE
  5
21589
330
747D
100
AcDbEntity
  8
部品1
 48
50.0
100
AcDbLine
 10
5936.611073562801
 20
1176.423992115171
 30
0.0
 11
5916.611073562801
 21
1176.423992115171
 31
0.0
  0
LINE
  5
2158A
330
747D
100
AcDbEntity
  8
細線
 48
50.0
100
AcDbLine
 10
6218.919791484992
 20
793.7649737437668
 30
0.0
 11
6261.791662273974
 21
953.7649737437659
 31
0.0
  0
LINE
  5
2158B
330
747D
100
AcDbEntity
  8
部品1
 48
50.0
100
AcDbLine
 10
6326.611073562805
 20
953.7649737437668
 30
0.0
 11
6326.611073562805
 21
793.7649737437668
 31
0.0
  0
MTEXT
  5
2158C
102
{ACAD_REACTORS
330
21554
102
}
330
747D
100
AcDbEntity
  8
寸法
 62
     7
 48
50.0
100
AcDbMText
 10
6368.784143389365
 20
732.0786165785757
 30
0.0
 40
100.0
 41
1.0
 71
     4
 72
     1
  1
\A1;D10@300
  7
STYLE2
 73
     1
 44
1.0
1001
ACAD
1000
MTEXTBEGIN
1070
    73
1070
     1
1070
    44
1040
1.0
1070
    74
1070
     0
1000
MTEXTEND
  0
LINE
  5
2158D
330
747D
100
AcDbEntity
  8
細線
 48
50.0
100
AcDbLine
 10
6317.529847669055
 20
793.7649737437659
 30
0.0
 11
6326.611073562801
 21
827.6565701742528
 31
0.0
  0
LINE
  5
2158E
330
747D
100
AcDbEntity
  8
細線
 48
50.0
100
AcDbLine
 10
6325.568323441991
 20
823.7649737437669
 30
0.0
 11
6326.611073562801
 21
819.8733773133117
 31
0.0
  0
LINE
  5
2158F
330
747D
100
AcDbEntity
  8
細線
 48
50.0
100
AcDbLine
 10
6226.958267257932
 20
823.7649737437669
 30
0.0
 11
6234.996743030865
 21
793.7649737437668
 31
0.0
  0
LINE
  5
21590
330
747D
100
AcDbEntity
  8
部品1
 48
50.0
100
AcDbLine
 10
6226.611073562801
 20
1253.764973743767
 30
0.0
 11
6226.611073562801
 21
953.7649737437668
 31
0.0
  0
MTEXT
  5
21591
102
{ACAD_REACTORS
330
21552
102
}
330
747D
100
AcDbEntity
  8
寸法
 62
     7
 48
50.0
100
AcDbMText
 10
6355.770648321157
 20
1059.518637565051
 30
0.0
 40
100.0
 41
1.0
 71
     4
 72
     1
  1
D10
  7
STYLE2
 73
     1
 44
1.0
1001
ACAD
1000
MTEXTBEGIN
1070
    73
1070
     1
1070
    44
1040
1.0
1070
    74
1070
     0
1000
MTEXTEND
  0
LINE
  5
21592
330
747D
100
AcDbEntity
  8
細線
 48
50.0
100
AcDbLine
 10
6208.923771348293
 20
953.7649737437668
 30
0.0
 11
6226.611073562801
 21
971.4522759582759
 31
0.0
  0
LINE
  5
21593
330
747D
100
AcDbEntity
  8
細線
 48
50.0
100
AcDbLine
 10
6253.753186501047
 20
923.7649737437678
 30
0.0
 11
6245.714710728111
 21
953.7649737437668
 31
0.0
  0
MTEXT
  5
21594
102
{ACAD_REACTORS
330
21596
102
}
330
747D
100
AcDbEntity
  8
寸法
 62
     7
 48
50.0
100
AcDbMText
 10
6170.218494847044
 20
1760.349425367427
 30
0.0
 40
100.0
 41
1.0
 71
     4
 72
     1
  1
D13
  7
STYLE2
 73
     1
 44
1.0
1001
ACAD
1000
MTEXTBEGIN
1070
    73
1070
     1
1070
    44
1040
1.0
1070
    74
1070
     0
1000
MTEXTEND
  0
LWPOLYLINE
  5
21595
330
747D
100
AcDbEntity
  8
部品1
 48
50.0
100
AcDbPolyline
 90
        2
 70
     0
 43
10.0
 10
6066.611073562799
 20
1633.76497374377
 10
6584.285950853999
 20
1633.76497374377
  0
LEADER
  5
21596
330
747D
100
AcDbEntity
  8
寸法
 48
50.0
100
AcDbLeader
  3
INABA_S40G
 71
     0
 73
     0
 74
     0
 75
     1
 40
100.0
 41
222.7272727272727
 76
     3
 10
5946.611073562799
 20
1759.083010486574
 30
0.0
 10
6045.218494847044
 20
1685.349425367427
 30
0.0
 10
6145.218494847044
 20
1685.349425367427
 30
0.0
  0
LINE
  5
21597
330
747D
100
AcDbEntity
  8
部品1
 48
50.0
100
AcDbLine
 10
5936.611073562801
 20
1686.423992115171
 30
0.0
 11
5936.611073562801
 21
1759.083010486574
 31
0.0
  0
LINE
  5
21598
330
747D
100
AcDbEntity
  8
部品1
 48
50.0
100
AcDbLine
 10
5916.611073562801
 20
1686.423992115175
 30
0.0
 11
5916.611073562801
 21
1759.083010486574
 31
0.0
  0
LINE
  5
21599
330
747D
100
AcDbEntity
  8
細線
 48
50.0
100
AcDbLine
 10
5936.611073562801
 20
1691.731089578556
 30
0.0
 11
5956.6110735628
 21
1711.731089578556
 31
0.0
  0
LINE
  5
2159A
330
747D
100
AcDbEntity
  8
細線
 48
50.0
100
AcDbLine
 10
5826.611073562801
 20
1649.083010486574
 30
0.0
 11
5916.611073562801
 21
1739.083010486574
 31
0.0
  0
LINE
  5
2159B
330
747D
100
AcDbEntity
  8
細線
 48
50.0
100
AcDbLine
 10
5826.611073562801
 20
1615.407050032565
 30
0.0
 11
5916.611073562801
 21
1705.407050032565
 31
0.0
  0
LINE
  5
2159C
330
747D
100
AcDbEntity
  8
細線
 48
50.0
100
AcDbLine
 10
5976.611073562808
 20
1495.999366400494
 30
0.0
 11
6066.611073562794
 21
1585.999366400487
 31
0.0
  0
LINE
  5
2159D
330
747D
100
AcDbEntity
  8
細線
 48
50.0
100
AcDbLine
 10
5976.611073562801
 20
1529.675326854499
 30
0.0
 11
6066.611073562801
 21
1619.6753268545
 31
0.0
  0
LINE
  5
2159E
330
747D
100
AcDbEntity
  8
細線
 48
50.0
100
AcDbLine
 10
5976.611073562808
 20
1462.323405946481
 30
0.0
 11
6066.611073562794
 21
1552.323405946481
 31
0.0
  0
LINE
  5
2159F
330
747D
100
AcDbEntity
  8
部品1
 48
50.0
100
AcDbLine
 10
5936.611073562801
 20
1686.423992115171
 30
0.0
 11
5916.611073562801
 21
1686.423992115175
 31
0.0
  0
LINE
  5
215A0
330
747D
100
AcDbEntity
  8
細線
 48
50.0
100
AcDbLine
 10
5826.611073562801
 20
1581.731089578556
 30
0.0
 11
5931.30397609942
 21
1686.423992115171
 31
0.0
  0
LINE
  5
215A1
330
747D
100
AcDbEntity
  8
部品1
 48
50.0
100
AcDbLine
 10
5826.611073562801
 20
1933.764973743768
 30
0.0
 11
6066.611073562801
 21
1933.764973743768
 31
0.0
  0
LINE
  5
215A2
330
747D
100
AcDbEntity
  8
細線
 48
50.0
100
AcDbLine
 10
5962.226601690889
 20
1784.698538614662
 30
0.0
 11
6066.611073562801
 21
1889.083010486574
 31
0.0
  0
LINE
  5
215A3
330
747D
100
AcDbEntity
  8
細線
 48
50.0
100
AcDbLine
 10
5976.051957645284
 20
1764.847934115045
 30
0.0
 11
6066.611073562801
 21
1855.407050032565
 31
0.0
  0
LINE
  5
215A4
330
747D
100
AcDbEntity
  8
細線
 48
50.0
100
AcDbLine
 10
5976.611073562801
 20
1731.731089578555
 30
0.0
 11
6066.611073562801
 21
1821.731089578556
 31
0.0
  0
LINE
  5
215A5
330
747D
100
AcDbEntity
  8
細線
 48
50.0
100
AcDbLine
 10
5936.611073562801
 20
1725.407050032565
 30
0.0
 11
5956.6110735628
 21
1745.407050032565
 31
0.0
  0
CIRCLE
  5
215A6
330
747D
100
AcDbEntity
  8
部品1
 48
50.0
100
AcDbCircle
 10
5946.611073562801
 20
1759.083010486574
 30
0.0
 40
10.0
  0
ARC
  5
215A7
330
747D
100
AcDbEntity
  8
部品1
 48
50.0
100
AcDbCircle
 10
5946.611073562801
 20
1759.083010486574
 30
0.0
 40
30.0
100
AcDbArc
 50
0.0
 51
180.0
  0
LINE
  5
215A8
330
747D
100
AcDbEntity
  8
細線
 48
50.0
100
AcDbLine
 10
5826.611073562801
 20
1918.490694118649
 30
0.0
 11
5841.885353187919
 21
1933.764973743768
 31
0.0
  0
LINE
  5
215A9
330
747D
100
AcDbEntity
  8
細線
 48
50.0
100
AcDbLine
 10
5826.611073562801
 20
1851.13877321063
 30
0.0
 11
5909.237274095938
 21
1933.764973743768
 31
0.0
  0
LINE
  5
215AA
330
747D
100
AcDbEntity
  8
細線
 48
50.0
100
AcDbLine
 10
5826.611073562801
 20
1884.81473366464
 30
0.0
 11
5875.561313641933
 21
1933.764973743768
 31
0.0
  0
LEADER
  5
215AB
330
747D
100
AcDbEntity
  8
寸法
 48
50.0
100
AcDbLeader
  3
INABA_S40G
 71
     0
 73
     0
 74
     0
 75
     1
 40
100.0
 41
543.75
 76
     3
 10
8239.660215034293
 20
1995.214973743768
 30
0.0
 10
8340.340793058443
 20
2174.244131435306
 30
0.0
 10
8440.340793058442
 20
2174.244131435306
 30
0.0
  0
MTEXT
  5
215AC
102
{ACAD_REACTORS
330
215AB
102
}
330
747D
100
AcDbEntity
  8
部品1
 62
     7
 48
50.0
100
AcDbMText
 10
8480.340793058442
 20
2264.244131435306
 30
0.0
 40
100.0
 41
1.0
 71
     4
 72
     1
  1
M10X160
  7
STYLE2
 73
     1
 44
1.0
1001
ACAD
1000
MTEXTBEGIN
1070
    73
1070
     1
1070
    44
1040
1.0
1070
    74
1070
     0
1000
MTEXTEND
  0
DIMENSION
  5
215AD
330
747D
100
AcDbEntity
  8
寸法
 48
50.0
100
AcDbDimension
  2
*D29
 10
9096.495964745349
 20
1528.764973743766
 30
0.0
 11
8996.495964745347
 21
1731.264973743768
 31
0.0
 70
    32
  1
180
 71
     5
 42
405.0000000000022
  3
INABA_S40G
100
AcDbAlignedDimension
 13
8469.160215034293
 23
1933.764973743768
 33
0.0
 14
8469.160215034293
 24
1528.764973743766
 34
0.0
 50
90.0
100
AcDbRotatedDimension
  0
LWPOLYLINE
  5
215AE
330
747D
100
AcDbEntity
  8
部品1
 48
50.0
100
AcDbPolyline
 90
        2
 70
     0
 43
10.0
 10
8469.160215034293
 20
1633.76497374377
 10
8836.288294283525
 20
1633.76497374377
  0
LINE
  5
215AF
330
747D
100
AcDbEntity
  8
部品1
 48
50.0
100
AcDbLine
 10
8729.160215034296
 20
953.7649737437668
 30
0.0
 11
7691.660215034296
 21
953.7649737437668
 31
0.0
  0
LINE
  5
215B0
330
747D
100
AcDbEntity
  8
細線
 48
50.0
100
AcDbLine
 10
8647.837577281602
 20
823.764973743766
 30
0.0
 11
8655.876053054536
 21
793.7649737437659
 31
0.0
  0
LINE
  5
215B1
330
747D
100
AcDbEntity
  8
部品1
 48
50.0
100
AcDbLine
 10
8729.160215034296
 20
793.7649737437668
 30
0.0
 11
7691.660215034296
 21
793.7649737437668
 31
0.0
  0
LINE
  5
215B2
330
747D
100
AcDbEntity
  8
細線
 48
50.0
100
AcDbLine
 10
8639.799101508662
 20
793.7649737437659
 30
0.0
 11
8682.670972297643
 21
953.7649737437641
 31
0.0
  0
DIMENSION
  5
215B3
330
747D
100
AcDbEntity
  8
寸法
 48
50.0
100
AcDbDimension
  2
*D30
 10
9441.564297394132
 20
1933.764973743768
 30
0.0
 11
9441.564297394132
 21
1467.756070322284
 31
0.0
 70
   160
  1
20～25
 71
     5
 42
65.94999999999981
  3
INABA_S40G
100
AcDbAlignedDimension
 13
8235.160215034294
 23
1999.714973743768
 33
0.0
 14
8469.160215034293
 24
1933.764973743768
 34
0.0
 50
90.0
100
AcDbRotatedDimension
  0
TEXT
  5
215B4
330
747D
100
AcDbEntity
  8
部品1
 48
50.0
100
AcDbText
 10
8474.602195389829
 20
2378.613324696518
 30
0.0
 40
100.0
  1
基礎ボルト(市販品)
  7
STYLE2
100
AcDbText
  0
LINE
  5
215B5
330
747D
100
AcDbEntity
  8
細線
 48
50.0
100
AcDbLine
 10
7828.833506009647
 20
953.7649737437668
 30
0.0
 11
8469.160215034298
 21
1594.091682768411
 31
0.0
  0
LINE
  5
215B6
330
747D
100
AcDbEntity
  8
細線
 48
50.0
100
AcDbLine
 10
7862.509466463655
 20
953.7649737437668
 30
0.0
 11
8469.160215034293
 21
1560.415722314403
 31
0.0
  0
LINE
  5
215B7
330
747D
100
AcDbEntity
  8
細線
 48
50.0
100
AcDbLine
 10
7951.660215034293
 20
1379.6753268545
 30
0.0
 11
8149.660215034284
 21
1577.675326854493
 31
0.0
  0
LINE
  5
215B8
330
747D
100
AcDbEntity
  8
細線
 48
50.0
100
AcDbLine
 10
7951.660215034293
 20
1312.323405946481
 30
0.0
 11
8168.101782831588
 21
1528.764973743766
 31
0.0
  0
LINE
  5
215B9
330
747D
100
AcDbEntity
  8
細線
 48
50.0
100
AcDbLine
 10
7951.660215034293
 20
1345.99936640049
 30
0.0
 11
8149.660215034284
 21
1543.999366400476
 31
0.0
  0
LINE
  5
215BA
330
747D
100
AcDbEntity
  8
部品1
 48
50.0
100
AcDbLine
 10
7951.660215034293
 20
1253.764973743767
 30
0.0
 11
7951.660215034293
 21
1933.764973743768
 31
0.0
  0
LINE
  5
215BB
330
747D
100
AcDbEntity
  8
部品1
100
AcDbLine
 10
8469.160215034291
 20
1253.764973743767
 30
0.0
 11
8469.160215034293
 21
1933.764973743768
 31
0.0
  0
LINE
  5
215BC
330
747D
100
AcDbEntity
  8
細線
 48
50.0
100
AcDbLine
 10
7795.157545555636
 20
953.7649737437668
 30
0.0
 11
8469.160215034291
 21
1627.767643222424
 31
0.0
  0
LINE
  5
215BD
330
747D
100
AcDbEntity
  8
部品1
 48
50.0
100
AcDbLine
 10
7791.660215034294
 20
1253.764973743767
 30
0.0
 11
7951.660215034293
 21
1253.764973743767
 31
0.0
  0
LINE
  5
215BE
330
747D
100
AcDbEntity
  8
細線
 48
50.0
100
AcDbLine
 10
7791.660215034287
 20
1152.323405946481
 30
0.0
 11
7893.10178283158
 21
1253.764973743767
 31
0.0
  0
LINE
  5
215BF
330
747D
100
AcDbEntity
  8
細線
 48
50.0
100
AcDbLine
 10
7791.660215034287
 20
1185.999366400487
 30
0.0
 11
7859.425822377573
 21
1253.764973743767
 31
0.0
  0
LINE
  5
215C0
330
747D
100
AcDbEntity
  8
細線
 48
50.0
100
AcDbLine
 10
7752.308595852117
 20
793.7649737437659
 30
0.0
 11
7795.180466641095
 21
953.7649737437659
 31
0.0
  0
LINE
  5
215C1
330
747D
100
AcDbEntity
  8
部品1
 48
50.0
100
AcDbLine
 10
7691.660215034296
 20
793.7649737437668
 30
0.0
 11
7691.660215034296
 21
953.7649737437668
 31
0.0
  0
LINE
  5
215C2
330
747D
100
AcDbEntity
  8
細線
 48
50.0
100
AcDbLine
 10
7760.347071625059
 20
823.7649737437669
 30
0.0
 11
7768.385547397992
 21
793.7649737437668
 31
0.0
  0
LINE
  5
215C3
330
747D
100
AcDbEntity
  8
部品1
 48
50.0
100
AcDbLine
 10
7791.660215034294
 20
953.7649737437668
 30
0.0
 11
7791.660215034294
 21
1253.764973743767
 31
0.0
  0
LINE
  5
215C4
330
747D
100
AcDbEntity
  8
細線
 48
50.0
100
AcDbLine
 10
7787.141990868168
 20
923.7649737437678
 30
0.0
 11
7779.103515095235
 21
953.7649737437668
 31
0.0
  0
LINE
  5
215C5
330
747D
100
AcDbEntity
  8
細線
 48
50.0
100
AcDbLine
 10
7691.660215034294
 20
935.4398749509918
 30
0.0
 11
7696.570410457038
 21
953.7649737437668
 31
0.0
  0
LINE
  5
215C6
330
747D
100
AcDbEntity
  8
細線
 48
50.0
100
AcDbLine
 10
7791.660215034287
 20
1219.6753268545
 30
0.0
 11
7825.749861923561
 21
1253.764973743767
 31
0.0
  0
LINE
  5
215C7
330
747D
100
AcDbEntity
  8
細線
 48
50.0
100
AcDbLine
 10
7949.528708220245
 20
793.7649737437659
 30
0.0
 11
7992.400579009225
 21
953.7649737437659
 31
0.0
  0
LINE
  5
215C8
330
747D
100
AcDbEntity
  8
細線
 48
50.0
100
AcDbLine
 10
7850.918652036189
 20
793.7649737437668
 30
0.0
 11
7893.790522825168
 21
953.7649737437668
 31
0.0
  0
LINE
  5
215C9
330
747D
100
AcDbEntity
  8
細線
 48
50.0
100
AcDbLine
 10
8343.968932956483
 20
793.7649737437668
 30
0.0
 11
8386.840803745467
 21
953.7649737437659
 31
0.0
  0
LINE
  5
215CA
330
747D
100
AcDbEntity
  8
細線
 48
50.0
100
AcDbLine
 10
8146.748820588369
 20
793.7649737437668
 30
0.0
 11
8189.620691377351
 21
953.7649737437659
 31
0.0
  0
LINE
  5
215CB
330
747D
100
AcDbEntity
  8
細線
 48
50.0
100
AcDbLine
 10
8048.138764404312
 20
793.7649737437668
 30
0.0
 11
8091.01063519329
 21
953.7649737437668
 31
0.0
  0
LINE
  5
215CC
330
747D
100
AcDbEntity
  8
細線
 48
50.0
100
AcDbLine
 10
8245.358876772431
 20
793.7649737437659
 30
0.0
 11
8288.230747561412
 21
953.7649737437659
 31
0.0
  0
LINE
  5
215CD
330
747D
100
AcDbEntity
  8
細線
 48
50.0
100
AcDbLine
 10
8541.189045324607
 20
793.7649737437641
 30
0.0
 11
8584.060916113585
 21
953.7649737437641
 31
0.0
  0
LINE
  5
215CE
330
747D
100
AcDbEntity
  8
細線
 48
50.0
100
AcDbLine
 10
8442.578989140546
 20
793.7649737437659
 30
0.0
 11
8485.450859929512
 21
953.7649737437668
 31
0.0
  0
LINE
  5
215CF
330
747D
100
AcDbEntity
  8
細線
 48
50.0
100
AcDbLine
 10
7957.567183993187
 20
823.7649737437669
 30
0.0
 11
7965.605659766123
 21
793.7649737437668
 31
0.0
  0
LINE
  5
215D0
330
747D
100
AcDbEntity
  8
細線
 48
50.0
100
AcDbLine
 10
7858.957127809123
 20
823.7649737437669
 30
0.0
 11
7866.995603582056
 21
793.7649737437668
 31
0.0
  0
LINE
  5
215D1
330
747D
100
AcDbEntity
  8
細線
 48
50.0
100
AcDbLine
 10
8154.787296361311
 20
823.7649737437669
 30
0.0
 11
8162.825772134244
 21
793.7649737437668
 31
0.0
  0
LINE
  5
215D2
330
747D
100
AcDbEntity
  8
細線
 48
50.0
100
AcDbLine
 10
8056.177240177254
 20
823.7649737437669
 30
0.0
 11
8064.215715950187
 21
793.7649737437668
 31
0.0
  0
LINE
  5
215D3
330
747D
100
AcDbEntity
  8
細線
 48
50.0
100
AcDbLine
 10
8352.007408729425
 20
823.7649737437669
 30
0.0
 11
8360.045884502358
 21
793.7649737437668
 31
0.0
  0
LINE
  5
215D4
330
747D
100
AcDbEntity
  8
細線
 48
50.0
100
AcDbLine
 10
8253.397352545366
 20
823.7649737437669
 30
0.0
 11
8261.435828318301
 21
793.7649737437668
 31
0.0
  0
LINE
  5
215D5
330
747D
100
AcDbEntity
  8
細線
 48
50.0
100
AcDbLine
 10
8549.227521097543
 20
823.764973743766
 30
0.0
 11
8557.265996870476
 21
793.7649737437659
 31
0.0
  0
LINE
  5
215D6
330
747D
100
AcDbEntity
  8
細線
 48
50.0
100
AcDbLine
 10
8450.617464913483
 20
823.7649737437669
 30
0.0
 11
8458.655940686432
 21
793.7649737437668
 31
0.0
  0
LINE
  5
215D7
330
747D
100
AcDbEntity
  8
細線
 48
50.0
100
AcDbLine
 10
8131.917150095729
 20
953.7649737437668
 30
0.0
 11
8469.160215034293
 21
1291.008038682339
 31
0.0
  0
LINE
  5
215D8
330
747D
100
AcDbEntity
  8
細線
 48
50.0
100
AcDbLine
 10
8098.241189641722
 20
953.7649737437668
 30
0.0
 11
8469.160215034293
 21
1324.683999136333
 31
0.0
  0
LINE
  5
215D9
330
747D
100
AcDbEntity
  8
細線
 48
50.0
100
AcDbLine
 10
8064.565229187712
 20
953.7649737437668
 30
0.0
 11
8469.160215034291
 21
1358.35995959035
 31
0.0
  0
LINE
  5
215DA
330
747D
100
AcDbEntity
  8
細線
 48
50.0
100
AcDbLine
 10
7984.362103236299
 20
923.7649737437678
 30
0.0
 11
7976.323627463365
 21
953.7649737437668
 31
0.0
  0
LINE
  5
215DB
330
747D
100
AcDbEntity
  8
細線
 48
50.0
100
AcDbLine
 10
7885.752047052235
 20
923.7649737437678
 30
0.0
 11
7877.713571279301
 21
953.7649737437668
 31
0.0
  0
LINE
  5
215DC
330
747D
100
AcDbEntity
  8
細線
 48
50.0
100
AcDbLine
 10
8181.582215604422
 20
923.7649737437678
 30
0.0
 11
8173.543739831488
 21
953.7649737437668
 31
0.0
  0
LINE
  5
215DD
330
747D
100
AcDbEntity
  8
細線
 48
50.0
100
AcDbLine
 10
8082.972159420362
 20
923.7649737437678
 30
0.0
 11
8074.933683647433
 21
953.7649737437668
 31
0.0
  0
LINE
  5
215DE
330
747D
100
AcDbEntity
  8
部品1
 48
50.0
100
AcDbLine
 10
8629.160215034294
 20
1253.764973743767
 30
0.0
 11
8629.160215034294
 21
953.7649737437668
 31
0.0
  0
LINE
  5
215DF
330
747D
100
AcDbEntity
  8
細線
 48
50.0
100
AcDbLine
 10
8401.324833727803
 20
953.7649737437668
 30
0.0
 11
8629.160215034294
 21
1181.600355050263
 31
0.0
  0
LINE
  5
215E0
330
747D
100
AcDbEntity
  8
細線
 48
50.0
100
AcDbLine
 10
8367.648873273799
 20
953.7649737437668
 30
0.0
 11
8629.160215034294
 21
1215.27631550426
 31
0.0
  0
LINE
  5
215E1
330
747D
100
AcDbEntity
  8
細線
 48
50.0
100
AcDbLine
 10
8333.972912819785
 20
953.7649737437668
 30
0.0
 11
8629.160215034294
 21
1248.952275958277
 31
0.0
  0
LINE
  5
215E2
330
747D
100
AcDbEntity
  8
細線
 48
50.0
100
AcDbLine
 10
8378.802327972536
 20
923.7649737437678
 30
0.0
 11
8370.763852199603
 21
953.7649737437668
 31
0.0
  0
LINE
  5
215E3
330
747D
100
AcDbEntity
  8
細線
 48
50.0
100
AcDbLine
 10
8280.192271788479
 20
923.7649737437678
 30
0.0
 11
8272.153796015548
 21
953.7649737437668
 31
0.0
  0
LINE
  5
215E4
330
747D
100
AcDbEntity
  8
細線
 48
50.0
100
AcDbLine
 10
8576.022440340654
 20
923.764973743766
 30
0.0
 11
8567.983964567721
 21
953.7649737437659
 31
0.0
  0
LINE
  5
215E5
330
747D
100
AcDbEntity
  8
細線
 48
50.0
100
AcDbLine
 10
8477.412384156581
 20
923.7649737437678
 30
0.0
 11
8469.37390838365
 21
953.7649737437668
 31
0.0
  0
LINE
  5
215E6
330
747D
100
AcDbEntity
  8
部品1
 48
50.0
100
AcDbLine
 10
8469.160215034293
 20
1253.764973743767
 30
0.0
 11
8629.160215034294
 21
1253.764973743767
 31
0.0
  0
LWPOLYLINE
  5
215E7
330
747D
100
AcDbEntity
  8
部品1
 48
50.0
100
AcDbPolyline
 90
        2
 70
     0
 43
10.0
 10
7433.985337743099
 20
1633.76497374377
 10
7951.660215034293
 20
1633.76497374377
  0
TEXT
  5
215E8
330
747D
100
AcDbEntity
  8
部品1
 48
50.0
100
AcDbText
 10
7433.985337743097
 20
1647.813714097837
 30
0.0
 40
100.0
  1
▽G.L
  7
STYLE2
100
AcDbText
  0
LINE
  5
215E9
330
747D
100
AcDbEntity
  8
部品1
100
AcDbLine
 10
8217.160215034294
 20
1652.514973743768
 30
0.0
 11
8217.160215034288
 21
1995.214973743768
 31
0.0
  0
LINE
  5
215EA
330
747D
100
AcDbEntity
  8
部品1
100
AcDbLine
 10
8239.660215034293
 20
1652.514973743768
 30
0.0
 11
8239.660215034289
 21
1995.214973743768
 31
0.0
  0
LINE
  5
215EB
330
747D
100
AcDbEntity
  8
部品1
100
AcDbLine
 10
8154.485215034297
 20
2017.339973743769
 30
0.0
 11
8154.48521503429
 21
1949.089973743768
 31
0.0
  0
LINE
  5
215EC
330
747D
100
AcDbEntity
  8
部品1
100
AcDbLine
 10
8139.535215034293
 20
2002.389973743769
 30
0.0
 11
8139.535215034293
 21
1949.089973743768
 31
0.0
  0
LINE
  5
215ED
330
747D
100
AcDbEntity
  8
細線
100
AcDbLine
 10
8221.660215034296
 20
1945.714973743768
 30
0.0
 11
8221.660215034294
 21
1999.714973743768
 31
0.0
  0
LINE
  5
215EE
330
747D
100
AcDbEntity
  8
細線
100
AcDbLine
 10
8235.160215034294
 20
1945.714973743768
 30
0.0
 11
8235.160215034294
 21
1999.714973743768
 31
0.0
  0
LINE
  5
215EF
330
747D
100
AcDbEntity
  8
部品1
100
AcDbLine
 10
7959.535215034293
 20
1949.089973743768
 30
0.0
 11
7959.535215034293
 21
2026.754853372153
 31
0.0
  0
LINE
  5
215F0
330
747D
100
AcDbEntity
  8
部品1
100
AcDbLine
 10
8239.660215034293
 20
1652.514973743768
 30
0.0
 11
8284.660215034293
 21
1652.514973743768
 31
0.0
  0
LINE
  5
215F1
330
747D
100
AcDbEntity
  8
部品1
100
AcDbLine
 10
8239.660215034293
 20
1630.014973743767
 30
0.0
 11
8284.660215034293
 21
1630.014973743767
 31
0.0
  0
LINE
  5
215F2
330
747D
100
AcDbEntity
  8
部品1
100
AcDbLine
 10
8157.860215034288
 20
1945.714973743768
 30
0.0
 11
8409.535215034287
 21
1945.714973743768
 31
0.0
  0
LINE
  5
215F3
330
747D
100
AcDbEntity
  8
部品1
 48
50.0
100
AcDbLine
 10
7951.660215034293
 20
1933.764973743768
 30
0.0
 11
8469.160215034298
 21
1933.764973743768
 31
0.0
  0
LINE
  5
215F4
330
747D
100
AcDbEntity
  8
部品1
100
AcDbLine
 10
8307.160215034294
 20
1528.764973743766
 30
0.0
 11
8149.660215034286
 21
1528.764973743766
 31
0.0
  0
LINE
  5
215F5
330
747D
100
AcDbEntity
  8
細線
 48
50.0
100
AcDbLine
 10
7951.660215034293
 20
1615.407050032565
 30
0.0
 11
8149.660215034293
 21
1813.407050032562
 31
0.0
  0
LINE
  5
215F6
330
747D
100
AcDbEntity
  8
細線
 48
50.0
100
AcDbLine
 10
7951.660215034293
 20
1649.083010486574
 30
0.0
 11
8149.660215034293
 21
1847.083010486571
 31
0.0
  0
LINE
  5
215F7
330
747D
100
AcDbEntity
  8
部品1
100
AcDbLine
 10
8149.660215034286
 20
1528.764973743767
 30
0.0
 11
8149.660215034293
 21
1933.764973743768
 31
0.0
  0
LINE
  5
215F8
330
747D
100
AcDbEntity
  8
細線
 48
50.0
100
AcDbLine
 10
7951.660215034293
 20
1581.731089578556
 30
0.0
 11
8149.660215034289
 21
1779.731089578546
 31
0.0
  0
ARC
  5
215F9
330
747D
100
AcDbEntity
  8
部品1
100
AcDbCircle
 10
8239.660215034293
 20
1652.514973743768
 30
0.0
 40
22.5
100
AcDbArc
 50
180.0
 51
270.0
  0
LINE
  5
215FA
330
747D
100
AcDbEntity
  8
細線
 48
50.0
100
AcDbLine
 10
7951.660215034293
 20
1851.13877321063
 30
0.0
 11
8034.28641556743
 21
1933.764973743768
 31
0.0
  0
LINE
  5
215FB
330
747D
100
AcDbEntity
  8
細線
 48
50.0
100
AcDbLine
 10
7951.660215034293
 20
1884.81473366464
 30
0.0
 11
8000.610455113426
 21
1933.764973743768
 31
0.0
  0
LINE
  5
215FC
330
747D
100
AcDbEntity
  8
部品1
100
AcDbLine
 10
7962.910215034293
 20
1945.714973743768
 30
0.0
 11
7977.535215034286
 21
1945.714973743768
 31
0.0
  0
LINE
  5
215FD
330
747D
100
AcDbEntity
  8
細線
 48
50.0
100
AcDbLine
 10
7951.660215034293
 20
1918.490694118649
 30
0.0
 11
7966.934494659412
 21
1933.764973743768
 31
0.0
  0
ARC
  5
215FE
330
747D
100
AcDbEntity
  8
部品1
100
AcDbCircle
 10
7962.910215034293
 20
1949.089973743768
 30
0.0
 40
3.375
100
AcDbArc
 50
180.0
 51
270.0
  0
ARC
  5
215FF
330
747D
100
AcDbEntity
  8
部品1
100
AcDbCircle
 10
8136.160215034292
 20
1949.089973743768
 30
0.0
 40
3.375
100
AcDbArc
 50
270.0
 51
0.0
  0
ARC
  5
21600
330
747D
100
AcDbEntity
  8
部品1
100
AcDbCircle
 10
8157.860215034288
 20
1949.089973743768
 30
0.0
 40
3.375
100
AcDbArc
 50
180.0
 51
270.0
  0
LINE
  5
21601
330
747D
100
AcDbEntity
  8
部品1
100
AcDbLine
 10
8121.535215034294
 20
1945.714973743768
 30
0.0
 11
8136.160215034292
 21
1945.714973743768
 31
0.0
  0
LINE
  5
21602
330
747D
100
AcDbEntity
  8
細線
 48
50.0
100
AcDbLine
 10
8307.160215034295
 20
1667.823405946465
 30
0.0
 11
8469.160215034293
 21
1829.823405946455
 31
0.0
  0
LINE
  5
21603
330
747D
100
AcDbEntity
  8
部品1
100
AcDbLine
 10
8307.160215034294
 20
1528.764973743767
 30
0.0
 11
8307.160215034294
 21
1933.764973743768
 31
0.0
  0
LINE
  5
21604
330
747D
100
AcDbEntity
  8
部品1
100
AcDbLine
 10
8284.660215034293
 20
1630.014973743767
 30
0.0
 11
8284.660215034293
 21
1652.514973743768
 31
0.0
  0
LINE
  5
21605
330
747D
100
AcDbEntity
  8
細線
 48
50.0
100
AcDbLine
 10
8307.160215034295
 20
1701.499366400482
 30
0.0
 11
8469.160215034293
 21
1863.499366400478
 31
0.0
  0
LINE
  5
21606
330
747D
100
AcDbEntity
  8
細線
 48
50.0
100
AcDbLine
 10
8307.160215034295
 20
1735.175326854503
 30
0.0
 11
8469.160215034293
 21
1897.175326854502
 31
0.0
  0
LINE
  5
21607
330
747D
100
AcDbEntity
  8
部品1
 48
50.0
100
AcDbLine
 10
8208.410215034293
 20
2412.359075130196
 30
0.0
 11
8248.410215034294
 21
2412.359075130196
 31
0.0
  0
LINE
  5
21608
330
747D
100
AcDbEntity
  8
部品1
 48
50.0
100
AcDbLine
 10
8208.410215034293
 20
2372.359075130196
 30
0.0
 11
8248.410215034294
 21
2372.359075130196
 31
0.0
  0
ELLIPSE
  5
21609
330
747D
100
AcDbEntity
  8
細線
 48
50.0
100
AcDbEllipse
 10
8228.410215034292
 20
2422.359075130197
 30
0.0
 11
18.45838483258558
 21
0.0
 31
0.0
210
0.0
220
0.0
230
1.0
 40
0.2071254069489396
 41
0.0
 42
6.283185307179585
  0
LINE
  5
2160A
330
747D
100
AcDbEntity
  8
部品1
 48
50.0
100
AcDbLine
 10
8208.410215034293
 20
2432.359075130196
 30
0.0
 11
8248.410215034294
 21
2432.359075130196
 31
0.0
  0
ELLIPSE
  5
2160B
330
747D
100
AcDbEntity
  8
部品1
 48
50.0
100
AcDbEllipse
 10
8228.410215034292
 20
2258.169084299108
 30
0.0
 11
50.0
 21
0.0
 31
0.0
210
0.0
220
0.0
230
1.0
 40
0.4
 41
3.141592653589792
 42
6.283185307179585
  0
ELLIPSE
  5
2160C
330
747D
100
AcDbEntity
  8
部品1
 48
50.0
100
AcDbEllipse
 10
8228.410215034292
 20
2270.169084299108
 30
0.0
 11
50.0
 21
0.0
 31
0.0
210
0.0
220
0.0
230
1.0
 40
0.4
 41
0.0
 42
6.283185307179585
  0
ELLIPSE
  5
2160D
330
747D
100
AcDbEntity
  8
部品1
 48
50.0
100
AcDbEllipse
 10
8228.410215034292
 20
2270.169084299108
 30
0.0
 11
23.0
 21
0.0
 31
0.0
210
0.0
220
0.0
230
1.0
 40
0.3478260869565217
 41
0.0
 42
6.283185307179585
  0
LINE
  5
2160E
330
747D
100
AcDbEntity
  8
部品1
100
AcDbLine
 10
8030.410215034292
 20
2073.264973743767
 30
0.0
 11
8083.285215034292
 21
2073.264973743764
 31
0.0
  0
LINE
  5
2160F
330
747D
100
AcDbEntity
  8
部品1
100
AcDbLine
 10
7976.410215034293
 20
2046.264973743769
 30
0.0
 11
8023.660215034293
 21
2046.264973743769
 31
0.0
  0
LINE
  5
21610
330
747D
100
AcDbEntity
  8
部品1
100
AcDbLine
 10
7962.091657299794
 20
2030.029084310143
 30
0.0
 11
7973.035215034293
 21
2032.764973743768
 31
0.0
  0
ARC
  5
21611
330
747D
100
AcDbEntity
  8
部品1
100
AcDbCircle
 10
7962.910215034293
 20
2026.754853372153
 30
0.0
 40
3.375
100
AcDbArc
 50
104.0362434679612
 51
180.0
  0
ARC
  5
21612
330
747D
100
AcDbEntity
  8
部品1
100
AcDbCircle
 10
7976.410215034293
 20
2042.889973743768
 30
0.0
 40
3.375
100
AcDbArc
 50
90.0
 51
180.0
  0
LINE
  5
21613
330
747D
100
AcDbEntity
  8
部品1
100
AcDbLine
 10
7973.035215034293
 20
2032.764973743768
 30
0.0
 11
7973.035215034293
 21
2042.889973743768
 31
0.0
  0
ARC
  5
21614
330
747D
100
AcDbEntity
  8
部品1
100
AcDbCircle
 10
8027.035215034294
 20
2056.389973743768
 30
0.0
 40
3.375
100
AcDbArc
 50
90.0
 51
180.0
  0
LINE
  5
21615
330
747D
100
AcDbEntity
  8
部品1
100
AcDbLine
 10
8023.660215034293
 20
2046.264973743769
 30
0.0
 11
8023.660215034293
 21
2056.389973743768
 31
0.0
  0
LINE
  5
21616
330
747D
100
AcDbEntity
  8
部品1
100
AcDbLine
 10
8027.035215034294
 20
2059.764973743768
 30
0.0
 11
8027.035215034294
 21
2069.889973743768
 31
0.0
  0
LINE
  5
21617
330
747D
100
AcDbEntity
  8
部品1
100
AcDbLine
 10
8027.035215034294
 20
2059.764973743768
 30
0.0
 11
8027.035215034294
 21
2059.764973743768
 31
0.0
  0
ARC
  5
21618
330
747D
100
AcDbEntity
  8
部品1
100
AcDbCircle
 10
8030.410215034292
 20
2069.889973743768
 30
0.0
 40
3.375
100
AcDbArc
 50
90.0
 51
180.0
  0
LINE
  5
21619
330
747D
100
AcDbEntity
  8
部品1
100
AcDbLine
 10
8112.535215034293
 20
2017.339973743769
 30
0.0
 11
8112.535215034293
 21
1995.964973743768
 31
0.0
  0
ARC
  5
2161A
330
747D
100
AcDbEntity
  8
部品1
100
AcDbCircle
 10
8136.160215034292
 20
2002.389973743769
 30
0.0
 40
3.375
100
AcDbArc
 50
0.0
 51
90.0
  0
LINE
  5
2161B
330
747D
100
AcDbEntity
  8
部品1
100
AcDbLine
 10
8221.660215034294
 20
1999.714973743768
 30
0.0
 11
8235.160215034294
 21
1999.714973743768
 31
0.0
  0
LINE
  5
2161C
330
747D
100
AcDbEntity
  8
部品1
100
AcDbLine
 10
8217.160215034294
 20
1995.214973743768
 30
0.0
 11
8239.660215034293
 21
1995.214973743768
 31
0.0
  0
ARC
  5
2161D
330
747D
100
AcDbEntity
  8
部品1
100
AcDbCircle
 10
8151.110215034297
 20
2017.339973743769
 30
0.0
 40
3.375
100
AcDbArc
 50
0.0
 51
90.0
  0
ARC
  5
2161E
330
747D
100
AcDbEntity
  8
部品1
100
AcDbCircle
 10
8115.910215034293
 20
2017.339973743769
 30
0.0
 40
3.375
100
AcDbArc
 50
90.0
 51
180.0
  0
LINE
  5
2161F
330
747D
100
AcDbEntity
  8
部品1
100
AcDbLine
 10
8115.910215034293
 20
2020.714973743768
 30
0.0
 11
8151.110215034297
 21
2020.714973743768
 31
0.0
  0
LINE
  5
21620
330
747D
100
AcDbEntity
  8
部品1
 48
50.0
100
AcDbLine
 10
8178.410215034293
 20
2270.169084299108
 30
0.0
 11
8178.410215034293
 21
2258.169084299108
 31
0.0
  0
LINE
  5
21621
330
747D
100
AcDbEntity
  8
部品1
100
AcDbLine
 10
8086.660215034292
 20
2069.889973743764
 30
0.0
 11
8086.660215034292
 21
2005.764973743768
 31
0.0
  0
ARC
  5
21622
330
747D
100
AcDbEntity
  8
部品1
100
AcDbCircle
 10
8083.285215034292
 20
2069.889973743764
 30
0.0
 40
3.375
100
AcDbArc
 50
0.0
 51
90.0
  0
LINE
  5
21623
330
747D
100
AcDbEntity
  8
部品1
100
AcDbLine
 10
8086.660215034292
 20
2005.764973743768
 30
0.0
 11
8136.160215034292
 21
2005.764973743768
 31
0.0
  0
LINE
  5
21624
330
747D
100
AcDbEntity
  8
部品1
 48
50.0
100
AcDbLine
 10
8188.410215034293
 20
2422.359075130198
 30
0.0
 11
8208.410215034293
 21
2432.359075130196
 31
0.0
  0
LINE
  5
21625
330
747D
100
AcDbEntity
  8
部品1
 48
50.0
100
AcDbLine
 10
8188.410215034293
 20
2382.359075130196
 30
0.0
 11
8208.410215034293
 21
2372.359075130196
 31
0.0
  0
LINE
  5
21626
330
747D
100
AcDbEntity
  8
部品1
 48
50.0
100
AcDbLine
 10
8188.410215034293
 20
2422.359075130198
 30
0.0
 11
8208.410215034293
 21
2412.359075130196
 31
0.0
  0
LINE
  5
21627
330
747D
100
AcDbEntity
  8
部品1
 48
50.0
100
AcDbLine
 10
8188.410215034293
 20
2382.359075130196
 30
0.0
 11
8188.410215034293
 21
2422.359075130198
 31
0.0
  0
LINE
  5
21628
330
747D
100
AcDbEntity
  8
細線
 48
50.0
100
AcDbLine
 10
8208.410215034293
 20
2372.359075130196
 30
0.0
 11
8208.410215034293
 21
2412.359075130196
 31
0.0
  0
LINE
  5
21629
330
747D
100
AcDbEntity
  8
部品1
 48
50.0
100
AcDbLine
 10
8278.410215034293
 20
2258.169084299108
 30
0.0
 11
8278.410215034293
 21
2270.169084299108
 31
0.0
  0
LINE
  5
2162A
330
747D
100
AcDbEntity
  8
部品1
 48
50.0
100
AcDbLine
 10
8248.410215034294
 20
2432.359075130196
 30
0.0
 11
8268.410215034293
 21
2422.359075130198
 31
0.0
  0
LINE
  5
2162B
330
747D
100
AcDbEntity
  8
部品1
 48
50.0
100
AcDbLine
 10
8268.410215034293
 20
2382.359075130196
 30
0.0
 11
8268.410215034293
 21
2422.359075130198
 31
0.0
  0
LINE
  5
2162C
330
747D
100
AcDbEntity
  8
細線
 48
50.0
100
AcDbLine
 10
8248.410215034294
 20
2372.359075130196
 30
0.0
 11
8248.410215034294
 21
2412.359075130196
 31
0.0
  0
LINE
  5
2162D
330
747D
100
AcDbEntity
  8
部品1
 48
50.0
100
AcDbLine
 10
8248.410215034294
 20
2412.359075130196
 30
0.0
 11
8268.410215034293
 21
2422.359075130198
 31
0.0
  0
LINE
  5
2162E
330
747D
100
AcDbEntity
  8
部品1
 48
50.0
100
AcDbLine
 10
8248.410215034294
 20
2372.359075130196
 30
0.0
 11
8268.410215034293
 21
2382.359075130196
 31
0.0
  0
LINE
  5
2162F
330
747D
100
AcDbEntity
  8
細線
 48
50.0
100
AcDbLine
 10
10234.14264347586
 20
1359.141329177077
 30
0.0
 11
10277.01451426484
 21
1519.141329177078
 31
0.0
  0
TEXT
  5
21630
330
747D
100
AcDbEntity
  8
部品1
 48
50.0
100
AcDbText
 10
9638.432521964611
 20
1300.265297947131
 30
0.0
 40
100.0
  1
ボルトの出
 50
90.0
  7
STYLE2
100
AcDbText
  0
LINE
  5
21631
330
747D
100
AcDbEntity
  8
部品1
100
AcDbLine
 10
10113.77415028991
 20
1359.141329177076
 30
0.0
 11
10113.77415028991
 21
1633.764973743768
 31
0.0
  0
LINE
  5
21632
330
747D
100
AcDbEntity
  8
細線
 48
50.0
100
AcDbLine
 10
10135.5325872918
 20
1359.14132917708
 30
0.0
 11
10178.40445808078
 21
1519.14132917708
 31
0.0
  0
LINE
  5
21633
330
747D
100
AcDbEntity
  8
部品1
 48
50.0
100
AcDbLine
 10
8729.160215034296
 20
953.7649737437668
 30
0.0
 11
8729.160215034296
 21
793.7649737437668
 31
0.0
  0
LINE
  5
21634
330
747D
100
AcDbEntity
  8
細線
 48
50.0
100
AcDbLine
 10
8674.632496524713
 20
923.764973743766
 30
0.0
 11
8666.594020751782
 21
953.7649737437659
 31
0.0
  0
LINE
  5
21635
330
747D
100
AcDbEntity
  8
細線
 48
50.0
100
AcDbLine
 10
10242.1811192488
 20
1389.14132917708
 30
0.0
 11
10250.21959502173
 21
1359.14132917708
 31
0.0
  0
LINE
  5
21636
330
747D
100
AcDbEntity
  8
細線
 48
50.0
100
AcDbLine
 10
10143.57106306474
 20
1389.14132917708
 30
0.0
 11
10151.60953883767
 21
1359.14132917708
 31
0.0
  0
LINE
  5
21637
330
747D
100
AcDbEntity
  8
部品1
100
AcDbLine
 10
10263.77415028991
 20
1633.764973743768
 30
0.0
 11
10263.77415028991
 21
1933.764973743768
 31
0.0
  0
LINE
  5
21638
330
747D
100
AcDbEntity
  8
細線
 48
50.0
100
AcDbLine
 10
10170.36598230785
 20
1489.14132917708
 30
0.0
 11
10162.32750653491
 21
1519.14132917708
 31
0.0
  0
LINE
  5
21639
330
747D
100
AcDbEntity
  8
細線
 48
50.0
100
AcDbLine
 10
10268.97603849191
 20
1489.14132917708
 30
0.0
 11
10260.93756271898
 21
1519.14132917708
 31
0.0
  0
TEXT
  5
2163A
330
747D
100
AcDbEntity
  8
部品1
100
AcDbText
 10
7713.739490527665
 20
3360.539583525538
 30
0.0
 40
150.0
  1
基礎詳細
  7
STYLE2
100
AcDbText
  0
LINE
  5
2163B
330
747D
100
AcDbEntity
  8
部品1
100
AcDbLine
 10
11604.28507810905
 20
325.9099957167346
 30
0.0
 11
11604.28507810905
 21
3584.979498464825
 31
0.0
  0
LINE
  5
2163C
330
747D
100
AcDbEntity
  8
部品1
100
AcDbLine
 10
11013.77415028991
 20
1633.764973743768
 30
0.0
 11
11013.77415028991
 21
1359.14132917708
 31
0.0
  0
LINE
  5
2163D
330
747D
100
AcDbEntity
  8
細線
 48
50.0
100
AcDbLine
 10
10825.80298058022
 20
1359.141329177076
 30
0.0
 11
10868.67485136919
 21
1519.141329177076
 31
0.0
  0
LINE
  5
2163E
330
747D
100
AcDbEntity
  8
細線
 48
50.0
100
AcDbLine
 10
10924.41303676427
 20
1359.141329177077
 30
0.0
 11
10967.28490755326
 21
1519.141329177076
 31
0.0
  0
LINE
  5
2163F
330
747D
100
AcDbEntity
  8
細線
 48
50.0
100
AcDbLine
 10
10628.5828682121
 20
1359.14132917708
 30
0.0
 11
10671.45473900108
 21
1519.141329177078
 31
0.0
  0
LINE
  5
21640
330
747D
100
AcDbEntity
  8
細線
 48
50.0
100
AcDbLine
 10
10727.19292439616
 20
1359.141329177077
 30
0.0
 11
10770.06479518513
 21
1519.14132917708
 31
0.0
  0
LINE
  5
21641
330
747D
100
AcDbEntity
  8
細線
 48
50.0
100
AcDbLine
 10
10431.36275584398
 20
1359.14132917708
 30
0.0
 11
10474.23462663296
 21
1519.141329177078
 31
0.0
  0
LINE
  5
21642
330
747D
100
AcDbEntity
  8
細線
 48
50.0
100
AcDbLine
 10
10332.75269965993
 20
1359.14132917708
 30
0.0
 11
10375.6245704489
 21
1519.14132917708
 31
0.0
  0
LINE
  5
21643
330
747D
100
AcDbEntity
  8
細線
 48
50.0
100
AcDbLine
 10
10529.97281202804
 20
1359.141329177077
 30
0.0
 11
10572.84468281702
 21
1519.141329177078
 31
0.0
  0
LINE
  5
21644
330
747D
100
AcDbEntity
  8
細線
 48
50.0
100
AcDbLine
 10
10439.40123161692
 20
1389.14132917708
 30
0.0
 11
10447.43970738986
 21
1359.14132917708
 31
0.0
  0
LINE
  5
21645
330
747D
100
AcDbEntity
  8
細線
 48
50.0
100
AcDbLine
 10
10340.79117543287
 20
1389.14132917708
 30
0.0
 11
10348.8296512058
 21
1359.14132917708
 31
0.0
  0
LINE
  5
21646
330
747D
100
AcDbEntity
  8
細線
 48
50.0
100
AcDbLine
 10
10636.62134398504
 20
1389.14132917708
 30
0.0
 11
10644.65981975797
 21
1359.14132917708
 31
0.0
  0
LINE
  5
21647
330
747D
100
AcDbEntity
  8
細線
 48
50.0
100
AcDbLine
 10
10538.01128780098
 20
1389.14132917708
 30
0.0
 11
10546.04976357391
 21
1359.14132917708
 31
0.0
  0
LINE
  5
21648
330
747D
100
AcDbEntity
  8
細線
 48
50.0
100
AcDbLine
 10
10833.84145635316
 20
1389.141329177078
 30
0.0
 11
10841.87993212609
 21
1359.141329177077
 31
0.0
  0
LINE
  5
21649
330
747D
100
AcDbEntity
  8
細線
 48
50.0
100
AcDbLine
 10
10735.2314001691
 20
1389.14132917708
 30
0.0
 11
10743.26987594204
 21
1359.14132917708
 31
0.0
  0
LINE
  5
2164A
330
747D
100
AcDbEntity
  8
細線
 48
50.0
100
AcDbLine
 10
10932.45151253722
 20
1389.141329177078
 30
0.0
 11
10940.48998831015
 21
1359.141329177077
 31
0.0
  0
MTEXT
  5
2164B
102
{ACAD_REACTORS
330
2164C
102
}
330
747D
100
AcDbEntity
  8
寸法
 62
     7
 48
50.0
100
AcDbMText
 10
11006.10242310187
 20
2255.19787459519
 30
0.0
 40
150.0
 41
1.0
 71
     4
 72
     1
  1
\A1;C.B
  7
STYLE1
 73
     1
 44
1.0
1001
ACAD
1000
MTEXTBEGIN
1070
    73
1070
     1
1070
    44
1040
1.0
1070
    74
1070
     0
1000
MTEXTEND
  0
LEADER
  5
2164C
330
747D
100
AcDbEntity
  8
寸法
 48
50.0
100
AcDbLeader
  3
INABA_S40G
 71
     0
 73
     0
 74
     0
 75
     1
 40
150.0
 41
231.9898538650463
 76
     3
 10
10777.17966480981
 20
1933.764973743768
 30
0.0
 10
10866.10242310187
 20
2140.19787459519
 30
0.0
 10
10966.10242310187
 20
2140.19787459519
 30
0.0
  0
LINE
  5
2164D
330
747D
100
AcDbEntity
  8
細線
100
AcDbLine
 10
10846.47707235543
 20
1633.76497374377
 30
0.0
 11
10546.47707235544
 21
1933.764973743768
 31
0.0
  0
LINE
  5
2164E
330
747D
100
AcDbEntity
  8
細線
100
AcDbLine
 10
10782.83746204865
 20
1633.764973743768
 30
0.0
 11
10482.83746204865
 21
1933.764973743768
 31
0.0
  0
LINE
  5
2164F
330
747D
100
AcDbEntity
  8
細線
 48
50.0
100
AcDbLine
 10
10367.58609467598
 20
1489.14132917708
 30
0.0
 11
10359.54761890304
 21
1519.14132917708
 31
0.0
  0
LINE
  5
21650
330
747D
100
AcDbEntity
  8
細線
 48
50.0
100
AcDbLine
 10
10466.19615086003
 20
1489.14132917708
 30
0.0
 11
10458.1576750871
 21
1519.14132917708
 31
0.0
  0
LINE
  5
21651
330
747D
100
AcDbEntity
  8
細線
100
AcDbLine
 10
10339.92245715646
 20
1519.141329177081
 30
0.0
 11
10454.54610172314
 21
1633.764973743768
 31
0.0
  0
LINE
  5
21652
330
747D
100
AcDbEntity
  8
細線
100
AcDbLine
 10
10297.49605028527
 20
1519.141329177081
 30
0.0
 11
10412.11969485195
 21
1633.764973743768
 31
0.0
  0
LINE
  5
21653
330
747D
100
AcDbEntity
  8
細線
 48
50.0
100
AcDbLine
 10
10663.41626322815
 20
1489.14132917708
 30
0.0
 11
10655.37778745522
 21
1519.14132917708
 31
0.0
  0
LINE
  5
21654
330
747D
100
AcDbEntity
  8
細線
 48
50.0
100
AcDbLine
 10
10564.80620704409
 20
1489.14132917708
 30
0.0
 11
10556.76773127116
 21
1519.14132917708
 31
0.0
  0
LINE
  5
21655
330
747D
100
AcDbEntity
  8
部品1
100
AcDbLine
 10
10863.77415028991
 20
1933.764973743768
 30
0.0
 11
10863.77415028991
 21
1633.764973743768
 31
0.0
  0
LINE
  5
21656
330
747D
100
AcDbEntity
  8
細線
 48
50.0
100
AcDbLine
 10
10860.63637559627
 20
1489.141329177078
 30
0.0
 11
10852.59789982333
 21
1519.141329177078
 31
0.0
  0
LINE
  5
21657
330
747D
100
AcDbEntity
  8
細線
 48
50.0
100
AcDbLine
 10
10762.0263194122
 20
1489.14132917708
 30
0.0
 11
10753.98784363926
 21
1519.14132917708
 31
0.0
  0
LINE
  5
21658
330
747D
100
AcDbEntity
  8
細線
100
AcDbLine
 10
10789.92245715646
 20
1519.141329177082
 30
0.0
 11
10904.54610172314
 21
1633.764973743768
 31
0.0
  0
LINE
  5
21659
330
747D
100
AcDbEntity
  8
細線
100
AcDbLine
 10
10705.06964341408
 20
1519.141329177082
 30
0.0
 11
10819.69328798076
 21
1633.764973743768
 31
0.0
  0
LINE
  5
2165A
330
747D
100
AcDbEntity
  8
細線
100
AcDbLine
 10
10747.49605028527
 20
1519.141329177082
 30
0.0
 11
10862.11969485195
 21
1633.764973743768
 31
0.0
  0
LINE
  5
2165B
330
747D
100
AcDbEntity
  8
細線
 48
50.0
100
AcDbLine
 10
10959.24643178033
 20
1489.141329177078
 30
0.0
 11
10951.20795600739
 21
1519.141329177078
 31
0.0
  0
TEXT
  5
2165C
330
747D
100
AcDbEntity
  8
文字
 62
     7
 48
50.0
100
AcDbText
 10
14641.2525855784
 20
871.1744590657925
 30
0.0
 40
100.0
  1
～一般型・多雪地型～
  7
STYLE2
100
AcDbText
  0
TEXT
  5
2165D
330
747D
100
AcDbEntity
  8
文字
 62
     7
 48
50.0
100
AcDbText
 10
14524.131837222
 20
1031.557706291228
 30
0.0
 40
100.0
  1
NO.07      <縮尺> S=1/40
  7
STYLE2
100
AcDbText
  0
TEXT
  5
216F2
330
747D
100
AcDbEntity
  8
寸法
 62
     7
100
AcDbText
 10
8643.876316392065
 20
4587.544501471228
 30
0.0
 40
120.0
  1
扉の位置に合わせた基礎形状として下さい。
  7
STYLE1
100
AcDbText
  0
LWPOLYLINE
  5
216F3
330
747D
100
AcDbEntity
  8
寸法
 48
50.0
100
AcDbPolyline
 90
        3
 70
     0
 43
0.0
 10
-8816.005257588521
 20
5647.919036112869
 10
-8527.260357199311
 20
4736.880316806234
 10
-11341.32477013095
 20
4736.880316806234
210
0.0
220
0.0
230
-1.0
1001
ACAD
1000
DSTYLE
1002
{
1070
   341
1005
0
1070
    40
1040
1.0
1070
   343
1005
0
1070
   344
1005
0
1002
}
  0
TEXT
  5
216F4
330
747D
100
AcDbEntity
  8
寸法
 62
     7
100
AcDbText
 10
8643.876316392065
 20
4759.148264354553
 30
0.0
 40
120.0
  1
扉位置 (1735x75)
  7
STYLE1
100
AcDbText
  0
SOLID
  5
216F5
330
747D
100
AcDbEntity
  8
寸法
 48
50.0
100
AcDbTrace
 10
-8799.096051918533
 20
5522.328007207982
 30
0.0
 11
-8816.005257588521
 21
5647.919036112869
 31
0.0
 12
-8759.277837445058
 22
5534.600778176891
 32
0.0
 13
-8759.277837445058
 23
5534.600778176891
 33
0.0
210
0.0
220
0.0
230
-1.0
1001
ACAD
1000
DSTYLE
1002
{
1070
   341
1005
0
1070
    40
1040
1.0
1070
   343
1005
0
1070
   344
1005
0
1002
}
  0
LINE
  5
2172E
330
747D
100
AcDbEntity
  8
部品1
 48
50.0
100
AcDbLine
 10
7352.213011273896
 20
5722.919036112859
 30
0.0
 11
6899.213011273897
 21
5722.919036112859
 31
0.0
  0
DIMENSION
  5
21763
330
747D
100
AcDbEntity
  8
寸法
 48
50.0
100
AcDbDimension
  2
*D31
 10
7352.213011273896
 20
5076.503757233069
 30
0.0
 11
7125.713011273898
 21
5176.50375723307
 31
0.0
 70
    32
 71
     5
 42
452.9999999999991
  3
INABA_S40G
100
AcDbAlignedDimension
 13
6899.213011273897
 23
5722.919036112859
 33
0.0
 14
7352.213011273896
 24
5647.919036112856
 34
0.0
100
AcDbRotatedDimension
  0
ENDSEC
  0
SECTION
  2
OBJECTS
  0
DICTIONARY
  5
7471
330
0
100
AcDbDictionary
281
     1
  3
ACAD_COLOR
350
159B0
  3
ACAD_GROUP
350
7472
  3
ACAD_LAYOUT
350
159B1
  3
ACAD_MATERIAL
350
159AF
  3
ACAD_MLINESTYLE
350
7473
  3
ACAD_PLOTSETTINGS
350
159B2
  3
ACAD_PLOTSTYLENAME
350
159AD
  3
ACDBHEADERROUNDTRIPXREC
350
217A4
  3
AcDbVariableDictionary
350
208A2
  3
CONTENTDICTIONARY
350
E71C
  3
DRAWINGVARIABLESDICT
350
F3B9
  0
DICTIONARY
  5
2096A
330
7467
100
AcDbDictionary
280
     1
281
     1
  3
ACAD_LAYERSTATES
360
2096B
  0
DICTIONARY
  5
159B0
102
{ACAD_REACTORS
330
7471
102
}
330
7471
100
AcDbDictionary
281
     1
  0
DICTIONARY
  5
7472
102
{ACAD_REACTORS
330
7471
102
}
330
7471
100
AcDbDictionary
281
     1
  0
DICTIONARY
  5
159B1
102
{ACAD_REACTORS
330
7471
102
}
330
7471
100
AcDbDictionary
281
     1
  3
Model
350
159B3
  3
レイアウト1
350
159B4
  0
DICTIONARY
  5
159AF
102
{ACAD_REACTORS
330
7471
102
}
330
7471
100
AcDbDictionary
281
     1
  0
DICTIONARY
  5
7473
102
{ACAD_REACTORS
330
7471
102
}
330
7471
100
AcDbDictionary
281
     1
  3
STANDARD
350
7480
  0
DICTIONARY
  5
159B2
102
{ACAD_REACTORS
330
7471
102
}
330
7471
100
AcDbDictionary
281
     1
  0
ACDBDICTIONARYWDFLT
  5
159AD
102
{ACAD_REACTORS
330
7471
102
}
330
7471
100
AcDbDictionary
281
     1
  3
Normal
350
159AE
100
AcDbDictionaryWithDefault
340
159AE
  0
DICTIONARY
  5
217A4
102
{ACAD_REACTORS
330
7471
102
}
330
7471
100
AcDbDictionary
281
     1
  3
COLORDICT
350
217A6
  3
MATERIALDICT
350
217A5
  0
DICTIONARY
  5
208A2
102
{ACAD_REACTORS
330
7471
102
}
330
7471
100
AcDbDictionary
281
     1
  3
DIMASSOC
350
208A3
  3
PROJECTNAME
350
208A4
  0
DICTIONARY
  5
E71C
102
{ACAD_REACTORS
330
7471
102
}
330
7471
100
AcDbDictionary
281
     1
  0
DICTIONARY
  5
F3B9
102
{ACAD_REACTORS
330
7471
102
}
330
7471
100
AcDbDictionary
281
     1
1001
DRAWINGVARIABLESXDATA
1000
POLARMODE
1000
1
  0
DICTIONARY
  5
2096B
102
{ACAD_REACTORS
330
2096A
102
}
330
2096A
100
AcDbDictionary
281
     1
  0
LAYOUT
  5
159B3
102
{ACAD_XDICTIONARY
360
217A7
102
}
102
{ACAD_REACTORS
330
159B1
102
}
330
159B1
100
AcDbPlotSettings
  1

  2
iR C3880
  4
A3
  6

 40
5.87375
 41
5.873747999999999
 42
5.873749
 43
5.873749
 44
296.925995
 45
419.946655
 46
0.0
 47
0.0
 48
0.0
 49
0.0
140
0.0
141
0.0
142
1.0
143
41.65811997269246
 70
 11952
 72
     1
 73
     1
 74
     2
  7
inabass.ctb
 75
     0
147
0.0240049239057239
148
0.0
149
0.0
100
AcDbLayout
  1
Model
 70
     1
 71
     0
 10
0.0
 20
0.0
 11
12.0
 21
9.0
 12
0.0
 22
0.0
 32
0.0
 14
0.0
 24
0.0
 34
0.0
 15
0.0
 25
0.0
 35
0.0
146
0.0
 13
0.0
 23
0.0
 33
0.0
 16
1.0
 26
0.0
 36
0.0
 17
0.0
 27
1.0
 37
0.0
 76
     0
330
747D
  0
LAYOUT
  5
159B4
102
{ACAD_XDICTIONARY
360
217A9
102
}
102
{ACAD_REACTORS
330
159B1
102
}
330
159B1
100
AcDbPlotSettings
  1

  2
自動 EPSON LP-8400FX (TATENO 上)
  4

  6

 40
0.0
 41
0.0
 42
0.0
 43
0.0
 44
0.0
 45
0.0
 46
0.0
 47
0.0
 48
0.0
 49
0.0
140
0.0
141
0.0
142
1.0
143
1.0
 70
   688
 72
     0
 73
     0
 74
     5
  7
inaba.ctb
 75
    16
147
1.0
148
0.0
149
0.0
100
AcDbLayout
  1
レイアウト1
 70
     0
 71
     1
 10
0.0
 20
0.0
 11
420.0
 21
297.0
 12
0.0
 22
0.0
 32
0.0
 14
1.000000000000000E+20
 24
1.000000000000000E+20
 34
1.000000000000000E+20
 15
-1.000000000000000E+20
 25
-1.000000000000000E+20
 35
-1.000000000000000E+20
146
0.0
 13
0.0
 23
0.0
 33
0.0
 16
1.0
 26
0.0
 36
0.0
 17
0.0
 27
1.0
 37
0.0
 76
     0
330
747A
  0
MLINESTYLE
  5
7480
102
{ACAD_REACTORS
330
7473
102
}
330
7473
100
AcDbMlineStyle
  2
STANDARD
 70
     0
  3

 62
     0
 51
90.0
 52
90.0
 71
     2
 49
0.5
 62
   256
  6
BYLAYER
 49
-0.5
 62
   256
  6
BYLAYER
  0
ACDBPLACEHOLDER
  5
159AE
102
{ACAD_REACTORS
330
159AD
102
}
330
159AD
  0
XRECORD
  5
217A6
102
{ACAD_REACTORS
330
217A4
102
}
330
217A4
100
AcDbXrecord
280
     1
340
159B0
  0
XRECORD
  5
217A5
102
{ACAD_REACTORS
330
217A4
102
}
330
217A4
100
AcDbXrecord
280
     1
340
159AF
  0
DICTIONARYVAR
  5
208A3
102
{ACAD_REACTORS
330
208A2
102
}
330
208A2
100
DictionaryVariables
280
     0
  1
1
  0
DICTIONARYVAR
  5
208A4
102
{ACAD_REACTORS
330
208A2
102
}
330
208A2
100
DictionaryVariables
280
     0
  1

  0
DICTIONARY
  5
217A7
330
159B3
100
AcDbDictionary
280
     1
281
     1
  3
ACAD_XREC_ROUNDTRIP
360
217A8
  0
DICTIONARY
  5
217A9
330
159B4
100
AcDbDictionary
280
     1
281
     1
  3
ACAD_XREC_ROUNDTRIP
360
217AA
  0
XRECORD
  5
217A8
102
{ACAD_REACTORS
330
217A7
102
}
330
217A7
100
AcDbXrecord
280
     1
102
SHADEPLOT
 70
     1
102
SHADEPLOTRESLEVEL
 70
     2
102
SHADEPLOTCUSTOMDPI
 70
   300
  0
XRECORD
  5
217AA
102
{ACAD_REACTORS
330
217A9
102
}
330
217A9
100
AcDbXrecord
280
     1
102
SHADEPLOT
 70
     0
102
SHADEPLOTRESLEVEL
 70
     2
102
SHADEPLOTCUSTOMDPI
 70
   300
  0
ENDSEC
  0
EOF
