  0
SECTION
  2
HEADER
  9
$ACADVER
  1
AC1015
  9
$ACADMAINTVER
 70
    20
  9
$DWGCODEPAGE
  3
ANSI_932
  9
$INSBASE
 10
0.0
 20
0.0
 30
0.0
  9
$EXTMIN
 10
139.9999999999995
 20
-0.0000000000000909
 30
0.0
  9
$EXTMAX
 10
16307.2
 20
11409.6
 30
0.0
  9
$LIMMIN
 10
0.0
 20
0.0
  9
$LIMMAX
 10
16800.0
 20
11880.0
  9
$ORTHOMODE
 70
     0
  9
$REGENMODE
 70
     1
  9
$FILLMODE
 70
     1
  9
$QTEXTMODE
 70
     0
  9
$MIRRTEXT
 70
     1
  9
$LTSCALE
 40
20.0
  9
$ATTMODE
 70
     1
  9
$TEXTSIZE
 40
100.0
  9
$TRACEWID
 40
1.0
  9
$TEXTSTYLE
  7
STYLE2
  9
$CLAYER
  8
寸法
  9
$CELTYPE
  6
BYLAYER
  9
$CECOLOR
 62
   256
  9
$CELTSCALE
 40
50.0
  9
$DISPSILH
 70
     0
  9
$DIMSCALE
 40
40.0
  9
$DIMASZ
 40
2.5
  9
$DIMEXO
 40
0.5
  9
$DIMDLI
 40
7.0
  9
$DIMRND
 40
0.0
  9
$DIMDLE
 40
0.0
  9
$DIMEXE
 40
1.5
  9
$DIMTP
 40
0.0
  9
$DIMTM
 40
0.0
  9
$DIMTXT
 40
3.0
  9
$DIMCEN
 40
0.0
  9
$DIMTSZ
 40
0.0
  9
$DIMTOL
 70
     0
  9
$DIMLIM
 70
     0
  9
$DIMTIH
 70
     0
  9
$DIMTOH
 70
     0
  9
$DIMSE1
 70
     0
  9
$DIMSE2
 70
     0
  9
$DIMTAD
 70
     3
  9
$DIMZIN
 70
     8
  9
$DIMBLK
  1

  9
$DIMASO
 70
     1
  9
$DIMSHO
 70
     1
  9
$DIMPOST
  1

  9
$DIMAPOST
  1

  9
$DIMALT
 70
     0
  9
$DIMALTD
 70
     2
  9
$DIMALTF
 40
0.0394
  9
$DIMLFAC
 40
1.0
  9
$DIMTOFL
 70
     1
  9
$DIMTVP
 40
0.0
  9
$DIMTIX
 70
     1
  9
$DIMSOXD
 70
     0
  9
$DIMSAH
 70
     1
  9
$DIMBLK1
  1
DOTSMALL
  9
$DIMBLK2
  1
DOTSMALL
  9
$DIMSTYLE
  2
INABA_S40G
  9
$DIMCLRD
 70
     0
  9
$DIMCLRE
 70
     0
  9
$DIMCLRT
 70
     7
  9
$DIMTFAC
 40
1.0
  9
$DIMGAP
 40
1.0
  9
$DIMJUST
 70
     0
  9
$DIMSD1
 70
     0
  9
$DIMSD2
 70
     0
  9
$DIMTOLJ
 70
     1
  9
$DIMTZIN
 70
     0
  9
$DIMALTZ
 70
     0
  9
$DIMALTTZ
 70
     0
  9
$DIMUPT
 70
     1
  9
$DIMDEC
 70
     1
  9
$DIMTDEC
 70
     4
  9
$DIMALTU
 70
     2
  9
$DIMALTTD
 70
     2
  9
$DIMTXSTY
  7
STYLE1
  9
$DIMAUNIT
 70
     0
  9
$DIMADEC
 70
     0
  9
$DIMALTRND
 40
0.0
  9
$DIMAZIN
 70
     0
  9
$DIMDSEP
 70
    46
  9
$DIMATFIT
 70
     3
  9
$DIMFRAC
 70
     0
  9
$DIMLDRBLK
  1
DOTSMALL
  9
$DIMLUNIT
 70
     2
  9
$DIMLWD
 70
    -2
  9
$DIMLWE
 70
    -2
  9
$DIMTMOVE
 70
     0
  9
$LUNITS
 70
     2
  9
$LUPREC
 70
     1
  9
$SKETCHINC
 40
1.0
  9
$FILLETRAD
 40
0.0
  9
$AUNITS
 70
     0
  9
$AUPREC
 70
     0
  9
$MENU
  1
acad
  9
$ELEVATION
 40
0.0
  9
$PELEVATION
 40
0.0
  9
$THICKNESS
 40
0.0
  9
$LIMCHECK
 70
     0
  9
$CHAMFERA
 40
3.0
  9
$CHAMFERB
 40
3.0
  9
$CHAMFERC
 40
0.0
  9
$CHAMFERD
 40
0.0
  9
$SKPOLY
 70
     0
  9
$TDCREATE
 40
2451368.612993866
  9
$TDUCREATE
 40
2451368.237993866
  9
$TDUPDATE
 40
2456380.835319364
  9
$TDUUPDATE
 40
2456380.460319364
  9
$TDINDWG
 40
1.7919671296
  9
$TDUSRTIMER
 40
1.7919671296
  9
$USRTIMER
 70
     1
  9
$ANGBASE
 50
0.0
  9
$ANGDIR
 70
     0
  9
$PDMODE
 70
     3
  9
$PDSIZE
 40
2.0
  9
$PLINEWID
 40
0.0
  9
$SPLFRAME
 70
     0
  9
$SPLINETYPE
 70
     6
  9
$SPLINESEGS
 70
     8
  9
$HANDSEED
  5
2199C
  9
$SURFTAB1
 70
     6
  9
$SURFTAB2
 70
     6
  9
$SURFTYPE
 70
     6
  9
$SURFU
 70
     6
  9
$SURFV
 70
     6
  9
$UCSBASE
  2

  9
$UCSNAME
  2

  9
$UCSORG
 10
0.0
 20
0.0
 30
0.0
  9
$UCSXDIR
 10
1.0
 20
0.0
 30
0.0
  9
$UCSYDIR
 10
0.0
 20
1.0
 30
0.0
  9
$UCSORTHOREF
  2

  9
$UCSORTHOVIEW
 70
     0
  9
$UCSORGTOP
 10
0.0
 20
0.0
 30
0.0
  9
$UCSORGBOTTOM
 10
0.0
 20
0.0
 30
0.0
  9
$UCSORGLEFT
 10
0.0
 20
0.0
 30
0.0
  9
$UCSORGRIGHT
 10
0.0
 20
0.0
 30
0.0
  9
$UCSORGFRONT
 10
0.0
 20
0.0
 30
0.0
  9
$UCSORGBACK
 10
0.0
 20
0.0
 30
0.0
  9
$PUCSBASE
  2

  9
$PUCSNAME
  2

  9
$PUCSORG
 10
0.0
 20
0.0
 30
0.0
  9
$PUCSXDIR
 10
1.0
 20
0.0
 30
0.0
  9
$PUCSYDIR
 10
0.0
 20
1.0
 30
0.0
  9
$PUCSORTHOREF
  2

  9
$PUCSORTHOVIEW
 70
     0
  9
$PUCSORGTOP
 10
0.0
 20
0.0
 30
0.0
  9
$PUCSORGBOTTOM
 10
0.0
 20
0.0
 30
0.0
  9
$PUCSORGLEFT
 10
0.0
 20
0.0
 30
0.0
  9
$PUCSORGRIGHT
 10
0.0
 20
0.0
 30
0.0
  9
$PUCSORGFRONT
 10
0.0
 20
0.0
 30
0.0
  9
$PUCSORGBACK
 10
0.0
 20
0.0
 30
0.0
  9
$USERI1
 70
     0
  9
$USERI2
 70
     0
  9
$USERI3
 70
     0
  9
$USERI4
 70
     0
  9
$USERI5
 70
     0
  9
$USERR1
 40
0.0
  9
$USERR2
 40
0.0
  9
$USERR3
 40
0.0
  9
$USERR4
 40
0.0
  9
$USERR5
 40
0.0
  9
$WORLDVIEW
 70
     1
  9
$SHADEDGE
 70
     3
  9
$SHADEDIF
 70
    70
  9
$TILEMODE
 70
     1
  9
$MAXACTVP
 70
    16
  9
$PINSBASE
 10
0.0
 20
0.0
 30
0.0
  9
$PLIMCHECK
 70
     0
  9
$PEXTMIN
 10
1.000000000000000E+20
 20
1.000000000000000E+20
 30
1.000000000000000E+20
  9
$PEXTMAX
 10
-1.000000000000000E+20
 20
-1.000000000000000E+20
 30
-1.000000000000000E+20
  9
$PLIMMIN
 10
0.0
 20
0.0
  9
$PLIMMAX
 10
420.0
 20
297.0
  9
$UNITMODE
 70
     0
  9
$VISRETAIN
 70
     0
  9
$PLINEGEN
 70
     0
  9
$PSLTSCALE
 70
     0
  9
$TREEDEPTH
 70
  3020
  9
$CMLSTYLE
  2
STANDARD
  9
$CMLJUST
 70
     0
  9
$CMLSCALE
 40
1.0
  9
$PROXYGRAPHICS
 70
     1
  9
$MEASUREMENT
 70
     1
  9
$CELWEIGHT
370
    -1
  9
$ENDCAPS
280
     0
  9
$JOINSTYLE
280
     0
  9
$LWDISPLAY
290
     0
  9
$INSUNITS
 70
     0
  9
$HYPERLINKBASE
  1

  9
$STYLESHEET
  1
inabass.ctb
  9
$XEDIT
290
     1
  9
$CEPSNTYPE
380
     0
  9
$PSTYLEMODE
290
     1
  9
$FINGERPRINTGUID
  2
{3B57B35E-7D77-4BBF-81B7-6C583B9EB24C}
  9
$VERSIONGUID
  2
{B883BBB5-3B5C-47CB-9641-3EADDE0E2001}
  9
$EXTNAMES
290
     1
  9
$PSVPSCALE
 40
0.0
  9
$OLESTARTUP
290
     0
  0
ENDSEC
  0
SECTION
  2
CLASSES
  0
CLASS
  1
ACDBDICTIONARYWDFLT
  2
AcDbDictionaryWithDefault
  3
ObjectDBX Classes
 90
        0
280
     0
281
     0
  0
CLASS
  1
DICTIONARYVAR
  2
AcDbDictionaryVar
  3
ObjectDBX Classes
 90
        0
280
     0
281
     0
  0
CLASS
  1
ACDBPLACEHOLDER
  2
AcDbPlaceHolder
  3
ObjectDBX Classes
 90
        0
280
     0
281
     0
  0
CLASS
  1
LAYOUT
  2
AcDbLayout
  3
ObjectDBX Classes
 90
        0
280
     0
281
     0
  0
ENDSEC
  0
SECTION
  2
TABLES
  0
TABLE
  2
VPORT
  5
746D
330
0
100
AcDbSymbolTable
 70
     2
  0
VPORT
  5
21994
330
746D
100
AcDbSymbolTableRecord
100
AcDbViewportTableRecord
  2
*Active
 70
     0
 10
0.0
 20
0.0
 11
1.0
 21
1.0
 12
8223.761025238504
 22
5704.608037261909
 13
0.0
 23
0.0
 14
10.0
 24
10.0
 15
10.0
 25
10.0
 16
0.0
 26
0.0
 36
1.0
 17
0.0
 27
0.0
 37
0.0
 40
11507.66036302868
 41
1.706919945725915
 42
50.0
 43
0.0
 44
0.0
 50
0.0
 51
0.0
 71
     0
 72
     0
 73
     1
 74
     0
 75
     0
 76
     0
 77
     0
 78
     0
281
     0
 65
     1
110
0.0
120
0.0
130
0.0
111
1.0
121
0.0
131
0.0
112
0.0
122
1.0
132
0.0
 79
     0
146
0.0
  0
ENDTAB
  0
TABLE
  2
LTYPE
  5
746A
330
0
100
AcDbSymbolTable
 70
     3
  0
LTYPE
  5
7477
330
746A
100
AcDbSymbolTableRecord
100
AcDbLinetypeTableRecord
  2
BYBLOCK
 70
     0
  3

 72
    65
 73
     0
 40
0.0
  0
LTYPE
  5
7478
330
746A
100
AcDbSymbolTableRecord
100
AcDbLinetypeTableRecord
  2
BYLAYER
 70
     0
  3

 72
    65
 73
     0
 40
0.0
  0
LTYPE
  5
7479
330
746A
100
AcDbSymbolTableRecord
100
AcDbLinetypeTableRecord
  2
CONTINUOUS
 70
     0
  3
Solid line
 72
    65
 73
     0
 40
0.0
  0
LTYPE
  5
7816
330
746A
100
AcDbSymbolTableRecord
100
AcDbLinetypeTableRecord
  2
CENTER
 70
     0
  3
____ _ ____ _ ____ _ ____ _ ____ _ ____ _ ____ 
 72
    65
 73
     4
 40
2.0
 49
1.25
 74
     0
 49
-0.25
 74
     0
 49
0.25
 74
     0
 49
-0.25
 74
     0
  0
LTYPE
  5
781B
330
746A
100
AcDbSymbolTableRecord
100
AcDbLinetypeTableRecord
  2
PHANTOM
 70
     0
  3
______  __  __  ______  __  __  ______  __  __ 
 72
    65
 73
     6
 40
2.5
 49
1.25
 74
     0
 49
-0.25
 74
     0
 49
0.25
 74
     0
 49
-0.25
 74
     0
 49
0.25
 74
     0
 49
-0.25
 74
     0
  0
ENDTAB
  0
TABLE
  2
LAYER
  5
7467
102
{ACAD_XDICTIONARY
360
20680
102
}
330
0
100
AcDbSymbolTable
 70
    10
  0
LAYER
  5
7474
330
7467
100
AcDbSymbolTableRecord
100
AcDbLayerTableRecord
  2
0
 70
     0
 62
     7
  6
CONTINUOUS
370
    -3
390
159AE
  0
LAYER
  5
DEB2
330
7467
100
AcDbSymbolTableRecord
100
AcDbLayerTableRecord
  2
センター
 70
     0
 62
     3
  6
CENTER
370
    -3
390
159AE
  0
LAYER
  5
DEB3
330
7467
100
AcDbSymbolTableRecord
100
AcDbLayerTableRecord
  2
寸法
 70
     0
 62
     4
  6
CONTINUOUS
370
    -3
390
159AE
  0
LAYER
  5
DEB4
330
7467
100
AcDbSymbolTableRecord
100
AcDbLayerTableRecord
  2
部品1
 70
     0
 62
     7
  6
CONTINUOUS
370
    -3
390
159AE
  0
LAYER
  5
DEB5
330
7467
100
AcDbSymbolTableRecord
100
AcDbLayerTableRecord
  2
補助
 70
     0
 62
    -1
  6
CONTINUOUS
370
    -3
390
159AE
  0
LAYER
  5
DEB6
330
7467
100
AcDbSymbolTableRecord
100
AcDbLayerTableRecord
  2
文字
 70
     0
 62
     7
  6
CONTINUOUS
370
    -3
390
159AE
  0
LAYER
  5
F255
330
7467
100
AcDbSymbolTableRecord
100
AcDbLayerTableRecord
  2
DEFPOINTS
 70
     0
 62
     7
  6
CONTINUOUS
290
     0
370
    -3
390
159AE
  0
LAYER
  5
10B54
330
7467
100
AcDbSymbolTableRecord
100
AcDbLayerTableRecord
  2
仕様書枠
 70
     0
 62
   230
  6
CONTINUOUS
370
    -3
390
159AE
  0
LAYER
  5
1173F
330
7467
100
AcDbSymbolTableRecord
100
AcDbLayerTableRecord
  2
細線
 70
     0
 62
     5
  6
CONTINUOUS
370
    -3
390
159AE
  0
LAYER
  5
12CC4
330
7467
100
AcDbSymbolTableRecord
100
AcDbLayerTableRecord
  2
想像線
 70
     0
 62
     6
  6
PHANTOM
370
    -3
390
159AE
  0
ENDTAB
  0
TABLE
  2
STYLE
  5
7468
330
0
100
AcDbSymbolTable
 70
     3
  0
STYLE
  5
7475
330
7468
100
AcDbSymbolTableRecord
100
AcDbTextStyleTableRecord
  2
STANDARD
 70
     0
 40
0.0
 41
1.0
 50
0.0
 71
     0
 42
4.0
  3
txt
  4
C:\AutoCAD LT\bigfont.shx
  0
STYLE
  5
F706
330
7468
100
AcDbSymbolTableRecord
100
AcDbTextStyleTableRecord
  2
STYLE1
 70
     0
 40
0.0
 41
1.0
 50
0.0
 71
     0
 42
100.0
  3
isocp.shx
  4
bigfont.shx
  0
STYLE
  5
103BF
330
7468
100
AcDbSymbolTableRecord
100
AcDbTextStyleTableRecord
  2
STYLE2
 70
     0
 40
0.0
 41
1.0
 50
0.0
 71
     0
 42
100.0
  3
MS PGothic.ttf
  4

1001
ACAD
1000
MS PGothic
1071
    32818
  0
ENDTAB
  0
TABLE
  2
VIEW
  5
746B
330
0
100
AcDbSymbolTable
 70
     0
  0
ENDTAB
  0
TABLE
  2
UCS
  5
746C
330
0
100
AcDbSymbolTable
 70
     0
  0
ENDTAB
  0
TABLE
  2
APPID
  5
746E
330
0
100
AcDbSymbolTable
 70
     6
  0
APPID
  5
7476
330
746E
100
AcDbSymbolTableRecord
100
AcDbRegAppTableRecord
  2
ACAD
 70
     0
  0
APPID
  5
DEA9
330
746E
100
AcDbSymbolTableRecord
100
AcDbRegAppTableRecord
  2
CONTENTBLOCKICON
 70
     0
  0
APPID
  5
DEAA
330
746E
100
AcDbSymbolTableRecord
100
AcDbRegAppTableRecord
  2
CONTENTBLOCKDESCRIPTION
 70
     0
  0
APPID
  5
E71D
330
746E
100
AcDbSymbolTableRecord
100
AcDbRegAppTableRecord
  2
CONTENTTABDATA
 70
     0
  0
APPID
  5
E71E
330
746E
100
AcDbSymbolTableRecord
100
AcDbRegAppTableRecord
  2
CONTENTCURRENTTAB
 70
     0
  0
APPID
  5
F3BA
330
746E
100
AcDbSymbolTableRecord
100
AcDbRegAppTableRecord
  2
DRAWINGVARIABLESXDATA
 70
     0
  0
ENDTAB
  0
TABLE
  2
DIMSTYLE
  5
746F
330
0
100
AcDbSymbolTable
 70
     1
100
AcDbDimStyleTable
 71
     1
340
F71F
  0
DIMSTYLE
105
F71F
102
{ACAD_REACTORS
330
2019B
330
2019A
330
20199
330
20198
330
20197
330
20196
330
200B4
330
1FA71
330
1F11C
330
1E701
330
1D959
330
1D947
330
1D946
330
1D942
330
1D934
330
1D933
330
1D92D
330
1D92C
330
1D929
330
1D927
330
1D91C
330
1D91B
330
21365
330
21472
330
21471
330
21470
330
21557
330
215C8
330
215C7
330
2184D
330
21853
330
217D4
330
217DD
330
217DE
330
217F3
102
}
330
746F
100
AcDbSymbolTableRecord
100
AcDbDimStyleTableRecord
  2
INABA_S40G
 70
     0
 40
40.0
 41
2.5
 42
0.5
 43
7.0
 44
1.5
 73
     0
 74
     0
 77
     3
 78
     8
140
3.0
141
0.0
143
0.0394
147
1.0
172
     1
173
     1
174
     1
178
     7
271
     1
288
     1
340
F706
341
F770
343
F770
344
F770
  0
ENDTAB
  0
TABLE
  2
BLOCK_RECORD
  5
7466
330
0
100
AcDbSymbolTable
 70
    32
  0
BLOCK_RECORD
  5
747D
330
7466
100
AcDbSymbolTableRecord
100
AcDbBlockTableRecord
  2
*MODEL_SPACE
340
159B3
  0
BLOCK_RECORD
  5
747A
330
7466
100
AcDbSymbolTableRecord
100
AcDbBlockTableRecord
  2
*PAPER_SPACE
340
159B4
  0
BLOCK_RECORD
  5
F770
330
7466
100
AcDbSymbolTableRecord
100
AcDbBlockTableRecord
  2
_DOTSMALL
340
0
102
{BLKREFS
331
21225
331
21226
331
2122F
331
21230
331
2123A
331
2123B
331
2124D
331
2124E
331
212B0
331
212B1
331
212B9
331
212BA
331
213A5
331
213A6
331
214B5
331
214B6
331
214BE
331
214BF
331
214C7
331
214C8
331
214D0
331
214D1
331
214DA
331
214DB
331
214E4
331
214E5
331
214ED
331
214EE
331
214F8
331
214F9
331
21503
331
21504
331
21517
331
21518
331
21547
331
21548
331
21551
331
21552
331
215AB
331
215AC
331
215C1
331
215C2
331
215FF
331
21600
331
21608
331
21609
331
21612
331
21613
331
2161C
331
2161D
331
2194B
331
2194C
331
21956
331
21957
331
2195F
331
21960
331
21968
331
21969
331
21971
331
21972
331
2197A
331
2197B
102
}
  0
BLOCK_RECORD
  5
1DA44
330
7466
100
AcDbSymbolTableRecord
100
AcDbBlockTableRecord
  2
*D1
340
0
  0
BLOCK_RECORD
  5
1DA51
330
7466
100
AcDbSymbolTableRecord
100
AcDbBlockTableRecord
  2
*D2
340
0
  0
BLOCK_RECORD
  5
1DA8E
330
7466
100
AcDbSymbolTableRecord
100
AcDbBlockTableRecord
  2
*D3
340
0
  0
BLOCK_RECORD
  5
1DA9A
330
7466
100
AcDbSymbolTableRecord
100
AcDbBlockTableRecord
  2
*D4
340
0
  0
BLOCK_RECORD
  5
1DAA5
330
7466
100
AcDbSymbolTableRecord
100
AcDbBlockTableRecord
  2
*D5
340
0
  0
BLOCK_RECORD
  5
1DAB2
330
7466
100
AcDbSymbolTableRecord
100
AcDbBlockTableRecord
  2
*D6
340
0
  0
BLOCK_RECORD
  5
1DABE
330
7466
100
AcDbSymbolTableRecord
100
AcDbBlockTableRecord
  2
*D7
340
0
  0
BLOCK_RECORD
  5
1DACB
330
7466
100
AcDbSymbolTableRecord
100
AcDbBlockTableRecord
  2
*D8
340
0
  0
BLOCK_RECORD
  5
1DAF3
330
7466
100
AcDbSymbolTableRecord
100
AcDbBlockTableRecord
  2
*D9
340
0
  0
BLOCK_RECORD
  5
1DB00
330
7466
100
AcDbSymbolTableRecord
100
AcDbBlockTableRecord
  2
*D10
340
0
  0
BLOCK_RECORD
  5
1DB1A
330
7466
100
AcDbSymbolTableRecord
100
AcDbBlockTableRecord
  2
*D11
340
0
  0
BLOCK_RECORD
  5
200B5
330
7466
100
AcDbSymbolTableRecord
100
AcDbBlockTableRecord
  2
*D12
340
0
  0
BLOCK_RECORD
  5
2019C
330
7466
100
AcDbSymbolTableRecord
100
AcDbBlockTableRecord
  2
*D13
340
0
  0
BLOCK_RECORD
  5
201A8
330
7466
100
AcDbSymbolTableRecord
100
AcDbBlockTableRecord
  2
*D14
340
0
  0
BLOCK_RECORD
  5
201B4
330
7466
100
AcDbSymbolTableRecord
100
AcDbBlockTableRecord
  2
*D15
340
0
  0
BLOCK_RECORD
  5
201C1
330
7466
100
AcDbSymbolTableRecord
100
AcDbBlockTableRecord
  2
*D16
340
0
  0
BLOCK_RECORD
  5
201CF
330
7466
100
AcDbSymbolTableRecord
100
AcDbBlockTableRecord
  2
*D17
340
0
  0
BLOCK_RECORD
  5
201DC
330
7466
100
AcDbSymbolTableRecord
100
AcDbBlockTableRecord
  2
*D18
340
0
  0
BLOCK_RECORD
  5
21366
330
7466
100
AcDbSymbolTableRecord
100
AcDbBlockTableRecord
  2
*D19
340
0
  0
BLOCK_RECORD
  5
21473
330
7466
100
AcDbSymbolTableRecord
100
AcDbBlockTableRecord
  2
*D20
340
0
  0
BLOCK_RECORD
  5
2147F
330
7466
100
AcDbSymbolTableRecord
100
AcDbBlockTableRecord
  2
*D21
340
0
  0
BLOCK_RECORD
  5
2148B
330
7466
100
AcDbSymbolTableRecord
100
AcDbBlockTableRecord
  2
*D22
340
0
  0
BLOCK_RECORD
  5
21558
330
7466
100
AcDbSymbolTableRecord
100
AcDbBlockTableRecord
  2
*D23
340
0
  0
BLOCK_RECORD
  5
215C9
330
7466
100
AcDbSymbolTableRecord
100
AcDbBlockTableRecord
  2
*D24
340
0
  0
BLOCK_RECORD
  5
215D5
330
7466
100
AcDbSymbolTableRecord
100
AcDbBlockTableRecord
  2
*D25
340
0
  0
BLOCK_RECORD
  5
218FE
330
7466
100
AcDbSymbolTableRecord
100
AcDbBlockTableRecord
  2
*D26
340
0
  0
BLOCK_RECORD
  5
2190A
330
7466
100
AcDbSymbolTableRecord
100
AcDbBlockTableRecord
  2
*D27
340
0
  0
BLOCK_RECORD
  5
21918
330
7466
100
AcDbSymbolTableRecord
100
AcDbBlockTableRecord
  2
*D28
340
0
  0
BLOCK_RECORD
  5
21924
330
7466
100
AcDbSymbolTableRecord
100
AcDbBlockTableRecord
  2
*D29
340
0
  0
BLOCK_RECORD
  5
21930
330
7466
100
AcDbSymbolTableRecord
100
AcDbBlockTableRecord
  2
*D30
340
0
  0
BLOCK_RECORD
  5
2193C
330
7466
100
AcDbSymbolTableRecord
100
AcDbBlockTableRecord
  2
*D31
340
0
  0
ENDTAB
  0
ENDSEC
  0
SECTION
  2
BLOCKS
  0
BLOCK
  5
7489
330
747D
100
AcDbEntity
  8
0
100
AcDbBlockBegin
  2
*MODEL_SPACE
 70
     0
 10
0.0
 20
0.0
 30
0.0
  3
*MODEL_SPACE
  1

  0
ENDBLK
  5
748A
330
747D
100
AcDbEntity
  8
0
100
AcDbBlockEnd
  0
BLOCK
  5
7487
330
747A
100
AcDbEntity
 67
     1
  8
0
100
AcDbBlockBegin
  2
*PAPER_SPACE
 70
     0
 10
0.0
 20
0.0
 30
0.0
  3
*PAPER_SPACE
  1

  0
ENDBLK
  5
7488
330
747A
100
AcDbEntity
 67
     1
  8
0
100
AcDbBlockEnd
  0
BLOCK
  5
F771
330
F770
100
AcDbEntity
  8
0
 48
50.0
100
AcDbBlockBegin
  2
_DOTSMALL
 70
     0
 10
0.0
 20
0.0
 30
0.0
  3
_DOTSMALL
  1

  0
LWPOLYLINE
  5
F772
330
F770
100
AcDbEntity
  8
0
  6
ByBlock
 62
     0
 48
50.0
100
AcDbPolyline
 90
        2
 70
     1
 43
0.5
 10
-0.0625
 20
0.0
 42
1.0
 10
0.0625
 20
0.0
 42
1.0
  0
ENDBLK
  5
F776
330
F770
100
AcDbEntity
  8
0
 48
50.0
100
AcDbBlockEnd
  0
BLOCK
  5
1DA4F
330
1DA44
100
AcDbEntity
  8
0
 48
50.0
100
AcDbBlockBegin
  2
*D1
 70
     1
 10
0.0
 20
0.0
 30
0.0
  3
*D1
  1

  0
LINE
  5
21543
330
1DA44
100
AcDbEntity
  8
寸法
 62
     0
 48
50.0
370
    -2
100
AcDbLine
 10
7046.195288608608
 20
5842.919036112876
 30
0.0
 11
7279.154516945171
 21
5842.919036112876
 31
0.0
  0
LINE
  5
21544
330
1DA44
100
AcDbEntity
  8
寸法
 62
     0
 48
50.0
370
    -2
100
AcDbLine
 10
7046.195288608608
 20
5952.919036112877
 30
0.0
 11
7279.154516945171
 21
5952.919036112877
 31
0.0
  0
LINE
  5
21545
330
1DA44
100
AcDbEntity
  8
寸法
 62
     0
 48
50.0
370
    -2
100
AcDbLine
 10
7219.154516945171
 20
5842.919036112876
 30
0.0
 11
7219.154516945171
 21
5952.919036112877
 31
0.0
  0
LINE
  5
21546
330
1DA44
100
AcDbEntity
  8
寸法
 62
     0
 48
50.0
370
    -2
100
AcDbLine
 10
7219.154516945171
 20
5952.919036112877
 30
0.0
 11
7219.154516945171
 21
6338.013524301853
 31
0.0
  0
INSERT
  5
21547
330
1DA44
100
AcDbEntity
  8
寸法
 62
     0
 48
50.0
370
    -2
100
AcDbBlockReference
  2
_DOTSMALL
 10
7219.154516945171
 20
5842.919036112876
 30
0.0
 41
100.0
 42
100.0
 43
100.0
 50
270.0
  0
INSERT
  5
21548
330
1DA44
100
AcDbEntity
  8
寸法
 62
     0
 48
50.0
370
    -2
100
AcDbBlockReference
  2
_DOTSMALL
 10
7219.154516945171
 20
5952.919036112877
 30
0.0
 41
100.0
 42
100.0
 43
100.0
 50
90.0
  0
MTEXT
  5
21549
330
1DA44
100
AcDbEntity
  8
寸法
 62
     7
 48
50.0
100
AcDbMText
 10
7119.15451694517
 20
6213.966280207367
 30
0.0
 40
120.0
 41
0.0
 71
     5
 72
     1
  1
\A1;110
  7
STYLE1
 11
0.0000000000000001
 21
1.0
 31
0.0
 73
     1
 44
1.0
1001
ACAD
1000
MTEXTBEGIN
1070
    73
1070
     1
1070
    44
1040
1.0
1070
    74
1070
     0
1000
MTEXTEND
  0
POINT
  5
2154A
330
1DA44
100
AcDbEntity
  8
DEFPOINTS
 62
     0
 48
50.0
100
AcDbPoint
 10
7026.195288608608
 20
5842.919036112876
 30
0.0
  0
POINT
  5
2154B
330
1DA44
100
AcDbEntity
  8
DEFPOINTS
 62
     0
 48
50.0
100
AcDbPoint
 10
7026.195288608608
 20
5952.919036112877
 30
0.0
  0
POINT
  5
2154C
330
1DA44
100
AcDbEntity
  8
DEFPOINTS
 62
     0
 48
50.0
100
AcDbPoint
 10
7219.154516945171
 20
5952.919036112877
 30
0.0
  0
ENDBLK
  5
1DA50
330
1DA44
100
AcDbEntity
  8
0
 48
50.0
100
AcDbBlockEnd
  0
BLOCK
  5
1DA5C
330
1DA51
100
AcDbEntity
  8
0
 48
50.0
100
AcDbBlockBegin
  2
*D2
 70
     1
 10
0.0
 20
0.0
 30
0.0
  3
*D2
  1

  0
LINE
  5
2154D
330
1DA51
100
AcDbEntity
  8
寸法
 62
     0
 48
50.0
370
    -2
100
AcDbLine
 10
7046.195288608608
 20
5842.919036112876
 30
0.0
 11
7279.154516945169
 21
5842.919036112876
 31
0.0
  0
LINE
  5
2154E
330
1DA51
100
AcDbEntity
  8
寸法
 62
     0
 48
50.0
370
    -2
100
AcDbLine
 10
7100.798057431164
 20
5647.919036112876
 30
0.0
 11
7279.154516945169
 21
5647.919036112876
 31
0.0
  0
LINE
  5
2154F
330
1DA51
100
AcDbEntity
  8
寸法
 62
     0
 48
50.0
370
    -2
100
AcDbLine
 10
7219.15451694517
 20
5842.919036112876
 30
0.0
 11
7219.15451694517
 21
5647.919036112876
 31
0.0
  0
LINE
  5
21550
330
1DA51
100
AcDbEntity
  8
寸法
 62
     0
 48
50.0
370
    -2
100
AcDbLine
 10
7219.15451694517
 20
5647.919036112876
 30
0.0
 11
7219.15451694517
 21
5270.529153705084
 31
0.0
  0
INSERT
  5
21551
330
1DA51
100
AcDbEntity
  8
寸法
 62
     0
 48
50.0
370
    -2
100
AcDbBlockReference
  2
_DOTSMALL
 10
7219.15451694517
 20
5842.919036112876
 30
0.0
 41
100.0
 42
100.0
 43
100.0
 50
90.0
  0
INSERT
  5
21552
330
1DA51
100
AcDbEntity
  8
寸法
 62
     0
 48
50.0
370
    -2
100
AcDbBlockReference
  2
_DOTSMALL
 10
7219.15451694517
 20
5647.919036112876
 30
0.0
 41
100.0
 42
100.0
 43
100.0
 50
270.0
  0
MTEXT
  5
21553
330
1DA51
100
AcDbEntity
  8
寸法
 62
     7
 48
50.0
100
AcDbMText
 10
7119.154516945169
 20
5409.224094908982
 30
0.0
 40
120.0
 41
0.0
 71
     5
 72
     1
  1
\A1;195
  7
STYLE1
 11
0.0000000000000001
 21
1.0
 31
0.0
 73
     1
 44
1.0
1001
ACAD
1000
MTEXTBEGIN
1070
    73
1070
     1
1070
    44
1040
1.0
1070
    74
1070
     0
1000
MTEXTEND
  0
POINT
  5
21554
330
1DA51
100
AcDbEntity
  8
DEFPOINTS
 62
     0
 48
50.0
100
AcDbPoint
 10
7026.195288608608
 20
5842.919036112876
 30
0.0
  0
POINT
  5
21555
330
1DA51
100
AcDbEntity
  8
DEFPOINTS
 62
     0
 48
50.0
100
AcDbPoint
 10
7080.798057431164
 20
5647.919036112876
 30
0.0
  0
POINT
  5
21556
330
1DA51
100
AcDbEntity
  8
DEFPOINTS
 62
     0
 48
50.0
100
AcDbPoint
 10
7219.15451694517
 20
5647.919036112876
 30
0.0
  0
ENDBLK
  5
1DA5D
330
1DA51
100
AcDbEntity
  8
0
 48
50.0
100
AcDbBlockEnd
  0
BLOCK
  5
1DA98
330
1DA8E
100
AcDbEntity
  8
0
 48
50.0
100
AcDbBlockBegin
  2
*D3
 70
     1
 10
0.0
 20
0.0
 30
0.0
  3
*D3
  1

  0
LINE
  5
212B6
330
1DA8E
100
AcDbEntity
  8
寸法
 62
     0
 48
50.0
370
    -2
100
AcDbLine
 10
6849.195288608608
 20
6979.919036112841
 30
0.0
 11
6180.253022594786
 21
6979.919036112841
 31
0.0
  0
LINE
  5
212B7
330
1DA8E
100
AcDbEntity
  8
寸法
 62
     0
 48
50.0
370
    -2
100
AcDbLine
 10
6849.195288608616
 20
5845.919036112861
 30
0.0
 11
6180.253022594786
 21
5845.919036112861
 31
0.0
  0
LINE
  5
212B8
330
1DA8E
100
AcDbEntity
  8
寸法
 62
     0
 48
50.0
370
    -2
100
AcDbLine
 10
6240.253022594787
 20
6979.919036112841
 30
0.0
 11
6240.253022594785
 21
5845.919036112861
 31
0.0
  0
INSERT
  5
212B9
330
1DA8E
100
AcDbEntity
  8
寸法
 62
     0
 48
50.0
370
    -2
100
AcDbBlockReference
  2
_DOTSMALL
 10
6240.253022594787
 20
6979.919036112841
 30
0.0
 41
100.0
 42
100.0
 43
100.0
 50
90.0
  0
INSERT
  5
212BA
330
1DA8E
100
AcDbEntity
  8
寸法
 62
     0
 48
50.0
370
    -2
100
AcDbBlockReference
  2
_DOTSMALL
 10
6240.253022594785
 20
5845.919036112861
 30
0.0
 41
100.0
 42
100.0
 43
100.0
 50
270.0
  0
MTEXT
  5
212BB
330
1DA8E
100
AcDbEntity
  8
寸法
 62
     7
 48
50.0
100
AcDbMText
 10
6140.253022594785
 20
6469.622096454681
 30
0.0
 40
120.0
 41
0.0
 71
     5
 72
     1
  1
\A1;1134
  7
STYLE1
 11
0.0000000000000001
 21
1.0
 31
0.0
 73
     1
 44
1.0
1001
ACAD
1000
MTEXTBEGIN
1070
    73
1070
     1
1070
    44
1040
1.0
1070
    74
1070
     0
1000
MTEXTEND
  0
POINT
  5
212BC
330
1DA8E
100
AcDbEntity
  8
DEFPOINTS
 62
     0
 48
50.0
100
AcDbPoint
 10
6869.195288608607
 20
6979.919036112841
 30
0.0
  0
POINT
  5
212BD
330
1DA8E
100
AcDbEntity
  8
DEFPOINTS
 62
     0
 48
50.0
100
AcDbPoint
 10
6869.195288608614
 20
5845.919036112861
 30
0.0
  0
POINT
  5
212BE
330
1DA8E
100
AcDbEntity
  8
DEFPOINTS
 62
     0
 48
50.0
100
AcDbPoint
 10
6240.253022594785
 20
5845.919036112861
 30
0.0
  0
ENDBLK
  5
1DA99
330
1DA8E
100
AcDbEntity
  8
0
 48
50.0
100
AcDbBlockEnd
  0
BLOCK
  5
1DAA3
330
1DA9A
100
AcDbEntity
  8
0
 48
50.0
100
AcDbBlockBegin
  2
*D4
 70
     1
 10
0.0
 20
0.0
 30
0.0
  3
*D4
  1

  0
LINE
  5
2124A
330
1DA9A
100
AcDbEntity
  8
寸法
 62
     0
 48
50.0
370
    -2
100
AcDbLine
 10
6776.195288608608
 20
7102.91903611284
 30
0.0
 11
5863.566541514516
 21
7102.919036112841
 31
0.0
  0
LINE
  5
2124B
330
1DA9A
100
AcDbEntity
  8
寸法
 62
     0
 48
50.0
370
    -2
100
AcDbLine
 10
6776.195288608608
 20
5722.919036112859
 30
0.0
 11
5863.566541514515
 21
5722.91903611286
 31
0.0
  0
LINE
  5
2124C
330
1DA9A
100
AcDbEntity
  8
寸法
 62
     0
 48
50.0
370
    -2
100
AcDbLine
 10
5923.566541514516
 20
7102.919036112841
 30
0.0
 11
5923.566541514515
 21
5722.91903611286
 31
0.0
  0
INSERT
  5
2124D
330
1DA9A
100
AcDbEntity
  8
寸法
 62
     0
 48
50.0
370
    -2
100
AcDbBlockReference
  2
_DOTSMALL
 10
5923.566541514516
 20
7102.919036112841
 30
0.0
 41
100.0
 42
100.0
 43
100.0
 50
90.0
  0
INSERT
  5
2124E
330
1DA9A
100
AcDbEntity
  8
寸法
 62
     0
 48
50.0
370
    -2
100
AcDbBlockReference
  2
_DOTSMALL
 10
5923.566541514515
 20
5722.91903611286
 30
0.0
 41
100.0
 42
100.0
 43
100.0
 50
270.0
  0
MTEXT
  5
2124F
330
1DA9A
100
AcDbEntity
  8
寸法
 62
     7
 48
50.0
100
AcDbMText
 10
5823.566541514514
 20
6466.94743868655
 30
0.0
 40
120.0
 41
0.0
 71
     5
 72
     1
  1
\A1;1380
  7
STYLE1
 11
0.0000000000000001
 21
1.0
 31
0.0
 73
     1
 44
1.0
1001
ACAD
1000
MTEXTBEGIN
1070
    73
1070
     1
1070
    44
1040
1.0
1070
    74
1070
     0
1000
MTEXTEND
  0
POINT
  5
21250
330
1DA9A
100
AcDbEntity
  8
DEFPOINTS
 62
     0
 48
50.0
100
AcDbPoint
 10
6796.195288608608
 20
7102.91903611284
 30
0.0
  0
POINT
  5
21251
330
1DA9A
100
AcDbEntity
  8
DEFPOINTS
 62
     0
 48
50.0
100
AcDbPoint
 10
6796.195288608608
 20
5722.919036112859
 30
0.0
  0
POINT
  5
21252
330
1DA9A
100
AcDbEntity
  8
DEFPOINTS
 62
     0
 48
50.0
100
AcDbPoint
 10
5923.566541514515
 20
5722.91903611286
 30
0.0
  0
ENDBLK
  5
1DAA4
330
1DA9A
100
AcDbEntity
  8
0
 48
50.0
100
AcDbBlockEnd
  0
BLOCK
  5
1DAB0
330
1DAA5
100
AcDbEntity
  8
0
 48
50.0
100
AcDbBlockBegin
  2
*D5
 70
     1
 10
0.0
 20
0.0
 30
0.0
  3
*D5
  1

  0
LINE
  5
212AC
330
1DAA5
100
AcDbEntity
  8
寸法
 62
     0
 48
50.0
370
    -2
100
AcDbLine
 10
6849.195288608616
 20
5845.919036112861
 30
0.0
 11
6180.253022594786
 21
5845.919036112861
 31
0.0
  0
LINE
  5
212AD
330
1DAA5
100
AcDbEntity
  8
寸法
 62
     0
 48
50.0
370
    -2
100
AcDbLine
 10
6776.195288608608
 20
5722.919036112859
 30
0.0
 11
6180.253022594786
 21
5722.919036112859
 31
0.0
  0
LINE
  5
212AE
330
1DAA5
100
AcDbEntity
  8
寸法
 62
     0
 48
50.0
370
    -2
100
AcDbLine
 10
6240.253022594785
 20
5845.919036112861
 30
0.0
 11
6240.253022594785
 21
5722.919036112859
 31
0.0
  0
LINE
  5
212AF
330
1DAA5
100
AcDbEntity
  8
寸法
 62
     0
 48
50.0
370
    -2
100
AcDbLine
 10
6240.253022594785
 20
5722.919036112859
 30
0.0
 11
6240.253022594785
 21
5345.948473364382
 31
0.0
  0
INSERT
  5
212B0
330
1DAA5
100
AcDbEntity
  8
寸法
 62
     0
 48
50.0
370
    -2
100
AcDbBlockReference
  2
_DOTSMALL
 10
6240.253022594785
 20
5845.919036112861
 30
0.0
 41
100.0
 42
100.0
 43
100.0
 50
90.0
  0
INSERT
  5
212B1
330
1DAA5
100
AcDbEntity
  8
寸法
 62
     0
 48
50.0
370
    -2
100
AcDbBlockReference
  2
_DOTSMALL
 10
6240.253022594785
 20
5722.919036112859
 30
0.0
 41
100.0
 42
100.0
 43
100.0
 50
270.0
  0
MTEXT
  5
212B2
330
1DAA5
100
AcDbEntity
  8
寸法
 62
     7
 48
50.0
100
AcDbMText
 10
6140.241211571163
 20
5484.433754738623
 30
0.0
 40
120.0
 41
0.0
 71
     5
 72
     1
  1
\A1;123
  7
STYLE1
 11
0.0000000000000001
 21
1.0
 31
0.0
 73
     1
 44
1.0
1001
ACAD
1000
MTEXTBEGIN
1070
    73
1070
     1
1070
    44
1040
1.0
1070
    74
1070
     0
1000
MTEXTEND
  0
POINT
  5
212B3
330
1DAA5
100
AcDbEntity
  8
DEFPOINTS
 62
     0
 48
50.0
100
AcDbPoint
 10
6869.195288608614
 20
5845.919036112861
 30
0.0
  0
POINT
  5
212B4
330
1DAA5
100
AcDbEntity
  8
DEFPOINTS
 62
     0
 48
50.0
100
AcDbPoint
 10
6796.195288608608
 20
5722.919036112859
 30
0.0
  0
POINT
  5
212B5
330
1DAA5
100
AcDbEntity
  8
DEFPOINTS
 62
     0
 48
50.0
100
AcDbPoint
 10
6240.253022594785
 20
5722.919036112859
 30
0.0
  0
ENDBLK
  5
1DAB1
330
1DAA5
100
AcDbEntity
  8
0
 48
50.0
100
AcDbBlockEnd
  0
BLOCK
  5
1DABC
330
1DAB2
100
AcDbEntity
  8
0
 48
50.0
100
AcDbBlockBegin
  2
*D6
 70
     1
 10
0.0
 20
0.0
 30
0.0
  3
*D6
  1

  0
LINE
  5
21235
330
1DAB2
100
AcDbEntity
  8
寸法
 62
     0
 48
50.0
370
    -2
100
AcDbLine
 10
6776.195288608608
 20
5722.919036112859
 30
0.0
 11
5863.566541514513
 21
5722.91903611286
 31
0.0
  0
LINE
  5
21236
330
1DAB2
100
AcDbEntity
  8
寸法
 62
     0
 48
50.0
370
    -2
100
AcDbLine
 10
6220.253022594783
 20
5667.919036112859
 30
0.0
 11
5863.566541514513
 21
5667.91903611286
 31
0.0
  0
LINE
  5
21237
330
1DAB2
100
AcDbEntity
  8
寸法
 62
     0
 48
50.0
370
    -2
100
AcDbLine
 10
5923.566541514514
 20
5722.91903611286
 30
0.0
 11
5923.566541514514
 21
5822.91903611286
 31
0.0
  0
LINE
  5
21238
330
1DAB2
100
AcDbEntity
  8
寸法
 62
     0
 48
50.0
370
    -2
100
AcDbLine
 10
5923.566541514514
 20
5667.91903611286
 30
0.0
 11
5923.566541514514
 21
5567.91903611286
 31
0.0
  0
LINE
  5
21239
330
1DAB2
100
AcDbEntity
  8
寸法
 62
     0
 48
50.0
370
    -2
100
AcDbLine
 10
5923.566541514514
 20
5722.91903611286
 30
0.0
 11
5923.566541514514
 21
5667.91903611286
 31
0.0
  0
INSERT
  5
2123A
330
1DAB2
100
AcDbEntity
  8
寸法
 62
     0
 48
50.0
370
    -2
100
AcDbBlockReference
  2
_DOTSMALL
 10
5923.566541514514
 20
5722.91903611286
 30
0.0
 41
100.0
 42
100.0
 43
100.0
 50
270.0
  0
INSERT
  5
2123B
330
1DAB2
100
AcDbEntity
  8
寸法
 62
     0
 48
50.0
370
    -2
100
AcDbBlockReference
  2
_DOTSMALL
 10
5923.566541514514
 20
5667.91903611286
 30
0.0
 41
100.0
 42
100.0
 43
100.0
 50
90.0
  0
MTEXT
  5
2123C
330
1DAB2
100
AcDbEntity
  8
寸法
 62
     7
 48
50.0
100
AcDbMText
 10
5823.566541514512
 20
5695.419036112861
 30
0.0
 40
120.0
 41
0.0
 71
     5
 72
     1
  1
\A1;b
  7
STYLE1
 11
0.0000000000000001
 21
1.0
 31
0.0
 73
     1
 44
1.0
1001
ACAD
1000
MTEXTBEGIN
1070
    73
1070
     1
1070
    44
1040
1.0
1070
    74
1070
     0
1000
MTEXTEND
  0
POINT
  5
2123D
330
1DAB2
100
AcDbEntity
  8
DEFPOINTS
 62
     0
 48
50.0
100
AcDbPoint
 10
6796.195288608608
 20
5722.919036112859
 30
0.0
  0
POINT
  5
2123E
330
1DAB2
100
AcDbEntity
  8
DEFPOINTS
 62
     0
 48
50.0
100
AcDbPoint
 10
6240.253022594783
 20
5667.919036112859
 30
0.0
  0
POINT
  5
2123F
330
1DAB2
100
AcDbEntity
  8
DEFPOINTS
 62
     0
 48
50.0
100
AcDbPoint
 10
5923.566541514514
 20
5667.91903611286
 30
0.0
  0
ENDBLK
  5
1DABD
330
1DAB2
100
AcDbEntity
  8
0
 48
50.0
100
AcDbBlockEnd
  0
BLOCK
  5
1DAC9
330
1DABE
100
AcDbEntity
  8
0
 48
50.0
100
AcDbBlockBegin
  2
*D7
 70
     1
 10
0.0
 20
0.0
 30
0.0
  3
*D7
  1

  0
LINE
  5
2122B
330
1DABE
100
AcDbEntity
  8
寸法
 62
     0
 48
50.0
370
    -2
100
AcDbLine
 10
6776.195288608608
 20
7102.919036112841
 30
0.0
 11
6180.253022594786
 21
7102.919036112841
 31
0.0
  0
LINE
  5
2122C
330
1DABE
100
AcDbEntity
  8
寸法
 62
     0
 48
50.0
370
    -2
100
AcDbLine
 10
6849.195288608608
 20
6979.919036112841
 30
0.0
 11
6180.253022594786
 21
6979.919036112841
 31
0.0
  0
LINE
  5
2122D
330
1DABE
100
AcDbEntity
  8
寸法
 62
     0
 48
50.0
370
    -2
100
AcDbLine
 10
6240.253022594787
 20
6979.919036112841
 30
0.0
 11
6240.253022594787
 21
7102.919036112841
 31
0.0
  0
LINE
  5
2122E
330
1DABE
100
AcDbEntity
  8
寸法
 62
     0
 48
50.0
370
    -2
100
AcDbLine
 10
6240.253022594787
 20
7102.919036112841
 30
0.0
 11
6240.253022594787
 21
7479.889598861318
 31
0.0
  0
INSERT
  5
2122F
330
1DABE
100
AcDbEntity
  8
寸法
 62
     0
 48
50.0
370
    -2
100
AcDbBlockReference
  2
_DOTSMALL
 10
6240.253022594787
 20
6979.919036112841
 30
0.0
 41
100.0
 42
100.0
 43
100.0
 50
270.0
  0
INSERT
  5
21230
330
1DABE
100
AcDbEntity
  8
寸法
 62
     0
 48
50.0
370
    -2
100
AcDbBlockReference
  2
_DOTSMALL
 10
6240.253022594787
 20
7102.919036112841
 30
0.0
 41
100.0
 42
100.0
 43
100.0
 50
90.0
  0
MTEXT
  5
21231
330
1DABE
100
AcDbEntity
  8
寸法
 62
     7
 48
50.0
100
AcDbMText
 10
6140.241211571163
 20
7341.404317487081
 30
0.0
 40
120.0
 41
0.0
 71
     5
 72
     1
  1
\A1;123
  7
STYLE1
 11
0.0000000000000001
 21
1.0
 31
0.0
 73
     1
 44
1.0
1001
ACAD
1000
MTEXTBEGIN
1070
    73
1070
     1
1070
    44
1040
1.0
1070
    74
1070
     0
1000
MTEXTEND
  0
POINT
  5
21232
330
1DABE
100
AcDbEntity
  8
DEFPOINTS
 62
     0
 48
50.0
100
AcDbPoint
 10
6796.195288608608
 20
7102.919036112841
 30
0.0
  0
POINT
  5
21233
330
1DABE
100
AcDbEntity
  8
DEFPOINTS
 62
     0
 48
50.0
100
AcDbPoint
 10
6869.195288608607
 20
6979.919036112841
 30
0.0
  0
POINT
  5
21234
330
1DABE
100
AcDbEntity
  8
DEFPOINTS
 62
     0
 48
50.0
100
AcDbPoint
 10
6240.253022594787
 20
6979.919036112841
 30
0.0
  0
ENDBLK
  5
1DACA
330
1DABE
100
AcDbEntity
  8
0
 48
50.0
100
AcDbBlockEnd
  0
BLOCK
  5
1DAD7
330
1DACB
100
AcDbEntity
  8
0
 48
50.0
100
AcDbBlockBegin
  2
*D8
 70
     1
 10
0.0
 20
0.0
 30
0.0
  3
*D8
  1

  0
LINE
  5
21220
330
1DACB
100
AcDbEntity
  8
寸法
 62
     0
 48
50.0
370
    -2
100
AcDbLine
 10
6220.253022594783
 20
7177.919036112841
 30
0.0
 11
5863.566541514516
 21
7177.919036112843
 31
0.0
  0
LINE
  5
21221
330
1DACB
100
AcDbEntity
  8
寸法
 62
     0
 48
50.0
370
    -2
100
AcDbLine
 10
6776.195288608608
 20
7102.919036112841
 30
0.0
 11
5863.566541514516
 21
7102.919036112843
 31
0.0
  0
LINE
  5
21222
330
1DACB
100
AcDbEntity
  8
寸法
 62
     0
 48
50.0
370
    -2
100
AcDbLine
 10
5923.566541514516
 20
7177.919036112843
 30
0.0
 11
5923.566541514516
 21
7277.919036112843
 31
0.0
  0
LINE
  5
21223
330
1DACB
100
AcDbEntity
  8
寸法
 62
     0
 48
50.0
370
    -2
100
AcDbLine
 10
5923.566541514516
 20
7102.919036112843
 30
0.0
 11
5923.566541514516
 21
7002.919036112842
 31
0.0
  0
LINE
  5
21224
330
1DACB
100
AcDbEntity
  8
寸法
 62
     0
 48
50.0
370
    -2
100
AcDbLine
 10
5923.566541514516
 20
7177.919036112843
 30
0.0
 11
5923.566541514516
 21
7102.919036112843
 31
0.0
  0
INSERT
  5
21225
330
1DACB
100
AcDbEntity
  8
寸法
 62
     0
 48
50.0
370
    -2
100
AcDbBlockReference
  2
_DOTSMALL
 10
5923.566541514516
 20
7177.919036112843
 30
0.0
 41
100.0
 42
100.0
 43
100.0
 50
270.0
  0
INSERT
  5
21226
330
1DACB
100
AcDbEntity
  8
寸法
 62
     0
 48
50.0
370
    -2
100
AcDbBlockReference
  2
_DOTSMALL
 10
5923.566541514516
 20
7102.919036112843
 30
0.0
 41
100.0
 42
100.0
 43
100.0
 50
90.0
  0
MTEXT
  5
21227
330
1DACB
100
AcDbEntity
  8
寸法
 62
     7
 48
50.0
100
AcDbMText
 10
5823.566541514514
 20
7140.419036112843
 30
0.0
 40
120.0
 41
0.0
 71
     5
 72
     1
  1
\A1;c
  7
STYLE1
 11
0.0000000000000001
 21
1.0
 31
0.0
 73
     1
 44
1.0
1001
ACAD
1000
MTEXTBEGIN
1070
    73
1070
     1
1070
    44
1040
1.0
1070
    74
1070
     0
1000
MTEXTEND
  0
POINT
  5
21228
330
1DACB
100
AcDbEntity
  8
DEFPOINTS
 62
     0
 48
50.0
100
AcDbPoint
 10
6240.253022594783
 20
7177.919036112841
 30
0.0
  0
POINT
  5
21229
330
1DACB
100
AcDbEntity
  8
DEFPOINTS
 62
     0
 48
50.0
100
AcDbPoint
 10
6796.195288608608
 20
7102.919036112841
 30
0.0
  0
POINT
  5
2122A
330
1DACB
100
AcDbEntity
  8
DEFPOINTS
 62
     0
 48
50.0
100
AcDbPoint
 10
5923.566541514516
 20
7102.919036112843
 30
0.0
  0
ENDBLK
  5
1DAD8
330
1DACB
100
AcDbEntity
  8
0
 48
50.0
100
AcDbBlockEnd
  0
BLOCK
  5
1DAFE
330
1DAF3
100
AcDbEntity
  8
0
 48
50.0
100
AcDbBlockBegin
  2
*D9
 70
     1
 10
0.0
 20
0.0
 30
0.0
  3
*D9
  1

  0
LINE
  5
215BD
330
1DAF3
100
AcDbEntity
  8
寸法
 62
     0
 48
50.0
370
    -2
100
AcDbLine
 10
9206.195288608608
 20
5972.919036112863
 30
0.0
 11
9206.195288608608
 21
6288.900535609748
 31
0.0
  0
LINE
  5
215BE
330
1DAF3
100
AcDbEntity
  8
寸法
 62
     0
 48
50.0
370
    -2
100
AcDbLine
 10
9316.195288608607
 20
5972.919036112863
 30
0.0
 11
9316.195288608607
 21
6288.900535609748
 31
0.0
  0
LINE
  5
215BF
330
1DAF3
100
AcDbEntity
  8
寸法
 62
     0
 48
50.0
370
    -2
100
AcDbLine
 10
9316.195288608607
 20
6228.900535609747
 30
0.0
 11
9206.195288608608
 21
6228.900535609747
 31
0.0
  0
LINE
  5
215C0
330
1DAF3
100
AcDbEntity
  8
寸法
 62
     0
 48
50.0
370
    -2
100
AcDbLine
 10
9206.195288608608
 20
6228.900535609747
 30
0.0
 11
8858.100800419631
 21
6228.900535609747
 31
0.0
  0
INSERT
  5
215C1
330
1DAF3
100
AcDbEntity
  8
寸法
 62
     0
 48
50.0
370
    -2
100
AcDbBlockReference
  2
_DOTSMALL
 10
9316.195288608607
 20
6228.900535609747
 30
0.0
 41
100.0
 42
100.0
 43
100.0
  0
INSERT
  5
215C2
330
1DAF3
100
AcDbEntity
  8
寸法
 62
     0
 48
50.0
370
    -2
100
AcDbBlockReference
  2
_DOTSMALL
 10
9206.195288608608
 20
6228.900535609747
 30
0.0
 41
100.0
 42
100.0
 43
100.0
 50
180.0
  0
MTEXT
  5
215C3
330
1DAF3
100
AcDbEntity
  8
寸法
 62
     7
 48
50.0
100
AcDbMText
 10
8982.148044514119
 20
6328.900535609747
 30
0.0
 40
120.0
 41
0.0
 71
     5
 72
     1
  1
\A1;110
  7
STYLE1
 73
     1
 44
1.0
1001
ACAD
1000
MTEXTBEGIN
1070
    73
1070
     1
1070
    44
1040
1.0
1070
    74
1070
     0
1000
MTEXTEND
  0
POINT
  5
215C4
330
1DAF3
100
AcDbEntity
  8
DEFPOINTS
 62
     0
 48
50.0
100
AcDbPoint
 10
9206.195288608608
 20
5952.919036112863
 30
0.0
  0
POINT
  5
215C5
330
1DAF3
100
AcDbEntity
  8
DEFPOINTS
 62
     0
 48
50.0
100
AcDbPoint
 10
9316.195288608607
 20
5952.919036112863
 30
0.0
  0
POINT
  5
215C6
330
1DAF3
100
AcDbEntity
  8
DEFPOINTS
 62
     0
 48
50.0
100
AcDbPoint
 10
9316.195288608607
 20
6228.900535609747
 30
0.0
  0
ENDBLK
  5
1DAFF
330
1DAF3
100
AcDbEntity
  8
0
 48
50.0
100
AcDbBlockEnd
  0
BLOCK
  5
1DB0B
330
1DB00
100
AcDbEntity
  8
0
 48
50.0
100
AcDbBlockBegin
  2
*D10
 70
     1
 10
0.0
 20
0.0
 30
0.0
  3
*D10
  1

  0
LINE
  5
2160E
330
1DB00
100
AcDbEntity
  8
寸法
 62
     0
 48
50.0
370
    -2
100
AcDbLine
 10
9186.195288608606
 20
6982.919036112839
 30
0.0
 11
8965.895991981685
 21
6982.919036112839
 31
0.0
  0
LINE
  5
2160F
330
1DB00
100
AcDbEntity
  8
寸法
 62
     0
 48
50.0
370
    -2
100
AcDbLine
 10
9186.195288608606
 20
6872.91903611284
 30
0.0
 11
8965.895991981685
 21
6872.91903611284
 31
0.0
  0
LINE
  5
21610
330
1DB00
100
AcDbEntity
  8
寸法
 62
     0
 48
50.0
370
    -2
100
AcDbLine
 10
9025.895991981684
 20
6982.919036112839
 30
0.0
 11
9025.895991981684
 21
6872.91903611284
 31
0.0
  0
LINE
  5
21611
330
1DB00
100
AcDbEntity
  8
寸法
 62
     0
 48
50.0
370
    -2
100
AcDbLine
 10
9025.895991981684
 20
6872.91903611284
 30
0.0
 11
9025.895991981684
 21
6524.824547923863
 31
0.0
  0
INSERT
  5
21612
330
1DB00
100
AcDbEntity
  8
寸法
 62
     0
 48
50.0
370
    -2
100
AcDbBlockReference
  2
_DOTSMALL
 10
9025.895991981684
 20
6982.919036112839
 30
0.0
 41
100.0
 42
100.0
 43
100.0
 50
90.0
  0
INSERT
  5
21613
330
1DB00
100
AcDbEntity
  8
寸法
 62
     0
 48
50.0
370
    -2
100
AcDbBlockReference
  2
_DOTSMALL
 10
9025.895991981684
 20
6872.91903611284
 30
0.0
 41
100.0
 42
100.0
 43
100.0
 50
270.0
  0
MTEXT
  5
21614
330
1DB00
100
AcDbEntity
  8
寸法
 62
     7
 48
50.0
100
AcDbMText
 10
8925.895991981683
 20
6648.871792018351
 30
0.0
 40
120.0
 41
0.0
 71
     5
 72
     1
  1
\A1;110
  7
STYLE1
 11
0.0000000000000001
 21
1.0
 31
0.0
 73
     1
 44
1.0
1001
ACAD
1000
MTEXTBEGIN
1070
    73
1070
     1
1070
    44
1040
1.0
1070
    74
1070
     0
1000
MTEXTEND
  0
POINT
  5
21615
330
1DB00
100
AcDbEntity
  8
DEFPOINTS
 62
     0
 48
50.0
100
AcDbPoint
 10
9206.195288608608
 20
6982.919036112839
 30
0.0
  0
POINT
  5
21616
330
1DB00
100
AcDbEntity
  8
DEFPOINTS
 62
     0
 48
50.0
100
AcDbPoint
 10
9206.195288608608
 20
6872.91903611284
 30
0.0
  0
POINT
  5
21617
330
1DB00
100
AcDbEntity
  8
DEFPOINTS
 62
     0
 48
50.0
100
AcDbPoint
 10
9025.895991981684
 20
6872.91903611284
 30
0.0
  0
ENDBLK
  5
1DB0C
330
1DB00
100
AcDbEntity
  8
0
 48
50.0
100
AcDbBlockEnd
  0
BLOCK
  5
1DB25
330
1DB1A
100
AcDbEntity
  8
0
 48
50.0
100
AcDbBlockBegin
  2
*D11
 70
     1
 10
0.0
 20
0.0
 30
0.0
  3
*D11
  1

  0
LINE
  5
21618
330
1DB1A
100
AcDbEntity
  8
寸法
 62
     0
 48
50.0
370
    -2
100
AcDbLine
 10
9091.804286152772
 20
7102.919036112846
 30
0.0
 11
8965.895991981685
 21
7102.919036112846
 31
0.0
  0
LINE
  5
21619
330
1DB1A
100
AcDbEntity
  8
寸法
 62
     0
 48
50.0
370
    -2
100
AcDbLine
 10
9186.195288608606
 20
6982.919036112839
 30
0.0
 11
8965.895991981685
 21
6982.919036112839
 31
0.0
  0
LINE
  5
2161A
330
1DB1A
100
AcDbEntity
  8
寸法
 62
     0
 48
50.0
370
    -2
100
AcDbLine
 10
9025.895991981684
 20
6982.919036112839
 30
0.0
 11
9025.895991981684
 21
7102.919036112846
 31
0.0
  0
LINE
  5
2161B
330
1DB1A
100
AcDbEntity
  8
寸法
 62
     0
 48
50.0
370
    -2
100
AcDbLine
 10
9025.895991981684
 20
7102.919036112846
 30
0.0
 11
9025.895991981684
 21
7475.013524301822
 31
0.0
  0
INSERT
  5
2161C
330
1DB1A
100
AcDbEntity
  8
寸法
 62
     0
 48
50.0
370
    -2
100
AcDbBlockReference
  2
_DOTSMALL
 10
9025.895991981684
 20
6982.919036112839
 30
0.0
 41
100.0
 42
100.0
 43
100.0
 50
270.0
  0
INSERT
  5
2161D
330
1DB1A
100
AcDbEntity
  8
寸法
 62
     0
 48
50.0
370
    -2
100
AcDbBlockReference
  2
_DOTSMALL
 10
9025.895991981684
 20
7102.919036112846
 30
0.0
 41
100.0
 42
100.0
 43
100.0
 50
90.0
  0
MTEXT
  5
2161E
330
1DB1A
100
AcDbEntity
  8
寸法
 62
     7
 48
50.0
100
AcDbMText
 10
8925.884180958062
 20
7338.966280207336
 30
0.0
 40
120.0
 41
0.0
 71
     5
 72
     1
  1
\A1;120
  7
STYLE1
 11
0.0000000000000001
 21
1.0
 31
0.0
 73
     1
 44
1.0
1001
ACAD
1000
MTEXTBEGIN
1070
    73
1070
     1
1070
    44
1040
1.0
1070
    74
1070
     0
1000
MTEXTEND
  0
POINT
  5
2161F
330
1DB1A
100
AcDbEntity
  8
DEFPOINTS
 62
     0
 48
50.0
100
AcDbPoint
 10
9111.804286152773
 20
7102.919036112846
 30
0.0
  0
POINT
  5
21620
330
1DB1A
100
AcDbEntity
  8
DEFPOINTS
 62
     0
 48
50.0
100
AcDbPoint
 10
9206.195288608608
 20
6982.919036112839
 30
0.0
  0
POINT
  5
21621
330
1DB1A
100
AcDbEntity
  8
DEFPOINTS
 62
     0
 48
50.0
100
AcDbPoint
 10
9025.895991981684
 20
6982.919036112839
 30
0.0
  0
ENDBLK
  5
1DB26
330
1DB1A
100
AcDbEntity
  8
0
 48
50.0
100
AcDbBlockEnd
  0
BLOCK
  5
200C1
330
200B5
100
AcDbEntity
  8
0
 48
50.0
100
AcDbBlockBegin
  2
*D12
 70
     1
 10
0.0
 20
0.0
 30
0.0
  3
*D12
  1

  0
LINE
  5
21513
330
200B5
100
AcDbEntity
  8
寸法
 62
     0
 48
50.0
370
    -2
100
AcDbLine
 10
9436.195288608606
 20
5969.984076503468
 30
0.0
 11
9436.195288608606
 21
6288.900535609748
 31
0.0
  0
LINE
  5
21514
330
200B5
100
AcDbEntity
  8
寸法
 62
     0
 48
50.0
370
    -2
100
AcDbLine
 10
9316.195288608607
 20
5972.919036112863
 30
0.0
 11
9316.195288608607
 21
6288.900535609748
 31
0.0
  0
LINE
  5
21515
330
200B5
100
AcDbEntity
  8
寸法
 62
     0
 48
50.0
370
    -2
100
AcDbLine
 10
9316.195288608607
 20
6228.900535609747
 30
0.0
 11
9436.195288608606
 21
6228.900535609747
 31
0.0
  0
LINE
  5
21516
330
200B5
100
AcDbEntity
  8
寸法
 62
     0
 48
50.0
370
    -2
100
AcDbLine
 10
9436.195288608606
 20
6228.900535609747
 30
0.0
 11
9808.289776797586
 21
6228.900535609747
 31
0.0
  0
INSERT
  5
21517
330
200B5
100
AcDbEntity
  8
寸法
 62
     0
 48
50.0
370
    -2
100
AcDbBlockReference
  2
_DOTSMALL
 10
9316.195288608607
 20
6228.900535609747
 30
0.0
 41
100.0
 42
100.0
 43
100.0
 50
180.0
  0
INSERT
  5
21518
330
200B5
100
AcDbEntity
  8
寸法
 62
     0
 48
50.0
370
    -2
100
AcDbBlockReference
  2
_DOTSMALL
 10
9436.195288608606
 20
6228.900535609747
 30
0.0
 41
100.0
 42
100.0
 43
100.0
  0
MTEXT
  5
21519
330
200B5
100
AcDbEntity
  8
寸法
 62
     7
 48
50.0
100
AcDbMText
 10
9672.242532703096
 20
6328.912346633369
 30
0.0
 40
120.0
 41
0.0
 71
     5
 72
     1
  1
\A1;120
  7
STYLE1
 73
     1
 44
1.0
1001
ACAD
1000
MTEXTBEGIN
1070
    73
1070
     1
1070
    44
1040
1.0
1070
    74
1070
     0
1000
MTEXTEND
  0
POINT
  5
2151A
330
200B5
100
AcDbEntity
  8
DEFPOINTS
 62
     0
 48
50.0
100
AcDbPoint
 10
9436.195288608606
 20
5949.984076503469
 30
0.0
  0
POINT
  5
2151B
330
200B5
100
AcDbEntity
  8
DEFPOINTS
 62
     0
 48
50.0
100
AcDbPoint
 10
9316.195288608607
 20
5952.919036112863
 30
0.0
  0
POINT
  5
2151C
330
200B5
100
AcDbEntity
  8
DEFPOINTS
 62
     0
 48
50.0
100
AcDbPoint
 10
9316.195288608607
 20
6228.900535609747
 30
0.0
  0
ENDBLK
  5
200C2
330
200B5
100
AcDbEntity
  8
0
 48
50.0
100
AcDbBlockEnd
  0
BLOCK
  5
201A6
330
2019C
100
AcDbEntity
  8
0
 48
50.0
100
AcDbBlockBegin
  2
*D13
 70
     1
 10
0.0
 20
0.0
 30
0.0
  3
*D13
  1

  0
LINE
  5
214CD
330
2019C
100
AcDbEntity
  8
寸法
 62
     0
 48
50.0
370
    -2
100
AcDbLine
 10
9313.195288608607
 20
7049.919036112841
 30
0.0
 11
9313.195288608607
 21
7941.823185419156
 31
0.0
  0
LINE
  5
214CE
330
2019C
100
AcDbEntity
  8
寸法
 62
     0
 48
50.0
370
    -2
100
AcDbLine
 10
6919.195288608607
 20
7049.919036112843
 30
0.0
 11
6919.195288608607
 21
7941.823185419156
 31
0.0
  0
LINE
  5
214CF
330
2019C
100
AcDbEntity
  8
寸法
 62
     0
 48
50.0
370
    -2
100
AcDbLine
 10
9313.195288608607
 20
7881.823185419155
 30
0.0
 11
6919.195288608607
 21
7881.823185419155
 31
0.0
  0
INSERT
  5
214D0
330
2019C
100
AcDbEntity
  8
寸法
 62
     0
 48
50.0
370
    -2
100
AcDbBlockReference
  2
_DOTSMALL
 10
9313.195288608607
 20
7881.823185419155
 30
0.0
 41
100.0
 42
100.0
 43
100.0
  0
INSERT
  5
214D1
330
2019C
100
AcDbEntity
  8
寸法
 62
     0
 48
50.0
370
    -2
100
AcDbBlockReference
  2
_DOTSMALL
 10
6919.195288608607
 20
7881.823185419155
 30
0.0
 41
100.0
 42
100.0
 43
100.0
 50
180.0
  0
MTEXT
  5
214D2
330
2019C
100
AcDbEntity
  8
寸法
 62
     7
 48
50.0
100
AcDbMText
 10
8116.195288608606
 20
7981.834996442777
 30
0.0
 40
120.0
 41
0.0
 71
     5
 72
     1
  1
\A1;2394
  7
STYLE1
 73
     1
 44
1.0
1001
ACAD
1000
MTEXTBEGIN
1070
    73
1070
     1
1070
    44
1040
1.0
1070
    74
1070
     0
1000
MTEXTEND
  0
POINT
  5
214D3
330
2019C
100
AcDbEntity
  8
DEFPOINTS
 62
     0
 48
50.0
100
AcDbPoint
 10
9313.195288608607
 20
7029.919036112841
 30
0.0
  0
POINT
  5
214D4
330
2019C
100
AcDbEntity
  8
DEFPOINTS
 62
     0
 48
50.0
100
AcDbPoint
 10
6919.195288608607
 20
7029.919036112842
 30
0.0
  0
POINT
  5
214D5
330
2019C
100
AcDbEntity
  8
DEFPOINTS
 62
     0
 48
50.0
100
AcDbPoint
 10
6919.195288608607
 20
7881.823185419155
 30
0.0
  0
ENDBLK
  5
201A7
330
2019C
100
AcDbEntity
  8
0
 48
50.0
100
AcDbBlockEnd
  0
BLOCK
  5
201B2
330
201A8
100
AcDbEntity
  8
0
 48
50.0
100
AcDbBlockBegin
  2
*D14
 70
     1
 10
0.0
 20
0.0
 30
0.0
  3
*D14
  1

  0
LINE
  5
214EA
330
201A8
100
AcDbEntity
  8
寸法
 62
     0
 48
50.0
370
    -2
100
AcDbLine
 10
6796.195288608608
 20
7122.919036112842
 30
0.0
 11
6796.195288608608
 21
8154.28388093599
 31
0.0
  0
LINE
  5
214EB
330
201A8
100
AcDbEntity
  8
寸法
 62
     0
 48
50.0
370
    -2
100
AcDbLine
 10
9436.195288608606
 20
7197.919036112844
 30
0.0
 11
9436.195288608606
 21
8154.28388093599
 31
0.0
  0
LINE
  5
214EC
330
201A8
100
AcDbEntity
  8
寸法
 62
     0
 48
50.0
370
    -2
100
AcDbLine
 10
6796.195288608608
 20
8094.283880935989
 30
0.0
 11
9436.195288608606
 21
8094.283880935989
 31
0.0
  0
INSERT
  5
214ED
330
201A8
100
AcDbEntity
  8
寸法
 62
     0
 48
50.0
370
    -2
100
AcDbBlockReference
  2
_DOTSMALL
 10
6796.195288608608
 20
8094.283880935989
 30
0.0
 41
100.0
 42
100.0
 43
100.0
 50
180.0
  0
INSERT
  5
214EE
330
201A8
100
AcDbEntity
  8
寸法
 62
     0
 48
50.0
370
    -2
100
AcDbBlockReference
  2
_DOTSMALL
 10
9436.195288608606
 20
8094.283880935989
 30
0.0
 41
100.0
 42
100.0
 43
100.0
  0
MTEXT
  5
214EF
330
201A8
100
AcDbEntity
  8
寸法
 62
     7
 48
50.0
100
AcDbMText
 10
8116.195288608606
 20
8194.295691959613
 30
0.0
 40
120.0
 41
0.0
 71
     5
 72
     1
  1
\A1;2640
  7
STYLE1
 73
     1
 44
1.0
1001
ACAD
1000
MTEXTBEGIN
1070
    73
1070
     1
1070
    44
1040
1.0
1070
    74
1070
     0
1000
MTEXTEND
  0
POINT
  5
214F0
330
201A8
100
AcDbEntity
  8
DEFPOINTS
 62
     0
 48
50.0
100
AcDbPoint
 10
6796.195288608608
 20
7102.919036112843
 30
0.0
  0
POINT
  5
214F1
330
201A8
100
AcDbEntity
  8
DEFPOINTS
 62
     0
 48
50.0
100
AcDbPoint
 10
9436.195288608606
 20
7177.919036112846
 30
0.0
  0
POINT
  5
214F2
330
201A8
100
AcDbEntity
  8
DEFPOINTS
 62
     0
 48
50.0
100
AcDbPoint
 10
9436.195288608606
 20
8094.283880935989
 30
0.0
  0
ENDBLK
  5
201B3
330
201A8
100
AcDbEntity
  8
0
 48
50.0
100
AcDbBlockEnd
  0
BLOCK
  5
201BF
330
201B4
100
AcDbEntity
  8
0
 48
50.0
100
AcDbBlockBegin
  2
*D15
 70
     1
 10
0.0
 20
0.0
 30
0.0
  3
*D15
  1

  0
LINE
  5
214D6
330
201B4
100
AcDbEntity
  8
寸法
 62
     0
 48
50.0
370
    -2
100
AcDbLine
 10
6919.195288608607
 20
7049.919036112841
 30
0.0
 11
6919.195288608607
 21
7941.823185419156
 31
0.0
  0
LINE
  5
214D7
330
201B4
100
AcDbEntity
  8
寸法
 62
     0
 48
50.0
370
    -2
100
AcDbLine
 10
6796.195288608605
 20
7122.91903611284
 30
0.0
 11
6796.195288608605
 21
7941.823185419156
 31
0.0
  0
LINE
  5
214D8
330
201B4
100
AcDbEntity
  8
寸法
 62
     0
 48
50.0
370
    -2
100
AcDbLine
 10
6919.195288608607
 20
7881.823185419155
 30
0.0
 11
6796.195288608605
 21
7881.823185419155
 31
0.0
  0
LINE
  5
214D9
330
201B4
100
AcDbEntity
  8
寸法
 62
     0
 48
50.0
370
    -2
100
AcDbLine
 10
6796.195288608605
 20
7881.823185419155
 30
0.0
 11
6419.224725860129
 21
7881.823185419155
 31
0.0
  0
INSERT
  5
214DA
330
201B4
100
AcDbEntity
  8
寸法
 62
     0
 48
50.0
370
    -2
100
AcDbBlockReference
  2
_DOTSMALL
 10
6919.195288608607
 20
7881.823185419155
 30
0.0
 41
100.0
 42
100.0
 43
100.0
  0
INSERT
  5
214DB
330
201B4
100
AcDbEntity
  8
寸法
 62
     0
 48
50.0
370
    -2
100
AcDbBlockReference
  2
_DOTSMALL
 10
6796.195288608605
 20
7881.823185419155
 30
0.0
 41
100.0
 42
100.0
 43
100.0
 50
180.0
  0
MTEXT
  5
214DC
330
201B4
100
AcDbEntity
  8
寸法
 62
     7
 48
50.0
100
AcDbMText
 10
6557.710007234367
 20
7981.834996442777
 30
0.0
 40
120.0
 41
0.0
 71
     5
 72
     1
  1
\A1;123
  7
STYLE1
 73
     1
 44
1.0
1001
ACAD
1000
MTEXTBEGIN
1070
    73
1070
     1
1070
    44
1040
1.0
1070
    74
1070
     0
1000
MTEXTEND
  0
POINT
  5
214DD
330
201B4
100
AcDbEntity
  8
DEFPOINTS
 62
     0
 48
50.0
100
AcDbPoint
 10
6919.195288608607
 20
7029.919036112841
 30
0.0
  0
POINT
  5
214DE
330
201B4
100
AcDbEntity
  8
DEFPOINTS
 62
     0
 48
50.0
100
AcDbPoint
 10
6796.195288608605
 20
7102.91903611284
 30
0.0
  0
POINT
  5
214DF
330
201B4
100
AcDbEntity
  8
DEFPOINTS
 62
     0
 48
50.0
100
AcDbPoint
 10
6796.195288608605
 20
7881.823185419155
 30
0.0
  0
ENDBLK
  5
201C0
330
201B4
100
AcDbEntity
  8
0
 48
50.0
100
AcDbBlockEnd
  0
BLOCK
  5
201CD
330
201C1
100
AcDbEntity
  8
0
 48
50.0
100
AcDbBlockBegin
  2
*D16
 70
     1
 10
0.0
 20
0.0
 30
0.0
  3
*D16
  1

  0
LINE
  5
214F3
330
201C1
100
AcDbEntity
  8
寸法
 62
     0
 48
50.0
370
    -2
100
AcDbLine
 10
6751.195288608603
 20
7901.823185419155
 30
0.0
 11
6751.195288608603
 21
8154.283880935993
 31
0.0
  0
LINE
  5
214F4
330
201C1
100
AcDbEntity
  8
寸法
 62
     0
 48
50.0
370
    -2
100
AcDbLine
 10
6796.195288608608
 20
7271.190236682762
 30
0.0
 11
6796.195288608608
 21
8154.283880935993
 31
0.0
  0
LINE
  5
214F5
330
201C1
100
AcDbEntity
  8
寸法
 62
     0
 48
50.0
370
    -2
100
AcDbLine
 10
6751.195288608603
 20
8094.283880935995
 30
0.0
 11
6651.195288608604
 21
8094.283880935995
 31
0.0
  0
LINE
  5
214F6
330
201C1
100
AcDbEntity
  8
寸法
 62
     0
 48
50.0
370
    -2
100
AcDbLine
 10
6796.195288608608
 20
8094.283880935995
 30
0.0
 11
6896.195288608608
 21
8094.283880935995
 31
0.0
  0
LINE
  5
214F7
330
201C1
100
AcDbEntity
  8
寸法
 62
     0
 48
50.0
370
    -2
100
AcDbLine
 10
6751.195288608603
 20
8094.283880935995
 30
0.0
 11
6796.195288608608
 21
8094.283880935995
 31
0.0
  0
INSERT
  5
214F8
330
201C1
100
AcDbEntity
  8
寸法
 62
     0
 48
50.0
370
    -2
100
AcDbBlockReference
  2
_DOTSMALL
 10
6751.195288608603
 20
8094.283880935995
 30
0.0
 41
100.0
 42
100.0
 43
100.0
  0
INSERT
  5
214F9
330
201C1
100
AcDbEntity
  8
寸法
 62
     0
 48
50.0
370
    -2
100
AcDbBlockReference
  2
_DOTSMALL
 10
6796.195288608608
 20
8094.283880935995
 30
0.0
 41
100.0
 42
100.0
 43
100.0
 50
180.0
  0
MTEXT
  5
214FA
330
201C1
100
AcDbEntity
  8
寸法
 62
     7
 48
50.0
100
AcDbMText
 10
6773.695288608606
 20
8194.283880935993
 30
0.0
 40
120.0
 41
0.0
 71
     5
 72
     1
  1
\A1;a
  7
STYLE1
 73
     1
 44
1.0
1001
ACAD
1000
MTEXTBEGIN
1070
    73
1070
     1
1070
    44
1040
1.0
1070
    74
1070
     0
1000
MTEXTEND
  0
POINT
  5
214FB
330
201C1
100
AcDbEntity
  8
DEFPOINTS
 62
     0
 48
50.0
100
AcDbPoint
 10
6751.195288608603
 20
7881.823185419155
 30
0.0
  0
POINT
  5
214FC
330
201C1
100
AcDbEntity
  8
DEFPOINTS
 62
     0
 48
50.0
100
AcDbPoint
 10
6796.195288608608
 20
7251.190236682763
 30
0.0
  0
POINT
  5
214FD
330
201C1
100
AcDbEntity
  8
DEFPOINTS
 62
     0
 48
50.0
100
AcDbPoint
 10
6796.195288608608
 20
8094.283880935995
 30
0.0
  0
ENDBLK
  5
201CE
330
201C1
100
AcDbEntity
  8
0
 48
50.0
100
AcDbBlockEnd
  0
BLOCK
  5
201DA
330
201CF
100
AcDbEntity
  8
0
 48
50.0
100
AcDbBlockBegin
  2
*D17
 70
     1
 10
0.0
 20
0.0
 30
0.0
  3
*D17
  1

  0
LINE
  5
214E0
330
201CF
100
AcDbEntity
  8
寸法
 62
     0
 48
50.0
370
    -2
100
AcDbLine
 10
9436.195288608606
 20
7122.919036112847
 30
0.0
 11
9436.195288608606
 21
7941.823185419156
 31
0.0
  0
LINE
  5
214E1
330
201CF
100
AcDbEntity
  8
寸法
 62
     0
 48
50.0
370
    -2
100
AcDbLine
 10
9313.195288608607
 20
7049.919036112841
 30
0.0
 11
9313.195288608607
 21
7941.823185419156
 31
0.0
  0
LINE
  5
214E2
330
201CF
100
AcDbEntity
  8
寸法
 62
     0
 48
50.0
370
    -2
100
AcDbLine
 10
9313.195288608607
 20
7881.823185419155
 30
0.0
 11
9436.195288608606
 21
7881.823185419155
 31
0.0
  0
LINE
  5
214E3
330
201CF
100
AcDbEntity
  8
寸法
 62
     0
 48
50.0
370
    -2
100
AcDbLine
 10
9436.195288608606
 20
7881.823185419155
 30
0.0
 11
9813.165851357084
 21
7881.823185419155
 31
0.0
  0
INSERT
  5
214E4
330
201CF
100
AcDbEntity
  8
寸法
 62
     0
 48
50.0
370
    -2
100
AcDbBlockReference
  2
_DOTSMALL
 10
9313.195288608607
 20
7881.823185419155
 30
0.0
 41
100.0
 42
100.0
 43
100.0
 50
180.0
  0
INSERT
  5
214E5
330
201CF
100
AcDbEntity
  8
寸法
 62
     0
 48
50.0
370
    -2
100
AcDbBlockReference
  2
_DOTSMALL
 10
9436.195288608606
 20
7881.823185419155
 30
0.0
 41
100.0
 42
100.0
 43
100.0
  0
MTEXT
  5
214E6
330
201CF
100
AcDbEntity
  8
寸法
 62
     7
 48
50.0
100
AcDbMText
 10
9674.680569982847
 20
7981.834996442777
 30
0.0
 40
120.0
 41
0.0
 71
     5
 72
     1
  1
\A1;123
  7
STYLE1
 73
     1
 44
1.0
1001
ACAD
1000
MTEXTBEGIN
1070
    73
1070
     1
1070
    44
1040
1.0
1070
    74
1070
     0
1000
MTEXTEND
  0
POINT
  5
214E7
330
201CF
100
AcDbEntity
  8
DEFPOINTS
 62
     0
 48
50.0
100
AcDbPoint
 10
9436.195288608606
 20
7102.919036112847
 30
0.0
  0
POINT
  5
214E8
330
201CF
100
AcDbEntity
  8
DEFPOINTS
 62
     0
 48
50.0
100
AcDbPoint
 10
9313.195288608607
 20
7029.919036112841
 30
0.0
  0
POINT
  5
214E9
330
201CF
100
AcDbEntity
  8
DEFPOINTS
 62
     0
 48
50.0
100
AcDbPoint
 10
9313.195288608607
 20
7881.823185419155
 30
0.0
  0
ENDBLK
  5
201DB
330
201CF
100
AcDbEntity
  8
0
 48
50.0
100
AcDbBlockEnd
  0
BLOCK
  5
201E8
330
201DC
100
AcDbEntity
  8
0
 48
50.0
100
AcDbBlockBegin
  2
*D18
 70
     1
 10
0.0
 20
0.0
 30
0.0
  3
*D18
  1

  0
LINE
  5
214FE
330
201DC
100
AcDbEntity
  8
寸法
 62
     0
 48
50.0
370
    -2
100
AcDbLine
 10
9436.195288608606
 20
7197.919036112844
 30
0.0
 11
9436.195288608606
 21
8154.28388093599
 31
0.0
  0
LINE
  5
214FF
330
201DC
100
AcDbEntity
  8
寸法
 62
     0
 48
50.0
370
    -2
100
AcDbLine
 10
9481.195288608608
 20
7901.823185419155
 30
0.0
 11
9481.195288608608
 21
8154.28388093599
 31
0.0
  0
LINE
  5
21500
330
201DC
100
AcDbEntity
  8
寸法
 62
     0
 48
50.0
370
    -2
100
AcDbLine
 10
9436.195288608606
 20
8094.283880935989
 30
0.0
 11
9336.195288608607
 21
8094.283880935989
 31
0.0
  0
LINE
  5
21501
330
201DC
100
AcDbEntity
  8
寸法
 62
     0
 48
50.0
370
    -2
100
AcDbLine
 10
9481.195288608608
 20
8094.283880935989
 30
0.0
 11
9581.195288608608
 21
8094.283880935989
 31
0.0
  0
LINE
  5
21502
330
201DC
100
AcDbEntity
  8
寸法
 62
     0
 48
50.0
370
    -2
100
AcDbLine
 10
9436.195288608606
 20
8094.283880935989
 30
0.0
 11
9481.195288608608
 21
8094.283880935989
 31
0.0
  0
INSERT
  5
21503
330
201DC
100
AcDbEntity
  8
寸法
 62
     0
 48
50.0
370
    -2
100
AcDbBlockReference
  2
_DOTSMALL
 10
9436.195288608606
 20
8094.283880935989
 30
0.0
 41
100.0
 42
100.0
 43
100.0
  0
INSERT
  5
21504
330
201DC
100
AcDbEntity
  8
寸法
 62
     0
 48
50.0
370
    -2
100
AcDbBlockReference
  2
_DOTSMALL
 10
9481.195288608608
 20
8094.283880935989
 30
0.0
 41
100.0
 42
100.0
 43
100.0
 50
180.0
  0
MTEXT
  5
21505
330
201DC
100
AcDbEntity
  8
寸法
 62
     7
 48
50.0
100
AcDbMText
 10
9458.695288608607
 20
8194.283880935989
 30
0.0
 40
120.0
 41
0.0
 71
     5
 72
     1
  1
\A1;a
  7
STYLE1
 73
     1
 44
1.0
1001
ACAD
1000
MTEXTBEGIN
1070
    73
1070
     1
1070
    44
1040
1.0
1070
    74
1070
     0
1000
MTEXTEND
  0
POINT
  5
21506
330
201DC
100
AcDbEntity
  8
DEFPOINTS
 62
     0
 48
50.0
100
AcDbPoint
 10
9436.195288608606
 20
7177.919036112846
 30
0.0
  0
POINT
  5
21507
330
201DC
100
AcDbEntity
  8
DEFPOINTS
 62
     0
 48
50.0
100
AcDbPoint
 10
9481.195288608608
 20
7881.823185419155
 30
0.0
  0
POINT
  5
21508
330
201DC
100
AcDbEntity
  8
DEFPOINTS
 62
     0
 48
50.0
100
AcDbPoint
 10
9481.195288608608
 20
8094.283880935989
 30
0.0
  0
ENDBLK
  5
201E9
330
201DC
100
AcDbEntity
  8
0
 48
50.0
100
AcDbBlockEnd
  0
BLOCK
  5
21372
330
21366
100
AcDbEntity
  8
0
 48
50.0
100
AcDbBlockBegin
  2
*D19
 70
     1
 10
0.0
 20
0.0
 30
0.0
  3
*D19
  1

  0
LINE
  5
213A0
330
21366
100
AcDbEntity
  8
寸法
 62
     0
 48
50.0
370
    -2
100
AcDbLine
 10
6776.195288608608
 20
5722.919036112855
 30
0.0
 11
6508.998470580182
 21
5722.919036112855
 31
0.0
  0
LINE
  5
213A1
330
21366
100
AcDbEntity
  8
寸法
 62
     0
 48
50.0
370
    -2
100
AcDbLine
 10
6776.195288608608
 20
5647.919036112856
 30
0.0
 11
6508.998470580182
 21
5647.919036112856
 31
0.0
  0
LINE
  5
213A2
330
21366
100
AcDbEntity
  8
寸法
 62
     0
 48
50.0
370
    -2
100
AcDbLine
 10
6568.998470580183
 20
5722.919036112855
 30
0.0
 11
6568.998470580183
 21
5822.919036112856
 31
0.0
  0
LINE
  5
213A3
330
21366
100
AcDbEntity
  8
寸法
 62
     0
 48
50.0
370
    -2
100
AcDbLine
 10
6568.998470580183
 20
5647.919036112856
 30
0.0
 11
6568.998470580183
 21
4780.948473364379
 31
0.0
  0
LINE
  5
213A4
330
21366
100
AcDbEntity
  8
寸法
 62
     0
 48
50.0
370
    -2
100
AcDbLine
 10
6568.998470580183
 20
5722.919036112855
 30
0.0
 11
6568.998470580183
 21
5647.919036112856
 31
0.0
  0
INSERT
  5
213A5
330
21366
100
AcDbEntity
  8
寸法
 62
     0
 48
50.0
370
    -2
100
AcDbBlockReference
  2
_DOTSMALL
 10
6568.998470580183
 20
5722.919036112855
 30
0.0
 41
100.0
 42
100.0
 43
100.0
 50
270.0
  0
INSERT
  5
213A6
330
21366
100
AcDbEntity
  8
寸法
 62
     0
 48
50.0
370
    -2
100
AcDbBlockReference
  2
_DOTSMALL
 10
6568.998470580183
 20
5647.919036112856
 30
0.0
 41
100.0
 42
100.0
 43
100.0
 50
90.0
  0
MTEXT
  5
213A7
330
21366
100
AcDbEntity
  8
寸法
 62
     7
 48
50.0
100
AcDbMText
 10
6468.998470580181
 20
5114.43375473862
 30
0.0
 40
120.0
 41
0.0
 71
     5
 72
     1
  1
\A1;扉の出75
  7
STYLE1
 11
0.0000000000000001
 21
1.0
 31
0.0
 73
     1
 44
1.0
1001
ACAD
1000
MTEXTBEGIN
1070
    73
1070
     1
1070
    44
1040
1.0
1070
    74
1070
     0
1000
MTEXTEND
  0
POINT
  5
213A8
330
21366
100
AcDbEntity
  8
DEFPOINTS
 62
     0
 48
50.0
100
AcDbPoint
 10
6796.195288608608
 20
5722.919036112855
 30
0.0
  0
POINT
  5
213A9
330
21366
100
AcDbEntity
  8
DEFPOINTS
 62
     0
 48
50.0
100
AcDbPoint
 10
6796.195288608608
 20
5647.919036112856
 30
0.0
  0
POINT
  5
213AA
330
21366
100
AcDbEntity
  8
DEFPOINTS
 62
     0
 48
50.0
100
AcDbPoint
 10
6568.998470580183
 20
5647.919036112856
 30
0.0
  0
ENDBLK
  5
21373
330
21366
100
AcDbEntity
  8
0
 48
50.0
100
AcDbBlockEnd
  0
BLOCK
  5
2147D
330
21473
100
AcDbEntity
  8
0
 48
50.0
100
AcDbBlockBegin
  2
*D20
 70
     1
 10
0.0
 20
0.0
 30
0.0
  3
*D20
  1

  0
LINE
  5
214B2
330
21473
100
AcDbEntity
  8
寸法
 62
     0
 48
50.0
370
    -2
100
AcDbLine
 10
9436.195288608606
 20
7197.91903611284
 30
0.0
 11
9436.195288608606
 21
7680.733325788283
 31
0.0
  0
LINE
  5
214B3
330
21473
100
AcDbEntity
  8
寸法
 62
     0
 48
50.0
370
    -2
100
AcDbLine
 10
8531.195288608607
 20
6632.919036112861
 30
0.0
 11
8531.195288608607
 21
7680.733325788283
 31
0.0
  0
LINE
  5
214B4
330
21473
100
AcDbEntity
  8
寸法
 62
     0
 48
50.0
370
    -2
100
AcDbLine
 10
9436.195288608606
 20
7620.733325788283
 30
0.0
 11
8531.195288608607
 21
7620.733325788283
 31
0.0
  0
INSERT
  5
214B5
330
21473
100
AcDbEntity
  8
寸法
 62
     0
 48
50.0
370
    -2
100
AcDbBlockReference
  2
_DOTSMALL
 10
9436.195288608606
 20
7620.733325788283
 30
0.0
 41
100.0
 42
100.0
 43
100.0
  0
INSERT
  5
214B6
330
21473
100
AcDbEntity
  8
寸法
 62
     0
 48
50.0
370
    -2
100
AcDbBlockReference
  2
_DOTSMALL
 10
8531.195288608607
 20
7620.733325788283
 30
0.0
 41
100.0
 42
100.0
 43
100.0
 50
180.0
  0
MTEXT
  5
214B7
330
21473
100
AcDbEntity
  8
寸法
 62
     7
 48
50.0
100
AcDbMText
 10
8941.051908811706
 20
7720.733325788284
 30
0.0
 40
120.0
 41
0.0
 71
     5
 72
     1
  1
\A1;905
  7
STYLE1
 73
     1
 44
1.0
1001
ACAD
1000
MTEXTBEGIN
1070
    73
1070
     1
1070
    44
1040
1.0
1070
    74
1070
     0
1000
MTEXTEND
  0
POINT
  5
214B8
330
21473
100
AcDbEntity
  8
DEFPOINTS
 62
     0
 48
50.0
100
AcDbPoint
 10
9436.195288608606
 20
7177.919036112839
 30
0.0
  0
POINT
  5
214B9
330
21473
100
AcDbEntity
  8
DEFPOINTS
 62
     0
 48
50.0
100
AcDbPoint
 10
8531.195288608607
 20
6612.91903611286
 30
0.0
  0
POINT
  5
214BA
330
21473
100
AcDbEntity
  8
DEFPOINTS
 62
     0
 48
50.0
100
AcDbPoint
 10
8531.195288608607
 20
7620.733325788283
 30
0.0
  0
ENDBLK
  5
2147E
330
21473
100
AcDbEntity
  8
0
 48
50.0
100
AcDbBlockEnd
  0
BLOCK
  5
21489
330
2147F
100
AcDbEntity
  8
0
 48
50.0
100
AcDbBlockBegin
  2
*D21
 70
     1
 10
0.0
 20
0.0
 30
0.0
  3
*D21
  1

  0
LINE
  5
214BB
330
2147F
100
AcDbEntity
  8
寸法
 62
     0
 48
50.0
370
    -2
100
AcDbLine
 10
7701.195288608608
 20
6632.919036112861
 30
0.0
 11
7701.195288608608
 21
7680.733325788283
 31
0.0
  0
LINE
  5
214BC
330
2147F
100
AcDbEntity
  8
寸法
 62
     0
 48
50.0
370
    -2
100
AcDbLine
 10
6796.195288608608
 20
7197.919036112861
 30
0.0
 11
6796.195288608608
 21
7680.733325788283
 31
0.0
  0
LINE
  5
214BD
330
2147F
100
AcDbEntity
  8
寸法
 62
     0
 48
50.0
370
    -2
100
AcDbLine
 10
7701.195288608608
 20
7620.733325788283
 30
0.0
 11
6796.195288608608
 21
7620.733325788283
 31
0.0
  0
INSERT
  5
214BE
330
2147F
100
AcDbEntity
  8
寸法
 62
     0
 48
50.0
370
    -2
100
AcDbBlockReference
  2
_DOTSMALL
 10
7701.195288608608
 20
7620.733325788283
 30
0.0
 41
100.0
 42
100.0
 43
100.0
  0
INSERT
  5
214BF
330
2147F
100
AcDbEntity
  8
寸法
 62
     0
 48
50.0
370
    -2
100
AcDbBlockReference
  2
_DOTSMALL
 10
6796.195288608608
 20
7620.733325788283
 30
0.0
 41
100.0
 42
100.0
 43
100.0
 50
180.0
  0
MTEXT
  5
214C0
330
2147F
100
AcDbEntity
  8
寸法
 62
     7
 48
50.0
100
AcDbMText
 10
7248.695288608608
 20
7720.733325788284
 30
0.0
 40
120.0
 41
0.0
 71
     5
 72
     1
  1
\A1;905
  7
STYLE1
 73
     1
 44
1.0
1001
ACAD
1000
MTEXTBEGIN
1070
    73
1070
     1
1070
    44
1040
1.0
1070
    74
1070
     0
1000
MTEXTEND
  0
POINT
  5
214C1
330
2147F
100
AcDbEntity
  8
DEFPOINTS
 62
     0
 48
50.0
100
AcDbPoint
 10
7701.195288608608
 20
6612.91903611286
 30
0.0
  0
POINT
  5
214C2
330
2147F
100
AcDbEntity
  8
DEFPOINTS
 62
     0
 48
50.0
100
AcDbPoint
 10
6796.195288608608
 20
7177.919036112861
 30
0.0
  0
POINT
  5
214C3
330
2147F
100
AcDbEntity
  8
DEFPOINTS
 62
     0
 48
50.0
100
AcDbPoint
 10
6796.195288608608
 20
7620.733325788283
 30
0.0
  0
ENDBLK
  5
2148A
330
2147F
100
AcDbEntity
  8
0
 48
50.0
100
AcDbBlockEnd
  0
BLOCK
  5
21495
330
2148B
100
AcDbEntity
  8
0
 48
50.0
100
AcDbBlockBegin
  2
*D22
 70
     1
 10
0.0
 20
0.0
 30
0.0
  3
*D22
  1

  0
LINE
  5
214C4
330
2148B
100
AcDbEntity
  8
寸法
 62
     0
 48
50.0
370
    -2
100
AcDbLine
 10
7701.195288608608
 20
6632.919036112861
 30
0.0
 11
7701.195288608608
 21
7680.733325788283
 31
0.0
  0
LINE
  5
214C5
330
2148B
100
AcDbEntity
  8
寸法
 62
     0
 48
50.0
370
    -2
100
AcDbLine
 10
8531.195288608607
 20
6632.919036112861
 30
0.0
 11
8531.195288608607
 21
7680.733325788283
 31
0.0
  0
LINE
  5
214C6
330
2148B
100
AcDbEntity
  8
寸法
 62
     0
 48
50.0
370
    -2
100
AcDbLine
 10
7701.195288608608
 20
7620.733325788283
 30
0.0
 11
8531.195288608607
 21
7620.733325788283
 31
0.0
  0
INSERT
  5
214C7
330
2148B
100
AcDbEntity
  8
寸法
 62
     0
 48
50.0
370
    -2
100
AcDbBlockReference
  2
_DOTSMALL
 10
7701.195288608608
 20
7620.733325788283
 30
0.0
 41
100.0
 42
100.0
 43
100.0
 50
180.0
  0
INSERT
  5
214C8
330
2148B
100
AcDbEntity
  8
寸法
 62
     0
 48
50.0
370
    -2
100
AcDbBlockReference
  2
_DOTSMALL
 10
8531.195288608607
 20
7620.733325788283
 30
0.0
 41
100.0
 42
100.0
 43
100.0
  0
MTEXT
  5
214C9
330
2148B
100
AcDbEntity
  8
寸法
 62
     7
 48
50.0
100
AcDbMText
 10
8116.195288608606
 20
7720.733325788284
 30
0.0
 40
120.0
 41
0.0
 71
     5
 72
     1
  1
\A1;830
  7
STYLE1
 73
     1
 44
1.0
1001
ACAD
1000
MTEXTBEGIN
1070
    73
1070
     1
1070
    44
1040
1.0
1070
    74
1070
     0
1000
MTEXTEND
  0
POINT
  5
214CA
330
2148B
100
AcDbEntity
  8
DEFPOINTS
 62
     0
 48
50.0
100
AcDbPoint
 10
7701.195288608608
 20
6612.91903611286
 30
0.0
  0
POINT
  5
214CB
330
2148B
100
AcDbEntity
  8
DEFPOINTS
 62
     0
 48
50.0
100
AcDbPoint
 10
8531.195288608607
 20
6612.91903611286
 30
0.0
  0
POINT
  5
214CC
330
2148B
100
AcDbEntity
  8
DEFPOINTS
 62
     0
 48
50.0
100
AcDbPoint
 10
8531.195288608607
 20
7620.733325788283
 30
0.0
  0
ENDBLK
  5
21496
330
2148B
100
AcDbEntity
  8
0
 48
50.0
100
AcDbBlockEnd
  0
BLOCK
  5
21562
330
21558
100
AcDbEntity
  8
0
 48
50.0
100
AcDbBlockBegin
  2
*D23
 70
     1
 10
0.0
 20
0.0
 30
0.0
  3
*D23
  1

  0
LINE
  5
215A8
330
21558
100
AcDbEntity
  8
寸法
 62
     0
 48
50.0
370
    -2
100
AcDbLine
 10
6796.195288608608
 20
5627.919036112857
 30
0.0
 11
6796.195288608608
 21
4998.433965764711
 31
0.0
  0
LINE
  5
215A9
330
21558
100
AcDbEntity
  8
寸法
 62
     0
 48
50.0
370
    -2
100
AcDbLine
 10
8564.195288608607
 20
5627.91903611287
 30
0.0
 11
8564.195288608607
 21
4998.433965764711
 31
0.0
  0
LINE
  5
215AA
330
21558
100
AcDbEntity
  8
寸法
 62
     0
 48
50.0
370
    -2
100
AcDbLine
 10
6796.195288608608
 20
5058.43396576471
 30
0.0
 11
8564.195288608607
 21
5058.43396576471
 31
0.0
  0
INSERT
  5
215AB
330
21558
100
AcDbEntity
  8
寸法
 62
     0
 48
50.0
370
    -2
100
AcDbBlockReference
  2
_DOTSMALL
 10
6796.195288608608
 20
5058.43396576471
 30
0.0
 41
100.0
 42
100.0
 43
100.0
 50
180.0
  0
INSERT
  5
215AC
330
21558
100
AcDbEntity
  8
寸法
 62
     0
 48
50.0
370
    -2
100
AcDbBlockReference
  2
_DOTSMALL
 10
8564.195288608607
 20
5058.43396576471
 30
0.0
 41
100.0
 42
100.0
 43
100.0
  0
MTEXT
  5
215AD
330
21558
100
AcDbEntity
  8
寸法
 62
     7
 48
50.0
100
AcDbMText
 10
7680.195288608607
 20
5158.433965764711
 30
0.0
 40
120.0
 41
0.0
 71
     5
 72
     1
  1
\A1;扉の幅1768
  7
STYLE1
 73
     1
 44
1.0
1001
ACAD
1000
MTEXTBEGIN
1070
    73
1070
     1
1070
    44
1040
1.0
1070
    74
1070
     0
1000
MTEXTEND
  0
POINT
  5
215AE
330
21558
100
AcDbEntity
  8
DEFPOINTS
 62
     0
 48
50.0
100
AcDbPoint
 10
6796.195288608608
 20
5647.919036112856
 30
0.0
  0
POINT
  5
215AF
330
21558
100
AcDbEntity
  8
DEFPOINTS
 62
     0
 48
50.0
100
AcDbPoint
 10
8564.195288608607
 20
5647.919036112869
 30
0.0
  0
POINT
  5
215B0
330
21558
100
AcDbEntity
  8
DEFPOINTS
 62
     0
 48
50.0
100
AcDbPoint
 10
8564.195288608607
 20
5058.43396576471
 30
0.0
  0
ENDBLK
  5
21563
330
21558
100
AcDbEntity
  8
0
 48
50.0
100
AcDbBlockEnd
  0
BLOCK
  5
215D3
330
215C9
100
AcDbEntity
  8
0
 48
50.0
100
AcDbBlockBegin
  2
*D24
 70
     1
 10
0.0
 20
0.0
 30
0.0
  3
*D24
  1

  0
LINE
  5
21605
330
215C9
100
AcDbEntity
  8
寸法
 62
     0
 48
50.0
370
    -2
100
AcDbLine
 10
8601.195288608607
 20
6412.919036112859
 30
0.0
 11
8849.39368297358
 21
6412.919036112859
 31
0.0
  0
LINE
  5
21606
330
215C9
100
AcDbEntity
  8
寸法
 62
     0
 48
50.0
370
    -2
100
AcDbLine
 10
8964.195288608607
 20
7102.91903611284
 30
0.0
 11
8729.393682973579
 21
7102.91903611284
 31
0.0
  0
LINE
  5
21607
330
215C9
100
AcDbEntity
  8
寸法
 62
     0
 48
50.0
370
    -2
100
AcDbLine
 10
8789.39368297358
 20
6412.919036112859
 30
0.0
 11
8789.39368297358
 21
7102.91903611284
 31
0.0
  0
INSERT
  5
21608
330
215C9
100
AcDbEntity
  8
寸法
 62
     0
 48
50.0
370
    -2
100
AcDbBlockReference
  2
_DOTSMALL
 10
8789.39368297358
 20
6412.919036112859
 30
0.0
 41
100.0
 42
100.0
 43
100.0
 50
270.0
  0
INSERT
  5
21609
330
215C9
100
AcDbEntity
  8
寸法
 62
     0
 48
50.0
370
    -2
100
AcDbBlockReference
  2
_DOTSMALL
 10
8789.39368297358
 20
7102.91903611284
 30
0.0
 41
100.0
 42
100.0
 43
100.0
 50
90.0
  0
MTEXT
  5
2160A
330
215C9
100
AcDbEntity
  8
寸法
 62
     7
 48
50.0
100
AcDbMText
 10
8689.393682973578
 20
6757.919036112851
 30
0.0
 40
120.0
 41
0.0
 71
     5
 72
     1
  1
\A1;690
  7
STYLE1
 11
0.0000000000000001
 21
1.0
 31
0.0
 73
     1
 44
1.0
1001
ACAD
1000
MTEXTBEGIN
1070
    73
1070
     1
1070
    44
1040
1.0
1070
    74
1070
     0
1000
MTEXTEND
  0
POINT
  5
2160B
330
215C9
100
AcDbEntity
  8
DEFPOINTS
 62
     0
 48
50.0
100
AcDbPoint
 10
8581.195288608608
 20
6412.919036112859
 30
0.0
  0
POINT
  5
2160C
330
215C9
100
AcDbEntity
  8
DEFPOINTS
 62
     0
 48
50.0
100
AcDbPoint
 10
8984.195288608608
 20
7102.91903611284
 30
0.0
  0
POINT
  5
2160D
330
215C9
100
AcDbEntity
  8
DEFPOINTS
 62
     0
 48
50.0
100
AcDbPoint
 10
8789.39368297358
 20
7102.91903611284
 30
0.0
  0
ENDBLK
  5
215D4
330
215C9
100
AcDbEntity
  8
0
 48
50.0
100
AcDbBlockEnd
  0
BLOCK
  5
215DF
330
215D5
100
AcDbEntity
  8
0
 48
50.0
100
AcDbBlockBegin
  2
*D25
 70
     1
 10
0.0
 20
0.0
 30
0.0
  3
*D25
  1

  0
LINE
  5
215FC
330
215D5
100
AcDbEntity
  8
寸法
 62
     0
 48
50.0
370
    -2
100
AcDbLine
 10
8682.854871754846
 20
5722.91903611287
 30
0.0
 11
8849.393682973582
 21
5722.91903611287
 31
0.0
  0
LINE
  5
215FD
330
215D5
100
AcDbEntity
  8
寸法
 62
     0
 48
50.0
370
    -2
100
AcDbLine
 10
8601.195288608607
 20
6412.919036112859
 30
0.0
 11
8849.393682973582
 21
6412.919036112859
 31
0.0
  0
LINE
  5
215FE
330
215D5
100
AcDbEntity
  8
寸法
 62
     0
 48
50.0
370
    -2
100
AcDbLine
 10
8789.393682973583
 20
5722.91903611287
 30
0.0
 11
8789.393682973583
 21
6412.919036112859
 31
0.0
  0
INSERT
  5
215FF
330
215D5
100
AcDbEntity
  8
寸法
 62
     0
 48
50.0
370
    -2
100
AcDbBlockReference
  2
_DOTSMALL
 10
8789.393682973583
 20
5722.91903611287
 30
0.0
 41
100.0
 42
100.0
 43
100.0
 50
270.0
  0
INSERT
  5
21600
330
215D5
100
AcDbEntity
  8
寸法
 62
     0
 48
50.0
370
    -2
100
AcDbBlockReference
  2
_DOTSMALL
 10
8789.393682973583
 20
6412.919036112859
 30
0.0
 41
100.0
 42
100.0
 43
100.0
 50
90.0
  0
MTEXT
  5
21601
330
215D5
100
AcDbEntity
  8
寸法
 62
     7
 48
50.0
100
AcDbMText
 10
8689.39368297358
 20
6072.919036112864
 30
0.0
 40
120.0
 41
0.0
 71
     5
 72
     1
  1
\A1;690
  7
STYLE1
 11
0.0000000000000001
 21
1.0
 31
0.0
 73
     1
 44
1.0
1001
ACAD
1000
MTEXTBEGIN
1070
    73
1070
     1
1070
    44
1040
1.0
1070
    74
1070
     0
1000
MTEXTEND
  0
POINT
  5
21602
330
215D5
100
AcDbEntity
  8
DEFPOINTS
 62
     0
 48
50.0
100
AcDbPoint
 10
8662.854871754847
 20
5722.91903611287
 30
0.0
  0
POINT
  5
21603
330
215D5
100
AcDbEntity
  8
DEFPOINTS
 62
     0
 48
50.0
100
AcDbPoint
 10
8581.195288608608
 20
6412.919036112859
 30
0.0
  0
POINT
  5
21604
330
215D5
100
AcDbEntity
  8
DEFPOINTS
 62
     0
 48
50.0
100
AcDbPoint
 10
8789.393682973583
 20
6412.919036112859
 30
0.0
  0
ENDBLK
  5
215E0
330
215D5
100
AcDbEntity
  8
0
 48
50.0
100
AcDbBlockEnd
  0
BLOCK
  5
21908
330
218FE
100
AcDbEntity
  8
0
 48
50.0
100
AcDbBlockBegin
  2
*D26
 70
     1
 10
0.0
 20
0.0
 30
0.0
  3
*D26
  1

  0
LINE
  5
21948
330
218FE
100
AcDbEntity
  8
寸法
 62
     0
 48
50.0
370
    -2
100
AcDbLine
 10
8489.160215034294
 20
1933.764973743768
 30
0.0
 11
9156.495964745349
 21
1933.764973743768
 31
0.0
  0
LINE
  5
21949
330
218FE
100
AcDbEntity
  8
寸法
 62
     0
 48
50.0
370
    -2
100
AcDbLine
 10
8489.160215034294
 20
1528.764973743766
 30
0.0
 11
9156.495964745349
 21
1528.764973743766
 31
0.0
  0
LINE
  5
2194A
330
218FE
100
AcDbEntity
  8
寸法
 62
     0
 48
50.0
370
    -2
100
AcDbLine
 10
9096.495964745349
 20
1933.764973743768
 30
0.0
 11
9096.495964745349
 21
1528.764973743766
 31
0.0
  0
INSERT
  5
2194B
330
218FE
100
AcDbEntity
  8
寸法
 62
     0
 48
50.0
370
    -2
100
AcDbBlockReference
  2
_DOTSMALL
 10
9096.495964745349
 20
1933.764973743768
 30
0.0
 41
100.0
 42
100.0
 43
100.0
 50
90.0
  0
INSERT
  5
2194C
330
218FE
100
AcDbEntity
  8
寸法
 62
     0
 48
50.0
370
    -2
100
AcDbBlockReference
  2
_DOTSMALL
 10
9096.495964745349
 20
1528.764973743766
 30
0.0
 41
100.0
 42
100.0
 43
100.0
 50
270.0
  0
MTEXT
  5
2194D
330
218FE
100
AcDbEntity
  8
寸法
 62
     7
 48
50.0
100
AcDbMText
 10
8996.495964745347
 20
1731.264973743768
 30
0.0
 40
120.0
 41
0.0
 71
     5
 72
     1
  1
\A1;180
  7
STYLE1
 11
0.0000000000000001
 21
1.0
 31
0.0
 73
     1
 44
1.0
1001
ACAD
1000
MTEXTBEGIN
1070
    73
1070
     1
1070
    44
1040
1.0
1070
    74
1070
     0
1000
MTEXTEND
  0
POINT
  5
2194E
330
218FE
100
AcDbEntity
  8
DEFPOINTS
 62
     0
 48
50.0
100
AcDbPoint
 10
8469.160215034293
 20
1933.764973743768
 30
0.0
  0
POINT
  5
2194F
330
218FE
100
AcDbEntity
  8
DEFPOINTS
 62
     0
 48
50.0
100
AcDbPoint
 10
8469.160215034293
 20
1528.764973743766
 30
0.0
  0
POINT
  5
21950
330
218FE
100
AcDbEntity
  8
DEFPOINTS
 62
     0
 48
50.0
100
AcDbPoint
 10
9096.495964745349
 20
1528.764973743766
 30
0.0
  0
ENDBLK
  5
21909
330
218FE
100
AcDbEntity
  8
0
 48
50.0
100
AcDbBlockEnd
  0
BLOCK
  5
21916
330
2190A
100
AcDbEntity
  8
0
 48
50.0
100
AcDbBlockBegin
  2
*D27
 70
     1
 10
0.0
 20
0.0
 30
0.0
  3
*D27
  1

  0
LINE
  5
21951
330
2190A
100
AcDbEntity
  8
寸法
 62
     0
 48
50.0
370
    -2
100
AcDbLine
 10
8255.160215034292
 20
1999.714973743768
 30
0.0
 11
9501.564297394132
 21
1999.714973743768
 31
0.0
  0
LINE
  5
21952
330
2190A
100
AcDbEntity
  8
寸法
 62
     0
 48
50.0
370
    -2
100
AcDbLine
 10
8489.160215034294
 20
1933.764973743768
 30
0.0
 11
9501.564297394132
 21
1933.764973743768
 31
0.0
  0
LINE
  5
21953
330
2190A
100
AcDbEntity
  8
寸法
 62
     0
 48
50.0
370
    -2
100
AcDbLine
 10
9441.564297394132
 20
1999.714973743768
 30
0.0
 11
9441.564297394132
 21
2099.714973743768
 31
0.0
  0
LINE
  5
21954
330
2190A
100
AcDbEntity
  8
寸法
 62
     0
 48
50.0
370
    -2
100
AcDbLine
 10
9441.564297394132
 20
1933.764973743768
 30
0.0
 11
9441.564297394132
 21
1201.7471669008
 31
0.0
  0
LINE
  5
21955
330
2190A
100
AcDbEntity
  8
寸法
 62
     0
 48
50.0
370
    -2
100
AcDbLine
 10
9441.564297394132
 20
1999.714973743768
 30
0.0
 11
9441.564297394132
 21
1933.764973743768
 31
0.0
  0
INSERT
  5
21956
330
2190A
100
AcDbEntity
  8
寸法
 62
     0
 48
50.0
370
    -2
100
AcDbBlockReference
  2
_DOTSMALL
 10
9441.564297394132
 20
1999.714973743768
 30
0.0
 41
100.0
 42
100.0
 43
100.0
 50
270.0
  0
INSERT
  5
21957
330
2190A
100
AcDbEntity
  8
寸法
 62
     0
 48
50.0
370
    -2
100
AcDbBlockReference
  2
_DOTSMALL
 10
9441.564297394132
 20
1933.764973743768
 30
0.0
 41
100.0
 42
100.0
 43
100.0
 50
90.0
  0
MTEXT
  5
21958
330
2190A
100
AcDbEntity
  8
寸法
 62
     7
 48
50.0
100
AcDbMText
 10
9341.55248637051
 20
1467.756070322284
 30
0.0
 40
120.0
 41
0.0
 71
     5
 72
     1
  1
\A1;20～25
  7
STYLE1
 11
0.0000000000000001
 21
1.0
 31
0.0
 73
     1
 44
1.0
1001
ACAD
1000
MTEXTBEGIN
1070
    73
1070
     1
1070
    44
1040
1.0
1070
    74
1070
     0
1000
MTEXTEND
  0
POINT
  5
21959
330
2190A
100
AcDbEntity
  8
DEFPOINTS
 62
     0
 48
50.0
100
AcDbPoint
 10
8235.160215034294
 20
1999.714973743768
 30
0.0
  0
POINT
  5
2195A
330
2190A
100
AcDbEntity
  8
DEFPOINTS
 62
     0
 48
50.0
100
AcDbPoint
 10
8469.160215034293
 20
1933.764973743768
 30
0.0
  0
POINT
  5
2195B
330
2190A
100
AcDbEntity
  8
DEFPOINTS
 62
     0
 48
50.0
100
AcDbPoint
 10
9441.564297394132
 20
1933.764973743768
 30
0.0
  0
ENDBLK
  5
21917
330
2190A
100
AcDbEntity
  8
0
 48
50.0
100
AcDbBlockEnd
  0
BLOCK
  5
21922
330
21918
100
AcDbEntity
  8
0
 48
50.0
100
AcDbBlockBegin
  2
*D28
 70
     1
 10
0.0
 20
0.0
 30
0.0
  3
*D28
  1

  0
LINE
  5
2195C
330
21918
100
AcDbEntity
  8
寸法
 62
     0
 48
50.0
370
    -2
100
AcDbLine
 10
6066.611073562799
 20
1953.764973743768
 30
0.0
 11
6066.611073562799
 21
2518.349733639244
 31
0.0
  0
LINE
  5
2195D
330
21918
100
AcDbEntity
  8
寸法
 62
     0
 48
50.0
370
    -2
100
AcDbLine
 10
5826.611073562799
 20
1953.764973743768
 30
0.0
 11
5826.611073562799
 21
2518.349733639244
 31
0.0
  0
LINE
  5
2195E
330
21918
100
AcDbEntity
  8
寸法
 62
     0
 48
50.0
370
    -2
100
AcDbLine
 10
6066.611073562799
 20
2458.349733639244
 30
0.0
 11
5826.611073562799
 21
2458.349733639244
 31
0.0
  0
INSERT
  5
2195F
330
21918
100
AcDbEntity
  8
寸法
 62
     0
 48
50.0
370
    -2
100
AcDbBlockReference
  2
_DOTSMALL
 10
6066.611073562799
 20
2458.349733639244
 30
0.0
 41
100.0
 42
100.0
 43
100.0
  0
INSERT
  5
21960
330
21918
100
AcDbEntity
  8
寸法
 62
     0
 48
50.0
370
    -2
100
AcDbBlockReference
  2
_DOTSMALL
 10
5826.611073562799
 20
2458.349733639244
 30
0.0
 41
100.0
 42
100.0
 43
100.0
 50
180.0
  0
MTEXT
  5
21961
330
21918
100
AcDbEntity
  8
寸法
 62
     7
 48
50.0
100
AcDbMText
 10
5946.611073562799
 20
2658.361544662866
 30
0.0
 40
120.0
 41
0.0
 71
     5
 72
     1
  1
\A1;120\P195
  7
STYLE1
 73
     1
 44
1.0
1001
ACAD
1000
MTEXTBEGIN
1070
    73
1070
     1
1070
    44
1040
1.0
1070
    74
1070
     0
1000
MTEXTEND
  0
POINT
  5
21962
330
21918
100
AcDbEntity
  8
DEFPOINTS
 62
     0
 48
50.0
100
AcDbPoint
 10
6066.611073562799
 20
1933.764973743768
 30
0.0
  0
POINT
  5
21963
330
21918
100
AcDbEntity
  8
DEFPOINTS
 62
     0
 48
50.0
100
AcDbPoint
 10
5826.611073562799
 20
1933.764973743768
 30
0.0
  0
POINT
  5
21964
330
21918
100
AcDbEntity
  8
DEFPOINTS
 62
     0
 48
50.0
100
AcDbPoint
 10
5826.611073562799
 20
2458.349733639244
 30
0.0
  0
ENDBLK
  5
21923
330
21918
100
AcDbEntity
  8
0
 48
50.0
100
AcDbBlockEnd
  0
BLOCK
  5
2192E
330
21924
100
AcDbEntity
  8
0
 48
50.0
100
AcDbBlockBegin
  2
*D29
 70
     1
 10
0.0
 20
0.0
 30
0.0
  3
*D29
  1

  0
LINE
  5
21965
330
21924
100
AcDbEntity
  8
寸法
 62
     0
 48
50.0
370
    -2
100
AcDbLine
 10
5646.611073562799
 20
1253.764973743767
 30
0.0
 11
5428.585681397226
 21
1253.764973743767
 31
0.0
  0
LINE
  5
21966
330
21924
100
AcDbEntity
  8
寸法
 62
     0
 48
50.0
370
    -2
100
AcDbLine
 10
5546.611073562804
 20
953.7649737437668
 30
0.0
 11
5428.585681397226
 21
953.7649737437668
 31
0.0
  0
LINE
  5
21967
330
21924
100
AcDbEntity
  8
寸法
 62
     0
 48
50.0
370
    -2
100
AcDbLine
 10
5488.585681397226
 20
1253.764973743767
 30
0.0
 11
5488.585681397226
 21
953.7649737437668
 31
0.0
  0
INSERT
  5
21968
330
21924
100
AcDbEntity
  8
寸法
 62
     0
 48
50.0
370
    -2
100
AcDbBlockReference
  2
_DOTSMALL
 10
5488.585681397226
 20
1253.764973743767
 30
0.0
 41
100.0
 42
100.0
 43
100.0
 50
90.0
  0
INSERT
  5
21969
330
21924
100
AcDbEntity
  8
寸法
 62
     0
 48
50.0
370
    -2
100
AcDbBlockReference
  2
_DOTSMALL
 10
5488.585681397226
 20
953.7649737437668
 30
0.0
 41
100.0
 42
100.0
 43
100.0
 50
270.0
  0
MTEXT
  5
2196A
330
21924
100
AcDbEntity
  8
寸法
 62
     7
 48
50.0
100
AcDbMText
 10
5388.585681397226
 20
1103.764973743767
 30
0.0
 40
120.0
 41
0.0
 71
     5
 72
     1
  1
\A1;150
  7
STYLE1
 11
0.0000000000000001
 21
1.0
 31
0.0
 73
     1
 44
1.0
1001
ACAD
1000
MTEXTBEGIN
1070
    73
1070
     1
1070
    44
1040
1.0
1070
    74
1070
     0
1000
MTEXTEND
  0
POINT
  5
2196B
330
21924
100
AcDbEntity
  8
DEFPOINTS
 62
     0
 48
50.0
100
AcDbPoint
 10
5666.611073562799
 20
1253.764973743767
 30
0.0
  0
POINT
  5
2196C
330
21924
100
AcDbEntity
  8
DEFPOINTS
 62
     0
 48
50.0
100
AcDbPoint
 10
5566.611073562804
 20
953.7649737437668
 30
0.0
  0
POINT
  5
2196D
330
21924
100
AcDbEntity
  8
DEFPOINTS
 62
     0
 48
50.0
100
AcDbPoint
 10
5488.585681397226
 20
953.7649737437668
 30
0.0
  0
ENDBLK
  5
2192F
330
21924
100
AcDbEntity
  8
0
 48
50.0
100
AcDbBlockEnd
  0
BLOCK
  5
2193A
330
21930
100
AcDbEntity
  8
0
 48
50.0
100
AcDbBlockBegin
  2
*D30
 70
     1
 10
0.0
 20
0.0
 30
0.0
  3
*D30
  1

  0
LINE
  5
2196E
330
21930
100
AcDbEntity
  8
寸法
 62
     0
 48
50.0
370
    -2
100
AcDbLine
 10
5806.611073562799
 20
1933.764973743768
 30
0.0
 11
5005.966135526737
 21
1933.764973743768
 31
0.0
  0
LINE
  5
2196F
330
21930
100
AcDbEntity
  8
寸法
 62
     0
 48
50.0
370
    -2
100
AcDbLine
 10
5546.611073562804
 20
953.7649737437668
 30
0.0
 11
5005.966135526737
 21
953.764973743767
 31
0.0
  0
LINE
  5
21970
330
21930
100
AcDbEntity
  8
寸法
 62
     0
 48
50.0
370
    -2
100
AcDbLine
 10
5065.966135526736
 20
1933.764973743768
 30
0.0
 11
5065.966135526736
 21
953.764973743767
 31
0.0
  0
INSERT
  5
21971
330
21930
100
AcDbEntity
  8
寸法
 62
     0
 48
50.0
370
    -2
100
AcDbBlockReference
  2
_DOTSMALL
 10
5065.966135526736
 20
1933.764973743768
 30
0.0
 41
100.0
 42
100.0
 43
100.0
 50
90.0
  0
INSERT
  5
21972
330
21930
100
AcDbEntity
  8
寸法
 62
     0
 48
50.0
370
    -2
100
AcDbBlockReference
  2
_DOTSMALL
 10
5065.966135526736
 20
953.764973743767
 30
0.0
 41
100.0
 42
100.0
 43
100.0
 50
270.0
  0
MTEXT
  5
21973
330
21930
100
AcDbEntity
  8
寸法
 62
     7
 48
50.0
100
AcDbMText
 10
4965.966135526736
 20
1443.764973743768
 30
0.0
 40
120.0
 41
0.0
 71
     5
 72
     1
  1
\A1;540
  7
STYLE1
 11
0.0000000000000001
 21
1.0
 31
0.0
 73
     1
 44
1.0
1001
ACAD
1000
MTEXTBEGIN
1070
    73
1070
     1
1070
    44
1040
1.0
1070
    74
1070
     0
1000
MTEXTEND
  0
POINT
  5
21974
330
21930
100
AcDbEntity
  8
DEFPOINTS
 62
     0
 48
50.0
100
AcDbPoint
 10
5826.611073562799
 20
1933.764973743768
 30
0.0
  0
POINT
  5
21975
330
21930
100
AcDbEntity
  8
DEFPOINTS
 62
     0
 48
50.0
100
AcDbPoint
 10
5566.611073562804
 20
953.7649737437668
 30
0.0
  0
POINT
  5
21976
330
21930
100
AcDbEntity
  8
DEFPOINTS
 62
     0
 48
50.0
100
AcDbPoint
 10
5065.966135526736
 20
953.764973743767
 30
0.0
  0
ENDBLK
  5
2193B
330
21930
100
AcDbEntity
  8
0
 48
50.0
100
AcDbBlockEnd
  0
BLOCK
  5
21946
330
2193C
100
AcDbEntity
  8
0
 48
50.0
100
AcDbBlockBegin
  2
*D31
 70
     1
 10
0.0
 20
0.0
 30
0.0
  3
*D31
  1

  0
LINE
  5
21977
330
2193C
100
AcDbEntity
  8
寸法
 62
     0
 48
50.0
370
    -2
100
AcDbLine
 10
5666.611073562799
 20
773.7649737437668
 30
0.0
 11
5666.611073562799
 21
434.8128672878337
 31
0.0
  0
LINE
  5
21978
330
2193C
100
AcDbEntity
  8
寸法
 62
     0
 48
50.0
370
    -2
100
AcDbLine
 10
6226.611073562801
 20
773.7649737437668
 30
0.0
 11
6226.611073562801
 21
434.8128672878337
 31
0.0
  0
LINE
  5
21979
330
2193C
100
AcDbEntity
  8
寸法
 62
     0
 48
50.0
370
    -2
100
AcDbLine
 10
5666.611073562799
 20
494.8128672878338
 30
0.0
 11
6226.611073562801
 21
494.8128672878338
 31
0.0
  0
INSERT
  5
2197A
330
2193C
100
AcDbEntity
  8
寸法
 62
     0
 48
50.0
370
    -2
100
AcDbBlockReference
  2
_DOTSMALL
 10
5666.611073562799
 20
494.8128672878338
 30
0.0
 41
100.0
 42
100.0
 43
100.0
 50
180.0
  0
INSERT
  5
2197B
330
2193C
100
AcDbEntity
  8
寸法
 62
     0
 48
50.0
370
    -2
100
AcDbBlockReference
  2
_DOTSMALL
 10
6226.611073562801
 20
494.8128672878338
 30
0.0
 41
100.0
 42
100.0
 43
100.0
  0
MTEXT
  5
2197C
330
2193C
100
AcDbEntity
  8
寸法
 62
     7
 48
50.0
100
AcDbMText
 10
5946.611073562799
 20
594.8128672878338
 30
0.0
 40
120.0
 41
0.0
 71
     5
 72
     1
  1
\A1;300
  7
STYLE1
 73
     1
 44
1.0
1001
ACAD
1000
MTEXTBEGIN
1070
    73
1070
     1
1070
    44
1040
1.0
1070
    74
1070
     0
1000
MTEXTEND
  0
POINT
  5
2197D
330
2193C
100
AcDbEntity
  8
DEFPOINTS
 62
     0
 48
50.0
100
AcDbPoint
 10
5666.611073562799
 20
793.7649737437668
 30
0.0
  0
POINT
  5
2197E
330
2193C
100
AcDbEntity
  8
DEFPOINTS
 62
     0
 48
50.0
100
AcDbPoint
 10
6226.611073562801
 20
793.7649737437668
 30
0.0
  0
POINT
  5
2197F
330
2193C
100
AcDbEntity
  8
DEFPOINTS
 62
     0
 48
50.0
100
AcDbPoint
 10
6226.611073562801
 20
494.8128672878338
 30
0.0
  0
ENDBLK
  5
21947
330
2193C
100
AcDbEntity
  8
0
 48
50.0
100
AcDbBlockEnd
  0
ENDSEC
  0
SECTION
  2
ENTITIES
  0
LINE
  5
10B57
330
747D
100
AcDbEntity
  8
補助
  6
PHANTOM
 62
   230
 48
50.0
100
AcDbLine
 10
139.9999999999995
 20
11409.6
 30
0.0
 11
16307.2
 21
11409.6
 31
0.0
  0
LINE
  5
10B59
330
747D
100
AcDbEntity
  8
仕様書枠
  6
Continuous
 48
50.0
100
AcDbLine
 10
13107.2
 20
1200.0
 30
0.0
 11
13107.2
 21
-0.0000000000000729
 31
0.0
  0
LINE
  5
10B5C
330
747D
100
AcDbEntity
  8
仕様書枠
 48
50.0
100
AcDbLine
 10
16307.2
 20
1200.0
 30
0.0
 11
16307.2
 21
-0.0000000000000909
 31
0.0
  0
LINE
  5
10B5D
330
747D
100
AcDbEntity
  8
仕様書枠
 48
50.0
100
AcDbLine
 10
140.0
 20
0.0
 30
0.0
 11
16307.2
 21
-0.0000000000000909
 31
0.0
  0
LINE
  5
10B5E
330
747D
100
AcDbEntity
  8
補助
  6
PHANTOM
 62
   230
 48
50.0
100
AcDbLine
 10
16307.2
 20
11409.6
 30
0.0
 11
16307.2
 21
1200.0
 31
0.0
  0
LINE
  5
10B6C
330
747D
100
AcDbEntity
  8
仕様書枠
 48
50.0
100
AcDbLine
 10
13107.2
 20
1200.0
 30
0.0
 11
16307.2
 21
1200.0
 31
0.0
  0
LINE
  5
10B6D
330
747D
100
AcDbEntity
  8
補助
  6
PHANTOM
 62
   230
 48
50.0
100
AcDbLine
 10
13107.2
 20
11409.6
 30
0.0
 11
13107.2
 21
4800.0
 31
0.0
  0
LINE
  5
10B6F
330
747D
100
AcDbEntity
  8
補助
  6
PHANTOM
 62
   230
 48
50.0
100
AcDbLine
 10
13107.2
 20
4800.0
 30
0.0
 11
16307.2
 21
4800.0
 31
0.0
  0
LINE
  5
10B72
330
747D
100
AcDbEntity
  8
文字
 62
     7
 48
50.0
100
AcDbLine
 10
13187.2
 20
400.0
 30
0.0
 11
16227.2
 21
400.0
 31
0.0
  0
TEXT
  5
10B73
330
747D
100
AcDbEntity
  8
文字
 62
     7
 48
50.0
100
AcDbText
 10
13162.9790565769
 20
895.0906074299405
 30
0.0
 40
200.0
  1
基 礎 図
  7
STYLE2
100
AcDbText
  0
TEXT
  5
10B74
330
747D
100
AcDbEntity
  8
文字
 62
     7
 48
50.0
100
AcDbText
 10
13201.43669998441
 20
477.2740661031255
 30
0.0
 40
160.0
  1
機種名
  7
STYLE2
100
AcDbText
  0
LINE
  5
10B7B
330
747D
100
AcDbEntity
  8
仕様書枠
 48
50.0
100
AcDbLine
 10
13107.2
 20
800.0
 30
0.0
 11
14251.2
 21
800.0
 31
0.0
  0
LINE
  5
10B88
330
747D
100
AcDbEntity
  8
仕様書枠
  6
Continuous
 48
50.0
100
AcDbLine
 10
14251.2
 20
1200.0
 30
0.0
 11
14251.2
 21
800.0
 31
0.0
  0
TEXT
  5
15A76
330
747D
100
AcDbEntity
  8
文字
 62
     7
 48
50.0
100
AcDbText
 10
14315.74821228093
 20
483.8967129911411
 30
0.0
 40
160.0
  1
NXP-36ST・HT
  7
STYLE2
100
AcDbText
  0
TEXT
  5
1D002
330
747D
100
AcDbEntity
  8
文字
 62
     7
 48
50.0
100
AcDbText
 10
13188.16259899338
 20
246.7109242801889
 30
0.0
 40
80.0
  1
※寒冷地等は地域の実情に合わせた基礎にして下さい。
  7
STYLE2
100
AcDbText
  0
DIMENSION
  5
1D91B
330
747D
100
AcDbEntity
  8
寸法
 48
50.0
100
AcDbDimension
  2
*D1
 10
7219.154516945171
 20
5952.919036112877
 30
0.0
 11
7219.15451694517
 21
6213.966280207367
 31
0.0
 70
   160
 71
     5
 42
110.0000000000018
  3
INABA_S40G
100
AcDbAlignedDimension
 13
7026.195288608608
 23
5842.919036112876
 33
0.0
 14
7026.195288608608
 24
5952.919036112877
 34
0.0
 50
90.0
100
AcDbRotatedDimension
  0
DIMENSION
  5
1D91C
330
747D
100
AcDbEntity
  8
寸法
 48
50.0
100
AcDbDimension
  2
*D2
 10
7219.15451694517
 20
5647.919036112876
 30
0.0
 11
7219.154516945168
 21
5409.224094908982
 31
0.0
 70
   160
 71
     5
 42
195.0
  3
INABA_S40G
100
AcDbAlignedDimension
 13
7026.195288608608
 23
5842.919036112876
 33
0.0
 14
7080.798057431164
 24
5647.919036112876
 34
0.0
 50
90.0
100
AcDbRotatedDimension
  0
LINE
  5
1D91E
330
747D
100
AcDbEntity
  8
部品1
 48
50.0
100
AcDbLine
 10
9206.195288608608
 20
5842.919036112876
 30
0.0
 11
7026.195288608606
 21
5842.919036112858
 31
0.0
  0
LINE
  5
1D91F
330
747D
100
AcDbEntity
  8
部品1
 48
50.0
100
AcDbLine
 10
9206.195288608608
 20
6982.919036112839
 30
0.0
 11
7026.195288608608
 21
6982.919036112843
 31
0.0
  0
LINE
  5
1D921
330
747D
100
AcDbEntity
  8
部品1
 48
50.0
100
AcDbLine
 10
8564.195288608607
 20
5647.919036112869
 30
0.0
 11
6796.195288608608
 21
5647.919036112856
 31
0.0
  0
LINE
  5
1D922
330
747D
100
AcDbEntity
  8
部品1
 48
50.0
100
AcDbLine
 10
9436.195288608606
 20
7102.919036112847
 30
0.0
 11
6796.195288608607
 21
7102.919036112841
 31
0.0
  0
LINE
  5
1D923
330
747D
100
AcDbEntity
  8
想像線
 48
10.0
100
AcDbLine
 10
9481.195288608608
 20
5667.919036112856
 30
0.0
 11
6754.195288608606
 21
5667.919036112861
 31
0.0
  0
LINE
  5
1D924
330
747D
100
AcDbEntity
  8
想像線
 48
10.0
100
AcDbLine
 10
6754.195288608606
 20
7177.919036112841
 30
0.0
 11
9481.195288608606
 21
7177.919036112846
 31
0.0
  0
DIMENSION
  5
1D927
330
747D
100
AcDbEntity
  8
寸法
 48
50.0
100
AcDbDimension
  2
*D3
 10
6240.253022594785
 20
5845.919036112861
 30
0.0
 11
6240.253022594785
 21
6469.622096454681
 31
0.0
 70
   160
 71
     5
 42
1133.99999999998
  3
INABA_S40G
100
AcDbAlignedDimension
 13
6869.195288608607
 23
6979.919036112841
 33
0.0
 14
6869.195288608614
 24
5845.919036112861
 34
0.0
 50
90.0
100
AcDbRotatedDimension
  0
LINE
  5
1D928
330
747D
100
AcDbEntity
  8
部品1
 48
50.0
100
AcDbLine
 10
6916.195288608607
 20
5952.919036112861
 30
0.0
 11
6916.195288608607
 21
6872.91903611284
 31
0.0
  0
DIMENSION
  5
1D929
330
747D
100
AcDbEntity
  8
寸法
 48
50.0
100
AcDbDimension
  2
*D4
 10
5923.566541514515
 20
5722.91903611286
 30
0.0
 11
5923.566541514514
 21
6466.94743868655
 31
0.0
 70
   160
 71
     5
 42
1379.999999999981
  3
INABA_S40G
100
AcDbAlignedDimension
 13
6796.195288608608
 23
7102.91903611284
 33
0.0
 14
6796.195288608608
 24
5722.919036112859
 34
0.0
 50
90.0
100
AcDbRotatedDimension
  0
LINE
  5
1D92A
330
747D
100
AcDbEntity
  8
部品1
 48
50.0
100
AcDbLine
 10
6796.195288608608
 20
5722.919036112855
 30
0.0
 11
6796.195288608607
 21
7102.919036112841
 31
0.0
  0
LINE
  5
1D92B
330
747D
100
AcDbEntity
  8
想像線
 48
10.0
100
AcDbLine
 10
6751.195288608606
 20
5670.919036112861
 30
0.0
 11
6751.195288608606
 21
7174.919036112841
 31
0.0
  0
DIMENSION
  5
1D92C
330
747D
100
AcDbEntity
  8
寸法
 48
50.0
100
AcDbDimension
  2
*D5
 10
6240.253022594785
 20
5722.919036112859
 30
0.0
 11
6240.253022594785
 21
5484.433754738623
 31
0.0
 70
   160
 71
     5
 42
123.0000000000018
  3
INABA_S40G
100
AcDbAlignedDimension
 13
6869.195288608614
 23
5845.919036112861
 33
0.0
 14
6796.195288608608
 24
5722.919036112859
 34
0.0
 50
90.0
100
AcDbRotatedDimension
  0
DIMENSION
  5
1D92D
330
747D
100
AcDbEntity
  8
寸法
 48
50.0
100
AcDbDimension
  2
*D6
 10
5923.566541514514
 20
5667.91903611286
 30
0.0
 11
5923.566541514512
 21
5695.419036112861
 31
0.0
 70
   160
  1
b
 71
     5
 42
55.0
  3
INABA_S40G
100
AcDbAlignedDimension
 13
6796.195288608608
 23
5722.919036112859
 33
0.0
 14
6240.253022594783
 24
5667.919036112859
 34
0.0
 50
90.0
100
AcDbRotatedDimension
  0
LINE
  5
1D92E
330
747D
100
AcDbEntity
  8
センター
 48
2.0
100
AcDbLine
 10
6919.195288608614
 20
5895.919036112861
 30
0.0
 11
6919.195288608614
 21
5795.919036112861
 31
0.0
  0
LINE
  5
1D92F
330
747D
100
AcDbEntity
  8
センター
 48
2.0
100
AcDbLine
 10
6869.195288608614
 20
5845.919036112861
 30
0.0
 11
6969.195288608614
 21
5845.919036112861
 31
0.0
  0
CIRCLE
  5
1D930
330
747D
100
AcDbEntity
  8
部品1
 48
50.0
100
AcDbCircle
 10
6919.195288608614
 20
5845.919036112861
 30
0.0
 40
35.0
  0
LINE
  5
1D931
330
747D
100
AcDbEntity
  8
部品1
 48
50.0
100
AcDbLine
 10
7026.195288608608
 20
5952.919036112863
 30
0.0
 11
6916.195288608607
 21
5952.919036112861
 31
0.0
  0
LINE
  5
1D932
330
747D
100
AcDbEntity
  8
部品1
 48
50.0
100
AcDbLine
 10
7026.195288608606
 20
5842.919036112858
 30
0.0
 11
7026.195288608608
 21
5952.919036112863
 31
0.0
  0
DIMENSION
  5
1D933
330
747D
100
AcDbEntity
  8
寸法
 48
50.0
100
AcDbDimension
  2
*D7
 10
6240.253022594787
 20
6979.919036112841
 30
0.0
 11
6240.253022594785
 21
7341.404317487081
 31
0.0
 70
   160
 71
     5
 42
123.0
  3
INABA_S40G
100
AcDbAlignedDimension
 13
6796.195288608608
 23
7102.919036112841
 33
0.0
 14
6869.195288608607
 24
6979.919036112841
 34
0.0
 50
90.0
100
AcDbRotatedDimension
  0
DIMENSION
  5
1D934
330
747D
100
AcDbEntity
  8
寸法
 48
50.0
100
AcDbDimension
  2
*D8
 10
5923.566541514516
 20
7102.919036112843
 30
0.0
 11
5923.566541514514
 21
7140.419036112843
 31
0.0
 70
   160
  1
c
 71
     5
 42
75.0
  3
INABA_S40G
100
AcDbAlignedDimension
 13
6240.253022594783
 23
7177.919036112841
 33
0.0
 14
6796.195288608608
 24
7102.919036112841
 34
0.0
 50
90.0
100
AcDbRotatedDimension
  0
LINE
  5
1D935
330
747D
100
AcDbEntity
  8
部品1
 48
50.0
100
AcDbLine
 10
6916.195288608609
 20
6512.919036112842
 30
0.0
 11
6796.195288608607
 21
6512.919036112842
 31
0.0
  0
LINE
  5
1D936
330
747D
100
AcDbEntity
  8
部品1
 48
50.0
100
AcDbLine
 10
6916.195288608609
 20
6312.919036112842
 30
0.0
 11
6796.195288608607
 21
6312.919036112842
 31
0.0
  0
LINE
  5
1D938
330
747D
100
AcDbEntity
  8
センター
 48
2.0
100
AcDbLine
 10
6919.195288608607
 20
7029.919036112841
 30
0.0
 11
6919.195288608607
 21
6929.919036112841
 31
0.0
  0
LINE
  5
1D939
330
747D
100
AcDbEntity
  8
センター
 48
2.0
100
AcDbLine
 10
6869.195288608607
 20
6979.919036112841
 30
0.0
 11
6969.195288608607
 21
6979.919036112841
 31
0.0
  0
CIRCLE
  5
1D93A
330
747D
100
AcDbEntity
  8
部品1
 48
50.0
100
AcDbCircle
 10
6919.195288608607
 20
6979.919036112841
 30
0.0
 40
35.0
  0
LINE
  5
1D93B
330
747D
100
AcDbEntity
  8
部品1
 48
50.0
100
AcDbLine
 10
7026.195288608608
 20
6872.919036112837
 30
0.0
 11
6916.195288608607
 21
6872.91903611284
 31
0.0
  0
LINE
  5
1D93C
330
747D
100
AcDbEntity
  8
部品1
 48
50.0
100
AcDbLine
 10
7026.195288608608
 20
6872.919036112837
 30
0.0
 11
7026.195288608608
 21
6982.919036112844
 31
0.0
  0
DIMENSION
  5
1D942
330
747D
100
AcDbEntity
  8
寸法
 48
50.0
100
AcDbDimension
  2
*D9
 10
9316.195288608607
 20
6228.900535609747
 30
0.0
 11
8982.148044514119
 21
6228.900535609747
 31
0.0
 70
   160
 71
     5
 42
110.0
  3
INABA_S40G
100
AcDbAlignedDimension
 13
9206.195288608608
 23
5952.919036112863
 33
0.0
 14
9316.195288608607
 24
5952.919036112863
 34
0.0
 50
180.0
100
AcDbRotatedDimension
  0
TEXT
  5
1D943
330
747D
100
AcDbEntity
  8
部品1
 48
50.0
100
AcDbText
 10
9889.056162692213
 20
5767.680517939602
 30
0.0
 40
80.0
  1
(a=45,b=55,c=75)
  7
STYLE1
100
AcDbText
  0
TEXT
  5
1D944
330
747D
100
AcDbEntity
  8
部品1
 48
50.0
100
AcDbText
 10
9819.17927508733
 20
5887.411564092742
 30
0.0
 40
80.0
  1
※a,b,cは屋根の出幅です。
  7
STYLE1
100
AcDbText
  0
MTEXT
  5
1D945
102
{ACAD_REACTORS
330
1D946
102
}
330
747D
100
AcDbEntity
  8
部品1
 62
     7
 48
50.0
100
AcDbMText
 10
9826.931652767825
 20
6101.874806226523
 30
0.0
 40
120.0
 41
0.0
 71
     4
 72
     1
  1
\A1;屋根の外寸
  7
STYLE1
 73
     1
 44
1.0
1001
ACAD
1000
MTEXTBEGIN
1070
    73
1070
     1
1070
    44
1040
1.0
1070
    74
1070
     0
1000
MTEXTEND
  0
LEADER
  5
1D946
330
747D
100
AcDbEntity
  8
寸法
 48
50.0
100
AcDbLeader
  3
INABA_S40G
 71
     0
 73
     0
 74
     0
 75
     1
 40
120.0
 41
672.0
 76
     3
 10
9481.195288608608
 20
6111.386175056418
 30
0.0
 10
9686.931652767826
 20
6001.874806226523
 30
0.0
 10
9786.931652767826
 20
6001.874806226523
 30
0.0
340
1D945
  0
DIMENSION
  5
1D947
330
747D
100
AcDbEntity
  8
寸法
 48
50.0
100
AcDbDimension
  2
*D10
 10
9025.895991981684
 20
6872.91903611284
 30
0.0
 11
9025.895991981682
 21
6648.871792018351
 31
0.0
 70
   160
 71
     5
 42
110.0
  3
INABA_S40G
100
AcDbAlignedDimension
 13
9206.195288608608
 23
6982.919036112839
 33
0.0
 14
9206.195288608608
 24
6872.91903611284
 34
0.0
 50
90.0
100
AcDbRotatedDimension
  0
LINE
  5
1D949
330
747D
100
AcDbEntity
  8
部品1
 48
50.0
100
AcDbLine
 10
9316.195288608607
 20
5952.91903611288
 30
0.0
 11
9316.195288608607
 21
6872.919036112843
 31
0.0
  0
LINE
  5
1D94A
330
747D
100
AcDbEntity
  8
部品1
 48
50.0
100
AcDbLine
 10
9436.195288608606
 20
5722.919036112878
 30
0.0
 11
9436.195288608606
 21
7102.919036112847
 31
0.0
  0
LINE
  5
1D94B
330
747D
100
AcDbEntity
  8
想像線
 48
10.0
100
AcDbLine
 10
9481.195288608606
 20
7177.919036112846
 30
0.0
 11
9481.195288608612
 21
5667.919036112859
 31
0.0
  0
TEXT
  5
1D94C
330
747D
100
AcDbEntity
  8
部品1
 48
50.0
100
AcDbText
 10
7591.607668062803
 20
5461.466534709401
 30
0.0
 40
120.0
  1
扉面
  7
STYLE1
 72
     1
 11
7719.607668062803
 21
5445.466534709401
 31
0.0
100
AcDbText
 73
     1
  0
LINE
  5
1D94F
330
747D
100
AcDbEntity
  8
部品1
 48
50.0
100
AcDbLine
 10
8016.195288608606
 20
5647.919036112866
 30
0.0
 11
8016.195288608606
 21
5842.919036112864
 31
0.0
  0
LINE
  5
1D950
330
747D
100
AcDbEntity
  8
部品1
 48
50.0
100
AcDbLine
 10
8216.195288608608
 20
5647.919036112868
 30
0.0
 11
8216.195288608608
 21
5842.919036112869
 31
0.0
  0
LINE
  5
1D951
330
747D
100
AcDbEntity
  8
センター
 48
2.0
100
AcDbLine
 10
9263.195288608615
 20
5845.919036112861
 30
0.0
 11
9363.195288608615
 21
5845.919036112861
 31
0.0
  0
CIRCLE
  5
1D952
330
747D
100
AcDbEntity
  8
部品1
 48
50.0
100
AcDbCircle
 10
9313.195288608616
 20
5845.919036112861
 30
0.0
 40
35.0
  0
LINE
  5
1D953
330
747D
100
AcDbEntity
  8
部品1
 48
50.0
100
AcDbLine
 10
9316.195288608607
 20
5952.919036112877
 30
0.0
 11
9206.195288608608
 21
5952.919036112877
 31
0.0
  0
LINE
  5
1D954
330
747D
100
AcDbEntity
  8
部品1
 48
50.0
100
AcDbLine
 10
9206.195288608608
 20
5842.919036112876
 30
0.0
 11
9206.195288608608
 21
5952.919036112877
 31
0.0
  0
LINE
  5
1D955
330
747D
100
AcDbEntity
  8
センター
 48
2.0
100
AcDbLine
 10
9313.195288608616
 20
5895.919036112861
 30
0.0
 11
9313.195288608616
 21
5795.919036112861
 31
0.0
  0
LINE
  5
1D956
330
747D
100
AcDbEntity
  8
部品1
 48
50.0
100
AcDbLine
 10
8216.195288608593
 20
6982.919036112839
 30
0.0
 11
8216.195288608593
 21
7102.919036112843
 31
0.0
  0
LINE
  5
1D957
330
747D
100
AcDbEntity
  8
部品1
 48
50.0
100
AcDbLine
 10
8016.195288608592
 20
6982.919036112841
 30
0.0
 11
8016.195288608592
 21
7102.919036112843
 31
0.0
  0
DIMENSION
  5
1D959
330
747D
100
AcDbEntity
  8
寸法
 48
50.0
100
AcDbDimension
  2
*D11
 10
9025.895991981684
 20
6982.919036112839
 30
0.0
 11
9025.895991981682
 21
7338.966280207336
 31
0.0
 70
   160
 71
     5
 42
120.0000000000063
  3
INABA_S40G
100
AcDbAlignedDimension
 13
9111.804286152773
 23
7102.919036112846
 33
0.0
 14
9206.195288608608
 24
6982.919036112839
 34
0.0
 50
90.0
100
AcDbRotatedDimension
  0
LINE
  5
1D95A
330
747D
100
AcDbEntity
  8
センター
 48
2.0
100
AcDbLine
 10
9263.195288608606
 20
6979.919036112841
 30
0.0
 11
9363.195288608606
 21
6979.919036112841
 31
0.0
  0
CIRCLE
  5
1D95B
330
747D
100
AcDbEntity
  8
部品1
 48
50.0
100
AcDbCircle
 10
9313.195288608607
 20
6979.919036112841
 30
0.0
 40
35.0
  0
LINE
  5
1D95C
330
747D
100
AcDbEntity
  8
部品1
 48
50.0
100
AcDbLine
 10
9316.195288608607
 20
6872.919036112842
 30
0.0
 11
9206.195288608608
 21
6872.91903611284
 31
0.0
  0
LINE
  5
1D95D
330
747D
100
AcDbEntity
  8
部品1
 48
50.0
100
AcDbLine
 10
9206.195288608608
 20
6872.91903611284
 30
0.0
 11
9206.195288608608
 21
6982.919036112839
 31
0.0
  0
LINE
  5
1D95E
330
747D
100
AcDbEntity
  8
部品1
 48
50.0
100
AcDbLine
 10
9436.195288608606
 20
6512.919036112842
 30
0.0
 11
9316.195288608607
 21
6512.919036112844
 31
0.0
  0
LINE
  5
1D95F
330
747D
100
AcDbEntity
  8
部品1
 48
50.0
100
AcDbLine
 10
9436.195288608606
 20
6312.919036112842
 30
0.0
 11
9316.195288608607
 21
6312.919036112842
 31
0.0
  0
LINE
  5
1D961
330
747D
100
AcDbEntity
  8
センター
 48
2.0
100
AcDbLine
 10
9313.195288608607
 20
7029.919036112841
 30
0.0
 11
9313.195288608607
 21
6929.919036112841
 31
0.0
  0
TEXT
  5
1DEDA
330
747D
100
AcDbEntity
  8
文字
 62
     7
 48
50.0
100
AcDbText
 10
13188.16259899338
 20
79.80631269190325
 30
0.0
 40
80.0
  1
※布基礎には換気口を設けてください。
  7
STYLE2
100
AcDbText
  0
MTEXT
  5
1E700
102
{ACAD_REACTORS
330
1E701
102
}
330
747D
100
AcDbEntity
  8
部品1
 62
     7
 48
50.0
100
AcDbMText
 10
10495.31904766737
 20
7624.441075012757
 30
0.0
 40
120.0
 41
0.0
 71
     6
 72
     1
  1
基礎ボルト芯
  7
STYLE1
 73
     1
 44
1.0
1001
ACAD
1000
MTEXTBEGIN
1070
    73
1070
     1
1070
    44
1040
1.0
1070
    74
1070
     0
1000
MTEXTEND
  0
LEADER
  5
1E701
330
747D
100
AcDbEntity
  8
寸法
 48
50.0
100
AcDbLeader
  3
INABA_S40G
 71
     0
 73
     0
 74
     0
 75
     1
 40
120.0
 41
846.0000000000002
 76
     3
 10
9313.195288608607
 20
6979.919036112841
 30
0.0
 10
9509.319047667377
 20
7524.441075012757
 30
0.0
 10
9609.319047667376
 20
7524.441075012757
 30
0.0
340
1E700
  0
LINE
  5
1E98F
330
747D
100
AcDbEntity
  8
センター
 48
2.0
100
AcDbLine
 10
8481.195288608608
 20
6412.919036112859
 30
0.0
 11
8581.195288608608
 21
6412.919036112859
 31
0.0
  0
LINE
  5
1E993
330
747D
100
AcDbEntity
  8
センター
 48
2.0
100
AcDbLine
 10
8531.195288608607
 20
6462.919036112859
 30
0.0
 11
8531.195288608607
 21
6362.91903611286
 31
0.0
  0
MTEXT
  5
1F11B
102
{ACAD_REACTORS
330
1F11C
102
}
330
747D
100
AcDbEntity
  8
部品1
 62
     7
 48
50.0
100
AcDbMText
 10
10424.82631074047
 20
6691.650309806667
 30
0.0
 40
120.0
 41
0.0
 71
     6
 72
     1
  1
床下換気口
  7
STYLE1
 73
     1
 44
1.0
1001
ACAD
1000
MTEXTBEGIN
1070
    73
1070
     1
1070
    44
1040
1.0
1070
    74
1070
     0
1000
MTEXTEND
  0
LEADER
  5
1F11C
330
747D
100
AcDbEntity
  8
寸法
 48
50.0
100
AcDbLeader
  3
INABA_S40G
 71
     0
 73
     0
 74
     0
 75
     1
 40
120.0
 41
720.0000000000001
 76
     3
 10
9436.195288608606
 20
6426.887823488375
 30
0.0
 10
9564.826310740471
 20
6591.650309806666
 30
0.0
 10
9664.826310740473
 20
6591.650309806666
 30
0.0
340
1F11B
  0
LINE
  5
1F813
330
747D
100
AcDbEntity
  8
想像線
 48
10.0
100
AcDbLine
 10
6754.195288608606
 20
7177.919036112841
 30
0.0
 11
6751.195288608606
 21
7174.919036112841
 31
0.0
  0
LINE
  5
1F817
330
747D
100
AcDbEntity
  8
想像線
 48
10.0
100
AcDbLine
 10
6751.195288608606
 20
5670.919036112861
 30
0.0
 11
6754.195288608606
 21
5667.919036112861
 31
0.0
  0
LEADER
  5
1FA71
330
747D
100
AcDbEntity
  8
寸法
 48
50.0
100
AcDbLeader
  3
INABA_S40G
 71
     0
 73
     0
 75
     1
 40
120.0
 41
185.591883092037
 76
     3
 10
8513.7898570268
 20
6337.490509905554
 30
0.0
 10
8404.447824422751
 20
6167.936940833286
 30
0.0
 10
8304.447824422751
 20
6167.936940833286
 30
0.0
340
1FA72
210
0.0
220
0.0
230
-1.0
213
-48.69159300306819
223
-64.66313332477875
233
0.0
  0
MTEXT
  5
1FA72
102
{ACAD_REACTORS
330
1FA71
102
}
330
747D
100
AcDbEntity
  8
部品1
 62
     7
 48
50.0
100
AcDbMText
 10
8313.139417425821
 20
6252.600074158064
 30
0.0
 40
120.0
 41
0.0
 71
     6
 72
     1
  1
\A1;C.B
  7
STYLE1
 73
     1
 44
1.0
1001
ACAD
1000
MTEXTBEGIN
1070
    73
1070
     1
1070
    44
1040
1.0
1070
    74
1070
     0
1000
MTEXTEND
  0
LINE
  5
1FF48
330
747D
100
AcDbEntity
  8
部品1
 48
50.0
100
AcDbLine
 10
8631.195288608607
 20
6612.91903611286
 30
0.0
 11
8431.195288608607
 21
6612.91903611286
 31
0.0
  0
LINE
  5
1FF49
330
747D
100
AcDbEntity
  8
部品1
 48
50.0
100
AcDbLine
 10
8631.195288608607
 20
6212.919036112857
 30
0.0
 11
8631.195288608607
 21
6612.91903611286
 31
0.0
  0
LINE
  5
1FF4A
330
747D
100
AcDbEntity
  8
部品1
 48
50.0
100
AcDbLine
 10
8631.195288608607
 20
6212.919036112857
 30
0.0
 11
8431.195288608607
 21
6212.919036112857
 31
0.0
  0
LINE
  5
1FF4B
330
747D
100
AcDbEntity
  8
部品1
 48
50.0
100
AcDbLine
 10
8431.195288608607
 20
6212.919036112859
 30
0.0
 11
8431.195288608607
 21
6612.91903611286
 31
0.0
  0
LINE
  5
1FF5E
330
747D
100
AcDbEntity
  8
部品1
 48
50.0
100
AcDbLine
 10
7601.195288608607
 20
6212.919036112859
 30
0.0
 11
7601.195288608607
 21
6612.91903611286
 31
0.0
  0
LINE
  5
1FF5F
330
747D
100
AcDbEntity
  8
部品1
 48
50.0
100
AcDbLine
 10
7801.195288608608
 20
6212.919036112857
 30
0.0
 11
7601.195288608607
 21
6212.919036112857
 31
0.0
  0
LINE
  5
1FF60
330
747D
100
AcDbEntity
  8
部品1
 48
50.0
100
AcDbLine
 10
7801.195288608608
 20
6212.919036112857
 30
0.0
 11
7801.195288608608
 21
6612.91903611286
 31
0.0
  0
LINE
  5
1FF61
330
747D
100
AcDbEntity
  8
部品1
 48
50.0
100
AcDbLine
 10
7801.195288608608
 20
6612.91903611286
 30
0.0
 11
7601.195288608607
 21
6612.91903611286
 31
0.0
  0
LINE
  5
1FF62
330
747D
100
AcDbEntity
  8
センター
 48
2.0
100
AcDbLine
 10
7701.195288608608
 20
6462.919036112859
 30
0.0
 11
7701.195288608608
 21
6362.91903611286
 31
0.0
  0
LINE
  5
1FF63
330
747D
100
AcDbEntity
  8
センター
 48
2.0
100
AcDbLine
 10
7651.195288608608
 20
6412.919036112859
 30
0.0
 11
7751.195288608608
 21
6412.919036112859
 31
0.0
  0
DIMENSION
  5
200B4
330
747D
100
AcDbEntity
  8
寸法
 48
50.0
100
AcDbDimension
  2
*D12
 10
9316.195288608607
 20
6228.900535609747
 30
0.0
 11
9672.242532703096
 21
6228.900535609747
 31
0.0
 70
   160
 71
     5
 42
120.0
  3
INABA_S40G
100
AcDbAlignedDimension
 13
9436.195288608606
 23
5949.984076503469
 33
0.0
 14
9316.195288608607
 24
5952.919036112863
 34
0.0
 50
180.0
100
AcDbRotatedDimension
  0
LINE
  5
200F4
330
747D
100
AcDbEntity
  8
細線
 48
50.0
100
AcDbLine
 10
9316.195288608607
 20
6467.509306142523
 30
0.0
 11
9361.605018578925
 21
6512.919036112844
 31
0.0
  0
LINE
  5
200F5
330
747D
100
AcDbEntity
  8
細線
 48
50.0
100
AcDbLine
 10
9316.195288608607
 20
6422.608025537178
 30
0.0
 11
9406.50629918427
 21
6512.91903611284
 31
0.0
  0
LINE
  5
200F6
330
747D
100
AcDbEntity
  8
細線
 48
50.0
100
AcDbLine
 10
9316.195288608607
 20
6377.706744931834
 30
0.0
 11
9436.195288608606
 21
6497.706744931836
 31
0.0
  0
LINE
  5
200F7
330
747D
100
AcDbEntity
  8
細線
 48
50.0
100
AcDbLine
 10
9316.195288608607
 20
6332.805464326487
 30
0.0
 11
9436.195288608608
 21
6452.805464326488
 31
0.0
  0
LINE
  5
200F8
330
747D
100
AcDbEntity
  8
細線
 48
50.0
100
AcDbLine
 10
9341.210141000305
 20
6312.919036112839
 30
0.0
 11
9436.195288608606
 21
6407.904183721142
 31
0.0
  0
LINE
  5
200F9
330
747D
100
AcDbEntity
  8
細線
 48
50.0
100
AcDbLine
 10
9386.111421605653
 20
6312.91903611284
 30
0.0
 11
9436.195288608606
 21
6363.002903115797
 31
0.0
  0
LINE
  5
200FA
330
747D
100
AcDbEntity
  8
細線
 48
50.0
100
AcDbLine
 10
9431.012702210999
 20
6312.91903611284
 30
0.0
 11
9436.195288608608
 21
6318.10162251045
 31
0.0
  0
LINE
  5
200FB
330
747D
100
AcDbEntity
  8
細線
 48
50.0
100
AcDbLine
 10
8016.195288608592
 20
7099.646443697562
 30
0.0
 11
8019.467881023876
 21
7102.919036112844
 31
0.0
  0
LINE
  5
200FC
330
747D
100
AcDbEntity
  8
細線
 48
50.0
100
AcDbLine
 10
8016.195288608592
 20
7054.745163092213
 30
0.0
 11
8064.369161629221
 21
7102.919036112843
 31
0.0
  0
LINE
  5
200FD
330
747D
100
AcDbEntity
  8
細線
 48
50.0
100
AcDbLine
 10
8016.195288608592
 20
7009.843882486869
 30
0.0
 11
8109.270442234565
 21
7102.919036112843
 31
0.0
  0
LINE
  5
200FE
330
747D
100
AcDbEntity
  8
細線
 48
50.0
100
AcDbLine
 10
8034.171722839911
 20
6982.919036112841
 30
0.0
 11
8154.171722839913
 21
7102.919036112843
 31
0.0
  0
LINE
  5
200FF
330
747D
100
AcDbEntity
  8
細線
 48
50.0
100
AcDbLine
 10
8079.073003445255
 20
6982.919036112841
 30
0.0
 11
8199.073003445255
 21
7102.919036112844
 31
0.0
  0
LINE
  5
20100
330
747D
100
AcDbEntity
  8
細線
 48
50.0
100
AcDbLine
 10
8123.974284050602
 20
6982.919036112841
 30
0.0
 11
8216.195288608593
 21
7075.140040670831
 31
0.0
  0
LINE
  5
20101
330
747D
100
AcDbEntity
  8
細線
 48
50.0
100
AcDbLine
 10
8168.87556465595
 20
6982.919036112841
 30
0.0
 11
8216.195288608593
 21
7030.238760065486
 31
0.0
  0
LINE
  5
20102
330
747D
100
AcDbEntity
  8
細線
 48
50.0
100
AcDbLine
 10
6796.195288608605
 20
6487.509306142522
 30
0.0
 11
6821.605018578927
 21
6512.919036112844
 31
0.0
  0
LINE
  5
20103
330
747D
100
AcDbEntity
  8
細線
 48
50.0
100
AcDbLine
 10
6796.195288608605
 20
6442.608025537177
 30
0.0
 11
6866.50629918427
 21
6512.91903611284
 31
0.0
  0
LINE
  5
20104
330
747D
100
AcDbEntity
  8
細線
 48
50.0
100
AcDbLine
 10
6796.195288608605
 20
6397.706744931831
 30
0.0
 11
6911.407579789616
 21
6512.919036112844
 31
0.0
  0
LINE
  5
20105
330
747D
100
AcDbEntity
  8
細線
 48
50.0
100
AcDbLine
 10
6796.195288608605
 20
6352.805464326485
 30
0.0
 11
6916.195288608607
 21
6472.805464326487
 31
0.0
  0
LINE
  5
20106
330
747D
100
AcDbEntity
  8
細線
 48
50.0
100
AcDbLine
 10
6801.210141000305
 20
6312.919036112839
 30
0.0
 11
6916.195288608607
 21
6427.904183721141
 31
0.0
  0
LINE
  5
20107
330
747D
100
AcDbEntity
  8
細線
 48
50.0
100
AcDbLine
 10
6846.111421605654
 20
6312.919036112842
 30
0.0
 11
6916.195288608607
 21
6383.002903115794
 31
0.0
  0
LINE
  5
20108
330
747D
100
AcDbEntity
  8
細線
 48
50.0
100
AcDbLine
 10
6891.012702211002
 20
6312.919036112843
 30
0.0
 11
6916.195288608607
 21
6338.101622510453
 31
0.0
  0
DIMENSION
  5
20196
330
747D
100
AcDbEntity
  8
寸法
 48
50.0
100
AcDbDimension
  2
*D18
 10
9481.195288608608
 20
8094.283880935989
 30
0.0
 11
9458.695288608607
 21
8094.283880935989
 31
0.0
 70
   160
  1
a
 71
     5
 42
45.0
  3
INABA_S40G
100
AcDbAlignedDimension
 13
9436.195288608606
 23
7177.919036112846
 33
0.0
 14
9481.195288608608
 24
7881.823185419155
 34
0.0
100
AcDbRotatedDimension
  0
DIMENSION
  5
20197
330
747D
100
AcDbEntity
  8
寸法
 48
50.0
100
AcDbDimension
  2
*D16
 10
6796.195288608608
 20
8094.283880935995
 30
0.0
 11
6773.695288608606
 21
8094.283880935995
 31
0.0
 70
   160
  1
a
 71
     5
 42
45.00000000000364
  3
INABA_S40G
100
AcDbAlignedDimension
 13
6751.195288608603
 23
7881.823185419155
 33
0.0
 14
6796.195288608608
 24
7251.190236682763
 34
0.0
100
AcDbRotatedDimension
  0
DIMENSION
  5
20198
330
747D
100
AcDbEntity
  8
寸法
 48
50.0
100
AcDbDimension
  2
*D14
 10
9436.195288608606
 20
8094.283880935989
 30
0.0
 11
8116.195288608606
 21
8194.295691959613
 31
0.0
 70
    32
 71
     5
 42
2640.0
  3
INABA_S40G
100
AcDbAlignedDimension
 13
6796.195288608608
 23
7102.919036112843
 33
0.0
 14
9436.195288608606
 24
7177.919036112846
 34
0.0
100
AcDbRotatedDimension
  0
DIMENSION
  5
20199
330
747D
100
AcDbEntity
  8
寸法
 48
50.0
100
AcDbDimension
  2
*D17
 10
9313.195288608607
 20
7881.823185419155
 30
0.0
 11
9674.680569982847
 21
7881.823185419155
 31
0.0
 70
   160
 71
     5
 42
123.0
  3
INABA_S40G
100
AcDbAlignedDimension
 13
9436.195288608606
 23
7102.919036112847
 33
0.0
 14
9313.195288608607
 24
7029.919036112841
 34
0.0
100
AcDbRotatedDimension
  0
DIMENSION
  5
2019A
330
747D
100
AcDbEntity
  8
寸法
 48
50.0
100
AcDbDimension
  2
*D15
 10
6796.195288608605
 20
7881.823185419155
 30
0.0
 11
6557.710007234367
 21
7881.823185419155
 31
0.0
 70
   160
 71
     5
 42
123.0000000000018
  3
INABA_S40G
100
AcDbAlignedDimension
 13
6919.195288608607
 23
7029.919036112841
 33
0.0
 14
6796.195288608605
 24
7102.91903611284
 34
0.0
100
AcDbRotatedDimension
  0
DIMENSION
  5
2019B
330
747D
100
AcDbEntity
  8
寸法
 48
50.0
100
AcDbDimension
  2
*D13
 10
6919.195288608607
 20
7881.823185419155
 30
0.0
 11
8116.195288608606
 21
7981.834996442777
 31
0.0
 70
    32
 71
     5
 42
2394.0
  3
INABA_S40G
100
AcDbAlignedDimension
 13
9313.195288608607
 23
7029.919036112841
 33
0.0
 14
6919.195288608607
 24
7029.919036112842
 34
0.0
100
AcDbRotatedDimension
  0
LINE
  5
21351
330
747D
100
AcDbEntity
  8
部品1
 48
50.0
100
AcDbLine
 10
6796.195288608608
 20
5722.919036112855
 30
0.0
 11
6796.195288608608
 21
5647.919036112856
 31
0.0
  0
LINE
  5
21352
330
747D
100
AcDbEntity
  8
部品1
 48
50.0
100
AcDbLine
 10
8564.195288608607
 20
5722.919036112869
 30
0.0
 11
8564.195288608607
 21
5647.919036112869
 31
0.0
  0
DIMENSION
  5
21365
330
747D
100
AcDbEntity
  8
寸法
 48
50.0
100
AcDbDimension
  2
*D19
 10
6568.998470580183
 20
5647.919036112856
 30
0.0
 11
6568.998470580182
 21
5114.43375473862
 31
0.0
 70
   160
  1
扉の出<>
 71
     5
 42
74.99999999999909
  3
INABA_S40G
100
AcDbAlignedDimension
 13
6796.195288608608
 23
5722.919036112855
 33
0.0
 14
6796.195288608608
 24
5647.919036112856
 34
0.0
 50
90.0
100
AcDbRotatedDimension
  0
HATCH
  5
213EF
330
747D
100
AcDbEntity
  8
細線
 48
50.0
100
AcDbHatch
 10
0.0
 20
0.0
 30
0.0
210
0.0
220
0.0
230
1.0
  2
LINE
 70
     0
 71
     0
 91
        2
 92
        7
 72
     0
 73
     1
 93
        4
 10
8216.195288608608
 20
5842.919036112869
 10
8016.195288608606
 20
5842.919036112867
 10
8016.195288608606
 20
5667.919036112858
 10
8216.195288608609
 20
5667.919036112858
 97
        0
 92
        7
 72
     0
 73
     1
 93
        4
 10
8216.195288608609
 20
5667.919036112859
 10
8016.195288608608
 20
5667.919036112859
 10
8016.195288608606
 20
5647.919036112865
 10
8216.195288608608
 20
5647.919036112867
 97
        0
 75
     0
 76
     1
 52
45.0
 41
10.0
 77
     0
 78
     1
 53
45.0
 43
0.0
 44
0.0
 45
-22.45064030267288
 46
22.45064030267288
 79
     0
 47
1.113695379528755
 98
        2
 10
8124.869483234572
 20
5771.490805135883
 10
8104.318650643115
 20
5662.759145268308
  0
TEXT
  5
21430
330
747D
100
AcDbEntity
  8
寸法
 62
     7
100
AcDbText
 10
8223.139855909918
 20
4759.148264354555
 30
0.0
 40
120.0
  1
扉位置 (1768x75)
  7
STYLE1
100
AcDbText
  0
LWPOLYLINE
  5
21431
330
747D
100
AcDbEntity
  8
寸法
 48
50.0
100
AcDbPolyline
 90
        3
 70
     0
 43
0.0
 10
-8395.268797106375
 20
5647.919036112869
 10
-8106.523896717165
 20
4736.880316806234
 10
-10920.58830964881
 20
4736.880316806234
210
0.0
220
0.0
230
-1.0
1001
ACAD
1000
DSTYLE
1002
{
1070
   341
1005
0
1070
    40
1040
1.0
1070
   343
1005
0
1070
   344
1005
0
1002
}
  0
TEXT
  5
21432
330
747D
100
AcDbEntity
  8
寸法
 62
     7
100
AcDbText
 10
8223.139855909918
 20
4587.54450147123
 30
0.0
 40
120.0
  1
扉の位置に合わせた基礎形状として下さい。
  7
STYLE1
100
AcDbText
  0
SOLID
  5
21433
330
747D
100
AcDbEntity
  8
寸法
 48
50.0
100
AcDbTrace
 10
-8378.359591436387
 20
5522.328007207983
 30
0.0
 11
-8395.268797106375
 21
5647.919036112869
 31
0.0
 12
-8338.541376962911
 22
5534.600778176892
 32
0.0
 13
-8338.541376962911
 23
5534.600778176892
 33
0.0
210
0.0
220
0.0
230
-1.0
1001
ACAD
1000
DSTYLE
1002
{
1070
   341
1005
0
1070
    40
1040
1.0
1070
   343
1005
0
1070
   344
1005
0
1002
}
  0
DIMENSION
  5
21470
330
747D
100
AcDbEntity
  8
寸法
 48
50.0
100
AcDbDimension
  2
*D22
 10
8531.195288608607
 20
7620.733325788283
 30
0.0
 11
8116.195288608606
 21
7720.733325788284
 31
0.0
 70
    32
 71
     5
 42
829.9999999999991
  3
INABA_S40G
100
AcDbAlignedDimension
 13
7701.195288608608
 23
6612.91903611286
 33
0.0
 14
8531.195288608607
 24
6612.91903611286
 34
0.0
100
AcDbRotatedDimension
  0
DIMENSION
  5
21471
330
747D
100
AcDbEntity
  8
寸法
 48
50.0
100
AcDbDimension
  2
*D21
 10
6796.195288608608
 20
7620.733325788283
 30
0.0
 11
7248.695288608608
 21
7720.733325788284
 31
0.0
 70
    32
 71
     5
 42
905.0
  3
INABA_S40G
100
AcDbAlignedDimension
 13
7701.195288608608
 23
6612.91903611286
 33
0.0
 14
6796.195288608608
 24
7177.919036112861
 34
0.0
100
AcDbRotatedDimension
  0
DIMENSION
  5
21472
330
747D
100
AcDbEntity
  8
寸法
 48
50.0
100
AcDbDimension
  2
*D20
 10
8531.195288608607
 20
7620.733325788283
 30
0.0
 11
8941.051908811706
 21
7620.733325788283
 31
0.0
 70
   160
 71
     5
 42
905.0
  3
INABA_S40G
100
AcDbAlignedDimension
 13
9436.195288608606
 23
7177.919036112839
 33
0.0
 14
8531.195288608607
 24
6612.91903611286
 34
0.0
100
AcDbRotatedDimension
  0
DIMENSION
  5
21557
330
747D
100
AcDbEntity
  8
寸法
 48
50.0
100
AcDbDimension
  2
*D23
 10
8564.195288608607
 20
5058.43396576471
 30
0.0
 11
7680.195288608607
 21
5158.433965764711
 31
0.0
 70
    32
  1
扉の幅<>
 71
     5
 42
1767.999999999999
  3
INABA_S40G
100
AcDbAlignedDimension
 13
6796.195288608608
 23
5647.919036112856
 33
0.0
 14
8564.195288608607
 24
5647.919036112869
 34
0.0
100
AcDbRotatedDimension
  0
LINE
  5
21588
330
747D
100
AcDbEntity
  8
部品1
 48
50.0
100
AcDbLine
 10
8564.195288608607
 20
5722.919036112869
 30
0.0
 11
9436.195288608606
 21
5722.919036112878
 31
0.0
  0
DIMENSION
  5
215C7
330
747D
100
AcDbEntity
  8
寸法
 48
50.0
100
AcDbDimension
  2
*D25
 10
8789.393682973583
 20
6412.919036112859
 30
0.0
 11
8789.39368297358
 21
6072.919036112864
 31
0.0
 70
   160
 71
     5
 42
689.9999999999899
  3
INABA_S40G
100
AcDbAlignedDimension
 13
8662.854871754847
 23
5722.91903611287
 33
0.0
 14
8581.195288608608
 24
6412.919036112859
 34
0.0
 50
90.0
100
AcDbRotatedDimension
  0
DIMENSION
  5
215C8
330
747D
100
AcDbEntity
  8
寸法
 48
50.0
100
AcDbDimension
  2
*D24
 10
8789.39368297358
 20
7102.91903611284
 30
0.0
 11
8689.393682973578
 21
6757.919036112851
 31
0.0
 70
    32
 71
     5
 42
689.9999999999809
  3
INABA_S40G
100
AcDbAlignedDimension
 13
8581.195288608608
 23
6412.919036112859
 33
0.0
 14
8984.195288608608
 24
7102.91903611284
 34
0.0
 50
90.0
100
AcDbRotatedDimension
  0
MTEXT
  5
217C6
330
747D
100
AcDbEntity
  8
寸法
 62
     7
 48
50.0
100
AcDbMText
 10
7895.556878475558
 20
2400.689039260351
 30
0.0
 40
100.0
 41
1.0
 71
     6
 72
     1
  1
\U+203B(別売)
  7
STYLE2
 73
     1
 44
1.0
1001
ACAD
1000
MTEXTBEGIN
1070
    73
1070
     1
1070
    44
1040
1.0
1070
    74
1070
     0
1000
MTEXTEND
  0
LINE
  5
217C7
330
747D
100
AcDbEntity
  8
細線
100
AcDbLine
 10
10507.06581738589
 20
1633.764973743768
 30
0.0
 11
10263.77415028991
 21
1877.056640839746
 31
0.0
  0
LINE
  5
217C8
330
747D
100
AcDbEntity
  8
細線
100
AcDbLine
 10
10443.4262070791
 20
1633.764973743768
 30
0.0
 11
10263.77415028991
 21
1813.417030532958
 31
0.0
  0
LINE
  5
217C9
330
747D
100
AcDbEntity
  8
部品1
100
AcDbLine
 10
10263.77415028991
 20
1933.764973743768
 30
0.0
 11
10863.77415028991
 21
1933.764973743768
 31
0.0
  0
LINE
  5
217CA
330
747D
100
AcDbEntity
  8
細線
100
AcDbLine
 10
10255.06964341407
 20
1519.14132917708
 30
0.0
 11
10369.69328798076
 21
1633.764973743767
 31
0.0
  0
LWPOLYLINE
  5
217CB
330
747D
100
AcDbEntity
  8
部品1
 48
50.0
100
AcDbPolyline
 90
        2
 70
     0
 43
15.0
 10
9783.010072664428
 20
1633.764973743768
 10
11284.37545157896
 20
1633.764973743768
  0
LINE
  5
217CC
330
747D
100
AcDbEntity
  8
部品1
100
AcDbLine
 10
10113.77415028991
 20
1519.14132917708
 30
0.0
 11
11013.77415028991
 21
1519.141329177083
 31
0.0
  0
LINE
  5
217CD
330
747D
100
AcDbEntity
  8
部品1
100
AcDbLine
 10
10113.77415028991
 20
1359.141329177076
 30
0.0
 11
11013.77415028991
 21
1359.14132917708
 31
0.0
  0
LINE
  5
217CE
330
747D
100
AcDbEntity
  8
部品1
100
AcDbLine
 10
4707.810382011017
 20
325.9099991101357
 30
0.0
 11
11604.28507810905
 21
325.9099991101357
 31
0.0
  0
LINE
  5
217CF
330
747D
100
AcDbEntity
  8
部品1
100
AcDbLine
 10
11604.28507810905
 20
3284.979498464823
 30
0.0
 11
4707.810382011017
 21
3284.979498464823
 31
0.0
  0
LINE
  5
217D0
330
747D
100
AcDbEntity
  8
部品1
100
AcDbLine
 10
11604.28507810905
 20
3584.979498464825
 30
0.0
 11
4707.810382011017
 21
3584.979498464823
 31
0.0
  0
LEADER
  5
217D1
330
747D
100
AcDbEntity
  8
寸法
 48
50.0
100
AcDbLeader
  3
INABA_S40G
 71
     0
 73
     0
 75
     1
 40
141.4772727272727
 41
760.7954545454546
 76
     3
 10
8189.331152706854
 20
1870.659565441616
 30
0.0
 10
7974.576366842672
 20
2926.133418387214
 30
0.0
 10
7874.576366842672
 20
2926.133418387214
 30
0.0
  0
MTEXT
  5
217D2
102
{ACAD_REACTORS
330
217D1
102
}
330
747D
100
AcDbEntity
  8
寸法
 62
     7
 48
50.0
100
AcDbMText
 10
7834.576366842672
 20
3036.87205475085
 30
0.0
 40
100.0
 41
1.0
 71
     6
 72
     1
  1
\A1;φ70スリーブ
  7
STYLE2
 73
     1
 44
1.0
1001
ACAD
1000
MTEXTBEGIN
1070
    73
1070
     1
1070
    44
1040
1.0
1070
    74
1070
     0
1000
MTEXTEND
  0
LINE
  5
217D3
330
747D
100
AcDbEntity
  8
部品1
100
AcDbLine
 10
4707.810382011021
 20
3584.979498464823
 30
0.0
 11
4707.810382011021
 21
325.9099991101357
 31
0.0
  0
DIMENSION
  5
217D4
330
747D
100
AcDbEntity
  8
寸法
 48
50.0
100
AcDbDimension
  2
*D28
 10
5826.611073562799
 20
2458.349733639244
 30
0.0
 11
5946.611073562799
 21
2458.349733639244
 31
0.0
 70
   160
  1
120\P195
 71
     5
 42
240.0
  3
INABA_S40G
100
AcDbAlignedDimension
 13
6066.611073562799
 23
1933.764973743768
 33
0.0
 14
5826.611073562799
 24
1933.764973743768
 34
0.0
100
AcDbRotatedDimension
  0
LEADER
  5
217D5
330
747D
100
AcDbEntity
  8
寸法
 48
50.0
100
AcDbLeader
  3
INABA_S40G
 71
     0
 73
     0
 74
     0
 75
     1
 40
127.8409090909091
 41
1133.522727272727
 76
     3
 10
8278.410215034293
 20
2270.169084299118
 30
0.0
 10
8378.249702995345
 20
2705.463735557389
 30
0.0
 10
8478.249702995345
 20
2705.463735557389
 30
0.0
  0
MTEXT
  5
217D6
102
{ACAD_REACTORS
330
217D5
102
}
330
747D
100
AcDbEntity
  8
部品1
 62
     7
 48
50.0
100
AcDbMText
 10
8518.249702995346
 20
2809.384190102843
 30
0.0
 40
100.0
 41
1.0
 71
     4
 72
     1
  1
\A1;ワッシャー(市販品)
  7
STYLE2
 73
     1
 44
1.0
1001
ACAD
1000
MTEXTBEGIN
1070
    73
1070
     1
1070
    44
1040
1.0
1070
    74
1070
     0
1000
MTEXTEND
  0
LEADER
  5
217D7
330
747D
100
AcDbEntity
  8
寸法
 48
50.0
100
AcDbLeader
  3
INABA_S40G
 71
     0
 73
     0
 74
     0
 75
     1
 40
127.8409090909091
 41
850.0
 76
     3
 10
8248.410215034294
 20
2432.359075130197
 30
0.0
 10
8338.85267892599
 20
2936.675089013374
 30
0.0
 10
8438.852678925989
 20
2936.675089013374
 30
0.0
  0
MTEXT
  5
217D8
102
{ACAD_REACTORS
330
217D7
102
}
330
747D
100
AcDbEntity
  8
部品1
 62
     7
 48
50.0
100
AcDbMText
 10
8478.85267892599
 20
3040.595543558828
 30
0.0
 40
100.0
 41
1.0
 71
     4
 72
     1
  1
\A1;ナット(市販品)
  7
STYLE2
 73
     1
 44
1.0
1001
ACAD
1000
MTEXTBEGIN
1070
    73
1070
     1
1070
    44
1040
1.0
1070
    74
1070
     0
1000
MTEXTEND
  0
MTEXT
  5
217D9
102
{ACAD_REACTORS
330
217DA
102
}
330
747D
100
AcDbEntity
  8
寸法
 62
     7
 48
50.0
100
AcDbMText
 10
7867.88012460312
 20
2586.016714866457
 30
0.0
 40
100.0
 41
1.0
 71
     6
 72
     1
  1
アンカープレート {\fArial|b0|i0|c0|p32;U}
  7
STYLE2
 73
     1
 44
1.0
1001
ACAD
1000
MTEXTBEGIN
1070
    73
1070
     1
1070
    44
1040
1.0
1070
    74
1070
     0
1000
MTEXTEND
  0
LEADER
  5
217DA
330
747D
100
AcDbEntity
  8
寸法
 48
50.0
100
AcDbLeader
  3
INABA_S40G
 71
     0
 73
     0
 75
     1
 40
132.9545454545455
 41
1129.404378023068
 76
     3
 10
8115.910215034293
 20
2020.714973743768
 30
0.0
 10
8007.88012460312
 20
2479.539442139183
 30
0.0
 10
7907.880124603121
 20
2479.539442139183
 30
0.0
  0
TEXT
  5
217DB
330
747D
100
AcDbEntity
  8
部品1
 48
50.0
100
AcDbText
 10
5308.936196271605
 20
1647.813714097837
 30
0.0
 40
100.0
  1
▽G.L
  7
STYLE2
100
AcDbText
  0
LWPOLYLINE
  5
217DC
330
747D
100
AcDbEntity
  8
部品1
 48
50.0
100
AcDbPolyline
 90
        2
 70
     0
 43
10.0
 10
5308.936196271605
 20
1633.76497374377
 10
5826.611073562799
 20
1633.76497374377
  0
DIMENSION
  5
217DD
330
747D
100
AcDbEntity
  8
寸法
 48
50.0
100
AcDbDimension
  2
*D29
 10
5488.585681397226
 20
953.7649737437668
 30
0.0
 11
5488.585681397226
 21
1103.764973743767
 31
0.0
 70
   160
  1
150
 71
     5
 42
300.0000000000001
  3
INABA_S40G
100
AcDbAlignedDimension
 13
5666.611073562799
 23
1253.764973743767
 33
0.0
 14
5566.611073562804
 24
953.7649737437668
 34
0.0
 50
90.0
100
AcDbRotatedDimension
  0
DIMENSION
  5
217DE
330
747D
100
AcDbEntity
  8
寸法
 48
50.0
100
AcDbDimension
  2
*D30
 10
5065.966135526736
 20
953.764973743767
 30
0.0
 11
5065.966135526736
 21
1443.764973743768
 31
0.0
 70
   160
  1
540
 71
     5
 42
980.0000000000014
  3
INABA_S40G
100
AcDbAlignedDimension
 13
5826.611073562799
 23
1933.764973743768
 33
0.0
 14
5566.611073562804
 24
953.7649737437668
 34
0.0
 50
90.0
100
AcDbRotatedDimension
  0
MTEXT
  5
217DF
102
{ACAD_REACTORS
330
217E0
102
}
330
747D
100
AcDbEntity
  8
寸法
 62
     7
 48
50.0
100
AcDbMText
 10
5742.693073644517
 20
2199.410248746321
 30
0.0
 40
100.0
 41
1.0
 71
     6
 72
     1
  1
\A1;金コテ押エ
  7
STYLE2
 73
     1
 44
1.0
1001
ACAD
1000
MTEXTBEGIN
1070
    73
1070
     1
1070
    44
1040
1.0
1070
    74
1070
     0
1000
MTEXTEND
  0
LEADER
  5
217E0
330
747D
100
AcDbEntity
  8
寸法
 48
50.0
100
AcDbLeader
  3
INABA_S40G
 71
     0
 73
     0
 75
     1
 40
130.1136363636363
 41
651.1363636363636
 76
     3
 10
5926.611073562801
 20
1933.764973743768
 30
0.0
 10
5867.693073644517
 20
2109.353430564502
 30
0.0
 10
5767.693073644517
 20
2109.353430564502
 30
0.0
  0
LEADER
  5
217E1
330
747D
100
AcDbEntity
  8
寸法
 48
50.0
100
AcDbLeader
  3
INABA_S40G
 71
     0
 73
     0
 75
     1
 40
100.0
 41
540.3409090909091
 76
     3
 10
5956.6110735628
 20
1631.423992115171
 30
0.0
 10
5827.883277901928
 20
1354.586081439166
 30
0.0
 10
5727.883277901929
 20
1354.586081439166
 30
0.0
213
-12.16522788236671
223
-5.804645826423211
233
0.0
  0
MTEXT
  5
217E2
102
{ACAD_REACTORS
330
217E1
102
}
330
747D
100
AcDbEntity
  8
寸法
 62
     7
 48
50.0
100
AcDbMText
 10
5715.048505784294
 20
1435.390727265588
 30
0.0
 40
100.0
 41
1.0
 71
     6
 72
     1
  1
\A1;D10@300
  7
STYLE2
 73
     1
 44
1.0
1001
ACAD
1000
MTEXTBEGIN
1070
    73
1070
     1
1070
    44
1040
1.0
1070
    74
1070
     0
1000
MTEXTEND
  0
MTEXT
  5
217E3
102
{ACAD_REACTORS
330
217E4
102
}
330
747D
100
AcDbEntity
  8
寸法
 62
     7
 48
50.0
100
AcDbMText
 10
5488.095700265602
 20
623.966416046418
 30
0.0
 40
100.0
 41
1.0
 71
     6
 72
     1
  1
D13
  7
STYLE2
 73
     1
 44
1.0
1001
ACAD
1000
MTEXTBEGIN
1070
    73
1070
     1
1070
    44
1040
1.0
1070
    74
1070
     0
1000
MTEXTEND
  0
LEADER
  5
217E4
330
747D
100
AcDbEntity
  8
寸法
 48
50.0
100
AcDbLeader
  3
INABA_S40G
 71
     0
 73
     0
 75
     1
 40
100.0
 41
222.7272727272727
 76
     3
 10
5946.611073562799
 20
1103.764973743767
 30
0.0
 10
5613.095700265602
 20
548.966416046418
 30
0.0
 10
5513.095700265601
 20
548.966416046418
 30
0.0
  0
LEADER
  5
217E5
330
747D
100
AcDbEntity
  8
寸法
 48
50.0
100
AcDbLeader
  3
INABA_S40G
 71
     0
 73
     0
 75
     1
 40
100.0
 41
225.0
 76
     3
 10
5786.489764002979
 20
1103.764973743767
 30
0.0
 10
5577.942290818806
 20
774.3616067207222
 30
0.0
 10
5477.942290818806
 20
774.3616067207222
 30
0.0
  0
MTEXT
  5
217E6
102
{ACAD_REACTORS
330
217E5
102
}
330
747D
100
AcDbEntity
  8
寸法
 62
     7
 48
50.0
100
AcDbMText
 10
5452.942290818808
 20
849.3616067207222
 30
0.0
 40
100.0
 41
1.0
 71
     6
 72
     1
  1
D10
  7
STYLE2
 73
     1
 44
1.0
1001
ACAD
1000
MTEXTBEGIN
1070
    73
1070
     1
1070
    44
1040
1.0
1070
    74
1070
     0
1000
MTEXTEND
  0
LINE
  5
217E7
330
747D
100
AcDbEntity
  8
部品1
 48
50.0
100
AcDbLine
 10
6066.611073562801
 20
1933.764973743768
 30
0.0
 11
6066.611073562801
 21
1253.764973743767
 31
0.0
  0
LINE
  5
217E8
330
747D
100
AcDbEntity
  8
細線
 48
50.0
100
AcDbLine
 10
5826.611073562801
 20
1312.323405946481
 30
0.0
 11
5956.611073562807
 21
1442.323405946481
 31
0.0
  0
LINE
  5
217E9
330
747D
100
AcDbEntity
  8
細線
 48
50.0
100
AcDbLine
 10
5826.611073562801
 20
1379.6753268545
 30
0.0
 11
5956.6110735628
 21
1509.6753268545
 31
0.0
  0
LINE
  5
217EA
330
747D
100
AcDbEntity
  8
細線
 48
50.0
100
AcDbLine
 10
5826.611073562801
 20
1345.99936640049
 30
0.0
 11
5956.611073562807
 21
1475.999366400494
 31
0.0
  0
LINE
  5
217EB
330
747D
100
AcDbEntity
  8
部品1
 48
50.0
100
AcDbLine
 10
5826.611073562801
 20
1253.764973743767
 30
0.0
 11
5826.611073562801
 21
1933.764973743768
 31
0.0
  0
LINE
  5
217EC
330
747D
100
AcDbEntity
  8
部品1
 48
50.0
100
AcDbLine
 10
5956.611073562807
 20
1103.764973743767
 30
0.0
 11
5956.611073562793
 21
1759.083010486574
 31
0.0
  0
LINE
  5
217ED
330
747D
100
AcDbEntity
  8
部品1
 48
50.0
100
AcDbLine
 10
5976.611073562808
 20
1103.764973743767
 30
0.0
 11
5976.611073562801
 21
1759.083010486574
 31
0.0
  0
LINE
  5
217EE
330
747D
100
AcDbEntity
  8
部品1
 48
50.0
100
AcDbLine
 10
6066.611073562801
 20
1253.764973743767
 30
0.0
 11
6226.611073562801
 21
1253.764973743767
 31
0.0
  0
LINE
  5
217EF
330
747D
100
AcDbEntity
  8
細線
 48
50.0
100
AcDbLine
 10
6113.192048170231
 20
1093.764973743767
 30
0.0
 11
6226.611073562801
 21
1207.183999136341
 31
0.0
  0
LINE
  5
217F0
330
747D
100
AcDbEntity
  8
細線
 48
50.0
100
AcDbLine
 10
6146.868008624236
 20
1093.764973743767
 30
0.0
 11
6226.611073562801
 21
1173.508038682332
 31
0.0
  0
LINE
  5
217F1
330
747D
100
AcDbEntity
  8
細線
 48
50.0
100
AcDbLine
 10
6079.516087716211
 20
1093.764973743767
 30
0.0
 11
6226.611073562801
 21
1240.85995959035
 31
0.0
  0
LEADER
  5
217F2
330
747D
100
AcDbEntity
  8
寸法
 48
50.0
100
AcDbLeader
  3
INABA_S40G
 71
     0
 73
     0
 74
     0
 75
     1
 40
100.0
 41
225.0
 76
     3
 10
6106.489764002979
 20
1103.764973743767
 30
0.0
 10
6230.770648321157
 20
984.5186375650518
 30
0.0
 10
6330.770648321156
 20
984.5186375650518
 30
0.0
  0
DIMENSION
  5
217F3
330
747D
100
AcDbEntity
  8
寸法
 48
50.0
100
AcDbDimension
  2
*D31
 10
6226.611073562801
 20
494.8128672878338
 30
0.0
 11
5946.611073562799
 21
494.8128672878338
 31
0.0
 70
   160
  1
300
 71
     5
 42
560.0000000000018
  3
INABA_S40G
100
AcDbAlignedDimension
 13
5666.611073562799
 23
793.7649737437668
 33
0.0
 14
6226.611073562801
 24
793.7649737437668
 34
0.0
100
AcDbRotatedDimension
  0
LEADER
  5
217F4
330
747D
100
AcDbEntity
  8
寸法
 48
50.0
100
AcDbLeader
  3
INABA_S40G
 71
     0
 73
     0
 74
     0
 75
     1
 40
100.0
 41
540.3409090909091
 76
     3
 10
6039.042534829269
 20
1082.83931072686
 30
0.0
 10
6243.784143389365
 20
655.8007882332385
 30
0.0
 10
6343.784143389364
 20
655.8007882332385
 30
0.0
213
0.0
223
-1.277828345336728
233
0.0
  0
LINE
  5
217F5
330
747D
100
AcDbEntity
  8
部品1
 48
50.0
100
AcDbLine
 10
6326.611073562805
 20
953.7649737437668
 30
0.0
 11
5566.611073562804
 21
953.7649737437668
 31
0.0
  0
LINE
  5
217F6
330
747D
100
AcDbEntity
  8
部品1
 48
50.0
100
AcDbLine
 10
6326.611073562805
 20
793.7649737437668
 30
0.0
 11
5566.611073562804
 21
793.7649737437668
 31
0.0
  0
LINE
  5
217F7
330
747D
100
AcDbEntity
  8
細線
 48
50.0
100
AcDbLine
 10
6120.309735300939
 20
793.7649737437659
 30
0.0
 11
6163.181606089916
 21
953.7649737437659
 31
0.0
  0
LINE
  5
217F8
330
747D
100
AcDbEntity
  8
細線
 48
50.0
100
AcDbLine
 10
5923.08962293282
 20
793.7649737437668
 30
0.0
 11
5965.961493721797
 21
953.7649737437668
 31
0.0
  0
LINE
  5
217F9
330
747D
100
AcDbEntity
  8
部品1
 48
50.0
100
AcDbLine
 10
5566.611073562804
 20
793.7649737437668
 30
0.0
 11
5566.611073562804
 21
953.7649737437668
 31
0.0
  0
LINE
  5
217FA
330
747D
100
AcDbEntity
  8
細線
 48
50.0
100
AcDbLine
 10
5627.259454380624
 20
793.7649737437659
 30
0.0
 11
5670.131325169602
 21
953.7649737437659
 31
0.0
  0
LINE
  5
217FB
330
747D
100
AcDbEntity
  8
細線
 48
50.0
100
AcDbLine
 10
5824.479566748754
 20
793.7649737437659
 30
0.0
 11
5867.351437537733
 21
953.7649737437659
 31
0.0
  0
LINE
  5
217FC
330
747D
100
AcDbEntity
  8
細線
 48
50.0
100
AcDbLine
 10
5725.869510564696
 20
793.7649737437668
 30
0.0
 11
5768.741381353675
 21
953.7649737437668
 31
0.0
  0
LINE
  5
217FD
330
747D
100
AcDbEntity
  8
細線
 48
50.0
100
AcDbLine
 10
6021.699679116877
 20
793.7649737437668
 30
0.0
 11
6064.571549905859
 21
953.7649737437659
 31
0.0
  0
LINE
  5
217FE
330
747D
100
AcDbEntity
  8
細線
 48
50.0
100
AcDbLine
 10
5733.90798633763
 20
823.7649737437669
 30
0.0
 11
5741.946462110564
 21
793.7649737437668
 31
0.0
  0
LINE
  5
217FF
330
747D
100
AcDbEntity
  8
細線
 48
50.0
100
AcDbLine
 10
5635.297930153566
 20
823.7649737437669
 30
0.0
 11
5643.336405926499
 21
793.7649737437668
 31
0.0
  0
LINE
  5
21800
330
747D
100
AcDbEntity
  8
細線
 48
50.0
100
AcDbLine
 10
5931.12809870576
 20
823.7649737437669
 30
0.0
 11
5939.166574478694
 21
793.7649737437668
 31
0.0
  0
LINE
  5
21801
330
747D
100
AcDbEntity
  8
細線
 48
50.0
100
AcDbLine
 10
5832.518042521694
 20
823.7649737437669
 30
0.0
 11
5840.556518294628
 21
793.7649737437668
 31
0.0
  0
LINE
  5
21802
330
747D
100
AcDbEntity
  8
細線
 48
50.0
100
AcDbLine
 10
6128.348211073875
 20
823.7649737437669
 30
0.0
 11
6136.386686846808
 21
793.7649737437668
 31
0.0
  0
LINE
  5
21803
330
747D
100
AcDbEntity
  8
細線
 48
50.0
100
AcDbLine
 10
6029.738154889817
 20
823.7649737437669
 30
0.0
 11
6037.776630662751
 21
793.7649737437668
 31
0.0
  0
LINE
  5
21804
330
747D
100
AcDbEntity
  8
部品1
 48
50.0
100
AcDbLine
 10
5666.611073562801
 20
1253.764973743767
 30
0.0
 11
5826.611073562801
 21
1253.764973743767
 31
0.0
  0
LINE
  5
21805
330
747D
100
AcDbEntity
  8
細線
 48
50.0
100
AcDbLine
 10
5670.108404084143
 20
953.7649737437668
 30
0.0
 11
5790.108404084143
 21
1073.764973743767
 31
0.0
  0
LINE
  5
21806
330
747D
100
AcDbEntity
  8
細線
 48
50.0
100
AcDbLine
 10
5703.784364538156
 20
953.7649737437668
 30
0.0
 11
5823.784364538156
 21
1073.764973743767
 31
0.0
  0
CIRCLE
  5
21807
330
747D
100
AcDbEntity
  8
部品1
 48
50.0
100
AcDbCircle
 10
5786.611073562801
 20
1103.764973743767
 30
0.0
 40
10.0
  0
LINE
  5
21808
330
747D
100
AcDbEntity
  8
細線
 48
50.0
100
AcDbLine
 10
5737.460324992162
 20
953.7649737437668
 30
0.0
 11
5857.460324992162
 21
1073.764973743767
 31
0.0
  0
LINE
  5
21809
330
747D
100
AcDbEntity
  8
部品1
 48
50.0
100
AcDbLine
 10
5736.611073562801
 20
1093.764973743767
 30
0.0
 11
6156.611073562801
 21
1093.764973743767
 31
0.0
  0
LINE
  5
2180A
330
747D
100
AcDbEntity
  8
部品1
 48
50.0
100
AcDbLine
 10
5736.611073562801
 20
1073.764973743767
 30
0.0
 11
6156.611073562801
 21
1073.764973743767
 31
0.0
  0
LINE
  5
2180B
330
747D
100
AcDbEntity
  8
部品1
 48
50.0
100
AcDbLine
 10
5666.611073562801
 20
953.7649737437668
 30
0.0
 11
5666.611073562801
 21
1253.764973743767
 31
0.0
  0
LINE
  5
2180C
330
747D
100
AcDbEntity
  8
細線
 48
50.0
100
AcDbLine
 10
5566.611073562801
 20
935.4398749509918
 30
0.0
 11
5571.521268985545
 21
953.7649737437668
 31
0.0
  0
LINE
  5
2180D
330
747D
100
AcDbEntity
  8
細線
 48
50.0
100
AcDbLine
 10
5662.092849396676
 20
923.7649737437678
 30
0.0
 11
5654.054373623743
 21
953.7649737437668
 31
0.0
  0
LINE
  5
2180E
330
747D
100
AcDbEntity
  8
細線
 48
50.0
100
AcDbLine
 10
5760.702905580742
 20
923.7649737437678
 30
0.0
 11
5752.664429807808
 21
953.7649737437668
 31
0.0
  0
LINE
  5
2180F
330
747D
100
AcDbEntity
  8
部品1
 48
50.0
100
AcDbLine
 10
5736.611073562801
 20
1093.764973743767
 30
0.0
 11
5736.611073562801
 21
1073.764973743767
 31
0.0
  0
LINE
  5
21810
330
747D
100
AcDbEntity
  8
細線
 48
50.0
100
AcDbLine
 10
5666.611073562794
 20
1152.323405946481
 30
0.0
 11
5768.052641360087
 21
1253.764973743767
 31
0.0
  0
LINE
  5
21811
330
747D
100
AcDbEntity
  8
細線
 48
50.0
100
AcDbLine
 10
5666.611073562794
 20
1219.6753268545
 30
0.0
 11
5700.700720452068
 21
1253.764973743767
 31
0.0
  0
LINE
  5
21812
330
747D
100
AcDbEntity
  8
細線
 48
50.0
100
AcDbLine
 10
5666.611073562794
 20
1185.999366400487
 30
0.0
 11
5734.376680906081
 21
1253.764973743767
 31
0.0
  0
LINE
  5
21813
330
747D
100
AcDbEntity
  8
部品1
 48
50.0
100
AcDbLine
 10
5936.611073562801
 20
1176.423992115171
 30
0.0
 11
5936.611073562801
 21
1103.764973743767
 31
0.0
  0
LINE
  5
21814
330
747D
100
AcDbEntity
  8
細線
 48
50.0
100
AcDbLine
 10
5843.784364538156
 20
1093.764973743767
 30
0.0
 11
5916.611073562801
 21
1166.591682768416
 31
0.0
  0
LINE
  5
21815
330
747D
100
AcDbEntity
  8
部品1
 48
50.0
100
AcDbLine
 10
5916.611073562801
 20
1176.423992115171
 30
0.0
 11
5916.611073562801
 21
1103.764973743767
 31
0.0
  0
LINE
  5
21816
330
747D
100
AcDbEntity
  8
細線
 48
50.0
100
AcDbLine
 10
5877.460324992162
 20
1093.764973743767
 30
0.0
 11
5916.611073562801
 21
1132.915722314406
 31
0.0
  0
LINE
  5
21817
330
747D
100
AcDbEntity
  8
細線
 48
50.0
100
AcDbLine
 10
5810.108404084143
 20
1093.764973743767
 30
0.0
 11
5956.6110735628
 21
1240.267643222425
 31
0.0
  0
LINE
  5
21818
330
747D
100
AcDbEntity
  8
細線
 48
50.0
100
AcDbLine
 10
5939.516087716218
 20
953.7649737437668
 30
0.0
 11
6059.516087716218
 21
1073.764973743767
 31
0.0
  0
LINE
  5
21819
330
747D
100
AcDbEntity
  8
細線
 48
50.0
100
AcDbLine
 10
5973.192048170231
 20
953.7649737437668
 30
0.0
 11
6093.192048170231
 21
1073.764973743767
 31
0.0
  0
CIRCLE
  5
2181A
330
747D
100
AcDbEntity
  8
部品1
 48
50.0
100
AcDbCircle
 10
5946.611073562801
 20
1103.764973743767
 30
0.0
 40
10.0
  0
LINE
  5
2181B
330
747D
100
AcDbEntity
  8
細線
 48
50.0
100
AcDbLine
 10
5859.312961764807
 20
923.7649737437678
 30
0.0
 11
5851.274485991873
 21
953.7649737437668
 31
0.0
  0
ARC
  5
2181C
330
747D
100
AcDbEntity
  8
部品1
 48
50.0
100
AcDbCircle
 10
5946.611073562801
 20
1103.764973743767
 30
0.0
 40
30.0
100
AcDbArc
 50
180.0
 51
199.4712206345081
  0
LINE
  5
2181D
330
747D
100
AcDbEntity
  8
細線
 48
50.0
100
AcDbLine
 10
5957.923017948871
 20
923.7649737437678
 30
0.0
 11
5949.884542175937
 21
953.7649737437668
 31
0.0
  0
ARC
  5
2181E
330
747D
100
AcDbEntity
  8
部品1
 48
50.0
100
AcDbCircle
 10
5946.611073562801
 20
1103.764973743767
 30
0.0
 40
30.0
100
AcDbArc
 50
340.5287793654919
 51
0.0
  0
LINE
  5
2181F
330
747D
100
AcDbEntity
  8
細線
 48
50.0
100
AcDbLine
 10
6056.533074132929
 20
923.7649737437678
 30
0.0
 11
6048.494598359996
 21
953.7649737437668
 31
0.0
  0
CIRCLE
  5
21820
330
747D
100
AcDbEntity
  8
部品1
 48
50.0
100
AcDbCircle
 10
6106.611073562801
 20
1103.764973743767
 30
0.0
 40
10.0
  0
LINE
  5
21821
330
747D
100
AcDbEntity
  8
細線
 48
50.0
100
AcDbLine
 10
6155.143130316987
 20
923.7649737437678
 30
0.0
 11
6147.104654544053
 21
953.7649737437668
 31
0.0
  0
LINE
  5
21822
330
747D
100
AcDbEntity
  8
部品1
 48
50.0
100
AcDbLine
 10
6156.611073562801
 20
1093.764973743767
 30
0.0
 11
6156.611073562801
 21
1073.764973743767
 31
0.0
  0
LINE
  5
21823
330
747D
100
AcDbEntity
  8
細線
 48
50.0
100
AcDbLine
 10
6006.868008624237
 20
953.7649737437668
 30
0.0
 11
6126.869118430658
 21
1073.766083550192
 31
0.0
  0
LINE
  5
21824
330
747D
100
AcDbEntity
  8
細線
 48
50.0
100
AcDbLine
 10
5976.611073562808
 20
1192.915722314406
 30
0.0
 11
6066.611073562794
 21
1282.915722314406
 31
0.0
  0
LINE
  5
21825
330
747D
100
AcDbEntity
  8
細線
 48
50.0
100
AcDbLine
 10
5976.611073562808
 20
1260.267643222429
 30
0.0
 11
6066.611073562794
 21
1350.267643222425
 31
0.0
  0
LINE
  5
21826
330
747D
100
AcDbEntity
  8
細線
 48
50.0
100
AcDbLine
 10
5976.611073562808
 20
1226.591682768419
 30
0.0
 11
6066.611073562794
 21
1316.591682768412
 31
0.0
  0
LINE
  5
21827
330
747D
100
AcDbEntity
  8
細線
 48
50.0
100
AcDbLine
 10
5936.611073562801
 20
1152.915722314406
 30
0.0
 11
5956.611073562807
 21
1172.915722314406
 31
0.0
  0
LINE
  5
21828
330
747D
100
AcDbEntity
  8
細線
 48
50.0
100
AcDbLine
 10
5926.443382909556
 20
1176.423992115171
 30
0.0
 11
5956.611073562807
 21
1206.591682768419
 31
0.0
  0
LINE
  5
21829
330
747D
100
AcDbEntity
  8
部品1
 48
50.0
100
AcDbLine
 10
5936.611073562801
 20
1176.423992115171
 30
0.0
 11
5916.611073562801
 21
1176.423992115171
 31
0.0
  0
LINE
  5
2182A
330
747D
100
AcDbEntity
  8
細線
 48
50.0
100
AcDbLine
 10
6218.919791484992
 20
793.7649737437668
 30
0.0
 11
6261.791662273974
 21
953.7649737437659
 31
0.0
  0
LINE
  5
2182B
330
747D
100
AcDbEntity
  8
部品1
 48
50.0
100
AcDbLine
 10
6326.611073562805
 20
953.7649737437668
 30
0.0
 11
6326.611073562805
 21
793.7649737437668
 31
0.0
  0
MTEXT
  5
2182C
102
{ACAD_REACTORS
330
217F4
102
}
330
747D
100
AcDbEntity
  8
寸法
 62
     7
 48
50.0
100
AcDbMText
 10
6368.784143389365
 20
732.0786165785757
 30
0.0
 40
100.0
 41
1.0
 71
     4
 72
     1
  1
\A1;D10@300
  7
STYLE2
 73
     1
 44
1.0
1001
ACAD
1000
MTEXTBEGIN
1070
    73
1070
     1
1070
    44
1040
1.0
1070
    74
1070
     0
1000
MTEXTEND
  0
LINE
  5
2182D
330
747D
100
AcDbEntity
  8
細線
 48
50.0
100
AcDbLine
 10
6317.529847669055
 20
793.7649737437659
 30
0.0
 11
6326.611073562801
 21
827.6565701742528
 31
0.0
  0
LINE
  5
2182E
330
747D
100
AcDbEntity
  8
細線
 48
50.0
100
AcDbLine
 10
6325.568323441991
 20
823.7649737437669
 30
0.0
 11
6326.611073562801
 21
819.8733773133117
 31
0.0
  0
LINE
  5
2182F
330
747D
100
AcDbEntity
  8
細線
 48
50.0
100
AcDbLine
 10
6226.958267257932
 20
823.7649737437669
 30
0.0
 11
6234.996743030865
 21
793.7649737437668
 31
0.0
  0
LINE
  5
21830
330
747D
100
AcDbEntity
  8
部品1
 48
50.0
100
AcDbLine
 10
6226.611073562801
 20
1253.764973743767
 30
0.0
 11
6226.611073562801
 21
953.7649737437668
 31
0.0
  0
MTEXT
  5
21831
102
{ACAD_REACTORS
330
217F2
102
}
330
747D
100
AcDbEntity
  8
寸法
 62
     7
 48
50.0
100
AcDbMText
 10
6355.770648321157
 20
1059.518637565051
 30
0.0
 40
100.0
 41
1.0
 71
     4
 72
     1
  1
D10
  7
STYLE2
 73
     1
 44
1.0
1001
ACAD
1000
MTEXTBEGIN
1070
    73
1070
     1
1070
    44
1040
1.0
1070
    74
1070
     0
1000
MTEXTEND
  0
LINE
  5
21832
330
747D
100
AcDbEntity
  8
細線
 48
50.0
100
AcDbLine
 10
6208.923771348293
 20
953.7649737437668
 30
0.0
 11
6226.611073562801
 21
971.4522759582759
 31
0.0
  0
LINE
  5
21833
330
747D
100
AcDbEntity
  8
細線
 48
50.0
100
AcDbLine
 10
6253.753186501047
 20
923.7649737437678
 30
0.0
 11
6245.714710728111
 21
953.7649737437668
 31
0.0
  0
MTEXT
  5
21834
102
{ACAD_REACTORS
330
21836
102
}
330
747D
100
AcDbEntity
  8
寸法
 62
     7
 48
50.0
100
AcDbMText
 10
6170.218494847044
 20
1760.349425367427
 30
0.0
 40
100.0
 41
1.0
 71
     4
 72
     1
  1
D13
  7
STYLE2
 73
     1
 44
1.0
1001
ACAD
1000
MTEXTBEGIN
1070
    73
1070
     1
1070
    44
1040
1.0
1070
    74
1070
     0
1000
MTEXTEND
  0
LWPOLYLINE
  5
21835
330
747D
100
AcDbEntity
  8
部品1
 48
50.0
100
AcDbPolyline
 90
        2
 70
     0
 43
10.0
 10
6066.611073562799
 20
1633.76497374377
 10
6584.285950853999
 20
1633.76497374377
  0
LEADER
  5
21836
330
747D
100
AcDbEntity
  8
寸法
 48
50.0
100
AcDbLeader
  3
INABA_S40G
 71
     0
 73
     0
 74
     0
 75
     1
 40
100.0
 41
222.7272727272727
 76
     3
 10
5946.611073562799
 20
1759.083010486574
 30
0.0
 10
6045.218494847044
 20
1685.349425367427
 30
0.0
 10
6145.218494847044
 20
1685.349425367427
 30
0.0
  0
LINE
  5
21837
330
747D
100
AcDbEntity
  8
部品1
 48
50.0
100
AcDbLine
 10
5936.611073562801
 20
1686.423992115171
 30
0.0
 11
5936.611073562801
 21
1759.083010486574
 31
0.0
  0
LINE
  5
21838
330
747D
100
AcDbEntity
  8
部品1
 48
50.0
100
AcDbLine
 10
5916.611073562801
 20
1686.423992115175
 30
0.0
 11
5916.611073562801
 21
1759.083010486574
 31
0.0
  0
LINE
  5
21839
330
747D
100
AcDbEntity
  8
細線
 48
50.0
100
AcDbLine
 10
5936.611073562801
 20
1691.731089578556
 30
0.0
 11
5956.6110735628
 21
1711.731089578556
 31
0.0
  0
LINE
  5
2183A
330
747D
100
AcDbEntity
  8
細線
 48
50.0
100
AcDbLine
 10
5826.611073562801
 20
1649.083010486574
 30
0.0
 11
5916.611073562801
 21
1739.083010486574
 31
0.0
  0
LINE
  5
2183B
330
747D
100
AcDbEntity
  8
細線
 48
50.0
100
AcDbLine
 10
5826.611073562801
 20
1615.407050032565
 30
0.0
 11
5916.611073562801
 21
1705.407050032565
 31
0.0
  0
LINE
  5
2183C
330
747D
100
AcDbEntity
  8
細線
 48
50.0
100
AcDbLine
 10
5976.611073562808
 20
1495.999366400494
 30
0.0
 11
6066.611073562794
 21
1585.999366400487
 31
0.0
  0
LINE
  5
2183D
330
747D
100
AcDbEntity
  8
細線
 48
50.0
100
AcDbLine
 10
5976.611073562801
 20
1529.675326854499
 30
0.0
 11
6066.611073562801
 21
1619.6753268545
 31
0.0
  0
LINE
  5
2183E
330
747D
100
AcDbEntity
  8
細線
 48
50.0
100
AcDbLine
 10
5976.611073562808
 20
1462.323405946481
 30
0.0
 11
6066.611073562794
 21
1552.323405946481
 31
0.0
  0
LINE
  5
2183F
330
747D
100
AcDbEntity
  8
部品1
 48
50.0
100
AcDbLine
 10
5936.611073562801
 20
1686.423992115171
 30
0.0
 11
5916.611073562801
 21
1686.423992115175
 31
0.0
  0
LINE
  5
21840
330
747D
100
AcDbEntity
  8
細線
 48
50.0
100
AcDbLine
 10
5826.611073562801
 20
1581.731089578556
 30
0.0
 11
5931.30397609942
 21
1686.423992115171
 31
0.0
  0
LINE
  5
21841
330
747D
100
AcDbEntity
  8
部品1
 48
50.0
100
AcDbLine
 10
5826.611073562801
 20
1933.764973743768
 30
0.0
 11
6066.611073562801
 21
1933.764973743768
 31
0.0
  0
LINE
  5
21842
330
747D
100
AcDbEntity
  8
細線
 48
50.0
100
AcDbLine
 10
5962.226601690889
 20
1784.698538614662
 30
0.0
 11
6066.611073562801
 21
1889.083010486574
 31
0.0
  0
LINE
  5
21843
330
747D
100
AcDbEntity
  8
細線
 48
50.0
100
AcDbLine
 10
5976.051957645284
 20
1764.847934115045
 30
0.0
 11
6066.611073562801
 21
1855.407050032565
 31
0.0
  0
LINE
  5
21844
330
747D
100
AcDbEntity
  8
細線
 48
50.0
100
AcDbLine
 10
5976.611073562801
 20
1731.731089578555
 30
0.0
 11
6066.611073562801
 21
1821.731089578556
 31
0.0
  0
LINE
  5
21845
330
747D
100
AcDbEntity
  8
細線
 48
50.0
100
AcDbLine
 10
5936.611073562801
 20
1725.407050032565
 30
0.0
 11
5956.6110735628
 21
1745.407050032565
 31
0.0
  0
CIRCLE
  5
21846
330
747D
100
AcDbEntity
  8
部品1
 48
50.0
100
AcDbCircle
 10
5946.611073562801
 20
1759.083010486574
 30
0.0
 40
10.0
  0
ARC
  5
21847
330
747D
100
AcDbEntity
  8
部品1
 48
50.0
100
AcDbCircle
 10
5946.611073562801
 20
1759.083010486574
 30
0.0
 40
30.0
100
AcDbArc
 50
0.0
 51
180.0
  0
LINE
  5
21848
330
747D
100
AcDbEntity
  8
細線
 48
50.0
100
AcDbLine
 10
5826.611073562801
 20
1918.490694118649
 30
0.0
 11
5841.885353187919
 21
1933.764973743768
 31
0.0
  0
LINE
  5
21849
330
747D
100
AcDbEntity
  8
細線
 48
50.0
100
AcDbLine
 10
5826.611073562801
 20
1851.13877321063
 30
0.0
 11
5909.237274095938
 21
1933.764973743768
 31
0.0
  0
LINE
  5
2184A
330
747D
100
AcDbEntity
  8
細線
 48
50.0
100
AcDbLine
 10
5826.611073562801
 20
1884.81473366464
 30
0.0
 11
5875.561313641933
 21
1933.764973743768
 31
0.0
  0
LEADER
  5
2184B
330
747D
100
AcDbEntity
  8
寸法
 48
50.0
100
AcDbLeader
  3
INABA_S40G
 71
     0
 73
     0
 74
     0
 75
     1
 40
100.0
 41
543.75
 76
     3
 10
8239.660215034293
 20
1995.214973743768
 30
0.0
 10
8340.340793058443
 20
2174.244131435306
 30
0.0
 10
8440.340793058442
 20
2174.244131435306
 30
0.0
  0
MTEXT
  5
2184C
102
{ACAD_REACTORS
330
2184B
102
}
330
747D
100
AcDbEntity
  8
部品1
 62
     7
 48
50.0
100
AcDbMText
 10
8480.340793058442
 20
2264.244131435306
 30
0.0
 40
100.0
 41
1.0
 71
     4
 72
     1
  1
M10X160
  7
STYLE2
 73
     1
 44
1.0
1001
ACAD
1000
MTEXTBEGIN
1070
    73
1070
     1
1070
    44
1040
1.0
1070
    74
1070
     0
1000
MTEXTEND
  0
DIMENSION
  5
2184D
330
747D
100
AcDbEntity
  8
寸法
 48
50.0
100
AcDbDimension
  2
*D26
 10
9096.495964745349
 20
1528.764973743766
 30
0.0
 11
8996.495964745347
 21
1731.264973743768
 31
0.0
 70
    32
  1
180
 71
     5
 42
405.0000000000022
  3
INABA_S40G
100
AcDbAlignedDimension
 13
8469.160215034293
 23
1933.764973743768
 33
0.0
 14
8469.160215034293
 24
1528.764973743766
 34
0.0
 50
90.0
100
AcDbRotatedDimension
  0
LWPOLYLINE
  5
2184E
330
747D
100
AcDbEntity
  8
部品1
 48
50.0
100
AcDbPolyline
 90
        2
 70
     0
 43
10.0
 10
8469.160215034293
 20
1633.76497374377
 10
8836.288294283525
 20
1633.76497374377
  0
LINE
  5
2184F
330
747D
100
AcDbEntity
  8
部品1
 48
50.0
100
AcDbLine
 10
8729.160215034296
 20
953.7649737437668
 30
0.0
 11
7691.660215034296
 21
953.7649737437668
 31
0.0
  0
LINE
  5
21850
330
747D
100
AcDbEntity
  8
細線
 48
50.0
100
AcDbLine
 10
8647.837577281602
 20
823.764973743766
 30
0.0
 11
8655.876053054536
 21
793.7649737437659
 31
0.0
  0
LINE
  5
21851
330
747D
100
AcDbEntity
  8
部品1
 48
50.0
100
AcDbLine
 10
8729.160215034296
 20
793.7649737437668
 30
0.0
 11
7691.660215034296
 21
793.7649737437668
 31
0.0
  0
LINE
  5
21852
330
747D
100
AcDbEntity
  8
細線
 48
50.0
100
AcDbLine
 10
8639.799101508662
 20
793.7649737437659
 30
0.0
 11
8682.670972297643
 21
953.7649737437641
 31
0.0
  0
DIMENSION
  5
21853
330
747D
100
AcDbEntity
  8
寸法
 48
50.0
100
AcDbDimension
  2
*D27
 10
9441.564297394132
 20
1933.764973743768
 30
0.0
 11
9441.564297394132
 21
1467.756070322284
 31
0.0
 70
   160
  1
20～25
 71
     5
 42
65.94999999999981
  3
INABA_S40G
100
AcDbAlignedDimension
 13
8235.160215034294
 23
1999.714973743768
 33
0.0
 14
8469.160215034293
 24
1933.764973743768
 34
0.0
 50
90.0
100
AcDbRotatedDimension
  0
TEXT
  5
21854
330
747D
100
AcDbEntity
  8
部品1
 48
50.0
100
AcDbText
 10
8474.602195389829
 20
2378.613324696518
 30
0.0
 40
100.0
  1
基礎ボルト(市販品)
  7
STYLE2
100
AcDbText
  0
LINE
  5
21855
330
747D
100
AcDbEntity
  8
細線
 48
50.0
100
AcDbLine
 10
7828.833506009647
 20
953.7649737437668
 30
0.0
 11
8469.160215034298
 21
1594.091682768411
 31
0.0
  0
LINE
  5
21856
330
747D
100
AcDbEntity
  8
細線
 48
50.0
100
AcDbLine
 10
7862.509466463655
 20
953.7649737437668
 30
0.0
 11
8469.160215034293
 21
1560.415722314403
 31
0.0
  0
LINE
  5
21857
330
747D
100
AcDbEntity
  8
細線
 48
50.0
100
AcDbLine
 10
7951.660215034293
 20
1379.6753268545
 30
0.0
 11
8149.660215034284
 21
1577.675326854493
 31
0.0
  0
LINE
  5
21858
330
747D
100
AcDbEntity
  8
細線
 48
50.0
100
AcDbLine
 10
7951.660215034293
 20
1312.323405946481
 30
0.0
 11
8168.101782831588
 21
1528.764973743766
 31
0.0
  0
LINE
  5
21859
330
747D
100
AcDbEntity
  8
細線
 48
50.0
100
AcDbLine
 10
7951.660215034293
 20
1345.99936640049
 30
0.0
 11
8149.660215034284
 21
1543.999366400476
 31
0.0
  0
LINE
  5
2185A
330
747D
100
AcDbEntity
  8
部品1
 48
50.0
100
AcDbLine
 10
7951.660215034293
 20
1253.764973743767
 30
0.0
 11
7951.660215034293
 21
1933.764973743768
 31
0.0
  0
LINE
  5
2185B
330
747D
100
AcDbEntity
  8
部品1
100
AcDbLine
 10
8469.160215034291
 20
1253.764973743767
 30
0.0
 11
8469.160215034293
 21
1933.764973743768
 31
0.0
  0
LINE
  5
2185C
330
747D
100
AcDbEntity
  8
細線
 48
50.0
100
AcDbLine
 10
7795.157545555636
 20
953.7649737437668
 30
0.0
 11
8469.160215034291
 21
1627.767643222424
 31
0.0
  0
LINE
  5
2185D
330
747D
100
AcDbEntity
  8
部品1
 48
50.0
100
AcDbLine
 10
7791.660215034294
 20
1253.764973743767
 30
0.0
 11
7951.660215034293
 21
1253.764973743767
 31
0.0
  0
LINE
  5
2185E
330
747D
100
AcDbEntity
  8
細線
 48
50.0
100
AcDbLine
 10
7791.660215034287
 20
1152.323405946481
 30
0.0
 11
7893.10178283158
 21
1253.764973743767
 31
0.0
  0
LINE
  5
2185F
330
747D
100
AcDbEntity
  8
細線
 48
50.0
100
AcDbLine
 10
7791.660215034287
 20
1185.999366400487
 30
0.0
 11
7859.425822377573
 21
1253.764973743767
 31
0.0
  0
LINE
  5
21860
330
747D
100
AcDbEntity
  8
細線
 48
50.0
100
AcDbLine
 10
7752.308595852117
 20
793.7649737437659
 30
0.0
 11
7795.180466641095
 21
953.7649737437659
 31
0.0
  0
LINE
  5
21861
330
747D
100
AcDbEntity
  8
部品1
 48
50.0
100
AcDbLine
 10
7691.660215034296
 20
793.7649737437668
 30
0.0
 11
7691.660215034296
 21
953.7649737437668
 31
0.0
  0
LINE
  5
21862
330
747D
100
AcDbEntity
  8
細線
 48
50.0
100
AcDbLine
 10
7760.347071625059
 20
823.7649737437669
 30
0.0
 11
7768.385547397992
 21
793.7649737437668
 31
0.0
  0
LINE
  5
21863
330
747D
100
AcDbEntity
  8
部品1
 48
50.0
100
AcDbLine
 10
7791.660215034294
 20
953.7649737437668
 30
0.0
 11
7791.660215034294
 21
1253.764973743767
 31
0.0
  0
LINE
  5
21864
330
747D
100
AcDbEntity
  8
細線
 48
50.0
100
AcDbLine
 10
7787.141990868168
 20
923.7649737437678
 30
0.0
 11
7779.103515095235
 21
953.7649737437668
 31
0.0
  0
LINE
  5
21865
330
747D
100
AcDbEntity
  8
細線
 48
50.0
100
AcDbLine
 10
7691.660215034294
 20
935.4398749509918
 30
0.0
 11
7696.570410457038
 21
953.7649737437668
 31
0.0
  0
LINE
  5
21866
330
747D
100
AcDbEntity
  8
細線
 48
50.0
100
AcDbLine
 10
7791.660215034287
 20
1219.6753268545
 30
0.0
 11
7825.749861923561
 21
1253.764973743767
 31
0.0
  0
LINE
  5
21867
330
747D
100
AcDbEntity
  8
細線
 48
50.0
100
AcDbLine
 10
7949.528708220245
 20
793.7649737437659
 30
0.0
 11
7992.400579009225
 21
953.7649737437659
 31
0.0
  0
LINE
  5
21868
330
747D
100
AcDbEntity
  8
細線
 48
50.0
100
AcDbLine
 10
7850.918652036189
 20
793.7649737437668
 30
0.0
 11
7893.790522825168
 21
953.7649737437668
 31
0.0
  0
LINE
  5
21869
330
747D
100
AcDbEntity
  8
細線
 48
50.0
100
AcDbLine
 10
8343.968932956483
 20
793.7649737437668
 30
0.0
 11
8386.840803745467
 21
953.7649737437659
 31
0.0
  0
LINE
  5
2186A
330
747D
100
AcDbEntity
  8
細線
 48
50.0
100
AcDbLine
 10
8146.748820588369
 20
793.7649737437668
 30
0.0
 11
8189.620691377351
 21
953.7649737437659
 31
0.0
  0
LINE
  5
2186B
330
747D
100
AcDbEntity
  8
細線
 48
50.0
100
AcDbLine
 10
8048.138764404312
 20
793.7649737437668
 30
0.0
 11
8091.01063519329
 21
953.7649737437668
 31
0.0
  0
LINE
  5
2186C
330
747D
100
AcDbEntity
  8
細線
 48
50.0
100
AcDbLine
 10
8245.358876772431
 20
793.7649737437659
 30
0.0
 11
8288.230747561412
 21
953.7649737437659
 31
0.0
  0
LINE
  5
2186D
330
747D
100
AcDbEntity
  8
細線
 48
50.0
100
AcDbLine
 10
8541.189045324607
 20
793.7649737437641
 30
0.0
 11
8584.060916113585
 21
953.7649737437641
 31
0.0
  0
LINE
  5
2186E
330
747D
100
AcDbEntity
  8
細線
 48
50.0
100
AcDbLine
 10
8442.578989140546
 20
793.7649737437659
 30
0.0
 11
8485.450859929512
 21
953.7649737437668
 31
0.0
  0
LINE
  5
2186F
330
747D
100
AcDbEntity
  8
細線
 48
50.0
100
AcDbLine
 10
7957.567183993187
 20
823.7649737437669
 30
0.0
 11
7965.605659766123
 21
793.7649737437668
 31
0.0
  0
LINE
  5
21870
330
747D
100
AcDbEntity
  8
細線
 48
50.0
100
AcDbLine
 10
7858.957127809123
 20
823.7649737437669
 30
0.0
 11
7866.995603582056
 21
793.7649737437668
 31
0.0
  0
LINE
  5
21871
330
747D
100
AcDbEntity
  8
細線
 48
50.0
100
AcDbLine
 10
8154.787296361311
 20
823.7649737437669
 30
0.0
 11
8162.825772134244
 21
793.7649737437668
 31
0.0
  0
LINE
  5
21872
330
747D
100
AcDbEntity
  8
細線
 48
50.0
100
AcDbLine
 10
8056.177240177254
 20
823.7649737437669
 30
0.0
 11
8064.215715950187
 21
793.7649737437668
 31
0.0
  0
LINE
  5
21873
330
747D
100
AcDbEntity
  8
細線
 48
50.0
100
AcDbLine
 10
8352.007408729425
 20
823.7649737437669
 30
0.0
 11
8360.045884502358
 21
793.7649737437668
 31
0.0
  0
LINE
  5
21874
330
747D
100
AcDbEntity
  8
細線
 48
50.0
100
AcDbLine
 10
8253.397352545366
 20
823.7649737437669
 30
0.0
 11
8261.435828318301
 21
793.7649737437668
 31
0.0
  0
LINE
  5
21875
330
747D
100
AcDbEntity
  8
細線
 48
50.0
100
AcDbLine
 10
8549.227521097543
 20
823.764973743766
 30
0.0
 11
8557.265996870476
 21
793.7649737437659
 31
0.0
  0
LINE
  5
21876
330
747D
100
AcDbEntity
  8
細線
 48
50.0
100
AcDbLine
 10
8450.617464913483
 20
823.7649737437669
 30
0.0
 11
8458.655940686432
 21
793.7649737437668
 31
0.0
  0
LINE
  5
21877
330
747D
100
AcDbEntity
  8
細線
 48
50.0
100
AcDbLine
 10
8131.917150095729
 20
953.7649737437668
 30
0.0
 11
8469.160215034293
 21
1291.008038682339
 31
0.0
  0
LINE
  5
21878
330
747D
100
AcDbEntity
  8
細線
 48
50.0
100
AcDbLine
 10
8098.241189641722
 20
953.7649737437668
 30
0.0
 11
8469.160215034293
 21
1324.683999136333
 31
0.0
  0
LINE
  5
21879
330
747D
100
AcDbEntity
  8
細線
 48
50.0
100
AcDbLine
 10
8064.565229187712
 20
953.7649737437668
 30
0.0
 11
8469.160215034291
 21
1358.35995959035
 31
0.0
  0
LINE
  5
2187A
330
747D
100
AcDbEntity
  8
細線
 48
50.0
100
AcDbLine
 10
7984.362103236299
 20
923.7649737437678
 30
0.0
 11
7976.323627463365
 21
953.7649737437668
 31
0.0
  0
LINE
  5
2187B
330
747D
100
AcDbEntity
  8
細線
 48
50.0
100
AcDbLine
 10
7885.752047052235
 20
923.7649737437678
 30
0.0
 11
7877.713571279301
 21
953.7649737437668
 31
0.0
  0
LINE
  5
2187C
330
747D
100
AcDbEntity
  8
細線
 48
50.0
100
AcDbLine
 10
8181.582215604422
 20
923.7649737437678
 30
0.0
 11
8173.543739831488
 21
953.7649737437668
 31
0.0
  0
LINE
  5
2187D
330
747D
100
AcDbEntity
  8
細線
 48
50.0
100
AcDbLine
 10
8082.972159420362
 20
923.7649737437678
 30
0.0
 11
8074.933683647433
 21
953.7649737437668
 31
0.0
  0
LINE
  5
2187E
330
747D
100
AcDbEntity
  8
部品1
 48
50.0
100
AcDbLine
 10
8629.160215034294
 20
1253.764973743767
 30
0.0
 11
8629.160215034294
 21
953.7649737437668
 31
0.0
  0
LINE
  5
2187F
330
747D
100
AcDbEntity
  8
細線
 48
50.0
100
AcDbLine
 10
8401.324833727803
 20
953.7649737437668
 30
0.0
 11
8629.160215034294
 21
1181.600355050263
 31
0.0
  0
LINE
  5
21880
330
747D
100
AcDbEntity
  8
細線
 48
50.0
100
AcDbLine
 10
8367.648873273799
 20
953.7649737437668
 30
0.0
 11
8629.160215034294
 21
1215.27631550426
 31
0.0
  0
LINE
  5
21881
330
747D
100
AcDbEntity
  8
細線
 48
50.0
100
AcDbLine
 10
8333.972912819785
 20
953.7649737437668
 30
0.0
 11
8629.160215034294
 21
1248.952275958277
 31
0.0
  0
LINE
  5
21882
330
747D
100
AcDbEntity
  8
細線
 48
50.0
100
AcDbLine
 10
8378.802327972536
 20
923.7649737437678
 30
0.0
 11
8370.763852199603
 21
953.7649737437668
 31
0.0
  0
LINE
  5
21883
330
747D
100
AcDbEntity
  8
細線
 48
50.0
100
AcDbLine
 10
8280.192271788479
 20
923.7649737437678
 30
0.0
 11
8272.153796015548
 21
953.7649737437668
 31
0.0
  0
LINE
  5
21884
330
747D
100
AcDbEntity
  8
細線
 48
50.0
100
AcDbLine
 10
8576.022440340654
 20
923.764973743766
 30
0.0
 11
8567.983964567721
 21
953.7649737437659
 31
0.0
  0
LINE
  5
21885
330
747D
100
AcDbEntity
  8
細線
 48
50.0
100
AcDbLine
 10
8477.412384156581
 20
923.7649737437678
 30
0.0
 11
8469.37390838365
 21
953.7649737437668
 31
0.0
  0
LINE
  5
21886
330
747D
100
AcDbEntity
  8
部品1
 48
50.0
100
AcDbLine
 10
8469.160215034293
 20
1253.764973743767
 30
0.0
 11
8629.160215034294
 21
1253.764973743767
 31
0.0
  0
LWPOLYLINE
  5
21887
330
747D
100
AcDbEntity
  8
部品1
 48
50.0
100
AcDbPolyline
 90
        2
 70
     0
 43
10.0
 10
7433.985337743099
 20
1633.76497374377
 10
7951.660215034293
 20
1633.76497374377
  0
TEXT
  5
21888
330
747D
100
AcDbEntity
  8
部品1
 48
50.0
100
AcDbText
 10
7433.985337743097
 20
1647.813714097837
 30
0.0
 40
100.0
  1
▽G.L
  7
STYLE2
100
AcDbText
  0
LINE
  5
21889
330
747D
100
AcDbEntity
  8
部品1
100
AcDbLine
 10
8217.160215034294
 20
1652.514973743768
 30
0.0
 11
8217.160215034288
 21
1995.214973743768
 31
0.0
  0
LINE
  5
2188A
330
747D
100
AcDbEntity
  8
部品1
100
AcDbLine
 10
8239.660215034293
 20
1652.514973743768
 30
0.0
 11
8239.660215034289
 21
1995.214973743768
 31
0.0
  0
LINE
  5
2188B
330
747D
100
AcDbEntity
  8
部品1
100
AcDbLine
 10
8154.485215034297
 20
2017.339973743769
 30
0.0
 11
8154.48521503429
 21
1949.089973743768
 31
0.0
  0
LINE
  5
2188C
330
747D
100
AcDbEntity
  8
部品1
100
AcDbLine
 10
8139.535215034293
 20
2002.389973743769
 30
0.0
 11
8139.535215034293
 21
1949.089973743768
 31
0.0
  0
LINE
  5
2188D
330
747D
100
AcDbEntity
  8
細線
100
AcDbLine
 10
8221.660215034296
 20
1945.714973743768
 30
0.0
 11
8221.660215034294
 21
1999.714973743768
 31
0.0
  0
LINE
  5
2188E
330
747D
100
AcDbEntity
  8
細線
100
AcDbLine
 10
8235.160215034294
 20
1945.714973743768
 30
0.0
 11
8235.160215034294
 21
1999.714973743768
 31
0.0
  0
LINE
  5
2188F
330
747D
100
AcDbEntity
  8
部品1
100
AcDbLine
 10
7959.535215034293
 20
1949.089973743768
 30
0.0
 11
7959.535215034293
 21
2026.754853372153
 31
0.0
  0
LINE
  5
21890
330
747D
100
AcDbEntity
  8
部品1
100
AcDbLine
 10
8239.660215034293
 20
1652.514973743768
 30
0.0
 11
8284.660215034293
 21
1652.514973743768
 31
0.0
  0
LINE
  5
21891
330
747D
100
AcDbEntity
  8
部品1
100
AcDbLine
 10
8239.660215034293
 20
1630.014973743767
 30
0.0
 11
8284.660215034293
 21
1630.014973743767
 31
0.0
  0
LINE
  5
21892
330
747D
100
AcDbEntity
  8
部品1
100
AcDbLine
 10
8157.860215034288
 20
1945.714973743768
 30
0.0
 11
8409.535215034287
 21
1945.714973743768
 31
0.0
  0
LINE
  5
21893
330
747D
100
AcDbEntity
  8
部品1
 48
50.0
100
AcDbLine
 10
7951.660215034293
 20
1933.764973743768
 30
0.0
 11
8469.160215034298
 21
1933.764973743768
 31
0.0
  0
LINE
  5
21894
330
747D
100
AcDbEntity
  8
部品1
100
AcDbLine
 10
8307.160215034294
 20
1528.764973743766
 30
0.0
 11
8149.660215034286
 21
1528.764973743766
 31
0.0
  0
LINE
  5
21895
330
747D
100
AcDbEntity
  8
細線
 48
50.0
100
AcDbLine
 10
7951.660215034293
 20
1615.407050032565
 30
0.0
 11
8149.660215034293
 21
1813.407050032562
 31
0.0
  0
LINE
  5
21896
330
747D
100
AcDbEntity
  8
細線
 48
50.0
100
AcDbLine
 10
7951.660215034293
 20
1649.083010486574
 30
0.0
 11
8149.660215034293
 21
1847.083010486571
 31
0.0
  0
LINE
  5
21897
330
747D
100
AcDbEntity
  8
部品1
100
AcDbLine
 10
8149.660215034286
 20
1528.764973743767
 30
0.0
 11
8149.660215034293
 21
1933.764973743768
 31
0.0
  0
LINE
  5
21898
330
747D
100
AcDbEntity
  8
細線
 48
50.0
100
AcDbLine
 10
7951.660215034293
 20
1581.731089578556
 30
0.0
 11
8149.660215034289
 21
1779.731089578546
 31
0.0
  0
ARC
  5
21899
330
747D
100
AcDbEntity
  8
部品1
100
AcDbCircle
 10
8239.660215034293
 20
1652.514973743768
 30
0.0
 40
22.5
100
AcDbArc
 50
180.0
 51
270.0
  0
LINE
  5
2189A
330
747D
100
AcDbEntity
  8
細線
 48
50.0
100
AcDbLine
 10
7951.660215034293
 20
1851.13877321063
 30
0.0
 11
8034.28641556743
 21
1933.764973743768
 31
0.0
  0
LINE
  5
2189B
330
747D
100
AcDbEntity
  8
細線
 48
50.0
100
AcDbLine
 10
7951.660215034293
 20
1884.81473366464
 30
0.0
 11
8000.610455113426
 21
1933.764973743768
 31
0.0
  0
LINE
  5
2189C
330
747D
100
AcDbEntity
  8
部品1
100
AcDbLine
 10
7962.910215034293
 20
1945.714973743768
 30
0.0
 11
7977.535215034286
 21
1945.714973743768
 31
0.0
  0
LINE
  5
2189D
330
747D
100
AcDbEntity
  8
細線
 48
50.0
100
AcDbLine
 10
7951.660215034293
 20
1918.490694118649
 30
0.0
 11
7966.934494659412
 21
1933.764973743768
 31
0.0
  0
ARC
  5
2189E
330
747D
100
AcDbEntity
  8
部品1
100
AcDbCircle
 10
7962.910215034293
 20
1949.089973743768
 30
0.0
 40
3.375
100
AcDbArc
 50
180.0
 51
270.0
  0
ARC
  5
2189F
330
747D
100
AcDbEntity
  8
部品1
100
AcDbCircle
 10
8136.160215034292
 20
1949.089973743768
 30
0.0
 40
3.375
100
AcDbArc
 50
270.0
 51
0.0
  0
ARC
  5
218A0
330
747D
100
AcDbEntity
  8
部品1
100
AcDbCircle
 10
8157.860215034288
 20
1949.089973743768
 30
0.0
 40
3.375
100
AcDbArc
 50
180.0
 51
270.0
  0
LINE
  5
218A1
330
747D
100
AcDbEntity
  8
部品1
100
AcDbLine
 10
8121.535215034294
 20
1945.714973743768
 30
0.0
 11
8136.160215034292
 21
1945.714973743768
 31
0.0
  0
LINE
  5
218A2
330
747D
100
AcDbEntity
  8
細線
 48
50.0
100
AcDbLine
 10
8307.160215034295
 20
1667.823405946465
 30
0.0
 11
8469.160215034293
 21
1829.823405946455
 31
0.0
  0
LINE
  5
218A3
330
747D
100
AcDbEntity
  8
部品1
100
AcDbLine
 10
8307.160215034294
 20
1528.764973743767
 30
0.0
 11
8307.160215034294
 21
1933.764973743768
 31
0.0
  0
LINE
  5
218A4
330
747D
100
AcDbEntity
  8
部品1
100
AcDbLine
 10
8284.660215034293
 20
1630.014973743767
 30
0.0
 11
8284.660215034293
 21
1652.514973743768
 31
0.0
  0
LINE
  5
218A5
330
747D
100
AcDbEntity
  8
細線
 48
50.0
100
AcDbLine
 10
8307.160215034295
 20
1701.499366400482
 30
0.0
 11
8469.160215034293
 21
1863.499366400478
 31
0.0
  0
LINE
  5
218A6
330
747D
100
AcDbEntity
  8
細線
 48
50.0
100
AcDbLine
 10
8307.160215034295
 20
1735.175326854503
 30
0.0
 11
8469.160215034293
 21
1897.175326854502
 31
0.0
  0
LINE
  5
218A7
330
747D
100
AcDbEntity
  8
部品1
 48
50.0
100
AcDbLine
 10
8208.410215034293
 20
2412.359075130196
 30
0.0
 11
8248.410215034294
 21
2412.359075130196
 31
0.0
  0
LINE
  5
218A8
330
747D
100
AcDbEntity
  8
部品1
 48
50.0
100
AcDbLine
 10
8208.410215034293
 20
2372.359075130196
 30
0.0
 11
8248.410215034294
 21
2372.359075130196
 31
0.0
  0
ELLIPSE
  5
218A9
330
747D
100
AcDbEntity
  8
細線
 48
50.0
100
AcDbEllipse
 10
8228.410215034292
 20
2422.359075130197
 30
0.0
 11
18.45838483258558
 21
0.0
 31
0.0
210
0.0
220
0.0
230
1.0
 40
0.2071254069489396
 41
0.0
 42
6.283185307179585
  0
LINE
  5
218AA
330
747D
100
AcDbEntity
  8
部品1
 48
50.0
100
AcDbLine
 10
8208.410215034293
 20
2432.359075130196
 30
0.0
 11
8248.410215034294
 21
2432.359075130196
 31
0.0
  0
ELLIPSE
  5
218AB
330
747D
100
AcDbEntity
  8
部品1
 48
50.0
100
AcDbEllipse
 10
8228.410215034292
 20
2258.169084299108
 30
0.0
 11
50.0
 21
0.0
 31
0.0
210
0.0
220
0.0
230
1.0
 40
0.4
 41
3.141592653589792
 42
6.283185307179585
  0
ELLIPSE
  5
218AC
330
747D
100
AcDbEntity
  8
部品1
 48
50.0
100
AcDbEllipse
 10
8228.410215034292
 20
2270.169084299108
 30
0.0
 11
50.0
 21
0.0
 31
0.0
210
0.0
220
0.0
230
1.0
 40
0.4
 41
0.0
 42
6.283185307179585
  0
ELLIPSE
  5
218AD
330
747D
100
AcDbEntity
  8
部品1
 48
50.0
100
AcDbEllipse
 10
8228.410215034292
 20
2270.169084299108
 30
0.0
 11
23.0
 21
0.0
 31
0.0
210
0.0
220
0.0
230
1.0
 40
0.3478260869565217
 41
0.0
 42
6.283185307179585
  0
LINE
  5
218AE
330
747D
100
AcDbEntity
  8
部品1
100
AcDbLine
 10
8030.410215034292
 20
2073.264973743767
 30
0.0
 11
8083.285215034292
 21
2073.264973743764
 31
0.0
  0
LINE
  5
218AF
330
747D
100
AcDbEntity
  8
部品1
100
AcDbLine
 10
7976.410215034293
 20
2046.264973743769
 30
0.0
 11
8023.660215034293
 21
2046.264973743769
 31
0.0
  0
LINE
  5
218B0
330
747D
100
AcDbEntity
  8
部品1
100
AcDbLine
 10
7962.091657299794
 20
2030.029084310143
 30
0.0
 11
7973.035215034293
 21
2032.764973743768
 31
0.0
  0
ARC
  5
218B1
330
747D
100
AcDbEntity
  8
部品1
100
AcDbCircle
 10
7962.910215034293
 20
2026.754853372153
 30
0.0
 40
3.375
100
AcDbArc
 50
104.0362434679612
 51
180.0
  0
ARC
  5
218B2
330
747D
100
AcDbEntity
  8
部品1
100
AcDbCircle
 10
7976.410215034293
 20
2042.889973743768
 30
0.0
 40
3.375
100
AcDbArc
 50
90.0
 51
180.0
  0
LINE
  5
218B3
330
747D
100
AcDbEntity
  8
部品1
100
AcDbLine
 10
7973.035215034293
 20
2032.764973743768
 30
0.0
 11
7973.035215034293
 21
2042.889973743768
 31
0.0
  0
ARC
  5
218B4
330
747D
100
AcDbEntity
  8
部品1
100
AcDbCircle
 10
8027.035215034294
 20
2056.389973743768
 30
0.0
 40
3.375
100
AcDbArc
 50
90.0
 51
180.0
  0
LINE
  5
218B5
330
747D
100
AcDbEntity
  8
部品1
100
AcDbLine
 10
8023.660215034293
 20
2046.264973743769
 30
0.0
 11
8023.660215034293
 21
2056.389973743768
 31
0.0
  0
LINE
  5
218B6
330
747D
100
AcDbEntity
  8
部品1
100
AcDbLine
 10
8027.035215034294
 20
2059.764973743768
 30
0.0
 11
8027.035215034294
 21
2069.889973743768
 31
0.0
  0
LINE
  5
218B7
330
747D
100
AcDbEntity
  8
部品1
100
AcDbLine
 10
8027.035215034294
 20
2059.764973743768
 30
0.0
 11
8027.035215034294
 21
2059.764973743768
 31
0.0
  0
ARC
  5
218B8
330
747D
100
AcDbEntity
  8
部品1
100
AcDbCircle
 10
8030.410215034292
 20
2069.889973743768
 30
0.0
 40
3.375
100
AcDbArc
 50
90.0
 51
180.0
  0
LINE
  5
218B9
330
747D
100
AcDbEntity
  8
部品1
100
AcDbLine
 10
8112.535215034293
 20
2017.339973743769
 30
0.0
 11
8112.535215034293
 21
1995.964973743768
 31
0.0
  0
ARC
  5
218BA
330
747D
100
AcDbEntity
  8
部品1
100
AcDbCircle
 10
8136.160215034292
 20
2002.389973743769
 30
0.0
 40
3.375
100
AcDbArc
 50
0.0
 51
90.0
  0
LINE
  5
218BB
330
747D
100
AcDbEntity
  8
部品1
100
AcDbLine
 10
8221.660215034294
 20
1999.714973743768
 30
0.0
 11
8235.160215034294
 21
1999.714973743768
 31
0.0
  0
LINE
  5
218BC
330
747D
100
AcDbEntity
  8
部品1
100
AcDbLine
 10
8217.160215034294
 20
1995.214973743768
 30
0.0
 11
8239.660215034293
 21
1995.214973743768
 31
0.0
  0
ARC
  5
218BD
330
747D
100
AcDbEntity
  8
部品1
100
AcDbCircle
 10
8151.110215034297
 20
2017.339973743769
 30
0.0
 40
3.375
100
AcDbArc
 50
0.0
 51
90.0
  0
ARC
  5
218BE
330
747D
100
AcDbEntity
  8
部品1
100
AcDbCircle
 10
8115.910215034293
 20
2017.339973743769
 30
0.0
 40
3.375
100
AcDbArc
 50
90.0
 51
180.0
  0
LINE
  5
218BF
330
747D
100
AcDbEntity
  8
部品1
100
AcDbLine
 10
8115.910215034293
 20
2020.714973743768
 30
0.0
 11
8151.110215034297
 21
2020.714973743768
 31
0.0
  0
LINE
  5
218C0
330
747D
100
AcDbEntity
  8
部品1
 48
50.0
100
AcDbLine
 10
8178.410215034293
 20
2270.169084299108
 30
0.0
 11
8178.410215034293
 21
2258.169084299108
 31
0.0
  0
LINE
  5
218C1
330
747D
100
AcDbEntity
  8
部品1
100
AcDbLine
 10
8086.660215034292
 20
2069.889973743764
 30
0.0
 11
8086.660215034292
 21
2005.764973743768
 31
0.0
  0
ARC
  5
218C2
330
747D
100
AcDbEntity
  8
部品1
100
AcDbCircle
 10
8083.285215034292
 20
2069.889973743764
 30
0.0
 40
3.375
100
AcDbArc
 50
0.0
 51
90.0
  0
LINE
  5
218C3
330
747D
100
AcDbEntity
  8
部品1
100
AcDbLine
 10
8086.660215034292
 20
2005.764973743768
 30
0.0
 11
8136.160215034292
 21
2005.764973743768
 31
0.0
  0
LINE
  5
218C4
330
747D
100
AcDbEntity
  8
部品1
 48
50.0
100
AcDbLine
 10
8188.410215034293
 20
2422.359075130198
 30
0.0
 11
8208.410215034293
 21
2432.359075130196
 31
0.0
  0
LINE
  5
218C5
330
747D
100
AcDbEntity
  8
部品1
 48
50.0
100
AcDbLine
 10
8188.410215034293
 20
2382.359075130196
 30
0.0
 11
8208.410215034293
 21
2372.359075130196
 31
0.0
  0
LINE
  5
218C6
330
747D
100
AcDbEntity
  8
部品1
 48
50.0
100
AcDbLine
 10
8188.410215034293
 20
2422.359075130198
 30
0.0
 11
8208.410215034293
 21
2412.359075130196
 31
0.0
  0
LINE
  5
218C7
330
747D
100
AcDbEntity
  8
部品1
 48
50.0
100
AcDbLine
 10
8188.410215034293
 20
2382.359075130196
 30
0.0
 11
8188.410215034293
 21
2422.359075130198
 31
0.0
  0
LINE
  5
218C8
330
747D
100
AcDbEntity
  8
細線
 48
50.0
100
AcDbLine
 10
8208.410215034293
 20
2372.359075130196
 30
0.0
 11
8208.410215034293
 21
2412.359075130196
 31
0.0
  0
LINE
  5
218C9
330
747D
100
AcDbEntity
  8
部品1
 48
50.0
100
AcDbLine
 10
8278.410215034293
 20
2258.169084299108
 30
0.0
 11
8278.410215034293
 21
2270.169084299108
 31
0.0
  0
LINE
  5
218CA
330
747D
100
AcDbEntity
  8
部品1
 48
50.0
100
AcDbLine
 10
8248.410215034294
 20
2432.359075130196
 30
0.0
 11
8268.410215034293
 21
2422.359075130198
 31
0.0
  0
LINE
  5
218CB
330
747D
100
AcDbEntity
  8
部品1
 48
50.0
100
AcDbLine
 10
8268.410215034293
 20
2382.359075130196
 30
0.0
 11
8268.410215034293
 21
2422.359075130198
 31
0.0
  0
LINE
  5
218CC
330
747D
100
AcDbEntity
  8
細線
 48
50.0
100
AcDbLine
 10
8248.410215034294
 20
2372.359075130196
 30
0.0
 11
8248.410215034294
 21
2412.359075130196
 31
0.0
  0
LINE
  5
218CD
330
747D
100
AcDbEntity
  8
部品1
 48
50.0
100
AcDbLine
 10
8248.410215034294
 20
2412.359075130196
 30
0.0
 11
8268.410215034293
 21
2422.359075130198
 31
0.0
  0
LINE
  5
218CE
330
747D
100
AcDbEntity
  8
部品1
 48
50.0
100
AcDbLine
 10
8248.410215034294
 20
2372.359075130196
 30
0.0
 11
8268.410215034293
 21
2382.359075130196
 31
0.0
  0
LINE
  5
218CF
330
747D
100
AcDbEntity
  8
細線
 48
50.0
100
AcDbLine
 10
10234.14264347586
 20
1359.141329177077
 30
0.0
 11
10277.01451426484
 21
1519.141329177078
 31
0.0
  0
TEXT
  5
218D0
330
747D
100
AcDbEntity
  8
部品1
 48
50.0
100
AcDbText
 10
9638.432521964611
 20
1300.265297947131
 30
0.0
 40
100.0
  1
ボルトの出
 50
90.0
  7
STYLE2
100
AcDbText
  0
LINE
  5
218D1
330
747D
100
AcDbEntity
  8
部品1
100
AcDbLine
 10
10113.77415028991
 20
1359.141329177076
 30
0.0
 11
10113.77415028991
 21
1633.764973743768
 31
0.0
  0
LINE
  5
218D2
330
747D
100
AcDbEntity
  8
細線
 48
50.0
100
AcDbLine
 10
10135.5325872918
 20
1359.14132917708
 30
0.0
 11
10178.40445808078
 21
1519.14132917708
 31
0.0
  0
LINE
  5
218D3
330
747D
100
AcDbEntity
  8
部品1
 48
50.0
100
AcDbLine
 10
8729.160215034296
 20
953.7649737437668
 30
0.0
 11
8729.160215034296
 21
793.7649737437668
 31
0.0
  0
LINE
  5
218D4
330
747D
100
AcDbEntity
  8
細線
 48
50.0
100
AcDbLine
 10
8674.632496524713
 20
923.764973743766
 30
0.0
 11
8666.594020751782
 21
953.7649737437659
 31
0.0
  0
LINE
  5
218D5
330
747D
100
AcDbEntity
  8
細線
 48
50.0
100
AcDbLine
 10
10242.1811192488
 20
1389.14132917708
 30
0.0
 11
10250.21959502173
 21
1359.14132917708
 31
0.0
  0
LINE
  5
218D6
330
747D
100
AcDbEntity
  8
細線
 48
50.0
100
AcDbLine
 10
10143.57106306474
 20
1389.14132917708
 30
0.0
 11
10151.60953883767
 21
1359.14132917708
 31
0.0
  0
LINE
  5
218D7
330
747D
100
AcDbEntity
  8
部品1
100
AcDbLine
 10
10263.77415028991
 20
1633.764973743768
 30
0.0
 11
10263.77415028991
 21
1933.764973743768
 31
0.0
  0
LINE
  5
218D8
330
747D
100
AcDbEntity
  8
細線
 48
50.0
100
AcDbLine
 10
10170.36598230785
 20
1489.14132917708
 30
0.0
 11
10162.32750653491
 21
1519.14132917708
 31
0.0
  0
LINE
  5
218D9
330
747D
100
AcDbEntity
  8
細線
 48
50.0
100
AcDbLine
 10
10268.97603849191
 20
1489.14132917708
 30
0.0
 11
10260.93756271898
 21
1519.14132917708
 31
0.0
  0
TEXT
  5
218DA
330
747D
100
AcDbEntity
  8
部品1
100
AcDbText
 10
7713.739490527665
 20
3360.539583525538
 30
0.0
 40
150.0
  1
基礎詳細
  7
STYLE2
100
AcDbText
  0
LINE
  5
218DB
330
747D
100
AcDbEntity
  8
部品1
100
AcDbLine
 10
11604.28507810905
 20
325.9099957167346
 30
0.0
 11
11604.28507810905
 21
3584.979498464825
 31
0.0
  0
LINE
  5
218DC
330
747D
100
AcDbEntity
  8
部品1
100
AcDbLine
 10
11013.77415028991
 20
1633.764973743768
 30
0.0
 11
11013.77415028991
 21
1359.14132917708
 31
0.0
  0
LINE
  5
218DD
330
747D
100
AcDbEntity
  8
細線
 48
50.0
100
AcDbLine
 10
10825.80298058022
 20
1359.141329177076
 30
0.0
 11
10868.67485136919
 21
1519.141329177076
 31
0.0
  0
LINE
  5
218DE
330
747D
100
AcDbEntity
  8
細線
 48
50.0
100
AcDbLine
 10
10924.41303676427
 20
1359.141329177077
 30
0.0
 11
10967.28490755326
 21
1519.141329177076
 31
0.0
  0
LINE
  5
218DF
330
747D
100
AcDbEntity
  8
細線
 48
50.0
100
AcDbLine
 10
10628.5828682121
 20
1359.14132917708
 30
0.0
 11
10671.45473900108
 21
1519.141329177078
 31
0.0
  0
LINE
  5
218E0
330
747D
100
AcDbEntity
  8
細線
 48
50.0
100
AcDbLine
 10
10727.19292439616
 20
1359.141329177077
 30
0.0
 11
10770.06479518513
 21
1519.14132917708
 31
0.0
  0
LINE
  5
218E1
330
747D
100
AcDbEntity
  8
細線
 48
50.0
100
AcDbLine
 10
10431.36275584398
 20
1359.14132917708
 30
0.0
 11
10474.23462663296
 21
1519.141329177078
 31
0.0
  0
LINE
  5
218E2
330
747D
100
AcDbEntity
  8
細線
 48
50.0
100
AcDbLine
 10
10332.75269965993
 20
1359.14132917708
 30
0.0
 11
10375.6245704489
 21
1519.14132917708
 31
0.0
  0
LINE
  5
218E3
330
747D
100
AcDbEntity
  8
細線
 48
50.0
100
AcDbLine
 10
10529.97281202804
 20
1359.141329177077
 30
0.0
 11
10572.84468281702
 21
1519.141329177078
 31
0.0
  0
LINE
  5
218E4
330
747D
100
AcDbEntity
  8
細線
 48
50.0
100
AcDbLine
 10
10439.40123161692
 20
1389.14132917708
 30
0.0
 11
10447.43970738986
 21
1359.14132917708
 31
0.0
  0
LINE
  5
218E5
330
747D
100
AcDbEntity
  8
細線
 48
50.0
100
AcDbLine
 10
10340.79117543287
 20
1389.14132917708
 30
0.0
 11
10348.8296512058
 21
1359.14132917708
 31
0.0
  0
LINE
  5
218E6
330
747D
100
AcDbEntity
  8
細線
 48
50.0
100
AcDbLine
 10
10636.62134398504
 20
1389.14132917708
 30
0.0
 11
10644.65981975797
 21
1359.14132917708
 31
0.0
  0
LINE
  5
218E7
330
747D
100
AcDbEntity
  8
細線
 48
50.0
100
AcDbLine
 10
10538.01128780098
 20
1389.14132917708
 30
0.0
 11
10546.04976357391
 21
1359.14132917708
 31
0.0
  0
LINE
  5
218E8
330
747D
100
AcDbEntity
  8
細線
 48
50.0
100
AcDbLine
 10
10833.84145635316
 20
1389.141329177078
 30
0.0
 11
10841.87993212609
 21
1359.141329177077
 31
0.0
  0
LINE
  5
218E9
330
747D
100
AcDbEntity
  8
細線
 48
50.0
100
AcDbLine
 10
10735.2314001691
 20
1389.14132917708
 30
0.0
 11
10743.26987594204
 21
1359.14132917708
 31
0.0
  0
LINE
  5
218EA
330
747D
100
AcDbEntity
  8
細線
 48
50.0
100
AcDbLine
 10
10932.45151253722
 20
1389.141329177078
 30
0.0
 11
10940.48998831015
 21
1359.141329177077
 31
0.0
  0
MTEXT
  5
218EB
102
{ACAD_REACTORS
330
218EC
102
}
330
747D
100
AcDbEntity
  8
寸法
 62
     7
 48
50.0
100
AcDbMText
 10
11006.10242310187
 20
2255.19787459519
 30
0.0
 40
150.0
 41
1.0
 71
     4
 72
     1
  1
\A1;C.B
  7
STYLE1
 73
     1
 44
1.0
1001
ACAD
1000
MTEXTBEGIN
1070
    73
1070
     1
1070
    44
1040
1.0
1070
    74
1070
     0
1000
MTEXTEND
  0
LEADER
  5
218EC
330
747D
100
AcDbEntity
  8
寸法
 48
50.0
100
AcDbLeader
  3
INABA_S40G
 71
     0
 73
     0
 74
     0
 75
     1
 40
150.0
 41
231.9898538650463
 76
     3
 10
10777.17966480981
 20
1933.764973743768
 30
0.0
 10
10866.10242310187
 20
2140.19787459519
 30
0.0
 10
10966.10242310187
 20
2140.19787459519
 30
0.0
  0
LINE
  5
218ED
330
747D
100
AcDbEntity
  8
細線
100
AcDbLine
 10
10846.47707235543
 20
1633.76497374377
 30
0.0
 11
10546.47707235544
 21
1933.764973743768
 31
0.0
  0
LINE
  5
218EE
330
747D
100
AcDbEntity
  8
細線
100
AcDbLine
 10
10782.83746204865
 20
1633.764973743768
 30
0.0
 11
10482.83746204865
 21
1933.764973743768
 31
0.0
  0
LINE
  5
218EF
330
747D
100
AcDbEntity
  8
細線
 48
50.0
100
AcDbLine
 10
10367.58609467598
 20
1489.14132917708
 30
0.0
 11
10359.54761890304
 21
1519.14132917708
 31
0.0
  0
LINE
  5
218F0
330
747D
100
AcDbEntity
  8
細線
 48
50.0
100
AcDbLine
 10
10466.19615086003
 20
1489.14132917708
 30
0.0
 11
10458.1576750871
 21
1519.14132917708
 31
0.0
  0
LINE
  5
218F1
330
747D
100
AcDbEntity
  8
細線
100
AcDbLine
 10
10339.92245715646
 20
1519.141329177081
 30
0.0
 11
10454.54610172314
 21
1633.764973743768
 31
0.0
  0
LINE
  5
218F2
330
747D
100
AcDbEntity
  8
細線
100
AcDbLine
 10
10297.49605028527
 20
1519.141329177081
 30
0.0
 11
10412.11969485195
 21
1633.764973743768
 31
0.0
  0
LINE
  5
218F3
330
747D
100
AcDbEntity
  8
細線
 48
50.0
100
AcDbLine
 10
10663.41626322815
 20
1489.14132917708
 30
0.0
 11
10655.37778745522
 21
1519.14132917708
 31
0.0
  0
LINE
  5
218F4
330
747D
100
AcDbEntity
  8
細線
 48
50.0
100
AcDbLine
 10
10564.80620704409
 20
1489.14132917708
 30
0.0
 11
10556.76773127116
 21
1519.14132917708
 31
0.0
  0
LINE
  5
218F5
330
747D
100
AcDbEntity
  8
部品1
100
AcDbLine
 10
10863.77415028991
 20
1933.764973743768
 30
0.0
 11
10863.77415028991
 21
1633.764973743768
 31
0.0
  0
LINE
  5
218F6
330
747D
100
AcDbEntity
  8
細線
 48
50.0
100
AcDbLine
 10
10860.63637559627
 20
1489.141329177078
 30
0.0
 11
10852.59789982333
 21
1519.141329177078
 31
0.0
  0
LINE
  5
218F7
330
747D
100
AcDbEntity
  8
細線
 48
50.0
100
AcDbLine
 10
10762.0263194122
 20
1489.14132917708
 30
0.0
 11
10753.98784363926
 21
1519.14132917708
 31
0.0
  0
LINE
  5
218F8
330
747D
100
AcDbEntity
  8
細線
100
AcDbLine
 10
10789.92245715646
 20
1519.141329177082
 30
0.0
 11
10904.54610172314
 21
1633.764973743768
 31
0.0
  0
LINE
  5
218F9
330
747D
100
AcDbEntity
  8
細線
100
AcDbLine
 10
10705.06964341408
 20
1519.141329177082
 30
0.0
 11
10819.69328798076
 21
1633.764973743768
 31
0.0
  0
LINE
  5
218FA
330
747D
100
AcDbEntity
  8
細線
100
AcDbLine
 10
10747.49605028527
 20
1519.141329177082
 30
0.0
 11
10862.11969485195
 21
1633.764973743768
 31
0.0
  0
LINE
  5
218FB
330
747D
100
AcDbEntity
  8
細線
 48
50.0
100
AcDbLine
 10
10959.24643178033
 20
1489.141329177078
 30
0.0
 11
10951.20795600739
 21
1519.141329177078
 31
0.0
  0
TEXT
  5
218FC
330
747D
100
AcDbEntity
  8
文字
 62
     7
 48
50.0
100
AcDbText
 10
14641.2525855784
 20
871.1744590657925
 30
0.0
 40
100.0
  1
～一般型・多雪地型～
  7
STYLE2
100
AcDbText
  0
TEXT
  5
218FD
330
747D
100
AcDbEntity
  8
文字
 62
     7
 48
50.0
100
AcDbText
 10
14524.131837222
 20
1031.557706291228
 30
0.0
 40
100.0
  1
NO.06      <縮尺> S=1/40
  7
STYLE2
100
AcDbText
  0
ENDSEC
  0
SECTION
  2
OBJECTS
  0
DICTIONARY
  5
7471
330
0
100
AcDbDictionary
281
     1
  3
ACAD_COLOR
350
159B0
  3
ACAD_GROUP
350
7472
  3
ACAD_LAYOUT
350
159B1
  3
ACAD_MATERIAL
350
159AF
  3
ACAD_MLINESTYLE
350
7473
  3
ACAD_PLOTSETTINGS
350
159B2
  3
ACAD_PLOTSTYLENAME
350
159AD
  3
AcadDim
350
2068C
  3
ACDBHEADERROUNDTRIPXREC
350
21995
  3
AcDbVariableDictionary
350
2008B
  3
CONTENTDICTIONARY
350
E71C
  3
DRAWINGVARIABLESDICT
350
F3B9
  0
DICTIONARY
  5
20680
330
7467
100
AcDbDictionary
280
     1
281
     1
  3
ACAD_LAYERSTATES
360
20681
  0
DICTIONARY
  5
159B0
102
{ACAD_REACTORS
330
7471
102
}
330
7471
100
AcDbDictionary
281
     1
  0
DICTIONARY
  5
7472
102
{ACAD_REACTORS
330
7471
102
}
330
7471
100
AcDbDictionary
281
     1
  3
*A1
350
20F33
  3
*A2
350
210FF
  0
DICTIONARY
  5
159B1
102
{ACAD_REACTORS
330
7471
102
}
330
7471
100
AcDbDictionary
281
     1
  3
Model
350
159B3
  3
レイアウト1
350
159B4
  0
DICTIONARY
  5
159AF
102
{ACAD_REACTORS
330
7471
102
}
330
7471
100
AcDbDictionary
281
     1
  0
DICTIONARY
  5
7473
102
{ACAD_REACTORS
330
7471
102
}
330
7471
100
AcDbDictionary
281
     1
  3
STANDARD
350
7480
  0
DICTIONARY
  5
159B2
102
{ACAD_REACTORS
330
7471
102
}
330
7471
100
AcDbDictionary
281
     1
  0
ACDBDICTIONARYWDFLT
  5
159AD
102
{ACAD_REACTORS
330
7471
102
}
330
7471
100
AcDbDictionary
281
     1
  3
Normal
350
159AE
100
AcDbDictionaryWithDefault
340
159AE
  0
XRECORD
  5
2068C
102
{ACAD_REACTORS
330
7471
102
}
330
7471
100
AcDbXrecord
280
     1
 90
   990106
  3

 60
     0
 61
     0
 62
     1
 63
     3
 64
     1
 65
     0
 66
     0
 67
     3
 68
     1
 69
     0
 70
     0
 71
     0
 72
     0
 40
0.0
170
     2
340
0
  0
DICTIONARY
  5
21995
102
{ACAD_REACTORS
330
7471
102
}
330
7471
100
AcDbDictionary
281
     1
  3
COLORDICT
350
21997
  3
MATERIALDICT
350
21996
  0
DICTIONARY
  5
2008B
102
{ACAD_REACTORS
330
7471
102
}
330
7471
100
AcDbDictionary
281
     1
  3
DIMASSOC
350
2008C
  3
PROJECTNAME
350
2008D
  0
DICTIONARY
  5
E71C
102
{ACAD_REACTORS
330
7471
102
}
330
7471
100
AcDbDictionary
281
     1
  0
DICTIONARY
  5
F3B9
102
{ACAD_REACTORS
330
7471
102
}
330
7471
100
AcDbDictionary
281
     1
1001
DRAWINGVARIABLESXDATA
1000
POLARMODE
1000
1
  0
DICTIONARY
  5
20681
102
{ACAD_REACTORS
330
20680
102
}
330
20680
100
AcDbDictionary
281
     1
  0
GROUP
  5
20F33
102
{ACAD_REACTORS
330
7472
102
}
330
7472
100
AcDbGroup
300

 70
     1
 71
     1
  0
GROUP
  5
210FF
102
{ACAD_REACTORS
330
7472
102
}
330
7472
100
AcDbGroup
300

 70
     1
 71
     1
  0
LAYOUT
  5
159B3
102
{ACAD_XDICTIONARY
360
21998
102
}
102
{ACAD_REACTORS
330
159B1
102
}
330
159B1
100
AcDbPlotSettings
  1

  2
iR C3880
  4
A3
  6

 40
5.87375
 41
5.873747999999999
 42
5.873749
 43
5.873749
 44
296.925995
 45
419.946655
 46
0.0
 47
0.0
 48
0.0
 49
0.0
140
0.0
141
0.0
142
1.0
143
41.65811997269246
 70
 11952
 72
     1
 73
     1
 74
     2
  7
inabass.ctb
 75
     0
147
0.0240049239057239
148
0.0
149
0.0
100
AcDbLayout
  1
Model
 70
     1
 71
     0
 10
0.0
 20
0.0
 11
12.0
 21
9.0
 12
0.0
 22
0.0
 32
0.0
 14
0.0
 24
0.0
 34
0.0
 15
0.0
 25
0.0
 35
0.0
146
0.0
 13
0.0
 23
0.0
 33
0.0
 16
1.0
 26
0.0
 36
0.0
 17
0.0
 27
1.0
 37
0.0
 76
     0
330
747D
  0
LAYOUT
  5
159B4
102
{ACAD_XDICTIONARY
360
2199A
102
}
102
{ACAD_REACTORS
330
159B1
102
}
330
159B1
100
AcDbPlotSettings
  1

  2
自動 EPSON LP-8400FX (TATENO 上)
  4

  6

 40
0.0
 41
0.0
 42
0.0
 43
0.0
 44
0.0
 45
0.0
 46
0.0
 47
0.0
 48
0.0
 49
0.0
140
0.0
141
0.0
142
1.0
143
1.0
 70
   688
 72
     0
 73
     0
 74
     5
  7
inaba.ctb
 75
    16
147
1.0
148
0.0
149
0.0
100
AcDbLayout
  1
レイアウト1
 70
     0
 71
     1
 10
0.0
 20
0.0
 11
420.0
 21
297.0
 12
0.0
 22
0.0
 32
0.0
 14
1.000000000000000E+20
 24
1.000000000000000E+20
 34
1.000000000000000E+20
 15
-1.000000000000000E+20
 25
-1.000000000000000E+20
 35
-1.000000000000000E+20
146
0.0
 13
0.0
 23
0.0
 33
0.0
 16
1.0
 26
0.0
 36
0.0
 17
0.0
 27
1.0
 37
0.0
 76
     0
330
747A
  0
MLINESTYLE
  5
7480
102
{ACAD_REACTORS
330
7473
102
}
330
7473
100
AcDbMlineStyle
  2
STANDARD
 70
     0
  3

 62
     0
 51
90.0
 52
90.0
 71
     2
 49
0.5
 62
   256
  6
BYLAYER
 49
-0.5
 62
   256
  6
BYLAYER
  0
ACDBPLACEHOLDER
  5
159AE
102
{ACAD_REACTORS
330
159AD
102
}
330
159AD
  0
XRECORD
  5
21997
102
{ACAD_REACTORS
330
21995
102
}
330
21995
100
AcDbXrecord
280
     1
340
159B0
  0
XRECORD
  5
21996
102
{ACAD_REACTORS
330
21995
102
}
330
21995
100
AcDbXrecord
280
     1
340
159AF
  0
DICTIONARYVAR
  5
2008C
102
{ACAD_REACTORS
330
2008B
102
}
330
2008B
100
DictionaryVariables
280
     0
  1
1
  0
DICTIONARYVAR
  5
2008D
102
{ACAD_REACTORS
330
2008B
102
}
330
2008B
100
DictionaryVariables
280
     0
  1

  0
DICTIONARY
  5
21998
330
159B3
100
AcDbDictionary
280
     1
281
     1
  3
ACAD_XREC_ROUNDTRIP
360
21999
  0
DICTIONARY
  5
2199A
330
159B4
100
AcDbDictionary
280
     1
281
     1
  3
ACAD_XREC_ROUNDTRIP
360
2199B
  0
XRECORD
  5
21999
102
{ACAD_REACTORS
330
21998
102
}
330
21998
100
AcDbXrecord
280
     1
102
SHADEPLOT
 70
     1
102
SHADEPLOTRESLEVEL
 70
     2
102
SHADEPLOTCUSTOMDPI
 70
   300
  0
XRECORD
  5
2199B
102
{ACAD_REACTORS
330
2199A
102
}
330
2199A
100
AcDbXrecord
280
     1
102
SHADEPLOT
 70
     0
102
SHADEPLOTRESLEVEL
 70
     2
102
SHADEPLOTCUSTOMDPI
 70
   300
  0
ENDSEC
  0
EOF
