  0
SECTION
  2
HEADER
  9
$ACADVER
  1
AC1015
  9
$ACADMAINTVER
 70
    20
  9
$DWGCODEPAGE
  3
ANSI_932
  9
$INSBASE
 10
0.0
 20
0.0
 30
0.0
  9
$EXTMIN
 10
139.196816621341
 20
-0.7994452057500894
 30
-0.0000000000000129
  9
$EXTMAX
 10
16308.32523385566
 20
11409.93818462356
 30
0.0000000000000023
  9
$LIMMIN
 10
0.0
 20
0.0
  9
$LIMMAX
 10
16800.0
 20
11880.0
  9
$ORTHOMODE
 70
     0
  9
$REGENMODE
 70
     1
  9
$FILLMODE
 70
     1
  9
$QTEXTMODE
 70
     0
  9
$MIRRTEXT
 70
     1
  9
$LTSCALE
 40
20.0
  9
$ATTMODE
 70
     1
  9
$TEXTSIZE
 40
4.0
  9
$TRACEWID
 40
1.0
  9
$TEXTSTYLE
  7
STYLE1
  9
$CLAYER
  8
寸法
  9
$CELTYPE
  6
BYLAYER
  9
$CECOLOR
 62
   256
  9
$CELTSCALE
 40
50.0
  9
$DISPSILH
 70
     0
  9
$DIMSCALE
 40
40.0
  9
$DIMASZ
 40
2.5
  9
$DIMEXO
 40
0.5
  9
$DIMDLI
 40
7.0
  9
$DIMRND
 40
0.0
  9
$DIMDLE
 40
0.0
  9
$DIMEXE
 40
1.5
  9
$DIMTP
 40
0.0
  9
$DIMTM
 40
0.0
  9
$DIMTXT
 40
3.0
  9
$DIMCEN
 40
0.0
  9
$DIMTSZ
 40
0.0
  9
$DIMTOL
 70
     0
  9
$DIMLIM
 70
     0
  9
$DIMTIH
 70
     0
  9
$DIMTOH
 70
     0
  9
$DIMSE1
 70
     0
  9
$DIMSE2
 70
     0
  9
$DIMTAD
 70
     3
  9
$DIMZIN
 70
     8
  9
$DIMBLK
  1

  9
$DIMASO
 70
     1
  9
$DIMSHO
 70
     1
  9
$DIMPOST
  1

  9
$DIMAPOST
  1

  9
$DIMALT
 70
     0
  9
$DIMALTD
 70
     2
  9
$DIMALTF
 40
0.0394
  9
$DIMLFAC
 40
1.0
  9
$DIMTOFL
 70
     1
  9
$DIMTVP
 40
0.0
  9
$DIMTIX
 70
     1
  9
$DIMSOXD
 70
     0
  9
$DIMSAH
 70
     1
  9
$DIMBLK1
  1
DOTSMALL
  9
$DIMBLK2
  1
DOTSMALL
  9
$DIMSTYLE
  2
INABA_S40G
  9
$DIMCLRD
 70
     0
  9
$DIMCLRE
 70
     0
  9
$DIMCLRT
 70
     7
  9
$DIMTFAC
 40
1.0
  9
$DIMGAP
 40
1.0
  9
$DIMJUST
 70
     0
  9
$DIMSD1
 70
     0
  9
$DIMSD2
 70
     0
  9
$DIMTOLJ
 70
     1
  9
$DIMTZIN
 70
     0
  9
$DIMALTZ
 70
     0
  9
$DIMALTTZ
 70
     0
  9
$DIMUPT
 70
     0
  9
$DIMDEC
 70
     1
  9
$DIMTDEC
 70
     4
  9
$DIMALTU
 70
     2
  9
$DIMALTTD
 70
     2
  9
$DIMTXSTY
  7
STYLE1
  9
$DIMAUNIT
 70
     0
  9
$DIMADEC
 70
     0
  9
$DIMALTRND
 40
0.0
  9
$DIMAZIN
 70
     0
  9
$DIMDSEP
 70
    46
  9
$DIMATFIT
 70
     3
  9
$DIMFRAC
 70
     0
  9
$DIMLDRBLK
  1
DOTSMALL
  9
$DIMLUNIT
 70
     2
  9
$DIMLWD
 70
    -2
  9
$DIMLWE
 70
    -2
  9
$DIMTMOVE
 70
     0
  9
$LUNITS
 70
     2
  9
$LUPREC
 70
     1
  9
$SKETCHINC
 40
1.0
  9
$FILLETRAD
 40
0.0
  9
$AUNITS
 70
     0
  9
$AUPREC
 70
     0
  9
$MENU
  1
acad
  9
$ELEVATION
 40
0.0
  9
$PELEVATION
 40
0.0
  9
$THICKNESS
 40
0.0
  9
$LIMCHECK
 70
     0
  9
$CHAMFERA
 40
0.0
  9
$CHAMFERB
 40
0.0
  9
$CHAMFERC
 40
0.0
  9
$CHAMFERD
 40
0.0
  9
$SKPOLY
 70
     0
  9
$TDCREATE
 40
2451368.612993866
  9
$TDUCREATE
 40
2451368.237993866
  9
$TDUPDATE
 40
2457078.417772708
  9
$TDUUPDATE
 40
2457078.042772709
  9
$TDINDWG
 40
0.8098245255
  9
$TDUSRTIMER
 40
0.8098245255
  9
$USRTIMER
 70
     1
  9
$ANGBASE
 50
0.0
  9
$ANGDIR
 70
     0
  9
$PDMODE
 70
     3
  9
$PDSIZE
 40
2.0
  9
$PLINEWID
 40
0.0
  9
$SPLFRAME
 70
     0
  9
$SPLINETYPE
 70
     6
  9
$SPLINESEGS
 70
     8
  9
$HANDSEED
  5
24589
  9
$SURFTAB1
 70
     6
  9
$SURFTAB2
 70
     6
  9
$SURFTYPE
 70
     6
  9
$SURFU
 70
     6
  9
$SURFV
 70
     6
  9
$UCSBASE
  2

  9
$UCSNAME
  2

  9
$UCSORG
 10
0.0
 20
0.0
 30
0.0
  9
$UCSXDIR
 10
1.0
 20
0.0
 30
0.0
  9
$UCSYDIR
 10
0.0
 20
1.0
 30
0.0
  9
$UCSORTHOREF
  2

  9
$UCSORTHOVIEW
 70
     0
  9
$UCSORGTOP
 10
0.0
 20
0.0
 30
0.0
  9
$UCSORGBOTTOM
 10
0.0
 20
0.0
 30
0.0
  9
$UCSORGLEFT
 10
0.0
 20
0.0
 30
0.0
  9
$UCSORGRIGHT
 10
0.0
 20
0.0
 30
0.0
  9
$UCSORGFRONT
 10
0.0
 20
0.0
 30
0.0
  9
$UCSORGBACK
 10
0.0
 20
0.0
 30
0.0
  9
$PUCSBASE
  2

  9
$PUCSNAME
  2

  9
$PUCSORG
 10
0.0
 20
0.0
 30
0.0
  9
$PUCSXDIR
 10
1.0
 20
0.0
 30
0.0
  9
$PUCSYDIR
 10
0.0
 20
1.0
 30
0.0
  9
$PUCSORTHOREF
  2

  9
$PUCSORTHOVIEW
 70
     0
  9
$PUCSORGTOP
 10
0.0
 20
0.0
 30
0.0
  9
$PUCSORGBOTTOM
 10
0.0
 20
0.0
 30
0.0
  9
$PUCSORGLEFT
 10
0.0
 20
0.0
 30
0.0
  9
$PUCSORGRIGHT
 10
0.0
 20
0.0
 30
0.0
  9
$PUCSORGFRONT
 10
0.0
 20
0.0
 30
0.0
  9
$PUCSORGBACK
 10
0.0
 20
0.0
 30
0.0
  9
$USERI1
 70
     0
  9
$USERI2
 70
     0
  9
$USERI3
 70
     0
  9
$USERI4
 70
     0
  9
$USERI5
 70
     0
  9
$USERR1
 40
0.0
  9
$USERR2
 40
0.0
  9
$USERR3
 40
0.0
  9
$USERR4
 40
0.0
  9
$USERR5
 40
0.0
  9
$WORLDVIEW
 70
     1
  9
$SHADEDGE
 70
     3
  9
$SHADEDIF
 70
    70
  9
$TILEMODE
 70
     1
  9
$MAXACTVP
 70
    16
  9
$PINSBASE
 10
0.0
 20
0.0
 30
0.0
  9
$PLIMCHECK
 70
     0
  9
$PEXTMIN
 10
1.000000000000000E+20
 20
1.000000000000000E+20
 30
1.000000000000000E+20
  9
$PEXTMAX
 10
-1.000000000000000E+20
 20
-1.000000000000000E+20
 30
-1.000000000000000E+20
  9
$PLIMMIN
 10
0.0
 20
0.0
  9
$PLIMMAX
 10
420.0
 20
297.0
  9
$UNITMODE
 70
     0
  9
$VISRETAIN
 70
     0
  9
$PLINEGEN
 70
     0
  9
$PSLTSCALE
 70
     0
  9
$TREEDEPTH
 70
  3020
  9
$CMLSTYLE
  2
STANDARD
  9
$CMLJUST
 70
     0
  9
$CMLSCALE
 40
1.0
  9
$PROXYGRAPHICS
 70
     1
  9
$MEASUREMENT
 70
     1
  9
$CELWEIGHT
370
    -1
  9
$ENDCAPS
280
     0
  9
$JOINSTYLE
280
     0
  9
$LWDISPLAY
290
     0
  9
$INSUNITS
 70
     0
  9
$HYPERLINKBASE
  1

  9
$STYLESHEET
  1
inaba.ctb
  9
$XEDIT
290
     1
  9
$CEPSNTYPE
380
     0
  9
$PSTYLEMODE
290
     1
  9
$FINGERPRINTGUID
  2
{5EAC461A-2277-4BF8-9AB0-99C43BB394F0}
  9
$VERSIONGUID
  2
{05FB4770-F653-4822-B9FB-5C1E434C8378}
  9
$EXTNAMES
290
     1
  9
$PSVPSCALE
 40
0.0
  9
$OLESTARTUP
290
     0
  0
ENDSEC
  0
SECTION
  2
CLASSES
  0
CLASS
  1
ACDBDICTIONARYWDFLT
  2
AcDbDictionaryWithDefault
  3
ObjectDBX Classes
 90
        0
280
     0
281
     0
  0
CLASS
  1
MATERIAL
  2
AcDbMaterial
  3
ObjectDBX Classes
 90
     1153
280
     0
281
     0
  0
CLASS
  1
VISUALSTYLE
  2
AcDbVisualStyle
  3
ObjectDBX Classes
 90
     4095
280
     0
281
     0
  0
CLASS
  1
TABLESTYLE
  2
AcDbTableStyle
  3
ObjectDBX Classes
 90
     4095
280
     0
281
     0
  0
CLASS
  1
SCALE
  2
AcDbScale
  3
ObjectDBX Classes
 90
     1153
280
     0
281
     0
  0
CLASS
  1
MLEADERSTYLE
  2
AcDbMLeaderStyle
  3
ACDB_MLEADERSTYLE_CLASS
 90
     4095
280
     0
281
     0
  0
CLASS
  1
ACDBSECTIONVIEWSTYLE
  2
AcDbSectionViewStyle
  3
ObjectDBX Classes
 90
     1025
280
     0
281
     0
  0
CLASS
  1
ACDBDETAILVIEWSTYLE
  2
AcDbDetailViewStyle
  3
ObjectDBX Classes
 90
     1025
280
     0
281
     0
  0
CLASS
  1
DICTIONARYVAR
  2
AcDbDictionaryVar
  3
ObjectDBX Classes
 90
        0
280
     0
281
     0
  0
CLASS
  1
CELLSTYLEMAP
  2
AcDbCellStyleMap
  3
ObjectDBX Classes
 90
     1152
280
     0
281
     0
  0
CLASS
  1
ACDBPLACEHOLDER
  2
AcDbPlaceHolder
  3
ObjectDBX Classes
 90
        0
280
     0
281
     0
  0
CLASS
  1
LAYOUT
  2
AcDbLayout
  3
ObjectDBX Classes
 90
        0
280
     0
281
     0
  0
ENDSEC
  0
SECTION
  2
TABLES
  0
TABLE
  2
VPORT
  5
746D
330
0
100
AcDbSymbolTable
 70
     1
  0
VPORT
  5
240C2
330
746D
100
AcDbSymbolTableRecord
100
AcDbViewportTableRecord
  2
*Active
 70
     0
 10
0.0
 20
0.0
 11
1.0
 21
1.0
 12
8223.761025238502
 22
5704.757808767279
 13
0.0
 23
0.0
 14
10.0
 24
10.0
 15
10.0
 25
10.0
 16
0.0
 26
0.0
 36
1.0
 17
0.0
 27
0.0
 37
0.0
 40
11508.60921498932
 41
1.663434903047091
 42
50.0
 43
0.0
 44
0.0
 50
0.0
 51
0.0
 71
     0
 72
     0
 73
     1
 74
     0
 75
     0
 76
     0
 77
     0
 78
     0
281
     0
 65
     1
110
0.0
120
0.0
130
0.0
111
1.0
121
0.0
131
0.0
112
0.0
122
1.0
132
0.0
 79
     0
146
0.0
1001
ACAD_NAV_VCDISPLAY
1070
     3
  0
ENDTAB
  0
TABLE
  2
LTYPE
  5
746A
330
0
100
AcDbSymbolTable
 70
     3
  0
LTYPE
  5
7477
330
746A
100
AcDbSymbolTableRecord
100
AcDbLinetypeTableRecord
  2
BYBLOCK
 70
     0
  3

 72
    65
 73
     0
 40
0.0
  0
LTYPE
  5
7478
330
746A
100
AcDbSymbolTableRecord
100
AcDbLinetypeTableRecord
  2
BYLAYER
 70
     0
  3

 72
    65
 73
     0
 40
0.0
  0
LTYPE
  5
7479
330
746A
100
AcDbSymbolTableRecord
100
AcDbLinetypeTableRecord
  2
CONTINUOUS
 70
     0
  3
Solid line
 72
    65
 73
     0
 40
0.0
  0
LTYPE
  5
7816
330
746A
100
AcDbSymbolTableRecord
100
AcDbLinetypeTableRecord
  2
CENTER
 70
     0
  3
____ _ ____ _ ____ _ ____ _ ____ _ ____ _ ____ 
 72
    65
 73
     4
 40
2.0
 49
1.25
 74
     0
 49
-0.25
 74
     0
 49
0.25
 74
     0
 49
-0.25
 74
     0
  0
LTYPE
  5
781B
330
746A
100
AcDbSymbolTableRecord
100
AcDbLinetypeTableRecord
  2
PHANTOM
 70
     0
  3
______  __  __  ______  __  __  ______  __  __ 
 72
    65
 73
     6
 40
2.5
 49
1.25
 74
     0
 49
-0.25
 74
     0
 49
0.25
 74
     0
 49
-0.25
 74
     0
 49
0.25
 74
     0
 49
-0.25
 74
     0
  0
ENDTAB
  0
TABLE
  2
LAYER
  5
7467
102
{ACAD_XDICTIONARY
360
1758F
102
}
330
0
100
AcDbSymbolTable
 70
    10
  0
LAYER
  5
7474
102
{ACAD_XDICTIONARY
360
24119
102
}
330
7467
100
AcDbSymbolTableRecord
100
AcDbLayerTableRecord
  2
0
 70
     0
 62
     7
  6
CONTINUOUS
370
    -3
390
173D0
  0
LAYER
  5
DEB2
102
{ACAD_XDICTIONARY
360
2411B
102
}
330
7467
100
AcDbSymbolTableRecord
100
AcDbLayerTableRecord
  2
センター
 70
     0
 62
     3
  6
CENTER
370
    -3
390
173D0
  0
LAYER
  5
DEB3
102
{ACAD_XDICTIONARY
360
2411D
102
}
330
7467
100
AcDbSymbolTableRecord
100
AcDbLayerTableRecord
  2
寸法
 70
     0
 62
     4
  6
CONTINUOUS
370
    -3
390
173D0
  0
LAYER
  5
DEB4
102
{ACAD_XDICTIONARY
360
2411F
102
}
330
7467
100
AcDbSymbolTableRecord
100
AcDbLayerTableRecord
  2
部品1
 70
     0
 62
     7
  6
CONTINUOUS
370
    -3
390
173D0
  0
LAYER
  5
DEB5
102
{ACAD_XDICTIONARY
360
24121
102
}
330
7467
100
AcDbSymbolTableRecord
100
AcDbLayerTableRecord
  2
補助
 70
     0
 62
    -1
  6
CONTINUOUS
370
    -3
390
173D0
  0
LAYER
  5
DEB6
102
{ACAD_XDICTIONARY
360
24123
102
}
330
7467
100
AcDbSymbolTableRecord
100
AcDbLayerTableRecord
  2
文字
 70
     0
 62
     7
  6
CONTINUOUS
370
    -3
390
173D0
  0
LAYER
  5
F255
330
7467
100
AcDbSymbolTableRecord
100
AcDbLayerTableRecord
  2
DEFPOINTS
 70
     0
 62
     7
  6
CONTINUOUS
290
     0
370
    -3
390
173D0
  0
LAYER
  5
10B54
102
{ACAD_XDICTIONARY
360
24125
102
}
330
7467
100
AcDbSymbolTableRecord
100
AcDbLayerTableRecord
  2
仕様書枠
 70
     0
 62
   230
  6
CONTINUOUS
370
    -3
390
173D0
  0
LAYER
  5
1173F
102
{ACAD_XDICTIONARY
360
24127
102
}
330
7467
100
AcDbSymbolTableRecord
100
AcDbLayerTableRecord
  2
細線
 70
     0
 62
     5
  6
CONTINUOUS
370
    -3
390
173D0
  0
LAYER
  5
12CC4
102
{ACAD_XDICTIONARY
360
24129
102
}
330
7467
100
AcDbSymbolTableRecord
100
AcDbLayerTableRecord
  2
想像線
 70
     0
 62
     6
  6
PHANTOM
370
    -3
390
173D0
  0
ENDTAB
  0
TABLE
  2
STYLE
  5
7468
330
0
100
AcDbSymbolTable
 70
     6
  0
STYLE
  5
7475
330
7468
100
AcDbSymbolTableRecord
100
AcDbTextStyleTableRecord
  2
STANDARD
 70
     0
 40
0.0
 41
1.0
 50
0.0
 71
     0
 42
4.0
  3
txt
  4
C:\AutoCAD LT\bigfont.shx
  0
STYLE
  5
763C
330
7468
100
AcDbSymbolTableRecord
100
AcDbTextStyleTableRecord
  2
MSMINCHO
 70
     0
 40
0.0
 41
1.0
 50
0.0
 71
     0
 42
1.199999999999999
  3
C:\AutoCAD LT\msminch2.TTF
  4

  0
STYLE
  5
F706
330
7468
100
AcDbSymbolTableRecord
100
AcDbTextStyleTableRecord
  2
STYLE1
 70
     0
 40
0.0
 41
1.0
 50
0.0
 71
     0
 42
4.0
  3
isocp.shx
  4
bigfont.shx
  0
STYLE
  5
103BF
330
7468
100
AcDbSymbolTableRecord
100
AcDbTextStyleTableRecord
  2
STYLE2
 70
     0
 40
0.0
 41
1.0
 50
0.0
 71
     0
 42
100.0
  3
MS PGothic.ttf
  4

1001
ACAD
1000
MS PGothic
1071
    32818
  0
ENDTAB
  0
TABLE
  2
VIEW
  5
746B
330
0
100
AcDbSymbolTable
 70
     0
  0
ENDTAB
  0
TABLE
  2
UCS
  5
746C
330
0
100
AcDbSymbolTable
 70
     0
  0
ENDTAB
  0
TABLE
  2
APPID
  5
746E
330
0
100
AcDbSymbolTable
 70
     8
  0
APPID
  5
7476
330
746E
100
AcDbSymbolTableRecord
100
AcDbRegAppTableRecord
  2
ACAD
 70
     0
  0
APPID
  5
DEA9
330
746E
100
AcDbSymbolTableRecord
100
AcDbRegAppTableRecord
  2
CONTENTBLOCKICON
 70
     0
  0
APPID
  5
DEAA
330
746E
100
AcDbSymbolTableRecord
100
AcDbRegAppTableRecord
  2
CONTENTBLOCKDESCRIPTION
 70
     0
  0
APPID
  5
E71D
330
746E
100
AcDbSymbolTableRecord
100
AcDbRegAppTableRecord
  2
CONTENTTABDATA
 70
     0
  0
APPID
  5
E71E
330
746E
100
AcDbSymbolTableRecord
100
AcDbRegAppTableRecord
  2
CONTENTCURRENTTAB
 70
     0
  0
APPID
  5
F3BA
330
746E
100
AcDbSymbolTableRecord
100
AcDbRegAppTableRecord
  2
DRAWINGVARIABLESXDATA
 70
     0
  0
APPID
  5
2413A
330
746E
100
AcDbSymbolTableRecord
100
AcDbRegAppTableRecord
  2
ACAD_NAV_VCDISPLAY
 70
     0
  0
APPID
  5
24584
330
746E
100
AcDbSymbolTableRecord
100
AcDbRegAppTableRecord
  2
ACAD_MLEADERVER
 70
     0
  0
ENDTAB
  0
TABLE
  2
DIMSTYLE
  5
746F
330
0
100
AcDbSymbolTable
 70
     3
100
AcDbDimStyleTable
 71
     1
340
F71F
  0
DIMSTYLE
105
F71F
102
{ACAD_REACTORS
330
23E16
330
23D68
330
23D1B
330
23CFE
330
23CFD
330
23CFA
330
23CF4
330
23CEF
330
23CEE
330
23CEC
330
23CEA
330
23CE3
330
20E3A
330
20E15
330
20DFB
330
20DE1
330
20751
330
206E3
330
1F5A6
330
1F5A4
330
1F594
330
1F593
330
1F592
330
1F50C
330
1F4EE
330
1F4ED
330
1F4EC
330
1F4E6
330
1F4E5
330
1F4E3
330
1F2B9
330
1F252
330
1F251
330
1F250
330
1F248
330
1F247
330
1F245
330
1F244
330
1D333
330
1D2D6
330
1AC2C
330
1AC27
330
23CF8
330
23D09
330
23D53
330
23D21
330
23CFC
330
23D00
330
23CF7
102
}
330
746F
100
AcDbSymbolTableRecord
100
AcDbDimStyleTableRecord
  2
INABA_S40G
 70
     0
 40
40.0
 41
2.5
 42
0.5
 43
7.0
 44
1.5
 73
     0
 74
     0
 77
     3
 78
     8
140
3.0
141
0.0
143
0.0394
147
1.0
172
     1
173
     1
174
     1
178
     7
271
     1
340
F706
341
F770
343
F770
344
F770
  0
ENDTAB
  0
TABLE
  2
BLOCK_RECORD
  5
7466
330
0
100
AcDbSymbolTable
 70
    36
  0
BLOCK_RECORD
  5
747D
330
7466
100
AcDbSymbolTableRecord
100
AcDbBlockTableRecord
  2
*MODEL_SPACE
340
173D5
  0
BLOCK_RECORD
  5
747A
330
7466
100
AcDbSymbolTableRecord
100
AcDbBlockTableRecord
  2
*PAPER_SPACE
340
173D6
  0
BLOCK_RECORD
  5
F770
330
7466
100
AcDbSymbolTableRecord
100
AcDbBlockTableRecord
  2
_DOTSMALL
340
0
102
{BLKREFS
331
23F0E
331
23F0F
331
23F19
331
23F1A
331
23F24
331
23F25
331
23F2F
331
23F30
331
23F38
331
23F39
331
23F41
331
23F42
331
23F4B
331
23F4C
331
23F55
331
23F56
331
23F5E
331
23F5F
331
23F67
331
23F68
331
23F71
331
23F72
331
23F7A
331
23F7B
331
23F84
331
23F85
331
23F8E
331
23F8F
331
23F98
331
23F99
331
23FA2
331
23FA3
331
23FAB
331
23FAC
331
23FB4
331
23FB5
331
23FBE
331
23FBF
331
23FD0
331
23FD1
331
23FD9
331
23FDA
331
23FE4
331
23FE5
331
23FED
331
23FEE
331
23FF6
331
23FF7
331
24000
331
24001
331
2400A
331
2400B
331
244A7
331
244A8
331
244B2
331
244B3
331
244BB
331
244BC
331
244C4
331
244C5
331
244CD
331
244CE
331
244D6
331
244D7
102
}
  0
BLOCK_RECORD
  5
1F5AA
330
7466
100
AcDbSymbolTableRecord
100
AcDbBlockTableRecord
  2
*D1
340
0
  0
BLOCK_RECORD
  5
1F5B7
330
7466
100
AcDbSymbolTableRecord
100
AcDbBlockTableRecord
  2
*D2
340
0
  0
BLOCK_RECORD
  5
1F5D0
330
7466
100
AcDbSymbolTableRecord
100
AcDbBlockTableRecord
  2
*D3
340
0
  0
BLOCK_RECORD
  5
1F5DB
330
7466
100
AcDbSymbolTableRecord
100
AcDbBlockTableRecord
  2
*D4
340
0
  0
BLOCK_RECORD
  5
1F5E6
330
7466
100
AcDbSymbolTableRecord
100
AcDbBlockTableRecord
  2
*D5
340
0
  0
BLOCK_RECORD
  5
1F5F0
330
7466
100
AcDbSymbolTableRecord
100
AcDbBlockTableRecord
  2
*D6
340
0
  0
BLOCK_RECORD
  5
1F5FC
330
7466
100
AcDbSymbolTableRecord
100
AcDbBlockTableRecord
  2
*D7
340
0
  0
BLOCK_RECORD
  5
1F640
330
7466
100
AcDbSymbolTableRecord
100
AcDbBlockTableRecord
  2
*D8
340
0
  0
BLOCK_RECORD
  5
1F664
330
7466
100
AcDbSymbolTableRecord
100
AcDbBlockTableRecord
  2
*D9
340
0
  0
BLOCK_RECORD
  5
1F670
330
7466
100
AcDbSymbolTableRecord
100
AcDbBlockTableRecord
  2
*D10
340
0
  0
BLOCK_RECORD
  5
1F67B
330
7466
100
AcDbSymbolTableRecord
100
AcDbBlockTableRecord
  2
*D11
340
0
  0
BLOCK_RECORD
  5
1F688
330
7466
100
AcDbSymbolTableRecord
100
AcDbBlockTableRecord
  2
*D12
340
0
  0
BLOCK_RECORD
  5
1F695
330
7466
100
AcDbSymbolTableRecord
100
AcDbBlockTableRecord
  2
*D13
340
0
  0
BLOCK_RECORD
  5
1F6A2
330
7466
100
AcDbSymbolTableRecord
100
AcDbBlockTableRecord
  2
*D14
340
0
  0
BLOCK_RECORD
  5
1F6BB
330
7466
100
AcDbSymbolTableRecord
100
AcDbBlockTableRecord
  2
*D15
340
0
  0
BLOCK_RECORD
  5
1F6ED
330
7466
100
AcDbSymbolTableRecord
100
AcDbBlockTableRecord
  2
*D16
340
0
  0
BLOCK_RECORD
  5
1F6FA
330
7466
100
AcDbSymbolTableRecord
100
AcDbBlockTableRecord
  2
*D17
340
0
  0
BLOCK_RECORD
  5
1F706
330
7466
100
AcDbSymbolTableRecord
100
AcDbBlockTableRecord
  2
*D18
340
0
  0
BLOCK_RECORD
  5
1F711
330
7466
100
AcDbSymbolTableRecord
100
AcDbBlockTableRecord
  2
*D19
340
0
  0
BLOCK_RECORD
  5
1F71E
330
7466
100
AcDbSymbolTableRecord
100
AcDbBlockTableRecord
  2
*D20
340
0
  0
BLOCK_RECORD
  5
206E4
330
7466
100
AcDbSymbolTableRecord
100
AcDbBlockTableRecord
  2
*D21
340
0
  0
BLOCK_RECORD
  5
20752
330
7466
100
AcDbSymbolTableRecord
100
AcDbBlockTableRecord
  2
*D22
340
0
  0
BLOCK_RECORD
  5
20DE2
330
7466
100
AcDbSymbolTableRecord
100
AcDbBlockTableRecord
  2
*D23
340
0
  0
BLOCK_RECORD
  5
20DFC
330
7466
100
AcDbSymbolTableRecord
100
AcDbBlockTableRecord
  2
*D24
340
0
  0
BLOCK_RECORD
  5
20E16
330
7466
100
AcDbSymbolTableRecord
100
AcDbBlockTableRecord
  2
*D25
340
0
  0
BLOCK_RECORD
  5
20E3B
330
7466
100
AcDbSymbolTableRecord
100
AcDbBlockTableRecord
  2
*D26
340
0
  0
BLOCK_RECORD
  5
23E19
330
7466
100
AcDbSymbolTableRecord
100
AcDbBlockTableRecord
  2
*D27
340
0
  0
BLOCK_RECORD
  5
23E24
330
7466
100
AcDbSymbolTableRecord
100
AcDbBlockTableRecord
  2
*D28
340
0
  0
BLOCK_RECORD
  5
23E32
330
7466
100
AcDbSymbolTableRecord
100
AcDbBlockTableRecord
  2
*D29
340
0
  0
BLOCK_RECORD
  5
23E3E
330
7466
100
AcDbSymbolTableRecord
100
AcDbBlockTableRecord
  2
*D30
340
0
  0
BLOCK_RECORD
  5
23E4A
330
7466
100
AcDbSymbolTableRecord
100
AcDbBlockTableRecord
  2
*D31
340
0
  0
BLOCK_RECORD
  5
23E56
330
7466
100
AcDbSymbolTableRecord
100
AcDbBlockTableRecord
  2
*D32
340
0
  0
BLOCK_RECORD
  5
2404D
330
7466
100
AcDbSymbolTableRecord
100
AcDbBlockTableRecord
  2
A$C0A512185
340
0
  0
ENDTAB
  0
ENDSEC
  0
SECTION
  2
BLOCKS
  0
BLOCK
  5
7489
330
747D
100
AcDbEntity
  8
0
100
AcDbBlockBegin
  2
*MODEL_SPACE
 70
     0
 10
0.0
 20
0.0
 30
0.0
  3
*MODEL_SPACE
  1

  0
ENDBLK
  5
748A
330
747D
100
AcDbEntity
  8
0
100
AcDbBlockEnd
  0
BLOCK
  5
7487
330
747A
100
AcDbEntity
 67
     1
  8
0
100
AcDbBlockBegin
  2
*PAPER_SPACE
 70
     0
 10
0.0
 20
0.0
 30
0.0
  3
*PAPER_SPACE
  1

  0
ENDBLK
  5
7488
330
747A
100
AcDbEntity
 67
     1
  8
0
100
AcDbBlockEnd
  0
BLOCK
  5
F771
330
F770
100
AcDbEntity
  8
0
 48
50.0
100
AcDbBlockBegin
  2
_DOTSMALL
 70
     0
 10
0.0
 20
0.0
 30
0.0
  3
_DOTSMALL
  1

  0
LWPOLYLINE
  5
F772
330
F770
100
AcDbEntity
  8
0
  6
ByBlock
 62
     0
 48
50.0
100
AcDbPolyline
 90
        2
 70
     1
 43
0.5
 10
-0.0625
 20
0.0
 42
1.0
 10
0.0625
 20
0.0
 42
1.0
  0
ENDBLK
  5
F776
330
F770
100
AcDbEntity
  8
0
 48
50.0
100
AcDbBlockEnd
  0
BLOCK
  5
1F5B5
330
1F5AA
100
AcDbEntity
  8
0
 48
50.0
100
AcDbBlockBegin
  2
*D1
 70
     1
 10
0.0
 20
0.0
 30
0.0
  3
*D1
  1

  0
LINE
  5
24006
330
1F5AA
100
AcDbEntity
  8
寸法
 62
     0
 48
50.0
370
    -2
100
AcDbLine
 10
8327.419180988156
 20
6263.211798685425
 30
0.0
 11
8730.144386142111
 21
6263.211798685425
 31
0.0
  0
LINE
  5
24007
330
1F5AA
100
AcDbEntity
  8
寸法
 62
     0
 48
50.0
370
    -2
100
AcDbLine
 10
8660.567870053116
 20
6383.211798685408
 30
0.0
 11
8610.14438614211
 21
6383.211798685408
 31
0.0
  0
LINE
  5
24008
330
1F5AA
100
AcDbEntity
  8
寸法
 62
     0
 48
50.0
370
    -2
100
AcDbLine
 10
8670.14438614211
 20
6383.211798685408
 30
0.0
 11
8670.14438614211
 21
6263.211798685425
 31
0.0
  0
LINE
  5
24009
330
1F5AA
100
AcDbEntity
  8
寸法
 62
     0
 48
50.0
370
    -2
100
AcDbLine
 10
8670.14438614211
 20
6263.211798685425
 30
0.0
 11
8670.14438614211
 21
5790.876249622968
 31
0.0
  0
INSERT
  5
2400A
330
1F5AA
100
AcDbEntity
  8
寸法
 62
     0
 48
50.0
370
    -2
100
AcDbBlockReference
  2
_DOTSMALL
 10
8670.14438614211
 20
6383.211798685408
 30
0.0
 41
100.0
 42
100.0
 43
100.0
 50
90.0
  0
INSERT
  5
2400B
330
1F5AA
100
AcDbEntity
  8
寸法
 62
     0
 48
50.0
370
    -2
100
AcDbBlockReference
  2
_DOTSMALL
 10
8670.14438614211
 20
6263.211798685425
 30
0.0
 41
100.0
 42
100.0
 43
100.0
 50
270.0
  0
MTEXT
  5
2400C
330
1F5AA
100
AcDbEntity
  8
寸法
 62
     7
 48
50.0
100
AcDbMText
 10
8570.132575118487
 20
5926.923493717457
 30
0.0
 40
120.0
 41
0.0
 71
     5
 72
     1
  1
\A1;120
  7
STYLE1
 11
0.0000000000000001
 21
1.0
 31
0.0
 73
     1
 44
1.0
1001
ACAD
1000
MTEXTBEGIN
1070
    73
1070
     1
1070
    44
1040
1.0
1070
    74
1070
     0
1000
MTEXTEND
  0
POINT
  5
2400D
330
1F5AA
100
AcDbEntity
  8
DEFPOINTS
 62
     0
 48
50.0
100
AcDbPoint
 10
8307.419180988159
 20
6263.211798685425
 30
0.0
  0
POINT
  5
2400E
330
1F5AA
100
AcDbEntity
  8
DEFPOINTS
 62
     0
 48
50.0
100
AcDbPoint
 10
8680.567870053115
 20
6383.211798685408
 30
0.0
  0
POINT
  5
2400F
330
1F5AA
100
AcDbEntity
  8
DEFPOINTS
 62
     0
 48
50.0
100
AcDbPoint
 10
8670.14438614211
 20
6383.211798685408
 30
0.0
  0
ENDBLK
  5
1F5B6
330
1F5AA
100
AcDbEntity
  8
0
 48
50.0
100
AcDbBlockEnd
  0
BLOCK
  5
1F5C2
330
1F5B7
100
AcDbEntity
  8
0
 48
50.0
100
AcDbBlockBegin
  2
*D2
 70
     1
 10
0.0
 20
0.0
 30
0.0
  3
*D2
  1

  0
LINE
  5
23FFC
330
1F5B7
100
AcDbEntity
  8
寸法
 62
     0
 48
50.0
370
    -2
100
AcDbLine
 10
8762.599867447319
 20
6383.211798685408
 30
0.0
 11
8610.14438614211
 21
6383.211798685408
 31
0.0
  0
LINE
  5
23FFD
330
1F5B7
100
AcDbEntity
  8
寸法
 62
     0
 48
50.0
370
    -2
100
AcDbLine
 10
8255.600000000001
 20
6493.211798685415
 30
0.0
 11
8730.144386142111
 21
6493.211798685415
 31
0.0
  0
LINE
  5
23FFE
330
1F5B7
100
AcDbEntity
  8
寸法
 62
     0
 48
50.0
370
    -2
100
AcDbLine
 10
8670.14438614211
 20
6383.211798685408
 30
0.0
 11
8670.14438614211
 21
6493.211798685415
 31
0.0
  0
LINE
  5
23FFF
330
1F5B7
100
AcDbEntity
  8
寸法
 62
     0
 48
50.0
370
    -2
100
AcDbLine
 10
8670.14438614211
 20
6493.211798685415
 30
0.0
 11
8670.14438614211
 21
6887.318097898027
 31
0.0
  0
INSERT
  5
24000
330
1F5B7
100
AcDbEntity
  8
寸法
 62
     0
 48
50.0
370
    -2
100
AcDbBlockReference
  2
_DOTSMALL
 10
8670.14438614211
 20
6383.211798685408
 30
0.0
 41
100.0
 42
100.0
 43
100.0
 50
270.0
  0
INSERT
  5
24001
330
1F5B7
100
AcDbEntity
  8
寸法
 62
     0
 48
50.0
370
    -2
100
AcDbBlockReference
  2
_DOTSMALL
 10
8670.14438614211
 20
6493.211798685415
 30
0.0
 41
100.0
 42
100.0
 43
100.0
 50
90.0
  0
MTEXT
  5
24002
330
1F5B7
100
AcDbEntity
  8
寸法
 62
     7
 48
50.0
100
AcDbMText
 10
8570.144386142109
 20
6763.27085380354
 30
0.0
 40
120.0
 41
0.0
 71
     5
 72
     1
  1
\A1;110
  7
STYLE1
 11
0.0000000000000001
 21
1.0
 31
0.0
 73
     1
 44
1.0
1001
ACAD
1000
MTEXTBEGIN
1070
    73
1070
     1
1070
    44
1040
1.0
1070
    74
1070
     0
1000
MTEXTEND
  0
POINT
  5
24003
330
1F5B7
100
AcDbEntity
  8
DEFPOINTS
 62
     0
 48
50.0
100
AcDbPoint
 10
8782.599867447318
 20
6383.211798685408
 30
0.0
  0
POINT
  5
24004
330
1F5B7
100
AcDbEntity
  8
DEFPOINTS
 62
     0
 48
50.0
100
AcDbPoint
 10
8235.600000000001
 20
6493.211798685415
 30
0.0
  0
POINT
  5
24005
330
1F5B7
100
AcDbEntity
  8
DEFPOINTS
 62
     0
 48
50.0
100
AcDbPoint
 10
8670.14438614211
 20
6493.211798685415
 30
0.0
  0
ENDBLK
  5
1F5C3
330
1F5B7
100
AcDbEntity
  8
0
 48
50.0
100
AcDbBlockEnd
  0
BLOCK
  5
1F5D9
330
1F5D0
100
AcDbEntity
  8
0
 48
50.0
100
AcDbBlockBegin
  2
*D3
 70
     1
 10
0.0
 20
0.0
 30
0.0
  3
*D3
  1

  0
LINE
  5
23FF3
330
1F5D0
100
AcDbEntity
  8
寸法
 62
     0
 48
50.0
370
    -2
100
AcDbLine
 10
9895.600000000001
 20
8010.211798685396
 30
0.0
 11
9895.600000000001
 21
8868.971425227481
 31
0.0
  0
LINE
  5
23FF4
330
1F5D0
100
AcDbEntity
  8
寸法
 62
     0
 48
50.0
370
    -2
100
AcDbLine
 10
8105.6
 20
8010.211798685396
 30
0.0
 11
8105.6
 21
8868.971425227481
 31
0.0
  0
LINE
  5
23FF5
330
1F5D0
100
AcDbEntity
  8
寸法
 62
     0
 48
50.0
370
    -2
100
AcDbLine
 10
9895.600000000001
 20
8808.971425227481
 30
0.0
 11
8105.6
 21
8808.971425227481
 31
0.0
  0
INSERT
  5
23FF6
330
1F5D0
100
AcDbEntity
  8
寸法
 62
     0
 48
50.0
370
    -2
100
AcDbBlockReference
  2
_DOTSMALL
 10
9895.600000000001
 20
8808.971425227481
 30
0.0
 41
100.0
 42
100.0
 43
100.0
  0
INSERT
  5
23FF7
330
1F5D0
100
AcDbEntity
  8
寸法
 62
     0
 48
50.0
370
    -2
100
AcDbBlockReference
  2
_DOTSMALL
 10
8105.6
 20
8808.971425227481
 30
0.0
 41
100.0
 42
100.0
 43
100.0
 50
180.0
  0
MTEXT
  5
23FF8
330
1F5D0
100
AcDbEntity
  8
寸法
 62
     7
 48
50.0
100
AcDbMText
 10
9000.6
 20
8908.97142522748
 30
0.0
 40
120.0
 41
0.0
 71
     5
 72
     1
  1
\A1;1790
  7
STYLE1
 73
     1
 44
1.0
1001
ACAD
1000
MTEXTBEGIN
1070
    73
1070
     1
1070
    44
1040
1.0
1070
    74
1070
     0
1000
MTEXTEND
  0
POINT
  5
23FF9
330
1F5D0
100
AcDbEntity
  8
DEFPOINTS
 62
     0
 48
50.0
100
AcDbPoint
 10
9895.600000000001
 20
7990.211798685398
 30
0.0
  0
POINT
  5
23FFA
330
1F5D0
100
AcDbEntity
  8
DEFPOINTS
 62
     0
 48
50.0
100
AcDbPoint
 10
8105.6
 20
7990.211798685398
 30
0.0
  0
POINT
  5
23FFB
330
1F5D0
100
AcDbEntity
  8
DEFPOINTS
 62
     0
 48
50.0
100
AcDbPoint
 10
8105.6
 20
8808.971425227481
 30
0.0
  0
ENDBLK
  5
1F5DA
330
1F5D0
100
AcDbEntity
  8
0
 48
50.0
100
AcDbBlockEnd
  0
BLOCK
  5
1F5E4
330
1F5DB
100
AcDbEntity
  8
0
 48
50.0
100
AcDbBlockBegin
  2
*D4
 70
     1
 10
0.0
 20
0.0
 30
0.0
  3
*D4
  1

  0
LINE
  5
23FEA
330
1F5DB
100
AcDbEntity
  8
寸法
 62
     0
 48
50.0
370
    -2
100
AcDbLine
 10
6428.6
 20
8083.211798685397
 30
0.0
 11
6428.6
 21
9081.432120744317
 31
0.0
  0
LINE
  5
23FEB
330
1F5DB
100
AcDbEntity
  8
寸法
 62
     0
 48
50.0
370
    -2
100
AcDbLine
 10
10018.6
 20
8083.211798685397
 30
0.0
 11
10018.6
 21
9081.432120744317
 31
0.0
  0
LINE
  5
23FEC
330
1F5DB
100
AcDbEntity
  8
寸法
 62
     0
 48
50.0
370
    -2
100
AcDbLine
 10
6428.6
 20
9021.432120744318
 30
0.0
 11
10018.6
 21
9021.432120744318
 31
0.0
  0
INSERT
  5
23FED
330
1F5DB
100
AcDbEntity
  8
寸法
 62
     0
 48
50.0
370
    -2
100
AcDbBlockReference
  2
_DOTSMALL
 10
6428.6
 20
9021.432120744318
 30
0.0
 41
100.0
 42
100.0
 43
100.0
 50
180.0
  0
INSERT
  5
23FEE
330
1F5DB
100
AcDbEntity
  8
寸法
 62
     0
 48
50.0
370
    -2
100
AcDbBlockReference
  2
_DOTSMALL
 10
10018.6
 20
9021.432120744318
 30
0.0
 41
100.0
 42
100.0
 43
100.0
  0
MTEXT
  5
23FEF
330
1F5DB
100
AcDbEntity
  8
寸法
 62
     7
 48
50.0
100
AcDbMText
 10
8223.600000000001
 20
9121.432120744318
 30
0.0
 40
120.0
 41
0.0
 71
     5
 72
     1
  1
\A1;3590
  7
STYLE1
 73
     1
 44
1.0
1001
ACAD
1000
MTEXTBEGIN
1070
    73
1070
     1
1070
    44
1040
1.0
1070
    74
1070
     0
1000
MTEXTEND
  0
POINT
  5
23FF0
330
1F5DB
100
AcDbEntity
  8
DEFPOINTS
 62
     0
 48
50.0
100
AcDbPoint
 10
6428.6
 20
8063.211798685397
 30
0.0
  0
POINT
  5
23FF1
330
1F5DB
100
AcDbEntity
  8
DEFPOINTS
 62
     0
 48
50.0
100
AcDbPoint
 10
10018.6
 20
8063.211798685397
 30
0.0
  0
POINT
  5
23FF2
330
1F5DB
100
AcDbEntity
  8
DEFPOINTS
 62
     0
 48
50.0
100
AcDbPoint
 10
10018.6
 20
9021.432120744318
 30
0.0
  0
ENDBLK
  5
1F5E5
330
1F5DB
100
AcDbEntity
  8
0
 48
50.0
100
AcDbBlockEnd
  0
BLOCK
  5
1F5EE
330
1F5E6
100
AcDbEntity
  8
0
 48
50.0
100
AcDbBlockBegin
  2
*D5
 70
     1
 10
0.0
 20
0.0
 30
0.0
  3
*D5
  1

  0
LINE
  5
23FDF
330
1F5E6
100
AcDbEntity
  8
寸法
 62
     0
 48
50.0
370
    -2
100
AcDbLine
 10
8235.600000000001
 20
6513.211798685415
 30
0.0
 11
8235.600000000001
 21
6866.369337512553
 31
0.0
  0
LINE
  5
23FE0
330
1F5E6
100
AcDbEntity
  8
寸法
 62
     0
 48
50.0
370
    -2
100
AcDbLine
 10
7975.6
 20
6513.211798685415
 30
0.0
 11
7975.6
 21
6866.369337512553
 31
0.0
  0
LINE
  5
23FE1
330
1F5E6
100
AcDbEntity
  8
寸法
 62
     0
 48
50.0
370
    -2
100
AcDbLine
 10
8235.600000000001
 20
6806.369337512554
 30
0.0
 11
8335.600000000001
 21
6806.369337512554
 31
0.0
  0
LINE
  5
23FE2
330
1F5E6
100
AcDbEntity
  8
寸法
 62
     0
 48
50.0
370
    -2
100
AcDbLine
 10
7975.6
 20
6806.369337512554
 30
0.0
 11
7875.6
 21
6806.369337512554
 31
0.0
  0
LINE
  5
23FE3
330
1F5E6
100
AcDbEntity
  8
寸法
 62
     0
 48
50.0
370
    -2
100
AcDbLine
 10
8235.600000000001
 20
6806.369337512554
 30
0.0
 11
7975.6
 21
6806.369337512554
 31
0.0
  0
INSERT
  5
23FE4
330
1F5E6
100
AcDbEntity
  8
寸法
 62
     0
 48
50.0
370
    -2
100
AcDbBlockReference
  2
_DOTSMALL
 10
8235.600000000001
 20
6806.369337512554
 30
0.0
 41
100.0
 42
100.0
 43
100.0
 50
180.0
  0
INSERT
  5
23FE5
330
1F5E6
100
AcDbEntity
  8
寸法
 62
     0
 48
50.0
370
    -2
100
AcDbBlockReference
  2
_DOTSMALL
 10
7975.6
 20
6806.369337512554
 30
0.0
 41
100.0
 42
100.0
 43
100.0
  0
MTEXT
  5
23FE6
330
1F5E6
100
AcDbEntity
  8
寸法
 62
     7
 48
50.0
100
AcDbMText
 10
8105.6
 20
6906.381148536175
 30
0.0
 40
120.0
 41
0.0
 71
     5
 72
     1
  1
\A1;260
  7
STYLE1
 73
     1
 44
1.0
1001
ACAD
1000
MTEXTBEGIN
1070
    73
1070
     1
1070
    44
1040
1.0
1070
    74
1070
     0
1000
MTEXTEND
  0
POINT
  5
23FE7
330
1F5E6
100
AcDbEntity
  8
DEFPOINTS
 62
     0
 48
50.0
100
AcDbPoint
 10
8235.600000000001
 20
6493.211798685415
 30
0.0
  0
POINT
  5
23FE8
330
1F5E6
100
AcDbEntity
  8
DEFPOINTS
 62
     0
 48
50.0
100
AcDbPoint
 10
7975.6
 20
6493.211798685415
 30
0.0
  0
POINT
  5
23FE9
330
1F5E6
100
AcDbEntity
  8
DEFPOINTS
 62
     0
 48
50.0
100
AcDbPoint
 10
7975.6
 20
6806.369337512554
 30
0.0
  0
ENDBLK
  5
1F5EF
330
1F5E6
100
AcDbEntity
  8
0
 48
50.0
100
AcDbBlockEnd
  0
BLOCK
  5
1F5FA
330
1F5F0
100
AcDbEntity
  8
0
 48
50.0
100
AcDbBlockBegin
  2
*D6
 70
     1
 10
0.0
 20
0.0
 30
0.0
  3
*D6
  1

  0
LINE
  5
23FD6
330
1F5F0
100
AcDbEntity
  8
寸法
 62
     0
 48
50.0
370
    -2
100
AcDbLine
 10
6481.6
 20
7940.211798685398
 30
0.0
 11
5872.65773398618
 21
7940.211798685398
 31
0.0
  0
LINE
  5
23FD7
330
1F5F0
100
AcDbEntity
  8
寸法
 62
     0
 48
50.0
370
    -2
100
AcDbLine
 10
6481.600000000007
 20
6386.211798685399
 30
0.0
 11
5872.65773398618
 21
6386.2117986854
 31
0.0
  0
LINE
  5
23FD8
330
1F5F0
100
AcDbEntity
  8
寸法
 62
     0
 48
50.0
370
    -2
100
AcDbLine
 10
5932.65773398618
 20
7940.211798685398
 30
0.0
 11
5932.65773398618
 21
6386.2117986854
 31
0.0
  0
INSERT
  5
23FD9
330
1F5F0
100
AcDbEntity
  8
寸法
 62
     0
 48
50.0
370
    -2
100
AcDbBlockReference
  2
_DOTSMALL
 10
5932.65773398618
 20
7940.211798685398
 30
0.0
 41
100.0
 42
100.0
 43
100.0
 50
90.0
  0
INSERT
  5
23FDA
330
1F5F0
100
AcDbEntity
  8
寸法
 62
     0
 48
50.0
370
    -2
100
AcDbBlockReference
  2
_DOTSMALL
 10
5932.65773398618
 20
6386.2117986854
 30
0.0
 41
100.0
 42
100.0
 43
100.0
 50
270.0
  0
MTEXT
  5
23FDB
330
1F5F0
100
AcDbEntity
  8
寸法
 62
     7
 48
50.0
100
AcDbMText
 10
5832.657733986177
 20
7163.211798685397
 30
0.0
 40
120.0
 41
0.0
 71
     5
 72
     1
  1
\A1;1554
  7
STYLE1
 11
0.0000000000000001
 21
1.0
 31
0.0
 73
     1
 44
1.0
1001
ACAD
1000
MTEXTBEGIN
1070
    73
1070
     1
1070
    44
1040
1.0
1070
    74
1070
     0
1000
MTEXTEND
  0
POINT
  5
23FDC
330
1F5F0
100
AcDbEntity
  8
DEFPOINTS
 62
     0
 48
50.0
100
AcDbPoint
 10
6501.6
 20
7940.211798685398
 30
0.0
  0
POINT
  5
23FDD
330
1F5F0
100
AcDbEntity
  8
DEFPOINTS
 62
     0
 48
50.0
100
AcDbPoint
 10
6501.600000000007
 20
6386.211798685399
 30
0.0
  0
POINT
  5
23FDE
330
1F5F0
100
AcDbEntity
  8
DEFPOINTS
 62
     0
 48
50.0
100
AcDbPoint
 10
5932.65773398618
 20
6386.2117986854
 30
0.0
  0
ENDBLK
  5
1F5FB
330
1F5F0
100
AcDbEntity
  8
0
 48
50.0
100
AcDbBlockEnd
  0
BLOCK
  5
1F605
330
1F5FC
100
AcDbEntity
  8
0
 48
50.0
100
AcDbBlockBegin
  2
*D7
 70
     1
 10
0.0
 20
0.0
 30
0.0
  3
*D7
  1

  0
LINE
  5
23FCD
330
1F5FC
100
AcDbEntity
  8
寸法
 62
     0
 48
50.0
370
    -2
100
AcDbLine
 10
6408.599999999999
 20
8063.211798685397
 30
0.0
 11
5620.714637266781
 21
8063.211798685399
 31
0.0
  0
LINE
  5
23FCE
330
1F5FC
100
AcDbEntity
  8
寸法
 62
     0
 48
50.0
370
    -2
100
AcDbLine
 10
6408.599999999999
 20
6263.211798685397
 30
0.0
 11
5620.714637266781
 21
6263.211798685398
 31
0.0
  0
LINE
  5
23FCF
330
1F5FC
100
AcDbEntity
  8
寸法
 62
     0
 48
50.0
370
    -2
100
AcDbLine
 10
5680.714637266781
 20
8063.211798685399
 30
0.0
 11
5680.714637266781
 21
6263.211798685398
 31
0.0
  0
INSERT
  5
23FD0
330
1F5FC
100
AcDbEntity
  8
寸法
 62
     0
 48
50.0
370
    -2
100
AcDbBlockReference
  2
_DOTSMALL
 10
5680.714637266781
 20
8063.211798685399
 30
0.0
 41
100.0
 42
100.0
 43
100.0
 50
90.0
  0
INSERT
  5
23FD1
330
1F5FC
100
AcDbEntity
  8
寸法
 62
     0
 48
50.0
370
    -2
100
AcDbBlockReference
  2
_DOTSMALL
 10
5680.714637266781
 20
6263.211798685398
 30
0.0
 41
100.0
 42
100.0
 43
100.0
 50
270.0
  0
MTEXT
  5
23FD2
330
1F5FC
100
AcDbEntity
  8
寸法
 62
     7
 48
50.0
100
AcDbMText
 10
5580.71463726678
 20
7163.211798685397
 30
0.0
 40
120.0
 41
0.0
 71
     5
 72
     1
  1
\A1;1800
  7
STYLE1
 11
0.0000000000000001
 21
1.0
 31
0.0
 73
     1
 44
1.0
1001
ACAD
1000
MTEXTBEGIN
1070
    73
1070
     1
1070
    44
1040
1.0
1070
    74
1070
     0
1000
MTEXTEND
  0
POINT
  5
23FD3
330
1F5FC
100
AcDbEntity
  8
DEFPOINTS
 62
     0
 48
50.0
100
AcDbPoint
 10
6428.6
 20
8063.211798685397
 30
0.0
  0
POINT
  5
23FD4
330
1F5FC
100
AcDbEntity
  8
DEFPOINTS
 62
     0
 48
50.0
100
AcDbPoint
 10
6428.6
 20
6263.211798685397
 30
0.0
  0
POINT
  5
23FD5
330
1F5FC
100
AcDbEntity
  8
DEFPOINTS
 62
     0
 48
50.0
100
AcDbPoint
 10
5680.714637266781
 20
6263.211798685398
 30
0.0
  0
ENDBLK
  5
1F606
330
1F5FC
100
AcDbEntity
  8
0
 48
50.0
100
AcDbBlockEnd
  0
BLOCK
  5
1F64B
330
1F640
100
AcDbEntity
  8
0
 48
50.0
100
AcDbBlockBegin
  2
*D8
 70
     1
 10
0.0
 20
0.0
 30
0.0
  3
*D8
  1

  0
LINE
  5
23FBA
330
1F640
100
AcDbEntity
  8
寸法
 62
     0
 48
50.0
370
    -2
100
AcDbLine
 10
6481.600000000007
 20
6386.211798685399
 30
0.0
 11
5872.65773398618
 21
6386.2117986854
 31
0.0
  0
LINE
  5
23FBB
330
1F640
100
AcDbEntity
  8
寸法
 62
     0
 48
50.0
370
    -2
100
AcDbLine
 10
6408.599999999999
 20
6263.211798685397
 30
0.0
 11
5872.65773398618
 21
6263.211798685398
 31
0.0
  0
LINE
  5
23FBC
330
1F640
100
AcDbEntity
  8
寸法
 62
     0
 48
50.0
370
    -2
100
AcDbLine
 10
5932.65773398618
 20
6386.2117986854
 30
0.0
 11
5932.65773398618
 21
6263.211798685398
 31
0.0
  0
LINE
  5
23FBD
330
1F640
100
AcDbEntity
  8
寸法
 62
     0
 48
50.0
370
    -2
100
AcDbLine
 10
5932.65773398618
 20
6263.211798685398
 30
0.0
 11
5932.657733986179
 21
5789.195568468565
 31
0.0
  0
INSERT
  5
23FBE
330
1F640
100
AcDbEntity
  8
寸法
 62
     0
 48
50.0
370
    -2
100
AcDbBlockReference
  2
_DOTSMALL
 10
5932.65773398618
 20
6386.2117986854
 30
0.0
 41
100.0
 42
100.0
 43
100.0
 50
90.0
  0
INSERT
  5
23FBF
330
1F640
100
AcDbEntity
  8
寸法
 62
     0
 48
50.0
370
    -2
100
AcDbBlockReference
  2
_DOTSMALL
 10
5932.65773398618
 20
6263.211798685398
 30
0.0
 41
100.0
 42
100.0
 43
100.0
 50
270.0
  0
MTEXT
  5
23FC0
330
1F640
100
AcDbEntity
  8
寸法
 62
     7
 48
50.0
100
AcDbMText
 10
5832.645922962556
 20
5927.680849842805
 30
0.0
 40
120.0
 41
0.0
 71
     5
 72
     1
  1
\A1;123
  7
STYLE1
 11
0.0000000000000001
 21
1.0
 31
0.0
 73
     1
 44
1.0
1001
ACAD
1000
MTEXTBEGIN
1070
    73
1070
     1
1070
    44
1040
1.0
1070
    74
1070
     0
1000
MTEXTEND
  0
POINT
  5
23FC1
330
1F640
100
AcDbEntity
  8
DEFPOINTS
 62
     0
 48
50.0
100
AcDbPoint
 10
6501.600000000007
 20
6386.211798685399
 30
0.0
  0
POINT
  5
23FC2
330
1F640
100
AcDbEntity
  8
DEFPOINTS
 62
     0
 48
50.0
100
AcDbPoint
 10
6428.6
 20
6263.211798685397
 30
0.0
  0
POINT
  5
23FC3
330
1F640
100
AcDbEntity
  8
DEFPOINTS
 62
     0
 48
50.0
100
AcDbPoint
 10
5932.65773398618
 20
6263.211798685398
 30
0.0
  0
ENDBLK
  5
1F64C
330
1F640
100
AcDbEntity
  8
0
 48
50.0
100
AcDbBlockEnd
  0
BLOCK
  5
1F66E
330
1F664
100
AcDbEntity
  8
0
 48
50.0
100
AcDbBlockBegin
  2
*D9
 70
     1
 10
0.0
 20
0.0
 30
0.0
  3
*D9
  1

  0
LINE
  5
23FB1
330
1F664
100
AcDbEntity
  8
寸法
 62
     0
 48
50.0
370
    -2
100
AcDbLine
 10
8105.6
 20
8010.211798685396
 30
0.0
 11
8105.6
 21
8868.971425227481
 31
0.0
  0
LINE
  5
23FB2
330
1F664
100
AcDbEntity
  8
寸法
 62
     0
 48
50.0
370
    -2
100
AcDbLine
 10
6551.6
 20
8010.211798685396
 30
0.0
 11
6551.6
 21
8868.971425227481
 31
0.0
  0
LINE
  5
23FB3
330
1F664
100
AcDbEntity
  8
寸法
 62
     0
 48
50.0
370
    -2
100
AcDbLine
 10
8105.6
 20
8808.971425227481
 30
0.0
 11
6551.6
 21
8808.971425227481
 31
0.0
  0
INSERT
  5
23FB4
330
1F664
100
AcDbEntity
  8
寸法
 62
     0
 48
50.0
370
    -2
100
AcDbBlockReference
  2
_DOTSMALL
 10
8105.6
 20
8808.971425227481
 30
0.0
 41
100.0
 42
100.0
 43
100.0
  0
INSERT
  5
23FB5
330
1F664
100
AcDbEntity
  8
寸法
 62
     0
 48
50.0
370
    -2
100
AcDbBlockReference
  2
_DOTSMALL
 10
6551.6
 20
8808.971425227481
 30
0.0
 41
100.0
 42
100.0
 43
100.0
 50
180.0
  0
MTEXT
  5
23FB6
330
1F664
100
AcDbEntity
  8
寸法
 62
     7
 48
50.0
100
AcDbMText
 10
7328.6
 20
8908.97142522748
 30
0.0
 40
120.0
 41
0.0
 71
     5
 72
     1
  1
\A1;1554
  7
STYLE1
 73
     1
 44
1.0
1001
ACAD
1000
MTEXTBEGIN
1070
    73
1070
     1
1070
    44
1040
1.0
1070
    74
1070
     0
1000
MTEXTEND
  0
POINT
  5
23FB7
330
1F664
100
AcDbEntity
  8
DEFPOINTS
 62
     0
 48
50.0
100
AcDbPoint
 10
8105.6
 20
7990.211798685398
 30
0.0
  0
POINT
  5
23FB8
330
1F664
100
AcDbEntity
  8
DEFPOINTS
 62
     0
 48
50.0
100
AcDbPoint
 10
6551.6
 20
7990.211798685398
 30
0.0
  0
POINT
  5
23FB9
330
1F664
100
AcDbEntity
  8
DEFPOINTS
 62
     0
 48
50.0
100
AcDbPoint
 10
6551.6
 20
8808.971425227481
 30
0.0
  0
ENDBLK
  5
1F66F
330
1F664
100
AcDbEntity
  8
0
 48
50.0
100
AcDbBlockEnd
  0
BLOCK
  5
1F679
330
1F670
100
AcDbEntity
  8
0
 48
50.0
100
AcDbBlockBegin
  2
*D10
 70
     1
 10
0.0
 20
0.0
 30
0.0
  3
*D10
  1

  0
LINE
  5
23FA8
330
1F670
100
AcDbEntity
  8
寸法
 62
     0
 48
50.0
370
    -2
100
AcDbLine
 10
7326.599999999996
 20
7233.211798685406
 30
0.0
 11
7326.599999999996
 21
8650.121564333726
 31
0.0
  0
LINE
  5
23FA9
330
1F670
100
AcDbEntity
  8
寸法
 62
     0
 48
50.0
370
    -2
100
AcDbLine
 10
6428.6
 20
8083.211798685397
 30
0.0
 11
6428.6
 21
8650.121564333726
 31
0.0
  0
LINE
  5
23FAA
330
1F670
100
AcDbEntity
  8
寸法
 62
     0
 48
50.0
370
    -2
100
AcDbLine
 10
7326.599999999996
 20
8590.121564333726
 30
0.0
 11
6428.6
 21
8590.121564333726
 31
0.0
  0
INSERT
  5
23FAB
330
1F670
100
AcDbEntity
  8
寸法
 62
     0
 48
50.0
370
    -2
100
AcDbBlockReference
  2
_DOTSMALL
 10
7326.599999999996
 20
8590.121564333726
 30
0.0
 41
100.0
 42
100.0
 43
100.0
  0
INSERT
  5
23FAC
330
1F670
100
AcDbEntity
  8
寸法
 62
     0
 48
50.0
370
    -2
100
AcDbBlockReference
  2
_DOTSMALL
 10
6428.6
 20
8590.121564333726
 30
0.0
 41
100.0
 42
100.0
 43
100.0
 50
180.0
  0
MTEXT
  5
23FAD
330
1F670
100
AcDbEntity
  8
寸法
 62
     7
 48
50.0
100
AcDbMText
 10
6877.599999999998
 20
8690.121564333725
 30
0.0
 40
120.0
 41
0.0
 71
     5
 72
     1
  1
\A1;898
  7
STYLE1
 73
     1
 44
1.0
1001
ACAD
1000
MTEXTBEGIN
1070
    73
1070
     1
1070
    44
1040
1.0
1070
    74
1070
     0
1000
MTEXTEND
  0
POINT
  5
23FAE
330
1F670
100
AcDbEntity
  8
DEFPOINTS
 62
     0
 48
50.0
100
AcDbPoint
 10
7326.599999999996
 20
7213.211798685406
 30
0.0
  0
POINT
  5
23FAF
330
1F670
100
AcDbEntity
  8
DEFPOINTS
 62
     0
 48
50.0
100
AcDbPoint
 10
6428.6
 20
8063.211798685397
 30
0.0
  0
POINT
  5
23FB0
330
1F670
100
AcDbEntity
  8
DEFPOINTS
 62
     0
 48
50.0
100
AcDbPoint
 10
6428.6
 20
8590.121564333726
 30
0.0
  0
ENDBLK
  5
1F67A
330
1F670
100
AcDbEntity
  8
0
 48
50.0
100
AcDbBlockEnd
  0
BLOCK
  5
1F686
330
1F67B
100
AcDbEntity
  8
0
 48
50.0
100
AcDbBlockBegin
  2
*D11
 70
     1
 10
0.0
 20
0.0
 30
0.0
  3
*D11
  1

  0
LINE
  5
23F9E
330
1F67B
100
AcDbEntity
  8
寸法
 62
     0
 48
50.0
370
    -2
100
AcDbLine
 10
6678.6
 20
7943.211798685398
 30
0.0
 11
6935.307249876098
 21
7943.211798685398
 31
0.0
  0
LINE
  5
23F9F
330
1F67B
100
AcDbEntity
  8
寸法
 62
     0
 48
50.0
370
    -2
100
AcDbLine
 10
6678.6
 20
7833.211798685394
 30
0.0
 11
6935.307249876098
 21
7833.211798685394
 31
0.0
  0
LINE
  5
23FA0
330
1F67B
100
AcDbEntity
  8
寸法
 62
     0
 48
50.0
370
    -2
100
AcDbLine
 10
6875.307249876098
 20
7943.211798685398
 30
0.0
 11
6875.307249876098
 21
7833.211798685394
 31
0.0
  0
LINE
  5
23FA1
330
1F67B
100
AcDbEntity
  8
寸法
 62
     0
 48
50.0
370
    -2
100
AcDbLine
 10
6875.307249876098
 20
7833.211798685394
 30
0.0
 11
6875.307249876098
 21
7369.105499472794
 31
0.0
  0
INSERT
  5
23FA2
330
1F67B
100
AcDbEntity
  8
寸法
 62
     0
 48
50.0
370
    -2
100
AcDbBlockReference
  2
_DOTSMALL
 10
6875.307249876098
 20
7943.211798685398
 30
0.0
 41
100.0
 42
100.0
 43
100.0
 50
90.0
  0
INSERT
  5
23FA3
330
1F67B
100
AcDbEntity
  8
寸法
 62
     0
 48
50.0
370
    -2
100
AcDbBlockReference
  2
_DOTSMALL
 10
6875.307249876098
 20
7833.211798685394
 30
0.0
 41
100.0
 42
100.0
 43
100.0
 50
270.0
  0
MTEXT
  5
23FA4
330
1F67B
100
AcDbEntity
  8
寸法
 62
     7
 48
50.0
100
AcDbMText
 10
6775.307249876097
 20
7493.152743567283
 30
0.0
 40
120.0
 41
0.0
 71
     5
 72
     1
  1
\A1;110
  7
STYLE1
 11
0.0000000000000001
 21
1.0
 31
0.0
 73
     1
 44
1.0
1001
ACAD
1000
MTEXTBEGIN
1070
    73
1070
     1
1070
    44
1040
1.0
1070
    74
1070
     0
1000
MTEXTEND
  0
POINT
  5
23FA5
330
1F67B
100
AcDbEntity
  8
DEFPOINTS
 62
     0
 48
50.0
100
AcDbPoint
 10
6658.599999999999
 20
7943.211798685398
 30
0.0
  0
POINT
  5
23FA6
330
1F67B
100
AcDbEntity
  8
DEFPOINTS
 62
     0
 48
50.0
100
AcDbPoint
 10
6658.599999999999
 20
7833.211798685394
 30
0.0
  0
POINT
  5
23FA7
330
1F67B
100
AcDbEntity
  8
DEFPOINTS
 62
     0
 48
50.0
100
AcDbPoint
 10
6875.307249876098
 20
7833.211798685394
 30
0.0
  0
ENDBLK
  5
1F687
330
1F67B
100
AcDbEntity
  8
0
 48
50.0
100
AcDbBlockEnd
  0
BLOCK
  5
1F693
330
1F688
100
AcDbEntity
  8
0
 48
50.0
100
AcDbBlockBegin
  2
*D12
 70
     1
 10
0.0
 20
0.0
 30
0.0
  3
*D12
  1

  0
LINE
  5
23F94
330
1F688
100
AcDbEntity
  8
寸法
 62
     0
 48
50.0
370
    -2
100
AcDbLine
 10
6408.599999999999
 20
8063.211798685397
 30
0.0
 11
5872.657733986179
 21
8063.211798685399
 31
0.0
  0
LINE
  5
23F95
330
1F688
100
AcDbEntity
  8
寸法
 62
     0
 48
50.0
370
    -2
100
AcDbLine
 10
6481.6
 20
7940.211798685398
 30
0.0
 11
5872.657733986179
 21
7940.211798685398
 31
0.0
  0
LINE
  5
23F96
330
1F688
100
AcDbEntity
  8
寸法
 62
     0
 48
50.0
370
    -2
100
AcDbLine
 10
5932.657733986179
 20
7940.211798685398
 30
0.0
 11
5932.657733986179
 21
8063.211798685399
 31
0.0
  0
LINE
  5
23F97
330
1F688
100
AcDbEntity
  8
寸法
 62
     0
 48
50.0
370
    -2
100
AcDbLine
 10
5932.657733986179
 20
8063.211798685399
 30
0.0
 11
5932.657733986179
 21
8474.803681777434
 31
0.0
  0
INSERT
  5
23F98
330
1F688
100
AcDbEntity
  8
寸法
 62
     0
 48
50.0
370
    -2
100
AcDbBlockReference
  2
_DOTSMALL
 10
5932.657733986179
 20
7940.211798685398
 30
0.0
 41
100.0
 42
100.0
 43
100.0
 50
270.0
  0
INSERT
  5
23F99
330
1F688
100
AcDbEntity
  8
寸法
 62
     0
 48
50.0
370
    -2
100
AcDbBlockReference
  2
_DOTSMALL
 10
5932.657733986179
 20
8063.211798685399
 30
0.0
 41
100.0
 42
100.0
 43
100.0
 50
90.0
  0
MTEXT
  5
23F9A
330
1F688
100
AcDbEntity
  8
寸法
 62
     7
 48
50.0
100
AcDbMText
 10
5832.645922962556
 20
8336.318400403198
 30
0.0
 40
120.0
 41
0.0
 71
     5
 72
     1
  1
\A1;123
  7
STYLE1
 11
0.0000000000000001
 21
1.0
 31
0.0
 73
     1
 44
1.0
1001
ACAD
1000
MTEXTBEGIN
1070
    73
1070
     1
1070
    44
1040
1.0
1070
    74
1070
     0
1000
MTEXTEND
  0
POINT
  5
23F9B
330
1F688
100
AcDbEntity
  8
DEFPOINTS
 62
     0
 48
50.0
100
AcDbPoint
 10
6428.6
 20
8063.211798685397
 30
0.0
  0
POINT
  5
23F9C
330
1F688
100
AcDbEntity
  8
DEFPOINTS
 62
     0
 48
50.0
100
AcDbPoint
 10
6501.6
 20
7940.211798685398
 30
0.0
  0
POINT
  5
23F9D
330
1F688
100
AcDbEntity
  8
DEFPOINTS
 62
     0
 48
50.0
100
AcDbPoint
 10
5932.657733986179
 20
7940.211798685398
 30
0.0
  0
ENDBLK
  5
1F694
330
1F688
100
AcDbEntity
  8
0
 48
50.0
100
AcDbBlockEnd
  0
BLOCK
  5
1F6A0
330
1F695
100
AcDbEntity
  8
0
 48
50.0
100
AcDbBlockBegin
  2
*D13
 70
     1
 10
0.0
 20
0.0
 30
0.0
  3
*D13
  1

  0
LINE
  5
23F8A
330
1F695
100
AcDbEntity
  8
寸法
 62
     0
 48
50.0
370
    -2
100
AcDbLine
 10
6551.6
 20
8010.211798685396
 30
0.0
 11
6551.6
 21
8868.971425227481
 31
0.0
  0
LINE
  5
23F8B
330
1F695
100
AcDbEntity
  8
寸法
 62
     0
 48
50.0
370
    -2
100
AcDbLine
 10
6428.6
 20
8083.211798685397
 30
0.0
 11
6428.6
 21
8868.971425227481
 31
0.0
  0
LINE
  5
23F8C
330
1F695
100
AcDbEntity
  8
寸法
 62
     0
 48
50.0
370
    -2
100
AcDbLine
 10
6551.6
 20
8808.971425227481
 30
0.0
 11
6428.6
 21
8808.971425227481
 31
0.0
  0
LINE
  5
23F8D
330
1F695
100
AcDbEntity
  8
寸法
 62
     0
 48
50.0
370
    -2
100
AcDbLine
 10
6428.6
 20
8808.971425227481
 30
0.0
 11
6017.008116907963
 21
8808.971425227481
 31
0.0
  0
INSERT
  5
23F8E
330
1F695
100
AcDbEntity
  8
寸法
 62
     0
 48
50.0
370
    -2
100
AcDbBlockReference
  2
_DOTSMALL
 10
6551.6
 20
8808.971425227481
 30
0.0
 41
100.0
 42
100.0
 43
100.0
  0
INSERT
  5
23F8F
330
1F695
100
AcDbEntity
  8
寸法
 62
     0
 48
50.0
370
    -2
100
AcDbBlockReference
  2
_DOTSMALL
 10
6428.6
 20
8808.971425227481
 30
0.0
 41
100.0
 42
100.0
 43
100.0
 50
180.0
  0
MTEXT
  5
23F90
330
1F695
100
AcDbEntity
  8
寸法
 62
     7
 48
50.0
100
AcDbMText
 10
6155.493398282202
 20
8908.983236251103
 30
0.0
 40
120.0
 41
0.0
 71
     5
 72
     1
  1
\A1;123
  7
STYLE1
 73
     1
 44
1.0
1001
ACAD
1000
MTEXTBEGIN
1070
    73
1070
     1
1070
    44
1040
1.0
1070
    74
1070
     0
1000
MTEXTEND
  0
POINT
  5
23F91
330
1F695
100
AcDbEntity
  8
DEFPOINTS
 62
     0
 48
50.0
100
AcDbPoint
 10
6551.6
 20
7990.211798685398
 30
0.0
  0
POINT
  5
23F92
330
1F695
100
AcDbEntity
  8
DEFPOINTS
 62
     0
 48
50.0
100
AcDbPoint
 10
6428.6
 20
8063.211798685397
 30
0.0
  0
POINT
  5
23F93
330
1F695
100
AcDbEntity
  8
DEFPOINTS
 62
     0
 48
50.0
100
AcDbPoint
 10
6428.6
 20
8808.971425227481
 30
0.0
  0
ENDBLK
  5
1F6A1
330
1F695
100
AcDbEntity
  8
0
 48
50.0
100
AcDbBlockEnd
  0
BLOCK
  5
1F6AD
330
1F6A2
100
AcDbEntity
  8
0
 48
50.0
100
AcDbBlockBegin
  2
*D14
 70
     1
 10
0.0
 20
0.0
 30
0.0
  3
*D14
  1

  0
LINE
  5
23F80
330
1F6A2
100
AcDbEntity
  8
寸法
 62
     0
 48
50.0
370
    -2
100
AcDbLine
 10
6678.6
 20
7943.211798685398
 30
0.0
 11
6935.307249876098
 21
7943.211798685398
 31
0.0
  0
LINE
  5
23F81
330
1F6A2
100
AcDbEntity
  8
寸法
 62
     0
 48
50.0
370
    -2
100
AcDbLine
 10
6678.6
 20
8063.211798685395
 30
0.0
 11
6935.307249876098
 21
8063.211798685395
 31
0.0
  0
LINE
  5
23F82
330
1F6A2
100
AcDbEntity
  8
寸法
 62
     0
 48
50.0
370
    -2
100
AcDbLine
 10
6875.307249876098
 20
7943.211798685398
 30
0.0
 11
6875.307249876098
 21
8063.211798685395
 31
0.0
  0
LINE
  5
23F83
330
1F6A2
100
AcDbEntity
  8
寸法
 62
     0
 48
50.0
370
    -2
100
AcDbLine
 10
6875.307249876098
 20
8063.211798685395
 30
0.0
 11
6875.307249876098
 21
8477.342586052769
 31
0.0
  0
INSERT
  5
23F84
330
1F6A2
100
AcDbEntity
  8
寸法
 62
     0
 48
50.0
370
    -2
100
AcDbBlockReference
  2
_DOTSMALL
 10
6875.307249876098
 20
7943.211798685398
 30
0.0
 41
100.0
 42
100.0
 43
100.0
 50
270.0
  0
INSERT
  5
23F85
330
1F6A2
100
AcDbEntity
  8
寸法
 62
     0
 48
50.0
370
    -2
100
AcDbBlockReference
  2
_DOTSMALL
 10
6875.307249876098
 20
8063.211798685395
 30
0.0
 41
100.0
 42
100.0
 43
100.0
 50
90.0
  0
MTEXT
  5
23F86
330
1F6A2
100
AcDbEntity
  8
寸法
 62
     7
 48
50.0
100
AcDbMText
 10
6775.295438852475
 20
8341.295341958284
 30
0.0
 40
120.0
 41
0.0
 71
     5
 72
     1
  1
\A1;120
  7
STYLE1
 11
0.0000000000000001
 21
1.0
 31
0.0
 73
     1
 44
1.0
1001
ACAD
1000
MTEXTBEGIN
1070
    73
1070
     1
1070
    44
1040
1.0
1070
    74
1070
     0
1000
MTEXTEND
  0
POINT
  5
23F87
330
1F6A2
100
AcDbEntity
  8
DEFPOINTS
 62
     0
 48
50.0
100
AcDbPoint
 10
6658.599999999999
 20
7943.211798685398
 30
0.0
  0
POINT
  5
23F88
330
1F6A2
100
AcDbEntity
  8
DEFPOINTS
 62
     0
 48
50.0
100
AcDbPoint
 10
6658.599999999999
 20
8063.211798685395
 30
0.0
  0
POINT
  5
23F89
330
1F6A2
100
AcDbEntity
  8
DEFPOINTS
 62
     0
 48
50.0
100
AcDbPoint
 10
6875.307249876098
 20
8063.211798685395
 30
0.0
  0
ENDBLK
  5
1F6AE
330
1F6A2
100
AcDbEntity
  8
0
 48
50.0
100
AcDbBlockEnd
  0
BLOCK
  5
1F6C5
330
1F6BB
100
AcDbEntity
  8
0
 48
50.0
100
AcDbBlockBegin
  2
*D15
 70
     1
 10
0.0
 20
0.0
 30
0.0
  3
*D15
  1

  0
LINE
  5
23F77
330
1F6BB
100
AcDbEntity
  8
寸法
 62
     0
 48
50.0
370
    -2
100
AcDbLine
 10
8691.600000000011
 20
6263.211798685412
 30
0.0
 11
8987.970132415947
 21
6263.211798685412
 31
0.0
  0
LINE
  5
23F78
330
1F6BB
100
AcDbEntity
  8
寸法
 62
     0
 48
50.0
370
    -2
100
AcDbLine
 10
9050.600000000001
 20
7163.211798685406
 30
0.0
 11
8867.970132415946
 21
7163.211798685406
 31
0.0
  0
LINE
  5
23F79
330
1F6BB
100
AcDbEntity
  8
寸法
 62
     0
 48
50.0
370
    -2
100
AcDbLine
 10
8927.970132415948
 20
6263.211798685412
 30
0.0
 11
8927.970132415948
 21
7163.211798685406
 31
0.0
  0
INSERT
  5
23F7A
330
1F6BB
100
AcDbEntity
  8
寸法
 62
     0
 48
50.0
370
    -2
100
AcDbBlockReference
  2
_DOTSMALL
 10
8927.970132415948
 20
6263.211798685412
 30
0.0
 41
100.0
 42
100.0
 43
100.0
 50
270.0
  0
INSERT
  5
23F7B
330
1F6BB
100
AcDbEntity
  8
寸法
 62
     0
 48
50.0
370
    -2
100
AcDbBlockReference
  2
_DOTSMALL
 10
8927.970132415948
 20
7163.211798685406
 30
0.0
 41
100.0
 42
100.0
 43
100.0
 50
90.0
  0
MTEXT
  5
23F7C
330
1F6BB
100
AcDbEntity
  8
寸法
 62
     7
 48
50.0
100
AcDbMText
 10
8827.970132415945
 20
6713.21179868541
 30
0.0
 40
120.0
 41
0.0
 71
     5
 72
     1
  1
\A1;900
  7
STYLE1
 11
0.0000000000000001
 21
1.0
 31
0.0
 73
     1
 44
1.0
1001
ACAD
1000
MTEXTBEGIN
1070
    73
1070
     1
1070
    44
1040
1.0
1070
    74
1070
     0
1000
MTEXTEND
  0
POINT
  5
23F7D
330
1F6BB
100
AcDbEntity
  8
DEFPOINTS
 62
     0
 48
50.0
100
AcDbPoint
 10
8671.60000000001
 20
6263.211798685412
 30
0.0
  0
POINT
  5
23F7E
330
1F6BB
100
AcDbEntity
  8
DEFPOINTS
 62
     0
 48
50.0
100
AcDbPoint
 10
9070.6
 20
7163.211798685406
 30
0.0
  0
POINT
  5
23F7F
330
1F6BB
100
AcDbEntity
  8
DEFPOINTS
 62
     0
 48
50.0
100
AcDbPoint
 10
8927.970132415948
 20
7163.211798685406
 30
0.0
  0
ENDBLK
  5
1F6C6
330
1F6BB
100
AcDbEntity
  8
0
 48
50.0
100
AcDbBlockEnd
  0
BLOCK
  5
1F6F8
330
1F6ED
100
AcDbEntity
  8
0
 48
50.0
100
AcDbBlockBegin
  2
*D16
 70
     1
 10
0.0
 20
0.0
 30
0.0
  3
*D16
  1

  0
LINE
  5
23F6D
330
1F6ED
100
AcDbEntity
  8
寸法
 62
     0
 48
50.0
370
    -2
100
AcDbLine
 10
9898.6
 20
7602.496395223854
 30
0.0
 11
9898.6
 21
7545.503131185023
 31
0.0
  0
LINE
  5
23F6E
330
1F6ED
100
AcDbEntity
  8
寸法
 62
     0
 48
50.0
370
    -2
100
AcDbLine
 10
9788.600000000002
 20
7813.211798685395
 30
0.0
 11
9788.600000000002
 21
7545.503131185023
 31
0.0
  0
LINE
  5
23F6F
330
1F6ED
100
AcDbEntity
  8
寸法
 62
     0
 48
50.0
370
    -2
100
AcDbLine
 10
9898.6
 20
7605.503131185024
 30
0.0
 11
9788.600000000002
 21
7605.503131185024
 31
0.0
  0
LINE
  5
23F70
330
1F6ED
100
AcDbEntity
  8
寸法
 62
     0
 48
50.0
370
    -2
100
AcDbLine
 10
9788.600000000002
 20
7605.503131185024
 30
0.0
 11
9394.493700787402
 21
7605.503131185024
 31
0.0
  0
INSERT
  5
23F71
330
1F6ED
100
AcDbEntity
  8
寸法
 62
     0
 48
50.0
370
    -2
100
AcDbBlockReference
  2
_DOTSMALL
 10
9898.6
 20
7605.503131185024
 30
0.0
 41
100.0
 42
100.0
 43
100.0
  0
INSERT
  5
23F72
330
1F6ED
100
AcDbEntity
  8
寸法
 62
     0
 48
50.0
370
    -2
100
AcDbBlockReference
  2
_DOTSMALL
 10
9788.600000000002
 20
7605.503131185024
 30
0.0
 41
100.0
 42
100.0
 43
100.0
 50
180.0
  0
MTEXT
  5
23F73
330
1F6ED
100
AcDbEntity
  8
寸法
 62
     7
 48
50.0
100
AcDbMText
 10
9518.540944881889
 20
7705.503131185024
 30
0.0
 40
120.0
 41
0.0
 71
     5
 72
     1
  1
\A1;110
  7
STYLE1
 73
     1
 44
1.0
1001
ACAD
1000
MTEXTBEGIN
1070
    73
1070
     1
1070
    44
1040
1.0
1070
    74
1070
     0
1000
MTEXTEND
  0
POINT
  5
23F74
330
1F6ED
100
AcDbEntity
  8
DEFPOINTS
 62
     0
 48
50.0
100
AcDbPoint
 10
9898.6
 20
7622.496395223854
 30
0.0
  0
POINT
  5
23F75
330
1F6ED
100
AcDbEntity
  8
DEFPOINTS
 62
     0
 48
50.0
100
AcDbPoint
 10
9788.600000000002
 20
7833.211798685396
 30
0.0
  0
POINT
  5
23F76
330
1F6ED
100
AcDbEntity
  8
DEFPOINTS
 62
     0
 48
50.0
100
AcDbPoint
 10
9788.600000000002
 20
7605.503131185024
 30
0.0
  0
ENDBLK
  5
1F6F9
330
1F6ED
100
AcDbEntity
  8
0
 48
50.0
100
AcDbBlockEnd
  0
BLOCK
  5
1F704
330
1F6FA
100
AcDbEntity
  8
0
 48
50.0
100
AcDbBlockBegin
  2
*D17
 70
     1
 10
0.0
 20
0.0
 30
0.0
  3
*D17
  1

  0
LINE
  5
23F64
330
1F6FA
100
AcDbEntity
  8
寸法
 62
     0
 48
50.0
370
    -2
100
AcDbLine
 10
10018.6
 20
8083.211798685397
 30
0.0
 11
10018.6
 21
8650.121564333726
 31
0.0
  0
LINE
  5
23F65
330
1F6FA
100
AcDbEntity
  8
寸法
 62
     0
 48
50.0
370
    -2
100
AcDbLine
 10
9120.600000000001
 20
7233.211798685406
 30
0.0
 11
9120.600000000001
 21
8650.121564333726
 31
0.0
  0
LINE
  5
23F66
330
1F6FA
100
AcDbEntity
  8
寸法
 62
     0
 48
50.0
370
    -2
100
AcDbLine
 10
10018.6
 20
8590.121564333726
 30
0.0
 11
9120.600000000001
 21
8590.121564333726
 31
0.0
  0
INSERT
  5
23F67
330
1F6FA
100
AcDbEntity
  8
寸法
 62
     0
 48
50.0
370
    -2
100
AcDbBlockReference
  2
_DOTSMALL
 10
10018.6
 20
8590.121564333726
 30
0.0
 41
100.0
 42
100.0
 43
100.0
  0
INSERT
  5
23F68
330
1F6FA
100
AcDbEntity
  8
寸法
 62
     0
 48
50.0
370
    -2
100
AcDbBlockReference
  2
_DOTSMALL
 10
9120.600000000001
 20
8590.121564333726
 30
0.0
 41
100.0
 42
100.0
 43
100.0
 50
180.0
  0
MTEXT
  5
23F69
330
1F6FA
100
AcDbEntity
  8
寸法
 62
     7
 48
50.0
100
AcDbMText
 10
9569.600000000001
 20
8690.121564333725
 30
0.0
 40
120.0
 41
0.0
 71
     5
 72
     1
  1
\A1;898
  7
STYLE1
 73
     1
 44
1.0
1001
ACAD
1000
MTEXTBEGIN
1070
    73
1070
     1
1070
    44
1040
1.0
1070
    74
1070
     0
1000
MTEXTEND
  0
POINT
  5
23F6A
330
1F6FA
100
AcDbEntity
  8
DEFPOINTS
 62
     0
 48
50.0
100
AcDbPoint
 10
10018.6
 20
8063.211798685397
 30
0.0
  0
POINT
  5
23F6B
330
1F6FA
100
AcDbEntity
  8
DEFPOINTS
 62
     0
 48
50.0
100
AcDbPoint
 10
9120.600000000001
 20
7213.211798685406
 30
0.0
  0
POINT
  5
23F6C
330
1F6FA
100
AcDbEntity
  8
DEFPOINTS
 62
     0
 48
50.0
100
AcDbPoint
 10
9120.600000000001
 20
8590.121564333726
 30
0.0
  0
ENDBLK
  5
1F705
330
1F6FA
100
AcDbEntity
  8
0
 48
50.0
100
AcDbBlockEnd
  0
BLOCK
  5
1F70F
330
1F706
100
AcDbEntity
  8
0
 48
50.0
100
AcDbBlockBegin
  2
*D18
 70
     1
 10
0.0
 20
0.0
 30
0.0
  3
*D18
  1

  0
LINE
  5
23F5B
330
1F706
100
AcDbEntity
  8
寸法
 62
     0
 48
50.0
370
    -2
100
AcDbLine
 10
9050.600000000001
 20
7163.211798685406
 30
0.0
 11
8867.970132415946
 21
7163.211798685406
 31
0.0
  0
LINE
  5
23F5C
330
1F706
100
AcDbEntity
  8
寸法
 62
     0
 48
50.0
370
    -2
100
AcDbLine
 10
8691.600000000001
 20
8063.211798685395
 30
0.0
 11
8987.970132415947
 21
8063.211798685395
 31
0.0
  0
LINE
  5
23F5D
330
1F706
100
AcDbEntity
  8
寸法
 62
     0
 48
50.0
370
    -2
100
AcDbLine
 10
8927.970132415948
 20
7163.211798685406
 30
0.0
 11
8927.970132415948
 21
8063.211798685395
 31
0.0
  0
INSERT
  5
23F5E
330
1F706
100
AcDbEntity
  8
寸法
 62
     0
 48
50.0
370
    -2
100
AcDbBlockReference
  2
_DOTSMALL
 10
8927.970132415948
 20
7163.211798685406
 30
0.0
 41
100.0
 42
100.0
 43
100.0
 50
270.0
  0
INSERT
  5
23F5F
330
1F706
100
AcDbEntity
  8
寸法
 62
     0
 48
50.0
370
    -2
100
AcDbBlockReference
  2
_DOTSMALL
 10
8927.970132415948
 20
8063.211798685395
 30
0.0
 41
100.0
 42
100.0
 43
100.0
 50
90.0
  0
MTEXT
  5
23F60
330
1F706
100
AcDbEntity
  8
寸法
 62
     7
 48
50.0
100
AcDbMText
 10
8827.970132415945
 20
7613.211798685402
 30
0.0
 40
120.0
 41
0.0
 71
     5
 72
     1
  1
\A1;900
  7
STYLE1
 11
0.0000000000000001
 21
1.0
 31
0.0
 73
     1
 44
1.0
1001
ACAD
1000
MTEXTBEGIN
1070
    73
1070
     1
1070
    44
1040
1.0
1070
    74
1070
     0
1000
MTEXTEND
  0
POINT
  5
23F61
330
1F706
100
AcDbEntity
  8
DEFPOINTS
 62
     0
 48
50.0
100
AcDbPoint
 10
9070.6
 20
7163.211798685406
 30
0.0
  0
POINT
  5
23F62
330
1F706
100
AcDbEntity
  8
DEFPOINTS
 62
     0
 48
50.0
100
AcDbPoint
 10
8671.600000000001
 20
8063.211798685395
 30
0.0
  0
POINT
  5
23F63
330
1F706
100
AcDbEntity
  8
DEFPOINTS
 62
     0
 48
50.0
100
AcDbPoint
 10
8927.970132415948
 20
8063.211798685395
 30
0.0
  0
ENDBLK
  5
1F710
330
1F706
100
AcDbEntity
  8
0
 48
50.0
100
AcDbBlockEnd
  0
BLOCK
  5
1F71C
330
1F711
100
AcDbEntity
  8
0
 48
50.0
100
AcDbBlockBegin
  2
*D19
 70
     1
 10
0.0
 20
0.0
 30
0.0
  3
*D19
  1

  0
LINE
  5
23F51
330
1F711
100
AcDbEntity
  8
寸法
 62
     0
 48
50.0
370
    -2
100
AcDbLine
 10
10018.6
 20
7602.496395223854
 30
0.0
 11
10018.6
 21
7545.503131185023
 31
0.0
  0
LINE
  5
23F52
330
1F711
100
AcDbEntity
  8
寸法
 62
     0
 48
50.0
370
    -2
100
AcDbLine
 10
9898.6
 20
7602.496395223854
 30
0.0
 11
9898.6
 21
7545.503131185023
 31
0.0
  0
LINE
  5
23F53
330
1F711
100
AcDbEntity
  8
寸法
 62
     0
 48
50.0
370
    -2
100
AcDbLine
 10
9898.6
 20
7605.503131185024
 30
0.0
 11
10018.6
 21
7605.503131185024
 31
0.0
  0
LINE
  5
23F54
330
1F711
100
AcDbEntity
  8
寸法
 62
     0
 48
50.0
370
    -2
100
AcDbLine
 10
10018.6
 20
7605.503131185024
 30
0.0
 11
10424.7062992126
 21
7605.503131185024
 31
0.0
  0
INSERT
  5
23F55
330
1F711
100
AcDbEntity
  8
寸法
 62
     0
 48
50.0
370
    -2
100
AcDbBlockReference
  2
_DOTSMALL
 10
9898.6
 20
7605.503131185024
 30
0.0
 41
100.0
 42
100.0
 43
100.0
 50
180.0
  0
INSERT
  5
23F56
330
1F711
100
AcDbEntity
  8
寸法
 62
     0
 48
50.0
370
    -2
100
AcDbBlockReference
  2
_DOTSMALL
 10
10018.6
 20
7605.503131185024
 30
0.0
 41
100.0
 42
100.0
 43
100.0
  0
MTEXT
  5
23F57
330
1F711
100
AcDbEntity
  8
寸法
 62
     7
 48
50.0
100
AcDbMText
 10
10288.65905511811
 20
7705.514942208646
 30
0.0
 40
120.0
 41
0.0
 71
     5
 72
     1
  1
\A1;120
  7
STYLE1
 73
     1
 44
1.0
1001
ACAD
1000
MTEXTBEGIN
1070
    73
1070
     1
1070
    44
1040
1.0
1070
    74
1070
     0
1000
MTEXTEND
  0
POINT
  5
23F58
330
1F711
100
AcDbEntity
  8
DEFPOINTS
 62
     0
 48
50.0
100
AcDbPoint
 10
10018.6
 20
7622.496395223854
 30
0.0
  0
POINT
  5
23F59
330
1F711
100
AcDbEntity
  8
DEFPOINTS
 62
     0
 48
50.0
100
AcDbPoint
 10
9898.6
 20
7622.496395223854
 30
0.0
  0
POINT
  5
23F5A
330
1F711
100
AcDbEntity
  8
DEFPOINTS
 62
     0
 48
50.0
100
AcDbPoint
 10
9898.6
 20
7605.503131185024
 30
0.0
  0
ENDBLK
  5
1F71D
330
1F711
100
AcDbEntity
  8
0
 48
50.0
100
AcDbBlockEnd
  0
BLOCK
  5
1F729
330
1F71E
100
AcDbEntity
  8
0
 48
50.0
100
AcDbBlockBegin
  2
*D20
 70
     1
 10
0.0
 20
0.0
 30
0.0
  3
*D20
  1

  0
LINE
  5
23F47
330
1F71E
100
AcDbEntity
  8
寸法
 62
     0
 48
50.0
370
    -2
100
AcDbLine
 10
10018.6
 20
8083.211798685397
 30
0.0
 11
10018.6
 21
8868.971425227481
 31
0.0
  0
LINE
  5
23F48
330
1F71E
100
AcDbEntity
  8
寸法
 62
     0
 48
50.0
370
    -2
100
AcDbLine
 10
9895.600000000001
 20
8010.211798685396
 30
0.0
 11
9895.600000000001
 21
8868.971425227481
 31
0.0
  0
LINE
  5
23F49
330
1F71E
100
AcDbEntity
  8
寸法
 62
     0
 48
50.0
370
    -2
100
AcDbLine
 10
9895.600000000001
 20
8808.971425227481
 30
0.0
 11
10018.6
 21
8808.971425227481
 31
0.0
  0
LINE
  5
23F4A
330
1F71E
100
AcDbEntity
  8
寸法
 62
     0
 48
50.0
370
    -2
100
AcDbLine
 10
10018.6
 20
8808.971425227481
 30
0.0
 11
10430.19188309203
 21
8808.971425227481
 31
0.0
  0
INSERT
  5
23F4B
330
1F71E
100
AcDbEntity
  8
寸法
 62
     0
 48
50.0
370
    -2
100
AcDbBlockReference
  2
_DOTSMALL
 10
9895.600000000001
 20
8808.971425227481
 30
0.0
 41
100.0
 42
100.0
 43
100.0
 50
180.0
  0
INSERT
  5
23F4C
330
1F71E
100
AcDbEntity
  8
寸法
 62
     0
 48
50.0
370
    -2
100
AcDbBlockReference
  2
_DOTSMALL
 10
10018.6
 20
8808.971425227481
 30
0.0
 41
100.0
 42
100.0
 43
100.0
  0
MTEXT
  5
23F4D
330
1F71E
100
AcDbEntity
  8
寸法
 62
     7
 48
50.0
100
AcDbMText
 10
10291.7066017178
 20
8908.983236251103
 30
0.0
 40
120.0
 41
0.0
 71
     5
 72
     1
  1
\A1;123
  7
STYLE1
 73
     1
 44
1.0
1001
ACAD
1000
MTEXTBEGIN
1070
    73
1070
     1
1070
    44
1040
1.0
1070
    74
1070
     0
1000
MTEXTEND
  0
POINT
  5
23F4E
330
1F71E
100
AcDbEntity
  8
DEFPOINTS
 62
     0
 48
50.0
100
AcDbPoint
 10
10018.6
 20
8063.211798685397
 30
0.0
  0
POINT
  5
23F4F
330
1F71E
100
AcDbEntity
  8
DEFPOINTS
 62
     0
 48
50.0
100
AcDbPoint
 10
9895.600000000001
 20
7990.211798685398
 30
0.0
  0
POINT
  5
23F50
330
1F71E
100
AcDbEntity
  8
DEFPOINTS
 62
     0
 48
50.0
100
AcDbPoint
 10
9895.600000000001
 20
8808.971425227481
 30
0.0
  0
ENDBLK
  5
1F72A
330
1F71E
100
AcDbEntity
  8
0
 48
50.0
100
AcDbBlockEnd
  0
BLOCK
  5
206EE
330
206E4
100
AcDbEntity
  8
0
 48
50.0
100
AcDbBlockBegin
  2
*D21
 70
     1
 10
0.0
 20
0.0
 30
0.0
  3
*D21
  1

  0
LINE
  5
23F3E
330
206E4
100
AcDbEntity
  8
寸法
 62
     0
 48
50.0
370
    -2
100
AcDbLine
 10
8223.600000000001
 20
7233.211798685397
 30
0.0
 11
8223.600000000001
 21
8650.121564333726
 31
0.0
  0
LINE
  5
23F3F
330
206E4
100
AcDbEntity
  8
寸法
 62
     0
 48
50.0
370
    -2
100
AcDbLine
 10
7326.599999999996
 20
7233.211798685406
 30
0.0
 11
7326.599999999996
 21
8650.121564333726
 31
0.0
  0
LINE
  5
23F40
330
206E4
100
AcDbEntity
  8
寸法
 62
     0
 48
50.0
370
    -2
100
AcDbLine
 10
8223.600000000001
 20
8590.121564333726
 30
0.0
 11
7326.599999999996
 21
8590.121564333726
 31
0.0
  0
INSERT
  5
23F41
330
206E4
100
AcDbEntity
  8
寸法
 62
     0
 48
50.0
370
    -2
100
AcDbBlockReference
  2
_DOTSMALL
 10
8223.600000000001
 20
8590.121564333726
 30
0.0
 41
100.0
 42
100.0
 43
100.0
  0
INSERT
  5
23F42
330
206E4
100
AcDbEntity
  8
寸法
 62
     0
 48
50.0
370
    -2
100
AcDbBlockReference
  2
_DOTSMALL
 10
7326.599999999996
 20
8590.121564333726
 30
0.0
 41
100.0
 42
100.0
 43
100.0
 50
180.0
  0
MTEXT
  5
23F43
330
206E4
100
AcDbEntity
  8
寸法
 62
     7
 48
50.0
100
AcDbMText
 10
7775.099999999999
 20
8690.121564333725
 30
0.0
 40
120.0
 41
0.0
 71
     5
 72
     1
  1
\A1;897
  7
STYLE1
 73
     1
 44
1.0
1001
ACAD
1000
MTEXTBEGIN
1070
    73
1070
     1
1070
    44
1040
1.0
1070
    74
1070
     0
1000
MTEXTEND
  0
POINT
  5
23F44
330
206E4
100
AcDbEntity
  8
DEFPOINTS
 62
     0
 48
50.0
100
AcDbPoint
 10
8223.600000000001
 20
7213.211798685397
 30
0.0
  0
POINT
  5
23F45
330
206E4
100
AcDbEntity
  8
DEFPOINTS
 62
     0
 48
50.0
100
AcDbPoint
 10
7326.599999999996
 20
7213.211798685406
 30
0.0
  0
POINT
  5
23F46
330
206E4
100
AcDbEntity
  8
DEFPOINTS
 62
     0
 48
50.0
100
AcDbPoint
 10
7326.599999999996
 20
8590.121564333726
 30
0.0
  0
ENDBLK
  5
206EF
330
206E4
100
AcDbEntity
  8
0
 48
50.0
100
AcDbBlockEnd
  0
BLOCK
  5
2075C
330
20752
100
AcDbEntity
  8
0
 48
50.0
100
AcDbBlockBegin
  2
*D22
 70
     1
 10
0.0
 20
0.0
 30
0.0
  3
*D22
  1

  0
LINE
  5
23F35
330
20752
100
AcDbEntity
  8
寸法
 62
     0
 48
50.0
370
    -2
100
AcDbLine
 10
9120.600000000001
 20
7233.211798685406
 30
0.0
 11
9120.600000000001
 21
8650.121564333726
 31
0.0
  0
LINE
  5
23F36
330
20752
100
AcDbEntity
  8
寸法
 62
     0
 48
50.0
370
    -2
100
AcDbLine
 10
8223.600000000001
 20
7233.211798685397
 30
0.0
 11
8223.600000000001
 21
8650.121564333726
 31
0.0
  0
LINE
  5
23F37
330
20752
100
AcDbEntity
  8
寸法
 62
     0
 48
50.0
370
    -2
100
AcDbLine
 10
9120.600000000001
 20
8590.121564333726
 30
0.0
 11
8223.600000000001
 21
8590.121564333726
 31
0.0
  0
INSERT
  5
23F38
330
20752
100
AcDbEntity
  8
寸法
 62
     0
 48
50.0
370
    -2
100
AcDbBlockReference
  2
_DOTSMALL
 10
9120.600000000001
 20
8590.121564333726
 30
0.0
 41
100.0
 42
100.0
 43
100.0
  0
INSERT
  5
23F39
330
20752
100
AcDbEntity
  8
寸法
 62
     0
 48
50.0
370
    -2
100
AcDbBlockReference
  2
_DOTSMALL
 10
8223.600000000001
 20
8590.121564333726
 30
0.0
 41
100.0
 42
100.0
 43
100.0
 50
180.0
  0
MTEXT
  5
23F3A
330
20752
100
AcDbEntity
  8
寸法
 62
     7
 48
50.0
100
AcDbMText
 10
8672.1
 20
8690.121564333725
 30
0.0
 40
120.0
 41
0.0
 71
     5
 72
     1
  1
\A1;897
  7
STYLE1
 73
     1
 44
1.0
1001
ACAD
1000
MTEXTBEGIN
1070
    73
1070
     1
1070
    44
1040
1.0
1070
    74
1070
     0
1000
MTEXTEND
  0
POINT
  5
23F3B
330
20752
100
AcDbEntity
  8
DEFPOINTS
 62
     0
 48
50.0
100
AcDbPoint
 10
9120.600000000001
 20
7213.211798685406
 30
0.0
  0
POINT
  5
23F3C
330
20752
100
AcDbEntity
  8
DEFPOINTS
 62
     0
 48
50.0
100
AcDbPoint
 10
8223.600000000001
 20
7213.211798685397
 30
0.0
  0
POINT
  5
23F3D
330
20752
100
AcDbEntity
  8
DEFPOINTS
 62
     0
 48
50.0
100
AcDbPoint
 10
8223.600000000001
 20
8590.121564333726
 30
0.0
  0
ENDBLK
  5
2075D
330
20752
100
AcDbEntity
  8
0
 48
50.0
100
AcDbBlockEnd
  0
BLOCK
  5
20DEE
330
20DE2
100
AcDbEntity
  8
0
 48
50.0
100
AcDbBlockBegin
  2
*D23
 70
     1
 10
0.0
 20
0.0
 30
0.0
  3
*D23
  1

  0
LINE
  5
23F2A
330
20DE2
100
AcDbEntity
  8
寸法
 62
     0
 48
50.0
370
    -2
100
AcDbLine
 10
10018.6
 20
8083.211798685397
 30
0.0
 11
10018.6
 21
9081.432120744318
 31
0.0
  0
LINE
  5
23F2B
330
20DE2
100
AcDbEntity
  8
寸法
 62
     0
 48
50.0
370
    -2
100
AcDbLine
 10
10063.6
 20
8828.97142522748
 30
0.0
 11
10063.6
 21
9081.432120744318
 31
0.0
  0
LINE
  5
23F2C
330
20DE2
100
AcDbEntity
  8
寸法
 62
     0
 48
50.0
370
    -2
100
AcDbLine
 10
10018.6
 20
9021.43212074432
 30
0.0
 11
9918.600000000001
 21
9021.43212074432
 31
0.0
  0
LINE
  5
23F2D
330
20DE2
100
AcDbEntity
  8
寸法
 62
     0
 48
50.0
370
    -2
100
AcDbLine
 10
10063.6
 20
9021.43212074432
 30
0.0
 11
10400.94924240492
 21
9021.43212074432
 31
0.0
  0
LINE
  5
23F2E
330
20DE2
100
AcDbEntity
  8
寸法
 62
     0
 48
50.0
370
    -2
100
AcDbLine
 10
10018.6
 20
9021.43212074432
 30
0.0
 11
10063.6
 21
9021.43212074432
 31
0.0
  0
INSERT
  5
23F2F
330
20DE2
100
AcDbEntity
  8
寸法
 62
     0
 48
50.0
370
    -2
100
AcDbBlockReference
  2
_DOTSMALL
 10
10018.6
 20
9021.43212074432
 30
0.0
 41
100.0
 42
100.0
 43
100.0
  0
INSERT
  5
23F30
330
20DE2
100
AcDbEntity
  8
寸法
 62
     0
 48
50.0
370
    -2
100
AcDbBlockReference
  2
_DOTSMALL
 10
10063.6
 20
9021.43212074432
 30
0.0
 41
100.0
 42
100.0
 43
100.0
 50
180.0
  0
MTEXT
  5
23F31
330
20DE2
100
AcDbEntity
  8
寸法
 62
     7
 48
50.0
100
AcDbMText
 10
10334.77462120246
 20
9121.432120744319
 30
0.0
 40
120.0
 41
0.0
 71
     5
 72
     1
  1
\A1;a
  7
STYLE1
 73
     1
 44
1.0
1001
ACAD
1000
MTEXTBEGIN
1070
    73
1070
     1
1070
    44
1040
1.0
1070
    74
1070
     0
1000
MTEXTEND
  0
POINT
  5
23F32
330
20DE2
100
AcDbEntity
  8
DEFPOINTS
 62
     0
 48
50.0
100
AcDbPoint
 10
10018.6
 20
8063.211798685397
 30
0.0
  0
POINT
  5
23F33
330
20DE2
100
AcDbEntity
  8
DEFPOINTS
 62
     0
 48
50.0
100
AcDbPoint
 10
10063.6
 20
8808.971425227481
 30
0.0
  0
POINT
  5
23F34
330
20DE2
100
AcDbEntity
  8
DEFPOINTS
 62
     0
 48
50.0
100
AcDbPoint
 10
10063.6
 20
9021.43212074432
 30
0.0
  0
ENDBLK
  5
20DEF
330
20DE2
100
AcDbEntity
  8
0
 48
50.0
100
AcDbBlockEnd
  0
BLOCK
  5
20E08
330
20DFC
100
AcDbEntity
  8
0
 48
50.0
100
AcDbBlockBegin
  2
*D24
 70
     1
 10
0.0
 20
0.0
 30
0.0
  3
*D24
  1

  0
LINE
  5
23F1F
330
20DFC
100
AcDbEntity
  8
寸法
 62
     0
 48
50.0
370
    -2
100
AcDbLine
 10
6383.600000000004
 20
8828.97142522748
 30
0.0
 11
6383.600000000004
 21
9081.432120744318
 31
0.0
  0
LINE
  5
23F20
330
20DFC
100
AcDbEntity
  8
寸法
 62
     0
 48
50.0
370
    -2
100
AcDbLine
 10
6428.6
 20
8083.211798685397
 30
0.0
 11
6428.6
 21
9081.432120744318
 31
0.0
  0
LINE
  5
23F21
330
20DFC
100
AcDbEntity
  8
寸法
 62
     0
 48
50.0
370
    -2
100
AcDbLine
 10
6428.6
 20
9021.43212074432
 30
0.0
 11
6528.6
 21
9021.43212074432
 31
0.0
  0
LINE
  5
23F22
330
20DFC
100
AcDbEntity
  8
寸法
 62
     0
 48
50.0
370
    -2
100
AcDbLine
 10
6383.600000000004
 20
9021.43212074432
 30
0.0
 11
6046.250757595083
 21
9021.43212074432
 31
0.0
  0
LINE
  5
23F23
330
20DFC
100
AcDbEntity
  8
寸法
 62
     0
 48
50.0
370
    -2
100
AcDbLine
 10
6428.6
 20
9021.43212074432
 30
0.0
 11
6383.600000000004
 21
9021.43212074432
 31
0.0
  0
INSERT
  5
23F24
330
20DFC
100
AcDbEntity
  8
寸法
 62
     0
 48
50.0
370
    -2
100
AcDbBlockReference
  2
_DOTSMALL
 10
6428.6
 20
9021.43212074432
 30
0.0
 41
100.0
 42
100.0
 43
100.0
 50
180.0
  0
INSERT
  5
23F25
330
20DFC
100
AcDbEntity
  8
寸法
 62
     0
 48
50.0
370
    -2
100
AcDbBlockReference
  2
_DOTSMALL
 10
6383.600000000004
 20
9021.43212074432
 30
0.0
 41
100.0
 42
100.0
 43
100.0
  0
MTEXT
  5
23F26
330
20DFC
100
AcDbEntity
  8
寸法
 62
     7
 48
50.0
100
AcDbMText
 10
6112.425378797541
 20
9121.432120744319
 30
0.0
 40
120.0
 41
0.0
 71
     5
 72
     1
  1
\A1;a
  7
STYLE1
 73
     1
 44
1.0
1001
ACAD
1000
MTEXTBEGIN
1070
    73
1070
     1
1070
    44
1040
1.0
1070
    74
1070
     0
1000
MTEXTEND
  0
POINT
  5
23F27
330
20DFC
100
AcDbEntity
  8
DEFPOINTS
 62
     0
 48
50.0
100
AcDbPoint
 10
6383.600000000004
 20
8808.971425227481
 30
0.0
  0
POINT
  5
23F28
330
20DFC
100
AcDbEntity
  8
DEFPOINTS
 62
     0
 48
50.0
100
AcDbPoint
 10
6428.6
 20
8063.211798685397
 30
0.0
  0
POINT
  5
23F29
330
20DFC
100
AcDbEntity
  8
DEFPOINTS
 62
     0
 48
50.0
100
AcDbPoint
 10
6428.6
 20
9021.43212074432
 30
0.0
  0
ENDBLK
  5
20E09
330
20DFC
100
AcDbEntity
  8
0
 48
50.0
100
AcDbBlockEnd
  0
BLOCK
  5
20E22
330
20E16
100
AcDbEntity
  8
0
 48
50.0
100
AcDbBlockBegin
  2
*D25
 70
     1
 10
0.0
 20
0.0
 30
0.0
  3
*D25
  1

  0
LINE
  5
23F14
330
20E16
100
AcDbEntity
  8
寸法
 62
     0
 48
50.0
370
    -2
100
AcDbLine
 10
5912.657733986179
 20
8138.211798685402
 30
0.0
 11
5620.714637266781
 21
8138.211798685402
 31
0.0
  0
LINE
  5
23F15
330
20E16
100
AcDbEntity
  8
寸法
 62
     0
 48
50.0
370
    -2
100
AcDbLine
 10
6408.599999999999
 20
8063.211798685397
 30
0.0
 11
5620.714637266781
 21
8063.211798685399
 31
0.0
  0
LINE
  5
23F16
330
20E16
100
AcDbEntity
  8
寸法
 62
     0
 48
50.0
370
    -2
100
AcDbLine
 10
5680.714637266781
 20
8138.211798685402
 30
0.0
 11
5680.714637266781
 21
8238.211798685401
 31
0.0
  0
LINE
  5
23F17
330
20E16
100
AcDbEntity
  8
寸法
 62
     0
 48
50.0
370
    -2
100
AcDbLine
 10
5680.714637266781
 20
8063.211798685399
 30
0.0
 11
5680.714637266781
 21
7963.211798685398
 31
0.0
  0
LINE
  5
23F18
330
20E16
100
AcDbEntity
  8
寸法
 62
     0
 48
50.0
370
    -2
100
AcDbLine
 10
5680.714637266781
 20
8138.211798685402
 30
0.0
 11
5680.714637266781
 21
8063.211798685399
 31
0.0
  0
INSERT
  5
23F19
330
20E16
100
AcDbEntity
  8
寸法
 62
     0
 48
50.0
370
    -2
100
AcDbBlockReference
  2
_DOTSMALL
 10
5680.714637266781
 20
8138.211798685402
 30
0.0
 41
100.0
 42
100.0
 43
100.0
 50
270.0
  0
INSERT
  5
23F1A
330
20E16
100
AcDbEntity
  8
寸法
 62
     0
 48
50.0
370
    -2
100
AcDbBlockReference
  2
_DOTSMALL
 10
5680.714637266781
 20
8063.211798685399
 30
0.0
 41
100.0
 42
100.0
 43
100.0
 50
90.0
  0
MTEXT
  5
23F1B
330
20E16
100
AcDbEntity
  8
寸法
 62
     7
 48
50.0
100
AcDbMText
 10
5580.71463726678
 20
8100.7117986854
 30
0.0
 40
120.0
 41
0.0
 71
     5
 72
     1
  1
\A1;c
  7
STYLE1
 11
0.0000000000000001
 21
1.0
 31
0.0
 73
     1
 44
1.0
1001
ACAD
1000
MTEXTBEGIN
1070
    73
1070
     1
1070
    44
1040
1.0
1070
    74
1070
     0
1000
MTEXTEND
  0
POINT
  5
23F1C
330
20E16
100
AcDbEntity
  8
DEFPOINTS
 62
     0
 48
50.0
100
AcDbPoint
 10
5932.657733986179
 20
8138.211798685402
 30
0.0
  0
POINT
  5
23F1D
330
20E16
100
AcDbEntity
  8
DEFPOINTS
 62
     0
 48
50.0
100
AcDbPoint
 10
6428.6
 20
8063.211798685397
 30
0.0
  0
POINT
  5
23F1E
330
20E16
100
AcDbEntity
  8
DEFPOINTS
 62
     0
 48
50.0
100
AcDbPoint
 10
5680.714637266781
 20
8063.211798685399
 30
0.0
  0
ENDBLK
  5
20E23
330
20E16
100
AcDbEntity
  8
0
 48
50.0
100
AcDbBlockEnd
  0
BLOCK
  5
20E47
330
20E3B
100
AcDbEntity
  8
0
 48
50.0
100
AcDbBlockBegin
  2
*D26
 70
     1
 10
0.0
 20
0.0
 30
0.0
  3
*D26
  1

  0
LINE
  5
23F09
330
20E3B
100
AcDbEntity
  8
寸法
 62
     0
 48
50.0
370
    -2
100
AcDbLine
 10
6408.599999999999
 20
6263.211798685386
 30
0.0
 11
5620.714637266781
 21
6263.211798685388
 31
0.0
  0
LINE
  5
23F0A
330
20E3B
100
AcDbEntity
  8
寸法
 62
     0
 48
50.0
370
    -2
100
AcDbLine
 10
5912.657733986179
 20
6208.211798685408
 30
0.0
 11
5620.714637266781
 21
6208.211798685408
 31
0.0
  0
LINE
  5
23F0B
330
20E3B
100
AcDbEntity
  8
寸法
 62
     0
 48
50.0
370
    -2
100
AcDbLine
 10
5680.714637266781
 20
6263.211798685388
 30
0.0
 11
5680.714637266781
 21
6363.211798685387
 31
0.0
  0
LINE
  5
23F0C
330
20E3B
100
AcDbEntity
  8
寸法
 62
     0
 48
50.0
370
    -2
100
AcDbLine
 10
5680.714637266781
 20
6208.211798685408
 30
0.0
 11
5680.71463726678
 21
6108.211798685409
 31
0.0
  0
LINE
  5
23F0D
330
20E3B
100
AcDbEntity
  8
寸法
 62
     0
 48
50.0
370
    -2
100
AcDbLine
 10
5680.714637266781
 20
6263.211798685388
 30
0.0
 11
5680.714637266781
 21
6208.211798685408
 31
0.0
  0
INSERT
  5
23F0E
330
20E3B
100
AcDbEntity
  8
寸法
 62
     0
 48
50.0
370
    -2
100
AcDbBlockReference
  2
_DOTSMALL
 10
5680.714637266781
 20
6263.211798685388
 30
0.0
 41
100.0
 42
100.0
 43
100.0
 50
270.0
  0
INSERT
  5
23F0F
330
20E3B
100
AcDbEntity
  8
寸法
 62
     0
 48
50.0
370
    -2
100
AcDbBlockReference
  2
_DOTSMALL
 10
5680.714637266781
 20
6208.211798685408
 30
0.0
 41
100.0
 42
100.0
 43
100.0
 50
90.0
  0
MTEXT
  5
23F10
330
20E3B
100
AcDbEntity
  8
寸法
 62
     7
 48
50.0
100
AcDbMText
 10
5580.71463726678
 20
6235.711798685399
 30
0.0
 40
120.0
 41
0.0
 71
     5
 72
     1
  1
\A1;b
  7
STYLE1
 11
0.0000000000000001
 21
1.0
 31
0.0
 73
     1
 44
1.0
1001
ACAD
1000
MTEXTBEGIN
1070
    73
1070
     1
1070
    44
1040
1.0
1070
    74
1070
     0
1000
MTEXTEND
  0
POINT
  5
23F11
330
20E3B
100
AcDbEntity
  8
DEFPOINTS
 62
     0
 48
50.0
100
AcDbPoint
 10
6428.6
 20
6263.211798685386
 30
0.0
  0
POINT
  5
23F12
330
20E3B
100
AcDbEntity
  8
DEFPOINTS
 62
     0
 48
50.0
100
AcDbPoint
 10
5932.65773398618
 20
6208.211798685408
 30
0.0
  0
POINT
  5
23F13
330
20E3B
100
AcDbEntity
  8
DEFPOINTS
 62
     0
 48
50.0
100
AcDbPoint
 10
5680.714637266781
 20
6208.211798685408
 30
0.0
  0
ENDBLK
  5
20E48
330
20E3B
100
AcDbEntity
  8
0
 48
50.0
100
AcDbBlockEnd
  0
BLOCK
  5
23E22
330
23E19
100
AcDbEntity
  8
0
 48
50.0
100
AcDbBlockBegin
  2
*D27
 70
     1
 10
0.0
 20
0.0
 30
0.0
  3
*D27
  1

  0
LINE
  5
244A4
330
23E19
100
AcDbEntity
  8
寸法
 62
     0
 48
50.0
370
    -2
100
AcDbLine
 10
8556.71248497426
 20
2247.058554410158
 30
0.0
 11
9224.048234685318
 21
2247.058554410157
 31
0.0
  0
LINE
  5
244A5
330
23E19
100
AcDbEntity
  8
寸法
 62
     0
 48
50.0
370
    -2
100
AcDbLine
 10
8556.71248497426
 20
1842.058554410156
 30
0.0
 11
9224.048234685318
 21
1842.058554410155
 31
0.0
  0
LINE
  5
244A6
330
23E19
100
AcDbEntity
  8
寸法
 62
     0
 48
50.0
370
    -2
100
AcDbLine
 10
9164.048234685317
 20
2247.058554410158
 30
0.0
 11
9164.048234685317
 21
1842.058554410155
 31
0.0
  0
INSERT
  5
244A7
330
23E19
100
AcDbEntity
  8
寸法
 62
     0
 48
50.0
370
    -2
100
AcDbBlockReference
  2
_DOTSMALL
 10
9164.048234685317
 20
2247.058554410158
 30
0.0
 41
100.0
 42
100.0
 43
100.0
 50
90.0
  0
INSERT
  5
244A8
330
23E19
100
AcDbEntity
  8
寸法
 62
     0
 48
50.0
370
    -2
100
AcDbBlockReference
  2
_DOTSMALL
 10
9164.048234685317
 20
1842.058554410155
 30
0.0
 41
100.0
 42
100.0
 43
100.0
 50
270.0
  0
MTEXT
  5
244A9
330
23E19
100
AcDbEntity
  8
寸法
 62
     7
 48
50.0
100
AcDbMText
 10
9064.048234685317
 20
2044.558554410158
 30
0.0
 40
120.0
 41
0.0
 71
     5
 72
     1
  1
\A1;180
  7
STYLE1
 11
0.0000000000000001
 21
1.0
 31
0.0
 73
     1
 44
1.0
1001
ACAD
1000
MTEXTBEGIN
1070
    73
1070
     1
1070
    44
1040
1.0
1070
    74
1070
     0
1000
MTEXTEND
  0
POINT
  5
244AA
330
23E19
100
AcDbEntity
  8
DEFPOINTS
 62
     0
 48
50.0
100
AcDbPoint
 10
8536.712484974261
 20
2247.058554410158
 30
0.0
  0
POINT
  5
244AB
330
23E19
100
AcDbEntity
  8
DEFPOINTS
 62
     0
 48
50.0
100
AcDbPoint
 10
8536.712484974261
 20
1842.058554410156
 30
0.0
  0
POINT
  5
244AC
330
23E19
100
AcDbEntity
  8
DEFPOINTS
 62
     0
 48
50.0
100
AcDbPoint
 10
9164.048234685317
 20
1842.058554410155
 30
0.0
  0
ENDBLK
  5
23E23
330
23E19
100
AcDbEntity
  8
0
 48
50.0
100
AcDbBlockEnd
  0
BLOCK
  5
23E30
330
23E24
100
AcDbEntity
  8
0
 48
50.0
100
AcDbBlockBegin
  2
*D28
 70
     1
 10
0.0
 20
0.0
 30
0.0
  3
*D28
  1

  0
LINE
  5
244AD
330
23E24
100
AcDbEntity
  8
寸法
 62
     0
 48
50.0
370
    -2
100
AcDbLine
 10
8322.71248497426
 20
2313.008554410158
 30
0.0
 11
9569.116567334095
 21
2313.008554410157
 31
0.0
  0
LINE
  5
244AE
330
23E24
100
AcDbEntity
  8
寸法
 62
     0
 48
50.0
370
    -2
100
AcDbLine
 10
8556.71248497426
 20
2247.058554410158
 30
0.0
 11
9569.116567334095
 21
2247.058554410157
 31
0.0
  0
LINE
  5
244AF
330
23E24
100
AcDbEntity
  8
寸法
 62
     0
 48
50.0
370
    -2
100
AcDbLine
 10
9509.116567334094
 20
2313.008554410157
 30
0.0
 11
9509.116567334094
 21
2413.008554410157
 31
0.0
  0
LINE
  5
244B0
330
23E24
100
AcDbEntity
  8
寸法
 62
     0
 48
50.0
370
    -2
100
AcDbLine
 10
9509.116567334094
 20
2247.058554410157
 30
0.0
 11
9509.116567334094
 21
1515.040747567192
 31
0.0
  0
LINE
  5
244B1
330
23E24
100
AcDbEntity
  8
寸法
 62
     0
 48
50.0
370
    -2
100
AcDbLine
 10
9509.116567334094
 20
2313.008554410157
 30
0.0
 11
9509.116567334094
 21
2247.058554410157
 31
0.0
  0
INSERT
  5
244B2
330
23E24
100
AcDbEntity
  8
寸法
 62
     0
 48
50.0
370
    -2
100
AcDbBlockReference
  2
_DOTSMALL
 10
9509.116567334094
 20
2313.008554410157
 30
0.0
 41
100.0
 42
100.0
 43
100.0
 50
270.0
  0
INSERT
  5
244B3
330
23E24
100
AcDbEntity
  8
寸法
 62
     0
 48
50.0
370
    -2
100
AcDbBlockReference
  2
_DOTSMALL
 10
9509.116567334094
 20
2247.058554410157
 30
0.0
 41
100.0
 42
100.0
 43
100.0
 50
90.0
  0
MTEXT
  5
244B4
330
23E24
100
AcDbEntity
  8
寸法
 62
     7
 48
50.0
100
AcDbMText
 10
9409.104756310474
 20
1781.049650988676
 30
0.0
 40
120.0
 41
0.0
 71
     5
 72
     1
  1
\A1;20～25
  7
STYLE1
 11
0.0000000000000001
 21
1.0
 31
0.0
 73
     1
 44
1.0
1001
ACAD
1000
MTEXTBEGIN
1070
    73
1070
     1
1070
    44
1040
1.0
1070
    74
1070
     0
1000
MTEXTEND
  0
POINT
  5
244B5
330
23E24
100
AcDbEntity
  8
DEFPOINTS
 62
     0
 48
50.0
100
AcDbPoint
 10
8302.712484974263
 20
2313.008554410158
 30
0.0
  0
POINT
  5
244B6
330
23E24
100
AcDbEntity
  8
DEFPOINTS
 62
     0
 48
50.0
100
AcDbPoint
 10
8536.712484974261
 20
2247.058554410158
 30
0.0
  0
POINT
  5
244B7
330
23E24
100
AcDbEntity
  8
DEFPOINTS
 62
     0
 48
50.0
100
AcDbPoint
 10
9509.116567334094
 20
2247.058554410157
 30
0.0
  0
ENDBLK
  5
23E31
330
23E24
100
AcDbEntity
  8
0
 48
50.0
100
AcDbBlockEnd
  0
BLOCK
  5
23E3C
330
23E32
100
AcDbEntity
  8
0
 48
50.0
100
AcDbBlockBegin
  2
*D29
 70
     1
 10
0.0
 20
0.0
 30
0.0
  3
*D29
  1

  0
LINE
  5
244B8
330
23E32
100
AcDbEntity
  8
寸法
 62
     0
 48
50.0
370
    -2
100
AcDbLine
 10
5874.163343502767
 20
2247.058554410158
 30
0.0
 11
5073.518405466704
 21
2247.058554410158
 31
0.0
  0
LINE
  5
244B9
330
23E32
100
AcDbEntity
  8
寸法
 62
     0
 48
50.0
370
    -2
100
AcDbLine
 10
5614.163343502773
 20
1267.058554410158
 30
0.0
 11
5073.518405466703
 21
1267.058554410158
 31
0.0
  0
LINE
  5
244BA
330
23E32
100
AcDbEntity
  8
寸法
 62
     0
 48
50.0
370
    -2
100
AcDbLine
 10
5133.518405466705
 20
2247.058554410158
 30
0.0
 11
5133.518405466703
 21
1267.058554410158
 31
0.0
  0
INSERT
  5
244BB
330
23E32
100
AcDbEntity
  8
寸法
 62
     0
 48
50.0
370
    -2
100
AcDbBlockReference
  2
_DOTSMALL
 10
5133.518405466705
 20
2247.058554410158
 30
0.0
 41
100.0
 42
100.0
 43
100.0
 50
90.0
  0
INSERT
  5
244BC
330
23E32
100
AcDbEntity
  8
寸法
 62
     0
 48
50.0
370
    -2
100
AcDbBlockReference
  2
_DOTSMALL
 10
5133.518405466703
 20
1267.058554410158
 30
0.0
 41
100.0
 42
100.0
 43
100.0
 50
270.0
  0
MTEXT
  5
244BD
330
23E32
100
AcDbEntity
  8
寸法
 62
     7
 48
50.0
100
AcDbMText
 10
5033.518405466703
 20
1757.058554410158
 30
0.0
 40
120.0
 41
0.0
 71
     5
 72
     1
  1
\A1;540
  7
STYLE1
 11
0.0000000000000001
 21
1.0
 31
0.0
 73
     1
 44
1.0
1001
ACAD
1000
MTEXTBEGIN
1070
    73
1070
     1
1070
    44
1040
1.0
1070
    74
1070
     0
1000
MTEXTEND
  0
POINT
  5
244BE
330
23E32
100
AcDbEntity
  8
DEFPOINTS
 62
     0
 48
50.0
100
AcDbPoint
 10
5894.163343502767
 20
2247.058554410158
 30
0.0
  0
POINT
  5
244BF
330
23E32
100
AcDbEntity
  8
DEFPOINTS
 62
     0
 48
50.0
100
AcDbPoint
 10
5634.163343502772
 20
1267.058554410158
 30
0.0
  0
POINT
  5
244C0
330
23E32
100
AcDbEntity
  8
DEFPOINTS
 62
     0
 48
50.0
100
AcDbPoint
 10
5133.518405466703
 20
1267.058554410158
 30
0.0
  0
ENDBLK
  5
23E3D
330
23E32
100
AcDbEntity
  8
0
 48
50.0
100
AcDbBlockEnd
  0
BLOCK
  5
23E48
330
23E3E
100
AcDbEntity
  8
0
 48
50.0
100
AcDbBlockBegin
  2
*D30
 70
     1
 10
0.0
 20
0.0
 30
0.0
  3
*D30
  1

  0
LINE
  5
244C1
330
23E3E
100
AcDbEntity
  8
寸法
 62
     0
 48
50.0
370
    -2
100
AcDbLine
 10
5734.163343502768
 20
1087.058554410158
 30
0.0
 11
5734.163343502768
 21
748.1064479542238
 31
0.0
  0
LINE
  5
244C2
330
23E3E
100
AcDbEntity
  8
寸法
 62
     0
 48
50.0
370
    -2
100
AcDbLine
 10
6294.163343502769
 20
1087.058554410158
 30
0.0
 11
6294.163343502769
 21
748.1064479542238
 31
0.0
  0
LINE
  5
244C3
330
23E3E
100
AcDbEntity
  8
寸法
 62
     0
 48
50.0
370
    -2
100
AcDbLine
 10
5734.163343502768
 20
808.1064479542238
 30
0.0
 11
6294.163343502769
 21
808.1064479542238
 31
0.0
  0
INSERT
  5
244C4
330
23E3E
100
AcDbEntity
  8
寸法
 62
     0
 48
50.0
370
    -2
100
AcDbBlockReference
  2
_DOTSMALL
 10
5734.163343502768
 20
808.1064479542238
 30
0.0
 41
100.0
 42
100.0
 43
100.0
 50
180.0
  0
INSERT
  5
244C5
330
23E3E
100
AcDbEntity
  8
寸法
 62
     0
 48
50.0
370
    -2
100
AcDbBlockReference
  2
_DOTSMALL
 10
6294.163343502769
 20
808.1064479542238
 30
0.0
 41
100.0
 42
100.0
 43
100.0
  0
MTEXT
  5
244C6
330
23E3E
100
AcDbEntity
  8
寸法
 62
     7
 48
50.0
100
AcDbMText
 10
6014.163343502768
 20
908.1064479542238
 30
0.0
 40
120.0
 41
0.0
 71
     5
 72
     1
  1
\A1;300
  7
STYLE1
 73
     1
 44
1.0
1001
ACAD
1000
MTEXTBEGIN
1070
    73
1070
     1
1070
    44
1040
1.0
1070
    74
1070
     0
1000
MTEXTEND
  0
POINT
  5
244C7
330
23E3E
100
AcDbEntity
  8
DEFPOINTS
 62
     0
 48
50.0
100
AcDbPoint
 10
5734.163343502768
 20
1107.058554410158
 30
0.0
  0
POINT
  5
244C8
330
23E3E
100
AcDbEntity
  8
DEFPOINTS
 62
     0
 48
50.0
100
AcDbPoint
 10
6294.163343502769
 20
1107.058554410158
 30
0.0
  0
POINT
  5
244C9
330
23E3E
100
AcDbEntity
  8
DEFPOINTS
 62
     0
 48
50.0
100
AcDbPoint
 10
6294.163343502769
 20
808.1064479542238
 30
0.0
  0
ENDBLK
  5
23E49
330
23E3E
100
AcDbEntity
  8
0
 48
50.0
100
AcDbBlockEnd
  0
BLOCK
  5
23E54
330
23E4A
100
AcDbEntity
  8
0
 48
50.0
100
AcDbBlockBegin
  2
*D31
 70
     1
 10
0.0
 20
0.0
 30
0.0
  3
*D31
  1

  0
LINE
  5
244CA
330
23E4A
100
AcDbEntity
  8
寸法
 62
     0
 48
50.0
370
    -2
100
AcDbLine
 10
5714.163343502767
 20
1567.058554410158
 30
0.0
 11
5496.137951337193
 21
1567.058554410158
 31
0.0
  0
LINE
  5
244CB
330
23E4A
100
AcDbEntity
  8
寸法
 62
     0
 48
50.0
370
    -2
100
AcDbLine
 10
5614.163343502773
 20
1267.058554410158
 30
0.0
 11
5496.137951337193
 21
1267.058554410158
 31
0.0
  0
LINE
  5
244CC
330
23E4A
100
AcDbEntity
  8
寸法
 62
     0
 48
50.0
370
    -2
100
AcDbLine
 10
5556.137951337193
 20
1567.058554410158
 30
0.0
 11
5556.137951337193
 21
1267.058554410158
 31
0.0
  0
INSERT
  5
244CD
330
23E4A
100
AcDbEntity
  8
寸法
 62
     0
 48
50.0
370
    -2
100
AcDbBlockReference
  2
_DOTSMALL
 10
5556.137951337193
 20
1567.058554410158
 30
0.0
 41
100.0
 42
100.0
 43
100.0
 50
90.0
  0
INSERT
  5
244CE
330
23E4A
100
AcDbEntity
  8
寸法
 62
     0
 48
50.0
370
    -2
100
AcDbBlockReference
  2
_DOTSMALL
 10
5556.137951337193
 20
1267.058554410158
 30
0.0
 41
100.0
 42
100.0
 43
100.0
 50
270.0
  0
MTEXT
  5
244CF
330
23E4A
100
AcDbEntity
  8
寸法
 62
     7
 48
50.0
100
AcDbMText
 10
5456.137951337193
 20
1417.058554410157
 30
0.0
 40
120.0
 41
0.0
 71
     5
 72
     1
  1
\A1;150
  7
STYLE1
 11
0.0000000000000001
 21
1.0
 31
0.0
 73
     1
 44
1.0
1001
ACAD
1000
MTEXTBEGIN
1070
    73
1070
     1
1070
    44
1040
1.0
1070
    74
1070
     0
1000
MTEXTEND
  0
POINT
  5
244D0
330
23E4A
100
AcDbEntity
  8
DEFPOINTS
 62
     0
 48
50.0
100
AcDbPoint
 10
5734.163343502768
 20
1567.058554410158
 30
0.0
  0
POINT
  5
244D1
330
23E4A
100
AcDbEntity
  8
DEFPOINTS
 62
     0
 48
50.0
100
AcDbPoint
 10
5634.163343502772
 20
1267.058554410158
 30
0.0
  0
POINT
  5
244D2
330
23E4A
100
AcDbEntity
  8
DEFPOINTS
 62
     0
 48
50.0
100
AcDbPoint
 10
5556.137951337193
 20
1267.058554410158
 30
0.0
  0
ENDBLK
  5
23E55
330
23E4A
100
AcDbEntity
  8
0
 48
50.0
100
AcDbBlockEnd
  0
BLOCK
  5
23E60
330
23E56
100
AcDbEntity
  8
0
 48
50.0
100
AcDbBlockBegin
  2
*D32
 70
     1
 10
0.0
 20
0.0
 30
0.0
  3
*D32
  1

  0
LINE
  5
244D3
330
23E56
100
AcDbEntity
  8
寸法
 62
     0
 48
50.0
370
    -2
100
AcDbLine
 10
6134.163343502768
 20
2267.058554410158
 30
0.0
 11
6134.163343502768
 21
2707.058554410158
 31
0.0
  0
LINE
  5
244D4
330
23E56
100
AcDbEntity
  8
寸法
 62
     0
 48
50.0
370
    -2
100
AcDbLine
 10
5894.163343502767
 20
2267.058554410158
 30
0.0
 11
5894.163343502767
 21
2707.058554410158
 31
0.0
  0
LINE
  5
244D5
330
23E56
100
AcDbEntity
  8
寸法
 62
     0
 48
50.0
370
    -2
100
AcDbLine
 10
6134.163343502768
 20
2647.058554410158
 30
0.0
 11
5894.163343502767
 21
2647.058554410158
 31
0.0
  0
INSERT
  5
244D6
330
23E56
100
AcDbEntity
  8
寸法
 62
     0
 48
50.0
370
    -2
100
AcDbBlockReference
  2
_DOTSMALL
 10
6134.163343502768
 20
2647.058554410158
 30
0.0
 41
100.0
 42
100.0
 43
100.0
  0
INSERT
  5
244D7
330
23E56
100
AcDbEntity
  8
寸法
 62
     0
 48
50.0
370
    -2
100
AcDbBlockReference
  2
_DOTSMALL
 10
5894.163343502767
 20
2647.058554410158
 30
0.0
 41
100.0
 42
100.0
 43
100.0
 50
180.0
  0
MTEXT
  5
244D8
330
23E56
100
AcDbEntity
  8
寸法
 62
     7
 48
50.0
100
AcDbMText
 10
6014.163343502767
 20
2747.07036543378
 30
0.0
 40
120.0
 41
0.0
 71
     5
 72
     1
  1
\A1;120
  7
STYLE1
 73
     1
 44
1.0
1001
ACAD
1000
MTEXTBEGIN
1070
    73
1070
     1
1070
    44
1040
1.0
1070
    74
1070
     0
1000
MTEXTEND
  0
POINT
  5
244D9
330
23E56
100
AcDbEntity
  8
DEFPOINTS
 62
     0
 48
50.0
100
AcDbPoint
 10
6134.163343502768
 20
2247.058554410158
 30
0.0
  0
POINT
  5
244DA
330
23E56
100
AcDbEntity
  8
DEFPOINTS
 62
     0
 48
50.0
100
AcDbPoint
 10
5894.163343502767
 20
2247.058554410158
 30
0.0
  0
POINT
  5
244DB
330
23E56
100
AcDbEntity
  8
DEFPOINTS
 62
     0
 48
50.0
100
AcDbPoint
 10
5894.163343502767
 20
2647.058554410158
 30
0.0
  0
ENDBLK
  5
23E61
330
23E56
100
AcDbEntity
  8
0
 48
50.0
100
AcDbBlockEnd
  0
BLOCK
  5
2405B
330
2404D
100
AcDbEntity
  8
0
 48
50.0
100
AcDbBlockBegin
  2
A$C0A512185
 70
     0
 10
0.0
 20
0.0
 30
0.0
  3
A$C0A512185
  1

  0
TEXT
  5
2404E
330
2404D
100
AcDbEntity
  8
文字
 62
     7
 48
50.0
100
AcDbText
 10
-1783.068162778003
 20
1031.557706291228
 30
0.0
 40
100.0
  1
NO.01      <縮尺> S=1/40
  7
STYLE2
100
AcDbText
  0
TEXT
  5
2404F
330
2404D
100
AcDbEntity
  8
文字
 62
     7
 48
50.0
100
AcDbText
 10
-1665.947414421596
 20
871.1744590657925
 30
0.0
 40
100.0
  1
～一般型・多雪地型～
  7
STYLE2
100
AcDbText
  0
TEXT
  5
24050
330
2404D
100
AcDbEntity
  8
文字
 62
     7
 48
50.0
100
AcDbText
 10
-3119.037401006623
 20
79.80631269190334
 30
0.0
 40
80.0
  1
※布基礎には換気口を設けてください。
  7
STYLE2
100
AcDbText
  0
TEXT
  5
24051
330
2404D
100
AcDbEntity
  8
文字
 62
     7
 48
50.0
100
AcDbText
 10
-3119.037401006623
 20
246.710924280189
 30
0.0
 40
80.0
  1
※寒冷地等は地域の実情に合わせた基礎にして下さい。
  7
STYLE2
100
AcDbText
  0
TEXT
  5
24052
330
2404D
100
AcDbEntity
  8
文字
 62
     7
 48
50.0
100
AcDbText
 10
-1962.612313401847
 20
483.8967129911412
 30
0.0
 40
160.0
  1
NXP-25ST・HT
  7
STYLE2
100
AcDbText
  0
LINE
  5
24053
330
2404D
100
AcDbEntity
  8
仕様書枠
  6
Continuous
 48
50.0
100
AcDbLine
 10
-2056.0
 20
1200.0
 30
0.0
 11
-2056.0
 21
800.0000000000001
 31
0.0
  0
LINE
  5
24054
330
2404D
100
AcDbEntity
  8
仕様書枠
 48
50.0
100
AcDbLine
 10
-3200.0
 20
800.0000000000001
 30
0.0
 11
-2056.0
 21
800.0000000000001
 31
0.0
  0
TEXT
  5
24055
330
2404D
100
AcDbEntity
  8
文字
 62
     7
 48
50.0
100
AcDbText
 10
-3105.763300015586
 20
477.2740661031256
 30
0.0
 40
160.0
  1
機種名
  7
STYLE2
100
AcDbText
  0
TEXT
  5
24056
330
2404D
100
AcDbEntity
  8
文字
 62
     7
 48
50.0
100
AcDbText
 10
-3144.220943423099
 20
895.0906074299407
 30
0.0
 40
200.0
  1
基 礎 図
  7
STYLE2
100
AcDbText
  0
LINE
  5
24057
330
2404D
100
AcDbEntity
  8
文字
 62
     7
 48
50.0
100
AcDbLine
 10
-3120.0
 20
400.0
 30
0.0
 11
-80.0
 21
400.0
 31
0.0
  0
LINE
  5
24058
330
2404D
100
AcDbEntity
  8
仕様書枠
 48
50.0
100
AcDbLine
 10
-3200.0
 20
1200.0
 30
0.0
 11
0.0
 21
1200.0
 31
0.0
  0
LINE
  5
24059
330
2404D
100
AcDbEntity
  8
仕様書枠
 48
50.0
100
AcDbLine
 10
0.0
 20
1200.0
 30
0.0
 11
0.0
 21
0.0
 31
0.0
  0
LINE
  5
2405A
330
2404D
100
AcDbEntity
  8
仕様書枠
  6
Continuous
 48
50.0
100
AcDbLine
 10
-3200.0
 20
1200.0
 30
0.0
 11
-3200.0
 21
0.000000000000018
 31
0.0
  0
ENDBLK
  5
2405C
330
2404D
100
AcDbEntity
  8
0
 48
50.0
100
AcDbBlockEnd
  0
ENDSEC
  0
SECTION
  2
ENTITIES
  0
MTEXT
  5
763F
330
747D
100
AcDbEntity
  8
0
100
AcDbMText
 10
302.846345836809
 20
280.1983726409901
 30
0.0
 40
3.5
 41
5.323721266742722
 71
     1
 72
     5
  1

  7
MSMINCHO
 73
     1
 44
1.0
1001
ACAD
1000
MTEXTBEGIN
1070
    73
1070
     1
1070
    44
1040
1.0
1070
    74
1070
     0
1000
MTEXTEND
  0
LINE
  5
10B57
330
747D
100
AcDbEntity
  8
補助
  6
PHANTOM
 62
   230
 48
50.0
100
AcDbLine
 10
139.9999999999995
 20
11409.6
 30
0.0
 11
16307.2
 21
11409.6
 31
0.0
  0
LINE
  5
10B5D
330
747D
100
AcDbEntity
  8
仕様書枠
 48
50.0
100
AcDbLine
 10
140.0
 20
0.0
 30
0.0
 11
16307.2
 21
-0.0000000000000909
 31
0.0
  0
LINE
  5
10B5E
330
747D
100
AcDbEntity
  8
補助
  6
PHANTOM
 62
   230
 48
50.0
100
AcDbLine
 10
16307.2
 20
11409.6
 30
0.0
 11
16307.2
 21
1200.0
 31
0.0
  0
LINE
  5
1903B
330
747D
100
AcDbEntity
  8
補助
  6
PHANTOM
 62
   230
 48
50.0
100
AcDbLine
 10
140.0
 20
0.0
 30
0.0
 11
139.9999999999995
 21
11409.6
 31
0.0
  0
LEADER
  5
1AC27
330
747D
100
AcDbEntity
  8
寸法
 48
50.0
100
AcDbLeader
  3
INABA_S40G
 73
     0
 74
     0
 75
     1
 40
120.0
 41
680.0
 76
     3
 10
10018.69549961499
 20
7222.315249872557
 30
0.0
 10
10225.46907400128
 20
6946.301336304724
 30
0.0
 10
10325.46907400128
 20
6946.301336304724
 30
0.0
340
1AC28
1001
ACAD
1000
DSTYLE
1002
{
1070
   341
1005
0
1002
}
  0
MTEXT
  5
1AC28
102
{ACAD_REACTORS
330
1AC27
102
}
330
747D
100
AcDbEntity
  8
部品1
 62
     7
 48
50.0
100
AcDbMText
 10
11045.46907400128
 20
7046.301336304724
 30
0.0
 40
120.0
 41
0.0
 71
     6
 72
     1
  1
\A1;床下換気口
  7
STYLE1
 73
     1
 44
1.0
1001
ACAD
1000
MTEXTBEGIN
1070
    73
1070
     1
1070
    44
1040
1.0
1070
    74
1070
     0
1000
MTEXTEND
  0
TEXT
  5
1AC29
330
747D
100
AcDbEntity
  8
部品1
 48
50.0
100
AcDbText
 10
10367.43013846118
 20
5988.120897348607
 30
0.0
 40
80.0
  1
(a=45,b=55,c=75)
  7
STYLE1
100
AcDbText
  0
TEXT
  5
1AC2A
330
747D
100
AcDbEntity
  8
部品1
 48
50.0
100
AcDbText
 10
10208.85112970688
 20
6094.96611821736
 30
0.0
 40
80.0
  1
※a,b,cは屋根の出幅です。
  7
STYLE1
100
AcDbText
  0
MTEXT
  5
1AC2B
102
{ACAD_REACTORS
330
1AC2C
102
}
330
747D
100
AcDbEntity
  8
部品1
 62
     7
 48
50.0
100
AcDbMText
 10
11006.63832569548
 20
6274.276805150435
 30
0.0
 40
120.0
 41
0.0
 71
     6
 72
     1
  1
\A1;屋根の外寸
  7
STYLE1
 73
     1
 44
1.0
1001
ACAD
1000
MTEXTBEGIN
1070
    73
1070
     1
1070
    44
1040
1.0
1070
    74
1070
     0
1000
MTEXTEND
  0
LEADER
  5
1AC2C
330
747D
100
AcDbEntity
  8
寸法
 48
50.0
100
AcDbLeader
  3
INABA_S40G
 73
     0
 74
     0
 75
     1
 40
120.0
 41
688.0
 76
     3
 10
10068.69831350344
 20
6448.166148614011
 30
0.0
 10
10178.63832569548
 20
6174.276805150435
 30
0.0
 10
10278.63832569548
 20
6174.276805150435
 30
0.0
340
1AC2B
1001
ACAD
1000
DSTYLE
1002
{
1070
   341
1005
0
1002
}
  0
MTEXT
  5
1D2D5
102
{ACAD_REACTORS
330
1D2D6
102
}
330
747D
100
AcDbEntity
  8
部品1
 62
     7
 48
50.0
100
AcDbMText
 10
11213.99523070988
 20
8378.824542927903
 30
0.0
 40
120.0
 41
0.0
 71
     6
 72
     1
  1
アンカーボルト
  7
STYLE1
 73
     1
 44
1.0
1001
ACAD
1000
MTEXTBEGIN
1070
    73
1070
     1
1070
    44
1040
1.0
1070
    74
1070
     0
1000
MTEXTEND
  0
LEADER
  5
1D2D6
330
747D
100
AcDbEntity
  8
寸法
 48
50.0
100
AcDbLeader
  3
INABA_S40G
 73
     0
 74
     0
 75
     1
 40
120.0
 41
952.0
 76
     3
 10
9895.680085757
 20
7940.419643044106
 30
0.0
 10
10121.99523070988
 20
8278.824542927903
 30
0.0
 10
10221.99523070988
 20
8278.824542927903
 30
0.0
340
1D2D5
1001
ACAD
1000
DSTYLE
1002
{
1070
   341
1005
0
1002
}
  0
MTEXT
  5
1D332
102
{ACAD_REACTORS
330
1D333
102
}
330
747D
100
AcDbEntity
  8
部品1
 62
     7
 48
50.0
100
AcDbMText
 10
7728.440328953415
 20
6911.031857207877
 30
0.0
 40
120.0
 41
0.0
 71
     6
 72
     1
  1
CB
  7
STYLE1
 73
     1
 44
1.0
1001
ACAD
1000
MTEXTBEGIN
1070
    73
1070
     1
1070
    44
1040
1.0
1070
    74
1070
     0
1000
MTEXTEND
  0
LEADER
  5
1D333
330
747D
100
AcDbEntity
  8
寸法
 48
50.0
100
AcDbLeader
  3
INABA_S40G
 73
     0
 74
     0
 75
     1
 40
120.0
 41
149.591883092037
 76
     3
 10
7301.565642998735
 20
7087.045770775709
 30
0.0
 10
7438.848445861378
 20
6811.031857207876
 30
0.0
 10
7538.848445861377
 20
6811.031857207876
 30
0.0
340
1D332
1001
ACAD
1000
DSTYLE
1002
{
1070
   341
1005
0
1002
}
  0
DIMENSION
  5
1F244
330
747D
100
AcDbEntity
  8
寸法
 48
50.0
100
AcDbDimension
  2
*D1
 10
8670.14438614211
 20
6383.211798685408
 30
0.0
 11
8670.144386142109
 21
5926.923493717457
 31
0.0
 70
   160
 71
     5
 42
119.9999999999836
  3
INABA_S40G
100
AcDbAlignedDimension
 13
8307.419180988159
 23
6263.211798685425
 33
0.0
 14
8680.567870053115
 24
6383.211798685408
 34
0.0
 50
90.0
100
AcDbRotatedDimension
1001
ACAD
1000
DSTYLE
1002
{
1070
   341
1005
0
1002
}
  0
DIMENSION
  5
1F245
330
747D
100
AcDbEntity
  8
寸法
 48
50.0
100
AcDbDimension
  2
*D2
 10
8670.14438614211
 20
6493.211798685415
 30
0.0
 11
8670.144386142109
 21
6763.27085380354
 31
0.0
 70
   160
 71
     5
 42
110.0000000000072
  3
INABA_S40G
100
AcDbAlignedDimension
 13
8782.599867447318
 23
6383.211798685408
 33
0.0
 14
8235.600000000001
 24
6493.211798685415
 34
0.0
 50
90.0
100
AcDbRotatedDimension
1001
ACAD
1000
DSTYLE
1002
{
1070
   341
1005
0
1002
}
  0
DIMENSION
  5
1F247
330
747D
100
AcDbEntity
  8
寸法
 48
50.0
100
AcDbDimension
  2
*D3
 10
8105.6
 20
8808.971425227481
 30
0.0
 11
9000.6
 21
8908.97142522748
 31
0.0
 70
    32
 71
     5
 42
1790.0
  3
INABA_S40G
100
AcDbAlignedDimension
 13
9895.600000000001
 23
7990.211798685398
 33
0.0
 14
8105.6
 24
7990.211798685398
 34
0.0
100
AcDbRotatedDimension
1001
ACAD
1000
DSTYLE
1002
{
1070
   341
1005
0
1002
}
  0
DIMENSION
  5
1F248
330
747D
100
AcDbEntity
  8
寸法
 48
50.0
100
AcDbDimension
  2
*D4
 10
10018.6
 20
9021.432120744318
 30
0.0
 11
8223.600000000001
 21
9121.432120744318
 31
0.0
 70
    32
 71
     5
 42
3590.000000000002
  3
INABA_S40G
100
AcDbAlignedDimension
 13
6428.6
 23
8063.211798685397
 33
0.0
 14
10018.6
 24
8063.211798685397
 34
0.0
100
AcDbRotatedDimension
1001
ACAD
1000
DSTYLE
1002
{
1070
   341
1005
0
1002
}
  0
LINE
  5
1F24B
330
747D
100
AcDbEntity
  8
部品1
 48
50.0
100
AcDbLine
 10
10018.6
 20
6263.211798685411
 30
0.0
 11
6428.6
 21
6263.211798685383
 31
0.0
  0
LINE
  5
1F24C
330
747D
100
AcDbEntity
  8
部品1
 48
50.0
100
AcDbLine
 10
10018.6
 20
8063.211798685399
 30
0.0
 11
6428.6
 21
8063.211798685397
 31
0.0
  0
DIMENSION
  5
1F250
330
747D
100
AcDbEntity
  8
寸法
 48
50.0
100
AcDbDimension
  2
*D5
 10
7975.6
 20
6806.369337512554
 30
0.0
 11
8105.6
 21
6906.381148536175
 31
0.0
 70
    32
 71
     5
 42
260.0
  3
INABA_S40G
100
AcDbAlignedDimension
 13
8235.600000000001
 23
6493.211798685415
 33
0.0
 14
7975.6
 24
6493.211798685415
 34
0.0
100
AcDbRotatedDimension
1001
ACAD
1000
DSTYLE
1002
{
1070
   341
1005
0
1002
}
  0
DIMENSION
  5
1F251
330
747D
100
AcDbEntity
  8
寸法
 48
50.0
100
AcDbDimension
  2
*D6
 10
5932.65773398618
 20
6386.2117986854
 30
0.0
 11
5932.657733986178
 21
7163.211798685397
 31
0.0
 70
   160
 71
     5
 42
1553.999999999998
  3
INABA_S40G
100
AcDbAlignedDimension
 13
6501.6
 23
7940.211798685398
 33
0.0
 14
6501.600000000007
 24
6386.211798685399
 34
0.0
 50
90.0
100
AcDbRotatedDimension
1001
ACAD
1000
DSTYLE
1002
{
1070
   341
1005
0
1002
}
  0
DIMENSION
  5
1F252
330
747D
100
AcDbEntity
  8
寸法
 48
50.0
100
AcDbDimension
  2
*D7
 10
5680.714637266781
 20
6263.211798685398
 30
0.0
 11
5680.714637266779
 21
7163.211798685397
 31
0.0
 70
   160
 71
     5
 42
1800.0
  3
INABA_S40G
100
AcDbAlignedDimension
 13
6428.6
 23
8063.211798685397
 33
0.0
 14
6428.6
 24
6263.211798685397
 34
0.0
 50
90.0
100
AcDbRotatedDimension
1001
ACAD
1000
DSTYLE
1002
{
1070
   341
1005
0
1002
}
  0
LINE
  5
1F254
330
747D
100
AcDbEntity
  8
部品1
 48
50.0
100
AcDbLine
 10
6428.6
 20
6263.211798685397
 30
0.0
 11
6428.6
 21
8063.211798685397
 31
0.0
  0
DIMENSION
  5
1F2B9
330
747D
100
AcDbEntity
  8
寸法
 48
50.0
100
AcDbDimension
  2
*D8
 10
5932.65773398618
 20
6263.211798685398
 30
0.0
 11
5932.657733986178
 21
5927.680849842805
 31
0.0
 70
   160
 71
     5
 42
123.0000000000018
  3
INABA_S40G
100
AcDbAlignedDimension
 13
6501.600000000007
 23
6386.211798685399
 33
0.0
 14
6428.6
 24
6263.211798685397
 34
0.0
 50
90.0
100
AcDbRotatedDimension
1001
ACAD
1000
DSTYLE
1002
{
1070
   341
1005
0
1002
}
  0
LINE
  5
1F2BB
330
747D
100
AcDbEntity
  8
センター
 48
2.0
100
AcDbLine
 10
6551.600000000007
 20
6436.211798685398
 30
0.0
 11
6551.600000000007
 21
6336.2117986854
 31
0.0
  0
LINE
  5
1F2BC
330
747D
100
AcDbEntity
  8
部品1
 48
50.0
100
AcDbLine
 10
6658.600000000001
 20
6383.211798685403
 30
0.0
 11
6658.599999999999
 21
6493.2117986854
 31
0.0
  0
CIRCLE
  5
1F2BD
330
747D
100
AcDbEntity
  8
部品1
 48
50.0
100
AcDbCircle
 10
6551.600000000007
 20
6386.211798685399
 30
0.0
 40
35.0
  0
LINE
  5
1F2F6
330
747D
100
AcDbEntity
  8
センター
 48
2.0
100
AcDbLine
 10
6501.600000000007
 20
6386.211798685399
 30
0.0
 11
6601.600000000008
 21
6386.211798685399
 31
0.0
  0
LINE
  5
1F338
330
747D
100
AcDbEntity
  8
部品1
 48
50.0
100
AcDbLine
 10
6658.599999999999
 20
6493.2117986854
 30
0.0
 11
6548.600000000002
 21
6493.2117986854
 31
0.0
  0
LINE
  5
1F426
330
747D
100
AcDbEntity
  8
部品1
 48
50.0
100
AcDbLine
 10
8235.600000000001
 20
6493.211798685415
 30
0.0
 11
7975.6
 21
6493.211798685415
 31
0.0
  0
LINE
  5
1F427
330
747D
100
AcDbEntity
  8
部品1
 48
50.0
100
AcDbLine
 10
7975.6
 20
6383.211798685407
 30
0.0
 11
7975.6
 21
6493.211798685415
 31
0.0
  0
LINE
  5
1F4AA
330
747D
100
AcDbEntity
  8
部品1
 48
50.0
100
AcDbLine
 10
8235.600000000003
 20
6383.211798685407
 30
0.0
 11
8235.600000000001
 21
6493.211798685415
 31
0.0
  0
CIRCLE
  5
1F4AB
330
747D
100
AcDbEntity
  8
部品1
 48
50.0
100
AcDbCircle
 10
8105.600000000007
 20
6386.211798685399
 30
0.0
 40
35.0
  0
LINE
  5
1F4AC
330
747D
100
AcDbEntity
  8
センター
 48
2.0
100
AcDbLine
 10
8105.600000000007
 20
6436.211798685398
 30
0.0
 11
8105.600000000007
 21
6336.2117986854
 31
0.0
  0
LINE
  5
1F4DF
330
747D
100
AcDbEntity
  8
センター
 48
2.0
100
AcDbLine
 10
8055.600000000008
 20
6386.211798685399
 30
0.0
 11
8155.600000000008
 21
6386.211798685399
 31
0.0
  0
DIMENSION
  5
1F4E3
330
747D
100
AcDbEntity
  8
寸法
 48
50.0
100
AcDbDimension
  2
*D9
 10
6551.6
 20
8808.971425227481
 30
0.0
 11
7328.6
 21
8908.97142522748
 31
0.0
 70
    32
 71
     5
 42
1554.0
  3
INABA_S40G
100
AcDbAlignedDimension
 13
8105.6
 23
7990.211798685398
 33
0.0
 14
6551.6
 24
7990.211798685398
 34
0.0
100
AcDbRotatedDimension
1001
ACAD
1000
DSTYLE
1002
{
1070
   341
1005
0
1002
}
  0
DIMENSION
  5
1F4E5
330
747D
100
AcDbEntity
  8
寸法
 48
50.0
100
AcDbDimension
  2
*D10
 10
6428.6
 20
8590.121564333726
 30
0.0
 11
6877.599999999998
 21
8690.121564333725
 31
0.0
 70
    32
 71
     5
 42
897.9999999999963
  3
INABA_S40G
100
AcDbAlignedDimension
 13
7326.599999999996
 23
7213.211798685406
 33
0.0
 14
6428.6
 24
8063.211798685397
 34
0.0
100
AcDbRotatedDimension
1001
ACAD
1000
DSTYLE
1002
{
1070
   341
1005
0
1002
}
  0
DIMENSION
  5
1F4E6
330
747D
100
AcDbEntity
  8
寸法
 48
50.0
100
AcDbDimension
  2
*D11
 10
6875.307249876098
 20
7833.211798685394
 30
0.0
 11
6875.307249876097
 21
7493.152743567283
 31
0.0
 70
   160
 71
     5
 42
110.0000000000045
  3
INABA_S40G
100
AcDbAlignedDimension
 13
6658.599999999999
 23
7943.211798685398
 33
0.0
 14
6658.599999999999
 24
7833.211798685394
 34
0.0
 50
90.0
100
AcDbRotatedDimension
1001
ACAD
1000
DSTYLE
1002
{
1070
   341
1005
0
1002
}
  0
LINE
  5
1F4E7
330
747D
100
AcDbEntity
  8
部品1
 48
50.0
100
AcDbLine
 10
6658.599999999999
 20
7833.211798685394
 30
0.0
 11
6658.599999999999
 21
7943.211798685398
 31
0.0
  0
LINE
  5
1F4E8
330
747D
100
AcDbEntity
  8
部品1
 48
50.0
100
AcDbLine
 10
6548.6
 20
7063.211798685395
 30
0.0
 11
6428.6
 21
7063.211798685397
 31
0.0
  0
LINE
  5
1F4E9
330
747D
100
AcDbEntity
  8
部品1
 48
50.0
100
AcDbLine
 10
6548.599999999999
 20
7263.211798685397
 30
0.0
 11
6428.6
 21
7263.211798685397
 31
0.0
  0
LINE
  5
1F4EB
330
747D
100
AcDbEntity
  8
部品1
 48
50.0
100
AcDbLine
 10
6658.599999999999
 20
7833.211798685394
 30
0.0
 11
6548.6
 21
7833.211798685396
 31
0.0
  0
DIMENSION
  5
1F4EC
330
747D
100
AcDbEntity
  8
寸法
 48
50.0
100
AcDbDimension
  2
*D12
 10
5932.657733986179
 20
7940.211798685398
 30
0.0
 11
5932.657733986178
 21
8336.318400403198
 31
0.0
 70
   160
 71
     5
 42
123.0
  3
INABA_S40G
100
AcDbAlignedDimension
 13
6428.6
 23
8063.211798685397
 33
0.0
 14
6501.6
 24
7940.211798685398
 34
0.0
 50
90.0
100
AcDbRotatedDimension
1001
ACAD
1000
DSTYLE
1002
{
1070
   341
1005
0
1002
}
  0
DIMENSION
  5
1F4ED
330
747D
100
AcDbEntity
  8
寸法
 48
50.0
100
AcDbDimension
  2
*D13
 10
6428.6
 20
8808.971425227481
 30
0.0
 11
6155.493398282202
 21
8808.971425227481
 31
0.0
 70
   160
 71
     5
 42
123.0
  3
INABA_S40G
100
AcDbAlignedDimension
 13
6551.6
 23
7990.211798685398
 33
0.0
 14
6428.6
 24
8063.211798685397
 34
0.0
100
AcDbRotatedDimension
1001
ACAD
1000
DSTYLE
1002
{
1070
   341
1005
0
1002
}
  0
DIMENSION
  5
1F4EE
330
747D
100
AcDbEntity
  8
寸法
 48
50.0
100
AcDbDimension
  2
*D14
 10
6875.307249876098
 20
8063.211798685395
 30
0.0
 11
6875.307249876097
 21
8341.295341958284
 31
0.0
 70
   160
 71
     5
 42
119.9999999999972
  3
INABA_S40G
100
AcDbAlignedDimension
 13
6658.599999999999
 23
7943.211798685398
 33
0.0
 14
6658.599999999999
 24
8063.211798685395
 34
0.0
 50
90.0
100
AcDbRotatedDimension
1001
ACAD
1000
DSTYLE
1002
{
1070
   341
1005
0
1002
}
  0
LINE
  5
1F4EF
330
747D
100
AcDbEntity
  8
部品1
 48
50.0
100
AcDbLine
 10
6827.928907166849
 20
8063.211798685394
 30
0.0
 11
6428.6
 21
8063.211798685397
 31
0.0
  0
LINE
  5
1F4F0
330
747D
100
AcDbEntity
  8
センター
 48
2.0
100
AcDbLine
 10
6501.6
 20
7940.211798685398
 30
0.0
 11
6601.600000000001
 21
7940.211798685398
 31
0.0
  0
LINE
  5
1F4F1
330
747D
100
AcDbEntity
  8
センター
 48
2.0
100
AcDbLine
 10
6551.6
 20
7990.211798685398
 30
0.0
 11
6551.6
 21
7890.211798685398
 31
0.0
  0
CIRCLE
  5
1F4F2
330
747D
100
AcDbEntity
  8
部品1
 48
50.0
100
AcDbCircle
 10
6551.6
 20
7940.211798685398
 30
0.0
 40
35.0
  0
LINE
  5
1F4F3
330
747D
100
AcDbEntity
  8
部品1
 48
50.0
100
AcDbLine
 10
8235.600000000003
 20
7943.211798685398
 30
0.0
 11
8235.600000000001
 21
7833.211798685379
 31
0.0
  0
LINE
  5
1F4F4
330
747D
100
AcDbEntity
  8
部品1
 48
50.0
100
AcDbLine
 10
7975.6
 20
7943.211798685398
 30
0.0
 11
7975.6
 21
7833.211798685379
 31
0.0
  0
LINE
  5
1F4FE
330
747D
100
AcDbEntity
  8
センター
 48
2.0
100
AcDbLine
 10
8173.6
 20
7163.211798685397
 30
0.0
 11
8273.6
 21
7163.211798685397
 31
0.0
  0
LINE
  5
1F4FF
330
747D
100
AcDbEntity
  8
部品1
 48
50.0
100
AcDbLine
 10
8323.6
 20
7263.211798685397
 30
0.0
 11
8123.600000000001
 21
7263.211798685397
 31
0.0
  0
LINE
  5
1F500
330
747D
100
AcDbEntity
  8
部品1
 48
50.0
100
AcDbLine
 10
8323.6
 20
7063.211798685395
 30
0.0
 11
8123.600000000001
 21
7063.211798685395
 31
0.0
  0
LINE
  5
1F501
330
747D
100
AcDbEntity
  8
センター
 48
2.0
100
AcDbLine
 10
8223.600000000001
 20
7213.211798685397
 30
0.0
 11
8223.600000000001
 21
7113.211798685397
 31
0.0
  0
LINE
  5
1F502
330
747D
100
AcDbEntity
  8
部品1
 48
50.0
100
AcDbLine
 10
8123.600000000001
 20
7063.211798685397
 30
0.0
 11
8123.600000000001
 21
7263.211798685397
 31
0.0
  0
LINE
  5
1F503
330
747D
100
AcDbEntity
  8
部品1
 48
50.0
100
AcDbLine
 10
8323.6
 20
7063.211798685395
 30
0.0
 11
8323.6
 21
7263.211798685397
 31
0.0
  0
LINE
  5
1F504
330
747D
100
AcDbEntity
  8
部品1
 48
50.0
100
AcDbLine
 10
8235.600000000001
 20
7833.211798685379
 30
0.0
 11
7975.6
 21
7833.211798685379
 31
0.0
  0
LINE
  5
1F507
330
747D
100
AcDbEntity
  8
部品1
 48
50.0
100
AcDbLine
 10
7228.6
 20
8063.211798685397
 30
0.0
 11
7228.600000000001
 21
7943.2117986854
 31
0.0
  0
LINE
  5
1F508
330
747D
100
AcDbEntity
  8
部品1
 48
50.0
100
AcDbLine
 10
7428.6
 20
8063.211798685397
 30
0.0
 11
7428.6
 21
7943.2117986854
 31
0.0
  0
LINE
  5
1F509
330
747D
100
AcDbEntity
  8
センター
 48
2.0
100
AcDbLine
 10
8055.600000000001
 20
7940.211798685398
 30
0.0
 11
8155.600000000001
 21
7940.211798685398
 31
0.0
  0
CIRCLE
  5
1F50A
330
747D
100
AcDbEntity
  8
部品1
 48
50.0
100
AcDbCircle
 10
8105.6
 20
7940.211798685398
 30
0.0
 40
35.0
  0
LINE
  5
1F50B
330
747D
100
AcDbEntity
  8
センター
 48
2.0
100
AcDbLine
 10
8105.6
 20
7990.211798685398
 30
0.0
 11
8105.6
 21
7890.211798685398
 31
0.0
  0
DIMENSION
  5
1F50C
330
747D
100
AcDbEntity
  8
寸法
 48
50.0
100
AcDbDimension
  2
*D15
 10
8927.970132415948
 20
7163.211798685406
 30
0.0
 11
8827.970132415945
 21
6713.21179868541
 31
0.0
 70
    32
 71
     5
 42
899.9999999999936
  3
INABA_S40G
100
AcDbAlignedDimension
 13
8671.60000000001
 23
6263.211798685412
 33
0.0
 14
9070.6
 24
7163.211798685406
 34
0.0
 50
90.0
100
AcDbRotatedDimension
1001
ACAD
1000
DSTYLE
1002
{
1070
   341
1005
0
1002
}
  0
LINE
  5
1F50E
330
747D
100
AcDbEntity
  8
部品1
 48
50.0
100
AcDbLine
 10
10018.6
 20
6263.211798685415
 30
0.0
 11
10018.6
 21
8063.211798685397
 31
0.0
  0
LINE
  5
1F582
330
747D
100
AcDbEntity
  8
部品1
 48
50.0
100
AcDbLine
 10
9018.600000000011
 20
6383.211798685408
 30
0.0
 11
9018.600000000011
 21
6263.211798685412
 31
0.0
  0
LINE
  5
1F583
330
747D
100
AcDbEntity
  8
部品1
 48
50.0
100
AcDbLine
 10
9218.600000000012
 20
6383.211798685409
 30
0.0
 11
9218.600000000012
 21
6263.211798685412
 31
0.0
  0
CIRCLE
  5
1F588
330
747D
100
AcDbEntity
  8
部品1
 48
50.0
100
AcDbCircle
 10
9895.600000000008
 20
6386.211798685399
 30
0.0
 40
35.0
  0
LINE
  5
1F589
330
747D
100
AcDbEntity
  8
部品1
 48
50.0
100
AcDbLine
 10
9788.600000000002
 20
6383.211798685412
 30
0.0
 11
9788.600000000002
 21
6493.211798685415
 31
0.0
  0
LINE
  5
1F58A
330
747D
100
AcDbEntity
  8
センター
 48
2.0
100
AcDbLine
 10
9895.600000000008
 20
6436.211798685398
 30
0.0
 11
9895.600000000008
 21
6336.2117986854
 31
0.0
  0
LINE
  5
1F58B
330
747D
100
AcDbEntity
  8
センター
 48
2.0
100
AcDbLine
 10
9845.600000000008
 20
6386.211798685399
 30
0.0
 11
9945.600000000007
 21
6386.211798685399
 31
0.0
  0
LINE
  5
1F58C
330
747D
100
AcDbEntity
  8
部品1
 48
50.0
100
AcDbLine
 10
9898.600000000001
 20
6493.211798685415
 30
0.0
 11
9788.600000000002
 21
6493.211798685415
 31
0.0
  0
DIMENSION
  5
1F592
330
747D
100
AcDbEntity
  8
寸法
 48
50.0
100
AcDbDimension
  2
*D16
 10
9788.600000000002
 20
7605.503131185024
 30
0.0
 11
9518.540944881889
 21
7605.503131185024
 31
0.0
 70
   160
 71
     5
 42
109.9999999999982
  3
INABA_S40G
100
AcDbAlignedDimension
 13
9898.6
 23
7622.496395223854
 33
0.0
 14
9788.600000000002
 24
7833.211798685396
 34
0.0
100
AcDbRotatedDimension
1001
ACAD
1000
DSTYLE
1002
{
1070
   341
1005
0
1002
}
  0
DIMENSION
  5
1F593
330
747D
100
AcDbEntity
  8
寸法
 48
50.0
100
AcDbDimension
  2
*D17
 10
9120.600000000001
 20
8590.121564333726
 30
0.0
 11
9569.600000000001
 21
8690.121564333725
 31
0.0
 70
    32
 71
     5
 42
898.0
  3
INABA_S40G
100
AcDbAlignedDimension
 13
10018.6
 23
8063.211798685397
 33
0.0
 14
9120.600000000001
 24
7213.211798685406
 34
0.0
100
AcDbRotatedDimension
1001
ACAD
1000
DSTYLE
1002
{
1070
   341
1005
0
1002
}
  0
DIMENSION
  5
1F594
330
747D
100
AcDbEntity
  8
寸法
 48
50.0
100
AcDbDimension
  2
*D18
 10
8927.970132415948
 20
8063.211798685395
 30
0.0
 11
8827.970132415945
 21
7613.211798685402
 31
0.0
 70
    32
 71
     5
 42
899.99999999999
  3
INABA_S40G
100
AcDbAlignedDimension
 13
9070.6
 23
7163.211798685406
 33
0.0
 14
8671.600000000001
 24
8063.211798685395
 34
0.0
 50
90.0
100
AcDbRotatedDimension
1001
ACAD
1000
DSTYLE
1002
{
1070
   341
1005
0
1002
}
  0
LINE
  5
1F59C
330
747D
100
AcDbEntity
  8
部品1
 48
50.0
100
AcDbLine
 10
9018.600000000001
 20
8063.211798685395
 30
0.0
 11
9018.599999999999
 21
7943.211798685396
 31
0.0
  0
LINE
  5
1F59D
330
747D
100
AcDbEntity
  8
部品1
 48
50.0
100
AcDbLine
 10
9218.6
 20
8063.211798685395
 30
0.0
 11
9218.6
 21
7943.211798685396
 31
0.0
  0
LINE
  5
1F59E
330
747D
100
AcDbEntity
  8
部品1
 48
50.0
100
AcDbLine
 10
9788.600000000002
 20
7833.211798685396
 30
0.0
 11
9788.600000000002
 21
7943.211798685398
 31
0.0
  0
LINE
  5
1F5A1
330
747D
100
AcDbEntity
  8
部品1
 48
50.0
100
AcDbLine
 10
10018.6
 20
7263.2117986854
 30
0.0
 11
9898.600000000001
 21
7263.2117986854
 31
0.0
  0
LINE
  5
1F5A2
330
747D
100
AcDbEntity
  8
部品1
 48
50.0
100
AcDbLine
 10
10018.6
 20
7063.2117986854
 30
0.0
 11
9898.600000000001
 21
7063.2117986854
 31
0.0
  0
DIMENSION
  5
1F5A4
330
747D
100
AcDbEntity
  8
寸法
 48
50.0
100
AcDbDimension
  2
*D19
 10
9898.6
 20
7605.503131185024
 30
0.0
 11
10288.65905511811
 21
7605.503131185024
 31
0.0
 70
   160
 71
     5
 42
120.0000000000018
  3
INABA_S40G
100
AcDbAlignedDimension
 13
10018.6
 23
7622.496395223854
 33
0.0
 14
9898.6
 24
7622.496395223854
 34
0.0
100
AcDbRotatedDimension
1001
ACAD
1000
DSTYLE
1002
{
1070
   341
1005
0
1002
}
  0
LINE
  5
1F5A5
330
747D
100
AcDbEntity
  8
部品1
 48
50.0
100
AcDbLine
 10
9898.6
 20
7833.211798685396
 30
0.0
 11
9788.600000000002
 21
7833.211798685396
 31
0.0
  0
DIMENSION
  5
1F5A6
330
747D
100
AcDbEntity
  8
寸法
 48
50.0
100
AcDbDimension
  2
*D20
 10
9895.600000000001
 20
8808.971425227481
 30
0.0
 11
10291.7066017178
 21
8808.971425227481
 31
0.0
 70
   160
 71
     5
 42
123.0
  3
INABA_S40G
100
AcDbAlignedDimension
 13
10018.6
 23
8063.211798685397
 33
0.0
 14
9895.600000000001
 24
7990.211798685398
 34
0.0
100
AcDbRotatedDimension
1001
ACAD
1000
DSTYLE
1002
{
1070
   341
1005
0
1002
}
  0
LINE
  5
1F5A7
330
747D
100
AcDbEntity
  8
センター
 48
2.0
100
AcDbLine
 10
9845.600000000001
 20
7940.211798685398
 30
0.0
 11
9945.6
 21
7940.211798685398
 31
0.0
  0
CIRCLE
  5
1F5A8
330
747D
100
AcDbEntity
  8
部品1
 48
50.0
100
AcDbCircle
 10
9895.600000000001
 20
7940.211798685398
 30
0.0
 40
35.0
  0
LINE
  5
1F5A9
330
747D
100
AcDbEntity
  8
センター
 48
2.0
100
AcDbLine
 10
9895.600000000001
 20
7990.211798685398
 30
0.0
 11
9895.600000000001
 21
7890.211798685398
 31
0.0
  0
LINE
  5
206BA
330
747D
100
AcDbEntity
  8
センター
 48
2.0
100
AcDbLine
 10
7276.599999999996
 20
7163.211798685406
 30
0.0
 11
7376.599999999996
 21
7163.211798685406
 31
0.0
  0
LINE
  5
206BB
330
747D
100
AcDbEntity
  8
部品1
 48
50.0
100
AcDbLine
 10
7226.599999999996
 20
6963.211798685398
 30
0.0
 11
7226.599999999996
 21
7363.2117986854
 31
0.0
  0
LINE
  5
206BC
330
747D
100
AcDbEntity
  8
部品1
 48
50.0
100
AcDbLine
 10
7426.599999999995
 20
6963.211798685398
 30
0.0
 11
7426.599999999999
 21
7363.2117986854
 31
0.0
  0
LINE
  5
206BD
330
747D
100
AcDbEntity
  8
センター
 48
2.0
100
AcDbLine
 10
7326.599999999996
 20
7213.211798685406
 30
0.0
 11
7326.599999999996
 21
7113.211798685405
 31
0.0
  0
DIMENSION
  5
206E3
330
747D
100
AcDbEntity
  8
寸法
 48
50.0
100
AcDbDimension
  2
*D21
 10
7326.599999999996
 20
8590.121564333726
 30
0.0
 11
7775.099999999999
 21
8690.121564333725
 31
0.0
 70
    32
 71
     5
 42
897.0000000000036
  3
INABA_S40G
100
AcDbAlignedDimension
 13
8223.600000000001
 23
7213.211798685397
 33
0.0
 14
7326.599999999996
 24
7213.211798685406
 34
0.0
100
AcDbRotatedDimension
1001
ACAD
1000
DSTYLE
1002
{
1070
   341
1005
0
1002
}
  0
LINE
  5
20715
330
747D
100
AcDbEntity
  8
センター
 48
2.0
100
AcDbLine
 10
9120.600000000001
 20
7213.211798685406
 30
0.0
 11
9120.600000000001
 21
7113.211798685405
 31
0.0
  0
LINE
  5
20716
330
747D
100
AcDbEntity
  8
部品1
 48
50.0
100
AcDbLine
 10
9220.600000000001
 20
6963.211798685404
 30
0.0
 11
9220.600000000001
 21
7363.211798685404
 31
0.0
  0
LINE
  5
20717
330
747D
100
AcDbEntity
  8
部品1
 48
50.0
100
AcDbLine
 10
9020.600000000001
 20
6963.211798685404
 30
0.0
 11
9020.600000000007
 21
7363.211798685405
 31
0.0
  0
LINE
  5
20718
330
747D
100
AcDbEntity
  8
センター
 48
2.0
100
AcDbLine
 10
9070.6
 20
7163.211798685406
 30
0.0
 11
9170.6
 21
7163.211798685406
 31
0.0
  0
LINE
  5
20719
330
747D
100
AcDbEntity
  8
部品1
 48
50.0
100
AcDbLine
 10
9220.600000000001
 20
6963.211798685404
 30
0.0
 11
9020.599999999999
 21
6963.211798685404
 31
0.0
  0
LINE
  5
2071A
330
747D
100
AcDbEntity
  8
部品1
 48
50.0
100
AcDbLine
 10
9220.600000000001
 20
7363.211798685405
 30
0.0
 11
9020.599999999999
 21
7363.211798685405
 31
0.0
  0
DIMENSION
  5
20751
330
747D
100
AcDbEntity
  8
寸法
 48
50.0
100
AcDbDimension
  2
*D22
 10
8223.600000000001
 20
8590.121564333726
 30
0.0
 11
8672.1
 21
8690.121564333725
 31
0.0
 70
    32
 71
     5
 42
897.0
  3
INABA_S40G
100
AcDbAlignedDimension
 13
9120.600000000001
 23
7213.211798685406
 33
0.0
 14
8223.600000000001
 24
7213.211798685397
 34
0.0
100
AcDbRotatedDimension
1001
ACAD
1000
DSTYLE
1002
{
1070
   341
1005
0
1002
}
  0
LINE
  5
20992
330
747D
100
AcDbEntity
  8
想像線
 48
10.0
100
AcDbLine
 10
10063.6
 20
6208.211798685414
 30
0.0
 11
10063.6
 21
8138.211798685397
 31
0.0
  0
DIMENSION
  5
20DE1
330
747D
100
AcDbEntity
  8
寸法
 48
50.0
100
AcDbDimension
  2
*D23
 10
10063.6
 20
9021.43212074432
 30
0.0
 11
10334.77462120246
 21
9021.43212074432
 31
0.0
 70
   160
  1
a
 71
     5
 42
45.0
  3
INABA_S40G
100
AcDbAlignedDimension
 13
10018.6
 23
8063.211798685397
 33
0.0
 14
10063.6
 24
8808.971425227481
 34
0.0
100
AcDbRotatedDimension
1001
ACAD
1000
DSTYLE
1002
{
1070
   341
1005
0
1002
}
  0
DIMENSION
  5
20DFB
330
747D
100
AcDbEntity
  8
寸法
 48
50.0
100
AcDbDimension
  2
*D24
 10
6428.6
 20
9021.43212074432
 30
0.0
 11
6112.425378797541
 21
9021.43212074432
 31
0.0
 70
   160
  1
a
 71
     5
 42
44.99999999999636
  3
INABA_S40G
100
AcDbAlignedDimension
 13
6383.600000000004
 23
8808.971425227481
 33
0.0
 14
6428.6
 24
8063.211798685397
 34
0.0
100
AcDbRotatedDimension
1001
ACAD
1000
DSTYLE
1002
{
1070
   341
1005
0
1002
}
  0
DIMENSION
  5
20E15
330
747D
100
AcDbEntity
  8
寸法
 48
50.0
100
AcDbDimension
  2
*D25
 10
5680.714637266781
 20
8063.211798685399
 30
0.0
 11
5580.71463726678
 21
8100.7117986854
 31
0.0
 70
    32
  1
c
 71
     5
 42
75.00000000000273
  3
INABA_S40G
100
AcDbAlignedDimension
 13
5932.657733986179
 23
8138.211798685402
 33
0.0
 14
6428.6
 24
8063.211798685397
 34
0.0
 50
90.0
100
AcDbRotatedDimension
1001
ACAD
1000
DSTYLE
1002
{
1070
   341
1005
0
1002
}
  0
DIMENSION
  5
20E3A
330
747D
100
AcDbEntity
  8
寸法
 48
50.0
100
AcDbDimension
  2
*D26
 10
5680.714637266781
 20
6208.211798685408
 30
0.0
 11
5580.71463726678
 21
6235.711798685399
 31
0.0
 70
    32
  1
b
 71
     5
 42
54.99999999997908
  3
INABA_S40G
100
AcDbAlignedDimension
 13
6428.6
 23
6263.211798685386
 33
0.0
 14
5932.65773398618
 24
6208.211798685408
 34
0.0
 50
90.0
100
AcDbRotatedDimension
1001
ACAD
1000
DSTYLE
1002
{
1070
   341
1005
0
1002
}
  0
LINE
  5
21E7C
330
747D
100
AcDbEntity
  8
部品1
 48
50.0
100
AcDbLine
 10
7426.599999999996
 20
6963.211798685398
 30
0.0
 11
7226.599999999996
 21
6963.211798685398
 31
0.0
  0
LINE
  5
21E7D
330
747D
100
AcDbEntity
  8
部品1
 48
50.0
100
AcDbLine
 10
7426.599999999996
 20
7363.2117986854
 30
0.0
 11
7226.599999999996
 21
7363.2117986854
 31
0.0
  0
LINE
  5
2243E
330
747D
100
AcDbEntity
  8
想像線
 48
10.0
100
AcDbLine
 10
9147.16214885316
 20
8138.2117986854
 30
0.0
 11
10063.6
 21
8138.211798685397
 31
0.0
  0
LINE
  5
2243F
330
747D
100
AcDbEntity
  8
想像線
 48
10.0
100
AcDbLine
 10
9147.16214885316
 20
6208.211798685416
 30
0.0
 11
10063.6
 21
6208.211798685415
 31
0.0
  0
LINE
  5
23AE3
330
747D
100
AcDbEntity
  8
部品1
 48
50.0
100
AcDbLine
 10
7975.6
 20
7943.211798685398
 30
0.0
 11
6658.599999999999
 21
7943.211798685398
 31
0.0
  0
LINE
  5
23AE4
330
747D
100
AcDbEntity
  8
部品1
 48
50.0
100
AcDbLine
 10
9788.600000000002
 20
7943.211798685398
 30
0.0
 11
8235.600000000003
 21
7943.211798685398
 31
0.0
  0
LINE
  5
23AE5
330
747D
100
AcDbEntity
  8
部品1
 48
50.0
100
AcDbLine
 10
6548.600000000002
 20
6493.2117986854
 30
0.0
 11
6548.6
 21
7833.211798685396
 31
0.0
  0
LINE
  5
23AE6
330
747D
100
AcDbEntity
  8
部品1
 48
50.0
100
AcDbLine
 10
7975.6
 20
6383.211798685407
 30
0.0
 11
6658.600000000001
 21
6383.211798685403
 31
0.0
  0
LINE
  5
23AE7
330
747D
100
AcDbEntity
  8
部品1
 48
50.0
100
AcDbLine
 10
9788.600000000002
 20
6383.211798685412
 30
0.0
 11
8235.600000000003
 21
6383.211798685407
 31
0.0
  0
LINE
  5
23AE8
330
747D
100
AcDbEntity
  8
部品1
 48
50.0
100
AcDbLine
 10
9898.600000000001
 20
6493.211798685415
 30
0.0
 11
9898.6
 21
7833.211798685396
 31
0.0
  0
LINE
  5
23B2F
330
747D
100
AcDbEntity
  8
細線
 48
50.0
100
AcDbLine
 10
6428.6
 20
7257.252877874076
 30
0.0
 11
6434.558920811321
 21
7263.211798685397
 31
0.0
  0
LINE
  5
23B30
330
747D
100
AcDbEntity
  8
細線
 48
50.0
100
AcDbLine
 10
6428.6
 20
7212.35159726873
 30
0.0
 11
6479.460201416668
 21
7263.211798685397
 31
0.0
  0
LINE
  5
23B31
330
747D
100
AcDbEntity
  8
細線
 48
50.0
100
AcDbLine
 10
6428.600000000002
 20
7167.450316663385
 30
0.0
 11
6524.361482022015
 21
7263.211798685398
 31
0.0
  0
LINE
  5
23B32
330
747D
100
AcDbEntity
  8
細線
 48
50.0
100
AcDbLine
 10
6428.6
 20
7122.549036058039
 30
0.0
 11
6548.599999999999
 21
7242.549036058038
 31
0.0
  0
LINE
  5
23B33
330
747D
100
AcDbEntity
  8
細線
 48
50.0
100
AcDbLine
 10
6428.6
 20
7077.647755452693
 30
0.0
 11
6548.6
 21
7197.647755452692
 31
0.0
  0
LINE
  5
23B34
330
747D
100
AcDbEntity
  8
細線
 48
50.0
100
AcDbLine
 10
6459.065323838051
 20
7063.211798685397
 30
0.0
 11
6548.600000000002
 21
7152.746474847347
 31
0.0
  0
LINE
  5
23B35
330
747D
100
AcDbEntity
  8
細線
 48
50.0
100
AcDbLine
 10
6503.966604443395
 20
7063.211798685397
 30
0.0
 11
6548.6
 21
7107.845194242002
 31
0.0
  0
LINE
  5
23B36
330
747D
100
AcDbEntity
  8
細線
 48
50.0
100
AcDbLine
 10
7228.6
 20
8028.240071820617
 30
0.0
 11
7263.571726864777
 21
8063.211798685394
 31
0.0
  0
LINE
  5
23B37
330
747D
100
AcDbEntity
  8
細線
 48
50.0
100
AcDbLine
 10
7228.6
 20
7983.338791215271
 30
0.0
 11
7308.473007470124
 21
8063.211798685394
 31
0.0
  0
LINE
  5
23B38
330
747D
100
AcDbEntity
  8
細線
 48
50.0
100
AcDbLine
 10
7233.374288075471
 20
7943.211798685398
 30
0.0
 11
7353.374288075468
 21
8063.211798685395
 31
0.0
  0
LINE
  5
23B39
330
747D
100
AcDbEntity
  8
細線
 48
50.0
100
AcDbLine
 10
7278.275568680818
 20
7943.2117986854
 30
0.0
 11
7398.275568680816
 21
8063.211798685397
 31
0.0
  0
LINE
  5
23B3A
330
747D
100
AcDbEntity
  8
細線
 48
50.0
100
AcDbLine
 10
7323.176849286165
 20
7943.2117986854
 30
0.0
 11
7428.6
 21
8048.634949399234
 31
0.0
  0
LINE
  5
23B3B
330
747D
100
AcDbEntity
  8
細線
 48
50.0
100
AcDbLine
 10
7368.078129891511
 20
7943.211798685398
 30
0.0
 11
7428.6
 21
8003.73366879389
 31
0.0
  0
LINE
  5
23B3C
330
747D
100
AcDbEntity
  8
細線
 48
50.0
100
AcDbLine
 10
9018.600000000001
 20
8028.240071820617
 30
0.0
 11
9053.571726864777
 21
8063.211798685392
 31
0.0
  0
LINE
  5
23B3D
330
747D
100
AcDbEntity
  8
細線
 48
50.0
100
AcDbLine
 10
9018.600000000001
 20
7983.33879121527
 30
0.0
 11
9098.473007470122
 21
8063.211798685392
 31
0.0
  0
LINE
  5
23B3E
330
747D
100
AcDbEntity
  8
細線
 48
50.0
100
AcDbLine
 10
9023.374288075475
 20
7943.211798685398
 30
0.0
 11
9143.374288075468
 21
8063.211798685394
 31
0.0
  0
LINE
  5
23B3F
330
747D
100
AcDbEntity
  8
細線
 48
50.0
100
AcDbLine
 10
9068.275568680819
 20
7943.211798685398
 30
0.0
 11
9188.275568680813
 21
8063.211798685392
 31
0.0
  0
LINE
  5
23B40
330
747D
100
AcDbEntity
  8
細線
 48
50.0
100
AcDbLine
 10
9113.176849286166
 20
7943.211798685398
 30
0.0
 11
9218.6
 21
8048.634949399234
 31
0.0
  0
LINE
  5
23B41
330
747D
100
AcDbEntity
  8
細線
 48
50.0
100
AcDbLine
 10
9158.078129891514
 20
7943.211798685398
 30
0.0
 11
9218.6
 21
8003.733668793888
 31
0.0
  0
LINE
  5
23B42
330
747D
100
AcDbEntity
  8
細線
 48
50.0
100
AcDbLine
 10
9898.600000000001
 20
7237.252877874073
 30
0.0
 11
9924.558920811319
 21
7263.2117986854
 31
0.0
  0
LINE
  5
23B43
330
747D
100
AcDbEntity
  8
細線
 48
50.0
100
AcDbLine
 10
9898.6
 20
7192.351597268736
 30
0.0
 11
9969.460201416664
 21
7263.211798685397
 31
0.0
  0
LINE
  5
23B44
330
747D
100
AcDbEntity
  8
細線
 48
50.0
100
AcDbLine
 10
9898.6
 20
7147.450316663387
 30
0.0
 11
10014.36148202201
 21
7263.211798685398
 31
0.0
  0
LINE
  5
23B45
330
747D
100
AcDbEntity
  8
細線
 48
50.0
100
AcDbLine
 10
9898.600000000001
 20
7102.549036058045
 30
0.0
 11
10018.6
 21
7222.549036058045
 31
0.0
  0
LINE
  5
23B46
330
747D
100
AcDbEntity
  8
細線
 48
50.0
100
AcDbLine
 10
9904.1640432327
 20
7063.2117986854
 30
0.0
 11
10018.6
 21
7177.647755452699
 31
0.0
  0
LINE
  5
23B47
330
747D
100
AcDbEntity
  8
細線
 48
50.0
100
AcDbLine
 10
9949.065323838048
 20
7063.211798685398
 30
0.0
 11
10018.6
 21
7132.746474847353
 31
0.0
  0
LINE
  5
23B48
330
747D
100
AcDbEntity
  8
細線
 48
50.0
100
AcDbLine
 10
9993.966604443391
 20
7063.211798685397
 30
0.0
 11
10018.6
 21
7087.845194242007
 31
0.0
  0
LINE
  5
23B49
330
747D
100
AcDbEntity
  8
細線
 48
50.0
100
AcDbLine
 10
9018.600000000009
 20
6328.240071820633
 30
0.0
 11
9073.571726864786
 21
6383.211798685409
 31
0.0
  0
LINE
  5
23B4A
330
747D
100
AcDbEntity
  8
細線
 48
50.0
100
AcDbLine
 10
9018.600000000013
 20
6283.338791215289
 30
0.0
 11
9118.473007470134
 21
6383.21179868541
 31
0.0
  0
LINE
  5
23B4B
330
747D
100
AcDbEntity
  8
細線
 48
50.0
100
AcDbLine
 10
9043.374288075481
 20
6263.211798685412
 30
0.0
 11
9163.374288075477
 21
6383.21179868541
 31
0.0
  0
LINE
  5
23B4C
330
747D
100
AcDbEntity
  8
細線
 48
50.0
100
AcDbLine
 10
9088.275568680826
 20
6263.211798685412
 30
0.0
 11
9208.275568680825
 21
6383.211798685411
 31
0.0
  0
LINE
  5
23B4D
330
747D
100
AcDbEntity
  8
細線
 48
50.0
100
AcDbLine
 10
9133.176849286172
 20
6263.211798685412
 30
0.0
 11
9218.600000000009
 21
6348.634949399251
 31
0.0
  0
LINE
  5
23B4E
330
747D
100
AcDbEntity
  8
細線
 48
50.0
100
AcDbLine
 10
9178.078129891517
 20
6263.211798685412
 30
0.0
 11
9218.600000000014
 21
6303.733668793906
 31
0.0
  0
LWPOLYLINE
  5
23CDF
330
747D
100
AcDbEntity
  8
部品1
 48
50.0
100
AcDbPolyline
 90
        2
 70
     0
 43
10.0
 10
8536.712484974261
 20
1947.058554410159
 10
8903.840564223491
 20
1947.058554410159
  0
TEXT
  5
23CE0
330
747D
100
AcDbEntity
  8
部品1
 48
50.0
100
AcDbText
 10
8542.154465329797
 20
2691.906905362909
 30
0.0
 40
100.0
  1
基礎ボルト(市販品)
  7
STYLE2
100
AcDbText
  0
LINE
  5
23CE1
330
747D
100
AcDbEntity
  8
部品1
 48
50.0
100
AcDbLine
 10
8536.712484974261
 20
1567.058554410158
 30
0.0
 11
8696.712484974261
 21
1567.058554410158
 31
0.0
  0
LINE
  5
23CE2
330
747D
100
AcDbEntity
  8
細線
 48
50.0
100
AcDbLine
 10
8468.877103667768
 20
1267.058554410158
 30
0.0
 11
8696.712484974261
 21
1494.893935716653
 31
0.0
  0
DIMENSION
  5
23CE3
330
747D
100
AcDbEntity
  8
寸法
 48
50.0
100
AcDbDimension
  2
*D27
 10
9164.048234685317
 20
1842.058554410155
 30
0.0
 11
9064.048234685317
 21
2044.558554410158
 31
0.0
 70
    32
  1
180
 71
     5
 42
405.0000000000018
  3
INABA_S40G
100
AcDbAlignedDimension
 13
8536.712484974261
 23
2247.058554410158
 33
0.0
 14
8536.712484974261
 24
1842.058554410156
 34
0.0
 50
90.0
100
AcDbRotatedDimension
1001
ACAD
1000
DSTYLE
1002
{
1070
   341
1005
0
1002
}
  0
LINE
  5
23CE4
330
747D
100
AcDbEntity
  8
部品1
100
AcDbLine
 10
11671.83734804901
 20
3898.273079131214
 30
0.0
 11
4775.362651950984
 21
3898.273079131214
 31
0.0
  0
LINE
  5
23CE5
330
747D
100
AcDbEntity
  8
部品1
100
AcDbLine
 10
11671.83734804901
 20
3598.273079131214
 30
0.0
 11
4775.362651950984
 21
3598.273079131214
 31
0.0
  0
LINE
  5
23CE6
330
747D
100
AcDbEntity
  8
部品1
100
AcDbLine
 10
4775.362651950984
 20
639.2035797765262
 30
0.0
 11
11671.83734804901
 21
639.2035797765262
 31
0.0
  0
LINE
  5
23CE7
330
747D
100
AcDbEntity
  8
部品1
 48
50.0
100
AcDbLine
 10
8796.712484974262
 20
1267.058554410158
 30
0.0
 11
7759.212484974263
 21
1267.058554410158
 31
0.0
  0
LINE
  5
23CE8
330
747D
100
AcDbEntity
  8
部品1
 48
50.0
100
AcDbLine
 10
8796.712484974262
 20
1107.058554410158
 30
0.0
 11
7759.212484974263
 21
1107.058554410158
 31
0.0
  0
LINE
  5
23CE9
330
747D
100
AcDbEntity
  8
細線
 48
50.0
100
AcDbLine
 10
8401.525182759753
 20
1267.058554410158
 30
0.0
 11
8696.712484974261
 21
1562.245856624667
 31
0.0
  0
DIMENSION
  5
23CEA
330
747D
100
AcDbEntity
  8
寸法
 48
50.0
100
AcDbDimension
  2
*D28
 10
9509.116567334094
 20
2247.058554410157
 30
0.0
 11
9509.116567334094
 21
1781.049650988676
 31
0.0
 70
   160
  1
20～25
 71
     5
 42
65.94999999999981
  3
INABA_S40G
100
AcDbAlignedDimension
 13
8302.712484974263
 23
2313.008554410158
 33
0.0
 14
8536.712484974261
 24
2247.058554410158
 34
0.0
 50
90.0
100
AcDbRotatedDimension
1001
ACAD
1000
DSTYLE
1002
{
1070
   341
1005
0
1002
}
  0
MTEXT
  5
23CEB
102
{ACAD_REACTORS
330
23CEC
102
}
330
747D
100
AcDbEntity
  8
部品1
 62
     7
 48
50.0
100
AcDbMText
 10
8547.89306299841
 20
2577.537712101696
 30
0.0
 40
100.0
 41
1.0
 71
     4
 72
     1
  1
M10X160
  7
STYLE2
 73
     1
 44
1.0
1001
ACAD
1000
MTEXTBEGIN
1070
    73
1070
     1
1070
    44
1040
1.0
1070
    74
1070
     0
1000
MTEXTEND
  0
LEADER
  5
23CEC
330
747D
100
AcDbEntity
  8
寸法
 48
50.0
100
AcDbLeader
  3
INABA_S40G
 73
     0
 74
     0
 75
     1
 40
100.0
 41
543.75
 76
     3
 10
8307.212484974263
 20
2308.508554410158
 30
0.0
 10
8407.893062998409
 20
2487.537712101696
 30
0.0
 10
8507.893062998411
 20
2487.537712101696
 30
0.0
340
23CEB
1001
ACAD
1000
DSTYLE
1002
{
1070
   341
1005
0
1002
}
  0
MTEXT
  5
23CED
102
{ACAD_REACTORS
330
23CEE
102
}
330
747D
100
AcDbEntity
  8
部品1
 62
     7
 48
50.0
100
AcDbMText
 10
8546.404948865959
 20
3353.889124225218
 30
0.0
 40
100.0
 41
1.0
 71
     4
 72
     1
  1
\A1;ナット(市販品)
  7
STYLE2
 73
     1
 44
1.0
1001
ACAD
1000
MTEXTBEGIN
1070
    73
1070
     1
1070
    44
1040
1.0
1070
    74
1070
     0
1000
MTEXTEND
  0
LEADER
  5
23CEE
330
747D
100
AcDbEntity
  8
寸法
 48
50.0
100
AcDbLeader
  3
INABA_S40G
 73
     0
 74
     0
 75
     1
 40
127.8409090909091
 41
850.0000000000001
 76
     3
 10
8315.962484974262
 20
2745.652655796587
 30
0.0
 10
8406.40494886596
 20
3249.968669679764
 30
0.0
 10
8506.404948865959
 20
3249.968669679764
 30
0.0
340
23CED
1001
ACAD
1000
DSTYLE
1002
{
1070
   341
1005
0
1002
}
  0
LEADER
  5
23CEF
330
747D
100
AcDbEntity
  8
寸法
 48
50.0
100
AcDbLeader
  3
INABA_S40G
 73
     0
 74
     0
 75
     1
 40
127.8409090909091
 41
1133.522727272727
 76
     3
 10
8345.962484974261
 20
2583.462664965508
 30
0.0
 10
8445.801972935312
 20
3018.757316223779
 30
0.0
 10
8545.801972935311
 20
3018.757316223779
 30
0.0
340
23CF0
1001
ACAD
1000
DSTYLE
1002
{
1070
   341
1005
0
1002
}
  0
MTEXT
  5
23CF0
102
{ACAD_REACTORS
330
23CEF
102
}
330
747D
100
AcDbEntity
  8
部品1
 62
     7
 48
50.0
100
AcDbMText
 10
8585.801972935312
 20
3122.677770769233
 30
0.0
 40
100.0
 41
1.0
 71
     4
 72
     1
  1
\A1;ワッシャー(市販品)
  7
STYLE2
 73
     1
 44
1.0
1001
ACAD
1000
MTEXTBEGIN
1070
    73
1070
     1
1070
    44
1040
1.0
1070
    74
1070
     0
1000
MTEXTEND
  0
LINE
  5
23CF1
330
747D
100
AcDbEntity
  8
細線
 48
50.0
100
AcDbLine
 10
8435.201143213763
 20
1267.058554410158
 30
0.0
 11
8696.712484974261
 21
1528.56989617065
 31
0.0
  0
TEXT
  5
23CF2
330
747D
100
AcDbEntity
  8
部品1
100
AcDbText
 10
7781.291760467631
 20
3673.833164191929
 30
0.0
 40
150.0
  1
基礎詳細
  7
STYLE2
100
AcDbText
  0
LINE
  5
23CF3
330
747D
100
AcDbEntity
  8
部品1
100
AcDbLine
 10
4775.362651950989
 20
3898.273079131214
 30
0.0
 11
4775.362651950989
 21
639.2035797765262
 31
0.0
  0
LEADER
  5
23CF4
330
747D
100
AcDbEntity
  8
寸法
 48
50.0
100
AcDbLeader
  3
INABA_S40G
 73
     0
 75
     1
 40
141.4772727272727
 41
764.7727272727273
 76
     3
 10
8256.88342264682
 20
2183.953146108006
 30
0.0
 10
8042.12863678264
 20
3239.426999053602
 30
0.0
 10
7942.128636782641
 20
3239.426999053602
 30
0.0
340
23CF5
1001
ACAD
1000
DSTYLE
1002
{
1070
   341
1005
0
1002
}
  0
MTEXT
  5
23CF5
102
{ACAD_REACTORS
330
23CF4
102
}
330
747D
100
AcDbEntity
  8
寸法
 62
     7
 48
50.0
100
AcDbMText
 10
7902.128636782641
 20
3350.165635417239
 30
0.0
 40
100.0
 41
1.0
 71
     6
 72
     1
  1
\A1;\U+03C670スリーブ
  7
STYLE2
 73
     1
 44
1.0
1001
ACAD
1000
MTEXTBEGIN
1070
    73
1070
     1
1070
    44
1040
1.0
1070
    74
1070
     0
1000
MTEXTEND
  0
MTEXT
  5
23CF6
102
{ACAD_REACTORS
330
23CF7
102
}
330
747D
100
AcDbEntity
  8
寸法
 62
     7
 48
50.0
100
AcDbMText
 10
5782.600775724262
 20
1748.684307931978
 30
0.0
 40
100.0
 41
1.0
 71
     6
 72
     1
  1
\A1;D10@300
  7
STYLE2
 73
     1
 44
1.0
1001
ACAD
1000
MTEXTBEGIN
1070
    73
1070
     1
1070
    44
1040
1.0
1070
    74
1070
     0
1000
MTEXTEND
  0
LEADER
  5
23CF7
330
747D
100
AcDbEntity
  8
寸法
 48
50.0
100
AcDbLeader
  3
INABA_S40G
 71
     0
 73
     0
 75
     1
 76
     3
 10
6024.163343502769
 20
1944.717572781561
 30
0.0
 10
5895.435547841897
 20
1667.879662105556
 30
0.0
 10
5795.435547841897
 20
1667.879662105556
 30
0.0
213
-12.16522788236671
223
-5.804645826423211
233
0.0
1001
ACAD
1000
DSTYLE
1002
{
1070
   147
1040
15.0
1070
   341
1005
0
1002
}
  0
LEADER
  5
23CF8
330
747D
100
AcDbEntity
  8
寸法
 48
50.0
100
AcDbLeader
  3
INABA_S40G
 71
     0
 73
     0
 75
     1
 76
     3
 10
5994.163343502769
 20
2247.058554410158
 30
0.0
 10
5935.245343584487
 20
2422.647011230892
 30
0.0
 10
5835.245343584487
 20
2422.647011230892
 30
0.0
1001
ACAD
1000
DSTYLE
1002
{
1070
   147
1040
17.0
1070
   341
1005
0
1002
}
  0
MTEXT
  5
23CF9
102
{ACAD_REACTORS
330
23CF8
102
}
330
747D
100
AcDbEntity
  8
寸法
 62
     7
 48
50.0
100
AcDbMText
 10
5810.245343584487
 20
2512.703829412711
 30
0.0
 40
100.0
 41
1.0
 71
     6
 72
     1
  1
\A1;金コテ押エ
  7
STYLE2
 73
     1
 44
1.0
1001
ACAD
1000
MTEXTBEGIN
1070
    73
1070
     1
1070
    44
1040
1.0
1070
    74
1070
     0
1000
MTEXTEND
  0
DIMENSION
  5
23CFA
330
747D
100
AcDbEntity
  8
寸法
 48
50.0
100
AcDbDimension
  2
*D29
 10
5133.518405466703
 20
1267.058554410158
 30
0.0
 11
5133.518405466703
 21
1757.058554410158
 31
0.0
 70
   160
  1
540
 71
     5
 42
980.0
  3
INABA_S40G
100
AcDbAlignedDimension
 13
5894.163343502767
 23
2247.058554410158
 33
0.0
 14
5634.163343502772
 24
1267.058554410158
 34
0.0
 50
90.0
100
AcDbRotatedDimension
1001
ACAD
1000
DSTYLE
1002
{
1070
   341
1005
0
1002
}
  0
MTEXT
  5
23CFB
102
{ACAD_REACTORS
330
23CFC
102
}
330
747D
100
AcDbEntity
  8
寸法
 62
     7
 48
50.0
100
AcDbMText
 10
5555.647970205569
 20
937.2599967128081
 30
0.0
 40
100.0
 41
1.0
 71
     6
 72
     1
  1
D13
  7
STYLE2
 73
     1
 44
1.0
1001
ACAD
1000
MTEXTBEGIN
1070
    73
1070
     1
1070
    44
1040
1.0
1070
    74
1070
     0
1000
MTEXTEND
  0
LEADER
  5
23CFC
330
747D
100
AcDbEntity
  8
寸法
 48
50.0
100
AcDbLeader
  3
INABA_S40G
 71
     0
 73
     0
 75
     1
 76
     3
 10
6014.163343502768
 20
1417.058554410157
 30
0.0
 10
5680.647970205569
 20
862.2599967128083
 30
0.0
 10
5580.647970205569
 20
862.2599967128083
 30
0.0
1001
ACAD
1000
DSTYLE
1002
{
1070
   147
1040
7.0
1070
   341
1005
0
1002
}
  0
DIMENSION
  5
23CFD
330
747D
100
AcDbEntity
  8
寸法
 48
50.0
100
AcDbDimension
  2
*D30
 10
6294.163343502769
 20
808.1064479542238
 30
0.0
 11
6014.163343502768
 21
808.1064479542238
 31
0.0
 70
   160
  1
300
 71
     5
 42
560.0000000000018
  3
INABA_S40G
100
AcDbAlignedDimension
 13
5734.163343502768
 23
1107.058554410158
 33
0.0
 14
6294.163343502769
 24
1107.058554410158
 34
0.0
100
AcDbRotatedDimension
1001
ACAD
1000
DSTYLE
1002
{
1070
   341
1005
0
1002
}
  0
LEADER
  5
23CFE
330
747D
100
AcDbEntity
  8
寸法
 48
50.0
100
AcDbLeader
  3
INABA_S40G
 73
     0
 75
     1
 40
132.9545454545455
 41
1129.404378023068
 76
     3
 10
8183.462484974258
 20
2334.008554410158
 30
0.0
 10
8075.432394543089
 20
2792.833022805574
 30
0.0
 10
7975.432394543088
 20
2792.833022805574
 30
0.0
340
23CFF
1001
ACAD
1000
DSTYLE
1002
{
1070
   341
1005
0
1002
}
  0
MTEXT
  5
23CFF
102
{ACAD_REACTORS
330
23CFE
102
}
330
747D
100
AcDbEntity
  8
寸法
 62
     7
 48
50.0
100
AcDbMText
 10
7935.432394543089
 20
2899.310295532847
 30
0.0
 40
100.0
 41
1.0
 71
     6
 72
     1
  1
アンカープレート {\fArial|b0|i0|c0|p32;U}
  7
STYLE2
 73
     1
 44
1.0
1001
ACAD
1000
MTEXTBEGIN
1070
    73
1070
     1
1070
    44
1040
1.0
1070
    74
1070
     0
1000
MTEXTEND
  0
LEADER
  5
23D00
330
747D
100
AcDbEntity
  8
寸法
 48
50.0
100
AcDbLeader
  3
INABA_S40G
 71
     0
 73
     0
 74
     0
 75
     1
 76
     3
 10
6106.594804769234
 20
1396.13289139325
 30
0.0
 10
6311.336413329332
 20
969.0943688996291
 30
0.0
 10
6411.336413329333
 20
969.0943688996291
 30
0.0
213
0.0
223
-1.277828345336728
233
0.0
1001
ACAD
1000
DSTYLE
1002
{
1070
   147
1040
15.0
1070
   341
1005
0
1002
}
  0
MTEXT
  5
23D01
102
{ACAD_REACTORS
330
23D00
102
}
330
747D
100
AcDbEntity
  8
寸法
 62
     7
 48
50.0
100
AcDbMText
 10
6436.336413329332
 20
1045.372197244965
 30
0.0
 40
100.0
 41
1.0
 71
     4
 72
     1
  1
\A1;D10@300
  7
STYLE2
 73
     1
 44
1.0
1001
ACAD
1000
MTEXTBEGIN
1070
    73
1070
     1
1070
    44
1040
1.0
1070
    74
1070
     0
1000
MTEXTEND
  0
CIRCLE
  5
23D02
330
747D
100
AcDbEntity
  8
部品1
 48
50.0
100
AcDbCircle
 10
6014.163343502768
 20
2072.376591152964
 30
0.0
 40
10.0
  0
LINE
  5
23D03
330
747D
100
AcDbEntity
  8
細線
 48
50.0
100
AcDbLine
 10
6044.163343502769
 20
2045.024670244946
 30
0.0
 11
6134.163343502768
 21
2135.024670244946
 31
0.0
  0
MTEXT
  5
23D04
102
{ACAD_REACTORS
330
23D09
102
}
330
747D
100
AcDbEntity
  8
寸法
 62
     7
 48
50.0
100
AcDbMText
 10
6237.770764787011
 20
2073.643006033817
 30
0.0
 40
100.0
 41
1.0
 71
     4
 72
     1
  1
D13
  7
STYLE2
 73
     1
 44
1.0
1001
ACAD
1000
MTEXTBEGIN
1070
    73
1070
     1
1070
    44
1040
1.0
1070
    74
1070
     0
1000
MTEXTEND
  0
TEXT
  5
23D05
330
747D
100
AcDbEntity
  8
部品1
 48
50.0
100
AcDbText
 10
5376.488466211572
 20
1961.107294764227
 30
0.0
 40
100.0
  1
▽G.L
  7
STYLE2
100
AcDbText
  0
ARC
  5
23D06
330
747D
100
AcDbEntity
  8
部品1
 48
50.0
100
AcDbCircle
 10
6014.163343502768
 20
2072.376591152964
 30
0.0
 40
30.0
100
AcDbArc
 50
0.0
 51
180.0
  0
LINE
  5
23D07
330
747D
100
AcDbEntity
  8
部品1
 48
50.0
100
AcDbLine
 10
5894.163343502767
 20
1567.058554410158
 30
0.0
 11
5894.163343502767
 21
2247.058554410158
 31
0.0
  0
LINE
  5
23D08
330
747D
100
AcDbEntity
  8
部品1
 48
50.0
100
AcDbLine
 10
6134.163343502768
 20
2247.058554410158
 30
0.0
 11
6134.163343502768
 21
1567.058554410158
 31
0.0
  0
LEADER
  5
23D09
330
747D
100
AcDbEntity
  8
寸法
 48
50.0
100
AcDbLeader
  3
INABA_S40G
 71
     0
 73
     0
 74
     0
 75
     1
 76
     3
 10
6014.163343502768
 20
2072.376591152964
 30
0.0
 10
6112.770764787011
 20
1998.643006033817
 30
0.0
 10
6212.770764787011
 20
1998.643006033817
 30
0.0
1001
ACAD
1000
DSTYLE
1002
{
1070
   147
1040
7.0
1070
   341
1005
0
1002
}
  0
LINE
  5
23D0A
330
747D
100
AcDbEntity
  8
細線
 48
50.0
100
AcDbLine
 10
6044.163343502775
 20
1775.61698661287
 30
0.0
 11
6134.163343502761
 21
1865.61698661287
 31
0.0
  0
LINE
  5
23D0B
330
747D
100
AcDbEntity
  8
細線
 48
50.0
100
AcDbLine
 10
6044.163343502775
 20
1809.292947066884
 30
0.0
 11
6134.163343502761
 21
1899.292947066877
 31
0.0
  0
LINE
  5
23D0C
330
747D
100
AcDbEntity
  8
細線
 48
50.0
100
AcDbLine
 10
6044.163343502775
 20
1506.209302980797
 30
0.0
 11
6134.163343502761
 21
1596.209302980796
 31
0.0
  0
LINE
  5
23D0D
330
747D
100
AcDbEntity
  8
細線
 48
50.0
100
AcDbLine
 10
6044.163343502775
 20
1573.561223888819
 30
0.0
 11
6134.163343502761
 21
1663.561223888814
 31
0.0
  0
LINE
  5
23D0E
330
747D
100
AcDbEntity
  8
細線
 48
50.0
100
AcDbLine
 10
6044.163343502775
 20
1539.885263434809
 30
0.0
 11
6134.163343502761
 21
1629.885263434802
 31
0.0
  0
LINE
  5
23D10
330
747D
100
AcDbEntity
  8
細線
 48
50.0
100
AcDbLine
 10
6089.251949056844
 20
1107.058554410158
 30
0.0
 11
6132.123819845826
 21
1267.058554410156
 31
0.0
  0
LINE
  5
23D11
330
747D
100
AcDbEntity
  8
細線
 48
50.0
100
AcDbLine
 10
6097.290424829786
 20
1137.058554410158
 30
0.0
 11
6105.328900602719
 21
1107.058554410158
 31
0.0
  0
LINE
  5
23D12
330
747D
100
AcDbEntity
  8
細線
 48
50.0
100
AcDbLine
 10
6007.068357656186
 20
1267.058554410158
 30
0.0
 11
6127.068357656185
 21
1387.058554410158
 31
0.0
  0
LINE
  5
23D13
330
747D
100
AcDbEntity
  8
細線
 48
50.0
100
AcDbLine
 10
6040.744318110198
 20
1267.058554410158
 30
0.0
 11
6160.744318110198
 21
1387.058554410158
 31
0.0
  0
LINE
  5
23D14
330
747D
100
AcDbEntity
  8
細線
 48
50.0
100
AcDbLine
 10
6074.420278564204
 20
1267.058554410158
 30
0.0
 11
6194.421388370624
 21
1387.059664216582
 31
0.0
  0
LINE
  5
23D15
330
747D
100
AcDbEntity
  8
部品1
 48
50.0
100
AcDbLine
 10
6394.163343502771
 20
1107.058554410158
 30
0.0
 11
5634.163343502772
 21
1107.058554410158
 31
0.0
  0
LINE
  5
23D16
330
747D
100
AcDbEntity
  8
部品1
 48
50.0
100
AcDbLine
 10
6394.163343502771
 20
1267.058554410158
 30
0.0
 11
5634.163343502772
 21
1267.058554410158
 31
0.0
  0
LINE
  5
23D17
330
747D
100
AcDbEntity
  8
部品1
 48
50.0
100
AcDbLine
 10
5804.163343502767
 20
1387.058554410158
 30
0.0
 11
6224.163343502769
 21
1387.058554410158
 31
0.0
  0
LINE
  5
23D18
330
747D
100
AcDbEntity
  8
部品1
 48
50.0
100
AcDbLine
 10
5804.163343502767
 20
1407.058554410158
 30
0.0
 11
6224.163343502769
 21
1407.058554410158
 31
0.0
  0
LINE
  5
23D19
330
747D
100
AcDbEntity
  8
細線
 48
50.0
100
AcDbLine
 10
6044.163343502769
 20
1842.96890752089
 30
0.0
 11
6134.163343502768
 21
1932.96890752089
 31
0.0
  0
LINE
  5
23D1A
330
747D
100
AcDbEntity
  8
細線
 48
50.0
100
AcDbLine
 10
5734.163343502761
 20
1465.616986612872
 30
0.0
 11
5835.604911300054
 21
1567.058554410158
 31
0.0
  0
DIMENSION
  5
23D1B
330
747D
100
AcDbEntity
  8
寸法
 48
50.0
100
AcDbDimension
  2
*D31
 10
5556.137951337193
 20
1267.058554410158
 30
0.0
 11
5556.137951337193
 21
1417.058554410157
 31
0.0
 70
   160
  1
150
 71
     5
 42
300.0
  3
INABA_S40G
100
AcDbAlignedDimension
 13
5734.163343502768
 23
1567.058554410158
 33
0.0
 14
5634.163343502772
 24
1267.058554410158
 34
0.0
 50
90.0
100
AcDbRotatedDimension
1001
ACAD
1000
DSTYLE
1002
{
1070
   341
1005
0
1002
}
  0
LINE
  5
23D1C
330
747D
100
AcDbEntity
  8
部品1
 48
50.0
100
AcDbLine
 10
5734.163343502768
 20
1267.058554410158
 30
0.0
 11
5734.163343502768
 21
1567.058554410158
 31
0.0
  0
LINE
  5
23D1D
330
747D
100
AcDbEntity
  8
細線
 48
50.0
100
AcDbLine
 10
5993.995652849523
 20
1489.717572781561
 30
0.0
 11
6024.163343502775
 21
1519.885263434808
 31
0.0
  0
LINE
  5
23D1E
330
747D
100
AcDbEntity
  8
細線
 48
50.0
100
AcDbLine
 10
5877.66067402411
 20
1407.058554410158
 30
0.0
 11
6024.163343502769
 21
1553.561223888815
 31
0.0
  0
LINE
  5
23D1F
330
747D
100
AcDbEntity
  8
部品1
 48
50.0
100
AcDbLine
 10
6044.163343502775
 20
1417.058554410157
 30
0.0
 11
6044.163343502769
 21
2072.376591152964
 31
0.0
  0
LINE
  5
23D20
330
747D
100
AcDbEntity
  8
部品1
 48
50.0
100
AcDbLine
 10
6024.163343502775
 20
1417.058554410157
 30
0.0
 11
6024.163343502761
 21
2072.376591152964
 31
0.0
  0
LEADER
  5
23D21
330
747D
100
AcDbEntity
  8
寸法
 48
50.0
100
AcDbLeader
  3
INABA_S40G
 71
     0
 73
     0
 75
     1
 76
     3
 10
5854.042033942946
 20
1417.058554410157
 30
0.0
 10
5645.494560758774
 20
1087.655187387112
 30
0.0
 10
5545.494560758775
 20
1087.655187387112
 30
0.0
1001
ACAD
1000
DSTYLE
1002
{
1070
   147
1040
7.0
1070
   341
1005
0
1002
}
  0
LINE
  5
23D22
330
747D
100
AcDbEntity
  8
部品1
 48
50.0
100
AcDbLine
 10
5634.163343502772
 20
1107.058554410158
 30
0.0
 11
5634.163343502772
 21
1267.058554410158
 31
0.0
  0
MTEXT
  5
23D23
102
{ACAD_REACTORS
330
23D21
102
}
330
747D
100
AcDbEntity
  8
寸法
 62
     7
 48
50.0
100
AcDbMText
 10
5520.494560758775
 20
1162.655187387112
 30
0.0
 40
100.0
 41
1.0
 71
     6
 72
     1
  1
D10
  7
STYLE2
 73
     1
 44
1.0
1001
ACAD
1000
MTEXTBEGIN
1070
    73
1070
     1
1070
    44
1040
1.0
1070
    74
1070
     0
1000
MTEXTEND
  0
LINE
  5
23D24
330
747D
100
AcDbEntity
  8
細線
 48
50.0
100
AcDbLine
 10
5634.163343502767
 20
1248.733455617383
 30
0.0
 11
5639.073538925512
 21
1267.058554410158
 31
0.0
  0
LINE
  5
23D25
330
747D
100
AcDbEntity
  8
細線
 48
50.0
100
AcDbLine
 10
5892.031836688722
 20
1107.058554410156
 30
0.0
 11
5934.903707477701
 21
1267.058554410156
 31
0.0
  0
LINE
  5
23D26
330
747D
100
AcDbEntity
  8
細線
 48
50.0
100
AcDbLine
 10
5694.811724320591
 20
1107.058554410156
 30
0.0
 11
5737.68359510957
 21
1267.058554410156
 31
0.0
  0
LINE
  5
23D27
330
747D
100
AcDbEntity
  8
細線
 48
50.0
100
AcDbLine
 10
5793.421780504663
 20
1107.058554410158
 30
0.0
 11
5836.293651293642
 21
1267.058554410158
 31
0.0
  0
LINE
  5
23D28
330
747D
100
AcDbEntity
  8
細線
 48
50.0
100
AcDbLine
 10
5990.641892872784
 20
1107.058554410158
 30
0.0
 11
6033.513763661765
 21
1267.058554410158
 31
0.0
  0
LINE
  5
23D29
330
747D
100
AcDbEntity
  8
細線
 48
50.0
100
AcDbLine
 10
5801.460256277596
 20
1137.058554410158
 30
0.0
 11
5809.49873205053
 21
1107.058554410158
 31
0.0
  0
LINE
  5
23D2A
330
747D
100
AcDbEntity
  8
細線
 48
50.0
100
AcDbLine
 10
5702.850200093532
 20
1137.058554410158
 30
0.0
 11
5710.888675866467
 21
1107.058554410158
 31
0.0
  0
LINE
  5
23D2B
330
747D
100
AcDbEntity
  8
細線
 48
50.0
100
AcDbLine
 10
5900.070312461662
 20
1137.058554410158
 30
0.0
 11
5908.108788234595
 21
1107.058554410158
 31
0.0
  0
LINE
  5
23D2C
330
747D
100
AcDbEntity
  8
細線
 48
50.0
100
AcDbLine
 10
5998.680368645728
 20
1137.058554410158
 30
0.0
 11
6006.71884441866
 21
1107.058554410158
 31
0.0
  0
LINE
  5
23D2D
330
747D
100
AcDbEntity
  8
細線
 48
50.0
100
AcDbLine
 10
5805.012594932129
 20
1267.058554410158
 30
0.0
 11
5925.012594932129
 21
1387.058554410158
 31
0.0
  0
LINE
  5
23D2E
330
747D
100
AcDbEntity
  8
部品1
 48
50.0
100
AcDbLine
 10
5804.163343502767
 20
1407.058554410158
 30
0.0
 11
5804.163343502767
 21
1387.058554410158
 31
0.0
  0
CIRCLE
  5
23D2F
330
747D
100
AcDbEntity
  8
部品1
 48
50.0
100
AcDbCircle
 10
5854.163343502767
 20
1417.058554410157
 30
0.0
 40
10.0
  0
LINE
  5
23D30
330
747D
100
AcDbEntity
  8
細線
 48
50.0
100
AcDbLine
 10
5828.255175520709
 20
1237.058554410158
 30
0.0
 11
5820.216699747775
 21
1267.058554410158
 31
0.0
  0
LINE
  5
23D31
330
747D
100
AcDbEntity
  8
細線
 48
50.0
100
AcDbLine
 10
5729.645119336644
 20
1237.058554410158
 30
0.0
 11
5721.60664356371
 21
1267.058554410158
 31
0.0
  0
LINE
  5
23D32
330
747D
100
AcDbEntity
  8
細線
 48
50.0
100
AcDbLine
 10
5771.336634478124
 20
1267.058554410158
 30
0.0
 11
5891.336634478124
 21
1387.058554410158
 31
0.0
  0
LINE
  5
23D33
330
747D
100
AcDbEntity
  8
細線
 48
50.0
100
AcDbLine
 10
5737.660674024111
 20
1267.058554410158
 30
0.0
 11
5857.66067402411
 21
1387.058554410158
 31
0.0
  0
LINE
  5
23D34
330
747D
100
AcDbEntity
  8
細線
 48
50.0
100
AcDbLine
 10
6004.163343502769
 20
1466.209302980796
 30
0.0
 11
6024.163343502775
 21
1486.209302980796
 31
0.0
  0
CIRCLE
  5
23D35
330
747D
100
AcDbEntity
  8
部品1
 48
50.0
100
AcDbCircle
 10
6014.163343502768
 20
1417.058554410157
 30
0.0
 40
10.0
  0
LINE
  5
23D36
330
747D
100
AcDbEntity
  8
部品1
 48
50.0
100
AcDbLine
 10
6004.163343502769
 20
1489.717572781561
 30
0.0
 11
6004.163343502769
 21
1417.058554410157
 31
0.0
  0
ARC
  5
23D37
330
747D
100
AcDbEntity
  8
部品1
 48
50.0
100
AcDbCircle
 10
6014.163343502768
 20
1417.058554410157
 30
0.0
 40
30.0
100
AcDbArc
 50
340.5287793655165
 51
0.0
  0
LINE
  5
23D38
330
747D
100
AcDbEntity
  8
細線
 48
50.0
100
AcDbLine
 10
6025.475287888838
 20
1237.058554410158
 30
0.0
 11
6017.436812115905
 21
1267.058554410158
 31
0.0
  0
LINE
  5
23D39
330
747D
100
AcDbEntity
  8
部品1
 48
50.0
100
AcDbLine
 10
5984.163343502768
 20
1489.717572781561
 30
0.0
 11
5984.163343502768
 21
1417.058554410157
 31
0.0
  0
ARC
  5
23D3A
330
747D
100
AcDbEntity
  8
部品1
 48
50.0
100
AcDbCircle
 10
6014.163343502768
 20
1417.058554410157
 30
0.0
 40
30.0
100
AcDbArc
 50
180.0
 51
199.4712206344835
  0
LINE
  5
23D3B
330
747D
100
AcDbEntity
  8
細線
 48
50.0
100
AcDbLine
 10
5911.336634478124
 20
1407.058554410158
 30
0.0
 11
5984.163343502768
 21
1479.885263434806
 31
0.0
  0
LINE
  5
23D3C
330
747D
100
AcDbEntity
  8
細線
 48
50.0
100
AcDbLine
 10
5945.012594932129
 20
1407.058554410158
 30
0.0
 11
5984.163343502768
 21
1446.209302980796
 31
0.0
  0
LINE
  5
23D3D
330
747D
100
AcDbEntity
  8
細線
 48
50.0
100
AcDbLine
 10
5926.865231704773
 20
1237.058554410158
 30
0.0
 11
5918.82675593184
 21
1267.058554410158
 31
0.0
  0
LINE
  5
23D3E
330
747D
100
AcDbEntity
  8
部品1
 48
50.0
100
AcDbLine
 10
6004.163343502769
 20
1489.717572781561
 30
0.0
 11
5984.163343502768
 21
1489.717572781561
 31
0.0
  0
LWPOLYLINE
  5
23D3F
330
747D
100
AcDbEntity
  8
部品1
 48
50.0
100
AcDbPolyline
 90
        2
 70
     0
 43
10.0
 10
5376.488466211572
 20
1947.058554410159
 10
5894.163343502767
 20
1947.058554410159
  0
LINE
  5
23D40
330
747D
100
AcDbEntity
  8
細線
 48
50.0
100
AcDbLine
 10
5894.163343502767
 20
1659.29294706688
 30
0.0
 11
6024.163343502775
 21
1789.292947066884
 31
0.0
  0
LINE
  5
23D41
330
747D
100
AcDbEntity
  8
細線
 48
50.0
100
AcDbLine
 10
5894.163343502767
 20
1692.96890752089
 30
0.0
 11
6024.163343502769
 21
1822.96890752089
 31
0.0
  0
LINE
  5
23D42
330
747D
100
AcDbEntity
  8
細線
 48
50.0
100
AcDbLine
 10
5894.163343502767
 20
1625.616986612871
 30
0.0
 11
6024.163343502768
 21
1755.616986612864
 31
0.0
  0
LINE
  5
23D43
330
747D
100
AcDbEntity
  8
細線
 48
50.0
100
AcDbLine
 10
5734.163343502761
 20
1532.96890752089
 30
0.0
 11
5768.252990392035
 21
1567.058554410158
 31
0.0
  0
LINE
  5
23D44
330
747D
100
AcDbEntity
  8
部品1
 48
50.0
100
AcDbLine
 10
5734.163343502768
 20
1567.058554410158
 30
0.0
 11
5894.163343502767
 21
1567.058554410158
 31
0.0
  0
LINE
  5
23D45
330
747D
100
AcDbEntity
  8
細線
 48
50.0
100
AcDbLine
 10
5734.163343502761
 20
1499.292947066877
 30
0.0
 11
5801.92895084605
 21
1567.058554410158
 31
0.0
  0
LINE
  5
23D48
330
747D
100
AcDbEntity
  8
細線
 48
50.0
100
AcDbLine
 10
5894.163343502767
 20
1962.376591152964
 30
0.0
 11
5984.163343502768
 21
2052.376591152965
 31
0.0
  0
LINE
  5
23D49
330
747D
100
AcDbEntity
  8
細線
 48
50.0
100
AcDbLine
 10
5894.163343502767
 20
1928.700630698955
 30
0.0
 11
5984.163343502768
 21
2018.700630698955
 31
0.0
  0
LINE
  5
23D4A
330
747D
100
AcDbEntity
  8
細線
 48
50.0
100
AcDbLine
 10
5894.163343502767
 20
1895.024670244946
 30
0.0
 11
5998.856246039386
 21
1999.71757278156
 31
0.0
  0
LINE
  5
23D4B
330
747D
100
AcDbEntity
  8
細線
 48
50.0
100
AcDbLine
 10
6004.163343502769
 20
2005.024670244946
 30
0.0
 11
6024.163343502769
 21
2025.024670244946
 31
0.0
  0
LINE
  5
23D4C
330
747D
100
AcDbEntity
  8
細線
 48
50.0
100
AcDbLine
 10
6004.163343502769
 20
2038.700630698955
 30
0.0
 11
6024.163343502769
 21
2058.700630698955
 31
0.0
  0
LINE
  5
23D4D
330
747D
100
AcDbEntity
  8
部品1
 48
50.0
100
AcDbLine
 10
6004.163343502769
 20
1999.71757278156
 30
0.0
 11
6004.163343502769
 21
2072.376591152964
 31
0.0
  0
LINE
  5
23D4E
330
747D
100
AcDbEntity
  8
部品1
 48
50.0
100
AcDbLine
 10
5984.163343502768
 20
1999.717572781564
 30
0.0
 11
5984.163343502768
 21
2072.376591152964
 31
0.0
  0
LINE
  5
23D4F
330
747D
100
AcDbEntity
  8
部品1
 48
50.0
100
AcDbLine
 10
6004.163343502769
 20
1999.71757278156
 30
0.0
 11
5984.163343502768
 21
1999.717572781564
 31
0.0
  0
LINE
  5
23D50
330
747D
100
AcDbEntity
  8
細線
 48
50.0
100
AcDbLine
 10
6180.744318110198
 20
1407.058554410158
 30
0.0
 11
6294.163343502769
 21
1520.47757980273
 31
0.0
  0
LINE
  5
23D51
330
747D
100
AcDbEntity
  8
細線
 48
50.0
100
AcDbLine
 10
6147.068357656177
 20
1407.058554410158
 30
0.0
 11
6294.163343502769
 21
1554.153540256741
 31
0.0
  0
LINE
  5
23D52
330
747D
100
AcDbEntity
  8
部品1
 48
50.0
100
AcDbLine
 10
6294.163343502769
 20
1567.058554410158
 30
0.0
 11
6294.163343502769
 21
1267.058554410158
 31
0.0
  0
LEADER
  5
23D53
330
747D
100
AcDbEntity
  8
寸法
 48
50.0
100
AcDbLeader
  3
INABA_S40G
 71
     0
 73
     0
 74
     0
 75
     1
 76
     3
 10
6174.042033942948
 20
1417.058554410157
 30
0.0
 10
6298.322918261124
 20
1297.812218231442
 30
0.0
 10
6398.322918261125
 20
1297.812218231442
 30
0.0
1001
ACAD
1000
DSTYLE
1002
{
1070
   147
1040
7.0
1070
   341
1005
0
1002
}
  0
MTEXT
  5
23D54
102
{ACAD_REACTORS
330
23D53
102
}
330
747D
100
AcDbEntity
  8
寸法
 62
     7
 48
50.0
100
AcDbMText
 10
6423.322918261125
 20
1372.812218231442
 30
0.0
 40
100.0
 41
1.0
 71
     4
 72
     1
  1
D10
  7
STYLE2
 73
     1
 44
1.0
1001
ACAD
1000
MTEXTBEGIN
1070
    73
1070
     1
1070
    44
1040
1.0
1070
    74
1070
     0
1000
MTEXTEND
  0
LINE
  5
23D55
330
747D
100
AcDbEntity
  8
部品1
 48
50.0
100
AcDbLine
 10
6394.163343502771
 20
1267.058554410158
 30
0.0
 11
6394.163343502771
 21
1107.058554410158
 31
0.0
  0
LINE
  5
23D56
330
747D
100
AcDbEntity
  8
細線
 48
50.0
100
AcDbLine
 10
6286.472061424959
 20
1107.058554410158
 30
0.0
 11
6329.343932213941
 21
1267.058554410156
 31
0.0
  0
LINE
  5
23D57
330
747D
100
AcDbEntity
  8
細線
 48
50.0
100
AcDbLine
 10
6187.862005240905
 20
1107.058554410156
 30
0.0
 11
6230.733876029884
 21
1267.058554410156
 31
0.0
  0
LINE
  5
23D58
330
747D
100
AcDbEntity
  8
細線
 48
50.0
100
AcDbLine
 10
6294.5105371979
 20
1137.058554410158
 30
0.0
 11
6302.549012970833
 21
1107.058554410158
 31
0.0
  0
LINE
  5
23D59
330
747D
100
AcDbEntity
  8
細線
 48
50.0
100
AcDbLine
 10
6195.900481013842
 20
1137.058554410158
 30
0.0
 11
6203.938956786775
 21
1107.058554410158
 31
0.0
  0
LINE
  5
23D5A
330
747D
100
AcDbEntity
  8
細線
 48
50.0
100
AcDbLine
 10
6393.120593381955
 20
1137.058554410158
 30
0.0
 11
6394.163343502768
 21
1133.166957979702
 31
0.0
  0
LINE
  5
23D5B
330
747D
100
AcDbEntity
  8
細線
 48
50.0
100
AcDbLine
 10
6385.08211760902
 20
1107.058554410156
 30
0.0
 11
6394.163343502768
 21
1140.950150840643
 31
0.0
  0
LINE
  5
23D5C
330
747D
100
AcDbEntity
  8
細線
 48
50.0
100
AcDbLine
 10
6214.420278564203
 20
1407.058554410158
 30
0.0
 11
6294.163343502769
 21
1486.801619348722
 31
0.0
  0
LINE
  5
23D5D
330
747D
100
AcDbEntity
  8
部品1
 48
50.0
100
AcDbLine
 10
6224.163343502769
 20
1407.058554410158
 30
0.0
 11
6224.163343502769
 21
1387.058554410158
 31
0.0
  0
CIRCLE
  5
23D5E
330
747D
100
AcDbEntity
  8
部品1
 48
50.0
100
AcDbCircle
 10
6174.163343502769
 20
1417.058554410157
 30
0.0
 40
10.0
  0
LINE
  5
23D5F
330
747D
100
AcDbEntity
  8
細線
 48
50.0
100
AcDbLine
 10
6222.695400256955
 20
1237.058554410158
 30
0.0
 11
6214.65692448402
 21
1267.058554410158
 31
0.0
  0
LINE
  5
23D60
330
747D
100
AcDbEntity
  8
細線
 48
50.0
100
AcDbLine
 10
6276.476041288261
 20
1267.058554410158
 30
0.0
 11
6294.163343502769
 21
1284.745856624666
 31
0.0
  0
LINE
  5
23D61
330
747D
100
AcDbEntity
  8
細線
 48
50.0
100
AcDbLine
 10
6124.085344072896
 20
1237.058554410158
 30
0.0
 11
6116.046868299963
 21
1267.058554410158
 31
0.0
  0
LINE
  5
23D62
330
747D
100
AcDbEntity
  8
細線
 48
50.0
100
AcDbLine
 10
6321.305456441011
 20
1237.058554410158
 30
0.0
 11
6313.266980668078
 21
1267.058554410158
 31
0.0
  0
LWPOLYLINE
  5
23D63
330
747D
100
AcDbEntity
  8
部品1
 48
50.0
100
AcDbPolyline
 90
        2
 70
     0
 43
10.0
 10
6134.163343502768
 20
1947.058554410159
 10
6651.838220793964
 20
1947.058554410159
  0
LINE
  5
23D65
330
747D
100
AcDbEntity
  8
部品1
 48
50.0
100
AcDbLine
 10
6134.163343502768
 20
1567.058554410158
 30
0.0
 11
6294.163343502769
 21
1567.058554410158
 31
0.0
  0
LINE
  5
23D66
330
747D
100
AcDbEntity
  8
細線
 48
50.0
100
AcDbLine
 10
6043.604227585252
 20
2078.141514781435
 30
0.0
 11
6134.163343502768
 21
2168.700630698955
 31
0.0
  0
LINE
  5
23D67
330
747D
100
AcDbEntity
  8
細線
 48
50.0
100
AcDbLine
 10
6029.778871630856
 20
2097.992119281053
 30
0.0
 11
6134.163343502768
 21
2202.376591152964
 31
0.0
  0
DIMENSION
  5
23D68
330
747D
100
AcDbEntity
  8
寸法
 48
50.0
100
AcDbDimension
  2
*D32
 10
5894.163343502767
 20
2647.058554410158
 30
0.0
 11
6014.163343502767
 21
2647.058554410158
 31
0.0
 70
   160
  1
120
 71
     5
 42
240.0000000000009
  3
INABA_S40G
100
AcDbAlignedDimension
 13
6134.163343502768
 23
2247.058554410158
 33
0.0
 14
5894.163343502767
 24
2247.058554410158
 34
0.0
100
AcDbRotatedDimension
1001
ACAD
1000
DSTYLE
1002
{
1070
   341
1005
0
1002
}
  0
LINE
  5
23D69
330
747D
100
AcDbEntity
  8
部品1
 48
50.0
100
AcDbLine
 10
5894.163343502767
 20
2247.058554410158
 30
0.0
 11
6134.163343502768
 21
2247.058554410158
 31
0.0
  0
LINE
  5
23D6A
330
747D
100
AcDbEntity
  8
細線
 48
50.0
100
AcDbLine
 10
5894.163343502767
 20
2231.784274785039
 30
0.0
 11
5909.437623127888
 21
2247.058554410158
 31
0.0
  0
LINE
  5
23D6B
330
747D
100
AcDbEntity
  8
細線
 48
50.0
100
AcDbLine
 10
5894.163343502767
 20
2198.10831433103
 30
0.0
 11
5943.1135835819
 21
2247.058554410158
 31
0.0
  0
LINE
  5
23D6C
330
747D
100
AcDbEntity
  8
細線
 48
50.0
100
AcDbLine
 10
5894.163343502767
 20
2164.432353877021
 30
0.0
 11
5976.789544035904
 21
2247.058554410158
 31
0.0
  0
LINE
  5
23D6D
330
747D
100
AcDbEntity
  8
部品1
100
AcDbLine
 10
8536.712484974257
 20
1567.058554410158
 30
0.0
 11
8536.712484974261
 21
2247.058554410158
 31
0.0
  0
LINE
  5
23D6E
330
747D
100
AcDbEntity
  8
部品1
100
AcDbLine
 10
8307.212484974263
 20
1965.808554410157
 30
0.0
 11
8307.212484974254
 21
2308.508554410158
 31
0.0
  0
LINE
  5
23D6F
330
747D
100
AcDbEntity
  8
部品1
100
AcDbLine
 10
8284.712484974262
 20
1965.808554410157
 30
0.0
 11
8284.712484974258
 21
2308.508554410158
 31
0.0
  0
LINE
  5
23D70
330
747D
100
AcDbEntity
  8
細線
 48
50.0
100
AcDbLine
 10
8019.212484974259
 20
1962.376591152964
 30
0.0
 11
8217.212484974258
 21
2160.376591152962
 31
0.0
  0
LINE
  5
23D71
330
747D
100
AcDbEntity
  8
細線
 48
50.0
100
AcDbLine
 10
8019.212484974259
 20
1928.700630698955
 30
0.0
 11
8217.212484974258
 21
2126.700630698952
 31
0.0
  0
TEXT
  5
23D72
330
747D
100
AcDbEntity
  8
部品1
 48
50.0
100
AcDbText
 10
7501.537607683065
 20
1961.107294764227
 30
0.0
 40
100.0
  1
▽G.L
  7
STYLE2
100
AcDbText
  0
LINE
  5
23D73
330
747D
100
AcDbEntity
  8
細線
 48
50.0
100
AcDbLine
 10
8019.212484974259
 20
1895.024670244946
 30
0.0
 11
8217.212484974254
 21
2093.024670244937
 31
0.0
  0
LINE
  5
23D74
330
747D
100
AcDbEntity
  8
部品1
 48
50.0
100
AcDbLine
 10
8019.212484974259
 20
1567.058554410158
 30
0.0
 11
8019.212484974259
 21
2247.058554410158
 31
0.0
  0
LINE
  5
23D75
330
747D
100
AcDbEntity
  8
部品1
100
AcDbLine
 10
8374.712484974262
 20
1842.058554410158
 30
0.0
 11
8374.712484974262
 21
2247.058554410158
 31
0.0
  0
LINE
  5
23D76
330
747D
100
AcDbEntity
  8
部品1
100
AcDbLine
 10
8217.212484974254
 20
1842.058554410158
 30
0.0
 11
8217.212484974261
 21
2247.058554410158
 31
0.0
  0
LINE
  5
23D77
330
747D
100
AcDbEntity
  8
細線
 48
50.0
100
AcDbLine
 10
8374.712484974262
 20
1981.116986612856
 30
0.0
 11
8536.712484974261
 21
2143.116986612845
 31
0.0
  0
LINE
  5
23D78
330
747D
100
AcDbEntity
  8
細線
 48
50.0
100
AcDbLine
 10
8374.712484974262
 20
2014.792947066871
 30
0.0
 11
8536.712484974261
 21
2176.792947066868
 31
0.0
  0
LINE
  5
23D79
330
747D
100
AcDbEntity
  8
細線
 48
50.0
100
AcDbLine
 10
8374.712484974262
 20
2048.468907520893
 30
0.0
 11
8536.712484974261
 21
2210.468907520892
 31
0.0
  0
LWPOLYLINE
  5
23D7A
330
747D
100
AcDbEntity
  8
部品1
 48
50.0
100
AcDbPolyline
 90
        2
 70
     0
 43
10.0
 10
7501.537607683065
 20
1947.058554410159
 10
8019.212484974259
 20
1947.058554410159
  0
LINE
  5
23D7B
330
747D
100
AcDbEntity
  8
細線
 48
50.0
100
AcDbLine
 10
7859.212484974253
 20
1465.616986612872
 30
0.0
 11
7960.654052771547
 21
1567.058554410158
 31
0.0
  0
LINE
  5
23D7C
330
747D
100
AcDbEntity
  8
部品1
 48
50.0
100
AcDbLine
 10
7859.212484974261
 20
1267.058554410158
 30
0.0
 11
7859.212484974261
 21
1567.058554410158
 31
0.0
  0
LINE
  5
23D7D
330
747D
100
AcDbEntity
  8
細線
 48
50.0
100
AcDbLine
 10
7862.709815495603
 20
1267.058554410158
 30
0.0
 11
8536.712484974257
 21
1941.061223888815
 31
0.0
  0
LINE
  5
23D7E
330
747D
100
AcDbEntity
  8
細線
 48
50.0
100
AcDbLine
 10
7930.06173640362
 20
1267.058554410158
 30
0.0
 11
8536.712484974261
 21
1873.709302980793
 31
0.0
  0
LINE
  5
23D7F
330
747D
100
AcDbEntity
  8
細線
 48
50.0
100
AcDbLine
 10
7896.385775949616
 20
1267.058554410158
 30
0.0
 11
8536.712484974261
 21
1907.3852634348
 31
0.0
  0
LINE
  5
23D80
330
747D
100
AcDbEntity
  8
細線
 48
50.0
100
AcDbLine
 10
8165.793459581689
 20
1267.058554410158
 30
0.0
 11
8536.712484974261
 21
1637.977579802724
 31
0.0
  0
LINE
  5
23D81
330
747D
100
AcDbEntity
  8
細線
 48
50.0
100
AcDbLine
 10
8199.469420035697
 20
1267.058554410158
 30
0.0
 11
8536.712484974261
 21
1604.30161934873
 31
0.0
  0
LINE
  5
23D82
330
747D
100
AcDbEntity
  8
細線
 48
50.0
100
AcDbLine
 10
8132.117499127678
 20
1267.058554410158
 30
0.0
 11
8536.712484974257
 21
1671.65354025674
 31
0.0
  0
LINE
  5
23D83
330
747D
100
AcDbEntity
  8
細線
 48
50.0
100
AcDbLine
 10
8115.691034344278
 20
1107.058554410158
 30
0.0
 11
8158.562905133257
 21
1267.058554410158
 31
0.0
  0
LINE
  5
23D84
330
747D
100
AcDbEntity
  8
細線
 48
50.0
100
AcDbLine
 10
7918.470921976155
 20
1107.058554410158
 30
0.0
 11
7961.342792765134
 21
1267.058554410158
 31
0.0
  0
LINE
  5
23D85
330
747D
100
AcDbEntity
  8
部品1
 48
50.0
100
AcDbLine
 10
7759.212484974263
 20
1107.058554410158
 30
0.0
 11
7759.212484974263
 21
1267.058554410158
 31
0.0
  0
LINE
  5
23D86
330
747D
100
AcDbEntity
  8
細線
 48
50.0
100
AcDbLine
 10
7819.860865792084
 20
1107.058554410156
 30
0.0
 11
7862.732736581064
 21
1267.058554410156
 31
0.0
  0
LINE
  5
23D87
330
747D
100
AcDbEntity
  8
細線
 48
50.0
100
AcDbLine
 10
8017.080978160212
 20
1107.058554410156
 30
0.0
 11
8059.952848949192
 21
1267.058554410156
 31
0.0
  0
LINE
  5
23D88
330
747D
100
AcDbEntity
  8
細線
 48
50.0
100
AcDbLine
 10
7926.509397749089
 20
1137.058554410158
 30
0.0
 11
7934.547873522022
 21
1107.058554410158
 31
0.0
  0
LINE
  5
23D89
330
747D
100
AcDbEntity
  8
細線
 48
50.0
100
AcDbLine
 10
7827.899341565025
 20
1137.058554410158
 30
0.0
 11
7835.937817337958
 21
1107.058554410158
 31
0.0
  0
LINE
  5
23D8A
330
747D
100
AcDbEntity
  8
細線
 48
50.0
100
AcDbLine
 10
8123.72951011722
 20
1137.058554410158
 30
0.0
 11
8131.767985890151
 21
1107.058554410158
 31
0.0
  0
LINE
  5
23D8B
330
747D
100
AcDbEntity
  8
細線
 48
50.0
100
AcDbLine
 10
8025.119453933156
 20
1137.058554410158
 30
0.0
 11
8033.157929706089
 21
1107.058554410158
 31
0.0
  0
LINE
  5
23D8C
330
747D
100
AcDbEntity
  8
細線
 48
50.0
100
AcDbLine
 10
7953.304316992201
 20
1237.058554410158
 30
0.0
 11
7945.265841219267
 21
1267.058554410158
 31
0.0
  0
LINE
  5
23D8D
330
747D
100
AcDbEntity
  8
細線
 48
50.0
100
AcDbLine
 10
7759.21248497426
 20
1248.733455617383
 30
0.0
 11
7764.122680397005
 21
1267.058554410158
 31
0.0
  0
LINE
  5
23D8E
330
747D
100
AcDbEntity
  8
細線
 48
50.0
100
AcDbLine
 10
7854.694260808135
 20
1237.058554410158
 30
0.0
 11
7846.655785035203
 21
1267.058554410158
 31
0.0
  0
LINE
  5
23D8F
330
747D
100
AcDbEntity
  8
細線
 48
50.0
100
AcDbLine
 10
8150.524429360331
 20
1237.058554410158
 30
0.0
 11
8142.485953587398
 21
1267.058554410158
 31
0.0
  0
LINE
  5
23D90
330
747D
100
AcDbEntity
  8
細線
 48
50.0
100
AcDbLine
 10
8051.914373176265
 20
1237.058554410158
 30
0.0
 11
8043.875897403333
 21
1267.058554410158
 31
0.0
  0
LINE
  5
23D91
330
747D
100
AcDbEntity
  8
細線
 48
50.0
100
AcDbLine
 10
8510.131259080514
 20
1107.058554410156
 30
0.0
 11
8553.003129869479
 21
1267.058554410158
 31
0.0
  0
LINE
  5
23D92
330
747D
100
AcDbEntity
  8
細線
 48
50.0
100
AcDbLine
 10
8312.9111467124
 20
1107.058554410156
 30
0.0
 11
8355.783017501378
 21
1267.058554410156
 31
0.0
  0
LINE
  5
23D93
330
747D
100
AcDbEntity
  8
細線
 48
50.0
100
AcDbLine
 10
8411.52120289645
 20
1107.058554410158
 30
0.0
 11
8454.393073685436
 21
1267.058554410156
 31
0.0
  0
LINE
  5
23D94
330
747D
100
AcDbEntity
  8
細線
 48
50.0
100
AcDbLine
 10
8214.301090528334
 20
1107.058554410158
 30
0.0
 11
8257.172961317319
 21
1267.058554410156
 31
0.0
  0
LINE
  5
23D95
330
747D
100
AcDbEntity
  8
細線
 48
50.0
100
AcDbLine
 10
8320.949622485334
 20
1137.058554410158
 30
0.0
 11
8328.988098258266
 21
1107.058554410158
 31
0.0
  0
LINE
  5
23D96
330
747D
100
AcDbEntity
  8
細線
 48
50.0
100
AcDbLine
 10
8222.339566301277
 20
1137.058554410158
 30
0.0
 11
8230.378042074212
 21
1107.058554410158
 31
0.0
  0
LINE
  5
23D97
330
747D
100
AcDbEntity
  8
細線
 48
50.0
100
AcDbLine
 10
8518.169734853447
 20
1137.058554410158
 30
0.0
 11
8526.208210626395
 21
1107.058554410158
 31
0.0
  0
LINE
  5
23D98
330
747D
100
AcDbEntity
  8
細線
 48
50.0
100
AcDbLine
 10
8419.559678669394
 20
1137.058554410158
 30
0.0
 11
8427.598154442327
 21
1107.058554410158
 31
0.0
  0
LINE
  5
23D99
330
747D
100
AcDbEntity
  8
細線
 48
50.0
100
AcDbLine
 10
8347.744541728447
 20
1237.058554410158
 30
0.0
 11
8339.706065955514
 21
1267.058554410158
 31
0.0
  0
LINE
  5
23D9A
330
747D
100
AcDbEntity
  8
細線
 48
50.0
100
AcDbLine
 10
8249.13448554439
 20
1237.058554410158
 30
0.0
 11
8241.096009771457
 21
1267.058554410158
 31
0.0
  0
LINE
  5
23D9B
330
747D
100
AcDbEntity
  8
細線
 48
50.0
100
AcDbLine
 10
8544.964654096547
 20
1237.058554410158
 30
0.0
 11
8536.926178323618
 21
1267.058554410158
 31
0.0
  0
LINE
  5
23D9C
330
747D
100
AcDbEntity
  8
細線
 48
50.0
100
AcDbLine
 10
8446.354597912501
 20
1237.058554410158
 30
0.0
 11
8438.316122139571
 21
1267.058554410158
 31
0.0
  0
LINE
  5
23D9D
330
747D
100
AcDbEntity
  8
細線
 48
50.0
100
AcDbLine
 10
8019.212484974259
 20
1625.616986612871
 30
0.0
 11
8235.654052771556
 21
1842.058554410156
 31
0.0
  0
LINE
  5
23D9E
330
747D
100
AcDbEntity
  8
細線
 48
50.0
100
AcDbLine
 10
8019.212484974259
 20
1659.29294706688
 30
0.0
 11
8217.21248497425
 21
1857.292947066866
 31
0.0
  0
LINE
  5
23D9F
330
747D
100
AcDbEntity
  8
細線
 48
50.0
100
AcDbLine
 10
8019.212484974259
 20
1692.96890752089
 30
0.0
 11
8217.21248497425
 21
1890.968907520883
 31
0.0
  0
LINE
  5
23DA0
330
747D
100
AcDbEntity
  8
部品1
 48
50.0
100
AcDbLine
 10
7859.212484974261
 20
1567.058554410158
 30
0.0
 11
8019.212484974259
 21
1567.058554410158
 31
0.0
  0
LINE
  5
23DA1
330
747D
100
AcDbEntity
  8
細線
 48
50.0
100
AcDbLine
 10
7859.212484974253
 20
1499.292947066877
 30
0.0
 11
7926.978092317543
 21
1567.058554410158
 31
0.0
  0
LINE
  5
23DA2
330
747D
100
AcDbEntity
  8
細線
 48
50.0
100
AcDbLine
 10
7859.212484974253
 20
1532.96890752089
 30
0.0
 11
7893.302131863528
 21
1567.058554410158
 31
0.0
  0
LINE
  5
23DA3
330
747D
100
AcDbEntity
  8
部品1
100
AcDbLine
 10
8374.712484974262
 20
1842.058554410156
 30
0.0
 11
8217.212484974254
 21
1842.058554410156
 31
0.0
  0
LINE
  5
23DA4
330
747D
100
AcDbEntity
  8
部品1
100
AcDbLine
 10
8352.212484974261
 20
1943.308554410157
 30
0.0
 11
8352.212484974261
 21
1965.808554410157
 31
0.0
  0
ARC
  5
23DA5
330
747D
100
AcDbEntity
  8
部品1
100
AcDbCircle
 10
8307.212484974263
 20
1965.808554410157
 30
0.0
 40
22.5
100
AcDbArc
 50
180.0
 51
270.0
  0
LINE
  5
23DA6
330
747D
100
AcDbEntity
  8
部品1
100
AcDbLine
 10
8307.212484974263
 20
1943.308554410157
 30
0.0
 11
8352.212484974261
 21
1943.308554410157
 31
0.0
  0
LINE
  5
23DA7
330
747D
100
AcDbEntity
  8
部品1
100
AcDbLine
 10
8307.212484974263
 20
1965.808554410157
 30
0.0
 11
8352.212484974261
 21
1965.808554410157
 31
0.0
  0
TEXT
  5
23DA8
330
747D
100
AcDbEntity
  8
部品1
 48
50.0
100
AcDbText
 10
7486.154864249896
 20
2660.259205785753
 30
0.0
 40
100.0
  1
※(別売)
  7
STYLE2
100
AcDbText
  0
ARC
  5
23DA9
330
747D
100
AcDbEntity
  8
部品1
100
AcDbCircle
 10
8150.837484974262
 20
2383.183554410155
 30
0.0
 40
3.375
100
AcDbArc
 50
0.0
 51
90.0
  0
LINE
  5
23DAA
330
747D
100
AcDbEntity
  8
部品1
 48
50.0
100
AcDbLine
 10
8019.212484974259
 20
2247.058554410158
 30
0.0
 11
8536.712484974261
 21
2247.058554410158
 31
0.0
  0
LINE
  5
23DAB
330
747D
100
AcDbEntity
  8
部品1
100
AcDbLine
 10
8091.212484974258
 20
2359.558554410158
 30
0.0
 11
8091.212484974258
 21
2369.683554410158
 31
0.0
  0
LINE
  5
23DAC
330
747D
100
AcDbEntity
  8
部品1
100
AcDbLine
 10
8040.58748497426
 20
2346.058554410157
 30
0.0
 11
8040.58748497426
 21
2356.183554410158
 31
0.0
  0
ARC
  5
23DAD
330
747D
100
AcDbEntity
  8
部品1
100
AcDbCircle
 10
8043.96248497426
 20
2356.183554410158
 30
0.0
 40
3.375
100
AcDbArc
 50
90.0
 51
180.0
  0
ARC
  5
23DAE
330
747D
100
AcDbEntity
  8
部品1
100
AcDbCircle
 10
8030.462484974263
 20
2262.383554410158
 30
0.0
 40
3.375
100
AcDbArc
 50
180.0
 51
270.0
  0
ARC
  5
23DAF
330
747D
100
AcDbEntity
  8
部品1
100
AcDbCircle
 10
8030.462484974263
 20
2340.048434038543
 30
0.0
 40
3.375
100
AcDbArc
 50
104.0362434679066
 51
180.0
  0
LINE
  5
23DB0
330
747D
100
AcDbEntity
  8
部品1
100
AcDbLine
 10
8027.087484974261
 20
2262.383554410158
 30
0.0
 11
8027.087484974261
 21
2340.048434038543
 31
0.0
  0
LINE
  5
23DB1
330
747D
100
AcDbEntity
  8
細線
 48
50.0
100
AcDbLine
 10
8019.212484974259
 20
2231.784274785039
 30
0.0
 11
8034.486764599378
 21
2247.058554410158
 31
0.0
  0
LINE
  5
23DB2
330
747D
100
AcDbEntity
  8
部品1
100
AcDbLine
 10
8029.64392723976
 20
2343.322664976533
 30
0.0
 11
8040.58748497426
 21
2346.058554410157
 31
0.0
  0
LINE
  5
23DB3
330
747D
100
AcDbEntity
  8
部品1
100
AcDbLine
 10
8030.462484974263
 20
2259.008554410158
 30
0.0
 11
8045.087484974253
 21
2259.008554410158
 31
0.0
  0
LINE
  5
23DB4
330
747D
100
AcDbEntity
  8
細線
 48
50.0
100
AcDbLine
 10
8019.212484974259
 20
2198.10831433103
 30
0.0
 11
8068.162725053394
 21
2247.058554410158
 31
0.0
  0
LINE
  5
23DB5
330
747D
100
AcDbEntity
  8
細線
 48
50.0
100
AcDbLine
 10
8019.212484974259
 20
2164.432353877021
 30
0.0
 11
8101.838685507399
 21
2247.058554410158
 31
0.0
  0
LINE
  5
23DB6
330
747D
100
AcDbEntity
  8
部品1
100
AcDbLine
 10
8043.96248497426
 20
2359.558554410158
 30
0.0
 11
8091.212484974258
 21
2359.558554410158
 31
0.0
  0
ARC
  5
23DB7
330
747D
100
AcDbEntity
  8
部品1
100
AcDbCircle
 10
8097.962484974262
 20
2383.183554410158
 30
0.0
 40
3.375
100
AcDbArc
 50
90.0
 51
180.0
  0
LINE
  5
23DB8
330
747D
100
AcDbEntity
  8
部品1
100
AcDbLine
 10
8094.58748497426
 20
2373.058554410158
 30
0.0
 11
8094.58748497426
 21
2373.058554410158
 31
0.0
  0
LINE
  5
23DB9
330
747D
100
AcDbEntity
  8
部品1
100
AcDbLine
 10
8094.58748497426
 20
2373.058554410158
 30
0.0
 11
8094.58748497426
 21
2383.183554410158
 31
0.0
  0
LINE
  5
23DBA
330
747D
100
AcDbEntity
  8
部品1
100
AcDbLine
 10
8097.962484974262
 20
2386.558554410158
 30
0.0
 11
8150.837484974262
 21
2386.558554410155
 31
0.0
  0
ARC
  5
23DBB
330
747D
100
AcDbEntity
  8
部品1
100
AcDbCircle
 10
8094.58748497426
 20
2369.683554410158
 30
0.0
 40
3.375
100
AcDbArc
 50
90.0
 51
180.0
  0
LINE
  5
23DBC
330
747D
100
AcDbEntity
  8
部品1
100
AcDbLine
 10
8154.212484974262
 20
2383.183554410155
 30
0.0
 11
8154.212484974262
 21
2319.058554410158
 31
0.0
  0
LINE
  5
23DBD
330
747D
100
AcDbEntity
  8
部品1
100
AcDbLine
 10
8225.412484974254
 20
2259.008554410158
 30
0.0
 11
8477.087484974253
 21
2259.008554410158
 31
0.0
  0
LINE
  5
23DBE
330
747D
100
AcDbEntity
  8
細線
100
AcDbLine
 10
8302.712484974263
 20
2259.008554410158
 30
0.0
 11
8302.712484974263
 21
2313.008554410158
 31
0.0
  0
LINE
  5
23DBF
330
747D
100
AcDbEntity
  8
細線
100
AcDbLine
 10
8289.212484974266
 20
2259.008554410158
 30
0.0
 11
8289.212484974262
 21
2313.008554410158
 31
0.0
  0
LINE
  5
23DC0
330
747D
100
AcDbEntity
  8
部品1
100
AcDbLine
 10
8284.712484974262
 20
2308.508554410158
 30
0.0
 11
8307.212484974263
 21
2308.508554410158
 31
0.0
  0
LINE
  5
23DC1
330
747D
100
AcDbEntity
  8
部品1
100
AcDbLine
 10
8289.212484974262
 20
2313.008554410158
 30
0.0
 11
8302.712484974263
 21
2313.008554410158
 31
0.0
  0
LINE
  5
23DC2
330
747D
100
AcDbEntity
  8
部品1
100
AcDbLine
 10
8183.462484974258
 20
2334.008554410158
 30
0.0
 11
8218.662484974263
 21
2334.008554410158
 31
0.0
  0
LINE
  5
23DC3
330
747D
100
AcDbEntity
  8
部品1
100
AcDbLine
 10
8189.08748497426
 20
2259.008554410158
 30
0.0
 11
8203.712484974259
 21
2259.008554410158
 31
0.0
  0
LINE
  5
23DC4
330
747D
100
AcDbEntity
  8
部品1
100
AcDbLine
 10
8154.212484974262
 20
2319.058554410158
 30
0.0
 11
8203.712484974259
 21
2319.058554410158
 31
0.0
  0
ARC
  5
23DC5
330
747D
100
AcDbEntity
  8
部品1
100
AcDbCircle
 10
8183.462484974258
 20
2330.633554410157
 30
0.0
 40
3.375
100
AcDbArc
 50
90.0
 51
180.0
  0
LINE
  5
23DC6
330
747D
100
AcDbEntity
  8
部品1
100
AcDbLine
 10
8180.087484974261
 20
2330.633554410157
 30
0.0
 11
8180.087484974261
 21
2309.258554410158
 31
0.0
  0
ARC
  5
23DC7
330
747D
100
AcDbEntity
  8
部品1
100
AcDbCircle
 10
8225.412484974254
 20
2262.383554410158
 30
0.0
 40
3.375
100
AcDbArc
 50
180.0
 51
270.0
  0
ARC
  5
23DC8
330
747D
100
AcDbEntity
  8
部品1
100
AcDbCircle
 10
8218.662484974263
 20
2330.633554410157
 30
0.0
 40
3.375
100
AcDbArc
 50
0.0
 51
90.0
  0
LINE
  5
23DC9
330
747D
100
AcDbEntity
  8
部品1
100
AcDbLine
 10
8222.037484974263
 20
2330.633554410157
 30
0.0
 11
8222.037484974256
 21
2262.383554410158
 31
0.0
  0
ARC
  5
23DCA
330
747D
100
AcDbEntity
  8
部品1
100
AcDbCircle
 10
8203.712484974259
 20
2262.383554410158
 30
0.0
 40
3.375
100
AcDbArc
 50
270.0
 51
0.0
  0
ARC
  5
23DCB
330
747D
100
AcDbEntity
  8
部品1
100
AcDbCircle
 10
8203.712484974259
 20
2315.683554410158
 30
0.0
 40
3.375
100
AcDbArc
 50
0.0
 51
90.0
  0
LINE
  5
23DCC
330
747D
100
AcDbEntity
  8
部品1
100
AcDbLine
 10
8207.087484974261
 20
2315.683554410158
 30
0.0
 11
8207.087484974261
 21
2262.383554410158
 31
0.0
  0
ELLIPSE
  5
23DCD
330
747D
100
AcDbEntity
  8
部品1
 48
50.0
100
AcDbEllipse
 10
8295.962484974259
 20
2583.462664965499
 30
0.0
 11
23.0
 21
0.0
 31
0.0
210
0.0
220
0.0
230
1.0
 40
0.3478260869565217
 41
0.0
 42
6.283185307179585
  0
LINE
  5
23DCE
330
747D
100
AcDbEntity
  8
部品1
 48
50.0
100
AcDbLine
 10
8345.962484974261
 20
2571.462664965499
 30
0.0
 11
8345.962484974261
 21
2583.462664965499
 31
0.0
  0
LINE
  5
23DCF
330
747D
100
AcDbEntity
  8
部品1
 48
50.0
100
AcDbLine
 10
8245.962484974258
 20
2583.462664965499
 30
0.0
 11
8245.962484974258
 21
2571.462664965499
 31
0.0
  0
ELLIPSE
  5
23DD0
330
747D
100
AcDbEntity
  8
部品1
 48
50.0
100
AcDbEllipse
 10
8295.962484974259
 20
2571.462664965499
 30
0.0
 11
50.0
 21
0.0
 31
0.0
210
0.0
220
0.0
230
1.0
 40
0.4
 41
3.141592653589792
 42
6.283185307179585
  0
ELLIPSE
  5
23DD1
330
747D
100
AcDbEntity
  8
部品1
 48
50.0
100
AcDbEllipse
 10
8295.962484974259
 20
2583.462664965499
 30
0.0
 11
50.0
 21
0.0
 31
0.0
210
0.0
220
0.0
230
1.0
 40
0.4
 41
0.0
 42
6.283185307179585
  0
LINE
  5
23DD2
330
747D
100
AcDbEntity
  8
部品1
 48
50.0
100
AcDbLine
 10
8275.962484974263
 20
2745.652655796587
 30
0.0
 11
8315.962484974262
 21
2745.652655796587
 31
0.0
  0
ELLIPSE
  5
23DD3
330
747D
100
AcDbEntity
  8
細線
 48
50.0
100
AcDbEllipse
 10
8295.962484974259
 20
2735.652655796586
 30
0.0
 11
18.45838483258558
 21
0.0
 31
0.0
210
0.0
220
0.0
230
1.0
 40
0.2071254069489396
 41
0.0
 42
6.283185307179585
  0
LINE
  5
23DD4
330
747D
100
AcDbEntity
  8
部品1
 48
50.0
100
AcDbLine
 10
8275.962484974263
 20
2685.652655796586
 30
0.0
 11
8315.962484974262
 21
2685.652655796586
 31
0.0
  0
LINE
  5
23DD5
330
747D
100
AcDbEntity
  8
部品1
 48
50.0
100
AcDbLine
 10
8275.962484974263
 20
2725.652655796586
 30
0.0
 11
8315.962484974262
 21
2725.652655796586
 31
0.0
  0
LINE
  5
23DD6
330
747D
100
AcDbEntity
  8
細線
 48
50.0
100
AcDbLine
 10
8275.962484974263
 20
2685.652655796586
 30
0.0
 11
8275.962484974263
 21
2725.652655796586
 31
0.0
  0
LINE
  5
23DD7
330
747D
100
AcDbEntity
  8
部品1
 48
50.0
100
AcDbLine
 10
8315.962484974262
 20
2685.652655796586
 30
0.0
 11
8335.962484974261
 21
2695.652655796586
 31
0.0
  0
LINE
  5
23DD8
330
747D
100
AcDbEntity
  8
部品1
 48
50.0
100
AcDbLine
 10
8315.962484974262
 20
2725.652655796586
 30
0.0
 11
8335.962484974261
 21
2735.652655796587
 31
0.0
  0
LINE
  5
23DD9
330
747D
100
AcDbEntity
  8
細線
 48
50.0
100
AcDbLine
 10
8315.962484974262
 20
2685.652655796586
 30
0.0
 11
8315.962484974262
 21
2725.652655796586
 31
0.0
  0
LINE
  5
23DDA
330
747D
100
AcDbEntity
  8
部品1
 48
50.0
100
AcDbLine
 10
8335.962484974261
 20
2695.652655796586
 30
0.0
 11
8335.962484974261
 21
2735.652655796587
 31
0.0
  0
LINE
  5
23DDB
330
747D
100
AcDbEntity
  8
部品1
 48
50.0
100
AcDbLine
 10
8315.962484974262
 20
2745.652655796587
 30
0.0
 11
8335.962484974261
 21
2735.652655796587
 31
0.0
  0
LINE
  5
23DDC
330
747D
100
AcDbEntity
  8
部品1
 48
50.0
100
AcDbLine
 10
8255.962484974261
 20
2695.652655796586
 30
0.0
 11
8255.962484974261
 21
2735.652655796587
 31
0.0
  0
LINE
  5
23DDD
330
747D
100
AcDbEntity
  8
部品1
 48
50.0
100
AcDbLine
 10
8255.962484974261
 20
2735.652655796587
 30
0.0
 11
8275.962484974263
 21
2725.652655796586
 31
0.0
  0
LINE
  5
23DDE
330
747D
100
AcDbEntity
  8
部品1
 48
50.0
100
AcDbLine
 10
8255.962484974261
 20
2695.652655796586
 30
0.0
 11
8275.962484974263
 21
2685.652655796586
 31
0.0
  0
LINE
  5
23DDF
330
747D
100
AcDbEntity
  8
部品1
 48
50.0
100
AcDbLine
 10
8255.962484974261
 20
2735.652655796587
 30
0.0
 11
8275.962484974263
 21
2745.652655796587
 31
0.0
  0
LINE
  5
23DE0
330
747D
100
AcDbEntity
  8
部品1
100
AcDbLine
 10
11671.83734804901
 20
639.2035763831251
 30
0.0
 11
11671.83734804901
 21
3898.273079131214
 31
0.0
  0
LINE
  5
23DE1
330
747D
100
AcDbEntity
  8
部品1
100
AcDbLine
 10
10181.32642022988
 20
1672.434909843466
 30
0.0
 11
11081.32642022987
 21
1672.43490984347
 31
0.0
  0
LINE
  5
23DE2
330
747D
100
AcDbEntity
  8
部品1
100
AcDbLine
 10
10181.32642022988
 20
1832.434909843469
 30
0.0
 11
11081.32642022987
 21
1832.434909843474
 31
0.0
  0
LWPOLYLINE
  5
23DE3
330
747D
100
AcDbEntity
  8
部品1
 48
50.0
100
AcDbPolyline
 90
        2
 70
     0
 43
15.0
 10
9850.562342604394
 20
1947.058554410158
 10
11351.92772151892
 20
1947.058554410158
  0
TEXT
  5
23DE4
330
747D
100
AcDbEntity
  8
部品1
 48
50.0
100
AcDbText
 10
9705.98479190458
 20
1613.558878613521
 30
0.0
 40
100.0
  1
ボルトの出
 50
90.0
  7
STYLE2
100
AcDbText
  0
LINE
  5
23DE5
330
747D
100
AcDbEntity
  8
部品1
 48
50.0
100
AcDbLine
 10
8696.712484974261
 20
1567.058554410158
 30
0.0
 11
8696.712484974261
 21
1267.058554410158
 31
0.0
  0
LINE
  5
23DE6
330
747D
100
AcDbEntity
  8
部品1
 48
50.0
100
AcDbLine
 10
8796.712484974262
 20
1267.058554410158
 30
0.0
 11
8796.712484974262
 21
1107.058554410158
 31
0.0
  0
LINE
  5
23DE7
330
747D
100
AcDbEntity
  8
細線
 48
50.0
100
AcDbLine
 10
8707.351371448625
 20
1107.058554410156
 30
0.0
 11
8750.223242237611
 21
1267.058554410154
 31
0.0
  0
LINE
  5
23DE8
330
747D
100
AcDbEntity
  8
細線
 48
50.0
100
AcDbLine
 10
8608.741315264575
 20
1107.058554410154
 30
0.0
 11
8651.613186053554
 21
1267.058554410154
 31
0.0
  0
LINE
  5
23DE9
330
747D
100
AcDbEntity
  8
細線
 48
50.0
100
AcDbLine
 10
8715.389847221571
 20
1137.058554410156
 30
0.0
 11
8723.428322994504
 21
1107.058554410156
 31
0.0
  0
LINE
  5
23DEA
330
747D
100
AcDbEntity
  8
細線
 48
50.0
100
AcDbLine
 10
8616.779791037513
 20
1137.058554410156
 30
0.0
 11
8624.818266810446
 21
1107.058554410156
 31
0.0
  0
LINE
  5
23DEB
330
747D
100
AcDbEntity
  8
細線
 48
50.0
100
AcDbLine
 10
8742.184766464681
 20
1237.058554410156
 30
0.0
 11
8734.146290691748
 21
1267.058554410156
 31
0.0
  0
LINE
  5
23DEC
330
747D
100
AcDbEntity
  8
細線
 48
50.0
100
AcDbLine
 10
8643.574710280621
 20
1237.058554410156
 30
0.0
 11
8635.536234507688
 21
1267.058554410156
 31
0.0
  0
LINE
  5
23DED
330
747D
100
AcDbEntity
  8
部品1
100
AcDbLine
 10
10181.32642022988
 20
1672.434909843466
 30
0.0
 11
10181.32642022988
 21
1947.058554410158
 31
0.0
  0
LINE
  5
23DEE
330
747D
100
AcDbEntity
  8
部品1
100
AcDbLine
 10
10931.32642022987
 20
2247.058554410157
 30
0.0
 11
10931.32642022987
 21
1947.058554410158
 31
0.0
  0
LINE
  5
23DEF
330
747D
100
AcDbEntity
  8
細線
100
AcDbLine
 10
10850.3897319886
 20
1947.058554410158
 30
0.0
 11
10550.38973198861
 21
2247.058554410157
 31
0.0
  0
LINE
  5
23DF0
330
747D
100
AcDbEntity
  8
細線
100
AcDbLine
 10
10914.0293422954
 20
1947.058554410159
 30
0.0
 11
10614.0293422954
 21
2247.058554410157
 31
0.0
  0
LINE
  5
23DF1
330
747D
100
AcDbEntity
  8
細線
100
AcDbLine
 10
10510.97847701907
 20
1947.058554410158
 30
0.0
 11
10331.32642022988
 21
2126.710611199349
 31
0.0
  0
LINE
  5
23DF2
330
747D
100
AcDbEntity
  8
部品1
100
AcDbLine
 10
10331.32642022988
 20
1947.058554410158
 30
0.0
 11
10331.32642022988
 21
2247.058554410157
 31
0.0
  0
LINE
  5
23DF3
330
747D
100
AcDbEntity
  8
細線
100
AcDbLine
 10
10574.61808732585
 20
1947.058554410158
 30
0.0
 11
10331.32642022988
 21
2190.350221506137
 31
0.0
  0
LINE
  5
23DF4
330
747D
100
AcDbEntity
  8
細線
 48
50.0
100
AcDbLine
 10
11026.79870172029
 20
1802.434909843467
 30
0.0
 11
11018.76022594735
 21
1832.434909843468
 31
0.0
  0
LINE
  5
23DF5
330
747D
100
AcDbEntity
  8
細線
 48
50.0
100
AcDbLine
 10
10991.96530670423
 20
1672.434909843468
 30
0.0
 11
11034.83717749323
 21
1832.434909843466
 31
0.0
  0
LINE
  5
23DF6
330
747D
100
AcDbEntity
  8
細線
 48
50.0
100
AcDbLine
 10
10605.56355774094
 20
1702.434909843469
 30
0.0
 11
10613.60203351387
 21
1672.43490984347
 31
0.0
  0
LINE
  5
23DF7
330
747D
100
AcDbEntity
  8
細線
 48
50.0
100
AcDbLine
 10
10597.525081968
 20
1672.434909843468
 30
0.0
 11
10640.39695275698
 21
1832.434909843468
 31
0.0
  0
LINE
  5
23DF8
330
747D
100
AcDbEntity
  8
細線
 48
50.0
100
AcDbLine
 10
10400.30496959989
 20
1672.43490984347
 30
0.0
 11
10443.17684038887
 21
1832.434909843469
 31
0.0
  0
LINE
  5
23DF9
330
747D
100
AcDbEntity
  8
細線
 48
50.0
100
AcDbLine
 10
10203.08485723177
 20
1672.43490984347
 30
0.0
 11
10245.95672802075
 21
1832.434909843469
 31
0.0
  0
LINE
  5
23DFA
330
747D
100
AcDbEntity
  8
細線
 48
50.0
100
AcDbLine
 10
10301.69491341583
 20
1672.434909843468
 30
0.0
 11
10344.5667842048
 21
1832.434909843468
 31
0.0
  0
LINE
  5
23DFB
330
747D
100
AcDbEntity
  8
細線
 48
50.0
100
AcDbLine
 10
10498.91502578395
 20
1672.43490984347
 30
0.0
 11
10541.78689657293
 21
1832.434909843468
 31
0.0
  0
LINE
  5
23DFC
330
747D
100
AcDbEntity
  8
細線
 48
50.0
100
AcDbLine
 10
10309.73338918877
 20
1702.434909843469
 30
0.0
 11
10317.7718649617
 21
1672.43490984347
 31
0.0
  0
LINE
  5
23DFD
330
747D
100
AcDbEntity
  8
細線
 48
50.0
100
AcDbLine
 10
10211.1233330047
 20
1702.434909843469
 30
0.0
 11
10219.16180877763
 21
1672.43490984347
 31
0.0
  0
LINE
  5
23DFE
330
747D
100
AcDbEntity
  8
細線
 48
50.0
100
AcDbLine
 10
10408.34344537283
 20
1702.434909843469
 30
0.0
 11
10416.38192114576
 21
1672.43490984347
 31
0.0
  0
LINE
  5
23DFF
330
747D
100
AcDbEntity
  8
細線
 48
50.0
100
AcDbLine
 10
10506.95350155688
 20
1702.434909843469
 30
0.0
 11
10514.99197732982
 21
1672.43490984347
 31
0.0
  0
LINE
  5
23E00
330
747D
100
AcDbEntity
  8
細線
100
AcDbLine
 10
10322.62191335404
 20
1832.434909843469
 30
0.0
 11
10437.24555792072
 21
1947.058554410157
 31
0.0
  0
LINE
  5
23E01
330
747D
100
AcDbEntity
  8
細線
100
AcDbLine
 10
10365.04832022524
 20
1832.43490984347
 30
0.0
 11
10479.67196479192
 21
1947.058554410158
 31
0.0
  0
LINE
  5
23E02
330
747D
100
AcDbEntity
  8
細線
 48
50.0
100
AcDbLine
 10
10336.52830843188
 20
1802.434909843469
 30
0.0
 11
10328.48983265894
 21
1832.434909843469
 31
0.0
  0
LINE
  5
23E03
330
747D
100
AcDbEntity
  8
細線
 48
50.0
100
AcDbLine
 10
10237.91825224781
 20
1802.434909843469
 30
0.0
 11
10229.87977647488
 21
1832.434909843469
 31
0.0
  0
LINE
  5
23E04
330
747D
100
AcDbEntity
  8
細線
 48
50.0
100
AcDbLine
 10
10533.74842079999
 20
1802.434909843469
 30
0.0
 11
10525.70994502706
 21
1832.434909843469
 31
0.0
  0
LINE
  5
23E05
330
747D
100
AcDbEntity
  8
細線
 48
50.0
100
AcDbLine
 10
10435.13836461594
 20
1802.434909843469
 30
0.0
 11
10427.09988884301
 21
1832.434909843469
 31
0.0
  0
LINE
  5
23E06
330
747D
100
AcDbEntity
  8
細線
100
AcDbLine
 10
10407.47472709643
 20
1832.43490984347
 30
0.0
 11
10522.09837166312
 21
1947.058554410158
 31
0.0
  0
LINE
  5
23E07
330
747D
100
AcDbEntity
  8
細線
 48
50.0
100
AcDbLine
 10
10794.74519433612
 20
1672.434909843468
 30
0.0
 11
10837.6170651251
 21
1832.434909843469
 31
0.0
  0
LINE
  5
23E08
330
747D
100
AcDbEntity
  8
細線
 48
50.0
100
AcDbLine
 10
10696.13513815206
 20
1672.43490984347
 30
0.0
 11
10739.00700894105
 21
1832.434909843468
 31
0.0
  0
LINE
  5
23E09
330
747D
100
AcDbEntity
  8
細線
 48
50.0
100
AcDbLine
 10
10893.35525052018
 20
1672.434909843467
 30
0.0
 11
10936.22712130916
 21
1832.434909843466
 31
0.0
  0
LINE
  5
23E0A
330
747D
100
AcDbEntity
  8
細線
 48
50.0
100
AcDbLine
 10
10802.78367010907
 20
1702.434909843469
 30
0.0
 11
10810.822145882
 21
1672.43490984347
 31
0.0
  0
LINE
  5
23E0B
330
747D
100
AcDbEntity
  8
細線
 48
50.0
100
AcDbLine
 10
10704.173613925
 20
1702.434909843469
 30
0.0
 11
10712.21208969793
 21
1672.43490984347
 31
0.0
  0
LINE
  5
23E0C
330
747D
100
AcDbEntity
  8
細線
 48
50.0
100
AcDbLine
 10
11000.00378247718
 20
1702.434909843467
 30
0.0
 11
11008.04225825011
 21
1672.434909843468
 31
0.0
  0
LINE
  5
23E0D
330
747D
100
AcDbEntity
  8
細線
 48
50.0
100
AcDbLine
 10
10901.39372629312
 20
1702.434909843467
 30
0.0
 11
10909.43220206605
 21
1672.434909843468
 31
0.0
  0
LINE
  5
23E0E
330
747D
100
AcDbEntity
  8
細線
100
AcDbLine
 10
10815.04832022523
 20
1832.434909843473
 30
0.0
 11
10929.67196479191
 21
1947.058554410158
 31
0.0
  0
LINE
  5
23E0F
330
747D
100
AcDbEntity
  8
細線
100
AcDbLine
 10
10772.62191335405
 20
1832.434909843473
 30
0.0
 11
10887.24555792073
 21
1947.058554410158
 31
0.0
  0
LINE
  5
23E10
330
747D
100
AcDbEntity
  8
細線
 48
50.0
100
AcDbLine
 10
10730.96853316811
 20
1802.434909843469
 30
0.0
 11
10722.93005739518
 21
1832.434909843469
 31
0.0
  0
LINE
  5
23E11
330
747D
100
AcDbEntity
  8
細線
 48
50.0
100
AcDbLine
 10
10632.35847698405
 20
1802.434909843469
 30
0.0
 11
10624.32000121112
 21
1832.434909843469
 31
0.0
  0
LINE
  5
23E12
330
747D
100
AcDbEntity
  8
細線
 48
50.0
100
AcDbLine
 10
10829.57858935217
 20
1802.434909843469
 30
0.0
 11
10821.54011357922
 21
1832.434909843469
 31
0.0
  0
LINE
  5
23E13
330
747D
100
AcDbEntity
  8
細線
 48
50.0
100
AcDbLine
 10
10928.18864553623
 20
1802.434909843467
 30
0.0
 11
10920.1501697633
 21
1832.434909843468
 31
0.0
  0
LINE
  5
23E14
330
747D
100
AcDbEntity
  8
細線
100
AcDbLine
 10
10857.47472709642
 20
1832.434909843473
 30
0.0
 11
10972.0983716631
 21
1947.058554410158
 31
0.0
  0
LINE
  5
23E15
330
747D
100
AcDbEntity
  8
部品1
100
AcDbLine
 10
11081.32642022987
 20
1947.058554410158
 30
0.0
 11
11081.32642022987
 21
1672.43490984347
 31
0.0
  0
LEADER
  5
23E16
330
747D
100
AcDbEntity
  8
寸法
 48
50.0
100
AcDbLeader
  3
INABA_S40G
 73
     0
 74
     0
 75
     1
 40
150.0
 41
231.9898538650463
 76
     3
 10
10844.73193474977
 20
2247.058554410158
 30
0.0
 10
10933.65469304184
 20
2453.49145526158
 30
0.0
 10
11033.65469304183
 20
2453.49145526158
 30
0.0
340
23E17
1001
ACAD
1000
DSTYLE
1002
{
1070
   341
1005
0
1002
}
  0
MTEXT
  5
23E17
102
{ACAD_REACTORS
330
23E16
102
}
330
747D
100
AcDbEntity
  8
寸法
 62
     7
 48
50.0
100
AcDbMText
 10
11073.65469304183
 20
2568.49145526158
 30
0.0
 40
150.0
 41
1.0
 71
     4
 72
     1
  1
\A1;C.B
  7
STYLE1
 73
     1
 44
1.0
1001
ACAD
1000
MTEXTBEGIN
1070
    73
1070
     1
1070
    44
1040
1.0
1070
    74
1070
     0
1000
MTEXTEND
  0
LINE
  5
23E18
330
747D
100
AcDbEntity
  8
部品1
100
AcDbLine
 10
10331.32642022988
 20
2247.058554410157
 30
0.0
 11
10931.32642022987
 21
2247.058554410157
 31
0.0
  0
TEXT
  5
2407A
330
747D
100
AcDbEntity
  8
文字
 62
     7
 48
50.0
100
AcDbText
 10
14791.56595218574
 20
1031.557706291228
 30
0.0
 40
100.0
  1
<縮尺> S=1/40
  7
STYLE2
100
AcDbText
  0
TEXT
  5
2407B
330
747D
100
AcDbEntity
  8
文字
 62
     7
 48
50.0
100
AcDbText
 10
14641.2525855784
 20
871.1744590657925
 30
0.0
 40
100.0
  1
～一般型・多雪地型～
  7
STYLE2
100
AcDbText
  0
TEXT
  5
2407C
330
747D
100
AcDbEntity
  8
文字
 62
     7
 48
50.0
100
AcDbText
 10
13188.16259899338
 20
79.80631269190325
 30
0.0
 40
80.0
  1
※布基礎には換気口を設けてください。
  7
STYLE2
100
AcDbText
  0
TEXT
  5
2407D
330
747D
100
AcDbEntity
  8
文字
 62
     7
 48
50.0
100
AcDbText
 10
13188.16259899338
 20
246.7109242801889
 30
0.0
 40
80.0
  1
※寒冷地等は地域の実情に合わせた基礎にして下さい。
  7
STYLE2
100
AcDbText
  0
TEXT
  5
2407E
330
747D
100
AcDbEntity
  8
文字
 62
     7
 48
50.0
100
AcDbText
 10
14344.58768659815
 20
483.8967129911411
 30
0.0
 40
160.0
  1
ＮＸＰ-６４ＨＤ
  7
STYLE2
100
AcDbText
  0
LINE
  5
2407F
330
747D
100
AcDbEntity
  8
仕様書枠
  6
Continuous
 48
50.0
100
AcDbLine
 10
14251.2
 20
1200.0
 30
0.0
 11
14251.2
 21
800.0
 31
0.0
  0
LINE
  5
24080
330
747D
100
AcDbEntity
  8
仕様書枠
 48
50.0
100
AcDbLine
 10
13107.2
 20
800.0
 30
0.0
 11
14251.2
 21
800.0
 31
0.0
  0
TEXT
  5
24081
330
747D
100
AcDbEntity
  8
文字
 62
     7
 48
50.0
100
AcDbText
 10
13201.43669998441
 20
477.2740661031255
 30
0.0
 40
160.0
  1
機種名
  7
STYLE2
100
AcDbText
  0
TEXT
  5
24082
330
747D
100
AcDbEntity
  8
文字
 62
     7
 48
50.0
100
AcDbText
 10
13162.9790565769
 20
895.0906074299405
 30
0.0
 40
200.0
  1
基 礎 図
  7
STYLE2
100
AcDbText
  0
LINE
  5
24083
330
747D
100
AcDbEntity
  8
文字
 62
     7
 48
50.0
100
AcDbLine
 10
13187.2
 20
400.0
 30
0.0
 11
16227.2
 21
400.0
 31
0.0
  0
LINE
  5
24084
330
747D
100
AcDbEntity
  8
仕様書枠
 48
50.0
100
AcDbLine
 10
13107.2
 20
1200.0
 30
0.0
 11
16307.2
 21
1200.0
 31
0.0
  0
LINE
  5
24085
330
747D
100
AcDbEntity
  8
仕様書枠
 48
50.0
100
AcDbLine
 10
16307.2
 20
1200.0
 30
0.0
 11
16307.2
 21
-0.0000000000000909
 31
0.0
  0
LINE
  5
24086
330
747D
100
AcDbEntity
  8
仕様書枠
  6
Continuous
 48
50.0
100
AcDbLine
 10
13107.2
 20
1200.0
 30
0.0
 11
13107.2
 21
-0.0000000000000729
 31
0.0
  0
LINE
  5
240A7
330
747D
100
AcDbEntity
  8
細線
 48
50.0
100
AcDbLine
 10
7368.078129891511
 20
6263.211798685391
 30
0.0
 11
7428.6
 21
6323.733668793882
 31
0.0
  0
LINE
  5
240A8
330
747D
100
AcDbEntity
  8
細線
 48
50.0
100
AcDbLine
 10
7323.176849286165
 20
6263.211798685392
 30
0.0
 11
7428.6
 21
6368.634949399227
 31
0.0
  0
LINE
  5
240A9
330
747D
100
AcDbEntity
  8
細線
 48
50.0
100
AcDbLine
 10
7278.275568680818
 20
6263.211798685392
 30
0.0
 11
7398.275568680816
 21
6383.21179868539
 31
0.0
  0
LINE
  5
240AA
330
747D
100
AcDbEntity
  8
細線
 48
50.0
100
AcDbLine
 10
7233.374288075471
 20
6263.211798685391
 30
0.0
 11
7353.374288075468
 21
6383.211798685388
 31
0.0
  0
LINE
  5
240AB
330
747D
100
AcDbEntity
  8
細線
 48
50.0
100
AcDbLine
 10
7228.6
 20
6303.338791215264
 30
0.0
 11
7308.473007470124
 21
6383.211798685387
 31
0.0
  0
LINE
  5
240AC
330
747D
100
AcDbEntity
  8
細線
 48
50.0
100
AcDbLine
 10
7228.6
 20
6348.240071820611
 30
0.0
 11
7263.571726864777
 21
6383.211798685387
 31
0.0
  0
LINE
  5
240AD
330
747D
100
AcDbEntity
  8
部品1
 48
50.0
100
AcDbLine
 10
7428.6
 20
6383.21179868539
 30
0.0
 11
7428.6
 21
6263.211798685392
 31
0.0
  0
LINE
  5
240AE
330
747D
100
AcDbEntity
  8
部品1
 48
50.0
100
AcDbLine
 10
7228.6
 20
6383.21179868539
 30
0.0
 11
7228.600000000001
 21
6263.211798685392
 31
0.0
  0
ENDSEC
  0
SECTION
  2
OBJECTS
  0
DICTIONARY
  5
7471
330
0
100
AcDbDictionary
281
     1
  3
ACAD_CIP_PREVIOUS_PRODUCT_INFO
350
24116
  3
ACAD_COLOR
350
173D2
  3
ACAD_DETAILVIEWSTYLE
350
2410D
  3
ACAD_GROUP
350
7472
  3
ACAD_LAYOUT
350
173D3
  3
ACAD_MATERIAL
350
173D1
  3
ACAD_MLEADERSTYLE
350
24109
  3
ACAD_MLINESTYLE
350
7473
  3
ACAD_PLOTSETTINGS
350
173D4
  3
ACAD_PLOTSTYLENAME
350
173CF
  3
ACAD_SCALELIST
350
240F7
  3
ACAD_SECTIONVIEWSTYLE
350
2410B
  3
ACAD_TABLESTYLE
350
240F5
  3
ACAD_VISUALSTYLE
350
240DC
  3
ACDB_RECOMPOSE_DATA
350
24542
  3
AcDbVariableDictionary
350
24140
  3
AcDsDecomposeData
350
24549
  3
CONTENTDICTIONARY
350
E71C
  3
DRAWINGVARIABLESDICT
350
F3B9
  3
DWGPROPS
350
24543
  0
DICTIONARY
  5
1758F
330
7467
100
AcDbDictionary
280
     1
281
     1
  3
ACAD_LAYERSTATES
360
17590
  0
DICTIONARY
  5
24119
330
7474
100
AcDbDictionary
280
     1
281
     1
  3
ADSK_XREC_LAYER_RECONCILED
360
2411A
  0
DICTIONARY
  5
2411B
330
DEB2
100
AcDbDictionary
280
     1
281
     1
  3
ADSK_XREC_LAYER_RECONCILED
360
2411C
  0
DICTIONARY
  5
2411D
330
DEB3
100
AcDbDictionary
280
     1
281
     1
  3
ADSK_XREC_LAYER_RECONCILED
360
2411E
  0
DICTIONARY
  5
2411F
330
DEB4
100
AcDbDictionary
280
     1
281
     1
  3
ADSK_XREC_LAYER_RECONCILED
360
24120
  0
DICTIONARY
  5
24121
330
DEB5
100
AcDbDictionary
280
     1
281
     1
  3
ADSK_XREC_LAYER_RECONCILED
360
24122
  0
DICTIONARY
  5
24123
330
DEB6
100
AcDbDictionary
280
     1
281
     1
  3
ADSK_XREC_LAYER_RECONCILED
360
24124
  0
DICTIONARY
  5
24125
330
10B54
100
AcDbDictionary
280
     1
281
     1
  3
ADSK_XREC_LAYER_RECONCILED
360
24126
  0
DICTIONARY
  5
24127
330
1173F
100
AcDbDictionary
280
     1
281
     1
  3
ADSK_XREC_LAYER_RECONCILED
360
24128
  0
DICTIONARY
  5
24129
330
12CC4
100
AcDbDictionary
280
     1
281
     1
  3
ADSK_XREC_LAYER_RECONCILED
360
2412A
  0
XRECORD
  5
24116
102
{ACAD_REACTORS
330
7471
102
}
330
7471
100
AcDbXrecord
280
     1
300
ACDLT
300
2014
300
ACDLT_F_S
  0
DICTIONARY
  5
173D2
102
{ACAD_REACTORS
330
7471
102
}
330
7471
100
AcDbDictionary
281
     1
  0
DICTIONARY
  5
2410D
102
{ACAD_REACTORS
330
7471
102
}
330
7471
100
AcDbDictionary
281
     1
  3
Metric50
350
2410E
  0
DICTIONARY
  5
7472
102
{ACAD_REACTORS
330
7471
102
}
330
7471
100
AcDbDictionary
281
     1
  0
DICTIONARY
  5
173D3
102
{ACAD_REACTORS
330
7471
102
}
330
7471
100
AcDbDictionary
281
     1
  3
Model
350
173D5
  3
レイアウト1
350
173D6
  0
DICTIONARY
  5
173D1
102
{ACAD_REACTORS
330
7471
102
}
330
7471
100
AcDbDictionary
281
     1
  3
ByBlock
350
240CC
  3
ByLayer
350
240C4
  3
Global
350
240D4
  0
DICTIONARY
  5
24109
102
{ACAD_REACTORS
330
7471
102
}
330
7471
100
AcDbDictionary
281
     1
  3
Standard
350
2410A
  0
DICTIONARY
  5
7473
102
{ACAD_REACTORS
330
7471
102
}
330
7471
100
AcDbDictionary
281
     1
  3
STANDARD
350
7480
  0
DICTIONARY
  5
173D4
102
{ACAD_REACTORS
330
7471
102
}
330
7471
100
AcDbDictionary
281
     1
  0
ACDBDICTIONARYWDFLT
  5
173CF
102
{ACAD_REACTORS
330
7471
102
}
330
7471
100
AcDbDictionary
281
     1
  3
Normal
350
173D0
100
AcDbDictionaryWithDefault
340
173D0
  0
DICTIONARY
  5
240F7
102
{ACAD_REACTORS
330
7471
102
}
330
7471
100
AcDbDictionary
281
     1
  3
A0
350
240F8
  3
A1
350
240F9
  3
A2
350
240FA
  3
A3
350
240FB
  3
A4
350
240FC
  3
A5
350
240FD
  3
A6
350
240FE
  3
A7
350
240FF
  3
A8
350
24100
  3
A9
350
24101
  3
B0
350
24102
  3
B1
350
24103
  3
B2
350
24104
  3
B3
350
24105
  3
B4
350
24106
  3
B5
350
24107
  3
B6
350
24108
  0
DICTIONARY
  5
2410B
102
{ACAD_REACTORS
330
7471
102
}
330
7471
100
AcDbDictionary
281
     1
  3
Metric50
350
2410C
  0
DICTIONARY
  5
240F5
102
{ACAD_REACTORS
330
7471
102
}
330
7471
100
AcDbDictionary
281
     1
  3
Standard
350
240F6
  0
DICTIONARY
  5
240DC
102
{ACAD_REACTORS
330
7471
102
}
330
7471
100
AcDbDictionary
281
     1
  3
2dWireframe
350
240E2
  3
Basic
350
240E1
  3
Brighten
350
240E8
  3
ColorChange
350
240EC
  3
Conceptual
350
240E5
  3
Dim
350
240E7
  3
EdgeColorOff
350
240F4
  3
Facepattern
350
240EB
  3
Flat
350
240DD
  3
FlatWithEdges
350
240DE
  3
Gouraud
350
240DF
  3
GouraudWithEdges
350
240E0
  3
Hidden
350
240E4
  3
JitterOff
350
240F2
  3
Linepattern
350
240EA
  3
OverhangOff
350
240F3
  3
Realistic
350
240E6
  3
Shaded
350
240F1
  3
Shaded with edges
350
240F0
  3
Shades of Gray
350
240ED
  3
Sketchy
350
240EE
  3
Thicken
350
240E9
  3
Wireframe
350
240E3
  3
X-Ray
350
240EF
  0
XRECORD
  5
24542
102
{ACAD_REACTORS
330
7471
102
}
330
7471
100
AcDbXrecord
280
     1
 90
        1
330
240F6
  0
DICTIONARY
  5
24140
102
{ACAD_REACTORS
330
7471
102
}
330
7471
100
AcDbDictionary
281
     1
  3
CANNOSCALE
350
24146
  3
CMLEADERSTYLE
350
24142
  3
CTABLESTYLE
350
24141
  3
CVIEWDETAILSTYLE
350
24143
  3
CVIEWSECTIONSTYLE
350
24144
  3
DIMASSOC
350
2453F
  3
INDEXCTL
350
2453D
  3
LAYEREVAL
350
24148
  3
LAYERNOTIFY
350
24149
  3
LIGHTINGUNITS
350
24147
  3
MSLTSCALE
350
24145
  3
SORTENTS
350
2453C
  3
XCLIPFRAME
350
2453E
  0
DICTIONARY
  5
24549
102
{ACAD_REACTORS
330
7471
102
}
330
7471
100
AcDbDictionary
281
     1
  3
AcDsRecords
350
2454B
  3
AcDsSchemas
350
2454A
1001
ACAD
1070
     2
  0
DICTIONARY
  5
E71C
102
{ACAD_REACTORS
330
7471
102
}
330
7471
100
AcDbDictionary
281
     1
  0
DICTIONARY
  5
F3B9
102
{ACAD_REACTORS
330
7471
102
}
330
7471
100
AcDbDictionary
281
     1
1001
DRAWINGVARIABLESXDATA
1000
POLARMODE
1000
1
  0
XRECORD
  5
24543
102
{ACAD_REACTORS
330
7471
102
}
330
7471
100
AcDbXrecord
280
     1
  1
DWGPROPS COOKIE
  2

  3

  4

  6

  7

  8
hayashi.mizuki
  9

300
=
301
=
302
=
303
=
304
=
305
=
306
=
307
=
308
=
309
=
 40
0.8098235300925924
 41
2451368.612993866
 42
2457078.417772708
  1

 90
        0
  0
DICTIONARY
  5
17590
102
{ACAD_REACTORS
330
1758F
102
}
330
1758F
100
AcDbDictionary
281
     1
  0
XRECORD
  5
2411A
102
{ACAD_REACTORS
330
24119
102
}
330
24119
100
AcDbXrecord
280
     1
290
     1
  0
XRECORD
  5
2411C
102
{ACAD_REACTORS
330
2411B
102
}
330
2411B
100
AcDbXrecord
280
     1
290
     1
  0
XRECORD
  5
2411E
102
{ACAD_REACTORS
330
2411D
102
}
330
2411D
100
AcDbXrecord
280
     1
290
     1
  0
XRECORD
  5
24120
102
{ACAD_REACTORS
330
2411F
102
}
330
2411F
100
AcDbXrecord
280
     1
290
     1
  0
XRECORD
  5
24122
102
{ACAD_REACTORS
330
24121
102
}
330
24121
100
AcDbXrecord
280
     1
290
     1
  0
XRECORD
  5
24124
102
{ACAD_REACTORS
330
24123
102
}
330
24123
100
AcDbXrecord
280
     1
290
     1
  0
XRECORD
  5
24126
102
{ACAD_REACTORS
330
24125
102
}
330
24125
100
AcDbXrecord
280
     1
290
     1
  0
XRECORD
  5
24128
102
{ACAD_REACTORS
330
24127
102
}
330
24127
100
AcDbXrecord
280
     1
290
     1
  0
XRECORD
  5
2412A
102
{ACAD_REACTORS
330
24129
102
}
330
24129
100
AcDbXrecord
280
     1
290
     1
  0
ACDBDETAILVIEWSTYLE
  5
2410E
102
{ACAD_XDICTIONARY
360
2413D
102
}
102
{ACAD_REACTORS
330
2410D
102
}
330
2410D
100
AcDbModelDocViewStyle
 70
     0
  3
Metric50
290
     0
100
AcDbDetailViewStyle
 70
     0
 71
     0
 90
        3
 71
     1
340
7475
 40
5.0
340
0
 40
5.0
300

 40
0.0
280
     1
 71
     2
340
7479
 90
       25
 71
     3
340
7475
 40
5.0
 90
        0
 40
15.0
 90
        1
300
%<\AcVar ViewDetailId>% (%<\AcVar ViewScale \f "%sn">%)
 71
     4
340
7479
 90
       25
340
7479
 90
       25
280
     0
  0
LAYOUT
  5
173D5
102
{ACAD_XDICTIONARY
360
2454C
102
}
102
{ACAD_REACTORS
330
173D3
102
}
330
173D3
100
AcDbPlotSettings
  1

  2
クセロPDF
  4
A3
  6

 40
3.174999952316284
 41
3.174999952316284
 42
3.17498779296875
 43
3.17498779296875
 44
419.9466552734374
 45
296.9259948730469
 46
0.0
 47
0.0
 48
0.0
 49
0.0
140
0.0
141
0.0
142
1.0
143
40.0
 70
 11952
 72
     1
 73
     0
 74
     2
  7
inaba.ctb
 75
    24
147
0.025
148
0.0
149
0.0
100
AcDbLayout
  1
Model
 70
     1
 71
     0
 10
0.0
 20
0.0
 11
12.0
 21
9.0
 12
0.0
 22
0.0
 32
0.0
 14
0.0
 24
0.0
 34
0.0
 15
0.0
 25
0.0
 35
0.0
146
0.0
 13
0.0
 23
0.0
 33
0.0
 16
1.0
 26
0.0
 36
0.0
 17
0.0
 27
1.0
 37
0.0
 76
     0
330
747D
331
240C2
  0
LAYOUT
  5
173D6
102
{ACAD_XDICTIONARY
360
2454E
102
}
102
{ACAD_REACTORS
330
173D3
102
}
330
173D3
100
AcDbPlotSettings
  1

  2
Microsoft Office Document Image Writer
  4

  6

 40
0.0
 41
0.0
 42
0.0
 43
0.0
 44
0.0
 45
0.0
 46
0.0
 47
0.0
 48
0.0
 49
0.0
140
0.0
141
0.0
142
1.0
143
1.0
 70
   688
 72
     0
 73
     0
 74
     5
  7
inaba.ctb
 75
    16
147
1.0
148
0.0
149
0.0
100
AcDbLayout
  1
レイアウト1
 70
     0
 71
     1
 10
0.0
 20
0.0
 11
420.0
 21
297.0
 12
0.0
 22
0.0
 32
0.0
 14
1.000000000000000E+20
 24
1.000000000000000E+20
 34
1.000000000000000E+20
 15
-1.000000000000000E+20
 25
-1.000000000000000E+20
 35
-1.000000000000000E+20
146
0.0
 13
0.0
 23
0.0
 33
0.0
 16
1.0
 26
0.0
 36
0.0
 17
0.0
 27
1.0
 37
0.0
 76
     0
330
747A
  0
MATERIAL
  5
240CC
102
{ACAD_XDICTIONARY
360
240CD
102
}
102
{ACAD_REACTORS
330
173D1
102
}
330
173D1
100
AcDbMaterial
  1
ByBlock
 72
     0
 43
0.0208333333333333
 43
0.0
 43
0.0
 43
0.0
 43
0.0
 43
0.0208333333333333
 43
0.0
 43
0.0
 43
0.0
 43
0.0
 43
1.0
 43
0.0
 43
0.0
 43
0.0
 43
0.0
 43
1.0
 77
     0
 47
0.0208333333333333
 47
0.0
 47
0.0
 47
0.0
 47
0.0
 47
0.0208333333333333
 47
0.0
 47
0.0
 47
0.0
 47
0.0
 47
1.0
 47
0.0
 47
0.0
 47
0.0
 47
0.0
 47
1.0
171
     0
 49
0.0208333333333333
 49
0.0
 49
0.0
 49
0.0
 49
0.0
 49
0.0208333333333333
 49
0.0
 49
0.0
 49
0.0
 49
0.0
 49
1.0
 49
0.0
 49
0.0
 49
0.0
 49
0.0
 49
1.0
175
     0
142
0.0208333333333333
142
0.0
142
0.0
142
0.0
142
0.0
142
0.0208333333333333
142
0.0
142
0.0
142
0.0
142
0.0
142
1.0
142
0.0
142
0.0
142
0.0
142
0.0
142
1.0
179
     0
144
0.0208333333333333
144
0.0
144
0.0
144
0.0
144
0.0
144
0.0208333333333333
144
0.0
144
0.0
144
0.0
144
0.0
144
1.0
144
0.0
144
0.0
144
0.0
144
0.0
144
1.0
147
0.0208333333333333
147
0.0
147
0.0
147
0.0
147
0.0
147
0.0208333333333333
147
0.0
147
0.0
147
0.0
147
0.0
147
1.0
147
0.0
147
0.0
147
0.0
147
0.0
147
1.0
  0
MATERIAL
  5
240C4
102
{ACAD_XDICTIONARY
360
240C5
102
}
102
{ACAD_REACTORS
330
173D1
102
}
330
173D1
100
AcDbMaterial
  1
ByLayer
 72
     0
 43
0.0208333333333333
 43
0.0
 43
0.0
 43
0.0
 43
0.0
 43
0.0208333333333333
 43
0.0
 43
0.0
 43
0.0
 43
0.0
 43
1.0
 43
0.0
 43
0.0
 43
0.0
 43
0.0
 43
1.0
 77
     0
 47
0.0208333333333333
 47
0.0
 47
0.0
 47
0.0
 47
0.0
 47
0.0208333333333333
 47
0.0
 47
0.0
 47
0.0
 47
0.0
 47
1.0
 47
0.0
 47
0.0
 47
0.0
 47
0.0
 47
1.0
171
     0
 49
0.0208333333333333
 49
0.0
 49
0.0
 49
0.0
 49
0.0
 49
0.0208333333333333
 49
0.0
 49
0.0
 49
0.0
 49
0.0
 49
1.0
 49
0.0
 49
0.0
 49
0.0
 49
0.0
 49
1.0
175
     0
142
0.0208333333333333
142
0.0
142
0.0
142
0.0
142
0.0
142
0.0208333333333333
142
0.0
142
0.0
142
0.0
142
0.0
142
1.0
142
0.0
142
0.0
142
0.0
142
0.0
142
1.0
179
     0
144
0.0208333333333333
144
0.0
144
0.0
144
0.0
144
0.0
144
0.0208333333333333
144
0.0
144
0.0
144
0.0
144
0.0
144
1.0
144
0.0
144
0.0
144
0.0
144
0.0
144
1.0
147
0.0208333333333333
147
0.0
147
0.0
147
0.0
147
0.0
147
0.0208333333333333
147
0.0
147
0.0
147
0.0
147
0.0
147
1.0
147
0.0
147
0.0
147
0.0
147
0.0
147
1.0
  0
MATERIAL
  5
240D4
102
{ACAD_XDICTIONARY
360
240D5
102
}
102
{ACAD_REACTORS
330
173D1
102
}
330
173D1
100
AcDbMaterial
  1
Global
 72
     0
 43
0.0208333333333333
 43
0.0
 43
0.0
 43
0.0
 43
0.0
 43
0.0208333333333333
 43
0.0
 43
0.0
 43
0.0
 43
0.0
 43
1.0
 43
0.0
 43
0.0
 43
0.0
 43
0.0
 43
1.0
 77
     0
 47
0.0208333333333333
 47
0.0
 47
0.0
 47
0.0
 47
0.0
 47
0.0208333333333333
 47
0.0
 47
0.0
 47
0.0
 47
0.0
 47
1.0
 47
0.0
 47
0.0
 47
0.0
 47
0.0
 47
1.0
171
     0
 49
0.0208333333333333
 49
0.0
 49
0.0
 49
0.0
 49
0.0
 49
0.0208333333333333
 49
0.0
 49
0.0
 49
0.0
 49
0.0
 49
1.0
 49
0.0
 49
0.0
 49
0.0
 49
0.0
 49
1.0
175
     0
142
0.0208333333333333
142
0.0
142
0.0
142
0.0
142
0.0
142
0.0208333333333333
142
0.0
142
0.0
142
0.0
142
0.0
142
1.0
142
0.0
142
0.0
142
0.0
142
0.0
142
1.0
179
     0
144
0.0208333333333333
144
0.0
144
0.0
144
0.0
144
0.0
144
0.0208333333333333
144
0.0
144
0.0
144
0.0
144
0.0
144
1.0
144
0.0
144
0.0
144
0.0
144
0.0
144
1.0
147
0.0208333333333333
147
0.0
147
0.0
147
0.0
147
0.0
147
0.0208333333333333
147
0.0
147
0.0
147
0.0
147
0.0
147
1.0
147
0.0
147
0.0
147
0.0
147
0.0
147
1.0
  0
MLEADERSTYLE
  5
2410A
102
{ACAD_XDICTIONARY
360
24585
102
}
102
{ACAD_REACTORS
330
24109
102
}
330
24109
100
AcDbMLeaderStyle
170
     2
171
     1
172
     0
 90
        2
 40
0.0
 41
0.0
173
     1
 91
-1056964608
340
7477
 92
       -2
290
     1
 42
2.0
291
     1
 43
0.36
  3
Standard
 44
4.0
300

342
7475
174
     1
178
     6
175
     1
176
     0
 93
-1056964608
 45
4.0
292
     0
297
     0
 46
4.0
 94
-1056964608
 47
1.0
 49
1.0
140
1.0
293
     1
141
0.0
294
     1
177
     0
142
1.0
295
     0
296
     0
143
0.125
1001
ACAD_MLEADERVER
1070
     2
  0
MLINESTYLE
  5
7480
102
{ACAD_REACTORS
330
7473
102
}
330
7473
100
AcDbMlineStyle
  2
STANDARD
 70
     0
  3

 62
     0
 51
90.0
 52
90.0
 71
     2
 49
0.5
 62
   256
  6
BYLAYER
 49
-0.5
 62
   256
  6
BYLAYER
  0
ACDBPLACEHOLDER
  5
173D0
102
{ACAD_REACTORS
330
173CF
102
}
330
173CF
  0
SCALE
  5
240F8
102
{ACAD_REACTORS
330
240F7
102
}
330
240F7
100
AcDbScale
 70
     0
300
1:1
140
1.0
141
1.0
290
     1
  0
SCALE
  5
240F9
102
{ACAD_REACTORS
330
240F7
102
}
330
240F7
100
AcDbScale
 70
     0
300
1:2
140
1.0
141
2.0
290
     0
  0
SCALE
  5
240FA
102
{ACAD_REACTORS
330
240F7
102
}
330
240F7
100
AcDbScale
 70
     0
300
1:4
140
1.0
141
4.0
290
     0
  0
SCALE
  5
240FB
102
{ACAD_REACTORS
330
240F7
102
}
330
240F7
100
AcDbScale
 70
     0
300
1:5
140
1.0
141
5.0
290
     0
  0
SCALE
  5
240FC
102
{ACAD_REACTORS
330
240F7
102
}
330
240F7
100
AcDbScale
 70
     0
300
1:8
140
1.0
141
8.0
290
     0
  0
SCALE
  5
240FD
102
{ACAD_REACTORS
330
240F7
102
}
330
240F7
100
AcDbScale
 70
     0
300
1:10
140
1.0
141
10.0
290
     0
  0
SCALE
  5
240FE
102
{ACAD_REACTORS
330
240F7
102
}
330
240F7
100
AcDbScale
 70
     0
300
1:16
140
1.0
141
16.0
290
     0
  0
SCALE
  5
240FF
102
{ACAD_REACTORS
330
240F7
102
}
330
240F7
100
AcDbScale
 70
     0
300
1:20
140
1.0
141
20.0
290
     0
  0
SCALE
  5
24100
102
{ACAD_REACTORS
330
240F7
102
}
330
240F7
100
AcDbScale
 70
     0
300
1:30
140
1.0
141
30.0
290
     0
  0
SCALE
  5
24101
102
{ACAD_REACTORS
330
240F7
102
}
330
240F7
100
AcDbScale
 70
     0
300
1:40
140
1.0
141
40.0
290
     0
  0
SCALE
  5
24102
102
{ACAD_REACTORS
330
240F7
102
}
330
240F7
100
AcDbScale
 70
     0
300
1:50
140
1.0
141
50.0
290
     0
  0
SCALE
  5
24103
102
{ACAD_REACTORS
330
240F7
102
}
330
240F7
100
AcDbScale
 70
     0
300
1:100
140
1.0
141
100.0
290
     0
  0
SCALE
  5
24104
102
{ACAD_REACTORS
330
240F7
102
}
330
240F7
100
AcDbScale
 70
     0
300
2:1
140
2.0
141
1.0
290
     0
  0
SCALE
  5
24105
102
{ACAD_REACTORS
330
240F7
102
}
330
240F7
100
AcDbScale
 70
     0
300
4:1
140
4.0
141
1.0
290
     0
  0
SCALE
  5
24106
102
{ACAD_REACTORS
330
240F7
102
}
330
240F7
100
AcDbScale
 70
     0
300
8:1
140
8.0
141
1.0
290
     0
  0
SCALE
  5
24107
102
{ACAD_REACTORS
330
240F7
102
}
330
240F7
100
AcDbScale
 70
     0
300
10:1
140
10.0
141
1.0
290
     0
  0
SCALE
  5
24108
102
{ACAD_REACTORS
330
240F7
102
}
330
240F7
100
AcDbScale
 70
     0
300
100:1
140
100.0
141
1.0
290
     0
  0
ACDBSECTIONVIEWSTYLE
  5
2410C
102
{ACAD_XDICTIONARY
360
2413B
102
}
102
{ACAD_REACTORS
330
2410B
102
}
330
2410B
100
AcDbModelDocViewStyle
 70
     0
  3
Metric50
290
     0
100
AcDbSectionViewStyle
 70
     0
 71
     0
 90
      102
 71
     1
340
7475
 40
5.0
340
0
340
0
 40
5.0
300
I, O, Q, S, X, Z
 40
10.0
 90
        0
 40
2.5
 90
        0
 71
     2
340
7479
 90
       25
340
7479
 90
       50
 40
5.0
 40
2.5
 40
5.0
 71
     3
340
7475
 40
5.0
 90
        0
 40
15.0
 90
        1
300
%<\AcVar ViewSectionStartId>%-%<\AcVar ViewSectionEndId>% (%<\AcVar ViewScale \f "%sn">%)
 71
     4
300
ANSI31
 40
1.0
 90
        0
290
     0
290
     0
 90
        6
 40
0.0
 40
1.570796326794896
 40
0.2617993877991494
 40
1.308996938995747
 40
-0.2617993877991494
 40
1.832595714594046
  0
TABLESTYLE
  5
240F6
102
{ACAD_XDICTIONARY
360
24540
102
}
102
{ACAD_REACTORS
330
240F5
102
}
330
240F5
100
AcDbTableStyle
  3
Standard
 70
     0
 71
     0
 40
1.5
 41
1.5
280
     0
281
     0
  7
STANDARD
140
4.5
170
     2
 62
     0
 63
     7
283
     0
274
    -2
284
     1
 64
     0
275
    -2
285
     1
 65
     0
276
    -2
286
     1
 66
     0
277
    -2
287
     1
 67
     0
278
    -2
288
     1
 68
     0
279
    -2
289
     1
 69
     0
  7
STANDARD
140
6.0
170
     5
 62
     0
 63
     7
283
     0
274
    -2
284
     1
 64
     0
275
    -2
285
     1
 65
     0
276
    -2
286
     1
 66
     0
277
    -2
287
     1
 67
     0
278
    -2
288
     1
 68
     0
279
    -2
289
     1
 69
     0
  7
STANDARD
140
4.5
170
     5
 62
     0
 63
     7
283
     0
274
    -2
284
     1
 64
     0
275
    -2
285
     1
 65
     0
276
    -2
286
     1
 66
     0
277
    -2
287
     1
 67
     0
278
    -2
288
     1
 68
     0
279
    -2
289
     1
 69
     0
  0
VISUALSTYLE
  5
240E2
102
{ACAD_XDICTIONARY
360
2455D
102
}
102
{ACAD_REACTORS
330
240DC
102
}
330
240DC
100
AcDbVisualStyle
  2
2dWireframe
 70
     4
 71
     0
 72
     2
 73
     0
 90
        0
 40
-0.6
 41
-30.0
 62
     5
 63
     7
 74
     1
 91
        4
 64
     7
 65
   257
 75
     1
175
     1
 42
1.0
 92
        0
 66
   257
 43
1.0
 76
     1
 77
     6
 78
     2
 67
     7
 79
     5
170
     0
171
     0
290
     0
174
     0
 93
        1
 44
0.0
173
     0
291
     0
 45
0.0
1001
ACAD
1000
AcDbSavedByObjectVersion
1070
     0
  0
VISUALSTYLE
  5
240E1
102
{ACAD_XDICTIONARY
360
2455B
102
}
102
{ACAD_REACTORS
330
240DC
102
}
330
240DC
100
AcDbVisualStyle
  2
Basic
 70
     7
 71
     1
 72
     0
 73
     1
 90
        0
 40
-0.6
 41
-30.0
 62
     5
 63
     7
 74
     0
 91
        4
 64
     7
 65
   257
 75
     1
175
     1
 42
1.0
 92
        8
 66
     7
 43
1.0
 76
     1
 77
     6
 78
     2
 67
     7
 79
     5
170
     0
171
     0
290
     0
174
     0
 93
        1
 44
0.0
173
     0
291
     1
 45
0.0
1001
ACAD
1000
AcDbSavedByObjectVersion
1070
     0
  0
VISUALSTYLE
  5
240E8
102
{ACAD_XDICTIONARY
360
24569
102
}
102
{ACAD_REACTORS
330
240DC
102
}
330
240DC
100
AcDbVisualStyle
  2
Brighten
 70
    12
 71
     2
 72
     2
 73
     0
 90
        0
 40
-0.6
 41
-30.0
 62
     5
 63
     7
 74
     1
 91
        4
 64
     7
 65
   257
 75
     1
175
     1
 42
1.0
 92
        8
 66
     7
 43
1.0
 76
     1
 77
     6
 78
     2
 67
     7
 79
     5
170
     0
171
     0
290
     0
174
     0
 93
        1
 44
50.0
173
     0
291
     1
 45
0.0
1001
ACAD
1000
AcDbSavedByObjectVersion
1070
     0
  0
VISUALSTYLE
  5
240EC
102
{ACAD_XDICTIONARY
360
24571
102
}
102
{ACAD_REACTORS
330
240DC
102
}
330
240DC
100
AcDbVisualStyle
  2
ColorChange
 70
    16
 71
     2
 72
     2
 73
     3
 90
        0
 40
-0.6
 41
-30.0
 62
     5
 63
     8
 74
     1
 91
        4
 64
     7
 65
   257
 75
     1
175
     1
 42
1.0
 92
        8
 66
     8
 43
1.0
 76
     1
 77
     6
 78
     2
 67
     7
 79
     5
170
     0
171
     0
290
     0
174
     0
 93
        1
 44
0.0
173
     0
291
     1
 45
0.0
1001
ACAD
1000
AcDbSavedByObjectVersion
1070
     0
  0
VISUALSTYLE
  5
240E5
102
{ACAD_XDICTIONARY
360
24563
102
}
102
{ACAD_REACTORS
330
240DC
102
}
330
240DC
100
AcDbVisualStyle
  2
Conceptual
 70
     9
 71
     3
 72
     2
 73
     0
 90
        0
 40
-0.6
 41
-30.0
 62
     5
 63
     7
 74
     2
 91
        2
 64
     7
 65
   257
 75
     1
175
     1
 42
179.0
 92
        8
 66
     7
 43
1.0
 76
     1
 77
     6
 78
     2
 67
     7
 79
     3
170
     0
171
     0
290
     0
174
     0
 93
        1
 44
0.0
173
     0
291
     0
 45
0.0
1001
ACAD
1000
AcDbSavedByObjectVersion
1070
     0
  0
VISUALSTYLE
  5
240E7
102
{ACAD_XDICTIONARY
360
24567
102
}
102
{ACAD_REACTORS
330
240DC
102
}
330
240DC
100
AcDbVisualStyle
  2
Dim
 70
    11
 71
     2
 72
     2
 73
     0
 90
        0
 40
-0.6
 41
-30.0
 62
     5
 63
     7
 74
     1
 91
        4
 64
     7
 65
   257
 75
     1
175
     1
 42
1.0
 92
        8
 66
     7
 43
1.0
 76
     1
 77
     6
 78
     2
 67
     7
 79
     5
170
     0
171
     0
290
     0
174
     0
 93
        1
 44
-50.0
173
     0
291
     1
 45
0.0
1001
ACAD
1000
AcDbSavedByObjectVersion
1070
     0
  0
VISUALSTYLE
  5
240F4
102
{ACAD_XDICTIONARY
360
24581
102
}
102
{ACAD_REACTORS
330
240DC
102
}
330
240DC
100
AcDbVisualStyle
  2
EdgeColorOff
 70
    22
 71
     2
 72
     2
 73
     0
 90
        0
 40
-0.6
 41
-30.0
 62
     5
 63
     7
 74
     1
 91
        4
 64
     7
 65
   257
 75
     1
175
     1
 42
1.0
 92
        8
 66
     7
 43
1.0
 76
     1
 77
     6
 78
     2
 67
     7
 79
     5
170
     0
171
     0
290
     0
174
     0
 93
        1
 44
0.0
173
     0
291
     1
 45
0.0
1001
ACAD
1000
AcDbSavedByObjectVersion
1070
     0
  0
VISUALSTYLE
  5
240EB
102
{ACAD_XDICTIONARY
360
2456F
102
}
102
{ACAD_REACTORS
330
240DC
102
}
330
240DC
100
AcDbVisualStyle
  2
Facepattern
 70
    15
 71
     2
 72
     2
 73
     0
 90
        0
 40
-0.6
 41
-30.0
 62
     5
 63
     7
 74
     1
 91
        4
 64
     7
 65
   257
 75
     1
175
     1
 42
1.0
 92
        8
 66
     7
 43
1.0
 76
     1
 77
     6
 78
     2
 67
     7
 79
     5
170
     0
171
     0
290
     0
174
     0
 93
        1
 44
0.0
173
     0
291
     1
 45
0.0
1001
ACAD
1000
AcDbSavedByObjectVersion
1070
     0
  0
VISUALSTYLE
  5
240DD
102
{ACAD_XDICTIONARY
360
24553
102
}
102
{ACAD_REACTORS
330
240DC
102
}
330
240DC
100
AcDbVisualStyle
  2
Flat
 70
     0
 71
     2
 72
     1
 73
     1
 90
        2
 40
-0.6
 41
30.0
 62
     5
 63
     7
 74
     0
 91
        0
 64
     7
 65
   257
 75
     1
175
     1
 42
1.0
 92
        8
 66
     7
 43
1.0
 76
     1
 77
     6
 78
     2
 67
     7
 79
     5
170
     0
171
     0
290
     0
174
     0
 93
       13
 44
0.0
173
     0
291
     1
 45
0.0
1001
ACAD
1000
AcDbSavedByObjectVersion
1070
     0
  0
VISUALSTYLE
  5
240DE
102
{ACAD_XDICTIONARY
360
24555
102
}
102
{ACAD_REACTORS
330
240DC
102
}
330
240DC
100
AcDbVisualStyle
  2
FlatWithEdges
 70
     1
 71
     2
 72
     1
 73
     1
 90
        2
 40
-0.6
 41
30.0
 62
     5
 63
     7
 74
     1
 91
        0
 64
     7
 65
   257
 75
     1
175
     1
 42
1.0
 92
        0
 66
   257
 43
1.0
 76
     1
 77
     6
 78
     2
 67
     7
 79
     5
170
     0
171
     0
290
     0
174
     0
 93
       13
 44
0.0
173
     0
291
     1
 45
0.0
1001
ACAD
1000
AcDbSavedByObjectVersion
1070
     0
  0
VISUALSTYLE
  5
240DF
102
{ACAD_XDICTIONARY
360
24557
102
}
102
{ACAD_REACTORS
330
240DC
102
}
330
240DC
100
AcDbVisualStyle
  2
Gouraud
 70
     2
 71
     2
 72
     2
 73
     1
 90
        2
 40
-0.6
 41
30.0
 62
     5
 63
     7
 74
     0
 91
        0
 64
     7
 65
   257
 75
     1
175
     1
 42
1.0
 92
        0
 66
     7
 43
1.0
 76
     1
 77
     6
 78
     2
 67
     7
 79
     5
170
     0
171
     0
290
     0
174
     0
 93
       13
 44
0.0
173
     0
291
     1
 45
0.0
1001
ACAD
1000
AcDbSavedByObjectVersion
1070
     0
  0
VISUALSTYLE
  5
240E0
102
{ACAD_XDICTIONARY
360
24559
102
}
102
{ACAD_REACTORS
330
240DC
102
}
330
240DC
100
AcDbVisualStyle
  2
GouraudWithEdges
 70
     3
 71
     2
 72
     2
 73
     1
 90
        2
 40
-0.6
 41
30.0
 62
     5
 63
     7
 74
     1
 91
        0
 64
     7
 65
   257
 75
     1
175
     1
 42
1.0
 92
        0
 66
   257
 43
1.0
 76
     1
 77
     6
 78
     2
 67
     7
 79
     5
170
     0
171
     0
290
     0
174
     0
 93
       13
 44
0.0
173
     0
291
     1
 45
0.0
1001
ACAD
1000
AcDbSavedByObjectVersion
1070
     0
  0
VISUALSTYLE
  5
240E4
102
{ACAD_XDICTIONARY
360
24561
102
}
102
{ACAD_REACTORS
330
240DC
102
}
330
240DC
100
AcDbVisualStyle
  2
Hidden
 70
     6
 71
     1
 72
     2
 73
     2
 90
        0
 40
-0.6
 41
-30.0
 62
     5
 63
     7
 74
     2
 91
        2
 64
     7
 65
   257
 75
     2
175
     1
 42
40.0
 92
        0
 66
   257
 43
1.0
 76
     1
 77
     6
 78
     2
 67
     7
 79
     3
170
     0
171
     0
290
     0
174
     0
 93
        1
 44
0.0
173
     0
291
     0
 45
0.0
1001
ACAD
1000
AcDbSavedByObjectVersion
1070
     0
  0
VISUALSTYLE
  5
240F2
102
{ACAD_XDICTIONARY
360
2457D
102
}
102
{ACAD_REACTORS
330
240DC
102
}
330
240DC
100
AcDbVisualStyle
  2
JitterOff
 70
    20
 71
     2
 72
     2
 73
     0
 90
        0
 40
-0.6
 41
-30.0
 62
     5
 63
     7
 74
     1
 91
        4
 64
     7
 65
   257
 75
     1
175
     1
 42
1.0
 92
       10
 66
     7
 43
1.0
 76
     1
 77
     6
 78
     2
 67
     7
 79
     5
170
     0
171
     0
290
     0
174
     0
 93
        1
 44
0.0
173
     0
291
     1
 45
0.0
1001
ACAD
1000
AcDbSavedByObjectVersion
1070
     0
  0
VISUALSTYLE
  5
240EA
102
{ACAD_XDICTIONARY
360
2456D
102
}
102
{ACAD_REACTORS
330
240DC
102
}
330
240DC
100
AcDbVisualStyle
  2
Linepattern
 70
    14
 71
     2
 72
     2
 73
     0
 90
        0
 40
-0.6
 41
-30.0
 62
     5
 63
     7
 74
     1
 91
        4
 64
     7
 65
   257
 75
     7
175
     7
 42
1.0
 92
        8
 66
     7
 43
1.0
 76
     1
 77
     6
 78
     2
 67
     7
 79
     5
170
     0
171
     0
290
     0
174
     0
 93
        1
 44
0.0
173
     0
291
     1
 45
0.0
1001
ACAD
1000
AcDbSavedByObjectVersion
1070
     0
  0
VISUALSTYLE
  5
240F3
102
{ACAD_XDICTIONARY
360
2457F
102
}
102
{ACAD_REACTORS
330
240DC
102
}
330
240DC
100
AcDbVisualStyle
  2
OverhangOff
 70
    21
 71
     2
 72
     2
 73
     0
 90
        0
 40
-0.6
 41
-30.0
 62
     5
 63
     7
 74
     1
 91
        4
 64
     7
 65
   257
 75
     1
175
     1
 42
1.0
 92
        9
 66
     7
 43
1.0
 76
     1
 77
     6
 78
     2
 67
     7
 79
     5
170
     0
171
     0
290
     0
174
     0
 93
        1
 44
0.0
173
     0
291
     1
 45
0.0
1001
ACAD
1000
AcDbSavedByObjectVersion
1070
     0
  0
VISUALSTYLE
  5
240E6
102
{ACAD_XDICTIONARY
360
24565
102
}
102
{ACAD_REACTORS
330
240DC
102
}
330
240DC
100
AcDbVisualStyle
  2
Realistic
 70
     8
 71
     2
 72
     3
 73
     0
 90
        2
 40
-0.6
 41
30.0
 62
     5
 63
     7
 74
     0
 91
        0
 64
     7
 65
   257
 75
     1
175
     1
 42
1.0
 92
        8
 66
   257
 43
1.0
 76
     1
 77
     6
 78
     2
 67
     7
 79
     3
170
     0
171
     0
290
     0
174
     0
 93
       13
 44
0.0
173
     0
291
     0
 45
0.0
1001
ACAD
1000
AcDbSavedByObjectVersion
1070
     0
  0
VISUALSTYLE
  5
240F1
102
{ACAD_XDICTIONARY
360
2457B
102
}
102
{ACAD_REACTORS
330
240DC
102
}
330
240DC
100
AcDbVisualStyle
  2
Shaded
 70
    27
 71
     2
 72
     2
 73
     1
 90
        2
 40
-0.6
 41
30.0
 62
     5
 63
     7
 74
     0
 91
        4
 64
     7
 65
   257
 75
     1
175
     1
 42
1.0
 92
        8
 66
   257
 43
1.0
 76
     1
 77
     6
 78
     2
 67
     8
 79
     3
170
     0
171
     0
290
     0
174
     0
 93
        5
 44
0.0
173
     0
291
     0
 45
0.0
1001
ACAD
1000
AcDbSavedByObjectVersion
1070
     0
  0
VISUALSTYLE
  5
240F0
102
{ACAD_XDICTIONARY
360
24579
102
}
102
{ACAD_REACTORS
330
240DC
102
}
330
240DC
100
AcDbVisualStyle
  2
Shaded with edges
 70
    26
 71
     2
 72
     2
 73
     1
 90
        2
 40
-0.6
 41
30.0
 62
     5
 63
     7
 74
     1
 91
       10
 64
     7
 65
   257
 75
     2
175
     1
 42
1.0
 92
        8
 66
   257
 43
1.0
 76
     1
 77
     6
 78
     2
 67
     7
 79
     3
170
     0
171
     0
290
     0
174
     0
 93
        5
 44
0.0
173
     0
291
     0
 45
0.0
1001
ACAD
1000
AcDbSavedByObjectVersion
1070
     0
  0
VISUALSTYLE
  5
240ED
102
{ACAD_XDICTIONARY
360
24573
102
}
102
{ACAD_REACTORS
330
240DC
102
}
330
240DC
100
AcDbVisualStyle
  2
Shades of Gray
 70
    23
 71
     2
 72
     2
 73
     3
 90
        0
 40
-0.6
 41
-30.0
 62
     5
 63
     7
 74
     2
 91
        2
 64
     7
 65
     7
 75
     1
175
     1
 42
40.0
 92
        8
 66
     7
 43
1.0
 76
     1
 77
     6
 78
     2
 67
     7
 79
     3
170
     0
171
     0
290
     0
174
     0
 93
        1
 44
0.0
173
     0
291
     0
 45
0.0
1001
ACAD
1000
AcDbSavedByObjectVersion
1070
     0
  0
VISUALSTYLE
  5
240EE
102
{ACAD_XDICTIONARY
360
24575
102
}
102
{ACAD_REACTORS
330
240DC
102
}
330
240DC
100
AcDbVisualStyle
  2
Sketchy
 70
    24
 71
     1
 72
     2
 73
     2
 90
        0
 40
-0.6
 41
-30.0
 62
     5
 63
     7
 74
     2
 91
        2
 64
     7
 65
     7
 75
     1
175
     1
 42
40.0
 92
       11
 66
     7
 43
1.0
 76
     1
 77
     6
 78
     2
 67
     7
 79
     6
170
     0
171
     0
290
     0
174
     0
 93
        1
 44
0.0
173
     0
291
     0
 45
0.0
1001
ACAD
1000
AcDbSavedByObjectVersion
1070
     0
  0
VISUALSTYLE
  5
240E9
102
{ACAD_XDICTIONARY
360
2456B
102
}
102
{ACAD_REACTORS
330
240DC
102
}
330
240DC
100
AcDbVisualStyle
  2
Thicken
 70
    13
 71
     2
 72
     2
 73
     0
 90
        0
 40
-0.6
 41
-30.0
 62
     5
 63
     7
 74
     1
 91
        4
 64
     7
 65
   257
 75
     1
175
     1
 42
1.0
 92
       12
 66
     7
 43
1.0
 76
     1
 77
     6
 78
     2
 67
     7
 79
     5
170
     0
171
     0
290
     0
174
     0
 93
        1
 44
0.0
173
     0
291
     1
 45
0.0
1001
ACAD
1000
AcDbSavedByObjectVersion
1070
     0
  0
VISUALSTYLE
  5
240E3
102
{ACAD_XDICTIONARY
360
2455F
102
}
102
{ACAD_REACTORS
330
240DC
102
}
330
240DC
100
AcDbVisualStyle
  2
Wireframe
 70
     5
 71
     0
 72
     2
 73
     0
 90
        0
 40
-0.6
 41
-30.0
 62
     5
 63
     7
 74
     1
 91
        4
 64
     7
 65
   257
 75
     1
175
     1
 42
1.0
 92
        0
 66
   257
 43
1.0
 76
     1
 77
     6
 78
     2
 67
     7
 79
     3
170
     0
171
     0
290
     0
174
     0
 93
        1
 44
0.0
173
     0
291
     0
 45
0.0
1001
ACAD
1000
AcDbSavedByObjectVersion
1070
     0
  0
VISUALSTYLE
  5
240EF
102
{ACAD_XDICTIONARY
360
24577
102
}
102
{ACAD_REACTORS
330
240DC
102
}
330
240DC
100
AcDbVisualStyle
  2
X-Ray
 70
    25
 71
     2
 72
     2
 73
     1
 90
        1
 40
0.5
 41
-30.0
 62
     5
 63
     7
 74
     1
 91
        0
 64
     7
 65
   257
 75
     1
175
     1
 42
1.0
 92
        8
 66
     7
 43
1.0
 76
     1
 77
     6
 78
     2
 67
     7
 79
     3
170
     0
171
     0
290
     0
174
     0
 93
       13
 44
0.0
173
     0
291
     0
 45
0.0
1001
ACAD
1000
AcDbSavedByObjectVersion
1070
     0
  0
DICTIONARYVAR
  5
24146
102
{ACAD_REACTORS
330
24140
102
}
330
24140
100
DictionaryVariables
280
     0
  1
1:1
  0
DICTIONARYVAR
  5
24142
102
{ACAD_REACTORS
330
24140
102
}
330
24140
100
DictionaryVariables
280
     0
  1
STANDARD
  0
DICTIONARYVAR
  5
24141
102
{ACAD_REACTORS
330
24140
102
}
330
24140
100
DictionaryVariables
280
     0
  1
STANDARD
  0
DICTIONARYVAR
  5
24143
102
{ACAD_REACTORS
330
24140
102
}
330
24140
100
DictionaryVariables
280
     0
  1
Metric50
  0
DICTIONARYVAR
  5
24144
102
{ACAD_REACTORS
330
24140
102
}
330
24140
100
DictionaryVariables
280
     0
  1
Metric50
  0
DICTIONARYVAR
  5
2453F
102
{ACAD_REACTORS
330
24140
102
}
330
24140
100
DictionaryVariables
280
     0
  1
1
  0
DICTIONARYVAR
  5
2453D
102
{ACAD_REACTORS
330
24140
102
}
330
24140
100
DictionaryVariables
280
     0
  1
0
  0
DICTIONARYVAR
  5
24148
102
{ACAD_REACTORS
330
24140
102
}
330
24140
100
DictionaryVariables
280
     0
  1
1
  0
DICTIONARYVAR
  5
24149
102
{ACAD_REACTORS
330
24140
102
}
330
24140
100
DictionaryVariables
280
     0
  1
15
  0
DICTIONARYVAR
  5
24147
102
{ACAD_REACTORS
330
24140
102
}
330
24140
100
DictionaryVariables
280
     0
  1
0
  0
DICTIONARYVAR
  5
24145
102
{ACAD_REACTORS
330
24140
102
}
330
24140
100
DictionaryVariables
280
     0
  1
0
  0
DICTIONARYVAR
  5
2453C
102
{ACAD_REACTORS
330
24140
102
}
330
24140
100
DictionaryVariables
280
     0
  1
127
  0
DICTIONARYVAR
  5
2453E
102
{ACAD_REACTORS
330
24140
102
}
330
24140
100
DictionaryVariables
280
     0
  1
0
  0
DICTIONARY
  5
2454B
102
{ACAD_REACTORS
330
24549
102
}
330
24549
100
AcDbDictionary
281
     1
  0
DICTIONARY
  5
2454A
102
{ACAD_REACTORS
330
24549
102
}
330
24549
100
AcDbDictionary
281
     1
  3
2129960992
350
24544
  3
2129961000
350
24545
  3
2129961008
350
24546
  3
2129961016
350
24547
  3
2129961024
350
24548
  0
DICTIONARY
  5
2413D
330
2410E
100
AcDbDictionary
280
     1
281
     1
  3
ACAD_XREC_ROUNDTRIP
360
24588
  0
DICTIONARY
  5
2454C
330
173D5
100
AcDbDictionary
280
     1
281
     1
  3
ACAD_XREC_ROUNDTRIP
360
2454D
  0
DICTIONARY
  5
2454E
330
173D6
100
AcDbDictionary
280
     1
281
     1
  3
ACAD_XREC_ROUNDTRIP
360
2454F
  0
DICTIONARY
  5
240CD
330
240CC
100
AcDbDictionary
280
     1
281
     1
  3
ACAD_XREC_ROUNDTRIP
360
24551
  3
BUMPTILE
360
240CF
  3
DIFFUSETILE
360
240CE
  3
OPACITYTILE
360
240D2
  3
REFLECTIONTILE
360
240D1
  3
REFRACTIONTILE
360
240D3
  3
SPECULARTILE
360
240D0
  0
DICTIONARY
  5
240C5
330
240C4
100
AcDbDictionary
280
     1
281
     1
  3
ACAD_XREC_ROUNDTRIP
360
24550
  3
BUMPTILE
360
240C7
  3
DIFFUSETILE
360
240C6
  3
OPACITYTILE
360
240CA
  3
REFLECTIONTILE
360
240C9
  3
REFRACTIONTILE
360
240CB
  3
SPECULARTILE
360
240C8
  0
DICTIONARY
  5
240D5
330
240D4
100
AcDbDictionary
280
     1
281
     1
  3
ACAD_XREC_ROUNDTRIP
360
24552
  3
BUMPTILE
360
240D7
  3
DIFFUSETILE
360
240D6
  3
OPACITYTILE
360
240DA
  3
REFLECTIONTILE
360
240D9
  3
REFRACTIONTILE
360
240DB
  3
SPECULARTILE
360
240D8
  0
DICTIONARY
  5
24585
330
2410A
100
AcDbDictionary
280
     1
281
     1
  3
ACAD_XREC_ROUNDTRIP
360
24586
  0
DICTIONARY
  5
2413B
330
2410C
100
AcDbDictionary
280
     1
281
     1
  3
ACAD_XREC_ROUNDTRIP
360
24587
  0
DICTIONARY
  5
24540
330
240F6
100
AcDbDictionary
280
     1
281
     1
  3
ACAD_ROUNDTRIP_2008_TABLESTYLE_CELLSTYLEMAP
360
24541
  3
ACAD_XREC_ROUNDTRIP
360
24583
  0
DICTIONARY
  5
2455D
330
240E2
100
AcDbDictionary
280
     1
281
     1
  3
ACAD_XREC_ROUNDTRIP
360
2455E
  0
DICTIONARY
  5
2455B
330
240E1
100
AcDbDictionary
280
     1
281
     1
  3
ACAD_XREC_ROUNDTRIP
360
2455C
  0
DICTIONARY
  5
24569
330
240E8
100
AcDbDictionary
280
     1
281
     1
  3
ACAD_XREC_ROUNDTRIP
360
2456A
  0
DICTIONARY
  5
24571
330
240EC
100
AcDbDictionary
280
     1
281
     1
  3
ACAD_XREC_ROUNDTRIP
360
24572
  0
DICTIONARY
  5
24563
330
240E5
100
AcDbDictionary
280
     1
281
     1
  3
ACAD_XREC_ROUNDTRIP
360
24564
  0
DICTIONARY
  5
24567
330
240E7
100
AcDbDictionary
280
     1
281
     1
  3
ACAD_XREC_ROUNDTRIP
360
24568
  0
DICTIONARY
  5
24581
330
240F4
100
AcDbDictionary
280
     1
281
     1
  3
ACAD_XREC_ROUNDTRIP
360
24582
  0
DICTIONARY
  5
2456F
330
240EB
100
AcDbDictionary
280
     1
281
     1
  3
ACAD_XREC_ROUNDTRIP
360
24570
  0
DICTIONARY
  5
24553
330
240DD
100
AcDbDictionary
280
     1
281
     1
  3
ACAD_XREC_ROUNDTRIP
360
24554
  0
DICTIONARY
  5
24555
330
240DE
100
AcDbDictionary
280
     1
281
     1
  3
ACAD_XREC_ROUNDTRIP
360
24556
  0
DICTIONARY
  5
24557
330
240DF
100
AcDbDictionary
280
     1
281
     1
  3
ACAD_XREC_ROUNDTRIP
360
24558
  0
DICTIONARY
  5
24559
330
240E0
100
AcDbDictionary
280
     1
281
     1
  3
ACAD_XREC_ROUNDTRIP
360
2455A
  0
DICTIONARY
  5
24561
330
240E4
100
AcDbDictionary
280
     1
281
     1
  3
ACAD_XREC_ROUNDTRIP
360
24562
  0
DICTIONARY
  5
2457D
330
240F2
100
AcDbDictionary
280
     1
281
     1
  3
ACAD_XREC_ROUNDTRIP
360
2457E
  0
DICTIONARY
  5
2456D
330
240EA
100
AcDbDictionary
280
     1
281
     1
  3
ACAD_XREC_ROUNDTRIP
360
2456E
  0
DICTIONARY
  5
2457F
330
240F3
100
AcDbDictionary
280
     1
281
     1
  3
ACAD_XREC_ROUNDTRIP
360
24580
  0
DICTIONARY
  5
24565
330
240E6
100
AcDbDictionary
280
     1
281
     1
  3
ACAD_XREC_ROUNDTRIP
360
24566
  0
DICTIONARY
  5
2457B
330
240F1
100
AcDbDictionary
280
     1
281
     1
  3
ACAD_XREC_ROUNDTRIP
360
2457C
  0
DICTIONARY
  5
24579
330
240F0
100
AcDbDictionary
280
     1
281
     1
  3
ACAD_XREC_ROUNDTRIP
360
2457A
  0
DICTIONARY
  5
24573
330
240ED
100
AcDbDictionary
280
     1
281
     1
  3
ACAD_XREC_ROUNDTRIP
360
24574
  0
DICTIONARY
  5
24575
330
240EE
100
AcDbDictionary
280
     1
281
     1
  3
ACAD_XREC_ROUNDTRIP
360
24576
  0
DICTIONARY
  5
2456B
330
240E9
100
AcDbDictionary
280
     1
281
     1
  3
ACAD_XREC_ROUNDTRIP
360
2456C
  0
DICTIONARY
  5
2455F
330
240E3
100
AcDbDictionary
280
     1
281
     1
  3
ACAD_XREC_ROUNDTRIP
360
24560
  0
DICTIONARY
  5
24577
330
240EF
100
AcDbDictionary
280
     1
281
     1
  3
ACAD_XREC_ROUNDTRIP
360
24578
  0
XRECORD
  5
24544
102
{ACAD_REACTORS
330
2454A
102
}
330
2454A
100
AcDbXrecord
280
     1
  1
AcDb_Thumbnail_Schema
102
{ATTRRECORD
341
24545
  2
AcDbDs::TreatedAsObjectData
280
     1
291
     1
102
ATTRRECORD}
102
{ATTRRECORD
341
24546
  2
AcDbDs::Legacy
280
     1
291
     1
102
ATTRRECORD}
  2
AcDbDs::ID
280
    10
 91
        8
102
{ATTRRECORD
341
24547
  2
AcDs:Indexable
280
     1
291
     1
102
ATTRRECORD}
102
{ATTRRECORD
341
24548
  2
AcDbDs::HandleAttribute
280
     7
282
     1
102
ATTRRECORD}
  2
Thumbnail_Data
280
    15
 91
        0
  0
XRECORD
  5
24545
102
{ACAD_REACTORS
330
2454A
102
}
330
2454A
100
AcDbXrecord
280
     1
  1
AcDbDs::TreatedAsObjectDataSchema
  2
AcDbDs::TreatedAsObjectData
280
     1
 91
        0
  0
XRECORD
  5
24546
102
{ACAD_REACTORS
330
2454A
102
}
330
2454A
100
AcDbXrecord
280
     1
  1
AcDbDs::LegacySchema
  2
AcDbDs::Legacy
280
     1
 91
        0
  0
XRECORD
  5
24547
102
{ACAD_REACTORS
330
2454A
102
}
330
2454A
100
AcDbXrecord
280
     1
  1
AcDbDs::IndexedPropertySchema
  2
AcDs:Indexable
280
     1
 91
        0
  0
XRECORD
  5
24548
102
{ACAD_REACTORS
330
2454A
102
}
330
2454A
100
AcDbXrecord
280
     1
  1
AcDbDs::HandleAttributeSchema
  2
AcDbDs::HandleAttribute
280
     7
 91
        1
284
     1
  0
XRECORD
  5
24588
102
{ACAD_REACTORS
330
2413D
102
}
330
2413D
100
AcDbXrecord
280
     1
102
DISPLAYNAME
  1
Metric50
102
FLAGS
 90
        0
  0
XRECORD
  5
2454D
102
{ACAD_REACTORS
330
2454C
102
}
330
2454C
100
AcDbXrecord
280
     1
102
SHADEPLOT
 70
     0
102
SHADEPLOTRESLEVEL
 70
     2
102
SHADEPLOTCUSTOMDPI
 70
   150
  0
XRECORD
  5
2454F
102
{ACAD_REACTORS
330
2454E
102
}
330
2454E
100
AcDbXrecord
280
     1
102
SHADEPLOT
 70
     0
102
SHADEPLOTRESLEVEL
 70
     2
102
SHADEPLOTCUSTOMDPI
 70
   300
  0
XRECORD
  5
24551
102
{ACAD_REACTORS
330
240CD
102
}
330
240CD
100
AcDbXrecord
280
     1
102
MATERIAL
148
0.0
149
0.0
149
0.0
 93
        0
 94
      127
282
     0
 72
     0
 77
     0
171
     0
175
     0
179
     0
273
     0
  0
XRECORD
  5
240CF
102
{ACAD_REACTORS
330
240CD
102
}
330
240CD
100
AcDbXrecord
280
     1
270
     1
271
     1
  0
XRECORD
  5
240CE
102
{ACAD_REACTORS
330
240CD
102
}
330
240CD
100
AcDbXrecord
280
     1
270
     1
271
     1
  0
XRECORD
  5
240D2
102
{ACAD_REACTORS
330
240CD
102
}
330
240CD
100
AcDbXrecord
280
     1
270
     1
271
     1
  0
XRECORD
  5
240D1
102
{ACAD_REACTORS
330
240CD
102
}
330
240CD
100
AcDbXrecord
280
     1
270
     1
271
     1
  0
XRECORD
  5
240D3
102
{ACAD_REACTORS
330
240CD
102
}
330
240CD
100
AcDbXrecord
280
     1
270
     1
271
     1
  0
XRECORD
  5
240D0
102
{ACAD_REACTORS
330
240CD
102
}
330
240CD
100
AcDbXrecord
280
     1
270
     1
271
     1
  0
XRECORD
  5
24550
102
{ACAD_REACTORS
330
240C5
102
}
330
240C5
100
AcDbXrecord
280
     1
102
MATERIAL
148
0.0
149
0.0
149
0.0
 93
        0
 94
      127
282
     0
 72
     0
 77
     0
171
     0
175
     0
179
     0
273
     0
  0
XRECORD
  5
240C7
102
{ACAD_REACTORS
330
240C5
102
}
330
240C5
100
AcDbXrecord
280
     1
270
     1
271
     1
  0
XRECORD
  5
240C6
102
{ACAD_REACTORS
330
240C5
102
}
330
240C5
100
AcDbXrecord
280
     1
270
     1
271
     1
  0
XRECORD
  5
240CA
102
{ACAD_REACTORS
330
240C5
102
}
330
240C5
100
AcDbXrecord
280
     1
270
     1
271
     1
  0
XRECORD
  5
240C9
102
{ACAD_REACTORS
330
240C5
102
}
330
240C5
100
AcDbXrecord
280
     1
270
     1
271
     1
  0
XRECORD
  5
240CB
102
{ACAD_REACTORS
330
240C5
102
}
330
240C5
100
AcDbXrecord
280
     1
270
     1
271
     1
  0
XRECORD
  5
240C8
102
{ACAD_REACTORS
330
240C5
102
}
330
240C5
100
AcDbXrecord
280
     1
270
     1
271
     1
  0
XRECORD
  5
24552
102
{ACAD_REACTORS
330
240D5
102
}
330
240D5
100
AcDbXrecord
280
     1
102
MATERIAL
148
0.0
149
0.0
149
0.0
 93
        0
 94
      127
282
     0
 72
     0
 77
     0
171
     0
175
     0
179
     0
273
     0
  0
XRECORD
  5
240D7
102
{ACAD_REACTORS
330
240D5
102
}
330
240D5
100
AcDbXrecord
280
     1
270
     1
271
     1
  0
XRECORD
  5
240D6
102
{ACAD_REACTORS
330
240D5
102
}
330
240D5
100
AcDbXrecord
280
     1
270
     1
271
     1
  0
XRECORD
  5
240DA
102
{ACAD_REACTORS
330
240D5
102
}
330
240D5
100
AcDbXrecord
280
     1
270
     1
271
     1
  0
XRECORD
  5
240D9
102
{ACAD_REACTORS
330
240D5
102
}
330
240D5
100
AcDbXrecord
280
     1
270
     1
271
     1
  0
XRECORD
  5
240DB
102
{ACAD_REACTORS
330
240D5
102
}
330
240D5
100
AcDbXrecord
280
     1
270
     1
271
     1
  0
XRECORD
  5
240D8
102
{ACAD_REACTORS
330
240D5
102
}
330
240D5
100
AcDbXrecord
280
     1
270
     1
271
     1
  0
XRECORD
  5
24586
102
{ACAD_REACTORS
330
24585
102
}
330
24585
100
AcDbXrecord
280
     1
102
ACAD_ROUNDTRIP_2012_MLEADER_STYLE
298
     1
  0
XRECORD
  5
24587
102
{ACAD_REACTORS
330
2413B
102
}
330
2413B
100
AcDbXrecord
280
     1
102
DISPLAYNAME
  1
Metric50
102
FLAGS
 90
        0
  0
CELLSTYLEMAP
  5
24541
102
{ACAD_REACTORS
330
24540
102
}
330
24540
100
AcDbCellStyleMap
 90
        3
300
CELLSTYLE
  1
TABLEFORMAT_BEGIN
 90
        5
170
     1
 91
        0
 92
    32768
 62
   257
 93
        1
300
CONTENTFORMAT
  1
CONTENTFORMAT_BEGIN
 90
        0
 91
        0
 92
      512
 93
        0
300

 40
0.0
140
1.0
 94
        5
 62
     0
340
7475
144
6.0
309
CONTENTFORMAT_END
171
     1
301
MARGIN
  1
CELLMARGIN_BEGIN
 40
1.5
 40
1.5
 40
1.5
 40
1.5
 40
4.5
 40
4.5
309
CELLMARGIN_END
 94
        6
 95
        1
302
GRIDFORMAT
  1
GRIDFORMAT_BEGIN
 90
        0
 91
        1
 62
     0
 92
       -2
340
0
 93
        0
 40
1.125
309
GRIDFORMAT_END
 95
        2
302
GRIDFORMAT
  1
GRIDFORMAT_BEGIN
 90
        0
 91
        1
 62
     0
 92
       -2
340
0
 93
        0
 40
1.125
309
GRIDFORMAT_END
 95
        4
302
GRIDFORMAT
  1
GRIDFORMAT_BEGIN
 90
        0
 91
        1
 62
     0
 92
       -2
340
0
 93
        0
 40
1.125
309
GRIDFORMAT_END
 95
        8
302
GRIDFORMAT
  1
GRIDFORMAT_BEGIN
 90
        0
 91
        1
 62
     0
 92
       -2
340
0
 93
        0
 40
1.125
309
GRIDFORMAT_END
 95
       16
302
GRIDFORMAT
  1
GRIDFORMAT_BEGIN
 90
        0
 91
        1
 62
     0
 92
       -2
340
0
 93
        0
 40
1.125
309
GRIDFORMAT_END
 95
       32
302
GRIDFORMAT
  1
GRIDFORMAT_BEGIN
 90
        0
 91
        1
 62
     0
 92
       -2
340
0
 93
        0
 40
1.125
309
GRIDFORMAT_END
309
TABLEFORMAT_END
  1
CELLSTYLE_BEGIN
 90
        1
 91
        1
300
_TITLE
309
CELLSTYLE_END
300
CELLSTYLE
  1
TABLEFORMAT_BEGIN
 90
        5
170
     1
 91
        0
 92
        0
 62
   257
 93
        1
300
CONTENTFORMAT
  1
CONTENTFORMAT_BEGIN
 90
        0
 91
        0
 92
      512
 93
        0
300

 40
0.0
140
1.0
 94
        5
 62
     0
340
7475
144
4.5
309
CONTENTFORMAT_END
171
     1
301
MARGIN
  1
CELLMARGIN_BEGIN
 40
1.5
 40
1.5
 40
1.5
 40
1.5
 40
4.5
 40
4.5
309
CELLMARGIN_END
 94
        6
 95
        1
302
GRIDFORMAT
  1
GRIDFORMAT_BEGIN
 90
        0
 91
        1
 62
     0
 92
       -2
340
0
 93
        0
 40
1.125
309
GRIDFORMAT_END
 95
        2
302
GRIDFORMAT
  1
GRIDFORMAT_BEGIN
 90
        0
 91
        1
 62
     0
 92
       -2
340
0
 93
        0
 40
1.125
309
GRIDFORMAT_END
 95
        4
302
GRIDFORMAT
  1
GRIDFORMAT_BEGIN
 90
        0
 91
        1
 62
     0
 92
       -2
340
0
 93
        0
 40
1.125
309
GRIDFORMAT_END
 95
        8
302
GRIDFORMAT
  1
GRIDFORMAT_BEGIN
 90
        0
 91
        1
 62
     0
 92
       -2
340
0
 93
        0
 40
1.125
309
GRIDFORMAT_END
 95
       16
302
GRIDFORMAT
  1
GRIDFORMAT_BEGIN
 90
        0
 91
        1
 62
     0
 92
       -2
340
0
 93
        0
 40
1.125
309
GRIDFORMAT_END
 95
       32
302
GRIDFORMAT
  1
GRIDFORMAT_BEGIN
 90
        0
 91
        1
 62
     0
 92
       -2
340
0
 93
        0
 40
1.125
309
GRIDFORMAT_END
309
TABLEFORMAT_END
  1
CELLSTYLE_BEGIN
 90
        2
 91
        1
300
_HEADER
309
CELLSTYLE_END
300
CELLSTYLE
  1
TABLEFORMAT_BEGIN
 90
        5
170
     1
 91
        0
 92
        0
 62
   257
 93
        1
300
CONTENTFORMAT
  1
CONTENTFORMAT_BEGIN
 90
        0
 91
        0
 92
      512
 93
        0
300

 40
0.0
140
1.0
 94
        2
 62
     0
340
7475
144
4.5
309
CONTENTFORMAT_END
171
     1
301
MARGIN
  1
CELLMARGIN_BEGIN
 40
1.5
 40
1.5
 40
1.5
 40
1.5
 40
4.5
 40
4.5
309
CELLMARGIN_END
 94
        6
 95
        1
302
GRIDFORMAT
  1
GRIDFORMAT_BEGIN
 90
        0
 91
        1
 62
     0
 92
       -2
340
0
 93
        0
 40
1.125
309
GRIDFORMAT_END
 95
        2
302
GRIDFORMAT
  1
GRIDFORMAT_BEGIN
 90
        0
 91
        1
 62
     0
 92
       -2
340
0
 93
        0
 40
1.125
309
GRIDFORMAT_END
 95
        4
302
GRIDFORMAT
  1
GRIDFORMAT_BEGIN
 90
        0
 91
        1
 62
     0
 92
       -2
340
0
 93
        0
 40
1.125
309
GRIDFORMAT_END
 95
        8
302
GRIDFORMAT
  1
GRIDFORMAT_BEGIN
 90
        0
 91
        1
 62
     0
 92
       -2
340
0
 93
        0
 40
1.125
309
GRIDFORMAT_END
 95
       16
302
GRIDFORMAT
  1
GRIDFORMAT_BEGIN
 90
        0
 91
        1
 62
     0
 92
       -2
340
0
 93
        0
 40
1.125
309
GRIDFORMAT_END
 95
       32
302
GRIDFORMAT
  1
GRIDFORMAT_BEGIN
 90
        0
 91
        1
 62
     0
 92
       -2
340
0
 93
        0
 40
1.125
309
GRIDFORMAT_END
309
TABLEFORMAT_END
  1
CELLSTYLE_BEGIN
 90
        3
 91
        2
300
_DATA
309
CELLSTYLE_END
  0
XRECORD
  5
24583
102
{ACAD_REACTORS
330
24540
102
}
330
24540
100
AcDbXrecord
280
     1
102
ACAD_ROUNDTRIP_PRE2007_TABLESTYLE
 90
      512
 91
        0
  1

 92
      512
 93
        0
  2

 94
      512
 95
        0
  3

  0
XRECORD
  5
2455E
102
{ACAD_REACTORS
330
2455D
102
}
330
2455D
100
AcDbXrecord
280
     1
102
RTVSPost2010Prop28
280
     1
102
RTVSPost2010PropOp28
 70
     1
102
RTVSPost2010Prop29
280
     1
102
RTVSPost2010PropOp29
 70
     1
102
RTVSPost2010Prop30
280
     0
102
RTVSPost2010PropOp30
 70
     1
102
RTVSPost2010Prop31
280
     0
102
RTVSPost2010PropOp31
 70
     1
102
RTVSPost2010Prop32
280
     0
102
RTVSPost2010PropOp32
 70
     1
102
RTVSPost2010Prop33
280
     0
102
RTVSPost2010PropOp33
 70
     1
102
RTVSPost2010Prop34
280
     0
102
RTVSPost2010PropOp34
 70
     1
102
RTVSPost2010Prop35
280
     0
102
RTVSPost2010PropOp35
 70
     1
102
RTVSPost2010Prop36
280
     0
102
RTVSPost2010PropOp36
 70
     1
102
RTVSPost2010Prop37
 90
       50
102
RTVSPost2010PropOp37
 70
     1
102
RTVSPost2010Prop38
140
0.0
102
RTVSPost2010PropOp38
 70
     1
102
RTVSPost2010Prop39
140
1.0
102
RTVSPost2010PropOp39
 70
     1
102
RTVSPost2010Prop40
 90
        0
102
RTVSPost2010PropOp40
 70
     1
102
RTVSPost2010Prop41ColorIndex
 90
       18
102
RTVSPost2010Prop41ColorRGB
 90
        0
102
RTVSPost2010PropOp41
 70
     1
102
RTVSPost2010Prop42
 90
       50
102
RTVSPost2010PropOp42
 70
     1
102
RTVSPost2010Prop43
 90
        3
102
RTVSPost2010PropOp43
 70
     1
102
RTVSPost2010Prop44ColorIndex
 90
        5
102
RTVSPost2010Prop44ColorRGB
 90
      255
102
RTVSPost2010PropOp44
 70
     1
102
RTVSPost2010Prop45
280
     0
102
RTVSPost2010PropOp45
 70
     1
102
RTVSPost2010Prop46
 90
       50
102
RTVSPost2010PropOp46
 70
     1
102
RTVSPost2010Prop47
 90
       50
102
RTVSPost2010PropOp47
 70
     1
102
RTVSPost2010Prop48
 90
       50
102
RTVSPost2010PropOp48
 70
     1
102
RTVSPost2010Prop49
280
     0
102
RTVSPost2010PropOp49
 70
     1
102
RTVSPost2010Prop50
 90
       50
102
RTVSPost2010PropOp50
 70
     1
102
RTVSPost2010Prop51ColorIndex
 90
      256
102
RTVSPost2010Prop51ColorRGB
 90
-16777216
102
RTVSPost2010PropOp51
 70
     0
102
RTVSPost2010Prop52
140
1.0
102
RTVSPost2010PropOp52
 70
     0
102
RTVSPost2010Prop53
 90
        2
102
RTVSPost2010PropOp53
 70
     1
102
RTVSPost2010Prop54
  1
strokes_ogs.tif
102
RTVSPost2010PropOp54
 70
     1
102
RTVSPost2010Prop55
280
     0
102
RTVSPost2010PropOp55
 70
     1
102
RTVSPost2010Prop56
140
1.0
102
RTVSPost2010PropOp56
 70
     1
102
RTVSPost2010Prop57
140
1.0
102
RTVSPost2010PropOp57
 70
     1
102
RTVSPropertyOp0
 70
     1
102
RTVSPropertyOp1
 70
     1
102
RTVSPropertyOp2
 70
     1
102
RTVSPropertyOp3
 70
     1
102
RTVSPropertyOp4
 70
     1
102
RTVSPropertyOp5
 70
     1
102
RTVSPropertyOp6
 70
     1
102
RTVSPropertyOp7
 70
     1
102
RTVSPropertyOp8
 70
     1
102
RTVSPropertyOp9
 70
     1
102
RTVSPropertyOp10
 70
     1
102
RTVSPropertyOp11
 70
     1
102
RTVSPropertyOp12
 70
     1
102
RTVSPropertyOp13
 70
     1
102
RTVSPropertyOp14
 70
     1
102
RTVSPropertyOp15
 70
     1
102
RTVSPropertyOp16
 70
     1
102
RTVSPropertyOp17
 70
     1
102
RTVSPropertyOp18
 70
     1
102
RTVSPropertyOp19
 70
     1
102
RTVSPropertyOp20
 70
     1
102
RTVSPropertyOp21
 70
     1
102
RTVSPropertyOp22
 70
     1
102
RTVSPropertyOp23
 70
     1
102
RTVSPropertyOp24
 70
     1
102
RTVSPropertyOp25
 70
     1
102
RTVSPropertyOp26
 70
     1
102
RTVSPropertyOp27
 70
     1
102
RTVSPropertyOp28
 70
     1
102
RTVSPropertyOp29
 70
     1
102
RTVSPropertyOp30
 70
     1
102
RTVSPropertyOp31
 70
     1
102
RTVSPropertyOp32
 70
     1
102
RTVSPropertyOp33
 70
     1
102
RTVSPropertyOp34
 70
     1
102
RTVSPropertyOp35
 70
     1
102
RTVSPropertyOp36
 70
     1
102
RTVSPropertyOp37
 70
     1
102
RTVSPropertyOp38
 70
     1
102
RTVSPropertyOp39
 70
     1
102
RTVSPropertyOp40
 70
     1
102
RTVSPropertyOp41
 70
     1
102
RTVSPropertyOp42
 70
     1
102
RTVSPropertyOp43
 70
     1
102
RTVSPropertyOp44
 70
     1
102
RTVSPropertyOp45
 70
     1
102
RTVSPropertyOp46
 70
     1
102
RTVSPropertyOp47
 70
     1
102
RTVSPropertyOp48
 70
     1
102
RTVSPropertyOp49
 70
     1
102
RTVSPropertyOp50
 70
     1
102
RTVSPropertyOp51
 70
     0
102
RTVSPropertyOp52
 70
     0
102
RTVSPropertyOp53
 70
     1
102
RTVSPropertyOp54
 70
     1
102
RTVSPropertyOp55
 70
     1
102
RTVSPropertyOp56
 70
     1
102
RTVSPropertyOp57
 70
     1
102
RTVSPropertyOp58
 70
     1
102
RTVSPropertyOp59
 70
     1
102
RTVSPropertyOp60
 70
     1
102
RTVSPropertyOp61
 70
     1
102
RTVSPropertyOp62
 70
     1
  0
XRECORD
  5
2455C
102
{ACAD_REACTORS
330
2455B
102
}
330
2455B
100
AcDbXrecord
280
     1
102
RTVSPost2010Prop28
280
     0
102
RTVSPost2010PropOp28
 70
     1
102
RTVSPost2010Prop29
280
     1
102
RTVSPost2010PropOp29
 70
     1
102
RTVSPost2010Prop30
280
     1
102
RTVSPost2010PropOp30
 70
     1
102
RTVSPost2010Prop31
280
     0
102
RTVSPost2010PropOp31
 70
     1
102
RTVSPost2010Prop32
280
     0
102
RTVSPost2010PropOp32
 70
     1
102
RTVSPost2010Prop33
280
     0
102
RTVSPost2010PropOp33
 70
     1
102
RTVSPost2010Prop34
280
     0
102
RTVSPost2010PropOp34
 70
     1
102
RTVSPost2010Prop35
280
     0
102
RTVSPost2010PropOp35
 70
     1
102
RTVSPost2010Prop36
280
     0
102
RTVSPost2010PropOp36
 70
     1
102
RTVSPost2010Prop37
 90
       50
102
RTVSPost2010PropOp37
 70
     1
102
RTVSPost2010Prop38
140
0.0
102
RTVSPost2010PropOp38
 70
     1
102
RTVSPost2010Prop39
140
1.0
102
RTVSPost2010PropOp39
 70
     1
102
RTVSPost2010Prop40
 90
        0
102
RTVSPost2010PropOp40
 70
     1
102
RTVSPost2010Prop41ColorIndex
 90
       18
102
RTVSPost2010Prop41ColorRGB
 90
        0
102
RTVSPost2010PropOp41
 70
     1
102
RTVSPost2010Prop42
 90
       50
102
RTVSPost2010PropOp42
 70
     1
102
RTVSPost2010Prop43
 90
        3
102
RTVSPost2010PropOp43
 70
     1
102
RTVSPost2010Prop44ColorIndex
 90
        5
102
RTVSPost2010Prop44ColorRGB
 90
      255
102
RTVSPost2010PropOp44
 70
     1
102
RTVSPost2010Prop45
280
     0
102
RTVSPost2010PropOp45
 70
     1
102
RTVSPost2010Prop46
 90
       50
102
RTVSPost2010PropOp46
 70
     1
102
RTVSPost2010Prop47
 90
       50
102
RTVSPost2010PropOp47
 70
     1
102
RTVSPost2010Prop48
 90
       50
102
RTVSPost2010PropOp48
 70
     1
102
RTVSPost2010Prop49
280
     0
102
RTVSPost2010PropOp49
 70
     1
102
RTVSPost2010Prop50
 90
       50
102
RTVSPost2010PropOp50
 70
     1
102
RTVSPost2010Prop51ColorIndex
 90
      256
102
RTVSPost2010Prop51ColorRGB
 90
-16777216
102
RTVSPost2010PropOp51
 70
     0
102
RTVSPost2010Prop52
140
1.0
102
RTVSPost2010PropOp52
 70
     0
102
RTVSPost2010Prop53
 90
        2
102
RTVSPost2010PropOp53
 70
     1
102
RTVSPost2010Prop54
  1
strokes_ogs.tif
102
RTVSPost2010PropOp54
 70
     1
102
RTVSPost2010Prop55
280
     0
102
RTVSPost2010PropOp55
 70
     1
102
RTVSPost2010Prop56
140
1.0
102
RTVSPost2010PropOp56
 70
     1
102
RTVSPost2010Prop57
140
1.0
102
RTVSPost2010PropOp57
 70
     1
102
RTVSPropertyOp0
 70
     1
102
RTVSPropertyOp1
 70
     1
102
RTVSPropertyOp2
 70
     1
102
RTVSPropertyOp3
 70
     1
102
RTVSPropertyOp4
 70
     1
102
RTVSPropertyOp5
 70
     1
102
RTVSPropertyOp6
 70
     1
102
RTVSPropertyOp7
 70
     1
102
RTVSPropertyOp8
 70
     1
102
RTVSPropertyOp9
 70
     1
102
RTVSPropertyOp10
 70
     1
102
RTVSPropertyOp11
 70
     1
102
RTVSPropertyOp12
 70
     1
102
RTVSPropertyOp13
 70
     1
102
RTVSPropertyOp14
 70
     1
102
RTVSPropertyOp15
 70
     1
102
RTVSPropertyOp16
 70
     1
102
RTVSPropertyOp17
 70
     1
102
RTVSPropertyOp18
 70
     1
102
RTVSPropertyOp19
 70
     1
102
RTVSPropertyOp20
 70
     1
102
RTVSPropertyOp21
 70
     1
102
RTVSPropertyOp22
 70
     1
102
RTVSPropertyOp23
 70
     1
102
RTVSPropertyOp24
 70
     1
102
RTVSPropertyOp25
 70
     1
102
RTVSPropertyOp26
 70
     1
102
RTVSPropertyOp27
 70
     1
102
RTVSPropertyOp28
 70
     1
102
RTVSPropertyOp29
 70
     1
102
RTVSPropertyOp30
 70
     1
102
RTVSPropertyOp31
 70
     1
102
RTVSPropertyOp32
 70
     1
102
RTVSPropertyOp33
 70
     1
102
RTVSPropertyOp34
 70
     1
102
RTVSPropertyOp35
 70
     1
102
RTVSPropertyOp36
 70
     1
102
RTVSPropertyOp37
 70
     1
102
RTVSPropertyOp38
 70
     1
102
RTVSPropertyOp39
 70
     1
102
RTVSPropertyOp40
 70
     1
102
RTVSPropertyOp41
 70
     1
102
RTVSPropertyOp42
 70
     1
102
RTVSPropertyOp43
 70
     1
102
RTVSPropertyOp44
 70
     1
102
RTVSPropertyOp45
 70
     1
102
RTVSPropertyOp46
 70
     1
102
RTVSPropertyOp47
 70
     1
102
RTVSPropertyOp48
 70
     1
102
RTVSPropertyOp49
 70
     1
102
RTVSPropertyOp50
 70
     1
102
RTVSPropertyOp51
 70
     0
102
RTVSPropertyOp52
 70
     0
102
RTVSPropertyOp53
 70
     1
102
RTVSPropertyOp54
 70
     1
102
RTVSPropertyOp55
 70
     1
102
RTVSPropertyOp56
 70
     1
102
RTVSPropertyOp57
 70
     1
102
RTVSPropertyOp58
 70
     1
102
RTVSPropertyOp59
 70
     1
102
RTVSPropertyOp60
 70
     1
102
RTVSPropertyOp61
 70
     1
102
RTVSPropertyOp62
 70
     1
  0
XRECORD
  5
2456A
102
{ACAD_REACTORS
330
24569
102
}
330
24569
100
AcDbXrecord
280
     1
102
RTVSPost2010Prop28
280
     0
102
RTVSPost2010PropOp28
 70
     1
102
RTVSPost2010Prop29
280
     1
102
RTVSPost2010PropOp29
 70
     1
102
RTVSPost2010Prop30
280
     1
102
RTVSPost2010PropOp30
 70
     1
102
RTVSPost2010Prop31
280
     0
102
RTVSPost2010PropOp31
 70
     1
102
RTVSPost2010Prop32
280
     0
102
RTVSPost2010PropOp32
 70
     1
102
RTVSPost2010Prop33
280
     0
102
RTVSPost2010PropOp33
 70
     1
102
RTVSPost2010Prop34
280
     0
102
RTVSPost2010PropOp34
 70
     1
102
RTVSPost2010Prop35
280
     0
102
RTVSPost2010PropOp35
 70
     1
102
RTVSPost2010Prop36
280
     0
102
RTVSPost2010PropOp36
 70
     1
102
RTVSPost2010Prop37
 90
       50
102
RTVSPost2010PropOp37
 70
     1
102
RTVSPost2010Prop38
140
0.0
102
RTVSPost2010PropOp38
 70
     1
102
RTVSPost2010Prop39
140
1.0
102
RTVSPost2010PropOp39
 70
     1
102
RTVSPost2010Prop40
 90
        0
102
RTVSPost2010PropOp40
 70
     1
102
RTVSPost2010Prop41ColorIndex
 90
       18
102
RTVSPost2010Prop41ColorRGB
 90
        0
102
RTVSPost2010PropOp41
 70
     1
102
RTVSPost2010Prop42
 90
       50
102
RTVSPost2010PropOp42
 70
     1
102
RTVSPost2010Prop43
 90
        3
102
RTVSPost2010PropOp43
 70
     1
102
RTVSPost2010Prop44ColorIndex
 90
        5
102
RTVSPost2010Prop44ColorRGB
 90
      255
102
RTVSPost2010PropOp44
 70
     1
102
RTVSPost2010Prop45
280
     0
102
RTVSPost2010PropOp45
 70
     1
102
RTVSPost2010Prop46
 90
       50
102
RTVSPost2010PropOp46
 70
     1
102
RTVSPost2010Prop47
 90
       50
102
RTVSPost2010PropOp47
 70
     1
102
RTVSPost2010Prop48
 90
       50
102
RTVSPost2010PropOp48
 70
     1
102
RTVSPost2010Prop49
280
     0
102
RTVSPost2010PropOp49
 70
     1
102
RTVSPost2010Prop50
 90
       50
102
RTVSPost2010PropOp50
 70
     1
102
RTVSPost2010Prop51ColorIndex
 90
      256
102
RTVSPost2010Prop51ColorRGB
 90
-16777216
102
RTVSPost2010PropOp51
 70
     0
102
RTVSPost2010Prop52
140
1.0
102
RTVSPost2010PropOp52
 70
     0
102
RTVSPost2010Prop53
 90
        2
102
RTVSPost2010PropOp53
 70
     1
102
RTVSPost2010Prop54
  1
strokes_ogs.tif
102
RTVSPost2010PropOp54
 70
     1
102
RTVSPost2010Prop55
280
     0
102
RTVSPost2010PropOp55
 70
     1
102
RTVSPost2010Prop56
140
1.0
102
RTVSPost2010PropOp56
 70
     1
102
RTVSPost2010Prop57
140
1.0
102
RTVSPost2010PropOp57
 70
     1
102
RTVSPropertyOp0
 70
     1
102
RTVSPropertyOp1
 70
     1
102
RTVSPropertyOp2
 70
     1
102
RTVSPropertyOp3
 70
     1
102
RTVSPropertyOp4
 70
     1
102
RTVSPropertyOp5
 70
     1
102
RTVSPropertyOp6
 70
     1
102
RTVSPropertyOp7
 70
     1
102
RTVSPropertyOp8
 70
     1
102
RTVSPropertyOp9
 70
     1
102
RTVSPropertyOp10
 70
     1
102
RTVSPropertyOp11
 70
     1
102
RTVSPropertyOp12
 70
     1
102
RTVSPropertyOp13
 70
     1
102
RTVSPropertyOp14
 70
     1
102
RTVSPropertyOp15
 70
     1
102
RTVSPropertyOp16
 70
     1
102
RTVSPropertyOp17
 70
     1
102
RTVSPropertyOp18
 70
     1
102
RTVSPropertyOp19
 70
     1
102
RTVSPropertyOp20
 70
     1
102
RTVSPropertyOp21
 70
     1
102
RTVSPropertyOp22
 70
     1
102
RTVSPropertyOp23
 70
     1
102
RTVSPropertyOp24
 70
     1
102
RTVSPropertyOp25
 70
     1
102
RTVSPropertyOp26
 70
     1
102
RTVSPropertyOp27
 70
     1
102
RTVSPropertyOp28
 70
     1
102
RTVSPropertyOp29
 70
     1
102
RTVSPropertyOp30
 70
     1
102
RTVSPropertyOp31
 70
     1
102
RTVSPropertyOp32
 70
     1
102
RTVSPropertyOp33
 70
     1
102
RTVSPropertyOp34
 70
     1
102
RTVSPropertyOp35
 70
     1
102
RTVSPropertyOp36
 70
     1
102
RTVSPropertyOp37
 70
     1
102
RTVSPropertyOp38
 70
     1
102
RTVSPropertyOp39
 70
     1
102
RTVSPropertyOp40
 70
     1
102
RTVSPropertyOp41
 70
     1
102
RTVSPropertyOp42
 70
     1
102
RTVSPropertyOp43
 70
     1
102
RTVSPropertyOp44
 70
     1
102
RTVSPropertyOp45
 70
     1
102
RTVSPropertyOp46
 70
     1
102
RTVSPropertyOp47
 70
     1
102
RTVSPropertyOp48
 70
     1
102
RTVSPropertyOp49
 70
     1
102
RTVSPropertyOp50
 70
     1
102
RTVSPropertyOp51
 70
     0
102
RTVSPropertyOp52
 70
     0
102
RTVSPropertyOp53
 70
     1
102
RTVSPropertyOp54
 70
     1
102
RTVSPropertyOp55
 70
     1
102
RTVSPropertyOp56
 70
     1
102
RTVSPropertyOp57
 70
     1
102
RTVSPropertyOp58
 70
     1
102
RTVSPropertyOp59
 70
     1
102
RTVSPropertyOp60
 70
     1
102
RTVSPropertyOp61
 70
     1
102
RTVSPropertyOp62
 70
     1
  0
XRECORD
  5
24572
102
{ACAD_REACTORS
330
24571
102
}
330
24571
100
AcDbXrecord
280
     1
102
RTVSPost2010Prop28
280
     0
102
RTVSPost2010PropOp28
 70
     1
102
RTVSPost2010Prop29
280
     1
102
RTVSPost2010PropOp29
 70
     1
102
RTVSPost2010Prop30
280
     1
102
RTVSPost2010PropOp30
 70
     1
102
RTVSPost2010Prop31
280
     0
102
RTVSPost2010PropOp31
 70
     1
102
RTVSPost2010Prop32
280
     0
102
RTVSPost2010PropOp32
 70
     1
102
RTVSPost2010Prop33
280
     0
102
RTVSPost2010PropOp33
 70
     1
102
RTVSPost2010Prop34
280
     0
102
RTVSPost2010PropOp34
 70
     1
102
RTVSPost2010Prop35
280
     0
102
RTVSPost2010PropOp35
 70
     1
102
RTVSPost2010Prop36
280
     0
102
RTVSPost2010PropOp36
 70
     1
102
RTVSPost2010Prop37
 90
       50
102
RTVSPost2010PropOp37
 70
     1
102
RTVSPost2010Prop38
140
0.0
102
RTVSPost2010PropOp38
 70
     1
102
RTVSPost2010Prop39
140
1.0
102
RTVSPost2010PropOp39
 70
     1
102
RTVSPost2010Prop40
 90
        0
102
RTVSPost2010PropOp40
 70
     1
102
RTVSPost2010Prop41ColorIndex
 90
       18
102
RTVSPost2010Prop41ColorRGB
 90
        0
102
RTVSPost2010PropOp41
 70
     1
102
RTVSPost2010Prop42
 90
       50
102
RTVSPost2010PropOp42
 70
     1
102
RTVSPost2010Prop43
 90
        3
102
RTVSPost2010PropOp43
 70
     1
102
RTVSPost2010Prop44ColorIndex
 90
        5
102
RTVSPost2010Prop44ColorRGB
 90
      255
102
RTVSPost2010PropOp44
 70
     1
102
RTVSPost2010Prop45
280
     0
102
RTVSPost2010PropOp45
 70
     1
102
RTVSPost2010Prop46
 90
       50
102
RTVSPost2010PropOp46
 70
     1
102
RTVSPost2010Prop47
 90
       50
102
RTVSPost2010PropOp47
 70
     1
102
RTVSPost2010Prop48
 90
       50
102
RTVSPost2010PropOp48
 70
     1
102
RTVSPost2010Prop49
280
     0
102
RTVSPost2010PropOp49
 70
     1
102
RTVSPost2010Prop50
 90
       50
102
RTVSPost2010PropOp50
 70
     1
102
RTVSPost2010Prop51ColorIndex
 90
      256
102
RTVSPost2010Prop51ColorRGB
 90
-16777216
102
RTVSPost2010PropOp51
 70
     0
102
RTVSPost2010Prop52
140
1.0
102
RTVSPost2010PropOp52
 70
     0
102
RTVSPost2010Prop53
 90
        2
102
RTVSPost2010PropOp53
 70
     1
102
RTVSPost2010Prop54
  1
strokes_ogs.tif
102
RTVSPost2010PropOp54
 70
     1
102
RTVSPost2010Prop55
280
     0
102
RTVSPost2010PropOp55
 70
     1
102
RTVSPost2010Prop56
140
1.0
102
RTVSPost2010PropOp56
 70
     1
102
RTVSPost2010Prop57
140
1.0
102
RTVSPost2010PropOp57
 70
     1
102
RTVSPropertyOp0
 70
     1
102
RTVSPropertyOp1
 70
     1
102
RTVSPropertyOp2
 70
     1
102
RTVSPropertyOp3
 70
     1
102
RTVSPropertyOp4
 70
     1
102
RTVSPropertyOp5
 70
     1
102
RTVSPropertyOp6
 70
     1
102
RTVSPropertyOp7
 70
     1
102
RTVSPropertyOp8
 70
     1
102
RTVSPropertyOp9
 70
     1
102
RTVSPropertyOp10
 70
     1
102
RTVSPropertyOp11
 70
     1
102
RTVSPropertyOp12
 70
     1
102
RTVSPropertyOp13
 70
     1
102
RTVSPropertyOp14
 70
     1
102
RTVSPropertyOp15
 70
     1
102
RTVSPropertyOp16
 70
     1
102
RTVSPropertyOp17
 70
     1
102
RTVSPropertyOp18
 70
     1
102
RTVSPropertyOp19
 70
     1
102
RTVSPropertyOp20
 70
     1
102
RTVSPropertyOp21
 70
     1
102
RTVSPropertyOp22
 70
     1
102
RTVSPropertyOp23
 70
     1
102
RTVSPropertyOp24
 70
     1
102
RTVSPropertyOp25
 70
     1
102
RTVSPropertyOp26
 70
     1
102
RTVSPropertyOp27
 70
     1
102
RTVSPropertyOp28
 70
     1
102
RTVSPropertyOp29
 70
     1
102
RTVSPropertyOp30
 70
     1
102
RTVSPropertyOp31
 70
     1
102
RTVSPropertyOp32
 70
     1
102
RTVSPropertyOp33
 70
     1
102
RTVSPropertyOp34
 70
     1
102
RTVSPropertyOp35
 70
     1
102
RTVSPropertyOp36
 70
     1
102
RTVSPropertyOp37
 70
     1
102
RTVSPropertyOp38
 70
     1
102
RTVSPropertyOp39
 70
     1
102
RTVSPropertyOp40
 70
     1
102
RTVSPropertyOp41
 70
     1
102
RTVSPropertyOp42
 70
     1
102
RTVSPropertyOp43
 70
     1
102
RTVSPropertyOp44
 70
     1
102
RTVSPropertyOp45
 70
     1
102
RTVSPropertyOp46
 70
     1
102
RTVSPropertyOp47
 70
     1
102
RTVSPropertyOp48
 70
     1
102
RTVSPropertyOp49
 70
     1
102
RTVSPropertyOp50
 70
     1
102
RTVSPropertyOp51
 70
     0
102
RTVSPropertyOp52
 70
     0
102
RTVSPropertyOp53
 70
     1
102
RTVSPropertyOp54
 70
     1
102
RTVSPropertyOp55
 70
     1
102
RTVSPropertyOp56
 70
     1
102
RTVSPropertyOp57
 70
     1
102
RTVSPropertyOp58
 70
     1
102
RTVSPropertyOp59
 70
     1
102
RTVSPropertyOp60
 70
     1
102
RTVSPropertyOp61
 70
     1
102
RTVSPropertyOp62
 70
     1
  0
XRECORD
  5
24564
102
{ACAD_REACTORS
330
24563
102
}
330
24563
100
AcDbXrecord
280
     1
102
RTVSPost2010Prop28
280
     0
102
RTVSPost2010PropOp28
 70
     1
102
RTVSPost2010Prop29
280
     1
102
RTVSPost2010PropOp29
 70
     1
102
RTVSPost2010Prop30
280
     1
102
RTVSPost2010PropOp30
 70
     1
102
RTVSPost2010Prop31
280
     0
102
RTVSPost2010PropOp31
 70
     1
102
RTVSPost2010Prop32
280
     0
102
RTVSPost2010PropOp32
 70
     1
102
RTVSPost2010Prop33
280
     0
102
RTVSPost2010PropOp33
 70
     1
102
RTVSPost2010Prop34
280
     0
102
RTVSPost2010PropOp34
 70
     1
102
RTVSPost2010Prop35
280
     0
102
RTVSPost2010PropOp35
 70
     1
102
RTVSPost2010Prop36
280
     0
102
RTVSPost2010PropOp36
 70
     1
102
RTVSPost2010Prop37
 90
       50
102
RTVSPost2010PropOp37
 70
     1
102
RTVSPost2010Prop38
140
0.0
102
RTVSPost2010PropOp38
 70
     1
102
RTVSPost2010Prop39
140
1.0
102
RTVSPost2010PropOp39
 70
     1
102
RTVSPost2010Prop40
 90
        0
102
RTVSPost2010PropOp40
 70
     1
102
RTVSPost2010Prop41ColorIndex
 90
       18
102
RTVSPost2010Prop41ColorRGB
 90
        0
102
RTVSPost2010PropOp41
 70
     1
102
RTVSPost2010Prop42
 90
       50
102
RTVSPost2010PropOp42
 70
     1
102
RTVSPost2010Prop43
 90
        3
102
RTVSPost2010PropOp43
 70
     1
102
RTVSPost2010Prop44ColorIndex
 90
        5
102
RTVSPost2010Prop44ColorRGB
 90
      255
102
RTVSPost2010PropOp44
 70
     1
102
RTVSPost2010Prop45
280
     0
102
RTVSPost2010PropOp45
 70
     1
102
RTVSPost2010Prop46
 90
       50
102
RTVSPost2010PropOp46
 70
     1
102
RTVSPost2010Prop47
 90
       50
102
RTVSPost2010PropOp47
 70
     1
102
RTVSPost2010Prop48
 90
       50
102
RTVSPost2010PropOp48
 70
     1
102
RTVSPost2010Prop49
280
     0
102
RTVSPost2010PropOp49
 70
     1
102
RTVSPost2010Prop50
 90
       50
102
RTVSPost2010PropOp50
 70
     1
102
RTVSPost2010Prop51ColorIndex
 90
      256
102
RTVSPost2010Prop51ColorRGB
 90
-16777216
102
RTVSPost2010PropOp51
 70
     0
102
RTVSPost2010Prop52
140
1.0
102
RTVSPost2010PropOp52
 70
     0
102
RTVSPost2010Prop53
 90
        2
102
RTVSPost2010PropOp53
 70
     1
102
RTVSPost2010Prop54
  1
strokes_ogs.tif
102
RTVSPost2010PropOp54
 70
     1
102
RTVSPost2010Prop55
280
     0
102
RTVSPost2010PropOp55
 70
     1
102
RTVSPost2010Prop56
140
1.0
102
RTVSPost2010PropOp56
 70
     1
102
RTVSPost2010Prop57
140
1.0
102
RTVSPost2010PropOp57
 70
     1
102
RTVSPropertyOp0
 70
     1
102
RTVSPropertyOp1
 70
     1
102
RTVSPropertyOp2
 70
     1
102
RTVSPropertyOp3
 70
     1
102
RTVSPropertyOp4
 70
     1
102
RTVSPropertyOp5
 70
     1
102
RTVSPropertyOp6
 70
     1
102
RTVSPropertyOp7
 70
     1
102
RTVSPropertyOp8
 70
     1
102
RTVSPropertyOp9
 70
     1
102
RTVSPropertyOp10
 70
     1
102
RTVSPropertyOp11
 70
     1
102
RTVSPropertyOp12
 70
     1
102
RTVSPropertyOp13
 70
     1
102
RTVSPropertyOp14
 70
     1
102
RTVSPropertyOp15
 70
     1
102
RTVSPropertyOp16
 70
     1
102
RTVSPropertyOp17
 70
     1
102
RTVSPropertyOp18
 70
     1
102
RTVSPropertyOp19
 70
     1
102
RTVSPropertyOp20
 70
     1
102
RTVSPropertyOp21
 70
     1
102
RTVSPropertyOp22
 70
     1
102
RTVSPropertyOp23
 70
     1
102
RTVSPropertyOp24
 70
     1
102
RTVSPropertyOp25
 70
     1
102
RTVSPropertyOp26
 70
     1
102
RTVSPropertyOp27
 70
     1
102
RTVSPropertyOp28
 70
     1
102
RTVSPropertyOp29
 70
     1
102
RTVSPropertyOp30
 70
     1
102
RTVSPropertyOp31
 70
     1
102
RTVSPropertyOp32
 70
     1
102
RTVSPropertyOp33
 70
     1
102
RTVSPropertyOp34
 70
     1
102
RTVSPropertyOp35
 70
     1
102
RTVSPropertyOp36
 70
     1
102
RTVSPropertyOp37
 70
     1
102
RTVSPropertyOp38
 70
     1
102
RTVSPropertyOp39
 70
     1
102
RTVSPropertyOp40
 70
     1
102
RTVSPropertyOp41
 70
     1
102
RTVSPropertyOp42
 70
     1
102
RTVSPropertyOp43
 70
     1
102
RTVSPropertyOp44
 70
     1
102
RTVSPropertyOp45
 70
     1
102
RTVSPropertyOp46
 70
     1
102
RTVSPropertyOp47
 70
     1
102
RTVSPropertyOp48
 70
     1
102
RTVSPropertyOp49
 70
     1
102
RTVSPropertyOp50
 70
     1
102
RTVSPropertyOp51
 70
     0
102
RTVSPropertyOp52
 70
     0
102
RTVSPropertyOp53
 70
     1
102
RTVSPropertyOp54
 70
     1
102
RTVSPropertyOp55
 70
     1
102
RTVSPropertyOp56
 70
     1
102
RTVSPropertyOp57
 70
     1
102
RTVSPropertyOp58
 70
     1
102
RTVSPropertyOp59
 70
     1
102
RTVSPropertyOp60
 70
     1
102
RTVSPropertyOp61
 70
     1
102
RTVSPropertyOp62
 70
     1
  0
XRECORD
  5
24568
102
{ACAD_REACTORS
330
24567
102
}
330
24567
100
AcDbXrecord
280
     1
102
RTVSPost2010Prop28
280
     0
102
RTVSPost2010PropOp28
 70
     1
102
RTVSPost2010Prop29
280
     1
102
RTVSPost2010PropOp29
 70
     1
102
RTVSPost2010Prop30
280
     1
102
RTVSPost2010PropOp30
 70
     1
102
RTVSPost2010Prop31
280
     0
102
RTVSPost2010PropOp31
 70
     1
102
RTVSPost2010Prop32
280
     0
102
RTVSPost2010PropOp32
 70
     1
102
RTVSPost2010Prop33
280
     0
102
RTVSPost2010PropOp33
 70
     1
102
RTVSPost2010Prop34
280
     0
102
RTVSPost2010PropOp34
 70
     1
102
RTVSPost2010Prop35
280
     0
102
RTVSPost2010PropOp35
 70
     1
102
RTVSPost2010Prop36
280
     0
102
RTVSPost2010PropOp36
 70
     1
102
RTVSPost2010Prop37
 90
       50
102
RTVSPost2010PropOp37
 70
     1
102
RTVSPost2010Prop38
140
0.0
102
RTVSPost2010PropOp38
 70
     1
102
RTVSPost2010Prop39
140
1.0
102
RTVSPost2010PropOp39
 70
     1
102
RTVSPost2010Prop40
 90
        0
102
RTVSPost2010PropOp40
 70
     1
102
RTVSPost2010Prop41ColorIndex
 90
       18
102
RTVSPost2010Prop41ColorRGB
 90
        0
102
RTVSPost2010PropOp41
 70
     1
102
RTVSPost2010Prop42
 90
       50
102
RTVSPost2010PropOp42
 70
     1
102
RTVSPost2010Prop43
 90
        3
102
RTVSPost2010PropOp43
 70
     1
102
RTVSPost2010Prop44ColorIndex
 90
        5
102
RTVSPost2010Prop44ColorRGB
 90
      255
102
RTVSPost2010PropOp44
 70
     1
102
RTVSPost2010Prop45
280
     0
102
RTVSPost2010PropOp45
 70
     1
102
RTVSPost2010Prop46
 90
       50
102
RTVSPost2010PropOp46
 70
     1
102
RTVSPost2010Prop47
 90
       50
102
RTVSPost2010PropOp47
 70
     1
102
RTVSPost2010Prop48
 90
       50
102
RTVSPost2010PropOp48
 70
     1
102
RTVSPost2010Prop49
280
     0
102
RTVSPost2010PropOp49
 70
     1
102
RTVSPost2010Prop50
 90
       50
102
RTVSPost2010PropOp50
 70
     1
102
RTVSPost2010Prop51ColorIndex
 90
      256
102
RTVSPost2010Prop51ColorRGB
 90
-16777216
102
RTVSPost2010PropOp51
 70
     0
102
RTVSPost2010Prop52
140
1.0
102
RTVSPost2010PropOp52
 70
     0
102
RTVSPost2010Prop53
 90
        2
102
RTVSPost2010PropOp53
 70
     1
102
RTVSPost2010Prop54
  1
strokes_ogs.tif
102
RTVSPost2010PropOp54
 70
     1
102
RTVSPost2010Prop55
280
     0
102
RTVSPost2010PropOp55
 70
     1
102
RTVSPost2010Prop56
140
1.0
102
RTVSPost2010PropOp56
 70
     1
102
RTVSPost2010Prop57
140
1.0
102
RTVSPost2010PropOp57
 70
     1
102
RTVSPropertyOp0
 70
     1
102
RTVSPropertyOp1
 70
     1
102
RTVSPropertyOp2
 70
     1
102
RTVSPropertyOp3
 70
     1
102
RTVSPropertyOp4
 70
     1
102
RTVSPropertyOp5
 70
     1
102
RTVSPropertyOp6
 70
     1
102
RTVSPropertyOp7
 70
     1
102
RTVSPropertyOp8
 70
     1
102
RTVSPropertyOp9
 70
     1
102
RTVSPropertyOp10
 70
     1
102
RTVSPropertyOp11
 70
     1
102
RTVSPropertyOp12
 70
     1
102
RTVSPropertyOp13
 70
     1
102
RTVSPropertyOp14
 70
     1
102
RTVSPropertyOp15
 70
     1
102
RTVSPropertyOp16
 70
     1
102
RTVSPropertyOp17
 70
     1
102
RTVSPropertyOp18
 70
     1
102
RTVSPropertyOp19
 70
     1
102
RTVSPropertyOp20
 70
     1
102
RTVSPropertyOp21
 70
     1
102
RTVSPropertyOp22
 70
     1
102
RTVSPropertyOp23
 70
     1
102
RTVSPropertyOp24
 70
     1
102
RTVSPropertyOp25
 70
     1
102
RTVSPropertyOp26
 70
     1
102
RTVSPropertyOp27
 70
     1
102
RTVSPropertyOp28
 70
     1
102
RTVSPropertyOp29
 70
     1
102
RTVSPropertyOp30
 70
     1
102
RTVSPropertyOp31
 70
     1
102
RTVSPropertyOp32
 70
     1
102
RTVSPropertyOp33
 70
     1
102
RTVSPropertyOp34
 70
     1
102
RTVSPropertyOp35
 70
     1
102
RTVSPropertyOp36
 70
     1
102
RTVSPropertyOp37
 70
     1
102
RTVSPropertyOp38
 70
     1
102
RTVSPropertyOp39
 70
     1
102
RTVSPropertyOp40
 70
     1
102
RTVSPropertyOp41
 70
     1
102
RTVSPropertyOp42
 70
     1
102
RTVSPropertyOp43
 70
     1
102
RTVSPropertyOp44
 70
     1
102
RTVSPropertyOp45
 70
     1
102
RTVSPropertyOp46
 70
     1
102
RTVSPropertyOp47
 70
     1
102
RTVSPropertyOp48
 70
     1
102
RTVSPropertyOp49
 70
     1
102
RTVSPropertyOp50
 70
     1
102
RTVSPropertyOp51
 70
     0
102
RTVSPropertyOp52
 70
     0
102
RTVSPropertyOp53
 70
     1
102
RTVSPropertyOp54
 70
     1
102
RTVSPropertyOp55
 70
     1
102
RTVSPropertyOp56
 70
     1
102
RTVSPropertyOp57
 70
     1
102
RTVSPropertyOp58
 70
     1
102
RTVSPropertyOp59
 70
     1
102
RTVSPropertyOp60
 70
     1
102
RTVSPropertyOp61
 70
     1
102
RTVSPropertyOp62
 70
     1
  0
XRECORD
  5
24582
102
{ACAD_REACTORS
330
24581
102
}
330
24581
100
AcDbXrecord
280
     1
102
RTVSPost2010Prop28
280
     0
102
RTVSPost2010PropOp28
 70
     0
102
RTVSPost2010Prop29
280
     1
102
RTVSPost2010PropOp29
 70
     0
102
RTVSPost2010Prop30
280
     1
102
RTVSPost2010PropOp30
 70
     0
102
RTVSPost2010Prop31
280
     0
102
RTVSPost2010PropOp31
 70
     0
102
RTVSPost2010Prop32
280
     0
102
RTVSPost2010PropOp32
 70
     0
102
RTVSPost2010Prop33
280
     0
102
RTVSPost2010PropOp33
 70
     0
102
RTVSPost2010Prop34
280
     0
102
RTVSPost2010PropOp34
 70
     0
102
RTVSPost2010Prop35
280
     0
102
RTVSPost2010PropOp35
 70
     0
102
RTVSPost2010Prop36
280
     0
102
RTVSPost2010PropOp36
 70
     0
102
RTVSPost2010Prop37
 90
       50
102
RTVSPost2010PropOp37
 70
     0
102
RTVSPost2010Prop38
140
0.0
102
RTVSPost2010PropOp38
 70
     0
102
RTVSPost2010Prop39
140
1.0
102
RTVSPost2010PropOp39
 70
     0
102
RTVSPost2010Prop40
 90
        0
102
RTVSPost2010PropOp40
 70
     0
102
RTVSPost2010Prop41ColorIndex
 90
       18
102
RTVSPost2010Prop41ColorRGB
 90
        0
102
RTVSPost2010PropOp41
 70
     0
102
RTVSPost2010Prop42
 90
       50
102
RTVSPost2010PropOp42
 70
     0
102
RTVSPost2010Prop43
 90
        3
102
RTVSPost2010PropOp43
 70
     0
102
RTVSPost2010Prop44ColorIndex
 90
        5
102
RTVSPost2010Prop44ColorRGB
 90
      255
102
RTVSPost2010PropOp44
 70
     0
102
RTVSPost2010Prop45
280
     0
102
RTVSPost2010PropOp45
 70
     0
102
RTVSPost2010Prop46
 90
       50
102
RTVSPost2010PropOp46
 70
     0
102
RTVSPost2010Prop47
 90
       50
102
RTVSPost2010PropOp47
 70
     0
102
RTVSPost2010Prop48
 90
       50
102
RTVSPost2010PropOp48
 70
     0
102
RTVSPost2010Prop49
280
     0
102
RTVSPost2010PropOp49
 70
     0
102
RTVSPost2010Prop50
 90
       50
102
RTVSPost2010PropOp50
 70
     0
102
RTVSPost2010Prop51ColorIndex
 90
      256
102
RTVSPost2010Prop51ColorRGB
 90
-16777216
102
RTVSPost2010PropOp51
 70
     0
102
RTVSPost2010Prop52
140
1.0
102
RTVSPost2010PropOp52
 70
     0
102
RTVSPost2010Prop53
 90
        2
102
RTVSPost2010PropOp53
 70
     0
102
RTVSPost2010Prop54
  1
strokes_ogs.tif
102
RTVSPost2010PropOp54
 70
     0
102
RTVSPost2010Prop55
280
     0
102
RTVSPost2010PropOp55
 70
     0
102
RTVSPost2010Prop56
140
1.0
102
RTVSPost2010PropOp56
 70
     0
102
RTVSPost2010Prop57
140
1.0
102
RTVSPost2010PropOp57
 70
     0
102
RTVSPropertyOp0
 70
     0
102
RTVSPropertyOp1
 70
     0
102
RTVSPropertyOp2
 70
     0
102
RTVSPropertyOp3
 70
     0
102
RTVSPropertyOp4
 70
     0
102
RTVSPropertyOp5
 70
     0
102
RTVSPropertyOp6
 70
     0
102
RTVSPropertyOp7
 70
     0
102
RTVSPropertyOp8
 70
     0
102
RTVSPropertyOp9
 70
     0
102
RTVSPropertyOp10
 70
     0
102
RTVSPropertyOp11
 70
     0
102
RTVSPropertyOp12
 70
     0
102
RTVSPropertyOp13
 70
     0
102
RTVSPropertyOp14
 70
     2
102
RTVSPropertyOp15
 70
     0
102
RTVSPropertyOp16
 70
     0
102
RTVSPropertyOp17
 70
     0
102
RTVSPropertyOp18
 70
     0
102
RTVSPropertyOp19
 70
     0
102
RTVSPropertyOp20
 70
     0
102
RTVSPropertyOp21
 70
     0
102
RTVSPropertyOp22
 70
     0
102
RTVSPropertyOp23
 70
     0
102
RTVSPropertyOp24
 70
     0
102
RTVSPropertyOp25
 70
     0
102
RTVSPropertyOp26
 70
     0
102
RTVSPropertyOp27
 70
     0
102
RTVSPropertyOp28
 70
     0
102
RTVSPropertyOp29
 70
     0
102
RTVSPropertyOp30
 70
     0
102
RTVSPropertyOp31
 70
     0
102
RTVSPropertyOp32
 70
     0
102
RTVSPropertyOp33
 70
     0
102
RTVSPropertyOp34
 70
     0
102
RTVSPropertyOp35
 70
     0
102
RTVSPropertyOp36
 70
     0
102
RTVSPropertyOp37
 70
     0
102
RTVSPropertyOp38
 70
     0
102
RTVSPropertyOp39
 70
     0
102
RTVSPropertyOp40
 70
     0
102
RTVSPropertyOp41
 70
     0
102
RTVSPropertyOp42
 70
     0
102
RTVSPropertyOp43
 70
     0
102
RTVSPropertyOp44
 70
     0
102
RTVSPropertyOp45
 70
     0
102
RTVSPropertyOp46
 70
     0
102
RTVSPropertyOp47
 70
     0
102
RTVSPropertyOp48
 70
     0
102
RTVSPropertyOp49
 70
     0
102
RTVSPropertyOp50
 70
     0
102
RTVSPropertyOp51
 70
     0
102
RTVSPropertyOp52
 70
     0
102
RTVSPropertyOp53
 70
     0
102
RTVSPropertyOp54
 70
     0
102
RTVSPropertyOp55
 70
     0
102
RTVSPropertyOp56
 70
     0
102
RTVSPropertyOp57
 70
     0
102
RTVSPropertyOp58
 70
     1
102
RTVSPropertyOp59
 70
     1
102
RTVSPropertyOp60
 70
     1
102
RTVSPropertyOp61
 70
     1
102
RTVSPropertyOp62
 70
     1
  0
XRECORD
  5
24570
102
{ACAD_REACTORS
330
2456F
102
}
330
2456F
100
AcDbXrecord
280
     1
102
RTVSPost2010Prop28
280
     0
102
RTVSPost2010PropOp28
 70
     1
102
RTVSPost2010Prop29
280
     1
102
RTVSPost2010PropOp29
 70
     1
102
RTVSPost2010Prop30
280
     1
102
RTVSPost2010PropOp30
 70
     1
102
RTVSPost2010Prop31
280
     0
102
RTVSPost2010PropOp31
 70
     1
102
RTVSPost2010Prop32
280
     0
102
RTVSPost2010PropOp32
 70
     1
102
RTVSPost2010Prop33
280
     0
102
RTVSPost2010PropOp33
 70
     1
102
RTVSPost2010Prop34
280
     0
102
RTVSPost2010PropOp34
 70
     1
102
RTVSPost2010Prop35
280
     0
102
RTVSPost2010PropOp35
 70
     1
102
RTVSPost2010Prop36
280
     0
102
RTVSPost2010PropOp36
 70
     1
102
RTVSPost2010Prop37
 90
       50
102
RTVSPost2010PropOp37
 70
     1
102
RTVSPost2010Prop38
140
0.0
102
RTVSPost2010PropOp38
 70
     1
102
RTVSPost2010Prop39
140
1.0
102
RTVSPost2010PropOp39
 70
     1
102
RTVSPost2010Prop40
 90
        0
102
RTVSPost2010PropOp40
 70
     1
102
RTVSPost2010Prop41ColorIndex
 90
       18
102
RTVSPost2010Prop41ColorRGB
 90
        0
102
RTVSPost2010PropOp41
 70
     1
102
RTVSPost2010Prop42
 90
       50
102
RTVSPost2010PropOp42
 70
     1
102
RTVSPost2010Prop43
 90
        3
102
RTVSPost2010PropOp43
 70
     1
102
RTVSPost2010Prop44ColorIndex
 90
        5
102
RTVSPost2010Prop44ColorRGB
 90
      255
102
RTVSPost2010PropOp44
 70
     1
102
RTVSPost2010Prop45
280
     0
102
RTVSPost2010PropOp45
 70
     1
102
RTVSPost2010Prop46
 90
       50
102
RTVSPost2010PropOp46
 70
     1
102
RTVSPost2010Prop47
 90
       50
102
RTVSPost2010PropOp47
 70
     1
102
RTVSPost2010Prop48
 90
       50
102
RTVSPost2010PropOp48
 70
     1
102
RTVSPost2010Prop49
280
     0
102
RTVSPost2010PropOp49
 70
     1
102
RTVSPost2010Prop50
 90
       50
102
RTVSPost2010PropOp50
 70
     1
102
RTVSPost2010Prop51ColorIndex
 90
      256
102
RTVSPost2010Prop51ColorRGB
 90
-16777216
102
RTVSPost2010PropOp51
 70
     0
102
RTVSPost2010Prop52
140
1.0
102
RTVSPost2010PropOp52
 70
     0
102
RTVSPost2010Prop53
 90
        2
102
RTVSPost2010PropOp53
 70
     1
102
RTVSPost2010Prop54
  1
strokes_ogs.tif
102
RTVSPost2010PropOp54
 70
     1
102
RTVSPost2010Prop55
280
     0
102
RTVSPost2010PropOp55
 70
     1
102
RTVSPost2010Prop56
140
1.0
102
RTVSPost2010PropOp56
 70
     1
102
RTVSPost2010Prop57
140
1.0
102
RTVSPost2010PropOp57
 70
     1
102
RTVSPropertyOp0
 70
     1
102
RTVSPropertyOp1
 70
     1
102
RTVSPropertyOp2
 70
     1
102
RTVSPropertyOp3
 70
     1
102
RTVSPropertyOp4
 70
     1
102
RTVSPropertyOp5
 70
     1
102
RTVSPropertyOp6
 70
     1
102
RTVSPropertyOp7
 70
     1
102
RTVSPropertyOp8
 70
     1
102
RTVSPropertyOp9
 70
     1
102
RTVSPropertyOp10
 70
     1
102
RTVSPropertyOp11
 70
     1
102
RTVSPropertyOp12
 70
     1
102
RTVSPropertyOp13
 70
     1
102
RTVSPropertyOp14
 70
     1
102
RTVSPropertyOp15
 70
     1
102
RTVSPropertyOp16
 70
     1
102
RTVSPropertyOp17
 70
     1
102
RTVSPropertyOp18
 70
     1
102
RTVSPropertyOp19
 70
     1
102
RTVSPropertyOp20
 70
     1
102
RTVSPropertyOp21
 70
     1
102
RTVSPropertyOp22
 70
     1
102
RTVSPropertyOp23
 70
     1
102
RTVSPropertyOp24
 70
     1
102
RTVSPropertyOp25
 70
     1
102
RTVSPropertyOp26
 70
     1
102
RTVSPropertyOp27
 70
     1
102
RTVSPropertyOp28
 70
     1
102
RTVSPropertyOp29
 70
     1
102
RTVSPropertyOp30
 70
     1
102
RTVSPropertyOp31
 70
     1
102
RTVSPropertyOp32
 70
     1
102
RTVSPropertyOp33
 70
     1
102
RTVSPropertyOp34
 70
     1
102
RTVSPropertyOp35
 70
     1
102
RTVSPropertyOp36
 70
     1
102
RTVSPropertyOp37
 70
     1
102
RTVSPropertyOp38
 70
     1
102
RTVSPropertyOp39
 70
     1
102
RTVSPropertyOp40
 70
     1
102
RTVSPropertyOp41
 70
     1
102
RTVSPropertyOp42
 70
     1
102
RTVSPropertyOp43
 70
     1
102
RTVSPropertyOp44
 70
     1
102
RTVSPropertyOp45
 70
     1
102
RTVSPropertyOp46
 70
     1
102
RTVSPropertyOp47
 70
     1
102
RTVSPropertyOp48
 70
     1
102
RTVSPropertyOp49
 70
     1
102
RTVSPropertyOp50
 70
     1
102
RTVSPropertyOp51
 70
     0
102
RTVSPropertyOp52
 70
     0
102
RTVSPropertyOp53
 70
     1
102
RTVSPropertyOp54
 70
     1
102
RTVSPropertyOp55
 70
     1
102
RTVSPropertyOp56
 70
     1
102
RTVSPropertyOp57
 70
     1
102
RTVSPropertyOp58
 70
     1
102
RTVSPropertyOp59
 70
     1
102
RTVSPropertyOp60
 70
     1
102
RTVSPropertyOp61
 70
     1
102
RTVSPropertyOp62
 70
     1
  0
XRECORD
  5
24554
102
{ACAD_REACTORS
330
24553
102
}
330
24553
100
AcDbXrecord
280
     1
102
RTVSPost2010Prop28
280
     0
102
RTVSPost2010PropOp28
 70
     1
102
RTVSPost2010Prop29
280
     1
102
RTVSPost2010PropOp29
 70
     1
102
RTVSPost2010Prop30
280
     1
102
RTVSPost2010PropOp30
 70
     1
102
RTVSPost2010Prop31
280
     0
102
RTVSPost2010PropOp31
 70
     1
102
RTVSPost2010Prop32
280
     0
102
RTVSPost2010PropOp32
 70
     1
102
RTVSPost2010Prop33
280
     0
102
RTVSPost2010PropOp33
 70
     1
102
RTVSPost2010Prop34
280
     0
102
RTVSPost2010PropOp34
 70
     1
102
RTVSPost2010Prop35
280
     0
102
RTVSPost2010PropOp35
 70
     1
102
RTVSPost2010Prop36
280
     0
102
RTVSPost2010PropOp36
 70
     1
102
RTVSPost2010Prop37
 90
       50
102
RTVSPost2010PropOp37
 70
     1
102
RTVSPost2010Prop38
140
0.0
102
RTVSPost2010PropOp38
 70
     1
102
RTVSPost2010Prop39
140
1.0
102
RTVSPost2010PropOp39
 70
     1
102
RTVSPost2010Prop40
 90
        0
102
RTVSPost2010PropOp40
 70
     1
102
RTVSPost2010Prop41ColorIndex
 90
       18
102
RTVSPost2010Prop41ColorRGB
 90
        0
102
RTVSPost2010PropOp41
 70
     1
102
RTVSPost2010Prop42
 90
       50
102
RTVSPost2010PropOp42
 70
     1
102
RTVSPost2010Prop43
 90
        3
102
RTVSPost2010PropOp43
 70
     1
102
RTVSPost2010Prop44ColorIndex
 90
        5
102
RTVSPost2010Prop44ColorRGB
 90
      255
102
RTVSPost2010PropOp44
 70
     1
102
RTVSPost2010Prop45
280
     0
102
RTVSPost2010PropOp45
 70
     1
102
RTVSPost2010Prop46
 90
       50
102
RTVSPost2010PropOp46
 70
     1
102
RTVSPost2010Prop47
 90
       50
102
RTVSPost2010PropOp47
 70
     1
102
RTVSPost2010Prop48
 90
       50
102
RTVSPost2010PropOp48
 70
     1
102
RTVSPost2010Prop49
280
     0
102
RTVSPost2010PropOp49
 70
     1
102
RTVSPost2010Prop50
 90
       50
102
RTVSPost2010PropOp50
 70
     1
102
RTVSPost2010Prop51ColorIndex
 90
      256
102
RTVSPost2010Prop51ColorRGB
 90
-16777216
102
RTVSPost2010PropOp51
 70
     0
102
RTVSPost2010Prop52
140
1.0
102
RTVSPost2010PropOp52
 70
     0
102
RTVSPost2010Prop53
 90
        2
102
RTVSPost2010PropOp53
 70
     1
102
RTVSPost2010Prop54
  1
strokes_ogs.tif
102
RTVSPost2010PropOp54
 70
     1
102
RTVSPost2010Prop55
280
     0
102
RTVSPost2010PropOp55
 70
     1
102
RTVSPost2010Prop56
140
1.0
102
RTVSPost2010PropOp56
 70
     1
102
RTVSPost2010Prop57
140
1.0
102
RTVSPost2010PropOp57
 70
     1
102
RTVSPropertyOp0
 70
     1
102
RTVSPropertyOp1
 70
     1
102
RTVSPropertyOp2
 70
     1
102
RTVSPropertyOp3
 70
     1
102
RTVSPropertyOp4
 70
     1
102
RTVSPropertyOp5
 70
     1
102
RTVSPropertyOp6
 70
     1
102
RTVSPropertyOp7
 70
     1
102
RTVSPropertyOp8
 70
     1
102
RTVSPropertyOp9
 70
     1
102
RTVSPropertyOp10
 70
     1
102
RTVSPropertyOp11
 70
     1
102
RTVSPropertyOp12
 70
     1
102
RTVSPropertyOp13
 70
     1
102
RTVSPropertyOp14
 70
     1
102
RTVSPropertyOp15
 70
     1
102
RTVSPropertyOp16
 70
     1
102
RTVSPropertyOp17
 70
     1
102
RTVSPropertyOp18
 70
     1
102
RTVSPropertyOp19
 70
     1
102
RTVSPropertyOp20
 70
     1
102
RTVSPropertyOp21
 70
     1
102
RTVSPropertyOp22
 70
     1
102
RTVSPropertyOp23
 70
     1
102
RTVSPropertyOp24
 70
     1
102
RTVSPropertyOp25
 70
     1
102
RTVSPropertyOp26
 70
     1
102
RTVSPropertyOp27
 70
     1
102
RTVSPropertyOp28
 70
     1
102
RTVSPropertyOp29
 70
     1
102
RTVSPropertyOp30
 70
     1
102
RTVSPropertyOp31
 70
     1
102
RTVSPropertyOp32
 70
     1
102
RTVSPropertyOp33
 70
     1
102
RTVSPropertyOp34
 70
     1
102
RTVSPropertyOp35
 70
     1
102
RTVSPropertyOp36
 70
     1
102
RTVSPropertyOp37
 70
     1
102
RTVSPropertyOp38
 70
     1
102
RTVSPropertyOp39
 70
     1
102
RTVSPropertyOp40
 70
     1
102
RTVSPropertyOp41
 70
     1
102
RTVSPropertyOp42
 70
     1
102
RTVSPropertyOp43
 70
     1
102
RTVSPropertyOp44
 70
     1
102
RTVSPropertyOp45
 70
     1
102
RTVSPropertyOp46
 70
     1
102
RTVSPropertyOp47
 70
     1
102
RTVSPropertyOp48
 70
     1
102
RTVSPropertyOp49
 70
     1
102
RTVSPropertyOp50
 70
     1
102
RTVSPropertyOp51
 70
     0
102
RTVSPropertyOp52
 70
     0
102
RTVSPropertyOp53
 70
     1
102
RTVSPropertyOp54
 70
     1
102
RTVSPropertyOp55
 70
     1
102
RTVSPropertyOp56
 70
     1
102
RTVSPropertyOp57
 70
     1
102
RTVSPropertyOp58
 70
     1
102
RTVSPropertyOp59
 70
     1
102
RTVSPropertyOp60
 70
     1
102
RTVSPropertyOp61
 70
     1
102
RTVSPropertyOp62
 70
     1
  0
XRECORD
  5
24556
102
{ACAD_REACTORS
330
24555
102
}
330
24555
100
AcDbXrecord
280
     1
102
RTVSPost2010Prop28
280
     0
102
RTVSPost2010PropOp28
 70
     1
102
RTVSPost2010Prop29
280
     1
102
RTVSPost2010PropOp29
 70
     1
102
RTVSPost2010Prop30
280
     1
102
RTVSPost2010PropOp30
 70
     1
102
RTVSPost2010Prop31
280
     0
102
RTVSPost2010PropOp31
 70
     1
102
RTVSPost2010Prop32
280
     0
102
RTVSPost2010PropOp32
 70
     1
102
RTVSPost2010Prop33
280
     0
102
RTVSPost2010PropOp33
 70
     1
102
RTVSPost2010Prop34
280
     0
102
RTVSPost2010PropOp34
 70
     1
102
RTVSPost2010Prop35
280
     0
102
RTVSPost2010PropOp35
 70
     1
102
RTVSPost2010Prop36
280
     0
102
RTVSPost2010PropOp36
 70
     1
102
RTVSPost2010Prop37
 90
       50
102
RTVSPost2010PropOp37
 70
     1
102
RTVSPost2010Prop38
140
0.0
102
RTVSPost2010PropOp38
 70
     1
102
RTVSPost2010Prop39
140
1.0
102
RTVSPost2010PropOp39
 70
     1
102
RTVSPost2010Prop40
 90
        0
102
RTVSPost2010PropOp40
 70
     1
102
RTVSPost2010Prop41ColorIndex
 90
       18
102
RTVSPost2010Prop41ColorRGB
 90
        0
102
RTVSPost2010PropOp41
 70
     1
102
RTVSPost2010Prop42
 90
       50
102
RTVSPost2010PropOp42
 70
     1
102
RTVSPost2010Prop43
 90
        3
102
RTVSPost2010PropOp43
 70
     1
102
RTVSPost2010Prop44ColorIndex
 90
        5
102
RTVSPost2010Prop44ColorRGB
 90
      255
102
RTVSPost2010PropOp44
 70
     1
102
RTVSPost2010Prop45
280
     0
102
RTVSPost2010PropOp45
 70
     1
102
RTVSPost2010Prop46
 90
       50
102
RTVSPost2010PropOp46
 70
     1
102
RTVSPost2010Prop47
 90
       50
102
RTVSPost2010PropOp47
 70
     1
102
RTVSPost2010Prop48
 90
       50
102
RTVSPost2010PropOp48
 70
     1
102
RTVSPost2010Prop49
280
     0
102
RTVSPost2010PropOp49
 70
     1
102
RTVSPost2010Prop50
 90
       50
102
RTVSPost2010PropOp50
 70
     1
102
RTVSPost2010Prop51ColorIndex
 90
      256
102
RTVSPost2010Prop51ColorRGB
 90
-16777216
102
RTVSPost2010PropOp51
 70
     0
102
RTVSPost2010Prop52
140
1.0
102
RTVSPost2010PropOp52
 70
     0
102
RTVSPost2010Prop53
 90
        2
102
RTVSPost2010PropOp53
 70
     1
102
RTVSPost2010Prop54
  1
strokes_ogs.tif
102
RTVSPost2010PropOp54
 70
     1
102
RTVSPost2010Prop55
280
     0
102
RTVSPost2010PropOp55
 70
     1
102
RTVSPost2010Prop56
140
1.0
102
RTVSPost2010PropOp56
 70
     1
102
RTVSPost2010Prop57
140
1.0
102
RTVSPost2010PropOp57
 70
     1
102
RTVSPropertyOp0
 70
     1
102
RTVSPropertyOp1
 70
     1
102
RTVSPropertyOp2
 70
     1
102
RTVSPropertyOp3
 70
     1
102
RTVSPropertyOp4
 70
     1
102
RTVSPropertyOp5
 70
     1
102
RTVSPropertyOp6
 70
     1
102
RTVSPropertyOp7
 70
     1
102
RTVSPropertyOp8
 70
     1
102
RTVSPropertyOp9
 70
     1
102
RTVSPropertyOp10
 70
     1
102
RTVSPropertyOp11
 70
     1
102
RTVSPropertyOp12
 70
     1
102
RTVSPropertyOp13
 70
     1
102
RTVSPropertyOp14
 70
     1
102
RTVSPropertyOp15
 70
     1
102
RTVSPropertyOp16
 70
     1
102
RTVSPropertyOp17
 70
     1
102
RTVSPropertyOp18
 70
     1
102
RTVSPropertyOp19
 70
     1
102
RTVSPropertyOp20
 70
     1
102
RTVSPropertyOp21
 70
     1
102
RTVSPropertyOp22
 70
     1
102
RTVSPropertyOp23
 70
     1
102
RTVSPropertyOp24
 70
     1
102
RTVSPropertyOp25
 70
     1
102
RTVSPropertyOp26
 70
     1
102
RTVSPropertyOp27
 70
     1
102
RTVSPropertyOp28
 70
     1
102
RTVSPropertyOp29
 70
     1
102
RTVSPropertyOp30
 70
     1
102
RTVSPropertyOp31
 70
     1
102
RTVSPropertyOp32
 70
     1
102
RTVSPropertyOp33
 70
     1
102
RTVSPropertyOp34
 70
     1
102
RTVSPropertyOp35
 70
     1
102
RTVSPropertyOp36
 70
     1
102
RTVSPropertyOp37
 70
     1
102
RTVSPropertyOp38
 70
     1
102
RTVSPropertyOp39
 70
     1
102
RTVSPropertyOp40
 70
     1
102
RTVSPropertyOp41
 70
     1
102
RTVSPropertyOp42
 70
     1
102
RTVSPropertyOp43
 70
     1
102
RTVSPropertyOp44
 70
     1
102
RTVSPropertyOp45
 70
     1
102
RTVSPropertyOp46
 70
     1
102
RTVSPropertyOp47
 70
     1
102
RTVSPropertyOp48
 70
     1
102
RTVSPropertyOp49
 70
     1
102
RTVSPropertyOp50
 70
     1
102
RTVSPropertyOp51
 70
     0
102
RTVSPropertyOp52
 70
     0
102
RTVSPropertyOp53
 70
     1
102
RTVSPropertyOp54
 70
     1
102
RTVSPropertyOp55
 70
     1
102
RTVSPropertyOp56
 70
     1
102
RTVSPropertyOp57
 70
     1
102
RTVSPropertyOp58
 70
     1
102
RTVSPropertyOp59
 70
     1
102
RTVSPropertyOp60
 70
     1
102
RTVSPropertyOp61
 70
     1
102
RTVSPropertyOp62
 70
     1
  0
XRECORD
  5
24558
102
{ACAD_REACTORS
330
24557
102
}
330
24557
100
AcDbXrecord
280
     1
102
RTVSPost2010Prop28
280
     0
102
RTVSPost2010PropOp28
 70
     1
102
RTVSPost2010Prop29
280
     1
102
RTVSPost2010PropOp29
 70
     1
102
RTVSPost2010Prop30
280
     1
102
RTVSPost2010PropOp30
 70
     1
102
RTVSPost2010Prop31
280
     0
102
RTVSPost2010PropOp31
 70
     1
102
RTVSPost2010Prop32
280
     0
102
RTVSPost2010PropOp32
 70
     1
102
RTVSPost2010Prop33
280
     0
102
RTVSPost2010PropOp33
 70
     1
102
RTVSPost2010Prop34
280
     0
102
RTVSPost2010PropOp34
 70
     1
102
RTVSPost2010Prop35
280
     0
102
RTVSPost2010PropOp35
 70
     1
102
RTVSPost2010Prop36
280
     0
102
RTVSPost2010PropOp36
 70
     1
102
RTVSPost2010Prop37
 90
       50
102
RTVSPost2010PropOp37
 70
     1
102
RTVSPost2010Prop38
140
0.0
102
RTVSPost2010PropOp38
 70
     1
102
RTVSPost2010Prop39
140
1.0
102
RTVSPost2010PropOp39
 70
     1
102
RTVSPost2010Prop40
 90
        0
102
RTVSPost2010PropOp40
 70
     1
102
RTVSPost2010Prop41ColorIndex
 90
       18
102
RTVSPost2010Prop41ColorRGB
 90
        0
102
RTVSPost2010PropOp41
 70
     1
102
RTVSPost2010Prop42
 90
       50
102
RTVSPost2010PropOp42
 70
     1
102
RTVSPost2010Prop43
 90
        3
102
RTVSPost2010PropOp43
 70
     1
102
RTVSPost2010Prop44ColorIndex
 90
        5
102
RTVSPost2010Prop44ColorRGB
 90
      255
102
RTVSPost2010PropOp44
 70
     1
102
RTVSPost2010Prop45
280
     0
102
RTVSPost2010PropOp45
 70
     1
102
RTVSPost2010Prop46
 90
       50
102
RTVSPost2010PropOp46
 70
     1
102
RTVSPost2010Prop47
 90
       50
102
RTVSPost2010PropOp47
 70
     1
102
RTVSPost2010Prop48
 90
       50
102
RTVSPost2010PropOp48
 70
     1
102
RTVSPost2010Prop49
280
     0
102
RTVSPost2010PropOp49
 70
     1
102
RTVSPost2010Prop50
 90
       50
102
RTVSPost2010PropOp50
 70
     1
102
RTVSPost2010Prop51ColorIndex
 90
      256
102
RTVSPost2010Prop51ColorRGB
 90
-16777216
102
RTVSPost2010PropOp51
 70
     0
102
RTVSPost2010Prop52
140
1.0
102
RTVSPost2010PropOp52
 70
     0
102
RTVSPost2010Prop53
 90
        2
102
RTVSPost2010PropOp53
 70
     1
102
RTVSPost2010Prop54
  1
strokes_ogs.tif
102
RTVSPost2010PropOp54
 70
     1
102
RTVSPost2010Prop55
280
     0
102
RTVSPost2010PropOp55
 70
     1
102
RTVSPost2010Prop56
140
1.0
102
RTVSPost2010PropOp56
 70
     1
102
RTVSPost2010Prop57
140
1.0
102
RTVSPost2010PropOp57
 70
     1
102
RTVSPropertyOp0
 70
     1
102
RTVSPropertyOp1
 70
     1
102
RTVSPropertyOp2
 70
     1
102
RTVSPropertyOp3
 70
     1
102
RTVSPropertyOp4
 70
     1
102
RTVSPropertyOp5
 70
     1
102
RTVSPropertyOp6
 70
     1
102
RTVSPropertyOp7
 70
     1
102
RTVSPropertyOp8
 70
     1
102
RTVSPropertyOp9
 70
     1
102
RTVSPropertyOp10
 70
     1
102
RTVSPropertyOp11
 70
     1
102
RTVSPropertyOp12
 70
     1
102
RTVSPropertyOp13
 70
     1
102
RTVSPropertyOp14
 70
     1
102
RTVSPropertyOp15
 70
     1
102
RTVSPropertyOp16
 70
     1
102
RTVSPropertyOp17
 70
     1
102
RTVSPropertyOp18
 70
     1
102
RTVSPropertyOp19
 70
     1
102
RTVSPropertyOp20
 70
     1
102
RTVSPropertyOp21
 70
     1
102
RTVSPropertyOp22
 70
     1
102
RTVSPropertyOp23
 70
     1
102
RTVSPropertyOp24
 70
     1
102
RTVSPropertyOp25
 70
     1
102
RTVSPropertyOp26
 70
     1
102
RTVSPropertyOp27
 70
     1
102
RTVSPropertyOp28
 70
     1
102
RTVSPropertyOp29
 70
     1
102
RTVSPropertyOp30
 70
     1
102
RTVSPropertyOp31
 70
     1
102
RTVSPropertyOp32
 70
     1
102
RTVSPropertyOp33
 70
     1
102
RTVSPropertyOp34
 70
     1
102
RTVSPropertyOp35
 70
     1
102
RTVSPropertyOp36
 70
     1
102
RTVSPropertyOp37
 70
     1
102
RTVSPropertyOp38
 70
     1
102
RTVSPropertyOp39
 70
     1
102
RTVSPropertyOp40
 70
     1
102
RTVSPropertyOp41
 70
     1
102
RTVSPropertyOp42
 70
     1
102
RTVSPropertyOp43
 70
     1
102
RTVSPropertyOp44
 70
     1
102
RTVSPropertyOp45
 70
     1
102
RTVSPropertyOp46
 70
     1
102
RTVSPropertyOp47
 70
     1
102
RTVSPropertyOp48
 70
     1
102
RTVSPropertyOp49
 70
     1
102
RTVSPropertyOp50
 70
     1
102
RTVSPropertyOp51
 70
     0
102
RTVSPropertyOp52
 70
     0
102
RTVSPropertyOp53
 70
     1
102
RTVSPropertyOp54
 70
     1
102
RTVSPropertyOp55
 70
     1
102
RTVSPropertyOp56
 70
     1
102
RTVSPropertyOp57
 70
     1
102
RTVSPropertyOp58
 70
     1
102
RTVSPropertyOp59
 70
     1
102
RTVSPropertyOp60
 70
     1
102
RTVSPropertyOp61
 70
     1
102
RTVSPropertyOp62
 70
     1
  0
XRECORD
  5
2455A
102
{ACAD_REACTORS
330
24559
102
}
330
24559
100
AcDbXrecord
280
     1
102
RTVSPost2010Prop28
280
     0
102
RTVSPost2010PropOp28
 70
     1
102
RTVSPost2010Prop29
280
     1
102
RTVSPost2010PropOp29
 70
     1
102
RTVSPost2010Prop30
280
     1
102
RTVSPost2010PropOp30
 70
     1
102
RTVSPost2010Prop31
280
     0
102
RTVSPost2010PropOp31
 70
     1
102
RTVSPost2010Prop32
280
     0
102
RTVSPost2010PropOp32
 70
     1
102
RTVSPost2010Prop33
280
     0
102
RTVSPost2010PropOp33
 70
     1
102
RTVSPost2010Prop34
280
     0
102
RTVSPost2010PropOp34
 70
     1
102
RTVSPost2010Prop35
280
     0
102
RTVSPost2010PropOp35
 70
     1
102
RTVSPost2010Prop36
280
     0
102
RTVSPost2010PropOp36
 70
     1
102
RTVSPost2010Prop37
 90
       50
102
RTVSPost2010PropOp37
 70
     1
102
RTVSPost2010Prop38
140
0.0
102
RTVSPost2010PropOp38
 70
     1
102
RTVSPost2010Prop39
140
1.0
102
RTVSPost2010PropOp39
 70
     1
102
RTVSPost2010Prop40
 90
        0
102
RTVSPost2010PropOp40
 70
     1
102
RTVSPost2010Prop41ColorIndex
 90
       18
102
RTVSPost2010Prop41ColorRGB
 90
        0
102
RTVSPost2010PropOp41
 70
     1
102
RTVSPost2010Prop42
 90
       50
102
RTVSPost2010PropOp42
 70
     1
102
RTVSPost2010Prop43
 90
        3
102
RTVSPost2010PropOp43
 70
     1
102
RTVSPost2010Prop44ColorIndex
 90
        5
102
RTVSPost2010Prop44ColorRGB
 90
      255
102
RTVSPost2010PropOp44
 70
     1
102
RTVSPost2010Prop45
280
     0
102
RTVSPost2010PropOp45
 70
     1
102
RTVSPost2010Prop46
 90
       50
102
RTVSPost2010PropOp46
 70
     1
102
RTVSPost2010Prop47
 90
       50
102
RTVSPost2010PropOp47
 70
     1
102
RTVSPost2010Prop48
 90
       50
102
RTVSPost2010PropOp48
 70
     1
102
RTVSPost2010Prop49
280
     0
102
RTVSPost2010PropOp49
 70
     1
102
RTVSPost2010Prop50
 90
       50
102
RTVSPost2010PropOp50
 70
     1
102
RTVSPost2010Prop51ColorIndex
 90
      256
102
RTVSPost2010Prop51ColorRGB
 90
-16777216
102
RTVSPost2010PropOp51
 70
     0
102
RTVSPost2010Prop52
140
1.0
102
RTVSPost2010PropOp52
 70
     0
102
RTVSPost2010Prop53
 90
        2
102
RTVSPost2010PropOp53
 70
     1
102
RTVSPost2010Prop54
  1
strokes_ogs.tif
102
RTVSPost2010PropOp54
 70
     1
102
RTVSPost2010Prop55
280
     0
102
RTVSPost2010PropOp55
 70
     1
102
RTVSPost2010Prop56
140
1.0
102
RTVSPost2010PropOp56
 70
     1
102
RTVSPost2010Prop57
140
1.0
102
RTVSPost2010PropOp57
 70
     1
102
RTVSPropertyOp0
 70
     1
102
RTVSPropertyOp1
 70
     1
102
RTVSPropertyOp2
 70
     1
102
RTVSPropertyOp3
 70
     1
102
RTVSPropertyOp4
 70
     1
102
RTVSPropertyOp5
 70
     1
102
RTVSPropertyOp6
 70
     1
102
RTVSPropertyOp7
 70
     1
102
RTVSPropertyOp8
 70
     1
102
RTVSPropertyOp9
 70
     1
102
RTVSPropertyOp10
 70
     1
102
RTVSPropertyOp11
 70
     1
102
RTVSPropertyOp12
 70
     1
102
RTVSPropertyOp13
 70
     1
102
RTVSPropertyOp14
 70
     1
102
RTVSPropertyOp15
 70
     1
102
RTVSPropertyOp16
 70
     1
102
RTVSPropertyOp17
 70
     1
102
RTVSPropertyOp18
 70
     1
102
RTVSPropertyOp19
 70
     1
102
RTVSPropertyOp20
 70
     1
102
RTVSPropertyOp21
 70
     1
102
RTVSPropertyOp22
 70
     1
102
RTVSPropertyOp23
 70
     1
102
RTVSPropertyOp24
 70
     1
102
RTVSPropertyOp25
 70
     1
102
RTVSPropertyOp26
 70
     1
102
RTVSPropertyOp27
 70
     1
102
RTVSPropertyOp28
 70
     1
102
RTVSPropertyOp29
 70
     1
102
RTVSPropertyOp30
 70
     1
102
RTVSPropertyOp31
 70
     1
102
RTVSPropertyOp32
 70
     1
102
RTVSPropertyOp33
 70
     1
102
RTVSPropertyOp34
 70
     1
102
RTVSPropertyOp35
 70
     1
102
RTVSPropertyOp36
 70
     1
102
RTVSPropertyOp37
 70
     1
102
RTVSPropertyOp38
 70
     1
102
RTVSPropertyOp39
 70
     1
102
RTVSPropertyOp40
 70
     1
102
RTVSPropertyOp41
 70
     1
102
RTVSPropertyOp42
 70
     1
102
RTVSPropertyOp43
 70
     1
102
RTVSPropertyOp44
 70
     1
102
RTVSPropertyOp45
 70
     1
102
RTVSPropertyOp46
 70
     1
102
RTVSPropertyOp47
 70
     1
102
RTVSPropertyOp48
 70
     1
102
RTVSPropertyOp49
 70
     1
102
RTVSPropertyOp50
 70
     1
102
RTVSPropertyOp51
 70
     0
102
RTVSPropertyOp52
 70
     0
102
RTVSPropertyOp53
 70
     1
102
RTVSPropertyOp54
 70
     1
102
RTVSPropertyOp55
 70
     1
102
RTVSPropertyOp56
 70
     1
102
RTVSPropertyOp57
 70
     1
102
RTVSPropertyOp58
 70
     1
102
RTVSPropertyOp59
 70
     1
102
RTVSPropertyOp60
 70
     1
102
RTVSPropertyOp61
 70
     1
102
RTVSPropertyOp62
 70
     1
  0
XRECORD
  5
24562
102
{ACAD_REACTORS
330
24561
102
}
330
24561
100
AcDbXrecord
280
     1
102
RTVSPost2010Prop28
280
     0
102
RTVSPost2010PropOp28
 70
     1
102
RTVSPost2010Prop29
280
     1
102
RTVSPost2010PropOp29
 70
     1
102
RTVSPost2010Prop30
280
     1
102
RTVSPost2010PropOp30
 70
     1
102
RTVSPost2010Prop31
280
     0
102
RTVSPost2010PropOp31
 70
     1
102
RTVSPost2010Prop32
280
     0
102
RTVSPost2010PropOp32
 70
     1
102
RTVSPost2010Prop33
280
     0
102
RTVSPost2010PropOp33
 70
     1
102
RTVSPost2010Prop34
280
     0
102
RTVSPost2010PropOp34
 70
     1
102
RTVSPost2010Prop35
280
     0
102
RTVSPost2010PropOp35
 70
     1
102
RTVSPost2010Prop36
280
     0
102
RTVSPost2010PropOp36
 70
     1
102
RTVSPost2010Prop37
 90
       50
102
RTVSPost2010PropOp37
 70
     1
102
RTVSPost2010Prop38
140
0.0
102
RTVSPost2010PropOp38
 70
     1
102
RTVSPost2010Prop39
140
1.0
102
RTVSPost2010PropOp39
 70
     1
102
RTVSPost2010Prop40
 90
        0
102
RTVSPost2010PropOp40
 70
     1
102
RTVSPost2010Prop41ColorIndex
 90
       18
102
RTVSPost2010Prop41ColorRGB
 90
        0
102
RTVSPost2010PropOp41
 70
     1
102
RTVSPost2010Prop42
 90
       50
102
RTVSPost2010PropOp42
 70
     1
102
RTVSPost2010Prop43
 90
        3
102
RTVSPost2010PropOp43
 70
     1
102
RTVSPost2010Prop44ColorIndex
 90
        5
102
RTVSPost2010Prop44ColorRGB
 90
      255
102
RTVSPost2010PropOp44
 70
     1
102
RTVSPost2010Prop45
280
     0
102
RTVSPost2010PropOp45
 70
     1
102
RTVSPost2010Prop46
 90
       50
102
RTVSPost2010PropOp46
 70
     1
102
RTVSPost2010Prop47
 90
       50
102
RTVSPost2010PropOp47
 70
     1
102
RTVSPost2010Prop48
 90
       50
102
RTVSPost2010PropOp48
 70
     1
102
RTVSPost2010Prop49
280
     0
102
RTVSPost2010PropOp49
 70
     1
102
RTVSPost2010Prop50
 90
       50
102
RTVSPost2010PropOp50
 70
     1
102
RTVSPost2010Prop51ColorIndex
 90
      256
102
RTVSPost2010Prop51ColorRGB
 90
-16777216
102
RTVSPost2010PropOp51
 70
     0
102
RTVSPost2010Prop52
140
1.0
102
RTVSPost2010PropOp52
 70
     0
102
RTVSPost2010Prop53
 90
        2
102
RTVSPost2010PropOp53
 70
     1
102
RTVSPost2010Prop54
  1
strokes_ogs.tif
102
RTVSPost2010PropOp54
 70
     1
102
RTVSPost2010Prop55
280
     0
102
RTVSPost2010PropOp55
 70
     1
102
RTVSPost2010Prop56
140
1.0
102
RTVSPost2010PropOp56
 70
     1
102
RTVSPost2010Prop57
140
1.0
102
RTVSPost2010PropOp57
 70
     1
102
RTVSPropertyOp0
 70
     1
102
RTVSPropertyOp1
 70
     1
102
RTVSPropertyOp2
 70
     1
102
RTVSPropertyOp3
 70
     1
102
RTVSPropertyOp4
 70
     1
102
RTVSPropertyOp5
 70
     1
102
RTVSPropertyOp6
 70
     1
102
RTVSPropertyOp7
 70
     1
102
RTVSPropertyOp8
 70
     1
102
RTVSPropertyOp9
 70
     1
102
RTVSPropertyOp10
 70
     1
102
RTVSPropertyOp11
 70
     1
102
RTVSPropertyOp12
 70
     1
102
RTVSPropertyOp13
 70
     1
102
RTVSPropertyOp14
 70
     1
102
RTVSPropertyOp15
 70
     1
102
RTVSPropertyOp16
 70
     1
102
RTVSPropertyOp17
 70
     1
102
RTVSPropertyOp18
 70
     1
102
RTVSPropertyOp19
 70
     1
102
RTVSPropertyOp20
 70
     1
102
RTVSPropertyOp21
 70
     1
102
RTVSPropertyOp22
 70
     1
102
RTVSPropertyOp23
 70
     1
102
RTVSPropertyOp24
 70
     1
102
RTVSPropertyOp25
 70
     1
102
RTVSPropertyOp26
 70
     1
102
RTVSPropertyOp27
 70
     1
102
RTVSPropertyOp28
 70
     1
102
RTVSPropertyOp29
 70
     1
102
RTVSPropertyOp30
 70
     1
102
RTVSPropertyOp31
 70
     1
102
RTVSPropertyOp32
 70
     1
102
RTVSPropertyOp33
 70
     1
102
RTVSPropertyOp34
 70
     1
102
RTVSPropertyOp35
 70
     1
102
RTVSPropertyOp36
 70
     1
102
RTVSPropertyOp37
 70
     1
102
RTVSPropertyOp38
 70
     1
102
RTVSPropertyOp39
 70
     1
102
RTVSPropertyOp40
 70
     1
102
RTVSPropertyOp41
 70
     1
102
RTVSPropertyOp42
 70
     1
102
RTVSPropertyOp43
 70
     1
102
RTVSPropertyOp44
 70
     1
102
RTVSPropertyOp45
 70
     1
102
RTVSPropertyOp46
 70
     1
102
RTVSPropertyOp47
 70
     1
102
RTVSPropertyOp48
 70
     1
102
RTVSPropertyOp49
 70
     1
102
RTVSPropertyOp50
 70
     1
102
RTVSPropertyOp51
 70
     0
102
RTVSPropertyOp52
 70
     0
102
RTVSPropertyOp53
 70
     1
102
RTVSPropertyOp54
 70
     1
102
RTVSPropertyOp55
 70
     1
102
RTVSPropertyOp56
 70
     1
102
RTVSPropertyOp57
 70
     1
102
RTVSPropertyOp58
 70
     1
102
RTVSPropertyOp59
 70
     1
102
RTVSPropertyOp60
 70
     1
102
RTVSPropertyOp61
 70
     1
102
RTVSPropertyOp62
 70
     1
  0
XRECORD
  5
2457E
102
{ACAD_REACTORS
330
2457D
102
}
330
2457D
100
AcDbXrecord
280
     1
102
RTVSPost2010Prop28
280
     0
102
RTVSPost2010PropOp28
 70
     0
102
RTVSPost2010Prop29
280
     1
102
RTVSPost2010PropOp29
 70
     0
102
RTVSPost2010Prop30
280
     1
102
RTVSPost2010PropOp30
 70
     0
102
RTVSPost2010Prop31
280
     0
102
RTVSPost2010PropOp31
 70
     0
102
RTVSPost2010Prop32
280
     0
102
RTVSPost2010PropOp32
 70
     0
102
RTVSPost2010Prop33
280
     0
102
RTVSPost2010PropOp33
 70
     0
102
RTVSPost2010Prop34
280
     0
102
RTVSPost2010PropOp34
 70
     0
102
RTVSPost2010Prop35
280
     0
102
RTVSPost2010PropOp35
 70
     0
102
RTVSPost2010Prop36
280
     0
102
RTVSPost2010PropOp36
 70
     0
102
RTVSPost2010Prop37
 90
       50
102
RTVSPost2010PropOp37
 70
     0
102
RTVSPost2010Prop38
140
0.0
102
RTVSPost2010PropOp38
 70
     0
102
RTVSPost2010Prop39
140
1.0
102
RTVSPost2010PropOp39
 70
     0
102
RTVSPost2010Prop40
 90
        0
102
RTVSPost2010PropOp40
 70
     0
102
RTVSPost2010Prop41ColorIndex
 90
       18
102
RTVSPost2010Prop41ColorRGB
 90
        0
102
RTVSPost2010PropOp41
 70
     0
102
RTVSPost2010Prop42
 90
       50
102
RTVSPost2010PropOp42
 70
     0
102
RTVSPost2010Prop43
 90
        3
102
RTVSPost2010PropOp43
 70
     0
102
RTVSPost2010Prop44ColorIndex
 90
        5
102
RTVSPost2010Prop44ColorRGB
 90
      255
102
RTVSPost2010PropOp44
 70
     0
102
RTVSPost2010Prop45
280
     0
102
RTVSPost2010PropOp45
 70
     0
102
RTVSPost2010Prop46
 90
       50
102
RTVSPost2010PropOp46
 70
     0
102
RTVSPost2010Prop47
 90
       50
102
RTVSPost2010PropOp47
 70
     0
102
RTVSPost2010Prop48
 90
       50
102
RTVSPost2010PropOp48
 70
     0
102
RTVSPost2010Prop49
280
     0
102
RTVSPost2010PropOp49
 70
     0
102
RTVSPost2010Prop50
 90
       50
102
RTVSPost2010PropOp50
 70
     0
102
RTVSPost2010Prop51ColorIndex
 90
      256
102
RTVSPost2010Prop51ColorRGB
 90
-16777216
102
RTVSPost2010PropOp51
 70
     0
102
RTVSPost2010Prop52
140
1.0
102
RTVSPost2010PropOp52
 70
     0
102
RTVSPost2010Prop53
 90
        2
102
RTVSPost2010PropOp53
 70
     0
102
RTVSPost2010Prop54
  1
strokes_ogs.tif
102
RTVSPost2010PropOp54
 70
     0
102
RTVSPost2010Prop55
280
     0
102
RTVSPost2010PropOp55
 70
     0
102
RTVSPost2010Prop56
140
1.0
102
RTVSPost2010PropOp56
 70
     0
102
RTVSPost2010Prop57
140
1.0
102
RTVSPost2010PropOp57
 70
     0
102
RTVSPropertyOp0
 70
     0
102
RTVSPropertyOp1
 70
     0
102
RTVSPropertyOp2
 70
     0
102
RTVSPropertyOp3
 70
     0
102
RTVSPropertyOp4
 70
     0
102
RTVSPropertyOp5
 70
     0
102
RTVSPropertyOp6
 70
     0
102
RTVSPropertyOp7
 70
     0
102
RTVSPropertyOp8
 70
     0
102
RTVSPropertyOp9
 70
     0
102
RTVSPropertyOp10
 70
     0
102
RTVSPropertyOp11
 70
     0
102
RTVSPropertyOp12
 70
     0
102
RTVSPropertyOp13
 70
     0
102
RTVSPropertyOp14
 70
     2
102
RTVSPropertyOp15
 70
     0
102
RTVSPropertyOp16
 70
     0
102
RTVSPropertyOp17
 70
     0
102
RTVSPropertyOp18
 70
     0
102
RTVSPropertyOp19
 70
     0
102
RTVSPropertyOp20
 70
     0
102
RTVSPropertyOp21
 70
     0
102
RTVSPropertyOp22
 70
     0
102
RTVSPropertyOp23
 70
     0
102
RTVSPropertyOp24
 70
     0
102
RTVSPropertyOp25
 70
     0
102
RTVSPropertyOp26
 70
     0
102
RTVSPropertyOp27
 70
     0
102
RTVSPropertyOp28
 70
     0
102
RTVSPropertyOp29
 70
     0
102
RTVSPropertyOp30
 70
     0
102
RTVSPropertyOp31
 70
     0
102
RTVSPropertyOp32
 70
     0
102
RTVSPropertyOp33
 70
     0
102
RTVSPropertyOp34
 70
     0
102
RTVSPropertyOp35
 70
     0
102
RTVSPropertyOp36
 70
     0
102
RTVSPropertyOp37
 70
     0
102
RTVSPropertyOp38
 70
     0
102
RTVSPropertyOp39
 70
     0
102
RTVSPropertyOp40
 70
     0
102
RTVSPropertyOp41
 70
     0
102
RTVSPropertyOp42
 70
     0
102
RTVSPropertyOp43
 70
     0
102
RTVSPropertyOp44
 70
     0
102
RTVSPropertyOp45
 70
     0
102
RTVSPropertyOp46
 70
     0
102
RTVSPropertyOp47
 70
     0
102
RTVSPropertyOp48
 70
     0
102
RTVSPropertyOp49
 70
     0
102
RTVSPropertyOp50
 70
     0
102
RTVSPropertyOp51
 70
     0
102
RTVSPropertyOp52
 70
     0
102
RTVSPropertyOp53
 70
     0
102
RTVSPropertyOp54
 70
     0
102
RTVSPropertyOp55
 70
     0
102
RTVSPropertyOp56
 70
     0
102
RTVSPropertyOp57
 70
     0
102
RTVSPropertyOp58
 70
     1
102
RTVSPropertyOp59
 70
     1
102
RTVSPropertyOp60
 70
     1
102
RTVSPropertyOp61
 70
     1
102
RTVSPropertyOp62
 70
     1
  0
XRECORD
  5
2456E
102
{ACAD_REACTORS
330
2456D
102
}
330
2456D
100
AcDbXrecord
280
     1
102
RTVSPost2010Prop28
280
     0
102
RTVSPost2010PropOp28
 70
     1
102
RTVSPost2010Prop29
280
     1
102
RTVSPost2010PropOp29
 70
     1
102
RTVSPost2010Prop30
280
     1
102
RTVSPost2010PropOp30
 70
     1
102
RTVSPost2010Prop31
280
     0
102
RTVSPost2010PropOp31
 70
     1
102
RTVSPost2010Prop32
280
     0
102
RTVSPost2010PropOp32
 70
     1
102
RTVSPost2010Prop33
280
     0
102
RTVSPost2010PropOp33
 70
     1
102
RTVSPost2010Prop34
280
     0
102
RTVSPost2010PropOp34
 70
     1
102
RTVSPost2010Prop35
280
     0
102
RTVSPost2010PropOp35
 70
     1
102
RTVSPost2010Prop36
280
     0
102
RTVSPost2010PropOp36
 70
     1
102
RTVSPost2010Prop37
 90
       50
102
RTVSPost2010PropOp37
 70
     1
102
RTVSPost2010Prop38
140
0.0
102
RTVSPost2010PropOp38
 70
     1
102
RTVSPost2010Prop39
140
1.0
102
RTVSPost2010PropOp39
 70
     1
102
RTVSPost2010Prop40
 90
        0
102
RTVSPost2010PropOp40
 70
     1
102
RTVSPost2010Prop41ColorIndex
 90
       18
102
RTVSPost2010Prop41ColorRGB
 90
        0
102
RTVSPost2010PropOp41
 70
     1
102
RTVSPost2010Prop42
 90
       50
102
RTVSPost2010PropOp42
 70
     1
102
RTVSPost2010Prop43
 90
        3
102
RTVSPost2010PropOp43
 70
     1
102
RTVSPost2010Prop44ColorIndex
 90
        5
102
RTVSPost2010Prop44ColorRGB
 90
      255
102
RTVSPost2010PropOp44
 70
     1
102
RTVSPost2010Prop45
280
     0
102
RTVSPost2010PropOp45
 70
     1
102
RTVSPost2010Prop46
 90
       50
102
RTVSPost2010PropOp46
 70
     1
102
RTVSPost2010Prop47
 90
       50
102
RTVSPost2010PropOp47
 70
     1
102
RTVSPost2010Prop48
 90
       50
102
RTVSPost2010PropOp48
 70
     1
102
RTVSPost2010Prop49
280
     0
102
RTVSPost2010PropOp49
 70
     1
102
RTVSPost2010Prop50
 90
       50
102
RTVSPost2010PropOp50
 70
     1
102
RTVSPost2010Prop51ColorIndex
 90
      256
102
RTVSPost2010Prop51ColorRGB
 90
-16777216
102
RTVSPost2010PropOp51
 70
     0
102
RTVSPost2010Prop52
140
1.0
102
RTVSPost2010PropOp52
 70
     0
102
RTVSPost2010Prop53
 90
        2
102
RTVSPost2010PropOp53
 70
     1
102
RTVSPost2010Prop54
  1
strokes_ogs.tif
102
RTVSPost2010PropOp54
 70
     1
102
RTVSPost2010Prop55
280
     0
102
RTVSPost2010PropOp55
 70
     1
102
RTVSPost2010Prop56
140
1.0
102
RTVSPost2010PropOp56
 70
     1
102
RTVSPost2010Prop57
140
1.0
102
RTVSPost2010PropOp57
 70
     1
102
RTVSPropertyOp0
 70
     1
102
RTVSPropertyOp1
 70
     1
102
RTVSPropertyOp2
 70
     1
102
RTVSPropertyOp3
 70
     1
102
RTVSPropertyOp4
 70
     1
102
RTVSPropertyOp5
 70
     1
102
RTVSPropertyOp6
 70
     1
102
RTVSPropertyOp7
 70
     1
102
RTVSPropertyOp8
 70
     1
102
RTVSPropertyOp9
 70
     1
102
RTVSPropertyOp10
 70
     1
102
RTVSPropertyOp11
 70
     1
102
RTVSPropertyOp12
 70
     1
102
RTVSPropertyOp13
 70
     1
102
RTVSPropertyOp14
 70
     1
102
RTVSPropertyOp15
 70
     1
102
RTVSPropertyOp16
 70
     1
102
RTVSPropertyOp17
 70
     1
102
RTVSPropertyOp18
 70
     1
102
RTVSPropertyOp19
 70
     1
102
RTVSPropertyOp20
 70
     1
102
RTVSPropertyOp21
 70
     1
102
RTVSPropertyOp22
 70
     1
102
RTVSPropertyOp23
 70
     1
102
RTVSPropertyOp24
 70
     1
102
RTVSPropertyOp25
 70
     1
102
RTVSPropertyOp26
 70
     1
102
RTVSPropertyOp27
 70
     1
102
RTVSPropertyOp28
 70
     1
102
RTVSPropertyOp29
 70
     1
102
RTVSPropertyOp30
 70
     1
102
RTVSPropertyOp31
 70
     1
102
RTVSPropertyOp32
 70
     1
102
RTVSPropertyOp33
 70
     1
102
RTVSPropertyOp34
 70
     1
102
RTVSPropertyOp35
 70
     1
102
RTVSPropertyOp36
 70
     1
102
RTVSPropertyOp37
 70
     1
102
RTVSPropertyOp38
 70
     1
102
RTVSPropertyOp39
 70
     1
102
RTVSPropertyOp40
 70
     1
102
RTVSPropertyOp41
 70
     1
102
RTVSPropertyOp42
 70
     1
102
RTVSPropertyOp43
 70
     1
102
RTVSPropertyOp44
 70
     1
102
RTVSPropertyOp45
 70
     1
102
RTVSPropertyOp46
 70
     1
102
RTVSPropertyOp47
 70
     1
102
RTVSPropertyOp48
 70
     1
102
RTVSPropertyOp49
 70
     1
102
RTVSPropertyOp50
 70
     1
102
RTVSPropertyOp51
 70
     0
102
RTVSPropertyOp52
 70
     0
102
RTVSPropertyOp53
 70
     1
102
RTVSPropertyOp54
 70
     1
102
RTVSPropertyOp55
 70
     1
102
RTVSPropertyOp56
 70
     1
102
RTVSPropertyOp57
 70
     1
102
RTVSPropertyOp58
 70
     1
102
RTVSPropertyOp59
 70
     1
102
RTVSPropertyOp60
 70
     1
102
RTVSPropertyOp61
 70
     1
102
RTVSPropertyOp62
 70
     1
  0
XRECORD
  5
24580
102
{ACAD_REACTORS
330
2457F
102
}
330
2457F
100
AcDbXrecord
280
     1
102
RTVSPost2010Prop28
280
     0
102
RTVSPost2010PropOp28
 70
     0
102
RTVSPost2010Prop29
280
     1
102
RTVSPost2010PropOp29
 70
     0
102
RTVSPost2010Prop30
280
     1
102
RTVSPost2010PropOp30
 70
     0
102
RTVSPost2010Prop31
280
     0
102
RTVSPost2010PropOp31
 70
     0
102
RTVSPost2010Prop32
280
     0
102
RTVSPost2010PropOp32
 70
     0
102
RTVSPost2010Prop33
280
     0
102
RTVSPost2010PropOp33
 70
     0
102
RTVSPost2010Prop34
280
     0
102
RTVSPost2010PropOp34
 70
     0
102
RTVSPost2010Prop35
280
     0
102
RTVSPost2010PropOp35
 70
     0
102
RTVSPost2010Prop36
280
     0
102
RTVSPost2010PropOp36
 70
     0
102
RTVSPost2010Prop37
 90
       50
102
RTVSPost2010PropOp37
 70
     0
102
RTVSPost2010Prop38
140
0.0
102
RTVSPost2010PropOp38
 70
     0
102
RTVSPost2010Prop39
140
1.0
102
RTVSPost2010PropOp39
 70
     0
102
RTVSPost2010Prop40
 90
        0
102
RTVSPost2010PropOp40
 70
     0
102
RTVSPost2010Prop41ColorIndex
 90
       18
102
RTVSPost2010Prop41ColorRGB
 90
        0
102
RTVSPost2010PropOp41
 70
     0
102
RTVSPost2010Prop42
 90
       50
102
RTVSPost2010PropOp42
 70
     0
102
RTVSPost2010Prop43
 90
        3
102
RTVSPost2010PropOp43
 70
     0
102
RTVSPost2010Prop44ColorIndex
 90
        5
102
RTVSPost2010Prop44ColorRGB
 90
      255
102
RTVSPost2010PropOp44
 70
     0
102
RTVSPost2010Prop45
280
     0
102
RTVSPost2010PropOp45
 70
     0
102
RTVSPost2010Prop46
 90
       50
102
RTVSPost2010PropOp46
 70
     0
102
RTVSPost2010Prop47
 90
       50
102
RTVSPost2010PropOp47
 70
     0
102
RTVSPost2010Prop48
 90
       50
102
RTVSPost2010PropOp48
 70
     0
102
RTVSPost2010Prop49
280
     0
102
RTVSPost2010PropOp49
 70
     0
102
RTVSPost2010Prop50
 90
       50
102
RTVSPost2010PropOp50
 70
     0
102
RTVSPost2010Prop51ColorIndex
 90
      256
102
RTVSPost2010Prop51ColorRGB
 90
-16777216
102
RTVSPost2010PropOp51
 70
     0
102
RTVSPost2010Prop52
140
1.0
102
RTVSPost2010PropOp52
 70
     0
102
RTVSPost2010Prop53
 90
        2
102
RTVSPost2010PropOp53
 70
     0
102
RTVSPost2010Prop54
  1
strokes_ogs.tif
102
RTVSPost2010PropOp54
 70
     0
102
RTVSPost2010Prop55
280
     0
102
RTVSPost2010PropOp55
 70
     0
102
RTVSPost2010Prop56
140
1.0
102
RTVSPost2010PropOp56
 70
     0
102
RTVSPost2010Prop57
140
1.0
102
RTVSPost2010PropOp57
 70
     0
102
RTVSPropertyOp0
 70
     0
102
RTVSPropertyOp1
 70
     0
102
RTVSPropertyOp2
 70
     0
102
RTVSPropertyOp3
 70
     0
102
RTVSPropertyOp4
 70
     0
102
RTVSPropertyOp5
 70
     0
102
RTVSPropertyOp6
 70
     0
102
RTVSPropertyOp7
 70
     0
102
RTVSPropertyOp8
 70
     0
102
RTVSPropertyOp9
 70
     0
102
RTVSPropertyOp10
 70
     0
102
RTVSPropertyOp11
 70
     0
102
RTVSPropertyOp12
 70
     0
102
RTVSPropertyOp13
 70
     0
102
RTVSPropertyOp14
 70
     2
102
RTVSPropertyOp15
 70
     0
102
RTVSPropertyOp16
 70
     0
102
RTVSPropertyOp17
 70
     0
102
RTVSPropertyOp18
 70
     0
102
RTVSPropertyOp19
 70
     0
102
RTVSPropertyOp20
 70
     0
102
RTVSPropertyOp21
 70
     0
102
RTVSPropertyOp22
 70
     0
102
RTVSPropertyOp23
 70
     0
102
RTVSPropertyOp24
 70
     0
102
RTVSPropertyOp25
 70
     0
102
RTVSPropertyOp26
 70
     0
102
RTVSPropertyOp27
 70
     0
102
RTVSPropertyOp28
 70
     0
102
RTVSPropertyOp29
 70
     0
102
RTVSPropertyOp30
 70
     0
102
RTVSPropertyOp31
 70
     0
102
RTVSPropertyOp32
 70
     0
102
RTVSPropertyOp33
 70
     0
102
RTVSPropertyOp34
 70
     0
102
RTVSPropertyOp35
 70
     0
102
RTVSPropertyOp36
 70
     0
102
RTVSPropertyOp37
 70
     0
102
RTVSPropertyOp38
 70
     0
102
RTVSPropertyOp39
 70
     0
102
RTVSPropertyOp40
 70
     0
102
RTVSPropertyOp41
 70
     0
102
RTVSPropertyOp42
 70
     0
102
RTVSPropertyOp43
 70
     0
102
RTVSPropertyOp44
 70
     0
102
RTVSPropertyOp45
 70
     0
102
RTVSPropertyOp46
 70
     0
102
RTVSPropertyOp47
 70
     0
102
RTVSPropertyOp48
 70
     0
102
RTVSPropertyOp49
 70
     0
102
RTVSPropertyOp50
 70
     0
102
RTVSPropertyOp51
 70
     0
102
RTVSPropertyOp52
 70
     0
102
RTVSPropertyOp53
 70
     0
102
RTVSPropertyOp54
 70
     0
102
RTVSPropertyOp55
 70
     0
102
RTVSPropertyOp56
 70
     0
102
RTVSPropertyOp57
 70
     0
102
RTVSPropertyOp58
 70
     1
102
RTVSPropertyOp59
 70
     1
102
RTVSPropertyOp60
 70
     1
102
RTVSPropertyOp61
 70
     1
102
RTVSPropertyOp62
 70
     1
  0
XRECORD
  5
24566
102
{ACAD_REACTORS
330
24565
102
}
330
24565
100
AcDbXrecord
280
     1
102
RTVSPost2010Prop28
280
     0
102
RTVSPost2010PropOp28
 70
     1
102
RTVSPost2010Prop29
280
     1
102
RTVSPost2010PropOp29
 70
     1
102
RTVSPost2010Prop30
280
     1
102
RTVSPost2010PropOp30
 70
     1
102
RTVSPost2010Prop31
280
     0
102
RTVSPost2010PropOp31
 70
     1
102
RTVSPost2010Prop32
280
     0
102
RTVSPost2010PropOp32
 70
     1
102
RTVSPost2010Prop33
280
     0
102
RTVSPost2010PropOp33
 70
     1
102
RTVSPost2010Prop34
280
     0
102
RTVSPost2010PropOp34
 70
     1
102
RTVSPost2010Prop35
280
     0
102
RTVSPost2010PropOp35
 70
     1
102
RTVSPost2010Prop36
280
     0
102
RTVSPost2010PropOp36
 70
     1
102
RTVSPost2010Prop37
 90
       50
102
RTVSPost2010PropOp37
 70
     1
102
RTVSPost2010Prop38
140
0.0
102
RTVSPost2010PropOp38
 70
     1
102
RTVSPost2010Prop39
140
1.0
102
RTVSPost2010PropOp39
 70
     1
102
RTVSPost2010Prop40
 90
        0
102
RTVSPost2010PropOp40
 70
     1
102
RTVSPost2010Prop41ColorIndex
 90
       18
102
RTVSPost2010Prop41ColorRGB
 90
        0
102
RTVSPost2010PropOp41
 70
     1
102
RTVSPost2010Prop42
 90
       50
102
RTVSPost2010PropOp42
 70
     1
102
RTVSPost2010Prop43
 90
        3
102
RTVSPost2010PropOp43
 70
     1
102
RTVSPost2010Prop44ColorIndex
 90
        5
102
RTVSPost2010Prop44ColorRGB
 90
      255
102
RTVSPost2010PropOp44
 70
     1
102
RTVSPost2010Prop45
280
     0
102
RTVSPost2010PropOp45
 70
     1
102
RTVSPost2010Prop46
 90
       50
102
RTVSPost2010PropOp46
 70
     1
102
RTVSPost2010Prop47
 90
       50
102
RTVSPost2010PropOp47
 70
     1
102
RTVSPost2010Prop48
 90
       50
102
RTVSPost2010PropOp48
 70
     1
102
RTVSPost2010Prop49
280
     0
102
RTVSPost2010PropOp49
 70
     1
102
RTVSPost2010Prop50
 90
       50
102
RTVSPost2010PropOp50
 70
     1
102
RTVSPost2010Prop51ColorIndex
 90
      256
102
RTVSPost2010Prop51ColorRGB
 90
-16777216
102
RTVSPost2010PropOp51
 70
     0
102
RTVSPost2010Prop52
140
1.0
102
RTVSPost2010PropOp52
 70
     0
102
RTVSPost2010Prop53
 90
        2
102
RTVSPost2010PropOp53
 70
     1
102
RTVSPost2010Prop54
  1
strokes_ogs.tif
102
RTVSPost2010PropOp54
 70
     1
102
RTVSPost2010Prop55
280
     0
102
RTVSPost2010PropOp55
 70
     1
102
RTVSPost2010Prop56
140
1.0
102
RTVSPost2010PropOp56
 70
     1
102
RTVSPost2010Prop57
140
1.0
102
RTVSPost2010PropOp57
 70
     1
102
RTVSPropertyOp0
 70
     1
102
RTVSPropertyOp1
 70
     1
102
RTVSPropertyOp2
 70
     1
102
RTVSPropertyOp3
 70
     1
102
RTVSPropertyOp4
 70
     1
102
RTVSPropertyOp5
 70
     1
102
RTVSPropertyOp6
 70
     1
102
RTVSPropertyOp7
 70
     1
102
RTVSPropertyOp8
 70
     1
102
RTVSPropertyOp9
 70
     1
102
RTVSPropertyOp10
 70
     1
102
RTVSPropertyOp11
 70
     1
102
RTVSPropertyOp12
 70
     1
102
RTVSPropertyOp13
 70
     1
102
RTVSPropertyOp14
 70
     1
102
RTVSPropertyOp15
 70
     1
102
RTVSPropertyOp16
 70
     1
102
RTVSPropertyOp17
 70
     1
102
RTVSPropertyOp18
 70
     1
102
RTVSPropertyOp19
 70
     1
102
RTVSPropertyOp20
 70
     1
102
RTVSPropertyOp21
 70
     1
102
RTVSPropertyOp22
 70
     1
102
RTVSPropertyOp23
 70
     1
102
RTVSPropertyOp24
 70
     1
102
RTVSPropertyOp25
 70
     1
102
RTVSPropertyOp26
 70
     1
102
RTVSPropertyOp27
 70
     1
102
RTVSPropertyOp28
 70
     1
102
RTVSPropertyOp29
 70
     1
102
RTVSPropertyOp30
 70
     1
102
RTVSPropertyOp31
 70
     1
102
RTVSPropertyOp32
 70
     1
102
RTVSPropertyOp33
 70
     1
102
RTVSPropertyOp34
 70
     1
102
RTVSPropertyOp35
 70
     1
102
RTVSPropertyOp36
 70
     1
102
RTVSPropertyOp37
 70
     1
102
RTVSPropertyOp38
 70
     1
102
RTVSPropertyOp39
 70
     1
102
RTVSPropertyOp40
 70
     1
102
RTVSPropertyOp41
 70
     1
102
RTVSPropertyOp42
 70
     1
102
RTVSPropertyOp43
 70
     1
102
RTVSPropertyOp44
 70
     1
102
RTVSPropertyOp45
 70
     1
102
RTVSPropertyOp46
 70
     1
102
RTVSPropertyOp47
 70
     1
102
RTVSPropertyOp48
 70
     1
102
RTVSPropertyOp49
 70
     1
102
RTVSPropertyOp50
 70
     1
102
RTVSPropertyOp51
 70
     0
102
RTVSPropertyOp52
 70
     0
102
RTVSPropertyOp53
 70
     1
102
RTVSPropertyOp54
 70
     1
102
RTVSPropertyOp55
 70
     1
102
RTVSPropertyOp56
 70
     1
102
RTVSPropertyOp57
 70
     1
102
RTVSPropertyOp58
 70
     1
102
RTVSPropertyOp59
 70
     1
102
RTVSPropertyOp60
 70
     1
102
RTVSPropertyOp61
 70
     1
102
RTVSPropertyOp62
 70
     1
  0
XRECORD
  5
2457C
102
{ACAD_REACTORS
330
2457B
102
}
330
2457B
100
AcDbXrecord
280
     1
102
RTVSPost2010Prop28
280
     0
102
RTVSPost2010PropOp28
 70
     1
102
RTVSPost2010Prop29
280
     1
102
RTVSPost2010PropOp29
 70
     1
102
RTVSPost2010Prop30
280
     1
102
RTVSPost2010PropOp30
 70
     1
102
RTVSPost2010Prop31
280
     0
102
RTVSPost2010PropOp31
 70
     1
102
RTVSPost2010Prop32
280
     0
102
RTVSPost2010PropOp32
 70
     1
102
RTVSPost2010Prop33
280
     0
102
RTVSPost2010PropOp33
 70
     1
102
RTVSPost2010Prop34
280
     0
102
RTVSPost2010PropOp34
 70
     1
102
RTVSPost2010Prop35
280
     0
102
RTVSPost2010PropOp35
 70
     1
102
RTVSPost2010Prop36
280
     0
102
RTVSPost2010PropOp36
 70
     1
102
RTVSPost2010Prop37
 90
       50
102
RTVSPost2010PropOp37
 70
     1
102
RTVSPost2010Prop38
140
0.0
102
RTVSPost2010PropOp38
 70
     1
102
RTVSPost2010Prop39
140
1.0
102
RTVSPost2010PropOp39
 70
     1
102
RTVSPost2010Prop40
 90
        0
102
RTVSPost2010PropOp40
 70
     1
102
RTVSPost2010Prop41ColorIndex
 90
       18
102
RTVSPost2010Prop41ColorRGB
 90
        0
102
RTVSPost2010PropOp41
 70
     1
102
RTVSPost2010Prop42
 90
       50
102
RTVSPost2010PropOp42
 70
     1
102
RTVSPost2010Prop43
 90
        3
102
RTVSPost2010PropOp43
 70
     1
102
RTVSPost2010Prop44ColorIndex
 90
        5
102
RTVSPost2010Prop44ColorRGB
 90
      255
102
RTVSPost2010PropOp44
 70
     1
102
RTVSPost2010Prop45
280
     0
102
RTVSPost2010PropOp45
 70
     1
102
RTVSPost2010Prop46
 90
       50
102
RTVSPost2010PropOp46
 70
     1
102
RTVSPost2010Prop47
 90
       50
102
RTVSPost2010PropOp47
 70
     1
102
RTVSPost2010Prop48
 90
       50
102
RTVSPost2010PropOp48
 70
     1
102
RTVSPost2010Prop49
280
     0
102
RTVSPost2010PropOp49
 70
     1
102
RTVSPost2010Prop50
 90
       50
102
RTVSPost2010PropOp50
 70
     1
102
RTVSPost2010Prop51ColorIndex
 90
      256
102
RTVSPost2010Prop51ColorRGB
 90
-16777216
102
RTVSPost2010PropOp51
 70
     0
102
RTVSPost2010Prop52
140
1.0
102
RTVSPost2010PropOp52
 70
     0
102
RTVSPost2010Prop53
 90
        2
102
RTVSPost2010PropOp53
 70
     1
102
RTVSPost2010Prop54
  1
strokes_ogs.tif
102
RTVSPost2010PropOp54
 70
     1
102
RTVSPost2010Prop55
280
     0
102
RTVSPost2010PropOp55
 70
     1
102
RTVSPost2010Prop56
140
1.0
102
RTVSPost2010PropOp56
 70
     1
102
RTVSPost2010Prop57
140
1.0
102
RTVSPost2010PropOp57
 70
     1
102
RTVSPropertyOp0
 70
     1
102
RTVSPropertyOp1
 70
     1
102
RTVSPropertyOp2
 70
     1
102
RTVSPropertyOp3
 70
     1
102
RTVSPropertyOp4
 70
     1
102
RTVSPropertyOp5
 70
     1
102
RTVSPropertyOp6
 70
     1
102
RTVSPropertyOp7
 70
     1
102
RTVSPropertyOp8
 70
     1
102
RTVSPropertyOp9
 70
     1
102
RTVSPropertyOp10
 70
     1
102
RTVSPropertyOp11
 70
     1
102
RTVSPropertyOp12
 70
     1
102
RTVSPropertyOp13
 70
     1
102
RTVSPropertyOp14
 70
     1
102
RTVSPropertyOp15
 70
     1
102
RTVSPropertyOp16
 70
     1
102
RTVSPropertyOp17
 70
     1
102
RTVSPropertyOp18
 70
     1
102
RTVSPropertyOp19
 70
     1
102
RTVSPropertyOp20
 70
     1
102
RTVSPropertyOp21
 70
     1
102
RTVSPropertyOp22
 70
     1
102
RTVSPropertyOp23
 70
     1
102
RTVSPropertyOp24
 70
     1
102
RTVSPropertyOp25
 70
     1
102
RTVSPropertyOp26
 70
     1
102
RTVSPropertyOp27
 70
     1
102
RTVSPropertyOp28
 70
     1
102
RTVSPropertyOp29
 70
     1
102
RTVSPropertyOp30
 70
     1
102
RTVSPropertyOp31
 70
     1
102
RTVSPropertyOp32
 70
     1
102
RTVSPropertyOp33
 70
     1
102
RTVSPropertyOp34
 70
     1
102
RTVSPropertyOp35
 70
     1
102
RTVSPropertyOp36
 70
     1
102
RTVSPropertyOp37
 70
     1
102
RTVSPropertyOp38
 70
     1
102
RTVSPropertyOp39
 70
     1
102
RTVSPropertyOp40
 70
     1
102
RTVSPropertyOp41
 70
     1
102
RTVSPropertyOp42
 70
     1
102
RTVSPropertyOp43
 70
     1
102
RTVSPropertyOp44
 70
     1
102
RTVSPropertyOp45
 70
     1
102
RTVSPropertyOp46
 70
     1
102
RTVSPropertyOp47
 70
     1
102
RTVSPropertyOp48
 70
     1
102
RTVSPropertyOp49
 70
     1
102
RTVSPropertyOp50
 70
     1
102
RTVSPropertyOp51
 70
     0
102
RTVSPropertyOp52
 70
     0
102
RTVSPropertyOp53
 70
     1
102
RTVSPropertyOp54
 70
     1
102
RTVSPropertyOp55
 70
     1
102
RTVSPropertyOp56
 70
     1
102
RTVSPropertyOp57
 70
     1
102
RTVSPropertyOp58
 70
     1
102
RTVSPropertyOp59
 70
     1
102
RTVSPropertyOp60
 70
     1
102
RTVSPropertyOp61
 70
     1
102
RTVSPropertyOp62
 70
     1
  0
XRECORD
  5
2457A
102
{ACAD_REACTORS
330
24579
102
}
330
24579
100
AcDbXrecord
280
     1
102
RTVSPost2010Prop28
280
     0
102
RTVSPost2010PropOp28
 70
     1
102
RTVSPost2010Prop29
280
     1
102
RTVSPost2010PropOp29
 70
     1
102
RTVSPost2010Prop30
280
     1
102
RTVSPost2010PropOp30
 70
     1
102
RTVSPost2010Prop31
280
     0
102
RTVSPost2010PropOp31
 70
     1
102
RTVSPost2010Prop32
280
     0
102
RTVSPost2010PropOp32
 70
     1
102
RTVSPost2010Prop33
280
     0
102
RTVSPost2010PropOp33
 70
     1
102
RTVSPost2010Prop34
280
     0
102
RTVSPost2010PropOp34
 70
     1
102
RTVSPost2010Prop35
280
     0
102
RTVSPost2010PropOp35
 70
     1
102
RTVSPost2010Prop36
280
     0
102
RTVSPost2010PropOp36
 70
     1
102
RTVSPost2010Prop37
 90
       50
102
RTVSPost2010PropOp37
 70
     1
102
RTVSPost2010Prop38
140
0.0
102
RTVSPost2010PropOp38
 70
     1
102
RTVSPost2010Prop39
140
1.0
102
RTVSPost2010PropOp39
 70
     1
102
RTVSPost2010Prop40
 90
        0
102
RTVSPost2010PropOp40
 70
     1
102
RTVSPost2010Prop41ColorIndex
 90
       18
102
RTVSPost2010Prop41ColorRGB
 90
        0
102
RTVSPost2010PropOp41
 70
     1
102
RTVSPost2010Prop42
 90
       50
102
RTVSPost2010PropOp42
 70
     1
102
RTVSPost2010Prop43
 90
        3
102
RTVSPost2010PropOp43
 70
     1
102
RTVSPost2010Prop44ColorIndex
 90
        5
102
RTVSPost2010Prop44ColorRGB
 90
      255
102
RTVSPost2010PropOp44
 70
     1
102
RTVSPost2010Prop45
280
     0
102
RTVSPost2010PropOp45
 70
     1
102
RTVSPost2010Prop46
 90
       50
102
RTVSPost2010PropOp46
 70
     1
102
RTVSPost2010Prop47
 90
       50
102
RTVSPost2010PropOp47
 70
     1
102
RTVSPost2010Prop48
 90
       50
102
RTVSPost2010PropOp48
 70
     1
102
RTVSPost2010Prop49
280
     0
102
RTVSPost2010PropOp49
 70
     1
102
RTVSPost2010Prop50
 90
       50
102
RTVSPost2010PropOp50
 70
     1
102
RTVSPost2010Prop51ColorIndex
 90
      256
102
RTVSPost2010Prop51ColorRGB
 90
-16777216
102
RTVSPost2010PropOp51
 70
     0
102
RTVSPost2010Prop52
140
1.0
102
RTVSPost2010PropOp52
 70
     0
102
RTVSPost2010Prop53
 90
        2
102
RTVSPost2010PropOp53
 70
     1
102
RTVSPost2010Prop54
  1
strokes_ogs.tif
102
RTVSPost2010PropOp54
 70
     1
102
RTVSPost2010Prop55
280
     0
102
RTVSPost2010PropOp55
 70
     1
102
RTVSPost2010Prop56
140
1.0
102
RTVSPost2010PropOp56
 70
     1
102
RTVSPost2010Prop57
140
1.0
102
RTVSPost2010PropOp57
 70
     1
102
RTVSPropertyOp0
 70
     1
102
RTVSPropertyOp1
 70
     1
102
RTVSPropertyOp2
 70
     1
102
RTVSPropertyOp3
 70
     1
102
RTVSPropertyOp4
 70
     1
102
RTVSPropertyOp5
 70
     1
102
RTVSPropertyOp6
 70
     1
102
RTVSPropertyOp7
 70
     1
102
RTVSPropertyOp8
 70
     1
102
RTVSPropertyOp9
 70
     1
102
RTVSPropertyOp10
 70
     1
102
RTVSPropertyOp11
 70
     1
102
RTVSPropertyOp12
 70
     1
102
RTVSPropertyOp13
 70
     1
102
RTVSPropertyOp14
 70
     1
102
RTVSPropertyOp15
 70
     1
102
RTVSPropertyOp16
 70
     1
102
RTVSPropertyOp17
 70
     1
102
RTVSPropertyOp18
 70
     1
102
RTVSPropertyOp19
 70
     1
102
RTVSPropertyOp20
 70
     1
102
RTVSPropertyOp21
 70
     1
102
RTVSPropertyOp22
 70
     1
102
RTVSPropertyOp23
 70
     1
102
RTVSPropertyOp24
 70
     1
102
RTVSPropertyOp25
 70
     1
102
RTVSPropertyOp26
 70
     1
102
RTVSPropertyOp27
 70
     1
102
RTVSPropertyOp28
 70
     1
102
RTVSPropertyOp29
 70
     1
102
RTVSPropertyOp30
 70
     1
102
RTVSPropertyOp31
 70
     1
102
RTVSPropertyOp32
 70
     1
102
RTVSPropertyOp33
 70
     1
102
RTVSPropertyOp34
 70
     1
102
RTVSPropertyOp35
 70
     1
102
RTVSPropertyOp36
 70
     1
102
RTVSPropertyOp37
 70
     1
102
RTVSPropertyOp38
 70
     1
102
RTVSPropertyOp39
 70
     1
102
RTVSPropertyOp40
 70
     1
102
RTVSPropertyOp41
 70
     1
102
RTVSPropertyOp42
 70
     1
102
RTVSPropertyOp43
 70
     1
102
RTVSPropertyOp44
 70
     1
102
RTVSPropertyOp45
 70
     1
102
RTVSPropertyOp46
 70
     1
102
RTVSPropertyOp47
 70
     1
102
RTVSPropertyOp48
 70
     1
102
RTVSPropertyOp49
 70
     1
102
RTVSPropertyOp50
 70
     1
102
RTVSPropertyOp51
 70
     0
102
RTVSPropertyOp52
 70
     0
102
RTVSPropertyOp53
 70
     1
102
RTVSPropertyOp54
 70
     1
102
RTVSPropertyOp55
 70
     1
102
RTVSPropertyOp56
 70
     1
102
RTVSPropertyOp57
 70
     1
102
RTVSPropertyOp58
 70
     1
102
RTVSPropertyOp59
 70
     1
102
RTVSPropertyOp60
 70
     1
102
RTVSPropertyOp61
 70
     1
102
RTVSPropertyOp62
 70
     1
  0
XRECORD
  5
24574
102
{ACAD_REACTORS
330
24573
102
}
330
24573
100
AcDbXrecord
280
     1
102
RTVSPost2010Prop28
280
     0
102
RTVSPost2010PropOp28
 70
     1
102
RTVSPost2010Prop29
280
     1
102
RTVSPost2010PropOp29
 70
     1
102
RTVSPost2010Prop30
280
     1
102
RTVSPost2010PropOp30
 70
     1
102
RTVSPost2010Prop31
280
     0
102
RTVSPost2010PropOp31
 70
     1
102
RTVSPost2010Prop32
280
     0
102
RTVSPost2010PropOp32
 70
     1
102
RTVSPost2010Prop33
280
     0
102
RTVSPost2010PropOp33
 70
     1
102
RTVSPost2010Prop34
280
     0
102
RTVSPost2010PropOp34
 70
     1
102
RTVSPost2010Prop35
280
     0
102
RTVSPost2010PropOp35
 70
     1
102
RTVSPost2010Prop36
280
     0
102
RTVSPost2010PropOp36
 70
     1
102
RTVSPost2010Prop37
 90
       50
102
RTVSPost2010PropOp37
 70
     1
102
RTVSPost2010Prop38
140
0.0
102
RTVSPost2010PropOp38
 70
     1
102
RTVSPost2010Prop39
140
1.0
102
RTVSPost2010PropOp39
 70
     1
102
RTVSPost2010Prop40
 90
        0
102
RTVSPost2010PropOp40
 70
     1
102
RTVSPost2010Prop41ColorIndex
 90
       18
102
RTVSPost2010Prop41ColorRGB
 90
        0
102
RTVSPost2010PropOp41
 70
     1
102
RTVSPost2010Prop42
 90
       50
102
RTVSPost2010PropOp42
 70
     1
102
RTVSPost2010Prop43
 90
        3
102
RTVSPost2010PropOp43
 70
     1
102
RTVSPost2010Prop44ColorIndex
 90
        5
102
RTVSPost2010Prop44ColorRGB
 90
      255
102
RTVSPost2010PropOp44
 70
     1
102
RTVSPost2010Prop45
280
     0
102
RTVSPost2010PropOp45
 70
     1
102
RTVSPost2010Prop46
 90
       50
102
RTVSPost2010PropOp46
 70
     1
102
RTVSPost2010Prop47
 90
       50
102
RTVSPost2010PropOp47
 70
     1
102
RTVSPost2010Prop48
 90
       50
102
RTVSPost2010PropOp48
 70
     1
102
RTVSPost2010Prop49
280
     0
102
RTVSPost2010PropOp49
 70
     1
102
RTVSPost2010Prop50
 90
       50
102
RTVSPost2010PropOp50
 70
     1
102
RTVSPost2010Prop51ColorIndex
 90
      256
102
RTVSPost2010Prop51ColorRGB
 90
-16777216
102
RTVSPost2010PropOp51
 70
     0
102
RTVSPost2010Prop52
140
1.0
102
RTVSPost2010PropOp52
 70
     0
102
RTVSPost2010Prop53
 90
        2
102
RTVSPost2010PropOp53
 70
     1
102
RTVSPost2010Prop54
  1
strokes_ogs.tif
102
RTVSPost2010PropOp54
 70
     1
102
RTVSPost2010Prop55
280
     0
102
RTVSPost2010PropOp55
 70
     1
102
RTVSPost2010Prop56
140
1.0
102
RTVSPost2010PropOp56
 70
     1
102
RTVSPost2010Prop57
140
1.0
102
RTVSPost2010PropOp57
 70
     1
102
RTVSPropertyOp0
 70
     1
102
RTVSPropertyOp1
 70
     1
102
RTVSPropertyOp2
 70
     1
102
RTVSPropertyOp3
 70
     1
102
RTVSPropertyOp4
 70
     1
102
RTVSPropertyOp5
 70
     1
102
RTVSPropertyOp6
 70
     1
102
RTVSPropertyOp7
 70
     1
102
RTVSPropertyOp8
 70
     1
102
RTVSPropertyOp9
 70
     1
102
RTVSPropertyOp10
 70
     1
102
RTVSPropertyOp11
 70
     1
102
RTVSPropertyOp12
 70
     1
102
RTVSPropertyOp13
 70
     1
102
RTVSPropertyOp14
 70
     1
102
RTVSPropertyOp15
 70
     1
102
RTVSPropertyOp16
 70
     1
102
RTVSPropertyOp17
 70
     1
102
RTVSPropertyOp18
 70
     1
102
RTVSPropertyOp19
 70
     1
102
RTVSPropertyOp20
 70
     1
102
RTVSPropertyOp21
 70
     1
102
RTVSPropertyOp22
 70
     1
102
RTVSPropertyOp23
 70
     1
102
RTVSPropertyOp24
 70
     1
102
RTVSPropertyOp25
 70
     1
102
RTVSPropertyOp26
 70
     1
102
RTVSPropertyOp27
 70
     1
102
RTVSPropertyOp28
 70
     1
102
RTVSPropertyOp29
 70
     1
102
RTVSPropertyOp30
 70
     1
102
RTVSPropertyOp31
 70
     1
102
RTVSPropertyOp32
 70
     1
102
RTVSPropertyOp33
 70
     1
102
RTVSPropertyOp34
 70
     1
102
RTVSPropertyOp35
 70
     1
102
RTVSPropertyOp36
 70
     1
102
RTVSPropertyOp37
 70
     1
102
RTVSPropertyOp38
 70
     1
102
RTVSPropertyOp39
 70
     1
102
RTVSPropertyOp40
 70
     1
102
RTVSPropertyOp41
 70
     1
102
RTVSPropertyOp42
 70
     1
102
RTVSPropertyOp43
 70
     1
102
RTVSPropertyOp44
 70
     1
102
RTVSPropertyOp45
 70
     1
102
RTVSPropertyOp46
 70
     1
102
RTVSPropertyOp47
 70
     1
102
RTVSPropertyOp48
 70
     1
102
RTVSPropertyOp49
 70
     1
102
RTVSPropertyOp50
 70
     1
102
RTVSPropertyOp51
 70
     0
102
RTVSPropertyOp52
 70
     0
102
RTVSPropertyOp53
 70
     1
102
RTVSPropertyOp54
 70
     1
102
RTVSPropertyOp55
 70
     1
102
RTVSPropertyOp56
 70
     1
102
RTVSPropertyOp57
 70
     1
102
RTVSPropertyOp58
 70
     1
102
RTVSPropertyOp59
 70
     1
102
RTVSPropertyOp60
 70
     1
102
RTVSPropertyOp61
 70
     1
102
RTVSPropertyOp62
 70
     1
  0
XRECORD
  5
24576
102
{ACAD_REACTORS
330
24575
102
}
330
24575
100
AcDbXrecord
280
     1
102
RTVSPost2010Prop28
280
     0
102
RTVSPost2010PropOp28
 70
     1
102
RTVSPost2010Prop29
280
     1
102
RTVSPost2010PropOp29
 70
     1
102
RTVSPost2010Prop30
280
     1
102
RTVSPost2010PropOp30
 70
     1
102
RTVSPost2010Prop31
280
     0
102
RTVSPost2010PropOp31
 70
     1
102
RTVSPost2010Prop32
280
     0
102
RTVSPost2010PropOp32
 70
     1
102
RTVSPost2010Prop33
280
     0
102
RTVSPost2010PropOp33
 70
     1
102
RTVSPost2010Prop34
280
     0
102
RTVSPost2010PropOp34
 70
     1
102
RTVSPost2010Prop35
280
     0
102
RTVSPost2010PropOp35
 70
     1
102
RTVSPost2010Prop36
280
     0
102
RTVSPost2010PropOp36
 70
     1
102
RTVSPost2010Prop37
 90
       50
102
RTVSPost2010PropOp37
 70
     1
102
RTVSPost2010Prop38
140
0.0
102
RTVSPost2010PropOp38
 70
     1
102
RTVSPost2010Prop39
140
1.0
102
RTVSPost2010PropOp39
 70
     1
102
RTVSPost2010Prop40
 90
        0
102
RTVSPost2010PropOp40
 70
     1
102
RTVSPost2010Prop41ColorIndex
 90
       18
102
RTVSPost2010Prop41ColorRGB
 90
        0
102
RTVSPost2010PropOp41
 70
     1
102
RTVSPost2010Prop42
 90
       50
102
RTVSPost2010PropOp42
 70
     1
102
RTVSPost2010Prop43
 90
        3
102
RTVSPost2010PropOp43
 70
     1
102
RTVSPost2010Prop44ColorIndex
 90
        5
102
RTVSPost2010Prop44ColorRGB
 90
      255
102
RTVSPost2010PropOp44
 70
     1
102
RTVSPost2010Prop45
280
     0
102
RTVSPost2010PropOp45
 70
     1
102
RTVSPost2010Prop46
 90
       50
102
RTVSPost2010PropOp46
 70
     1
102
RTVSPost2010Prop47
 90
       50
102
RTVSPost2010PropOp47
 70
     1
102
RTVSPost2010Prop48
 90
       50
102
RTVSPost2010PropOp48
 70
     1
102
RTVSPost2010Prop49
280
     0
102
RTVSPost2010PropOp49
 70
     1
102
RTVSPost2010Prop50
 90
       50
102
RTVSPost2010PropOp50
 70
     1
102
RTVSPost2010Prop51ColorIndex
 90
      256
102
RTVSPost2010Prop51ColorRGB
 90
-16777216
102
RTVSPost2010PropOp51
 70
     0
102
RTVSPost2010Prop52
140
1.0
102
RTVSPost2010PropOp52
 70
     0
102
RTVSPost2010Prop53
 90
        2
102
RTVSPost2010PropOp53
 70
     1
102
RTVSPost2010Prop54
  1
strokes_ogs.tif
102
RTVSPost2010PropOp54
 70
     1
102
RTVSPost2010Prop55
280
     0
102
RTVSPost2010PropOp55
 70
     1
102
RTVSPost2010Prop56
140
1.0
102
RTVSPost2010PropOp56
 70
     1
102
RTVSPost2010Prop57
140
1.0
102
RTVSPost2010PropOp57
 70
     1
102
RTVSPropertyOp0
 70
     1
102
RTVSPropertyOp1
 70
     1
102
RTVSPropertyOp2
 70
     1
102
RTVSPropertyOp3
 70
     1
102
RTVSPropertyOp4
 70
     1
102
RTVSPropertyOp5
 70
     1
102
RTVSPropertyOp6
 70
     1
102
RTVSPropertyOp7
 70
     1
102
RTVSPropertyOp8
 70
     1
102
RTVSPropertyOp9
 70
     1
102
RTVSPropertyOp10
 70
     1
102
RTVSPropertyOp11
 70
     1
102
RTVSPropertyOp12
 70
     1
102
RTVSPropertyOp13
 70
     1
102
RTVSPropertyOp14
 70
     1
102
RTVSPropertyOp15
 70
     1
102
RTVSPropertyOp16
 70
     1
102
RTVSPropertyOp17
 70
     1
102
RTVSPropertyOp18
 70
     1
102
RTVSPropertyOp19
 70
     1
102
RTVSPropertyOp20
 70
     1
102
RTVSPropertyOp21
 70
     1
102
RTVSPropertyOp22
 70
     1
102
RTVSPropertyOp23
 70
     1
102
RTVSPropertyOp24
 70
     1
102
RTVSPropertyOp25
 70
     1
102
RTVSPropertyOp26
 70
     1
102
RTVSPropertyOp27
 70
     1
102
RTVSPropertyOp28
 70
     1
102
RTVSPropertyOp29
 70
     1
102
RTVSPropertyOp30
 70
     1
102
RTVSPropertyOp31
 70
     1
102
RTVSPropertyOp32
 70
     1
102
RTVSPropertyOp33
 70
     1
102
RTVSPropertyOp34
 70
     1
102
RTVSPropertyOp35
 70
     1
102
RTVSPropertyOp36
 70
     1
102
RTVSPropertyOp37
 70
     1
102
RTVSPropertyOp38
 70
     1
102
RTVSPropertyOp39
 70
     1
102
RTVSPropertyOp40
 70
     1
102
RTVSPropertyOp41
 70
     1
102
RTVSPropertyOp42
 70
     1
102
RTVSPropertyOp43
 70
     1
102
RTVSPropertyOp44
 70
     1
102
RTVSPropertyOp45
 70
     1
102
RTVSPropertyOp46
 70
     1
102
RTVSPropertyOp47
 70
     1
102
RTVSPropertyOp48
 70
     1
102
RTVSPropertyOp49
 70
     1
102
RTVSPropertyOp50
 70
     1
102
RTVSPropertyOp51
 70
     0
102
RTVSPropertyOp52
 70
     0
102
RTVSPropertyOp53
 70
     1
102
RTVSPropertyOp54
 70
     1
102
RTVSPropertyOp55
 70
     1
102
RTVSPropertyOp56
 70
     1
102
RTVSPropertyOp57
 70
     1
102
RTVSPropertyOp58
 70
     1
102
RTVSPropertyOp59
 70
     1
102
RTVSPropertyOp60
 70
     1
102
RTVSPropertyOp61
 70
     1
102
RTVSPropertyOp62
 70
     1
  0
XRECORD
  5
2456C
102
{ACAD_REACTORS
330
2456B
102
}
330
2456B
100
AcDbXrecord
280
     1
102
RTVSPost2010Prop28
280
     0
102
RTVSPost2010PropOp28
 70
     1
102
RTVSPost2010Prop29
280
     1
102
RTVSPost2010PropOp29
 70
     1
102
RTVSPost2010Prop30
280
     1
102
RTVSPost2010PropOp30
 70
     1
102
RTVSPost2010Prop31
280
     0
102
RTVSPost2010PropOp31
 70
     1
102
RTVSPost2010Prop32
280
     0
102
RTVSPost2010PropOp32
 70
     1
102
RTVSPost2010Prop33
280
     0
102
RTVSPost2010PropOp33
 70
     1
102
RTVSPost2010Prop34
280
     0
102
RTVSPost2010PropOp34
 70
     1
102
RTVSPost2010Prop35
280
     0
102
RTVSPost2010PropOp35
 70
     1
102
RTVSPost2010Prop36
280
     0
102
RTVSPost2010PropOp36
 70
     1
102
RTVSPost2010Prop37
 90
       50
102
RTVSPost2010PropOp37
 70
     1
102
RTVSPost2010Prop38
140
0.0
102
RTVSPost2010PropOp38
 70
     1
102
RTVSPost2010Prop39
140
1.0
102
RTVSPost2010PropOp39
 70
     1
102
RTVSPost2010Prop40
 90
        0
102
RTVSPost2010PropOp40
 70
     1
102
RTVSPost2010Prop41ColorIndex
 90
       18
102
RTVSPost2010Prop41ColorRGB
 90
        0
102
RTVSPost2010PropOp41
 70
     1
102
RTVSPost2010Prop42
 90
       50
102
RTVSPost2010PropOp42
 70
     1
102
RTVSPost2010Prop43
 90
        3
102
RTVSPost2010PropOp43
 70
     1
102
RTVSPost2010Prop44ColorIndex
 90
        5
102
RTVSPost2010Prop44ColorRGB
 90
      255
102
RTVSPost2010PropOp44
 70
     1
102
RTVSPost2010Prop45
280
     0
102
RTVSPost2010PropOp45
 70
     1
102
RTVSPost2010Prop46
 90
       50
102
RTVSPost2010PropOp46
 70
     1
102
RTVSPost2010Prop47
 90
       50
102
RTVSPost2010PropOp47
 70
     1
102
RTVSPost2010Prop48
 90
       50
102
RTVSPost2010PropOp48
 70
     1
102
RTVSPost2010Prop49
280
     0
102
RTVSPost2010PropOp49
 70
     1
102
RTVSPost2010Prop50
 90
       50
102
RTVSPost2010PropOp50
 70
     1
102
RTVSPost2010Prop51ColorIndex
 90
      256
102
RTVSPost2010Prop51ColorRGB
 90
-16777216
102
RTVSPost2010PropOp51
 70
     0
102
RTVSPost2010Prop52
140
1.0
102
RTVSPost2010PropOp52
 70
     0
102
RTVSPost2010Prop53
 90
        2
102
RTVSPost2010PropOp53
 70
     1
102
RTVSPost2010Prop54
  1
strokes_ogs.tif
102
RTVSPost2010PropOp54
 70
     1
102
RTVSPost2010Prop55
280
     0
102
RTVSPost2010PropOp55
 70
     1
102
RTVSPost2010Prop56
140
1.0
102
RTVSPost2010PropOp56
 70
     1
102
RTVSPost2010Prop57
140
1.0
102
RTVSPost2010PropOp57
 70
     1
102
RTVSPropertyOp0
 70
     1
102
RTVSPropertyOp1
 70
     1
102
RTVSPropertyOp2
 70
     1
102
RTVSPropertyOp3
 70
     1
102
RTVSPropertyOp4
 70
     1
102
RTVSPropertyOp5
 70
     1
102
RTVSPropertyOp6
 70
     1
102
RTVSPropertyOp7
 70
     1
102
RTVSPropertyOp8
 70
     1
102
RTVSPropertyOp9
 70
     1
102
RTVSPropertyOp10
 70
     1
102
RTVSPropertyOp11
 70
     1
102
RTVSPropertyOp12
 70
     1
102
RTVSPropertyOp13
 70
     1
102
RTVSPropertyOp14
 70
     1
102
RTVSPropertyOp15
 70
     1
102
RTVSPropertyOp16
 70
     1
102
RTVSPropertyOp17
 70
     1
102
RTVSPropertyOp18
 70
     1
102
RTVSPropertyOp19
 70
     1
102
RTVSPropertyOp20
 70
     1
102
RTVSPropertyOp21
 70
     1
102
RTVSPropertyOp22
 70
     1
102
RTVSPropertyOp23
 70
     1
102
RTVSPropertyOp24
 70
     1
102
RTVSPropertyOp25
 70
     1
102
RTVSPropertyOp26
 70
     1
102
RTVSPropertyOp27
 70
     1
102
RTVSPropertyOp28
 70
     1
102
RTVSPropertyOp29
 70
     1
102
RTVSPropertyOp30
 70
     1
102
RTVSPropertyOp31
 70
     1
102
RTVSPropertyOp32
 70
     1
102
RTVSPropertyOp33
 70
     1
102
RTVSPropertyOp34
 70
     1
102
RTVSPropertyOp35
 70
     1
102
RTVSPropertyOp36
 70
     1
102
RTVSPropertyOp37
 70
     1
102
RTVSPropertyOp38
 70
     1
102
RTVSPropertyOp39
 70
     1
102
RTVSPropertyOp40
 70
     1
102
RTVSPropertyOp41
 70
     1
102
RTVSPropertyOp42
 70
     1
102
RTVSPropertyOp43
 70
     1
102
RTVSPropertyOp44
 70
     1
102
RTVSPropertyOp45
 70
     1
102
RTVSPropertyOp46
 70
     1
102
RTVSPropertyOp47
 70
     1
102
RTVSPropertyOp48
 70
     1
102
RTVSPropertyOp49
 70
     1
102
RTVSPropertyOp50
 70
     1
102
RTVSPropertyOp51
 70
     0
102
RTVSPropertyOp52
 70
     0
102
RTVSPropertyOp53
 70
     1
102
RTVSPropertyOp54
 70
     1
102
RTVSPropertyOp55
 70
     1
102
RTVSPropertyOp56
 70
     1
102
RTVSPropertyOp57
 70
     1
102
RTVSPropertyOp58
 70
     1
102
RTVSPropertyOp59
 70
     1
102
RTVSPropertyOp60
 70
     1
102
RTVSPropertyOp61
 70
     1
102
RTVSPropertyOp62
 70
     1
  0
XRECORD
  5
24560
102
{ACAD_REACTORS
330
2455F
102
}
330
2455F
100
AcDbXrecord
280
     1
102
RTVSPost2010Prop28
280
     0
102
RTVSPost2010PropOp28
 70
     1
102
RTVSPost2010Prop29
280
     1
102
RTVSPost2010PropOp29
 70
     1
102
RTVSPost2010Prop30
280
     1
102
RTVSPost2010PropOp30
 70
     1
102
RTVSPost2010Prop31
280
     0
102
RTVSPost2010PropOp31
 70
     1
102
RTVSPost2010Prop32
280
     0
102
RTVSPost2010PropOp32
 70
     1
102
RTVSPost2010Prop33
280
     0
102
RTVSPost2010PropOp33
 70
     1
102
RTVSPost2010Prop34
280
     0
102
RTVSPost2010PropOp34
 70
     1
102
RTVSPost2010Prop35
280
     0
102
RTVSPost2010PropOp35
 70
     1
102
RTVSPost2010Prop36
280
     0
102
RTVSPost2010PropOp36
 70
     1
102
RTVSPost2010Prop37
 90
       50
102
RTVSPost2010PropOp37
 70
     1
102
RTVSPost2010Prop38
140
0.0
102
RTVSPost2010PropOp38
 70
     1
102
RTVSPost2010Prop39
140
1.0
102
RTVSPost2010PropOp39
 70
     1
102
RTVSPost2010Prop40
 90
        0
102
RTVSPost2010PropOp40
 70
     1
102
RTVSPost2010Prop41ColorIndex
 90
       18
102
RTVSPost2010Prop41ColorRGB
 90
        0
102
RTVSPost2010PropOp41
 70
     1
102
RTVSPost2010Prop42
 90
       50
102
RTVSPost2010PropOp42
 70
     1
102
RTVSPost2010Prop43
 90
        3
102
RTVSPost2010PropOp43
 70
     1
102
RTVSPost2010Prop44ColorIndex
 90
        5
102
RTVSPost2010Prop44ColorRGB
 90
      255
102
RTVSPost2010PropOp44
 70
     1
102
RTVSPost2010Prop45
280
     0
102
RTVSPost2010PropOp45
 70
     1
102
RTVSPost2010Prop46
 90
       50
102
RTVSPost2010PropOp46
 70
     1
102
RTVSPost2010Prop47
 90
       50
102
RTVSPost2010PropOp47
 70
     1
102
RTVSPost2010Prop48
 90
       50
102
RTVSPost2010PropOp48
 70
     1
102
RTVSPost2010Prop49
280
     0
102
RTVSPost2010PropOp49
 70
     1
102
RTVSPost2010Prop50
 90
       50
102
RTVSPost2010PropOp50
 70
     1
102
RTVSPost2010Prop51ColorIndex
 90
      256
102
RTVSPost2010Prop51ColorRGB
 90
-16777216
102
RTVSPost2010PropOp51
 70
     0
102
RTVSPost2010Prop52
140
1.0
102
RTVSPost2010PropOp52
 70
     0
102
RTVSPost2010Prop53
 90
        2
102
RTVSPost2010PropOp53
 70
     1
102
RTVSPost2010Prop54
  1
strokes_ogs.tif
102
RTVSPost2010PropOp54
 70
     1
102
RTVSPost2010Prop55
280
     0
102
RTVSPost2010PropOp55
 70
     1
102
RTVSPost2010Prop56
140
1.0
102
RTVSPost2010PropOp56
 70
     1
102
RTVSPost2010Prop57
140
1.0
102
RTVSPost2010PropOp57
 70
     1
102
RTVSPropertyOp0
 70
     1
102
RTVSPropertyOp1
 70
     1
102
RTVSPropertyOp2
 70
     1
102
RTVSPropertyOp3
 70
     1
102
RTVSPropertyOp4
 70
     1
102
RTVSPropertyOp5
 70
     1
102
RTVSPropertyOp6
 70
     1
102
RTVSPropertyOp7
 70
     1
102
RTVSPropertyOp8
 70
     1
102
RTVSPropertyOp9
 70
     1
102
RTVSPropertyOp10
 70
     1
102
RTVSPropertyOp11
 70
     1
102
RTVSPropertyOp12
 70
     1
102
RTVSPropertyOp13
 70
     1
102
RTVSPropertyOp14
 70
     1
102
RTVSPropertyOp15
 70
     1
102
RTVSPropertyOp16
 70
     1
102
RTVSPropertyOp17
 70
     1
102
RTVSPropertyOp18
 70
     1
102
RTVSPropertyOp19
 70
     1
102
RTVSPropertyOp20
 70
     1
102
RTVSPropertyOp21
 70
     1
102
RTVSPropertyOp22
 70
     1
102
RTVSPropertyOp23
 70
     1
102
RTVSPropertyOp24
 70
     1
102
RTVSPropertyOp25
 70
     1
102
RTVSPropertyOp26
 70
     1
102
RTVSPropertyOp27
 70
     1
102
RTVSPropertyOp28
 70
     1
102
RTVSPropertyOp29
 70
     1
102
RTVSPropertyOp30
 70
     1
102
RTVSPropertyOp31
 70
     1
102
RTVSPropertyOp32
 70
     1
102
RTVSPropertyOp33
 70
     1
102
RTVSPropertyOp34
 70
     1
102
RTVSPropertyOp35
 70
     1
102
RTVSPropertyOp36
 70
     1
102
RTVSPropertyOp37
 70
     1
102
RTVSPropertyOp38
 70
     1
102
RTVSPropertyOp39
 70
     1
102
RTVSPropertyOp40
 70
     1
102
RTVSPropertyOp41
 70
     1
102
RTVSPropertyOp42
 70
     1
102
RTVSPropertyOp43
 70
     1
102
RTVSPropertyOp44
 70
     1
102
RTVSPropertyOp45
 70
     1
102
RTVSPropertyOp46
 70
     1
102
RTVSPropertyOp47
 70
     1
102
RTVSPropertyOp48
 70
     1
102
RTVSPropertyOp49
 70
     1
102
RTVSPropertyOp50
 70
     1
102
RTVSPropertyOp51
 70
     0
102
RTVSPropertyOp52
 70
     0
102
RTVSPropertyOp53
 70
     1
102
RTVSPropertyOp54
 70
     1
102
RTVSPropertyOp55
 70
     1
102
RTVSPropertyOp56
 70
     1
102
RTVSPropertyOp57
 70
     1
102
RTVSPropertyOp58
 70
     1
102
RTVSPropertyOp59
 70
     1
102
RTVSPropertyOp60
 70
     1
102
RTVSPropertyOp61
 70
     1
102
RTVSPropertyOp62
 70
     1
  0
XRECORD
  5
24578
102
{ACAD_REACTORS
330
24577
102
}
330
24577
100
AcDbXrecord
280
     1
102
RTVSPost2010Prop28
280
     0
102
RTVSPost2010PropOp28
 70
     1
102
RTVSPost2010Prop29
280
     1
102
RTVSPost2010PropOp29
 70
     1
102
RTVSPost2010Prop30
280
     1
102
RTVSPost2010PropOp30
 70
     1
102
RTVSPost2010Prop31
280
     0
102
RTVSPost2010PropOp31
 70
     1
102
RTVSPost2010Prop32
280
     0
102
RTVSPost2010PropOp32
 70
     1
102
RTVSPost2010Prop33
280
     0
102
RTVSPost2010PropOp33
 70
     1
102
RTVSPost2010Prop34
280
     0
102
RTVSPost2010PropOp34
 70
     1
102
RTVSPost2010Prop35
280
     0
102
RTVSPost2010PropOp35
 70
     1
102
RTVSPost2010Prop36
280
     0
102
RTVSPost2010PropOp36
 70
     1
102
RTVSPost2010Prop37
 90
       50
102
RTVSPost2010PropOp37
 70
     1
102
RTVSPost2010Prop38
140
0.0
102
RTVSPost2010PropOp38
 70
     1
102
RTVSPost2010Prop39
140
1.0
102
RTVSPost2010PropOp39
 70
     1
102
RTVSPost2010Prop40
 90
        0
102
RTVSPost2010PropOp40
 70
     1
102
RTVSPost2010Prop41ColorIndex
 90
       18
102
RTVSPost2010Prop41ColorRGB
 90
        0
102
RTVSPost2010PropOp41
 70
     1
102
RTVSPost2010Prop42
 90
       50
102
RTVSPost2010PropOp42
 70
     1
102
RTVSPost2010Prop43
 90
        3
102
RTVSPost2010PropOp43
 70
     1
102
RTVSPost2010Prop44ColorIndex
 90
        5
102
RTVSPost2010Prop44ColorRGB
 90
      255
102
RTVSPost2010PropOp44
 70
     1
102
RTVSPost2010Prop45
280
     0
102
RTVSPost2010PropOp45
 70
     1
102
RTVSPost2010Prop46
 90
       50
102
RTVSPost2010PropOp46
 70
     1
102
RTVSPost2010Prop47
 90
       50
102
RTVSPost2010PropOp47
 70
     1
102
RTVSPost2010Prop48
 90
       50
102
RTVSPost2010PropOp48
 70
     1
102
RTVSPost2010Prop49
280
     0
102
RTVSPost2010PropOp49
 70
     1
102
RTVSPost2010Prop50
 90
       50
102
RTVSPost2010PropOp50
 70
     1
102
RTVSPost2010Prop51ColorIndex
 90
      256
102
RTVSPost2010Prop51ColorRGB
 90
-16777216
102
RTVSPost2010PropOp51
 70
     0
102
RTVSPost2010Prop52
140
1.0
102
RTVSPost2010PropOp52
 70
     0
102
RTVSPost2010Prop53
 90
        2
102
RTVSPost2010PropOp53
 70
     1
102
RTVSPost2010Prop54
  1
strokes_ogs.tif
102
RTVSPost2010PropOp54
 70
     1
102
RTVSPost2010Prop55
280
     0
102
RTVSPost2010PropOp55
 70
     1
102
RTVSPost2010Prop56
140
1.0
102
RTVSPost2010PropOp56
 70
     1
102
RTVSPost2010Prop57
140
1.0
102
RTVSPost2010PropOp57
 70
     1
102
RTVSPropertyOp0
 70
     1
102
RTVSPropertyOp1
 70
     1
102
RTVSPropertyOp2
 70
     1
102
RTVSPropertyOp3
 70
     1
102
RTVSPropertyOp4
 70
     1
102
RTVSPropertyOp5
 70
     1
102
RTVSPropertyOp6
 70
     1
102
RTVSPropertyOp7
 70
     1
102
RTVSPropertyOp8
 70
     1
102
RTVSPropertyOp9
 70
     1
102
RTVSPropertyOp10
 70
     1
102
RTVSPropertyOp11
 70
     1
102
RTVSPropertyOp12
 70
     1
102
RTVSPropertyOp13
 70
     1
102
RTVSPropertyOp14
 70
     1
102
RTVSPropertyOp15
 70
     1
102
RTVSPropertyOp16
 70
     1
102
RTVSPropertyOp17
 70
     1
102
RTVSPropertyOp18
 70
     1
102
RTVSPropertyOp19
 70
     1
102
RTVSPropertyOp20
 70
     1
102
RTVSPropertyOp21
 70
     1
102
RTVSPropertyOp22
 70
     1
102
RTVSPropertyOp23
 70
     1
102
RTVSPropertyOp24
 70
     1
102
RTVSPropertyOp25
 70
     1
102
RTVSPropertyOp26
 70
     1
102
RTVSPropertyOp27
 70
     1
102
RTVSPropertyOp28
 70
     1
102
RTVSPropertyOp29
 70
     1
102
RTVSPropertyOp30
 70
     1
102
RTVSPropertyOp31
 70
     1
102
RTVSPropertyOp32
 70
     1
102
RTVSPropertyOp33
 70
     1
102
RTVSPropertyOp34
 70
     1
102
RTVSPropertyOp35
 70
     1
102
RTVSPropertyOp36
 70
     1
102
RTVSPropertyOp37
 70
     1
102
RTVSPropertyOp38
 70
     1
102
RTVSPropertyOp39
 70
     1
102
RTVSPropertyOp40
 70
     1
102
RTVSPropertyOp41
 70
     1
102
RTVSPropertyOp42
 70
     1
102
RTVSPropertyOp43
 70
     1
102
RTVSPropertyOp44
 70
     1
102
RTVSPropertyOp45
 70
     1
102
RTVSPropertyOp46
 70
     1
102
RTVSPropertyOp47
 70
     1
102
RTVSPropertyOp48
 70
     1
102
RTVSPropertyOp49
 70
     1
102
RTVSPropertyOp50
 70
     1
102
RTVSPropertyOp51
 70
     0
102
RTVSPropertyOp52
 70
     0
102
RTVSPropertyOp53
 70
     1
102
RTVSPropertyOp54
 70
     1
102
RTVSPropertyOp55
 70
     1
102
RTVSPropertyOp56
 70
     1
102
RTVSPropertyOp57
 70
     1
102
RTVSPropertyOp58
 70
     1
102
RTVSPropertyOp59
 70
     1
102
RTVSPropertyOp60
 70
     1
102
RTVSPropertyOp61
 70
     1
102
RTVSPropertyOp62
 70
     1
  0
ENDSEC
  0
EOF
