  0
SECTION
  2
HEADER
  9
$ACADVER
  1
AC1015
  9
$ACADMAINTVER
 70
    20
  9
$DWGCODEPAGE
  3
ANSI_932
  9
$INSBASE
 10
0.0
 20
0.0
 30
0.0
  9
$EXTMIN
 10
139.9999999999995
 20
-0.0000000000000909
 30
0.0
  9
$EXTMAX
 10
16307.2
 20
11409.6
 30
0.0
  9
$LIMMIN
 10
0.0
 20
0.0
  9
$LIMMAX
 10
16800.0
 20
11880.0
  9
$ORTHOMODE
 70
     0
  9
$REGENMODE
 70
     1
  9
$FILLMODE
 70
     1
  9
$QTEXTMODE
 70
     0
  9
$MIRRTEXT
 70
     1
  9
$LTSCALE
 40
20.0
  9
$ATTMODE
 70
     1
  9
$TEXTSIZE
 40
100.0
  9
$TRACEWID
 40
1.0
  9
$TEXTSTYLE
  7
STYLE2
  9
$CLAYER
  8
細線
  9
$CELTYPE
  6
BYLAYER
  9
$CECOLOR
 62
   256
  9
$CELTSCALE
 40
50.0
  9
$DISPSILH
 70
     0
  9
$DIMSCALE
 40
40.0
  9
$DIMASZ
 40
2.5
  9
$DIMEXO
 40
0.5
  9
$DIMDLI
 40
7.0
  9
$DIMRND
 40
0.0
  9
$DIMDLE
 40
0.0
  9
$DIMEXE
 40
1.5
  9
$DIMTP
 40
0.0
  9
$DIMTM
 40
0.0
  9
$DIMTXT
 40
3.0
  9
$DIMCEN
 40
0.0
  9
$DIMTSZ
 40
0.0
  9
$DIMTOL
 70
     0
  9
$DIMLIM
 70
     0
  9
$DIMTIH
 70
     0
  9
$DIMTOH
 70
     0
  9
$DIMSE1
 70
     0
  9
$DIMSE2
 70
     0
  9
$DIMTAD
 70
     3
  9
$DIMZIN
 70
     8
  9
$DIMBLK
  1

  9
$DIMASO
 70
     1
  9
$DIMSHO
 70
     1
  9
$DIMPOST
  1

  9
$DIMAPOST
  1

  9
$DIMALT
 70
     0
  9
$DIMALTD
 70
     2
  9
$DIMALTF
 40
0.0394
  9
$DIMLFAC
 40
1.0
  9
$DIMTOFL
 70
     1
  9
$DIMTVP
 40
0.0
  9
$DIMTIX
 70
     0
  9
$DIMSOXD
 70
     0
  9
$DIMSAH
 70
     1
  9
$DIMBLK1
  1
DOTSMALL
  9
$DIMBLK2
  1
DOTSMALL
  9
$DIMSTYLE
  2
INABA_S40G
  9
$DIMCLRD
 70
     0
  9
$DIMCLRE
 70
     0
  9
$DIMCLRT
 70
     7
  9
$DIMTFAC
 40
1.0
  9
$DIMGAP
 40
1.0
  9
$DIMJUST
 70
     0
  9
$DIMSD1
 70
     0
  9
$DIMSD2
 70
     0
  9
$DIMTOLJ
 70
     1
  9
$DIMTZIN
 70
     0
  9
$DIMALTZ
 70
     0
  9
$DIMALTTZ
 70
     0
  9
$DIMUPT
 70
     0
  9
$DIMDEC
 70
     1
  9
$DIMTDEC
 70
     1
  9
$DIMALTU
 70
     2
  9
$DIMALTTD
 70
     2
  9
$DIMTXSTY
  7
STYLE1
  9
$DIMAUNIT
 70
     0
  9
$DIMADEC
 70
     0
  9
$DIMALTRND
 40
0.0
  9
$DIMAZIN
 70
     0
  9
$DIMDSEP
 70
    46
  9
$DIMATFIT
 70
     3
  9
$DIMFRAC
 70
     0
  9
$DIMLDRBLK
  1

  9
$DIMLUNIT
 70
     2
  9
$DIMLWD
 70
    -2
  9
$DIMLWE
 70
    -2
  9
$DIMTMOVE
 70
     1
  9
$LUNITS
 70
     2
  9
$LUPREC
 70
     1
  9
$SKETCHINC
 40
1.0
  9
$FILLETRAD
 40
0.0
  9
$AUNITS
 70
     0
  9
$AUPREC
 70
     0
  9
$MENU
  1
acad
  9
$ELEVATION
 40
0.0
  9
$PELEVATION
 40
0.0
  9
$THICKNESS
 40
0.0
  9
$LIMCHECK
 70
     0
  9
$CHAMFERA
 40
3.0
  9
$CHAMFERB
 40
3.0
  9
$CHAMFERC
 40
0.0
  9
$CHAMFERD
 40
0.0
  9
$SKPOLY
 70
     0
  9
$TDCREATE
 40
2451368.612993866
  9
$TDUCREATE
 40
2451368.237993866
  9
$TDUPDATE
 40
2456380.821772998
  9
$TDUUPDATE
 40
2456380.446772998
  9
$TDINDWG
 40
1.7613388426
  9
$TDUSRTIMER
 40
1.7613388426
  9
$USRTIMER
 70
     1
  9
$ANGBASE
 50
0.0
  9
$ANGDIR
 70
     0
  9
$PDMODE
 70
     3
  9
$PDSIZE
 40
2.0
  9
$PLINEWID
 40
0.0
  9
$SPLFRAME
 70
     0
  9
$SPLINETYPE
 70
     6
  9
$SPLINESEGS
 70
     8
  9
$HANDSEED
  5
2222F
  9
$SURFTAB1
 70
     6
  9
$SURFTAB2
 70
     6
  9
$SURFTYPE
 70
     6
  9
$SURFU
 70
     6
  9
$SURFV
 70
     6
  9
$UCSBASE
  2

  9
$UCSNAME
  2

  9
$UCSORG
 10
0.0
 20
0.0
 30
0.0
  9
$UCSXDIR
 10
1.0
 20
0.0
 30
0.0
  9
$UCSYDIR
 10
0.0
 20
1.0
 30
0.0
  9
$UCSORTHOREF
  2

  9
$UCSORTHOVIEW
 70
     0
  9
$UCSORGTOP
 10
0.0
 20
0.0
 30
0.0
  9
$UCSORGBOTTOM
 10
0.0
 20
0.0
 30
0.0
  9
$UCSORGLEFT
 10
0.0
 20
0.0
 30
0.0
  9
$UCSORGRIGHT
 10
0.0
 20
0.0
 30
0.0
  9
$UCSORGFRONT
 10
0.0
 20
0.0
 30
0.0
  9
$UCSORGBACK
 10
0.0
 20
0.0
 30
0.0
  9
$PUCSBASE
  2

  9
$PUCSNAME
  2

  9
$PUCSORG
 10
0.0
 20
0.0
 30
0.0
  9
$PUCSXDIR
 10
1.0
 20
0.0
 30
0.0
  9
$PUCSYDIR
 10
0.0
 20
1.0
 30
0.0
  9
$PUCSORTHOREF
  2

  9
$PUCSORTHOVIEW
 70
     0
  9
$PUCSORGTOP
 10
0.0
 20
0.0
 30
0.0
  9
$PUCSORGBOTTOM
 10
0.0
 20
0.0
 30
0.0
  9
$PUCSORGLEFT
 10
0.0
 20
0.0
 30
0.0
  9
$PUCSORGRIGHT
 10
0.0
 20
0.0
 30
0.0
  9
$PUCSORGFRONT
 10
0.0
 20
0.0
 30
0.0
  9
$PUCSORGBACK
 10
0.0
 20
0.0
 30
0.0
  9
$USERI1
 70
     0
  9
$USERI2
 70
     0
  9
$USERI3
 70
     0
  9
$USERI4
 70
     0
  9
$USERI5
 70
     0
  9
$USERR1
 40
0.0
  9
$USERR2
 40
0.0
  9
$USERR3
 40
0.0
  9
$USERR4
 40
0.0
  9
$USERR5
 40
0.0
  9
$WORLDVIEW
 70
     1
  9
$SHADEDGE
 70
     3
  9
$SHADEDIF
 70
    70
  9
$TILEMODE
 70
     1
  9
$MAXACTVP
 70
    16
  9
$PINSBASE
 10
0.0
 20
0.0
 30
0.0
  9
$PLIMCHECK
 70
     0
  9
$PEXTMIN
 10
1.000000000000000E+20
 20
1.000000000000000E+20
 30
1.000000000000000E+20
  9
$PEXTMAX
 10
-1.000000000000000E+20
 20
-1.000000000000000E+20
 30
-1.000000000000000E+20
  9
$PLIMMIN
 10
0.0
 20
0.0
  9
$PLIMMAX
 10
420.0
 20
297.0
  9
$UNITMODE
 70
     0
  9
$VISRETAIN
 70
     0
  9
$PLINEGEN
 70
     0
  9
$PSLTSCALE
 70
     0
  9
$TREEDEPTH
 70
  3020
  9
$CMLSTYLE
  2
STANDARD
  9
$CMLJUST
 70
     0
  9
$CMLSCALE
 40
1.0
  9
$PROXYGRAPHICS
 70
     1
  9
$MEASUREMENT
 70
     1
  9
$CELWEIGHT
370
    -1
  9
$ENDCAPS
280
     0
  9
$JOINSTYLE
280
     0
  9
$LWDISPLAY
290
     0
  9
$INSUNITS
 70
     0
  9
$HYPERLINKBASE
  1

  9
$STYLESHEET
  1
inabass.ctb
  9
$XEDIT
290
     1
  9
$CEPSNTYPE
380
     0
  9
$PSTYLEMODE
290
     1
  9
$FINGERPRINTGUID
  2
{3B57B35E-7D77-4BBF-81B7-6C583B9EB24C}
  9
$VERSIONGUID
  2
{CC26C24C-6D10-4A89-89D6-C0326304D80F}
  9
$EXTNAMES
290
     1
  9
$PSVPSCALE
 40
0.0
  9
$OLESTARTUP
290
     0
  0
ENDSEC
  0
SECTION
  2
CLASSES
  0
CLASS
  1
ACDBDICTIONARYWDFLT
  2
AcDbDictionaryWithDefault
  3
ObjectDBX Classes
 90
        0
280
     0
281
     0
  0
CLASS
  1
DICTIONARYVAR
  2
AcDbDictionaryVar
  3
ObjectDBX Classes
 90
        0
280
     0
281
     0
  0
CLASS
  1
ACDBPLACEHOLDER
  2
AcDbPlaceHolder
  3
ObjectDBX Classes
 90
        0
280
     0
281
     0
  0
CLASS
  1
LAYOUT
  2
AcDbLayout
  3
ObjectDBX Classes
 90
        0
280
     0
281
     0
  0
ENDSEC
  0
SECTION
  2
TABLES
  0
TABLE
  2
VPORT
  5
746D
330
0
100
AcDbSymbolTable
 70
     2
  0
VPORT
  5
22227
330
746D
100
AcDbSymbolTableRecord
100
AcDbViewportTableRecord
  2
*Active
 70
     0
 10
0.0
 20
0.0
 11
1.0
 21
1.0
 12
8223.761025238502
 22
5704.608130720468
 13
0.0
 23
0.0
 14
10.0
 24
10.0
 15
10.0
 25
10.0
 16
0.0
 26
0.0
 36
1.0
 17
0.0
 27
0.0
 37
0.0
 40
11503.43565097901
 41
1.706919945725915
 42
50.0
 43
0.0
 44
0.0
 50
0.0
 51
0.0
 71
     0
 72
     0
 73
     1
 74
     0
 75
     0
 76
     0
 77
     0
 78
     0
281
     0
 65
     1
110
0.0
120
0.0
130
0.0
111
1.0
121
0.0
131
0.0
112
0.0
122
1.0
132
0.0
 79
     0
146
0.0
  0
ENDTAB
  0
TABLE
  2
LTYPE
  5
746A
330
0
100
AcDbSymbolTable
 70
     3
  0
LTYPE
  5
7477
330
746A
100
AcDbSymbolTableRecord
100
AcDbLinetypeTableRecord
  2
BYBLOCK
 70
     0
  3

 72
    65
 73
     0
 40
0.0
  0
LTYPE
  5
7478
330
746A
100
AcDbSymbolTableRecord
100
AcDbLinetypeTableRecord
  2
BYLAYER
 70
     0
  3

 72
    65
 73
     0
 40
0.0
  0
LTYPE
  5
7479
330
746A
100
AcDbSymbolTableRecord
100
AcDbLinetypeTableRecord
  2
CONTINUOUS
 70
     0
  3
Solid line
 72
    65
 73
     0
 40
0.0
  0
LTYPE
  5
7816
330
746A
100
AcDbSymbolTableRecord
100
AcDbLinetypeTableRecord
  2
CENTER
 70
     0
  3
____ _ ____ _ ____ _ ____ _ ____ _ ____ _ ____ 
 72
    65
 73
     4
 40
2.0
 49
1.25
 74
     0
 49
-0.25
 74
     0
 49
0.25
 74
     0
 49
-0.25
 74
     0
  0
LTYPE
  5
781B
330
746A
100
AcDbSymbolTableRecord
100
AcDbLinetypeTableRecord
  2
PHANTOM
 70
     0
  3
______  __  __  ______  __  __  ______  __  __ 
 72
    65
 73
     6
 40
2.5
 49
1.25
 74
     0
 49
-0.25
 74
     0
 49
0.25
 74
     0
 49
-0.25
 74
     0
 49
0.25
 74
     0
 49
-0.25
 74
     0
  0
ENDTAB
  0
TABLE
  2
LAYER
  5
7467
102
{ACAD_XDICTIONARY
360
21244
102
}
330
0
100
AcDbSymbolTable
 70
    10
  0
LAYER
  5
7474
330
7467
100
AcDbSymbolTableRecord
100
AcDbLayerTableRecord
  2
0
 70
     0
 62
     7
  6
CONTINUOUS
370
    -3
390
159AE
  0
LAYER
  5
DEB2
330
7467
100
AcDbSymbolTableRecord
100
AcDbLayerTableRecord
  2
センター
 70
     0
 62
     3
  6
CENTER
370
    -3
390
159AE
  0
LAYER
  5
DEB3
330
7467
100
AcDbSymbolTableRecord
100
AcDbLayerTableRecord
  2
寸法
 70
     0
 62
     4
  6
CONTINUOUS
370
    -3
390
159AE
  0
LAYER
  5
DEB4
330
7467
100
AcDbSymbolTableRecord
100
AcDbLayerTableRecord
  2
部品1
 70
     0
 62
     7
  6
CONTINUOUS
370
    -3
390
159AE
  0
LAYER
  5
DEB5
330
7467
100
AcDbSymbolTableRecord
100
AcDbLayerTableRecord
  2
補助
 70
     0
 62
    -1
  6
CONTINUOUS
370
    -3
390
159AE
  0
LAYER
  5
DEB6
330
7467
100
AcDbSymbolTableRecord
100
AcDbLayerTableRecord
  2
文字
 70
     0
 62
     7
  6
CONTINUOUS
370
    -3
390
159AE
  0
LAYER
  5
F255
330
7467
100
AcDbSymbolTableRecord
100
AcDbLayerTableRecord
  2
DEFPOINTS
 70
     0
 62
     7
  6
CONTINUOUS
290
     0
370
    -3
390
159AE
  0
LAYER
  5
10B54
330
7467
100
AcDbSymbolTableRecord
100
AcDbLayerTableRecord
  2
仕様書枠
 70
     0
 62
   230
  6
CONTINUOUS
370
    -3
390
159AE
  0
LAYER
  5
1173F
330
7467
100
AcDbSymbolTableRecord
100
AcDbLayerTableRecord
  2
細線
 70
     0
 62
     5
  6
CONTINUOUS
370
    -3
390
159AE
  0
LAYER
  5
12CC4
330
7467
100
AcDbSymbolTableRecord
100
AcDbLayerTableRecord
  2
想像線
 70
     0
 62
     6
  6
PHANTOM
370
    -3
390
159AE
  0
ENDTAB
  0
TABLE
  2
STYLE
  5
7468
330
0
100
AcDbSymbolTable
 70
     3
  0
STYLE
  5
7475
330
7468
100
AcDbSymbolTableRecord
100
AcDbTextStyleTableRecord
  2
STANDARD
 70
     0
 40
0.0
 41
1.0
 50
0.0
 71
     0
 42
4.0
  3
txt
  4
C:\AutoCAD LT\bigfont.shx
  0
STYLE
  5
F706
330
7468
100
AcDbSymbolTableRecord
100
AcDbTextStyleTableRecord
  2
STYLE1
 70
     0
 40
0.0
 41
1.0
 50
0.0
 71
     0
 42
100.0
  3
isocp.shx
  4
bigfont.shx
  0
STYLE
  5
103BF
330
7468
100
AcDbSymbolTableRecord
100
AcDbTextStyleTableRecord
  2
STYLE2
 70
     0
 40
0.0
 41
1.0
 50
0.0
 71
     0
 42
100.0
  3
MS PGothic.ttf
  4

1001
ACAD
1000
MS PGothic
1071
    32818
  0
ENDTAB
  0
TABLE
  2
VIEW
  5
746B
330
0
100
AcDbSymbolTable
 70
     0
  0
ENDTAB
  0
TABLE
  2
UCS
  5
746C
330
0
100
AcDbSymbolTable
 70
     0
  0
ENDTAB
  0
TABLE
  2
APPID
  5
746E
330
0
100
AcDbSymbolTable
 70
     6
  0
APPID
  5
7476
330
746E
100
AcDbSymbolTableRecord
100
AcDbRegAppTableRecord
  2
ACAD
 70
     0
  0
APPID
  5
DEA9
330
746E
100
AcDbSymbolTableRecord
100
AcDbRegAppTableRecord
  2
CONTENTBLOCKICON
 70
     0
  0
APPID
  5
DEAA
330
746E
100
AcDbSymbolTableRecord
100
AcDbRegAppTableRecord
  2
CONTENTBLOCKDESCRIPTION
 70
     0
  0
APPID
  5
E71D
330
746E
100
AcDbSymbolTableRecord
100
AcDbRegAppTableRecord
  2
CONTENTTABDATA
 70
     0
  0
APPID
  5
E71E
330
746E
100
AcDbSymbolTableRecord
100
AcDbRegAppTableRecord
  2
CONTENTCURRENTTAB
 70
     0
  0
APPID
  5
F3BA
330
746E
100
AcDbSymbolTableRecord
100
AcDbRegAppTableRecord
  2
DRAWINGVARIABLESXDATA
 70
     0
  0
ENDTAB
  0
TABLE
  2
DIMSTYLE
  5
746F
330
0
100
AcDbSymbolTable
 70
     1
100
AcDbDimStyleTable
 71
     1
340
F71F
  0
DIMSTYLE
105
F71F
102
{ACAD_REACTORS
330
215C9
330
20342
330
1FEC1
330
1FE4B
330
1F249
330
1F248
330
1F11C
330
1E98B
330
1E96D
330
1E701
330
1D959
330
1D947
330
1D946
330
1D942
330
1D93F
330
1D93E
330
1D934
330
1D933
330
1D92D
330
1D92C
330
1D929
330
1D927
330
1D926
330
1D925
330
1D920
330
1D91D
330
1D91C
330
1D91B
330
22143
330
22158
330
22159
330
22162
330
220E3
330
220E9
102
}
330
746F
100
AcDbSymbolTableRecord
100
AcDbDimStyleTableRecord
  2
INABA_S40G
 70
     0
 40
40.0
 41
2.5
 42
0.5
 43
7.0
 44
1.5
 73
     0
 74
     0
 77
     3
 78
     8
140
3.0
141
0.0
143
0.0394
147
1.0
172
     1
173
     1
174
     1
178
     7
271
     1
288
     1
340
F706
341
F770
343
F770
344
F770
  0
ENDTAB
  0
TABLE
  2
BLOCK_RECORD
  5
7466
330
0
100
AcDbSymbolTable
 70
    39
  0
BLOCK_RECORD
  5
747D
330
7466
100
AcDbSymbolTableRecord
100
AcDbBlockTableRecord
  2
*MODEL_SPACE
340
159B3
  0
BLOCK_RECORD
  5
747A
330
7466
100
AcDbSymbolTableRecord
100
AcDbBlockTableRecord
  2
*PAPER_SPACE
340
159B4
  0
BLOCK_RECORD
  5
F770
330
7466
100
AcDbSymbolTableRecord
100
AcDbBlockTableRecord
  2
_DOTSMALL
340
0
102
{BLKREFS
331
1FE65
331
219D6
331
219D7
331
21A22
331
21A23
331
21A2B
331
21A2C
331
21A35
331
21A36
331
21A51
331
21A52
331
21A5B
331
21A5C
331
21A65
331
21A66
331
21A70
331
21A71
331
21A84
331
21A85
331
21A98
331
21A99
331
21AAB
331
21AAC
331
21ABF
331
21AC0
331
21AD0
331
21AD1
331
21AD9
331
21ADA
331
21B28
331
21B29
331
21B5A
331
21B5B
331
21BE9
331
21BEA
331
21C2C
331
21C2D
331
21C36
331
21C37
331
21C40
331
21C41
331
21C49
331
21C4A
331
21C5B
331
21C5C
331
21CF7
331
21CF8
331
21D73
331
21D74
331
21D65
331
21D66
331
21D59
331
21D5A
331
21D4D
331
21D4E
331
21D41
331
21D42
331
21D35
331
21D36
331
221C0
331
221C1
331
221C9
331
221CA
331
221D2
331
221D3
331
221DB
331
221DC
331
221E6
331
221E7
331
221EF
331
221F0
331
22214
331
22215
102
}
  0
BLOCK_RECORD
  5
1DA44
330
7466
100
AcDbSymbolTableRecord
100
AcDbBlockTableRecord
  2
*D1
340
0
  0
BLOCK_RECORD
  5
1DA51
330
7466
100
AcDbSymbolTableRecord
100
AcDbBlockTableRecord
  2
*D2
340
0
  0
BLOCK_RECORD
  5
1DA5E
330
7466
100
AcDbSymbolTableRecord
100
AcDbBlockTableRecord
  2
*D3
340
0
  0
BLOCK_RECORD
  5
1DA69
330
7466
100
AcDbSymbolTableRecord
100
AcDbBlockTableRecord
  2
*D4
340
0
  0
BLOCK_RECORD
  5
1DA74
330
7466
100
AcDbSymbolTableRecord
100
AcDbBlockTableRecord
  2
*D5
340
0
  0
BLOCK_RECORD
  5
1DA81
330
7466
100
AcDbSymbolTableRecord
100
AcDbBlockTableRecord
  2
*D6
340
0
  0
BLOCK_RECORD
  5
1DA8E
330
7466
100
AcDbSymbolTableRecord
100
AcDbBlockTableRecord
  2
*D7
340
0
  0
BLOCK_RECORD
  5
1DA9A
330
7466
100
AcDbSymbolTableRecord
100
AcDbBlockTableRecord
  2
*D8
340
0
  0
BLOCK_RECORD
  5
1DAA5
330
7466
100
AcDbSymbolTableRecord
100
AcDbBlockTableRecord
  2
*D9
340
0
  0
BLOCK_RECORD
  5
1DAB2
330
7466
100
AcDbSymbolTableRecord
100
AcDbBlockTableRecord
  2
*D10
340
0
  0
BLOCK_RECORD
  5
1DABE
330
7466
100
AcDbSymbolTableRecord
100
AcDbBlockTableRecord
  2
*D11
340
0
  0
BLOCK_RECORD
  5
1DACB
330
7466
100
AcDbSymbolTableRecord
100
AcDbBlockTableRecord
  2
*D12
340
0
  0
BLOCK_RECORD
  5
1DAD9
330
7466
100
AcDbSymbolTableRecord
100
AcDbBlockTableRecord
  2
*D13
340
0
  0
BLOCK_RECORD
  5
1DAE6
330
7466
100
AcDbSymbolTableRecord
100
AcDbBlockTableRecord
  2
*D14
340
0
  0
BLOCK_RECORD
  5
1DAF3
330
7466
100
AcDbSymbolTableRecord
100
AcDbBlockTableRecord
  2
*D15
340
0
  0
BLOCK_RECORD
  5
1DB00
330
7466
100
AcDbSymbolTableRecord
100
AcDbBlockTableRecord
  2
*D16
340
0
  0
BLOCK_RECORD
  5
1DB1A
330
7466
100
AcDbSymbolTableRecord
100
AcDbBlockTableRecord
  2
*D17
340
0
  0
BLOCK_RECORD
  5
1E9D0
330
7466
100
AcDbSymbolTableRecord
100
AcDbBlockTableRecord
  2
*D18
340
0
  0
BLOCK_RECORD
  5
1EA32
330
7466
100
AcDbSymbolTableRecord
100
AcDbBlockTableRecord
  2
*D19
340
0
  0
BLOCK_RECORD
  5
1F24A
330
7466
100
AcDbSymbolTableRecord
100
AcDbBlockTableRecord
  2
*D20
340
0
  0
BLOCK_RECORD
  5
1F255
330
7466
100
AcDbSymbolTableRecord
100
AcDbBlockTableRecord
  2
*D21
340
0
  0
BLOCK_RECORD
  5
1FE4C
330
7466
100
AcDbSymbolTableRecord
100
AcDbBlockTableRecord
  2
*D22
340
0
  0
BLOCK_RECORD
  5
20343
330
7466
100
AcDbSymbolTableRecord
100
AcDbBlockTableRecord
  2
*D23
340
0
  0
BLOCK_RECORD
  5
215CA
330
7466
100
AcDbSymbolTableRecord
100
AcDbBlockTableRecord
  2
*D24
340
0
  0
BLOCK_RECORD
  5
21CCC
330
7466
100
AcDbSymbolTableRecord
100
AcDbBlockTableRecord
  2
A$C0A8F5EFF
340
0
  0
BLOCK_RECORD
  5
21D30
330
7466
100
AcDbSymbolTableRecord
100
AcDbBlockTableRecord
  2
*D26
340
0
  0
BLOCK_RECORD
  5
21D3C
330
7466
100
AcDbSymbolTableRecord
100
AcDbBlockTableRecord
  2
*D27
340
0
  0
BLOCK_RECORD
  5
21D48
330
7466
100
AcDbSymbolTableRecord
100
AcDbBlockTableRecord
  2
*D28
340
0
  0
BLOCK_RECORD
  5
21D54
330
7466
100
AcDbSymbolTableRecord
100
AcDbBlockTableRecord
  2
*D29
340
0
  0
BLOCK_RECORD
  5
21D60
330
7466
100
AcDbSymbolTableRecord
100
AcDbBlockTableRecord
  2
*D30
340
0
  0
BLOCK_RECORD
  5
21D6C
330
7466
100
AcDbSymbolTableRecord
100
AcDbBlockTableRecord
  2
*D31
340
0
  0
BLOCK_RECORD
  5
21D7A
330
7466
100
AcDbSymbolTableRecord
100
AcDbBlockTableRecord
  2
A$C26D13346
340
0
  0
BLOCK_RECORD
  5
22173
330
7466
100
AcDbSymbolTableRecord
100
AcDbBlockTableRecord
  2
*D33
340
0
  0
BLOCK_RECORD
  5
2217F
330
7466
100
AcDbSymbolTableRecord
100
AcDbBlockTableRecord
  2
*D34
340
0
  0
BLOCK_RECORD
  5
2218B
330
7466
100
AcDbSymbolTableRecord
100
AcDbBlockTableRecord
  2
*D35
340
0
  0
BLOCK_RECORD
  5
22197
330
7466
100
AcDbSymbolTableRecord
100
AcDbBlockTableRecord
  2
*D36
340
0
  0
BLOCK_RECORD
  5
221A3
330
7466
100
AcDbSymbolTableRecord
100
AcDbBlockTableRecord
  2
*D37
340
0
  0
BLOCK_RECORD
  5
221B1
330
7466
100
AcDbSymbolTableRecord
100
AcDbBlockTableRecord
  2
*D38
340
0
  0
ENDTAB
  0
ENDSEC
  0
SECTION
  2
BLOCKS
  0
BLOCK
  5
7489
330
747D
100
AcDbEntity
  8
0
100
AcDbBlockBegin
  2
*MODEL_SPACE
 70
     0
 10
0.0
 20
0.0
 30
0.0
  3
*MODEL_SPACE
  1

  0
ENDBLK
  5
748A
330
747D
100
AcDbEntity
  8
0
100
AcDbBlockEnd
  0
BLOCK
  5
7487
330
747A
100
AcDbEntity
 67
     1
  8
0
100
AcDbBlockBegin
  2
*PAPER_SPACE
 70
     0
 10
0.0
 20
0.0
 30
0.0
  3
*PAPER_SPACE
  1

  0
ENDBLK
  5
7488
330
747A
100
AcDbEntity
 67
     1
  8
0
100
AcDbBlockEnd
  0
BLOCK
  5
F771
330
F770
100
AcDbEntity
  8
0
 48
50.0
100
AcDbBlockBegin
  2
_DOTSMALL
 70
     0
 10
0.0
 20
0.0
 30
0.0
  3
_DOTSMALL
  1

  0
LWPOLYLINE
  5
F772
330
F770
100
AcDbEntity
  8
0
  6
ByBlock
 62
     0
 48
50.0
100
AcDbPolyline
 90
        2
 70
     1
 43
0.5
 10
-0.0625
 20
0.0
 42
1.0
 10
0.0625
 20
0.0
 42
1.0
  0
ENDBLK
  5
F776
330
F770
100
AcDbEntity
  8
0
 48
50.0
100
AcDbBlockEnd
  0
BLOCK
  5
1DA4F
330
1DA44
100
AcDbEntity
  8
0
 48
50.0
100
AcDbBlockBegin
  2
*D1
 70
     1
 10
0.0
 20
0.0
 30
0.0
  3
*D1
  1

  0
LINE
  5
21B55
330
1DA44
100
AcDbEntity
  8
寸法
 62
     0
 48
50.0
370
    -2
100
AcDbLine
 10
7259.266553439463
 20
5719.655613631793
 30
0.0
 11
7515.97380331556
 21
5719.655613631793
 31
0.0
  0
LINE
  5
21B56
330
1DA44
100
AcDbEntity
  8
寸法
 62
     0
 48
50.0
370
    -2
100
AcDbLine
 10
7259.266553439463
 20
5829.655613631795
 30
0.0
 11
7515.97380331556
 21
5829.655613631795
 31
0.0
  0
LINE
  5
21B57
330
1DA44
100
AcDbEntity
  8
寸法
 62
     0
 48
50.0
370
    -2
100
AcDbLine
 10
7455.973803315561
 20
5719.655613631793
 30
0.0
 11
7455.973803315561
 21
5829.655613631795
 31
0.0
  0
LINE
  5
21B58
330
1DA44
100
AcDbEntity
  8
寸法
 62
     0
 48
50.0
370
    -2
100
AcDbLine
 10
7455.973803315562
 20
6259.750101820773
 30
0.0
 11
7455.973803315561
 21
5829.655613631795
 31
0.0
  0
MTEXT
  5
21B59
330
1DA44
100
AcDbEntity
  8
寸法
 62
     7
 48
50.0
100
AcDbMText
 10
7355.97380331556
 20
6135.702857726286
 30
0.0
 40
120.0
 41
0.0
 71
     5
 72
     1
  1
\A1;110
  7
STYLE1
 11
0.0000000000000001
 21
1.0
 31
0.0
 73
     1
 44
1.0
1001
ACAD
1000
MTEXTBEGIN
1070
    73
1070
     1
1070
    44
1040
1.0
1070
    74
1070
     0
1000
MTEXTEND
  0
INSERT
  5
21B5A
330
1DA44
100
AcDbEntity
  8
寸法
 62
     0
 48
50.0
370
    -2
100
AcDbBlockReference
  2
_DOTSMALL
 10
7455.973803315561
 20
5719.655613631793
 30
0.0
 41
100.0
 42
100.0
 43
100.0
 50
270.0
  0
INSERT
  5
21B5B
330
1DA44
100
AcDbEntity
  8
寸法
 62
     0
 48
50.0
370
    -2
100
AcDbBlockReference
  2
_DOTSMALL
 10
7455.973803315561
 20
5829.655613631795
 30
0.0
 41
100.0
 42
100.0
 43
100.0
 50
90.0
  0
POINT
  5
21B5C
330
1DA44
100
AcDbEntity
  8
DEFPOINTS
 62
     0
 48
50.0
100
AcDbPoint
 10
7239.266553439462
 20
5719.655613631793
 30
0.0
  0
POINT
  5
21B5D
330
1DA44
100
AcDbEntity
  8
DEFPOINTS
 62
     0
 48
50.0
100
AcDbPoint
 10
7239.266553439462
 20
5829.655613631795
 30
0.0
  0
POINT
  5
21B5E
330
1DA44
100
AcDbEntity
  8
DEFPOINTS
 62
     0
 48
50.0
100
AcDbPoint
 10
7455.973803315561
 20
5829.655613631795
 30
0.0
  0
ENDBLK
  5
1DA50
330
1DA44
100
AcDbEntity
  8
0
 48
50.0
100
AcDbBlockEnd
  0
BLOCK
  5
1DA5C
330
1DA51
100
AcDbEntity
  8
0
 48
50.0
100
AcDbBlockBegin
  2
*D2
 70
     1
 10
0.0
 20
0.0
 30
0.0
  3
*D2
  1

  0
LINE
  5
21CF3
330
1DA51
100
AcDbEntity
  8
寸法
 62
     0
 48
50.0
370
    -2
100
AcDbLine
 10
7259.266553439463
 20
5719.655613631795
 30
0.0
 11
7515.973803315562
 21
5719.655613631795
 31
0.0
  0
LINE
  5
21CF4
330
1DA51
100
AcDbEntity
  8
寸法
 62
     0
 48
50.0
370
    -2
100
AcDbLine
 10
7259.266553439463
 20
5599.65561363181
 30
0.0
 11
7515.973803315562
 21
5599.65561363181
 31
0.0
  0
LINE
  5
21CF5
330
1DA51
100
AcDbEntity
  8
寸法
 62
     0
 48
50.0
370
    -2
100
AcDbLine
 10
7455.973803315562
 20
5719.655613631795
 30
0.0
 11
7455.973803315562
 21
5599.65561363181
 31
0.0
  0
LINE
  5
21CF6
330
1DA51
100
AcDbEntity
  8
寸法
 62
     0
 48
50.0
370
    -2
100
AcDbLine
 10
7455.973803315562
 20
5599.65561363181
 30
0.0
 11
7455.973803315562
 21
5227.561125442834
 31
0.0
  0
INSERT
  5
21CF7
330
1DA51
100
AcDbEntity
  8
寸法
 62
     0
 48
50.0
370
    -2
100
AcDbBlockReference
  2
_DOTSMALL
 10
7455.973803315562
 20
5719.655613631795
 30
0.0
 41
100.0
 42
100.0
 43
100.0
 50
90.0
  0
INSERT
  5
21CF8
330
1DA51
100
AcDbEntity
  8
寸法
 62
     0
 48
50.0
370
    -2
100
AcDbBlockReference
  2
_DOTSMALL
 10
7455.973803315562
 20
5599.65561363181
 30
0.0
 41
100.0
 42
100.0
 43
100.0
 50
270.0
  0
MTEXT
  5
21CF9
330
1DA51
100
AcDbEntity
  8
寸法
 62
     7
 48
50.0
100
AcDbMText
 10
7355.961992291939
 20
5363.608369537324
 30
0.0
 40
120.0
 41
0.0
 71
     5
 72
     1
  1
\A1;120
  7
STYLE1
 11
0.0000000000000001
 21
1.0
 31
0.0
 73
     1
 44
1.0
1001
ACAD
1000
MTEXTBEGIN
1070
    73
1070
     1
1070
    44
1040
1.0
1070
    74
1070
     0
1000
MTEXTEND
  0
POINT
  5
21CFA
330
1DA51
100
AcDbEntity
  8
DEFPOINTS
 62
     0
 48
50.0
100
AcDbPoint
 10
7239.266553439462
 20
5719.655613631795
 30
0.0
  0
POINT
  5
21CFB
330
1DA51
100
AcDbEntity
  8
DEFPOINTS
 62
     0
 48
50.0
100
AcDbPoint
 10
7239.266553439462
 20
5599.65561363181
 30
0.0
  0
POINT
  5
21CFC
330
1DA51
100
AcDbEntity
  8
DEFPOINTS
 62
     0
 48
50.0
100
AcDbPoint
 10
7455.973803315562
 20
5599.65561363181
 30
0.0
  0
ENDBLK
  5
1DA5D
330
1DA51
100
AcDbEntity
  8
0
 48
50.0
100
AcDbBlockEnd
  0
BLOCK
  5
1DA67
330
1DA5E
100
AcDbEntity
  8
0
 48
50.0
100
AcDbBlockBegin
  2
*D3
 70
     1
 10
0.0
 20
0.0
 30
0.0
  3
*D3
  1

  0
LINE
  5
21AD6
330
1DA5E
100
AcDbEntity
  8
寸法
 62
     0
 48
50.0
370
    -2
100
AcDbLine
 10
9526.266553439461
 20
7766.655613631792
 30
0.0
 11
9526.266553439461
 21
8632.987424591645
 31
0.0
  0
LINE
  5
21AD7
330
1DA5E
100
AcDbEntity
  8
寸法
 62
     0
 48
50.0
370
    -2
100
AcDbLine
 10
7132.266553439461
 20
7766.655613631792
 30
0.0
 11
7132.266553439461
 21
8632.987424591645
 31
0.0
  0
LINE
  5
21AD8
330
1DA5E
100
AcDbEntity
  8
寸法
 62
     0
 48
50.0
370
    -2
100
AcDbLine
 10
9526.266553439461
 20
8572.987424591643
 30
0.0
 11
7132.266553439461
 21
8572.987424591643
 31
0.0
  0
INSERT
  5
21AD9
330
1DA5E
100
AcDbEntity
  8
寸法
 62
     0
 48
50.0
370
    -2
100
AcDbBlockReference
  2
_DOTSMALL
 10
9526.266553439461
 20
8572.987424591643
 30
0.0
 41
100.0
 42
100.0
 43
100.0
  0
INSERT
  5
21ADA
330
1DA5E
100
AcDbEntity
  8
寸法
 62
     0
 48
50.0
370
    -2
100
AcDbBlockReference
  2
_DOTSMALL
 10
7132.266553439461
 20
8572.987424591643
 30
0.0
 41
100.0
 42
100.0
 43
100.0
 50
180.0
  0
MTEXT
  5
21ADB
330
1DA5E
100
AcDbEntity
  8
寸法
 62
     7
 48
50.0
100
AcDbMText
 10
8329.266553439461
 20
8672.999235615264
 30
0.0
 40
120.0
 41
0.0
 71
     5
 72
     1
  1
\A1;2394
  7
STYLE1
 73
     1
 44
1.0
1001
ACAD
1000
MTEXTBEGIN
1070
    73
1070
     1
1070
    44
1040
1.0
1070
    74
1070
     0
1000
MTEXTEND
  0
POINT
  5
21ADC
330
1DA5E
100
AcDbEntity
  8
DEFPOINTS
 62
     0
 48
50.0
100
AcDbPoint
 10
9526.266553439461
 20
7746.655613631792
 30
0.0
  0
POINT
  5
21ADD
330
1DA5E
100
AcDbEntity
  8
DEFPOINTS
 62
     0
 48
50.0
100
AcDbPoint
 10
7132.266553439461
 20
7746.655613631792
 30
0.0
  0
POINT
  5
21ADE
330
1DA5E
100
AcDbEntity
  8
DEFPOINTS
 62
     0
 48
50.0
100
AcDbPoint
 10
7132.266553439461
 20
8572.987424591643
 30
0.0
  0
ENDBLK
  5
1DA68
330
1DA5E
100
AcDbEntity
  8
0
 48
50.0
100
AcDbBlockEnd
  0
BLOCK
  5
1DA72
330
1DA69
100
AcDbEntity
  8
0
 48
50.0
100
AcDbBlockBegin
  2
*D4
 70
     1
 10
0.0
 20
0.0
 30
0.0
  3
*D4
  1

  0
LINE
  5
21ACD
330
1DA69
100
AcDbEntity
  8
寸法
 62
     0
 48
50.0
370
    -2
100
AcDbLine
 10
7009.266553439459
 20
7839.655613631791
 30
0.0
 11
7009.266553439459
 21
8845.44812010848
 31
0.0
  0
LINE
  5
21ACE
330
1DA69
100
AcDbEntity
  8
寸法
 62
     0
 48
50.0
370
    -2
100
AcDbLine
 10
9649.266553439462
 20
7839.655613631792
 30
0.0
 11
9649.266553439462
 21
8845.44812010848
 31
0.0
  0
LINE
  5
21ACF
330
1DA69
100
AcDbEntity
  8
寸法
 62
     0
 48
50.0
370
    -2
100
AcDbLine
 10
7009.266553439459
 20
8785.44812010848
 30
0.0
 11
9649.266553439462
 21
8785.44812010848
 31
0.0
  0
INSERT
  5
21AD0
330
1DA69
100
AcDbEntity
  8
寸法
 62
     0
 48
50.0
370
    -2
100
AcDbBlockReference
  2
_DOTSMALL
 10
7009.266553439459
 20
8785.44812010848
 30
0.0
 41
100.0
 42
100.0
 43
100.0
 50
180.0
  0
INSERT
  5
21AD1
330
1DA69
100
AcDbEntity
  8
寸法
 62
     0
 48
50.0
370
    -2
100
AcDbBlockReference
  2
_DOTSMALL
 10
9649.266553439462
 20
8785.44812010848
 30
0.0
 41
100.0
 42
100.0
 43
100.0
  0
MTEXT
  5
21AD2
330
1DA69
100
AcDbEntity
  8
寸法
 62
     7
 48
50.0
100
AcDbMText
 10
8329.266553439461
 20
8885.459931132102
 30
0.0
 40
120.0
 41
0.0
 71
     5
 72
     1
  1
\A1;2640
  7
STYLE1
 73
     1
 44
1.0
1001
ACAD
1000
MTEXTBEGIN
1070
    73
1070
     1
1070
    44
1040
1.0
1070
    74
1070
     0
1000
MTEXTEND
  0
POINT
  5
21AD3
330
1DA69
100
AcDbEntity
  8
DEFPOINTS
 62
     0
 48
50.0
100
AcDbPoint
 10
7009.266553439459
 20
7819.655613631791
 30
0.0
  0
POINT
  5
21AD4
330
1DA69
100
AcDbEntity
  8
DEFPOINTS
 62
     0
 48
50.0
100
AcDbPoint
 10
9649.266553439462
 20
7819.655613631794
 30
0.0
  0
POINT
  5
21AD5
330
1DA69
100
AcDbEntity
  8
DEFPOINTS
 62
     0
 48
50.0
100
AcDbPoint
 10
9649.266553439462
 20
8785.44812010848
 30
0.0
  0
ENDBLK
  5
1DA73
330
1DA69
100
AcDbEntity
  8
0
 48
50.0
100
AcDbBlockEnd
  0
BLOCK
  5
1DA7F
330
1DA74
100
AcDbEntity
  8
0
 48
50.0
100
AcDbBlockBegin
  2
*D5
 70
     1
 10
0.0
 20
0.0
 30
0.0
  3
*D5
  1

  0
LINE
  5
21C32
330
1DA74
100
AcDbEntity
  8
寸法
 62
     0
 48
50.0
370
    -2
100
AcDbLine
 10
7132.266553439461
 20
7766.655613631792
 30
0.0
 11
7132.266553439461
 21
8632.987424591645
 31
0.0
  0
LINE
  5
21C33
330
1DA74
100
AcDbEntity
  8
寸法
 62
     0
 48
50.0
370
    -2
100
AcDbLine
 10
7009.266553439459
 20
7839.655613631791
 30
0.0
 11
7009.266553439459
 21
8632.987424591645
 31
0.0
  0
LINE
  5
21C34
330
1DA74
100
AcDbEntity
  8
寸法
 62
     0
 48
50.0
370
    -2
100
AcDbLine
 10
7132.266553439461
 20
8572.987424591643
 30
0.0
 11
7009.266553439459
 21
8572.987424591643
 31
0.0
  0
LINE
  5
21C35
330
1DA74
100
AcDbEntity
  8
寸法
 62
     0
 48
50.0
370
    -2
100
AcDbLine
 10
7009.266553439459
 20
8572.987424591643
 30
0.0
 11
6632.295990690983
 21
8572.987424591643
 31
0.0
  0
INSERT
  5
21C36
330
1DA74
100
AcDbEntity
  8
寸法
 62
     0
 48
50.0
370
    -2
100
AcDbBlockReference
  2
_DOTSMALL
 10
7132.266553439461
 20
8572.987424591643
 30
0.0
 41
100.0
 42
100.0
 43
100.0
  0
INSERT
  5
21C37
330
1DA74
100
AcDbEntity
  8
寸法
 62
     0
 48
50.0
370
    -2
100
AcDbBlockReference
  2
_DOTSMALL
 10
7009.266553439459
 20
8572.987424591643
 30
0.0
 41
100.0
 42
100.0
 43
100.0
 50
180.0
  0
MTEXT
  5
21C38
330
1DA74
100
AcDbEntity
  8
寸法
 62
     7
 48
50.0
100
AcDbMText
 10
6770.781272065221
 20
8672.999235615264
 30
0.0
 40
120.0
 41
0.0
 71
     5
 72
     1
  1
\A1;123
  7
STYLE1
 73
     1
 44
1.0
1001
ACAD
1000
MTEXTBEGIN
1070
    73
1070
     1
1070
    44
1040
1.0
1070
    74
1070
     0
1000
MTEXTEND
  0
POINT
  5
21C39
330
1DA74
100
AcDbEntity
  8
DEFPOINTS
 62
     0
 48
50.0
100
AcDbPoint
 10
7132.266553439461
 20
7746.655613631792
 30
0.0
  0
POINT
  5
21C3A
330
1DA74
100
AcDbEntity
  8
DEFPOINTS
 62
     0
 48
50.0
100
AcDbPoint
 10
7009.266553439459
 20
7819.655613631791
 30
0.0
  0
POINT
  5
21C3B
330
1DA74
100
AcDbEntity
  8
DEFPOINTS
 62
     0
 48
50.0
100
AcDbPoint
 10
7009.266553439459
 20
8572.987424591643
 30
0.0
  0
ENDBLK
  5
1DA80
330
1DA74
100
AcDbEntity
  8
0
 48
50.0
100
AcDbBlockEnd
  0
BLOCK
  5
1DA8C
330
1DA81
100
AcDbEntity
  8
0
 48
50.0
100
AcDbBlockBegin
  2
*D6
 70
     1
 10
0.0
 20
0.0
 30
0.0
  3
*D6
  1

  0
LINE
  5
21AB9
330
1DA81
100
AcDbEntity
  8
寸法
 62
     0
 48
50.0
370
    -2
100
AcDbLine
 10
6964.266553439458
 20
8592.987424591644
 30
0.0
 11
6964.266553439458
 21
8845.448120108482
 31
0.0
  0
LINE
  5
21ABA
330
1DA81
100
AcDbEntity
  8
寸法
 62
     0
 48
50.0
370
    -2
100
AcDbLine
 10
7009.266553439463
 20
7987.926814201713
 30
0.0
 11
7009.266553439463
 21
8845.448120108482
 31
0.0
  0
LINE
  5
21ABB
330
1DA81
100
AcDbEntity
  8
寸法
 62
     0
 48
50.0
370
    -2
100
AcDbLine
 10
6964.266553439458
 20
8785.448120108481
 30
0.0
 11
6864.266553439458
 21
8785.448120108481
 31
0.0
  0
LINE
  5
21ABC
330
1DA81
100
AcDbEntity
  8
寸法
 62
     0
 48
50.0
370
    -2
100
AcDbLine
 10
7009.266553439463
 20
8785.448120108481
 30
0.0
 11
7109.266553439463
 21
8785.448120108481
 31
0.0
  0
MTEXT
  5
21ABD
330
1DA81
100
AcDbEntity
  8
寸法
 62
     7
 48
50.0
100
AcDbMText
 10
6986.76655343946
 20
8885.448120108483
 30
0.0
 40
120.0
 41
0.0
 71
     5
 72
     1
  1
\A1;a
  7
STYLE1
 73
     1
 44
1.0
1001
ACAD
1000
MTEXTBEGIN
1070
    73
1070
     1
1070
    44
1040
1.0
1070
    74
1070
     0
1000
MTEXTEND
  0
LINE
  5
21ABE
330
1DA81
100
AcDbEntity
  8
寸法
 62
     0
 48
50.0
370
    -2
100
AcDbLine
 10
6964.266553439458
 20
8785.448120108481
 30
0.0
 11
7009.266553439463
 21
8785.448120108481
 31
0.0
  0
INSERT
  5
21ABF
330
1DA81
100
AcDbEntity
  8
寸法
 62
     0
 48
50.0
370
    -2
100
AcDbBlockReference
  2
_DOTSMALL
 10
6964.266553439458
 20
8785.448120108481
 30
0.0
 41
100.0
 42
100.0
 43
100.0
  0
INSERT
  5
21AC0
330
1DA81
100
AcDbEntity
  8
寸法
 62
     0
 48
50.0
370
    -2
100
AcDbBlockReference
  2
_DOTSMALL
 10
7009.266553439463
 20
8785.448120108481
 30
0.0
 41
100.0
 42
100.0
 43
100.0
 50
180.0
  0
POINT
  5
21AC1
330
1DA81
100
AcDbEntity
  8
DEFPOINTS
 62
     0
 48
50.0
100
AcDbPoint
 10
6964.266553439458
 20
8572.987424591643
 30
0.0
  0
POINT
  5
21AC2
330
1DA81
100
AcDbEntity
  8
DEFPOINTS
 62
     0
 48
50.0
100
AcDbPoint
 10
7009.266553439463
 20
7967.926814201714
 30
0.0
  0
POINT
  5
21AC3
330
1DA81
100
AcDbEntity
  8
DEFPOINTS
 62
     0
 48
50.0
100
AcDbPoint
 10
7009.266553439463
 20
8785.448120108481
 30
0.0
  0
ENDBLK
  5
1DA8D
330
1DA81
100
AcDbEntity
  8
0
 48
50.0
100
AcDbBlockEnd
  0
BLOCK
  5
1DA98
330
1DA8E
100
AcDbEntity
  8
0
 48
50.0
100
AcDbBlockBegin
  2
*D7
 70
     1
 10
0.0
 20
0.0
 30
0.0
  3
*D7
  1

  0
LINE
  5
21B24
330
1DA8E
100
AcDbEntity
  8
寸法
 62
     0
 48
50.0
370
    -2
100
AcDbLine
 10
7062.266553439461
 20
7696.655613631792
 30
0.0
 11
6453.324287425641
 21
7696.655613631792
 31
0.0
  0
LINE
  5
21B25
330
1DA8E
100
AcDbEntity
  8
寸法
 62
     0
 48
50.0
370
    -2
100
AcDbLine
 10
7062.26655343947
 20
5722.655613631793
 30
0.0
 11
6453.324287425641
 21
5722.655613631793
 31
0.0
  0
LINE
  5
21B26
330
1DA8E
100
AcDbEntity
  8
寸法
 62
     0
 48
50.0
370
    -2
100
AcDbLine
 10
6513.324287425643
 20
7696.655613631792
 30
0.0
 11
6513.324287425641
 21
5722.655613631793
 31
0.0
  0
MTEXT
  5
21B27
330
1DA8E
100
AcDbEntity
  8
寸法
 62
     7
 48
50.0
100
AcDbMText
 10
6413.324287425641
 20
6708.652455172035
 30
0.0
 40
120.0
 41
0.0
 71
     5
 72
     1
  1
\A1;1974
  7
STYLE1
 11
0.0000000000000001
 21
1.0
 31
0.0
 73
     1
 44
1.0
1001
ACAD
1000
MTEXTBEGIN
1070
    73
1070
     1
1070
    44
1040
1.0
1070
    74
1070
     0
1000
MTEXTEND
  0
INSERT
  5
21B28
330
1DA8E
100
AcDbEntity
  8
寸法
 62
     0
 48
50.0
370
    -2
100
AcDbBlockReference
  2
_DOTSMALL
 10
6513.324287425643
 20
7696.655613631792
 30
0.0
 41
100.0
 42
100.0
 43
100.0
 50
90.0
  0
INSERT
  5
21B29
330
1DA8E
100
AcDbEntity
  8
寸法
 62
     0
 48
50.0
370
    -2
100
AcDbBlockReference
  2
_DOTSMALL
 10
6513.324287425641
 20
5722.655613631793
 30
0.0
 41
100.0
 42
100.0
 43
100.0
 50
270.0
  0
POINT
  5
21B2A
330
1DA8E
100
AcDbEntity
  8
DEFPOINTS
 62
     0
 48
50.0
100
AcDbPoint
 10
7082.266553439461
 20
7696.655613631792
 30
0.0
  0
POINT
  5
21B2B
330
1DA8E
100
AcDbEntity
  8
DEFPOINTS
 62
     0
 48
50.0
100
AcDbPoint
 10
7082.26655343947
 20
5722.655613631793
 30
0.0
  0
POINT
  5
21B2C
330
1DA8E
100
AcDbEntity
  8
DEFPOINTS
 62
     0
 48
50.0
100
AcDbPoint
 10
6513.324287425641
 20
5722.655613631793
 30
0.0
  0
ENDBLK
  5
1DA99
330
1DA8E
100
AcDbEntity
  8
0
 48
50.0
100
AcDbBlockEnd
  0
BLOCK
  5
1DAA3
330
1DA9A
100
AcDbEntity
  8
0
 48
50.0
100
AcDbBlockBegin
  2
*D8
 70
     1
 10
0.0
 20
0.0
 30
0.0
  3
*D8
  1

  0
LINE
  5
21AA7
330
1DA9A
100
AcDbEntity
  8
寸法
 62
     0
 48
50.0
370
    -2
100
AcDbLine
 10
6989.26655343946
 20
7819.655613631794
 30
0.0
 11
6207.057863179307
 21
7819.655613631794
 31
0.0
  0
LINE
  5
21AA8
330
1DA9A
100
AcDbEntity
  8
寸法
 62
     0
 48
50.0
370
    -2
100
AcDbLine
 10
6989.266553439462
 20
5599.655613631791
 30
0.0
 11
6207.057863179306
 21
5599.655613631791
 31
0.0
  0
LINE
  5
21AA9
330
1DA9A
100
AcDbEntity
  8
寸法
 62
     0
 48
50.0
370
    -2
100
AcDbLine
 10
6267.057863179307
 20
7819.655613631794
 30
0.0
 11
6267.057863179307
 21
5599.655613631791
 31
0.0
  0
MTEXT
  5
21AAA
330
1DA9A
100
AcDbEntity
  8
寸法
 62
     7
 48
50.0
100
AcDbMText
 10
6167.046052155683
 20
6709.655613631793
 30
0.0
 40
120.0
 41
0.0
 71
     5
 72
     1
  1
\A1;2220
  7
STYLE1
 11
0.0000000000000001
 21
1.0
 31
0.0
 73
     1
 44
1.0
1001
ACAD
1000
MTEXTBEGIN
1070
    73
1070
     1
1070
    44
1040
1.0
1070
    74
1070
     0
1000
MTEXTEND
  0
INSERT
  5
21AAB
330
1DA9A
100
AcDbEntity
  8
寸法
 62
     0
 48
50.0
370
    -2
100
AcDbBlockReference
  2
_DOTSMALL
 10
6267.057863179307
 20
7819.655613631794
 30
0.0
 41
100.0
 42
100.0
 43
100.0
 50
90.0
  0
INSERT
  5
21AAC
330
1DA9A
100
AcDbEntity
  8
寸法
 62
     0
 48
50.0
370
    -2
100
AcDbBlockReference
  2
_DOTSMALL
 10
6267.057863179307
 20
5599.655613631791
 30
0.0
 41
100.0
 42
100.0
 43
100.0
 50
270.0
  0
POINT
  5
21AAD
330
1DA9A
100
AcDbEntity
  8
DEFPOINTS
 62
     0
 48
50.0
100
AcDbPoint
 10
7009.266553439459
 20
7819.655613631794
 30
0.0
  0
POINT
  5
21AAE
330
1DA9A
100
AcDbEntity
  8
DEFPOINTS
 62
     0
 48
50.0
100
AcDbPoint
 10
7009.266553439463
 20
5599.655613631791
 30
0.0
  0
POINT
  5
21AAF
330
1DA9A
100
AcDbEntity
  8
DEFPOINTS
 62
     0
 48
50.0
100
AcDbPoint
 10
6267.057863179307
 20
5599.655613631791
 30
0.0
  0
ENDBLK
  5
1DAA4
330
1DA9A
100
AcDbEntity
  8
0
 48
50.0
100
AcDbBlockEnd
  0
BLOCK
  5
1DAB0
330
1DAA5
100
AcDbEntity
  8
0
 48
50.0
100
AcDbBlockBegin
  2
*D9
 70
     1
 10
0.0
 20
0.0
 30
0.0
  3
*D9
  1

  0
LINE
  5
21BE5
330
1DAA5
100
AcDbEntity
  8
寸法
 62
     0
 48
50.0
370
    -2
100
AcDbLine
 10
7062.26655343947
 20
5722.655613631793
 30
0.0
 11
6453.324287425641
 21
5722.655613631793
 31
0.0
  0
LINE
  5
21BE6
330
1DAA5
100
AcDbEntity
  8
寸法
 62
     0
 48
50.0
370
    -2
100
AcDbLine
 10
6989.266553439462
 20
5599.655613631791
 30
0.0
 11
6453.324287425641
 21
5599.655613631791
 31
0.0
  0
LINE
  5
21BE7
330
1DAA5
100
AcDbEntity
  8
寸法
 62
     0
 48
50.0
370
    -2
100
AcDbLine
 10
6513.324287425641
 20
5722.655613631793
 30
0.0
 11
6513.324287425641
 21
5599.655613631791
 31
0.0
  0
LINE
  5
21BE8
330
1DAA5
100
AcDbEntity
  8
寸法
 62
     0
 48
50.0
370
    -2
100
AcDbLine
 10
6513.324287425641
 20
5599.655613631791
 30
0.0
 11
6513.324287425641
 21
5222.685050883313
 31
0.0
  0
INSERT
  5
21BE9
330
1DAA5
100
AcDbEntity
  8
寸法
 62
     0
 48
50.0
370
    -2
100
AcDbBlockReference
  2
_DOTSMALL
 10
6513.324287425641
 20
5722.655613631793
 30
0.0
 41
100.0
 42
100.0
 43
100.0
 50
90.0
  0
INSERT
  5
21BEA
330
1DAA5
100
AcDbEntity
  8
寸法
 62
     0
 48
50.0
370
    -2
100
AcDbBlockReference
  2
_DOTSMALL
 10
6513.324287425641
 20
5599.655613631791
 30
0.0
 41
100.0
 42
100.0
 43
100.0
 50
270.0
  0
MTEXT
  5
21BEB
330
1DAA5
100
AcDbEntity
  8
寸法
 62
     7
 48
50.0
100
AcDbMText
 10
6413.312476402018
 20
5361.170332257555
 30
0.0
 40
120.0
 41
0.0
 71
     5
 72
     1
  1
\A1;123
  7
STYLE1
 11
0.0000000000000001
 21
1.0
 31
0.0
 73
     1
 44
1.0
1001
ACAD
1000
MTEXTBEGIN
1070
    73
1070
     1
1070
    44
1040
1.0
1070
    74
1070
     0
1000
MTEXTEND
  0
POINT
  5
21BEC
330
1DAA5
100
AcDbEntity
  8
DEFPOINTS
 62
     0
 48
50.0
100
AcDbPoint
 10
7082.26655343947
 20
5722.655613631793
 30
0.0
  0
POINT
  5
21BED
330
1DAA5
100
AcDbEntity
  8
DEFPOINTS
 62
     0
 48
50.0
100
AcDbPoint
 10
7009.266553439463
 20
5599.655613631791
 30
0.0
  0
POINT
  5
21BEE
330
1DAA5
100
AcDbEntity
  8
DEFPOINTS
 62
     0
 48
50.0
100
AcDbPoint
 10
6513.324287425641
 20
5599.655613631791
 30
0.0
  0
ENDBLK
  5
1DAB1
330
1DAA5
100
AcDbEntity
  8
0
 48
50.0
100
AcDbBlockEnd
  0
BLOCK
  5
1DABC
330
1DAB2
100
AcDbEntity
  8
0
 48
50.0
100
AcDbBlockBegin
  2
*D10
 70
     1
 10
0.0
 20
0.0
 30
0.0
  3
*D10
  1

  0
LINE
  5
21A92
330
1DAB2
100
AcDbEntity
  8
寸法
 62
     0
 48
50.0
370
    -2
100
AcDbLine
 10
6989.266553439462
 20
5599.655613631791
 30
0.0
 11
6207.057863179304
 21
5599.655613631791
 31
0.0
  0
LINE
  5
21A93
330
1DAB2
100
AcDbEntity
  8
寸法
 62
     0
 48
50.0
370
    -2
100
AcDbLine
 10
6493.32428742564
 20
5544.655613631792
 30
0.0
 11
6207.057863179304
 21
5544.655613631792
 31
0.0
  0
LINE
  5
21A94
330
1DAB2
100
AcDbEntity
  8
寸法
 62
     0
 48
50.0
370
    -2
100
AcDbLine
 10
6267.057863179304
 20
5599.655613631791
 30
0.0
 11
6267.057863179304
 21
5699.655613631791
 31
0.0
  0
LINE
  5
21A95
330
1DAB2
100
AcDbEntity
  8
寸法
 62
     0
 48
50.0
370
    -2
100
AcDbLine
 10
6267.057863179304
 20
5544.655613631792
 30
0.0
 11
6267.057863179304
 21
5444.655613631791
 31
0.0
  0
MTEXT
  5
21A96
330
1DAB2
100
AcDbEntity
  8
寸法
 62
     7
 48
50.0
100
AcDbMText
 10
6167.057863179303
 20
5572.155613631792
 30
0.0
 40
120.0
 41
0.0
 71
     5
 72
     1
  1
\A1;b
  7
STYLE1
 11
0.0000000000000001
 21
1.0
 31
0.0
 73
     1
 44
1.0
1001
ACAD
1000
MTEXTBEGIN
1070
    73
1070
     1
1070
    44
1040
1.0
1070
    74
1070
     0
1000
MTEXTEND
  0
LINE
  5
21A97
330
1DAB2
100
AcDbEntity
  8
寸法
 62
     0
 48
50.0
370
    -2
100
AcDbLine
 10
6267.057863179304
 20
5599.655613631791
 30
0.0
 11
6267.057863179304
 21
5544.655613631792
 31
0.0
  0
INSERT
  5
21A98
330
1DAB2
100
AcDbEntity
  8
寸法
 62
     0
 48
50.0
370
    -2
100
AcDbBlockReference
  2
_DOTSMALL
 10
6267.057863179304
 20
5599.655613631791
 30
0.0
 41
100.0
 42
100.0
 43
100.0
 50
270.0
  0
INSERT
  5
21A99
330
1DAB2
100
AcDbEntity
  8
寸法
 62
     0
 48
50.0
370
    -2
100
AcDbBlockReference
  2
_DOTSMALL
 10
6267.057863179304
 20
5544.655613631792
 30
0.0
 41
100.0
 42
100.0
 43
100.0
 50
90.0
  0
POINT
  5
21A9A
330
1DAB2
100
AcDbEntity
  8
DEFPOINTS
 62
     0
 48
50.0
100
AcDbPoint
 10
7009.266553439463
 20
5599.655613631791
 30
0.0
  0
POINT
  5
21A9B
330
1DAB2
100
AcDbEntity
  8
DEFPOINTS
 62
     0
 48
50.0
100
AcDbPoint
 10
6513.324287425641
 20
5544.655613631792
 30
0.0
  0
POINT
  5
21A9C
330
1DAB2
100
AcDbEntity
  8
DEFPOINTS
 62
     0
 48
50.0
100
AcDbPoint
 10
6267.057863179304
 20
5544.655613631792
 30
0.0
  0
ENDBLK
  5
1DABD
330
1DAB2
100
AcDbEntity
  8
0
 48
50.0
100
AcDbBlockEnd
  0
BLOCK
  5
1DAC9
330
1DABE
100
AcDbEntity
  8
0
 48
50.0
100
AcDbBlockBegin
  2
*D11
 70
     1
 10
0.0
 20
0.0
 30
0.0
  3
*D11
  1

  0
LINE
  5
21C3C
330
1DABE
100
AcDbEntity
  8
寸法
 62
     0
 48
50.0
370
    -2
100
AcDbLine
 10
6989.266553439462
 20
7819.655613631792
 30
0.0
 11
6453.324287425641
 21
7819.655613631792
 31
0.0
  0
LINE
  5
21C3D
330
1DABE
100
AcDbEntity
  8
寸法
 62
     0
 48
50.0
370
    -2
100
AcDbLine
 10
7062.266553439461
 20
7696.655613631792
 30
0.0
 11
6453.324287425641
 21
7696.655613631792
 31
0.0
  0
LINE
  5
21C3E
330
1DABE
100
AcDbEntity
  8
寸法
 62
     0
 48
50.0
370
    -2
100
AcDbLine
 10
6513.324287425643
 20
7696.655613631792
 30
0.0
 11
6513.324287425643
 21
7819.655613631792
 31
0.0
  0
LINE
  5
21C3F
330
1DABE
100
AcDbEntity
  8
寸法
 62
     0
 48
50.0
370
    -2
100
AcDbLine
 10
6513.324287425643
 20
7819.655613631792
 30
0.0
 11
6513.324287425643
 21
8196.626176380268
 31
0.0
  0
INSERT
  5
21C40
330
1DABE
100
AcDbEntity
  8
寸法
 62
     0
 48
50.0
370
    -2
100
AcDbBlockReference
  2
_DOTSMALL
 10
6513.324287425643
 20
7696.655613631792
 30
0.0
 41
100.0
 42
100.0
 43
100.0
 50
270.0
  0
INSERT
  5
21C41
330
1DABE
100
AcDbEntity
  8
寸法
 62
     0
 48
50.0
370
    -2
100
AcDbBlockReference
  2
_DOTSMALL
 10
6513.324287425643
 20
7819.655613631792
 30
0.0
 41
100.0
 42
100.0
 43
100.0
 50
90.0
  0
MTEXT
  5
21C42
330
1DABE
100
AcDbEntity
  8
寸法
 62
     7
 48
50.0
100
AcDbMText
 10
6413.312476402019
 20
8058.140895006031
 30
0.0
 40
120.0
 41
0.0
 71
     5
 72
     1
  1
\A1;123
  7
STYLE1
 11
0.0000000000000001
 21
1.0
 31
0.0
 73
     1
 44
1.0
1001
ACAD
1000
MTEXTBEGIN
1070
    73
1070
     1
1070
    44
1040
1.0
1070
    74
1070
     0
1000
MTEXTEND
  0
POINT
  5
21C43
330
1DABE
100
AcDbEntity
  8
DEFPOINTS
 62
     0
 48
50.0
100
AcDbPoint
 10
7009.266553439463
 20
7819.655613631792
 30
0.0
  0
POINT
  5
21C44
330
1DABE
100
AcDbEntity
  8
DEFPOINTS
 62
     0
 48
50.0
100
AcDbPoint
 10
7082.266553439461
 20
7696.655613631792
 30
0.0
  0
POINT
  5
21C45
330
1DABE
100
AcDbEntity
  8
DEFPOINTS
 62
     0
 48
50.0
100
AcDbPoint
 10
6513.324287425643
 20
7696.655613631792
 30
0.0
  0
ENDBLK
  5
1DACA
330
1DABE
100
AcDbEntity
  8
0
 48
50.0
100
AcDbBlockEnd
  0
BLOCK
  5
1DAD7
330
1DACB
100
AcDbEntity
  8
0
 48
50.0
100
AcDbBlockBegin
  2
*D12
 70
     1
 10
0.0
 20
0.0
 30
0.0
  3
*D12
  1

  0
LINE
  5
21A7E
330
1DACB
100
AcDbEntity
  8
寸法
 62
     0
 48
50.0
370
    -2
100
AcDbLine
 10
6493.32428742564
 20
7894.655613631792
 30
0.0
 11
6207.831485287673
 21
7894.655613631792
 31
0.0
  0
LINE
  5
21A7F
330
1DACB
100
AcDbEntity
  8
寸法
 62
     0
 48
50.0
370
    -2
100
AcDbLine
 10
6989.266553439462
 20
7819.655613631792
 30
0.0
 11
6207.831485287673
 21
7819.655613631792
 31
0.0
  0
LINE
  5
21A80
330
1DACB
100
AcDbEntity
  8
寸法
 62
     0
 48
50.0
370
    -2
100
AcDbLine
 10
6267.831485287673
 20
7894.655613631792
 30
0.0
 11
6267.831485287673
 21
7994.655613631792
 31
0.0
  0
LINE
  5
21A81
330
1DACB
100
AcDbEntity
  8
寸法
 62
     0
 48
50.0
370
    -2
100
AcDbLine
 10
6267.831485287673
 20
7819.655613631792
 30
0.0
 11
6267.831485287673
 21
7719.655613631792
 31
0.0
  0
MTEXT
  5
21A82
330
1DACB
100
AcDbEntity
  8
寸法
 62
     7
 48
50.0
100
AcDbMText
 10
6167.831485287672
 20
7857.155613631793
 30
0.0
 40
120.0
 41
0.0
 71
     5
 72
     1
  1
\A1;c
  7
STYLE1
 11
0.0000000000000001
 21
1.0
 31
0.0
 73
     1
 44
1.0
1001
ACAD
1000
MTEXTBEGIN
1070
    73
1070
     1
1070
    44
1040
1.0
1070
    74
1070
     0
1000
MTEXTEND
  0
LINE
  5
21A83
330
1DACB
100
AcDbEntity
  8
寸法
 62
     0
 48
50.0
370
    -2
100
AcDbLine
 10
6267.831485287673
 20
7894.655613631792
 30
0.0
 11
6267.831485287673
 21
7819.655613631792
 31
0.0
  0
INSERT
  5
21A84
330
1DACB
100
AcDbEntity
  8
寸法
 62
     0
 48
50.0
370
    -2
100
AcDbBlockReference
  2
_DOTSMALL
 10
6267.831485287673
 20
7894.655613631792
 30
0.0
 41
100.0
 42
100.0
 43
100.0
 50
270.0
  0
INSERT
  5
21A85
330
1DACB
100
AcDbEntity
  8
寸法
 62
     0
 48
50.0
370
    -2
100
AcDbBlockReference
  2
_DOTSMALL
 10
6267.831485287673
 20
7819.655613631792
 30
0.0
 41
100.0
 42
100.0
 43
100.0
 50
90.0
  0
POINT
  5
21A86
330
1DACB
100
AcDbEntity
  8
DEFPOINTS
 62
     0
 48
50.0
100
AcDbPoint
 10
6513.324287425641
 20
7894.655613631792
 30
0.0
  0
POINT
  5
21A87
330
1DACB
100
AcDbEntity
  8
DEFPOINTS
 62
     0
 48
50.0
100
AcDbPoint
 10
7009.266553439463
 20
7819.655613631792
 30
0.0
  0
POINT
  5
21A88
330
1DACB
100
AcDbEntity
  8
DEFPOINTS
 62
     0
 48
50.0
100
AcDbPoint
 10
6267.831485287673
 20
7819.655613631792
 30
0.0
  0
ENDBLK
  5
1DAD8
330
1DACB
100
AcDbEntity
  8
0
 48
50.0
100
AcDbBlockEnd
  0
BLOCK
  5
1DAE4
330
1DAD9
100
AcDbEntity
  8
0
 48
50.0
100
AcDbBlockBegin
  2
*D13
 70
     1
 10
0.0
 20
0.0
 30
0.0
  3
*D13
  1

  0
LINE
  5
21C28
330
1DAD9
100
AcDbEntity
  8
寸法
 62
     0
 48
50.0
370
    -2
100
AcDbLine
 10
9649.266553439462
 20
7839.655613631792
 30
0.0
 11
9649.266553439462
 21
8632.987424591645
 31
0.0
  0
LINE
  5
21C29
330
1DAD9
100
AcDbEntity
  8
寸法
 62
     0
 48
50.0
370
    -2
100
AcDbLine
 10
9526.266553439461
 20
7766.655613631792
 30
0.0
 11
9526.266553439461
 21
8632.987424591645
 31
0.0
  0
LINE
  5
21C2A
330
1DAD9
100
AcDbEntity
  8
寸法
 62
     0
 48
50.0
370
    -2
100
AcDbLine
 10
9526.266553439461
 20
8572.987424591643
 30
0.0
 11
9649.266553439462
 21
8572.987424591643
 31
0.0
  0
LINE
  5
21C2B
330
1DAD9
100
AcDbEntity
  8
寸法
 62
     0
 48
50.0
370
    -2
100
AcDbLine
 10
9649.266553439462
 20
8572.987424591643
 30
0.0
 11
10026.23711618794
 21
8572.987424591643
 31
0.0
  0
INSERT
  5
21C2C
330
1DAD9
100
AcDbEntity
  8
寸法
 62
     0
 48
50.0
370
    -2
100
AcDbBlockReference
  2
_DOTSMALL
 10
9526.266553439461
 20
8572.987424591643
 30
0.0
 41
100.0
 42
100.0
 43
100.0
 50
180.0
  0
INSERT
  5
21C2D
330
1DAD9
100
AcDbEntity
  8
寸法
 62
     0
 48
50.0
370
    -2
100
AcDbBlockReference
  2
_DOTSMALL
 10
9649.266553439462
 20
8572.987424591643
 30
0.0
 41
100.0
 42
100.0
 43
100.0
  0
MTEXT
  5
21C2E
330
1DAD9
100
AcDbEntity
  8
寸法
 62
     7
 48
50.0
100
AcDbMText
 10
9887.7518348137
 20
8672.999235615264
 30
0.0
 40
120.0
 41
0.0
 71
     5
 72
     1
  1
\A1;123
  7
STYLE1
 73
     1
 44
1.0
1001
ACAD
1000
MTEXTBEGIN
1070
    73
1070
     1
1070
    44
1040
1.0
1070
    74
1070
     0
1000
MTEXTEND
  0
POINT
  5
21C2F
330
1DAD9
100
AcDbEntity
  8
DEFPOINTS
 62
     0
 48
50.0
100
AcDbPoint
 10
9649.266553439462
 20
7819.655613631794
 30
0.0
  0
POINT
  5
21C30
330
1DAD9
100
AcDbEntity
  8
DEFPOINTS
 62
     0
 48
50.0
100
AcDbPoint
 10
9526.266553439461
 20
7746.655613631792
 30
0.0
  0
POINT
  5
21C31
330
1DAD9
100
AcDbEntity
  8
DEFPOINTS
 62
     0
 48
50.0
100
AcDbPoint
 10
9526.266553439461
 20
8572.987424591643
 30
0.0
  0
ENDBLK
  5
1DAE5
330
1DAD9
100
AcDbEntity
  8
0
 48
50.0
100
AcDbBlockEnd
  0
BLOCK
  5
1DAF1
330
1DAE6
100
AcDbEntity
  8
0
 48
50.0
100
AcDbBlockBegin
  2
*D14
 70
     1
 10
0.0
 20
0.0
 30
0.0
  3
*D14
  1

  0
LINE
  5
21A6A
330
1DAE6
100
AcDbEntity
  8
寸法
 62
     0
 48
50.0
370
    -2
100
AcDbLine
 10
9649.266553439462
 20
7987.926814201713
 30
0.0
 11
9649.266553439462
 21
8845.44812010848
 31
0.0
  0
LINE
  5
21A6B
330
1DAE6
100
AcDbEntity
  8
寸法
 62
     0
 48
50.0
370
    -2
100
AcDbLine
 10
9694.266553439462
 20
8592.987424591644
 30
0.0
 11
9694.266553439462
 21
8845.44812010848
 31
0.0
  0
LINE
  5
21A6C
330
1DAE6
100
AcDbEntity
  8
寸法
 62
     0
 48
50.0
370
    -2
100
AcDbLine
 10
9649.266553439462
 20
8785.44812010848
 30
0.0
 11
9549.266553439462
 21
8785.44812010848
 31
0.0
  0
LINE
  5
21A6D
330
1DAE6
100
AcDbEntity
  8
寸法
 62
     0
 48
50.0
370
    -2
100
AcDbLine
 10
9694.266553439462
 20
8785.44812010848
 30
0.0
 11
9794.266553439463
 21
8785.44812010848
 31
0.0
  0
MTEXT
  5
21A6E
330
1DAE6
100
AcDbEntity
  8
寸法
 62
     7
 48
50.0
100
AcDbMText
 10
9671.766553439463
 20
8885.448120108479
 30
0.0
 40
120.0
 41
0.0
 71
     5
 72
     1
  1
\A1;a
  7
STYLE1
 73
     1
 44
1.0
1001
ACAD
1000
MTEXTBEGIN
1070
    73
1070
     1
1070
    44
1040
1.0
1070
    74
1070
     0
1000
MTEXTEND
  0
LINE
  5
21A6F
330
1DAE6
100
AcDbEntity
  8
寸法
 62
     0
 48
50.0
370
    -2
100
AcDbLine
 10
9649.266553439462
 20
8785.44812010848
 30
0.0
 11
9694.266553439462
 21
8785.44812010848
 31
0.0
  0
INSERT
  5
21A70
330
1DAE6
100
AcDbEntity
  8
寸法
 62
     0
 48
50.0
370
    -2
100
AcDbBlockReference
  2
_DOTSMALL
 10
9649.266553439462
 20
8785.44812010848
 30
0.0
 41
100.0
 42
100.0
 43
100.0
  0
INSERT
  5
21A71
330
1DAE6
100
AcDbEntity
  8
寸法
 62
     0
 48
50.0
370
    -2
100
AcDbBlockReference
  2
_DOTSMALL
 10
9694.266553439462
 20
8785.44812010848
 30
0.0
 41
100.0
 42
100.0
 43
100.0
 50
180.0
  0
POINT
  5
21A72
330
1DAE6
100
AcDbEntity
  8
DEFPOINTS
 62
     0
 48
50.0
100
AcDbPoint
 10
9649.266553439462
 20
7967.926814201714
 30
0.0
  0
POINT
  5
21A73
330
1DAE6
100
AcDbEntity
  8
DEFPOINTS
 62
     0
 48
50.0
100
AcDbPoint
 10
9694.266553439462
 20
8572.987424591643
 30
0.0
  0
POINT
  5
21A74
330
1DAE6
100
AcDbEntity
  8
DEFPOINTS
 62
     0
 48
50.0
100
AcDbPoint
 10
9694.266553439462
 20
8785.44812010848
 30
0.0
  0
ENDBLK
  5
1DAF2
330
1DAE6
100
AcDbEntity
  8
0
 48
50.0
100
AcDbBlockEnd
  0
BLOCK
  5
1DAFE
330
1DAF3
100
AcDbEntity
  8
0
 48
50.0
100
AcDbBlockBegin
  2
*D15
 70
     1
 10
0.0
 20
0.0
 30
0.0
  3
*D15
  1

  0
LINE
  5
21A60
330
1DAF3
100
AcDbEntity
  8
寸法
 62
     0
 48
50.0
370
    -2
100
AcDbLine
 10
9649.266553439462
 20
7319.655613631801
 30
0.0
 11
9649.266553439462
 21
7221.158981612385
 31
0.0
  0
LINE
  5
21A61
330
1DAF3
100
AcDbEntity
  8
寸法
 62
     0
 48
50.0
370
    -2
100
AcDbLine
 10
9529.266553439461
 20
7319.655613631801
 30
0.0
 11
9529.266553439461
 21
7221.158981612385
 31
0.0
  0
LINE
  5
21A62
330
1DAF3
100
AcDbEntity
  8
寸法
 62
     0
 48
50.0
370
    -2
100
AcDbLine
 10
9649.266553439462
 20
7281.158981612385
 30
0.0
 11
9529.266553439461
 21
7281.158981612385
 31
0.0
  0
LINE
  5
21A63
330
1DAF3
100
AcDbEntity
  8
寸法
 62
     0
 48
50.0
370
    -2
100
AcDbLine
 10
10021.36104162844
 20
7281.158981612385
 30
0.0
 11
9649.266553439462
 21
7281.158981612385
 31
0.0
  0
MTEXT
  5
21A64
330
1DAF3
100
AcDbEntity
  8
寸法
 62
     7
 48
50.0
100
AcDbMText
 10
9885.313797533951
 20
7381.170792636007
 30
0.0
 40
120.0
 41
0.0
 71
     5
 72
     1
  1
\A1;120
  7
STYLE1
 73
     1
 44
1.0
1001
ACAD
1000
MTEXTBEGIN
1070
    73
1070
     1
1070
    44
1040
1.0
1070
    74
1070
     0
1000
MTEXTEND
  0
INSERT
  5
21A65
330
1DAF3
100
AcDbEntity
  8
寸法
 62
     0
 48
50.0
370
    -2
100
AcDbBlockReference
  2
_DOTSMALL
 10
9649.266553439462
 20
7281.158981612385
 30
0.0
 41
100.0
 42
100.0
 43
100.0
  0
INSERT
  5
21A66
330
1DAF3
100
AcDbEntity
  8
寸法
 62
     0
 48
50.0
370
    -2
100
AcDbBlockReference
  2
_DOTSMALL
 10
9529.266553439461
 20
7281.158981612385
 30
0.0
 41
100.0
 42
100.0
 43
100.0
 50
180.0
  0
POINT
  5
21A67
330
1DAF3
100
AcDbEntity
  8
DEFPOINTS
 62
     0
 48
50.0
100
AcDbPoint
 10
9649.266553439462
 20
7339.655613631801
 30
0.0
  0
POINT
  5
21A68
330
1DAF3
100
AcDbEntity
  8
DEFPOINTS
 62
     0
 48
50.0
100
AcDbPoint
 10
9529.266553439461
 20
7339.655613631801
 30
0.0
  0
POINT
  5
21A69
330
1DAF3
100
AcDbEntity
  8
DEFPOINTS
 62
     0
 48
50.0
100
AcDbPoint
 10
9529.266553439461
 20
7281.158981612385
 30
0.0
  0
ENDBLK
  5
1DAFF
330
1DAF3
100
AcDbEntity
  8
0
 48
50.0
100
AcDbBlockEnd
  0
BLOCK
  5
1DB0B
330
1DB00
100
AcDbEntity
  8
0
 48
50.0
100
AcDbBlockBegin
  2
*D16
 70
     1
 10
0.0
 20
0.0
 30
0.0
  3
*D16
  1

  0
LINE
  5
21A56
330
1DB00
100
AcDbEntity
  8
寸法
 62
     0
 48
50.0
370
    -2
100
AcDbLine
 10
7259.266553439463
 20
7699.655613631795
 30
0.0
 11
7529.776737352486
 21
7699.655613631795
 31
0.0
  0
LINE
  5
21A57
330
1DB00
100
AcDbEntity
  8
寸法
 62
     0
 48
50.0
370
    -2
100
AcDbLine
 10
7259.266553439463
 20
7589.655613631788
 30
0.0
 11
7529.776737352486
 21
7589.655613631788
 31
0.0
  0
LINE
  5
21A58
330
1DB00
100
AcDbEntity
  8
寸法
 62
     0
 48
50.0
370
    -2
100
AcDbLine
 10
7469.776737352486
 20
7699.655613631795
 30
0.0
 11
7469.776737352486
 21
7589.655613631788
 31
0.0
  0
LINE
  5
21A59
330
1DB00
100
AcDbEntity
  8
寸法
 62
     0
 48
50.0
370
    -2
100
AcDbLine
 10
7469.776737352486
 20
7227.287660959375
 30
0.0
 11
7469.776737352486
 21
7589.655613631788
 31
0.0
  0
MTEXT
  5
21A5A
330
1DB00
100
AcDbEntity
  8
寸法
 62
     7
 48
50.0
100
AcDbMText
 10
7369.776737352484
 20
7351.334905053865
 30
0.0
 40
120.0
 41
0.0
 71
     5
 72
     1
  1
\A1;110
  7
STYLE1
 11
0.0000000000000001
 21
1.0
 31
0.0
 73
     1
 44
1.0
1001
ACAD
1000
MTEXTBEGIN
1070
    73
1070
     1
1070
    44
1040
1.0
1070
    74
1070
     0
1000
MTEXTEND
  0
INSERT
  5
21A5B
330
1DB00
100
AcDbEntity
  8
寸法
 62
     0
 48
50.0
370
    -2
100
AcDbBlockReference
  2
_DOTSMALL
 10
7469.776737352486
 20
7699.655613631795
 30
0.0
 41
100.0
 42
100.0
 43
100.0
 50
90.0
  0
INSERT
  5
21A5C
330
1DB00
100
AcDbEntity
  8
寸法
 62
     0
 48
50.0
370
    -2
100
AcDbBlockReference
  2
_DOTSMALL
 10
7469.776737352486
 20
7589.655613631788
 30
0.0
 41
100.0
 42
100.0
 43
100.0
 50
270.0
  0
POINT
  5
21A5D
330
1DB00
100
AcDbEntity
  8
DEFPOINTS
 62
     0
 48
50.0
100
AcDbPoint
 10
7239.266553439462
 20
7699.655613631795
 30
0.0
  0
POINT
  5
21A5E
330
1DB00
100
AcDbEntity
  8
DEFPOINTS
 62
     0
 48
50.0
100
AcDbPoint
 10
7239.266553439462
 20
7589.655613631788
 30
0.0
  0
POINT
  5
21A5F
330
1DB00
100
AcDbEntity
  8
DEFPOINTS
 62
     0
 48
50.0
100
AcDbPoint
 10
7469.776737352486
 20
7589.655613631788
 30
0.0
  0
ENDBLK
  5
1DB0C
330
1DB00
100
AcDbEntity
  8
0
 48
50.0
100
AcDbBlockEnd
  0
BLOCK
  5
1DB25
330
1DB1A
100
AcDbEntity
  8
0
 48
50.0
100
AcDbBlockBegin
  2
*D17
 70
     1
 10
0.0
 20
0.0
 30
0.0
  3
*D17
  1

  0
LINE
  5
21A4C
330
1DB1A
100
AcDbEntity
  8
寸法
 62
     0
 48
50.0
370
    -2
100
AcDbLine
 10
7231.266553439462
 20
7819.655613631791
 30
0.0
 11
7529.776737352484
 21
7819.655613631791
 31
0.0
  0
LINE
  5
21A4D
330
1DB1A
100
AcDbEntity
  8
寸法
 62
     0
 48
50.0
370
    -2
100
AcDbLine
 10
7259.266553439463
 20
7699.655613631795
 30
0.0
 11
7529.776737352484
 21
7699.655613631795
 31
0.0
  0
LINE
  5
21A4E
330
1DB1A
100
AcDbEntity
  8
寸法
 62
     0
 48
50.0
370
    -2
100
AcDbLine
 10
7469.776737352486
 20
7819.655613631791
 30
0.0
 11
7469.776737352486
 21
7699.655613631795
 31
0.0
  0
LINE
  5
21A4F
330
1DB1A
100
AcDbEntity
  8
寸法
 62
     0
 48
50.0
370
    -2
100
AcDbLine
 10
7469.776737352486
 20
8191.750101820771
 30
0.0
 11
7469.776737352486
 21
7819.655613631791
 31
0.0
  0
MTEXT
  5
21A50
330
1DB1A
100
AcDbEntity
  8
寸法
 62
     7
 48
50.0
100
AcDbMText
 10
7369.764926328862
 20
8055.702857726284
 30
0.0
 40
120.0
 41
0.0
 71
     5
 72
     1
  1
\A1;120
  7
STYLE1
 11
0.0000000000000001
 21
1.0
 31
0.0
 73
     1
 44
1.0
1001
ACAD
1000
MTEXTBEGIN
1070
    73
1070
     1
1070
    44
1040
1.0
1070
    74
1070
     0
1000
MTEXTEND
  0
INSERT
  5
21A51
330
1DB1A
100
AcDbEntity
  8
寸法
 62
     0
 48
50.0
370
    -2
100
AcDbBlockReference
  2
_DOTSMALL
 10
7469.776737352486
 20
7819.655613631791
 30
0.0
 41
100.0
 42
100.0
 43
100.0
 50
90.0
  0
INSERT
  5
21A52
330
1DB1A
100
AcDbEntity
  8
寸法
 62
     0
 48
50.0
370
    -2
100
AcDbBlockReference
  2
_DOTSMALL
 10
7469.776737352486
 20
7699.655613631795
 30
0.0
 41
100.0
 42
100.0
 43
100.0
 50
270.0
  0
POINT
  5
21A53
330
1DB1A
100
AcDbEntity
  8
DEFPOINTS
 62
     0
 48
50.0
100
AcDbPoint
 10
7211.266553439462
 20
7819.655613631791
 30
0.0
  0
POINT
  5
21A54
330
1DB1A
100
AcDbEntity
  8
DEFPOINTS
 62
     0
 48
50.0
100
AcDbPoint
 10
7239.266553439462
 20
7699.655613631795
 30
0.0
  0
POINT
  5
21A55
330
1DB1A
100
AcDbEntity
  8
DEFPOINTS
 62
     0
 48
50.0
100
AcDbPoint
 10
7469.776737352486
 20
7699.655613631795
 30
0.0
  0
ENDBLK
  5
1DB26
330
1DB1A
100
AcDbEntity
  8
0
 48
50.0
100
AcDbBlockEnd
  0
BLOCK
  5
1E9D9
330
1E9D0
100
AcDbEntity
  8
0
 48
50.0
100
AcDbBlockBegin
  2
*D18
 70
     1
 10
0.0
 20
0.0
 30
0.0
  3
*D18
  1

  0
LINE
  5
21C58
330
1E9D0
100
AcDbEntity
  8
寸法
 62
     0
 48
50.0
370
    -2
100
AcDbLine
 10
8814.266553439463
 20
7084.655613631794
 30
0.0
 11
9069.148947244787
 21
7084.655613631794
 31
0.0
  0
LINE
  5
21C59
330
1E9D0
100
AcDbEntity
  8
寸法
 62
     0
 48
50.0
370
    -2
100
AcDbLine
 10
8904.76655343947
 20
7819.655613631794
 30
0.0
 11
9069.148947244787
 21
7819.655613631794
 31
0.0
  0
LINE
  5
21C5A
330
1E9D0
100
AcDbEntity
  8
寸法
 62
     0
 48
50.0
370
    -2
100
AcDbLine
 10
9009.148947244787
 20
7084.655613631794
 30
0.0
 11
9009.148947244787
 21
7819.655613631794
 31
0.0
  0
INSERT
  5
21C5B
330
1E9D0
100
AcDbEntity
  8
寸法
 62
     0
 48
50.0
370
    -2
100
AcDbBlockReference
  2
_DOTSMALL
 10
9009.148947244787
 20
7084.655613631794
 30
0.0
 41
100.0
 42
100.0
 43
100.0
 50
270.0
  0
INSERT
  5
21C5C
330
1E9D0
100
AcDbEntity
  8
寸法
 62
     0
 48
50.0
370
    -2
100
AcDbBlockReference
  2
_DOTSMALL
 10
9009.148947244787
 20
7819.655613631794
 30
0.0
 41
100.0
 42
100.0
 43
100.0
 50
90.0
  0
MTEXT
  5
21C5D
330
1E9D0
100
AcDbEntity
  8
寸法
 62
     7
 48
50.0
100
AcDbMText
 10
8909.148947244785
 20
7452.155613631795
 30
0.0
 40
120.0
 41
0.0
 71
     5
 72
     1
  1
\A1;735
  7
STYLE1
 11
0.0000000000000001
 21
1.0
 31
0.0
 73
     1
 44
1.0
1001
ACAD
1000
MTEXTBEGIN
1070
    73
1070
     1
1070
    44
1040
1.0
1070
    74
1070
     0
1000
MTEXTEND
  0
POINT
  5
21C5E
330
1E9D0
100
AcDbEntity
  8
DEFPOINTS
 62
     0
 48
50.0
100
AcDbPoint
 10
8794.266553439461
 20
7084.655613631794
 30
0.0
  0
POINT
  5
21C5F
330
1E9D0
100
AcDbEntity
  8
DEFPOINTS
 62
     0
 48
50.0
100
AcDbPoint
 10
8884.766553439471
 20
7819.655613631794
 30
0.0
  0
POINT
  5
21C60
330
1E9D0
100
AcDbEntity
  8
DEFPOINTS
 62
     0
 48
50.0
100
AcDbPoint
 10
9009.148947244787
 20
7819.655613631794
 30
0.0
  0
ENDBLK
  5
1E9DA
330
1E9D0
100
AcDbEntity
  8
0
 48
50.0
100
AcDbBlockEnd
  0
BLOCK
  5
1EA3C
330
1EA32
100
AcDbEntity
  8
0
 48
50.0
100
AcDbBlockBegin
  2
*D19
 70
     1
 10
0.0
 20
0.0
 30
0.0
  3
*D19
  1

  0
LINE
  5
22211
330
1EA32
100
AcDbEntity
  8
寸法
 62
     0
 48
50.0
370
    -2
100
AcDbLine
 10
8878.39556100531
 20
5599.65561363181
 30
0.0
 11
9069.148947244796
 21
5599.65561363181
 31
0.0
  0
LINE
  5
22212
330
1EA32
100
AcDbEntity
  8
寸法
 62
     0
 48
50.0
370
    -2
100
AcDbLine
 10
8814.266553439463
 20
6334.655613631798
 30
0.0
 11
9069.148947244796
 21
6334.655613631798
 31
0.0
  0
LINE
  5
22213
330
1EA32
100
AcDbEntity
  8
寸法
 62
     0
 48
50.0
370
    -2
100
AcDbLine
 10
9009.148947244797
 20
5599.65561363181
 30
0.0
 11
9009.148947244797
 21
6334.655613631798
 31
0.0
  0
INSERT
  5
22214
330
1EA32
100
AcDbEntity
  8
寸法
 62
     0
 48
50.0
370
    -2
100
AcDbBlockReference
  2
_DOTSMALL
 10
9009.148947244797
 20
5599.65561363181
 30
0.0
 41
100.0
 42
100.0
 43
100.0
 50
270.0
  0
INSERT
  5
22215
330
1EA32
100
AcDbEntity
  8
寸法
 62
     0
 48
50.0
370
    -2
100
AcDbBlockReference
  2
_DOTSMALL
 10
9009.148947244797
 20
6334.655613631798
 30
0.0
 41
100.0
 42
100.0
 43
100.0
 50
90.0
  0
MTEXT
  5
22216
330
1EA32
100
AcDbEntity
  8
寸法
 62
     7
 48
50.0
100
AcDbMText
 10
8909.148947244796
 20
5967.155613631805
 30
0.0
 40
120.0
 41
0.0
 71
     5
 72
     1
  1
\A1;735
  7
STYLE1
 11
0.0000000000000001
 21
1.0
 31
0.0
 73
     1
 44
1.0
1001
ACAD
1000
MTEXTBEGIN
1070
    73
1070
     1
1070
    44
1040
1.0
1070
    74
1070
     0
1000
MTEXTEND
  0
POINT
  5
22217
330
1EA32
100
AcDbEntity
  8
DEFPOINTS
 62
     0
 48
50.0
100
AcDbPoint
 10
8858.395561005309
 20
5599.65561363181
 30
0.0
  0
POINT
  5
22218
330
1EA32
100
AcDbEntity
  8
DEFPOINTS
 62
     0
 48
50.0
100
AcDbPoint
 10
8794.266553439461
 20
6334.655613631798
 30
0.0
  0
POINT
  5
22219
330
1EA32
100
AcDbEntity
  8
DEFPOINTS
 62
     0
 48
50.0
100
AcDbPoint
 10
9009.148947244797
 20
6334.655613631798
 30
0.0
  0
ENDBLK
  5
1EA3D
330
1EA32
100
AcDbEntity
  8
0
 48
50.0
100
AcDbBlockEnd
  0
BLOCK
  5
1F253
330
1F24A
100
AcDbEntity
  8
0
 48
50.0
100
AcDbBlockBegin
  2
*D20
 70
     1
 10
0.0
 20
0.0
 30
0.0
  3
*D20
  1

  0
LINE
  5
21A28
330
1F24A
100
AcDbEntity
  8
寸法
 62
     0
 48
50.0
370
    -2
100
AcDbLine
 10
7914.266553439462
 20
7304.655613631794
 30
0.0
 11
7914.266553439462
 21
8406.565379280122
 31
0.0
  0
LINE
  5
21A29
330
1F24A
100
AcDbEntity
  8
寸法
 62
     0
 48
50.0
370
    -2
100
AcDbLine
 10
7009.266553439459
 20
7839.655613631794
 30
0.0
 11
7009.266553439459
 21
8406.565379280122
 31
0.0
  0
LINE
  5
21A2A
330
1F24A
100
AcDbEntity
  8
寸法
 62
     0
 48
50.0
370
    -2
100
AcDbLine
 10
7914.266553439462
 20
8346.565379280121
 30
0.0
 11
7009.266553439459
 21
8346.565379280121
 31
0.0
  0
INSERT
  5
21A2B
330
1F24A
100
AcDbEntity
  8
寸法
 62
     0
 48
50.0
370
    -2
100
AcDbBlockReference
  2
_DOTSMALL
 10
7914.266553439462
 20
8346.565379280121
 30
0.0
 41
100.0
 42
100.0
 43
100.0
  0
INSERT
  5
21A2C
330
1F24A
100
AcDbEntity
  8
寸法
 62
     0
 48
50.0
370
    -2
100
AcDbBlockReference
  2
_DOTSMALL
 10
7009.266553439459
 20
8346.565379280121
 30
0.0
 41
100.0
 42
100.0
 43
100.0
 50
180.0
  0
MTEXT
  5
21A2D
330
1F24A
100
AcDbEntity
  8
寸法
 62
     7
 48
50.0
100
AcDbMText
 10
7461.766553439462
 20
8446.565379280121
 30
0.0
 40
120.0
 41
0.0
 71
     5
 72
     1
  1
\A1;905
  7
STYLE1
 73
     1
 44
1.0
1001
ACAD
1000
MTEXTBEGIN
1070
    73
1070
     1
1070
    44
1040
1.0
1070
    74
1070
     0
1000
MTEXTEND
  0
POINT
  5
21A2E
330
1F24A
100
AcDbEntity
  8
DEFPOINTS
 62
     0
 48
50.0
100
AcDbPoint
 10
7914.266553439462
 20
7284.655613631795
 30
0.0
  0
POINT
  5
21A2F
330
1F24A
100
AcDbEntity
  8
DEFPOINTS
 62
     0
 48
50.0
100
AcDbPoint
 10
7009.266553439459
 20
7819.655613631794
 30
0.0
  0
POINT
  5
21A30
330
1F24A
100
AcDbEntity
  8
DEFPOINTS
 62
     0
 48
50.0
100
AcDbPoint
 10
7009.266553439459
 20
8346.565379280121
 30
0.0
  0
ENDBLK
  5
1F254
330
1F24A
100
AcDbEntity
  8
0
 48
50.0
100
AcDbBlockEnd
  0
BLOCK
  5
1F25F
330
1F255
100
AcDbEntity
  8
0
 48
50.0
100
AcDbBlockBegin
  2
*D21
 70
     1
 10
0.0
 20
0.0
 30
0.0
  3
*D21
  1

  0
LINE
  5
21A31
330
1F255
100
AcDbEntity
  8
寸法
 62
     0
 48
50.0
370
    -2
100
AcDbLine
 10
9649.26655343946
 20
7839.655613631794
 30
0.0
 11
9649.26655343946
 21
8406.565379280122
 31
0.0
  0
LINE
  5
21A32
330
1F255
100
AcDbEntity
  8
寸法
 62
     0
 48
50.0
370
    -2
100
AcDbLine
 10
8744.266553439462
 20
7304.655613631794
 30
0.0
 11
8744.266553439462
 21
8406.565379280122
 31
0.0
  0
LINE
  5
21A33
330
1F255
100
AcDbEntity
  8
寸法
 62
     0
 48
50.0
370
    -2
100
AcDbLine
 10
9649.26655343946
 20
8346.565379280121
 30
0.0
 11
8744.266553439462
 21
8346.565379280121
 31
0.0
  0
MTEXT
  5
21A34
330
1F255
100
AcDbEntity
  8
寸法
 62
     7
 48
50.0
100
AcDbMText
 10
9226.036688621913
 20
8444.82734458713
 30
0.0
 40
120.0
 41
0.0
 71
     5
 72
     1
  1
\A1;905
  7
STYLE1
 73
     1
 44
1.0
1001
ACAD
1000
MTEXTBEGIN
1070
    73
1070
     1
1070
    44
1040
1.0
1070
    74
1070
     0
1000
MTEXTEND
  0
INSERT
  5
21A35
330
1F255
100
AcDbEntity
  8
寸法
 62
     0
 48
50.0
370
    -2
100
AcDbBlockReference
  2
_DOTSMALL
 10
9649.26655343946
 20
8346.565379280121
 30
0.0
 41
100.0
 42
100.0
 43
100.0
  0
INSERT
  5
21A36
330
1F255
100
AcDbEntity
  8
寸法
 62
     0
 48
50.0
370
    -2
100
AcDbBlockReference
  2
_DOTSMALL
 10
8744.266553439462
 20
8346.565379280121
 30
0.0
 41
100.0
 42
100.0
 43
100.0
 50
180.0
  0
POINT
  5
21A37
330
1F255
100
AcDbEntity
  8
DEFPOINTS
 62
     0
 48
50.0
100
AcDbPoint
 10
9649.26655343946
 20
7819.655613631794
 30
0.0
  0
POINT
  5
21A38
330
1F255
100
AcDbEntity
  8
DEFPOINTS
 62
     0
 48
50.0
100
AcDbPoint
 10
8744.266553439462
 20
7284.655613631795
 30
0.0
  0
POINT
  5
21A39
330
1F255
100
AcDbEntity
  8
DEFPOINTS
 62
     0
 48
50.0
100
AcDbPoint
 10
8744.266553439462
 20
8346.565379280121
 30
0.0
  0
ENDBLK
  5
1F260
330
1F255
100
AcDbEntity
  8
0
 48
50.0
100
AcDbBlockEnd
  0
BLOCK
  5
1FE56
330
1FE4C
100
AcDbEntity
  8
0
 48
50.0
100
AcDbBlockBegin
  2
*D22
 70
     1
 10
0.0
 20
0.0
 30
0.0
  3
*D22
  1

  0
LINE
  5
21A1F
330
1FE4C
100
AcDbEntity
  8
寸法
 62
     0
 48
50.0
370
    -2
100
AcDbLine
 10
7914.266553439462
 20
7304.655613631794
 30
0.0
 11
7914.266553439462
 21
8406.565379280122
 31
0.0
  0
LINE
  5
21A20
330
1FE4C
100
AcDbEntity
  8
寸法
 62
     0
 48
50.0
370
    -2
100
AcDbLine
 10
8744.266553439462
 20
7304.655613631794
 30
0.0
 11
8744.266553439462
 21
8406.565379280122
 31
0.0
  0
LINE
  5
21A21
330
1FE4C
100
AcDbEntity
  8
寸法
 62
     0
 48
50.0
370
    -2
100
AcDbLine
 10
7914.266553439462
 20
8346.565379280121
 30
0.0
 11
8744.266553439462
 21
8346.565379280121
 31
0.0
  0
INSERT
  5
21A22
330
1FE4C
100
AcDbEntity
  8
寸法
 62
     0
 48
50.0
370
    -2
100
AcDbBlockReference
  2
_DOTSMALL
 10
7914.266553439462
 20
8346.565379280121
 30
0.0
 41
100.0
 42
100.0
 43
100.0
 50
180.0
  0
INSERT
  5
21A23
330
1FE4C
100
AcDbEntity
  8
寸法
 62
     0
 48
50.0
370
    -2
100
AcDbBlockReference
  2
_DOTSMALL
 10
8744.266553439462
 20
8346.565379280121
 30
0.0
 41
100.0
 42
100.0
 43
100.0
  0
MTEXT
  5
21A24
330
1FE4C
100
AcDbEntity
  8
寸法
 62
     7
 48
50.0
100
AcDbMText
 10
8329.266553439461
 20
8446.565379280121
 30
0.0
 40
120.0
 41
0.0
 71
     5
 72
     1
  1
\A1;830
  7
STYLE1
 73
     1
 44
1.0
1001
ACAD
1000
MTEXTBEGIN
1070
    73
1070
     1
1070
    44
1040
1.0
1070
    74
1070
     0
1000
MTEXTEND
  0
POINT
  5
21A25
330
1FE4C
100
AcDbEntity
  8
DEFPOINTS
 62
     0
 48
50.0
100
AcDbPoint
 10
7914.266553439462
 20
7284.655613631795
 30
0.0
  0
POINT
  5
21A26
330
1FE4C
100
AcDbEntity
  8
DEFPOINTS
 62
     0
 48
50.0
100
AcDbPoint
 10
8744.266553439462
 20
7284.655613631795
 30
0.0
  0
POINT
  5
21A27
330
1FE4C
100
AcDbEntity
  8
DEFPOINTS
 62
     0
 48
50.0
100
AcDbPoint
 10
8744.266553439462
 20
8346.565379280121
 30
0.0
  0
ENDBLK
  5
1FE57
330
1FE4C
100
AcDbEntity
  8
0
 48
50.0
100
AcDbBlockEnd
  0
BLOCK
  5
2034D
330
20343
100
AcDbEntity
  8
0
 48
50.0
100
AcDbBlockBegin
  2
*D23
 70
     1
 10
0.0
 20
0.0
 30
0.0
  3
*D23
  1

  0
LINE
  5
21C46
330
20343
100
AcDbEntity
  8
寸法
 62
     0
 48
50.0
370
    -2
100
AcDbLine
 10
8814.266553439463
 20
6334.655613631798
 30
0.0
 11
9069.148947244787
 21
6334.655613631798
 31
0.0
  0
LINE
  5
21C47
330
20343
100
AcDbEntity
  8
寸法
 62
     0
 48
50.0
370
    -2
100
AcDbLine
 10
8814.266553439463
 20
7084.655613631794
 30
0.0
 11
9069.148947244787
 21
7084.655613631794
 31
0.0
  0
LINE
  5
21C48
330
20343
100
AcDbEntity
  8
寸法
 62
     0
 48
50.0
370
    -2
100
AcDbLine
 10
9009.148947244787
 20
6334.655613631798
 30
0.0
 11
9009.148947244787
 21
7084.655613631794
 31
0.0
  0
INSERT
  5
21C49
330
20343
100
AcDbEntity
  8
寸法
 62
     0
 48
50.0
370
    -2
100
AcDbBlockReference
  2
_DOTSMALL
 10
9009.148947244787
 20
6334.655613631798
 30
0.0
 41
100.0
 42
100.0
 43
100.0
 50
270.0
  0
INSERT
  5
21C4A
330
20343
100
AcDbEntity
  8
寸法
 62
     0
 48
50.0
370
    -2
100
AcDbBlockReference
  2
_DOTSMALL
 10
9009.148947244787
 20
7084.655613631794
 30
0.0
 41
100.0
 42
100.0
 43
100.0
 50
90.0
  0
MTEXT
  5
21C4B
330
20343
100
AcDbEntity
  8
寸法
 62
     7
 48
50.0
100
AcDbMText
 10
8909.148947244785
 20
6709.655613631797
 30
0.0
 40
120.0
 41
0.0
 71
     5
 72
     1
  1
\A1;750
  7
STYLE1
 11
0.0000000000000001
 21
1.0
 31
0.0
 73
     1
 44
1.0
1001
ACAD
1000
MTEXTBEGIN
1070
    73
1070
     1
1070
    44
1040
1.0
1070
    74
1070
     0
1000
MTEXTEND
  0
POINT
  5
21C4C
330
20343
100
AcDbEntity
  8
DEFPOINTS
 62
     0
 48
50.0
100
AcDbPoint
 10
8794.266553439461
 20
6334.655613631798
 30
0.0
  0
POINT
  5
21C4D
330
20343
100
AcDbEntity
  8
DEFPOINTS
 62
     0
 48
50.0
100
AcDbPoint
 10
8794.266553439461
 20
7084.655613631794
 30
0.0
  0
POINT
  5
21C4E
330
20343
100
AcDbEntity
  8
DEFPOINTS
 62
     0
 48
50.0
100
AcDbPoint
 10
9009.148947244787
 20
7084.655613631794
 30
0.0
  0
ENDBLK
  5
2034E
330
20343
100
AcDbEntity
  8
0
 48
50.0
100
AcDbBlockEnd
  0
BLOCK
  5
215D6
330
215CA
100
AcDbEntity
  8
0
 48
50.0
100
AcDbBlockBegin
  2
*D24
 70
     1
 10
0.0
 20
0.0
 30
0.0
  3
*D24
  1

  0
LINE
  5
219D1
330
215CA
100
AcDbEntity
  8
寸法
 62
     0
 48
50.0
370
    -2
100
AcDbLine
 10
9419.266553439461
 20
7569.655613631791
 30
0.0
 11
9419.266553439461
 21
7221.158981612385
 31
0.0
  0
LINE
  5
219D2
330
215CA
100
AcDbEntity
  8
寸法
 62
     0
 48
50.0
370
    -2
100
AcDbLine
 10
9529.266553439461
 20
7569.655613631794
 30
0.0
 11
9529.266553439461
 21
7221.158981612385
 31
0.0
  0
LINE
  5
219D3
330
215CA
100
AcDbEntity
  8
寸法
 62
     0
 48
50.0
370
    -2
100
AcDbLine
 10
9419.266553439461
 20
7281.158981612385
 30
0.0
 11
9529.266553439461
 21
7281.158981612385
 31
0.0
  0
LINE
  5
219D4
330
215CA
100
AcDbEntity
  8
寸法
 62
     0
 48
50.0
370
    -2
100
AcDbLine
 10
9071.172065250484
 20
7281.158981612385
 30
0.0
 11
9419.266553439461
 21
7281.158981612385
 31
0.0
  0
MTEXT
  5
219D5
330
215CA
100
AcDbEntity
  8
寸法
 62
     7
 48
50.0
100
AcDbMText
 10
9195.219309344974
 20
7381.158981612386
 30
0.0
 40
120.0
 41
0.0
 71
     5
 72
     1
  1
\A1;110
  7
STYLE1
 73
     1
 44
1.0
1001
ACAD
1000
MTEXTBEGIN
1070
    73
1070
     1
1070
    44
1040
1.0
1070
    74
1070
     0
1000
MTEXTEND
  0
INSERT
  5
219D6
330
215CA
100
AcDbEntity
  8
寸法
 62
     0
 48
50.0
370
    -2
100
AcDbBlockReference
  2
_DOTSMALL
 10
9419.266553439461
 20
7281.158981612385
 30
0.0
 41
100.0
 42
100.0
 43
100.0
 50
180.0
  0
INSERT
  5
219D7
330
215CA
100
AcDbEntity
  8
寸法
 62
     0
 48
50.0
370
    -2
100
AcDbBlockReference
  2
_DOTSMALL
 10
9529.266553439461
 20
7281.158981612385
 30
0.0
 41
100.0
 42
100.0
 43
100.0
  0
POINT
  5
219D8
330
215CA
100
AcDbEntity
  8
DEFPOINTS
 62
     0
 48
50.0
100
AcDbPoint
 10
9419.266553439461
 20
7589.655613631791
 30
0.0
  0
POINT
  5
219D9
330
215CA
100
AcDbEntity
  8
DEFPOINTS
 62
     0
 48
50.0
100
AcDbPoint
 10
9529.266553439461
 20
7589.655613631794
 30
0.0
  0
POINT
  5
219DA
330
215CA
100
AcDbEntity
  8
DEFPOINTS
 62
     0
 48
50.0
100
AcDbPoint
 10
9529.266553439461
 20
7281.158981612385
 30
0.0
  0
ENDBLK
  5
215D7
330
215CA
100
AcDbEntity
  8
0
 48
50.0
100
AcDbBlockEnd
  0
BLOCK
  5
21CD1
330
21CCC
100
AcDbEntity
  8
0
 48
50.0
100
AcDbBlockBegin
  2
A$C0A8F5EFF
 70
     0
 10
0.0
 20
0.0
 30
0.0
  3
A$C0A8F5EFF
  1

  0
TEXT
  5
21CCD
330
21CCC
100
AcDbEntity
  8
寸法
 62
     7
100
AcDbText
 10
-207.3115839470356
 20
-888.7707717583143
 30
0.0
 40
120.0
  1
扉位置 (1768x75)
  7
STYLE1
100
AcDbText
  0
LWPOLYLINE
  5
21CCE
330
21CCC
100
AcDbEntity
  8
寸法
 48
50.0
100
AcDbPolyline
 90
        3
 70
     0
 43
0.0
 10
35.18264275057845
 20
0.0
 10
323.9275431397891
 20
-911.0387193066344
 10
-2490.136869791856
 20
-911.0387193066344
210
0.0
220
0.0
230
-1.0
1001
ACAD
1000
DSTYLE
1002
{
1070
   341
1005
0
1070
    40
1040
1.0
1070
   343
1005
0
1070
   344
1005
0
1002
}
  0
TEXT
  5
21CCF
330
21CCC
100
AcDbEntity
  8
寸法
 62
     7
100
AcDbText
 10
-207.3115839470356
 20
-1060.37453464164
 30
0.0
 40
120.0
  1
扉の位置に合わせた基礎形状として下さい。
  7
STYLE1
100
AcDbText
  0
SOLID
  5
21CD0
330
21CCC
100
AcDbEntity
  8
寸法
 48
50.0
100
AcDbTrace
 10
52.09184842056675
 20
-125.5910289048861
 30
0.0
 11
35.18264275057845
 21
0.0
 31
0.0
 12
91.91006289404322
 22
-113.3182579359772
 32
0.0
 13
91.91006289404322
 23
-113.3182579359772
 33
0.0
210
0.0
220
0.0
230
-1.0
1001
ACAD
1000
DSTYLE
1002
{
1070
   341
1005
0
1070
    40
1040
1.0
1070
   343
1005
0
1070
   344
1005
0
1002
}
  0
ENDBLK
  5
21CD2
330
21CCC
100
AcDbEntity
  8
0
 48
50.0
100
AcDbBlockEnd
  0
BLOCK
  5
21D31
330
21D30
100
AcDbEntity
  8
0
 48
50.0
100
AcDbBlockBegin
  2
*D26
 70
     1
 10
0.0
 20
0.0
 30
0.0
  3
*D26
  1

  0
LINE
  5
21D32
330
21D30
100
AcDbEntity
  8
寸法
 62
     0
 48
50.0
370
    -2
100
AcDbLine
 10
6066.6110735628
 20
1953.764973743768
 30
0.0
 11
6066.6110735628
 21
2518.349733639244
 31
0.0
  0
LINE
  5
21D33
330
21D30
100
AcDbEntity
  8
寸法
 62
     0
 48
50.0
370
    -2
100
AcDbLine
 10
5826.6110735628
 20
1953.764973743768
 30
0.0
 11
5826.6110735628
 21
2518.349733639244
 31
0.0
  0
LINE
  5
21D34
330
21D30
100
AcDbEntity
  8
寸法
 62
     0
 48
50.0
370
    -2
100
AcDbLine
 10
6066.6110735628
 20
2458.349733639244
 30
0.0
 11
5826.6110735628
 21
2458.349733639244
 31
0.0
  0
INSERT
  5
21D35
330
21D30
100
AcDbEntity
  8
寸法
 62
     0
 48
50.0
370
    -2
100
AcDbBlockReference
  2
_DOTSMALL
 10
6066.6110735628
 20
2458.349733639244
 30
0.0
 41
100.0
 42
100.0
 43
100.0
  0
INSERT
  5
21D36
330
21D30
100
AcDbEntity
  8
寸法
 62
     0
 48
50.0
370
    -2
100
AcDbBlockReference
  2
_DOTSMALL
 10
5826.6110735628
 20
2458.349733639244
 30
0.0
 41
100.0
 42
100.0
 43
100.0
 50
180.0
  0
MTEXT
  5
21D37
330
21D30
100
AcDbEntity
  8
寸法
 62
     7
 48
50.0
100
AcDbMText
 10
5946.6110735628
 20
2558.361544662866
 30
0.0
 40
120.0
 41
0.0
 71
     5
 72
     1
  1
\A1;120
  7
STYLE1
 73
     1
 44
1.0
1001
ACAD
1000
MTEXTBEGIN
1070
    73
1070
     1
1070
    44
1040
1.0
1070
    74
1070
     0
1000
MTEXTEND
  0
POINT
  5
21D38
330
21D30
100
AcDbEntity
  8
DEFPOINTS
 62
     0
 48
50.0
100
AcDbPoint
 10
6066.6110735628
 20
1933.764973743768
 30
0.0
  0
POINT
  5
21D39
330
21D30
100
AcDbEntity
  8
DEFPOINTS
 62
     0
 48
50.0
100
AcDbPoint
 10
5826.6110735628
 20
1933.764973743768
 30
0.0
  0
POINT
  5
21D3A
330
21D30
100
AcDbEntity
  8
DEFPOINTS
 62
     0
 48
50.0
100
AcDbPoint
 10
5826.6110735628
 20
2458.349733639244
 30
0.0
  0
ENDBLK
  5
21D3B
330
21D30
100
AcDbEntity
  8
0
 48
50.0
100
AcDbBlockEnd
  0
BLOCK
  5
21D3D
330
21D3C
100
AcDbEntity
  8
0
 48
50.0
100
AcDbBlockBegin
  2
*D27
 70
     1
 10
0.0
 20
0.0
 30
0.0
  3
*D27
  1

  0
LINE
  5
21D3E
330
21D3C
100
AcDbEntity
  8
寸法
 62
     0
 48
50.0
370
    -2
100
AcDbLine
 10
5646.6110735628
 20
1253.764973743767
 30
0.0
 11
5428.585681397226
 21
1253.764973743767
 31
0.0
  0
LINE
  5
21D3F
330
21D3C
100
AcDbEntity
  8
寸法
 62
     0
 48
50.0
370
    -2
100
AcDbLine
 10
5546.611073562804
 20
953.7649737437668
 30
0.0
 11
5428.585681397226
 21
953.7649737437668
 31
0.0
  0
LINE
  5
21D40
330
21D3C
100
AcDbEntity
  8
寸法
 62
     0
 48
50.0
370
    -2
100
AcDbLine
 10
5488.585681397226
 20
1253.764973743767
 30
0.0
 11
5488.585681397226
 21
953.7649737437668
 31
0.0
  0
INSERT
  5
21D41
330
21D3C
100
AcDbEntity
  8
寸法
 62
     0
 48
50.0
370
    -2
100
AcDbBlockReference
  2
_DOTSMALL
 10
5488.585681397226
 20
1253.764973743767
 30
0.0
 41
100.0
 42
100.0
 43
100.0
 50
90.0
  0
INSERT
  5
21D42
330
21D3C
100
AcDbEntity
  8
寸法
 62
     0
 48
50.0
370
    -2
100
AcDbBlockReference
  2
_DOTSMALL
 10
5488.585681397226
 20
953.7649737437668
 30
0.0
 41
100.0
 42
100.0
 43
100.0
 50
270.0
  0
MTEXT
  5
21D43
330
21D3C
100
AcDbEntity
  8
寸法
 62
     7
 48
50.0
100
AcDbMText
 10
5388.585681397226
 20
1103.764973743767
 30
0.0
 40
120.0
 41
0.0
 71
     5
 72
     1
  1
\A1;150
  7
STYLE1
 11
0.0000000000000001
 21
1.0
 31
0.0
 73
     1
 44
1.0
1001
ACAD
1000
MTEXTBEGIN
1070
    73
1070
     1
1070
    44
1040
1.0
1070
    74
1070
     0
1000
MTEXTEND
  0
POINT
  5
21D44
330
21D3C
100
AcDbEntity
  8
DEFPOINTS
 62
     0
 48
50.0
100
AcDbPoint
 10
5666.6110735628
 20
1253.764973743767
 30
0.0
  0
POINT
  5
21D45
330
21D3C
100
AcDbEntity
  8
DEFPOINTS
 62
     0
 48
50.0
100
AcDbPoint
 10
5566.611073562804
 20
953.7649737437668
 30
0.0
  0
POINT
  5
21D46
330
21D3C
100
AcDbEntity
  8
DEFPOINTS
 62
     0
 48
50.0
100
AcDbPoint
 10
5488.585681397226
 20
953.7649737437668
 30
0.0
  0
ENDBLK
  5
21D47
330
21D3C
100
AcDbEntity
  8
0
 48
50.0
100
AcDbBlockEnd
  0
BLOCK
  5
21D49
330
21D48
100
AcDbEntity
  8
0
 48
50.0
100
AcDbBlockBegin
  2
*D28
 70
     1
 10
0.0
 20
0.0
 30
0.0
  3
*D28
  1

  0
LINE
  5
21D4A
330
21D48
100
AcDbEntity
  8
寸法
 62
     0
 48
50.0
370
    -2
100
AcDbLine
 10
5806.6110735628
 20
1933.764973743768
 30
0.0
 11
5005.966135526737
 21
1933.764973743768
 31
0.0
  0
LINE
  5
21D4B
330
21D48
100
AcDbEntity
  8
寸法
 62
     0
 48
50.0
370
    -2
100
AcDbLine
 10
5546.611073562804
 20
953.7649737437668
 30
0.0
 11
5005.966135526737
 21
953.764973743767
 31
0.0
  0
LINE
  5
21D4C
330
21D48
100
AcDbEntity
  8
寸法
 62
     0
 48
50.0
370
    -2
100
AcDbLine
 10
5065.966135526736
 20
1933.764973743768
 30
0.0
 11
5065.966135526736
 21
953.764973743767
 31
0.0
  0
INSERT
  5
21D4D
330
21D48
100
AcDbEntity
  8
寸法
 62
     0
 48
50.0
370
    -2
100
AcDbBlockReference
  2
_DOTSMALL
 10
5065.966135526736
 20
1933.764973743768
 30
0.0
 41
100.0
 42
100.0
 43
100.0
 50
90.0
  0
INSERT
  5
21D4E
330
21D48
100
AcDbEntity
  8
寸法
 62
     0
 48
50.0
370
    -2
100
AcDbBlockReference
  2
_DOTSMALL
 10
5065.966135526736
 20
953.764973743767
 30
0.0
 41
100.0
 42
100.0
 43
100.0
 50
270.0
  0
MTEXT
  5
21D4F
330
21D48
100
AcDbEntity
  8
寸法
 62
     7
 48
50.0
100
AcDbMText
 10
4965.966135526736
 20
1443.764973743768
 30
0.0
 40
120.0
 41
0.0
 71
     5
 72
     1
  1
\A1;540
  7
STYLE1
 11
0.0000000000000001
 21
1.0
 31
0.0
 73
     1
 44
1.0
1001
ACAD
1000
MTEXTBEGIN
1070
    73
1070
     1
1070
    44
1040
1.0
1070
    74
1070
     0
1000
MTEXTEND
  0
POINT
  5
21D50
330
21D48
100
AcDbEntity
  8
DEFPOINTS
 62
     0
 48
50.0
100
AcDbPoint
 10
5826.6110735628
 20
1933.764973743768
 30
0.0
  0
POINT
  5
21D51
330
21D48
100
AcDbEntity
  8
DEFPOINTS
 62
     0
 48
50.0
100
AcDbPoint
 10
5566.611073562804
 20
953.7649737437668
 30
0.0
  0
POINT
  5
21D52
330
21D48
100
AcDbEntity
  8
DEFPOINTS
 62
     0
 48
50.0
100
AcDbPoint
 10
5065.966135526736
 20
953.764973743767
 30
0.0
  0
ENDBLK
  5
21D53
330
21D48
100
AcDbEntity
  8
0
 48
50.0
100
AcDbBlockEnd
  0
BLOCK
  5
21D55
330
21D54
100
AcDbEntity
  8
0
 48
50.0
100
AcDbBlockBegin
  2
*D29
 70
     1
 10
0.0
 20
0.0
 30
0.0
  3
*D29
  1

  0
LINE
  5
21D56
330
21D54
100
AcDbEntity
  8
寸法
 62
     0
 48
50.0
370
    -2
100
AcDbLine
 10
5666.6110735628
 20
773.7649737437668
 30
0.0
 11
5666.6110735628
 21
434.8128672878337
 31
0.0
  0
LINE
  5
21D57
330
21D54
100
AcDbEntity
  8
寸法
 62
     0
 48
50.0
370
    -2
100
AcDbLine
 10
6226.611073562801
 20
773.7649737437668
 30
0.0
 11
6226.611073562801
 21
434.8128672878337
 31
0.0
  0
LINE
  5
21D58
330
21D54
100
AcDbEntity
  8
寸法
 62
     0
 48
50.0
370
    -2
100
AcDbLine
 10
5666.6110735628
 20
494.8128672878338
 30
0.0
 11
6226.611073562801
 21
494.8128672878338
 31
0.0
  0
INSERT
  5
21D59
330
21D54
100
AcDbEntity
  8
寸法
 62
     0
 48
50.0
370
    -2
100
AcDbBlockReference
  2
_DOTSMALL
 10
5666.6110735628
 20
494.8128672878338
 30
0.0
 41
100.0
 42
100.0
 43
100.0
 50
180.0
  0
INSERT
  5
21D5A
330
21D54
100
AcDbEntity
  8
寸法
 62
     0
 48
50.0
370
    -2
100
AcDbBlockReference
  2
_DOTSMALL
 10
6226.611073562801
 20
494.8128672878338
 30
0.0
 41
100.0
 42
100.0
 43
100.0
  0
MTEXT
  5
21D5B
330
21D54
100
AcDbEntity
  8
寸法
 62
     7
 48
50.0
100
AcDbMText
 10
5946.6110735628
 20
594.8128672878338
 30
0.0
 40
120.0
 41
0.0
 71
     5
 72
     1
  1
\A1;300
  7
STYLE1
 73
     1
 44
1.0
1001
ACAD
1000
MTEXTBEGIN
1070
    73
1070
     1
1070
    44
1040
1.0
1070
    74
1070
     0
1000
MTEXTEND
  0
POINT
  5
21D5C
330
21D54
100
AcDbEntity
  8
DEFPOINTS
 62
     0
 48
50.0
100
AcDbPoint
 10
5666.6110735628
 20
793.7649737437668
 30
0.0
  0
POINT
  5
21D5D
330
21D54
100
AcDbEntity
  8
DEFPOINTS
 62
     0
 48
50.0
100
AcDbPoint
 10
6226.611073562801
 20
793.7649737437668
 30
0.0
  0
POINT
  5
21D5E
330
21D54
100
AcDbEntity
  8
DEFPOINTS
 62
     0
 48
50.0
100
AcDbPoint
 10
6226.611073562801
 20
494.8128672878338
 30
0.0
  0
ENDBLK
  5
21D5F
330
21D54
100
AcDbEntity
  8
0
 48
50.0
100
AcDbBlockEnd
  0
BLOCK
  5
21D61
330
21D60
100
AcDbEntity
  8
0
 48
50.0
100
AcDbBlockBegin
  2
*D30
 70
     1
 10
0.0
 20
0.0
 30
0.0
  3
*D30
  1

  0
LINE
  5
21D62
330
21D60
100
AcDbEntity
  8
寸法
 62
     0
 48
50.0
370
    -2
100
AcDbLine
 10
8489.160215034294
 20
1933.764973743768
 30
0.0
 11
9156.495964745349
 21
1933.764973743768
 31
0.0
  0
LINE
  5
21D63
330
21D60
100
AcDbEntity
  8
寸法
 62
     0
 48
50.0
370
    -2
100
AcDbLine
 10
8489.160215034294
 20
1528.764973743766
 30
0.0
 11
9156.495964745349
 21
1528.764973743766
 31
0.0
  0
LINE
  5
21D64
330
21D60
100
AcDbEntity
  8
寸法
 62
     0
 48
50.0
370
    -2
100
AcDbLine
 10
9096.495964745349
 20
1933.764973743768
 30
0.0
 11
9096.495964745349
 21
1528.764973743766
 31
0.0
  0
INSERT
  5
21D65
330
21D60
100
AcDbEntity
  8
寸法
 62
     0
 48
50.0
370
    -2
100
AcDbBlockReference
  2
_DOTSMALL
 10
9096.495964745349
 20
1933.764973743768
 30
0.0
 41
100.0
 42
100.0
 43
100.0
 50
90.0
  0
INSERT
  5
21D66
330
21D60
100
AcDbEntity
  8
寸法
 62
     0
 48
50.0
370
    -2
100
AcDbBlockReference
  2
_DOTSMALL
 10
9096.495964745349
 20
1528.764973743766
 30
0.0
 41
100.0
 42
100.0
 43
100.0
 50
270.0
  0
MTEXT
  5
21D67
330
21D60
100
AcDbEntity
  8
寸法
 62
     7
 48
50.0
100
AcDbMText
 10
8996.495964745347
 20
1731.264973743768
 30
0.0
 40
120.0
 41
0.0
 71
     5
 72
     1
  1
\A1;180
  7
STYLE1
 11
0.0000000000000001
 21
1.0
 31
0.0
 73
     1
 44
1.0
1001
ACAD
1000
MTEXTBEGIN
1070
    73
1070
     1
1070
    44
1040
1.0
1070
    74
1070
     0
1000
MTEXTEND
  0
POINT
  5
21D68
330
21D60
100
AcDbEntity
  8
DEFPOINTS
 62
     0
 48
50.0
100
AcDbPoint
 10
8469.160215034293
 20
1933.764973743768
 30
0.0
  0
POINT
  5
21D69
330
21D60
100
AcDbEntity
  8
DEFPOINTS
 62
     0
 48
50.0
100
AcDbPoint
 10
8469.160215034293
 20
1528.764973743766
 30
0.0
  0
POINT
  5
21D6A
330
21D60
100
AcDbEntity
  8
DEFPOINTS
 62
     0
 48
50.0
100
AcDbPoint
 10
9096.495964745349
 20
1528.764973743766
 30
0.0
  0
ENDBLK
  5
21D6B
330
21D60
100
AcDbEntity
  8
0
 48
50.0
100
AcDbBlockEnd
  0
BLOCK
  5
21D6D
330
21D6C
100
AcDbEntity
  8
0
 48
50.0
100
AcDbBlockBegin
  2
*D31
 70
     1
 10
0.0
 20
0.0
 30
0.0
  3
*D31
  1

  0
LINE
  5
21D6E
330
21D6C
100
AcDbEntity
  8
寸法
 62
     0
 48
50.0
370
    -2
100
AcDbLine
 10
8255.160215034292
 20
1999.714973743768
 30
0.0
 11
9501.564297394132
 21
1999.714973743768
 31
0.0
  0
LINE
  5
21D6F
330
21D6C
100
AcDbEntity
  8
寸法
 62
     0
 48
50.0
370
    -2
100
AcDbLine
 10
8489.160215034294
 20
1933.764973743768
 30
0.0
 11
9501.564297394132
 21
1933.764973743768
 31
0.0
  0
LINE
  5
21D70
330
21D6C
100
AcDbEntity
  8
寸法
 62
     0
 48
50.0
370
    -2
100
AcDbLine
 10
9441.564297394132
 20
1999.714973743768
 30
0.0
 11
9441.564297394132
 21
2099.714973743768
 31
0.0
  0
LINE
  5
21D71
330
21D6C
100
AcDbEntity
  8
寸法
 62
     0
 48
50.0
370
    -2
100
AcDbLine
 10
9441.564297394132
 20
1933.764973743768
 30
0.0
 11
9441.564297394132
 21
1201.747166900802
 31
0.0
  0
LINE
  5
21D72
330
21D6C
100
AcDbEntity
  8
寸法
 62
     0
 48
50.0
370
    -2
100
AcDbLine
 10
9441.564297394132
 20
1999.714973743768
 30
0.0
 11
9441.564297394132
 21
1933.764973743768
 31
0.0
  0
INSERT
  5
21D73
330
21D6C
100
AcDbEntity
  8
寸法
 62
     0
 48
50.0
370
    -2
100
AcDbBlockReference
  2
_DOTSMALL
 10
9441.564297394132
 20
1999.714973743768
 30
0.0
 41
100.0
 42
100.0
 43
100.0
 50
270.0
  0
INSERT
  5
21D74
330
21D6C
100
AcDbEntity
  8
寸法
 62
     0
 48
50.0
370
    -2
100
AcDbBlockReference
  2
_DOTSMALL
 10
9441.564297394132
 20
1933.764973743768
 30
0.0
 41
100.0
 42
100.0
 43
100.0
 50
90.0
  0
MTEXT
  5
21D75
330
21D6C
100
AcDbEntity
  8
寸法
 62
     7
 48
50.0
100
AcDbMText
 10
9341.55248637051
 20
1467.756070322286
 30
0.0
 40
120.0
 41
0.0
 71
     5
 72
     1
  1
\A1;20～25
  7
STYLE1
 11
0.0000000000000001
 21
1.0
 31
0.0
 73
     1
 44
1.0
1001
ACAD
1000
MTEXTBEGIN
1070
    73
1070
     1
1070
    44
1040
1.0
1070
    74
1070
     0
1000
MTEXTEND
  0
POINT
  5
21D76
330
21D6C
100
AcDbEntity
  8
DEFPOINTS
 62
     0
 48
50.0
100
AcDbPoint
 10
8235.160215034294
 20
1999.714973743768
 30
0.0
  0
POINT
  5
21D77
330
21D6C
100
AcDbEntity
  8
DEFPOINTS
 62
     0
 48
50.0
100
AcDbPoint
 10
8469.160215034293
 20
1933.764973743768
 30
0.0
  0
POINT
  5
21D78
330
21D6C
100
AcDbEntity
  8
DEFPOINTS
 62
     0
 48
50.0
100
AcDbPoint
 10
9441.564297394132
 20
1933.764973743768
 30
0.0
  0
ENDBLK
  5
21D79
330
21D6C
100
AcDbEntity
  8
0
 48
50.0
100
AcDbBlockEnd
  0
BLOCK
  5
21EB3
330
21D7A
100
AcDbEntity
  8
0
 48
50.0
100
AcDbBlockBegin
  2
A$C26D13346
 70
     0
 10
0.0
 20
0.0
 30
0.0
  3
A$C26D13346
  1

  0
LINE
  5
21D7B
330
21D7A
100
AcDbEntity
  8
細線
 48
50.0
100
AcDbLine
 10
-5347.953568219671
 20
289.1413291770778
 30
0.0
 11
-5355.992043992611
 21
319.1413291770778
 31
0.0
  0
LINE
  5
21D7C
330
21D7A
100
AcDbEntity
  8
細線
100
AcDbLine
 10
-5559.70394971473
 20
319.1413291770823
 30
0.0
 11
-5445.080305148053
 21
433.7649737437677
 31
0.0
  0
LINE
  5
21D7D
330
21D7A
100
AcDbEntity
  8
細線
100
AcDbLine
 10
-5602.130356585922
 20
319.1413291770823
 30
0.0
 11
-5487.506712019242
 21
433.7649737437677
 31
0.0
  0
LINE
  5
21D7E
330
21D7A
100
AcDbEntity
  8
細線
100
AcDbLine
 10
-5517.277542843541
 20
319.1413291770823
 30
0.0
 11
-5402.653898276861
 21
433.7649737437677
 31
0.0
  0
LINE
  5
21D7F
330
21D7A
100
AcDbEntity
  8
細線
 48
50.0
100
AcDbLine
 10
-5545.173680587801
 20
289.14132917708
 30
0.0
 11
-5553.212156360742
 21
319.14132917708
 31
0.0
  0
LINE
  5
21D80
330
21D7A
100
AcDbEntity
  8
細線
 48
50.0
100
AcDbLine
 10
-5446.563624403733
 20
289.1413291770778
 30
0.0
 11
-5454.602100176671
 21
319.1413291770778
 31
0.0
  0
LINE
  5
21D81
330
21D7A
100
AcDbEntity
  8
部品1
100
AcDbLine
 10
-5443.425849710092
 20
733.7649737437682
 30
0.0
 11
-5443.425849710092
 21
433.7649737437677
 31
0.0
  0
LINE
  5
21D82
330
21D7A
100
AcDbEntity
  8
細線
 48
50.0
100
AcDbLine
 10
-5742.393792955912
 20
289.14132917708
 30
0.0
 11
-5750.432268728842
 21
319.14132917708
 31
0.0
  0
LINE
  5
21D83
330
21D7A
100
AcDbEntity
  8
細線
 48
50.0
100
AcDbLine
 10
-5643.783736771851
 20
289.14132917708
 30
0.0
 11
-5651.822212544781
 21
319.14132917708
 31
0.0
  0
LINE
  5
21D84
330
21D7A
100
AcDbEntity
  8
細線
100
AcDbLine
 10
-6009.70394971473
 20
319.141329177081
 30
0.0
 11
-5895.080305148052
 21
433.7649737437677
 31
0.0
  0
LINE
  5
21D85
330
21D7A
100
AcDbEntity
  8
細線
100
AcDbLine
 10
-5967.277542843541
 20
319.141329177081
 30
0.0
 11
-5852.653898276861
 21
433.7649737437677
 31
0.0
  0
LINE
  5
21D86
330
21D7A
100
AcDbEntity
  8
細線
 48
50.0
100
AcDbLine
 10
-5841.003849139972
 20
289.14132917708
 30
0.0
 11
-5849.042324912901
 21
319.14132917708
 31
0.0
  0
LINE
  5
21D87
330
21D7A
100
AcDbEntity
  8
細線
 48
50.0
100
AcDbLine
 10
-5939.613905324023
 20
289.14132917708
 30
0.0
 11
-5947.652381096961
 21
319.14132917708
 31
0.0
  0
LINE
  5
21D88
330
21D7A
100
AcDbEntity
  8
細線
100
AcDbLine
 10
-5524.362537951351
 20
433.7649737437677
 30
0.0
 11
-5824.36253795135
 21
733.7649737437682
 31
0.0
  0
LINE
  5
21D89
330
21D7A
100
AcDbEntity
  8
細線
100
AcDbLine
 10
-5460.722927644571
 20
433.7649737437695
 30
0.0
 11
-5760.722927644561
 21
733.7649737437682
 31
0.0
  0
LEADER
  5
21D8A
330
21D7A
100
AcDbEntity
  8
寸法
 48
50.0
100
AcDbLeader
  3
INABA_S40G
 71
     0
 73
     0
 74
     0
 75
     1
 40
150.0
 41
231.9898538650463
 76
     3
 10
-5530.020335190191
 20
733.7649737437682
 30
0.0
 10
-5441.097576898132
 20
940.19787459519
 30
0.0
 10
-5341.097576898132
 20
940.19787459519
 30
0.0
  0
MTEXT
  5
21D8B
102
{ACAD_REACTORS
330
21D8A
102
}
330
21D7A
100
AcDbEntity
  8
寸法
 62
     7
 48
50.0
100
AcDbMText
 10
-5301.097576898132
 20
1055.19787459519
 30
0.0
 40
150.0
 41
1.0
 71
     4
 72
     1
  1
\A1;C.B
  7
STYLE1
 73
     1
 44
1.0
1001
ACAD
1000
MTEXTBEGIN
1070
    73
1070
     1
1070
    44
1040
1.0
1070
    74
1070
     0
1000
MTEXTEND
  0
LINE
  5
21D8C
330
21D7A
100
AcDbEntity
  8
細線
 48
50.0
100
AcDbLine
 10
-5374.748487462783
 20
189.1413291770777
 30
0.0
 11
-5366.710011689853
 21
159.1413291770777
 31
0.0
  0
LINE
  5
21D8D
330
21D7A
100
AcDbEntity
  8
細線
 48
50.0
100
AcDbLine
 10
-5571.968599830902
 20
189.14132917708
 30
0.0
 11
-5563.930124057961
 21
159.14132917708
 31
0.0
  0
LINE
  5
21D8E
330
21D7A
100
AcDbEntity
  8
細線
 48
50.0
100
AcDbLine
 10
-5473.358543646842
 20
189.1413291770777
 30
0.0
 11
-5465.320067873912
 21
159.1413291770777
 31
0.0
  0
LINE
  5
21D8F
330
21D7A
100
AcDbEntity
  8
細線
 48
50.0
100
AcDbLine
 10
-5769.188712199022
 20
189.14132917708
 30
0.0
 11
-5761.15023642609
 21
159.14132917708
 31
0.0
  0
LINE
  5
21D90
330
21D7A
100
AcDbEntity
  8
細線
 48
50.0
100
AcDbLine
 10
-5670.578656014961
 20
189.14132917708
 30
0.0
 11
-5662.540180242031
 21
159.14132917708
 31
0.0
  0
LINE
  5
21D91
330
21D7A
100
AcDbEntity
  8
細線
 48
50.0
100
AcDbLine
 10
-5966.408824567132
 20
189.14132917708
 30
0.0
 11
-5958.370348794202
 21
159.14132917708
 31
0.0
  0
LINE
  5
21D92
330
21D7A
100
AcDbEntity
  8
細線
 48
50.0
100
AcDbLine
 10
-5867.798768383082
 20
189.14132917708
 30
0.0
 11
-5859.760292610141
 21
159.14132917708
 31
0.0
  0
LINE
  5
21D93
330
21D7A
100
AcDbEntity
  8
細線
 48
50.0
100
AcDbLine
 10
-5777.227187971961
 20
159.1413291770777
 30
0.0
 11
-5734.355317182982
 21
319.1413291770778
 31
0.0
  0
LINE
  5
21D94
330
21D7A
100
AcDbEntity
  8
細線
 48
50.0
100
AcDbLine
 10
-5974.447300340073
 20
159.14132917708
 30
0.0
 11
-5931.575429551101
 21
319.14132917708
 31
0.0
  0
LINE
  5
21D95
330
21D7A
100
AcDbEntity
  8
細線
 48
50.0
100
AcDbLine
 10
-5875.837244156023
 20
159.14132917708
 30
0.0
 11
-5832.965373367041
 21
319.1413291770778
 31
0.0
  0
LINE
  5
21D96
330
21D7A
100
AcDbEntity
  8
細線
 48
50.0
100
AcDbLine
 10
-5580.007075603842
 20
159.1413291770777
 30
0.0
 11
-5537.13520481487
 21
319.14132917708
 31
0.0
  0
LINE
  5
21D97
330
21D7A
100
AcDbEntity
  8
細線
 48
50.0
100
AcDbLine
 10
-5678.617131787902
 20
159.14132917708
 30
0.0
 11
-5635.745260998922
 21
319.1413291770778
 31
0.0
  0
LINE
  5
21D98
330
21D7A
100
AcDbEntity
  8
細線
 48
50.0
100
AcDbLine
 10
-5382.78696323573
 20
159.1413291770777
 30
0.0
 11
-5339.915092446741
 21
319.1413291770759
 31
0.0
  0
LINE
  5
21D99
330
21D7A
100
AcDbEntity
  8
細線
 48
50.0
100
AcDbLine
 10
-5481.39701941978
 20
159.1413291770759
 30
0.0
 11
-5438.525148630803
 21
319.1413291770759
 31
0.0
  0
LINE
  5
21D9A
330
21D7A
100
AcDbEntity
  8
部品1
100
AcDbLine
 10
-5293.425849710091
 20
433.7649737437677
 30
0.0
 11
-5293.425849710091
 21
159.14132917708
 31
0.0
  0
LINE
  5
21D9B
330
21D7A
100
AcDbEntity
  8
部品1
100
AcDbLine
 10
-4702.914921890951
 20
-874.0900042832654
 30
0.0
 11
-4702.914921890951
 21
2384.979498464825
 31
0.0
  0
TEXT
  5
21D9C
330
21D7A
100
AcDbEntity
  8
部品1
100
AcDbText
 10
-8593.460509472334
 20
2160.539583525538
 30
0.0
 40
150.0
  1
基礎詳細
  7
STYLE2
100
AcDbText
  0
LINE
  5
21D9D
330
21D7A
100
AcDbEntity
  8
細線
 48
50.0
100
AcDbLine
 10
-6038.223961508091
 20
289.14132917708
 30
0.0
 11
-6046.262437281022
 21
319.14132917708
 31
0.0
  0
LINE
  5
21D9E
330
21D7A
100
AcDbEntity
  8
細線
 48
50.0
100
AcDbLine
 10
-6136.834017692152
 20
289.14132917708
 30
0.0
 11
-6144.872493465091
 21
319.14132917708
 31
0.0
  0
LINE
  5
21D9F
330
21D7A
100
AcDbEntity
  8
部品1
100
AcDbLine
 10
-6043.425849710091
 20
433.7649737437677
 30
0.0
 11
-6043.425849710091
 21
733.7649737437682
 31
0.0
  0
LINE
  5
21DA0
330
21D7A
100
AcDbEntity
  8
細線
 48
50.0
100
AcDbLine
 10
-6163.628936935261
 20
189.14132917708
 30
0.0
 11
-6155.590461162332
 21
159.14132917708
 31
0.0
  0
LINE
  5
21DA1
330
21D7A
100
AcDbEntity
  8
細線
 48
50.0
100
AcDbLine
 10
-6065.018880751202
 20
189.14132917708
 30
0.0
 11
-6056.980404978272
 21
159.14132917708
 31
0.0
  0
LINE
  5
21DA2
330
21D7A
100
AcDbEntity
  8
細線
 48
50.0
100
AcDbLine
 10
-7632.567503475288
 20
-276.235026256234
 30
0.0
 11
-7640.60597924822
 21
-246.2350262562341
 31
0.0
  0
LINE
  5
21DA3
330
21D7A
100
AcDbEntity
  8
部品1
 48
50.0
100
AcDbLine
 10
-7578.039784965703
 20
-246.2350262562331
 30
0.0
 11
-7578.039784965703
 21
-406.2350262562331
 31
0.0
  0
LINE
  5
21DA4
330
21D7A
100
AcDbEntity
  8
細線
 48
50.0
100
AcDbLine
 10
-6171.667412708202
 20
159.14132917708
 30
0.0
 11
-6128.795541919222
 21
319.14132917708
 31
0.0
  0
LINE
  5
21DA5
330
21D7A
100
AcDbEntity
  8
部品1
100
AcDbLine
 10
-6193.425849710092
 20
159.1413291770759
 30
0.0
 11
-6193.425849710092
 21
433.7649737437677
 31
0.0
  0
TEXT
  5
21DA6
330
21D7A
100
AcDbEntity
  8
部品1
 48
50.0
100
AcDbText
 10
-6668.76747803539
 20
100.2652979471313
 30
0.0
 40
100.0
  1
ボルトの出
 50
90.0
  7
STYLE2
100
AcDbText
  0
LINE
  5
21DA7
330
21D7A
100
AcDbEntity
  8
細線
 48
50.0
100
AcDbLine
 10
-6073.057356524142
 20
159.1413291770777
 30
0.0
 11
-6030.18548573516
 21
319.1413291770778
 31
0.0
  0
LINE
  5
21DA8
330
21D7A
100
AcDbEntity
  8
部品1
 48
50.0
100
AcDbLine
 10
-8058.789784965709
 20
1172.359075130196
 30
0.0
 11
-8038.789784965707
 21
1182.359075130196
 31
0.0
  0
LINE
  5
21DA9
330
21D7A
100
AcDbEntity
  8
部品1
 48
50.0
100
AcDbLine
 10
-8058.789784965709
 20
1212.359075130196
 30
0.0
 11
-8038.789784965707
 21
1222.359075130198
 31
0.0
  0
LINE
  5
21DAA
330
21D7A
100
AcDbEntity
  8
細線
 48
50.0
100
AcDbLine
 10
-8058.789784965709
 20
1172.359075130196
 30
0.0
 11
-8058.789784965709
 21
1212.359075130196
 31
0.0
  0
LINE
  5
21DAB
330
21D7A
100
AcDbEntity
  8
部品1
 48
50.0
100
AcDbLine
 10
-8038.789784965707
 20
1182.359075130196
 30
0.0
 11
-8038.789784965707
 21
1222.359075130198
 31
0.0
  0
LINE
  5
21DAC
330
21D7A
100
AcDbEntity
  8
部品1
 48
50.0
100
AcDbLine
 10
-8058.789784965709
 20
1232.359075130196
 30
0.0
 11
-8038.789784965707
 21
1222.359075130198
 31
0.0
  0
LINE
  5
21DAD
330
21D7A
100
AcDbEntity
  8
部品1
 48
50.0
100
AcDbLine
 10
-8028.789784965708
 20
1058.169084299108
 30
0.0
 11
-8028.789784965708
 21
1070.169084299108
 31
0.0
  0
LINE
  5
21DAE
330
21D7A
100
AcDbEntity
  8
細線
 48
50.0
100
AcDbLine
 10
-8098.789784965708
 20
1172.359075130196
 30
0.0
 11
-8098.789784965708
 21
1212.359075130196
 31
0.0
  0
LINE
  5
21DAF
330
21D7A
100
AcDbEntity
  8
部品1
 48
50.0
100
AcDbLine
 10
-8118.789784965708
 20
1182.359075130196
 30
0.0
 11
-8118.789784965708
 21
1222.359075130198
 31
0.0
  0
LINE
  5
21DB0
330
21D7A
100
AcDbEntity
  8
部品1
 48
50.0
100
AcDbLine
 10
-8118.789784965708
 20
1222.359075130198
 30
0.0
 11
-8098.789784965708
 21
1212.359075130196
 31
0.0
  0
LINE
  5
21DB1
330
21D7A
100
AcDbEntity
  8
部品1
 48
50.0
100
AcDbLine
 10
-8118.789784965708
 20
1182.359075130196
 30
0.0
 11
-8098.789784965708
 21
1172.359075130196
 31
0.0
  0
LINE
  5
21DB2
330
21D7A
100
AcDbEntity
  8
部品1
 48
50.0
100
AcDbLine
 10
-8118.789784965708
 20
1222.359075130198
 30
0.0
 11
-8098.789784965708
 21
1232.359075130196
 31
0.0
  0
LINE
  5
21DB3
330
21D7A
100
AcDbEntity
  8
部品1
100
AcDbLine
 10
-8220.539784965707
 20
805.7649737437682
 30
0.0
 11
-8171.039784965707
 21
805.7649737437682
 31
0.0
  0
ARC
  5
21DB4
330
21D7A
100
AcDbEntity
  8
部品1
100
AcDbCircle
 10
-8223.914784965707
 20
869.889973743764
 30
0.0
 40
3.375
100
AcDbArc
 50
0.0
 51
90.0
  0
LINE
  5
21DB5
330
21D7A
100
AcDbEntity
  8
部品1
100
AcDbLine
 10
-8220.539784965707
 20
869.889973743764
 30
0.0
 11
-8220.539784965707
 21
805.7649737437682
 31
0.0
  0
LINE
  5
21DB6
330
21D7A
100
AcDbEntity
  8
部品1
 48
50.0
100
AcDbLine
 10
-8128.789784965707
 20
1070.169084299108
 30
0.0
 11
-8128.789784965707
 21
1058.169084299108
 31
0.0
  0
LINE
  5
21DB7
330
21D7A
100
AcDbEntity
  8
部品1
100
AcDbLine
 10
-8191.289784965707
 20
820.714973743768
 30
0.0
 11
-8156.089784965706
 21
820.714973743768
 31
0.0
  0
ARC
  5
21DB8
330
21D7A
100
AcDbEntity
  8
部品1
100
AcDbCircle
 10
-8191.289784965707
 20
817.3399737437694
 30
0.0
 40
3.375
100
AcDbArc
 50
90.0
 51
180.0
  0
ARC
  5
21DB9
330
21D7A
100
AcDbEntity
  8
部品1
100
AcDbCircle
 10
-8156.089784965706
 20
817.3399737437694
 30
0.0
 40
3.375
100
AcDbArc
 50
0.0
 51
90.0
  0
LINE
  5
21DBA
330
21D7A
100
AcDbEntity
  8
部品1
100
AcDbLine
 10
-8090.039784965709
 20
795.214973743768
 30
0.0
 11
-8067.539784965708
 21
795.214973743768
 31
0.0
  0
LINE
  5
21DBB
330
21D7A
100
AcDbEntity
  8
部品1
100
AcDbLine
 10
-8085.539784965709
 20
799.714973743768
 30
0.0
 11
-8072.039784965708
 21
799.714973743768
 31
0.0
  0
ARC
  5
21DBC
330
21D7A
100
AcDbEntity
  8
部品1
100
AcDbCircle
 10
-8171.039784965707
 20
802.3899737437682
 30
0.0
 40
3.375
100
AcDbArc
 50
0.0
 51
90.0
  0
LINE
  5
21DBD
330
21D7A
100
AcDbEntity
  8
部品1
100
AcDbLine
 10
-8194.664784965707
 20
817.3399737437694
 30
0.0
 11
-8194.664784965707
 21
795.964973743768
 31
0.0
  0
ARC
  5
21DBE
330
21D7A
100
AcDbEntity
  8
部品1
100
AcDbCircle
 10
-8276.789784965707
 20
869.8899737437683
 30
0.0
 40
3.375
100
AcDbArc
 50
90.0
 51
180.0
  0
LINE
  5
21DBF
330
21D7A
100
AcDbEntity
  8
部品1
100
AcDbLine
 10
-8280.164784965707
 20
859.7649737437683
 30
0.0
 11
-8280.164784965707
 21
859.7649737437683
 31
0.0
  0
LINE
  5
21DC0
330
21D7A
100
AcDbEntity
  8
部品1
100
AcDbLine
 10
-8280.164784965707
 20
859.7649737437683
 30
0.0
 11
-8280.164784965707
 21
869.8899737437683
 31
0.0
  0
LINE
  5
21DC1
330
21D7A
100
AcDbEntity
  8
部品1
100
AcDbLine
 10
-8283.539784965707
 20
846.2649737437683
 30
0.0
 11
-8283.539784965707
 21
856.3899737437681
 31
0.0
  0
ARC
  5
21DC2
330
21D7A
100
AcDbEntity
  8
部品1
100
AcDbCircle
 10
-8280.164784965707
 20
856.3899737437681
 30
0.0
 40
3.375
100
AcDbArc
 50
90.0
 51
180.0
  0
LINE
  5
21DC3
330
21D7A
100
AcDbEntity
  8
部品1
100
AcDbLine
 10
-8334.164784965707
 20
832.7649737437681
 30
0.0
 11
-8334.164784965707
 21
842.8899737437681
 31
0.0
  0
ARC
  5
21DC4
330
21D7A
100
AcDbEntity
  8
部品1
100
AcDbCircle
 10
-8330.789784965707
 20
842.8899737437681
 30
0.0
 40
3.375
100
AcDbArc
 50
90.0
 51
180.0
  0
ARC
  5
21DC5
330
21D7A
100
AcDbEntity
  8
部品1
100
AcDbCircle
 10
-8344.289784965708
 20
826.7548533721528
 30
0.0
 40
3.375
100
AcDbArc
 50
104.0362434679581
 51
180.0
  0
LINE
  5
21DC6
330
21D7A
100
AcDbEntity
  8
部品1
100
AcDbLine
 10
-8345.108342700207
 20
830.0290843101434
 30
0.0
 11
-8334.164784965707
 21
832.7649737437681
 31
0.0
  0
LINE
  5
21DC7
330
21D7A
100
AcDbEntity
  8
部品1
100
AcDbLine
 10
-8330.789784965707
 20
846.2649737437683
 30
0.0
 11
-8283.539784965707
 21
846.2649737437683
 31
0.0
  0
LINE
  5
21DC8
330
21D7A
100
AcDbEntity
  8
部品1
100
AcDbLine
 10
-8276.789784965707
 20
873.2649737437673
 30
0.0
 11
-8223.914784965707
 21
873.2649737437641
 31
0.0
  0
ELLIPSE
  5
21DC9
330
21D7A
100
AcDbEntity
  8
部品1
 48
50.0
100
AcDbEllipse
 10
-8078.789784965707
 20
1070.169084299108
 30
0.0
 11
23.0
 21
0.0
 31
0.0
210
0.0
220
0.0
230
1.0
 40
0.3478260869565217
 41
0.0
 42
6.283185307179585
  0
ELLIPSE
  5
21DCA
330
21D7A
100
AcDbEntity
  8
部品1
 48
50.0
100
AcDbEllipse
 10
-8078.789784965707
 20
1070.169084299108
 30
0.0
 11
50.0
 21
0.0
 31
0.0
210
0.0
220
0.0
230
1.0
 40
0.4
 41
0.0
 42
6.283185307179585
  0
ELLIPSE
  5
21DCB
330
21D7A
100
AcDbEntity
  8
部品1
 48
50.0
100
AcDbEllipse
 10
-8078.789784965707
 20
1058.169084299108
 30
0.0
 11
50.0
 21
0.0
 31
0.0
210
0.0
220
0.0
230
1.0
 40
0.4
 41
3.141592653589792
 42
6.283185307179585
  0
LINE
  5
21DCC
330
21D7A
100
AcDbEntity
  8
部品1
 48
50.0
100
AcDbLine
 10
-8098.789784965708
 20
1232.359075130196
 30
0.0
 11
-8058.789784965709
 21
1232.359075130196
 31
0.0
  0
ELLIPSE
  5
21DCD
330
21D7A
100
AcDbEntity
  8
細線
 48
50.0
100
AcDbEllipse
 10
-8078.789784965707
 20
1222.359075130197
 30
0.0
 11
18.45838483258558
 21
0.0
 31
0.0
210
0.0
220
0.0
230
1.0
 40
0.2071254069489396
 41
0.0
 42
6.283185307179585
  0
LINE
  5
21DCE
330
21D7A
100
AcDbEntity
  8
部品1
 48
50.0
100
AcDbLine
 10
-8098.789784965708
 20
1172.359075130196
 30
0.0
 11
-8058.789784965709
 21
1172.359075130196
 31
0.0
  0
LINE
  5
21DCF
330
21D7A
100
AcDbEntity
  8
部品1
 48
50.0
100
AcDbLine
 10
-8098.789784965708
 20
1212.359075130196
 30
0.0
 11
-8058.789784965709
 21
1212.359075130196
 31
0.0
  0
LINE
  5
21DD0
330
21D7A
100
AcDbEntity
  8
細線
 48
50.0
100
AcDbLine
 10
-8000.039784965705
 20
535.1753268545035
 30
0.0
 11
-7838.039784965707
 21
697.1753268545021
 31
0.0
  0
LINE
  5
21DD1
330
21D7A
100
AcDbEntity
  8
細線
 48
50.0
100
AcDbLine
 10
-8000.039784965705
 20
501.4993664004824
 30
0.0
 11
-7838.039784965707
 21
663.4993664004782
 31
0.0
  0
LINE
  5
21DD2
330
21D7A
100
AcDbEntity
  8
部品1
100
AcDbLine
 10
-8022.539784965706
 20
430.0149737437668
 30
0.0
 11
-8022.539784965706
 21
452.5149737437677
 31
0.0
  0
LINE
  5
21DD3
330
21D7A
100
AcDbEntity
  8
部品1
100
AcDbLine
 10
-8000.039784965707
 20
328.7649737437669
 30
0.0
 11
-8000.039784965707
 21
733.7649737437682
 31
0.0
  0
LINE
  5
21DD4
330
21D7A
100
AcDbEntity
  8
細線
 48
50.0
100
AcDbLine
 10
-8000.039784965705
 20
467.8234059464653
 30
0.0
 11
-7838.039784965707
 21
629.8234059464548
 31
0.0
  0
LINE
  5
21DD5
330
21D7A
100
AcDbEntity
  8
部品1
100
AcDbLine
 10
-8185.664784965707
 20
745.714973743768
 30
0.0
 11
-8171.039784965707
 21
745.714973743768
 31
0.0
  0
ARC
  5
21DD6
330
21D7A
100
AcDbEntity
  8
部品1
100
AcDbCircle
 10
-8149.339784965714
 20
749.089973743768
 30
0.0
 40
3.375
100
AcDbArc
 50
180.0
 51
270.0
  0
ARC
  5
21DD7
330
21D7A
100
AcDbEntity
  8
部品1
100
AcDbCircle
 10
-8171.039784965707
 20
749.089973743768
 30
0.0
 40
3.375
100
AcDbArc
 50
270.0
 51
0.0
  0
ARC
  5
21DD8
330
21D7A
100
AcDbEntity
  8
部品1
100
AcDbCircle
 10
-8344.289784965708
 20
749.089973743768
 30
0.0
 40
3.375
100
AcDbArc
 50
180.0
 51
270.0
  0
LINE
  5
21DD9
330
21D7A
100
AcDbEntity
  8
細線
 48
50.0
100
AcDbLine
 10
-8355.539784965706
 20
718.4906941186491
 30
0.0
 11
-8340.265505340589
 21
733.7649737437682
 31
0.0
  0
LINE
  5
21DDA
330
21D7A
100
AcDbEntity
  8
部品1
100
AcDbLine
 10
-8344.289784965708
 20
745.714973743768
 30
0.0
 11
-8329.664784965714
 21
745.714973743768
 31
0.0
  0
LINE
  5
21DDB
330
21D7A
100
AcDbEntity
  8
細線
 48
50.0
100
AcDbLine
 10
-8355.539784965706
 20
684.8147336646402
 30
0.0
 11
-8306.589544886575
 21
733.7649737437682
 31
0.0
  0
LINE
  5
21DDC
330
21D7A
100
AcDbEntity
  8
細線
 48
50.0
100
AcDbLine
 10
-8355.539784965706
 20
651.1387732106304
 30
0.0
 11
-8272.91358443257
 21
733.7649737437682
 31
0.0
  0
ARC
  5
21DDD
330
21D7A
100
AcDbEntity
  8
部品1
100
AcDbCircle
 10
-8067.539784965708
 20
452.5149737437677
 30
0.0
 40
22.5
100
AcDbArc
 50
180.0
 51
270.0
  0
LINE
  5
21DDE
330
21D7A
100
AcDbEntity
  8
細線
 48
50.0
100
AcDbLine
 10
-8355.539784965706
 20
381.7310895785563
 30
0.0
 11
-8157.539784965711
 21
579.7310895785463
 31
0.0
  0
LINE
  5
21DDF
330
21D7A
100
AcDbEntity
  8
部品1
100
AcDbLine
 10
-8157.539784965715
 20
328.7649737437669
 30
0.0
 11
-8157.539784965708
 21
733.7649737437682
 31
0.0
  0
LINE
  5
21DE0
330
21D7A
100
AcDbEntity
  8
細線
 48
50.0
100
AcDbLine
 10
-8355.539784965706
 20
449.083010486574
 30
0.0
 11
-8157.53978496571
 21
647.0830104865712
 31
0.0
  0
LINE
  5
21DE1
330
21D7A
100
AcDbEntity
  8
細線
 48
50.0
100
AcDbLine
 10
-8355.539784965706
 20
415.4070500325651
 30
0.0
 11
-8157.53978496571
 21
613.407050032562
 31
0.0
  0
LINE
  5
21DE2
330
21D7A
100
AcDbEntity
  8
部品1
100
AcDbLine
 10
-8000.039784965707
 20
328.7649737437659
 30
0.0
 11
-8157.539784965715
 21
328.7649737437659
 31
0.0
  0
LINE
  5
21DE3
330
21D7A
100
AcDbEntity
  8
部品1
 48
50.0
100
AcDbLine
 10
-8355.539784965706
 20
733.7649737437682
 30
0.0
 11
-7838.039784965705
 21
733.7649737437682
 31
0.0
  0
LINE
  5
21DE4
330
21D7A
100
AcDbEntity
  8
部品1
100
AcDbLine
 10
-8149.339784965714
 20
745.714973743768
 30
0.0
 11
-7897.664784965716
 21
745.714973743768
 31
0.0
  0
LINE
  5
21DE5
330
21D7A
100
AcDbEntity
  8
部品1
100
AcDbLine
 10
-8067.539784965708
 20
430.0149737437668
 30
0.0
 11
-8022.539784965706
 21
430.0149737437668
 31
0.0
  0
LINE
  5
21DE6
330
21D7A
100
AcDbEntity
  8
部品1
100
AcDbLine
 10
-8067.539784965708
 20
452.5149737437677
 30
0.0
 11
-8022.539784965706
 21
452.5149737437677
 31
0.0
  0
LINE
  5
21DE7
330
21D7A
100
AcDbEntity
  8
部品1
100
AcDbLine
 10
-8347.664784965706
 20
749.089973743768
 30
0.0
 11
-8347.664784965706
 21
826.7548533721528
 31
0.0
  0
LINE
  5
21DE8
330
21D7A
100
AcDbEntity
  8
細線
100
AcDbLine
 10
-8072.039784965708
 20
745.714973743768
 30
0.0
 11
-8072.039784965708
 21
799.714973743768
 31
0.0
  0
LINE
  5
21DE9
330
21D7A
100
AcDbEntity
  8
細線
100
AcDbLine
 10
-8085.539784965703
 20
745.714973743768
 30
0.0
 11
-8085.539784965709
 21
799.714973743768
 31
0.0
  0
LINE
  5
21DEA
330
21D7A
100
AcDbEntity
  8
部品1
100
AcDbLine
 10
-8167.664784965706
 20
802.3899737437682
 30
0.0
 11
-8167.664784965706
 21
749.089973743768
 31
0.0
  0
LINE
  5
21DEB
330
21D7A
100
AcDbEntity
  8
部品1
100
AcDbLine
 10
-8152.714784965706
 20
817.3399737437694
 30
0.0
 11
-8152.714784965713
 21
749.089973743768
 31
0.0
  0
LINE
  5
21DEC
330
21D7A
100
AcDbEntity
  8
部品1
100
AcDbLine
 10
-8067.539784965708
 20
452.5149737437677
 30
0.0
 11
-8067.539784965712
 21
795.214973743768
 31
0.0
  0
LINE
  5
21DED
330
21D7A
100
AcDbEntity
  8
部品1
100
AcDbLine
 10
-8090.039784965709
 20
452.5149737437677
 30
0.0
 11
-8090.039784965711
 21
795.214973743768
 31
0.0
  0
TEXT
  5
21DEE
330
21D7A
100
AcDbEntity
  8
部品1
 48
50.0
100
AcDbText
 10
-8873.214662256904
 20
447.8137140978369
 30
0.0
 40
100.0
  1
▽G.L
  7
STYLE2
100
AcDbText
  0
LWPOLYLINE
  5
21DEF
330
21D7A
100
AcDbEntity
  8
部品1
 48
50.0
100
AcDbPolyline
 90
        2
 70
     0
 43
10.0
 10
-8873.214662256902
 20
433.7649737437695
 10
-8355.539784965706
 20
433.7649737437695
  0
LINE
  5
21DF0
330
21D7A
100
AcDbEntity
  8
部品1
 48
50.0
100
AcDbLine
 10
-7838.039784965707
 20
53.76497374376686
 30
0.0
 11
-7678.039784965708
 21
53.76497374376686
 31
0.0
  0
LINE
  5
21DF1
330
21D7A
100
AcDbEntity
  8
細線
 48
50.0
100
AcDbLine
 10
-7829.787615843419
 20
-276.2350262562322
 30
0.0
 11
-7837.826091616351
 21
-246.2350262562331
 31
0.0
  0
LINE
  5
21DF2
330
21D7A
100
AcDbEntity
  8
細線
 48
50.0
100
AcDbLine
 10
-7731.177559659347
 20
-276.235026256234
 30
0.0
 11
-7739.216035432278
 21
-246.2350262562341
 31
0.0
  0
LINE
  5
21DF3
330
21D7A
100
AcDbEntity
  8
細線
 48
50.0
100
AcDbLine
 10
-8027.007728211522
 20
-276.2350262562322
 30
0.0
 11
-8035.046203984453
 21
-246.2350262562331
 31
0.0
  0
LINE
  5
21DF4
330
21D7A
100
AcDbEntity
  8
細線
 48
50.0
100
AcDbLine
 10
-7928.397672027464
 20
-276.2350262562322
 30
0.0
 11
-7936.436147800397
 21
-246.2350262562331
 31
0.0
  0
LINE
  5
21DF5
330
21D7A
100
AcDbEntity
  8
細線
 48
50.0
100
AcDbLine
 10
-7973.227087180216
 20
-246.2350262562331
 30
0.0
 11
-7678.039784965708
 21
48.95227595827691
 31
0.0
  0
LINE
  5
21DF6
330
21D7A
100
AcDbEntity
  8
細線
 48
50.0
100
AcDbLine
 10
-7939.551126726202
 20
-246.2350262562331
 30
0.0
 11
-7678.039784965708
 21
15.27631550426031
 31
0.0
  0
LINE
  5
21DF7
330
21D7A
100
AcDbEntity
  8
細線
 48
50.0
100
AcDbLine
 10
-7905.875166272197
 20
-246.2350262562331
 30
0.0
 11
-7678.039784965708
 21
-18.39964494973719
 31
0.0
  0
LINE
  5
21DF8
330
21D7A
100
AcDbEntity
  8
部品1
 48
50.0
100
AcDbLine
 10
-7678.039784965708
 20
53.76497374376686
 30
0.0
 11
-7678.039784965708
 21
-246.2350262562331
 31
0.0
  0
LINE
  5
21DF9
330
21D7A
100
AcDbEntity
  8
細線
 48
50.0
100
AcDbLine
 10
-8224.227840579636
 20
-276.2350262562322
 30
0.0
 11
-8232.26631635257
 21
-246.2350262562331
 31
0.0
  0
LINE
  5
21DFA
330
21D7A
100
AcDbEntity
  8
細線
 48
50.0
100
AcDbLine
 10
-8125.617784395579
 20
-276.2350262562322
 30
0.0
 11
-8133.656260168512
 21
-246.2350262562331
 31
0.0
  0
LINE
  5
21DFB
330
21D7A
100
AcDbEntity
  8
細線
 48
50.0
100
AcDbLine
 10
-8421.447952947767
 20
-276.2350262562322
 30
0.0
 11
-8429.4864287207
 21
-246.2350262562331
 31
0.0
  0
LINE
  5
21DFC
330
21D7A
100
AcDbEntity
  8
細線
 48
50.0
100
AcDbLine
 10
-8322.837896763701
 20
-276.2350262562322
 30
0.0
 11
-8330.876372536634
 21
-246.2350262562331
 31
0.0
  0
LINE
  5
21DFD
330
21D7A
100
AcDbEntity
  8
細線
 48
50.0
100
AcDbLine
 10
-8242.634770812291
 20
-246.2350262562331
 30
0.0
 11
-7838.03978496571
 21
158.3599595903502
 31
0.0
  0
LINE
  5
21DFE
330
21D7A
100
AcDbEntity
  8
細線
 48
50.0
100
AcDbLine
 10
-8208.95881035828
 20
-246.2350262562331
 30
0.0
 11
-7838.039784965707
 21
124.6839991363331
 31
0.0
  0
LINE
  5
21DFF
330
21D7A
100
AcDbEntity
  8
細線
 48
50.0
100
AcDbLine
 10
-8175.282849904272
 20
-246.2350262562331
 30
0.0
 11
-7838.039784965707
 21
91.00803868233924
 31
0.0
  0
LINE
  5
21E00
330
21D7A
100
AcDbEntity
  8
細線
 48
50.0
100
AcDbLine
 10
-7856.582535086518
 20
-376.2350262562331
 30
0.0
 11
-7848.544059313571
 21
-406.2350262562331
 31
0.0
  0
LINE
  5
21E01
330
21D7A
100
AcDbEntity
  8
細線
 48
50.0
100
AcDbLine
 10
-7757.972478902456
 20
-376.235026256234
 30
0.0
 11
-7749.934003129523
 21
-406.235026256234
 31
0.0
  0
LINE
  5
21E02
330
21D7A
100
AcDbEntity
  8
細線
 48
50.0
100
AcDbLine
 10
-8053.802647454636
 20
-376.2350262562331
 30
0.0
 11
-8045.7641716817
 21
-406.2350262562331
 31
0.0
  0
LINE
  5
21E03
330
21D7A
100
AcDbEntity
  8
細線
 48
50.0
100
AcDbLine
 10
-7955.192591270575
 20
-376.2350262562331
 30
0.0
 11
-7947.154115497642
 21
-406.2350262562331
 31
0.0
  0
LINE
  5
21E04
330
21D7A
100
AcDbEntity
  8
細線
 48
50.0
100
AcDbLine
 10
-8251.022759822749
 20
-376.2350262562331
 30
0.0
 11
-8242.984284049816
 21
-406.2350262562331
 31
0.0
  0
LINE
  5
21E05
330
21D7A
100
AcDbEntity
  8
細線
 48
50.0
100
AcDbLine
 10
-8152.412703638692
 20
-376.2350262562331
 30
0.0
 11
-8144.374227865759
 21
-406.2350262562331
 31
0.0
  0
LINE
  5
21E06
330
21D7A
100
AcDbEntity
  8
細線
 48
50.0
100
AcDbLine
 10
-8448.242872190879
 20
-376.2350262562331
 30
0.0
 11
-8440.204396417945
 21
-406.2350262562331
 31
0.0
  0
LINE
  5
21E07
330
21D7A
100
AcDbEntity
  8
細線
 48
50.0
100
AcDbLine
 10
-8349.632816006813
 20
-376.2350262562331
 30
0.0
 11
-8341.594340233879
 21
-406.2350262562331
 31
0.0
  0
LINE
  5
21E08
330
21D7A
100
AcDbEntity
  8
細線
 48
50.0
100
AcDbLine
 10
-7864.621010859456
 20
-406.235026256234
 30
0.0
 11
-7821.749140070487
 21
-246.2350262562331
 31
0.0
  0
LINE
  5
21E09
330
21D7A
100
AcDbEntity
  8
細線
 48
50.0
100
AcDbLine
 10
-7766.010954675394
 20
-406.2350262562358
 30
0.0
 11
-7723.139083886415
 21
-246.2350262562359
 31
0.0
  0
LINE
  5
21E0A
330
21D7A
100
AcDbEntity
  8
細線
 48
50.0
100
AcDbLine
 10
-8061.841123227571
 20
-406.235026256234
 30
0.0
 11
-8018.969252438591
 21
-246.2350262562341
 31
0.0
  0
LINE
  5
21E0B
330
21D7A
100
AcDbEntity
  8
細線
 48
50.0
100
AcDbLine
 10
-8259.061235595689
 20
-406.2350262562331
 30
0.0
 11
-8216.189364806711
 21
-246.2350262562331
 31
0.0
  0
LINE
  5
21E0C
330
21D7A
100
AcDbEntity
  8
細線
 48
50.0
100
AcDbLine
 10
-8160.451179411632
 20
-406.2350262562331
 30
0.0
 11
-8117.57930862265
 21
-246.2350262562341
 31
0.0
  0
LINE
  5
21E0D
330
21D7A
100
AcDbEntity
  8
細線
 48
50.0
100
AcDbLine
 10
-7963.231067043519
 20
-406.2350262562331
 30
0.0
 11
-7920.359196254534
 21
-246.2350262562341
 31
0.0
  0
LINE
  5
21E0E
330
21D7A
100
AcDbEntity
  8
細線
 48
50.0
100
AcDbLine
 10
-8456.281347963813
 20
-406.2350262562331
 30
0.0
 11
-8413.409477174834
 21
-246.2350262562331
 31
0.0
  0
LINE
  5
21E0F
330
21D7A
100
AcDbEntity
  8
細線
 48
50.0
100
AcDbLine
 10
-8357.671291779757
 20
-406.235026256234
 30
0.0
 11
-8314.799420990777
 21
-246.2350262562341
 31
0.0
  0
LINE
  5
21E10
330
21D7A
100
AcDbEntity
  8
細線
 48
50.0
100
AcDbLine
 10
-8515.539784965715
 20
19.67532685449987
 30
0.0
 11
-8481.450138076439
 21
53.76497374376686
 31
0.0
  0
LINE
  5
21E11
330
21D7A
100
AcDbEntity
  8
細線
 48
50.0
100
AcDbLine
 10
-8615.539784965708
 20
-264.5601250490081
 30
0.0
 11
-8610.629589542963
 21
-246.2350262562331
 31
0.0
  0
LINE
  5
21E12
330
21D7A
100
AcDbEntity
  8
細線
 48
50.0
100
AcDbLine
 10
-8520.058009131831
 20
-276.2350262562322
 30
0.0
 11
-8528.096484904764
 21
-246.2350262562331
 31
0.0
  0
LINE
  5
21E13
330
21D7A
100
AcDbEntity
  8
部品1
 48
50.0
100
AcDbLine
 10
-8515.539784965708
 20
-246.2350262562331
 30
0.0
 11
-8515.539784965708
 21
53.76497374376686
 31
0.0
  0
LINE
  5
21E14
330
21D7A
100
AcDbEntity
  8
細線
 48
50.0
100
AcDbLine
 10
-8546.852928374944
 20
-376.2350262562331
 30
0.0
 11
-8538.814452602009
 21
-406.2350262562331
 31
0.0
  0
LINE
  5
21E15
330
21D7A
100
AcDbEntity
  8
部品1
 48
50.0
100
AcDbLine
 10
-8615.539784965703
 20
-406.2350262562331
 30
0.0
 11
-8615.539784965703
 21
-246.2350262562331
 31
0.0
  0
LINE
  5
21E16
330
21D7A
100
AcDbEntity
  8
細線
 48
50.0
100
AcDbLine
 10
-8554.891404147884
 20
-406.235026256234
 30
0.0
 11
-8512.019533358905
 21
-246.2350262562341
 31
0.0
  0
LINE
  5
21E17
330
21D7A
100
AcDbEntity
  8
細線
 48
50.0
100
AcDbLine
 10
-8515.539784965715
 20
-14.00063359951309
 30
0.0
 11
-8447.774177622425
 21
53.76497374376686
 31
0.0
  0
LINE
  5
21E18
330
21D7A
100
AcDbEntity
  8
細線
 48
50.0
100
AcDbLine
 10
-8515.539784965715
 20
-47.67659405351878
 30
0.0
 11
-8414.098217168421
 21
53.76497374376686
 31
0.0
  0
LINE
  5
21E19
330
21D7A
100
AcDbEntity
  8
部品1
 48
50.0
100
AcDbLine
 10
-8515.539784965708
 20
53.76497374376686
 30
0.0
 11
-8355.539784965706
 21
53.76497374376686
 31
0.0
  0
LINE
  5
21E1A
330
21D7A
100
AcDbEntity
  8
細線
 48
50.0
100
AcDbLine
 10
-8512.042454444365
 20
-246.2350262562331
 30
0.0
 11
-7838.03978496571
 21
427.7676432224243
 31
0.0
  0
LINE
  5
21E1B
330
21D7A
100
AcDbEntity
  8
部品1
100
AcDbLine
 10
-7838.03978496571
 20
53.76497374376686
 30
0.0
 11
-7838.039784965707
 21
733.7649737437682
 31
0.0
  0
LINE
  5
21E1C
330
21D7A
100
AcDbEntity
  8
部品1
 48
50.0
100
AcDbLine
 10
-8355.539784965706
 20
53.76497374376686
 30
0.0
 11
-8355.539784965706
 21
733.7649737437682
 31
0.0
  0
LINE
  5
21E1D
330
21D7A
100
AcDbEntity
  8
細線
 48
50.0
100
AcDbLine
 10
-8355.539784965706
 20
145.9993664004901
 30
0.0
 11
-8157.539784965717
 21
343.999366400476
 31
0.0
  0
LINE
  5
21E1E
330
21D7A
100
AcDbEntity
  8
細線
 48
50.0
100
AcDbLine
 10
-8355.539784965706
 20
112.3234059464812
 30
0.0
 11
-8139.098217168415
 21
328.7649737437659
 31
0.0
  0
LINE
  5
21E1F
330
21D7A
100
AcDbEntity
  8
細線
 48
50.0
100
AcDbLine
 10
-8355.539784965706
 20
179.6753268544998
 30
0.0
 11
-8157.539784965717
 21
377.675326854493
 31
0.0
  0
LINE
  5
21E20
330
21D7A
100
AcDbEntity
  8
細線
 48
50.0
100
AcDbLine
 10
-8444.690533536347
 20
-246.2350262562331
 30
0.0
 11
-7838.039784965707
 21
360.415722314403
 31
0.0
  0
LINE
  5
21E21
330
21D7A
100
AcDbEntity
  8
細線
 48
50.0
100
AcDbLine
 10
-8478.366493990355
 20
-246.2350262562331
 30
0.0
 11
-7838.039784965705
 21
394.0916827684109
 31
0.0
  0
TEXT
  5
21E22
330
21D7A
100
AcDbEntity
  8
部品1
 48
50.0
100
AcDbText
 10
-7832.597804610172
 20
1178.613324696518
 30
0.0
 40
100.0
  1
基礎ボルト(市販品)
  7
STYLE2
100
AcDbText
  0
DIMENSION
  5
21E23
330
21D7A
100
AcDbEntity
  8
寸法
 48
50.0
100
AcDbDimension
  2
*D31
 10
-6865.635702605868
 20
733.7649737437679
 30
0.0
 11
-6865.635702605868
 21
267.7560703222866
 31
0.0
 12
-16307.2
 22
-1200.0
 32
0.0
 70
   128
  1
20～25
 71
     5
 42
65.94999999999981
  3
INABA_S40G
100
AcDbAlignedDimension
 13
-8072.039784965708
 23
799.714973743768
 33
0.0
 14
-7838.039784965707
 24
733.7649737437682
 34
0.0
 50
90.0
100
AcDbRotatedDimension
  0
LINE
  5
21E24
330
21D7A
100
AcDbEntity
  8
細線
 48
50.0
100
AcDbLine
 10
-7667.40089849134
 20
-406.235026256234
 30
0.0
 11
-7624.529027702358
 21
-246.2350262562359
 31
0.0
  0
LINE
  5
21E25
330
21D7A
100
AcDbEntity
  8
部品1
 48
50.0
100
AcDbLine
 10
-7578.039784965703
 20
-406.2350262562331
 30
0.0
 11
-8615.539784965703
 21
-406.2350262562331
 31
0.0
  0
LINE
  5
21E26
330
21D7A
100
AcDbEntity
  8
細線
 48
50.0
100
AcDbLine
 10
-7659.362422718399
 20
-376.235026256234
 30
0.0
 11
-7651.323946945466
 21
-406.235026256234
 31
0.0
  0
LINE
  5
21E27
330
21D7A
100
AcDbEntity
  8
部品1
 48
50.0
100
AcDbLine
 10
-7578.039784965703
 20
-246.2350262562331
 30
0.0
 11
-8615.539784965703
 21
-246.2350262562331
 31
0.0
  0
LWPOLYLINE
  5
21E28
330
21D7A
100
AcDbEntity
  8
部品1
 48
50.0
100
AcDbPolyline
 90
        2
 70
     0
 43
10.0
 10
-7838.039784965707
 20
433.7649737437695
 10
-7470.911705716478
 20
433.7649737437695
  0
DIMENSION
  5
21E29
330
21D7A
100
AcDbEntity
  8
寸法
 48
50.0
100
AcDbDimension
  2
*D30
 10
-7210.704035254652
 20
328.7649737437657
 30
0.0
 11
-7310.704035254651
 21
531.2649737437684
 31
0.0
 12
-16307.2
 22
-1200.0
 32
0.0
  1
180
 71
     5
 42
405.0000000000022
  3
INABA_S40G
100
AcDbAlignedDimension
 13
-7838.039784965707
 23
733.7649737437682
 33
0.0
 14
-7838.039784965707
 24
328.7649737437659
 34
0.0
 50
90.0
100
AcDbRotatedDimension
  0
MTEXT
  5
21E2A
102
{ACAD_REACTORS
330
21E2B
102
}
330
21D7A
100
AcDbEntity
  8
部品1
 62
     7
 48
50.0
100
AcDbMText
 10
-7826.859206941559
 20
1064.244131435306
 30
0.0
 40
100.0
 41
1.0
 71
     4
 72
     1
  1
M10X160
  7
STYLE2
 73
     1
 44
1.0
1001
ACAD
1000
MTEXTBEGIN
1070
    73
1070
     1
1070
    44
1040
1.0
1070
    74
1070
     0
1000
MTEXTEND
  0
LEADER
  5
21E2B
330
21D7A
100
AcDbEntity
  8
寸法
 48
50.0
100
AcDbLeader
  3
INABA_S40G
 71
     0
 73
     0
 74
     0
 75
     1
 40
100.0
 41
543.75
 76
     3
 10
-8067.539784965708
 20
795.214973743768
 30
0.0
 10
-7966.85920694156
 20
974.2441314353058
 30
0.0
 10
-7866.859206941559
 20
974.2441314353058
 30
0.0
  0
LINE
  5
21E2C
330
21D7A
100
AcDbEntity
  8
細線
 48
50.0
100
AcDbLine
 10
-10480.5889264372
 20
684.8147336646402
 30
0.0
 11
-10431.63868635807
 21
733.7649737437682
 31
0.0
  0
LINE
  5
21E2D
330
21D7A
100
AcDbEntity
  8
細線
 48
50.0
100
AcDbLine
 10
-10480.5889264372
 20
651.1387732106304
 30
0.0
 11
-10397.96272590406
 21
733.7649737437682
 31
0.0
  0
LINE
  5
21E2E
330
21D7A
100
AcDbEntity
  8
細線
 48
50.0
100
AcDbLine
 10
-10480.5889264372
 20
718.4906941186491
 30
0.0
 11
-10465.31464681208
 21
733.7649737437682
 31
0.0
  0
ARC
  5
21E2F
330
21D7A
100
AcDbEntity
  8
部品1
 48
50.0
100
AcDbCircle
 10
-10360.5889264372
 20
559.083010486574
 30
0.0
 40
30.0
100
AcDbArc
 50
0.0
 51
180.0
  0
CIRCLE
  5
21E30
330
21D7A
100
AcDbEntity
  8
部品1
 48
50.0
100
AcDbCircle
 10
-10360.5889264372
 20
559.083010486574
 30
0.0
 40
10.0
  0
LINE
  5
21E31
330
21D7A
100
AcDbEntity
  8
細線
 48
50.0
100
AcDbLine
 10
-10370.5889264372
 20
525.4070500325651
 30
0.0
 11
-10350.5889264372
 21
545.4070500325651
 31
0.0
  0
LINE
  5
21E32
330
21D7A
100
AcDbEntity
  8
細線
 48
50.0
100
AcDbLine
 10
-10330.5889264372
 20
531.7310895785549
 30
0.0
 11
-10240.5889264372
 21
621.7310895785563
 31
0.0
  0
LINE
  5
21E33
330
21D7A
100
AcDbEntity
  8
細線
 48
50.0
100
AcDbLine
 10
-10331.14804235471
 20
564.8479341150451
 30
0.0
 11
-10240.5889264372
 21
655.4070500325651
 31
0.0
  0
LINE
  5
21E34
330
21D7A
100
AcDbEntity
  8
細線
 48
50.0
100
AcDbLine
 10
-10344.97339830911
 20
584.6985386146625
 30
0.0
 11
-10240.5889264372
 21
689.083010486574
 31
0.0
  0
LINE
  5
21E35
330
21D7A
100
AcDbEntity
  8
部品1
 48
50.0
100
AcDbLine
 10
-10480.5889264372
 20
733.7649737437682
 30
0.0
 11
-10240.5889264372
 21
733.7649737437682
 31
0.0
  0
LINE
  5
21E36
330
21D7A
100
AcDbEntity
  8
細線
 48
50.0
100
AcDbLine
 10
-10480.5889264372
 20
381.7310895785563
 30
0.0
 11
-10375.89602390058
 21
486.4239921151711
 31
0.0
  0
LINE
  5
21E37
330
21D7A
100
AcDbEntity
  8
部品1
 48
50.0
100
AcDbLine
 10
-10370.5889264372
 20
486.4239921151711
 30
0.0
 11
-10390.5889264372
 21
486.4239921151752
 31
0.0
  0
LINE
  5
21E38
330
21D7A
100
AcDbEntity
  8
細線
 48
50.0
100
AcDbLine
 10
-10330.58892643719
 20
262.3234059464812
 30
0.0
 11
-10240.58892643721
 21
352.3234059464812
 31
0.0
  0
LINE
  5
21E39
330
21D7A
100
AcDbEntity
  8
細線
 48
50.0
100
AcDbLine
 10
-10330.5889264372
 20
329.675326854499
 30
0.0
 11
-10240.5889264372
 21
419.6753268544998
 31
0.0
  0
LINE
  5
21E3A
330
21D7A
100
AcDbEntity
  8
細線
 48
50.0
100
AcDbLine
 10
-10330.58892643719
 20
295.9993664004942
 30
0.0
 11
-10240.58892643721
 21
385.9993664004869
 31
0.0
  0
LINE
  5
21E3B
330
21D7A
100
AcDbEntity
  8
細線
 48
50.0
100
AcDbLine
 10
-10480.5889264372
 20
415.4070500325651
 30
0.0
 11
-10390.5889264372
 21
505.4070500325651
 31
0.0
  0
LINE
  5
21E3C
330
21D7A
100
AcDbEntity
  8
細線
 48
50.0
100
AcDbLine
 10
-10480.5889264372
 20
449.083010486574
 30
0.0
 11
-10390.5889264372
 21
539.083010486574
 31
0.0
  0
LINE
  5
21E3D
330
21D7A
100
AcDbEntity
  8
細線
 48
50.0
100
AcDbLine
 10
-10370.5889264372
 20
491.7310895785562
 30
0.0
 11
-10350.5889264372
 21
511.7310895785562
 31
0.0
  0
LINE
  5
21E3E
330
21D7A
100
AcDbEntity
  8
部品1
 48
50.0
100
AcDbLine
 10
-10390.5889264372
 20
486.4239921151752
 30
0.0
 11
-10390.5889264372
 21
559.083010486574
 31
0.0
  0
LINE
  5
21E3F
330
21D7A
100
AcDbEntity
  8
部品1
 48
50.0
100
AcDbLine
 10
-10370.5889264372
 20
486.4239921151711
 30
0.0
 11
-10370.5889264372
 21
559.083010486574
 31
0.0
  0
LEADER
  5
21E40
330
21D7A
100
AcDbEntity
  8
寸法
 48
50.0
100
AcDbLeader
  3
INABA_S40G
 71
     0
 73
     0
 74
     0
 75
     1
 40
100.0
 41
222.7272727272727
 76
     3
 10
-10360.5889264372
 20
559.083010486574
 30
0.0
 10
-10261.98150515295
 20
485.3494253674271
 30
0.0
 10
-10161.98150515295
 20
485.3494253674271
 30
0.0
  0
LWPOLYLINE
  5
21E41
330
21D7A
100
AcDbEntity
  8
部品1
 48
50.0
100
AcDbPolyline
 90
        2
 70
     0
 43
10.0
 10
-10240.5889264372
 20
433.7649737437695
 10
-9722.914049146003
 20
433.7649737437695
  0
MTEXT
  5
21E42
102
{ACAD_REACTORS
330
21E40
102
}
330
21D7A
100
AcDbEntity
  8
寸法
 62
     7
 48
50.0
100
AcDbMText
 10
-10136.98150515295
 20
560.3494253674271
 30
0.0
 40
100.0
 41
1.0
 71
     4
 72
     1
  1
D13
  7
STYLE2
 73
     1
 44
1.0
1001
ACAD
1000
MTEXTBEGIN
1070
    73
1070
     1
1070
    44
1040
1.0
1070
    74
1070
     0
1000
MTEXTEND
  0
LINE
  5
21E43
330
21D7A
100
AcDbEntity
  8
細線
 48
50.0
100
AcDbLine
 10
-10053.44681349895
 20
-276.2350262562322
 30
0.0
 11
-10061.48528927189
 21
-246.2350262562331
 31
0.0
  0
LINE
  5
21E44
330
21D7A
100
AcDbEntity
  8
細線
 48
50.0
100
AcDbLine
 10
-10098.27622865171
 20
-246.2350262562331
 30
0.0
 11
-10080.5889264372
 21
-228.547724041724
 31
0.0
  0
MTEXT
  5
21E45
102
{ACAD_REACTORS
330
21E84
102
}
330
21D7A
100
AcDbEntity
  8
寸法
 62
     7
 48
50.0
100
AcDbMText
 10
-9951.429351678845
 20
-140.481362434949
 30
0.0
 40
100.0
 41
1.0
 71
     4
 72
     1
  1
D10
  7
STYLE2
 73
     1
 44
1.0
1001
ACAD
1000
MTEXTBEGIN
1070
    73
1070
     1
1070
    44
1040
1.0
1070
    74
1070
     0
1000
MTEXTEND
  0
LINE
  5
21E46
330
21D7A
100
AcDbEntity
  8
部品1
 48
50.0
100
AcDbLine
 10
-10080.5889264372
 20
53.76497374376686
 30
0.0
 11
-10080.5889264372
 21
-246.2350262562331
 31
0.0
  0
LINE
  5
21E47
330
21D7A
100
AcDbEntity
  8
細線
 48
50.0
100
AcDbLine
 10
-10080.24173274207
 20
-376.2350262562331
 30
0.0
 11
-10072.20325696913
 21
-406.2350262562331
 31
0.0
  0
LINE
  5
21E48
330
21D7A
100
AcDbEntity
  8
細線
 48
50.0
100
AcDbLine
 10
-9981.631676558011
 20
-376.2350262562331
 30
0.0
 11
-9980.588926437199
 21
-380.1266226866883
 31
0.0
  0
LINE
  5
21E49
330
21D7A
100
AcDbEntity
  8
細線
 48
50.0
100
AcDbLine
 10
-9989.670152330946
 20
-406.235026256234
 30
0.0
 11
-9980.588926437199
 21
-372.3434298257471
 31
0.0
  0
MTEXT
  5
21E4A
102
{ACAD_REACTORS
330
21E82
102
}
330
21D7A
100
AcDbEntity
  8
寸法
 62
     7
 48
50.0
100
AcDbMText
 10
-9938.415856610637
 20
-467.9213834214242
 30
0.0
 40
100.0
 41
1.0
 71
     4
 72
     1
  1
\A1;D10@300
  7
STYLE2
 73
     1
 44
1.0
1001
ACAD
1000
MTEXTBEGIN
1070
    73
1070
     1
1070
    44
1040
1.0
1070
    74
1070
     0
1000
MTEXTEND
  0
LINE
  5
21E4B
330
21D7A
100
AcDbEntity
  8
部品1
 48
50.0
100
AcDbLine
 10
-9980.588926437198
 20
-246.2350262562331
 30
0.0
 11
-9980.588926437198
 21
-406.2350262562331
 31
0.0
  0
LINE
  5
21E4C
330
21D7A
100
AcDbEntity
  8
細線
 48
50.0
100
AcDbLine
 10
-10088.28020851501
 20
-406.2350262562331
 30
0.0
 11
-10045.40833772602
 21
-246.2350262562341
 31
0.0
  0
LINE
  5
21E4D
330
21D7A
100
AcDbEntity
  8
部品1
 48
50.0
100
AcDbLine
 10
-10370.5889264372
 20
-23.57600788482887
 30
0.0
 11
-10390.5889264372
 21
-23.57600788482887
 31
0.0
  0
LINE
  5
21E4E
330
21D7A
100
AcDbEntity
  8
細線
 48
50.0
100
AcDbLine
 10
-10380.75661709044
 20
-23.57600788482887
 30
0.0
 11
-10350.58892643719
 21
6.591682768419559
 31
0.0
  0
LINE
  5
21E4F
330
21D7A
100
AcDbEntity
  8
細線
 48
50.0
100
AcDbLine
 10
-10370.5889264372
 20
-47.08427768559386
 30
0.0
 11
-10350.58892643719
 21
-27.08427768559386
 31
0.0
  0
LINE
  5
21E50
330
21D7A
100
AcDbEntity
  8
細線
 48
50.0
100
AcDbLine
 10
-10330.58892643719
 20
26.59168276841956
 30
0.0
 11
-10240.58892643721
 21
116.5916827684123
 31
0.0
  0
LINE
  5
21E51
330
21D7A
100
AcDbEntity
  8
細線
 48
50.0
100
AcDbLine
 10
-10330.58892643719
 20
60.26764322242934
 30
0.0
 11
-10240.58892643721
 21
150.2676432224252
 31
0.0
  0
LINE
  5
21E52
330
21D7A
100
AcDbEntity
  8
細線
 48
50.0
100
AcDbLine
 10
-10330.58892643719
 20
-7.08427768559386
 30
0.0
 11
-10240.58892643721
 21
82.91572231440614
 31
0.0
  0
LINE
  5
21E53
330
21D7A
100
AcDbEntity
  8
細線
 48
50.0
100
AcDbLine
 10
-10300.33199137576
 20
-246.2350262562331
 30
0.0
 11
-10180.33088156934
 21
-126.233916449808
 31
0.0
  0
LINE
  5
21E54
330
21D7A
100
AcDbEntity
  8
部品1
 48
50.0
100
AcDbLine
 10
-10150.5889264372
 20
-106.2350262562331
 30
0.0
 11
-10150.5889264372
 21
-126.2350262562331
 31
0.0
  0
LINE
  5
21E55
330
21D7A
100
AcDbEntity
  8
細線
 48
50.0
100
AcDbLine
 10
-10152.05686968301
 20
-276.2350262562322
 30
0.0
 11
-10160.09534545595
 21
-246.2350262562331
 31
0.0
  0
CIRCLE
  5
21E56
330
21D7A
100
AcDbEntity
  8
部品1
 48
50.0
100
AcDbCircle
 10
-10200.5889264372
 20
-96.23502625623315
 30
0.0
 40
10.0
  0
LINE
  5
21E57
330
21D7A
100
AcDbEntity
  8
細線
 48
50.0
100
AcDbLine
 10
-10250.66692586707
 20
-276.2350262562322
 30
0.0
 11
-10258.70540164
 21
-246.2350262562331
 31
0.0
  0
ARC
  5
21E58
330
21D7A
100
AcDbEntity
  8
部品1
 48
50.0
100
AcDbCircle
 10
-10360.5889264372
 20
-96.23502625623315
 30
0.0
 40
30.0
100
AcDbArc
 50
340.5287793654919
 51
0.0
  0
LINE
  5
21E59
330
21D7A
100
AcDbEntity
  8
細線
 48
50.0
100
AcDbLine
 10
-10349.27698205113
 20
-276.2350262562322
 30
0.0
 11
-10357.31545782406
 21
-246.2350262562331
 31
0.0
  0
ARC
  5
21E5A
330
21D7A
100
AcDbEntity
  8
部品1
 48
50.0
100
AcDbCircle
 10
-10360.5889264372
 20
-96.23502625623315
 30
0.0
 40
30.0
100
AcDbArc
 50
180.0
 51
199.4712206345081
  0
LINE
  5
21E5B
330
21D7A
100
AcDbEntity
  8
細線
 48
50.0
100
AcDbLine
 10
-10447.88703823519
 20
-276.2350262562322
 30
0.0
 11
-10455.92551400813
 21
-246.2350262562331
 31
0.0
  0
CIRCLE
  5
21E5C
330
21D7A
100
AcDbEntity
  8
部品1
 48
50.0
100
AcDbCircle
 10
-10360.5889264372
 20
-96.23502625623315
 30
0.0
 40
10.0
  0
LINE
  5
21E5D
330
21D7A
100
AcDbEntity
  8
細線
 48
50.0
100
AcDbLine
 10
-10334.00795182977
 20
-246.2350262562331
 30
0.0
 11
-10214.00795182977
 21
-126.2350262562331
 31
0.0
  0
LINE
  5
21E5E
330
21D7A
100
AcDbEntity
  8
細線
 48
50.0
100
AcDbLine
 10
-10367.68391228378
 20
-246.2350262562331
 30
0.0
 11
-10247.68391228378
 21
-126.2350262562331
 31
0.0
  0
LINE
  5
21E5F
330
21D7A
100
AcDbEntity
  8
細線
 48
50.0
100
AcDbLine
 10
-10497.09159591585
 20
-106.2350262562331
 30
0.0
 11
-10350.5889264372
 21
40.26764322242525
 31
0.0
  0
LINE
  5
21E60
330
21D7A
100
AcDbEntity
  8
細線
 48
50.0
100
AcDbLine
 10
-10429.73967500784
 20
-106.2350262562331
 30
0.0
 11
-10390.5889264372
 21
-67.08427768559386
 31
0.0
  0
LINE
  5
21E61
330
21D7A
100
AcDbEntity
  8
部品1
 48
50.0
100
AcDbLine
 10
-10390.5889264372
 20
-23.57600788482887
 30
0.0
 11
-10390.5889264372
 21
-96.23502625623315
 31
0.0
  0
LINE
  5
21E62
330
21D7A
100
AcDbEntity
  8
細線
 48
50.0
100
AcDbLine
 10
-10463.41563546184
 20
-106.2350262562331
 30
0.0
 11
-10390.5889264372
 21
-33.40831723158408
 31
0.0
  0
LINE
  5
21E63
330
21D7A
100
AcDbEntity
  8
部品1
 48
50.0
100
AcDbLine
 10
-10370.5889264372
 20
-23.57600788482887
 30
0.0
 11
-10370.5889264372
 21
-96.23502625623315
 31
0.0
  0
LINE
  5
21E64
330
21D7A
100
AcDbEntity
  8
細線
 48
50.0
100
AcDbLine
 10
-10640.5889264372
 20
-14.00063359951309
 30
0.0
 11
-10572.82331909392
 21
53.76497374376686
 31
0.0
  0
LINE
  5
21E65
330
21D7A
100
AcDbEntity
  8
細線
 48
50.0
100
AcDbLine
 10
-10640.5889264372
 20
19.67532685449987
 30
0.0
 11
-10606.49927954793
 21
53.76497374376686
 31
0.0
  0
LINE
  5
21E66
330
21D7A
100
AcDbEntity
  8
細線
 48
50.0
100
AcDbLine
 10
-10640.5889264372
 20
-47.67659405351878
 30
0.0
 11
-10539.14735863991
 21
53.76497374376686
 31
0.0
  0
LINE
  5
21E67
330
21D7A
100
AcDbEntity
  8
部品1
 48
50.0
100
AcDbLine
 10
-10570.5889264372
 20
-106.2350262562331
 30
0.0
 11
-10570.5889264372
 21
-126.2350262562331
 31
0.0
  0
LINE
  5
21E68
330
21D7A
100
AcDbEntity
  8
細線
 48
50.0
100
AcDbLine
 10
-10546.49709441926
 20
-276.2350262562322
 30
0.0
 11
-10554.53557019219
 21
-246.2350262562331
 31
0.0
  0
LINE
  5
21E69
330
21D7A
100
AcDbEntity
  8
細線
 48
50.0
100
AcDbLine
 10
-10645.10715060332
 20
-276.2350262562322
 30
0.0
 11
-10653.14562637625
 21
-246.2350262562331
 31
0.0
  0
LINE
  5
21E6A
330
21D7A
100
AcDbEntity
  8
細線
 48
50.0
100
AcDbLine
 10
-10740.5889264372
 20
-264.5601250490081
 30
0.0
 11
-10735.67873101445
 21
-246.2350262562331
 31
0.0
  0
LINE
  5
21E6B
330
21D7A
100
AcDbEntity
  8
部品1
 48
50.0
100
AcDbLine
 10
-10640.5889264372
 20
-246.2350262562331
 30
0.0
 11
-10640.5889264372
 21
53.76497374376686
 31
0.0
  0
LINE
  5
21E6C
330
21D7A
100
AcDbEntity
  8
部品1
 48
50.0
100
AcDbLine
 10
-10570.5889264372
 20
-126.2350262562331
 30
0.0
 11
-10150.5889264372
 21
-126.2350262562331
 31
0.0
  0
LINE
  5
21E6D
330
21D7A
100
AcDbEntity
  8
部品1
 48
50.0
100
AcDbLine
 10
-10570.5889264372
 20
-106.2350262562331
 30
0.0
 11
-10150.5889264372
 21
-106.2350262562331
 31
0.0
  0
LINE
  5
21E6E
330
21D7A
100
AcDbEntity
  8
細線
 48
50.0
100
AcDbLine
 10
-10569.73967500784
 20
-246.2350262562331
 30
0.0
 11
-10449.73967500784
 21
-126.2350262562331
 31
0.0
  0
CIRCLE
  5
21E6F
330
21D7A
100
AcDbEntity
  8
部品1
 48
50.0
100
AcDbCircle
 10
-10520.5889264372
 20
-96.23502625623315
 30
0.0
 40
10.0
  0
LINE
  5
21E70
330
21D7A
100
AcDbEntity
  8
細線
 48
50.0
100
AcDbLine
 10
-10603.41563546184
 20
-246.2350262562331
 30
0.0
 11
-10483.41563546184
 21
-126.2350262562331
 31
0.0
  0
LINE
  5
21E71
330
21D7A
100
AcDbEntity
  8
細線
 48
50.0
100
AcDbLine
 10
-10637.09159591585
 20
-246.2350262562331
 30
0.0
 11
-10517.09159591585
 21
-126.2350262562331
 31
0.0
  0
LINE
  5
21E72
330
21D7A
100
AcDbEntity
  8
部品1
 48
50.0
100
AcDbLine
 10
-10640.5889264372
 20
53.76497374376686
 30
0.0
 11
-10480.5889264372
 21
53.76497374376686
 31
0.0
  0
LINE
  5
21E73
330
21D7A
100
AcDbEntity
  8
細線
 48
50.0
100
AcDbLine
 10
-10277.46184511018
 20
-376.2350262562331
 30
0.0
 11
-10269.42336933725
 21
-406.2350262562331
 31
0.0
  0
LINE
  5
21E74
330
21D7A
100
AcDbEntity
  8
細線
 48
50.0
100
AcDbLine
 10
-10178.85178892612
 20
-376.2350262562331
 30
0.0
 11
-10170.81331315319
 21
-406.2350262562331
 31
0.0
  0
LINE
  5
21E75
330
21D7A
100
AcDbEntity
  8
細線
 48
50.0
100
AcDbLine
 10
-10474.6819574783
 20
-376.2350262562331
 30
0.0
 11
-10466.64348170537
 21
-406.2350262562331
 31
0.0
  0
LINE
  5
21E76
330
21D7A
100
AcDbEntity
  8
細線
 48
50.0
100
AcDbLine
 10
-10376.07190129424
 20
-376.2350262562331
 30
0.0
 11
-10368.03342552131
 21
-406.2350262562331
 31
0.0
  0
LINE
  5
21E77
330
21D7A
100
AcDbEntity
  8
細線
 48
50.0
100
AcDbLine
 10
-10671.90206984643
 20
-376.2350262562331
 30
0.0
 11
-10663.8635940735
 21
-406.2350262562331
 31
0.0
  0
LINE
  5
21E78
330
21D7A
100
AcDbEntity
  8
細線
 48
50.0
100
AcDbLine
 10
-10573.29201366237
 20
-376.2350262562331
 30
0.0
 11
-10565.25353788944
 21
-406.2350262562331
 31
0.0
  0
LINE
  5
21E79
330
21D7A
100
AcDbEntity
  8
細線
 48
50.0
100
AcDbLine
 10
-10285.50032088312
 20
-406.2350262562331
 30
0.0
 11
-10242.62845009414
 21
-246.2350262562341
 31
0.0
  0
LINE
  5
21E7A
330
21D7A
100
AcDbEntity
  8
細線
 48
50.0
100
AcDbLine
 10
-10581.3304894353
 20
-406.2350262562331
 30
0.0
 11
-10538.45861864632
 21
-246.2350262562331
 31
0.0
  0
LINE
  5
21E7B
330
21D7A
100
AcDbEntity
  8
細線
 48
50.0
100
AcDbLine
 10
-10482.72043325124
 20
-406.235026256234
 30
0.0
 11
-10439.84856246227
 21
-246.2350262562341
 31
0.0
  0
LINE
  5
21E7C
330
21D7A
100
AcDbEntity
  8
細線
 48
50.0
100
AcDbLine
 10
-10679.94054561937
 20
-406.235026256234
 30
0.0
 11
-10637.0686748304
 21
-246.2350262562341
 31
0.0
  0
LINE
  5
21E7D
330
21D7A
100
AcDbEntity
  8
部品1
 48
50.0
100
AcDbLine
 10
-10740.5889264372
 20
-406.2350262562331
 30
0.0
 11
-10740.5889264372
 21
-246.2350262562331
 31
0.0
  0
LINE
  5
21E7E
330
21D7A
100
AcDbEntity
  8
細線
 48
50.0
100
AcDbLine
 10
-10384.11037706718
 20
-406.2350262562331
 30
0.0
 11
-10341.2385062782
 21
-246.2350262562331
 31
0.0
  0
LINE
  5
21E7F
330
21D7A
100
AcDbEntity
  8
細線
 48
50.0
100
AcDbLine
 10
-10186.89026469906
 20
-406.235026256234
 30
0.0
 11
-10144.01839391008
 21
-246.2350262562341
 31
0.0
  0
LINE
  5
21E80
330
21D7A
100
AcDbEntity
  8
部品1
 48
50.0
100
AcDbLine
 10
-9980.588926437198
 20
-406.2350262562331
 30
0.0
 11
-10740.5889264372
 21
-406.2350262562331
 31
0.0
  0
LINE
  5
21E81
330
21D7A
100
AcDbEntity
  8
部品1
 48
50.0
100
AcDbLine
 10
-9980.588926437198
 20
-246.2350262562331
 30
0.0
 11
-10740.5889264372
 21
-246.2350262562331
 31
0.0
  0
LEADER
  5
21E82
330
21D7A
100
AcDbEntity
  8
寸法
 48
50.0
100
AcDbLeader
  3
INABA_S40G
 71
     0
 73
     0
 74
     0
 75
     1
 40
100.0
 41
540.3409090909091
 76
     3
 10
-10268.15746517073
 20
-117.1606892731397
 30
0.0
 10
-10063.41585661063
 20
-544.1992117667614
 30
0.0
 10
-9963.415856610637
 20
-544.1992117667614
 30
0.0
213
0.0
223
-1.277828345336728
233
0.0
  0
DIMENSION
  5
21E83
330
21D7A
100
AcDbEntity
  8
寸法
 48
50.0
100
AcDbDimension
  2
*D29
 10
-10080.5889264372
 20
-705.1871327121662
 30
0.0
 11
-10360.5889264372
 21
-705.1871327121662
 31
0.0
 12
-16307.2
 22
-1200.0
 32
0.0
 70
   128
  1
300
 71
     5
 42
560.0000000000009
  3
INABA_S40G
100
AcDbAlignedDimension
 13
-10640.5889264372
 23
-406.2350262562331
 33
0.0
 14
-10080.5889264372
 24
-406.2350262562331
 34
0.0
100
AcDbRotatedDimension
  0
LEADER
  5
21E84
330
21D7A
100
AcDbEntity
  8
寸法
 48
50.0
100
AcDbLeader
  3
INABA_S40G
 71
     0
 73
     0
 74
     0
 75
     1
 40
100.0
 41
225.0
 76
     3
 10
-10200.71023599702
 20
-96.23502625623315
 30
0.0
 10
-10076.42935167884
 20
-215.4813624349481
 30
0.0
 10
-9976.429351678845
 20
-215.4813624349481
 30
0.0
  0
LINE
  5
21E85
330
21D7A
100
AcDbEntity
  8
細線
 48
50.0
100
AcDbLine
 10
-10227.68391228379
 20
-106.2350262562331
 30
0.0
 11
-10080.5889264372
 21
40.85995959035017
 31
0.0
  0
LINE
  5
21E86
330
21D7A
100
AcDbEntity
  8
細線
 48
50.0
100
AcDbLine
 10
-10160.33199137576
 20
-106.2350262562331
 30
0.0
 11
-10080.5889264372
 21
-26.49196131766803
 31
0.0
  0
LINE
  5
21E87
330
21D7A
100
AcDbEntity
  8
細線
 48
50.0
100
AcDbLine
 10
-10194.00795182977
 20
-106.2350262562331
 30
0.0
 11
-10080.5889264372
 21
7.183999136341299
 31
0.0
  0
LINE
  5
21E88
330
21D7A
100
AcDbEntity
  8
部品1
 48
50.0
100
AcDbLine
 10
-10240.5889264372
 20
53.76497374376686
 30
0.0
 11
-10080.5889264372
 21
53.76497374376686
 31
0.0
  0
LINE
  5
21E89
330
21D7A
100
AcDbEntity
  8
部品1
 48
50.0
100
AcDbLine
 10
-10330.58892643719
 20
-96.23502625623315
 30
0.0
 11
-10330.5889264372
 21
559.083010486574
 31
0.0
  0
LINE
  5
21E8A
330
21D7A
100
AcDbEntity
  8
部品1
 48
50.0
100
AcDbLine
 10
-10350.58892643719
 20
-96.23502625623315
 30
0.0
 11
-10350.5889264372
 21
559.083010486574
 31
0.0
  0
LINE
  5
21E8B
330
21D7A
100
AcDbEntity
  8
部品1
 48
50.0
100
AcDbLine
 10
-10480.5889264372
 20
53.76497374376686
 30
0.0
 11
-10480.5889264372
 21
733.7649737437682
 31
0.0
  0
LINE
  5
21E8C
330
21D7A
100
AcDbEntity
  8
細線
 48
50.0
100
AcDbLine
 10
-10480.5889264372
 20
145.9993664004901
 30
0.0
 11
-10350.58892643719
 21
275.9993664004942
 31
0.0
  0
LINE
  5
21E8D
330
21D7A
100
AcDbEntity
  8
細線
 48
50.0
100
AcDbLine
 10
-10480.5889264372
 20
179.6753268544998
 30
0.0
 11
-10350.5889264372
 21
309.6753268544999
 31
0.0
  0
LINE
  5
21E8E
330
21D7A
100
AcDbEntity
  8
細線
 48
50.0
100
AcDbLine
 10
-10480.5889264372
 20
112.3234059464812
 30
0.0
 11
-10350.58892643719
 21
242.3234059464812
 31
0.0
  0
LINE
  5
21E8F
330
21D7A
100
AcDbEntity
  8
部品1
 48
50.0
100
AcDbLine
 10
-10240.5889264372
 20
733.7649737437682
 30
0.0
 11
-10240.5889264372
 21
53.76497374376686
 31
0.0
  0
MTEXT
  5
21E90
102
{ACAD_REACTORS
330
21E91
102
}
330
21D7A
100
AcDbEntity
  8
寸法
 62
     7
 48
50.0
100
AcDbMText
 10
-10854.25770918119
 20
-350.6383932792778
 30
0.0
 40
100.0
 41
1.0
 71
     6
 72
     1
  1
D10
  7
STYLE2
 73
     1
 44
1.0
1001
ACAD
1000
MTEXTBEGIN
1070
    73
1070
     1
1070
    44
1040
1.0
1070
    74
1070
     0
1000
MTEXTEND
  0
LEADER
  5
21E91
330
21D7A
100
AcDbEntity
  8
寸法
 48
50.0
100
AcDbLeader
  3
INABA_S40G
 71
     0
 73
     0
 75
     1
 40
100.0
 41
225.0
 76
     3
 10
-10520.71023599702
 20
-96.23502625623315
 30
0.0
 10
-10729.25770918119
 20
-425.6383932792777
 30
0.0
 10
-10829.25770918119
 20
-425.6383932792777
 30
0.0
  0
LEADER
  5
21E92
330
21D7A
100
AcDbEntity
  8
寸法
 48
50.0
100
AcDbLeader
  3
INABA_S40G
 71
     0
 73
     0
 75
     1
 40
100.0
 41
222.7272727272727
 76
     3
 10
-10360.5889264372
 20
-96.23502625623315
 30
0.0
 10
-10694.1042997344
 20
-651.0335839535819
 30
0.0
 10
-10794.1042997344
 20
-651.0335839535819
 30
0.0
  0
MTEXT
  5
21E93
102
{ACAD_REACTORS
330
21E92
102
}
330
21D7A
100
AcDbEntity
  8
寸法
 62
     7
 48
50.0
100
AcDbMText
 10
-10819.1042997344
 20
-576.0335839535819
 30
0.0
 40
100.0
 41
1.0
 71
     6
 72
     1
  1
D13
  7
STYLE2
 73
     1
 44
1.0
1001
ACAD
1000
MTEXTBEGIN
1070
    73
1070
     1
1070
    44
1040
1.0
1070
    74
1070
     0
1000
MTEXTEND
  0
MTEXT
  5
21E94
102
{ACAD_REACTORS
330
21E95
102
}
330
21D7A
100
AcDbEntity
  8
寸法
 62
     7
 48
50.0
100
AcDbMText
 10
-10592.1514942157
 20
235.3907272655879
 30
0.0
 40
100.0
 41
1.0
 71
     6
 72
     1
  1
\A1;D10@300
  7
STYLE2
 73
     1
 44
1.0
1001
ACAD
1000
MTEXTBEGIN
1070
    73
1070
     1
1070
    44
1040
1.0
1070
    74
1070
     0
1000
MTEXTEND
  0
LEADER
  5
21E95
330
21D7A
100
AcDbEntity
  8
寸法
 48
50.0
100
AcDbLeader
  3
INABA_S40G
 71
     0
 73
     0
 75
     1
 40
100.0
 41
540.3409090909091
 76
     3
 10
-10350.5889264372
 20
431.4239921151711
 30
0.0
 10
-10479.31672209807
 20
154.5860814391662
 30
0.0
 10
-10579.31672209807
 20
154.5860814391662
 30
0.0
213
-12.16522788236671
223
-5.804645826423211
233
0.0
  0
LEADER
  5
21E96
330
21D7A
100
AcDbEntity
  8
寸法
 48
50.0
100
AcDbLeader
  3
INABA_S40G
 71
     0
 73
     0
 75
     1
 40
130.1136363636363
 41
651.1363636363636
 76
     3
 10
-10380.5889264372
 20
733.7649737437682
 30
0.0
 10
-10439.50692635548
 20
909.353430564502
 30
0.0
 10
-10539.50692635548
 20
909.353430564502
 30
0.0
  0
MTEXT
  5
21E97
102
{ACAD_REACTORS
330
21E96
102
}
330
21D7A
100
AcDbEntity
  8
寸法
 62
     7
 48
50.0
100
AcDbMText
 10
-10564.50692635548
 20
999.410248746321
 30
0.0
 40
100.0
 41
1.0
 71
     6
 72
     1
  1
\A1;金コテ押エ
  7
STYLE2
 73
     1
 44
1.0
1001
ACAD
1000
MTEXTBEGIN
1070
    73
1070
     1
1070
    44
1040
1.0
1070
    74
1070
     0
1000
MTEXTEND
  0
DIMENSION
  5
21E98
330
21D7A
100
AcDbEntity
  8
寸法
 48
50.0
100
AcDbDimension
  2
*D28
 10
-11241.23386447326
 20
-246.235026256233
 30
0.0
 11
-11241.23386447326
 21
243.7649737437677
 31
0.0
 12
-16307.2
 22
-1200.0
 32
0.0
 70
   128
  1
540
 71
     5
 42
980.0000000000014
  3
INABA_S40G
100
AcDbAlignedDimension
 13
-10480.5889264372
 23
733.7649737437682
 33
0.0
 14
-10740.5889264372
 24
-246.2350262562331
 34
0.0
 50
90.0
100
AcDbRotatedDimension
  0
DIMENSION
  5
21E99
330
21D7A
100
AcDbEntity
  8
寸法
 48
50.0
100
AcDbDimension
  2
*D27
 10
-10818.61431860277
 20
-246.2350262562331
 30
0.0
 11
-10818.61431860277
 21
-96.23502625623315
 31
0.0
 12
-16307.2
 22
-1200.0
 32
0.0
 70
   128
  1
150
 71
     5
 42
300.0000000000001
  3
INABA_S40G
100
AcDbAlignedDimension
 13
-10640.5889264372
 23
53.76497374376686
 33
0.0
 14
-10740.5889264372
 24
-246.2350262562331
 34
0.0
 50
90.0
100
AcDbRotatedDimension
  0
LWPOLYLINE
  5
21E9A
330
21D7A
100
AcDbEntity
  8
部品1
 48
50.0
100
AcDbPolyline
 90
        2
 70
     0
 43
10.0
 10
-10998.26380372839
 20
433.7649737437695
 10
-10480.5889264372
 20
433.7649737437695
  0
TEXT
  5
21E9B
330
21D7A
100
AcDbEntity
  8
部品1
 48
50.0
100
AcDbText
 10
-10998.26380372839
 20
447.8137140978369
 30
0.0
 40
100.0
  1
▽G.L
  7
STYLE2
100
AcDbText
  0
LEADER
  5
21E9C
330
21D7A
100
AcDbEntity
  8
寸法
 48
50.0
100
AcDbLeader
  3
INABA_S40G
 71
     0
 73
     0
 75
     1
 40
132.9545454545455
 41
1129.404378023068
 76
     3
 10
-8191.289784965707
 20
820.714973743768
 30
0.0
 10
-8299.31987539688
 20
1279.539442139183
 30
0.0
 10
-8399.319875396882
 20
1279.539442139183
 30
0.0
  0
MTEXT
  5
21E9D
102
{ACAD_REACTORS
330
21E9C
102
}
330
21D7A
100
AcDbEntity
  8
寸法
 62
     7
 48
50.0
100
AcDbMText
 10
-8439.319875396881
 20
1386.016714866456
 30
0.0
 40
100.0
 41
1.0
 71
     6
 72
     1
  1
アンカープレート {\fArial|b0|i0|c0|p32;U}
  7
STYLE2
 73
     1
 44
1.0
1001
ACAD
1000
MTEXTBEGIN
1070
    73
1070
     1
1070
    44
1040
1.0
1070
    74
1070
     0
1000
MTEXTEND
  0
MTEXT
  5
21E9E
102
{ACAD_REACTORS
330
21E9F
102
}
330
21D7A
100
AcDbEntity
  8
部品1
 62
     7
 48
50.0
100
AcDbMText
 10
-7828.347321074009
 20
1840.595543558828
 30
0.0
 40
100.0
 41
1.0
 71
     4
 72
     1
  1
\A1;ナット(市販品)
  7
STYLE2
 73
     1
 44
1.0
1001
ACAD
1000
MTEXTBEGIN
1070
    73
1070
     1
1070
    44
1040
1.0
1070
    74
1070
     0
1000
MTEXTEND
  0
LEADER
  5
21E9F
330
21D7A
100
AcDbEntity
  8
寸法
 48
50.0
100
AcDbLeader
  3
INABA_S40G
 71
     0
 73
     0
 74
     0
 75
     1
 40
127.8409090909091
 41
850.0
 76
     3
 10
-8058.789784965709
 20
1232.359075130196
 30
0.0
 10
-7968.34732107401
 20
1736.675089013373
 30
0.0
 10
-7868.34732107401
 20
1736.675089013373
 30
0.0
  0
MTEXT
  5
21EA0
102
{ACAD_REACTORS
330
21EA1
102
}
330
21D7A
100
AcDbEntity
  8
部品1
 62
     7
 48
50.0
100
AcDbMText
 10
-7788.950297004657
 20
1609.384190102843
 30
0.0
 40
100.0
 41
1.0
 71
     4
 72
     1
  1
\A1;ワッシャー(市販品)
  7
STYLE2
 73
     1
 44
1.0
1001
ACAD
1000
MTEXTBEGIN
1070
    73
1070
     1
1070
    44
1040
1.0
1070
    74
1070
     0
1000
MTEXTEND
  0
LEADER
  5
21EA1
330
21D7A
100
AcDbEntity
  8
寸法
 48
50.0
100
AcDbLeader
  3
INABA_S40G
 71
     0
 73
     0
 74
     0
 75
     1
 40
127.8409090909091
 41
1133.522727272727
 76
     3
 10
-8028.789784965708
 20
1070.169084299118
 30
0.0
 10
-7928.950297004655
 20
1505.463735557388
 30
0.0
 10
-7828.950297004656
 20
1505.463735557388
 30
0.0
  0
DIMENSION
  5
21EA2
330
21D7A
100
AcDbEntity
  8
寸法
 48
50.0
100
AcDbDimension
  2
*D26
 10
-10480.5889264372
 20
1258.349733639243
 30
0.0
 11
-10360.5889264372
 21
1258.349733639243
 31
0.0
 12
-16307.2
 22
-1200.0
 32
0.0
 70
   128
  1
120
 71
     5
 42
240.0
  3
INABA_S40G
100
AcDbAlignedDimension
 13
-10240.5889264372
 23
733.7649737437682
 33
0.0
 14
-10480.5889264372
 24
733.7649737437682
 34
0.0
100
AcDbRotatedDimension
  0
LINE
  5
21EA3
330
21D7A
100
AcDbEntity
  8
部品1
100
AcDbLine
 10
-11599.38961798898
 20
2384.979498464823
 30
0.0
 11
-11599.38961798898
 21
-874.0900008898643
 31
0.0
  0
MTEXT
  5
21EA4
102
{ACAD_REACTORS
330
21EA5
102
}
330
21D7A
100
AcDbEntity
  8
寸法
 62
     7
 48
50.0
100
AcDbMText
 10
-8472.623633157329
 20
1836.87205475085
 30
0.0
 40
100.0
 41
1.0
 71
     6
 72
     1
  1
\A1;φ70スリーブ
  7
STYLE2
 73
     1
 44
1.0
1001
ACAD
1000
MTEXTBEGIN
1070
    73
1070
     1
1070
    44
1040
1.0
1070
    74
1070
     0
1000
MTEXTEND
  0
LEADER
  5
21EA5
330
21D7A
100
AcDbEntity
  8
寸法
 48
50.0
100
AcDbLeader
  3
INABA_S40G
 71
     0
 73
     0
 75
     1
 40
141.4772727272727
 41
760.7954545454546
 76
     3
 10
-8117.868847293147
 20
670.6595654416164
 30
0.0
 10
-8332.62363315733
 20
1726.133418387214
 30
0.0
 10
-8432.62363315733
 20
1726.133418387214
 30
0.0
  0
LINE
  5
21EA6
330
21D7A
100
AcDbEntity
  8
部品1
100
AcDbLine
 10
-4702.914921890951
 20
2384.979498464825
 30
0.0
 11
-11599.38961798898
 21
2384.979498464823
 31
0.0
  0
LINE
  5
21EA7
330
21D7A
100
AcDbEntity
  8
部品1
100
AcDbLine
 10
-4702.914921890951
 20
2084.979498464823
 30
0.0
 11
-11599.38961798898
 21
2084.979498464823
 31
0.0
  0
LINE
  5
21EA8
330
21D7A
100
AcDbEntity
  8
部品1
100
AcDbLine
 10
-11599.38961798898
 20
-874.0900008898643
 30
0.0
 11
-4702.914921890951
 21
-874.0900008898643
 31
0.0
  0
LINE
  5
21EA9
330
21D7A
100
AcDbEntity
  8
部品1
100
AcDbLine
 10
-6193.425849710092
 20
159.1413291770759
 30
0.0
 11
-5293.425849710091
 21
159.14132917708
 31
0.0
  0
LINE
  5
21EAA
330
21D7A
100
AcDbEntity
  8
部品1
100
AcDbLine
 10
-6193.425849710092
 20
319.14132917708
 30
0.0
 11
-5293.425849710091
 21
319.1413291770832
 31
0.0
  0
LWPOLYLINE
  5
21EAB
330
21D7A
100
AcDbEntity
  8
部品1
 48
50.0
100
AcDbPolyline
 90
        2
 70
     0
 43
15.0
 10
-6524.189927335574
 20
433.7649737437677
 10
-5022.824548421041
 20
433.7649737437677
  0
LINE
  5
21EAC
330
21D7A
100
AcDbEntity
  8
細線
100
AcDbLine
 10
-6052.13035658593
 20
319.14132917708
 30
0.0
 11
-5937.506712019239
 21
433.7649737437669
 31
0.0
  0
LINE
  5
21EAD
330
21D7A
100
AcDbEntity
  8
部品1
100
AcDbLine
 10
-6043.425849710091
 20
733.7649737437682
 30
0.0
 11
-5443.425849710092
 21
733.7649737437682
 31
0.0
  0
LINE
  5
21EAE
330
21D7A
100
AcDbEntity
  8
細線
100
AcDbLine
 10
-5863.773792920902
 20
433.7649737437677
 30
0.0
 11
-6043.425849710091
 21
613.417030532958
 31
0.0
  0
LINE
  5
21EAF
330
21D7A
100
AcDbEntity
  8
細線
100
AcDbLine
 10
-5800.134182614111
 20
433.7649737437677
 30
0.0
 11
-6043.425849710091
 21
677.0566408397463
 31
0.0
  0
MTEXT
  5
21EB0
330
21D7A
100
AcDbEntity
  8
寸法
 62
     7
 48
50.0
100
AcDbMText
 10
-8411.643121524443
 20
1200.689039260351
 30
0.0
 40
100.0
 41
1.0
 71
     6
 72
     1
  1
\U+203B(別売)
  7
STYLE2
 73
     1
 44
1.0
1001
ACAD
1000
MTEXTBEGIN
1070
    73
1070
     1
1070
    44
1040
1.0
1070
    74
1070
     0
1000
MTEXTEND
  0
TEXT
  5
21EB1
330
21D7A
100
AcDbEntity
  8
文字
 62
     7
 48
50.0
100
AcDbText
 10
-1665.947414421596
 20
-328.8255409342075
 30
0.0
 40
100.0
  1
～一般型・多雪地型～
  7
STYLE2
100
AcDbText
  0
TEXT
  5
21EB2
330
21D7A
100
AcDbEntity
  8
文字
 62
     7
 48
50.0
100
AcDbText
 10
-1783.068162778003
 20
-168.4422937087713
 30
0.0
 40
100.0
  1
NO.10      <縮尺> S=1/40
  7
STYLE2
100
AcDbText
  0
ENDBLK
  5
21EB4
330
21D7A
100
AcDbEntity
  8
0
 48
50.0
100
AcDbBlockEnd
  0
BLOCK
  5
2217D
330
22173
100
AcDbEntity
  8
0
 48
50.0
100
AcDbBlockBegin
  2
*D33
 70
     1
 10
0.0
 20
0.0
 30
0.0
  3
*D33
  1

  0
LINE
  5
221BD
330
22173
100
AcDbEntity
  8
寸法
 62
     0
 48
50.0
370
    -2
100
AcDbLine
 10
5666.611073562799
 20
773.7649737437668
 30
0.0
 11
5666.611073562799
 21
434.8128672878337
 31
0.0
  0
LINE
  5
221BE
330
22173
100
AcDbEntity
  8
寸法
 62
     0
 48
50.0
370
    -2
100
AcDbLine
 10
6226.611073562801
 20
773.7649737437668
 30
0.0
 11
6226.611073562801
 21
434.8128672878337
 31
0.0
  0
LINE
  5
221BF
330
22173
100
AcDbEntity
  8
寸法
 62
     0
 48
50.0
370
    -2
100
AcDbLine
 10
5666.611073562799
 20
494.8128672878338
 30
0.0
 11
6226.611073562801
 21
494.8128672878338
 31
0.0
  0
INSERT
  5
221C0
330
22173
100
AcDbEntity
  8
寸法
 62
     0
 48
50.0
370
    -2
100
AcDbBlockReference
  2
_DOTSMALL
 10
5666.611073562799
 20
494.8128672878338
 30
0.0
 41
100.0
 42
100.0
 43
100.0
 50
180.0
  0
INSERT
  5
221C1
330
22173
100
AcDbEntity
  8
寸法
 62
     0
 48
50.0
370
    -2
100
AcDbBlockReference
  2
_DOTSMALL
 10
6226.611073562801
 20
494.8128672878338
 30
0.0
 41
100.0
 42
100.0
 43
100.0
  0
MTEXT
  5
221C2
330
22173
100
AcDbEntity
  8
寸法
 62
     7
 48
50.0
100
AcDbMText
 10
5946.611073562799
 20
594.8128672878338
 30
0.0
 40
120.0
 41
0.0
 71
     5
 72
     1
  1
\A1;300
  7
STYLE1
 73
     1
 44
1.0
1001
ACAD
1000
MTEXTBEGIN
1070
    73
1070
     1
1070
    44
1040
1.0
1070
    74
1070
     0
1000
MTEXTEND
  0
POINT
  5
221C3
330
22173
100
AcDbEntity
  8
DEFPOINTS
 62
     0
 48
50.0
100
AcDbPoint
 10
5666.611073562799
 20
793.7649737437668
 30
0.0
  0
POINT
  5
221C4
330
22173
100
AcDbEntity
  8
DEFPOINTS
 62
     0
 48
50.0
100
AcDbPoint
 10
6226.611073562801
 20
793.7649737437668
 30
0.0
  0
POINT
  5
221C5
330
22173
100
AcDbEntity
  8
DEFPOINTS
 62
     0
 48
50.0
100
AcDbPoint
 10
6226.611073562801
 20
494.8128672878338
 30
0.0
  0
ENDBLK
  5
2217E
330
22173
100
AcDbEntity
  8
0
 48
50.0
100
AcDbBlockEnd
  0
BLOCK
  5
22189
330
2217F
100
AcDbEntity
  8
0
 48
50.0
100
AcDbBlockBegin
  2
*D34
 70
     1
 10
0.0
 20
0.0
 30
0.0
  3
*D34
  1

  0
LINE
  5
221C6
330
2217F
100
AcDbEntity
  8
寸法
 62
     0
 48
50.0
370
    -2
100
AcDbLine
 10
5806.611073562799
 20
1933.764973743768
 30
0.0
 11
5005.966135526737
 21
1933.764973743768
 31
0.0
  0
LINE
  5
221C7
330
2217F
100
AcDbEntity
  8
寸法
 62
     0
 48
50.0
370
    -2
100
AcDbLine
 10
5546.611073562804
 20
953.7649737437668
 30
0.0
 11
5005.966135526737
 21
953.764973743767
 31
0.0
  0
LINE
  5
221C8
330
2217F
100
AcDbEntity
  8
寸法
 62
     0
 48
50.0
370
    -2
100
AcDbLine
 10
5065.966135526736
 20
1933.764973743768
 30
0.0
 11
5065.966135526736
 21
953.764973743767
 31
0.0
  0
INSERT
  5
221C9
330
2217F
100
AcDbEntity
  8
寸法
 62
     0
 48
50.0
370
    -2
100
AcDbBlockReference
  2
_DOTSMALL
 10
5065.966135526736
 20
1933.764973743768
 30
0.0
 41
100.0
 42
100.0
 43
100.0
 50
90.0
  0
INSERT
  5
221CA
330
2217F
100
AcDbEntity
  8
寸法
 62
     0
 48
50.0
370
    -2
100
AcDbBlockReference
  2
_DOTSMALL
 10
5065.966135526736
 20
953.764973743767
 30
0.0
 41
100.0
 42
100.0
 43
100.0
 50
270.0
  0
MTEXT
  5
221CB
330
2217F
100
AcDbEntity
  8
寸法
 62
     7
 48
50.0
100
AcDbMText
 10
4965.966135526736
 20
1443.764973743768
 30
0.0
 40
120.0
 41
0.0
 71
     5
 72
     1
  1
\A1;540
  7
STYLE1
 11
0.0000000000000001
 21
1.0
 31
0.0
 73
     1
 44
1.0
1001
ACAD
1000
MTEXTBEGIN
1070
    73
1070
     1
1070
    44
1040
1.0
1070
    74
1070
     0
1000
MTEXTEND
  0
POINT
  5
221CC
330
2217F
100
AcDbEntity
  8
DEFPOINTS
 62
     0
 48
50.0
100
AcDbPoint
 10
5826.611073562799
 20
1933.764973743768
 30
0.0
  0
POINT
  5
221CD
330
2217F
100
AcDbEntity
  8
DEFPOINTS
 62
     0
 48
50.0
100
AcDbPoint
 10
5566.611073562804
 20
953.7649737437668
 30
0.0
  0
POINT
  5
221CE
330
2217F
100
AcDbEntity
  8
DEFPOINTS
 62
     0
 48
50.0
100
AcDbPoint
 10
5065.966135526736
 20
953.764973743767
 30
0.0
  0
ENDBLK
  5
2218A
330
2217F
100
AcDbEntity
  8
0
 48
50.0
100
AcDbBlockEnd
  0
BLOCK
  5
22195
330
2218B
100
AcDbEntity
  8
0
 48
50.0
100
AcDbBlockBegin
  2
*D35
 70
     1
 10
0.0
 20
0.0
 30
0.0
  3
*D35
  1

  0
LINE
  5
221CF
330
2218B
100
AcDbEntity
  8
寸法
 62
     0
 48
50.0
370
    -2
100
AcDbLine
 10
5646.611073562799
 20
1253.764973743767
 30
0.0
 11
5428.585681397226
 21
1253.764973743767
 31
0.0
  0
LINE
  5
221D0
330
2218B
100
AcDbEntity
  8
寸法
 62
     0
 48
50.0
370
    -2
100
AcDbLine
 10
5546.611073562804
 20
953.7649737437668
 30
0.0
 11
5428.585681397226
 21
953.7649737437668
 31
0.0
  0
LINE
  5
221D1
330
2218B
100
AcDbEntity
  8
寸法
 62
     0
 48
50.0
370
    -2
100
AcDbLine
 10
5488.585681397226
 20
1253.764973743767
 30
0.0
 11
5488.585681397226
 21
953.7649737437668
 31
0.0
  0
INSERT
  5
221D2
330
2218B
100
AcDbEntity
  8
寸法
 62
     0
 48
50.0
370
    -2
100
AcDbBlockReference
  2
_DOTSMALL
 10
5488.585681397226
 20
1253.764973743767
 30
0.0
 41
100.0
 42
100.0
 43
100.0
 50
90.0
  0
INSERT
  5
221D3
330
2218B
100
AcDbEntity
  8
寸法
 62
     0
 48
50.0
370
    -2
100
AcDbBlockReference
  2
_DOTSMALL
 10
5488.585681397226
 20
953.7649737437668
 30
0.0
 41
100.0
 42
100.0
 43
100.0
 50
270.0
  0
MTEXT
  5
221D4
330
2218B
100
AcDbEntity
  8
寸法
 62
     7
 48
50.0
100
AcDbMText
 10
5388.585681397226
 20
1103.764973743767
 30
0.0
 40
120.0
 41
0.0
 71
     5
 72
     1
  1
\A1;150
  7
STYLE1
 11
0.0000000000000001
 21
1.0
 31
0.0
 73
     1
 44
1.0
1001
ACAD
1000
MTEXTBEGIN
1070
    73
1070
     1
1070
    44
1040
1.0
1070
    74
1070
     0
1000
MTEXTEND
  0
POINT
  5
221D5
330
2218B
100
AcDbEntity
  8
DEFPOINTS
 62
     0
 48
50.0
100
AcDbPoint
 10
5666.611073562799
 20
1253.764973743767
 30
0.0
  0
POINT
  5
221D6
330
2218B
100
AcDbEntity
  8
DEFPOINTS
 62
     0
 48
50.0
100
AcDbPoint
 10
5566.611073562804
 20
953.7649737437668
 30
0.0
  0
POINT
  5
221D7
330
2218B
100
AcDbEntity
  8
DEFPOINTS
 62
     0
 48
50.0
100
AcDbPoint
 10
5488.585681397226
 20
953.7649737437668
 30
0.0
  0
ENDBLK
  5
22196
330
2218B
100
AcDbEntity
  8
0
 48
50.0
100
AcDbBlockEnd
  0
BLOCK
  5
221A1
330
22197
100
AcDbEntity
  8
0
 48
50.0
100
AcDbBlockBegin
  2
*D36
 70
     1
 10
0.0
 20
0.0
 30
0.0
  3
*D36
  1

  0
LINE
  5
221D8
330
22197
100
AcDbEntity
  8
寸法
 62
     0
 48
50.0
370
    -2
100
AcDbLine
 10
6066.611073562799
 20
1953.764973743768
 30
0.0
 11
6066.611073562799
 21
2518.349733639244
 31
0.0
  0
LINE
  5
221D9
330
22197
100
AcDbEntity
  8
寸法
 62
     0
 48
50.0
370
    -2
100
AcDbLine
 10
5826.611073562799
 20
1953.764973743768
 30
0.0
 11
5826.611073562799
 21
2518.349733639244
 31
0.0
  0
LINE
  5
221DA
330
22197
100
AcDbEntity
  8
寸法
 62
     0
 48
50.0
370
    -2
100
AcDbLine
 10
6066.611073562799
 20
2458.349733639244
 30
0.0
 11
5826.611073562799
 21
2458.349733639244
 31
0.0
  0
INSERT
  5
221DB
330
22197
100
AcDbEntity
  8
寸法
 62
     0
 48
50.0
370
    -2
100
AcDbBlockReference
  2
_DOTSMALL
 10
6066.611073562799
 20
2458.349733639244
 30
0.0
 41
100.0
 42
100.0
 43
100.0
  0
INSERT
  5
221DC
330
22197
100
AcDbEntity
  8
寸法
 62
     0
 48
50.0
370
    -2
100
AcDbBlockReference
  2
_DOTSMALL
 10
5826.611073562799
 20
2458.349733639244
 30
0.0
 41
100.0
 42
100.0
 43
100.0
 50
180.0
  0
MTEXT
  5
221DD
330
22197
100
AcDbEntity
  8
寸法
 62
     7
 48
50.0
100
AcDbMText
 10
5946.611073562799
 20
2558.361544662866
 30
0.0
 40
120.0
 41
0.0
 71
     5
 72
     1
  1
\A1;120
  7
STYLE1
 73
     1
 44
1.0
1001
ACAD
1000
MTEXTBEGIN
1070
    73
1070
     1
1070
    44
1040
1.0
1070
    74
1070
     0
1000
MTEXTEND
  0
POINT
  5
221DE
330
22197
100
AcDbEntity
  8
DEFPOINTS
 62
     0
 48
50.0
100
AcDbPoint
 10
6066.611073562799
 20
1933.764973743768
 30
0.0
  0
POINT
  5
221DF
330
22197
100
AcDbEntity
  8
DEFPOINTS
 62
     0
 48
50.0
100
AcDbPoint
 10
5826.611073562799
 20
1933.764973743768
 30
0.0
  0
POINT
  5
221E0
330
22197
100
AcDbEntity
  8
DEFPOINTS
 62
     0
 48
50.0
100
AcDbPoint
 10
5826.611073562799
 20
2458.349733639244
 30
0.0
  0
ENDBLK
  5
221A2
330
22197
100
AcDbEntity
  8
0
 48
50.0
100
AcDbBlockEnd
  0
BLOCK
  5
221AF
330
221A3
100
AcDbEntity
  8
0
 48
50.0
100
AcDbBlockBegin
  2
*D37
 70
     1
 10
0.0
 20
0.0
 30
0.0
  3
*D37
  1

  0
LINE
  5
221E1
330
221A3
100
AcDbEntity
  8
寸法
 62
     0
 48
50.0
370
    -2
100
AcDbLine
 10
8255.160215034292
 20
1999.714973743768
 30
0.0
 11
9501.564297394132
 21
1999.714973743768
 31
0.0
  0
LINE
  5
221E2
330
221A3
100
AcDbEntity
  8
寸法
 62
     0
 48
50.0
370
    -2
100
AcDbLine
 10
8489.160215034294
 20
1933.764973743768
 30
0.0
 11
9501.564297394132
 21
1933.764973743768
 31
0.0
  0
LINE
  5
221E3
330
221A3
100
AcDbEntity
  8
寸法
 62
     0
 48
50.0
370
    -2
100
AcDbLine
 10
9441.564297394132
 20
1999.714973743768
 30
0.0
 11
9441.564297394132
 21
2099.714973743768
 31
0.0
  0
LINE
  5
221E4
330
221A3
100
AcDbEntity
  8
寸法
 62
     0
 48
50.0
370
    -2
100
AcDbLine
 10
9441.564297394132
 20
1933.764973743768
 30
0.0
 11
9441.564297394132
 21
1201.7471669008
 31
0.0
  0
LINE
  5
221E5
330
221A3
100
AcDbEntity
  8
寸法
 62
     0
 48
50.0
370
    -2
100
AcDbLine
 10
9441.564297394132
 20
1999.714973743768
 30
0.0
 11
9441.564297394132
 21
1933.764973743768
 31
0.0
  0
INSERT
  5
221E6
330
221A3
100
AcDbEntity
  8
寸法
 62
     0
 48
50.0
370
    -2
100
AcDbBlockReference
  2
_DOTSMALL
 10
9441.564297394132
 20
1999.714973743768
 30
0.0
 41
100.0
 42
100.0
 43
100.0
 50
270.0
  0
INSERT
  5
221E7
330
221A3
100
AcDbEntity
  8
寸法
 62
     0
 48
50.0
370
    -2
100
AcDbBlockReference
  2
_DOTSMALL
 10
9441.564297394132
 20
1933.764973743768
 30
0.0
 41
100.0
 42
100.0
 43
100.0
 50
90.0
  0
MTEXT
  5
221E8
330
221A3
100
AcDbEntity
  8
寸法
 62
     7
 48
50.0
100
AcDbMText
 10
9341.55248637051
 20
1467.756070322284
 30
0.0
 40
120.0
 41
0.0
 71
     5
 72
     1
  1
\A1;20～25
  7
STYLE1
 11
0.0000000000000001
 21
1.0
 31
0.0
 73
     1
 44
1.0
1001
ACAD
1000
MTEXTBEGIN
1070
    73
1070
     1
1070
    44
1040
1.0
1070
    74
1070
     0
1000
MTEXTEND
  0
POINT
  5
221E9
330
221A3
100
AcDbEntity
  8
DEFPOINTS
 62
     0
 48
50.0
100
AcDbPoint
 10
8235.160215034294
 20
1999.714973743768
 30
0.0
  0
POINT
  5
221EA
330
221A3
100
AcDbEntity
  8
DEFPOINTS
 62
     0
 48
50.0
100
AcDbPoint
 10
8469.160215034293
 20
1933.764973743768
 30
0.0
  0
POINT
  5
221EB
330
221A3
100
AcDbEntity
  8
DEFPOINTS
 62
     0
 48
50.0
100
AcDbPoint
 10
9441.564297394132
 20
1933.764973743768
 30
0.0
  0
ENDBLK
  5
221B0
330
221A3
100
AcDbEntity
  8
0
 48
50.0
100
AcDbBlockEnd
  0
BLOCK
  5
221BB
330
221B1
100
AcDbEntity
  8
0
 48
50.0
100
AcDbBlockBegin
  2
*D38
 70
     1
 10
0.0
 20
0.0
 30
0.0
  3
*D38
  1

  0
LINE
  5
221EC
330
221B1
100
AcDbEntity
  8
寸法
 62
     0
 48
50.0
370
    -2
100
AcDbLine
 10
8489.160215034294
 20
1933.764973743768
 30
0.0
 11
9156.495964745349
 21
1933.764973743768
 31
0.0
  0
LINE
  5
221ED
330
221B1
100
AcDbEntity
  8
寸法
 62
     0
 48
50.0
370
    -2
100
AcDbLine
 10
8489.160215034294
 20
1528.764973743766
 30
0.0
 11
9156.495964745349
 21
1528.764973743766
 31
0.0
  0
LINE
  5
221EE
330
221B1
100
AcDbEntity
  8
寸法
 62
     0
 48
50.0
370
    -2
100
AcDbLine
 10
9096.495964745349
 20
1933.764973743768
 30
0.0
 11
9096.495964745349
 21
1528.764973743766
 31
0.0
  0
INSERT
  5
221EF
330
221B1
100
AcDbEntity
  8
寸法
 62
     0
 48
50.0
370
    -2
100
AcDbBlockReference
  2
_DOTSMALL
 10
9096.495964745349
 20
1933.764973743768
 30
0.0
 41
100.0
 42
100.0
 43
100.0
 50
90.0
  0
INSERT
  5
221F0
330
221B1
100
AcDbEntity
  8
寸法
 62
     0
 48
50.0
370
    -2
100
AcDbBlockReference
  2
_DOTSMALL
 10
9096.495964745349
 20
1528.764973743766
 30
0.0
 41
100.0
 42
100.0
 43
100.0
 50
270.0
  0
MTEXT
  5
221F1
330
221B1
100
AcDbEntity
  8
寸法
 62
     7
 48
50.0
100
AcDbMText
 10
8996.495964745347
 20
1731.264973743768
 30
0.0
 40
120.0
 41
0.0
 71
     5
 72
     1
  1
\A1;180
  7
STYLE1
 11
0.0000000000000001
 21
1.0
 31
0.0
 73
     1
 44
1.0
1001
ACAD
1000
MTEXTBEGIN
1070
    73
1070
     1
1070
    44
1040
1.0
1070
    74
1070
     0
1000
MTEXTEND
  0
POINT
  5
221F2
330
221B1
100
AcDbEntity
  8
DEFPOINTS
 62
     0
 48
50.0
100
AcDbPoint
 10
8469.160215034293
 20
1933.764973743768
 30
0.0
  0
POINT
  5
221F3
330
221B1
100
AcDbEntity
  8
DEFPOINTS
 62
     0
 48
50.0
100
AcDbPoint
 10
8469.160215034293
 20
1528.764973743766
 30
0.0
  0
POINT
  5
221F4
330
221B1
100
AcDbEntity
  8
DEFPOINTS
 62
     0
 48
50.0
100
AcDbPoint
 10
9096.495964745349
 20
1528.764973743766
 30
0.0
  0
ENDBLK
  5
221BC
330
221B1
100
AcDbEntity
  8
0
 48
50.0
100
AcDbBlockEnd
  0
ENDSEC
  0
SECTION
  2
ENTITIES
  0
LINE
  5
10B57
330
747D
100
AcDbEntity
  8
補助
  6
PHANTOM
 62
   230
 48
50.0
100
AcDbLine
 10
139.9999999999995
 20
11409.6
 30
0.0
 11
16307.2
 21
11409.6
 31
0.0
  0
LINE
  5
10B59
330
747D
100
AcDbEntity
  8
仕様書枠
  6
Continuous
 48
50.0
100
AcDbLine
 10
13107.2
 20
1200.0
 30
0.0
 11
13107.2
 21
-0.0000000000000729
 31
0.0
  0
LINE
  5
10B5C
330
747D
100
AcDbEntity
  8
仕様書枠
 48
50.0
100
AcDbLine
 10
16307.2
 20
1200.0
 30
0.0
 11
16307.2
 21
-0.0000000000000909
 31
0.0
  0
LINE
  5
10B5D
330
747D
100
AcDbEntity
  8
仕様書枠
 48
50.0
100
AcDbLine
 10
140.0
 20
0.0
 30
0.0
 11
16307.2
 21
-0.0000000000000909
 31
0.0
  0
LINE
  5
10B5E
330
747D
100
AcDbEntity
  8
補助
  6
PHANTOM
 62
   230
 48
50.0
100
AcDbLine
 10
16307.2
 20
11409.6
 30
0.0
 11
16307.2
 21
1200.0
 31
0.0
  0
LINE
  5
10B6C
330
747D
100
AcDbEntity
  8
仕様書枠
 48
50.0
100
AcDbLine
 10
13107.2
 20
1200.0
 30
0.0
 11
16307.2
 21
1200.0
 31
0.0
  0
LINE
  5
10B6D
330
747D
100
AcDbEntity
  8
補助
  6
PHANTOM
 62
   230
 48
50.0
100
AcDbLine
 10
13107.2
 20
11409.6
 30
0.0
 11
13107.2
 21
4800.0
 31
0.0
  0
LINE
  5
10B6F
330
747D
100
AcDbEntity
  8
補助
  6
PHANTOM
 62
   230
 48
50.0
100
AcDbLine
 10
13107.2
 20
4800.0
 30
0.0
 11
16307.2
 21
4800.0
 31
0.0
  0
LINE
  5
10B72
330
747D
100
AcDbEntity
  8
文字
 62
     7
 48
50.0
100
AcDbLine
 10
13187.2
 20
400.0
 30
0.0
 11
16227.2
 21
400.0
 31
0.0
  0
TEXT
  5
10B73
330
747D
100
AcDbEntity
  8
文字
 62
     7
 48
50.0
100
AcDbText
 10
13162.9790565769
 20
895.0906074299405
 30
0.0
 40
200.0
  1
基 礎 図
  7
STYLE2
100
AcDbText
  0
TEXT
  5
10B74
330
747D
100
AcDbEntity
  8
文字
 62
     7
 48
50.0
100
AcDbText
 10
13201.43669998441
 20
477.2740661031255
 30
0.0
 40
160.0
  1
機種名
  7
STYLE2
100
AcDbText
  0
LINE
  5
10B7B
330
747D
100
AcDbEntity
  8
仕様書枠
 48
50.0
100
AcDbLine
 10
13107.2
 20
800.0
 30
0.0
 11
14251.2
 21
800.0
 31
0.0
  0
LINE
  5
10B88
330
747D
100
AcDbEntity
  8
仕様書枠
  6
Continuous
 48
50.0
100
AcDbLine
 10
14251.2
 20
1200.0
 30
0.0
 11
14251.2
 21
800.0
 31
0.0
  0
TEXT
  5
15A76
330
747D
100
AcDbEntity
  8
文字
 62
     7
 48
50.0
100
AcDbText
 10
14358.94611719461
 20
483.8967129911411
 30
0.0
 40
160.0
  1
NXP-60SD・HD
  7
STYLE2
100
AcDbText
  0
TEXT
  5
1D002
330
747D
100
AcDbEntity
  8
文字
 62
     7
 48
50.0
100
AcDbText
 10
13188.16259899338
 20
246.7109242801889
 30
0.0
 40
80.0
  1
※寒冷地等は地域の実情に合わせた基礎にして下さい。
  7
STYLE2
100
AcDbText
  0
DIMENSION
  5
1D91B
330
747D
100
AcDbEntity
  8
寸法
 48
50.0
100
AcDbDimension
  2
*D1
 10
7455.973803315561
 20
5829.655613631795
 30
0.0
 11
7455.97380331556
 21
6135.702857726285
 31
0.0
 70
   160
 71
     5
 42
110.0000000000018
  3
INABA_S40G
100
AcDbAlignedDimension
 13
7239.266553439462
 23
5719.655613631793
 33
0.0
 14
7239.266553439462
 24
5829.655613631795
 34
0.0
 50
90.0
100
AcDbRotatedDimension
1001
ACAD
1000
DSTYLE
1002
{
1070
   174
1070
     0
1070
   272
1070
     1
1070
   279
1070
     1
1070
   288
1070
     0
1070
   341
1005
0
1002
}
  0
DIMENSION
  5
1D91C
330
747D
100
AcDbEntity
  8
寸法
 48
50.0
100
AcDbDimension
  2
*D2
 10
7455.973803315562
 20
5599.65561363181
 30
0.0
 11
7455.973803315561
 21
5363.608369537323
 31
0.0
 70
   160
 71
     5
 42
119.9999999999845
  3
INABA_S40G
100
AcDbAlignedDimension
 13
7239.266553439462
 23
5719.655613631795
 33
0.0
 14
7239.266553439462
 24
5599.65561363181
 34
0.0
 50
90.0
100
AcDbRotatedDimension
1001
ACAD
1000
DSTYLE
1002
{
1070
   174
1070
     0
1070
   272
1070
     1
1070
   288
1070
     0
1070
   341
1005
0
1002
}
  0
DIMENSION
  5
1D91D
330
747D
100
AcDbEntity
  8
寸法
 48
50.0
100
AcDbDimension
  2
*D3
 10
7132.266553439461
 20
8572.987424591643
 30
0.0
 11
8329.266553439461
 21
8672.999235615264
 31
0.0
 70
    32
 71
     5
 42
2394.0
  3
INABA_S40G
100
AcDbAlignedDimension
 13
9526.266553439461
 23
7746.655613631792
 33
0.0
 14
7132.266553439461
 24
7746.655613631792
 34
0.0
100
AcDbRotatedDimension
1001
ACAD
1000
DSTYLE
1002
{
1070
   174
1070
     0
1070
   272
1070
     1
1070
   279
1070
     1
1070
   288
1070
     0
1070
   341
1005
0
1002
}
  0
LINE
  5
1D91E
102
{ACAD_REACTORS
330
21D08
102
}
330
747D
100
AcDbEntity
  8
部品1
 48
50.0
100
AcDbLine
 10
9419.266553439461
 20
5719.655613631807
 30
0.0
 11
7239.266553439462
 21
5719.655613631791
 31
0.0
  0
LINE
  5
1D91F
330
747D
100
AcDbEntity
  8
部品1
 48
50.0
100
AcDbLine
 10
9419.266553439461
 20
7699.65561363179
 30
0.0
 11
7239.266553439462
 21
7699.655613631795
 31
0.0
  0
DIMENSION
  5
1D920
330
747D
100
AcDbEntity
  8
寸法
 48
50.0
100
AcDbDimension
  2
*D4
 10
9649.266553439462
 20
8785.44812010848
 30
0.0
 11
8329.266553439461
 21
8885.459931132102
 31
0.0
 70
    32
 71
     5
 42
2640.000000000002
  3
INABA_S40G
100
AcDbAlignedDimension
 13
7009.266553439459
 23
7819.655613631791
 33
0.0
 14
9649.266553439462
 24
7819.655613631794
 34
0.0
100
AcDbRotatedDimension
1001
ACAD
1000
DSTYLE
1002
{
1070
   174
1070
     0
1070
   272
1070
     1
1070
   279
1070
     1
1070
   288
1070
     0
1070
   341
1005
0
1002
}
  0
LINE
  5
1D922
330
747D
100
AcDbEntity
  8
部品1
 48
50.0
100
AcDbLine
 10
9649.266553439462
 20
7819.655613631794
 30
0.0
 11
7009.266553439464
 21
7819.655613631792
 31
0.0
  0
LINE
  5
1D923
330
747D
100
AcDbEntity
  8
想像線
 48
10.0
100
AcDbLine
 10
9694.266553439462
 20
5544.655613631788
 30
0.0
 11
6967.266553439464
 21
5544.655613631793
 31
0.0
  0
LINE
  5
1D924
330
747D
100
AcDbEntity
  8
想像線
 48
10.0
100
AcDbLine
 10
6967.266553439464
 20
7894.65561363179
 30
0.0
 11
9694.266553439458
 21
7894.655613631797
 31
0.0
  0
DIMENSION
  5
1D925
330
747D
100
AcDbEntity
  8
寸法
 48
50.0
100
AcDbDimension
  2
*D5
 10
7009.266553439459
 20
8572.987424591643
 30
0.0
 11
6770.781272065221
 21
8572.987424591643
 31
0.0
 70
   160
 71
     5
 42
123.0000000000018
  3
INABA_S40G
100
AcDbAlignedDimension
 13
7132.266553439461
 23
7746.655613631792
 33
0.0
 14
7009.266553439459
 24
7819.655613631791
 34
0.0
100
AcDbRotatedDimension
1001
ACAD
1000
DSTYLE
1002
{
1070
   174
1070
     0
1070
   272
1070
     1
1070
   288
1070
     0
1070
   341
1005
0
1002
}
  0
DIMENSION
  5
1D926
330
747D
100
AcDbEntity
  8
寸法
 48
50.0
100
AcDbDimension
  2
*D6
 10
7009.266553439463
 20
8785.448120108481
 30
0.0
 11
6986.76655343946
 21
8785.448120108481
 31
0.0
 70
   160
  1
a
 71
     5
 42
45.00000000000364
  3
INABA_S40G
100
AcDbAlignedDimension
 13
6964.266553439458
 23
8572.987424591643
 33
0.0
 14
7009.266553439463
 24
7967.926814201714
 34
0.0
100
AcDbRotatedDimension
1001
ACAD
1000
DSTYLE
1002
{
1070
   174
1070
     0
1070
   272
1070
     1
1070
   279
1070
     1
1070
   288
1070
     0
1070
   341
1005
0
1002
}
  0
DIMENSION
  5
1D927
330
747D
100
AcDbEntity
  8
寸法
 48
50.0
100
AcDbDimension
  2
*D7
 10
6513.324287425641
 20
5722.655613631793
 30
0.0
 11
6513.324287425641
 21
6708.652455172035
 31
0.0
 70
   160
 71
     5
 42
1973.999999999999
  3
INABA_S40G
100
AcDbAlignedDimension
 13
7082.266553439461
 23
7696.655613631792
 33
0.0
 14
7082.26655343947
 24
5722.655613631793
 34
0.0
 50
90.0
100
AcDbRotatedDimension
1001
ACAD
1000
DSTYLE
1002
{
1070
   174
1070
     0
1070
   272
1070
     1
1070
   279
1070
     1
1070
   288
1070
     0
1070
   341
1005
0
1002
}
  0
LINE
  5
1D928
330
747D
100
AcDbEntity
  8
部品1
 48
50.0
100
AcDbLine
 10
7129.266553439463
 20
5829.655613631793
 30
0.0
 11
7129.266553439461
 21
7589.655613631791
 31
0.0
  0
DIMENSION
  5
1D929
330
747D
100
AcDbEntity
  8
寸法
 48
50.0
100
AcDbDimension
  2
*D8
 10
6267.057863179307
 20
5599.655613631791
 30
0.0
 11
6267.057863179305
 21
6709.655613631793
 31
0.0
 70
   160
 71
     5
 42
2220.000000000003
  3
INABA_S40G
100
AcDbAlignedDimension
 13
7009.266553439459
 23
7819.655613631794
 33
0.0
 14
7009.266553439463
 24
5599.655613631791
 34
0.0
 50
90.0
100
AcDbRotatedDimension
1001
ACAD
1000
DSTYLE
1002
{
1070
   174
1070
     0
1070
   272
1070
     1
1070
   279
1070
     1
1070
   288
1070
     0
1070
   341
1005
0
1002
}
  0
LINE
  5
1D92A
330
747D
100
AcDbEntity
  8
部品1
 48
50.0
100
AcDbLine
 10
7009.266553439463
 20
5599.65561363181
 30
0.0
 11
7009.266553439464
 21
7819.655613631792
 31
0.0
  0
LINE
  5
1D92B
330
747D
100
AcDbEntity
  8
想像線
 48
10.0
100
AcDbLine
 10
6964.266553439464
 20
5547.655613631793
 30
0.0
 11
6964.266553439464
 21
7891.65561363179
 31
0.0
  0
DIMENSION
  5
1D92C
330
747D
100
AcDbEntity
  8
寸法
 48
50.0
100
AcDbDimension
  2
*D9
 10
6513.324287425641
 20
5599.655613631791
 30
0.0
 11
6513.324287425641
 21
5361.170332257555
 31
0.0
 70
   160
 71
     5
 42
123.0000000000018
  3
INABA_S40G
100
AcDbAlignedDimension
 13
7082.26655343947
 23
5722.655613631793
 33
0.0
 14
7009.266553439463
 24
5599.655613631791
 34
0.0
 50
90.0
100
AcDbRotatedDimension
1001
ACAD
1000
DSTYLE
1002
{
1070
   174
1070
     0
1070
   272
1070
     1
1070
   288
1070
     0
1070
   341
1005
0
1002
}
  0
DIMENSION
  5
1D92D
330
747D
100
AcDbEntity
  8
寸法
 48
50.0
100
AcDbDimension
  2
*D10
 10
6267.057863179304
 20
5544.655613631792
 30
0.0
 11
6267.057863179303
 21
5572.155613631792
 31
0.0
 70
   160
  1
b
 71
     5
 42
55.0
  3
INABA_S40G
100
AcDbAlignedDimension
 13
7009.266553439463
 23
5599.655613631791
 33
0.0
 14
6513.324287425641
 24
5544.655613631792
 34
0.0
 50
90.0
100
AcDbRotatedDimension
1001
ACAD
1000
DSTYLE
1002
{
1070
   174
1070
     0
1070
   272
1070
     1
1070
   279
1070
     1
1070
   288
1070
     0
1070
   341
1005
0
1002
}
  0
LINE
  5
1D92E
330
747D
100
AcDbEntity
  8
センター
 48
2.0
100
AcDbLine
 10
7132.26655343947
 20
5772.655613631793
 30
0.0
 11
7132.26655343947
 21
5672.655613631793
 31
0.0
  0
LINE
  5
1D92F
330
747D
100
AcDbEntity
  8
センター
 48
2.0
100
AcDbLine
 10
7082.26655343947
 20
5722.655613631793
 30
0.0
 11
7182.26655343947
 21
5722.655613631793
 31
0.0
  0
CIRCLE
  5
1D930
330
747D
100
AcDbEntity
  8
部品1
 48
50.0
100
AcDbCircle
 10
7132.26655343947
 20
5722.655613631793
 30
0.0
 40
35.0
  0
LINE
  5
1D931
330
747D
100
AcDbEntity
  8
部品1
 48
50.0
100
AcDbLine
 10
7239.266553439462
 20
5829.655613631795
 30
0.0
 11
7129.266553439463
 21
5829.655613631793
 31
0.0
  0
LINE
  5
1D932
330
747D
100
AcDbEntity
  8
部品1
 48
50.0
100
AcDbLine
 10
7239.266553439462
 20
5719.655613631791
 30
0.0
 11
7239.266553439462
 21
5829.655613631795
 31
0.0
  0
DIMENSION
  5
1D933
330
747D
100
AcDbEntity
  8
寸法
 48
50.0
100
AcDbDimension
  2
*D11
 10
6513.324287425643
 20
7696.655613631792
 30
0.0
 11
6513.324287425641
 21
8058.140895006031
 31
0.0
 70
   160
 71
     5
 42
123.0
  3
INABA_S40G
100
AcDbAlignedDimension
 13
7009.266553439463
 23
7819.655613631792
 33
0.0
 14
7082.266553439461
 24
7696.655613631792
 34
0.0
 50
90.0
100
AcDbRotatedDimension
1001
ACAD
1000
DSTYLE
1002
{
1070
   174
1070
     0
1070
   272
1070
     1
1070
   288
1070
     0
1070
   341
1005
0
1002
}
  0
DIMENSION
  5
1D934
330
747D
100
AcDbEntity
  8
寸法
 48
50.0
100
AcDbDimension
  2
*D12
 10
6267.831485287673
 20
7819.655613631792
 30
0.0
 11
6267.831485287672
 21
7857.155613631793
 31
0.0
 70
   160
  1
c
 71
     5
 42
75.0
  3
INABA_S40G
100
AcDbAlignedDimension
 13
6513.324287425641
 23
7894.655613631792
 33
0.0
 14
7009.266553439463
 24
7819.655613631792
 34
0.0
 50
90.0
100
AcDbRotatedDimension
1001
ACAD
1000
DSTYLE
1002
{
1070
   174
1070
     0
1070
   272
1070
     1
1070
   279
1070
     1
1070
   288
1070
     0
1070
   341
1005
0
1002
}
  0
LINE
  5
1D935
330
747D
100
AcDbEntity
  8
部品1
 48
50.0
100
AcDbLine
 10
7129.266553439464
 20
6809.655613631793
 30
0.0
 11
7009.266553439464
 21
6809.655613631793
 31
0.0
  0
LINE
  5
1D936
330
747D
100
AcDbEntity
  8
部品1
 48
50.0
100
AcDbLine
 10
7129.266553439464
 20
6609.655613631793
 30
0.0
 11
7009.266553439464
 21
6609.655613631793
 31
0.0
  0
LINE
  5
1D938
330
747D
100
AcDbEntity
  8
センター
 48
2.0
100
AcDbLine
 10
7132.266553439461
 20
7746.655613631792
 30
0.0
 11
7132.266553439461
 21
7646.655613631792
 31
0.0
  0
LINE
  5
1D939
330
747D
100
AcDbEntity
  8
センター
 48
2.0
100
AcDbLine
 10
7082.266553439461
 20
7696.655613631792
 30
0.0
 11
7182.266553439461
 21
7696.655613631792
 31
0.0
  0
CIRCLE
  5
1D93A
330
747D
100
AcDbEntity
  8
部品1
 48
50.0
100
AcDbCircle
 10
7132.266553439461
 20
7696.655613631792
 30
0.0
 40
35.0
  0
LINE
  5
1D93B
330
747D
100
AcDbEntity
  8
部品1
 48
50.0
100
AcDbLine
 10
7239.266553439462
 20
7589.655613631788
 30
0.0
 11
7129.266553439461
 21
7589.655613631791
 31
0.0
  0
LINE
  5
1D93C
330
747D
100
AcDbEntity
  8
部品1
 48
50.0
100
AcDbLine
 10
7239.266553439462
 20
7589.655613631788
 30
0.0
 11
7239.266553439462
 21
7699.655613631795
 31
0.0
  0
DIMENSION
  5
1D93E
330
747D
100
AcDbEntity
  8
寸法
 48
50.0
100
AcDbDimension
  2
*D13
 10
9526.266553439461
 20
8572.987424591643
 30
0.0
 11
9887.7518348137
 21
8572.987424591643
 31
0.0
 70
   160
 71
     5
 42
123.0
  3
INABA_S40G
100
AcDbAlignedDimension
 13
9649.266553439462
 23
7819.655613631794
 33
0.0
 14
9526.266553439461
 24
7746.655613631792
 34
0.0
100
AcDbRotatedDimension
1001
ACAD
1000
DSTYLE
1002
{
1070
   174
1070
     0
1070
   272
1070
     1
1070
   288
1070
     0
1070
   341
1005
0
1002
}
  0
DIMENSION
  5
1D93F
330
747D
100
AcDbEntity
  8
寸法
 48
50.0
100
AcDbDimension
  2
*D14
 10
9694.266553439462
 20
8785.44812010848
 30
0.0
 11
9671.766553439463
 21
8785.44812010848
 31
0.0
 70
   160
  1
a
 71
     5
 42
45.0
  3
INABA_S40G
100
AcDbAlignedDimension
 13
9649.266553439462
 23
7967.926814201714
 33
0.0
 14
9694.266553439462
 24
8572.987424591643
 34
0.0
100
AcDbRotatedDimension
1001
ACAD
1000
DSTYLE
1002
{
1070
   174
1070
     0
1070
   272
1070
     1
1070
   279
1070
     1
1070
   288
1070
     0
1070
   341
1005
0
1002
}
  0
DIMENSION
  5
1D942
330
747D
100
AcDbEntity
  8
寸法
 48
50.0
100
AcDbDimension
  2
*D15
 10
9529.266553439461
 20
7281.158981612385
 30
0.0
 11
9885.313797533951
 21
7281.158981612385
 31
0.0
 70
   160
 71
     5
 42
120.0
  3
INABA_S40G
100
AcDbAlignedDimension
 13
9649.266553439462
 23
7339.655613631801
 33
0.0
 14
9529.266553439461
 24
7339.655613631801
 34
0.0
100
AcDbRotatedDimension
1001
ACAD
1000
DSTYLE
1002
{
1070
   174
1070
     0
1070
   272
1070
     1
1070
   279
1070
     1
1070
   288
1070
     0
1070
   341
1005
0
1002
}
  0
TEXT
  5
1D943
330
747D
100
AcDbEntity
  8
部品1
 48
50.0
100
AcDbText
 10
9736.086620117864
 20
4904.768816852517
 30
0.0
 40
80.0
  1
(a=45,b=55,c=75)
  7
STYLE1
100
AcDbText
  0
TEXT
  5
1D944
330
747D
100
AcDbEntity
  8
部品1
 48
50.0
100
AcDbText
 10
9666.209732512982
 20
5024.499863005657
 30
0.0
 40
80.0
  1
※a,b,cは屋根の出幅です。
  7
STYLE1
100
AcDbText
  0
MTEXT
  5
1D945
102
{ACAD_REACTORS
330
1D946
102
}
330
747D
100
AcDbEntity
  8
部品1
 62
     7
 48
50.0
100
AcDbMText
 10
10531.39232797778
 20
5248.638221672
 30
0.0
 40
120.0
 41
0.0
 71
     6
 72
     1
  1
\A1;屋根の外寸
  7
STYLE1
 73
     1
 44
1.0
1001
ACAD
1000
MTEXTBEGIN
1070
    73
1070
     1
1070
    44
1040
1.0
1070
    74
1070
     0
1000
MTEXTEND
  0
LEADER
  5
1D946
330
747D
100
AcDbEntity
  8
寸法
 48
50.0
100
AcDbLeader
  3
INABA_S40G
 71
     0
 73
     0
 74
     0
 75
     1
 40
120.0
 41
672.0
 76
     3
 10
9461.155141373287
 20
5543.655613631791
 30
0.0
 10
9719.39232797778
 20
5148.638221672
 30
0.0
 10
9819.39232797778
 20
5148.638221672
 30
0.0
340
1D945
1001
ACAD
1000
DSTYLE
1002
{
1070
   174
1070
     0
1070
   272
1070
     1
1070
   279
1070
     1
1070
   288
1070
     0
1070
   341
1005
0
1002
}
  0
DIMENSION
  5
1D947
330
747D
100
AcDbEntity
  8
寸法
 48
50.0
100
AcDbDimension
  2
*D16
 10
7469.776737352486
 20
7589.655613631788
 30
0.0
 11
7469.776737352484
 21
7351.334905053865
 31
0.0
 70
   160
 71
     5
 42
110.0000000000063
  3
INABA_S40G
100
AcDbAlignedDimension
 13
7239.266553439462
 23
7699.655613631795
 33
0.0
 14
7239.266553439462
 24
7589.655613631788
 34
0.0
 50
90.0
100
AcDbRotatedDimension
1001
ACAD
1000
DSTYLE
1002
{
1070
   174
1070
     0
1070
   272
1070
     1
1070
   279
1070
     1
1070
   288
1070
     0
1070
   341
1005
0
1002
}
  0
LINE
  5
1D949
330
747D
100
AcDbEntity
  8
部品1
 48
50.0
100
AcDbLine
 10
9529.266553439461
 20
5829.655613631811
 30
0.0
 11
9529.266553439461
 21
7589.655613631794
 31
0.0
  0
LINE
  5
1D94A
330
747D
100
AcDbEntity
  8
部品1
 48
50.0
100
AcDbLine
 10
9649.266553439462
 20
5599.65561363181
 30
0.0
 11
9649.266553439462
 21
7819.655613631794
 31
0.0
  0
LINE
  5
1D94B
330
747D
100
AcDbEntity
  8
想像線
 48
10.0
100
AcDbLine
 10
9694.266553439458
 20
7894.655613631797
 30
0.0
 11
9694.266553439467
 21
5544.655613631792
 31
0.0
  0
LINE
  5
1D94F
102
{ACAD_REACTORS
330
21D08
102
}
330
747D
100
AcDbEntity
  8
部品1
 48
50.0
100
AcDbLine
 10
8229.266553439485
 20
5599.65561363181
 30
0.0
 11
8229.266553439485
 21
5719.655613631795
 31
0.0
  0
LINE
  5
1D950
102
{ACAD_REACTORS
330
21D08
102
}
330
747D
100
AcDbEntity
  8
部品1
 48
50.0
100
AcDbLine
 10
8429.266553439484
 20
5599.655613631811
 30
0.0
 11
8429.266553439484
 21
5719.655613631799
 31
0.0
  0
LINE
  5
1D951
330
747D
100
AcDbEntity
  8
センター
 48
2.0
100
AcDbLine
 10
9476.26655343947
 20
5722.655613631793
 30
0.0
 11
9576.26655343947
 21
5722.655613631793
 31
0.0
  0
CIRCLE
  5
1D952
330
747D
100
AcDbEntity
  8
部品1
 48
50.0
100
AcDbCircle
 10
9526.266553439469
 20
5722.655613631793
 30
0.0
 40
35.0
  0
LINE
  5
1D953
330
747D
100
AcDbEntity
  8
部品1
 48
50.0
100
AcDbLine
 10
9529.266553439461
 20
5829.65561363181
 30
0.0
 11
9419.266553439461
 21
5829.65561363181
 31
0.0
  0
LINE
  5
1D954
330
747D
100
AcDbEntity
  8
部品1
 48
50.0
100
AcDbLine
 10
9419.266553439461
 20
5719.655613631807
 30
0.0
 11
9419.266553439461
 21
5829.65561363181
 31
0.0
  0
LINE
  5
1D955
330
747D
100
AcDbEntity
  8
センター
 48
2.0
100
AcDbLine
 10
9526.266553439469
 20
5772.655613631793
 30
0.0
 11
9526.266553439469
 21
5672.655613631793
 31
0.0
  0
LINE
  5
1D956
330
747D
100
AcDbEntity
  8
部品1
 48
50.0
100
AcDbLine
 10
8429.266553439468
 20
7699.655613631794
 30
0.0
 11
8429.266553439468
 21
7819.655613631792
 31
0.0
  0
LINE
  5
1D957
330
747D
100
AcDbEntity
  8
部品1
 48
50.0
100
AcDbLine
 10
8229.266553439469
 20
7699.655613631794
 30
0.0
 11
8229.266553439469
 21
7819.655613631792
 31
0.0
  0
DIMENSION
  5
1D959
330
747D
100
AcDbEntity
  8
寸法
 48
50.0
100
AcDbDimension
  2
*D17
 10
7469.776737352486
 20
7699.655613631795
 30
0.0
 11
7469.776737352484
 21
8055.702857726283
 31
0.0
 70
   160
 71
     5
 42
119.9999999999954
  3
INABA_S40G
100
AcDbAlignedDimension
 13
7211.266553439462
 23
7819.655613631791
 33
0.0
 14
7239.266553439462
 24
7699.655613631795
 34
0.0
 50
90.0
100
AcDbRotatedDimension
1001
ACAD
1000
DSTYLE
1002
{
1070
   174
1070
     0
1070
   272
1070
     1
1070
   279
1070
     1
1070
   288
1070
     0
1070
   341
1005
0
1002
}
  0
LINE
  5
1D95A
330
747D
100
AcDbEntity
  8
センター
 48
2.0
100
AcDbLine
 10
9476.266553439462
 20
7696.655613631792
 30
0.0
 11
9576.266553439461
 21
7696.655613631792
 31
0.0
  0
CIRCLE
  5
1D95B
330
747D
100
AcDbEntity
  8
部品1
 48
50.0
100
AcDbCircle
 10
9526.266553439461
 20
7696.655613631792
 30
0.0
 40
35.0
  0
LINE
  5
1D95C
330
747D
100
AcDbEntity
  8
部品1
 48
50.0
100
AcDbLine
 10
9529.266553439461
 20
7589.655613631794
 30
0.0
 11
9419.266553439461
 21
7589.655613631791
 31
0.0
  0
LINE
  5
1D95D
330
747D
100
AcDbEntity
  8
部品1
 48
50.0
100
AcDbLine
 10
9419.266553439461
 20
7589.655613631791
 30
0.0
 11
9419.266553439461
 21
7699.65561363179
 31
0.0
  0
LINE
  5
1D95E
330
747D
100
AcDbEntity
  8
部品1
 48
50.0
100
AcDbLine
 10
9649.266553439463
 20
6809.655613631793
 30
0.0
 11
9529.266553439464
 21
6809.655613631793
 31
0.0
  0
LINE
  5
1D95F
330
747D
100
AcDbEntity
  8
部品1
 48
50.0
100
AcDbLine
 10
9649.266553439463
 20
6609.655613631793
 30
0.0
 11
9529.266553439464
 21
6609.655613631793
 31
0.0
  0
LINE
  5
1D961
330
747D
100
AcDbEntity
  8
センター
 48
2.0
100
AcDbLine
 10
9526.266553439461
 20
7746.655613631792
 30
0.0
 11
9526.266553439461
 21
7646.655613631792
 31
0.0
  0
TEXT
  5
1DEDA
330
747D
100
AcDbEntity
  8
文字
 62
     7
 48
50.0
100
AcDbText
 10
13188.16259899338
 20
79.80631269190325
 30
0.0
 40
80.0
  1
※布基礎には換気口を設けてください。
  7
STYLE2
100
AcDbText
  0
MTEXT
  5
1E700
102
{ACAD_REACTORS
330
1E701
102
}
330
747D
100
AcDbEntity
  8
部品1
 62
     7
 48
50.0
100
AcDbMText
 10
10699.08353287557
 20
8062.681057439744
 30
0.0
 40
120.0
 41
0.0
 71
     6
 72
     1
  1
基礎ボルト芯
  7
STYLE1
 73
     1
 44
1.0
1001
ACAD
1000
MTEXTBEGIN
1070
    73
1070
     1
1070
    44
1040
1.0
1070
    74
1070
     0
1000
MTEXTEND
  0
LEADER
  5
1E701
330
747D
100
AcDbEntity
  8
寸法
 48
50.0
100
AcDbLeader
  3
INABA_S40G
 71
     0
 73
     0
 74
     0
 75
     1
 40
120.0
 41
846.0000000000002
 76
     3
 10
9526.266553439461
 20
7696.655613631792
 30
0.0
 10
9713.083532875568
 20
7962.681057439744
 30
0.0
 10
9813.083532875568
 20
7962.681057439744
 30
0.0
340
1E700
1001
ACAD
1000
DSTYLE
1002
{
1070
   174
1070
     0
1070
   272
1070
     1
1070
   279
1070
     1
1070
   288
1070
     0
1070
   341
1005
0
1002
}
  0
DIMENSION
  5
1E96D
330
747D
100
AcDbEntity
  8
寸法
 48
50.0
100
AcDbDimension
  2
*D18
 10
9009.148947244787
 20
7819.655613631794
 30
0.0
 11
8909.148947244785
 21
7452.155613631795
 31
0.0
 70
    32
 71
     5
 42
735.0
  3
INABA_S40G
100
AcDbAlignedDimension
 13
8794.266553439461
 23
7084.655613631794
 33
0.0
 14
8884.766553439471
 24
7819.655613631794
 34
0.0
 50
90.0
100
AcDbRotatedDimension
1001
ACAD
1000
DSTYLE
1002
{
1070
   174
1070
     0
1070
   272
1070
     1
1070
   279
1070
     1
1070
   288
1070
     0
1070
   341
1005
0
1002
}
  0
DIMENSION
  5
1E98B
330
747D
100
AcDbEntity
  8
寸法
 48
50.0
100
AcDbDimension
  2
*D19
 10
9009.148947244797
 20
6334.655613631798
 30
0.0
 11
8909.148947244796
 21
5967.155613631805
 31
0.0
 70
    32
 71
     5
 42
734.9999999999872
  3
INABA_S40G
100
AcDbAlignedDimension
 13
8858.395561005309
 23
5599.65561363181
 33
0.0
 14
8794.266553439461
 24
6334.655613631798
 34
0.0
 50
90.0
100
AcDbRotatedDimension
1001
ACAD
1000
DSTYLE
1002
{
1070
   174
1070
     0
1070
   272
1070
     1
1070
   279
1070
     2
1070
   288
1070
     0
1070
   341
1005
0
1002
}
  0
MTEXT
  5
1F11B
102
{ACAD_REACTORS
330
1F11C
102
}
330
747D
100
AcDbEntity
  8
部品1
 62
     7
 48
50.0
100
AcDbMText
 10
10719.50374004395
 20
6624.638221672019
 30
0.0
 40
120.0
 41
0.0
 71
     6
 72
     1
  1
床下換気口
  7
STYLE1
 73
     1
 44
1.0
1001
ACAD
1000
MTEXTBEGIN
1070
    73
1070
     1
1070
    44
1040
1.0
1070
    74
1070
     0
1000
MTEXTEND
  0
LEADER
  5
1F11C
330
747D
100
AcDbEntity
  8
寸法
 48
50.0
100
AcDbLeader
  3
INABA_S40G
 71
     0
 73
     0
 74
     0
 75
     1
 40
120.0
 41
720.0000000000001
 76
     3
 10
9649.266553439463
 20
6709.655613631809
 30
0.0
 10
9859.503740043956
 20
6524.638221672019
 30
0.0
 10
9959.503740043956
 20
6524.638221672019
 30
0.0
340
1F11B
1001
ACAD
1000
DSTYLE
1002
{
1070
   174
1070
     0
1070
   272
1070
     1
1070
   279
1070
     1
1070
   288
1070
     0
1070
   341
1005
0
1002
}
  0
DIMENSION
  5
1F248
330
747D
100
AcDbEntity
  8
寸法
 48
50.0
100
AcDbDimension
  2
*D21
 10
8744.266553439462
 20
8346.565379280121
 30
0.0
 11
9226.036688621913
 21
8344.82734458713
 31
0.0
 70
   160
 71
     5
 42
904.9999999999963
  3
INABA_S40G
100
AcDbAlignedDimension
 13
9649.26655343946
 23
7819.655613631794
 33
0.0
 14
8744.266553439462
 24
7284.655613631795
 34
0.0
100
AcDbRotatedDimension
1001
ACAD
1000
DSTYLE
1002
{
1070
   174
1070
     0
1070
   272
1070
     1
1070
   279
1070
     1
1070
   288
1070
     0
1070
   341
1005
0
1002
}
  0
DIMENSION
  5
1F249
330
747D
100
AcDbEntity
  8
寸法
 48
50.0
100
AcDbDimension
  2
*D20
 10
7009.266553439459
 20
8346.565379280121
 30
0.0
 11
7461.766553439462
 21
8446.565379280121
 31
0.0
 70
    32
 71
     5
 42
905.0000000000018
  3
INABA_S40G
100
AcDbAlignedDimension
 13
7914.266553439462
 23
7284.655613631795
 33
0.0
 14
7009.266553439459
 24
7819.655613631794
 34
0.0
100
AcDbRotatedDimension
1001
ACAD
1000
DSTYLE
1002
{
1070
   174
1070
     0
1070
   272
1070
     1
1070
   279
1070
     1
1070
   288
1070
     0
1070
   341
1005
0
1002
}
  0
LINE
  5
1F940
330
747D
100
AcDbEntity
  8
センター
 48
2.0
100
AcDbLine
 10
8744.266553439462
 20
7134.655613631794
 30
0.0
 11
8744.266553439462
 21
7034.655613631795
 31
0.0
  0
LINE
  5
1F943
330
747D
100
AcDbEntity
  8
センター
 48
2.0
100
AcDbLine
 10
8694.266553439462
 20
7084.655613631794
 30
0.0
 11
8794.266553439461
 21
7084.655613631794
 31
0.0
  0
LINE
  5
1FDB5
330
747D
100
AcDbEntity
  8
想像線
 48
10.0
100
AcDbLine
 10
6967.266553439464
 20
7894.65561363179
 30
0.0
 11
6964.266553439464
 21
7891.65561363179
 31
0.0
  0
LINE
  5
1FDB9
330
747D
100
AcDbEntity
  8
想像線
 48
10.0
100
AcDbLine
 10
6964.266553439464
 20
5547.655613631793
 30
0.0
 11
6967.266553439464
 21
5544.655613631793
 31
0.0
  0
LINE
  5
1FE23
330
747D
100
AcDbEntity
  8
センター
 48
2.0
100
AcDbLine
 10
7864.266553439461
 20
7084.655613631794
 30
0.0
 11
7964.266553439461
 21
7084.655613631794
 31
0.0
  0
LINE
  5
1FE26
330
747D
100
AcDbEntity
  8
センター
 48
2.0
100
AcDbLine
 10
7914.26655343946
 20
7134.655613631794
 30
0.0
 11
7914.26655343946
 21
7034.655613631795
 31
0.0
  0
DIMENSION
  5
1FE4B
330
747D
100
AcDbEntity
  8
寸法
 48
50.0
100
AcDbDimension
  2
*D22
 10
8744.266553439462
 20
8346.565379280121
 30
0.0
 11
8329.266553439461
 21
8446.565379280121
 31
0.0
 70
    32
 71
     5
 42
830.0
  3
INABA_S40G
100
AcDbAlignedDimension
 13
7914.266553439462
 23
7284.655613631795
 33
0.0
 14
8744.266553439462
 24
7284.655613631795
 34
0.0
100
AcDbRotatedDimension
1001
ACAD
1000
DSTYLE
1002
{
1070
   174
1070
     0
1070
   272
1070
     1
1070
   279
1070
     1
1070
   288
1070
     0
1070
   341
1005
0
1002
}
  0
LINE
  5
1FE61
330
747D
100
AcDbEntity
  8
寸法
 48
50.0
100
AcDbLine
 10
9529.266553439461
 20
7319.655613631801
 30
0.0
 11
9529.266553439461
 21
7221.158981612385
 31
0.0
  0
INSERT
  5
1FE65
330
747D
100
AcDbEntity
  8
寸法
 48
50.0
100
AcDbBlockReference
  2
_DOTSMALL
 10
9529.266553439461
 20
7281.158981612385
 30
0.0
 41
100.0
 42
100.0
 43
100.0
  0
LEADER
  5
1FEC1
330
747D
100
AcDbEntity
  8
寸法
 48
50.0
100
AcDbLeader
  3
INABA_S40G
 71
     0
 73
     0
 75
     1
 40
120.0
 41
185.591883092037
 76
     3
 10
8688.289175163635
 20
6935.110792982053
 30
0.0
 10
8579.774724179344
 20
7039.405150259944
 30
0.0
 10
8479.774724179344
 20
7039.405150259944
 30
0.0
340
1FEC2
210
0.0
220
0.0
230
-1.0
213
-42.79594154601909
223
-51.9482641111881
233
0.0
1001
ACAD
1000
DSTYLE
1002
{
1070
   174
1070
     0
1070
   272
1070
     1
1070
   279
1070
     1
1070
   288
1070
     0
1070
   341
1005
0
1002
}
  0
MTEXT
  5
1FEC2
102
{ACAD_REACTORS
330
1FEC1
102
}
330
747D
100
AcDbEntity
  8
部品1
 62
     7
 48
50.0
100
AcDbMText
 10
8482.570665725363
 20
7111.353414371132
 30
0.0
 40
120.0
 41
0.0
 71
     6
 72
     1
  1
\A1;C.B
  7
STYLE1
 73
     1
 44
1.0
1001
ACAD
1000
MTEXTBEGIN
1070
    73
1070
     1
1070
    44
1040
1.0
1070
    74
1070
     0
1000
MTEXTEND
  0
LINE
  5
20326
330
747D
100
AcDbEntity
  8
センター
 48
2.0
100
AcDbLine
 10
7914.266553439464
 20
6384.655613631798
 30
0.0
 11
7914.266553439464
 21
6284.655613631798
 31
0.0
  0
LINE
  5
20327
330
747D
100
AcDbEntity
  8
部品1
 48
50.0
100
AcDbLine
 10
8014.266553439464
 20
6134.655613631797
 30
0.0
 11
8014.266553439465
 21
6534.655613631797
 31
0.0
  0
LINE
  5
20328
330
747D
100
AcDbEntity
  8
部品1
 48
50.0
100
AcDbLine
 10
7814.266553439463
 20
6134.655613631798
 30
0.0
 11
7814.266553439465
 21
6534.655613631797
 31
0.0
  0
LINE
  5
20329
330
747D
100
AcDbEntity
  8
センター
 48
2.0
100
AcDbLine
 10
7864.266553439463
 20
6334.655613631798
 30
0.0
 11
7964.266553439464
 21
6334.655613631798
 31
0.0
  0
LINE
  5
2032C
330
747D
100
AcDbEntity
  8
センター
 48
2.0
100
AcDbLine
 10
8694.266553439467
 20
6334.655613631798
 30
0.0
 11
8794.266553439467
 21
6334.655613631798
 31
0.0
  0
LINE
  5
2032D
330
747D
100
AcDbEntity
  8
部品1
 48
50.0
100
AcDbLine
 10
8644.266553439466
 20
6134.655613631798
 30
0.0
 11
8644.26655343947
 21
6534.655613631797
 31
0.0
  0
LINE
  5
2032E
330
747D
100
AcDbEntity
  8
部品1
 48
50.0
100
AcDbLine
 10
8844.266553439465
 20
6134.655613631797
 30
0.0
 11
8844.266553439465
 21
6534.655613631797
 31
0.0
  0
LINE
  5
2032F
330
747D
100
AcDbEntity
  8
センター
 48
2.0
100
AcDbLine
 10
8744.266553439466
 20
6384.655613631798
 30
0.0
 11
8744.266553439466
 21
6284.655613631798
 31
0.0
  0
DIMENSION
  5
20342
330
747D
100
AcDbEntity
  8
寸法
 48
50.0
100
AcDbDimension
  2
*D23
 10
9009.148947244787
 20
7084.655613631794
 30
0.0
 11
8909.148947244785
 21
6709.655613631797
 31
0.0
 70
    32
 71
     5
 42
749.9999999999963
  3
INABA_S40G
100
AcDbAlignedDimension
 13
8794.266553439461
 23
6334.655613631798
 33
0.0
 14
8794.266553439461
 24
7084.655613631794
 34
0.0
 50
90.0
100
AcDbRotatedDimension
1001
ACAD
1000
DSTYLE
1002
{
1070
   174
1070
     0
1070
   272
1070
     1
1070
   279
1070
     1
1070
   288
1070
     0
1070
   341
1005
0
1002
}
  0
LINE
  5
209E2
330
747D
100
AcDbEntity
  8
部品1
 48
50.0
100
AcDbLine
 10
8844.266553439465
 20
6534.655613631797
 30
0.0
 11
8644.266553439466
 21
6534.655613631797
 31
0.0
  0
LINE
  5
209E5
330
747D
100
AcDbEntity
  8
部品1
 48
50.0
100
AcDbLine
 10
8844.266553439465
 20
6134.655613631798
 30
0.0
 11
8644.266553439466
 21
6134.655613631798
 31
0.0
  0
LINE
  5
209E6
330
747D
100
AcDbEntity
  8
部品1
 48
50.0
100
AcDbLine
 10
8014.266553439465
 20
6134.655613631798
 30
0.0
 11
7814.266553439465
 21
6134.655613631798
 31
0.0
  0
LINE
  5
209E7
330
747D
100
AcDbEntity
  8
部品1
 48
50.0
100
AcDbLine
 10
8014.266553439465
 20
6534.655613631797
 30
0.0
 11
7814.266553439465
 21
6534.655613631797
 31
0.0
  0
LINE
  5
209EA
330
747D
100
AcDbEntity
  8
部品1
 48
50.0
100
AcDbLine
 10
8844.266553439462
 20
6884.655613631792
 30
0.0
 11
8844.266553439462
 21
7284.655613631793
 31
0.0
  0
LINE
  5
209EB
330
747D
100
AcDbEntity
  8
部品1
 48
50.0
100
AcDbLine
 10
8844.266553439462
 20
7284.655613631795
 30
0.0
 11
8644.266553439463
 21
7284.655613631795
 31
0.0
  0
LINE
  5
209EC
330
747D
100
AcDbEntity
  8
部品1
 48
50.0
100
AcDbLine
 10
8644.266553439463
 20
6884.655613631794
 30
0.0
 11
8644.266553439466
 21
7284.655613631793
 31
0.0
  0
LINE
  5
209ED
330
747D
100
AcDbEntity
  8
部品1
 48
50.0
100
AcDbLine
 10
8014.266553439462
 20
7284.655613631795
 30
0.0
 11
7814.266553439463
 21
7284.655613631795
 31
0.0
  0
LINE
  5
209EE
330
747D
100
AcDbEntity
  8
部品1
 48
50.0
100
AcDbLine
 10
7814.266553439461
 20
6884.655613631794
 30
0.0
 11
7814.266553439463
 21
7284.655613631793
 31
0.0
  0
LINE
  5
209EF
330
747D
100
AcDbEntity
  8
部品1
 48
50.0
100
AcDbLine
 10
8014.26655343946
 20
6884.655613631792
 30
0.0
 11
8014.266553439462
 21
7284.655613631793
 31
0.0
  0
LINE
  5
209F0
330
747D
100
AcDbEntity
  8
部品1
 48
50.0
100
AcDbLine
 10
8014.266553439462
 20
6884.655613631794
 30
0.0
 11
7814.266553439463
 21
6884.655613631794
 31
0.0
  0
LINE
  5
209F1
330
747D
100
AcDbEntity
  8
部品1
 48
50.0
100
AcDbLine
 10
8844.266553439462
 20
6884.655613631794
 30
0.0
 11
8644.266553439463
 21
6884.655613631794
 31
0.0
  0
DIMENSION
  5
215C9
330
747D
100
AcDbEntity
  8
寸法
 48
50.0
100
AcDbDimension
  2
*D24
 10
9529.266553439461
 20
7281.158981612385
 30
0.0
 11
9195.219309344974
 21
7281.158981612385
 31
0.0
 70
   160
 71
     5
 42
109.9999999999982
  3
INABA_S40G
100
AcDbAlignedDimension
 13
9419.266553439461
 23
7589.655613631791
 33
0.0
 14
9529.266553439461
 24
7589.655613631794
 34
0.0
100
AcDbRotatedDimension
1001
ACAD
1000
DSTYLE
1002
{
1070
   174
1070
     0
1070
   272
1070
     1
1070
   279
1070
     1
1070
   288
1070
     0
1070
   341
1005
0
1002
}
  0
HATCH
  5
2160F
330
747D
100
AcDbEntity
  8
細線
 48
50.0
100
AcDbHatch
 10
0.0
 20
0.0
 30
0.0
210
0.0
220
0.0
230
1.0
  2
LINE
 70
     0
 71
     0
 91
        1
 92
        7
 72
     0
 73
     1
 93
        4
 10
9649.266553439462
 20
6809.655613631793
 10
9529.266553439461
 20
6809.655613631793
 10
9529.266553439461
 20
6609.655613631793
 10
9649.266553439462
 20
6609.655613631791
 97
        0
 75
     0
 76
     1
 52
45.0
 41
10.0
 77
     0
 78
     1
 53
45.0
 43
0.0
 44
129.97544889048
 45
-22.45064030267288
 46
22.45064030267288
 79
     0
 47
1.296190927220385
 98
        1
 10
9620.350501190493
 20
6727.561598394284
  0
HATCH
  5
2162C
330
747D
100
AcDbEntity
  8
細線
 48
50.0
100
AcDbHatch
 10
0.0
 20
0.0
 30
0.0
210
0.0
220
0.0
230
1.0
  2
LINE
 70
     0
 71
     0
 91
        1
 92
        7
 72
     0
 73
     1
 93
        4
 10
8429.266553439468
 20
7819.655613631792
 10
8229.266553439469
 20
7819.655613631794
 10
8229.266553439471
 20
7699.655613631795
 10
8429.266553439468
 20
7699.655613631795
 97
        0
 75
     0
 76
     1
 52
45.0
 41
10.0
 77
     0
 78
     1
 53
45.0
 43
0.0
 44
-80.02455110951997
 45
-22.45064030267288
 46
22.45064030267288
 79
     0
 47
0.7930095790754296
 98
        1
 10
8358.170557664744
 20
7732.133991902461
  0
HATCH
  5
21631
330
747D
100
AcDbEntity
  8
細線
 48
50.0
100
AcDbHatch
 10
0.0
 20
0.0
 30
0.0
210
0.0
220
0.0
230
1.0
  2
LINE
 70
     0
 71
     0
 91
        1
 92
        7
 72
     0
 73
     1
 93
        4
 10
7129.266553439461
 20
6809.655613631793
 10
7009.266553439464
 20
6809.655613631793
 10
7009.266553439464
 20
6609.655613631793
 10
7129.266553439461
 20
6609.655613631793
 97
        0
 75
     0
 76
     1
 52
45.0
 41
10.0
 77
     0
 78
     1
 53
45.0
 43
0.0
 44
129.97544889048
 45
-22.45064030267288
 46
22.45064030267288
 79
     0
 47
0.781597156494163
 98
        1
 10
7094.297952148204
 20
6652.202418211039
  0
LINE
  5
21C9D
102
{ACAD_REACTORS
330
21D08
102
}
330
747D
100
AcDbEntity
  8
部品1
 48
50.0
100
AcDbLine
 10
9649.266553439462
 20
5599.65561363181
 30
0.0
 11
7009.266553439463
 21
5599.65561363181
 31
0.0
  0
HATCH
  5
21D08
330
747D
100
AcDbEntity
  8
細線
 48
50.0
100
AcDbHatch
 10
0.0
 20
0.0
 30
0.0
210
0.0
220
0.0
230
1.0
  2
LINE
 70
     0
 71
     1
 91
        1
 92
        7
 72
     0
 73
     1
 93
        4
 10
8429.266553439484
 20
5719.6556136318
 10
8229.266553439481
 20
5719.655613631799
 10
8229.266553439485
 20
5599.65561363181
 10
8429.266553439486
 20
5599.65561363181
 97
        4
330
1D91E
330
1D94F
330
21C9D
330
1D950
 75
     0
 76
     1
 52
45.0
 41
10.0
 77
     0
 78
     1
 53
45.0
 43
0.0
 44
0.0
 45
-22.45064030267288
 46
22.45064030267288
 79
     0
 47
2.649366554027942
 98
        1
 10
8350.20870503196
 20
5640.338827811145
  0
LINE
  5
2203B
330
747D
100
AcDbEntity
  8
細線
 48
50.0
100
AcDbLine
 10
10959.24643178033
 20
1489.141329177078
 30
0.0
 11
10951.20795600739
 21
1519.141329177078
 31
0.0
  0
LINE
  5
2203C
330
747D
100
AcDbEntity
  8
細線
100
AcDbLine
 10
10747.49605028527
 20
1519.141329177082
 30
0.0
 11
10862.11969485195
 21
1633.764973743768
 31
0.0
  0
LINE
  5
2203D
330
747D
100
AcDbEntity
  8
細線
100
AcDbLine
 10
10705.06964341408
 20
1519.141329177082
 30
0.0
 11
10819.69328798076
 21
1633.764973743768
 31
0.0
  0
LINE
  5
2203E
330
747D
100
AcDbEntity
  8
細線
100
AcDbLine
 10
10789.92245715646
 20
1519.141329177082
 30
0.0
 11
10904.54610172314
 21
1633.764973743768
 31
0.0
  0
LINE
  5
2203F
330
747D
100
AcDbEntity
  8
細線
 48
50.0
100
AcDbLine
 10
10762.0263194122
 20
1489.14132917708
 30
0.0
 11
10753.98784363926
 21
1519.14132917708
 31
0.0
  0
LINE
  5
22040
330
747D
100
AcDbEntity
  8
細線
 48
50.0
100
AcDbLine
 10
10860.63637559627
 20
1489.141329177078
 30
0.0
 11
10852.59789982333
 21
1519.141329177078
 31
0.0
  0
LINE
  5
22041
330
747D
100
AcDbEntity
  8
部品1
100
AcDbLine
 10
10863.77415028991
 20
1933.764973743768
 30
0.0
 11
10863.77415028991
 21
1633.764973743768
 31
0.0
  0
LINE
  5
22042
330
747D
100
AcDbEntity
  8
細線
 48
50.0
100
AcDbLine
 10
10564.80620704409
 20
1489.14132917708
 30
0.0
 11
10556.76773127116
 21
1519.14132917708
 31
0.0
  0
LINE
  5
22043
330
747D
100
AcDbEntity
  8
細線
 48
50.0
100
AcDbLine
 10
10663.41626322815
 20
1489.14132917708
 30
0.0
 11
10655.37778745522
 21
1519.14132917708
 31
0.0
  0
LINE
  5
22044
330
747D
100
AcDbEntity
  8
細線
100
AcDbLine
 10
10297.49605028527
 20
1519.141329177081
 30
0.0
 11
10412.11969485195
 21
1633.764973743768
 31
0.0
  0
LINE
  5
22045
330
747D
100
AcDbEntity
  8
細線
100
AcDbLine
 10
10339.92245715646
 20
1519.141329177081
 30
0.0
 11
10454.54610172314
 21
1633.764973743768
 31
0.0
  0
LINE
  5
22046
330
747D
100
AcDbEntity
  8
細線
 48
50.0
100
AcDbLine
 10
10466.19615086003
 20
1489.14132917708
 30
0.0
 11
10458.1576750871
 21
1519.14132917708
 31
0.0
  0
LINE
  5
22047
330
747D
100
AcDbEntity
  8
細線
 48
50.0
100
AcDbLine
 10
10367.58609467598
 20
1489.14132917708
 30
0.0
 11
10359.54761890304
 21
1519.14132917708
 31
0.0
  0
LINE
  5
22048
330
747D
100
AcDbEntity
  8
細線
100
AcDbLine
 10
10782.83746204865
 20
1633.764973743768
 30
0.0
 11
10482.83746204865
 21
1933.764973743768
 31
0.0
  0
LINE
  5
22049
330
747D
100
AcDbEntity
  8
細線
100
AcDbLine
 10
10846.47707235543
 20
1633.76497374377
 30
0.0
 11
10546.47707235544
 21
1933.764973743768
 31
0.0
  0
LEADER
  5
2204A
330
747D
100
AcDbEntity
  8
寸法
 48
50.0
100
AcDbLeader
  3
INABA_S40G
 71
     0
 73
     0
 74
     0
 75
     1
 40
150.0
 41
231.9898538650463
 76
     3
 10
10777.17966480981
 20
1933.764973743768
 30
0.0
 10
10866.10242310187
 20
2140.19787459519
 30
0.0
 10
10966.10242310187
 20
2140.19787459519
 30
0.0
  0
MTEXT
  5
2204B
102
{ACAD_REACTORS
330
2204A
102
}
330
747D
100
AcDbEntity
  8
寸法
 62
     7
 48
50.0
100
AcDbMText
 10
11006.10242310187
 20
2255.19787459519
 30
0.0
 40
150.0
 41
1.0
 71
     4
 72
     1
  1
\A1;C.B
  7
STYLE1
 73
     1
 44
1.0
1001
ACAD
1000
MTEXTBEGIN
1070
    73
1070
     1
1070
    44
1040
1.0
1070
    74
1070
     0
1000
MTEXTEND
  0
LINE
  5
2204C
330
747D
100
AcDbEntity
  8
細線
 48
50.0
100
AcDbLine
 10
10932.45151253722
 20
1389.141329177078
 30
0.0
 11
10940.48998831015
 21
1359.141329177077
 31
0.0
  0
LINE
  5
2204D
330
747D
100
AcDbEntity
  8
細線
 48
50.0
100
AcDbLine
 10
10735.2314001691
 20
1389.14132917708
 30
0.0
 11
10743.26987594204
 21
1359.14132917708
 31
0.0
  0
LINE
  5
2204E
330
747D
100
AcDbEntity
  8
細線
 48
50.0
100
AcDbLine
 10
10833.84145635316
 20
1389.141329177078
 30
0.0
 11
10841.87993212609
 21
1359.141329177077
 31
0.0
  0
LINE
  5
2204F
330
747D
100
AcDbEntity
  8
細線
 48
50.0
100
AcDbLine
 10
10538.01128780098
 20
1389.14132917708
 30
0.0
 11
10546.04976357391
 21
1359.14132917708
 31
0.0
  0
LINE
  5
22050
330
747D
100
AcDbEntity
  8
細線
 48
50.0
100
AcDbLine
 10
10636.62134398504
 20
1389.14132917708
 30
0.0
 11
10644.65981975797
 21
1359.14132917708
 31
0.0
  0
LINE
  5
22051
330
747D
100
AcDbEntity
  8
細線
 48
50.0
100
AcDbLine
 10
10340.79117543287
 20
1389.14132917708
 30
0.0
 11
10348.8296512058
 21
1359.14132917708
 31
0.0
  0
LINE
  5
22052
330
747D
100
AcDbEntity
  8
細線
 48
50.0
100
AcDbLine
 10
10439.40123161692
 20
1389.14132917708
 30
0.0
 11
10447.43970738986
 21
1359.14132917708
 31
0.0
  0
LINE
  5
22053
330
747D
100
AcDbEntity
  8
細線
 48
50.0
100
AcDbLine
 10
10529.97281202804
 20
1359.141329177077
 30
0.0
 11
10572.84468281702
 21
1519.141329177078
 31
0.0
  0
LINE
  5
22054
330
747D
100
AcDbEntity
  8
細線
 48
50.0
100
AcDbLine
 10
10332.75269965993
 20
1359.14132917708
 30
0.0
 11
10375.6245704489
 21
1519.14132917708
 31
0.0
  0
LINE
  5
22055
330
747D
100
AcDbEntity
  8
細線
 48
50.0
100
AcDbLine
 10
10431.36275584398
 20
1359.14132917708
 30
0.0
 11
10474.23462663296
 21
1519.141329177078
 31
0.0
  0
LINE
  5
22056
330
747D
100
AcDbEntity
  8
細線
 48
50.0
100
AcDbLine
 10
10727.19292439616
 20
1359.141329177077
 30
0.0
 11
10770.06479518513
 21
1519.14132917708
 31
0.0
  0
LINE
  5
22057
330
747D
100
AcDbEntity
  8
細線
 48
50.0
100
AcDbLine
 10
10628.5828682121
 20
1359.14132917708
 30
0.0
 11
10671.45473900108
 21
1519.141329177078
 31
0.0
  0
LINE
  5
22058
330
747D
100
AcDbEntity
  8
細線
 48
50.0
100
AcDbLine
 10
10924.41303676427
 20
1359.141329177077
 30
0.0
 11
10967.28490755326
 21
1519.141329177076
 31
0.0
  0
LINE
  5
22059
330
747D
100
AcDbEntity
  8
細線
 48
50.0
100
AcDbLine
 10
10825.80298058022
 20
1359.141329177076
 30
0.0
 11
10868.67485136919
 21
1519.141329177076
 31
0.0
  0
LINE
  5
2205A
330
747D
100
AcDbEntity
  8
部品1
100
AcDbLine
 10
11013.77415028991
 20
1633.764973743768
 30
0.0
 11
11013.77415028991
 21
1359.14132917708
 31
0.0
  0
LINE
  5
2205B
330
747D
100
AcDbEntity
  8
部品1
100
AcDbLine
 10
11604.28507810905
 20
325.9099957167346
 30
0.0
 11
11604.28507810905
 21
3584.979498464825
 31
0.0
  0
TEXT
  5
2205C
330
747D
100
AcDbEntity
  8
部品1
100
AcDbText
 10
7713.739490527665
 20
3360.539583525538
 30
0.0
 40
150.0
  1
基礎詳細
  7
STYLE2
100
AcDbText
  0
LINE
  5
2205D
330
747D
100
AcDbEntity
  8
細線
 48
50.0
100
AcDbLine
 10
10268.97603849191
 20
1489.14132917708
 30
0.0
 11
10260.93756271898
 21
1519.14132917708
 31
0.0
  0
LINE
  5
2205E
330
747D
100
AcDbEntity
  8
細線
 48
50.0
100
AcDbLine
 10
10170.36598230785
 20
1489.14132917708
 30
0.0
 11
10162.32750653491
 21
1519.14132917708
 31
0.0
  0
LINE
  5
2205F
330
747D
100
AcDbEntity
  8
部品1
100
AcDbLine
 10
10263.77415028991
 20
1633.764973743768
 30
0.0
 11
10263.77415028991
 21
1933.764973743768
 31
0.0
  0
LINE
  5
22060
330
747D
100
AcDbEntity
  8
細線
 48
50.0
100
AcDbLine
 10
10143.57106306474
 20
1389.14132917708
 30
0.0
 11
10151.60953883767
 21
1359.14132917708
 31
0.0
  0
LINE
  5
22061
330
747D
100
AcDbEntity
  8
細線
 48
50.0
100
AcDbLine
 10
10242.1811192488
 20
1389.14132917708
 30
0.0
 11
10250.21959502173
 21
1359.14132917708
 31
0.0
  0
LINE
  5
22062
330
747D
100
AcDbEntity
  8
細線
 48
50.0
100
AcDbLine
 10
8674.632496524713
 20
923.764973743766
 30
0.0
 11
8666.594020751782
 21
953.7649737437659
 31
0.0
  0
LINE
  5
22063
330
747D
100
AcDbEntity
  8
部品1
 48
50.0
100
AcDbLine
 10
8729.160215034296
 20
953.7649737437668
 30
0.0
 11
8729.160215034296
 21
793.7649737437668
 31
0.0
  0
LINE
  5
22064
330
747D
100
AcDbEntity
  8
細線
 48
50.0
100
AcDbLine
 10
10135.5325872918
 20
1359.14132917708
 30
0.0
 11
10178.40445808078
 21
1519.14132917708
 31
0.0
  0
LINE
  5
22065
330
747D
100
AcDbEntity
  8
部品1
100
AcDbLine
 10
10113.77415028991
 20
1359.141329177076
 30
0.0
 11
10113.77415028991
 21
1633.764973743768
 31
0.0
  0
TEXT
  5
22066
330
747D
100
AcDbEntity
  8
部品1
 48
50.0
100
AcDbText
 10
9638.432521964611
 20
1300.265297947131
 30
0.0
 40
100.0
  1
ボルトの出
 50
90.0
  7
STYLE2
100
AcDbText
  0
LINE
  5
22067
330
747D
100
AcDbEntity
  8
細線
 48
50.0
100
AcDbLine
 10
10234.14264347586
 20
1359.141329177077
 30
0.0
 11
10277.01451426484
 21
1519.141329177078
 31
0.0
  0
LINE
  5
22068
330
747D
100
AcDbEntity
  8
部品1
 48
50.0
100
AcDbLine
 10
8248.410215034294
 20
2372.359075130196
 30
0.0
 11
8268.410215034293
 21
2382.359075130196
 31
0.0
  0
LINE
  5
22069
330
747D
100
AcDbEntity
  8
部品1
 48
50.0
100
AcDbLine
 10
8248.410215034294
 20
2412.359075130196
 30
0.0
 11
8268.410215034293
 21
2422.359075130198
 31
0.0
  0
LINE
  5
2206A
330
747D
100
AcDbEntity
  8
細線
 48
50.0
100
AcDbLine
 10
8248.410215034294
 20
2372.359075130196
 30
0.0
 11
8248.410215034294
 21
2412.359075130196
 31
0.0
  0
LINE
  5
2206B
330
747D
100
AcDbEntity
  8
部品1
 48
50.0
100
AcDbLine
 10
8268.410215034293
 20
2382.359075130196
 30
0.0
 11
8268.410215034293
 21
2422.359075130198
 31
0.0
  0
LINE
  5
2206C
330
747D
100
AcDbEntity
  8
部品1
 48
50.0
100
AcDbLine
 10
8248.410215034294
 20
2432.359075130196
 30
0.0
 11
8268.410215034293
 21
2422.359075130198
 31
0.0
  0
LINE
  5
2206D
330
747D
100
AcDbEntity
  8
部品1
 48
50.0
100
AcDbLine
 10
8278.410215034293
 20
2258.169084299108
 30
0.0
 11
8278.410215034293
 21
2270.169084299108
 31
0.0
  0
LINE
  5
2206E
330
747D
100
AcDbEntity
  8
細線
 48
50.0
100
AcDbLine
 10
8208.410215034293
 20
2372.359075130196
 30
0.0
 11
8208.410215034293
 21
2412.359075130196
 31
0.0
  0
LINE
  5
2206F
330
747D
100
AcDbEntity
  8
部品1
 48
50.0
100
AcDbLine
 10
8188.410215034293
 20
2382.359075130196
 30
0.0
 11
8188.410215034293
 21
2422.359075130198
 31
0.0
  0
LINE
  5
22070
330
747D
100
AcDbEntity
  8
部品1
 48
50.0
100
AcDbLine
 10
8188.410215034293
 20
2422.359075130198
 30
0.0
 11
8208.410215034293
 21
2412.359075130196
 31
0.0
  0
LINE
  5
22071
330
747D
100
AcDbEntity
  8
部品1
 48
50.0
100
AcDbLine
 10
8188.410215034293
 20
2382.359075130196
 30
0.0
 11
8208.410215034293
 21
2372.359075130196
 31
0.0
  0
LINE
  5
22072
330
747D
100
AcDbEntity
  8
部品1
 48
50.0
100
AcDbLine
 10
8188.410215034293
 20
2422.359075130198
 30
0.0
 11
8208.410215034293
 21
2432.359075130196
 31
0.0
  0
LINE
  5
22073
330
747D
100
AcDbEntity
  8
部品1
100
AcDbLine
 10
8086.660215034292
 20
2005.764973743768
 30
0.0
 11
8136.160215034292
 21
2005.764973743768
 31
0.0
  0
ARC
  5
22074
330
747D
100
AcDbEntity
  8
部品1
100
AcDbCircle
 10
8083.285215034292
 20
2069.889973743764
 30
0.0
 40
3.375
100
AcDbArc
 50
0.0
 51
90.0
  0
LINE
  5
22075
330
747D
100
AcDbEntity
  8
部品1
100
AcDbLine
 10
8086.660215034292
 20
2069.889973743764
 30
0.0
 11
8086.660215034292
 21
2005.764973743768
 31
0.0
  0
LINE
  5
22076
330
747D
100
AcDbEntity
  8
部品1
 48
50.0
100
AcDbLine
 10
8178.410215034293
 20
2270.169084299108
 30
0.0
 11
8178.410215034293
 21
2258.169084299108
 31
0.0
  0
LINE
  5
22077
330
747D
100
AcDbEntity
  8
部品1
100
AcDbLine
 10
8115.910215034293
 20
2020.714973743768
 30
0.0
 11
8151.110215034297
 21
2020.714973743768
 31
0.0
  0
ARC
  5
22078
330
747D
100
AcDbEntity
  8
部品1
100
AcDbCircle
 10
8115.910215034293
 20
2017.339973743769
 30
0.0
 40
3.375
100
AcDbArc
 50
90.0
 51
180.0
  0
ARC
  5
22079
330
747D
100
AcDbEntity
  8
部品1
100
AcDbCircle
 10
8151.110215034297
 20
2017.339973743769
 30
0.0
 40
3.375
100
AcDbArc
 50
0.0
 51
90.0
  0
LINE
  5
2207A
330
747D
100
AcDbEntity
  8
部品1
100
AcDbLine
 10
8217.160215034294
 20
1995.214973743768
 30
0.0
 11
8239.660215034293
 21
1995.214973743768
 31
0.0
  0
LINE
  5
2207B
330
747D
100
AcDbEntity
  8
部品1
100
AcDbLine
 10
8221.660215034294
 20
1999.714973743768
 30
0.0
 11
8235.160215034294
 21
1999.714973743768
 31
0.0
  0
ARC
  5
2207C
330
747D
100
AcDbEntity
  8
部品1
100
AcDbCircle
 10
8136.160215034292
 20
2002.389973743769
 30
0.0
 40
3.375
100
AcDbArc
 50
0.0
 51
90.0
  0
LINE
  5
2207D
330
747D
100
AcDbEntity
  8
部品1
100
AcDbLine
 10
8112.535215034293
 20
2017.339973743769
 30
0.0
 11
8112.535215034293
 21
1995.964973743768
 31
0.0
  0
ARC
  5
2207E
330
747D
100
AcDbEntity
  8
部品1
100
AcDbCircle
 10
8030.410215034292
 20
2069.889973743768
 30
0.0
 40
3.375
100
AcDbArc
 50
90.0
 51
180.0
  0
LINE
  5
2207F
330
747D
100
AcDbEntity
  8
部品1
100
AcDbLine
 10
8027.035215034294
 20
2059.764973743768
 30
0.0
 11
8027.035215034294
 21
2059.764973743768
 31
0.0
  0
LINE
  5
22080
330
747D
100
AcDbEntity
  8
部品1
100
AcDbLine
 10
8027.035215034294
 20
2059.764973743768
 30
0.0
 11
8027.035215034294
 21
2069.889973743768
 31
0.0
  0
LINE
  5
22081
330
747D
100
AcDbEntity
  8
部品1
100
AcDbLine
 10
8023.660215034293
 20
2046.264973743769
 30
0.0
 11
8023.660215034293
 21
2056.389973743768
 31
0.0
  0
ARC
  5
22082
330
747D
100
AcDbEntity
  8
部品1
100
AcDbCircle
 10
8027.035215034294
 20
2056.389973743768
 30
0.0
 40
3.375
100
AcDbArc
 50
90.0
 51
180.0
  0
LINE
  5
22083
330
747D
100
AcDbEntity
  8
部品1
100
AcDbLine
 10
7973.035215034293
 20
2032.764973743768
 30
0.0
 11
7973.035215034293
 21
2042.889973743768
 31
0.0
  0
ARC
  5
22084
330
747D
100
AcDbEntity
  8
部品1
100
AcDbCircle
 10
7976.410215034293
 20
2042.889973743768
 30
0.0
 40
3.375
100
AcDbArc
 50
90.0
 51
180.0
  0
ARC
  5
22085
330
747D
100
AcDbEntity
  8
部品1
100
AcDbCircle
 10
7962.910215034293
 20
2026.754853372153
 30
0.0
 40
3.375
100
AcDbArc
 50
104.0362434679612
 51
180.0
  0
LINE
  5
22086
330
747D
100
AcDbEntity
  8
部品1
100
AcDbLine
 10
7962.091657299794
 20
2030.029084310143
 30
0.0
 11
7973.035215034293
 21
2032.764973743768
 31
0.0
  0
LINE
  5
22087
330
747D
100
AcDbEntity
  8
部品1
100
AcDbLine
 10
7976.410215034293
 20
2046.264973743769
 30
0.0
 11
8023.660215034293
 21
2046.264973743769
 31
0.0
  0
LINE
  5
22088
330
747D
100
AcDbEntity
  8
部品1
100
AcDbLine
 10
8030.410215034292
 20
2073.264973743767
 30
0.0
 11
8083.285215034292
 21
2073.264973743764
 31
0.0
  0
ELLIPSE
  5
22089
330
747D
100
AcDbEntity
  8
部品1
 48
50.0
100
AcDbEllipse
 10
8228.410215034292
 20
2270.169084299108
 30
0.0
 11
23.0
 21
0.0
 31
0.0
210
0.0
220
0.0
230
1.0
 40
0.3478260869565217
 41
0.0
 42
6.283185307179585
  0
ELLIPSE
  5
2208A
330
747D
100
AcDbEntity
  8
部品1
 48
50.0
100
AcDbEllipse
 10
8228.410215034292
 20
2270.169084299108
 30
0.0
 11
50.0
 21
0.0
 31
0.0
210
0.0
220
0.0
230
1.0
 40
0.4
 41
0.0
 42
6.283185307179585
  0
ELLIPSE
  5
2208B
330
747D
100
AcDbEntity
  8
部品1
 48
50.0
100
AcDbEllipse
 10
8228.410215034292
 20
2258.169084299108
 30
0.0
 11
50.0
 21
0.0
 31
0.0
210
0.0
220
0.0
230
1.0
 40
0.4
 41
3.141592653589792
 42
6.283185307179585
  0
LINE
  5
2208C
330
747D
100
AcDbEntity
  8
部品1
 48
50.0
100
AcDbLine
 10
8208.410215034293
 20
2432.359075130196
 30
0.0
 11
8248.410215034294
 21
2432.359075130196
 31
0.0
  0
ELLIPSE
  5
2208D
330
747D
100
AcDbEntity
  8
細線
 48
50.0
100
AcDbEllipse
 10
8228.410215034292
 20
2422.359075130197
 30
0.0
 11
18.45838483258558
 21
0.0
 31
0.0
210
0.0
220
0.0
230
1.0
 40
0.2071254069489396
 41
0.0
 42
6.283185307179585
  0
LINE
  5
2208E
330
747D
100
AcDbEntity
  8
部品1
 48
50.0
100
AcDbLine
 10
8208.410215034293
 20
2372.359075130196
 30
0.0
 11
8248.410215034294
 21
2372.359075130196
 31
0.0
  0
LINE
  5
2208F
330
747D
100
AcDbEntity
  8
部品1
 48
50.0
100
AcDbLine
 10
8208.410215034293
 20
2412.359075130196
 30
0.0
 11
8248.410215034294
 21
2412.359075130196
 31
0.0
  0
LINE
  5
22090
330
747D
100
AcDbEntity
  8
細線
 48
50.0
100
AcDbLine
 10
8307.160215034295
 20
1735.175326854503
 30
0.0
 11
8469.160215034293
 21
1897.175326854502
 31
0.0
  0
LINE
  5
22091
330
747D
100
AcDbEntity
  8
細線
 48
50.0
100
AcDbLine
 10
8307.160215034295
 20
1701.499366400482
 30
0.0
 11
8469.160215034293
 21
1863.499366400478
 31
0.0
  0
LINE
  5
22092
330
747D
100
AcDbEntity
  8
部品1
100
AcDbLine
 10
8284.660215034293
 20
1630.014973743767
 30
0.0
 11
8284.660215034293
 21
1652.514973743768
 31
0.0
  0
LINE
  5
22093
330
747D
100
AcDbEntity
  8
部品1
100
AcDbLine
 10
8307.160215034294
 20
1528.764973743767
 30
0.0
 11
8307.160215034294
 21
1933.764973743768
 31
0.0
  0
LINE
  5
22094
330
747D
100
AcDbEntity
  8
細線
 48
50.0
100
AcDbLine
 10
8307.160215034295
 20
1667.823405946465
 30
0.0
 11
8469.160215034293
 21
1829.823405946455
 31
0.0
  0
LINE
  5
22095
330
747D
100
AcDbEntity
  8
部品1
100
AcDbLine
 10
8121.535215034294
 20
1945.714973743768
 30
0.0
 11
8136.160215034292
 21
1945.714973743768
 31
0.0
  0
ARC
  5
22096
330
747D
100
AcDbEntity
  8
部品1
100
AcDbCircle
 10
8157.860215034288
 20
1949.089973743768
 30
0.0
 40
3.375
100
AcDbArc
 50
180.0
 51
270.0
  0
ARC
  5
22097
330
747D
100
AcDbEntity
  8
部品1
100
AcDbCircle
 10
8136.160215034292
 20
1949.089973743768
 30
0.0
 40
3.375
100
AcDbArc
 50
270.0
 51
0.0
  0
ARC
  5
22098
330
747D
100
AcDbEntity
  8
部品1
100
AcDbCircle
 10
7962.910215034293
 20
1949.089973743768
 30
0.0
 40
3.375
100
AcDbArc
 50
180.0
 51
270.0
  0
LINE
  5
22099
330
747D
100
AcDbEntity
  8
細線
 48
50.0
100
AcDbLine
 10
7951.660215034293
 20
1918.490694118649
 30
0.0
 11
7966.934494659412
 21
1933.764973743768
 31
0.0
  0
LINE
  5
2209A
330
747D
100
AcDbEntity
  8
部品1
100
AcDbLine
 10
7962.910215034293
 20
1945.714973743768
 30
0.0
 11
7977.535215034286
 21
1945.714973743768
 31
0.0
  0
LINE
  5
2209B
330
747D
100
AcDbEntity
  8
細線
 48
50.0
100
AcDbLine
 10
7951.660215034293
 20
1884.81473366464
 30
0.0
 11
8000.610455113426
 21
1933.764973743768
 31
0.0
  0
LINE
  5
2209C
330
747D
100
AcDbEntity
  8
細線
 48
50.0
100
AcDbLine
 10
7951.660215034293
 20
1851.13877321063
 30
0.0
 11
8034.28641556743
 21
1933.764973743768
 31
0.0
  0
ARC
  5
2209D
330
747D
100
AcDbEntity
  8
部品1
100
AcDbCircle
 10
8239.660215034293
 20
1652.514973743768
 30
0.0
 40
22.5
100
AcDbArc
 50
180.0
 51
270.0
  0
LINE
  5
2209E
330
747D
100
AcDbEntity
  8
細線
 48
50.0
100
AcDbLine
 10
7951.660215034293
 20
1581.731089578556
 30
0.0
 11
8149.660215034289
 21
1779.731089578546
 31
0.0
  0
LINE
  5
2209F
330
747D
100
AcDbEntity
  8
部品1
100
AcDbLine
 10
8149.660215034286
 20
1528.764973743767
 30
0.0
 11
8149.660215034293
 21
1933.764973743768
 31
0.0
  0
LINE
  5
220A0
330
747D
100
AcDbEntity
  8
細線
 48
50.0
100
AcDbLine
 10
7951.660215034293
 20
1649.083010486574
 30
0.0
 11
8149.660215034293
 21
1847.083010486571
 31
0.0
  0
LINE
  5
220A1
330
747D
100
AcDbEntity
  8
細線
 48
50.0
100
AcDbLine
 10
7951.660215034293
 20
1615.407050032565
 30
0.0
 11
8149.660215034293
 21
1813.407050032562
 31
0.0
  0
LINE
  5
220A2
330
747D
100
AcDbEntity
  8
部品1
100
AcDbLine
 10
8307.160215034294
 20
1528.764973743766
 30
0.0
 11
8149.660215034286
 21
1528.764973743766
 31
0.0
  0
LINE
  5
220A3
330
747D
100
AcDbEntity
  8
部品1
 48
50.0
100
AcDbLine
 10
7951.660215034293
 20
1933.764973743768
 30
0.0
 11
8469.160215034298
 21
1933.764973743768
 31
0.0
  0
LINE
  5
220A4
330
747D
100
AcDbEntity
  8
部品1
100
AcDbLine
 10
8157.860215034288
 20
1945.714973743768
 30
0.0
 11
8409.535215034287
 21
1945.714973743768
 31
0.0
  0
LINE
  5
220A5
330
747D
100
AcDbEntity
  8
部品1
100
AcDbLine
 10
8239.660215034293
 20
1630.014973743767
 30
0.0
 11
8284.660215034293
 21
1630.014973743767
 31
0.0
  0
LINE
  5
220A6
330
747D
100
AcDbEntity
  8
部品1
100
AcDbLine
 10
8239.660215034293
 20
1652.514973743768
 30
0.0
 11
8284.660215034293
 21
1652.514973743768
 31
0.0
  0
LINE
  5
220A7
330
747D
100
AcDbEntity
  8
部品1
100
AcDbLine
 10
7959.535215034293
 20
1949.089973743768
 30
0.0
 11
7959.535215034293
 21
2026.754853372153
 31
0.0
  0
LINE
  5
220A8
330
747D
100
AcDbEntity
  8
細線
100
AcDbLine
 10
8235.160215034294
 20
1945.714973743768
 30
0.0
 11
8235.160215034294
 21
1999.714973743768
 31
0.0
  0
LINE
  5
220A9
330
747D
100
AcDbEntity
  8
細線
100
AcDbLine
 10
8221.660215034296
 20
1945.714973743768
 30
0.0
 11
8221.660215034294
 21
1999.714973743768
 31
0.0
  0
LINE
  5
220AA
330
747D
100
AcDbEntity
  8
部品1
100
AcDbLine
 10
8139.535215034293
 20
2002.389973743769
 30
0.0
 11
8139.535215034293
 21
1949.089973743768
 31
0.0
  0
LINE
  5
220AB
330
747D
100
AcDbEntity
  8
部品1
100
AcDbLine
 10
8154.485215034297
 20
2017.339973743769
 30
0.0
 11
8154.48521503429
 21
1949.089973743768
 31
0.0
  0
LINE
  5
220AC
330
747D
100
AcDbEntity
  8
部品1
100
AcDbLine
 10
8239.660215034293
 20
1652.514973743768
 30
0.0
 11
8239.660215034289
 21
1995.214973743768
 31
0.0
  0
LINE
  5
220AD
330
747D
100
AcDbEntity
  8
部品1
100
AcDbLine
 10
8217.160215034294
 20
1652.514973743768
 30
0.0
 11
8217.160215034288
 21
1995.214973743768
 31
0.0
  0
TEXT
  5
220AE
330
747D
100
AcDbEntity
  8
部品1
 48
50.0
100
AcDbText
 10
7433.985337743097
 20
1647.813714097837
 30
0.0
 40
100.0
  1
▽G.L
  7
STYLE2
100
AcDbText
  0
LWPOLYLINE
  5
220AF
330
747D
100
AcDbEntity
  8
部品1
 48
50.0
100
AcDbPolyline
 90
        2
 70
     0
 43
10.0
 10
7433.985337743099
 20
1633.76497374377
 10
7951.660215034293
 20
1633.76497374377
  0
LINE
  5
220B0
330
747D
100
AcDbEntity
  8
部品1
 48
50.0
100
AcDbLine
 10
8469.160215034293
 20
1253.764973743767
 30
0.0
 11
8629.160215034294
 21
1253.764973743767
 31
0.0
  0
LINE
  5
220B1
330
747D
100
AcDbEntity
  8
細線
 48
50.0
100
AcDbLine
 10
8477.412384156581
 20
923.7649737437678
 30
0.0
 11
8469.37390838365
 21
953.7649737437668
 31
0.0
  0
LINE
  5
220B2
330
747D
100
AcDbEntity
  8
細線
 48
50.0
100
AcDbLine
 10
8576.022440340654
 20
923.764973743766
 30
0.0
 11
8567.983964567721
 21
953.7649737437659
 31
0.0
  0
LINE
  5
220B3
330
747D
100
AcDbEntity
  8
細線
 48
50.0
100
AcDbLine
 10
8280.192271788479
 20
923.7649737437678
 30
0.0
 11
8272.153796015548
 21
953.7649737437668
 31
0.0
  0
LINE
  5
220B4
330
747D
100
AcDbEntity
  8
細線
 48
50.0
100
AcDbLine
 10
8378.802327972536
 20
923.7649737437678
 30
0.0
 11
8370.763852199603
 21
953.7649737437668
 31
0.0
  0
LINE
  5
220B5
330
747D
100
AcDbEntity
  8
細線
 48
50.0
100
AcDbLine
 10
8333.972912819785
 20
953.7649737437668
 30
0.0
 11
8629.160215034294
 21
1248.952275958277
 31
0.0
  0
LINE
  5
220B6
330
747D
100
AcDbEntity
  8
細線
 48
50.0
100
AcDbLine
 10
8367.648873273799
 20
953.7649737437668
 30
0.0
 11
8629.160215034294
 21
1215.27631550426
 31
0.0
  0
LINE
  5
220B7
330
747D
100
AcDbEntity
  8
細線
 48
50.0
100
AcDbLine
 10
8401.324833727803
 20
953.7649737437668
 30
0.0
 11
8629.160215034294
 21
1181.600355050263
 31
0.0
  0
LINE
  5
220B8
330
747D
100
AcDbEntity
  8
部品1
 48
50.0
100
AcDbLine
 10
8629.160215034294
 20
1253.764973743767
 30
0.0
 11
8629.160215034294
 21
953.7649737437668
 31
0.0
  0
LINE
  5
220B9
330
747D
100
AcDbEntity
  8
細線
 48
50.0
100
AcDbLine
 10
8082.972159420362
 20
923.7649737437678
 30
0.0
 11
8074.933683647433
 21
953.7649737437668
 31
0.0
  0
LINE
  5
220BA
330
747D
100
AcDbEntity
  8
細線
 48
50.0
100
AcDbLine
 10
8181.582215604422
 20
923.7649737437678
 30
0.0
 11
8173.543739831488
 21
953.7649737437668
 31
0.0
  0
LINE
  5
220BB
330
747D
100
AcDbEntity
  8
細線
 48
50.0
100
AcDbLine
 10
7885.752047052235
 20
923.7649737437678
 30
0.0
 11
7877.713571279301
 21
953.7649737437668
 31
0.0
  0
LINE
  5
220BC
330
747D
100
AcDbEntity
  8
細線
 48
50.0
100
AcDbLine
 10
7984.362103236299
 20
923.7649737437678
 30
0.0
 11
7976.323627463365
 21
953.7649737437668
 31
0.0
  0
LINE
  5
220BD
330
747D
100
AcDbEntity
  8
細線
 48
50.0
100
AcDbLine
 10
8064.565229187712
 20
953.7649737437668
 30
0.0
 11
8469.160215034291
 21
1358.35995959035
 31
0.0
  0
LINE
  5
220BE
330
747D
100
AcDbEntity
  8
細線
 48
50.0
100
AcDbLine
 10
8098.241189641722
 20
953.7649737437668
 30
0.0
 11
8469.160215034293
 21
1324.683999136333
 31
0.0
  0
LINE
  5
220BF
330
747D
100
AcDbEntity
  8
細線
 48
50.0
100
AcDbLine
 10
8131.917150095729
 20
953.7649737437668
 30
0.0
 11
8469.160215034293
 21
1291.008038682339
 31
0.0
  0
LINE
  5
220C0
330
747D
100
AcDbEntity
  8
細線
 48
50.0
100
AcDbLine
 10
8450.617464913483
 20
823.7649737437669
 30
0.0
 11
8458.655940686432
 21
793.7649737437668
 31
0.0
  0
LINE
  5
220C1
330
747D
100
AcDbEntity
  8
細線
 48
50.0
100
AcDbLine
 10
8549.227521097543
 20
823.764973743766
 30
0.0
 11
8557.265996870476
 21
793.7649737437659
 31
0.0
  0
LINE
  5
220C2
330
747D
100
AcDbEntity
  8
細線
 48
50.0
100
AcDbLine
 10
8253.397352545366
 20
823.7649737437669
 30
0.0
 11
8261.435828318301
 21
793.7649737437668
 31
0.0
  0
LINE
  5
220C3
330
747D
100
AcDbEntity
  8
細線
 48
50.0
100
AcDbLine
 10
8352.007408729425
 20
823.7649737437669
 30
0.0
 11
8360.045884502358
 21
793.7649737437668
 31
0.0
  0
LINE
  5
220C4
330
747D
100
AcDbEntity
  8
細線
 48
50.0
100
AcDbLine
 10
8056.177240177254
 20
823.7649737437669
 30
0.0
 11
8064.215715950187
 21
793.7649737437668
 31
0.0
  0
LINE
  5
220C5
330
747D
100
AcDbEntity
  8
細線
 48
50.0
100
AcDbLine
 10
8154.787296361311
 20
823.7649737437669
 30
0.0
 11
8162.825772134244
 21
793.7649737437668
 31
0.0
  0
LINE
  5
220C6
330
747D
100
AcDbEntity
  8
細線
 48
50.0
100
AcDbLine
 10
7858.957127809123
 20
823.7649737437669
 30
0.0
 11
7866.995603582056
 21
793.7649737437668
 31
0.0
  0
LINE
  5
220C7
330
747D
100
AcDbEntity
  8
細線
 48
50.0
100
AcDbLine
 10
7957.567183993187
 20
823.7649737437669
 30
0.0
 11
7965.605659766123
 21
793.7649737437668
 31
0.0
  0
LINE
  5
220C8
330
747D
100
AcDbEntity
  8
細線
 48
50.0
100
AcDbLine
 10
8442.578989140546
 20
793.7649737437659
 30
0.0
 11
8485.450859929512
 21
953.7649737437668
 31
0.0
  0
LINE
  5
220C9
330
747D
100
AcDbEntity
  8
細線
 48
50.0
100
AcDbLine
 10
8541.189045324607
 20
793.7649737437641
 30
0.0
 11
8584.060916113585
 21
953.7649737437641
 31
0.0
  0
LINE
  5
220CA
330
747D
100
AcDbEntity
  8
細線
 48
50.0
100
AcDbLine
 10
8245.358876772431
 20
793.7649737437659
 30
0.0
 11
8288.230747561412
 21
953.7649737437659
 31
0.0
  0
LINE
  5
220CB
330
747D
100
AcDbEntity
  8
細線
 48
50.0
100
AcDbLine
 10
8048.138764404312
 20
793.7649737437668
 30
0.0
 11
8091.01063519329
 21
953.7649737437668
 31
0.0
  0
LINE
  5
220CC
330
747D
100
AcDbEntity
  8
細線
 48
50.0
100
AcDbLine
 10
8146.748820588369
 20
793.7649737437668
 30
0.0
 11
8189.620691377351
 21
953.7649737437659
 31
0.0
  0
LINE
  5
220CD
330
747D
100
AcDbEntity
  8
細線
 48
50.0
100
AcDbLine
 10
8343.968932956483
 20
793.7649737437668
 30
0.0
 11
8386.840803745467
 21
953.7649737437659
 31
0.0
  0
LINE
  5
220CE
330
747D
100
AcDbEntity
  8
細線
 48
50.0
100
AcDbLine
 10
7850.918652036189
 20
793.7649737437668
 30
0.0
 11
7893.790522825168
 21
953.7649737437668
 31
0.0
  0
LINE
  5
220CF
330
747D
100
AcDbEntity
  8
細線
 48
50.0
100
AcDbLine
 10
7949.528708220245
 20
793.7649737437659
 30
0.0
 11
7992.400579009225
 21
953.7649737437659
 31
0.0
  0
LINE
  5
220D0
330
747D
100
AcDbEntity
  8
細線
 48
50.0
100
AcDbLine
 10
7791.660215034287
 20
1219.6753268545
 30
0.0
 11
7825.749861923561
 21
1253.764973743767
 31
0.0
  0
LINE
  5
220D1
330
747D
100
AcDbEntity
  8
細線
 48
50.0
100
AcDbLine
 10
7691.660215034294
 20
935.4398749509918
 30
0.0
 11
7696.570410457038
 21
953.7649737437668
 31
0.0
  0
LINE
  5
220D2
330
747D
100
AcDbEntity
  8
細線
 48
50.0
100
AcDbLine
 10
7787.141990868168
 20
923.7649737437678
 30
0.0
 11
7779.103515095235
 21
953.7649737437668
 31
0.0
  0
LINE
  5
220D3
330
747D
100
AcDbEntity
  8
部品1
 48
50.0
100
AcDbLine
 10
7791.660215034294
 20
953.7649737437668
 30
0.0
 11
7791.660215034294
 21
1253.764973743767
 31
0.0
  0
LINE
  5
220D4
330
747D
100
AcDbEntity
  8
細線
 48
50.0
100
AcDbLine
 10
7760.347071625059
 20
823.7649737437669
 30
0.0
 11
7768.385547397992
 21
793.7649737437668
 31
0.0
  0
LINE
  5
220D5
330
747D
100
AcDbEntity
  8
部品1
 48
50.0
100
AcDbLine
 10
7691.660215034296
 20
793.7649737437668
 30
0.0
 11
7691.660215034296
 21
953.7649737437668
 31
0.0
  0
LINE
  5
220D6
330
747D
100
AcDbEntity
  8
細線
 48
50.0
100
AcDbLine
 10
7752.308595852117
 20
793.7649737437659
 30
0.0
 11
7795.180466641095
 21
953.7649737437659
 31
0.0
  0
LINE
  5
220D7
330
747D
100
AcDbEntity
  8
細線
 48
50.0
100
AcDbLine
 10
7791.660215034287
 20
1185.999366400487
 30
0.0
 11
7859.425822377573
 21
1253.764973743767
 31
0.0
  0
LINE
  5
220D8
330
747D
100
AcDbEntity
  8
細線
 48
50.0
100
AcDbLine
 10
7791.660215034287
 20
1152.323405946481
 30
0.0
 11
7893.10178283158
 21
1253.764973743767
 31
0.0
  0
LINE
  5
220D9
330
747D
100
AcDbEntity
  8
部品1
 48
50.0
100
AcDbLine
 10
7791.660215034294
 20
1253.764973743767
 30
0.0
 11
7951.660215034293
 21
1253.764973743767
 31
0.0
  0
LINE
  5
220DA
330
747D
100
AcDbEntity
  8
細線
 48
50.0
100
AcDbLine
 10
7795.157545555636
 20
953.7649737437668
 30
0.0
 11
8469.160215034291
 21
1627.767643222424
 31
0.0
  0
LINE
  5
220DB
330
747D
100
AcDbEntity
  8
部品1
100
AcDbLine
 10
8469.160215034291
 20
1253.764973743767
 30
0.0
 11
8469.160215034293
 21
1933.764973743768
 31
0.0
  0
LINE
  5
220DC
330
747D
100
AcDbEntity
  8
部品1
 48
50.0
100
AcDbLine
 10
7951.660215034293
 20
1253.764973743767
 30
0.0
 11
7951.660215034293
 21
1933.764973743768
 31
0.0
  0
LINE
  5
220DD
330
747D
100
AcDbEntity
  8
細線
 48
50.0
100
AcDbLine
 10
7951.660215034293
 20
1345.99936640049
 30
0.0
 11
8149.660215034284
 21
1543.999366400476
 31
0.0
  0
LINE
  5
220DE
330
747D
100
AcDbEntity
  8
細線
 48
50.0
100
AcDbLine
 10
7951.660215034293
 20
1312.323405946481
 30
0.0
 11
8168.101782831588
 21
1528.764973743766
 31
0.0
  0
LINE
  5
220DF
330
747D
100
AcDbEntity
  8
細線
 48
50.0
100
AcDbLine
 10
7951.660215034293
 20
1379.6753268545
 30
0.0
 11
8149.660215034284
 21
1577.675326854493
 31
0.0
  0
LINE
  5
220E0
330
747D
100
AcDbEntity
  8
細線
 48
50.0
100
AcDbLine
 10
7862.509466463655
 20
953.7649737437668
 30
0.0
 11
8469.160215034293
 21
1560.415722314403
 31
0.0
  0
LINE
  5
220E1
330
747D
100
AcDbEntity
  8
細線
 48
50.0
100
AcDbLine
 10
7828.833506009647
 20
953.7649737437668
 30
0.0
 11
8469.160215034298
 21
1594.091682768411
 31
0.0
  0
TEXT
  5
220E2
330
747D
100
AcDbEntity
  8
部品1
 48
50.0
100
AcDbText
 10
8474.602195389829
 20
2378.613324696518
 30
0.0
 40
100.0
  1
基礎ボルト(市販品)
  7
STYLE2
100
AcDbText
  0
DIMENSION
  5
220E3
330
747D
100
AcDbEntity
  8
寸法
 48
50.0
100
AcDbDimension
  2
*D37
 10
9441.564297394132
 20
1933.764973743768
 30
0.0
 11
9441.564297394132
 21
1467.756070322284
 31
0.0
 70
   160
  1
20～25
 71
     5
 42
65.94999999999981
  3
INABA_S40G
100
AcDbAlignedDimension
 13
8235.160215034294
 23
1999.714973743768
 33
0.0
 14
8469.160215034293
 24
1933.764973743768
 34
0.0
 50
90.0
100
AcDbRotatedDimension
  0
LINE
  5
220E4
330
747D
100
AcDbEntity
  8
細線
 48
50.0
100
AcDbLine
 10
8639.799101508662
 20
793.7649737437659
 30
0.0
 11
8682.670972297643
 21
953.7649737437641
 31
0.0
  0
LINE
  5
220E5
330
747D
100
AcDbEntity
  8
部品1
 48
50.0
100
AcDbLine
 10
8729.160215034296
 20
793.7649737437668
 30
0.0
 11
7691.660215034296
 21
793.7649737437668
 31
0.0
  0
LINE
  5
220E6
330
747D
100
AcDbEntity
  8
細線
 48
50.0
100
AcDbLine
 10
8647.837577281602
 20
823.764973743766
 30
0.0
 11
8655.876053054536
 21
793.7649737437659
 31
0.0
  0
LINE
  5
220E7
330
747D
100
AcDbEntity
  8
部品1
 48
50.0
100
AcDbLine
 10
8729.160215034296
 20
953.7649737437668
 30
0.0
 11
7691.660215034296
 21
953.7649737437668
 31
0.0
  0
LWPOLYLINE
  5
220E8
330
747D
100
AcDbEntity
  8
部品1
 48
50.0
100
AcDbPolyline
 90
        2
 70
     0
 43
10.0
 10
8469.160215034293
 20
1633.76497374377
 10
8836.288294283525
 20
1633.76497374377
  0
DIMENSION
  5
220E9
330
747D
100
AcDbEntity
  8
寸法
 48
50.0
100
AcDbDimension
  2
*D38
 10
9096.495964745349
 20
1528.764973743766
 30
0.0
 11
8996.495964745347
 21
1731.264973743768
 31
0.0
 70
    32
  1
180
 71
     5
 42
405.0000000000022
  3
INABA_S40G
100
AcDbAlignedDimension
 13
8469.160215034293
 23
1933.764973743768
 33
0.0
 14
8469.160215034293
 24
1528.764973743766
 34
0.0
 50
90.0
100
AcDbRotatedDimension
  0
MTEXT
  5
220EA
102
{ACAD_REACTORS
330
220EB
102
}
330
747D
100
AcDbEntity
  8
部品1
 62
     7
 48
50.0
100
AcDbMText
 10
8480.340793058442
 20
2264.244131435306
 30
0.0
 40
100.0
 41
1.0
 71
     4
 72
     1
  1
M10X160
  7
STYLE2
 73
     1
 44
1.0
1001
ACAD
1000
MTEXTBEGIN
1070
    73
1070
     1
1070
    44
1040
1.0
1070
    74
1070
     0
1000
MTEXTEND
  0
LEADER
  5
220EB
330
747D
100
AcDbEntity
  8
寸法
 48
50.0
100
AcDbLeader
  3
INABA_S40G
 71
     0
 73
     0
 74
     0
 75
     1
 40
100.0
 41
543.75
 76
     3
 10
8239.660215034293
 20
1995.214973743768
 30
0.0
 10
8340.340793058443
 20
2174.244131435306
 30
0.0
 10
8440.340793058442
 20
2174.244131435306
 30
0.0
  0
LINE
  5
220EC
330
747D
100
AcDbEntity
  8
細線
 48
50.0
100
AcDbLine
 10
5826.611073562801
 20
1884.81473366464
 30
0.0
 11
5875.561313641933
 21
1933.764973743768
 31
0.0
  0
LINE
  5
220ED
330
747D
100
AcDbEntity
  8
細線
 48
50.0
100
AcDbLine
 10
5826.611073562801
 20
1851.13877321063
 30
0.0
 11
5909.237274095938
 21
1933.764973743768
 31
0.0
  0
LINE
  5
220EE
330
747D
100
AcDbEntity
  8
細線
 48
50.0
100
AcDbLine
 10
5826.611073562801
 20
1918.490694118649
 30
0.0
 11
5841.885353187919
 21
1933.764973743768
 31
0.0
  0
ARC
  5
220EF
330
747D
100
AcDbEntity
  8
部品1
 48
50.0
100
AcDbCircle
 10
5946.611073562801
 20
1759.083010486574
 30
0.0
 40
30.0
100
AcDbArc
 50
0.0
 51
180.0
  0
CIRCLE
  5
220F0
330
747D
100
AcDbEntity
  8
部品1
 48
50.0
100
AcDbCircle
 10
5946.611073562801
 20
1759.083010486574
 30
0.0
 40
10.0
  0
LINE
  5
220F1
330
747D
100
AcDbEntity
  8
細線
 48
50.0
100
AcDbLine
 10
5936.611073562801
 20
1725.407050032565
 30
0.0
 11
5956.6110735628
 21
1745.407050032565
 31
0.0
  0
LINE
  5
220F2
330
747D
100
AcDbEntity
  8
細線
 48
50.0
100
AcDbLine
 10
5976.611073562801
 20
1731.731089578555
 30
0.0
 11
6066.611073562801
 21
1821.731089578556
 31
0.0
  0
LINE
  5
220F3
330
747D
100
AcDbEntity
  8
細線
 48
50.0
100
AcDbLine
 10
5976.051957645284
 20
1764.847934115045
 30
0.0
 11
6066.611073562801
 21
1855.407050032565
 31
0.0
  0
LINE
  5
220F4
330
747D
100
AcDbEntity
  8
細線
 48
50.0
100
AcDbLine
 10
5962.226601690889
 20
1784.698538614662
 30
0.0
 11
6066.611073562801
 21
1889.083010486574
 31
0.0
  0
LINE
  5
220F5
330
747D
100
AcDbEntity
  8
部品1
 48
50.0
100
AcDbLine
 10
5826.611073562801
 20
1933.764973743768
 30
0.0
 11
6066.611073562801
 21
1933.764973743768
 31
0.0
  0
LINE
  5
220F6
330
747D
100
AcDbEntity
  8
細線
 48
50.0
100
AcDbLine
 10
5826.611073562801
 20
1581.731089578556
 30
0.0
 11
5931.30397609942
 21
1686.423992115171
 31
0.0
  0
LINE
  5
220F7
330
747D
100
AcDbEntity
  8
部品1
 48
50.0
100
AcDbLine
 10
5936.611073562801
 20
1686.423992115171
 30
0.0
 11
5916.611073562801
 21
1686.423992115175
 31
0.0
  0
LINE
  5
220F8
330
747D
100
AcDbEntity
  8
細線
 48
50.0
100
AcDbLine
 10
5976.611073562808
 20
1462.323405946481
 30
0.0
 11
6066.611073562794
 21
1552.323405946481
 31
0.0
  0
LINE
  5
220F9
330
747D
100
AcDbEntity
  8
細線
 48
50.0
100
AcDbLine
 10
5976.611073562801
 20
1529.675326854499
 30
0.0
 11
6066.611073562801
 21
1619.6753268545
 31
0.0
  0
LINE
  5
220FA
330
747D
100
AcDbEntity
  8
細線
 48
50.0
100
AcDbLine
 10
5976.611073562808
 20
1495.999366400494
 30
0.0
 11
6066.611073562794
 21
1585.999366400487
 31
0.0
  0
LINE
  5
220FB
330
747D
100
AcDbEntity
  8
細線
 48
50.0
100
AcDbLine
 10
5826.611073562801
 20
1615.407050032565
 30
0.0
 11
5916.611073562801
 21
1705.407050032565
 31
0.0
  0
LINE
  5
220FC
330
747D
100
AcDbEntity
  8
細線
 48
50.0
100
AcDbLine
 10
5826.611073562801
 20
1649.083010486574
 30
0.0
 11
5916.611073562801
 21
1739.083010486574
 31
0.0
  0
LINE
  5
220FD
330
747D
100
AcDbEntity
  8
細線
 48
50.0
100
AcDbLine
 10
5936.611073562801
 20
1691.731089578556
 30
0.0
 11
5956.6110735628
 21
1711.731089578556
 31
0.0
  0
LINE
  5
220FE
330
747D
100
AcDbEntity
  8
部品1
 48
50.0
100
AcDbLine
 10
5916.611073562801
 20
1686.423992115175
 30
0.0
 11
5916.611073562801
 21
1759.083010486574
 31
0.0
  0
LINE
  5
220FF
330
747D
100
AcDbEntity
  8
部品1
 48
50.0
100
AcDbLine
 10
5936.611073562801
 20
1686.423992115171
 30
0.0
 11
5936.611073562801
 21
1759.083010486574
 31
0.0
  0
LEADER
  5
22100
330
747D
100
AcDbEntity
  8
寸法
 48
50.0
100
AcDbLeader
  3
INABA_S40G
 71
     0
 73
     0
 74
     0
 75
     1
 40
100.0
 41
222.7272727272727
 76
     3
 10
5946.611073562799
 20
1759.083010486574
 30
0.0
 10
6045.218494847044
 20
1685.349425367427
 30
0.0
 10
6145.218494847044
 20
1685.349425367427
 30
0.0
  0
LWPOLYLINE
  5
22101
330
747D
100
AcDbEntity
  8
部品1
 48
50.0
100
AcDbPolyline
 90
        2
 70
     0
 43
10.0
 10
6066.611073562799
 20
1633.76497374377
 10
6584.285950853999
 20
1633.76497374377
  0
MTEXT
  5
22102
102
{ACAD_REACTORS
330
22100
102
}
330
747D
100
AcDbEntity
  8
寸法
 62
     7
 48
50.0
100
AcDbMText
 10
6170.218494847044
 20
1760.349425367427
 30
0.0
 40
100.0
 41
1.0
 71
     4
 72
     1
  1
D13
  7
STYLE2
 73
     1
 44
1.0
1001
ACAD
1000
MTEXTBEGIN
1070
    73
1070
     1
1070
    44
1040
1.0
1070
    74
1070
     0
1000
MTEXTEND
  0
LINE
  5
22103
330
747D
100
AcDbEntity
  8
細線
 48
50.0
100
AcDbLine
 10
6253.753186501047
 20
923.7649737437678
 30
0.0
 11
6245.714710728111
 21
953.7649737437668
 31
0.0
  0
LINE
  5
22104
330
747D
100
AcDbEntity
  8
細線
 48
50.0
100
AcDbLine
 10
6208.923771348293
 20
953.7649737437668
 30
0.0
 11
6226.611073562801
 21
971.4522759582759
 31
0.0
  0
MTEXT
  5
22105
102
{ACAD_REACTORS
330
22144
102
}
330
747D
100
AcDbEntity
  8
寸法
 62
     7
 48
50.0
100
AcDbMText
 10
6355.770648321157
 20
1059.518637565051
 30
0.0
 40
100.0
 41
1.0
 71
     4
 72
     1
  1
D10
  7
STYLE2
 73
     1
 44
1.0
1001
ACAD
1000
MTEXTBEGIN
1070
    73
1070
     1
1070
    44
1040
1.0
1070
    74
1070
     0
1000
MTEXTEND
  0
LINE
  5
22106
330
747D
100
AcDbEntity
  8
部品1
 48
50.0
100
AcDbLine
 10
6226.611073562801
 20
1253.764973743767
 30
0.0
 11
6226.611073562801
 21
953.7649737437668
 31
0.0
  0
LINE
  5
22107
330
747D
100
AcDbEntity
  8
細線
 48
50.0
100
AcDbLine
 10
6226.958267257932
 20
823.7649737437669
 30
0.0
 11
6234.996743030865
 21
793.7649737437668
 31
0.0
  0
LINE
  5
22108
330
747D
100
AcDbEntity
  8
細線
 48
50.0
100
AcDbLine
 10
6325.568323441991
 20
823.7649737437669
 30
0.0
 11
6326.611073562801
 21
819.8733773133117
 31
0.0
  0
LINE
  5
22109
330
747D
100
AcDbEntity
  8
細線
 48
50.0
100
AcDbLine
 10
6317.529847669055
 20
793.7649737437659
 30
0.0
 11
6326.611073562801
 21
827.6565701742528
 31
0.0
  0
MTEXT
  5
2210A
102
{ACAD_REACTORS
330
22142
102
}
330
747D
100
AcDbEntity
  8
寸法
 62
     7
 48
50.0
100
AcDbMText
 10
6368.784143389365
 20
732.0786165785757
 30
0.0
 40
100.0
 41
1.0
 71
     4
 72
     1
  1
\A1;D10@300
  7
STYLE2
 73
     1
 44
1.0
1001
ACAD
1000
MTEXTBEGIN
1070
    73
1070
     1
1070
    44
1040
1.0
1070
    74
1070
     0
1000
MTEXTEND
  0
LINE
  5
2210B
330
747D
100
AcDbEntity
  8
部品1
 48
50.0
100
AcDbLine
 10
6326.611073562805
 20
953.7649737437668
 30
0.0
 11
6326.611073562805
 21
793.7649737437668
 31
0.0
  0
LINE
  5
2210C
330
747D
100
AcDbEntity
  8
細線
 48
50.0
100
AcDbLine
 10
6218.919791484992
 20
793.7649737437668
 30
0.0
 11
6261.791662273974
 21
953.7649737437659
 31
0.0
  0
LINE
  5
2210D
330
747D
100
AcDbEntity
  8
部品1
 48
50.0
100
AcDbLine
 10
5936.611073562801
 20
1176.423992115171
 30
0.0
 11
5916.611073562801
 21
1176.423992115171
 31
0.0
  0
LINE
  5
2210E
330
747D
100
AcDbEntity
  8
細線
 48
50.0
100
AcDbLine
 10
5926.443382909556
 20
1176.423992115171
 30
0.0
 11
5956.611073562807
 21
1206.591682768419
 31
0.0
  0
LINE
  5
2210F
330
747D
100
AcDbEntity
  8
細線
 48
50.0
100
AcDbLine
 10
5936.611073562801
 20
1152.915722314406
 30
0.0
 11
5956.611073562807
 21
1172.915722314406
 31
0.0
  0
LINE
  5
22110
330
747D
100
AcDbEntity
  8
細線
 48
50.0
100
AcDbLine
 10
5976.611073562808
 20
1226.591682768419
 30
0.0
 11
6066.611073562794
 21
1316.591682768412
 31
0.0
  0
LINE
  5
22111
330
747D
100
AcDbEntity
  8
細線
 48
50.0
100
AcDbLine
 10
5976.611073562808
 20
1260.267643222429
 30
0.0
 11
6066.611073562794
 21
1350.267643222425
 31
0.0
  0
LINE
  5
22112
330
747D
100
AcDbEntity
  8
細線
 48
50.0
100
AcDbLine
 10
5976.611073562808
 20
1192.915722314406
 30
0.0
 11
6066.611073562794
 21
1282.915722314406
 31
0.0
  0
LINE
  5
22113
330
747D
100
AcDbEntity
  8
細線
 48
50.0
100
AcDbLine
 10
6006.868008624237
 20
953.7649737437668
 30
0.0
 11
6126.869118430658
 21
1073.766083550192
 31
0.0
  0
LINE
  5
22114
330
747D
100
AcDbEntity
  8
部品1
 48
50.0
100
AcDbLine
 10
6156.611073562801
 20
1093.764973743767
 30
0.0
 11
6156.611073562801
 21
1073.764973743767
 31
0.0
  0
LINE
  5
22115
330
747D
100
AcDbEntity
  8
細線
 48
50.0
100
AcDbLine
 10
6155.143130316987
 20
923.7649737437678
 30
0.0
 11
6147.104654544053
 21
953.7649737437668
 31
0.0
  0
CIRCLE
  5
22116
330
747D
100
AcDbEntity
  8
部品1
 48
50.0
100
AcDbCircle
 10
6106.611073562801
 20
1103.764973743767
 30
0.0
 40
10.0
  0
LINE
  5
22117
330
747D
100
AcDbEntity
  8
細線
 48
50.0
100
AcDbLine
 10
6056.533074132929
 20
923.7649737437678
 30
0.0
 11
6048.494598359996
 21
953.7649737437668
 31
0.0
  0
ARC
  5
22118
330
747D
100
AcDbEntity
  8
部品1
 48
50.0
100
AcDbCircle
 10
5946.611073562801
 20
1103.764973743767
 30
0.0
 40
30.0
100
AcDbArc
 50
340.5287793654919
 51
0.0
  0
LINE
  5
22119
330
747D
100
AcDbEntity
  8
細線
 48
50.0
100
AcDbLine
 10
5957.923017948871
 20
923.7649737437678
 30
0.0
 11
5949.884542175937
 21
953.7649737437668
 31
0.0
  0
ARC
  5
2211A
330
747D
100
AcDbEntity
  8
部品1
 48
50.0
100
AcDbCircle
 10
5946.611073562801
 20
1103.764973743767
 30
0.0
 40
30.0
100
AcDbArc
 50
180.0
 51
199.4712206345081
  0
LINE
  5
2211B
330
747D
100
AcDbEntity
  8
細線
 48
50.0
100
AcDbLine
 10
5859.312961764807
 20
923.7649737437678
 30
0.0
 11
5851.274485991873
 21
953.7649737437668
 31
0.0
  0
CIRCLE
  5
2211C
330
747D
100
AcDbEntity
  8
部品1
 48
50.0
100
AcDbCircle
 10
5946.611073562801
 20
1103.764973743767
 30
0.0
 40
10.0
  0
LINE
  5
2211D
330
747D
100
AcDbEntity
  8
細線
 48
50.0
100
AcDbLine
 10
5973.192048170231
 20
953.7649737437668
 30
0.0
 11
6093.192048170231
 21
1073.764973743767
 31
0.0
  0
LINE
  5
2211E
330
747D
100
AcDbEntity
  8
細線
 48
50.0
100
AcDbLine
 10
5939.516087716218
 20
953.7649737437668
 30
0.0
 11
6059.516087716218
 21
1073.764973743767
 31
0.0
  0
LINE
  5
2211F
330
747D
100
AcDbEntity
  8
細線
 48
50.0
100
AcDbLine
 10
5810.108404084143
 20
1093.764973743767
 30
0.0
 11
5956.6110735628
 21
1240.267643222425
 31
0.0
  0
LINE
  5
22120
330
747D
100
AcDbEntity
  8
細線
 48
50.0
100
AcDbLine
 10
5877.460324992162
 20
1093.764973743767
 30
0.0
 11
5916.611073562801
 21
1132.915722314406
 31
0.0
  0
LINE
  5
22121
330
747D
100
AcDbEntity
  8
部品1
 48
50.0
100
AcDbLine
 10
5916.611073562801
 20
1176.423992115171
 30
0.0
 11
5916.611073562801
 21
1103.764973743767
 31
0.0
  0
LINE
  5
22122
330
747D
100
AcDbEntity
  8
細線
 48
50.0
100
AcDbLine
 10
5843.784364538156
 20
1093.764973743767
 30
0.0
 11
5916.611073562801
 21
1166.591682768416
 31
0.0
  0
LINE
  5
22123
330
747D
100
AcDbEntity
  8
部品1
 48
50.0
100
AcDbLine
 10
5936.611073562801
 20
1176.423992115171
 30
0.0
 11
5936.611073562801
 21
1103.764973743767
 31
0.0
  0
LINE
  5
22124
330
747D
100
AcDbEntity
  8
細線
 48
50.0
100
AcDbLine
 10
5666.611073562794
 20
1185.999366400487
 30
0.0
 11
5734.376680906081
 21
1253.764973743767
 31
0.0
  0
LINE
  5
22125
330
747D
100
AcDbEntity
  8
細線
 48
50.0
100
AcDbLine
 10
5666.611073562794
 20
1219.6753268545
 30
0.0
 11
5700.700720452068
 21
1253.764973743767
 31
0.0
  0
LINE
  5
22126
330
747D
100
AcDbEntity
  8
細線
 48
50.0
100
AcDbLine
 10
5666.611073562794
 20
1152.323405946481
 30
0.0
 11
5768.052641360087
 21
1253.764973743767
 31
0.0
  0
LINE
  5
22127
330
747D
100
AcDbEntity
  8
部品1
 48
50.0
100
AcDbLine
 10
5736.611073562801
 20
1093.764973743767
 30
0.0
 11
5736.611073562801
 21
1073.764973743767
 31
0.0
  0
LINE
  5
22128
330
747D
100
AcDbEntity
  8
細線
 48
50.0
100
AcDbLine
 10
5760.702905580742
 20
923.7649737437678
 30
0.0
 11
5752.664429807808
 21
953.7649737437668
 31
0.0
  0
LINE
  5
22129
330
747D
100
AcDbEntity
  8
細線
 48
50.0
100
AcDbLine
 10
5662.092849396676
 20
923.7649737437678
 30
0.0
 11
5654.054373623743
 21
953.7649737437668
 31
0.0
  0
LINE
  5
2212A
330
747D
100
AcDbEntity
  8
細線
 48
50.0
100
AcDbLine
 10
5566.611073562801
 20
935.4398749509918
 30
0.0
 11
5571.521268985545
 21
953.7649737437668
 31
0.0
  0
LINE
  5
2212B
330
747D
100
AcDbEntity
  8
部品1
 48
50.0
100
AcDbLine
 10
5666.611073562801
 20
953.7649737437668
 30
0.0
 11
5666.611073562801
 21
1253.764973743767
 31
0.0
  0
LINE
  5
2212C
330
747D
100
AcDbEntity
  8
部品1
 48
50.0
100
AcDbLine
 10
5736.611073562801
 20
1073.764973743767
 30
0.0
 11
6156.611073562801
 21
1073.764973743767
 31
0.0
  0
LINE
  5
2212D
330
747D
100
AcDbEntity
  8
部品1
 48
50.0
100
AcDbLine
 10
5736.611073562801
 20
1093.764973743767
 30
0.0
 11
6156.611073562801
 21
1093.764973743767
 31
0.0
  0
LINE
  5
2212E
330
747D
100
AcDbEntity
  8
細線
 48
50.0
100
AcDbLine
 10
5737.460324992162
 20
953.7649737437668
 30
0.0
 11
5857.460324992162
 21
1073.764973743767
 31
0.0
  0
CIRCLE
  5
2212F
330
747D
100
AcDbEntity
  8
部品1
 48
50.0
100
AcDbCircle
 10
5786.611073562801
 20
1103.764973743767
 30
0.0
 40
10.0
  0
LINE
  5
22130
330
747D
100
AcDbEntity
  8
細線
 48
50.0
100
AcDbLine
 10
5703.784364538156
 20
953.7649737437668
 30
0.0
 11
5823.784364538156
 21
1073.764973743767
 31
0.0
  0
LINE
  5
22131
330
747D
100
AcDbEntity
  8
細線
 48
50.0
100
AcDbLine
 10
5670.108404084143
 20
953.7649737437668
 30
0.0
 11
5790.108404084143
 21
1073.764973743767
 31
0.0
  0
LINE
  5
22132
330
747D
100
AcDbEntity
  8
部品1
 48
50.0
100
AcDbLine
 10
5666.611073562801
 20
1253.764973743767
 30
0.0
 11
5826.611073562801
 21
1253.764973743767
 31
0.0
  0
LINE
  5
22133
330
747D
100
AcDbEntity
  8
細線
 48
50.0
100
AcDbLine
 10
6029.738154889817
 20
823.7649737437669
 30
0.0
 11
6037.776630662751
 21
793.7649737437668
 31
0.0
  0
LINE
  5
22134
330
747D
100
AcDbEntity
  8
細線
 48
50.0
100
AcDbLine
 10
6128.348211073875
 20
823.7649737437669
 30
0.0
 11
6136.386686846808
 21
793.7649737437668
 31
0.0
  0
LINE
  5
22135
330
747D
100
AcDbEntity
  8
細線
 48
50.0
100
AcDbLine
 10
5832.518042521694
 20
823.7649737437669
 30
0.0
 11
5840.556518294628
 21
793.7649737437668
 31
0.0
  0
LINE
  5
22136
330
747D
100
AcDbEntity
  8
細線
 48
50.0
100
AcDbLine
 10
5931.12809870576
 20
823.7649737437669
 30
0.0
 11
5939.166574478694
 21
793.7649737437668
 31
0.0
  0
LINE
  5
22137
330
747D
100
AcDbEntity
  8
細線
 48
50.0
100
AcDbLine
 10
5635.297930153566
 20
823.7649737437669
 30
0.0
 11
5643.336405926499
 21
793.7649737437668
 31
0.0
  0
LINE
  5
22138
330
747D
100
AcDbEntity
  8
細線
 48
50.0
100
AcDbLine
 10
5733.90798633763
 20
823.7649737437669
 30
0.0
 11
5741.946462110564
 21
793.7649737437668
 31
0.0
  0
LINE
  5
22139
330
747D
100
AcDbEntity
  8
細線
 48
50.0
100
AcDbLine
 10
6021.699679116877
 20
793.7649737437668
 30
0.0
 11
6064.571549905859
 21
953.7649737437659
 31
0.0
  0
LINE
  5
2213A
330
747D
100
AcDbEntity
  8
細線
 48
50.0
100
AcDbLine
 10
5725.869510564696
 20
793.7649737437668
 30
0.0
 11
5768.741381353675
 21
953.7649737437668
 31
0.0
  0
LINE
  5
2213B
330
747D
100
AcDbEntity
  8
細線
 48
50.0
100
AcDbLine
 10
5824.479566748754
 20
793.7649737437659
 30
0.0
 11
5867.351437537733
 21
953.7649737437659
 31
0.0
  0
LINE
  5
2213C
330
747D
100
AcDbEntity
  8
細線
 48
50.0
100
AcDbLine
 10
5627.259454380624
 20
793.7649737437659
 30
0.0
 11
5670.131325169602
 21
953.7649737437659
 31
0.0
  0
LINE
  5
2213D
330
747D
100
AcDbEntity
  8
部品1
 48
50.0
100
AcDbLine
 10
5566.611073562804
 20
793.7649737437668
 30
0.0
 11
5566.611073562804
 21
953.7649737437668
 31
0.0
  0
LINE
  5
2213E
330
747D
100
AcDbEntity
  8
細線
 48
50.0
100
AcDbLine
 10
5923.08962293282
 20
793.7649737437668
 30
0.0
 11
5965.961493721797
 21
953.7649737437668
 31
0.0
  0
LINE
  5
2213F
330
747D
100
AcDbEntity
  8
細線
 48
50.0
100
AcDbLine
 10
6120.309735300939
 20
793.7649737437659
 30
0.0
 11
6163.181606089916
 21
953.7649737437659
 31
0.0
  0
LINE
  5
22140
330
747D
100
AcDbEntity
  8
部品1
 48
50.0
100
AcDbLine
 10
6326.611073562805
 20
793.7649737437668
 30
0.0
 11
5566.611073562804
 21
793.7649737437668
 31
0.0
  0
LINE
  5
22141
330
747D
100
AcDbEntity
  8
部品1
 48
50.0
100
AcDbLine
 10
6326.611073562805
 20
953.7649737437668
 30
0.0
 11
5566.611073562804
 21
953.7649737437668
 31
0.0
  0
LEADER
  5
22142
330
747D
100
AcDbEntity
  8
寸法
 48
50.0
100
AcDbLeader
  3
INABA_S40G
 71
     0
 73
     0
 74
     0
 75
     1
 40
100.0
 41
540.3409090909091
 76
     3
 10
6039.042534829269
 20
1082.83931072686
 30
0.0
 10
6243.784143389365
 20
655.8007882332385
 30
0.0
 10
6343.784143389364
 20
655.8007882332385
 30
0.0
213
0.0
223
-1.277828345336728
233
0.0
  0
DIMENSION
  5
22143
330
747D
100
AcDbEntity
  8
寸法
 48
50.0
100
AcDbDimension
  2
*D33
 10
6226.611073562801
 20
494.8128672878338
 30
0.0
 11
5946.611073562799
 21
494.8128672878338
 31
0.0
 70
   160
  1
300
 71
     5
 42
560.0000000000018
  3
INABA_S40G
100
AcDbAlignedDimension
 13
5666.611073562799
 23
793.7649737437668
 33
0.0
 14
6226.611073562801
 24
793.7649737437668
 34
0.0
100
AcDbRotatedDimension
  0
LEADER
  5
22144
330
747D
100
AcDbEntity
  8
寸法
 48
50.0
100
AcDbLeader
  3
INABA_S40G
 71
     0
 73
     0
 74
     0
 75
     1
 40
100.0
 41
225.0
 76
     3
 10
6106.489764002979
 20
1103.764973743767
 30
0.0
 10
6230.770648321157
 20
984.5186375650518
 30
0.0
 10
6330.770648321156
 20
984.5186375650518
 30
0.0
  0
LINE
  5
22145
330
747D
100
AcDbEntity
  8
細線
 48
50.0
100
AcDbLine
 10
6079.516087716211
 20
1093.764973743767
 30
0.0
 11
6226.611073562801
 21
1240.85995959035
 31
0.0
  0
LINE
  5
22146
330
747D
100
AcDbEntity
  8
細線
 48
50.0
100
AcDbLine
 10
6146.868008624236
 20
1093.764973743767
 30
0.0
 11
6226.611073562801
 21
1173.508038682332
 31
0.0
  0
LINE
  5
22147
330
747D
100
AcDbEntity
  8
細線
 48
50.0
100
AcDbLine
 10
6113.192048170231
 20
1093.764973743767
 30
0.0
 11
6226.611073562801
 21
1207.183999136341
 31
0.0
  0
LINE
  5
22148
330
747D
100
AcDbEntity
  8
部品1
 48
50.0
100
AcDbLine
 10
6066.611073562801
 20
1253.764973743767
 30
0.0
 11
6226.611073562801
 21
1253.764973743767
 31
0.0
  0
LINE
  5
22149
330
747D
100
AcDbEntity
  8
部品1
 48
50.0
100
AcDbLine
 10
5976.611073562808
 20
1103.764973743767
 30
0.0
 11
5976.611073562801
 21
1759.083010486574
 31
0.0
  0
LINE
  5
2214A
330
747D
100
AcDbEntity
  8
部品1
 48
50.0
100
AcDbLine
 10
5956.611073562807
 20
1103.764973743767
 30
0.0
 11
5956.611073562793
 21
1759.083010486574
 31
0.0
  0
LINE
  5
2214B
330
747D
100
AcDbEntity
  8
部品1
 48
50.0
100
AcDbLine
 10
5826.611073562801
 20
1253.764973743767
 30
0.0
 11
5826.611073562801
 21
1933.764973743768
 31
0.0
  0
LINE
  5
2214C
330
747D
100
AcDbEntity
  8
細線
 48
50.0
100
AcDbLine
 10
5826.611073562801
 20
1345.99936640049
 30
0.0
 11
5956.611073562807
 21
1475.999366400494
 31
0.0
  0
LINE
  5
2214D
330
747D
100
AcDbEntity
  8
細線
 48
50.0
100
AcDbLine
 10
5826.611073562801
 20
1379.6753268545
 30
0.0
 11
5956.6110735628
 21
1509.6753268545
 31
0.0
  0
LINE
  5
2214E
330
747D
100
AcDbEntity
  8
細線
 48
50.0
100
AcDbLine
 10
5826.611073562801
 20
1312.323405946481
 30
0.0
 11
5956.611073562807
 21
1442.323405946481
 31
0.0
  0
LINE
  5
2214F
330
747D
100
AcDbEntity
  8
部品1
 48
50.0
100
AcDbLine
 10
6066.611073562801
 20
1933.764973743768
 30
0.0
 11
6066.611073562801
 21
1253.764973743767
 31
0.0
  0
MTEXT
  5
22150
102
{ACAD_REACTORS
330
22151
102
}
330
747D
100
AcDbEntity
  8
寸法
 62
     7
 48
50.0
100
AcDbMText
 10
5452.942290818808
 20
849.3616067207222
 30
0.0
 40
100.0
 41
1.0
 71
     6
 72
     1
  1
D10
  7
STYLE2
 73
     1
 44
1.0
1001
ACAD
1000
MTEXTBEGIN
1070
    73
1070
     1
1070
    44
1040
1.0
1070
    74
1070
     0
1000
MTEXTEND
  0
LEADER
  5
22151
330
747D
100
AcDbEntity
  8
寸法
 48
50.0
100
AcDbLeader
  3
INABA_S40G
 71
     0
 73
     0
 75
     1
 40
100.0
 41
225.0
 76
     3
 10
5786.489764002979
 20
1103.764973743767
 30
0.0
 10
5577.942290818806
 20
774.3616067207222
 30
0.0
 10
5477.942290818806
 20
774.3616067207222
 30
0.0
  0
LEADER
  5
22152
330
747D
100
AcDbEntity
  8
寸法
 48
50.0
100
AcDbLeader
  3
INABA_S40G
 71
     0
 73
     0
 75
     1
 40
100.0
 41
222.7272727272727
 76
     3
 10
5946.611073562799
 20
1103.764973743767
 30
0.0
 10
5613.095700265602
 20
548.966416046418
 30
0.0
 10
5513.095700265601
 20
548.966416046418
 30
0.0
  0
MTEXT
  5
22153
102
{ACAD_REACTORS
330
22152
102
}
330
747D
100
AcDbEntity
  8
寸法
 62
     7
 48
50.0
100
AcDbMText
 10
5488.095700265602
 20
623.966416046418
 30
0.0
 40
100.0
 41
1.0
 71
     6
 72
     1
  1
D13
  7
STYLE2
 73
     1
 44
1.0
1001
ACAD
1000
MTEXTBEGIN
1070
    73
1070
     1
1070
    44
1040
1.0
1070
    74
1070
     0
1000
MTEXTEND
  0
MTEXT
  5
22154
102
{ACAD_REACTORS
330
22155
102
}
330
747D
100
AcDbEntity
  8
寸法
 62
     7
 48
50.0
100
AcDbMText
 10
5715.048505784294
 20
1435.390727265588
 30
0.0
 40
100.0
 41
1.0
 71
     6
 72
     1
  1
\A1;D10@300
  7
STYLE2
 73
     1
 44
1.0
1001
ACAD
1000
MTEXTBEGIN
1070
    73
1070
     1
1070
    44
1040
1.0
1070
    74
1070
     0
1000
MTEXTEND
  0
LEADER
  5
22155
330
747D
100
AcDbEntity
  8
寸法
 48
50.0
100
AcDbLeader
  3
INABA_S40G
 71
     0
 73
     0
 75
     1
 40
100.0
 41
540.3409090909091
 76
     3
 10
5956.6110735628
 20
1631.423992115171
 30
0.0
 10
5827.883277901928
 20
1354.586081439166
 30
0.0
 10
5727.883277901929
 20
1354.586081439166
 30
0.0
213
-12.16522788236671
223
-5.804645826423211
233
0.0
  0
LEADER
  5
22156
330
747D
100
AcDbEntity
  8
寸法
 48
50.0
100
AcDbLeader
  3
INABA_S40G
 71
     0
 73
     0
 75
     1
 40
130.1136363636363
 41
651.1363636363636
 76
     3
 10
5926.611073562801
 20
1933.764973743768
 30
0.0
 10
5867.693073644517
 20
2109.353430564502
 30
0.0
 10
5767.693073644517
 20
2109.353430564502
 30
0.0
  0
MTEXT
  5
22157
102
{ACAD_REACTORS
330
22156
102
}
330
747D
100
AcDbEntity
  8
寸法
 62
     7
 48
50.0
100
AcDbMText
 10
5742.693073644517
 20
2199.410248746321
 30
0.0
 40
100.0
 41
1.0
 71
     6
 72
     1
  1
\A1;金コテ押エ
  7
STYLE2
 73
     1
 44
1.0
1001
ACAD
1000
MTEXTBEGIN
1070
    73
1070
     1
1070
    44
1040
1.0
1070
    74
1070
     0
1000
MTEXTEND
  0
DIMENSION
  5
22158
330
747D
100
AcDbEntity
  8
寸法
 48
50.0
100
AcDbDimension
  2
*D34
 10
5065.966135526736
 20
953.764973743767
 30
0.0
 11
5065.966135526736
 21
1443.764973743768
 31
0.0
 70
   160
  1
540
 71
     5
 42
980.0000000000014
  3
INABA_S40G
100
AcDbAlignedDimension
 13
5826.611073562799
 23
1933.764973743768
 33
0.0
 14
5566.611073562804
 24
953.7649737437668
 34
0.0
 50
90.0
100
AcDbRotatedDimension
  0
DIMENSION
  5
22159
330
747D
100
AcDbEntity
  8
寸法
 48
50.0
100
AcDbDimension
  2
*D35
 10
5488.585681397226
 20
953.7649737437668
 30
0.0
 11
5488.585681397226
 21
1103.764973743767
 31
0.0
 70
   160
  1
150
 71
     5
 42
300.0000000000001
  3
INABA_S40G
100
AcDbAlignedDimension
 13
5666.611073562799
 23
1253.764973743767
 33
0.0
 14
5566.611073562804
 24
953.7649737437668
 34
0.0
 50
90.0
100
AcDbRotatedDimension
  0
LWPOLYLINE
  5
2215A
330
747D
100
AcDbEntity
  8
部品1
 48
50.0
100
AcDbPolyline
 90
        2
 70
     0
 43
10.0
 10
5308.936196271605
 20
1633.76497374377
 10
5826.611073562799
 20
1633.76497374377
  0
TEXT
  5
2215B
330
747D
100
AcDbEntity
  8
部品1
 48
50.0
100
AcDbText
 10
5308.936196271605
 20
1647.813714097837
 30
0.0
 40
100.0
  1
▽G.L
  7
STYLE2
100
AcDbText
  0
LEADER
  5
2215C
330
747D
100
AcDbEntity
  8
寸法
 48
50.0
100
AcDbLeader
  3
INABA_S40G
 71
     0
 73
     0
 75
     1
 40
132.9545454545455
 41
1129.404378023068
 76
     3
 10
8115.910215034293
 20
2020.714973743768
 30
0.0
 10
8007.88012460312
 20
2479.539442139183
 30
0.0
 10
7907.880124603121
 20
2479.539442139183
 30
0.0
  0
MTEXT
  5
2215D
102
{ACAD_REACTORS
330
2215C
102
}
330
747D
100
AcDbEntity
  8
寸法
 62
     7
 48
50.0
100
AcDbMText
 10
7867.88012460312
 20
2586.016714866457
 30
0.0
 40
100.0
 41
1.0
 71
     6
 72
     1
  1
アンカープレート {\fArial|b0|i0|c0|p32;U}
  7
STYLE2
 73
     1
 44
1.0
1001
ACAD
1000
MTEXTBEGIN
1070
    73
1070
     1
1070
    44
1040
1.0
1070
    74
1070
     0
1000
MTEXTEND
  0
MTEXT
  5
2215E
102
{ACAD_REACTORS
330
2215F
102
}
330
747D
100
AcDbEntity
  8
部品1
 62
     7
 48
50.0
100
AcDbMText
 10
8478.85267892599
 20
3040.595543558828
 30
0.0
 40
100.0
 41
1.0
 71
     4
 72
     1
  1
\A1;ナット(市販品)
  7
STYLE2
 73
     1
 44
1.0
1001
ACAD
1000
MTEXTBEGIN
1070
    73
1070
     1
1070
    44
1040
1.0
1070
    74
1070
     0
1000
MTEXTEND
  0
LEADER
  5
2215F
330
747D
100
AcDbEntity
  8
寸法
 48
50.0
100
AcDbLeader
  3
INABA_S40G
 71
     0
 73
     0
 74
     0
 75
     1
 40
127.8409090909091
 41
850.0
 76
     3
 10
8248.410215034294
 20
2432.359075130197
 30
0.0
 10
8338.85267892599
 20
2936.675089013374
 30
0.0
 10
8438.852678925989
 20
2936.675089013374
 30
0.0
  0
MTEXT
  5
22160
102
{ACAD_REACTORS
330
22161
102
}
330
747D
100
AcDbEntity
  8
部品1
 62
     7
 48
50.0
100
AcDbMText
 10
8518.249702995346
 20
2809.384190102843
 30
0.0
 40
100.0
 41
1.0
 71
     4
 72
     1
  1
\A1;ワッシャー(市販品)
  7
STYLE2
 73
     1
 44
1.0
1001
ACAD
1000
MTEXTBEGIN
1070
    73
1070
     1
1070
    44
1040
1.0
1070
    74
1070
     0
1000
MTEXTEND
  0
LEADER
  5
22161
330
747D
100
AcDbEntity
  8
寸法
 48
50.0
100
AcDbLeader
  3
INABA_S40G
 71
     0
 73
     0
 74
     0
 75
     1
 40
127.8409090909091
 41
1133.522727272727
 76
     3
 10
8278.410215034293
 20
2270.169084299118
 30
0.0
 10
8378.249702995345
 20
2705.463735557389
 30
0.0
 10
8478.249702995345
 20
2705.463735557389
 30
0.0
  0
DIMENSION
  5
22162
330
747D
100
AcDbEntity
  8
寸法
 48
50.0
100
AcDbDimension
  2
*D36
 10
5826.611073562799
 20
2458.349733639244
 30
0.0
 11
5946.611073562799
 21
2458.349733639244
 31
0.0
 70
   160
  1
120
 71
     5
 42
240.0
  3
INABA_S40G
100
AcDbAlignedDimension
 13
6066.611073562799
 23
1933.764973743768
 33
0.0
 14
5826.611073562799
 24
1933.764973743768
 34
0.0
100
AcDbRotatedDimension
  0
LINE
  5
22163
330
747D
100
AcDbEntity
  8
部品1
100
AcDbLine
 10
4707.810382011021
 20
3584.979498464823
 30
0.0
 11
4707.810382011021
 21
325.9099991101357
 31
0.0
  0
MTEXT
  5
22164
102
{ACAD_REACTORS
330
22165
102
}
330
747D
100
AcDbEntity
  8
寸法
 62
     7
 48
50.0
100
AcDbMText
 10
7834.576366842672
 20
3036.87205475085
 30
0.0
 40
100.0
 41
1.0
 71
     6
 72
     1
  1
\A1;φ70スリーブ
  7
STYLE2
 73
     1
 44
1.0
1001
ACAD
1000
MTEXTBEGIN
1070
    73
1070
     1
1070
    44
1040
1.0
1070
    74
1070
     0
1000
MTEXTEND
  0
LEADER
  5
22165
330
747D
100
AcDbEntity
  8
寸法
 48
50.0
100
AcDbLeader
  3
INABA_S40G
 71
     0
 73
     0
 75
     1
 40
141.4772727272727
 41
760.7954545454546
 76
     3
 10
8189.331152706854
 20
1870.659565441616
 30
0.0
 10
7974.576366842672
 20
2926.133418387214
 30
0.0
 10
7874.576366842672
 20
2926.133418387214
 30
0.0
  0
LINE
  5
22166
330
747D
100
AcDbEntity
  8
部品1
100
AcDbLine
 10
11604.28507810905
 20
3584.979498464825
 30
0.0
 11
4707.810382011017
 21
3584.979498464823
 31
0.0
  0
LINE
  5
22167
330
747D
100
AcDbEntity
  8
部品1
100
AcDbLine
 10
11604.28507810905
 20
3284.979498464823
 30
0.0
 11
4707.810382011017
 21
3284.979498464823
 31
0.0
  0
LINE
  5
22168
330
747D
100
AcDbEntity
  8
部品1
100
AcDbLine
 10
4707.810382011017
 20
325.9099991101357
 30
0.0
 11
11604.28507810905
 21
325.9099991101357
 31
0.0
  0
LINE
  5
22169
330
747D
100
AcDbEntity
  8
部品1
100
AcDbLine
 10
10113.77415028991
 20
1359.141329177076
 30
0.0
 11
11013.77415028991
 21
1359.14132917708
 31
0.0
  0
LINE
  5
2216A
330
747D
100
AcDbEntity
  8
部品1
100
AcDbLine
 10
10113.77415028991
 20
1519.14132917708
 30
0.0
 11
11013.77415028991
 21
1519.141329177083
 31
0.0
  0
LWPOLYLINE
  5
2216B
330
747D
100
AcDbEntity
  8
部品1
 48
50.0
100
AcDbPolyline
 90
        2
 70
     0
 43
15.0
 10
9783.010072664428
 20
1633.764973743768
 10
11284.37545157896
 20
1633.764973743768
  0
LINE
  5
2216C
330
747D
100
AcDbEntity
  8
細線
100
AcDbLine
 10
10255.06964341407
 20
1519.14132917708
 30
0.0
 11
10369.69328798076
 21
1633.764973743767
 31
0.0
  0
LINE
  5
2216D
330
747D
100
AcDbEntity
  8
部品1
100
AcDbLine
 10
10263.77415028991
 20
1933.764973743768
 30
0.0
 11
10863.77415028991
 21
1933.764973743768
 31
0.0
  0
LINE
  5
2216E
330
747D
100
AcDbEntity
  8
細線
100
AcDbLine
 10
10443.4262070791
 20
1633.764973743768
 30
0.0
 11
10263.77415028991
 21
1813.417030532958
 31
0.0
  0
LINE
  5
2216F
330
747D
100
AcDbEntity
  8
細線
100
AcDbLine
 10
10507.06581738589
 20
1633.764973743768
 30
0.0
 11
10263.77415028991
 21
1877.056640839746
 31
0.0
  0
MTEXT
  5
22170
330
747D
100
AcDbEntity
  8
寸法
 62
     7
 48
50.0
100
AcDbMText
 10
7895.556878475558
 20
2400.689039260351
 30
0.0
 40
100.0
 41
1.0
 71
     6
 72
     1
  1
\U+203B(別売)
  7
STYLE2
 73
     1
 44
1.0
1001
ACAD
1000
MTEXTBEGIN
1070
    73
1070
     1
1070
    44
1040
1.0
1070
    74
1070
     0
1000
MTEXTEND
  0
TEXT
  5
22171
330
747D
100
AcDbEntity
  8
文字
 62
     7
 48
50.0
100
AcDbText
 10
14641.2525855784
 20
871.1744590657925
 30
0.0
 40
100.0
  1
～一般型・多雪地型～
  7
STYLE2
100
AcDbText
  0
TEXT
  5
22172
330
747D
100
AcDbEntity
  8
文字
 62
     7
 48
50.0
100
AcDbText
 10
14524.131837222
 20
1031.557706291228
 30
0.0
 40
100.0
  1
NO.17      <縮尺> S=1/40
  7
STYLE2
100
AcDbText
  0
ENDSEC
  0
SECTION
  2
OBJECTS
  0
DICTIONARY
  5
7471
330
0
100
AcDbDictionary
281
     1
  3
ACAD_COLOR
350
159B0
  3
ACAD_GROUP
350
7472
  3
ACAD_LAYOUT
350
159B1
  3
ACAD_MATERIAL
350
159AF
  3
ACAD_MLINESTYLE
350
7473
  3
ACAD_PLOTSETTINGS
350
159B2
  3
ACAD_PLOTSTYLENAME
350
159AD
  3
ACDBHEADERROUNDTRIPXREC
350
22228
  3
AcDbVariableDictionary
350
22224
  3
CONTENTDICTIONARY
350
E71C
  3
DRAWINGVARIABLESDICT
350
F3B9
  0
DICTIONARY
  5
21244
330
7467
100
AcDbDictionary
280
     1
281
     1
  3
ACAD_LAYERSTATES
360
21245
  0
DICTIONARY
  5
159B0
102
{ACAD_REACTORS
330
7471
102
}
330
7471
100
AcDbDictionary
281
     1
  0
DICTIONARY
  5
7472
102
{ACAD_REACTORS
330
7471
102
}
330
7471
100
AcDbDictionary
281
     1
  0
DICTIONARY
  5
159B1
102
{ACAD_REACTORS
330
7471
102
}
330
7471
100
AcDbDictionary
281
     1
  3
Model
350
159B3
  3
レイアウト1
350
159B4
  0
DICTIONARY
  5
159AF
102
{ACAD_REACTORS
330
7471
102
}
330
7471
100
AcDbDictionary
281
     1
  0
DICTIONARY
  5
7473
102
{ACAD_REACTORS
330
7471
102
}
330
7471
100
AcDbDictionary
281
     1
  3
STANDARD
350
7480
  0
DICTIONARY
  5
159B2
102
{ACAD_REACTORS
330
7471
102
}
330
7471
100
AcDbDictionary
281
     1
  0
ACDBDICTIONARYWDFLT
  5
159AD
102
{ACAD_REACTORS
330
7471
102
}
330
7471
100
AcDbDictionary
281
     1
  3
Normal
350
159AE
100
AcDbDictionaryWithDefault
340
159AE
  0
DICTIONARY
  5
22228
102
{ACAD_REACTORS
330
7471
102
}
330
7471
100
AcDbDictionary
281
     1
  3
COLORDICT
350
2222A
  3
MATERIALDICT
350
22229
  0
DICTIONARY
  5
22224
102
{ACAD_REACTORS
330
7471
102
}
330
7471
100
AcDbDictionary
281
     1
  3
DIMASSOC
350
22225
  3
PROJECTNAME
350
22226
  0
DICTIONARY
  5
E71C
102
{ACAD_REACTORS
330
7471
102
}
330
7471
100
AcDbDictionary
281
     1
  0
DICTIONARY
  5
F3B9
102
{ACAD_REACTORS
330
7471
102
}
330
7471
100
AcDbDictionary
281
     1
1001
DRAWINGVARIABLESXDATA
1000
POLARMODE
1000
1
  0
DICTIONARY
  5
21245
102
{ACAD_REACTORS
330
21244
102
}
330
21244
100
AcDbDictionary
281
     1
  0
LAYOUT
  5
159B3
102
{ACAD_XDICTIONARY
360
2222B
102
}
102
{ACAD_REACTORS
330
159B1
102
}
330
159B1
100
AcDbPlotSettings
  1

  2
iR C3880
  4
A3
  6

 40
5.87375
 41
5.873747999999999
 42
5.873749
 43
5.873749
 44
296.925995
 45
419.946655
 46
0.0
 47
0.0
 48
0.0
 49
0.0
140
0.0
141
0.0
142
1.0
143
41.65811997269246
 70
 11952
 72
     1
 73
     1
 74
     2
  7
inabass.ctb
 75
     0
147
0.0240049239057239
148
0.0
149
0.0
100
AcDbLayout
  1
Model
 70
     1
 71
     0
 10
0.0
 20
0.0
 11
12.0
 21
9.0
 12
0.0
 22
0.0
 32
0.0
 14
0.0
 24
0.0
 34
0.0
 15
0.0
 25
0.0
 35
0.0
146
0.0
 13
0.0
 23
0.0
 33
0.0
 16
1.0
 26
0.0
 36
0.0
 17
0.0
 27
1.0
 37
0.0
 76
     0
330
747D
  0
LAYOUT
  5
159B4
102
{ACAD_XDICTIONARY
360
2222D
102
}
102
{ACAD_REACTORS
330
159B1
102
}
330
159B1
100
AcDbPlotSettings
  1

  2
自動 EPSON LP-8400FX (TATENO 上)
  4

  6

 40
0.0
 41
0.0
 42
0.0
 43
0.0
 44
0.0
 45
0.0
 46
0.0
 47
0.0
 48
0.0
 49
0.0
140
0.0
141
0.0
142
1.0
143
1.0
 70
   688
 72
     0
 73
     0
 74
     5
  7
inaba.ctb
 75
    16
147
1.0
148
0.0
149
0.0
100
AcDbLayout
  1
レイアウト1
 70
     0
 71
     1
 10
0.0
 20
0.0
 11
420.0
 21
297.0
 12
0.0
 22
0.0
 32
0.0
 14
1.000000000000000E+20
 24
1.000000000000000E+20
 34
1.000000000000000E+20
 15
-1.000000000000000E+20
 25
-1.000000000000000E+20
 35
-1.000000000000000E+20
146
0.0
 13
0.0
 23
0.0
 33
0.0
 16
1.0
 26
0.0
 36
0.0
 17
0.0
 27
1.0
 37
0.0
 76
     0
330
747A
  0
MLINESTYLE
  5
7480
102
{ACAD_REACTORS
330
7473
102
}
330
7473
100
AcDbMlineStyle
  2
STANDARD
 70
     0
  3

 62
     0
 51
90.0
 52
90.0
 71
     2
 49
0.5
 62
   256
  6
BYLAYER
 49
-0.5
 62
   256
  6
BYLAYER
  0
ACDBPLACEHOLDER
  5
159AE
102
{ACAD_REACTORS
330
159AD
102
}
330
159AD
  0
XRECORD
  5
2222A
102
{ACAD_REACTORS
330
22228
102
}
330
22228
100
AcDbXrecord
280
     1
340
159B0
  0
XRECORD
  5
22229
102
{ACAD_REACTORS
330
22228
102
}
330
22228
100
AcDbXrecord
280
     1
340
159AF
  0
DICTIONARYVAR
  5
22225
102
{ACAD_REACTORS
330
22224
102
}
330
22224
100
DictionaryVariables
280
     0
  1
1
  0
DICTIONARYVAR
  5
22226
102
{ACAD_REACTORS
330
22224
102
}
330
22224
100
DictionaryVariables
280
     0
  1

  0
DICTIONARY
  5
2222B
330
159B3
100
AcDbDictionary
280
     1
281
     1
  3
ACAD_XREC_ROUNDTRIP
360
2222C
  0
DICTIONARY
  5
2222D
330
159B4
100
AcDbDictionary
280
     1
281
     1
  3
ACAD_XREC_ROUNDTRIP
360
2222E
  0
XRECORD
  5
2222C
102
{ACAD_REACTORS
330
2222B
102
}
330
2222B
100
AcDbXrecord
280
     1
102
SHADEPLOT
 70
     1
102
SHADEPLOTRESLEVEL
 70
     2
102
SHADEPLOTCUSTOMDPI
 70
   300
  0
XRECORD
  5
2222E
102
{ACAD_REACTORS
330
2222D
102
}
330
2222D
100
AcDbXrecord
280
     1
102
SHADEPLOT
 70
     0
102
SHADEPLOTRESLEVEL
 70
     2
102
SHADEPLOTCUSTOMDPI
 70
   300
  0
ENDSEC
  0
EOF
