  0
SECTION
  2
HEADER
  9
$ACADVER
  1
AC1015
  9
$ACADMAINTVER
 70
    20
  9
$DWGCODEPAGE
  3
ANSI_932
  9
$INSBASE
 10
0.0
 20
0.0
 30
0.0
  9
$EXTMIN
 10
139.9999999999995
 20
-0.0000000000000909
 30
0.0
  9
$EXTMAX
 10
16307.2
 20
11409.6
 30
0.0
  9
$LIMMIN
 10
0.0
 20
0.0
  9
$LIMMAX
 10
16800.0
 20
11880.0
  9
$ORTHOMODE
 70
     0
  9
$REGENMODE
 70
     1
  9
$FILLMODE
 70
     1
  9
$QTEXTMODE
 70
     0
  9
$MIRRTEXT
 70
     1
  9
$LTSCALE
 40
20.0
  9
$ATTMODE
 70
     1
  9
$TEXTSIZE
 40
100.0
  9
$TRACEWID
 40
1.0
  9
$TEXTSTYLE
  7
STYLE2
  9
$CLAYER
  8
寸法
  9
$CELTYPE
  6
BYLAYER
  9
$CECOLOR
 62
   256
  9
$CELTSCALE
 40
50.0
  9
$DISPSILH
 70
     0
  9
$DIMSCALE
 40
40.0
  9
$DIMASZ
 40
2.5
  9
$DIMEXO
 40
0.5
  9
$DIMDLI
 40
7.0
  9
$DIMRND
 40
0.0
  9
$DIMDLE
 40
0.0
  9
$DIMEXE
 40
1.5
  9
$DIMTP
 40
0.0
  9
$DIMTM
 40
0.0
  9
$DIMTXT
 40
3.0
  9
$DIMCEN
 40
0.0
  9
$DIMTSZ
 40
0.0
  9
$DIMTOL
 70
     0
  9
$DIMLIM
 70
     0
  9
$DIMTIH
 70
     0
  9
$DIMTOH
 70
     0
  9
$DIMSE1
 70
     0
  9
$DIMSE2
 70
     0
  9
$DIMTAD
 70
     3
  9
$DIMZIN
 70
     8
  9
$DIMBLK
  1

  9
$DIMASO
 70
     1
  9
$DIMSHO
 70
     1
  9
$DIMPOST
  1

  9
$DIMAPOST
  1

  9
$DIMALT
 70
     0
  9
$DIMALTD
 70
     2
  9
$DIMALTF
 40
0.0394
  9
$DIMLFAC
 40
1.0
  9
$DIMTOFL
 70
     1
  9
$DIMTVP
 40
0.0
  9
$DIMTIX
 70
     1
  9
$DIMSOXD
 70
     0
  9
$DIMSAH
 70
     1
  9
$DIMBLK1
  1
DOTSMALL
  9
$DIMBLK2
  1
DOTSMALL
  9
$DIMSTYLE
  2
INABA_S40G
  9
$DIMCLRD
 70
     0
  9
$DIMCLRE
 70
     0
  9
$DIMCLRT
 70
     7
  9
$DIMTFAC
 40
1.0
  9
$DIMGAP
 40
1.0
  9
$DIMJUST
 70
     0
  9
$DIMSD1
 70
     0
  9
$DIMSD2
 70
     0
  9
$DIMTOLJ
 70
     1
  9
$DIMTZIN
 70
     0
  9
$DIMALTZ
 70
     0
  9
$DIMALTTZ
 70
     0
  9
$DIMUPT
 70
     1
  9
$DIMDEC
 70
     1
  9
$DIMTDEC
 70
     4
  9
$DIMALTU
 70
     2
  9
$DIMALTTD
 70
     2
  9
$DIMTXSTY
  7
STYLE1
  9
$DIMAUNIT
 70
     0
  9
$DIMADEC
 70
     0
  9
$DIMALTRND
 40
0.0
  9
$DIMAZIN
 70
     0
  9
$DIMDSEP
 70
    46
  9
$DIMATFIT
 70
     3
  9
$DIMFRAC
 70
     0
  9
$DIMLDRBLK
  1
DOTSMALL
  9
$DIMLUNIT
 70
     2
  9
$DIMLWD
 70
    -2
  9
$DIMLWE
 70
    -2
  9
$DIMTMOVE
 70
     0
  9
$LUNITS
 70
     2
  9
$LUPREC
 70
     1
  9
$SKETCHINC
 40
1.0
  9
$FILLETRAD
 40
0.0
  9
$AUNITS
 70
     0
  9
$AUPREC
 70
     0
  9
$MENU
  1
acad
  9
$ELEVATION
 40
0.0
  9
$PELEVATION
 40
0.0
  9
$THICKNESS
 40
0.0
  9
$LIMCHECK
 70
     0
  9
$CHAMFERA
 40
3.0
  9
$CHAMFERB
 40
3.0
  9
$CHAMFERC
 40
0.0
  9
$CHAMFERD
 40
0.0
  9
$SKPOLY
 70
     0
  9
$TDCREATE
 40
2451368.612993866
  9
$TDUCREATE
 40
2451368.237993866
  9
$TDUPDATE
 40
2456380.821686377
  9
$TDUUPDATE
 40
2456380.446686377
  9
$TDINDWG
 40
1.7223489468
  9
$TDUSRTIMER
 40
1.7223489468
  9
$USRTIMER
 70
     1
  9
$ANGBASE
 50
0.0
  9
$ANGDIR
 70
     0
  9
$PDMODE
 70
     3
  9
$PDSIZE
 40
2.0
  9
$PLINEWID
 40
0.0
  9
$SPLFRAME
 70
     0
  9
$SPLINETYPE
 70
     6
  9
$SPLINESEGS
 70
     8
  9
$HANDSEED
  5
221DA
  9
$SURFTAB1
 70
     6
  9
$SURFTAB2
 70
     6
  9
$SURFTYPE
 70
     6
  9
$SURFU
 70
     6
  9
$SURFV
 70
     6
  9
$UCSBASE
  2

  9
$UCSNAME
  2

  9
$UCSORG
 10
0.0
 20
0.0
 30
0.0
  9
$UCSXDIR
 10
1.0
 20
0.0
 30
0.0
  9
$UCSYDIR
 10
0.0
 20
1.0
 30
0.0
  9
$UCSORTHOREF
  2

  9
$UCSORTHOVIEW
 70
     0
  9
$UCSORGTOP
 10
0.0
 20
0.0
 30
0.0
  9
$UCSORGBOTTOM
 10
0.0
 20
0.0
 30
0.0
  9
$UCSORGLEFT
 10
0.0
 20
0.0
 30
0.0
  9
$UCSORGRIGHT
 10
0.0
 20
0.0
 30
0.0
  9
$UCSORGFRONT
 10
0.0
 20
0.0
 30
0.0
  9
$UCSORGBACK
 10
0.0
 20
0.0
 30
0.0
  9
$PUCSBASE
  2

  9
$PUCSNAME
  2

  9
$PUCSORG
 10
0.0
 20
0.0
 30
0.0
  9
$PUCSXDIR
 10
1.0
 20
0.0
 30
0.0
  9
$PUCSYDIR
 10
0.0
 20
1.0
 30
0.0
  9
$PUCSORTHOREF
  2

  9
$PUCSORTHOVIEW
 70
     0
  9
$PUCSORGTOP
 10
0.0
 20
0.0
 30
0.0
  9
$PUCSORGBOTTOM
 10
0.0
 20
0.0
 30
0.0
  9
$PUCSORGLEFT
 10
0.0
 20
0.0
 30
0.0
  9
$PUCSORGRIGHT
 10
0.0
 20
0.0
 30
0.0
  9
$PUCSORGFRONT
 10
0.0
 20
0.0
 30
0.0
  9
$PUCSORGBACK
 10
0.0
 20
0.0
 30
0.0
  9
$USERI1
 70
     0
  9
$USERI2
 70
     0
  9
$USERI3
 70
     0
  9
$USERI4
 70
     0
  9
$USERI5
 70
     0
  9
$USERR1
 40
0.0
  9
$USERR2
 40
0.0
  9
$USERR3
 40
0.0
  9
$USERR4
 40
0.0
  9
$USERR5
 40
0.0
  9
$WORLDVIEW
 70
     1
  9
$SHADEDGE
 70
     3
  9
$SHADEDIF
 70
    70
  9
$TILEMODE
 70
     1
  9
$MAXACTVP
 70
    16
  9
$PINSBASE
 10
0.0
 20
0.0
 30
0.0
  9
$PLIMCHECK
 70
     0
  9
$PEXTMIN
 10
1.000000000000000E+20
 20
1.000000000000000E+20
 30
1.000000000000000E+20
  9
$PEXTMAX
 10
-1.000000000000000E+20
 20
-1.000000000000000E+20
 30
-1.000000000000000E+20
  9
$PLIMMIN
 10
0.0
 20
0.0
  9
$PLIMMAX
 10
420.0
 20
297.0
  9
$UNITMODE
 70
     0
  9
$VISRETAIN
 70
     0
  9
$PLINEGEN
 70
     0
  9
$PSLTSCALE
 70
     0
  9
$TREEDEPTH
 70
  3020
  9
$CMLSTYLE
  2
STANDARD
  9
$CMLJUST
 70
     0
  9
$CMLSCALE
 40
1.0
  9
$PROXYGRAPHICS
 70
     1
  9
$MEASUREMENT
 70
     1
  9
$CELWEIGHT
370
    -1
  9
$ENDCAPS
280
     0
  9
$JOINSTYLE
280
     0
  9
$LWDISPLAY
290
     0
  9
$INSUNITS
 70
     0
  9
$HYPERLINKBASE
  1

  9
$STYLESHEET
  1
inabass.ctb
  9
$XEDIT
290
     1
  9
$CEPSNTYPE
380
     0
  9
$PSTYLEMODE
290
     1
  9
$FINGERPRINTGUID
  2
{3B57B35E-7D77-4BBF-81B7-6C583B9EB24C}
  9
$VERSIONGUID
  2
{54C9A4A4-C4CE-4908-B8EE-DE45190E36FD}
  9
$EXTNAMES
290
     1
  9
$PSVPSCALE
 40
0.0
  9
$OLESTARTUP
290
     0
  0
ENDSEC
  0
SECTION
  2
CLASSES
  0
CLASS
  1
ACDBDICTIONARYWDFLT
  2
AcDbDictionaryWithDefault
  3
ObjectDBX Classes
 90
        0
280
     0
281
     0
  0
CLASS
  1
DICTIONARYVAR
  2
AcDbDictionaryVar
  3
ObjectDBX Classes
 90
        0
280
     0
281
     0
  0
CLASS
  1
ACDBPLACEHOLDER
  2
AcDbPlaceHolder
  3
ObjectDBX Classes
 90
        0
280
     0
281
     0
  0
CLASS
  1
LAYOUT
  2
AcDbLayout
  3
ObjectDBX Classes
 90
        0
280
     0
281
     0
  0
ENDSEC
  0
SECTION
  2
TABLES
  0
TABLE
  2
VPORT
  5
746D
330
0
100
AcDbSymbolTable
 70
     2
  0
VPORT
  5
221D2
330
746D
100
AcDbSymbolTableRecord
100
AcDbViewportTableRecord
  2
*Active
 70
     0
 10
0.0
 20
0.0
 11
1.0
 21
1.0
 12
8223.761025238502
 22
5704.964688982432
 13
0.0
 23
0.0
 14
10.0
 24
10.0
 15
10.0
 25
10.0
 16
0.0
 26
0.0
 36
1.0
 17
0.0
 27
0.0
 37
0.0
 40
11502.70190371654
 41
1.706919945725915
 42
50.0
 43
0.0
 44
0.0
 50
0.0
 51
0.0
 71
     0
 72
     0
 73
     1
 74
     0
 75
     0
 76
     0
 77
     0
 78
     0
281
     0
 65
     1
110
0.0
120
0.0
130
0.0
111
1.0
121
0.0
131
0.0
112
0.0
122
1.0
132
0.0
 79
     0
146
0.0
  0
ENDTAB
  0
TABLE
  2
LTYPE
  5
746A
330
0
100
AcDbSymbolTable
 70
     3
  0
LTYPE
  5
7477
330
746A
100
AcDbSymbolTableRecord
100
AcDbLinetypeTableRecord
  2
BYBLOCK
 70
     0
  3

 72
    65
 73
     0
 40
0.0
  0
LTYPE
  5
7478
330
746A
100
AcDbSymbolTableRecord
100
AcDbLinetypeTableRecord
  2
BYLAYER
 70
     0
  3

 72
    65
 73
     0
 40
0.0
  0
LTYPE
  5
7479
330
746A
100
AcDbSymbolTableRecord
100
AcDbLinetypeTableRecord
  2
CONTINUOUS
 70
     0
  3
Solid line
 72
    65
 73
     0
 40
0.0
  0
LTYPE
  5
7816
330
746A
100
AcDbSymbolTableRecord
100
AcDbLinetypeTableRecord
  2
CENTER
 70
     0
  3
____ _ ____ _ ____ _ ____ _ ____ _ ____ _ ____ 
 72
    65
 73
     4
 40
2.0
 49
1.25
 74
     0
 49
-0.25
 74
     0
 49
0.25
 74
     0
 49
-0.25
 74
     0
  0
LTYPE
  5
781B
330
746A
100
AcDbSymbolTableRecord
100
AcDbLinetypeTableRecord
  2
PHANTOM
 70
     0
  3
______  __  __  ______  __  __  ______  __  __ 
 72
    65
 73
     6
 40
2.5
 49
1.25
 74
     0
 49
-0.25
 74
     0
 49
0.25
 74
     0
 49
-0.25
 74
     0
 49
0.25
 74
     0
 49
-0.25
 74
     0
  0
ENDTAB
  0
TABLE
  2
LAYER
  5
7467
102
{ACAD_XDICTIONARY
360
2175A
102
}
330
0
100
AcDbSymbolTable
 70
    10
  0
LAYER
  5
7474
330
7467
100
AcDbSymbolTableRecord
100
AcDbLayerTableRecord
  2
0
 70
     0
 62
     7
  6
CONTINUOUS
370
    -3
390
159AE
  0
LAYER
  5
DEB2
330
7467
100
AcDbSymbolTableRecord
100
AcDbLayerTableRecord
  2
センター
 70
     0
 62
     3
  6
CENTER
370
    -3
390
159AE
  0
LAYER
  5
DEB3
330
7467
100
AcDbSymbolTableRecord
100
AcDbLayerTableRecord
  2
寸法
 70
     0
 62
     4
  6
CONTINUOUS
370
    -3
390
159AE
  0
LAYER
  5
DEB4
330
7467
100
AcDbSymbolTableRecord
100
AcDbLayerTableRecord
  2
部品1
 70
     0
 62
     7
  6
CONTINUOUS
370
    -3
390
159AE
  0
LAYER
  5
DEB5
330
7467
100
AcDbSymbolTableRecord
100
AcDbLayerTableRecord
  2
補助
 70
     0
 62
    -1
  6
CONTINUOUS
370
    -3
390
159AE
  0
LAYER
  5
DEB6
330
7467
100
AcDbSymbolTableRecord
100
AcDbLayerTableRecord
  2
文字
 70
     0
 62
     7
  6
CONTINUOUS
370
    -3
390
159AE
  0
LAYER
  5
F255
330
7467
100
AcDbSymbolTableRecord
100
AcDbLayerTableRecord
  2
DEFPOINTS
 70
     0
 62
     7
  6
CONTINUOUS
290
     0
370
    -3
390
159AE
  0
LAYER
  5
10B54
330
7467
100
AcDbSymbolTableRecord
100
AcDbLayerTableRecord
  2
仕様書枠
 70
     0
 62
   230
  6
CONTINUOUS
370
    -3
390
159AE
  0
LAYER
  5
1173F
330
7467
100
AcDbSymbolTableRecord
100
AcDbLayerTableRecord
  2
細線
 70
     0
 62
     5
  6
CONTINUOUS
370
    -3
390
159AE
  0
LAYER
  5
12CC4
330
7467
100
AcDbSymbolTableRecord
100
AcDbLayerTableRecord
  2
想像線
 70
     0
 62
     6
  6
PHANTOM
370
    -3
390
159AE
  0
ENDTAB
  0
TABLE
  2
STYLE
  5
7468
330
0
100
AcDbSymbolTable
 70
     3
  0
STYLE
  5
7475
330
7468
100
AcDbSymbolTableRecord
100
AcDbTextStyleTableRecord
  2
STANDARD
 70
     0
 40
0.0
 41
1.0
 50
0.0
 71
     0
 42
4.0
  3
txt
  4
C:\AutoCAD LT\bigfont.shx
  0
STYLE
  5
F706
330
7468
100
AcDbSymbolTableRecord
100
AcDbTextStyleTableRecord
  2
STYLE1
 70
     0
 40
0.0
 41
1.0
 50
0.0
 71
     0
 42
100.0
  3
isocp.shx
  4
bigfont.shx
  0
STYLE
  5
103BF
330
7468
100
AcDbSymbolTableRecord
100
AcDbTextStyleTableRecord
  2
STYLE2
 70
     0
 40
0.0
 41
1.0
 50
0.0
 71
     0
 42
100.0
  3
MS PGothic.ttf
  4

1001
ACAD
1000
MS PGothic
1071
    32818
  0
ENDTAB
  0
TABLE
  2
VIEW
  5
746B
330
0
100
AcDbSymbolTable
 70
     0
  0
ENDTAB
  0
TABLE
  2
UCS
  5
746C
330
0
100
AcDbSymbolTable
 70
     0
  0
ENDTAB
  0
TABLE
  2
APPID
  5
746E
330
0
100
AcDbSymbolTable
 70
     6
  0
APPID
  5
7476
330
746E
100
AcDbSymbolTableRecord
100
AcDbRegAppTableRecord
  2
ACAD
 70
     0
  0
APPID
  5
DEA9
330
746E
100
AcDbSymbolTableRecord
100
AcDbRegAppTableRecord
  2
CONTENTBLOCKICON
 70
     0
  0
APPID
  5
DEAA
330
746E
100
AcDbSymbolTableRecord
100
AcDbRegAppTableRecord
  2
CONTENTBLOCKDESCRIPTION
 70
     0
  0
APPID
  5
E71D
330
746E
100
AcDbSymbolTableRecord
100
AcDbRegAppTableRecord
  2
CONTENTTABDATA
 70
     0
  0
APPID
  5
E71E
330
746E
100
AcDbSymbolTableRecord
100
AcDbRegAppTableRecord
  2
CONTENTCURRENTTAB
 70
     0
  0
APPID
  5
F3BA
330
746E
100
AcDbSymbolTableRecord
100
AcDbRegAppTableRecord
  2
DRAWINGVARIABLESXDATA
 70
     0
  0
ENDTAB
  0
TABLE
  2
DIMSTYLE
  5
746F
330
0
100
AcDbSymbolTable
 70
     1
100
AcDbDimStyleTable
 71
     1
340
F71F
  0
DIMSTYLE
105
F71F
102
{ACAD_REACTORS
330
21AAA
330
206A3
330
206A2
330
20342
330
1FEC1
330
1FE4B
330
1F249
330
1F248
330
1F11C
330
1E98B
330
1E96D
330
1E701
330
1D946
330
1D942
330
1D93F
330
1D93E
330
1D934
330
1D933
330
1D92C
330
1D927
330
1D926
330
1D925
330
1D920
330
1D91D
330
1D91C
330
1D91B
330
220D0
330
220E5
330
220E6
330
220EF
330
22070
330
22076
330
22182
330
2218F
102
}
330
746F
100
AcDbSymbolTableRecord
100
AcDbDimStyleTableRecord
  2
INABA_S40G
 70
     0
 40
40.0
 41
2.5
 42
0.5
 43
7.0
 44
1.5
 73
     0
 74
     0
 77
     3
 78
     8
140
3.0
141
0.0
143
0.0394
147
1.0
172
     1
173
     1
174
     1
178
     7
271
     1
288
     1
340
F706
341
F770
343
F770
344
F770
  0
ENDTAB
  0
TABLE
  2
BLOCK_RECORD
  5
7466
330
0
100
AcDbSymbolTable
 70
    43
  0
BLOCK_RECORD
  5
747D
330
7466
100
AcDbSymbolTableRecord
100
AcDbBlockTableRecord
  2
*MODEL_SPACE
340
159B3
  0
BLOCK_RECORD
  5
747A
330
7466
100
AcDbSymbolTableRecord
100
AcDbBlockTableRecord
  2
*PAPER_SPACE
340
159B4
  0
BLOCK_RECORD
  5
F770
330
7466
100
AcDbSymbolTableRecord
100
AcDbBlockTableRecord
  2
_DOTSMALL
340
0
102
{BLKREFS
331
21BC0
331
21BC1
331
21BCB
331
21BCC
331
21BD4
331
21BD5
331
21BDD
331
21BDE
331
21BE6
331
21BE7
331
21BEF
331
21BF0
331
21C02
331
21C03
331
21C0C
331
21C0D
331
21C15
331
21C16
331
21C1E
331
21C1F
331
21C27
331
21C28
331
21C30
331
21C31
331
21C42
331
21C43
331
21C4C
331
21C4D
331
21C57
331
21C58
331
21C61
331
21C62
331
21C6C
331
21C6D
331
21C76
331
21C77
331
21CA8
331
21CA9
331
21CB2
331
21CB3
331
21CBB
331
21CBC
331
21CC4
331
21CC5
331
21D2D
331
21D2E
331
21D36
331
21D37
331
21D68
331
21D69
331
21E0B
331
21E0C
331
21E14
331
21E15
331
21E28
331
21E29
331
21E85
331
21E86
331
21E77
331
21E78
331
21E6B
331
21E6C
331
21E5F
331
21E60
331
21E53
331
21E54
331
21E47
331
21E48
331
2214D
331
2214E
331
22156
331
22157
331
2215F
331
22160
331
22168
331
22169
331
22173
331
22174
331
2217C
331
2217D
331
221AC
331
221AD
331
221C2
331
221C3
102
}
  0
BLOCK_RECORD
  5
1DA44
330
7466
100
AcDbSymbolTableRecord
100
AcDbBlockTableRecord
  2
*D1
340
0
  0
BLOCK_RECORD
  5
1DA51
330
7466
100
AcDbSymbolTableRecord
100
AcDbBlockTableRecord
  2
*D2
340
0
  0
BLOCK_RECORD
  5
1DA5E
330
7466
100
AcDbSymbolTableRecord
100
AcDbBlockTableRecord
  2
*D3
340
0
  0
BLOCK_RECORD
  5
1DA69
330
7466
100
AcDbSymbolTableRecord
100
AcDbBlockTableRecord
  2
*D4
340
0
  0
BLOCK_RECORD
  5
1DA74
330
7466
100
AcDbSymbolTableRecord
100
AcDbBlockTableRecord
  2
*D5
340
0
  0
BLOCK_RECORD
  5
1DA81
330
7466
100
AcDbSymbolTableRecord
100
AcDbBlockTableRecord
  2
*D6
340
0
  0
BLOCK_RECORD
  5
1DA8E
330
7466
100
AcDbSymbolTableRecord
100
AcDbBlockTableRecord
  2
*D7
340
0
  0
BLOCK_RECORD
  5
1DAA5
330
7466
100
AcDbSymbolTableRecord
100
AcDbBlockTableRecord
  2
*D8
340
0
  0
BLOCK_RECORD
  5
1DABE
330
7466
100
AcDbSymbolTableRecord
100
AcDbBlockTableRecord
  2
*D9
340
0
  0
BLOCK_RECORD
  5
1DACB
330
7466
100
AcDbSymbolTableRecord
100
AcDbBlockTableRecord
  2
*D10
340
0
  0
BLOCK_RECORD
  5
1DAD9
330
7466
100
AcDbSymbolTableRecord
100
AcDbBlockTableRecord
  2
*D11
340
0
  0
BLOCK_RECORD
  5
1DAE6
330
7466
100
AcDbSymbolTableRecord
100
AcDbBlockTableRecord
  2
*D12
340
0
  0
BLOCK_RECORD
  5
1DAF3
330
7466
100
AcDbSymbolTableRecord
100
AcDbBlockTableRecord
  2
*D13
340
0
  0
BLOCK_RECORD
  5
1E9D0
330
7466
100
AcDbSymbolTableRecord
100
AcDbBlockTableRecord
  2
*D14
340
0
  0
BLOCK_RECORD
  5
1EA32
330
7466
100
AcDbSymbolTableRecord
100
AcDbBlockTableRecord
  2
*D15
340
0
  0
BLOCK_RECORD
  5
1F24A
330
7466
100
AcDbSymbolTableRecord
100
AcDbBlockTableRecord
  2
*D16
340
0
  0
BLOCK_RECORD
  5
1F255
330
7466
100
AcDbSymbolTableRecord
100
AcDbBlockTableRecord
  2
*D17
340
0
  0
BLOCK_RECORD
  5
1FE4C
330
7466
100
AcDbSymbolTableRecord
100
AcDbBlockTableRecord
  2
*D18
340
0
  0
BLOCK_RECORD
  5
20343
330
7466
100
AcDbSymbolTableRecord
100
AcDbBlockTableRecord
  2
*D19
340
0
  0
BLOCK_RECORD
  5
20706
330
7466
100
AcDbSymbolTableRecord
100
AcDbBlockTableRecord
  2
*D20
340
0
  0
BLOCK_RECORD
  5
20713
330
7466
100
AcDbSymbolTableRecord
100
AcDbBlockTableRecord
  2
*D21
340
0
  0
BLOCK_RECORD
  5
21AAB
330
7466
100
AcDbSymbolTableRecord
100
AcDbBlockTableRecord
  2
*D28
340
0
  0
BLOCK_RECORD
  5
22100
330
7466
100
AcDbSymbolTableRecord
100
AcDbBlockTableRecord
  2
*D35
340
0
  0
BLOCK_RECORD
  5
2210C
330
7466
100
AcDbSymbolTableRecord
100
AcDbBlockTableRecord
  2
*D36
340
0
  0
BLOCK_RECORD
  5
22118
330
7466
100
AcDbSymbolTableRecord
100
AcDbBlockTableRecord
  2
*D37
340
0
  0
BLOCK_RECORD
  5
22124
330
7466
100
AcDbSymbolTableRecord
100
AcDbBlockTableRecord
  2
*D38
340
0
  0
BLOCK_RECORD
  5
22130
330
7466
100
AcDbSymbolTableRecord
100
AcDbBlockTableRecord
  2
*D39
340
0
  0
BLOCK_RECORD
  5
2213E
330
7466
100
AcDbSymbolTableRecord
100
AcDbBlockTableRecord
  2
*D40
340
0
  0
BLOCK_RECORD
  5
22183
330
7466
100
AcDbSymbolTableRecord
100
AcDbBlockTableRecord
  2
*D41
340
0
  0
BLOCK_RECORD
  5
22190
330
7466
100
AcDbSymbolTableRecord
100
AcDbBlockTableRecord
  2
*D42
340
0
  0
ENDTAB
  0
ENDSEC
  0
SECTION
  2
BLOCKS
  0
BLOCK
  5
7489
330
747D
100
AcDbEntity
  8
0
100
AcDbBlockBegin
  2
*MODEL_SPACE
 70
     0
 10
0.0
 20
0.0
 30
0.0
  3
*MODEL_SPACE
  1

  0
ENDBLK
  5
748A
330
747D
100
AcDbEntity
  8
0
100
AcDbBlockEnd
  0
BLOCK
  5
7487
330
747A
100
AcDbEntity
 67
     1
  8
0
100
AcDbBlockBegin
  2
*PAPER_SPACE
 70
     0
 10
0.0
 20
0.0
 30
0.0
  3
*PAPER_SPACE
  1

  0
ENDBLK
  5
7488
330
747A
100
AcDbEntity
 67
     1
  8
0
100
AcDbBlockEnd
  0
BLOCK
  5
F771
330
F770
100
AcDbEntity
  8
0
 48
50.0
100
AcDbBlockBegin
  2
_DOTSMALL
 70
     0
 10
0.0
 20
0.0
 30
0.0
  3
_DOTSMALL
  1

  0
LWPOLYLINE
  5
F772
330
F770
100
AcDbEntity
  8
0
  6
ByBlock
 62
     0
 48
50.0
100
AcDbPolyline
 90
        2
 70
     1
 43
0.5
 10
-0.0625
 20
0.0
 42
1.0
 10
0.0625
 20
0.0
 42
1.0
  0
ENDBLK
  5
F776
330
F770
100
AcDbEntity
  8
0
 48
50.0
100
AcDbBlockEnd
  0
BLOCK
  5
1DA4F
330
1DA44
100
AcDbEntity
  8
0
 48
50.0
100
AcDbBlockBegin
  2
*D1
 70
     1
 10
0.0
 20
0.0
 30
0.0
  3
*D1
  1

  0
LINE
  5
21D64
330
1DA44
100
AcDbEntity
  8
寸法
 62
     0
 48
50.0
370
    -2
100
AcDbLine
 10
7165.157340025515
 20
5422.919036112858
 30
0.0
 11
7421.864589901614
 21
5422.919036112858
 31
0.0
  0
LINE
  5
21D65
330
1DA44
100
AcDbEntity
  8
寸法
 62
     0
 48
50.0
370
    -2
100
AcDbLine
 10
7165.157340025515
 20
5532.919036112863
 30
0.0
 11
7421.864589901614
 21
5532.919036112863
 31
0.0
  0
LINE
  5
21D66
330
1DA44
100
AcDbEntity
  8
寸法
 62
     0
 48
50.0
370
    -2
100
AcDbLine
 10
7361.864589901614
 20
5422.919036112858
 30
0.0
 11
7361.864589901614
 21
5532.919036112863
 31
0.0
  0
LINE
  5
21D67
330
1DA44
100
AcDbEntity
  8
寸法
 62
     0
 48
50.0
370
    -2
100
AcDbLine
 10
7361.864589901614
 20
5532.919036112863
 30
0.0
 11
7361.864589901614
 21
5918.01352430184
 31
0.0
  0
INSERT
  5
21D68
330
1DA44
100
AcDbEntity
  8
寸法
 62
     0
 48
50.0
370
    -2
100
AcDbBlockReference
  2
_DOTSMALL
 10
7361.864589901614
 20
5422.919036112858
 30
0.0
 41
100.0
 42
100.0
 43
100.0
 50
270.0
  0
INSERT
  5
21D69
330
1DA44
100
AcDbEntity
  8
寸法
 62
     0
 48
50.0
370
    -2
100
AcDbBlockReference
  2
_DOTSMALL
 10
7361.864589901614
 20
5532.919036112863
 30
0.0
 41
100.0
 42
100.0
 43
100.0
 50
90.0
  0
MTEXT
  5
21D6A
330
1DA44
100
AcDbEntity
  8
寸法
 62
     7
 48
50.0
100
AcDbMText
 10
7261.864589901612
 20
5793.966280207353
 30
0.0
 40
120.0
 41
0.0
 71
     5
 72
     1
  1
\A1;110
  7
STYLE1
 11
0.0000000000000001
 21
1.0
 31
0.0
 73
     1
 44
1.0
1001
ACAD
1000
MTEXTBEGIN
1070
    73
1070
     1
1070
    44
1040
1.0
1070
    74
1070
     0
1000
MTEXTEND
  0
POINT
  5
21D6B
330
1DA44
100
AcDbEntity
  8
DEFPOINTS
 62
     0
 48
50.0
100
AcDbPoint
 10
7145.157340025516
 20
5422.919036112858
 30
0.0
  0
POINT
  5
21D6C
330
1DA44
100
AcDbEntity
  8
DEFPOINTS
 62
     0
 48
50.0
100
AcDbPoint
 10
7145.157340025516
 20
5532.919036112863
 30
0.0
  0
POINT
  5
21D6D
330
1DA44
100
AcDbEntity
  8
DEFPOINTS
 62
     0
 48
50.0
100
AcDbPoint
 10
7361.864589901614
 20
5532.919036112863
 30
0.0
  0
ENDBLK
  5
1DA50
330
1DA44
100
AcDbEntity
  8
0
 48
50.0
100
AcDbBlockEnd
  0
BLOCK
  5
1DA5C
330
1DA51
100
AcDbEntity
  8
0
 48
50.0
100
AcDbBlockBegin
  2
*D2
 70
     1
 10
0.0
 20
0.0
 30
0.0
  3
*D2
  1

  0
LINE
  5
21E07
330
1DA51
100
AcDbEntity
  8
寸法
 62
     0
 48
50.0
370
    -2
100
AcDbLine
 10
7165.157340025515
 20
5422.91903611286
 30
0.0
 11
7421.864589901615
 21
5422.91903611286
 31
0.0
  0
LINE
  5
21E08
330
1DA51
100
AcDbEntity
  8
寸法
 62
     0
 48
50.0
370
    -2
100
AcDbLine
 10
7165.157340025515
 20
5302.919036112878
 30
0.0
 11
7421.864589901615
 21
5302.919036112878
 31
0.0
  0
LINE
  5
21E09
330
1DA51
100
AcDbEntity
  8
寸法
 62
     0
 48
50.0
370
    -2
100
AcDbLine
 10
7361.864589901614
 20
5422.91903611286
 30
0.0
 11
7361.864589901614
 21
5302.919036112878
 31
0.0
  0
LINE
  5
21E0A
330
1DA51
100
AcDbEntity
  8
寸法
 62
     0
 48
50.0
370
    -2
100
AcDbLine
 10
7361.864589901614
 20
5302.919036112878
 30
0.0
 11
7361.864589901614
 21
4930.824547923901
 31
0.0
  0
INSERT
  5
21E0B
330
1DA51
100
AcDbEntity
  8
寸法
 62
     0
 48
50.0
370
    -2
100
AcDbBlockReference
  2
_DOTSMALL
 10
7361.864589901614
 20
5422.91903611286
 30
0.0
 41
100.0
 42
100.0
 43
100.0
 50
90.0
  0
INSERT
  5
21E0C
330
1DA51
100
AcDbEntity
  8
寸法
 62
     0
 48
50.0
370
    -2
100
AcDbBlockReference
  2
_DOTSMALL
 10
7361.864589901614
 20
5302.919036112878
 30
0.0
 41
100.0
 42
100.0
 43
100.0
 50
270.0
  0
MTEXT
  5
21E0D
330
1DA51
100
AcDbEntity
  8
寸法
 62
     7
 48
50.0
100
AcDbMText
 10
7261.852778877993
 20
5066.871792018391
 30
0.0
 40
120.0
 41
0.0
 71
     5
 72
     1
  1
\A1;120
  7
STYLE1
 11
0.0000000000000001
 21
1.0
 31
0.0
 73
     1
 44
1.0
1001
ACAD
1000
MTEXTBEGIN
1070
    73
1070
     1
1070
    44
1040
1.0
1070
    74
1070
     0
1000
MTEXTEND
  0
POINT
  5
21E0E
330
1DA51
100
AcDbEntity
  8
DEFPOINTS
 62
     0
 48
50.0
100
AcDbPoint
 10
7145.157340025516
 20
5422.91903611286
 30
0.0
  0
POINT
  5
21E0F
330
1DA51
100
AcDbEntity
  8
DEFPOINTS
 62
     0
 48
50.0
100
AcDbPoint
 10
7145.157340025516
 20
5302.919036112878
 30
0.0
  0
POINT
  5
21E10
330
1DA51
100
AcDbEntity
  8
DEFPOINTS
 62
     0
 48
50.0
100
AcDbPoint
 10
7361.864589901614
 20
5302.919036112878
 30
0.0
  0
ENDBLK
  5
1DA5D
330
1DA51
100
AcDbEntity
  8
0
 48
50.0
100
AcDbBlockEnd
  0
BLOCK
  5
1DA67
330
1DA5E
100
AcDbEntity
  8
0
 48
50.0
100
AcDbBlockBegin
  2
*D3
 70
     1
 10
0.0
 20
0.0
 30
0.0
  3
*D3
  1

  0
LINE
  5
21CC1
330
1DA5E
100
AcDbEntity
  8
寸法
 62
     0
 48
50.0
370
    -2
100
AcDbLine
 10
9012.157340025515
 20
7469.91903611286
 30
0.0
 11
9012.157340025515
 21
8336.250847072712
 31
0.0
  0
LINE
  5
21CC2
330
1DA5E
100
AcDbEntity
  8
寸法
 62
     0
 48
50.0
370
    -2
100
AcDbLine
 10
7038.157340025515
 20
7469.91903611286
 30
0.0
 11
7038.157340025515
 21
8336.250847072712
 31
0.0
  0
LINE
  5
21CC3
330
1DA5E
100
AcDbEntity
  8
寸法
 62
     0
 48
50.0
370
    -2
100
AcDbLine
 10
9012.157340025515
 20
8276.250847072711
 30
0.0
 11
7038.157340025515
 21
8276.250847072711
 31
0.0
  0
INSERT
  5
21CC4
330
1DA5E
100
AcDbEntity
  8
寸法
 62
     0
 48
50.0
370
    -2
100
AcDbBlockReference
  2
_DOTSMALL
 10
9012.157340025515
 20
8276.250847072711
 30
0.0
 41
100.0
 42
100.0
 43
100.0
  0
INSERT
  5
21CC5
330
1DA5E
100
AcDbEntity
  8
寸法
 62
     0
 48
50.0
370
    -2
100
AcDbBlockReference
  2
_DOTSMALL
 10
7038.157340025515
 20
8276.250847072711
 30
0.0
 41
100.0
 42
100.0
 43
100.0
 50
180.0
  0
MTEXT
  5
21CC6
330
1DA5E
100
AcDbEntity
  8
寸法
 62
     7
 48
50.0
100
AcDbMText
 10
8025.157340025515
 20
8376.250847072711
 30
0.0
 40
120.0
 41
0.0
 71
     5
 72
     1
  1
\A1;1974
  7
STYLE1
 73
     1
 44
1.0
1001
ACAD
1000
MTEXTBEGIN
1070
    73
1070
     1
1070
    44
1040
1.0
1070
    74
1070
     0
1000
MTEXTEND
  0
POINT
  5
21CC7
330
1DA5E
100
AcDbEntity
  8
DEFPOINTS
 62
     0
 48
50.0
100
AcDbPoint
 10
9012.157340025515
 20
7449.919036112861
 30
0.0
  0
POINT
  5
21CC8
330
1DA5E
100
AcDbEntity
  8
DEFPOINTS
 62
     0
 48
50.0
100
AcDbPoint
 10
7038.157340025515
 20
7449.919036112861
 30
0.0
  0
POINT
  5
21CC9
330
1DA5E
100
AcDbEntity
  8
DEFPOINTS
 62
     0
 48
50.0
100
AcDbPoint
 10
7038.157340025515
 20
8276.250847072711
 30
0.0
  0
ENDBLK
  5
1DA68
330
1DA5E
100
AcDbEntity
  8
0
 48
50.0
100
AcDbBlockEnd
  0
BLOCK
  5
1DA72
330
1DA69
100
AcDbEntity
  8
0
 48
50.0
100
AcDbBlockBegin
  2
*D4
 70
     1
 10
0.0
 20
0.0
 30
0.0
  3
*D4
  1

  0
LINE
  5
21CB8
330
1DA69
100
AcDbEntity
  8
寸法
 62
     0
 48
50.0
370
    -2
100
AcDbLine
 10
6915.157340025513
 20
7542.919036112859
 30
0.0
 11
6915.157340025513
 21
8548.711542589549
 31
0.0
  0
LINE
  5
21CB9
330
1DA69
100
AcDbEntity
  8
寸法
 62
     0
 48
50.0
370
    -2
100
AcDbLine
 10
9135.157340025514
 20
7542.919036112862
 30
0.0
 11
9135.157340025514
 21
8548.711542589549
 31
0.0
  0
LINE
  5
21CBA
330
1DA69
100
AcDbEntity
  8
寸法
 62
     0
 48
50.0
370
    -2
100
AcDbLine
 10
6915.157340025513
 20
8488.711542589548
 30
0.0
 11
9135.157340025514
 21
8488.711542589548
 31
0.0
  0
INSERT
  5
21CBB
330
1DA69
100
AcDbEntity
  8
寸法
 62
     0
 48
50.0
370
    -2
100
AcDbBlockReference
  2
_DOTSMALL
 10
6915.157340025513
 20
8488.711542589548
 30
0.0
 41
100.0
 42
100.0
 43
100.0
 50
180.0
  0
INSERT
  5
21CBC
330
1DA69
100
AcDbEntity
  8
寸法
 62
     0
 48
50.0
370
    -2
100
AcDbBlockReference
  2
_DOTSMALL
 10
9135.157340025514
 20
8488.711542589548
 30
0.0
 41
100.0
 42
100.0
 43
100.0
  0
MTEXT
  5
21CBD
330
1DA69
100
AcDbEntity
  8
寸法
 62
     7
 48
50.0
100
AcDbMText
 10
8025.157340025513
 20
8588.72335361317
 30
0.0
 40
120.0
 41
0.0
 71
     5
 72
     1
  1
\A1;2220
  7
STYLE1
 73
     1
 44
1.0
1001
ACAD
1000
MTEXTBEGIN
1070
    73
1070
     1
1070
    44
1040
1.0
1070
    74
1070
     0
1000
MTEXTEND
  0
POINT
  5
21CBE
330
1DA69
100
AcDbEntity
  8
DEFPOINTS
 62
     0
 48
50.0
100
AcDbPoint
 10
6915.157340025513
 20
7522.919036112859
 30
0.0
  0
POINT
  5
21CBF
330
1DA69
100
AcDbEntity
  8
DEFPOINTS
 62
     0
 48
50.0
100
AcDbPoint
 10
9135.157340025514
 20
7522.919036112861
 30
0.0
  0
POINT
  5
21CC0
330
1DA69
100
AcDbEntity
  8
DEFPOINTS
 62
     0
 48
50.0
100
AcDbPoint
 10
9135.157340025514
 20
8488.711542589548
 30
0.0
  0
ENDBLK
  5
1DA73
330
1DA69
100
AcDbEntity
  8
0
 48
50.0
100
AcDbBlockEnd
  0
BLOCK
  5
1DA7F
330
1DA74
100
AcDbEntity
  8
0
 48
50.0
100
AcDbBlockBegin
  2
*D5
 70
     1
 10
0.0
 20
0.0
 30
0.0
  3
*D5
  1

  0
LINE
  5
21CAE
330
1DA74
100
AcDbEntity
  8
寸法
 62
     0
 48
50.0
370
    -2
100
AcDbLine
 10
7038.157340025515
 20
7469.91903611286
 30
0.0
 11
7038.157340025515
 21
8336.250847072712
 31
0.0
  0
LINE
  5
21CAF
330
1DA74
100
AcDbEntity
  8
寸法
 62
     0
 48
50.0
370
    -2
100
AcDbLine
 10
6915.157340025513
 20
7542.919036112859
 30
0.0
 11
6915.157340025513
 21
8336.250847072712
 31
0.0
  0
LINE
  5
21CB0
330
1DA74
100
AcDbEntity
  8
寸法
 62
     0
 48
50.0
370
    -2
100
AcDbLine
 10
7038.157340025515
 20
8276.250847072711
 30
0.0
 11
6915.157340025513
 21
8276.250847072711
 31
0.0
  0
LINE
  5
21CB1
330
1DA74
100
AcDbEntity
  8
寸法
 62
     0
 48
50.0
370
    -2
100
AcDbLine
 10
6915.157340025513
 20
8276.250847072711
 30
0.0
 11
6538.186777277037
 21
8276.250847072711
 31
0.0
  0
INSERT
  5
21CB2
330
1DA74
100
AcDbEntity
  8
寸法
 62
     0
 48
50.0
370
    -2
100
AcDbBlockReference
  2
_DOTSMALL
 10
7038.157340025515
 20
8276.250847072711
 30
0.0
 41
100.0
 42
100.0
 43
100.0
  0
INSERT
  5
21CB3
330
1DA74
100
AcDbEntity
  8
寸法
 62
     0
 48
50.0
370
    -2
100
AcDbBlockReference
  2
_DOTSMALL
 10
6915.157340025513
 20
8276.250847072711
 30
0.0
 41
100.0
 42
100.0
 43
100.0
 50
180.0
  0
MTEXT
  5
21CB4
330
1DA74
100
AcDbEntity
  8
寸法
 62
     7
 48
50.0
100
AcDbMText
 10
6676.672058651274
 20
8376.262658096333
 30
0.0
 40
120.0
 41
0.0
 71
     5
 72
     1
  1
\A1;123
  7
STYLE1
 73
     1
 44
1.0
1001
ACAD
1000
MTEXTBEGIN
1070
    73
1070
     1
1070
    44
1040
1.0
1070
    74
1070
     0
1000
MTEXTEND
  0
POINT
  5
21CB5
330
1DA74
100
AcDbEntity
  8
DEFPOINTS
 62
     0
 48
50.0
100
AcDbPoint
 10
7038.157340025515
 20
7449.919036112861
 30
0.0
  0
POINT
  5
21CB6
330
1DA74
100
AcDbEntity
  8
DEFPOINTS
 62
     0
 48
50.0
100
AcDbPoint
 10
6915.157340025513
 20
7522.919036112859
 30
0.0
  0
POINT
  5
21CB7
330
1DA74
100
AcDbEntity
  8
DEFPOINTS
 62
     0
 48
50.0
100
AcDbPoint
 10
6915.157340025513
 20
8276.250847072711
 30
0.0
  0
ENDBLK
  5
1DA80
330
1DA74
100
AcDbEntity
  8
0
 48
50.0
100
AcDbBlockEnd
  0
BLOCK
  5
1DA8C
330
1DA81
100
AcDbEntity
  8
0
 48
50.0
100
AcDbBlockBegin
  2
*D6
 70
     1
 10
0.0
 20
0.0
 30
0.0
  3
*D6
  1

  0
LINE
  5
21CA3
330
1DA81
100
AcDbEntity
  8
寸法
 62
     0
 48
50.0
370
    -2
100
AcDbLine
 10
6870.157340025511
 20
8296.250847072711
 30
0.0
 11
6870.157340025511
 21
8548.711542589549
 31
0.0
  0
LINE
  5
21CA4
330
1DA81
100
AcDbEntity
  8
寸法
 62
     0
 48
50.0
370
    -2
100
AcDbLine
 10
6915.157340025515
 20
7691.190236682782
 30
0.0
 11
6915.157340025515
 21
8548.711542589549
 31
0.0
  0
LINE
  5
21CA5
330
1DA81
100
AcDbEntity
  8
寸法
 62
     0
 48
50.0
370
    -2
100
AcDbLine
 10
6870.157340025511
 20
8488.71154258955
 30
0.0
 11
6770.157340025511
 21
8488.71154258955
 31
0.0
  0
LINE
  5
21CA6
330
1DA81
100
AcDbEntity
  8
寸法
 62
     0
 48
50.0
370
    -2
100
AcDbLine
 10
6915.157340025515
 20
8488.71154258955
 30
0.0
 11
7015.157340025514
 21
8488.71154258955
 31
0.0
  0
LINE
  5
21CA7
330
1DA81
100
AcDbEntity
  8
寸法
 62
     0
 48
50.0
370
    -2
100
AcDbLine
 10
6870.157340025511
 20
8488.71154258955
 30
0.0
 11
6915.157340025515
 21
8488.71154258955
 31
0.0
  0
INSERT
  5
21CA8
330
1DA81
100
AcDbEntity
  8
寸法
 62
     0
 48
50.0
370
    -2
100
AcDbBlockReference
  2
_DOTSMALL
 10
6870.157340025511
 20
8488.71154258955
 30
0.0
 41
100.0
 42
100.0
 43
100.0
  0
INSERT
  5
21CA9
330
1DA81
100
AcDbEntity
  8
寸法
 62
     0
 48
50.0
370
    -2
100
AcDbBlockReference
  2
_DOTSMALL
 10
6915.157340025515
 20
8488.71154258955
 30
0.0
 41
100.0
 42
100.0
 43
100.0
 50
180.0
  0
MTEXT
  5
21CAA
330
1DA81
100
AcDbEntity
  8
寸法
 62
     7
 48
50.0
100
AcDbMText
 10
6892.657340025514
 20
8588.71154258955
 30
0.0
 40
120.0
 41
0.0
 71
     5
 72
     1
  1
\A1;a
  7
STYLE1
 73
     1
 44
1.0
1001
ACAD
1000
MTEXTBEGIN
1070
    73
1070
     1
1070
    44
1040
1.0
1070
    74
1070
     0
1000
MTEXTEND
  0
POINT
  5
21CAB
330
1DA81
100
AcDbEntity
  8
DEFPOINTS
 62
     0
 48
50.0
100
AcDbPoint
 10
6870.157340025511
 20
8276.250847072711
 30
0.0
  0
POINT
  5
21CAC
330
1DA81
100
AcDbEntity
  8
DEFPOINTS
 62
     0
 48
50.0
100
AcDbPoint
 10
6915.157340025515
 20
7671.190236682781
 30
0.0
  0
POINT
  5
21CAD
330
1DA81
100
AcDbEntity
  8
DEFPOINTS
 62
     0
 48
50.0
100
AcDbPoint
 10
6915.157340025515
 20
8488.71154258955
 30
0.0
  0
ENDBLK
  5
1DA8D
330
1DA81
100
AcDbEntity
  8
0
 48
50.0
100
AcDbBlockEnd
  0
BLOCK
  5
1DA98
330
1DA8E
100
AcDbEntity
  8
0
 48
50.0
100
AcDbBlockBegin
  2
*D7
 70
     1
 10
0.0
 20
0.0
 30
0.0
  3
*D7
  1

  0
LINE
  5
21D33
330
1DA8E
100
AcDbEntity
  8
寸法
 62
     0
 48
50.0
370
    -2
100
AcDbLine
 10
6968.157340025515
 20
7399.919036112861
 30
0.0
 11
6359.215074011694
 21
7399.919036112861
 31
0.0
  0
LINE
  5
21D34
330
1DA8E
100
AcDbEntity
  8
寸法
 62
     0
 48
50.0
370
    -2
100
AcDbLine
 10
6968.157340025523
 20
5425.919036112862
 30
0.0
 11
6359.215074011693
 21
5425.919036112862
 31
0.0
  0
LINE
  5
21D35
330
1DA8E
100
AcDbEntity
  8
寸法
 62
     0
 48
50.0
370
    -2
100
AcDbLine
 10
6419.215074011694
 20
7399.919036112861
 30
0.0
 11
6419.215074011693
 21
5425.919036112862
 31
0.0
  0
INSERT
  5
21D36
330
1DA8E
100
AcDbEntity
  8
寸法
 62
     0
 48
50.0
370
    -2
100
AcDbBlockReference
  2
_DOTSMALL
 10
6419.215074011694
 20
7399.919036112861
 30
0.0
 41
100.0
 42
100.0
 43
100.0
 50
90.0
  0
INSERT
  5
21D37
330
1DA8E
100
AcDbEntity
  8
寸法
 62
     0
 48
50.0
370
    -2
100
AcDbBlockReference
  2
_DOTSMALL
 10
6419.215074011693
 20
5425.919036112862
 30
0.0
 41
100.0
 42
100.0
 43
100.0
 50
270.0
  0
MTEXT
  5
21D38
330
1DA8E
100
AcDbEntity
  8
寸法
 62
     7
 48
50.0
100
AcDbMText
 10
6319.215074011692
 20
6407.92716086084
 30
0.0
 40
120.0
 41
0.0
 71
     5
 72
     1
  1
\A1;1974
  7
STYLE1
 11
0.0000000000000001
 21
1.0
 31
0.0
 73
     1
 44
1.0
1001
ACAD
1000
MTEXTBEGIN
1070
    73
1070
     1
1070
    44
1040
1.0
1070
    74
1070
     0
1000
MTEXTEND
  0
POINT
  5
21D39
330
1DA8E
100
AcDbEntity
  8
DEFPOINTS
 62
     0
 48
50.0
100
AcDbPoint
 10
6988.157340025515
 20
7399.919036112861
 30
0.0
  0
POINT
  5
21D3A
330
1DA8E
100
AcDbEntity
  8
DEFPOINTS
 62
     0
 48
50.0
100
AcDbPoint
 10
6988.157340025523
 20
5425.919036112862
 30
0.0
  0
POINT
  5
21D3B
330
1DA8E
100
AcDbEntity
  8
DEFPOINTS
 62
     0
 48
50.0
100
AcDbPoint
 10
6419.215074011693
 20
5425.919036112862
 30
0.0
  0
ENDBLK
  5
1DA99
330
1DA8E
100
AcDbEntity
  8
0
 48
50.0
100
AcDbBlockEnd
  0
BLOCK
  5
1DAB0
330
1DAA5
100
AcDbEntity
  8
0
 48
50.0
100
AcDbBlockBegin
  2
*D8
 70
     1
 10
0.0
 20
0.0
 30
0.0
  3
*D8
  1

  0
LINE
  5
21D29
330
1DAA5
100
AcDbEntity
  8
寸法
 62
     0
 48
50.0
370
    -2
100
AcDbLine
 10
6968.157340025523
 20
5425.919036112862
 30
0.0
 11
6359.215074011694
 21
5425.919036112862
 31
0.0
  0
LINE
  5
21D2A
330
1DAA5
100
AcDbEntity
  8
寸法
 62
     0
 48
50.0
370
    -2
100
AcDbLine
 10
6895.157340025516
 20
5302.91903611286
 30
0.0
 11
6359.215074011694
 21
5302.91903611286
 31
0.0
  0
LINE
  5
21D2B
330
1DAA5
100
AcDbEntity
  8
寸法
 62
     0
 48
50.0
370
    -2
100
AcDbLine
 10
6419.215074011694
 20
5425.919036112862
 30
0.0
 11
6419.215074011694
 21
5302.91903611286
 31
0.0
  0
LINE
  5
21D2C
330
1DAA5
100
AcDbEntity
  8
寸法
 62
     0
 48
50.0
370
    -2
100
AcDbLine
 10
6419.215074011694
 20
5302.91903611286
 30
0.0
 11
6419.215074011694
 21
4925.948473364382
 31
0.0
  0
INSERT
  5
21D2D
330
1DAA5
100
AcDbEntity
  8
寸法
 62
     0
 48
50.0
370
    -2
100
AcDbBlockReference
  2
_DOTSMALL
 10
6419.215074011694
 20
5425.919036112862
 30
0.0
 41
100.0
 42
100.0
 43
100.0
 50
90.0
  0
INSERT
  5
21D2E
330
1DAA5
100
AcDbEntity
  8
寸法
 62
     0
 48
50.0
370
    -2
100
AcDbBlockReference
  2
_DOTSMALL
 10
6419.215074011694
 20
5302.91903611286
 30
0.0
 41
100.0
 42
100.0
 43
100.0
 50
270.0
  0
MTEXT
  5
21D2F
330
1DAA5
100
AcDbEntity
  8
寸法
 62
     7
 48
50.0
100
AcDbMText
 10
6319.203262988072
 20
5064.433754738622
 30
0.0
 40
120.0
 41
0.0
 71
     5
 72
     1
  1
\A1;123
  7
STYLE1
 11
0.0000000000000001
 21
1.0
 31
0.0
 73
     1
 44
1.0
1001
ACAD
1000
MTEXTBEGIN
1070
    73
1070
     1
1070
    44
1040
1.0
1070
    74
1070
     0
1000
MTEXTEND
  0
POINT
  5
21D30
330
1DAA5
100
AcDbEntity
  8
DEFPOINTS
 62
     0
 48
50.0
100
AcDbPoint
 10
6988.157340025523
 20
5425.919036112862
 30
0.0
  0
POINT
  5
21D31
330
1DAA5
100
AcDbEntity
  8
DEFPOINTS
 62
     0
 48
50.0
100
AcDbPoint
 10
6915.157340025515
 20
5302.91903611286
 30
0.0
  0
POINT
  5
21D32
330
1DAA5
100
AcDbEntity
  8
DEFPOINTS
 62
     0
 48
50.0
100
AcDbPoint
 10
6419.215074011694
 20
5302.91903611286
 30
0.0
  0
ENDBLK
  5
1DAB1
330
1DAA5
100
AcDbEntity
  8
0
 48
50.0
100
AcDbBlockEnd
  0
BLOCK
  5
1DAC9
330
1DABE
100
AcDbEntity
  8
0
 48
50.0
100
AcDbBlockBegin
  2
*D9
 70
     1
 10
0.0
 20
0.0
 30
0.0
  3
*D9
  1

  0
LINE
  5
21C72
330
1DABE
100
AcDbEntity
  8
寸法
 62
     0
 48
50.0
370
    -2
100
AcDbLine
 10
6895.157340025514
 20
7522.91903611286
 30
0.0
 11
6359.215074011693
 21
7522.91903611286
 31
0.0
  0
LINE
  5
21C73
330
1DABE
100
AcDbEntity
  8
寸法
 62
     0
 48
50.0
370
    -2
100
AcDbLine
 10
6968.157340025515
 20
7399.919036112861
 30
0.0
 11
6359.215074011693
 21
7399.919036112861
 31
0.0
  0
LINE
  5
21C74
330
1DABE
100
AcDbEntity
  8
寸法
 62
     0
 48
50.0
370
    -2
100
AcDbLine
 10
6419.215074011693
 20
7399.919036112861
 30
0.0
 11
6419.215074011693
 21
7522.91903611286
 31
0.0
  0
LINE
  5
21C75
330
1DABE
100
AcDbEntity
  8
寸法
 62
     0
 48
50.0
370
    -2
100
AcDbLine
 10
6419.215074011693
 20
7522.91903611286
 30
0.0
 11
6419.215074011693
 21
7899.889598861339
 31
0.0
  0
INSERT
  5
21C76
330
1DABE
100
AcDbEntity
  8
寸法
 62
     0
 48
50.0
370
    -2
100
AcDbBlockReference
  2
_DOTSMALL
 10
6419.215074011693
 20
7399.919036112861
 30
0.0
 41
100.0
 42
100.0
 43
100.0
 50
270.0
  0
INSERT
  5
21C77
330
1DABE
100
AcDbEntity
  8
寸法
 62
     0
 48
50.0
370
    -2
100
AcDbBlockReference
  2
_DOTSMALL
 10
6419.215074011693
 20
7522.91903611286
 30
0.0
 41
100.0
 42
100.0
 43
100.0
 50
90.0
  0
MTEXT
  5
21C78
330
1DABE
100
AcDbEntity
  8
寸法
 62
     7
 48
50.0
100
AcDbMText
 10
6319.203262988071
 20
7761.4043174871
 30
0.0
 40
120.0
 41
0.0
 71
     5
 72
     1
  1
\A1;123
  7
STYLE1
 11
0.0000000000000001
 21
1.0
 31
0.0
 73
     1
 44
1.0
1001
ACAD
1000
MTEXTBEGIN
1070
    73
1070
     1
1070
    44
1040
1.0
1070
    74
1070
     0
1000
MTEXTEND
  0
POINT
  5
21C79
330
1DABE
100
AcDbEntity
  8
DEFPOINTS
 62
     0
 48
50.0
100
AcDbPoint
 10
6915.157340025515
 20
7522.91903611286
 30
0.0
  0
POINT
  5
21C7A
330
1DABE
100
AcDbEntity
  8
DEFPOINTS
 62
     0
 48
50.0
100
AcDbPoint
 10
6988.157340025515
 20
7399.919036112861
 30
0.0
  0
POINT
  5
21C7B
330
1DABE
100
AcDbEntity
  8
DEFPOINTS
 62
     0
 48
50.0
100
AcDbPoint
 10
6419.215074011693
 20
7399.919036112861
 30
0.0
  0
ENDBLK
  5
1DACA
330
1DABE
100
AcDbEntity
  8
0
 48
50.0
100
AcDbBlockEnd
  0
BLOCK
  5
1DAD7
330
1DACB
100
AcDbEntity
  8
0
 48
50.0
100
AcDbBlockBegin
  2
*D10
 70
     1
 10
0.0
 20
0.0
 30
0.0
  3
*D10
  1

  0
LINE
  5
21C67
330
1DACB
100
AcDbEntity
  8
寸法
 62
     0
 48
50.0
370
    -2
100
AcDbLine
 10
6399.215074011694
 20
7597.91903611286
 30
0.0
 11
6113.722271873726
 21
7597.919036112862
 31
0.0
  0
LINE
  5
21C68
330
1DACB
100
AcDbEntity
  8
寸法
 62
     0
 48
50.0
370
    -2
100
AcDbLine
 10
6895.157340025514
 20
7522.91903611286
 30
0.0
 11
6113.722271873726
 21
7522.919036112861
 31
0.0
  0
LINE
  5
21C69
330
1DACB
100
AcDbEntity
  8
寸法
 62
     0
 48
50.0
370
    -2
100
AcDbLine
 10
6173.722271873725
 20
7597.91903611286
 30
0.0
 11
6173.722271873725
 21
7697.91903611286
 31
0.0
  0
LINE
  5
21C6A
330
1DACB
100
AcDbEntity
  8
寸法
 62
     0
 48
50.0
370
    -2
100
AcDbLine
 10
6173.722271873725
 20
7522.91903611286
 30
0.0
 11
6173.722271873725
 21
7422.91903611286
 31
0.0
  0
LINE
  5
21C6B
330
1DACB
100
AcDbEntity
  8
寸法
 62
     0
 48
50.0
370
    -2
100
AcDbLine
 10
6173.722271873725
 20
7597.91903611286
 30
0.0
 11
6173.722271873725
 21
7522.91903611286
 31
0.0
  0
INSERT
  5
21C6C
330
1DACB
100
AcDbEntity
  8
寸法
 62
     0
 48
50.0
370
    -2
100
AcDbBlockReference
  2
_DOTSMALL
 10
6173.722271873725
 20
7597.91903611286
 30
0.0
 41
100.0
 42
100.0
 43
100.0
 50
270.0
  0
INSERT
  5
21C6D
330
1DACB
100
AcDbEntity
  8
寸法
 62
     0
 48
50.0
370
    -2
100
AcDbBlockReference
  2
_DOTSMALL
 10
6173.722271873725
 20
7522.91903611286
 30
0.0
 41
100.0
 42
100.0
 43
100.0
 50
90.0
  0
MTEXT
  5
21C6E
330
1DACB
100
AcDbEntity
  8
寸法
 62
     7
 48
50.0
100
AcDbMText
 10
6073.722271873725
 20
7560.419036112863
 30
0.0
 40
120.0
 41
0.0
 71
     5
 72
     1
  1
\A1;c
  7
STYLE1
 11
0.0000000000000001
 21
1.0
 31
0.0
 73
     1
 44
1.0
1001
ACAD
1000
MTEXTBEGIN
1070
    73
1070
     1
1070
    44
1040
1.0
1070
    74
1070
     0
1000
MTEXTEND
  0
POINT
  5
21C6F
330
1DACB
100
AcDbEntity
  8
DEFPOINTS
 62
     0
 48
50.0
100
AcDbPoint
 10
6419.215074011694
 20
7597.91903611286
 30
0.0
  0
POINT
  5
21C70
330
1DACB
100
AcDbEntity
  8
DEFPOINTS
 62
     0
 48
50.0
100
AcDbPoint
 10
6915.157340025515
 20
7522.91903611286
 30
0.0
  0
POINT
  5
21C71
330
1DACB
100
AcDbEntity
  8
DEFPOINTS
 62
     0
 48
50.0
100
AcDbPoint
 10
6173.722271873725
 20
7522.91903611286
 30
0.0
  0
ENDBLK
  5
1DAD8
330
1DACB
100
AcDbEntity
  8
0
 48
50.0
100
AcDbBlockEnd
  0
BLOCK
  5
1DAE4
330
1DAD9
100
AcDbEntity
  8
0
 48
50.0
100
AcDbBlockBegin
  2
*D11
 70
     1
 10
0.0
 20
0.0
 30
0.0
  3
*D11
  1

  0
LINE
  5
21C5D
330
1DAD9
100
AcDbEntity
  8
寸法
 62
     0
 48
50.0
370
    -2
100
AcDbLine
 10
9135.157340025514
 20
7542.919036112862
 30
0.0
 11
9135.157340025514
 21
8336.250847072712
 31
0.0
  0
LINE
  5
21C5E
330
1DAD9
100
AcDbEntity
  8
寸法
 62
     0
 48
50.0
370
    -2
100
AcDbLine
 10
9012.157340025515
 20
7469.91903611286
 30
0.0
 11
9012.157340025515
 21
8336.250847072712
 31
0.0
  0
LINE
  5
21C5F
330
1DAD9
100
AcDbEntity
  8
寸法
 62
     0
 48
50.0
370
    -2
100
AcDbLine
 10
9012.157340025515
 20
8276.250847072711
 30
0.0
 11
9135.157340025514
 21
8276.250847072711
 31
0.0
  0
LINE
  5
21C60
330
1DAD9
100
AcDbEntity
  8
寸法
 62
     0
 48
50.0
370
    -2
100
AcDbLine
 10
9135.157340025514
 20
8276.250847072711
 30
0.0
 11
9512.127902773992
 21
8276.250847072711
 31
0.0
  0
INSERT
  5
21C61
330
1DAD9
100
AcDbEntity
  8
寸法
 62
     0
 48
50.0
370
    -2
100
AcDbBlockReference
  2
_DOTSMALL
 10
9012.157340025515
 20
8276.250847072711
 30
0.0
 41
100.0
 42
100.0
 43
100.0
 50
180.0
  0
INSERT
  5
21C62
330
1DAD9
100
AcDbEntity
  8
寸法
 62
     0
 48
50.0
370
    -2
100
AcDbBlockReference
  2
_DOTSMALL
 10
9135.157340025514
 20
8276.250847072711
 30
0.0
 41
100.0
 42
100.0
 43
100.0
  0
MTEXT
  5
21C63
330
1DAD9
100
AcDbEntity
  8
寸法
 62
     7
 48
50.0
100
AcDbMText
 10
9373.642621399753
 20
8376.262658096333
 30
0.0
 40
120.0
 41
0.0
 71
     5
 72
     1
  1
\A1;123
  7
STYLE1
 73
     1
 44
1.0
1001
ACAD
1000
MTEXTBEGIN
1070
    73
1070
     1
1070
    44
1040
1.0
1070
    74
1070
     0
1000
MTEXTEND
  0
POINT
  5
21C64
330
1DAD9
100
AcDbEntity
  8
DEFPOINTS
 62
     0
 48
50.0
100
AcDbPoint
 10
9135.157340025514
 20
7522.919036112861
 30
0.0
  0
POINT
  5
21C65
330
1DAD9
100
AcDbEntity
  8
DEFPOINTS
 62
     0
 48
50.0
100
AcDbPoint
 10
9012.157340025515
 20
7449.919036112861
 30
0.0
  0
POINT
  5
21C66
330
1DAD9
100
AcDbEntity
  8
DEFPOINTS
 62
     0
 48
50.0
100
AcDbPoint
 10
9012.157340025515
 20
8276.250847072711
 30
0.0
  0
ENDBLK
  5
1DAE5
330
1DAD9
100
AcDbEntity
  8
0
 48
50.0
100
AcDbBlockEnd
  0
BLOCK
  5
1DAF1
330
1DAE6
100
AcDbEntity
  8
0
 48
50.0
100
AcDbBlockBegin
  2
*D12
 70
     1
 10
0.0
 20
0.0
 30
0.0
  3
*D12
  1

  0
LINE
  5
21C52
330
1DAE6
100
AcDbEntity
  8
寸法
 62
     0
 48
50.0
370
    -2
100
AcDbLine
 10
9135.157340025514
 20
7691.190236682782
 30
0.0
 11
9135.157340025514
 21
8548.711542589549
 31
0.0
  0
LINE
  5
21C53
330
1DAE6
100
AcDbEntity
  8
寸法
 62
     0
 48
50.0
370
    -2
100
AcDbLine
 10
9180.157340025514
 20
8296.250847072711
 30
0.0
 11
9180.157340025514
 21
8548.711542589549
 31
0.0
  0
LINE
  5
21C54
330
1DAE6
100
AcDbEntity
  8
寸法
 62
     0
 48
50.0
370
    -2
100
AcDbLine
 10
9135.157340025514
 20
8488.711542589548
 30
0.0
 11
9035.157340025515
 21
8488.711542589548
 31
0.0
  0
LINE
  5
21C55
330
1DAE6
100
AcDbEntity
  8
寸法
 62
     0
 48
50.0
370
    -2
100
AcDbLine
 10
9180.157340025514
 20
8488.711542589548
 30
0.0
 11
9280.157340025516
 21
8488.711542589548
 31
0.0
  0
LINE
  5
21C56
330
1DAE6
100
AcDbEntity
  8
寸法
 62
     0
 48
50.0
370
    -2
100
AcDbLine
 10
9135.157340025514
 20
8488.711542589548
 30
0.0
 11
9180.157340025514
 21
8488.711542589548
 31
0.0
  0
INSERT
  5
21C57
330
1DAE6
100
AcDbEntity
  8
寸法
 62
     0
 48
50.0
370
    -2
100
AcDbBlockReference
  2
_DOTSMALL
 10
9135.157340025514
 20
8488.711542589548
 30
0.0
 41
100.0
 42
100.0
 43
100.0
  0
INSERT
  5
21C58
330
1DAE6
100
AcDbEntity
  8
寸法
 62
     0
 48
50.0
370
    -2
100
AcDbBlockReference
  2
_DOTSMALL
 10
9180.157340025514
 20
8488.711542589548
 30
0.0
 41
100.0
 42
100.0
 43
100.0
 50
180.0
  0
MTEXT
  5
21C59
330
1DAE6
100
AcDbEntity
  8
寸法
 62
     7
 48
50.0
100
AcDbMText
 10
9157.657340025513
 20
8588.711542589548
 30
0.0
 40
120.0
 41
0.0
 71
     5
 72
     1
  1
\A1;a
  7
STYLE1
 73
     1
 44
1.0
1001
ACAD
1000
MTEXTBEGIN
1070
    73
1070
     1
1070
    44
1040
1.0
1070
    74
1070
     0
1000
MTEXTEND
  0
POINT
  5
21C5A
330
1DAE6
100
AcDbEntity
  8
DEFPOINTS
 62
     0
 48
50.0
100
AcDbPoint
 10
9135.157340025514
 20
7671.190236682781
 30
0.0
  0
POINT
  5
21C5B
330
1DAE6
100
AcDbEntity
  8
DEFPOINTS
 62
     0
 48
50.0
100
AcDbPoint
 10
9180.157340025514
 20
8276.250847072711
 30
0.0
  0
POINT
  5
21C5C
330
1DAE6
100
AcDbEntity
  8
DEFPOINTS
 62
     0
 48
50.0
100
AcDbPoint
 10
9180.157340025514
 20
8488.711542589548
 30
0.0
  0
ENDBLK
  5
1DAF2
330
1DAE6
100
AcDbEntity
  8
0
 48
50.0
100
AcDbBlockEnd
  0
BLOCK
  5
1DAFE
330
1DAF3
100
AcDbEntity
  8
0
 48
50.0
100
AcDbBlockBegin
  2
*D13
 70
     1
 10
0.0
 20
0.0
 30
0.0
  3
*D13
  1

  0
LINE
  5
21C48
330
1DAF3
100
AcDbEntity
  8
寸法
 62
     0
 48
50.0
370
    -2
100
AcDbLine
 10
9135.157340025514
 20
7022.91903611287
 30
0.0
 11
9135.157340025514
 21
6924.422404093454
 31
0.0
  0
LINE
  5
21C49
330
1DAF3
100
AcDbEntity
  8
寸法
 62
     0
 48
50.0
370
    -2
100
AcDbLine
 10
9015.157340025513
 20
7097.560052264253
 30
0.0
 11
9015.157340025513
 21
6924.422404093454
 31
0.0
  0
LINE
  5
21C4A
330
1DAF3
100
AcDbEntity
  8
寸法
 62
     0
 48
50.0
370
    -2
100
AcDbLine
 10
9015.157340025513
 20
6984.422404093454
 30
0.0
 11
9135.157340025514
 21
6984.422404093454
 31
0.0
  0
LINE
  5
21C4B
330
1DAF3
100
AcDbEntity
  8
寸法
 62
     0
 48
50.0
370
    -2
100
AcDbLine
 10
9135.157340025514
 20
6984.422404093454
 30
0.0
 11
9507.251828214492
 21
6984.422404093454
 31
0.0
  0
INSERT
  5
21C4C
330
1DAF3
100
AcDbEntity
  8
寸法
 62
     0
 48
50.0
370
    -2
100
AcDbBlockReference
  2
_DOTSMALL
 10
9015.157340025513
 20
6984.422404093454
 30
0.0
 41
100.0
 42
100.0
 43
100.0
 50
180.0
  0
INSERT
  5
21C4D
330
1DAF3
100
AcDbEntity
  8
寸法
 62
     0
 48
50.0
370
    -2
100
AcDbBlockReference
  2
_DOTSMALL
 10
9135.157340025514
 20
6984.422404093454
 30
0.0
 41
100.0
 42
100.0
 43
100.0
  0
MTEXT
  5
21C4E
330
1DAF3
100
AcDbEntity
  8
寸法
 62
     7
 48
50.0
100
AcDbMText
 10
9371.204584120004
 20
7084.434215117075
 30
0.0
 40
120.0
 41
0.0
 71
     5
 72
     1
  1
\A1;120
  7
STYLE1
 73
     1
 44
1.0
1001
ACAD
1000
MTEXTBEGIN
1070
    73
1070
     1
1070
    44
1040
1.0
1070
    74
1070
     0
1000
MTEXTEND
  0
POINT
  5
21C4F
330
1DAF3
100
AcDbEntity
  8
DEFPOINTS
 62
     0
 48
50.0
100
AcDbPoint
 10
9135.157340025514
 20
7042.919036112869
 30
0.0
  0
POINT
  5
21C50
330
1DAF3
100
AcDbEntity
  8
DEFPOINTS
 62
     0
 48
50.0
100
AcDbPoint
 10
9015.157340025513
 20
7117.560052264252
 30
0.0
  0
POINT
  5
21C51
330
1DAF3
100
AcDbEntity
  8
DEFPOINTS
 62
     0
 48
50.0
100
AcDbPoint
 10
9015.157340025513
 20
6984.422404093454
 30
0.0
  0
ENDBLK
  5
1DAFF
330
1DAF3
100
AcDbEntity
  8
0
 48
50.0
100
AcDbBlockEnd
  0
BLOCK
  5
1E9D9
330
1E9D0
100
AcDbEntity
  8
0
 48
50.0
100
AcDbBlockBegin
  2
*D14
 70
     1
 10
0.0
 20
0.0
 30
0.0
  3
*D14
  1

  0
LINE
  5
21C3F
330
1E9D0
100
AcDbEntity
  8
寸法
 62
     0
 48
50.0
370
    -2
100
AcDbLine
 10
7749.157340025513
 20
6787.91903611286
 30
0.0
 11
8027.690754844583
 21
6787.91903611286
 31
0.0
  0
LINE
  5
21C40
330
1E9D0
100
AcDbEntity
  8
寸法
 62
     0
 48
50.0
370
    -2
100
AcDbLine
 10
7698.657340025523
 20
7522.919036112863
 30
0.0
 11
8027.690754844583
 21
7522.919036112863
 31
0.0
  0
LINE
  5
21C41
330
1E9D0
100
AcDbEntity
  8
寸法
 62
     0
 48
50.0
370
    -2
100
AcDbLine
 10
7967.690754844582
 20
6787.91903611286
 30
0.0
 11
7967.690754844582
 21
7522.919036112863
 31
0.0
  0
INSERT
  5
21C42
330
1E9D0
100
AcDbEntity
  8
寸法
 62
     0
 48
50.0
370
    -2
100
AcDbBlockReference
  2
_DOTSMALL
 10
7967.690754844582
 20
6787.91903611286
 30
0.0
 41
100.0
 42
100.0
 43
100.0
 50
270.0
  0
INSERT
  5
21C43
330
1E9D0
100
AcDbEntity
  8
寸法
 62
     0
 48
50.0
370
    -2
100
AcDbBlockReference
  2
_DOTSMALL
 10
7967.690754844582
 20
7522.919036112863
 30
0.0
 41
100.0
 42
100.0
 43
100.0
 50
90.0
  0
MTEXT
  5
21C44
330
1E9D0
100
AcDbEntity
  8
寸法
 62
     7
 48
50.0
100
AcDbMText
 10
7867.690754844581
 20
7155.419036112864
 30
0.0
 40
120.0
 41
0.0
 71
     5
 72
     1
  1
\A1;735
  7
STYLE1
 11
0.0000000000000001
 21
1.0
 31
0.0
 73
     1
 44
1.0
1001
ACAD
1000
MTEXTBEGIN
1070
    73
1070
     1
1070
    44
1040
1.0
1070
    74
1070
     0
1000
MTEXTEND
  0
POINT
  5
21C45
330
1E9D0
100
AcDbEntity
  8
DEFPOINTS
 62
     0
 48
50.0
100
AcDbPoint
 10
7729.157340025515
 20
6787.91903611286
 30
0.0
  0
POINT
  5
21C46
330
1E9D0
100
AcDbEntity
  8
DEFPOINTS
 62
     0
 48
50.0
100
AcDbPoint
 10
7678.657340025523
 20
7522.919036112863
 30
0.0
  0
POINT
  5
21C47
330
1E9D0
100
AcDbEntity
  8
DEFPOINTS
 62
     0
 48
50.0
100
AcDbPoint
 10
7967.690754844582
 20
7522.919036112863
 30
0.0
  0
ENDBLK
  5
1E9DA
330
1E9D0
100
AcDbEntity
  8
0
 48
50.0
100
AcDbBlockEnd
  0
BLOCK
  5
1EA3C
330
1EA32
100
AcDbEntity
  8
0
 48
50.0
100
AcDbBlockBegin
  2
*D15
 70
     1
 10
0.0
 20
0.0
 30
0.0
  3
*D15
  1

  0
LINE
  5
21E11
330
1EA32
100
AcDbEntity
  8
寸法
 62
     0
 48
50.0
370
    -2
100
AcDbLine
 10
7698.657340025525
 20
5302.919036112878
 30
0.0
 11
8027.690754844593
 21
5302.919036112878
 31
0.0
  0
LINE
  5
21E12
330
1EA32
100
AcDbEntity
  8
寸法
 62
     0
 48
50.0
370
    -2
100
AcDbLine
 10
7749.157340025513
 20
6037.919036112869
 30
0.0
 11
8027.690754844593
 21
6037.919036112869
 31
0.0
  0
LINE
  5
21E13
330
1EA32
100
AcDbEntity
  8
寸法
 62
     0
 48
50.0
370
    -2
100
AcDbLine
 10
7967.690754844594
 20
5302.919036112878
 30
0.0
 11
7967.690754844594
 21
6037.919036112869
 31
0.0
  0
INSERT
  5
21E14
330
1EA32
100
AcDbEntity
  8
寸法
 62
     0
 48
50.0
370
    -2
100
AcDbBlockReference
  2
_DOTSMALL
 10
7967.690754844594
 20
5302.919036112878
 30
0.0
 41
100.0
 42
100.0
 43
100.0
 50
270.0
  0
INSERT
  5
21E15
330
1EA32
100
AcDbEntity
  8
寸法
 62
     0
 48
50.0
370
    -2
100
AcDbBlockReference
  2
_DOTSMALL
 10
7967.690754844594
 20
6037.919036112869
 30
0.0
 41
100.0
 42
100.0
 43
100.0
 50
90.0
  0
MTEXT
  5
21E16
330
1EA32
100
AcDbEntity
  8
寸法
 62
     7
 48
50.0
100
AcDbMText
 10
7867.690754844592
 20
5670.419036112869
 30
0.0
 40
120.0
 41
0.0
 71
     5
 72
     1
  1
\A1;735
  7
STYLE1
 11
0.0000000000000001
 21
1.0
 31
0.0
 73
     1
 44
1.0
1001
ACAD
1000
MTEXTBEGIN
1070
    73
1070
     1
1070
    44
1040
1.0
1070
    74
1070
     0
1000
MTEXTEND
  0
POINT
  5
21E17
330
1EA32
100
AcDbEntity
  8
DEFPOINTS
 62
     0
 48
50.0
100
AcDbPoint
 10
7678.657340025525
 20
5302.919036112878
 30
0.0
  0
POINT
  5
21E18
330
1EA32
100
AcDbEntity
  8
DEFPOINTS
 62
     0
 48
50.0
100
AcDbPoint
 10
7729.157340025515
 20
6037.919036112869
 30
0.0
  0
POINT
  5
21E19
330
1EA32
100
AcDbEntity
  8
DEFPOINTS
 62
     0
 48
50.0
100
AcDbPoint
 10
7967.690754844594
 20
6037.919036112869
 30
0.0
  0
ENDBLK
  5
1EA3D
330
1EA32
100
AcDbEntity
  8
0
 48
50.0
100
AcDbBlockEnd
  0
BLOCK
  5
1F253
330
1F24A
100
AcDbEntity
  8
0
 48
50.0
100
AcDbBlockBegin
  2
*D16
 70
     1
 10
0.0
 20
0.0
 30
0.0
  3
*D16
  1

  0
LINE
  5
21C24
330
1F24A
100
AcDbEntity
  8
寸法
 62
     0
 48
50.0
370
    -2
100
AcDbLine
 10
7679.157340025515
 20
6857.919036112861
 30
0.0
 11
7679.157340025515
 21
8109.828801761191
 31
0.0
  0
LINE
  5
21C25
330
1F24A
100
AcDbEntity
  8
寸法
 62
     0
 48
50.0
370
    -2
100
AcDbLine
 10
6915.157340025513
 20
7542.919036112862
 30
0.0
 11
6915.157340025513
 21
8109.828801761191
 31
0.0
  0
LINE
  5
21C26
330
1F24A
100
AcDbEntity
  8
寸法
 62
     0
 48
50.0
370
    -2
100
AcDbLine
 10
7679.157340025515
 20
8049.82880176119
 30
0.0
 11
6915.157340025513
 21
8049.82880176119
 31
0.0
  0
INSERT
  5
21C27
330
1F24A
100
AcDbEntity
  8
寸法
 62
     0
 48
50.0
370
    -2
100
AcDbBlockReference
  2
_DOTSMALL
 10
7679.157340025515
 20
8049.82880176119
 30
0.0
 41
100.0
 42
100.0
 43
100.0
  0
INSERT
  5
21C28
330
1F24A
100
AcDbEntity
  8
寸法
 62
     0
 48
50.0
370
    -2
100
AcDbBlockReference
  2
_DOTSMALL
 10
6915.157340025513
 20
8049.82880176119
 30
0.0
 41
100.0
 42
100.0
 43
100.0
 50
180.0
  0
MTEXT
  5
21C29
330
1F24A
100
AcDbEntity
  8
寸法
 62
     7
 48
50.0
100
AcDbMText
 10
7297.157340025512
 20
8149.82880176119
 30
0.0
 40
120.0
 41
0.0
 71
     5
 72
     1
  1
\A1;764
  7
STYLE1
 73
     1
 44
1.0
1001
ACAD
1000
MTEXTBEGIN
1070
    73
1070
     1
1070
    44
1040
1.0
1070
    74
1070
     0
1000
MTEXTEND
  0
POINT
  5
21C2A
330
1F24A
100
AcDbEntity
  8
DEFPOINTS
 62
     0
 48
50.0
100
AcDbPoint
 10
7679.157340025515
 20
6837.919036112861
 30
0.0
  0
POINT
  5
21C2B
330
1F24A
100
AcDbEntity
  8
DEFPOINTS
 62
     0
 48
50.0
100
AcDbPoint
 10
6915.157340025513
 20
7522.919036112863
 30
0.0
  0
POINT
  5
21C2C
330
1F24A
100
AcDbEntity
  8
DEFPOINTS
 62
     0
 48
50.0
100
AcDbPoint
 10
6915.157340025513
 20
8049.82880176119
 30
0.0
  0
ENDBLK
  5
1F254
330
1F24A
100
AcDbEntity
  8
0
 48
50.0
100
AcDbBlockEnd
  0
BLOCK
  5
1F25F
330
1F255
100
AcDbEntity
  8
0
 48
50.0
100
AcDbBlockBegin
  2
*D17
 70
     1
 10
0.0
 20
0.0
 30
0.0
  3
*D17
  1

  0
LINE
  5
21C2D
330
1F255
100
AcDbEntity
  8
寸法
 62
     0
 48
50.0
370
    -2
100
AcDbLine
 10
9135.157340025511
 20
7542.919036112862
 30
0.0
 11
9135.157340025511
 21
8108.090767068199
 31
0.0
  0
LINE
  5
21C2E
330
1F255
100
AcDbEntity
  8
寸法
 62
     0
 48
50.0
370
    -2
100
AcDbLine
 10
8371.157340025515
 20
6857.919036112861
 30
0.0
 11
8371.157340025515
 21
8108.090767068199
 31
0.0
  0
LINE
  5
21C2F
330
1F255
100
AcDbEntity
  8
寸法
 62
     0
 48
50.0
370
    -2
100
AcDbLine
 10
9135.157340025511
 20
8048.090767068199
 30
0.0
 11
8371.157340025515
 21
8048.090767068199
 31
0.0
  0
INSERT
  5
21C30
330
1F255
100
AcDbEntity
  8
寸法
 62
     0
 48
50.0
370
    -2
100
AcDbBlockReference
  2
_DOTSMALL
 10
9135.157340025511
 20
8048.090767068199
 30
0.0
 41
100.0
 42
100.0
 43
100.0
  0
INSERT
  5
21C31
330
1F255
100
AcDbEntity
  8
寸法
 62
     0
 48
50.0
370
    -2
100
AcDbBlockReference
  2
_DOTSMALL
 10
8371.157340025515
 20
8048.090767068199
 30
0.0
 41
100.0
 42
100.0
 43
100.0
 50
180.0
  0
MTEXT
  5
21C32
330
1F255
100
AcDbEntity
  8
寸法
 62
     7
 48
50.0
100
AcDbMText
 10
8711.927475207966
 20
8148.090767068199
 30
0.0
 40
120.0
 41
0.0
 71
     5
 72
     1
  1
\A1;764
  7
STYLE1
 73
     1
 44
1.0
1001
ACAD
1000
MTEXTBEGIN
1070
    73
1070
     1
1070
    44
1040
1.0
1070
    74
1070
     0
1000
MTEXTEND
  0
POINT
  5
21C33
330
1F255
100
AcDbEntity
  8
DEFPOINTS
 62
     0
 48
50.0
100
AcDbPoint
 10
9135.157340025511
 20
7522.919036112863
 30
0.0
  0
POINT
  5
21C34
330
1F255
100
AcDbEntity
  8
DEFPOINTS
 62
     0
 48
50.0
100
AcDbPoint
 10
8371.157340025515
 20
6837.919036112861
 30
0.0
  0
POINT
  5
21C35
330
1F255
100
AcDbEntity
  8
DEFPOINTS
 62
     0
 48
50.0
100
AcDbPoint
 10
8371.157340025515
 20
8048.090767068199
 30
0.0
  0
ENDBLK
  5
1F260
330
1F255
100
AcDbEntity
  8
0
 48
50.0
100
AcDbBlockEnd
  0
BLOCK
  5
1FE56
330
1FE4C
100
AcDbEntity
  8
0
 48
50.0
100
AcDbBlockBegin
  2
*D18
 70
     1
 10
0.0
 20
0.0
 30
0.0
  3
*D18
  1

  0
LINE
  5
21C1B
330
1FE4C
100
AcDbEntity
  8
寸法
 62
     0
 48
50.0
370
    -2
100
AcDbLine
 10
7679.157340025515
 20
6857.919036112861
 30
0.0
 11
7679.157340025515
 21
8109.828801761191
 31
0.0
  0
LINE
  5
21C1C
330
1FE4C
100
AcDbEntity
  8
寸法
 62
     0
 48
50.0
370
    -2
100
AcDbLine
 10
8371.157340025515
 20
6857.919036112861
 30
0.0
 11
8371.157340025515
 21
8109.828801761191
 31
0.0
  0
LINE
  5
21C1D
330
1FE4C
100
AcDbEntity
  8
寸法
 62
     0
 48
50.0
370
    -2
100
AcDbLine
 10
7679.157340025515
 20
8049.82880176119
 30
0.0
 11
8371.157340025515
 21
8049.82880176119
 31
0.0
  0
INSERT
  5
21C1E
330
1FE4C
100
AcDbEntity
  8
寸法
 62
     0
 48
50.0
370
    -2
100
AcDbBlockReference
  2
_DOTSMALL
 10
7679.157340025515
 20
8049.82880176119
 30
0.0
 41
100.0
 42
100.0
 43
100.0
 50
180.0
  0
INSERT
  5
21C1F
330
1FE4C
100
AcDbEntity
  8
寸法
 62
     0
 48
50.0
370
    -2
100
AcDbBlockReference
  2
_DOTSMALL
 10
8371.157340025515
 20
8049.82880176119
 30
0.0
 41
100.0
 42
100.0
 43
100.0
  0
MTEXT
  5
21C20
330
1FE4C
100
AcDbEntity
  8
寸法
 62
     7
 48
50.0
100
AcDbMText
 10
8025.157340025515
 20
8149.869614325995
 30
0.0
 40
120.0
 41
0.0
 71
     5
 72
     1
  1
\A1;692
  7
STYLE1
 73
     1
 44
1.0
1001
ACAD
1000
MTEXTBEGIN
1070
    73
1070
     1
1070
    44
1040
1.0
1070
    74
1070
     0
1000
MTEXTEND
  0
POINT
  5
21C21
330
1FE4C
100
AcDbEntity
  8
DEFPOINTS
 62
     0
 48
50.0
100
AcDbPoint
 10
7679.157340025515
 20
6837.919036112861
 30
0.0
  0
POINT
  5
21C22
330
1FE4C
100
AcDbEntity
  8
DEFPOINTS
 62
     0
 48
50.0
100
AcDbPoint
 10
8371.157340025515
 20
6837.919036112861
 30
0.0
  0
POINT
  5
21C23
330
1FE4C
100
AcDbEntity
  8
DEFPOINTS
 62
     0
 48
50.0
100
AcDbPoint
 10
8371.157340025515
 20
8049.82880176119
 30
0.0
  0
ENDBLK
  5
1FE57
330
1FE4C
100
AcDbEntity
  8
0
 48
50.0
100
AcDbBlockEnd
  0
BLOCK
  5
2034D
330
20343
100
AcDbEntity
  8
0
 48
50.0
100
AcDbBlockBegin
  2
*D19
 70
     1
 10
0.0
 20
0.0
 30
0.0
  3
*D19
  1

  0
LINE
  5
21C12
330
20343
100
AcDbEntity
  8
寸法
 62
     0
 48
50.0
370
    -2
100
AcDbLine
 10
7749.157340025513
 20
6037.919036112869
 30
0.0
 11
8027.690754844583
 21
6037.919036112869
 31
0.0
  0
LINE
  5
21C13
330
20343
100
AcDbEntity
  8
寸法
 62
     0
 48
50.0
370
    -2
100
AcDbLine
 10
7749.157340025513
 20
6787.91903611286
 30
0.0
 11
8027.690754844583
 21
6787.91903611286
 31
0.0
  0
LINE
  5
21C14
330
20343
100
AcDbEntity
  8
寸法
 62
     0
 48
50.0
370
    -2
100
AcDbLine
 10
7967.690754844581
 20
6037.919036112869
 30
0.0
 11
7967.690754844582
 21
6787.91903611286
 31
0.0
  0
INSERT
  5
21C15
330
20343
100
AcDbEntity
  8
寸法
 62
     0
 48
50.0
370
    -2
100
AcDbBlockReference
  2
_DOTSMALL
 10
7967.690754844581
 20
6037.919036112869
 30
0.0
 41
100.0
 42
100.0
 43
100.0
 50
270.0
  0
INSERT
  5
21C16
330
20343
100
AcDbEntity
  8
寸法
 62
     0
 48
50.0
370
    -2
100
AcDbBlockReference
  2
_DOTSMALL
 10
7967.690754844582
 20
6787.91903611286
 30
0.0
 41
100.0
 42
100.0
 43
100.0
 50
90.0
  0
MTEXT
  5
21C17
330
20343
100
AcDbEntity
  8
寸法
 62
     7
 48
50.0
100
AcDbMText
 10
7867.690754844581
 20
6412.919036112866
 30
0.0
 40
120.0
 41
0.0
 71
     5
 72
     1
  1
\A1;750
  7
STYLE1
 11
0.0000000000000001
 21
1.0
 31
0.0
 73
     1
 44
1.0
1001
ACAD
1000
MTEXTBEGIN
1070
    73
1070
     1
1070
    44
1040
1.0
1070
    74
1070
     0
1000
MTEXTEND
  0
POINT
  5
21C18
330
20343
100
AcDbEntity
  8
DEFPOINTS
 62
     0
 48
50.0
100
AcDbPoint
 10
7729.157340025515
 20
6037.919036112869
 30
0.0
  0
POINT
  5
21C19
330
20343
100
AcDbEntity
  8
DEFPOINTS
 62
     0
 48
50.0
100
AcDbPoint
 10
7729.157340025515
 20
6787.91903611286
 30
0.0
  0
POINT
  5
21C1A
330
20343
100
AcDbEntity
  8
DEFPOINTS
 62
     0
 48
50.0
100
AcDbPoint
 10
7967.690754844582
 20
6787.91903611286
 30
0.0
  0
ENDBLK
  5
2034E
330
20343
100
AcDbEntity
  8
0
 48
50.0
100
AcDbBlockEnd
  0
BLOCK
  5
20711
330
20706
100
AcDbEntity
  8
0
 48
50.0
100
AcDbBlockBegin
  2
*D20
 70
     1
 10
0.0
 20
0.0
 30
0.0
  3
*D20
  1

  0
LINE
  5
21C08
330
20706
100
AcDbEntity
  8
寸法
 62
     0
 48
50.0
370
    -2
100
AcDbLine
 10
7165.157340025515
 20
7402.91903611286
 30
0.0
 11
7422.833832283957
 21
7402.91903611286
 31
0.0
  0
LINE
  5
21C09
330
20706
100
AcDbEntity
  8
寸法
 62
     0
 48
50.0
370
    -2
100
AcDbLine
 10
7165.157340025515
 20
7522.919036112859
 30
0.0
 11
7422.833832283957
 21
7522.919036112859
 31
0.0
  0
LINE
  5
21C0A
330
20706
100
AcDbEntity
  8
寸法
 62
     0
 48
50.0
370
    -2
100
AcDbLine
 10
7362.833832283957
 20
7402.91903611286
 30
0.0
 11
7362.833832283957
 21
7522.919036112859
 31
0.0
  0
LINE
  5
21C0B
330
20706
100
AcDbEntity
  8
寸法
 62
     0
 48
50.0
370
    -2
100
AcDbLine
 10
7362.833832283957
 20
7522.919036112859
 30
0.0
 11
7362.833832283957
 21
7925.013524301836
 31
0.0
  0
INSERT
  5
21C0C
330
20706
100
AcDbEntity
  8
寸法
 62
     0
 48
50.0
370
    -2
100
AcDbBlockReference
  2
_DOTSMALL
 10
7362.833832283957
 20
7402.91903611286
 30
0.0
 41
100.0
 42
100.0
 43
100.0
 50
270.0
  0
INSERT
  5
21C0D
330
20706
100
AcDbEntity
  8
寸法
 62
     0
 48
50.0
370
    -2
100
AcDbBlockReference
  2
_DOTSMALL
 10
7362.833832283957
 20
7522.919036112859
 30
0.0
 41
100.0
 42
100.0
 43
100.0
 50
90.0
  0
MTEXT
  5
21C0E
330
20706
100
AcDbEntity
  8
寸法
 62
     7
 48
50.0
100
AcDbMText
 10
7262.822021260335
 20
7788.96628020735
 30
0.0
 40
120.0
 41
0.0
 71
     5
 72
     1
  1
\A1;120
  7
STYLE1
 11
0.0000000000000001
 21
1.0
 31
0.0
 73
     1
 44
1.0
1001
ACAD
1000
MTEXTBEGIN
1070
    73
1070
     1
1070
    44
1040
1.0
1070
    74
1070
     0
1000
MTEXTEND
  0
POINT
  5
21C0F
330
20706
100
AcDbEntity
  8
DEFPOINTS
 62
     0
 48
50.0
100
AcDbPoint
 10
7145.157340025514
 20
7402.91903611286
 30
0.0
  0
POINT
  5
21C10
330
20706
100
AcDbEntity
  8
DEFPOINTS
 62
     0
 48
50.0
100
AcDbPoint
 10
7145.157340025514
 20
7522.919036112859
 30
0.0
  0
POINT
  5
21C11
330
20706
100
AcDbEntity
  8
DEFPOINTS
 62
     0
 48
50.0
100
AcDbPoint
 10
7362.833832283957
 20
7522.919036112859
 30
0.0
  0
ENDBLK
  5
20712
330
20706
100
AcDbEntity
  8
0
 48
50.0
100
AcDbBlockEnd
  0
BLOCK
  5
2071E
330
20713
100
AcDbEntity
  8
0
 48
50.0
100
AcDbBlockBegin
  2
*D21
 70
     1
 10
0.0
 20
0.0
 30
0.0
  3
*D21
  1

  0
LINE
  5
21BFE
330
20713
100
AcDbEntity
  8
寸法
 62
     0
 48
50.0
370
    -2
100
AcDbLine
 10
7165.157340025515
 20
7292.919036112856
 30
0.0
 11
7422.833832283957
 21
7292.919036112856
 31
0.0
  0
LINE
  5
21BFF
330
20713
100
AcDbEntity
  8
寸法
 62
     0
 48
50.0
370
    -2
100
AcDbLine
 10
7165.157340025515
 20
7402.91903611286
 30
0.0
 11
7422.833832283957
 21
7402.91903611286
 31
0.0
  0
LINE
  5
21C00
330
20713
100
AcDbEntity
  8
寸法
 62
     0
 48
50.0
370
    -2
100
AcDbLine
 10
7362.833832283958
 20
7402.91903611286
 30
0.0
 11
7362.833832283958
 21
7292.919036112856
 31
0.0
  0
LINE
  5
21C01
330
20713
100
AcDbEntity
  8
寸法
 62
     0
 48
50.0
370
    -2
100
AcDbLine
 10
7362.833832283958
 20
7292.919036112856
 30
0.0
 11
7362.833832283958
 21
6932.824547923878
 31
0.0
  0
INSERT
  5
21C02
330
20713
100
AcDbEntity
  8
寸法
 62
     0
 48
50.0
370
    -2
100
AcDbBlockReference
  2
_DOTSMALL
 10
7362.833832283958
 20
7402.91903611286
 30
0.0
 41
100.0
 42
100.0
 43
100.0
 50
90.0
  0
INSERT
  5
21C03
330
20713
100
AcDbEntity
  8
寸法
 62
     0
 48
50.0
370
    -2
100
AcDbBlockReference
  2
_DOTSMALL
 10
7362.833832283958
 20
7292.919036112856
 30
0.0
 41
100.0
 42
100.0
 43
100.0
 50
270.0
  0
MTEXT
  5
21C04
330
20713
100
AcDbEntity
  8
寸法
 62
     7
 48
50.0
100
AcDbMText
 10
7262.833832283956
 20
7056.871792018369
 30
0.0
 40
120.0
 41
0.0
 71
     5
 72
     1
  1
\A1;110
  7
STYLE1
 11
0.0000000000000001
 21
1.0
 31
0.0
 73
     1
 44
1.0
1001
ACAD
1000
MTEXTBEGIN
1070
    73
1070
     1
1070
    44
1040
1.0
1070
    74
1070
     0
1000
MTEXTEND
  0
POINT
  5
21C05
330
20713
100
AcDbEntity
  8
DEFPOINTS
 62
     0
 48
50.0
100
AcDbPoint
 10
7145.157340025514
 20
7292.919036112856
 30
0.0
  0
POINT
  5
21C06
330
20713
100
AcDbEntity
  8
DEFPOINTS
 62
     0
 48
50.0
100
AcDbPoint
 10
7145.157340025514
 20
7402.91903611286
 30
0.0
  0
POINT
  5
21C07
330
20713
100
AcDbEntity
  8
DEFPOINTS
 62
     0
 48
50.0
100
AcDbPoint
 10
7362.833832283958
 20
7402.91903611286
 30
0.0
  0
ENDBLK
  5
2071F
330
20713
100
AcDbEntity
  8
0
 48
50.0
100
AcDbBlockEnd
  0
BLOCK
  5
21AB7
330
21AAB
100
AcDbEntity
  8
0
 48
50.0
100
AcDbBlockBegin
  2
*D28
 70
     1
 10
0.0
 20
0.0
 30
0.0
  3
*D28
  1

  0
LINE
  5
21BBC
330
21AAB
100
AcDbEntity
  8
寸法
 62
     0
 48
50.0
370
    -2
100
AcDbLine
 10
8905.157340025516
 20
7272.919036112859
 30
0.0
 11
8905.157340025516
 21
6924.422404093454
 31
0.0
  0
LINE
  5
21BBD
330
21AAB
100
AcDbEntity
  8
寸法
 62
     0
 48
50.0
370
    -2
100
AcDbLine
 10
9015.157340025513
 20
7082.393447280283
 30
0.0
 11
9015.157340025513
 21
6924.422404093454
 31
0.0
  0
LINE
  5
21BBE
330
21AAB
100
AcDbEntity
  8
寸法
 62
     0
 48
50.0
370
    -2
100
AcDbLine
 10
9015.157340025513
 20
6984.422404093454
 30
0.0
 11
8905.157340025516
 21
6984.422404093454
 31
0.0
  0
LINE
  5
21BBF
330
21AAB
100
AcDbEntity
  8
寸法
 62
     0
 48
50.0
370
    -2
100
AcDbLine
 10
8905.157340025516
 20
6984.422404093454
 30
0.0
 11
8557.062851836539
 21
6984.422404093454
 31
0.0
  0
INSERT
  5
21BC0
330
21AAB
100
AcDbEntity
  8
寸法
 62
     0
 48
50.0
370
    -2
100
AcDbBlockReference
  2
_DOTSMALL
 10
9015.157340025513
 20
6984.422404093454
 30
0.0
 41
100.0
 42
100.0
 43
100.0
  0
INSERT
  5
21BC1
330
21AAB
100
AcDbEntity
  8
寸法
 62
     0
 48
50.0
370
    -2
100
AcDbBlockReference
  2
_DOTSMALL
 10
8905.157340025516
 20
6984.422404093454
 30
0.0
 41
100.0
 42
100.0
 43
100.0
 50
180.0
  0
MTEXT
  5
21BC2
330
21AAB
100
AcDbEntity
  8
寸法
 62
     7
 48
50.0
100
AcDbMText
 10
8681.110095931027
 20
7084.422404093453
 30
0.0
 40
120.0
 41
0.0
 71
     5
 72
     1
  1
\A1;110
  7
STYLE1
 73
     1
 44
1.0
1001
ACAD
1000
MTEXTBEGIN
1070
    73
1070
     1
1070
    44
1040
1.0
1070
    74
1070
     0
1000
MTEXTEND
  0
POINT
  5
21BC3
330
21AAB
100
AcDbEntity
  8
DEFPOINTS
 62
     0
 48
50.0
100
AcDbPoint
 10
8905.157340025516
 20
7292.919036112859
 30
0.0
  0
POINT
  5
21BC4
330
21AAB
100
AcDbEntity
  8
DEFPOINTS
 62
     0
 48
50.0
100
AcDbPoint
 10
9015.157340025513
 20
7102.393447280284
 30
0.0
  0
POINT
  5
21BC5
330
21AAB
100
AcDbEntity
  8
DEFPOINTS
 62
     0
 48
50.0
100
AcDbPoint
 10
9015.157340025513
 20
6984.422404093454
 30
0.0
  0
ENDBLK
  5
21AB8
330
21AAB
100
AcDbEntity
  8
0
 48
50.0
100
AcDbBlockEnd
  0
BLOCK
  5
2210A
330
22100
100
AcDbEntity
  8
0
 48
50.0
100
AcDbBlockBegin
  2
*D35
 70
     1
 10
0.0
 20
0.0
 30
0.0
  3
*D35
  1

  0
LINE
  5
2214A
330
22100
100
AcDbEntity
  8
寸法
 62
     0
 48
50.0
370
    -2
100
AcDbLine
 10
5666.611073562799
 20
773.7649737437668
 30
0.0
 11
5666.611073562799
 21
434.8128672878337
 31
0.0
  0
LINE
  5
2214B
330
22100
100
AcDbEntity
  8
寸法
 62
     0
 48
50.0
370
    -2
100
AcDbLine
 10
6226.611073562801
 20
773.7649737437668
 30
0.0
 11
6226.611073562801
 21
434.8128672878337
 31
0.0
  0
LINE
  5
2214C
330
22100
100
AcDbEntity
  8
寸法
 62
     0
 48
50.0
370
    -2
100
AcDbLine
 10
5666.611073562799
 20
494.8128672878338
 30
0.0
 11
6226.611073562801
 21
494.8128672878338
 31
0.0
  0
INSERT
  5
2214D
330
22100
100
AcDbEntity
  8
寸法
 62
     0
 48
50.0
370
    -2
100
AcDbBlockReference
  2
_DOTSMALL
 10
5666.611073562799
 20
494.8128672878338
 30
0.0
 41
100.0
 42
100.0
 43
100.0
 50
180.0
  0
INSERT
  5
2214E
330
22100
100
AcDbEntity
  8
寸法
 62
     0
 48
50.0
370
    -2
100
AcDbBlockReference
  2
_DOTSMALL
 10
6226.611073562801
 20
494.8128672878338
 30
0.0
 41
100.0
 42
100.0
 43
100.0
  0
MTEXT
  5
2214F
330
22100
100
AcDbEntity
  8
寸法
 62
     7
 48
50.0
100
AcDbMText
 10
5946.611073562799
 20
594.8128672878338
 30
0.0
 40
120.0
 41
0.0
 71
     5
 72
     1
  1
\A1;300
  7
STYLE1
 73
     1
 44
1.0
1001
ACAD
1000
MTEXTBEGIN
1070
    73
1070
     1
1070
    44
1040
1.0
1070
    74
1070
     0
1000
MTEXTEND
  0
POINT
  5
22150
330
22100
100
AcDbEntity
  8
DEFPOINTS
 62
     0
 48
50.0
100
AcDbPoint
 10
5666.611073562799
 20
793.7649737437668
 30
0.0
  0
POINT
  5
22151
330
22100
100
AcDbEntity
  8
DEFPOINTS
 62
     0
 48
50.0
100
AcDbPoint
 10
6226.611073562801
 20
793.7649737437668
 30
0.0
  0
POINT
  5
22152
330
22100
100
AcDbEntity
  8
DEFPOINTS
 62
     0
 48
50.0
100
AcDbPoint
 10
6226.611073562801
 20
494.8128672878338
 30
0.0
  0
ENDBLK
  5
2210B
330
22100
100
AcDbEntity
  8
0
 48
50.0
100
AcDbBlockEnd
  0
BLOCK
  5
22116
330
2210C
100
AcDbEntity
  8
0
 48
50.0
100
AcDbBlockBegin
  2
*D36
 70
     1
 10
0.0
 20
0.0
 30
0.0
  3
*D36
  1

  0
LINE
  5
22153
330
2210C
100
AcDbEntity
  8
寸法
 62
     0
 48
50.0
370
    -2
100
AcDbLine
 10
5806.611073562799
 20
1933.764973743768
 30
0.0
 11
5005.966135526737
 21
1933.764973743768
 31
0.0
  0
LINE
  5
22154
330
2210C
100
AcDbEntity
  8
寸法
 62
     0
 48
50.0
370
    -2
100
AcDbLine
 10
5546.611073562804
 20
953.7649737437668
 30
0.0
 11
5005.966135526737
 21
953.764973743767
 31
0.0
  0
LINE
  5
22155
330
2210C
100
AcDbEntity
  8
寸法
 62
     0
 48
50.0
370
    -2
100
AcDbLine
 10
5065.966135526736
 20
1933.764973743768
 30
0.0
 11
5065.966135526736
 21
953.764973743767
 31
0.0
  0
INSERT
  5
22156
330
2210C
100
AcDbEntity
  8
寸法
 62
     0
 48
50.0
370
    -2
100
AcDbBlockReference
  2
_DOTSMALL
 10
5065.966135526736
 20
1933.764973743768
 30
0.0
 41
100.0
 42
100.0
 43
100.0
 50
90.0
  0
INSERT
  5
22157
330
2210C
100
AcDbEntity
  8
寸法
 62
     0
 48
50.0
370
    -2
100
AcDbBlockReference
  2
_DOTSMALL
 10
5065.966135526736
 20
953.764973743767
 30
0.0
 41
100.0
 42
100.0
 43
100.0
 50
270.0
  0
MTEXT
  5
22158
330
2210C
100
AcDbEntity
  8
寸法
 62
     7
 48
50.0
100
AcDbMText
 10
4965.966135526736
 20
1443.764973743768
 30
0.0
 40
120.0
 41
0.0
 71
     5
 72
     1
  1
\A1;540
  7
STYLE1
 11
0.0000000000000001
 21
1.0
 31
0.0
 73
     1
 44
1.0
1001
ACAD
1000
MTEXTBEGIN
1070
    73
1070
     1
1070
    44
1040
1.0
1070
    74
1070
     0
1000
MTEXTEND
  0
POINT
  5
22159
330
2210C
100
AcDbEntity
  8
DEFPOINTS
 62
     0
 48
50.0
100
AcDbPoint
 10
5826.611073562799
 20
1933.764973743768
 30
0.0
  0
POINT
  5
2215A
330
2210C
100
AcDbEntity
  8
DEFPOINTS
 62
     0
 48
50.0
100
AcDbPoint
 10
5566.611073562804
 20
953.7649737437668
 30
0.0
  0
POINT
  5
2215B
330
2210C
100
AcDbEntity
  8
DEFPOINTS
 62
     0
 48
50.0
100
AcDbPoint
 10
5065.966135526736
 20
953.764973743767
 30
0.0
  0
ENDBLK
  5
22117
330
2210C
100
AcDbEntity
  8
0
 48
50.0
100
AcDbBlockEnd
  0
BLOCK
  5
22122
330
22118
100
AcDbEntity
  8
0
 48
50.0
100
AcDbBlockBegin
  2
*D37
 70
     1
 10
0.0
 20
0.0
 30
0.0
  3
*D37
  1

  0
LINE
  5
2215C
330
22118
100
AcDbEntity
  8
寸法
 62
     0
 48
50.0
370
    -2
100
AcDbLine
 10
5646.611073562799
 20
1253.764973743767
 30
0.0
 11
5428.585681397226
 21
1253.764973743767
 31
0.0
  0
LINE
  5
2215D
330
22118
100
AcDbEntity
  8
寸法
 62
     0
 48
50.0
370
    -2
100
AcDbLine
 10
5546.611073562804
 20
953.7649737437668
 30
0.0
 11
5428.585681397226
 21
953.7649737437668
 31
0.0
  0
LINE
  5
2215E
330
22118
100
AcDbEntity
  8
寸法
 62
     0
 48
50.0
370
    -2
100
AcDbLine
 10
5488.585681397226
 20
1253.764973743767
 30
0.0
 11
5488.585681397226
 21
953.7649737437668
 31
0.0
  0
INSERT
  5
2215F
330
22118
100
AcDbEntity
  8
寸法
 62
     0
 48
50.0
370
    -2
100
AcDbBlockReference
  2
_DOTSMALL
 10
5488.585681397226
 20
1253.764973743767
 30
0.0
 41
100.0
 42
100.0
 43
100.0
 50
90.0
  0
INSERT
  5
22160
330
22118
100
AcDbEntity
  8
寸法
 62
     0
 48
50.0
370
    -2
100
AcDbBlockReference
  2
_DOTSMALL
 10
5488.585681397226
 20
953.7649737437668
 30
0.0
 41
100.0
 42
100.0
 43
100.0
 50
270.0
  0
MTEXT
  5
22161
330
22118
100
AcDbEntity
  8
寸法
 62
     7
 48
50.0
100
AcDbMText
 10
5388.585681397226
 20
1103.764973743767
 30
0.0
 40
120.0
 41
0.0
 71
     5
 72
     1
  1
\A1;150
  7
STYLE1
 11
0.0000000000000001
 21
1.0
 31
0.0
 73
     1
 44
1.0
1001
ACAD
1000
MTEXTBEGIN
1070
    73
1070
     1
1070
    44
1040
1.0
1070
    74
1070
     0
1000
MTEXTEND
  0
POINT
  5
22162
330
22118
100
AcDbEntity
  8
DEFPOINTS
 62
     0
 48
50.0
100
AcDbPoint
 10
5666.611073562799
 20
1253.764973743767
 30
0.0
  0
POINT
  5
22163
330
22118
100
AcDbEntity
  8
DEFPOINTS
 62
     0
 48
50.0
100
AcDbPoint
 10
5566.611073562804
 20
953.7649737437668
 30
0.0
  0
POINT
  5
22164
330
22118
100
AcDbEntity
  8
DEFPOINTS
 62
     0
 48
50.0
100
AcDbPoint
 10
5488.585681397226
 20
953.7649737437668
 30
0.0
  0
ENDBLK
  5
22123
330
22118
100
AcDbEntity
  8
0
 48
50.0
100
AcDbBlockEnd
  0
BLOCK
  5
2212E
330
22124
100
AcDbEntity
  8
0
 48
50.0
100
AcDbBlockBegin
  2
*D38
 70
     1
 10
0.0
 20
0.0
 30
0.0
  3
*D38
  1

  0
LINE
  5
22165
330
22124
100
AcDbEntity
  8
寸法
 62
     0
 48
50.0
370
    -2
100
AcDbLine
 10
6066.611073562799
 20
1953.764973743768
 30
0.0
 11
6066.611073562799
 21
2518.349733639244
 31
0.0
  0
LINE
  5
22166
330
22124
100
AcDbEntity
  8
寸法
 62
     0
 48
50.0
370
    -2
100
AcDbLine
 10
5826.611073562799
 20
1953.764973743768
 30
0.0
 11
5826.611073562799
 21
2518.349733639244
 31
0.0
  0
LINE
  5
22167
330
22124
100
AcDbEntity
  8
寸法
 62
     0
 48
50.0
370
    -2
100
AcDbLine
 10
6066.611073562799
 20
2458.349733639244
 30
0.0
 11
5826.611073562799
 21
2458.349733639244
 31
0.0
  0
INSERT
  5
22168
330
22124
100
AcDbEntity
  8
寸法
 62
     0
 48
50.0
370
    -2
100
AcDbBlockReference
  2
_DOTSMALL
 10
6066.611073562799
 20
2458.349733639244
 30
0.0
 41
100.0
 42
100.0
 43
100.0
  0
INSERT
  5
22169
330
22124
100
AcDbEntity
  8
寸法
 62
     0
 48
50.0
370
    -2
100
AcDbBlockReference
  2
_DOTSMALL
 10
5826.611073562799
 20
2458.349733639244
 30
0.0
 41
100.0
 42
100.0
 43
100.0
 50
180.0
  0
MTEXT
  5
2216A
330
22124
100
AcDbEntity
  8
寸法
 62
     7
 48
50.0
100
AcDbMText
 10
5946.611073562799
 20
2558.361544662866
 30
0.0
 40
120.0
 41
0.0
 71
     5
 72
     1
  1
\A1;120
  7
STYLE1
 73
     1
 44
1.0
1001
ACAD
1000
MTEXTBEGIN
1070
    73
1070
     1
1070
    44
1040
1.0
1070
    74
1070
     0
1000
MTEXTEND
  0
POINT
  5
2216B
330
22124
100
AcDbEntity
  8
DEFPOINTS
 62
     0
 48
50.0
100
AcDbPoint
 10
6066.611073562799
 20
1933.764973743768
 30
0.0
  0
POINT
  5
2216C
330
22124
100
AcDbEntity
  8
DEFPOINTS
 62
     0
 48
50.0
100
AcDbPoint
 10
5826.611073562799
 20
1933.764973743768
 30
0.0
  0
POINT
  5
2216D
330
22124
100
AcDbEntity
  8
DEFPOINTS
 62
     0
 48
50.0
100
AcDbPoint
 10
5826.611073562799
 20
2458.349733639244
 30
0.0
  0
ENDBLK
  5
2212F
330
22124
100
AcDbEntity
  8
0
 48
50.0
100
AcDbBlockEnd
  0
BLOCK
  5
2213C
330
22130
100
AcDbEntity
  8
0
 48
50.0
100
AcDbBlockBegin
  2
*D39
 70
     1
 10
0.0
 20
0.0
 30
0.0
  3
*D39
  1

  0
LINE
  5
2216E
330
22130
100
AcDbEntity
  8
寸法
 62
     0
 48
50.0
370
    -2
100
AcDbLine
 10
8255.160215034292
 20
1999.714973743768
 30
0.0
 11
9501.564297394132
 21
1999.714973743768
 31
0.0
  0
LINE
  5
2216F
330
22130
100
AcDbEntity
  8
寸法
 62
     0
 48
50.0
370
    -2
100
AcDbLine
 10
8489.160215034294
 20
1933.764973743768
 30
0.0
 11
9501.564297394132
 21
1933.764973743768
 31
0.0
  0
LINE
  5
22170
330
22130
100
AcDbEntity
  8
寸法
 62
     0
 48
50.0
370
    -2
100
AcDbLine
 10
9441.564297394132
 20
1999.714973743768
 30
0.0
 11
9441.564297394132
 21
2099.714973743768
 31
0.0
  0
LINE
  5
22171
330
22130
100
AcDbEntity
  8
寸法
 62
     0
 48
50.0
370
    -2
100
AcDbLine
 10
9441.564297394132
 20
1933.764973743768
 30
0.0
 11
9441.564297394132
 21
1201.7471669008
 31
0.0
  0
LINE
  5
22172
330
22130
100
AcDbEntity
  8
寸法
 62
     0
 48
50.0
370
    -2
100
AcDbLine
 10
9441.564297394132
 20
1999.714973743768
 30
0.0
 11
9441.564297394132
 21
1933.764973743768
 31
0.0
  0
INSERT
  5
22173
330
22130
100
AcDbEntity
  8
寸法
 62
     0
 48
50.0
370
    -2
100
AcDbBlockReference
  2
_DOTSMALL
 10
9441.564297394132
 20
1999.714973743768
 30
0.0
 41
100.0
 42
100.0
 43
100.0
 50
270.0
  0
INSERT
  5
22174
330
22130
100
AcDbEntity
  8
寸法
 62
     0
 48
50.0
370
    -2
100
AcDbBlockReference
  2
_DOTSMALL
 10
9441.564297394132
 20
1933.764973743768
 30
0.0
 41
100.0
 42
100.0
 43
100.0
 50
90.0
  0
MTEXT
  5
22175
330
22130
100
AcDbEntity
  8
寸法
 62
     7
 48
50.0
100
AcDbMText
 10
9341.55248637051
 20
1467.756070322284
 30
0.0
 40
120.0
 41
0.0
 71
     5
 72
     1
  1
\A1;20～25
  7
STYLE1
 11
0.0000000000000001
 21
1.0
 31
0.0
 73
     1
 44
1.0
1001
ACAD
1000
MTEXTBEGIN
1070
    73
1070
     1
1070
    44
1040
1.0
1070
    74
1070
     0
1000
MTEXTEND
  0
POINT
  5
22176
330
22130
100
AcDbEntity
  8
DEFPOINTS
 62
     0
 48
50.0
100
AcDbPoint
 10
8235.160215034294
 20
1999.714973743768
 30
0.0
  0
POINT
  5
22177
330
22130
100
AcDbEntity
  8
DEFPOINTS
 62
     0
 48
50.0
100
AcDbPoint
 10
8469.160215034293
 20
1933.764973743768
 30
0.0
  0
POINT
  5
22178
330
22130
100
AcDbEntity
  8
DEFPOINTS
 62
     0
 48
50.0
100
AcDbPoint
 10
9441.564297394132
 20
1933.764973743768
 30
0.0
  0
ENDBLK
  5
2213D
330
22130
100
AcDbEntity
  8
0
 48
50.0
100
AcDbBlockEnd
  0
BLOCK
  5
22148
330
2213E
100
AcDbEntity
  8
0
 48
50.0
100
AcDbBlockBegin
  2
*D40
 70
     1
 10
0.0
 20
0.0
 30
0.0
  3
*D40
  1

  0
LINE
  5
22179
330
2213E
100
AcDbEntity
  8
寸法
 62
     0
 48
50.0
370
    -2
100
AcDbLine
 10
8489.160215034294
 20
1933.764973743768
 30
0.0
 11
9156.495964745349
 21
1933.764973743768
 31
0.0
  0
LINE
  5
2217A
330
2213E
100
AcDbEntity
  8
寸法
 62
     0
 48
50.0
370
    -2
100
AcDbLine
 10
8489.160215034294
 20
1528.764973743766
 30
0.0
 11
9156.495964745349
 21
1528.764973743766
 31
0.0
  0
LINE
  5
2217B
330
2213E
100
AcDbEntity
  8
寸法
 62
     0
 48
50.0
370
    -2
100
AcDbLine
 10
9096.495964745349
 20
1933.764973743768
 30
0.0
 11
9096.495964745349
 21
1528.764973743766
 31
0.0
  0
INSERT
  5
2217C
330
2213E
100
AcDbEntity
  8
寸法
 62
     0
 48
50.0
370
    -2
100
AcDbBlockReference
  2
_DOTSMALL
 10
9096.495964745349
 20
1933.764973743768
 30
0.0
 41
100.0
 42
100.0
 43
100.0
 50
90.0
  0
INSERT
  5
2217D
330
2213E
100
AcDbEntity
  8
寸法
 62
     0
 48
50.0
370
    -2
100
AcDbBlockReference
  2
_DOTSMALL
 10
9096.495964745349
 20
1528.764973743766
 30
0.0
 41
100.0
 42
100.0
 43
100.0
 50
270.0
  0
MTEXT
  5
2217E
330
2213E
100
AcDbEntity
  8
寸法
 62
     7
 48
50.0
100
AcDbMText
 10
8996.495964745347
 20
1731.264973743768
 30
0.0
 40
120.0
 41
0.0
 71
     5
 72
     1
  1
\A1;180
  7
STYLE1
 11
0.0000000000000001
 21
1.0
 31
0.0
 73
     1
 44
1.0
1001
ACAD
1000
MTEXTBEGIN
1070
    73
1070
     1
1070
    44
1040
1.0
1070
    74
1070
     0
1000
MTEXTEND
  0
POINT
  5
2217F
330
2213E
100
AcDbEntity
  8
DEFPOINTS
 62
     0
 48
50.0
100
AcDbPoint
 10
8469.160215034293
 20
1933.764973743768
 30
0.0
  0
POINT
  5
22180
330
2213E
100
AcDbEntity
  8
DEFPOINTS
 62
     0
 48
50.0
100
AcDbPoint
 10
8469.160215034293
 20
1528.764973743766
 30
0.0
  0
POINT
  5
22181
330
2213E
100
AcDbEntity
  8
DEFPOINTS
 62
     0
 48
50.0
100
AcDbPoint
 10
9096.495964745349
 20
1528.764973743766
 30
0.0
  0
ENDBLK
  5
22149
330
2213E
100
AcDbEntity
  8
0
 48
50.0
100
AcDbBlockEnd
  0
BLOCK
  5
2218D
330
22183
100
AcDbEntity
  8
0
 48
50.0
100
AcDbBlockBegin
  2
*D41
 70
     1
 10
0.0
 20
0.0
 30
0.0
  3
*D41
  1

  0
LINE
  5
221A9
330
22183
100
AcDbEntity
  8
寸法
 62
     0
 48
50.0
370
    -2
100
AcDbLine
 10
6895.157340025517
 20
7522.919036112861
 30
0.0
 11
6113.722271873728
 21
7522.919036112863
 31
0.0
  0
LINE
  5
221AA
330
22183
100
AcDbEntity
  8
寸法
 62
     0
 48
50.0
370
    -2
100
AcDbLine
 10
6895.157340025517
 20
5302.919036112878
 30
0.0
 11
6113.722271873727
 21
5302.919036112879
 31
0.0
  0
LINE
  5
221AB
330
22183
100
AcDbEntity
  8
寸法
 62
     0
 48
50.0
370
    -2
100
AcDbLine
 10
6173.722271873728
 20
7522.919036112861
 30
0.0
 11
6173.722271873726
 21
5302.919036112878
 31
0.0
  0
INSERT
  5
221AC
330
22183
100
AcDbEntity
  8
寸法
 62
     0
 48
50.0
370
    -2
100
AcDbBlockReference
  2
_DOTSMALL
 10
6173.722271873728
 20
7522.919036112861
 30
0.0
 41
100.0
 42
100.0
 43
100.0
 50
90.0
  0
INSERT
  5
221AD
330
22183
100
AcDbEntity
  8
寸法
 62
     0
 48
50.0
370
    -2
100
AcDbBlockReference
  2
_DOTSMALL
 10
6173.722271873726
 20
5302.919036112878
 30
0.0
 41
100.0
 42
100.0
 43
100.0
 50
270.0
  0
MTEXT
  5
221AE
330
22183
100
AcDbEntity
  8
寸法
 62
     7
 48
50.0
100
AcDbMText
 10
6073.710460850104
 20
6412.919036112871
 30
0.0
 40
120.0
 41
0.0
 71
     5
 72
     1
  1
\A1;2220
  7
STYLE1
 11
0.0000000000000001
 21
1.0
 31
0.0
 73
     1
 44
1.0
1001
ACAD
1000
MTEXTBEGIN
1070
    73
1070
     1
1070
    44
1040
1.0
1070
    74
1070
     0
1000
MTEXTEND
  0
POINT
  5
221AF
330
22183
100
AcDbEntity
  8
DEFPOINTS
 62
     0
 48
50.0
100
AcDbPoint
 10
6915.157340025517
 20
7522.919036112861
 30
0.0
  0
POINT
  5
221B0
330
22183
100
AcDbEntity
  8
DEFPOINTS
 62
     0
 48
50.0
100
AcDbPoint
 10
6915.157340025517
 20
5302.919036112878
 30
0.0
  0
POINT
  5
221B1
330
22183
100
AcDbEntity
  8
DEFPOINTS
 62
     0
 48
50.0
100
AcDbPoint
 10
6173.722271873726
 20
5302.919036112878
 30
0.0
  0
ENDBLK
  5
2218E
330
22183
100
AcDbEntity
  8
0
 48
50.0
100
AcDbBlockEnd
  0
BLOCK
  5
2219C
330
22190
100
AcDbEntity
  8
0
 48
50.0
100
AcDbBlockBegin
  2
*D42
 70
     1
 10
0.0
 20
0.0
 30
0.0
  3
*D42
  1

  0
LINE
  5
221BD
330
22190
100
AcDbEntity
  8
寸法
 62
     0
 48
50.0
370
    -2
100
AcDbLine
 10
6399.215074011694
 20
5247.919036112861
 30
0.0
 11
6113.722271873728
 21
5247.919036112862
 31
0.0
  0
LINE
  5
221BE
330
22190
100
AcDbEntity
  8
寸法
 62
     0
 48
50.0
370
    -2
100
AcDbLine
 10
6895.157340025514
 20
5302.919036112878
 30
0.0
 11
6113.722271873728
 21
5302.919036112879
 31
0.0
  0
LINE
  5
221BF
330
22190
100
AcDbEntity
  8
寸法
 62
     0
 48
50.0
370
    -2
100
AcDbLine
 10
6173.722271873728
 20
5247.919036112861
 30
0.0
 11
6173.722271873728
 21
5147.919036112861
 31
0.0
  0
LINE
  5
221C0
330
22190
100
AcDbEntity
  8
寸法
 62
     0
 48
50.0
370
    -2
100
AcDbLine
 10
6173.722271873728
 20
5302.919036112878
 30
0.0
 11
6173.722271873728
 21
5402.919036112877
 31
0.0
  0
LINE
  5
221C1
330
22190
100
AcDbEntity
  8
寸法
 62
     0
 48
50.0
370
    -2
100
AcDbLine
 10
6173.722271873728
 20
5247.919036112861
 30
0.0
 11
6173.722271873728
 21
5302.919036112878
 31
0.0
  0
INSERT
  5
221C2
330
22190
100
AcDbEntity
  8
寸法
 62
     0
 48
50.0
370
    -2
100
AcDbBlockReference
  2
_DOTSMALL
 10
6173.722271873728
 20
5247.919036112861
 30
0.0
 41
100.0
 42
100.0
 43
100.0
 50
90.0
  0
INSERT
  5
221C3
330
22190
100
AcDbEntity
  8
寸法
 62
     0
 48
50.0
370
    -2
100
AcDbBlockReference
  2
_DOTSMALL
 10
6173.722271873728
 20
5302.919036112878
 30
0.0
 41
100.0
 42
100.0
 43
100.0
 50
270.0
  0
MTEXT
  5
221C4
330
22190
100
AcDbEntity
  8
寸法
 62
     7
 48
50.0
100
AcDbMText
 10
6073.722271873727
 20
5275.419036112872
 30
0.0
 40
120.0
 41
0.0
 71
     5
 72
     1
  1
\A1;b
  7
STYLE1
 11
0.0000000000000001
 21
1.0
 31
0.0
 73
     1
 44
1.0
1001
ACAD
1000
MTEXTBEGIN
1070
    73
1070
     1
1070
    44
1040
1.0
1070
    74
1070
     0
1000
MTEXTEND
  0
POINT
  5
221C5
330
22190
100
AcDbEntity
  8
DEFPOINTS
 62
     0
 48
50.0
100
AcDbPoint
 10
6419.215074011694
 20
5247.919036112861
 30
0.0
  0
POINT
  5
221C6
330
22190
100
AcDbEntity
  8
DEFPOINTS
 62
     0
 48
50.0
100
AcDbPoint
 10
6915.157340025515
 20
5302.919036112878
 30
0.0
  0
POINT
  5
221C7
330
22190
100
AcDbEntity
  8
DEFPOINTS
 62
     0
 48
50.0
100
AcDbPoint
 10
6173.722271873728
 20
5302.919036112878
 30
0.0
  0
ENDBLK
  5
2219D
330
22190
100
AcDbEntity
  8
0
 48
50.0
100
AcDbBlockEnd
  0
ENDSEC
  0
SECTION
  2
ENTITIES
  0
LINE
  5
10B57
330
747D
100
AcDbEntity
  8
補助
  6
PHANTOM
 62
   230
 48
50.0
100
AcDbLine
 10
139.9999999999995
 20
11409.6
 30
0.0
 11
16307.2
 21
11409.6
 31
0.0
  0
LINE
  5
10B59
330
747D
100
AcDbEntity
  8
仕様書枠
  6
Continuous
 48
50.0
100
AcDbLine
 10
13107.2
 20
1200.0
 30
0.0
 11
13107.2
 21
-0.0000000000000729
 31
0.0
  0
LINE
  5
10B5C
330
747D
100
AcDbEntity
  8
仕様書枠
 48
50.0
100
AcDbLine
 10
16307.2
 20
1200.0
 30
0.0
 11
16307.2
 21
-0.0000000000000909
 31
0.0
  0
LINE
  5
10B5D
330
747D
100
AcDbEntity
  8
仕様書枠
 48
50.0
100
AcDbLine
 10
140.0
 20
0.0
 30
0.0
 11
16307.2
 21
-0.0000000000000909
 31
0.0
  0
LINE
  5
10B5E
330
747D
100
AcDbEntity
  8
補助
  6
PHANTOM
 62
   230
 48
50.0
100
AcDbLine
 10
16307.2
 20
11409.6
 30
0.0
 11
16307.2
 21
1200.0
 31
0.0
  0
LINE
  5
10B6C
330
747D
100
AcDbEntity
  8
仕様書枠
 48
50.0
100
AcDbLine
 10
13107.2
 20
1200.0
 30
0.0
 11
16307.2
 21
1200.0
 31
0.0
  0
LINE
  5
10B6D
330
747D
100
AcDbEntity
  8
補助
  6
PHANTOM
 62
   230
 48
50.0
100
AcDbLine
 10
13107.2
 20
11409.6
 30
0.0
 11
13107.2
 21
4800.0
 31
0.0
  0
LINE
  5
10B6F
330
747D
100
AcDbEntity
  8
補助
  6
PHANTOM
 62
   230
 48
50.0
100
AcDbLine
 10
13107.2
 20
4800.0
 30
0.0
 11
16307.2
 21
4800.0
 31
0.0
  0
LINE
  5
10B72
330
747D
100
AcDbEntity
  8
文字
 62
     7
 48
50.0
100
AcDbLine
 10
13187.2
 20
400.0
 30
0.0
 11
16227.2
 21
400.0
 31
0.0
  0
TEXT
  5
10B73
330
747D
100
AcDbEntity
  8
文字
 62
     7
 48
50.0
100
AcDbText
 10
13162.9790565769
 20
895.0906074299405
 30
0.0
 40
200.0
  1
基 礎 図
  7
STYLE2
100
AcDbText
  0
TEXT
  5
10B74
330
747D
100
AcDbEntity
  8
文字
 62
     7
 48
50.0
100
AcDbText
 10
13201.43669998441
 20
477.2740661031255
 30
0.0
 40
160.0
  1
機種名
  7
STYLE2
100
AcDbText
  0
LINE
  5
10B7B
330
747D
100
AcDbEntity
  8
仕様書枠
 48
50.0
100
AcDbLine
 10
13107.2
 20
800.0
 30
0.0
 11
14251.2
 21
800.0
 31
0.0
  0
LINE
  5
10B88
330
747D
100
AcDbEntity
  8
仕様書枠
  6
Continuous
 48
50.0
100
AcDbLine
 10
14251.2
 20
1200.0
 30
0.0
 11
14251.2
 21
800.0
 31
0.0
  0
TEXT
  5
15A76
330
747D
100
AcDbEntity
  8
文字
 62
     7
 48
50.0
100
AcDbText
 10
14209.48770966493
 20
483.8967129911411
 30
0.0
 40
160.0
  1
　NXP-48SD・HD
  7
STYLE2
100
AcDbText
  0
TEXT
  5
1D002
330
747D
100
AcDbEntity
  8
文字
 62
     7
 48
50.0
100
AcDbText
 10
13188.16259899338
 20
246.7109242801889
 30
0.0
 40
80.0
  1
※寒冷地等は地域の実情に合わせた基礎にして下さい。
  7
STYLE2
100
AcDbText
  0
DIMENSION
  5
1D91B
330
747D
100
AcDbEntity
  8
寸法
 48
50.0
100
AcDbDimension
  2
*D1
 10
7361.864589901614
 20
5532.919036112863
 30
0.0
 11
7361.864589901613
 21
5793.966280207353
 31
0.0
 70
   160
 71
     5
 42
110.0000000000045
  3
INABA_S40G
100
AcDbAlignedDimension
 13
7145.157340025516
 23
5422.919036112858
 33
0.0
 14
7145.157340025516
 24
5532.919036112863
 34
0.0
 50
90.0
100
AcDbRotatedDimension
  0
DIMENSION
  5
1D91C
330
747D
100
AcDbEntity
  8
寸法
 48
50.0
100
AcDbDimension
  2
*D2
 10
7361.864589901614
 20
5302.919036112878
 30
0.0
 11
7361.864589901614
 21
5066.871792018391
 31
0.0
 70
   160
 71
     5
 42
119.9999999999827
  3
INABA_S40G
100
AcDbAlignedDimension
 13
7145.157340025516
 23
5422.91903611286
 33
0.0
 14
7145.157340025516
 24
5302.919036112878
 34
0.0
 50
90.0
100
AcDbRotatedDimension
  0
DIMENSION
  5
1D91D
330
747D
100
AcDbEntity
  8
寸法
 48
50.0
100
AcDbDimension
  2
*D3
 10
7038.157340025515
 20
8276.250847072711
 30
0.0
 11
8025.157340025515
 21
8376.250847072711
 31
0.0
 70
    32
 71
     5
 42
1974.0
  3
INABA_S40G
100
AcDbAlignedDimension
 13
9012.157340025515
 23
7449.919036112861
 33
0.0
 14
7038.157340025515
 24
7449.919036112861
 34
0.0
100
AcDbRotatedDimension
  0
LINE
  5
1D91E
102
{ACAD_REACTORS
330
21E24
102
}
330
747D
100
AcDbEntity
  8
部品1
 48
50.0
100
AcDbLine
 10
8905.157340025516
 20
5422.919036112876
 30
0.0
 11
7145.157340025514
 21
5422.919036112859
 31
0.0
  0
LINE
  5
1D91F
330
747D
100
AcDbEntity
  8
部品1
 48
50.0
100
AcDbLine
 10
8905.157340025516
 20
7402.919036112859
 30
0.0
 11
7145.157340025514
 21
7402.91903611286
 31
0.0
  0
DIMENSION
  5
1D920
330
747D
100
AcDbEntity
  8
寸法
 48
50.0
100
AcDbDimension
  2
*D4
 10
9135.157340025514
 20
8488.711542589548
 30
0.0
 11
8025.157340025513
 21
8588.72335361317
 31
0.0
 70
    32
 71
     5
 42
2220.000000000002
  3
INABA_S40G
100
AcDbAlignedDimension
 13
6915.157340025513
 23
7522.919036112859
 33
0.0
 14
9135.157340025514
 24
7522.919036112861
 34
0.0
100
AcDbRotatedDimension
  0
LINE
  5
1D922
330
747D
100
AcDbEntity
  8
部品1
 48
50.0
100
AcDbLine
 10
9135.157340025514
 20
7522.919036112863
 30
0.0
 11
6915.157340025517
 21
7522.919036112861
 31
0.0
  0
LINE
  5
1D923
330
747D
100
AcDbEntity
  8
想像線
 48
10.0
100
AcDbLine
 10
9180.157340025514
 20
5247.919036112856
 30
0.0
 11
6873.157340025517
 21
5247.919036112861
 31
0.0
  0
LINE
  5
1D924
330
747D
100
AcDbEntity
  8
想像線
 48
10.0
100
AcDbLine
 10
6873.157340025517
 20
7597.91903611286
 30
0.0
 11
9180.157340025511
 21
7597.919036112864
 31
0.0
  0
DIMENSION
  5
1D925
330
747D
100
AcDbEntity
  8
寸法
 48
50.0
100
AcDbDimension
  2
*D5
 10
6915.157340025513
 20
8276.250847072711
 30
0.0
 11
6676.672058651274
 21
8276.250847072711
 31
0.0
 70
   160
 71
     5
 42
123.0000000000018
  3
INABA_S40G
100
AcDbAlignedDimension
 13
7038.157340025515
 23
7449.919036112861
 33
0.0
 14
6915.157340025513
 24
7522.919036112859
 34
0.0
100
AcDbRotatedDimension
  0
DIMENSION
  5
1D926
330
747D
100
AcDbEntity
  8
寸法
 48
50.0
100
AcDbDimension
  2
*D6
 10
6915.157340025515
 20
8488.71154258955
 30
0.0
 11
6892.657340025514
 21
8488.71154258955
 31
0.0
 70
   160
  1
a
 71
     5
 42
45.00000000000364
  3
INABA_S40G
100
AcDbAlignedDimension
 13
6870.157340025511
 23
8276.250847072711
 33
0.0
 14
6915.157340025515
 24
7671.190236682781
 34
0.0
100
AcDbRotatedDimension
  0
DIMENSION
  5
1D927
330
747D
100
AcDbEntity
  8
寸法
 48
50.0
100
AcDbDimension
  2
*D7
 10
6419.215074011693
 20
5425.919036112862
 30
0.0
 11
6419.215074011693
 21
6407.92716086084
 31
0.0
 70
   160
 71
     5
 42
1973.999999999999
  3
INABA_S40G
100
AcDbAlignedDimension
 13
6988.157340025515
 23
7399.919036112861
 33
0.0
 14
6988.157340025523
 24
5425.919036112862
 34
0.0
 50
90.0
100
AcDbRotatedDimension
  0
LINE
  5
1D928
330
747D
100
AcDbEntity
  8
部品1
 48
50.0
100
AcDbLine
 10
7035.157340025516
 20
5532.919036112861
 30
0.0
 11
7035.157340025515
 21
7292.919036112859
 31
0.0
  0
LINE
  5
1D92A
330
747D
100
AcDbEntity
  8
部品1
 48
50.0
100
AcDbLine
 10
6915.157340025515
 20
5302.919036112878
 30
0.0
 11
6915.157340025517
 21
7522.919036112861
 31
0.0
  0
LINE
  5
1D92B
330
747D
100
AcDbEntity
  8
想像線
 48
10.0
100
AcDbLine
 10
6870.157340025517
 20
5250.919036112861
 30
0.0
 11
6870.157340025517
 21
7594.91903611286
 31
0.0
  0
DIMENSION
  5
1D92C
330
747D
100
AcDbEntity
  8
寸法
 48
50.0
100
AcDbDimension
  2
*D8
 10
6419.215074011694
 20
5302.91903611286
 30
0.0
 11
6419.215074011693
 21
5064.433754738622
 31
0.0
 70
   160
 71
     5
 42
123.0000000000018
  3
INABA_S40G
100
AcDbAlignedDimension
 13
6988.157340025523
 23
5425.919036112862
 33
0.0
 14
6915.157340025515
 24
5302.91903611286
 34
0.0
 50
90.0
100
AcDbRotatedDimension
  0
LINE
  5
1D92E
330
747D
100
AcDbEntity
  8
センター
 48
2.0
100
AcDbLine
 10
7038.157340025524
 20
5475.919036112862
 30
0.0
 11
7038.157340025524
 21
5375.919036112861
 31
0.0
  0
LINE
  5
1D92F
330
747D
100
AcDbEntity
  8
センター
 48
2.0
100
AcDbLine
 10
6988.157340025523
 20
5425.919036112862
 30
0.0
 11
7088.157340025524
 21
5425.919036112862
 31
0.0
  0
CIRCLE
  5
1D930
330
747D
100
AcDbEntity
  8
部品1
 48
50.0
100
AcDbCircle
 10
7038.157340025524
 20
5425.919036112862
 30
0.0
 40
35.0
  0
LINE
  5
1D931
330
747D
100
AcDbEntity
  8
部品1
 48
50.0
100
AcDbLine
 10
7145.157340025516
 20
5532.919036112863
 30
0.0
 11
7035.157340025515
 21
5532.919036112861
 31
0.0
  0
LINE
  5
1D932
330
747D
100
AcDbEntity
  8
部品1
 48
50.0
100
AcDbLine
 10
7145.157340025516
 20
5422.91903611286
 30
0.0
 11
7145.157340025516
 21
5532.919036112863
 31
0.0
  0
DIMENSION
  5
1D933
330
747D
100
AcDbEntity
  8
寸法
 48
50.0
100
AcDbDimension
  2
*D9
 10
6419.215074011693
 20
7399.919036112861
 30
0.0
 11
6419.215074011693
 21
7761.4043174871
 31
0.0
 70
   160
 71
     5
 42
123.0
  3
INABA_S40G
100
AcDbAlignedDimension
 13
6915.157340025515
 23
7522.91903611286
 33
0.0
 14
6988.157340025515
 24
7399.919036112861
 34
0.0
 50
90.0
100
AcDbRotatedDimension
  0
DIMENSION
  5
1D934
330
747D
100
AcDbEntity
  8
寸法
 48
50.0
100
AcDbDimension
  2
*D10
 10
6173.722271873725
 20
7522.91903611286
 30
0.0
 11
6173.722271873725
 21
7560.419036112863
 31
0.0
 70
   160
  1
c
 71
     5
 42
75.0
  3
INABA_S40G
100
AcDbAlignedDimension
 13
6419.215074011694
 23
7597.91903611286
 33
0.0
 14
6915.157340025515
 24
7522.91903611286
 34
0.0
 50
90.0
100
AcDbRotatedDimension
  0
LINE
  5
1D935
330
747D
100
AcDbEntity
  8
部品1
 48
50.0
100
AcDbLine
 10
7035.157340025515
 20
6512.919036112861
 30
0.0
 11
6915.157340025517
 21
6512.919036112861
 31
0.0
  0
LINE
  5
1D936
330
747D
100
AcDbEntity
  8
部品1
 48
50.0
100
AcDbLine
 10
7035.157340025515
 20
6312.919036112861
 30
0.0
 11
6915.157340025517
 21
6312.919036112861
 31
0.0
  0
LINE
  5
1D938
330
747D
100
AcDbEntity
  8
センター
 48
2.0
100
AcDbLine
 10
7038.157340025515
 20
7449.919036112861
 30
0.0
 11
7038.157340025515
 21
7349.919036112861
 31
0.0
  0
LINE
  5
1D939
330
747D
100
AcDbEntity
  8
センター
 48
2.0
100
AcDbLine
 10
6988.157340025515
 20
7399.919036112861
 30
0.0
 11
7088.157340025515
 21
7399.919036112861
 31
0.0
  0
CIRCLE
  5
1D93A
330
747D
100
AcDbEntity
  8
部品1
 48
50.0
100
AcDbCircle
 10
7038.157340025515
 20
7399.919036112861
 30
0.0
 40
35.0
  0
LINE
  5
1D93B
330
747D
100
AcDbEntity
  8
部品1
 48
50.0
100
AcDbLine
 10
7145.157340025514
 20
7292.919036112856
 30
0.0
 11
7035.157340025513
 21
7292.919036112859
 31
0.0
  0
LINE
  5
1D93C
330
747D
100
AcDbEntity
  8
部品1
 48
50.0
100
AcDbLine
 10
7145.157340025514
 20
7292.919036112856
 30
0.0
 11
7145.157340025514
 21
7402.91903611286
 31
0.0
  0
DIMENSION
  5
1D93E
330
747D
100
AcDbEntity
  8
寸法
 48
50.0
100
AcDbDimension
  2
*D11
 10
9012.157340025515
 20
8276.250847072711
 30
0.0
 11
9373.642621399753
 21
8276.250847072711
 31
0.0
 70
   160
 71
     5
 42
123.0
  3
INABA_S40G
100
AcDbAlignedDimension
 13
9135.157340025514
 23
7522.919036112861
 33
0.0
 14
9012.157340025515
 24
7449.919036112861
 34
0.0
100
AcDbRotatedDimension
  0
DIMENSION
  5
1D93F
330
747D
100
AcDbEntity
  8
寸法
 48
50.0
100
AcDbDimension
  2
*D12
 10
9180.157340025514
 20
8488.711542589548
 30
0.0
 11
9157.657340025513
 21
8488.711542589548
 31
0.0
 70
   160
  1
a
 71
     5
 42
45.0
  3
INABA_S40G
100
AcDbAlignedDimension
 13
9135.157340025514
 23
7671.190236682781
 33
0.0
 14
9180.157340025514
 24
8276.250847072711
 34
0.0
100
AcDbRotatedDimension
  0
DIMENSION
  5
1D942
330
747D
100
AcDbEntity
  8
寸法
 48
50.0
100
AcDbDimension
  2
*D13
 10
9015.157340025513
 20
6984.422404093454
 30
0.0
 11
9371.204584120004
 21
6984.422404093454
 31
0.0
 70
   160
 71
     5
 42
120.0000000000018
  3
INABA_S40G
100
AcDbAlignedDimension
 13
9135.157340025514
 23
7042.919036112869
 33
0.0
 14
9015.157340025513
 24
7117.560052264252
 34
0.0
100
AcDbRotatedDimension
  0
TEXT
  5
1D943
330
747D
100
AcDbEntity
  8
部品1
 48
50.0
100
AcDbText
 10
9221.977406703917
 20
4608.032239333585
 30
0.0
 40
80.0
  1
(a=45,b=55,c=75)
  7
STYLE1
100
AcDbText
  0
TEXT
  5
1D944
330
747D
100
AcDbEntity
  8
部品1
 48
50.0
100
AcDbText
 10
9152.100519099032
 20
4727.763285486725
 30
0.0
 40
80.0
  1
※a,b,cは屋根の出幅です。
  7
STYLE1
100
AcDbText
  0
MTEXT
  5
1D945
102
{ACAD_REACTORS
330
1D946
102
}
330
747D
100
AcDbEntity
  8
部品1
 62
     7
 48
50.0
100
AcDbMText
 10
10017.28311456383
 20
4951.901644153068
 30
0.0
 40
120.0
 41
0.0
 71
     6
 72
     1
  1
\A1;屋根の外寸
  7
STYLE1
 73
     1
 44
1.0
1001
ACAD
1000
MTEXTBEGIN
1070
    73
1070
     1
1070
    44
1040
1.0
1070
    74
1070
     0
1000
MTEXTEND
  0
LEADER
  5
1D946
330
747D
100
AcDbEntity
  8
寸法
 48
50.0
100
AcDbLeader
  3
INABA_S40G
 71
     0
 73
     0
 74
     0
 75
     1
 40
120.0
 41
672.0
 76
     3
 10
8947.045927959342
 20
5246.91903611286
 30
0.0
 10
9205.283114563833
 20
4851.901644153069
 30
0.0
 10
9305.283114563833
 20
4851.901644153069
 30
0.0
340
1D945
  0
LINE
  5
1D949
330
747D
100
AcDbEntity
  8
部品1
 48
50.0
100
AcDbLine
 10
9015.157340025515
 20
5532.919036112879
 30
0.0
 11
9015.157340025513
 21
7292.919036112862
 31
0.0
  0
LINE
  5
1D94A
330
747D
100
AcDbEntity
  8
部品1
 48
50.0
100
AcDbLine
 10
9135.157340025514
 20
5302.919036112878
 30
0.0
 11
9135.157340025514
 21
7522.919036112863
 31
0.0
  0
LINE
  5
1D94B
330
747D
100
AcDbEntity
  8
想像線
 48
10.0
100
AcDbLine
 10
9180.157340025511
 20
7597.919036112864
 30
0.0
 11
9180.157340025518
 21
5247.919036112859
 31
0.0
  0
LINE
  5
1D94F
102
{ACAD_REACTORS
330
21E24
102
}
330
747D
100
AcDbEntity
  8
部品1
 48
50.0
100
AcDbLine
 10
7925.157340025538
 20
5302.919036112878
 30
0.0
 11
7925.157340025538
 21
5422.919036112866
 31
0.0
  0
LINE
  5
1D950
102
{ACAD_REACTORS
330
21E24
102
}
330
747D
100
AcDbEntity
  8
部品1
 48
50.0
100
AcDbLine
 10
8125.157340025536
 20
5302.919036112878
 30
0.0
 11
8125.157340025536
 21
5422.919036112869
 31
0.0
  0
LINE
  5
1D951
330
747D
100
AcDbEntity
  8
センター
 48
2.0
100
AcDbLine
 10
8962.157340025521
 20
5425.919036112862
 30
0.0
 11
9062.157340025521
 21
5425.919036112862
 31
0.0
  0
CIRCLE
  5
1D952
330
747D
100
AcDbEntity
  8
部品1
 48
50.0
100
AcDbCircle
 10
9012.157340025522
 20
5425.919036112862
 30
0.0
 40
35.0
  0
LINE
  5
1D953
330
747D
100
AcDbEntity
  8
部品1
 48
50.0
100
AcDbLine
 10
9015.157340025513
 20
5532.919036112878
 30
0.0
 11
8905.157340025516
 21
5532.919036112878
 31
0.0
  0
LINE
  5
1D954
330
747D
100
AcDbEntity
  8
部品1
 48
50.0
100
AcDbLine
 10
8905.157340025516
 20
5422.919036112876
 30
0.0
 11
8905.157340025516
 21
5532.919036112878
 31
0.0
  0
LINE
  5
1D955
330
747D
100
AcDbEntity
  8
センター
 48
2.0
100
AcDbLine
 10
9012.157340025522
 20
5475.919036112862
 30
0.0
 11
9012.157340025522
 21
5375.919036112861
 31
0.0
  0
LINE
  5
1D956
330
747D
100
AcDbEntity
  8
部品1
 48
50.0
100
AcDbLine
 10
8125.157340025522
 20
7402.91903611286
 30
0.0
 11
8125.157340025522
 21
7522.91903611286
 31
0.0
  0
LINE
  5
1D957
330
747D
100
AcDbEntity
  8
部品1
 48
50.0
100
AcDbLine
 10
7925.157340025522
 20
7402.91903611286
 30
0.0
 11
7925.157340025522
 21
7522.91903611286
 31
0.0
  0
LINE
  5
1D95A
330
747D
100
AcDbEntity
  8
センター
 48
2.0
100
AcDbLine
 10
8962.157340025514
 20
7399.919036112861
 30
0.0
 11
9062.157340025514
 21
7399.919036112861
 31
0.0
  0
CIRCLE
  5
1D95B
330
747D
100
AcDbEntity
  8
部品1
 48
50.0
100
AcDbCircle
 10
9012.157340025515
 20
7399.919036112861
 30
0.0
 40
35.0
  0
LINE
  5
1D95C
330
747D
100
AcDbEntity
  8
部品1
 48
50.0
100
AcDbLine
 10
9015.157340025512
 20
7292.919036112862
 30
0.0
 11
8905.157340025516
 21
7292.919036112859
 31
0.0
  0
LINE
  5
1D95D
330
747D
100
AcDbEntity
  8
部品1
 48
50.0
100
AcDbLine
 10
8905.157340025516
 20
7292.919036112859
 30
0.0
 11
8905.157340025516
 21
7402.919036112859
 31
0.0
  0
LINE
  5
1D95E
330
747D
100
AcDbEntity
  8
部品1
 48
50.0
100
AcDbLine
 10
9135.157340025516
 20
6512.919036112861
 30
0.0
 11
9015.157340025513
 21
6512.919036112861
 31
0.0
  0
LINE
  5
1D95F
330
747D
100
AcDbEntity
  8
部品1
 48
50.0
100
AcDbLine
 10
9135.157340025516
 20
6312.919036112861
 30
0.0
 11
9015.157340025513
 21
6312.919036112861
 31
0.0
  0
LINE
  5
1D961
330
747D
100
AcDbEntity
  8
センター
 48
2.0
100
AcDbLine
 10
9012.157340025515
 20
7449.919036112861
 30
0.0
 11
9012.157340025515
 21
7349.919036112861
 31
0.0
  0
TEXT
  5
1DEDA
330
747D
100
AcDbEntity
  8
文字
 62
     7
 48
50.0
100
AcDbText
 10
13188.16259899338
 20
79.80631269190325
 30
0.0
 40
80.0
  1
※布基礎には換気口を設けてください。
  7
STYLE2
100
AcDbText
  0
MTEXT
  5
1E700
102
{ACAD_REACTORS
330
1E701
102
}
330
747D
100
AcDbEntity
  8
部品1
 62
     7
 48
50.0
100
AcDbMText
 10
10184.97431946162
 20
7765.944479920811
 30
0.0
 40
120.0
 41
0.0
 71
     6
 72
     1
  1
基礎ボルト芯
  7
STYLE1
 73
     1
 44
1.0
1001
ACAD
1000
MTEXTBEGIN
1070
    73
1070
     1
1070
    44
1040
1.0
1070
    74
1070
     0
1000
MTEXTEND
  0
LEADER
  5
1E701
330
747D
100
AcDbEntity
  8
寸法
 48
50.0
100
AcDbLeader
  3
INABA_S40G
 71
     0
 73
     0
 74
     0
 75
     1
 40
120.0
 41
846.0000000000002
 76
     3
 10
9012.157340025515
 20
7399.919036112861
 30
0.0
 10
9198.974319461621
 20
7665.944479920812
 30
0.0
 10
9298.974319461621
 20
7665.944479920812
 30
0.0
340
1E700
  0
DIMENSION
  5
1E96D
330
747D
100
AcDbEntity
  8
寸法
 48
50.0
100
AcDbDimension
  2
*D14
 10
7967.690754844582
 20
7522.919036112863
 30
0.0
 11
7867.690754844581
 21
7155.419036112864
 31
0.0
 70
    32
 71
     5
 42
735.0000000000009
  3
INABA_S40G
100
AcDbAlignedDimension
 13
7729.157340025515
 23
6787.91903611286
 33
0.0
 14
7678.657340025523
 24
7522.919036112863
 34
0.0
 50
90.0
100
AcDbRotatedDimension
  0
DIMENSION
  5
1E98B
330
747D
100
AcDbEntity
  8
寸法
 48
50.0
100
AcDbDimension
  2
*D15
 10
7967.690754844594
 20
6037.919036112869
 30
0.0
 11
7967.690754844593
 21
5670.419036112869
 31
0.0
 70
   160
 71
     5
 42
734.9999999999917
  3
INABA_S40G
100
AcDbAlignedDimension
 13
7678.657340025525
 23
5302.919036112878
 33
0.0
 14
7729.157340025515
 24
6037.919036112869
 34
0.0
 50
90.0
100
AcDbRotatedDimension
  0
MTEXT
  5
1F11B
102
{ACAD_REACTORS
330
1F11C
102
}
330
747D
100
AcDbEntity
  8
部品1
 62
     7
 48
50.0
100
AcDbMText
 10
10205.39452663001
 20
6117.901644153088
 30
0.0
 40
120.0
 41
0.0
 71
     6
 72
     1
  1
床下換気口
  7
STYLE1
 73
     1
 44
1.0
1001
ACAD
1000
MTEXTBEGIN
1070
    73
1070
     1
1070
    44
1040
1.0
1070
    74
1070
     0
1000
MTEXTEND
  0
LEADER
  5
1F11C
330
747D
100
AcDbEntity
  8
寸法
 48
50.0
100
AcDbLeader
  3
INABA_S40G
 71
     0
 73
     0
 74
     0
 75
     1
 40
120.0
 41
720.0000000000001
 76
     3
 10
9135.157340025516
 20
6412.919036112879
 30
0.0
 10
9345.394526630009
 20
6017.901644153088
 30
0.0
 10
9445.394526630009
 20
6017.901644153088
 30
0.0
340
1F11B
  0
DIMENSION
  5
1F248
330
747D
100
AcDbEntity
  8
寸法
 48
50.0
100
AcDbDimension
  2
*D17
 10
8371.157340025515
 20
8048.090767068199
 30
0.0
 11
8711.927475207966
 21
8048.090767068199
 31
0.0
 70
   160
 71
     5
 42
763.9999999999964
  3
INABA_S40G
100
AcDbAlignedDimension
 13
9135.157340025511
 23
7522.919036112863
 33
0.0
 14
8371.157340025515
 24
6837.919036112861
 34
0.0
100
AcDbRotatedDimension
  0
DIMENSION
  5
1F249
330
747D
100
AcDbEntity
  8
寸法
 48
50.0
100
AcDbDimension
  2
*D16
 10
6915.157340025513
 20
8049.82880176119
 30
0.0
 11
7297.157340025512
 21
8149.82880176119
 31
0.0
 70
    32
 71
     5
 42
764.0000000000009
  3
INABA_S40G
100
AcDbAlignedDimension
 13
7679.157340025515
 23
6837.919036112861
 33
0.0
 14
6915.157340025513
 24
7522.919036112863
 34
0.0
100
AcDbRotatedDimension
  0
LINE
  5
1F940
330
747D
100
AcDbEntity
  8
センター
 48
2.0
100
AcDbLine
 10
8371.157340025515
 20
6837.919036112861
 30
0.0
 11
8371.157340025515
 21
6737.91903611286
 31
0.0
  0
LINE
  5
1F941
330
747D
100
AcDbEntity
  8
部品1
 48
50.0
100
AcDbLine
 10
8471.157340025515
 20
6687.919036112861
 30
0.0
 11
8471.157340025515
 21
6887.919036112861
 31
0.0
  0
LINE
  5
1F942
330
747D
100
AcDbEntity
  8
部品1
 48
50.0
100
AcDbLine
 10
8271.157340025519
 20
6687.919036112861
 30
0.0
 11
8271.157340025519
 21
6887.919036112861
 31
0.0
  0
LINE
  5
1F943
330
747D
100
AcDbEntity
  8
センター
 48
2.0
100
AcDbLine
 10
8321.157340025514
 20
6787.91903611286
 30
0.0
 11
8421.157340025514
 21
6787.91903611286
 31
0.0
  0
LINE
  5
1F944
330
747D
100
AcDbEntity
  8
部品1
 48
50.0
100
AcDbLine
 10
8471.157340025515
 20
6687.919036112859
 30
0.0
 11
8271.157340025515
 21
6687.919036112859
 31
0.0
  0
LINE
  5
1F945
330
747D
100
AcDbEntity
  8
部品1
 48
50.0
100
AcDbLine
 10
8471.157340025515
 20
6887.919036112861
 30
0.0
 11
8271.157340025515
 21
6887.919036112861
 31
0.0
  0
LINE
  5
1FDB5
330
747D
100
AcDbEntity
  8
想像線
 48
10.0
100
AcDbLine
 10
6873.157340025517
 20
7597.91903611286
 30
0.0
 11
6870.157340025517
 21
7594.91903611286
 31
0.0
  0
LINE
  5
1FDB9
330
747D
100
AcDbEntity
  8
想像線
 48
10.0
100
AcDbLine
 10
6870.157340025517
 20
5250.919036112861
 30
0.0
 11
6873.157340025517
 21
5247.919036112861
 31
0.0
  0
LINE
  5
1FE23
330
747D
100
AcDbEntity
  8
センター
 48
2.0
100
AcDbLine
 10
7629.157340025514
 20
6787.91903611286
 30
0.0
 11
7729.157340025515
 21
6787.91903611286
 31
0.0
  0
LINE
  5
1FE24
330
747D
100
AcDbEntity
  8
部品1
 48
50.0
100
AcDbLine
 10
7579.157340025514
 20
6687.919036112861
 30
0.0
 11
7579.157340025514
 21
6887.919036112861
 31
0.0
  0
LINE
  5
1FE25
330
747D
100
AcDbEntity
  8
部品1
 48
50.0
100
AcDbLine
 10
7779.157340025513
 20
6687.919036112861
 30
0.0
 11
7779.157340025514
 21
6887.919036112861
 31
0.0
  0
LINE
  5
1FE26
330
747D
100
AcDbEntity
  8
センター
 48
2.0
100
AcDbLine
 10
7679.157340025515
 20
6837.919036112861
 30
0.0
 11
7679.157340025515
 21
6737.91903611286
 31
0.0
  0
DIMENSION
  5
1FE4B
330
747D
100
AcDbEntity
  8
寸法
 48
50.0
100
AcDbDimension
  2
*D18
 10
8371.157340025515
 20
8049.82880176119
 30
0.0
 11
8025.157340025515
 21
8149.869614325995
 31
0.0
 70
    32
 71
     5
 42
692.0000000000008
  3
INABA_S40G
100
AcDbAlignedDimension
 13
7679.157340025515
 23
6837.919036112861
 33
0.0
 14
8371.157340025515
 24
6837.919036112861
 34
0.0
100
AcDbRotatedDimension
  0
LEADER
  5
1FEC1
330
747D
100
AcDbEntity
  8
寸法
 48
50.0
100
AcDbLeader
  3
INABA_S40G
 71
     0
 73
     0
 74
     0
 75
     1
 40
120.0
 41
185.591883092037
 76
     3
 10
8353.751908443708
 20
6712.490509905555
 30
0.0
 10
8548.554159418797
 20
6519.697104093125
 30
0.0
 10
8648.554159418797
 20
6519.697104093125
 30
0.0
340
1FEC2
210
0.0
220
0.0
230
-1.0
213
81.93666386650329
223
-42.66026254335156
233
0.0
  0
MTEXT
  5
1FEC2
102
{ACAD_REACTORS
330
1FEC1
102
}
330
747D
100
AcDbEntity
  8
部品1
 62
     7
 48
50.0
100
AcDbMText
 10
8792.209378644329
 20
6582.357366636478
 30
0.0
 40
120.0
 41
0.0
 71
     6
 72
     1
  1
\A1;C.B
  7
STYLE1
 73
     1
 44
1.0
1001
ACAD
1000
MTEXTBEGIN
1070
    73
1070
     1
1070
    44
1040
1.0
1070
    74
1070
     0
1000
MTEXTEND
  0
LINE
  5
1FEC9
330
747D
100
AcDbEntity
  8
部品1
 48
50.0
100
AcDbLine
 10
7779.157340025514
 20
6887.919036112861
 30
0.0
 11
7579.157340025514
 21
6887.919036112861
 31
0.0
  0
LINE
  5
1FECA
330
747D
100
AcDbEntity
  8
部品1
 48
50.0
100
AcDbLine
 10
7779.157340025514
 20
6687.919036112859
 30
0.0
 11
7579.157340025514
 21
6687.919036112859
 31
0.0
  0
LINE
  5
20324
330
747D
100
AcDbEntity
  8
部品1
 48
50.0
100
AcDbLine
 10
7779.157340025514
 20
5937.919036112868
 30
0.0
 11
7579.157340025514
 21
5937.919036112868
 31
0.0
  0
LINE
  5
20325
330
747D
100
AcDbEntity
  8
部品1
 48
50.0
100
AcDbLine
 10
7779.157340025514
 20
6137.919036112869
 30
0.0
 11
7579.157340025514
 21
6137.919036112869
 31
0.0
  0
LINE
  5
20326
330
747D
100
AcDbEntity
  8
センター
 48
2.0
100
AcDbLine
 10
7679.157340025515
 20
6087.919036112869
 30
0.0
 11
7679.157340025515
 21
5987.919036112869
 31
0.0
  0
LINE
  5
20327
330
747D
100
AcDbEntity
  8
部品1
 48
50.0
100
AcDbLine
 10
7779.157340025513
 20
5937.919036112868
 30
0.0
 11
7779.157340025514
 21
6137.919036112869
 31
0.0
  0
LINE
  5
20328
330
747D
100
AcDbEntity
  8
部品1
 48
50.0
100
AcDbLine
 10
7579.157340025516
 20
5937.919036112868
 30
0.0
 11
7579.157340025516
 21
6137.919036112871
 31
0.0
  0
LINE
  5
20329
330
747D
100
AcDbEntity
  8
センター
 48
2.0
100
AcDbLine
 10
7629.157340025514
 20
6037.919036112869
 30
0.0
 11
7729.157340025515
 21
6037.919036112869
 31
0.0
  0
LINE
  5
2032A
330
747D
100
AcDbEntity
  8
部品1
 48
50.0
100
AcDbLine
 10
8471.157340025515
 20
6137.919036112869
 30
0.0
 11
8271.157340025515
 21
6137.919036112869
 31
0.0
  0
LINE
  5
2032B
330
747D
100
AcDbEntity
  8
部品1
 48
50.0
100
AcDbLine
 10
8471.157340025515
 20
5937.919036112868
 30
0.0
 11
8271.157340025515
 21
5937.919036112868
 31
0.0
  0
LINE
  5
2032C
330
747D
100
AcDbEntity
  8
センター
 48
2.0
100
AcDbLine
 10
8321.157340025514
 20
6037.919036112869
 30
0.0
 11
8421.157340025514
 21
6037.919036112869
 31
0.0
  0
LINE
  5
2032D
330
747D
100
AcDbEntity
  8
部品1
 48
50.0
100
AcDbLine
 10
8271.157340025515
 20
5937.919036112868
 30
0.0
 11
8271.157340025519
 21
6137.919036112871
 31
0.0
  0
LINE
  5
2032E
330
747D
100
AcDbEntity
  8
部品1
 48
50.0
100
AcDbLine
 10
8471.157340025515
 20
5937.919036112868
 30
0.0
 11
8471.157340025515
 21
6137.919036112869
 31
0.0
  0
LINE
  5
2032F
330
747D
100
AcDbEntity
  8
センター
 48
2.0
100
AcDbLine
 10
8371.157340025515
 20
6087.919036112869
 30
0.0
 11
8371.157340025515
 21
5987.919036112869
 31
0.0
  0
DIMENSION
  5
20342
330
747D
100
AcDbEntity
  8
寸法
 48
50.0
100
AcDbDimension
  2
*D19
 10
7967.690754844582
 20
6787.91903611286
 30
0.0
 11
7867.690754844581
 21
6412.919036112866
 31
0.0
 70
    32
 71
     5
 42
749.9999999999918
  3
INABA_S40G
100
AcDbAlignedDimension
 13
7729.157340025515
 23
6037.919036112869
 33
0.0
 14
7729.157340025515
 24
6787.91903611286
 34
0.0
 50
90.0
100
AcDbRotatedDimension
  0
DIMENSION
  5
206A2
330
747D
100
AcDbEntity
  8
寸法
 48
50.0
100
AcDbDimension
  2
*D20
 10
7362.833832283957
 20
7522.919036112859
 30
0.0
 11
7362.833832283957
 21
7788.96628020735
 31
0.0
 70
   160
 71
     5
 42
119.9999999999981
  3
INABA_S40G
100
AcDbAlignedDimension
 13
7145.157340025514
 23
7402.91903611286
 33
0.0
 14
7145.157340025514
 24
7522.919036112859
 34
0.0
 50
90.0
100
AcDbRotatedDimension
  0
DIMENSION
  5
206A3
330
747D
100
AcDbEntity
  8
寸法
 48
50.0
100
AcDbDimension
  2
*D21
 10
7362.833832283958
 20
7402.91903611286
 30
0.0
 11
7362.833832283957
 21
7056.871792018369
 31
0.0
 70
   160
 71
     5
 42
110.0000000000036
  3
INABA_S40G
100
AcDbAlignedDimension
 13
7145.157340025514
 23
7292.919036112856
 33
0.0
 14
7145.157340025514
 24
7402.91903611286
 34
0.0
 50
90.0
100
AcDbRotatedDimension
  0
LINE
  5
21A95
330
747D
100
AcDbEntity
  8
細線
 48
50.0
100
AcDbLine
 10
7925.157340025522
 20
7519.646443697578
 30
0.0
 11
7928.429932440804
 21
7522.91903611286
 31
0.0
  0
LINE
  5
21A96
330
747D
100
AcDbEntity
  8
細線
 48
50.0
100
AcDbLine
 10
7925.157340025522
 20
7474.745163092231
 30
0.0
 11
7973.33121304615
 21
7522.91903611286
 31
0.0
  0
LINE
  5
21A97
330
747D
100
AcDbEntity
  8
細線
 48
50.0
100
AcDbLine
 10
7925.157340025522
 20
7429.843882486887
 30
0.0
 11
8018.232493651495
 21
7522.91903611286
 31
0.0
  0
LINE
  5
21A98
330
747D
100
AcDbEntity
  8
細線
 48
50.0
100
AcDbLine
 10
7943.13377425684
 20
7402.91903611286
 30
0.0
 11
8063.133774256842
 21
7522.91903611286
 31
0.0
  0
LINE
  5
21A99
330
747D
100
AcDbEntity
  8
細線
 48
50.0
100
AcDbLine
 10
7988.035054862186
 20
7402.91903611286
 30
0.0
 11
8108.035054862188
 21
7522.91903611286
 31
0.0
  0
LINE
  5
21A9A
330
747D
100
AcDbEntity
  8
細線
 48
50.0
100
AcDbLine
 10
8032.936335467534
 20
7402.919036112859
 30
0.0
 11
8125.157340025522
 21
7495.140040670849
 31
0.0
  0
LINE
  5
21A9B
330
747D
100
AcDbEntity
  8
細線
 48
50.0
100
AcDbLine
 10
8077.837616072878
 20
7402.91903611286
 30
0.0
 11
8125.157340025522
 21
7450.238760065504
 31
0.0
  0
LINE
  5
21A9C
330
747D
100
AcDbEntity
  8
細線
 48
50.0
100
AcDbLine
 10
6915.157340025517
 20
6487.509306142541
 30
0.0
 11
6940.567069995835
 21
6512.919036112861
 31
0.0
  0
LINE
  5
21A9D
330
747D
100
AcDbEntity
  8
細線
 48
50.0
100
AcDbLine
 10
6915.157340025517
 20
6442.608025537196
 30
0.0
 11
6985.46835060118
 21
6512.919036112859
 31
0.0
  0
LINE
  5
21A9E
330
747D
100
AcDbEntity
  8
細線
 48
50.0
100
AcDbLine
 10
6915.157340025515
 20
6397.706744931849
 30
0.0
 11
7030.369631206527
 21
6512.919036112861
 31
0.0
  0
LINE
  5
21A9F
330
747D
100
AcDbEntity
  8
細線
 48
50.0
100
AcDbLine
 10
6915.157340025517
 20
6352.805464326505
 30
0.0
 11
7035.157340025513
 21
6472.805464326502
 31
0.0
  0
LINE
  5
21AA0
330
747D
100
AcDbEntity
  8
細線
 48
50.0
100
AcDbLine
 10
6920.172192417215
 20
6312.919036112857
 30
0.0
 11
7035.157340025515
 21
6427.904183721158
 31
0.0
  0
LINE
  5
21AA1
330
747D
100
AcDbEntity
  8
細線
 48
50.0
100
AcDbLine
 10
6965.073473022562
 20
6312.919036112859
 30
0.0
 11
7035.157340025515
 21
6383.002903115812
 31
0.0
  0
LINE
  5
21AA2
330
747D
100
AcDbEntity
  8
細線
 48
50.0
100
AcDbLine
 10
7009.974753627912
 20
6312.919036112861
 30
0.0
 11
7035.157340025515
 21
6338.101622510468
 31
0.0
  0
LINE
  5
21AA3
330
747D
100
AcDbEntity
  8
細線
 48
50.0
100
AcDbLine
 10
9015.157340025513
 20
6467.509306142535
 30
0.0
 11
9060.567069995835
 21
6512.919036112862
 31
0.0
  0
LINE
  5
21AA4
330
747D
100
AcDbEntity
  8
細線
 48
50.0
100
AcDbLine
 10
9015.157340025515
 20
6422.608025537194
 30
0.0
 11
9105.468350601178
 21
6512.919036112859
 31
0.0
  0
LINE
  5
21AA5
330
747D
100
AcDbEntity
  8
細線
 48
50.0
100
AcDbLine
 10
9015.157340025515
 20
6377.70674493185
 30
0.0
 11
9135.157340025516
 21
6497.706744931851
 31
0.0
  0
LINE
  5
21AA6
330
747D
100
AcDbEntity
  8
細線
 48
50.0
100
AcDbLine
 10
9015.157340025513
 20
6332.805464326501
 30
0.0
 11
9135.157340025516
 21
6452.805464326505
 31
0.0
  0
LINE
  5
21AA7
330
747D
100
AcDbEntity
  8
細線
 48
50.0
100
AcDbLine
 10
9040.172192417216
 20
6312.919036112858
 30
0.0
 11
9135.157340025516
 21
6407.904183721161
 31
0.0
  0
LINE
  5
21AA8
330
747D
100
AcDbEntity
  8
細線
 48
50.0
100
AcDbLine
 10
9085.073473022559
 20
6312.919036112859
 30
0.0
 11
9135.157340025516
 21
6363.002903115813
 31
0.0
  0
LINE
  5
21AA9
330
747D
100
AcDbEntity
  8
細線
 48
50.0
100
AcDbLine
 10
9129.974753627909
 20
6312.919036112861
 30
0.0
 11
9135.157340025516
 21
6318.101622510468
 31
0.0
  0
DIMENSION
  5
21AAA
330
747D
100
AcDbEntity
  8
寸法
 48
50.0
100
AcDbDimension
  2
*D28
 10
9015.157340025513
 20
6984.422404093454
 30
0.0
 11
8681.110095931027
 21
6984.422404093454
 31
0.0
 70
   160
 71
     5
 42
109.9999999999982
  3
INABA_S40G
100
AcDbAlignedDimension
 13
8905.157340025516
 23
7292.919036112859
 33
0.0
 14
9015.157340025513
 24
7102.393447280284
 34
0.0
100
AcDbRotatedDimension
  0
LINE
  5
21DD4
102
{ACAD_REACTORS
330
21E24
102
}
330
747D
100
AcDbEntity
  8
部品1
 48
50.0
100
AcDbLine
 10
9135.157340025514
 20
5302.919036112878
 30
0.0
 11
6915.157340025515
 21
5302.919036112878
 31
0.0
  0
HATCH
  5
21E24
330
747D
100
AcDbEntity
  8
細線
 48
50.0
100
AcDbHatch
 10
0.0
 20
0.0
 30
0.0
210
0.0
220
0.0
230
1.0
  2
LINE
 70
     0
 71
     1
 91
        1
 92
        7
 72
     0
 73
     1
 93
        4
 10
8125.157340025536
 20
5422.919036112869
 10
7925.157340025538
 20
5422.919036112868
 10
7925.157340025538
 20
5302.919036112879
 10
8125.157340025536
 20
5302.919036112879
 97
        4
330
1D91E
330
1D94F
330
21DD4
330
1D950
 75
     0
 76
     1
 52
45.0
 41
10.0
 77
     0
 78
     1
 53
45.0
 43
0.0
 44
0.0
 45
-22.45064030267288
 46
22.45064030267288
 79
     0
 47
2.62587349912093
 98
        1
 10
8039.177993227699
 20
5413.466887263032
  0
LINE
  5
21FC8
330
747D
100
AcDbEntity
  8
細線
 48
50.0
100
AcDbLine
 10
10959.24643178033
 20
1489.141329177078
 30
0.0
 11
10951.20795600739
 21
1519.141329177078
 31
0.0
  0
LINE
  5
21FC9
330
747D
100
AcDbEntity
  8
細線
100
AcDbLine
 10
10747.49605028527
 20
1519.141329177082
 30
0.0
 11
10862.11969485195
 21
1633.764973743768
 31
0.0
  0
LINE
  5
21FCA
330
747D
100
AcDbEntity
  8
細線
100
AcDbLine
 10
10705.06964341408
 20
1519.141329177082
 30
0.0
 11
10819.69328798076
 21
1633.764973743768
 31
0.0
  0
LINE
  5
21FCB
330
747D
100
AcDbEntity
  8
細線
100
AcDbLine
 10
10789.92245715646
 20
1519.141329177082
 30
0.0
 11
10904.54610172314
 21
1633.764973743768
 31
0.0
  0
LINE
  5
21FCC
330
747D
100
AcDbEntity
  8
細線
 48
50.0
100
AcDbLine
 10
10762.0263194122
 20
1489.14132917708
 30
0.0
 11
10753.98784363926
 21
1519.14132917708
 31
0.0
  0
LINE
  5
21FCD
330
747D
100
AcDbEntity
  8
細線
 48
50.0
100
AcDbLine
 10
10860.63637559627
 20
1489.141329177078
 30
0.0
 11
10852.59789982333
 21
1519.141329177078
 31
0.0
  0
LINE
  5
21FCE
330
747D
100
AcDbEntity
  8
部品1
100
AcDbLine
 10
10863.77415028991
 20
1933.764973743768
 30
0.0
 11
10863.77415028991
 21
1633.764973743768
 31
0.0
  0
LINE
  5
21FCF
330
747D
100
AcDbEntity
  8
細線
 48
50.0
100
AcDbLine
 10
10564.80620704409
 20
1489.14132917708
 30
0.0
 11
10556.76773127116
 21
1519.14132917708
 31
0.0
  0
LINE
  5
21FD0
330
747D
100
AcDbEntity
  8
細線
 48
50.0
100
AcDbLine
 10
10663.41626322815
 20
1489.14132917708
 30
0.0
 11
10655.37778745522
 21
1519.14132917708
 31
0.0
  0
LINE
  5
21FD1
330
747D
100
AcDbEntity
  8
細線
100
AcDbLine
 10
10297.49605028527
 20
1519.141329177081
 30
0.0
 11
10412.11969485195
 21
1633.764973743768
 31
0.0
  0
LINE
  5
21FD2
330
747D
100
AcDbEntity
  8
細線
100
AcDbLine
 10
10339.92245715646
 20
1519.141329177081
 30
0.0
 11
10454.54610172314
 21
1633.764973743768
 31
0.0
  0
LINE
  5
21FD3
330
747D
100
AcDbEntity
  8
細線
 48
50.0
100
AcDbLine
 10
10466.19615086003
 20
1489.14132917708
 30
0.0
 11
10458.1576750871
 21
1519.14132917708
 31
0.0
  0
LINE
  5
21FD4
330
747D
100
AcDbEntity
  8
細線
 48
50.0
100
AcDbLine
 10
10367.58609467598
 20
1489.14132917708
 30
0.0
 11
10359.54761890304
 21
1519.14132917708
 31
0.0
  0
LINE
  5
21FD5
330
747D
100
AcDbEntity
  8
細線
100
AcDbLine
 10
10782.83746204865
 20
1633.764973743768
 30
0.0
 11
10482.83746204865
 21
1933.764973743768
 31
0.0
  0
LINE
  5
21FD6
330
747D
100
AcDbEntity
  8
細線
100
AcDbLine
 10
10846.47707235543
 20
1633.76497374377
 30
0.0
 11
10546.47707235544
 21
1933.764973743768
 31
0.0
  0
LEADER
  5
21FD7
330
747D
100
AcDbEntity
  8
寸法
 48
50.0
100
AcDbLeader
  3
INABA_S40G
 71
     0
 73
     0
 74
     0
 75
     1
 40
150.0
 41
231.9898538650463
 76
     3
 10
10777.17966480981
 20
1933.764973743768
 30
0.0
 10
10866.10242310187
 20
2140.19787459519
 30
0.0
 10
10966.10242310187
 20
2140.19787459519
 30
0.0
  0
MTEXT
  5
21FD8
102
{ACAD_REACTORS
330
21FD7
102
}
330
747D
100
AcDbEntity
  8
寸法
 62
     7
 48
50.0
100
AcDbMText
 10
11006.10242310187
 20
2255.19787459519
 30
0.0
 40
150.0
 41
1.0
 71
     4
 72
     1
  1
\A1;C.B
  7
STYLE1
 73
     1
 44
1.0
1001
ACAD
1000
MTEXTBEGIN
1070
    73
1070
     1
1070
    44
1040
1.0
1070
    74
1070
     0
1000
MTEXTEND
  0
LINE
  5
21FD9
330
747D
100
AcDbEntity
  8
細線
 48
50.0
100
AcDbLine
 10
10932.45151253722
 20
1389.141329177078
 30
0.0
 11
10940.48998831015
 21
1359.141329177077
 31
0.0
  0
LINE
  5
21FDA
330
747D
100
AcDbEntity
  8
細線
 48
50.0
100
AcDbLine
 10
10735.2314001691
 20
1389.14132917708
 30
0.0
 11
10743.26987594204
 21
1359.14132917708
 31
0.0
  0
LINE
  5
21FDB
330
747D
100
AcDbEntity
  8
細線
 48
50.0
100
AcDbLine
 10
10833.84145635316
 20
1389.141329177078
 30
0.0
 11
10841.87993212609
 21
1359.141329177077
 31
0.0
  0
LINE
  5
21FDC
330
747D
100
AcDbEntity
  8
細線
 48
50.0
100
AcDbLine
 10
10538.01128780098
 20
1389.14132917708
 30
0.0
 11
10546.04976357391
 21
1359.14132917708
 31
0.0
  0
LINE
  5
21FDD
330
747D
100
AcDbEntity
  8
細線
 48
50.0
100
AcDbLine
 10
10636.62134398504
 20
1389.14132917708
 30
0.0
 11
10644.65981975797
 21
1359.14132917708
 31
0.0
  0
LINE
  5
21FDE
330
747D
100
AcDbEntity
  8
細線
 48
50.0
100
AcDbLine
 10
10340.79117543287
 20
1389.14132917708
 30
0.0
 11
10348.8296512058
 21
1359.14132917708
 31
0.0
  0
LINE
  5
21FDF
330
747D
100
AcDbEntity
  8
細線
 48
50.0
100
AcDbLine
 10
10439.40123161692
 20
1389.14132917708
 30
0.0
 11
10447.43970738986
 21
1359.14132917708
 31
0.0
  0
LINE
  5
21FE0
330
747D
100
AcDbEntity
  8
細線
 48
50.0
100
AcDbLine
 10
10529.97281202804
 20
1359.141329177077
 30
0.0
 11
10572.84468281702
 21
1519.141329177078
 31
0.0
  0
LINE
  5
21FE1
330
747D
100
AcDbEntity
  8
細線
 48
50.0
100
AcDbLine
 10
10332.75269965993
 20
1359.14132917708
 30
0.0
 11
10375.6245704489
 21
1519.14132917708
 31
0.0
  0
LINE
  5
21FE2
330
747D
100
AcDbEntity
  8
細線
 48
50.0
100
AcDbLine
 10
10431.36275584398
 20
1359.14132917708
 30
0.0
 11
10474.23462663296
 21
1519.141329177078
 31
0.0
  0
LINE
  5
21FE3
330
747D
100
AcDbEntity
  8
細線
 48
50.0
100
AcDbLine
 10
10727.19292439616
 20
1359.141329177077
 30
0.0
 11
10770.06479518513
 21
1519.14132917708
 31
0.0
  0
LINE
  5
21FE4
330
747D
100
AcDbEntity
  8
細線
 48
50.0
100
AcDbLine
 10
10628.5828682121
 20
1359.14132917708
 30
0.0
 11
10671.45473900108
 21
1519.141329177078
 31
0.0
  0
LINE
  5
21FE5
330
747D
100
AcDbEntity
  8
細線
 48
50.0
100
AcDbLine
 10
10924.41303676427
 20
1359.141329177077
 30
0.0
 11
10967.28490755326
 21
1519.141329177076
 31
0.0
  0
LINE
  5
21FE6
330
747D
100
AcDbEntity
  8
細線
 48
50.0
100
AcDbLine
 10
10825.80298058022
 20
1359.141329177076
 30
0.0
 11
10868.67485136919
 21
1519.141329177076
 31
0.0
  0
LINE
  5
21FE7
330
747D
100
AcDbEntity
  8
部品1
100
AcDbLine
 10
11013.77415028991
 20
1633.764973743768
 30
0.0
 11
11013.77415028991
 21
1359.14132917708
 31
0.0
  0
LINE
  5
21FE8
330
747D
100
AcDbEntity
  8
部品1
100
AcDbLine
 10
11604.28507810905
 20
325.9099957167346
 30
0.0
 11
11604.28507810905
 21
3584.979498464825
 31
0.0
  0
TEXT
  5
21FE9
330
747D
100
AcDbEntity
  8
部品1
100
AcDbText
 10
7713.739490527665
 20
3360.539583525538
 30
0.0
 40
150.0
  1
基礎詳細
  7
STYLE2
100
AcDbText
  0
LINE
  5
21FEA
330
747D
100
AcDbEntity
  8
細線
 48
50.0
100
AcDbLine
 10
10268.97603849191
 20
1489.14132917708
 30
0.0
 11
10260.93756271898
 21
1519.14132917708
 31
0.0
  0
LINE
  5
21FEB
330
747D
100
AcDbEntity
  8
細線
 48
50.0
100
AcDbLine
 10
10170.36598230785
 20
1489.14132917708
 30
0.0
 11
10162.32750653491
 21
1519.14132917708
 31
0.0
  0
LINE
  5
21FEC
330
747D
100
AcDbEntity
  8
部品1
100
AcDbLine
 10
10263.77415028991
 20
1633.764973743768
 30
0.0
 11
10263.77415028991
 21
1933.764973743768
 31
0.0
  0
LINE
  5
21FED
330
747D
100
AcDbEntity
  8
細線
 48
50.0
100
AcDbLine
 10
10143.57106306474
 20
1389.14132917708
 30
0.0
 11
10151.60953883767
 21
1359.14132917708
 31
0.0
  0
LINE
  5
21FEE
330
747D
100
AcDbEntity
  8
細線
 48
50.0
100
AcDbLine
 10
10242.1811192488
 20
1389.14132917708
 30
0.0
 11
10250.21959502173
 21
1359.14132917708
 31
0.0
  0
LINE
  5
21FEF
330
747D
100
AcDbEntity
  8
細線
 48
50.0
100
AcDbLine
 10
8674.632496524713
 20
923.764973743766
 30
0.0
 11
8666.594020751782
 21
953.7649737437659
 31
0.0
  0
LINE
  5
21FF0
330
747D
100
AcDbEntity
  8
部品1
 48
50.0
100
AcDbLine
 10
8729.160215034296
 20
953.7649737437668
 30
0.0
 11
8729.160215034296
 21
793.7649737437668
 31
0.0
  0
LINE
  5
21FF1
330
747D
100
AcDbEntity
  8
細線
 48
50.0
100
AcDbLine
 10
10135.5325872918
 20
1359.14132917708
 30
0.0
 11
10178.40445808078
 21
1519.14132917708
 31
0.0
  0
LINE
  5
21FF2
330
747D
100
AcDbEntity
  8
部品1
100
AcDbLine
 10
10113.77415028991
 20
1359.141329177076
 30
0.0
 11
10113.77415028991
 21
1633.764973743768
 31
0.0
  0
TEXT
  5
21FF3
330
747D
100
AcDbEntity
  8
部品1
 48
50.0
100
AcDbText
 10
9638.432521964611
 20
1300.265297947131
 30
0.0
 40
100.0
  1
ボルトの出
 50
90.0
  7
STYLE2
100
AcDbText
  0
LINE
  5
21FF4
330
747D
100
AcDbEntity
  8
細線
 48
50.0
100
AcDbLine
 10
10234.14264347586
 20
1359.141329177077
 30
0.0
 11
10277.01451426484
 21
1519.141329177078
 31
0.0
  0
LINE
  5
21FF5
330
747D
100
AcDbEntity
  8
部品1
 48
50.0
100
AcDbLine
 10
8248.410215034294
 20
2372.359075130196
 30
0.0
 11
8268.410215034293
 21
2382.359075130196
 31
0.0
  0
LINE
  5
21FF6
330
747D
100
AcDbEntity
  8
部品1
 48
50.0
100
AcDbLine
 10
8248.410215034294
 20
2412.359075130196
 30
0.0
 11
8268.410215034293
 21
2422.359075130198
 31
0.0
  0
LINE
  5
21FF7
330
747D
100
AcDbEntity
  8
細線
 48
50.0
100
AcDbLine
 10
8248.410215034294
 20
2372.359075130196
 30
0.0
 11
8248.410215034294
 21
2412.359075130196
 31
0.0
  0
LINE
  5
21FF8
330
747D
100
AcDbEntity
  8
部品1
 48
50.0
100
AcDbLine
 10
8268.410215034293
 20
2382.359075130196
 30
0.0
 11
8268.410215034293
 21
2422.359075130198
 31
0.0
  0
LINE
  5
21FF9
330
747D
100
AcDbEntity
  8
部品1
 48
50.0
100
AcDbLine
 10
8248.410215034294
 20
2432.359075130196
 30
0.0
 11
8268.410215034293
 21
2422.359075130198
 31
0.0
  0
LINE
  5
21FFA
330
747D
100
AcDbEntity
  8
部品1
 48
50.0
100
AcDbLine
 10
8278.410215034293
 20
2258.169084299108
 30
0.0
 11
8278.410215034293
 21
2270.169084299108
 31
0.0
  0
LINE
  5
21FFB
330
747D
100
AcDbEntity
  8
細線
 48
50.0
100
AcDbLine
 10
8208.410215034293
 20
2372.359075130196
 30
0.0
 11
8208.410215034293
 21
2412.359075130196
 31
0.0
  0
LINE
  5
21FFC
330
747D
100
AcDbEntity
  8
部品1
 48
50.0
100
AcDbLine
 10
8188.410215034293
 20
2382.359075130196
 30
0.0
 11
8188.410215034293
 21
2422.359075130198
 31
0.0
  0
LINE
  5
21FFD
330
747D
100
AcDbEntity
  8
部品1
 48
50.0
100
AcDbLine
 10
8188.410215034293
 20
2422.359075130198
 30
0.0
 11
8208.410215034293
 21
2412.359075130196
 31
0.0
  0
LINE
  5
21FFE
330
747D
100
AcDbEntity
  8
部品1
 48
50.0
100
AcDbLine
 10
8188.410215034293
 20
2382.359075130196
 30
0.0
 11
8208.410215034293
 21
2372.359075130196
 31
0.0
  0
LINE
  5
21FFF
330
747D
100
AcDbEntity
  8
部品1
 48
50.0
100
AcDbLine
 10
8188.410215034293
 20
2422.359075130198
 30
0.0
 11
8208.410215034293
 21
2432.359075130196
 31
0.0
  0
LINE
  5
22000
330
747D
100
AcDbEntity
  8
部品1
100
AcDbLine
 10
8086.660215034292
 20
2005.764973743768
 30
0.0
 11
8136.160215034292
 21
2005.764973743768
 31
0.0
  0
ARC
  5
22001
330
747D
100
AcDbEntity
  8
部品1
100
AcDbCircle
 10
8083.285215034292
 20
2069.889973743764
 30
0.0
 40
3.375
100
AcDbArc
 50
0.0
 51
90.0
  0
LINE
  5
22002
330
747D
100
AcDbEntity
  8
部品1
100
AcDbLine
 10
8086.660215034292
 20
2069.889973743764
 30
0.0
 11
8086.660215034292
 21
2005.764973743768
 31
0.0
  0
LINE
  5
22003
330
747D
100
AcDbEntity
  8
部品1
 48
50.0
100
AcDbLine
 10
8178.410215034293
 20
2270.169084299108
 30
0.0
 11
8178.410215034293
 21
2258.169084299108
 31
0.0
  0
LINE
  5
22004
330
747D
100
AcDbEntity
  8
部品1
100
AcDbLine
 10
8115.910215034293
 20
2020.714973743768
 30
0.0
 11
8151.110215034297
 21
2020.714973743768
 31
0.0
  0
ARC
  5
22005
330
747D
100
AcDbEntity
  8
部品1
100
AcDbCircle
 10
8115.910215034293
 20
2017.339973743769
 30
0.0
 40
3.375
100
AcDbArc
 50
90.0
 51
180.0
  0
ARC
  5
22006
330
747D
100
AcDbEntity
  8
部品1
100
AcDbCircle
 10
8151.110215034297
 20
2017.339973743769
 30
0.0
 40
3.375
100
AcDbArc
 50
0.0
 51
90.0
  0
LINE
  5
22007
330
747D
100
AcDbEntity
  8
部品1
100
AcDbLine
 10
8217.160215034294
 20
1995.214973743768
 30
0.0
 11
8239.660215034293
 21
1995.214973743768
 31
0.0
  0
LINE
  5
22008
330
747D
100
AcDbEntity
  8
部品1
100
AcDbLine
 10
8221.660215034294
 20
1999.714973743768
 30
0.0
 11
8235.160215034294
 21
1999.714973743768
 31
0.0
  0
ARC
  5
22009
330
747D
100
AcDbEntity
  8
部品1
100
AcDbCircle
 10
8136.160215034292
 20
2002.389973743769
 30
0.0
 40
3.375
100
AcDbArc
 50
0.0
 51
90.0
  0
LINE
  5
2200A
330
747D
100
AcDbEntity
  8
部品1
100
AcDbLine
 10
8112.535215034293
 20
2017.339973743769
 30
0.0
 11
8112.535215034293
 21
1995.964973743768
 31
0.0
  0
ARC
  5
2200B
330
747D
100
AcDbEntity
  8
部品1
100
AcDbCircle
 10
8030.410215034292
 20
2069.889973743768
 30
0.0
 40
3.375
100
AcDbArc
 50
90.0
 51
180.0
  0
LINE
  5
2200C
330
747D
100
AcDbEntity
  8
部品1
100
AcDbLine
 10
8027.035215034294
 20
2059.764973743768
 30
0.0
 11
8027.035215034294
 21
2059.764973743768
 31
0.0
  0
LINE
  5
2200D
330
747D
100
AcDbEntity
  8
部品1
100
AcDbLine
 10
8027.035215034294
 20
2059.764973743768
 30
0.0
 11
8027.035215034294
 21
2069.889973743768
 31
0.0
  0
LINE
  5
2200E
330
747D
100
AcDbEntity
  8
部品1
100
AcDbLine
 10
8023.660215034293
 20
2046.264973743769
 30
0.0
 11
8023.660215034293
 21
2056.389973743768
 31
0.0
  0
ARC
  5
2200F
330
747D
100
AcDbEntity
  8
部品1
100
AcDbCircle
 10
8027.035215034294
 20
2056.389973743768
 30
0.0
 40
3.375
100
AcDbArc
 50
90.0
 51
180.0
  0
LINE
  5
22010
330
747D
100
AcDbEntity
  8
部品1
100
AcDbLine
 10
7973.035215034293
 20
2032.764973743768
 30
0.0
 11
7973.035215034293
 21
2042.889973743768
 31
0.0
  0
ARC
  5
22011
330
747D
100
AcDbEntity
  8
部品1
100
AcDbCircle
 10
7976.410215034293
 20
2042.889973743768
 30
0.0
 40
3.375
100
AcDbArc
 50
90.0
 51
180.0
  0
ARC
  5
22012
330
747D
100
AcDbEntity
  8
部品1
100
AcDbCircle
 10
7962.910215034293
 20
2026.754853372153
 30
0.0
 40
3.375
100
AcDbArc
 50
104.0362434679612
 51
180.0
  0
LINE
  5
22013
330
747D
100
AcDbEntity
  8
部品1
100
AcDbLine
 10
7962.091657299794
 20
2030.029084310143
 30
0.0
 11
7973.035215034293
 21
2032.764973743768
 31
0.0
  0
LINE
  5
22014
330
747D
100
AcDbEntity
  8
部品1
100
AcDbLine
 10
7976.410215034293
 20
2046.264973743769
 30
0.0
 11
8023.660215034293
 21
2046.264973743769
 31
0.0
  0
LINE
  5
22015
330
747D
100
AcDbEntity
  8
部品1
100
AcDbLine
 10
8030.410215034292
 20
2073.264973743767
 30
0.0
 11
8083.285215034292
 21
2073.264973743764
 31
0.0
  0
ELLIPSE
  5
22016
330
747D
100
AcDbEntity
  8
部品1
 48
50.0
100
AcDbEllipse
 10
8228.410215034292
 20
2270.169084299108
 30
0.0
 11
23.0
 21
0.0
 31
0.0
210
0.0
220
0.0
230
1.0
 40
0.3478260869565217
 41
0.0
 42
6.283185307179585
  0
ELLIPSE
  5
22017
330
747D
100
AcDbEntity
  8
部品1
 48
50.0
100
AcDbEllipse
 10
8228.410215034292
 20
2270.169084299108
 30
0.0
 11
50.0
 21
0.0
 31
0.0
210
0.0
220
0.0
230
1.0
 40
0.4
 41
0.0
 42
6.283185307179585
  0
ELLIPSE
  5
22018
330
747D
100
AcDbEntity
  8
部品1
 48
50.0
100
AcDbEllipse
 10
8228.410215034292
 20
2258.169084299108
 30
0.0
 11
50.0
 21
0.0
 31
0.0
210
0.0
220
0.0
230
1.0
 40
0.4
 41
3.141592653589792
 42
6.283185307179585
  0
LINE
  5
22019
330
747D
100
AcDbEntity
  8
部品1
 48
50.0
100
AcDbLine
 10
8208.410215034293
 20
2432.359075130196
 30
0.0
 11
8248.410215034294
 21
2432.359075130196
 31
0.0
  0
ELLIPSE
  5
2201A
330
747D
100
AcDbEntity
  8
細線
 48
50.0
100
AcDbEllipse
 10
8228.410215034292
 20
2422.359075130197
 30
0.0
 11
18.45838483258558
 21
0.0
 31
0.0
210
0.0
220
0.0
230
1.0
 40
0.2071254069489396
 41
0.0
 42
6.283185307179585
  0
LINE
  5
2201B
330
747D
100
AcDbEntity
  8
部品1
 48
50.0
100
AcDbLine
 10
8208.410215034293
 20
2372.359075130196
 30
0.0
 11
8248.410215034294
 21
2372.359075130196
 31
0.0
  0
LINE
  5
2201C
330
747D
100
AcDbEntity
  8
部品1
 48
50.0
100
AcDbLine
 10
8208.410215034293
 20
2412.359075130196
 30
0.0
 11
8248.410215034294
 21
2412.359075130196
 31
0.0
  0
LINE
  5
2201D
330
747D
100
AcDbEntity
  8
細線
 48
50.0
100
AcDbLine
 10
8307.160215034295
 20
1735.175326854503
 30
0.0
 11
8469.160215034293
 21
1897.175326854502
 31
0.0
  0
LINE
  5
2201E
330
747D
100
AcDbEntity
  8
細線
 48
50.0
100
AcDbLine
 10
8307.160215034295
 20
1701.499366400482
 30
0.0
 11
8469.160215034293
 21
1863.499366400478
 31
0.0
  0
LINE
  5
2201F
330
747D
100
AcDbEntity
  8
部品1
100
AcDbLine
 10
8284.660215034293
 20
1630.014973743767
 30
0.0
 11
8284.660215034293
 21
1652.514973743768
 31
0.0
  0
LINE
  5
22020
330
747D
100
AcDbEntity
  8
部品1
100
AcDbLine
 10
8307.160215034294
 20
1528.764973743767
 30
0.0
 11
8307.160215034294
 21
1933.764973743768
 31
0.0
  0
LINE
  5
22021
330
747D
100
AcDbEntity
  8
細線
 48
50.0
100
AcDbLine
 10
8307.160215034295
 20
1667.823405946465
 30
0.0
 11
8469.160215034293
 21
1829.823405946455
 31
0.0
  0
LINE
  5
22022
330
747D
100
AcDbEntity
  8
部品1
100
AcDbLine
 10
8121.535215034294
 20
1945.714973743768
 30
0.0
 11
8136.160215034292
 21
1945.714973743768
 31
0.0
  0
ARC
  5
22023
330
747D
100
AcDbEntity
  8
部品1
100
AcDbCircle
 10
8157.860215034288
 20
1949.089973743768
 30
0.0
 40
3.375
100
AcDbArc
 50
180.0
 51
270.0
  0
ARC
  5
22024
330
747D
100
AcDbEntity
  8
部品1
100
AcDbCircle
 10
8136.160215034292
 20
1949.089973743768
 30
0.0
 40
3.375
100
AcDbArc
 50
270.0
 51
0.0
  0
ARC
  5
22025
330
747D
100
AcDbEntity
  8
部品1
100
AcDbCircle
 10
7962.910215034293
 20
1949.089973743768
 30
0.0
 40
3.375
100
AcDbArc
 50
180.0
 51
270.0
  0
LINE
  5
22026
330
747D
100
AcDbEntity
  8
細線
 48
50.0
100
AcDbLine
 10
7951.660215034293
 20
1918.490694118649
 30
0.0
 11
7966.934494659412
 21
1933.764973743768
 31
0.0
  0
LINE
  5
22027
330
747D
100
AcDbEntity
  8
部品1
100
AcDbLine
 10
7962.910215034293
 20
1945.714973743768
 30
0.0
 11
7977.535215034286
 21
1945.714973743768
 31
0.0
  0
LINE
  5
22028
330
747D
100
AcDbEntity
  8
細線
 48
50.0
100
AcDbLine
 10
7951.660215034293
 20
1884.81473366464
 30
0.0
 11
8000.610455113426
 21
1933.764973743768
 31
0.0
  0
LINE
  5
22029
330
747D
100
AcDbEntity
  8
細線
 48
50.0
100
AcDbLine
 10
7951.660215034293
 20
1851.13877321063
 30
0.0
 11
8034.28641556743
 21
1933.764973743768
 31
0.0
  0
ARC
  5
2202A
330
747D
100
AcDbEntity
  8
部品1
100
AcDbCircle
 10
8239.660215034293
 20
1652.514973743768
 30
0.0
 40
22.5
100
AcDbArc
 50
180.0
 51
270.0
  0
LINE
  5
2202B
330
747D
100
AcDbEntity
  8
細線
 48
50.0
100
AcDbLine
 10
7951.660215034293
 20
1581.731089578556
 30
0.0
 11
8149.660215034289
 21
1779.731089578546
 31
0.0
  0
LINE
  5
2202C
330
747D
100
AcDbEntity
  8
部品1
100
AcDbLine
 10
8149.660215034286
 20
1528.764973743767
 30
0.0
 11
8149.660215034293
 21
1933.764973743768
 31
0.0
  0
LINE
  5
2202D
330
747D
100
AcDbEntity
  8
細線
 48
50.0
100
AcDbLine
 10
7951.660215034293
 20
1649.083010486574
 30
0.0
 11
8149.660215034293
 21
1847.083010486571
 31
0.0
  0
LINE
  5
2202E
330
747D
100
AcDbEntity
  8
細線
 48
50.0
100
AcDbLine
 10
7951.660215034293
 20
1615.407050032565
 30
0.0
 11
8149.660215034293
 21
1813.407050032562
 31
0.0
  0
LINE
  5
2202F
330
747D
100
AcDbEntity
  8
部品1
100
AcDbLine
 10
8307.160215034294
 20
1528.764973743766
 30
0.0
 11
8149.660215034286
 21
1528.764973743766
 31
0.0
  0
LINE
  5
22030
330
747D
100
AcDbEntity
  8
部品1
 48
50.0
100
AcDbLine
 10
7951.660215034293
 20
1933.764973743768
 30
0.0
 11
8469.160215034298
 21
1933.764973743768
 31
0.0
  0
LINE
  5
22031
330
747D
100
AcDbEntity
  8
部品1
100
AcDbLine
 10
8157.860215034288
 20
1945.714973743768
 30
0.0
 11
8409.535215034287
 21
1945.714973743768
 31
0.0
  0
LINE
  5
22032
330
747D
100
AcDbEntity
  8
部品1
100
AcDbLine
 10
8239.660215034293
 20
1630.014973743767
 30
0.0
 11
8284.660215034293
 21
1630.014973743767
 31
0.0
  0
LINE
  5
22033
330
747D
100
AcDbEntity
  8
部品1
100
AcDbLine
 10
8239.660215034293
 20
1652.514973743768
 30
0.0
 11
8284.660215034293
 21
1652.514973743768
 31
0.0
  0
LINE
  5
22034
330
747D
100
AcDbEntity
  8
部品1
100
AcDbLine
 10
7959.535215034293
 20
1949.089973743768
 30
0.0
 11
7959.535215034293
 21
2026.754853372153
 31
0.0
  0
LINE
  5
22035
330
747D
100
AcDbEntity
  8
細線
100
AcDbLine
 10
8235.160215034294
 20
1945.714973743768
 30
0.0
 11
8235.160215034294
 21
1999.714973743768
 31
0.0
  0
LINE
  5
22036
330
747D
100
AcDbEntity
  8
細線
100
AcDbLine
 10
8221.660215034296
 20
1945.714973743768
 30
0.0
 11
8221.660215034294
 21
1999.714973743768
 31
0.0
  0
LINE
  5
22037
330
747D
100
AcDbEntity
  8
部品1
100
AcDbLine
 10
8139.535215034293
 20
2002.389973743769
 30
0.0
 11
8139.535215034293
 21
1949.089973743768
 31
0.0
  0
LINE
  5
22038
330
747D
100
AcDbEntity
  8
部品1
100
AcDbLine
 10
8154.485215034297
 20
2017.339973743769
 30
0.0
 11
8154.48521503429
 21
1949.089973743768
 31
0.0
  0
LINE
  5
22039
330
747D
100
AcDbEntity
  8
部品1
100
AcDbLine
 10
8239.660215034293
 20
1652.514973743768
 30
0.0
 11
8239.660215034289
 21
1995.214973743768
 31
0.0
  0
LINE
  5
2203A
330
747D
100
AcDbEntity
  8
部品1
100
AcDbLine
 10
8217.160215034294
 20
1652.514973743768
 30
0.0
 11
8217.160215034288
 21
1995.214973743768
 31
0.0
  0
TEXT
  5
2203B
330
747D
100
AcDbEntity
  8
部品1
 48
50.0
100
AcDbText
 10
7433.985337743097
 20
1647.813714097837
 30
0.0
 40
100.0
  1
▽G.L
  7
STYLE2
100
AcDbText
  0
LWPOLYLINE
  5
2203C
330
747D
100
AcDbEntity
  8
部品1
 48
50.0
100
AcDbPolyline
 90
        2
 70
     0
 43
10.0
 10
7433.985337743099
 20
1633.76497374377
 10
7951.660215034293
 20
1633.76497374377
  0
LINE
  5
2203D
330
747D
100
AcDbEntity
  8
部品1
 48
50.0
100
AcDbLine
 10
8469.160215034293
 20
1253.764973743767
 30
0.0
 11
8629.160215034294
 21
1253.764973743767
 31
0.0
  0
LINE
  5
2203E
330
747D
100
AcDbEntity
  8
細線
 48
50.0
100
AcDbLine
 10
8477.412384156581
 20
923.7649737437678
 30
0.0
 11
8469.37390838365
 21
953.7649737437668
 31
0.0
  0
LINE
  5
2203F
330
747D
100
AcDbEntity
  8
細線
 48
50.0
100
AcDbLine
 10
8576.022440340654
 20
923.764973743766
 30
0.0
 11
8567.983964567721
 21
953.7649737437659
 31
0.0
  0
LINE
  5
22040
330
747D
100
AcDbEntity
  8
細線
 48
50.0
100
AcDbLine
 10
8280.192271788479
 20
923.7649737437678
 30
0.0
 11
8272.153796015548
 21
953.7649737437668
 31
0.0
  0
LINE
  5
22041
330
747D
100
AcDbEntity
  8
細線
 48
50.0
100
AcDbLine
 10
8378.802327972536
 20
923.7649737437678
 30
0.0
 11
8370.763852199603
 21
953.7649737437668
 31
0.0
  0
LINE
  5
22042
330
747D
100
AcDbEntity
  8
細線
 48
50.0
100
AcDbLine
 10
8333.972912819785
 20
953.7649737437668
 30
0.0
 11
8629.160215034294
 21
1248.952275958277
 31
0.0
  0
LINE
  5
22043
330
747D
100
AcDbEntity
  8
細線
 48
50.0
100
AcDbLine
 10
8367.648873273799
 20
953.7649737437668
 30
0.0
 11
8629.160215034294
 21
1215.27631550426
 31
0.0
  0
LINE
  5
22044
330
747D
100
AcDbEntity
  8
細線
 48
50.0
100
AcDbLine
 10
8401.324833727803
 20
953.7649737437668
 30
0.0
 11
8629.160215034294
 21
1181.600355050263
 31
0.0
  0
LINE
  5
22045
330
747D
100
AcDbEntity
  8
部品1
 48
50.0
100
AcDbLine
 10
8629.160215034294
 20
1253.764973743767
 30
0.0
 11
8629.160215034294
 21
953.7649737437668
 31
0.0
  0
LINE
  5
22046
330
747D
100
AcDbEntity
  8
細線
 48
50.0
100
AcDbLine
 10
8082.972159420362
 20
923.7649737437678
 30
0.0
 11
8074.933683647433
 21
953.7649737437668
 31
0.0
  0
LINE
  5
22047
330
747D
100
AcDbEntity
  8
細線
 48
50.0
100
AcDbLine
 10
8181.582215604422
 20
923.7649737437678
 30
0.0
 11
8173.543739831488
 21
953.7649737437668
 31
0.0
  0
LINE
  5
22048
330
747D
100
AcDbEntity
  8
細線
 48
50.0
100
AcDbLine
 10
7885.752047052235
 20
923.7649737437678
 30
0.0
 11
7877.713571279301
 21
953.7649737437668
 31
0.0
  0
LINE
  5
22049
330
747D
100
AcDbEntity
  8
細線
 48
50.0
100
AcDbLine
 10
7984.362103236299
 20
923.7649737437678
 30
0.0
 11
7976.323627463365
 21
953.7649737437668
 31
0.0
  0
LINE
  5
2204A
330
747D
100
AcDbEntity
  8
細線
 48
50.0
100
AcDbLine
 10
8064.565229187712
 20
953.7649737437668
 30
0.0
 11
8469.160215034291
 21
1358.35995959035
 31
0.0
  0
LINE
  5
2204B
330
747D
100
AcDbEntity
  8
細線
 48
50.0
100
AcDbLine
 10
8098.241189641722
 20
953.7649737437668
 30
0.0
 11
8469.160215034293
 21
1324.683999136333
 31
0.0
  0
LINE
  5
2204C
330
747D
100
AcDbEntity
  8
細線
 48
50.0
100
AcDbLine
 10
8131.917150095729
 20
953.7649737437668
 30
0.0
 11
8469.160215034293
 21
1291.008038682339
 31
0.0
  0
LINE
  5
2204D
330
747D
100
AcDbEntity
  8
細線
 48
50.0
100
AcDbLine
 10
8450.617464913483
 20
823.7649737437669
 30
0.0
 11
8458.655940686432
 21
793.7649737437668
 31
0.0
  0
LINE
  5
2204E
330
747D
100
AcDbEntity
  8
細線
 48
50.0
100
AcDbLine
 10
8549.227521097543
 20
823.764973743766
 30
0.0
 11
8557.265996870476
 21
793.7649737437659
 31
0.0
  0
LINE
  5
2204F
330
747D
100
AcDbEntity
  8
細線
 48
50.0
100
AcDbLine
 10
8253.397352545366
 20
823.7649737437669
 30
0.0
 11
8261.435828318301
 21
793.7649737437668
 31
0.0
  0
LINE
  5
22050
330
747D
100
AcDbEntity
  8
細線
 48
50.0
100
AcDbLine
 10
8352.007408729425
 20
823.7649737437669
 30
0.0
 11
8360.045884502358
 21
793.7649737437668
 31
0.0
  0
LINE
  5
22051
330
747D
100
AcDbEntity
  8
細線
 48
50.0
100
AcDbLine
 10
8056.177240177254
 20
823.7649737437669
 30
0.0
 11
8064.215715950187
 21
793.7649737437668
 31
0.0
  0
LINE
  5
22052
330
747D
100
AcDbEntity
  8
細線
 48
50.0
100
AcDbLine
 10
8154.787296361311
 20
823.7649737437669
 30
0.0
 11
8162.825772134244
 21
793.7649737437668
 31
0.0
  0
LINE
  5
22053
330
747D
100
AcDbEntity
  8
細線
 48
50.0
100
AcDbLine
 10
7858.957127809123
 20
823.7649737437669
 30
0.0
 11
7866.995603582056
 21
793.7649737437668
 31
0.0
  0
LINE
  5
22054
330
747D
100
AcDbEntity
  8
細線
 48
50.0
100
AcDbLine
 10
7957.567183993187
 20
823.7649737437669
 30
0.0
 11
7965.605659766123
 21
793.7649737437668
 31
0.0
  0
LINE
  5
22055
330
747D
100
AcDbEntity
  8
細線
 48
50.0
100
AcDbLine
 10
8442.578989140546
 20
793.7649737437659
 30
0.0
 11
8485.450859929512
 21
953.7649737437668
 31
0.0
  0
LINE
  5
22056
330
747D
100
AcDbEntity
  8
細線
 48
50.0
100
AcDbLine
 10
8541.189045324607
 20
793.7649737437641
 30
0.0
 11
8584.060916113585
 21
953.7649737437641
 31
0.0
  0
LINE
  5
22057
330
747D
100
AcDbEntity
  8
細線
 48
50.0
100
AcDbLine
 10
8245.358876772431
 20
793.7649737437659
 30
0.0
 11
8288.230747561412
 21
953.7649737437659
 31
0.0
  0
LINE
  5
22058
330
747D
100
AcDbEntity
  8
細線
 48
50.0
100
AcDbLine
 10
8048.138764404312
 20
793.7649737437668
 30
0.0
 11
8091.01063519329
 21
953.7649737437668
 31
0.0
  0
LINE
  5
22059
330
747D
100
AcDbEntity
  8
細線
 48
50.0
100
AcDbLine
 10
8146.748820588369
 20
793.7649737437668
 30
0.0
 11
8189.620691377351
 21
953.7649737437659
 31
0.0
  0
LINE
  5
2205A
330
747D
100
AcDbEntity
  8
細線
 48
50.0
100
AcDbLine
 10
8343.968932956483
 20
793.7649737437668
 30
0.0
 11
8386.840803745467
 21
953.7649737437659
 31
0.0
  0
LINE
  5
2205B
330
747D
100
AcDbEntity
  8
細線
 48
50.0
100
AcDbLine
 10
7850.918652036189
 20
793.7649737437668
 30
0.0
 11
7893.790522825168
 21
953.7649737437668
 31
0.0
  0
LINE
  5
2205C
330
747D
100
AcDbEntity
  8
細線
 48
50.0
100
AcDbLine
 10
7949.528708220245
 20
793.7649737437659
 30
0.0
 11
7992.400579009225
 21
953.7649737437659
 31
0.0
  0
LINE
  5
2205D
330
747D
100
AcDbEntity
  8
細線
 48
50.0
100
AcDbLine
 10
7791.660215034287
 20
1219.6753268545
 30
0.0
 11
7825.749861923561
 21
1253.764973743767
 31
0.0
  0
LINE
  5
2205E
330
747D
100
AcDbEntity
  8
細線
 48
50.0
100
AcDbLine
 10
7691.660215034294
 20
935.4398749509918
 30
0.0
 11
7696.570410457038
 21
953.7649737437668
 31
0.0
  0
LINE
  5
2205F
330
747D
100
AcDbEntity
  8
細線
 48
50.0
100
AcDbLine
 10
7787.141990868168
 20
923.7649737437678
 30
0.0
 11
7779.103515095235
 21
953.7649737437668
 31
0.0
  0
LINE
  5
22060
330
747D
100
AcDbEntity
  8
部品1
 48
50.0
100
AcDbLine
 10
7791.660215034294
 20
953.7649737437668
 30
0.0
 11
7791.660215034294
 21
1253.764973743767
 31
0.0
  0
LINE
  5
22061
330
747D
100
AcDbEntity
  8
細線
 48
50.0
100
AcDbLine
 10
7760.347071625059
 20
823.7649737437669
 30
0.0
 11
7768.385547397992
 21
793.7649737437668
 31
0.0
  0
LINE
  5
22062
330
747D
100
AcDbEntity
  8
部品1
 48
50.0
100
AcDbLine
 10
7691.660215034296
 20
793.7649737437668
 30
0.0
 11
7691.660215034296
 21
953.7649737437668
 31
0.0
  0
LINE
  5
22063
330
747D
100
AcDbEntity
  8
細線
 48
50.0
100
AcDbLine
 10
7752.308595852117
 20
793.7649737437659
 30
0.0
 11
7795.180466641095
 21
953.7649737437659
 31
0.0
  0
LINE
  5
22064
330
747D
100
AcDbEntity
  8
細線
 48
50.0
100
AcDbLine
 10
7791.660215034287
 20
1185.999366400487
 30
0.0
 11
7859.425822377573
 21
1253.764973743767
 31
0.0
  0
LINE
  5
22065
330
747D
100
AcDbEntity
  8
細線
 48
50.0
100
AcDbLine
 10
7791.660215034287
 20
1152.323405946481
 30
0.0
 11
7893.10178283158
 21
1253.764973743767
 31
0.0
  0
LINE
  5
22066
330
747D
100
AcDbEntity
  8
部品1
 48
50.0
100
AcDbLine
 10
7791.660215034294
 20
1253.764973743767
 30
0.0
 11
7951.660215034293
 21
1253.764973743767
 31
0.0
  0
LINE
  5
22067
330
747D
100
AcDbEntity
  8
細線
 48
50.0
100
AcDbLine
 10
7795.157545555636
 20
953.7649737437668
 30
0.0
 11
8469.160215034291
 21
1627.767643222424
 31
0.0
  0
LINE
  5
22068
330
747D
100
AcDbEntity
  8
部品1
100
AcDbLine
 10
8469.160215034291
 20
1253.764973743767
 30
0.0
 11
8469.160215034293
 21
1933.764973743768
 31
0.0
  0
LINE
  5
22069
330
747D
100
AcDbEntity
  8
部品1
 48
50.0
100
AcDbLine
 10
7951.660215034293
 20
1253.764973743767
 30
0.0
 11
7951.660215034293
 21
1933.764973743768
 31
0.0
  0
LINE
  5
2206A
330
747D
100
AcDbEntity
  8
細線
 48
50.0
100
AcDbLine
 10
7951.660215034293
 20
1345.99936640049
 30
0.0
 11
8149.660215034284
 21
1543.999366400476
 31
0.0
  0
LINE
  5
2206B
330
747D
100
AcDbEntity
  8
細線
 48
50.0
100
AcDbLine
 10
7951.660215034293
 20
1312.323405946481
 30
0.0
 11
8168.101782831588
 21
1528.764973743766
 31
0.0
  0
LINE
  5
2206C
330
747D
100
AcDbEntity
  8
細線
 48
50.0
100
AcDbLine
 10
7951.660215034293
 20
1379.6753268545
 30
0.0
 11
8149.660215034284
 21
1577.675326854493
 31
0.0
  0
LINE
  5
2206D
330
747D
100
AcDbEntity
  8
細線
 48
50.0
100
AcDbLine
 10
7862.509466463655
 20
953.7649737437668
 30
0.0
 11
8469.160215034293
 21
1560.415722314403
 31
0.0
  0
LINE
  5
2206E
330
747D
100
AcDbEntity
  8
細線
 48
50.0
100
AcDbLine
 10
7828.833506009647
 20
953.7649737437668
 30
0.0
 11
8469.160215034298
 21
1594.091682768411
 31
0.0
  0
TEXT
  5
2206F
330
747D
100
AcDbEntity
  8
部品1
 48
50.0
100
AcDbText
 10
8474.602195389829
 20
2378.613324696518
 30
0.0
 40
100.0
  1
基礎ボルト(市販品)
  7
STYLE2
100
AcDbText
  0
DIMENSION
  5
22070
330
747D
100
AcDbEntity
  8
寸法
 48
50.0
100
AcDbDimension
  2
*D39
 10
9441.564297394132
 20
1933.764973743768
 30
0.0
 11
9441.564297394132
 21
1467.756070322284
 31
0.0
 70
   160
  1
20～25
 71
     5
 42
65.94999999999981
  3
INABA_S40G
100
AcDbAlignedDimension
 13
8235.160215034294
 23
1999.714973743768
 33
0.0
 14
8469.160215034293
 24
1933.764973743768
 34
0.0
 50
90.0
100
AcDbRotatedDimension
  0
LINE
  5
22071
330
747D
100
AcDbEntity
  8
細線
 48
50.0
100
AcDbLine
 10
8639.799101508662
 20
793.7649737437659
 30
0.0
 11
8682.670972297643
 21
953.7649737437641
 31
0.0
  0
LINE
  5
22072
330
747D
100
AcDbEntity
  8
部品1
 48
50.0
100
AcDbLine
 10
8729.160215034296
 20
793.7649737437668
 30
0.0
 11
7691.660215034296
 21
793.7649737437668
 31
0.0
  0
LINE
  5
22073
330
747D
100
AcDbEntity
  8
細線
 48
50.0
100
AcDbLine
 10
8647.837577281602
 20
823.764973743766
 30
0.0
 11
8655.876053054536
 21
793.7649737437659
 31
0.0
  0
LINE
  5
22074
330
747D
100
AcDbEntity
  8
部品1
 48
50.0
100
AcDbLine
 10
8729.160215034296
 20
953.7649737437668
 30
0.0
 11
7691.660215034296
 21
953.7649737437668
 31
0.0
  0
LWPOLYLINE
  5
22075
330
747D
100
AcDbEntity
  8
部品1
 48
50.0
100
AcDbPolyline
 90
        2
 70
     0
 43
10.0
 10
8469.160215034293
 20
1633.76497374377
 10
8836.288294283525
 20
1633.76497374377
  0
DIMENSION
  5
22076
330
747D
100
AcDbEntity
  8
寸法
 48
50.0
100
AcDbDimension
  2
*D40
 10
9096.495964745349
 20
1528.764973743766
 30
0.0
 11
8996.495964745347
 21
1731.264973743768
 31
0.0
 70
    32
  1
180
 71
     5
 42
405.0000000000022
  3
INABA_S40G
100
AcDbAlignedDimension
 13
8469.160215034293
 23
1933.764973743768
 33
0.0
 14
8469.160215034293
 24
1528.764973743766
 34
0.0
 50
90.0
100
AcDbRotatedDimension
  0
MTEXT
  5
22077
102
{ACAD_REACTORS
330
22078
102
}
330
747D
100
AcDbEntity
  8
部品1
 62
     7
 48
50.0
100
AcDbMText
 10
8480.340793058442
 20
2264.244131435306
 30
0.0
 40
100.0
 41
1.0
 71
     4
 72
     1
  1
M10X160
  7
STYLE2
 73
     1
 44
1.0
1001
ACAD
1000
MTEXTBEGIN
1070
    73
1070
     1
1070
    44
1040
1.0
1070
    74
1070
     0
1000
MTEXTEND
  0
LEADER
  5
22078
330
747D
100
AcDbEntity
  8
寸法
 48
50.0
100
AcDbLeader
  3
INABA_S40G
 71
     0
 73
     0
 74
     0
 75
     1
 40
100.0
 41
543.75
 76
     3
 10
8239.660215034293
 20
1995.214973743768
 30
0.0
 10
8340.340793058443
 20
2174.244131435306
 30
0.0
 10
8440.340793058442
 20
2174.244131435306
 30
0.0
  0
LINE
  5
22079
330
747D
100
AcDbEntity
  8
細線
 48
50.0
100
AcDbLine
 10
5826.611073562801
 20
1884.81473366464
 30
0.0
 11
5875.561313641933
 21
1933.764973743768
 31
0.0
  0
LINE
  5
2207A
330
747D
100
AcDbEntity
  8
細線
 48
50.0
100
AcDbLine
 10
5826.611073562801
 20
1851.13877321063
 30
0.0
 11
5909.237274095938
 21
1933.764973743768
 31
0.0
  0
LINE
  5
2207B
330
747D
100
AcDbEntity
  8
細線
 48
50.0
100
AcDbLine
 10
5826.611073562801
 20
1918.490694118649
 30
0.0
 11
5841.885353187919
 21
1933.764973743768
 31
0.0
  0
ARC
  5
2207C
330
747D
100
AcDbEntity
  8
部品1
 48
50.0
100
AcDbCircle
 10
5946.611073562801
 20
1759.083010486574
 30
0.0
 40
30.0
100
AcDbArc
 50
0.0
 51
180.0
  0
CIRCLE
  5
2207D
330
747D
100
AcDbEntity
  8
部品1
 48
50.0
100
AcDbCircle
 10
5946.611073562801
 20
1759.083010486574
 30
0.0
 40
10.0
  0
LINE
  5
2207E
330
747D
100
AcDbEntity
  8
細線
 48
50.0
100
AcDbLine
 10
5936.611073562801
 20
1725.407050032565
 30
0.0
 11
5956.6110735628
 21
1745.407050032565
 31
0.0
  0
LINE
  5
2207F
330
747D
100
AcDbEntity
  8
細線
 48
50.0
100
AcDbLine
 10
5976.611073562801
 20
1731.731089578555
 30
0.0
 11
6066.611073562801
 21
1821.731089578556
 31
0.0
  0
LINE
  5
22080
330
747D
100
AcDbEntity
  8
細線
 48
50.0
100
AcDbLine
 10
5976.051957645284
 20
1764.847934115045
 30
0.0
 11
6066.611073562801
 21
1855.407050032565
 31
0.0
  0
LINE
  5
22081
330
747D
100
AcDbEntity
  8
細線
 48
50.0
100
AcDbLine
 10
5962.226601690889
 20
1784.698538614662
 30
0.0
 11
6066.611073562801
 21
1889.083010486574
 31
0.0
  0
LINE
  5
22082
330
747D
100
AcDbEntity
  8
部品1
 48
50.0
100
AcDbLine
 10
5826.611073562801
 20
1933.764973743768
 30
0.0
 11
6066.611073562801
 21
1933.764973743768
 31
0.0
  0
LINE
  5
22083
330
747D
100
AcDbEntity
  8
細線
 48
50.0
100
AcDbLine
 10
5826.611073562801
 20
1581.731089578556
 30
0.0
 11
5931.30397609942
 21
1686.423992115171
 31
0.0
  0
LINE
  5
22084
330
747D
100
AcDbEntity
  8
部品1
 48
50.0
100
AcDbLine
 10
5936.611073562801
 20
1686.423992115171
 30
0.0
 11
5916.611073562801
 21
1686.423992115175
 31
0.0
  0
LINE
  5
22085
330
747D
100
AcDbEntity
  8
細線
 48
50.0
100
AcDbLine
 10
5976.611073562808
 20
1462.323405946481
 30
0.0
 11
6066.611073562794
 21
1552.323405946481
 31
0.0
  0
LINE
  5
22086
330
747D
100
AcDbEntity
  8
細線
 48
50.0
100
AcDbLine
 10
5976.611073562801
 20
1529.675326854499
 30
0.0
 11
6066.611073562801
 21
1619.6753268545
 31
0.0
  0
LINE
  5
22087
330
747D
100
AcDbEntity
  8
細線
 48
50.0
100
AcDbLine
 10
5976.611073562808
 20
1495.999366400494
 30
0.0
 11
6066.611073562794
 21
1585.999366400487
 31
0.0
  0
LINE
  5
22088
330
747D
100
AcDbEntity
  8
細線
 48
50.0
100
AcDbLine
 10
5826.611073562801
 20
1615.407050032565
 30
0.0
 11
5916.611073562801
 21
1705.407050032565
 31
0.0
  0
LINE
  5
22089
330
747D
100
AcDbEntity
  8
細線
 48
50.0
100
AcDbLine
 10
5826.611073562801
 20
1649.083010486574
 30
0.0
 11
5916.611073562801
 21
1739.083010486574
 31
0.0
  0
LINE
  5
2208A
330
747D
100
AcDbEntity
  8
細線
 48
50.0
100
AcDbLine
 10
5936.611073562801
 20
1691.731089578556
 30
0.0
 11
5956.6110735628
 21
1711.731089578556
 31
0.0
  0
LINE
  5
2208B
330
747D
100
AcDbEntity
  8
部品1
 48
50.0
100
AcDbLine
 10
5916.611073562801
 20
1686.423992115175
 30
0.0
 11
5916.611073562801
 21
1759.083010486574
 31
0.0
  0
LINE
  5
2208C
330
747D
100
AcDbEntity
  8
部品1
 48
50.0
100
AcDbLine
 10
5936.611073562801
 20
1686.423992115171
 30
0.0
 11
5936.611073562801
 21
1759.083010486574
 31
0.0
  0
LEADER
  5
2208D
330
747D
100
AcDbEntity
  8
寸法
 48
50.0
100
AcDbLeader
  3
INABA_S40G
 71
     0
 73
     0
 74
     0
 75
     1
 40
100.0
 41
222.7272727272727
 76
     3
 10
5946.611073562799
 20
1759.083010486574
 30
0.0
 10
6045.218494847044
 20
1685.349425367427
 30
0.0
 10
6145.218494847044
 20
1685.349425367427
 30
0.0
  0
LWPOLYLINE
  5
2208E
330
747D
100
AcDbEntity
  8
部品1
 48
50.0
100
AcDbPolyline
 90
        2
 70
     0
 43
10.0
 10
6066.611073562799
 20
1633.76497374377
 10
6584.285950853999
 20
1633.76497374377
  0
MTEXT
  5
2208F
102
{ACAD_REACTORS
330
2208D
102
}
330
747D
100
AcDbEntity
  8
寸法
 62
     7
 48
50.0
100
AcDbMText
 10
6170.218494847044
 20
1760.349425367427
 30
0.0
 40
100.0
 41
1.0
 71
     4
 72
     1
  1
D13
  7
STYLE2
 73
     1
 44
1.0
1001
ACAD
1000
MTEXTBEGIN
1070
    73
1070
     1
1070
    44
1040
1.0
1070
    74
1070
     0
1000
MTEXTEND
  0
LINE
  5
22090
330
747D
100
AcDbEntity
  8
細線
 48
50.0
100
AcDbLine
 10
6253.753186501047
 20
923.7649737437678
 30
0.0
 11
6245.714710728111
 21
953.7649737437668
 31
0.0
  0
LINE
  5
22091
330
747D
100
AcDbEntity
  8
細線
 48
50.0
100
AcDbLine
 10
6208.923771348293
 20
953.7649737437668
 30
0.0
 11
6226.611073562801
 21
971.4522759582759
 31
0.0
  0
MTEXT
  5
22092
102
{ACAD_REACTORS
330
220D1
102
}
330
747D
100
AcDbEntity
  8
寸法
 62
     7
 48
50.0
100
AcDbMText
 10
6355.770648321157
 20
1059.518637565051
 30
0.0
 40
100.0
 41
1.0
 71
     4
 72
     1
  1
D10
  7
STYLE2
 73
     1
 44
1.0
1001
ACAD
1000
MTEXTBEGIN
1070
    73
1070
     1
1070
    44
1040
1.0
1070
    74
1070
     0
1000
MTEXTEND
  0
LINE
  5
22093
330
747D
100
AcDbEntity
  8
部品1
 48
50.0
100
AcDbLine
 10
6226.611073562801
 20
1253.764973743767
 30
0.0
 11
6226.611073562801
 21
953.7649737437668
 31
0.0
  0
LINE
  5
22094
330
747D
100
AcDbEntity
  8
細線
 48
50.0
100
AcDbLine
 10
6226.958267257932
 20
823.7649737437669
 30
0.0
 11
6234.996743030865
 21
793.7649737437668
 31
0.0
  0
LINE
  5
22095
330
747D
100
AcDbEntity
  8
細線
 48
50.0
100
AcDbLine
 10
6325.568323441991
 20
823.7649737437669
 30
0.0
 11
6326.611073562801
 21
819.8733773133117
 31
0.0
  0
LINE
  5
22096
330
747D
100
AcDbEntity
  8
細線
 48
50.0
100
AcDbLine
 10
6317.529847669055
 20
793.7649737437659
 30
0.0
 11
6326.611073562801
 21
827.6565701742528
 31
0.0
  0
MTEXT
  5
22097
102
{ACAD_REACTORS
330
220CF
102
}
330
747D
100
AcDbEntity
  8
寸法
 62
     7
 48
50.0
100
AcDbMText
 10
6368.784143389365
 20
732.0786165785757
 30
0.0
 40
100.0
 41
1.0
 71
     4
 72
     1
  1
\A1;D10@300
  7
STYLE2
 73
     1
 44
1.0
1001
ACAD
1000
MTEXTBEGIN
1070
    73
1070
     1
1070
    44
1040
1.0
1070
    74
1070
     0
1000
MTEXTEND
  0
LINE
  5
22098
330
747D
100
AcDbEntity
  8
部品1
 48
50.0
100
AcDbLine
 10
6326.611073562805
 20
953.7649737437668
 30
0.0
 11
6326.611073562805
 21
793.7649737437668
 31
0.0
  0
LINE
  5
22099
330
747D
100
AcDbEntity
  8
細線
 48
50.0
100
AcDbLine
 10
6218.919791484992
 20
793.7649737437668
 30
0.0
 11
6261.791662273974
 21
953.7649737437659
 31
0.0
  0
LINE
  5
2209A
330
747D
100
AcDbEntity
  8
部品1
 48
50.0
100
AcDbLine
 10
5936.611073562801
 20
1176.423992115171
 30
0.0
 11
5916.611073562801
 21
1176.423992115171
 31
0.0
  0
LINE
  5
2209B
330
747D
100
AcDbEntity
  8
細線
 48
50.0
100
AcDbLine
 10
5926.443382909556
 20
1176.423992115171
 30
0.0
 11
5956.611073562807
 21
1206.591682768419
 31
0.0
  0
LINE
  5
2209C
330
747D
100
AcDbEntity
  8
細線
 48
50.0
100
AcDbLine
 10
5936.611073562801
 20
1152.915722314406
 30
0.0
 11
5956.611073562807
 21
1172.915722314406
 31
0.0
  0
LINE
  5
2209D
330
747D
100
AcDbEntity
  8
細線
 48
50.0
100
AcDbLine
 10
5976.611073562808
 20
1226.591682768419
 30
0.0
 11
6066.611073562794
 21
1316.591682768412
 31
0.0
  0
LINE
  5
2209E
330
747D
100
AcDbEntity
  8
細線
 48
50.0
100
AcDbLine
 10
5976.611073562808
 20
1260.267643222429
 30
0.0
 11
6066.611073562794
 21
1350.267643222425
 31
0.0
  0
LINE
  5
2209F
330
747D
100
AcDbEntity
  8
細線
 48
50.0
100
AcDbLine
 10
5976.611073562808
 20
1192.915722314406
 30
0.0
 11
6066.611073562794
 21
1282.915722314406
 31
0.0
  0
LINE
  5
220A0
330
747D
100
AcDbEntity
  8
細線
 48
50.0
100
AcDbLine
 10
6006.868008624237
 20
953.7649737437668
 30
0.0
 11
6126.869118430658
 21
1073.766083550192
 31
0.0
  0
LINE
  5
220A1
330
747D
100
AcDbEntity
  8
部品1
 48
50.0
100
AcDbLine
 10
6156.611073562801
 20
1093.764973743767
 30
0.0
 11
6156.611073562801
 21
1073.764973743767
 31
0.0
  0
LINE
  5
220A2
330
747D
100
AcDbEntity
  8
細線
 48
50.0
100
AcDbLine
 10
6155.143130316987
 20
923.7649737437678
 30
0.0
 11
6147.104654544053
 21
953.7649737437668
 31
0.0
  0
CIRCLE
  5
220A3
330
747D
100
AcDbEntity
  8
部品1
 48
50.0
100
AcDbCircle
 10
6106.611073562801
 20
1103.764973743767
 30
0.0
 40
10.0
  0
LINE
  5
220A4
330
747D
100
AcDbEntity
  8
細線
 48
50.0
100
AcDbLine
 10
6056.533074132929
 20
923.7649737437678
 30
0.0
 11
6048.494598359996
 21
953.7649737437668
 31
0.0
  0
ARC
  5
220A5
330
747D
100
AcDbEntity
  8
部品1
 48
50.0
100
AcDbCircle
 10
5946.611073562801
 20
1103.764973743767
 30
0.0
 40
30.0
100
AcDbArc
 50
340.5287793654919
 51
0.0
  0
LINE
  5
220A6
330
747D
100
AcDbEntity
  8
細線
 48
50.0
100
AcDbLine
 10
5957.923017948871
 20
923.7649737437678
 30
0.0
 11
5949.884542175937
 21
953.7649737437668
 31
0.0
  0
ARC
  5
220A7
330
747D
100
AcDbEntity
  8
部品1
 48
50.0
100
AcDbCircle
 10
5946.611073562801
 20
1103.764973743767
 30
0.0
 40
30.0
100
AcDbArc
 50
180.0
 51
199.4712206345081
  0
LINE
  5
220A8
330
747D
100
AcDbEntity
  8
細線
 48
50.0
100
AcDbLine
 10
5859.312961764807
 20
923.7649737437678
 30
0.0
 11
5851.274485991873
 21
953.7649737437668
 31
0.0
  0
CIRCLE
  5
220A9
330
747D
100
AcDbEntity
  8
部品1
 48
50.0
100
AcDbCircle
 10
5946.611073562801
 20
1103.764973743767
 30
0.0
 40
10.0
  0
LINE
  5
220AA
330
747D
100
AcDbEntity
  8
細線
 48
50.0
100
AcDbLine
 10
5973.192048170231
 20
953.7649737437668
 30
0.0
 11
6093.192048170231
 21
1073.764973743767
 31
0.0
  0
LINE
  5
220AB
330
747D
100
AcDbEntity
  8
細線
 48
50.0
100
AcDbLine
 10
5939.516087716218
 20
953.7649737437668
 30
0.0
 11
6059.516087716218
 21
1073.764973743767
 31
0.0
  0
LINE
  5
220AC
330
747D
100
AcDbEntity
  8
細線
 48
50.0
100
AcDbLine
 10
5810.108404084143
 20
1093.764973743767
 30
0.0
 11
5956.6110735628
 21
1240.267643222425
 31
0.0
  0
LINE
  5
220AD
330
747D
100
AcDbEntity
  8
細線
 48
50.0
100
AcDbLine
 10
5877.460324992162
 20
1093.764973743767
 30
0.0
 11
5916.611073562801
 21
1132.915722314406
 31
0.0
  0
LINE
  5
220AE
330
747D
100
AcDbEntity
  8
部品1
 48
50.0
100
AcDbLine
 10
5916.611073562801
 20
1176.423992115171
 30
0.0
 11
5916.611073562801
 21
1103.764973743767
 31
0.0
  0
LINE
  5
220AF
330
747D
100
AcDbEntity
  8
細線
 48
50.0
100
AcDbLine
 10
5843.784364538156
 20
1093.764973743767
 30
0.0
 11
5916.611073562801
 21
1166.591682768416
 31
0.0
  0
LINE
  5
220B0
330
747D
100
AcDbEntity
  8
部品1
 48
50.0
100
AcDbLine
 10
5936.611073562801
 20
1176.423992115171
 30
0.0
 11
5936.611073562801
 21
1103.764973743767
 31
0.0
  0
LINE
  5
220B1
330
747D
100
AcDbEntity
  8
細線
 48
50.0
100
AcDbLine
 10
5666.611073562794
 20
1185.999366400487
 30
0.0
 11
5734.376680906081
 21
1253.764973743767
 31
0.0
  0
LINE
  5
220B2
330
747D
100
AcDbEntity
  8
細線
 48
50.0
100
AcDbLine
 10
5666.611073562794
 20
1219.6753268545
 30
0.0
 11
5700.700720452068
 21
1253.764973743767
 31
0.0
  0
LINE
  5
220B3
330
747D
100
AcDbEntity
  8
細線
 48
50.0
100
AcDbLine
 10
5666.611073562794
 20
1152.323405946481
 30
0.0
 11
5768.052641360087
 21
1253.764973743767
 31
0.0
  0
LINE
  5
220B4
330
747D
100
AcDbEntity
  8
部品1
 48
50.0
100
AcDbLine
 10
5736.611073562801
 20
1093.764973743767
 30
0.0
 11
5736.611073562801
 21
1073.764973743767
 31
0.0
  0
LINE
  5
220B5
330
747D
100
AcDbEntity
  8
細線
 48
50.0
100
AcDbLine
 10
5760.702905580742
 20
923.7649737437678
 30
0.0
 11
5752.664429807808
 21
953.7649737437668
 31
0.0
  0
LINE
  5
220B6
330
747D
100
AcDbEntity
  8
細線
 48
50.0
100
AcDbLine
 10
5662.092849396676
 20
923.7649737437678
 30
0.0
 11
5654.054373623743
 21
953.7649737437668
 31
0.0
  0
LINE
  5
220B7
330
747D
100
AcDbEntity
  8
細線
 48
50.0
100
AcDbLine
 10
5566.611073562801
 20
935.4398749509918
 30
0.0
 11
5571.521268985545
 21
953.7649737437668
 31
0.0
  0
LINE
  5
220B8
330
747D
100
AcDbEntity
  8
部品1
 48
50.0
100
AcDbLine
 10
5666.611073562801
 20
953.7649737437668
 30
0.0
 11
5666.611073562801
 21
1253.764973743767
 31
0.0
  0
LINE
  5
220B9
330
747D
100
AcDbEntity
  8
部品1
 48
50.0
100
AcDbLine
 10
5736.611073562801
 20
1073.764973743767
 30
0.0
 11
6156.611073562801
 21
1073.764973743767
 31
0.0
  0
LINE
  5
220BA
330
747D
100
AcDbEntity
  8
部品1
 48
50.0
100
AcDbLine
 10
5736.611073562801
 20
1093.764973743767
 30
0.0
 11
6156.611073562801
 21
1093.764973743767
 31
0.0
  0
LINE
  5
220BB
330
747D
100
AcDbEntity
  8
細線
 48
50.0
100
AcDbLine
 10
5737.460324992162
 20
953.7649737437668
 30
0.0
 11
5857.460324992162
 21
1073.764973743767
 31
0.0
  0
CIRCLE
  5
220BC
330
747D
100
AcDbEntity
  8
部品1
 48
50.0
100
AcDbCircle
 10
5786.611073562801
 20
1103.764973743767
 30
0.0
 40
10.0
  0
LINE
  5
220BD
330
747D
100
AcDbEntity
  8
細線
 48
50.0
100
AcDbLine
 10
5703.784364538156
 20
953.7649737437668
 30
0.0
 11
5823.784364538156
 21
1073.764973743767
 31
0.0
  0
LINE
  5
220BE
330
747D
100
AcDbEntity
  8
細線
 48
50.0
100
AcDbLine
 10
5670.108404084143
 20
953.7649737437668
 30
0.0
 11
5790.108404084143
 21
1073.764973743767
 31
0.0
  0
LINE
  5
220BF
330
747D
100
AcDbEntity
  8
部品1
 48
50.0
100
AcDbLine
 10
5666.611073562801
 20
1253.764973743767
 30
0.0
 11
5826.611073562801
 21
1253.764973743767
 31
0.0
  0
LINE
  5
220C0
330
747D
100
AcDbEntity
  8
細線
 48
50.0
100
AcDbLine
 10
6029.738154889817
 20
823.7649737437669
 30
0.0
 11
6037.776630662751
 21
793.7649737437668
 31
0.0
  0
LINE
  5
220C1
330
747D
100
AcDbEntity
  8
細線
 48
50.0
100
AcDbLine
 10
6128.348211073875
 20
823.7649737437669
 30
0.0
 11
6136.386686846808
 21
793.7649737437668
 31
0.0
  0
LINE
  5
220C2
330
747D
100
AcDbEntity
  8
細線
 48
50.0
100
AcDbLine
 10
5832.518042521694
 20
823.7649737437669
 30
0.0
 11
5840.556518294628
 21
793.7649737437668
 31
0.0
  0
LINE
  5
220C3
330
747D
100
AcDbEntity
  8
細線
 48
50.0
100
AcDbLine
 10
5931.12809870576
 20
823.7649737437669
 30
0.0
 11
5939.166574478694
 21
793.7649737437668
 31
0.0
  0
LINE
  5
220C4
330
747D
100
AcDbEntity
  8
細線
 48
50.0
100
AcDbLine
 10
5635.297930153566
 20
823.7649737437669
 30
0.0
 11
5643.336405926499
 21
793.7649737437668
 31
0.0
  0
LINE
  5
220C5
330
747D
100
AcDbEntity
  8
細線
 48
50.0
100
AcDbLine
 10
5733.90798633763
 20
823.7649737437669
 30
0.0
 11
5741.946462110564
 21
793.7649737437668
 31
0.0
  0
LINE
  5
220C6
330
747D
100
AcDbEntity
  8
細線
 48
50.0
100
AcDbLine
 10
6021.699679116877
 20
793.7649737437668
 30
0.0
 11
6064.571549905859
 21
953.7649737437659
 31
0.0
  0
LINE
  5
220C7
330
747D
100
AcDbEntity
  8
細線
 48
50.0
100
AcDbLine
 10
5725.869510564696
 20
793.7649737437668
 30
0.0
 11
5768.741381353675
 21
953.7649737437668
 31
0.0
  0
LINE
  5
220C8
330
747D
100
AcDbEntity
  8
細線
 48
50.0
100
AcDbLine
 10
5824.479566748754
 20
793.7649737437659
 30
0.0
 11
5867.351437537733
 21
953.7649737437659
 31
0.0
  0
LINE
  5
220C9
330
747D
100
AcDbEntity
  8
細線
 48
50.0
100
AcDbLine
 10
5627.259454380624
 20
793.7649737437659
 30
0.0
 11
5670.131325169602
 21
953.7649737437659
 31
0.0
  0
LINE
  5
220CA
330
747D
100
AcDbEntity
  8
部品1
 48
50.0
100
AcDbLine
 10
5566.611073562804
 20
793.7649737437668
 30
0.0
 11
5566.611073562804
 21
953.7649737437668
 31
0.0
  0
LINE
  5
220CB
330
747D
100
AcDbEntity
  8
細線
 48
50.0
100
AcDbLine
 10
5923.08962293282
 20
793.7649737437668
 30
0.0
 11
5965.961493721797
 21
953.7649737437668
 31
0.0
  0
LINE
  5
220CC
330
747D
100
AcDbEntity
  8
細線
 48
50.0
100
AcDbLine
 10
6120.309735300939
 20
793.7649737437659
 30
0.0
 11
6163.181606089916
 21
953.7649737437659
 31
0.0
  0
LINE
  5
220CD
330
747D
100
AcDbEntity
  8
部品1
 48
50.0
100
AcDbLine
 10
6326.611073562805
 20
793.7649737437668
 30
0.0
 11
5566.611073562804
 21
793.7649737437668
 31
0.0
  0
LINE
  5
220CE
330
747D
100
AcDbEntity
  8
部品1
 48
50.0
100
AcDbLine
 10
6326.611073562805
 20
953.7649737437668
 30
0.0
 11
5566.611073562804
 21
953.7649737437668
 31
0.0
  0
LEADER
  5
220CF
330
747D
100
AcDbEntity
  8
寸法
 48
50.0
100
AcDbLeader
  3
INABA_S40G
 71
     0
 73
     0
 74
     0
 75
     1
 40
100.0
 41
540.3409090909091
 76
     3
 10
6039.042534829269
 20
1082.83931072686
 30
0.0
 10
6243.784143389365
 20
655.8007882332385
 30
0.0
 10
6343.784143389364
 20
655.8007882332385
 30
0.0
213
0.0
223
-1.277828345336728
233
0.0
  0
DIMENSION
  5
220D0
330
747D
100
AcDbEntity
  8
寸法
 48
50.0
100
AcDbDimension
  2
*D35
 10
6226.611073562801
 20
494.8128672878338
 30
0.0
 11
5946.611073562799
 21
494.8128672878338
 31
0.0
 70
   160
  1
300
 71
     5
 42
560.0000000000018
  3
INABA_S40G
100
AcDbAlignedDimension
 13
5666.611073562799
 23
793.7649737437668
 33
0.0
 14
6226.611073562801
 24
793.7649737437668
 34
0.0
100
AcDbRotatedDimension
  0
LEADER
  5
220D1
330
747D
100
AcDbEntity
  8
寸法
 48
50.0
100
AcDbLeader
  3
INABA_S40G
 71
     0
 73
     0
 74
     0
 75
     1
 40
100.0
 41
225.0
 76
     3
 10
6106.489764002979
 20
1103.764973743767
 30
0.0
 10
6230.770648321157
 20
984.5186375650518
 30
0.0
 10
6330.770648321156
 20
984.5186375650518
 30
0.0
  0
LINE
  5
220D2
330
747D
100
AcDbEntity
  8
細線
 48
50.0
100
AcDbLine
 10
6079.516087716211
 20
1093.764973743767
 30
0.0
 11
6226.611073562801
 21
1240.85995959035
 31
0.0
  0
LINE
  5
220D3
330
747D
100
AcDbEntity
  8
細線
 48
50.0
100
AcDbLine
 10
6146.868008624236
 20
1093.764973743767
 30
0.0
 11
6226.611073562801
 21
1173.508038682332
 31
0.0
  0
LINE
  5
220D4
330
747D
100
AcDbEntity
  8
細線
 48
50.0
100
AcDbLine
 10
6113.192048170231
 20
1093.764973743767
 30
0.0
 11
6226.611073562801
 21
1207.183999136341
 31
0.0
  0
LINE
  5
220D5
330
747D
100
AcDbEntity
  8
部品1
 48
50.0
100
AcDbLine
 10
6066.611073562801
 20
1253.764973743767
 30
0.0
 11
6226.611073562801
 21
1253.764973743767
 31
0.0
  0
LINE
  5
220D6
330
747D
100
AcDbEntity
  8
部品1
 48
50.0
100
AcDbLine
 10
5976.611073562808
 20
1103.764973743767
 30
0.0
 11
5976.611073562801
 21
1759.083010486574
 31
0.0
  0
LINE
  5
220D7
330
747D
100
AcDbEntity
  8
部品1
 48
50.0
100
AcDbLine
 10
5956.611073562807
 20
1103.764973743767
 30
0.0
 11
5956.611073562793
 21
1759.083010486574
 31
0.0
  0
LINE
  5
220D8
330
747D
100
AcDbEntity
  8
部品1
 48
50.0
100
AcDbLine
 10
5826.611073562801
 20
1253.764973743767
 30
0.0
 11
5826.611073562801
 21
1933.764973743768
 31
0.0
  0
LINE
  5
220D9
330
747D
100
AcDbEntity
  8
細線
 48
50.0
100
AcDbLine
 10
5826.611073562801
 20
1345.99936640049
 30
0.0
 11
5956.611073562807
 21
1475.999366400494
 31
0.0
  0
LINE
  5
220DA
330
747D
100
AcDbEntity
  8
細線
 48
50.0
100
AcDbLine
 10
5826.611073562801
 20
1379.6753268545
 30
0.0
 11
5956.6110735628
 21
1509.6753268545
 31
0.0
  0
LINE
  5
220DB
330
747D
100
AcDbEntity
  8
細線
 48
50.0
100
AcDbLine
 10
5826.611073562801
 20
1312.323405946481
 30
0.0
 11
5956.611073562807
 21
1442.323405946481
 31
0.0
  0
LINE
  5
220DC
330
747D
100
AcDbEntity
  8
部品1
 48
50.0
100
AcDbLine
 10
6066.611073562801
 20
1933.764973743768
 30
0.0
 11
6066.611073562801
 21
1253.764973743767
 31
0.0
  0
MTEXT
  5
220DD
102
{ACAD_REACTORS
330
220DE
102
}
330
747D
100
AcDbEntity
  8
寸法
 62
     7
 48
50.0
100
AcDbMText
 10
5452.942290818808
 20
849.3616067207222
 30
0.0
 40
100.0
 41
1.0
 71
     6
 72
     1
  1
D10
  7
STYLE2
 73
     1
 44
1.0
1001
ACAD
1000
MTEXTBEGIN
1070
    73
1070
     1
1070
    44
1040
1.0
1070
    74
1070
     0
1000
MTEXTEND
  0
LEADER
  5
220DE
330
747D
100
AcDbEntity
  8
寸法
 48
50.0
100
AcDbLeader
  3
INABA_S40G
 71
     0
 73
     0
 75
     1
 40
100.0
 41
225.0
 76
     3
 10
5786.489764002979
 20
1103.764973743767
 30
0.0
 10
5577.942290818806
 20
774.3616067207222
 30
0.0
 10
5477.942290818806
 20
774.3616067207222
 30
0.0
  0
LEADER
  5
220DF
330
747D
100
AcDbEntity
  8
寸法
 48
50.0
100
AcDbLeader
  3
INABA_S40G
 71
     0
 73
     0
 75
     1
 40
100.0
 41
222.7272727272727
 76
     3
 10
5946.611073562799
 20
1103.764973743767
 30
0.0
 10
5613.095700265602
 20
548.966416046418
 30
0.0
 10
5513.095700265601
 20
548.966416046418
 30
0.0
  0
MTEXT
  5
220E0
102
{ACAD_REACTORS
330
220DF
102
}
330
747D
100
AcDbEntity
  8
寸法
 62
     7
 48
50.0
100
AcDbMText
 10
5488.095700265602
 20
623.966416046418
 30
0.0
 40
100.0
 41
1.0
 71
     6
 72
     1
  1
D13
  7
STYLE2
 73
     1
 44
1.0
1001
ACAD
1000
MTEXTBEGIN
1070
    73
1070
     1
1070
    44
1040
1.0
1070
    74
1070
     0
1000
MTEXTEND
  0
MTEXT
  5
220E1
102
{ACAD_REACTORS
330
220E2
102
}
330
747D
100
AcDbEntity
  8
寸法
 62
     7
 48
50.0
100
AcDbMText
 10
5715.048505784294
 20
1435.390727265588
 30
0.0
 40
100.0
 41
1.0
 71
     6
 72
     1
  1
\A1;D10@300
  7
STYLE2
 73
     1
 44
1.0
1001
ACAD
1000
MTEXTBEGIN
1070
    73
1070
     1
1070
    44
1040
1.0
1070
    74
1070
     0
1000
MTEXTEND
  0
LEADER
  5
220E2
330
747D
100
AcDbEntity
  8
寸法
 48
50.0
100
AcDbLeader
  3
INABA_S40G
 71
     0
 73
     0
 75
     1
 40
100.0
 41
540.3409090909091
 76
     3
 10
5956.6110735628
 20
1631.423992115171
 30
0.0
 10
5827.883277901928
 20
1354.586081439166
 30
0.0
 10
5727.883277901929
 20
1354.586081439166
 30
0.0
213
-12.16522788236671
223
-5.804645826423211
233
0.0
  0
LEADER
  5
220E3
330
747D
100
AcDbEntity
  8
寸法
 48
50.0
100
AcDbLeader
  3
INABA_S40G
 71
     0
 73
     0
 75
     1
 40
130.1136363636363
 41
651.1363636363636
 76
     3
 10
5926.611073562801
 20
1933.764973743768
 30
0.0
 10
5867.693073644517
 20
2109.353430564502
 30
0.0
 10
5767.693073644517
 20
2109.353430564502
 30
0.0
  0
MTEXT
  5
220E4
102
{ACAD_REACTORS
330
220E3
102
}
330
747D
100
AcDbEntity
  8
寸法
 62
     7
 48
50.0
100
AcDbMText
 10
5742.693073644517
 20
2199.410248746321
 30
0.0
 40
100.0
 41
1.0
 71
     6
 72
     1
  1
\A1;金コテ押エ
  7
STYLE2
 73
     1
 44
1.0
1001
ACAD
1000
MTEXTBEGIN
1070
    73
1070
     1
1070
    44
1040
1.0
1070
    74
1070
     0
1000
MTEXTEND
  0
DIMENSION
  5
220E5
330
747D
100
AcDbEntity
  8
寸法
 48
50.0
100
AcDbDimension
  2
*D36
 10
5065.966135526736
 20
953.764973743767
 30
0.0
 11
5065.966135526736
 21
1443.764973743768
 31
0.0
 70
   160
  1
540
 71
     5
 42
980.0000000000014
  3
INABA_S40G
100
AcDbAlignedDimension
 13
5826.611073562799
 23
1933.764973743768
 33
0.0
 14
5566.611073562804
 24
953.7649737437668
 34
0.0
 50
90.0
100
AcDbRotatedDimension
  0
DIMENSION
  5
220E6
330
747D
100
AcDbEntity
  8
寸法
 48
50.0
100
AcDbDimension
  2
*D37
 10
5488.585681397226
 20
953.7649737437668
 30
0.0
 11
5488.585681397226
 21
1103.764973743767
 31
0.0
 70
   160
  1
150
 71
     5
 42
300.0000000000001
  3
INABA_S40G
100
AcDbAlignedDimension
 13
5666.611073562799
 23
1253.764973743767
 33
0.0
 14
5566.611073562804
 24
953.7649737437668
 34
0.0
 50
90.0
100
AcDbRotatedDimension
  0
LWPOLYLINE
  5
220E7
330
747D
100
AcDbEntity
  8
部品1
 48
50.0
100
AcDbPolyline
 90
        2
 70
     0
 43
10.0
 10
5308.936196271605
 20
1633.76497374377
 10
5826.611073562799
 20
1633.76497374377
  0
TEXT
  5
220E8
330
747D
100
AcDbEntity
  8
部品1
 48
50.0
100
AcDbText
 10
5308.936196271605
 20
1647.813714097837
 30
0.0
 40
100.0
  1
▽G.L
  7
STYLE2
100
AcDbText
  0
LEADER
  5
220E9
330
747D
100
AcDbEntity
  8
寸法
 48
50.0
100
AcDbLeader
  3
INABA_S40G
 71
     0
 73
     0
 75
     1
 40
132.9545454545455
 41
1129.404378023068
 76
     3
 10
8115.910215034293
 20
2020.714973743768
 30
0.0
 10
8007.88012460312
 20
2479.539442139183
 30
0.0
 10
7907.880124603121
 20
2479.539442139183
 30
0.0
  0
MTEXT
  5
220EA
102
{ACAD_REACTORS
330
220E9
102
}
330
747D
100
AcDbEntity
  8
寸法
 62
     7
 48
50.0
100
AcDbMText
 10
7867.88012460312
 20
2586.016714866457
 30
0.0
 40
100.0
 41
1.0
 71
     6
 72
     1
  1
アンカープレート {\fArial|b0|i0|c0|p32;U}
  7
STYLE2
 73
     1
 44
1.0
1001
ACAD
1000
MTEXTBEGIN
1070
    73
1070
     1
1070
    44
1040
1.0
1070
    74
1070
     0
1000
MTEXTEND
  0
MTEXT
  5
220EB
102
{ACAD_REACTORS
330
220EC
102
}
330
747D
100
AcDbEntity
  8
部品1
 62
     7
 48
50.0
100
AcDbMText
 10
8478.85267892599
 20
3040.595543558828
 30
0.0
 40
100.0
 41
1.0
 71
     4
 72
     1
  1
\A1;ナット(市販品)
  7
STYLE2
 73
     1
 44
1.0
1001
ACAD
1000
MTEXTBEGIN
1070
    73
1070
     1
1070
    44
1040
1.0
1070
    74
1070
     0
1000
MTEXTEND
  0
LEADER
  5
220EC
330
747D
100
AcDbEntity
  8
寸法
 48
50.0
100
AcDbLeader
  3
INABA_S40G
 71
     0
 73
     0
 74
     0
 75
     1
 40
127.8409090909091
 41
850.0
 76
     3
 10
8248.410215034294
 20
2432.359075130197
 30
0.0
 10
8338.85267892599
 20
2936.675089013374
 30
0.0
 10
8438.852678925989
 20
2936.675089013374
 30
0.0
  0
MTEXT
  5
220ED
102
{ACAD_REACTORS
330
220EE
102
}
330
747D
100
AcDbEntity
  8
部品1
 62
     7
 48
50.0
100
AcDbMText
 10
8518.249702995346
 20
2809.384190102843
 30
0.0
 40
100.0
 41
1.0
 71
     4
 72
     1
  1
\A1;ワッシャー(市販品)
  7
STYLE2
 73
     1
 44
1.0
1001
ACAD
1000
MTEXTBEGIN
1070
    73
1070
     1
1070
    44
1040
1.0
1070
    74
1070
     0
1000
MTEXTEND
  0
LEADER
  5
220EE
330
747D
100
AcDbEntity
  8
寸法
 48
50.0
100
AcDbLeader
  3
INABA_S40G
 71
     0
 73
     0
 74
     0
 75
     1
 40
127.8409090909091
 41
1133.522727272727
 76
     3
 10
8278.410215034293
 20
2270.169084299118
 30
0.0
 10
8378.249702995345
 20
2705.463735557389
 30
0.0
 10
8478.249702995345
 20
2705.463735557389
 30
0.0
  0
DIMENSION
  5
220EF
330
747D
100
AcDbEntity
  8
寸法
 48
50.0
100
AcDbDimension
  2
*D38
 10
5826.611073562799
 20
2458.349733639244
 30
0.0
 11
5946.611073562799
 21
2458.349733639244
 31
0.0
 70
   160
  1
120
 71
     5
 42
240.0
  3
INABA_S40G
100
AcDbAlignedDimension
 13
6066.611073562799
 23
1933.764973743768
 33
0.0
 14
5826.611073562799
 24
1933.764973743768
 34
0.0
100
AcDbRotatedDimension
  0
LINE
  5
220F0
330
747D
100
AcDbEntity
  8
部品1
100
AcDbLine
 10
4707.810382011021
 20
3584.979498464823
 30
0.0
 11
4707.810382011021
 21
325.9099991101357
 31
0.0
  0
MTEXT
  5
220F1
102
{ACAD_REACTORS
330
220F2
102
}
330
747D
100
AcDbEntity
  8
寸法
 62
     7
 48
50.0
100
AcDbMText
 10
7834.576366842672
 20
3036.87205475085
 30
0.0
 40
100.0
 41
1.0
 71
     6
 72
     1
  1
\A1;φ70スリーブ
  7
STYLE2
 73
     1
 44
1.0
1001
ACAD
1000
MTEXTBEGIN
1070
    73
1070
     1
1070
    44
1040
1.0
1070
    74
1070
     0
1000
MTEXTEND
  0
LEADER
  5
220F2
330
747D
100
AcDbEntity
  8
寸法
 48
50.0
100
AcDbLeader
  3
INABA_S40G
 71
     0
 73
     0
 75
     1
 40
141.4772727272727
 41
760.7954545454546
 76
     3
 10
8189.331152706854
 20
1870.659565441616
 30
0.0
 10
7974.576366842672
 20
2926.133418387214
 30
0.0
 10
7874.576366842672
 20
2926.133418387214
 30
0.0
  0
LINE
  5
220F3
330
747D
100
AcDbEntity
  8
部品1
100
AcDbLine
 10
11604.28507810905
 20
3584.979498464825
 30
0.0
 11
4707.810382011017
 21
3584.979498464823
 31
0.0
  0
LINE
  5
220F4
330
747D
100
AcDbEntity
  8
部品1
100
AcDbLine
 10
11604.28507810905
 20
3284.979498464823
 30
0.0
 11
4707.810382011017
 21
3284.979498464823
 31
0.0
  0
LINE
  5
220F5
330
747D
100
AcDbEntity
  8
部品1
100
AcDbLine
 10
4707.810382011017
 20
325.9099991101357
 30
0.0
 11
11604.28507810905
 21
325.9099991101357
 31
0.0
  0
LINE
  5
220F6
330
747D
100
AcDbEntity
  8
部品1
100
AcDbLine
 10
10113.77415028991
 20
1359.141329177076
 30
0.0
 11
11013.77415028991
 21
1359.14132917708
 31
0.0
  0
LINE
  5
220F7
330
747D
100
AcDbEntity
  8
部品1
100
AcDbLine
 10
10113.77415028991
 20
1519.14132917708
 30
0.0
 11
11013.77415028991
 21
1519.141329177083
 31
0.0
  0
LWPOLYLINE
  5
220F8
330
747D
100
AcDbEntity
  8
部品1
 48
50.0
100
AcDbPolyline
 90
        2
 70
     0
 43
15.0
 10
9783.010072664428
 20
1633.764973743768
 10
11284.37545157896
 20
1633.764973743768
  0
LINE
  5
220F9
330
747D
100
AcDbEntity
  8
細線
100
AcDbLine
 10
10255.06964341407
 20
1519.14132917708
 30
0.0
 11
10369.69328798076
 21
1633.764973743767
 31
0.0
  0
LINE
  5
220FA
330
747D
100
AcDbEntity
  8
部品1
100
AcDbLine
 10
10263.77415028991
 20
1933.764973743768
 30
0.0
 11
10863.77415028991
 21
1933.764973743768
 31
0.0
  0
LINE
  5
220FB
330
747D
100
AcDbEntity
  8
細線
100
AcDbLine
 10
10443.4262070791
 20
1633.764973743768
 30
0.0
 11
10263.77415028991
 21
1813.417030532958
 31
0.0
  0
LINE
  5
220FC
330
747D
100
AcDbEntity
  8
細線
100
AcDbLine
 10
10507.06581738589
 20
1633.764973743768
 30
0.0
 11
10263.77415028991
 21
1877.056640839746
 31
0.0
  0
MTEXT
  5
220FD
330
747D
100
AcDbEntity
  8
寸法
 62
     7
 48
50.0
100
AcDbMText
 10
7895.556878475558
 20
2400.689039260351
 30
0.0
 40
100.0
 41
1.0
 71
     6
 72
     1
  1
\U+203B(別売)
  7
STYLE2
 73
     1
 44
1.0
1001
ACAD
1000
MTEXTBEGIN
1070
    73
1070
     1
1070
    44
1040
1.0
1070
    74
1070
     0
1000
MTEXTEND
  0
TEXT
  5
220FE
330
747D
100
AcDbEntity
  8
文字
 62
     7
 48
50.0
100
AcDbText
 10
14641.2525855784
 20
871.1744590657925
 30
0.0
 40
100.0
  1
～一般型・多雪地型～
  7
STYLE2
100
AcDbText
  0
TEXT
  5
220FF
330
747D
100
AcDbEntity
  8
文字
 62
     7
 48
50.0
100
AcDbText
 10
14524.131837222
 20
1031.557706291228
 30
0.0
 40
100.0
  1
NO.14      <縮尺> S=1/40
  7
STYLE2
100
AcDbText
  0
DIMENSION
  5
22182
330
747D
100
AcDbEntity
  8
寸法
 48
50.0
100
AcDbDimension
  2
*D41
 10
6173.722271873726
 20
5302.919036112878
 30
0.0
 11
6073.710460850104
 21
6412.919036112871
 31
0.0
 70
    32
 71
     5
 42
2219.999999999984
  3
INABA_S40G
100
AcDbAlignedDimension
 13
6915.157340025517
 23
7522.919036112861
 33
0.0
 14
6915.157340025517
 24
5302.919036112878
 34
0.0
 50
90.0
100
AcDbRotatedDimension
  0
DIMENSION
  5
2218F
330
747D
100
AcDbEntity
  8
寸法
 48
50.0
100
AcDbDimension
  2
*D42
 10
6173.722271873728
 20
5302.919036112878
 30
0.0
 11
6073.722271873727
 21
5275.419036112872
 31
0.0
 70
    32
  1
b
 71
     5
 42
55.00000000001637
  3
INABA_S40G
100
AcDbAlignedDimension
 13
6419.215074011694
 23
5247.919036112861
 33
0.0
 14
6915.157340025515
 24
5302.919036112878
 34
0.0
 50
90.0
100
AcDbRotatedDimension
  0
ENDSEC
  0
SECTION
  2
OBJECTS
  0
DICTIONARY
  5
7471
330
0
100
AcDbDictionary
281
     1
  3
ACAD_COLOR
350
159B0
  3
ACAD_GROUP
350
7472
  3
ACAD_LAYOUT
350
159B1
  3
ACAD_MATERIAL
350
159AF
  3
ACAD_MLINESTYLE
350
7473
  3
ACAD_PLOTSETTINGS
350
159B2
  3
ACAD_PLOTSTYLENAME
350
159AD
  3
ACDBHEADERROUNDTRIPXREC
350
221D3
  3
AcDbVariableDictionary
350
21704
  3
CONTENTDICTIONARY
350
E71C
  3
DRAWINGVARIABLESDICT
350
F3B9
  0
DICTIONARY
  5
2175A
330
7467
100
AcDbDictionary
280
     1
281
     1
  3
ACAD_LAYERSTATES
360
2175B
  0
DICTIONARY
  5
159B0
102
{ACAD_REACTORS
330
7471
102
}
330
7471
100
AcDbDictionary
281
     1
  0
DICTIONARY
  5
7472
102
{ACAD_REACTORS
330
7471
102
}
330
7471
100
AcDbDictionary
281
     1
  0
DICTIONARY
  5
159B1
102
{ACAD_REACTORS
330
7471
102
}
330
7471
100
AcDbDictionary
281
     1
  3
Model
350
159B3
  3
レイアウト1
350
159B4
  0
DICTIONARY
  5
159AF
102
{ACAD_REACTORS
330
7471
102
}
330
7471
100
AcDbDictionary
281
     1
  0
DICTIONARY
  5
7473
102
{ACAD_REACTORS
330
7471
102
}
330
7471
100
AcDbDictionary
281
     1
  3
STANDARD
350
7480
  0
DICTIONARY
  5
159B2
102
{ACAD_REACTORS
330
7471
102
}
330
7471
100
AcDbDictionary
281
     1
  0
ACDBDICTIONARYWDFLT
  5
159AD
102
{ACAD_REACTORS
330
7471
102
}
330
7471
100
AcDbDictionary
281
     1
  3
Normal
350
159AE
100
AcDbDictionaryWithDefault
340
159AE
  0
DICTIONARY
  5
221D3
102
{ACAD_REACTORS
330
7471
102
}
330
7471
100
AcDbDictionary
281
     1
  3
COLORDICT
350
221D5
  3
MATERIALDICT
350
221D4
  0
DICTIONARY
  5
21704
102
{ACAD_REACTORS
330
7471
102
}
330
7471
100
AcDbDictionary
281
     1
  3
DIMASSOC
350
21705
  3
PROJECTNAME
350
21706
  0
DICTIONARY
  5
E71C
102
{ACAD_REACTORS
330
7471
102
}
330
7471
100
AcDbDictionary
281
     1
  0
DICTIONARY
  5
F3B9
102
{ACAD_REACTORS
330
7471
102
}
330
7471
100
AcDbDictionary
281
     1
1001
DRAWINGVARIABLESXDATA
1000
POLARMODE
1000
1
  0
DICTIONARY
  5
2175B
102
{ACAD_REACTORS
330
2175A
102
}
330
2175A
100
AcDbDictionary
281
     1
  0
LAYOUT
  5
159B3
102
{ACAD_XDICTIONARY
360
221D6
102
}
102
{ACAD_REACTORS
330
159B1
102
}
330
159B1
100
AcDbPlotSettings
  1

  2
iR C3880
  4
A3
  6

 40
5.87375
 41
5.873747999999999
 42
5.873749
 43
5.873749
 44
296.925995
 45
419.946655
 46
0.0
 47
0.0
 48
0.0
 49
0.0
140
0.0
141
0.0
142
1.0
143
41.65811997269246
 70
 11952
 72
     1
 73
     1
 74
     2
  7
inabass.ctb
 75
     0
147
0.0240049239057239
148
0.0
149
0.0
100
AcDbLayout
  1
Model
 70
     1
 71
     0
 10
0.0
 20
0.0
 11
12.0
 21
9.0
 12
0.0
 22
0.0
 32
0.0
 14
0.0
 24
0.0
 34
0.0
 15
0.0
 25
0.0
 35
0.0
146
0.0
 13
0.0
 23
0.0
 33
0.0
 16
1.0
 26
0.0
 36
0.0
 17
0.0
 27
1.0
 37
0.0
 76
     0
330
747D
  0
LAYOUT
  5
159B4
102
{ACAD_XDICTIONARY
360
221D8
102
}
102
{ACAD_REACTORS
330
159B1
102
}
330
159B1
100
AcDbPlotSettings
  1

  2
自動 EPSON LP-8400FX (TATENO 上)
  4

  6

 40
0.0
 41
0.0
 42
0.0
 43
0.0
 44
0.0
 45
0.0
 46
0.0
 47
0.0
 48
0.0
 49
0.0
140
0.0
141
0.0
142
1.0
143
1.0
 70
   688
 72
     0
 73
     0
 74
     5
  7
inaba.ctb
 75
    16
147
1.0
148
0.0
149
0.0
100
AcDbLayout
  1
レイアウト1
 70
     0
 71
     1
 10
0.0
 20
0.0
 11
420.0
 21
297.0
 12
0.0
 22
0.0
 32
0.0
 14
1.000000000000000E+20
 24
1.000000000000000E+20
 34
1.000000000000000E+20
 15
-1.000000000000000E+20
 25
-1.000000000000000E+20
 35
-1.000000000000000E+20
146
0.0
 13
0.0
 23
0.0
 33
0.0
 16
1.0
 26
0.0
 36
0.0
 17
0.0
 27
1.0
 37
0.0
 76
     0
330
747A
  0
MLINESTYLE
  5
7480
102
{ACAD_REACTORS
330
7473
102
}
330
7473
100
AcDbMlineStyle
  2
STANDARD
 70
     0
  3

 62
     0
 51
90.0
 52
90.0
 71
     2
 49
0.5
 62
   256
  6
BYLAYER
 49
-0.5
 62
   256
  6
BYLAYER
  0
ACDBPLACEHOLDER
  5
159AE
102
{ACAD_REACTORS
330
159AD
102
}
330
159AD
  0
XRECORD
  5
221D5
102
{ACAD_REACTORS
330
221D3
102
}
330
221D3
100
AcDbXrecord
280
     1
340
159B0
  0
XRECORD
  5
221D4
102
{ACAD_REACTORS
330
221D3
102
}
330
221D3
100
AcDbXrecord
280
     1
340
159AF
  0
DICTIONARYVAR
  5
21705
102
{ACAD_REACTORS
330
21704
102
}
330
21704
100
DictionaryVariables
280
     0
  1
1
  0
DICTIONARYVAR
  5
21706
102
{ACAD_REACTORS
330
21704
102
}
330
21704
100
DictionaryVariables
280
     0
  1

  0
DICTIONARY
  5
221D6
330
159B3
100
AcDbDictionary
280
     1
281
     1
  3
ACAD_XREC_ROUNDTRIP
360
221D7
  0
DICTIONARY
  5
221D8
330
159B4
100
AcDbDictionary
280
     1
281
     1
  3
ACAD_XREC_ROUNDTRIP
360
221D9
  0
XRECORD
  5
221D7
102
{ACAD_REACTORS
330
221D6
102
}
330
221D6
100
AcDbXrecord
280
     1
102
SHADEPLOT
 70
     1
102
SHADEPLOTRESLEVEL
 70
     2
102
SHADEPLOTCUSTOMDPI
 70
   300
  0
XRECORD
  5
221D9
102
{ACAD_REACTORS
330
221D8
102
}
330
221D8
100
AcDbXrecord
280
     1
102
SHADEPLOT
 70
     0
102
SHADEPLOTRESLEVEL
 70
     2
102
SHADEPLOTCUSTOMDPI
 70
   300
  0
ENDSEC
  0
EOF
