  0
SECTION
  2
HEADER
  9
$ACADVER
  1
AC1015
  9
$ACADMAINTVER
 70
    20
  9
$DWGCODEPAGE
  3
ANSI_932
  9
$INSBASE
 10
0.0
 20
0.0
 30
0.0
  9
$EXTMIN
 10
139.196816621341
 20
-0.7248735957364261
 30
-0.000000000000013
  9
$EXTMAX
 10
16308.32523385566
 20
11409.94113503667
 30
0.0000000000000023
  9
$LIMMIN
 10
0.0
 20
0.0
  9
$LIMMAX
 10
16800.0
 20
11880.0
  9
$ORTHOMODE
 70
     0
  9
$REGENMODE
 70
     1
  9
$FILLMODE
 70
     1
  9
$QTEXTMODE
 70
     0
  9
$MIRRTEXT
 70
     1
  9
$LTSCALE
 40
20.0
  9
$ATTMODE
 70
     1
  9
$TEXTSIZE
 40
4.0
  9
$TRACEWID
 40
1.0
  9
$TEXTSTYLE
  7
STYLE1
  9
$CLAYER
  8
細線
  9
$CELTYPE
  6
BYLAYER
  9
$CECOLOR
 62
   256
  9
$CELTSCALE
 40
50.0
  9
$DISPSILH
 70
     0
  9
$DIMSCALE
 40
40.0
  9
$DIMASZ
 40
2.5
  9
$DIMEXO
 40
0.5
  9
$DIMDLI
 40
7.0
  9
$DIMRND
 40
0.0
  9
$DIMDLE
 40
0.0
  9
$DIMEXE
 40
1.5
  9
$DIMTP
 40
0.0
  9
$DIMTM
 40
0.0
  9
$DIMTXT
 40
3.0
  9
$DIMCEN
 40
0.0
  9
$DIMTSZ
 40
0.0
  9
$DIMTOL
 70
     0
  9
$DIMLIM
 70
     0
  9
$DIMTIH
 70
     0
  9
$DIMTOH
 70
     0
  9
$DIMSE1
 70
     0
  9
$DIMSE2
 70
     0
  9
$DIMTAD
 70
     3
  9
$DIMZIN
 70
     8
  9
$DIMBLK
  1

  9
$DIMASO
 70
     1
  9
$DIMSHO
 70
     1
  9
$DIMPOST
  1

  9
$DIMAPOST
  1

  9
$DIMALT
 70
     0
  9
$DIMALTD
 70
     2
  9
$DIMALTF
 40
0.0394
  9
$DIMLFAC
 40
1.0
  9
$DIMTOFL
 70
     1
  9
$DIMTVP
 40
0.0
  9
$DIMTIX
 70
     1
  9
$DIMSOXD
 70
     0
  9
$DIMSAH
 70
     1
  9
$DIMBLK1
  1
DOTSMALL
  9
$DIMBLK2
  1
DOTSMALL
  9
$DIMSTYLE
  2
INABA_S40G
  9
$DIMCLRD
 70
     0
  9
$DIMCLRE
 70
     0
  9
$DIMCLRT
 70
     7
  9
$DIMTFAC
 40
1.0
  9
$DIMGAP
 40
1.0
  9
$DIMJUST
 70
     0
  9
$DIMSD1
 70
     0
  9
$DIMSD2
 70
     0
  9
$DIMTOLJ
 70
     1
  9
$DIMTZIN
 70
     0
  9
$DIMALTZ
 70
     0
  9
$DIMALTTZ
 70
     0
  9
$DIMUPT
 70
     0
  9
$DIMDEC
 70
     1
  9
$DIMTDEC
 70
     4
  9
$DIMALTU
 70
     2
  9
$DIMALTTD
 70
     2
  9
$DIMTXSTY
  7
STYLE1
  9
$DIMAUNIT
 70
     0
  9
$DIMADEC
 70
     0
  9
$DIMALTRND
 40
0.0
  9
$DIMAZIN
 70
     0
  9
$DIMDSEP
 70
    46
  9
$DIMATFIT
 70
     3
  9
$DIMFRAC
 70
     0
  9
$DIMLDRBLK
  1
DOTSMALL
  9
$DIMLUNIT
 70
     2
  9
$DIMLWD
 70
    -2
  9
$DIMLWE
 70
    -2
  9
$DIMTMOVE
 70
     0
  9
$LUNITS
 70
     2
  9
$LUPREC
 70
     1
  9
$SKETCHINC
 40
1.0
  9
$FILLETRAD
 40
3.0
  9
$AUNITS
 70
     0
  9
$AUPREC
 70
     0
  9
$MENU
  1
acad
  9
$ELEVATION
 40
0.0
  9
$PELEVATION
 40
0.0
  9
$THICKNESS
 40
0.0
  9
$LIMCHECK
 70
     0
  9
$CHAMFERA
 40
0.0
  9
$CHAMFERB
 40
0.0
  9
$CHAMFERC
 40
0.0
  9
$CHAMFERD
 40
0.0
  9
$SKPOLY
 70
     0
  9
$TDCREATE
 40
2451368.612993866
  9
$TDUCREATE
 40
2451368.237993866
  9
$TDUPDATE
 40
2456540.477721053
  9
$TDUUPDATE
 40
2456540.102721053
  9
$TDINDWG
 40
0.9502192477
  9
$TDUSRTIMER
 40
0.9502183449
  9
$USRTIMER
 70
     1
  9
$ANGBASE
 50
0.0
  9
$ANGDIR
 70
     0
  9
$PDMODE
 70
     3
  9
$PDSIZE
 40
2.0
  9
$PLINEWID
 40
0.0
  9
$SPLFRAME
 70
     0
  9
$SPLINETYPE
 70
     6
  9
$SPLINESEGS
 70
     8
  9
$HANDSEED
  5
28C64
  9
$SURFTAB1
 70
     6
  9
$SURFTAB2
 70
     6
  9
$SURFTYPE
 70
     6
  9
$SURFU
 70
     6
  9
$SURFV
 70
     6
  9
$UCSBASE
  2

  9
$UCSNAME
  2

  9
$UCSORG
 10
0.0
 20
0.0
 30
0.0
  9
$UCSXDIR
 10
1.0
 20
0.0
 30
0.0
  9
$UCSYDIR
 10
0.0
 20
1.0
 30
0.0
  9
$UCSORTHOREF
  2

  9
$UCSORTHOVIEW
 70
     0
  9
$UCSORGTOP
 10
0.0
 20
0.0
 30
0.0
  9
$UCSORGBOTTOM
 10
0.0
 20
0.0
 30
0.0
  9
$UCSORGLEFT
 10
0.0
 20
0.0
 30
0.0
  9
$UCSORGRIGHT
 10
0.0
 20
0.0
 30
0.0
  9
$UCSORGFRONT
 10
0.0
 20
0.0
 30
0.0
  9
$UCSORGBACK
 10
0.0
 20
0.0
 30
0.0
  9
$PUCSBASE
  2

  9
$PUCSNAME
  2

  9
$PUCSORG
 10
0.0
 20
0.0
 30
0.0
  9
$PUCSXDIR
 10
1.0
 20
0.0
 30
0.0
  9
$PUCSYDIR
 10
0.0
 20
1.0
 30
0.0
  9
$PUCSORTHOREF
  2

  9
$PUCSORTHOVIEW
 70
     0
  9
$PUCSORGTOP
 10
0.0
 20
0.0
 30
0.0
  9
$PUCSORGBOTTOM
 10
0.0
 20
0.0
 30
0.0
  9
$PUCSORGLEFT
 10
0.0
 20
0.0
 30
0.0
  9
$PUCSORGRIGHT
 10
0.0
 20
0.0
 30
0.0
  9
$PUCSORGFRONT
 10
0.0
 20
0.0
 30
0.0
  9
$PUCSORGBACK
 10
0.0
 20
0.0
 30
0.0
  9
$USERI1
 70
     0
  9
$USERI2
 70
     0
  9
$USERI3
 70
     0
  9
$USERI4
 70
     0
  9
$USERI5
 70
     0
  9
$USERR1
 40
0.0
  9
$USERR2
 40
0.0
  9
$USERR3
 40
0.0
  9
$USERR4
 40
0.0
  9
$USERR5
 40
0.0
  9
$WORLDVIEW
 70
     1
  9
$SHADEDGE
 70
     3
  9
$SHADEDIF
 70
    70
  9
$TILEMODE
 70
     1
  9
$MAXACTVP
 70
    16
  9
$PINSBASE
 10
0.0
 20
0.0
 30
0.0
  9
$PLIMCHECK
 70
     0
  9
$PEXTMIN
 10
1.000000000000000E+20
 20
1.000000000000000E+20
 30
1.000000000000000E+20
  9
$PEXTMAX
 10
-1.000000000000000E+20
 20
-1.000000000000000E+20
 30
-1.000000000000000E+20
  9
$PLIMMIN
 10
0.0
 20
0.0
  9
$PLIMMAX
 10
420.0
 20
297.0
  9
$UNITMODE
 70
     0
  9
$VISRETAIN
 70
     0
  9
$PLINEGEN
 70
     0
  9
$PSLTSCALE
 70
     0
  9
$TREEDEPTH
 70
  3020
  9
$CMLSTYLE
  2
STANDARD
  9
$CMLJUST
 70
     0
  9
$CMLSCALE
 40
1.0
  9
$PROXYGRAPHICS
 70
     1
  9
$MEASUREMENT
 70
     1
  9
$CELWEIGHT
370
    -1
  9
$ENDCAPS
280
     0
  9
$JOINSTYLE
280
     0
  9
$LWDISPLAY
290
     0
  9
$INSUNITS
 70
     0
  9
$HYPERLINKBASE
  1

  9
$STYLESHEET
  1
monochrome.ctb
  9
$XEDIT
290
     1
  9
$CEPSNTYPE
380
     0
  9
$PSTYLEMODE
290
     1
  9
$FINGERPRINTGUID
  2
{5EAC461A-2277-4BF8-9AB0-99C43BB394F0}
  9
$VERSIONGUID
  2
{4F51F9D9-2F84-4D15-A4AD-62944CF6B44A}
  9
$EXTNAMES
290
     1
  9
$PSVPSCALE
 40
0.0
  9
$OLESTARTUP
290
     0
  0
ENDSEC
  0
SECTION
  2
CLASSES
  0
CLASS
  1
ACDBDICTIONARYWDFLT
  2
AcDbDictionaryWithDefault
  3
ObjectDBX Classes
 90
        0
280
     0
281
     0
  0
CLASS
  1
DICTIONARYVAR
  2
AcDbDictionaryVar
  3
ObjectDBX Classes
 90
        0
280
     0
281
     0
  0
CLASS
  1
ACDBPLACEHOLDER
  2
AcDbPlaceHolder
  3
ObjectDBX Classes
 90
        0
280
     0
281
     0
  0
CLASS
  1
LAYOUT
  2
AcDbLayout
  3
ObjectDBX Classes
 90
        0
280
     0
281
     0
  0
CLASS
  1
MATERIAL
  2
AcDbMaterial
  3
ObjectDBX Classes
 90
     1153
280
     0
281
     0
  0
CLASS
  1
VISUALSTYLE
  2
AcDbVisualStyle
  3
ObjectDBX Classes
 90
     4095
280
     0
281
     0
  0
CLASS
  1
TABLESTYLE
  2
AcDbTableStyle
  3
ObjectDBX Classes
 90
     4095
280
     0
281
     0
  0
CLASS
  1
SCALE
  2
AcDbScale
  3
ObjectDBX Classes
 90
     1153
280
     0
281
     0
  0
CLASS
  1
MLEADERSTYLE
  2
AcDbMLeaderStyle
  3
ACDB_MLEADERSTYLE_CLASS
 90
     4095
280
     0
281
     0
  0
CLASS
  1
ACDBSECTIONVIEWSTYLE
  2
AcDbSectionViewStyle
  3
ObjectDBX Classes
 90
     1025
280
     0
281
     0
  0
CLASS
  1
ACDBDETAILVIEWSTYLE
  2
AcDbDetailViewStyle
  3
ObjectDBX Classes
 90
     1025
280
     0
281
     0
  0
CLASS
  1
CELLSTYLEMAP
  2
AcDbCellStyleMap
  3
ObjectDBX Classes
 90
     1152
280
     0
281
     0
  0
ENDSEC
  0
SECTION
  2
TABLES
  0
TABLE
  2
VPORT
  5
746D
330
0
100
AcDbSymbolTable
 70
     1
  0
VPORT
  5
28B3B
330
746D
100
AcDbSymbolTableRecord
100
AcDbViewportTableRecord
  2
*Active
 70
     0
 10
0.0
 20
0.0
 11
1.0
 21
1.0
 12
8400.0
 22
5939.637563202133
 13
0.0
 23
0.0
 14
10.0
 24
10.0
 15
10.0
 25
10.0
 16
0.0
 26
0.0
 36
1.0
 17
0.0
 27
0.0
 37
0.0
 40
11966.92118464963
 41
1.451573849878934
 42
50.0
 43
0.0
 44
0.0
 50
0.0
 51
0.0
 71
     0
 72
     0
 73
     1
 74
     0
 75
     0
 76
     0
 77
     0
 78
     0
281
     0
 65
     1
110
0.0
120
0.0
130
0.0
111
1.0
121
0.0
131
0.0
112
0.0
122
1.0
132
0.0
 79
     0
146
0.0
1001
ACAD_NAV_VCDISPLAY
1070
     3
  0
ENDTAB
  0
TABLE
  2
LTYPE
  5
746A
330
0
100
AcDbSymbolTable
 70
     3
  0
LTYPE
  5
7477
330
746A
100
AcDbSymbolTableRecord
100
AcDbLinetypeTableRecord
  2
BYBLOCK
 70
     0
  3

 72
    65
 73
     0
 40
0.0
  0
LTYPE
  5
7478
330
746A
100
AcDbSymbolTableRecord
100
AcDbLinetypeTableRecord
  2
BYLAYER
 70
     0
  3

 72
    65
 73
     0
 40
0.0
  0
LTYPE
  5
7479
330
746A
100
AcDbSymbolTableRecord
100
AcDbLinetypeTableRecord
  2
CONTINUOUS
 70
     0
  3
Solid line
 72
    65
 73
     0
 40
0.0
  0
LTYPE
  5
7816
330
746A
100
AcDbSymbolTableRecord
100
AcDbLinetypeTableRecord
  2
CENTER
 70
     0
  3
____ _ ____ _ ____ _ ____ _ ____ _ ____ _ ____ 
 72
    65
 73
     4
 40
2.0
 49
1.25
 74
     0
 49
-0.25
 74
     0
 49
0.25
 74
     0
 49
-0.25
 74
     0
  0
LTYPE
  5
781B
330
746A
100
AcDbSymbolTableRecord
100
AcDbLinetypeTableRecord
  2
PHANTOM
 70
     0
  3
______  __  __  ______  __  __  ______  __  __ 
 72
    65
 73
     6
 40
2.5
 49
1.25
 74
     0
 49
-0.25
 74
     0
 49
0.25
 74
     0
 49
-0.25
 74
     0
 49
0.25
 74
     0
 49
-0.25
 74
     0
  0
ENDTAB
  0
TABLE
  2
LAYER
  5
7467
102
{ACAD_XDICTIONARY
360
1758F
102
}
330
0
100
AcDbSymbolTable
 70
    10
  0
LAYER
  5
7474
102
{ACAD_XDICTIONARY
360
28B91
102
}
330
7467
100
AcDbSymbolTableRecord
100
AcDbLayerTableRecord
  2
0
 70
     0
 62
     7
  6
CONTINUOUS
370
    -3
390
173D0
  0
LAYER
  5
DEB2
102
{ACAD_XDICTIONARY
360
28B93
102
}
330
7467
100
AcDbSymbolTableRecord
100
AcDbLayerTableRecord
  2
センター
 70
     0
 62
     3
  6
CENTER
370
    -3
390
173D0
  0
LAYER
  5
DEB3
102
{ACAD_XDICTIONARY
360
28B95
102
}
330
7467
100
AcDbSymbolTableRecord
100
AcDbLayerTableRecord
  2
寸法
 70
     0
 62
     4
  6
CONTINUOUS
370
    -3
390
173D0
  0
LAYER
  5
DEB4
102
{ACAD_XDICTIONARY
360
28B97
102
}
330
7467
100
AcDbSymbolTableRecord
100
AcDbLayerTableRecord
  2
部品1
 70
     0
 62
     7
  6
CONTINUOUS
370
    -3
390
173D0
  0
LAYER
  5
DEB5
102
{ACAD_XDICTIONARY
360
28B99
102
}
330
7467
100
AcDbSymbolTableRecord
100
AcDbLayerTableRecord
  2
補助
 70
     0
 62
    -1
  6
CONTINUOUS
370
    -3
390
173D0
  0
LAYER
  5
DEB6
102
{ACAD_XDICTIONARY
360
28B9B
102
}
330
7467
100
AcDbSymbolTableRecord
100
AcDbLayerTableRecord
  2
文字
 70
     0
 62
     7
  6
CONTINUOUS
370
    -3
390
173D0
  0
LAYER
  5
F255
330
7467
100
AcDbSymbolTableRecord
100
AcDbLayerTableRecord
  2
DEFPOINTS
 70
     0
 62
     7
  6
CONTINUOUS
290
     0
370
    -3
390
173D0
  0
LAYER
  5
10B54
102
{ACAD_XDICTIONARY
360
28B9D
102
}
330
7467
100
AcDbSymbolTableRecord
100
AcDbLayerTableRecord
  2
仕様書枠
 70
     0
 62
   230
  6
CONTINUOUS
370
    -3
390
173D0
  0
LAYER
  5
1173F
102
{ACAD_XDICTIONARY
360
28B9F
102
}
330
7467
100
AcDbSymbolTableRecord
100
AcDbLayerTableRecord
  2
細線
 70
     0
 62
     5
  6
CONTINUOUS
370
    -3
390
173D0
  0
LAYER
  5
12CC4
102
{ACAD_XDICTIONARY
360
28BA1
102
}
330
7467
100
AcDbSymbolTableRecord
100
AcDbLayerTableRecord
  2
想像線
 70
     0
 62
     6
  6
PHANTOM
370
    -3
390
173D0
  0
ENDTAB
  0
TABLE
  2
STYLE
  5
7468
330
0
100
AcDbSymbolTable
 70
     4
  0
STYLE
  5
7475
330
7468
100
AcDbSymbolTableRecord
100
AcDbTextStyleTableRecord
  2
STANDARD
 70
     0
 40
0.0
 41
1.0
 50
0.0
 71
     0
 42
4.0
  3
txt
  4
C:\AutoCAD LT\bigfont.shx
  0
STYLE
  5
763C
330
7468
100
AcDbSymbolTableRecord
100
AcDbTextStyleTableRecord
  2
MSMINCHO
 70
     0
 40
0.0
 41
1.0
 50
0.0
 71
     0
 42
1.199999999999999
  3
C:\AutoCAD LT\msminch2.TTF
  4

  0
STYLE
  5
F706
330
7468
100
AcDbSymbolTableRecord
100
AcDbTextStyleTableRecord
  2
STYLE1
 70
     0
 40
0.0
 41
1.0
 50
0.0
 71
     0
 42
4.0
  3
isocp.shx
  4
bigfont.shx
  0
STYLE
  5
103BF
330
7468
100
AcDbSymbolTableRecord
100
AcDbTextStyleTableRecord
  2
STYLE2
 70
     0
 40
0.0
 41
1.0
 50
0.0
 71
     0
 42
100.0
  3

  4

1001
ACAD
1000
MS PGothic
1071
    32818
  0
ENDTAB
  0
TABLE
  2
VIEW
  5
746B
330
0
100
AcDbSymbolTable
 70
     0
  0
ENDTAB
  0
TABLE
  2
UCS
  5
746C
330
0
100
AcDbSymbolTable
 70
     0
  0
ENDTAB
  0
TABLE
  2
APPID
  5
746E
330
0
100
AcDbSymbolTable
 70
     8
  0
APPID
  5
7476
330
746E
100
AcDbSymbolTableRecord
100
AcDbRegAppTableRecord
  2
ACAD
 70
     0
  0
APPID
  5
DEA9
330
746E
100
AcDbSymbolTableRecord
100
AcDbRegAppTableRecord
  2
CONTENTBLOCKICON
 70
     0
  0
APPID
  5
DEAA
330
746E
100
AcDbSymbolTableRecord
100
AcDbRegAppTableRecord
  2
CONTENTBLOCKDESCRIPTION
 70
     0
  0
APPID
  5
E71D
330
746E
100
AcDbSymbolTableRecord
100
AcDbRegAppTableRecord
  2
CONTENTTABDATA
 70
     0
  0
APPID
  5
E71E
330
746E
100
AcDbSymbolTableRecord
100
AcDbRegAppTableRecord
  2
CONTENTCURRENTTAB
 70
     0
  0
APPID
  5
F3BA
330
746E
100
AcDbSymbolTableRecord
100
AcDbRegAppTableRecord
  2
DRAWINGVARIABLESXDATA
 70
     0
  0
APPID
  5
28BB2
330
746E
100
AcDbSymbolTableRecord
100
AcDbRegAppTableRecord
  2
ACAD_NAV_VCDISPLAY
 70
     0
  0
APPID
  5
28C5F
330
746E
100
AcDbSymbolTableRecord
100
AcDbRegAppTableRecord
  2
ACAD_MLEADERVER
 70
     0
  0
ENDTAB
  0
TABLE
  2
DIMSTYLE
  5
746F
330
0
100
AcDbSymbolTable
 70
     1
100
AcDbDimStyleTable
 71
     1
340
F71F
  0
DIMSTYLE
105
F71F
102
{ACAD_REACTORS
330
2856D
330
2856A
330
28569
330
28567
330
28564
330
28561
330
28560
330
2855E
330
2855D
330
2855A
330
28559
330
2854C
330
2854B
330
2854A
330
28508
330
284F3
330
284F1
330
284EB
330
28452
330
27D82
330
27D16
330
26F7E
330
26F64
330
26F3F
330
26F1A
330
26522
330
2651E
330
26519
330
2650D
330
2650C
330
26508
330
2647E
330
2646B
330
26467
330
26459
330
26458
330
26457
330
26454
330
26452
330
26450
330
2622F
330
261CE
330
261CD
330
261C9
330
261B9
330
261B5
330
261B2
330
261B1
330
261B0
330
1D2D6
330
1AC2C
330
1AC27
102
}
330
746F
100
AcDbSymbolTableRecord
100
AcDbDimStyleTableRecord
  2
INABA_S40G
 70
     0
 40
40.0
 41
2.5
 42
0.5
 43
7.0
 44
1.5
 73
     0
 74
     0
 77
     3
 78
     8
140
3.0
141
0.0
143
0.0394
147
1.0
172
     1
173
     1
174
     1
178
     7
271
     1
340
F706
341
F770
343
F770
344
F770
  0
ENDTAB
  0
TABLE
  2
BLOCK_RECORD
  5
7466
330
0
100
AcDbSymbolTable
 70
    36
  0
BLOCK_RECORD
  5
747D
330
7466
100
AcDbSymbolTableRecord
100
AcDbBlockTableRecord
  2
*MODEL_SPACE
340
173D5
  0
BLOCK_RECORD
  5
747A
330
7466
100
AcDbSymbolTableRecord
100
AcDbBlockTableRecord
  2
*PAPER_SPACE
340
173D6
  0
BLOCK_RECORD
  5
F770
330
7466
100
AcDbSymbolTableRecord
100
AcDbBlockTableRecord
  2
_DOTSMALL
340
0
102
{BLKREFS
331
2887B
331
2887C
331
28884
331
28885
331
2888D
331
2888E
331
28896
331
28897
331
288A1
331
288A2
331
288B3
331
288B4
331
288C8
331
288C9
331
288D3
331
288D4
331
288DE
331
288DF
331
288E9
331
288EA
331
288FE
331
288FF
331
28908
331
28909
331
28912
331
28913
331
2891B
331
2891C
331
28924
331
28925
331
2892D
331
2892E
331
28936
331
28937
331
2893F
331
28940
331
28949
331
2894A
331
28953
331
28954
331
2895C
331
2895D
331
28966
331
28967
331
2896F
331
28970
331
28978
331
28979
331
28982
331
28983
331
28995
331
28996
331
2899E
331
2899F
331
289A7
331
289A8
331
289B2
331
289B3
331
289BB
331
289BC
331
289C4
331
289C5
331
289CE
331
289CF
331
289D8
331
289D9
331
289E1
331
289E2
331
28B34
331
28B35
102
}
  0
BLOCK_RECORD
  5
26523
330
7466
100
AcDbSymbolTableRecord
100
AcDbBlockTableRecord
  2
*D1
340
0
  0
BLOCK_RECORD
  5
2652E
330
7466
100
AcDbSymbolTableRecord
100
AcDbBlockTableRecord
  2
*D2
340
0
  0
BLOCK_RECORD
  5
2653B
330
7466
100
AcDbSymbolTableRecord
100
AcDbBlockTableRecord
  2
*D3
340
0
  0
BLOCK_RECORD
  5
26548
330
7466
100
AcDbSymbolTableRecord
100
AcDbBlockTableRecord
  2
*D4
340
0
  0
BLOCK_RECORD
  5
26553
330
7466
100
AcDbSymbolTableRecord
100
AcDbBlockTableRecord
  2
*D5
340
0
  0
BLOCK_RECORD
  5
2655E
330
7466
100
AcDbSymbolTableRecord
100
AcDbBlockTableRecord
  2
*D6
340
0
  0
BLOCK_RECORD
  5
26568
330
7466
100
AcDbSymbolTableRecord
100
AcDbBlockTableRecord
  2
*D7
340
0
  0
BLOCK_RECORD
  5
26573
330
7466
100
AcDbSymbolTableRecord
100
AcDbBlockTableRecord
  2
*D8
340
0
  0
BLOCK_RECORD
  5
2659F
330
7466
100
AcDbSymbolTableRecord
100
AcDbBlockTableRecord
  2
*D9
340
0
  0
BLOCK_RECORD
  5
265DA
330
7466
100
AcDbSymbolTableRecord
100
AcDbBlockTableRecord
  2
*D10
340
0
  0
BLOCK_RECORD
  5
265F4
330
7466
100
AcDbSymbolTableRecord
100
AcDbBlockTableRecord
  2
*D11
340
0
  0
BLOCK_RECORD
  5
26600
330
7466
100
AcDbSymbolTableRecord
100
AcDbBlockTableRecord
  2
*D12
340
0
  0
BLOCK_RECORD
  5
2660C
330
7466
100
AcDbSymbolTableRecord
100
AcDbBlockTableRecord
  2
*D13
340
0
  0
BLOCK_RECORD
  5
26619
330
7466
100
AcDbSymbolTableRecord
100
AcDbBlockTableRecord
  2
*D14
340
0
  0
BLOCK_RECORD
  5
26624
330
7466
100
AcDbSymbolTableRecord
100
AcDbBlockTableRecord
  2
*D15
340
0
  0
BLOCK_RECORD
  5
26631
330
7466
100
AcDbSymbolTableRecord
100
AcDbBlockTableRecord
  2
*D16
340
0
  0
BLOCK_RECORD
  5
2663E
330
7466
100
AcDbSymbolTableRecord
100
AcDbBlockTableRecord
  2
*D17
340
0
  0
BLOCK_RECORD
  5
26649
330
7466
100
AcDbSymbolTableRecord
100
AcDbBlockTableRecord
  2
*D18
340
0
  0
BLOCK_RECORD
  5
2667B
330
7466
100
AcDbSymbolTableRecord
100
AcDbBlockTableRecord
  2
*D19
340
0
  0
BLOCK_RECORD
  5
26687
330
7466
100
AcDbSymbolTableRecord
100
AcDbBlockTableRecord
  2
*D20
340
0
  0
BLOCK_RECORD
  5
26692
330
7466
100
AcDbSymbolTableRecord
100
AcDbBlockTableRecord
  2
*D21
340
0
  0
BLOCK_RECORD
  5
2669E
330
7466
100
AcDbSymbolTableRecord
100
AcDbBlockTableRecord
  2
*D22
340
0
  0
BLOCK_RECORD
  5
266AB
330
7466
100
AcDbSymbolTableRecord
100
AcDbBlockTableRecord
  2
*D23
340
0
  0
BLOCK_RECORD
  5
266B8
330
7466
100
AcDbSymbolTableRecord
100
AcDbBlockTableRecord
  2
*D24
340
0
  0
BLOCK_RECORD
  5
26F1B
330
7466
100
AcDbSymbolTableRecord
100
AcDbBlockTableRecord
  2
*D25
340
0
  0
BLOCK_RECORD
  5
26F40
330
7466
100
AcDbSymbolTableRecord
100
AcDbBlockTableRecord
  2
*D26
340
0
  0
BLOCK_RECORD
  5
26F65
330
7466
100
AcDbSymbolTableRecord
100
AcDbBlockTableRecord
  2
*D27
340
0
  0
BLOCK_RECORD
  5
26F7F
330
7466
100
AcDbSymbolTableRecord
100
AcDbBlockTableRecord
  2
*D28
340
0
  0
BLOCK_RECORD
  5
27D83
330
7466
100
AcDbSymbolTableRecord
100
AcDbBlockTableRecord
  2
*D29
340
0
  0
BLOCK_RECORD
  5
28578
330
7466
100
AcDbSymbolTableRecord
100
AcDbBlockTableRecord
  2
*D30
340
0
  0
BLOCK_RECORD
  5
28586
330
7466
100
AcDbSymbolTableRecord
100
AcDbBlockTableRecord
  2
*D31
340
0
  0
BLOCK_RECORD
  5
28591
330
7466
100
AcDbSymbolTableRecord
100
AcDbBlockTableRecord
  2
*D32
340
0
  0
BLOCK_RECORD
  5
2859D
330
7466
100
AcDbSymbolTableRecord
100
AcDbBlockTableRecord
  2
*D33
340
0
  0
BLOCK_RECORD
  5
285A9
330
7466
100
AcDbSymbolTableRecord
100
AcDbBlockTableRecord
  2
*D34
340
0
  0
BLOCK_RECORD
  5
285B5
330
7466
100
AcDbSymbolTableRecord
100
AcDbBlockTableRecord
  2
*D35
340
0
  0
ENDTAB
  0
ENDSEC
  0
SECTION
  2
BLOCKS
  0
BLOCK
  5
7489
330
747D
100
AcDbEntity
  8
0
100
AcDbBlockBegin
  2
*MODEL_SPACE
 70
     0
 10
0.0
 20
0.0
 30
0.0
  3
*MODEL_SPACE
  1

  0
ENDBLK
  5
748A
330
747D
100
AcDbEntity
  8
0
100
AcDbBlockEnd
  0
BLOCK
  5
7487
330
747A
100
AcDbEntity
 67
     1
  8
0
100
AcDbBlockBegin
  2
*PAPER_SPACE
 70
     0
 10
0.0
 20
0.0
 30
0.0
  3
*PAPER_SPACE
  1

  0
ENDBLK
  5
7488
330
747A
100
AcDbEntity
 67
     1
  8
0
100
AcDbBlockEnd
  0
BLOCK
  5
F771
330
F770
100
AcDbEntity
  8
0
 48
50.0
100
AcDbBlockBegin
  2
_DOTSMALL
 70
     0
 10
0.0
 20
0.0
 30
0.0
  3
_DOTSMALL
  1

  0
LWPOLYLINE
  5
F772
330
F770
100
AcDbEntity
  8
0
  6
ByBlock
 62
     0
 48
50.0
100
AcDbPolyline
 90
        2
 70
     1
 43
0.5
 10
-0.0625
 20
0.0
 42
1.0
 10
0.0625
 20
0.0
 42
1.0
  0
ENDBLK
  5
F776
330
F770
100
AcDbEntity
  8
0
 48
50.0
100
AcDbBlockEnd
  0
BLOCK
  5
2652C
330
26523
100
AcDbEntity
  8
0
 48
50.0
100
AcDbBlockBegin
  2
*D1
 70
     1
 10
0.0
 20
0.0
 30
0.0
  3
*D1
  1

  0
LINE
  5
289DE
330
26523
100
AcDbEntity
  8
寸法
 62
     0
 48
50.0
370
    -2
100
AcDbLine
 10
10735.6
 20
7924.513207084729
 30
0.0
 11
10735.6
 21
8783.272833626812
 31
0.0
  0
LINE
  5
289DF
330
26523
100
AcDbEntity
  8
寸法
 62
     0
 48
50.0
370
    -2
100
AcDbLine
 10
8105.6
 20
7924.513207084729
 30
0.0
 11
8105.6
 21
8783.272833626812
 31
0.0
  0
LINE
  5
289E0
330
26523
100
AcDbEntity
  8
寸法
 62
     0
 48
50.0
370
    -2
100
AcDbLine
 10
10735.6
 20
8723.272833626813
 30
0.0
 11
8105.6
 21
8723.272833626813
 31
0.0
  0
INSERT
  5
289E1
330
26523
100
AcDbEntity
  8
寸法
 62
     0
 48
50.0
370
    -2
100
AcDbBlockReference
  2
_DOTSMALL
 10
10735.6
 20
8723.272833626813
 30
0.0
 41
100.0
 42
100.0
 43
100.0
  0
INSERT
  5
289E2
330
26523
100
AcDbEntity
  8
寸法
 62
     0
 48
50.0
370
    -2
100
AcDbBlockReference
  2
_DOTSMALL
 10
8105.6
 20
8723.272833626813
 30
0.0
 41
100.0
 42
100.0
 43
100.0
 50
180.0
  0
MTEXT
  5
289E3
330
26523
100
AcDbEntity
  8
寸法
 62
     7
 48
50.0
100
AcDbMText
 10
9420.6
 20
8823.284644650433
 30
0.0
 40
120.0
 41
0.0
 71
     5
 72
     1
  1
\A1;2630
  7
STYLE1
 73
     1
 44
1.0
1001
ACAD
1000
MTEXTBEGIN
1070
    73
1070
     1
1070
    44
1040
1.0
1070
    74
1070
     0
1000
MTEXTEND
  0
POINT
  5
289E4
330
26523
100
AcDbEntity
  8
DEFPOINTS
 62
     0
 48
50.0
100
AcDbPoint
 10
10735.6
 20
7904.51320708473
 30
0.0
  0
POINT
  5
289E5
330
26523
100
AcDbEntity
  8
DEFPOINTS
 62
     0
 48
50.0
100
AcDbPoint
 10
8105.6
 20
7904.51320708473
 30
0.0
  0
POINT
  5
289E6
330
26523
100
AcDbEntity
  8
DEFPOINTS
 62
     0
 48
50.0
100
AcDbPoint
 10
8105.6
 20
8723.272833626813
 30
0.0
  0
ENDBLK
  5
2652D
330
26523
100
AcDbEntity
  8
0
 48
50.0
100
AcDbBlockEnd
  0
BLOCK
  5
26539
330
2652E
100
AcDbEntity
  8
0
 48
50.0
100
AcDbBlockBegin
  2
*D2
 70
     1
 10
0.0
 20
0.0
 30
0.0
  3
*D2
  1

  0
LINE
  5
289D4
330
2652E
100
AcDbEntity
  8
寸法
 62
     0
 48
50.0
370
    -2
100
AcDbLine
 10
8762.599867447319
 20
5877.513207084741
 30
0.0
 11
8610.14438614211
 21
5877.513207084741
 31
0.0
  0
LINE
  5
289D5
330
2652E
100
AcDbEntity
  8
寸法
 62
     0
 48
50.0
370
    -2
100
AcDbLine
 10
8255.600000000001
 20
5987.513207084748
 30
0.0
 11
8730.144386142111
 21
5987.513207084748
 31
0.0
  0
LINE
  5
289D6
330
2652E
100
AcDbEntity
  8
寸法
 62
     0
 48
50.0
370
    -2
100
AcDbLine
 10
8670.14438614211
 20
5877.513207084741
 30
0.0
 11
8670.14438614211
 21
5987.513207084748
 31
0.0
  0
LINE
  5
289D7
330
2652E
100
AcDbEntity
  8
寸法
 62
     0
 48
50.0
370
    -2
100
AcDbLine
 10
8670.14438614211
 20
5987.513207084748
 30
0.0
 11
8670.14438614211
 21
6381.619506297358
 31
0.0
  0
INSERT
  5
289D8
330
2652E
100
AcDbEntity
  8
寸法
 62
     0
 48
50.0
370
    -2
100
AcDbBlockReference
  2
_DOTSMALL
 10
8670.14438614211
 20
5877.513207084741
 30
0.0
 41
100.0
 42
100.0
 43
100.0
 50
270.0
  0
INSERT
  5
289D9
330
2652E
100
AcDbEntity
  8
寸法
 62
     0
 48
50.0
370
    -2
100
AcDbBlockReference
  2
_DOTSMALL
 10
8670.14438614211
 20
5987.513207084748
 30
0.0
 41
100.0
 42
100.0
 43
100.0
 50
90.0
  0
MTEXT
  5
289DA
330
2652E
100
AcDbEntity
  8
寸法
 62
     7
 48
50.0
100
AcDbMText
 10
8570.144386142109
 20
6257.57226220287
 30
0.0
 40
120.0
 41
0.0
 71
     5
 72
     1
  1
\A1;110
  7
STYLE1
 11
0.0000000000000001
 21
1.0
 31
0.0
 73
     1
 44
1.0
1001
ACAD
1000
MTEXTBEGIN
1070
    73
1070
     1
1070
    44
1040
1.0
1070
    74
1070
     0
1000
MTEXTEND
  0
POINT
  5
289DB
330
2652E
100
AcDbEntity
  8
DEFPOINTS
 62
     0
 48
50.0
100
AcDbPoint
 10
8782.599867447318
 20
5877.513207084741
 30
0.0
  0
POINT
  5
289DC
330
2652E
100
AcDbEntity
  8
DEFPOINTS
 62
     0
 48
50.0
100
AcDbPoint
 10
8235.600000000001
 20
5987.513207084748
 30
0.0
  0
POINT
  5
289DD
330
2652E
100
AcDbEntity
  8
DEFPOINTS
 62
     0
 48
50.0
100
AcDbPoint
 10
8670.14438614211
 20
5987.513207084748
 30
0.0
  0
ENDBLK
  5
2653A
330
2652E
100
AcDbEntity
  8
0
 48
50.0
100
AcDbBlockEnd
  0
BLOCK
  5
26546
330
2653B
100
AcDbEntity
  8
0
 48
50.0
100
AcDbBlockBegin
  2
*D3
 70
     1
 10
0.0
 20
0.0
 30
0.0
  3
*D3
  1

  0
LINE
  5
289CA
330
2653B
100
AcDbEntity
  8
寸法
 62
     0
 48
50.0
370
    -2
100
AcDbLine
 10
8327.41918098816
 20
5757.513207084755
 30
0.0
 11
8730.144386142111
 21
5757.513207084755
 31
0.0
  0
LINE
  5
289CB
330
2653B
100
AcDbEntity
  8
寸法
 62
     0
 48
50.0
370
    -2
100
AcDbLine
 10
8762.599867447319
 20
5877.513207084741
 30
0.0
 11
8610.14438614211
 21
5877.513207084741
 31
0.0
  0
LINE
  5
289CC
330
2653B
100
AcDbEntity
  8
寸法
 62
     0
 48
50.0
370
    -2
100
AcDbLine
 10
8670.14438614211
 20
5877.513207084741
 30
0.0
 11
8670.14438614211
 21
5757.513207084755
 31
0.0
  0
LINE
  5
289CD
330
2653B
100
AcDbEntity
  8
寸法
 62
     0
 48
50.0
370
    -2
100
AcDbLine
 10
8670.14438614211
 20
5757.513207084755
 30
0.0
 11
8670.14438614211
 21
5285.177658022299
 31
0.0
  0
INSERT
  5
289CE
330
2653B
100
AcDbEntity
  8
寸法
 62
     0
 48
50.0
370
    -2
100
AcDbBlockReference
  2
_DOTSMALL
 10
8670.14438614211
 20
5877.513207084741
 30
0.0
 41
100.0
 42
100.0
 43
100.0
 50
90.0
  0
INSERT
  5
289CF
330
2653B
100
AcDbEntity
  8
寸法
 62
     0
 48
50.0
370
    -2
100
AcDbBlockReference
  2
_DOTSMALL
 10
8670.14438614211
 20
5757.513207084755
 30
0.0
 41
100.0
 42
100.0
 43
100.0
 50
270.0
  0
MTEXT
  5
289D0
330
2653B
100
AcDbEntity
  8
寸法
 62
     7
 48
50.0
100
AcDbMText
 10
8570.132575118487
 20
5421.224902116788
 30
0.0
 40
120.0
 41
0.0
 71
     5
 72
     1
  1
\A1;120
  7
STYLE1
 11
0.0000000000000001
 21
1.0
 31
0.0
 73
     1
 44
1.0
1001
ACAD
1000
MTEXTBEGIN
1070
    73
1070
     1
1070
    44
1040
1.0
1070
    74
1070
     0
1000
MTEXTEND
  0
POINT
  5
289D1
330
2653B
100
AcDbEntity
  8
DEFPOINTS
 62
     0
 48
50.0
100
AcDbPoint
 10
8307.41918098816
 20
5757.513207084755
 30
0.0
  0
POINT
  5
289D2
330
2653B
100
AcDbEntity
  8
DEFPOINTS
 62
     0
 48
50.0
100
AcDbPoint
 10
8782.599867447318
 20
5877.513207084741
 30
0.0
  0
POINT
  5
289D3
330
2653B
100
AcDbEntity
  8
DEFPOINTS
 62
     0
 48
50.0
100
AcDbPoint
 10
8670.14438614211
 20
5877.513207084741
 30
0.0
  0
ENDBLK
  5
26547
330
2653B
100
AcDbEntity
  8
0
 48
50.0
100
AcDbBlockEnd
  0
BLOCK
  5
26551
330
26548
100
AcDbEntity
  8
0
 48
50.0
100
AcDbBlockBegin
  2
*D4
 70
     1
 10
0.0
 20
0.0
 30
0.0
  3
*D4
  1

  0
LINE
  5
289C1
330
26548
100
AcDbEntity
  8
寸法
 62
     0
 48
50.0
370
    -2
100
AcDbLine
 10
9123.600000000001
 20
7462.513207084727
 30
0.0
 11
9123.600000000001
 21
8564.422972733058
 31
0.0
  0
LINE
  5
289C2
330
26548
100
AcDbEntity
  8
寸法
 62
     0
 48
50.0
370
    -2
100
AcDbLine
 10
8223.600000000001
 20
6987.51320708473
 30
0.0
 11
8223.600000000001
 21
8564.422972733058
 31
0.0
  0
LINE
  5
289C3
330
26548
100
AcDbEntity
  8
寸法
 62
     0
 48
50.0
370
    -2
100
AcDbLine
 10
9123.600000000001
 20
8504.422972733058
 30
0.0
 11
8223.600000000001
 21
8504.422972733058
 31
0.0
  0
INSERT
  5
289C4
330
26548
100
AcDbEntity
  8
寸法
 62
     0
 48
50.0
370
    -2
100
AcDbBlockReference
  2
_DOTSMALL
 10
9123.600000000001
 20
8504.422972733058
 30
0.0
 41
100.0
 42
100.0
 43
100.0
  0
INSERT
  5
289C5
330
26548
100
AcDbEntity
  8
寸法
 62
     0
 48
50.0
370
    -2
100
AcDbBlockReference
  2
_DOTSMALL
 10
8223.600000000001
 20
8504.422972733058
 30
0.0
 41
100.0
 42
100.0
 43
100.0
 50
180.0
  0
MTEXT
  5
289C6
330
26548
100
AcDbEntity
  8
寸法
 62
     7
 48
50.0
100
AcDbMText
 10
8673.6
 20
8604.422972733059
 30
0.0
 40
120.0
 41
0.0
 71
     5
 72
     1
  1
\A1;900
  7
STYLE1
 73
     1
 44
1.0
1001
ACAD
1000
MTEXTBEGIN
1070
    73
1070
     1
1070
    44
1040
1.0
1070
    74
1070
     0
1000
MTEXTEND
  0
POINT
  5
289C7
330
26548
100
AcDbEntity
  8
DEFPOINTS
 62
     0
 48
50.0
100
AcDbPoint
 10
9123.600000000001
 20
7442.513207084728
 30
0.0
  0
POINT
  5
289C8
330
26548
100
AcDbEntity
  8
DEFPOINTS
 62
     0
 48
50.0
100
AcDbPoint
 10
8223.600000000001
 20
6967.513207084731
 30
0.0
  0
POINT
  5
289C9
330
26548
100
AcDbEntity
  8
DEFPOINTS
 62
     0
 48
50.0
100
AcDbPoint
 10
8223.600000000001
 20
8504.422972733058
 30
0.0
  0
ENDBLK
  5
26552
330
26548
100
AcDbEntity
  8
0
 48
50.0
100
AcDbBlockEnd
  0
BLOCK
  5
2655C
330
26553
100
AcDbEntity
  8
0
 48
50.0
100
AcDbBlockBegin
  2
*D5
 70
     1
 10
0.0
 20
0.0
 30
0.0
  3
*D5
  1

  0
LINE
  5
289B8
330
26553
100
AcDbEntity
  8
寸法
 62
     0
 48
50.0
370
    -2
100
AcDbLine
 10
5588.6
 20
7997.513207084729
 30
0.0
 11
5588.6
 21
8995.733529143647
 31
0.0
  0
LINE
  5
289B9
330
26553
100
AcDbEntity
  8
寸法
 62
     0
 48
50.0
370
    -2
100
AcDbLine
 10
10858.6
 20
7997.513207084729
 30
0.0
 11
10858.6
 21
8995.733529143647
 31
0.0
  0
LINE
  5
289BA
330
26553
100
AcDbEntity
  8
寸法
 62
     0
 48
50.0
370
    -2
100
AcDbLine
 10
5588.6
 20
8935.733529143647
 30
0.0
 11
10858.6
 21
8935.733529143647
 31
0.0
  0
INSERT
  5
289BB
330
26553
100
AcDbEntity
  8
寸法
 62
     0
 48
50.0
370
    -2
100
AcDbBlockReference
  2
_DOTSMALL
 10
5588.6
 20
8935.733529143647
 30
0.0
 41
100.0
 42
100.0
 43
100.0
 50
180.0
  0
INSERT
  5
289BC
330
26553
100
AcDbEntity
  8
寸法
 62
     0
 48
50.0
370
    -2
100
AcDbBlockReference
  2
_DOTSMALL
 10
10858.6
 20
8935.733529143647
 30
0.0
 41
100.0
 42
100.0
 43
100.0
  0
MTEXT
  5
289BD
330
26553
100
AcDbEntity
  8
寸法
 62
     7
 48
50.0
100
AcDbMText
 10
8223.600000000001
 20
9035.745340167268
 30
0.0
 40
120.0
 41
0.0
 71
     5
 72
     1
  1
\A1;5270
  7
STYLE1
 73
     1
 44
1.0
1001
ACAD
1000
MTEXTBEGIN
1070
    73
1070
     1
1070
    44
1040
1.0
1070
    74
1070
     0
1000
MTEXTEND
  0
POINT
  5
289BE
330
26553
100
AcDbEntity
  8
DEFPOINTS
 62
     0
 48
50.0
100
AcDbPoint
 10
5588.6
 20
7977.513207084729
 30
0.0
  0
POINT
  5
289BF
330
26553
100
AcDbEntity
  8
DEFPOINTS
 62
     0
 48
50.0
100
AcDbPoint
 10
10858.6
 20
7977.513207084729
 30
0.0
  0
POINT
  5
289C0
330
26553
100
AcDbEntity
  8
DEFPOINTS
 62
     0
 48
50.0
100
AcDbPoint
 10
10858.6
 20
8935.733529143647
 30
0.0
  0
ENDBLK
  5
2655D
330
26553
100
AcDbEntity
  8
0
 48
50.0
100
AcDbBlockEnd
  0
BLOCK
  5
26566
330
2655E
100
AcDbEntity
  8
0
 48
50.0
100
AcDbBlockBegin
  2
*D6
 70
     1
 10
0.0
 20
0.0
 30
0.0
  3
*D6
  1

  0
LINE
  5
289AD
330
2655E
100
AcDbEntity
  8
寸法
 62
     0
 48
50.0
370
    -2
100
AcDbLine
 10
8235.600000000001
 20
6007.513207084747
 30
0.0
 11
8235.600000000001
 21
6360.670745911884
 31
0.0
  0
LINE
  5
289AE
330
2655E
100
AcDbEntity
  8
寸法
 62
     0
 48
50.0
370
    -2
100
AcDbLine
 10
7975.6
 20
6007.513207084747
 30
0.0
 11
7975.6
 21
6360.670745911884
 31
0.0
  0
LINE
  5
289AF
330
2655E
100
AcDbEntity
  8
寸法
 62
     0
 48
50.0
370
    -2
100
AcDbLine
 10
8235.600000000001
 20
6300.670745911883
 30
0.0
 11
8335.600000000001
 21
6300.670745911883
 31
0.0
  0
LINE
  5
289B0
330
2655E
100
AcDbEntity
  8
寸法
 62
     0
 48
50.0
370
    -2
100
AcDbLine
 10
7975.6
 20
6300.670745911883
 30
0.0
 11
7875.6
 21
6300.670745911883
 31
0.0
  0
LINE
  5
289B1
330
2655E
100
AcDbEntity
  8
寸法
 62
     0
 48
50.0
370
    -2
100
AcDbLine
 10
8235.600000000001
 20
6300.670745911883
 30
0.0
 11
7975.6
 21
6300.670745911883
 31
0.0
  0
INSERT
  5
289B2
330
2655E
100
AcDbEntity
  8
寸法
 62
     0
 48
50.0
370
    -2
100
AcDbBlockReference
  2
_DOTSMALL
 10
8235.600000000001
 20
6300.670745911883
 30
0.0
 41
100.0
 42
100.0
 43
100.0
 50
180.0
  0
INSERT
  5
289B3
330
2655E
100
AcDbEntity
  8
寸法
 62
     0
 48
50.0
370
    -2
100
AcDbBlockReference
  2
_DOTSMALL
 10
7975.6
 20
6300.670745911883
 30
0.0
 41
100.0
 42
100.0
 43
100.0
  0
MTEXT
  5
289B4
330
2655E
100
AcDbEntity
  8
寸法
 62
     7
 48
50.0
100
AcDbMText
 10
8105.6
 20
6400.682556935506
 30
0.0
 40
120.0
 41
0.0
 71
     5
 72
     1
  1
\A1;260
  7
STYLE1
 73
     1
 44
1.0
1001
ACAD
1000
MTEXTBEGIN
1070
    73
1070
     1
1070
    44
1040
1.0
1070
    74
1070
     0
1000
MTEXTEND
  0
POINT
  5
289B5
330
2655E
100
AcDbEntity
  8
DEFPOINTS
 62
     0
 48
50.0
100
AcDbPoint
 10
8235.600000000001
 20
5987.513207084748
 30
0.0
  0
POINT
  5
289B6
330
2655E
100
AcDbEntity
  8
DEFPOINTS
 62
     0
 48
50.0
100
AcDbPoint
 10
7975.6
 20
5987.513207084748
 30
0.0
  0
POINT
  5
289B7
330
2655E
100
AcDbEntity
  8
DEFPOINTS
 62
     0
 48
50.0
100
AcDbPoint
 10
7975.6
 20
6300.670745911883
 30
0.0
  0
ENDBLK
  5
26567
330
2655E
100
AcDbEntity
  8
0
 48
50.0
100
AcDbBlockEnd
  0
BLOCK
  5
26571
330
26568
100
AcDbEntity
  8
0
 48
50.0
100
AcDbBlockBegin
  2
*D7
 70
     1
 10
0.0
 20
0.0
 30
0.0
  3
*D7
  1

  0
LINE
  5
289A4
330
26568
100
AcDbEntity
  8
寸法
 62
     0
 48
50.0
370
    -2
100
AcDbLine
 10
5568.6
 20
7977.513207084729
 30
0.0
 11
4780.714637266783
 21
7977.513207084729
 31
0.0
  0
LINE
  5
289A5
330
26568
100
AcDbEntity
  8
寸法
 62
     0
 48
50.0
370
    -2
100
AcDbLine
 10
5568.6
 20
5757.51320708473
 30
0.0
 11
4780.714637266782
 21
5757.51320708473
 31
0.0
  0
LINE
  5
289A6
330
26568
100
AcDbEntity
  8
寸法
 62
     0
 48
50.0
370
    -2
100
AcDbLine
 10
4840.714637266783
 20
7977.513207084729
 30
0.0
 11
4840.714637266782
 21
5757.51320708473
 31
0.0
  0
INSERT
  5
289A7
330
26568
100
AcDbEntity
  8
寸法
 62
     0
 48
50.0
370
    -2
100
AcDbBlockReference
  2
_DOTSMALL
 10
4840.714637266783
 20
7977.513207084729
 30
0.0
 41
100.0
 42
100.0
 43
100.0
 50
90.0
  0
INSERT
  5
289A8
330
26568
100
AcDbEntity
  8
寸法
 62
     0
 48
50.0
370
    -2
100
AcDbBlockReference
  2
_DOTSMALL
 10
4840.714637266782
 20
5757.51320708473
 30
0.0
 41
100.0
 42
100.0
 43
100.0
 50
270.0
  0
MTEXT
  5
289A9
330
26568
100
AcDbEntity
  8
寸法
 62
     7
 48
50.0
100
AcDbMText
 10
4740.702826243159
 20
6867.513207084728
 30
0.0
 40
120.0
 41
0.0
 71
     5
 72
     1
  1
\A1;2220
  7
STYLE1
 11
0.0000000000000001
 21
1.0
 31
0.0
 73
     1
 44
1.0
1001
ACAD
1000
MTEXTBEGIN
1070
    73
1070
     1
1070
    44
1040
1.0
1070
    74
1070
     0
1000
MTEXTEND
  0
POINT
  5
289AA
330
26568
100
AcDbEntity
  8
DEFPOINTS
 62
     0
 48
50.0
100
AcDbPoint
 10
5588.6
 20
7977.513207084729
 30
0.0
  0
POINT
  5
289AB
330
26568
100
AcDbEntity
  8
DEFPOINTS
 62
     0
 48
50.0
100
AcDbPoint
 10
5588.6
 20
5757.51320708473
 30
0.0
  0
POINT
  5
289AC
330
26568
100
AcDbEntity
  8
DEFPOINTS
 62
     0
 48
50.0
100
AcDbPoint
 10
4840.714637266782
 20
5757.51320708473
 30
0.0
  0
ENDBLK
  5
26572
330
26568
100
AcDbEntity
  8
0
 48
50.0
100
AcDbBlockEnd
  0
BLOCK
  5
2657D
330
26573
100
AcDbEntity
  8
0
 48
50.0
100
AcDbBlockBegin
  2
*D8
 70
     1
 10
0.0
 20
0.0
 30
0.0
  3
*D8
  1

  0
LINE
  5
2899B
330
26573
100
AcDbEntity
  8
寸法
 62
     0
 48
50.0
370
    -2
100
AcDbLine
 10
5641.6
 20
7854.513207084727
 30
0.0
 11
5032.657733986181
 21
7854.513207084727
 31
0.0
  0
LINE
  5
2899C
330
26573
100
AcDbEntity
  8
寸法
 62
     0
 48
50.0
370
    -2
100
AcDbLine
 10
5641.600000000007
 20
5880.513207084732
 30
0.0
 11
5032.65773398618
 21
5880.513207084732
 31
0.0
  0
LINE
  5
2899D
330
26573
100
AcDbEntity
  8
寸法
 62
     0
 48
50.0
370
    -2
100
AcDbLine
 10
5092.657733986182
 20
7854.513207084727
 30
0.0
 11
5092.657733986181
 21
5880.513207084732
 31
0.0
  0
INSERT
  5
2899E
330
26573
100
AcDbEntity
  8
寸法
 62
     0
 48
50.0
370
    -2
100
AcDbBlockReference
  2
_DOTSMALL
 10
5092.657733986182
 20
7854.513207084727
 30
0.0
 41
100.0
 42
100.0
 43
100.0
 50
90.0
  0
INSERT
  5
2899F
330
26573
100
AcDbEntity
  8
寸法
 62
     0
 48
50.0
370
    -2
100
AcDbBlockReference
  2
_DOTSMALL
 10
5092.657733986181
 20
5880.513207084732
 30
0.0
 41
100.0
 42
100.0
 43
100.0
 50
270.0
  0
MTEXT
  5
289A0
330
26573
100
AcDbEntity
  8
寸法
 62
     7
 48
50.0
100
AcDbMText
 10
4992.65773398618
 20
6867.513207084731
 30
0.0
 40
120.0
 41
0.0
 71
     5
 72
     1
  1
\A1;1974
  7
STYLE1
 11
0.0000000000000001
 21
1.0
 31
0.0
 73
     1
 44
1.0
1001
ACAD
1000
MTEXTBEGIN
1070
    73
1070
     1
1070
    44
1040
1.0
1070
    74
1070
     0
1000
MTEXTEND
  0
POINT
  5
289A1
330
26573
100
AcDbEntity
  8
DEFPOINTS
 62
     0
 48
50.0
100
AcDbPoint
 10
5661.6
 20
7854.513207084727
 30
0.0
  0
POINT
  5
289A2
330
26573
100
AcDbEntity
  8
DEFPOINTS
 62
     0
 48
50.0
100
AcDbPoint
 10
5661.600000000007
 20
5880.513207084732
 30
0.0
  0
POINT
  5
289A3
330
26573
100
AcDbEntity
  8
DEFPOINTS
 62
     0
 48
50.0
100
AcDbPoint
 10
5092.657733986181
 20
5880.513207084732
 30
0.0
  0
ENDBLK
  5
2657E
330
26573
100
AcDbEntity
  8
0
 48
50.0
100
AcDbBlockEnd
  0
BLOCK
  5
265AA
330
2659F
100
AcDbEntity
  8
0
 48
50.0
100
AcDbBlockBegin
  2
*D9
 70
     1
 10
0.0
 20
0.0
 30
0.0
  3
*D9
  1

  0
LINE
  5
28991
330
2659F
100
AcDbEntity
  8
寸法
 62
     0
 48
50.0
370
    -2
100
AcDbLine
 10
5641.600000000007
 20
5880.513207084732
 30
0.0
 11
5032.657733986178
 21
5880.513207084732
 31
0.0
  0
LINE
  5
28992
330
2659F
100
AcDbEntity
  8
寸法
 62
     0
 48
50.0
370
    -2
100
AcDbLine
 10
5568.6
 20
5757.51320708473
 30
0.0
 11
5032.657733986178
 21
5757.51320708473
 31
0.0
  0
LINE
  5
28993
330
2659F
100
AcDbEntity
  8
寸法
 62
     0
 48
50.0
370
    -2
100
AcDbLine
 10
5092.657733986179
 20
5880.513207084732
 30
0.0
 11
5092.657733986179
 21
5757.51320708473
 31
0.0
  0
LINE
  5
28994
330
2659F
100
AcDbEntity
  8
寸法
 62
     0
 48
50.0
370
    -2
100
AcDbLine
 10
5092.657733986179
 20
5757.51320708473
 30
0.0
 11
5092.657733986179
 21
5283.496976867897
 31
0.0
  0
INSERT
  5
28995
330
2659F
100
AcDbEntity
  8
寸法
 62
     0
 48
50.0
370
    -2
100
AcDbBlockReference
  2
_DOTSMALL
 10
5092.657733986179
 20
5880.513207084732
 30
0.0
 41
100.0
 42
100.0
 43
100.0
 50
90.0
  0
INSERT
  5
28996
330
2659F
100
AcDbEntity
  8
寸法
 62
     0
 48
50.0
370
    -2
100
AcDbBlockReference
  2
_DOTSMALL
 10
5092.657733986179
 20
5757.51320708473
 30
0.0
 41
100.0
 42
100.0
 43
100.0
 50
270.0
  0
MTEXT
  5
28997
330
2659F
100
AcDbEntity
  8
寸法
 62
     7
 48
50.0
100
AcDbMText
 10
4992.645922962556
 20
5421.982258242136
 30
0.0
 40
120.0
 41
0.0
 71
     5
 72
     1
  1
\A1;123
  7
STYLE1
 11
0.0000000000000001
 21
1.0
 31
0.0
 73
     1
 44
1.0
1001
ACAD
1000
MTEXTBEGIN
1070
    73
1070
     1
1070
    44
1040
1.0
1070
    74
1070
     0
1000
MTEXTEND
  0
POINT
  5
28998
330
2659F
100
AcDbEntity
  8
DEFPOINTS
 62
     0
 48
50.0
100
AcDbPoint
 10
5661.600000000007
 20
5880.513207084732
 30
0.0
  0
POINT
  5
28999
330
2659F
100
AcDbEntity
  8
DEFPOINTS
 62
     0
 48
50.0
100
AcDbPoint
 10
5588.6
 20
5757.51320708473
 30
0.0
  0
POINT
  5
2899A
330
2659F
100
AcDbEntity
  8
DEFPOINTS
 62
     0
 48
50.0
100
AcDbPoint
 10
5092.657733986179
 20
5757.51320708473
 30
0.0
  0
ENDBLK
  5
265AB
330
2659F
100
AcDbEntity
  8
0
 48
50.0
100
AcDbBlockEnd
  0
BLOCK
  5
265E5
330
265DA
100
AcDbEntity
  8
0
 48
50.0
100
AcDbBlockBegin
  2
*D10
 70
     1
 10
0.0
 20
0.0
 30
0.0
  3
*D10
  1

  0
LINE
  5
2897E
330
265DA
100
AcDbEntity
  8
寸法
 62
     0
 48
50.0
370
    -2
100
AcDbLine
 10
5568.6
 20
7977.513207084729
 30
0.0
 11
5032.657733986178
 21
7977.513207084729
 31
0.0
  0
LINE
  5
2897F
330
265DA
100
AcDbEntity
  8
寸法
 62
     0
 48
50.0
370
    -2
100
AcDbLine
 10
5641.6
 20
7854.513207084727
 30
0.0
 11
5032.657733986178
 21
7854.513207084727
 31
0.0
  0
LINE
  5
28980
330
265DA
100
AcDbEntity
  8
寸法
 62
     0
 48
50.0
370
    -2
100
AcDbLine
 10
5092.657733986179
 20
7854.513207084727
 30
0.0
 11
5092.657733986179
 21
7977.513207084729
 31
0.0
  0
LINE
  5
28981
330
265DA
100
AcDbEntity
  8
寸法
 62
     0
 48
50.0
370
    -2
100
AcDbLine
 10
5092.657733986179
 20
7977.513207084729
 30
0.0
 11
5092.657733986179
 21
8389.105090176766
 31
0.0
  0
INSERT
  5
28982
330
265DA
100
AcDbEntity
  8
寸法
 62
     0
 48
50.0
370
    -2
100
AcDbBlockReference
  2
_DOTSMALL
 10
5092.657733986179
 20
7854.513207084727
 30
0.0
 41
100.0
 42
100.0
 43
100.0
 50
270.0
  0
INSERT
  5
28983
330
265DA
100
AcDbEntity
  8
寸法
 62
     0
 48
50.0
370
    -2
100
AcDbBlockReference
  2
_DOTSMALL
 10
5092.657733986179
 20
7977.513207084729
 30
0.0
 41
100.0
 42
100.0
 43
100.0
 50
90.0
  0
MTEXT
  5
28984
330
265DA
100
AcDbEntity
  8
寸法
 62
     7
 48
50.0
100
AcDbMText
 10
4992.645922962556
 20
8250.619808802529
 30
0.0
 40
120.0
 41
0.0
 71
     5
 72
     1
  1
\A1;123
  7
STYLE1
 11
0.0000000000000001
 21
1.0
 31
0.0
 73
     1
 44
1.0
1001
ACAD
1000
MTEXTBEGIN
1070
    73
1070
     1
1070
    44
1040
1.0
1070
    74
1070
     0
1000
MTEXTEND
  0
POINT
  5
28985
330
265DA
100
AcDbEntity
  8
DEFPOINTS
 62
     0
 48
50.0
100
AcDbPoint
 10
5588.6
 20
7977.513207084729
 30
0.0
  0
POINT
  5
28986
330
265DA
100
AcDbEntity
  8
DEFPOINTS
 62
     0
 48
50.0
100
AcDbPoint
 10
5661.6
 20
7854.513207084727
 30
0.0
  0
POINT
  5
28987
330
265DA
100
AcDbEntity
  8
DEFPOINTS
 62
     0
 48
50.0
100
AcDbPoint
 10
5092.657733986179
 20
7854.513207084727
 30
0.0
  0
ENDBLK
  5
265E6
330
265DA
100
AcDbEntity
  8
0
 48
50.0
100
AcDbBlockEnd
  0
BLOCK
  5
265FE
330
265F4
100
AcDbEntity
  8
0
 48
50.0
100
AcDbBlockBegin
  2
*D11
 70
     1
 10
0.0
 20
0.0
 30
0.0
  3
*D11
  1

  0
LINE
  5
28975
330
265F4
100
AcDbEntity
  8
寸法
 62
     0
 48
50.0
370
    -2
100
AcDbLine
 10
7323.6
 20
7462.513207084727
 30
0.0
 11
7323.6
 21
8564.422972733058
 31
0.0
  0
LINE
  5
28976
330
265F4
100
AcDbEntity
  8
寸法
 62
     0
 48
50.0
370
    -2
100
AcDbLine
 10
6493.6
 20
7462.513207084727
 30
0.0
 11
6493.6
 21
8564.422972733058
 31
0.0
  0
LINE
  5
28977
330
265F4
100
AcDbEntity
  8
寸法
 62
     0
 48
50.0
370
    -2
100
AcDbLine
 10
7323.6
 20
8504.422972733058
 30
0.0
 11
6493.6
 21
8504.422972733058
 31
0.0
  0
INSERT
  5
28978
330
265F4
100
AcDbEntity
  8
寸法
 62
     0
 48
50.0
370
    -2
100
AcDbBlockReference
  2
_DOTSMALL
 10
7323.6
 20
8504.422972733058
 30
0.0
 41
100.0
 42
100.0
 43
100.0
  0
INSERT
  5
28979
330
265F4
100
AcDbEntity
  8
寸法
 62
     0
 48
50.0
370
    -2
100
AcDbBlockReference
  2
_DOTSMALL
 10
6493.6
 20
8504.422972733058
 30
0.0
 41
100.0
 42
100.0
 43
100.0
 50
180.0
  0
MTEXT
  5
2897A
330
265F4
100
AcDbEntity
  8
寸法
 62
     7
 48
50.0
100
AcDbMText
 10
6908.599999999999
 20
8604.422972733059
 30
0.0
 40
120.0
 41
0.0
 71
     5
 72
     1
  1
\A1;830
  7
STYLE1
 73
     1
 44
1.0
1001
ACAD
1000
MTEXTBEGIN
1070
    73
1070
     1
1070
    44
1040
1.0
1070
    74
1070
     0
1000
MTEXTEND
  0
POINT
  5
2897B
330
265F4
100
AcDbEntity
  8
DEFPOINTS
 62
     0
 48
50.0
100
AcDbPoint
 10
7323.6
 20
7442.513207084728
 30
0.0
  0
POINT
  5
2897C
330
265F4
100
AcDbEntity
  8
DEFPOINTS
 62
     0
 48
50.0
100
AcDbPoint
 10
6493.6
 20
7442.513207084728
 30
0.0
  0
POINT
  5
2897D
330
265F4
100
AcDbEntity
  8
DEFPOINTS
 62
     0
 48
50.0
100
AcDbPoint
 10
6493.6
 20
8504.422972733058
 30
0.0
  0
ENDBLK
  5
265FF
330
265F4
100
AcDbEntity
  8
0
 48
50.0
100
AcDbBlockEnd
  0
BLOCK
  5
2660A
330
26600
100
AcDbEntity
  8
0
 48
50.0
100
AcDbBlockBegin
  2
*D12
 70
     1
 10
0.0
 20
0.0
 30
0.0
  3
*D12
  1

  0
LINE
  5
2896C
330
26600
100
AcDbEntity
  8
寸法
 62
     0
 48
50.0
370
    -2
100
AcDbLine
 10
8105.6
 20
7924.513207084729
 30
0.0
 11
8105.6
 21
8783.272833626812
 31
0.0
  0
LINE
  5
2896D
330
26600
100
AcDbEntity
  8
寸法
 62
     0
 48
50.0
370
    -2
100
AcDbLine
 10
5711.6
 20
7924.513207084729
 30
0.0
 11
5711.6
 21
8783.272833626812
 31
0.0
  0
LINE
  5
2896E
330
26600
100
AcDbEntity
  8
寸法
 62
     0
 48
50.0
370
    -2
100
AcDbLine
 10
8105.6
 20
8723.272833626813
 30
0.0
 11
5711.6
 21
8723.272833626813
 31
0.0
  0
INSERT
  5
2896F
330
26600
100
AcDbEntity
  8
寸法
 62
     0
 48
50.0
370
    -2
100
AcDbBlockReference
  2
_DOTSMALL
 10
8105.6
 20
8723.272833626813
 30
0.0
 41
100.0
 42
100.0
 43
100.0
  0
INSERT
  5
28970
330
26600
100
AcDbEntity
  8
寸法
 62
     0
 48
50.0
370
    -2
100
AcDbBlockReference
  2
_DOTSMALL
 10
5711.6
 20
8723.272833626813
 30
0.0
 41
100.0
 42
100.0
 43
100.0
 50
180.0
  0
MTEXT
  5
28971
330
26600
100
AcDbEntity
  8
寸法
 62
     7
 48
50.0
100
AcDbMText
 10
6908.599999999999
 20
8823.284644650433
 30
0.0
 40
120.0
 41
0.0
 71
     5
 72
     1
  1
\A1;2394
  7
STYLE1
 73
     1
 44
1.0
1001
ACAD
1000
MTEXTBEGIN
1070
    73
1070
     1
1070
    44
1040
1.0
1070
    74
1070
     0
1000
MTEXTEND
  0
POINT
  5
28972
330
26600
100
AcDbEntity
  8
DEFPOINTS
 62
     0
 48
50.0
100
AcDbPoint
 10
8105.6
 20
7904.51320708473
 30
0.0
  0
POINT
  5
28973
330
26600
100
AcDbEntity
  8
DEFPOINTS
 62
     0
 48
50.0
100
AcDbPoint
 10
5711.6
 20
7904.51320708473
 30
0.0
  0
POINT
  5
28974
330
26600
100
AcDbEntity
  8
DEFPOINTS
 62
     0
 48
50.0
100
AcDbPoint
 10
5711.6
 20
8723.272833626813
 30
0.0
  0
ENDBLK
  5
2660B
330
26600
100
AcDbEntity
  8
0
 48
50.0
100
AcDbBlockEnd
  0
BLOCK
  5
26617
330
2660C
100
AcDbEntity
  8
0
 48
50.0
100
AcDbBlockBegin
  2
*D13
 70
     1
 10
0.0
 20
0.0
 30
0.0
  3
*D13
  1

  0
LINE
  5
28962
330
2660C
100
AcDbEntity
  8
寸法
 62
     0
 48
50.0
370
    -2
100
AcDbLine
 10
5840.349773270519
 20
7857.513207084728
 30
0.0
 11
6095.307249876099
 21
7857.513207084728
 31
0.0
  0
LINE
  5
28963
330
2660C
100
AcDbEntity
  8
寸法
 62
     0
 48
50.0
370
    -2
100
AcDbLine
 10
5838.600000000003
 20
7977.513207084726
 30
0.0
 11
6095.307249876099
 21
7977.513207084726
 31
0.0
  0
LINE
  5
28964
330
2660C
100
AcDbEntity
  8
寸法
 62
     0
 48
50.0
370
    -2
100
AcDbLine
 10
6035.307249876098
 20
7857.513207084728
 30
0.0
 11
6035.307249876098
 21
7977.513207084726
 31
0.0
  0
LINE
  5
28965
330
2660C
100
AcDbEntity
  8
寸法
 62
     0
 48
50.0
370
    -2
100
AcDbLine
 10
6035.307249876098
 20
7977.513207084726
 30
0.0
 11
6035.307249876098
 21
8391.643994452101
 31
0.0
  0
INSERT
  5
28966
330
2660C
100
AcDbEntity
  8
寸法
 62
     0
 48
50.0
370
    -2
100
AcDbBlockReference
  2
_DOTSMALL
 10
6035.307249876098
 20
7857.513207084728
 30
0.0
 41
100.0
 42
100.0
 43
100.0
 50
270.0
  0
INSERT
  5
28967
330
2660C
100
AcDbEntity
  8
寸法
 62
     0
 48
50.0
370
    -2
100
AcDbBlockReference
  2
_DOTSMALL
 10
6035.307249876098
 20
7977.513207084726
 30
0.0
 41
100.0
 42
100.0
 43
100.0
 50
90.0
  0
MTEXT
  5
28968
330
2660C
100
AcDbEntity
  8
寸法
 62
     7
 48
50.0
100
AcDbMText
 10
5935.295438852476
 20
8255.596750357614
 30
0.0
 40
120.0
 41
0.0
 71
     5
 72
     1
  1
\A1;120
  7
STYLE1
 11
0.0000000000000001
 21
1.0
 31
0.0
 73
     1
 44
1.0
1001
ACAD
1000
MTEXTBEGIN
1070
    73
1070
     1
1070
    44
1040
1.0
1070
    74
1070
     0
1000
MTEXTEND
  0
POINT
  5
28969
330
2660C
100
AcDbEntity
  8
DEFPOINTS
 62
     0
 48
50.0
100
AcDbPoint
 10
5820.349773270519
 20
7857.513207084728
 30
0.0
  0
POINT
  5
2896A
330
2660C
100
AcDbEntity
  8
DEFPOINTS
 62
     0
 48
50.0
100
AcDbPoint
 10
5818.600000000002
 20
7977.513207084726
 30
0.0
  0
POINT
  5
2896B
330
2660C
100
AcDbEntity
  8
DEFPOINTS
 62
     0
 48
50.0
100
AcDbPoint
 10
6035.307249876098
 20
7977.513207084726
 30
0.0
  0
ENDBLK
  5
26618
330
2660C
100
AcDbEntity
  8
0
 48
50.0
100
AcDbBlockEnd
  0
BLOCK
  5
26622
330
26619
100
AcDbEntity
  8
0
 48
50.0
100
AcDbBlockBegin
  2
*D14
 70
     1
 10
0.0
 20
0.0
 30
0.0
  3
*D14
  1

  0
LINE
  5
28959
330
26619
100
AcDbEntity
  8
寸法
 62
     0
 48
50.0
370
    -2
100
AcDbLine
 10
6493.6
 20
7462.513207084727
 30
0.0
 11
6493.6
 21
8564.422972733058
 31
0.0
  0
LINE
  5
2895A
330
26619
100
AcDbEntity
  8
寸法
 62
     0
 48
50.0
370
    -2
100
AcDbLine
 10
5588.6
 20
7997.513207084729
 30
0.0
 11
5588.6
 21
8564.422972733058
 31
0.0
  0
LINE
  5
2895B
330
26619
100
AcDbEntity
  8
寸法
 62
     0
 48
50.0
370
    -2
100
AcDbLine
 10
6493.6
 20
8504.422972733058
 30
0.0
 11
5588.6
 21
8504.422972733058
 31
0.0
  0
INSERT
  5
2895C
330
26619
100
AcDbEntity
  8
寸法
 62
     0
 48
50.0
370
    -2
100
AcDbBlockReference
  2
_DOTSMALL
 10
6493.6
 20
8504.422972733058
 30
0.0
 41
100.0
 42
100.0
 43
100.0
  0
INSERT
  5
2895D
330
26619
100
AcDbEntity
  8
寸法
 62
     0
 48
50.0
370
    -2
100
AcDbBlockReference
  2
_DOTSMALL
 10
5588.6
 20
8504.422972733058
 30
0.0
 41
100.0
 42
100.0
 43
100.0
 50
180.0
  0
MTEXT
  5
2895E
330
26619
100
AcDbEntity
  8
寸法
 62
     7
 48
50.0
100
AcDbMText
 10
6041.1
 20
8604.422972733059
 30
0.0
 40
120.0
 41
0.0
 71
     5
 72
     1
  1
\A1;905
  7
STYLE1
 73
     1
 44
1.0
1001
ACAD
1000
MTEXTBEGIN
1070
    73
1070
     1
1070
    44
1040
1.0
1070
    74
1070
     0
1000
MTEXTEND
  0
POINT
  5
2895F
330
26619
100
AcDbEntity
  8
DEFPOINTS
 62
     0
 48
50.0
100
AcDbPoint
 10
6493.6
 20
7442.513207084728
 30
0.0
  0
POINT
  5
28960
330
26619
100
AcDbEntity
  8
DEFPOINTS
 62
     0
 48
50.0
100
AcDbPoint
 10
5588.6
 20
7977.513207084729
 30
0.0
  0
POINT
  5
28961
330
26619
100
AcDbEntity
  8
DEFPOINTS
 62
     0
 48
50.0
100
AcDbPoint
 10
5588.6
 20
8504.422972733058
 30
0.0
  0
ENDBLK
  5
26623
330
26619
100
AcDbEntity
  8
0
 48
50.0
100
AcDbBlockEnd
  0
BLOCK
  5
2662F
330
26624
100
AcDbEntity
  8
0
 48
50.0
100
AcDbBlockBegin
  2
*D15
 70
     1
 10
0.0
 20
0.0
 30
0.0
  3
*D15
  1

  0
LINE
  5
2894F
330
26624
100
AcDbEntity
  8
寸法
 62
     0
 48
50.0
370
    -2
100
AcDbLine
 10
5840.349773270519
 20
7857.513207084728
 30
0.0
 11
6095.3072498761
 21
7857.513207084728
 31
0.0
  0
LINE
  5
28950
330
26624
100
AcDbEntity
  8
寸法
 62
     0
 48
50.0
370
    -2
100
AcDbLine
 10
5838.6
 20
7747.513207084726
 30
0.0
 11
6095.3072498761
 21
7747.513207084726
 31
0.0
  0
LINE
  5
28951
330
26624
100
AcDbEntity
  8
寸法
 62
     0
 48
50.0
370
    -2
100
AcDbLine
 10
6035.307249876099
 20
7857.513207084728
 30
0.0
 11
6035.307249876099
 21
7747.513207084726
 31
0.0
  0
LINE
  5
28952
330
26624
100
AcDbEntity
  8
寸法
 62
     0
 48
50.0
370
    -2
100
AcDbLine
 10
6035.307249876099
 20
7747.513207084726
 30
0.0
 11
6035.307249876099
 21
7283.406907872126
 31
0.0
  0
INSERT
  5
28953
330
26624
100
AcDbEntity
  8
寸法
 62
     0
 48
50.0
370
    -2
100
AcDbBlockReference
  2
_DOTSMALL
 10
6035.307249876099
 20
7857.513207084728
 30
0.0
 41
100.0
 42
100.0
 43
100.0
 50
90.0
  0
INSERT
  5
28954
330
26624
100
AcDbEntity
  8
寸法
 62
     0
 48
50.0
370
    -2
100
AcDbBlockReference
  2
_DOTSMALL
 10
6035.307249876099
 20
7747.513207084726
 30
0.0
 41
100.0
 42
100.0
 43
100.0
 50
270.0
  0
MTEXT
  5
28955
330
26624
100
AcDbEntity
  8
寸法
 62
     7
 48
50.0
100
AcDbMText
 10
5935.307249876098
 20
7407.454151966614
 30
0.0
 40
120.0
 41
0.0
 71
     5
 72
     1
  1
\A1;110
  7
STYLE1
 11
0.0000000000000001
 21
1.0
 31
0.0
 73
     1
 44
1.0
1001
ACAD
1000
MTEXTBEGIN
1070
    73
1070
     1
1070
    44
1040
1.0
1070
    74
1070
     0
1000
MTEXTEND
  0
POINT
  5
28956
330
26624
100
AcDbEntity
  8
DEFPOINTS
 62
     0
 48
50.0
100
AcDbPoint
 10
5820.349773270519
 20
7857.513207084728
 30
0.0
  0
POINT
  5
28957
330
26624
100
AcDbEntity
  8
DEFPOINTS
 62
     0
 48
50.0
100
AcDbPoint
 10
5818.6
 20
7747.513207084726
 30
0.0
  0
POINT
  5
28958
330
26624
100
AcDbEntity
  8
DEFPOINTS
 62
     0
 48
50.0
100
AcDbPoint
 10
6035.307249876099
 20
7747.513207084726
 30
0.0
  0
ENDBLK
  5
26630
330
26624
100
AcDbEntity
  8
0
 48
50.0
100
AcDbBlockEnd
  0
BLOCK
  5
2663C
330
26631
100
AcDbEntity
  8
0
 48
50.0
100
AcDbBlockBegin
  2
*D16
 70
     1
 10
0.0
 20
0.0
 30
0.0
  3
*D16
  1

  0
LINE
  5
28945
330
26631
100
AcDbEntity
  8
寸法
 62
     0
 48
50.0
370
    -2
100
AcDbLine
 10
5711.6
 20
7924.513207084729
 30
0.0
 11
5711.6
 21
8783.272833626812
 31
0.0
  0
LINE
  5
28946
330
26631
100
AcDbEntity
  8
寸法
 62
     0
 48
50.0
370
    -2
100
AcDbLine
 10
5588.6
 20
7997.513207084729
 30
0.0
 11
5588.6
 21
8783.272833626812
 31
0.0
  0
LINE
  5
28947
330
26631
100
AcDbEntity
  8
寸法
 62
     0
 48
50.0
370
    -2
100
AcDbLine
 10
5711.6
 20
8723.272833626813
 30
0.0
 11
5588.6
 21
8723.272833626813
 31
0.0
  0
LINE
  5
28948
330
26631
100
AcDbEntity
  8
寸法
 62
     0
 48
50.0
370
    -2
100
AcDbLine
 10
5588.6
 20
8723.272833626813
 30
0.0
 11
5177.008116907963
 21
8723.272833626813
 31
0.0
  0
INSERT
  5
28949
330
26631
100
AcDbEntity
  8
寸法
 62
     0
 48
50.0
370
    -2
100
AcDbBlockReference
  2
_DOTSMALL
 10
5711.6
 20
8723.272833626813
 30
0.0
 41
100.0
 42
100.0
 43
100.0
  0
INSERT
  5
2894A
330
26631
100
AcDbEntity
  8
寸法
 62
     0
 48
50.0
370
    -2
100
AcDbBlockReference
  2
_DOTSMALL
 10
5588.6
 20
8723.272833626813
 30
0.0
 41
100.0
 42
100.0
 43
100.0
 50
180.0
  0
MTEXT
  5
2894B
330
26631
100
AcDbEntity
  8
寸法
 62
     7
 48
50.0
100
AcDbMText
 10
5315.493398282202
 20
8823.284644650433
 30
0.0
 40
120.0
 41
0.0
 71
     5
 72
     1
  1
\A1;123
  7
STYLE1
 73
     1
 44
1.0
1001
ACAD
1000
MTEXTBEGIN
1070
    73
1070
     1
1070
    44
1040
1.0
1070
    74
1070
     0
1000
MTEXTEND
  0
POINT
  5
2894C
330
26631
100
AcDbEntity
  8
DEFPOINTS
 62
     0
 48
50.0
100
AcDbPoint
 10
5711.6
 20
7904.51320708473
 30
0.0
  0
POINT
  5
2894D
330
26631
100
AcDbEntity
  8
DEFPOINTS
 62
     0
 48
50.0
100
AcDbPoint
 10
5588.6
 20
7977.513207084729
 30
0.0
  0
POINT
  5
2894E
330
26631
100
AcDbEntity
  8
DEFPOINTS
 62
     0
 48
50.0
100
AcDbPoint
 10
5588.6
 20
8723.272833626813
 30
0.0
  0
ENDBLK
  5
2663D
330
26631
100
AcDbEntity
  8
0
 48
50.0
100
AcDbBlockEnd
  0
BLOCK
  5
26647
330
2663E
100
AcDbEntity
  8
0
 48
50.0
100
AcDbBlockBegin
  2
*D17
 70
     1
 10
0.0
 20
0.0
 30
0.0
  3
*D17
  1

  0
LINE
  5
2893C
330
2663E
100
AcDbEntity
  8
寸法
 62
     0
 48
50.0
370
    -2
100
AcDbLine
 10
8223.600000000001
 20
6987.51320708473
 30
0.0
 11
8223.600000000001
 21
8564.422972733058
 31
0.0
  0
LINE
  5
2893D
330
2663E
100
AcDbEntity
  8
寸法
 62
     0
 48
50.0
370
    -2
100
AcDbLine
 10
7323.6
 20
7462.513207084727
 30
0.0
 11
7323.6
 21
8564.422972733058
 31
0.0
  0
LINE
  5
2893E
330
2663E
100
AcDbEntity
  8
寸法
 62
     0
 48
50.0
370
    -2
100
AcDbLine
 10
8223.600000000001
 20
8504.422972733058
 30
0.0
 11
7323.6
 21
8504.422972733058
 31
0.0
  0
INSERT
  5
2893F
330
2663E
100
AcDbEntity
  8
寸法
 62
     0
 48
50.0
370
    -2
100
AcDbBlockReference
  2
_DOTSMALL
 10
8223.600000000001
 20
8504.422972733058
 30
0.0
 41
100.0
 42
100.0
 43
100.0
  0
INSERT
  5
28940
330
2663E
100
AcDbEntity
  8
寸法
 62
     0
 48
50.0
370
    -2
100
AcDbBlockReference
  2
_DOTSMALL
 10
7323.6
 20
8504.422972733058
 30
0.0
 41
100.0
 42
100.0
 43
100.0
 50
180.0
  0
MTEXT
  5
28941
330
2663E
100
AcDbEntity
  8
寸法
 62
     7
 48
50.0
100
AcDbMText
 10
7773.6
 20
8604.422972733059
 30
0.0
 40
120.0
 41
0.0
 71
     5
 72
     1
  1
\A1;900
  7
STYLE1
 73
     1
 44
1.0
1001
ACAD
1000
MTEXTBEGIN
1070
    73
1070
     1
1070
    44
1040
1.0
1070
    74
1070
     0
1000
MTEXTEND
  0
POINT
  5
28942
330
2663E
100
AcDbEntity
  8
DEFPOINTS
 62
     0
 48
50.0
100
AcDbPoint
 10
8223.600000000001
 20
6967.513207084731
 30
0.0
  0
POINT
  5
28943
330
2663E
100
AcDbEntity
  8
DEFPOINTS
 62
     0
 48
50.0
100
AcDbPoint
 10
7323.6
 20
7442.513207084728
 30
0.0
  0
POINT
  5
28944
330
2663E
100
AcDbEntity
  8
DEFPOINTS
 62
     0
 48
50.0
100
AcDbPoint
 10
7323.6
 20
8504.422972733058
 30
0.0
  0
ENDBLK
  5
26648
330
2663E
100
AcDbEntity
  8
0
 48
50.0
100
AcDbBlockEnd
  0
BLOCK
  5
26653
330
26649
100
AcDbEntity
  8
0
 48
50.0
100
AcDbBlockBegin
  2
*D18
 70
     1
 10
0.0
 20
0.0
 30
0.0
  3
*D18
  1

  0
LINE
  5
28933
330
26649
100
AcDbEntity
  8
寸法
 62
     0
 48
50.0
370
    -2
100
AcDbLine
 10
9833.600000000002
 20
6492.513207084728
 30
0.0
 11
9528.531448609053
 21
6492.513207084728
 31
0.0
  0
LINE
  5
28934
330
26649
100
AcDbEntity
  8
寸法
 62
     0
 48
50.0
370
    -2
100
AcDbLine
 10
9833.600000000002
 20
7242.513207084728
 30
0.0
 11
9528.531448609053
 21
7242.513207084728
 31
0.0
  0
LINE
  5
28935
330
26649
100
AcDbEntity
  8
寸法
 62
     0
 48
50.0
370
    -2
100
AcDbLine
 10
9588.531448609051
 20
6492.513207084728
 30
0.0
 11
9588.531448609051
 21
7242.513207084728
 31
0.0
  0
INSERT
  5
28936
330
26649
100
AcDbEntity
  8
寸法
 62
     0
 48
50.0
370
    -2
100
AcDbBlockReference
  2
_DOTSMALL
 10
9588.531448609051
 20
6492.513207084728
 30
0.0
 41
100.0
 42
100.0
 43
100.0
 50
270.0
  0
INSERT
  5
28937
330
26649
100
AcDbEntity
  8
寸法
 62
     0
 48
50.0
370
    -2
100
AcDbBlockReference
  2
_DOTSMALL
 10
9588.531448609051
 20
7242.513207084728
 30
0.0
 41
100.0
 42
100.0
 43
100.0
 50
90.0
  0
MTEXT
  5
28938
330
26649
100
AcDbEntity
  8
寸法
 62
     7
 48
50.0
100
AcDbMText
 10
9488.53144860905
 20
6867.513207084728
 30
0.0
 40
120.0
 41
0.0
 71
     5
 72
     1
  1
\A1;750
  7
STYLE1
 11
0.0000000000000001
 21
1.0
 31
0.0
 73
     1
 44
1.0
1001
ACAD
1000
MTEXTBEGIN
1070
    73
1070
     1
1070
    44
1040
1.0
1070
    74
1070
     0
1000
MTEXTEND
  0
POINT
  5
28939
330
26649
100
AcDbEntity
  8
DEFPOINTS
 62
     0
 48
50.0
100
AcDbPoint
 10
9853.6
 20
6492.513207084728
 30
0.0
  0
POINT
  5
2893A
330
26649
100
AcDbEntity
  8
DEFPOINTS
 62
     0
 48
50.0
100
AcDbPoint
 10
9853.6
 20
7242.513207084728
 30
0.0
  0
POINT
  5
2893B
330
26649
100
AcDbEntity
  8
DEFPOINTS
 62
     0
 48
50.0
100
AcDbPoint
 10
9588.531448609051
 20
7242.513207084728
 30
0.0
  0
ENDBLK
  5
26654
330
26649
100
AcDbEntity
  8
0
 48
50.0
100
AcDbBlockEnd
  0
BLOCK
  5
26685
330
2667B
100
AcDbEntity
  8
0
 48
50.0
100
AcDbBlockBegin
  2
*D19
 70
     1
 10
0.0
 20
0.0
 30
0.0
  3
*D19
  1

  0
LINE
  5
2892A
330
2667B
100
AcDbEntity
  8
寸法
 62
     0
 48
50.0
370
    -2
100
AcDbLine
 10
10858.6
 20
7997.513207084729
 30
0.0
 11
10858.6
 21
8564.422972733058
 31
0.0
  0
LINE
  5
2892B
330
2667B
100
AcDbEntity
  8
寸法
 62
     0
 48
50.0
370
    -2
100
AcDbLine
 10
9953.600000000001
 20
7462.513207084727
 30
0.0
 11
9953.600000000001
 21
8564.422972733058
 31
0.0
  0
LINE
  5
2892C
330
2667B
100
AcDbEntity
  8
寸法
 62
     0
 48
50.0
370
    -2
100
AcDbLine
 10
10858.6
 20
8504.422972733058
 30
0.0
 11
9953.600000000001
 21
8504.422972733058
 31
0.0
  0
INSERT
  5
2892D
330
2667B
100
AcDbEntity
  8
寸法
 62
     0
 48
50.0
370
    -2
100
AcDbBlockReference
  2
_DOTSMALL
 10
10858.6
 20
8504.422972733058
 30
0.0
 41
100.0
 42
100.0
 43
100.0
  0
INSERT
  5
2892E
330
2667B
100
AcDbEntity
  8
寸法
 62
     0
 48
50.0
370
    -2
100
AcDbBlockReference
  2
_DOTSMALL
 10
9953.600000000001
 20
8504.422972733058
 30
0.0
 41
100.0
 42
100.0
 43
100.0
 50
180.0
  0
MTEXT
  5
2892F
330
2667B
100
AcDbEntity
  8
寸法
 62
     7
 48
50.0
100
AcDbMText
 10
10406.1
 20
8604.422972733059
 30
0.0
 40
120.0
 41
0.0
 71
     5
 72
     1
  1
\A1;905
  7
STYLE1
 73
     1
 44
1.0
1001
ACAD
1000
MTEXTBEGIN
1070
    73
1070
     1
1070
    44
1040
1.0
1070
    74
1070
     0
1000
MTEXTEND
  0
POINT
  5
28930
330
2667B
100
AcDbEntity
  8
DEFPOINTS
 62
     0
 48
50.0
100
AcDbPoint
 10
10858.6
 20
7977.513207084729
 30
0.0
  0
POINT
  5
28931
330
2667B
100
AcDbEntity
  8
DEFPOINTS
 62
     0
 48
50.0
100
AcDbPoint
 10
9953.600000000001
 20
7442.513207084728
 30
0.0
  0
POINT
  5
28932
330
2667B
100
AcDbEntity
  8
DEFPOINTS
 62
     0
 48
50.0
100
AcDbPoint
 10
9953.600000000001
 20
8504.422972733058
 30
0.0
  0
ENDBLK
  5
26686
330
2667B
100
AcDbEntity
  8
0
 48
50.0
100
AcDbBlockEnd
  0
BLOCK
  5
26690
330
26687
100
AcDbEntity
  8
0
 48
50.0
100
AcDbBlockBegin
  2
*D20
 70
     1
 10
0.0
 20
0.0
 30
0.0
  3
*D20
  1

  0
LINE
  5
28921
330
26687
100
AcDbEntity
  8
寸法
 62
     0
 48
50.0
370
    -2
100
AcDbLine
 10
9833.600000000002
 20
7242.513207084728
 30
0.0
 11
9528.531448609053
 21
7242.513207084728
 31
0.0
  0
LINE
  5
28922
330
26687
100
AcDbEntity
  8
寸法
 62
     0
 48
50.0
370
    -2
100
AcDbLine
 10
9552.099999999997
 20
7977.513207084729
 30
0.0
 11
9648.531448609052
 21
7977.513207084729
 31
0.0
  0
LINE
  5
28923
330
26687
100
AcDbEntity
  8
寸法
 62
     0
 48
50.0
370
    -2
100
AcDbLine
 10
9588.531448609051
 20
7242.513207084728
 30
0.0
 11
9588.531448609051
 21
7977.513207084729
 31
0.0
  0
INSERT
  5
28924
330
26687
100
AcDbEntity
  8
寸法
 62
     0
 48
50.0
370
    -2
100
AcDbBlockReference
  2
_DOTSMALL
 10
9588.531448609051
 20
7242.513207084728
 30
0.0
 41
100.0
 42
100.0
 43
100.0
 50
270.0
  0
INSERT
  5
28925
330
26687
100
AcDbEntity
  8
寸法
 62
     0
 48
50.0
370
    -2
100
AcDbBlockReference
  2
_DOTSMALL
 10
9588.531448609051
 20
7977.513207084729
 30
0.0
 41
100.0
 42
100.0
 43
100.0
 50
90.0
  0
MTEXT
  5
28926
330
26687
100
AcDbEntity
  8
寸法
 62
     7
 48
50.0
100
AcDbMText
 10
9488.53144860905
 20
7610.01320708473
 30
0.0
 40
120.0
 41
0.0
 71
     5
 72
     1
  1
\A1;735
  7
STYLE1
 11
0.0000000000000001
 21
1.0
 31
0.0
 73
     1
 44
1.0
1001
ACAD
1000
MTEXTBEGIN
1070
    73
1070
     1
1070
    44
1040
1.0
1070
    74
1070
     0
1000
MTEXTEND
  0
POINT
  5
28927
330
26687
100
AcDbEntity
  8
DEFPOINTS
 62
     0
 48
50.0
100
AcDbPoint
 10
9853.6
 20
7242.513207084728
 30
0.0
  0
POINT
  5
28928
330
26687
100
AcDbEntity
  8
DEFPOINTS
 62
     0
 48
50.0
100
AcDbPoint
 10
9532.099999999998
 20
7977.513207084729
 30
0.0
  0
POINT
  5
28929
330
26687
100
AcDbEntity
  8
DEFPOINTS
 62
     0
 48
50.0
100
AcDbPoint
 10
9588.531448609051
 20
7977.513207084729
 30
0.0
  0
ENDBLK
  5
26691
330
26687
100
AcDbEntity
  8
0
 48
50.0
100
AcDbBlockEnd
  0
BLOCK
  5
2669C
330
26692
100
AcDbEntity
  8
0
 48
50.0
100
AcDbBlockBegin
  2
*D21
 70
     1
 10
0.0
 20
0.0
 30
0.0
  3
*D21
  1

  0
LINE
  5
28918
330
26692
100
AcDbEntity
  8
寸法
 62
     0
 48
50.0
370
    -2
100
AcDbLine
 10
9953.600000000001
 20
7462.513207084727
 30
0.0
 11
9953.600000000001
 21
8564.422972733058
 31
0.0
  0
LINE
  5
28919
330
26692
100
AcDbEntity
  8
寸法
 62
     0
 48
50.0
370
    -2
100
AcDbLine
 10
9123.600000000001
 20
7462.513207084727
 30
0.0
 11
9123.600000000001
 21
8564.422972733058
 31
0.0
  0
LINE
  5
2891A
330
26692
100
AcDbEntity
  8
寸法
 62
     0
 48
50.0
370
    -2
100
AcDbLine
 10
9953.600000000001
 20
8504.422972733058
 30
0.0
 11
9123.600000000001
 21
8504.422972733058
 31
0.0
  0
INSERT
  5
2891B
330
26692
100
AcDbEntity
  8
寸法
 62
     0
 48
50.0
370
    -2
100
AcDbBlockReference
  2
_DOTSMALL
 10
9953.600000000001
 20
8504.422972733058
 30
0.0
 41
100.0
 42
100.0
 43
100.0
  0
INSERT
  5
2891C
330
26692
100
AcDbEntity
  8
寸法
 62
     0
 48
50.0
370
    -2
100
AcDbBlockReference
  2
_DOTSMALL
 10
9123.600000000001
 20
8504.422972733058
 30
0.0
 41
100.0
 42
100.0
 43
100.0
 50
180.0
  0
MTEXT
  5
2891D
330
26692
100
AcDbEntity
  8
寸法
 62
     7
 48
50.0
100
AcDbMText
 10
9538.6
 20
8604.422972733059
 30
0.0
 40
120.0
 41
0.0
 71
     5
 72
     1
  1
\A1;830
  7
STYLE1
 73
     1
 44
1.0
1001
ACAD
1000
MTEXTBEGIN
1070
    73
1070
     1
1070
    44
1040
1.0
1070
    74
1070
     0
1000
MTEXTEND
  0
POINT
  5
2891E
330
26692
100
AcDbEntity
  8
DEFPOINTS
 62
     0
 48
50.0
100
AcDbPoint
 10
9953.600000000001
 20
7442.513207084728
 30
0.0
  0
POINT
  5
2891F
330
26692
100
AcDbEntity
  8
DEFPOINTS
 62
     0
 48
50.0
100
AcDbPoint
 10
9123.600000000001
 20
7442.513207084728
 30
0.0
  0
POINT
  5
28920
330
26692
100
AcDbEntity
  8
DEFPOINTS
 62
     0
 48
50.0
100
AcDbPoint
 10
9123.600000000001
 20
8504.422972733058
 30
0.0
  0
ENDBLK
  5
2669D
330
26692
100
AcDbEntity
  8
0
 48
50.0
100
AcDbBlockEnd
  0
BLOCK
  5
266A9
330
2669E
100
AcDbEntity
  8
0
 48
50.0
100
AcDbBlockBegin
  2
*D22
 70
     1
 10
0.0
 20
0.0
 30
0.0
  3
*D22
  1

  0
LINE
  5
2890E
330
2669E
100
AcDbEntity
  8
寸法
 62
     0
 48
50.0
370
    -2
100
AcDbLine
 10
10858.6
 20
7516.797803623186
 30
0.0
 11
10858.6
 21
7459.804539584355
 31
0.0
  0
LINE
  5
2890F
330
2669E
100
AcDbEntity
  8
寸法
 62
     0
 48
50.0
370
    -2
100
AcDbLine
 10
10738.6
 20
7727.513207084728
 30
0.0
 11
10738.6
 21
7459.804539584355
 31
0.0
  0
LINE
  5
28910
330
2669E
100
AcDbEntity
  8
寸法
 62
     0
 48
50.0
370
    -2
100
AcDbLine
 10
10738.6
 20
7519.804539584355
 30
0.0
 11
10858.6
 21
7519.804539584355
 31
0.0
  0
LINE
  5
28911
330
2669E
100
AcDbEntity
  8
寸法
 62
     0
 48
50.0
370
    -2
100
AcDbLine
 10
10858.6
 20
7519.804539584355
 30
0.0
 11
11264.7062992126
 21
7519.804539584355
 31
0.0
  0
INSERT
  5
28912
330
2669E
100
AcDbEntity
  8
寸法
 62
     0
 48
50.0
370
    -2
100
AcDbBlockReference
  2
_DOTSMALL
 10
10738.6
 20
7519.804539584355
 30
0.0
 41
100.0
 42
100.0
 43
100.0
 50
180.0
  0
INSERT
  5
28913
330
2669E
100
AcDbEntity
  8
寸法
 62
     0
 48
50.0
370
    -2
100
AcDbBlockReference
  2
_DOTSMALL
 10
10858.6
 20
7519.804539584355
 30
0.0
 41
100.0
 42
100.0
 43
100.0
  0
MTEXT
  5
28914
330
2669E
100
AcDbEntity
  8
寸法
 62
     7
 48
50.0
100
AcDbMText
 10
11128.65905511811
 20
7619.816350607978
 30
0.0
 40
120.0
 41
0.0
 71
     5
 72
     1
  1
\A1;120
  7
STYLE1
 73
     1
 44
1.0
1001
ACAD
1000
MTEXTBEGIN
1070
    73
1070
     1
1070
    44
1040
1.0
1070
    74
1070
     0
1000
MTEXTEND
  0
POINT
  5
28915
330
2669E
100
AcDbEntity
  8
DEFPOINTS
 62
     0
 48
50.0
100
AcDbPoint
 10
10858.6
 20
7536.797803623186
 30
0.0
  0
POINT
  5
28916
330
2669E
100
AcDbEntity
  8
DEFPOINTS
 62
     0
 48
50.0
100
AcDbPoint
 10
10738.6
 20
7747.513207084728
 30
0.0
  0
POINT
  5
28917
330
2669E
100
AcDbEntity
  8
DEFPOINTS
 62
     0
 48
50.0
100
AcDbPoint
 10
10738.6
 20
7519.804539584355
 30
0.0
  0
ENDBLK
  5
266AA
330
2669E
100
AcDbEntity
  8
0
 48
50.0
100
AcDbBlockEnd
  0
BLOCK
  5
266B6
330
266AB
100
AcDbEntity
  8
0
 48
50.0
100
AcDbBlockBegin
  2
*D23
 70
     1
 10
0.0
 20
0.0
 30
0.0
  3
*D23
  1

  0
LINE
  5
28904
330
266AB
100
AcDbEntity
  8
寸法
 62
     0
 48
50.0
370
    -2
100
AcDbLine
 10
10738.6
 20
7727.513207084728
 30
0.0
 11
10738.6
 21
7459.804539584355
 31
0.0
  0
LINE
  5
28905
330
266AB
100
AcDbEntity
  8
寸法
 62
     0
 48
50.0
370
    -2
100
AcDbLine
 10
10628.6
 20
7727.513207084726
 30
0.0
 11
10628.6
 21
7459.804539584355
 31
0.0
  0
LINE
  5
28906
330
266AB
100
AcDbEntity
  8
寸法
 62
     0
 48
50.0
370
    -2
100
AcDbLine
 10
10738.6
 20
7519.804539584355
 30
0.0
 11
10628.6
 21
7519.804539584355
 31
0.0
  0
LINE
  5
28907
330
266AB
100
AcDbEntity
  8
寸法
 62
     0
 48
50.0
370
    -2
100
AcDbLine
 10
10628.6
 20
7519.804539584355
 30
0.0
 11
10234.4937007874
 21
7519.804539584355
 31
0.0
  0
INSERT
  5
28908
330
266AB
100
AcDbEntity
  8
寸法
 62
     0
 48
50.0
370
    -2
100
AcDbBlockReference
  2
_DOTSMALL
 10
10738.6
 20
7519.804539584355
 30
0.0
 41
100.0
 42
100.0
 43
100.0
  0
INSERT
  5
28909
330
266AB
100
AcDbEntity
  8
寸法
 62
     0
 48
50.0
370
    -2
100
AcDbBlockReference
  2
_DOTSMALL
 10
10628.6
 20
7519.804539584355
 30
0.0
 41
100.0
 42
100.0
 43
100.0
 50
180.0
  0
MTEXT
  5
2890A
330
266AB
100
AcDbEntity
  8
寸法
 62
     7
 48
50.0
100
AcDbMText
 10
10358.54094488189
 20
7619.804539584355
 30
0.0
 40
120.0
 41
0.0
 71
     5
 72
     1
  1
\A1;110
  7
STYLE1
 73
     1
 44
1.0
1001
ACAD
1000
MTEXTBEGIN
1070
    73
1070
     1
1070
    44
1040
1.0
1070
    74
1070
     0
1000
MTEXTEND
  0
POINT
  5
2890B
330
266AB
100
AcDbEntity
  8
DEFPOINTS
 62
     0
 48
50.0
100
AcDbPoint
 10
10738.6
 20
7747.513207084728
 30
0.0
  0
POINT
  5
2890C
330
266AB
100
AcDbEntity
  8
DEFPOINTS
 62
     0
 48
50.0
100
AcDbPoint
 10
10628.6
 20
7747.513207084726
 30
0.0
  0
POINT
  5
2890D
330
266AB
100
AcDbEntity
  8
DEFPOINTS
 62
     0
 48
50.0
100
AcDbPoint
 10
10628.6
 20
7519.804539584355
 30
0.0
  0
ENDBLK
  5
266B7
330
266AB
100
AcDbEntity
  8
0
 48
50.0
100
AcDbBlockEnd
  0
BLOCK
  5
266C3
330
266B8
100
AcDbEntity
  8
0
 48
50.0
100
AcDbBlockBegin
  2
*D24
 70
     1
 10
0.0
 20
0.0
 30
0.0
  3
*D24
  1

  0
LINE
  5
288FA
330
266B8
100
AcDbEntity
  8
寸法
 62
     0
 48
50.0
370
    -2
100
AcDbLine
 10
10858.6
 20
7997.513207084729
 30
0.0
 11
10858.6
 21
8783.272833626812
 31
0.0
  0
LINE
  5
288FB
330
266B8
100
AcDbEntity
  8
寸法
 62
     0
 48
50.0
370
    -2
100
AcDbLine
 10
10735.6
 20
7924.513207084729
 30
0.0
 11
10735.6
 21
8783.272833626812
 31
0.0
  0
LINE
  5
288FC
330
266B8
100
AcDbEntity
  8
寸法
 62
     0
 48
50.0
370
    -2
100
AcDbLine
 10
10735.6
 20
8723.272833626813
 30
0.0
 11
10858.6
 21
8723.272833626813
 31
0.0
  0
LINE
  5
288FD
330
266B8
100
AcDbEntity
  8
寸法
 62
     0
 48
50.0
370
    -2
100
AcDbLine
 10
10858.6
 20
8723.272833626813
 30
0.0
 11
11270.19188309204
 21
8723.272833626813
 31
0.0
  0
INSERT
  5
288FE
330
266B8
100
AcDbEntity
  8
寸法
 62
     0
 48
50.0
370
    -2
100
AcDbBlockReference
  2
_DOTSMALL
 10
10735.6
 20
8723.272833626813
 30
0.0
 41
100.0
 42
100.0
 43
100.0
 50
180.0
  0
INSERT
  5
288FF
330
266B8
100
AcDbEntity
  8
寸法
 62
     0
 48
50.0
370
    -2
100
AcDbBlockReference
  2
_DOTSMALL
 10
10858.6
 20
8723.272833626813
 30
0.0
 41
100.0
 42
100.0
 43
100.0
  0
MTEXT
  5
28900
330
266B8
100
AcDbEntity
  8
寸法
 62
     7
 48
50.0
100
AcDbMText
 10
11131.7066017178
 20
8823.284644650433
 30
0.0
 40
120.0
 41
0.0
 71
     5
 72
     1
  1
\A1;123
  7
STYLE1
 73
     1
 44
1.0
1001
ACAD
1000
MTEXTBEGIN
1070
    73
1070
     1
1070
    44
1040
1.0
1070
    74
1070
     0
1000
MTEXTEND
  0
POINT
  5
28901
330
266B8
100
AcDbEntity
  8
DEFPOINTS
 62
     0
 48
50.0
100
AcDbPoint
 10
10858.6
 20
7977.513207084729
 30
0.0
  0
POINT
  5
28902
330
266B8
100
AcDbEntity
  8
DEFPOINTS
 62
     0
 48
50.0
100
AcDbPoint
 10
10735.6
 20
7904.51320708473
 30
0.0
  0
POINT
  5
28903
330
266B8
100
AcDbEntity
  8
DEFPOINTS
 62
     0
 48
50.0
100
AcDbPoint
 10
10735.6
 20
8723.272833626813
 30
0.0
  0
ENDBLK
  5
266C4
330
266B8
100
AcDbEntity
  8
0
 48
50.0
100
AcDbBlockEnd
  0
BLOCK
  5
26F27
330
26F1B
100
AcDbEntity
  8
0
 48
50.0
100
AcDbBlockBegin
  2
*D25
 70
     1
 10
0.0
 20
0.0
 30
0.0
  3
*D25
  1

  0
LINE
  5
288E4
330
26F1B
100
AcDbEntity
  8
寸法
 62
     0
 48
50.0
370
    -2
100
AcDbLine
 10
5072.657733986179
 20
8052.513207084732
 30
0.0
 11
4780.714637266788
 21
8052.513207084732
 31
0.0
  0
LINE
  5
288E5
330
26F1B
100
AcDbEntity
  8
寸法
 62
     0
 48
50.0
370
    -2
100
AcDbLine
 10
5562.149705418577
 20
7977.513207084729
 30
0.0
 11
4780.714637266788
 21
7977.513207084729
 31
0.0
  0
LINE
  5
288E6
330
26F1B
100
AcDbEntity
  8
寸法
 62
     0
 48
50.0
370
    -2
100
AcDbLine
 10
4840.714637266787
 20
8052.513207084732
 30
0.0
 11
4840.714637266787
 21
8152.513207084732
 31
0.0
  0
LINE
  5
288E7
330
26F1B
100
AcDbEntity
  8
寸法
 62
     0
 48
50.0
370
    -2
100
AcDbLine
 10
4840.714637266787
 20
7977.513207084729
 30
0.0
 11
4840.714637266787
 21
7877.513207084729
 31
0.0
  0
LINE
  5
288E8
330
26F1B
100
AcDbEntity
  8
寸法
 62
     0
 48
50.0
370
    -2
100
AcDbLine
 10
4840.714637266787
 20
8052.513207084732
 30
0.0
 11
4840.714637266787
 21
7977.513207084729
 31
0.0
  0
INSERT
  5
288E9
330
26F1B
100
AcDbEntity
  8
寸法
 62
     0
 48
50.0
370
    -2
100
AcDbBlockReference
  2
_DOTSMALL
 10
4840.714637266787
 20
8052.513207084732
 30
0.0
 41
100.0
 42
100.0
 43
100.0
 50
270.0
  0
INSERT
  5
288EA
330
26F1B
100
AcDbEntity
  8
寸法
 62
     0
 48
50.0
370
    -2
100
AcDbBlockReference
  2
_DOTSMALL
 10
4840.714637266787
 20
7977.513207084729
 30
0.0
 41
100.0
 42
100.0
 43
100.0
 50
90.0
  0
MTEXT
  5
288EB
330
26F1B
100
AcDbEntity
  8
寸法
 62
     7
 48
50.0
100
AcDbMText
 10
4740.714637266786
 20
8015.013207084733
 30
0.0
 40
120.0
 41
0.0
 71
     5
 72
     1
  1
\A1;c
  7
STYLE1
 11
0.0000000000000001
 21
1.0
 31
0.0
 73
     1
 44
1.0
1001
ACAD
1000
MTEXTBEGIN
1070
    73
1070
     1
1070
    44
1040
1.0
1070
    74
1070
     0
1000
MTEXTEND
  0
POINT
  5
288EC
330
26F1B
100
AcDbEntity
  8
DEFPOINTS
 62
     0
 48
50.0
100
AcDbPoint
 10
5092.657733986179
 20
8052.513207084732
 30
0.0
  0
POINT
  5
288ED
330
26F1B
100
AcDbEntity
  8
DEFPOINTS
 62
     0
 48
50.0
100
AcDbPoint
 10
5582.149705418578
 20
7977.513207084729
 30
0.0
  0
POINT
  5
288EE
330
26F1B
100
AcDbEntity
  8
DEFPOINTS
 62
     0
 48
50.0
100
AcDbPoint
 10
4840.714637266787
 20
7977.513207084729
 30
0.0
  0
ENDBLK
  5
26F28
330
26F1B
100
AcDbEntity
  8
0
 48
50.0
100
AcDbBlockEnd
  0
BLOCK
  5
26F4C
330
26F40
100
AcDbEntity
  8
0
 48
50.0
100
AcDbBlockBegin
  2
*D26
 70
     1
 10
0.0
 20
0.0
 30
0.0
  3
*D26
  1

  0
LINE
  5
288D9
330
26F40
100
AcDbEntity
  8
寸法
 62
     0
 48
50.0
370
    -2
100
AcDbLine
 10
5568.599999999997
 20
5757.51320708473
 30
0.0
 11
4780.714637266782
 21
5757.51320708473
 31
0.0
  0
LINE
  5
288DA
330
26F40
100
AcDbEntity
  8
寸法
 62
     0
 48
50.0
370
    -2
100
AcDbLine
 10
5072.657733986179
 20
5702.513207084749
 30
0.0
 11
4780.714637266782
 21
5702.513207084749
 31
0.0
  0
LINE
  5
288DB
330
26F40
100
AcDbEntity
  8
寸法
 62
     0
 48
50.0
370
    -2
100
AcDbLine
 10
4840.714637266781
 20
5757.51320708473
 30
0.0
 11
4840.714637266781
 21
5857.513207084729
 31
0.0
  0
LINE
  5
288DC
330
26F40
100
AcDbEntity
  8
寸法
 62
     0
 48
50.0
370
    -2
100
AcDbLine
 10
4840.714637266781
 20
5702.513207084749
 30
0.0
 11
4840.714637266781
 21
5602.51320708475
 31
0.0
  0
LINE
  5
288DD
330
26F40
100
AcDbEntity
  8
寸法
 62
     0
 48
50.0
370
    -2
100
AcDbLine
 10
4840.714637266781
 20
5757.51320708473
 30
0.0
 11
4840.714637266781
 21
5702.513207084749
 31
0.0
  0
INSERT
  5
288DE
330
26F40
100
AcDbEntity
  8
寸法
 62
     0
 48
50.0
370
    -2
100
AcDbBlockReference
  2
_DOTSMALL
 10
4840.714637266781
 20
5757.51320708473
 30
0.0
 41
100.0
 42
100.0
 43
100.0
 50
270.0
  0
INSERT
  5
288DF
330
26F40
100
AcDbEntity
  8
寸法
 62
     0
 48
50.0
370
    -2
100
AcDbBlockReference
  2
_DOTSMALL
 10
4840.714637266781
 20
5702.513207084749
 30
0.0
 41
100.0
 42
100.0
 43
100.0
 50
90.0
  0
MTEXT
  5
288E0
330
26F40
100
AcDbEntity
  8
寸法
 62
     7
 48
50.0
100
AcDbMText
 10
4740.71463726678
 20
5730.01320708474
 30
0.0
 40
120.0
 41
0.0
 71
     5
 72
     1
  1
\A1;b
  7
STYLE1
 11
0.0000000000000001
 21
1.0
 31
0.0
 73
     1
 44
1.0
1001
ACAD
1000
MTEXTBEGIN
1070
    73
1070
     1
1070
    44
1040
1.0
1070
    74
1070
     0
1000
MTEXTEND
  0
POINT
  5
288E1
330
26F40
100
AcDbEntity
  8
DEFPOINTS
 62
     0
 48
50.0
100
AcDbPoint
 10
5588.599999999996
 20
5757.51320708473
 30
0.0
  0
POINT
  5
288E2
330
26F40
100
AcDbEntity
  8
DEFPOINTS
 62
     0
 48
50.0
100
AcDbPoint
 10
5092.657733986179
 20
5702.513207084749
 30
0.0
  0
POINT
  5
288E3
330
26F40
100
AcDbEntity
  8
DEFPOINTS
 62
     0
 48
50.0
100
AcDbPoint
 10
4840.714637266781
 20
5702.513207084749
 30
0.0
  0
ENDBLK
  5
26F4D
330
26F40
100
AcDbEntity
  8
0
 48
50.0
100
AcDbBlockEnd
  0
BLOCK
  5
26F71
330
26F65
100
AcDbEntity
  8
0
 48
50.0
100
AcDbBlockBegin
  2
*D27
 70
     1
 10
0.0
 20
0.0
 30
0.0
  3
*D27
  1

  0
LINE
  5
288CE
330
26F65
100
AcDbEntity
  8
寸法
 62
     0
 48
50.0
370
    -2
100
AcDbLine
 10
10858.6
 20
7997.513207084726
 30
0.0
 11
10858.6
 21
8995.733529143647
 31
0.0
  0
LINE
  5
288CF
330
26F65
100
AcDbEntity
  8
寸法
 62
     0
 48
50.0
370
    -2
100
AcDbLine
 10
10903.6
 20
8743.272833626809
 30
0.0
 11
10903.6
 21
8995.733529143647
 31
0.0
  0
LINE
  5
288D0
330
26F65
100
AcDbEntity
  8
寸法
 62
     0
 48
50.0
370
    -2
100
AcDbLine
 10
10858.6
 20
8935.733529143647
 30
0.0
 11
10758.6
 21
8935.733529143647
 31
0.0
  0
LINE
  5
288D1
330
26F65
100
AcDbEntity
  8
寸法
 62
     0
 48
50.0
370
    -2
100
AcDbLine
 10
10903.6
 20
8935.733529143647
 30
0.0
 11
11240.94924240491
 21
8935.733529143647
 31
0.0
  0
LINE
  5
288D2
330
26F65
100
AcDbEntity
  8
寸法
 62
     0
 48
50.0
370
    -2
100
AcDbLine
 10
10858.6
 20
8935.733529143647
 30
0.0
 11
10903.6
 21
8935.733529143647
 31
0.0
  0
INSERT
  5
288D3
330
26F65
100
AcDbEntity
  8
寸法
 62
     0
 48
50.0
370
    -2
100
AcDbBlockReference
  2
_DOTSMALL
 10
10858.6
 20
8935.733529143647
 30
0.0
 41
100.0
 42
100.0
 43
100.0
  0
INSERT
  5
288D4
330
26F65
100
AcDbEntity
  8
寸法
 62
     0
 48
50.0
370
    -2
100
AcDbBlockReference
  2
_DOTSMALL
 10
10903.6
 20
8935.733529143647
 30
0.0
 41
100.0
 42
100.0
 43
100.0
 50
180.0
  0
MTEXT
  5
288D5
330
26F65
100
AcDbEntity
  8
寸法
 62
     7
 48
50.0
100
AcDbMText
 10
11174.77462120246
 20
9035.733529143646
 30
0.0
 40
120.0
 41
0.0
 71
     5
 72
     1
  1
\A1;a
  7
STYLE1
 73
     1
 44
1.0
1001
ACAD
1000
MTEXTBEGIN
1070
    73
1070
     1
1070
    44
1040
1.0
1070
    74
1070
     0
1000
MTEXTEND
  0
POINT
  5
288D6
330
26F65
100
AcDbEntity
  8
DEFPOINTS
 62
     0
 48
50.0
100
AcDbPoint
 10
10858.6
 20
7977.513207084726
 30
0.0
  0
POINT
  5
288D7
330
26F65
100
AcDbEntity
  8
DEFPOINTS
 62
     0
 48
50.0
100
AcDbPoint
 10
10903.6
 20
8723.272833626808
 30
0.0
  0
POINT
  5
288D8
330
26F65
100
AcDbEntity
  8
DEFPOINTS
 62
     0
 48
50.0
100
AcDbPoint
 10
10903.6
 20
8935.733529143647
 30
0.0
  0
ENDBLK
  5
26F72
330
26F65
100
AcDbEntity
  8
0
 48
50.0
100
AcDbBlockEnd
  0
BLOCK
  5
26F8B
330
26F7F
100
AcDbEntity
  8
0
 48
50.0
100
AcDbBlockBegin
  2
*D28
 70
     1
 10
0.0
 20
0.0
 30
0.0
  3
*D28
  1

  0
LINE
  5
288C3
330
26F7F
100
AcDbEntity
  8
寸法
 62
     0
 48
50.0
370
    -2
100
AcDbLine
 10
5543.600000000008
 20
8743.272833626809
 30
0.0
 11
5543.600000000008
 21
8995.733529143647
 31
0.0
  0
LINE
  5
288C4
330
26F7F
100
AcDbEntity
  8
寸法
 62
     0
 48
50.0
370
    -2
100
AcDbLine
 10
5588.6
 20
7997.513207084726
 30
0.0
 11
5588.6
 21
8995.733529143647
 31
0.0
  0
LINE
  5
288C5
330
26F7F
100
AcDbEntity
  8
寸法
 62
     0
 48
50.0
370
    -2
100
AcDbLine
 10
5588.6
 20
8935.733529143647
 30
0.0
 11
5688.6
 21
8935.733529143647
 31
0.0
  0
LINE
  5
288C6
330
26F7F
100
AcDbEntity
  8
寸法
 62
     0
 48
50.0
370
    -2
100
AcDbLine
 10
5543.600000000008
 20
8935.733529143647
 30
0.0
 11
5206.250757595083
 21
8935.733529143647
 31
0.0
  0
LINE
  5
288C7
330
26F7F
100
AcDbEntity
  8
寸法
 62
     0
 48
50.0
370
    -2
100
AcDbLine
 10
5588.6
 20
8935.733529143647
 30
0.0
 11
5543.600000000008
 21
8935.733529143647
 31
0.0
  0
INSERT
  5
288C8
330
26F7F
100
AcDbEntity
  8
寸法
 62
     0
 48
50.0
370
    -2
100
AcDbBlockReference
  2
_DOTSMALL
 10
5588.6
 20
8935.733529143647
 30
0.0
 41
100.0
 42
100.0
 43
100.0
 50
180.0
  0
INSERT
  5
288C9
330
26F7F
100
AcDbEntity
  8
寸法
 62
     0
 48
50.0
370
    -2
100
AcDbBlockReference
  2
_DOTSMALL
 10
5543.600000000008
 20
8935.733529143647
 30
0.0
 41
100.0
 42
100.0
 43
100.0
  0
MTEXT
  5
288CA
330
26F7F
100
AcDbEntity
  8
寸法
 62
     7
 48
50.0
100
AcDbMText
 10
5272.425378797541
 20
9035.733529143646
 30
0.0
 40
120.0
 41
0.0
 71
     5
 72
     1
  1
\A1;a
  7
STYLE1
 73
     1
 44
1.0
1001
ACAD
1000
MTEXTBEGIN
1070
    73
1070
     1
1070
    44
1040
1.0
1070
    74
1070
     0
1000
MTEXTEND
  0
POINT
  5
288CB
330
26F7F
100
AcDbEntity
  8
DEFPOINTS
 62
     0
 48
50.0
100
AcDbPoint
 10
5543.600000000008
 20
8723.272833626808
 30
0.0
  0
POINT
  5
288CC
330
26F7F
100
AcDbEntity
  8
DEFPOINTS
 62
     0
 48
50.0
100
AcDbPoint
 10
5588.6
 20
7977.513207084726
 30
0.0
  0
POINT
  5
288CD
330
26F7F
100
AcDbEntity
  8
DEFPOINTS
 62
     0
 48
50.0
100
AcDbPoint
 10
5588.6
 20
8935.733529143647
 30
0.0
  0
ENDBLK
  5
26F8C
330
26F7F
100
AcDbEntity
  8
0
 48
50.0
100
AcDbBlockEnd
  0
BLOCK
  5
27D8D
330
27D83
100
AcDbEntity
  8
0
 48
50.0
100
AcDbBlockBegin
  2
*D29
 70
     1
 10
0.0
 20
0.0
 30
0.0
  3
*D29
  1

  0
LINE
  5
288B0
330
27D83
100
AcDbEntity
  8
寸法
 62
     0
 48
50.0
370
    -2
100
AcDbLine
 10
9833.600000000002
 20
5757.513207084727
 30
0.0
 11
9528.531448609053
 21
5757.513207084727
 31
0.0
  0
LINE
  5
288B1
330
27D83
100
AcDbEntity
  8
寸法
 62
     0
 48
50.0
370
    -2
100
AcDbLine
 10
9833.600000000002
 20
6492.513207084728
 30
0.0
 11
9528.531448609053
 21
6492.513207084728
 31
0.0
  0
LINE
  5
288B2
330
27D83
100
AcDbEntity
  8
寸法
 62
     0
 48
50.0
370
    -2
100
AcDbLine
 10
9588.531448609051
 20
5757.513207084727
 30
0.0
 11
9588.531448609051
 21
6492.513207084728
 31
0.0
  0
INSERT
  5
288B3
330
27D83
100
AcDbEntity
  8
寸法
 62
     0
 48
50.0
370
    -2
100
AcDbBlockReference
  2
_DOTSMALL
 10
9588.531448609051
 20
5757.513207084727
 30
0.0
 41
100.0
 42
100.0
 43
100.0
 50
270.0
  0
INSERT
  5
288B4
330
27D83
100
AcDbEntity
  8
寸法
 62
     0
 48
50.0
370
    -2
100
AcDbBlockReference
  2
_DOTSMALL
 10
9588.531448609051
 20
6492.513207084728
 30
0.0
 41
100.0
 42
100.0
 43
100.0
 50
90.0
  0
MTEXT
  5
288B5
330
27D83
100
AcDbEntity
  8
寸法
 62
     7
 48
50.0
100
AcDbMText
 10
9488.53144860905
 20
6125.013207084728
 30
0.0
 40
120.0
 41
0.0
 71
     5
 72
     1
  1
\A1;735
  7
STYLE1
 11
0.0000000000000001
 21
1.0
 31
0.0
 73
     1
 44
1.0
1001
ACAD
1000
MTEXTBEGIN
1070
    73
1070
     1
1070
    44
1040
1.0
1070
    74
1070
     0
1000
MTEXTEND
  0
POINT
  5
288B6
330
27D83
100
AcDbEntity
  8
DEFPOINTS
 62
     0
 48
50.0
100
AcDbPoint
 10
9853.6
 20
5757.513207084727
 30
0.0
  0
POINT
  5
288B7
330
27D83
100
AcDbEntity
  8
DEFPOINTS
 62
     0
 48
50.0
100
AcDbPoint
 10
9853.6
 20
6492.513207084728
 30
0.0
  0
POINT
  5
288B8
330
27D83
100
AcDbEntity
  8
DEFPOINTS
 62
     0
 48
50.0
100
AcDbPoint
 10
9588.531448609051
 20
6492.513207084728
 30
0.0
  0
ENDBLK
  5
27D8E
330
27D83
100
AcDbEntity
  8
0
 48
50.0
100
AcDbBlockEnd
  0
BLOCK
  5
28584
330
28578
100
AcDbEntity
  8
0
 48
50.0
100
AcDbBlockBegin
  2
*D30
 70
     1
 10
0.0
 20
0.0
 30
0.0
  3
*D30
  1

  0
LINE
  5
2889C
330
28578
100
AcDbEntity
  8
寸法
 62
     0
 48
50.0
370
    -2
100
AcDbLine
 10
6926.247484335087
 20
2003.844191682991
 30
0.0
 11
8172.651566694927
 21
2003.844191682991
 31
0.0
  0
LINE
  5
2889D
330
28578
100
AcDbEntity
  8
寸法
 62
     0
 48
50.0
370
    -2
100
AcDbLine
 10
7160.247484335089
 20
1937.894191682991
 30
0.0
 11
8172.651566694927
 21
1937.894191682991
 31
0.0
  0
LINE
  5
2889E
330
28578
100
AcDbEntity
  8
寸法
 62
     0
 48
50.0
370
    -2
100
AcDbLine
 10
8112.651566694927
 20
2003.844191682991
 30
0.0
 11
8112.651566694928
 21
2103.844191682991
 31
0.0
  0
LINE
  5
2889F
330
28578
100
AcDbEntity
  8
寸法
 62
     0
 48
50.0
370
    -2
100
AcDbLine
 10
8112.651566694927
 20
1937.894191682991
 30
0.0
 11
8112.651566694927
 21
1205.876384840025
 31
0.0
  0
LINE
  5
288A0
330
28578
100
AcDbEntity
  8
寸法
 62
     0
 48
50.0
370
    -2
100
AcDbLine
 10
8112.651566694927
 20
2003.844191682991
 30
0.0
 11
8112.651566694927
 21
1937.894191682991
 31
0.0
  0
INSERT
  5
288A1
330
28578
100
AcDbEntity
  8
寸法
 62
     0
 48
50.0
370
    -2
100
AcDbBlockReference
  2
_DOTSMALL
 10
8112.651566694927
 20
2003.844191682991
 30
0.0
 41
100.0
 42
100.0
 43
100.0
 50
270.0
  0
INSERT
  5
288A2
330
28578
100
AcDbEntity
  8
寸法
 62
     0
 48
50.0
370
    -2
100
AcDbBlockReference
  2
_DOTSMALL
 10
8112.651566694927
 20
1937.894191682991
 30
0.0
 41
100.0
 42
100.0
 43
100.0
 50
90.0
  0
MTEXT
  5
288A3
330
28578
100
AcDbEntity
  8
寸法
 62
     7
 48
50.0
100
AcDbMText
 10
8012.639755671306
 20
1471.885288261509
 30
0.0
 40
120.0
 41
0.0
 71
     5
 72
     1
  1
\A1;20～25
  7
STYLE1
 11
0.0000000000000001
 21
1.0
 31
0.0
 73
     1
 44
1.0
1001
ACAD
1000
MTEXTBEGIN
1070
    73
1070
     1
1070
    44
1040
1.0
1070
    74
1070
     0
1000
MTEXTEND
  0
POINT
  5
288A4
330
28578
100
AcDbEntity
  8
DEFPOINTS
 62
     0
 48
50.0
100
AcDbPoint
 10
6906.247484335087
 20
2003.844191682991
 30
0.0
  0
POINT
  5
288A5
330
28578
100
AcDbEntity
  8
DEFPOINTS
 62
     0
 48
50.0
100
AcDbPoint
 10
7140.247484335088
 20
1937.894191682991
 30
0.0
  0
POINT
  5
288A6
330
28578
100
AcDbEntity
  8
DEFPOINTS
 62
     0
 48
50.0
100
AcDbPoint
 10
8112.651566694927
 20
1937.894191682991
 30
0.0
  0
ENDBLK
  5
28585
330
28578
100
AcDbEntity
  8
0
 48
50.0
100
AcDbBlockEnd
  0
BLOCK
  5
2858F
330
28586
100
AcDbEntity
  8
0
 48
50.0
100
AcDbBlockBegin
  2
*D31
 70
     1
 10
0.0
 20
0.0
 30
0.0
  3
*D31
  1

  0
LINE
  5
28893
330
28586
100
AcDbEntity
  8
寸法
 62
     0
 48
50.0
370
    -2
100
AcDbLine
 10
7160.247484335089
 20
1937.894191682991
 30
0.0
 11
7827.583234046143
 21
1937.894191682991
 31
0.0
  0
LINE
  5
28894
330
28586
100
AcDbEntity
  8
寸法
 62
     0
 48
50.0
370
    -2
100
AcDbLine
 10
7160.247484335089
 20
1532.894191682988
 30
0.0
 11
7827.583234046143
 21
1532.894191682987
 31
0.0
  0
LINE
  5
28895
330
28586
100
AcDbEntity
  8
寸法
 62
     0
 48
50.0
370
    -2
100
AcDbLine
 10
7767.583234046142
 20
1937.894191682991
 30
0.0
 11
7767.583234046142
 21
1532.894191682987
 31
0.0
  0
INSERT
  5
28896
330
28586
100
AcDbEntity
  8
寸法
 62
     0
 48
50.0
370
    -2
100
AcDbBlockReference
  2
_DOTSMALL
 10
7767.583234046142
 20
1937.894191682991
 30
0.0
 41
100.0
 42
100.0
 43
100.0
 50
90.0
  0
INSERT
  5
28897
330
28586
100
AcDbEntity
  8
寸法
 62
     0
 48
50.0
370
    -2
100
AcDbBlockReference
  2
_DOTSMALL
 10
7767.583234046142
 20
1532.894191682987
 30
0.0
 41
100.0
 42
100.0
 43
100.0
 50
270.0
  0
MTEXT
  5
28898
330
28586
100
AcDbEntity
  8
寸法
 62
     7
 48
50.0
100
AcDbMText
 10
7667.583234046142
 20
1735.39419168299
 30
0.0
 40
120.0
 41
0.0
 71
     5
 72
     1
  1
\A1;180
  7
STYLE1
 11
0.0000000000000001
 21
1.0
 31
0.0
 73
     1
 44
1.0
1001
ACAD
1000
MTEXTBEGIN
1070
    73
1070
     1
1070
    44
1040
1.0
1070
    74
1070
     0
1000
MTEXTEND
  0
POINT
  5
28899
330
28586
100
AcDbEntity
  8
DEFPOINTS
 62
     0
 48
50.0
100
AcDbPoint
 10
7140.247484335088
 20
1937.894191682991
 30
0.0
  0
POINT
  5
2889A
330
28586
100
AcDbEntity
  8
DEFPOINTS
 62
     0
 48
50.0
100
AcDbPoint
 10
7140.247484335088
 20
1532.894191682988
 30
0.0
  0
POINT
  5
2889B
330
28586
100
AcDbEntity
  8
DEFPOINTS
 62
     0
 48
50.0
100
AcDbPoint
 10
7767.583234046142
 20
1532.894191682987
 30
0.0
  0
ENDBLK
  5
28590
330
28586
100
AcDbEntity
  8
0
 48
50.0
100
AcDbBlockEnd
  0
BLOCK
  5
2859B
330
28591
100
AcDbEntity
  8
0
 48
50.0
100
AcDbBlockBegin
  2
*D32
 70
     1
 10
0.0
 20
0.0
 30
0.0
  3
*D32
  1

  0
LINE
  5
2888A
330
28591
100
AcDbEntity
  8
寸法
 62
     0
 48
50.0
370
    -2
100
AcDbLine
 10
4337.698342863593
 20
777.8941916829893
 30
0.0
 11
4337.698342863593
 21
438.9420852270563
 31
0.0
  0
LINE
  5
2888B
330
28591
100
AcDbEntity
  8
寸法
 62
     0
 48
50.0
370
    -2
100
AcDbLine
 10
4897.698342863594
 20
777.8941916829893
 30
0.0
 11
4897.698342863594
 21
438.9420852270563
 31
0.0
  0
LINE
  5
2888C
330
28591
100
AcDbEntity
  8
寸法
 62
     0
 48
50.0
370
    -2
100
AcDbLine
 10
4337.698342863593
 20
498.9420852270563
 30
0.0
 11
4897.698342863594
 21
498.9420852270563
 31
0.0
  0
INSERT
  5
2888D
330
28591
100
AcDbEntity
  8
寸法
 62
     0
 48
50.0
370
    -2
100
AcDbBlockReference
  2
_DOTSMALL
 10
4337.698342863593
 20
498.9420852270563
 30
0.0
 41
100.0
 42
100.0
 43
100.0
 50
180.0
  0
INSERT
  5
2888E
330
28591
100
AcDbEntity
  8
寸法
 62
     0
 48
50.0
370
    -2
100
AcDbBlockReference
  2
_DOTSMALL
 10
4897.698342863594
 20
498.9420852270563
 30
0.0
 41
100.0
 42
100.0
 43
100.0
  0
MTEXT
  5
2888F
330
28591
100
AcDbEntity
  8
寸法
 62
     7
 48
50.0
100
AcDbMText
 10
4617.698342863593
 20
598.9420852270564
 30
0.0
 40
120.0
 41
0.0
 71
     5
 72
     1
  1
\A1;300
  7
STYLE1
 73
     1
 44
1.0
1001
ACAD
1000
MTEXTBEGIN
1070
    73
1070
     1
1070
    44
1040
1.0
1070
    74
1070
     0
1000
MTEXTEND
  0
POINT
  5
28890
330
28591
100
AcDbEntity
  8
DEFPOINTS
 62
     0
 48
50.0
100
AcDbPoint
 10
4337.698342863593
 20
797.8941916829893
 30
0.0
  0
POINT
  5
28891
330
28591
100
AcDbEntity
  8
DEFPOINTS
 62
     0
 48
50.0
100
AcDbPoint
 10
4897.698342863594
 20
797.8941916829893
 30
0.0
  0
POINT
  5
28892
330
28591
100
AcDbEntity
  8
DEFPOINTS
 62
     0
 48
50.0
100
AcDbPoint
 10
4897.698342863594
 20
498.9420852270563
 30
0.0
  0
ENDBLK
  5
2859C
330
28591
100
AcDbEntity
  8
0
 48
50.0
100
AcDbBlockEnd
  0
BLOCK
  5
285A7
330
2859D
100
AcDbEntity
  8
0
 48
50.0
100
AcDbBlockBegin
  2
*D33
 70
     1
 10
0.0
 20
0.0
 30
0.0
  3
*D33
  1

  0
LINE
  5
28881
330
2859D
100
AcDbEntity
  8
寸法
 62
     0
 48
50.0
370
    -2
100
AcDbLine
 10
4477.698342863592
 20
1937.894191682991
 30
0.0
 11
3677.05340482753
 21
1937.894191682991
 31
0.0
  0
LINE
  5
28882
330
2859D
100
AcDbEntity
  8
寸法
 62
     0
 48
50.0
370
    -2
100
AcDbLine
 10
4217.698342863597
 20
957.8941916829894
 30
0.0
 11
3677.05340482753
 21
957.8941916829894
 31
0.0
  0
LINE
  5
28883
330
2859D
100
AcDbEntity
  8
寸法
 62
     0
 48
50.0
370
    -2
100
AcDbLine
 10
3737.053404827531
 20
1937.894191682991
 30
0.0
 11
3737.053404827531
 21
957.8941916829894
 31
0.0
  0
INSERT
  5
28884
330
2859D
100
AcDbEntity
  8
寸法
 62
     0
 48
50.0
370
    -2
100
AcDbBlockReference
  2
_DOTSMALL
 10
3737.053404827531
 20
1937.894191682991
 30
0.0
 41
100.0
 42
100.0
 43
100.0
 50
90.0
  0
INSERT
  5
28885
330
2859D
100
AcDbEntity
  8
寸法
 62
     0
 48
50.0
370
    -2
100
AcDbBlockReference
  2
_DOTSMALL
 10
3737.053404827531
 20
957.8941916829894
 30
0.0
 41
100.0
 42
100.0
 43
100.0
 50
270.0
  0
MTEXT
  5
28886
330
2859D
100
AcDbEntity
  8
寸法
 62
     7
 48
50.0
100
AcDbMText
 10
3637.05340482753
 20
1447.89419168299
 30
0.0
 40
120.0
 41
0.0
 71
     5
 72
     1
  1
\A1;540
  7
STYLE1
 11
0.0000000000000001
 21
1.0
 31
0.0
 73
     1
 44
1.0
1001
ACAD
1000
MTEXTBEGIN
1070
    73
1070
     1
1070
    44
1040
1.0
1070
    74
1070
     0
1000
MTEXTEND
  0
POINT
  5
28887
330
2859D
100
AcDbEntity
  8
DEFPOINTS
 62
     0
 48
50.0
100
AcDbPoint
 10
4497.698342863593
 20
1937.894191682991
 30
0.0
  0
POINT
  5
28888
330
2859D
100
AcDbEntity
  8
DEFPOINTS
 62
     0
 48
50.0
100
AcDbPoint
 10
4237.698342863597
 20
957.8941916829894
 30
0.0
  0
POINT
  5
28889
330
2859D
100
AcDbEntity
  8
DEFPOINTS
 62
     0
 48
50.0
100
AcDbPoint
 10
3737.053404827531
 20
957.8941916829894
 30
0.0
  0
ENDBLK
  5
285A8
330
2859D
100
AcDbEntity
  8
0
 48
50.0
100
AcDbBlockEnd
  0
BLOCK
  5
285B3
330
285A9
100
AcDbEntity
  8
0
 48
50.0
100
AcDbBlockBegin
  2
*D34
 70
     1
 10
0.0
 20
0.0
 30
0.0
  3
*D34
  1

  0
LINE
  5
28878
330
285A9
100
AcDbEntity
  8
寸法
 62
     0
 48
50.0
370
    -2
100
AcDbLine
 10
4317.698342863592
 20
1257.894191682989
 30
0.0
 11
4099.672950698019
 21
1257.894191682989
 31
0.0
  0
LINE
  5
28879
330
285A9
100
AcDbEntity
  8
寸法
 62
     0
 48
50.0
370
    -2
100
AcDbLine
 10
4217.698342863597
 20
957.8941916829894
 30
0.0
 11
4099.672950698019
 21
957.8941916829894
 31
0.0
  0
LINE
  5
2887A
330
285A9
100
AcDbEntity
  8
寸法
 62
     0
 48
50.0
370
    -2
100
AcDbLine
 10
4159.672950698019
 20
1257.894191682989
 30
0.0
 11
4159.672950698019
 21
957.8941916829894
 31
0.0
  0
INSERT
  5
2887B
330
285A9
100
AcDbEntity
  8
寸法
 62
     0
 48
50.0
370
    -2
100
AcDbBlockReference
  2
_DOTSMALL
 10
4159.672950698019
 20
1257.894191682989
 30
0.0
 41
100.0
 42
100.0
 43
100.0
 50
90.0
  0
INSERT
  5
2887C
330
285A9
100
AcDbEntity
  8
寸法
 62
     0
 48
50.0
370
    -2
100
AcDbBlockReference
  2
_DOTSMALL
 10
4159.672950698019
 20
957.8941916829894
 30
0.0
 41
100.0
 42
100.0
 43
100.0
 50
270.0
  0
MTEXT
  5
2887D
330
285A9
100
AcDbEntity
  8
寸法
 62
     7
 48
50.0
100
AcDbMText
 10
4059.672950698018
 20
1107.894191682989
 30
0.0
 40
120.0
 41
0.0
 71
     5
 72
     1
  1
\A1;150
  7
STYLE1
 11
0.0000000000000001
 21
1.0
 31
0.0
 73
     1
 44
1.0
1001
ACAD
1000
MTEXTBEGIN
1070
    73
1070
     1
1070
    44
1040
1.0
1070
    74
1070
     0
1000
MTEXTEND
  0
POINT
  5
2887E
330
285A9
100
AcDbEntity
  8
DEFPOINTS
 62
     0
 48
50.0
100
AcDbPoint
 10
4337.698342863593
 20
1257.894191682989
 30
0.0
  0
POINT
  5
2887F
330
285A9
100
AcDbEntity
  8
DEFPOINTS
 62
     0
 48
50.0
100
AcDbPoint
 10
4237.698342863597
 20
957.8941916829894
 30
0.0
  0
POINT
  5
28880
330
285A9
100
AcDbEntity
  8
DEFPOINTS
 62
     0
 48
50.0
100
AcDbPoint
 10
4159.672950698019
 20
957.8941916829894
 30
0.0
  0
ENDBLK
  5
285B4
330
285A9
100
AcDbEntity
  8
0
 48
50.0
100
AcDbBlockEnd
  0
BLOCK
  5
285BF
330
285B5
100
AcDbEntity
  8
0
 48
50.0
100
AcDbBlockBegin
  2
*D35
 70
     1
 10
0.0
 20
0.0
 30
0.0
  3
*D35
  1

  0
LINE
  5
28B31
330
285B5
100
AcDbEntity
  8
寸法
 62
     0
 48
50.0
370
    -2
100
AcDbLine
 10
4737.698342863593
 20
1957.894191682991
 30
0.0
 11
4737.698342863593
 21
2522.478951578466
 31
0.0
  0
LINE
  5
28B32
330
285B5
100
AcDbEntity
  8
寸法
 62
     0
 48
50.0
370
    -2
100
AcDbLine
 10
4497.698342863593
 20
1957.894191682991
 30
0.0
 11
4497.698342863593
 21
2522.478951578466
 31
0.0
  0
LINE
  5
28B33
330
285B5
100
AcDbEntity
  8
寸法
 62
     0
 48
50.0
370
    -2
100
AcDbLine
 10
4737.698342863593
 20
2462.478951578466
 30
0.0
 11
4497.698342863593
 21
2462.478951578466
 31
0.0
  0
INSERT
  5
28B34
330
285B5
100
AcDbEntity
  8
寸法
 62
     0
 48
50.0
370
    -2
100
AcDbBlockReference
  2
_DOTSMALL
 10
4737.698342863593
 20
2462.478951578466
 30
0.0
 41
100.0
 42
100.0
 43
100.0
  0
INSERT
  5
28B35
330
285B5
100
AcDbEntity
  8
寸法
 62
     0
 48
50.0
370
    -2
100
AcDbBlockReference
  2
_DOTSMALL
 10
4497.698342863593
 20
2462.478951578466
 30
0.0
 41
100.0
 42
100.0
 43
100.0
 50
180.0
  0
MTEXT
  5
28B36
330
285B5
100
AcDbEntity
  8
寸法
 62
     7
 48
50.0
100
AcDbMText
 10
4617.698342863593
 20
2562.490762602088
 30
0.0
 40
120.0
 41
0.0
 71
     5
 72
     1
  1
\A1;120
  7
STYLE1
 73
     1
 44
1.0
1001
ACAD
1000
MTEXTBEGIN
1070
    73
1070
     1
1070
    44
1040
1.0
1070
    74
1070
     0
1000
MTEXTEND
  0
POINT
  5
28B37
330
285B5
100
AcDbEntity
  8
DEFPOINTS
 62
     0
 48
50.0
100
AcDbPoint
 10
4737.698342863593
 20
1937.894191682991
 30
0.0
  0
POINT
  5
28B38
330
285B5
100
AcDbEntity
  8
DEFPOINTS
 62
     0
 48
50.0
100
AcDbPoint
 10
4497.698342863593
 20
1937.894191682991
 30
0.0
  0
POINT
  5
28B39
330
285B5
100
AcDbEntity
  8
DEFPOINTS
 62
     0
 48
50.0
100
AcDbPoint
 10
4497.698342863593
 20
2462.478951578466
 30
0.0
  0
ENDBLK
  5
285C0
330
285B5
100
AcDbEntity
  8
0
 48
50.0
100
AcDbBlockEnd
  0
ENDSEC
  0
SECTION
  2
ENTITIES
  0
MTEXT
  5
763F
330
747D
100
AcDbEntity
  8
0
100
AcDbMText
 10
302.846345836809
 20
280.1983726409901
 30
0.0
 40
3.5
 41
5.323721266742722
 71
     1
 72
     5
  1

  7
MSMINCHO
 73
     1
 44
1.0
1001
ACAD
1000
MTEXTBEGIN
1070
    73
1070
     1
1070
    44
1040
1.0
1070
    74
1070
     0
1000
MTEXTEND
  0
LINE
  5
10B57
330
747D
100
AcDbEntity
  8
補助
  6
PHANTOM
 62
   230
 48
50.0
100
AcDbLine
 10
139.9999999999995
 20
11409.6
 30
0.0
 11
16307.2
 21
11409.6
 31
0.0
  0
LINE
  5
10B59
330
747D
100
AcDbEntity
  8
仕様書枠
  6
Continuous
 48
50.0
100
AcDbLine
 10
13107.2
 20
1200.0
 30
0.0
 11
13107.2
 21
-0.0000000000000729
 31
0.0
  0
LINE
  5
10B5D
330
747D
100
AcDbEntity
  8
仕様書枠
 48
50.0
100
AcDbLine
 10
140.0
 20
0.0
 30
0.0
 11
16307.2
 21
-0.0000000000000909
 31
0.0
  0
LINE
  5
10B5E
330
747D
100
AcDbEntity
  8
補助
  6
PHANTOM
 62
   230
 48
50.0
100
AcDbLine
 10
16307.2
 20
11409.6
 30
0.0
 11
16307.2
 21
1200.0
 31
0.0
  0
LINE
  5
10B6C
330
747D
100
AcDbEntity
  8
仕様書枠
 48
50.0
100
AcDbLine
 10
13107.2
 20
1200.0
 30
0.0
 11
16307.2
 21
1200.0
 31
0.0
  0
TEXT
  5
10B73
330
747D
100
AcDbEntity
  8
文字
 62
     7
 48
50.0
100
AcDbText
 10
13162.9790565769
 20
895.0906074299405
 30
0.0
 40
200.0
  1
基 礎 図
  7
STYLE2
100
AcDbText
  0
LINE
  5
10B7B
330
747D
100
AcDbEntity
  8
仕様書枠
 48
50.0
100
AcDbLine
 10
13107.2
 20
800.0
 30
0.0
 11
14251.2
 21
800.0
 31
0.0
  0
LINE
  5
10B88
330
747D
100
AcDbEntity
  8
仕様書枠
  6
Continuous
 48
50.0
100
AcDbLine
 10
14251.2
 20
1200.0
 30
0.0
 11
14251.2
 21
800.0
 31
0.0
  0
LINE
  5
16462
330
747D
100
AcDbEntity
  8
仕様書枠
 48
50.0
100
AcDbLine
 10
16307.2
 20
1200.0
 30
0.0
 11
16307.2
 21
-0.0000000000000909
 31
0.0
  0
LINE
  5
1903B
330
747D
100
AcDbEntity
  8
補助
  6
PHANTOM
 62
   230
 48
50.0
100
AcDbLine
 10
140.0
 20
0.0
 30
0.0
 11
139.9999999999995
 21
11409.6
 31
0.0
  0
LEADER
  5
1AC27
330
747D
100
AcDbEntity
  8
寸法
 48
50.0
100
AcDbLeader
  3
INABA_S40G
 73
     0
 74
     0
 75
     1
 40
120.0
 41
680.0
 76
     3
 10
10858.69549961499
 20
6881.715377666537
 30
0.0
 10
11025.46907400128
 20
6605.701464098705
 30
0.0
 10
11125.46907400128
 20
6605.701464098705
 30
0.0
340
1AC28
1001
ACAD
1000
DSTYLE
1002
{
1070
   341
1005
0
1002
}
  0
MTEXT
  5
1AC28
102
{ACAD_REACTORS
330
1AC27
102
}
330
747D
100
AcDbEntity
  8
部品1
 62
     7
 48
50.0
100
AcDbMText
 10
11885.46907400128
 20
6705.701464098705
 30
0.0
 40
120.0
 41
0.0
 71
     6
 72
     1
  1
\A1;床下換気口
  7
STYLE1
 73
     1
 44
1.0
1001
ACAD
1000
MTEXTBEGIN
1070
    73
1070
     1
1070
    44
1040
1.0
1070
    74
1070
     0
1000
MTEXTEND
  0
TEXT
  5
1AC29
330
747D
100
AcDbEntity
  8
部品1
 48
50.0
100
AcDbText
 10
11202.50116389398
 20
5482.422305747938
 30
0.0
 40
80.0
  1
(a=45,b=55,c=75)
  7
STYLE1
100
AcDbText
  0
TEXT
  5
1AC2A
330
747D
100
AcDbEntity
  8
部品1
 48
50.0
100
AcDbText
 10
11043.92215513968
 20
5589.267526616692
 30
0.0
 40
80.0
  1
※a,b,cは屋根の出幅です。
  7
STYLE1
100
AcDbText
  0
MTEXT
  5
1AC2B
102
{ACAD_REACTORS
330
1AC2C
102
}
330
747D
100
AcDbEntity
  8
部品1
 62
     7
 48
50.0
100
AcDbMText
 10
11841.70935112828
 20
5768.578213549766
 30
0.0
 40
120.0
 41
0.0
 71
     6
 72
     1
  1
\A1;屋根の外寸
  7
STYLE1
 73
     1
 44
1.0
1001
ACAD
1000
MTEXTBEGIN
1070
    73
1070
     1
1070
    44
1040
1.0
1070
    74
1070
     0
1000
MTEXTEND
  0
LEADER
  5
1AC2C
330
747D
100
AcDbEntity
  8
寸法
 48
50.0
100
AcDbLeader
  3
INABA_S40G
 73
     0
 74
     0
 75
     1
 40
120.0
 41
688.0
 76
     3
 10
10903.76933893624
 20
5942.467557013342
 30
0.0
 10
11029.70935112828
 20
5668.578213549766
 30
0.0
 10
11129.70935112828
 20
5668.578213549766
 30
0.0
340
1AC2B
1001
ACAD
1000
DSTYLE
1002
{
1070
   341
1005
0
1002
}
  0
TEXT
  5
1C7A1
330
747D
100
AcDbEntity
  8
文字
 62
     7
 48
50.0
100
AcDbText
 10
13188.16259899338
 20
79.80631269190417
 30
0.0
 40
80.0
  1
※布基礎には換気口を設けてください。
  7
STYLE2
100
AcDbText
  0
TEXT
  5
1C7E7
330
747D
100
AcDbEntity
  8
文字
 62
     7
 48
50.0
100
AcDbText
 10
13188.16259899338
 20
246.7109242801889
 30
0.0
 40
80.0
  1
※寒冷地等は地域の実情に合わせた基礎にして下さい。
  7
STYLE2
100
AcDbText
  0
TEXT
  5
1C7E8
330
747D
100
AcDbEntity
  8
文字
 62
     7
 48
50.0
100
AcDbText
 10
14478.98566430227
 20
499.5983841039506
 30
0.0
 40
160.0
  1
ＮＸＰ－１２０ＨＤ
  7
STYLE2
100
AcDbText
  0
TEXT
  5
1C7E9
330
747D
100
AcDbEntity
  8
文字
 62
     7
 48
50.0
100
AcDbText
 10
14641.2525855784
 20
871.1744590657927
 30
0.0
 40
100.0
  1
～一般型・多雪地型～
  7
STYLE2
100
AcDbText
  0
TEXT
  5
1C7EC
330
747D
100
AcDbEntity
  8
文字
 62
     7
 48
50.0
100
AcDbText
 10
14524.131837222
 20
1031.557706291229
 30
0.0
 40
100.0
  1
      <縮尺> S=1/40
  7
STYLE2
100
AcDbText
  0
TEXT
  5
1C7ED
330
747D
100
AcDbEntity
  8
文字
 62
     7
 48
50.0
100
AcDbText
 10
13201.43669998441
 20
477.2740661031257
 30
0.0
 40
160.0
  1
機種名
  7
STYLE2
100
AcDbText
  0
LINE
  5
1C7EF
330
747D
100
AcDbEntity
  8
文字
 62
     7
 48
50.0
100
AcDbLine
 10
13187.2
 20
400.0
 30
0.0
 11
16227.2
 21
400.0
 31
0.0
  0
MTEXT
  5
1D2D5
102
{ACAD_REACTORS
330
1D2D6
102
}
330
747D
100
AcDbEntity
  8
部品1
 62
     7
 48
50.0
100
AcDbMText
 10
12053.99523070988
 20
8328.558277033359
 30
0.0
 40
120.0
 41
0.0
 71
     6
 72
     1
  1
アンカーボルト
  7
STYLE1
 73
     1
 44
1.0
1001
ACAD
1000
MTEXTBEGIN
1070
    73
1070
     1
1070
    44
1040
1.0
1070
    74
1070
     0
1000
MTEXTEND
  0
LEADER
  5
1D2D6
330
747D
100
AcDbEntity
  8
寸法
 48
50.0
100
AcDbLeader
  3
INABA_S40G
 73
     0
 74
     0
 75
     1
 40
120.0
 41
952.0
 76
     3
 10
10735.680085757
 20
7854.721051443437
 30
0.0
 10
10919.64598830496
 20
8228.558277033359
 30
0.0
 10
11019.64598830496
 20
8228.558277033359
 30
0.0
340
1D2D5
1001
ACAD
1000
DSTYLE
1002
{
1070
   341
1005
0
1002
}
  0
LINE
  5
20992
330
747D
100
AcDbEntity
  8
想像線
 48
10.0
100
AcDbLine
 10
10903.6
 20
5702.513207084748
 30
0.0
 11
10903.6
 21
8052.513207084729
 31
0.0
  0
LINE
  5
261AF
330
747D
100
AcDbEntity
  8
部品1
 48
50.0
100
AcDbLine
 10
10628.6
 20
7857.513207084728
 30
0.0
 11
8235.600000000001
 21
7857.513207084728
 31
0.0
  0
DIMENSION
  5
261B0
330
747D
100
AcDbEntity
  8
寸法
 48
50.0
100
AcDbDimension
  2
*D1
 10
8105.6
 20
8723.272833626813
 30
0.0
 11
9420.6
 21
8823.284644650433
 31
0.0
 70
    32
 71
     5
 42
2630.0
  3
INABA_S40G
100
AcDbAlignedDimension
 13
10735.6
 23
7904.51320708473
 33
0.0
 14
8105.6
 24
7904.51320708473
 34
0.0
100
AcDbRotatedDimension
1001
ACAD
1000
DSTYLE
1002
{
1070
   341
1005
0
1002
}
  0
DIMENSION
  5
261B1
330
747D
100
AcDbEntity
  8
寸法
 48
50.0
100
AcDbDimension
  2
*D2
 10
8670.14438614211
 20
5987.513207084748
 30
0.0
 11
8670.144386142109
 21
6257.57226220287
 31
0.0
 70
   160
 71
     5
 42
110.0000000000063
  3
INABA_S40G
100
AcDbAlignedDimension
 13
8782.599867447318
 23
5877.513207084741
 33
0.0
 14
8235.600000000001
 24
5987.513207084748
 34
0.0
 50
90.0
100
AcDbRotatedDimension
1001
ACAD
1000
DSTYLE
1002
{
1070
   341
1005
0
1002
}
  0
DIMENSION
  5
261B2
330
747D
100
AcDbEntity
  8
寸法
 48
50.0
100
AcDbDimension
  2
*D3
 10
8670.14438614211
 20
5877.513207084741
 30
0.0
 11
8670.144386142109
 21
5421.224902116788
 31
0.0
 70
   160
 71
     5
 42
119.9999999999863
  3
INABA_S40G
100
AcDbAlignedDimension
 13
8307.41918098816
 23
5757.513207084755
 33
0.0
 14
8782.599867447318
 24
5877.513207084741
 34
0.0
 50
90.0
100
AcDbRotatedDimension
1001
ACAD
1000
DSTYLE
1002
{
1070
   341
1005
0
1002
}
  0
LINE
  5
261B3
330
747D
100
AcDbEntity
  8
部品1
 48
50.0
100
AcDbLine
 10
10858.6
 20
5757.513207084747
 30
0.0
 11
5588.599999999996
 21
5757.513207084711
 31
0.0
  0
LINE
  5
261B4
330
747D
100
AcDbEntity
  8
部品1
 48
50.0
100
AcDbLine
 10
10628.6
 20
5877.513207084745
 30
0.0
 11
8235.600000000001
 21
5877.51320708474
 31
0.0
  0
DIMENSION
  5
261B5
330
747D
100
AcDbEntity
  8
寸法
 48
50.0
100
AcDbDimension
  2
*D4
 10
8223.600000000001
 20
8504.422972733058
 30
0.0
 11
8673.6
 21
8604.422972733059
 31
0.0
 70
    32
 71
     5
 42
900.0
  3
INABA_S40G
100
AcDbAlignedDimension
 13
9123.600000000001
 23
7442.513207084728
 33
0.0
 14
8223.600000000001
 24
6967.513207084731
 34
0.0
100
AcDbRotatedDimension
1001
ACAD
1000
DSTYLE
1002
{
1070
   341
1005
0
1002
}
  0
LINE
  5
261B8
330
747D
100
AcDbEntity
  8
部品1
 48
50.0
100
AcDbLine
 10
10858.6
 20
7977.513207084729
 30
0.0
 11
5588.6
 21
7977.513207084729
 31
0.0
  0
DIMENSION
  5
261B9
330
747D
100
AcDbEntity
  8
寸法
 48
50.0
100
AcDbDimension
  2
*D5
 10
10858.6
 20
8935.733529143647
 30
0.0
 11
8223.600000000001
 21
9035.745340167268
 31
0.0
 70
    32
 71
     5
 42
5270.0
  3
INABA_S40G
100
AcDbAlignedDimension
 13
5588.6
 23
7977.513207084729
 33
0.0
 14
10858.6
 24
7977.513207084729
 34
0.0
100
AcDbRotatedDimension
1001
ACAD
1000
DSTYLE
1002
{
1070
   341
1005
0
1002
}
  0
DIMENSION
  5
261C9
330
747D
100
AcDbEntity
  8
寸法
 48
50.0
100
AcDbDimension
  2
*D6
 10
7975.6
 20
6300.670745911883
 30
0.0
 11
8105.6
 21
6400.682556935506
 31
0.0
 70
    32
 71
     5
 42
260.0
  3
INABA_S40G
100
AcDbAlignedDimension
 13
8235.600000000001
 23
5987.513207084748
 33
0.0
 14
7975.6
 24
5987.513207084748
 34
0.0
100
AcDbRotatedDimension
1001
ACAD
1000
DSTYLE
1002
{
1070
   341
1005
0
1002
}
  0
LINE
  5
261CB
330
747D
100
AcDbEntity
  8
部品1
 48
50.0
100
AcDbLine
 10
5588.599999999996
 20
5757.51320708473
 30
0.0
 11
5588.6
 21
7977.513207084729
 31
0.0
  0
LINE
  5
261CC
330
747D
100
AcDbEntity
  8
部品1
 48
50.0
100
AcDbLine
 10
5708.6
 20
5987.513207084731
 30
0.0
 11
5708.6
 21
7747.513207084726
 31
0.0
  0
DIMENSION
  5
261CD
330
747D
100
AcDbEntity
  8
寸法
 48
50.0
100
AcDbDimension
  2
*D7
 10
4840.714637266782
 20
5757.51320708473
 30
0.0
 11
4840.714637266781
 21
6867.513207084728
 31
0.0
 70
   160
 71
     5
 42
2220.0
  3
INABA_S40G
100
AcDbAlignedDimension
 13
5588.6
 23
7977.513207084729
 33
0.0
 14
5588.6
 24
5757.51320708473
 34
0.0
 50
90.0
100
AcDbRotatedDimension
1001
ACAD
1000
DSTYLE
1002
{
1070
   341
1005
0
1002
}
  0
DIMENSION
  5
261CE
330
747D
100
AcDbEntity
  8
寸法
 48
50.0
100
AcDbDimension
  2
*D8
 10
5092.657733986181
 20
5880.513207084732
 30
0.0
 11
5092.65773398618
 21
6867.513207084731
 31
0.0
 70
   160
 71
     5
 42
1973.999999999996
  3
INABA_S40G
100
AcDbAlignedDimension
 13
5661.6
 23
7854.513207084727
 33
0.0
 14
5661.600000000007
 24
5880.513207084732
 34
0.0
 50
90.0
100
AcDbRotatedDimension
1001
ACAD
1000
DSTYLE
1002
{
1070
   341
1005
0
1002
}
  0
DIMENSION
  5
2622F
330
747D
100
AcDbEntity
  8
寸法
 48
50.0
100
AcDbDimension
  2
*D9
 10
5092.657733986179
 20
5757.51320708473
 30
0.0
 11
5092.657733986178
 21
5421.982258242136
 31
0.0
 70
   160
 71
     5
 42
123.0000000000018
  3
INABA_S40G
100
AcDbAlignedDimension
 13
5661.600000000007
 23
5880.513207084732
 33
0.0
 14
5588.6
 24
5757.51320708473
 34
0.0
 50
90.0
100
AcDbRotatedDimension
1001
ACAD
1000
DSTYLE
1002
{
1070
   341
1005
0
1002
}
  0
LINE
  5
26233
330
747D
100
AcDbEntity
  8
部品1
 48
50.0
100
AcDbLine
 10
7975.6
 20
5877.513207084738
 30
0.0
 11
5818.6
 21
5877.513207084732
 31
0.0
  0
LINE
  5
26237
330
747D
100
AcDbEntity
  8
部品1
 48
50.0
100
AcDbLine
 10
5818.6
 20
5987.513207084731
 30
0.0
 11
5708.6
 21
5987.513207084731
 31
0.0
  0
CIRCLE
  5
26238
330
747D
100
AcDbEntity
  8
部品1
 48
50.0
100
AcDbCircle
 10
5711.600000000007
 20
5880.513207084732
 30
0.0
 40
35.0
  0
LINE
  5
26239
330
747D
100
AcDbEntity
  8
センター
 48
2.0
100
AcDbLine
 10
5661.600000000007
 20
5880.513207084732
 30
0.0
 11
5761.600000000008
 21
5880.513207084732
 31
0.0
  0
LINE
  5
2623A
330
747D
100
AcDbEntity
  8
センター
 48
2.0
100
AcDbLine
 10
5711.600000000007
 20
5930.513207084731
 30
0.0
 11
5711.600000000007
 21
5830.513207084731
 31
0.0
  0
LINE
  5
2623B
330
747D
100
AcDbEntity
  8
部品1
 48
50.0
100
AcDbLine
 10
5818.6
 20
5877.513207084732
 30
0.0
 11
5818.6
 21
5987.513207084731
 31
0.0
  0
LINE
  5
263FC
330
747D
100
AcDbEntity
  8
部品1
 48
50.0
100
AcDbLine
 10
8235.600000000001
 20
5987.513207084748
 30
0.0
 11
7975.6
 21
5987.513207084748
 31
0.0
  0
LINE
  5
26431
330
747D
100
AcDbEntity
  8
部品1
 48
50.0
100
AcDbLine
 10
7975.600000000001
 20
5877.513207084739
 30
0.0
 11
7975.6
 21
5987.513207084748
 31
0.0
  0
LINE
  5
26432
330
747D
100
AcDbEntity
  8
センター
 48
2.0
100
AcDbLine
 10
8105.600000000007
 20
5930.513207084731
 30
0.0
 11
8105.600000000007
 21
5830.513207084731
 31
0.0
  0
CIRCLE
  5
26433
330
747D
100
AcDbEntity
  8
部品1
 48
50.0
100
AcDbCircle
 10
8105.600000000007
 20
5880.513207084732
 30
0.0
 40
35.0
  0
LINE
  5
26434
330
747D
100
AcDbEntity
  8
センター
 48
2.0
100
AcDbLine
 10
8055.600000000008
 20
5880.513207084732
 30
0.0
 11
8155.600000000008
 21
5880.513207084732
 31
0.0
  0
LINE
  5
2644E
330
747D
100
AcDbEntity
  8
部品1
 48
50.0
100
AcDbLine
 10
8235.600000000001
 20
5877.51320708474
 30
0.0
 11
8235.600000000001
 21
5987.513207084748
 31
0.0
  0
DIMENSION
  5
26450
330
747D
100
AcDbEntity
  8
寸法
 48
50.0
100
AcDbDimension
  2
*D10
 10
5092.657733986179
 20
7854.513207084727
 30
0.0
 11
5092.657733986178
 21
8250.619808802529
 31
0.0
 70
   160
 71
     5
 42
123.0000000000018
  3
INABA_S40G
100
AcDbAlignedDimension
 13
5588.6
 23
7977.513207084729
 33
0.0
 14
5661.6
 24
7854.513207084727
 34
0.0
 50
90.0
100
AcDbRotatedDimension
1001
ACAD
1000
DSTYLE
1002
{
1070
   341
1005
0
1002
}
  0
DIMENSION
  5
26452
330
747D
100
AcDbEntity
  8
寸法
 48
50.0
100
AcDbDimension
  2
*D11
 10
6493.6
 20
8504.422972733058
 30
0.0
 11
6908.599999999999
 21
8604.422972733059
 31
0.0
 70
    32
 71
     5
 42
830.0
  3
INABA_S40G
100
AcDbAlignedDimension
 13
7323.6
 23
7442.513207084728
 33
0.0
 14
6493.6
 24
7442.513207084728
 34
0.0
100
AcDbRotatedDimension
1001
ACAD
1000
DSTYLE
1002
{
1070
   341
1005
0
1002
}
  0
LINE
  5
26453
330
747D
100
AcDbEntity
  8
部品1
 48
50.0
100
AcDbLine
 10
7975.6
 20
7857.513207084728
 30
0.0
 11
5818.6
 21
7857.513207084728
 31
0.0
  0
DIMENSION
  5
26454
330
747D
100
AcDbEntity
  8
寸法
 48
50.0
100
AcDbDimension
  2
*D12
 10
5711.6
 20
8723.272833626813
 30
0.0
 11
6908.599999999999
 21
8823.284644650433
 31
0.0
 70
    32
 71
     5
 42
2394.0
  3
INABA_S40G
100
AcDbAlignedDimension
 13
8105.6
 23
7904.51320708473
 33
0.0
 14
5711.6
 24
7904.51320708473
 34
0.0
100
AcDbRotatedDimension
1001
ACAD
1000
DSTYLE
1002
{
1070
   341
1005
0
1002
}
  0
CIRCLE
  5
26455
330
747D
100
AcDbEntity
  8
部品1
 48
50.0
100
AcDbCircle
 10
5711.6
 20
7854.513207084727
 30
0.0
 40
35.0
  0
LINE
  5
26456
330
747D
100
AcDbEntity
  8
センター
 48
2.0
100
AcDbLine
 10
5711.6
 20
7904.51320708473
 30
0.0
 11
5711.6
 21
7804.513207084728
 31
0.0
  0
DIMENSION
  5
26457
330
747D
100
AcDbEntity
  8
寸法
 48
50.0
100
AcDbDimension
  2
*D13
 10
6035.307249876098
 20
7977.513207084726
 30
0.0
 11
6035.307249876098
 21
8255.596750357614
 31
0.0
 70
   160
 71
     5
 42
119.9999999999991
  3
INABA_S40G
100
AcDbAlignedDimension
 13
5820.349773270519
 23
7857.513207084728
 33
0.0
 14
5818.600000000002
 24
7977.513207084726
 34
0.0
 50
90.0
100
AcDbRotatedDimension
1001
ACAD
1000
DSTYLE
1002
{
1070
   341
1005
0
1002
}
  0
DIMENSION
  5
26458
330
747D
100
AcDbEntity
  8
寸法
 48
50.0
100
AcDbDimension
  2
*D14
 10
5588.6
 20
8504.422972733058
 30
0.0
 11
6041.1
 21
8604.422972733059
 31
0.0
 70
    32
 71
     5
 42
905.0
  3
INABA_S40G
100
AcDbAlignedDimension
 13
6493.6
 23
7442.513207084728
 33
0.0
 14
5588.6
 24
7977.513207084729
 34
0.0
100
AcDbRotatedDimension
1001
ACAD
1000
DSTYLE
1002
{
1070
   341
1005
0
1002
}
  0
DIMENSION
  5
26459
330
747D
100
AcDbEntity
  8
寸法
 48
50.0
100
AcDbDimension
  2
*D15
 10
6035.307249876099
 20
7747.513207084726
 30
0.0
 11
6035.307249876098
 21
7407.454151966614
 31
0.0
 70
   160
 71
     5
 42
110.0000000000018
  3
INABA_S40G
100
AcDbAlignedDimension
 13
5820.349773270519
 23
7857.513207084728
 33
0.0
 14
5818.6
 24
7747.513207084726
 34
0.0
 50
90.0
100
AcDbRotatedDimension
1001
ACAD
1000
DSTYLE
1002
{
1070
   341
1005
0
1002
}
  0
LINE
  5
2645B
330
747D
100
AcDbEntity
  8
部品1
 48
50.0
100
AcDbLine
 10
5708.6
 20
6767.513207084729
 30
0.0
 11
5588.600000000003
 21
6767.513207084729
 31
0.0
  0
LINE
  5
2645C
330
747D
100
AcDbEntity
  8
部品1
 48
50.0
100
AcDbLine
 10
5708.6
 20
6967.513207084728
 30
0.0
 11
5588.600000000003
 21
6967.513207084728
 31
0.0
  0
LINE
  5
2645D
330
747D
100
AcDbEntity
  8
部品1
 48
50.0
100
AcDbLine
 10
5818.599999999999
 20
7747.513207084726
 30
0.0
 11
5708.6
 21
7747.513207084728
 31
0.0
  0
LINE
  5
2645E
330
747D
100
AcDbEntity
  8
センター
 48
2.0
100
AcDbLine
 10
5661.6
 20
7854.513207084727
 30
0.0
 11
5761.600000000001
 21
7854.513207084727
 31
0.0
  0
LINE
  5
2645F
330
747D
100
AcDbEntity
  8
部品1
 48
50.0
100
AcDbLine
 10
5818.599999999999
 20
7747.513207084726
 30
0.0
 11
5818.599999999999
 21
7857.513207084728
 31
0.0
  0
LINE
  5
26460
330
747D
100
AcDbEntity
  8
部品1
 48
50.0
100
AcDbLine
 10
6593.600000000001
 20
7042.513207084727
 30
0.0
 11
6593.600000000001
 21
7442.513207084728
 31
0.0
  0
LINE
  5
26461
330
747D
100
AcDbEntity
  8
部品1
 48
50.0
100
AcDbLine
 10
6393.600000000001
 20
7042.513207084728
 30
0.0
 11
6393.600000000001
 21
7442.513207084728
 31
0.0
  0
LINE
  5
26462
330
747D
100
AcDbEntity
  8
部品1
 48
50.0
100
AcDbLine
 10
6593.600000000001
 20
7042.513207084727
 30
0.0
 11
6393.600000000001
 21
7042.513207084727
 31
0.0
  0
LINE
  5
26463
330
747D
100
AcDbEntity
  8
部品1
 48
50.0
100
AcDbLine
 10
6593.600000000001
 20
7442.513207084728
 30
0.0
 11
6393.600000000001
 21
7442.513207084728
 31
0.0
  0
LINE
  5
26464
330
747D
100
AcDbEntity
  8
センター
 48
2.0
100
AcDbLine
 10
6493.6
 20
7292.513207084728
 30
0.0
 11
6493.6
 21
7192.513207084728
 31
0.0
  0
LINE
  5
26465
330
747D
100
AcDbEntity
  8
センター
 48
2.0
100
AcDbLine
 10
6443.6
 20
7242.513207084728
 30
0.0
 11
6543.600000000001
 21
7242.513207084728
 31
0.0
  0
LINE
  5
26466
330
747D
100
AcDbEntity
  8
部品1
 48
50.0
100
AcDbLine
 10
5987.928907166848
 20
7977.513207084726
 30
0.0
 11
5588.6
 21
7977.513207084729
 31
0.0
  0
DIMENSION
  5
26467
330
747D
100
AcDbEntity
  8
寸法
 48
50.0
100
AcDbDimension
  2
*D16
 10
5588.6
 20
8723.272833626813
 30
0.0
 11
5315.493398282202
 21
8723.272833626813
 31
0.0
 70
   160
 71
     5
 42
123.0
  3
INABA_S40G
100
AcDbAlignedDimension
 13
5711.6
 23
7904.51320708473
 33
0.0
 14
5588.6
 24
7977.513207084729
 34
0.0
100
AcDbRotatedDimension
1001
ACAD
1000
DSTYLE
1002
{
1070
   341
1005
0
1002
}
  0
LINE
  5
26468
330
747D
100
AcDbEntity
  8
センター
 48
2.0
100
AcDbLine
 10
8105.6
 20
7904.51320708473
 30
0.0
 11
8105.6
 21
7804.513207084728
 31
0.0
  0
CIRCLE
  5
26469
330
747D
100
AcDbEntity
  8
部品1
 48
50.0
100
AcDbCircle
 10
8105.6
 20
7854.513207084727
 30
0.0
 40
35.0
  0
LINE
  5
2646A
330
747D
100
AcDbEntity
  8
部品1
 48
50.0
100
AcDbLine
 10
6997.099999999997
 20
7977.513207084729
 30
0.0
 11
6997.099999999997
 21
7857.513207084728
 31
0.0
  0
DIMENSION
  5
2646B
330
747D
100
AcDbEntity
  8
寸法
 48
50.0
100
AcDbDimension
  2
*D17
 10
7323.6
 20
8504.422972733058
 30
0.0
 11
7773.6
 21
8604.422972733059
 31
0.0
 70
    32
 71
     5
 42
900.0
  3
INABA_S40G
100
AcDbAlignedDimension
 13
8223.600000000001
 23
6967.513207084731
 33
0.0
 14
7323.6
 24
7442.513207084728
 34
0.0
100
AcDbRotatedDimension
1001
ACAD
1000
DSTYLE
1002
{
1070
   341
1005
0
1002
}
  0
LINE
  5
2646C
330
747D
100
AcDbEntity
  8
部品1
 48
50.0
100
AcDbLine
 10
6797.099999999997
 20
7977.513207084729
 30
0.0
 11
6797.099999999997
 21
7857.513207084728
 31
0.0
  0
LINE
  5
2646E
330
747D
100
AcDbEntity
  8
部品1
 48
50.0
100
AcDbLine
 10
7223.600000000002
 20
7042.513207084728
 30
0.0
 11
7223.600000000002
 21
7442.513207084728
 31
0.0
  0
LINE
  5
2646F
330
747D
100
AcDbEntity
  8
部品1
 48
50.0
100
AcDbLine
 10
7423.6
 20
7042.513207084727
 30
0.0
 11
7423.6
 21
7442.513207084728
 31
0.0
  0
LINE
  5
26470
330
747D
100
AcDbEntity
  8
部品1
 48
50.0
100
AcDbLine
 10
7423.6
 20
7042.513207084727
 30
0.0
 11
7223.600000000002
 21
7042.513207084727
 31
0.0
  0
LINE
  5
26471
330
747D
100
AcDbEntity
  8
部品1
 48
50.0
100
AcDbLine
 10
7423.6
 20
7442.513207084728
 30
0.0
 11
7223.600000000002
 21
7442.513207084728
 31
0.0
  0
LINE
  5
26472
330
747D
100
AcDbEntity
  8
センター
 48
2.0
100
AcDbLine
 10
7323.6
 20
7292.513207084728
 30
0.0
 11
7323.6
 21
7192.513207084728
 31
0.0
  0
LINE
  5
26473
330
747D
100
AcDbEntity
  8
センター
 48
2.0
100
AcDbLine
 10
7273.6
 20
7242.513207084728
 30
0.0
 11
7373.6
 21
7242.513207084728
 31
0.0
  0
LINE
  5
2647A
330
747D
100
AcDbEntity
  8
部品1
 48
50.0
100
AcDbLine
 10
8235.600000000001
 20
7747.513207084711
 30
0.0
 11
7975.6
 21
7747.513207084711
 31
0.0
  0
LINE
  5
2647B
330
747D
100
AcDbEntity
  8
部品1
 48
50.0
100
AcDbLine
 10
7975.600000000001
 20
7857.513207084728
 30
0.0
 11
7975.6
 21
7747.513207084711
 31
0.0
  0
LINE
  5
2647C
330
747D
100
AcDbEntity
  8
センター
 48
2.0
100
AcDbLine
 10
8055.600000000001
 20
7854.513207084727
 30
0.0
 11
8155.600000000001
 21
7854.513207084727
 31
0.0
  0
LINE
  5
2647D
330
747D
100
AcDbEntity
  8
部品1
 48
50.0
100
AcDbLine
 10
8235.600000000001
 20
7857.513207084728
 30
0.0
 11
8235.600000000001
 21
7747.513207084711
 31
0.0
  0
DIMENSION
  5
2647E
330
747D
100
AcDbEntity
  8
寸法
 48
50.0
100
AcDbDimension
  2
*D18
 10
9588.531448609051
 20
7242.513207084728
 30
0.0
 11
9488.53144860905
 21
6867.513207084728
 31
0.0
 70
    32
 71
     5
 42
750.0
  3
INABA_S40G
100
AcDbAlignedDimension
 13
9853.6
 23
6492.513207084728
 33
0.0
 14
9853.6
 24
7242.513207084728
 34
0.0
 50
90.0
100
AcDbRotatedDimension
1001
ACAD
1000
DSTYLE
1002
{
1070
   341
1005
0
1002
}
  0
LINE
  5
26480
330
747D
100
AcDbEntity
  8
部品1
 48
50.0
100
AcDbLine
 10
10858.6
 20
5757.513207084747
 30
0.0
 11
10858.6
 21
7977.513207084729
 31
0.0
  0
LINE
  5
26481
330
747D
100
AcDbEntity
  8
部品1
 48
50.0
100
AcDbLine
 10
10738.6
 20
5987.513207084749
 30
0.0
 11
10738.6
 21
7747.513207084728
 31
0.0
  0
LINE
  5
264F4
330
747D
100
AcDbEntity
  8
部品1
 48
50.0
100
AcDbLine
 10
9332.100000000018
 20
5877.513207084742
 30
0.0
 11
9332.100000000018
 21
5757.513207084737
 31
0.0
  0
LINE
  5
264F5
330
747D
100
AcDbEntity
  8
部品1
 48
50.0
100
AcDbLine
 10
9532.100000000021
 20
5877.513207084742
 30
0.0
 11
9532.100000000021
 21
5757.513207084737
 31
0.0
  0
LINE
  5
264FA
330
747D
100
AcDbEntity
  8
部品1
 48
50.0
100
AcDbLine
 10
10738.6
 20
5987.513207084745
 30
0.0
 11
10628.6
 21
5987.513207084748
 31
0.0
  0
LINE
  5
264FB
330
747D
100
AcDbEntity
  8
部品1
 48
50.0
100
AcDbLine
 10
10628.6
 20
5877.513207084745
 30
0.0
 11
10628.6
 21
5987.513207084748
 31
0.0
  0
LINE
  5
264FC
330
747D
100
AcDbEntity
  8
センター
 48
2.0
100
AcDbLine
 10
10735.6
 20
5930.513207084731
 30
0.0
 11
10735.6
 21
5830.513207084731
 31
0.0
  0
CIRCLE
  5
264FD
330
747D
100
AcDbEntity
  8
部品1
 48
50.0
100
AcDbCircle
 10
10735.6
 20
5880.513207084732
 30
0.0
 40
35.0
  0
LINE
  5
264FE
330
747D
100
AcDbEntity
  8
センター
 48
2.0
100
AcDbLine
 10
10685.60000000001
 20
5880.513207084732
 30
0.0
 11
10785.60000000001
 21
5880.513207084732
 31
0.0
  0
LINE
  5
26506
330
747D
100
AcDbEntity
  8
部品1
 48
50.0
100
AcDbLine
 10
10053.6
 20
7442.513207084728
 30
0.0
 11
9853.6
 21
7442.513207084728
 31
0.0
  0
LINE
  5
26507
330
747D
100
AcDbEntity
  8
部品1
 48
50.0
100
AcDbLine
 10
10053.6
 20
7042.513207084727
 30
0.0
 11
9853.6
 21
7042.513207084727
 31
0.0
  0
DIMENSION
  5
26508
330
747D
100
AcDbEntity
  8
寸法
 48
50.0
100
AcDbDimension
  2
*D19
 10
9953.600000000001
 20
8504.422972733058
 30
0.0
 11
10406.1
 21
8604.422972733059
 31
0.0
 70
    32
 71
     5
 42
905.0
  3
INABA_S40G
100
AcDbAlignedDimension
 13
10858.6
 23
7977.513207084729
 33
0.0
 14
9953.600000000001
 24
7442.513207084728
 34
0.0
100
AcDbRotatedDimension
1001
ACAD
1000
DSTYLE
1002
{
1070
   341
1005
0
1002
}
  0
LINE
  5
26509
330
747D
100
AcDbEntity
  8
部品1
 48
50.0
100
AcDbLine
 10
9532.099999999998
 20
7977.513207084729
 30
0.0
 11
9532.099999999998
 21
7857.513207084728
 31
0.0
  0
LINE
  5
2650A
330
747D
100
AcDbEntity
  8
部品1
 48
50.0
100
AcDbLine
 10
9332.099999999996
 20
7977.513207084729
 30
0.0
 11
9332.099999999996
 21
7857.513207084728
 31
0.0
  0
DIMENSION
  5
2650C
330
747D
100
AcDbEntity
  8
寸法
 48
50.0
100
AcDbDimension
  2
*D20
 10
9588.531448609051
 20
7977.513207084729
 30
0.0
 11
9488.53144860905
 21
7610.01320708473
 31
0.0
 70
    32
 71
     5
 42
735.0000000000018
  3
INABA_S40G
100
AcDbAlignedDimension
 13
9853.6
 23
7242.513207084728
 33
0.0
 14
9532.099999999998
 24
7977.513207084729
 34
0.0
 50
90.0
100
AcDbRotatedDimension
1001
ACAD
1000
DSTYLE
1002
{
1070
   341
1005
0
1002
}
  0
DIMENSION
  5
2650D
330
747D
100
AcDbEntity
  8
寸法
 48
50.0
100
AcDbDimension
  2
*D21
 10
9123.600000000001
 20
8504.422972733058
 30
0.0
 11
9538.6
 21
8604.422972733059
 31
0.0
 70
    32
 71
     5
 42
830.0
  3
INABA_S40G
100
AcDbAlignedDimension
 13
9953.600000000001
 23
7442.513207084728
 33
0.0
 14
9123.600000000001
 24
7442.513207084728
 34
0.0
100
AcDbRotatedDimension
1001
ACAD
1000
DSTYLE
1002
{
1070
   341
1005
0
1002
}
  0
LINE
  5
2650E
330
747D
100
AcDbEntity
  8
部品1
 48
50.0
100
AcDbLine
 10
9223.600000000001
 20
7442.513207084728
 30
0.0
 11
9023.6
 21
7442.513207084728
 31
0.0
  0
LINE
  5
2650F
330
747D
100
AcDbEntity
  8
部品1
 48
50.0
100
AcDbLine
 10
9223.600000000001
 20
7042.513207084727
 30
0.0
 11
9023.6
 21
7042.513207084727
 31
0.0
  0
LINE
  5
26510
330
747D
100
AcDbEntity
  8
部品1
 48
50.0
100
AcDbLine
 10
9023.6
 20
7042.513207084728
 30
0.0
 11
9023.6
 21
7442.513207084728
 31
0.0
  0
LINE
  5
26511
330
747D
100
AcDbEntity
  8
センター
 48
2.0
100
AcDbLine
 10
9073.6
 20
7242.513207084728
 30
0.0
 11
9173.6
 21
7242.513207084728
 31
0.0
  0
LINE
  5
26512
330
747D
100
AcDbEntity
  8
センター
 48
2.0
100
AcDbLine
 10
9123.600000000001
 20
7292.513207084728
 30
0.0
 11
9123.600000000001
 21
7192.513207084728
 31
0.0
  0
LINE
  5
26513
330
747D
100
AcDbEntity
  8
部品1
 48
50.0
100
AcDbLine
 10
9223.600000000001
 20
7042.513207084727
 30
0.0
 11
9223.600000000001
 21
7442.513207084728
 31
0.0
  0
LINE
  5
26514
330
747D
100
AcDbEntity
  8
部品1
 48
50.0
100
AcDbLine
 10
9853.6
 20
7042.513207084728
 30
0.0
 11
9853.6
 21
7442.513207084728
 31
0.0
  0
LINE
  5
26515
330
747D
100
AcDbEntity
  8
センター
 48
2.0
100
AcDbLine
 10
9903.6
 20
7242.513207084728
 30
0.0
 11
10003.6
 21
7242.513207084728
 31
0.0
  0
LINE
  5
26516
330
747D
100
AcDbEntity
  8
センター
 48
2.0
100
AcDbLine
 10
9953.600000000001
 20
7292.513207084728
 30
0.0
 11
9953.600000000001
 21
7192.513207084728
 31
0.0
  0
LINE
  5
26517
330
747D
100
AcDbEntity
  8
センター
 48
2.0
100
AcDbLine
 10
10735.6
 20
7904.51320708473
 30
0.0
 11
10735.6
 21
7804.513207084728
 31
0.0
  0
CIRCLE
  5
26518
330
747D
100
AcDbEntity
  8
部品1
 48
50.0
100
AcDbCircle
 10
10735.6
 20
7854.513207084727
 30
0.0
 40
35.0
  0
DIMENSION
  5
26519
330
747D
100
AcDbEntity
  8
寸法
 48
50.0
100
AcDbDimension
  2
*D22
 10
10738.6
 20
7519.804539584355
 30
0.0
 11
11128.65905511811
 21
7519.804539584355
 31
0.0
 70
   160
 71
     5
 42
120.0
  3
INABA_S40G
100
AcDbAlignedDimension
 13
10858.6
 23
7536.797803623186
 33
0.0
 14
10738.6
 24
7747.513207084728
 34
0.0
100
AcDbRotatedDimension
1001
ACAD
1000
DSTYLE
1002
{
1070
   341
1005
0
1002
}
  0
LINE
  5
2651A
330
747D
100
AcDbEntity
  8
部品1
 48
50.0
100
AcDbLine
 10
10053.6
 20
7042.513207084727
 30
0.0
 11
10053.6
 21
7442.513207084728
 31
0.0
  0
LINE
  5
2651C
330
747D
100
AcDbEntity
  8
部品1
 48
50.0
100
AcDbLine
 10
10858.6
 20
6767.513207084729
 30
0.0
 11
10738.6
 21
6767.513207084729
 31
0.0
  0
LINE
  5
2651D
330
747D
100
AcDbEntity
  8
部品1
 48
50.0
100
AcDbLine
 10
10858.6
 20
6967.513207084728
 30
0.0
 11
10738.6
 21
6967.513207084728
 31
0.0
  0
DIMENSION
  5
2651E
330
747D
100
AcDbEntity
  8
寸法
 48
50.0
100
AcDbDimension
  2
*D23
 10
10628.6
 20
7519.804539584355
 30
0.0
 11
10358.54094488189
 21
7519.804539584355
 31
0.0
 70
   160
 71
     5
 42
110.0
  3
INABA_S40G
100
AcDbAlignedDimension
 13
10738.6
 23
7747.513207084728
 33
0.0
 14
10628.6
 24
7747.513207084726
 34
0.0
100
AcDbRotatedDimension
1001
ACAD
1000
DSTYLE
1002
{
1070
   341
1005
0
1002
}
  0
LINE
  5
2651F
330
747D
100
AcDbEntity
  8
部品1
 48
50.0
100
AcDbLine
 10
10738.6
 20
7747.513207084728
 30
0.0
 11
10628.6
 21
7747.513207084726
 31
0.0
  0
LINE
  5
26520
330
747D
100
AcDbEntity
  8
部品1
 48
50.0
100
AcDbLine
 10
10628.6
 20
7747.513207084726
 30
0.0
 11
10628.6
 21
7857.513207084728
 31
0.0
  0
LINE
  5
26521
330
747D
100
AcDbEntity
  8
センター
 48
2.0
100
AcDbLine
 10
10685.6
 20
7854.513207084727
 30
0.0
 11
10785.6
 21
7854.513207084727
 31
0.0
  0
DIMENSION
  5
26522
330
747D
100
AcDbEntity
  8
寸法
 48
50.0
100
AcDbDimension
  2
*D24
 10
10735.6
 20
8723.272833626813
 30
0.0
 11
11131.7066017178
 21
8723.272833626813
 31
0.0
 70
   160
 71
     5
 42
123.0
  3
INABA_S40G
100
AcDbAlignedDimension
 13
10858.6
 23
7977.513207084729
 33
0.0
 14
10735.6
 24
7904.51320708473
 34
0.0
100
AcDbRotatedDimension
1001
ACAD
1000
DSTYLE
1002
{
1070
   341
1005
0
1002
}
  0
DIMENSION
  5
26F1A
330
747D
100
AcDbEntity
  8
寸法
 48
50.0
100
AcDbDimension
  2
*D25
 10
4840.714637266787
 20
7977.513207084729
 30
0.0
 11
4740.714637266786
 21
8015.013207084733
 31
0.0
 70
    32
  1
c
 71
     5
 42
75.00000000000182
  3
INABA_S40G
100
AcDbAlignedDimension
 13
5092.657733986179
 23
8052.513207084732
 33
0.0
 14
5582.149705418578
 24
7977.513207084729
 34
0.0
 50
90.0
100
AcDbRotatedDimension
1001
ACAD
1000
DSTYLE
1002
{
1070
   341
1005
0
1002
}
  0
DIMENSION
  5
26F3F
330
747D
100
AcDbEntity
  8
寸法
 48
50.0
100
AcDbDimension
  2
*D26
 10
4840.714637266781
 20
5702.513207084749
 30
0.0
 11
4740.71463726678
 21
5730.01320708474
 31
0.0
 70
    32
  1
b
 71
     5
 42
54.99999999997999
  3
INABA_S40G
100
AcDbAlignedDimension
 13
5588.599999999996
 23
5757.51320708473
 33
0.0
 14
5092.657733986179
 24
5702.513207084749
 34
0.0
 50
90.0
100
AcDbRotatedDimension
1001
ACAD
1000
DSTYLE
1002
{
1070
   341
1005
0
1002
}
  0
DIMENSION
  5
26F64
330
747D
100
AcDbEntity
  8
寸法
 48
50.0
100
AcDbDimension
  2
*D27
 10
10903.6
 20
8935.733529143647
 30
0.0
 11
11174.77462120246
 21
8935.733529143647
 31
0.0
 70
   160
  1
a
 71
     5
 42
45.0
  3
INABA_S40G
100
AcDbAlignedDimension
 13
10858.6
 23
7977.513207084726
 33
0.0
 14
10903.6
 24
8723.272833626808
 34
0.0
100
AcDbRotatedDimension
1001
ACAD
1000
DSTYLE
1002
{
1070
   341
1005
0
1002
}
  0
DIMENSION
  5
26F7E
330
747D
100
AcDbEntity
  8
寸法
 48
50.0
100
AcDbDimension
  2
*D28
 10
5588.6
 20
8935.733529143647
 30
0.0
 11
5272.425378797541
 21
8935.733529143647
 31
0.0
 70
   160
  1
a
 71
     5
 42
44.99999999999181
  3
INABA_S40G
100
AcDbAlignedDimension
 13
5543.600000000008
 23
8723.272833626808
 33
0.0
 14
5588.6
 24
7977.513207084726
 34
0.0
100
AcDbRotatedDimension
1001
ACAD
1000
DSTYLE
1002
{
1070
   341
1005
0
1002
}
  0
LEADER
  5
27D16
330
747D
100
AcDbEntity
  8
寸法
 48
50.0
100
AcDbLeader
  3
INABA_S40G
 73
     0
 74
     0
 75
     1
 40
120.0
 41
149.591883092037
 76
     3
 10
6468.565642998736
 20
6330.537884389035
 30
0.0
 10
6605.84844586138
 20
6054.523970821202
 30
0.0
 10
6705.848445861381
 20
6054.523970821202
 30
0.0
340
27D17
1001
ACAD
1000
DSTYLE
1002
{
1070
   341
1005
0
1002
}
  0
MTEXT
  5
27D17
102
{ACAD_REACTORS
330
27D16
102
}
330
747D
100
AcDbEntity
  8
部品1
 62
     7
 48
50.0
100
AcDbMText
 10
6895.440328953417
 20
6154.523970821202
 30
0.0
 40
120.0
 41
0.0
 71
     6
 72
     1
  1
CB
  7
STYLE1
 73
     1
 44
1.0
1001
ACAD
1000
MTEXTBEGIN
1070
    73
1070
     1
1070
    44
1040
1.0
1070
    74
1070
     0
1000
MTEXTEND
  0
LINE
  5
27D61
330
747D
100
AcDbEntity
  8
部品1
 48
50.0
100
AcDbLine
 10
10053.6
 20
6292.513207084727
 30
0.0
 11
10053.6
 21
6692.513207084728
 31
0.0
  0
LINE
  5
27D62
330
747D
100
AcDbEntity
  8
センター
 48
2.0
100
AcDbLine
 10
9953.600000000001
 20
6542.513207084728
 30
0.0
 11
9953.600000000001
 21
6442.513207084728
 31
0.0
  0
LINE
  5
27D63
330
747D
100
AcDbEntity
  8
センター
 48
2.0
100
AcDbLine
 10
9903.6
 20
6492.513207084728
 30
0.0
 11
10003.6
 21
6492.513207084728
 31
0.0
  0
LINE
  5
27D64
330
747D
100
AcDbEntity
  8
部品1
 48
50.0
100
AcDbLine
 10
9853.6
 20
6292.513207084727
 30
0.0
 11
9853.6
 21
6692.513207084728
 31
0.0
  0
LINE
  5
27D65
330
747D
100
AcDbEntity
  8
部品1
 48
50.0
100
AcDbLine
 10
9223.600000000001
 20
6292.513207084727
 30
0.0
 11
9223.600000000001
 21
6692.513207084728
 31
0.0
  0
LINE
  5
27D66
330
747D
100
AcDbEntity
  8
センター
 48
2.0
100
AcDbLine
 10
9123.600000000001
 20
6542.513207084728
 30
0.0
 11
9123.600000000001
 21
6442.513207084728
 31
0.0
  0
LINE
  5
27D67
330
747D
100
AcDbEntity
  8
センター
 48
2.0
100
AcDbLine
 10
9073.6
 20
6492.513207084728
 30
0.0
 11
9173.6
 21
6492.513207084728
 31
0.0
  0
LINE
  5
27D68
330
747D
100
AcDbEntity
  8
部品1
 48
50.0
100
AcDbLine
 10
9023.6
 20
6292.513207084727
 30
0.0
 11
9023.6
 21
6692.513207084728
 31
0.0
  0
LINE
  5
27D69
330
747D
100
AcDbEntity
  8
部品1
 48
50.0
100
AcDbLine
 10
9223.600000000001
 20
6292.513207084727
 30
0.0
 11
9023.6
 21
6292.513207084727
 31
0.0
  0
LINE
  5
27D6A
330
747D
100
AcDbEntity
  8
部品1
 48
50.0
100
AcDbLine
 10
9223.600000000001
 20
6692.513207084728
 30
0.0
 11
9023.6
 21
6692.513207084728
 31
0.0
  0
LINE
  5
27D6B
330
747D
100
AcDbEntity
  8
部品1
 48
50.0
100
AcDbLine
 10
10053.6
 20
6292.513207084727
 30
0.0
 11
9853.6
 21
6292.513207084727
 31
0.0
  0
LINE
  5
27D6C
330
747D
100
AcDbEntity
  8
部品1
 48
50.0
100
AcDbLine
 10
10053.6
 20
6692.513207084728
 30
0.0
 11
9853.6
 21
6692.513207084728
 31
0.0
  0
LINE
  5
27D6D
330
747D
100
AcDbEntity
  8
センター
 48
2.0
100
AcDbLine
 10
7273.6
 20
6492.513207084728
 30
0.0
 11
7373.6
 21
6492.513207084728
 31
0.0
  0
LINE
  5
27D6E
330
747D
100
AcDbEntity
  8
センター
 48
2.0
100
AcDbLine
 10
7323.6
 20
6542.513207084728
 30
0.0
 11
7323.6
 21
6442.513207084728
 31
0.0
  0
LINE
  5
27D6F
330
747D
100
AcDbEntity
  8
部品1
 48
50.0
100
AcDbLine
 10
7423.6
 20
6692.513207084728
 30
0.0
 11
7223.600000000002
 21
6692.513207084728
 31
0.0
  0
LINE
  5
27D70
330
747D
100
AcDbEntity
  8
部品1
 48
50.0
100
AcDbLine
 10
7423.6
 20
6292.513207084727
 30
0.0
 11
7223.600000000002
 21
6292.513207084727
 31
0.0
  0
LINE
  5
27D71
330
747D
100
AcDbEntity
  8
部品1
 48
50.0
100
AcDbLine
 10
7423.6
 20
6292.513207084727
 30
0.0
 11
7423.6
 21
6692.513207084728
 31
0.0
  0
LINE
  5
27D72
330
747D
100
AcDbEntity
  8
部品1
 48
50.0
100
AcDbLine
 10
7223.600000000002
 20
6292.513207084727
 30
0.0
 11
7223.600000000002
 21
6692.513207084728
 31
0.0
  0
LINE
  5
27D73
330
747D
100
AcDbEntity
  8
センター
 48
2.0
100
AcDbLine
 10
6443.6
 20
6492.513207084728
 30
0.0
 11
6543.600000000001
 21
6492.513207084728
 31
0.0
  0
LINE
  5
27D74
330
747D
100
AcDbEntity
  8
センター
 48
2.0
100
AcDbLine
 10
6493.6
 20
6542.513207084728
 30
0.0
 11
6493.6
 21
6442.513207084728
 31
0.0
  0
LINE
  5
27D75
330
747D
100
AcDbEntity
  8
部品1
 48
50.0
100
AcDbLine
 10
6593.600000000001
 20
6692.513207084728
 30
0.0
 11
6393.600000000001
 21
6692.513207084728
 31
0.0
  0
LINE
  5
27D76
330
747D
100
AcDbEntity
  8
部品1
 48
50.0
100
AcDbLine
 10
6593.600000000001
 20
6292.513207084727
 30
0.0
 11
6393.600000000001
 21
6292.513207084727
 31
0.0
  0
LINE
  5
27D77
330
747D
100
AcDbEntity
  8
部品1
 48
50.0
100
AcDbLine
 10
6393.600000000001
 20
6292.513207084727
 30
0.0
 11
6393.600000000001
 21
6692.513207084728
 31
0.0
  0
LINE
  5
27D78
330
747D
100
AcDbEntity
  8
部品1
 48
50.0
100
AcDbLine
 10
6593.600000000001
 20
6292.513207084727
 30
0.0
 11
6593.600000000001
 21
6692.513207084728
 31
0.0
  0
DIMENSION
  5
27D82
330
747D
100
AcDbEntity
  8
寸法
 48
50.0
100
AcDbDimension
  2
*D29
 10
9588.531448609051
 20
6492.513207084728
 30
0.0
 11
9488.53144860905
 21
6125.013207084728
 31
0.0
 70
    32
 71
     5
 42
735.0000000000009
  3
INABA_S40G
100
AcDbAlignedDimension
 13
9853.6
 23
5757.513207084727
 33
0.0
 14
9853.6
 24
6492.513207084728
 34
0.0
 50
90.0
100
AcDbRotatedDimension
1001
ACAD
1000
DSTYLE
1002
{
1070
   341
1005
0
1002
}
  0
LINE
  5
27DA1
330
747D
100
AcDbEntity
  8
部品1
 48
50.0
100
AcDbLine
 10
8323.6
 20
6967.513207084728
 30
0.0
 11
8123.600000000001
 21
6967.513207084728
 31
0.0
  0
LINE
  5
27DA2
330
747D
100
AcDbEntity
  8
センター
 48
2.0
100
AcDbLine
 10
8223.600000000001
 20
6917.513207084728
 30
0.0
 11
8223.600000000001
 21
6817.513207084728
 31
0.0
  0
LINE
  5
27DA3
330
747D
100
AcDbEntity
  8
部品1
 48
50.0
100
AcDbLine
 10
8323.6
 20
6767.513207084727
 30
0.0
 11
8123.600000000001
 21
6767.513207084727
 31
0.0
  0
LINE
  5
27DA4
330
747D
100
AcDbEntity
  8
センター
 48
2.0
100
AcDbLine
 10
8173.6
 20
6867.513207084728
 30
0.0
 11
8273.6
 21
6867.513207084728
 31
0.0
  0
LINE
  5
27DA5
330
747D
100
AcDbEntity
  8
部品1
 48
50.0
100
AcDbLine
 10
8323.6
 20
6767.513207084727
 30
0.0
 11
8323.6
 21
6967.513207084728
 31
0.0
  0
LINE
  5
27DA6
330
747D
100
AcDbEntity
  8
部品1
 48
50.0
100
AcDbLine
 10
8123.600000000001
 20
6767.513207084729
 30
0.0
 11
8123.600000000001
 21
6967.513207084728
 31
0.0
  0
LINE
  5
28299
330
747D
100
AcDbEntity
  8
想像線
 48
10.0
100
AcDbLine
 10
9678.182651863522
 20
8052.51320708473
 30
0.0
 11
10903.6
 21
8052.513207084729
 31
0.0
  0
LINE
  5
2829A
330
747D
100
AcDbEntity
  8
想像線
 48
10.0
100
AcDbLine
 10
9678.182651863522
 20
5702.513207084749
 30
0.0
 11
10903.6
 21
5702.513207084748
 31
0.0
  0
LINE
  5
28443
330
747D
100
AcDbEntity
  8
細線
 48
50.0
100
AcDbLine
 10
9630.333701081125
 20
1493.2705471163
 30
0.0
 11
9622.295225308185
 21
1523.2705471163
 31
0.0
  0
LINE
  5
28444
330
747D
100
AcDbEntity
  8
細線
100
AcDbLine
 10
9418.583319586065
 20
1523.270547116305
 30
0.0
 11
9533.206964152739
 21
1637.89419168299
 31
0.0
  0
LINE
  5
28445
330
747D
100
AcDbEntity
  8
細線
100
AcDbLine
 10
9376.156912714872
 20
1523.270547116305
 30
0.0
 11
9490.780557281551
 21
1637.89419168299
 31
0.0
  0
LINE
  5
28446
330
747D
100
AcDbEntity
  8
細線
100
AcDbLine
 10
9461.009726457254
 20
1523.270547116305
 30
0.0
 11
9575.633371023933
 21
1637.89419168299
 31
0.0
  0
LINE
  5
28447
330
747D
100
AcDbEntity
  8
細線
 48
50.0
100
AcDbLine
 10
9433.113588712991
 20
1493.270547116303
 30
0.0
 11
9425.075112940053
 21
1523.270547116302
 31
0.0
  0
LINE
  5
28448
330
747D
100
AcDbEntity
  8
細線
 48
50.0
100
AcDbLine
 10
9531.723644897061
 20
1493.2705471163
 30
0.0
 11
9523.685169124123
 21
1523.2705471163
 31
0.0
  0
LINE
  5
28449
330
747D
100
AcDbEntity
  8
部品1
100
AcDbLine
 10
9534.861419590702
 20
1937.894191682991
 30
0.0
 11
9534.861419590702
 21
1637.89419168299
 31
0.0
  0
LINE
  5
2844A
330
747D
100
AcDbEntity
  8
細線
 48
50.0
100
AcDbLine
 10
9235.893476344882
 20
1493.270547116303
 30
0.0
 11
9227.855000571953
 21
1523.270547116302
 31
0.0
  0
LINE
  5
2844B
330
747D
100
AcDbEntity
  8
細線
 48
50.0
100
AcDbLine
 10
9334.503532528945
 20
1493.270547116303
 30
0.0
 11
9326.465056756012
 21
1523.270547116302
 31
0.0
  0
LINE
  5
2844C
330
747D
100
AcDbEntity
  8
細線
100
AcDbLine
 10
8968.583319586064
 20
1523.270547116303
 30
0.0
 11
9083.206964152742
 21
1637.89419168299
 31
0.0
  0
LINE
  5
2844D
330
747D
100
AcDbEntity
  8
細線
100
AcDbLine
 10
9011.009726457253
 20
1523.270547116303
 30
0.0
 11
9125.633371023933
 21
1637.89419168299
 31
0.0
  0
LINE
  5
2844E
330
747D
100
AcDbEntity
  8
細線
 48
50.0
100
AcDbLine
 10
9137.283420160825
 20
1493.270547116303
 30
0.0
 11
9129.244944387892
 21
1523.270547116302
 31
0.0
  0
LINE
  5
2844F
330
747D
100
AcDbEntity
  8
細線
 48
50.0
100
AcDbLine
 10
9038.673363976771
 20
1493.270547116303
 30
0.0
 11
9030.634888203831
 21
1523.270547116302
 31
0.0
  0
LINE
  5
28450
330
747D
100
AcDbEntity
  8
細線
100
AcDbLine
 10
9453.924731349445
 20
1637.89419168299
 30
0.0
 11
9153.924731349446
 21
1937.894191682991
 31
0.0
  0
LINE
  5
28451
330
747D
100
AcDbEntity
  8
細線
100
AcDbLine
 10
9517.564341656225
 20
1637.894191682992
 30
0.0
 11
9217.564341656233
 21
1937.894191682991
 31
0.0
  0
LEADER
  5
28452
330
747D
100
AcDbEntity
  8
寸法
 48
50.0
100
AcDbLeader
  3
INABA_S40G
 73
     0
 74
     0
 75
     1
 40
150.0
 41
231.9898538650463
 76
     3
 10
9448.266934110604
 20
1937.894191682991
 30
0.0
 10
9537.189692402664
 20
2144.327092534414
 30
0.0
 10
9637.189692402664
 20
2144.327092534414
 30
0.0
340
28453
1001
ACAD
1000
DSTYLE
1002
{
1070
   341
1005
0
1002
}
  0
MTEXT
  5
28453
102
{ACAD_REACTORS
330
28452
102
}
330
747D
100
AcDbEntity
  8
寸法
 62
     7
 48
50.0
100
AcDbMText
 10
9677.189692402665
 20
2259.327092534413
 30
0.0
 40
150.0
 41
1.0
 71
     4
 72
     1
  1
\A1;C.B
  7
STYLE1
 73
     1
 44
1.0
1001
ACAD
1000
MTEXTBEGIN
1070
    73
1070
     1
1070
    44
1040
1.0
1070
    74
1070
     0
1000
MTEXTEND
  0
LINE
  5
28454
330
747D
100
AcDbEntity
  8
細線
 48
50.0
100
AcDbLine
 10
9603.538781838011
 20
1393.2705471163
 30
0.0
 11
9611.577257610939
 21
1363.2705471163
 31
0.0
  0
LINE
  5
28455
330
747D
100
AcDbEntity
  8
細線
 48
50.0
100
AcDbLine
 10
9406.318669469893
 20
1393.270547116302
 30
0.0
 11
9414.357145242831
 21
1363.270547116302
 31
0.0
  0
LINE
  5
28456
330
747D
100
AcDbEntity
  8
細線
 48
50.0
100
AcDbLine
 10
9504.928725653952
 20
1393.2705471163
 30
0.0
 11
9512.967201426882
 21
1363.2705471163
 31
0.0
  0
LINE
  5
28457
330
747D
100
AcDbEntity
  8
細線
 48
50.0
100
AcDbLine
 10
9209.098557101773
 20
1393.270547116302
 30
0.0
 11
9217.137032874706
 21
1363.270547116302
 31
0.0
  0
LINE
  5
28458
330
747D
100
AcDbEntity
  8
細線
 48
50.0
100
AcDbLine
 10
9307.708613285832
 20
1393.270547116302
 30
0.0
 11
9315.747089058763
 21
1363.270547116302
 31
0.0
  0
LINE
  5
28459
330
747D
100
AcDbEntity
  8
細線
 48
50.0
100
AcDbLine
 10
9011.878444733662
 20
1393.270547116302
 30
0.0
 11
9019.916920506592
 21
1363.270547116302
 31
0.0
  0
LINE
  5
2845A
330
747D
100
AcDbEntity
  8
細線
 48
50.0
100
AcDbLine
 10
9110.488500917712
 20
1393.270547116302
 30
0.0
 11
9118.526976690651
 21
1363.270547116302
 31
0.0
  0
LINE
  5
2845B
330
747D
100
AcDbEntity
  8
細線
 48
50.0
100
AcDbLine
 10
9201.060081328831
 20
1363.2705471163
 30
0.0
 11
9243.931952117813
 21
1523.2705471163
 31
0.0
  0
LINE
  5
2845C
330
747D
100
AcDbEntity
  8
細線
 48
50.0
100
AcDbLine
 10
9003.839968960722
 20
1363.270547116302
 30
0.0
 11
9046.711839749693
 21
1523.270547116302
 31
0.0
  0
LINE
  5
2845D
330
747D
100
AcDbEntity
  8
細線
 48
50.0
100
AcDbLine
 10
9102.450025144772
 20
1363.270547116302
 30
0.0
 11
9145.321895933752
 21
1523.2705471163
 31
0.0
  0
LINE
  5
2845E
330
747D
100
AcDbEntity
  8
細線
 48
50.0
100
AcDbLine
 10
9398.280193696953
 20
1363.2705471163
 30
0.0
 11
9441.152064485924
 21
1523.270547116302
 31
0.0
  0
LINE
  5
2845F
330
747D
100
AcDbEntity
  8
細線
 48
50.0
100
AcDbLine
 10
9299.670137512892
 20
1363.270547116302
 30
0.0
 11
9342.542008301872
 21
1523.2705471163
 31
0.0
  0
LINE
  5
28460
330
747D
100
AcDbEntity
  8
細線
 48
50.0
100
AcDbLine
 10
9595.500306065064
 20
1363.2705471163
 30
0.0
 11
9638.372176854051
 21
1523.270547116298
 31
0.0
  0
LINE
  5
28461
330
747D
100
AcDbEntity
  8
細線
 48
50.0
100
AcDbLine
 10
9496.890249881015
 20
1363.270547116298
 30
0.0
 11
9539.762120669989
 21
1523.270547116298
 31
0.0
  0
LINE
  5
28462
330
747D
100
AcDbEntity
  8
部品1
100
AcDbLine
 10
9684.861419590705
 20
1637.89419168299
 30
0.0
 11
9684.861419590705
 21
1363.270547116302
 31
0.0
  0
LINE
  5
28463
330
747D
100
AcDbEntity
  8
部品1
100
AcDbLine
 10
10275.37234740984
 20
330.0392136559572
 30
0.0
 11
10275.37234740984
 21
3589.108716404047
 31
0.0
  0
TEXT
  5
28464
330
747D
100
AcDbEntity
  8
部品1
100
AcDbText
 10
6384.82675982846
 20
3364.668801464761
 30
0.0
 40
150.0
  1
基礎詳細
  7
STYLE2
100
AcDbText
  0
LINE
  5
28465
330
747D
100
AcDbEntity
  8
細線
 48
50.0
100
AcDbLine
 10
8940.063307792703
 20
1493.270547116303
 30
0.0
 11
8932.024832019772
 21
1523.270547116302
 31
0.0
  0
LINE
  5
28466
330
747D
100
AcDbEntity
  8
細線
 48
50.0
100
AcDbLine
 10
8841.453251608642
 20
1493.270547116303
 30
0.0
 11
8833.414775835704
 21
1523.270547116302
 31
0.0
  0
LINE
  5
28467
330
747D
100
AcDbEntity
  8
部品1
100
AcDbLine
 10
8934.861419590703
 20
1637.89419168299
 30
0.0
 11
8934.861419590703
 21
1937.894191682991
 31
0.0
  0
LINE
  5
28468
330
747D
100
AcDbEntity
  8
細線
 48
50.0
100
AcDbLine
 10
8814.658332365532
 20
1393.270547116302
 30
0.0
 11
8822.696808138465
 21
1363.270547116302
 31
0.0
  0
LINE
  5
28469
330
747D
100
AcDbEntity
  8
細線
 48
50.0
100
AcDbLine
 10
8913.268388549592
 20
1393.270547116302
 30
0.0
 11
8921.306864322522
 21
1363.270547116302
 31
0.0
  0
LINE
  5
2846A
330
747D
100
AcDbEntity
  8
細線
 48
50.0
100
AcDbLine
 10
7345.719765825506
 20
927.8941916829886
 30
0.0
 11
7337.681290052575
 21
957.8941916829885
 31
0.0
  0
LINE
  5
2846B
330
747D
100
AcDbEntity
  8
部品1
 48
50.0
100
AcDbLine
 10
7400.247484335089
 20
957.8941916829894
 30
0.0
 11
7400.247484335089
 21
797.8941916829893
 31
0.0
  0
LINE
  5
2846C
330
747D
100
AcDbEntity
  8
細線
 48
50.0
100
AcDbLine
 10
8806.619856592591
 20
1363.270547116302
 30
0.0
 11
8849.491727381572
 21
1523.270547116302
 31
0.0
  0
LINE
  5
2846D
330
747D
100
AcDbEntity
  8
部品1
100
AcDbLine
 10
8784.861419590702
 20
1363.270547116298
 30
0.0
 11
8784.861419590702
 21
1637.89419168299
 31
0.0
  0
TEXT
  5
2846E
330
747D
100
AcDbEntity
  8
部品1
 48
50.0
100
AcDbText
 10
8309.519791265406
 20
1304.394515886354
 30
0.0
 40
100.0
  1
ボルトの出
 50
90.0
  7
STYLE2
100
AcDbText
  0
LINE
  5
2846F
330
747D
100
AcDbEntity
  8
細線
 48
50.0
100
AcDbLine
 10
8905.229912776652
 20
1363.2705471163
 30
0.0
 11
8948.101783565633
 21
1523.2705471163
 31
0.0
  0
LINE
  5
28470
330
747D
100
AcDbEntity
  8
部品1
 48
50.0
100
AcDbLine
 10
6919.497484335086
 20
2376.488293069419
 30
0.0
 11
6939.497484335085
 21
2386.488293069419
 31
0.0
  0
LINE
  5
28471
330
747D
100
AcDbEntity
  8
部品1
 48
50.0
100
AcDbLine
 10
6919.497484335086
 20
2416.488293069419
 30
0.0
 11
6939.497484335085
 21
2426.48829306942
 31
0.0
  0
LINE
  5
28472
330
747D
100
AcDbEntity
  8
細線
 48
50.0
100
AcDbLine
 10
6919.497484335086
 20
2376.488293069419
 30
0.0
 11
6919.497484335086
 21
2416.488293069419
 31
0.0
  0
LINE
  5
28473
330
747D
100
AcDbEntity
  8
部品1
 48
50.0
100
AcDbLine
 10
6939.497484335085
 20
2386.488293069419
 30
0.0
 11
6939.497484335085
 21
2426.48829306942
 31
0.0
  0
LINE
  5
28474
330
747D
100
AcDbEntity
  8
部品1
 48
50.0
100
AcDbLine
 10
6919.497484335086
 20
2436.488293069419
 30
0.0
 11
6939.497484335085
 21
2426.48829306942
 31
0.0
  0
LINE
  5
28475
330
747D
100
AcDbEntity
  8
部品1
 48
50.0
100
AcDbLine
 10
6949.497484335086
 20
2262.298302238331
 30
0.0
 11
6949.497484335086
 21
2274.298302238331
 31
0.0
  0
LINE
  5
28476
330
747D
100
AcDbEntity
  8
細線
 48
50.0
100
AcDbLine
 10
6879.497484335087
 20
2376.488293069419
 30
0.0
 11
6879.497484335087
 21
2416.488293069419
 31
0.0
  0
LINE
  5
28477
330
747D
100
AcDbEntity
  8
部品1
 48
50.0
100
AcDbLine
 10
6859.497484335085
 20
2386.488293069419
 30
0.0
 11
6859.497484335085
 21
2426.48829306942
 31
0.0
  0
LINE
  5
28478
330
747D
100
AcDbEntity
  8
部品1
 48
50.0
100
AcDbLine
 10
6859.497484335085
 20
2426.48829306942
 30
0.0
 11
6879.497484335087
 21
2416.488293069419
 31
0.0
  0
LINE
  5
28479
330
747D
100
AcDbEntity
  8
部品1
 48
50.0
100
AcDbLine
 10
6859.497484335085
 20
2386.488293069419
 30
0.0
 11
6879.497484335087
 21
2376.488293069419
 31
0.0
  0
LINE
  5
2847A
330
747D
100
AcDbEntity
  8
部品1
 48
50.0
100
AcDbLine
 10
6859.497484335085
 20
2426.48829306942
 30
0.0
 11
6879.497484335087
 21
2436.488293069419
 31
0.0
  0
LINE
  5
2847B
330
747D
100
AcDbEntity
  8
部品1
100
AcDbLine
 10
6757.747484335087
 20
2009.894191682991
 30
0.0
 11
6807.247484335086
 21
2009.894191682991
 31
0.0
  0
ARC
  5
2847C
330
747D
100
AcDbEntity
  8
部品1
100
AcDbCircle
 10
6754.372484335087
 20
2074.019191682987
 30
0.0
 40
3.375
100
AcDbArc
 50
0.0
 51
90.0
  0
LINE
  5
2847D
330
747D
100
AcDbEntity
  8
部品1
100
AcDbLine
 10
6757.747484335087
 20
2074.019191682987
 30
0.0
 11
6757.747484335087
 21
2009.894191682991
 31
0.0
  0
LINE
  5
2847E
330
747D
100
AcDbEntity
  8
部品1
 48
50.0
100
AcDbLine
 10
6849.497484335086
 20
2274.298302238331
 30
0.0
 11
6849.497484335086
 21
2262.298302238331
 31
0.0
  0
LINE
  5
2847F
330
747D
100
AcDbEntity
  8
部品1
100
AcDbLine
 10
6786.997484335086
 20
2024.844191682991
 30
0.0
 11
6822.197484335089
 21
2024.844191682991
 31
0.0
  0
ARC
  5
28480
330
747D
100
AcDbEntity
  8
部品1
100
AcDbCircle
 10
6786.997484335086
 20
2021.469191682992
 30
0.0
 40
3.375
100
AcDbArc
 50
90.0
 51
180.0
  0
ARC
  5
28481
330
747D
100
AcDbEntity
  8
部品1
100
AcDbCircle
 10
6822.197484335089
 20
2021.469191682992
 30
0.0
 40
3.375
100
AcDbArc
 50
0.0
 51
90.0
  0
LINE
  5
28482
330
747D
100
AcDbEntity
  8
部品1
100
AcDbLine
 10
6888.247484335086
 20
1999.34419168299
 30
0.0
 11
6910.747484335087
 21
1999.34419168299
 31
0.0
  0
LINE
  5
28483
330
747D
100
AcDbEntity
  8
部品1
100
AcDbLine
 10
6892.747484335085
 20
2003.844191682991
 30
0.0
 11
6906.247484335087
 21
2003.844191682991
 31
0.0
  0
ARC
  5
28484
330
747D
100
AcDbEntity
  8
部品1
100
AcDbCircle
 10
6807.247484335086
 20
2006.519191682991
 30
0.0
 40
3.375
100
AcDbArc
 50
0.0
 51
90.0
  0
LINE
  5
28485
330
747D
100
AcDbEntity
  8
部品1
100
AcDbLine
 10
6783.622484335086
 20
2021.469191682992
 30
0.0
 11
6783.622484335086
 21
2000.094191682991
 31
0.0
  0
ARC
  5
28486
330
747D
100
AcDbEntity
  8
部品1
100
AcDbCircle
 10
6701.497484335087
 20
2074.019191682991
 30
0.0
 40
3.375
100
AcDbArc
 50
90.0
 51
180.0
  0
LINE
  5
28487
330
747D
100
AcDbEntity
  8
部品1
100
AcDbLine
 10
6698.122484335087
 20
2063.894191682991
 30
0.0
 11
6698.122484335087
 21
2063.894191682991
 31
0.0
  0
LINE
  5
28488
330
747D
100
AcDbEntity
  8
部品1
100
AcDbLine
 10
6698.122484335087
 20
2063.894191682991
 30
0.0
 11
6698.122484335087
 21
2074.019191682991
 31
0.0
  0
LINE
  5
28489
330
747D
100
AcDbEntity
  8
部品1
100
AcDbLine
 10
6694.747484335086
 20
2050.394191682991
 30
0.0
 11
6694.747484335086
 21
2060.519191682991
 31
0.0
  0
ARC
  5
2848A
330
747D
100
AcDbEntity
  8
部品1
100
AcDbCircle
 10
6698.122484335087
 20
2060.519191682991
 30
0.0
 40
3.375
100
AcDbArc
 50
90.0
 51
180.0
  0
LINE
  5
2848B
330
747D
100
AcDbEntity
  8
部品1
100
AcDbLine
 10
6644.122484335087
 20
2036.894191682991
 30
0.0
 11
6644.122484335087
 21
2047.019191682991
 31
0.0
  0
ARC
  5
2848C
330
747D
100
AcDbEntity
  8
部品1
100
AcDbCircle
 10
6647.497484335087
 20
2047.019191682991
 30
0.0
 40
3.375
100
AcDbArc
 50
90.0
 51
180.0
  0
ARC
  5
2848D
330
747D
100
AcDbEntity
  8
部品1
100
AcDbCircle
 10
6633.997484335086
 20
2030.884071311376
 30
0.0
 40
3.375
100
AcDbArc
 50
104.0362434679075
 51
180.0
  0
LINE
  5
2848E
330
747D
100
AcDbEntity
  8
部品1
100
AcDbLine
 10
6633.178926600587
 20
2034.158302249366
 30
0.0
 11
6644.122484335087
 21
2036.894191682991
 31
0.0
  0
LINE
  5
2848F
330
747D
100
AcDbEntity
  8
部品1
100
AcDbLine
 10
6647.497484335087
 20
2050.394191682991
 30
0.0
 11
6694.747484335086
 21
2050.394191682991
 31
0.0
  0
LINE
  5
28490
330
747D
100
AcDbEntity
  8
部品1
100
AcDbLine
 10
6701.497484335087
 20
2077.39419168299
 30
0.0
 11
6754.372484335087
 21
2077.394191682987
 31
0.0
  0
ELLIPSE
  5
28491
330
747D
100
AcDbEntity
  8
部品1
 48
50.0
100
AcDbEllipse
 10
6899.497484335086
 20
2274.298302238331
 30
0.0
 11
23.0
 21
0.0
 31
0.0
210
0.0
220
0.0
230
1.0
 40
0.3478260869565217
 41
0.0
 42
6.283185307179584
  0
ELLIPSE
  5
28492
330
747D
100
AcDbEntity
  8
部品1
 48
50.0
100
AcDbEllipse
 10
6899.497484335086
 20
2274.298302238331
 30
0.0
 11
50.0
 21
0.0
 31
0.0
210
0.0
220
0.0
230
1.0
 40
0.4
 41
0.0
 42
6.283185307179584
  0
ELLIPSE
  5
28493
330
747D
100
AcDbEntity
  8
部品1
 48
50.0
100
AcDbEllipse
 10
6899.497484335086
 20
2262.298302238331
 30
0.0
 11
50.0
 21
0.0
 31
0.0
210
0.0
220
0.0
230
1.0
 40
0.4
 41
3.141592653589792
 42
6.283185307179584
  0
LINE
  5
28494
330
747D
100
AcDbEntity
  8
部品1
 48
50.0
100
AcDbLine
 10
6879.497484335087
 20
2436.488293069419
 30
0.0
 11
6919.497484335086
 21
2436.488293069419
 31
0.0
  0
ELLIPSE
  5
28495
330
747D
100
AcDbEntity
  8
細線
 48
50.0
100
AcDbEllipse
 10
6899.497484335086
 20
2426.48829306942
 30
0.0
 11
18.45838483258558
 21
0.0
 31
0.0
210
0.0
220
0.0
230
1.0
 40
0.2071254069489396
 41
0.0
 42
6.283185307179584
  0
LINE
  5
28496
330
747D
100
AcDbEntity
  8
部品1
 48
50.0
100
AcDbLine
 10
6879.497484335087
 20
2376.488293069419
 30
0.0
 11
6919.497484335086
 21
2376.488293069419
 31
0.0
  0
LINE
  5
28497
330
747D
100
AcDbEntity
  8
部品1
 48
50.0
100
AcDbLine
 10
6879.497484335087
 20
2416.488293069419
 30
0.0
 11
6919.497484335086
 21
2416.488293069419
 31
0.0
  0
LINE
  5
28498
330
747D
100
AcDbEntity
  8
細線
 48
50.0
100
AcDbLine
 10
6978.247484335089
 20
1739.304544793726
 30
0.0
 11
7140.247484335088
 21
1901.304544793725
 31
0.0
  0
LINE
  5
28499
330
747D
100
AcDbEntity
  8
細線
 48
50.0
100
AcDbLine
 10
6978.247484335089
 20
1705.628584339705
 30
0.0
 11
7140.247484335088
 21
1867.628584339701
 31
0.0
  0
LINE
  5
2849A
330
747D
100
AcDbEntity
  8
部品1
100
AcDbLine
 10
6955.747484335086
 20
1634.144191682989
 30
0.0
 11
6955.747484335086
 21
1656.64419168299
 31
0.0
  0
LINE
  5
2849B
330
747D
100
AcDbEntity
  8
部品1
100
AcDbLine
 10
6978.247484335087
 20
1532.894191682989
 30
0.0
 11
6978.247484335087
 21
1937.894191682991
 31
0.0
  0
LINE
  5
2849C
330
747D
100
AcDbEntity
  8
細線
 48
50.0
100
AcDbLine
 10
6978.247484335089
 20
1671.952623885688
 30
0.0
 11
7140.247484335088
 21
1833.952623885677
 31
0.0
  0
LINE
  5
2849D
330
747D
100
AcDbEntity
  8
部品1
100
AcDbLine
 10
6792.622484335087
 20
1949.844191682991
 30
0.0
 11
6807.247484335086
 21
1949.844191682991
 31
0.0
  0
ARC
  5
2849E
330
747D
100
AcDbEntity
  8
部品1
100
AcDbCircle
 10
6828.947484335079
 20
1953.21919168299
 30
0.0
 40
3.375
100
AcDbArc
 50
180.0
 51
270.0
  0
ARC
  5
2849F
330
747D
100
AcDbEntity
  8
部品1
100
AcDbCircle
 10
6807.247484335086
 20
1953.21919168299
 30
0.0
 40
3.375
100
AcDbArc
 50
270.0
 51
0.0
  0
ARC
  5
284A0
330
747D
100
AcDbEntity
  8
部品1
100
AcDbCircle
 10
6633.997484335086
 20
1953.21919168299
 30
0.0
 40
3.375
100
AcDbArc
 50
180.0
 51
270.0
  0
LINE
  5
284A1
330
747D
100
AcDbEntity
  8
細線
 48
50.0
100
AcDbLine
 10
6622.747484335086
 20
1922.619912057871
 30
0.0
 11
6638.021763960205
 21
1937.894191682991
 31
0.0
  0
LINE
  5
284A2
330
747D
100
AcDbEntity
  8
部品1
100
AcDbLine
 10
6633.997484335086
 20
1949.844191682991
 30
0.0
 11
6648.62248433508
 21
1949.844191682991
 31
0.0
  0
LINE
  5
284A3
330
747D
100
AcDbEntity
  8
細線
 48
50.0
100
AcDbLine
 10
6622.747484335086
 20
1888.943951603863
 30
0.0
 11
6671.697724414219
 21
1937.894191682991
 31
0.0
  0
LINE
  5
284A4
330
747D
100
AcDbEntity
  8
細線
 48
50.0
100
AcDbLine
 10
6622.747484335086
 20
1855.267991149853
 30
0.0
 11
6705.373684868224
 21
1937.894191682991
 31
0.0
  0
ARC
  5
284A5
330
747D
100
AcDbEntity
  8
部品1
100
AcDbCircle
 10
6910.747484335087
 20
1656.64419168299
 30
0.0
 40
22.5
100
AcDbArc
 50
180.0
 51
270.0
  0
LINE
  5
284A6
330
747D
100
AcDbEntity
  8
細線
 48
50.0
100
AcDbLine
 10
6622.747484335086
 20
1585.860307517779
 30
0.0
 11
6820.747484335083
 21
1783.860307517769
 31
0.0
  0
LINE
  5
284A7
330
747D
100
AcDbEntity
  8
部品1
100
AcDbLine
 10
6820.747484335079
 20
1532.894191682989
 30
0.0
 11
6820.747484335085
 21
1937.894191682991
 31
0.0
  0
LINE
  5
284A8
330
747D
100
AcDbEntity
  8
細線
 48
50.0
100
AcDbLine
 10
6622.747484335086
 20
1653.212228425796
 30
0.0
 11
6820.747484335085
 21
1851.212228425794
 31
0.0
  0
LINE
  5
284A9
330
747D
100
AcDbEntity
  8
細線
 48
50.0
100
AcDbLine
 10
6622.747484335086
 20
1619.536267971788
 30
0.0
 11
6820.747484335085
 21
1817.536267971784
 31
0.0
  0
LINE
  5
284AA
330
747D
100
AcDbEntity
  8
部品1
100
AcDbLine
 10
6978.247484335087
 20
1532.894191682988
 30
0.0
 11
6820.747484335079
 21
1532.894191682988
 31
0.0
  0
LINE
  5
284AB
330
747D
100
AcDbEntity
  8
部品1
 48
50.0
100
AcDbLine
 10
6622.747484335086
 20
1937.894191682991
 30
0.0
 11
7140.24748433509
 21
1937.894191682991
 31
0.0
  0
LINE
  5
284AC
330
747D
100
AcDbEntity
  8
部品1
100
AcDbLine
 10
6828.947484335079
 20
1949.844191682991
 30
0.0
 11
7080.622484335079
 21
1949.844191682991
 31
0.0
  0
LINE
  5
284AD
330
747D
100
AcDbEntity
  8
部品1
100
AcDbLine
 10
6910.747484335087
 20
1634.144191682989
 30
0.0
 11
6955.747484335086
 21
1634.144191682989
 31
0.0
  0
LINE
  5
284AE
330
747D
100
AcDbEntity
  8
部品1
100
AcDbLine
 10
6910.747484335087
 20
1656.64419168299
 30
0.0
 11
6955.747484335086
 21
1656.64419168299
 31
0.0
  0
LINE
  5
284AF
330
747D
100
AcDbEntity
  8
部品1
100
AcDbLine
 10
6630.622484335086
 20
1953.21919168299
 30
0.0
 11
6630.622484335086
 21
2030.884071311376
 31
0.0
  0
LINE
  5
284B0
330
747D
100
AcDbEntity
  8
細線
100
AcDbLine
 10
6906.247484335087
 20
1949.844191682991
 30
0.0
 11
6906.247484335087
 21
2003.844191682991
 31
0.0
  0
LINE
  5
284B1
330
747D
100
AcDbEntity
  8
細線
100
AcDbLine
 10
6892.747484335092
 20
1949.844191682991
 30
0.0
 11
6892.747484335085
 21
2003.844191682991
 31
0.0
  0
LINE
  5
284B2
330
747D
100
AcDbEntity
  8
部品1
100
AcDbLine
 10
6810.622484335087
 20
2006.519191682991
 30
0.0
 11
6810.622484335087
 21
1953.21919168299
 31
0.0
  0
LINE
  5
284B3
330
747D
100
AcDbEntity
  8
部品1
100
AcDbLine
 10
6825.572484335089
 20
2021.469191682992
 30
0.0
 11
6825.572484335082
 21
1953.21919168299
 31
0.0
  0
LINE
  5
284B4
330
747D
100
AcDbEntity
  8
部品1
100
AcDbLine
 10
6910.747484335087
 20
1656.64419168299
 30
0.0
 11
6910.747484335082
 21
1999.34419168299
 31
0.0
  0
LINE
  5
284B5
330
747D
100
AcDbEntity
  8
部品1
100
AcDbLine
 10
6888.247484335086
 20
1656.64419168299
 30
0.0
 11
6888.247484335083
 21
1999.34419168299
 31
0.0
  0
TEXT
  5
284B6
330
747D
100
AcDbEntity
  8
部品1
 48
50.0
100
AcDbText
 10
6105.07260704389
 20
1651.942932037059
 30
0.0
 40
100.0
  1
▽G.L
  7
STYLE2
100
AcDbText
  0
LWPOLYLINE
  5
284B7
330
747D
100
AcDbEntity
  8
部品1
 48
50.0
100
AcDbPolyline
 90
        2
 70
     0
 43
10.0
 10
6105.072607043891
 20
1637.894191682992
 10
6622.747484335086
 20
1637.894191682992
  0
LINE
  5
284B8
330
747D
100
AcDbEntity
  8
部品1
 48
50.0
100
AcDbLine
 10
7140.247484335088
 20
1257.894191682989
 30
0.0
 11
7300.247484335087
 21
1257.894191682989
 31
0.0
  0
LINE
  5
284B9
330
747D
100
AcDbEntity
  8
細線
 48
50.0
100
AcDbLine
 10
7148.499653457375
 20
927.8941916829907
 30
0.0
 11
7140.461177684443
 21
957.8941916829894
 31
0.0
  0
LINE
  5
284BA
330
747D
100
AcDbEntity
  8
細線
 48
50.0
100
AcDbLine
 10
7247.109709641446
 20
927.8941916829886
 30
0.0
 11
7239.071233868514
 21
957.8941916829885
 31
0.0
  0
LINE
  5
284BB
330
747D
100
AcDbEntity
  8
細線
 48
50.0
100
AcDbLine
 10
6951.279541089272
 20
927.8941916829907
 30
0.0
 11
6943.24106531634
 21
957.8941916829894
 31
0.0
  0
LINE
  5
284BC
330
747D
100
AcDbEntity
  8
細線
 48
50.0
100
AcDbLine
 10
7049.889597273329
 20
927.8941916829907
 30
0.0
 11
7041.851121500396
 21
957.8941916829894
 31
0.0
  0
LINE
  5
284BD
330
747D
100
AcDbEntity
  8
細線
 48
50.0
100
AcDbLine
 10
7005.060182120579
 20
957.8941916829894
 30
0.0
 11
7300.247484335087
 21
1253.081493897499
 31
0.0
  0
LINE
  5
284BE
330
747D
100
AcDbEntity
  8
細線
 48
50.0
100
AcDbLine
 10
7038.736142574591
 20
957.8941916829894
 30
0.0
 11
7300.247484335087
 21
1219.405533443483
 31
0.0
  0
LINE
  5
284BF
330
747D
100
AcDbEntity
  8
細線
 48
50.0
100
AcDbLine
 10
7072.412103028598
 20
957.8941916829894
 30
0.0
 11
7300.247484335087
 21
1185.729572989485
 31
0.0
  0
LINE
  5
284C0
330
747D
100
AcDbEntity
  8
部品1
 48
50.0
100
AcDbLine
 10
7300.247484335087
 20
1257.894191682989
 30
0.0
 11
7300.247484335087
 21
957.8941916829894
 31
0.0
  0
LINE
  5
284C1
330
747D
100
AcDbEntity
  8
細線
 48
50.0
100
AcDbLine
 10
6754.059428721157
 20
927.8941916829907
 30
0.0
 11
6746.020952948225
 21
957.8941916829894
 31
0.0
  0
LINE
  5
284C2
330
747D
100
AcDbEntity
  8
細線
 48
50.0
100
AcDbLine
 10
6852.669484905215
 20
927.8941916829907
 30
0.0
 11
6844.631009132282
 21
957.8941916829894
 31
0.0
  0
LINE
  5
284C3
330
747D
100
AcDbEntity
  8
細線
 48
50.0
100
AcDbLine
 10
6556.839316353027
 20
927.8941916829907
 30
0.0
 11
6548.800840580094
 21
957.8941916829894
 31
0.0
  0
LINE
  5
284C4
330
747D
100
AcDbEntity
  8
細線
 48
50.0
100
AcDbLine
 10
6655.449372537091
 20
927.8941916829907
 30
0.0
 11
6647.410896764158
 21
957.8941916829894
 31
0.0
  0
LINE
  5
284C5
330
747D
100
AcDbEntity
  8
細線
 48
50.0
100
AcDbLine
 10
6735.652498488504
 20
957.8941916829894
 30
0.0
 11
7140.247484335084
 21
1362.489177529573
 31
0.0
  0
LINE
  5
284C6
330
747D
100
AcDbEntity
  8
細線
 48
50.0
100
AcDbLine
 10
6769.328458942514
 20
957.8941916829894
 30
0.0
 11
7140.247484335088
 21
1328.813217075556
 31
0.0
  0
LINE
  5
284C7
330
747D
100
AcDbEntity
  8
細線
 48
50.0
100
AcDbLine
 10
6803.004419396522
 20
957.8941916829894
 30
0.0
 11
7140.247484335088
 21
1295.137256621562
 31
0.0
  0
LINE
  5
284C8
330
747D
100
AcDbEntity
  8
細線
 48
50.0
100
AcDbLine
 10
7121.704734214276
 20
827.8941916829895
 30
0.0
 11
7129.743209987224
 21
797.8941916829893
 31
0.0
  0
LINE
  5
284C9
330
747D
100
AcDbEntity
  8
細線
 48
50.0
100
AcDbLine
 10
7220.314790398338
 20
827.8941916829886
 30
0.0
 11
7228.353266171271
 21
797.8941916829884
 31
0.0
  0
LINE
  5
284CA
330
747D
100
AcDbEntity
  8
細線
 48
50.0
100
AcDbLine
 10
6924.484621846158
 20
827.8941916829895
 30
0.0
 11
6932.523097619093
 21
797.8941916829893
 31
0.0
  0
LINE
  5
284CB
330
747D
100
AcDbEntity
  8
細線
 48
50.0
100
AcDbLine
 10
7023.094678030219
 20
827.8941916829895
 30
0.0
 11
7031.133153803152
 21
797.8941916829893
 31
0.0
  0
LINE
  5
284CC
330
747D
100
AcDbEntity
  8
細線
 48
50.0
100
AcDbLine
 10
6727.264509478046
 20
827.8941916829895
 30
0.0
 11
6735.302985250979
 21
797.8941916829893
 31
0.0
  0
LINE
  5
284CD
330
747D
100
AcDbEntity
  8
細線
 48
50.0
100
AcDbLine
 10
6825.874565662103
 20
827.8941916829895
 30
0.0
 11
6833.913041435036
 21
797.8941916829893
 31
0.0
  0
LINE
  5
284CE
330
747D
100
AcDbEntity
  8
細線
 48
50.0
100
AcDbLine
 10
6530.044397109915
 20
827.8941916829895
 30
0.0
 11
6538.082872882849
 21
797.8941916829893
 31
0.0
  0
LINE
  5
284CF
330
747D
100
AcDbEntity
  8
細線
 48
50.0
100
AcDbLine
 10
6628.654453293981
 20
827.8941916829895
 30
0.0
 11
6636.692929066916
 21
797.8941916829893
 31
0.0
  0
LINE
  5
284D0
330
747D
100
AcDbEntity
  8
細線
 48
50.0
100
AcDbLine
 10
7113.666258441338
 20
797.8941916829884
 30
0.0
 11
7156.538129230305
 21
957.8941916829894
 31
0.0
  0
LINE
  5
284D1
330
747D
100
AcDbEntity
  8
細線
 48
50.0
100
AcDbLine
 10
7212.2763146254
 20
797.8941916829867
 30
0.0
 11
7255.148185414379
 21
957.8941916829867
 31
0.0
  0
LINE
  5
284D2
330
747D
100
AcDbEntity
  8
細線
 48
50.0
100
AcDbLine
 10
6916.446146073224
 20
797.8941916829884
 30
0.0
 11
6959.318016862205
 21
957.8941916829885
 31
0.0
  0
LINE
  5
284D3
330
747D
100
AcDbEntity
  8
細線
 48
50.0
100
AcDbLine
 10
6719.226033705105
 20
797.8941916829893
 30
0.0
 11
6762.097904494083
 21
957.8941916829894
 31
0.0
  0
LINE
  5
284D4
330
747D
100
AcDbEntity
  8
細線
 48
50.0
100
AcDbLine
 10
6817.836089889162
 20
797.8941916829893
 30
0.0
 11
6860.707960678144
 21
957.8941916829885
 31
0.0
  0
LINE
  5
284D5
330
747D
100
AcDbEntity
  8
細線
 48
50.0
100
AcDbLine
 10
7015.056202257276
 20
797.8941916829893
 30
0.0
 11
7057.92807304626
 21
957.8941916829885
 31
0.0
  0
LINE
  5
284D6
330
747D
100
AcDbEntity
  8
細線
 48
50.0
100
AcDbLine
 10
6522.005921336982
 20
797.8941916829893
 30
0.0
 11
6564.877792125961
 21
957.8941916829894
 31
0.0
  0
LINE
  5
284D7
330
747D
100
AcDbEntity
  8
細線
 48
50.0
100
AcDbLine
 10
6620.615977521037
 20
797.8941916829884
 30
0.0
 11
6663.487848310018
 21
957.8941916829885
 31
0.0
  0
LINE
  5
284D8
330
747D
100
AcDbEntity
  8
細線
 48
50.0
100
AcDbLine
 10
6462.747484335079
 20
1223.804544793722
 30
0.0
 11
6496.837131224355
 21
1257.894191682989
 31
0.0
  0
LINE
  5
284D9
330
747D
100
AcDbEntity
  8
細線
 48
50.0
100
AcDbLine
 10
6362.747484335087
 20
939.5690928902144
 30
0.0
 11
6367.657679757831
 21
957.8941916829894
 31
0.0
  0
LINE
  5
284DA
330
747D
100
AcDbEntity
  8
細線
 48
50.0
100
AcDbLine
 10
6458.229260168963
 20
927.8941916829907
 30
0.0
 11
6450.190784396029
 21
957.8941916829894
 31
0.0
  0
LINE
  5
284DB
330
747D
100
AcDbEntity
  8
部品1
 48
50.0
100
AcDbLine
 10
6462.747484335086
 20
957.8941916829894
 30
0.0
 11
6462.747484335086
 21
1257.894191682989
 31
0.0
  0
LINE
  5
284DC
330
747D
100
AcDbEntity
  8
細線
 48
50.0
100
AcDbLine
 10
6431.434340925851
 20
827.8941916829895
 30
0.0
 11
6439.472816698785
 21
797.8941916829893
 31
0.0
  0
LINE
  5
284DD
330
747D
100
AcDbEntity
  8
部品1
 48
50.0
100
AcDbLine
 10
6362.74748433509
 20
797.8941916829893
 30
0.0
 11
6362.74748433509
 21
957.8941916829894
 31
0.0
  0
LINE
  5
284DE
330
747D
100
AcDbEntity
  8
細線
 48
50.0
100
AcDbLine
 10
6423.395865152911
 20
797.8941916829884
 30
0.0
 11
6466.267735941889
 21
957.8941916829885
 31
0.0
  0
LINE
  5
284DF
330
747D
100
AcDbEntity
  8
細線
 48
50.0
100
AcDbLine
 10
6462.747484335079
 20
1190.128584339709
 30
0.0
 11
6530.513091678367
 21
1257.894191682989
 31
0.0
  0
LINE
  5
284E0
330
747D
100
AcDbEntity
  8
細線
 48
50.0
100
AcDbLine
 10
6462.747484335079
 20
1156.452623885704
 30
0.0
 11
6564.189052132373
 21
1257.894191682989
 31
0.0
  0
LINE
  5
284E1
330
747D
100
AcDbEntity
  8
部品1
 48
50.0
100
AcDbLine
 10
6462.747484335086
 20
1257.894191682989
 30
0.0
 11
6622.747484335086
 21
1257.894191682989
 31
0.0
  0
LINE
  5
284E2
330
747D
100
AcDbEntity
  8
細線
 48
50.0
100
AcDbLine
 10
6466.244814856429
 20
957.8941916829894
 30
0.0
 11
7140.247484335084
 21
1631.896861161647
 31
0.0
  0
LINE
  5
284E3
330
747D
100
AcDbEntity
  8
部品1
100
AcDbLine
 10
7140.247484335084
 20
1257.894191682989
 30
0.0
 11
7140.247484335088
 21
1937.894191682991
 31
0.0
  0
LINE
  5
284E4
330
747D
100
AcDbEntity
  8
部品1
 48
50.0
100
AcDbLine
 10
6622.747484335086
 20
1257.894191682989
 30
0.0
 11
6622.747484335086
 21
1937.894191682991
 31
0.0
  0
LINE
  5
284E5
330
747D
100
AcDbEntity
  8
細線
 48
50.0
100
AcDbLine
 10
6622.747484335086
 20
1350.128584339713
 30
0.0
 11
6820.747484335078
 21
1548.128584339698
 31
0.0
  0
LINE
  5
284E6
330
747D
100
AcDbEntity
  8
細線
 48
50.0
100
AcDbLine
 10
6622.747484335086
 20
1316.452623885704
 30
0.0
 11
6839.18905213238
 21
1532.894191682988
 31
0.0
  0
LINE
  5
284E7
330
747D
100
AcDbEntity
  8
細線
 48
50.0
100
AcDbLine
 10
6622.747484335086
 20
1383.804544793722
 30
0.0
 11
6820.747484335078
 21
1581.804544793716
 31
0.0
  0
LINE
  5
284E8
330
747D
100
AcDbEntity
  8
細線
 48
50.0
100
AcDbLine
 10
6533.596735764446
 20
957.8941916829894
 30
0.0
 11
7140.247484335088
 21
1564.544940253625
 31
0.0
  0
LINE
  5
284E9
330
747D
100
AcDbEntity
  8
細線
 48
50.0
100
AcDbLine
 10
6499.92077531044
 20
957.8941916829894
 30
0.0
 11
7140.24748433509
 21
1598.220900707633
 31
0.0
  0
TEXT
  5
284EA
330
747D
100
AcDbEntity
  8
部品1
 48
50.0
100
AcDbText
 10
7145.689464690622
 20
2382.742542635741
 30
0.0
 40
100.0
  1
基礎ボルト(市販品)
  7
STYLE2
100
AcDbText
  0
DIMENSION
  5
284EB
330
747D
100
AcDbEntity
  8
寸法
 48
50.0
100
AcDbDimension
  2
*D30
 10
8112.651566694927
 20
1937.894191682991
 30
0.0
 11
8112.651566694927
 21
1471.885288261509
 31
0.0
 70
   160
  1
20～25
 71
     5
 42
65.95000000000005
  3
INABA_S40G
100
AcDbAlignedDimension
 13
6906.247484335087
 23
2003.844191682991
 33
0.0
 14
7140.247484335088
 24
1937.894191682991
 34
0.0
 50
90.0
100
AcDbRotatedDimension
1001
ACAD
1000
DSTYLE
1002
{
1070
   341
1005
0
1002
}
  0
LINE
  5
284EC
330
747D
100
AcDbEntity
  8
細線
 48
50.0
100
AcDbLine
 10
7310.886370809456
 20
797.8941916829884
 30
0.0
 11
7353.758241598436
 21
957.8941916829867
 31
0.0
  0
LINE
  5
284ED
330
747D
100
AcDbEntity
  8
部品1
 48
50.0
100
AcDbLine
 10
7400.247484335089
 20
797.8941916829893
 30
0.0
 11
6362.74748433509
 21
797.8941916829893
 31
0.0
  0
LINE
  5
284EE
330
747D
100
AcDbEntity
  8
細線
 48
50.0
100
AcDbLine
 10
7318.924846582395
 20
827.8941916829886
 30
0.0
 11
7326.96332235533
 21
797.8941916829884
 31
0.0
  0
LINE
  5
284EF
330
747D
100
AcDbEntity
  8
部品1
 48
50.0
100
AcDbLine
 10
7400.247484335089
 20
957.8941916829894
 30
0.0
 11
6362.74748433509
 21
957.8941916829894
 31
0.0
  0
LWPOLYLINE
  5
284F0
330
747D
100
AcDbEntity
  8
部品1
 48
50.0
100
AcDbPolyline
 90
        2
 70
     0
 43
10.0
 10
7140.247484335088
 20
1637.894191682992
 10
7507.375563584317
 20
1637.894191682992
  0
DIMENSION
  5
284F1
330
747D
100
AcDbEntity
  8
寸法
 48
50.0
100
AcDbDimension
  2
*D31
 10
7767.583234046142
 20
1532.894191682987
 30
0.0
 11
7667.583234046142
 21
1735.39419168299
 31
0.0
 70
    32
  1
180
 71
     5
 42
405.0000000000031
  3
INABA_S40G
100
AcDbAlignedDimension
 13
7140.247484335088
 23
1937.894191682991
 33
0.0
 14
7140.247484335088
 24
1532.894191682988
 34
0.0
 50
90.0
100
AcDbRotatedDimension
1001
ACAD
1000
DSTYLE
1002
{
1070
   341
1005
0
1002
}
  0
MTEXT
  5
284F2
102
{ACAD_REACTORS
330
284F3
102
}
330
747D
100
AcDbEntity
  8
部品1
 62
     7
 48
50.0
100
AcDbMText
 10
7151.428062359236
 20
2268.373349374529
 30
0.0
 40
100.0
 41
1.0
 71
     4
 72
     1
  1
M10X160
  7
STYLE2
 73
     1
 44
1.0
1001
ACAD
1000
MTEXTBEGIN
1070
    73
1070
     1
1070
    44
1040
1.0
1070
    74
1070
     0
1000
MTEXTEND
  0
LEADER
  5
284F3
330
747D
100
AcDbEntity
  8
寸法
 48
50.0
100
AcDbLeader
  3
INABA_S40G
 73
     0
 74
     0
 75
     1
 40
100.0
 41
543.75
 76
     3
 10
6910.747484335087
 20
1999.34419168299
 30
0.0
 10
7011.428062359236
 20
2178.373349374529
 30
0.0
 10
7111.428062359236
 20
2178.373349374529
 30
0.0
340
284F2
1001
ACAD
1000
DSTYLE
1002
{
1070
   341
1005
0
1002
}
  0
LINE
  5
284F4
330
747D
100
AcDbEntity
  8
細線
 48
50.0
100
AcDbLine
 10
4497.698342863594
 20
1888.943951603863
 30
0.0
 11
4546.648582942725
 21
1937.894191682991
 31
0.0
  0
LINE
  5
284F5
330
747D
100
AcDbEntity
  8
細線
 48
50.0
100
AcDbLine
 10
4497.698342863594
 20
1855.267991149853
 30
0.0
 11
4580.324543396731
 21
1937.894191682991
 31
0.0
  0
LINE
  5
284F6
330
747D
100
AcDbEntity
  8
細線
 48
50.0
100
AcDbLine
 10
4497.698342863594
 20
1922.619912057871
 30
0.0
 11
4512.972622488713
 21
1937.894191682991
 31
0.0
  0
ARC
  5
284F7
330
747D
100
AcDbEntity
  8
部品1
 48
50.0
100
AcDbCircle
 10
4617.698342863594
 20
1763.212228425796
 30
0.0
 40
30.0
100
AcDbArc
 50
0.0
 51
180.0
  0
CIRCLE
  5
284F8
330
747D
100
AcDbEntity
  8
部品1
 48
50.0
100
AcDbCircle
 10
4617.698342863594
 20
1763.212228425796
 30
0.0
 40
10.0
  0
LINE
  5
284F9
330
747D
100
AcDbEntity
  8
細線
 48
50.0
100
AcDbLine
 10
4607.698342863594
 20
1729.536267971788
 30
0.0
 11
4627.698342863594
 21
1749.536267971788
 31
0.0
  0
LINE
  5
284FA
330
747D
100
AcDbEntity
  8
細線
 48
50.0
100
AcDbLine
 10
4647.698342863594
 20
1735.860307517777
 30
0.0
 11
4737.698342863594
 21
1825.860307517779
 31
0.0
  0
LINE
  5
284FB
330
747D
100
AcDbEntity
  8
細線
 48
50.0
100
AcDbLine
 10
4647.139226946078
 20
1768.977152054268
 30
0.0
 11
4737.698342863594
 21
1859.536267971787
 31
0.0
  0
LINE
  5
284FC
330
747D
100
AcDbEntity
  8
細線
 48
50.0
100
AcDbLine
 10
4633.313870991682
 20
1788.827756553885
 30
0.0
 11
4737.698342863594
 21
1893.212228425797
 31
0.0
  0
LINE
  5
284FD
330
747D
100
AcDbEntity
  8
部品1
 48
50.0
100
AcDbLine
 10
4497.698342863594
 20
1937.894191682991
 30
0.0
 11
4737.698342863594
 21
1937.894191682991
 31
0.0
  0
LINE
  5
284FE
330
747D
100
AcDbEntity
  8
細線
 48
50.0
100
AcDbLine
 10
4497.698342863594
 20
1585.860307517779
 30
0.0
 11
4602.391245400212
 21
1690.553210054394
 31
0.0
  0
LINE
  5
284FF
330
747D
100
AcDbEntity
  8
部品1
 48
50.0
100
AcDbLine
 10
4607.698342863594
 20
1690.553210054394
 30
0.0
 11
4587.698342863594
 21
1690.553210054398
 31
0.0
  0
LINE
  5
28500
330
747D
100
AcDbEntity
  8
細線
 48
50.0
100
AcDbLine
 10
4647.698342863601
 20
1466.452623885704
 30
0.0
 11
4737.698342863587
 21
1556.452623885704
 31
0.0
  0
LINE
  5
28501
330
747D
100
AcDbEntity
  8
細線
 48
50.0
100
AcDbLine
 10
4647.698342863594
 20
1533.804544793721
 30
0.0
 11
4737.698342863594
 21
1623.804544793722
 31
0.0
  0
LINE
  5
28502
330
747D
100
AcDbEntity
  8
細線
 48
50.0
100
AcDbLine
 10
4647.698342863601
 20
1500.128584339717
 30
0.0
 11
4737.698342863587
 21
1590.128584339709
 31
0.0
  0
LINE
  5
28503
330
747D
100
AcDbEntity
  8
細線
 48
50.0
100
AcDbLine
 10
4497.698342863594
 20
1619.536267971788
 30
0.0
 11
4587.698342863594
 21
1709.536267971787
 31
0.0
  0
LINE
  5
28504
330
747D
100
AcDbEntity
  8
細線
 48
50.0
100
AcDbLine
 10
4497.698342863594
 20
1653.212228425796
 30
0.0
 11
4587.698342863594
 21
1743.212228425797
 31
0.0
  0
LINE
  5
28505
330
747D
100
AcDbEntity
  8
細線
 48
50.0
100
AcDbLine
 10
4607.698342863594
 20
1695.860307517779
 30
0.0
 11
4627.698342863594
 21
1715.860307517779
 31
0.0
  0
LINE
  5
28506
330
747D
100
AcDbEntity
  8
部品1
 48
50.0
100
AcDbLine
 10
4587.698342863594
 20
1690.553210054398
 30
0.0
 11
4587.698342863594
 21
1763.212228425796
 31
0.0
  0
LINE
  5
28507
330
747D
100
AcDbEntity
  8
部品1
 48
50.0
100
AcDbLine
 10
4607.698342863594
 20
1690.553210054394
 30
0.0
 11
4607.698342863594
 21
1763.212228425796
 31
0.0
  0
LEADER
  5
28508
330
747D
100
AcDbEntity
  8
寸法
 48
50.0
100
AcDbLeader
  3
INABA_S40G
 71
     0
 73
     0
 74
     0
 75
     1
 76
     3
 10
4617.698342863593
 20
1763.212228425796
 30
0.0
 10
4716.305764147838
 20
1689.478643306649
 30
0.0
 10
4816.305764147838
 20
1689.478643306649
 30
0.0
1001
ACAD
1000
DSTYLE
1002
{
1070
   341
1005
0
1002
}
  0
LWPOLYLINE
  5
28509
330
747D
100
AcDbEntity
  8
部品1
 48
50.0
100
AcDbPolyline
 90
        2
 70
     0
 43
10.0
 10
4737.698342863593
 20
1637.894191682992
 10
5255.37322015479
 20
1637.894191682992
  0
MTEXT
  5
2850A
102
{ACAD_REACTORS
330
28508
102
}
330
747D
100
AcDbEntity
  8
寸法
 62
     7
 48
50.0
100
AcDbMText
 10
4841.305764147837
 20
1764.478643306649
 30
0.0
 40
100.0
 41
1.0
 71
     4
 72
     1
  1
D13
  7
STYLE2
 73
     1
 44
1.0
1001
ACAD
1000
MTEXTBEGIN
1070
    73
1070
     1
1070
    44
1040
1.0
1070
    74
1070
     0
1000
MTEXTEND
  0
LINE
  5
2850B
330
747D
100
AcDbEntity
  8
細線
 48
50.0
100
AcDbLine
 10
4924.840455801839
 20
927.8941916829907
 30
0.0
 11
4916.801980028903
 21
957.8941916829894
 31
0.0
  0
LINE
  5
2850C
330
747D
100
AcDbEntity
  8
細線
 48
50.0
100
AcDbLine
 10
4880.011040649087
 20
957.8941916829894
 30
0.0
 11
4897.698342863594
 21
975.5814938974983
 31
0.0
  0
MTEXT
  5
2850D
102
{ACAD_REACTORS
330
2854C
102
}
330
747D
100
AcDbEntity
  8
寸法
 62
     7
 48
50.0
100
AcDbMText
 10
5026.85791762195
 20
1063.647855504273
 30
0.0
 40
100.0
 41
1.0
 71
     4
 72
     1
  1
D10
  7
STYLE2
 73
     1
 44
1.0
1001
ACAD
1000
MTEXTBEGIN
1070
    73
1070
     1
1070
    44
1040
1.0
1070
    74
1070
     0
1000
MTEXTEND
  0
LINE
  5
2850E
330
747D
100
AcDbEntity
  8
部品1
 48
50.0
100
AcDbLine
 10
4897.698342863594
 20
1257.894191682989
 30
0.0
 11
4897.698342863594
 21
957.8941916829894
 31
0.0
  0
LINE
  5
2850F
330
747D
100
AcDbEntity
  8
細線
 48
50.0
100
AcDbLine
 10
4898.045536558726
 20
827.8941916829895
 30
0.0
 11
4906.08401233166
 21
797.8941916829893
 31
0.0
  0
LINE
  5
28510
330
747D
100
AcDbEntity
  8
細線
 48
50.0
100
AcDbLine
 10
4996.655592742783
 20
827.8941916829895
 30
0.0
 11
4997.698342863594
 21
824.0025952525339
 31
0.0
  0
LINE
  5
28511
330
747D
100
AcDbEntity
  8
細線
 48
50.0
100
AcDbLine
 10
4988.617116969848
 20
797.8941916829884
 30
0.0
 11
4997.698342863594
 21
831.7857881134752
 31
0.0
  0
MTEXT
  5
28512
102
{ACAD_REACTORS
330
2854A
102
}
330
747D
100
AcDbEntity
  8
寸法
 62
     7
 48
50.0
100
AcDbMText
 10
5039.871412690158
 20
736.2078345177983
 30
0.0
 40
100.0
 41
1.0
 71
     4
 72
     1
  1
\A1;D10@300
  7
STYLE2
 73
     1
 44
1.0
1001
ACAD
1000
MTEXTBEGIN
1070
    73
1070
     1
1070
    44
1040
1.0
1070
    74
1070
     0
1000
MTEXTEND
  0
LINE
  5
28513
330
747D
100
AcDbEntity
  8
部品1
 48
50.0
100
AcDbLine
 10
4997.698342863596
 20
957.8941916829894
 30
0.0
 11
4997.698342863596
 21
797.8941916829893
 31
0.0
  0
LINE
  5
28514
330
747D
100
AcDbEntity
  8
細線
 48
50.0
100
AcDbLine
 10
4890.007060785785
 20
797.8941916829893
 30
0.0
 11
4932.878931574767
 21
957.8941916829885
 31
0.0
  0
LINE
  5
28515
330
747D
100
AcDbEntity
  8
部品1
 48
50.0
100
AcDbLine
 10
4607.698342863594
 20
1180.553210054394
 30
0.0
 11
4587.698342863594
 21
1180.553210054394
 31
0.0
  0
LINE
  5
28516
330
747D
100
AcDbEntity
  8
細線
 48
50.0
100
AcDbLine
 10
4597.530652210349
 20
1180.553210054394
 30
0.0
 11
4627.698342863602
 21
1210.720900707642
 31
0.0
  0
LINE
  5
28517
330
747D
100
AcDbEntity
  8
細線
 48
50.0
100
AcDbLine
 10
4607.698342863594
 20
1157.044940253628
 30
0.0
 11
4627.698342863602
 21
1177.044940253629
 31
0.0
  0
LINE
  5
28518
330
747D
100
AcDbEntity
  8
細線
 48
50.0
100
AcDbLine
 10
4647.698342863601
 20
1230.720900707642
 30
0.0
 11
4737.698342863587
 21
1320.720900707635
 31
0.0
  0
LINE
  5
28519
330
747D
100
AcDbEntity
  8
細線
 48
50.0
100
AcDbLine
 10
4647.698342863601
 20
1264.396861161652
 30
0.0
 11
4737.698342863587
 21
1354.396861161648
 31
0.0
  0
LINE
  5
2851A
330
747D
100
AcDbEntity
  8
細線
 48
50.0
100
AcDbLine
 10
4647.698342863601
 20
1197.044940253628
 30
0.0
 11
4737.698342863587
 21
1287.044940253629
 31
0.0
  0
LINE
  5
2851B
330
747D
100
AcDbEntity
  8
細線
 48
50.0
100
AcDbLine
 10
4677.95527792503
 20
957.8941916829894
 30
0.0
 11
4797.95638773145
 21
1077.895301489414
 31
0.0
  0
LINE
  5
2851C
330
747D
100
AcDbEntity
  8
部品1
 48
50.0
100
AcDbLine
 10
4827.698342863595
 20
1097.894191682989
 30
0.0
 11
4827.698342863595
 21
1077.894191682989
 31
0.0
  0
LINE
  5
2851D
330
747D
100
AcDbEntity
  8
細線
 48
50.0
100
AcDbLine
 10
4826.23039961778
 20
927.8941916829907
 30
0.0
 11
4818.191923844846
 21
957.8941916829894
 31
0.0
  0
CIRCLE
  5
2851E
330
747D
100
AcDbEntity
  8
部品1
 48
50.0
100
AcDbCircle
 10
4777.698342863594
 20
1107.894191682989
 30
0.0
 40
10.0
  0
LINE
  5
2851F
330
747D
100
AcDbEntity
  8
細線
 48
50.0
100
AcDbLine
 10
4727.620343433722
 20
927.8941916829907
 30
0.0
 11
4719.581867660788
 21
957.8941916829894
 31
0.0
  0
ARC
  5
28520
330
747D
100
AcDbEntity
  8
部品1
 48
50.0
100
AcDbCircle
 10
4617.698342863594
 20
1107.894191682989
 30
0.0
 40
30.0
100
AcDbArc
 50
340.5287793654709
 51
0.0
  0
LINE
  5
28521
330
747D
100
AcDbEntity
  8
細線
 48
50.0
100
AcDbLine
 10
4629.010287249665
 20
927.8941916829907
 30
0.0
 11
4620.971811476731
 21
957.8941916829894
 31
0.0
  0
ARC
  5
28522
330
747D
100
AcDbEntity
  8
部品1
 48
50.0
100
AcDbCircle
 10
4617.698342863594
 20
1107.894191682989
 30
0.0
 40
30.0
100
AcDbArc
 50
180.0
 51
199.471220634529
  0
LINE
  5
28523
330
747D
100
AcDbEntity
  8
細線
 48
50.0
100
AcDbLine
 10
4530.400231065598
 20
927.8941916829907
 30
0.0
 11
4522.361755292666
 21
957.8941916829894
 31
0.0
  0
CIRCLE
  5
28524
330
747D
100
AcDbEntity
  8
部品1
 48
50.0
100
AcDbCircle
 10
4617.698342863594
 20
1107.894191682989
 30
0.0
 40
10.0
  0
LINE
  5
28525
330
747D
100
AcDbEntity
  8
細線
 48
50.0
100
AcDbLine
 10
4644.279317471023
 20
957.8941916829894
 30
0.0
 11
4764.279317471024
 21
1077.894191682989
 31
0.0
  0
LINE
  5
28526
330
747D
100
AcDbEntity
  8
細線
 48
50.0
100
AcDbLine
 10
4610.603357017011
 20
957.8941916829894
 30
0.0
 11
4730.603357017011
 21
1077.894191682989
 31
0.0
  0
LINE
  5
28527
330
747D
100
AcDbEntity
  8
細線
 48
50.0
100
AcDbLine
 10
4481.195673384935
 20
1097.894191682989
 30
0.0
 11
4627.698342863594
 21
1244.396861161648
 31
0.0
  0
LINE
  5
28528
330
747D
100
AcDbEntity
  8
細線
 48
50.0
100
AcDbLine
 10
4548.547594292954
 20
1097.894191682989
 30
0.0
 11
4587.698342863594
 21
1137.044940253629
 31
0.0
  0
LINE
  5
28529
330
747D
100
AcDbEntity
  8
部品1
 48
50.0
100
AcDbLine
 10
4587.698342863594
 20
1180.553210054394
 30
0.0
 11
4587.698342863594
 21
1107.894191682989
 31
0.0
  0
LINE
  5
2852A
330
747D
100
AcDbEntity
  8
細線
 48
50.0
100
AcDbLine
 10
4514.871633838948
 20
1097.894191682989
 30
0.0
 11
4587.698342863594
 21
1170.720900707638
 31
0.0
  0
LINE
  5
2852B
330
747D
100
AcDbEntity
  8
部品1
 48
50.0
100
AcDbLine
 10
4607.698342863594
 20
1180.553210054394
 30
0.0
 11
4607.698342863594
 21
1107.894191682989
 31
0.0
  0
LINE
  5
2852C
330
747D
100
AcDbEntity
  8
細線
 48
50.0
100
AcDbLine
 10
4337.698342863586
 20
1190.128584339709
 30
0.0
 11
4405.463950206875
 21
1257.894191682989
 31
0.0
  0
LINE
  5
2852D
330
747D
100
AcDbEntity
  8
細線
 48
50.0
100
AcDbLine
 10
4337.698342863586
 20
1223.804544793722
 30
0.0
 11
4371.787989752862
 21
1257.894191682989
 31
0.0
  0
LINE
  5
2852E
330
747D
100
AcDbEntity
  8
細線
 48
50.0
100
AcDbLine
 10
4337.698342863586
 20
1156.452623885704
 30
0.0
 11
4439.139910660879
 21
1257.894191682989
 31
0.0
  0
LINE
  5
2852F
330
747D
100
AcDbEntity
  8
部品1
 48
50.0
100
AcDbLine
 10
4407.698342863594
 20
1097.894191682989
 30
0.0
 11
4407.698342863594
 21
1077.894191682989
 31
0.0
  0
LINE
  5
28530
330
747D
100
AcDbEntity
  8
細線
 48
50.0
100
AcDbLine
 10
4431.790174881535
 20
927.8941916829907
 30
0.0
 11
4423.751699108601
 21
957.8941916829894
 31
0.0
  0
LINE
  5
28531
330
747D
100
AcDbEntity
  8
細線
 48
50.0
100
AcDbLine
 10
4333.18011869747
 20
927.8941916829907
 30
0.0
 11
4325.141642924537
 21
957.8941916829894
 31
0.0
  0
LINE
  5
28532
330
747D
100
AcDbEntity
  8
細線
 48
50.0
100
AcDbLine
 10
4237.698342863594
 20
939.5690928902144
 30
0.0
 11
4242.608538286337
 21
957.8941916829894
 31
0.0
  0
LINE
  5
28533
330
747D
100
AcDbEntity
  8
部品1
 48
50.0
100
AcDbLine
 10
4337.698342863594
 20
957.8941916829894
 30
0.0
 11
4337.698342863594
 21
1257.894191682989
 31
0.0
  0
LINE
  5
28534
330
747D
100
AcDbEntity
  8
部品1
 48
50.0
100
AcDbLine
 10
4407.698342863594
 20
1077.894191682989
 30
0.0
 11
4827.698342863595
 21
1077.894191682989
 31
0.0
  0
LINE
  5
28535
330
747D
100
AcDbEntity
  8
部品1
 48
50.0
100
AcDbLine
 10
4407.698342863594
 20
1097.894191682989
 30
0.0
 11
4827.698342863595
 21
1097.894191682989
 31
0.0
  0
LINE
  5
28536
330
747D
100
AcDbEntity
  8
細線
 48
50.0
100
AcDbLine
 10
4408.547594292953
 20
957.8941916829894
 30
0.0
 11
4528.547594292954
 21
1077.894191682989
 31
0.0
  0
CIRCLE
  5
28537
330
747D
100
AcDbEntity
  8
部品1
 48
50.0
100
AcDbCircle
 10
4457.698342863594
 20
1107.894191682989
 30
0.0
 40
10.0
  0
LINE
  5
28538
330
747D
100
AcDbEntity
  8
細線
 48
50.0
100
AcDbLine
 10
4374.871633838949
 20
957.8941916829894
 30
0.0
 11
4494.87163383895
 21
1077.894191682989
 31
0.0
  0
LINE
  5
28539
330
747D
100
AcDbEntity
  8
細線
 48
50.0
100
AcDbLine
 10
4341.195673384937
 20
957.8941916829894
 30
0.0
 11
4461.195673384938
 21
1077.894191682989
 31
0.0
  0
LINE
  5
2853A
330
747D
100
AcDbEntity
  8
部品1
 48
50.0
100
AcDbLine
 10
4337.698342863594
 20
1257.894191682989
 30
0.0
 11
4497.698342863594
 21
1257.894191682989
 31
0.0
  0
LINE
  5
2853B
330
747D
100
AcDbEntity
  8
細線
 48
50.0
100
AcDbLine
 10
4700.82542419061
 20
827.8941916829895
 30
0.0
 11
4708.863899963544
 21
797.8941916829893
 31
0.0
  0
LINE
  5
2853C
330
747D
100
AcDbEntity
  8
細線
 48
50.0
100
AcDbLine
 10
4799.435480374667
 20
827.8941916829895
 30
0.0
 11
4807.4739561476
 21
797.8941916829893
 31
0.0
  0
LINE
  5
2853D
330
747D
100
AcDbEntity
  8
細線
 48
50.0
100
AcDbLine
 10
4503.605311822489
 20
827.8941916829895
 30
0.0
 11
4511.643787595422
 21
797.8941916829893
 31
0.0
  0
LINE
  5
2853E
330
747D
100
AcDbEntity
  8
細線
 48
50.0
100
AcDbLine
 10
4602.215368006553
 20
827.8941916829895
 30
0.0
 11
4610.253843779486
 21
797.8941916829893
 31
0.0
  0
LINE
  5
2853F
330
747D
100
AcDbEntity
  8
細線
 48
50.0
100
AcDbLine
 10
4306.385199454357
 20
827.8941916829895
 30
0.0
 11
4314.423675227291
 21
797.8941916829893
 31
0.0
  0
LINE
  5
28540
330
747D
100
AcDbEntity
  8
細線
 48
50.0
100
AcDbLine
 10
4404.995255638423
 20
827.8941916829895
 30
0.0
 11
4413.033731411355
 21
797.8941916829893
 31
0.0
  0
LINE
  5
28541
330
747D
100
AcDbEntity
  8
細線
 48
50.0
100
AcDbLine
 10
4692.78694841767
 20
797.8941916829893
 30
0.0
 11
4735.65881920665
 21
957.8941916829885
 31
0.0
  0
LINE
  5
28542
330
747D
100
AcDbEntity
  8
細線
 48
50.0
100
AcDbLine
 10
4396.956779865489
 20
797.8941916829893
 30
0.0
 11
4439.828650654468
 21
957.8941916829894
 31
0.0
  0
LINE
  5
28543
330
747D
100
AcDbEntity
  8
細線
 48
50.0
100
AcDbLine
 10
4495.566836049547
 20
797.8941916829884
 30
0.0
 11
4538.438706838525
 21
957.8941916829885
 31
0.0
  0
LINE
  5
28544
330
747D
100
AcDbEntity
  8
細線
 48
50.0
100
AcDbLine
 10
4298.346723681418
 20
797.8941916829884
 30
0.0
 11
4341.218594470396
 21
957.8941916829885
 31
0.0
  0
LINE
  5
28545
330
747D
100
AcDbEntity
  8
部品1
 48
50.0
100
AcDbLine
 10
4237.698342863597
 20
797.8941916829893
 30
0.0
 11
4237.698342863597
 21
957.8941916829894
 31
0.0
  0
LINE
  5
28546
330
747D
100
AcDbEntity
  8
細線
 48
50.0
100
AcDbLine
 10
4594.176892233612
 20
797.8941916829893
 30
0.0
 11
4637.04876302259
 21
957.8941916829894
 31
0.0
  0
LINE
  5
28547
330
747D
100
AcDbEntity
  8
細線
 48
50.0
100
AcDbLine
 10
4791.397004601731
 20
797.8941916829884
 30
0.0
 11
4834.268875390709
 21
957.8941916829885
 31
0.0
  0
LINE
  5
28548
330
747D
100
AcDbEntity
  8
部品1
 48
50.0
100
AcDbLine
 10
4997.698342863596
 20
797.8941916829893
 30
0.0
 11
4237.698342863597
 21
797.8941916829893
 31
0.0
  0
LINE
  5
28549
330
747D
100
AcDbEntity
  8
部品1
 48
50.0
100
AcDbLine
 10
4997.698342863596
 20
957.8941916829894
 30
0.0
 11
4237.698342863597
 21
957.8941916829894
 31
0.0
  0
LEADER
  5
2854A
330
747D
100
AcDbEntity
  8
寸法
 48
50.0
100
AcDbLeader
  3
INABA_S40G
 71
     0
 73
     0
 74
     0
 75
     1
 76
     3
 10
4710.129804130061
 20
1086.968528666083
 30
0.0
 10
4914.871412690158
 20
659.9300061724616
 30
0.0
 10
5014.871412690158
 20
659.9300061724616
 30
0.0
213
0.0
223
-1.277828345336728
233
0.0
1001
ACAD
1000
DSTYLE
1002
{
1070
   341
1005
0
1002
}
  0
DIMENSION
  5
2854B
330
747D
100
AcDbEntity
  8
寸法
 48
50.0
100
AcDbDimension
  2
*D32
 10
4897.698342863594
 20
498.9420852270563
 30
0.0
 11
4617.698342863593
 21
498.9420852270563
 31
0.0
 70
   160
  1
300
 71
     5
 42
560.0000000000009
  3
INABA_S40G
100
AcDbAlignedDimension
 13
4337.698342863593
 23
797.8941916829893
 33
0.0
 14
4897.698342863594
 24
797.8941916829893
 34
0.0
100
AcDbRotatedDimension
1001
ACAD
1000
DSTYLE
1002
{
1070
   341
1005
0
1002
}
  0
LEADER
  5
2854C
330
747D
100
AcDbEntity
  8
寸法
 48
50.0
100
AcDbLeader
  3
INABA_S40G
 71
     0
 73
     0
 74
     0
 75
     1
 76
     3
 10
4777.577033303773
 20
1107.894191682989
 30
0.0
 10
4901.857917621951
 20
988.6478555042744
 30
0.0
 10
5001.857917621951
 20
988.6478555042744
 30
0.0
1001
ACAD
1000
DSTYLE
1002
{
1070
   341
1005
0
1002
}
  0
LINE
  5
2854D
330
747D
100
AcDbEntity
  8
細線
 48
50.0
100
AcDbLine
 10
4750.603357017004
 20
1097.894191682989
 30
0.0
 11
4897.698342863594
 21
1244.989177529572
 31
0.0
  0
LINE
  5
2854E
330
747D
100
AcDbEntity
  8
細線
 48
50.0
100
AcDbLine
 10
4817.95527792503
 20
1097.894191682989
 30
0.0
 11
4897.698342863594
 21
1177.637256621554
 31
0.0
  0
LINE
  5
2854F
330
747D
100
AcDbEntity
  8
細線
 48
50.0
100
AcDbLine
 10
4784.279317471024
 20
1097.894191682989
 30
0.0
 11
4897.698342863594
 21
1211.313217075564
 31
0.0
  0
LINE
  5
28550
330
747D
100
AcDbEntity
  8
部品1
 48
50.0
100
AcDbLine
 10
4737.698342863594
 20
1257.894191682989
 30
0.0
 11
4897.698342863594
 21
1257.894191682989
 31
0.0
  0
LINE
  5
28551
330
747D
100
AcDbEntity
  8
部品1
 48
50.0
100
AcDbLine
 10
4647.698342863601
 20
1107.894191682989
 30
0.0
 11
4647.698342863594
 21
1763.212228425796
 31
0.0
  0
LINE
  5
28552
330
747D
100
AcDbEntity
  8
部品1
 48
50.0
100
AcDbLine
 10
4627.698342863602
 20
1107.894191682989
 30
0.0
 11
4627.698342863586
 21
1763.212228425796
 31
0.0
  0
LINE
  5
28553
330
747D
100
AcDbEntity
  8
部品1
 48
50.0
100
AcDbLine
 10
4497.698342863594
 20
1257.894191682989
 30
0.0
 11
4497.698342863594
 21
1937.894191682991
 31
0.0
  0
LINE
  5
28554
330
747D
100
AcDbEntity
  8
細線
 48
50.0
100
AcDbLine
 10
4497.698342863594
 20
1350.128584339713
 30
0.0
 11
4627.698342863602
 21
1480.128584339716
 31
0.0
  0
LINE
  5
28555
330
747D
100
AcDbEntity
  8
細線
 48
50.0
100
AcDbLine
 10
4497.698342863594
 20
1383.804544793722
 30
0.0
 11
4627.698342863594
 21
1513.804544793722
 31
0.0
  0
LINE
  5
28556
330
747D
100
AcDbEntity
  8
細線
 48
50.0
100
AcDbLine
 10
4497.698342863594
 20
1316.452623885704
 30
0.0
 11
4627.698342863602
 21
1446.452623885704
 31
0.0
  0
LINE
  5
28557
330
747D
100
AcDbEntity
  8
部品1
 48
50.0
100
AcDbLine
 10
4737.698342863594
 20
1937.894191682991
 30
0.0
 11
4737.698342863594
 21
1257.894191682989
 31
0.0
  0
MTEXT
  5
28558
102
{ACAD_REACTORS
330
28559
102
}
330
747D
100
AcDbEntity
  8
寸法
 62
     7
 48
50.0
100
AcDbMText
 10
4124.029560119601
 20
853.4908246599448
 30
0.0
 40
100.0
 41
1.0
 71
     6
 72
     1
  1
D10
  7
STYLE2
 73
     1
 44
1.0
1001
ACAD
1000
MTEXTBEGIN
1070
    73
1070
     1
1070
    44
1040
1.0
1070
    74
1070
     0
1000
MTEXTEND
  0
LEADER
  5
28559
330
747D
100
AcDbEntity
  8
寸法
 48
50.0
100
AcDbLeader
  3
INABA_S40G
 71
     0
 73
     0
 75
     1
 76
     3
 10
4457.577033303771
 20
1107.894191682989
 30
0.0
 10
4249.0295601196
 20
778.4908246599448
 30
0.0
 10
4149.0295601196
 20
778.4908246599448
 30
0.0
1001
ACAD
1000
DSTYLE
1002
{
1070
   341
1005
0
1002
}
  0
LEADER
  5
2855A
330
747D
100
AcDbEntity
  8
寸法
 48
50.0
100
AcDbLeader
  3
INABA_S40G
 71
     0
 73
     0
 75
     1
 76
     3
 10
4617.698342863593
 20
1107.894191682989
 30
0.0
 10
4284.182969566395
 20
553.0956339856406
 30
0.0
 10
4184.182969566395
 20
553.0956339856406
 30
0.0
1001
ACAD
1000
DSTYLE
1002
{
1070
   341
1005
0
1002
}
  0
MTEXT
  5
2855B
102
{ACAD_REACTORS
330
2855A
102
}
330
747D
100
AcDbEntity
  8
寸法
 62
     7
 48
50.0
100
AcDbMText
 10
4159.182969566393
 20
628.0956339856406
 30
0.0
 40
100.0
 41
1.0
 71
     6
 72
     1
  1
D13
  7
STYLE2
 73
     1
 44
1.0
1001
ACAD
1000
MTEXTBEGIN
1070
    73
1070
     1
1070
    44
1040
1.0
1070
    74
1070
     0
1000
MTEXTEND
  0
MTEXT
  5
2855C
102
{ACAD_REACTORS
330
2855D
102
}
330
747D
100
AcDbEntity
  8
寸法
 62
     7
 48
50.0
100
AcDbMText
 10
4386.135775085088
 20
1439.51994520481
 30
0.0
 40
100.0
 41
1.0
 71
     6
 72
     1
  1
\A1;D10@300
  7
STYLE2
 73
     1
 44
1.0
1001
ACAD
1000
MTEXTBEGIN
1070
    73
1070
     1
1070
    44
1040
1.0
1070
    74
1070
     0
1000
MTEXTEND
  0
LEADER
  5
2855D
330
747D
100
AcDbEntity
  8
寸法
 48
50.0
100
AcDbLeader
  3
INABA_S40G
 71
     0
 73
     0
 75
     1
 76
     3
 10
4627.698342863594
 20
1635.553210054393
 30
0.0
 10
4498.970547202721
 20
1358.715299378389
 30
0.0
 10
4398.970547202721
 20
1358.715299378389
 30
0.0
213
-12.16522788236671
223
-5.804645826423211
233
0.0
1001
ACAD
1000
DSTYLE
1002
{
1070
   341
1005
0
1002
}
  0
LEADER
  5
2855E
330
747D
100
AcDbEntity
  8
寸法
 48
50.0
100
AcDbLeader
  3
INABA_S40G
 71
     0
 73
     0
 75
     1
 76
     3
 10
4597.698342863593
 20
1937.894191682991
 30
0.0
 10
4538.780342945311
 20
2113.482648503725
 30
0.0
 10
4438.780342945311
 20
2113.482648503725
 30
0.0
1001
ACAD
1000
DSTYLE
1002
{
1070
   341
1005
0
1002
}
  0
MTEXT
  5
2855F
102
{ACAD_REACTORS
330
2855E
102
}
330
747D
100
AcDbEntity
  8
寸法
 62
     7
 48
50.0
100
AcDbMText
 10
4413.780342945311
 20
2203.539466685544
 30
0.0
 40
100.0
 41
1.0
 71
     6
 72
     1
  1
\A1;金コテ押エ
  7
STYLE2
 73
     1
 44
1.0
1001
ACAD
1000
MTEXTBEGIN
1070
    73
1070
     1
1070
    44
1040
1.0
1070
    74
1070
     0
1000
MTEXTEND
  0
DIMENSION
  5
28560
330
747D
100
AcDbEntity
  8
寸法
 48
50.0
100
AcDbDimension
  2
*D33
 10
3737.053404827531
 20
957.8941916829894
 30
0.0
 11
3737.053404827531
 21
1447.89419168299
 31
0.0
 70
   160
  1
540
 71
     5
 42
980.0000000000016
  3
INABA_S40G
100
AcDbAlignedDimension
 13
4497.698342863593
 23
1937.894191682991
 33
0.0
 14
4237.698342863597
 24
957.8941916829894
 34
0.0
 50
90.0
100
AcDbRotatedDimension
1001
ACAD
1000
DSTYLE
1002
{
1070
   341
1005
0
1002
}
  0
DIMENSION
  5
28561
330
747D
100
AcDbEntity
  8
寸法
 48
50.0
100
AcDbDimension
  2
*D34
 10
4159.672950698019
 20
957.8941916829894
 30
0.0
 11
4159.672950698019
 21
1107.894191682989
 31
0.0
 70
   160
  1
150
 71
     5
 42
299.9999999999996
  3
INABA_S40G
100
AcDbAlignedDimension
 13
4337.698342863593
 23
1257.894191682989
 33
0.0
 14
4237.698342863597
 24
957.8941916829894
 34
0.0
 50
90.0
100
AcDbRotatedDimension
1001
ACAD
1000
DSTYLE
1002
{
1070
   341
1005
0
1002
}
  0
LWPOLYLINE
  5
28562
330
747D
100
AcDbEntity
  8
部品1
 48
50.0
100
AcDbPolyline
 90
        2
 70
     0
 43
10.0
 10
3980.0234655724
 20
1637.894191682992
 10
4497.698342863593
 20
1637.894191682992
  0
TEXT
  5
28563
330
747D
100
AcDbEntity
  8
部品1
 48
50.0
100
AcDbText
 10
3980.0234655724
 20
1651.942932037059
 30
0.0
 40
100.0
  1
▽G.L
  7
STYLE2
100
AcDbText
  0
LEADER
  5
28564
330
747D
100
AcDbEntity
  8
寸法
 48
50.0
100
AcDbLeader
  3
INABA_S40G
 73
     0
 75
     1
 40
132.9545454545455
 41
1116.477272727273
 76
     3
 10
6786.997484335086
 20
2024.844191682991
 30
0.0
 10
6678.967393903914
 20
2483.668660078406
 30
0.0
 10
6578.967393903915
 20
2483.668660078406
 30
0.0
340
28565
1001
ACAD
1000
DSTYLE
1002
{
1070
   341
1005
0
1002
}
  0
MTEXT
  5
28565
102
{ACAD_REACTORS
330
28564
102
}
330
747D
100
AcDbEntity
  8
寸法
 62
     7
 48
50.0
100
AcDbMText
 10
6538.967393903914
 20
2590.145932805679
 30
0.0
 40
100.0
 41
1.0
 71
     6
 72
     1
  1
\A1;アンカープレート L
  7
STYLE2
 73
     1
 44
1.0
1001
ACAD
1000
MTEXTBEGIN
1070
    73
1070
     1
1070
    44
1040
1.0
1070
    74
1070
     0
1000
MTEXTEND
  0
MTEXT
  5
28566
102
{ACAD_REACTORS
330
28567
102
}
330
747D
100
AcDbEntity
  8
部品1
 62
     7
 48
50.0
100
AcDbMText
 10
7149.939948226784
 20
3044.724761498051
 30
0.0
 40
100.0
 41
1.0
 71
     4
 72
     1
  1
\A1;ナット(市販品)
  7
STYLE2
 73
     1
 44
1.0
1001
ACAD
1000
MTEXTBEGIN
1070
    73
1070
     1
1070
    44
1040
1.0
1070
    74
1070
     0
1000
MTEXTEND
  0
LEADER
  5
28567
330
747D
100
AcDbEntity
  8
寸法
 48
50.0
100
AcDbLeader
  3
INABA_S40G
 73
     0
 74
     0
 75
     1
 40
127.8409090909091
 41
850.0000000000001
 76
     3
 10
6919.497484335086
 20
2436.488293069419
 30
0.0
 10
7009.939948226784
 20
2940.804306952597
 30
0.0
 10
7109.939948226784
 20
2940.804306952597
 30
0.0
340
28566
1001
ACAD
1000
DSTYLE
1002
{
1070
   341
1005
0
1002
}
  0
MTEXT
  5
28568
102
{ACAD_REACTORS
330
28569
102
}
330
747D
100
AcDbEntity
  8
部品1
 62
     7
 48
50.0
100
AcDbMText
 10
7189.336972296138
 20
2813.513408042066
 30
0.0
 40
100.0
 41
1.0
 71
     4
 72
     1
  1
\A1;ワッシャー(市販品)
  7
STYLE2
 73
     1
 44
1.0
1001
ACAD
1000
MTEXTBEGIN
1070
    73
1070
     1
1070
    44
1040
1.0
1070
    74
1070
     0
1000
MTEXTEND
  0
LEADER
  5
28569
330
747D
100
AcDbEntity
  8
寸法
 48
50.0
100
AcDbLeader
  3
INABA_S40G
 73
     0
 74
     0
 75
     1
 40
127.8409090909091
 41
1133.522727272727
 76
     3
 10
6949.497484335086
 20
2274.29830223834
 30
0.0
 10
7049.336972296138
 20
2709.592953496612
 30
0.0
 10
7149.336972296137
 20
2709.592953496612
 30
0.0
340
28568
1001
ACAD
1000
DSTYLE
1002
{
1070
   341
1005
0
1002
}
  0
DIMENSION
  5
2856A
330
747D
100
AcDbEntity
  8
寸法
 48
50.0
100
AcDbDimension
  2
*D35
 10
4497.698342863593
 20
2462.478951578466
 30
0.0
 11
4617.698342863593
 21
2462.478951578466
 31
0.0
 70
   160
  1
120
 71
     5
 42
240.0
  3
INABA_S40G
100
AcDbAlignedDimension
 13
4737.698342863593
 23
1937.894191682991
 33
0.0
 14
4497.698342863593
 24
1937.894191682991
 34
0.0
100
AcDbRotatedDimension
1001
ACAD
1000
DSTYLE
1002
{
1070
   341
1005
0
1002
}
  0
LINE
  5
2856B
330
747D
100
AcDbEntity
  8
部品1
100
AcDbLine
 10
3378.897651311815
 20
3589.108716404047
 30
0.0
 11
3378.897651311815
 21
330.0392170493584
 31
0.0
  0
MTEXT
  5
2856C
102
{ACAD_REACTORS
330
2856D
102
}
330
747D
100
AcDbEntity
  8
寸法
 62
     7
 48
50.0
100
AcDbMText
 10
6505.663636143466
 20
3041.001272690073
 30
0.0
 40
100.0
 41
1.0
 71
     6
 72
     1
  1
\A1;\U+03C670スリーブ
  7
STYLE2
 73
     1
 44
1.0
1001
ACAD
1000
MTEXTBEGIN
1070
    73
1070
     1
1070
    44
1040
1.0
1070
    74
1070
     0
1000
MTEXTEND
  0
LEADER
  5
2856D
330
747D
100
AcDbEntity
  8
寸法
 48
50.0
100
AcDbLeader
  3
INABA_S40G
 73
     0
 75
     1
 40
141.4772727272727
 41
764.7727272727273
 76
     3
 10
6860.418422007647
 20
1874.788783380839
 30
0.0
 10
6645.663636143466
 20
2930.262636326438
 30
0.0
 10
6545.663636143466
 20
2930.262636326438
 30
0.0
340
2856C
1001
ACAD
1000
DSTYLE
1002
{
1070
   341
1005
0
1002
}
  0
LINE
  5
2856E
330
747D
100
AcDbEntity
  8
部品1
100
AcDbLine
 10
10275.37234740984
 20
3589.108716404047
 30
0.0
 11
3378.897651311811
 21
3589.108716404047
 31
0.0
  0
LINE
  5
2856F
330
747D
100
AcDbEntity
  8
部品1
100
AcDbLine
 10
10275.37234740984
 20
3289.108716404045
 30
0.0
 11
3378.897651311811
 21
3289.108716404045
 31
0.0
  0
LINE
  5
28570
330
747D
100
AcDbEntity
  8
部品1
100
AcDbLine
 10
3378.897651311811
 20
330.0392170493584
 30
0.0
 11
10275.37234740984
 21
330.0392170493584
 31
0.0
  0
LINE
  5
28571
330
747D
100
AcDbEntity
  8
部品1
100
AcDbLine
 10
8784.861419590702
 20
1363.270547116298
 30
0.0
 11
9684.861419590705
 21
1363.270547116302
 31
0.0
  0
LINE
  5
28572
330
747D
100
AcDbEntity
  8
部品1
100
AcDbLine
 10
8784.861419590702
 20
1523.270547116302
 30
0.0
 11
9684.861419590705
 21
1523.270547116306
 31
0.0
  0
LWPOLYLINE
  5
28573
330
747D
100
AcDbEntity
  8
部品1
 48
50.0
100
AcDbPolyline
 90
        2
 70
     0
 43
15.0
 10
8454.097341965221
 20
1637.89419168299
 10
9955.462720879753
 20
1637.89419168299
  0
LINE
  5
28574
330
747D
100
AcDbEntity
  8
細線
100
AcDbLine
 10
8926.156912714864
 20
1523.270547116302
 30
0.0
 11
9040.780557281555
 21
1637.894191682989
 31
0.0
  0
LINE
  5
28575
330
747D
100
AcDbEntity
  8
部品1
100
AcDbLine
 10
8934.861419590703
 20
1937.894191682991
 30
0.0
 11
9534.861419590702
 21
1937.894191682991
 31
0.0
  0
LINE
  5
28576
330
747D
100
AcDbEntity
  8
細線
100
AcDbLine
 10
9114.513476379892
 20
1637.89419168299
 30
0.0
 11
8934.861419590703
 21
1817.54624847218
 31
0.0
  0
LINE
  5
28577
330
747D
100
AcDbEntity
  8
細線
100
AcDbLine
 10
9178.153086686682
 20
1637.89419168299
 30
0.0
 11
8934.861419590703
 21
1881.185858778969
 31
0.0
  0
LINE
  5
28B06
330
747D
100
AcDbEntity
  8
細線
 48
50.0
100
AcDbLine
 10
6891.676849286158
 20
7857.51320708473
 30
0.0
 11
6997.099999999995
 21
7962.936357798567
 31
0.0
  0
LINE
  5
28B07
330
747D
100
AcDbEntity
  8
細線
 48
50.0
100
AcDbLine
 10
6981.479410496844
 20
7857.51320708473
 30
0.0
 11
6997.099999999997
 21
7873.133796587881
 31
0.0
  0
LINE
  5
28B08
330
747D
100
AcDbEntity
  8
細線
 48
50.0
100
AcDbLine
 10
6936.578129891502
 20
7857.513207084728
 30
0.0
 11
6997.099999999997
 21
7918.035077193223
 31
0.0
  0
LINE
  5
28B09
330
747D
100
AcDbEntity
  8
細線
 48
50.0
100
AcDbLine
 10
6846.775568680813
 20
7857.51320708473
 30
0.0
 11
6966.775568680808
 21
7977.513207084726
 31
0.0
  0
LINE
  5
28B0A
330
747D
100
AcDbEntity
  8
細線
 48
50.0
100
AcDbLine
 10
6801.874288075466
 20
7857.51320708473
 30
0.0
 11
6921.874288075464
 21
7977.513207084726
 31
0.0
  0
LINE
  5
28B0B
330
747D
100
AcDbEntity
  8
細線
 48
50.0
100
AcDbLine
 10
6797.099999999997
 20
7897.640199614606
 30
0.0
 11
6876.973007470119
 21
7977.513207084726
 31
0.0
  0
LINE
  5
28B0C
330
747D
100
AcDbEntity
  8
細線
 48
50.0
100
AcDbLine
 10
6797.099999999997
 20
7942.541480219951
 30
0.0
 11
6832.071726864772
 21
7977.513207084726
 31
0.0
  0
LINE
  5
28B18
330
747D
100
AcDbEntity
  8
細線
 48
50.0
100
AcDbLine
 10
9426.676849286156
 20
7857.51320708473
 30
0.0
 11
9532.099999999996
 21
7962.936357798567
 31
0.0
  0
LINE
  5
28B19
330
747D
100
AcDbEntity
  8
細線
 48
50.0
100
AcDbLine
 10
9516.479410496842
 20
7857.51320708473
 30
0.0
 11
9532.099999999998
 21
7873.133796587881
 31
0.0
  0
LINE
  5
28B1A
330
747D
100
AcDbEntity
  8
細線
 48
50.0
100
AcDbLine
 10
9471.578129891501
 20
7857.513207084728
 30
0.0
 11
9532.099999999998
 21
7918.035077193223
 31
0.0
  0
LINE
  5
28B1B
330
747D
100
AcDbEntity
  8
細線
 48
50.0
100
AcDbLine
 10
9381.775568680813
 20
7857.51320708473
 30
0.0
 11
9501.775568680807
 21
7977.513207084726
 31
0.0
  0
LINE
  5
28B1C
330
747D
100
AcDbEntity
  8
細線
 48
50.0
100
AcDbLine
 10
9336.874288075465
 20
7857.51320708473
 30
0.0
 11
9456.874288075464
 21
7977.513207084726
 31
0.0
  0
LINE
  5
28B1D
330
747D
100
AcDbEntity
  8
細線
 48
50.0
100
AcDbLine
 10
9332.099999999996
 20
7897.640199614606
 30
0.0
 11
9411.973007470118
 21
7977.513207084726
 31
0.0
  0
LINE
  5
28B1E
330
747D
100
AcDbEntity
  8
細線
 48
50.0
100
AcDbLine
 10
9332.099999999996
 20
7942.541480219951
 30
0.0
 11
9367.071726864772
 21
7977.513207084726
 31
0.0
  0
LINE
  5
28B2A
330
747D
100
AcDbEntity
  8
細線
 48
50.0
100
AcDbLine
 10
9430.230354660322
 20
5762.135717361464
 30
0.0
 11
9535.653505374158
 21
5867.558868075301
 31
0.0
  0
LINE
  5
28B2B
330
747D
100
AcDbEntity
  8
細線
 48
50.0
100
AcDbLine
 10
9520.032915871009
 20
5762.135717361464
 30
0.0
 11
9535.653505374162
 21
5777.756306864615
 31
0.0
  0
LINE
  5
28B2C
330
747D
100
AcDbEntity
  8
細線
 48
50.0
100
AcDbLine
 10
9475.131635265665
 20
5762.135717361463
 30
0.0
 11
9535.653505374162
 21
5822.657587469956
 31
0.0
  0
LINE
  5
28B2D
330
747D
100
AcDbEntity
  8
細線
 48
50.0
100
AcDbLine
 10
9385.329074054977
 20
5762.135717361464
 30
0.0
 11
9505.329074054971
 21
5882.13571736146
 31
0.0
  0
LINE
  5
28B2E
330
747D
100
AcDbEntity
  8
細線
 48
50.0
100
AcDbLine
 10
9340.427793449629
 20
5762.135717361464
 30
0.0
 11
9460.427793449628
 21
5882.13571736146
 31
0.0
  0
LINE
  5
28B2F
330
747D
100
AcDbEntity
  8
細線
 48
50.0
100
AcDbLine
 10
9335.65350537416
 20
5802.262709891341
 30
0.0
 11
9415.52651284428
 21
5882.13571736146
 31
0.0
  0
LINE
  5
28B30
330
747D
100
AcDbEntity
  8
細線
 48
50.0
100
AcDbLine
 10
9335.65350537416
 20
5847.163990496685
 30
0.0
 11
9370.625232238936
 21
5882.13571736146
 31
0.0
  0
LINE
  5
28BCA
330
747D
100
AcDbEntity
  8
部品1
 48
50.0
100
AcDbLine
 10
6997.099999999997
 20
5877.513207084735
 30
0.0
 11
6997.099999999997
 21
5757.513207084733
 31
0.0
  0
LINE
  5
28BCB
330
747D
100
AcDbEntity
  8
部品1
 48
50.0
100
AcDbLine
 10
6797.099999999997
 20
5877.513207084735
 30
0.0
 11
6797.099999999997
 21
5757.513207084733
 31
0.0
  0
LINE
  5
28BCC
330
747D
100
AcDbEntity
  8
細線
 48
50.0
100
AcDbLine
 10
6891.676849286158
 20
5757.513207084736
 30
0.0
 11
6997.099999999995
 21
5862.936357798572
 31
0.0
  0
LINE
  5
28BCD
330
747D
100
AcDbEntity
  8
細線
 48
50.0
100
AcDbLine
 10
6981.479410496844
 20
5757.513207084736
 30
0.0
 11
6997.099999999997
 21
5773.133796587886
 31
0.0
  0
LINE
  5
28BCE
330
747D
100
AcDbEntity
  8
細線
 48
50.0
100
AcDbLine
 10
6936.578129891502
 20
5757.513207084734
 30
0.0
 11
6997.099999999997
 21
5818.035077193228
 31
0.0
  0
LINE
  5
28BCF
330
747D
100
AcDbEntity
  8
細線
 48
50.0
100
AcDbLine
 10
6846.775568680813
 20
5757.513207084736
 30
0.0
 11
6966.775568680808
 21
5877.513207084732
 31
0.0
  0
LINE
  5
28BD0
330
747D
100
AcDbEntity
  8
細線
 48
50.0
100
AcDbLine
 10
6801.874288075466
 20
5757.513207084736
 30
0.0
 11
6921.874288075464
 21
5877.513207084732
 31
0.0
  0
LINE
  5
28BD1
330
747D
100
AcDbEntity
  8
細線
 48
50.0
100
AcDbLine
 10
6797.099999999997
 20
5797.640199614612
 30
0.0
 11
6876.973007470119
 21
5877.513207084732
 31
0.0
  0
LINE
  5
28BD2
330
747D
100
AcDbEntity
  8
細線
 48
50.0
100
AcDbLine
 10
6797.099999999997
 20
5842.541480219956
 30
0.0
 11
6832.071726864772
 21
5877.513207084732
 31
0.0
  0
LINE
  5
28BE1
330
747D
100
AcDbEntity
  8
細線
 48
50.0
100
AcDbLine
 10
5588.600000000002
 20
6961.554286273401
 30
0.0
 11
5594.558920811326
 21
6967.513207084727
 31
0.0
  0
LINE
  5
28BE2
330
747D
100
AcDbEntity
  8
細線
 48
50.0
100
AcDbLine
 10
5588.600000000002
 20
6916.653005668056
 30
0.0
 11
5639.460201416675
 21
6967.513207084727
 31
0.0
  0
LINE
  5
28BE3
330
747D
100
AcDbEntity
  8
細線
 48
50.0
100
AcDbLine
 10
5588.600000000002
 20
6871.751725062711
 30
0.0
 11
5684.361482022018
 21
6967.513207084728
 31
0.0
  0
LINE
  5
28BE4
330
747D
100
AcDbEntity
  8
細線
 48
50.0
100
AcDbLine
 10
5588.600000000002
 20
6826.850444457365
 30
0.0
 11
5708.6
 21
6946.850444457365
 31
0.0
  0
LINE
  5
28BE5
330
747D
100
AcDbEntity
  8
細線
 48
50.0
100
AcDbLine
 10
5588.600000000002
 20
6781.949163852019
 30
0.0
 11
5708.6
 21
6901.949163852018
 31
0.0
  0
LINE
  5
28BE6
330
747D
100
AcDbEntity
  8
細線
 48
50.0
100
AcDbLine
 10
5619.065323838055
 20
6767.513207084729
 30
0.0
 11
5708.600000000002
 21
6857.047883246671
 31
0.0
  0
LINE
  5
28BE7
330
747D
100
AcDbEntity
  8
細線
 48
50.0
100
AcDbLine
 10
5663.966604443401
 20
6767.513207084727
 30
0.0
 11
5708.6
 21
6812.146602641326
 31
0.0
  0
LINE
  5
28BF3
330
747D
100
AcDbEntity
  8
細線
 48
50.0
100
AcDbLine
 10
10738.6
 20
6961.554286273401
 30
0.0
 11
10744.55892081132
 21
6967.513207084727
 31
0.0
  0
LINE
  5
28BF4
330
747D
100
AcDbEntity
  8
細線
 48
50.0
100
AcDbLine
 10
10738.6
 20
6916.653005668056
 30
0.0
 11
10789.46020141667
 21
6967.513207084727
 31
0.0
  0
LINE
  5
28BF5
330
747D
100
AcDbEntity
  8
細線
 48
50.0
100
AcDbLine
 10
10738.6
 20
6871.751725062711
 30
0.0
 11
10834.36148202201
 21
6967.513207084728
 31
0.0
  0
LINE
  5
28BF6
330
747D
100
AcDbEntity
  8
細線
 48
50.0
100
AcDbLine
 10
10738.6
 20
6826.850444457365
 30
0.0
 11
10858.6
 21
6946.850444457365
 31
0.0
  0
LINE
  5
28BF7
330
747D
100
AcDbEntity
  8
細線
 48
50.0
100
AcDbLine
 10
10738.6
 20
6781.949163852019
 30
0.0
 11
10858.6
 21
6901.949163852018
 31
0.0
  0
LINE
  5
28BF8
330
747D
100
AcDbEntity
  8
細線
 48
50.0
100
AcDbLine
 10
10769.06532383805
 20
6767.513207084729
 30
0.0
 11
10858.6
 21
6857.047883246671
 31
0.0
  0
LINE
  5
28BF9
330
747D
100
AcDbEntity
  8
細線
 48
50.0
100
AcDbLine
 10
10813.9666044434
 20
6767.513207084727
 30
0.0
 11
10858.6
 21
6812.146602641326
 31
0.0
  0
ENDSEC
  0
SECTION
  2
OBJECTS
  0
DICTIONARY
  5
7471
330
0
100
AcDbDictionary
281
     1
  3
ACAD_CIP_PREVIOUS_PRODUCT_INFO
350
28B8F
  3
ACAD_COLOR
350
173D2
  3
ACAD_DETAILVIEWSTYLE
350
28B86
  3
ACAD_GROUP
350
7472
  3
ACAD_LAYOUT
350
173D3
  3
ACAD_MATERIAL
350
173D1
  3
ACAD_MLEADERSTYLE
350
28B82
  3
ACAD_MLINESTYLE
350
7473
  3
ACAD_PLOTSETTINGS
350
173D4
  3
ACAD_PLOTSTYLENAME
350
173CF
  3
ACAD_SCALELIST
350
28B70
  3
ACAD_SECTIONVIEWSTYLE
350
28B84
  3
ACAD_TABLESTYLE
350
28B6E
  3
ACAD_VISUALSTYLE
350
28B55
  3
ACDB_RECOMPOSE_DATA
350
28C1C
  3
AcDbVariableDictionary
350
286CF
  3
AcDsDecomposeData
350
28C23
  3
CONTENTDICTIONARY
350
E71C
  3
DRAWINGVARIABLESDICT
350
F3B9
  3
DWGPROPS
350
28C1D
  0
DICTIONARY
  5
1758F
330
7467
100
AcDbDictionary
280
     1
281
     1
  3
ACAD_LAYERSTATES
360
17590
  0
DICTIONARY
  5
28B91
330
7474
100
AcDbDictionary
280
     1
281
     1
  3
ADSK_XREC_LAYER_RECONCILED
360
28B92
  0
DICTIONARY
  5
28B93
330
DEB2
100
AcDbDictionary
280
     1
281
     1
  3
ADSK_XREC_LAYER_RECONCILED
360
28B94
  0
DICTIONARY
  5
28B95
330
DEB3
100
AcDbDictionary
280
     1
281
     1
  3
ADSK_XREC_LAYER_RECONCILED
360
28B96
  0
DICTIONARY
  5
28B97
330
DEB4
100
AcDbDictionary
280
     1
281
     1
  3
ADSK_XREC_LAYER_RECONCILED
360
28B98
  0
DICTIONARY
  5
28B99
330
DEB5
100
AcDbDictionary
280
     1
281
     1
  3
ADSK_XREC_LAYER_RECONCILED
360
28B9A
  0
DICTIONARY
  5
28B9B
330
DEB6
100
AcDbDictionary
280
     1
281
     1
  3
ADSK_XREC_LAYER_RECONCILED
360
28B9C
  0
DICTIONARY
  5
28B9D
330
10B54
100
AcDbDictionary
280
     1
281
     1
  3
ADSK_XREC_LAYER_RECONCILED
360
28B9E
  0
DICTIONARY
  5
28B9F
330
1173F
100
AcDbDictionary
280
     1
281
     1
  3
ADSK_XREC_LAYER_RECONCILED
360
28BA0
  0
DICTIONARY
  5
28BA1
330
12CC4
100
AcDbDictionary
280
     1
281
     1
  3
ADSK_XREC_LAYER_RECONCILED
360
28BA2
  0
XRECORD
  5
28B8F
102
{ACAD_REACTORS
330
7471
102
}
330
7471
100
AcDbXrecord
280
     1
300
ACDLT
300
2014
300
ACDLT_F_S
  0
DICTIONARY
  5
173D2
102
{ACAD_REACTORS
330
7471
102
}
330
7471
100
AcDbDictionary
281
     1
  0
DICTIONARY
  5
28B86
102
{ACAD_REACTORS
330
7471
102
}
330
7471
100
AcDbDictionary
281
     1
  3
Metric50
350
28B87
  0
DICTIONARY
  5
7472
102
{ACAD_REACTORS
330
7471
102
}
330
7471
100
AcDbDictionary
281
     1
  0
DICTIONARY
  5
173D3
102
{ACAD_REACTORS
330
7471
102
}
330
7471
100
AcDbDictionary
281
     1
  3
Model
350
173D5
  3
レイアウト1
350
173D6
  0
DICTIONARY
  5
173D1
102
{ACAD_REACTORS
330
7471
102
}
330
7471
100
AcDbDictionary
281
     1
  3
ByBlock
350
28B45
  3
ByLayer
350
28B3D
  3
Global
350
28B4D
  0
DICTIONARY
  5
28B82
102
{ACAD_REACTORS
330
7471
102
}
330
7471
100
AcDbDictionary
281
     1
  3
Standard
350
28B83
  0
DICTIONARY
  5
7473
102
{ACAD_REACTORS
330
7471
102
}
330
7471
100
AcDbDictionary
281
     1
  3
STANDARD
350
7480
  0
DICTIONARY
  5
173D4
102
{ACAD_REACTORS
330
7471
102
}
330
7471
100
AcDbDictionary
281
     1
  0
ACDBDICTIONARYWDFLT
  5
173CF
102
{ACAD_REACTORS
330
7471
102
}
330
7471
100
AcDbDictionary
281
     1
  3
Normal
350
173D0
100
AcDbDictionaryWithDefault
340
173D0
  0
DICTIONARY
  5
28B70
102
{ACAD_REACTORS
330
7471
102
}
330
7471
100
AcDbDictionary
281
     1
  3
A0
350
28B71
  3
A1
350
28B72
  3
A2
350
28B73
  3
A3
350
28B74
  3
A4
350
28B75
  3
A5
350
28B76
  3
A6
350
28B77
  3
A7
350
28B78
  3
A8
350
28B79
  3
A9
350
28B7A
  3
B0
350
28B7B
  3
B1
350
28B7C
  3
B2
350
28B7D
  3
B3
350
28B7E
  3
B4
350
28B7F
  3
B5
350
28B80
  3
B6
350
28B81
  0
DICTIONARY
  5
28B84
102
{ACAD_REACTORS
330
7471
102
}
330
7471
100
AcDbDictionary
281
     1
  3
Metric50
350
28B85
  0
DICTIONARY
  5
28B6E
102
{ACAD_REACTORS
330
7471
102
}
330
7471
100
AcDbDictionary
281
     1
  3
Standard
350
28B6F
  0
DICTIONARY
  5
28B55
102
{ACAD_REACTORS
330
7471
102
}
330
7471
100
AcDbDictionary
281
     1
  3
2dWireframe
350
28B5B
  3
Basic
350
28B5A
  3
Brighten
350
28B61
  3
ColorChange
350
28B65
  3
Conceptual
350
28B5E
  3
Dim
350
28B60
  3
EdgeColorOff
350
28B6D
  3
Facepattern
350
28B64
  3
Flat
350
28B56
  3
FlatWithEdges
350
28B57
  3
Gouraud
350
28B58
  3
GouraudWithEdges
350
28B59
  3
Hidden
350
28B5D
  3
JitterOff
350
28B6B
  3
Linepattern
350
28B63
  3
OverhangOff
350
28B6C
  3
Realistic
350
28B5F
  3
Shaded
350
28B6A
  3
Shaded with edges
350
28B69
  3
Shades of Gray
350
28B66
  3
Sketchy
350
28B67
  3
Thicken
350
28B62
  3
Wireframe
350
28B5C
  3
X-Ray
350
28B68
  0
XRECORD
  5
28C1C
102
{ACAD_REACTORS
330
7471
102
}
330
7471
100
AcDbXrecord
280
     1
 90
        1
330
28B6F
  0
DICTIONARY
  5
286CF
102
{ACAD_REACTORS
330
7471
102
}
330
7471
100
AcDbDictionary
281
     1
  3
CANNOSCALE
350
28BBD
  3
CMLEADERSTYLE
350
28BB9
  3
CTABLESTYLE
350
28BB8
  3
CVIEWDETAILSTYLE
350
28BBA
  3
CVIEWSECTIONSTYLE
350
28BBB
  3
DIMASSOC
350
286D0
  3
INDEXCTL
350
28C18
  3
LAYEREVAL
350
28BBF
  3
LAYERNOTIFY
350
28BC0
  3
LIGHTINGUNITS
350
28BBE
  3
MSLTSCALE
350
28BBC
  3
PROJECTNAME
350
286D1
  3
SORTENTS
350
28C17
  3
XCLIPFRAME
350
28C19
  0
DICTIONARY
  5
28C23
102
{ACAD_REACTORS
330
7471
102
}
330
7471
100
AcDbDictionary
281
     1
  3
AcDsRecords
350
28C25
  3
AcDsSchemas
350
28C24
1001
ACAD
1070
     2
  0
DICTIONARY
  5
E71C
102
{ACAD_REACTORS
330
7471
102
}
330
7471
100
AcDbDictionary
281
     1
  0
DICTIONARY
  5
F3B9
102
{ACAD_REACTORS
330
7471
102
}
330
7471
100
AcDbDictionary
281
     1
1001
DRAWINGVARIABLESXDATA
1000
POLARMODE
1000
1
  0
XRECORD
  5
28C1D
102
{ACAD_REACTORS
330
7471
102
}
330
7471
100
AcDbXrecord
280
     1
  1
DWGPROPS COOKIE
  2

  3

  4

  6

  7

  8
ishizaki
  9

300
=
301
=
302
=
303
=
304
=
305
=
306
=
307
=
308
=
309
=
 40
0.9502164699074073
 41
2451368.612993866
 42
2456540.477721053
  1

 90
        0
  0
DICTIONARY
  5
17590
102
{ACAD_REACTORS
330
1758F
102
}
330
1758F
100
AcDbDictionary
281
     1
  0
XRECORD
  5
28B92
102
{ACAD_REACTORS
330
28B91
102
}
330
28B91
100
AcDbXrecord
280
     1
290
     1
  0
XRECORD
  5
28B94
102
{ACAD_REACTORS
330
28B93
102
}
330
28B93
100
AcDbXrecord
280
     1
290
     1
  0
XRECORD
  5
28B96
102
{ACAD_REACTORS
330
28B95
102
}
330
28B95
100
AcDbXrecord
280
     1
290
     1
  0
XRECORD
  5
28B98
102
{ACAD_REACTORS
330
28B97
102
}
330
28B97
100
AcDbXrecord
280
     1
290
     1
  0
XRECORD
  5
28B9A
102
{ACAD_REACTORS
330
28B99
102
}
330
28B99
100
AcDbXrecord
280
     1
290
     1
  0
XRECORD
  5
28B9C
102
{ACAD_REACTORS
330
28B9B
102
}
330
28B9B
100
AcDbXrecord
280
     1
290
     1
  0
XRECORD
  5
28B9E
102
{ACAD_REACTORS
330
28B9D
102
}
330
28B9D
100
AcDbXrecord
280
     1
290
     1
  0
XRECORD
  5
28BA0
102
{ACAD_REACTORS
330
28B9F
102
}
330
28B9F
100
AcDbXrecord
280
     1
290
     1
  0
XRECORD
  5
28BA2
102
{ACAD_REACTORS
330
28BA1
102
}
330
28BA1
100
AcDbXrecord
280
     1
290
     1
  0
ACDBDETAILVIEWSTYLE
  5
28B87
102
{ACAD_XDICTIONARY
360
28BB5
102
}
102
{ACAD_REACTORS
330
28B86
102
}
330
28B86
100
AcDbModelDocViewStyle
 70
     0
  3
Metric50
290
     0
100
AcDbDetailViewStyle
 70
     0
 71
     0
 90
        3
 71
     1
340
7475
 40
5.0
340
0
 40
5.0
300

 40
0.0
280
     1
 71
     2
340
7479
 90
       25
 71
     3
340
7475
 40
5.0
 90
        0
 40
15.0
 90
        1
300
%<\AcVar ViewDetailId>% (%<\AcVar ViewScale \f "%sn">%)
 71
     4
340
7479
 90
       25
340
7479
 90
       25
280
     0
  0
LAYOUT
  5
173D5
102
{ACAD_XDICTIONARY
360
28C26
102
}
102
{ACAD_REACTORS
330
173D3
102
}
330
173D3
100
AcDbPlotSettings
  1

  2
クセロPDF
  4
A3
  6

 40
3.174999999999999
 41
3.174999999999999
 42
3.174987999999999
 43
3.174987999999999
 44
419.946655
 45
296.925995
 46
0.0
 47
0.0
 48
0.0
 49
0.0
140
0.0
141
0.0
142
1.0
143
40.88431155294937
 70
 11952
 72
     1
 73
     0
 74
     2
  7
monochrome.ctb
 75
     0
147
0.0244592598484849
148
0.0
149
0.0
100
AcDbLayout
  1
Model
 70
     1
 71
     0
 10
0.0
 20
0.0
 11
12.0
 21
9.0
 12
0.0
 22
0.0
 32
0.0
 14
0.0
 24
0.0
 34
0.0
 15
0.0
 25
0.0
 35
0.0
146
0.0
 13
0.0
 23
0.0
 33
0.0
 16
1.0
 26
0.0
 36
0.0
 17
0.0
 27
1.0
 37
0.0
 76
     0
330
747D
331
28B3B
  0
LAYOUT
  5
173D6
102
{ACAD_XDICTIONARY
360
28C28
102
}
102
{ACAD_REACTORS
330
173D3
102
}
330
173D3
100
AcDbPlotSettings
  1

  2
Microsoft Office Document Image Writer
  4

  6

 40
0.0
 41
0.0
 42
0.0
 43
0.0
 44
0.0
 45
0.0
 46
0.0
 47
0.0
 48
0.0
 49
0.0
140
0.0
141
0.0
142
1.0
143
1.0
 70
   688
 72
     0
 73
     0
 74
     5
  7
monochrome.ctb
 75
    16
147
1.0
148
0.0
149
0.0
100
AcDbLayout
  1
レイアウト1
 70
     0
 71
     1
 10
0.0
 20
0.0
 11
420.0
 21
297.0
 12
0.0
 22
0.0
 32
0.0
 14
1.000000000000000E+20
 24
1.000000000000000E+20
 34
1.000000000000000E+20
 15
-1.000000000000000E+20
 25
-1.000000000000000E+20
 35
-1.000000000000000E+20
146
0.0
 13
0.0
 23
0.0
 33
0.0
 16
1.0
 26
0.0
 36
0.0
 17
0.0
 27
1.0
 37
0.0
 76
     0
330
747A
  0
MATERIAL
  5
28B45
102
{ACAD_XDICTIONARY
360
28B46
102
}
102
{ACAD_REACTORS
330
173D1
102
}
330
173D1
100
AcDbMaterial
  1
ByBlock
 72
     0
 43
0.0208333333333333
 43
0.0
 43
0.0
 43
0.0
 43
0.0
 43
0.0208333333333333
 43
0.0
 43
0.0
 43
0.0
 43
0.0
 43
1.0
 43
0.0
 43
0.0
 43
0.0
 43
0.0
 43
1.0
 77
     0
 47
0.0208333333333333
 47
0.0
 47
0.0
 47
0.0
 47
0.0
 47
0.0208333333333333
 47
0.0
 47
0.0
 47
0.0
 47
0.0
 47
1.0
 47
0.0
 47
0.0
 47
0.0
 47
0.0
 47
1.0
171
     0
 49
0.0208333333333333
 49
0.0
 49
0.0
 49
0.0
 49
0.0
 49
0.0208333333333333
 49
0.0
 49
0.0
 49
0.0
 49
0.0
 49
1.0
 49
0.0
 49
0.0
 49
0.0
 49
0.0
 49
1.0
175
     0
142
0.0208333333333333
142
0.0
142
0.0
142
0.0
142
0.0
142
0.0208333333333333
142
0.0
142
0.0
142
0.0
142
0.0
142
1.0
142
0.0
142
0.0
142
0.0
142
0.0
142
1.0
179
     0
144
0.0208333333333333
144
0.0
144
0.0
144
0.0
144
0.0
144
0.0208333333333333
144
0.0
144
0.0
144
0.0
144
0.0
144
1.0
144
0.0
144
0.0
144
0.0
144
0.0
144
1.0
147
0.0208333333333333
147
0.0
147
0.0
147
0.0
147
0.0
147
0.0208333333333333
147
0.0
147
0.0
147
0.0
147
0.0
147
1.0
147
0.0
147
0.0
147
0.0
147
0.0
147
1.0
  0
MATERIAL
  5
28B3D
102
{ACAD_XDICTIONARY
360
28B3E
102
}
102
{ACAD_REACTORS
330
173D1
102
}
330
173D1
100
AcDbMaterial
  1
ByLayer
 72
     0
 43
0.0208333333333333
 43
0.0
 43
0.0
 43
0.0
 43
0.0
 43
0.0208333333333333
 43
0.0
 43
0.0
 43
0.0
 43
0.0
 43
1.0
 43
0.0
 43
0.0
 43
0.0
 43
0.0
 43
1.0
 77
     0
 47
0.0208333333333333
 47
0.0
 47
0.0
 47
0.0
 47
0.0
 47
0.0208333333333333
 47
0.0
 47
0.0
 47
0.0
 47
0.0
 47
1.0
 47
0.0
 47
0.0
 47
0.0
 47
0.0
 47
1.0
171
     0
 49
0.0208333333333333
 49
0.0
 49
0.0
 49
0.0
 49
0.0
 49
0.0208333333333333
 49
0.0
 49
0.0
 49
0.0
 49
0.0
 49
1.0
 49
0.0
 49
0.0
 49
0.0
 49
0.0
 49
1.0
175
     0
142
0.0208333333333333
142
0.0
142
0.0
142
0.0
142
0.0
142
0.0208333333333333
142
0.0
142
0.0
142
0.0
142
0.0
142
1.0
142
0.0
142
0.0
142
0.0
142
0.0
142
1.0
179
     0
144
0.0208333333333333
144
0.0
144
0.0
144
0.0
144
0.0
144
0.0208333333333333
144
0.0
144
0.0
144
0.0
144
0.0
144
1.0
144
0.0
144
0.0
144
0.0
144
0.0
144
1.0
147
0.0208333333333333
147
0.0
147
0.0
147
0.0
147
0.0
147
0.0208333333333333
147
0.0
147
0.0
147
0.0
147
0.0
147
1.0
147
0.0
147
0.0
147
0.0
147
0.0
147
1.0
  0
MATERIAL
  5
28B4D
102
{ACAD_XDICTIONARY
360
28B4E
102
}
102
{ACAD_REACTORS
330
173D1
102
}
330
173D1
100
AcDbMaterial
  1
Global
 72
     0
 43
0.0208333333333333
 43
0.0
 43
0.0
 43
0.0
 43
0.0
 43
0.0208333333333333
 43
0.0
 43
0.0
 43
0.0
 43
0.0
 43
1.0
 43
0.0
 43
0.0
 43
0.0
 43
0.0
 43
1.0
 77
     0
 47
0.0208333333333333
 47
0.0
 47
0.0
 47
0.0
 47
0.0
 47
0.0208333333333333
 47
0.0
 47
0.0
 47
0.0
 47
0.0
 47
1.0
 47
0.0
 47
0.0
 47
0.0
 47
0.0
 47
1.0
171
     0
 49
0.0208333333333333
 49
0.0
 49
0.0
 49
0.0
 49
0.0
 49
0.0208333333333333
 49
0.0
 49
0.0
 49
0.0
 49
0.0
 49
1.0
 49
0.0
 49
0.0
 49
0.0
 49
0.0
 49
1.0
175
     0
142
0.0208333333333333
142
0.0
142
0.0
142
0.0
142
0.0
142
0.0208333333333333
142
0.0
142
0.0
142
0.0
142
0.0
142
1.0
142
0.0
142
0.0
142
0.0
142
0.0
142
1.0
179
     0
144
0.0208333333333333
144
0.0
144
0.0
144
0.0
144
0.0
144
0.0208333333333333
144
0.0
144
0.0
144
0.0
144
0.0
144
1.0
144
0.0
144
0.0
144
0.0
144
0.0
144
1.0
147
0.0208333333333333
147
0.0
147
0.0
147
0.0
147
0.0
147
0.0208333333333333
147
0.0
147
0.0
147
0.0
147
0.0
147
1.0
147
0.0
147
0.0
147
0.0
147
0.0
147
1.0
  0
MLEADERSTYLE
  5
28B83
102
{ACAD_XDICTIONARY
360
28C60
102
}
102
{ACAD_REACTORS
330
28B82
102
}
330
28B82
100
AcDbMLeaderStyle
170
     2
171
     1
172
     0
 90
        2
 40
0.0
 41
0.0
173
     1
 91
-1056964608
340
7477
 92
       -2
290
     1
 42
2.0
291
     1
 43
0.36
  3
Standard
 44
4.0
300

342
7475
174
     1
178
     6
175
     1
176
     0
 93
-1056964608
 45
4.0
292
     0
297
     0
 46
4.0
 94
-1056964608
 47
1.0
 49
1.0
140
1.0
293
     1
141
0.0
294
     1
177
     0
142
1.0
295
     0
296
     0
143
0.125
1001
ACAD_MLEADERVER
1070
     2
  0
MLINESTYLE
  5
7480
102
{ACAD_REACTORS
330
7473
102
}
330
7473
100
AcDbMlineStyle
  2
STANDARD
 70
     0
  3

 62
     0
 51
90.0
 52
90.0
 71
     2
 49
0.5
 62
   256
  6
BYLAYER
 49
-0.5
 62
   256
  6
BYLAYER
  0
ACDBPLACEHOLDER
  5
173D0
102
{ACAD_REACTORS
330
173CF
102
}
330
173CF
  0
SCALE
  5
28B71
102
{ACAD_REACTORS
330
28B70
102
}
330
28B70
100
AcDbScale
 70
     0
300
1:1
140
1.0
141
1.0
290
     1
  0
SCALE
  5
28B72
102
{ACAD_REACTORS
330
28B70
102
}
330
28B70
100
AcDbScale
 70
     0
300
1:2
140
1.0
141
2.0
290
     0
  0
SCALE
  5
28B73
102
{ACAD_REACTORS
330
28B70
102
}
330
28B70
100
AcDbScale
 70
     0
300
1:4
140
1.0
141
4.0
290
     0
  0
SCALE
  5
28B74
102
{ACAD_REACTORS
330
28B70
102
}
330
28B70
100
AcDbScale
 70
     0
300
1:5
140
1.0
141
5.0
290
     0
  0
SCALE
  5
28B75
102
{ACAD_REACTORS
330
28B70
102
}
330
28B70
100
AcDbScale
 70
     0
300
1:8
140
1.0
141
8.0
290
     0
  0
SCALE
  5
28B76
102
{ACAD_REACTORS
330
28B70
102
}
330
28B70
100
AcDbScale
 70
     0
300
1:10
140
1.0
141
10.0
290
     0
  0
SCALE
  5
28B77
102
{ACAD_REACTORS
330
28B70
102
}
330
28B70
100
AcDbScale
 70
     0
300
1:16
140
1.0
141
16.0
290
     0
  0
SCALE
  5
28B78
102
{ACAD_REACTORS
330
28B70
102
}
330
28B70
100
AcDbScale
 70
     0
300
1:20
140
1.0
141
20.0
290
     0
  0
SCALE
  5
28B79
102
{ACAD_REACTORS
330
28B70
102
}
330
28B70
100
AcDbScale
 70
     0
300
1:30
140
1.0
141
30.0
290
     0
  0
SCALE
  5
28B7A
102
{ACAD_REACTORS
330
28B70
102
}
330
28B70
100
AcDbScale
 70
     0
300
1:40
140
1.0
141
40.0
290
     0
  0
SCALE
  5
28B7B
102
{ACAD_REACTORS
330
28B70
102
}
330
28B70
100
AcDbScale
 70
     0
300
1:50
140
1.0
141
50.0
290
     0
  0
SCALE
  5
28B7C
102
{ACAD_REACTORS
330
28B70
102
}
330
28B70
100
AcDbScale
 70
     0
300
1:100
140
1.0
141
100.0
290
     0
  0
SCALE
  5
28B7D
102
{ACAD_REACTORS
330
28B70
102
}
330
28B70
100
AcDbScale
 70
     0
300
2:1
140
2.0
141
1.0
290
     0
  0
SCALE
  5
28B7E
102
{ACAD_REACTORS
330
28B70
102
}
330
28B70
100
AcDbScale
 70
     0
300
4:1
140
4.0
141
1.0
290
     0
  0
SCALE
  5
28B7F
102
{ACAD_REACTORS
330
28B70
102
}
330
28B70
100
AcDbScale
 70
     0
300
8:1
140
8.0
141
1.0
290
     0
  0
SCALE
  5
28B80
102
{ACAD_REACTORS
330
28B70
102
}
330
28B70
100
AcDbScale
 70
     0
300
10:1
140
10.0
141
1.0
290
     0
  0
SCALE
  5
28B81
102
{ACAD_REACTORS
330
28B70
102
}
330
28B70
100
AcDbScale
 70
     0
300
100:1
140
100.0
141
1.0
290
     0
  0
ACDBSECTIONVIEWSTYLE
  5
28B85
102
{ACAD_XDICTIONARY
360
28BB3
102
}
102
{ACAD_REACTORS
330
28B84
102
}
330
28B84
100
AcDbModelDocViewStyle
 70
     0
  3
Metric50
290
     0
100
AcDbSectionViewStyle
 70
     0
 71
     0
 90
      102
 71
     1
340
7475
 40
5.0
340
0
340
0
 40
5.0
300
I, O, Q, S, X, Z
 40
10.0
 90
        0
 40
2.5
 90
        0
 71
     2
340
7479
 90
       25
340
7479
 90
       50
 40
5.0
 40
2.5
 40
5.0
 71
     3
340
7475
 40
5.0
 90
        0
 40
15.0
 90
        1
300
%<\AcVar ViewSectionStartId>%-%<\AcVar ViewSectionEndId>% (%<\AcVar ViewScale \f "%sn">%)
 71
     4
300
ANSI31
 40
1.0
 90
        0
290
     0
290
     0
 90
        6
 40
0.0
 40
1.570796326794896
 40
0.2617993877991494
 40
1.308996938995747
 40
-0.2617993877991494
 40
1.832595714594046
  0
TABLESTYLE
  5
28B6F
102
{ACAD_XDICTIONARY
360
28C1A
102
}
102
{ACAD_REACTORS
330
28B6E
102
}
330
28B6E
100
AcDbTableStyle
  3
Standard
 70
     0
 71
     0
 40
1.5
 41
1.5
280
     0
281
     0
  7
STANDARD
140
4.5
170
     2
 62
     0
 63
     7
283
     0
274
    -2
284
     1
 64
     0
275
    -2
285
     1
 65
     0
276
    -2
286
     1
 66
     0
277
    -2
287
     1
 67
     0
278
    -2
288
     1
 68
     0
279
    -2
289
     1
 69
     0
  7
STANDARD
140
6.0
170
     5
 62
     0
 63
     7
283
     0
274
    -2
284
     1
 64
     0
275
    -2
285
     1
 65
     0
276
    -2
286
     1
 66
     0
277
    -2
287
     1
 67
     0
278
    -2
288
     1
 68
     0
279
    -2
289
     1
 69
     0
  7
STANDARD
140
4.5
170
     5
 62
     0
 63
     7
283
     0
274
    -2
284
     1
 64
     0
275
    -2
285
     1
 65
     0
276
    -2
286
     1
 66
     0
277
    -2
287
     1
 67
     0
278
    -2
288
     1
 68
     0
279
    -2
289
     1
 69
     0
  0
VISUALSTYLE
  5
28B5B
102
{ACAD_XDICTIONARY
360
28C38
102
}
102
{ACAD_REACTORS
330
28B55
102
}
330
28B55
100
AcDbVisualStyle
  2
2dWireframe
 70
     4
 71
     0
 72
     2
 73
     0
 90
        0
 40
-0.6
 41
-30.0
 62
     5
 63
     7
 74
     1
 91
        4
 64
     7
 65
   257
 75
     1
175
     1
 42
1.0
 92
        0
 66
   257
 43
1.0
 76
     1
 77
     6
 78
     2
 67
     7
 79
     5
170
     0
171
     0
290
     0
174
     0
 93
        1
 44
0.0
173
     0
291
     0
 45
0.0
1001
ACAD
1000
AcDbSavedByObjectVersion
1070
     0
  0
VISUALSTYLE
  5
28B5A
102
{ACAD_XDICTIONARY
360
28C36
102
}
102
{ACAD_REACTORS
330
28B55
102
}
330
28B55
100
AcDbVisualStyle
  2
Basic
 70
     7
 71
     1
 72
     0
 73
     1
 90
        0
 40
-0.6
 41
-30.0
 62
     5
 63
     7
 74
     0
 91
        4
 64
     7
 65
   257
 75
     1
175
     1
 42
1.0
 92
        8
 66
     7
 43
1.0
 76
     1
 77
     6
 78
     2
 67
     7
 79
     5
170
     0
171
     0
290
     0
174
     0
 93
        1
 44
0.0
173
     0
291
     1
 45
0.0
1001
ACAD
1000
AcDbSavedByObjectVersion
1070
     0
  0
VISUALSTYLE
  5
28B61
102
{ACAD_XDICTIONARY
360
28C44
102
}
102
{ACAD_REACTORS
330
28B55
102
}
330
28B55
100
AcDbVisualStyle
  2
Brighten
 70
    12
 71
     2
 72
     2
 73
     0
 90
        0
 40
-0.6
 41
-30.0
 62
     5
 63
     7
 74
     1
 91
        4
 64
     7
 65
   257
 75
     1
175
     1
 42
1.0
 92
        8
 66
     7
 43
1.0
 76
     1
 77
     6
 78
     2
 67
     7
 79
     5
170
     0
171
     0
290
     0
174
     0
 93
        1
 44
50.0
173
     0
291
     1
 45
0.0
1001
ACAD
1000
AcDbSavedByObjectVersion
1070
     0
  0
VISUALSTYLE
  5
28B65
102
{ACAD_XDICTIONARY
360
28C4C
102
}
102
{ACAD_REACTORS
330
28B55
102
}
330
28B55
100
AcDbVisualStyle
  2
ColorChange
 70
    16
 71
     2
 72
     2
 73
     3
 90
        0
 40
-0.6
 41
-30.0
 62
     5
 63
     8
 74
     1
 91
        4
 64
     7
 65
   257
 75
     1
175
     1
 42
1.0
 92
        8
 66
     8
 43
1.0
 76
     1
 77
     6
 78
     2
 67
     7
 79
     5
170
     0
171
     0
290
     0
174
     0
 93
        1
 44
0.0
173
     0
291
     1
 45
0.0
1001
ACAD
1000
AcDbSavedByObjectVersion
1070
     0
  0
VISUALSTYLE
  5
28B5E
102
{ACAD_XDICTIONARY
360
28C3E
102
}
102
{ACAD_REACTORS
330
28B55
102
}
330
28B55
100
AcDbVisualStyle
  2
Conceptual
 70
     9
 71
     3
 72
     2
 73
     0
 90
        0
 40
-0.6
 41
-30.0
 62
     5
 63
     7
 74
     2
 91
        2
 64
     7
 65
   257
 75
     1
175
     1
 42
179.0
 92
        8
 66
     7
 43
1.0
 76
     1
 77
     6
 78
     2
 67
     7
 79
     3
170
     0
171
     0
290
     0
174
     0
 93
        1
 44
0.0
173
     0
291
     0
 45
0.0
1001
ACAD
1000
AcDbSavedByObjectVersion
1070
     0
  0
VISUALSTYLE
  5
28B60
102
{ACAD_XDICTIONARY
360
28C42
102
}
102
{ACAD_REACTORS
330
28B55
102
}
330
28B55
100
AcDbVisualStyle
  2
Dim
 70
    11
 71
     2
 72
     2
 73
     0
 90
        0
 40
-0.6
 41
-30.0
 62
     5
 63
     7
 74
     1
 91
        4
 64
     7
 65
   257
 75
     1
175
     1
 42
1.0
 92
        8
 66
     7
 43
1.0
 76
     1
 77
     6
 78
     2
 67
     7
 79
     5
170
     0
171
     0
290
     0
174
     0
 93
        1
 44
-50.0
173
     0
291
     1
 45
0.0
1001
ACAD
1000
AcDbSavedByObjectVersion
1070
     0
  0
VISUALSTYLE
  5
28B6D
102
{ACAD_XDICTIONARY
360
28C5C
102
}
102
{ACAD_REACTORS
330
28B55
102
}
330
28B55
100
AcDbVisualStyle
  2
EdgeColorOff
 70
    22
 71
     2
 72
     2
 73
     0
 90
        0
 40
-0.6
 41
-30.0
 62
     5
 63
     7
 74
     1
 91
        4
 64
     7
 65
   257
 75
     1
175
     1
 42
1.0
 92
        8
 66
     7
 43
1.0
 76
     1
 77
     6
 78
     2
 67
     7
 79
     5
170
     0
171
     0
290
     0
174
     0
 93
        1
 44
0.0
173
     0
291
     1
 45
0.0
1001
ACAD
1000
AcDbSavedByObjectVersion
1070
     0
  0
VISUALSTYLE
  5
28B64
102
{ACAD_XDICTIONARY
360
28C4A
102
}
102
{ACAD_REACTORS
330
28B55
102
}
330
28B55
100
AcDbVisualStyle
  2
Facepattern
 70
    15
 71
     2
 72
     2
 73
     0
 90
        0
 40
-0.6
 41
-30.0
 62
     5
 63
     7
 74
     1
 91
        4
 64
     7
 65
   257
 75
     1
175
     1
 42
1.0
 92
        8
 66
     7
 43
1.0
 76
     1
 77
     6
 78
     2
 67
     7
 79
     5
170
     0
171
     0
290
     0
174
     0
 93
        1
 44
0.0
173
     0
291
     1
 45
0.0
1001
ACAD
1000
AcDbSavedByObjectVersion
1070
     0
  0
VISUALSTYLE
  5
28B56
102
{ACAD_XDICTIONARY
360
28C2E
102
}
102
{ACAD_REACTORS
330
28B55
102
}
330
28B55
100
AcDbVisualStyle
  2
Flat
 70
     0
 71
     2
 72
     1
 73
     1
 90
        2
 40
-0.6
 41
30.0
 62
     5
 63
     7
 74
     0
 91
        0
 64
     7
 65
   257
 75
     1
175
     1
 42
1.0
 92
        8
 66
     7
 43
1.0
 76
     1
 77
     6
 78
     2
 67
     7
 79
     5
170
     0
171
     0
290
     0
174
     0
 93
       13
 44
0.0
173
     0
291
     1
 45
0.0
1001
ACAD
1000
AcDbSavedByObjectVersion
1070
     0
  0
VISUALSTYLE
  5
28B57
102
{ACAD_XDICTIONARY
360
28C30
102
}
102
{ACAD_REACTORS
330
28B55
102
}
330
28B55
100
AcDbVisualStyle
  2
FlatWithEdges
 70
     1
 71
     2
 72
     1
 73
     1
 90
        2
 40
-0.6
 41
30.0
 62
     5
 63
     7
 74
     1
 91
        0
 64
     7
 65
   257
 75
     1
175
     1
 42
1.0
 92
        0
 66
   257
 43
1.0
 76
     1
 77
     6
 78
     2
 67
     7
 79
     5
170
     0
171
     0
290
     0
174
     0
 93
       13
 44
0.0
173
     0
291
     1
 45
0.0
1001
ACAD
1000
AcDbSavedByObjectVersion
1070
     0
  0
VISUALSTYLE
  5
28B58
102
{ACAD_XDICTIONARY
360
28C32
102
}
102
{ACAD_REACTORS
330
28B55
102
}
330
28B55
100
AcDbVisualStyle
  2
Gouraud
 70
     2
 71
     2
 72
     2
 73
     1
 90
        2
 40
-0.6
 41
30.0
 62
     5
 63
     7
 74
     0
 91
        0
 64
     7
 65
   257
 75
     1
175
     1
 42
1.0
 92
        0
 66
     7
 43
1.0
 76
     1
 77
     6
 78
     2
 67
     7
 79
     5
170
     0
171
     0
290
     0
174
     0
 93
       13
 44
0.0
173
     0
291
     1
 45
0.0
1001
ACAD
1000
AcDbSavedByObjectVersion
1070
     0
  0
VISUALSTYLE
  5
28B59
102
{ACAD_XDICTIONARY
360
28C34
102
}
102
{ACAD_REACTORS
330
28B55
102
}
330
28B55
100
AcDbVisualStyle
  2
GouraudWithEdges
 70
     3
 71
     2
 72
     2
 73
     1
 90
        2
 40
-0.6
 41
30.0
 62
     5
 63
     7
 74
     1
 91
        0
 64
     7
 65
   257
 75
     1
175
     1
 42
1.0
 92
        0
 66
   257
 43
1.0
 76
     1
 77
     6
 78
     2
 67
     7
 79
     5
170
     0
171
     0
290
     0
174
     0
 93
       13
 44
0.0
173
     0
291
     1
 45
0.0
1001
ACAD
1000
AcDbSavedByObjectVersion
1070
     0
  0
VISUALSTYLE
  5
28B5D
102
{ACAD_XDICTIONARY
360
28C3C
102
}
102
{ACAD_REACTORS
330
28B55
102
}
330
28B55
100
AcDbVisualStyle
  2
Hidden
 70
     6
 71
     1
 72
     2
 73
     2
 90
        0
 40
-0.6
 41
-30.0
 62
     5
 63
     7
 74
     2
 91
        2
 64
     7
 65
   257
 75
     2
175
     1
 42
40.0
 92
        0
 66
   257
 43
1.0
 76
     1
 77
     6
 78
     2
 67
     7
 79
     3
170
     0
171
     0
290
     0
174
     0
 93
        1
 44
0.0
173
     0
291
     0
 45
0.0
1001
ACAD
1000
AcDbSavedByObjectVersion
1070
     0
  0
VISUALSTYLE
  5
28B6B
102
{ACAD_XDICTIONARY
360
28C58
102
}
102
{ACAD_REACTORS
330
28B55
102
}
330
28B55
100
AcDbVisualStyle
  2
JitterOff
 70
    20
 71
     2
 72
     2
 73
     0
 90
        0
 40
-0.6
 41
-30.0
 62
     5
 63
     7
 74
     1
 91
        4
 64
     7
 65
   257
 75
     1
175
     1
 42
1.0
 92
       10
 66
     7
 43
1.0
 76
     1
 77
     6
 78
     2
 67
     7
 79
     5
170
     0
171
     0
290
     0
174
     0
 93
        1
 44
0.0
173
     0
291
     1
 45
0.0
1001
ACAD
1000
AcDbSavedByObjectVersion
1070
     0
  0
VISUALSTYLE
  5
28B63
102
{ACAD_XDICTIONARY
360
28C48
102
}
102
{ACAD_REACTORS
330
28B55
102
}
330
28B55
100
AcDbVisualStyle
  2
Linepattern
 70
    14
 71
     2
 72
     2
 73
     0
 90
        0
 40
-0.6
 41
-30.0
 62
     5
 63
     7
 74
     1
 91
        4
 64
     7
 65
   257
 75
     7
175
     7
 42
1.0
 92
        8
 66
     7
 43
1.0
 76
     1
 77
     6
 78
     2
 67
     7
 79
     5
170
     0
171
     0
290
     0
174
     0
 93
        1
 44
0.0
173
     0
291
     1
 45
0.0
1001
ACAD
1000
AcDbSavedByObjectVersion
1070
     0
  0
VISUALSTYLE
  5
28B6C
102
{ACAD_XDICTIONARY
360
28C5A
102
}
102
{ACAD_REACTORS
330
28B55
102
}
330
28B55
100
AcDbVisualStyle
  2
OverhangOff
 70
    21
 71
     2
 72
     2
 73
     0
 90
        0
 40
-0.6
 41
-30.0
 62
     5
 63
     7
 74
     1
 91
        4
 64
     7
 65
   257
 75
     1
175
     1
 42
1.0
 92
        9
 66
     7
 43
1.0
 76
     1
 77
     6
 78
     2
 67
     7
 79
     5
170
     0
171
     0
290
     0
174
     0
 93
        1
 44
0.0
173
     0
291
     1
 45
0.0
1001
ACAD
1000
AcDbSavedByObjectVersion
1070
     0
  0
VISUALSTYLE
  5
28B5F
102
{ACAD_XDICTIONARY
360
28C40
102
}
102
{ACAD_REACTORS
330
28B55
102
}
330
28B55
100
AcDbVisualStyle
  2
Realistic
 70
     8
 71
     2
 72
     3
 73
     0
 90
        2
 40
-0.6
 41
30.0
 62
     5
 63
     7
 74
     0
 91
        0
 64
     7
 65
   257
 75
     1
175
     1
 42
1.0
 92
        8
 66
   257
 43
1.0
 76
     1
 77
     6
 78
     2
 67
     7
 79
     3
170
     0
171
     0
290
     0
174
     0
 93
       13
 44
0.0
173
     0
291
     0
 45
0.0
1001
ACAD
1000
AcDbSavedByObjectVersion
1070
     0
  0
VISUALSTYLE
  5
28B6A
102
{ACAD_XDICTIONARY
360
28C56
102
}
102
{ACAD_REACTORS
330
28B55
102
}
330
28B55
100
AcDbVisualStyle
  2
Shaded
 70
    27
 71
     2
 72
     2
 73
     1
 90
        2
 40
-0.6
 41
30.0
 62
     5
 63
     7
 74
     0
 91
        4
 64
     7
 65
   257
 75
     1
175
     1
 42
1.0
 92
        8
 66
   257
 43
1.0
 76
     1
 77
     6
 78
     2
 67
     8
 79
     3
170
     0
171
     0
290
     0
174
     0
 93
        5
 44
0.0
173
     0
291
     0
 45
0.0
1001
ACAD
1000
AcDbSavedByObjectVersion
1070
     0
  0
VISUALSTYLE
  5
28B69
102
{ACAD_XDICTIONARY
360
28C54
102
}
102
{ACAD_REACTORS
330
28B55
102
}
330
28B55
100
AcDbVisualStyle
  2
Shaded with edges
 70
    26
 71
     2
 72
     2
 73
     1
 90
        2
 40
-0.6
 41
30.0
 62
     5
 63
     7
 74
     1
 91
       10
 64
     7
 65
   257
 75
     2
175
     1
 42
1.0
 92
        8
 66
   257
 43
1.0
 76
     1
 77
     6
 78
     2
 67
     7
 79
     3
170
     0
171
     0
290
     0
174
     0
 93
        5
 44
0.0
173
     0
291
     0
 45
0.0
1001
ACAD
1000
AcDbSavedByObjectVersion
1070
     0
  0
VISUALSTYLE
  5
28B66
102
{ACAD_XDICTIONARY
360
28C4E
102
}
102
{ACAD_REACTORS
330
28B55
102
}
330
28B55
100
AcDbVisualStyle
  2
Shades of Gray
 70
    23
 71
     2
 72
     2
 73
     3
 90
        0
 40
-0.6
 41
-30.0
 62
     5
 63
     7
 74
     2
 91
        2
 64
     7
 65
     7
 75
     1
175
     1
 42
40.0
 92
        8
 66
     7
 43
1.0
 76
     1
 77
     6
 78
     2
 67
     7
 79
     3
170
     0
171
     0
290
     0
174
     0
 93
        1
 44
0.0
173
     0
291
     0
 45
0.0
1001
ACAD
1000
AcDbSavedByObjectVersion
1070
     0
  0
VISUALSTYLE
  5
28B67
102
{ACAD_XDICTIONARY
360
28C50
102
}
102
{ACAD_REACTORS
330
28B55
102
}
330
28B55
100
AcDbVisualStyle
  2
Sketchy
 70
    24
 71
     1
 72
     2
 73
     2
 90
        0
 40
-0.6
 41
-30.0
 62
     5
 63
     7
 74
     2
 91
        2
 64
     7
 65
     7
 75
     1
175
     1
 42
40.0
 92
       11
 66
     7
 43
1.0
 76
     1
 77
     6
 78
     2
 67
     7
 79
     6
170
     0
171
     0
290
     0
174
     0
 93
        1
 44
0.0
173
     0
291
     0
 45
0.0
1001
ACAD
1000
AcDbSavedByObjectVersion
1070
     0
  0
VISUALSTYLE
  5
28B62
102
{ACAD_XDICTIONARY
360
28C46
102
}
102
{ACAD_REACTORS
330
28B55
102
}
330
28B55
100
AcDbVisualStyle
  2
Thicken
 70
    13
 71
     2
 72
     2
 73
     0
 90
        0
 40
-0.6
 41
-30.0
 62
     5
 63
     7
 74
     1
 91
        4
 64
     7
 65
   257
 75
     1
175
     1
 42
1.0
 92
       12
 66
     7
 43
1.0
 76
     1
 77
     6
 78
     2
 67
     7
 79
     5
170
     0
171
     0
290
     0
174
     0
 93
        1
 44
0.0
173
     0
291
     1
 45
0.0
1001
ACAD
1000
AcDbSavedByObjectVersion
1070
     0
  0
VISUALSTYLE
  5
28B5C
102
{ACAD_XDICTIONARY
360
28C3A
102
}
102
{ACAD_REACTORS
330
28B55
102
}
330
28B55
100
AcDbVisualStyle
  2
Wireframe
 70
     5
 71
     0
 72
     2
 73
     0
 90
        0
 40
-0.6
 41
-30.0
 62
     5
 63
     7
 74
     1
 91
        4
 64
     7
 65
   257
 75
     1
175
     1
 42
1.0
 92
        0
 66
   257
 43
1.0
 76
     1
 77
     6
 78
     2
 67
     7
 79
     3
170
     0
171
     0
290
     0
174
     0
 93
        1
 44
0.0
173
     0
291
     0
 45
0.0
1001
ACAD
1000
AcDbSavedByObjectVersion
1070
     0
  0
VISUALSTYLE
  5
28B68
102
{ACAD_XDICTIONARY
360
28C52
102
}
102
{ACAD_REACTORS
330
28B55
102
}
330
28B55
100
AcDbVisualStyle
  2
X-Ray
 70
    25
 71
     2
 72
     2
 73
     1
 90
        1
 40
0.5
 41
-30.0
 62
     5
 63
     7
 74
     1
 91
        0
 64
     7
 65
   257
 75
     1
175
     1
 42
1.0
 92
        8
 66
     7
 43
1.0
 76
     1
 77
     6
 78
     2
 67
     7
 79
     3
170
     0
171
     0
290
     0
174
     0
 93
       13
 44
0.0
173
     0
291
     0
 45
0.0
1001
ACAD
1000
AcDbSavedByObjectVersion
1070
     0
  0
DICTIONARYVAR
  5
28BBD
102
{ACAD_REACTORS
330
286CF
102
}
330
286CF
100
DictionaryVariables
280
     0
  1
1:1
  0
DICTIONARYVAR
  5
28BB9
102
{ACAD_REACTORS
330
286CF
102
}
330
286CF
100
DictionaryVariables
280
     0
  1
STANDARD
  0
DICTIONARYVAR
  5
28BB8
102
{ACAD_REACTORS
330
286CF
102
}
330
286CF
100
DictionaryVariables
280
     0
  1
STANDARD
  0
DICTIONARYVAR
  5
28BBA
102
{ACAD_REACTORS
330
286CF
102
}
330
286CF
100
DictionaryVariables
280
     0
  1
Metric50
  0
DICTIONARYVAR
  5
28BBB
102
{ACAD_REACTORS
330
286CF
102
}
330
286CF
100
DictionaryVariables
280
     0
  1
Metric50
  0
DICTIONARYVAR
  5
286D0
102
{ACAD_REACTORS
330
286CF
102
}
330
286CF
100
DictionaryVariables
280
     0
  1
1
  0
DICTIONARYVAR
  5
28C18
102
{ACAD_REACTORS
330
286CF
102
}
330
286CF
100
DictionaryVariables
280
     0
  1
0
  0
DICTIONARYVAR
  5
28BBF
102
{ACAD_REACTORS
330
286CF
102
}
330
286CF
100
DictionaryVariables
280
     0
  1
1
  0
DICTIONARYVAR
  5
28BC0
102
{ACAD_REACTORS
330
286CF
102
}
330
286CF
100
DictionaryVariables
280
     0
  1
15
  0
DICTIONARYVAR
  5
28BBE
102
{ACAD_REACTORS
330
286CF
102
}
330
286CF
100
DictionaryVariables
280
     0
  1
0
  0
DICTIONARYVAR
  5
28BBC
102
{ACAD_REACTORS
330
286CF
102
}
330
286CF
100
DictionaryVariables
280
     0
  1
0
  0
DICTIONARYVAR
  5
286D1
102
{ACAD_REACTORS
330
286CF
102
}
330
286CF
100
DictionaryVariables
280
     0
  1

  0
DICTIONARYVAR
  5
28C17
102
{ACAD_REACTORS
330
286CF
102
}
330
286CF
100
DictionaryVariables
280
     0
  1
127
  0
DICTIONARYVAR
  5
28C19
102
{ACAD_REACTORS
330
286CF
102
}
330
286CF
100
DictionaryVariables
280
     0
  1
0
  0
DICTIONARY
  5
28C25
102
{ACAD_REACTORS
330
28C23
102
}
330
28C23
100
AcDbDictionary
281
     1
  0
DICTIONARY
  5
28C24
102
{ACAD_REACTORS
330
28C23
102
}
330
28C23
100
AcDbDictionary
281
     1
  3
2129937520
350
28C1E
  3
2129937528
350
28C1F
  3
2129937536
350
28C20
  3
2129937544
350
28C21
  3
2129937552
350
28C22
  0
DICTIONARY
  5
28BB5
330
28B87
100
AcDbDictionary
280
     1
281
     1
  3
ACAD_XREC_ROUNDTRIP
360
28C63
  0
DICTIONARY
  5
28C26
330
173D5
100
AcDbDictionary
280
     1
281
     1
  3
ACAD_XREC_ROUNDTRIP
360
28C27
  0
DICTIONARY
  5
28C28
330
173D6
100
AcDbDictionary
280
     1
281
     1
  3
ACAD_XREC_ROUNDTRIP
360
28C29
  0
DICTIONARY
  5
28B46
330
28B45
100
AcDbDictionary
280
     1
281
     1
  3
ACAD_XREC_ROUNDTRIP
360
28C2C
  3
BUMPTILE
360
28B48
  3
DIFFUSETILE
360
28B47
  3
OPACITYTILE
360
28B4B
  3
REFLECTIONTILE
360
28B4A
  3
REFRACTIONTILE
360
28B4C
  3
SPECULARTILE
360
28B49
  0
DICTIONARY
  5
28B3E
330
28B3D
100
AcDbDictionary
280
     1
281
     1
  3
ACAD_XREC_ROUNDTRIP
360
28C2B
  3
BUMPTILE
360
28B40
  3
DIFFUSETILE
360
28B3F
  3
OPACITYTILE
360
28B43
  3
REFLECTIONTILE
360
28B42
  3
REFRACTIONTILE
360
28B44
  3
SPECULARTILE
360
28B41
  0
DICTIONARY
  5
28B4E
330
28B4D
100
AcDbDictionary
280
     1
281
     1
  3
ACAD_XREC_ROUNDTRIP
360
28C2D
  3
BUMPTILE
360
28B50
  3
DIFFUSETILE
360
28B4F
  3
OPACITYTILE
360
28B53
  3
REFLECTIONTILE
360
28B52
  3
REFRACTIONTILE
360
28B54
  3
SPECULARTILE
360
28B51
  0
DICTIONARY
  5
28C60
330
28B83
100
AcDbDictionary
280
     1
281
     1
  3
ACAD_XREC_ROUNDTRIP
360
28C61
  0
DICTIONARY
  5
28BB3
330
28B85
100
AcDbDictionary
280
     1
281
     1
  3
ACAD_XREC_ROUNDTRIP
360
28C62
  0
DICTIONARY
  5
28C1A
330
28B6F
100
AcDbDictionary
280
     1
281
     1
  3
ACAD_ROUNDTRIP_2008_TABLESTYLE_CELLSTYLEMAP
360
28C1B
  3
ACAD_XREC_ROUNDTRIP
360
28C5E
  0
DICTIONARY
  5
28C38
330
28B5B
100
AcDbDictionary
280
     1
281
     1
  3
ACAD_XREC_ROUNDTRIP
360
28C39
  0
DICTIONARY
  5
28C36
330
28B5A
100
AcDbDictionary
280
     1
281
     1
  3
ACAD_XREC_ROUNDTRIP
360
28C37
  0
DICTIONARY
  5
28C44
330
28B61
100
AcDbDictionary
280
     1
281
     1
  3
ACAD_XREC_ROUNDTRIP
360
28C45
  0
DICTIONARY
  5
28C4C
330
28B65
100
AcDbDictionary
280
     1
281
     1
  3
ACAD_XREC_ROUNDTRIP
360
28C4D
  0
DICTIONARY
  5
28C3E
330
28B5E
100
AcDbDictionary
280
     1
281
     1
  3
ACAD_XREC_ROUNDTRIP
360
28C3F
  0
DICTIONARY
  5
28C42
330
28B60
100
AcDbDictionary
280
     1
281
     1
  3
ACAD_XREC_ROUNDTRIP
360
28C43
  0
DICTIONARY
  5
28C5C
330
28B6D
100
AcDbDictionary
280
     1
281
     1
  3
ACAD_XREC_ROUNDTRIP
360
28C5D
  0
DICTIONARY
  5
28C4A
330
28B64
100
AcDbDictionary
280
     1
281
     1
  3
ACAD_XREC_ROUNDTRIP
360
28C4B
  0
DICTIONARY
  5
28C2E
330
28B56
100
AcDbDictionary
280
     1
281
     1
  3
ACAD_XREC_ROUNDTRIP
360
28C2F
  0
DICTIONARY
  5
28C30
330
28B57
100
AcDbDictionary
280
     1
281
     1
  3
ACAD_XREC_ROUNDTRIP
360
28C31
  0
DICTIONARY
  5
28C32
330
28B58
100
AcDbDictionary
280
     1
281
     1
  3
ACAD_XREC_ROUNDTRIP
360
28C33
  0
DICTIONARY
  5
28C34
330
28B59
100
AcDbDictionary
280
     1
281
     1
  3
ACAD_XREC_ROUNDTRIP
360
28C35
  0
DICTIONARY
  5
28C3C
330
28B5D
100
AcDbDictionary
280
     1
281
     1
  3
ACAD_XREC_ROUNDTRIP
360
28C3D
  0
DICTIONARY
  5
28C58
330
28B6B
100
AcDbDictionary
280
     1
281
     1
  3
ACAD_XREC_ROUNDTRIP
360
28C59
  0
DICTIONARY
  5
28C48
330
28B63
100
AcDbDictionary
280
     1
281
     1
  3
ACAD_XREC_ROUNDTRIP
360
28C49
  0
DICTIONARY
  5
28C5A
330
28B6C
100
AcDbDictionary
280
     1
281
     1
  3
ACAD_XREC_ROUNDTRIP
360
28C5B
  0
DICTIONARY
  5
28C40
330
28B5F
100
AcDbDictionary
280
     1
281
     1
  3
ACAD_XREC_ROUNDTRIP
360
28C41
  0
DICTIONARY
  5
28C56
330
28B6A
100
AcDbDictionary
280
     1
281
     1
  3
ACAD_XREC_ROUNDTRIP
360
28C57
  0
DICTIONARY
  5
28C54
330
28B69
100
AcDbDictionary
280
     1
281
     1
  3
ACAD_XREC_ROUNDTRIP
360
28C55
  0
DICTIONARY
  5
28C4E
330
28B66
100
AcDbDictionary
280
     1
281
     1
  3
ACAD_XREC_ROUNDTRIP
360
28C4F
  0
DICTIONARY
  5
28C50
330
28B67
100
AcDbDictionary
280
     1
281
     1
  3
ACAD_XREC_ROUNDTRIP
360
28C51
  0
DICTIONARY
  5
28C46
330
28B62
100
AcDbDictionary
280
     1
281
     1
  3
ACAD_XREC_ROUNDTRIP
360
28C47
  0
DICTIONARY
  5
28C3A
330
28B5C
100
AcDbDictionary
280
     1
281
     1
  3
ACAD_XREC_ROUNDTRIP
360
28C3B
  0
DICTIONARY
  5
28C52
330
28B68
100
AcDbDictionary
280
     1
281
     1
  3
ACAD_XREC_ROUNDTRIP
360
28C53
  0
XRECORD
  5
28C1E
102
{ACAD_REACTORS
330
28C24
102
}
330
28C24
100
AcDbXrecord
280
     1
  1
AcDb_Thumbnail_Schema
102
{ATTRRECORD
341
28C1F
  2
AcDbDs::TreatedAsObjectData
280
     1
291
     1
102
ATTRRECORD}
102
{ATTRRECORD
341
28C20
  2
AcDbDs::Legacy
280
     1
291
     1
102
ATTRRECORD}
  2
AcDbDs::ID
280
    10
 91
        8
102
{ATTRRECORD
341
28C21
  2
AcDs:Indexable
280
     1
291
     1
102
ATTRRECORD}
102
{ATTRRECORD
341
28C22
  2
AcDbDs::HandleAttribute
280
     7
282
     1
102
ATTRRECORD}
  2
Thumbnail_Data
280
    15
 91
        0
  0
XRECORD
  5
28C1F
102
{ACAD_REACTORS
330
28C24
102
}
330
28C24
100
AcDbXrecord
280
     1
  1
AcDbDs::TreatedAsObjectDataSchema
  2
AcDbDs::TreatedAsObjectData
280
     1
 91
        0
  0
XRECORD
  5
28C20
102
{ACAD_REACTORS
330
28C24
102
}
330
28C24
100
AcDbXrecord
280
     1
  1
AcDbDs::LegacySchema
  2
AcDbDs::Legacy
280
     1
 91
        0
  0
XRECORD
  5
28C21
102
{ACAD_REACTORS
330
28C24
102
}
330
28C24
100
AcDbXrecord
280
     1
  1
AcDbDs::IndexedPropertySchema
  2
AcDs:Indexable
280
     1
 91
        0
  0
XRECORD
  5
28C22
102
{ACAD_REACTORS
330
28C24
102
}
330
28C24
100
AcDbXrecord
280
     1
  1
AcDbDs::HandleAttributeSchema
  2
AcDbDs::HandleAttribute
280
     7
 91
        1
284
     1
  0
XRECORD
  5
28C63
102
{ACAD_REACTORS
330
28BB5
102
}
330
28BB5
100
AcDbXrecord
280
     1
102
DISPLAYNAME
  1
Metric50
102
FLAGS
 90
        0
  0
XRECORD
  5
28C27
102
{ACAD_REACTORS
330
28C26
102
}
330
28C26
100
AcDbXrecord
280
     1
102
SHADEPLOT
 70
     1
102
SHADEPLOTRESLEVEL
 70
     2
102
SHADEPLOTCUSTOMDPI
 70
   300
  0
XRECORD
  5
28C29
102
{ACAD_REACTORS
330
28C28
102
}
330
28C28
100
AcDbXrecord
280
     1
102
SHADEPLOT
 70
     0
102
SHADEPLOTRESLEVEL
 70
     2
102
SHADEPLOTCUSTOMDPI
 70
   300
  0
XRECORD
  5
28C2C
102
{ACAD_REACTORS
330
28B46
102
}
330
28B46
100
AcDbXrecord
280
     1
102
MATERIAL
148
0.0
149
0.0
149
0.0
 93
        0
 94
      127
282
     0
 72
     0
 77
     0
171
     0
175
     0
179
     0
273
     0
  0
XRECORD
  5
28B48
102
{ACAD_REACTORS
330
28B46
102
}
330
28B46
100
AcDbXrecord
280
     1
270
     1
271
     1
  0
XRECORD
  5
28B47
102
{ACAD_REACTORS
330
28B46
102
}
330
28B46
100
AcDbXrecord
280
     1
270
     1
271
     1
  0
XRECORD
  5
28B4B
102
{ACAD_REACTORS
330
28B46
102
}
330
28B46
100
AcDbXrecord
280
     1
270
     1
271
     1
  0
XRECORD
  5
28B4A
102
{ACAD_REACTORS
330
28B46
102
}
330
28B46
100
AcDbXrecord
280
     1
270
     1
271
     1
  0
XRECORD
  5
28B4C
102
{ACAD_REACTORS
330
28B46
102
}
330
28B46
100
AcDbXrecord
280
     1
270
     1
271
     1
  0
XRECORD
  5
28B49
102
{ACAD_REACTORS
330
28B46
102
}
330
28B46
100
AcDbXrecord
280
     1
270
     1
271
     1
  0
XRECORD
  5
28C2B
102
{ACAD_REACTORS
330
28B3E
102
}
330
28B3E
100
AcDbXrecord
280
     1
102
MATERIAL
148
0.0
149
0.0
149
0.0
 93
        0
 94
      127
282
     0
 72
     0
 77
     0
171
     0
175
     0
179
     0
273
     0
  0
XRECORD
  5
28B40
102
{ACAD_REACTORS
330
28B3E
102
}
330
28B3E
100
AcDbXrecord
280
     1
270
     1
271
     1
  0
XRECORD
  5
28B3F
102
{ACAD_REACTORS
330
28B3E
102
}
330
28B3E
100
AcDbXrecord
280
     1
270
     1
271
     1
  0
XRECORD
  5
28B43
102
{ACAD_REACTORS
330
28B3E
102
}
330
28B3E
100
AcDbXrecord
280
     1
270
     1
271
     1
  0
XRECORD
  5
28B42
102
{ACAD_REACTORS
330
28B3E
102
}
330
28B3E
100
AcDbXrecord
280
     1
270
     1
271
     1
  0
XRECORD
  5
28B44
102
{ACAD_REACTORS
330
28B3E
102
}
330
28B3E
100
AcDbXrecord
280
     1
270
     1
271
     1
  0
XRECORD
  5
28B41
102
{ACAD_REACTORS
330
28B3E
102
}
330
28B3E
100
AcDbXrecord
280
     1
270
     1
271
     1
  0
XRECORD
  5
28C2D
102
{ACAD_REACTORS
330
28B4E
102
}
330
28B4E
100
AcDbXrecord
280
     1
102
MATERIAL
148
0.0
149
0.0
149
0.0
 93
        0
 94
      127
282
     0
 72
     0
 77
     0
171
     0
175
     0
179
     0
273
     0
  0
XRECORD
  5
28B50
102
{ACAD_REACTORS
330
28B4E
102
}
330
28B4E
100
AcDbXrecord
280
     1
270
     1
271
     1
  0
XRECORD
  5
28B4F
102
{ACAD_REACTORS
330
28B4E
102
}
330
28B4E
100
AcDbXrecord
280
     1
270
     1
271
     1
  0
XRECORD
  5
28B53
102
{ACAD_REACTORS
330
28B4E
102
}
330
28B4E
100
AcDbXrecord
280
     1
270
     1
271
     1
  0
XRECORD
  5
28B52
102
{ACAD_REACTORS
330
28B4E
102
}
330
28B4E
100
AcDbXrecord
280
     1
270
     1
271
     1
  0
XRECORD
  5
28B54
102
{ACAD_REACTORS
330
28B4E
102
}
330
28B4E
100
AcDbXrecord
280
     1
270
     1
271
     1
  0
XRECORD
  5
28B51
102
{ACAD_REACTORS
330
28B4E
102
}
330
28B4E
100
AcDbXrecord
280
     1
270
     1
271
     1
  0
XRECORD
  5
28C61
102
{ACAD_REACTORS
330
28C60
102
}
330
28C60
100
AcDbXrecord
280
     1
102
ACAD_ROUNDTRIP_2012_MLEADER_STYLE
298
     1
  0
XRECORD
  5
28C62
102
{ACAD_REACTORS
330
28BB3
102
}
330
28BB3
100
AcDbXrecord
280
     1
102
DISPLAYNAME
  1
Metric50
102
FLAGS
 90
        0
  0
CELLSTYLEMAP
  5
28C1B
102
{ACAD_REACTORS
330
28C1A
102
}
330
28C1A
100
AcDbCellStyleMap
 90
        3
300
CELLSTYLE
  1
TABLEFORMAT_BEGIN
 90
        5
170
     1
 91
        0
 92
    32768
 62
   257
 93
        1
300
CONTENTFORMAT
  1
CONTENTFORMAT_BEGIN
 90
        0
 91
        0
 92
      512
 93
        0
300

 40
0.0
140
1.0
 94
        5
 62
     0
340
7475
144
6.0
309
CONTENTFORMAT_END
171
     1
301
MARGIN
  1
CELLMARGIN_BEGIN
 40
1.5
 40
1.5
 40
1.5
 40
1.5
 40
4.5
 40
4.5
309
CELLMARGIN_END
 94
        6
 95
        1
302
GRIDFORMAT
  1
GRIDFORMAT_BEGIN
 90
        0
 91
        1
 62
     0
 92
       -2
340
0
 93
        0
 40
1.125
309
GRIDFORMAT_END
 95
        2
302
GRIDFORMAT
  1
GRIDFORMAT_BEGIN
 90
        0
 91
        1
 62
     0
 92
       -2
340
0
 93
        0
 40
1.125
309
GRIDFORMAT_END
 95
        4
302
GRIDFORMAT
  1
GRIDFORMAT_BEGIN
 90
        0
 91
        1
 62
     0
 92
       -2
340
0
 93
        0
 40
1.125
309
GRIDFORMAT_END
 95
        8
302
GRIDFORMAT
  1
GRIDFORMAT_BEGIN
 90
        0
 91
        1
 62
     0
 92
       -2
340
0
 93
        0
 40
1.125
309
GRIDFORMAT_END
 95
       16
302
GRIDFORMAT
  1
GRIDFORMAT_BEGIN
 90
        0
 91
        1
 62
     0
 92
       -2
340
0
 93
        0
 40
1.125
309
GRIDFORMAT_END
 95
       32
302
GRIDFORMAT
  1
GRIDFORMAT_BEGIN
 90
        0
 91
        1
 62
     0
 92
       -2
340
0
 93
        0
 40
1.125
309
GRIDFORMAT_END
309
TABLEFORMAT_END
  1
CELLSTYLE_BEGIN
 90
        1
 91
        1
300
_TITLE
309
CELLSTYLE_END
300
CELLSTYLE
  1
TABLEFORMAT_BEGIN
 90
        5
170
     1
 91
        0
 92
        0
 62
   257
 93
        1
300
CONTENTFORMAT
  1
CONTENTFORMAT_BEGIN
 90
        0
 91
        0
 92
      512
 93
        0
300

 40
0.0
140
1.0
 94
        5
 62
     0
340
7475
144
4.5
309
CONTENTFORMAT_END
171
     1
301
MARGIN
  1
CELLMARGIN_BEGIN
 40
1.5
 40
1.5
 40
1.5
 40
1.5
 40
4.5
 40
4.5
309
CELLMARGIN_END
 94
        6
 95
        1
302
GRIDFORMAT
  1
GRIDFORMAT_BEGIN
 90
        0
 91
        1
 62
     0
 92
       -2
340
0
 93
        0
 40
1.125
309
GRIDFORMAT_END
 95
        2
302
GRIDFORMAT
  1
GRIDFORMAT_BEGIN
 90
        0
 91
        1
 62
     0
 92
       -2
340
0
 93
        0
 40
1.125
309
GRIDFORMAT_END
 95
        4
302
GRIDFORMAT
  1
GRIDFORMAT_BEGIN
 90
        0
 91
        1
 62
     0
 92
       -2
340
0
 93
        0
 40
1.125
309
GRIDFORMAT_END
 95
        8
302
GRIDFORMAT
  1
GRIDFORMAT_BEGIN
 90
        0
 91
        1
 62
     0
 92
       -2
340
0
 93
        0
 40
1.125
309
GRIDFORMAT_END
 95
       16
302
GRIDFORMAT
  1
GRIDFORMAT_BEGIN
 90
        0
 91
        1
 62
     0
 92
       -2
340
0
 93
        0
 40
1.125
309
GRIDFORMAT_END
 95
       32
302
GRIDFORMAT
  1
GRIDFORMAT_BEGIN
 90
        0
 91
        1
 62
     0
 92
       -2
340
0
 93
        0
 40
1.125
309
GRIDFORMAT_END
309
TABLEFORMAT_END
  1
CELLSTYLE_BEGIN
 90
        2
 91
        1
300
_HEADER
309
CELLSTYLE_END
300
CELLSTYLE
  1
TABLEFORMAT_BEGIN
 90
        5
170
     1
 91
        0
 92
        0
 62
   257
 93
        1
300
CONTENTFORMAT
  1
CONTENTFORMAT_BEGIN
 90
        0
 91
        0
 92
      512
 93
        0
300

 40
0.0
140
1.0
 94
        2
 62
     0
340
7475
144
4.5
309
CONTENTFORMAT_END
171
     1
301
MARGIN
  1
CELLMARGIN_BEGIN
 40
1.5
 40
1.5
 40
1.5
 40
1.5
 40
4.5
 40
4.5
309
CELLMARGIN_END
 94
        6
 95
        1
302
GRIDFORMAT
  1
GRIDFORMAT_BEGIN
 90
        0
 91
        1
 62
     0
 92
       -2
340
0
 93
        0
 40
1.125
309
GRIDFORMAT_END
 95
        2
302
GRIDFORMAT
  1
GRIDFORMAT_BEGIN
 90
        0
 91
        1
 62
     0
 92
       -2
340
0
 93
        0
 40
1.125
309
GRIDFORMAT_END
 95
        4
302
GRIDFORMAT
  1
GRIDFORMAT_BEGIN
 90
        0
 91
        1
 62
     0
 92
       -2
340
0
 93
        0
 40
1.125
309
GRIDFORMAT_END
 95
        8
302
GRIDFORMAT
  1
GRIDFORMAT_BEGIN
 90
        0
 91
        1
 62
     0
 92
       -2
340
0
 93
        0
 40
1.125
309
GRIDFORMAT_END
 95
       16
302
GRIDFORMAT
  1
GRIDFORMAT_BEGIN
 90
        0
 91
        1
 62
     0
 92
       -2
340
0
 93
        0
 40
1.125
309
GRIDFORMAT_END
 95
       32
302
GRIDFORMAT
  1
GRIDFORMAT_BEGIN
 90
        0
 91
        1
 62
     0
 92
       -2
340
0
 93
        0
 40
1.125
309
GRIDFORMAT_END
309
TABLEFORMAT_END
  1
CELLSTYLE_BEGIN
 90
        3
 91
        2
300
_DATA
309
CELLSTYLE_END
  0
XRECORD
  5
28C5E
102
{ACAD_REACTORS
330
28C1A
102
}
330
28C1A
100
AcDbXrecord
280
     1
102
ACAD_ROUNDTRIP_PRE2007_TABLESTYLE
 90
      512
 91
        0
  1

 92
      512
 93
        0
  2

 94
      512
 95
        0
  3

  0
XRECORD
  5
28C39
102
{ACAD_REACTORS
330
28C38
102
}
330
28C38
100
AcDbXrecord
280
     1
102
RTVSPost2010Prop28
280
     1
102
RTVSPost2010PropOp28
 70
     1
102
RTVSPost2010Prop29
280
     1
102
RTVSPost2010PropOp29
 70
     1
102
RTVSPost2010Prop30
280
     0
102
RTVSPost2010PropOp30
 70
     1
102
RTVSPost2010Prop31
280
     0
102
RTVSPost2010PropOp31
 70
     1
102
RTVSPost2010Prop32
280
     0
102
RTVSPost2010PropOp32
 70
     1
102
RTVSPost2010Prop33
280
     0
102
RTVSPost2010PropOp33
 70
     1
102
RTVSPost2010Prop34
280
     0
102
RTVSPost2010PropOp34
 70
     1
102
RTVSPost2010Prop35
280
     0
102
RTVSPost2010PropOp35
 70
     1
102
RTVSPost2010Prop36
280
     0
102
RTVSPost2010PropOp36
 70
     1
102
RTVSPost2010Prop37
 90
       50
102
RTVSPost2010PropOp37
 70
     1
102
RTVSPost2010Prop38
140
0.0
102
RTVSPost2010PropOp38
 70
     1
102
RTVSPost2010Prop39
140
1.0
102
RTVSPost2010PropOp39
 70
     1
102
RTVSPost2010Prop40
 90
        0
102
RTVSPost2010PropOp40
 70
     1
102
RTVSPost2010Prop41ColorIndex
 90
       18
102
RTVSPost2010Prop41ColorRGB
 90
        0
102
RTVSPost2010PropOp41
 70
     1
102
RTVSPost2010Prop42
 90
       50
102
RTVSPost2010PropOp42
 70
     1
102
RTVSPost2010Prop43
 90
        3
102
RTVSPost2010PropOp43
 70
     1
102
RTVSPost2010Prop44ColorIndex
 90
        5
102
RTVSPost2010Prop44ColorRGB
 90
      255
102
RTVSPost2010PropOp44
 70
     1
102
RTVSPost2010Prop45
280
     0
102
RTVSPost2010PropOp45
 70
     1
102
RTVSPost2010Prop46
 90
       50
102
RTVSPost2010PropOp46
 70
     1
102
RTVSPost2010Prop47
 90
       50
102
RTVSPost2010PropOp47
 70
     1
102
RTVSPost2010Prop48
 90
       50
102
RTVSPost2010PropOp48
 70
     1
102
RTVSPost2010Prop49
280
     0
102
RTVSPost2010PropOp49
 70
     1
102
RTVSPost2010Prop50
 90
       50
102
RTVSPost2010PropOp50
 70
     1
102
RTVSPost2010Prop51ColorIndex
 90
      256
102
RTVSPost2010Prop51ColorRGB
 90
-16777216
102
RTVSPost2010PropOp51
 70
     0
102
RTVSPost2010Prop52
140
1.0
102
RTVSPost2010PropOp52
 70
     0
102
RTVSPost2010Prop53
 90
        2
102
RTVSPost2010PropOp53
 70
     1
102
RTVSPost2010Prop54
  1
strokes_ogs.tif
102
RTVSPost2010PropOp54
 70
     1
102
RTVSPost2010Prop55
280
     0
102
RTVSPost2010PropOp55
 70
     1
102
RTVSPost2010Prop56
140
1.0
102
RTVSPost2010PropOp56
 70
     1
102
RTVSPost2010Prop57
140
1.0
102
RTVSPost2010PropOp57
 70
     1
102
RTVSPropertyOp0
 70
     1
102
RTVSPropertyOp1
 70
     1
102
RTVSPropertyOp2
 70
     1
102
RTVSPropertyOp3
 70
     1
102
RTVSPropertyOp4
 70
     1
102
RTVSPropertyOp5
 70
     1
102
RTVSPropertyOp6
 70
     1
102
RTVSPropertyOp7
 70
     1
102
RTVSPropertyOp8
 70
     1
102
RTVSPropertyOp9
 70
     1
102
RTVSPropertyOp10
 70
     1
102
RTVSPropertyOp11
 70
     1
102
RTVSPropertyOp12
 70
     1
102
RTVSPropertyOp13
 70
     1
102
RTVSPropertyOp14
 70
     1
102
RTVSPropertyOp15
 70
     1
102
RTVSPropertyOp16
 70
     1
102
RTVSPropertyOp17
 70
     1
102
RTVSPropertyOp18
 70
     1
102
RTVSPropertyOp19
 70
     1
102
RTVSPropertyOp20
 70
     1
102
RTVSPropertyOp21
 70
     1
102
RTVSPropertyOp22
 70
     1
102
RTVSPropertyOp23
 70
     1
102
RTVSPropertyOp24
 70
     1
102
RTVSPropertyOp25
 70
     1
102
RTVSPropertyOp26
 70
     1
102
RTVSPropertyOp27
 70
     1
102
RTVSPropertyOp28
 70
     1
102
RTVSPropertyOp29
 70
     1
102
RTVSPropertyOp30
 70
     1
102
RTVSPropertyOp31
 70
     1
102
RTVSPropertyOp32
 70
     1
102
RTVSPropertyOp33
 70
     1
102
RTVSPropertyOp34
 70
     1
102
RTVSPropertyOp35
 70
     1
102
RTVSPropertyOp36
 70
     1
102
RTVSPropertyOp37
 70
     1
102
RTVSPropertyOp38
 70
     1
102
RTVSPropertyOp39
 70
     1
102
RTVSPropertyOp40
 70
     1
102
RTVSPropertyOp41
 70
     1
102
RTVSPropertyOp42
 70
     1
102
RTVSPropertyOp43
 70
     1
102
RTVSPropertyOp44
 70
     1
102
RTVSPropertyOp45
 70
     1
102
RTVSPropertyOp46
 70
     1
102
RTVSPropertyOp47
 70
     1
102
RTVSPropertyOp48
 70
     1
102
RTVSPropertyOp49
 70
     1
102
RTVSPropertyOp50
 70
     1
102
RTVSPropertyOp51
 70
     0
102
RTVSPropertyOp52
 70
     0
102
RTVSPropertyOp53
 70
     1
102
RTVSPropertyOp54
 70
     1
102
RTVSPropertyOp55
 70
     1
102
RTVSPropertyOp56
 70
     1
102
RTVSPropertyOp57
 70
     1
102
RTVSPropertyOp58
 70
     1
102
RTVSPropertyOp59
 70
     1
102
RTVSPropertyOp60
 70
     1
102
RTVSPropertyOp61
 70
     1
102
RTVSPropertyOp62
 70
     1
  0
XRECORD
  5
28C37
102
{ACAD_REACTORS
330
28C36
102
}
330
28C36
100
AcDbXrecord
280
     1
102
RTVSPost2010Prop28
280
     0
102
RTVSPost2010PropOp28
 70
     1
102
RTVSPost2010Prop29
280
     1
102
RTVSPost2010PropOp29
 70
     1
102
RTVSPost2010Prop30
280
     1
102
RTVSPost2010PropOp30
 70
     1
102
RTVSPost2010Prop31
280
     0
102
RTVSPost2010PropOp31
 70
     1
102
RTVSPost2010Prop32
280
     0
102
RTVSPost2010PropOp32
 70
     1
102
RTVSPost2010Prop33
280
     0
102
RTVSPost2010PropOp33
 70
     1
102
RTVSPost2010Prop34
280
     0
102
RTVSPost2010PropOp34
 70
     1
102
RTVSPost2010Prop35
280
     0
102
RTVSPost2010PropOp35
 70
     1
102
RTVSPost2010Prop36
280
     0
102
RTVSPost2010PropOp36
 70
     1
102
RTVSPost2010Prop37
 90
       50
102
RTVSPost2010PropOp37
 70
     1
102
RTVSPost2010Prop38
140
0.0
102
RTVSPost2010PropOp38
 70
     1
102
RTVSPost2010Prop39
140
1.0
102
RTVSPost2010PropOp39
 70
     1
102
RTVSPost2010Prop40
 90
        0
102
RTVSPost2010PropOp40
 70
     1
102
RTVSPost2010Prop41ColorIndex
 90
       18
102
RTVSPost2010Prop41ColorRGB
 90
        0
102
RTVSPost2010PropOp41
 70
     1
102
RTVSPost2010Prop42
 90
       50
102
RTVSPost2010PropOp42
 70
     1
102
RTVSPost2010Prop43
 90
        3
102
RTVSPost2010PropOp43
 70
     1
102
RTVSPost2010Prop44ColorIndex
 90
        5
102
RTVSPost2010Prop44ColorRGB
 90
      255
102
RTVSPost2010PropOp44
 70
     1
102
RTVSPost2010Prop45
280
     0
102
RTVSPost2010PropOp45
 70
     1
102
RTVSPost2010Prop46
 90
       50
102
RTVSPost2010PropOp46
 70
     1
102
RTVSPost2010Prop47
 90
       50
102
RTVSPost2010PropOp47
 70
     1
102
RTVSPost2010Prop48
 90
       50
102
RTVSPost2010PropOp48
 70
     1
102
RTVSPost2010Prop49
280
     0
102
RTVSPost2010PropOp49
 70
     1
102
RTVSPost2010Prop50
 90
       50
102
RTVSPost2010PropOp50
 70
     1
102
RTVSPost2010Prop51ColorIndex
 90
      256
102
RTVSPost2010Prop51ColorRGB
 90
-16777216
102
RTVSPost2010PropOp51
 70
     0
102
RTVSPost2010Prop52
140
1.0
102
RTVSPost2010PropOp52
 70
     0
102
RTVSPost2010Prop53
 90
        2
102
RTVSPost2010PropOp53
 70
     1
102
RTVSPost2010Prop54
  1
strokes_ogs.tif
102
RTVSPost2010PropOp54
 70
     1
102
RTVSPost2010Prop55
280
     0
102
RTVSPost2010PropOp55
 70
     1
102
RTVSPost2010Prop56
140
1.0
102
RTVSPost2010PropOp56
 70
     1
102
RTVSPost2010Prop57
140
1.0
102
RTVSPost2010PropOp57
 70
     1
102
RTVSPropertyOp0
 70
     1
102
RTVSPropertyOp1
 70
     1
102
RTVSPropertyOp2
 70
     1
102
RTVSPropertyOp3
 70
     1
102
RTVSPropertyOp4
 70
     1
102
RTVSPropertyOp5
 70
     1
102
RTVSPropertyOp6
 70
     1
102
RTVSPropertyOp7
 70
     1
102
RTVSPropertyOp8
 70
     1
102
RTVSPropertyOp9
 70
     1
102
RTVSPropertyOp10
 70
     1
102
RTVSPropertyOp11
 70
     1
102
RTVSPropertyOp12
 70
     1
102
RTVSPropertyOp13
 70
     1
102
RTVSPropertyOp14
 70
     1
102
RTVSPropertyOp15
 70
     1
102
RTVSPropertyOp16
 70
     1
102
RTVSPropertyOp17
 70
     1
102
RTVSPropertyOp18
 70
     1
102
RTVSPropertyOp19
 70
     1
102
RTVSPropertyOp20
 70
     1
102
RTVSPropertyOp21
 70
     1
102
RTVSPropertyOp22
 70
     1
102
RTVSPropertyOp23
 70
     1
102
RTVSPropertyOp24
 70
     1
102
RTVSPropertyOp25
 70
     1
102
RTVSPropertyOp26
 70
     1
102
RTVSPropertyOp27
 70
     1
102
RTVSPropertyOp28
 70
     1
102
RTVSPropertyOp29
 70
     1
102
RTVSPropertyOp30
 70
     1
102
RTVSPropertyOp31
 70
     1
102
RTVSPropertyOp32
 70
     1
102
RTVSPropertyOp33
 70
     1
102
RTVSPropertyOp34
 70
     1
102
RTVSPropertyOp35
 70
     1
102
RTVSPropertyOp36
 70
     1
102
RTVSPropertyOp37
 70
     1
102
RTVSPropertyOp38
 70
     1
102
RTVSPropertyOp39
 70
     1
102
RTVSPropertyOp40
 70
     1
102
RTVSPropertyOp41
 70
     1
102
RTVSPropertyOp42
 70
     1
102
RTVSPropertyOp43
 70
     1
102
RTVSPropertyOp44
 70
     1
102
RTVSPropertyOp45
 70
     1
102
RTVSPropertyOp46
 70
     1
102
RTVSPropertyOp47
 70
     1
102
RTVSPropertyOp48
 70
     1
102
RTVSPropertyOp49
 70
     1
102
RTVSPropertyOp50
 70
     1
102
RTVSPropertyOp51
 70
     0
102
RTVSPropertyOp52
 70
     0
102
RTVSPropertyOp53
 70
     1
102
RTVSPropertyOp54
 70
     1
102
RTVSPropertyOp55
 70
     1
102
RTVSPropertyOp56
 70
     1
102
RTVSPropertyOp57
 70
     1
102
RTVSPropertyOp58
 70
     1
102
RTVSPropertyOp59
 70
     1
102
RTVSPropertyOp60
 70
     1
102
RTVSPropertyOp61
 70
     1
102
RTVSPropertyOp62
 70
     1
  0
XRECORD
  5
28C45
102
{ACAD_REACTORS
330
28C44
102
}
330
28C44
100
AcDbXrecord
280
     1
102
RTVSPost2010Prop28
280
     0
102
RTVSPost2010PropOp28
 70
     1
102
RTVSPost2010Prop29
280
     1
102
RTVSPost2010PropOp29
 70
     1
102
RTVSPost2010Prop30
280
     1
102
RTVSPost2010PropOp30
 70
     1
102
RTVSPost2010Prop31
280
     0
102
RTVSPost2010PropOp31
 70
     1
102
RTVSPost2010Prop32
280
     0
102
RTVSPost2010PropOp32
 70
     1
102
RTVSPost2010Prop33
280
     0
102
RTVSPost2010PropOp33
 70
     1
102
RTVSPost2010Prop34
280
     0
102
RTVSPost2010PropOp34
 70
     1
102
RTVSPost2010Prop35
280
     0
102
RTVSPost2010PropOp35
 70
     1
102
RTVSPost2010Prop36
280
     0
102
RTVSPost2010PropOp36
 70
     1
102
RTVSPost2010Prop37
 90
       50
102
RTVSPost2010PropOp37
 70
     1
102
RTVSPost2010Prop38
140
0.0
102
RTVSPost2010PropOp38
 70
     1
102
RTVSPost2010Prop39
140
1.0
102
RTVSPost2010PropOp39
 70
     1
102
RTVSPost2010Prop40
 90
        0
102
RTVSPost2010PropOp40
 70
     1
102
RTVSPost2010Prop41ColorIndex
 90
       18
102
RTVSPost2010Prop41ColorRGB
 90
        0
102
RTVSPost2010PropOp41
 70
     1
102
RTVSPost2010Prop42
 90
       50
102
RTVSPost2010PropOp42
 70
     1
102
RTVSPost2010Prop43
 90
        3
102
RTVSPost2010PropOp43
 70
     1
102
RTVSPost2010Prop44ColorIndex
 90
        5
102
RTVSPost2010Prop44ColorRGB
 90
      255
102
RTVSPost2010PropOp44
 70
     1
102
RTVSPost2010Prop45
280
     0
102
RTVSPost2010PropOp45
 70
     1
102
RTVSPost2010Prop46
 90
       50
102
RTVSPost2010PropOp46
 70
     1
102
RTVSPost2010Prop47
 90
       50
102
RTVSPost2010PropOp47
 70
     1
102
RTVSPost2010Prop48
 90
       50
102
RTVSPost2010PropOp48
 70
     1
102
RTVSPost2010Prop49
280
     0
102
RTVSPost2010PropOp49
 70
     1
102
RTVSPost2010Prop50
 90
       50
102
RTVSPost2010PropOp50
 70
     1
102
RTVSPost2010Prop51ColorIndex
 90
      256
102
RTVSPost2010Prop51ColorRGB
 90
-16777216
102
RTVSPost2010PropOp51
 70
     0
102
RTVSPost2010Prop52
140
1.0
102
RTVSPost2010PropOp52
 70
     0
102
RTVSPost2010Prop53
 90
        2
102
RTVSPost2010PropOp53
 70
     1
102
RTVSPost2010Prop54
  1
strokes_ogs.tif
102
RTVSPost2010PropOp54
 70
     1
102
RTVSPost2010Prop55
280
     0
102
RTVSPost2010PropOp55
 70
     1
102
RTVSPost2010Prop56
140
1.0
102
RTVSPost2010PropOp56
 70
     1
102
RTVSPost2010Prop57
140
1.0
102
RTVSPost2010PropOp57
 70
     1
102
RTVSPropertyOp0
 70
     1
102
RTVSPropertyOp1
 70
     1
102
RTVSPropertyOp2
 70
     1
102
RTVSPropertyOp3
 70
     1
102
RTVSPropertyOp4
 70
     1
102
RTVSPropertyOp5
 70
     1
102
RTVSPropertyOp6
 70
     1
102
RTVSPropertyOp7
 70
     1
102
RTVSPropertyOp8
 70
     1
102
RTVSPropertyOp9
 70
     1
102
RTVSPropertyOp10
 70
     1
102
RTVSPropertyOp11
 70
     1
102
RTVSPropertyOp12
 70
     1
102
RTVSPropertyOp13
 70
     1
102
RTVSPropertyOp14
 70
     1
102
RTVSPropertyOp15
 70
     1
102
RTVSPropertyOp16
 70
     1
102
RTVSPropertyOp17
 70
     1
102
RTVSPropertyOp18
 70
     1
102
RTVSPropertyOp19
 70
     1
102
RTVSPropertyOp20
 70
     1
102
RTVSPropertyOp21
 70
     1
102
RTVSPropertyOp22
 70
     1
102
RTVSPropertyOp23
 70
     1
102
RTVSPropertyOp24
 70
     1
102
RTVSPropertyOp25
 70
     1
102
RTVSPropertyOp26
 70
     1
102
RTVSPropertyOp27
 70
     1
102
RTVSPropertyOp28
 70
     1
102
RTVSPropertyOp29
 70
     1
102
RTVSPropertyOp30
 70
     1
102
RTVSPropertyOp31
 70
     1
102
RTVSPropertyOp32
 70
     1
102
RTVSPropertyOp33
 70
     1
102
RTVSPropertyOp34
 70
     1
102
RTVSPropertyOp35
 70
     1
102
RTVSPropertyOp36
 70
     1
102
RTVSPropertyOp37
 70
     1
102
RTVSPropertyOp38
 70
     1
102
RTVSPropertyOp39
 70
     1
102
RTVSPropertyOp40
 70
     1
102
RTVSPropertyOp41
 70
     1
102
RTVSPropertyOp42
 70
     1
102
RTVSPropertyOp43
 70
     1
102
RTVSPropertyOp44
 70
     1
102
RTVSPropertyOp45
 70
     1
102
RTVSPropertyOp46
 70
     1
102
RTVSPropertyOp47
 70
     1
102
RTVSPropertyOp48
 70
     1
102
RTVSPropertyOp49
 70
     1
102
RTVSPropertyOp50
 70
     1
102
RTVSPropertyOp51
 70
     0
102
RTVSPropertyOp52
 70
     0
102
RTVSPropertyOp53
 70
     1
102
RTVSPropertyOp54
 70
     1
102
RTVSPropertyOp55
 70
     1
102
RTVSPropertyOp56
 70
     1
102
RTVSPropertyOp57
 70
     1
102
RTVSPropertyOp58
 70
     1
102
RTVSPropertyOp59
 70
     1
102
RTVSPropertyOp60
 70
     1
102
RTVSPropertyOp61
 70
     1
102
RTVSPropertyOp62
 70
     1
  0
XRECORD
  5
28C4D
102
{ACAD_REACTORS
330
28C4C
102
}
330
28C4C
100
AcDbXrecord
280
     1
102
RTVSPost2010Prop28
280
     0
102
RTVSPost2010PropOp28
 70
     1
102
RTVSPost2010Prop29
280
     1
102
RTVSPost2010PropOp29
 70
     1
102
RTVSPost2010Prop30
280
     1
102
RTVSPost2010PropOp30
 70
     1
102
RTVSPost2010Prop31
280
     0
102
RTVSPost2010PropOp31
 70
     1
102
RTVSPost2010Prop32
280
     0
102
RTVSPost2010PropOp32
 70
     1
102
RTVSPost2010Prop33
280
     0
102
RTVSPost2010PropOp33
 70
     1
102
RTVSPost2010Prop34
280
     0
102
RTVSPost2010PropOp34
 70
     1
102
RTVSPost2010Prop35
280
     0
102
RTVSPost2010PropOp35
 70
     1
102
RTVSPost2010Prop36
280
     0
102
RTVSPost2010PropOp36
 70
     1
102
RTVSPost2010Prop37
 90
       50
102
RTVSPost2010PropOp37
 70
     1
102
RTVSPost2010Prop38
140
0.0
102
RTVSPost2010PropOp38
 70
     1
102
RTVSPost2010Prop39
140
1.0
102
RTVSPost2010PropOp39
 70
     1
102
RTVSPost2010Prop40
 90
        0
102
RTVSPost2010PropOp40
 70
     1
102
RTVSPost2010Prop41ColorIndex
 90
       18
102
RTVSPost2010Prop41ColorRGB
 90
        0
102
RTVSPost2010PropOp41
 70
     1
102
RTVSPost2010Prop42
 90
       50
102
RTVSPost2010PropOp42
 70
     1
102
RTVSPost2010Prop43
 90
        3
102
RTVSPost2010PropOp43
 70
     1
102
RTVSPost2010Prop44ColorIndex
 90
        5
102
RTVSPost2010Prop44ColorRGB
 90
      255
102
RTVSPost2010PropOp44
 70
     1
102
RTVSPost2010Prop45
280
     0
102
RTVSPost2010PropOp45
 70
     1
102
RTVSPost2010Prop46
 90
       50
102
RTVSPost2010PropOp46
 70
     1
102
RTVSPost2010Prop47
 90
       50
102
RTVSPost2010PropOp47
 70
     1
102
RTVSPost2010Prop48
 90
       50
102
RTVSPost2010PropOp48
 70
     1
102
RTVSPost2010Prop49
280
     0
102
RTVSPost2010PropOp49
 70
     1
102
RTVSPost2010Prop50
 90
       50
102
RTVSPost2010PropOp50
 70
     1
102
RTVSPost2010Prop51ColorIndex
 90
      256
102
RTVSPost2010Prop51ColorRGB
 90
-16777216
102
RTVSPost2010PropOp51
 70
     0
102
RTVSPost2010Prop52
140
1.0
102
RTVSPost2010PropOp52
 70
     0
102
RTVSPost2010Prop53
 90
        2
102
RTVSPost2010PropOp53
 70
     1
102
RTVSPost2010Prop54
  1
strokes_ogs.tif
102
RTVSPost2010PropOp54
 70
     1
102
RTVSPost2010Prop55
280
     0
102
RTVSPost2010PropOp55
 70
     1
102
RTVSPost2010Prop56
140
1.0
102
RTVSPost2010PropOp56
 70
     1
102
RTVSPost2010Prop57
140
1.0
102
RTVSPost2010PropOp57
 70
     1
102
RTVSPropertyOp0
 70
     1
102
RTVSPropertyOp1
 70
     1
102
RTVSPropertyOp2
 70
     1
102
RTVSPropertyOp3
 70
     1
102
RTVSPropertyOp4
 70
     1
102
RTVSPropertyOp5
 70
     1
102
RTVSPropertyOp6
 70
     1
102
RTVSPropertyOp7
 70
     1
102
RTVSPropertyOp8
 70
     1
102
RTVSPropertyOp9
 70
     1
102
RTVSPropertyOp10
 70
     1
102
RTVSPropertyOp11
 70
     1
102
RTVSPropertyOp12
 70
     1
102
RTVSPropertyOp13
 70
     1
102
RTVSPropertyOp14
 70
     1
102
RTVSPropertyOp15
 70
     1
102
RTVSPropertyOp16
 70
     1
102
RTVSPropertyOp17
 70
     1
102
RTVSPropertyOp18
 70
     1
102
RTVSPropertyOp19
 70
     1
102
RTVSPropertyOp20
 70
     1
102
RTVSPropertyOp21
 70
     1
102
RTVSPropertyOp22
 70
     1
102
RTVSPropertyOp23
 70
     1
102
RTVSPropertyOp24
 70
     1
102
RTVSPropertyOp25
 70
     1
102
RTVSPropertyOp26
 70
     1
102
RTVSPropertyOp27
 70
     1
102
RTVSPropertyOp28
 70
     1
102
RTVSPropertyOp29
 70
     1
102
RTVSPropertyOp30
 70
     1
102
RTVSPropertyOp31
 70
     1
102
RTVSPropertyOp32
 70
     1
102
RTVSPropertyOp33
 70
     1
102
RTVSPropertyOp34
 70
     1
102
RTVSPropertyOp35
 70
     1
102
RTVSPropertyOp36
 70
     1
102
RTVSPropertyOp37
 70
     1
102
RTVSPropertyOp38
 70
     1
102
RTVSPropertyOp39
 70
     1
102
RTVSPropertyOp40
 70
     1
102
RTVSPropertyOp41
 70
     1
102
RTVSPropertyOp42
 70
     1
102
RTVSPropertyOp43
 70
     1
102
RTVSPropertyOp44
 70
     1
102
RTVSPropertyOp45
 70
     1
102
RTVSPropertyOp46
 70
     1
102
RTVSPropertyOp47
 70
     1
102
RTVSPropertyOp48
 70
     1
102
RTVSPropertyOp49
 70
     1
102
RTVSPropertyOp50
 70
     1
102
RTVSPropertyOp51
 70
     0
102
RTVSPropertyOp52
 70
     0
102
RTVSPropertyOp53
 70
     1
102
RTVSPropertyOp54
 70
     1
102
RTVSPropertyOp55
 70
     1
102
RTVSPropertyOp56
 70
     1
102
RTVSPropertyOp57
 70
     1
102
RTVSPropertyOp58
 70
     1
102
RTVSPropertyOp59
 70
     1
102
RTVSPropertyOp60
 70
     1
102
RTVSPropertyOp61
 70
     1
102
RTVSPropertyOp62
 70
     1
  0
XRECORD
  5
28C3F
102
{ACAD_REACTORS
330
28C3E
102
}
330
28C3E
100
AcDbXrecord
280
     1
102
RTVSPost2010Prop28
280
     0
102
RTVSPost2010PropOp28
 70
     1
102
RTVSPost2010Prop29
280
     1
102
RTVSPost2010PropOp29
 70
     1
102
RTVSPost2010Prop30
280
     1
102
RTVSPost2010PropOp30
 70
     1
102
RTVSPost2010Prop31
280
     0
102
RTVSPost2010PropOp31
 70
     1
102
RTVSPost2010Prop32
280
     0
102
RTVSPost2010PropOp32
 70
     1
102
RTVSPost2010Prop33
280
     0
102
RTVSPost2010PropOp33
 70
     1
102
RTVSPost2010Prop34
280
     0
102
RTVSPost2010PropOp34
 70
     1
102
RTVSPost2010Prop35
280
     0
102
RTVSPost2010PropOp35
 70
     1
102
RTVSPost2010Prop36
280
     0
102
RTVSPost2010PropOp36
 70
     1
102
RTVSPost2010Prop37
 90
       50
102
RTVSPost2010PropOp37
 70
     1
102
RTVSPost2010Prop38
140
0.0
102
RTVSPost2010PropOp38
 70
     1
102
RTVSPost2010Prop39
140
1.0
102
RTVSPost2010PropOp39
 70
     1
102
RTVSPost2010Prop40
 90
        0
102
RTVSPost2010PropOp40
 70
     1
102
RTVSPost2010Prop41ColorIndex
 90
       18
102
RTVSPost2010Prop41ColorRGB
 90
        0
102
RTVSPost2010PropOp41
 70
     1
102
RTVSPost2010Prop42
 90
       50
102
RTVSPost2010PropOp42
 70
     1
102
RTVSPost2010Prop43
 90
        3
102
RTVSPost2010PropOp43
 70
     1
102
RTVSPost2010Prop44ColorIndex
 90
        5
102
RTVSPost2010Prop44ColorRGB
 90
      255
102
RTVSPost2010PropOp44
 70
     1
102
RTVSPost2010Prop45
280
     0
102
RTVSPost2010PropOp45
 70
     1
102
RTVSPost2010Prop46
 90
       50
102
RTVSPost2010PropOp46
 70
     1
102
RTVSPost2010Prop47
 90
       50
102
RTVSPost2010PropOp47
 70
     1
102
RTVSPost2010Prop48
 90
       50
102
RTVSPost2010PropOp48
 70
     1
102
RTVSPost2010Prop49
280
     0
102
RTVSPost2010PropOp49
 70
     1
102
RTVSPost2010Prop50
 90
       50
102
RTVSPost2010PropOp50
 70
     1
102
RTVSPost2010Prop51ColorIndex
 90
      256
102
RTVSPost2010Prop51ColorRGB
 90
-16777216
102
RTVSPost2010PropOp51
 70
     0
102
RTVSPost2010Prop52
140
1.0
102
RTVSPost2010PropOp52
 70
     0
102
RTVSPost2010Prop53
 90
        2
102
RTVSPost2010PropOp53
 70
     1
102
RTVSPost2010Prop54
  1
strokes_ogs.tif
102
RTVSPost2010PropOp54
 70
     1
102
RTVSPost2010Prop55
280
     0
102
RTVSPost2010PropOp55
 70
     1
102
RTVSPost2010Prop56
140
1.0
102
RTVSPost2010PropOp56
 70
     1
102
RTVSPost2010Prop57
140
1.0
102
RTVSPost2010PropOp57
 70
     1
102
RTVSPropertyOp0
 70
     1
102
RTVSPropertyOp1
 70
     1
102
RTVSPropertyOp2
 70
     1
102
RTVSPropertyOp3
 70
     1
102
RTVSPropertyOp4
 70
     1
102
RTVSPropertyOp5
 70
     1
102
RTVSPropertyOp6
 70
     1
102
RTVSPropertyOp7
 70
     1
102
RTVSPropertyOp8
 70
     1
102
RTVSPropertyOp9
 70
     1
102
RTVSPropertyOp10
 70
     1
102
RTVSPropertyOp11
 70
     1
102
RTVSPropertyOp12
 70
     1
102
RTVSPropertyOp13
 70
     1
102
RTVSPropertyOp14
 70
     1
102
RTVSPropertyOp15
 70
     1
102
RTVSPropertyOp16
 70
     1
102
RTVSPropertyOp17
 70
     1
102
RTVSPropertyOp18
 70
     1
102
RTVSPropertyOp19
 70
     1
102
RTVSPropertyOp20
 70
     1
102
RTVSPropertyOp21
 70
     1
102
RTVSPropertyOp22
 70
     1
102
RTVSPropertyOp23
 70
     1
102
RTVSPropertyOp24
 70
     1
102
RTVSPropertyOp25
 70
     1
102
RTVSPropertyOp26
 70
     1
102
RTVSPropertyOp27
 70
     1
102
RTVSPropertyOp28
 70
     1
102
RTVSPropertyOp29
 70
     1
102
RTVSPropertyOp30
 70
     1
102
RTVSPropertyOp31
 70
     1
102
RTVSPropertyOp32
 70
     1
102
RTVSPropertyOp33
 70
     1
102
RTVSPropertyOp34
 70
     1
102
RTVSPropertyOp35
 70
     1
102
RTVSPropertyOp36
 70
     1
102
RTVSPropertyOp37
 70
     1
102
RTVSPropertyOp38
 70
     1
102
RTVSPropertyOp39
 70
     1
102
RTVSPropertyOp40
 70
     1
102
RTVSPropertyOp41
 70
     1
102
RTVSPropertyOp42
 70
     1
102
RTVSPropertyOp43
 70
     1
102
RTVSPropertyOp44
 70
     1
102
RTVSPropertyOp45
 70
     1
102
RTVSPropertyOp46
 70
     1
102
RTVSPropertyOp47
 70
     1
102
RTVSPropertyOp48
 70
     1
102
RTVSPropertyOp49
 70
     1
102
RTVSPropertyOp50
 70
     1
102
RTVSPropertyOp51
 70
     0
102
RTVSPropertyOp52
 70
     0
102
RTVSPropertyOp53
 70
     1
102
RTVSPropertyOp54
 70
     1
102
RTVSPropertyOp55
 70
     1
102
RTVSPropertyOp56
 70
     1
102
RTVSPropertyOp57
 70
     1
102
RTVSPropertyOp58
 70
     1
102
RTVSPropertyOp59
 70
     1
102
RTVSPropertyOp60
 70
     1
102
RTVSPropertyOp61
 70
     1
102
RTVSPropertyOp62
 70
     1
  0
XRECORD
  5
28C43
102
{ACAD_REACTORS
330
28C42
102
}
330
28C42
100
AcDbXrecord
280
     1
102
RTVSPost2010Prop28
280
     0
102
RTVSPost2010PropOp28
 70
     1
102
RTVSPost2010Prop29
280
     1
102
RTVSPost2010PropOp29
 70
     1
102
RTVSPost2010Prop30
280
     1
102
RTVSPost2010PropOp30
 70
     1
102
RTVSPost2010Prop31
280
     0
102
RTVSPost2010PropOp31
 70
     1
102
RTVSPost2010Prop32
280
     0
102
RTVSPost2010PropOp32
 70
     1
102
RTVSPost2010Prop33
280
     0
102
RTVSPost2010PropOp33
 70
     1
102
RTVSPost2010Prop34
280
     0
102
RTVSPost2010PropOp34
 70
     1
102
RTVSPost2010Prop35
280
     0
102
RTVSPost2010PropOp35
 70
     1
102
RTVSPost2010Prop36
280
     0
102
RTVSPost2010PropOp36
 70
     1
102
RTVSPost2010Prop37
 90
       50
102
RTVSPost2010PropOp37
 70
     1
102
RTVSPost2010Prop38
140
0.0
102
RTVSPost2010PropOp38
 70
     1
102
RTVSPost2010Prop39
140
1.0
102
RTVSPost2010PropOp39
 70
     1
102
RTVSPost2010Prop40
 90
        0
102
RTVSPost2010PropOp40
 70
     1
102
RTVSPost2010Prop41ColorIndex
 90
       18
102
RTVSPost2010Prop41ColorRGB
 90
        0
102
RTVSPost2010PropOp41
 70
     1
102
RTVSPost2010Prop42
 90
       50
102
RTVSPost2010PropOp42
 70
     1
102
RTVSPost2010Prop43
 90
        3
102
RTVSPost2010PropOp43
 70
     1
102
RTVSPost2010Prop44ColorIndex
 90
        5
102
RTVSPost2010Prop44ColorRGB
 90
      255
102
RTVSPost2010PropOp44
 70
     1
102
RTVSPost2010Prop45
280
     0
102
RTVSPost2010PropOp45
 70
     1
102
RTVSPost2010Prop46
 90
       50
102
RTVSPost2010PropOp46
 70
     1
102
RTVSPost2010Prop47
 90
       50
102
RTVSPost2010PropOp47
 70
     1
102
RTVSPost2010Prop48
 90
       50
102
RTVSPost2010PropOp48
 70
     1
102
RTVSPost2010Prop49
280
     0
102
RTVSPost2010PropOp49
 70
     1
102
RTVSPost2010Prop50
 90
       50
102
RTVSPost2010PropOp50
 70
     1
102
RTVSPost2010Prop51ColorIndex
 90
      256
102
RTVSPost2010Prop51ColorRGB
 90
-16777216
102
RTVSPost2010PropOp51
 70
     0
102
RTVSPost2010Prop52
140
1.0
102
RTVSPost2010PropOp52
 70
     0
102
RTVSPost2010Prop53
 90
        2
102
RTVSPost2010PropOp53
 70
     1
102
RTVSPost2010Prop54
  1
strokes_ogs.tif
102
RTVSPost2010PropOp54
 70
     1
102
RTVSPost2010Prop55
280
     0
102
RTVSPost2010PropOp55
 70
     1
102
RTVSPost2010Prop56
140
1.0
102
RTVSPost2010PropOp56
 70
     1
102
RTVSPost2010Prop57
140
1.0
102
RTVSPost2010PropOp57
 70
     1
102
RTVSPropertyOp0
 70
     1
102
RTVSPropertyOp1
 70
     1
102
RTVSPropertyOp2
 70
     1
102
RTVSPropertyOp3
 70
     1
102
RTVSPropertyOp4
 70
     1
102
RTVSPropertyOp5
 70
     1
102
RTVSPropertyOp6
 70
     1
102
RTVSPropertyOp7
 70
     1
102
RTVSPropertyOp8
 70
     1
102
RTVSPropertyOp9
 70
     1
102
RTVSPropertyOp10
 70
     1
102
RTVSPropertyOp11
 70
     1
102
RTVSPropertyOp12
 70
     1
102
RTVSPropertyOp13
 70
     1
102
RTVSPropertyOp14
 70
     1
102
RTVSPropertyOp15
 70
     1
102
RTVSPropertyOp16
 70
     1
102
RTVSPropertyOp17
 70
     1
102
RTVSPropertyOp18
 70
     1
102
RTVSPropertyOp19
 70
     1
102
RTVSPropertyOp20
 70
     1
102
RTVSPropertyOp21
 70
     1
102
RTVSPropertyOp22
 70
     1
102
RTVSPropertyOp23
 70
     1
102
RTVSPropertyOp24
 70
     1
102
RTVSPropertyOp25
 70
     1
102
RTVSPropertyOp26
 70
     1
102
RTVSPropertyOp27
 70
     1
102
RTVSPropertyOp28
 70
     1
102
RTVSPropertyOp29
 70
     1
102
RTVSPropertyOp30
 70
     1
102
RTVSPropertyOp31
 70
     1
102
RTVSPropertyOp32
 70
     1
102
RTVSPropertyOp33
 70
     1
102
RTVSPropertyOp34
 70
     1
102
RTVSPropertyOp35
 70
     1
102
RTVSPropertyOp36
 70
     1
102
RTVSPropertyOp37
 70
     1
102
RTVSPropertyOp38
 70
     1
102
RTVSPropertyOp39
 70
     1
102
RTVSPropertyOp40
 70
     1
102
RTVSPropertyOp41
 70
     1
102
RTVSPropertyOp42
 70
     1
102
RTVSPropertyOp43
 70
     1
102
RTVSPropertyOp44
 70
     1
102
RTVSPropertyOp45
 70
     1
102
RTVSPropertyOp46
 70
     1
102
RTVSPropertyOp47
 70
     1
102
RTVSPropertyOp48
 70
     1
102
RTVSPropertyOp49
 70
     1
102
RTVSPropertyOp50
 70
     1
102
RTVSPropertyOp51
 70
     0
102
RTVSPropertyOp52
 70
     0
102
RTVSPropertyOp53
 70
     1
102
RTVSPropertyOp54
 70
     1
102
RTVSPropertyOp55
 70
     1
102
RTVSPropertyOp56
 70
     1
102
RTVSPropertyOp57
 70
     1
102
RTVSPropertyOp58
 70
     1
102
RTVSPropertyOp59
 70
     1
102
RTVSPropertyOp60
 70
     1
102
RTVSPropertyOp61
 70
     1
102
RTVSPropertyOp62
 70
     1
  0
XRECORD
  5
28C5D
102
{ACAD_REACTORS
330
28C5C
102
}
330
28C5C
100
AcDbXrecord
280
     1
102
RTVSPost2010Prop28
280
     0
102
RTVSPost2010PropOp28
 70
     0
102
RTVSPost2010Prop29
280
     1
102
RTVSPost2010PropOp29
 70
     0
102
RTVSPost2010Prop30
280
     1
102
RTVSPost2010PropOp30
 70
     0
102
RTVSPost2010Prop31
280
     0
102
RTVSPost2010PropOp31
 70
     0
102
RTVSPost2010Prop32
280
     0
102
RTVSPost2010PropOp32
 70
     0
102
RTVSPost2010Prop33
280
     0
102
RTVSPost2010PropOp33
 70
     0
102
RTVSPost2010Prop34
280
     0
102
RTVSPost2010PropOp34
 70
     0
102
RTVSPost2010Prop35
280
     0
102
RTVSPost2010PropOp35
 70
     0
102
RTVSPost2010Prop36
280
     0
102
RTVSPost2010PropOp36
 70
     0
102
RTVSPost2010Prop37
 90
       50
102
RTVSPost2010PropOp37
 70
     0
102
RTVSPost2010Prop38
140
0.0
102
RTVSPost2010PropOp38
 70
     0
102
RTVSPost2010Prop39
140
1.0
102
RTVSPost2010PropOp39
 70
     0
102
RTVSPost2010Prop40
 90
        0
102
RTVSPost2010PropOp40
 70
     0
102
RTVSPost2010Prop41ColorIndex
 90
       18
102
RTVSPost2010Prop41ColorRGB
 90
        0
102
RTVSPost2010PropOp41
 70
     0
102
RTVSPost2010Prop42
 90
       50
102
RTVSPost2010PropOp42
 70
     0
102
RTVSPost2010Prop43
 90
        3
102
RTVSPost2010PropOp43
 70
     0
102
RTVSPost2010Prop44ColorIndex
 90
        5
102
RTVSPost2010Prop44ColorRGB
 90
      255
102
RTVSPost2010PropOp44
 70
     0
102
RTVSPost2010Prop45
280
     0
102
RTVSPost2010PropOp45
 70
     0
102
RTVSPost2010Prop46
 90
       50
102
RTVSPost2010PropOp46
 70
     0
102
RTVSPost2010Prop47
 90
       50
102
RTVSPost2010PropOp47
 70
     0
102
RTVSPost2010Prop48
 90
       50
102
RTVSPost2010PropOp48
 70
     0
102
RTVSPost2010Prop49
280
     0
102
RTVSPost2010PropOp49
 70
     0
102
RTVSPost2010Prop50
 90
       50
102
RTVSPost2010PropOp50
 70
     0
102
RTVSPost2010Prop51ColorIndex
 90
      256
102
RTVSPost2010Prop51ColorRGB
 90
-16777216
102
RTVSPost2010PropOp51
 70
     0
102
RTVSPost2010Prop52
140
1.0
102
RTVSPost2010PropOp52
 70
     0
102
RTVSPost2010Prop53
 90
        2
102
RTVSPost2010PropOp53
 70
     0
102
RTVSPost2010Prop54
  1
strokes_ogs.tif
102
RTVSPost2010PropOp54
 70
     0
102
RTVSPost2010Prop55
280
     0
102
RTVSPost2010PropOp55
 70
     0
102
RTVSPost2010Prop56
140
1.0
102
RTVSPost2010PropOp56
 70
     0
102
RTVSPost2010Prop57
140
1.0
102
RTVSPost2010PropOp57
 70
     0
102
RTVSPropertyOp0
 70
     0
102
RTVSPropertyOp1
 70
     0
102
RTVSPropertyOp2
 70
     0
102
RTVSPropertyOp3
 70
     0
102
RTVSPropertyOp4
 70
     0
102
RTVSPropertyOp5
 70
     0
102
RTVSPropertyOp6
 70
     0
102
RTVSPropertyOp7
 70
     0
102
RTVSPropertyOp8
 70
     0
102
RTVSPropertyOp9
 70
     0
102
RTVSPropertyOp10
 70
     0
102
RTVSPropertyOp11
 70
     0
102
RTVSPropertyOp12
 70
     0
102
RTVSPropertyOp13
 70
     0
102
RTVSPropertyOp14
 70
     2
102
RTVSPropertyOp15
 70
     0
102
RTVSPropertyOp16
 70
     0
102
RTVSPropertyOp17
 70
     0
102
RTVSPropertyOp18
 70
     0
102
RTVSPropertyOp19
 70
     0
102
RTVSPropertyOp20
 70
     0
102
RTVSPropertyOp21
 70
     0
102
RTVSPropertyOp22
 70
     0
102
RTVSPropertyOp23
 70
     0
102
RTVSPropertyOp24
 70
     0
102
RTVSPropertyOp25
 70
     0
102
RTVSPropertyOp26
 70
     0
102
RTVSPropertyOp27
 70
     0
102
RTVSPropertyOp28
 70
     0
102
RTVSPropertyOp29
 70
     0
102
RTVSPropertyOp30
 70
     0
102
RTVSPropertyOp31
 70
     0
102
RTVSPropertyOp32
 70
     0
102
RTVSPropertyOp33
 70
     0
102
RTVSPropertyOp34
 70
     0
102
RTVSPropertyOp35
 70
     0
102
RTVSPropertyOp36
 70
     0
102
RTVSPropertyOp37
 70
     0
102
RTVSPropertyOp38
 70
     0
102
RTVSPropertyOp39
 70
     0
102
RTVSPropertyOp40
 70
     0
102
RTVSPropertyOp41
 70
     0
102
RTVSPropertyOp42
 70
     0
102
RTVSPropertyOp43
 70
     0
102
RTVSPropertyOp44
 70
     0
102
RTVSPropertyOp45
 70
     0
102
RTVSPropertyOp46
 70
     0
102
RTVSPropertyOp47
 70
     0
102
RTVSPropertyOp48
 70
     0
102
RTVSPropertyOp49
 70
     0
102
RTVSPropertyOp50
 70
     0
102
RTVSPropertyOp51
 70
     0
102
RTVSPropertyOp52
 70
     0
102
RTVSPropertyOp53
 70
     0
102
RTVSPropertyOp54
 70
     0
102
RTVSPropertyOp55
 70
     0
102
RTVSPropertyOp56
 70
     0
102
RTVSPropertyOp57
 70
     0
102
RTVSPropertyOp58
 70
     1
102
RTVSPropertyOp59
 70
     1
102
RTVSPropertyOp60
 70
     1
102
RTVSPropertyOp61
 70
     1
102
RTVSPropertyOp62
 70
     1
  0
XRECORD
  5
28C4B
102
{ACAD_REACTORS
330
28C4A
102
}
330
28C4A
100
AcDbXrecord
280
     1
102
RTVSPost2010Prop28
280
     0
102
RTVSPost2010PropOp28
 70
     1
102
RTVSPost2010Prop29
280
     1
102
RTVSPost2010PropOp29
 70
     1
102
RTVSPost2010Prop30
280
     1
102
RTVSPost2010PropOp30
 70
     1
102
RTVSPost2010Prop31
280
     0
102
RTVSPost2010PropOp31
 70
     1
102
RTVSPost2010Prop32
280
     0
102
RTVSPost2010PropOp32
 70
     1
102
RTVSPost2010Prop33
280
     0
102
RTVSPost2010PropOp33
 70
     1
102
RTVSPost2010Prop34
280
     0
102
RTVSPost2010PropOp34
 70
     1
102
RTVSPost2010Prop35
280
     0
102
RTVSPost2010PropOp35
 70
     1
102
RTVSPost2010Prop36
280
     0
102
RTVSPost2010PropOp36
 70
     1
102
RTVSPost2010Prop37
 90
       50
102
RTVSPost2010PropOp37
 70
     1
102
RTVSPost2010Prop38
140
0.0
102
RTVSPost2010PropOp38
 70
     1
102
RTVSPost2010Prop39
140
1.0
102
RTVSPost2010PropOp39
 70
     1
102
RTVSPost2010Prop40
 90
        0
102
RTVSPost2010PropOp40
 70
     1
102
RTVSPost2010Prop41ColorIndex
 90
       18
102
RTVSPost2010Prop41ColorRGB
 90
        0
102
RTVSPost2010PropOp41
 70
     1
102
RTVSPost2010Prop42
 90
       50
102
RTVSPost2010PropOp42
 70
     1
102
RTVSPost2010Prop43
 90
        3
102
RTVSPost2010PropOp43
 70
     1
102
RTVSPost2010Prop44ColorIndex
 90
        5
102
RTVSPost2010Prop44ColorRGB
 90
      255
102
RTVSPost2010PropOp44
 70
     1
102
RTVSPost2010Prop45
280
     0
102
RTVSPost2010PropOp45
 70
     1
102
RTVSPost2010Prop46
 90
       50
102
RTVSPost2010PropOp46
 70
     1
102
RTVSPost2010Prop47
 90
       50
102
RTVSPost2010PropOp47
 70
     1
102
RTVSPost2010Prop48
 90
       50
102
RTVSPost2010PropOp48
 70
     1
102
RTVSPost2010Prop49
280
     0
102
RTVSPost2010PropOp49
 70
     1
102
RTVSPost2010Prop50
 90
       50
102
RTVSPost2010PropOp50
 70
     1
102
RTVSPost2010Prop51ColorIndex
 90
      256
102
RTVSPost2010Prop51ColorRGB
 90
-16777216
102
RTVSPost2010PropOp51
 70
     0
102
RTVSPost2010Prop52
140
1.0
102
RTVSPost2010PropOp52
 70
     0
102
RTVSPost2010Prop53
 90
        2
102
RTVSPost2010PropOp53
 70
     1
102
RTVSPost2010Prop54
  1
strokes_ogs.tif
102
RTVSPost2010PropOp54
 70
     1
102
RTVSPost2010Prop55
280
     0
102
RTVSPost2010PropOp55
 70
     1
102
RTVSPost2010Prop56
140
1.0
102
RTVSPost2010PropOp56
 70
     1
102
RTVSPost2010Prop57
140
1.0
102
RTVSPost2010PropOp57
 70
     1
102
RTVSPropertyOp0
 70
     1
102
RTVSPropertyOp1
 70
     1
102
RTVSPropertyOp2
 70
     1
102
RTVSPropertyOp3
 70
     1
102
RTVSPropertyOp4
 70
     1
102
RTVSPropertyOp5
 70
     1
102
RTVSPropertyOp6
 70
     1
102
RTVSPropertyOp7
 70
     1
102
RTVSPropertyOp8
 70
     1
102
RTVSPropertyOp9
 70
     1
102
RTVSPropertyOp10
 70
     1
102
RTVSPropertyOp11
 70
     1
102
RTVSPropertyOp12
 70
     1
102
RTVSPropertyOp13
 70
     1
102
RTVSPropertyOp14
 70
     1
102
RTVSPropertyOp15
 70
     1
102
RTVSPropertyOp16
 70
     1
102
RTVSPropertyOp17
 70
     1
102
RTVSPropertyOp18
 70
     1
102
RTVSPropertyOp19
 70
     1
102
RTVSPropertyOp20
 70
     1
102
RTVSPropertyOp21
 70
     1
102
RTVSPropertyOp22
 70
     1
102
RTVSPropertyOp23
 70
     1
102
RTVSPropertyOp24
 70
     1
102
RTVSPropertyOp25
 70
     1
102
RTVSPropertyOp26
 70
     1
102
RTVSPropertyOp27
 70
     1
102
RTVSPropertyOp28
 70
     1
102
RTVSPropertyOp29
 70
     1
102
RTVSPropertyOp30
 70
     1
102
RTVSPropertyOp31
 70
     1
102
RTVSPropertyOp32
 70
     1
102
RTVSPropertyOp33
 70
     1
102
RTVSPropertyOp34
 70
     1
102
RTVSPropertyOp35
 70
     1
102
RTVSPropertyOp36
 70
     1
102
RTVSPropertyOp37
 70
     1
102
RTVSPropertyOp38
 70
     1
102
RTVSPropertyOp39
 70
     1
102
RTVSPropertyOp40
 70
     1
102
RTVSPropertyOp41
 70
     1
102
RTVSPropertyOp42
 70
     1
102
RTVSPropertyOp43
 70
     1
102
RTVSPropertyOp44
 70
     1
102
RTVSPropertyOp45
 70
     1
102
RTVSPropertyOp46
 70
     1
102
RTVSPropertyOp47
 70
     1
102
RTVSPropertyOp48
 70
     1
102
RTVSPropertyOp49
 70
     1
102
RTVSPropertyOp50
 70
     1
102
RTVSPropertyOp51
 70
     0
102
RTVSPropertyOp52
 70
     0
102
RTVSPropertyOp53
 70
     1
102
RTVSPropertyOp54
 70
     1
102
RTVSPropertyOp55
 70
     1
102
RTVSPropertyOp56
 70
     1
102
RTVSPropertyOp57
 70
     1
102
RTVSPropertyOp58
 70
     1
102
RTVSPropertyOp59
 70
     1
102
RTVSPropertyOp60
 70
     1
102
RTVSPropertyOp61
 70
     1
102
RTVSPropertyOp62
 70
     1
  0
XRECORD
  5
28C2F
102
{ACAD_REACTORS
330
28C2E
102
}
330
28C2E
100
AcDbXrecord
280
     1
102
RTVSPost2010Prop28
280
     0
102
RTVSPost2010PropOp28
 70
     1
102
RTVSPost2010Prop29
280
     1
102
RTVSPost2010PropOp29
 70
     1
102
RTVSPost2010Prop30
280
     1
102
RTVSPost2010PropOp30
 70
     1
102
RTVSPost2010Prop31
280
     0
102
RTVSPost2010PropOp31
 70
     1
102
RTVSPost2010Prop32
280
     0
102
RTVSPost2010PropOp32
 70
     1
102
RTVSPost2010Prop33
280
     0
102
RTVSPost2010PropOp33
 70
     1
102
RTVSPost2010Prop34
280
     0
102
RTVSPost2010PropOp34
 70
     1
102
RTVSPost2010Prop35
280
     0
102
RTVSPost2010PropOp35
 70
     1
102
RTVSPost2010Prop36
280
     0
102
RTVSPost2010PropOp36
 70
     1
102
RTVSPost2010Prop37
 90
       50
102
RTVSPost2010PropOp37
 70
     1
102
RTVSPost2010Prop38
140
0.0
102
RTVSPost2010PropOp38
 70
     1
102
RTVSPost2010Prop39
140
1.0
102
RTVSPost2010PropOp39
 70
     1
102
RTVSPost2010Prop40
 90
        0
102
RTVSPost2010PropOp40
 70
     1
102
RTVSPost2010Prop41ColorIndex
 90
       18
102
RTVSPost2010Prop41ColorRGB
 90
        0
102
RTVSPost2010PropOp41
 70
     1
102
RTVSPost2010Prop42
 90
       50
102
RTVSPost2010PropOp42
 70
     1
102
RTVSPost2010Prop43
 90
        3
102
RTVSPost2010PropOp43
 70
     1
102
RTVSPost2010Prop44ColorIndex
 90
        5
102
RTVSPost2010Prop44ColorRGB
 90
      255
102
RTVSPost2010PropOp44
 70
     1
102
RTVSPost2010Prop45
280
     0
102
RTVSPost2010PropOp45
 70
     1
102
RTVSPost2010Prop46
 90
       50
102
RTVSPost2010PropOp46
 70
     1
102
RTVSPost2010Prop47
 90
       50
102
RTVSPost2010PropOp47
 70
     1
102
RTVSPost2010Prop48
 90
       50
102
RTVSPost2010PropOp48
 70
     1
102
RTVSPost2010Prop49
280
     0
102
RTVSPost2010PropOp49
 70
     1
102
RTVSPost2010Prop50
 90
       50
102
RTVSPost2010PropOp50
 70
     1
102
RTVSPost2010Prop51ColorIndex
 90
      256
102
RTVSPost2010Prop51ColorRGB
 90
-16777216
102
RTVSPost2010PropOp51
 70
     0
102
RTVSPost2010Prop52
140
1.0
102
RTVSPost2010PropOp52
 70
     0
102
RTVSPost2010Prop53
 90
        2
102
RTVSPost2010PropOp53
 70
     1
102
RTVSPost2010Prop54
  1
strokes_ogs.tif
102
RTVSPost2010PropOp54
 70
     1
102
RTVSPost2010Prop55
280
     0
102
RTVSPost2010PropOp55
 70
     1
102
RTVSPost2010Prop56
140
1.0
102
RTVSPost2010PropOp56
 70
     1
102
RTVSPost2010Prop57
140
1.0
102
RTVSPost2010PropOp57
 70
     1
102
RTVSPropertyOp0
 70
     1
102
RTVSPropertyOp1
 70
     1
102
RTVSPropertyOp2
 70
     1
102
RTVSPropertyOp3
 70
     1
102
RTVSPropertyOp4
 70
     1
102
RTVSPropertyOp5
 70
     1
102
RTVSPropertyOp6
 70
     1
102
RTVSPropertyOp7
 70
     1
102
RTVSPropertyOp8
 70
     1
102
RTVSPropertyOp9
 70
     1
102
RTVSPropertyOp10
 70
     1
102
RTVSPropertyOp11
 70
     1
102
RTVSPropertyOp12
 70
     1
102
RTVSPropertyOp13
 70
     1
102
RTVSPropertyOp14
 70
     1
102
RTVSPropertyOp15
 70
     1
102
RTVSPropertyOp16
 70
     1
102
RTVSPropertyOp17
 70
     1
102
RTVSPropertyOp18
 70
     1
102
RTVSPropertyOp19
 70
     1
102
RTVSPropertyOp20
 70
     1
102
RTVSPropertyOp21
 70
     1
102
RTVSPropertyOp22
 70
     1
102
RTVSPropertyOp23
 70
     1
102
RTVSPropertyOp24
 70
     1
102
RTVSPropertyOp25
 70
     1
102
RTVSPropertyOp26
 70
     1
102
RTVSPropertyOp27
 70
     1
102
RTVSPropertyOp28
 70
     1
102
RTVSPropertyOp29
 70
     1
102
RTVSPropertyOp30
 70
     1
102
RTVSPropertyOp31
 70
     1
102
RTVSPropertyOp32
 70
     1
102
RTVSPropertyOp33
 70
     1
102
RTVSPropertyOp34
 70
     1
102
RTVSPropertyOp35
 70
     1
102
RTVSPropertyOp36
 70
     1
102
RTVSPropertyOp37
 70
     1
102
RTVSPropertyOp38
 70
     1
102
RTVSPropertyOp39
 70
     1
102
RTVSPropertyOp40
 70
     1
102
RTVSPropertyOp41
 70
     1
102
RTVSPropertyOp42
 70
     1
102
RTVSPropertyOp43
 70
     1
102
RTVSPropertyOp44
 70
     1
102
RTVSPropertyOp45
 70
     1
102
RTVSPropertyOp46
 70
     1
102
RTVSPropertyOp47
 70
     1
102
RTVSPropertyOp48
 70
     1
102
RTVSPropertyOp49
 70
     1
102
RTVSPropertyOp50
 70
     1
102
RTVSPropertyOp51
 70
     0
102
RTVSPropertyOp52
 70
     0
102
RTVSPropertyOp53
 70
     1
102
RTVSPropertyOp54
 70
     1
102
RTVSPropertyOp55
 70
     1
102
RTVSPropertyOp56
 70
     1
102
RTVSPropertyOp57
 70
     1
102
RTVSPropertyOp58
 70
     1
102
RTVSPropertyOp59
 70
     1
102
RTVSPropertyOp60
 70
     1
102
RTVSPropertyOp61
 70
     1
102
RTVSPropertyOp62
 70
     1
  0
XRECORD
  5
28C31
102
{ACAD_REACTORS
330
28C30
102
}
330
28C30
100
AcDbXrecord
280
     1
102
RTVSPost2010Prop28
280
     0
102
RTVSPost2010PropOp28
 70
     1
102
RTVSPost2010Prop29
280
     1
102
RTVSPost2010PropOp29
 70
     1
102
RTVSPost2010Prop30
280
     1
102
RTVSPost2010PropOp30
 70
     1
102
RTVSPost2010Prop31
280
     0
102
RTVSPost2010PropOp31
 70
     1
102
RTVSPost2010Prop32
280
     0
102
RTVSPost2010PropOp32
 70
     1
102
RTVSPost2010Prop33
280
     0
102
RTVSPost2010PropOp33
 70
     1
102
RTVSPost2010Prop34
280
     0
102
RTVSPost2010PropOp34
 70
     1
102
RTVSPost2010Prop35
280
     0
102
RTVSPost2010PropOp35
 70
     1
102
RTVSPost2010Prop36
280
     0
102
RTVSPost2010PropOp36
 70
     1
102
RTVSPost2010Prop37
 90
       50
102
RTVSPost2010PropOp37
 70
     1
102
RTVSPost2010Prop38
140
0.0
102
RTVSPost2010PropOp38
 70
     1
102
RTVSPost2010Prop39
140
1.0
102
RTVSPost2010PropOp39
 70
     1
102
RTVSPost2010Prop40
 90
        0
102
RTVSPost2010PropOp40
 70
     1
102
RTVSPost2010Prop41ColorIndex
 90
       18
102
RTVSPost2010Prop41ColorRGB
 90
        0
102
RTVSPost2010PropOp41
 70
     1
102
RTVSPost2010Prop42
 90
       50
102
RTVSPost2010PropOp42
 70
     1
102
RTVSPost2010Prop43
 90
        3
102
RTVSPost2010PropOp43
 70
     1
102
RTVSPost2010Prop44ColorIndex
 90
        5
102
RTVSPost2010Prop44ColorRGB
 90
      255
102
RTVSPost2010PropOp44
 70
     1
102
RTVSPost2010Prop45
280
     0
102
RTVSPost2010PropOp45
 70
     1
102
RTVSPost2010Prop46
 90
       50
102
RTVSPost2010PropOp46
 70
     1
102
RTVSPost2010Prop47
 90
       50
102
RTVSPost2010PropOp47
 70
     1
102
RTVSPost2010Prop48
 90
       50
102
RTVSPost2010PropOp48
 70
     1
102
RTVSPost2010Prop49
280
     0
102
RTVSPost2010PropOp49
 70
     1
102
RTVSPost2010Prop50
 90
       50
102
RTVSPost2010PropOp50
 70
     1
102
RTVSPost2010Prop51ColorIndex
 90
      256
102
RTVSPost2010Prop51ColorRGB
 90
-16777216
102
RTVSPost2010PropOp51
 70
     0
102
RTVSPost2010Prop52
140
1.0
102
RTVSPost2010PropOp52
 70
     0
102
RTVSPost2010Prop53
 90
        2
102
RTVSPost2010PropOp53
 70
     1
102
RTVSPost2010Prop54
  1
strokes_ogs.tif
102
RTVSPost2010PropOp54
 70
     1
102
RTVSPost2010Prop55
280
     0
102
RTVSPost2010PropOp55
 70
     1
102
RTVSPost2010Prop56
140
1.0
102
RTVSPost2010PropOp56
 70
     1
102
RTVSPost2010Prop57
140
1.0
102
RTVSPost2010PropOp57
 70
     1
102
RTVSPropertyOp0
 70
     1
102
RTVSPropertyOp1
 70
     1
102
RTVSPropertyOp2
 70
     1
102
RTVSPropertyOp3
 70
     1
102
RTVSPropertyOp4
 70
     1
102
RTVSPropertyOp5
 70
     1
102
RTVSPropertyOp6
 70
     1
102
RTVSPropertyOp7
 70
     1
102
RTVSPropertyOp8
 70
     1
102
RTVSPropertyOp9
 70
     1
102
RTVSPropertyOp10
 70
     1
102
RTVSPropertyOp11
 70
     1
102
RTVSPropertyOp12
 70
     1
102
RTVSPropertyOp13
 70
     1
102
RTVSPropertyOp14
 70
     1
102
RTVSPropertyOp15
 70
     1
102
RTVSPropertyOp16
 70
     1
102
RTVSPropertyOp17
 70
     1
102
RTVSPropertyOp18
 70
     1
102
RTVSPropertyOp19
 70
     1
102
RTVSPropertyOp20
 70
     1
102
RTVSPropertyOp21
 70
     1
102
RTVSPropertyOp22
 70
     1
102
RTVSPropertyOp23
 70
     1
102
RTVSPropertyOp24
 70
     1
102
RTVSPropertyOp25
 70
     1
102
RTVSPropertyOp26
 70
     1
102
RTVSPropertyOp27
 70
     1
102
RTVSPropertyOp28
 70
     1
102
RTVSPropertyOp29
 70
     1
102
RTVSPropertyOp30
 70
     1
102
RTVSPropertyOp31
 70
     1
102
RTVSPropertyOp32
 70
     1
102
RTVSPropertyOp33
 70
     1
102
RTVSPropertyOp34
 70
     1
102
RTVSPropertyOp35
 70
     1
102
RTVSPropertyOp36
 70
     1
102
RTVSPropertyOp37
 70
     1
102
RTVSPropertyOp38
 70
     1
102
RTVSPropertyOp39
 70
     1
102
RTVSPropertyOp40
 70
     1
102
RTVSPropertyOp41
 70
     1
102
RTVSPropertyOp42
 70
     1
102
RTVSPropertyOp43
 70
     1
102
RTVSPropertyOp44
 70
     1
102
RTVSPropertyOp45
 70
     1
102
RTVSPropertyOp46
 70
     1
102
RTVSPropertyOp47
 70
     1
102
RTVSPropertyOp48
 70
     1
102
RTVSPropertyOp49
 70
     1
102
RTVSPropertyOp50
 70
     1
102
RTVSPropertyOp51
 70
     0
102
RTVSPropertyOp52
 70
     0
102
RTVSPropertyOp53
 70
     1
102
RTVSPropertyOp54
 70
     1
102
RTVSPropertyOp55
 70
     1
102
RTVSPropertyOp56
 70
     1
102
RTVSPropertyOp57
 70
     1
102
RTVSPropertyOp58
 70
     1
102
RTVSPropertyOp59
 70
     1
102
RTVSPropertyOp60
 70
     1
102
RTVSPropertyOp61
 70
     1
102
RTVSPropertyOp62
 70
     1
  0
XRECORD
  5
28C33
102
{ACAD_REACTORS
330
28C32
102
}
330
28C32
100
AcDbXrecord
280
     1
102
RTVSPost2010Prop28
280
     0
102
RTVSPost2010PropOp28
 70
     1
102
RTVSPost2010Prop29
280
     1
102
RTVSPost2010PropOp29
 70
     1
102
RTVSPost2010Prop30
280
     1
102
RTVSPost2010PropOp30
 70
     1
102
RTVSPost2010Prop31
280
     0
102
RTVSPost2010PropOp31
 70
     1
102
RTVSPost2010Prop32
280
     0
102
RTVSPost2010PropOp32
 70
     1
102
RTVSPost2010Prop33
280
     0
102
RTVSPost2010PropOp33
 70
     1
102
RTVSPost2010Prop34
280
     0
102
RTVSPost2010PropOp34
 70
     1
102
RTVSPost2010Prop35
280
     0
102
RTVSPost2010PropOp35
 70
     1
102
RTVSPost2010Prop36
280
     0
102
RTVSPost2010PropOp36
 70
     1
102
RTVSPost2010Prop37
 90
       50
102
RTVSPost2010PropOp37
 70
     1
102
RTVSPost2010Prop38
140
0.0
102
RTVSPost2010PropOp38
 70
     1
102
RTVSPost2010Prop39
140
1.0
102
RTVSPost2010PropOp39
 70
     1
102
RTVSPost2010Prop40
 90
        0
102
RTVSPost2010PropOp40
 70
     1
102
RTVSPost2010Prop41ColorIndex
 90
       18
102
RTVSPost2010Prop41ColorRGB
 90
        0
102
RTVSPost2010PropOp41
 70
     1
102
RTVSPost2010Prop42
 90
       50
102
RTVSPost2010PropOp42
 70
     1
102
RTVSPost2010Prop43
 90
        3
102
RTVSPost2010PropOp43
 70
     1
102
RTVSPost2010Prop44ColorIndex
 90
        5
102
RTVSPost2010Prop44ColorRGB
 90
      255
102
RTVSPost2010PropOp44
 70
     1
102
RTVSPost2010Prop45
280
     0
102
RTVSPost2010PropOp45
 70
     1
102
RTVSPost2010Prop46
 90
       50
102
RTVSPost2010PropOp46
 70
     1
102
RTVSPost2010Prop47
 90
       50
102
RTVSPost2010PropOp47
 70
     1
102
RTVSPost2010Prop48
 90
       50
102
RTVSPost2010PropOp48
 70
     1
102
RTVSPost2010Prop49
280
     0
102
RTVSPost2010PropOp49
 70
     1
102
RTVSPost2010Prop50
 90
       50
102
RTVSPost2010PropOp50
 70
     1
102
RTVSPost2010Prop51ColorIndex
 90
      256
102
RTVSPost2010Prop51ColorRGB
 90
-16777216
102
RTVSPost2010PropOp51
 70
     0
102
RTVSPost2010Prop52
140
1.0
102
RTVSPost2010PropOp52
 70
     0
102
RTVSPost2010Prop53
 90
        2
102
RTVSPost2010PropOp53
 70
     1
102
RTVSPost2010Prop54
  1
strokes_ogs.tif
102
RTVSPost2010PropOp54
 70
     1
102
RTVSPost2010Prop55
280
     0
102
RTVSPost2010PropOp55
 70
     1
102
RTVSPost2010Prop56
140
1.0
102
RTVSPost2010PropOp56
 70
     1
102
RTVSPost2010Prop57
140
1.0
102
RTVSPost2010PropOp57
 70
     1
102
RTVSPropertyOp0
 70
     1
102
RTVSPropertyOp1
 70
     1
102
RTVSPropertyOp2
 70
     1
102
RTVSPropertyOp3
 70
     1
102
RTVSPropertyOp4
 70
     1
102
RTVSPropertyOp5
 70
     1
102
RTVSPropertyOp6
 70
     1
102
RTVSPropertyOp7
 70
     1
102
RTVSPropertyOp8
 70
     1
102
RTVSPropertyOp9
 70
     1
102
RTVSPropertyOp10
 70
     1
102
RTVSPropertyOp11
 70
     1
102
RTVSPropertyOp12
 70
     1
102
RTVSPropertyOp13
 70
     1
102
RTVSPropertyOp14
 70
     1
102
RTVSPropertyOp15
 70
     1
102
RTVSPropertyOp16
 70
     1
102
RTVSPropertyOp17
 70
     1
102
RTVSPropertyOp18
 70
     1
102
RTVSPropertyOp19
 70
     1
102
RTVSPropertyOp20
 70
     1
102
RTVSPropertyOp21
 70
     1
102
RTVSPropertyOp22
 70
     1
102
RTVSPropertyOp23
 70
     1
102
RTVSPropertyOp24
 70
     1
102
RTVSPropertyOp25
 70
     1
102
RTVSPropertyOp26
 70
     1
102
RTVSPropertyOp27
 70
     1
102
RTVSPropertyOp28
 70
     1
102
RTVSPropertyOp29
 70
     1
102
RTVSPropertyOp30
 70
     1
102
RTVSPropertyOp31
 70
     1
102
RTVSPropertyOp32
 70
     1
102
RTVSPropertyOp33
 70
     1
102
RTVSPropertyOp34
 70
     1
102
RTVSPropertyOp35
 70
     1
102
RTVSPropertyOp36
 70
     1
102
RTVSPropertyOp37
 70
     1
102
RTVSPropertyOp38
 70
     1
102
RTVSPropertyOp39
 70
     1
102
RTVSPropertyOp40
 70
     1
102
RTVSPropertyOp41
 70
     1
102
RTVSPropertyOp42
 70
     1
102
RTVSPropertyOp43
 70
     1
102
RTVSPropertyOp44
 70
     1
102
RTVSPropertyOp45
 70
     1
102
RTVSPropertyOp46
 70
     1
102
RTVSPropertyOp47
 70
     1
102
RTVSPropertyOp48
 70
     1
102
RTVSPropertyOp49
 70
     1
102
RTVSPropertyOp50
 70
     1
102
RTVSPropertyOp51
 70
     0
102
RTVSPropertyOp52
 70
     0
102
RTVSPropertyOp53
 70
     1
102
RTVSPropertyOp54
 70
     1
102
RTVSPropertyOp55
 70
     1
102
RTVSPropertyOp56
 70
     1
102
RTVSPropertyOp57
 70
     1
102
RTVSPropertyOp58
 70
     1
102
RTVSPropertyOp59
 70
     1
102
RTVSPropertyOp60
 70
     1
102
RTVSPropertyOp61
 70
     1
102
RTVSPropertyOp62
 70
     1
  0
XRECORD
  5
28C35
102
{ACAD_REACTORS
330
28C34
102
}
330
28C34
100
AcDbXrecord
280
     1
102
RTVSPost2010Prop28
280
     0
102
RTVSPost2010PropOp28
 70
     1
102
RTVSPost2010Prop29
280
     1
102
RTVSPost2010PropOp29
 70
     1
102
RTVSPost2010Prop30
280
     1
102
RTVSPost2010PropOp30
 70
     1
102
RTVSPost2010Prop31
280
     0
102
RTVSPost2010PropOp31
 70
     1
102
RTVSPost2010Prop32
280
     0
102
RTVSPost2010PropOp32
 70
     1
102
RTVSPost2010Prop33
280
     0
102
RTVSPost2010PropOp33
 70
     1
102
RTVSPost2010Prop34
280
     0
102
RTVSPost2010PropOp34
 70
     1
102
RTVSPost2010Prop35
280
     0
102
RTVSPost2010PropOp35
 70
     1
102
RTVSPost2010Prop36
280
     0
102
RTVSPost2010PropOp36
 70
     1
102
RTVSPost2010Prop37
 90
       50
102
RTVSPost2010PropOp37
 70
     1
102
RTVSPost2010Prop38
140
0.0
102
RTVSPost2010PropOp38
 70
     1
102
RTVSPost2010Prop39
140
1.0
102
RTVSPost2010PropOp39
 70
     1
102
RTVSPost2010Prop40
 90
        0
102
RTVSPost2010PropOp40
 70
     1
102
RTVSPost2010Prop41ColorIndex
 90
       18
102
RTVSPost2010Prop41ColorRGB
 90
        0
102
RTVSPost2010PropOp41
 70
     1
102
RTVSPost2010Prop42
 90
       50
102
RTVSPost2010PropOp42
 70
     1
102
RTVSPost2010Prop43
 90
        3
102
RTVSPost2010PropOp43
 70
     1
102
RTVSPost2010Prop44ColorIndex
 90
        5
102
RTVSPost2010Prop44ColorRGB
 90
      255
102
RTVSPost2010PropOp44
 70
     1
102
RTVSPost2010Prop45
280
     0
102
RTVSPost2010PropOp45
 70
     1
102
RTVSPost2010Prop46
 90
       50
102
RTVSPost2010PropOp46
 70
     1
102
RTVSPost2010Prop47
 90
       50
102
RTVSPost2010PropOp47
 70
     1
102
RTVSPost2010Prop48
 90
       50
102
RTVSPost2010PropOp48
 70
     1
102
RTVSPost2010Prop49
280
     0
102
RTVSPost2010PropOp49
 70
     1
102
RTVSPost2010Prop50
 90
       50
102
RTVSPost2010PropOp50
 70
     1
102
RTVSPost2010Prop51ColorIndex
 90
      256
102
RTVSPost2010Prop51ColorRGB
 90
-16777216
102
RTVSPost2010PropOp51
 70
     0
102
RTVSPost2010Prop52
140
1.0
102
RTVSPost2010PropOp52
 70
     0
102
RTVSPost2010Prop53
 90
        2
102
RTVSPost2010PropOp53
 70
     1
102
RTVSPost2010Prop54
  1
strokes_ogs.tif
102
RTVSPost2010PropOp54
 70
     1
102
RTVSPost2010Prop55
280
     0
102
RTVSPost2010PropOp55
 70
     1
102
RTVSPost2010Prop56
140
1.0
102
RTVSPost2010PropOp56
 70
     1
102
RTVSPost2010Prop57
140
1.0
102
RTVSPost2010PropOp57
 70
     1
102
RTVSPropertyOp0
 70
     1
102
RTVSPropertyOp1
 70
     1
102
RTVSPropertyOp2
 70
     1
102
RTVSPropertyOp3
 70
     1
102
RTVSPropertyOp4
 70
     1
102
RTVSPropertyOp5
 70
     1
102
RTVSPropertyOp6
 70
     1
102
RTVSPropertyOp7
 70
     1
102
RTVSPropertyOp8
 70
     1
102
RTVSPropertyOp9
 70
     1
102
RTVSPropertyOp10
 70
     1
102
RTVSPropertyOp11
 70
     1
102
RTVSPropertyOp12
 70
     1
102
RTVSPropertyOp13
 70
     1
102
RTVSPropertyOp14
 70
     1
102
RTVSPropertyOp15
 70
     1
102
RTVSPropertyOp16
 70
     1
102
RTVSPropertyOp17
 70
     1
102
RTVSPropertyOp18
 70
     1
102
RTVSPropertyOp19
 70
     1
102
RTVSPropertyOp20
 70
     1
102
RTVSPropertyOp21
 70
     1
102
RTVSPropertyOp22
 70
     1
102
RTVSPropertyOp23
 70
     1
102
RTVSPropertyOp24
 70
     1
102
RTVSPropertyOp25
 70
     1
102
RTVSPropertyOp26
 70
     1
102
RTVSPropertyOp27
 70
     1
102
RTVSPropertyOp28
 70
     1
102
RTVSPropertyOp29
 70
     1
102
RTVSPropertyOp30
 70
     1
102
RTVSPropertyOp31
 70
     1
102
RTVSPropertyOp32
 70
     1
102
RTVSPropertyOp33
 70
     1
102
RTVSPropertyOp34
 70
     1
102
RTVSPropertyOp35
 70
     1
102
RTVSPropertyOp36
 70
     1
102
RTVSPropertyOp37
 70
     1
102
RTVSPropertyOp38
 70
     1
102
RTVSPropertyOp39
 70
     1
102
RTVSPropertyOp40
 70
     1
102
RTVSPropertyOp41
 70
     1
102
RTVSPropertyOp42
 70
     1
102
RTVSPropertyOp43
 70
     1
102
RTVSPropertyOp44
 70
     1
102
RTVSPropertyOp45
 70
     1
102
RTVSPropertyOp46
 70
     1
102
RTVSPropertyOp47
 70
     1
102
RTVSPropertyOp48
 70
     1
102
RTVSPropertyOp49
 70
     1
102
RTVSPropertyOp50
 70
     1
102
RTVSPropertyOp51
 70
     0
102
RTVSPropertyOp52
 70
     0
102
RTVSPropertyOp53
 70
     1
102
RTVSPropertyOp54
 70
     1
102
RTVSPropertyOp55
 70
     1
102
RTVSPropertyOp56
 70
     1
102
RTVSPropertyOp57
 70
     1
102
RTVSPropertyOp58
 70
     1
102
RTVSPropertyOp59
 70
     1
102
RTVSPropertyOp60
 70
     1
102
RTVSPropertyOp61
 70
     1
102
RTVSPropertyOp62
 70
     1
  0
XRECORD
  5
28C3D
102
{ACAD_REACTORS
330
28C3C
102
}
330
28C3C
100
AcDbXrecord
280
     1
102
RTVSPost2010Prop28
280
     0
102
RTVSPost2010PropOp28
 70
     1
102
RTVSPost2010Prop29
280
     1
102
RTVSPost2010PropOp29
 70
     1
102
RTVSPost2010Prop30
280
     1
102
RTVSPost2010PropOp30
 70
     1
102
RTVSPost2010Prop31
280
     0
102
RTVSPost2010PropOp31
 70
     1
102
RTVSPost2010Prop32
280
     0
102
RTVSPost2010PropOp32
 70
     1
102
RTVSPost2010Prop33
280
     0
102
RTVSPost2010PropOp33
 70
     1
102
RTVSPost2010Prop34
280
     0
102
RTVSPost2010PropOp34
 70
     1
102
RTVSPost2010Prop35
280
     0
102
RTVSPost2010PropOp35
 70
     1
102
RTVSPost2010Prop36
280
     0
102
RTVSPost2010PropOp36
 70
     1
102
RTVSPost2010Prop37
 90
       50
102
RTVSPost2010PropOp37
 70
     1
102
RTVSPost2010Prop38
140
0.0
102
RTVSPost2010PropOp38
 70
     1
102
RTVSPost2010Prop39
140
1.0
102
RTVSPost2010PropOp39
 70
     1
102
RTVSPost2010Prop40
 90
        0
102
RTVSPost2010PropOp40
 70
     1
102
RTVSPost2010Prop41ColorIndex
 90
       18
102
RTVSPost2010Prop41ColorRGB
 90
        0
102
RTVSPost2010PropOp41
 70
     1
102
RTVSPost2010Prop42
 90
       50
102
RTVSPost2010PropOp42
 70
     1
102
RTVSPost2010Prop43
 90
        3
102
RTVSPost2010PropOp43
 70
     1
102
RTVSPost2010Prop44ColorIndex
 90
        5
102
RTVSPost2010Prop44ColorRGB
 90
      255
102
RTVSPost2010PropOp44
 70
     1
102
RTVSPost2010Prop45
280
     0
102
RTVSPost2010PropOp45
 70
     1
102
RTVSPost2010Prop46
 90
       50
102
RTVSPost2010PropOp46
 70
     1
102
RTVSPost2010Prop47
 90
       50
102
RTVSPost2010PropOp47
 70
     1
102
RTVSPost2010Prop48
 90
       50
102
RTVSPost2010PropOp48
 70
     1
102
RTVSPost2010Prop49
280
     0
102
RTVSPost2010PropOp49
 70
     1
102
RTVSPost2010Prop50
 90
       50
102
RTVSPost2010PropOp50
 70
     1
102
RTVSPost2010Prop51ColorIndex
 90
      256
102
RTVSPost2010Prop51ColorRGB
 90
-16777216
102
RTVSPost2010PropOp51
 70
     0
102
RTVSPost2010Prop52
140
1.0
102
RTVSPost2010PropOp52
 70
     0
102
RTVSPost2010Prop53
 90
        2
102
RTVSPost2010PropOp53
 70
     1
102
RTVSPost2010Prop54
  1
strokes_ogs.tif
102
RTVSPost2010PropOp54
 70
     1
102
RTVSPost2010Prop55
280
     0
102
RTVSPost2010PropOp55
 70
     1
102
RTVSPost2010Prop56
140
1.0
102
RTVSPost2010PropOp56
 70
     1
102
RTVSPost2010Prop57
140
1.0
102
RTVSPost2010PropOp57
 70
     1
102
RTVSPropertyOp0
 70
     1
102
RTVSPropertyOp1
 70
     1
102
RTVSPropertyOp2
 70
     1
102
RTVSPropertyOp3
 70
     1
102
RTVSPropertyOp4
 70
     1
102
RTVSPropertyOp5
 70
     1
102
RTVSPropertyOp6
 70
     1
102
RTVSPropertyOp7
 70
     1
102
RTVSPropertyOp8
 70
     1
102
RTVSPropertyOp9
 70
     1
102
RTVSPropertyOp10
 70
     1
102
RTVSPropertyOp11
 70
     1
102
RTVSPropertyOp12
 70
     1
102
RTVSPropertyOp13
 70
     1
102
RTVSPropertyOp14
 70
     1
102
RTVSPropertyOp15
 70
     1
102
RTVSPropertyOp16
 70
     1
102
RTVSPropertyOp17
 70
     1
102
RTVSPropertyOp18
 70
     1
102
RTVSPropertyOp19
 70
     1
102
RTVSPropertyOp20
 70
     1
102
RTVSPropertyOp21
 70
     1
102
RTVSPropertyOp22
 70
     1
102
RTVSPropertyOp23
 70
     1
102
RTVSPropertyOp24
 70
     1
102
RTVSPropertyOp25
 70
     1
102
RTVSPropertyOp26
 70
     1
102
RTVSPropertyOp27
 70
     1
102
RTVSPropertyOp28
 70
     1
102
RTVSPropertyOp29
 70
     1
102
RTVSPropertyOp30
 70
     1
102
RTVSPropertyOp31
 70
     1
102
RTVSPropertyOp32
 70
     1
102
RTVSPropertyOp33
 70
     1
102
RTVSPropertyOp34
 70
     1
102
RTVSPropertyOp35
 70
     1
102
RTVSPropertyOp36
 70
     1
102
RTVSPropertyOp37
 70
     1
102
RTVSPropertyOp38
 70
     1
102
RTVSPropertyOp39
 70
     1
102
RTVSPropertyOp40
 70
     1
102
RTVSPropertyOp41
 70
     1
102
RTVSPropertyOp42
 70
     1
102
RTVSPropertyOp43
 70
     1
102
RTVSPropertyOp44
 70
     1
102
RTVSPropertyOp45
 70
     1
102
RTVSPropertyOp46
 70
     1
102
RTVSPropertyOp47
 70
     1
102
RTVSPropertyOp48
 70
     1
102
RTVSPropertyOp49
 70
     1
102
RTVSPropertyOp50
 70
     1
102
RTVSPropertyOp51
 70
     0
102
RTVSPropertyOp52
 70
     0
102
RTVSPropertyOp53
 70
     1
102
RTVSPropertyOp54
 70
     1
102
RTVSPropertyOp55
 70
     1
102
RTVSPropertyOp56
 70
     1
102
RTVSPropertyOp57
 70
     1
102
RTVSPropertyOp58
 70
     1
102
RTVSPropertyOp59
 70
     1
102
RTVSPropertyOp60
 70
     1
102
RTVSPropertyOp61
 70
     1
102
RTVSPropertyOp62
 70
     1
  0
XRECORD
  5
28C59
102
{ACAD_REACTORS
330
28C58
102
}
330
28C58
100
AcDbXrecord
280
     1
102
RTVSPost2010Prop28
280
     0
102
RTVSPost2010PropOp28
 70
     0
102
RTVSPost2010Prop29
280
     1
102
RTVSPost2010PropOp29
 70
     0
102
RTVSPost2010Prop30
280
     1
102
RTVSPost2010PropOp30
 70
     0
102
RTVSPost2010Prop31
280
     0
102
RTVSPost2010PropOp31
 70
     0
102
RTVSPost2010Prop32
280
     0
102
RTVSPost2010PropOp32
 70
     0
102
RTVSPost2010Prop33
280
     0
102
RTVSPost2010PropOp33
 70
     0
102
RTVSPost2010Prop34
280
     0
102
RTVSPost2010PropOp34
 70
     0
102
RTVSPost2010Prop35
280
     0
102
RTVSPost2010PropOp35
 70
     0
102
RTVSPost2010Prop36
280
     0
102
RTVSPost2010PropOp36
 70
     0
102
RTVSPost2010Prop37
 90
       50
102
RTVSPost2010PropOp37
 70
     0
102
RTVSPost2010Prop38
140
0.0
102
RTVSPost2010PropOp38
 70
     0
102
RTVSPost2010Prop39
140
1.0
102
RTVSPost2010PropOp39
 70
     0
102
RTVSPost2010Prop40
 90
        0
102
RTVSPost2010PropOp40
 70
     0
102
RTVSPost2010Prop41ColorIndex
 90
       18
102
RTVSPost2010Prop41ColorRGB
 90
        0
102
RTVSPost2010PropOp41
 70
     0
102
RTVSPost2010Prop42
 90
       50
102
RTVSPost2010PropOp42
 70
     0
102
RTVSPost2010Prop43
 90
        3
102
RTVSPost2010PropOp43
 70
     0
102
RTVSPost2010Prop44ColorIndex
 90
        5
102
RTVSPost2010Prop44ColorRGB
 90
      255
102
RTVSPost2010PropOp44
 70
     0
102
RTVSPost2010Prop45
280
     0
102
RTVSPost2010PropOp45
 70
     0
102
RTVSPost2010Prop46
 90
       50
102
RTVSPost2010PropOp46
 70
     0
102
RTVSPost2010Prop47
 90
       50
102
RTVSPost2010PropOp47
 70
     0
102
RTVSPost2010Prop48
 90
       50
102
RTVSPost2010PropOp48
 70
     0
102
RTVSPost2010Prop49
280
     0
102
RTVSPost2010PropOp49
 70
     0
102
RTVSPost2010Prop50
 90
       50
102
RTVSPost2010PropOp50
 70
     0
102
RTVSPost2010Prop51ColorIndex
 90
      256
102
RTVSPost2010Prop51ColorRGB
 90
-16777216
102
RTVSPost2010PropOp51
 70
     0
102
RTVSPost2010Prop52
140
1.0
102
RTVSPost2010PropOp52
 70
     0
102
RTVSPost2010Prop53
 90
        2
102
RTVSPost2010PropOp53
 70
     0
102
RTVSPost2010Prop54
  1
strokes_ogs.tif
102
RTVSPost2010PropOp54
 70
     0
102
RTVSPost2010Prop55
280
     0
102
RTVSPost2010PropOp55
 70
     0
102
RTVSPost2010Prop56
140
1.0
102
RTVSPost2010PropOp56
 70
     0
102
RTVSPost2010Prop57
140
1.0
102
RTVSPost2010PropOp57
 70
     0
102
RTVSPropertyOp0
 70
     0
102
RTVSPropertyOp1
 70
     0
102
RTVSPropertyOp2
 70
     0
102
RTVSPropertyOp3
 70
     0
102
RTVSPropertyOp4
 70
     0
102
RTVSPropertyOp5
 70
     0
102
RTVSPropertyOp6
 70
     0
102
RTVSPropertyOp7
 70
     0
102
RTVSPropertyOp8
 70
     0
102
RTVSPropertyOp9
 70
     0
102
RTVSPropertyOp10
 70
     0
102
RTVSPropertyOp11
 70
     0
102
RTVSPropertyOp12
 70
     0
102
RTVSPropertyOp13
 70
     0
102
RTVSPropertyOp14
 70
     2
102
RTVSPropertyOp15
 70
     0
102
RTVSPropertyOp16
 70
     0
102
RTVSPropertyOp17
 70
     0
102
RTVSPropertyOp18
 70
     0
102
RTVSPropertyOp19
 70
     0
102
RTVSPropertyOp20
 70
     0
102
RTVSPropertyOp21
 70
     0
102
RTVSPropertyOp22
 70
     0
102
RTVSPropertyOp23
 70
     0
102
RTVSPropertyOp24
 70
     0
102
RTVSPropertyOp25
 70
     0
102
RTVSPropertyOp26
 70
     0
102
RTVSPropertyOp27
 70
     0
102
RTVSPropertyOp28
 70
     0
102
RTVSPropertyOp29
 70
     0
102
RTVSPropertyOp30
 70
     0
102
RTVSPropertyOp31
 70
     0
102
RTVSPropertyOp32
 70
     0
102
RTVSPropertyOp33
 70
     0
102
RTVSPropertyOp34
 70
     0
102
RTVSPropertyOp35
 70
     0
102
RTVSPropertyOp36
 70
     0
102
RTVSPropertyOp37
 70
     0
102
RTVSPropertyOp38
 70
     0
102
RTVSPropertyOp39
 70
     0
102
RTVSPropertyOp40
 70
     0
102
RTVSPropertyOp41
 70
     0
102
RTVSPropertyOp42
 70
     0
102
RTVSPropertyOp43
 70
     0
102
RTVSPropertyOp44
 70
     0
102
RTVSPropertyOp45
 70
     0
102
RTVSPropertyOp46
 70
     0
102
RTVSPropertyOp47
 70
     0
102
RTVSPropertyOp48
 70
     0
102
RTVSPropertyOp49
 70
     0
102
RTVSPropertyOp50
 70
     0
102
RTVSPropertyOp51
 70
     0
102
RTVSPropertyOp52
 70
     0
102
RTVSPropertyOp53
 70
     0
102
RTVSPropertyOp54
 70
     0
102
RTVSPropertyOp55
 70
     0
102
RTVSPropertyOp56
 70
     0
102
RTVSPropertyOp57
 70
     0
102
RTVSPropertyOp58
 70
     1
102
RTVSPropertyOp59
 70
     1
102
RTVSPropertyOp60
 70
     1
102
RTVSPropertyOp61
 70
     1
102
RTVSPropertyOp62
 70
     1
  0
XRECORD
  5
28C49
102
{ACAD_REACTORS
330
28C48
102
}
330
28C48
100
AcDbXrecord
280
     1
102
RTVSPost2010Prop28
280
     0
102
RTVSPost2010PropOp28
 70
     1
102
RTVSPost2010Prop29
280
     1
102
RTVSPost2010PropOp29
 70
     1
102
RTVSPost2010Prop30
280
     1
102
RTVSPost2010PropOp30
 70
     1
102
RTVSPost2010Prop31
280
     0
102
RTVSPost2010PropOp31
 70
     1
102
RTVSPost2010Prop32
280
     0
102
RTVSPost2010PropOp32
 70
     1
102
RTVSPost2010Prop33
280
     0
102
RTVSPost2010PropOp33
 70
     1
102
RTVSPost2010Prop34
280
     0
102
RTVSPost2010PropOp34
 70
     1
102
RTVSPost2010Prop35
280
     0
102
RTVSPost2010PropOp35
 70
     1
102
RTVSPost2010Prop36
280
     0
102
RTVSPost2010PropOp36
 70
     1
102
RTVSPost2010Prop37
 90
       50
102
RTVSPost2010PropOp37
 70
     1
102
RTVSPost2010Prop38
140
0.0
102
RTVSPost2010PropOp38
 70
     1
102
RTVSPost2010Prop39
140
1.0
102
RTVSPost2010PropOp39
 70
     1
102
RTVSPost2010Prop40
 90
        0
102
RTVSPost2010PropOp40
 70
     1
102
RTVSPost2010Prop41ColorIndex
 90
       18
102
RTVSPost2010Prop41ColorRGB
 90
        0
102
RTVSPost2010PropOp41
 70
     1
102
RTVSPost2010Prop42
 90
       50
102
RTVSPost2010PropOp42
 70
     1
102
RTVSPost2010Prop43
 90
        3
102
RTVSPost2010PropOp43
 70
     1
102
RTVSPost2010Prop44ColorIndex
 90
        5
102
RTVSPost2010Prop44ColorRGB
 90
      255
102
RTVSPost2010PropOp44
 70
     1
102
RTVSPost2010Prop45
280
     0
102
RTVSPost2010PropOp45
 70
     1
102
RTVSPost2010Prop46
 90
       50
102
RTVSPost2010PropOp46
 70
     1
102
RTVSPost2010Prop47
 90
       50
102
RTVSPost2010PropOp47
 70
     1
102
RTVSPost2010Prop48
 90
       50
102
RTVSPost2010PropOp48
 70
     1
102
RTVSPost2010Prop49
280
     0
102
RTVSPost2010PropOp49
 70
     1
102
RTVSPost2010Prop50
 90
       50
102
RTVSPost2010PropOp50
 70
     1
102
RTVSPost2010Prop51ColorIndex
 90
      256
102
RTVSPost2010Prop51ColorRGB
 90
-16777216
102
RTVSPost2010PropOp51
 70
     0
102
RTVSPost2010Prop52
140
1.0
102
RTVSPost2010PropOp52
 70
     0
102
RTVSPost2010Prop53
 90
        2
102
RTVSPost2010PropOp53
 70
     1
102
RTVSPost2010Prop54
  1
strokes_ogs.tif
102
RTVSPost2010PropOp54
 70
     1
102
RTVSPost2010Prop55
280
     0
102
RTVSPost2010PropOp55
 70
     1
102
RTVSPost2010Prop56
140
1.0
102
RTVSPost2010PropOp56
 70
     1
102
RTVSPost2010Prop57
140
1.0
102
RTVSPost2010PropOp57
 70
     1
102
RTVSPropertyOp0
 70
     1
102
RTVSPropertyOp1
 70
     1
102
RTVSPropertyOp2
 70
     1
102
RTVSPropertyOp3
 70
     1
102
RTVSPropertyOp4
 70
     1
102
RTVSPropertyOp5
 70
     1
102
RTVSPropertyOp6
 70
     1
102
RTVSPropertyOp7
 70
     1
102
RTVSPropertyOp8
 70
     1
102
RTVSPropertyOp9
 70
     1
102
RTVSPropertyOp10
 70
     1
102
RTVSPropertyOp11
 70
     1
102
RTVSPropertyOp12
 70
     1
102
RTVSPropertyOp13
 70
     1
102
RTVSPropertyOp14
 70
     1
102
RTVSPropertyOp15
 70
     1
102
RTVSPropertyOp16
 70
     1
102
RTVSPropertyOp17
 70
     1
102
RTVSPropertyOp18
 70
     1
102
RTVSPropertyOp19
 70
     1
102
RTVSPropertyOp20
 70
     1
102
RTVSPropertyOp21
 70
     1
102
RTVSPropertyOp22
 70
     1
102
RTVSPropertyOp23
 70
     1
102
RTVSPropertyOp24
 70
     1
102
RTVSPropertyOp25
 70
     1
102
RTVSPropertyOp26
 70
     1
102
RTVSPropertyOp27
 70
     1
102
RTVSPropertyOp28
 70
     1
102
RTVSPropertyOp29
 70
     1
102
RTVSPropertyOp30
 70
     1
102
RTVSPropertyOp31
 70
     1
102
RTVSPropertyOp32
 70
     1
102
RTVSPropertyOp33
 70
     1
102
RTVSPropertyOp34
 70
     1
102
RTVSPropertyOp35
 70
     1
102
RTVSPropertyOp36
 70
     1
102
RTVSPropertyOp37
 70
     1
102
RTVSPropertyOp38
 70
     1
102
RTVSPropertyOp39
 70
     1
102
RTVSPropertyOp40
 70
     1
102
RTVSPropertyOp41
 70
     1
102
RTVSPropertyOp42
 70
     1
102
RTVSPropertyOp43
 70
     1
102
RTVSPropertyOp44
 70
     1
102
RTVSPropertyOp45
 70
     1
102
RTVSPropertyOp46
 70
     1
102
RTVSPropertyOp47
 70
     1
102
RTVSPropertyOp48
 70
     1
102
RTVSPropertyOp49
 70
     1
102
RTVSPropertyOp50
 70
     1
102
RTVSPropertyOp51
 70
     0
102
RTVSPropertyOp52
 70
     0
102
RTVSPropertyOp53
 70
     1
102
RTVSPropertyOp54
 70
     1
102
RTVSPropertyOp55
 70
     1
102
RTVSPropertyOp56
 70
     1
102
RTVSPropertyOp57
 70
     1
102
RTVSPropertyOp58
 70
     1
102
RTVSPropertyOp59
 70
     1
102
RTVSPropertyOp60
 70
     1
102
RTVSPropertyOp61
 70
     1
102
RTVSPropertyOp62
 70
     1
  0
XRECORD
  5
28C5B
102
{ACAD_REACTORS
330
28C5A
102
}
330
28C5A
100
AcDbXrecord
280
     1
102
RTVSPost2010Prop28
280
     0
102
RTVSPost2010PropOp28
 70
     0
102
RTVSPost2010Prop29
280
     1
102
RTVSPost2010PropOp29
 70
     0
102
RTVSPost2010Prop30
280
     1
102
RTVSPost2010PropOp30
 70
     0
102
RTVSPost2010Prop31
280
     0
102
RTVSPost2010PropOp31
 70
     0
102
RTVSPost2010Prop32
280
     0
102
RTVSPost2010PropOp32
 70
     0
102
RTVSPost2010Prop33
280
     0
102
RTVSPost2010PropOp33
 70
     0
102
RTVSPost2010Prop34
280
     0
102
RTVSPost2010PropOp34
 70
     0
102
RTVSPost2010Prop35
280
     0
102
RTVSPost2010PropOp35
 70
     0
102
RTVSPost2010Prop36
280
     0
102
RTVSPost2010PropOp36
 70
     0
102
RTVSPost2010Prop37
 90
       50
102
RTVSPost2010PropOp37
 70
     0
102
RTVSPost2010Prop38
140
0.0
102
RTVSPost2010PropOp38
 70
     0
102
RTVSPost2010Prop39
140
1.0
102
RTVSPost2010PropOp39
 70
     0
102
RTVSPost2010Prop40
 90
        0
102
RTVSPost2010PropOp40
 70
     0
102
RTVSPost2010Prop41ColorIndex
 90
       18
102
RTVSPost2010Prop41ColorRGB
 90
        0
102
RTVSPost2010PropOp41
 70
     0
102
RTVSPost2010Prop42
 90
       50
102
RTVSPost2010PropOp42
 70
     0
102
RTVSPost2010Prop43
 90
        3
102
RTVSPost2010PropOp43
 70
     0
102
RTVSPost2010Prop44ColorIndex
 90
        5
102
RTVSPost2010Prop44ColorRGB
 90
      255
102
RTVSPost2010PropOp44
 70
     0
102
RTVSPost2010Prop45
280
     0
102
RTVSPost2010PropOp45
 70
     0
102
RTVSPost2010Prop46
 90
       50
102
RTVSPost2010PropOp46
 70
     0
102
RTVSPost2010Prop47
 90
       50
102
RTVSPost2010PropOp47
 70
     0
102
RTVSPost2010Prop48
 90
       50
102
RTVSPost2010PropOp48
 70
     0
102
RTVSPost2010Prop49
280
     0
102
RTVSPost2010PropOp49
 70
     0
102
RTVSPost2010Prop50
 90
       50
102
RTVSPost2010PropOp50
 70
     0
102
RTVSPost2010Prop51ColorIndex
 90
      256
102
RTVSPost2010Prop51ColorRGB
 90
-16777216
102
RTVSPost2010PropOp51
 70
     0
102
RTVSPost2010Prop52
140
1.0
102
RTVSPost2010PropOp52
 70
     0
102
RTVSPost2010Prop53
 90
        2
102
RTVSPost2010PropOp53
 70
     0
102
RTVSPost2010Prop54
  1
strokes_ogs.tif
102
RTVSPost2010PropOp54
 70
     0
102
RTVSPost2010Prop55
280
     0
102
RTVSPost2010PropOp55
 70
     0
102
RTVSPost2010Prop56
140
1.0
102
RTVSPost2010PropOp56
 70
     0
102
RTVSPost2010Prop57
140
1.0
102
RTVSPost2010PropOp57
 70
     0
102
RTVSPropertyOp0
 70
     0
102
RTVSPropertyOp1
 70
     0
102
RTVSPropertyOp2
 70
     0
102
RTVSPropertyOp3
 70
     0
102
RTVSPropertyOp4
 70
     0
102
RTVSPropertyOp5
 70
     0
102
RTVSPropertyOp6
 70
     0
102
RTVSPropertyOp7
 70
     0
102
RTVSPropertyOp8
 70
     0
102
RTVSPropertyOp9
 70
     0
102
RTVSPropertyOp10
 70
     0
102
RTVSPropertyOp11
 70
     0
102
RTVSPropertyOp12
 70
     0
102
RTVSPropertyOp13
 70
     0
102
RTVSPropertyOp14
 70
     2
102
RTVSPropertyOp15
 70
     0
102
RTVSPropertyOp16
 70
     0
102
RTVSPropertyOp17
 70
     0
102
RTVSPropertyOp18
 70
     0
102
RTVSPropertyOp19
 70
     0
102
RTVSPropertyOp20
 70
     0
102
RTVSPropertyOp21
 70
     0
102
RTVSPropertyOp22
 70
     0
102
RTVSPropertyOp23
 70
     0
102
RTVSPropertyOp24
 70
     0
102
RTVSPropertyOp25
 70
     0
102
RTVSPropertyOp26
 70
     0
102
RTVSPropertyOp27
 70
     0
102
RTVSPropertyOp28
 70
     0
102
RTVSPropertyOp29
 70
     0
102
RTVSPropertyOp30
 70
     0
102
RTVSPropertyOp31
 70
     0
102
RTVSPropertyOp32
 70
     0
102
RTVSPropertyOp33
 70
     0
102
RTVSPropertyOp34
 70
     0
102
RTVSPropertyOp35
 70
     0
102
RTVSPropertyOp36
 70
     0
102
RTVSPropertyOp37
 70
     0
102
RTVSPropertyOp38
 70
     0
102
RTVSPropertyOp39
 70
     0
102
RTVSPropertyOp40
 70
     0
102
RTVSPropertyOp41
 70
     0
102
RTVSPropertyOp42
 70
     0
102
RTVSPropertyOp43
 70
     0
102
RTVSPropertyOp44
 70
     0
102
RTVSPropertyOp45
 70
     0
102
RTVSPropertyOp46
 70
     0
102
RTVSPropertyOp47
 70
     0
102
RTVSPropertyOp48
 70
     0
102
RTVSPropertyOp49
 70
     0
102
RTVSPropertyOp50
 70
     0
102
RTVSPropertyOp51
 70
     0
102
RTVSPropertyOp52
 70
     0
102
RTVSPropertyOp53
 70
     0
102
RTVSPropertyOp54
 70
     0
102
RTVSPropertyOp55
 70
     0
102
RTVSPropertyOp56
 70
     0
102
RTVSPropertyOp57
 70
     0
102
RTVSPropertyOp58
 70
     1
102
RTVSPropertyOp59
 70
     1
102
RTVSPropertyOp60
 70
     1
102
RTVSPropertyOp61
 70
     1
102
RTVSPropertyOp62
 70
     1
  0
XRECORD
  5
28C41
102
{ACAD_REACTORS
330
28C40
102
}
330
28C40
100
AcDbXrecord
280
     1
102
RTVSPost2010Prop28
280
     0
102
RTVSPost2010PropOp28
 70
     1
102
RTVSPost2010Prop29
280
     1
102
RTVSPost2010PropOp29
 70
     1
102
RTVSPost2010Prop30
280
     1
102
RTVSPost2010PropOp30
 70
     1
102
RTVSPost2010Prop31
280
     0
102
RTVSPost2010PropOp31
 70
     1
102
RTVSPost2010Prop32
280
     0
102
RTVSPost2010PropOp32
 70
     1
102
RTVSPost2010Prop33
280
     0
102
RTVSPost2010PropOp33
 70
     1
102
RTVSPost2010Prop34
280
     0
102
RTVSPost2010PropOp34
 70
     1
102
RTVSPost2010Prop35
280
     0
102
RTVSPost2010PropOp35
 70
     1
102
RTVSPost2010Prop36
280
     0
102
RTVSPost2010PropOp36
 70
     1
102
RTVSPost2010Prop37
 90
       50
102
RTVSPost2010PropOp37
 70
     1
102
RTVSPost2010Prop38
140
0.0
102
RTVSPost2010PropOp38
 70
     1
102
RTVSPost2010Prop39
140
1.0
102
RTVSPost2010PropOp39
 70
     1
102
RTVSPost2010Prop40
 90
        0
102
RTVSPost2010PropOp40
 70
     1
102
RTVSPost2010Prop41ColorIndex
 90
       18
102
RTVSPost2010Prop41ColorRGB
 90
        0
102
RTVSPost2010PropOp41
 70
     1
102
RTVSPost2010Prop42
 90
       50
102
RTVSPost2010PropOp42
 70
     1
102
RTVSPost2010Prop43
 90
        3
102
RTVSPost2010PropOp43
 70
     1
102
RTVSPost2010Prop44ColorIndex
 90
        5
102
RTVSPost2010Prop44ColorRGB
 90
      255
102
RTVSPost2010PropOp44
 70
     1
102
RTVSPost2010Prop45
280
     0
102
RTVSPost2010PropOp45
 70
     1
102
RTVSPost2010Prop46
 90
       50
102
RTVSPost2010PropOp46
 70
     1
102
RTVSPost2010Prop47
 90
       50
102
RTVSPost2010PropOp47
 70
     1
102
RTVSPost2010Prop48
 90
       50
102
RTVSPost2010PropOp48
 70
     1
102
RTVSPost2010Prop49
280
     0
102
RTVSPost2010PropOp49
 70
     1
102
RTVSPost2010Prop50
 90
       50
102
RTVSPost2010PropOp50
 70
     1
102
RTVSPost2010Prop51ColorIndex
 90
      256
102
RTVSPost2010Prop51ColorRGB
 90
-16777216
102
RTVSPost2010PropOp51
 70
     0
102
RTVSPost2010Prop52
140
1.0
102
RTVSPost2010PropOp52
 70
     0
102
RTVSPost2010Prop53
 90
        2
102
RTVSPost2010PropOp53
 70
     1
102
RTVSPost2010Prop54
  1
strokes_ogs.tif
102
RTVSPost2010PropOp54
 70
     1
102
RTVSPost2010Prop55
280
     0
102
RTVSPost2010PropOp55
 70
     1
102
RTVSPost2010Prop56
140
1.0
102
RTVSPost2010PropOp56
 70
     1
102
RTVSPost2010Prop57
140
1.0
102
RTVSPost2010PropOp57
 70
     1
102
RTVSPropertyOp0
 70
     1
102
RTVSPropertyOp1
 70
     1
102
RTVSPropertyOp2
 70
     1
102
RTVSPropertyOp3
 70
     1
102
RTVSPropertyOp4
 70
     1
102
RTVSPropertyOp5
 70
     1
102
RTVSPropertyOp6
 70
     1
102
RTVSPropertyOp7
 70
     1
102
RTVSPropertyOp8
 70
     1
102
RTVSPropertyOp9
 70
     1
102
RTVSPropertyOp10
 70
     1
102
RTVSPropertyOp11
 70
     1
102
RTVSPropertyOp12
 70
     1
102
RTVSPropertyOp13
 70
     1
102
RTVSPropertyOp14
 70
     1
102
RTVSPropertyOp15
 70
     1
102
RTVSPropertyOp16
 70
     1
102
RTVSPropertyOp17
 70
     1
102
RTVSPropertyOp18
 70
     1
102
RTVSPropertyOp19
 70
     1
102
RTVSPropertyOp20
 70
     1
102
RTVSPropertyOp21
 70
     1
102
RTVSPropertyOp22
 70
     1
102
RTVSPropertyOp23
 70
     1
102
RTVSPropertyOp24
 70
     1
102
RTVSPropertyOp25
 70
     1
102
RTVSPropertyOp26
 70
     1
102
RTVSPropertyOp27
 70
     1
102
RTVSPropertyOp28
 70
     1
102
RTVSPropertyOp29
 70
     1
102
RTVSPropertyOp30
 70
     1
102
RTVSPropertyOp31
 70
     1
102
RTVSPropertyOp32
 70
     1
102
RTVSPropertyOp33
 70
     1
102
RTVSPropertyOp34
 70
     1
102
RTVSPropertyOp35
 70
     1
102
RTVSPropertyOp36
 70
     1
102
RTVSPropertyOp37
 70
     1
102
RTVSPropertyOp38
 70
     1
102
RTVSPropertyOp39
 70
     1
102
RTVSPropertyOp40
 70
     1
102
RTVSPropertyOp41
 70
     1
102
RTVSPropertyOp42
 70
     1
102
RTVSPropertyOp43
 70
     1
102
RTVSPropertyOp44
 70
     1
102
RTVSPropertyOp45
 70
     1
102
RTVSPropertyOp46
 70
     1
102
RTVSPropertyOp47
 70
     1
102
RTVSPropertyOp48
 70
     1
102
RTVSPropertyOp49
 70
     1
102
RTVSPropertyOp50
 70
     1
102
RTVSPropertyOp51
 70
     0
102
RTVSPropertyOp52
 70
     0
102
RTVSPropertyOp53
 70
     1
102
RTVSPropertyOp54
 70
     1
102
RTVSPropertyOp55
 70
     1
102
RTVSPropertyOp56
 70
     1
102
RTVSPropertyOp57
 70
     1
102
RTVSPropertyOp58
 70
     1
102
RTVSPropertyOp59
 70
     1
102
RTVSPropertyOp60
 70
     1
102
RTVSPropertyOp61
 70
     1
102
RTVSPropertyOp62
 70
     1
  0
XRECORD
  5
28C57
102
{ACAD_REACTORS
330
28C56
102
}
330
28C56
100
AcDbXrecord
280
     1
102
RTVSPost2010Prop28
280
     0
102
RTVSPost2010PropOp28
 70
     1
102
RTVSPost2010Prop29
280
     1
102
RTVSPost2010PropOp29
 70
     1
102
RTVSPost2010Prop30
280
     1
102
RTVSPost2010PropOp30
 70
     1
102
RTVSPost2010Prop31
280
     0
102
RTVSPost2010PropOp31
 70
     1
102
RTVSPost2010Prop32
280
     0
102
RTVSPost2010PropOp32
 70
     1
102
RTVSPost2010Prop33
280
     0
102
RTVSPost2010PropOp33
 70
     1
102
RTVSPost2010Prop34
280
     0
102
RTVSPost2010PropOp34
 70
     1
102
RTVSPost2010Prop35
280
     0
102
RTVSPost2010PropOp35
 70
     1
102
RTVSPost2010Prop36
280
     0
102
RTVSPost2010PropOp36
 70
     1
102
RTVSPost2010Prop37
 90
       50
102
RTVSPost2010PropOp37
 70
     1
102
RTVSPost2010Prop38
140
0.0
102
RTVSPost2010PropOp38
 70
     1
102
RTVSPost2010Prop39
140
1.0
102
RTVSPost2010PropOp39
 70
     1
102
RTVSPost2010Prop40
 90
        0
102
RTVSPost2010PropOp40
 70
     1
102
RTVSPost2010Prop41ColorIndex
 90
       18
102
RTVSPost2010Prop41ColorRGB
 90
        0
102
RTVSPost2010PropOp41
 70
     1
102
RTVSPost2010Prop42
 90
       50
102
RTVSPost2010PropOp42
 70
     1
102
RTVSPost2010Prop43
 90
        3
102
RTVSPost2010PropOp43
 70
     1
102
RTVSPost2010Prop44ColorIndex
 90
        5
102
RTVSPost2010Prop44ColorRGB
 90
      255
102
RTVSPost2010PropOp44
 70
     1
102
RTVSPost2010Prop45
280
     0
102
RTVSPost2010PropOp45
 70
     1
102
RTVSPost2010Prop46
 90
       50
102
RTVSPost2010PropOp46
 70
     1
102
RTVSPost2010Prop47
 90
       50
102
RTVSPost2010PropOp47
 70
     1
102
RTVSPost2010Prop48
 90
       50
102
RTVSPost2010PropOp48
 70
     1
102
RTVSPost2010Prop49
280
     0
102
RTVSPost2010PropOp49
 70
     1
102
RTVSPost2010Prop50
 90
       50
102
RTVSPost2010PropOp50
 70
     1
102
RTVSPost2010Prop51ColorIndex
 90
      256
102
RTVSPost2010Prop51ColorRGB
 90
-16777216
102
RTVSPost2010PropOp51
 70
     0
102
RTVSPost2010Prop52
140
1.0
102
RTVSPost2010PropOp52
 70
     0
102
RTVSPost2010Prop53
 90
        2
102
RTVSPost2010PropOp53
 70
     1
102
RTVSPost2010Prop54
  1
strokes_ogs.tif
102
RTVSPost2010PropOp54
 70
     1
102
RTVSPost2010Prop55
280
     0
102
RTVSPost2010PropOp55
 70
     1
102
RTVSPost2010Prop56
140
1.0
102
RTVSPost2010PropOp56
 70
     1
102
RTVSPost2010Prop57
140
1.0
102
RTVSPost2010PropOp57
 70
     1
102
RTVSPropertyOp0
 70
     1
102
RTVSPropertyOp1
 70
     1
102
RTVSPropertyOp2
 70
     1
102
RTVSPropertyOp3
 70
     1
102
RTVSPropertyOp4
 70
     1
102
RTVSPropertyOp5
 70
     1
102
RTVSPropertyOp6
 70
     1
102
RTVSPropertyOp7
 70
     1
102
RTVSPropertyOp8
 70
     1
102
RTVSPropertyOp9
 70
     1
102
RTVSPropertyOp10
 70
     1
102
RTVSPropertyOp11
 70
     1
102
RTVSPropertyOp12
 70
     1
102
RTVSPropertyOp13
 70
     1
102
RTVSPropertyOp14
 70
     1
102
RTVSPropertyOp15
 70
     1
102
RTVSPropertyOp16
 70
     1
102
RTVSPropertyOp17
 70
     1
102
RTVSPropertyOp18
 70
     1
102
RTVSPropertyOp19
 70
     1
102
RTVSPropertyOp20
 70
     1
102
RTVSPropertyOp21
 70
     1
102
RTVSPropertyOp22
 70
     1
102
RTVSPropertyOp23
 70
     1
102
RTVSPropertyOp24
 70
     1
102
RTVSPropertyOp25
 70
     1
102
RTVSPropertyOp26
 70
     1
102
RTVSPropertyOp27
 70
     1
102
RTVSPropertyOp28
 70
     1
102
RTVSPropertyOp29
 70
     1
102
RTVSPropertyOp30
 70
     1
102
RTVSPropertyOp31
 70
     1
102
RTVSPropertyOp32
 70
     1
102
RTVSPropertyOp33
 70
     1
102
RTVSPropertyOp34
 70
     1
102
RTVSPropertyOp35
 70
     1
102
RTVSPropertyOp36
 70
     1
102
RTVSPropertyOp37
 70
     1
102
RTVSPropertyOp38
 70
     1
102
RTVSPropertyOp39
 70
     1
102
RTVSPropertyOp40
 70
     1
102
RTVSPropertyOp41
 70
     1
102
RTVSPropertyOp42
 70
     1
102
RTVSPropertyOp43
 70
     1
102
RTVSPropertyOp44
 70
     1
102
RTVSPropertyOp45
 70
     1
102
RTVSPropertyOp46
 70
     1
102
RTVSPropertyOp47
 70
     1
102
RTVSPropertyOp48
 70
     1
102
RTVSPropertyOp49
 70
     1
102
RTVSPropertyOp50
 70
     1
102
RTVSPropertyOp51
 70
     0
102
RTVSPropertyOp52
 70
     0
102
RTVSPropertyOp53
 70
     1
102
RTVSPropertyOp54
 70
     1
102
RTVSPropertyOp55
 70
     1
102
RTVSPropertyOp56
 70
     1
102
RTVSPropertyOp57
 70
     1
102
RTVSPropertyOp58
 70
     1
102
RTVSPropertyOp59
 70
     1
102
RTVSPropertyOp60
 70
     1
102
RTVSPropertyOp61
 70
     1
102
RTVSPropertyOp62
 70
     1
  0
XRECORD
  5
28C55
102
{ACAD_REACTORS
330
28C54
102
}
330
28C54
100
AcDbXrecord
280
     1
102
RTVSPost2010Prop28
280
     0
102
RTVSPost2010PropOp28
 70
     1
102
RTVSPost2010Prop29
280
     1
102
RTVSPost2010PropOp29
 70
     1
102
RTVSPost2010Prop30
280
     1
102
RTVSPost2010PropOp30
 70
     1
102
RTVSPost2010Prop31
280
     0
102
RTVSPost2010PropOp31
 70
     1
102
RTVSPost2010Prop32
280
     0
102
RTVSPost2010PropOp32
 70
     1
102
RTVSPost2010Prop33
280
     0
102
RTVSPost2010PropOp33
 70
     1
102
RTVSPost2010Prop34
280
     0
102
RTVSPost2010PropOp34
 70
     1
102
RTVSPost2010Prop35
280
     0
102
RTVSPost2010PropOp35
 70
     1
102
RTVSPost2010Prop36
280
     0
102
RTVSPost2010PropOp36
 70
     1
102
RTVSPost2010Prop37
 90
       50
102
RTVSPost2010PropOp37
 70
     1
102
RTVSPost2010Prop38
140
0.0
102
RTVSPost2010PropOp38
 70
     1
102
RTVSPost2010Prop39
140
1.0
102
RTVSPost2010PropOp39
 70
     1
102
RTVSPost2010Prop40
 90
        0
102
RTVSPost2010PropOp40
 70
     1
102
RTVSPost2010Prop41ColorIndex
 90
       18
102
RTVSPost2010Prop41ColorRGB
 90
        0
102
RTVSPost2010PropOp41
 70
     1
102
RTVSPost2010Prop42
 90
       50
102
RTVSPost2010PropOp42
 70
     1
102
RTVSPost2010Prop43
 90
        3
102
RTVSPost2010PropOp43
 70
     1
102
RTVSPost2010Prop44ColorIndex
 90
        5
102
RTVSPost2010Prop44ColorRGB
 90
      255
102
RTVSPost2010PropOp44
 70
     1
102
RTVSPost2010Prop45
280
     0
102
RTVSPost2010PropOp45
 70
     1
102
RTVSPost2010Prop46
 90
       50
102
RTVSPost2010PropOp46
 70
     1
102
RTVSPost2010Prop47
 90
       50
102
RTVSPost2010PropOp47
 70
     1
102
RTVSPost2010Prop48
 90
       50
102
RTVSPost2010PropOp48
 70
     1
102
RTVSPost2010Prop49
280
     0
102
RTVSPost2010PropOp49
 70
     1
102
RTVSPost2010Prop50
 90
       50
102
RTVSPost2010PropOp50
 70
     1
102
RTVSPost2010Prop51ColorIndex
 90
      256
102
RTVSPost2010Prop51ColorRGB
 90
-16777216
102
RTVSPost2010PropOp51
 70
     0
102
RTVSPost2010Prop52
140
1.0
102
RTVSPost2010PropOp52
 70
     0
102
RTVSPost2010Prop53
 90
        2
102
RTVSPost2010PropOp53
 70
     1
102
RTVSPost2010Prop54
  1
strokes_ogs.tif
102
RTVSPost2010PropOp54
 70
     1
102
RTVSPost2010Prop55
280
     0
102
RTVSPost2010PropOp55
 70
     1
102
RTVSPost2010Prop56
140
1.0
102
RTVSPost2010PropOp56
 70
     1
102
RTVSPost2010Prop57
140
1.0
102
RTVSPost2010PropOp57
 70
     1
102
RTVSPropertyOp0
 70
     1
102
RTVSPropertyOp1
 70
     1
102
RTVSPropertyOp2
 70
     1
102
RTVSPropertyOp3
 70
     1
102
RTVSPropertyOp4
 70
     1
102
RTVSPropertyOp5
 70
     1
102
RTVSPropertyOp6
 70
     1
102
RTVSPropertyOp7
 70
     1
102
RTVSPropertyOp8
 70
     1
102
RTVSPropertyOp9
 70
     1
102
RTVSPropertyOp10
 70
     1
102
RTVSPropertyOp11
 70
     1
102
RTVSPropertyOp12
 70
     1
102
RTVSPropertyOp13
 70
     1
102
RTVSPropertyOp14
 70
     1
102
RTVSPropertyOp15
 70
     1
102
RTVSPropertyOp16
 70
     1
102
RTVSPropertyOp17
 70
     1
102
RTVSPropertyOp18
 70
     1
102
RTVSPropertyOp19
 70
     1
102
RTVSPropertyOp20
 70
     1
102
RTVSPropertyOp21
 70
     1
102
RTVSPropertyOp22
 70
     1
102
RTVSPropertyOp23
 70
     1
102
RTVSPropertyOp24
 70
     1
102
RTVSPropertyOp25
 70
     1
102
RTVSPropertyOp26
 70
     1
102
RTVSPropertyOp27
 70
     1
102
RTVSPropertyOp28
 70
     1
102
RTVSPropertyOp29
 70
     1
102
RTVSPropertyOp30
 70
     1
102
RTVSPropertyOp31
 70
     1
102
RTVSPropertyOp32
 70
     1
102
RTVSPropertyOp33
 70
     1
102
RTVSPropertyOp34
 70
     1
102
RTVSPropertyOp35
 70
     1
102
RTVSPropertyOp36
 70
     1
102
RTVSPropertyOp37
 70
     1
102
RTVSPropertyOp38
 70
     1
102
RTVSPropertyOp39
 70
     1
102
RTVSPropertyOp40
 70
     1
102
RTVSPropertyOp41
 70
     1
102
RTVSPropertyOp42
 70
     1
102
RTVSPropertyOp43
 70
     1
102
RTVSPropertyOp44
 70
     1
102
RTVSPropertyOp45
 70
     1
102
RTVSPropertyOp46
 70
     1
102
RTVSPropertyOp47
 70
     1
102
RTVSPropertyOp48
 70
     1
102
RTVSPropertyOp49
 70
     1
102
RTVSPropertyOp50
 70
     1
102
RTVSPropertyOp51
 70
     0
102
RTVSPropertyOp52
 70
     0
102
RTVSPropertyOp53
 70
     1
102
RTVSPropertyOp54
 70
     1
102
RTVSPropertyOp55
 70
     1
102
RTVSPropertyOp56
 70
     1
102
RTVSPropertyOp57
 70
     1
102
RTVSPropertyOp58
 70
     1
102
RTVSPropertyOp59
 70
     1
102
RTVSPropertyOp60
 70
     1
102
RTVSPropertyOp61
 70
     1
102
RTVSPropertyOp62
 70
     1
  0
XRECORD
  5
28C4F
102
{ACAD_REACTORS
330
28C4E
102
}
330
28C4E
100
AcDbXrecord
280
     1
102
RTVSPost2010Prop28
280
     0
102
RTVSPost2010PropOp28
 70
     1
102
RTVSPost2010Prop29
280
     1
102
RTVSPost2010PropOp29
 70
     1
102
RTVSPost2010Prop30
280
     1
102
RTVSPost2010PropOp30
 70
     1
102
RTVSPost2010Prop31
280
     0
102
RTVSPost2010PropOp31
 70
     1
102
RTVSPost2010Prop32
280
     0
102
RTVSPost2010PropOp32
 70
     1
102
RTVSPost2010Prop33
280
     0
102
RTVSPost2010PropOp33
 70
     1
102
RTVSPost2010Prop34
280
     0
102
RTVSPost2010PropOp34
 70
     1
102
RTVSPost2010Prop35
280
     0
102
RTVSPost2010PropOp35
 70
     1
102
RTVSPost2010Prop36
280
     0
102
RTVSPost2010PropOp36
 70
     1
102
RTVSPost2010Prop37
 90
       50
102
RTVSPost2010PropOp37
 70
     1
102
RTVSPost2010Prop38
140
0.0
102
RTVSPost2010PropOp38
 70
     1
102
RTVSPost2010Prop39
140
1.0
102
RTVSPost2010PropOp39
 70
     1
102
RTVSPost2010Prop40
 90
        0
102
RTVSPost2010PropOp40
 70
     1
102
RTVSPost2010Prop41ColorIndex
 90
       18
102
RTVSPost2010Prop41ColorRGB
 90
        0
102
RTVSPost2010PropOp41
 70
     1
102
RTVSPost2010Prop42
 90
       50
102
RTVSPost2010PropOp42
 70
     1
102
RTVSPost2010Prop43
 90
        3
102
RTVSPost2010PropOp43
 70
     1
102
RTVSPost2010Prop44ColorIndex
 90
        5
102
RTVSPost2010Prop44ColorRGB
 90
      255
102
RTVSPost2010PropOp44
 70
     1
102
RTVSPost2010Prop45
280
     0
102
RTVSPost2010PropOp45
 70
     1
102
RTVSPost2010Prop46
 90
       50
102
RTVSPost2010PropOp46
 70
     1
102
RTVSPost2010Prop47
 90
       50
102
RTVSPost2010PropOp47
 70
     1
102
RTVSPost2010Prop48
 90
       50
102
RTVSPost2010PropOp48
 70
     1
102
RTVSPost2010Prop49
280
     0
102
RTVSPost2010PropOp49
 70
     1
102
RTVSPost2010Prop50
 90
       50
102
RTVSPost2010PropOp50
 70
     1
102
RTVSPost2010Prop51ColorIndex
 90
      256
102
RTVSPost2010Prop51ColorRGB
 90
-16777216
102
RTVSPost2010PropOp51
 70
     0
102
RTVSPost2010Prop52
140
1.0
102
RTVSPost2010PropOp52
 70
     0
102
RTVSPost2010Prop53
 90
        2
102
RTVSPost2010PropOp53
 70
     1
102
RTVSPost2010Prop54
  1
strokes_ogs.tif
102
RTVSPost2010PropOp54
 70
     1
102
RTVSPost2010Prop55
280
     0
102
RTVSPost2010PropOp55
 70
     1
102
RTVSPost2010Prop56
140
1.0
102
RTVSPost2010PropOp56
 70
     1
102
RTVSPost2010Prop57
140
1.0
102
RTVSPost2010PropOp57
 70
     1
102
RTVSPropertyOp0
 70
     1
102
RTVSPropertyOp1
 70
     1
102
RTVSPropertyOp2
 70
     1
102
RTVSPropertyOp3
 70
     1
102
RTVSPropertyOp4
 70
     1
102
RTVSPropertyOp5
 70
     1
102
RTVSPropertyOp6
 70
     1
102
RTVSPropertyOp7
 70
     1
102
RTVSPropertyOp8
 70
     1
102
RTVSPropertyOp9
 70
     1
102
RTVSPropertyOp10
 70
     1
102
RTVSPropertyOp11
 70
     1
102
RTVSPropertyOp12
 70
     1
102
RTVSPropertyOp13
 70
     1
102
RTVSPropertyOp14
 70
     1
102
RTVSPropertyOp15
 70
     1
102
RTVSPropertyOp16
 70
     1
102
RTVSPropertyOp17
 70
     1
102
RTVSPropertyOp18
 70
     1
102
RTVSPropertyOp19
 70
     1
102
RTVSPropertyOp20
 70
     1
102
RTVSPropertyOp21
 70
     1
102
RTVSPropertyOp22
 70
     1
102
RTVSPropertyOp23
 70
     1
102
RTVSPropertyOp24
 70
     1
102
RTVSPropertyOp25
 70
     1
102
RTVSPropertyOp26
 70
     1
102
RTVSPropertyOp27
 70
     1
102
RTVSPropertyOp28
 70
     1
102
RTVSPropertyOp29
 70
     1
102
RTVSPropertyOp30
 70
     1
102
RTVSPropertyOp31
 70
     1
102
RTVSPropertyOp32
 70
     1
102
RTVSPropertyOp33
 70
     1
102
RTVSPropertyOp34
 70
     1
102
RTVSPropertyOp35
 70
     1
102
RTVSPropertyOp36
 70
     1
102
RTVSPropertyOp37
 70
     1
102
RTVSPropertyOp38
 70
     1
102
RTVSPropertyOp39
 70
     1
102
RTVSPropertyOp40
 70
     1
102
RTVSPropertyOp41
 70
     1
102
RTVSPropertyOp42
 70
     1
102
RTVSPropertyOp43
 70
     1
102
RTVSPropertyOp44
 70
     1
102
RTVSPropertyOp45
 70
     1
102
RTVSPropertyOp46
 70
     1
102
RTVSPropertyOp47
 70
     1
102
RTVSPropertyOp48
 70
     1
102
RTVSPropertyOp49
 70
     1
102
RTVSPropertyOp50
 70
     1
102
RTVSPropertyOp51
 70
     0
102
RTVSPropertyOp52
 70
     0
102
RTVSPropertyOp53
 70
     1
102
RTVSPropertyOp54
 70
     1
102
RTVSPropertyOp55
 70
     1
102
RTVSPropertyOp56
 70
     1
102
RTVSPropertyOp57
 70
     1
102
RTVSPropertyOp58
 70
     1
102
RTVSPropertyOp59
 70
     1
102
RTVSPropertyOp60
 70
     1
102
RTVSPropertyOp61
 70
     1
102
RTVSPropertyOp62
 70
     1
  0
XRECORD
  5
28C51
102
{ACAD_REACTORS
330
28C50
102
}
330
28C50
100
AcDbXrecord
280
     1
102
RTVSPost2010Prop28
280
     0
102
RTVSPost2010PropOp28
 70
     1
102
RTVSPost2010Prop29
280
     1
102
RTVSPost2010PropOp29
 70
     1
102
RTVSPost2010Prop30
280
     1
102
RTVSPost2010PropOp30
 70
     1
102
RTVSPost2010Prop31
280
     0
102
RTVSPost2010PropOp31
 70
     1
102
RTVSPost2010Prop32
280
     0
102
RTVSPost2010PropOp32
 70
     1
102
RTVSPost2010Prop33
280
     0
102
RTVSPost2010PropOp33
 70
     1
102
RTVSPost2010Prop34
280
     0
102
RTVSPost2010PropOp34
 70
     1
102
RTVSPost2010Prop35
280
     0
102
RTVSPost2010PropOp35
 70
     1
102
RTVSPost2010Prop36
280
     0
102
RTVSPost2010PropOp36
 70
     1
102
RTVSPost2010Prop37
 90
       50
102
RTVSPost2010PropOp37
 70
     1
102
RTVSPost2010Prop38
140
0.0
102
RTVSPost2010PropOp38
 70
     1
102
RTVSPost2010Prop39
140
1.0
102
RTVSPost2010PropOp39
 70
     1
102
RTVSPost2010Prop40
 90
        0
102
RTVSPost2010PropOp40
 70
     1
102
RTVSPost2010Prop41ColorIndex
 90
       18
102
RTVSPost2010Prop41ColorRGB
 90
        0
102
RTVSPost2010PropOp41
 70
     1
102
RTVSPost2010Prop42
 90
       50
102
RTVSPost2010PropOp42
 70
     1
102
RTVSPost2010Prop43
 90
        3
102
RTVSPost2010PropOp43
 70
     1
102
RTVSPost2010Prop44ColorIndex
 90
        5
102
RTVSPost2010Prop44ColorRGB
 90
      255
102
RTVSPost2010PropOp44
 70
     1
102
RTVSPost2010Prop45
280
     0
102
RTVSPost2010PropOp45
 70
     1
102
RTVSPost2010Prop46
 90
       50
102
RTVSPost2010PropOp46
 70
     1
102
RTVSPost2010Prop47
 90
       50
102
RTVSPost2010PropOp47
 70
     1
102
RTVSPost2010Prop48
 90
       50
102
RTVSPost2010PropOp48
 70
     1
102
RTVSPost2010Prop49
280
     0
102
RTVSPost2010PropOp49
 70
     1
102
RTVSPost2010Prop50
 90
       50
102
RTVSPost2010PropOp50
 70
     1
102
RTVSPost2010Prop51ColorIndex
 90
      256
102
RTVSPost2010Prop51ColorRGB
 90
-16777216
102
RTVSPost2010PropOp51
 70
     0
102
RTVSPost2010Prop52
140
1.0
102
RTVSPost2010PropOp52
 70
     0
102
RTVSPost2010Prop53
 90
        2
102
RTVSPost2010PropOp53
 70
     1
102
RTVSPost2010Prop54
  1
strokes_ogs.tif
102
RTVSPost2010PropOp54
 70
     1
102
RTVSPost2010Prop55
280
     0
102
RTVSPost2010PropOp55
 70
     1
102
RTVSPost2010Prop56
140
1.0
102
RTVSPost2010PropOp56
 70
     1
102
RTVSPost2010Prop57
140
1.0
102
RTVSPost2010PropOp57
 70
     1
102
RTVSPropertyOp0
 70
     1
102
RTVSPropertyOp1
 70
     1
102
RTVSPropertyOp2
 70
     1
102
RTVSPropertyOp3
 70
     1
102
RTVSPropertyOp4
 70
     1
102
RTVSPropertyOp5
 70
     1
102
RTVSPropertyOp6
 70
     1
102
RTVSPropertyOp7
 70
     1
102
RTVSPropertyOp8
 70
     1
102
RTVSPropertyOp9
 70
     1
102
RTVSPropertyOp10
 70
     1
102
RTVSPropertyOp11
 70
     1
102
RTVSPropertyOp12
 70
     1
102
RTVSPropertyOp13
 70
     1
102
RTVSPropertyOp14
 70
     1
102
RTVSPropertyOp15
 70
     1
102
RTVSPropertyOp16
 70
     1
102
RTVSPropertyOp17
 70
     1
102
RTVSPropertyOp18
 70
     1
102
RTVSPropertyOp19
 70
     1
102
RTVSPropertyOp20
 70
     1
102
RTVSPropertyOp21
 70
     1
102
RTVSPropertyOp22
 70
     1
102
RTVSPropertyOp23
 70
     1
102
RTVSPropertyOp24
 70
     1
102
RTVSPropertyOp25
 70
     1
102
RTVSPropertyOp26
 70
     1
102
RTVSPropertyOp27
 70
     1
102
RTVSPropertyOp28
 70
     1
102
RTVSPropertyOp29
 70
     1
102
RTVSPropertyOp30
 70
     1
102
RTVSPropertyOp31
 70
     1
102
RTVSPropertyOp32
 70
     1
102
RTVSPropertyOp33
 70
     1
102
RTVSPropertyOp34
 70
     1
102
RTVSPropertyOp35
 70
     1
102
RTVSPropertyOp36
 70
     1
102
RTVSPropertyOp37
 70
     1
102
RTVSPropertyOp38
 70
     1
102
RTVSPropertyOp39
 70
     1
102
RTVSPropertyOp40
 70
     1
102
RTVSPropertyOp41
 70
     1
102
RTVSPropertyOp42
 70
     1
102
RTVSPropertyOp43
 70
     1
102
RTVSPropertyOp44
 70
     1
102
RTVSPropertyOp45
 70
     1
102
RTVSPropertyOp46
 70
     1
102
RTVSPropertyOp47
 70
     1
102
RTVSPropertyOp48
 70
     1
102
RTVSPropertyOp49
 70
     1
102
RTVSPropertyOp50
 70
     1
102
RTVSPropertyOp51
 70
     0
102
RTVSPropertyOp52
 70
     0
102
RTVSPropertyOp53
 70
     1
102
RTVSPropertyOp54
 70
     1
102
RTVSPropertyOp55
 70
     1
102
RTVSPropertyOp56
 70
     1
102
RTVSPropertyOp57
 70
     1
102
RTVSPropertyOp58
 70
     1
102
RTVSPropertyOp59
 70
     1
102
RTVSPropertyOp60
 70
     1
102
RTVSPropertyOp61
 70
     1
102
RTVSPropertyOp62
 70
     1
  0
XRECORD
  5
28C47
102
{ACAD_REACTORS
330
28C46
102
}
330
28C46
100
AcDbXrecord
280
     1
102
RTVSPost2010Prop28
280
     0
102
RTVSPost2010PropOp28
 70
     1
102
RTVSPost2010Prop29
280
     1
102
RTVSPost2010PropOp29
 70
     1
102
RTVSPost2010Prop30
280
     1
102
RTVSPost2010PropOp30
 70
     1
102
RTVSPost2010Prop31
280
     0
102
RTVSPost2010PropOp31
 70
     1
102
RTVSPost2010Prop32
280
     0
102
RTVSPost2010PropOp32
 70
     1
102
RTVSPost2010Prop33
280
     0
102
RTVSPost2010PropOp33
 70
     1
102
RTVSPost2010Prop34
280
     0
102
RTVSPost2010PropOp34
 70
     1
102
RTVSPost2010Prop35
280
     0
102
RTVSPost2010PropOp35
 70
     1
102
RTVSPost2010Prop36
280
     0
102
RTVSPost2010PropOp36
 70
     1
102
RTVSPost2010Prop37
 90
       50
102
RTVSPost2010PropOp37
 70
     1
102
RTVSPost2010Prop38
140
0.0
102
RTVSPost2010PropOp38
 70
     1
102
RTVSPost2010Prop39
140
1.0
102
RTVSPost2010PropOp39
 70
     1
102
RTVSPost2010Prop40
 90
        0
102
RTVSPost2010PropOp40
 70
     1
102
RTVSPost2010Prop41ColorIndex
 90
       18
102
RTVSPost2010Prop41ColorRGB
 90
        0
102
RTVSPost2010PropOp41
 70
     1
102
RTVSPost2010Prop42
 90
       50
102
RTVSPost2010PropOp42
 70
     1
102
RTVSPost2010Prop43
 90
        3
102
RTVSPost2010PropOp43
 70
     1
102
RTVSPost2010Prop44ColorIndex
 90
        5
102
RTVSPost2010Prop44ColorRGB
 90
      255
102
RTVSPost2010PropOp44
 70
     1
102
RTVSPost2010Prop45
280
     0
102
RTVSPost2010PropOp45
 70
     1
102
RTVSPost2010Prop46
 90
       50
102
RTVSPost2010PropOp46
 70
     1
102
RTVSPost2010Prop47
 90
       50
102
RTVSPost2010PropOp47
 70
     1
102
RTVSPost2010Prop48
 90
       50
102
RTVSPost2010PropOp48
 70
     1
102
RTVSPost2010Prop49
280
     0
102
RTVSPost2010PropOp49
 70
     1
102
RTVSPost2010Prop50
 90
       50
102
RTVSPost2010PropOp50
 70
     1
102
RTVSPost2010Prop51ColorIndex
 90
      256
102
RTVSPost2010Prop51ColorRGB
 90
-16777216
102
RTVSPost2010PropOp51
 70
     0
102
RTVSPost2010Prop52
140
1.0
102
RTVSPost2010PropOp52
 70
     0
102
RTVSPost2010Prop53
 90
        2
102
RTVSPost2010PropOp53
 70
     1
102
RTVSPost2010Prop54
  1
strokes_ogs.tif
102
RTVSPost2010PropOp54
 70
     1
102
RTVSPost2010Prop55
280
     0
102
RTVSPost2010PropOp55
 70
     1
102
RTVSPost2010Prop56
140
1.0
102
RTVSPost2010PropOp56
 70
     1
102
RTVSPost2010Prop57
140
1.0
102
RTVSPost2010PropOp57
 70
     1
102
RTVSPropertyOp0
 70
     1
102
RTVSPropertyOp1
 70
     1
102
RTVSPropertyOp2
 70
     1
102
RTVSPropertyOp3
 70
     1
102
RTVSPropertyOp4
 70
     1
102
RTVSPropertyOp5
 70
     1
102
RTVSPropertyOp6
 70
     1
102
RTVSPropertyOp7
 70
     1
102
RTVSPropertyOp8
 70
     1
102
RTVSPropertyOp9
 70
     1
102
RTVSPropertyOp10
 70
     1
102
RTVSPropertyOp11
 70
     1
102
RTVSPropertyOp12
 70
     1
102
RTVSPropertyOp13
 70
     1
102
RTVSPropertyOp14
 70
     1
102
RTVSPropertyOp15
 70
     1
102
RTVSPropertyOp16
 70
     1
102
RTVSPropertyOp17
 70
     1
102
RTVSPropertyOp18
 70
     1
102
RTVSPropertyOp19
 70
     1
102
RTVSPropertyOp20
 70
     1
102
RTVSPropertyOp21
 70
     1
102
RTVSPropertyOp22
 70
     1
102
RTVSPropertyOp23
 70
     1
102
RTVSPropertyOp24
 70
     1
102
RTVSPropertyOp25
 70
     1
102
RTVSPropertyOp26
 70
     1
102
RTVSPropertyOp27
 70
     1
102
RTVSPropertyOp28
 70
     1
102
RTVSPropertyOp29
 70
     1
102
RTVSPropertyOp30
 70
     1
102
RTVSPropertyOp31
 70
     1
102
RTVSPropertyOp32
 70
     1
102
RTVSPropertyOp33
 70
     1
102
RTVSPropertyOp34
 70
     1
102
RTVSPropertyOp35
 70
     1
102
RTVSPropertyOp36
 70
     1
102
RTVSPropertyOp37
 70
     1
102
RTVSPropertyOp38
 70
     1
102
RTVSPropertyOp39
 70
     1
102
RTVSPropertyOp40
 70
     1
102
RTVSPropertyOp41
 70
     1
102
RTVSPropertyOp42
 70
     1
102
RTVSPropertyOp43
 70
     1
102
RTVSPropertyOp44
 70
     1
102
RTVSPropertyOp45
 70
     1
102
RTVSPropertyOp46
 70
     1
102
RTVSPropertyOp47
 70
     1
102
RTVSPropertyOp48
 70
     1
102
RTVSPropertyOp49
 70
     1
102
RTVSPropertyOp50
 70
     1
102
RTVSPropertyOp51
 70
     0
102
RTVSPropertyOp52
 70
     0
102
RTVSPropertyOp53
 70
     1
102
RTVSPropertyOp54
 70
     1
102
RTVSPropertyOp55
 70
     1
102
RTVSPropertyOp56
 70
     1
102
RTVSPropertyOp57
 70
     1
102
RTVSPropertyOp58
 70
     1
102
RTVSPropertyOp59
 70
     1
102
RTVSPropertyOp60
 70
     1
102
RTVSPropertyOp61
 70
     1
102
RTVSPropertyOp62
 70
     1
  0
XRECORD
  5
28C3B
102
{ACAD_REACTORS
330
28C3A
102
}
330
28C3A
100
AcDbXrecord
280
     1
102
RTVSPost2010Prop28
280
     0
102
RTVSPost2010PropOp28
 70
     1
102
RTVSPost2010Prop29
280
     1
102
RTVSPost2010PropOp29
 70
     1
102
RTVSPost2010Prop30
280
     1
102
RTVSPost2010PropOp30
 70
     1
102
RTVSPost2010Prop31
280
     0
102
RTVSPost2010PropOp31
 70
     1
102
RTVSPost2010Prop32
280
     0
102
RTVSPost2010PropOp32
 70
     1
102
RTVSPost2010Prop33
280
     0
102
RTVSPost2010PropOp33
 70
     1
102
RTVSPost2010Prop34
280
     0
102
RTVSPost2010PropOp34
 70
     1
102
RTVSPost2010Prop35
280
     0
102
RTVSPost2010PropOp35
 70
     1
102
RTVSPost2010Prop36
280
     0
102
RTVSPost2010PropOp36
 70
     1
102
RTVSPost2010Prop37
 90
       50
102
RTVSPost2010PropOp37
 70
     1
102
RTVSPost2010Prop38
140
0.0
102
RTVSPost2010PropOp38
 70
     1
102
RTVSPost2010Prop39
140
1.0
102
RTVSPost2010PropOp39
 70
     1
102
RTVSPost2010Prop40
 90
        0
102
RTVSPost2010PropOp40
 70
     1
102
RTVSPost2010Prop41ColorIndex
 90
       18
102
RTVSPost2010Prop41ColorRGB
 90
        0
102
RTVSPost2010PropOp41
 70
     1
102
RTVSPost2010Prop42
 90
       50
102
RTVSPost2010PropOp42
 70
     1
102
RTVSPost2010Prop43
 90
        3
102
RTVSPost2010PropOp43
 70
     1
102
RTVSPost2010Prop44ColorIndex
 90
        5
102
RTVSPost2010Prop44ColorRGB
 90
      255
102
RTVSPost2010PropOp44
 70
     1
102
RTVSPost2010Prop45
280
     0
102
RTVSPost2010PropOp45
 70
     1
102
RTVSPost2010Prop46
 90
       50
102
RTVSPost2010PropOp46
 70
     1
102
RTVSPost2010Prop47
 90
       50
102
RTVSPost2010PropOp47
 70
     1
102
RTVSPost2010Prop48
 90
       50
102
RTVSPost2010PropOp48
 70
     1
102
RTVSPost2010Prop49
280
     0
102
RTVSPost2010PropOp49
 70
     1
102
RTVSPost2010Prop50
 90
       50
102
RTVSPost2010PropOp50
 70
     1
102
RTVSPost2010Prop51ColorIndex
 90
      256
102
RTVSPost2010Prop51ColorRGB
 90
-16777216
102
RTVSPost2010PropOp51
 70
     0
102
RTVSPost2010Prop52
140
1.0
102
RTVSPost2010PropOp52
 70
     0
102
RTVSPost2010Prop53
 90
        2
102
RTVSPost2010PropOp53
 70
     1
102
RTVSPost2010Prop54
  1
strokes_ogs.tif
102
RTVSPost2010PropOp54
 70
     1
102
RTVSPost2010Prop55
280
     0
102
RTVSPost2010PropOp55
 70
     1
102
RTVSPost2010Prop56
140
1.0
102
RTVSPost2010PropOp56
 70
     1
102
RTVSPost2010Prop57
140
1.0
102
RTVSPost2010PropOp57
 70
     1
102
RTVSPropertyOp0
 70
     1
102
RTVSPropertyOp1
 70
     1
102
RTVSPropertyOp2
 70
     1
102
RTVSPropertyOp3
 70
     1
102
RTVSPropertyOp4
 70
     1
102
RTVSPropertyOp5
 70
     1
102
RTVSPropertyOp6
 70
     1
102
RTVSPropertyOp7
 70
     1
102
RTVSPropertyOp8
 70
     1
102
RTVSPropertyOp9
 70
     1
102
RTVSPropertyOp10
 70
     1
102
RTVSPropertyOp11
 70
     1
102
RTVSPropertyOp12
 70
     1
102
RTVSPropertyOp13
 70
     1
102
RTVSPropertyOp14
 70
     1
102
RTVSPropertyOp15
 70
     1
102
RTVSPropertyOp16
 70
     1
102
RTVSPropertyOp17
 70
     1
102
RTVSPropertyOp18
 70
     1
102
RTVSPropertyOp19
 70
     1
102
RTVSPropertyOp20
 70
     1
102
RTVSPropertyOp21
 70
     1
102
RTVSPropertyOp22
 70
     1
102
RTVSPropertyOp23
 70
     1
102
RTVSPropertyOp24
 70
     1
102
RTVSPropertyOp25
 70
     1
102
RTVSPropertyOp26
 70
     1
102
RTVSPropertyOp27
 70
     1
102
RTVSPropertyOp28
 70
     1
102
RTVSPropertyOp29
 70
     1
102
RTVSPropertyOp30
 70
     1
102
RTVSPropertyOp31
 70
     1
102
RTVSPropertyOp32
 70
     1
102
RTVSPropertyOp33
 70
     1
102
RTVSPropertyOp34
 70
     1
102
RTVSPropertyOp35
 70
     1
102
RTVSPropertyOp36
 70
     1
102
RTVSPropertyOp37
 70
     1
102
RTVSPropertyOp38
 70
     1
102
RTVSPropertyOp39
 70
     1
102
RTVSPropertyOp40
 70
     1
102
RTVSPropertyOp41
 70
     1
102
RTVSPropertyOp42
 70
     1
102
RTVSPropertyOp43
 70
     1
102
RTVSPropertyOp44
 70
     1
102
RTVSPropertyOp45
 70
     1
102
RTVSPropertyOp46
 70
     1
102
RTVSPropertyOp47
 70
     1
102
RTVSPropertyOp48
 70
     1
102
RTVSPropertyOp49
 70
     1
102
RTVSPropertyOp50
 70
     1
102
RTVSPropertyOp51
 70
     0
102
RTVSPropertyOp52
 70
     0
102
RTVSPropertyOp53
 70
     1
102
RTVSPropertyOp54
 70
     1
102
RTVSPropertyOp55
 70
     1
102
RTVSPropertyOp56
 70
     1
102
RTVSPropertyOp57
 70
     1
102
RTVSPropertyOp58
 70
     1
102
RTVSPropertyOp59
 70
     1
102
RTVSPropertyOp60
 70
     1
102
RTVSPropertyOp61
 70
     1
102
RTVSPropertyOp62
 70
     1
  0
XRECORD
  5
28C53
102
{ACAD_REACTORS
330
28C52
102
}
330
28C52
100
AcDbXrecord
280
     1
102
RTVSPost2010Prop28
280
     0
102
RTVSPost2010PropOp28
 70
     1
102
RTVSPost2010Prop29
280
     1
102
RTVSPost2010PropOp29
 70
     1
102
RTVSPost2010Prop30
280
     1
102
RTVSPost2010PropOp30
 70
     1
102
RTVSPost2010Prop31
280
     0
102
RTVSPost2010PropOp31
 70
     1
102
RTVSPost2010Prop32
280
     0
102
RTVSPost2010PropOp32
 70
     1
102
RTVSPost2010Prop33
280
     0
102
RTVSPost2010PropOp33
 70
     1
102
RTVSPost2010Prop34
280
     0
102
RTVSPost2010PropOp34
 70
     1
102
RTVSPost2010Prop35
280
     0
102
RTVSPost2010PropOp35
 70
     1
102
RTVSPost2010Prop36
280
     0
102
RTVSPost2010PropOp36
 70
     1
102
RTVSPost2010Prop37
 90
       50
102
RTVSPost2010PropOp37
 70
     1
102
RTVSPost2010Prop38
140
0.0
102
RTVSPost2010PropOp38
 70
     1
102
RTVSPost2010Prop39
140
1.0
102
RTVSPost2010PropOp39
 70
     1
102
RTVSPost2010Prop40
 90
        0
102
RTVSPost2010PropOp40
 70
     1
102
RTVSPost2010Prop41ColorIndex
 90
       18
102
RTVSPost2010Prop41ColorRGB
 90
        0
102
RTVSPost2010PropOp41
 70
     1
102
RTVSPost2010Prop42
 90
       50
102
RTVSPost2010PropOp42
 70
     1
102
RTVSPost2010Prop43
 90
        3
102
RTVSPost2010PropOp43
 70
     1
102
RTVSPost2010Prop44ColorIndex
 90
        5
102
RTVSPost2010Prop44ColorRGB
 90
      255
102
RTVSPost2010PropOp44
 70
     1
102
RTVSPost2010Prop45
280
     0
102
RTVSPost2010PropOp45
 70
     1
102
RTVSPost2010Prop46
 90
       50
102
RTVSPost2010PropOp46
 70
     1
102
RTVSPost2010Prop47
 90
       50
102
RTVSPost2010PropOp47
 70
     1
102
RTVSPost2010Prop48
 90
       50
102
RTVSPost2010PropOp48
 70
     1
102
RTVSPost2010Prop49
280
     0
102
RTVSPost2010PropOp49
 70
     1
102
RTVSPost2010Prop50
 90
       50
102
RTVSPost2010PropOp50
 70
     1
102
RTVSPost2010Prop51ColorIndex
 90
      256
102
RTVSPost2010Prop51ColorRGB
 90
-16777216
102
RTVSPost2010PropOp51
 70
     0
102
RTVSPost2010Prop52
140
1.0
102
RTVSPost2010PropOp52
 70
     0
102
RTVSPost2010Prop53
 90
        2
102
RTVSPost2010PropOp53
 70
     1
102
RTVSPost2010Prop54
  1
strokes_ogs.tif
102
RTVSPost2010PropOp54
 70
     1
102
RTVSPost2010Prop55
280
     0
102
RTVSPost2010PropOp55
 70
     1
102
RTVSPost2010Prop56
140
1.0
102
RTVSPost2010PropOp56
 70
     1
102
RTVSPost2010Prop57
140
1.0
102
RTVSPost2010PropOp57
 70
     1
102
RTVSPropertyOp0
 70
     1
102
RTVSPropertyOp1
 70
     1
102
RTVSPropertyOp2
 70
     1
102
RTVSPropertyOp3
 70
     1
102
RTVSPropertyOp4
 70
     1
102
RTVSPropertyOp5
 70
     1
102
RTVSPropertyOp6
 70
     1
102
RTVSPropertyOp7
 70
     1
102
RTVSPropertyOp8
 70
     1
102
RTVSPropertyOp9
 70
     1
102
RTVSPropertyOp10
 70
     1
102
RTVSPropertyOp11
 70
     1
102
RTVSPropertyOp12
 70
     1
102
RTVSPropertyOp13
 70
     1
102
RTVSPropertyOp14
 70
     1
102
RTVSPropertyOp15
 70
     1
102
RTVSPropertyOp16
 70
     1
102
RTVSPropertyOp17
 70
     1
102
RTVSPropertyOp18
 70
     1
102
RTVSPropertyOp19
 70
     1
102
RTVSPropertyOp20
 70
     1
102
RTVSPropertyOp21
 70
     1
102
RTVSPropertyOp22
 70
     1
102
RTVSPropertyOp23
 70
     1
102
RTVSPropertyOp24
 70
     1
102
RTVSPropertyOp25
 70
     1
102
RTVSPropertyOp26
 70
     1
102
RTVSPropertyOp27
 70
     1
102
RTVSPropertyOp28
 70
     1
102
RTVSPropertyOp29
 70
     1
102
RTVSPropertyOp30
 70
     1
102
RTVSPropertyOp31
 70
     1
102
RTVSPropertyOp32
 70
     1
102
RTVSPropertyOp33
 70
     1
102
RTVSPropertyOp34
 70
     1
102
RTVSPropertyOp35
 70
     1
102
RTVSPropertyOp36
 70
     1
102
RTVSPropertyOp37
 70
     1
102
RTVSPropertyOp38
 70
     1
102
RTVSPropertyOp39
 70
     1
102
RTVSPropertyOp40
 70
     1
102
RTVSPropertyOp41
 70
     1
102
RTVSPropertyOp42
 70
     1
102
RTVSPropertyOp43
 70
     1
102
RTVSPropertyOp44
 70
     1
102
RTVSPropertyOp45
 70
     1
102
RTVSPropertyOp46
 70
     1
102
RTVSPropertyOp47
 70
     1
102
RTVSPropertyOp48
 70
     1
102
RTVSPropertyOp49
 70
     1
102
RTVSPropertyOp50
 70
     1
102
RTVSPropertyOp51
 70
     0
102
RTVSPropertyOp52
 70
     0
102
RTVSPropertyOp53
 70
     1
102
RTVSPropertyOp54
 70
     1
102
RTVSPropertyOp55
 70
     1
102
RTVSPropertyOp56
 70
     1
102
RTVSPropertyOp57
 70
     1
102
RTVSPropertyOp58
 70
     1
102
RTVSPropertyOp59
 70
     1
102
RTVSPropertyOp60
 70
     1
102
RTVSPropertyOp61
 70
     1
102
RTVSPropertyOp62
 70
     1
  0
ENDSEC
  0
EOF
