  0
SECTION
  2
HEADER
  9
$ACADVER
  1
AC1015
  9
$ACADMAINTVER
 70
    20
  9
$DWGCODEPAGE
  3
ANSI_932
  9
$INSBASE
 10
0.0
 20
0.0
 30
0.0
  9
$EXTMIN
 10
139.9999999999995
 20
-0.0000000000000909
 30
0.0
  9
$EXTMAX
 10
16307.2
 20
11409.6
 30
0.0
  9
$LIMMIN
 10
-25.79074261211281
 20
-125.8223078213959
  9
$LIMMAX
 10
16471.10331197129
 20
11496.44801950658
  9
$ORTHOMODE
 70
     0
  9
$REGENMODE
 70
     1
  9
$FILLMODE
 70
     1
  9
$QTEXTMODE
 70
     0
  9
$MIRRTEXT
 70
     1
  9
$LTSCALE
 40
20.0
  9
$ATTMODE
 70
     1
  9
$TEXTSIZE
 40
4.0
  9
$TRACEWID
 40
1.0
  9
$TEXTSTYLE
  7
STYLE1
  9
$CLAYER
  8
部品1
  9
$CELTYPE
  6
BYLAYER
  9
$CECOLOR
 62
   256
  9
$CELTSCALE
 40
50.0
  9
$DISPSILH
 70
     0
  9
$DIMSCALE
 40
40.0
  9
$DIMASZ
 40
2.5
  9
$DIMEXO
 40
0.5
  9
$DIMDLI
 40
7.0
  9
$DIMRND
 40
0.0
  9
$DIMDLE
 40
0.0
  9
$DIMEXE
 40
1.5
  9
$DIMTP
 40
0.0
  9
$DIMTM
 40
0.0
  9
$DIMTXT
 40
3.0
  9
$DIMCEN
 40
0.0
  9
$DIMTSZ
 40
0.0
  9
$DIMTOL
 70
     0
  9
$DIMLIM
 70
     0
  9
$DIMTIH
 70
     0
  9
$DIMTOH
 70
     0
  9
$DIMSE1
 70
     0
  9
$DIMSE2
 70
     0
  9
$DIMTAD
 70
     3
  9
$DIMZIN
 70
     8
  9
$DIMBLK
  1

  9
$DIMASO
 70
     1
  9
$DIMSHO
 70
     1
  9
$DIMPOST
  1

  9
$DIMAPOST
  1

  9
$DIMALT
 70
     0
  9
$DIMALTD
 70
     2
  9
$DIMALTF
 40
0.0394
  9
$DIMLFAC
 40
1.0
  9
$DIMTOFL
 70
     1
  9
$DIMTVP
 40
0.0
  9
$DIMTIX
 70
     1
  9
$DIMSOXD
 70
     0
  9
$DIMSAH
 70
     1
  9
$DIMBLK1
  1
DOTSMALL
  9
$DIMBLK2
  1
DOTSMALL
  9
$DIMSTYLE
  2
INABA_S40G
  9
$DIMCLRD
 70
     0
  9
$DIMCLRE
 70
     0
  9
$DIMCLRT
 70
     7
  9
$DIMTFAC
 40
1.0
  9
$DIMGAP
 40
1.0
  9
$DIMJUST
 70
     0
  9
$DIMSD1
 70
     0
  9
$DIMSD2
 70
     0
  9
$DIMTOLJ
 70
     1
  9
$DIMTZIN
 70
     0
  9
$DIMALTZ
 70
     0
  9
$DIMALTTZ
 70
     0
  9
$DIMUPT
 70
     0
  9
$DIMDEC
 70
     1
  9
$DIMTDEC
 70
     4
  9
$DIMALTU
 70
     2
  9
$DIMALTTD
 70
     2
  9
$DIMTXSTY
  7
STYLE1
  9
$DIMAUNIT
 70
     0
  9
$DIMADEC
 70
     0
  9
$DIMALTRND
 40
0.0
  9
$DIMAZIN
 70
     0
  9
$DIMDSEP
 70
    46
  9
$DIMATFIT
 70
     3
  9
$DIMFRAC
 70
     0
  9
$DIMLDRBLK
  1

  9
$DIMLUNIT
 70
     2
  9
$DIMLWD
 70
    -2
  9
$DIMLWE
 70
    -2
  9
$DIMTMOVE
 70
     0
  9
$LUNITS
 70
     2
  9
$LUPREC
 70
     1
  9
$SKETCHINC
 40
1.0
  9
$FILLETRAD
 40
3.0
  9
$AUNITS
 70
     0
  9
$AUPREC
 70
     0
  9
$MENU
  1
acad
  9
$ELEVATION
 40
0.0
  9
$PELEVATION
 40
0.0
  9
$THICKNESS
 40
0.0
  9
$LIMCHECK
 70
     0
  9
$CHAMFERA
 40
0.0
  9
$CHAMFERB
 40
0.0
  9
$CHAMFERC
 40
0.0
  9
$CHAMFERD
 40
0.0
  9
$SKPOLY
 70
     0
  9
$TDCREATE
 40
2451368.612993866
  9
$TDUCREATE
 40
2451368.237993866
  9
$TDUPDATE
 40
2455575.683262801
  9
$TDUUPDATE
 40
2455575.308262801
  9
$TDINDWG
 40
0.5204656250
  9
$TDUSRTIMER
 40
0.5204656250
  9
$USRTIMER
 70
     1
  9
$ANGBASE
 50
0.0
  9
$ANGDIR
 70
     0
  9
$PDMODE
 70
     3
  9
$PDSIZE
 40
2.0
  9
$PLINEWID
 40
0.0
  9
$SPLFRAME
 70
     0
  9
$SPLINETYPE
 70
     6
  9
$SPLINESEGS
 70
     8
  9
$HANDSEED
  5
1A0CA
  9
$SURFTAB1
 70
     6
  9
$SURFTAB2
 70
     6
  9
$SURFTYPE
 70
     6
  9
$SURFU
 70
     6
  9
$SURFV
 70
     6
  9
$UCSBASE
  2

  9
$UCSNAME
  2

  9
$UCSORG
 10
0.0
 20
0.0
 30
0.0
  9
$UCSXDIR
 10
1.0
 20
0.0
 30
0.0
  9
$UCSYDIR
 10
0.0
 20
1.0
 30
0.0
  9
$UCSORTHOREF
  2

  9
$UCSORTHOVIEW
 70
     0
  9
$UCSORGTOP
 10
0.0
 20
0.0
 30
0.0
  9
$UCSORGBOTTOM
 10
0.0
 20
0.0
 30
0.0
  9
$UCSORGLEFT
 10
0.0
 20
0.0
 30
0.0
  9
$UCSORGRIGHT
 10
0.0
 20
0.0
 30
0.0
  9
$UCSORGFRONT
 10
0.0
 20
0.0
 30
0.0
  9
$UCSORGBACK
 10
0.0
 20
0.0
 30
0.0
  9
$PUCSBASE
  2

  9
$PUCSNAME
  2

  9
$PUCSORG
 10
0.0
 20
0.0
 30
0.0
  9
$PUCSXDIR
 10
1.0
 20
0.0
 30
0.0
  9
$PUCSYDIR
 10
0.0
 20
1.0
 30
0.0
  9
$PUCSORTHOREF
  2

  9
$PUCSORTHOVIEW
 70
     0
  9
$PUCSORGTOP
 10
0.0
 20
0.0
 30
0.0
  9
$PUCSORGBOTTOM
 10
0.0
 20
0.0
 30
0.0
  9
$PUCSORGLEFT
 10
0.0
 20
0.0
 30
0.0
  9
$PUCSORGRIGHT
 10
0.0
 20
0.0
 30
0.0
  9
$PUCSORGFRONT
 10
0.0
 20
0.0
 30
0.0
  9
$PUCSORGBACK
 10
0.0
 20
0.0
 30
0.0
  9
$USERI1
 70
     0
  9
$USERI2
 70
     0
  9
$USERI3
 70
     0
  9
$USERI4
 70
     0
  9
$USERI5
 70
     0
  9
$USERR1
 40
0.0
  9
$USERR2
 40
0.0
  9
$USERR3
 40
0.0
  9
$USERR4
 40
0.0
  9
$USERR5
 40
0.0
  9
$WORLDVIEW
 70
     1
  9
$SHADEDGE
 70
     3
  9
$SHADEDIF
 70
    70
  9
$TILEMODE
 70
     1
  9
$MAXACTVP
 70
    16
  9
$PINSBASE
 10
0.0
 20
0.0
 30
0.0
  9
$PLIMCHECK
 70
     0
  9
$PEXTMIN
 10
1.000000000000000E+20
 20
1.000000000000000E+20
 30
1.000000000000000E+20
  9
$PEXTMAX
 10
-1.000000000000000E+20
 20
-1.000000000000000E+20
 30
-1.000000000000000E+20
  9
$PLIMMIN
 10
0.0
 20
0.0
  9
$PLIMMAX
 10
420.0
 20
297.0
  9
$UNITMODE
 70
     0
  9
$VISRETAIN
 70
     0
  9
$PLINEGEN
 70
     0
  9
$PSLTSCALE
 70
     0
  9
$TREEDEPTH
 70
  3020
  9
$CMLSTYLE
  2
STANDARD
  9
$CMLJUST
 70
     0
  9
$CMLSCALE
 40
1.0
  9
$PROXYGRAPHICS
 70
     1
  9
$MEASUREMENT
 70
     1
  9
$CELWEIGHT
370
    -1
  9
$ENDCAPS
280
     0
  9
$JOINSTYLE
280
     0
  9
$LWDISPLAY
290
     0
  9
$INSUNITS
 70
     0
  9
$HYPERLINKBASE
  1

  9
$STYLESHEET
  1
inaba.ctb
  9
$XEDIT
290
     1
  9
$CEPSNTYPE
380
     0
  9
$PSTYLEMODE
290
     1
  9
$FINGERPRINTGUID
  2
{FB304DA1-1968-41D1-918D-19E7E4181D7F}
  9
$VERSIONGUID
  2
{35D32368-1DF9-4D59-9876-CAC093245C37}
  9
$EXTNAMES
290
     1
  9
$PSVPSCALE
 40
0.0
  9
$OLESTARTUP
290
     0
  0
ENDSEC
  0
SECTION
  2
CLASSES
  0
CLASS
  1
ACDBDICTIONARYWDFLT
  2
AcDbDictionaryWithDefault
  3
ObjectDBX Classes
 90
        0
280
     0
281
     0
  0
CLASS
  1
DICTIONARYVAR
  2
AcDbDictionaryVar
  3
ObjectDBX Classes
 90
        0
280
     0
281
     0
  0
CLASS
  1
ACDBPLACEHOLDER
  2
AcDbPlaceHolder
  3
ObjectDBX Classes
 90
        0
280
     0
281
     0
  0
CLASS
  1
LAYOUT
  2
AcDbLayout
  3
ObjectDBX Classes
 90
        0
280
     0
281
     0
  0
ENDSEC
  0
SECTION
  2
TABLES
  0
TABLE
  2
VPORT
  5
746D
330
0
100
AcDbSymbolTable
 70
     2
  0
VPORT
  5
1A0C2
330
746D
100
AcDbSymbolTableRecord
100
AcDbViewportTableRecord
  2
*Active
 70
     0
 10
0.0
 20
0.0
 11
1.0
 21
1.0
 12
8223.761025238504
 22
5704.608037261908
 13
0.0
 23
0.0
 14
10.0
 24
10.0
 15
10.0
 25
10.0
 16
0.0
 26
0.0
 36
1.0
 17
0.0
 27
0.0
 37
0.0
 40
11495.08541324274
 41
1.525925925925925
 42
50.0
 43
0.0
 44
0.0
 50
0.0
 51
0.0
 71
     0
 72
     0
 73
     1
 74
     0
 75
     0
 76
     0
 77
     0
 78
     0
281
     0
 65
     1
110
0.0
120
0.0
130
0.0
111
1.0
121
0.0
131
0.0
112
0.0
122
1.0
132
0.0
 79
     0
146
0.0
  0
ENDTAB
  0
TABLE
  2
LTYPE
  5
746A
330
0
100
AcDbSymbolTable
 70
     4
  0
LTYPE
  5
7477
330
746A
100
AcDbSymbolTableRecord
100
AcDbLinetypeTableRecord
  2
BYBLOCK
 70
     0
  3

 72
    65
 73
     0
 40
0.0
  0
LTYPE
  5
7478
330
746A
100
AcDbSymbolTableRecord
100
AcDbLinetypeTableRecord
  2
BYLAYER
 70
     0
  3

 72
    65
 73
     0
 40
0.0
  0
LTYPE
  5
7479
330
746A
100
AcDbSymbolTableRecord
100
AcDbLinetypeTableRecord
  2
CONTINUOUS
 70
     0
  3
Solid line
 72
    65
 73
     0
 40
0.0
  0
LTYPE
  5
7816
330
746A
100
AcDbSymbolTableRecord
100
AcDbLinetypeTableRecord
  2
CENTER
 70
     0
  3
____ _ ____ _ ____ _ ____ _ ____ _ ____ _ ____ 
 72
    65
 73
     4
 40
2.0
 49
1.25
 74
     0
 49
-0.25
 74
     0
 49
0.25
 74
     0
 49
-0.25
 74
     0
  0
LTYPE
  5
781A
330
746A
100
AcDbSymbolTableRecord
100
AcDbLinetypeTableRecord
  2
HIDDEN
 70
     0
  3
__ __ __ __ __ __ __ __ __ __ __ __ __ __ __ __
 72
    65
 73
     2
 40
0.375
 49
0.25
 74
     0
 49
-0.125
 74
     0
  0
LTYPE
  5
781B
330
746A
100
AcDbSymbolTableRecord
100
AcDbLinetypeTableRecord
  2
PHANTOM
 70
     0
  3
______  __  __  ______  __  __  ______  __  __ 
 72
    65
 73
     6
 40
2.5
 49
1.25
 74
     0
 49
-0.25
 74
     0
 49
0.25
 74
     0
 49
-0.25
 74
     0
 49
0.25
 74
     0
 49
-0.25
 74
     0
  0
ENDTAB
  0
TABLE
  2
LAYER
  5
7467
102
{ACAD_XDICTIONARY
360
18712
102
}
330
0
100
AcDbSymbolTable
 70
    12
  0
LAYER
  5
7474
330
7467
100
AcDbSymbolTableRecord
100
AcDbLayerTableRecord
  2
0
 70
     0
 62
     7
  6
CONTINUOUS
370
    -3
390
18576
  0
LAYER
  5
DEB2
330
7467
100
AcDbSymbolTableRecord
100
AcDbLayerTableRecord
  2
センター
 70
     0
 62
     3
  6
CENTER
370
    -3
390
18576
  0
LAYER
  5
DEB3
330
7467
100
AcDbSymbolTableRecord
100
AcDbLayerTableRecord
  2
寸法
 70
     0
 62
     4
  6
CONTINUOUS
370
    -3
390
18576
  0
LAYER
  5
DEB4
330
7467
100
AcDbSymbolTableRecord
100
AcDbLayerTableRecord
  2
部品1
 70
     0
 62
     7
  6
CONTINUOUS
370
    -3
390
18576
  0
LAYER
  5
DEB5
330
7467
100
AcDbSymbolTableRecord
100
AcDbLayerTableRecord
  2
補助
 70
     0
 62
    -1
  6
CONTINUOUS
370
    -3
390
18576
  0
LAYER
  5
DEB6
330
7467
100
AcDbSymbolTableRecord
100
AcDbLayerTableRecord
  2
文字
 70
     0
 62
     7
  6
CONTINUOUS
370
    -3
390
18576
  0
LAYER
  5
F255
330
7467
100
AcDbSymbolTableRecord
100
AcDbLayerTableRecord
  2
DEFPOINTS
 70
     0
 62
     7
  6
CONTINUOUS
290
     0
370
    -3
390
18576
  0
LAYER
  5
10B54
330
7467
100
AcDbSymbolTableRecord
100
AcDbLayerTableRecord
  2
仕様書枠
 70
     0
 62
   230
  6
CONTINUOUS
370
    -3
390
18576
  0
LAYER
  5
11729
330
7467
100
AcDbSymbolTableRecord
100
AcDbLayerTableRecord
  2
Ｇ．Ｌ
 70
     0
 62
    30
  6
CONTINUOUS
370
    -3
390
18576
  0
LAYER
  5
1173F
330
7467
100
AcDbSymbolTableRecord
100
AcDbLayerTableRecord
  2
細線
 70
     0
 62
     5
  6
CONTINUOUS
370
    -3
390
18576
  0
LAYER
  5
12CC4
330
7467
100
AcDbSymbolTableRecord
100
AcDbLayerTableRecord
  2
想像線
 70
     0
 62
     6
  6
PHANTOM
370
    -3
390
18576
  0
LAYER
  5
142E2
330
7467
100
AcDbSymbolTableRecord
100
AcDbLayerTableRecord
  2
破線
 70
     0
 62
     2
  6
HIDDEN
370
    -3
390
18576
  0
ENDTAB
  0
TABLE
  2
STYLE
  5
7468
330
0
100
AcDbSymbolTable
 70
     4
  0
STYLE
  5
7475
330
7468
100
AcDbSymbolTableRecord
100
AcDbTextStyleTableRecord
  2
STANDARD
 70
     0
 40
0.0
 41
1.0
 50
0.0
 71
     0
 42
4.0
  3
txt
  4
C:\AutoCAD LT\bigfont.shx
  0
STYLE
  5
F706
330
7468
100
AcDbSymbolTableRecord
100
AcDbTextStyleTableRecord
  2
STYLE1
 70
     0
 40
0.0
 41
1.0
 50
0.0
 71
     0
 42
4.0
  3
isocp.shx
  4
bigfont.shx
  0
STYLE
  5
103BF
330
7468
100
AcDbSymbolTableRecord
100
AcDbTextStyleTableRecord
  2
STYLE2
 70
     0
 40
0.0
 41
1.0
 50
0.0
 71
     0
 42
100.0
  3
MS PGothic.ttf
  4

1001
ACAD
1000
MS PGothic
1071
    32818
  0
STYLE
  5
199A4
330
7468
100
AcDbSymbolTableRecord
100
AcDbTextStyleTableRecord
  2
STYLE3
 70
     0
 40
0.0
 41
1.0
 50
0.0
 71
     0
 42
100.0
  3
DFPGothic-EB.ttf
  4

1001
ACAD
1000
DFPGothic-EB
1071
    32818
  0
ENDTAB
  0
TABLE
  2
VIEW
  5
746B
330
0
100
AcDbSymbolTable
 70
     0
  0
ENDTAB
  0
TABLE
  2
UCS
  5
746C
330
0
100
AcDbSymbolTable
 70
     0
  0
ENDTAB
  0
TABLE
  2
APPID
  5
746E
330
0
100
AcDbSymbolTable
 70
     6
  0
APPID
  5
7476
330
746E
100
AcDbSymbolTableRecord
100
AcDbRegAppTableRecord
  2
ACAD
 70
     0
  0
APPID
  5
DEA9
330
746E
100
AcDbSymbolTableRecord
100
AcDbRegAppTableRecord
  2
CONTENTBLOCKICON
 70
     0
  0
APPID
  5
DEAA
330
746E
100
AcDbSymbolTableRecord
100
AcDbRegAppTableRecord
  2
CONTENTBLOCKDESCRIPTION
 70
     0
  0
APPID
  5
E71D
330
746E
100
AcDbSymbolTableRecord
100
AcDbRegAppTableRecord
  2
CONTENTTABDATA
 70
     0
  0
APPID
  5
E71E
330
746E
100
AcDbSymbolTableRecord
100
AcDbRegAppTableRecord
  2
CONTENTCURRENTTAB
 70
     0
  0
APPID
  5
F3BA
330
746E
100
AcDbSymbolTableRecord
100
AcDbRegAppTableRecord
  2
DRAWINGVARIABLESXDATA
 70
     0
  0
ENDTAB
  0
TABLE
  2
DIMSTYLE
  5
746F
330
0
100
AcDbSymbolTable
 70
     5
100
AcDbDimStyleTable
 71
     0
  0
DIMSTYLE
105
7484
330
746F
100
AcDbSymbolTableRecord
100
AcDbDimStyleTableRecord
  2
JIS
 70
     0
 41
2.5
 42
1.0
 43
7.0
 44
1.0
 73
     0
 74
     0
 77
     1
 78
     8
140
2.5
141
0.0
143
0.0394
147
0.0
172
     1
174
     1
175
     1
340
7475
  0
DIMSTYLE
105
F71F
102
{ACAD_REACTORS
330
18D08
330
18D09
330
18D0C
330
18D15
330
18D19
330
18D1B
330
18D3C
330
18D42
330
18D56
330
18D57
330
18D78
330
18D87
330
18B1B
330
18BAC
330
18BAD
330
18BAE
330
194C0
330
194C1
330
194C2
330
194C3
330
194D1
330
194E8
330
194EC
330
194ED
330
19507
330
19508
330
19509
330
1950A
330
19D4C
330
19E4E
102
}
330
746F
100
AcDbSymbolTableRecord
100
AcDbDimStyleTableRecord
  2
INABA_S40G
 70
     0
 40
40.0
 41
2.5
 42
0.5
 43
7.0
 44
1.5
 73
     0
 74
     0
 77
     3
 78
     8
140
3.0
141
0.0
143
0.0394
147
1.0
172
     1
173
     1
174
     1
178
     7
271
     1
340
F706
341
F770
343
F770
344
F770
  0
DIMSTYLE
105
18711
102
{ACAD_REACTORS
330
19AB0
330
19D4D
102
}
330
746F
100
AcDbSymbolTableRecord
100
AcDbDimStyleTableRecord
  2
INABA_S40
 70
     0
 40
40.0
 41
2.5
 42
0.5
 43
7.0
 44
1.5
 73
     0
 74
     0
 77
     3
 78
     8
140
3.0
141
0.0
143
0.0394
147
1.0
172
     1
173
     1
174
     1
175
     1
178
     7
340
7475
  0
DIMSTYLE
105
199A5
330
746F
100
AcDbSymbolTableRecord
100
AcDbDimStyleTableRecord
  2
INABA_S50G
 70
     0
 41
125.0
 42
25.0
 43
7.0
 44
75.0
 73
     0
 74
     0
 77
     3
 78
     8
140
150.0
141
0.0
143
0.0394
147
25.0
172
     1
173
     1
174
     1
175
     1
178
     7
271
     1
340
F706
341
F770
343
F770
344
F770
  0
DIMSTYLE
105
1A048
330
746F
100
AcDbSymbolTableRecord
100
AcDbDimStyleTableRecord
  2
INABA_S20G
 70
     0
 40
20.0
 41
2.5
 42
0.5
 43
7.0
 44
1.5
 73
     0
 74
     0
 77
     3
 78
     8
140
3.0
141
0.0
143
0.0394
147
1.0
172
     1
173
     1
174
     1
178
     7
271
     1
340
F706
341
F770
343
F770
344
F770
  0
ENDTAB
  0
TABLE
  2
BLOCK_RECORD
  5
7466
330
0
100
AcDbSymbolTable
 70
    34
  0
BLOCK_RECORD
  5
747D
330
7466
100
AcDbSymbolTableRecord
100
AcDbBlockTableRecord
  2
*MODEL_SPACE
340
1857B
  0
BLOCK_RECORD
  5
747A
330
7466
100
AcDbSymbolTableRecord
100
AcDbBlockTableRecord
  2
*PAPER_SPACE
340
1857C
  0
BLOCK_RECORD
  5
F770
330
7466
100
AcDbSymbolTableRecord
100
AcDbBlockTableRecord
  2
_DOTSMALL
340
0
102
{BLKREFS
331
19843
331
19844
331
1984C
331
1984D
331
19856
331
19857
331
19861
331
19862
331
1986B
331
1986C
331
19874
331
19875
331
1987D
331
1987E
331
19887
331
19888
331
19890
331
19891
331
1989B
331
1989C
331
198A4
331
198A5
331
198AD
331
198AE
331
198B6
331
198B7
331
198BF
331
198C0
331
19947
331
19948
331
19950
331
19951
331
1995B
331
1995C
331
19966
331
19967
331
19FBA
331
19FBB
331
19FCE
331
19FCF
331
19FE0
331
19FE1
331
19FE9
331
19FEA
331
19FF4
331
19FF5
331
19FFD
331
19FFE
331
1A006
331
1A007
331
1A011
331
1A012
331
1A01A
331
1A01B
331
1A025
331
1A026
331
1A030
331
1A031
331
1A039
331
1A03A
102
}
  0
BLOCK_RECORD
  5
1858F
330
7466
100
AcDbSymbolTableRecord
100
AcDbBlockTableRecord
  2
_DOT
340
0
102
{BLKREFS
331
19FC5
331
19FC6
331
19FD7
331
19FD8
102
}
  0
BLOCK_RECORD
  5
18DAE
330
7466
100
AcDbSymbolTableRecord
100
AcDbBlockTableRecord
  2
*D2
340
0
  0
BLOCK_RECORD
  5
18DBC
330
7466
100
AcDbSymbolTableRecord
100
AcDbBlockTableRecord
  2
*D3
340
0
  0
BLOCK_RECORD
  5
18DCA
330
7466
100
AcDbSymbolTableRecord
100
AcDbBlockTableRecord
  2
*D4
340
0
  0
BLOCK_RECORD
  5
18DD6
330
7466
100
AcDbSymbolTableRecord
100
AcDbBlockTableRecord
  2
*D5
340
0
  0
BLOCK_RECORD
  5
18DE4
330
7466
100
AcDbSymbolTableRecord
100
AcDbBlockTableRecord
  2
*D6
340
0
  0
BLOCK_RECORD
  5
18DF0
330
7466
100
AcDbSymbolTableRecord
100
AcDbBlockTableRecord
  2
*D7
340
0
  0
BLOCK_RECORD
  5
18DFC
330
7466
100
AcDbSymbolTableRecord
100
AcDbBlockTableRecord
  2
*D8
340
0
  0
BLOCK_RECORD
  5
18E08
330
7466
100
AcDbSymbolTableRecord
100
AcDbBlockTableRecord
  2
*D9
340
0
  0
BLOCK_RECORD
  5
18E22
330
7466
100
AcDbSymbolTableRecord
100
AcDbBlockTableRecord
  2
*D10
340
0
  0
BLOCK_RECORD
  5
18E2E
330
7466
100
AcDbSymbolTableRecord
100
AcDbBlockTableRecord
  2
*D11
340
0
  0
BLOCK_RECORD
  5
18E3A
330
7466
100
AcDbSymbolTableRecord
100
AcDbBlockTableRecord
  2
*D12
340
0
  0
BLOCK_RECORD
  5
18E46
330
7466
100
AcDbSymbolTableRecord
100
AcDbBlockTableRecord
  2
*D13
340
0
  0
BLOCK_RECORD
  5
18EE9
330
7466
100
AcDbSymbolTableRecord
100
AcDbBlockTableRecord
  2
*D14
340
0
  0
BLOCK_RECORD
  5
18EF7
330
7466
100
AcDbSymbolTableRecord
100
AcDbBlockTableRecord
  2
*D15
340
0
  0
BLOCK_RECORD
  5
18F05
330
7466
100
AcDbSymbolTableRecord
100
AcDbBlockTableRecord
  2
*D16
340
0
  0
BLOCK_RECORD
  5
18F11
330
7466
100
AcDbSymbolTableRecord
100
AcDbBlockTableRecord
  2
*D17
340
0
  0
BLOCK_RECORD
  5
1963D
330
7466
100
AcDbSymbolTableRecord
100
AcDbBlockTableRecord
  2
*D18
340
0
  0
BLOCK_RECORD
  5
19649
330
7466
100
AcDbSymbolTableRecord
100
AcDbBlockTableRecord
  2
*D19
340
0
  0
BLOCK_RECORD
  5
19655
330
7466
100
AcDbSymbolTableRecord
100
AcDbBlockTableRecord
  2
*D20
340
0
  0
BLOCK_RECORD
  5
19663
330
7466
100
AcDbSymbolTableRecord
100
AcDbBlockTableRecord
  2
*D21
340
0
  0
BLOCK_RECORD
  5
1966F
330
7466
100
AcDbSymbolTableRecord
100
AcDbBlockTableRecord
  2
*D22
340
0
  0
BLOCK_RECORD
  5
1967C
330
7466
100
AcDbSymbolTableRecord
100
AcDbBlockTableRecord
  2
*D23
340
0
  0
BLOCK_RECORD
  5
19688
330
7466
100
AcDbSymbolTableRecord
100
AcDbBlockTableRecord
  2
*D24
340
0
  0
BLOCK_RECORD
  5
19694
330
7466
100
AcDbSymbolTableRecord
100
AcDbBlockTableRecord
  2
*D25
340
0
  0
BLOCK_RECORD
  5
196A1
330
7466
100
AcDbSymbolTableRecord
100
AcDbBlockTableRecord
  2
*D26
340
0
  0
BLOCK_RECORD
  5
196AF
330
7466
100
AcDbSymbolTableRecord
100
AcDbBlockTableRecord
  2
*D27
340
0
  0
BLOCK_RECORD
  5
196BC
330
7466
100
AcDbSymbolTableRecord
100
AcDbBlockTableRecord
  2
*D28
340
0
  0
BLOCK_RECORD
  5
196C8
330
7466
100
AcDbSymbolTableRecord
100
AcDbBlockTableRecord
  2
*D29
340
0
  0
BLOCK_RECORD
  5
19B1B
330
7466
100
AcDbSymbolTableRecord
100
AcDbBlockTableRecord
  2
*D30
340
0
  0
BLOCK_RECORD
  5
19E60
330
7466
100
AcDbSymbolTableRecord
100
AcDbBlockTableRecord
  2
*D31
340
0
  0
BLOCK_RECORD
  5
19E6C
330
7466
100
AcDbSymbolTableRecord
100
AcDbBlockTableRecord
  2
*D32
340
0
  0
BLOCK_RECORD
  5
19EEE
330
7466
100
AcDbSymbolTableRecord
100
AcDbBlockTableRecord
  2
*D33
340
0
  0
ENDTAB
  0
ENDSEC
  0
SECTION
  2
BLOCKS
  0
BLOCK
  5
7489
330
747D
100
AcDbEntity
  8
0
100
AcDbBlockBegin
  2
*MODEL_SPACE
 70
     0
 10
0.0
 20
0.0
 30
0.0
  3
*MODEL_SPACE
  1

  0
ENDBLK
  5
748A
330
747D
100
AcDbEntity
  8
0
100
AcDbBlockEnd
  0
BLOCK
  5
7487
330
747A
100
AcDbEntity
 67
     1
  8
0
100
AcDbBlockBegin
  2
*PAPER_SPACE
 70
     0
 10
0.0
 20
0.0
 30
0.0
  3
*PAPER_SPACE
  1

  0
ENDBLK
  5
7488
330
747A
100
AcDbEntity
 67
     1
  8
0
100
AcDbBlockEnd
  0
BLOCK
  5
F771
330
F770
100
AcDbEntity
  8
0
 48
50.0
100
AcDbBlockBegin
  2
_DOTSMALL
 70
     0
 10
0.0
 20
0.0
 30
0.0
  3
_DOTSMALL
  1

  0
LWPOLYLINE
  5
F772
330
F770
100
AcDbEntity
  8
0
  6
ByBlock
 62
     0
 48
50.0
100
AcDbPolyline
 90
        2
 70
     1
 43
0.5
 10
-0.0625
 20
0.0
 42
1.0
 10
0.0625
 20
0.0
 42
1.0
  0
ENDBLK
  5
F776
330
F770
100
AcDbEntity
  8
0
 48
50.0
100
AcDbBlockEnd
  0
BLOCK
  5
18590
330
1858F
100
AcDbEntity
  8
0
 48
50.0
100
AcDbBlockBegin
  2
_DOT
 70
     0
 10
0.0
 20
0.0
 30
0.0
  3
_DOT
  1

  0
LWPOLYLINE
  5
18591
330
1858F
100
AcDbEntity
  8
0
  6
ByBlock
 62
     0
 48
50.0
100
AcDbPolyline
 90
        2
 70
     1
 43
0.5
 10
-0.25
 20
0.0
 42
1.0
 10
0.25
 20
0.0
 42
1.0
  0
LINE
  5
18592
330
1858F
100
AcDbEntity
  8
0
  6
ByBlock
 62
     0
 48
50.0
100
AcDbLine
 10
-0.5
 20
0.0
 30
0.0
 11
-1.0
 21
0.0
 31
0.0
  0
ENDBLK
  5
18593
330
1858F
100
AcDbEntity
  8
0
 48
50.0
100
AcDbBlockEnd
  0
BLOCK
  5
18DBA
330
18DAE
100
AcDbEntity
  8
0
 48
50.0
100
AcDbBlockBegin
  2
*D2
 70
     1
 10
0.0
 20
0.0
 30
0.0
  3
*D2
  1

  0
LINE
  5
1A02B
330
18DAE
100
AcDbEntity
  8
寸法
 62
     0
 48
50.0
370
    -2
100
AcDbLine
 10
11410.14907018795
 20
9716.964682500416
 30
0.0
 11
12150.14907018795
 21
9716.964682500416
 31
0.0
  0
LINE
  5
1A02C
330
18DAE
100
AcDbEntity
  8
寸法
 62
     0
 48
50.0
370
    -2
100
AcDbLine
 10
11410.14907018795
 20
9661.964682500418
 30
0.0
 11
12150.14907018795
 21
9661.964682500418
 31
0.0
  0
LINE
  5
1A02D
330
18DAE
100
AcDbEntity
  8
寸法
 62
     0
 48
50.0
370
    -2
100
AcDbLine
 10
12090.14907018795
 20
9661.964682500418
 30
0.0
 11
12090.14907018795
 21
9561.964682500418
 31
0.0
  0
LINE
  5
1A02E
330
18DAE
100
AcDbEntity
  8
寸法
 62
     0
 48
50.0
370
    -2
100
AcDbLine
 10
12090.14907018795
 20
9716.964682500416
 30
0.0
 11
12090.14907018795
 21
10133.93524524889
 31
0.0
  0
LINE
  5
1A02F
330
18DAE
100
AcDbEntity
  8
寸法
 62
     0
 48
50.0
370
    -2
100
AcDbLine
 10
12090.14907018795
 20
9661.964682500418
 30
0.0
 11
12090.14907018795
 21
9716.964682500416
 31
0.0
  0
INSERT
  5
1A030
330
18DAE
100
AcDbEntity
  8
寸法
 62
     0
 48
50.0
370
    -2
100
AcDbBlockReference
  2
_DOTSMALL
 10
12090.14907018795
 20
9661.964682500418
 30
0.0
 41
100.0
 42
100.0
 43
100.0
 50
90.0
  0
INSERT
  5
1A031
330
18DAE
100
AcDbEntity
  8
寸法
 62
     0
 48
50.0
370
    -2
100
AcDbBlockReference
  2
_DOTSMALL
 10
12090.14907018795
 20
9716.964682500416
 30
0.0
 41
100.0
 42
100.0
 43
100.0
 50
270.0
  0
MTEXT
  5
1A032
330
18DAE
100
AcDbEntity
  8
寸法
 62
     7
 48
50.0
100
AcDbMText
 10
11990.14907018795
 20
10025.44996387465
 30
0.0
 40
120.0
 41
0.0
 71
     5
 72
     1
  1
\A1;55
  7
STYLE1
 11
0.0000000000000001
 21
1.0
 31
0.0
 73
     1
 44
1.0
1001
ACAD
1000
MTEXTBEGIN
1070
    73
1070
     1
1070
    44
1040
1.0
1070
    74
1070
     0
1000
MTEXTEND
  0
POINT
  5
1A033
330
18DAE
100
AcDbEntity
  8
DEFPOINTS
 62
     0
 48
50.0
100
AcDbPoint
 10
11390.14907018795
 20
9716.964682500416
 30
0.0
  0
POINT
  5
1A034
330
18DAE
100
AcDbEntity
  8
DEFPOINTS
 62
     0
 48
50.0
100
AcDbPoint
 10
11390.14907018795
 20
9661.964682500418
 30
0.0
  0
POINT
  5
1A035
330
18DAE
100
AcDbEntity
  8
DEFPOINTS
 62
     0
 48
50.0
100
AcDbPoint
 10
12090.14907018795
 20
9661.964682500418
 30
0.0
  0
ENDBLK
  5
18DBB
330
18DAE
100
AcDbEntity
  8
0
 48
50.0
100
AcDbBlockEnd
  0
BLOCK
  5
18DC8
330
18DBC
100
AcDbEntity
  8
0
 48
50.0
100
AcDbBlockBegin
  2
*D3
 70
     1
 10
0.0
 20
0.0
 30
0.0
  3
*D3
  1

  0
LINE
  5
1A020
330
18DBC
100
AcDbEntity
  8
寸法
 62
     0
 48
50.0
370
    -2
100
AcDbLine
 10
11335.14907018795
 20
9736.964682500415
 30
0.0
 11
11335.14907018795
 21
10276.96468250041
 31
0.0
  0
LINE
  5
1A021
330
18DBC
100
AcDbEntity
  8
寸法
 62
     0
 48
50.0
370
    -2
100
AcDbLine
 10
11390.14907018795
 20
9736.964682500415
 30
0.0
 11
11390.14907018795
 21
10276.96468250041
 31
0.0
  0
LINE
  5
1A022
330
18DBC
100
AcDbEntity
  8
寸法
 62
     0
 48
50.0
370
    -2
100
AcDbLine
 10
11335.14907018795
 20
10216.96468250041
 30
0.0
 11
11235.14907018795
 21
10216.96468250041
 31
0.0
  0
LINE
  5
1A023
330
18DBC
100
AcDbEntity
  8
寸法
 62
     0
 48
50.0
370
    -2
100
AcDbLine
 10
11390.14907018795
 20
10216.96468250041
 30
0.0
 11
11807.11963293642
 21
10216.96468250041
 31
0.0
  0
LINE
  5
1A024
330
18DBC
100
AcDbEntity
  8
寸法
 62
     0
 48
50.0
370
    -2
100
AcDbLine
 10
11335.14907018795
 20
10216.96468250041
 30
0.0
 11
11390.14907018795
 21
10216.96468250041
 31
0.0
  0
INSERT
  5
1A025
330
18DBC
100
AcDbEntity
  8
寸法
 62
     0
 48
50.0
370
    -2
100
AcDbBlockReference
  2
_DOTSMALL
 10
11335.14907018795
 20
10216.96468250041
 30
0.0
 41
100.0
 42
100.0
 43
100.0
  0
INSERT
  5
1A026
330
18DBC
100
AcDbEntity
  8
寸法
 62
     0
 48
50.0
370
    -2
100
AcDbBlockReference
  2
_DOTSMALL
 10
11390.14907018795
 20
10216.96468250041
 30
0.0
 41
100.0
 42
100.0
 43
100.0
 50
180.0
  0
MTEXT
  5
1A027
330
18DBC
100
AcDbEntity
  8
寸法
 62
     7
 48
50.0
100
AcDbMText
 10
11698.63435156218
 20
10316.96468250041
 30
0.0
 40
120.0
 41
0.0
 71
     5
 72
     1
  1
\A1;55
  7
STYLE1
 73
     1
 44
1.0
1001
ACAD
1000
MTEXTBEGIN
1070
    73
1070
     1
1070
    44
1040
1.0
1070
    74
1070
     0
1000
MTEXTEND
  0
POINT
  5
1A028
330
18DBC
100
AcDbEntity
  8
DEFPOINTS
 62
     0
 48
50.0
100
AcDbPoint
 10
11335.14907018795
 20
9716.964682500416
 30
0.0
  0
POINT
  5
1A029
330
18DBC
100
AcDbEntity
  8
DEFPOINTS
 62
     0
 48
50.0
100
AcDbPoint
 10
11390.14907018795
 20
9716.964682500416
 30
0.0
  0
POINT
  5
1A02A
330
18DBC
100
AcDbEntity
  8
DEFPOINTS
 62
     0
 48
50.0
100
AcDbPoint
 10
11390.14907018795
 20
10216.96468250041
 30
0.0
  0
ENDBLK
  5
18DC9
330
18DBC
100
AcDbEntity
  8
0
 48
50.0
100
AcDbBlockEnd
  0
BLOCK
  5
18DD4
330
18DCA
100
AcDbEntity
  8
0
 48
50.0
100
AcDbBlockBegin
  2
*D4
 70
     1
 10
0.0
 20
0.0
 30
0.0
  3
*D4
  1

  0
LINE
  5
1A017
330
18DCA
100
AcDbEntity
  8
寸法
 62
     0
 48
50.0
370
    -2
100
AcDbLine
 10
11381.64907018795
 20
9681.605698651793
 30
0.0
 11
11850.14907018794
 21
9556.071501997813
 31
0.0
  0
LINE
  5
1A018
330
18DCA
100
AcDbEntity
  8
寸法
 62
     0
 48
50.0
370
    -2
100
AcDbLine
 10
11381.64907018795
 20
9231.605698651796
 30
0.0
 11
11850.14907018794
 21
9106.071501997815
 31
0.0
  0
LINE
  5
1A019
330
18DCA
100
AcDbEntity
  8
寸法
 62
     0
 48
50.0
370
    -2
100
AcDbLine
 10
11790.14907018794
 20
9572.148453543681
 30
0.0
 11
11790.14907018794
 21
9122.148453543683
 31
0.0
  0
INSERT
  5
1A01A
330
18DCA
100
AcDbEntity
  8
寸法
 62
     0
 48
50.0
370
    -2
100
AcDbBlockReference
  2
_DOTSMALL
 10
11790.14907018794
 20
9572.148453543681
 30
0.0
 41
100.0
 42
100.0
 43
100.0
 50
90.0
  0
INSERT
  5
1A01B
330
18DCA
100
AcDbEntity
  8
寸法
 62
     0
 48
50.0
370
    -2
100
AcDbBlockReference
  2
_DOTSMALL
 10
11790.14907018794
 20
9122.148453543683
 30
0.0
 41
100.0
 42
100.0
 43
100.0
 50
270.0
  0
MTEXT
  5
1A01C
330
18DCA
100
AcDbEntity
  8
寸法
 62
     7
 48
50.0
100
AcDbMText
 10
11690.14907018794
 20
9347.148453543681
 30
0.0
 40
120.0
 41
0.0
 71
     5
 72
     1
  1
\A1;450
  7
STYLE1
 11
0.0000000000000001
 21
1.0
 31
0.0
 73
     1
 44
1.0
1001
ACAD
1000
MTEXTBEGIN
1070
    73
1070
     1
1070
    44
1040
1.0
1070
    74
1070
     0
1000
MTEXTEND
  0
POINT
  5
1A01D
330
18DCA
100
AcDbEntity
  8
DEFPOINTS
 62
     0
 48
50.0
100
AcDbPoint
 10
11361.64907018795
 20
9686.964682500416
 30
0.0
  0
POINT
  5
1A01E
330
18DCA
100
AcDbEntity
  8
DEFPOINTS
 62
     0
 48
50.0
100
AcDbPoint
 10
11361.64907018795
 20
9236.964682500419
 30
0.0
  0
POINT
  5
1A01F
330
18DCA
100
AcDbEntity
  8
DEFPOINTS
 62
     0
 48
50.0
100
AcDbPoint
 10
11790.14907018794
 20
9122.148453543683
 30
0.0
  0
ENDBLK
  5
18DD5
330
18DCA
100
AcDbEntity
  8
0
 48
50.0
100
AcDbBlockEnd
  0
BLOCK
  5
18DE2
330
18DD6
100
AcDbEntity
  8
0
 48
50.0
100
AcDbBlockBegin
  2
*D5
 70
     1
 10
0.0
 20
0.0
 30
0.0
  3
*D5
  1

  0
LINE
  5
1A00C
330
18DD6
100
AcDbEntity
  8
寸法
 62
     0
 48
50.0
370
    -2
100
AcDbLine
 10
11410.14907018792
 20
7141.964682500404
 30
0.0
 11
12150.14907018792
 21
7141.964682500404
 31
0.0
  0
LINE
  5
1A00D
330
18DD6
100
AcDbEntity
  8
寸法
 62
     0
 48
50.0
370
    -2
100
AcDbLine
 10
11410.14907018792
 20
7086.964682500407
 30
0.0
 11
12150.14907018792
 21
7086.964682500407
 31
0.0
  0
LINE
  5
1A00E
330
18DD6
100
AcDbEntity
  8
寸法
 62
     0
 48
50.0
370
    -2
100
AcDbLine
 10
12090.14907018792
 20
7141.964682500404
 30
0.0
 11
12090.14907018792
 21
7241.964682500404
 31
0.0
  0
LINE
  5
1A00F
330
18DD6
100
AcDbEntity
  8
寸法
 62
     0
 48
50.0
370
    -2
100
AcDbLine
 10
12090.14907018792
 20
7086.964682500407
 30
0.0
 11
12090.14907018792
 21
6669.994119751925
 31
0.0
  0
LINE
  5
1A010
330
18DD6
100
AcDbEntity
  8
寸法
 62
     0
 48
50.0
370
    -2
100
AcDbLine
 10
12090.14907018792
 20
7141.964682500404
 30
0.0
 11
12090.14907018792
 21
7086.964682500407
 31
0.0
  0
INSERT
  5
1A011
330
18DD6
100
AcDbEntity
  8
寸法
 62
     0
 48
50.0
370
    -2
100
AcDbBlockReference
  2
_DOTSMALL
 10
12090.14907018792
 20
7141.964682500404
 30
0.0
 41
100.0
 42
100.0
 43
100.0
 50
270.0
  0
INSERT
  5
1A012
330
18DD6
100
AcDbEntity
  8
寸法
 62
     0
 48
50.0
370
    -2
100
AcDbBlockReference
  2
_DOTSMALL
 10
12090.14907018792
 20
7086.964682500407
 30
0.0
 41
100.0
 42
100.0
 43
100.0
 50
90.0
  0
MTEXT
  5
1A013
330
18DD6
100
AcDbEntity
  8
寸法
 62
     7
 48
50.0
100
AcDbMText
 10
11990.14907018792
 20
6778.479401126166
 30
0.0
 40
120.0
 41
0.0
 71
     5
 72
     1
  1
\A1;55
  7
STYLE1
 11
0.0000000000000001
 21
1.0
 31
0.0
 73
     1
 44
1.0
1001
ACAD
1000
MTEXTBEGIN
1070
    73
1070
     1
1070
    44
1040
1.0
1070
    74
1070
     0
1000
MTEXTEND
  0
POINT
  5
1A014
330
18DD6
100
AcDbEntity
  8
DEFPOINTS
 62
     0
 48
50.0
100
AcDbPoint
 10
11390.14907018792
 20
7141.964682500404
 30
0.0
  0
POINT
  5
1A015
330
18DD6
100
AcDbEntity
  8
DEFPOINTS
 62
     0
 48
50.0
100
AcDbPoint
 10
11390.14907018792
 20
7086.964682500407
 30
0.0
  0
POINT
  5
1A016
330
18DD6
100
AcDbEntity
  8
DEFPOINTS
 62
     0
 48
50.0
100
AcDbPoint
 10
12090.14907018792
 20
7086.964682500407
 30
0.0
  0
ENDBLK
  5
18DE3
330
18DD6
100
AcDbEntity
  8
0
 48
50.0
100
AcDbBlockEnd
  0
BLOCK
  5
18DEE
330
18DE4
100
AcDbEntity
  8
0
 48
50.0
100
AcDbBlockBegin
  2
*D6
 70
     1
 10
0.0
 20
0.0
 30
0.0
  3
*D6
  1

  0
LINE
  5
1A003
330
18DE4
100
AcDbEntity
  8
寸法
 62
     0
 48
50.0
370
    -2
100
AcDbLine
 10
11410.14907018795
 20
9661.964682500418
 30
0.0
 11
12150.14907018794
 21
9661.964682500418
 31
0.0
  0
LINE
  5
1A004
330
18DE4
100
AcDbEntity
  8
寸法
 62
     0
 48
50.0
370
    -2
100
AcDbLine
 10
11410.14907018792
 20
7141.964682500404
 30
0.0
 11
12150.14907018794
 21
7141.964682500404
 31
0.0
  0
LINE
  5
1A005
330
18DE4
100
AcDbEntity
  8
寸法
 62
     0
 48
50.0
370
    -2
100
AcDbLine
 10
12090.14907018794
 20
9661.964682500418
 30
0.0
 11
12090.14907018794
 21
7141.964682500404
 31
0.0
  0
INSERT
  5
1A006
330
18DE4
100
AcDbEntity
  8
寸法
 62
     0
 48
50.0
370
    -2
100
AcDbBlockReference
  2
_DOTSMALL
 10
12090.14907018794
 20
9661.964682500418
 30
0.0
 41
100.0
 42
100.0
 43
100.0
 50
90.0
  0
INSERT
  5
1A007
330
18DE4
100
AcDbEntity
  8
寸法
 62
     0
 48
50.0
370
    -2
100
AcDbBlockReference
  2
_DOTSMALL
 10
12090.14907018794
 20
7141.964682500404
 30
0.0
 41
100.0
 42
100.0
 43
100.0
 50
270.0
  0
MTEXT
  5
1A008
330
18DE4
100
AcDbEntity
  8
寸法
 62
     7
 48
50.0
100
AcDbMText
 10
11990.13725916431
 20
8401.964682500409
 30
0.0
 40
120.0
 41
0.0
 71
     5
 72
     1
  1
\A1;6X420=2520
  7
STYLE1
 11
0.0000000000000001
 21
1.0
 31
0.0
 73
     1
 44
1.0
1001
ACAD
1000
MTEXTBEGIN
1070
    73
1070
     1
1070
    44
1040
1.0
1070
    74
1070
     0
1000
MTEXTEND
  0
POINT
  5
1A009
330
18DE4
100
AcDbEntity
  8
DEFPOINTS
 62
     0
 48
50.0
100
AcDbPoint
 10
11390.14907018795
 20
9661.964682500418
 30
0.0
  0
POINT
  5
1A00A
330
18DE4
100
AcDbEntity
  8
DEFPOINTS
 62
     0
 48
50.0
100
AcDbPoint
 10
11390.14907018792
 20
7141.964682500404
 30
0.0
  0
POINT
  5
1A00B
330
18DE4
100
AcDbEntity
  8
DEFPOINTS
 62
     0
 48
50.0
100
AcDbPoint
 10
12090.14907018794
 20
7141.964682500404
 30
0.0
  0
ENDBLK
  5
18DEF
330
18DE4
100
AcDbEntity
  8
0
 48
50.0
100
AcDbBlockEnd
  0
BLOCK
  5
18DFA
330
18DF0
100
AcDbEntity
  8
0
 48
50.0
100
AcDbBlockBegin
  2
*D7
 70
     1
 10
0.0
 20
0.0
 30
0.0
  3
*D7
  1

  0
LINE
  5
1A036
330
18DF0
100
AcDbEntity
  8
寸法
 62
     0
 48
50.0
370
    -2
100
AcDbLine
 10
11410.14907018795
 20
9716.964682500416
 30
0.0
 11
12450.14907018794
 21
9716.964682500414
 31
0.0
  0
LINE
  5
1A037
330
18DF0
100
AcDbEntity
  8
寸法
 62
     0
 48
50.0
370
    -2
100
AcDbLine
 10
11410.14907018792
 20
7086.964682500407
 30
0.0
 11
12450.14907018794
 21
7086.964682500407
 31
0.0
  0
LINE
  5
1A038
330
18DF0
100
AcDbEntity
  8
寸法
 62
     0
 48
50.0
370
    -2
100
AcDbLine
 10
12390.14907018794
 20
9716.964682500414
 30
0.0
 11
12390.14907018794
 21
7086.964682500407
 31
0.0
  0
INSERT
  5
1A039
330
18DF0
100
AcDbEntity
  8
寸法
 62
     0
 48
50.0
370
    -2
100
AcDbBlockReference
  2
_DOTSMALL
 10
12390.14907018794
 20
9716.964682500414
 30
0.0
 41
100.0
 42
100.0
 43
100.0
 50
90.0
  0
INSERT
  5
1A03A
330
18DF0
100
AcDbEntity
  8
寸法
 62
     0
 48
50.0
370
    -2
100
AcDbBlockReference
  2
_DOTSMALL
 10
12390.14907018794
 20
7086.964682500407
 30
0.0
 41
100.0
 42
100.0
 43
100.0
 50
270.0
  0
MTEXT
  5
1A03B
330
18DF0
100
AcDbEntity
  8
寸法
 62
     7
 48
50.0
100
AcDbMText
 10
12290.13725916431
 20
8401.964682500409
 30
0.0
 40
120.0
 41
0.0
 71
     5
 72
     1
  1
\A1;2630
  7
STYLE1
 11
0.0000000000000001
 21
1.0
 31
0.0
 73
     1
 44
1.0
1001
ACAD
1000
MTEXTBEGIN
1070
    73
1070
     1
1070
    44
1040
1.0
1070
    74
1070
     0
1000
MTEXTEND
  0
POINT
  5
1A03C
330
18DF0
100
AcDbEntity
  8
DEFPOINTS
 62
     0
 48
50.0
100
AcDbPoint
 10
11390.14907018795
 20
9716.964682500416
 30
0.0
  0
POINT
  5
1A03D
330
18DF0
100
AcDbEntity
  8
DEFPOINTS
 62
     0
 48
50.0
100
AcDbPoint
 10
11390.14907018792
 20
7086.964682500407
 30
0.0
  0
POINT
  5
1A03E
330
18DF0
100
AcDbEntity
  8
DEFPOINTS
 62
     0
 48
50.0
100
AcDbPoint
 10
12390.14907018794
 20
7086.964682500407
 30
0.0
  0
ENDBLK
  5
18DFB
330
18DF0
100
AcDbEntity
  8
0
 48
50.0
100
AcDbBlockEnd
  0
BLOCK
  5
18E06
330
18DFC
100
AcDbEntity
  8
0
 48
50.0
100
AcDbBlockBegin
  2
*D8
 70
     1
 10
0.0
 20
0.0
 30
0.0
  3
*D8
  1

  0
LINE
  5
19FFA
330
18DFC
100
AcDbEntity
  8
寸法
 62
     0
 48
50.0
370
    -2
100
AcDbLine
 10
9873.290086339316
 20
9216.964682500492
 30
0.0
 11
9791.642112323387
 21
8912.250295137978
 31
0.0
  0
LINE
  5
19FFB
330
18DFC
100
AcDbEntity
  8
寸法
 62
     0
 48
50.0
370
    -2
100
AcDbLine
 10
11356.29008633933
 20
9216.964682500485
 30
0.0
 11
11274.6421123234
 21
8912.250295137978
 31
0.0
  0
LINE
  5
19FFC
330
18DFC
100
AcDbEntity
  8
寸法
 62
     0
 48
50.0
370
    -2
100
AcDbLine
 10
9807.719063869255
 20
8972.250295137978
 30
0.0
 11
11290.71906386927
 21
8972.250295137978
 31
0.0
  0
INSERT
  5
19FFD
330
18DFC
100
AcDbEntity
  8
寸法
 62
     0
 48
50.0
370
    -2
100
AcDbBlockReference
  2
_DOTSMALL
 10
9807.719063869255
 20
8972.250295137978
 30
0.0
 41
100.0
 42
100.0
 43
100.0
 50
180.0
  0
INSERT
  5
19FFE
330
18DFC
100
AcDbEntity
  8
寸法
 62
     0
 48
50.0
370
    -2
100
AcDbBlockReference
  2
_DOTSMALL
 10
11290.71906386927
 20
8972.250295137978
 30
0.0
 41
100.0
 42
100.0
 43
100.0
  0
MTEXT
  5
19FFF
330
18DFC
100
AcDbEntity
  8
寸法
 62
     7
 48
50.0
100
AcDbMText
 10
10390.21278118599
 20
9072.250295137978
 30
0.0
 40
120.0
 41
0.0
 71
     5
 72
     1
  1
\A1;1483
  7
STYLE1
 73
     1
 44
1.0
1001
ACAD
1000
MTEXTBEGIN
1070
    73
1070
     1
1070
    44
1040
1.0
1070
    74
1070
     0
1000
MTEXTEND
  0
POINT
  5
1A000
330
18DFC
100
AcDbEntity
  8
DEFPOINTS
 62
     0
 48
50.0
100
AcDbPoint
 10
9878.64907018794
 20
9236.96468250049
 30
0.0
  0
POINT
  5
1A001
330
18DFC
100
AcDbEntity
  8
DEFPOINTS
 62
     0
 48
50.0
100
AcDbPoint
 10
11361.64907018795
 20
9236.964682500483
 30
0.0
  0
POINT
  5
1A002
330
18DFC
100
AcDbEntity
  8
DEFPOINTS
 62
     0
 48
50.0
100
AcDbPoint
 10
11290.71906386927
 20
8972.250295137978
 30
0.0
  0
ENDBLK
  5
18E07
330
18DFC
100
AcDbEntity
  8
0
 48
50.0
100
AcDbBlockEnd
  0
BLOCK
  5
18E14
330
18E08
100
AcDbEntity
  8
0
 48
50.0
100
AcDbBlockBegin
  2
*D9
 70
     1
 10
0.0
 20
0.0
 30
0.0
  3
*D9
  1

  0
LINE
  5
19FEF
330
18E08
100
AcDbEntity
  8
寸法
 62
     0
 48
50.0
370
    -2
100
AcDbLine
 10
8340.149070187914
 20
9736.964682500321
 30
0.0
 11
8340.149070187914
 21
10276.96468250032
 31
0.0
  0
LINE
  5
19FF0
330
18E08
100
AcDbEntity
  8
寸法
 62
     0
 48
50.0
370
    -2
100
AcDbLine
 10
8395.149070187946
 20
9736.964682500321
 30
0.0
 11
8395.149070187946
 21
10276.96468250032
 31
0.0
  0
LINE
  5
19FF1
330
18E08
100
AcDbEntity
  8
寸法
 62
     0
 48
50.0
370
    -2
100
AcDbLine
 10
8395.149070187946
 20
10216.96468250032
 30
0.0
 11
8495.149070187947
 21
10216.96468250032
 31
0.0
  0
LINE
  5
19FF2
330
18E08
100
AcDbEntity
  8
寸法
 62
     0
 48
50.0
370
    -2
100
AcDbLine
 10
8340.149070187914
 20
10216.96468250032
 30
0.0
 11
7923.178507439435
 21
10216.96468250032
 31
0.0
  0
LINE
  5
19FF3
330
18E08
100
AcDbEntity
  8
寸法
 62
     0
 48
50.0
370
    -2
100
AcDbLine
 10
8395.149070187946
 20
10216.96468250032
 30
0.0
 11
8340.149070187914
 21
10216.96468250032
 31
0.0
  0
INSERT
  5
19FF4
330
18E08
100
AcDbEntity
  8
寸法
 62
     0
 48
50.0
370
    -2
100
AcDbBlockReference
  2
_DOTSMALL
 10
8395.149070187946
 20
10216.96468250032
 30
0.0
 41
100.0
 42
100.0
 43
100.0
 50
180.0
  0
INSERT
  5
19FF5
330
18E08
100
AcDbEntity
  8
寸法
 62
     0
 48
50.0
370
    -2
100
AcDbBlockReference
  2
_DOTSMALL
 10
8340.149070187914
 20
10216.96468250032
 30
0.0
 41
100.0
 42
100.0
 43
100.0
  0
MTEXT
  5
19FF6
330
18E08
100
AcDbEntity
  8
寸法
 62
     7
 48
50.0
100
AcDbMText
 10
8031.663788813673
 20
10316.96468250032
 30
0.0
 40
120.0
 41
0.0
 71
     5
 72
     1
  1
\A1;55
  7
STYLE1
 73
     1
 44
1.0
1001
ACAD
1000
MTEXTBEGIN
1070
    73
1070
     1
1070
    44
1040
1.0
1070
    74
1070
     0
1000
MTEXTEND
  0
POINT
  5
19FF7
330
18E08
100
AcDbEntity
  8
DEFPOINTS
 62
     0
 48
50.0
100
AcDbPoint
 10
8340.149070187914
 20
9716.96468250032
 30
0.0
  0
POINT
  5
19FF8
330
18E08
100
AcDbEntity
  8
DEFPOINTS
 62
     0
 48
50.0
100
AcDbPoint
 10
8395.149070187946
 20
9716.96468250032
 30
0.0
  0
POINT
  5
19FF9
330
18E08
100
AcDbEntity
  8
DEFPOINTS
 62
     0
 48
50.0
100
AcDbPoint
 10
8395.149070187946
 20
10216.96468250032
 30
0.0
  0
ENDBLK
  5
18E15
330
18E08
100
AcDbEntity
  8
0
 48
50.0
100
AcDbBlockEnd
  0
BLOCK
  5
18E2C
330
18E22
100
AcDbEntity
  8
0
 48
50.0
100
AcDbBlockBegin
  2
*D10
 70
     1
 10
0.0
 20
0.0
 30
0.0
  3
*D10
  1

  0
LINE
  5
19FE6
330
18E22
100
AcDbEntity
  8
寸法
 62
     0
 48
50.0
370
    -2
100
AcDbLine
 10
8395.149070187946
 20
9736.964682500321
 30
0.0
 11
8395.149070187946
 21
10276.96468250036
 31
0.0
  0
LINE
  5
19FE7
330
18E22
100
AcDbEntity
  8
寸法
 62
     0
 48
50.0
370
    -2
100
AcDbLine
 10
11335.14907018795
 20
9736.964682500415
 30
0.0
 11
11335.14907018795
 21
10276.96468250036
 31
0.0
  0
LINE
  5
19FE8
330
18E22
100
AcDbEntity
  8
寸法
 62
     0
 48
50.0
370
    -2
100
AcDbLine
 10
8395.149070187946
 20
10216.96468250036
 30
0.0
 11
11335.14907018795
 21
10216.96468250036
 31
0.0
  0
INSERT
  5
19FE9
330
18E22
100
AcDbEntity
  8
寸法
 62
     0
 48
50.0
370
    -2
100
AcDbBlockReference
  2
_DOTSMALL
 10
8395.149070187946
 20
10216.96468250036
 30
0.0
 41
100.0
 42
100.0
 43
100.0
 50
180.0
  0
INSERT
  5
19FEA
330
18E22
100
AcDbEntity
  8
寸法
 62
     0
 48
50.0
370
    -2
100
AcDbBlockReference
  2
_DOTSMALL
 10
11335.14907018795
 20
10216.96468250036
 30
0.0
 41
100.0
 42
100.0
 43
100.0
  0
MTEXT
  5
19FEB
330
18E22
100
AcDbEntity
  8
寸法
 62
     7
 48
50.0
100
AcDbMText
 10
9865.149070187946
 20
10316.97649352399
 30
0.0
 40
120.0
 41
0.0
 71
     5
 72
     1
  1
\A1;7X420=2940
  7
STYLE1
 73
     1
 44
1.0
1001
ACAD
1000
MTEXTBEGIN
1070
    73
1070
     1
1070
    44
1040
1.0
1070
    74
1070
     0
1000
MTEXTEND
  0
POINT
  5
19FEC
330
18E22
100
AcDbEntity
  8
DEFPOINTS
 62
     0
 48
50.0
100
AcDbPoint
 10
8395.149070187946
 20
9716.96468250032
 30
0.0
  0
POINT
  5
19FED
330
18E22
100
AcDbEntity
  8
DEFPOINTS
 62
     0
 48
50.0
100
AcDbPoint
 10
11335.14907018795
 20
9716.964682500416
 30
0.0
  0
POINT
  5
19FEE
330
18E22
100
AcDbEntity
  8
DEFPOINTS
 62
     0
 48
50.0
100
AcDbPoint
 10
11335.14907018795
 20
10216.96468250036
 30
0.0
  0
ENDBLK
  5
18E2D
330
18E22
100
AcDbEntity
  8
0
 48
50.0
100
AcDbBlockEnd
  0
BLOCK
  5
18E38
330
18E2E
100
AcDbEntity
  8
0
 48
50.0
100
AcDbBlockBegin
  2
*D11
 70
     1
 10
0.0
 20
0.0
 30
0.0
  3
*D11
  1

  0
LINE
  5
19FDD
330
18E2E
100
AcDbEntity
  8
寸法
 62
     0
 48
50.0
370
    -2
100
AcDbLine
 10
8363.290086339247
 20
9216.964682500433
 30
0.0
 11
8281.642112323332
 21
8912.250295137978
 31
0.0
  0
LINE
  5
19FDE
330
18E2E
100
AcDbEntity
  8
寸法
 62
     0
 48
50.0
370
    -2
100
AcDbLine
 10
9846.290086339319
 20
9216.964682500426
 30
0.0
 11
9764.642112323405
 21
8912.250295137978
 31
0.0
  0
LINE
  5
19FDF
330
18E2E
100
AcDbEntity
  8
寸法
 62
     0
 48
50.0
370
    -2
100
AcDbLine
 10
8297.7190638692
 20
8972.250295137978
 30
0.0
 11
9780.719063869275
 21
8972.250295137978
 31
0.0
  0
INSERT
  5
19FE0
330
18E2E
100
AcDbEntity
  8
寸法
 62
     0
 48
50.0
370
    -2
100
AcDbBlockReference
  2
_DOTSMALL
 10
8297.7190638692
 20
8972.250295137978
 30
0.0
 41
100.0
 42
100.0
 43
100.0
 50
180.0
  0
INSERT
  5
19FE1
330
18E2E
100
AcDbEntity
  8
寸法
 62
     0
 48
50.0
370
    -2
100
AcDbBlockReference
  2
_DOTSMALL
 10
9780.719063869275
 20
8972.250295137978
 30
0.0
 41
100.0
 42
100.0
 43
100.0
  0
MTEXT
  5
19FE2
330
18E2E
100
AcDbEntity
  8
寸法
 62
     7
 48
50.0
100
AcDbMText
 10
8928.334621018661
 20
9072.250295137978
 30
0.0
 40
120.0
 41
0.0
 71
     5
 72
     1
  1
\A1;1483
  7
STYLE1
 73
     1
 44
1.0
1001
ACAD
1000
MTEXTBEGIN
1070
    73
1070
     1
1070
    44
1040
1.0
1070
    74
1070
     0
1000
MTEXTEND
  0
POINT
  5
19FE3
330
18E2E
100
AcDbEntity
  8
DEFPOINTS
 62
     0
 48
50.0
100
AcDbPoint
 10
8368.649070187869
 20
9236.964682500433
 30
0.0
  0
POINT
  5
19FE4
330
18E2E
100
AcDbEntity
  8
DEFPOINTS
 62
     0
 48
50.0
100
AcDbPoint
 10
9851.649070187942
 20
9236.964682500426
 30
0.0
  0
POINT
  5
19FE5
330
18E2E
100
AcDbEntity
  8
DEFPOINTS
 62
     0
 48
50.0
100
AcDbPoint
 10
9780.719063869275
 20
8972.250295137978
 30
0.0
  0
ENDBLK
  5
18E39
330
18E2E
100
AcDbEntity
  8
0
 48
50.0
100
AcDbBlockEnd
  0
BLOCK
  5
18E44
330
18E3A
100
AcDbEntity
  8
0
 48
50.0
100
AcDbBlockBegin
  2
*D12
 70
     1
 10
0.0
 20
0.0
 30
0.0
  3
*D12
  1

  0
LINE
  5
198BC
330
18E3A
100
AcDbEntity
  8
寸法
 62
     0
 48
50.0
370
    -2
100
AcDbLine
 10
8768.14907018794
 20
3715.546703476227
 30
0.0
 11
7976.848010443541
 21
3715.546703476227
 31
0.0
  0
LINE
  5
198BD
330
18E3A
100
AcDbEntity
  8
寸法
 62
     0
 48
50.0
370
    -2
100
AcDbLine
 10
8768.14907018794
 20
1990.546703476228
 30
0.0
 11
7976.848010443539
 21
1990.546703476228
 31
0.0
  0
LINE
  5
198BE
330
18E3A
100
AcDbEntity
  8
寸法
 62
     0
 48
50.0
370
    -2
100
AcDbLine
 10
8036.848010443542
 20
3715.546703476227
 30
0.0
 11
8036.84801044354
 21
1990.546703476228
 31
0.0
  0
INSERT
  5
198BF
330
18E3A
100
AcDbEntity
  8
寸法
 62
     0
 48
50.0
370
    -2
100
AcDbBlockReference
  2
_DOTSMALL
 10
8036.848010443542
 20
3715.546703476227
 30
0.0
 41
100.0
 42
100.0
 43
100.0
 50
90.0
  0
INSERT
  5
198C0
330
18E3A
100
AcDbEntity
  8
寸法
 62
     0
 48
50.0
370
    -2
100
AcDbBlockReference
  2
_DOTSMALL
 10
8036.84801044354
 20
1990.546703476228
 30
0.0
 41
100.0
 42
100.0
 43
100.0
 50
270.0
  0
MTEXT
  5
198C1
330
18E3A
100
AcDbEntity
  8
寸法
 62
     7
 48
50.0
100
AcDbMText
 10
7936.836199419919
 20
2826.622629830925
 30
0.0
 40
120.0
 41
0.0
 71
     5
 72
     1
  1
\A1;有効開口部高サ1725
  7
STYLE1
 11
0.0000000000000001
 21
1.0
 31
0.0
 73
     1
 44
1.0
1001
ACAD
1000
MTEXTBEGIN
1070
    73
1070
     1
1070
    44
1040
1.0
1070
    74
1070
     0
1000
MTEXTEND
  0
POINT
  5
198C2
330
18E3A
100
AcDbEntity
  8
DEFPOINTS
 62
     0
 48
50.0
100
AcDbPoint
 10
8788.149070187939
 20
3715.546703476227
 30
0.0
  0
POINT
  5
198C3
330
18E3A
100
AcDbEntity
  8
DEFPOINTS
 62
     0
 48
50.0
100
AcDbPoint
 10
8788.149070187939
 20
1990.546703476228
 30
0.0
  0
POINT
  5
198C4
330
18E3A
100
AcDbEntity
  8
DEFPOINTS
 62
     0
 48
50.0
100
AcDbPoint
 10
8036.84801044354
 20
1990.546703476228
 30
0.0
  0
ENDBLK
  5
18E45
330
18E3A
100
AcDbEntity
  8
0
 48
50.0
100
AcDbBlockEnd
  0
BLOCK
  5
18E50
330
18E46
100
AcDbEntity
  8
0
 48
50.0
100
AcDbBlockBegin
  2
*D13
 70
     1
 10
0.0
 20
0.0
 30
0.0
  3
*D13
  1

  0
LINE
  5
198B3
330
18E46
100
AcDbEntity
  8
寸法
 62
     0
 48
50.0
370
    -2
100
AcDbLine
 10
8430.149070187939
 20
1612.546703476227
 30
0.0
 11
8430.149070187939
 21
1286.49937417585
 31
0.0
  0
LINE
  5
198B4
330
18E46
100
AcDbEntity
  8
寸法
 62
     0
 48
50.0
370
    -2
100
AcDbLine
 10
8230.149070187938
 20
1612.546703476227
 30
0.0
 11
8230.149070187938
 21
1286.49937417585
 31
0.0
  0
LINE
  5
198B5
330
18E46
100
AcDbEntity
  8
寸法
 62
     0
 48
50.0
370
    -2
100
AcDbLine
 10
8430.149070187939
 20
1346.49937417585
 30
0.0
 11
8230.149070187938
 21
1346.49937417585
 31
0.0
  0
INSERT
  5
198B6
330
18E46
100
AcDbEntity
  8
寸法
 62
     0
 48
50.0
370
    -2
100
AcDbBlockReference
  2
_DOTSMALL
 10
8430.149070187939
 20
1346.49937417585
 30
0.0
 41
100.0
 42
100.0
 43
100.0
  0
INSERT
  5
198B7
330
18E46
100
AcDbEntity
  8
寸法
 62
     0
 48
50.0
370
    -2
100
AcDbBlockReference
  2
_DOTSMALL
 10
8230.149070187938
 20
1346.49937417585
 30
0.0
 41
100.0
 42
100.0
 43
100.0
 50
180.0
  0
MTEXT
  5
198B8
330
18E46
100
AcDbEntity
  8
寸法
 62
     7
 48
50.0
100
AcDbMText
 10
8330.149070187937
 20
1446.511185199472
 30
0.0
 40
120.0
 41
0.0
 71
     5
 72
     1
  1
\A1;200
  7
STYLE1
 73
     1
 44
1.0
1001
ACAD
1000
MTEXTBEGIN
1070
    73
1070
     1
1070
    44
1040
1.0
1070
    74
1070
     0
1000
MTEXTEND
  0
POINT
  5
198B9
330
18E46
100
AcDbEntity
  8
DEFPOINTS
 62
     0
 48
50.0
100
AcDbPoint
 10
8430.149070187939
 20
1632.546703476227
 30
0.0
  0
POINT
  5
198BA
330
18E46
100
AcDbEntity
  8
DEFPOINTS
 62
     0
 48
50.0
100
AcDbPoint
 10
8230.149070187938
 20
1632.546703476227
 30
0.0
  0
POINT
  5
198BB
330
18E46
100
AcDbEntity
  8
DEFPOINTS
 62
     0
 48
50.0
100
AcDbPoint
 10
8230.149070187938
 20
1346.49937417585
 30
0.0
  0
ENDBLK
  5
18E51
330
18E46
100
AcDbEntity
  8
0
 48
50.0
100
AcDbBlockEnd
  0
BLOCK
  5
18EF5
330
18EE9
100
AcDbEntity
  8
0
 48
50.0
100
AcDbBlockBegin
  2
*D14
 70
     1
 10
0.0
 20
0.0
 30
0.0
  3
*D14
  1

  0
LINE
  5
19961
330
18EE9
100
AcDbEntity
  8
寸法
 62
     0
 48
50.0
370
    -2
100
AcDbLine
 10
11440.14907018793
 20
4027.546703476231
 30
0.0
 11
11440.14907018793
 21
4466.639872815701
 31
0.0
  0
LINE
  5
19962
330
18EE9
100
AcDbEntity
  8
寸法
 62
     0
 48
50.0
370
    -2
100
AcDbLine
 10
11390.14907018793
 20
4027.546703476233
 30
0.0
 11
11390.14907018793
 21
4466.639872815701
 31
0.0
  0
LINE
  5
19963
330
18EE9
100
AcDbEntity
  8
寸法
 62
     0
 48
50.0
370
    -2
100
AcDbLine
 10
11390.14907018793
 20
4406.639872815701
 30
0.0
 11
11290.14907018793
 21
4406.639872815701
 31
0.0
  0
LINE
  5
19964
330
18EE9
100
AcDbEntity
  8
寸法
 62
     0
 48
50.0
370
    -2
100
AcDbLine
 10
11440.14907018793
 20
4406.639872815701
 30
0.0
 11
11859.68159565666
 21
4406.639872815701
 31
0.0
  0
LINE
  5
19965
330
18EE9
100
AcDbEntity
  8
寸法
 62
     0
 48
50.0
370
    -2
100
AcDbLine
 10
11390.14907018793
 20
4406.639872815701
 30
0.0
 11
11440.14907018793
 21
4406.639872815701
 31
0.0
  0
INSERT
  5
19966
330
18EE9
100
AcDbEntity
  8
寸法
 62
     0
 48
50.0
370
    -2
100
AcDbBlockReference
  2
_DOTSMALL
 10
11390.14907018793
 20
4406.639872815701
 30
0.0
 41
100.0
 42
100.0
 43
100.0
  0
INSERT
  5
19967
330
18EE9
100
AcDbEntity
  8
寸法
 62
     0
 48
50.0
370
    -2
100
AcDbBlockReference
  2
_DOTSMALL
 10
11440.14907018793
 20
4406.639872815701
 30
0.0
 41
100.0
 42
100.0
 43
100.0
 50
180.0
  0
MTEXT
  5
19968
330
18EE9
100
AcDbEntity
  8
寸法
 62
     7
 48
50.0
100
AcDbMText
 10
11753.63435156217
 20
4506.639872815701
 30
0.0
 40
120.0
 41
0.0
 71
     5
 72
     1
  1
\A1;50
  7
STYLE1
 73
     1
 44
1.0
1001
ACAD
1000
MTEXTBEGIN
1070
    73
1070
     1
1070
    44
1040
1.0
1070
    74
1070
     0
1000
MTEXTEND
  0
POINT
  5
19969
330
18EE9
100
AcDbEntity
  8
DEFPOINTS
 62
     0
 48
50.0
100
AcDbPoint
 10
11440.14907018793
 20
4007.54670347623
 30
0.0
  0
POINT
  5
1996A
330
18EE9
100
AcDbEntity
  8
DEFPOINTS
 62
     0
 48
50.0
100
AcDbPoint
 10
11390.14907018793
 20
4007.546703476233
 30
0.0
  0
POINT
  5
1996B
330
18EE9
100
AcDbEntity
  8
DEFPOINTS
 62
     0
 48
50.0
100
AcDbPoint
 10
11390.14907018793
 20
4406.639872815701
 30
0.0
  0
ENDBLK
  5
18EF6
330
18EE9
100
AcDbEntity
  8
0
 48
50.0
100
AcDbBlockEnd
  0
BLOCK
  5
18F03
330
18EF7
100
AcDbEntity
  8
0
 48
50.0
100
AcDbBlockBegin
  2
*D15
 70
     1
 10
0.0
 20
0.0
 30
0.0
  3
*D15
  1

  0
LINE
  5
19956
330
18EF7
100
AcDbEntity
  8
寸法
 62
     0
 48
50.0
370
    -2
100
AcDbLine
 10
8340.149070187939
 20
4027.546703476234
 30
0.0
 11
8340.149070187939
 21
4466.639872815701
 31
0.0
  0
LINE
  5
19957
330
18EF7
100
AcDbEntity
  8
寸法
 62
     0
 48
50.0
370
    -2
100
AcDbLine
 10
8290.14907018794
 20
4027.546703476233
 30
0.0
 11
8290.14907018794
 21
4466.639872815701
 31
0.0
  0
LINE
  5
19958
330
18EF7
100
AcDbEntity
  8
寸法
 62
     0
 48
50.0
370
    -2
100
AcDbLine
 10
8340.149070187939
 20
4406.639872815701
 30
0.0
 11
8440.14907018794
 21
4406.639872815701
 31
0.0
  0
LINE
  5
19959
330
18EF7
100
AcDbEntity
  8
寸法
 62
     0
 48
50.0
370
    -2
100
AcDbLine
 10
8290.14907018794
 20
4406.639872815701
 30
0.0
 11
7870.616544719204
 21
4406.639872815701
 31
0.0
  0
LINE
  5
1995A
330
18EF7
100
AcDbEntity
  8
寸法
 62
     0
 48
50.0
370
    -2
100
AcDbLine
 10
8340.149070187939
 20
4406.639872815701
 30
0.0
 11
8290.14907018794
 21
4406.639872815701
 31
0.0
  0
INSERT
  5
1995B
330
18EF7
100
AcDbEntity
  8
寸法
 62
     0
 48
50.0
370
    -2
100
AcDbBlockReference
  2
_DOTSMALL
 10
8340.149070187939
 20
4406.639872815701
 30
0.0
 41
100.0
 42
100.0
 43
100.0
 50
180.0
  0
INSERT
  5
1995C
330
18EF7
100
AcDbEntity
  8
寸法
 62
     0
 48
50.0
370
    -2
100
AcDbBlockReference
  2
_DOTSMALL
 10
8290.14907018794
 20
4406.639872815701
 30
0.0
 41
100.0
 42
100.0
 43
100.0
  0
MTEXT
  5
1995D
330
18EF7
100
AcDbEntity
  8
寸法
 62
     7
 48
50.0
100
AcDbMText
 10
7976.663788813692
 20
4506.639872815701
 30
0.0
 40
120.0
 41
0.0
 71
     5
 72
     1
  1
\A1;50
  7
STYLE1
 73
     1
 44
1.0
1001
ACAD
1000
MTEXTBEGIN
1070
    73
1070
     1
1070
    44
1040
1.0
1070
    74
1070
     0
1000
MTEXTEND
  0
POINT
  5
1995E
330
18EF7
100
AcDbEntity
  8
DEFPOINTS
 62
     0
 48
50.0
100
AcDbPoint
 10
8340.149070187939
 20
4007.546703476234
 30
0.0
  0
POINT
  5
1995F
330
18EF7
100
AcDbEntity
  8
DEFPOINTS
 62
     0
 48
50.0
100
AcDbPoint
 10
8290.14907018794
 20
4007.546703476233
 30
0.0
  0
POINT
  5
19960
330
18EF7
100
AcDbEntity
  8
DEFPOINTS
 62
     0
 48
50.0
100
AcDbPoint
 10
8290.14907018794
 20
4406.639872815701
 30
0.0
  0
ENDBLK
  5
18F04
330
18EF7
100
AcDbEntity
  8
0
 48
50.0
100
AcDbBlockEnd
  0
BLOCK
  5
18F0F
330
18F05
100
AcDbEntity
  8
0
 48
50.0
100
AcDbBlockBegin
  2
*D16
 70
     1
 10
0.0
 20
0.0
 30
0.0
  3
*D16
  1

  0
LINE
  5
1994D
330
18F05
100
AcDbEntity
  8
寸法
 62
     0
 48
50.0
370
    -2
100
AcDbLine
 10
8290.14907018794
 20
4027.546703476233
 30
0.0
 11
8290.14907018794
 21
4683.165972434146
 31
0.0
  0
LINE
  5
1994E
330
18F05
100
AcDbEntity
  8
寸法
 62
     0
 48
50.0
370
    -2
100
AcDbLine
 10
11440.14907018793
 20
4027.546703476231
 30
0.0
 11
11440.14907018793
 21
4683.165972434146
 31
0.0
  0
LINE
  5
1994F
330
18F05
100
AcDbEntity
  8
寸法
 62
     0
 48
50.0
370
    -2
100
AcDbLine
 10
8290.14907018794
 20
4623.165972434146
 30
0.0
 11
11440.14907018793
 21
4623.165972434146
 31
0.0
  0
INSERT
  5
19950
330
18F05
100
AcDbEntity
  8
寸法
 62
     0
 48
50.0
370
    -2
100
AcDbBlockReference
  2
_DOTSMALL
 10
8290.14907018794
 20
4623.165972434146
 30
0.0
 41
100.0
 42
100.0
 43
100.0
 50
180.0
  0
INSERT
  5
19951
330
18F05
100
AcDbEntity
  8
寸法
 62
     0
 48
50.0
370
    -2
100
AcDbBlockReference
  2
_DOTSMALL
 10
11440.14907018793
 20
4623.165972434146
 30
0.0
 41
100.0
 42
100.0
 43
100.0
  0
MTEXT
  5
19952
330
18F05
100
AcDbEntity
  8
寸法
 62
     7
 48
50.0
100
AcDbMText
 10
9865.149070187939
 20
4723.165972434146
 30
0.0
 40
120.0
 41
0.0
 71
     5
 72
     1
  1
\A1;3150
  7
STYLE1
 73
     1
 44
1.0
1001
ACAD
1000
MTEXTBEGIN
1070
    73
1070
     1
1070
    44
1040
1.0
1070
    74
1070
     0
1000
MTEXTEND
  0
POINT
  5
19953
330
18F05
100
AcDbEntity
  8
DEFPOINTS
 62
     0
 48
50.0
100
AcDbPoint
 10
8290.14907018794
 20
4007.546703476233
 30
0.0
  0
POINT
  5
19954
330
18F05
100
AcDbEntity
  8
DEFPOINTS
 62
     0
 48
50.0
100
AcDbPoint
 10
11440.14907018793
 20
4007.54670347623
 30
0.0
  0
POINT
  5
19955
330
18F05
100
AcDbEntity
  8
DEFPOINTS
 62
     0
 48
50.0
100
AcDbPoint
 10
11440.14907018793
 20
4623.165972434146
 30
0.0
  0
ENDBLK
  5
18F10
330
18F05
100
AcDbEntity
  8
0
 48
50.0
100
AcDbBlockEnd
  0
BLOCK
  5
18F1B
330
18F11
100
AcDbEntity
  8
0
 48
50.0
100
AcDbBlockBegin
  2
*D17
 70
     1
 10
0.0
 20
0.0
 30
0.0
  3
*D17
  1

  0
LINE
  5
19944
330
18F11
100
AcDbEntity
  8
寸法
 62
     0
 48
50.0
370
    -2
100
AcDbLine
 10
11390.14907018793
 20
4027.546703476233
 30
0.0
 11
11390.14907018793
 21
4466.6398728157
 31
0.0
  0
LINE
  5
19945
330
18F11
100
AcDbEntity
  8
寸法
 62
     0
 48
50.0
370
    -2
100
AcDbLine
 10
8340.149070187939
 20
4027.546703476234
 30
0.0
 11
8340.149070187939
 21
4466.6398728157
 31
0.0
  0
LINE
  5
19946
330
18F11
100
AcDbEntity
  8
寸法
 62
     0
 48
50.0
370
    -2
100
AcDbLine
 10
11390.14907018793
 20
4406.6398728157
 30
0.0
 11
8340.149070187939
 21
4406.6398728157
 31
0.0
  0
INSERT
  5
19947
330
18F11
100
AcDbEntity
  8
寸法
 62
     0
 48
50.0
370
    -2
100
AcDbBlockReference
  2
_DOTSMALL
 10
11390.14907018793
 20
4406.6398728157
 30
0.0
 41
100.0
 42
100.0
 43
100.0
  0
INSERT
  5
19948
330
18F11
100
AcDbEntity
  8
寸法
 62
     0
 48
50.0
370
    -2
100
AcDbBlockReference
  2
_DOTSMALL
 10
8340.149070187939
 20
4406.6398728157
 30
0.0
 41
100.0
 42
100.0
 43
100.0
 50
180.0
  0
MTEXT
  5
19949
330
18F11
100
AcDbEntity
  8
寸法
 62
     7
 48
50.0
100
AcDbMText
 10
9865.149070187939
 20
4506.6398728157
 30
0.0
 40
120.0
 41
0.0
 71
     5
 72
     1
  1
\A1;柱外寸法3050
  7
STYLE1
 73
     1
 44
1.0
1001
ACAD
1000
MTEXTBEGIN
1070
    73
1070
     1
1070
    44
1040
1.0
1070
    74
1070
     0
1000
MTEXTEND
  0
POINT
  5
1994A
330
18F11
100
AcDbEntity
  8
DEFPOINTS
 62
     0
 48
50.0
100
AcDbPoint
 10
11390.14907018793
 20
4007.546703476233
 30
0.0
  0
POINT
  5
1994B
330
18F11
100
AcDbEntity
  8
DEFPOINTS
 62
     0
 48
50.0
100
AcDbPoint
 10
8340.149070187939
 20
4007.546703476234
 30
0.0
  0
POINT
  5
1994C
330
18F11
100
AcDbEntity
  8
DEFPOINTS
 62
     0
 48
50.0
100
AcDbPoint
 10
8340.149070187939
 20
4406.6398728157
 30
0.0
  0
ENDBLK
  5
18F1C
330
18F11
100
AcDbEntity
  8
0
 48
50.0
100
AcDbBlockEnd
  0
BLOCK
  5
19647
330
1963D
100
AcDbEntity
  8
0
 48
50.0
100
AcDbBlockBegin
  2
*D18
 70
     1
 10
0.0
 20
0.0
 30
0.0
  3
*D18
  1

  0
LINE
  5
198AA
330
1963D
100
AcDbEntity
  8
寸法
 62
     0
 48
50.0
370
    -2
100
AcDbLine
 10
6345.052040850695
 20
1932.546703476228
 30
0.0
 11
7012.979198822822
 21
1932.546703476228
 31
0.0
  0
LINE
  5
198AB
330
1963D
100
AcDbEntity
  8
寸法
 62
     0
 48
50.0
370
    -2
100
AcDbLine
 10
6348.052040850691
 20
3952.54670347623
 30
0.0
 11
7012.979198822823
 21
3952.54670347623
 31
0.0
  0
LINE
  5
198AC
330
1963D
100
AcDbEntity
  8
寸法
 62
     0
 48
50.0
370
    -2
100
AcDbLine
 10
6952.979198822821
 20
1932.546703476228
 30
0.0
 11
6952.979198822823
 21
3952.54670347623
 31
0.0
  0
INSERT
  5
198AD
330
1963D
100
AcDbEntity
  8
寸法
 62
     0
 48
50.0
370
    -2
100
AcDbBlockReference
  2
_DOTSMALL
 10
6952.979198822821
 20
1932.546703476228
 30
0.0
 41
100.0
 42
100.0
 43
100.0
 50
270.0
  0
INSERT
  5
198AE
330
1963D
100
AcDbEntity
  8
寸法
 62
     0
 48
50.0
370
    -2
100
AcDbBlockReference
  2
_DOTSMALL
 10
6952.979198822823
 20
3952.54670347623
 30
0.0
 41
100.0
 42
100.0
 43
100.0
 50
90.0
  0
MTEXT
  5
198AF
330
1963D
100
AcDbEntity
  8
寸法
 62
     7
 48
50.0
100
AcDbMText
 10
6852.9673877992
 20
2942.54670347623
 30
0.0
 40
120.0
 41
0.0
 71
     5
 72
     1
  1
\A1;2020
  7
STYLE1
 11
0.0000000000000001
 21
1.0
 31
0.0
 73
     1
 44
1.0
1001
ACAD
1000
MTEXTBEGIN
1070
    73
1070
     1
1070
    44
1040
1.0
1070
    74
1070
     0
1000
MTEXTEND
  0
POINT
  5
198B0
330
1963D
100
AcDbEntity
  8
DEFPOINTS
 62
     0
 48
50.0
100
AcDbPoint
 10
6325.052040850694
 20
1932.546703476228
 30
0.0
  0
POINT
  5
198B1
330
1963D
100
AcDbEntity
  8
DEFPOINTS
 62
     0
 48
50.0
100
AcDbPoint
 10
6328.052040850691
 20
3952.54670347623
 30
0.0
  0
POINT
  5
198B2
330
1963D
100
AcDbEntity
  8
DEFPOINTS
 62
     0
 48
50.0
100
AcDbPoint
 10
6952.979198822823
 20
3952.54670347623
 30
0.0
  0
ENDBLK
  5
19648
330
1963D
100
AcDbEntity
  8
0
 48
50.0
100
AcDbBlockEnd
  0
BLOCK
  5
19653
330
19649
100
AcDbEntity
  8
0
 48
50.0
100
AcDbBlockBegin
  2
*D19
 70
     1
 10
0.0
 20
0.0
 30
0.0
  3
*D19
  1

  0
LINE
  5
198A1
330
19649
100
AcDbEntity
  8
寸法
 62
     0
 48
50.0
370
    -2
100
AcDbLine
 10
6248.052040850691
 20
3974.357383087883
 30
0.0
 11
6248.052040850691
 21
4466.204157055533
 31
0.0
  0
LINE
  5
198A2
330
19649
100
AcDbEntity
  8
寸法
 62
     0
 48
50.0
370
    -2
100
AcDbLine
 10
3618.052040850691
 20
4023.548321599204
 30
0.0
 11
3618.052040850691
 21
4466.204157055533
 31
0.0
  0
LINE
  5
198A3
330
19649
100
AcDbEntity
  8
寸法
 62
     0
 48
50.0
370
    -2
100
AcDbLine
 10
6248.052040850691
 20
4406.204157055532
 30
0.0
 11
3618.052040850691
 21
4406.204157055532
 31
0.0
  0
INSERT
  5
198A4
330
19649
100
AcDbEntity
  8
寸法
 62
     0
 48
50.0
370
    -2
100
AcDbBlockReference
  2
_DOTSMALL
 10
6248.052040850691
 20
4406.204157055532
 30
0.0
 41
100.0
 42
100.0
 43
100.0
  0
INSERT
  5
198A5
330
19649
100
AcDbEntity
  8
寸法
 62
     0
 48
50.0
370
    -2
100
AcDbBlockReference
  2
_DOTSMALL
 10
3618.052040850691
 20
4406.204157055532
 30
0.0
 41
100.0
 42
100.0
 43
100.0
 50
180.0
  0
MTEXT
  5
198A6
330
19649
100
AcDbEntity
  8
寸法
 62
     7
 48
50.0
100
AcDbMText
 10
4972.822231879885
 20
4506.215968079154
 30
0.0
 40
120.0
 41
0.0
 71
     5
 72
     1
  1
\A1;柱外寸法2630
  7
STYLE1
 73
     1
 44
1.0
1001
ACAD
1000
MTEXTBEGIN
1070
    73
1070
     1
1070
    44
1040
1.0
1070
    74
1070
     0
1000
MTEXTEND
  0
POINT
  5
198A7
330
19649
100
AcDbEntity
  8
DEFPOINTS
 62
     0
 48
50.0
100
AcDbPoint
 10
6248.052040850691
 20
3954.357383087882
 30
0.0
  0
POINT
  5
198A8
330
19649
100
AcDbEntity
  8
DEFPOINTS
 62
     0
 48
50.0
100
AcDbPoint
 10
3618.052040850691
 20
4003.548321599204
 30
0.0
  0
POINT
  5
198A9
330
19649
100
AcDbEntity
  8
DEFPOINTS
 62
     0
 48
50.0
100
AcDbPoint
 10
3618.052040850691
 20
4406.204157055532
 30
0.0
  0
ENDBLK
  5
19654
330
19649
100
AcDbEntity
  8
0
 48
50.0
100
AcDbBlockEnd
  0
BLOCK
  5
19661
330
19655
100
AcDbEntity
  8
0
 48
50.0
100
AcDbBlockBegin
  2
*D20
 70
     1
 10
0.0
 20
0.0
 30
0.0
  3
*D20
  1

  0
LINE
  5
19896
330
19655
100
AcDbEntity
  8
寸法
 62
     0
 48
50.0
370
    -2
100
AcDbLine
 10
3618.052040850691
 20
4023.548321599204
 30
0.0
 11
3618.052040850691
 21
4466.204157055532
 31
0.0
  0
LINE
  5
19897
330
19655
100
AcDbEntity
  8
寸法
 62
     0
 48
50.0
370
    -2
100
AcDbLine
 10
3558.052040850691
 20
4027.546703476232
 30
0.0
 11
3558.052040850691
 21
4466.204157055532
 31
0.0
  0
LINE
  5
19898
330
19655
100
AcDbEntity
  8
寸法
 62
     0
 48
50.0
370
    -2
100
AcDbLine
 10
3618.052040850691
 20
4406.204157055532
 30
0.0
 11
3718.052040850691
 21
4406.204157055532
 31
0.0
  0
LINE
  5
19899
330
19655
100
AcDbEntity
  8
寸法
 62
     0
 48
50.0
370
    -2
100
AcDbLine
 10
3558.052040850691
 20
4406.204157055532
 30
0.0
 11
3138.77645029951
 21
4406.204157055532
 31
0.0
  0
LINE
  5
1989A
330
19655
100
AcDbEntity
  8
寸法
 62
     0
 48
50.0
370
    -2
100
AcDbLine
 10
3618.052040850691
 20
4406.204157055532
 30
0.0
 11
3558.052040850691
 21
4406.204157055532
 31
0.0
  0
INSERT
  5
1989B
330
19655
100
AcDbEntity
  8
寸法
 62
     0
 48
50.0
370
    -2
100
AcDbBlockReference
  2
_DOTSMALL
 10
3618.052040850691
 20
4406.204157055532
 30
0.0
 41
100.0
 42
100.0
 43
100.0
 50
180.0
  0
INSERT
  5
1989C
330
19655
100
AcDbEntity
  8
寸法
 62
     0
 48
50.0
370
    -2
100
AcDbBlockReference
  2
_DOTSMALL
 10
3558.052040850691
 20
4406.204157055532
 30
0.0
 41
100.0
 42
100.0
 43
100.0
  0
MTEXT
  5
1989D
330
19655
100
AcDbEntity
  8
寸法
 62
     7
 48
50.0
100
AcDbMText
 10
3248.414245575101
 20
4506.204157055532
 30
0.0
 40
120.0
 41
0.0
 71
     5
 72
     1
  1
\A1;60
  7
STYLE1
 73
     1
 44
1.0
1001
ACAD
1000
MTEXTBEGIN
1070
    73
1070
     1
1070
    44
1040
1.0
1070
    74
1070
     0
1000
MTEXTEND
  0
POINT
  5
1989E
330
19655
100
AcDbEntity
  8
DEFPOINTS
 62
     0
 48
50.0
100
AcDbPoint
 10
3618.052040850691
 20
4003.548321599204
 30
0.0
  0
POINT
  5
1989F
330
19655
100
AcDbEntity
  8
DEFPOINTS
 62
     0
 48
50.0
100
AcDbPoint
 10
3558.052040850691
 20
4007.546703476232
 30
0.0
  0
POINT
  5
198A0
330
19655
100
AcDbEntity
  8
DEFPOINTS
 62
     0
 48
50.0
100
AcDbPoint
 10
3558.052040850691
 20
4406.204157055532
 30
0.0
  0
ENDBLK
  5
19662
330
19655
100
AcDbEntity
  8
0
 48
50.0
100
AcDbBlockEnd
  0
BLOCK
  5
1966D
330
19663
100
AcDbEntity
  8
0
 48
50.0
100
AcDbBlockBegin
  2
*D21
 70
     1
 10
0.0
 20
0.0
 30
0.0
  3
*D21
  1

  0
LINE
  5
1988D
330
19663
100
AcDbEntity
  8
寸法
 62
     0
 48
50.0
370
    -2
100
AcDbLine
 10
6328.052040850691
 20
3972.546703476229
 30
0.0
 11
6328.052040850691
 21
4686.41484378715
 31
0.0
  0
LINE
  5
1988E
330
19663
100
AcDbEntity
  8
寸法
 62
     0
 48
50.0
370
    -2
100
AcDbLine
 10
3558.052040850691
 20
4027.546703476232
 30
0.0
 11
3558.052040850691
 21
4686.41484378715
 31
0.0
  0
LINE
  5
1988F
330
19663
100
AcDbEntity
  8
寸法
 62
     0
 48
50.0
370
    -2
100
AcDbLine
 10
6328.052040850691
 20
4626.414843787149
 30
0.0
 11
3558.052040850691
 21
4626.414843787149
 31
0.0
  0
INSERT
  5
19890
330
19663
100
AcDbEntity
  8
寸法
 62
     0
 48
50.0
370
    -2
100
AcDbBlockReference
  2
_DOTSMALL
 10
6328.052040850691
 20
4626.414843787149
 30
0.0
 41
100.0
 42
100.0
 43
100.0
  0
INSERT
  5
19891
330
19663
100
AcDbEntity
  8
寸法
 62
     0
 48
50.0
370
    -2
100
AcDbBlockReference
  2
_DOTSMALL
 10
3558.052040850691
 20
4626.414843787149
 30
0.0
 41
100.0
 42
100.0
 43
100.0
 50
180.0
  0
MTEXT
  5
19892
330
19663
100
AcDbEntity
  8
寸法
 62
     7
 48
50.0
100
AcDbMText
 10
4961.410965738067
 20
4726.426654810771
 30
0.0
 40
120.0
 41
0.0
 71
     5
 72
     1
  1
\A1;2770
  7
STYLE1
 73
     1
 44
1.0
1001
ACAD
1000
MTEXTBEGIN
1070
    73
1070
     1
1070
    44
1040
1.0
1070
    74
1070
     0
1000
MTEXTEND
  0
POINT
  5
19893
330
19663
100
AcDbEntity
  8
DEFPOINTS
 62
     0
 48
50.0
100
AcDbPoint
 10
6328.052040850691
 20
3952.54670347623
 30
0.0
  0
POINT
  5
19894
330
19663
100
AcDbEntity
  8
DEFPOINTS
 62
     0
 48
50.0
100
AcDbPoint
 10
3558.052040850691
 20
4007.546703476232
 30
0.0
  0
POINT
  5
19895
330
19663
100
AcDbEntity
  8
DEFPOINTS
 62
     0
 48
50.0
100
AcDbPoint
 10
3558.052040850691
 20
4626.414843787149
 30
0.0
  0
ENDBLK
  5
1966E
330
19663
100
AcDbEntity
  8
0
 48
50.0
100
AcDbBlockEnd
  0
BLOCK
  5
1967A
330
1966F
100
AcDbEntity
  8
0
 48
50.0
100
AcDbBlockBegin
  2
*D22
 70
     1
 10
0.0
 20
0.0
 30
0.0
  3
*D22
  1

  0
LINE
  5
19883
330
1966F
100
AcDbEntity
  8
寸法
 62
     0
 48
50.0
370
    -2
100
AcDbLine
 10
6248.052040850691
 20
3974.357383087883
 30
0.0
 11
6248.052040850691
 21
4466.204157055533
 31
0.0
  0
LINE
  5
19884
330
1966F
100
AcDbEntity
  8
寸法
 62
     0
 48
50.0
370
    -2
100
AcDbLine
 10
6328.052040850691
 20
3972.546703476229
 30
0.0
 11
6328.052040850691
 21
4466.204157055533
 31
0.0
  0
LINE
  5
19885
330
1966F
100
AcDbEntity
  8
寸法
 62
     0
 48
50.0
370
    -2
100
AcDbLine
 10
6248.052040850691
 20
4406.204157055532
 30
0.0
 11
6328.052040850691
 21
4406.204157055532
 31
0.0
  0
LINE
  5
19886
330
1966F
100
AcDbEntity
  8
寸法
 62
     0
 48
50.0
370
    -2
100
AcDbLine
 10
6328.052040850691
 20
4406.204157055532
 30
0.0
 11
6640.146529039668
 21
4406.204157055532
 31
0.0
  0
INSERT
  5
19887
330
1966F
100
AcDbEntity
  8
寸法
 62
     0
 48
50.0
370
    -2
100
AcDbBlockReference
  2
_DOTSMALL
 10
6248.052040850691
 20
4406.204157055532
 30
0.0
 41
100.0
 42
100.0
 43
100.0
 50
180.0
  0
INSERT
  5
19888
330
1966F
100
AcDbEntity
  8
寸法
 62
     0
 48
50.0
370
    -2
100
AcDbBlockReference
  2
_DOTSMALL
 10
6328.052040850691
 20
4406.204157055532
 30
0.0
 41
100.0
 42
100.0
 43
100.0
  0
MTEXT
  5
19889
330
1966F
100
AcDbEntity
  8
寸法
 62
     7
 48
50.0
100
AcDbMText
 10
6534.099284945181
 20
4506.204157055533
 30
0.0
 40
120.0
 41
0.0
 71
     5
 72
     1
  1
\A1;80
  7
STYLE1
 73
     1
 44
1.0
1001
ACAD
1000
MTEXTBEGIN
1070
    73
1070
     1
1070
    44
1040
1.0
1070
    74
1070
     0
1000
MTEXTEND
  0
POINT
  5
1988A
330
1966F
100
AcDbEntity
  8
DEFPOINTS
 62
     0
 48
50.0
100
AcDbPoint
 10
6248.052040850691
 20
3954.357383087882
 30
0.0
  0
POINT
  5
1988B
330
1966F
100
AcDbEntity
  8
DEFPOINTS
 62
     0
 48
50.0
100
AcDbPoint
 10
6328.052040850691
 20
3952.54670347623
 30
0.0
  0
POINT
  5
1988C
330
1966F
100
AcDbEntity
  8
DEFPOINTS
 62
     0
 48
50.0
100
AcDbPoint
 10
6328.052040850691
 20
4406.204157055532
 30
0.0
  0
ENDBLK
  5
1967B
330
1966F
100
AcDbEntity
  8
0
 48
50.0
100
AcDbBlockEnd
  0
BLOCK
  5
19686
330
1967C
100
AcDbEntity
  8
0
 48
50.0
100
AcDbBlockBegin
  2
*D23
 70
     1
 10
0.0
 20
0.0
 30
0.0
  3
*D23
  1

  0
LINE
  5
1987A
330
1967C
100
AcDbEntity
  8
寸法
 62
     0
 48
50.0
370
    -2
100
AcDbLine
 10
3745.552040850691
 20
1612.546703476224
 30
0.0
 11
3745.552040850691
 21
1286.499374175848
 31
0.0
  0
LINE
  5
1987B
330
1967C
100
AcDbEntity
  8
寸法
 62
     0
 48
50.0
370
    -2
100
AcDbLine
 10
3545.552040850695
 20
1612.546703476226
 30
0.0
 11
3545.552040850695
 21
1286.499374175848
 31
0.0
  0
LINE
  5
1987C
330
1967C
100
AcDbEntity
  8
寸法
 62
     0
 48
50.0
370
    -2
100
AcDbLine
 10
3745.552040850691
 20
1346.499374175848
 30
0.0
 11
3545.552040850695
 21
1346.499374175848
 31
0.0
  0
INSERT
  5
1987D
330
1967C
100
AcDbEntity
  8
寸法
 62
     0
 48
50.0
370
    -2
100
AcDbBlockReference
  2
_DOTSMALL
 10
3745.552040850691
 20
1346.499374175848
 30
0.0
 41
100.0
 42
100.0
 43
100.0
  0
INSERT
  5
1987E
330
1967C
100
AcDbEntity
  8
寸法
 62
     0
 48
50.0
370
    -2
100
AcDbBlockReference
  2
_DOTSMALL
 10
3545.552040850695
 20
1346.499374175848
 30
0.0
 41
100.0
 42
100.0
 43
100.0
 50
180.0
  0
MTEXT
  5
1987F
330
1967C
100
AcDbEntity
  8
寸法
 62
     7
 48
50.0
100
AcDbMText
 10
3645.552040850693
 20
1446.51118519947
 30
0.0
 40
120.0
 41
0.0
 71
     5
 72
     1
  1
\A1;200
  7
STYLE1
 73
     1
 44
1.0
1001
ACAD
1000
MTEXTBEGIN
1070
    73
1070
     1
1070
    44
1040
1.0
1070
    74
1070
     0
1000
MTEXTEND
  0
POINT
  5
19880
330
1967C
100
AcDbEntity
  8
DEFPOINTS
 62
     0
 48
50.0
100
AcDbPoint
 10
3745.552040850691
 20
1632.546703476224
 30
0.0
  0
POINT
  5
19881
330
1967C
100
AcDbEntity
  8
DEFPOINTS
 62
     0
 48
50.0
100
AcDbPoint
 10
3545.552040850695
 20
1632.546703476226
 30
0.0
  0
POINT
  5
19882
330
1967C
100
AcDbEntity
  8
DEFPOINTS
 62
     0
 48
50.0
100
AcDbPoint
 10
3545.552040850695
 20
1346.499374175848
 30
0.0
  0
ENDBLK
  5
19687
330
1967C
100
AcDbEntity
  8
0
 48
50.0
100
AcDbBlockEnd
  0
BLOCK
  5
19692
330
19688
100
AcDbEntity
  8
0
 48
50.0
100
AcDbBlockBegin
  2
*D24
 70
     1
 10
0.0
 20
0.0
 30
0.0
  3
*D24
  1

  0
LINE
  5
19871
330
19688
100
AcDbEntity
  8
寸法
 62
     0
 48
50.0
370
    -2
100
AcDbLine
 10
3525.552040850695
 20
1632.546703476226
 30
0.0
 11
3336.052037604058
 21
1632.546703476226
 31
0.0
  0
LINE
  5
19872
330
19688
100
AcDbEntity
  8
寸法
 62
     0
 48
50.0
370
    -2
100
AcDbLine
 10
3500.552040850691
 20
1832.546703476226
 30
0.0
 11
3336.052037604058
 21
1832.546703476226
 31
0.0
  0
LINE
  5
19873
330
19688
100
AcDbEntity
  8
寸法
 62
     0
 48
50.0
370
    -2
100
AcDbLine
 10
3396.052037604057
 20
1632.546703476226
 30
0.0
 11
3396.052037604057
 21
1832.546703476226
 31
0.0
  0
INSERT
  5
19874
330
19688
100
AcDbEntity
  8
寸法
 62
     0
 48
50.0
370
    -2
100
AcDbBlockReference
  2
_DOTSMALL
 10
3396.052037604057
 20
1632.546703476226
 30
0.0
 41
100.0
 42
100.0
 43
100.0
 50
270.0
  0
INSERT
  5
19875
330
19688
100
AcDbEntity
  8
寸法
 62
     0
 48
50.0
370
    -2
100
AcDbBlockReference
  2
_DOTSMALL
 10
3396.052037604057
 20
1832.546703476226
 30
0.0
 41
100.0
 42
100.0
 43
100.0
 50
90.0
  0
MTEXT
  5
19876
330
19688
100
AcDbEntity
  8
寸法
 62
     7
 48
50.0
100
AcDbMText
 10
3296.040226580435
 20
1732.546703476226
 30
0.0
 40
120.0
 41
0.0
 71
     5
 72
     1
  1
\A1;200
  7
STYLE1
 11
0.0000000000000001
 21
1.0
 31
0.0
 73
     1
 44
1.0
1001
ACAD
1000
MTEXTBEGIN
1070
    73
1070
     1
1070
    44
1040
1.0
1070
    74
1070
     0
1000
MTEXTEND
  0
POINT
  5
19877
330
19688
100
AcDbEntity
  8
DEFPOINTS
 62
     0
 48
50.0
100
AcDbPoint
 10
3545.552040850695
 20
1632.546703476226
 30
0.0
  0
POINT
  5
19878
330
19688
100
AcDbEntity
  8
DEFPOINTS
 62
     0
 48
50.0
100
AcDbPoint
 10
3520.552040850691
 20
1832.546703476226
 30
0.0
  0
POINT
  5
19879
330
19688
100
AcDbEntity
  8
DEFPOINTS
 62
     0
 48
50.0
100
AcDbPoint
 10
3396.052037604057
 20
1832.546703476226
 30
0.0
  0
ENDBLK
  5
19693
330
19688
100
AcDbEntity
  8
0
 48
50.0
100
AcDbBlockEnd
  0
BLOCK
  5
1969F
330
19694
100
AcDbEntity
  8
0
 48
50.0
100
AcDbBlockBegin
  2
*D25
 70
     1
 10
0.0
 20
0.0
 30
0.0
  3
*D25
  1

  0
LINE
  5
19867
330
19694
100
AcDbEntity
  8
寸法
 62
     0
 48
50.0
370
    -2
100
AcDbLine
 10
3557.456327141793
 20
4006.844410545888
 30
0.0
 11
2941.521888036534
 21
4024.558560820217
 31
0.0
  0
LINE
  5
19868
330
19694
100
AcDbEntity
  8
寸法
 62
     0
 48
50.0
370
    -2
100
AcDbLine
 10
3553.402871585167
 20
3865.902686780176
 30
0.0
 11
2937.468432479907
 21
3883.616837054506
 31
0.0
  0
LINE
  5
19869
330
19694
100
AcDbEntity
  8
寸法
 62
     0
 48
50.0
370
    -2
100
AcDbLine
 10
2997.443634082338
 20
3881.891962349558
 30
0.0
 11
3001.497089638965
 21
4022.83368611527
 31
0.0
  0
LINE
  5
1986A
330
19694
100
AcDbEntity
  8
寸法
 62
     0
 48
50.0
370
    -2
100
AcDbLine
 10
3001.497089638965
 20
4022.83368611527
 30
0.0
 11
3011.846337868649
 21
4382.684895729856
 31
0.0
  0
INSERT
  5
1986B
330
19694
100
AcDbEntity
  8
寸法
 62
     0
 48
50.0
370
    -2
100
AcDbBlockReference
  2
_DOTSMALL
 10
2997.443634082338
 20
3881.891962349558
 30
0.0
 41
100.0
 42
100.0
 43
100.0
 50
268.3526390256378
  0
INSERT
  5
1986C
330
19694
100
AcDbEntity
  8
寸法
 62
     0
 48
50.0
370
    -2
100
AcDbBlockReference
  2
_DOTSMALL
 10
3001.497089638965
 20
4022.83368611527
 30
0.0
 41
100.0
 42
100.0
 43
100.0
 50
88.35263902563776
  0
MTEXT
  5
1986D
330
19694
100
AcDbEntity
  8
寸法
 62
     7
 48
50.0
100
AcDbMText
 10
2908.150440003878
 20
4255.613416766169
 30
0.0
 40
120.0
 41
0.0
 71
     5
 72
     1
  1
\A1;141
  7
STYLE1
 11
0.0287479117491237
 21
0.9995866933738488
 31
0.0
 73
     1
 44
1.0
1001
ACAD
1000
MTEXTBEGIN
1070
    73
1070
     1
1070
    44
1040
1.0
1070
    74
1070
     0
1000
MTEXTEND
  0
POINT
  5
1986E
330
19694
100
AcDbEntity
  8
DEFPOINTS
 62
     0
 48
50.0
100
AcDbPoint
 10
3577.44806100927
 20
4006.269452310906
 30
0.0
  0
POINT
  5
1986F
330
19694
100
AcDbEntity
  8
DEFPOINTS
 62
     0
 48
50.0
100
AcDbPoint
 10
3573.394605452643
 20
3865.327728545194
 30
0.0
  0
POINT
  5
19870
330
19694
100
AcDbEntity
  8
DEFPOINTS
 62
     0
 48
50.0
100
AcDbPoint
 10
2997.443634082338
 20
3881.891962349558
 30
0.0
  0
ENDBLK
  5
196A0
330
19694
100
AcDbEntity
  8
0
 48
50.0
100
AcDbBlockEnd
  0
BLOCK
  5
196AD
330
196A1
100
AcDbEntity
  8
0
 48
50.0
100
AcDbBlockBegin
  2
*D26
 70
     1
 10
0.0
 20
0.0
 30
0.0
  3
*D26
  1

  0
LINE
  5
1985C
330
196A1
100
AcDbEntity
  8
寸法
 62
     0
 48
50.0
370
    -2
100
AcDbLine
 10
3598.052040850691
 20
1982.546703476227
 30
0.0
 11
2934.399331692394
 21
1982.546703476227
 31
0.0
  0
LINE
  5
1985D
330
196A1
100
AcDbEntity
  8
寸法
 62
     0
 48
50.0
370
    -2
100
AcDbLine
 10
3543.052040850691
 20
1932.546703476227
 30
0.0
 11
2934.399331692394
 21
1932.546703476227
 31
0.0
  0
LINE
  5
1985E
330
196A1
100
AcDbEntity
  8
寸法
 62
     0
 48
50.0
370
    -2
100
AcDbLine
 10
2994.399331692394
 20
1982.546703476227
 30
0.0
 11
2994.399331692394
 21
2082.546703476227
 31
0.0
  0
LINE
  5
1985F
330
196A1
100
AcDbEntity
  8
寸法
 62
     0
 48
50.0
370
    -2
100
AcDbLine
 10
2994.399331692394
 20
1932.546703476227
 30
0.0
 11
2994.399331692394
 21
1520.452215287245
 31
0.0
  0
LINE
  5
19860
330
196A1
100
AcDbEntity
  8
寸法
 62
     0
 48
50.0
370
    -2
100
AcDbLine
 10
2994.399331692394
 20
1982.546703476227
 30
0.0
 11
2994.399331692394
 21
1932.546703476227
 31
0.0
  0
INSERT
  5
19861
330
196A1
100
AcDbEntity
  8
寸法
 62
     0
 48
50.0
370
    -2
100
AcDbBlockReference
  2
_DOTSMALL
 10
2994.399331692394
 20
1982.546703476227
 30
0.0
 41
100.0
 42
100.0
 43
100.0
 50
270.0
  0
INSERT
  5
19862
330
196A1
100
AcDbEntity
  8
寸法
 62
     0
 48
50.0
370
    -2
100
AcDbBlockReference
  2
_DOTSMALL
 10
2994.399331692394
 20
1932.546703476227
 30
0.0
 41
100.0
 42
100.0
 43
100.0
 50
90.0
  0
MTEXT
  5
19863
330
196A1
100
AcDbEntity
  8
寸法
 62
     7
 48
50.0
100
AcDbMText
 10
2894.399331692394
 20
1626.499459381734
 30
0.0
 40
120.0
 41
0.0
 71
     5
 72
     1
  1
\A1;50
  7
STYLE1
 11
0.0000000000000001
 21
1.0
 31
0.0
 73
     1
 44
1.0
1001
ACAD
1000
MTEXTBEGIN
1070
    73
1070
     1
1070
    44
1040
1.0
1070
    74
1070
     0
1000
MTEXTEND
  0
POINT
  5
19864
330
196A1
100
AcDbEntity
  8
DEFPOINTS
 62
     0
 48
50.0
100
AcDbPoint
 10
3618.052040850691
 20
1982.546703476227
 30
0.0
  0
POINT
  5
19865
330
196A1
100
AcDbEntity
  8
DEFPOINTS
 62
     0
 48
50.0
100
AcDbPoint
 10
3563.052040850691
 20
1932.546703476227
 30
0.0
  0
POINT
  5
19866
330
196A1
100
AcDbEntity
  8
DEFPOINTS
 62
     0
 48
50.0
100
AcDbPoint
 10
2994.399331692394
 20
1932.546703476227
 30
0.0
  0
ENDBLK
  5
196AE
330
196A1
100
AcDbEntity
  8
0
 48
50.0
100
AcDbBlockEnd
  0
BLOCK
  5
196BA
330
196AF
100
AcDbEntity
  8
0
 48
50.0
100
AcDbBlockBegin
  2
*D27
 70
     1
 10
0.0
 20
0.0
 30
0.0
  3
*D27
  1

  0
LINE
  5
19852
330
196AF
100
AcDbEntity
  8
寸法
 62
     0
 48
50.0
370
    -2
100
AcDbLine
 10
3543.052040850691
 20
1932.546703476227
 30
0.0
 11
2649.412658921332
 21
1932.546703476227
 31
0.0
  0
LINE
  5
19853
330
196AF
100
AcDbEntity
  8
寸法
 62
     0
 48
50.0
370
    -2
100
AcDbLine
 10
2974.399331692394
 20
1832.546703476227
 30
0.0
 11
2649.412658921332
 21
1832.546703476227
 31
0.0
  0
LINE
  5
19854
330
196AF
100
AcDbEntity
  8
寸法
 62
     0
 48
50.0
370
    -2
100
AcDbLine
 10
2709.412658921332
 20
1932.546703476227
 30
0.0
 11
2709.412658921332
 21
1832.546703476227
 31
0.0
  0
LINE
  5
19855
330
196AF
100
AcDbEntity
  8
寸法
 62
     0
 48
50.0
370
    -2
100
AcDbLine
 10
2709.412658921332
 20
1832.546703476227
 30
0.0
 11
2709.412658921332
 21
1460.452215287245
 31
0.0
  0
INSERT
  5
19856
330
196AF
100
AcDbEntity
  8
寸法
 62
     0
 48
50.0
370
    -2
100
AcDbBlockReference
  2
_DOTSMALL
 10
2709.412658921332
 20
1932.546703476227
 30
0.0
 41
100.0
 42
100.0
 43
100.0
 50
90.0
  0
INSERT
  5
19857
330
196AF
100
AcDbEntity
  8
寸法
 62
     0
 48
50.0
370
    -2
100
AcDbBlockReference
  2
_DOTSMALL
 10
2709.412658921332
 20
1832.546703476227
 30
0.0
 41
100.0
 42
100.0
 43
100.0
 50
270.0
  0
MTEXT
  5
19858
330
196AF
100
AcDbEntity
  8
寸法
 62
     7
 48
50.0
100
AcDbMText
 10
2609.412658921332
 20
1596.499459381734
 30
0.0
 40
120.0
 41
0.0
 71
     5
 72
     1
  1
\A1;100
  7
STYLE1
 11
0.0000000000000001
 21
1.0
 31
0.0
 73
     1
 44
1.0
1001
ACAD
1000
MTEXTBEGIN
1070
    73
1070
     1
1070
    44
1040
1.0
1070
    74
1070
     0
1000
MTEXTEND
  0
POINT
  5
19859
330
196AF
100
AcDbEntity
  8
DEFPOINTS
 62
     0
 48
50.0
100
AcDbPoint
 10
3563.052040850691
 20
1932.546703476227
 30
0.0
  0
POINT
  5
1985A
330
196AF
100
AcDbEntity
  8
DEFPOINTS
 62
     0
 48
50.0
100
AcDbPoint
 10
2994.399331692394
 20
1832.546703476227
 30
0.0
  0
POINT
  5
1985B
330
196AF
100
AcDbEntity
  8
DEFPOINTS
 62
     0
 48
50.0
100
AcDbPoint
 10
2709.412658921332
 20
1832.546703476227
 30
0.0
  0
ENDBLK
  5
196BB
330
196AF
100
AcDbEntity
  8
0
 48
50.0
100
AcDbBlockEnd
  0
BLOCK
  5
196C6
330
196BC
100
AcDbEntity
  8
0
 48
50.0
100
AcDbBlockBegin
  2
*D28
 70
     1
 10
0.0
 20
0.0
 30
0.0
  3
*D28
  1

  0
LINE
  5
19849
330
196BC
100
AcDbEntity
  8
寸法
 62
     0
 48
50.0
370
    -2
100
AcDbLine
 10
3598.052040850691
 20
1932.546703476227
 30
0.0
 11
2649.412658921332
 21
1932.546703476227
 31
0.0
  0
LINE
  5
1984A
330
196BC
100
AcDbEntity
  8
寸法
 62
     0
 48
50.0
370
    -2
100
AcDbLine
 10
3538.052040850691
 20
4007.546703476231
 30
0.0
 11
2649.412658921333
 21
4007.546703476232
 31
0.0
  0
LINE
  5
1984B
330
196BC
100
AcDbEntity
  8
寸法
 62
     0
 48
50.0
370
    -2
100
AcDbLine
 10
2709.412658921332
 20
1932.546703476227
 30
0.0
 11
2709.412658921333
 21
4007.546703476232
 31
0.0
  0
INSERT
  5
1984C
330
196BC
100
AcDbEntity
  8
寸法
 62
     0
 48
50.0
370
    -2
100
AcDbBlockReference
  2
_DOTSMALL
 10
2709.412658921332
 20
1932.546703476227
 30
0.0
 41
100.0
 42
100.0
 43
100.0
 50
270.0
  0
INSERT
  5
1984D
330
196BC
100
AcDbEntity
  8
寸法
 62
     0
 48
50.0
370
    -2
100
AcDbBlockReference
  2
_DOTSMALL
 10
2709.412658921333
 20
4007.546703476232
 30
0.0
 41
100.0
 42
100.0
 43
100.0
 50
90.0
  0
MTEXT
  5
1984E
330
196BC
100
AcDbEntity
  8
寸法
 62
     7
 48
50.0
100
AcDbMText
 10
2609.40084789771
 20
2926.752580969337
 30
0.0
 40
120.0
 41
0.0
 71
     5
 72
     1
  1
\A1;2075
  7
STYLE1
 11
0.0000000000000001
 21
1.0
 31
0.0
 73
     1
 44
1.0
1001
ACAD
1000
MTEXTBEGIN
1070
    73
1070
     1
1070
    44
1040
1.0
1070
    74
1070
     0
1000
MTEXTEND
  0
POINT
  5
1984F
330
196BC
100
AcDbEntity
  8
DEFPOINTS
 62
     0
 48
50.0
100
AcDbPoint
 10
3618.052040850691
 20
1932.546703476227
 30
0.0
  0
POINT
  5
19850
330
196BC
100
AcDbEntity
  8
DEFPOINTS
 62
     0
 48
50.0
100
AcDbPoint
 10
3558.052040850691
 20
4007.546703476231
 30
0.0
  0
POINT
  5
19851
330
196BC
100
AcDbEntity
  8
DEFPOINTS
 62
     0
 48
50.0
100
AcDbPoint
 10
2709.412658921333
 20
4007.546703476232
 30
0.0
  0
ENDBLK
  5
196C7
330
196BC
100
AcDbEntity
  8
0
 48
50.0
100
AcDbBlockEnd
  0
BLOCK
  5
196D2
330
196C8
100
AcDbEntity
  8
0
 48
50.0
100
AcDbBlockBegin
  2
*D29
 70
     1
 10
0.0
 20
0.0
 30
0.0
  3
*D29
  1

  0
LINE
  5
19840
330
196C8
100
AcDbEntity
  8
寸法
 62
     0
 48
50.0
370
    -2
100
AcDbLine
 10
3598.052040850691
 20
3772.546703476227
 30
0.0
 11
2934.399331692394
 21
3772.546703476228
 31
0.0
  0
LINE
  5
19841
330
196C8
100
AcDbEntity
  8
寸法
 62
     0
 48
50.0
370
    -2
100
AcDbLine
 10
3598.052040850691
 20
1982.546703476227
 30
0.0
 11
2934.399331692394
 21
1982.546703476227
 31
0.0
  0
LINE
  5
19842
330
196C8
100
AcDbEntity
  8
寸法
 62
     0
 48
50.0
370
    -2
100
AcDbLine
 10
2994.399331692394
 20
3772.546703476228
 30
0.0
 11
2994.399331692394
 21
1982.546703476227
 31
0.0
  0
INSERT
  5
19843
330
196C8
100
AcDbEntity
  8
寸法
 62
     0
 48
50.0
370
    -2
100
AcDbBlockReference
  2
_DOTSMALL
 10
2994.399331692394
 20
3772.546703476228
 30
0.0
 41
100.0
 42
100.0
 43
100.0
 50
90.0
  0
INSERT
  5
19844
330
196C8
100
AcDbEntity
  8
寸法
 62
     0
 48
50.0
370
    -2
100
AcDbBlockReference
  2
_DOTSMALL
 10
2994.399331692394
 20
1982.546703476227
 30
0.0
 41
100.0
 42
100.0
 43
100.0
 50
270.0
  0
MTEXT
  5
19845
330
196C8
100
AcDbEntity
  8
寸法
 62
     7
 48
50.0
100
AcDbMText
 10
2894.399331692394
 20
2873.001002018185
 30
0.0
 40
120.0
 41
0.0
 71
     5
 72
     1
  1
\A1;1790
  7
STYLE1
 11
0.0000000000000001
 21
1.0
 31
0.0
 73
     1
 44
1.0
1001
ACAD
1000
MTEXTBEGIN
1070
    73
1070
     1
1070
    44
1040
1.0
1070
    74
1070
     0
1000
MTEXTEND
  0
POINT
  5
19846
330
196C8
100
AcDbEntity
  8
DEFPOINTS
 62
     0
 48
50.0
100
AcDbPoint
 10
3618.052040850691
 20
3772.546703476227
 30
0.0
  0
POINT
  5
19847
330
196C8
100
AcDbEntity
  8
DEFPOINTS
 62
     0
 48
50.0
100
AcDbPoint
 10
3618.052040850691
 20
1982.546703476227
 30
0.0
  0
POINT
  5
19848
330
196C8
100
AcDbEntity
  8
DEFPOINTS
 62
     0
 48
50.0
100
AcDbPoint
 10
2994.399331692394
 20
1982.546703476227
 30
0.0
  0
ENDBLK
  5
196D3
330
196C8
100
AcDbEntity
  8
0
 48
50.0
100
AcDbBlockEnd
  0
BLOCK
  5
19B25
330
19B1B
100
AcDbEntity
  8
0
 48
50.0
100
AcDbBlockBegin
  2
*D30
 70
     1
 10
0.0
 20
0.0
 30
0.0
  3
*D30
  1

  0
LINE
  5
19FD4
330
19B1B
100
AcDbEntity
  8
寸法
 62
     0
 48
50.0
370
    -2
100
AcDbLine
 10
8827.149070187916
 20
6989.964682500276
 30
0.0
 11
8827.149070187916
 21
6312.481554918791
 31
0.0
  0
LINE
  5
19FD5
330
19B1B
100
AcDbEntity
  8
寸法
 62
     0
 48
50.0
370
    -2
100
AcDbLine
 10
10093.14907018791
 20
6989.964682500276
 30
0.0
 11
10093.14907018791
 21
6312.481554918791
 31
0.0
  0
LINE
  5
19FD6
330
19B1B
100
AcDbEntity
  8
寸法
 62
     0
 48
50.0
370
    -2
100
AcDbLine
 10
8847.149070187915
 20
6352.481554918791
 30
0.0
 11
10073.14907018791
 21
6352.481554918791
 31
0.0
  0
INSERT
  5
19FD7
330
19B1B
100
AcDbEntity
  8
寸法
 62
     0
 48
50.0
370
    -2
100
AcDbBlockReference
  2
_DOT
 10
8827.149070187916
 20
6352.481554918791
 30
0.0
 41
20.0
 42
20.0
 43
20.0
 50
180.0
  0
INSERT
  5
19FD8
330
19B1B
100
AcDbEntity
  8
寸法
 62
     0
 48
50.0
370
    -2
100
AcDbBlockReference
  2
_DOT
 10
10093.14907018791
 20
6352.481554918791
 30
0.0
 41
20.0
 42
20.0
 43
20.0
  0
MTEXT
  5
19FD9
330
19B1B
100
AcDbEntity
  8
寸法
 62
     7
 48
50.0
100
AcDbMText
 10
9486.508152417737
 20
6544.493365942414
 30
0.0
 40
120.0
 41
0.0
 71
     5
 72
     1
  1
\A1;有効開口部間口\P1266
  7
STYLE1
 73
     1
 44
1.0
1001
ACAD
1000
MTEXTBEGIN
1070
    73
1070
     1
1070
    44
1040
1.0
1070
    74
1070
     0
1000
MTEXTEND
  0
POINT
  5
19FDA
330
19B1B
100
AcDbEntity
  8
DEFPOINTS
 62
     0
 48
50.0
100
AcDbPoint
 10
8827.149070187916
 20
7009.964682500276
 30
0.0
  0
POINT
  5
19FDB
330
19B1B
100
AcDbEntity
  8
DEFPOINTS
 62
     0
 48
50.0
100
AcDbPoint
 10
10093.14907018791
 20
7009.964682500276
 30
0.0
  0
POINT
  5
19FDC
330
19B1B
100
AcDbEntity
  8
DEFPOINTS
 62
     0
 48
50.0
100
AcDbPoint
 10
10093.14907018791
 20
6352.481554918791
 30
0.0
  0
ENDBLK
  5
19B26
330
19B1B
100
AcDbEntity
  8
0
 48
50.0
100
AcDbBlockEnd
  0
BLOCK
  5
19E6A
330
19E60
100
AcDbEntity
  8
0
 48
50.0
100
AcDbBlockBegin
  2
*D31
 70
     1
 10
0.0
 20
0.0
 30
0.0
  3
*D31
  1

  0
LINE
  5
19FCB
330
19E60
100
AcDbEntity
  8
寸法
 62
     0
 48
50.0
370
    -2
100
AcDbLine
 10
8788.149070187916
 20
6991.964682500238
 30
0.0
 11
8788.149070187916
 21
5989.620878261046
 31
0.0
  0
LINE
  5
19FCC
330
19E60
100
AcDbEntity
  8
寸法
 62
     0
 48
50.0
370
    -2
100
AcDbLine
 10
10942.14907018791
 20
6991.964682500238
 30
0.0
 11
10942.14907018791
 21
5989.620878261046
 31
0.0
  0
LINE
  5
19FCD
330
19E60
100
AcDbEntity
  8
寸法
 62
     0
 48
50.0
370
    -2
100
AcDbLine
 10
8788.149070187916
 20
6049.620878261046
 30
0.0
 11
10942.14907018791
 21
6049.620878261046
 31
0.0
  0
INSERT
  5
19FCE
330
19E60
100
AcDbEntity
  8
寸法
 62
     0
 48
50.0
370
    -2
100
AcDbBlockReference
  2
_DOTSMALL
 10
8788.149070187916
 20
6049.620878261046
 30
0.0
 41
100.0
 42
100.0
 43
100.0
 50
180.0
  0
INSERT
  5
19FCF
330
19E60
100
AcDbEntity
  8
寸法
 62
     0
 48
50.0
370
    -2
100
AcDbBlockReference
  2
_DOTSMALL
 10
10942.14907018791
 20
6049.620878261046
 30
0.0
 41
100.0
 42
100.0
 43
100.0
  0
MTEXT
  5
19FD0
330
19E60
100
AcDbEntity
  8
寸法
 62
     7
 48
50.0
100
AcDbMText
 10
9843.285816384382
 20
6149.632689284667
 30
0.0
 40
120.0
 41
0.0
 71
     5
 72
     1
  1
\A1;2154
  7
STYLE1
 73
     1
 44
1.0
1001
ACAD
1000
MTEXTBEGIN
1070
    73
1070
     1
1070
    44
1040
1.0
1070
    74
1070
     0
1000
MTEXTEND
  0
POINT
  5
19FD1
330
19E60
100
AcDbEntity
  8
DEFPOINTS
 62
     0
 48
50.0
100
AcDbPoint
 10
8788.149070187916
 20
7011.964682500239
 30
0.0
  0
POINT
  5
19FD2
330
19E60
100
AcDbEntity
  8
DEFPOINTS
 62
     0
 48
50.0
100
AcDbPoint
 10
10942.14907018791
 20
7011.964682500239
 30
0.0
  0
POINT
  5
19FD3
330
19E60
100
AcDbEntity
  8
DEFPOINTS
 62
     0
 48
50.0
100
AcDbPoint
 10
10942.14907018791
 20
6049.620878261046
 30
0.0
  0
ENDBLK
  5
19E6B
330
19E60
100
AcDbEntity
  8
0
 48
50.0
100
AcDbBlockEnd
  0
BLOCK
  5
19E78
330
19E6C
100
AcDbEntity
  8
0
 48
50.0
100
AcDbBlockBegin
  2
*D32
 70
     1
 10
0.0
 20
0.0
 30
0.0
  3
*D32
  1

  0
LINE
  5
19FC0
330
19E6C
100
AcDbEntity
  8
寸法
 62
     0
 48
50.0
370
    -2
100
AcDbLine
 10
8320.149070187941
 20
7086.964682500239
 30
0.0
 11
8005.537824561224
 21
7086.964682500239
 31
0.0
  0
LINE
  5
19FC1
330
19E6C
100
AcDbEntity
  8
寸法
 62
     0
 48
50.0
370
    -2
100
AcDbLine
 10
8768.149070187915
 20
7011.964682500239
 30
0.0
 11
8005.537824561224
 21
7011.964682500239
 31
0.0
  0
LINE
  5
19FC2
330
19E6C
100
AcDbEntity
  8
寸法
 62
     0
 48
50.0
370
    -2
100
AcDbLine
 10
8045.537824561225
 20
7106.964682500239
 30
0.0
 11
8045.537824561225
 21
7126.96468250024
 31
0.0
  0
LINE
  5
19FC3
330
19E6C
100
AcDbEntity
  8
寸法
 62
     0
 48
50.0
370
    -2
100
AcDbLine
 10
8045.537824561225
 20
6991.964682500238
 30
0.0
 11
8045.537824561225
 21
6770.994119751761
 31
0.0
  0
LINE
  5
19FC4
330
19E6C
100
AcDbEntity
  8
寸法
 62
     0
 48
50.0
370
    -2
100
AcDbLine
 10
8045.537824561225
 20
7086.964682500239
 30
0.0
 11
8045.537824561225
 21
7011.964682500239
 31
0.0
  0
INSERT
  5
19FC5
330
19E6C
100
AcDbEntity
  8
寸法
 62
     0
 48
50.0
370
    -2
100
AcDbBlockReference
  2
_DOT
 10
8045.537824561225
 20
7086.964682500239
 30
0.0
 41
20.0
 42
20.0
 43
20.0
 50
270.0
  0
INSERT
  5
19FC6
330
19E6C
100
AcDbEntity
  8
寸法
 62
     0
 48
50.0
370
    -2
100
AcDbBlockReference
  2
_DOT
 10
8045.537824561225
 20
7011.964682500239
 30
0.0
 41
20.0
 42
20.0
 43
20.0
 50
90.0
  0
MTEXT
  5
19FC7
330
19E6C
100
AcDbEntity
  8
寸法
 62
     7
 48
50.0
100
AcDbMText
 10
7953.537824561223
 20
6871.479401126001
 30
0.0
 40
120.0
 41
0.0
 71
     5
 72
     1
  1
\A1;75
  7
STYLE1
 11
0.0000000000000001
 21
1.0
 31
0.0
 73
     1
 44
1.0
1001
ACAD
1000
MTEXTBEGIN
1070
    73
1070
     1
1070
    44
1040
1.0
1070
    74
1070
     0
1000
MTEXTEND
  0
POINT
  5
19FC8
330
19E6C
100
AcDbEntity
  8
DEFPOINTS
 62
     0
 48
50.0
100
AcDbPoint
 10
8340.149070187941
 20
7086.964682500239
 30
0.0
  0
POINT
  5
19FC9
330
19E6C
100
AcDbEntity
  8
DEFPOINTS
 62
     0
 48
50.0
100
AcDbPoint
 10
8788.149070187916
 20
7011.964682500239
 30
0.0
  0
POINT
  5
19FCA
330
19E6C
100
AcDbEntity
  8
DEFPOINTS
 62
     0
 48
50.0
100
AcDbPoint
 10
8045.537824561225
 20
7011.964682500239
 30
0.0
  0
ENDBLK
  5
19E79
330
19E6C
100
AcDbEntity
  8
0
 48
50.0
100
AcDbBlockEnd
  0
BLOCK
  5
19EF8
330
19EEE
100
AcDbEntity
  8
0
 48
50.0
100
AcDbBlockBegin
  2
*D33
 70
     1
 10
0.0
 20
0.0
 30
0.0
  3
*D33
  1

  0
LINE
  5
19FB7
330
19EEE
100
AcDbEntity
  8
寸法
 62
     0
 48
50.0
370
    -2
100
AcDbLine
 10
8340.149070187941
 20
7066.964682500243
 30
0.0
 11
8340.149070187941
 21
5731.507766137784
 31
0.0
  0
LINE
  5
19FB8
330
19EEE
100
AcDbEntity
  8
寸法
 62
     0
 48
50.0
370
    -2
100
AcDbLine
 10
11390.14907018792
 20
7066.964682500406
 30
0.0
 11
11390.14907018792
 21
5731.507766137784
 31
0.0
  0
LINE
  5
19FB9
330
19EEE
100
AcDbEntity
  8
寸法
 62
     0
 48
50.0
370
    -2
100
AcDbLine
 10
8340.149070187941
 20
5791.507766137784
 30
0.0
 11
11390.14907018792
 21
5791.507766137784
 31
0.0
  0
INSERT
  5
19FBA
330
19EEE
100
AcDbEntity
  8
寸法
 62
     0
 48
50.0
370
    -2
100
AcDbBlockReference
  2
_DOTSMALL
 10
8340.149070187941
 20
5791.507766137784
 30
0.0
 41
100.0
 42
100.0
 43
100.0
 50
180.0
  0
INSERT
  5
19FBB
330
19EEE
100
AcDbEntity
  8
寸法
 62
     0
 48
50.0
370
    -2
100
AcDbBlockReference
  2
_DOTSMALL
 10
11390.14907018792
 20
5791.507766137784
 30
0.0
 41
100.0
 42
100.0
 43
100.0
  0
MTEXT
  5
19FBC
330
19EEE
100
AcDbEntity
  8
寸法
 62
     7
 48
50.0
100
AcDbMText
 10
9839.094739285389
 20
5891.507766137785
 30
0.0
 40
120.0
 41
0.0
 71
     5
 72
     1
  1
\A1;3050
  7
STYLE1
 73
     1
 44
1.0
1001
ACAD
1000
MTEXTBEGIN
1070
    73
1070
     1
1070
    44
1040
1.0
1070
    74
1070
     0
1000
MTEXTEND
  0
POINT
  5
19FBD
330
19EEE
100
AcDbEntity
  8
DEFPOINTS
 62
     0
 48
50.0
100
AcDbPoint
 10
8340.149070187941
 20
7086.964682500243
 30
0.0
  0
POINT
  5
19FBE
330
19EEE
100
AcDbEntity
  8
DEFPOINTS
 62
     0
 48
50.0
100
AcDbPoint
 10
11390.14907018792
 20
7086.964682500407
 30
0.0
  0
POINT
  5
19FBF
330
19EEE
100
AcDbEntity
  8
DEFPOINTS
 62
     0
 48
50.0
100
AcDbPoint
 10
11390.14907018792
 20
5791.507766137784
 30
0.0
  0
ENDBLK
  5
19EF9
330
19EEE
100
AcDbEntity
  8
0
 48
50.0
100
AcDbBlockEnd
  0
ENDSEC
  0
SECTION
  2
ENTITIES
  0
LINE
  5
10B57
330
747D
100
AcDbEntity
  8
補助
  6
PHANTOM
 62
   230
 48
50.0
100
AcDbLine
 10
139.9999999999995
 20
11409.6
 30
0.0
 11
16307.2
 21
11409.6
 31
0.0
  0
LINE
  5
10B59
330
747D
100
AcDbEntity
  8
仕様書枠
  6
Continuous
 48
50.0
100
AcDbLine
 10
13107.2
 20
1200.0
 30
0.0
 11
13107.2
 21
-0.0000000000000729
 31
0.0
  0
LINE
  5
10B5C
330
747D
100
AcDbEntity
  8
仕様書枠
 48
50.0
100
AcDbLine
 10
16307.2
 20
1200.0
 30
0.0
 11
16307.2
 21
-0.0000000000000909
 31
0.0
  0
LINE
  5
10B5D
330
747D
100
AcDbEntity
  8
仕様書枠
 48
50.0
100
AcDbLine
 10
140.0
 20
0.0
 30
0.0
 11
16307.2
 21
-0.0000000000000909
 31
0.0
  0
LINE
  5
10B5E
330
747D
100
AcDbEntity
  8
補助
  6
PHANTOM
 62
   230
 48
50.0
100
AcDbLine
 10
16307.2
 20
11409.6
 30
0.0
 11
16307.2
 21
1200.0
 31
0.0
  0
LINE
  5
10B6C
330
747D
100
AcDbEntity
  8
仕様書枠
 48
50.0
100
AcDbLine
 10
13107.2
 20
1200.0
 30
0.0
 11
16307.2
 21
1200.0
 31
0.0
  0
LINE
  5
10B6D
330
747D
100
AcDbEntity
  8
補助
  6
PHANTOM
 62
   230
 48
50.0
100
AcDbLine
 10
13107.2
 20
11409.6
 30
0.0
 11
13107.2
 21
4800.0
 31
0.0
  0
LINE
  5
10B6F
330
747D
100
AcDbEntity
  8
補助
  6
PHANTOM
 62
   230
 48
50.0
100
AcDbLine
 10
13107.2
 20
4800.0
 30
0.0
 11
16307.2
 21
4800.0
 31
0.0
  0
LINE
  5
10B72
330
747D
100
AcDbEntity
  8
文字
 62
     7
 48
50.0
100
AcDbLine
 10
13187.2
 20
400.0
 30
0.0
 11
16227.2
 21
400.0
 31
0.0
  0
TEXT
  5
10B73
330
747D
100
AcDbEntity
  8
文字
 62
     7
 48
50.0
100
AcDbText
 10
13162.9790565769
 20
895.0906074299405
 30
0.0
 40
200.0
  1
外 形 図
  7
STYLE2
100
AcDbText
  0
TEXT
  5
10B74
330
747D
100
AcDbEntity
  8
文字
 62
     7
 48
50.0
100
AcDbText
 10
13201.43669998441
 20
477.2740661031255
 30
0.0
 40
160.0
  1
機種名
  7
STYLE2
100
AcDbText
  0
TEXT
  5
10B76
330
747D
100
AcDbEntity
  8
文字
 62
     7
 48
50.0
100
AcDbText
 10
13209.4053442172
 20
76.09434707649343
 30
0.0
 40
100.0
  1
○床面積 ： 8.19㎡(2.48坪) 　
  7
STYLE2
100
AcDbText
  0
TEXT
  5
10B79
330
747D
100
AcDbEntity
  8
文字
 62
     7
 48
50.0
100
AcDbText
 10
14524.131837222
 20
1031.557706291228
 30
0.0
 40
100.0
  1
NO.31      <縮尺> S=1/40
  7
STYLE2
100
AcDbText
  0
LINE
  5
10B7B
330
747D
100
AcDbEntity
  8
仕様書枠
 48
50.0
100
AcDbLine
 10
13107.2
 20
800.0
 30
0.0
 11
14251.2
 21
800.0
 31
0.0
  0
LINE
  5
10B88
330
747D
100
AcDbEntity
  8
仕様書枠
  6
Continuous
 48
50.0
100
AcDbLine
 10
14251.2
 20
1200.0
 30
0.0
 11
14251.2
 21
800.0
 31
0.0
  0
TEXT
  5
154D3
330
747D
100
AcDbEntity
  8
文字
 62
     7
 48
50.0
100
AcDbText
 10
14643.63059855437
 20
863.0097378581719
 30
0.0
 40
100.0
  1
～一般型・多雪地型～
  7
STYLE2
100
AcDbText
  0
LINE
  5
18A56
330
747D
100
AcDbEntity
  8
破線
 48
5.0
100
AcDbLine
 10
8430.149070187937
 20
1832.546703476228
 30
0.0
 11
8430.149070187937
 21
1632.546703476227
 31
0.0
  0
LINE
  5
18A57
330
747D
100
AcDbEntity
  8
破線
 48
5.0
100
AcDbLine
 10
8430.149070187937
 20
1632.546703476227
 30
0.0
 11
8230.149070187936
 21
1632.546703476227
 31
0.0
  0
LINE
  5
18A58
330
747D
100
AcDbEntity
  8
破線
 48
5.0
100
AcDbLine
 10
8230.149070187938
 20
1832.546703476228
 30
0.0
 11
8230.149070187938
 21
1632.546703476227
 31
0.0
  0
LINE
  5
18A59
330
747D
100
AcDbEntity
  8
破線
 48
5.0
100
AcDbLine
 10
11290.14907018794
 20
1832.546703476228
 30
0.0
 11
11290.14907018794
 21
1632.546703476227
 31
0.0
  0
LINE
  5
18A5A
330
747D
100
AcDbEntity
  8
破線
 48
5.0
100
AcDbLine
 10
11490.14907018794
 20
1632.546703476227
 30
0.0
 11
11290.14907018793
 21
1632.546703476227
 31
0.0
  0
LINE
  5
18A5B
330
747D
100
AcDbEntity
  8
破線
 48
5.0
100
AcDbLine
 10
11490.14907018794
 20
1832.546703476228
 30
0.0
 11
11490.14907018794
 21
1632.546703476227
 31
0.0
  0
LINE
  5
18ADD
330
747D
100
AcDbEntity
  8
部品1
100
AcDbLine
 10
11362.14907018795
 20
7981.964682500418
 30
0.0
 11
11390.14907018795
 21
7981.964682500418
 31
0.0
  0
LINE
  5
18ADE
330
747D
100
AcDbEntity
  8
部品1
100
AcDbLine
 10
8368.149070187921
 20
7981.96468250029
 30
0.0
 11
8340.149070187921
 21
7981.96468250029
 31
0.0
  0
LINE
  5
18ADF
330
747D
100
AcDbEntity
  8
部品1
100
AcDbLine
 10
11333.64907018793
 20
7981.96468250039
 30
0.0
 11
8396.649070187931
 21
7981.96468250029
 31
0.0
  0
LINE
  5
18AE0
330
747D
100
AcDbEntity
  8
細線
 48
50.0
100
AcDbLine
 10
8472.649070187941
 20
3772.546703476229
 30
0.0
 11
8472.649070187941
 21
1982.546703476228
 31
0.0
  0
LINE
  5
18AE1
330
747D
100
AcDbEntity
  8
細線
 48
50.0
100
AcDbLine
 10
8457.64907018794
 20
3772.546703476229
 30
0.0
 11
8457.64907018794
 21
1982.546703476228
 31
0.0
  0
LINE
  5
18AE2
330
747D
100
AcDbEntity
  8
細線
 48
50.0
100
AcDbLine
 10
8597.649070187941
 20
3772.546703476229
 30
0.0
 11
8597.649070187941
 21
1982.546703476228
 31
0.0
  0
LINE
  5
18AE3
330
747D
100
AcDbEntity
  8
細線
 48
50.0
100
AcDbLine
 10
8612.649070187941
 20
3772.546703476229
 30
0.0
 11
8612.649070187941
 21
1982.546703476228
 31
0.0
  0
LINE
  5
18AE4
330
747D
100
AcDbEntity
  8
細線
 48
50.0
100
AcDbLine
 10
8752.64907018794
 20
3772.546703476229
 30
0.0
 11
8752.64907018794
 21
1982.546703476228
 31
0.0
  0
LINE
  5
18AE5
330
747D
100
AcDbEntity
  8
細線
 48
50.0
100
AcDbLine
 10
8737.649070187941
 20
3772.546703476229
 30
0.0
 11
8737.649070187941
 21
1982.546703476228
 31
0.0
  0
LINE
  5
18AE6
330
747D
100
AcDbEntity
  8
細線
 48
50.0
100
AcDbLine
 10
10992.64907018794
 20
3772.546703476229
 30
0.0
 11
10992.64907018794
 21
1982.546703476228
 31
0.0
  0
LINE
  5
18AE7
330
747D
100
AcDbEntity
  8
細線
 48
50.0
100
AcDbLine
 10
10977.64907018794
 20
3772.546703476229
 30
0.0
 11
10977.64907018794
 21
1982.546703476228
 31
0.0
  0
LINE
  5
18AE8
330
747D
100
AcDbEntity
  8
細線
 48
50.0
100
AcDbLine
 10
11117.64907018794
 20
3772.546703476229
 30
0.0
 11
11117.64907018794
 21
1982.546703476228
 31
0.0
  0
LINE
  5
18AE9
330
747D
100
AcDbEntity
  8
細線
 48
50.0
100
AcDbLine
 10
11132.64907018794
 20
3772.546703476229
 30
0.0
 11
11132.64907018794
 21
1982.546703476228
 31
0.0
  0
LINE
  5
18AEA
330
747D
100
AcDbEntity
  8
細線
 48
50.0
100
AcDbLine
 10
11272.64907018794
 20
3772.546703476229
 30
0.0
 11
11272.64907018794
 21
1982.546703476228
 31
0.0
  0
LINE
  5
18AEB
330
747D
100
AcDbEntity
  8
細線
 48
50.0
100
AcDbLine
 10
11257.64907018794
 20
3772.546703476229
 30
0.0
 11
11257.64907018794
 21
1982.546703476228
 31
0.0
  0
LINE
  5
18AEC
330
747D
100
AcDbEntity
  8
部品1
100
AcDbLine
 10
10906.14907018792
 20
4002.546703484704
 30
0.0
 11
10906.14907018792
 21
3905.135635976139
 31
0.0
  0
LINE
  5
18AED
330
747D
100
AcDbEntity
  8
部品1
100
AcDbLine
 10
10924.14907018792
 20
4002.546703484715
 30
0.0
 11
10924.14907018792
 21
3905.135635976139
 31
0.0
  0
LINE
  5
18AEE
330
747D
100
AcDbEntity
  8
部品1
 48
50.0
100
AcDbLine
 10
10903.14907018793
 20
4002.546703484715
 30
0.0
 11
10927.14907018793
 21
4002.546703484715
 31
0.0
  0
LINE
  5
18AEF
330
747D
100
AcDbEntity
  8
部品1
 48
50.0
100
AcDbLine
 10
10903.14907018793
 20
4002.546703484715
 30
0.0
 11
10901.93772998174
 21
3993.146703484714
 31
0.0
  0
LINE
  5
18AF0
330
747D
100
AcDbEntity
  8
部品1
 48
50.0
100
AcDbLine
 10
10887.93772998174
 20
3993.146703484714
 30
0.0
 11
10901.93772998174
 21
3993.146703484714
 31
0.0
  0
LINE
  5
18AF1
330
747D
100
AcDbEntity
  8
部品1
 48
50.0
100
AcDbLine
 10
10887.93772998174
 20
3993.146703484714
 30
0.0
 11
10886.64907018793
 21
3983.146703484714
 31
0.0
  0
LINE
  5
18AF2
330
747D
100
AcDbEntity
  8
部品1
 48
50.0
100
AcDbLine
 10
10927.14907018793
 20
4002.546703484715
 30
0.0
 11
10929.64907018793
 21
3983.146703484714
 31
0.0
  0
LINE
  5
18AF3
330
747D
100
AcDbEntity
  8
部品1
100
AcDbLine
 10
11073.14907018792
 20
3983.146703484714
 30
0.0
 11
10929.64907018792
 21
3983.146703484714
 31
0.0
  0
LINE
  5
18AF4
330
747D
100
AcDbEntity
  8
部品1
100
AcDbLine
 10
11146.14907018792
 20
3983.146703484714
 30
0.0
 11
11122.14907018793
 21
3983.146703484714
 31
0.0
  0
LINE
  5
18AF5
330
747D
100
AcDbEntity
  8
部品1
 48
50.0
100
AcDbLine
 10
11111.64907018793
 20
4002.546703484719
 30
0.0
 11
11122.14907018793
 21
3983.146703484717
 31
0.0
  0
LINE
  5
18AF6
330
747D
100
AcDbEntity
  8
部品1
 48
50.0
100
AcDbLine
 10
11083.64907018793
 20
4002.546703484719
 30
0.0
 11
11073.14907018793
 21
3983.146703484717
 31
0.0
  0
LINE
  5
18AF7
330
747D
100
AcDbEntity
  8
部品1
 48
50.0
100
AcDbLine
 10
11083.64907018793
 20
4002.546703484719
 30
0.0
 11
11111.64907018793
 21
4002.546703484719
 31
0.0
  0
LINE
  5
18AF8
330
747D
100
AcDbEntity
  8
部品1
 48
50.0
100
AcDbLine
 10
11156.64907018793
 20
4002.546703484719
 30
0.0
 11
11146.14907018793
 21
3983.146703484717
 31
0.0
  0
LINE
  5
18AF9
330
747D
100
AcDbEntity
  8
部品1
 48
50.0
100
AcDbLine
 10
11184.64907018793
 20
4002.546703484719
 30
0.0
 11
11195.14907018793
 21
3983.146703484717
 31
0.0
  0
LINE
  5
18AFA
330
747D
100
AcDbEntity
  8
部品1
 48
50.0
100
AcDbLine
 10
11156.64907018793
 20
4002.546703484719
 30
0.0
 11
11184.64907018792
 21
4002.546703484719
 31
0.0
  0
LINE
  5
18AFB
330
747D
100
AcDbEntity
  8
部品1
100
AcDbLine
 10
11110.14907018794
 20
4002.546703484715
 30
0.0
 11
11110.14907018794
 21
3905.135635976143
 31
0.0
  0
LINE
  5
18AFC
330
747D
100
AcDbEntity
  8
部品1
100
AcDbLine
 10
11085.14907018794
 20
4002.546703484715
 30
0.0
 11
11085.14907018794
 21
3905.135635976143
 31
0.0
  0
LINE
  5
18AFD
330
747D
100
AcDbEntity
  8
部品1
100
AcDbLine
 10
11158.14907018793
 20
4002.546703484715
 30
0.0
 11
11158.14907018794
 21
3905.135635976143
 31
0.0
  0
LINE
  5
18AFE
330
747D
100
AcDbEntity
  8
部品1
100
AcDbLine
 10
11183.14907018794
 20
4002.546703484715
 30
0.0
 11
11183.14907018794
 21
3905.135635976143
 31
0.0
  0
LINE
  5
18AFF
330
747D
100
AcDbEntity
  8
部品1
100
AcDbLine
 10
11306.64907018792
 20
3983.146703484699
 30
0.0
 11
11195.14907018793
 21
3983.146703484699
 31
0.0
  0
LINE
  5
18B00
330
747D
100
AcDbEntity
  8
部品1
100
AcDbLine
 10
11390.21969818113
 20
3983.146703484696
 30
0.0
 11
11349.64907018792
 21
3983.146703484696
 31
0.0
  0
LINE
  5
18B01
330
747D
100
AcDbEntity
  8
部品1
 48
50.0
100
AcDbLine
 10
11347.14907018792
 20
4002.5467034847
 30
0.0
 11
11349.64907018792
 21
3983.146703484699
 31
0.0
  0
LINE
  5
18B02
330
747D
100
AcDbEntity
  8
部品1
 48
50.0
100
AcDbLine
 10
11307.93772998174
 20
3993.1467034847
 30
0.0
 11
11306.64907018792
 21
3983.146703484699
 31
0.0
  0
LINE
  5
18B03
330
747D
100
AcDbEntity
  8
部品1
 48
50.0
100
AcDbLine
 10
11307.93772998174
 20
3993.1467034847
 30
0.0
 11
11321.93772998174
 21
3993.1467034847
 31
0.0
  0
LINE
  5
18B04
330
747D
100
AcDbEntity
  8
部品1
 48
50.0
100
AcDbLine
 10
11323.14907018793
 20
4002.5467034847
 30
0.0
 11
11321.93772998174
 21
3993.1467034847
 31
0.0
  0
LINE
  5
18B05
330
747D
100
AcDbEntity
  8
細線
 48
50.0
100
AcDbLine
 10
11390.21969818113
 20
3924.518536224178
 30
0.0
 11
11438.28293946508
 21
3924.518536224185
 31
0.0
  0
LINE
  5
18B06
330
747D
100
AcDbEntity
  8
細線
 48
50.0
100
AcDbLine
 10
11407.66016009221
 20
3952.546703476228
 30
0.0
 11
11407.66016009221
 21
3826.046703476228
 31
0.0
  0
ARC
  5
18B07
330
747D
100
AcDbEntity
  8
部品1
100
AcDbCircle
 10
11433.16302637072
 20
4000.546703493126
 30
0.0
 40
7.0
100
AcDbArc
 50
356.3813705198622
 51
90.0
  0
LINE
  5
18B08
330
747D
100
AcDbEntity
  8
部品1
100
AcDbLine
 10
11395.21969818113
 20
4007.546703493126
 30
0.0
 11
11433.16302637072
 21
4007.546703493126
 31
0.0
  0
ARC
  5
18B09
330
747D
100
AcDbEntity
  8
部品1
100
AcDbCircle
 10
11395.21969818113
 20
4002.546703493126
 30
0.0
 40
5.0
100
AcDbArc
 50
90.0
 51
180.0
  0
LINE
  5
18B0A
330
747D
100
AcDbEntity
  8
部品1
 48
50.0
100
AcDbLine
 10
11440.14907018792
 20
3945.104898333639
 30
0.0
 11
11440.14907018792
 21
4000.104898350537
 31
0.0
  0
LINE
  5
18B0B
330
747D
100
AcDbEntity
  8
部品1
100
AcDbLine
 10
11390.21969818113
 20
4002.546703493126
 30
0.0
 11
11390.21969818113
 21
3905.135635976125
 31
0.0
  0
ARC
  5
18B0C
330
747D
100
AcDbEntity
  8
部品1
100
AcDbCircle
 10
11395.21969818113
 20
3947.546703476228
 30
0.0
 40
5.0
100
AcDbArc
 50
90.0
 51
180.0
  0
LINE
  5
18B0D
330
747D
100
AcDbEntity
  8
部品1
100
AcDbLine
 10
11395.21969818113
 20
3952.546703476228
 30
0.0
 11
11433.16302637072
 21
3952.546703476228
 31
0.0
  0
LINE
  5
18B0E
330
747D
100
AcDbEntity
  8
部品1
100
AcDbLine
 10
11438.88853212936
 20
3925.172640282557
 30
0.0
 11
11440.14907018792
 21
3945.104898333639
 31
0.0
  0
LINE
  5
18B0F
330
747D
100
AcDbEntity
  8
部品1
100
AcDbLine
 10
11427.02245934196
 20
3832.604898333638
 30
0.0
 11
11427.69478504654
 21
3843.23604853734
 31
0.0
  0
ARC
  5
18B10
330
747D
100
AcDbEntity
  8
部品1
100
AcDbCircle
 10
11433.16302637072
 20
3945.546703476228
 30
0.0
 40
7.0
100
AcDbArc
 50
356.3813705198622
 51
90.0
  0
ARC
  5
18B11
330
747D
100
AcDbEntity
  8
部品1
100
AcDbCircle
 10
11420.03641552474
 20
3833.046703476228
 30
0.0
 40
7.0
100
AcDbArc
 50
270.0
 51
356.3813705198622
  0
ARC
  5
18B12
330
747D
100
AcDbEntity
  8
部品1
100
AcDbCircle
 10
11430.68880382534
 20
3843.046703476228
 30
0.0
 40
3.0
100
AcDbArc
 50
90.0
 51
176.3813705198622
  0
ARC
  5
18B13
330
747D
100
AcDbEntity
  8
部品1
100
AcDbCircle
 10
11430.21950770015
 20
3846.716820796817
 30
0.0
 40
0.7
100
AcDbArc
 50
277.2868405166456
 51
356.3813705198622
  0
LINE
  5
18B14
330
747D
100
AcDbEntity
  8
部品1
100
AcDbLine
 10
11435.66520509403
 20
3921.736048537339
 30
0.0
 11
11430.91811208187
 21
3846.672640282557
 31
0.0
  0
ARC
  5
18B15
330
747D
100
AcDbEntity
  8
部品1
100
AcDbCircle
 10
11438.65922387283
 20
3921.546703476228
 30
0.0
 40
3.0
100
AcDbArc
 50
90.0
 51
176.3813705198622
  0
ARC
  5
18B16
330
747D
100
AcDbEntity
  8
部品1
100
AcDbCircle
 10
11438.18992774764
 20
3925.216820796817
 30
0.0
 40
0.7
100
AcDbArc
 50
277.2868405166456
 51
356.3813705198622
  0
LINE
  5
18B17
330
747D
100
AcDbEntity
  8
部品1
 48
50.0
100
AcDbLine
 10
11395.21969818113
 20
3952.546703476228
 30
0.0
 11
11433.16302637072
 21
3952.546703476228
 31
0.0
  0
LINE
  5
18B18
330
747D
100
AcDbEntity
  8
部品1
 48
50.0
100
AcDbLine
 10
11323.14907018793
 20
4002.5467034847
 30
0.0
 11
11347.14907018792
 21
4002.5467034847
 31
0.0
  0
LINE
  5
18B19
330
747D
100
AcDbEntity
  8
部品1
100
AcDbLine
 10
11344.14907018792
 20
4002.5467034847
 30
0.0
 11
11344.14907018792
 21
3905.135635976125
 31
0.0
  0
LINE
  5
18B1A
330
747D
100
AcDbEntity
  8
部品1
100
AcDbLine
 10
11326.14907018792
 20
4002.546703484689
 30
0.0
 11
11326.14907018792
 21
3905.135635976125
 31
0.0
  0
DIMENSION
  5
18B1B
330
747D
100
AcDbEntity
  8
寸法
 48
50.0
100
AcDbDimension
  2
*D14
 10
11390.14907018793
 20
4406.639872815701
 30
0.0
 11
11753.63435156217
 21
4406.639872815701
 31
0.0
 70
   160
 71
     5
 42
50.0
  3
INABA_S40G
100
AcDbAlignedDimension
 13
11440.14907018793
 23
4007.54670347623
 33
0.0
 14
11390.14907018793
 24
4007.546703476233
 34
0.0
100
AcDbRotatedDimension
  0
LINE
  5
18B1C
330
747D
100
AcDbEntity
  8
部品1
100
AcDbLine
 10
10886.64907018793
 20
3983.146703484699
 30
0.0
 11
10775.14907018794
 21
3983.146703484699
 31
0.0
  0
LINE
  5
18B1D
330
747D
100
AcDbEntity
  8
部品1
100
AcDbLine
 10
10763.14907018794
 20
4002.546703484715
 30
0.0
 11
10763.14907018794
 21
3905.135635976143
 31
0.0
  0
LINE
  5
18B1E
330
747D
100
AcDbEntity
  8
部品1
100
AcDbLine
 10
10738.14907018794
 20
4002.546703484715
 30
0.0
 11
10738.14907018794
 21
3905.135635976143
 31
0.0
  0
LINE
  5
18B1F
330
747D
100
AcDbEntity
  8
部品1
100
AcDbLine
 10
10665.14907018794
 20
4002.546703484715
 30
0.0
 11
10665.14907018794
 21
3905.135635976143
 31
0.0
  0
LINE
  5
18B20
330
747D
100
AcDbEntity
  8
部品1
100
AcDbLine
 10
10690.14907018794
 20
4002.546703484715
 30
0.0
 11
10690.14907018794
 21
3905.135635976143
 31
0.0
  0
LINE
  5
18B21
330
747D
100
AcDbEntity
  8
部品1
 48
50.0
100
AcDbLine
 10
10736.64907018793
 20
4002.546703484719
 30
0.0
 11
10764.64907018793
 21
4002.546703484719
 31
0.0
  0
LINE
  5
18B22
330
747D
100
AcDbEntity
  8
部品1
 48
50.0
100
AcDbLine
 10
10764.64907018793
 20
4002.546703484719
 30
0.0
 11
10775.14907018793
 21
3983.146703484717
 31
0.0
  0
LINE
  5
18B23
330
747D
100
AcDbEntity
  8
部品1
 48
50.0
100
AcDbLine
 10
10736.64907018793
 20
4002.546703484719
 30
0.0
 11
10726.14907018793
 21
3983.146703484717
 31
0.0
  0
LINE
  5
18B24
330
747D
100
AcDbEntity
  8
部品1
 48
50.0
100
AcDbLine
 10
10663.64907018793
 20
4002.546703484719
 30
0.0
 11
10691.64907018793
 21
4002.546703484719
 31
0.0
  0
LINE
  5
18B25
330
747D
100
AcDbEntity
  8
部品1
 48
50.0
100
AcDbLine
 10
10663.64907018793
 20
4002.546703484719
 30
0.0
 11
10653.14907018793
 21
3983.146703484717
 31
0.0
  0
LINE
  5
18B26
330
747D
100
AcDbEntity
  8
部品1
 48
50.0
100
AcDbLine
 10
10691.64907018793
 20
4002.546703484719
 30
0.0
 11
10702.14907018793
 21
3983.146703484717
 31
0.0
  0
LINE
  5
18B27
330
747D
100
AcDbEntity
  8
部品1
100
AcDbLine
 10
10726.14907018793
 20
3983.146703484714
 30
0.0
 11
10702.14907018793
 21
3983.146703484714
 31
0.0
  0
LINE
  5
18B28
330
747D
100
AcDbEntity
  8
部品1
100
AcDbLine
 10
10653.14907018793
 20
3983.146703484714
 30
0.0
 11
10509.64907018793
 21
3983.146703484714
 31
0.0
  0
LINE
  5
18B29
330
747D
100
AcDbEntity
  8
部品1
 48
50.0
100
AcDbLine
 10
10507.14907018793
 20
4002.546703484715
 30
0.0
 11
10509.64907018793
 21
3983.146703484714
 31
0.0
  0
LINE
  5
18B2A
330
747D
100
AcDbEntity
  8
部品1
 48
50.0
100
AcDbLine
 10
10467.93772998174
 20
3993.146703484714
 30
0.0
 11
10466.64907018793
 21
3983.146703484714
 31
0.0
  0
LINE
  5
18B2B
330
747D
100
AcDbEntity
  8
部品1
 48
50.0
100
AcDbLine
 10
10467.93772998174
 20
3993.146703484714
 30
0.0
 11
10481.93772998174
 21
3993.146703484714
 31
0.0
  0
LINE
  5
18B2C
330
747D
100
AcDbEntity
  8
部品1
 48
50.0
100
AcDbLine
 10
10483.14907018793
 20
4002.546703484715
 30
0.0
 11
10481.93772998174
 21
3993.146703484714
 31
0.0
  0
LINE
  5
18B2D
330
747D
100
AcDbEntity
  8
部品1
 48
50.0
100
AcDbLine
 10
10483.14907018793
 20
4002.546703484715
 30
0.0
 11
10507.14907018793
 21
4002.546703484715
 31
0.0
  0
LINE
  5
18B2E
330
747D
100
AcDbEntity
  8
部品1
100
AcDbLine
 10
10504.14907018792
 20
4002.546703484715
 30
0.0
 11
10504.14907018792
 21
3905.135635976139
 31
0.0
  0
LINE
  5
18B2F
330
747D
100
AcDbEntity
  8
部品1
100
AcDbLine
 10
10486.14907018792
 20
4002.546703484704
 30
0.0
 11
10486.14907018792
 21
3905.135635976139
 31
0.0
  0
LINE
  5
18B30
330
747D
100
AcDbEntity
  8
部品1
100
AcDbLine
 10
10066.14907018794
 20
4002.546703484693
 30
0.0
 11
10066.14907018794
 21
3905.135635976129
 31
0.0
  0
LINE
  5
18B31
330
747D
100
AcDbEntity
  8
部品1
100
AcDbLine
 10
10084.14907018794
 20
4002.546703484704
 30
0.0
 11
10084.14907018794
 21
3905.135635976129
 31
0.0
  0
LINE
  5
18B32
330
747D
100
AcDbEntity
  8
部品1
 48
50.0
100
AcDbLine
 10
10063.14907018795
 20
4002.546703484704
 30
0.0
 11
10087.14907018795
 21
4002.546703484704
 31
0.0
  0
LINE
  5
18B33
330
747D
100
AcDbEntity
  8
部品1
 48
50.0
100
AcDbLine
 10
10063.14907018795
 20
4002.546703484704
 30
0.0
 11
10061.93772998176
 21
3993.146703484703
 31
0.0
  0
LINE
  5
18B34
330
747D
100
AcDbEntity
  8
部品1
 48
50.0
100
AcDbLine
 10
10047.93772998176
 20
3993.146703484703
 30
0.0
 11
10061.93772998176
 21
3993.146703484703
 31
0.0
  0
LINE
  5
18B35
330
747D
100
AcDbEntity
  8
部品1
 48
50.0
100
AcDbLine
 10
10047.93772998176
 20
3993.146703484703
 30
0.0
 11
10046.64907018795
 21
3983.146703484703
 31
0.0
  0
LINE
  5
18B36
330
747D
100
AcDbEntity
  8
部品1
 48
50.0
100
AcDbLine
 10
10087.14907018795
 20
4002.546703484704
 30
0.0
 11
10089.64907018795
 21
3983.146703484703
 31
0.0
  0
LINE
  5
18B37
330
747D
100
AcDbEntity
  8
部品1
100
AcDbLine
 10
10233.14907018795
 20
3983.146703484703
 30
0.0
 11
10089.64907018794
 21
3983.146703484703
 31
0.0
  0
LINE
  5
18B38
330
747D
100
AcDbEntity
  8
部品1
100
AcDbLine
 10
10306.14907018794
 20
3983.146703484703
 30
0.0
 11
10282.14907018795
 21
3983.146703484703
 31
0.0
  0
LINE
  5
18B39
330
747D
100
AcDbEntity
  8
部品1
 48
50.0
100
AcDbLine
 10
10271.64907018795
 20
4002.546703484708
 30
0.0
 11
10282.14907018795
 21
3983.146703484706
 31
0.0
  0
LINE
  5
18B3A
330
747D
100
AcDbEntity
  8
部品1
 48
50.0
100
AcDbLine
 10
10243.64907018795
 20
4002.546703484708
 30
0.0
 11
10233.14907018795
 21
3983.146703484706
 31
0.0
  0
LINE
  5
18B3B
330
747D
100
AcDbEntity
  8
部品1
 48
50.0
100
AcDbLine
 10
10243.64907018795
 20
4002.546703484708
 30
0.0
 11
10271.64907018794
 21
4002.546703484708
 31
0.0
  0
LINE
  5
18B3C
330
747D
100
AcDbEntity
  8
部品1
 48
50.0
100
AcDbLine
 10
10316.64907018795
 20
4002.546703484708
 30
0.0
 11
10306.14907018795
 21
3983.146703484706
 31
0.0
  0
LINE
  5
18B3D
330
747D
100
AcDbEntity
  8
部品1
 48
50.0
100
AcDbLine
 10
10344.64907018795
 20
4002.546703484708
 30
0.0
 11
10355.14907018795
 21
3983.146703484706
 31
0.0
  0
LINE
  5
18B3E
330
747D
100
AcDbEntity
  8
部品1
 48
50.0
100
AcDbLine
 10
10316.64907018795
 20
4002.546703484708
 30
0.0
 11
10344.64907018795
 21
4002.546703484708
 31
0.0
  0
LINE
  5
18B3F
330
747D
100
AcDbEntity
  8
部品1
100
AcDbLine
 10
10270.14907018795
 20
4002.546703484704
 30
0.0
 11
10270.14907018795
 21
3905.135635976132
 31
0.0
  0
LINE
  5
18B40
330
747D
100
AcDbEntity
  8
部品1
100
AcDbLine
 10
10245.14907018795
 20
4002.546703484704
 30
0.0
 11
10245.14907018795
 21
3905.135635976132
 31
0.0
  0
LINE
  5
18B41
330
747D
100
AcDbEntity
  8
部品1
100
AcDbLine
 10
10318.14907018796
 20
4002.546703484704
 30
0.0
 11
10318.14907018796
 21
3905.135635976132
 31
0.0
  0
LINE
  5
18B42
330
747D
100
AcDbEntity
  8
部品1
100
AcDbLine
 10
10343.14907018796
 20
4002.546703484704
 30
0.0
 11
10343.14907018796
 21
3905.135635976132
 31
0.0
  0
LINE
  5
18B43
330
747D
100
AcDbEntity
  8
部品1
100
AcDbLine
 10
10466.64907018794
 20
3983.146703484688
 30
0.0
 11
10355.14907018796
 21
3983.146703484688
 31
0.0
  0
LINE
  5
18B44
330
747D
100
AcDbEntity
  8
部品1
100
AcDbLine
 10
9923.149070187957
 20
4002.5467034847
 30
0.0
 11
9923.149070187958
 21
3905.135635976129
 31
0.0
  0
LINE
  5
18B45
330
747D
100
AcDbEntity
  8
部品1
100
AcDbLine
 10
9898.149070187956
 20
4002.5467034847
 30
0.0
 11
9898.149070187958
 21
3905.135635976129
 31
0.0
  0
LINE
  5
18B46
330
747D
100
AcDbEntity
  8
部品1
100
AcDbLine
 10
9825.149070187956
 20
4002.5467034847
 30
0.0
 11
9825.149070187956
 21
3905.135635976129
 31
0.0
  0
LINE
  5
18B47
330
747D
100
AcDbEntity
  8
部品1
100
AcDbLine
 10
9850.149070187956
 20
4002.5467034847
 30
0.0
 11
9850.149070187956
 21
3905.135635976129
 31
0.0
  0
LINE
  5
18B48
330
747D
100
AcDbEntity
  8
部品1
100
AcDbLine
 10
9813.149070187945
 20
3983.146703484699
 30
0.0
 11
9669.649070187945
 21
3983.146703484699
 31
0.0
  0
LINE
  5
18B49
330
747D
100
AcDbEntity
  8
部品1
100
AcDbLine
 10
10046.64907018794
 20
3983.146703484685
 30
0.0
 11
9935.149070187955
 21
3983.146703484685
 31
0.0
  0
LINE
  5
18B4A
330
747D
100
AcDbEntity
  8
部品1
 48
50.0
100
AcDbLine
 10
9896.649070187947
 20
4002.546703484704
 30
0.0
 11
9924.649070187946
 21
4002.546703484704
 31
0.0
  0
LINE
  5
18B4B
330
747D
100
AcDbEntity
  8
部品1
 48
50.0
100
AcDbLine
 10
9924.649070187948
 20
4002.546703484704
 30
0.0
 11
9935.149070187948
 21
3983.146703484703
 31
0.0
  0
LINE
  5
18B4C
330
747D
100
AcDbEntity
  8
部品1
 48
50.0
100
AcDbLine
 10
9896.649070187947
 20
4002.546703484704
 30
0.0
 11
9886.149070187949
 21
3983.146703484703
 31
0.0
  0
LINE
  5
18B4D
330
747D
100
AcDbEntity
  8
部品1
 48
50.0
100
AcDbLine
 10
9823.649070187949
 20
4002.546703484704
 30
0.0
 11
9851.649070187946
 21
4002.546703484704
 31
0.0
  0
LINE
  5
18B4E
330
747D
100
AcDbEntity
  8
部品1
 48
50.0
100
AcDbLine
 10
9823.649070187949
 20
4002.546703484704
 30
0.0
 11
9813.149070187948
 21
3983.146703484703
 31
0.0
  0
LINE
  5
18B4F
330
747D
100
AcDbEntity
  8
部品1
 48
50.0
100
AcDbLine
 10
9851.649070187949
 20
4002.546703484704
 30
0.0
 11
9862.149070187948
 21
3983.146703484703
 31
0.0
  0
LINE
  5
18B50
330
747D
100
AcDbEntity
  8
部品1
100
AcDbLine
 10
9886.149070187945
 20
3983.146703484699
 30
0.0
 11
9862.149070187948
 21
3983.146703484699
 31
0.0
  0
LINE
  5
18B51
330
747D
100
AcDbEntity
  8
部品1
 48
50.0
100
AcDbLine
 10
8322.637980283666
 20
3905.135635976125
 30
0.0
 11
11407.66016009221
 21
3905.135635976125
 31
0.0
  0
LINE
  5
18B52
330
747D
100
AcDbEntity
  8
部品1
 48
50.0
100
AcDbLine
 10
9667.149070187949
 20
4002.5467034847
 30
0.0
 11
9669.649070187949
 21
3983.146703484699
 31
0.0
  0
LINE
  5
18B53
330
747D
100
AcDbEntity
  8
部品1
 48
50.0
100
AcDbLine
 10
9627.937729981763
 20
3993.1467034847
 30
0.0
 11
9626.64907018795
 21
3983.146703484699
 31
0.0
  0
LINE
  5
18B54
330
747D
100
AcDbEntity
  8
部品1
 48
50.0
100
AcDbLine
 10
9627.937729981763
 20
3993.1467034847
 30
0.0
 11
9641.937729981762
 21
3993.1467034847
 31
0.0
  0
LINE
  5
18B55
330
747D
100
AcDbEntity
  8
部品1
 48
50.0
100
AcDbLine
 10
9643.149070187948
 20
4002.5467034847
 30
0.0
 11
9641.937729981762
 21
3993.1467034847
 31
0.0
  0
LINE
  5
18B56
330
747D
100
AcDbEntity
  8
部品1
 48
50.0
100
AcDbLine
 10
9643.149070187948
 20
4002.5467034847
 30
0.0
 11
9667.149070187949
 21
4002.5467034847
 31
0.0
  0
LINE
  5
18B57
330
747D
100
AcDbEntity
  8
部品1
100
AcDbLine
 10
9664.149070187942
 20
4002.5467034847
 30
0.0
 11
9664.149070187942
 21
3905.135635976125
 31
0.0
  0
LINE
  5
18B58
330
747D
100
AcDbEntity
  8
部品1
100
AcDbLine
 10
9646.149070187941
 20
4002.546703484689
 30
0.0
 11
9646.149070187941
 21
3905.135635976125
 31
0.0
  0
LINE
  5
18B59
330
747D
100
AcDbEntity
  8
細線
 48
50.0
100
AcDbLine
 10
8340.078442194739
 20
3924.518536224178
 30
0.0
 11
8292.015200910794
 21
3924.518536224185
 31
0.0
  0
LINE
  5
18B5A
330
747D
100
AcDbEntity
  8
細線
 48
50.0
100
AcDbLine
 10
8322.637980283664
 20
3952.546703476228
 30
0.0
 11
8322.637980283664
 21
3826.046703476228
 31
0.0
  0
LINE
  5
18B5B
330
747D
100
AcDbEntity
  8
細線
 48
50.0
100
AcDbLine
 10
11430.92742786099
 20
3846.819946040009
 30
0.0
 11
8300.032661820464
 21
3846.819946040014
 31
0.0
  0
ARC
  5
18B5C
330
747D
100
AcDbEntity
  8
部品1
100
AcDbCircle
 10
8297.135114005158
 20
4000.546703493126
 30
0.0
 40
7.0
100
AcDbArc
 50
90.0
 51
183.6186294801377
  0
LINE
  5
18B5D
330
747D
100
AcDbEntity
  8
部品1
100
AcDbLine
 10
8335.07844219474
 20
4007.546703493126
 30
0.0
 11
8297.135114005158
 21
4007.546703493126
 31
0.0
  0
ARC
  5
18B5E
330
747D
100
AcDbEntity
  8
部品1
100
AcDbCircle
 10
8335.07844219474
 20
4002.546703493126
 30
0.0
 40
5.0
100
AcDbArc
 50
0.0
 51
90.0
  0
LINE
  5
18B5F
330
747D
100
AcDbEntity
  8
部品1
 48
50.0
100
AcDbLine
 10
8290.149070187947
 20
3945.104898333639
 30
0.0
 11
8290.149070187947
 21
4000.104898350537
 31
0.0
  0
LINE
  5
18B60
330
747D
100
AcDbEntity
  8
部品1
100
AcDbLine
 10
11420.03641552474
 20
3826.046703476228
 30
0.0
 11
8310.261724851129
 21
3826.046703476228
 31
0.0
  0
LINE
  5
18B61
330
747D
100
AcDbEntity
  8
部品1
100
AcDbLine
 10
8340.078442194741
 20
4002.546703493126
 30
0.0
 11
8340.078442194739
 21
3905.142674803558
 31
0.0
  0
ARC
  5
18B62
330
747D
100
AcDbEntity
  8
部品1
100
AcDbCircle
 10
8335.07844219474
 20
3947.546703476228
 30
0.0
 40
5.0
100
AcDbArc
 50
0.0
 51
90.0
  0
LINE
  5
18B63
330
747D
100
AcDbEntity
  8
部品1
100
AcDbLine
 10
8335.07844219474
 20
3952.546703476228
 30
0.0
 11
8297.135114005158
 21
3952.546703476228
 31
0.0
  0
LINE
  5
18B64
330
747D
100
AcDbEntity
  8
部品1
100
AcDbLine
 10
8291.409608246514
 20
3925.172640282557
 30
0.0
 11
8290.149070187947
 21
3945.104898333639
 31
0.0
  0
LINE
  5
18B65
330
747D
100
AcDbEntity
  8
部品1
100
AcDbLine
 10
8303.275681033918
 20
3832.604898333638
 30
0.0
 11
8302.603355329337
 21
3843.23604853734
 31
0.0
  0
ARC
  5
18B66
330
747D
100
AcDbEntity
  8
部品1
100
AcDbCircle
 10
8297.135114005158
 20
3945.546703476228
 30
0.0
 40
7.0
100
AcDbArc
 50
90.0
 51
183.6186294801377
  0
ARC
  5
18B67
330
747D
100
AcDbEntity
  8
部品1
100
AcDbCircle
 10
8310.261724851129
 20
3833.046703476228
 30
0.0
 40
7.0
100
AcDbArc
 50
183.6186294801377
 51
270.0
  0
ARC
  5
18B68
330
747D
100
AcDbEntity
  8
部品1
100
AcDbCircle
 10
8299.609336550531
 20
3843.046703476228
 30
0.0
 40
3.0
100
AcDbArc
 50
3.618629480137788
 51
90.0
  0
ARC
  5
18B69
330
747D
100
AcDbEntity
  8
部品1
100
AcDbCircle
 10
8300.078632675726
 20
3846.716820796817
 30
0.0
 40
0.7
100
AcDbArc
 50
183.6186294801377
 51
262.7131594833544
  0
LINE
  5
18B6A
330
747D
100
AcDbEntity
  8
部品1
100
AcDbLine
 10
8294.632935281844
 20
3921.736048537339
 30
0.0
 11
8299.380028294004
 21
3846.672640282557
 31
0.0
  0
ARC
  5
18B6B
330
747D
100
AcDbEntity
  8
部品1
100
AcDbCircle
 10
8291.638916503039
 20
3921.546703476228
 30
0.0
 40
3.0
100
AcDbArc
 50
3.618629480137788
 51
90.0
  0
ARC
  5
18B6C
330
747D
100
AcDbEntity
  8
部品1
100
AcDbCircle
 10
8292.108212628233
 20
3925.216820796817
 30
0.0
 40
0.7
100
AcDbArc
 50
183.6186294801377
 51
262.7131594833544
  0
LINE
  5
18B6D
330
747D
100
AcDbEntity
  8
部品1
 48
50.0
100
AcDbLine
 10
8335.07844219474
 20
3952.546703476228
 30
0.0
 11
8297.135114005158
 21
3952.546703476228
 31
0.0
  0
LINE
  5
18B6E
330
747D
100
AcDbEntity
  8
部品1
100
AcDbLine
 10
9626.649070187944
 20
3983.146703484681
 30
0.0
 11
9515.149070187954
 21
3983.146703484681
 31
0.0
  0
LINE
  5
18B6F
330
747D
100
AcDbEntity
  8
部品1
100
AcDbLine
 10
11395.21940742867
 20
4007.546703484671
 30
0.0
 11
8314.581230568853
 21
4007.546703484701
 31
0.0
  0
LINE
  5
18B70
330
747D
100
AcDbEntity
  8
部品1
 48
50.0
100
AcDbLine
 10
8787.937729981759
 20
3993.1467034847
 30
0.0
 11
8801.937729981759
 21
3993.1467034847
 31
0.0
  0
LINE
  5
18B71
330
747D
100
AcDbEntity
  8
部品1
100
AcDbLine
 10
8553.149070187947
 20
3983.146703484696
 30
0.0
 11
8409.649070187946
 21
3983.146703484699
 31
0.0
  0
LINE
  5
18B72
330
747D
100
AcDbEntity
  8
部品1
 48
50.0
100
AcDbLine
 10
8407.149070187946
 20
4002.5467034847
 30
0.0
 11
8383.149070187947
 21
4002.5467034847
 31
0.0
  0
LINE
  5
18B73
330
747D
100
AcDbEntity
  8
部品1
 48
50.0
100
AcDbLine
 10
8383.149070187947
 20
4002.5467034847
 30
0.0
 11
8381.937729981759
 21
3993.1467034847
 31
0.0
  0
LINE
  5
18B74
330
747D
100
AcDbEntity
  8
部品1
 48
50.0
100
AcDbLine
 10
8367.937729981759
 20
3993.1467034847
 30
0.0
 11
8366.649070187946
 21
3983.146703484699
 31
0.0
  0
LINE
  5
18B75
330
747D
100
AcDbEntity
  8
部品1
 48
50.0
100
AcDbLine
 10
8367.937729981759
 20
3993.1467034847
 30
0.0
 11
8381.937729981759
 21
3993.1467034847
 31
0.0
  0
LINE
  5
18B76
330
747D
100
AcDbEntity
  8
部品1
100
AcDbLine
 10
8366.649070187946
 20
3983.146703484699
 30
0.0
 11
8340.149070187946
 21
3983.146703484699
 31
0.0
  0
LINE
  5
18B77
330
747D
100
AcDbEntity
  8
部品1
 48
50.0
100
AcDbLine
 10
8407.149070187946
 20
4002.5467034847
 30
0.0
 11
8409.649070187946
 21
3983.146703484699
 31
0.0
  0
LINE
  5
18B78
330
747D
100
AcDbEntity
  8
部品1
100
AcDbLine
 10
8386.149070187954
 20
4002.5467034847
 30
0.0
 11
8386.149070187956
 21
3905.135635976125
 31
0.0
  0
LINE
  5
18B79
330
747D
100
AcDbEntity
  8
部品1
100
AcDbLine
 10
8404.149070187953
 20
4002.546703484689
 30
0.0
 11
8404.149070187953
 21
3905.135635976125
 31
0.0
  0
LINE
  5
18B7A
330
747D
100
AcDbEntity
  8
部品1
 48
50.0
100
AcDbLine
 10
8636.649070187948
 20
4002.5467034847
 30
0.0
 11
8626.149070187947
 21
3983.146703484699
 31
0.0
  0
LINE
  5
18B7B
330
747D
100
AcDbEntity
  8
部品1
 48
50.0
100
AcDbLine
 10
8563.649070187947
 20
4002.5467034847
 30
0.0
 11
8591.649070187942
 21
4002.5467034847
 31
0.0
  0
LINE
  5
18B7C
330
747D
100
AcDbEntity
  8
部品1
 48
50.0
100
AcDbLine
 10
8563.649070187947
 20
4002.5467034847
 30
0.0
 11
8553.149070187947
 21
3983.146703484699
 31
0.0
  0
LINE
  5
18B7D
330
747D
100
AcDbEntity
  8
部品1
100
AcDbLine
 10
8565.149070187954
 20
4002.546703484696
 30
0.0
 11
8565.149070187953
 21
3905.135635976125
 31
0.0
  0
LINE
  5
18B7E
330
747D
100
AcDbEntity
  8
部品1
 48
50.0
100
AcDbLine
 10
8591.649070187946
 20
4002.5467034847
 30
0.0
 11
8602.149070187946
 21
3983.146703484699
 31
0.0
  0
LINE
  5
18B7F
330
747D
100
AcDbEntity
  8
部品1
100
AcDbLine
 10
8590.149070187953
 20
4002.546703484696
 30
0.0
 11
8590.149070187955
 21
3905.135635976125
 31
0.0
  0
LINE
  5
18B80
330
747D
100
AcDbEntity
  8
部品1
100
AcDbLine
 10
8626.149070187942
 20
3983.146703484696
 30
0.0
 11
8602.149070187946
 21
3983.146703484699
 31
0.0
  0
LINE
  5
18B81
330
747D
100
AcDbEntity
  8
部品1
 48
50.0
100
AcDbLine
 10
8787.937729981759
 20
3993.1467034847
 30
0.0
 11
8786.649070187946
 21
3983.146703484699
 31
0.0
  0
LINE
  5
18B82
330
747D
100
AcDbEntity
  8
部品1
 48
50.0
100
AcDbLine
 10
8636.649070187948
 20
4002.5467034847
 30
0.0
 11
8664.649070187943
 21
4002.5467034847
 31
0.0
  0
LINE
  5
18B83
330
747D
100
AcDbEntity
  8
部品1
 48
50.0
100
AcDbLine
 10
8664.649070187946
 20
4002.5467034847
 30
0.0
 11
8675.149070187947
 21
3983.146703484699
 31
0.0
  0
LINE
  5
18B84
330
747D
100
AcDbEntity
  8
部品1
100
AcDbLine
 10
8663.149070187953
 20
4002.546703484696
 30
0.0
 11
8663.149070187953
 21
3905.135635976125
 31
0.0
  0
LINE
  5
18B85
330
747D
100
AcDbEntity
  8
部品1
100
AcDbLine
 10
8638.149070187955
 20
4002.546703484696
 30
0.0
 11
8638.149070187955
 21
3905.135635976125
 31
0.0
  0
LINE
  5
18B86
330
747D
100
AcDbEntity
  8
部品1
100
AcDbLine
 10
8786.649070187946
 20
3983.146703484696
 30
0.0
 11
8675.149070187947
 21
3983.146703484696
 31
0.0
  0
LINE
  5
18B87
330
747D
100
AcDbEntity
  8
部品1
100
AcDbLine
 10
9466.149070187944
 20
3983.146703484696
 30
0.0
 11
9442.149070187946
 21
3983.146703484696
 31
0.0
  0
LINE
  5
18B88
330
747D
100
AcDbEntity
  8
部品1
100
AcDbLine
 10
9206.649070187948
 20
3983.146703484696
 30
0.0
 11
9095.149070187947
 21
3983.146703484696
 31
0.0
  0
LINE
  5
18B89
330
747D
100
AcDbEntity
  8
部品1
100
AcDbLine
 10
8973.149070187943
 20
3983.146703484696
 30
0.0
 11
8829.649070187944
 21
3983.146703484696
 31
0.0
  0
LINE
  5
18B8A
330
747D
100
AcDbEntity
  8
部品1
 48
50.0
100
AcDbLine
 10
8827.149070187948
 20
4002.5467034847
 30
0.0
 11
8829.649070187945
 21
3983.146703484699
 31
0.0
  0
LINE
  5
18B8B
330
747D
100
AcDbEntity
  8
部品1
 48
50.0
100
AcDbLine
 10
8803.149070187947
 20
4002.5467034847
 30
0.0
 11
8801.937729981759
 21
3993.1467034847
 31
0.0
  0
LINE
  5
18B8C
330
747D
100
AcDbEntity
  8
部品1
 48
50.0
100
AcDbLine
 10
8827.149070187948
 20
4002.5467034847
 30
0.0
 11
8803.149070187947
 21
4002.5467034847
 31
0.0
  0
LINE
  5
18B8D
330
747D
100
AcDbEntity
  8
部品1
100
AcDbLine
 10
8806.149070187954
 20
4002.546703484689
 30
0.0
 11
8806.149070187956
 21
3905.135635976125
 31
0.0
  0
LINE
  5
18B8E
330
747D
100
AcDbEntity
  8
部品1
100
AcDbLine
 10
8824.149070187955
 20
4002.546703484689
 30
0.0
 11
8824.149070187955
 21
3905.135635976125
 31
0.0
  0
LINE
  5
18B8F
330
747D
100
AcDbEntity
  8
部品1
 48
50.0
100
AcDbLine
 10
9056.649070187948
 20
4002.5467034847
 30
0.0
 11
9084.649070187943
 21
4002.5467034847
 31
0.0
  0
LINE
  5
18B90
330
747D
100
AcDbEntity
  8
部品1
 48
50.0
100
AcDbLine
 10
8983.649070187947
 20
4002.5467034847
 30
0.0
 11
9011.649070187942
 21
4002.5467034847
 31
0.0
  0
LINE
  5
18B91
330
747D
100
AcDbEntity
  8
部品1
 48
50.0
100
AcDbLine
 10
9056.649070187948
 20
4002.5467034847
 30
0.0
 11
9046.149070187947
 21
3983.146703484699
 31
0.0
  0
LINE
  5
18B92
330
747D
100
AcDbEntity
  8
部品1
 48
50.0
100
AcDbLine
 10
9011.649070187948
 20
4002.5467034847
 30
0.0
 11
9022.149070187946
 21
3983.146703484699
 31
0.0
  0
LINE
  5
18B93
330
747D
100
AcDbEntity
  8
部品1
100
AcDbLine
 10
9046.149070187942
 20
3983.146703484696
 30
0.0
 11
9022.149070187946
 21
3983.146703484696
 31
0.0
  0
LINE
  5
18B94
330
747D
100
AcDbEntity
  8
部品1
 48
50.0
100
AcDbLine
 10
8983.649070187947
 20
4002.5467034847
 30
0.0
 11
8973.149070187947
 21
3983.146703484699
 31
0.0
  0
LINE
  5
18B95
330
747D
100
AcDbEntity
  8
部品1
100
AcDbLine
 10
9058.149070187955
 20
4002.546703484696
 30
0.0
 11
9058.149070187955
 21
3905.135635976125
 31
0.0
  0
LINE
  5
18B96
330
747D
100
AcDbEntity
  8
部品1
100
AcDbLine
 10
9010.149070187955
 20
4002.546703484696
 30
0.0
 11
9010.149070187955
 21
3905.135635976125
 31
0.0
  0
LINE
  5
18B97
330
747D
100
AcDbEntity
  8
部品1
100
AcDbLine
 10
8985.149070187954
 20
4002.546703484696
 30
0.0
 11
8985.149070187954
 21
3905.135635976125
 31
0.0
  0
LINE
  5
18B98
330
747D
100
AcDbEntity
  8
部品1
 48
50.0
100
AcDbLine
 10
9084.649070187946
 20
4002.5467034847
 30
0.0
 11
9095.149070187947
 21
3983.146703484699
 31
0.0
  0
LINE
  5
18B99
330
747D
100
AcDbEntity
  8
部品1
100
AcDbLine
 10
9083.149070187955
 20
4002.546703484696
 30
0.0
 11
9083.149070187955
 21
3905.135635976125
 31
0.0
  0
LINE
  5
18B9A
330
747D
100
AcDbEntity
  8
部品1
100
AcDbLine
 10
9393.149070187943
 20
3983.146703484696
 30
0.0
 11
9249.649070187944
 21
3983.146703484696
 31
0.0
  0
LINE
  5
18B9B
330
747D
100
AcDbEntity
  8
部品1
 48
50.0
100
AcDbLine
 10
9247.149070187946
 20
4002.5467034847
 30
0.0
 11
9223.149070187947
 21
4002.5467034847
 31
0.0
  0
LINE
  5
18B9C
330
747D
100
AcDbEntity
  8
部品1
 48
50.0
100
AcDbLine
 10
9223.149070187947
 20
4002.5467034847
 30
0.0
 11
9221.937729981759
 21
3993.1467034847
 31
0.0
  0
LINE
  5
18B9D
330
747D
100
AcDbEntity
  8
部品1
 48
50.0
100
AcDbLine
 10
9207.937729981759
 20
3993.1467034847
 30
0.0
 11
9221.937729981759
 21
3993.1467034847
 31
0.0
  0
LINE
  5
18B9E
330
747D
100
AcDbEntity
  8
部品1
 48
50.0
100
AcDbLine
 10
9207.937729981759
 20
3993.1467034847
 30
0.0
 11
9206.649070187948
 21
3983.146703484699
 31
0.0
  0
LINE
  5
18B9F
330
747D
100
AcDbEntity
  8
部品1
100
AcDbLine
 10
9226.149070187954
 20
4002.546703484689
 30
0.0
 11
9226.149070187956
 21
3905.135635976125
 31
0.0
  0
LINE
  5
18BA0
330
747D
100
AcDbEntity
  8
部品1
 48
50.0
100
AcDbLine
 10
9247.149070187946
 20
4002.5467034847
 30
0.0
 11
9249.649070187947
 21
3983.146703484699
 31
0.0
  0
LINE
  5
18BA1
330
747D
100
AcDbEntity
  8
部品1
100
AcDbLine
 10
9244.149070187955
 20
4002.546703484689
 30
0.0
 11
9244.149070187956
 21
3905.135635976125
 31
0.0
  0
LINE
  5
18BA2
330
747D
100
AcDbEntity
  8
部品1
 48
50.0
100
AcDbLine
 10
9431.649070187948
 20
4002.5467034847
 30
0.0
 11
9442.149070187946
 21
3983.146703484699
 31
0.0
  0
LINE
  5
18BA3
330
747D
100
AcDbEntity
  8
部品1
100
AcDbLine
 10
9430.149070187955
 20
4002.546703484696
 30
0.0
 11
9430.149070187955
 21
3905.135635976125
 31
0.0
  0
LINE
  5
18BA4
330
747D
100
AcDbEntity
  8
部品1
 48
50.0
100
AcDbLine
 10
9403.649070187947
 20
4002.5467034847
 30
0.0
 11
9393.149070187947
 21
3983.146703484699
 31
0.0
  0
LINE
  5
18BA5
330
747D
100
AcDbEntity
  8
部品1
100
AcDbLine
 10
9405.149070187954
 20
4002.546703484696
 30
0.0
 11
9405.149070187954
 21
3905.135635976125
 31
0.0
  0
LINE
  5
18BA6
330
747D
100
AcDbEntity
  8
部品1
 48
50.0
100
AcDbLine
 10
9403.649070187947
 20
4002.5467034847
 30
0.0
 11
9431.649070187942
 21
4002.5467034847
 31
0.0
  0
LINE
  5
18BA7
330
747D
100
AcDbEntity
  8
部品1
 48
50.0
100
AcDbLine
 10
9476.649070187946
 20
4002.5467034847
 30
0.0
 11
9466.149070187947
 21
3983.146703484699
 31
0.0
  0
LINE
  5
18BA8
330
747D
100
AcDbEntity
  8
部品1
 48
50.0
100
AcDbLine
 10
9504.649070187946
 20
4002.5467034847
 30
0.0
 11
9515.149070187947
 21
3983.146703484699
 31
0.0
  0
LINE
  5
18BA9
330
747D
100
AcDbEntity
  8
部品1
 48
50.0
100
AcDbLine
 10
9476.649070187946
 20
4002.5467034847
 30
0.0
 11
9504.649070187943
 21
4002.5467034847
 31
0.0
  0
LINE
  5
18BAA
330
747D
100
AcDbEntity
  8
部品1
100
AcDbLine
 10
9478.149070187953
 20
4002.546703484696
 30
0.0
 11
9478.149070187956
 21
3905.135635976125
 31
0.0
  0
LINE
  5
18BAB
330
747D
100
AcDbEntity
  8
部品1
100
AcDbLine
 10
9503.149070187953
 20
4002.546703484696
 30
0.0
 11
9503.149070187957
 21
3905.135635976125
 31
0.0
  0
DIMENSION
  5
18BAC
330
747D
100
AcDbEntity
  8
寸法
 48
50.0
100
AcDbDimension
  2
*D15
 10
8290.14907018794
 20
4406.639872815701
 30
0.0
 11
7976.663788813692
 21
4406.639872815701
 31
0.0
 70
   160
 71
     5
 42
50.0
  3
INABA_S40G
100
AcDbAlignedDimension
 13
8340.149070187939
 23
4007.546703476234
 33
0.0
 14
8290.14907018794
 24
4007.546703476233
 34
0.0
100
AcDbRotatedDimension
1001
ACAD
1000
DSTYLE
1002
{
1002
}
  0
DIMENSION
  5
18BAD
330
747D
100
AcDbEntity
  8
寸法
 48
50.0
100
AcDbDimension
  2
*D16
 10
11440.14907018793
 20
4623.165972434146
 30
0.0
 11
9865.149070187939
 21
4623.165972434146
 31
0.0
 70
   160
 71
     5
 42
3149.999999999997
  3
INABA_S40G
100
AcDbAlignedDimension
 13
8290.14907018794
 23
4007.546703476233
 33
0.0
 14
11440.14907018793
 24
4007.54670347623
 34
0.0
100
AcDbRotatedDimension
  0
DIMENSION
  5
18BAE
330
747D
100
AcDbEntity
  8
寸法
 48
50.0
100
AcDbDimension
  2
*D17
 10
8340.149070187939
 20
4406.6398728157
 30
0.0
 11
9865.149070187939
 21
4406.6398728157
 31
0.0
 70
   160
  1
柱外寸法<>
 71
     5
 42
3049.999999999997
  3
INABA_S40G
100
AcDbAlignedDimension
 13
11390.14907018793
 23
4007.546703476233
 33
0.0
 14
8340.149070187939
 24
4007.546703476234
 34
0.0
100
AcDbRotatedDimension
  0
MTEXT
  5
18BAF
330
747D
100
AcDbEntity
  8
寸法
 62
     7
 48
50.0
100
AcDbMText
 10
9125.25160728105
 20
9303.199500697701
 30
0.0
 40
96.0
 41
0.0
 71
     5
 72
     1
  1
棚 2段
  7
STYLE1
 73
     1
 44
1.0
1001
ACAD
1000
MTEXTBEGIN
1070
    73
1070
     1
1070
    44
1040
1.0
1070
    74
1070
     0
1000
MTEXTEND
  0
LINE
  5
18BB0
330
747D
100
AcDbEntity
  8
部品1
 48
50.0
100
AcDbLine
 10
9622.149070187937
 20
3715.546703500996
 30
0.0
 11
9622.149070187937
 21
1982.546703476224
 31
0.0
  0
LINE
  5
18BB1
330
747D
100
AcDbEntity
  8
部品1
100
AcDbLine
 10
10276.14906049279
 20
3715.546703513379
 30
0.0
 11
10276.1490604928
 21
1990.046703513393
 31
0.0
  0
LINE
  5
18BB2
330
747D
100
AcDbEntity
  8
細線
100
AcDbLine
 10
9522.149070187939
 20
3715.546703476228
 30
0.0
 11
9522.149070187936
 21
1982.546703476235
 31
0.0
  0
LINE
  5
18BB3
330
747D
100
AcDbEntity
  8
細線
100
AcDbLine
 10
9452.149070187941
 20
3715.546703476228
 30
0.0
 11
9452.149070187935
 21
1982.546703476235
 31
0.0
  0
LINE
  5
18BB4
330
747D
100
AcDbEntity
  8
細線
100
AcDbLine
 10
9382.14907018794
 20
3715.546703476228
 30
0.0
 11
9382.149070187935
 21
1982.546703476231
 31
0.0
  0
LINE
  5
18BB5
330
747D
100
AcDbEntity
  8
細線
100
AcDbLine
 10
9312.14907018794
 20
3715.546703476228
 30
0.0
 11
9312.149070187935
 21
1982.546703476231
 31
0.0
  0
LINE
  5
18BB6
330
747D
100
AcDbEntity
  8
細線
100
AcDbLine
 10
9242.14907018794
 20
3715.546703476228
 30
0.0
 11
9242.149070187936
 21
1982.546703476231
 31
0.0
  0
LINE
  5
18BB7
330
747D
100
AcDbEntity
  8
細線
100
AcDbLine
 10
9172.14907018794
 20
3715.546703476228
 30
0.0
 11
9172.149070187936
 21
1982.546703476231
 31
0.0
  0
LINE
  5
18BB8
330
747D
100
AcDbEntity
  8
部品1
100
AcDbLine
 10
8988.149070187935
 20
3715.546703476228
 30
0.0
 11
8988.14907018794
 21
1982.546703476231
 31
0.0
  0
LINE
  5
18BB9
330
747D
100
AcDbEntity
  8
部品1
100
AcDbLine
 10
8938.149070187936
 20
3715.546703476228
 30
0.0
 11
8938.14907018794
 21
1982.546703476231
 31
0.0
  0
LINE
  5
18BBA
330
747D
100
AcDbEntity
  8
細線
100
AcDbLine
 10
8980.149070187936
 20
3715.546703476228
 30
0.0
 11
8980.149070187939
 21
1982.546703476231
 31
0.0
  0
LINE
  5
18BBB
330
747D
100
AcDbEntity
  8
細線
100
AcDbLine
 10
8946.149070187935
 20
3715.546703476228
 30
0.0
 11
8946.14907018794
 21
1982.546703476231
 31
0.0
  0
LINE
  5
18BBC
330
747D
100
AcDbEntity
  8
細線
100
AcDbLine
 10
10173.64907993818
 20
3715.546703476228
 30
0.0
 11
10173.64907993818
 21
1990.046703476238
 31
0.0
  0
LINE
  5
18BBD
330
747D
100
AcDbEntity
  8
細線
100
AcDbLine
 10
10103.64907993818
 20
3715.546703476228
 30
0.0
 11
10103.64907993818
 21
1990.046703476238
 31
0.0
  0
LINE
  5
18BBE
330
747D
100
AcDbEntity
  8
細線
100
AcDbLine
 10
10033.64907993818
 20
3715.546703476228
 30
0.0
 11
10033.64907993818
 21
1990.046703476238
 31
0.0
  0
LINE
  5
18BBF
330
747D
100
AcDbEntity
  8
細線
100
AcDbLine
 10
9963.649079938182
 20
3715.546703476228
 30
0.0
 11
9963.649079938182
 21
1990.046703476238
 31
0.0
  0
LINE
  5
18BC0
330
747D
100
AcDbEntity
  8
細線
100
AcDbLine
 10
9893.649079938182
 20
3715.546703476228
 30
0.0
 11
9893.649079938182
 21
1990.046703476238
 31
0.0
  0
LINE
  5
18BC1
330
747D
100
AcDbEntity
  8
細線
100
AcDbLine
 10
9823.649079938181
 20
3715.546703476228
 30
0.0
 11
9823.649079938181
 21
1990.046703476238
 31
0.0
  0
LINE
  5
18BC2
330
747D
100
AcDbEntity
  8
細線
100
AcDbLine
 10
10748.89907018794
 20
3715.546703476228
 30
0.0
 11
10748.89907018794
 21
1990.046703476246
 31
0.0
  0
LINE
  5
18BC3
330
747D
100
AcDbEntity
  8
細線
100
AcDbLine
 10
10678.89907018794
 20
3715.546703476228
 30
0.0
 11
10678.89907018794
 21
1990.046703476246
 31
0.0
  0
LINE
  5
18BC4
330
747D
100
AcDbEntity
  8
細線
100
AcDbLine
 10
10608.89907018794
 20
3715.546703476228
 30
0.0
 11
10608.89907018794
 21
1990.046703476246
 31
0.0
  0
LINE
  5
18BC5
330
747D
100
AcDbEntity
  8
細線
100
AcDbLine
 10
10538.89907018794
 20
3715.546703476228
 30
0.0
 11
10538.89907018794
 21
1990.046703476246
 31
0.0
  0
LINE
  5
18BC6
330
747D
100
AcDbEntity
  8
細線
100
AcDbLine
 10
10468.89907018794
 20
3715.546703476228
 30
0.0
 11
10468.89907018794
 21
1990.046703476246
 31
0.0
  0
LINE
  5
18BC7
330
747D
100
AcDbEntity
  8
細線
100
AcDbLine
 10
9102.149070187939
 20
3715.546703476228
 30
0.0
 11
9102.149070187936
 21
1982.546703476231
 31
0.0
  0
LINE
  5
18BC8
330
747D
100
AcDbEntity
  8
細線
100
AcDbLine
 10
9032.149070187939
 20
3715.546703476228
 30
0.0
 11
9032.149070187935
 21
1982.546703476231
 31
0.0
  0
LINE
  5
18BC9
330
747D
100
AcDbEntity
  8
細線
100
AcDbLine
 10
9753.649079938181
 20
3715.546703476228
 30
0.0
 11
9753.649079938181
 21
1990.046703476238
 31
0.0
  0
LINE
  5
18BCA
330
747D
100
AcDbEntity
  8
細線
100
AcDbLine
 10
9683.649079938181
 20
3715.546703476228
 30
0.0
 11
9683.649079938181
 21
1990.046703476238
 31
0.0
  0
LINE
  5
18BCB
330
747D
100
AcDbEntity
  8
細線
100
AcDbLine
 10
10398.89907018794
 20
3715.546703476228
 30
0.0
 11
10398.89907018794
 21
1990.046703476246
 31
0.0
  0
LINE
  5
18BCC
330
747D
100
AcDbEntity
  8
部品1
 48
50.0
100
AcDbLine
 10
10942.14907018794
 20
3723.546703476228
 30
0.0
 11
10912.14907018794
 21
3723.546703476228
 31
0.0
  0
LINE
  5
18BCD
330
747D
100
AcDbEntity
  8
部品1
 48
50.0
100
AcDbLine
 10
10915.14907018794
 20
3767.546703476228
 30
0.0
 11
10915.14907018794
 21
3772.546703476229
 31
0.0
  0
LINE
  5
18BCE
330
747D
100
AcDbEntity
  8
細線
 48
50.0
100
AcDbLine
 10
10890.14907018794
 20
1979.546703476228
 30
0.0
 11
10886.14907018794
 21
1990.046703476228
 31
0.0
  0
LINE
  5
18BCF
330
747D
100
AcDbEntity
  8
部品1
 48
50.0
100
AcDbLine
 10
10276.1490604928
 20
3715.546703513375
 30
0.0
 11
10276.1490604928
 21
1990.046703513375
 31
0.0
  0
LINE
  5
18BD0
330
747D
100
AcDbEntity
  8
部品1
 48
50.0
100
AcDbLine
 10
10942.14907018794
 20
1932.546703476228
 30
0.0
 11
10942.14907018794
 21
3767.546703476228
 31
0.0
  0
LINE
  5
18BD1
330
747D
100
AcDbEntity
  8
細線
 48
50.0
100
AcDbLine
 10
10912.14907018794
 20
1932.546703476228
 30
0.0
 11
10912.14907018794
 21
3725.046703476228
 31
0.0
  0
LINE
  5
18BD2
330
747D
100
AcDbEntity
  8
部品1
 48
50.0
100
AcDbLine
 10
10903.14907018794
 20
1979.546703476228
 30
0.0
 11
10903.14907018794
 21
3715.546703476228
 31
0.0
  0
LINE
  5
18BD3
330
747D
100
AcDbEntity
  8
部品1
 48
50.0
100
AcDbLine
 10
8818.14907018794
 20
3723.546703476228
 30
0.0
 11
8788.149070187939
 21
3723.546703476228
 31
0.0
  0
LINE
  5
18BD4
330
747D
100
AcDbEntity
  8
部品1
 48
50.0
100
AcDbLine
 10
8815.14907018794
 20
3767.546703476228
 30
0.0
 11
8815.14907018794
 21
3772.546703476229
 31
0.0
  0
LINE
  5
18BD5
330
747D
100
AcDbEntity
  8
部品1
 48
50.0
100
AcDbLine
 10
8827.149070187941
 20
1982.546703476228
 30
0.0
 11
8827.149070187941
 21
1979.546703476228
 31
0.0
  0
LINE
  5
18BD6
330
747D
100
AcDbEntity
  8
部品1
 48
50.0
100
AcDbLine
 10
8818.14907018794
 20
1982.546703476228
 30
0.0
 11
9622.149070187937
 21
1982.546703476224
 31
0.0
  0
LINE
  5
18BD7
330
747D
100
AcDbEntity
  8
部品1
 48
50.0
100
AcDbLine
 10
9622.149070187937
 20
3715.546703500996
 30
0.0
 11
9622.149070187937
 21
1982.546703500995
 31
0.0
  0
LINE
  5
18BD8
330
747D
100
AcDbEntity
  8
部品1
 48
50.0
100
AcDbLine
 10
8788.149070187939
 20
3767.546703476228
 30
0.0
 11
8788.149070187939
 21
1932.546703476228
 31
0.0
  0
LINE
  5
18BD9
330
747D
100
AcDbEntity
  8
細線
 48
50.0
100
AcDbLine
 10
8818.14907018794
 20
3725.046703476228
 30
0.0
 11
8818.14907018794
 21
1932.546703476228
 31
0.0
  0
LINE
  5
18BDA
330
747D
100
AcDbEntity
  8
部品1
 48
50.0
100
AcDbLine
 10
8818.14907018794
 20
1982.546703476228
 30
0.0
 11
8818.14907018794
 21
3715.546703476228
 31
0.0
  0
LINE
  5
18BDB
330
747D
100
AcDbEntity
  8
細線
 48
50.0
100
AcDbLine
 10
9622.149070187937
 20
1990.046703476228
 30
0.0
 11
10886.14907018794
 21
1990.046703476228
 31
0.0
  0
LINE
  5
18BDC
330
747D
100
AcDbEntity
  8
細線
 48
50.0
100
AcDbLine
 10
8818.14907018794
 20
1979.546703476228
 30
0.0
 11
10912.14907018794
 21
1979.546703476228
 31
0.0
  0
LINE
  5
18BDD
330
747D
100
AcDbEntity
  8
細線
 48
50.0
100
AcDbLine
 10
8818.14907018794
 20
1975.546703476228
 30
0.0
 11
10912.14907018794
 21
1975.546703476228
 31
0.0
  0
LINE
  5
18BDE
330
747D
100
AcDbEntity
  8
部品1
 48
50.0
100
AcDbLine
 10
8788.149070187939
 20
1932.546703476228
 30
0.0
 11
10942.14907018794
 21
1932.546703476228
 31
0.0
  0
LINE
  5
18BDF
330
747D
100
AcDbEntity
  8
細線
 48
50.0
100
AcDbLine
 10
10912.14907018794
 20
3725.046703476228
 30
0.0
 11
8818.14907018794
 21
3725.046703476228
 31
0.0
  0
LINE
  5
18BE0
330
747D
100
AcDbEntity
  8
細線
 48
50.0
100
AcDbLine
 10
10912.14907018794
 20
3715.546703476228
 30
0.0
 11
8818.14907018794
 21
3715.546703476228
 31
0.0
  0
LINE
  5
18BE1
330
747D
100
AcDbEntity
  8
細線
 48
50.0
100
AcDbLine
 10
10942.14907018794
 20
3757.546703476228
 30
0.0
 11
8788.149070187939
 21
3757.546703476228
 31
0.0
  0
LINE
  5
18BE2
330
747D
100
AcDbEntity
  8
部品1
 48
50.0
100
AcDbLine
 10
10942.14907018794
 20
3767.546703476228
 30
0.0
 11
8788.149070187939
 21
3767.546703476228
 31
0.0
  0
LINE
  5
18BFC
330
747D
100
AcDbEntity
  8
部品1
 48
50.0
100
AcDbLine
 10
8862.149070187939
 20
2914.046703476228
 30
0.0
 11
8915.14907018794
 21
2914.046703476228
 31
0.0
  0
TEXT
  5
18CB0
330
747D
100
AcDbEntity
  8
文字
 62
     7
 48
50.0
100
AcDbText
 10
13583.11819016569
 20
8550.013745883735
 30
0.0
 40
100.0
  1
棚板
  7
STYLE1
100
AcDbText
  0
TEXT
  5
18CB1
330
747D
100
AcDbEntity
  8
文字
 62
     7
 48
50.0
100
AcDbText
 10
15022.63965474516
 20
8550.013745883731
 30
0.0
 40
100.0
  1
F12            0.6
  7
STYLE1
100
AcDbText
  0
TEXT
  5
18CB2
330
747D
100
AcDbEntity
  8
文字
 62
     7
 48
50.0
100
AcDbText
 10
13583.11819016569
 20
9740.013745883731
 30
0.0
 40
100.0
  1
母屋中
  7
STYLE1
100
AcDbText
  0
TEXT
  5
18CB3
330
747D
100
AcDbEntity
  8
文字
 62
     7
 48
50.0
100
AcDbText
 10
13248.77747366447
 20
8720.013745883733
 30
0.0
 40
100.0
  1
15
  7
STYLE1
100
AcDbText
  0
LINE
  5
18CB4
330
747D
100
AcDbEntity
  8
仕様書枠
 48
50.0
100
AcDbLine
 10
16307.19999999999
 20
8009.600000000007
 30
0.0
 11
13127.19999999999
 21
8009.600000000011
 31
0.0
  0
TEXT
  5
18CB5
330
747D
100
AcDbEntity
  8
文字
 62
     7
 48
50.0
100
AcDbText
 10
13583.11819016569
 20
8720.013745883735
 30
0.0
 40
100.0
  1
扉
  7
STYLE1
100
AcDbText
  0
TEXT
  5
18CB6
330
747D
100
AcDbEntity
  8
文字
 62
     7
 48
50.0
100
AcDbText
 10
15022.63965474516
 20
8720.013745883731
 30
0.0
 40
100.0
  1
F12            0.8
  7
STYLE1
100
AcDbText
  0
TEXT
  5
18CB7
330
747D
100
AcDbEntity
  8
文字
 62
     7
 48
50.0
100
AcDbText
 10
13583.11819016568
 20
8890.013745883734
 30
0.0
 40
100.0
  1
正面パネル
  7
STYLE1
100
AcDbText
  0
TEXT
  5
18CB8
330
747D
100
AcDbEntity
  8
文字
 62
     7
 48
50.0
100
AcDbText
 10
15022.63965474515
 20
8890.013745883731
 30
0.0
 40
100.0
  1
F12            0.7
  7
STYLE1
100
AcDbText
  0
TEXT
  5
18CB9
330
747D
100
AcDbEntity
  8
文字
 62
     7
 48
50.0
100
AcDbText
 10
15022.63965474517
 20
10590.01374588373
 30
0.0
 40
100.0
  1
F12            1.0
  7
STYLE1
100
AcDbText
  0
TEXT
  5
18CBA
330
747D
100
AcDbEntity
  8
文字
 62
     7
 48
50.0
100
AcDbText
 10
15022.63965474516
 20
10930.01374588373
 30
0.0
 40
100.0
  1
F12            1.2
  7
STYLE1
100
AcDbText
  0
TEXT
  5
18CBB
330
747D
100
AcDbEntity
  8
文字
 62
     7
 48
50.0
100
AcDbText
 10
13248.77747366448
 20
8890.013745883731
 30
0.0
 40
100.0
  1
14
  7
STYLE1
100
AcDbText
  0
TEXT
  5
18CBC
330
747D
100
AcDbEntity
  8
文字
 62
     7
 48
50.0
100
AcDbText
 10
13583.11819016569
 20
10930.01374588373
 30
0.0
 40
100.0
  1
根太
  7
STYLE1
100
AcDbText
  0
TEXT
  5
18CBD
330
747D
100
AcDbEntity
  8
文字
 62
     7
 48
50.0
100
AcDbText
 10
13583.1181901657
 20
10590.01374588373
 30
0.0
 40
100.0
  1
床パネル
 41
0.9
  7
STYLE1
100
AcDbText
  0
LINE
  5
18CBE
330
747D
100
AcDbEntity
  8
仕様書枠
 48
50.0
100
AcDbLine
 10
16307.19999999999
 20
9029.600000000003
 30
0.0
 11
13127.2
 21
9029.600000000007
 31
0.0
  0
LINE
  5
18CBF
330
747D
100
AcDbEntity
  8
仕様書枠
 48
50.0
100
AcDbLine
 10
13127.2
 20
11409.6
 30
0.0
 11
13127.19999999999
 21
8009.600000000011
 31
0.0
  0
TEXT
  5
18CC0
330
747D
100
AcDbEntity
  8
文字
 62
     7
 48
50.0
100
AcDbText
 10
13229.83081656554
 20
8040.013745883737
 30
0.0
 40
100.0
  1
Y10→溶融亜鉛-5％アルミニウム合金めっき鋼板(JIS G 3317)
 41
0.9
  7
STYLE1
100
AcDbText
  0
TEXT
  5
18CC1
330
747D
100
AcDbEntity
  8
文字
 62
     7
 48
50.0
100
AcDbText
 10
13229.83081656554
 20
8210.013745883737
 30
0.0
 40
100.0
  1
F12→溶融亜鉛めっき鋼板(JIS G 3302)
  7
STYLE1
100
AcDbText
  0
LINE
  5
18CC2
330
747D
100
AcDbEntity
  8
仕様書枠
 48
50.0
100
AcDbLine
 10
16307.19999999999
 20
8179.600000000007
 30
0.0
 11
13127.19999999999
 21
8179.600000000009
 31
0.0
  0
LINE
  5
18CC3
330
747D
100
AcDbEntity
  8
仕様書枠
 48
50.0
100
AcDbLine
 10
16307.19999999999
 20
8349.600000000007
 30
0.0
 11
13127.19999999999
 21
8349.600000000009
 31
0.0
  0
TEXT
  5
18CC4
330
747D
100
AcDbEntity
  8
文字
 62
     7
 48
50.0
100
AcDbText
 10
15022.63965474515
 20
9570.013745883729
 30
0.0
 40
100.0
  1
F12            0.6
  7
STYLE1
100
AcDbText
  0
TEXT
  5
18CC5
330
747D
100
AcDbEntity
  8
文字
 62
     7
 48
50.0
100
AcDbText
 10
15022.63965474517
 20
9910.01374588373
 30
0.0
 40
100.0
  1
Y10            0.5
  7
STYLE1
100
AcDbText
  0
TEXT
  5
18CC6
330
747D
100
AcDbEntity
  8
文字
 62
     7
 48
50.0
100
AcDbText
 10
15022.63965474516
 20
10080.01374588373
 30
0.0
 40
100.0
  1
Y10            0.7
  7
STYLE1
100
AcDbText
  0
TEXT
  5
18CC7
330
747D
100
AcDbEntity
  8
文字
 62
     7
 48
50.0
100
AcDbText
 10
15022.63965474516
 20
10250.01374588373
 30
0.0
 40
100.0
  1
Y10            0.7
  7
STYLE1
100
AcDbText
  0
TEXT
  5
18CC8
330
747D
100
AcDbEntity
  8
文字
 62
     7
 48
50.0
100
AcDbText
 10
15022.63965474516
 20
10420.01374588373
 30
0.0
 40
100.0
  1
Y10            1.0
  7
STYLE1
100
AcDbText
  0
TEXT
  5
18CC9
330
747D
100
AcDbEntity
  8
文字
 62
     7
 48
50.0
100
AcDbText
 10
15022.63965474518
 20
10760.01374588373
 30
0.0
 40
100.0
  1
F12            1.0
  7
STYLE1
100
AcDbText
  0
TEXT
  5
18CCA
330
747D
100
AcDbEntity
  8
文字
 62
     7
 48
50.0
100
AcDbText
 10
15022.63965474517
 20
11100.01374588373
 30
0.0
 40
100.0
  1
F12            1.2
  7
STYLE1
100
AcDbText
  0
TEXT
  5
18CCB
330
747D
100
AcDbEntity
  8
文字
 62
     7
 48
50.0
100
AcDbText
 10
13248.77747366448
 20
9230.013745883731
 30
0.0
 40
100.0
  1
12
  7
STYLE1
100
AcDbText
  0
TEXT
  5
18CCC
330
747D
100
AcDbEntity
  8
文字
 62
     7
 48
50.0
100
AcDbText
 10
13248.77747366448
 20
9060.013745883731
 30
0.0
 40
100.0
  1
13
  7
STYLE1
100
AcDbText
  0
LINE
  5
18CCD
330
747D
100
AcDbEntity
  8
仕様書枠
 48
50.0
100
AcDbLine
 10
16307.19999999999
 20
8859.600000000005
 30
0.0
 11
13127.2
 21
8859.600000000005
 31
0.0
  0
LINE
  5
18CCE
330
747D
100
AcDbEntity
  8
仕様書枠
 48
50.0
100
AcDbLine
 10
16307.19999999999
 20
9199.600000000001
 30
0.0
 11
13127.2
 21
9199.600000000003
 31
0.0
  0
TEXT
  5
18CCF
330
747D
100
AcDbEntity
  8
文字
 62
     7
 48
50.0
100
AcDbText
 10
13248.77747366447
 20
9400.013745883731
 30
0.0
 40
100.0
  1
11
  7
STYLE1
100
AcDbText
  0
LINE
  5
18CD0
330
747D
100
AcDbEntity
  8
仕様書枠
 48
50.0
100
AcDbLine
 10
16307.2
 20
9879.600000000003
 30
0.0
 11
13127.2
 21
9879.600000000005
 31
0.0
  0
LINE
  5
18CD1
330
747D
100
AcDbEntity
  8
仕様書枠
 48
50.0
100
AcDbLine
 10
16307.2
 20
10219.6
 30
0.0
 11
13127.2
 21
10219.6
 31
0.0
  0
LINE
  5
18CD2
330
747D
100
AcDbEntity
  8
仕様書枠
 48
50.0
100
AcDbLine
 10
16307.19999999999
 20
9539.600000000003
 30
0.0
 11
13127.2
 21
9539.600000000005
 31
0.0
  0
LINE
  5
18CD3
330
747D
100
AcDbEntity
  8
仕様書枠
 48
50.0
100
AcDbLine
 10
16307.19999999999
 20
9369.600000000003
 30
0.0
 11
13127.2
 21
9369.600000000003
 31
0.0
  0
LINE
  5
18CD4
330
747D
100
AcDbEntity
  8
仕様書枠
 48
50.0
100
AcDbLine
 10
16307.19999999999
 20
9709.600000000001
 30
0.0
 11
13127.2
 21
9709.600000000005
 31
0.0
  0
TEXT
  5
18CD5
330
747D
100
AcDbEntity
  8
文字
 62
     7
 48
50.0
100
AcDbText
 10
13271.19032244792
 20
10250.01374588373
 30
0.0
 40
100.0
  1
6
  7
STYLE1
100
AcDbText
  0
TEXT
  5
18CD6
330
747D
100
AcDbEntity
  8
文字
 62
     7
 48
50.0
100
AcDbText
 10
13271.19032244792
 20
10080.01374588373
 30
0.0
 40
100.0
  1
7
  7
STYLE1
100
AcDbText
  0
TEXT
  5
18CD7
330
747D
100
AcDbEntity
  8
文字
 62
     7
 48
50.0
100
AcDbText
 10
13271.19032244792
 20
9740.013745883732
 30
0.0
 40
100.0
  1
9
  7
STYLE1
100
AcDbText
  0
TEXT
  5
18CD8
330
747D
100
AcDbEntity
  8
文字
 62
     7
 48
50.0
100
AcDbText
 10
13271.19032244792
 20
9910.013745883732
 30
0.0
 40
100.0
  1
8
  7
STYLE1
100
AcDbText
  0
TEXT
  5
18CD9
330
747D
100
AcDbEntity
  8
文字
 62
     7
 48
50.0
100
AcDbText
 10
13583.11819016569
 20
10080.01374588373
 30
0.0
 40
100.0
  1
鼻隠シ前後
  7
STYLE1
100
AcDbText
  0
TEXT
  5
18CDA
330
747D
100
AcDbEntity
  8
文字
 62
     7
 48
50.0
100
AcDbText
 10
13583.11819016569
 20
9910.01374588373
 30
0.0
 40
100.0
  1
屋根パネル
  7
STYLE1
100
AcDbText
  0
TEXT
  5
18CDB
330
747D
100
AcDbEntity
  8
文字
 62
     7
 48
50.0
100
AcDbText
 10
13583.11819016568
 20
9570.013745883732
 30
0.0
 40
100.0
  1
壁パネル
  7
STYLE1
100
AcDbText
  0
TEXT
  5
18CDC
330
747D
100
AcDbEntity
  8
文字
 62
     7
 48
50.0
100
AcDbText
 10
13248.77747366447
 20
9570.013745883731
 30
0.0
 40
100.0
  1
10
  7
STYLE1
100
AcDbText
  0
TEXT
  5
18CDD
330
747D
100
AcDbEntity
  8
文字
 62
     7
 48
50.0
100
AcDbText
 10
13583.11819016569
 20
10250.01374588373
 30
0.0
 40
100.0
  1
妻板左右
  7
STYLE1
100
AcDbText
  0
TEXT
  5
18CDE
330
747D
100
AcDbEntity
  8
文字
 62
     7
 48
50.0
100
AcDbText
 10
13271.19032244792
 20
10420.01374588373
 30
0.0
 40
100.0
  1
5
  7
STYLE1
100
AcDbText
  0
TEXT
  5
18CDF
330
747D
100
AcDbEntity
  8
文字
 62
     7
 48
50.0
100
AcDbText
 10
13583.11819016569
 20
10420.01374588373
 30
0.0
 40
100.0
  1
桁前後
  7
STYLE1
100
AcDbText
  0
TEXT
  5
18CE0
330
747D
100
AcDbEntity
  8
文字
 62
     7
 48
50.0
100
AcDbText
 10
13583.1181901657
 20
10760.01374588373
 30
0.0
 40
100.0
  1
柱
  7
STYLE1
100
AcDbText
  0
TEXT
  5
18CE1
330
747D
100
AcDbEntity
  8
文字
 62
     7
 48
50.0
100
AcDbText
 10
13583.11819016569
 20
11100.01374588373
 30
0.0
 40
100.0
  1
土台枠
  7
STYLE1
100
AcDbText
  0
TEXT
  5
18CE2
330
747D
100
AcDbEntity
  8
文字
 62
     7
 48
50.0
100
AcDbText
 10
14859.79774614482
 20
11270.01374588373
 30
0.0
 40
100.0
  1
材料（材質）　　単位mm
  7
STYLE1
100
AcDbText
  0
TEXT
  5
18CE3
330
747D
100
AcDbEntity
  8
文字
 62
     7
 48
50.0
100
AcDbText
 10
13732.03840939434
 20
11270.01374588373
 30
0.0
 40
100.0
  1
部　　品　　名
  7
STYLE1
100
AcDbText
  0
TEXT
  5
18CE4
330
747D
100
AcDbEntity
  8
文字
 62
     7
 48
50.0
100
AcDbText
 10
13271.19032244792
 20
10760.01374588373
 30
0.0
 40
100.0
  1
3
  7
STYLE1
100
AcDbText
  0
TEXT
  5
18CE5
330
747D
100
AcDbEntity
  8
文字
 62
     7
 48
50.0
100
AcDbText
 10
13271.19032244792
 20
10590.01374588373
 30
0.0
 40
100.0
  1
4
  7
STYLE1
100
AcDbText
  0
TEXT
  5
18CE6
330
747D
100
AcDbEntity
  8
文字
 62
     7
 48
50.0
100
AcDbText
 10
13271.19032244792
 20
10930.01374588373
 30
0.0
 40
100.0
  1
2
  7
STYLE1
100
AcDbText
  0
TEXT
  5
18CE7
330
747D
100
AcDbEntity
  8
文字
 62
     7
 48
50.0
100
AcDbText
 10
13271.19032244792
 20
11100.01374588373
 30
0.0
 40
100.0
  1
1
  7
STYLE1
100
AcDbText
  0
TEXT
  5
18CE8
330
747D
100
AcDbEntity
  8
文字
 62
     7
 48
50.0
100
AcDbText
 10
13197.42518560407
 20
11270.01374588373
 30
0.0
 40
100.0
  1
品番
  7
STYLE1
100
AcDbText
  0
LINE
  5
18CE9
330
747D
100
AcDbEntity
  8
仕様書枠
 48
50.0
100
AcDbLine
 10
16307.19999999999
 20
10729.6
 30
0.0
 11
13127.2
 21
10729.6
 31
0.0
  0
LINE
  5
18CEA
330
747D
100
AcDbEntity
  8
仕様書枠
 48
50.0
100
AcDbLine
 10
16307.19999999999
 20
10389.6
 30
0.0
 11
13127.2
 21
10389.6
 31
0.0
  0
LINE
  5
18CEB
330
747D
100
AcDbEntity
  8
仕様書枠
 48
50.0
100
AcDbLine
 10
16307.19999999999
 20
10559.6
 30
0.0
 11
13127.2
 21
10559.6
 31
0.0
  0
LINE
  5
18CEC
330
747D
100
AcDbEntity
  8
仕様書枠
 48
50.0
100
AcDbLine
 10
16307.2
 20
11069.6
 30
0.0
 11
13127.2
 21
11069.6
 31
0.0
  0
LINE
  5
18CED
330
747D
100
AcDbEntity
  8
仕様書枠
 48
50.0
100
AcDbLine
 10
16307.2
 20
10899.6
 30
0.0
 11
13127.2
 21
10899.6
 31
0.0
  0
LINE
  5
18CEE
330
747D
100
AcDbEntity
  8
仕様書枠
 48
50.0
100
AcDbLine
 10
16307.2
 20
11239.6
 30
0.0
 11
13127.2
 21
11239.6
 31
0.0
  0
LINE
  5
18CEF
330
747D
100
AcDbEntity
  8
仕様書枠
 48
50.0
100
AcDbLine
 10
13490.2
 20
11409.6
 30
0.0
 11
13490.20000000001
 21
8349.600000000009
 31
0.0
  0
LINE
  5
18CF0
330
747D
100
AcDbEntity
  8
仕様書枠
 48
50.0
100
AcDbLine
 10
14785.2
 20
11409.6
 30
0.0
 11
14785.2
 21
8349.600000000007
 31
0.0
  0
LINE
  5
18CF1
330
747D
100
AcDbEntity
  8
仕様書枠
 48
50.0
100
AcDbLine
 10
16307.19999999999
 20
8009.600000000007
 30
0.0
 11
16307.2
 21
11409.6
 31
0.0
  0
LINE
  5
18CF2
330
747D
100
AcDbEntity
  8
仕様書枠
 48
50.0
100
AcDbLine
 10
16307.2
 20
11409.6
 30
0.0
 11
13127.2
 21
11409.6
 31
0.0
  0
LINE
  5
18CF3
330
747D
100
AcDbEntity
  8
仕様書枠
 48
50.0
100
AcDbLine
 10
16307.2
 20
10049.6
 30
0.0
 11
13127.2
 21
10049.6
 31
0.0
  0
TEXT
  5
18CF4
330
747D
100
AcDbEntity
  8
文字
 62
     7
 48
50.0
100
AcDbText
 10
15022.63965474515
 20
8380.013745883728
 30
0.0
 40
100.0
  1
F12            2.3
  7
STYLE1
100
AcDbText
  0
TEXT
  5
18CF5
330
747D
100
AcDbEntity
  8
文字
 62
     7
 48
50.0
100
AcDbText
 10
13583.11819016569
 20
8380.013745883733
 30
0.0
 40
100.0
  1
アンカープレート
  7
STYLE1
100
AcDbText
  0
LINE
  5
18CF6
330
747D
100
AcDbEntity
  8
仕様書枠
 48
50.0
100
AcDbLine
 10
16307.19999999999
 20
8519.600000000009
 30
0.0
 11
13127.2
 21
8519.600000000009
 31
0.0
  0
LINE
  5
18CF7
330
747D
100
AcDbEntity
  8
仕様書枠
 48
50.0
100
AcDbLine
 10
16307.19999999999
 20
8689.600000000007
 30
0.0
 11
13127.2
 21
8689.600000000011
 31
0.0
  0
TEXT
  5
18CF8
330
747D
100
AcDbEntity
  8
文字
 62
     7
 48
50.0
100
AcDbText
 10
13583.11819016569
 20
9400.013745883732
 30
0.0
 40
100.0
  1
壁面扉鴨居
  7
STYLE1
100
AcDbText
  0
TEXT
  5
18CF9
330
747D
100
AcDbEntity
  8
文字
 62
     7
 48
50.0
100
AcDbText
 10
13583.11819016569
 20
9230.013745883736
 30
0.0
 40
100.0
  1
壁面扉敷居
  7
STYLE1
100
AcDbText
  0
TEXT
  5
18CFA
330
747D
100
AcDbEntity
  8
文字
 62
     7
 48
50.0
100
AcDbText
 10
15022.63965474515
 20
9400.013745883731
 30
0.0
 40
100.0
  1
F12            0.7
  7
STYLE1
100
AcDbText
  0
TEXT
  5
18CFB
330
747D
100
AcDbEntity
  8
文字
 62
     7
 48
50.0
100
AcDbText
 10
15022.63965474517
 20
9230.013745883729
 30
0.0
 40
100.0
  1
F12            1.0
  7
STYLE1
100
AcDbText
  0
TEXT
  5
18CFC
330
747D
100
AcDbEntity
  8
文字
 62
     7
 48
50.0
100
AcDbText
 10
13583.11819016569
 20
9060.013745883736
 30
0.0
 40
100.0
  1
壁面扉枠左右
  7
STYLE1
100
AcDbText
  0
TEXT
  5
18CFD
330
747D
100
AcDbEntity
  8
文字
 62
     7
 48
50.0
100
AcDbText
 10
15022.63965474517
 20
9060.013745883729
 30
0.0
 40
100.0
  1
F12            1.0
  7
STYLE1
100
AcDbText
  0
TEXT
  5
18CFE
330
747D
100
AcDbEntity
  8
文字
 62
     7
 48
50.0
100
AcDbText
 10
13248.77747366447
 20
8550.013745883733
 30
0.0
 40
100.0
  1
16
  7
STYLE1
100
AcDbText
  0
TEXT
  5
18CFF
330
747D
100
AcDbEntity
  8
文字
 62
     7
 48
50.0
100
AcDbText
 10
13248.77747366447
 20
8380.013745883733
 30
0.0
 40
100.0
  1
17
  7
STYLE1
100
AcDbText
  0
TEXT
  5
18D00
330
747D
100
AcDbEntity
  8
文字
 62
     7
 48
50.0
100
AcDbText
 10
14892.7563502105
 20
9740.013745883729
 30
0.0
 40
100.0
  1
F12  1.0(多雪地型2.3,1.6)
  7
STYLE1
100
AcDbText
  0
TEXT
  5
18D01
330
747D
100
AcDbEntity
  8
文字
 62
     7
 48
50.0
100
AcDbText
 10
14491.96323844892
 20
483.8967129911416
 30
0.0
 40
160.0
  1
ＮＸＮ－８０ＳＡ
  7
STYLE2
100
AcDbText
  0
TEXT
  5
18D02
330
747D
100
AcDbEntity
  8
文字
 62
     7
 48
50.0
100
AcDbText
 10
13209.4053442172
 20
243.236973410656
 30
0.0
 40
100.0
  1
○有効開口寸法 ： 1266×1725(mm)
  7
STYLE2
100
AcDbText
  0
MTEXT
  5
18D03
330
747D
100
AcDbEntity
  8
寸法
 62
     7
 48
50.0
100
AcDbMText
 10
10635.25160728108
 20
9303.199500697726
 30
0.0
 40
96.0
 41
0.0
 71
     5
 72
     1
  1
棚 2段
  7
STYLE1
 73
     1
 44
1.0
1001
ACAD
1000
MTEXTBEGIN
1070
    73
1070
     1
1070
    44
1040
1.0
1070
    74
1070
     0
1000
MTEXTEND
  0
LINE
  5
18D05
330
747D
100
AcDbEntity
  8
部品1
100
AcDbLine
 10
11335.14907018795
 20
9716.964682500416
 30
0.0
 11
11335.14907018795
 21
9688.964682500415
 31
0.0
  0
LINE
  5
18D06
330
747D
100
AcDbEntity
  8
部品1
100
AcDbLine
 10
11335.14907018795
 20
9716.964682500437
 30
0.0
 11
11335.14907018795
 21
9688.964682500436
 31
0.0
  0
LINE
  5
18D07
330
747D
100
AcDbEntity
  8
部品1
100
AcDbLine
 10
11362.14907018795
 20
9661.964682500418
 30
0.0
 11
11390.14907018795
 21
9661.964682500418
 31
0.0
  0
DIMENSION
  5
18D08
330
747D
100
AcDbEntity
  8
寸法
100
AcDbDimension
  2
*D2
 10
12090.14907018795
 20
9661.964682500418
 30
0.0
 11
12090.14907018795
 21
10025.44996387465
 31
0.0
 70
   160
 71
     5
 42
54.99999999999636
  3
INABA_S40G
100
AcDbAlignedDimension
 13
11390.14907018795
 23
9716.964682500416
 33
0.0
 14
11390.14907018795
 24
9661.964682500418
 34
0.0
 50
90.0
100
AcDbRotatedDimension
1001
ACAD
1000
DSTYLE
1002
{
1002
}
  0
DIMENSION
  5
18D09
330
747D
100
AcDbEntity
  8
寸法
100
AcDbDimension
  2
*D3
 10
11390.14907018795
 20
10216.96468250041
 30
0.0
 11
11698.63435156218
 21
10216.96468250041
 31
0.0
 70
   160
 71
     5
 42
55.0
  3
INABA_S40G
100
AcDbAlignedDimension
 13
11335.14907018795
 23
9716.964682500416
 33
0.0
 14
11390.14907018795
 24
9716.964682500416
 34
0.0
100
AcDbRotatedDimension
1001
ACAD
1000
DSTYLE
1002
{
1002
}
  0
LINE
  5
18D0A
330
747D
100
AcDbEntity
  8
部品1
100
AcDbLine
 10
11362.14907018795
 20
9241.964682500418
 30
0.0
 11
11390.14907018795
 21
9241.964682500418
 31
0.0
  0
LINE
  5
18D0B
330
747D
100
AcDbEntity
  8
部品1
100
AcDbLine
 10
11362.14907018795
 20
8821.96468250042
 30
0.0
 11
11390.14907018795
 21
8821.96468250042
 31
0.0
  0
DIMENSION
  5
18D0C
330
747D
100
AcDbEntity
  8
寸法
100
AcDbDimension
  2
*D4
 10
11790.14907018794
 20
9122.148453543683
 30
0.0
 11
11790.14907018794
 21
9347.148453543681
 31
0.0
 70
   160
 71
     5
 42
449.9999999999963
  3
INABA_S40G
100
AcDbAlignedDimension
 13
11361.64907018795
 23
9686.964682500416
 33
0.0
 14
11361.64907018795
 24
9236.964682500419
 34
0.0
 50
90.0
100
AcDbRotatedDimension
1001
ACAD
1000
DSTYLE
1002
{
1002
}
  0
LINE
  5
18D0D
330
747D
100
AcDbEntity
  8
部品1
100
AcDbLine
 10
11361.64907018795
 20
9686.964682500416
 30
0.0
 11
11361.64907018795
 21
9236.964682500419
 31
0.0
  0
LINE
  5
18D0E
330
747D
100
AcDbEntity
  8
部品1
100
AcDbLine
 10
11362.14907018795
 20
9688.964682500415
 30
0.0
 11
11362.14907018794
 21
9236.46468250029
 31
0.0
  0
LINE
  5
18D0F
330
747D
100
AcDbEntity
  8
部品1
100
AcDbLine
 10
11335.14907018795
 20
7086.964682500408
 30
0.0
 11
11335.14907018795
 21
7114.964682500406
 31
0.0
  0
LINE
  5
18D10
330
747D
100
AcDbEntity
  8
部品1
100
AcDbLine
 10
11362.14907018795
 20
7141.964682500404
 30
0.0
 11
11390.14907018795
 21
7141.964682500404
 31
0.0
  0
LINE
  5
18D11
330
747D
100
AcDbEntity
  8
部品1
100
AcDbLine
 10
11390.14907018792
 20
7141.964682500404
 30
0.0
 11
11390.14907018792
 21
7086.964682500408
 31
0.0
  0
LINE
  5
18D12
330
747D
100
AcDbEntity
  8
部品1
 48
50.0
100
AcDbLine
 10
11333.64907018795
 20
7143.464682500408
 30
0.0
 11
11362.14907018795
 21
7114.964682500406
 31
0.0
  0
LINE
  5
18D13
330
747D
100
AcDbEntity
  8
部品1
100
AcDbLine
 10
11390.14907018792
 20
7086.964682500408
 30
0.0
 11
11339.14907018792
 21
7086.964682500408
 31
0.0
  0
LINE
  5
18D14
330
747D
100
AcDbEntity
  8
部品1
100
AcDbLine
 10
11362.14907018792
 20
7141.964682500404
 30
0.0
 11
11390.14907018792
 21
7141.964682500404
 31
0.0
  0
DIMENSION
  5
18D15
330
747D
100
AcDbEntity
  8
寸法
100
AcDbDimension
  2
*D5
 10
12090.14907018792
 20
7086.964682500407
 30
0.0
 11
12090.14907018792
 21
6778.479401126166
 31
0.0
 70
   160
 71
     5
 42
54.99999999999636
  3
INABA_S40G
100
AcDbAlignedDimension
 13
11390.14907018792
 23
7141.964682500404
 33
0.0
 14
11390.14907018792
 24
7086.964682500407
 34
0.0
 50
90.0
100
AcDbRotatedDimension
1001
ACAD
1000
DSTYLE
1002
{
1002
}
  0
LINE
  5
18D16
330
747D
100
AcDbEntity
  8
部品1
100
AcDbLine
 10
11362.14907018794
 20
9241.964682500418
 30
0.0
 11
11362.14907018792
 21
7114.964682500406
 31
0.0
  0
LINE
  5
18D17
330
747D
100
AcDbEntity
  8
部品1
100
AcDbLine
 10
11333.64907018794
 20
9236.964682500419
 30
0.0
 11
11333.64907018795
 21
7143.464682500408
 31
0.0
  0
LINE
  5
18D18
330
747D
100
AcDbEntity
  8
部品1
100
AcDbLine
 10
11390.14907018795
 20
9716.964682500416
 30
0.0
 11
11390.14907018792
 21
7086.964682500408
 31
0.0
  0
DIMENSION
  5
18D19
330
747D
100
AcDbEntity
  8
寸法
100
AcDbDimension
  2
*D6
 10
12090.14907018794
 20
7141.964682500404
 30
0.0
 11
12090.14907018794
 21
8401.964682500409
 31
0.0
 70
   160
  1
6X420=<>
 71
     5
 42
2520.000000000015
  3
INABA_S40G
100
AcDbAlignedDimension
 13
11390.14907018795
 23
9661.964682500418
 33
0.0
 14
11390.14907018792
 24
7141.964682500404
 34
0.0
 50
90.0
100
AcDbRotatedDimension
1001
ACAD
1000
DSTYLE
1002
{
1002
}
  0
LINE
  5
18D1A
330
747D
100
AcDbEntity
  8
破線
 48
10.0
100
AcDbLine
 10
11310.14907018794
 20
9236.964682500419
 30
0.0
 11
11310.14907018795
 21
7166.964682500403
 31
0.0
  0
DIMENSION
  5
18D1B
330
747D
100
AcDbEntity
  8
寸法
100
AcDbDimension
  2
*D7
 10
12390.14907018794
 20
7086.964682500407
 30
0.0
 11
12390.14907018793
 21
8401.964682500409
 31
0.0
 70
   160
 71
     5
 42
2630.000000000007
  3
INABA_S40G
100
AcDbAlignedDimension
 13
11390.14907018795
 23
9716.964682500416
 33
0.0
 14
11390.14907018792
 24
7086.964682500407
 34
0.0
 50
90.0
100
AcDbRotatedDimension
1001
ACAD
1000
DSTYLE
1002
{
1002
}
  0
LINE
  5
18D1C
330
747D
100
AcDbEntity
  8
部品1
100
AcDbLine
 10
10915.14907018791
 20
9716.964682500288
 30
0.0
 11
10915.14907018791
 21
9688.964682500287
 31
0.0
  0
LINE
  5
18D1D
330
747D
100
AcDbEntity
  8
部品1
100
AcDbLine
 10
10495.14907018791
 20
9716.964682500288
 30
0.0
 11
10495.14907018791
 21
9688.964682500287
 31
0.0
  0
LINE
  5
18D1E
330
747D
100
AcDbEntity
  8
部品1
100
AcDbLine
 10
10075.14907018791
 20
9716.964682500288
 30
0.0
 11
10075.14907018791
 21
9688.964682500287
 31
0.0
  0
LINE
  5
18D1F
330
747D
100
AcDbEntity
  8
部品1
100
AcDbLine
 10
9894.149070187948
 20
9706.964682500423
 30
0.0
 11
9900.149070187946
 21
9706.964682500423
 31
0.0
  0
LINE
  5
18D20
330
747D
100
AcDbEntity
  8
部品1
100
AcDbLine
 10
9900.149070187946
 20
9706.964682500423
 30
0.0
 11
9900.149070187946
 21
9688.964682500422
 31
0.0
  0
LINE
  5
18D21
330
747D
100
AcDbEntity
  8
部品1
100
AcDbLine
 10
9830.149070187948
 20
9706.964682500423
 30
0.0
 11
9836.149070187946
 21
9706.964682500423
 31
0.0
  0
LINE
  5
18D22
330
747D
100
AcDbEntity
  8
部品1
100
AcDbLine
 10
9830.149070187948
 20
9706.964682500423
 30
0.0
 11
9830.149070187948
 21
9688.964682500422
 31
0.0
  0
LINE
  5
18D23
330
747D
100
AcDbEntity
  8
部品1
100
AcDbLine
 10
9852.649070187947
 20
9680.964682500418
 30
0.0
 11
9877.649070187947
 21
9680.964682500423
 31
0.0
  0
LINE
  5
18D24
330
747D
100
AcDbEntity
  8
部品1
100
AcDbLine
 10
9852.649070187947
 20
9236.964682500426
 30
0.0
 11
9877.649070187947
 21
9236.964682500426
 31
0.0
  0
LINE
  5
18D25
330
747D
100
AcDbEntity
  8
部品1
 48
50.0
100
AcDbLine
 10
9877.649070187947
 20
9688.964682500426
 30
0.0
 11
9877.649070187947
 21
9236.964682500426
 31
0.0
  0
LINE
  5
18D26
330
747D
100
AcDbEntity
  8
部品1
 48
50.0
100
AcDbLine
 10
9852.649070187947
 20
9688.964682500429
 30
0.0
 11
9852.649070187947
 21
9236.964682500426
 31
0.0
  0
LINE
  5
18D27
330
747D
100
AcDbEntity
  8
部品1
 48
50.0
100
AcDbLine
 10
9878.649070187947
 20
9686.964682500418
 30
0.0
 11
9878.649070187947
 21
9236.964682500426
 31
0.0
  0
LINE
  5
18D28
330
747D
100
AcDbEntity
  8
部品1
 48
50.0
100
AcDbLine
 10
9851.649070187946
 20
9686.964682500423
 30
0.0
 11
9851.649070187946
 21
9236.964682500426
 31
0.0
  0
LINE
  5
18D29
330
747D
100
AcDbEntity
  8
部品1
100
AcDbLine
 10
9655.149070187915
 20
9716.964682500288
 30
0.0
 11
9655.149070187915
 21
9688.964682500287
 31
0.0
  0
LINE
  5
18D2A
330
747D
100
AcDbEntity
  8
部品1
100
AcDbLine
 10
9235.149070187913
 20
9716.964682500288
 30
0.0
 11
9235.149070187913
 21
9688.964682500287
 31
0.0
  0
LINE
  5
18D2B
330
747D
100
AcDbEntity
  8
部品1
100
AcDbLine
 10
8815.149070187914
 20
9716.964682500288
 30
0.0
 11
8815.149070187914
 21
9688.964682500287
 31
0.0
  0
LINE
  5
18D2C
330
747D
100
AcDbEntity
  8
部品1
100
AcDbLine
 10
10915.14907018795
 20
7086.964682500408
 30
0.0
 11
10915.14907018795
 21
7114.964682500406
 31
0.0
  0
LINE
  5
18D2D
330
747D
100
AcDbEntity
  8
破線
 48
10.0
100
AcDbLine
 10
10567.64907018792
 20
7166.964682500331
 30
0.0
 11
9890.149070187925
 21
7166.96468250032
 31
0.0
  0
LINE
  5
18D2E
330
747D
100
AcDbEntity
  8
部品1
100
AcDbLine
 10
8815.149070187915
 20
7086.964682500408
 30
0.0
 11
8815.149070187915
 21
7114.964682500406
 31
0.0
  0
LINE
  5
18D2F
330
747D
100
AcDbEntity
  8
破線
 48
10.0
100
AcDbLine
 10
9840.149070187926
 20
7166.964682500317
 30
0.0
 11
9162.649070187921
 21
7166.964682500294
 31
0.0
  0
LINE
  5
18D30
330
747D
100
AcDbEntity
  8
部品1
 48
50.0
100
AcDbLine
 10
9865.149070187948
 20
9236.964682500426
 30
0.0
 11
9865.149070187976
 21
7143.464682500305
 31
0.0
  0
LINE
  5
18D31
330
747D
100
AcDbEntity
  8
破線
 48
10.0
100
AcDbLine
 10
10617.64907018792
 20
7143.46468250032
 30
0.0
 11
10617.64907018792
 21
9236.964682500426
 31
0.0
  0
LINE
  5
18D32
330
747D
100
AcDbEntity
  8
破線
 48
10.0
100
AcDbLine
 10
10567.64907018792
 20
7143.464682500317
 30
0.0
 11
10567.64907018792
 21
9236.964682500426
 31
0.0
  0
LINE
  5
18D33
330
747D
100
AcDbEntity
  8
破線
 48
10.0
100
AcDbLine
 10
9162.649070187923
 20
7143.46468250032
 30
0.0
 11
9162.649070187924
 21
9236.964682500426
 31
0.0
  0
LINE
  5
18D34
330
747D
100
AcDbEntity
  8
破線
 48
10.0
100
AcDbLine
 10
9112.649070187925
 20
7143.464682500317
 30
0.0
 11
9112.649070187925
 21
9236.964682500426
 31
0.0
  0
LINE
  5
18D35
330
747D
100
AcDbEntity
  8
破線
 48
10.0
100
AcDbLine
 10
9890.149070187923
 20
7143.46468250032
 30
0.0
 11
9890.149070187918
 21
9236.964682500422
 31
0.0
  0
LINE
  5
18D36
330
747D
100
AcDbEntity
  8
破線
 48
10.0
100
AcDbLine
 10
9840.149070187926
 20
7143.464682500317
 30
0.0
 11
9840.149070187919
 21
9236.964682500426
 31
0.0
  0
LINE
  5
18D37
330
747D
100
AcDbEntity
  8
部品1
100
AcDbLine
 10
9877.649070187947
 20
9688.964682500433
 30
0.0
 11
11362.14907018795
 21
9688.964682500415
 31
0.0
  0
LINE
  5
18D38
330
747D
100
AcDbEntity
  8
細線
 48
50.0
100
AcDbLine
 10
11361.64907018795
 20
9236.964682500419
 30
0.0
 11
9878.649070187947
 21
9686.964682500418
 31
0.0
  0
LINE
  5
18D39
330
747D
100
AcDbEntity
  8
部品1
100
AcDbLine
 10
9878.649070187947
 20
9236.964682500426
 30
0.0
 11
11361.64907018795
 21
9236.964682500419
 31
0.0
  0
LINE
  5
18D3A
330
747D
100
AcDbEntity
  8
部品1
100
AcDbLine
 10
9878.649070187947
 20
9686.964682500423
 30
0.0
 11
11361.64907018795
 21
9686.964682500416
 31
0.0
  0
LINE
  5
18D3B
330
747D
100
AcDbEntity
  8
細線
 48
50.0
100
AcDbLine
 10
11361.64907018795
 20
9686.964682500416
 30
0.0
 11
9878.649070187947
 21
9236.964682500426
 31
0.0
  0
DIMENSION
  5
18D3C
330
747D
100
AcDbEntity
  8
寸法
100
AcDbDimension
  2
*D8
 10
11290.71906386927
 20
8972.250295137978
 30
0.0
 11
10390.21278118599
 21
8972.250295137978
 31
0.0
 70
   160
 71
     5
 42
1483.000000000013
  3
INABA_S40G
100
AcDbAlignedDimension
 13
9878.64907018794
 23
9236.96468250049
 33
0.0
 14
11361.64907018795
 24
9236.964682500483
 34
0.0
100
AcDbRotatedDimension
1001
ACAD
1000
DSTYLE
1002
{
1002
}
  0
LINE
  5
18D3D
330
747D
100
AcDbEntity
  8
破線
 48
10.0
100
AcDbLine
 10
11310.14907018795
 20
7166.964682500403
 30
0.0
 11
10617.64907018792
 21
7166.964682500346
 31
0.0
  0
LINE
  5
18D3E
330
747D
100
AcDbEntity
  8
部品1
100
AcDbLine
 10
11390.14907018792
 20
7086.964682500408
 30
0.0
 11
10915.14907018795
 21
7086.964682500393
 31
0.0
  0
LINE
  5
18D3F
330
747D
100
AcDbEntity
  8
部品1
100
AcDbLine
 10
8395.149070187914
 20
9716.964682500288
 30
0.0
 11
8395.149070187914
 21
9688.964682500287
 31
0.0
  0
LINE
  5
18D40
330
747D
100
AcDbEntity
  8
部品1
100
AcDbLine
 10
8395.149070187946
 20
9716.96468250032
 30
0.0
 11
8395.149070187946
 21
9688.964682500319
 31
0.0
  0
LINE
  5
18D41
330
747D
100
AcDbEntity
  8
部品1
100
AcDbLine
 10
8368.149070187914
 20
9661.964682500292
 30
0.0
 11
8340.149070187914
 21
9661.964682500292
 31
0.0
  0
DIMENSION
  5
18D42
330
747D
100
AcDbEntity
  8
寸法
100
AcDbDimension
  2
*D9
 10
8395.149070187946
 20
10216.96468250032
 30
0.0
 11
8031.663788813673
 21
10216.96468250032
 31
0.0
 70
   160
 71
     5
 42
55.00000000003274
  3
INABA_S40G
100
AcDbAlignedDimension
 13
8340.149070187914
 23
9716.96468250032
 33
0.0
 14
8395.149070187946
 24
9716.96468250032
 34
0.0
100
AcDbRotatedDimension
1001
ACAD
1000
DSTYLE
1002
{
1002
}
  0
LINE
  5
18D43
330
747D
100
AcDbEntity
  8
部品1
100
AcDbLine
 10
8368.149070187921
 20
9241.964682500292
 30
0.0
 11
8340.149070187921
 21
9241.964682500292
 31
0.0
  0
LINE
  5
18D44
330
747D
100
AcDbEntity
  8
部品1
100
AcDbLine
 10
8368.149070187921
 20
8821.964682500292
 30
0.0
 11
8340.149070187921
 21
8821.964682500292
 31
0.0
  0
LINE
  5
18D45
330
747D
100
AcDbEntity
  8
部品1
100
AcDbLine
 10
8368.149070187939
 20
9236.46468250029
 30
0.0
 11
8368.149070187946
 21
9688.964682500319
 31
0.0
  0
LINE
  5
18D46
330
747D
100
AcDbEntity
  8
部品1
 48
50.0
100
AcDbLine
 10
8368.649070187878
 20
9686.964682500423
 30
0.0
 11
8368.649070187878
 21
9236.964682500426
 31
0.0
  0
LINE
  5
18D47
330
747D
100
AcDbEntity
  8
部品1
100
AcDbLine
 10
8395.149070187915
 20
7086.964682500408
 30
0.0
 11
8395.149070187915
 21
7114.964682500406
 31
0.0
  0
LINE
  5
18D48
330
747D
100
AcDbEntity
  8
部品1
 48
50.0
100
AcDbLine
 10
8396.649070187935
 20
7143.464682500383
 30
0.0
 11
8368.149070187939
 21
7114.964682500385
 31
0.0
  0
LINE
  5
18D49
330
747D
100
AcDbEntity
  8
部品1
100
AcDbLine
 10
8340.149070187939
 20
7141.96468250024
 30
0.0
 11
8340.149070187941
 21
7086.964682500243
 31
0.0
  0
LINE
  5
18D4A
330
747D
100
AcDbEntity
  8
部品1
100
AcDbLine
 10
8368.149070187923
 20
7141.96468250024
 30
0.0
 11
8340.149070187939
 21
7141.96468250024
 31
0.0
  0
LINE
  5
18D4B
330
747D
100
AcDbEntity
  8
部品1
100
AcDbLine
 10
8368.149070187923
 20
7141.964682500277
 30
0.0
 11
8340.149070187939
 21
7141.964682500277
 31
0.0
  0
LINE
  5
18D4C
330
747D
100
AcDbEntity
  8
部品1
100
AcDbLine
 10
8368.149070187939
 20
7141.964682500291
 30
0.0
 11
8340.149070187939
 21
7141.964682500291
 31
0.0
  0
LINE
  5
18D4D
330
747D
100
AcDbEntity
  8
部品1
100
AcDbLine
 10
8396.649070187924
 20
9236.964682500367
 30
0.0
 11
8396.649070187935
 21
7143.464682500383
 31
0.0
  0
LINE
  5
18D4E
330
747D
100
AcDbEntity
  8
部品1
100
AcDbLine
 10
8340.149070187914
 20
9716.964682500288
 30
0.0
 11
8340.149070187941
 21
7086.964682500276
 31
0.0
  0
LINE
  5
18D4F
330
747D
100
AcDbEntity
  8
部品1
100
AcDbLine
 10
8368.149070187921
 20
7114.964682500367
 30
0.0
 11
8368.149070187939
 21
9241.964682500292
 31
0.0
  0
LINE
  5
18D50
330
747D
100
AcDbEntity
  8
破線
 48
10.0
100
AcDbLine
 10
8420.149070187923
 20
9236.964682500419
 30
0.0
 11
8420.149070187937
 21
7166.964682500287
 31
0.0
  0
LINE
  5
18D51
330
747D
100
AcDbEntity
  8
部品1
 48
50.0
100
AcDbLine
 10
8368.149070187943
 20
7114.96468250039
 30
0.0
 11
11362.14907018796
 21
7114.964682500392
 31
0.0
  0
LINE
  5
18D52
330
747D
100
AcDbEntity
  8
部品1
100
AcDbLine
 10
11333.64907018793
 20
8821.964682500389
 30
0.0
 11
8396.649070187931
 21
8821.964682500292
 31
0.0
  0
LINE
  5
18D54
330
747D
100
AcDbEntity
  8
部品1
100
AcDbLine
 10
8340.149070187946
 20
9716.96468250032
 30
0.0
 11
11390.14907018795
 21
9716.964682500416
 31
0.0
  0
LINE
  5
18D55
330
747D
100
AcDbEntity
  8
部品1
100
AcDbLine
 10
11333.64907018795
 20
7143.464682500408
 30
0.0
 11
8396.649070187841
 21
7143.464682500287
 31
0.0
  0
DIMENSION
  5
18D56
330
747D
100
AcDbEntity
  8
寸法
100
AcDbDimension
  2
*D10
 10
11335.14907018795
 20
10216.96468250036
 30
0.0
 11
9865.149070187946
 21
10216.96468250036
 31
0.0
 70
   160
  1
7X420=<>
 71
     5
 42
2940.000000000002
  3
INABA_S40G
100
AcDbAlignedDimension
 13
8395.149070187946
 23
9716.96468250032
 33
0.0
 14
11335.14907018795
 24
9716.964682500416
 34
0.0
100
AcDbRotatedDimension
1001
ACAD
1000
DSTYLE
1002
{
1002
}
  0
DIMENSION
  5
18D57
330
747D
100
AcDbEntity
  8
寸法
100
AcDbDimension
  2
*D11
 10
9780.719063869275
 20
8972.250295137978
 30
0.0
 11
8928.334621018661
 21
8972.250295137978
 31
0.0
 70
   160
 71
     5
 42
1483.000000000071
  3
INABA_S40G
100
AcDbAlignedDimension
 13
8368.649070187869
 23
9236.964682500433
 33
0.0
 14
9851.649070187942
 24
9236.964682500426
 34
0.0
100
AcDbRotatedDimension
1001
ACAD
1000
DSTYLE
1002
{
1002
}
  0
LINE
  5
18D58
330
747D
100
AcDbEntity
  8
破線
 48
10.0
100
AcDbLine
 10
9112.649070187925
 20
7166.964682500277
 30
0.0
 11
8420.149070187934
 21
7166.964682500287
 31
0.0
  0
LINE
  5
18D59
330
747D
100
AcDbEntity
  8
部品1
100
AcDbLine
 10
8815.149070187919
 20
7086.964682500276
 30
0.0
 11
8340.149070187941
 21
7086.964682500276
 31
0.0
  0
LINE
  5
18D5A
330
747D
100
AcDbEntity
  8
部品1
100
AcDbLine
 10
8368.649070187878
 20
9236.964682500367
 30
0.0
 11
9851.649070187946
 21
9236.964682500426
 31
0.0
  0
LINE
  5
18D5B
330
747D
100
AcDbEntity
  8
部品1
100
AcDbLine
 10
8368.649070187878
 20
9686.964682500367
 30
0.0
 11
9851.649070187946
 21
9686.964682500425
 31
0.0
  0
LINE
  5
18D5C
330
747D
100
AcDbEntity
  8
部品1
100
AcDbLine
 10
8395.149070187946
 20
9688.964682500436
 30
0.0
 11
9852.649070187947
 21
9688.964682500436
 31
0.0
  0
LINE
  5
18D5D
330
747D
100
AcDbEntity
  8
細線
 48
50.0
100
AcDbLine
 10
9851.649070187946
 20
9686.964682500423
 30
0.0
 11
8368.649070187878
 21
9236.964682500367
 31
0.0
  0
LINE
  5
18D5E
330
747D
100
AcDbEntity
  8
細線
 48
50.0
100
AcDbLine
 10
9851.649070187946
 20
9236.964682500426
 30
0.0
 11
8368.649070187878
 21
9686.964682500367
 31
0.0
  0
LINE
  5
18D5F
330
747D
100
AcDbEntity
  8
部品1
100
AcDbLine
 10
8368.149070187946
 20
9688.964682500319
 30
0.0
 11
9340.149070187946
 21
9688.964682500325
 31
0.0
  0
LINE
  5
18D60
330
747D
100
AcDbEntity
  8
部品1
 48
50.0
100
AcDbLine
 10
10492.14907018793
 20
1932.546703476228
 30
0.0
 11
10492.14907018793
 21
1832.546703476228
 31
0.0
  0
LINE
  5
18D61
330
747D
100
AcDbEntity
  8
部品1
 48
50.0
100
AcDbLine
 10
10692.14907018793
 20
1932.546703476228
 30
0.0
 11
10692.14907018793
 21
1832.546703476228
 31
0.0
  0
LINE
  5
18D62
330
747D
100
AcDbEntity
  8
部品1
100
AcDbLine
 10
11335.14907018794
 20
3772.546703476229
 30
0.0
 11
11335.14907018794
 21
1982.546703476248
 31
0.0
  0
LINE
  5
18D63
330
747D
100
AcDbEntity
  8
部品1
100
AcDbLine
 10
10942.14907018794
 20
1982.546703476248
 30
0.0
 11
11390.14907018794
 21
1982.546703476248
 31
0.0
  0
LINE
  5
18D64
330
747D
100
AcDbEntity
  8
破線
 48
5.0
100
AcDbLine
 10
11415.14907018793
 20
1677.546703476228
 30
0.0
 11
11395.14907018793
 21
1677.546703476228
 31
0.0
  0
LINE
  5
18D65
330
747D
100
AcDbEntity
  8
破線
 48
5.0
100
AcDbLine
 10
11395.14907018793
 20
1832.546703476228
 30
0.0
 11
11395.14907018793
 21
1677.546703476228
 31
0.0
  0
LINE
  5
18D66
330
747D
100
AcDbEntity
  8
部品1
100
AcDbLine
 10
11395.14907018793
 20
1977.546703476228
 30
0.0
 11
11395.14907018793
 21
1832.546703476228
 31
0.0
  0
LINE
  5
18D67
330
747D
100
AcDbEntity
  8
部品1
100
AcDbLine
 10
11390.14907018794
 20
3826.046703476228
 30
0.0
 11
11390.14907018794
 21
1832.546703476228
 31
0.0
  0
LINE
  5
18D68
330
747D
100
AcDbEntity
  8
部品1
100
AcDbLine
 10
10990.14907018793
 20
1932.546703476228
 30
0.0
 11
10990.14907018793
 21
1832.546703476228
 31
0.0
  0
LINE
  5
18D69
330
747D
100
AcDbEntity
  8
部品1
 48
50.0
100
AcDbLine
 10
9965.149070187939
 20
1932.546703476228
 30
0.0
 11
9965.149070187939
 21
1832.546703476228
 31
0.0
  0
LINE
  5
18D6A
330
747D
100
AcDbEntity
  8
部品1
 48
50.0
100
AcDbLine
 10
9765.149070187938
 20
1932.546703476228
 30
0.0
 11
9765.149070187938
 21
1832.546703476228
 31
0.0
  0
LINE
  5
18D6B
330
747D
100
AcDbEntity
  8
部品1
 48
50.0
100
AcDbLine
 10
9238.149070187937
 20
1932.546703476228
 30
0.0
 11
9238.149070187937
 21
1832.546703476228
 31
0.0
  0
LINE
  5
18D6C
330
747D
100
AcDbEntity
  8
部品1
 48
50.0
100
AcDbLine
 10
9038.149070187937
 20
1932.546703476228
 30
0.0
 11
9038.149070187937
 21
1832.546703476228
 31
0.0
  0
LINE
  5
18D6D
330
747D
100
AcDbEntity
  8
部品1
100
AcDbLine
 10
8340.149070187939
 20
1982.546703476248
 30
0.0
 11
8788.149070187939
 21
1982.546703476248
 31
0.0
  0
LINE
  5
18D6E
330
747D
100
AcDbEntity
  8
部品1
100
AcDbLine
 10
8740.149070187937
 20
1932.546703476228
 30
0.0
 11
8740.149070187937
 21
1832.546703476228
 31
0.0
  0
LINE
  5
18D6F
330
747D
100
AcDbEntity
  8
破線
 48
5.0
100
AcDbLine
 10
8315.149070187938
 20
1677.546703476228
 30
0.0
 11
8335.14907018794
 21
1677.546703476228
 31
0.0
  0
LINE
  5
18D70
330
747D
100
AcDbEntity
  8
破線
 48
5.0
100
AcDbLine
 10
8335.149070187936
 20
1832.546703476228
 30
0.0
 11
8335.149070187936
 21
1677.546703476228
 31
0.0
  0
LINE
  5
18D71
330
747D
100
AcDbEntity
  8
部品1
100
AcDbLine
 10
8335.149070187936
 20
1977.54670347623
 30
0.0
 11
8335.149070187936
 21
1832.546703476228
 31
0.0
  0
LINE
  5
18D72
330
747D
100
AcDbEntity
  8
部品1
100
AcDbLine
 10
8340.149070187939
 20
3826.046703476228
 30
0.0
 11
8340.149070187939
 21
1832.546703476228
 31
0.0
  0
LINE
  5
18D73
330
747D
100
AcDbEntity
  8
部品1
 48
50.0
100
AcDbLine
 10
8395.149070187938
 20
1982.546703476248
 30
0.0
 11
8395.149070187938
 21
3772.546703476229
 31
0.0
  0
LINE
  5
18D74
330
747D
100
AcDbEntity
  8
部品1
100
AcDbLine
 10
8340.149070187939
 20
1932.546703476228
 30
0.0
 11
11390.14907018794
 21
1932.546703476228
 31
0.0
  0
LINE
  5
18D75
330
747D
100
AcDbEntity
  8
部品1
100
AcDbLine
 10
8340.149070187939
 20
3772.546703476229
 30
0.0
 11
11390.14907018794
 21
3772.546703476229
 31
0.0
  0
LINE
  5
18D76
330
747D
100
AcDbEntity
  8
部品1
 48
50.0
100
AcDbLine
 10
8368.149070187939
 20
1932.546703476228
 30
0.0
 11
10942.14907018794
 21
1932.546703476228
 31
0.0
  0
LINE
  5
18D77
330
747D
100
AcDbEntity
  8
部品1
100
AcDbLine
 10
8340.149070187939
 20
3772.546703476229
 30
0.0
 11
11390.14907018794
 21
3772.546703476229
 31
0.0
  0
DIMENSION
  5
18D78
330
747D
100
AcDbEntity
  8
寸法
 48
50.0
100
AcDbDimension
  2
*D12
 10
8036.84801044354
 20
1990.546703476228
 30
0.0
 11
8036.84801044354
 21
2826.622629830925
 31
0.0
 70
   160
  1
有効開口部高サ<>
 71
     5
 42
1724.999999999999
  3
INABA_S40G
100
AcDbAlignedDimension
 13
8788.149070187939
 23
3715.546703476227
 33
0.0
 14
8788.149070187939
 24
1990.546703476228
 34
0.0
 50
90.0
100
AcDbRotatedDimension
  0
LINE
  5
18D79
330
747D
100
AcDbEntity
  8
部品1
100
AcDbLine
 10
10246.88440330215
 20
1143.508440498817
 30
0.0
 11
9483.413737073719
 21
1143.508440498817
 31
0.0
  0
LINE
  5
18D7A
330
747D
100
AcDbEntity
  8
部品1
100
AcDbLine
 10
10246.88440330215
 20
903.6161189532849
 30
0.0
 11
10246.88440330215
 21
1143.508440498817
 31
0.0
  0
LINE
  5
18D7B
330
747D
100
AcDbEntity
  8
部品1
100
AcDbLine
 10
9483.413737073719
 20
903.6161189532849
 30
0.0
 11
10246.88440330215
 21
903.6161189532849
 31
0.0
  0
LINE
  5
18D7C
330
747D
100
AcDbEntity
  8
部品1
100
AcDbLine
 10
9483.413737073719
 20
1143.508440498817
 30
0.0
 11
9483.413737073719
 21
903.6161189532849
 31
0.0
  0
TEXT
  5
18D82
330
747D
100
AcDbEntity
  8
部品1
100
AcDbText
 10
9573.939140811672
 20
950.614911280294
 30
0.0
 40
135.0
  1
正面図
  7
STYLE2
100
AcDbText
  0
LINE
  5
18D83
330
747D
100
AcDbEntity
  8
Ｇ．Ｌ
100
AcDbLine
 10
1703.633812273969
 20
1832.546703476228
 30
0.0
 11
12013.46162321678
 21
1832.546703476228
 31
0.0
  0
LINE
  5
18D84
330
747D
100
AcDbEntity
  8
部品1
100
AcDbLine
 10
11333.64907018793
 20
7561.96468250039
 30
0.0
 11
8396.649070187931
 21
7561.964682500292
 31
0.0
  0
LINE
  5
18D85
330
747D
100
AcDbEntity
  8
部品1
100
AcDbLine
 10
8368.149070187921
 20
7561.964682500292
 30
0.0
 11
8340.149070187921
 21
7561.964682500292
 31
0.0
  0
LINE
  5
18D86
330
747D
100
AcDbEntity
  8
部品1
100
AcDbLine
 10
11362.14907018795
 20
7561.964682500418
 30
0.0
 11
11390.14907018795
 21
7561.964682500418
 31
0.0
  0
DIMENSION
  5
18D87
330
747D
100
AcDbEntity
  8
寸法
 48
50.0
100
AcDbDimension
  2
*D13
 10
8230.149070187938
 20
1346.49937417585
 30
0.0
 11
8330.149070187937
 21
1346.49937417585
 31
0.0
 70
   160
 71
     5
 42
200.0000000000018
  3
INABA_S40G
100
AcDbAlignedDimension
 13
8430.149070187939
 23
1632.546703476227
 33
0.0
 14
8230.149070187938
 24
1632.546703476227
 34
0.0
100
AcDbRotatedDimension
  0
LINE
  5
19175
330
747D
100
AcDbEntity
  8
補助
  6
PHANTOM
 62
   230
 48
50.0
100
AcDbLine
 10
140.0
 20
0.0
 30
0.0
 11
140.0
 21
11409.6
 31
0.0
  0
LINE
  5
191CD
330
747D
100
AcDbEntity
  8
部品1
100
AcDbLine
 10
11333.64907018793
 20
8401.964682500389
 30
0.0
 11
8396.649070187931
 21
8401.96468250029
 31
0.0
  0
LINE
  5
191CE
330
747D
100
AcDbEntity
  8
部品1
100
AcDbLine
 10
8368.149070187921
 20
8401.96468250029
 30
0.0
 11
8340.149070187921
 21
8401.96468250029
 31
0.0
  0
LINE
  5
191CF
330
747D
100
AcDbEntity
  8
部品1
100
AcDbLine
 10
11362.14907018795
 20
8401.964682500418
 30
0.0
 11
11390.14907018795
 21
8401.964682500418
 31
0.0
  0
LINE
  5
19488
330
747D
100
AcDbEntity
  8
部品1
 48
50.0
100
AcDbLine
 10
4418.052040850692
 20
1932.546703476228
 30
0.0
 11
4418.052040850692
 21
1832.546703476228
 31
0.0
  0
LINE
  5
19489
330
747D
100
AcDbEntity
  8
部品1
 48
50.0
100
AcDbLine
 10
4618.052040850693
 20
1932.546703476228
 30
0.0
 11
4618.052040850693
 21
1832.546703476228
 31
0.0
  0
LINE
  5
1948A
330
747D
100
AcDbEntity
  8
部品1
 48
50.0
100
AcDbLine
 10
5248.052040850692
 20
1932.546703476228
 30
0.0
 11
5248.052040850692
 21
1832.546703476228
 31
0.0
  0
LINE
  5
1948B
330
747D
100
AcDbEntity
  8
部品1
 48
50.0
100
AcDbLine
 10
5448.052040850693
 20
1932.546703476228
 30
0.0
 11
5448.052040850693
 21
1832.546703476228
 31
0.0
  0
LINE
  5
1948C
330
747D
100
AcDbEntity
  8
部品1
100
AcDbLine
 10
3665.552040850693
 20
1932.546703476228
 30
0.0
 11
6200.552040850691
 21
1932.546703476228
 31
0.0
  0
LINE
  5
1948D
330
747D
100
AcDbEntity
  8
部品1
100
AcDbLine
 10
6240.55204085069
 20
1932.546703476228
 30
0.0
 11
6248.052040850694
 21
1932.546703476228
 31
0.0
  0
LINE
  5
1948E
330
747D
100
AcDbEntity
  8
細線
 48
50.0
100
AcDbLine
 10
5695.552040850695
 20
3772.54670347623
 30
0.0
 11
5695.552040850695
 21
1982.54670347623
 31
0.0
  0
LINE
  5
1948F
330
747D
100
AcDbEntity
  8
細線
 48
50.0
100
AcDbLine
 10
5710.552040850695
 20
3772.54670347623
 30
0.0
 11
5710.552040850695
 21
1982.54670347623
 31
0.0
  0
LINE
  5
19490
330
747D
100
AcDbEntity
  8
細線
 48
50.0
100
AcDbLine
 10
5570.552040850695
 20
3772.54670347623
 30
0.0
 11
5570.552040850695
 21
1982.54670347623
 31
0.0
  0
LINE
  5
19491
330
747D
100
AcDbEntity
  8
細線
 48
50.0
100
AcDbLine
 10
5555.552040850694
 20
3772.54670347623
 30
0.0
 11
5555.552040850694
 21
1982.54670347623
 31
0.0
  0
LINE
  5
19492
330
747D
100
AcDbEntity
  8
細線
 48
50.0
100
AcDbLine
 10
5415.552040850695
 20
3772.54670347623
 30
0.0
 11
5415.552040850695
 21
1982.54670347623
 31
0.0
  0
LINE
  5
19493
330
747D
100
AcDbEntity
  8
細線
 48
50.0
100
AcDbLine
 10
5430.552040850694
 20
3772.54670347623
 30
0.0
 11
5430.552040850694
 21
1982.54670347623
 31
0.0
  0
LINE
  5
19494
330
747D
100
AcDbEntity
  8
部品1
100
AcDbLine
 10
5353.052040850688
 20
3772.54670347623
 30
0.0
 11
5353.052040850688
 21
1982.54670347623
 31
0.0
  0
LINE
  5
19495
330
747D
100
AcDbEntity
  8
部品1
100
AcDbLine
 10
4793.277171279931
 20
4132.751091439246
 30
0.0
 11
5118.732184922968
 21
4115.233032480385
 31
0.0
  0
ARC
  5
19496
330
747D
100
AcDbEntity
  8
部品1
100
AcDbCircle
 10
6313.679576664633
 20
3846.570460742022
 30
0.0
 40
0.7
100
AcDbArc
 50
275.0921697642079
 51
354.1866997666569
  0
ARC
  5
19497
330
747D
100
AcDbEntity
  8
部品1
100
AcDbCircle
 10
6324.538922413953
 20
3923.613715559945
 30
0.0
 40
0.7
100
AcDbArc
 50
275.0921697642079
 51
354.1866997664389
  0
ARC
  5
19498
330
747D
100
AcDbEntity
  8
部品1
100
AcDbCircle
 10
6324.867327656555
 20
3919.928318702855
 30
0.0
 40
3.0
100
AcDbArc
 50
95.0921697643163
 51
174.1866997664389
  0
ARC
  5
19499
330
747D
100
AcDbEntity
  8
部品1
100
AcDbCircle
 10
6314.007981907229
 20
3842.885063884931
 30
0.0
 40
3.0
100
AcDbArc
 50
95.09216976420788
 51
174.1866997664389
  0
ARC
  5
1949A
330
747D
100
AcDbEntity
  8
部品1
 48
50.0
100
AcDbCircle
 10
6302.979846632124
 20
3833.294319281049
 30
0.0
 40
7.0
100
AcDbArc
 50
267.8377559870533
 51
354.1866997664389
  0
ARC
  5
1949B
330
747D
100
AcDbEntity
  8
部品1
 48
50.0
100
AcDbCircle
 10
6320.30194309664
 20
3944.196866423222
 30
0.0
 40
7.0
100
AcDbArc
 50
354.1866997664389
 51
87.03587545293636
  0
LINE
  5
1949C
330
747D
100
AcDbEntity
  8
部品1
 48
50.0
100
AcDbLine
 10
6311.023410236622
 20
3843.188925601834
 30
0.0
 11
6309.943847196881
 21
3832.585308608275
 31
0.0
  0
LINE
  5
1949D
330
747D
100
AcDbEntity
  8
部品1
 48
50.0
100
AcDbLine
 10
6321.882755985944
 20
3920.232180419758
 30
0.0
 11
6314.375976721107
 21
3846.499559674746
 31
0.0
  0
LINE
  5
1949E
330
747D
100
AcDbEntity
  8
部品1
 48
50.0
100
AcDbLine
 10
6327.265943661395
 20
3943.487855750447
 30
0.0
 11
6325.235322470426
 21
3923.542814492667
 31
0.0
  0
ARC
  5
1949F
330
747D
100
AcDbEntity
  8
部品1
100
AcDbCircle
 10
3564.089132722058
 20
3886.360862435132
 30
0.0
 40
0.7
100
AcDbArc
 50
181.0932240292114
 51
260.1877540315872
  0
ARC
  5
194A0
330
747D
100
AcDbEntity
  8
部品1
100
AcDbCircle
 10
3559.316459124448
 20
3979.226640635251
 30
0.0
 40
0.7
100
AcDbArc
 50
181.0932240292114
 51
260.1877540315872
  0
ARC
  5
194A1
330
747D
100
AcDbEntity
  8
部品1
100
AcDbCircle
 10
3558.685904721425
 20
3975.580766097854
 30
0.0
 40
3.0
100
AcDbArc
 50
1.093224029315636
 51
80.18775403158718
  0
ARC
  5
194A2
330
747D
100
AcDbEntity
  8
部品1
100
AcDbCircle
 10
3563.458578319032
 20
3882.714987897735
 30
0.0
 40
3.0
100
AcDbArc
 50
1.093224029315636
 51
80.18775403158718
  0
ARC
  5
194A3
330
747D
100
AcDbEntity
  8
部品1
 48
50.0
100
AcDbCircle
 10
3573.658710694234
 20
3872.322744515253
 30
0.0
 40
7.0
100
AcDbArc
 50
181.0932240293156
 51
267.8377559870533
  0
ARC
  5
194A4
330
747D
100
AcDbEntity
  8
部品1
 48
50.0
100
AcDbCircle
 10
3565.235052592138
 20
3999.273804048348
 30
0.0
 40
7.0
100
AcDbArc
 50
87.03587545293636
 51
181.0932240293156
  0
LINE
  5
194A5
330
747D
100
AcDbEntity
  8
部品1
 48
50.0
100
AcDbLine
 10
3566.458032245463
 20
3882.772225500918
 30
0.0
 11
3566.659984865893
 21
3872.189190107825
 31
0.0
  0
LINE
  5
194A6
330
747D
100
AcDbEntity
  8
細線
 48
50.0
100
AcDbLine
 10
3563.851939188791
 20
3885.702273619726
 30
0.0
 11
6313.855603619431
 21
3845.892954645233
 31
0.0
  0
LINE
  5
194A7
330
747D
100
AcDbEntity
  8
細線
 48
50.0
100
AcDbLine
 10
3559.091463951505
 20
3978.563785317589
 30
0.0
 11
6324.727448696678
 21
3922.939580676762
 31
0.0
  0
LINE
  5
194A8
330
747D
100
AcDbEntity
  8
部品1
 48
50.0
100
AcDbLine
 10
3561.685358647856
 20
3975.638003701037
 30
0.0
 11
3563.38926013922
 21
3886.34750699439
 31
0.0
  0
LINE
  5
194A9
330
747D
100
AcDbEntity
  8
部品1
 48
50.0
100
AcDbLine
 10
3558.236326763797
 20
3999.140249640921
 30
0.0
 11
3558.61658654161
 21
3979.213285194509
 31
0.0
  0
LINE
  5
194AA
330
747D
100
AcDbEntity
  8
細線
 48
50.0
100
AcDbLine
 10
6295.02132404438
 20
3951.700125955698
 30
0.0
 11
6290.304357962696
 21
3826.767910020781
 31
0.0
  0
LINE
  5
194AB
330
747D
100
AcDbEntity
  8
細線
 48
50.0
100
AcDbLine
 10
3591.052040850691
 20
4004.946379851633
 30
0.0
 11
3585.762939295185
 21
3864.860747224279
 31
0.0
  0
LINE
  5
194AC
330
747D
100
AcDbEntity
  8
部品1
100
AcDbLine
 10
3573.394605452644
 20
3865.327728545195
 30
0.0
 11
6302.715741390541
 21
3826.29930331099
 31
0.0
  0
LINE
  5
194AD
330
747D
100
AcDbEntity
  8
部品1
100
AcDbLine
 10
3565.597027207654
 20
4006.264438810495
 30
0.0
 11
6320.663917712158
 21
3951.187501185368
 31
0.0
  0
LINE
  5
194AE
330
747D
100
AcDbEntity
  8
部品1
 48
50.0
100
AcDbLine
 10
4818.732184922968
 20
4131.433032480384
 30
0.0
 11
5118.732184922968
 21
4131.433032480384
 31
0.0
  0
LINE
  5
194AF
330
747D
100
AcDbEntity
  8
部品1
 48
50.0
100
AcDbLine
 10
5118.732184922968
 20
4131.433032480384
 30
0.0
 11
5118.732184922968
 21
4115.233032480385
 31
0.0
  0
TEXT
  5
194B0
330
747D
100
AcDbEntity
  8
部品1
 48
50.0
100
AcDbText
 10
4807.000020146695
 20
4167.317054632817
 30
0.0
 40
120.0
  1
1000
  7
STYLE1
100
AcDbText
  0
TEXT
  5
194B1
330
747D
100
AcDbEntity
  8
部品1
 48
50.0
100
AcDbText
 10
5284.633042811785
 20
4029.815796414534
 30
0.0
 40
120.0
  1
37
 50
90.0
  7
STYLE1
100
AcDbText
  0
LINE
  5
194B2
330
747D
100
AcDbEntity
  8
細線
 48
50.0
100
AcDbLine
 10
5010.552040850694
 20
3772.546703476229
 30
0.0
 11
5010.552040850694
 21
1982.546703476228
 31
0.0
  0
LINE
  5
194B3
330
747D
100
AcDbEntity
  8
細線
 48
50.0
100
AcDbLine
 10
4995.552040850695
 20
3772.546703476229
 30
0.0
 11
4995.552040850695
 21
1982.546703476228
 31
0.0
  0
LINE
  5
194B4
330
747D
100
AcDbEntity
  8
細線
 48
50.0
100
AcDbLine
 10
5135.552040850694
 20
3772.546703476229
 30
0.0
 11
5135.552040850694
 21
1982.546703476228
 31
0.0
  0
LINE
  5
194B5
330
747D
100
AcDbEntity
  8
細線
 48
50.0
100
AcDbLine
 10
5150.552040850694
 20
3772.546703476229
 30
0.0
 11
5150.552040850694
 21
1982.546703476228
 31
0.0
  0
LINE
  5
194B6
330
747D
100
AcDbEntity
  8
細線
 48
50.0
100
AcDbLine
 10
5290.552040850695
 20
3772.546703476229
 30
0.0
 11
5290.552040850695
 21
1982.546703476228
 31
0.0
  0
LINE
  5
194B7
330
747D
100
AcDbEntity
  8
細線
 48
50.0
100
AcDbLine
 10
5275.552040850694
 20
3772.546703476229
 30
0.0
 11
5275.552040850694
 21
1982.546703476228
 31
0.0
  0
LINE
  5
194B8
330
747D
100
AcDbEntity
  8
部品1
100
AcDbLine
 10
5773.052040850691
 20
3772.546703476229
 30
0.0
 11
5773.052040850691
 21
1982.546703476229
 31
0.0
  0
LINE
  5
194B9
330
747D
100
AcDbEntity
  8
部品1
100
AcDbLine
 10
3618.052040850691
 20
3772.546703476229
 30
0.0
 11
6248.052040850691
 21
3772.546703476229
 31
0.0
  0
LINE
  5
194BA
330
747D
100
AcDbEntity
  8
部品1
100
AcDbLine
 10
3618.052040850691
 20
1982.546703476228
 30
0.0
 11
6248.052040850694
 21
1982.546703476229
 31
0.0
  0
LINE
  5
194BB
330
747D
100
AcDbEntity
  8
部品1
100
AcDbLine
 10
3673.052040850691
 20
3772.546703476229
 30
0.0
 11
3673.052040850691
 21
1982.546703476228
 31
0.0
  0
LINE
  5
194BC
330
747D
100
AcDbEntity
  8
部品1
100
AcDbLine
 10
3618.052040850691
 20
3864.405222918475
 30
0.0
 11
3618.052040850691
 21
1832.546703476228
 31
0.0
  0
LINE
  5
194BD
330
747D
100
AcDbEntity
  8
部品1
100
AcDbLine
 10
4093.05204085069
 20
3772.546703476229
 30
0.0
 11
4093.05204085069
 21
1982.546703476228
 31
0.0
  0
LINE
  5
194BE
330
747D
100
AcDbEntity
  8
部品1
100
AcDbLine
 10
6248.052040850689
 20
3827.080976863967
 30
0.0
 11
6248.052040850694
 21
1832.546703476229
 31
0.0
  0
LINE
  5
194BF
330
747D
100
AcDbEntity
  8
部品1
100
AcDbLine
 10
6193.052040850695
 20
3772.546703476229
 30
0.0
 11
6193.052040850695
 21
1982.546703476229
 31
0.0
  0
DIMENSION
  5
194C0
330
747D
100
AcDbEntity
  8
寸法
100
AcDbDimension
  2
*D18
 10
6952.979198822823
 20
3952.54670347623
 30
0.0
 11
6852.9673877992
 21
2942.54670347623
 31
0.0
 70
    32
 71
     5
 42
2020.000000000001
  3
INABA_S40G
100
AcDbAlignedDimension
 13
6325.052040850694
 23
1932.546703476228
 33
0.0
 14
6328.052040850691
 24
3952.54670347623
 34
0.0
 50
90.0
100
AcDbRotatedDimension
1001
ACAD
1000
DSTYLE
1002
{
1070
   174
1070
     0
1070
   272
1070
     1
1070
   288
1070
     0
1070
   341
1005
0
1002
}
  0
DIMENSION
  5
194C1
330
747D
100
AcDbEntity
  8
寸法
 48
50.0
100
AcDbDimension
  2
*D19
 10
3618.052040850691
 20
4406.204157055532
 30
0.0
 11
4972.822231879885
 21
4406.204157055532
 31
0.0
 70
   160
  1
柱外寸法<>
 71
     5
 42
2630.0
  3
INABA_S40G
100
AcDbAlignedDimension
 13
6248.052040850691
 23
3954.357383087882
 33
0.0
 14
3618.052040850691
 24
4003.548321599204
 34
0.0
100
AcDbRotatedDimension
1001
ACAD
1000
DSTYLE
1002
{
1070
   174
1070
     0
1070
   272
1070
     1
1070
   288
1070
     0
1070
   341
1005
0
1002
}
  0
DIMENSION
  5
194C2
330
747D
100
AcDbEntity
  8
寸法
 48
50.0
100
AcDbDimension
  2
*D20
 10
3558.052040850691
 20
4406.204157055532
 30
0.0
 11
3248.414245575101
 21
4406.204157055532
 31
0.0
 70
   160
 71
     5
 42
60.0
  3
INABA_S40G
100
AcDbAlignedDimension
 13
3618.052040850691
 23
4003.548321599204
 33
0.0
 14
3558.052040850691
 24
4007.546703476232
 34
0.0
100
AcDbRotatedDimension
1001
ACAD
1000
DSTYLE
1002
{
1070
   174
1070
     0
1070
   272
1070
     1
1070
   288
1070
     0
1070
   341
1005
0
1002
}
  0
DIMENSION
  5
194C3
330
747D
100
AcDbEntity
  8
寸法
 48
50.0
100
AcDbDimension
  2
*D21
 10
3558.052040850691
 20
4626.414843787149
 30
0.0
 11
4961.410965738067
 21
4626.414843787149
 31
0.0
 70
   160
 71
     5
 42
2770.0
  3
INABA_S40G
100
AcDbAlignedDimension
 13
6328.052040850691
 23
3952.54670347623
 33
0.0
 14
3558.052040850691
 24
4007.546703476232
 34
0.0
100
AcDbRotatedDimension
1001
ACAD
1000
DSTYLE
1002
{
1070
   174
1070
     0
1070
   272
1070
     1
1070
   288
1070
     0
1070
   341
1005
0
1002
}
  0
LINE
  5
194C4
330
747D
100
AcDbEntity
  8
部品1
100
AcDbLine
 10
3618.052040850691
 20
1932.546703476228
 30
0.0
 11
3625.552040850692
 21
1932.546703476228
 31
0.0
  0
LINE
  5
194C5
330
747D
100
AcDbEntity
  8
細線
 48
50.0
100
AcDbLine
 10
4170.55204085069
 20
3772.546703476229
 30
0.0
 11
4170.55204085069
 21
1982.546703476228
 31
0.0
  0
LINE
  5
194C6
330
747D
100
AcDbEntity
  8
細線
 48
50.0
100
AcDbLine
 10
4155.55204085069
 20
3772.546703476229
 30
0.0
 11
4155.55204085069
 21
1982.546703476228
 31
0.0
  0
LINE
  5
194C7
330
747D
100
AcDbEntity
  8
細線
 48
50.0
100
AcDbLine
 10
4295.55204085069
 20
3772.546703476229
 30
0.0
 11
4295.55204085069
 21
1982.546703476228
 31
0.0
  0
LINE
  5
194C8
330
747D
100
AcDbEntity
  8
細線
 48
50.0
100
AcDbLine
 10
4310.552040850691
 20
3772.546703476229
 30
0.0
 11
4310.552040850691
 21
1982.546703476228
 31
0.0
  0
LINE
  5
194C9
330
747D
100
AcDbEntity
  8
細線
 48
50.0
100
AcDbLine
 10
4450.55204085069
 20
3772.546703476229
 30
0.0
 11
4450.55204085069
 21
1982.546703476228
 31
0.0
  0
LINE
  5
194CA
330
747D
100
AcDbEntity
  8
細線
 48
50.0
100
AcDbLine
 10
4435.552040850691
 20
3772.546703476229
 30
0.0
 11
4435.552040850691
 21
1982.546703476228
 31
0.0
  0
LINE
  5
194CB
330
747D
100
AcDbEntity
  8
細線
 48
50.0
100
AcDbLine
 10
4015.552040850691
 20
3772.546703476229
 30
0.0
 11
4015.552040850691
 21
1982.546703476228
 31
0.0
  0
LINE
  5
194CC
330
747D
100
AcDbEntity
  8
細線
 48
50.0
100
AcDbLine
 10
4030.55204085069
 20
3772.546703476229
 30
0.0
 11
4030.55204085069
 21
1982.546703476228
 31
0.0
  0
LINE
  5
194CD
330
747D
100
AcDbEntity
  8
細線
 48
50.0
100
AcDbLine
 10
3890.552040850691
 20
3772.546703476229
 30
0.0
 11
3890.552040850691
 21
1982.546703476228
 31
0.0
  0
LINE
  5
194CE
330
747D
100
AcDbEntity
  8
細線
 48
50.0
100
AcDbLine
 10
3875.552040850691
 20
3772.546703476229
 30
0.0
 11
3875.552040850691
 21
1982.546703476228
 31
0.0
  0
LINE
  5
194CF
330
747D
100
AcDbEntity
  8
細線
 48
50.0
100
AcDbLine
 10
3735.552040850691
 20
3772.546703476229
 30
0.0
 11
3735.552040850691
 21
1982.546703476228
 31
0.0
  0
LINE
  5
194D0
330
747D
100
AcDbEntity
  8
細線
 48
50.0
100
AcDbLine
 10
3750.552040850691
 20
3772.546703476229
 30
0.0
 11
3750.552040850691
 21
1982.546703476228
 31
0.0
  0
DIMENSION
  5
194D1
330
747D
100
AcDbEntity
  8
寸法
 48
50.0
100
AcDbDimension
  2
*D22
 10
6328.052040850691
 20
4406.204157055532
 30
0.0
 11
6534.099284945181
 21
4406.204157055532
 31
0.0
 70
   160
 71
     5
 42
80.0
  3
INABA_S40G
100
AcDbAlignedDimension
 13
6248.052040850691
 23
3954.357383087882
 33
0.0
 14
6328.052040850691
 24
3952.54670347623
 34
0.0
100
AcDbRotatedDimension
1001
ACAD
1000
DSTYLE
1002
{
1070
   174
1070
     0
1070
   272
1070
     1
1070
   288
1070
     0
1070
   341
1005
0
1002
}
  0
LINE
  5
194D2
330
747D
100
AcDbEntity
  8
部品1
100
AcDbLine
 10
4513.05204085069
 20
3772.546703476229
 30
0.0
 11
4513.05204085069
 21
1982.546703476228
 31
0.0
  0
LINE
  5
194D3
330
747D
100
AcDbEntity
  8
細線
 48
50.0
100
AcDbLine
 10
4855.552040850694
 20
3772.546703476229
 30
0.0
 11
4855.552040850694
 21
1982.546703476228
 31
0.0
  0
LINE
  5
194D4
330
747D
100
AcDbEntity
  8
細線
 48
50.0
100
AcDbLine
 10
4870.552040850695
 20
3772.546703476229
 30
0.0
 11
4870.552040850695
 21
1982.546703476228
 31
0.0
  0
LINE
  5
194D5
330
747D
100
AcDbEntity
  8
細線
 48
50.0
100
AcDbLine
 10
4730.552040850694
 20
3772.546703476229
 30
0.0
 11
4730.552040850694
 21
1982.546703476228
 31
0.0
  0
LINE
  5
194D6
330
747D
100
AcDbEntity
  8
細線
 48
50.0
100
AcDbLine
 10
4715.552040850695
 20
3772.546703476229
 30
0.0
 11
4715.552040850695
 21
1982.546703476228
 31
0.0
  0
LINE
  5
194D7
330
747D
100
AcDbEntity
  8
細線
 48
50.0
100
AcDbLine
 10
4575.552040850694
 20
3772.546703476229
 30
0.0
 11
4575.552040850694
 21
1982.546703476228
 31
0.0
  0
LINE
  5
194D8
330
747D
100
AcDbEntity
  8
細線
 48
50.0
100
AcDbLine
 10
4590.552040850695
 20
3772.546703476229
 30
0.0
 11
4590.552040850695
 21
1982.546703476228
 31
0.0
  0
LINE
  5
194D9
330
747D
100
AcDbEntity
  8
部品1
100
AcDbLine
 10
4933.052040850691
 20
3772.546703476229
 30
0.0
 11
4933.052040850691
 21
1982.546703476228
 31
0.0
  0
LINE
  5
194DA
330
747D
100
AcDbEntity
  8
細線
 48
50.0
100
AcDbLine
 10
5850.552040850698
 20
3772.546703476229
 30
0.0
 11
5850.552040850698
 21
1982.546703476229
 31
0.0
  0
LINE
  5
194DB
330
747D
100
AcDbEntity
  8
細線
 48
50.0
100
AcDbLine
 10
5835.552040850698
 20
3772.546703476229
 30
0.0
 11
5835.552040850698
 21
1982.546703476229
 31
0.0
  0
LINE
  5
194DC
330
747D
100
AcDbEntity
  8
細線
 48
50.0
100
AcDbLine
 10
5975.552040850698
 20
3772.546703476229
 30
0.0
 11
5975.552040850698
 21
1982.546703476229
 31
0.0
  0
LINE
  5
194DD
330
747D
100
AcDbEntity
  8
細線
 48
50.0
100
AcDbLine
 10
5990.552040850698
 20
3772.546703476229
 30
0.0
 11
5990.552040850698
 21
1982.546703476229
 31
0.0
  0
LINE
  5
194DE
330
747D
100
AcDbEntity
  8
細線
 48
50.0
100
AcDbLine
 10
6130.552040850698
 20
3772.546703476229
 30
0.0
 11
6130.552040850698
 21
1982.546703476229
 31
0.0
  0
LINE
  5
194DF
330
747D
100
AcDbEntity
  8
細線
 48
50.0
100
AcDbLine
 10
6115.552040850698
 20
3772.546703476229
 30
0.0
 11
6115.552040850698
 21
1982.546703476229
 31
0.0
  0
LINE
  5
194E0
330
747D
100
AcDbEntity
  8
部品1
100
AcDbLine
 10
3818.052040850691
 20
1932.546703476228
 30
0.0
 11
3818.052040850691
 21
1832.546703476228
 31
0.0
  0
LINE
  5
194E1
330
747D
100
AcDbEntity
  8
部品1
100
AcDbLine
 10
6048.052040850691
 20
1932.546703476228
 30
0.0
 11
6048.052040850691
 21
1832.546703476228
 31
0.0
  0
LINE
  5
194E2
330
747D
100
AcDbEntity
  8
部品1
 48
50.0
100
AcDbLine
 10
6325.052040850694
 20
1932.546703476228
 30
0.0
 11
6240.552040850694
 21
1932.546703476228
 31
0.0
  0
LINE
  5
194E3
330
747D
100
AcDbEntity
  8
部品1
 48
50.0
100
AcDbLine
 10
6325.052040850694
 20
3757.546703476228
 30
0.0
 11
6325.052040850694
 21
1832.546703476228
 31
0.0
  0
LINE
  5
194E4
330
747D
100
AcDbEntity
  8
部品1
 48
50.0
100
AcDbLine
 10
6248.052040850694
 20
3767.546703476228
 30
0.0
 11
6325.052040850694
 21
3757.546703476228
 31
0.0
  0
LINE
  5
194E5
330
747D
100
AcDbEntity
  8
破線
 48
5.0
100
AcDbLine
 10
6120.552040850698
 20
1832.546703476228
 30
0.0
 11
6120.552040850698
 21
1632.546703476227
 31
0.0
  0
LINE
  5
194E6
330
747D
100
AcDbEntity
  8
破線
 48
5.0
100
AcDbLine
 10
6320.552040850695
 20
1632.546703476224
 30
0.0
 11
6120.552040850698
 21
1632.546703476227
 31
0.0
  0
LINE
  5
194E7
330
747D
100
AcDbEntity
  8
破線
 48
5.0
100
AcDbLine
 10
6320.552040850698
 20
1832.546703476228
 30
0.0
 11
6320.552040850695
 21
1632.546703476224
 31
0.0
  0
DIMENSION
  5
194E8
330
747D
100
AcDbEntity
  8
寸法
 48
50.0
100
AcDbDimension
  2
*D23
 10
3545.552040850695
 20
1346.499374175848
 30
0.0
 11
3645.552040850693
 21
1346.499374175848
 31
0.0
 70
   160
 71
     5
 42
199.9999999999963
  3
INABA_S40G
100
AcDbAlignedDimension
 13
3745.552040850691
 23
1632.546703476224
 33
0.0
 14
3545.552040850695
 24
1632.546703476226
 34
0.0
100
AcDbRotatedDimension
  0
LINE
  5
194E9
330
747D
100
AcDbEntity
  8
破線
 48
5.0
100
AcDbLine
 10
3545.552040850691
 20
1832.546703476228
 30
0.0
 11
3545.552040850695
 21
1632.546703476224
 31
0.0
  0
LINE
  5
194EA
330
747D
100
AcDbEntity
  8
破線
 48
5.0
100
AcDbLine
 10
3745.552040850691
 20
1832.546703476228
 30
0.0
 11
3745.552040850691
 21
1632.546703476224
 31
0.0
  0
LINE
  5
194EB
330
747D
100
AcDbEntity
  8
破線
 48
5.0
100
AcDbLine
 10
3745.552040850691
 20
1632.546703476224
 30
0.0
 11
3545.552040850695
 21
1632.546703476224
 31
0.0
  0
DIMENSION
  5
194EC
330
747D
100
AcDbEntity
  8
寸法
 48
50.0
100
AcDbDimension
  2
*D24
 10
3396.052037604057
 20
1832.546703476226
 30
0.0
 11
3396.052037604057
 21
1732.546703476226
 31
0.0
 70
   160
 71
     5
 42
200.0
  3
INABA_S40G
100
AcDbAlignedDimension
 13
3545.552040850695
 23
1632.546703476226
 33
0.0
 14
3520.552040850691
 24
1832.546703476226
 34
0.0
 50
90.0
100
AcDbRotatedDimension
1001
ACAD
1000
DSTYLE
1002
{
1070
   174
1070
     0
1070
   272
1070
     1
1070
   288
1070
     0
1070
   341
1005
0
1002
}
  0
DIMENSION
  5
194ED
330
747D
100
AcDbEntity
  8
寸法
 48
50.0
100
AcDbDimension
  2
*D25
 10
2997.443634082338
 20
3881.891962349558
 30
0.0
 11
3008.109109341263
 21
4252.738625591256
 31
0.0
 70
   161
 71
     5
 42
141.0000000000004
  3
INABA_S40G
100
AcDbAlignedDimension
 13
3577.448061009271
 23
4006.269452310906
 33
0.0
 14
3573.394605452644
 24
3865.327728545194
 34
0.0
1001
ACAD
1000
DSTYLE
1002
{
1070
   174
1070
     0
1070
   272
1070
     1
1070
   288
1070
     0
1070
   341
1005
0
1002
}
  0
LINE
  5
194EE
330
747D
100
AcDbEntity
  8
部品1
100
AcDbLine
 10
6240.55204085069
 20
1932.546703476228
 30
0.0
 11
6248.052040850694
 21
1932.546703476228
 31
0.0
  0
LINE
  5
194EF
330
747D
100
AcDbEntity
  8
破線
  6
HIDDEN
 48
5.0
100
AcDbLine
 10
3665.552040850691
 20
1832.546703476228
 30
0.0
 11
3665.552040850691
 21
1827.546703476228
 31
0.0
  0
LINE
  5
194F0
330
747D
100
AcDbEntity
  8
破線
  6
HIDDEN
 48
5.0
100
AcDbLine
 10
3625.552040850698
 20
1832.546703476228
 30
0.0
 11
3625.552040850698
 21
1827.546703476228
 31
0.0
  0
LINE
  5
194F1
330
747D
100
AcDbEntity
  8
破線
  6
HIDDEN
 48
5.0
100
AcDbLine
 10
6240.55204085069
 20
1832.546703476228
 30
0.0
 11
6240.55204085069
 21
1827.546703476228
 31
0.0
  0
LINE
  5
194F2
330
747D
100
AcDbEntity
  8
破線
  6
HIDDEN
 48
5.0
100
AcDbLine
 10
6200.552040850691
 20
1832.546703476228
 30
0.0
 11
6200.552040850691
 21
1827.546703476228
 31
0.0
  0
ARC
  5
194F3
330
747D
100
AcDbEntity
  8
部品1
 48
50.0
100
AcDbCircle
 10
6235.552040850691
 20
1972.546703476228
 30
0.0
 40
5.0
100
AcDbArc
 50
0.0
 51
90.0
  0
ARC
  5
194F4
330
747D
100
AcDbEntity
  8
部品1
 48
50.0
100
AcDbCircle
 10
6205.55204085069
 20
1972.546703476228
 30
0.0
 40
5.0
100
AcDbArc
 50
90.0
 51
180.0
  0
LINE
  5
194F5
330
747D
100
AcDbEntity
  8
部品1
100
AcDbLine
 10
6235.552040850691
 20
1977.546703476228
 30
0.0
 11
6205.55204085069
 21
1977.546703476228
 31
0.0
  0
LINE
  5
194F6
330
747D
100
AcDbEntity
  8
部品1
 48
50.0
100
AcDbLine
 10
6240.55204085069
 20
1972.546703476228
 30
0.0
 11
6240.55204085069
 21
1832.546703476228
 31
0.0
  0
LINE
  5
194F7
330
747D
100
AcDbEntity
  8
部品1
 48
50.0
100
AcDbLine
 10
6200.552040850691
 20
1972.546703476228
 30
0.0
 11
6200.552040850691
 21
1832.546703476228
 31
0.0
  0
ARC
  5
194F8
330
747D
100
AcDbEntity
  8
部品1
 48
50.0
100
AcDbCircle
 10
3660.552040850691
 20
1972.546703476228
 30
0.0
 40
5.0
100
AcDbArc
 50
0.0
 51
90.0
  0
ARC
  5
194F9
330
747D
100
AcDbEntity
  8
部品1
 48
50.0
100
AcDbCircle
 10
3630.552040850691
 20
1972.546703476228
 30
0.0
 40
5.0
100
AcDbArc
 50
90.0
 51
180.0
  0
LINE
  5
194FA
330
747D
100
AcDbEntity
  8
部品1
100
AcDbLine
 10
3630.552040850691
 20
1977.546703476228
 30
0.0
 11
3660.552040850691
 21
1977.546703476228
 31
0.0
  0
LINE
  5
194FB
330
747D
100
AcDbEntity
  8
部品1
 48
50.0
100
AcDbLine
 10
3665.552040850691
 20
1972.546703476228
 30
0.0
 11
3665.552040850691
 21
1832.546703476228
 31
0.0
  0
LINE
  5
194FC
330
747D
100
AcDbEntity
  8
部品1
 48
50.0
100
AcDbLine
 10
3625.552040850691
 20
1972.546703476228
 30
0.0
 11
3625.552040850691
 21
1832.546703476228
 31
0.0
  0
LINE
  5
194FD
330
747D
100
AcDbEntity
  8
破線
  6
HIDDEN
 48
5.0
100
AcDbLine
 10
3665.552040850691
 20
1827.546703476228
 30
0.0
 11
3680.552040850691
 21
1679.846703476227
 31
0.0
  0
LINE
  5
194FE
330
747D
100
AcDbEntity
  8
破線
  6
HIDDEN
 48
5.0
100
AcDbLine
 10
3625.552040850691
 20
1827.546703476228
 30
0.0
 11
3610.552040850691
 21
1679.846703476227
 31
0.0
  0
LINE
  5
194FF
330
747D
100
AcDbEntity
  8
破線
  6
HIDDEN
 48
5.0
100
AcDbLine
 10
3680.552040850691
 20
1679.846703476227
 30
0.0
 11
3680.552040850691
 21
1677.546703476228
 31
0.0
  0
LINE
  5
19500
330
747D
100
AcDbEntity
  8
破線
  6
HIDDEN
 48
5.0
100
AcDbLine
 10
3610.552040850691
 20
1679.846703476227
 30
0.0
 11
3610.552040850691
 21
1677.546703476228
 31
0.0
  0
LINE
  5
19501
330
747D
100
AcDbEntity
  8
破線
  6
HIDDEN
 48
5.0
100
AcDbLine
 10
3610.552040850691
 20
1677.546703476228
 30
0.0
 11
3680.552040850691
 21
1677.546703476228
 31
0.0
  0
LINE
  5
19502
330
747D
100
AcDbEntity
  8
破線
  6
HIDDEN
 48
5.0
100
AcDbLine
 10
6255.552040850691
 20
1679.846703476227
 30
0.0
 11
6255.552040850691
 21
1677.546703476228
 31
0.0
  0
LINE
  5
19503
330
747D
100
AcDbEntity
  8
破線
  6
HIDDEN
 48
5.0
100
AcDbLine
 10
6240.55204085069
 20
1827.546703476228
 30
0.0
 11
6255.552040850691
 21
1679.846703476227
 31
0.0
  0
LINE
  5
19504
330
747D
100
AcDbEntity
  8
破線
  6
HIDDEN
 48
5.0
100
AcDbLine
 10
6185.552040850691
 20
1679.846703476227
 30
0.0
 11
6185.552040850691
 21
1677.546703476228
 31
0.0
  0
LINE
  5
19505
330
747D
100
AcDbEntity
  8
破線
  6
HIDDEN
 48
5.0
100
AcDbLine
 10
6200.552040850691
 20
1827.546703476228
 30
0.0
 11
6185.552040850691
 21
1679.846703476227
 31
0.0
  0
LINE
  5
19506
330
747D
100
AcDbEntity
  8
破線
  6
HIDDEN
 48
5.0
100
AcDbLine
 10
6255.552040850691
 20
1677.546703476228
 30
0.0
 11
6185.552040850691
 21
1677.546703476228
 31
0.0
  0
DIMENSION
  5
19507
330
747D
100
AcDbEntity
  8
寸法
100
AcDbDimension
  2
*D26
 10
2994.399331692394
 20
1932.546703476227
 30
0.0
 11
2994.399331692394
 21
1626.499459381734
 31
0.0
 70
   160
 71
     5
 42
50.00000000000023
  3
INABA_S40G
100
AcDbAlignedDimension
 13
3618.052040850691
 23
1982.546703476227
 33
0.0
 14
3563.052040850691
 24
1932.546703476227
 34
0.0
 50
90.0
100
AcDbRotatedDimension
1001
ACAD
1000
DSTYLE
1002
{
1070
   174
1070
     0
1070
   272
1070
     1
1070
   288
1070
     0
1070
   341
1005
0
1002
}
  0
DIMENSION
  5
19508
330
747D
100
AcDbEntity
  8
寸法
100
AcDbDimension
  2
*D27
 10
2709.412658921332
 20
1832.546703476227
 30
0.0
 11
2709.412658921332
 21
1596.499459381734
 31
0.0
 70
   160
 71
     5
 42
100.0
  3
INABA_S40G
100
AcDbAlignedDimension
 13
3563.052040850691
 23
1932.546703476227
 33
0.0
 14
2994.399331692394
 24
1832.546703476227
 34
0.0
 50
90.0
100
AcDbRotatedDimension
1001
ACAD
1000
DSTYLE
1002
{
1070
   174
1070
     0
1070
   272
1070
     1
1070
   288
1070
     0
1070
   341
1005
0
1002
}
  0
DIMENSION
  5
19509
330
747D
100
AcDbEntity
  8
寸法
100
AcDbDimension
  2
*D28
 10
2709.412658921333
 20
4007.546703476232
 30
0.0
 11
2709.412658921332
 21
2926.752580969337
 31
0.0
 70
   160
 71
     5
 42
2075.000000000005
  3
INABA_S40G
100
AcDbAlignedDimension
 13
3618.052040850691
 23
1932.546703476227
 33
0.0
 14
3558.052040850691
 24
4007.546703476231
 34
0.0
 50
90.0
100
AcDbRotatedDimension
1001
ACAD
1000
DSTYLE
1002
{
1070
   174
1070
     0
1070
   272
1070
     1
1070
   288
1070
     0
1070
   341
1005
0
1002
}
  0
DIMENSION
  5
1950A
330
747D
100
AcDbEntity
  8
寸法
100
AcDbDimension
  2
*D29
 10
2994.399331692394
 20
1982.546703476227
 30
0.0
 11
2994.399331692394
 21
2873.001002018185
 31
0.0
 70
   160
 71
     5
 42
1790.0
  3
INABA_S40G
100
AcDbAlignedDimension
 13
3618.052040850691
 23
3772.546703476227
 33
0.0
 14
3618.052040850691
 24
1982.546703476227
 34
0.0
 50
90.0
100
AcDbRotatedDimension
1001
ACAD
1000
DSTYLE
1002
{
1070
   174
1070
     0
1070
   272
1070
     1
1070
   288
1070
     0
1070
   341
1005
0
1002
}
  0
LINE
  5
1950B
330
747D
100
AcDbEntity
  8
部品1
100
AcDbLine
 10
3618.052040850691
 20
1932.546703476228
 30
0.0
 11
3625.552040850691
 21
1932.546703476228
 31
0.0
  0
LINE
  5
1950C
330
747D
100
AcDbEntity
  8
部品1
100
AcDbLine
 10
3618.052040850691
 20
1932.546703476228
 30
0.0
 11
3625.552040850691
 21
1932.546703476228
 31
0.0
  0
LINE
  5
1950D
330
747D
100
AcDbEntity
  8
部品1
100
AcDbLine
 10
6240.55204085069
 20
1932.546703476228
 30
0.0
 11
6248.052040850694
 21
1932.546703476228
 31
0.0
  0
LINE
  5
1950E
330
747D
100
AcDbEntity
  8
部品1
100
AcDbLine
 10
5324.787373964912
 20
1143.508440498817
 30
0.0
 11
4561.31670773647
 21
1143.508440498817
 31
0.0
  0
LINE
  5
1950F
330
747D
100
AcDbEntity
  8
部品1
100
AcDbLine
 10
5324.787373964912
 20
903.6161189532849
 30
0.0
 11
5324.787373964912
 21
1143.508440498817
 31
0.0
  0
LINE
  5
19510
330
747D
100
AcDbEntity
  8
部品1
100
AcDbLine
 10
4561.31670773647
 20
903.6161189532849
 30
0.0
 11
5324.787373964912
 21
903.6161189532849
 31
0.0
  0
LINE
  5
19511
330
747D
100
AcDbEntity
  8
部品1
100
AcDbLine
 10
4561.31670773647
 20
1143.508440498817
 30
0.0
 11
4561.31670773647
 21
903.6161189532849
 31
0.0
  0
TEXT
  5
19512
330
747D
100
AcDbEntity
  8
部品1
100
AcDbText
 10
4650.762809160078
 20
950.614911280294
 30
0.0
 40
135.0
  1
側面図
  7
STYLE2
100
AcDbText
  0
TEXT
  5
19513
330
747D
100
AcDbEntity
  8
部品1
100
AcDbText
 10
1796.632940886346
 20
1868.653607082129
 30
0.0
 40
125.0
  1
▽G.L
  7
STYLE2
100
AcDbText
  0
LINE
  5
19A5E
330
747D
100
AcDbEntity
  8
寸法
 48
50.0
100
AcDbLine
 10
9250.352076469761
 20
6865.00143406914
 30
0.0
 11
9198.946068559656
 21
6865.00143406914
 31
0.0
  0
LINE
  5
19A5F
330
747D
100
AcDbEntity
  8
寸法
 48
50.0
100
AcDbLine
 10
9198.946068559656
 20
6865.00143406914
 30
0.0
 11
9198.946068559656
 21
6896.311592721305
 31
0.0
  0
LINE
  5
19A60
330
747D
100
AcDbEntity
  8
寸法
 48
50.0
100
AcDbLine
 10
9198.946068559656
 20
6896.311592721305
 30
0.0
 11
9169.184736568233
 21
6896.311592721305
 31
0.0
  0
LINE
  5
19A61
330
747D
100
AcDbEntity
  8
寸法
 48
50.0
100
AcDbLine
 10
9169.184736568233
 20
6896.311592721305
 30
0.0
 11
9224.649072514708
 21
6933.891043649916
 31
0.0
  0
LINE
  5
19A62
330
747D
100
AcDbEntity
  8
寸法
 48
50.0
100
AcDbLine
 10
9280.113408461184
 20
6896.311592721305
 30
0.0
 11
9224.649072514708
 21
6933.891043649916
 31
0.0
  0
LINE
  5
19A63
330
747D
100
AcDbEntity
  8
寸法
 48
50.0
100
AcDbLine
 10
9250.352076469761
 20
6896.311592721305
 30
0.0
 11
9280.113408461184
 21
6896.311592721305
 31
0.0
  0
LINE
  5
19A64
330
747D
100
AcDbEntity
  8
寸法
 48
50.0
100
AcDbLine
 10
9250.352076469761
 20
6865.00143406914
 30
0.0
 11
9250.352076469761
 21
6896.311592721305
 31
0.0
  0
LINE
  5
19A65
330
747D
100
AcDbEntity
  8
寸法
 48
50.0
100
AcDbLine
 10
9198.946068559656
 20
6865.00143406914
 30
0.0
 11
9250.352076469761
 21
6865.00143406914
 31
0.0
  0
LINE
  5
19A66
330
747D
100
AcDbEntity
  8
寸法
 48
50.0
100
AcDbLine
 10
9529.517610746617
 20
6922.147024823963
 30
0.0
 11
9529.517610746617
 21
6868.483390242173
 31
0.0
  0
LINE
  5
19A67
330
747D
100
AcDbEntity
  8
寸法
 48
50.0
100
AcDbLine
 10
9618.801829342039
 20
6898.223390554476
 30
0.0
 11
9529.517610746617
 21
6922.147024823963
 31
0.0
  0
LINE
  5
19A68
330
747D
100
AcDbEntity
  8
寸法
 48
50.0
100
AcDbLine
 10
9399.649889166314
 20
6898.223390554476
 30
0.0
 11
9618.801829342039
 21
6898.223390554476
 31
0.0
  0
LINE
  5
19A69
330
747D
100
AcDbEntity
  8
細線
 48
50.0
100
AcDbLine
 10
10276.14907018792
 20
7063.464797449002
 30
0.0
 11
10903.14907018791
 21
7063.464797449002
 31
0.0
  0
LINE
  5
19A6A
330
747D
100
AcDbEntity
  8
細線
 48
50.0
100
AcDbLine
 10
9622.149074841505
 20
7029.756028894927
 30
0.0
 11
10903.14907018791
 21
7029.756028894927
 31
0.0
  0
LINE
  5
19A6B
330
747D
100
AcDbEntity
  8
細線
 48
50.0
100
AcDbLine
 10
9581.14907484151
 20
7059.160936891179
 30
0.0
 11
8827.149070187916
 21
7059.160936891176
 31
0.0
  0
LINE
  5
19A6C
330
747D
100
AcDbEntity
  8
細線
100
AcDbLine
 10
10678.89906077146
 20
7082.96469741401
 30
0.0
 11
10681.23060029326
 21
7087.964700053972
 31
0.0
  0
LINE
  5
19A6D
330
747D
100
AcDbEntity
  8
細線
100
AcDbLine
 10
10748.89907018791
 20
7082.964682500277
 30
0.0
 11
10746.56752371173
 21
7087.964700053958
 31
0.0
  0
LINE
  5
19A6E
330
747D
100
AcDbEntity
  8
細線
100
AcDbLine
 10
10746.56752371173
 20
7087.964700053958
 30
0.0
 11
10681.23060029325
 21
7087.964700053942
 31
0.0
  0
LINE
  5
19A6F
330
747D
100
AcDbEntity
  8
細線
100
AcDbLine
 10
10606.56752371173
 20
7087.964700053958
 30
0.0
 11
10541.23060029325
 21
7087.964700053942
 31
0.0
  0
LINE
  5
19A70
330
747D
100
AcDbEntity
  8
細線
100
AcDbLine
 10
10608.89907018791
 20
7082.964682500277
 30
0.0
 11
10606.56752371173
 21
7087.964700053958
 31
0.0
  0
LINE
  5
19A71
330
747D
100
AcDbEntity
  8
細線
100
AcDbLine
 10
10538.89906077146
 20
7082.96469741401
 30
0.0
 11
10541.23060029326
 21
7087.964700053972
 31
0.0
  0
LINE
  5
19A72
330
747D
100
AcDbEntity
  8
細線
100
AcDbLine
 10
10398.89907018791
 20
7082.964682500277
 30
0.0
 11
10401.23060970973
 21
7087.964685140239
 31
0.0
  0
LINE
  5
19A73
330
747D
100
AcDbEntity
  8
細線
100
AcDbLine
 10
10468.89907960437
 20
7082.964667586542
 30
0.0
 11
10466.56753312818
 21
7087.964685140223
 31
0.0
  0
LINE
  5
19A74
330
747D
100
AcDbEntity
  8
細線
100
AcDbLine
 10
10466.56753312819
 20
7087.964685140223
 30
0.0
 11
10401.23060970971
 21
7087.964685140208
 31
0.0
  0
LINE
  5
19A75
330
747D
100
AcDbEntity
  8
細線
100
AcDbLine
 10
10171.31755437702
 20
7053.964721837605
 30
0.0
 11
10105.98063095855
 21
7053.964721837591
 31
0.0
  0
LINE
  5
19A76
330
747D
100
AcDbEntity
  8
細線
100
AcDbLine
 10
10173.64910085321
 20
7048.964704283924
 30
0.0
 11
10171.31755437702
 21
7053.964721837605
 31
0.0
  0
LINE
  5
19A77
330
747D
100
AcDbEntity
  8
細線
100
AcDbLine
 10
10103.64909143675
 20
7048.964719197659
 30
0.0
 11
10105.98063095856
 21
7053.96472183762
 31
0.0
  0
LINE
  5
19A78
330
747D
100
AcDbEntity
  8
細線
 48
50.0
100
AcDbLine
 10
9945.032449435931
 20
7067.235545653357
 30
0.0
 11
9950.787967018598
 21
7048.96469436287
 31
0.0
  0
LINE
  5
19A79
330
747D
100
AcDbEntity
  8
細線
 48
50.0
100
AcDbLine
 10
9934.1040009555
 20
7067.235545653357
 30
0.0
 11
9945.032449435931
 21
7067.235545653357
 31
0.0
  0
ARC
  5
19A7A
330
747D
100
AcDbEntity
  8
細線
 48
50.0
100
AcDbCircle
 10
9928.649644898179
 20
7068.735545653357
 30
0.0
 40
5.0
100
AcDbArc
 50
204.6243183521304
 51
335.3756816478695
  0
ARC
  5
19A7B
330
747D
100
AcDbEntity
  8
細線
 48
50.0
100
AcDbCircle
 10
9934.1040009555
 20
7066.235545653357
 30
0.0
 40
1.0
100
AcDbArc
 50
90.0
 51
155.3756816478695
  0
ARC
  5
19A7C
330
747D
100
AcDbEntity
  8
細線
 48
50.0
100
AcDbCircle
 10
9923.195288840863
 20
7066.235545653357
 30
0.0
 40
1.0
100
AcDbArc
 50
24.62431835213048
 51
90.0
  0
LINE
  5
19A7D
330
747D
100
AcDbEntity
  8
細線
 48
50.0
100
AcDbLine
 10
9912.26684036043
 20
7067.235545653357
 30
0.0
 11
9923.195288840863
 21
7067.235545653357
 31
0.0
  0
LINE
  5
19A7E
330
747D
100
AcDbEntity
  8
細線
 48
50.0
100
AcDbLine
 10
9906.511322777761
 20
7048.964694362862
 30
0.0
 11
9912.26684036043
 21
7067.235545653357
 31
0.0
  0
LINE
  5
19A7F
330
747D
100
AcDbEntity
  8
細線
100
AcDbLine
 10
9963.649092667795
 20
7048.964691728667
 30
0.0
 11
9965.980632189607
 21
7053.964694368629
 31
0.0
  0
LINE
  5
19A80
330
747D
100
AcDbEntity
  8
細線
100
AcDbLine
 10
10033.64910208425
 20
7048.964676814932
 30
0.0
 11
10031.31755560806
 21
7053.964694368613
 31
0.0
  0
LINE
  5
19A81
330
747D
100
AcDbEntity
  8
細線
100
AcDbLine
 10
10031.31755560806
 20
7053.964694368613
 30
0.0
 11
9965.980632189593
 21
7053.964694368599
 31
0.0
  0
LINE
  5
19A82
330
747D
100
AcDbEntity
  8
細線
100
AcDbLine
 10
9891.317527243549
 20
7053.964694362834
 30
0.0
 11
9825.980603825072
 21
7053.96469436282
 31
0.0
  0
LINE
  5
19A83
330
747D
100
AcDbEntity
  8
細線
100
AcDbLine
 10
9893.649073719736
 20
7048.964676809153
 30
0.0
 11
9891.317527243549
 21
7053.964694362834
 31
0.0
  0
LINE
  5
19A84
330
747D
100
AcDbEntity
  8
細線
100
AcDbLine
 10
9823.649065534318
 20
7048.964694362862
 30
0.0
 11
9825.980603825087
 21
7053.964694362848
 31
0.0
  0
LINE
  5
19A85
330
747D
100
AcDbEntity
  8
細線
100
AcDbLine
 10
9683.649100853211
 20
7048.964702550232
 30
0.0
 11
9685.980639143977
 21
7053.964702550217
 31
0.0
  0
LINE
  5
19A86
330
747D
100
AcDbEntity
  8
細線
100
AcDbLine
 10
9753.649109038626
 20
7048.964684996523
 30
0.0
 11
9751.317562562441
 21
7053.9647025502
 31
0.0
  0
LINE
  5
19A87
330
747D
100
AcDbEntity
  8
細線
100
AcDbLine
 10
9751.317562562441
 20
7053.9647025502
 30
0.0
 11
9685.980639143963
 21
7053.964702550189
 31
0.0
  0
LINE
  5
19A88
330
747D
100
AcDbEntity
  8
細線
100
AcDbLine
 10
9312.14906665609
 20
7014.964874230945
 30
0.0
 11
9314.480604946856
 21
7019.964874230931
 31
0.0
  0
LINE
  5
19A89
330
747D
100
AcDbEntity
  8
細線
100
AcDbLine
 10
9382.149074841505
 20
7014.964856677233
 30
0.0
 11
9379.817528365318
 21
7019.964874230909
 31
0.0
  0
LINE
  5
19A8A
330
747D
100
AcDbEntity
  8
細線
100
AcDbLine
 10
9379.817528365318
 20
7019.964874230909
 30
0.0
 11
9314.480604946846
 21
7019.964874230902
 31
0.0
  0
LINE
  5
19A8B
330
747D
100
AcDbEntity
  8
細線
100
AcDbLine
 10
9519.817528365319
 20
7019.964874230909
 30
0.0
 11
9454.480604946846
 21
7019.964874230902
 31
0.0
  0
LINE
  5
19A8C
330
747D
100
AcDbEntity
  8
細線
100
AcDbLine
 10
9522.149074841506
 20
7014.964856677233
 30
0.0
 11
9519.817528365319
 21
7019.964874230909
 31
0.0
  0
LINE
  5
19A8D
330
747D
100
AcDbEntity
  8
細線
100
AcDbLine
 10
9452.149066656089
 20
7014.964874230945
 30
0.0
 11
9454.480604946857
 21
7019.964874230931
 31
0.0
  0
LINE
  5
19A8E
330
747D
100
AcDbEntity
  8
細線
100
AcDbLine
 10
9239.817528365319
 20
7019.964874230909
 30
0.0
 11
9174.480604946847
 21
7019.964874230898
 31
0.0
  0
LINE
  5
19A8F
330
747D
100
AcDbEntity
  8
細線
100
AcDbLine
 10
9242.149074841504
 20
7014.964856677233
 30
0.0
 11
9239.817528365319
 21
7019.964874230909
 31
0.0
  0
LINE
  5
19A90
330
747D
100
AcDbEntity
  8
細線
100
AcDbLine
 10
9172.149066656089
 20
7014.964874230942
 30
0.0
 11
9174.480604946857
 21
7019.964874230928
 31
0.0
  0
LINE
  5
19A91
330
747D
100
AcDbEntity
  8
細線
100
AcDbLine
 10
9032.149074841505
 20
7014.964874230945
 30
0.0
 11
9034.480613132272
 21
7019.964874230931
 31
0.0
  0
LINE
  5
19A92
330
747D
100
AcDbEntity
  8
細線
100
AcDbLine
 10
9102.149083026921
 20
7014.964856677233
 30
0.0
 11
9099.817536550734
 21
7019.964874230909
 31
0.0
  0
LINE
  5
19A93
330
747D
100
AcDbEntity
  8
細線
100
AcDbLine
 10
9099.817536550734
 20
7019.964874230909
 30
0.0
 11
9034.480613132263
 21
7019.964874230902
 31
0.0
  0
ARC
  5
19A94
330
747D
100
AcDbEntity
  8
部品1
 48
0.01
100
AcDbCircle
 10
8987.648963589171
 20
7013.963752045873
 30
0.0
 40
0.5
100
AcDbArc
 50
270.0
 51
0.0
  0
LINE
  5
19A95
330
747D
100
AcDbEntity
  8
部品1
 48
0.01
100
AcDbLine
 10
8988.148963589171
 20
7014.963752045872
 30
0.0
 11
8988.148963589171
 21
7013.963752045873
 31
0.0
  0
LINE
  5
19A96
330
747D
100
AcDbEntity
  8
部品1
 48
0.01
100
AcDbLine
 10
8988.148963589171
 20
7014.963752045872
 30
0.0
 11
8988.148963589171
 21
7013.963752045873
 31
0.0
  0
LINE
  5
19A97
330
747D
100
AcDbEntity
  8
部品1
 48
0.01
100
AcDbLine
 10
8987.648963589171
 20
7013.463752045872
 30
0.0
 11
8981.036458159106
 21
7013.463752045872
 31
0.0
  0
ARC
  5
19A98
330
747D
100
AcDbEntity
  8
部品1
100
AcDbCircle
 10
8981.104807711886
 20
7014.463752045873
 30
0.0
 40
1.0
100
AcDbArc
 50
160.5287793655778
 51
270.0
  0
ARC
  5
19A99
330
747D
100
AcDbEntity
  8
部品1
100
AcDbCircle
 10
8955.648963589171
 20
7023.463752045874
 30
0.0
 40
26.0
100
AcDbArc
 50
340.5287793655779
 51
0.0
  0
LINE
  5
19A9A
330
747D
100
AcDbEntity
  8
部品1
100
AcDbLine
 10
8981.64896358917
 20
7023.463752045874
 30
0.0
 11
8981.64896358917
 21
7028.463752045873
 31
0.0
  0
ARC
  5
19A9B
330
747D
100
AcDbEntity
  8
部品1
 48
0.01
100
AcDbCircle
 10
8979.64896358917
 20
7028.463752045873
 30
0.0
 40
2.0
100
AcDbArc
 50
0.0
 51
90.0
  0
ARC
  5
19A9C
330
747D
100
AcDbEntity
  8
部品1
100
AcDbCircle
 10
8978.040571964362
 20
7027.463752045872
 30
0.0
 40
3.0
100
AcDbArc
 50
90.0
 51
141.6069559807873
  0
LINE
  5
19A9D
330
747D
100
AcDbEntity
  8
部品1
 48
0.01
100
AcDbLine
 10
8979.64896358917
 20
7030.463752045872
 30
0.0
 11
8978.040571964362
 21
7030.463752045872
 31
0.0
  0
ARC
  5
19A9E
330
747D
100
AcDbEntity
  8
部品1
100
AcDbCircle
 10
8959.578249374899
 20
7026.763752045876
 30
0.0
 40
3.0
100
AcDbArc
 50
254.0576313943215
 51
270.0
  0
ARC
  5
19A9F
330
747D
100
AcDbEntity
  8
部品1
100
AcDbCircle
 10
8966.719677803441
 20
7026.763752045876
 30
0.0
 40
3.0
100
AcDbArc
 50
270.0
 51
285.9423686056786
  0
LINE
  5
19AA0
330
747D
100
AcDbEntity
  8
部品1
100
AcDbLine
 10
8966.719677803441
 20
7023.763752045876
 30
0.0
 11
8959.578249374899
 21
7023.763752045876
 31
0.0
  0
ARC
  5
19AA1
330
747D
100
AcDbEntity
  8
部品1
100
AcDbCircle
 10
8963.148963589171
 20
7039.263752045876
 30
0.0
 40
16.0
100
AcDbArc
 50
285.9423686056786
 51
321.6069559807873
  0
LINE
  5
19AA2
330
747D
100
AcDbEntity
  8
部品1
 48
0.01
100
AcDbLine
 10
8946.64896358917
 20
7030.463752045872
 30
0.0
 11
8948.25735521398
 21
7030.463752045872
 31
0.0
  0
ARC
  5
19AA3
330
747D
100
AcDbEntity
  8
部品1
100
AcDbCircle
 10
8948.25735521398
 20
7027.463752045872
 30
0.0
 40
3.0
100
AcDbArc
 50
38.39304401921267
 51
90.0
  0
ARC
  5
19AA4
330
747D
100
AcDbEntity
  8
部品1
100
AcDbCircle
 10
8963.148963589171
 20
7039.263752045876
 30
0.0
 40
16.0
100
AcDbArc
 50
218.3930440192126
 51
254.0576313943215
  0
LINE
  5
19AA5
330
747D
100
AcDbEntity
  8
部品1
100
AcDbLine
 10
8944.648963589171
 20
7023.463752045874
 30
0.0
 11
8944.648963589171
 21
7028.463752045873
 31
0.0
  0
ARC
  5
19AA6
330
747D
100
AcDbEntity
  8
部品1
 48
0.01
100
AcDbCircle
 10
8946.64896358917
 20
7028.463752045873
 30
0.0
 40
2.0
100
AcDbArc
 50
90.0
 51
180.0
  0
ARC
  5
19AA7
330
747D
100
AcDbEntity
  8
部品1
100
AcDbCircle
 10
8970.648963589169
 20
7023.463752045874
 30
0.0
 40
26.0
100
AcDbArc
 50
180.0
 51
199.4712206344221
  0
ARC
  5
19AA8
330
747D
100
AcDbEntity
  8
部品1
 48
0.01
100
AcDbCircle
 10
8938.648963589171
 20
7013.963752045873
 30
0.0
 40
0.5
100
AcDbArc
 50
180.0
 51
270.0
  0
LINE
  5
19AA9
330
747D
100
AcDbEntity
  8
部品1
 48
0.01
100
AcDbLine
 10
8938.648963589171
 20
7013.463752045872
 30
0.0
 11
8945.193119466454
 21
7013.463752045872
 31
0.0
  0
LINE
  5
19AAA
330
747D
100
AcDbEntity
  8
部品1
 48
0.01
100
AcDbLine
 10
8938.148963589171
 20
7014.963752045872
 30
0.0
 11
8938.148963589171
 21
7013.963752045873
 31
0.0
  0
ARC
  5
19AAB
330
747D
100
AcDbEntity
  8
部品1
100
AcDbCircle
 10
8945.193119466454
 20
7014.463752045873
 30
0.0
 40
1.0
100
AcDbArc
 50
270.0
 51
19.47122063442214
  0
LINE
  5
19AAC
330
747D
100
AcDbEntity
  8
細線
100
AcDbLine
 10
8983.648963589178
 20
7032.963752045876
 30
0.0
 11
8942.648963589178
 21
7032.963752045869
 31
0.0
  0
LINE
  5
19AAD
330
747D
100
AcDbEntity
  8
細線
100
AcDbLine
 10
8942.648963589178
 20
7032.963752045869
 30
0.0
 11
8942.648963589178
 21
7014.963752045851
 31
0.0
  0
LINE
  5
19AAE
330
747D
100
AcDbEntity
  8
細線
100
AcDbLine
 10
8983.648963589178
 20
7032.963752045876
 30
0.0
 11
8983.648963589178
 21
7014.963752045851
 31
0.0
  0
LINE
  5
19AAF
330
747D
100
AcDbEntity
  8
細線
100
AcDbLine
 10
8827.149070187916
 20
7018.964682500277
 30
0.0
 11
8827.149070187916
 21
7014.964682500324
 31
0.0
  0
DIMENSION
  5
19AB0
330
747D
100
AcDbEntity
  8
寸法
 48
50.0
100
AcDbDimension
  2
*D30
 10
10093.14907018791
 20
6352.481554918791
 30
0.0
 11
9486.508152417737
 21
6352.481554918791
 31
0.0
 70
   160
  1
有効開口部間口\P<>
 71
     5
 42
1266.0
  3
INABA_S40
100
AcDbAlignedDimension
 13
8827.149070187916
 23
7009.964682500276
 33
0.0
 14
10093.14907018791
 24
7009.964682500276
 34
0.0
100
AcDbRotatedDimension
1001
ACAD
1000
DSTYLE
1002
{
1070
    41
1040
0.5
1070
    44
1040
1.0
1070
   147
1040
0.8
1070
   271
1070
     2
1070
   272
1070
     2
1070
   289
1070
     3
1070
   340
1005
F706
1070
   343
1005
1858F
1070
   344
1005
1858F
1002
}
  0
LINE
  5
19AB1
330
747D
100
AcDbEntity
  8
部品1
100
AcDbLine
 10
10915.14907018791
 20
7086.964682500276
 30
0.0
 11
10942.14907018791
 21
7086.964682500276
 31
0.0
  0
LINE
  5
19AB3
330
747D
100
AcDbEntity
  8
部品1
100
AcDbLine
 10
10942.14907018791
 20
7009.964682500276
 30
0.0
 11
10942.14907018791
 21
7086.964682500276
 31
0.0
  0
LINE
  5
19AB4
330
747D
100
AcDbEntity
  8
部品1
100
AcDbLine
 10
10903.14907018791
 20
7082.964682500277
 30
0.0
 11
10915.14907018791
 21
7082.964682500277
 31
0.0
  0
LINE
  5
19AB5
330
747D
100
AcDbEntity
  8
部品1
100
AcDbLine
 10
10912.14907018791
 20
7018.964682500277
 30
0.0
 11
10912.14907018791
 21
7009.964682500276
 31
0.0
  0
LINE
  5
19AB6
330
747D
100
AcDbEntity
  8
部品1
100
AcDbLine
 10
10903.14907018791
 20
7018.964682500277
 30
0.0
 11
10912.14907018791
 21
7018.964682500277
 31
0.0
  0
LINE
  5
19AB7
330
747D
100
AcDbEntity
  8
部品1
100
AcDbLine
 10
10903.14907018791
 20
7082.964682500277
 30
0.0
 11
10903.14907018791
 21
7018.964682500277
 31
0.0
  0
LINE
  5
19AB8
330
747D
100
AcDbEntity
  8
部品1
100
AcDbLine
 10
10915.14907018791
 20
7113.964682500277
 30
0.0
 11
10915.14907018791
 21
7082.964682500277
 31
0.0
  0
LINE
  5
19AB9
330
747D
100
AcDbEntity
  8
部品1
100
AcDbLine
 10
8827.149070187916
 20
7082.964682500277
 30
0.0
 11
8815.149070187915
 21
7082.964682500277
 31
0.0
  0
LINE
  5
19ABA
330
747D
100
AcDbEntity
  8
部品1
100
AcDbLine
 10
8788.149070187916
 20
7086.964682500276
 30
0.0
 11
8815.149070187915
 21
7086.964682500276
 31
0.0
  0
LINE
  5
19ABB
330
747D
100
AcDbEntity
  8
部品1
100
AcDbLine
 10
8818.149070187915
 20
7018.964682500277
 30
0.0
 11
8818.149070187915
 21
7009.964682500276
 31
0.0
  0
LINE
  5
19ABC
330
747D
100
AcDbEntity
  8
部品1
100
AcDbLine
 10
8827.149070187916
 20
7018.964682500277
 30
0.0
 11
8818.149070187915
 21
7018.964682500277
 31
0.0
  0
LINE
  5
19ABD
330
747D
100
AcDbEntity
  8
部品1
100
AcDbLine
 10
8818.149070187915
 20
7009.964682500276
 30
0.0
 11
8788.149070187916
 21
7009.964682500276
 31
0.0
  0
LINE
  5
19ABE
330
747D
100
AcDbEntity
  8
部品1
100
AcDbLine
 10
8788.149070187916
 20
7009.964682500276
 30
0.0
 11
8788.149070187916
 21
7086.964682500276
 31
0.0
  0
LINE
  5
19ABF
330
747D
100
AcDbEntity
  8
部品1
100
AcDbLine
 10
8827.149070187916
 20
7082.964682500277
 30
0.0
 11
8827.149070187916
 21
7018.964682500277
 31
0.0
  0
LINE
  5
19AC0
330
747D
100
AcDbEntity
  8
部品1
100
AcDbLine
 10
8815.149070187915
 20
7113.964682500273
 30
0.0
 11
8815.149070187915
 21
7082.964682500277
 31
0.0
  0
LINE
  5
19AC1
330
747D
100
AcDbEntity
  8
部品1
100
AcDbLine
 10
8815.149070187915
 20
7113.964682500273
 30
0.0
 11
10915.14907018791
 21
7113.964682500277
 31
0.0
  0
LINE
  5
19AC2
330
747D
100
AcDbEntity
  8
部品1
100
AcDbLine
 10
10912.14907018791
 20
7009.964682500276
 30
0.0
 11
10942.14907018791
 21
7009.964682500276
 31
0.0
  0
LINE
  5
19AC3
330
747D
100
AcDbEntity
  8
部品1
100
AcDbLine
 10
8818.149070187915
 20
7009.964682500276
 30
0.0
 11
10915.14907018791
 21
7009.964682500276
 31
0.0
  0
LINE
  5
19AC4
330
747D
100
AcDbEntity
  8
細線
  6
Continuous
 62
     5
100
AcDbLine
 10
10194.14907018792
 20
7048.964682500273
 30
0.0
 11
10194.14907018792
 21
7048.964682500273
 31
0.0
  0
LINE
  5
19AC5
330
747D
100
AcDbEntity
  8
細線
  6
Continuous
 62
     5
100
AcDbLine
 10
10186.64910550681
 20
7048.96469242133
 30
0.0
 11
10186.64910550681
 21
7048.96469242133
 31
0.0
  0
LINE
  5
19AC6
330
747D
100
AcDbEntity
  8
細線
  6
Continuous
 62
     5
100
AcDbLine
 10
10180.64910550681
 20
7048.96469242133
 30
0.0
 11
10180.64910550681
 21
7048.96469242133
 31
0.0
  0
LINE
  5
19AC7
330
747D
100
AcDbEntity
  8
細線
  6
Continuous
 62
     5
100
AcDbLine
 10
10248.14907018792
 20
7067.964682500273
 30
0.0
 11
10248.14907018792
 21
7067.964682500273
 31
0.0
  0
LINE
  5
19AC8
330
747D
100
AcDbEntity
  8
細線
 48
50.0
100
AcDbLine
 10
8841.149074841508
 20
7035.56485667723
 30
0.0
 11
8841.149074841508
 21
7043.96100708487
 31
0.0
  0
LINE
  5
19AC9
330
747D
100
AcDbEntity
  8
細線
 48
50.0
100
AcDbLine
 10
8841.149074841508
 20
7043.96100708487
 30
0.0
 11
8827.149070187916
 21
7043.961007084867
 31
0.0
  0
LINE
  5
19ACA
330
747D
100
AcDbEntity
  8
細線
 48
50.0
100
AcDbLine
 10
9592.149074841506
 20
7032.114856677229
 30
0.0
 11
9592.149074841506
 21
7036.964856677233
 31
0.0
  0
LINE
  5
19ACB
330
747D
100
AcDbEntity
  8
細線
 48
50.0
100
AcDbLine
 10
9592.149074841506
 20
7036.964856677233
 30
0.0
 11
9607.149074841506
 21
7036.964856677233
 31
0.0
  0
LINE
  5
19ACC
330
747D
100
AcDbEntity
  8
細線
 48
50.0
100
AcDbLine
 10
9607.149074841506
 20
7036.964856677233
 30
0.0
 11
9607.149074841508
 21
7043.964856677232
 31
0.0
  0
LINE
  5
19ACD
330
747D
100
AcDbEntity
  8
細線
 48
50.0
100
AcDbLine
 10
9607.149074841508
 20
7043.964856677232
 30
0.0
 11
9622.149074841505
 21
7043.964856677232
 31
0.0
  0
LINE
  5
19ACE
330
747D
100
AcDbEntity
  8
細線
 48
50.0
100
AcDbLine
 10
9622.149074841505
 20
7043.964856677232
 30
0.0
 11
9622.149074841505
 21
7014.964856677233
 31
0.0
  0
LINE
  5
19ACF
330
747D
100
AcDbEntity
  8
細線
 48
50.0
100
AcDbLine
 10
8818.149070187915
 20
7014.9621910207
 30
0.0
 11
9032.149074841505
 21
7014.964874230945
 31
0.0
  0
LINE
  5
19AD0
330
747D
100
AcDbEntity
  8
細線
 48
50.0
100
AcDbLine
 10
9522.149074841506
 20
7014.964856677233
 30
0.0
 11
9622.149074841505
 21
7014.964856677233
 31
0.0
  0
LINE
  5
19AD1
330
747D
100
AcDbEntity
  8
細線
 48
50.0
100
AcDbLine
 10
9242.149074841504
 20
7014.964856677233
 30
0.0
 11
9312.149074841505
 21
7014.964856677233
 31
0.0
  0
LINE
  5
19AD2
330
747D
100
AcDbEntity
  8
細線
 48
50.0
100
AcDbLine
 10
9255.011039854036
 20
7014.964856677233
 30
0.0
 11
9260.766557436701
 21
7033.235707967726
 31
0.0
  0
LINE
  5
19AD3
330
747D
100
AcDbEntity
  8
細線
 48
50.0
100
AcDbLine
 10
9260.766557436701
 20
7033.235707967726
 30
0.0
 11
9271.695005917136
 21
7033.235707967723
 31
0.0
  0
ARC
  5
19AD4
330
747D
100
AcDbEntity
  8
細線
 48
50.0
100
AcDbCircle
 10
9271.695005917136
 20
7032.235707967721
 30
0.0
 40
1.0
100
AcDbArc
 50
24.62431835213048
 51
90.0
  0
ARC
  5
19AD5
330
747D
100
AcDbEntity
  8
細線
 48
50.0
100
AcDbCircle
 10
9282.60371803177
 20
7032.235707967721
 30
0.0
 40
1.0
100
AcDbArc
 50
90.0
 51
155.3756816478695
  0
ARC
  5
19AD6
330
747D
100
AcDbEntity
  8
細線
 48
50.0
100
AcDbCircle
 10
9277.14936197445
 20
7034.735707967723
 30
0.0
 40
5.0
100
AcDbArc
 50
204.6243183521304
 51
335.3756816478695
  0
LINE
  5
19AD7
330
747D
100
AcDbEntity
  8
細線
 48
50.0
100
AcDbLine
 10
9282.60371803177
 20
7033.235707967723
 30
0.0
 11
9293.532166512203
 21
7033.235707967726
 31
0.0
  0
LINE
  5
19AD8
330
747D
100
AcDbEntity
  8
細線
 48
50.0
100
AcDbLine
 10
9293.532166512203
 20
7033.235707967726
 30
0.0
 11
9299.287684094871
 21
7014.964856677233
 31
0.0
  0
LINE
  5
19AD9
330
747D
100
AcDbEntity
  8
細線
 48
50.0
100
AcDbLine
 10
9592.149074841506
 20
7035.56485667723
 30
0.0
 11
8841.149074841508
 21
7035.56485667723
 31
0.0
  0
LINE
  5
19ADA
330
747D
100
AcDbEntity
  8
細線
 48
50.0
100
AcDbLine
 10
9452.149074841505
 20
7014.964856677233
 30
0.0
 11
9382.149074841505
 21
7014.964856677233
 31
0.0
  0
LINE
  5
19ADB
330
747D
100
AcDbEntity
  8
細線
100
AcDbLine
 10
9172.149074841504
 20
7014.964856677233
 30
0.0
 11
9102.149083026921
 21
7014.964856677233
 31
0.0
  0
LINE
  5
19ADC
330
747D
100
AcDbEntity
  8
細線
 48
50.0
100
AcDbLine
 10
10246.14906553433
 20
7069.564900535098
 30
0.0
 11
9611.149074841506
 21
7069.564900535096
 31
0.0
  0
LINE
  5
19ADD
330
747D
100
AcDbEntity
  8
細線
 48
50.0
100
AcDbLine
 10
9611.149074841506
 20
7066.461050942739
 30
0.0
 11
9611.149074841506
 21
7070.961050942739
 31
0.0
  0
LINE
  5
19ADE
330
747D
100
AcDbEntity
  8
細線
 48
50.0
100
AcDbLine
 10
9611.149074841506
 20
7070.961050942739
 30
0.0
 11
9596.149074841505
 21
7070.961050942739
 31
0.0
  0
LINE
  5
19ADF
330
747D
100
AcDbEntity
  8
細線
 48
50.0
100
AcDbLine
 10
9596.149074841505
 20
7070.961050942739
 30
0.0
 11
9596.149074841505
 21
7077.961050942739
 31
0.0
  0
LINE
  5
19AE0
330
747D
100
AcDbEntity
  8
細線
 48
50.0
100
AcDbLine
 10
9596.149074841505
 20
7077.961050942739
 30
0.0
 11
9581.14907484151
 21
7077.961050942734
 31
0.0
  0
LINE
  5
19AE1
330
747D
100
AcDbEntity
  8
細線
 48
50.0
100
AcDbLine
 10
9581.14907484151
 20
7077.961050942734
 30
0.0
 11
9581.14907484151
 21
7040.360822839623
 31
0.0
  0
LINE
  5
19AE2
330
747D
100
AcDbEntity
  8
細線
 48
50.0
100
AcDbLine
 10
9581.14907484151
 20
7040.360822839623
 30
0.0
 11
9601.149082142683
 21
7040.360864389166
 31
0.0
  0
LINE
  5
19AE3
330
747D
100
AcDbEntity
  8
細線
 48
50.0
100
AcDbLine
 10
9601.14903727374
 20
7048.964326024973
 30
0.0
 11
9601.149082142683
 21
7040.360864389166
 31
0.0
  0
LINE
  5
19AE4
330
747D
100
AcDbEntity
  8
細線
 48
50.0
100
AcDbLine
 10
10246.14906553433
 20
7066.114900535097
 30
0.0
 11
10246.14906553433
 21
7070.964900535097
 31
0.0
  0
LINE
  5
19AE5
330
747D
100
AcDbEntity
  8
細線
 48
50.0
100
AcDbLine
 10
10246.14906553433
 20
7070.964900535097
 30
0.0
 11
10261.14906553432
 21
7070.964900535097
 31
0.0
  0
LINE
  5
19AE6
330
747D
100
AcDbEntity
  8
細線
 48
50.0
100
AcDbLine
 10
10261.14906553432
 20
7070.964900535097
 30
0.0
 11
10261.1490771683
 21
7077.96490053514
 31
0.0
  0
LINE
  5
19AE7
330
747D
100
AcDbEntity
  8
細線
 48
50.0
100
AcDbLine
 10
10261.1490771683
 20
7077.96490053514
 30
0.0
 11
10276.14907533883
 21
7077.96490053514
 31
0.0
  0
LINE
  5
19AE8
330
747D
100
AcDbEntity
  8
細線
 48
50.0
100
AcDbLine
 10
10276.14907533883
 20
7077.96490053514
 30
0.0
 11
10276.14906503701
 21
7048.964694362867
 31
0.0
  0
LINE
  5
19AE9
330
747D
100
AcDbEntity
  8
細線
 48
50.0
100
AcDbLine
 10
9963.649092667795
 20
7048.964702550232
 30
0.0
 11
9893.649344750212
 21
7048.964697112895
 31
0.0
  0
LINE
  5
19AEA
330
747D
100
AcDbEntity
  8
細線
 48
50.0
100
AcDbLine
 10
9601.14903727374
 20
7048.964326024973
 30
0.0
 11
9612.38172662845
 21
7048.96450897812
 31
0.0
  0
ARC
  5
19AEB
330
747D
100
AcDbEntity
  8
細線
 48
50.0
100
AcDbCircle
 10
9618.964018935786
 20
7047.764672891734
 30
0.0
 40
1.8
100
AcDbArc
 50
270.0006665777295
 51
345.0005554812987
  0
LINE
  5
19AEC
330
747D
100
AcDbEntity
  8
細線
 48
50.0
100
AcDbLine
 10
9620.950452381865
 20
7048.223513349012
 30
0.0
 11
9620.702689939667
 21
7047.298815466906
 31
0.0
  0
LINE
  5
19AED
330
747D
100
AcDbEntity
  8
細線
 48
50.0
100
AcDbLine
 10
9618.964039876942
 20
7045.964672891854
 30
0.0
 11
9615.334112458171
 21
7045.964630661375
 31
0.0
  0
ARC
  5
19AEE
330
747D
100
AcDbEntity
  8
細線
 48
50.0
100
AcDbCircle
 10
9615.33409151702
 20
7047.764630661252
 30
0.0
 40
1.8
100
AcDbArc
 50
195.0010443049394
 51
270.0006665777295
  0
LINE
  5
19AEF
330
747D
100
AcDbEntity
  8
細線
 48
50.0
100
AcDbLine
 10
9613.347664024761
 20
7048.223345628819
 30
0.0
 11
9613.595433521275
 21
7047.298724690236
 31
0.0
  0
ARC
  5
19AF0
330
747D
100
AcDbEntity
  8
細線
 48
50.0
100
AcDbCircle
 10
9612.381742916012
 20
7047.964508978255
 30
0.0
 40
1.0
100
AcDbArc
 50
15.00104430493943
 51
90.00093320877969
  0
LINE
  5
19AF1
330
747D
100
AcDbEntity
  8
細線
 48
50.0
100
AcDbLine
 10
9621.916373736967
 20
7048.964703668525
 30
0.0
 11
9622.858133887874
 21
7048.964710242374
 31
0.0
  0
ARC
  5
19AF2
330
747D
100
AcDbEntity
  8
細線
 48
50.0
100
AcDbCircle
 10
9621.916380717355
 20
7047.964703668551
 30
0.0
 40
1.0
100
AcDbArc
 50
90.0003999466794
 51
165.0005554812987
  0
LINE
  5
19AF3
330
747D
100
AcDbEntity
  8
細線
 48
50.0
100
AcDbLine
 10
10173.64906553432
 20
7048.964694362867
 30
0.0
 11
10276.14906503701
 21
7048.964694362867
 31
0.0
  0
LINE
  5
19AF4
330
747D
100
AcDbEntity
  8
細線
 48
50.0
100
AcDbLine
 10
9683.649100853211
 20
7048.964702550232
 30
0.0
 11
9622.54903962629
 21
7048.964710242374
 31
0.0
  0
LINE
  5
19AF5
330
747D
100
AcDbEntity
  8
細線
 48
50.0
100
AcDbLine
 10
10103.64910085321
 20
7048.964739391315
 30
0.0
 11
10033.64909389882
 21
7048.964694368648
 31
0.0
  0
LINE
  5
19AF6
330
747D
100
AcDbEntity
  8
細線
 48
50.0
100
AcDbLine
 10
9823.649065534318
 20
7048.964694362862
 30
0.0
 11
9753.649048246444
 21
7048.96469436287
 31
0.0
  0
ARC
  5
19AF7
330
747D
100
AcDbEntity
  8
細線
 48
50.0
100
AcDbCircle
 10
10260.34907018793
 20
7082.164682500277
 30
0.0
 40
0.8
100
AcDbArc
 50
359.9997333689499
 51
89.99986668437072
  0
ARC
  5
19AF8
330
747D
100
AcDbEntity
  8
細線
 48
50.0
100
AcDbCircle
 10
10267.94907701302
 20
7082.164693668893
 30
0.0
 40
0.8
100
AcDbArc
 50
90.00014387753465
 51
179.9997333689498
  0
LINE
  5
19AF9
330
747D
100
AcDbEntity
  8
細線
 48
50.0
100
AcDbLine
 10
10260.34907204936
 20
7082.964682500277
 30
0.0
 11
10255.14907018791
 21
7082.964682500277
 31
0.0
  0
ARC
  5
19AFA
330
747D
100
AcDbEntity
  8
細線
 48
50.0
100
AcDbCircle
 10
10261.84907018791
 20
7080.664682500277
 30
0.0
 40
0.7
100
AcDbArc
 50
180.0
 51
270.0
  0
ARC
  5
19AFB
330
747D
100
AcDbEntity
  8
細線
 48
50.0
100
AcDbCircle
 10
10266.44907018792
 20
7080.664682500277
 30
0.0
 40
0.7
100
AcDbArc
 50
270.0
 51
0.0
  0
LINE
  5
19AFC
330
747D
100
AcDbEntity
  8
細線
 48
50.0
100
AcDbLine
 10
10267.14907018791
 20
7080.664682500277
 30
0.0
 11
10267.14907701303
 21
7082.164697391765
 31
0.0
  0
LINE
  5
19AFD
330
747D
100
AcDbEntity
  8
細線
 48
50.0
100
AcDbLine
 10
10261.84907018791
 20
7079.964682500277
 30
0.0
 11
10266.44907018792
 21
7079.964682500277
 31
0.0
  0
LINE
  5
19AFE
330
747D
100
AcDbEntity
  8
細線
 48
50.0
100
AcDbLine
 10
10261.14907018791
 20
7082.164682500277
 30
0.0
 11
10261.14907018791
 21
7080.664682500277
 31
0.0
  0
LINE
  5
19AFF
330
747D
100
AcDbEntity
  8
細線
 48
50.0
100
AcDbLine
 10
10886.74907018792
 20
7112.964682500276
 30
0.0
 11
10250.14907018791
 21
7112.964682500273
 31
0.0
  0
LINE
  5
19B00
330
747D
100
AcDbEntity
  8
細線
 48
50.0
100
AcDbLine
 10
10912.64907018791
 20
7107.96468250028
 30
0.0
 11
10896.74907018792
 21
7107.964682500277
 31
0.0
  0
LINE
  5
19B01
330
747D
100
AcDbEntity
  8
細線
 48
50.0
100
AcDbLine
 10
10896.74907018792
 20
7107.964682500277
 30
0.0
 11
10886.74907018792
 21
7112.964682500276
 31
0.0
  0
LINE
  5
19B02
330
747D
100
AcDbEntity
  8
細線
100
AcDbLine
 10
10497.64907018791
 20
7082.964682500277
 30
0.0
 11
10497.64907018791
 21
7112.264682500276
 31
0.0
  0
LINE
  5
19B03
330
747D
100
AcDbEntity
  8
細線
100
AcDbLine
 10
10497.64907018791
 20
7112.264682500276
 30
0.0
 11
10517.64907018791
 21
7112.264682500276
 31
0.0
  0
LINE
  5
19B04
330
747D
100
AcDbEntity
  8
細線
100
AcDbLine
 10
10517.64907018791
 20
7082.964682500277
 30
0.0
 11
10517.64907018791
 21
7112.264682500276
 31
0.0
  0
LINE
  5
19B05
330
747D
100
AcDbEntity
  8
細線
100
AcDbLine
 10
10678.89907018791
 20
7082.964682500277
 30
0.0
 11
10608.89907018791
 21
7082.964682500277
 31
0.0
  0
LINE
  5
19B06
330
747D
100
AcDbEntity
  8
細線
 48
50.0
100
AcDbLine
 10
10398.89907018791
 20
7082.964682500277
 30
0.0
 11
10267.94484976076
 21
7082.964682500277
 31
0.0
  0
LINE
  5
19B07
330
747D
100
AcDbEntity
  8
細線
100
AcDbLine
 10
10538.89907018791
 20
7082.964682500277
 30
0.0
 11
10468.89907018791
 21
7082.964682500277
 31
0.0
  0
LINE
  5
19B08
330
747D
100
AcDbEntity
  8
細線
 48
50.0
100
AcDbLine
 10
10255.14907018791
 20
7074.964682500277
 30
0.0
 11
10255.14907018791
 21
7082.964682500277
 31
0.0
  0
LINE
  5
19B09
330
747D
100
AcDbEntity
  8
細線
 48
50.0
100
AcDbLine
 10
10235.14907018791
 20
7074.964682500279
 30
0.0
 11
10255.14907018791
 21
7074.964682500277
 31
0.0
  0
LINE
  5
19B0A
330
747D
100
AcDbEntity
  8
細線
 48
50.0
100
AcDbLine
 10
10250.14907018791
 20
7112.964682500276
 30
0.0
 11
10250.14907018791
 21
7107.964682500277
 31
0.0
  0
LINE
  5
19B0B
330
747D
100
AcDbEntity
  8
細線
 48
50.0
100
AcDbLine
 10
10235.14907018791
 20
7112.964682500273
 30
0.0
 11
10250.14907018791
 21
7112.964682500276
 31
0.0
  0
LINE
  5
19B0C
330
747D
100
AcDbEntity
  8
細線
 48
50.0
100
AcDbLine
 10
10235.14907018791
 20
7074.964682500279
 30
0.0
 11
10235.14907018791
 21
7112.964682500273
 31
0.0
  0
LINE
  5
19B0D
330
747D
100
AcDbEntity
  8
細線
100
AcDbLine
 10
10903.14907018791
 20
7082.964682500277
 30
0.0
 11
10748.89907018791
 21
7082.964682500277
 31
0.0
  0
LINE
  5
19B0E
330
747D
100
AcDbEntity
  8
細線
 48
50.0
100
AcDbLine
 10
10912.64907018791
 20
7107.96468250028
 30
0.0
 11
10912.64907018791
 21
7082.964682500277
 31
0.0
  0
DIMENSION
  5
19D4C
330
747D
100
AcDbEntity
  8
寸法
 48
50.0
100
AcDbDimension
  2
*D31
 10
10942.14907018791
 20
6049.620878261046
 30
0.0
 11
9843.285816384382
 21
6049.620878261046
 31
0.0
 70
   160
 71
     5
 42
2154.0
  3
INABA_S40G
100
AcDbAlignedDimension
 13
8788.149070187916
 23
7011.964682500239
 33
0.0
 14
10942.14907018791
 24
7011.964682500239
 34
0.0
100
AcDbRotatedDimension
1001
ACAD
1000
DSTYLE
1002
{
1070
   341
1005
0
1002
}
  0
DIMENSION
  5
19D4D
330
747D
100
AcDbEntity
  8
寸法
100
AcDbDimension
  2
*D32
 10
8045.537824561225
 20
7011.964682500239
 30
0.0
 11
8045.537824561222
 21
6871.479401126001
 31
0.0
 70
   160
 71
     5
 42
75.0
  3
INABA_S40
100
AcDbAlignedDimension
 13
8340.149070187941
 23
7086.964682500239
 33
0.0
 14
8788.149070187916
 24
7011.964682500239
 34
0.0
 50
90.0
100
AcDbRotatedDimension
1001
ACAD
1000
DSTYLE
1002
{
1070
    41
1040
0.5
1070
    44
1040
1.0
1070
   147
1040
0.8
1070
   271
1070
     2
1070
   272
1070
     2
1070
   289
1070
     3
1070
   340
1005
F706
1070
   343
1005
1858F
1070
   344
1005
1858F
1002
}
  0
DIMENSION
  5
19E4E
330
747D
100
AcDbEntity
  8
寸法
100
AcDbDimension
  2
*D33
 10
11390.14907018792
 20
5791.507766137784
 30
0.0
 11
9839.094739285389
 21
5791.507766137784
 31
0.0
 70
   160
 71
     5
 42
3049.999999999982
  3
INABA_S40G
100
AcDbAlignedDimension
 13
8340.149070187941
 23
7086.964682500243
 33
0.0
 14
11390.14907018792
 24
7086.964682500407
 34
0.0
100
AcDbRotatedDimension
1001
ACAD
1000
DSTYLE
1002
{
1002
}
  0
LINE
  5
19E5B
330
747D
100
AcDbEntity
  8
部品1
100
AcDbLine
 10
10246.88440330215
 20
5552.081282358695
 30
0.0
 11
9483.413737073719
 21
5552.081282358695
 31
0.0
  0
LINE
  5
19E5C
330
747D
100
AcDbEntity
  8
部品1
100
AcDbLine
 10
10246.88440330215
 20
5312.188960813163
 30
0.0
 11
10246.88440330215
 21
5552.081282358695
 31
0.0
  0
LINE
  5
19E5D
330
747D
100
AcDbEntity
  8
部品1
100
AcDbLine
 10
9483.413737073719
 20
5312.188960813163
 30
0.0
 11
10246.88440330215
 21
5312.188960813163
 31
0.0
  0
LINE
  5
19E5E
330
747D
100
AcDbEntity
  8
部品1
100
AcDbLine
 10
9483.413737073719
 20
5552.081282358695
 30
0.0
 11
9483.413737073719
 21
5312.188960813163
 31
0.0
  0
TEXT
  5
19E5F
330
747D
100
AcDbEntity
  8
部品1
100
AcDbText
 10
9573.333346902757
 20
5359.187753140172
 30
0.0
 40
135.0
  1
平面図
  7
STYLE2
100
AcDbText
  0
LWPOLYLINE
  5
1A079
330
747D
100
AcDbEntity
  8
部品1
 48
50.0
100
AcDbPolyline
 90
        4
 70
     1
 43
0.0
 10
8887.199070187937
 20
2828.796703476228
 10
8890.099070187941
 20
2828.796703476228
 10
8890.099070187941
 20
2838.296703476228
 10
8887.199070187937
 20
2838.296703476228
  0
CIRCLE
  5
1A07A
330
747D
100
AcDbEntity
  8
部品1
 48
50.0
100
AcDbCircle
 10
8888.649070187939
 20
2833.546703476228
 30
0.0
 40
9.0
  0
ARC
  5
1A07B
330
747D
100
AcDbEntity
  8
細線
 48
50.0
100
AcDbCircle
 10
8888.649070187939
 20
2833.546703476228
 30
0.0
 40
4.0
100
AcDbArc
 50
111.2538091853132
 51
248.7461908146868
  0
ARC
  5
1A07C
330
747D
100
AcDbEntity
  8
細線
 48
50.0
100
AcDbCircle
 10
8888.649070187939
 20
2833.546703476228
 30
0.0
 40
17.5
100
AcDbArc
 50
306.4837370612677
 51
233.5162629387323
  0
LINE
  5
1A07D
330
747D
100
AcDbEntity
  8
細線
 48
50.0
100
AcDbLine
 10
8898.649070187936
 20
2809.687742895345
 30
0.0
 11
8898.649070187939
 21
2818.672228695587
 31
0.0
  0
LINE
  5
1A07E
330
747D
100
AcDbEntity
  8
細線
 48
50.0
100
AcDbLine
 10
8878.64907018794
 20
2809.687742895347
 30
0.0
 11
8878.64907018794
 21
2818.672228695583
 31
0.0
  0
ARC
  5
1A07F
330
747D
100
AcDbEntity
  8
細線
 48
50.0
100
AcDbCircle
 10
8888.649070187939
 20
2833.546703476228
 30
0.0
 40
26.5
100
AcDbArc
 50
249.3326835063939
 51
290.6673164933835
  0
ARC
  5
1A080
330
747D
100
AcDbEntity
  8
細線
 48
50.0
100
AcDbCircle
 10
8897.649070187933
 20
2809.687742895345
 30
0.0
 40
1.0
100
AcDbArc
 50
290.6673164936062
 51
359.9999999998958
  0
ARC
  5
1A081
330
747D
100
AcDbEntity
  8
細線
 48
50.0
100
AcDbCircle
 10
8879.649070187939
 20
2809.687742895347
 30
0.0
 40
1.0
100
AcDbArc
 50
180.0
 51
249.3326835066164
  0
ARC
  5
1A082
330
747D
100
AcDbEntity
  8
細線
 48
50.0
100
AcDbCircle
 10
8877.64907018794
 20
2818.672228695583
 30
0.0
 40
1.0
100
AcDbArc
 50
0.0
 51
53.51626293873231
  0
ARC
  5
1A083
330
747D
100
AcDbEntity
  8
細線
 48
50.0
100
AcDbCircle
 10
8899.649070187944
 20
2818.672228695587
 30
0.0
 40
1.0
100
AcDbArc
 50
126.4837370615127
 51
180.0
  0
ARC
  5
1A084
330
747D
100
AcDbEntity
  8
細線
 48
50.0
100
AcDbCircle
 10
8888.649070187939
 20
2833.546703476228
 30
0.0
 40
21.5
100
AcDbArc
 50
255.8014401250294
 51
284.1985598749706
  0
ARC
  5
1A085
330
747D
100
AcDbEntity
  8
細線
 48
50.0
100
AcDbCircle
 10
8888.649070187939
 20
2833.546703476228
 30
0.0
 40
16.5
100
AcDbArc
 50
251.9694646069326
 51
288.0305353930674
  0
LINE
  5
1A086
330
747D
100
AcDbEntity
  8
細線
 48
50.0
100
AcDbLine
 10
8894.149070187939
 20
2812.994331350421
 30
0.0
 11
8894.149070187939
 21
2817.571723037758
 31
0.0
  0
LINE
  5
1A087
330
747D
100
AcDbEntity
  8
細線
 48
50.0
100
AcDbLine
 10
8883.149070187938
 20
2812.994331350421
 30
0.0
 11
8883.149070187938
 21
2817.571723037756
 31
0.0
  0
ARC
  5
1A088
330
747D
100
AcDbEntity
  8
細線
 48
50.0
100
AcDbCircle
 10
8883.449070187941
 20
2817.571723037756
 30
0.0
 40
0.3
100
AcDbArc
 50
71.96946460693259
 51
180.0
  0
ARC
  5
1A089
330
747D
100
AcDbEntity
  8
細線
 48
50.0
100
AcDbCircle
 10
8893.84907018794
 20
2817.571723037758
 30
0.0
 40
0.3
100
AcDbArc
 50
0.0
 51
108.0305353930674
  0
ARC
  5
1A08A
330
747D
100
AcDbEntity
  8
細線
 48
50.0
100
AcDbCircle
 10
8893.849070187936
 20
2812.994331350421
 30
0.0
 40
0.3
100
AcDbArc
 50
284.1985598747622
 51
0.0000000001042204
  0
ARC
  5
1A08B
330
747D
100
AcDbEntity
  8
細線
 48
50.0
100
AcDbCircle
 10
8883.449070187941
 20
2812.994331350421
 30
0.0
 40
0.3
100
AcDbArc
 50
180.0
 51
255.8014401248081
  0
CIRCLE
  5
1A08C
330
747D
100
AcDbEntity
  8
細線
 48
50.0
100
AcDbCircle
 10
8888.649070187939
 20
2833.546703476228
 30
0.0
 40
12.0
  0
ARC
  5
1A08D
330
747D
100
AcDbEntity
  8
部品1
 48
50.0
100
AcDbCircle
 10
8888.649070187939
 20
2883.546703476228
 30
0.0
 40
8.5
100
AcDbArc
 50
114.315739171091
 51
245.684260828909
  0
CIRCLE
  5
1A08E
330
747D
100
AcDbEntity
  8
細線
 48
50.0
100
AcDbCircle
 10
8888.649070187939
 20
2883.546703476228
 30
0.0
 40
4.5
  0
LWPOLYLINE
  5
1A08F
330
747D
100
AcDbEntity
  8
部品1
 48
50.0
100
AcDbPolyline
 90
        2
 70
     0
 43
0.0
 10
8885.14907018794
 20
2902.221552873211
 10
8885.14907018794
 20
2891.292670168643
  0
CIRCLE
  5
1A090
330
747D
100
AcDbEntity
  8
部品1
 48
50.0
100
AcDbCircle
 10
8888.649070187939
 20
2883.546703476228
 30
0.0
 40
19.0
  0
LWPOLYLINE
  5
1A091
330
747D
100
AcDbEntity
  8
部品1
 48
50.0
100
AcDbPolyline
 90
        2
 70
     0
 43
0.0
 10
8885.14907018794
 20
2875.800736783813
 10
8885.14907018794
 20
2864.871854079245
  0
LWPOLYLINE
  5
1A092
330
747D
100
AcDbEntity
  8
部品1
 48
50.0
100
AcDbPolyline
 90
        2
 70
     0
 43
0.0
 10
8892.149070187938
 20
2891.292670168643
 10
8892.149070187938
 20
2902.221552873211
  0
ARC
  5
1A093
330
747D
100
AcDbEntity
  8
部品1
 48
50.0
100
AcDbCircle
 10
8888.649070187939
 20
2883.546703476228
 30
0.0
 40
8.5
100
AcDbArc
 50
294.315739171091
 51
65.68426082890896
  0
LWPOLYLINE
  5
1A094
330
747D
100
AcDbEntity
  8
部品1
 48
50.0
100
AcDbPolyline
 90
        2
 70
     0
 43
0.0
 10
8892.149070187938
 20
2864.871854079245
 10
8892.149070187938
 20
2875.800736783813
  0
ARC
  5
1A095
330
747D
100
AcDbEntity
  8
細線
 48
50.0
100
AcDbCircle
 10
8888.649070187939
 20
2883.546703476228
 30
0.0
 40
16.5
100
AcDbArc
 50
332.0012352654438
 51
27.99876473455621
  0
ARC
  5
1A096
330
747D
100
AcDbEntity
  8
細線
 48
50.0
100
AcDbCircle
 10
8888.649070187939
 20
2883.546703476228
 30
0.0
 40
14.0
100
AcDbArc
 50
326.4074436112986
 51
33.59255638870134
  0
LINE
  5
1A097
330
747D
100
AcDbEntity
  8
細線
 48
50.0
100
AcDbLine
 10
8874.080267903607
 20
2891.292670168643
 30
0.0
 11
8876.987166398249
 21
2891.292670168643
 31
0.0
  0
LINE
  5
1A098
330
747D
100
AcDbEntity
  8
細線
 48
50.0
100
AcDbLine
 10
8874.080267903607
 20
2875.800736783813
 30
0.0
 11
8876.987166398249
 21
2875.800736783813
 31
0.0
  0
LINE
  5
1A099
330
747D
100
AcDbEntity
  8
細線
 48
50.0
100
AcDbLine
 10
8900.310973977628
 20
2891.292670168643
 30
0.0
 11
8903.217872472273
 21
2891.292670168643
 31
0.0
  0
LINE
  5
1A09A
330
747D
100
AcDbEntity
  8
細線
 48
50.0
100
AcDbLine
 10
8900.310973977628
 20
2875.800736783813
 30
0.0
 11
8903.217872472273
 21
2875.800736783813
 31
0.0
  0
ARC
  5
1A09B
330
747D
100
AcDbEntity
  8
細線
 48
50.0
100
AcDbCircle
 10
8888.649070187939
 20
2883.546703476228
 30
0.0
 40
14.0
100
AcDbArc
 50
146.4074436112986
 51
213.5925563887013
  0
ARC
  5
1A09C
330
747D
100
AcDbEntity
  8
細線
 48
50.0
100
AcDbCircle
 10
8888.649070187939
 20
2883.546703476228
 30
0.0
 40
16.5
100
AcDbArc
 50
152.0012352654438
 51
207.9987647345562
  0
ARC
  5
1A09D
330
747D
100
AcDbEntity
  8
部品1
 48
50.0
100
AcDbCircle
 10
8862.149070187939
 20
2909.046703476228
 30
0.0
 40
5.0
100
AcDbArc
 50
90.0
 51
180.0
  0
ARC
  5
1A09E
330
747D
100
AcDbEntity
  8
部品1
 48
50.0
100
AcDbCircle
 10
8862.149070187939
 20
2798.046703476228
 30
0.0
 40
5.0
100
AcDbArc
 50
180.0
 51
270.0
  0
ARC
  5
1A09F
330
747D
100
AcDbEntity
  8
部品1
 48
50.0
100
AcDbCircle
 10
8915.14907018794
 20
2798.046703476228
 30
0.0
 40
5.0
100
AcDbArc
 50
270.0
 51
0.0
  0
ARC
  5
1A0A0
330
747D
100
AcDbEntity
  8
部品1
 48
50.0
100
AcDbCircle
 10
8915.14907018794
 20
2909.046703476228
 30
0.0
 40
5.0
100
AcDbArc
 50
0.0
 51
90.0
  0
LINE
  5
1A0A2
330
747D
100
AcDbEntity
  8
部品1
 48
50.0
100
AcDbLine
 10
8857.14907018794
 20
2798.046703476228
 30
0.0
 11
8857.14907018794
 21
2909.046703476228
 31
0.0
  0
LINE
  5
1A0A3
330
747D
100
AcDbEntity
  8
部品1
 48
50.0
100
AcDbLine
 10
8915.14907018794
 20
2793.046703476228
 30
0.0
 11
8862.149070187939
 21
2793.046703476228
 31
0.0
  0
LINE
  5
1A0A4
330
747D
100
AcDbEntity
  8
部品1
 48
50.0
100
AcDbLine
 10
8920.149070187939
 20
2909.046703476228
 30
0.0
 11
8920.149070187939
 21
2798.046703476228
 31
0.0
  0
ENDSEC
  0
SECTION
  2
OBJECTS
  0
DICTIONARY
  5
7471
330
0
100
AcDbDictionary
281
     1
  3
ACAD_COLOR
350
18578
  3
ACAD_GROUP
350
7472
  3
ACAD_LAYOUT
350
18579
  3
ACAD_MATERIAL
350
18577
  3
ACAD_MLINESTYLE
350
7473
  3
ACAD_PLOTSETTINGS
350
1857A
  3
ACAD_PLOTSTYLENAME
350
18575
  3
ACDBHEADERROUNDTRIPXREC
350
1A0C3
  3
AcDbVariableDictionary
350
1A0BF
  3
CONTENTDICTIONARY
350
E71C
  3
DRAWINGVARIABLESDICT
350
F3B9
  0
DICTIONARY
  5
18712
330
7467
100
AcDbDictionary
280
     1
281
     1
  3
ACAD_LAYERSTATES
360
18713
  0
DICTIONARY
  5
18578
102
{ACAD_REACTORS
330
7471
102
}
330
7471
100
AcDbDictionary
281
     1
  0
DICTIONARY
  5
7472
102
{ACAD_REACTORS
330
7471
102
}
330
7471
100
AcDbDictionary
281
     1
  0
DICTIONARY
  5
18579
102
{ACAD_REACTORS
330
7471
102
}
330
7471
100
AcDbDictionary
281
     1
  3
Model
350
1857B
  3
レイアウト1
350
1857C
  0
DICTIONARY
  5
18577
102
{ACAD_REACTORS
330
7471
102
}
330
7471
100
AcDbDictionary
281
     1
  0
DICTIONARY
  5
7473
102
{ACAD_REACTORS
330
7471
102
}
330
7471
100
AcDbDictionary
281
     1
  3
STANDARD
350
7480
  0
DICTIONARY
  5
1857A
102
{ACAD_REACTORS
330
7471
102
}
330
7471
100
AcDbDictionary
281
     1
  0
ACDBDICTIONARYWDFLT
  5
18575
102
{ACAD_REACTORS
330
7471
102
}
330
7471
100
AcDbDictionary
281
     1
  3
Normal
350
18576
100
AcDbDictionaryWithDefault
340
18576
  0
DICTIONARY
  5
1A0C3
102
{ACAD_REACTORS
330
7471
102
}
330
7471
100
AcDbDictionary
281
     1
  3
COLORDICT
350
1A0C5
  3
MATERIALDICT
350
1A0C4
  0
DICTIONARY
  5
1A0BF
102
{ACAD_REACTORS
330
7471
102
}
330
7471
100
AcDbDictionary
281
     1
  3
DIMASSOC
350
1A0C0
  3
PROJECTNAME
350
1A0C1
  0
DICTIONARY
  5
E71C
102
{ACAD_REACTORS
330
7471
102
}
330
7471
100
AcDbDictionary
281
     1
  0
DICTIONARY
  5
F3B9
102
{ACAD_REACTORS
330
7471
102
}
330
7471
100
AcDbDictionary
281
     1
1001
DRAWINGVARIABLESXDATA
1000
POLARMODE
1000
1
  0
DICTIONARY
  5
18713
102
{ACAD_REACTORS
330
18712
102
}
330
18712
100
AcDbDictionary
281
     1
  0
LAYOUT
  5
1857B
102
{ACAD_XDICTIONARY
360
1A0C6
102
}
102
{ACAD_REACTORS
330
18579
102
}
330
18579
100
AcDbPlotSettings
  1

  2
クセロPDF
  4
A3
  6

 40
3.174999952316284
 41
3.174999952316284
 42
3.17498779296875
 43
3.17498779296875
 44
419.9466552734374
 45
296.9259948730469
 46
0.0
 47
0.0
 48
3.619013395666115
 49
-4.192117100517862
140
820.022926294543
141
573.2392198881443
142
1.0
143
39.99735023620806
 70
 11952
 72
     1
 73
     0
 74
     2
  7
inaba.ctb
 75
     0
147
0.0250016562120842
148
25.79074261211281
149
125.8223078213959
100
AcDbLayout
  1
Model
 70
     1
 71
     0
 10
0.0
 20
0.0
 11
12.0
 21
9.0
 12
0.0
 22
0.0
 32
0.0
 14
0.0
 24
0.0
 34
0.0
 15
0.0
 25
0.0
 35
0.0
146
0.0
 13
0.0
 23
0.0
 33
0.0
 16
1.0
 26
0.0
 36
0.0
 17
0.0
 27
1.0
 37
0.0
 76
     0
330
747D
  0
LAYOUT
  5
1857C
102
{ACAD_XDICTIONARY
360
1A0C8
102
}
102
{ACAD_REACTORS
330
18579
102
}
330
18579
100
AcDbPlotSettings
  1

  2
Microsoft Office Document Image Writer
  4

  6

 40
0.0
 41
0.0
 42
0.0
 43
0.0
 44
0.0
 45
0.0
 46
0.0
 47
0.0
 48
0.0
 49
0.0
140
0.0
141
0.0
142
1.0
143
1.0
 70
   688
 72
     0
 73
     0
 74
     5
  7

 75
    16
147
1.0
148
0.0
149
0.0
100
AcDbLayout
  1
レイアウト1
 70
     0
 71
     1
 10
0.0
 20
0.0
 11
420.0
 21
297.0
 12
0.0
 22
0.0
 32
0.0
 14
1.000000000000000E+20
 24
1.000000000000000E+20
 34
1.000000000000000E+20
 15
-1.000000000000000E+20
 25
-1.000000000000000E+20
 35
-1.000000000000000E+20
146
0.0
 13
0.0
 23
0.0
 33
0.0
 16
1.0
 26
0.0
 36
0.0
 17
0.0
 27
1.0
 37
0.0
 76
     0
330
747A
  0
MLINESTYLE
  5
7480
102
{ACAD_REACTORS
330
7473
102
}
330
7473
100
AcDbMlineStyle
  2
STANDARD
 70
     0
  3

 62
     0
 51
90.0
 52
90.0
 71
     2
 49
0.5
 62
   256
  6
BYLAYER
 49
-0.5
 62
   256
  6
BYLAYER
  0
ACDBPLACEHOLDER
  5
18576
102
{ACAD_REACTORS
330
18575
102
}
330
18575
  0
XRECORD
  5
1A0C5
102
{ACAD_REACTORS
330
1A0C3
102
}
330
1A0C3
100
AcDbXrecord
280
     1
340
18578
  0
XRECORD
  5
1A0C4
102
{ACAD_REACTORS
330
1A0C3
102
}
330
1A0C3
100
AcDbXrecord
280
     1
340
18577
  0
DICTIONARYVAR
  5
1A0C0
102
{ACAD_REACTORS
330
1A0BF
102
}
330
1A0BF
100
DictionaryVariables
280
     0
  1
1
  0
DICTIONARYVAR
  5
1A0C1
102
{ACAD_REACTORS
330
1A0BF
102
}
330
1A0BF
100
DictionaryVariables
280
     0
  1

  0
DICTIONARY
  5
1A0C6
330
1857B
100
AcDbDictionary
280
     1
281
     1
  3
ACAD_XREC_ROUNDTRIP
360
1A0C7
  0
DICTIONARY
  5
1A0C8
330
1857C
100
AcDbDictionary
280
     1
281
     1
  3
ACAD_XREC_ROUNDTRIP
360
1A0C9
  0
XRECORD
  5
1A0C7
102
{ACAD_REACTORS
330
1A0C6
102
}
330
1A0C6
100
AcDbXrecord
280
     1
102
SHADEPLOT
 70
     0
102
SHADEPLOTRESLEVEL
 70
     2
102
SHADEPLOTCUSTOMDPI
 70
   150
  0
XRECORD
  5
1A0C9
102
{ACAD_REACTORS
330
1A0C8
102
}
330
1A0C8
100
AcDbXrecord
280
     1
102
SHADEPLOT
 70
     0
102
SHADEPLOTRESLEVEL
 70
     2
102
SHADEPLOTCUSTOMDPI
 70
   300
  0
ENDSEC
  0
EOF
