  0
SECTION
  2
HEADER
  9
$ACADVER
  1
AC1015
  9
$ACADMAINTVER
 70
    20
  9
$DWGCODEPAGE
  3
ANSI_932
  9
$INSBASE
 10
0.0
 20
0.0
 30
0.0
  9
$EXTMIN
 10
139.9999999999995
 20
-0.0000000000000909
 30
0.0
  9
$EXTMAX
 10
16307.2
 20
11409.6
 30
0.0
  9
$LIMMIN
 10
0.0
 20
0.0
  9
$LIMMAX
 10
16800.0
 20
11880.0
  9
$ORTHOMODE
 70
     0
  9
$REGENMODE
 70
     1
  9
$FILLMODE
 70
     1
  9
$QTEXTMODE
 70
     0
  9
$MIRRTEXT
 70
     1
  9
$LTSCALE
 40
20.0
  9
$ATTMODE
 70
     1
  9
$TEXTSIZE
 40
4.0
  9
$TRACEWID
 40
1.0
  9
$TEXTSTYLE
  7
STYLE1
  9
$CLAYER
  8
部品1
  9
$CELTYPE
  6
BYLAYER
  9
$CECOLOR
 62
   256
  9
$CELTSCALE
 40
50.0
  9
$DISPSILH
 70
     0
  9
$DIMSCALE
 40
40.0
  9
$DIMASZ
 40
2.5
  9
$DIMEXO
 40
0.5
  9
$DIMDLI
 40
7.0
  9
$DIMRND
 40
0.0
  9
$DIMDLE
 40
0.0
  9
$DIMEXE
 40
1.5
  9
$DIMTP
 40
0.0
  9
$DIMTM
 40
0.0
  9
$DIMTXT
 40
3.0
  9
$DIMCEN
 40
0.0
  9
$DIMTSZ
 40
0.0
  9
$DIMTOL
 70
     0
  9
$DIMLIM
 70
     0
  9
$DIMTIH
 70
     0
  9
$DIMTOH
 70
     0
  9
$DIMSE1
 70
     0
  9
$DIMSE2
 70
     0
  9
$DIMTAD
 70
     3
  9
$DIMZIN
 70
     8
  9
$DIMBLK
  1

  9
$DIMASO
 70
     1
  9
$DIMSHO
 70
     1
  9
$DIMPOST
  1

  9
$DIMAPOST
  1

  9
$DIMALT
 70
     0
  9
$DIMALTD
 70
     2
  9
$DIMALTF
 40
0.0394
  9
$DIMLFAC
 40
1.0
  9
$DIMTOFL
 70
     1
  9
$DIMTVP
 40
0.0
  9
$DIMTIX
 70
     1
  9
$DIMSOXD
 70
     0
  9
$DIMSAH
 70
     1
  9
$DIMBLK1
  1
DOTSMALL
  9
$DIMBLK2
  1
DOTSMALL
  9
$DIMSTYLE
  2
INABA_S40G
  9
$DIMCLRD
 70
     0
  9
$DIMCLRE
 70
     0
  9
$DIMCLRT
 70
     7
  9
$DIMTFAC
 40
1.0
  9
$DIMGAP
 40
1.0
  9
$DIMJUST
 70
     0
  9
$DIMSD1
 70
     0
  9
$DIMSD2
 70
     0
  9
$DIMTOLJ
 70
     1
  9
$DIMTZIN
 70
     0
  9
$DIMALTZ
 70
     0
  9
$DIMALTTZ
 70
     0
  9
$DIMUPT
 70
     0
  9
$DIMDEC
 70
     1
  9
$DIMTDEC
 70
     4
  9
$DIMALTU
 70
     2
  9
$DIMALTTD
 70
     2
  9
$DIMTXSTY
  7
STYLE1
  9
$DIMAUNIT
 70
     0
  9
$DIMADEC
 70
     0
  9
$DIMALTRND
 40
0.0
  9
$DIMAZIN
 70
     0
  9
$DIMDSEP
 70
    46
  9
$DIMATFIT
 70
     3
  9
$DIMFRAC
 70
     0
  9
$DIMLDRBLK
  1

  9
$DIMLUNIT
 70
     2
  9
$DIMLWD
 70
    -2
  9
$DIMLWE
 70
    -2
  9
$DIMTMOVE
 70
     0
  9
$LUNITS
 70
     2
  9
$LUPREC
 70
     1
  9
$SKETCHINC
 40
1.0
  9
$FILLETRAD
 40
3.0
  9
$AUNITS
 70
     0
  9
$AUPREC
 70
     0
  9
$MENU
  1
acad
  9
$ELEVATION
 40
0.0
  9
$PELEVATION
 40
0.0
  9
$THICKNESS
 40
0.0
  9
$LIMCHECK
 70
     0
  9
$CHAMFERA
 40
0.0
  9
$CHAMFERB
 40
0.0
  9
$CHAMFERC
 40
0.0
  9
$CHAMFERD
 40
0.0
  9
$SKPOLY
 70
     0
  9
$TDCREATE
 40
2451368.612993866
  9
$TDUCREATE
 40
2451368.237993866
  9
$TDUPDATE
 40
2455575.686599746
  9
$TDUUPDATE
 40
2455575.311599746
  9
$TDINDWG
 40
0.7322485532
  9
$TDUSRTIMER
 40
0.7322485532
  9
$USRTIMER
 70
     1
  9
$ANGBASE
 50
0.0
  9
$ANGDIR
 70
     0
  9
$PDMODE
 70
     3
  9
$PDSIZE
 40
2.0
  9
$PLINEWID
 40
0.0
  9
$SPLFRAME
 70
     0
  9
$SPLINETYPE
 70
     6
  9
$SPLINESEGS
 70
     8
  9
$HANDSEED
  5
18D08
  9
$SURFTAB1
 70
     6
  9
$SURFTAB2
 70
     6
  9
$SURFTYPE
 70
     6
  9
$SURFU
 70
     6
  9
$SURFV
 70
     6
  9
$UCSBASE
  2

  9
$UCSNAME
  2

  9
$UCSORG
 10
0.0
 20
0.0
 30
0.0
  9
$UCSXDIR
 10
1.0
 20
0.0
 30
0.0
  9
$UCSYDIR
 10
0.0
 20
1.0
 30
0.0
  9
$UCSORTHOREF
  2

  9
$UCSORTHOVIEW
 70
     0
  9
$UCSORGTOP
 10
0.0
 20
0.0
 30
0.0
  9
$UCSORGBOTTOM
 10
0.0
 20
0.0
 30
0.0
  9
$UCSORGLEFT
 10
0.0
 20
0.0
 30
0.0
  9
$UCSORGRIGHT
 10
0.0
 20
0.0
 30
0.0
  9
$UCSORGFRONT
 10
0.0
 20
0.0
 30
0.0
  9
$UCSORGBACK
 10
0.0
 20
0.0
 30
0.0
  9
$PUCSBASE
  2

  9
$PUCSNAME
  2

  9
$PUCSORG
 10
0.0
 20
0.0
 30
0.0
  9
$PUCSXDIR
 10
1.0
 20
0.0
 30
0.0
  9
$PUCSYDIR
 10
0.0
 20
1.0
 30
0.0
  9
$PUCSORTHOREF
  2

  9
$PUCSORTHOVIEW
 70
     0
  9
$PUCSORGTOP
 10
0.0
 20
0.0
 30
0.0
  9
$PUCSORGBOTTOM
 10
0.0
 20
0.0
 30
0.0
  9
$PUCSORGLEFT
 10
0.0
 20
0.0
 30
0.0
  9
$PUCSORGRIGHT
 10
0.0
 20
0.0
 30
0.0
  9
$PUCSORGFRONT
 10
0.0
 20
0.0
 30
0.0
  9
$PUCSORGBACK
 10
0.0
 20
0.0
 30
0.0
  9
$USERI1
 70
     0
  9
$USERI2
 70
     0
  9
$USERI3
 70
     0
  9
$USERI4
 70
     0
  9
$USERI5
 70
     0
  9
$USERR1
 40
0.0
  9
$USERR2
 40
0.0
  9
$USERR3
 40
0.0
  9
$USERR4
 40
0.0
  9
$USERR5
 40
0.0
  9
$WORLDVIEW
 70
     1
  9
$SHADEDGE
 70
     3
  9
$SHADEDIF
 70
    70
  9
$TILEMODE
 70
     1
  9
$MAXACTVP
 70
    16
  9
$PINSBASE
 10
0.0
 20
0.0
 30
0.0
  9
$PLIMCHECK
 70
     0
  9
$PEXTMIN
 10
1.000000000000000E+20
 20
1.000000000000000E+20
 30
1.000000000000000E+20
  9
$PEXTMAX
 10
-1.000000000000000E+20
 20
-1.000000000000000E+20
 30
-1.000000000000000E+20
  9
$PLIMMIN
 10
0.0
 20
0.0
  9
$PLIMMAX
 10
420.0
 20
297.0
  9
$UNITMODE
 70
     0
  9
$VISRETAIN
 70
     0
  9
$PLINEGEN
 70
     0
  9
$PSLTSCALE
 70
     0
  9
$TREEDEPTH
 70
  3020
  9
$CMLSTYLE
  2
STANDARD
  9
$CMLJUST
 70
     0
  9
$CMLSCALE
 40
1.0
  9
$PROXYGRAPHICS
 70
     1
  9
$MEASUREMENT
 70
     1
  9
$CELWEIGHT
370
    -1
  9
$ENDCAPS
280
     0
  9
$JOINSTYLE
280
     0
  9
$LWDISPLAY
290
     0
  9
$INSUNITS
 70
     0
  9
$HYPERLINKBASE
  1

  9
$STYLESHEET
  1

  9
$XEDIT
290
     1
  9
$CEPSNTYPE
380
     0
  9
$PSTYLEMODE
290
     1
  9
$FINGERPRINTGUID
  2
{676B7A87-C1A3-461F-B27C-DBB30B77B407}
  9
$VERSIONGUID
  2
{FC87DCB8-5F1E-4098-86A3-4862CB99BC16}
  9
$EXTNAMES
290
     1
  9
$PSVPSCALE
 40
0.0
  9
$OLESTARTUP
290
     0
  0
ENDSEC
  0
SECTION
  2
CLASSES
  0
CLASS
  1
ACDBDICTIONARYWDFLT
  2
AcDbDictionaryWithDefault
  3
ObjectDBX Classes
 90
        0
280
     0
281
     0
  0
CLASS
  1
DICTIONARYVAR
  2
AcDbDictionaryVar
  3
ObjectDBX Classes
 90
        0
280
     0
281
     0
  0
CLASS
  1
ACDBPLACEHOLDER
  2
AcDbPlaceHolder
  3
ObjectDBX Classes
 90
        0
280
     0
281
     0
  0
CLASS
  1
LAYOUT
  2
AcDbLayout
  3
ObjectDBX Classes
 90
        0
280
     0
281
     0
  0
ENDSEC
  0
SECTION
  2
TABLES
  0
TABLE
  2
VPORT
  5
746D
330
0
100
AcDbSymbolTable
 70
     2
  0
VPORT
  5
18D00
330
746D
100
AcDbSymbolTableRecord
100
AcDbViewportTableRecord
  2
*Active
 70
     0
 10
0.0
 20
0.0
 11
1.0
 21
1.0
 12
8223.761025238502
 22
6348.703162895247
 13
0.0
 23
0.0
 14
10.0
 24
10.0
 15
10.0
 25
10.0
 16
0.0
 26
0.0
 36
1.0
 17
0.0
 27
0.0
 37
0.0
 40
12805.60689082044
 41
1.525925925925925
 42
50.0
 43
0.0
 44
0.0
 50
0.0
 51
0.0
 71
     0
 72
     0
 73
     1
 74
     0
 75
     0
 76
     0
 77
     0
 78
     0
281
     0
 65
     1
110
0.0
120
0.0
130
0.0
111
1.0
121
0.0
131
0.0
112
0.0
122
1.0
132
0.0
 79
     0
146
0.0
  0
ENDTAB
  0
TABLE
  2
LTYPE
  5
746A
330
0
100
AcDbSymbolTable
 70
     4
  0
LTYPE
  5
7477
330
746A
100
AcDbSymbolTableRecord
100
AcDbLinetypeTableRecord
  2
BYBLOCK
 70
     0
  3

 72
    65
 73
     0
 40
0.0
  0
LTYPE
  5
7478
330
746A
100
AcDbSymbolTableRecord
100
AcDbLinetypeTableRecord
  2
BYLAYER
 70
     0
  3

 72
    65
 73
     0
 40
0.0
  0
LTYPE
  5
7479
330
746A
100
AcDbSymbolTableRecord
100
AcDbLinetypeTableRecord
  2
CONTINUOUS
 70
     0
  3
Solid line
 72
    65
 73
     0
 40
0.0
  0
LTYPE
  5
7816
330
746A
100
AcDbSymbolTableRecord
100
AcDbLinetypeTableRecord
  2
CENTER
 70
     0
  3
____ _ ____ _ ____ _ ____ _ ____ _ ____ _ ____ 
 72
    65
 73
     4
 40
2.0
 49
1.25
 74
     0
 49
-0.25
 74
     0
 49
0.25
 74
     0
 49
-0.25
 74
     0
  0
LTYPE
  5
781A
330
746A
100
AcDbSymbolTableRecord
100
AcDbLinetypeTableRecord
  2
HIDDEN
 70
     0
  3
__ __ __ __ __ __ __ __ __ __ __ __ __ __ __ __
 72
    65
 73
     2
 40
0.375
 49
0.25
 74
     0
 49
-0.125
 74
     0
  0
LTYPE
  5
781B
330
746A
100
AcDbSymbolTableRecord
100
AcDbLinetypeTableRecord
  2
PHANTOM
 70
     0
  3
______  __  __  ______  __  __  ______  __  __ 
 72
    65
 73
     6
 40
2.5
 49
1.25
 74
     0
 49
-0.25
 74
     0
 49
0.25
 74
     0
 49
-0.25
 74
     0
 49
0.25
 74
     0
 49
-0.25
 74
     0
  0
ENDTAB
  0
TABLE
  2
LAYER
  5
7467
102
{ACAD_XDICTIONARY
360
179B5
102
}
330
0
100
AcDbSymbolTable
 70
    12
  0
LAYER
  5
7474
330
7467
100
AcDbSymbolTableRecord
100
AcDbLayerTableRecord
  2
0
 70
     0
 62
     7
  6
CONTINUOUS
370
    -3
390
1780C
  0
LAYER
  5
DEB2
330
7467
100
AcDbSymbolTableRecord
100
AcDbLayerTableRecord
  2
センター
 70
     0
 62
     3
  6
CENTER
370
    -3
390
1780C
  0
LAYER
  5
DEB3
330
7467
100
AcDbSymbolTableRecord
100
AcDbLayerTableRecord
  2
寸法
 70
     0
 62
     4
  6
CONTINUOUS
370
    -3
390
1780C
  0
LAYER
  5
DEB4
330
7467
100
AcDbSymbolTableRecord
100
AcDbLayerTableRecord
  2
部品1
 70
     0
 62
     7
  6
CONTINUOUS
370
    -3
390
1780C
  0
LAYER
  5
DEB5
330
7467
100
AcDbSymbolTableRecord
100
AcDbLayerTableRecord
  2
補助
 70
     0
 62
    -1
  6
CONTINUOUS
370
    -3
390
1780C
  0
LAYER
  5
DEB6
330
7467
100
AcDbSymbolTableRecord
100
AcDbLayerTableRecord
  2
文字
 70
     0
 62
     7
  6
CONTINUOUS
370
    -3
390
1780C
  0
LAYER
  5
F255
330
7467
100
AcDbSymbolTableRecord
100
AcDbLayerTableRecord
  2
DEFPOINTS
 70
     0
 62
     7
  6
CONTINUOUS
290
     0
370
    -3
390
1780C
  0
LAYER
  5
10B54
330
7467
100
AcDbSymbolTableRecord
100
AcDbLayerTableRecord
  2
仕様書枠
 70
     0
 62
   230
  6
CONTINUOUS
370
    -3
390
1780C
  0
LAYER
  5
11729
330
7467
100
AcDbSymbolTableRecord
100
AcDbLayerTableRecord
  2
Ｇ．Ｌ
 70
     0
 62
    30
  6
CONTINUOUS
370
    -3
390
1780C
  0
LAYER
  5
1173F
330
7467
100
AcDbSymbolTableRecord
100
AcDbLayerTableRecord
  2
細線
 70
     0
 62
     5
  6
CONTINUOUS
370
    -3
390
1780C
  0
LAYER
  5
12CC4
330
7467
100
AcDbSymbolTableRecord
100
AcDbLayerTableRecord
  2
想像線
 70
     0
 62
     6
  6
PHANTOM
370
    -3
390
1780C
  0
LAYER
  5
142E2
330
7467
100
AcDbSymbolTableRecord
100
AcDbLayerTableRecord
  2
破線
 70
     0
 62
     2
  6
HIDDEN
370
    -3
390
1780C
  0
ENDTAB
  0
TABLE
  2
STYLE
  5
7468
330
0
100
AcDbSymbolTable
 70
     4
  0
STYLE
  5
7475
330
7468
100
AcDbSymbolTableRecord
100
AcDbTextStyleTableRecord
  2
STANDARD
 70
     0
 40
0.0
 41
1.0
 50
0.0
 71
     0
 42
4.0
  3
txt
  4
C:\AutoCAD LT\bigfont.shx
  0
STYLE
  5
F706
330
7468
100
AcDbSymbolTableRecord
100
AcDbTextStyleTableRecord
  2
STYLE1
 70
     0
 40
0.0
 41
1.0
 50
0.0
 71
     0
 42
4.0
  3
isocp.shx
  4
bigfont.shx
  0
STYLE
  5
103BF
330
7468
100
AcDbSymbolTableRecord
100
AcDbTextStyleTableRecord
  2
STYLE2
 70
     0
 40
0.0
 41
1.0
 50
0.0
 71
     0
 42
100.0
  3
MS PGothic.ttf
  4

1001
ACAD
1000
MS PGothic
1071
    32818
  0
STYLE
  5
185F2
330
7468
100
AcDbSymbolTableRecord
100
AcDbTextStyleTableRecord
  2
STYLE3
 70
     0
 40
0.0
 41
1.0
 50
0.0
 71
     0
 42
100.0
  3

  4

1001
ACAD
1000
DFPGothic-EB
1071
    32818
  0
ENDTAB
  0
TABLE
  2
VIEW
  5
746B
330
0
100
AcDbSymbolTable
 70
     0
  0
ENDTAB
  0
TABLE
  2
UCS
  5
746C
330
0
100
AcDbSymbolTable
 70
     0
  0
ENDTAB
  0
TABLE
  2
APPID
  5
746E
330
0
100
AcDbSymbolTable
 70
     6
  0
APPID
  5
7476
330
746E
100
AcDbSymbolTableRecord
100
AcDbRegAppTableRecord
  2
ACAD
 70
     0
  0
APPID
  5
DEA9
330
746E
100
AcDbSymbolTableRecord
100
AcDbRegAppTableRecord
  2
CONTENTBLOCKICON
 70
     0
  0
APPID
  5
DEAA
330
746E
100
AcDbSymbolTableRecord
100
AcDbRegAppTableRecord
  2
CONTENTBLOCKDESCRIPTION
 70
     0
  0
APPID
  5
E71D
330
746E
100
AcDbSymbolTableRecord
100
AcDbRegAppTableRecord
  2
CONTENTTABDATA
 70
     0
  0
APPID
  5
E71E
330
746E
100
AcDbSymbolTableRecord
100
AcDbRegAppTableRecord
  2
CONTENTCURRENTTAB
 70
     0
  0
APPID
  5
F3BA
330
746E
100
AcDbSymbolTableRecord
100
AcDbRegAppTableRecord
  2
DRAWINGVARIABLESXDATA
 70
     0
  0
ENDTAB
  0
TABLE
  2
DIMSTYLE
  5
746F
330
0
100
AcDbSymbolTable
 70
     5
100
AcDbDimStyleTable
 71
     0
  0
DIMSTYLE
105
7484
330
746F
100
AcDbSymbolTableRecord
100
AcDbDimStyleTableRecord
  2
JIS
 70
     0
 41
2.5
 42
1.0
 43
7.0
 44
1.0
 73
     0
 74
     0
 77
     1
 78
     8
140
2.5
141
0.0
143
0.0394
147
0.0
172
     1
174
     1
175
     1
340
7475
  0
DIMSTYLE
105
F71F
102
{ACAD_REACTORS
330
17C9E
330
17CD9
330
17CDA
330
17CDB
330
17D1A
330
17D1E
330
17D41
330
17D6A
330
17D6F
330
17D77
330
17D7C
330
17D7F
330
17DB4
330
17DB6
330
17DB7
330
17DC2
330
17DC3
330
17DC4
330
17DCE
330
17DCF
330
17DD0
330
17DD1
330
17DD2
330
17DF0
330
17DF1
330
17DF2
330
17DF3
330
17DF4
330
17DF5
330
1899B
330
18A9E
102
}
330
746F
100
AcDbSymbolTableRecord
100
AcDbDimStyleTableRecord
  2
INABA_S40G
 70
     0
 40
40.0
 41
2.5
 42
0.5
 43
7.0
 44
1.5
 73
     0
 74
     0
 77
     3
 78
     8
140
3.0
141
0.0
143
0.0394
147
1.0
172
     1
173
     1
174
     1
178
     7
271
     1
340
F706
341
F770
343
F770
344
F770
  0
DIMSTYLE
105
179B4
102
{ACAD_REACTORS
330
186FE
330
1899A
102
}
330
746F
100
AcDbSymbolTableRecord
100
AcDbDimStyleTableRecord
  2
INABA_S40
 70
     0
 40
40.0
 41
2.5
 42
0.5
 43
7.0
 44
1.5
 73
     0
 74
     0
 77
     3
 78
     8
140
3.0
141
0.0
143
0.0394
147
1.0
172
     1
173
     1
174
     1
175
     1
178
     7
340
7475
  0
DIMSTYLE
105
185F3
330
746F
100
AcDbSymbolTableRecord
100
AcDbDimStyleTableRecord
  2
INABA_S50G
 70
     0
 41
125.0
 42
25.0
 43
7.0
 44
75.0
 73
     0
 74
     0
 77
     3
 78
     8
140
150.0
141
0.0
143
0.0394
147
25.0
172
     1
173
     1
174
     1
175
     1
178
     7
271
     1
340
F706
341
F770
343
F770
344
F770
  0
DIMSTYLE
105
18C96
330
746F
100
AcDbSymbolTableRecord
100
AcDbDimStyleTableRecord
  2
INABA_S20G
 70
     0
 40
20.0
 41
2.5
 42
0.5
 43
7.0
 44
1.5
 73
     0
 74
     0
 77
     3
 78
     8
140
3.0
141
0.0
143
0.0394
147
1.0
172
     1
173
     1
174
     1
178
     7
271
     1
340
F706
341
F770
343
F770
344
F770
  0
ENDTAB
  0
TABLE
  2
BLOCK_RECORD
  5
7466
330
0
100
AcDbSymbolTable
 70
    35
  0
BLOCK_RECORD
  5
747D
330
7466
100
AcDbSymbolTableRecord
100
AcDbBlockTableRecord
  2
*MODEL_SPACE
340
17811
  0
BLOCK_RECORD
  5
747A
330
7466
100
AcDbSymbolTableRecord
100
AcDbBlockTableRecord
  2
*PAPER_SPACE
340
17812
  0
BLOCK_RECORD
  5
F770
330
7466
100
AcDbSymbolTableRecord
100
AcDbBlockTableRecord
  2
_DOTSMALL
340
0
102
{BLKREFS
331
184A5
331
184A6
331
184B0
331
184B1
331
184B9
331
184BA
331
184C2
331
184C3
331
184CC
331
184CD
331
184D5
331
184D6
331
184DF
331
184E0
331
184EA
331
184EB
331
184F4
331
184F5
331
184FD
331
184FE
331
18506
331
18507
331
1857A
331
1857B
331
18583
331
18584
331
1858C
331
1858D
331
18595
331
18596
331
1859E
331
1859F
331
185A9
331
185AA
331
185B2
331
185B3
331
185BD
331
185BE
331
18C08
331
18C09
331
18C11
331
18C12
331
18C2E
331
18C2F
331
18C39
331
18C3A
331
18C44
331
18C45
331
18C4F
331
18C50
331
18C58
331
18C59
331
18C61
331
18C62
331
18C6A
331
18C6B
331
18C73
331
18C74
331
18C7C
331
18C7D
331
18C87
331
18C88
102
}
  0
BLOCK_RECORD
  5
17819
330
7466
100
AcDbSymbolTableRecord
100
AcDbBlockTableRecord
  2
_DOT
340
0
102
{BLKREFS
331
18C1C
331
18C1D
331
18C25
331
18C26
102
}
  0
BLOCK_RECORD
  5
17F67
330
7466
100
AcDbSymbolTableRecord
100
AcDbBlockTableRecord
  2
*D2
340
0
  0
BLOCK_RECORD
  5
17F75
330
7466
100
AcDbSymbolTableRecord
100
AcDbBlockTableRecord
  2
*D3
340
0
  0
BLOCK_RECORD
  5
17F81
330
7466
100
AcDbSymbolTableRecord
100
AcDbBlockTableRecord
  2
*D4
340
0
  0
BLOCK_RECORD
  5
17F8F
330
7466
100
AcDbSymbolTableRecord
100
AcDbBlockTableRecord
  2
*D5
340
0
  0
BLOCK_RECORD
  5
17F9B
330
7466
100
AcDbSymbolTableRecord
100
AcDbBlockTableRecord
  2
*D6
340
0
  0
BLOCK_RECORD
  5
17FA7
330
7466
100
AcDbSymbolTableRecord
100
AcDbBlockTableRecord
  2
*D7
340
0
  0
BLOCK_RECORD
  5
17FB3
330
7466
100
AcDbSymbolTableRecord
100
AcDbBlockTableRecord
  2
*D8
340
0
  0
BLOCK_RECORD
  5
17FBF
330
7466
100
AcDbSymbolTableRecord
100
AcDbBlockTableRecord
  2
*D9
340
0
  0
BLOCK_RECORD
  5
17FCB
330
7466
100
AcDbSymbolTableRecord
100
AcDbBlockTableRecord
  2
*D10
340
0
  0
BLOCK_RECORD
  5
17FD9
330
7466
100
AcDbSymbolTableRecord
100
AcDbBlockTableRecord
  2
*D11
340
0
  0
BLOCK_RECORD
  5
17FF1
330
7466
100
AcDbSymbolTableRecord
100
AcDbBlockTableRecord
  2
*D12
340
0
  0
BLOCK_RECORD
  5
17FFD
330
7466
100
AcDbSymbolTableRecord
100
AcDbBlockTableRecord
  2
*D13
340
0
  0
BLOCK_RECORD
  5
18009
330
7466
100
AcDbSymbolTableRecord
100
AcDbBlockTableRecord
  2
*D14
340
0
  0
BLOCK_RECORD
  5
18015
330
7466
100
AcDbSymbolTableRecord
100
AcDbBlockTableRecord
  2
*D15
340
0
  0
BLOCK_RECORD
  5
18021
330
7466
100
AcDbSymbolTableRecord
100
AcDbBlockTableRecord
  2
*D16
340
0
  0
BLOCK_RECORD
  5
1802F
330
7466
100
AcDbSymbolTableRecord
100
AcDbBlockTableRecord
  2
*D17
340
0
  0
BLOCK_RECORD
  5
1803D
330
7466
100
AcDbSymbolTableRecord
100
AcDbBlockTableRecord
  2
*D18
340
0
  0
BLOCK_RECORD
  5
1804B
330
7466
100
AcDbSymbolTableRecord
100
AcDbBlockTableRecord
  2
*D19
340
0
  0
BLOCK_RECORD
  5
18057
330
7466
100
AcDbSymbolTableRecord
100
AcDbBlockTableRecord
  2
*D20
340
0
  0
BLOCK_RECORD
  5
18063
330
7466
100
AcDbSymbolTableRecord
100
AcDbBlockTableRecord
  2
*D21
340
0
  0
BLOCK_RECORD
  5
1806F
330
7466
100
AcDbSymbolTableRecord
100
AcDbBlockTableRecord
  2
*D22
340
0
  0
BLOCK_RECORD
  5
1807C
330
7466
100
AcDbSymbolTableRecord
100
AcDbBlockTableRecord
  2
*D23
340
0
  0
BLOCK_RECORD
  5
1808A
330
7466
100
AcDbSymbolTableRecord
100
AcDbBlockTableRecord
  2
*D24
340
0
  0
BLOCK_RECORD
  5
18097
330
7466
100
AcDbSymbolTableRecord
100
AcDbBlockTableRecord
  2
*D25
340
0
  0
BLOCK_RECORD
  5
180A3
330
7466
100
AcDbSymbolTableRecord
100
AcDbBlockTableRecord
  2
*D26
340
0
  0
BLOCK_RECORD
  5
180B0
330
7466
100
AcDbSymbolTableRecord
100
AcDbBlockTableRecord
  2
*D27
340
0
  0
BLOCK_RECORD
  5
180BC
330
7466
100
AcDbSymbolTableRecord
100
AcDbBlockTableRecord
  2
*D28
340
0
  0
BLOCK_RECORD
  5
180C8
330
7466
100
AcDbSymbolTableRecord
100
AcDbBlockTableRecord
  2
*D29
340
0
  0
BLOCK_RECORD
  5
180D6
330
7466
100
AcDbSymbolTableRecord
100
AcDbBlockTableRecord
  2
*D30
340
0
  0
BLOCK_RECORD
  5
18769
330
7466
100
AcDbSymbolTableRecord
100
AcDbBlockTableRecord
  2
*D31
340
0
  0
BLOCK_RECORD
  5
18AAE
330
7466
100
AcDbSymbolTableRecord
100
AcDbBlockTableRecord
  2
*D32
340
0
  0
BLOCK_RECORD
  5
18ABC
330
7466
100
AcDbSymbolTableRecord
100
AcDbBlockTableRecord
  2
*D33
340
0
  0
BLOCK_RECORD
  5
18B3A
330
7466
100
AcDbSymbolTableRecord
100
AcDbBlockTableRecord
  2
*D34
340
0
  0
ENDTAB
  0
ENDSEC
  0
SECTION
  2
BLOCKS
  0
BLOCK
  5
7489
330
747D
100
AcDbEntity
  8
0
100
AcDbBlockBegin
  2
*MODEL_SPACE
 70
     0
 10
0.0
 20
0.0
 30
0.0
  3
*MODEL_SPACE
  1

  0
ENDBLK
  5
748A
330
747D
100
AcDbEntity
  8
0
100
AcDbBlockEnd
  0
BLOCK
  5
7487
330
747A
100
AcDbEntity
 67
     1
  8
0
100
AcDbBlockBegin
  2
*PAPER_SPACE
 70
     0
 10
0.0
 20
0.0
 30
0.0
  3
*PAPER_SPACE
  1

  0
ENDBLK
  5
7488
330
747A
100
AcDbEntity
 67
     1
  8
0
100
AcDbBlockEnd
  0
BLOCK
  5
F771
330
F770
100
AcDbEntity
  8
0
 48
50.0
100
AcDbBlockBegin
  2
_DOTSMALL
 70
     0
 10
0.0
 20
0.0
 30
0.0
  3
_DOTSMALL
  1

  0
LWPOLYLINE
  5
F772
330
F770
100
AcDbEntity
  8
0
  6
ByBlock
 62
     0
 48
50.0
100
AcDbPolyline
 90
        2
 70
     1
 43
0.5
 10
-0.0625
 20
0.0
 42
1.0
 10
0.0625
 20
0.0
 42
1.0
  0
ENDBLK
  5
F776
330
F770
100
AcDbEntity
  8
0
 48
50.0
100
AcDbBlockEnd
  0
BLOCK
  5
1781A
330
17819
100
AcDbEntity
  8
0
 48
50.0
100
AcDbBlockBegin
  2
_DOT
 70
     0
 10
0.0
 20
0.0
 30
0.0
  3
_DOT
  1

  0
LWPOLYLINE
  5
1781B
330
17819
100
AcDbEntity
  8
0
  6
ByBlock
 62
     0
 48
50.0
100
AcDbPolyline
 90
        2
 70
     1
 43
0.5
 10
-0.25
 20
0.0
 42
1.0
 10
0.25
 20
0.0
 42
1.0
  0
LINE
  5
1781C
330
17819
100
AcDbEntity
  8
0
  6
ByBlock
 62
     0
 48
50.0
100
AcDbLine
 10
-0.5
 20
0.0
 30
0.0
 11
-1.0
 21
0.0
 31
0.0
  0
ENDBLK
  5
1781D
330
17819
100
AcDbEntity
  8
0
 48
50.0
100
AcDbBlockEnd
  0
BLOCK
  5
17F73
330
17F67
100
AcDbEntity
  8
0
 48
50.0
100
AcDbBlockBegin
  2
*D2
 70
     1
 10
0.0
 20
0.0
 30
0.0
  3
*D2
  1

  0
LINE
  5
185B8
330
17F67
100
AcDbEntity
  8
寸法
 62
     0
 48
50.0
370
    -2
100
AcDbLine
 10
6037.339621930136
 20
4180.032661963827
 30
0.0
 11
6037.339621930136
 21
4624.652921391098
 31
0.0
  0
LINE
  5
185B9
330
17F67
100
AcDbEntity
  8
寸法
 62
     0
 48
50.0
370
    -2
100
AcDbLine
 10
5987.339621930136
 20
4180.032661963829
 30
0.0
 11
5987.339621930136
 21
4624.652921391098
 31
0.0
  0
LINE
  5
185BA
330
17F67
100
AcDbEntity
  8
寸法
 62
     0
 48
50.0
370
    -2
100
AcDbLine
 10
5987.339621930136
 20
4564.652921391098
 30
0.0
 11
5887.339621930135
 21
4564.652921391098
 31
0.0
  0
LINE
  5
185BB
330
17F67
100
AcDbEntity
  8
寸法
 62
     0
 48
50.0
370
    -2
100
AcDbLine
 10
6037.339621930136
 20
4564.652921391098
 30
0.0
 11
6456.872147398863
 21
4564.652921391098
 31
0.0
  0
LINE
  5
185BC
330
17F67
100
AcDbEntity
  8
寸法
 62
     0
 48
50.0
370
    -2
100
AcDbLine
 10
5987.339621930136
 20
4564.652921391098
 30
0.0
 11
6037.339621930136
 21
4564.652921391098
 31
0.0
  0
INSERT
  5
185BD
330
17F67
100
AcDbEntity
  8
寸法
 62
     0
 48
50.0
370
    -2
100
AcDbBlockReference
  2
_DOTSMALL
 10
5987.339621930136
 20
4564.652921391098
 30
0.0
 41
100.0
 42
100.0
 43
100.0
  0
INSERT
  5
185BE
330
17F67
100
AcDbEntity
  8
寸法
 62
     0
 48
50.0
370
    -2
100
AcDbBlockReference
  2
_DOTSMALL
 10
6037.339621930136
 20
4564.652921391098
 30
0.0
 41
100.0
 42
100.0
 43
100.0
 50
180.0
  0
MTEXT
  5
185BF
330
17F67
100
AcDbEntity
  8
寸法
 62
     7
 48
50.0
100
AcDbMText
 10
6350.824903304376
 20
4664.652921391097
 30
0.0
 40
120.0
 41
0.0
 71
     5
 72
     1
  1
\A1;50
  7
STYLE1
 73
     1
 44
1.0
1001
ACAD
1000
MTEXTBEGIN
1070
    73
1070
     1
1070
    44
1040
1.0
1070
    74
1070
     0
1000
MTEXTEND
  0
POINT
  5
185C0
330
17F67
100
AcDbEntity
  8
DEFPOINTS
 62
     0
 48
50.0
100
AcDbPoint
 10
6037.339621930136
 20
4160.032661963827
 30
0.0
  0
POINT
  5
185C1
330
17F67
100
AcDbEntity
  8
DEFPOINTS
 62
     0
 48
50.0
100
AcDbPoint
 10
5987.339621930136
 20
4160.032661963828
 30
0.0
  0
POINT
  5
185C2
330
17F67
100
AcDbEntity
  8
DEFPOINTS
 62
     0
 48
50.0
100
AcDbPoint
 10
5987.339621930136
 20
4564.652921391098
 30
0.0
  0
ENDBLK
  5
17F74
330
17F67
100
AcDbEntity
  8
0
 48
50.0
100
AcDbBlockEnd
  0
BLOCK
  5
17F7F
330
17F75
100
AcDbEntity
  8
0
 48
50.0
100
AcDbBlockBegin
  2
*D3
 70
     1
 10
0.0
 20
0.0
 30
0.0
  3
*D3
  1

  0
LINE
  5
185AF
330
17F75
100
AcDbEntity
  8
寸法
 62
     0
 48
50.0
370
    -2
100
AcDbLine
 10
5987.339621930136
 20
4180.032661963829
 30
0.0
 11
5987.339621930136
 21
4624.652921391098
 31
0.0
  0
LINE
  5
185B0
330
17F75
100
AcDbEntity
  8
寸法
 62
     0
 48
50.0
370
    -2
100
AcDbLine
 10
3357.339621930132
 20
4180.032661963831
 30
0.0
 11
3357.339621930132
 21
4624.652921391098
 31
0.0
  0
LINE
  5
185B1
330
17F75
100
AcDbEntity
  8
寸法
 62
     0
 48
50.0
370
    -2
100
AcDbLine
 10
5987.339621930136
 20
4564.652921391098
 30
0.0
 11
3357.339621930132
 21
4564.652921391098
 31
0.0
  0
INSERT
  5
185B2
330
17F75
100
AcDbEntity
  8
寸法
 62
     0
 48
50.0
370
    -2
100
AcDbBlockReference
  2
_DOTSMALL
 10
5987.339621930136
 20
4564.652921391098
 30
0.0
 41
100.0
 42
100.0
 43
100.0
  0
INSERT
  5
185B3
330
17F75
100
AcDbEntity
  8
寸法
 62
     0
 48
50.0
370
    -2
100
AcDbBlockReference
  2
_DOTSMALL
 10
3357.339621930132
 20
4564.652921391098
 30
0.0
 41
100.0
 42
100.0
 43
100.0
 50
180.0
  0
MTEXT
  5
185B4
330
17F75
100
AcDbEntity
  8
寸法
 62
     7
 48
50.0
100
AcDbMText
 10
4672.339621930132
 20
4664.66473241472
 30
0.0
 40
120.0
 41
0.0
 71
     5
 72
     1
  1
\A1;柱外寸法2630
  7
STYLE1
 73
     1
 44
1.0
1001
ACAD
1000
MTEXTBEGIN
1070
    73
1070
     1
1070
    44
1040
1.0
1070
    74
1070
     0
1000
MTEXTEND
  0
POINT
  5
185B5
330
17F75
100
AcDbEntity
  8
DEFPOINTS
 62
     0
 48
50.0
100
AcDbPoint
 10
5987.339621930136
 20
4160.032661963828
 30
0.0
  0
POINT
  5
185B6
330
17F75
100
AcDbEntity
  8
DEFPOINTS
 62
     0
 48
50.0
100
AcDbPoint
 10
3357.339621930132
 20
4160.032661963831
 30
0.0
  0
POINT
  5
185B7
330
17F75
100
AcDbEntity
  8
DEFPOINTS
 62
     0
 48
50.0
100
AcDbPoint
 10
3357.339621930132
 20
4564.652921391098
 30
0.0
  0
ENDBLK
  5
17F80
330
17F75
100
AcDbEntity
  8
0
 48
50.0
100
AcDbBlockEnd
  0
BLOCK
  5
17F8D
330
17F81
100
AcDbEntity
  8
0
 48
50.0
100
AcDbBlockBegin
  2
*D4
 70
     1
 10
0.0
 20
0.0
 30
0.0
  3
*D4
  1

  0
LINE
  5
185A4
330
17F81
100
AcDbEntity
  8
寸法
 62
     0
 48
50.0
370
    -2
100
AcDbLine
 10
3357.339621930132
 20
4180.032661963831
 30
0.0
 11
3357.339621930132
 21
4624.652921391098
 31
0.0
  0
LINE
  5
185A5
330
17F81
100
AcDbEntity
  8
寸法
 62
     0
 48
50.0
370
    -2
100
AcDbLine
 10
3307.339621930132
 20
4180.032661963829
 30
0.0
 11
3307.339621930132
 21
4624.652921391098
 31
0.0
  0
LINE
  5
185A6
330
17F81
100
AcDbEntity
  8
寸法
 62
     0
 48
50.0
370
    -2
100
AcDbLine
 10
3357.339621930132
 20
4564.652921391098
 30
0.0
 11
3457.339621930132
 21
4564.652921391098
 31
0.0
  0
LINE
  5
185A7
330
17F81
100
AcDbEntity
  8
寸法
 62
     0
 48
50.0
370
    -2
100
AcDbLine
 10
3307.339621930132
 20
4564.652921391098
 30
0.0
 11
2887.807096461397
 21
4564.652921391098
 31
0.0
  0
LINE
  5
185A8
330
17F81
100
AcDbEntity
  8
寸法
 62
     0
 48
50.0
370
    -2
100
AcDbLine
 10
3357.339621930132
 20
4564.652921391098
 30
0.0
 11
3307.339621930132
 21
4564.652921391098
 31
0.0
  0
INSERT
  5
185A9
330
17F81
100
AcDbEntity
  8
寸法
 62
     0
 48
50.0
370
    -2
100
AcDbBlockReference
  2
_DOTSMALL
 10
3357.339621930132
 20
4564.652921391098
 30
0.0
 41
100.0
 42
100.0
 43
100.0
 50
180.0
  0
INSERT
  5
185AA
330
17F81
100
AcDbEntity
  8
寸法
 62
     0
 48
50.0
370
    -2
100
AcDbBlockReference
  2
_DOTSMALL
 10
3307.339621930132
 20
4564.652921391098
 30
0.0
 41
100.0
 42
100.0
 43
100.0
  0
MTEXT
  5
185AB
330
17F81
100
AcDbEntity
  8
寸法
 62
     7
 48
50.0
100
AcDbMText
 10
2993.854340555885
 20
4664.652921391097
 30
0.0
 40
120.0
 41
0.0
 71
     5
 72
     1
  1
\A1;50
  7
STYLE1
 73
     1
 44
1.0
1001
ACAD
1000
MTEXTBEGIN
1070
    73
1070
     1
1070
    44
1040
1.0
1070
    74
1070
     0
1000
MTEXTEND
  0
POINT
  5
185AC
330
17F81
100
AcDbEntity
  8
DEFPOINTS
 62
     0
 48
50.0
100
AcDbPoint
 10
3357.339621930132
 20
4160.032661963831
 30
0.0
  0
POINT
  5
185AD
330
17F81
100
AcDbEntity
  8
DEFPOINTS
 62
     0
 48
50.0
100
AcDbPoint
 10
3307.339621930132
 20
4160.032661963828
 30
0.0
  0
POINT
  5
185AE
330
17F81
100
AcDbEntity
  8
DEFPOINTS
 62
     0
 48
50.0
100
AcDbPoint
 10
3307.339621930132
 20
4564.652921391098
 30
0.0
  0
ENDBLK
  5
17F8E
330
17F81
100
AcDbEntity
  8
0
 48
50.0
100
AcDbBlockEnd
  0
BLOCK
  5
17F99
330
17F8F
100
AcDbEntity
  8
0
 48
50.0
100
AcDbBlockBegin
  2
*D5
 70
     1
 10
0.0
 20
0.0
 30
0.0
  3
*D5
  1

  0
LINE
  5
1859B
330
17F8F
100
AcDbEntity
  8
寸法
 62
     0
 48
50.0
370
    -2
100
AcDbLine
 10
3307.339621930132
 20
4180.032661963829
 30
0.0
 11
3307.339621930132
 21
4834.246795812549
 31
0.0
  0
LINE
  5
1859C
330
17F8F
100
AcDbEntity
  8
寸法
 62
     0
 48
50.0
370
    -2
100
AcDbLine
 10
6037.339621930136
 20
4180.032661963827
 30
0.0
 11
6037.339621930136
 21
4834.246795812549
 31
0.0
  0
LINE
  5
1859D
330
17F8F
100
AcDbEntity
  8
寸法
 62
     0
 48
50.0
370
    -2
100
AcDbLine
 10
3307.339621930132
 20
4774.246795812548
 30
0.0
 11
6037.339621930136
 21
4774.246795812548
 31
0.0
  0
INSERT
  5
1859E
330
17F8F
100
AcDbEntity
  8
寸法
 62
     0
 48
50.0
370
    -2
100
AcDbBlockReference
  2
_DOTSMALL
 10
3307.339621930132
 20
4774.246795812548
 30
0.0
 41
100.0
 42
100.0
 43
100.0
 50
180.0
  0
INSERT
  5
1859F
330
17F8F
100
AcDbEntity
  8
寸法
 62
     0
 48
50.0
370
    -2
100
AcDbBlockReference
  2
_DOTSMALL
 10
6037.339621930136
 20
4774.246795812548
 30
0.0
 41
100.0
 42
100.0
 43
100.0
  0
MTEXT
  5
185A0
330
17F8F
100
AcDbEntity
  8
寸法
 62
     7
 48
50.0
100
AcDbMText
 10
4672.339621930132
 20
4874.258606836171
 30
0.0
 40
120.0
 41
0.0
 71
     5
 72
     1
  1
\A1;2730
  7
STYLE1
 73
     1
 44
1.0
1001
ACAD
1000
MTEXTBEGIN
1070
    73
1070
     1
1070
    44
1040
1.0
1070
    74
1070
     0
1000
MTEXTEND
  0
POINT
  5
185A1
330
17F8F
100
AcDbEntity
  8
DEFPOINTS
 62
     0
 48
50.0
100
AcDbPoint
 10
3307.339621930132
 20
4160.032661963828
 30
0.0
  0
POINT
  5
185A2
330
17F8F
100
AcDbEntity
  8
DEFPOINTS
 62
     0
 48
50.0
100
AcDbPoint
 10
6037.339621930136
 20
4160.032661963827
 30
0.0
  0
POINT
  5
185A3
330
17F8F
100
AcDbEntity
  8
DEFPOINTS
 62
     0
 48
50.0
100
AcDbPoint
 10
6037.339621930136
 20
4774.246795812548
 30
0.0
  0
ENDBLK
  5
17F9A
330
17F8F
100
AcDbEntity
  8
0
 48
50.0
100
AcDbBlockEnd
  0
BLOCK
  5
17FA5
330
17F9B
100
AcDbEntity
  8
0
 48
50.0
100
AcDbBlockBegin
  2
*D6
 70
     1
 10
0.0
 20
0.0
 30
0.0
  3
*D6
  1

  0
LINE
  5
18592
330
17F9B
100
AcDbEntity
  8
寸法
 62
     0
 48
50.0
370
    -2
100
AcDbLine
 10
3484.839621930132
 20
1465.032661963822
 30
0.0
 11
3484.839621930132
 21
1138.985332663447
 31
0.0
  0
LINE
  5
18593
330
17F9B
100
AcDbEntity
  8
寸法
 62
     0
 48
50.0
370
    -2
100
AcDbLine
 10
3284.839621930132
 20
1465.032661963825
 30
0.0
 11
3284.839621930132
 21
1138.985332663447
 31
0.0
  0
LINE
  5
18594
330
17F9B
100
AcDbEntity
  8
寸法
 62
     0
 48
50.0
370
    -2
100
AcDbLine
 10
3484.839621930132
 20
1198.985332663447
 30
0.0
 11
3284.839621930132
 21
1198.985332663447
 31
0.0
  0
INSERT
  5
18595
330
17F9B
100
AcDbEntity
  8
寸法
 62
     0
 48
50.0
370
    -2
100
AcDbBlockReference
  2
_DOTSMALL
 10
3484.839621930132
 20
1198.985332663447
 30
0.0
 41
100.0
 42
100.0
 43
100.0
  0
INSERT
  5
18596
330
17F9B
100
AcDbEntity
  8
寸法
 62
     0
 48
50.0
370
    -2
100
AcDbBlockReference
  2
_DOTSMALL
 10
3284.839621930132
 20
1198.985332663447
 30
0.0
 41
100.0
 42
100.0
 43
100.0
 50
180.0
  0
MTEXT
  5
18597
330
17F9B
100
AcDbEntity
  8
寸法
 62
     7
 48
50.0
100
AcDbMText
 10
3384.839621930132
 20
1298.997143687069
 30
0.0
 40
120.0
 41
0.0
 71
     5
 72
     1
  1
\A1;200
  7
STYLE1
 73
     1
 44
1.0
1001
ACAD
1000
MTEXTBEGIN
1070
    73
1070
     1
1070
    44
1040
1.0
1070
    74
1070
     0
1000
MTEXTEND
  0
POINT
  5
18598
330
17F9B
100
AcDbEntity
  8
DEFPOINTS
 62
     0
 48
50.0
100
AcDbPoint
 10
3484.839621930132
 20
1485.032661963822
 30
0.0
  0
POINT
  5
18599
330
17F9B
100
AcDbEntity
  8
DEFPOINTS
 62
     0
 48
50.0
100
AcDbPoint
 10
3284.839621930132
 20
1485.032661963825
 30
0.0
  0
POINT
  5
1859A
330
17F9B
100
AcDbEntity
  8
DEFPOINTS
 62
     0
 48
50.0
100
AcDbPoint
 10
3284.839621930132
 20
1198.985332663447
 30
0.0
  0
ENDBLK
  5
17FA6
330
17F9B
100
AcDbEntity
  8
0
 48
50.0
100
AcDbBlockEnd
  0
BLOCK
  5
17FB1
330
17FA7
100
AcDbEntity
  8
0
 48
50.0
100
AcDbBlockBegin
  2
*D7
 70
     1
 10
0.0
 20
0.0
 30
0.0
  3
*D7
  1

  0
LINE
  5
18589
330
17FA7
100
AcDbEntity
  8
寸法
 62
     0
 48
50.0
370
    -2
100
AcDbLine
 10
3264.839621930132
 20
1485.032661963825
 30
0.0
 11
3075.339618683499
 21
1485.032661963825
 31
0.0
  0
LINE
  5
1858A
330
17FA7
100
AcDbEntity
  8
寸法
 62
     0
 48
50.0
370
    -2
100
AcDbLine
 10
3239.839621930132
 20
1685.032661963825
 30
0.0
 11
3075.339618683499
 21
1685.032661963825
 31
0.0
  0
LINE
  5
1858B
330
17FA7
100
AcDbEntity
  8
寸法
 62
     0
 48
50.0
370
    -2
100
AcDbLine
 10
3135.339618683499
 20
1485.032661963825
 30
0.0
 11
3135.339618683499
 21
1685.032661963825
 31
0.0
  0
INSERT
  5
1858C
330
17FA7
100
AcDbEntity
  8
寸法
 62
     0
 48
50.0
370
    -2
100
AcDbBlockReference
  2
_DOTSMALL
 10
3135.339618683499
 20
1485.032661963825
 30
0.0
 41
100.0
 42
100.0
 43
100.0
 50
270.0
  0
INSERT
  5
1858D
330
17FA7
100
AcDbEntity
  8
寸法
 62
     0
 48
50.0
370
    -2
100
AcDbBlockReference
  2
_DOTSMALL
 10
3135.339618683499
 20
1685.032661963825
 30
0.0
 41
100.0
 42
100.0
 43
100.0
 50
90.0
  0
MTEXT
  5
1858E
330
17FA7
100
AcDbEntity
  8
寸法
 62
     7
 48
50.0
100
AcDbMText
 10
3035.327807659876
 20
1585.032661963826
 30
0.0
 40
120.0
 41
0.0
 71
     5
 72
     1
  1
\A1;200
  7
STYLE1
 11
0.0000000000000001
 21
1.0
 31
0.0
 73
     1
 44
1.0
1001
ACAD
1000
MTEXTBEGIN
1070
    73
1070
     1
1070
    44
1040
1.0
1070
    74
1070
     0
1000
MTEXTEND
  0
POINT
  5
1858F
330
17FA7
100
AcDbEntity
  8
DEFPOINTS
 62
     0
 48
50.0
100
AcDbPoint
 10
3284.839621930132
 20
1485.032661963825
 30
0.0
  0
POINT
  5
18590
330
17FA7
100
AcDbEntity
  8
DEFPOINTS
 62
     0
 48
50.0
100
AcDbPoint
 10
3259.839621930132
 20
1685.032661963825
 30
0.0
  0
POINT
  5
18591
330
17FA7
100
AcDbEntity
  8
DEFPOINTS
 62
     0
 48
50.0
100
AcDbPoint
 10
3135.339618683499
 20
1685.032661963825
 30
0.0
  0
ENDBLK
  5
17FB2
330
17FA7
100
AcDbEntity
  8
0
 48
50.0
100
AcDbBlockEnd
  0
BLOCK
  5
17FBD
330
17FB3
100
AcDbEntity
  8
0
 48
50.0
100
AcDbBlockBegin
  2
*D8
 70
     1
 10
0.0
 20
0.0
 30
0.0
  3
*D8
  1

  0
LINE
  5
18580
330
17FB3
100
AcDbEntity
  8
寸法
 62
     0
 48
50.0
370
    -2
100
AcDbLine
 10
8169.436651267382
 20
1465.032661963827
 30
0.0
 11
8169.436651267382
 21
1138.985332663449
 31
0.0
  0
LINE
  5
18581
330
17FB3
100
AcDbEntity
  8
寸法
 62
     0
 48
50.0
370
    -2
100
AcDbLine
 10
7969.436651267381
 20
1465.032661963827
 30
0.0
 11
7969.436651267381
 21
1138.985332663449
 31
0.0
  0
LINE
  5
18582
330
17FB3
100
AcDbEntity
  8
寸法
 62
     0
 48
50.0
370
    -2
100
AcDbLine
 10
8169.436651267382
 20
1198.985332663449
 30
0.0
 11
7969.436651267381
 21
1198.985332663449
 31
0.0
  0
INSERT
  5
18583
330
17FB3
100
AcDbEntity
  8
寸法
 62
     0
 48
50.0
370
    -2
100
AcDbBlockReference
  2
_DOTSMALL
 10
8169.436651267382
 20
1198.985332663449
 30
0.0
 41
100.0
 42
100.0
 43
100.0
  0
INSERT
  5
18584
330
17FB3
100
AcDbEntity
  8
寸法
 62
     0
 48
50.0
370
    -2
100
AcDbBlockReference
  2
_DOTSMALL
 10
7969.436651267381
 20
1198.985332663449
 30
0.0
 41
100.0
 42
100.0
 43
100.0
 50
180.0
  0
MTEXT
  5
18585
330
17FB3
100
AcDbEntity
  8
寸法
 62
     7
 48
50.0
100
AcDbMText
 10
8069.43665126738
 20
1298.997143687071
 30
0.0
 40
120.0
 41
0.0
 71
     5
 72
     1
  1
\A1;200
  7
STYLE1
 73
     1
 44
1.0
1001
ACAD
1000
MTEXTBEGIN
1070
    73
1070
     1
1070
    44
1040
1.0
1070
    74
1070
     0
1000
MTEXTEND
  0
POINT
  5
18586
330
17FB3
100
AcDbEntity
  8
DEFPOINTS
 62
     0
 48
50.0
100
AcDbPoint
 10
8169.436651267382
 20
1485.032661963827
 30
0.0
  0
POINT
  5
18587
330
17FB3
100
AcDbEntity
  8
DEFPOINTS
 62
     0
 48
50.0
100
AcDbPoint
 10
7969.436651267381
 20
1485.032661963827
 30
0.0
  0
POINT
  5
18588
330
17FB3
100
AcDbEntity
  8
DEFPOINTS
 62
     0
 48
50.0
100
AcDbPoint
 10
7969.436651267381
 20
1198.985332663449
 30
0.0
  0
ENDBLK
  5
17FBE
330
17FB3
100
AcDbEntity
  8
0
 48
50.0
100
AcDbBlockEnd
  0
BLOCK
  5
17FC9
330
17FBF
100
AcDbEntity
  8
0
 48
50.0
100
AcDbBlockBegin
  2
*D9
 70
     1
 10
0.0
 20
0.0
 30
0.0
  3
*D9
  1

  0
LINE
  5
18577
330
17FBF
100
AcDbEntity
  8
寸法
 62
     0
 48
50.0
370
    -2
100
AcDbLine
 10
11139.43665126738
 20
1785.032661963827
 30
0.0
 11
11870.65023025344
 21
1785.032661963827
 31
0.0
  0
LINE
  5
18578
330
17FBF
100
AcDbEntity
  8
寸法
 62
     0
 48
50.0
370
    -2
100
AcDbLine
 10
11219.43665126739
 20
4105.032661963827
 30
0.0
 11
11870.65023025344
 21
4105.032661963827
 31
0.0
  0
LINE
  5
18579
330
17FBF
100
AcDbEntity
  8
寸法
 62
     0
 48
50.0
370
    -2
100
AcDbLine
 10
11810.65023025344
 20
1785.032661963827
 30
0.0
 11
11810.65023025344
 21
4105.032661963827
 31
0.0
  0
INSERT
  5
1857A
330
17FBF
100
AcDbEntity
  8
寸法
 62
     0
 48
50.0
370
    -2
100
AcDbBlockReference
  2
_DOTSMALL
 10
11810.65023025344
 20
1785.032661963827
 30
0.0
 41
100.0
 42
100.0
 43
100.0
 50
270.0
  0
INSERT
  5
1857B
330
17FBF
100
AcDbEntity
  8
寸法
 62
     0
 48
50.0
370
    -2
100
AcDbBlockReference
  2
_DOTSMALL
 10
11810.65023025344
 20
4105.032661963827
 30
0.0
 41
100.0
 42
100.0
 43
100.0
 50
90.0
  0
MTEXT
  5
1857C
330
17FBF
100
AcDbEntity
  8
寸法
 62
     7
 48
50.0
100
AcDbMText
 10
11710.63841922982
 20
2945.032661963829
 30
0.0
 40
120.0
 41
0.0
 71
     5
 72
     1
  1
\A1;2320
  7
STYLE1
 11
0.0000000000000001
 21
1.0
 31
0.0
 73
     1
 44
1.0
1001
ACAD
1000
MTEXTBEGIN
1070
    73
1070
     1
1070
    44
1040
1.0
1070
    74
1070
     0
1000
MTEXTEND
  0
POINT
  5
1857D
330
17FBF
100
AcDbEntity
  8
DEFPOINTS
 62
     0
 48
50.0
100
AcDbPoint
 10
11119.43665126738
 20
1785.032661963827
 30
0.0
  0
POINT
  5
1857E
330
17FBF
100
AcDbEntity
  8
DEFPOINTS
 62
     0
 48
50.0
100
AcDbPoint
 10
11199.43665126739
 20
4105.032661963827
 30
0.0
  0
POINT
  5
1857F
330
17FBF
100
AcDbEntity
  8
DEFPOINTS
 62
     0
 48
50.0
100
AcDbPoint
 10
11810.65023025344
 20
4105.032661963827
 30
0.0
  0
ENDBLK
  5
17FCA
330
17FBF
100
AcDbEntity
  8
0
 48
50.0
100
AcDbBlockEnd
  0
BLOCK
  5
17FD7
330
17FCB
100
AcDbEntity
  8
0
 48
50.0
100
AcDbBlockBegin
  2
*D10
 70
     1
 10
0.0
 20
0.0
 30
0.0
  3
*D10
  1

  0
LINE
  5
18C82
330
17FCB
100
AcDbEntity
  8
寸法
 62
     0
 48
50.0
370
    -2
100
AcDbLine
 10
8069.436651267341
 20
9932.11935196739
 30
0.0
 11
8069.436651267341
 21
10272.11935196739
 31
0.0
  0
LINE
  5
18C83
330
17FCB
100
AcDbEntity
  8
寸法
 62
     0
 48
50.0
370
    -2
100
AcDbLine
 10
8124.436651267373
 20
9932.11935196739
 30
0.0
 11
8124.436651267373
 21
10272.11935196739
 31
0.0
  0
LINE
  5
18C84
330
17FCB
100
AcDbEntity
  8
寸法
 62
     0
 48
50.0
370
    -2
100
AcDbLine
 10
8124.436651267373
 20
10212.11935196739
 30
0.0
 11
8224.436651267373
 21
10212.11935196739
 31
0.0
  0
LINE
  5
18C85
330
17FCB
100
AcDbEntity
  8
寸法
 62
     0
 48
50.0
370
    -2
100
AcDbLine
 10
8069.436651267341
 20
10212.11935196739
 30
0.0
 11
7652.466088518861
 21
10212.11935196739
 31
0.0
  0
LINE
  5
18C86
330
17FCB
100
AcDbEntity
  8
寸法
 62
     0
 48
50.0
370
    -2
100
AcDbLine
 10
8124.436651267373
 20
10212.11935196739
 30
0.0
 11
8069.436651267341
 21
10212.11935196739
 31
0.0
  0
INSERT
  5
18C87
330
17FCB
100
AcDbEntity
  8
寸法
 62
     0
 48
50.0
370
    -2
100
AcDbBlockReference
  2
_DOTSMALL
 10
8124.436651267373
 20
10212.11935196739
 30
0.0
 41
100.0
 42
100.0
 43
100.0
 50
180.0
  0
INSERT
  5
18C88
330
17FCB
100
AcDbEntity
  8
寸法
 62
     0
 48
50.0
370
    -2
100
AcDbBlockReference
  2
_DOTSMALL
 10
8069.436651267341
 20
10212.11935196739
 30
0.0
 41
100.0
 42
100.0
 43
100.0
  0
MTEXT
  5
18C89
330
17FCB
100
AcDbEntity
  8
寸法
 62
     7
 48
50.0
100
AcDbMText
 10
7760.951369893101
 20
10312.11935196739
 30
0.0
 40
120.0
 41
0.0
 71
     5
 72
     1
  1
\A1;55
  7
STYLE1
 73
     1
 44
1.0
1001
ACAD
1000
MTEXTBEGIN
1070
    73
1070
     1
1070
    44
1040
1.0
1070
    74
1070
     0
1000
MTEXTEND
  0
POINT
  5
18C8A
330
17FCB
100
AcDbEntity
  8
DEFPOINTS
 62
     0
 48
50.0
100
AcDbPoint
 10
8069.436651267341
 20
9912.11935196739
 30
0.0
  0
POINT
  5
18C8B
330
17FCB
100
AcDbEntity
  8
DEFPOINTS
 62
     0
 48
50.0
100
AcDbPoint
 10
8124.436651267373
 20
9912.11935196739
 30
0.0
  0
POINT
  5
18C8C
330
17FCB
100
AcDbEntity
  8
DEFPOINTS
 62
     0
 48
50.0
100
AcDbPoint
 10
8124.436651267373
 20
10212.11935196739
 30
0.0
  0
ENDBLK
  5
17FD8
330
17FCB
100
AcDbEntity
  8
0
 48
50.0
100
AcDbBlockEnd
  0
BLOCK
  5
17FE3
330
17FD9
100
AcDbEntity
  8
0
 48
50.0
100
AcDbBlockBegin
  2
*D11
 70
     1
 10
0.0
 20
0.0
 30
0.0
  3
*D11
  1

  0
LINE
  5
18C79
330
17FD9
100
AcDbEntity
  8
寸法
 62
     0
 48
50.0
370
    -2
100
AcDbLine
 10
9602.577667418744
 20
9412.119351967559
 30
0.0
 11
9500.907798814756
 21
9032.682236738621
 31
0.0
  0
LINE
  5
18C7A
330
17FD9
100
AcDbEntity
  8
寸法
 62
     0
 48
50.0
370
    -2
100
AcDbLine
 10
11085.57766741876
 20
9412.119351967552
 30
0.0
 11
10983.90779881477
 21
9032.682236738621
 31
0.0
  0
LINE
  5
18C7B
330
17FD9
100
AcDbEntity
  8
寸法
 62
     0
 48
50.0
370
    -2
100
AcDbLine
 10
9516.984750360622
 20
9092.682236738621
 30
0.0
 11
10999.98475036063
 21
9092.682236738621
 31
0.0
  0
INSERT
  5
18C7C
330
17FD9
100
AcDbEntity
  8
寸法
 62
     0
 48
50.0
370
    -2
100
AcDbBlockReference
  2
_DOTSMALL
 10
9516.984750360622
 20
9092.682236738621
 30
0.0
 41
100.0
 42
100.0
 43
100.0
 50
180.0
  0
INSERT
  5
18C7D
330
17FD9
100
AcDbEntity
  8
寸法
 62
     0
 48
50.0
370
    -2
100
AcDbBlockReference
  2
_DOTSMALL
 10
10999.98475036063
 20
9092.682236738621
 30
0.0
 41
100.0
 42
100.0
 43
100.0
  0
MTEXT
  5
18C7E
330
17FD9
100
AcDbEntity
  8
寸法
 62
     7
 48
50.0
100
AcDbMText
 10
10106.65940678012
 20
9192.682236738621
 30
0.0
 40
120.0
 41
0.0
 71
     5
 72
     1
  1
\A1;1483
  7
STYLE1
 73
     1
 44
1.0
1001
ACAD
1000
MTEXTBEGIN
1070
    73
1070
     1
1070
    44
1040
1.0
1070
    74
1070
     0
1000
MTEXTEND
  0
POINT
  5
18C7F
330
17FD9
100
AcDbEntity
  8
DEFPOINTS
 62
     0
 48
50.0
100
AcDbPoint
 10
9607.936651267365
 20
9432.119351967561
 30
0.0
  0
POINT
  5
18C80
330
17FD9
100
AcDbEntity
  8
DEFPOINTS
 62
     0
 48
50.0
100
AcDbPoint
 10
11090.93665126738
 20
9432.119351967553
 30
0.0
  0
POINT
  5
18C81
330
17FD9
100
AcDbEntity
  8
DEFPOINTS
 62
     0
 48
50.0
100
AcDbPoint
 10
10999.98475036063
 20
9092.682236738621
 30
0.0
  0
ENDBLK
  5
17FE4
330
17FD9
100
AcDbEntity
  8
0
 48
50.0
100
AcDbBlockEnd
  0
BLOCK
  5
17FFB
330
17FF1
100
AcDbEntity
  8
0
 48
50.0
100
AcDbBlockBegin
  2
*D12
 70
     1
 10
0.0
 20
0.0
 30
0.0
  3
*D12
  1

  0
LINE
  5
18C70
330
17FF1
100
AcDbEntity
  8
寸法
 62
     0
 48
50.0
370
    -2
100
AcDbLine
 10
8124.436651267373
 20
9932.11935196739
 30
0.0
 11
8124.436651267373
 21
10272.11935196743
 31
0.0
  0
LINE
  5
18C71
330
17FF1
100
AcDbEntity
  8
寸法
 62
     0
 48
50.0
370
    -2
100
AcDbLine
 10
11064.43665126737
 20
9932.119351967484
 30
0.0
 11
11064.43665126737
 21
10272.11935196743
 31
0.0
  0
LINE
  5
18C72
330
17FF1
100
AcDbEntity
  8
寸法
 62
     0
 48
50.0
370
    -2
100
AcDbLine
 10
8124.436651267373
 20
10212.11935196743
 30
0.0
 11
11064.43665126737
 21
10212.11935196743
 31
0.0
  0
INSERT
  5
18C73
330
17FF1
100
AcDbEntity
  8
寸法
 62
     0
 48
50.0
370
    -2
100
AcDbBlockReference
  2
_DOTSMALL
 10
8124.436651267373
 20
10212.11935196743
 30
0.0
 41
100.0
 42
100.0
 43
100.0
 50
180.0
  0
INSERT
  5
18C74
330
17FF1
100
AcDbEntity
  8
寸法
 62
     0
 48
50.0
370
    -2
100
AcDbBlockReference
  2
_DOTSMALL
 10
11064.43665126737
 20
10212.11935196743
 30
0.0
 41
100.0
 42
100.0
 43
100.0
  0
MTEXT
  5
18C75
330
17FF1
100
AcDbEntity
  8
寸法
 62
     7
 48
50.0
100
AcDbMText
 10
9594.436651267374
 20
10312.13116299106
 30
0.0
 40
120.0
 41
0.0
 71
     5
 72
     1
  1
\A1;7X420=2940
  7
STYLE1
 73
     1
 44
1.0
1001
ACAD
1000
MTEXTBEGIN
1070
    73
1070
     1
1070
    44
1040
1.0
1070
    74
1070
     0
1000
MTEXTEND
  0
POINT
  5
18C76
330
17FF1
100
AcDbEntity
  8
DEFPOINTS
 62
     0
 48
50.0
100
AcDbPoint
 10
8124.436651267373
 20
9912.11935196739
 30
0.0
  0
POINT
  5
18C77
330
17FF1
100
AcDbEntity
  8
DEFPOINTS
 62
     0
 48
50.0
100
AcDbPoint
 10
11064.43665126737
 20
9912.119351967483
 30
0.0
  0
POINT
  5
18C78
330
17FF1
100
AcDbEntity
  8
DEFPOINTS
 62
     0
 48
50.0
100
AcDbPoint
 10
11064.43665126737
 20
10212.11935196743
 30
0.0
  0
ENDBLK
  5
17FFC
330
17FF1
100
AcDbEntity
  8
0
 48
50.0
100
AcDbBlockEnd
  0
BLOCK
  5
18007
330
17FFD
100
AcDbEntity
  8
0
 48
50.0
100
AcDbBlockBegin
  2
*D13
 70
     1
 10
0.0
 20
0.0
 30
0.0
  3
*D13
  1

  0
LINE
  5
18C67
330
17FFD
100
AcDbEntity
  8
寸法
 62
     0
 48
50.0
370
    -2
100
AcDbLine
 10
8092.577667418675
 20
9412.119351967502
 30
0.0
 11
7990.9077988147
 21
9032.682236738621
 31
0.0
  0
LINE
  5
18C68
330
17FFD
100
AcDbEntity
  8
寸法
 62
     0
 48
50.0
370
    -2
100
AcDbLine
 10
9575.577667418746
 20
9412.119351967495
 30
0.0
 11
9473.907798814773
 21
9032.682236738621
 31
0.0
  0
LINE
  5
18C69
330
17FFD
100
AcDbEntity
  8
寸法
 62
     0
 48
50.0
370
    -2
100
AcDbLine
 10
8006.984750360569
 20
9092.682236738621
 30
0.0
 11
9489.984750360642
 21
9092.682236738621
 31
0.0
  0
INSERT
  5
18C6A
330
17FFD
100
AcDbEntity
  8
寸法
 62
     0
 48
50.0
370
    -2
100
AcDbBlockReference
  2
_DOTSMALL
 10
8006.984750360569
 20
9092.682236738621
 30
0.0
 41
100.0
 42
100.0
 43
100.0
 50
180.0
  0
INSERT
  5
18C6B
330
17FFD
100
AcDbEntity
  8
寸法
 62
     0
 48
50.0
370
    -2
100
AcDbBlockReference
  2
_DOTSMALL
 10
9489.984750360642
 20
9092.682236738621
 30
0.0
 41
100.0
 42
100.0
 43
100.0
  0
MTEXT
  5
18C6C
330
17FFD
100
AcDbEntity
  8
寸法
 62
     7
 48
50.0
100
AcDbMText
 10
8655.677142654853
 20
9192.682236738621
 30
0.0
 40
120.0
 41
0.0
 71
     5
 72
     1
  1
\A1;1483
  7
STYLE1
 73
     1
 44
1.0
1001
ACAD
1000
MTEXTBEGIN
1070
    73
1070
     1
1070
    44
1040
1.0
1070
    74
1070
     0
1000
MTEXTEND
  0
POINT
  5
18C6D
330
17FFD
100
AcDbEntity
  8
DEFPOINTS
 62
     0
 48
50.0
100
AcDbPoint
 10
8097.936651267296
 20
9432.119351967502
 30
0.0
  0
POINT
  5
18C6E
330
17FFD
100
AcDbEntity
  8
DEFPOINTS
 62
     0
 48
50.0
100
AcDbPoint
 10
9580.936651267368
 20
9432.119351967495
 30
0.0
  0
POINT
  5
18C6F
330
17FFD
100
AcDbEntity
  8
DEFPOINTS
 62
     0
 48
50.0
100
AcDbPoint
 10
9489.984750360642
 20
9092.682236738621
 30
0.0
  0
ENDBLK
  5
18008
330
17FFD
100
AcDbEntity
  8
0
 48
50.0
100
AcDbBlockEnd
  0
BLOCK
  5
18013
330
18009
100
AcDbEntity
  8
0
 48
50.0
100
AcDbBlockBegin
  2
*D14
 70
     1
 10
0.0
 20
0.0
 30
0.0
  3
*D14
  1

  0
LINE
  5
18C5E
330
18009
100
AcDbEntity
  8
寸法
 62
     0
 48
50.0
370
    -2
100
AcDbLine
 10
11139.43665126737
 20
9857.119351967488
 30
0.0
 11
11879.43665126736
 21
9857.119351967488
 31
0.0
  0
LINE
  5
18C5F
330
18009
100
AcDbEntity
  8
寸法
 62
     0
 48
50.0
370
    -2
100
AcDbLine
 10
11139.43665126735
 20
7337.119351967473
 30
0.0
 11
11879.43665126736
 21
7337.119351967473
 31
0.0
  0
LINE
  5
18C60
330
18009
100
AcDbEntity
  8
寸法
 62
     0
 48
50.0
370
    -2
100
AcDbLine
 10
11819.43665126736
 20
9857.119351967488
 30
0.0
 11
11819.43665126736
 21
7337.119351967473
 31
0.0
  0
INSERT
  5
18C61
330
18009
100
AcDbEntity
  8
寸法
 62
     0
 48
50.0
370
    -2
100
AcDbBlockReference
  2
_DOTSMALL
 10
11819.43665126736
 20
9857.119351967488
 30
0.0
 41
100.0
 42
100.0
 43
100.0
 50
90.0
  0
INSERT
  5
18C62
330
18009
100
AcDbEntity
  8
寸法
 62
     0
 48
50.0
370
    -2
100
AcDbBlockReference
  2
_DOTSMALL
 10
11819.43665126736
 20
7337.119351967473
 30
0.0
 41
100.0
 42
100.0
 43
100.0
 50
270.0
  0
MTEXT
  5
18C63
330
18009
100
AcDbEntity
  8
寸法
 62
     7
 48
50.0
100
AcDbMText
 10
11719.42484024374
 20
8597.11935196748
 30
0.0
 40
120.0
 41
0.0
 71
     5
 72
     1
  1
\A1;6X420=2520
  7
STYLE1
 11
0.0000000000000001
 21
1.0
 31
0.0
 73
     1
 44
1.0
1001
ACAD
1000
MTEXTBEGIN
1070
    73
1070
     1
1070
    44
1040
1.0
1070
    74
1070
     0
1000
MTEXTEND
  0
POINT
  5
18C64
330
18009
100
AcDbEntity
  8
DEFPOINTS
 62
     0
 48
50.0
100
AcDbPoint
 10
11119.43665126737
 20
9857.119351967488
 30
0.0
  0
POINT
  5
18C65
330
18009
100
AcDbEntity
  8
DEFPOINTS
 62
     0
 48
50.0
100
AcDbPoint
 10
11119.43665126735
 20
7337.119351967473
 30
0.0
  0
POINT
  5
18C66
330
18009
100
AcDbEntity
  8
DEFPOINTS
 62
     0
 48
50.0
100
AcDbPoint
 10
11819.43665126736
 20
7337.119351967473
 30
0.0
  0
ENDBLK
  5
18014
330
18009
100
AcDbEntity
  8
0
 48
50.0
100
AcDbBlockEnd
  0
BLOCK
  5
1801F
330
18015
100
AcDbEntity
  8
0
 48
50.0
100
AcDbBlockBegin
  2
*D15
 70
     1
 10
0.0
 20
0.0
 30
0.0
  3
*D15
  1

  0
LINE
  5
18C55
330
18015
100
AcDbEntity
  8
寸法
 62
     0
 48
50.0
370
    -2
100
AcDbLine
 10
11139.43665126737
 20
9912.119351967483
 30
0.0
 11
12179.43665126737
 21
9912.119351967483
 31
0.0
  0
LINE
  5
18C56
330
18015
100
AcDbEntity
  8
寸法
 62
     0
 48
50.0
370
    -2
100
AcDbLine
 10
11139.43665126735
 20
7282.119351967477
 30
0.0
 11
12179.43665126737
 21
7282.119351967477
 31
0.0
  0
LINE
  5
18C57
330
18015
100
AcDbEntity
  8
寸法
 62
     0
 48
50.0
370
    -2
100
AcDbLine
 10
12119.43665126737
 20
9912.119351967483
 30
0.0
 11
12119.43665126737
 21
7282.119351967477
 31
0.0
  0
INSERT
  5
18C58
330
18015
100
AcDbEntity
  8
寸法
 62
     0
 48
50.0
370
    -2
100
AcDbBlockReference
  2
_DOTSMALL
 10
12119.43665126737
 20
9912.119351967483
 30
0.0
 41
100.0
 42
100.0
 43
100.0
 50
90.0
  0
INSERT
  5
18C59
330
18015
100
AcDbEntity
  8
寸法
 62
     0
 48
50.0
370
    -2
100
AcDbBlockReference
  2
_DOTSMALL
 10
12119.43665126737
 20
7282.119351967477
 30
0.0
 41
100.0
 42
100.0
 43
100.0
 50
270.0
  0
MTEXT
  5
18C5A
330
18015
100
AcDbEntity
  8
寸法
 62
     7
 48
50.0
100
AcDbMText
 10
12019.42484024374
 20
8597.11935196748
 30
0.0
 40
120.0
 41
0.0
 71
     5
 72
     1
  1
\A1;2630
  7
STYLE1
 11
0.0000000000000001
 21
1.0
 31
0.0
 73
     1
 44
1.0
1001
ACAD
1000
MTEXTBEGIN
1070
    73
1070
     1
1070
    44
1040
1.0
1070
    74
1070
     0
1000
MTEXTEND
  0
POINT
  5
18C5B
330
18015
100
AcDbEntity
  8
DEFPOINTS
 62
     0
 48
50.0
100
AcDbPoint
 10
11119.43665126737
 20
9912.119351967483
 30
0.0
  0
POINT
  5
18C5C
330
18015
100
AcDbEntity
  8
DEFPOINTS
 62
     0
 48
50.0
100
AcDbPoint
 10
11119.43665126735
 20
7282.119351967477
 30
0.0
  0
POINT
  5
18C5D
330
18015
100
AcDbEntity
  8
DEFPOINTS
 62
     0
 48
50.0
100
AcDbPoint
 10
12119.43665126737
 20
7282.119351967477
 30
0.0
  0
ENDBLK
  5
18020
330
18015
100
AcDbEntity
  8
0
 48
50.0
100
AcDbBlockEnd
  0
BLOCK
  5
1802D
330
18021
100
AcDbEntity
  8
0
 48
50.0
100
AcDbBlockBegin
  2
*D16
 70
     1
 10
0.0
 20
0.0
 30
0.0
  3
*D16
  1

  0
LINE
  5
18C4A
330
18021
100
AcDbEntity
  8
寸法
 62
     0
 48
50.0
370
    -2
100
AcDbLine
 10
11139.43665126735
 20
7337.119351967473
 30
0.0
 11
11879.43665126735
 21
7337.119351967473
 31
0.0
  0
LINE
  5
18C4B
330
18021
100
AcDbEntity
  8
寸法
 62
     0
 48
50.0
370
    -2
100
AcDbLine
 10
11139.43665126735
 20
7282.119351967477
 30
0.0
 11
11879.43665126735
 21
7282.119351967477
 31
0.0
  0
LINE
  5
18C4C
330
18021
100
AcDbEntity
  8
寸法
 62
     0
 48
50.0
370
    -2
100
AcDbLine
 10
11819.43665126735
 20
7337.119351967473
 30
0.0
 11
11819.43665126735
 21
7437.119351967473
 31
0.0
  0
LINE
  5
18C4D
330
18021
100
AcDbEntity
  8
寸法
 62
     0
 48
50.0
370
    -2
100
AcDbLine
 10
11819.43665126735
 20
7282.119351967477
 30
0.0
 11
11819.43665126735
 21
6865.148789218995
 31
0.0
  0
LINE
  5
18C4E
330
18021
100
AcDbEntity
  8
寸法
 62
     0
 48
50.0
370
    -2
100
AcDbLine
 10
11819.43665126735
 20
7337.119351967473
 30
0.0
 11
11819.43665126735
 21
7282.119351967477
 31
0.0
  0
INSERT
  5
18C4F
330
18021
100
AcDbEntity
  8
寸法
 62
     0
 48
50.0
370
    -2
100
AcDbBlockReference
  2
_DOTSMALL
 10
11819.43665126735
 20
7337.119351967473
 30
0.0
 41
100.0
 42
100.0
 43
100.0
 50
270.0
  0
INSERT
  5
18C50
330
18021
100
AcDbEntity
  8
寸法
 62
     0
 48
50.0
370
    -2
100
AcDbBlockReference
  2
_DOTSMALL
 10
11819.43665126735
 20
7282.119351967477
 30
0.0
 41
100.0
 42
100.0
 43
100.0
 50
90.0
  0
MTEXT
  5
18C51
330
18021
100
AcDbEntity
  8
寸法
 62
     7
 48
50.0
100
AcDbMText
 10
11719.43665126735
 20
6973.634070593236
 30
0.0
 40
120.0
 41
0.0
 71
     5
 72
     1
  1
\A1;55
  7
STYLE1
 11
0.0000000000000001
 21
1.0
 31
0.0
 73
     1
 44
1.0
1001
ACAD
1000
MTEXTBEGIN
1070
    73
1070
     1
1070
    44
1040
1.0
1070
    74
1070
     0
1000
MTEXTEND
  0
POINT
  5
18C52
330
18021
100
AcDbEntity
  8
DEFPOINTS
 62
     0
 48
50.0
100
AcDbPoint
 10
11119.43665126735
 20
7337.119351967473
 30
0.0
  0
POINT
  5
18C53
330
18021
100
AcDbEntity
  8
DEFPOINTS
 62
     0
 48
50.0
100
AcDbPoint
 10
11119.43665126735
 20
7282.119351967477
 30
0.0
  0
POINT
  5
18C54
330
18021
100
AcDbEntity
  8
DEFPOINTS
 62
     0
 48
50.0
100
AcDbPoint
 10
11819.43665126735
 20
7282.119351967477
 30
0.0
  0
ENDBLK
  5
1802E
330
18021
100
AcDbEntity
  8
0
 48
50.0
100
AcDbBlockEnd
  0
BLOCK
  5
1803B
330
1802F
100
AcDbEntity
  8
0
 48
50.0
100
AcDbBlockBegin
  2
*D17
 70
     1
 10
0.0
 20
0.0
 30
0.0
  3
*D17
  1

  0
LINE
  5
18C3F
330
1802F
100
AcDbEntity
  8
寸法
 62
     0
 48
50.0
370
    -2
100
AcDbLine
 10
11139.43665126737
 20
9912.119351967483
 30
0.0
 11
11879.43665126737
 21
9912.119351967483
 31
0.0
  0
LINE
  5
18C40
330
1802F
100
AcDbEntity
  8
寸法
 62
     0
 48
50.0
370
    -2
100
AcDbLine
 10
11139.43665126737
 20
9857.119351967488
 30
0.0
 11
11879.43665126737
 21
9857.119351967488
 31
0.0
  0
LINE
  5
18C41
330
1802F
100
AcDbEntity
  8
寸法
 62
     0
 48
50.0
370
    -2
100
AcDbLine
 10
11819.43665126737
 20
9857.119351967488
 30
0.0
 11
11819.43665126737
 21
9757.119351967489
 31
0.0
  0
LINE
  5
18C42
330
1802F
100
AcDbEntity
  8
寸法
 62
     0
 48
50.0
370
    -2
100
AcDbLine
 10
11819.43665126737
 20
9912.119351967483
 30
0.0
 11
11819.43665126737
 21
10329.08991471596
 31
0.0
  0
LINE
  5
18C43
330
1802F
100
AcDbEntity
  8
寸法
 62
     0
 48
50.0
370
    -2
100
AcDbLine
 10
11819.43665126737
 20
9857.119351967488
 30
0.0
 11
11819.43665126737
 21
9912.119351967483
 31
0.0
  0
INSERT
  5
18C44
330
1802F
100
AcDbEntity
  8
寸法
 62
     0
 48
50.0
370
    -2
100
AcDbBlockReference
  2
_DOTSMALL
 10
11819.43665126737
 20
9857.119351967488
 30
0.0
 41
100.0
 42
100.0
 43
100.0
 50
90.0
  0
INSERT
  5
18C45
330
1802F
100
AcDbEntity
  8
寸法
 62
     0
 48
50.0
370
    -2
100
AcDbBlockReference
  2
_DOTSMALL
 10
11819.43665126737
 20
9912.119351967483
 30
0.0
 41
100.0
 42
100.0
 43
100.0
 50
270.0
  0
MTEXT
  5
18C46
330
1802F
100
AcDbEntity
  8
寸法
 62
     7
 48
50.0
100
AcDbMText
 10
11719.43665126737
 20
10220.60463334172
 30
0.0
 40
120.0
 41
0.0
 71
     5
 72
     1
  1
\A1;55
  7
STYLE1
 11
0.0000000000000001
 21
1.0
 31
0.0
 73
     1
 44
1.0
1001
ACAD
1000
MTEXTBEGIN
1070
    73
1070
     1
1070
    44
1040
1.0
1070
    74
1070
     0
1000
MTEXTEND
  0
POINT
  5
18C47
330
1802F
100
AcDbEntity
  8
DEFPOINTS
 62
     0
 48
50.0
100
AcDbPoint
 10
11119.43665126737
 20
9912.119351967483
 30
0.0
  0
POINT
  5
18C48
330
1802F
100
AcDbEntity
  8
DEFPOINTS
 62
     0
 48
50.0
100
AcDbPoint
 10
11119.43665126737
 20
9857.119351967488
 30
0.0
  0
POINT
  5
18C49
330
1802F
100
AcDbEntity
  8
DEFPOINTS
 62
     0
 48
50.0
100
AcDbPoint
 10
11819.43665126737
 20
9857.119351967488
 30
0.0
  0
ENDBLK
  5
1803C
330
1802F
100
AcDbEntity
  8
0
 48
50.0
100
AcDbBlockEnd
  0
BLOCK
  5
18049
330
1803D
100
AcDbEntity
  8
0
 48
50.0
100
AcDbBlockBegin
  2
*D18
 70
     1
 10
0.0
 20
0.0
 30
0.0
  3
*D18
  1

  0
LINE
  5
18C34
330
1803D
100
AcDbEntity
  8
寸法
 62
     0
 48
50.0
370
    -2
100
AcDbLine
 10
11064.43665126737
 20
9932.119351967484
 30
0.0
 11
11064.43665126737
 21
10272.11935196748
 31
0.0
  0
LINE
  5
18C35
330
1803D
100
AcDbEntity
  8
寸法
 62
     0
 48
50.0
370
    -2
100
AcDbLine
 10
11119.43665126737
 20
9932.119351967484
 30
0.0
 11
11119.43665126737
 21
10272.11935196748
 31
0.0
  0
LINE
  5
18C36
330
1803D
100
AcDbEntity
  8
寸法
 62
     0
 48
50.0
370
    -2
100
AcDbLine
 10
11064.43665126737
 20
10212.11935196748
 30
0.0
 11
10964.43665126737
 21
10212.11935196748
 31
0.0
  0
LINE
  5
18C37
330
1803D
100
AcDbEntity
  8
寸法
 62
     0
 48
50.0
370
    -2
100
AcDbLine
 10
11119.43665126737
 20
10212.11935196748
 30
0.0
 11
11536.40721401585
 21
10212.11935196748
 31
0.0
  0
LINE
  5
18C38
330
1803D
100
AcDbEntity
  8
寸法
 62
     0
 48
50.0
370
    -2
100
AcDbLine
 10
11064.43665126737
 20
10212.11935196748
 30
0.0
 11
11119.43665126737
 21
10212.11935196748
 31
0.0
  0
INSERT
  5
18C39
330
1803D
100
AcDbEntity
  8
寸法
 62
     0
 48
50.0
370
    -2
100
AcDbBlockReference
  2
_DOTSMALL
 10
11064.43665126737
 20
10212.11935196748
 30
0.0
 41
100.0
 42
100.0
 43
100.0
  0
INSERT
  5
18C3A
330
1803D
100
AcDbEntity
  8
寸法
 62
     0
 48
50.0
370
    -2
100
AcDbBlockReference
  2
_DOTSMALL
 10
11119.43665126737
 20
10212.11935196748
 30
0.0
 41
100.0
 42
100.0
 43
100.0
 50
180.0
  0
MTEXT
  5
18C3B
330
1803D
100
AcDbEntity
  8
寸法
 62
     7
 48
50.0
100
AcDbMText
 10
11427.92193264161
 20
10312.11935196748
 30
0.0
 40
120.0
 41
0.0
 71
     5
 72
     1
  1
\A1;55
  7
STYLE1
 73
     1
 44
1.0
1001
ACAD
1000
MTEXTBEGIN
1070
    73
1070
     1
1070
    44
1040
1.0
1070
    74
1070
     0
1000
MTEXTEND
  0
POINT
  5
18C3C
330
1803D
100
AcDbEntity
  8
DEFPOINTS
 62
     0
 48
50.0
100
AcDbPoint
 10
11064.43665126737
 20
9912.119351967483
 30
0.0
  0
POINT
  5
18C3D
330
1803D
100
AcDbEntity
  8
DEFPOINTS
 62
     0
 48
50.0
100
AcDbPoint
 10
11119.43665126737
 20
9912.119351967483
 30
0.0
  0
POINT
  5
18C3E
330
1803D
100
AcDbEntity
  8
DEFPOINTS
 62
     0
 48
50.0
100
AcDbPoint
 10
11119.43665126737
 20
10212.11935196748
 30
0.0
  0
ENDBLK
  5
1804A
330
1803D
100
AcDbEntity
  8
0
 48
50.0
100
AcDbBlockEnd
  0
BLOCK
  5
18055
330
1804B
100
AcDbEntity
  8
0
 48
50.0
100
AcDbBlockBegin
  2
*D19
 70
     1
 10
0.0
 20
0.0
 30
0.0
  3
*D19
  1

  0
LINE
  5
18C2B
330
1804B
100
AcDbEntity
  8
寸法
 62
     0
 48
50.0
370
    -2
100
AcDbLine
 10
11110.93665126737
 20
9876.760368118862
 30
0.0
 11
11579.43665126737
 21
9751.226171464882
 31
0.0
  0
LINE
  5
18C2C
330
1804B
100
AcDbEntity
  8
寸法
 62
     0
 48
50.0
370
    -2
100
AcDbLine
 10
11110.93665126737
 20
9426.760368118864
 30
0.0
 11
11579.43665126737
 21
9301.226171464884
 31
0.0
  0
LINE
  5
18C2D
330
1804B
100
AcDbEntity
  8
寸法
 62
     0
 48
50.0
370
    -2
100
AcDbLine
 10
11519.43665126737
 20
9767.303123010748
 30
0.0
 11
11519.43665126737
 21
9317.303123010752
 31
0.0
  0
INSERT
  5
18C2E
330
1804B
100
AcDbEntity
  8
寸法
 62
     0
 48
50.0
370
    -2
100
AcDbBlockReference
  2
_DOTSMALL
 10
11519.43665126737
 20
9767.303123010748
 30
0.0
 41
100.0
 42
100.0
 43
100.0
 50
90.0
  0
INSERT
  5
18C2F
330
1804B
100
AcDbEntity
  8
寸法
 62
     0
 48
50.0
370
    -2
100
AcDbBlockReference
  2
_DOTSMALL
 10
11519.43665126737
 20
9317.303123010752
 30
0.0
 41
100.0
 42
100.0
 43
100.0
 50
270.0
  0
MTEXT
  5
18C30
330
1804B
100
AcDbEntity
  8
寸法
 62
     7
 48
50.0
100
AcDbMText
 10
11419.43665126737
 20
9542.30312301075
 30
0.0
 40
120.0
 41
0.0
 71
     5
 72
     1
  1
\A1;450
  7
STYLE1
 11
0.0000000000000001
 21
1.0
 31
0.0
 73
     1
 44
1.0
1001
ACAD
1000
MTEXTBEGIN
1070
    73
1070
     1
1070
    44
1040
1.0
1070
    74
1070
     0
1000
MTEXTEND
  0
POINT
  5
18C31
330
1804B
100
AcDbEntity
  8
DEFPOINTS
 62
     0
 48
50.0
100
AcDbPoint
 10
11090.93665126737
 20
9882.119351967483
 30
0.0
  0
POINT
  5
18C32
330
1804B
100
AcDbEntity
  8
DEFPOINTS
 62
     0
 48
50.0
100
AcDbPoint
 10
11090.93665126737
 20
9432.119351967488
 30
0.0
  0
POINT
  5
18C33
330
1804B
100
AcDbEntity
  8
DEFPOINTS
 62
     0
 48
50.0
100
AcDbPoint
 10
11519.43665126737
 20
9317.303123010752
 30
0.0
  0
ENDBLK
  5
18056
330
1804B
100
AcDbEntity
  8
0
 48
50.0
100
AcDbBlockEnd
  0
BLOCK
  5
18061
330
18057
100
AcDbEntity
  8
0
 48
50.0
100
AcDbBlockBegin
  2
*D20
 70
     1
 10
0.0
 20
0.0
 30
0.0
  3
*D20
  1

  0
LINE
  5
18503
330
18057
100
AcDbEntity
  8
寸法
 62
     0
 48
50.0
370
    -2
100
AcDbLine
 10
11119.43665126738
 20
4126.843341575486
 30
0.0
 11
11119.43665126738
 21
4618.690115543137
 31
0.0
  0
LINE
  5
18504
330
18057
100
AcDbEntity
  8
寸法
 62
     0
 48
50.0
370
    -2
100
AcDbLine
 10
8069.43665126738
 20
4176.034280086807
 30
0.0
 11
8069.43665126738
 21
4618.690115543137
 31
0.0
  0
LINE
  5
18505
330
18057
100
AcDbEntity
  8
寸法
 62
     0
 48
50.0
370
    -2
100
AcDbLine
 10
11119.43665126738
 20
4558.690115543137
 30
0.0
 11
8069.43665126738
 21
4558.690115543137
 31
0.0
  0
INSERT
  5
18506
330
18057
100
AcDbEntity
  8
寸法
 62
     0
 48
50.0
370
    -2
100
AcDbBlockReference
  2
_DOTSMALL
 10
11119.43665126738
 20
4558.690115543137
 30
0.0
 41
100.0
 42
100.0
 43
100.0
  0
INSERT
  5
18507
330
18057
100
AcDbEntity
  8
寸法
 62
     0
 48
50.0
370
    -2
100
AcDbBlockReference
  2
_DOTSMALL
 10
8069.43665126738
 20
4558.690115543137
 30
0.0
 41
100.0
 42
100.0
 43
100.0
 50
180.0
  0
MTEXT
  5
18508
330
18057
100
AcDbEntity
  8
寸法
 62
     7
 48
50.0
100
AcDbMText
 10
9639.495025826793
 20
4658.690115543136
 30
0.0
 40
120.0
 41
0.0
 71
     5
 72
     1
  1
\A1;柱外寸法3050
  7
STYLE1
 73
     1
 44
1.0
1001
ACAD
1000
MTEXTBEGIN
1070
    73
1070
     1
1070
    44
1040
1.0
1070
    74
1070
     0
1000
MTEXTEND
  0
POINT
  5
18509
330
18057
100
AcDbEntity
  8
DEFPOINTS
 62
     0
 48
50.0
100
AcDbPoint
 10
11119.43665126738
 20
4106.843341575486
 30
0.0
  0
POINT
  5
1850A
330
18057
100
AcDbEntity
  8
DEFPOINTS
 62
     0
 48
50.0
100
AcDbPoint
 10
8069.43665126738
 20
4156.034280086807
 30
0.0
  0
POINT
  5
1850B
330
18057
100
AcDbEntity
  8
DEFPOINTS
 62
     0
 48
50.0
100
AcDbPoint
 10
8069.43665126738
 20
4558.690115543137
 30
0.0
  0
ENDBLK
  5
18062
330
18057
100
AcDbEntity
  8
0
 48
50.0
100
AcDbBlockEnd
  0
BLOCK
  5
1806D
330
18063
100
AcDbEntity
  8
0
 48
50.0
100
AcDbBlockBegin
  2
*D21
 70
     1
 10
0.0
 20
0.0
 30
0.0
  3
*D21
  1

  0
LINE
  5
184FA
330
18063
100
AcDbEntity
  8
寸法
 62
     0
 48
50.0
370
    -2
100
AcDbLine
 10
11199.43665126738
 20
4125.032661963833
 30
0.0
 11
11199.43665126738
 21
4848.803708329413
 31
0.0
  0
LINE
  5
184FB
330
18063
100
AcDbEntity
  8
寸法
 62
     0
 48
50.0
370
    -2
100
AcDbLine
 10
8009.43665126738
 20
4180.032661963835
 30
0.0
 11
8009.43665126738
 21
4848.803708329413
 31
0.0
  0
LINE
  5
184FC
330
18063
100
AcDbEntity
  8
寸法
 62
     0
 48
50.0
370
    -2
100
AcDbLine
 10
11199.43665126738
 20
4788.803708329413
 30
0.0
 11
8009.43665126738
 21
4788.803708329413
 31
0.0
  0
INSERT
  5
184FD
330
18063
100
AcDbEntity
  8
寸法
 62
     0
 48
50.0
370
    -2
100
AcDbBlockReference
  2
_DOTSMALL
 10
11199.43665126738
 20
4788.803708329413
 30
0.0
 41
100.0
 42
100.0
 43
100.0
  0
INSERT
  5
184FE
330
18063
100
AcDbEntity
  8
寸法
 62
     0
 48
50.0
370
    -2
100
AcDbBlockReference
  2
_DOTSMALL
 10
8009.43665126738
 20
4788.803708329413
 30
0.0
 41
100.0
 42
100.0
 43
100.0
 50
180.0
  0
MTEXT
  5
184FF
330
18063
100
AcDbEntity
  8
寸法
 62
     7
 48
50.0
100
AcDbMText
 10
9681.142457576905
 20
4888.803708329413
 30
0.0
 40
120.0
 41
0.0
 71
     5
 72
     1
  1
\A1;3190
  7
STYLE1
 73
     1
 44
1.0
1001
ACAD
1000
MTEXTBEGIN
1070
    73
1070
     1
1070
    44
1040
1.0
1070
    74
1070
     0
1000
MTEXTEND
  0
POINT
  5
18500
330
18063
100
AcDbEntity
  8
DEFPOINTS
 62
     0
 48
50.0
100
AcDbPoint
 10
11199.43665126738
 20
4105.032661963832
 30
0.0
  0
POINT
  5
18501
330
18063
100
AcDbEntity
  8
DEFPOINTS
 62
     0
 48
50.0
100
AcDbPoint
 10
8009.43665126738
 20
4160.032661963835
 30
0.0
  0
POINT
  5
18502
330
18063
100
AcDbEntity
  8
DEFPOINTS
 62
     0
 48
50.0
100
AcDbPoint
 10
8009.43665126738
 20
4788.803708329413
 30
0.0
  0
ENDBLK
  5
1806E
330
18063
100
AcDbEntity
  8
0
 48
50.0
100
AcDbBlockEnd
  0
BLOCK
  5
1807A
330
1806F
100
AcDbEntity
  8
0
 48
50.0
100
AcDbBlockBegin
  2
*D22
 70
     1
 10
0.0
 20
0.0
 30
0.0
  3
*D22
  1

  0
LINE
  5
184F0
330
1806F
100
AcDbEntity
  8
寸法
 62
     0
 48
50.0
370
    -2
100
AcDbLine
 10
11119.43665126738
 20
4126.843341575486
 30
0.0
 11
11119.43665126738
 21
4618.690115543137
 31
0.0
  0
LINE
  5
184F1
330
1806F
100
AcDbEntity
  8
寸法
 62
     0
 48
50.0
370
    -2
100
AcDbLine
 10
11199.43665126738
 20
4125.032661963834
 30
0.0
 11
11199.43665126738
 21
4618.690115543137
 31
0.0
  0
LINE
  5
184F2
330
1806F
100
AcDbEntity
  8
寸法
 62
     0
 48
50.0
370
    -2
100
AcDbLine
 10
11119.43665126738
 20
4558.690115543137
 30
0.0
 11
11199.43665126738
 21
4558.690115543137
 31
0.0
  0
LINE
  5
184F3
330
1806F
100
AcDbEntity
  8
寸法
 62
     0
 48
50.0
370
    -2
100
AcDbLine
 10
11199.43665126738
 20
4558.690115543137
 30
0.0
 11
11511.53113945635
 21
4558.690115543137
 31
0.0
  0
INSERT
  5
184F4
330
1806F
100
AcDbEntity
  8
寸法
 62
     0
 48
50.0
370
    -2
100
AcDbBlockReference
  2
_DOTSMALL
 10
11119.43665126738
 20
4558.690115543137
 30
0.0
 41
100.0
 42
100.0
 43
100.0
 50
180.0
  0
INSERT
  5
184F5
330
1806F
100
AcDbEntity
  8
寸法
 62
     0
 48
50.0
370
    -2
100
AcDbBlockReference
  2
_DOTSMALL
 10
11199.43665126738
 20
4558.690115543137
 30
0.0
 41
100.0
 42
100.0
 43
100.0
  0
MTEXT
  5
184F6
330
1806F
100
AcDbEntity
  8
寸法
 62
     7
 48
50.0
100
AcDbMText
 10
11405.48389536186
 20
4658.690115543136
 30
0.0
 40
120.0
 41
0.0
 71
     5
 72
     1
  1
\A1;80
  7
STYLE1
 73
     1
 44
1.0
1001
ACAD
1000
MTEXTBEGIN
1070
    73
1070
     1
1070
    44
1040
1.0
1070
    74
1070
     0
1000
MTEXTEND
  0
POINT
  5
184F7
330
1806F
100
AcDbEntity
  8
DEFPOINTS
 62
     0
 48
50.0
100
AcDbPoint
 10
11119.43665126738
 20
4106.843341575486
 30
0.0
  0
POINT
  5
184F8
330
1806F
100
AcDbEntity
  8
DEFPOINTS
 62
     0
 48
50.0
100
AcDbPoint
 10
11199.43665126738
 20
4105.032661963835
 30
0.0
  0
POINT
  5
184F9
330
1806F
100
AcDbEntity
  8
DEFPOINTS
 62
     0
 48
50.0
100
AcDbPoint
 10
11199.43665126738
 20
4558.690115543137
 30
0.0
  0
ENDBLK
  5
1807B
330
1806F
100
AcDbEntity
  8
0
 48
50.0
100
AcDbBlockEnd
  0
BLOCK
  5
18088
330
1807C
100
AcDbEntity
  8
0
 48
50.0
100
AcDbBlockBegin
  2
*D23
 70
     1
 10
0.0
 20
0.0
 30
0.0
  3
*D23
  1

  0
LINE
  5
184E5
330
1807C
100
AcDbEntity
  8
寸法
 62
     0
 48
50.0
370
    -2
100
AcDbLine
 10
8069.43665126738
 20
4176.034280086807
 30
0.0
 11
8069.43665126738
 21
4618.690115543135
 31
0.0
  0
LINE
  5
184E6
330
1807C
100
AcDbEntity
  8
寸法
 62
     0
 48
50.0
370
    -2
100
AcDbLine
 10
8009.43665126738
 20
4180.032661963835
 30
0.0
 11
8009.43665126738
 21
4618.690115543135
 31
0.0
  0
LINE
  5
184E7
330
1807C
100
AcDbEntity
  8
寸法
 62
     0
 48
50.0
370
    -2
100
AcDbLine
 10
8069.43665126738
 20
4558.690115543135
 30
0.0
 11
8169.43665126738
 21
4558.690115543135
 31
0.0
  0
LINE
  5
184E8
330
1807C
100
AcDbEntity
  8
寸法
 62
     0
 48
50.0
370
    -2
100
AcDbLine
 10
8009.43665126738
 20
4558.690115543135
 30
0.0
 11
7590.1610607162
 21
4558.690115543135
 31
0.0
  0
LINE
  5
184E9
330
1807C
100
AcDbEntity
  8
寸法
 62
     0
 48
50.0
370
    -2
100
AcDbLine
 10
8069.43665126738
 20
4558.690115543135
 30
0.0
 11
8009.43665126738
 21
4558.690115543135
 31
0.0
  0
INSERT
  5
184EA
330
1807C
100
AcDbEntity
  8
寸法
 62
     0
 48
50.0
370
    -2
100
AcDbBlockReference
  2
_DOTSMALL
 10
8069.43665126738
 20
4558.690115543135
 30
0.0
 41
100.0
 42
100.0
 43
100.0
 50
180.0
  0
INSERT
  5
184EB
330
1807C
100
AcDbEntity
  8
寸法
 62
     0
 48
50.0
370
    -2
100
AcDbBlockReference
  2
_DOTSMALL
 10
8009.43665126738
 20
4558.690115543135
 30
0.0
 41
100.0
 42
100.0
 43
100.0
  0
MTEXT
  5
184EC
330
1807C
100
AcDbEntity
  8
寸法
 62
     7
 48
50.0
100
AcDbMText
 10
7699.79885599179
 20
4658.690115543135
 30
0.0
 40
120.0
 41
0.0
 71
     5
 72
     1
  1
\A1;60
  7
STYLE1
 73
     1
 44
1.0
1001
ACAD
1000
MTEXTBEGIN
1070
    73
1070
     1
1070
    44
1040
1.0
1070
    74
1070
     0
1000
MTEXTEND
  0
POINT
  5
184ED
330
1807C
100
AcDbEntity
  8
DEFPOINTS
 62
     0
 48
50.0
100
AcDbPoint
 10
8069.43665126738
 20
4156.034280086807
 30
0.0
  0
POINT
  5
184EE
330
1807C
100
AcDbEntity
  8
DEFPOINTS
 62
     0
 48
50.0
100
AcDbPoint
 10
8009.43665126738
 20
4160.032661963835
 30
0.0
  0
POINT
  5
184EF
330
1807C
100
AcDbEntity
  8
DEFPOINTS
 62
     0
 48
50.0
100
AcDbPoint
 10
8009.43665126738
 20
4558.690115543135
 30
0.0
  0
ENDBLK
  5
18089
330
1807C
100
AcDbEntity
  8
0
 48
50.0
100
AcDbBlockEnd
  0
BLOCK
  5
18095
330
1808A
100
AcDbEntity
  8
0
 48
50.0
100
AcDbBlockBegin
  2
*D24
 70
     1
 10
0.0
 20
0.0
 30
0.0
  3
*D24
  1

  0
LINE
  5
184DB
330
1808A
100
AcDbEntity
  8
寸法
 62
     0
 48
50.0
370
    -2
100
AcDbLine
 10
8008.840937558483
 20
4159.330369033493
 30
0.0
 11
7392.906498453207
 21
4177.044519307822
 31
0.0
  0
LINE
  5
184DC
330
1808A
100
AcDbEntity
  8
寸法
 62
     0
 48
50.0
370
    -2
100
AcDbLine
 10
8004.787482001857
 20
4018.388645267779
 30
0.0
 11
7388.853042896582
 21
4036.102795542109
 31
0.0
  0
LINE
  5
184DD
330
1808A
100
AcDbEntity
  8
寸法
 62
     0
 48
50.0
370
    -2
100
AcDbLine
 10
7448.828244499011
 20
4034.377920837162
 30
0.0
 11
7452.881700055638
 21
4175.319644602875
 31
0.0
  0
LINE
  5
184DE
330
1808A
100
AcDbEntity
  8
寸法
 62
     0
 48
50.0
370
    -2
100
AcDbLine
 10
7452.881700055638
 20
4175.319644602875
 30
0.0
 11
7463.230948285323
 21
4535.17085421746
 31
0.0
  0
INSERT
  5
184DF
330
1808A
100
AcDbEntity
  8
寸法
 62
     0
 48
50.0
370
    -2
100
AcDbBlockReference
  2
_DOTSMALL
 10
7448.828244499011
 20
4034.377920837162
 30
0.0
 41
100.0
 42
100.0
 43
100.0
 50
268.3526390256378
  0
INSERT
  5
184E0
330
1808A
100
AcDbEntity
  8
寸法
 62
     0
 48
50.0
370
    -2
100
AcDbBlockReference
  2
_DOTSMALL
 10
7452.881700055638
 20
4175.319644602875
 30
0.0
 41
100.0
 42
100.0
 43
100.0
 50
88.35263902563776
  0
MTEXT
  5
184E1
330
1808A
100
AcDbEntity
  8
寸法
 62
     7
 48
50.0
100
AcDbMText
 10
7359.535050420551
 20
4408.099375253772
 30
0.0
 40
120.0
 41
0.0
 71
     5
 72
     1
  1
\A1;141
  7
STYLE1
 11
0.0287479117491237
 21
0.9995866933738488
 31
0.0
 73
     1
 44
1.0
1001
ACAD
1000
MTEXTBEGIN
1070
    73
1070
     1
1070
    44
1040
1.0
1070
    74
1070
     0
1000
MTEXTEND
  0
POINT
  5
184E2
330
1808A
100
AcDbEntity
  8
DEFPOINTS
 62
     0
 48
50.0
100
AcDbPoint
 10
8028.832671425959
 20
4158.75541079851
 30
0.0
  0
POINT
  5
184E3
330
1808A
100
AcDbEntity
  8
DEFPOINTS
 62
     0
 48
50.0
100
AcDbPoint
 10
8024.779215869333
 20
4017.813687032798
 30
0.0
  0
POINT
  5
184E4
330
1808A
100
AcDbEntity
  8
DEFPOINTS
 62
     0
 48
50.0
100
AcDbPoint
 10
7448.828244499011
 20
4034.377920837162
 30
0.0
  0
ENDBLK
  5
18096
330
1808A
100
AcDbEntity
  8
0
 48
50.0
100
AcDbBlockEnd
  0
BLOCK
  5
180A1
330
18097
100
AcDbEntity
  8
0
 48
50.0
100
AcDbBlockBegin
  2
*D25
 70
     1
 10
0.0
 20
0.0
 30
0.0
  3
*D25
  1

  0
LINE
  5
184D2
330
18097
100
AcDbEntity
  8
寸法
 62
     0
 48
50.0
370
    -2
100
AcDbLine
 10
8497.436651267383
 20
3868.032661963828
 30
0.0
 11
7716.963961687992
 21
3868.032661963828
 31
0.0
  0
LINE
  5
184D3
330
18097
100
AcDbEntity
  8
寸法
 62
     0
 48
50.0
370
    -2
100
AcDbLine
 10
8497.436651267383
 20
1843.032661963827
 30
0.0
 11
7716.963961687991
 21
1843.032661963827
 31
0.0
  0
LINE
  5
184D4
330
18097
100
AcDbEntity
  8
寸法
 62
     0
 48
50.0
370
    -2
100
AcDbLine
 10
7776.963961687991
 20
3868.032661963828
 30
0.0
 11
7776.963961687989
 21
1843.032661963827
 31
0.0
  0
INSERT
  5
184D5
330
18097
100
AcDbEntity
  8
寸法
 62
     0
 48
50.0
370
    -2
100
AcDbBlockReference
  2
_DOTSMALL
 10
7776.963961687991
 20
3868.032661963828
 30
0.0
 41
100.0
 42
100.0
 43
100.0
 50
90.0
  0
INSERT
  5
184D6
330
18097
100
AcDbEntity
  8
寸法
 62
     0
 48
50.0
370
    -2
100
AcDbBlockReference
  2
_DOTSMALL
 10
7776.963961687989
 20
1843.032661963827
 30
0.0
 41
100.0
 42
100.0
 43
100.0
 50
270.0
  0
MTEXT
  5
184D7
330
18097
100
AcDbEntity
  8
寸法
 62
     7
 48
50.0
100
AcDbMText
 10
7676.952150664368
 20
2855.532661963829
 30
0.0
 40
120.0
 41
0.0
 71
     5
 72
     1
  1
\A1;有効開口部高サ2025
  7
STYLE1
 11
0.0000000000000001
 21
1.0
 31
0.0
 73
     1
 44
1.0
1001
ACAD
1000
MTEXTBEGIN
1070
    73
1070
     1
1070
    44
1040
1.0
1070
    74
1070
     0
1000
MTEXTEND
  0
POINT
  5
184D8
330
18097
100
AcDbEntity
  8
DEFPOINTS
 62
     0
 48
50.0
100
AcDbPoint
 10
8517.436651267383
 20
3868.032661963828
 30
0.0
  0
POINT
  5
184D9
330
18097
100
AcDbEntity
  8
DEFPOINTS
 62
     0
 48
50.0
100
AcDbPoint
 10
8517.436651267383
 20
1843.032661963827
 30
0.0
  0
POINT
  5
184DA
330
18097
100
AcDbEntity
  8
DEFPOINTS
 62
     0
 48
50.0
100
AcDbPoint
 10
7776.963961687989
 20
1843.032661963827
 30
0.0
  0
ENDBLK
  5
180A2
330
18097
100
AcDbEntity
  8
0
 48
50.0
100
AcDbBlockEnd
  0
BLOCK
  5
180AE
330
180A3
100
AcDbEntity
  8
0
 48
50.0
100
AcDbBlockBegin
  2
*D26
 70
     1
 10
0.0
 20
0.0
 30
0.0
  3
*D26
  1

  0
LINE
  5
184C8
330
180A3
100
AcDbEntity
  8
寸法
 62
     0
 48
50.0
370
    -2
100
AcDbLine
 10
8008.840937558483
 20
4159.330369033489
 30
0.0
 11
7392.906498453204
 21
4177.044519307819
 31
0.0
  0
LINE
  5
184C9
330
180A3
100
AcDbEntity
  8
寸法
 62
     0
 48
50.0
370
    -2
100
AcDbLine
 10
8004.787482001855
 20
4018.388645267775
 30
0.0
 11
7388.853042896577
 21
4036.102795542104
 31
0.0
  0
LINE
  5
184CA
330
180A3
100
AcDbEntity
  8
寸法
 62
     0
 48
50.0
370
    -2
100
AcDbLine
 10
7448.828244499008
 20
4034.377920837156
 30
0.0
 11
7452.881700055634
 21
4175.319644602871
 31
0.0
  0
LINE
  5
184CB
330
180A3
100
AcDbEntity
  8
寸法
 62
     0
 48
50.0
370
    -2
100
AcDbLine
 10
7452.881700055634
 20
4175.319644602871
 30
0.0
 11
7463.230948285318
 21
4535.170854217468
 31
0.0
  0
INSERT
  5
184CC
330
180A3
100
AcDbEntity
  8
寸法
 62
     0
 48
50.0
370
    -2
100
AcDbBlockReference
  2
_DOTSMALL
 10
7448.828244499008
 20
4034.377920837156
 30
0.0
 41
100.0
 42
100.0
 43
100.0
 50
268.3526390256379
  0
INSERT
  5
184CD
330
180A3
100
AcDbEntity
  8
寸法
 62
     0
 48
50.0
370
    -2
100
AcDbBlockReference
  2
_DOTSMALL
 10
7452.881700055634
 20
4175.319644602871
 30
0.0
 41
100.0
 42
100.0
 43
100.0
 50
88.35263902563784
  0
MTEXT
  5
184CE
330
180A3
100
AcDbEntity
  8
寸法
 62
     7
 48
50.0
100
AcDbMText
 10
7359.535050420548
 20
4408.09937525378
 30
0.0
 40
120.0
 41
0.0
 71
     5
 72
     1
  1
\A1;141
  7
STYLE1
 11
0.0287479117491228
 21
0.9995866933738486
 31
0.0
 73
     1
 44
1.0
1001
ACAD
1000
MTEXTBEGIN
1070
    73
1070
     1
1070
    44
1040
1.0
1070
    74
1070
     0
1000
MTEXTEND
  0
POINT
  5
184CF
330
180A3
100
AcDbEntity
  8
DEFPOINTS
 62
     0
 48
50.0
100
AcDbPoint
 10
8028.832671425959
 20
4158.755410798507
 30
0.0
  0
POINT
  5
184D0
330
180A3
100
AcDbEntity
  8
DEFPOINTS
 62
     0
 48
50.0
100
AcDbPoint
 10
8024.779215869331
 20
4017.813687032792
 30
0.0
  0
POINT
  5
184D1
330
180A3
100
AcDbEntity
  8
DEFPOINTS
 62
     0
 48
50.0
100
AcDbPoint
 10
7448.828244499008
 20
4034.377920837156
 30
0.0
  0
ENDBLK
  5
180AF
330
180A3
100
AcDbEntity
  8
0
 48
50.0
100
AcDbBlockEnd
  0
BLOCK
  5
180BA
330
180B0
100
AcDbEntity
  8
0
 48
50.0
100
AcDbBlockBegin
  2
*D27
 70
     1
 10
0.0
 20
0.0
 30
0.0
  3
*D27
  1

  0
LINE
  5
184BF
330
180B0
100
AcDbEntity
  8
寸法
 62
     0
 48
50.0
370
    -2
100
AcDbLine
 10
8049.436651267381
 20
1785.032661963828
 30
0.0
 11
7100.797269338021
 21
1785.032661963828
 31
0.0
  0
LINE
  5
184C0
330
180B0
100
AcDbEntity
  8
寸法
 62
     0
 48
50.0
370
    -2
100
AcDbLine
 10
7989.436651267381
 20
4160.032661963834
 30
0.0
 11
7100.797269338021
 21
4160.032661963834
 31
0.0
  0
LINE
  5
184C1
330
180B0
100
AcDbEntity
  8
寸法
 62
     0
 48
50.0
370
    -2
100
AcDbLine
 10
7160.79726933802
 20
1785.032661963828
 30
0.0
 11
7160.797269338022
 21
4160.032661963834
 31
0.0
  0
INSERT
  5
184C2
330
180B0
100
AcDbEntity
  8
寸法
 62
     0
 48
50.0
370
    -2
100
AcDbBlockReference
  2
_DOTSMALL
 10
7160.79726933802
 20
1785.032661963828
 30
0.0
 41
100.0
 42
100.0
 43
100.0
 50
270.0
  0
INSERT
  5
184C3
330
180B0
100
AcDbEntity
  8
寸法
 62
     0
 48
50.0
370
    -2
100
AcDbBlockReference
  2
_DOTSMALL
 10
7160.797269338022
 20
4160.032661963834
 30
0.0
 41
100.0
 42
100.0
 43
100.0
 50
90.0
  0
MTEXT
  5
184C4
330
180B0
100
AcDbEntity
  8
寸法
 62
     7
 48
50.0
100
AcDbMText
 10
7060.785458314398
 20
2855.532661963829
 30
0.0
 40
120.0
 41
0.0
 71
     5
 72
     1
  1
\A1;2375
  7
STYLE1
 11
0.0000000000000001
 21
1.0
 31
0.0
 73
     1
 44
1.0
1001
ACAD
1000
MTEXTBEGIN
1070
    73
1070
     1
1070
    44
1040
1.0
1070
    74
1070
     0
1000
MTEXTEND
  0
POINT
  5
184C5
330
180B0
100
AcDbEntity
  8
DEFPOINTS
 62
     0
 48
50.0
100
AcDbPoint
 10
8069.43665126738
 20
1785.032661963828
 30
0.0
  0
POINT
  5
184C6
330
180B0
100
AcDbEntity
  8
DEFPOINTS
 62
     0
 48
50.0
100
AcDbPoint
 10
8009.43665126738
 20
4160.032661963834
 30
0.0
  0
POINT
  5
184C7
330
180B0
100
AcDbEntity
  8
DEFPOINTS
 62
     0
 48
50.0
100
AcDbPoint
 10
7160.797269338022
 20
4160.032661963834
 30
0.0
  0
ENDBLK
  5
180BB
330
180B0
100
AcDbEntity
  8
0
 48
50.0
100
AcDbBlockEnd
  0
BLOCK
  5
180C6
330
180BC
100
AcDbEntity
  8
0
 48
50.0
100
AcDbBlockBegin
  2
*D28
 70
     1
 10
0.0
 20
0.0
 30
0.0
  3
*D28
  1

  0
LINE
  5
184B6
330
180BC
100
AcDbEntity
  8
寸法
 62
     0
 48
50.0
370
    -2
100
AcDbLine
 10
8049.436651267381
 20
3925.032661963828
 30
0.0
 11
7385.783942109083
 21
3925.032661963828
 31
0.0
  0
LINE
  5
184B7
330
180BC
100
AcDbEntity
  8
寸法
 62
     0
 48
50.0
370
    -2
100
AcDbLine
 10
8049.436651267381
 20
1835.032661963828
 30
0.0
 11
7385.783942109082
 21
1835.032661963828
 31
0.0
  0
LINE
  5
184B8
330
180BC
100
AcDbEntity
  8
寸法
 62
     0
 48
50.0
370
    -2
100
AcDbLine
 10
7445.783942109084
 20
3925.032661963828
 30
0.0
 11
7445.783942109082
 21
1835.032661963828
 31
0.0
  0
INSERT
  5
184B9
330
180BC
100
AcDbEntity
  8
寸法
 62
     0
 48
50.0
370
    -2
100
AcDbBlockReference
  2
_DOTSMALL
 10
7445.783942109084
 20
3925.032661963828
 30
0.0
 41
100.0
 42
100.0
 43
100.0
 50
90.0
  0
INSERT
  5
184BA
330
180BC
100
AcDbEntity
  8
寸法
 62
     0
 48
50.0
370
    -2
100
AcDbBlockReference
  2
_DOTSMALL
 10
7445.783942109082
 20
1835.032661963828
 30
0.0
 41
100.0
 42
100.0
 43
100.0
 50
270.0
  0
MTEXT
  5
184BB
330
180BC
100
AcDbEntity
  8
寸法
 62
     7
 48
50.0
100
AcDbMText
 10
7345.77213108546
 20
2855.532661963829
 30
0.0
 40
120.0
 41
0.0
 71
     5
 72
     1
  1
\A1;2090
  7
STYLE1
 11
0.0000000000000001
 21
1.0
 31
0.0
 73
     1
 44
1.0
1001
ACAD
1000
MTEXTBEGIN
1070
    73
1070
     1
1070
    44
1040
1.0
1070
    74
1070
     0
1000
MTEXTEND
  0
POINT
  5
184BC
330
180BC
100
AcDbEntity
  8
DEFPOINTS
 62
     0
 48
50.0
100
AcDbPoint
 10
8069.43665126738
 20
3925.032661963828
 30
0.0
  0
POINT
  5
184BD
330
180BC
100
AcDbEntity
  8
DEFPOINTS
 62
     0
 48
50.0
100
AcDbPoint
 10
8069.43665126738
 20
1835.032661963828
 30
0.0
  0
POINT
  5
184BE
330
180BC
100
AcDbEntity
  8
DEFPOINTS
 62
     0
 48
50.0
100
AcDbPoint
 10
7445.783942109082
 20
1835.032661963828
 30
0.0
  0
ENDBLK
  5
180C7
330
180BC
100
AcDbEntity
  8
0
 48
50.0
100
AcDbBlockEnd
  0
BLOCK
  5
180D4
330
180C8
100
AcDbEntity
  8
0
 48
50.0
100
AcDbBlockBegin
  2
*D29
 70
     1
 10
0.0
 20
0.0
 30
0.0
  3
*D29
  1

  0
LINE
  5
184AB
330
180C8
100
AcDbEntity
  8
寸法
 62
     0
 48
50.0
370
    -2
100
AcDbLine
 10
8049.436651267381
 20
1835.032661963828
 30
0.0
 11
7385.783942109083
 21
1835.032661963828
 31
0.0
  0
LINE
  5
184AC
330
180C8
100
AcDbEntity
  8
寸法
 62
     0
 48
50.0
370
    -2
100
AcDbLine
 10
7994.436651267381
 20
1785.032661963828
 30
0.0
 11
7385.783942109083
 21
1785.032661963828
 31
0.0
  0
LINE
  5
184AD
330
180C8
100
AcDbEntity
  8
寸法
 62
     0
 48
50.0
370
    -2
100
AcDbLine
 10
7445.783942109084
 20
1835.032661963828
 30
0.0
 11
7445.783942109084
 21
1935.032661963828
 31
0.0
  0
LINE
  5
184AE
330
180C8
100
AcDbEntity
  8
寸法
 62
     0
 48
50.0
370
    -2
100
AcDbLine
 10
7445.783942109084
 20
1785.032661963828
 30
0.0
 11
7445.783942109084
 21
1372.938173774848
 31
0.0
  0
LINE
  5
184AF
330
180C8
100
AcDbEntity
  8
寸法
 62
     0
 48
50.0
370
    -2
100
AcDbLine
 10
7445.783942109084
 20
1835.032661963828
 30
0.0
 11
7445.783942109084
 21
1785.032661963828
 31
0.0
  0
INSERT
  5
184B0
330
180C8
100
AcDbEntity
  8
寸法
 62
     0
 48
50.0
370
    -2
100
AcDbBlockReference
  2
_DOTSMALL
 10
7445.783942109084
 20
1835.032661963828
 30
0.0
 41
100.0
 42
100.0
 43
100.0
 50
270.0
  0
INSERT
  5
184B1
330
180C8
100
AcDbEntity
  8
寸法
 62
     0
 48
50.0
370
    -2
100
AcDbBlockReference
  2
_DOTSMALL
 10
7445.783942109084
 20
1785.032661963828
 30
0.0
 41
100.0
 42
100.0
 43
100.0
 50
90.0
  0
MTEXT
  5
184B2
330
180C8
100
AcDbEntity
  8
寸法
 62
     7
 48
50.0
100
AcDbMText
 10
7345.783942109084
 20
1478.985417869338
 30
0.0
 40
120.0
 41
0.0
 71
     5
 72
     1
  1
\A1;50
  7
STYLE1
 11
0.0000000000000001
 21
1.0
 31
0.0
 73
     1
 44
1.0
1001
ACAD
1000
MTEXTBEGIN
1070
    73
1070
     1
1070
    44
1040
1.0
1070
    74
1070
     0
1000
MTEXTEND
  0
POINT
  5
184B3
330
180C8
100
AcDbEntity
  8
DEFPOINTS
 62
     0
 48
50.0
100
AcDbPoint
 10
8069.43665126738
 20
1835.032661963828
 30
0.0
  0
POINT
  5
184B4
330
180C8
100
AcDbEntity
  8
DEFPOINTS
 62
     0
 48
50.0
100
AcDbPoint
 10
8014.436651267381
 20
1785.032661963828
 30
0.0
  0
POINT
  5
184B5
330
180C8
100
AcDbEntity
  8
DEFPOINTS
 62
     0
 48
50.0
100
AcDbPoint
 10
7445.783942109084
 20
1785.032661963828
 30
0.0
  0
ENDBLK
  5
180D5
330
180C8
100
AcDbEntity
  8
0
 48
50.0
100
AcDbBlockEnd
  0
BLOCK
  5
180E1
330
180D6
100
AcDbEntity
  8
0
 48
50.0
100
AcDbBlockBegin
  2
*D30
 70
     1
 10
0.0
 20
0.0
 30
0.0
  3
*D30
  1

  0
LINE
  5
184A1
330
180D6
100
AcDbEntity
  8
寸法
 62
     0
 48
50.0
370
    -2
100
AcDbLine
 10
7994.436651267381
 20
1785.032661963828
 30
0.0
 11
7100.797269338021
 21
1785.032661963828
 31
0.0
  0
LINE
  5
184A2
330
180D6
100
AcDbEntity
  8
寸法
 62
     0
 48
50.0
370
    -2
100
AcDbLine
 10
7425.783942109084
 20
1685.032661963828
 30
0.0
 11
7100.797269338021
 21
1685.032661963828
 31
0.0
  0
LINE
  5
184A3
330
180D6
100
AcDbEntity
  8
寸法
 62
     0
 48
50.0
370
    -2
100
AcDbLine
 10
7160.797269338022
 20
1785.032661963828
 30
0.0
 11
7160.797269338022
 21
1685.032661963828
 31
0.0
  0
LINE
  5
184A4
330
180D6
100
AcDbEntity
  8
寸法
 62
     0
 48
50.0
370
    -2
100
AcDbLine
 10
7160.797269338022
 20
1685.032661963828
 30
0.0
 11
7160.797269338022
 21
1312.938173774848
 31
0.0
  0
INSERT
  5
184A5
330
180D6
100
AcDbEntity
  8
寸法
 62
     0
 48
50.0
370
    -2
100
AcDbBlockReference
  2
_DOTSMALL
 10
7160.797269338022
 20
1785.032661963828
 30
0.0
 41
100.0
 42
100.0
 43
100.0
 50
90.0
  0
INSERT
  5
184A6
330
180D6
100
AcDbEntity
  8
寸法
 62
     0
 48
50.0
370
    -2
100
AcDbBlockReference
  2
_DOTSMALL
 10
7160.797269338022
 20
1685.032661963828
 30
0.0
 41
100.0
 42
100.0
 43
100.0
 50
270.0
  0
MTEXT
  5
184A7
330
180D6
100
AcDbEntity
  8
寸法
 62
     7
 48
50.0
100
AcDbMText
 10
7060.797269338022
 20
1448.985417869337
 30
0.0
 40
120.0
 41
0.0
 71
     5
 72
     1
  1
\A1;100
  7
STYLE1
 11
0.0000000000000001
 21
1.0
 31
0.0
 73
     1
 44
1.0
1001
ACAD
1000
MTEXTBEGIN
1070
    73
1070
     1
1070
    44
1040
1.0
1070
    74
1070
     0
1000
MTEXTEND
  0
POINT
  5
184A8
330
180D6
100
AcDbEntity
  8
DEFPOINTS
 62
     0
 48
50.0
100
AcDbPoint
 10
8014.436651267381
 20
1785.032661963828
 30
0.0
  0
POINT
  5
184A9
330
180D6
100
AcDbEntity
  8
DEFPOINTS
 62
     0
 48
50.0
100
AcDbPoint
 10
7445.783942109084
 20
1685.032661963828
 30
0.0
  0
POINT
  5
184AA
330
180D6
100
AcDbEntity
  8
DEFPOINTS
 62
     0
 48
50.0
100
AcDbPoint
 10
7160.797269338022
 20
1685.032661963828
 30
0.0
  0
ENDBLK
  5
180E2
330
180D6
100
AcDbEntity
  8
0
 48
50.0
100
AcDbBlockEnd
  0
BLOCK
  5
18773
330
18769
100
AcDbEntity
  8
0
 48
50.0
100
AcDbBlockBegin
  2
*D31
 70
     1
 10
0.0
 20
0.0
 30
0.0
  3
*D31
  1

  0
LINE
  5
18C22
330
18769
100
AcDbEntity
  8
寸法
 62
     0
 48
50.0
370
    -2
100
AcDbLine
 10
8556.436651267343
 20
7185.119351967476
 30
0.0
 11
8556.436651267343
 21
6512.911124991187
 31
0.0
  0
LINE
  5
18C23
330
18769
100
AcDbEntity
  8
寸法
 62
     0
 48
50.0
370
    -2
100
AcDbLine
 10
9822.436651267343
 20
7185.119351967476
 30
0.0
 11
9822.436651267343
 21
6512.911124991187
 31
0.0
  0
LINE
  5
18C24
330
18769
100
AcDbEntity
  8
寸法
 62
     0
 48
50.0
370
    -2
100
AcDbLine
 10
8576.436651267341
 20
6552.911124991187
 30
0.0
 11
9802.436651267342
 21
6552.911124991187
 31
0.0
  0
INSERT
  5
18C25
330
18769
100
AcDbEntity
  8
寸法
 62
     0
 48
50.0
370
    -2
100
AcDbBlockReference
  2
_DOT
 10
8556.436651267343
 20
6552.911124991187
 30
0.0
 41
20.0
 42
20.0
 43
20.0
 50
180.0
  0
INSERT
  5
18C26
330
18769
100
AcDbEntity
  8
寸法
 62
     0
 48
50.0
370
    -2
100
AcDbBlockReference
  2
_DOT
 10
9822.436651267343
 20
6552.911124991187
 30
0.0
 41
20.0
 42
20.0
 43
20.0
  0
MTEXT
  5
18C27
330
18769
100
AcDbEntity
  8
寸法
 62
     7
 48
50.0
100
AcDbMText
 10
9204.034406980369
 20
6744.922936014809
 30
0.0
 40
120.0
 41
0.0
 71
     5
 72
     1
  1
\A1;有効開口部間口\P1266
  7
STYLE1
 73
     1
 44
1.0
1001
ACAD
1000
MTEXTBEGIN
1070
    73
1070
     1
1070
    44
1040
1.0
1070
    74
1070
     0
1000
MTEXTEND
  0
POINT
  5
18C28
330
18769
100
AcDbEntity
  8
DEFPOINTS
 62
     0
 48
50.0
100
AcDbPoint
 10
8556.436651267343
 20
7205.119351967477
 30
0.0
  0
POINT
  5
18C29
330
18769
100
AcDbEntity
  8
DEFPOINTS
 62
     0
 48
50.0
100
AcDbPoint
 10
9822.436651267343
 20
7205.119351967477
 30
0.0
  0
POINT
  5
18C2A
330
18769
100
AcDbEntity
  8
DEFPOINTS
 62
     0
 48
50.0
100
AcDbPoint
 10
9822.436651267343
 20
6552.911124991187
 30
0.0
  0
ENDBLK
  5
18774
330
18769
100
AcDbEntity
  8
0
 48
50.0
100
AcDbBlockEnd
  0
BLOCK
  5
18ABA
330
18AAE
100
AcDbEntity
  8
0
 48
50.0
100
AcDbBlockBegin
  2
*D32
 70
     1
 10
0.0
 20
0.0
 30
0.0
  3
*D32
  1

  0
LINE
  5
18C17
330
18AAE
100
AcDbEntity
  8
寸法
 62
     0
 48
50.0
370
    -2
100
AcDbLine
 10
8049.436651267368
 20
7282.119351967313
 30
0.0
 11
7734.825405640652
 21
7282.119351967313
 31
0.0
  0
LINE
  5
18C18
330
18AAE
100
AcDbEntity
  8
寸法
 62
     0
 48
50.0
370
    -2
100
AcDbLine
 10
8497.436651267342
 20
7207.119351967313
 30
0.0
 11
7734.825405640652
 21
7207.119351967313
 31
0.0
  0
LINE
  5
18C19
330
18AAE
100
AcDbEntity
  8
寸法
 62
     0
 48
50.0
370
    -2
100
AcDbLine
 10
7774.825405640651
 20
7302.119351967313
 30
0.0
 11
7774.825405640651
 21
7322.119351967312
 31
0.0
  0
LINE
  5
18C1A
330
18AAE
100
AcDbEntity
  8
寸法
 62
     0
 48
50.0
370
    -2
100
AcDbLine
 10
7774.825405640651
 20
7187.119351967313
 30
0.0
 11
7774.825405640651
 21
6966.148789218834
 31
0.0
  0
LINE
  5
18C1B
330
18AAE
100
AcDbEntity
  8
寸法
 62
     0
 48
50.0
370
    -2
100
AcDbLine
 10
7774.825405640651
 20
7282.119351967313
 30
0.0
 11
7774.825405640651
 21
7207.119351967313
 31
0.0
  0
INSERT
  5
18C1C
330
18AAE
100
AcDbEntity
  8
寸法
 62
     0
 48
50.0
370
    -2
100
AcDbBlockReference
  2
_DOT
 10
7774.825405640651
 20
7282.119351967313
 30
0.0
 41
20.0
 42
20.0
 43
20.0
 50
270.0
  0
INSERT
  5
18C1D
330
18AAE
100
AcDbEntity
  8
寸法
 62
     0
 48
50.0
370
    -2
100
AcDbBlockReference
  2
_DOT
 10
7774.825405640651
 20
7207.119351967313
 30
0.0
 41
20.0
 42
20.0
 43
20.0
 50
90.0
  0
MTEXT
  5
18C1E
330
18AAE
100
AcDbEntity
  8
寸法
 62
     7
 48
50.0
100
AcDbMText
 10
7682.825405640649
 20
7066.634070593075
 30
0.0
 40
120.0
 41
0.0
 71
     5
 72
     1
  1
\A1;75
  7
STYLE1
 11
0.0000000000000001
 21
1.0
 31
0.0
 73
     1
 44
1.0
1001
ACAD
1000
MTEXTBEGIN
1070
    73
1070
     1
1070
    44
1040
1.0
1070
    74
1070
     0
1000
MTEXTEND
  0
POINT
  5
18C1F
330
18AAE
100
AcDbEntity
  8
DEFPOINTS
 62
     0
 48
50.0
100
AcDbPoint
 10
8069.436651267368
 20
7282.119351967313
 30
0.0
  0
POINT
  5
18C20
330
18AAE
100
AcDbEntity
  8
DEFPOINTS
 62
     0
 48
50.0
100
AcDbPoint
 10
8517.436651267344
 20
7207.119351967313
 30
0.0
  0
POINT
  5
18C21
330
18AAE
100
AcDbEntity
  8
DEFPOINTS
 62
     0
 48
50.0
100
AcDbPoint
 10
7774.825405640651
 20
7207.119351967313
 30
0.0
  0
ENDBLK
  5
18ABB
330
18AAE
100
AcDbEntity
  8
0
 48
50.0
100
AcDbBlockEnd
  0
BLOCK
  5
18AC6
330
18ABC
100
AcDbEntity
  8
0
 48
50.0
100
AcDbBlockBegin
  2
*D33
 70
     1
 10
0.0
 20
0.0
 30
0.0
  3
*D33
  1

  0
LINE
  5
18C0E
330
18ABC
100
AcDbEntity
  8
寸法
 62
     0
 48
50.0
370
    -2
100
AcDbLine
 10
8517.436651267344
 20
7185.119351967346
 30
0.0
 11
8517.436651267344
 21
6224.989636539577
 31
0.0
  0
LINE
  5
18C0F
330
18ABC
100
AcDbEntity
  8
寸法
 62
     0
 48
50.0
370
    -2
100
AcDbLine
 10
10671.43665126734
 20
7185.119351967346
 30
0.0
 11
10671.43665126734
 21
6224.989636539577
 31
0.0
  0
LINE
  5
18C10
330
18ABC
100
AcDbEntity
  8
寸法
 62
     0
 48
50.0
370
    -2
100
AcDbLine
 10
8517.436651267344
 20
6284.989636539577
 30
0.0
 11
10671.43665126734
 21
6284.989636539577
 31
0.0
  0
INSERT
  5
18C11
330
18ABC
100
AcDbEntity
  8
寸法
 62
     0
 48
50.0
370
    -2
100
AcDbBlockReference
  2
_DOTSMALL
 10
8517.436651267344
 20
6284.989636539577
 30
0.0
 41
100.0
 42
100.0
 43
100.0
 50
180.0
  0
INSERT
  5
18C12
330
18ABC
100
AcDbEntity
  8
寸法
 62
     0
 48
50.0
370
    -2
100
AcDbBlockReference
  2
_DOTSMALL
 10
10671.43665126734
 20
6284.989636539577
 30
0.0
 41
100.0
 42
100.0
 43
100.0
  0
MTEXT
  5
18C13
330
18ABC
100
AcDbEntity
  8
寸法
 62
     7
 48
50.0
100
AcDbMText
 10
9616.569408014656
 20
6385.001447563198
 30
0.0
 40
120.0
 41
0.0
 71
     5
 72
     1
  1
\A1;2154
  7
STYLE1
 73
     1
 44
1.0
1001
ACAD
1000
MTEXTBEGIN
1070
    73
1070
     1
1070
    44
1040
1.0
1070
    74
1070
     0
1000
MTEXTEND
  0
POINT
  5
18C14
330
18ABC
100
AcDbEntity
  8
DEFPOINTS
 62
     0
 48
50.0
100
AcDbPoint
 10
8517.436651267344
 20
7205.119351967344
 30
0.0
  0
POINT
  5
18C15
330
18ABC
100
AcDbEntity
  8
DEFPOINTS
 62
     0
 48
50.0
100
AcDbPoint
 10
10671.43665126734
 20
7205.119351967344
 30
0.0
  0
POINT
  5
18C16
330
18ABC
100
AcDbEntity
  8
DEFPOINTS
 62
     0
 48
50.0
100
AcDbPoint
 10
10671.43665126734
 20
6284.989636539577
 30
0.0
  0
ENDBLK
  5
18AC7
330
18ABC
100
AcDbEntity
  8
0
 48
50.0
100
AcDbBlockEnd
  0
BLOCK
  5
18B44
330
18B3A
100
AcDbEntity
  8
0
 48
50.0
100
AcDbBlockBegin
  2
*D34
 70
     1
 10
0.0
 20
0.0
 30
0.0
  3
*D34
  1

  0
LINE
  5
18C05
330
18B3A
100
AcDbEntity
  8
寸法
 62
     0
 48
50.0
370
    -2
100
AcDbLine
 10
8069.436651267368
 20
7262.119351967313
 30
0.0
 11
8069.436651267368
 21
5938.014486413016
 31
0.0
  0
LINE
  5
18C06
330
18B3A
100
AcDbEntity
  8
寸法
 62
     0
 48
50.0
370
    -2
100
AcDbLine
 10
11119.43665126735
 20
7262.119351967476
 30
0.0
 11
11119.43665126735
 21
5938.014486413016
 31
0.0
  0
LINE
  5
18C07
330
18B3A
100
AcDbEntity
  8
寸法
 62
     0
 48
50.0
370
    -2
100
AcDbLine
 10
8069.436651267368
 20
5998.014486413016
 30
0.0
 11
11119.43665126735
 21
5998.014486413016
 31
0.0
  0
INSERT
  5
18C08
330
18B3A
100
AcDbEntity
  8
寸法
 62
     0
 48
50.0
370
    -2
100
AcDbBlockReference
  2
_DOTSMALL
 10
8069.436651267368
 20
5998.014486413016
 30
0.0
 41
100.0
 42
100.0
 43
100.0
 50
180.0
  0
INSERT
  5
18C09
330
18B3A
100
AcDbEntity
  8
寸法
 62
     0
 48
50.0
370
    -2
100
AcDbBlockReference
  2
_DOTSMALL
 10
11119.43665126735
 20
5998.014486413016
 30
0.0
 41
100.0
 42
100.0
 43
100.0
  0
MTEXT
  5
18C0A
330
18B3A
100
AcDbEntity
  8
寸法
 62
     7
 48
50.0
100
AcDbMText
 10
9614.152481641301
 20
6098.014486413016
 30
0.0
 40
120.0
 41
0.0
 71
     5
 72
     1
  1
\A1;3050
  7
STYLE1
 73
     1
 44
1.0
1001
ACAD
1000
MTEXTBEGIN
1070
    73
1070
     1
1070
    44
1040
1.0
1070
    74
1070
     0
1000
MTEXTEND
  0
POINT
  5
18C0B
330
18B3A
100
AcDbEntity
  8
DEFPOINTS
 62
     0
 48
50.0
100
AcDbPoint
 10
8069.436651267368
 20
7282.119351967313
 30
0.0
  0
POINT
  5
18C0C
330
18B3A
100
AcDbEntity
  8
DEFPOINTS
 62
     0
 48
50.0
100
AcDbPoint
 10
11119.43665126735
 20
7282.119351967477
 30
0.0
  0
POINT
  5
18C0D
330
18B3A
100
AcDbEntity
  8
DEFPOINTS
 62
     0
 48
50.0
100
AcDbPoint
 10
11119.43665126735
 20
5998.014486413016
 30
0.0
  0
ENDBLK
  5
18B45
330
18B3A
100
AcDbEntity
  8
0
 48
50.0
100
AcDbBlockEnd
  0
ENDSEC
  0
SECTION
  2
ENTITIES
  0
LINE
  5
10B57
330
747D
100
AcDbEntity
  8
補助
  6
PHANTOM
 62
   230
 48
50.0
100
AcDbLine
 10
139.9999999999995
 20
11409.6
 30
0.0
 11
16307.2
 21
11409.6
 31
0.0
  0
LINE
  5
10B59
330
747D
100
AcDbEntity
  8
仕様書枠
  6
Continuous
 48
50.0
100
AcDbLine
 10
13107.2
 20
1200.0
 30
0.0
 11
13107.2
 21
-0.0000000000000729
 31
0.0
  0
LINE
  5
10B5C
330
747D
100
AcDbEntity
  8
仕様書枠
 48
50.0
100
AcDbLine
 10
16307.2
 20
1200.0
 30
0.0
 11
16307.2
 21
-0.0000000000000909
 31
0.0
  0
LINE
  5
10B5D
330
747D
100
AcDbEntity
  8
仕様書枠
 48
50.0
100
AcDbLine
 10
140.0
 20
0.0
 30
0.0
 11
16307.2
 21
-0.0000000000000909
 31
0.0
  0
LINE
  5
10B5E
330
747D
100
AcDbEntity
  8
補助
  6
PHANTOM
 62
   230
 48
50.0
100
AcDbLine
 10
16307.2
 20
11409.6
 30
0.0
 11
16307.2
 21
1200.0
 31
0.0
  0
LINE
  5
10B6C
330
747D
100
AcDbEntity
  8
仕様書枠
 48
50.0
100
AcDbLine
 10
13107.2
 20
1200.0
 30
0.0
 11
16307.2
 21
1200.0
 31
0.0
  0
LINE
  5
10B6D
330
747D
100
AcDbEntity
  8
補助
  6
PHANTOM
 62
   230
 48
50.0
100
AcDbLine
 10
13107.2
 20
11409.6
 30
0.0
 11
13107.2
 21
4800.0
 31
0.0
  0
LINE
  5
10B6F
330
747D
100
AcDbEntity
  8
補助
  6
PHANTOM
 62
   230
 48
50.0
100
AcDbLine
 10
13107.2
 20
4800.0
 30
0.0
 11
16307.2
 21
4800.0
 31
0.0
  0
LINE
  5
10B72
330
747D
100
AcDbEntity
  8
文字
 62
     7
 48
50.0
100
AcDbLine
 10
13187.2
 20
400.0
 30
0.0
 11
16227.2
 21
400.0
 31
0.0
  0
TEXT
  5
10B73
330
747D
100
AcDbEntity
  8
文字
 62
     7
 48
50.0
100
AcDbText
 10
13162.9790565769
 20
895.0906074299405
 30
0.0
 40
200.0
  1
外 形 図
  7
STYLE2
100
AcDbText
  0
TEXT
  5
10B74
330
747D
100
AcDbEntity
  8
文字
 62
     7
 48
50.0
100
AcDbText
 10
13201.43669998441
 20
477.2740661031255
 30
0.0
 40
160.0
  1
機種名
  7
STYLE2
100
AcDbText
  0
TEXT
  5
10B76
330
747D
100
AcDbEntity
  8
文字
 62
     7
 48
50.0
100
AcDbText
 10
13209.4053442172
 20
76.09434707649343
 30
0.0
 40
100.0
  1
○床面積 ： 8.19㎡(2.48坪) 　
  7
STYLE2
100
AcDbText
  0
TEXT
  5
10B79
330
747D
100
AcDbEntity
  8
文字
 62
     7
 48
50.0
100
AcDbText
 10
14524.131837222
 20
1031.557706291228
 30
0.0
 40
100.0
  1
NO.32     <縮尺> S=1/40
  7
STYLE2
100
AcDbText
  0
LINE
  5
10B7B
330
747D
100
AcDbEntity
  8
仕様書枠
 48
50.0
100
AcDbLine
 10
13107.2
 20
800.0
 30
0.0
 11
14251.2
 21
800.0
 31
0.0
  0
LINE
  5
10B88
330
747D
100
AcDbEntity
  8
仕様書枠
  6
Continuous
 48
50.0
100
AcDbLine
 10
14251.2
 20
1200.0
 30
0.0
 11
14251.2
 21
800.0
 31
0.0
  0
TEXT
  5
15729
330
747D
100
AcDbEntity
  8
文字
 62
     7
 48
50.0
100
AcDbText
 10
14611.89122430058
 20
869.7247441969318
 30
0.0
 40
100.0
  1
～一般型・多雪地型～
  7
STYLE2
100
AcDbText
  0
LINE
  5
17C91
330
747D
100
AcDbEntity
  8
部品1
100
AcDbLine
 10
11091.43665126737
 20
8597.119351967487
 30
0.0
 11
11119.43665126737
 21
8597.119351967487
 31
0.0
  0
LINE
  5
17C92
330
747D
100
AcDbEntity
  8
部品1
100
AcDbLine
 10
8097.436651267349
 20
8597.119351967361
 30
0.0
 11
8069.436651267348
 21
8597.119351967361
 31
0.0
  0
LINE
  5
17C93
330
747D
100
AcDbEntity
  8
部品1
100
AcDbLine
 10
11062.93665126736
 20
8597.11935196746
 30
0.0
 11
8125.936651267359
 21
8597.119351967361
 31
0.0
  0
ARC
  5
17C94
330
747D
100
AcDbEntity
  8
部品1
100
AcDbCircle
 10
6029.931200823696
 20
4153.032661963829
 30
0.0
 40
7.0
100
AcDbArc
 50
356.7526572096656
 51
90.0
  0
ARC
  5
17C95
330
747D
100
AcDbEntity
  8
部品1
100
AcDbCircle
 10
6016.715877362665
 20
4026.032661963831
 30
0.0
 40
7.0
100
AcDbArc
 50
270.0
 51
356.7526572096656
  0
ARC
  5
17C96
330
747D
100
AcDbEntity
  8
部品1
 48
50.0
100
AcDbCircle
 10
6035.087687573344
 20
4132.699661125514
 30
0.0
 40
0.7
100
AcDbArc
 50
277.6581272073639
 51
356.752657209555
  0
ARC
  5
17C97
330
747D
100
AcDbEntity
  8
部品1
 48
50.0
100
AcDbCircle
 10
6026.851657048501
 20
4040.499661125512
 30
0.0
 40
0.7
100
AcDbArc
 50
277.6581272073639
 51
356.7526572096656
  0
ARC
  5
17C98
330
747D
100
AcDbEntity
  8
部品1
 48
50.0
100
AcDbCircle
 10
6027.344726157061
 20
4036.832661963827
 30
0.0
 40
3.0
100
AcDbArc
 50
97.6581272073639
 51
176.7526572096655
  0
ARC
  5
17C99
330
747D
100
AcDbEntity
  8
部品1
 48
50.0
100
AcDbCircle
 10
6035.580756681905
 20
4129.03266196383
 30
0.0
 40
3.0
100
AcDbArc
 50
97.6581272073639
 51
176.7526572096655
  0
LINE
  5
17C9A
330
747D
100
AcDbEntity
  8
部品1
100
AcDbLine
 10
6032.58557378572
 20
4129.202601418932
 30
0.0
 11
6027.550533057605
 21
4040.460008585987
 31
0.0
  0
LINE
  5
17C9B
330
747D
100
AcDbEntity
  8
部品1
100
AcDbLine
 10
6024.349543260876
 20
4037.002601418929
 30
0.0
 11
6023.704637453761
 21
4025.636136568589
 31
0.0
  0
LINE
  5
17C9C
330
747D
100
AcDbEntity
  8
細線
 48
50.0
100
AcDbLine
 10
6004.339621930128
 20
4160.032661963828
 30
0.0
 11
6004.339621930128
 21
4019.032661963829
 31
0.0
  0
LINE
  5
17C9D
330
747D
100
AcDbEntity
  8
部品1
100
AcDbLine
 10
6036.919960914798
 20
4152.63613656859
 30
0.0
 11
6035.786563582449
 21
4132.66000858599
 31
0.0
  0
DIMENSION
  5
17C9E
330
747D
100
AcDbEntity
  8
寸法
 48
50.0
100
AcDbDimension
  2
*D2
 10
5987.339621930136
 20
4564.652921391098
 30
0.0
 11
6350.824903304376
 21
4564.652921391098
 31
0.0
 70
   160
 71
     5
 42
50.0
  3
INABA_S40G
100
AcDbAlignedDimension
 13
6037.339621930136
 23
4160.032661963827
 33
0.0
 14
5987.339621930136
 24
4160.032661963828
 34
0.0
100
AcDbRotatedDimension
  0
ARC
  5
17C9F
330
747D
100
AcDbEntity
  8
部品1
 48
0.01
100
AcDbCircle
 10
4145.339621930133
 20
3957.532661963826
 30
0.0
 40
2.0
100
AcDbArc
 50
270.0
 51
0.0
  0
ARC
  5
17CA0
330
747D
100
AcDbEntity
  8
部品1
 48
0.01
100
AcDbCircle
 10
4145.339621930133
 20
3989.032661963825
 30
0.0
 40
2.0
100
AcDbArc
 50
0.0
 51
90.0
  0
ARC
  5
17CA1
330
747D
100
AcDbEntity
  8
部品1
 48
0.01
100
AcDbCircle
 10
3969.339621930132
 20
3957.532661963826
 30
0.0
 40
2.0
100
AcDbArc
 50
180.0
 51
270.0
  0
ARC
  5
17CA2
330
747D
100
AcDbEntity
  8
部品1
 48
0.01
100
AcDbCircle
 10
3969.339621930132
 20
3989.032661963825
 30
0.0
 40
2.0
100
AcDbArc
 50
90.0
 51
180.0
  0
LINE
  5
17CA3
330
747D
100
AcDbEntity
  8
細線
100
AcDbLine
 10
4057.339621930132
 20
3961.532661963826
 30
0.0
 11
4131.339621930132
 21
3961.532661963826
 31
0.0
  0
LINE
  5
17CA4
330
747D
100
AcDbEntity
  8
細線
100
AcDbLine
 10
4057.339621930132
 20
3984.532661963826
 30
0.0
 11
3983.339621930132
 21
3984.532661963826
 31
0.0
  0
LINE
  5
17CA5
330
747D
100
AcDbEntity
  8
細線
100
AcDbLine
 10
3983.339621930132
 20
3961.532661963826
 30
0.0
 11
4057.339621930132
 21
3961.532661963826
 31
0.0
  0
LINE
  5
17CA6
330
747D
100
AcDbEntity
  8
細線
100
AcDbLine
 10
4131.339621930132
 20
3984.532661963826
 30
0.0
 11
4057.339621930132
 21
3984.532661963826
 31
0.0
  0
LINE
  5
17CA7
330
747D
100
AcDbEntity
  8
細線
100
AcDbLine
 10
4131.339621930132
 20
3961.532661963826
 30
0.0
 11
4131.339621930132
 21
3984.532661963826
 31
0.0
  0
LINE
  5
17CA8
330
747D
100
AcDbEntity
  8
細線
100
AcDbLine
 10
3983.339621930132
 20
3984.532661963826
 30
0.0
 11
3983.339621930132
 21
3961.532661963826
 31
0.0
  0
LINE
  5
17CA9
330
747D
100
AcDbEntity
  8
部品1
 48
0.01
100
AcDbLine
 10
4147.339621930131
 20
3957.532661963826
 30
0.0
 11
4147.339621930131
 21
3989.032661963825
 31
0.0
  0
LINE
  5
17CAA
330
747D
100
AcDbEntity
  8
部品1
 48
0.01
100
AcDbLine
 10
3969.339621930132
 20
3955.532661963826
 30
0.0
 11
4145.339621930133
 21
3955.532661963826
 31
0.0
  0
LINE
  5
17CAB
330
747D
100
AcDbEntity
  8
部品1
 48
0.01
100
AcDbLine
 10
3967.339621930133
 20
3989.032661963825
 30
0.0
 11
3967.339621930133
 21
3957.532661963826
 31
0.0
  0
LINE
  5
17CAC
330
747D
100
AcDbEntity
  8
部品1
 48
0.01
100
AcDbLine
 10
4145.339621930133
 20
3991.032661963826
 30
0.0
 11
3969.339621930132
 21
3991.032661963826
 31
0.0
  0
LINE
  5
17CAD
330
747D
100
AcDbEntity
  8
細線
100
AcDbLine
 10
3983.339621930132
 20
3978.532661963825
 30
0.0
 11
4057.339621930132
 21
3978.532661963825
 31
0.0
  0
LINE
  5
17CAE
330
747D
100
AcDbEntity
  8
細線
100
AcDbLine
 10
3983.339621930132
 20
3972.532661963825
 30
0.0
 11
4057.339621930132
 21
3972.532661963825
 31
0.0
  0
LINE
  5
17CAF
330
747D
100
AcDbEntity
  8
細線
100
AcDbLine
 10
3983.339621930132
 20
3966.532661963826
 30
0.0
 11
4057.339621930132
 21
3966.532661963826
 31
0.0
  0
LINE
  5
17CB0
330
747D
100
AcDbEntity
  8
細線
100
AcDbLine
 10
3983.339621930132
 20
3978.532661963825
 30
0.0
 11
4052.339621930133
 21
3978.532661963825
 31
0.0
  0
LINE
  5
17CB1
330
747D
100
AcDbEntity
  8
細線
100
AcDbLine
 10
4131.339621930132
 20
3978.532661963824
 30
0.0
 11
4057.339621930132
 21
3978.532661963825
 31
0.0
  0
LINE
  5
17CB2
330
747D
100
AcDbEntity
  8
細線
100
AcDbLine
 10
4131.339621930132
 20
3966.532661963824
 30
0.0
 11
4057.339621930132
 21
3966.532661963826
 31
0.0
  0
LINE
  5
17CB3
330
747D
100
AcDbEntity
  8
細線
100
AcDbLine
 10
4131.339621930132
 20
3972.532661963825
 30
0.0
 11
4057.339621930132
 21
3972.532661963825
 31
0.0
  0
LINE
  5
17CB4
330
747D
100
AcDbEntity
  8
細線
100
AcDbLine
 10
4057.339621930132
 20
3984.532661963826
 30
0.0
 11
4057.339621930132
 21
3961.532661963826
 31
0.0
  0
LINE
  5
17CB5
330
747D
100
AcDbEntity
  8
部品1
 48
0.01
100
AcDbLine
 10
5377.339621930133
 20
3989.032661963825
 30
0.0
 11
5377.339621930133
 21
3957.532661963826
 31
0.0
  0
LINE
  5
17CB6
330
747D
100
AcDbEntity
  8
部品1
 48
0.01
100
AcDbLine
 10
5375.339621930132
 20
3955.532661963826
 30
0.0
 11
5199.339621930132
 21
3955.532661963826
 31
0.0
  0
LINE
  5
17CB7
330
747D
100
AcDbEntity
  8
部品1
 48
0.01
100
AcDbLine
 10
5197.339621930132
 20
3957.532661963826
 30
0.0
 11
5197.339621930132
 21
3989.032661963825
 31
0.0
  0
ARC
  5
17CB8
330
747D
100
AcDbEntity
  8
部品1
 48
0.01
100
AcDbCircle
 10
5375.339621930132
 20
3957.532661963826
 30
0.0
 40
2.0
100
AcDbArc
 50
270.0
 51
0.0
  0
ARC
  5
17CB9
330
747D
100
AcDbEntity
  8
部品1
 48
0.01
100
AcDbCircle
 10
5199.339621930132
 20
3957.532661963826
 30
0.0
 40
2.0
100
AcDbArc
 50
180.0
 51
270.0
  0
LINE
  5
17CBA
330
747D
100
AcDbEntity
  8
細線
100
AcDbLine
 10
5287.339621930132
 20
3984.532661963826
 30
0.0
 11
5287.339621930132
 21
3961.532661963826
 31
0.0
  0
LINE
  5
17CBB
330
747D
100
AcDbEntity
  8
細線
100
AcDbLine
 10
5213.339621930132
 20
3972.532661963825
 30
0.0
 11
5287.339621930132
 21
3972.532661963825
 31
0.0
  0
LINE
  5
17CBC
330
747D
100
AcDbEntity
  8
細線
100
AcDbLine
 10
5213.339621930132
 20
3966.532661963824
 30
0.0
 11
5287.339621930132
 21
3966.532661963826
 31
0.0
  0
LINE
  5
17CBD
330
747D
100
AcDbEntity
  8
細線
100
AcDbLine
 10
5213.339621930132
 20
3978.532661963824
 30
0.0
 11
5287.339621930132
 21
3978.532661963825
 31
0.0
  0
LINE
  5
17CBE
330
747D
100
AcDbEntity
  8
細線
100
AcDbLine
 10
5361.339621930132
 20
3978.532661963825
 30
0.0
 11
5292.339621930132
 21
3978.532661963825
 31
0.0
  0
LINE
  5
17CBF
330
747D
100
AcDbEntity
  8
細線
100
AcDbLine
 10
5361.339621930132
 20
3966.532661963826
 30
0.0
 11
5287.339621930132
 21
3966.532661963826
 31
0.0
  0
LINE
  5
17CC0
330
747D
100
AcDbEntity
  8
細線
100
AcDbLine
 10
5361.339621930132
 20
3972.532661963825
 30
0.0
 11
5287.339621930132
 21
3972.532661963825
 31
0.0
  0
LINE
  5
17CC1
330
747D
100
AcDbEntity
  8
細線
100
AcDbLine
 10
5361.339621930132
 20
3978.532661963825
 30
0.0
 11
5287.339621930132
 21
3978.532661963825
 31
0.0
  0
LINE
  5
17CC2
330
747D
100
AcDbEntity
  8
部品1
 48
0.01
100
AcDbLine
 10
5199.339621930132
 20
3991.032661963826
 30
0.0
 11
5375.339621930132
 21
3991.032661963826
 31
0.0
  0
LINE
  5
17CC3
330
747D
100
AcDbEntity
  8
細線
100
AcDbLine
 10
5361.339621930132
 20
3984.532661963826
 30
0.0
 11
5361.339621930132
 21
3961.532661963826
 31
0.0
  0
LINE
  5
17CC4
330
747D
100
AcDbEntity
  8
細線
100
AcDbLine
 10
5213.339621930132
 20
3961.532661963826
 30
0.0
 11
5213.339621930132
 21
3984.532661963826
 31
0.0
  0
LINE
  5
17CC5
330
747D
100
AcDbEntity
  8
細線
100
AcDbLine
 10
5213.339621930132
 20
3984.532661963826
 30
0.0
 11
5287.339621930132
 21
3984.532661963826
 31
0.0
  0
LINE
  5
17CC6
330
747D
100
AcDbEntity
  8
細線
100
AcDbLine
 10
5361.339621930132
 20
3961.532661963826
 30
0.0
 11
5287.339621930132
 21
3961.532661963826
 31
0.0
  0
LINE
  5
17CC7
330
747D
100
AcDbEntity
  8
細線
100
AcDbLine
 10
5287.339621930132
 20
3984.532661963826
 30
0.0
 11
5361.339621930132
 21
3984.532661963826
 31
0.0
  0
LINE
  5
17CC8
330
747D
100
AcDbEntity
  8
細線
100
AcDbLine
 10
5287.339621930132
 20
3961.532661963826
 30
0.0
 11
5213.339621930132
 21
3961.532661963826
 31
0.0
  0
ARC
  5
17CC9
330
747D
100
AcDbEntity
  8
部品1
 48
0.01
100
AcDbCircle
 10
5375.339621930132
 20
3989.032661963825
 30
0.0
 40
2.0
100
AcDbArc
 50
0.0
 51
90.0
  0
ARC
  5
17CCA
330
747D
100
AcDbEntity
  8
部品1
 48
0.01
100
AcDbCircle
 10
5199.339621930132
 20
3989.032661963825
 30
0.0
 40
2.0
100
AcDbArc
 50
90.0
 51
180.0
  0
LINE
  5
17CCB
330
747D
100
AcDbEntity
  8
部品1
100
AcDbLine
 10
3307.759282945462
 20
4152.63613656859
 30
0.0
 11
3308.892680277812
 21
4132.66000858599
 31
0.0
  0
LINE
  5
17CCC
330
747D
100
AcDbEntity
  8
部品1
100
AcDbLine
 10
3320.329700599392
 20
4037.002601418929
 30
0.0
 11
3320.9746064065
 21
4025.636136568589
 31
0.0
  0
LINE
  5
17CCD
330
747D
100
AcDbEntity
  8
部品1
100
AcDbLine
 10
3312.093670074541
 20
4129.202601418932
 30
0.0
 11
3317.128710802656
 21
4040.460008585987
 31
0.0
  0
ARC
  5
17CCE
330
747D
100
AcDbEntity
  8
部品1
 48
50.0
100
AcDbCircle
 10
3309.098487178355
 20
4129.03266196383
 30
0.0
 40
3.0
100
AcDbArc
 50
3.247342790334429
 51
82.34187279263609
  0
ARC
  5
17CCF
330
747D
100
AcDbEntity
  8
部品1
 48
50.0
100
AcDbCircle
 10
3317.334517703199
 20
4036.832661963827
 30
0.0
 40
3.0
100
AcDbArc
 50
3.247342790334429
 51
82.34187279263609
  0
ARC
  5
17CD0
330
747D
100
AcDbEntity
  8
部品1
 48
50.0
100
AcDbCircle
 10
3317.82758681176
 20
4040.499661125512
 30
0.0
 40
0.7
100
AcDbArc
 50
183.2473427903344
 51
262.3418727926361
  0
ARC
  5
17CD1
330
747D
100
AcDbEntity
  8
部品1
 48
50.0
100
AcDbCircle
 10
3309.591556286923
 20
4132.699661125514
 30
0.0
 40
0.7
100
AcDbArc
 50
183.247342790445
 51
262.3418727926361
  0
ARC
  5
17CD2
330
747D
100
AcDbEntity
  8
部品1
100
AcDbCircle
 10
3327.963366497595
 20
4026.032661963831
 30
0.0
 40
7.0
100
AcDbArc
 50
183.2473427903344
 51
270.0
  0
ARC
  5
17CD3
330
747D
100
AcDbEntity
  8
部品1
100
AcDbCircle
 10
3314.748043036565
 20
4153.032661963829
 30
0.0
 40
7.0
100
AcDbArc
 50
90.0
 51
183.2473427903344
  0
LINE
  5
17CD4
330
747D
100
AcDbEntity
  8
細線
 48
50.0
100
AcDbLine
 10
3340.339621930132
 20
4160.032661963828
 30
0.0
 11
3340.339621930132
 21
4019.032661963829
 31
0.0
  0
LINE
  5
17CD5
330
747D
100
AcDbEntity
  8
細線
 48
50.0
100
AcDbLine
 10
6027.064053183844
 20
4039.832661963824
 30
0.0
 11
3317.615190676403
 21
4039.83266196383
 31
0.0
  0
LINE
  5
17CD6
330
747D
100
AcDbEntity
  8
細線
 48
50.0
100
AcDbLine
 10
6035.300083708694
 20
4132.032661963829
 30
0.0
 11
3309.379160151574
 21
4132.032661963827
 31
0.0
  0
LINE
  5
17CD7
330
747D
100
AcDbEntity
  8
部品1
 48
50.0
100
AcDbLine
 10
6016.715877362665
 20
4019.03266196383
 30
0.0
 11
3327.963366497595
 21
4019.032661963829
 31
0.0
  0
LINE
  5
17CD8
330
747D
100
AcDbEntity
  8
部品1
 48
50.0
100
AcDbLine
 10
6029.931200823696
 20
4160.032661963828
 30
0.0
 11
3314.748043036565
 21
4160.032661963831
 31
0.0
  0
DIMENSION
  5
17CD9
330
747D
100
AcDbEntity
  8
寸法
 48
50.0
100
AcDbDimension
  2
*D3
 10
3357.339621930132
 20
4564.652921391098
 30
0.0
 11
4672.339621930132
 21
4564.652921391098
 31
0.0
 70
   160
  1
柱外寸法<>
 71
     5
 42
2630.000000000004
  3
INABA_S40G
100
AcDbAlignedDimension
 13
5987.339621930136
 23
4160.032661963828
 33
0.0
 14
3357.339621930132
 24
4160.032661963831
 34
0.0
100
AcDbRotatedDimension
  0
DIMENSION
  5
17CDA
330
747D
100
AcDbEntity
  8
寸法
 48
50.0
100
AcDbDimension
  2
*D4
 10
3307.339621930132
 20
4564.652921391098
 30
0.0
 11
2993.854340555885
 21
4564.652921391098
 31
0.0
 70
   160
 71
     5
 42
50.0
  3
INABA_S40G
100
AcDbAlignedDimension
 13
3357.339621930132
 23
4160.032661963831
 33
0.0
 14
3307.339621930132
 24
4160.032661963828
 34
0.0
100
AcDbRotatedDimension
1001
ACAD
1000
DSTYLE
1002
{
1002
}
  0
DIMENSION
  5
17CDB
330
747D
100
AcDbEntity
  8
寸法
 48
50.0
100
AcDbDimension
  2
*D5
 10
6037.339621930136
 20
4774.246795812548
 30
0.0
 11
4672.339621930132
 21
4774.246795812548
 31
0.0
 70
   160
 71
     5
 42
2730.000000000004
  3
INABA_S40G
100
AcDbAlignedDimension
 13
3307.339621930132
 23
4160.032661963828
 33
0.0
 14
6037.339621930136
 24
4160.032661963827
 34
0.0
100
AcDbRotatedDimension
  0
LINE
  5
17CDC
330
747D
100
AcDbEntity
  8
部品1
 48
50.0
100
AcDbLine
 10
4157.339621930132
 20
1785.032661963825
 30
0.0
 11
4157.339621930132
 21
1685.032661963825
 31
0.0
  0
LINE
  5
17CDD
330
747D
100
AcDbEntity
  8
部品1
 48
50.0
100
AcDbLine
 10
4357.339621930132
 20
1785.032661963825
 30
0.0
 11
4357.339621930132
 21
1685.032661963825
 31
0.0
  0
LINE
  5
17CDE
330
747D
100
AcDbEntity
  8
部品1
 48
50.0
100
AcDbLine
 10
4987.339621930132
 20
1785.032661963825
 30
0.0
 11
4987.339621930132
 21
1685.032661963825
 31
0.0
  0
LINE
  5
17CDF
330
747D
100
AcDbEntity
  8
部品1
 48
50.0
100
AcDbLine
 10
5187.339621930131
 20
1785.032661963825
 30
0.0
 11
5187.339621930131
 21
1685.032661963825
 31
0.0
  0
LINE
  5
17CE0
330
747D
100
AcDbEntity
  8
部品1
100
AcDbLine
 10
3404.839621930133
 20
1785.032661963825
 30
0.0
 11
5939.839621930136
 21
1785.032661963825
 31
0.0
  0
LINE
  5
17CE1
330
747D
100
AcDbEntity
  8
部品1
100
AcDbLine
 10
5979.839621930135
 20
1785.032661963825
 30
0.0
 11
5987.339621930136
 21
1785.032661963825
 31
0.0
  0
LINE
  5
17CE2
330
747D
100
AcDbEntity
  8
細線
 48
50.0
100
AcDbLine
 10
5434.839621930132
 20
3925.032661963829
 30
0.0
 11
5434.839621930132
 21
1835.032661963829
 31
0.0
  0
LINE
  5
17CE3
330
747D
100
AcDbEntity
  8
細線
 48
50.0
100
AcDbLine
 10
5449.839621930132
 20
3925.032661963829
 30
0.0
 11
5449.839621930132
 21
1835.032661963829
 31
0.0
  0
LINE
  5
17CE4
330
747D
100
AcDbEntity
  8
細線
 48
50.0
100
AcDbLine
 10
5309.839621930132
 20
3925.032661963829
 30
0.0
 11
5309.839621930132
 21
1835.032661963829
 31
0.0
  0
LINE
  5
17CE5
330
747D
100
AcDbEntity
  8
細線
 48
50.0
100
AcDbLine
 10
5294.839621930132
 20
3925.032661963829
 30
0.0
 11
5294.839621930132
 21
1835.032661963829
 31
0.0
  0
LINE
  5
17CE6
330
747D
100
AcDbEntity
  8
細線
 48
50.0
100
AcDbLine
 10
5154.839621930133
 20
3925.032661963829
 30
0.0
 11
5154.839621930133
 21
1835.032661963829
 31
0.0
  0
LINE
  5
17CE7
330
747D
100
AcDbEntity
  8
細線
 48
50.0
100
AcDbLine
 10
5169.839621930132
 20
3925.032661963829
 30
0.0
 11
5169.839621930132
 21
1835.032661963829
 31
0.0
  0
LINE
  5
17CE8
330
747D
100
AcDbEntity
  8
部品1
100
AcDbLine
 10
5092.339621930126
 20
3925.032661963829
 30
0.0
 11
5092.339621930126
 21
1835.032661963829
 31
0.0
  0
LINE
  5
17CE9
330
747D
100
AcDbEntity
  8
細線
 48
50.0
100
AcDbLine
 10
4749.839621930131
 20
3925.032661963825
 30
0.0
 11
4749.839621930131
 21
1835.032661963825
 31
0.0
  0
LINE
  5
17CEA
330
747D
100
AcDbEntity
  8
細線
 48
50.0
100
AcDbLine
 10
4734.839621930132
 20
3925.032661963825
 30
0.0
 11
4734.839621930132
 21
1835.032661963825
 31
0.0
  0
LINE
  5
17CEB
330
747D
100
AcDbEntity
  8
細線
 48
50.0
100
AcDbLine
 10
4874.839621930131
 20
3925.032661963825
 30
0.0
 11
4874.839621930131
 21
1835.032661963825
 31
0.0
  0
LINE
  5
17CEC
330
747D
100
AcDbEntity
  8
細線
 48
50.0
100
AcDbLine
 10
4889.839621930132
 20
3925.032661963825
 30
0.0
 11
4889.839621930132
 21
1835.032661963825
 31
0.0
  0
LINE
  5
17CED
330
747D
100
AcDbEntity
  8
細線
 48
50.0
100
AcDbLine
 10
5029.839621930133
 20
3925.032661963825
 30
0.0
 11
5029.839621930133
 21
1835.032661963825
 31
0.0
  0
LINE
  5
17CEE
330
747D
100
AcDbEntity
  8
細線
 48
50.0
100
AcDbLine
 10
5014.839621930132
 20
3925.032661963825
 30
0.0
 11
5014.839621930132
 21
1835.032661963825
 31
0.0
  0
LINE
  5
17CEF
330
747D
100
AcDbEntity
  8
部品1
100
AcDbLine
 10
5512.339621930132
 20
3925.032661963827
 30
0.0
 11
5512.339621930132
 21
1835.032661963827
 31
0.0
  0
LINE
  5
17CF0
330
747D
100
AcDbEntity
  8
部品1
100
AcDbLine
 10
3357.339621930132
 20
3925.032661963825
 30
0.0
 11
5987.339621930136
 21
3925.032661963825
 31
0.0
  0
LINE
  5
17CF1
330
747D
100
AcDbEntity
  8
部品1
100
AcDbLine
 10
3357.339621930132
 20
1835.032661963825
 30
0.0
 11
5987.339621930136
 21
1835.032661963827
 31
0.0
  0
LINE
  5
17CF2
330
747D
100
AcDbEntity
  8
部品1
100
AcDbLine
 10
3412.339621930132
 20
3925.032661963825
 30
0.0
 11
3412.339621930132
 21
1835.032661963825
 31
0.0
  0
LINE
  5
17CF3
330
747D
100
AcDbEntity
  8
部品1
100
AcDbLine
 10
3357.339621930132
 20
4019.032661963829
 30
0.0
 11
3357.339621930132
 21
1685.032661963825
 31
0.0
  0
LINE
  5
17CF4
330
747D
100
AcDbEntity
  8
部品1
100
AcDbLine
 10
3832.339621930132
 20
3925.032661963825
 30
0.0
 11
3832.339621930132
 21
1835.032661963825
 31
0.0
  0
LINE
  5
17CF5
330
747D
100
AcDbEntity
  8
部品1
100
AcDbLine
 10
5987.339621930129
 20
4019.03266196383
 30
0.0
 11
5987.339621930136
 21
1685.032661963827
 31
0.0
  0
LINE
  5
17CF6
330
747D
100
AcDbEntity
  8
部品1
100
AcDbLine
 10
5932.339621930136
 20
3925.032661963827
 30
0.0
 11
5932.339621930136
 21
1835.032661963827
 31
0.0
  0
LINE
  5
17CF7
330
747D
100
AcDbEntity
  8
部品1
100
AcDbLine
 10
3357.339621930132
 20
1785.032661963825
 30
0.0
 11
3364.839621930132
 21
1785.032661963825
 31
0.0
  0
LINE
  5
17CF8
330
747D
100
AcDbEntity
  8
細線
 48
50.0
100
AcDbLine
 10
3909.839621930132
 20
3925.032661963825
 30
0.0
 11
3909.839621930132
 21
1835.032661963825
 31
0.0
  0
LINE
  5
17CF9
330
747D
100
AcDbEntity
  8
細線
 48
50.0
100
AcDbLine
 10
3894.839621930132
 20
3925.032661963825
 30
0.0
 11
3894.839621930132
 21
1835.032661963825
 31
0.0
  0
LINE
  5
17CFA
330
747D
100
AcDbEntity
  8
細線
 48
50.0
100
AcDbLine
 10
4034.839621930132
 20
3925.032661963825
 30
0.0
 11
4034.839621930132
 21
1835.032661963825
 31
0.0
  0
LINE
  5
17CFB
330
747D
100
AcDbEntity
  8
細線
 48
50.0
100
AcDbLine
 10
4049.839621930131
 20
3925.032661963825
 30
0.0
 11
4049.839621930131
 21
1835.032661963825
 31
0.0
  0
LINE
  5
17CFC
330
747D
100
AcDbEntity
  8
細線
 48
50.0
100
AcDbLine
 10
4189.839621930132
 20
3925.032661963825
 30
0.0
 11
4189.839621930132
 21
1835.032661963825
 31
0.0
  0
LINE
  5
17CFD
330
747D
100
AcDbEntity
  8
細線
 48
50.0
100
AcDbLine
 10
4174.839621930131
 20
3925.032661963825
 30
0.0
 11
4174.839621930131
 21
1835.032661963825
 31
0.0
  0
LINE
  5
17CFE
330
747D
100
AcDbEntity
  8
細線
 48
50.0
100
AcDbLine
 10
3754.839621930133
 20
3925.032661963825
 30
0.0
 11
3754.839621930133
 21
1835.032661963825
 31
0.0
  0
LINE
  5
17CFF
330
747D
100
AcDbEntity
  8
細線
 48
50.0
100
AcDbLine
 10
3769.839621930132
 20
3925.032661963825
 30
0.0
 11
3769.839621930132
 21
1835.032661963825
 31
0.0
  0
LINE
  5
17D00
330
747D
100
AcDbEntity
  8
細線
 48
50.0
100
AcDbLine
 10
3629.839621930133
 20
3925.032661963825
 30
0.0
 11
3629.839621930133
 21
1835.032661963825
 31
0.0
  0
LINE
  5
17D01
330
747D
100
AcDbEntity
  8
細線
 48
50.0
100
AcDbLine
 10
3614.839621930133
 20
3925.032661963825
 30
0.0
 11
3614.839621930133
 21
1835.032661963825
 31
0.0
  0
LINE
  5
17D02
330
747D
100
AcDbEntity
  8
細線
 48
50.0
100
AcDbLine
 10
3474.839621930132
 20
3925.032661963825
 30
0.0
 11
3474.839621930132
 21
1835.032661963825
 31
0.0
  0
LINE
  5
17D03
330
747D
100
AcDbEntity
  8
細線
 48
50.0
100
AcDbLine
 10
3489.839621930133
 20
3925.032661963825
 30
0.0
 11
3489.839621930133
 21
1835.032661963825
 31
0.0
  0
LINE
  5
17D04
330
747D
100
AcDbEntity
  8
部品1
100
AcDbLine
 10
4252.339621930132
 20
3925.032661963825
 30
0.0
 11
4252.339621930132
 21
1835.032661963825
 31
0.0
  0
LINE
  5
17D05
330
747D
100
AcDbEntity
  8
細線
 48
50.0
100
AcDbLine
 10
4594.839621930132
 20
3925.032661963825
 30
0.0
 11
4594.839621930132
 21
1835.032661963825
 31
0.0
  0
LINE
  5
17D06
330
747D
100
AcDbEntity
  8
細線
 48
50.0
100
AcDbLine
 10
4609.839621930132
 20
3925.032661963825
 30
0.0
 11
4609.839621930132
 21
1835.032661963825
 31
0.0
  0
LINE
  5
17D07
330
747D
100
AcDbEntity
  8
細線
 48
50.0
100
AcDbLine
 10
4469.839621930132
 20
3925.032661963825
 30
0.0
 11
4469.839621930132
 21
1835.032661963825
 31
0.0
  0
LINE
  5
17D08
330
747D
100
AcDbEntity
  8
細線
 48
50.0
100
AcDbLine
 10
4454.839621930132
 20
3925.032661963825
 30
0.0
 11
4454.839621930132
 21
1835.032661963825
 31
0.0
  0
LINE
  5
17D09
330
747D
100
AcDbEntity
  8
細線
 48
50.0
100
AcDbLine
 10
4314.839621930132
 20
3925.032661963825
 30
0.0
 11
4314.839621930132
 21
1835.032661963825
 31
0.0
  0
LINE
  5
17D0A
330
747D
100
AcDbEntity
  8
細線
 48
50.0
100
AcDbLine
 10
4329.839621930132
 20
3925.032661963825
 30
0.0
 11
4329.839621930132
 21
1835.032661963825
 31
0.0
  0
LINE
  5
17D0B
330
747D
100
AcDbEntity
  8
部品1
100
AcDbLine
 10
4672.339621930132
 20
3925.032661963825
 30
0.0
 11
4672.339621930132
 21
1835.032661963825
 31
0.0
  0
LINE
  5
17D0C
330
747D
100
AcDbEntity
  8
細線
 48
50.0
100
AcDbLine
 10
5589.839621930139
 20
3925.032661963827
 30
0.0
 11
5589.839621930139
 21
1835.032661963827
 31
0.0
  0
LINE
  5
17D0D
330
747D
100
AcDbEntity
  8
細線
 48
50.0
100
AcDbLine
 10
5574.83962193014
 20
3925.032661963827
 30
0.0
 11
5574.83962193014
 21
1835.032661963827
 31
0.0
  0
LINE
  5
17D0E
330
747D
100
AcDbEntity
  8
細線
 48
50.0
100
AcDbLine
 10
5714.839621930139
 20
3925.032661963827
 30
0.0
 11
5714.839621930139
 21
1835.032661963827
 31
0.0
  0
LINE
  5
17D0F
330
747D
100
AcDbEntity
  8
細線
 48
50.0
100
AcDbLine
 10
5729.839621930139
 20
3925.032661963827
 30
0.0
 11
5729.839621930139
 21
1835.032661963827
 31
0.0
  0
LINE
  5
17D10
330
747D
100
AcDbEntity
  8
細線
 48
50.0
100
AcDbLine
 10
5869.83962193014
 20
3925.032661963827
 30
0.0
 11
5869.83962193014
 21
1835.032661963827
 31
0.0
  0
LINE
  5
17D11
330
747D
100
AcDbEntity
  8
細線
 48
50.0
100
AcDbLine
 10
5854.839621930139
 20
3925.032661963827
 30
0.0
 11
5854.839621930139
 21
1835.032661963827
 31
0.0
  0
LINE
  5
17D12
330
747D
100
AcDbEntity
  8
部品1
100
AcDbLine
 10
3557.339621930132
 20
1785.032661963825
 30
0.0
 11
3557.339621930132
 21
1685.032661963825
 31
0.0
  0
LINE
  5
17D13
330
747D
100
AcDbEntity
  8
部品1
100
AcDbLine
 10
5787.339621930132
 20
1785.032661963825
 30
0.0
 11
5787.339621930132
 21
1685.032661963825
 31
0.0
  0
LINE
  5
17D14
330
747D
100
AcDbEntity
  8
部品1
 48
50.0
100
AcDbLine
 10
6064.339621930136
 20
1785.032661963825
 30
0.0
 11
5979.839621930135
 21
1785.032661963825
 31
0.0
  0
LINE
  5
17D15
330
747D
100
AcDbEntity
  8
部品1
 48
50.0
100
AcDbLine
 10
6064.339621930136
 20
3910.032661963825
 30
0.0
 11
6064.339621930136
 21
1685.032661963825
 31
0.0
  0
LINE
  5
17D16
330
747D
100
AcDbEntity
  8
部品1
 48
50.0
100
AcDbLine
 10
5987.339621930136
 20
3920.032661963825
 30
0.0
 11
6064.339621930136
 21
3910.032661963825
 31
0.0
  0
LINE
  5
17D17
330
747D
100
AcDbEntity
  8
破線
 48
5.0
100
AcDbLine
 10
5859.839621930139
 20
1685.032661963825
 30
0.0
 11
5859.839621930139
 21
1485.032661963825
 31
0.0
  0
LINE
  5
17D18
330
747D
100
AcDbEntity
  8
破線
 48
5.0
100
AcDbLine
 10
6059.839621930136
 20
1485.032661963822
 30
0.0
 11
5859.839621930139
 21
1485.032661963825
 31
0.0
  0
LINE
  5
17D19
330
747D
100
AcDbEntity
  8
破線
 48
5.0
100
AcDbLine
 10
6059.839621930144
 20
1685.032661963825
 30
0.0
 11
6059.839621930136
 21
1485.032661963822
 31
0.0
  0
DIMENSION
  5
17D1A
330
747D
100
AcDbEntity
  8
寸法
 48
50.0
100
AcDbDimension
  2
*D6
 10
3284.839621930132
 20
1198.985332663447
 30
0.0
 11
3384.839621930132
 21
1198.985332663447
 31
0.0
 70
   160
 71
     5
 42
200.0
  3
INABA_S40G
100
AcDbAlignedDimension
 13
3484.839621930132
 23
1485.032661963822
 33
0.0
 14
3284.839621930132
 24
1485.032661963825
 34
0.0
100
AcDbRotatedDimension
  0
LINE
  5
17D1B
330
747D
100
AcDbEntity
  8
破線
 48
5.0
100
AcDbLine
 10
3284.839621930132
 20
1685.032661963825
 30
0.0
 11
3284.839621930132
 21
1485.032661963822
 31
0.0
  0
LINE
  5
17D1C
330
747D
100
AcDbEntity
  8
破線
 48
5.0
100
AcDbLine
 10
3484.839621930132
 20
1685.032661963825
 30
0.0
 11
3484.839621930132
 21
1485.032661963822
 31
0.0
  0
LINE
  5
17D1D
330
747D
100
AcDbEntity
  8
破線
 48
5.0
100
AcDbLine
 10
3484.839621930132
 20
1485.032661963822
 30
0.0
 11
3284.839621930132
 21
1485.032661963822
 31
0.0
  0
DIMENSION
  5
17D1E
330
747D
100
AcDbEntity
  8
寸法
 48
50.0
100
AcDbDimension
  2
*D7
 10
3135.339618683499
 20
1685.032661963825
 30
0.0
 11
3135.339618683498
 21
1585.032661963826
 31
0.0
 70
   160
 71
     5
 42
200.0
  3
INABA_S40G
100
AcDbAlignedDimension
 13
3284.839621930132
 23
1485.032661963825
 33
0.0
 14
3259.839621930132
 24
1685.032661963825
 34
0.0
 50
90.0
100
AcDbRotatedDimension
1001
ACAD
1000
DSTYLE
1002
{
1070
   174
1070
     0
1070
   272
1070
     1
1070
   288
1070
     0
1070
   341
1005
0
1002
}
  0
LINE
  5
17D1F
330
747D
100
AcDbEntity
  8
部品1
100
AcDbLine
 10
5979.839621930135
 20
1785.032661963825
 30
0.0
 11
5987.339621930136
 21
1785.032661963825
 31
0.0
  0
LINE
  5
17D20
330
747D
100
AcDbEntity
  8
破線
  6
HIDDEN
 48
5.0
100
AcDbLine
 10
3404.839621930133
 20
1685.032661963825
 30
0.0
 11
3404.839621930133
 21
1680.032661963825
 31
0.0
  0
LINE
  5
17D21
330
747D
100
AcDbEntity
  8
破線
  6
HIDDEN
 48
5.0
100
AcDbLine
 10
3364.83962193014
 20
1685.032661963825
 30
0.0
 11
3364.83962193014
 21
1680.032661963825
 31
0.0
  0
LINE
  5
17D22
330
747D
100
AcDbEntity
  8
破線
  6
HIDDEN
 48
5.0
100
AcDbLine
 10
5979.839621930135
 20
1685.032661963825
 30
0.0
 11
5979.839621930135
 21
1680.032661963825
 31
0.0
  0
LINE
  5
17D23
330
747D
100
AcDbEntity
  8
破線
  6
HIDDEN
 48
5.0
100
AcDbLine
 10
5939.839621930136
 20
1685.032661963825
 30
0.0
 11
5939.839621930136
 21
1680.032661963825
 31
0.0
  0
ARC
  5
17D24
330
747D
100
AcDbEntity
  8
部品1
 48
50.0
100
AcDbCircle
 10
5974.839621930136
 20
1825.032661963825
 30
0.0
 40
5.0
100
AcDbArc
 50
0.0
 51
90.0
  0
ARC
  5
17D25
330
747D
100
AcDbEntity
  8
部品1
 48
50.0
100
AcDbCircle
 10
5944.839621930135
 20
1825.032661963825
 30
0.0
 40
5.0
100
AcDbArc
 50
90.0
 51
180.0
  0
LINE
  5
17D26
330
747D
100
AcDbEntity
  8
部品1
100
AcDbLine
 10
5974.839621930136
 20
1830.032661963825
 30
0.0
 11
5944.839621930135
 21
1830.032661963825
 31
0.0
  0
LINE
  5
17D27
330
747D
100
AcDbEntity
  8
部品1
 48
50.0
100
AcDbLine
 10
5979.839621930135
 20
1825.032661963825
 30
0.0
 11
5979.839621930135
 21
1685.032661963825
 31
0.0
  0
LINE
  5
17D28
330
747D
100
AcDbEntity
  8
部品1
 48
50.0
100
AcDbLine
 10
5939.839621930136
 20
1825.032661963825
 30
0.0
 11
5939.839621930136
 21
1685.032661963825
 31
0.0
  0
ARC
  5
17D29
330
747D
100
AcDbEntity
  8
部品1
 48
50.0
100
AcDbCircle
 10
3399.839621930132
 20
1825.032661963825
 30
0.0
 40
5.0
100
AcDbArc
 50
0.0
 51
90.0
  0
ARC
  5
17D2A
330
747D
100
AcDbEntity
  8
部品1
 48
50.0
100
AcDbCircle
 10
3369.839621930132
 20
1825.032661963825
 30
0.0
 40
5.0
100
AcDbArc
 50
90.0
 51
180.0
  0
LINE
  5
17D2B
330
747D
100
AcDbEntity
  8
部品1
100
AcDbLine
 10
3369.839621930132
 20
1830.032661963825
 30
0.0
 11
3399.839621930132
 21
1830.032661963825
 31
0.0
  0
LINE
  5
17D2C
330
747D
100
AcDbEntity
  8
部品1
 48
50.0
100
AcDbLine
 10
3404.839621930133
 20
1825.032661963825
 30
0.0
 11
3404.839621930133
 21
1685.032661963825
 31
0.0
  0
LINE
  5
17D2D
330
747D
100
AcDbEntity
  8
部品1
 48
50.0
100
AcDbLine
 10
3364.839621930132
 20
1825.032661963825
 30
0.0
 11
3364.839621930132
 21
1685.032661963825
 31
0.0
  0
LINE
  5
17D2E
330
747D
100
AcDbEntity
  8
破線
  6
HIDDEN
 48
5.0
100
AcDbLine
 10
3404.839621930133
 20
1680.032661963825
 30
0.0
 11
3419.839621930132
 21
1532.332661963824
 31
0.0
  0
LINE
  5
17D2F
330
747D
100
AcDbEntity
  8
破線
  6
HIDDEN
 48
5.0
100
AcDbLine
 10
3364.839621930132
 20
1680.032661963825
 30
0.0
 11
3349.839621930132
 21
1532.332661963824
 31
0.0
  0
LINE
  5
17D30
330
747D
100
AcDbEntity
  8
破線
  6
HIDDEN
 48
5.0
100
AcDbLine
 10
3419.839621930132
 20
1532.332661963824
 30
0.0
 11
3419.839621930132
 21
1530.032661963825
 31
0.0
  0
LINE
  5
17D31
330
747D
100
AcDbEntity
  8
破線
  6
HIDDEN
 48
5.0
100
AcDbLine
 10
3349.839621930132
 20
1532.332661963824
 30
0.0
 11
3349.839621930132
 21
1530.032661963825
 31
0.0
  0
LINE
  5
17D32
330
747D
100
AcDbEntity
  8
破線
  6
HIDDEN
 48
5.0
100
AcDbLine
 10
3349.839621930132
 20
1530.032661963825
 30
0.0
 11
3419.839621930132
 21
1530.032661963825
 31
0.0
  0
LINE
  5
17D33
330
747D
100
AcDbEntity
  8
破線
  6
HIDDEN
 48
5.0
100
AcDbLine
 10
5994.839621930136
 20
1532.332661963824
 30
0.0
 11
5994.839621930136
 21
1530.032661963825
 31
0.0
  0
LINE
  5
17D34
330
747D
100
AcDbEntity
  8
破線
  6
HIDDEN
 48
5.0
100
AcDbLine
 10
5979.839621930135
 20
1680.032661963825
 30
0.0
 11
5994.839621930136
 21
1532.332661963824
 31
0.0
  0
LINE
  5
17D35
330
747D
100
AcDbEntity
  8
破線
  6
HIDDEN
 48
5.0
100
AcDbLine
 10
5924.839621930136
 20
1532.332661963824
 30
0.0
 11
5924.839621930136
 21
1530.032661963825
 31
0.0
  0
LINE
  5
17D36
330
747D
100
AcDbEntity
  8
破線
  6
HIDDEN
 48
5.0
100
AcDbLine
 10
5939.839621930136
 20
1680.032661963825
 30
0.0
 11
5924.839621930136
 21
1532.332661963824
 31
0.0
  0
LINE
  5
17D37
330
747D
100
AcDbEntity
  8
破線
  6
HIDDEN
 48
5.0
100
AcDbLine
 10
5994.839621930136
 20
1530.032661963825
 30
0.0
 11
5924.839621930136
 21
1530.032661963825
 31
0.0
  0
LINE
  5
17D38
330
747D
100
AcDbEntity
  8
部品1
100
AcDbLine
 10
3357.339621930132
 20
1785.032661963825
 30
0.0
 11
3364.839621930132
 21
1785.032661963825
 31
0.0
  0
LINE
  5
17D39
330
747D
100
AcDbEntity
  8
部品1
100
AcDbLine
 10
3357.339621930132
 20
1785.032661963825
 30
0.0
 11
3364.839621930132
 21
1785.032661963825
 31
0.0
  0
LINE
  5
17D3A
330
747D
100
AcDbEntity
  8
部品1
100
AcDbLine
 10
5979.839621930135
 20
1785.032661963825
 30
0.0
 11
5987.339621930136
 21
1785.032661963825
 31
0.0
  0
LINE
  5
17D3B
330
747D
100
AcDbEntity
  8
部品1
100
AcDbLine
 10
5064.074955044354
 20
1030.206058519345
 30
0.0
 11
4300.60428881591
 21
1030.206058519345
 31
0.0
  0
LINE
  5
17D3C
330
747D
100
AcDbEntity
  8
部品1
100
AcDbLine
 10
5064.074955044354
 20
790.3137369738124
 30
0.0
 11
5064.074955044354
 21
1030.206058519345
 31
0.0
  0
LINE
  5
17D3D
330
747D
100
AcDbEntity
  8
部品1
100
AcDbLine
 10
4300.60428881591
 20
790.3137369738124
 30
0.0
 11
5064.074955044354
 21
790.3137369738124
 31
0.0
  0
LINE
  5
17D3E
330
747D
100
AcDbEntity
  8
部品1
100
AcDbLine
 10
4300.60428881591
 20
1030.206058519345
 30
0.0
 11
4300.60428881591
 21
790.3137369738124
 31
0.0
  0
TEXT
  5
17D3F
330
747D
100
AcDbEntity
  8
部品1
100
AcDbText
 10
4390.050390239518
 20
837.3125293008197
 30
0.0
 40
135.0
  1
側面図
  7
STYLE2
100
AcDbText
  0
TEXT
  5
17D40
330
747D
100
AcDbEntity
  8
部品1
100
AcDbText
 10
2301.435505845173
 20
1721.139565569727
 30
0.0
 40
125.0
  1
▽G.L
  7
STYLE2
100
AcDbText
  0
DIMENSION
  5
17D41
330
747D
100
AcDbEntity
  8
寸法
 48
50.0
100
AcDbDimension
  2
*D8
 10
7969.436651267381
 20
1198.985332663449
 30
0.0
 11
8069.43665126738
 21
1198.985332663449
 31
0.0
 70
   160
 71
     5
 42
200.0000000000018
  3
INABA_S40G
100
AcDbAlignedDimension
 13
8169.436651267382
 23
1485.032661963827
 33
0.0
 14
7969.436651267381
 24
1485.032661963827
 34
0.0
100
AcDbRotatedDimension
  0
LINE
  5
17D42
330
747D
100
AcDbEntity
  8
破線
 48
5.0
100
AcDbLine
 10
7969.436651267381
 20
1485.032661963827
 30
0.0
 11
8169.436651267382
 21
1485.032661963827
 31
0.0
  0
LINE
  5
17D43
330
747D
100
AcDbEntity
  8
破線
 48
5.0
100
AcDbLine
 10
7969.436651267381
 20
1685.032661963827
 30
0.0
 11
7969.436651267381
 21
1485.032661963827
 31
0.0
  0
LINE
  5
17D44
330
747D
100
AcDbEntity
  8
破線
 48
5.0
100
AcDbLine
 10
11219.43665126738
 20
1485.032661963827
 30
0.0
 11
11019.43665126738
 21
1485.032661963827
 31
0.0
  0
LINE
  5
17D45
330
747D
100
AcDbEntity
  8
破線
 48
5.0
100
AcDbLine
 10
8169.43665126738
 20
1685.032661963827
 30
0.0
 11
8169.43665126738
 21
1485.032661963827
 31
0.0
  0
LINE
  5
17D46
330
747D
100
AcDbEntity
  8
破線
 48
5.0
100
AcDbLine
 10
8044.43665126738
 20
1530.032661963827
 30
0.0
 11
8064.436651267383
 21
1530.032661963827
 31
0.0
  0
LINE
  5
17D47
330
747D
100
AcDbEntity
  8
破線
 48
5.0
100
AcDbLine
 10
11019.43665126738
 20
1685.032661963827
 30
0.0
 11
11019.43665126738
 21
1485.032661963827
 31
0.0
  0
LINE
  5
17D48
330
747D
100
AcDbEntity
  8
破線
 48
5.0
100
AcDbLine
 10
11219.43665126738
 20
1685.032661963827
 30
0.0
 11
11219.43665126738
 21
1485.032661963827
 31
0.0
  0
LINE
  5
17D49
330
747D
100
AcDbEntity
  8
部品1
100
AcDbLine
 10
11091.43665126737
 20
7757.119351967488
 30
0.0
 11
11119.43665126737
 21
7757.119351967488
 31
0.0
  0
LINE
  5
17D4A
330
747D
100
AcDbEntity
  8
部品1
100
AcDbLine
 10
8097.436651267349
 20
7757.11935196736
 30
0.0
 11
8069.436651267348
 21
7757.11935196736
 31
0.0
  0
LINE
  5
17D4B
330
747D
100
AcDbEntity
  8
部品1
100
AcDbLine
 10
11062.93665126736
 20
7757.119351967459
 30
0.0
 11
8125.936651267359
 21
7757.11935196736
 31
0.0
  0
LINE
  5
17D4C
330
747D
100
AcDbEntity
  8
Ｇ．Ｌ
100
AcDbLine
 10
2172.750946755066
 20
1685.032661963827
 30
0.0
 11
11916.78665606431
 21
1685.032661963827
 31
0.0
  0
TEXT
  5
17D4D
330
747D
100
AcDbEntity
  8
部品1
100
AcDbText
 10
9326.976722036746
 20
837.3125293008214
 30
0.0
 40
135.0
  1
正面図
  7
STYLE2
100
AcDbText
  0
LINE
  5
17D53
330
747D
100
AcDbEntity
  8
部品1
100
AcDbLine
 10
9236.45131829879
 20
1030.206058519345
 30
0.0
 11
9236.45131829879
 21
790.3137369738124
 31
0.0
  0
LINE
  5
17D54
330
747D
100
AcDbEntity
  8
部品1
100
AcDbLine
 10
9236.45131829879
 20
790.3137369738124
 30
0.0
 11
9999.92198452723
 21
790.3137369738124
 31
0.0
  0
LINE
  5
17D55
330
747D
100
AcDbEntity
  8
部品1
100
AcDbLine
 10
9999.92198452723
 20
790.3137369738124
 30
0.0
 11
9999.92198452723
 21
1030.206058519345
 31
0.0
  0
LINE
  5
17D56
330
747D
100
AcDbEntity
  8
部品1
100
AcDbLine
 10
9999.92198452723
 20
1030.206058519345
 30
0.0
 11
9236.45131829879
 21
1030.206058519345
 31
0.0
  0
LINE
  5
17D57
330
747D
100
AcDbEntity
  8
部品1
100
AcDbLine
 10
8069.43665126738
 20
3925.032661963827
 30
0.0
 11
11119.43665126738
 21
3925.032661963827
 31
0.0
  0
LINE
  5
17D58
330
747D
100
AcDbEntity
  8
部品1
100
AcDbLine
 10
8069.43665126738
 20
1835.032661963827
 30
0.0
 11
8517.436651267377
 21
1835.032661963827
 31
0.0
  0
LINE
  5
17D59
330
747D
100
AcDbEntity
  8
部品1
100
AcDbLine
 10
8069.43665126738
 20
1785.032661963829
 30
0.0
 11
11119.43665126738
 21
1785.032661963827
 31
0.0
  0
LINE
  5
17D5A
330
747D
100
AcDbEntity
  8
部品1
100
AcDbLine
 10
8069.43665126738
 20
4017.260263198468
 30
0.0
 11
8069.43665126738
 21
1685.032661963827
 31
0.0
  0
LINE
  5
17D5B
330
747D
100
AcDbEntity
  8
部品1
100
AcDbLine
 10
8124.436651267378
 20
3925.032661963827
 30
0.0
 11
8124.436651267378
 21
1835.032661963827
 31
0.0
  0
LINE
  5
17D5C
330
747D
100
AcDbEntity
  8
部品1
100
AcDbLine
 10
8064.436651267381
 20
1830.032661963829
 30
0.0
 11
8064.436651267381
 21
1685.032661963827
 31
0.0
  0
LINE
  5
17D5D
330
747D
100
AcDbEntity
  8
破線
  6
HIDDEN
 48
5.0
100
AcDbLine
 10
8061.93665126738
 20
1532.332661963826
 30
0.0
 11
8061.93665126738
 21
1530.032661963827
 31
0.0
  0
LINE
  5
17D5E
330
747D
100
AcDbEntity
  8
破線
 48
5.0
100
AcDbLine
 10
8044.43665126738
 20
1530.032661963829
 30
0.0
 11
8064.436651267383
 21
1530.032661963829
 31
0.0
  0
LINE
  5
17D5F
330
747D
100
AcDbEntity
  8
破線
 48
5.0
100
AcDbLine
 10
8064.436651267381
 20
1685.032661963827
 30
0.0
 11
8064.436651267381
 21
1530.032661963829
 31
0.0
  0
LINE
  5
17D60
330
747D
100
AcDbEntity
  8
部品1
100
AcDbLine
 10
10671.43665126738
 20
1835.032661963827
 30
0.0
 11
11119.43665126738
 21
1835.032661963827
 31
0.0
  0
LINE
  5
17D61
330
747D
100
AcDbEntity
  8
部品1
 48
50.0
100
AcDbLine
 10
8767.436651267379
 20
1785.032661963827
 30
0.0
 11
8767.436651267379
 21
1685.032661963827
 31
0.0
  0
LINE
  5
17D62
330
747D
100
AcDbEntity
  8
部品1
100
AcDbLine
 10
8469.436651267379
 20
1785.032661963827
 30
0.0
 11
8469.436651267379
 21
1685.032661963827
 31
0.0
  0
LINE
  5
17D63
330
747D
100
AcDbEntity
  8
部品1
 48
50.0
100
AcDbLine
 10
9494.436651267379
 20
1785.032661963827
 30
0.0
 11
9494.436651267379
 21
1685.032661963827
 31
0.0
  0
LINE
  5
17D64
330
747D
100
AcDbEntity
  8
部品1
 48
50.0
100
AcDbLine
 10
8967.436651267378
 20
1785.032661963827
 30
0.0
 11
8967.436651267378
 21
1685.032661963827
 31
0.0
  0
LINE
  5
17D65
330
747D
100
AcDbEntity
  8
部品1
 48
50.0
100
AcDbLine
 10
9694.43665126738
 20
1785.032661963827
 30
0.0
 11
9694.43665126738
 21
1685.032661963827
 31
0.0
  0
LINE
  5
17D66
330
747D
100
AcDbEntity
  8
部品1
100
AcDbLine
 10
10719.43665126738
 20
1785.032661963827
 30
0.0
 11
10719.43665126738
 21
1685.032661963827
 31
0.0
  0
LINE
  5
17D67
330
747D
100
AcDbEntity
  8
部品1
 48
50.0
100
AcDbLine
 10
10421.43665126738
 20
1785.032661963827
 30
0.0
 11
10421.43665126738
 21
1685.032661963827
 31
0.0
  0
LINE
  5
17D68
330
747D
100
AcDbEntity
  8
部品1
 48
50.0
100
AcDbLine
 10
10221.43665126738
 20
1785.032661963827
 30
0.0
 11
10221.43665126738
 21
1685.032661963827
 31
0.0
  0
LINE
  5
17D69
330
747D
100
AcDbEntity
  8
部品1
100
AcDbLine
 10
11119.43665126738
 20
3979.462689744952
 30
0.0
 11
11119.43665126738
 21
1685.032661963827
 31
0.0
  0
DIMENSION
  5
17D6A
330
747D
100
AcDbEntity
  8
寸法
 48
50.0
100
AcDbDimension
  2
*D9
 10
11810.65023025344
 20
4105.032661963827
 30
0.0
 11
11710.63841922982
 21
2945.032661963829
 31
0.0
 70
    32
 71
     5
 42
2320.0
  3
INABA_S40G
100
AcDbAlignedDimension
 13
11119.43665126738
 23
1785.032661963827
 33
0.0
 14
11199.43665126739
 24
4105.032661963827
 34
0.0
 50
90.0
100
AcDbRotatedDimension
1001
ACAD
1000
DSTYLE
1002
{
1002
}
  0
LINE
  5
17D6B
330
747D
100
AcDbEntity
  8
部品1
100
AcDbLine
 10
10644.43665126738
 20
3925.032661963827
 30
0.0
 11
10644.43665126737
 21
3920.032661963828
 31
0.0
  0
LINE
  5
17D6C
330
747D
100
AcDbEntity
  8
部品1
100
AcDbLine
 10
11124.43665126738
 20
1830.032661963829
 30
0.0
 11
11124.43665126738
 21
1685.032661963827
 31
0.0
  0
LINE
  5
17D6D
330
747D
100
AcDbEntity
  8
破線
 48
5.0
100
AcDbLine
 10
11144.43665126738
 20
1530.032661963827
 30
0.0
 11
11124.43665126737
 21
1530.032661963827
 31
0.0
  0
LINE
  5
17D6E
330
747D
100
AcDbEntity
  8
破線
 48
5.0
100
AcDbLine
 10
11124.43665126738
 20
1685.032661963827
 30
0.0
 11
11124.43665126738
 21
1530.032661963827
 31
0.0
  0
DIMENSION
  5
17D6F
330
747D
100
AcDbEntity
  8
寸法
100
AcDbDimension
  2
*D10
 10
8124.436651267373
 20
10212.11935196739
 30
0.0
 11
7760.951369893101
 21
10212.11935196739
 31
0.0
 70
   160
 71
     5
 42
55.00000000003274
  3
INABA_S40G
100
AcDbAlignedDimension
 13
8069.436651267341
 23
9912.11935196739
 33
0.0
 14
8124.436651267373
 24
9912.11935196739
 34
0.0
100
AcDbRotatedDimension
1001
ACAD
1000
DSTYLE
1002
{
1002
}
  0
LINE
  5
17D70
330
747D
100
AcDbEntity
  8
部品1
 48
50.0
100
AcDbLine
 10
8097.43665126737
 20
7310.119351967458
 30
0.0
 11
11091.43665126739
 21
7310.119351967462
 31
0.0
  0
LINE
  5
17D71
330
747D
100
AcDbEntity
  8
部品1
100
AcDbLine
 10
11062.93665126736
 20
9017.11935196746
 30
0.0
 11
8125.936651267359
 21
9017.119351967359
 31
0.0
  0
LINE
  5
17D72
330
747D
100
AcDbEntity
  8
部品1
100
AcDbLine
 10
9606.936651267375
 20
9884.119351967502
 30
0.0
 11
11091.43665126737
 21
9884.119351967484
 31
0.0
  0
LINE
  5
17D73
330
747D
100
AcDbEntity
  8
細線
 48
50.0
100
AcDbLine
 10
11090.93665126737
 20
9432.119351967488
 30
0.0
 11
9607.936651267372
 21
9882.119351967489
 31
0.0
  0
LINE
  5
17D74
330
747D
100
AcDbEntity
  8
部品1
100
AcDbLine
 10
9607.936651267372
 20
9432.119351967495
 30
0.0
 11
11090.93665126737
 21
9432.119351967488
 31
0.0
  0
LINE
  5
17D75
330
747D
100
AcDbEntity
  8
部品1
100
AcDbLine
 10
9607.936651267372
 20
9882.119351967491
 30
0.0
 11
11090.93665126737
 21
9882.119351967483
 31
0.0
  0
LINE
  5
17D76
330
747D
100
AcDbEntity
  8
細線
 48
50.0
100
AcDbLine
 10
11090.93665126737
 20
9882.119351967483
 30
0.0
 11
9607.936651267372
 21
9432.119351967495
 31
0.0
  0
DIMENSION
  5
17D77
330
747D
100
AcDbEntity
  8
寸法
100
AcDbDimension
  2
*D11
 10
10999.98475036063
 20
9092.682236738621
 30
0.0
 11
10106.65940678012
 21
9092.682236738621
 31
0.0
 70
   160
 71
     5
 42
1483.000000000013
  3
INABA_S40G
100
AcDbAlignedDimension
 13
9607.936651267365
 23
9432.119351967561
 33
0.0
 14
11090.93665126738
 24
9432.119351967553
 34
0.0
100
AcDbRotatedDimension
1001
ACAD
1000
DSTYLE
1002
{
1002
}
  0
LINE
  5
17D78
330
747D
100
AcDbEntity
  8
破線
 48
10.0
100
AcDbLine
 10
11039.43665126737
 20
7362.119351967475
 30
0.0
 11
10346.93665126735
 21
7362.119351967415
 31
0.0
  0
LINE
  5
17D7A
330
747D
100
AcDbEntity
  8
部品1
100
AcDbLine
 10
8069.436651267373
 20
9912.11935196739
 30
0.0
 11
11119.43665126737
 21
9912.119351967483
 31
0.0
  0
LINE
  5
17D7B
330
747D
100
AcDbEntity
  8
部品1
100
AcDbLine
 10
11062.93665126737
 20
7338.619351967476
 30
0.0
 11
8125.936651267268
 21
7338.619351967357
 31
0.0
  0
DIMENSION
  5
17D7C
330
747D
100
AcDbEntity
  8
寸法
100
AcDbDimension
  2
*D12
 10
11064.43665126737
 20
10212.11935196743
 30
0.0
 11
9594.436651267374
 21
10212.11935196743
 31
0.0
 70
   160
  1
7X420=<>
 71
     5
 42
2940.000000000002
  3
INABA_S40G
100
AcDbAlignedDimension
 13
8124.436651267373
 23
9912.11935196739
 33
0.0
 14
11064.43665126737
 24
9912.119351967483
 34
0.0
100
AcDbRotatedDimension
1001
ACAD
1000
DSTYLE
1002
{
1002
}
  0
LINE
  5
17D7D
330
747D
100
AcDbEntity
  8
部品1
100
AcDbLine
 10
8125.93665126735
 20
9432.119351967436
 30
0.0
 11
8125.936651267362
 21
7338.619351967451
 31
0.0
  0
LINE
  5
17D7E
330
747D
100
AcDbEntity
  8
部品1
 48
50.0
100
AcDbLine
 10
9594.436651267375
 20
9432.119351967497
 30
0.0
 11
9594.436651267402
 21
7338.619351967373
 31
0.0
  0
DIMENSION
  5
17D7F
330
747D
100
AcDbEntity
  8
寸法
100
AcDbDimension
  2
*D13
 10
9489.984750360642
 20
9092.682236738621
 30
0.0
 11
8655.677142654853
 21
9092.682236738621
 31
0.0
 70
   160
 71
     5
 42
1483.000000000071
  3
INABA_S40G
100
AcDbAlignedDimension
 13
8097.936651267296
 23
9432.119351967502
 33
0.0
 14
9580.936651267368
 24
9432.119351967495
 34
0.0
100
AcDbRotatedDimension
1001
ACAD
1000
DSTYLE
1002
{
1002
}
  0
LINE
  5
17D80
330
747D
100
AcDbEntity
  8
破線
 48
10.0
100
AcDbLine
 10
10346.93665126735
 20
7338.619351967389
 30
0.0
 11
10346.93665126735
 21
9432.119351967495
 31
0.0
  0
LINE
  5
17D81
330
747D
100
AcDbEntity
  8
破線
 48
10.0
100
AcDbLine
 10
10296.93665126735
 20
7338.619351967385
 30
0.0
 11
10296.93665126735
 21
9432.119351967495
 31
0.0
  0
LINE
  5
17D82
330
747D
100
AcDbEntity
  8
破線
 48
10.0
100
AcDbLine
 10
8891.936651267348
 20
7338.619351967389
 30
0.0
 11
8891.936651267352
 21
9432.119351967495
 31
0.0
  0
LINE
  5
17D83
330
747D
100
AcDbEntity
  8
破線
 48
10.0
100
AcDbLine
 10
8841.936651267351
 20
7338.619351967385
 30
0.0
 11
8841.936651267351
 21
9432.119351967495
 31
0.0
  0
LINE
  5
17D84
330
747D
100
AcDbEntity
  8
破線
 48
10.0
100
AcDbLine
 10
9619.436651267349
 20
7338.619351967389
 30
0.0
 11
9619.436651267344
 21
9432.119351967491
 31
0.0
  0
LINE
  5
17D85
330
747D
100
AcDbEntity
  8
破線
 48
10.0
100
AcDbLine
 10
9569.43665126735
 20
7338.619351967385
 30
0.0
 11
9569.436651267343
 21
9432.119351967495
 31
0.0
  0
LINE
  5
17D86
330
747D
100
AcDbEntity
  8
部品1
100
AcDbLine
 10
8069.436651267341
 20
9912.119351967357
 30
0.0
 11
8069.436651267368
 21
7282.119351967345
 31
0.0
  0
LINE
  5
17D87
330
747D
100
AcDbEntity
  8
部品1
100
AcDbLine
 10
8097.436651267349
 20
7310.119351967436
 30
0.0
 11
8097.436651267365
 21
9437.119351967359
 31
0.0
  0
LINE
  5
17D88
330
747D
100
AcDbEntity
  8
破線
 48
10.0
100
AcDbLine
 10
8149.436651267349
 20
9432.119351967488
 30
0.0
 11
8149.436651267363
 21
7362.119351967357
 31
0.0
  0
LINE
  5
17D89
330
747D
100
AcDbEntity
  8
破線
 48
10.0
100
AcDbLine
 10
9569.43665126735
 20
7362.119351967386
 30
0.0
 11
8891.936651267348
 21
7362.119351967364
 31
0.0
  0
LINE
  5
17D8A
330
747D
100
AcDbEntity
  8
破線
 48
10.0
100
AcDbLine
 10
8841.936651267351
 20
7362.119351967345
 30
0.0
 11
8149.436651267361
 21
7362.119351967357
 31
0.0
  0
LINE
  5
17D8B
330
747D
100
AcDbEntity
  8
部品1
100
AcDbLine
 10
8544.436651267345
 20
7282.119351967345
 30
0.0
 11
8069.436651267368
 21
7282.119351967345
 31
0.0
  0
LINE
  5
17D8C
330
747D
100
AcDbEntity
  8
部品1
100
AcDbLine
 10
8124.436651267343
 20
7282.119351967477
 30
0.0
 11
8124.436651267343
 21
7310.119351967476
 31
0.0
  0
LINE
  5
17D8D
330
747D
100
AcDbEntity
  8
部品1
 48
50.0
100
AcDbLine
 10
8125.936651267362
 20
7338.619351967452
 30
0.0
 11
8097.436651267365
 21
7310.119351967454
 31
0.0
  0
LINE
  5
17D8E
330
747D
100
AcDbEntity
  8
部品1
100
AcDbLine
 10
8097.436651267349
 20
7337.119351967309
 30
0.0
 11
8069.436651267366
 21
7337.119351967309
 31
0.0
  0
LINE
  5
17D8F
330
747D
100
AcDbEntity
  8
部品1
100
AcDbLine
 10
8097.436651267349
 20
7337.119351967345
 30
0.0
 11
8069.436651267366
 21
7337.119351967345
 31
0.0
  0
LINE
  5
17D90
330
747D
100
AcDbEntity
  8
部品1
100
AcDbLine
 10
8097.436651267365
 20
7337.119351967359
 30
0.0
 11
8069.436651267366
 21
7337.119351967359
 31
0.0
  0
LINE
  5
17D91
330
747D
100
AcDbEntity
  8
部品1
100
AcDbLine
 10
8069.436651267366
 20
7337.119351967309
 30
0.0
 11
8069.436651267368
 21
7282.119351967313
 31
0.0
  0
LINE
  5
17D92
330
747D
100
AcDbEntity
  8
部品1
100
AcDbLine
 10
8097.436651267349
 20
9017.119351967359
 30
0.0
 11
8069.436651267348
 21
9017.119351967359
 31
0.0
  0
LINE
  5
17D94
330
747D
100
AcDbEntity
  8
部品1
100
AcDbLine
 10
8544.436651267343
 20
7282.119351967477
 30
0.0
 11
8544.436651267343
 21
7310.119351967476
 31
0.0
  0
LINE
  5
17D95
330
747D
100
AcDbEntity
  8
破線
 48
10.0
100
AcDbLine
 10
10296.93665126735
 20
7362.119351967402
 30
0.0
 11
9619.436651267351
 21
7362.11935196739
 31
0.0
  0
LINE
  5
17D96
330
747D
100
AcDbEntity
  8
部品1
100
AcDbLine
 10
8097.936651267303
 20
9432.119351967436
 30
0.0
 11
9580.936651267373
 21
9432.119351967495
 31
0.0
  0
LINE
  5
17D97
330
747D
100
AcDbEntity
  8
部品1
100
AcDbLine
 10
8097.936651267303
 20
9882.119351967437
 30
0.0
 11
9580.936651267373
 21
9882.119351967496
 31
0.0
  0
LINE
  5
17D98
330
747D
100
AcDbEntity
  8
部品1
100
AcDbLine
 10
8124.436651267373
 20
9884.119351967505
 30
0.0
 11
9581.936651267374
 21
9884.119351967505
 31
0.0
  0
LINE
  5
17D99
330
747D
100
AcDbEntity
  8
細線
 48
50.0
100
AcDbLine
 10
9580.936651267373
 20
9882.119351967491
 30
0.0
 11
8097.936651267303
 21
9432.119351967438
 31
0.0
  0
LINE
  5
17D9A
330
747D
100
AcDbEntity
  8
細線
 48
50.0
100
AcDbLine
 10
9580.936651267373
 20
9432.119351967495
 30
0.0
 11
8097.936651267303
 21
9882.119351967439
 31
0.0
  0
LINE
  5
17D9B
330
747D
100
AcDbEntity
  8
部品1
100
AcDbLine
 10
8097.436651267374
 20
9884.11935196739
 30
0.0
 11
9069.436651267373
 21
9884.119351967392
 31
0.0
  0
LINE
  5
17D9C
330
747D
100
AcDbEntity
  8
部品1
100
AcDbLine
 10
8097.436651267365
 20
9431.619351967361
 30
0.0
 11
8097.436651267374
 21
9884.11935196739
 31
0.0
  0
LINE
  5
17D9D
330
747D
100
AcDbEntity
  8
部品1
 48
50.0
100
AcDbLine
 10
8097.936651267303
 20
9882.119351967491
 30
0.0
 11
8097.936651267303
 21
9432.119351967495
 31
0.0
  0
LINE
  5
17D9E
330
747D
100
AcDbEntity
  8
部品1
100
AcDbLine
 10
8097.436651267349
 20
9437.119351967359
 30
0.0
 11
8069.436651267348
 21
9437.119351967359
 31
0.0
  0
LINE
  5
17D9F
330
747D
100
AcDbEntity
  8
部品1
100
AcDbLine
 10
8097.436651267342
 20
9857.11935196736
 30
0.0
 11
8069.436651267341
 21
9857.11935196736
 31
0.0
  0
LINE
  5
17DA0
330
747D
100
AcDbEntity
  8
部品1
100
AcDbLine
 10
8124.436651267341
 20
9912.119351967357
 30
0.0
 11
8124.436651267341
 21
9884.119351967356
 31
0.0
  0
LINE
  5
17DA1
330
747D
100
AcDbEntity
  8
部品1
100
AcDbLine
 10
8124.436651267373
 20
9912.11935196739
 30
0.0
 11
8124.436651267373
 21
9884.11935196739
 31
0.0
  0
LINE
  5
17DA2
330
747D
100
AcDbEntity
  8
部品1
100
AcDbLine
 10
8544.436651267341
 20
9912.119351967357
 30
0.0
 11
8544.436651267341
 21
9884.119351967356
 31
0.0
  0
LINE
  5
17DA3
330
747D
100
AcDbEntity
  8
部品1
100
AcDbLine
 10
8964.436651267339
 20
9912.119351967357
 30
0.0
 11
8964.436651267339
 21
9884.119351967356
 31
0.0
  0
LINE
  5
17DA4
330
747D
100
AcDbEntity
  8
部品1
 48
50.0
100
AcDbLine
 10
9606.936651267375
 20
9884.119351967495
 30
0.0
 11
9606.936651267375
 21
9432.119351967495
 31
0.0
  0
LINE
  5
17DA5
330
747D
100
AcDbEntity
  8
部品1
 48
50.0
100
AcDbLine
 10
9581.936651267374
 20
9884.119351967498
 30
0.0
 11
9581.936651267374
 21
9432.119351967495
 31
0.0
  0
LINE
  5
17DA6
330
747D
100
AcDbEntity
  8
部品1
 48
50.0
100
AcDbLine
 10
9607.936651267372
 20
9882.119351967489
 30
0.0
 11
9607.936651267372
 21
9432.119351967495
 31
0.0
  0
LINE
  5
17DA7
330
747D
100
AcDbEntity
  8
部品1
 48
50.0
100
AcDbLine
 10
9580.936651267373
 20
9882.119351967491
 30
0.0
 11
9580.936651267373
 21
9432.119351967495
 31
0.0
  0
LINE
  5
17DA8
330
747D
100
AcDbEntity
  8
部品1
100
AcDbLine
 10
9581.936651267374
 20
9432.119351967495
 30
0.0
 11
9606.936651267375
 21
9432.119351967495
 31
0.0
  0
LINE
  5
17DA9
330
747D
100
AcDbEntity
  8
部品1
100
AcDbLine
 10
9384.436651267341
 20
9912.119351967357
 30
0.0
 11
9384.436651267341
 21
9884.119351967356
 31
0.0
  0
LINE
  5
17DAA
330
747D
100
AcDbEntity
  8
部品1
100
AcDbLine
 10
9581.936651267374
 20
9876.119351967489
 30
0.0
 11
9606.936651267375
 21
9876.11935196749
 31
0.0
  0
LINE
  5
17DAB
330
747D
100
AcDbEntity
  8
部品1
100
AcDbLine
 10
9623.436651267374
 20
9902.119351967492
 30
0.0
 11
9629.436651267374
 21
9902.119351967492
 31
0.0
  0
LINE
  5
17DAC
330
747D
100
AcDbEntity
  8
部品1
100
AcDbLine
 10
9629.436651267374
 20
9902.119351967492
 30
0.0
 11
9629.436651267374
 21
9884.119351967491
 31
0.0
  0
LINE
  5
17DAD
330
747D
100
AcDbEntity
  8
部品1
100
AcDbLine
 10
9559.436651267374
 20
9902.119351967492
 30
0.0
 11
9565.436651267374
 21
9902.119351967492
 31
0.0
  0
LINE
  5
17DAE
330
747D
100
AcDbEntity
  8
部品1
100
AcDbLine
 10
9559.436651267374
 20
9902.119351967492
 30
0.0
 11
9559.436651267374
 21
9884.119351967491
 31
0.0
  0
LINE
  5
17DAF
330
747D
100
AcDbEntity
  8
部品1
100
AcDbLine
 10
9804.436651267341
 20
9912.119351967357
 30
0.0
 11
9804.436651267341
 21
9884.119351967356
 31
0.0
  0
LINE
  5
17DB0
330
747D
100
AcDbEntity
  8
部品1
100
AcDbLine
 10
10224.43665126734
 20
9912.119351967357
 30
0.0
 11
10224.43665126734
 21
9884.119351967356
 31
0.0
  0
LINE
  5
17DB1
330
747D
100
AcDbEntity
  8
部品1
100
AcDbLine
 10
11091.43665126737
 20
9437.119351967487
 30
0.0
 11
11091.43665126735
 21
7310.119351967476
 31
0.0
  0
LINE
  5
17DB2
330
747D
100
AcDbEntity
  8
部品1
100
AcDbLine
 10
11062.93665126736
 20
9432.119351967488
 30
0.0
 11
11062.93665126737
 21
7338.619351967476
 31
0.0
  0
LINE
  5
17DB3
330
747D
100
AcDbEntity
  8
部品1
100
AcDbLine
 10
11119.43665126737
 20
9912.119351967483
 30
0.0
 11
11119.43665126735
 21
7282.119351967477
 31
0.0
  0
DIMENSION
  5
17DB4
330
747D
100
AcDbEntity
  8
寸法
100
AcDbDimension
  2
*D14
 10
11819.43665126736
 20
7337.119351967473
 30
0.0
 11
11819.43665126736
 21
8597.11935196748
 31
0.0
 70
   160
  1
6X420=<>
 71
     5
 42
2520.000000000014
  3
INABA_S40G
100
AcDbAlignedDimension
 13
11119.43665126737
 23
9857.119351967488
 33
0.0
 14
11119.43665126735
 24
7337.119351967473
 34
0.0
 50
90.0
100
AcDbRotatedDimension
1001
ACAD
1000
DSTYLE
1002
{
1002
}
  0
LINE
  5
17DB5
330
747D
100
AcDbEntity
  8
破線
 48
10.0
100
AcDbLine
 10
11039.43665126737
 20
9432.119351967488
 30
0.0
 11
11039.43665126738
 21
7362.119351967473
 31
0.0
  0
DIMENSION
  5
17DB6
330
747D
100
AcDbEntity
  8
寸法
100
AcDbDimension
  2
*D15
 10
12119.43665126737
 20
7282.119351967477
 30
0.0
 11
12119.43665126737
 21
8597.11935196748
 31
0.0
 70
   160
 71
     5
 42
2630.000000000006
  3
INABA_S40G
100
AcDbAlignedDimension
 13
11119.43665126737
 23
9912.119351967483
 33
0.0
 14
11119.43665126735
 24
7282.119351967477
 34
0.0
 50
90.0
100
AcDbRotatedDimension
1001
ACAD
1000
DSTYLE
1002
{
1002
}
  0
DIMENSION
  5
17DB7
330
747D
100
AcDbEntity
  8
寸法
100
AcDbDimension
  2
*D16
 10
11819.43665126735
 20
7282.119351967477
 30
0.0
 11
11819.43665126735
 21
6973.634070593236
 31
0.0
 70
   160
 71
     5
 42
54.99999999999636
  3
INABA_S40G
100
AcDbAlignedDimension
 13
11119.43665126735
 23
7337.119351967473
 33
0.0
 14
11119.43665126735
 24
7282.119351967477
 34
0.0
 50
90.0
100
AcDbRotatedDimension
1001
ACAD
1000
DSTYLE
1002
{
1002
}
  0
LINE
  5
17DB8
330
747D
100
AcDbEntity
  8
部品1
100
AcDbLine
 10
11119.43665126735
 20
7282.119351967477
 30
0.0
 11
10644.43665126737
 21
7282.119351967462
 31
0.0
  0
LINE
  5
17DBA
330
747D
100
AcDbEntity
  8
部品1
100
AcDbLine
 10
10644.43665126737
 20
7282.119351967477
 30
0.0
 11
10644.43665126737
 21
7310.119351967476
 31
0.0
  0
LINE
  5
17DBB
330
747D
100
AcDbEntity
  8
部品1
100
AcDbLine
 10
11064.43665126737
 20
7282.119351967477
 30
0.0
 11
11064.43665126737
 21
7310.119351967476
 31
0.0
  0
LINE
  5
17DBC
330
747D
100
AcDbEntity
  8
部品1
100
AcDbLine
 10
11091.43665126737
 20
7337.119351967473
 30
0.0
 11
11119.43665126737
 21
7337.119351967473
 31
0.0
  0
LINE
  5
17DBD
330
747D
100
AcDbEntity
  8
部品1
100
AcDbLine
 10
11119.43665126735
 20
7337.119351967473
 30
0.0
 11
11119.43665126735
 21
7282.119351967477
 31
0.0
  0
LINE
  5
17DBE
330
747D
100
AcDbEntity
  8
部品1
 48
50.0
100
AcDbLine
 10
11062.93665126737
 20
7338.619351967476
 30
0.0
 11
11091.43665126737
 21
7310.119351967476
 31
0.0
  0
LINE
  5
17DBF
330
747D
100
AcDbEntity
  8
部品1
100
AcDbLine
 10
11119.43665126735
 20
7282.119351967477
 30
0.0
 11
11068.43665126735
 21
7282.119351967477
 31
0.0
  0
LINE
  5
17DC0
330
747D
100
AcDbEntity
  8
部品1
100
AcDbLine
 10
11091.43665126735
 20
7337.119351967473
 30
0.0
 11
11119.43665126735
 21
7337.119351967473
 31
0.0
  0
LINE
  5
17DC1
330
747D
100
AcDbEntity
  8
部品1
100
AcDbLine
 10
11091.43665126737
 20
9017.119351967487
 30
0.0
 11
11119.43665126737
 21
9017.119351967487
 31
0.0
  0
DIMENSION
  5
17DC2
330
747D
100
AcDbEntity
  8
寸法
100
AcDbDimension
  2
*D17
 10
11819.43665126737
 20
9857.119351967488
 30
0.0
 11
11819.43665126737
 21
10220.60463334172
 31
0.0
 70
   160
 71
     5
 42
54.99999999999636
  3
INABA_S40G
100
AcDbAlignedDimension
 13
11119.43665126737
 23
9912.119351967483
 33
0.0
 14
11119.43665126737
 24
9857.119351967488
 34
0.0
 50
90.0
100
AcDbRotatedDimension
1001
ACAD
1000
DSTYLE
1002
{
1002
}
  0
DIMENSION
  5
17DC3
330
747D
100
AcDbEntity
  8
寸法
100
AcDbDimension
  2
*D18
 10
11119.43665126737
 20
10212.11935196748
 30
0.0
 11
11427.92193264161
 21
10212.11935196748
 31
0.0
 70
   160
 71
     5
 42
55.0
  3
INABA_S40G
100
AcDbAlignedDimension
 13
11064.43665126737
 23
9912.119351967483
 33
0.0
 14
11119.43665126737
 24
9912.119351967483
 34
0.0
100
AcDbRotatedDimension
1001
ACAD
1000
DSTYLE
1002
{
1002
}
  0
DIMENSION
  5
17DC4
330
747D
100
AcDbEntity
  8
寸法
100
AcDbDimension
  2
*D19
 10
11519.43665126737
 20
9317.303123010752
 30
0.0
 11
11519.43665126737
 21
9542.30312301075
 31
0.0
 70
   160
 71
     5
 42
449.9999999999963
  3
INABA_S40G
100
AcDbAlignedDimension
 13
11090.93665126737
 23
9882.119351967483
 33
0.0
 14
11090.93665126737
 24
9432.119351967488
 34
0.0
 50
90.0
100
AcDbRotatedDimension
1001
ACAD
1000
DSTYLE
1002
{
1002
}
  0
LINE
  5
17DC5
330
747D
100
AcDbEntity
  8
部品1
100
AcDbLine
 10
11090.93665126737
 20
9882.119351967483
 30
0.0
 11
11090.93665126737
 21
9432.119351967488
 31
0.0
  0
LINE
  5
17DC6
330
747D
100
AcDbEntity
  8
部品1
100
AcDbLine
 10
11091.43665126737
 20
9884.119351967484
 30
0.0
 11
11091.43665126737
 21
9431.619351967361
 31
0.0
  0
LINE
  5
17DC7
330
747D
100
AcDbEntity
  8
部品1
100
AcDbLine
 10
11091.43665126737
 20
9437.119351967487
 30
0.0
 11
11119.43665126737
 21
9437.119351967487
 31
0.0
  0
LINE
  5
17DC8
330
747D
100
AcDbEntity
  8
部品1
100
AcDbLine
 10
10644.43665126734
 20
9912.119351967357
 30
0.0
 11
10644.43665126734
 21
9884.119351967356
 31
0.0
  0
LINE
  5
17DC9
330
747D
100
AcDbEntity
  8
部品1
100
AcDbLine
 10
11091.43665126737
 20
9857.119351967488
 30
0.0
 11
11119.43665126737
 21
9857.119351967488
 31
0.0
  0
LINE
  5
17DCA
330
747D
100
AcDbEntity
  8
部品1
100
AcDbLine
 10
11064.43665126737
 20
9912.119351967483
 30
0.0
 11
11064.43665126737
 21
9884.119351967484
 31
0.0
  0
LINE
  5
17DCB
330
747D
100
AcDbEntity
  8
部品1
100
AcDbLine
 10
11064.43665126737
 20
9912.119351967506
 30
0.0
 11
11064.43665126737
 21
9884.119351967505
 31
0.0
  0
TEXT
  5
17DCC
330
747D
100
AcDbEntity
  8
文字
 62
     7
 48
50.0
100
AcDbText
 10
14491.96323844892
 20
483.8967129911416
 30
0.0
 40
160.0
  1
ＮＸＮ－８０ＨＢ
  7
STYLE2
100
AcDbText
  0
TEXT
  5
17DCD
330
747D
100
AcDbEntity
  8
文字
 62
     7
 48
50.0
100
AcDbText
 10
13209.4053442172
 20
228.5435242569015
 30
0.0
 40
100.0
  1
○有効開口寸法 ： 1266×2025(mm)
  7
STYLE2
100
AcDbText
  0
DIMENSION
  5
17DCE
330
747D
100
AcDbEntity
  8
寸法
 48
50.0
100
AcDbDimension
  2
*D20
 10
8069.43665126738
 20
4558.690115543137
 30
0.0
 11
9639.495025826793
 21
4558.690115543137
 31
0.0
 70
   160
  1
柱外寸法<>
 71
     5
 42
3049.999999999997
  3
INABA_S40G
100
AcDbAlignedDimension
 13
11119.43665126738
 23
4106.843341575486
 33
0.0
 14
8069.43665126738
 24
4156.034280086807
 34
0.0
100
AcDbRotatedDimension
1001
ACAD
1000
DSTYLE
1002
{
1070
   174
1070
     0
1070
   272
1070
     1
1070
   288
1070
     0
1070
   341
1005
0
1002
}
  0
DIMENSION
  5
17DCF
330
747D
100
AcDbEntity
  8
寸法
 48
50.0
100
AcDbDimension
  2
*D21
 10
8009.43665126738
 20
4788.803708329413
 30
0.0
 11
9681.142457576905
 21
4788.803708329413
 31
0.0
 70
   160
 71
     5
 42
3189.999999999996
  3
INABA_S40G
100
AcDbAlignedDimension
 13
11199.43665126738
 23
4105.032661963832
 33
0.0
 14
8009.43665126738
 24
4160.032661963835
 34
0.0
100
AcDbRotatedDimension
1001
ACAD
1000
DSTYLE
1002
{
1070
   174
1070
     0
1070
   272
1070
     1
1070
   288
1070
     0
1070
   341
1005
0
1002
}
  0
DIMENSION
  5
17DD0
330
747D
100
AcDbEntity
  8
寸法
 48
50.0
100
AcDbDimension
  2
*D22
 10
11199.43665126738
 20
4558.690115543137
 30
0.0
 11
11405.48389536186
 21
4558.690115543137
 31
0.0
 70
   160
 71
     5
 42
80.0
  3
INABA_S40G
100
AcDbAlignedDimension
 13
11119.43665126738
 23
4106.843341575486
 33
0.0
 14
11199.43665126738
 24
4105.032661963835
 34
0.0
100
AcDbRotatedDimension
1001
ACAD
1000
DSTYLE
1002
{
1070
   174
1070
     0
1070
   272
1070
     1
1070
   288
1070
     0
1070
   341
1005
0
1002
}
  0
DIMENSION
  5
17DD1
330
747D
100
AcDbEntity
  8
寸法
 48
50.0
100
AcDbDimension
  2
*D23
 10
8009.43665126738
 20
4558.690115543135
 30
0.0
 11
7699.79885599179
 21
4558.690115543135
 31
0.0
 70
   160
 71
     5
 42
60.0
  3
INABA_S40G
100
AcDbAlignedDimension
 13
8069.43665126738
 23
4156.034280086807
 33
0.0
 14
8009.43665126738
 24
4160.032661963835
 34
0.0
100
AcDbRotatedDimension
1001
ACAD
1000
DSTYLE
1002
{
1070
   174
1070
     0
1070
   272
1070
     1
1070
   288
1070
     0
1070
   341
1005
0
1002
}
  0
DIMENSION
  5
17DD2
330
747D
100
AcDbEntity
  8
寸法
 48
50.0
100
AcDbDimension
  2
*D24
 10
7448.828244499011
 20
4034.377920837162
 30
0.0
 11
7459.493719757936
 21
4405.22458407886
 31
0.0
 70
   161
 71
     5
 42
141.0
  3
INABA_S40G
100
AcDbAlignedDimension
 13
8028.832671425959
 23
4158.75541079851
 33
0.0
 14
8024.779215869335
 24
4017.813687032798
 34
0.0
1001
ACAD
1000
DSTYLE
1002
{
1070
   174
1070
     0
1070
   272
1070
     1
1070
   288
1070
     0
1070
   341
1005
0
1002
}
  0
LINE
  5
17DD3
330
747D
100
AcDbEntity
  8
部品1
100
AcDbLine
 10
9447.949923790893
 20
4285.237049926848
 30
0.0
 11
9773.40493743393
 21
4267.718990967988
 31
0.0
  0
LINE
  5
17DD4
330
747D
100
AcDbEntity
  8
部品1
 48
50.0
100
AcDbLine
 10
9473.404937433931
 20
4283.918990967988
 30
0.0
 11
9773.40493743393
 21
4283.918990967988
 31
0.0
  0
LINE
  5
17DD5
330
747D
100
AcDbEntity
  8
部品1
 48
50.0
100
AcDbLine
 10
9773.40493743393
 20
4283.918990967988
 30
0.0
 11
9773.40493743393
 21
4267.718990967988
 31
0.0
  0
TEXT
  5
17DD6
330
747D
100
AcDbEntity
  8
部品1
 48
50.0
100
AcDbText
 10
9461.672772657657
 20
4319.803013120421
 30
0.0
 40
120.0
  1
1000
  7
STYLE1
100
AcDbText
  0
TEXT
  5
17DD7
330
747D
100
AcDbEntity
  8
部品1
 48
50.0
100
AcDbText
 10
9939.305795322747
 20
4182.301754902138
 30
0.0
 40
120.0
  1
32
 50
90.0
  7
STYLE1
100
AcDbText
  0
LINE
  5
17DD8
330
747D
100
AcDbEntity
  8
細線
 48
50.0
100
AcDbLine
 10
8015.23654960548
 20
4038.188232107328
 30
0.0
 11
11185.24021403612
 21
3998.378913132836
 31
0.0
  0
LINE
  5
17DD9
330
747D
100
AcDbEntity
  8
細線
 48
50.0
100
AcDbLine
 10
8010.476074368195
 20
4131.049743805193
 30
0.0
 11
11196.11205911336
 21
4075.425539164363
 31
0.0
  0
LINE
  5
17DDA
330
747D
100
AcDbEntity
  8
部品1
100
AcDbLine
 10
8024.779215869335
 20
4017.813687032798
 30
0.0
 11
11174.10035180723
 21
3978.785261798592
 31
0.0
  0
LINE
  5
17DDB
330
747D
100
AcDbEntity
  8
部品1
100
AcDbLine
 10
8016.981637624343
 20
4158.750397298097
 30
0.0
 11
11192.04852812885
 21
4103.673459672969
 31
0.0
  0
ARC
  5
17DDC
330
747D
100
AcDbEntity
  8
部品1
100
AcDbCircle
 10
8015.473743138747
 20
4038.846820922736
 30
0.0
 40
0.7
100
AcDbArc
 50
181.0932240292635
 51
260.1877540314855
  0
ARC
  5
17DDD
330
747D
100
AcDbEntity
  8
部品1
100
AcDbCircle
 10
8010.701069541138
 20
4131.712599122852
 30
0.0
 40
0.7
100
AcDbArc
 50
181.0932240292114
 51
260.1877540314855
  0
ARC
  5
17DDE
330
747D
100
AcDbEntity
  8
部品1
100
AcDbCircle
 10
8010.070515138115
 20
4128.066724585456
 30
0.0
 40
3.0
100
AcDbArc
 50
1.093224029315636
 51
80.18775403169708
  0
ARC
  5
17DDF
330
747D
100
AcDbEntity
  8
部品1
100
AcDbCircle
 10
8014.843188735722
 20
4035.200946385337
 30
0.0
 40
3.0
100
AcDbArc
 50
1.093224029315636
 51
80.18775403169708
  0
ARC
  5
17DE0
330
747D
100
AcDbEntity
  8
部品1
 48
50.0
100
AcDbCircle
 10
8025.043321110922
 20
4024.808703002856
 30
0.0
 40
7.0
100
AcDbArc
 50
181.0932240293156
 51
267.8377559869488
  0
ARC
  5
17DE1
330
747D
100
AcDbEntity
  8
部品1
 48
50.0
100
AcDbCircle
 10
8016.619663008826
 20
4151.759762535951
 30
0.0
 40
7.0
100
AcDbArc
 50
87.03587545283093
 51
181.0932240293156
  0
LINE
  5
17DE2
330
747D
100
AcDbEntity
  8
部品1
 48
50.0
100
AcDbLine
 10
8017.84264266215
 20
4035.25818398852
 30
0.0
 11
8018.044595282583
 21
4024.675148595428
 31
0.0
  0
LINE
  5
17DE3
330
747D
100
AcDbEntity
  8
部品1
 48
50.0
100
AcDbLine
 10
8013.069969064545
 20
4128.12396218864
 30
0.0
 11
8014.773870555909
 21
4038.833465481991
 31
0.0
  0
LINE
  5
17DE4
330
747D
100
AcDbEntity
  8
部品1
 48
50.0
100
AcDbLine
 10
8009.620937180487
 20
4151.626208128524
 30
0.0
 11
8010.001196958299
 21
4131.699243682112
 31
0.0
  0
LINE
  5
17DE5
330
747D
100
AcDbEntity
  8
細線
 48
50.0
100
AcDbLine
 10
8042.436651267381
 20
4157.432338339236
 30
0.0
 11
8037.147549711873
 21
4017.346705711881
 31
0.0
  0
ARC
  5
17DE6
330
747D
100
AcDbEntity
  8
部品1
100
AcDbCircle
 10
11185.06418708132
 20
3999.056419229624
 30
0.0
 40
0.7
100
AcDbArc
 50
275.0921697642102
 51
354.186699766712
  0
ARC
  5
17DE7
330
747D
100
AcDbEntity
  8
部品1
100
AcDbCircle
 10
11195.92353283064
 20
4076.099674047547
 30
0.0
 40
0.7
100
AcDbArc
 50
275.0921697642102
 51
354.1866997665565
  0
ARC
  5
17DE8
330
747D
100
AcDbEntity
  8
部品1
100
AcDbCircle
 10
11196.25193807324
 20
4072.414277190459
 30
0.0
 40
3.0
100
AcDbArc
 50
95.0921697642102
 51
174.1866997665564
  0
ARC
  5
17DE9
330
747D
100
AcDbEntity
  8
部品1
100
AcDbCircle
 10
11185.39259232392
 20
3995.371022372534
 30
0.0
 40
3.0
100
AcDbArc
 50
95.0921697642102
 51
174.1866997665564
  0
ARC
  5
17DEA
330
747D
100
AcDbEntity
  8
部品1
 48
50.0
100
AcDbCircle
 10
11174.36445704881
 20
3985.780277768652
 30
0.0
 40
7.0
100
AcDbArc
 50
267.8377559869488
 51
354.1866997665565
  0
ARC
  5
17DEB
330
747D
100
AcDbEntity
  8
部品1
 48
50.0
100
AcDbCircle
 10
11191.68655351333
 20
4096.682824910826
 30
0.0
 40
7.0
100
AcDbArc
 50
354.1866997665565
 51
87.03587545283093
  0
LINE
  5
17DEC
330
747D
100
AcDbEntity
  8
部品1
 48
50.0
100
AcDbLine
 10
11182.40802065331
 20
3995.674884089437
 30
0.0
 11
11181.32845761357
 21
3985.071267095879
 31
0.0
  0
LINE
  5
17DED
330
747D
100
AcDbEntity
  8
部品1
 48
50.0
100
AcDbLine
 10
11193.26736640263
 20
4072.718138907361
 30
0.0
 11
11185.76058713779
 21
3998.98551816235
 31
0.0
  0
LINE
  5
17DEE
330
747D
100
AcDbEntity
  8
部品1
 48
50.0
100
AcDbLine
 10
11198.65055407808
 20
4095.97381423805
 30
0.0
 11
11196.61993288711
 21
4076.028772980269
 31
0.0
  0
LINE
  5
17DEF
330
747D
100
AcDbEntity
  8
細線
 48
50.0
100
AcDbLine
 10
11166.40593446107
 20
4104.186084443299
 30
0.0
 11
11161.68896837938
 21
3979.253868508384
 31
0.0
  0
DIMENSION
  5
17DF0
330
747D
100
AcDbEntity
  8
寸法
 48
50.0
100
AcDbDimension
  2
*D25
 10
7776.963961687989
 20
1843.032661963827
 30
0.0
 11
7776.963961687989
 21
2855.532661963829
 31
0.0
 70
   160
  1
有効開口部高サ<>
 71
     5
 42
2025.000000000001
  3
INABA_S40G
100
AcDbAlignedDimension
 13
8517.436651267383
 23
3868.032661963828
 33
0.0
 14
8517.436651267383
 24
1843.032661963827
 34
0.0
 50
90.0
100
AcDbRotatedDimension
  0
DIMENSION
  5
17DF1
330
747D
100
AcDbEntity
  8
寸法
 48
50.0
100
AcDbDimension
  2
*D26
 10
7448.828244499008
 20
4034.377920837156
 30
0.0
 11
7459.493719757934
 21
4405.224584078868
 31
0.0
 70
   161
 71
     5
 42
141.0000000000018
  3
INABA_S40G
100
AcDbAlignedDimension
 13
8028.832671425959
 23
4158.755410798508
 33
0.0
 14
8024.779215869335
 24
4017.813687032793
 34
0.0
1001
ACAD
1000
DSTYLE
1002
{
1070
   174
1070
     0
1070
   272
1070
     1
1070
   288
1070
     0
1070
   341
1005
0
1002
}
  0
DIMENSION
  5
17DF2
330
747D
100
AcDbEntity
  8
寸法
100
AcDbDimension
  2
*D27
 10
7160.797269338022
 20
4160.032661963834
 30
0.0
 11
7160.79726933802
 21
2855.532661963829
 31
0.0
 70
   160
 71
     5
 42
2375.000000000005
  3
INABA_S40G
100
AcDbAlignedDimension
 13
8069.43665126738
 23
1785.032661963828
 33
0.0
 14
8009.43665126738
 24
4160.032661963834
 34
0.0
 50
90.0
100
AcDbRotatedDimension
1001
ACAD
1000
DSTYLE
1002
{
1070
   174
1070
     0
1070
   272
1070
     1
1070
   288
1070
     0
1070
   341
1005
0
1002
}
  0
DIMENSION
  5
17DF3
330
747D
100
AcDbEntity
  8
寸法
100
AcDbDimension
  2
*D28
 10
7445.783942109082
 20
1835.032661963828
 30
0.0
 11
7445.783942109082
 21
2855.532661963829
 31
0.0
 70
   160
 71
     5
 42
2090.0
  3
INABA_S40G
100
AcDbAlignedDimension
 13
8069.43665126738
 23
3925.032661963828
 33
0.0
 14
8069.43665126738
 24
1835.032661963828
 34
0.0
 50
90.0
100
AcDbRotatedDimension
1001
ACAD
1000
DSTYLE
1002
{
1070
   174
1070
     0
1070
   272
1070
     1
1070
   288
1070
     0
1070
   341
1005
0
1002
}
  0
DIMENSION
  5
17DF4
330
747D
100
AcDbEntity
  8
寸法
100
AcDbDimension
  2
*D29
 10
7445.783942109084
 20
1785.032661963828
 30
0.0
 11
7445.783942109084
 21
1478.985417869338
 31
0.0
 70
   160
 71
     5
 42
50.0
  3
INABA_S40G
100
AcDbAlignedDimension
 13
8069.43665126738
 23
1835.032661963828
 33
0.0
 14
8014.436651267381
 24
1785.032661963828
 34
0.0
 50
90.0
100
AcDbRotatedDimension
1001
ACAD
1000
DSTYLE
1002
{
1070
   174
1070
     0
1070
   272
1070
     1
1070
   288
1070
     0
1070
   341
1005
0
1002
}
  0
DIMENSION
  5
17DF5
330
747D
100
AcDbEntity
  8
寸法
100
AcDbDimension
  2
*D30
 10
7160.797269338022
 20
1685.032661963828
 30
0.0
 11
7160.797269338022
 21
1448.985417869337
 31
0.0
 70
   160
 71
     5
 42
100.0000000000002
  3
INABA_S40G
100
AcDbAlignedDimension
 13
8014.436651267381
 23
1785.032661963828
 33
0.0
 14
7445.783942109084
 24
1685.032661963828
 34
0.0
 50
90.0
100
AcDbRotatedDimension
1001
ACAD
1000
DSTYLE
1002
{
1070
   174
1070
     0
1070
   272
1070
     1
1070
   288
1070
     0
1070
   341
1005
0
1002
}
  0
LINE
  5
17DF6
330
747D
100
AcDbEntity
  8
部品1
 48
50.0
100
AcDbLine
 10
9351.436651267375
 20
3868.032661988595
 30
0.0
 11
9351.436651267373
 21
1835.032661963823
 31
0.0
  0
LINE
  5
17DF7
330
747D
100
AcDbEntity
  8
部品1
100
AcDbLine
 10
10005.43664157223
 20
3868.032662000979
 30
0.0
 11
10005.43664157223
 21
1842.532662000993
 31
0.0
  0
LINE
  5
17DF8
330
747D
100
AcDbEntity
  8
細線
100
AcDbLine
 10
9251.436651267377
 20
3868.032661963827
 30
0.0
 11
9251.436651267374
 21
1835.032661963834
 31
0.0
  0
LINE
  5
17DF9
330
747D
100
AcDbEntity
  8
細線
100
AcDbLine
 10
9181.436651267377
 20
3868.032661963827
 30
0.0
 11
9181.436651267373
 21
1835.032661963834
 31
0.0
  0
LINE
  5
17DFA
330
747D
100
AcDbEntity
  8
細線
100
AcDbLine
 10
9111.436651267377
 20
3868.032661963827
 30
0.0
 11
9111.436651267373
 21
1835.032661963831
 31
0.0
  0
LINE
  5
17DFB
330
747D
100
AcDbEntity
  8
細線
100
AcDbLine
 10
9041.436651267376
 20
3868.032661963827
 30
0.0
 11
9041.436651267373
 21
1835.032661963831
 31
0.0
  0
LINE
  5
17DFC
330
747D
100
AcDbEntity
  8
細線
100
AcDbLine
 10
8971.436651267378
 20
3868.032661963827
 30
0.0
 11
8971.436651267373
 21
1835.032661963831
 31
0.0
  0
LINE
  5
17DFD
330
747D
100
AcDbEntity
  8
細線
100
AcDbLine
 10
8901.436651267378
 20
3868.032661963827
 30
0.0
 11
8901.436651267372
 21
1835.032661963831
 31
0.0
  0
LINE
  5
17DFE
330
747D
100
AcDbEntity
  8
部品1
100
AcDbLine
 10
8717.436651267373
 20
3868.032661963827
 30
0.0
 11
8717.436651267377
 21
1835.032661963831
 31
0.0
  0
LINE
  5
17DFF
330
747D
100
AcDbEntity
  8
部品1
100
AcDbLine
 10
8667.436651267372
 20
3868.032661963827
 30
0.0
 11
8667.436651267378
 21
1835.032661963831
 31
0.0
  0
LINE
  5
17E00
330
747D
100
AcDbEntity
  8
細線
100
AcDbLine
 10
8709.436651267372
 20
3868.032661963827
 30
0.0
 11
8709.436651267377
 21
1835.032661963831
 31
0.0
  0
LINE
  5
17E01
330
747D
100
AcDbEntity
  8
細線
100
AcDbLine
 10
8675.436651267373
 20
3868.032661963827
 30
0.0
 11
8675.436651267377
 21
1835.032661963831
 31
0.0
  0
LINE
  5
17E02
330
747D
100
AcDbEntity
  8
細線
100
AcDbLine
 10
9902.936661017621
 20
3868.032661963827
 30
0.0
 11
9902.936661017621
 21
1842.532661963838
 31
0.0
  0
LINE
  5
17E03
330
747D
100
AcDbEntity
  8
細線
100
AcDbLine
 10
9832.936661017621
 20
3868.032661963827
 30
0.0
 11
9832.936661017621
 21
1842.532661963838
 31
0.0
  0
LINE
  5
17E04
330
747D
100
AcDbEntity
  8
細線
100
AcDbLine
 10
9762.93666101762
 20
3868.032661963827
 30
0.0
 11
9762.93666101762
 21
1842.532661963838
 31
0.0
  0
LINE
  5
17E05
330
747D
100
AcDbEntity
  8
細線
100
AcDbLine
 10
9692.93666101762
 20
3868.032661963827
 30
0.0
 11
9692.93666101762
 21
1842.532661963838
 31
0.0
  0
LINE
  5
17E06
330
747D
100
AcDbEntity
  8
細線
100
AcDbLine
 10
9622.93666101762
 20
3868.032661963827
 30
0.0
 11
9622.93666101762
 21
1842.532661963838
 31
0.0
  0
LINE
  5
17E07
330
747D
100
AcDbEntity
  8
細線
100
AcDbLine
 10
9552.936661017621
 20
3868.032661963827
 30
0.0
 11
9552.936661017621
 21
1842.532661963838
 31
0.0
  0
LINE
  5
17E08
330
747D
100
AcDbEntity
  8
細線
100
AcDbLine
 10
10478.18665126738
 20
3868.032661963827
 30
0.0
 11
10478.18665126738
 21
1842.532661963845
 31
0.0
  0
LINE
  5
17E09
330
747D
100
AcDbEntity
  8
細線
100
AcDbLine
 10
10408.18665126738
 20
3868.032661963827
 30
0.0
 11
10408.18665126738
 21
1842.532661963845
 31
0.0
  0
LINE
  5
17E0A
330
747D
100
AcDbEntity
  8
細線
100
AcDbLine
 10
10338.18665126738
 20
3868.032661963827
 30
0.0
 11
10338.18665126738
 21
1842.532661963845
 31
0.0
  0
LINE
  5
17E0B
330
747D
100
AcDbEntity
  8
細線
100
AcDbLine
 10
10268.18665126738
 20
3868.032661963827
 30
0.0
 11
10268.18665126738
 21
1842.532661963845
 31
0.0
  0
LINE
  5
17E0C
330
747D
100
AcDbEntity
  8
細線
100
AcDbLine
 10
10198.18665126738
 20
3868.032661963827
 30
0.0
 11
10198.18665126738
 21
1842.532661963845
 31
0.0
  0
LINE
  5
17E0D
330
747D
100
AcDbEntity
  8
細線
100
AcDbLine
 10
8831.436651267377
 20
3868.032661963827
 30
0.0
 11
8831.436651267372
 21
1835.032661963831
 31
0.0
  0
LINE
  5
17E0E
330
747D
100
AcDbEntity
  8
細線
100
AcDbLine
 10
8761.436651267377
 20
3868.032661963827
 30
0.0
 11
8761.436651267374
 21
1835.032661963831
 31
0.0
  0
LINE
  5
17E0F
330
747D
100
AcDbEntity
  8
細線
100
AcDbLine
 10
9482.936661017621
 20
3868.032661963827
 30
0.0
 11
9482.936661017621
 21
1842.532661963838
 31
0.0
  0
LINE
  5
17E10
330
747D
100
AcDbEntity
  8
細線
100
AcDbLine
 10
9412.936661017621
 20
3868.032661963827
 30
0.0
 11
9412.936661017621
 21
1842.532661963838
 31
0.0
  0
LINE
  5
17E11
330
747D
100
AcDbEntity
  8
細線
100
AcDbLine
 10
10128.18665126738
 20
3868.032661963827
 30
0.0
 11
10128.18665126738
 21
1842.532661963845
 31
0.0
  0
LINE
  5
17E12
330
747D
100
AcDbEntity
  8
部品1
 48
50.0
100
AcDbLine
 10
10005.43664157224
 20
3868.032662000974
 30
0.0
 11
10005.43664157224
 21
1842.532662000974
 31
0.0
  0
LINE
  5
17E13
330
747D
100
AcDbEntity
  8
部品1
 48
50.0
100
AcDbLine
 10
10671.43665126737
 20
1785.032661963827
 30
0.0
 11
10671.43665126737
 21
3920.032661963828
 31
0.0
  0
LINE
  5
17E14
330
747D
100
AcDbEntity
  8
細線
 48
50.0
100
AcDbLine
 10
10641.43665126737
 20
1785.032661963827
 30
0.0
 11
10641.43665126737
 21
3877.532661963827
 31
0.0
  0
LINE
  5
17E15
330
747D
100
AcDbEntity
  8
部品1
 48
50.0
100
AcDbLine
 10
10632.43665126738
 20
1832.032661963827
 30
0.0
 11
10632.43665126738
 21
3868.032661963827
 31
0.0
  0
LINE
  5
17E16
330
747D
100
AcDbEntity
  8
部品1
 48
50.0
100
AcDbLine
 10
9351.436651267375
 20
3868.032661988595
 30
0.0
 11
9351.436651267375
 21
1835.032661988594
 31
0.0
  0
LINE
  5
17E17
330
747D
100
AcDbEntity
  8
部品1
 48
50.0
100
AcDbLine
 10
8517.436651267377
 20
3920.032661963828
 30
0.0
 11
8517.436651267377
 21
1785.032661963827
 31
0.0
  0
LINE
  5
17E18
330
747D
100
AcDbEntity
  8
細線
 48
50.0
100
AcDbLine
 10
8547.436651267377
 20
3877.532661963827
 30
0.0
 11
8547.436651267377
 21
1785.032661963827
 31
0.0
  0
LINE
  5
17E19
330
747D
100
AcDbEntity
  8
部品1
 48
50.0
100
AcDbLine
 10
8547.436651267377
 20
1835.032661963827
 30
0.0
 11
8547.436651267377
 21
3868.032661963827
 31
0.0
  0
LINE
  5
17E33
330
747D
100
AcDbEntity
  8
部品1
 48
50.0
100
AcDbLine
 10
8591.436651267377
 20
2766.532661963827
 30
0.0
 11
8644.436651267376
 21
2766.532661963827
 31
0.0
  0
LINE
  5
17E37
330
747D
100
AcDbEntity
  8
細線
 48
50.0
100
AcDbLine
 10
10619.43665126737
 20
1832.032661963827
 30
0.0
 11
10615.43665126738
 21
1842.532661963827
 31
0.0
  0
LINE
  5
17E38
330
747D
100
AcDbEntity
  8
部品1
 48
50.0
100
AcDbLine
 10
8556.436651267377
 20
1835.032661963827
 30
0.0
 11
8556.436651267377
 21
1832.032661963827
 31
0.0
  0
LINE
  5
17E39
330
747D
100
AcDbEntity
  8
部品1
 48
50.0
100
AcDbLine
 10
8547.436651267377
 20
1835.032661963827
 30
0.0
 11
9351.436651267373
 21
1835.032661963823
 31
0.0
  0
LINE
  5
17E3A
330
747D
100
AcDbEntity
  8
細線
 48
50.0
100
AcDbLine
 10
9351.436651267375
 20
1842.532661963827
 30
0.0
 11
10615.43665126738
 21
1842.532661963827
 31
0.0
  0
LINE
  5
17E3B
330
747D
100
AcDbEntity
  8
細線
 48
50.0
100
AcDbLine
 10
8547.436651267377
 20
1832.032661963827
 30
0.0
 11
10641.43665126737
 21
1832.032661963827
 31
0.0
  0
LINE
  5
17E3C
330
747D
100
AcDbEntity
  8
細線
 48
50.0
100
AcDbLine
 10
8547.436651267377
 20
1828.032661963827
 30
0.0
 11
10641.43665126737
 21
1828.032661963827
 31
0.0
  0
LINE
  5
17E3D
330
747D
100
AcDbEntity
  8
部品1
 48
50.0
100
AcDbLine
 10
8517.436651267377
 20
1785.032661963827
 30
0.0
 11
10671.43665126737
 21
1785.032661963827
 31
0.0
  0
LINE
  5
17E3E
330
747D
100
AcDbEntity
  8
部品1
 48
50.0
100
AcDbLine
 10
8517.436651267377
 20
1785.032661963827
 30
0.0
 11
10671.43665126737
 21
1785.032661963827
 31
0.0
  0
LINE
  5
17E3F
330
747D
100
AcDbEntity
  8
部品1
 48
50.0
100
AcDbLine
 10
8547.436651267377
 20
3876.032661963827
 30
0.0
 11
8517.436651267377
 21
3876.032661963827
 31
0.0
  0
LINE
  5
17E40
330
747D
100
AcDbEntity
  8
細線
 48
50.0
100
AcDbLine
 10
10641.43665126737
 20
3877.532661963827
 30
0.0
 11
8547.436651267377
 21
3877.532661963827
 31
0.0
  0
LINE
  5
17E41
330
747D
100
AcDbEntity
  8
細線
 48
50.0
100
AcDbLine
 10
10641.43665126737
 20
3868.032661963827
 30
0.0
 11
8547.436651267377
 21
3868.032661963827
 31
0.0
  0
LINE
  5
17E42
330
747D
100
AcDbEntity
  8
細線
 48
50.0
100
AcDbLine
 10
10671.43665126737
 20
3910.032661963827
 30
0.0
 11
8517.436651267377
 21
3910.032661963827
 31
0.0
  0
LINE
  5
17E43
330
747D
100
AcDbEntity
  8
部品1
 48
50.0
100
AcDbLine
 10
10671.43665126737
 20
3920.032661963828
 30
0.0
 11
8517.436651267377
 21
3920.032661963828
 31
0.0
  0
LINE
  5
17E44
330
747D
100
AcDbEntity
  8
部品1
 48
50.0
100
AcDbLine
 10
10671.43665126737
 20
3876.032661963827
 30
0.0
 11
10641.43665126737
 21
3876.032661963827
 31
0.0
  0
LINE
  5
17E45
330
747D
100
AcDbEntity
  8
部品1
100
AcDbLine
 10
8544.43665126738
 20
3925.032661963827
 30
0.0
 11
8544.43665126738
 21
3920.032661963828
 31
0.0
  0
LINE
  5
17E46
330
747D
100
AcDbEntity
  8
部品1
 48
50.0
100
AcDbLine
 10
11064.43665126738
 20
1835.032661963827
 30
0.0
 11
11064.43665126738
 21
3925.032661963827
 31
0.0
  0
LINE
  5
17E47
330
747D
100
AcDbEntity
  8
細線
 48
50.0
100
AcDbLine
 10
10721.93665126739
 20
3925.032661963829
 30
0.0
 11
10721.93665126739
 21
1835.032661963827
 31
0.0
  0
LINE
  5
17E48
330
747D
100
AcDbEntity
  8
細線
 48
50.0
100
AcDbLine
 10
10706.93665126739
 20
3925.032661963829
 30
0.0
 11
10706.93665126739
 21
1835.032661963827
 31
0.0
  0
LINE
  5
17E49
330
747D
100
AcDbEntity
  8
細線
 48
50.0
100
AcDbLine
 10
10846.93665126739
 20
3925.032661963829
 30
0.0
 11
10846.93665126739
 21
1835.032661963827
 31
0.0
  0
LINE
  5
17E4A
330
747D
100
AcDbEntity
  8
細線
 48
50.0
100
AcDbLine
 10
10861.93665126739
 20
3925.032661963829
 30
0.0
 11
10861.93665126739
 21
1835.032661963827
 31
0.0
  0
LINE
  5
17E4B
330
747D
100
AcDbEntity
  8
細線
 48
50.0
100
AcDbLine
 10
11001.93665126739
 20
3925.032661963829
 30
0.0
 11
11001.93665126739
 21
1835.032661963827
 31
0.0
  0
LINE
  5
17E4C
330
747D
100
AcDbEntity
  8
細線
 48
50.0
100
AcDbLine
 10
10986.93665126739
 20
3925.032661963829
 30
0.0
 11
10986.93665126739
 21
1835.032661963827
 31
0.0
  0
LINE
  5
17E4D
330
747D
100
AcDbEntity
  8
細線
 48
50.0
100
AcDbLine
 10
8466.93665126738
 20
3925.032661963827
 30
0.0
 11
8466.936651267378
 21
1835.032661963827
 31
0.0
  0
LINE
  5
17E4E
330
747D
100
AcDbEntity
  8
細線
 48
50.0
100
AcDbLine
 10
8481.93665126738
 20
3925.032661963827
 30
0.0
 11
8481.936651267377
 21
1835.032661963827
 31
0.0
  0
LINE
  5
17E4F
330
747D
100
AcDbEntity
  8
細線
 48
50.0
100
AcDbLine
 10
8341.93665126738
 20
3925.032661963827
 30
0.0
 11
8341.936651267378
 21
1835.032661963827
 31
0.0
  0
LINE
  5
17E50
330
747D
100
AcDbEntity
  8
細線
 48
50.0
100
AcDbLine
 10
8326.936651267379
 20
3925.032661963827
 30
0.0
 11
8326.936651267377
 21
1835.032661963827
 31
0.0
  0
LINE
  5
17E51
330
747D
100
AcDbEntity
  8
細線
 48
50.0
100
AcDbLine
 10
8186.936651267378
 20
3925.032661963827
 30
0.0
 11
8186.936651267377
 21
1835.032661963827
 31
0.0
  0
LINE
  5
17E52
330
747D
100
AcDbEntity
  8
細線
 48
50.0
100
AcDbLine
 10
8201.936651267379
 20
3925.032661963827
 30
0.0
 11
8201.936651267377
 21
1835.032661963827
 31
0.0
  0
MTEXT
  5
17E54
330
747D
100
AcDbEntity
  8
寸法
 62
     7
 48
50.0
100
AcDbMText
 10
10364.53918836051
 20
9498.354170164795
 30
0.0
 40
96.0
 41
0.0
 71
     5
 72
     1
  1
棚 3段
  7
STYLE1
 73
     1
 44
1.0
1001
ACAD
1000
MTEXTBEGIN
1070
    73
1070
     1
1070
    44
1040
1.0
1070
    74
1070
     0
1000
MTEXTEND
  0
TEXT
  5
17F07
330
747D
100
AcDbEntity
  8
文字
 62
     7
 48
50.0
100
AcDbText
 10
13583.11819016569
 20
8550.013745883731
 30
0.0
 40
100.0
  1
棚板
  7
STYLE1
100
AcDbText
  0
TEXT
  5
17F08
330
747D
100
AcDbEntity
  8
文字
 62
     7
 48
50.0
100
AcDbText
 10
15022.63965474516
 20
8550.013745883727
 30
0.0
 40
100.0
  1
F12            0.6
  7
STYLE1
100
AcDbText
  0
TEXT
  5
17F09
330
747D
100
AcDbEntity
  8
文字
 62
     7
 48
50.0
100
AcDbText
 10
13583.11819016569
 20
9740.013745883729
 30
0.0
 40
100.0
  1
母屋中
  7
STYLE1
100
AcDbText
  0
TEXT
  5
17F0A
330
747D
100
AcDbEntity
  8
文字
 62
     7
 48
50.0
100
AcDbText
 10
13248.77747366447
 20
8720.013745883729
 30
0.0
 40
100.0
  1
15
  7
STYLE1
100
AcDbText
  0
LINE
  5
17F0B
330
747D
100
AcDbEntity
  8
仕様書枠
 48
50.0
100
AcDbLine
 10
16307.19999999999
 20
8009.600000000004
 30
0.0
 11
13127.19999999999
 21
8009.600000000006
 31
0.0
  0
TEXT
  5
17F0C
330
747D
100
AcDbEntity
  8
文字
 62
     7
 48
50.0
100
AcDbText
 10
13583.11819016569
 20
8720.013745883731
 30
0.0
 40
100.0
  1
扉
  7
STYLE1
100
AcDbText
  0
TEXT
  5
17F0D
330
747D
100
AcDbEntity
  8
文字
 62
     7
 48
50.0
100
AcDbText
 10
15022.63965474516
 20
8720.013745883727
 30
0.0
 40
100.0
  1
F12            0.8
  7
STYLE1
100
AcDbText
  0
TEXT
  5
17F0E
330
747D
100
AcDbEntity
  8
文字
 62
     7
 48
50.0
100
AcDbText
 10
13583.11819016568
 20
8890.013745883731
 30
0.0
 40
100.0
  1
正面パネル
  7
STYLE1
100
AcDbText
  0
TEXT
  5
17F0F
330
747D
100
AcDbEntity
  8
文字
 62
     7
 48
50.0
100
AcDbText
 10
15022.63965474515
 20
8890.013745883727
 30
0.0
 40
100.0
  1
F12            0.7
  7
STYLE1
100
AcDbText
  0
TEXT
  5
17F10
330
747D
100
AcDbEntity
  8
文字
 62
     7
 48
50.0
100
AcDbText
 10
15022.63965474517
 20
10590.01374588372
 30
0.0
 40
100.0
  1
F12            1.0
  7
STYLE1
100
AcDbText
  0
TEXT
  5
17F11
330
747D
100
AcDbEntity
  8
文字
 62
     7
 48
50.0
100
AcDbText
 10
15022.63965474516
 20
10930.01374588372
 30
0.0
 40
100.0
  1
F12            1.2
  7
STYLE1
100
AcDbText
  0
TEXT
  5
17F12
330
747D
100
AcDbEntity
  8
文字
 62
     7
 48
50.0
100
AcDbText
 10
13248.77747366448
 20
8890.013745883727
 30
0.0
 40
100.0
  1
14
  7
STYLE1
100
AcDbText
  0
TEXT
  5
17F13
330
747D
100
AcDbEntity
  8
文字
 62
     7
 48
50.0
100
AcDbText
 10
13583.11819016569
 20
10930.01374588372
 30
0.0
 40
100.0
  1
根太
  7
STYLE1
100
AcDbText
  0
TEXT
  5
17F14
330
747D
100
AcDbEntity
  8
文字
 62
     7
 48
50.0
100
AcDbText
 10
13583.1181901657
 20
10590.01374588372
 30
0.0
 40
100.0
  1
床パネル
 41
0.9
  7
STYLE1
100
AcDbText
  0
LINE
  5
17F15
330
747D
100
AcDbEntity
  8
仕様書枠
 48
50.0
100
AcDbLine
 10
16307.19999999999
 20
9029.6
 30
0.0
 11
13127.2
 21
9029.600000000002
 31
0.0
  0
LINE
  5
17F16
330
747D
100
AcDbEntity
  8
仕様書枠
 48
50.0
100
AcDbLine
 10
13127.2
 20
11409.6
 30
0.0
 11
13127.19999999999
 21
8009.600000000006
 31
0.0
  0
TEXT
  5
17F17
330
747D
100
AcDbEntity
  8
文字
 62
     7
 48
50.0
100
AcDbText
 10
13229.83081656554
 20
8040.013745883731
 30
0.0
 40
100.0
  1
Y10→溶融亜鉛-5％アルミニウム合金めっき鋼板(JIS G 3317)
 41
0.9
  7
STYLE1
100
AcDbText
  0
TEXT
  5
17F18
330
747D
100
AcDbEntity
  8
文字
 62
     7
 48
50.0
100
AcDbText
 10
13229.83081656554
 20
8210.013745883733
 30
0.0
 40
100.0
  1
F12→溶融亜鉛めっき鋼板(JIS G 3302)
  7
STYLE1
100
AcDbText
  0
LINE
  5
17F19
330
747D
100
AcDbEntity
  8
仕様書枠
 48
50.0
100
AcDbLine
 10
16307.19999999999
 20
8179.600000000004
 30
0.0
 11
13127.19999999999
 21
8179.600000000005
 31
0.0
  0
LINE
  5
17F1A
330
747D
100
AcDbEntity
  8
仕様書枠
 48
50.0
100
AcDbLine
 10
16307.19999999999
 20
8349.600000000004
 30
0.0
 11
13127.19999999999
 21
8349.600000000007
 31
0.0
  0
TEXT
  5
17F1B
330
747D
100
AcDbEntity
  8
文字
 62
     7
 48
50.0
100
AcDbText
 10
15022.63965474515
 20
9570.013745883725
 30
0.0
 40
100.0
  1
F12            0.7
  7
STYLE1
100
AcDbText
  0
TEXT
  5
17F1C
330
747D
100
AcDbEntity
  8
文字
 62
     7
 48
50.0
100
AcDbText
 10
15022.63965474517
 20
9910.013745883725
 30
0.0
 40
100.0
  1
Y10            0.5
  7
STYLE1
100
AcDbText
  0
TEXT
  5
17F1D
330
747D
100
AcDbEntity
  8
文字
 62
     7
 48
50.0
100
AcDbText
 10
15022.63965474516
 20
10080.01374588372
 30
0.0
 40
100.0
  1
Y10            0.7
  7
STYLE1
100
AcDbText
  0
TEXT
  5
17F1E
330
747D
100
AcDbEntity
  8
文字
 62
     7
 48
50.0
100
AcDbText
 10
15022.63965474516
 20
10250.01374588372
 30
0.0
 40
100.0
  1
Y10            0.7
  7
STYLE1
100
AcDbText
  0
TEXT
  5
17F1F
330
747D
100
AcDbEntity
  8
文字
 62
     7
 48
50.0
100
AcDbText
 10
15022.63965474516
 20
10420.01374588372
 30
0.0
 40
100.0
  1
Y10            1.0
  7
STYLE1
100
AcDbText
  0
TEXT
  5
17F20
330
747D
100
AcDbEntity
  8
文字
 62
     7
 48
50.0
100
AcDbText
 10
15022.63965474518
 20
10760.01374588372
 30
0.0
 40
100.0
  1
F12            1.0
  7
STYLE1
100
AcDbText
  0
TEXT
  5
17F21
330
747D
100
AcDbEntity
  8
文字
 62
     7
 48
50.0
100
AcDbText
 10
15022.63965474517
 20
11100.01374588372
 30
0.0
 40
100.0
  1
F12            1.2
  7
STYLE1
100
AcDbText
  0
TEXT
  5
17F22
330
747D
100
AcDbEntity
  8
文字
 62
     7
 48
50.0
100
AcDbText
 10
13248.77747366448
 20
9230.013745883727
 30
0.0
 40
100.0
  1
12
  7
STYLE1
100
AcDbText
  0
TEXT
  5
17F23
330
747D
100
AcDbEntity
  8
文字
 62
     7
 48
50.0
100
AcDbText
 10
13248.77747366448
 20
9060.013745883727
 30
0.0
 40
100.0
  1
13
  7
STYLE1
100
AcDbText
  0
LINE
  5
17F24
330
747D
100
AcDbEntity
  8
仕様書枠
 48
50.0
100
AcDbLine
 10
16307.19999999999
 20
8859.6
 30
0.0
 11
13127.2
 21
8859.600000000002
 31
0.0
  0
LINE
  5
17F25
330
747D
100
AcDbEntity
  8
仕様書枠
 48
50.0
100
AcDbLine
 10
16307.19999999999
 20
9199.599999999998
 30
0.0
 11
13127.2
 21
9199.600000000001
 31
0.0
  0
TEXT
  5
17F26
330
747D
100
AcDbEntity
  8
文字
 62
     7
 48
50.0
100
AcDbText
 10
13248.77747366447
 20
9400.013745883727
 30
0.0
 40
100.0
  1
11
  7
STYLE1
100
AcDbText
  0
LINE
  5
17F27
330
747D
100
AcDbEntity
  8
仕様書枠
 48
50.0
100
AcDbLine
 10
16307.2
 20
9879.599999999999
 30
0.0
 11
13127.2
 21
9879.600000000001
 31
0.0
  0
LINE
  5
17F28
330
747D
100
AcDbEntity
  8
仕様書枠
 48
50.0
100
AcDbLine
 10
16307.2
 20
10219.6
 30
0.0
 11
13127.2
 21
10219.6
 31
0.0
  0
LINE
  5
17F29
330
747D
100
AcDbEntity
  8
仕様書枠
 48
50.0
100
AcDbLine
 10
16307.19999999999
 20
9539.599999999998
 30
0.0
 11
13127.2
 21
9539.6
 31
0.0
  0
LINE
  5
17F2A
330
747D
100
AcDbEntity
  8
仕様書枠
 48
50.0
100
AcDbLine
 10
16307.19999999999
 20
9369.599999999998
 30
0.0
 11
13127.2
 21
9369.600000000001
 31
0.0
  0
LINE
  5
17F2B
330
747D
100
AcDbEntity
  8
仕様書枠
 48
50.0
100
AcDbLine
 10
16307.19999999999
 20
9709.6
 30
0.0
 11
13127.2
 21
9709.600000000001
 31
0.0
  0
TEXT
  5
17F2C
330
747D
100
AcDbEntity
  8
文字
 62
     7
 48
50.0
100
AcDbText
 10
13271.19032244792
 20
10250.01374588373
 30
0.0
 40
100.0
  1
6
  7
STYLE1
100
AcDbText
  0
TEXT
  5
17F2D
330
747D
100
AcDbEntity
  8
文字
 62
     7
 48
50.0
100
AcDbText
 10
13271.19032244792
 20
10080.01374588373
 30
0.0
 40
100.0
  1
7
  7
STYLE1
100
AcDbText
  0
TEXT
  5
17F2E
330
747D
100
AcDbEntity
  8
文字
 62
     7
 48
50.0
100
AcDbText
 10
13271.19032244792
 20
9740.013745883729
 30
0.0
 40
100.0
  1
9
  7
STYLE1
100
AcDbText
  0
TEXT
  5
17F2F
330
747D
100
AcDbEntity
  8
文字
 62
     7
 48
50.0
100
AcDbText
 10
13271.19032244792
 20
9910.01374588373
 30
0.0
 40
100.0
  1
8
  7
STYLE1
100
AcDbText
  0
TEXT
  5
17F30
330
747D
100
AcDbEntity
  8
文字
 62
     7
 48
50.0
100
AcDbText
 10
13583.11819016569
 20
10080.01374588372
 30
0.0
 40
100.0
  1
鼻隠シ前後
  7
STYLE1
100
AcDbText
  0
TEXT
  5
17F31
330
747D
100
AcDbEntity
  8
文字
 62
     7
 48
50.0
100
AcDbText
 10
13583.11819016569
 20
9910.013745883727
 30
0.0
 40
100.0
  1
屋根パネル
  7
STYLE1
100
AcDbText
  0
TEXT
  5
17F32
330
747D
100
AcDbEntity
  8
文字
 62
     7
 48
50.0
100
AcDbText
 10
13583.11819016568
 20
9570.013745883729
 30
0.0
 40
100.0
  1
壁パネル
  7
STYLE1
100
AcDbText
  0
TEXT
  5
17F33
330
747D
100
AcDbEntity
  8
文字
 62
     7
 48
50.0
100
AcDbText
 10
13248.77747366447
 20
9570.013745883727
 30
0.0
 40
100.0
  1
10
  7
STYLE1
100
AcDbText
  0
TEXT
  5
17F34
330
747D
100
AcDbEntity
  8
文字
 62
     7
 48
50.0
100
AcDbText
 10
13583.11819016569
 20
10250.01374588373
 30
0.0
 40
100.0
  1
妻板左右
  7
STYLE1
100
AcDbText
  0
TEXT
  5
17F35
330
747D
100
AcDbEntity
  8
文字
 62
     7
 48
50.0
100
AcDbText
 10
13271.19032244792
 20
10420.01374588372
 30
0.0
 40
100.0
  1
5
  7
STYLE1
100
AcDbText
  0
TEXT
  5
17F36
330
747D
100
AcDbEntity
  8
文字
 62
     7
 48
50.0
100
AcDbText
 10
13583.11819016569
 20
10420.01374588373
 30
0.0
 40
100.0
  1
桁前後
  7
STYLE1
100
AcDbText
  0
TEXT
  5
17F37
330
747D
100
AcDbEntity
  8
文字
 62
     7
 48
50.0
100
AcDbText
 10
13583.1181901657
 20
10760.01374588372
 30
0.0
 40
100.0
  1
柱
  7
STYLE1
100
AcDbText
  0
TEXT
  5
17F38
330
747D
100
AcDbEntity
  8
文字
 62
     7
 48
50.0
100
AcDbText
 10
13583.11819016569
 20
11100.01374588372
 30
0.0
 40
100.0
  1
土台枠
  7
STYLE1
100
AcDbText
  0
TEXT
  5
17F39
330
747D
100
AcDbEntity
  8
文字
 62
     7
 48
50.0
100
AcDbText
 10
14859.79774614482
 20
11270.01374588372
 30
0.0
 40
100.0
  1
材料（材質）　　単位mm
  7
STYLE1
100
AcDbText
  0
TEXT
  5
17F3A
330
747D
100
AcDbEntity
  8
文字
 62
     7
 48
50.0
100
AcDbText
 10
13732.03840939434
 20
11270.01374588372
 30
0.0
 40
100.0
  1
部　　品　　名
  7
STYLE1
100
AcDbText
  0
TEXT
  5
17F3B
330
747D
100
AcDbEntity
  8
文字
 62
     7
 48
50.0
100
AcDbText
 10
13271.19032244792
 20
10760.01374588373
 30
0.0
 40
100.0
  1
3
  7
STYLE1
100
AcDbText
  0
TEXT
  5
17F3C
330
747D
100
AcDbEntity
  8
文字
 62
     7
 48
50.0
100
AcDbText
 10
13271.19032244792
 20
10590.01374588373
 30
0.0
 40
100.0
  1
4
  7
STYLE1
100
AcDbText
  0
TEXT
  5
17F3D
330
747D
100
AcDbEntity
  8
文字
 62
     7
 48
50.0
100
AcDbText
 10
13271.19032244792
 20
10930.01374588373
 30
0.0
 40
100.0
  1
2
  7
STYLE1
100
AcDbText
  0
TEXT
  5
17F3E
330
747D
100
AcDbEntity
  8
文字
 62
     7
 48
50.0
100
AcDbText
 10
13271.19032244792
 20
11100.01374588373
 30
0.0
 40
100.0
  1
1
  7
STYLE1
100
AcDbText
  0
TEXT
  5
17F3F
330
747D
100
AcDbEntity
  8
文字
 62
     7
 48
50.0
100
AcDbText
 10
13197.42518560407
 20
11270.01374588372
 30
0.0
 40
100.0
  1
品番
  7
STYLE1
100
AcDbText
  0
LINE
  5
17F40
330
747D
100
AcDbEntity
  8
仕様書枠
 48
50.0
100
AcDbLine
 10
16307.19999999999
 20
10729.59999999999
 30
0.0
 11
13127.2
 21
10729.6
 31
0.0
  0
LINE
  5
17F41
330
747D
100
AcDbEntity
  8
仕様書枠
 48
50.0
100
AcDbLine
 10
16307.19999999999
 20
10389.6
 30
0.0
 11
13127.2
 21
10389.6
 31
0.0
  0
LINE
  5
17F42
330
747D
100
AcDbEntity
  8
仕様書枠
 48
50.0
100
AcDbLine
 10
16307.19999999999
 20
10559.6
 30
0.0
 11
13127.2
 21
10559.6
 31
0.0
  0
LINE
  5
17F43
330
747D
100
AcDbEntity
  8
仕様書枠
 48
50.0
100
AcDbLine
 10
16307.2
 20
11069.59999999999
 30
0.0
 11
13127.2
 21
11069.6
 31
0.0
  0
LINE
  5
17F44
330
747D
100
AcDbEntity
  8
仕様書枠
 48
50.0
100
AcDbLine
 10
16307.2
 20
10899.6
 30
0.0
 11
13127.2
 21
10899.6
 31
0.0
  0
LINE
  5
17F45
330
747D
100
AcDbEntity
  8
仕様書枠
 48
50.0
100
AcDbLine
 10
16307.2
 20
11239.59999999999
 30
0.0
 11
13127.2
 21
11239.6
 31
0.0
  0
LINE
  5
17F46
330
747D
100
AcDbEntity
  8
仕様書枠
 48
50.0
100
AcDbLine
 10
13490.2
 20
11409.59999999999
 30
0.0
 11
13490.20000000001
 21
8349.600000000007
 31
0.0
  0
LINE
  5
17F47
330
747D
100
AcDbEntity
  8
仕様書枠
 48
50.0
100
AcDbLine
 10
14785.2
 20
11409.59999999999
 30
0.0
 11
14785.2
 21
8349.600000000004
 31
0.0
  0
LINE
  5
17F48
330
747D
100
AcDbEntity
  8
仕様書枠
 48
50.0
100
AcDbLine
 10
16307.19999999999
 20
8009.600000000004
 30
0.0
 11
16307.2
 21
11409.6
 31
0.0
  0
LINE
  5
17F49
330
747D
100
AcDbEntity
  8
仕様書枠
 48
50.0
100
AcDbLine
 10
16307.2
 20
11409.59999999999
 30
0.0
 11
13127.2
 21
11409.6
 31
0.0
  0
LINE
  5
17F4A
330
747D
100
AcDbEntity
  8
仕様書枠
 48
50.0
100
AcDbLine
 10
16307.2
 20
10049.6
 30
0.0
 11
13127.2
 21
10049.6
 31
0.0
  0
TEXT
  5
17F4B
330
747D
100
AcDbEntity
  8
文字
 62
     7
 48
50.0
100
AcDbText
 10
15022.63965474515
 20
8380.013745883724
 30
0.0
 40
100.0
  1
F12            2.3
  7
STYLE1
100
AcDbText
  0
TEXT
  5
17F4C
330
747D
100
AcDbEntity
  8
文字
 62
     7
 48
50.0
100
AcDbText
 10
13583.11819016569
 20
8380.013745883728
 30
0.0
 40
100.0
  1
アンカープレート
  7
STYLE1
100
AcDbText
  0
LINE
  5
17F4D
330
747D
100
AcDbEntity
  8
仕様書枠
 48
50.0
100
AcDbLine
 10
16307.19999999999
 20
8519.600000000004
 30
0.0
 11
13127.2
 21
8519.600000000005
 31
0.0
  0
LINE
  5
17F4E
330
747D
100
AcDbEntity
  8
仕様書枠
 48
50.0
100
AcDbLine
 10
16307.19999999999
 20
8689.600000000003
 30
0.0
 11
13127.2
 21
8689.600000000005
 31
0.0
  0
TEXT
  5
17F4F
330
747D
100
AcDbEntity
  8
文字
 62
     7
 48
50.0
100
AcDbText
 10
13583.11819016569
 20
9400.013745883729
 30
0.0
 40
100.0
  1
壁面扉鴨居
  7
STYLE1
100
AcDbText
  0
TEXT
  5
17F50
330
747D
100
AcDbEntity
  8
文字
 62
     7
 48
50.0
100
AcDbText
 10
13583.11819016569
 20
9230.013745883733
 30
0.0
 40
100.0
  1
壁面扉敷居
  7
STYLE1
100
AcDbText
  0
TEXT
  5
17F51
330
747D
100
AcDbEntity
  8
文字
 62
     7
 48
50.0
100
AcDbText
 10
15022.63965474515
 20
9400.013745883727
 30
0.0
 40
100.0
  1
F12            0.7
  7
STYLE1
100
AcDbText
  0
TEXT
  5
17F52
330
747D
100
AcDbEntity
  8
文字
 62
     7
 48
50.0
100
AcDbText
 10
15022.63965474517
 20
9230.013745883725
 30
0.0
 40
100.0
  1
F12            1.0
  7
STYLE1
100
AcDbText
  0
TEXT
  5
17F53
330
747D
100
AcDbEntity
  8
文字
 62
     7
 48
50.0
100
AcDbText
 10
13583.11819016569
 20
9060.013745883733
 30
0.0
 40
100.0
  1
壁面扉枠左右
  7
STYLE1
100
AcDbText
  0
TEXT
  5
17F54
330
747D
100
AcDbEntity
  8
文字
 62
     7
 48
50.0
100
AcDbText
 10
15022.63965474517
 20
9060.013745883725
 30
0.0
 40
100.0
  1
F12            1.0
  7
STYLE1
100
AcDbText
  0
TEXT
  5
17F55
330
747D
100
AcDbEntity
  8
文字
 62
     7
 48
50.0
100
AcDbText
 10
13248.77747366447
 20
8550.013745883729
 30
0.0
 40
100.0
  1
16
  7
STYLE1
100
AcDbText
  0
TEXT
  5
17F56
330
747D
100
AcDbEntity
  8
文字
 62
     7
 48
50.0
100
AcDbText
 10
13248.77747366447
 20
8380.013745883728
 30
0.0
 40
100.0
  1
17
  7
STYLE1
100
AcDbText
  0
TEXT
  5
17F57
330
747D
100
AcDbEntity
  8
文字
 62
     7
 48
50.0
100
AcDbText
 10
14798.72402257234
 20
9740.013745883725
 30
0.0
 40
100.0
  1
F12(一般型1.2/多雪地型2.3)
  7
STYLE1
100
AcDbText
  0
LINE
  5
17F58
330
747D
100
AcDbEntity
  8
部品1
100
AcDbLine
 10
11062.93665126736
 20
8177.11935196746
 30
0.0
 11
8125.936651267359
 21
8177.119351967361
 31
0.0
  0
LINE
  5
17F59
330
747D
100
AcDbEntity
  8
部品1
100
AcDbLine
 10
8097.436651267349
 20
8177.119351967361
 30
0.0
 11
8069.436651267348
 21
8177.119351967361
 31
0.0
  0
LINE
  5
17F5A
330
747D
100
AcDbEntity
  8
部品1
100
AcDbLine
 10
11091.43665126737
 20
8177.119351967487
 30
0.0
 11
11119.43665126737
 21
8177.119351967487
 31
0.0
  0
LINE
  5
18233
330
747D
100
AcDbEntity
  8
補助
  6
PHANTOM
 62
   230
 48
50.0
100
AcDbLine
 10
140.0
 20
0.0
 30
0.0
 11
139.9999999999995
 21
11409.6
 31
0.0
  0
MTEXT
  5
1836A
330
747D
100
AcDbEntity
  8
寸法
 62
     7
 48
50.0
100
AcDbMText
 10
8854.53918836048
 20
9498.354170164773
 30
0.0
 40
96.0
 41
0.0
 71
     5
 72
     1
  1
棚 3段
  7
STYLE1
 73
     1
 44
1.0
1001
ACAD
1000
MTEXTBEGIN
1070
    73
1070
     1
1070
    44
1040
1.0
1070
    74
1070
     0
1000
MTEXTEND
  0
LINE
  5
186AC
330
747D
100
AcDbEntity
  8
寸法
 48
50.0
100
AcDbLine
 10
8979.639657549187
 20
7060.156103536339
 30
0.0
 11
8928.233649639084
 21
7060.156103536339
 31
0.0
  0
LINE
  5
186AD
330
747D
100
AcDbEntity
  8
寸法
 48
50.0
100
AcDbLine
 10
8928.233649639084
 20
7060.156103536339
 30
0.0
 11
8928.233649639084
 21
7091.466262188506
 31
0.0
  0
LINE
  5
186AE
330
747D
100
AcDbEntity
  8
寸法
 48
50.0
100
AcDbLine
 10
8928.233649639084
 20
7091.466262188506
 30
0.0
 11
8898.472317647661
 21
7091.466262188506
 31
0.0
  0
LINE
  5
186AF
330
747D
100
AcDbEntity
  8
寸法
 48
50.0
100
AcDbLine
 10
8898.472317647661
 20
7091.466262188506
 30
0.0
 11
8953.936653594135
 21
7129.045713117115
 31
0.0
  0
LINE
  5
186B0
330
747D
100
AcDbEntity
  8
寸法
 48
50.0
100
AcDbLine
 10
9009.40098954061
 20
7091.466262188506
 30
0.0
 11
8953.936653594135
 21
7129.045713117115
 31
0.0
  0
LINE
  5
186B1
330
747D
100
AcDbEntity
  8
寸法
 48
50.0
100
AcDbLine
 10
8979.639657549187
 20
7091.466262188506
 30
0.0
 11
9009.40098954061
 21
7091.466262188506
 31
0.0
  0
LINE
  5
186B2
330
747D
100
AcDbEntity
  8
寸法
 48
50.0
100
AcDbLine
 10
8979.639657549187
 20
7060.156103536339
 30
0.0
 11
8979.639657549187
 21
7091.466262188506
 31
0.0
  0
LINE
  5
186B3
330
747D
100
AcDbEntity
  8
寸法
 48
50.0
100
AcDbLine
 10
8928.233649639084
 20
7060.156103536339
 30
0.0
 11
8979.639657549187
 21
7060.156103536339
 31
0.0
  0
LINE
  5
186B4
330
747D
100
AcDbEntity
  8
寸法
 48
50.0
100
AcDbLine
 10
9258.805191826045
 20
7117.301694291161
 30
0.0
 11
9258.805191826045
 21
7063.638059709372
 31
0.0
  0
LINE
  5
186B5
330
747D
100
AcDbEntity
  8
寸法
 48
50.0
100
AcDbLine
 10
9348.089410421465
 20
7093.378060021676
 30
0.0
 11
9258.805191826045
 21
7117.301694291161
 31
0.0
  0
LINE
  5
186B6
330
747D
100
AcDbEntity
  8
寸法
 48
50.0
100
AcDbLine
 10
9128.937470245741
 20
7093.378060021676
 30
0.0
 11
9348.089410421465
 21
7093.378060021676
 31
0.0
  0
LINE
  5
186B7
330
747D
100
AcDbEntity
  8
細線
 48
50.0
100
AcDbLine
 10
10005.43665126734
 20
7258.619466916201
 30
0.0
 11
10632.43665126734
 21
7258.619466916201
 31
0.0
  0
LINE
  5
186B8
330
747D
100
AcDbEntity
  8
細線
 48
50.0
100
AcDbLine
 10
9351.436655920933
 20
7224.910698362126
 30
0.0
 11
10632.43665126734
 21
7224.910698362126
 31
0.0
  0
LINE
  5
186B9
330
747D
100
AcDbEntity
  8
細線
 48
50.0
100
AcDbLine
 10
9310.436655920936
 20
7254.315606358379
 30
0.0
 11
8556.436651267343
 21
7254.315606358375
 31
0.0
  0
LINE
  5
186BA
330
747D
100
AcDbEntity
  8
細線
100
AcDbLine
 10
10408.18664185088
 20
7278.11936688121
 30
0.0
 11
10410.51818137269
 21
7283.119369521171
 31
0.0
  0
LINE
  5
186BB
330
747D
100
AcDbEntity
  8
細線
100
AcDbLine
 10
10478.18665126734
 20
7278.119351967475
 30
0.0
 11
10475.85510479115
 21
7283.119369521156
 31
0.0
  0
LINE
  5
186BC
330
747D
100
AcDbEntity
  8
細線
100
AcDbLine
 10
10475.85510479115
 20
7283.119369521156
 30
0.0
 11
10410.51818137268
 21
7283.119369521142
 31
0.0
  0
LINE
  5
186BD
330
747D
100
AcDbEntity
  8
細線
100
AcDbLine
 10
10335.85510479116
 20
7283.119369521156
 30
0.0
 11
10270.51818137268
 21
7283.119369521142
 31
0.0
  0
LINE
  5
186BE
330
747D
100
AcDbEntity
  8
細線
100
AcDbLine
 10
10338.18665126734
 20
7278.119351967475
 30
0.0
 11
10335.85510479116
 21
7283.119369521156
 31
0.0
  0
LINE
  5
186BF
330
747D
100
AcDbEntity
  8
細線
100
AcDbLine
 10
10268.18664185088
 20
7278.11936688121
 30
0.0
 11
10270.51818137269
 21
7283.119369521171
 31
0.0
  0
LINE
  5
186C0
330
747D
100
AcDbEntity
  8
細線
100
AcDbLine
 10
10128.18665126734
 20
7278.119351967475
 30
0.0
 11
10130.51819078915
 21
7283.119354607437
 31
0.0
  0
LINE
  5
186C1
330
747D
100
AcDbEntity
  8
細線
100
AcDbLine
 10
10198.1866606838
 20
7278.119337053742
 30
0.0
 11
10195.85511420761
 21
7283.119354607423
 31
0.0
  0
LINE
  5
186C2
330
747D
100
AcDbEntity
  8
細線
100
AcDbLine
 10
10195.85511420761
 20
7283.119354607423
 30
0.0
 11
10130.51819078914
 21
7283.119354607409
 31
0.0
  0
LINE
  5
186C3
330
747D
100
AcDbEntity
  8
細線
100
AcDbLine
 10
9900.605135456451
 20
7249.119391304805
 30
0.0
 11
9835.268212037973
 21
7249.119391304791
 31
0.0
  0
LINE
  5
186C4
330
747D
100
AcDbEntity
  8
細線
100
AcDbLine
 10
9902.936681932636
 20
7244.119373751124
 30
0.0
 11
9900.605135456451
 21
7249.119391304805
 31
0.0
  0
LINE
  5
186C5
330
747D
100
AcDbEntity
  8
細線
100
AcDbLine
 10
9832.936672516181
 20
7244.119388664858
 30
0.0
 11
9835.268212037988
 21
7249.119391304819
 31
0.0
  0
LINE
  5
186C6
330
747D
100
AcDbEntity
  8
細線
 48
50.0
100
AcDbLine
 10
9674.320030515357
 20
7262.390215120557
 30
0.0
 11
9680.075548098024
 21
7244.11936383007
 31
0.0
  0
LINE
  5
186C7
330
747D
100
AcDbEntity
  8
細線
 48
50.0
100
AcDbLine
 10
9663.391582034927
 20
7262.390215120557
 30
0.0
 11
9674.320030515357
 21
7262.390215120557
 31
0.0
  0
ARC
  5
186C8
330
747D
100
AcDbEntity
  8
細線
 48
50.0
100
AcDbCircle
 10
9657.937225977605
 20
7263.890215120557
 30
0.0
 40
5.0
100
AcDbArc
 50
204.6243183521304
 51
335.3756816478695
  0
ARC
  5
186C9
330
747D
100
AcDbEntity
  8
細線
 48
50.0
100
AcDbCircle
 10
9663.391582034927
 20
7261.390215120556
 30
0.0
 40
1.0
100
AcDbArc
 50
90.0
 51
155.3756816478695
  0
ARC
  5
186CA
330
747D
100
AcDbEntity
  8
細線
 48
50.0
100
AcDbCircle
 10
9652.482869920291
 20
7261.390215120556
 30
0.0
 40
1.0
100
AcDbArc
 50
24.62431835213048
 51
90.0
  0
LINE
  5
186CB
330
747D
100
AcDbEntity
  8
細線
 48
50.0
100
AcDbLine
 10
9641.554421439856
 20
7262.390215120557
 30
0.0
 11
9652.482869920291
 21
7262.390215120557
 31
0.0
  0
LINE
  5
186CC
330
747D
100
AcDbEntity
  8
細線
 48
50.0
100
AcDbLine
 10
9635.798903857189
 20
7244.119363830063
 30
0.0
 11
9641.554421439856
 21
7262.390215120557
 31
0.0
  0
LINE
  5
186CD
330
747D
100
AcDbEntity
  8
細線
100
AcDbLine
 10
9692.936673747221
 20
7244.119361195867
 30
0.0
 11
9695.268213269034
 21
7249.119363835828
 31
0.0
  0
LINE
  5
186CE
330
747D
100
AcDbEntity
  8
細線
100
AcDbLine
 10
9762.936683163681
 20
7244.119346282133
 30
0.0
 11
9760.605136687491
 21
7249.119363835814
 31
0.0
  0
LINE
  5
186CF
330
747D
100
AcDbEntity
  8
細線
100
AcDbLine
 10
9760.605136687491
 20
7249.119363835814
 30
0.0
 11
9695.268213269018
 21
7249.1193638358
 31
0.0
  0
LINE
  5
186D0
330
747D
100
AcDbEntity
  8
細線
100
AcDbLine
 10
9620.605108322974
 20
7249.119363830034
 30
0.0
 11
9555.268184904498
 21
7249.119363830018
 31
0.0
  0
LINE
  5
186D1
330
747D
100
AcDbEntity
  8
細線
100
AcDbLine
 10
9622.936654799161
 20
7244.119346276353
 30
0.0
 11
9620.605108322974
 21
7249.119363830034
 31
0.0
  0
LINE
  5
186D2
330
747D
100
AcDbEntity
  8
細線
100
AcDbLine
 10
9552.936646613746
 20
7244.119363830063
 30
0.0
 11
9555.268184904512
 21
7249.119363830049
 31
0.0
  0
LINE
  5
186D3
330
747D
100
AcDbEntity
  8
細線
100
AcDbLine
 10
9412.936681932636
 20
7244.119372017433
 30
0.0
 11
9415.268220223405
 21
7249.119372017418
 31
0.0
  0
LINE
  5
186D4
330
747D
100
AcDbEntity
  8
細線
100
AcDbLine
 10
9482.936690118053
 20
7244.119354463723
 30
0.0
 11
9480.605143641865
 21
7249.1193720174
 31
0.0
  0
LINE
  5
186D5
330
747D
100
AcDbEntity
  8
細線
100
AcDbLine
 10
9480.605143641865
 20
7249.1193720174
 30
0.0
 11
9415.26822022339
 21
7249.119372017388
 31
0.0
  0
LINE
  5
186D6
330
747D
100
AcDbEntity
  8
細線
100
AcDbLine
 10
9041.436647735515
 20
7210.119543698145
 30
0.0
 11
9043.768186026284
 21
7215.119543698131
 31
0.0
  0
LINE
  5
186D7
330
747D
100
AcDbEntity
  8
細線
100
AcDbLine
 10
9111.436655920931
 20
7210.119526144431
 30
0.0
 11
9109.105109444746
 21
7215.119543698108
 31
0.0
  0
LINE
  5
186D8
330
747D
100
AcDbEntity
  8
細線
100
AcDbLine
 10
9109.105109444746
 20
7215.119543698108
 30
0.0
 11
9043.768186026273
 21
7215.119543698101
 31
0.0
  0
LINE
  5
186D9
330
747D
100
AcDbEntity
  8
細線
100
AcDbLine
 10
9249.105109444746
 20
7215.119543698108
 30
0.0
 11
9183.768186026274
 21
7215.119543698101
 31
0.0
  0
LINE
  5
186DA
330
747D
100
AcDbEntity
  8
細線
100
AcDbLine
 10
9251.436655920931
 20
7210.119526144431
 30
0.0
 11
9249.105109444746
 21
7215.119543698108
 31
0.0
  0
LINE
  5
186DB
330
747D
100
AcDbEntity
  8
細線
100
AcDbLine
 10
9181.436647735516
 20
7210.119543698145
 30
0.0
 11
9183.768186026282
 21
7215.119543698131
 31
0.0
  0
LINE
  5
186DC
330
747D
100
AcDbEntity
  8
細線
100
AcDbLine
 10
8969.105109444745
 20
7215.119543698108
 30
0.0
 11
8903.768186026274
 21
7215.119543698098
 31
0.0
  0
LINE
  5
186DD
330
747D
100
AcDbEntity
  8
細線
100
AcDbLine
 10
8971.436655920932
 20
7210.119526144431
 30
0.0
 11
8969.105109444745
 21
7215.119543698108
 31
0.0
  0
LINE
  5
186DE
330
747D
100
AcDbEntity
  8
細線
100
AcDbLine
 10
8901.436647735517
 20
7210.119543698141
 30
0.0
 11
8903.768186026283
 21
7215.119543698127
 31
0.0
  0
LINE
  5
186DF
330
747D
100
AcDbEntity
  8
細線
100
AcDbLine
 10
8761.436655920931
 20
7210.119543698145
 30
0.0
 11
8763.768194211699
 21
7215.119543698131
 31
0.0
  0
LINE
  5
186E0
330
747D
100
AcDbEntity
  8
細線
100
AcDbLine
 10
8831.436664106348
 20
7210.119526144431
 30
0.0
 11
8829.105117630161
 21
7215.119543698108
 31
0.0
  0
LINE
  5
186E1
330
747D
100
AcDbEntity
  8
細線
100
AcDbLine
 10
8829.105117630161
 20
7215.119543698108
 30
0.0
 11
8763.768194211689
 21
7215.119543698101
 31
0.0
  0
ARC
  5
186E2
330
747D
100
AcDbEntity
  8
部品1
 48
0.01
100
AcDbCircle
 10
8716.936544668596
 20
7209.118421513072
 30
0.0
 40
0.5
100
AcDbArc
 50
270.0
 51
0.0
  0
LINE
  5
186E3
330
747D
100
AcDbEntity
  8
部品1
 48
0.01
100
AcDbLine
 10
8717.436544668597
 20
7210.118421513072
 30
0.0
 11
8717.436544668597
 21
7209.118421513072
 31
0.0
  0
LINE
  5
186E4
330
747D
100
AcDbEntity
  8
部品1
 48
0.01
100
AcDbLine
 10
8717.436544668597
 20
7210.118421513072
 30
0.0
 11
8717.436544668597
 21
7209.118421513072
 31
0.0
  0
LINE
  5
186E5
330
747D
100
AcDbEntity
  8
部品1
 48
0.01
100
AcDbLine
 10
8716.936544668596
 20
7208.618421513072
 30
0.0
 11
8710.324039238534
 21
7208.618421513072
 31
0.0
  0
ARC
  5
186E6
330
747D
100
AcDbEntity
  8
部品1
100
AcDbCircle
 10
8710.392388791314
 20
7209.618421513072
 30
0.0
 40
1.0
100
AcDbArc
 50
160.5287793655778
 51
270.0
  0
ARC
  5
186E7
330
747D
100
AcDbEntity
  8
部品1
100
AcDbCircle
 10
8684.936544668596
 20
7218.618421513072
 30
0.0
 40
26.0
100
AcDbArc
 50
340.5287793655779
 51
0.0
  0
LINE
  5
186E8
330
747D
100
AcDbEntity
  8
部品1
100
AcDbLine
 10
8710.936544668596
 20
7218.618421513072
 30
0.0
 11
8710.936544668596
 21
7223.618421513072
 31
0.0
  0
ARC
  5
186E9
330
747D
100
AcDbEntity
  8
部品1
 48
0.01
100
AcDbCircle
 10
8708.936544668597
 20
7223.618421513072
 30
0.0
 40
2.0
100
AcDbArc
 50
0.0
 51
90.0
  0
ARC
  5
186EA
330
747D
100
AcDbEntity
  8
部品1
100
AcDbCircle
 10
8707.328153043787
 20
7222.618421513073
 30
0.0
 40
3.0
100
AcDbArc
 50
90.0
 51
141.6069559807873
  0
LINE
  5
186EB
330
747D
100
AcDbEntity
  8
部品1
 48
0.01
100
AcDbLine
 10
8708.936544668597
 20
7225.618421513073
 30
0.0
 11
8707.328153043787
 21
7225.618421513073
 31
0.0
  0
ARC
  5
186EC
330
747D
100
AcDbEntity
  8
部品1
100
AcDbCircle
 10
8688.865830454325
 20
7221.918421513075
 30
0.0
 40
3.0
100
AcDbArc
 50
254.0576313943215
 51
270.0
  0
ARC
  5
186ED
330
747D
100
AcDbEntity
  8
部品1
100
AcDbCircle
 10
8696.007258882868
 20
7221.918421513075
 30
0.0
 40
3.0
100
AcDbArc
 50
270.0
 51
285.9423686056786
  0
LINE
  5
186EE
330
747D
100
AcDbEntity
  8
部品1
100
AcDbLine
 10
8696.007258882868
 20
7218.918421513075
 30
0.0
 11
8688.865830454325
 21
7218.918421513075
 31
0.0
  0
ARC
  5
186EF
330
747D
100
AcDbEntity
  8
部品1
100
AcDbCircle
 10
8692.436544668597
 20
7234.418421513075
 30
0.0
 40
16.0
100
AcDbArc
 50
285.9423686056786
 51
321.6069559807873
  0
LINE
  5
186F0
330
747D
100
AcDbEntity
  8
部品1
 48
0.01
100
AcDbLine
 10
8675.936544668598
 20
7225.618421513073
 30
0.0
 11
8677.544936293406
 21
7225.618421513073
 31
0.0
  0
ARC
  5
186F1
330
747D
100
AcDbEntity
  8
部品1
100
AcDbCircle
 10
8677.544936293406
 20
7222.618421513073
 30
0.0
 40
3.0
100
AcDbArc
 50
38.39304401921267
 51
90.0
  0
ARC
  5
186F2
330
747D
100
AcDbEntity
  8
部品1
100
AcDbCircle
 10
8692.436544668597
 20
7234.418421513075
 30
0.0
 40
16.0
100
AcDbArc
 50
218.3930440192126
 51
254.0576313943215
  0
LINE
  5
186F3
330
747D
100
AcDbEntity
  8
部品1
100
AcDbLine
 10
8673.936544668597
 20
7218.618421513072
 30
0.0
 11
8673.936544668597
 21
7223.618421513072
 31
0.0
  0
ARC
  5
186F4
330
747D
100
AcDbEntity
  8
部品1
 48
0.01
100
AcDbCircle
 10
8675.936544668598
 20
7223.618421513072
 30
0.0
 40
2.0
100
AcDbArc
 50
90.0
 51
180.0
  0
ARC
  5
186F5
330
747D
100
AcDbEntity
  8
部品1
100
AcDbCircle
 10
8699.936544668597
 20
7218.618421513072
 30
0.0
 40
26.0
100
AcDbArc
 50
180.0
 51
199.4712206344221
  0
ARC
  5
186F6
330
747D
100
AcDbEntity
  8
部品1
 48
0.01
100
AcDbCircle
 10
8667.936544668597
 20
7209.118421513072
 30
0.0
 40
0.5
100
AcDbArc
 50
180.0
 51
270.0
  0
LINE
  5
186F7
330
747D
100
AcDbEntity
  8
部品1
 48
0.01
100
AcDbLine
 10
8667.936544668597
 20
7208.618421513072
 30
0.0
 11
8674.480700545881
 21
7208.618421513072
 31
0.0
  0
LINE
  5
186F8
330
747D
100
AcDbEntity
  8
部品1
 48
0.01
100
AcDbLine
 10
8667.436544668596
 20
7210.118421513072
 30
0.0
 11
8667.436544668596
 21
7209.118421513072
 31
0.0
  0
ARC
  5
186F9
330
747D
100
AcDbEntity
  8
部品1
100
AcDbCircle
 10
8674.480700545881
 20
7209.618421513072
 30
0.0
 40
1.0
100
AcDbArc
 50
270.0
 51
19.47122063442214
  0
LINE
  5
186FA
330
747D
100
AcDbEntity
  8
細線
100
AcDbLine
 10
8712.936544668604
 20
7228.118421513077
 30
0.0
 11
8671.936544668604
 21
7228.11842151307
 31
0.0
  0
LINE
  5
186FB
330
747D
100
AcDbEntity
  8
細線
100
AcDbLine
 10
8671.936544668604
 20
7228.11842151307
 30
0.0
 11
8671.936544668604
 21
7210.11842151305
 31
0.0
  0
LINE
  5
186FC
330
747D
100
AcDbEntity
  8
細線
100
AcDbLine
 10
8712.936544668604
 20
7228.118421513077
 30
0.0
 11
8712.936544668604
 21
7210.11842151305
 31
0.0
  0
LINE
  5
186FD
330
747D
100
AcDbEntity
  8
細線
100
AcDbLine
 10
8556.436651267343
 20
7214.119351967475
 30
0.0
 11
8556.436651267343
 21
7210.119351967524
 31
0.0
  0
DIMENSION
  5
186FE
330
747D
100
AcDbEntity
  8
寸法
 48
50.0
100
AcDbDimension
  2
*D31
 10
9822.436651267343
 20
6552.911124991187
 30
0.0
 11
9204.034406980369
 21
6552.911124991187
 31
0.0
 70
   160
  1
有効開口部間口\P<>
 71
     5
 42
1266.0
  3
INABA_S40
100
AcDbAlignedDimension
 13
8556.436651267343
 23
7205.119351967477
 33
0.0
 14
9822.436651267343
 24
7205.119351967477
 34
0.0
100
AcDbRotatedDimension
1001
ACAD
1000
DSTYLE
1002
{
1070
    41
1040
0.5
1070
    44
1040
1.0
1070
   147
1040
0.8
1070
   271
1070
     2
1070
   272
1070
     2
1070
   289
1070
     3
1070
   340
1005
F706
1070
   343
1005
17819
1070
   344
1005
17819
1002
}
  0
LINE
  5
186FF
330
747D
100
AcDbEntity
  8
部品1
100
AcDbLine
 10
10644.43665126734
 20
7282.119351967477
 30
0.0
 11
10671.43665126734
 21
7282.119351967477
 31
0.0
  0
LINE
  5
18701
330
747D
100
AcDbEntity
  8
部品1
100
AcDbLine
 10
10671.43665126734
 20
7205.119351967477
 30
0.0
 11
10671.43665126734
 21
7282.119351967477
 31
0.0
  0
LINE
  5
18702
330
747D
100
AcDbEntity
  8
部品1
100
AcDbLine
 10
10632.43665126734
 20
7278.119351967475
 30
0.0
 11
10644.43665126734
 21
7278.119351967475
 31
0.0
  0
LINE
  5
18703
330
747D
100
AcDbEntity
  8
部品1
100
AcDbLine
 10
10641.43665126734
 20
7214.119351967475
 30
0.0
 11
10641.43665126734
 21
7205.119351967477
 31
0.0
  0
LINE
  5
18704
330
747D
100
AcDbEntity
  8
部品1
100
AcDbLine
 10
10632.43665126734
 20
7214.119351967475
 30
0.0
 11
10641.43665126734
 21
7214.119351967475
 31
0.0
  0
LINE
  5
18705
330
747D
100
AcDbEntity
  8
部品1
100
AcDbLine
 10
10632.43665126734
 20
7278.119351967475
 30
0.0
 11
10632.43665126734
 21
7214.119351967475
 31
0.0
  0
LINE
  5
18706
330
747D
100
AcDbEntity
  8
部品1
100
AcDbLine
 10
10644.43665126734
 20
7309.119351967476
 30
0.0
 11
10644.43665126734
 21
7278.119351967475
 31
0.0
  0
LINE
  5
18707
330
747D
100
AcDbEntity
  8
部品1
100
AcDbLine
 10
8556.436651267343
 20
7278.119351967475
 30
0.0
 11
8544.436651267343
 21
7278.119351967475
 31
0.0
  0
LINE
  5
18708
330
747D
100
AcDbEntity
  8
部品1
100
AcDbLine
 10
8517.436651267344
 20
7282.119351967477
 30
0.0
 11
8544.436651267343
 21
7282.119351967477
 31
0.0
  0
LINE
  5
18709
330
747D
100
AcDbEntity
  8
部品1
100
AcDbLine
 10
8547.436651267343
 20
7214.119351967475
 30
0.0
 11
8547.436651267343
 21
7205.119351967477
 31
0.0
  0
LINE
  5
1870A
330
747D
100
AcDbEntity
  8
部品1
100
AcDbLine
 10
8556.436651267343
 20
7214.119351967475
 30
0.0
 11
8547.436651267343
 21
7214.119351967475
 31
0.0
  0
LINE
  5
1870B
330
747D
100
AcDbEntity
  8
部品1
100
AcDbLine
 10
8547.436651267343
 20
7205.119351967477
 30
0.0
 11
8517.436651267344
 21
7205.119351967477
 31
0.0
  0
LINE
  5
1870C
330
747D
100
AcDbEntity
  8
部品1
100
AcDbLine
 10
8517.436651267344
 20
7205.119351967477
 30
0.0
 11
8517.436651267344
 21
7282.119351967477
 31
0.0
  0
LINE
  5
1870D
330
747D
100
AcDbEntity
  8
部品1
100
AcDbLine
 10
8556.436651267343
 20
7278.119351967475
 30
0.0
 11
8556.436651267343
 21
7214.119351967475
 31
0.0
  0
LINE
  5
1870E
330
747D
100
AcDbEntity
  8
部品1
100
AcDbLine
 10
8544.436651267343
 20
7309.119351967473
 30
0.0
 11
8544.436651267343
 21
7278.119351967475
 31
0.0
  0
LINE
  5
1870F
330
747D
100
AcDbEntity
  8
部品1
100
AcDbLine
 10
8544.436651267343
 20
7309.119351967473
 30
0.0
 11
10644.43665126734
 21
7309.119351967476
 31
0.0
  0
LINE
  5
18710
330
747D
100
AcDbEntity
  8
部品1
100
AcDbLine
 10
10641.43665126734
 20
7205.119351967477
 30
0.0
 11
10671.43665126734
 21
7205.119351967477
 31
0.0
  0
LINE
  5
18711
330
747D
100
AcDbEntity
  8
部品1
100
AcDbLine
 10
8547.436651267343
 20
7205.119351967477
 30
0.0
 11
10644.43665126734
 21
7205.119351967477
 31
0.0
  0
LINE
  5
18712
330
747D
100
AcDbEntity
  8
細線
  6
Continuous
 62
     5
100
AcDbLine
 10
9923.436651267346
 20
7244.119351967473
 30
0.0
 11
9923.436651267346
 21
7244.119351967473
 31
0.0
  0
LINE
  5
18713
330
747D
100
AcDbEntity
  8
細線
  6
Continuous
 62
     5
100
AcDbLine
 10
9915.936686586238
 20
7244.119361888531
 30
0.0
 11
9915.936686586238
 21
7244.119361888531
 31
0.0
  0
LINE
  5
18714
330
747D
100
AcDbEntity
  8
細線
  6
Continuous
 62
     5
100
AcDbLine
 10
9909.936686586238
 20
7244.119361888531
 30
0.0
 11
9909.936686586238
 21
7244.119361888531
 31
0.0
  0
LINE
  5
18715
330
747D
100
AcDbEntity
  8
細線
  6
Continuous
 62
     5
100
AcDbLine
 10
9977.436651267346
 20
7263.119351967472
 30
0.0
 11
9977.436651267346
 21
7263.119351967472
 31
0.0
  0
LINE
  5
18716
330
747D
100
AcDbEntity
  8
細線
 48
50.0
100
AcDbLine
 10
8570.436655920936
 20
7230.71952614443
 30
0.0
 11
8570.436655920936
 21
7239.115676552071
 31
0.0
  0
LINE
  5
18717
330
747D
100
AcDbEntity
  8
細線
 48
50.0
100
AcDbLine
 10
8570.436655920936
 20
7239.115676552071
 30
0.0
 11
8556.436651267343
 21
7239.115676552066
 31
0.0
  0
LINE
  5
18718
330
747D
100
AcDbEntity
  8
細線
 48
50.0
100
AcDbLine
 10
9321.436655920932
 20
7227.269526144429
 30
0.0
 11
9321.436655920932
 21
7232.119526144431
 31
0.0
  0
LINE
  5
18719
330
747D
100
AcDbEntity
  8
細線
 48
50.0
100
AcDbLine
 10
9321.436655920932
 20
7232.119526144431
 30
0.0
 11
9336.436655920932
 21
7232.119526144431
 31
0.0
  0
LINE
  5
1871A
330
747D
100
AcDbEntity
  8
細線
 48
50.0
100
AcDbLine
 10
9336.436655920932
 20
7232.119526144431
 30
0.0
 11
9336.436655920936
 21
7239.119526144432
 31
0.0
  0
LINE
  5
1871B
330
747D
100
AcDbEntity
  8
細線
 48
50.0
100
AcDbLine
 10
9336.436655920936
 20
7239.119526144432
 30
0.0
 11
9351.436655920933
 21
7239.119526144432
 31
0.0
  0
LINE
  5
1871C
330
747D
100
AcDbEntity
  8
細線
 48
50.0
100
AcDbLine
 10
9351.436655920933
 20
7239.119526144432
 30
0.0
 11
9351.436655920933
 21
7210.119526144431
 31
0.0
  0
LINE
  5
1871D
330
747D
100
AcDbEntity
  8
細線
 48
50.0
100
AcDbLine
 10
8547.436651267343
 20
7210.1168604879
 30
0.0
 11
8761.436655920931
 21
7210.119543698145
 31
0.0
  0
LINE
  5
1871E
330
747D
100
AcDbEntity
  8
細線
 48
50.0
100
AcDbLine
 10
9251.436655920931
 20
7210.119526144431
 30
0.0
 11
9351.436655920933
 21
7210.119526144431
 31
0.0
  0
LINE
  5
1871F
330
747D
100
AcDbEntity
  8
細線
 48
50.0
100
AcDbLine
 10
8971.436655920932
 20
7210.119526144431
 30
0.0
 11
9041.436655920932
 21
7210.119526144431
 31
0.0
  0
LINE
  5
18720
330
747D
100
AcDbEntity
  8
細線
 48
50.0
100
AcDbLine
 10
8984.298620933461
 20
7210.119526144431
 30
0.0
 11
8990.054138516129
 21
7228.390377434926
 31
0.0
  0
LINE
  5
18721
330
747D
100
AcDbEntity
  8
細線
 48
50.0
100
AcDbLine
 10
8990.054138516129
 20
7228.390377434926
 30
0.0
 11
9000.982586996562
 21
7228.390377434923
 31
0.0
  0
ARC
  5
18722
330
747D
100
AcDbEntity
  8
細線
 48
50.0
100
AcDbCircle
 10
9000.982586996562
 20
7227.390377434922
 30
0.0
 40
1.0
100
AcDbArc
 50
24.62431835213048
 51
90.0
  0
ARC
  5
18723
330
747D
100
AcDbEntity
  8
細線
 48
50.0
100
AcDbCircle
 10
9011.891299111196
 20
7227.390377434922
 30
0.0
 40
1.0
100
AcDbArc
 50
90.0
 51
155.3756816478695
  0
ARC
  5
18724
330
747D
100
AcDbEntity
  8
細線
 48
50.0
100
AcDbCircle
 10
9006.436943053877
 20
7229.890377434923
 30
0.0
 40
5.0
100
AcDbArc
 50
204.6243183521304
 51
335.3756816478695
  0
LINE
  5
18725
330
747D
100
AcDbEntity
  8
細線
 48
50.0
100
AcDbLine
 10
9011.891299111196
 20
7228.390377434923
 30
0.0
 11
9022.819747591631
 21
7228.390377434926
 31
0.0
  0
LINE
  5
18726
330
747D
100
AcDbEntity
  8
細線
 48
50.0
100
AcDbLine
 10
9022.819747591631
 20
7228.390377434926
 30
0.0
 11
9028.575265174296
 21
7210.119526144431
 31
0.0
  0
LINE
  5
18727
330
747D
100
AcDbEntity
  8
細線
 48
50.0
100
AcDbLine
 10
9321.436655920932
 20
7230.71952614443
 30
0.0
 11
8570.436655920936
 21
7230.71952614443
 31
0.0
  0
LINE
  5
18728
330
747D
100
AcDbEntity
  8
細線
 48
50.0
100
AcDbLine
 10
9181.436655920931
 20
7210.119526144431
 30
0.0
 11
9111.436655920931
 21
7210.119526144431
 31
0.0
  0
LINE
  5
18729
330
747D
100
AcDbEntity
  8
細線
100
AcDbLine
 10
8901.436655920932
 20
7210.119526144431
 30
0.0
 11
8831.436664106348
 21
7210.119526144431
 31
0.0
  0
LINE
  5
1872A
330
747D
100
AcDbEntity
  8
細線
 48
50.0
100
AcDbLine
 10
9975.436646613758
 20
7264.719570002299
 30
0.0
 11
9340.436655920932
 21
7264.719570002295
 31
0.0
  0
LINE
  5
1872B
330
747D
100
AcDbEntity
  8
細線
 48
50.0
100
AcDbLine
 10
9340.436655920932
 20
7261.615720409938
 30
0.0
 11
9340.436655920932
 21
7266.115720409938
 31
0.0
  0
LINE
  5
1872C
330
747D
100
AcDbEntity
  8
細線
 48
50.0
100
AcDbLine
 10
9340.436655920932
 20
7266.115720409938
 30
0.0
 11
9325.436655920931
 21
7266.115720409938
 31
0.0
  0
LINE
  5
1872D
330
747D
100
AcDbEntity
  8
細線
 48
50.0
100
AcDbLine
 10
9325.436655920931
 20
7266.115720409938
 30
0.0
 11
9325.436655920931
 21
7273.115720409939
 31
0.0
  0
LINE
  5
1872E
330
747D
100
AcDbEntity
  8
細線
 48
50.0
100
AcDbLine
 10
9325.436655920931
 20
7273.115720409939
 30
0.0
 11
9310.436655920936
 21
7273.115720409935
 31
0.0
  0
LINE
  5
1872F
330
747D
100
AcDbEntity
  8
細線
 48
50.0
100
AcDbLine
 10
9310.436655920936
 20
7273.115720409935
 30
0.0
 11
9310.436655920936
 21
7235.515492306824
 31
0.0
  0
LINE
  5
18730
330
747D
100
AcDbEntity
  8
細線
 48
50.0
100
AcDbLine
 10
9310.436655920936
 20
7235.515492306824
 30
0.0
 11
9330.436663222108
 21
7235.515533856366
 31
0.0
  0
LINE
  5
18731
330
747D
100
AcDbEntity
  8
細線
 48
50.0
100
AcDbLine
 10
9330.436618353166
 20
7244.118995492174
 30
0.0
 11
9330.436663222108
 21
7235.515533856366
 31
0.0
  0
LINE
  5
18732
330
747D
100
AcDbEntity
  8
細線
 48
50.0
100
AcDbLine
 10
9975.436646613758
 20
7261.269570002298
 30
0.0
 11
9975.436646613758
 21
7266.119570002295
 31
0.0
  0
LINE
  5
18733
330
747D
100
AcDbEntity
  8
細線
 48
50.0
100
AcDbLine
 10
9975.436646613758
 20
7266.119570002295
 30
0.0
 11
9990.436646613753
 21
7266.119570002295
 31
0.0
  0
LINE
  5
18734
330
747D
100
AcDbEntity
  8
細線
 48
50.0
100
AcDbLine
 10
9990.436646613753
 20
7266.119570002295
 30
0.0
 11
9990.43665824773
 21
7273.11957000234
 31
0.0
  0
LINE
  5
18735
330
747D
100
AcDbEntity
  8
細線
 48
50.0
100
AcDbLine
 10
9990.43665824773
 20
7273.11957000234
 30
0.0
 11
10005.43665641826
 21
7273.11957000234
 31
0.0
  0
LINE
  5
18736
330
747D
100
AcDbEntity
  8
細線
 48
50.0
100
AcDbLine
 10
10005.43665641826
 20
7273.11957000234
 30
0.0
 11
10005.43664611643
 21
7244.119363830066
 31
0.0
  0
LINE
  5
18737
330
747D
100
AcDbEntity
  8
細線
 48
50.0
100
AcDbLine
 10
9692.936673747221
 20
7244.119372017433
 30
0.0
 11
9622.936925829637
 21
7244.119366580095
 31
0.0
  0
LINE
  5
18738
330
747D
100
AcDbEntity
  8
細線
 48
50.0
100
AcDbLine
 10
9330.436618353166
 20
7244.118995492174
 30
0.0
 11
9341.669307707876
 21
7244.119178445321
 31
0.0
  0
ARC
  5
18739
330
747D
100
AcDbEntity
  8
細線
 48
50.0
100
AcDbCircle
 10
9348.251600015212
 20
7242.919342358934
 30
0.0
 40
1.8
100
AcDbArc
 50
270.0006665777295
 51
345.0005554812987
  0
LINE
  5
1873A
330
747D
100
AcDbEntity
  8
細線
 48
50.0
100
AcDbLine
 10
9350.238033461293
 20
7243.378182816212
 30
0.0
 11
9349.990271019093
 21
7242.453484934106
 31
0.0
  0
LINE
  5
1873B
330
747D
100
AcDbEntity
  8
細線
 48
50.0
100
AcDbLine
 10
9348.251620956366
 20
7241.119342359055
 30
0.0
 11
9344.621693537598
 21
7241.119300128573
 31
0.0
  0
ARC
  5
1873C
330
747D
100
AcDbEntity
  8
細線
 48
50.0
100
AcDbCircle
 10
9344.621672596446
 20
7242.919300128453
 30
0.0
 40
1.8
100
AcDbArc
 50
195.0010443049394
 51
270.0006665777295
  0
LINE
  5
1873D
330
747D
100
AcDbEntity
  8
細線
 48
50.0
100
AcDbLine
 10
9342.635245104188
 20
7243.378015096017
 30
0.0
 11
9342.883014600699
 21
7242.453394157435
 31
0.0
  0
ARC
  5
1873E
330
747D
100
AcDbEntity
  8
細線
 48
50.0
100
AcDbCircle
 10
9341.669323995438
 20
7243.119178445455
 30
0.0
 40
1.0
100
AcDbArc
 50
15.00104430493943
 51
90.00093320877969
  0
LINE
  5
1873F
330
747D
100
AcDbEntity
  8
細線
 48
50.0
100
AcDbLine
 10
9351.203954816394
 20
7244.119373135726
 30
0.0
 11
9352.145714967297
 21
7244.119379709575
 31
0.0
  0
ARC
  5
18740
330
747D
100
AcDbEntity
  8
細線
 48
50.0
100
AcDbCircle
 10
9351.20396179678
 20
7243.119373135751
 30
0.0
 40
1.0
100
AcDbArc
 50
90.0003999466794
 51
165.0005554812987
  0
LINE
  5
18741
330
747D
100
AcDbEntity
  8
細線
 48
50.0
100
AcDbLine
 10
9902.936646613746
 20
7244.119363830066
 30
0.0
 11
10005.43664611643
 21
7244.119363830066
 31
0.0
  0
LINE
  5
18742
330
747D
100
AcDbEntity
  8
細線
 48
50.0
100
AcDbLine
 10
9412.936681932636
 20
7244.119372017433
 30
0.0
 11
9351.836620705716
 21
7244.119379709575
 31
0.0
  0
LINE
  5
18743
330
747D
100
AcDbEntity
  8
細線
 48
50.0
100
AcDbLine
 10
9832.936681932636
 20
7244.119408858515
 30
0.0
 11
9762.936674978252
 21
7244.119363835847
 31
0.0
  0
LINE
  5
18744
330
747D
100
AcDbEntity
  8
細線
 48
50.0
100
AcDbLine
 10
9552.936646613746
 20
7244.119363830063
 30
0.0
 11
9482.93662932587
 21
7244.11936383007
 31
0.0
  0
ARC
  5
18745
330
747D
100
AcDbEntity
  8
細線
 48
50.0
100
AcDbCircle
 10
9989.636651267353
 20
7277.319351967477
 30
0.0
 40
0.8
100
AcDbArc
 50
359.9997333689499
 51
89.99986668437072
  0
ARC
  5
18746
330
747D
100
AcDbEntity
  8
細線
 48
50.0
100
AcDbCircle
 10
9997.236658092448
 20
7277.319363136093
 30
0.0
 40
0.8
100
AcDbArc
 50
90.00014387753465
 51
179.9997333689498
  0
LINE
  5
18747
330
747D
100
AcDbEntity
  8
細線
 48
50.0
100
AcDbLine
 10
9989.636653128789
 20
7278.119351967475
 30
0.0
 11
9984.436651267344
 21
7278.119351967475
 31
0.0
  0
ARC
  5
18748
330
747D
100
AcDbEntity
  8
細線
 48
50.0
100
AcDbCircle
 10
9991.136651267344
 20
7275.819351967477
 30
0.0
 40
0.7
100
AcDbArc
 50
180.0
 51
270.0
  0
ARC
  5
18749
330
747D
100
AcDbEntity
  8
細線
 48
50.0
100
AcDbCircle
 10
9995.736651267346
 20
7275.819351967477
 30
0.0
 40
0.7
100
AcDbArc
 50
270.0
 51
0.0
  0
LINE
  5
1874A
330
747D
100
AcDbEntity
  8
細線
 48
50.0
100
AcDbLine
 10
9996.436651267343
 20
7275.819351967477
 30
0.0
 11
9996.436658092461
 21
7277.319366858965
 31
0.0
  0
LINE
  5
1874B
330
747D
100
AcDbEntity
  8
細線
 48
50.0
100
AcDbLine
 10
9991.136651267344
 20
7275.119351967475
 30
0.0
 11
9995.736651267346
 21
7275.119351967475
 31
0.0
  0
LINE
  5
1874C
330
747D
100
AcDbEntity
  8
細線
 48
50.0
100
AcDbLine
 10
9990.436651267343
 20
7277.319351967477
 30
0.0
 11
9990.436651267343
 21
7275.819351967477
 31
0.0
  0
LINE
  5
1874D
330
747D
100
AcDbEntity
  8
細線
 48
50.0
100
AcDbLine
 10
10616.03665126735
 20
7308.119351967476
 30
0.0
 11
9979.436651267342
 21
7308.119351967473
 31
0.0
  0
LINE
  5
1874E
330
747D
100
AcDbEntity
  8
細線
 48
50.0
100
AcDbLine
 10
10641.93665126734
 20
7303.11935196748
 30
0.0
 11
10626.03665126734
 21
7303.119351967476
 31
0.0
  0
LINE
  5
1874F
330
747D
100
AcDbEntity
  8
細線
 48
50.0
100
AcDbLine
 10
10626.03665126734
 20
7303.119351967476
 30
0.0
 11
10616.03665126735
 21
7308.119351967476
 31
0.0
  0
LINE
  5
18750
330
747D
100
AcDbEntity
  8
細線
100
AcDbLine
 10
10226.93665126734
 20
7278.119351967475
 30
0.0
 11
10226.93665126734
 21
7307.419351967475
 31
0.0
  0
LINE
  5
18751
330
747D
100
AcDbEntity
  8
細線
100
AcDbLine
 10
10226.93665126734
 20
7307.419351967475
 30
0.0
 11
10246.93665126734
 21
7307.419351967475
 31
0.0
  0
LINE
  5
18752
330
747D
100
AcDbEntity
  8
細線
100
AcDbLine
 10
10246.93665126734
 20
7278.119351967475
 30
0.0
 11
10246.93665126734
 21
7307.419351967475
 31
0.0
  0
LINE
  5
18753
330
747D
100
AcDbEntity
  8
細線
100
AcDbLine
 10
10408.18665126734
 20
7278.119351967475
 30
0.0
 11
10338.18665126734
 21
7278.119351967475
 31
0.0
  0
LINE
  5
18754
330
747D
100
AcDbEntity
  8
細線
 48
50.0
100
AcDbLine
 10
10128.18665126734
 20
7278.119351967475
 30
0.0
 11
9997.232430840186
 21
7278.119351967475
 31
0.0
  0
LINE
  5
18755
330
747D
100
AcDbEntity
  8
細線
100
AcDbLine
 10
10268.18665126734
 20
7278.119351967475
 30
0.0
 11
10198.18665126734
 21
7278.119351967475
 31
0.0
  0
LINE
  5
18756
330
747D
100
AcDbEntity
  8
細線
 48
50.0
100
AcDbLine
 10
9984.436651267344
 20
7270.119351967476
 30
0.0
 11
9984.436651267344
 21
7278.119351967475
 31
0.0
  0
LINE
  5
18757
330
747D
100
AcDbEntity
  8
細線
 48
50.0
100
AcDbLine
 10
9964.436651267343
 20
7270.11935196748
 30
0.0
 11
9984.436651267344
 21
7270.119351967476
 31
0.0
  0
LINE
  5
18758
330
747D
100
AcDbEntity
  8
細線
 48
50.0
100
AcDbLine
 10
9979.436651267342
 20
7308.119351967476
 30
0.0
 11
9979.436651267342
 21
7303.119351967476
 31
0.0
  0
LINE
  5
18759
330
747D
100
AcDbEntity
  8
細線
 48
50.0
100
AcDbLine
 10
9964.436651267343
 20
7308.119351967473
 30
0.0
 11
9979.436651267342
 21
7308.119351967476
 31
0.0
  0
LINE
  5
1875A
330
747D
100
AcDbEntity
  8
細線
 48
50.0
100
AcDbLine
 10
9964.436651267343
 20
7270.11935196748
 30
0.0
 11
9964.436651267343
 21
7308.119351967473
 31
0.0
  0
LINE
  5
1875B
330
747D
100
AcDbEntity
  8
細線
100
AcDbLine
 10
10632.43665126734
 20
7278.119351967475
 30
0.0
 11
10478.18665126734
 21
7278.119351967475
 31
0.0
  0
LINE
  5
1875C
330
747D
100
AcDbEntity
  8
細線
 48
50.0
100
AcDbLine
 10
10641.93665126734
 20
7303.11935196748
 30
0.0
 11
10641.93665126734
 21
7278.119351967475
 31
0.0
  0
DIMENSION
  5
1899A
330
747D
100
AcDbEntity
  8
寸法
100
AcDbDimension
  2
*D32
 10
7774.825405640651
 20
7207.119351967313
 30
0.0
 11
7774.825405640649
 21
7066.634070593075
 31
0.0
 70
   160
 71
     5
 42
75.0
  3
INABA_S40
100
AcDbAlignedDimension
 13
8069.436651267368
 23
7282.119351967313
 33
0.0
 14
8517.436651267344
 24
7207.119351967313
 34
0.0
 50
90.0
100
AcDbRotatedDimension
1001
ACAD
1000
DSTYLE
1002
{
1070
    41
1040
0.5
1070
    44
1040
1.0
1070
   147
1040
0.8
1070
   271
1070
     2
1070
   272
1070
     2
1070
   289
1070
     3
1070
   340
1005
F706
1070
   343
1005
17819
1070
   344
1005
17819
1002
}
  0
DIMENSION
  5
1899B
330
747D
100
AcDbEntity
  8
寸法
 48
50.0
100
AcDbDimension
  2
*D33
 10
10671.43665126734
 20
6284.989636539577
 30
0.0
 11
9616.569408014656
 21
6284.989636539577
 31
0.0
 70
   160
 71
     5
 42
2154.0
  3
INABA_S40G
100
AcDbAlignedDimension
 13
8517.436651267344
 23
7205.119351967344
 33
0.0
 14
10671.43665126734
 24
7205.119351967344
 34
0.0
100
AcDbRotatedDimension
1001
ACAD
1000
DSTYLE
1002
{
1070
   341
1005
0
1002
}
  0
DIMENSION
  5
18A9E
330
747D
100
AcDbEntity
  8
寸法
100
AcDbDimension
  2
*D34
 10
11119.43665126735
 20
5998.014486413016
 30
0.0
 11
9614.152481641301
 21
5998.014486413016
 31
0.0
 70
   160
 71
     5
 42
3049.999999999982
  3
INABA_S40G
100
AcDbAlignedDimension
 13
8069.436651267368
 23
7282.119351967313
 33
0.0
 14
11119.43665126735
 24
7282.119351967477
 34
0.0
100
AcDbRotatedDimension
1001
ACAD
1000
DSTYLE
1002
{
1002
}
  0
LINE
  5
18AA9
330
747D
100
AcDbEntity
  8
部品1
100
AcDbLine
 10
9976.171984381586
 20
5668.098707377096
 30
0.0
 11
9212.701318153149
 21
5668.098707377096
 31
0.0
  0
LINE
  5
18AAA
330
747D
100
AcDbEntity
  8
部品1
100
AcDbLine
 10
9976.171984381586
 20
5428.206385831563
 30
0.0
 11
9976.171984381586
 21
5668.098707377096
 31
0.0
  0
LINE
  5
18AAB
330
747D
100
AcDbEntity
  8
部品1
100
AcDbLine
 10
9212.701318153149
 20
5428.206385831563
 30
0.0
 11
9976.171984381586
 21
5428.206385831563
 31
0.0
  0
LINE
  5
18AAC
330
747D
100
AcDbEntity
  8
部品1
100
AcDbLine
 10
9212.701318153149
 20
5668.098707377096
 30
0.0
 11
9212.701318153149
 21
5428.206385831563
 31
0.0
  0
TEXT
  5
18AAD
330
747D
100
AcDbEntity
  8
部品1
100
AcDbText
 10
9302.620927982186
 20
5475.205178158573
 30
0.0
 40
135.0
  1
平面図
  7
STYLE2
100
AcDbText
  0
LWPOLYLINE
  5
18CC7
330
747D
100
AcDbEntity
  8
部品1
 48
50.0
100
AcDbPolyline
 90
        4
 70
     1
 43
0.0
 10
8616.486651267377
 20
2681.282661963827
 10
8619.386651267378
 20
2681.282661963827
 10
8619.386651267378
 20
2690.782661963827
 10
8616.486651267377
 20
2690.782661963827
  0
CIRCLE
  5
18CC8
330
747D
100
AcDbEntity
  8
部品1
 48
50.0
100
AcDbCircle
 10
8617.936651267376
 20
2686.032661963827
 30
0.0
 40
9.0
  0
ARC
  5
18CC9
330
747D
100
AcDbEntity
  8
細線
 48
50.0
100
AcDbCircle
 10
8617.936651267376
 20
2686.032661963827
 30
0.0
 40
4.0
100
AcDbArc
 50
111.2538091853132
 51
248.7461908146868
  0
ARC
  5
18CCA
330
747D
100
AcDbEntity
  8
細線
 48
50.0
100
AcDbCircle
 10
8617.936651267376
 20
2686.032661963827
 30
0.0
 40
17.5
100
AcDbArc
 50
306.4837370612677
 51
233.5162629387323
  0
LINE
  5
18CCB
330
747D
100
AcDbEntity
  8
細線
 48
50.0
100
AcDbLine
 10
8627.936651267374
 20
2662.173701382944
 30
0.0
 11
8627.936651267377
 21
2671.158187183186
 31
0.0
  0
LINE
  5
18CCC
330
747D
100
AcDbEntity
  8
細線
 48
50.0
100
AcDbLine
 10
8607.936651267378
 20
2662.173701382946
 30
0.0
 11
8607.936651267378
 21
2671.158187183182
 31
0.0
  0
ARC
  5
18CCD
330
747D
100
AcDbEntity
  8
細線
 48
50.0
100
AcDbCircle
 10
8617.936651267376
 20
2686.032661963827
 30
0.0
 40
26.5
100
AcDbArc
 50
249.3326835063939
 51
290.6673164933835
  0
ARC
  5
18CCE
330
747D
100
AcDbEntity
  8
細線
 48
50.0
100
AcDbCircle
 10
8626.936651267369
 20
2662.173701382944
 30
0.0
 40
1.0
100
AcDbArc
 50
290.6673164936062
 51
359.9999999998958
  0
ARC
  5
18CCF
330
747D
100
AcDbEntity
  8
細線
 48
50.0
100
AcDbCircle
 10
8608.936651267377
 20
2662.173701382946
 30
0.0
 40
1.0
100
AcDbArc
 50
180.0
 51
249.3326835066164
  0
ARC
  5
18CD0
330
747D
100
AcDbEntity
  8
細線
 48
50.0
100
AcDbCircle
 10
8606.936651267377
 20
2671.158187183182
 30
0.0
 40
1.0
100
AcDbArc
 50
0.0
 51
53.51626293873231
  0
ARC
  5
18CD1
330
747D
100
AcDbEntity
  8
細線
 48
50.0
100
AcDbCircle
 10
8628.93665126738
 20
2671.158187183186
 30
0.0
 40
1.0
100
AcDbArc
 50
126.4837370615127
 51
180.0
  0
ARC
  5
18CD2
330
747D
100
AcDbEntity
  8
細線
 48
50.0
100
AcDbCircle
 10
8617.936651267376
 20
2686.032661963827
 30
0.0
 40
21.5
100
AcDbArc
 50
255.8014401250294
 51
284.1985598749706
  0
ARC
  5
18CD3
330
747D
100
AcDbEntity
  8
細線
 48
50.0
100
AcDbCircle
 10
8617.936651267376
 20
2686.032661963827
 30
0.0
 40
16.5
100
AcDbArc
 50
251.9694646069326
 51
288.0305353930674
  0
LINE
  5
18CD4
330
747D
100
AcDbEntity
  8
細線
 48
50.0
100
AcDbLine
 10
8623.436651267377
 20
2665.480289838021
 30
0.0
 11
8623.436651267377
 21
2670.057681525357
 31
0.0
  0
LINE
  5
18CD5
330
747D
100
AcDbEntity
  8
細線
 48
50.0
100
AcDbLine
 10
8612.436651267378
 20
2665.480289838021
 30
0.0
 11
8612.436651267378
 21
2670.057681525356
 31
0.0
  0
ARC
  5
18CD6
330
747D
100
AcDbEntity
  8
細線
 48
50.0
100
AcDbCircle
 10
8612.736651267381
 20
2670.057681525356
 30
0.0
 40
0.3
100
AcDbArc
 50
71.96946460693259
 51
180.0
  0
ARC
  5
18CD7
330
747D
100
AcDbEntity
  8
細線
 48
50.0
100
AcDbCircle
 10
8623.136651267378
 20
2670.057681525357
 30
0.0
 40
0.3
100
AcDbArc
 50
0.0
 51
108.0305353930674
  0
ARC
  5
18CD8
330
747D
100
AcDbEntity
  8
細線
 48
50.0
100
AcDbCircle
 10
8623.136651267374
 20
2665.480289838021
 30
0.0
 40
0.3
100
AcDbArc
 50
284.1985598747622
 51
0.0000000001042204
  0
ARC
  5
18CD9
330
747D
100
AcDbEntity
  8
細線
 48
50.0
100
AcDbCircle
 10
8612.736651267381
 20
2665.480289838021
 30
0.0
 40
0.3
100
AcDbArc
 50
180.0
 51
255.8014401248081
  0
CIRCLE
  5
18CDA
330
747D
100
AcDbEntity
  8
細線
 48
50.0
100
AcDbCircle
 10
8617.936651267376
 20
2686.032661963827
 30
0.0
 40
12.0
  0
ARC
  5
18CDB
330
747D
100
AcDbEntity
  8
部品1
 48
50.0
100
AcDbCircle
 10
8617.936651267376
 20
2736.032661963827
 30
0.0
 40
8.5
100
AcDbArc
 50
114.315739171091
 51
245.684260828909
  0
CIRCLE
  5
18CDC
330
747D
100
AcDbEntity
  8
細線
 48
50.0
100
AcDbCircle
 10
8617.936651267376
 20
2736.032661963827
 30
0.0
 40
4.5
  0
LWPOLYLINE
  5
18CDD
330
747D
100
AcDbEntity
  8
部品1
 48
50.0
100
AcDbPolyline
 90
        2
 70
     0
 43
0.0
 10
8614.436651267377
 20
2754.70751136081
 10
8614.436651267377
 20
2743.778628656242
  0
CIRCLE
  5
18CDE
330
747D
100
AcDbEntity
  8
部品1
 48
50.0
100
AcDbCircle
 10
8617.936651267376
 20
2736.032661963827
 30
0.0
 40
19.0
  0
LWPOLYLINE
  5
18CDF
330
747D
100
AcDbEntity
  8
部品1
 48
50.0
100
AcDbPolyline
 90
        2
 70
     0
 43
0.0
 10
8614.436651267377
 20
2728.286695271413
 10
8614.436651267377
 20
2717.357812566845
  0
LWPOLYLINE
  5
18CE0
330
747D
100
AcDbEntity
  8
部品1
 48
50.0
100
AcDbPolyline
 90
        2
 70
     0
 43
0.0
 10
8621.436651267378
 20
2743.778628656242
 10
8621.436651267378
 20
2754.70751136081
  0
ARC
  5
18CE1
330
747D
100
AcDbEntity
  8
部品1
 48
50.0
100
AcDbCircle
 10
8617.936651267376
 20
2736.032661963827
 30
0.0
 40
8.5
100
AcDbArc
 50
294.315739171091
 51
65.68426082890896
  0
LWPOLYLINE
  5
18CE2
330
747D
100
AcDbEntity
  8
部品1
 48
50.0
100
AcDbPolyline
 90
        2
 70
     0
 43
0.0
 10
8621.436651267378
 20
2717.357812566845
 10
8621.436651267378
 20
2728.286695271413
  0
ARC
  5
18CE3
330
747D
100
AcDbEntity
  8
細線
 48
50.0
100
AcDbCircle
 10
8617.936651267376
 20
2736.032661963827
 30
0.0
 40
16.5
100
AcDbArc
 50
332.0012352654438
 51
27.99876473455621
  0
ARC
  5
18CE4
330
747D
100
AcDbEntity
  8
細線
 48
50.0
100
AcDbCircle
 10
8617.936651267376
 20
2736.032661963827
 30
0.0
 40
14.0
100
AcDbArc
 50
326.4074436112986
 51
33.59255638870134
  0
LINE
  5
18CE5
330
747D
100
AcDbEntity
  8
細線
 48
50.0
100
AcDbLine
 10
8603.367848983046
 20
2743.778628656242
 30
0.0
 11
8606.274747477689
 21
2743.778628656242
 31
0.0
  0
LINE
  5
18CE6
330
747D
100
AcDbEntity
  8
細線
 48
50.0
100
AcDbLine
 10
8603.367848983046
 20
2728.286695271413
 30
0.0
 11
8606.274747477689
 21
2728.286695271413
 31
0.0
  0
LINE
  5
18CE7
330
747D
100
AcDbEntity
  8
細線
 48
50.0
100
AcDbLine
 10
8629.598555057066
 20
2743.778628656242
 30
0.0
 11
8632.505453551713
 21
2743.778628656242
 31
0.0
  0
LINE
  5
18CE8
330
747D
100
AcDbEntity
  8
細線
 48
50.0
100
AcDbLine
 10
8629.598555057066
 20
2728.286695271413
 30
0.0
 11
8632.505453551713
 21
2728.286695271413
 31
0.0
  0
ARC
  5
18CE9
330
747D
100
AcDbEntity
  8
細線
 48
50.0
100
AcDbCircle
 10
8617.936651267376
 20
2736.032661963827
 30
0.0
 40
14.0
100
AcDbArc
 50
146.4074436112986
 51
213.5925563887013
  0
ARC
  5
18CEA
330
747D
100
AcDbEntity
  8
細線
 48
50.0
100
AcDbCircle
 10
8617.936651267376
 20
2736.032661963827
 30
0.0
 40
16.5
100
AcDbArc
 50
152.0012352654438
 51
207.9987647345562
  0
ARC
  5
18CEB
330
747D
100
AcDbEntity
  8
部品1
 48
50.0
100
AcDbCircle
 10
8591.436651267377
 20
2761.532661963827
 30
0.0
 40
5.0
100
AcDbArc
 50
90.0
 51
180.0
  0
ARC
  5
18CEC
330
747D
100
AcDbEntity
  8
部品1
 48
50.0
100
AcDbCircle
 10
8591.436651267377
 20
2650.532661963827
 30
0.0
 40
5.0
100
AcDbArc
 50
180.0
 51
270.0
  0
ARC
  5
18CED
330
747D
100
AcDbEntity
  8
部品1
 48
50.0
100
AcDbCircle
 10
8644.436651267376
 20
2650.532661963827
 30
0.0
 40
5.0
100
AcDbArc
 50
270.0
 51
0.0
  0
ARC
  5
18CEE
330
747D
100
AcDbEntity
  8
部品1
 48
50.0
100
AcDbCircle
 10
8644.436651267376
 20
2761.532661963827
 30
0.0
 40
5.0
100
AcDbArc
 50
0.0
 51
90.0
  0
LINE
  5
18CF0
330
747D
100
AcDbEntity
  8
部品1
 48
50.0
100
AcDbLine
 10
8586.436651267376
 20
2650.532661963827
 30
0.0
 11
8586.436651267376
 21
2761.532661963827
 31
0.0
  0
LINE
  5
18CF1
330
747D
100
AcDbEntity
  8
部品1
 48
50.0
100
AcDbLine
 10
8644.436651267376
 20
2645.532661963827
 30
0.0
 11
8591.436651267377
 21
2645.532661963827
 31
0.0
  0
LINE
  5
18CF2
330
747D
100
AcDbEntity
  8
部品1
 48
50.0
100
AcDbLine
 10
8649.436651267377
 20
2761.532661963827
 30
0.0
 11
8649.436651267377
 21
2650.532661963827
 31
0.0
  0
ENDSEC
  0
SECTION
  2
OBJECTS
  0
DICTIONARY
  5
7471
330
0
100
AcDbDictionary
281
     1
  3
ACAD_COLOR
350
1780E
  3
ACAD_GROUP
350
7472
  3
ACAD_LAYOUT
350
1780F
  3
ACAD_MATERIAL
350
1780D
  3
ACAD_MLINESTYLE
350
7473
  3
ACAD_PLOTSETTINGS
350
17810
  3
ACAD_PLOTSTYLENAME
350
1780B
  3
ACDBHEADERROUNDTRIPXREC
350
18D01
  3
AcDbVariableDictionary
350
18CFD
  3
CONTENTDICTIONARY
350
E71C
  3
DRAWINGVARIABLESDICT
350
F3B9
  0
DICTIONARY
  5
179B5
330
7467
100
AcDbDictionary
280
     1
281
     1
  3
ACAD_LAYERSTATES
360
179B6
  0
DICTIONARY
  5
1780E
102
{ACAD_REACTORS
330
7471
102
}
330
7471
100
AcDbDictionary
281
     1
  0
DICTIONARY
  5
7472
102
{ACAD_REACTORS
330
7471
102
}
330
7471
100
AcDbDictionary
281
     1
  0
DICTIONARY
  5
1780F
102
{ACAD_REACTORS
330
7471
102
}
330
7471
100
AcDbDictionary
281
     1
  3
Model
350
17811
  3
レイアウト1
350
17812
  0
DICTIONARY
  5
1780D
102
{ACAD_REACTORS
330
7471
102
}
330
7471
100
AcDbDictionary
281
     1
  0
DICTIONARY
  5
7473
102
{ACAD_REACTORS
330
7471
102
}
330
7471
100
AcDbDictionary
281
     1
  3
STANDARD
350
7480
  0
DICTIONARY
  5
17810
102
{ACAD_REACTORS
330
7471
102
}
330
7471
100
AcDbDictionary
281
     1
  0
ACDBDICTIONARYWDFLT
  5
1780B
102
{ACAD_REACTORS
330
7471
102
}
330
7471
100
AcDbDictionary
281
     1
  3
Normal
350
1780C
100
AcDbDictionaryWithDefault
340
1780C
  0
DICTIONARY
  5
18D01
102
{ACAD_REACTORS
330
7471
102
}
330
7471
100
AcDbDictionary
281
     1
  3
COLORDICT
350
18D03
  3
MATERIALDICT
350
18D02
  0
DICTIONARY
  5
18CFD
102
{ACAD_REACTORS
330
7471
102
}
330
7471
100
AcDbDictionary
281
     1
  3
DIMASSOC
350
18CFE
  3
PROJECTNAME
350
18CFF
  0
DICTIONARY
  5
E71C
102
{ACAD_REACTORS
330
7471
102
}
330
7471
100
AcDbDictionary
281
     1
  0
DICTIONARY
  5
F3B9
102
{ACAD_REACTORS
330
7471
102
}
330
7471
100
AcDbDictionary
281
     1
1001
DRAWINGVARIABLESXDATA
1000
POLARMODE
1000
1
  0
DICTIONARY
  5
179B6
102
{ACAD_REACTORS
330
179B5
102
}
330
179B5
100
AcDbDictionary
281
     1
  0
LAYOUT
  5
17811
102
{ACAD_XDICTIONARY
360
18D04
102
}
102
{ACAD_REACTORS
330
1780F
102
}
330
1780F
100
AcDbPlotSettings
  1

  2
Microsoft Office Document Image Writer
  4

  6

 40
0.0
 41
0.0
 42
0.0
 43
0.0
 44
0.0
 45
0.0
 46
0.0
 47
0.0
 48
0.0
 49
0.0
140
0.0
141
0.0
142
1.0
143
1.0
 70
  1712
 72
     0
 73
     0
 74
     0
  7

 75
     0
147
1.0
148
0.0
149
0.0
100
AcDbLayout
  1
Model
 70
     1
 71
     0
 10
0.0
 20
0.0
 11
12.0
 21
9.0
 12
0.0
 22
0.0
 32
0.0
 14
0.0
 24
0.0
 34
0.0
 15
0.0
 25
0.0
 35
0.0
146
0.0
 13
0.0
 23
0.0
 33
0.0
 16
1.0
 26
0.0
 36
0.0
 17
0.0
 27
1.0
 37
0.0
 76
     0
330
747D
  0
LAYOUT
  5
17812
102
{ACAD_XDICTIONARY
360
18D06
102
}
102
{ACAD_REACTORS
330
1780F
102
}
330
1780F
100
AcDbPlotSettings
  1

  2
Microsoft Office Document Image Writer
  4

  6

 40
0.0
 41
0.0
 42
0.0
 43
0.0
 44
0.0
 45
0.0
 46
0.0
 47
0.0
 48
0.0
 49
0.0
140
0.0
141
0.0
142
1.0
143
1.0
 70
   688
 72
     0
 73
     0
 74
     5
  7

 75
    16
147
1.0
148
0.0
149
0.0
100
AcDbLayout
  1
レイアウト1
 70
     0
 71
     1
 10
0.0
 20
0.0
 11
420.0
 21
297.0
 12
0.0
 22
0.0
 32
0.0
 14
1.000000000000000E+20
 24
1.000000000000000E+20
 34
1.000000000000000E+20
 15
-1.000000000000000E+20
 25
-1.000000000000000E+20
 35
-1.000000000000000E+20
146
0.0
 13
0.0
 23
0.0
 33
0.0
 16
1.0
 26
0.0
 36
0.0
 17
0.0
 27
1.0
 37
0.0
 76
     0
330
747A
  0
MLINESTYLE
  5
7480
102
{ACAD_REACTORS
330
7473
102
}
330
7473
100
AcDbMlineStyle
  2
STANDARD
 70
     0
  3

 62
     0
 51
90.0
 52
90.0
 71
     2
 49
0.5
 62
   256
  6
BYLAYER
 49
-0.5
 62
   256
  6
BYLAYER
  0
ACDBPLACEHOLDER
  5
1780C
102
{ACAD_REACTORS
330
1780B
102
}
330
1780B
  0
XRECORD
  5
18D03
102
{ACAD_REACTORS
330
18D01
102
}
330
18D01
100
AcDbXrecord
280
     1
340
1780E
  0
XRECORD
  5
18D02
102
{ACAD_REACTORS
330
18D01
102
}
330
18D01
100
AcDbXrecord
280
     1
340
1780D
  0
DICTIONARYVAR
  5
18CFE
102
{ACAD_REACTORS
330
18CFD
102
}
330
18CFD
100
DictionaryVariables
280
     0
  1
1
  0
DICTIONARYVAR
  5
18CFF
102
{ACAD_REACTORS
330
18CFD
102
}
330
18CFD
100
DictionaryVariables
280
     0
  1

  0
DICTIONARY
  5
18D04
330
17811
100
AcDbDictionary
280
     1
281
     1
  3
ACAD_XREC_ROUNDTRIP
360
18D05
  0
DICTIONARY
  5
18D06
330
17812
100
AcDbDictionary
280
     1
281
     1
  3
ACAD_XREC_ROUNDTRIP
360
18D07
  0
XRECORD
  5
18D05
102
{ACAD_REACTORS
330
18D04
102
}
330
18D04
100
AcDbXrecord
280
     1
102
SHADEPLOT
 70
     0
102
SHADEPLOTRESLEVEL
 70
     2
102
SHADEPLOTCUSTOMDPI
 70
   300
  0
XRECORD
  5
18D07
102
{ACAD_REACTORS
330
18D06
102
}
330
18D06
100
AcDbXrecord
280
     1
102
SHADEPLOT
 70
     0
102
SHADEPLOTRESLEVEL
 70
     2
102
SHADEPLOTCUSTOMDPI
 70
   300
  0
ENDSEC
  0
EOF
