  0
SECTION
  2
HEADER
  9
$ACADVER
  1
AC1015
  9
$ACADMAINTVER
 70
    20
  9
$DWGCODEPAGE
  3
ANSI_932
  9
$INSBASE
 10
0.0
 20
0.0
 30
0.0
  9
$EXTMIN
 10
139.9999999999995
 20
-0.0000000000000909
 30
0.0
  9
$EXTMAX
 10
16307.2
 20
11409.6
 30
0.0
  9
$LIMMIN
 10
-25.79074261211281
 20
-125.8223078213959
  9
$LIMMAX
 10
16471.10331197129
 20
11496.44801950658
  9
$ORTHOMODE
 70
     0
  9
$REGENMODE
 70
     1
  9
$FILLMODE
 70
     1
  9
$QTEXTMODE
 70
     0
  9
$MIRRTEXT
 70
     1
  9
$LTSCALE
 40
20.0
  9
$ATTMODE
 70
     1
  9
$TEXTSIZE
 40
4.0
  9
$TRACEWID
 40
1.0
  9
$TEXTSTYLE
  7
STYLE1
  9
$CLAYER
  8
部品1
  9
$CELTYPE
  6
BYLAYER
  9
$CECOLOR
 62
   256
  9
$CELTSCALE
 40
50.0
  9
$DISPSILH
 70
     0
  9
$DIMSCALE
 40
40.0
  9
$DIMASZ
 40
2.5
  9
$DIMEXO
 40
0.5
  9
$DIMDLI
 40
7.0
  9
$DIMRND
 40
0.0
  9
$DIMDLE
 40
0.0
  9
$DIMEXE
 40
1.5
  9
$DIMTP
 40
0.0
  9
$DIMTM
 40
0.0
  9
$DIMTXT
 40
3.0
  9
$DIMCEN
 40
0.0
  9
$DIMTSZ
 40
0.0
  9
$DIMTOL
 70
     0
  9
$DIMLIM
 70
     0
  9
$DIMTIH
 70
     0
  9
$DIMTOH
 70
     0
  9
$DIMSE1
 70
     0
  9
$DIMSE2
 70
     0
  9
$DIMTAD
 70
     3
  9
$DIMZIN
 70
     8
  9
$DIMBLK
  1

  9
$DIMASO
 70
     1
  9
$DIMSHO
 70
     1
  9
$DIMPOST
  1

  9
$DIMAPOST
  1

  9
$DIMALT
 70
     0
  9
$DIMALTD
 70
     2
  9
$DIMALTF
 40
0.0394
  9
$DIMLFAC
 40
1.0
  9
$DIMTOFL
 70
     1
  9
$DIMTVP
 40
0.0
  9
$DIMTIX
 70
     1
  9
$DIMSOXD
 70
     0
  9
$DIMSAH
 70
     1
  9
$DIMBLK1
  1
DOTSMALL
  9
$DIMBLK2
  1
DOTSMALL
  9
$DIMSTYLE
  2
INABA_S40G
  9
$DIMCLRD
 70
     0
  9
$DIMCLRE
 70
     0
  9
$DIMCLRT
 70
     7
  9
$DIMTFAC
 40
1.0
  9
$DIMGAP
 40
1.0
  9
$DIMJUST
 70
     0
  9
$DIMSD1
 70
     0
  9
$DIMSD2
 70
     0
  9
$DIMTOLJ
 70
     1
  9
$DIMTZIN
 70
     0
  9
$DIMALTZ
 70
     0
  9
$DIMALTTZ
 70
     0
  9
$DIMUPT
 70
     0
  9
$DIMDEC
 70
     1
  9
$DIMTDEC
 70
     4
  9
$DIMALTU
 70
     2
  9
$DIMALTTD
 70
     2
  9
$DIMTXSTY
  7
STYLE1
  9
$DIMAUNIT
 70
     0
  9
$DIMADEC
 70
     0
  9
$DIMALTRND
 40
0.0
  9
$DIMAZIN
 70
     0
  9
$DIMDSEP
 70
    46
  9
$DIMATFIT
 70
     3
  9
$DIMFRAC
 70
     0
  9
$DIMLDRBLK
  1

  9
$DIMLUNIT
 70
     2
  9
$DIMLWD
 70
    -2
  9
$DIMLWE
 70
    -2
  9
$DIMTMOVE
 70
     0
  9
$LUNITS
 70
     2
  9
$LUPREC
 70
     1
  9
$SKETCHINC
 40
1.0
  9
$FILLETRAD
 40
3.0
  9
$AUNITS
 70
     0
  9
$AUPREC
 70
     0
  9
$MENU
  1
acad
  9
$ELEVATION
 40
0.0
  9
$PELEVATION
 40
0.0
  9
$THICKNESS
 40
0.0
  9
$LIMCHECK
 70
     0
  9
$CHAMFERA
 40
0.0
  9
$CHAMFERB
 40
0.0
  9
$CHAMFERC
 40
0.0
  9
$CHAMFERD
 40
0.0
  9
$SKPOLY
 70
     0
  9
$TDCREATE
 40
2451368.612993866
  9
$TDUCREATE
 40
2451368.237993866
  9
$TDUPDATE
 40
2455575.683292454
  9
$TDUUPDATE
 40
2455575.308292454
  9
$TDINDWG
 40
0.5095651505
  9
$TDUSRTIMER
 40
0.5095651505
  9
$USRTIMER
 70
     1
  9
$ANGBASE
 50
0.0
  9
$ANGDIR
 70
     0
  9
$PDMODE
 70
     3
  9
$PDSIZE
 40
2.0
  9
$PLINEWID
 40
0.0
  9
$SPLFRAME
 70
     0
  9
$SPLINETYPE
 70
     6
  9
$SPLINESEGS
 70
     8
  9
$HANDSEED
  5
19B6E
  9
$SURFTAB1
 70
     6
  9
$SURFTAB2
 70
     6
  9
$SURFTYPE
 70
     6
  9
$SURFU
 70
     6
  9
$SURFV
 70
     6
  9
$UCSBASE
  2

  9
$UCSNAME
  2

  9
$UCSORG
 10
0.0
 20
0.0
 30
0.0
  9
$UCSXDIR
 10
1.0
 20
0.0
 30
0.0
  9
$UCSYDIR
 10
0.0
 20
1.0
 30
0.0
  9
$UCSORTHOREF
  2

  9
$UCSORTHOVIEW
 70
     0
  9
$UCSORGTOP
 10
0.0
 20
0.0
 30
0.0
  9
$UCSORGBOTTOM
 10
0.0
 20
0.0
 30
0.0
  9
$UCSORGLEFT
 10
0.0
 20
0.0
 30
0.0
  9
$UCSORGRIGHT
 10
0.0
 20
0.0
 30
0.0
  9
$UCSORGFRONT
 10
0.0
 20
0.0
 30
0.0
  9
$UCSORGBACK
 10
0.0
 20
0.0
 30
0.0
  9
$PUCSBASE
  2

  9
$PUCSNAME
  2

  9
$PUCSORG
 10
0.0
 20
0.0
 30
0.0
  9
$PUCSXDIR
 10
1.0
 20
0.0
 30
0.0
  9
$PUCSYDIR
 10
0.0
 20
1.0
 30
0.0
  9
$PUCSORTHOREF
  2

  9
$PUCSORTHOVIEW
 70
     0
  9
$PUCSORGTOP
 10
0.0
 20
0.0
 30
0.0
  9
$PUCSORGBOTTOM
 10
0.0
 20
0.0
 30
0.0
  9
$PUCSORGLEFT
 10
0.0
 20
0.0
 30
0.0
  9
$PUCSORGRIGHT
 10
0.0
 20
0.0
 30
0.0
  9
$PUCSORGFRONT
 10
0.0
 20
0.0
 30
0.0
  9
$PUCSORGBACK
 10
0.0
 20
0.0
 30
0.0
  9
$USERI1
 70
     0
  9
$USERI2
 70
     0
  9
$USERI3
 70
     0
  9
$USERI4
 70
     0
  9
$USERI5
 70
     0
  9
$USERR1
 40
0.0
  9
$USERR2
 40
0.0
  9
$USERR3
 40
0.0
  9
$USERR4
 40
0.0
  9
$USERR5
 40
0.0
  9
$WORLDVIEW
 70
     1
  9
$SHADEDGE
 70
     3
  9
$SHADEDIF
 70
    70
  9
$TILEMODE
 70
     1
  9
$MAXACTVP
 70
    16
  9
$PINSBASE
 10
0.0
 20
0.0
 30
0.0
  9
$PLIMCHECK
 70
     0
  9
$PEXTMIN
 10
1.000000000000000E+20
 20
1.000000000000000E+20
 30
1.000000000000000E+20
  9
$PEXTMAX
 10
-1.000000000000000E+20
 20
-1.000000000000000E+20
 30
-1.000000000000000E+20
  9
$PLIMMIN
 10
0.0
 20
0.0
  9
$PLIMMAX
 10
420.0
 20
297.0
  9
$UNITMODE
 70
     0
  9
$VISRETAIN
 70
     0
  9
$PLINEGEN
 70
     0
  9
$PSLTSCALE
 70
     0
  9
$TREEDEPTH
 70
  3020
  9
$CMLSTYLE
  2
STANDARD
  9
$CMLJUST
 70
     0
  9
$CMLSCALE
 40
1.0
  9
$PROXYGRAPHICS
 70
     1
  9
$MEASUREMENT
 70
     1
  9
$CELWEIGHT
370
    -1
  9
$ENDCAPS
280
     0
  9
$JOINSTYLE
280
     0
  9
$LWDISPLAY
290
     0
  9
$INSUNITS
 70
     0
  9
$HYPERLINKBASE
  1

  9
$STYLESHEET
  1
inaba.ctb
  9
$XEDIT
290
     1
  9
$CEPSNTYPE
380
     0
  9
$PSTYLEMODE
290
     1
  9
$FINGERPRINTGUID
  2
{BDECA8C3-BA59-4D68-B329-B94FC7C112C6}
  9
$VERSIONGUID
  2
{E5E0B843-4099-4C14-B362-5CB1EB7DB044}
  9
$EXTNAMES
290
     1
  9
$PSVPSCALE
 40
0.0
  9
$OLESTARTUP
290
     0
  0
ENDSEC
  0
SECTION
  2
CLASSES
  0
CLASS
  1
ACDBDICTIONARYWDFLT
  2
AcDbDictionaryWithDefault
  3
ObjectDBX Classes
 90
        0
280
     0
281
     0
  0
CLASS
  1
DICTIONARYVAR
  2
AcDbDictionaryVar
  3
ObjectDBX Classes
 90
        0
280
     0
281
     0
  0
CLASS
  1
ACDBPLACEHOLDER
  2
AcDbPlaceHolder
  3
ObjectDBX Classes
 90
        0
280
     0
281
     0
  0
CLASS
  1
LAYOUT
  2
AcDbLayout
  3
ObjectDBX Classes
 90
        0
280
     0
281
     0
  0
ENDSEC
  0
SECTION
  2
TABLES
  0
TABLE
  2
VPORT
  5
746D
330
0
100
AcDbSymbolTable
 70
     2
  0
VPORT
  5
19B66
330
746D
100
AcDbSymbolTableRecord
100
AcDbViewportTableRecord
  2
*Active
 70
     0
 10
0.0
 20
0.0
 11
1.0
 21
1.0
 12
8223.761025238504
 22
5704.608037261908
 13
0.0
 23
0.0
 14
10.0
 24
10.0
 15
10.0
 25
10.0
 16
0.0
 26
0.0
 36
1.0
 17
0.0
 27
0.0
 37
0.0
 40
11495.08541324274
 41
1.525925925925925
 42
50.0
 43
0.0
 44
0.0
 50
0.0
 51
0.0
 71
     0
 72
     0
 73
     1
 74
     0
 75
     0
 76
     0
 77
     0
 78
     0
281
     0
 65
     1
110
0.0
120
0.0
130
0.0
111
1.0
121
0.0
131
0.0
112
0.0
122
1.0
132
0.0
 79
     0
146
0.0
  0
ENDTAB
  0
TABLE
  2
LTYPE
  5
746A
330
0
100
AcDbSymbolTable
 70
     4
  0
LTYPE
  5
7477
330
746A
100
AcDbSymbolTableRecord
100
AcDbLinetypeTableRecord
  2
BYBLOCK
 70
     0
  3

 72
    65
 73
     0
 40
0.0
  0
LTYPE
  5
7478
330
746A
100
AcDbSymbolTableRecord
100
AcDbLinetypeTableRecord
  2
BYLAYER
 70
     0
  3

 72
    65
 73
     0
 40
0.0
  0
LTYPE
  5
7479
330
746A
100
AcDbSymbolTableRecord
100
AcDbLinetypeTableRecord
  2
CONTINUOUS
 70
     0
  3
Solid line
 72
    65
 73
     0
 40
0.0
  0
LTYPE
  5
7816
330
746A
100
AcDbSymbolTableRecord
100
AcDbLinetypeTableRecord
  2
CENTER
 70
     0
  3
____ _ ____ _ ____ _ ____ _ ____ _ ____ _ ____ 
 72
    65
 73
     4
 40
2.0
 49
1.25
 74
     0
 49
-0.25
 74
     0
 49
0.25
 74
     0
 49
-0.25
 74
     0
  0
LTYPE
  5
781A
330
746A
100
AcDbSymbolTableRecord
100
AcDbLinetypeTableRecord
  2
HIDDEN
 70
     0
  3
__ __ __ __ __ __ __ __ __ __ __ __ __ __ __ __
 72
    65
 73
     2
 40
0.375
 49
0.25
 74
     0
 49
-0.125
 74
     0
  0
LTYPE
  5
781B
330
746A
100
AcDbSymbolTableRecord
100
AcDbLinetypeTableRecord
  2
PHANTOM
 70
     0
  3
______  __  __  ______  __  __  ______  __  __ 
 72
    65
 73
     6
 40
2.5
 49
1.25
 74
     0
 49
-0.25
 74
     0
 49
0.25
 74
     0
 49
-0.25
 74
     0
 49
0.25
 74
     0
 49
-0.25
 74
     0
  0
ENDTAB
  0
TABLE
  2
LAYER
  5
7467
102
{ACAD_XDICTIONARY
360
186F6
102
}
330
0
100
AcDbSymbolTable
 70
    12
  0
LAYER
  5
7474
330
7467
100
AcDbSymbolTableRecord
100
AcDbLayerTableRecord
  2
0
 70
     0
 62
     7
  6
CONTINUOUS
370
    -3
390
1855A
  0
LAYER
  5
DEB2
330
7467
100
AcDbSymbolTableRecord
100
AcDbLayerTableRecord
  2
センター
 70
     0
 62
     3
  6
CENTER
370
    -3
390
1855A
  0
LAYER
  5
DEB3
330
7467
100
AcDbSymbolTableRecord
100
AcDbLayerTableRecord
  2
寸法
 70
     0
 62
     4
  6
CONTINUOUS
370
    -3
390
1855A
  0
LAYER
  5
DEB4
330
7467
100
AcDbSymbolTableRecord
100
AcDbLayerTableRecord
  2
部品1
 70
     0
 62
     7
  6
CONTINUOUS
370
    -3
390
1855A
  0
LAYER
  5
DEB5
330
7467
100
AcDbSymbolTableRecord
100
AcDbLayerTableRecord
  2
補助
 70
     0
 62
    -1
  6
CONTINUOUS
370
    -3
390
1855A
  0
LAYER
  5
DEB6
330
7467
100
AcDbSymbolTableRecord
100
AcDbLayerTableRecord
  2
文字
 70
     0
 62
     7
  6
CONTINUOUS
370
    -3
390
1855A
  0
LAYER
  5
F255
330
7467
100
AcDbSymbolTableRecord
100
AcDbLayerTableRecord
  2
DEFPOINTS
 70
     0
 62
     7
  6
CONTINUOUS
290
     0
370
    -3
390
1855A
  0
LAYER
  5
10B54
330
7467
100
AcDbSymbolTableRecord
100
AcDbLayerTableRecord
  2
仕様書枠
 70
     0
 62
   230
  6
CONTINUOUS
370
    -3
390
1855A
  0
LAYER
  5
11729
330
7467
100
AcDbSymbolTableRecord
100
AcDbLayerTableRecord
  2
Ｇ．Ｌ
 70
     0
 62
    30
  6
CONTINUOUS
370
    -3
390
1855A
  0
LAYER
  5
1173F
330
7467
100
AcDbSymbolTableRecord
100
AcDbLayerTableRecord
  2
細線
 70
     0
 62
     5
  6
CONTINUOUS
370
    -3
390
1855A
  0
LAYER
  5
12CC4
330
7467
100
AcDbSymbolTableRecord
100
AcDbLayerTableRecord
  2
想像線
 70
     0
 62
     6
  6
PHANTOM
370
    -3
390
1855A
  0
LAYER
  5
142E2
330
7467
100
AcDbSymbolTableRecord
100
AcDbLayerTableRecord
  2
破線
 70
     0
 62
     2
  6
HIDDEN
370
    -3
390
1855A
  0
ENDTAB
  0
TABLE
  2
STYLE
  5
7468
330
0
100
AcDbSymbolTable
 70
     4
  0
STYLE
  5
7475
330
7468
100
AcDbSymbolTableRecord
100
AcDbTextStyleTableRecord
  2
STANDARD
 70
     0
 40
0.0
 41
1.0
 50
0.0
 71
     0
 42
4.0
  3
txt
  4
C:\AutoCAD LT\bigfont.shx
  0
STYLE
  5
F706
330
7468
100
AcDbSymbolTableRecord
100
AcDbTextStyleTableRecord
  2
STYLE1
 70
     0
 40
0.0
 41
1.0
 50
0.0
 71
     0
 42
4.0
  3
isocp.shx
  4
bigfont.shx
  0
STYLE
  5
103BF
330
7468
100
AcDbSymbolTableRecord
100
AcDbTextStyleTableRecord
  2
STYLE2
 70
     0
 40
0.0
 41
1.0
 50
0.0
 71
     0
 42
100.0
  3
MS PGothic.ttf
  4

1001
ACAD
1000
MS PGothic
1071
    32818
  0
STYLE
  5
1927F
330
7468
100
AcDbSymbolTableRecord
100
AcDbTextStyleTableRecord
  2
STYLE3
 70
     0
 40
0.0
 41
1.0
 50
0.0
 71
     0
 42
100.0
  3
DFPGothic-EB.ttf
  4

1001
ACAD
1000
DFPGothic-EB
1071
    32818
  0
ENDTAB
  0
TABLE
  2
VIEW
  5
746B
330
0
100
AcDbSymbolTable
 70
     0
  0
ENDTAB
  0
TABLE
  2
UCS
  5
746C
330
0
100
AcDbSymbolTable
 70
     0
  0
ENDTAB
  0
TABLE
  2
APPID
  5
746E
330
0
100
AcDbSymbolTable
 70
     6
  0
APPID
  5
7476
330
746E
100
AcDbSymbolTableRecord
100
AcDbRegAppTableRecord
  2
ACAD
 70
     0
  0
APPID
  5
DEA9
330
746E
100
AcDbSymbolTableRecord
100
AcDbRegAppTableRecord
  2
CONTENTBLOCKICON
 70
     0
  0
APPID
  5
DEAA
330
746E
100
AcDbSymbolTableRecord
100
AcDbRegAppTableRecord
  2
CONTENTBLOCKDESCRIPTION
 70
     0
  0
APPID
  5
E71D
330
746E
100
AcDbSymbolTableRecord
100
AcDbRegAppTableRecord
  2
CONTENTTABDATA
 70
     0
  0
APPID
  5
E71E
330
746E
100
AcDbSymbolTableRecord
100
AcDbRegAppTableRecord
  2
CONTENTCURRENTTAB
 70
     0
  0
APPID
  5
F3BA
330
746E
100
AcDbSymbolTableRecord
100
AcDbRegAppTableRecord
  2
DRAWINGVARIABLESXDATA
 70
     0
  0
ENDTAB
  0
TABLE
  2
DIMSTYLE
  5
746F
330
0
100
AcDbSymbolTable
 70
     5
100
AcDbDimStyleTable
 71
     0
  0
DIMSTYLE
105
7484
330
746F
100
AcDbSymbolTableRecord
100
AcDbDimStyleTableRecord
  2
JIS
 70
     0
 41
2.5
 42
1.0
 43
7.0
 44
1.0
 73
     0
 74
     0
 77
     1
 78
     8
140
2.5
141
0.0
143
0.0394
147
0.0
172
     1
174
     1
175
     1
340
7475
  0
DIMSTYLE
105
F71F
102
{ACAD_REACTORS
330
18A51
330
18A52
330
18A53
330
18A54
330
18A6E
330
18A6F
330
18A73
330
18A8A
330
18A98
330
18A99
330
18A9A
330
18A9B
330
18AD7
330
18AE6
330
18B07
330
18B08
330
18B1C
330
18B22
330
18B43
330
18B45
330
18B49
330
18B52
330
18B55
330
18B56
330
18CB0
330
18CB1
330
18CB2
330
18D43
330
19865
330
19967
102
}
330
746F
100
AcDbSymbolTableRecord
100
AcDbDimStyleTableRecord
  2
INABA_S40G
 70
     0
 40
40.0
 41
2.5
 42
0.5
 43
7.0
 44
1.5
 73
     0
 74
     0
 77
     3
 78
     8
140
3.0
141
0.0
143
0.0394
147
1.0
172
     1
173
     1
174
     1
178
     7
271
     1
340
F706
341
F770
343
F770
344
F770
  0
DIMSTYLE
105
186F5
102
{ACAD_REACTORS
330
195C9
330
19866
102
}
330
746F
100
AcDbSymbolTableRecord
100
AcDbDimStyleTableRecord
  2
INABA_S40
 70
     0
 40
40.0
 41
2.5
 42
0.5
 43
7.0
 44
1.5
 73
     0
 74
     0
 77
     3
 78
     8
140
3.0
141
0.0
143
0.0394
147
1.0
172
     1
173
     1
174
     1
175
     1
178
     7
340
7475
  0
DIMSTYLE
105
19280
330
746F
100
AcDbSymbolTableRecord
100
AcDbDimStyleTableRecord
  2
INABA_S50G
 70
     0
 41
125.0
 42
25.0
 43
7.0
 44
75.0
 73
     0
 74
     0
 77
     3
 78
     8
140
150.0
141
0.0
143
0.0394
147
25.0
172
     1
173
     1
174
     1
175
     1
178
     7
271
     1
340
F706
341
F770
343
F770
344
F770
  0
DIMSTYLE
105
19AEC
330
746F
100
AcDbSymbolTableRecord
100
AcDbDimStyleTableRecord
  2
INABA_S20G
 70
     0
 40
20.0
 41
2.5
 42
0.5
 43
7.0
 44
1.5
 73
     0
 74
     0
 77
     3
 78
     8
140
3.0
141
0.0
143
0.0394
147
1.0
172
     1
173
     1
174
     1
178
     7
271
     1
340
F706
341
F770
343
F770
344
F770
  0
ENDTAB
  0
TABLE
  2
BLOCK_RECORD
  5
7466
330
0
100
AcDbSymbolTable
 70
    34
  0
BLOCK_RECORD
  5
747D
330
7466
100
AcDbSymbolTableRecord
100
AcDbBlockTableRecord
  2
*MODEL_SPACE
340
1855F
  0
BLOCK_RECORD
  5
747A
330
7466
100
AcDbSymbolTableRecord
100
AcDbBlockTableRecord
  2
*PAPER_SPACE
340
18560
  0
BLOCK_RECORD
  5
F770
330
7466
100
AcDbSymbolTableRecord
100
AcDbBlockTableRecord
  2
_DOTSMALL
340
0
102
{BLKREFS
331
19369
331
1936A
331
19374
331
19375
331
1937D
331
1937E
331
19386
331
19387
331
193A5
331
193A6
331
193B0
331
193B1
331
193B9
331
193BA
331
193C4
331
193C5
331
193CD
331
193CE
331
193D6
331
193D7
331
193DF
331
193E0
331
193EA
331
193EB
331
193FC
331
193FD
331
19405
331
19406
331
1940E
331
1940F
331
19417
331
19418
331
19420
331
19421
331
19429
331
1942A
331
19434
331
19435
331
1943D
331
1943E
331
19447
331
19448
331
19450
331
19451
331
19459
331
1945A
331
19463
331
19464
331
1946E
331
1946F
331
19478
331
19479
331
19481
331
19482
331
1948A
331
1948B
331
19AB6
331
19AB7
331
19ADC
331
19ADD
102
}
  0
BLOCK_RECORD
  5
18567
330
7466
100
AcDbSymbolTableRecord
100
AcDbBlockTableRecord
  2
_DOT
340
0
102
{BLKREFS
331
1968B
331
1968C
331
19ACA
331
19ACB
102
}
  0
BLOCK_RECORD
  5
18D94
330
7466
100
AcDbSymbolTableRecord
100
AcDbBlockTableRecord
  2
*D2
340
0
  0
BLOCK_RECORD
  5
18DA0
330
7466
100
AcDbSymbolTableRecord
100
AcDbBlockTableRecord
  2
*D3
340
0
  0
BLOCK_RECORD
  5
18DAC
330
7466
100
AcDbSymbolTableRecord
100
AcDbBlockTableRecord
  2
*D4
340
0
  0
BLOCK_RECORD
  5
18DB9
330
7466
100
AcDbSymbolTableRecord
100
AcDbBlockTableRecord
  2
*D5
340
0
  0
BLOCK_RECORD
  5
18DC7
330
7466
100
AcDbSymbolTableRecord
100
AcDbBlockTableRecord
  2
*D6
340
0
  0
BLOCK_RECORD
  5
18DD4
330
7466
100
AcDbSymbolTableRecord
100
AcDbBlockTableRecord
  2
*D7
340
0
  0
BLOCK_RECORD
  5
18DE0
330
7466
100
AcDbSymbolTableRecord
100
AcDbBlockTableRecord
  2
*D8
340
0
  0
BLOCK_RECORD
  5
18DEC
330
7466
100
AcDbSymbolTableRecord
100
AcDbBlockTableRecord
  2
*D9
340
0
  0
BLOCK_RECORD
  5
18DF9
330
7466
100
AcDbSymbolTableRecord
100
AcDbBlockTableRecord
  2
*D10
340
0
  0
BLOCK_RECORD
  5
18E05
330
7466
100
AcDbSymbolTableRecord
100
AcDbBlockTableRecord
  2
*D11
340
0
  0
BLOCK_RECORD
  5
18E13
330
7466
100
AcDbSymbolTableRecord
100
AcDbBlockTableRecord
  2
*D12
340
0
  0
BLOCK_RECORD
  5
18E1F
330
7466
100
AcDbSymbolTableRecord
100
AcDbBlockTableRecord
  2
*D13
340
0
  0
BLOCK_RECORD
  5
18E2B
330
7466
100
AcDbSymbolTableRecord
100
AcDbBlockTableRecord
  2
*D14
340
0
  0
BLOCK_RECORD
  5
18E37
330
7466
100
AcDbSymbolTableRecord
100
AcDbBlockTableRecord
  2
*D15
340
0
  0
BLOCK_RECORD
  5
18E43
330
7466
100
AcDbSymbolTableRecord
100
AcDbBlockTableRecord
  2
*D16
340
0
  0
BLOCK_RECORD
  5
18E4F
330
7466
100
AcDbSymbolTableRecord
100
AcDbBlockTableRecord
  2
*D17
340
0
  0
BLOCK_RECORD
  5
18E67
330
7466
100
AcDbSymbolTableRecord
100
AcDbBlockTableRecord
  2
*D18
340
0
  0
BLOCK_RECORD
  5
18E75
330
7466
100
AcDbSymbolTableRecord
100
AcDbBlockTableRecord
  2
*D19
340
0
  0
BLOCK_RECORD
  5
18E81
330
7466
100
AcDbSymbolTableRecord
100
AcDbBlockTableRecord
  2
*D20
340
0
  0
BLOCK_RECORD
  5
18E8D
330
7466
100
AcDbSymbolTableRecord
100
AcDbBlockTableRecord
  2
*D21
340
0
  0
BLOCK_RECORD
  5
18E99
330
7466
100
AcDbSymbolTableRecord
100
AcDbBlockTableRecord
  2
*D22
340
0
  0
BLOCK_RECORD
  5
18EA7
330
7466
100
AcDbSymbolTableRecord
100
AcDbBlockTableRecord
  2
*D23
340
0
  0
BLOCK_RECORD
  5
18EB3
330
7466
100
AcDbSymbolTableRecord
100
AcDbBlockTableRecord
  2
*D24
340
0
  0
BLOCK_RECORD
  5
18EC1
330
7466
100
AcDbSymbolTableRecord
100
AcDbBlockTableRecord
  2
*D25
340
0
  0
BLOCK_RECORD
  5
18EE9
330
7466
100
AcDbSymbolTableRecord
100
AcDbBlockTableRecord
  2
*D26
340
0
  0
BLOCK_RECORD
  5
18EF5
330
7466
100
AcDbSymbolTableRecord
100
AcDbBlockTableRecord
  2
*D27
340
0
  0
BLOCK_RECORD
  5
18F01
330
7466
100
AcDbSymbolTableRecord
100
AcDbBlockTableRecord
  2
*D28
340
0
  0
BLOCK_RECORD
  5
18F0F
330
7466
100
AcDbSymbolTableRecord
100
AcDbBlockTableRecord
  2
*D29
340
0
  0
BLOCK_RECORD
  5
19634
330
7466
100
AcDbSymbolTableRecord
100
AcDbBlockTableRecord
  2
*D30
340
0
  0
BLOCK_RECORD
  5
19979
330
7466
100
AcDbSymbolTableRecord
100
AcDbBlockTableRecord
  2
*D31
340
0
  0
BLOCK_RECORD
  5
19985
330
7466
100
AcDbSymbolTableRecord
100
AcDbBlockTableRecord
  2
*D32
340
0
  0
BLOCK_RECORD
  5
19A07
330
7466
100
AcDbSymbolTableRecord
100
AcDbBlockTableRecord
  2
*D33
340
0
  0
ENDTAB
  0
ENDSEC
  0
SECTION
  2
BLOCKS
  0
BLOCK
  5
7489
330
747D
100
AcDbEntity
  8
0
100
AcDbBlockBegin
  2
*MODEL_SPACE
 70
     0
 10
0.0
 20
0.0
 30
0.0
  3
*MODEL_SPACE
  1

  0
ENDBLK
  5
748A
330
747D
100
AcDbEntity
  8
0
100
AcDbBlockEnd
  0
BLOCK
  5
7487
330
747A
100
AcDbEntity
 67
     1
  8
0
100
AcDbBlockBegin
  2
*PAPER_SPACE
 70
     0
 10
0.0
 20
0.0
 30
0.0
  3
*PAPER_SPACE
  1

  0
ENDBLK
  5
7488
330
747A
100
AcDbEntity
 67
     1
  8
0
100
AcDbBlockEnd
  0
BLOCK
  5
F771
330
F770
100
AcDbEntity
  8
0
 48
50.0
100
AcDbBlockBegin
  2
_DOTSMALL
 70
     0
 10
0.0
 20
0.0
 30
0.0
  3
_DOTSMALL
  1

  0
LWPOLYLINE
  5
F772
330
F770
100
AcDbEntity
  8
0
  6
ByBlock
 62
     0
 48
50.0
100
AcDbPolyline
 90
        2
 70
     1
 43
0.5
 10
-0.0625
 20
0.0
 42
1.0
 10
0.0625
 20
0.0
 42
1.0
  0
ENDBLK
  5
F776
330
F770
100
AcDbEntity
  8
0
 48
50.0
100
AcDbBlockEnd
  0
BLOCK
  5
18568
330
18567
100
AcDbEntity
  8
0
 48
50.0
100
AcDbBlockBegin
  2
_DOT
 70
     0
 10
0.0
 20
0.0
 30
0.0
  3
_DOT
  1

  0
LWPOLYLINE
  5
18569
330
18567
100
AcDbEntity
  8
0
  6
ByBlock
 62
     0
 48
50.0
100
AcDbPolyline
 90
        2
 70
     1
 43
0.5
 10
-0.25
 20
0.0
 42
1.0
 10
0.25
 20
0.0
 42
1.0
  0
LINE
  5
1856A
330
18567
100
AcDbEntity
  8
0
  6
ByBlock
 62
     0
 48
50.0
100
AcDbLine
 10
-0.5
 20
0.0
 30
0.0
 11
-1.0
 21
0.0
 31
0.0
  0
ENDBLK
  5
1856B
330
18567
100
AcDbEntity
  8
0
 48
50.0
100
AcDbBlockEnd
  0
BLOCK
  5
18D9E
330
18D94
100
AcDbEntity
  8
0
 48
50.0
100
AcDbBlockBegin
  2
*D2
 70
     1
 10
0.0
 20
0.0
 30
0.0
  3
*D2
  1

  0
LINE
  5
19487
330
18D94
100
AcDbEntity
  8
寸法
 62
     0
 48
50.0
370
    -2
100
AcDbLine
 10
3726.988637124684
 20
4201.70523094035
 30
0.0
 11
3063.335927966387
 21
4201.70523094035
 31
0.0
  0
LINE
  5
19488
330
18D94
100
AcDbEntity
  8
寸法
 62
     0
 48
50.0
370
    -2
100
AcDbLine
 10
3726.988637124684
 20
2111.705230940351
 30
0.0
 11
3063.335927966386
 21
2111.705230940351
 31
0.0
  0
LINE
  5
19489
330
18D94
100
AcDbEntity
  8
寸法
 62
     0
 48
50.0
370
    -2
100
AcDbLine
 10
3123.335927966387
 20
4201.70523094035
 30
0.0
 11
3123.335927966386
 21
2111.705230940351
 31
0.0
  0
INSERT
  5
1948A
330
18D94
100
AcDbEntity
  8
寸法
 62
     0
 48
50.0
370
    -2
100
AcDbBlockReference
  2
_DOTSMALL
 10
3123.335927966387
 20
4201.70523094035
 30
0.0
 41
100.0
 42
100.0
 43
100.0
 50
90.0
  0
INSERT
  5
1948B
330
18D94
100
AcDbEntity
  8
寸法
 62
     0
 48
50.0
370
    -2
100
AcDbBlockReference
  2
_DOTSMALL
 10
3123.335927966386
 20
2111.705230940351
 30
0.0
 41
100.0
 42
100.0
 43
100.0
 50
270.0
  0
MTEXT
  5
1948C
330
18D94
100
AcDbEntity
  8
寸法
 62
     7
 48
50.0
100
AcDbMText
 10
3023.324116942764
 20
3221.705230940353
 30
0.0
 40
120.0
 41
0.0
 71
     5
 72
     1
  1
\A1;2090
  7
STYLE1
 11
0.0000000000000001
 21
1.0
 31
0.0
 73
     1
 44
1.0
1001
ACAD
1000
MTEXTBEGIN
1070
    73
1070
     1
1070
    44
1040
1.0
1070
    74
1070
     0
1000
MTEXTEND
  0
POINT
  5
1948D
330
18D94
100
AcDbEntity
  8
DEFPOINTS
 62
     0
 48
50.0
100
AcDbPoint
 10
3746.988637124683
 20
4201.70523094035
 30
0.0
  0
POINT
  5
1948E
330
18D94
100
AcDbEntity
  8
DEFPOINTS
 62
     0
 48
50.0
100
AcDbPoint
 10
3746.988637124683
 20
2111.705230940351
 30
0.0
  0
POINT
  5
1948F
330
18D94
100
AcDbEntity
  8
DEFPOINTS
 62
     0
 48
50.0
100
AcDbPoint
 10
3123.335927966386
 20
2111.705230940351
 30
0.0
  0
ENDBLK
  5
18D9F
330
18D94
100
AcDbEntity
  8
0
 48
50.0
100
AcDbBlockEnd
  0
BLOCK
  5
18DAA
330
18DA0
100
AcDbEntity
  8
0
 48
50.0
100
AcDbBlockBegin
  2
*D3
 70
     1
 10
0.0
 20
0.0
 30
0.0
  3
*D3
  1

  0
LINE
  5
1947E
330
18DA0
100
AcDbEntity
  8
寸法
 62
     0
 48
50.0
370
    -2
100
AcDbLine
 10
3726.988637124684
 20
2061.705230940351
 30
0.0
 11
2778.349255195325
 21
2061.705230940351
 31
0.0
  0
LINE
  5
1947F
330
18DA0
100
AcDbEntity
  8
寸法
 62
     0
 48
50.0
370
    -2
100
AcDbLine
 10
3666.988637124684
 20
4436.705230940355
 30
0.0
 11
2778.349255195325
 21
4436.705230940355
 31
0.0
  0
LINE
  5
19480
330
18DA0
100
AcDbEntity
  8
寸法
 62
     0
 48
50.0
370
    -2
100
AcDbLine
 10
2838.349255195325
 20
2061.705230940351
 30
0.0
 11
2838.349255195325
 21
4436.705230940355
 31
0.0
  0
INSERT
  5
19481
330
18DA0
100
AcDbEntity
  8
寸法
 62
     0
 48
50.0
370
    -2
100
AcDbBlockReference
  2
_DOTSMALL
 10
2838.349255195325
 20
2061.705230940351
 30
0.0
 41
100.0
 42
100.0
 43
100.0
 50
270.0
  0
INSERT
  5
19482
330
18DA0
100
AcDbEntity
  8
寸法
 62
     0
 48
50.0
370
    -2
100
AcDbBlockReference
  2
_DOTSMALL
 10
2838.349255195325
 20
4436.705230940355
 30
0.0
 41
100.0
 42
100.0
 43
100.0
 50
90.0
  0
MTEXT
  5
19483
330
18DA0
100
AcDbEntity
  8
寸法
 62
     7
 48
50.0
100
AcDbMText
 10
2738.337444171702
 20
3221.705230940353
 30
0.0
 40
120.0
 41
0.0
 71
     5
 72
     1
  1
\A1;2375
  7
STYLE1
 11
0.0000000000000001
 21
1.0
 31
0.0
 73
     1
 44
1.0
1001
ACAD
1000
MTEXTBEGIN
1070
    73
1070
     1
1070
    44
1040
1.0
1070
    74
1070
     0
1000
MTEXTEND
  0
POINT
  5
19484
330
18DA0
100
AcDbEntity
  8
DEFPOINTS
 62
     0
 48
50.0
100
AcDbPoint
 10
3746.988637124683
 20
2061.705230940351
 30
0.0
  0
POINT
  5
19485
330
18DA0
100
AcDbEntity
  8
DEFPOINTS
 62
     0
 48
50.0
100
AcDbPoint
 10
3686.988637124683
 20
4436.705230940355
 30
0.0
  0
POINT
  5
19486
330
18DA0
100
AcDbEntity
  8
DEFPOINTS
 62
     0
 48
50.0
100
AcDbPoint
 10
2838.349255195325
 20
4436.705230940355
 30
0.0
  0
ENDBLK
  5
18DAB
330
18DA0
100
AcDbEntity
  8
0
 48
50.0
100
AcDbBlockEnd
  0
BLOCK
  5
18DB7
330
18DAC
100
AcDbEntity
  8
0
 48
50.0
100
AcDbBlockBegin
  2
*D4
 70
     1
 10
0.0
 20
0.0
 30
0.0
  3
*D4
  1

  0
LINE
  5
19474
330
18DAC
100
AcDbEntity
  8
寸法
 62
     0
 48
50.0
370
    -2
100
AcDbLine
 10
3671.988637124683
 20
2061.705230940351
 30
0.0
 11
2778.349255195325
 21
2061.705230940351
 31
0.0
  0
LINE
  5
19475
330
18DAC
100
AcDbEntity
  8
寸法
 62
     0
 48
50.0
370
    -2
100
AcDbLine
 10
3103.335927966386
 20
1961.705230940351
 30
0.0
 11
2778.349255195325
 21
1961.705230940351
 31
0.0
  0
LINE
  5
19476
330
18DAC
100
AcDbEntity
  8
寸法
 62
     0
 48
50.0
370
    -2
100
AcDbLine
 10
2838.349255195325
 20
2061.705230940351
 30
0.0
 11
2838.349255195325
 21
1961.705230940351
 31
0.0
  0
LINE
  5
19477
330
18DAC
100
AcDbEntity
  8
寸法
 62
     0
 48
50.0
370
    -2
100
AcDbLine
 10
2838.349255195325
 20
1961.705230940351
 30
0.0
 11
2838.349255195325
 21
1589.610742751369
 31
0.0
  0
INSERT
  5
19478
330
18DAC
100
AcDbEntity
  8
寸法
 62
     0
 48
50.0
370
    -2
100
AcDbBlockReference
  2
_DOTSMALL
 10
2838.349255195325
 20
2061.705230940351
 30
0.0
 41
100.0
 42
100.0
 43
100.0
 50
90.0
  0
INSERT
  5
19479
330
18DAC
100
AcDbEntity
  8
寸法
 62
     0
 48
50.0
370
    -2
100
AcDbBlockReference
  2
_DOTSMALL
 10
2838.349255195325
 20
1961.705230940351
 30
0.0
 41
100.0
 42
100.0
 43
100.0
 50
270.0
  0
MTEXT
  5
1947A
330
18DAC
100
AcDbEntity
  8
寸法
 62
     7
 48
50.0
100
AcDbMText
 10
2738.349255195324
 20
1725.657986845857
 30
0.0
 40
120.0
 41
0.0
 71
     5
 72
     1
  1
\A1;100
  7
STYLE1
 11
0.0000000000000001
 21
1.0
 31
0.0
 73
     1
 44
1.0
1001
ACAD
1000
MTEXTBEGIN
1070
    73
1070
     1
1070
    44
1040
1.0
1070
    74
1070
     0
1000
MTEXTEND
  0
POINT
  5
1947B
330
18DAC
100
AcDbEntity
  8
DEFPOINTS
 62
     0
 48
50.0
100
AcDbPoint
 10
3691.988637124683
 20
2061.705230940351
 30
0.0
  0
POINT
  5
1947C
330
18DAC
100
AcDbEntity
  8
DEFPOINTS
 62
     0
 48
50.0
100
AcDbPoint
 10
3123.335927966385
 20
1961.705230940351
 30
0.0
  0
POINT
  5
1947D
330
18DAC
100
AcDbEntity
  8
DEFPOINTS
 62
     0
 48
50.0
100
AcDbPoint
 10
2838.349255195325
 20
1961.705230940351
 30
0.0
  0
ENDBLK
  5
18DB8
330
18DAC
100
AcDbEntity
  8
0
 48
50.0
100
AcDbBlockEnd
  0
BLOCK
  5
18DC5
330
18DB9
100
AcDbEntity
  8
0
 48
50.0
100
AcDbBlockBegin
  2
*D5
 70
     1
 10
0.0
 20
0.0
 30
0.0
  3
*D5
  1

  0
LINE
  5
19469
330
18DB9
100
AcDbEntity
  8
寸法
 62
     0
 48
50.0
370
    -2
100
AcDbLine
 10
3726.988637124684
 20
2111.705230940351
 30
0.0
 11
3063.335927966386
 21
2111.705230940351
 31
0.0
  0
LINE
  5
1946A
330
18DB9
100
AcDbEntity
  8
寸法
 62
     0
 48
50.0
370
    -2
100
AcDbLine
 10
3671.988637124683
 20
2061.705230940351
 30
0.0
 11
3063.335927966386
 21
2061.705230940351
 31
0.0
  0
LINE
  5
1946B
330
18DB9
100
AcDbEntity
  8
寸法
 62
     0
 48
50.0
370
    -2
100
AcDbLine
 10
3123.335927966386
 20
2111.705230940351
 30
0.0
 11
3123.335927966386
 21
2211.705230940351
 31
0.0
  0
LINE
  5
1946C
330
18DB9
100
AcDbEntity
  8
寸法
 62
     0
 48
50.0
370
    -2
100
AcDbLine
 10
3123.335927966386
 20
2061.705230940351
 30
0.0
 11
3123.335927966386
 21
1649.610742751369
 31
0.0
  0
LINE
  5
1946D
330
18DB9
100
AcDbEntity
  8
寸法
 62
     0
 48
50.0
370
    -2
100
AcDbLine
 10
3123.335927966386
 20
2111.705230940351
 30
0.0
 11
3123.335927966386
 21
2061.705230940351
 31
0.0
  0
INSERT
  5
1946E
330
18DB9
100
AcDbEntity
  8
寸法
 62
     0
 48
50.0
370
    -2
100
AcDbBlockReference
  2
_DOTSMALL
 10
3123.335927966386
 20
2111.705230940351
 30
0.0
 41
100.0
 42
100.0
 43
100.0
 50
270.0
  0
INSERT
  5
1946F
330
18DB9
100
AcDbEntity
  8
寸法
 62
     0
 48
50.0
370
    -2
100
AcDbBlockReference
  2
_DOTSMALL
 10
3123.335927966386
 20
2061.705230940351
 30
0.0
 41
100.0
 42
100.0
 43
100.0
 50
90.0
  0
MTEXT
  5
19470
330
18DB9
100
AcDbEntity
  8
寸法
 62
     7
 48
50.0
100
AcDbMText
 10
3023.335927966386
 20
1755.657986845857
 30
0.0
 40
120.0
 41
0.0
 71
     5
 72
     1
  1
\A1;50
  7
STYLE1
 11
0.0000000000000001
 21
1.0
 31
0.0
 73
     1
 44
1.0
1001
ACAD
1000
MTEXTBEGIN
1070
    73
1070
     1
1070
    44
1040
1.0
1070
    74
1070
     0
1000
MTEXTEND
  0
POINT
  5
19471
330
18DB9
100
AcDbEntity
  8
DEFPOINTS
 62
     0
 48
50.0
100
AcDbPoint
 10
3746.988637124683
 20
2111.705230940351
 30
0.0
  0
POINT
  5
19472
330
18DB9
100
AcDbEntity
  8
DEFPOINTS
 62
     0
 48
50.0
100
AcDbPoint
 10
3691.988637124683
 20
2061.705230940351
 30
0.0
  0
POINT
  5
19473
330
18DB9
100
AcDbEntity
  8
DEFPOINTS
 62
     0
 48
50.0
100
AcDbPoint
 10
3123.335927966386
 20
2061.705230940351
 30
0.0
  0
ENDBLK
  5
18DC6
330
18DB9
100
AcDbEntity
  8
0
 48
50.0
100
AcDbBlockEnd
  0
BLOCK
  5
18DD2
330
18DC7
100
AcDbEntity
  8
0
 48
50.0
100
AcDbBlockBegin
  2
*D6
 70
     1
 10
0.0
 20
0.0
 30
0.0
  3
*D6
  1

  0
LINE
  5
1945F
330
18DC7
100
AcDbEntity
  8
寸法
 62
     0
 48
50.0
370
    -2
100
AcDbLine
 10
3686.392923415786
 20
4436.002938010012
 30
0.0
 11
3070.45848431053
 21
4453.717088284341
 31
0.0
  0
LINE
  5
19460
330
18DC7
100
AcDbEntity
  8
寸法
 62
     0
 48
50.0
370
    -2
100
AcDbLine
 10
3682.33946785916
 20
4295.0612142443
 30
0.0
 11
3066.405028753904
 21
4312.775364518628
 31
0.0
  0
LINE
  5
19461
330
18DC7
100
AcDbEntity
  8
寸法
 62
     0
 48
50.0
370
    -2
100
AcDbLine
 10
3126.380230356335
 20
4311.050489813681
 30
0.0
 11
3130.433685912961
 21
4451.992213579393
 31
0.0
  0
LINE
  5
19462
330
18DC7
100
AcDbEntity
  8
寸法
 62
     0
 48
50.0
370
    -2
100
AcDbLine
 10
3130.433685912961
 20
4451.992213579393
 30
0.0
 11
3140.782934142645
 21
4811.843423193979
 31
0.0
  0
INSERT
  5
19463
330
18DC7
100
AcDbEntity
  8
寸法
 62
     0
 48
50.0
370
    -2
100
AcDbBlockReference
  2
_DOTSMALL
 10
3126.380230356335
 20
4311.050489813681
 30
0.0
 41
100.0
 42
100.0
 43
100.0
 50
268.3526390256378
  0
INSERT
  5
19464
330
18DC7
100
AcDbEntity
  8
寸法
 62
     0
 48
50.0
370
    -2
100
AcDbBlockReference
  2
_DOTSMALL
 10
3130.433685912961
 20
4451.992213579393
 30
0.0
 41
100.0
 42
100.0
 43
100.0
 50
88.35263902563776
  0
MTEXT
  5
19465
330
18DC7
100
AcDbEntity
  8
寸法
 62
     7
 48
50.0
100
AcDbMText
 10
3037.087036277874
 20
4684.771944230291
 30
0.0
 40
120.0
 41
0.0
 71
     5
 72
     1
  1
\A1;141
  7
STYLE1
 11
0.0287479117491237
 21
0.9995866933738488
 31
0.0
 73
     1
 44
1.0
1001
ACAD
1000
MTEXTBEGIN
1070
    73
1070
     1
1070
    44
1040
1.0
1070
    74
1070
     0
1000
MTEXTEND
  0
POINT
  5
19466
330
18DC7
100
AcDbEntity
  8
DEFPOINTS
 62
     0
 48
50.0
100
AcDbPoint
 10
3706.384657283262
 20
4435.42797977503
 30
0.0
  0
POINT
  5
19467
330
18DC7
100
AcDbEntity
  8
DEFPOINTS
 62
     0
 48
50.0
100
AcDbPoint
 10
3702.331201726636
 20
4294.486256009317
 30
0.0
  0
POINT
  5
19468
330
18DC7
100
AcDbEntity
  8
DEFPOINTS
 62
     0
 48
50.0
100
AcDbPoint
 10
3126.380230356335
 20
4311.050489813681
 30
0.0
  0
ENDBLK
  5
18DD3
330
18DC7
100
AcDbEntity
  8
0
 48
50.0
100
AcDbBlockEnd
  0
BLOCK
  5
18DDE
330
18DD4
100
AcDbEntity
  8
0
 48
50.0
100
AcDbBlockBegin
  2
*D7
 70
     1
 10
0.0
 20
0.0
 30
0.0
  3
*D7
  1

  0
LINE
  5
19456
330
18DD4
100
AcDbEntity
  8
寸法
 62
     0
 48
50.0
370
    -2
100
AcDbLine
 10
3654.48863712469
 20
1761.70523094035
 30
0.0
 11
3464.98863387805
 21
1761.70523094035
 31
0.0
  0
LINE
  5
19457
330
18DD4
100
AcDbEntity
  8
寸法
 62
     0
 48
50.0
370
    -2
100
AcDbLine
 10
3629.488637124683
 20
1961.705230940349
 30
0.0
 11
3464.98863387805
 21
1961.70523094035
 31
0.0
  0
LINE
  5
19458
330
18DD4
100
AcDbEntity
  8
寸法
 62
     0
 48
50.0
370
    -2
100
AcDbLine
 10
3524.988633878049
 20
1761.70523094035
 30
0.0
 11
3524.988633878049
 21
1961.70523094035
 31
0.0
  0
INSERT
  5
19459
330
18DD4
100
AcDbEntity
  8
寸法
 62
     0
 48
50.0
370
    -2
100
AcDbBlockReference
  2
_DOTSMALL
 10
3524.988633878049
 20
1761.70523094035
 30
0.0
 41
100.0
 42
100.0
 43
100.0
 50
270.0
  0
INSERT
  5
1945A
330
18DD4
100
AcDbEntity
  8
寸法
 62
     0
 48
50.0
370
    -2
100
AcDbBlockReference
  2
_DOTSMALL
 10
3524.988633878049
 20
1961.70523094035
 30
0.0
 41
100.0
 42
100.0
 43
100.0
 50
90.0
  0
MTEXT
  5
1945B
330
18DD4
100
AcDbEntity
  8
寸法
 62
     7
 48
50.0
100
AcDbMText
 10
3424.976822854427
 20
1861.70523094035
 30
0.0
 40
120.0
 41
0.0
 71
     5
 72
     1
  1
\A1;200
  7
STYLE1
 11
0.0000000000000001
 21
1.0
 31
0.0
 73
     1
 44
1.0
1001
ACAD
1000
MTEXTBEGIN
1070
    73
1070
     1
1070
    44
1040
1.0
1070
    74
1070
     0
1000
MTEXTEND
  0
POINT
  5
1945C
330
18DD4
100
AcDbEntity
  8
DEFPOINTS
 62
     0
 48
50.0
100
AcDbPoint
 10
3674.488637124691
 20
1761.70523094035
 30
0.0
  0
POINT
  5
1945D
330
18DD4
100
AcDbEntity
  8
DEFPOINTS
 62
     0
 48
50.0
100
AcDbPoint
 10
3649.488637124683
 20
1961.705230940349
 30
0.0
  0
POINT
  5
1945E
330
18DD4
100
AcDbEntity
  8
DEFPOINTS
 62
     0
 48
50.0
100
AcDbPoint
 10
3524.988633878049
 20
1961.70523094035
 30
0.0
  0
ENDBLK
  5
18DDF
330
18DD4
100
AcDbEntity
  8
0
 48
50.0
100
AcDbBlockEnd
  0
BLOCK
  5
18DEA
330
18DE0
100
AcDbEntity
  8
0
 48
50.0
100
AcDbBlockBegin
  2
*D8
 70
     1
 10
0.0
 20
0.0
 30
0.0
  3
*D8
  1

  0
LINE
  5
1944D
330
18DE0
100
AcDbEntity
  8
寸法
 62
     0
 48
50.0
370
    -2
100
AcDbLine
 10
3874.488637124683
 20
1741.705230940348
 30
0.0
 11
3874.488637124683
 21
1415.657901639972
 31
0.0
  0
LINE
  5
1944E
330
18DE0
100
AcDbEntity
  8
寸法
 62
     0
 48
50.0
370
    -2
100
AcDbLine
 10
3674.488637124691
 20
1741.70523094035
 30
0.0
 11
3674.488637124691
 21
1415.657901639972
 31
0.0
  0
LINE
  5
1944F
330
18DE0
100
AcDbEntity
  8
寸法
 62
     0
 48
50.0
370
    -2
100
AcDbLine
 10
3874.488637124683
 20
1475.657901639972
 30
0.0
 11
3674.488637124691
 21
1475.657901639972
 31
0.0
  0
INSERT
  5
19450
330
18DE0
100
AcDbEntity
  8
寸法
 62
     0
 48
50.0
370
    -2
100
AcDbBlockReference
  2
_DOTSMALL
 10
3874.488637124683
 20
1475.657901639972
 30
0.0
 41
100.0
 42
100.0
 43
100.0
  0
INSERT
  5
19451
330
18DE0
100
AcDbEntity
  8
寸法
 62
     0
 48
50.0
370
    -2
100
AcDbBlockReference
  2
_DOTSMALL
 10
3674.488637124691
 20
1475.657901639972
 30
0.0
 41
100.0
 42
100.0
 43
100.0
 50
180.0
  0
MTEXT
  5
19452
330
18DE0
100
AcDbEntity
  8
寸法
 62
     7
 48
50.0
100
AcDbMText
 10
3774.488637124687
 20
1575.669712663594
 30
0.0
 40
120.0
 41
0.0
 71
     5
 72
     1
  1
\A1;200
  7
STYLE1
 73
     1
 44
1.0
1001
ACAD
1000
MTEXTBEGIN
1070
    73
1070
     1
1070
    44
1040
1.0
1070
    74
1070
     0
1000
MTEXTEND
  0
POINT
  5
19453
330
18DE0
100
AcDbEntity
  8
DEFPOINTS
 62
     0
 48
50.0
100
AcDbPoint
 10
3874.488637124683
 20
1761.705230940348
 30
0.0
  0
POINT
  5
19454
330
18DE0
100
AcDbEntity
  8
DEFPOINTS
 62
     0
 48
50.0
100
AcDbPoint
 10
3674.488637124691
 20
1761.70523094035
 30
0.0
  0
POINT
  5
19455
330
18DE0
100
AcDbEntity
  8
DEFPOINTS
 62
     0
 48
50.0
100
AcDbPoint
 10
3674.488637124691
 20
1475.657901639972
 30
0.0
  0
ENDBLK
  5
18DEB
330
18DE0
100
AcDbEntity
  8
0
 48
50.0
100
AcDbBlockEnd
  0
BLOCK
  5
18DF7
330
18DEC
100
AcDbEntity
  8
0
 48
50.0
100
AcDbBlockBegin
  2
*D9
 70
     1
 10
0.0
 20
0.0
 30
0.0
  3
*D9
  1

  0
LINE
  5
19443
330
18DEC
100
AcDbEntity
  8
寸法
 62
     0
 48
50.0
370
    -2
100
AcDbLine
 10
6376.988637124685
 20
4403.515910552005
 30
0.0
 11
6376.988637124685
 21
4895.362684519657
 31
0.0
  0
LINE
  5
19444
330
18DEC
100
AcDbEntity
  8
寸法
 62
     0
 48
50.0
370
    -2
100
AcDbLine
 10
6456.988637124685
 20
4401.705230940353
 30
0.0
 11
6456.988637124685
 21
4895.362684519657
 31
0.0
  0
LINE
  5
19445
330
18DEC
100
AcDbEntity
  8
寸法
 62
     0
 48
50.0
370
    -2
100
AcDbLine
 10
6376.988637124685
 20
4835.362684519657
 30
0.0
 11
6456.988637124685
 21
4835.362684519657
 31
0.0
  0
LINE
  5
19446
330
18DEC
100
AcDbEntity
  8
寸法
 62
     0
 48
50.0
370
    -2
100
AcDbLine
 10
6456.988637124685
 20
4835.362684519657
 30
0.0
 11
6769.083125313663
 21
4835.362684519657
 31
0.0
  0
INSERT
  5
19447
330
18DEC
100
AcDbEntity
  8
寸法
 62
     0
 48
50.0
370
    -2
100
AcDbBlockReference
  2
_DOTSMALL
 10
6376.988637124685
 20
4835.362684519657
 30
0.0
 41
100.0
 42
100.0
 43
100.0
 50
180.0
  0
INSERT
  5
19448
330
18DEC
100
AcDbEntity
  8
寸法
 62
     0
 48
50.0
370
    -2
100
AcDbBlockReference
  2
_DOTSMALL
 10
6456.988637124685
 20
4835.362684519657
 30
0.0
 41
100.0
 42
100.0
 43
100.0
  0
MTEXT
  5
19449
330
18DEC
100
AcDbEntity
  8
寸法
 62
     7
 48
50.0
100
AcDbMText
 10
6663.035881219176
 20
4935.362684519657
 30
0.0
 40
120.0
 41
0.0
 71
     5
 72
     1
  1
\A1;80
  7
STYLE1
 73
     1
 44
1.0
1001
ACAD
1000
MTEXTBEGIN
1070
    73
1070
     1
1070
    44
1040
1.0
1070
    74
1070
     0
1000
MTEXTEND
  0
POINT
  5
1944A
330
18DEC
100
AcDbEntity
  8
DEFPOINTS
 62
     0
 48
50.0
100
AcDbPoint
 10
6376.988637124685
 20
4383.515910552006
 30
0.0
  0
POINT
  5
1944B
330
18DEC
100
AcDbEntity
  8
DEFPOINTS
 62
     0
 48
50.0
100
AcDbPoint
 10
6456.988637124685
 20
4381.705230940354
 30
0.0
  0
POINT
  5
1944C
330
18DEC
100
AcDbEntity
  8
DEFPOINTS
 62
     0
 48
50.0
100
AcDbPoint
 10
6456.988637124685
 20
4835.362684519657
 30
0.0
  0
ENDBLK
  5
18DF8
330
18DEC
100
AcDbEntity
  8
0
 48
50.0
100
AcDbBlockEnd
  0
BLOCK
  5
18E03
330
18DF9
100
AcDbEntity
  8
0
 48
50.0
100
AcDbBlockBegin
  2
*D10
 70
     1
 10
0.0
 20
0.0
 30
0.0
  3
*D10
  1

  0
LINE
  5
1943A
330
18DF9
100
AcDbEntity
  8
寸法
 62
     0
 48
50.0
370
    -2
100
AcDbLine
 10
6456.988637124685
 20
4401.705230940353
 30
0.0
 11
6456.988637124685
 21
5115.573371251274
 31
0.0
  0
LINE
  5
1943B
330
18DF9
100
AcDbEntity
  8
寸法
 62
     0
 48
50.0
370
    -2
100
AcDbLine
 10
3686.988637124683
 20
4456.705230940356
 30
0.0
 11
3686.988637124683
 21
5115.573371251274
 31
0.0
  0
LINE
  5
1943C
330
18DF9
100
AcDbEntity
  8
寸法
 62
     0
 48
50.0
370
    -2
100
AcDbLine
 10
6456.988637124685
 20
5055.573371251274
 30
0.0
 11
3686.988637124683
 21
5055.573371251274
 31
0.0
  0
INSERT
  5
1943D
330
18DF9
100
AcDbEntity
  8
寸法
 62
     0
 48
50.0
370
    -2
100
AcDbBlockReference
  2
_DOTSMALL
 10
6456.988637124685
 20
5055.573371251274
 30
0.0
 41
100.0
 42
100.0
 43
100.0
  0
INSERT
  5
1943E
330
18DF9
100
AcDbEntity
  8
寸法
 62
     0
 48
50.0
370
    -2
100
AcDbBlockReference
  2
_DOTSMALL
 10
3686.988637124683
 20
5055.573371251274
 30
0.0
 41
100.0
 42
100.0
 43
100.0
 50
180.0
  0
MTEXT
  5
1943F
330
18DF9
100
AcDbEntity
  8
寸法
 62
     7
 48
50.0
100
AcDbMText
 10
5090.347562012061
 20
5155.585182274895
 30
0.0
 40
120.0
 41
0.0
 71
     5
 72
     1
  1
\A1;2770
  7
STYLE1
 73
     1
 44
1.0
1001
ACAD
1000
MTEXTBEGIN
1070
    73
1070
     1
1070
    44
1040
1.0
1070
    74
1070
     0
1000
MTEXTEND
  0
POINT
  5
19440
330
18DF9
100
AcDbEntity
  8
DEFPOINTS
 62
     0
 48
50.0
100
AcDbPoint
 10
6456.988637124685
 20
4381.705230940354
 30
0.0
  0
POINT
  5
19441
330
18DF9
100
AcDbEntity
  8
DEFPOINTS
 62
     0
 48
50.0
100
AcDbPoint
 10
3686.988637124683
 20
4436.705230940356
 30
0.0
  0
POINT
  5
19442
330
18DF9
100
AcDbEntity
  8
DEFPOINTS
 62
     0
 48
50.0
100
AcDbPoint
 10
3686.988637124683
 20
5055.573371251274
 30
0.0
  0
ENDBLK
  5
18E04
330
18DF9
100
AcDbEntity
  8
0
 48
50.0
100
AcDbBlockEnd
  0
BLOCK
  5
18E11
330
18E05
100
AcDbEntity
  8
0
 48
50.0
100
AcDbBlockBegin
  2
*D11
 70
     1
 10
0.0
 20
0.0
 30
0.0
  3
*D11
  1

  0
LINE
  5
1942F
330
18E05
100
AcDbEntity
  8
寸法
 62
     0
 48
50.0
370
    -2
100
AcDbLine
 10
3746.988637124683
 20
4452.706849063328
 30
0.0
 11
3746.988637124683
 21
4895.362684519656
 31
0.0
  0
LINE
  5
19430
330
18E05
100
AcDbEntity
  8
寸法
 62
     0
 48
50.0
370
    -2
100
AcDbLine
 10
3686.988637124683
 20
4456.705230940356
 30
0.0
 11
3686.988637124683
 21
4895.362684519656
 31
0.0
  0
LINE
  5
19431
330
18E05
100
AcDbEntity
  8
寸法
 62
     0
 48
50.0
370
    -2
100
AcDbLine
 10
3746.988637124683
 20
4835.362684519656
 30
0.0
 11
3846.988637124683
 21
4835.362684519656
 31
0.0
  0
LINE
  5
19432
330
18E05
100
AcDbEntity
  8
寸法
 62
     0
 48
50.0
370
    -2
100
AcDbLine
 10
3686.988637124683
 20
4835.362684519656
 30
0.0
 11
3267.713046573502
 21
4835.362684519656
 31
0.0
  0
LINE
  5
19433
330
18E05
100
AcDbEntity
  8
寸法
 62
     0
 48
50.0
370
    -2
100
AcDbLine
 10
3746.988637124683
 20
4835.362684519656
 30
0.0
 11
3686.988637124683
 21
4835.362684519656
 31
0.0
  0
INSERT
  5
19434
330
18E05
100
AcDbEntity
  8
寸法
 62
     0
 48
50.0
370
    -2
100
AcDbBlockReference
  2
_DOTSMALL
 10
3746.988637124683
 20
4835.362684519656
 30
0.0
 41
100.0
 42
100.0
 43
100.0
 50
180.0
  0
INSERT
  5
19435
330
18E05
100
AcDbEntity
  8
寸法
 62
     0
 48
50.0
370
    -2
100
AcDbBlockReference
  2
_DOTSMALL
 10
3686.988637124683
 20
4835.362684519656
 30
0.0
 41
100.0
 42
100.0
 43
100.0
  0
MTEXT
  5
19436
330
18E05
100
AcDbEntity
  8
寸法
 62
     7
 48
50.0
100
AcDbMText
 10
3377.350841849093
 20
4935.362684519656
 30
0.0
 40
120.0
 41
0.0
 71
     5
 72
     1
  1
\A1;60
  7
STYLE1
 73
     1
 44
1.0
1001
ACAD
1000
MTEXTBEGIN
1070
    73
1070
     1
1070
    44
1040
1.0
1070
    74
1070
     0
1000
MTEXTEND
  0
POINT
  5
19437
330
18E05
100
AcDbEntity
  8
DEFPOINTS
 62
     0
 48
50.0
100
AcDbPoint
 10
3746.988637124683
 20
4432.706849063328
 30
0.0
  0
POINT
  5
19438
330
18E05
100
AcDbEntity
  8
DEFPOINTS
 62
     0
 48
50.0
100
AcDbPoint
 10
3686.988637124683
 20
4436.705230940356
 30
0.0
  0
POINT
  5
19439
330
18E05
100
AcDbEntity
  8
DEFPOINTS
 62
     0
 48
50.0
100
AcDbPoint
 10
3686.988637124683
 20
4835.362684519656
 30
0.0
  0
ENDBLK
  5
18E12
330
18E05
100
AcDbEntity
  8
0
 48
50.0
100
AcDbBlockEnd
  0
BLOCK
  5
18E1D
330
18E13
100
AcDbEntity
  8
0
 48
50.0
100
AcDbBlockBegin
  2
*D12
 70
     1
 10
0.0
 20
0.0
 30
0.0
  3
*D12
  1

  0
LINE
  5
19426
330
18E13
100
AcDbEntity
  8
寸法
 62
     0
 48
50.0
370
    -2
100
AcDbLine
 10
6376.988637124685
 20
4403.515910552005
 30
0.0
 11
6376.988637124685
 21
4895.362684519657
 31
0.0
  0
LINE
  5
19427
330
18E13
100
AcDbEntity
  8
寸法
 62
     0
 48
50.0
370
    -2
100
AcDbLine
 10
3746.988637124683
 20
4452.706849063328
 30
0.0
 11
3746.988637124683
 21
4895.362684519657
 31
0.0
  0
LINE
  5
19428
330
18E13
100
AcDbEntity
  8
寸法
 62
     0
 48
50.0
370
    -2
100
AcDbLine
 10
6376.988637124685
 20
4835.362684519657
 30
0.0
 11
3746.988637124683
 21
4835.362684519657
 31
0.0
  0
INSERT
  5
19429
330
18E13
100
AcDbEntity
  8
寸法
 62
     0
 48
50.0
370
    -2
100
AcDbBlockReference
  2
_DOTSMALL
 10
6376.988637124685
 20
4835.362684519657
 30
0.0
 41
100.0
 42
100.0
 43
100.0
  0
INSERT
  5
1942A
330
18E13
100
AcDbEntity
  8
寸法
 62
     0
 48
50.0
370
    -2
100
AcDbBlockReference
  2
_DOTSMALL
 10
3746.988637124683
 20
4835.362684519657
 30
0.0
 41
100.0
 42
100.0
 43
100.0
 50
180.0
  0
MTEXT
  5
1942B
330
18E13
100
AcDbEntity
  8
寸法
 62
     7
 48
50.0
100
AcDbMText
 10
5101.758828153879
 20
4935.374495543278
 30
0.0
 40
120.0
 41
0.0
 71
     5
 72
     1
  1
\A1;柱外寸法2630
  7
STYLE1
 73
     1
 44
1.0
1001
ACAD
1000
MTEXTBEGIN
1070
    73
1070
     1
1070
    44
1040
1.0
1070
    74
1070
     0
1000
MTEXTEND
  0
POINT
  5
1942C
330
18E13
100
AcDbEntity
  8
DEFPOINTS
 62
     0
 48
50.0
100
AcDbPoint
 10
6376.988637124685
 20
4383.515910552006
 30
0.0
  0
POINT
  5
1942D
330
18E13
100
AcDbEntity
  8
DEFPOINTS
 62
     0
 48
50.0
100
AcDbPoint
 10
3746.988637124683
 20
4432.706849063328
 30
0.0
  0
POINT
  5
1942E
330
18E13
100
AcDbEntity
  8
DEFPOINTS
 62
     0
 48
50.0
100
AcDbPoint
 10
3746.988637124683
 20
4835.362684519657
 30
0.0
  0
ENDBLK
  5
18E1E
330
18E13
100
AcDbEntity
  8
0
 48
50.0
100
AcDbBlockEnd
  0
BLOCK
  5
18E29
330
18E1F
100
AcDbEntity
  8
0
 48
50.0
100
AcDbBlockBegin
  2
*D13
 70
     1
 10
0.0
 20
0.0
 30
0.0
  3
*D13
  1

  0
LINE
  5
1941D
330
18E1F
100
AcDbEntity
  8
寸法
 62
     0
 48
50.0
370
    -2
100
AcDbLine
 10
6473.988637124688
 20
2061.705230940352
 30
0.0
 11
7141.915795096817
 21
2061.705230940352
 31
0.0
  0
LINE
  5
1941E
330
18E1F
100
AcDbEntity
  8
寸法
 62
     0
 48
50.0
370
    -2
100
AcDbLine
 10
6476.988637124685
 20
4381.705230940354
 30
0.0
 11
7141.915795096817
 21
4381.705230940354
 31
0.0
  0
LINE
  5
1941F
330
18E1F
100
AcDbEntity
  8
寸法
 62
     0
 48
50.0
370
    -2
100
AcDbLine
 10
7081.915795096816
 20
2061.705230940352
 30
0.0
 11
7081.915795096816
 21
4381.705230940354
 31
0.0
  0
INSERT
  5
19420
330
18E1F
100
AcDbEntity
  8
寸法
 62
     0
 48
50.0
370
    -2
100
AcDbBlockReference
  2
_DOTSMALL
 10
7081.915795096816
 20
2061.705230940352
 30
0.0
 41
100.0
 42
100.0
 43
100.0
 50
270.0
  0
INSERT
  5
19421
330
18E1F
100
AcDbEntity
  8
寸法
 62
     0
 48
50.0
370
    -2
100
AcDbBlockReference
  2
_DOTSMALL
 10
7081.915795096816
 20
4381.705230940354
 30
0.0
 41
100.0
 42
100.0
 43
100.0
 50
90.0
  0
MTEXT
  5
19422
330
18E1F
100
AcDbEntity
  8
寸法
 62
     7
 48
50.0
100
AcDbMText
 10
6981.903984073195
 20
3221.705230940354
 30
0.0
 40
120.0
 41
0.0
 71
     5
 72
     1
  1
\A1;2320
  7
STYLE1
 11
0.0000000000000001
 21
1.0
 31
0.0
 73
     1
 44
1.0
1001
ACAD
1000
MTEXTBEGIN
1070
    73
1070
     1
1070
    44
1040
1.0
1070
    74
1070
     0
1000
MTEXTEND
  0
POINT
  5
19423
330
18E1F
100
AcDbEntity
  8
DEFPOINTS
 62
     0
 48
50.0
100
AcDbPoint
 10
6453.988637124687
 20
2061.705230940352
 30
0.0
  0
POINT
  5
19424
330
18E1F
100
AcDbEntity
  8
DEFPOINTS
 62
     0
 48
50.0
100
AcDbPoint
 10
6456.988637124685
 20
4381.705230940354
 30
0.0
  0
POINT
  5
19425
330
18E1F
100
AcDbEntity
  8
DEFPOINTS
 62
     0
 48
50.0
100
AcDbPoint
 10
7081.915795096816
 20
4381.705230940354
 30
0.0
  0
ENDBLK
  5
18E2A
330
18E1F
100
AcDbEntity
  8
0
 48
50.0
100
AcDbBlockEnd
  0
BLOCK
  5
18E35
330
18E2B
100
AcDbEntity
  8
0
 48
50.0
100
AcDbBlockBegin
  2
*D14
 70
     1
 10
0.0
 20
0.0
 30
0.0
  3
*D14
  1

  0
LINE
  5
19414
330
18E2B
100
AcDbEntity
  8
寸法
 62
     0
 48
50.0
370
    -2
100
AcDbLine
 10
8559.085666461934
 20
1741.705230940351
 30
0.0
 11
8559.085666461934
 21
1415.657901639973
 31
0.0
  0
LINE
  5
19415
330
18E2B
100
AcDbEntity
  8
寸法
 62
     0
 48
50.0
370
    -2
100
AcDbLine
 10
8359.085666461931
 20
1741.705230940351
 30
0.0
 11
8359.085666461931
 21
1415.657901639973
 31
0.0
  0
LINE
  5
19416
330
18E2B
100
AcDbEntity
  8
寸法
 62
     0
 48
50.0
370
    -2
100
AcDbLine
 10
8559.085666461934
 20
1475.657901639974
 30
0.0
 11
8359.085666461931
 21
1475.657901639974
 31
0.0
  0
INSERT
  5
19417
330
18E2B
100
AcDbEntity
  8
寸法
 62
     0
 48
50.0
370
    -2
100
AcDbBlockReference
  2
_DOTSMALL
 10
8559.085666461934
 20
1475.657901639974
 30
0.0
 41
100.0
 42
100.0
 43
100.0
  0
INSERT
  5
19418
330
18E2B
100
AcDbEntity
  8
寸法
 62
     0
 48
50.0
370
    -2
100
AcDbBlockReference
  2
_DOTSMALL
 10
8359.085666461931
 20
1475.657901639974
 30
0.0
 41
100.0
 42
100.0
 43
100.0
 50
180.0
  0
MTEXT
  5
19419
330
18E2B
100
AcDbEntity
  8
寸法
 62
     7
 48
50.0
100
AcDbMText
 10
8459.08566646193
 20
1575.669712663596
 30
0.0
 40
120.0
 41
0.0
 71
     5
 72
     1
  1
\A1;200
  7
STYLE1
 73
     1
 44
1.0
1001
ACAD
1000
MTEXTBEGIN
1070
    73
1070
     1
1070
    44
1040
1.0
1070
    74
1070
     0
1000
MTEXTEND
  0
POINT
  5
1941A
330
18E2B
100
AcDbEntity
  8
DEFPOINTS
 62
     0
 48
50.0
100
AcDbPoint
 10
8559.085666461934
 20
1761.705230940351
 30
0.0
  0
POINT
  5
1941B
330
18E2B
100
AcDbEntity
  8
DEFPOINTS
 62
     0
 48
50.0
100
AcDbPoint
 10
8359.085666461931
 20
1761.705230940351
 30
0.0
  0
POINT
  5
1941C
330
18E2B
100
AcDbEntity
  8
DEFPOINTS
 62
     0
 48
50.0
100
AcDbPoint
 10
8359.085666461931
 20
1475.657901639974
 30
0.0
  0
ENDBLK
  5
18E36
330
18E2B
100
AcDbEntity
  8
0
 48
50.0
100
AcDbBlockEnd
  0
BLOCK
  5
18E41
330
18E37
100
AcDbEntity
  8
0
 48
50.0
100
AcDbBlockBegin
  2
*D15
 70
     1
 10
0.0
 20
0.0
 30
0.0
  3
*D15
  1

  0
LINE
  5
1940B
330
18E37
100
AcDbEntity
  8
寸法
 62
     0
 48
50.0
370
    -2
100
AcDbLine
 10
8897.085666461933
 20
4144.705230940351
 30
0.0
 11
8097.907787245459
 21
4144.705230940351
 31
0.0
  0
LINE
  5
1940C
330
18E37
100
AcDbEntity
  8
寸法
 62
     0
 48
50.0
370
    -2
100
AcDbLine
 10
8897.085666461933
 20
2119.705230940352
 30
0.0
 11
8097.907787245459
 21
2119.705230940352
 31
0.0
  0
LINE
  5
1940D
330
18E37
100
AcDbEntity
  8
寸法
 62
     0
 48
50.0
370
    -2
100
AcDbLine
 10
8157.907787245459
 20
4144.705230940351
 30
0.0
 11
8157.907787245459
 21
2119.705230940352
 31
0.0
  0
INSERT
  5
1940E
330
18E37
100
AcDbEntity
  8
寸法
 62
     0
 48
50.0
370
    -2
100
AcDbBlockReference
  2
_DOTSMALL
 10
8157.907787245459
 20
4144.705230940351
 30
0.0
 41
100.0
 42
100.0
 43
100.0
 50
90.0
  0
INSERT
  5
1940F
330
18E37
100
AcDbEntity
  8
寸法
 62
     0
 48
50.0
370
    -2
100
AcDbBlockReference
  2
_DOTSMALL
 10
8157.907787245459
 20
2119.705230940352
 30
0.0
 41
100.0
 42
100.0
 43
100.0
 50
270.0
  0
MTEXT
  5
19410
330
18E37
100
AcDbEntity
  8
寸法
 62
     7
 48
50.0
100
AcDbMText
 10
8057.895976221836
 20
3099.112021552468
 30
0.0
 40
120.0
 41
0.0
 71
     5
 72
     1
  1
\A1;有効開口部高サ2025
  7
STYLE1
 11
0.0000000000000001
 21
1.0
 31
0.0
 73
     1
 44
1.0
1001
ACAD
1000
MTEXTBEGIN
1070
    73
1070
     1
1070
    44
1040
1.0
1070
    74
1070
     0
1000
MTEXTEND
  0
POINT
  5
19411
330
18E37
100
AcDbEntity
  8
DEFPOINTS
 62
     0
 48
50.0
100
AcDbPoint
 10
8917.085666461934
 20
4144.705230940351
 30
0.0
  0
POINT
  5
19412
330
18E37
100
AcDbEntity
  8
DEFPOINTS
 62
     0
 48
50.0
100
AcDbPoint
 10
8917.085666461934
 20
2119.705230940352
 30
0.0
  0
POINT
  5
19413
330
18E37
100
AcDbEntity
  8
DEFPOINTS
 62
     0
 48
50.0
100
AcDbPoint
 10
8157.907787245459
 20
2119.705230940352
 30
0.0
  0
ENDBLK
  5
18E42
330
18E37
100
AcDbEntity
  8
0
 48
50.0
100
AcDbBlockEnd
  0
BLOCK
  5
18E4D
330
18E43
100
AcDbEntity
  8
0
 48
50.0
100
AcDbBlockBegin
  2
*D16
 70
     1
 10
0.0
 20
0.0
 30
0.0
  3
*D16
  1

  0
LINE
  5
19402
330
18E43
100
AcDbEntity
  8
寸法
 62
     0
 48
50.0
370
    -2
100
AcDbLine
 10
8492.226682613241
 20
9408.062580356732
 30
0.0
 11
8410.578708597325
 21
9103.348192994275
 31
0.0
  0
LINE
  5
19403
330
18E43
100
AcDbEntity
  8
寸法
 62
     0
 48
50.0
370
    -2
100
AcDbLine
 10
9975.226682613312
 20
9408.062580356725
 30
0.0
 11
9893.578708597399
 21
9103.348192994275
 31
0.0
  0
LINE
  5
19404
330
18E43
100
AcDbEntity
  8
寸法
 62
     0
 48
50.0
370
    -2
100
AcDbLine
 10
8426.655660143195
 20
9163.348192994275
 30
0.0
 11
9909.655660143268
 21
9163.348192994275
 31
0.0
  0
INSERT
  5
19405
330
18E43
100
AcDbEntity
  8
寸法
 62
     0
 48
50.0
370
    -2
100
AcDbBlockReference
  2
_DOTSMALL
 10
8426.655660143195
 20
9163.348192994275
 30
0.0
 41
100.0
 42
100.0
 43
100.0
 50
180.0
  0
INSERT
  5
19406
330
18E43
100
AcDbEntity
  8
寸法
 62
     0
 48
50.0
370
    -2
100
AcDbBlockReference
  2
_DOTSMALL
 10
9909.655660143268
 20
9163.348192994275
 30
0.0
 41
100.0
 42
100.0
 43
100.0
  0
MTEXT
  5
19407
330
18E43
100
AcDbEntity
  8
寸法
 62
     7
 48
50.0
100
AcDbMText
 10
9057.271217292656
 20
9263.348192994277
 30
0.0
 40
120.0
 41
0.0
 71
     5
 72
     1
  1
\A1;1483
  7
STYLE1
 73
     1
 44
1.0
1001
ACAD
1000
MTEXTBEGIN
1070
    73
1070
     1
1070
    44
1040
1.0
1070
    74
1070
     0
1000
MTEXTEND
  0
POINT
  5
19408
330
18E43
100
AcDbEntity
  8
DEFPOINTS
 62
     0
 48
50.0
100
AcDbPoint
 10
8497.585666461864
 20
9428.06258035673
 30
0.0
  0
POINT
  5
19409
330
18E43
100
AcDbEntity
  8
DEFPOINTS
 62
     0
 48
50.0
100
AcDbPoint
 10
9980.585666461935
 20
9428.062580356723
 30
0.0
  0
POINT
  5
1940A
330
18E43
100
AcDbEntity
  8
DEFPOINTS
 62
     0
 48
50.0
100
AcDbPoint
 10
9909.655660143268
 20
9163.348192994275
 30
0.0
  0
ENDBLK
  5
18E4E
330
18E43
100
AcDbEntity
  8
0
 48
50.0
100
AcDbBlockEnd
  0
BLOCK
  5
18E59
330
18E4F
100
AcDbEntity
  8
0
 48
50.0
100
AcDbBlockBegin
  2
*D17
 70
     1
 10
0.0
 20
0.0
 30
0.0
  3
*D17
  1

  0
LINE
  5
193F9
330
18E4F
100
AcDbEntity
  8
寸法
 62
     0
 48
50.0
370
    -2
100
AcDbLine
 10
8524.085666461941
 20
9928.062580356618
 30
0.0
 11
8524.085666461941
 21
10468.06258035666
 31
0.0
  0
LINE
  5
193FA
330
18E4F
100
AcDbEntity
  8
寸法
 62
     0
 48
50.0
370
    -2
100
AcDbLine
 10
11464.08566646194
 20
9928.062580356714
 30
0.0
 11
11464.08566646194
 21
10468.06258035666
 31
0.0
  0
LINE
  5
193FB
330
18E4F
100
AcDbEntity
  8
寸法
 62
     0
 48
50.0
370
    -2
100
AcDbLine
 10
8524.085666461941
 20
10408.06258035666
 30
0.0
 11
11464.08566646194
 21
10408.06258035666
 31
0.0
  0
INSERT
  5
193FC
330
18E4F
100
AcDbEntity
  8
寸法
 62
     0
 48
50.0
370
    -2
100
AcDbBlockReference
  2
_DOTSMALL
 10
8524.085666461941
 20
10408.06258035666
 30
0.0
 41
100.0
 42
100.0
 43
100.0
 50
180.0
  0
INSERT
  5
193FD
330
18E4F
100
AcDbEntity
  8
寸法
 62
     0
 48
50.0
370
    -2
100
AcDbBlockReference
  2
_DOTSMALL
 10
11464.08566646194
 20
10408.06258035666
 30
0.0
 41
100.0
 42
100.0
 43
100.0
  0
MTEXT
  5
193FE
330
18E4F
100
AcDbEntity
  8
寸法
 62
     7
 48
50.0
100
AcDbMText
 10
9994.085666461941
 20
10508.07439138028
 30
0.0
 40
120.0
 41
0.0
 71
     5
 72
     1
  1
\A1;7X420=2940
  7
STYLE1
 73
     1
 44
1.0
1001
ACAD
1000
MTEXTBEGIN
1070
    73
1070
     1
1070
    44
1040
1.0
1070
    74
1070
     0
1000
MTEXTEND
  0
POINT
  5
193FF
330
18E4F
100
AcDbEntity
  8
DEFPOINTS
 62
     0
 48
50.0
100
AcDbPoint
 10
8524.085666461941
 20
9908.062580356618
 30
0.0
  0
POINT
  5
19400
330
18E4F
100
AcDbEntity
  8
DEFPOINTS
 62
     0
 48
50.0
100
AcDbPoint
 10
11464.08566646194
 20
9908.062580356713
 30
0.0
  0
POINT
  5
19401
330
18E4F
100
AcDbEntity
  8
DEFPOINTS
 62
     0
 48
50.0
100
AcDbPoint
 10
11464.08566646194
 20
10408.06258035666
 30
0.0
  0
ENDBLK
  5
18E5A
330
18E4F
100
AcDbEntity
  8
0
 48
50.0
100
AcDbBlockEnd
  0
BLOCK
  5
18E73
330
18E67
100
AcDbEntity
  8
0
 48
50.0
100
AcDbBlockBegin
  2
*D18
 70
     1
 10
0.0
 20
0.0
 30
0.0
  3
*D18
  1

  0
LINE
  5
193E5
330
18E67
100
AcDbEntity
  8
寸法
 62
     0
 48
50.0
370
    -2
100
AcDbLine
 10
8469.085666461907
 20
9928.062580356618
 30
0.0
 11
8469.085666461907
 21
10468.06258035662
 31
0.0
  0
LINE
  5
193E6
330
18E67
100
AcDbEntity
  8
寸法
 62
     0
 48
50.0
370
    -2
100
AcDbLine
 10
8524.085666461941
 20
9928.062580356618
 30
0.0
 11
8524.085666461941
 21
10468.06258035662
 31
0.0
  0
LINE
  5
193E7
330
18E67
100
AcDbEntity
  8
寸法
 62
     0
 48
50.0
370
    -2
100
AcDbLine
 10
8524.085666461941
 20
10408.06258035662
 30
0.0
 11
8624.08566646194
 21
10408.06258035662
 31
0.0
  0
LINE
  5
193E8
330
18E67
100
AcDbEntity
  8
寸法
 62
     0
 48
50.0
370
    -2
100
AcDbLine
 10
8469.085666461907
 20
10408.06258035662
 30
0.0
 11
8052.115103713429
 21
10408.06258035662
 31
0.0
  0
LINE
  5
193E9
330
18E67
100
AcDbEntity
  8
寸法
 62
     0
 48
50.0
370
    -2
100
AcDbLine
 10
8524.085666461941
 20
10408.06258035662
 30
0.0
 11
8469.085666461907
 21
10408.06258035662
 31
0.0
  0
INSERT
  5
193EA
330
18E67
100
AcDbEntity
  8
寸法
 62
     0
 48
50.0
370
    -2
100
AcDbBlockReference
  2
_DOTSMALL
 10
8524.085666461941
 20
10408.06258035662
 30
0.0
 41
100.0
 42
100.0
 43
100.0
 50
180.0
  0
INSERT
  5
193EB
330
18E67
100
AcDbEntity
  8
寸法
 62
     0
 48
50.0
370
    -2
100
AcDbBlockReference
  2
_DOTSMALL
 10
8469.085666461907
 20
10408.06258035662
 30
0.0
 41
100.0
 42
100.0
 43
100.0
  0
MTEXT
  5
193EC
330
18E67
100
AcDbEntity
  8
寸法
 62
     7
 48
50.0
100
AcDbMText
 10
8160.600385087667
 20
10508.06258035662
 30
0.0
 40
120.0
 41
0.0
 71
     5
 72
     1
  1
\A1;55
  7
STYLE1
 73
     1
 44
1.0
1001
ACAD
1000
MTEXTBEGIN
1070
    73
1070
     1
1070
    44
1040
1.0
1070
    74
1070
     0
1000
MTEXTEND
  0
POINT
  5
193ED
330
18E67
100
AcDbEntity
  8
DEFPOINTS
 62
     0
 48
50.0
100
AcDbPoint
 10
8469.085666461907
 20
9908.062580356618
 30
0.0
  0
POINT
  5
193EE
330
18E67
100
AcDbEntity
  8
DEFPOINTS
 62
     0
 48
50.0
100
AcDbPoint
 10
8524.085666461941
 20
9908.062580356618
 30
0.0
  0
POINT
  5
193EF
330
18E67
100
AcDbEntity
  8
DEFPOINTS
 62
     0
 48
50.0
100
AcDbPoint
 10
8524.085666461941
 20
10408.06258035662
 30
0.0
  0
ENDBLK
  5
18E74
330
18E67
100
AcDbEntity
  8
0
 48
50.0
100
AcDbBlockEnd
  0
BLOCK
  5
18E7F
330
18E75
100
AcDbEntity
  8
0
 48
50.0
100
AcDbBlockBegin
  2
*D19
 70
     1
 10
0.0
 20
0.0
 30
0.0
  3
*D19
  1

  0
LINE
  5
193DC
330
18E75
100
AcDbEntity
  8
寸法
 62
     0
 48
50.0
370
    -2
100
AcDbLine
 10
10002.22668261331
 20
9408.062580356789
 30
0.0
 11
9920.578708597382
 21
9103.348192994275
 31
0.0
  0
LINE
  5
193DD
330
18E75
100
AcDbEntity
  8
寸法
 62
     0
 48
50.0
370
    -2
100
AcDbLine
 10
11485.22668261332
 20
9408.062580356782
 30
0.0
 11
11403.57870859739
 21
9103.348192994275
 31
0.0
  0
LINE
  5
193DE
330
18E75
100
AcDbEntity
  8
寸法
 62
     0
 48
50.0
370
    -2
100
AcDbLine
 10
9936.655660143248
 20
9163.348192994275
 30
0.0
 11
11419.65566014326
 21
9163.348192994275
 31
0.0
  0
INSERT
  5
193DF
330
18E75
100
AcDbEntity
  8
寸法
 62
     0
 48
50.0
370
    -2
100
AcDbBlockReference
  2
_DOTSMALL
 10
9936.655660143248
 20
9163.348192994275
 30
0.0
 41
100.0
 42
100.0
 43
100.0
 50
180.0
  0
INSERT
  5
193E0
330
18E75
100
AcDbEntity
  8
寸法
 62
     0
 48
50.0
370
    -2
100
AcDbBlockReference
  2
_DOTSMALL
 10
11419.65566014326
 20
9163.348192994275
 30
0.0
 41
100.0
 42
100.0
 43
100.0
  0
MTEXT
  5
193E1
330
18E75
100
AcDbEntity
  8
寸法
 62
     7
 48
50.0
100
AcDbMText
 10
10519.14937745999
 20
9263.348192994277
 30
0.0
 40
120.0
 41
0.0
 71
     5
 72
     1
  1
\A1;1483
  7
STYLE1
 73
     1
 44
1.0
1001
ACAD
1000
MTEXTBEGIN
1070
    73
1070
     1
1070
    44
1040
1.0
1070
    74
1070
     0
1000
MTEXTEND
  0
POINT
  5
193E2
330
18E75
100
AcDbEntity
  8
DEFPOINTS
 62
     0
 48
50.0
100
AcDbPoint
 10
10007.58566646193
 20
9428.062580356789
 30
0.0
  0
POINT
  5
193E3
330
18E75
100
AcDbEntity
  8
DEFPOINTS
 62
     0
 48
50.0
100
AcDbPoint
 10
11490.58566646194
 20
9428.062580356781
 30
0.0
  0
POINT
  5
193E4
330
18E75
100
AcDbEntity
  8
DEFPOINTS
 62
     0
 48
50.0
100
AcDbPoint
 10
11419.65566014326
 20
9163.348192994275
 30
0.0
  0
ENDBLK
  5
18E80
330
18E75
100
AcDbEntity
  8
0
 48
50.0
100
AcDbBlockEnd
  0
BLOCK
  5
18E8B
330
18E81
100
AcDbEntity
  8
0
 48
50.0
100
AcDbBlockBegin
  2
*D20
 70
     1
 10
0.0
 20
0.0
 30
0.0
  3
*D20
  1

  0
LINE
  5
193D3
330
18E81
100
AcDbEntity
  8
寸法
 62
     0
 48
50.0
370
    -2
100
AcDbLine
 10
11539.08566646194
 20
9908.062580356713
 30
0.0
 11
12579.08566646193
 21
9908.062580356713
 31
0.0
  0
LINE
  5
193D4
330
18E81
100
AcDbEntity
  8
寸法
 62
     0
 48
50.0
370
    -2
100
AcDbLine
 10
11539.08566646191
 20
7278.062580356705
 30
0.0
 11
12579.08566646193
 21
7278.062580356705
 31
0.0
  0
LINE
  5
193D5
330
18E81
100
AcDbEntity
  8
寸法
 62
     0
 48
50.0
370
    -2
100
AcDbLine
 10
12519.08566646193
 20
9908.062580356713
 30
0.0
 11
12519.08566646193
 21
7278.062580356705
 31
0.0
  0
INSERT
  5
193D6
330
18E81
100
AcDbEntity
  8
寸法
 62
     0
 48
50.0
370
    -2
100
AcDbBlockReference
  2
_DOTSMALL
 10
12519.08566646193
 20
9908.062580356713
 30
0.0
 41
100.0
 42
100.0
 43
100.0
 50
90.0
  0
INSERT
  5
193D7
330
18E81
100
AcDbEntity
  8
寸法
 62
     0
 48
50.0
370
    -2
100
AcDbBlockReference
  2
_DOTSMALL
 10
12519.08566646193
 20
7278.062580356705
 30
0.0
 41
100.0
 42
100.0
 43
100.0
 50
270.0
  0
MTEXT
  5
193D8
330
18E81
100
AcDbEntity
  8
寸法
 62
     7
 48
50.0
100
AcDbMText
 10
12419.07385543831
 20
8593.06258035671
 30
0.0
 40
120.0
 41
0.0
 71
     5
 72
     1
  1
\A1;2630
  7
STYLE1
 11
0.0000000000000001
 21
1.0
 31
0.0
 73
     1
 44
1.0
1001
ACAD
1000
MTEXTBEGIN
1070
    73
1070
     1
1070
    44
1040
1.0
1070
    74
1070
     0
1000
MTEXTEND
  0
POINT
  5
193D9
330
18E81
100
AcDbEntity
  8
DEFPOINTS
 62
     0
 48
50.0
100
AcDbPoint
 10
11519.08566646194
 20
9908.062580356713
 30
0.0
  0
POINT
  5
193DA
330
18E81
100
AcDbEntity
  8
DEFPOINTS
 62
     0
 48
50.0
100
AcDbPoint
 10
11519.08566646191
 20
7278.062580356705
 30
0.0
  0
POINT
  5
193DB
330
18E81
100
AcDbEntity
  8
DEFPOINTS
 62
     0
 48
50.0
100
AcDbPoint
 10
12519.08566646193
 20
7278.062580356705
 30
0.0
  0
ENDBLK
  5
18E8C
330
18E81
100
AcDbEntity
  8
0
 48
50.0
100
AcDbBlockEnd
  0
BLOCK
  5
18E97
330
18E8D
100
AcDbEntity
  8
0
 48
50.0
100
AcDbBlockBegin
  2
*D21
 70
     1
 10
0.0
 20
0.0
 30
0.0
  3
*D21
  1

  0
LINE
  5
193CA
330
18E8D
100
AcDbEntity
  8
寸法
 62
     0
 48
50.0
370
    -2
100
AcDbLine
 10
11539.08566646194
 20
9853.062580356716
 30
0.0
 11
12279.08566646193
 21
9853.062580356716
 31
0.0
  0
LINE
  5
193CB
330
18E8D
100
AcDbEntity
  8
寸法
 62
     0
 48
50.0
370
    -2
100
AcDbLine
 10
11539.08566646191
 20
7333.062580356702
 30
0.0
 11
12279.08566646193
 21
7333.062580356702
 31
0.0
  0
LINE
  5
193CC
330
18E8D
100
AcDbEntity
  8
寸法
 62
     0
 48
50.0
370
    -2
100
AcDbLine
 10
12219.08566646193
 20
9853.062580356716
 30
0.0
 11
12219.08566646193
 21
7333.062580356702
 31
0.0
  0
INSERT
  5
193CD
330
18E8D
100
AcDbEntity
  8
寸法
 62
     0
 48
50.0
370
    -2
100
AcDbBlockReference
  2
_DOTSMALL
 10
12219.08566646193
 20
9853.062580356716
 30
0.0
 41
100.0
 42
100.0
 43
100.0
 50
90.0
  0
INSERT
  5
193CE
330
18E8D
100
AcDbEntity
  8
寸法
 62
     0
 48
50.0
370
    -2
100
AcDbBlockReference
  2
_DOTSMALL
 10
12219.08566646193
 20
7333.062580356702
 30
0.0
 41
100.0
 42
100.0
 43
100.0
 50
270.0
  0
MTEXT
  5
193CF
330
18E8D
100
AcDbEntity
  8
寸法
 62
     7
 48
50.0
100
AcDbMText
 10
12119.07385543831
 20
8593.06258035671
 30
0.0
 40
120.0
 41
0.0
 71
     5
 72
     1
  1
\A1;6X420=2520
  7
STYLE1
 11
0.0000000000000001
 21
1.0
 31
0.0
 73
     1
 44
1.0
1001
ACAD
1000
MTEXTBEGIN
1070
    73
1070
     1
1070
    44
1040
1.0
1070
    74
1070
     0
1000
MTEXTEND
  0
POINT
  5
193D0
330
18E8D
100
AcDbEntity
  8
DEFPOINTS
 62
     0
 48
50.0
100
AcDbPoint
 10
11519.08566646194
 20
9853.062580356716
 30
0.0
  0
POINT
  5
193D1
330
18E8D
100
AcDbEntity
  8
DEFPOINTS
 62
     0
 48
50.0
100
AcDbPoint
 10
11519.08566646191
 20
7333.062580356702
 30
0.0
  0
POINT
  5
193D2
330
18E8D
100
AcDbEntity
  8
DEFPOINTS
 62
     0
 48
50.0
100
AcDbPoint
 10
12219.08566646193
 20
7333.062580356702
 30
0.0
  0
ENDBLK
  5
18E98
330
18E8D
100
AcDbEntity
  8
0
 48
50.0
100
AcDbBlockEnd
  0
BLOCK
  5
18EA5
330
18E99
100
AcDbEntity
  8
0
 48
50.0
100
AcDbBlockBegin
  2
*D22
 70
     1
 10
0.0
 20
0.0
 30
0.0
  3
*D22
  1

  0
LINE
  5
193BF
330
18E99
100
AcDbEntity
  8
寸法
 62
     0
 48
50.0
370
    -2
100
AcDbLine
 10
11539.08566646191
 20
7333.062580356702
 30
0.0
 11
12279.08566646192
 21
7333.062580356702
 31
0.0
  0
LINE
  5
193C0
330
18E99
100
AcDbEntity
  8
寸法
 62
     0
 48
50.0
370
    -2
100
AcDbLine
 10
11539.08566646191
 20
7278.062580356705
 30
0.0
 11
12279.08566646192
 21
7278.062580356705
 31
0.0
  0
LINE
  5
193C1
330
18E99
100
AcDbEntity
  8
寸法
 62
     0
 48
50.0
370
    -2
100
AcDbLine
 10
12219.08566646192
 20
7333.062580356702
 30
0.0
 11
12219.08566646192
 21
7433.062580356701
 31
0.0
  0
LINE
  5
193C2
330
18E99
100
AcDbEntity
  8
寸法
 62
     0
 48
50.0
370
    -2
100
AcDbLine
 10
12219.08566646192
 20
7278.062580356705
 30
0.0
 11
12219.08566646192
 21
6861.092017608223
 31
0.0
  0
LINE
  5
193C3
330
18E99
100
AcDbEntity
  8
寸法
 62
     0
 48
50.0
370
    -2
100
AcDbLine
 10
12219.08566646192
 20
7333.062580356702
 30
0.0
 11
12219.08566646192
 21
7278.062580356705
 31
0.0
  0
INSERT
  5
193C4
330
18E99
100
AcDbEntity
  8
寸法
 62
     0
 48
50.0
370
    -2
100
AcDbBlockReference
  2
_DOTSMALL
 10
12219.08566646192
 20
7333.062580356702
 30
0.0
 41
100.0
 42
100.0
 43
100.0
 50
270.0
  0
INSERT
  5
193C5
330
18E99
100
AcDbEntity
  8
寸法
 62
     0
 48
50.0
370
    -2
100
AcDbBlockReference
  2
_DOTSMALL
 10
12219.08566646192
 20
7278.062580356705
 30
0.0
 41
100.0
 42
100.0
 43
100.0
 50
90.0
  0
MTEXT
  5
193C6
330
18E99
100
AcDbEntity
  8
寸法
 62
     7
 48
50.0
100
AcDbMText
 10
12119.08566646191
 20
6969.577298982464
 30
0.0
 40
120.0
 41
0.0
 71
     5
 72
     1
  1
\A1;55
  7
STYLE1
 11
0.0000000000000001
 21
1.0
 31
0.0
 73
     1
 44
1.0
1001
ACAD
1000
MTEXTBEGIN
1070
    73
1070
     1
1070
    44
1040
1.0
1070
    74
1070
     0
1000
MTEXTEND
  0
POINT
  5
193C7
330
18E99
100
AcDbEntity
  8
DEFPOINTS
 62
     0
 48
50.0
100
AcDbPoint
 10
11519.08566646191
 20
7333.062580356702
 30
0.0
  0
POINT
  5
193C8
330
18E99
100
AcDbEntity
  8
DEFPOINTS
 62
     0
 48
50.0
100
AcDbPoint
 10
11519.08566646191
 20
7278.062580356705
 30
0.0
  0
POINT
  5
193C9
330
18E99
100
AcDbEntity
  8
DEFPOINTS
 62
     0
 48
50.0
100
AcDbPoint
 10
12219.08566646192
 20
7278.062580356705
 30
0.0
  0
ENDBLK
  5
18EA6
330
18E99
100
AcDbEntity
  8
0
 48
50.0
100
AcDbBlockEnd
  0
BLOCK
  5
18EB1
330
18EA7
100
AcDbEntity
  8
0
 48
50.0
100
AcDbBlockBegin
  2
*D23
 70
     1
 10
0.0
 20
0.0
 30
0.0
  3
*D23
  1

  0
LINE
  5
193B6
330
18EA7
100
AcDbEntity
  8
寸法
 62
     0
 48
50.0
370
    -2
100
AcDbLine
 10
11510.58566646194
 20
9872.70359650809
 30
0.0
 11
11979.08566646194
 21
9747.169399854112
 31
0.0
  0
LINE
  5
193B7
330
18EA7
100
AcDbEntity
  8
寸法
 62
     0
 48
50.0
370
    -2
100
AcDbLine
 10
11510.58566646194
 20
9422.703596508094
 30
0.0
 11
11979.08566646194
 21
9297.169399854114
 31
0.0
  0
LINE
  5
193B8
330
18EA7
100
AcDbEntity
  8
寸法
 62
     0
 48
50.0
370
    -2
100
AcDbLine
 10
11919.08566646194
 20
9763.246351399978
 30
0.0
 11
11919.08566646194
 21
9313.24635139998
 31
0.0
  0
INSERT
  5
193B9
330
18EA7
100
AcDbEntity
  8
寸法
 62
     0
 48
50.0
370
    -2
100
AcDbBlockReference
  2
_DOTSMALL
 10
11919.08566646194
 20
9763.246351399978
 30
0.0
 41
100.0
 42
100.0
 43
100.0
 50
90.0
  0
INSERT
  5
193BA
330
18EA7
100
AcDbEntity
  8
寸法
 62
     0
 48
50.0
370
    -2
100
AcDbBlockReference
  2
_DOTSMALL
 10
11919.08566646194
 20
9313.24635139998
 30
0.0
 41
100.0
 42
100.0
 43
100.0
 50
270.0
  0
MTEXT
  5
193BB
330
18EA7
100
AcDbEntity
  8
寸法
 62
     7
 48
50.0
100
AcDbMText
 10
11819.08566646193
 20
9538.24635139998
 30
0.0
 40
120.0
 41
0.0
 71
     5
 72
     1
  1
\A1;450
  7
STYLE1
 11
0.0000000000000001
 21
1.0
 31
0.0
 73
     1
 44
1.0
1001
ACAD
1000
MTEXTBEGIN
1070
    73
1070
     1
1070
    44
1040
1.0
1070
    74
1070
     0
1000
MTEXTEND
  0
POINT
  5
193BC
330
18EA7
100
AcDbEntity
  8
DEFPOINTS
 62
     0
 48
50.0
100
AcDbPoint
 10
11490.58566646194
 20
9878.062580356713
 30
0.0
  0
POINT
  5
193BD
330
18EA7
100
AcDbEntity
  8
DEFPOINTS
 62
     0
 48
50.0
100
AcDbPoint
 10
11490.58566646194
 20
9428.062580356716
 30
0.0
  0
POINT
  5
193BE
330
18EA7
100
AcDbEntity
  8
DEFPOINTS
 62
     0
 48
50.0
100
AcDbPoint
 10
11919.08566646194
 20
9313.24635139998
 30
0.0
  0
ENDBLK
  5
18EB2
330
18EA7
100
AcDbEntity
  8
0
 48
50.0
100
AcDbBlockEnd
  0
BLOCK
  5
18EBF
330
18EB3
100
AcDbEntity
  8
0
 48
50.0
100
AcDbBlockBegin
  2
*D24
 70
     1
 10
0.0
 20
0.0
 30
0.0
  3
*D24
  1

  0
LINE
  5
193AB
330
18EB3
100
AcDbEntity
  8
寸法
 62
     0
 48
50.0
370
    -2
100
AcDbLine
 10
11464.08566646194
 20
9928.062580356714
 30
0.0
 11
11464.08566646194
 21
10468.06258035671
 31
0.0
  0
LINE
  5
193AC
330
18EB3
100
AcDbEntity
  8
寸法
 62
     0
 48
50.0
370
    -2
100
AcDbLine
 10
11519.08566646194
 20
9928.062580356714
 30
0.0
 11
11519.08566646194
 21
10468.06258035671
 31
0.0
  0
LINE
  5
193AD
330
18EB3
100
AcDbEntity
  8
寸法
 62
     0
 48
50.0
370
    -2
100
AcDbLine
 10
11464.08566646194
 20
10408.06258035671
 30
0.0
 11
11364.08566646194
 21
10408.06258035671
 31
0.0
  0
LINE
  5
193AE
330
18EB3
100
AcDbEntity
  8
寸法
 62
     0
 48
50.0
370
    -2
100
AcDbLine
 10
11519.08566646194
 20
10408.06258035671
 30
0.0
 11
11936.05622921042
 21
10408.06258035671
 31
0.0
  0
LINE
  5
193AF
330
18EB3
100
AcDbEntity
  8
寸法
 62
     0
 48
50.0
370
    -2
100
AcDbLine
 10
11464.08566646194
 20
10408.06258035671
 30
0.0
 11
11519.08566646194
 21
10408.06258035671
 31
0.0
  0
INSERT
  5
193B0
330
18EB3
100
AcDbEntity
  8
寸法
 62
     0
 48
50.0
370
    -2
100
AcDbBlockReference
  2
_DOTSMALL
 10
11464.08566646194
 20
10408.06258035671
 30
0.0
 41
100.0
 42
100.0
 43
100.0
  0
INSERT
  5
193B1
330
18EB3
100
AcDbEntity
  8
寸法
 62
     0
 48
50.0
370
    -2
100
AcDbBlockReference
  2
_DOTSMALL
 10
11519.08566646194
 20
10408.06258035671
 30
0.0
 41
100.0
 42
100.0
 43
100.0
 50
180.0
  0
MTEXT
  5
193B2
330
18EB3
100
AcDbEntity
  8
寸法
 62
     7
 48
50.0
100
AcDbMText
 10
11827.57094783618
 20
10508.06258035671
 30
0.0
 40
120.0
 41
0.0
 71
     5
 72
     1
  1
\A1;55
  7
STYLE1
 73
     1
 44
1.0
1001
ACAD
1000
MTEXTBEGIN
1070
    73
1070
     1
1070
    44
1040
1.0
1070
    74
1070
     0
1000
MTEXTEND
  0
POINT
  5
193B3
330
18EB3
100
AcDbEntity
  8
DEFPOINTS
 62
     0
 48
50.0
100
AcDbPoint
 10
11464.08566646194
 20
9908.062580356713
 30
0.0
  0
POINT
  5
193B4
330
18EB3
100
AcDbEntity
  8
DEFPOINTS
 62
     0
 48
50.0
100
AcDbPoint
 10
11519.08566646194
 20
9908.062580356713
 30
0.0
  0
POINT
  5
193B5
330
18EB3
100
AcDbEntity
  8
DEFPOINTS
 62
     0
 48
50.0
100
AcDbPoint
 10
11519.08566646194
 20
10408.06258035671
 30
0.0
  0
ENDBLK
  5
18EC0
330
18EB3
100
AcDbEntity
  8
0
 48
50.0
100
AcDbBlockEnd
  0
BLOCK
  5
18ECD
330
18EC1
100
AcDbEntity
  8
0
 48
50.0
100
AcDbBlockBegin
  2
*D25
 70
     1
 10
0.0
 20
0.0
 30
0.0
  3
*D25
  1

  0
LINE
  5
193A0
330
18EC1
100
AcDbEntity
  8
寸法
 62
     0
 48
50.0
370
    -2
100
AcDbLine
 10
11539.08566646194
 20
9908.062580356713
 30
0.0
 11
12279.08566646194
 21
9908.062580356713
 31
0.0
  0
LINE
  5
193A1
330
18EC1
100
AcDbEntity
  8
寸法
 62
     0
 48
50.0
370
    -2
100
AcDbLine
 10
11539.08566646194
 20
9853.062580356716
 30
0.0
 11
12279.08566646194
 21
9853.062580356716
 31
0.0
  0
LINE
  5
193A2
330
18EC1
100
AcDbEntity
  8
寸法
 62
     0
 48
50.0
370
    -2
100
AcDbLine
 10
12219.08566646194
 20
9853.062580356716
 30
0.0
 11
12219.08566646194
 21
9753.062580356717
 31
0.0
  0
LINE
  5
193A3
330
18EC1
100
AcDbEntity
  8
寸法
 62
     0
 48
50.0
370
    -2
100
AcDbLine
 10
12219.08566646194
 20
9908.062580356713
 30
0.0
 11
12219.08566646194
 21
10325.03314310519
 31
0.0
  0
LINE
  5
193A4
330
18EC1
100
AcDbEntity
  8
寸法
 62
     0
 48
50.0
370
    -2
100
AcDbLine
 10
12219.08566646194
 20
9853.062580356716
 30
0.0
 11
12219.08566646194
 21
9908.062580356713
 31
0.0
  0
INSERT
  5
193A5
330
18EC1
100
AcDbEntity
  8
寸法
 62
     0
 48
50.0
370
    -2
100
AcDbBlockReference
  2
_DOTSMALL
 10
12219.08566646194
 20
9853.062580356716
 30
0.0
 41
100.0
 42
100.0
 43
100.0
 50
90.0
  0
INSERT
  5
193A6
330
18EC1
100
AcDbEntity
  8
寸法
 62
     0
 48
50.0
370
    -2
100
AcDbBlockReference
  2
_DOTSMALL
 10
12219.08566646194
 20
9908.062580356713
 30
0.0
 41
100.0
 42
100.0
 43
100.0
 50
270.0
  0
MTEXT
  5
193A7
330
18EC1
100
AcDbEntity
  8
寸法
 62
     7
 48
50.0
100
AcDbMText
 10
12119.08566646194
 20
10216.54786173095
 30
0.0
 40
120.0
 41
0.0
 71
     5
 72
     1
  1
\A1;55
  7
STYLE1
 11
0.0000000000000001
 21
1.0
 31
0.0
 73
     1
 44
1.0
1001
ACAD
1000
MTEXTBEGIN
1070
    73
1070
     1
1070
    44
1040
1.0
1070
    74
1070
     0
1000
MTEXTEND
  0
POINT
  5
193A8
330
18EC1
100
AcDbEntity
  8
DEFPOINTS
 62
     0
 48
50.0
100
AcDbPoint
 10
11519.08566646194
 20
9908.062580356713
 30
0.0
  0
POINT
  5
193A9
330
18EC1
100
AcDbEntity
  8
DEFPOINTS
 62
     0
 48
50.0
100
AcDbPoint
 10
11519.08566646194
 20
9853.062580356716
 30
0.0
  0
POINT
  5
193AA
330
18EC1
100
AcDbEntity
  8
DEFPOINTS
 62
     0
 48
50.0
100
AcDbPoint
 10
12219.08566646194
 20
9853.062580356716
 30
0.0
  0
ENDBLK
  5
18ECE
330
18EC1
100
AcDbEntity
  8
0
 48
50.0
100
AcDbBlockEnd
  0
BLOCK
  5
18EF3
330
18EE9
100
AcDbEntity
  8
0
 48
50.0
100
AcDbBlockBegin
  2
*D26
 70
     1
 10
0.0
 20
0.0
 30
0.0
  3
*D26
  1

  0
LINE
  5
19383
330
18EE9
100
AcDbEntity
  8
寸法
 62
     0
 48
50.0
370
    -2
100
AcDbLine
 10
11519.08566646193
 20
4456.705230940356
 30
0.0
 11
11519.08566646193
 21
4895.798400279824
 31
0.0
  0
LINE
  5
19384
330
18EE9
100
AcDbEntity
  8
寸法
 62
     0
 48
50.0
370
    -2
100
AcDbLine
 10
8469.085666461934
 20
4456.705230940357
 30
0.0
 11
8469.085666461934
 21
4895.798400279824
 31
0.0
  0
LINE
  5
19385
330
18EE9
100
AcDbEntity
  8
寸法
 62
     0
 48
50.0
370
    -2
100
AcDbLine
 10
11519.08566646193
 20
4835.798400279823
 30
0.0
 11
8469.085666461934
 21
4835.798400279823
 31
0.0
  0
INSERT
  5
19386
330
18EE9
100
AcDbEntity
  8
寸法
 62
     0
 48
50.0
370
    -2
100
AcDbBlockReference
  2
_DOTSMALL
 10
11519.08566646193
 20
4835.798400279823
 30
0.0
 41
100.0
 42
100.0
 43
100.0
  0
INSERT
  5
19387
330
18EE9
100
AcDbEntity
  8
寸法
 62
     0
 48
50.0
370
    -2
100
AcDbBlockReference
  2
_DOTSMALL
 10
8469.085666461934
 20
4835.798400279823
 30
0.0
 41
100.0
 42
100.0
 43
100.0
 50
180.0
  0
MTEXT
  5
19388
330
18EE9
100
AcDbEntity
  8
寸法
 62
     7
 48
50.0
100
AcDbMText
 10
9994.085666461932
 20
4935.798400279824
 30
0.0
 40
120.0
 41
0.0
 71
     5
 72
     1
  1
\A1;柱外寸法3050
  7
STYLE1
 73
     1
 44
1.0
1001
ACAD
1000
MTEXTBEGIN
1070
    73
1070
     1
1070
    44
1040
1.0
1070
    74
1070
     0
1000
MTEXTEND
  0
POINT
  5
19389
330
18EE9
100
AcDbEntity
  8
DEFPOINTS
 62
     0
 48
50.0
100
AcDbPoint
 10
11519.08566646193
 20
4436.705230940357
 30
0.0
  0
POINT
  5
1938A
330
18EE9
100
AcDbEntity
  8
DEFPOINTS
 62
     0
 48
50.0
100
AcDbPoint
 10
8469.085666461934
 20
4436.705230940358
 30
0.0
  0
POINT
  5
1938B
330
18EE9
100
AcDbEntity
  8
DEFPOINTS
 62
     0
 48
50.0
100
AcDbPoint
 10
8469.085666461934
 20
4835.798400279823
 30
0.0
  0
ENDBLK
  5
18EF4
330
18EE9
100
AcDbEntity
  8
0
 48
50.0
100
AcDbBlockEnd
  0
BLOCK
  5
18EFF
330
18EF5
100
AcDbEntity
  8
0
 48
50.0
100
AcDbBlockBegin
  2
*D27
 70
     1
 10
0.0
 20
0.0
 30
0.0
  3
*D27
  1

  0
LINE
  5
1937A
330
18EF5
100
AcDbEntity
  8
寸法
 62
     0
 48
50.0
370
    -2
100
AcDbLine
 10
8419.085666461933
 20
4456.705230940356
 30
0.0
 11
8419.085666461933
 21
5112.32449989827
 31
0.0
  0
LINE
  5
1937B
330
18EF5
100
AcDbEntity
  8
寸法
 62
     0
 48
50.0
370
    -2
100
AcDbLine
 10
11569.08566646193
 20
4456.705230940354
 30
0.0
 11
11569.08566646193
 21
5112.32449989827
 31
0.0
  0
LINE
  5
1937C
330
18EF5
100
AcDbEntity
  8
寸法
 62
     0
 48
50.0
370
    -2
100
AcDbLine
 10
8419.085666461933
 20
5052.32449989827
 30
0.0
 11
11569.08566646193
 21
5052.32449989827
 31
0.0
  0
INSERT
  5
1937D
330
18EF5
100
AcDbEntity
  8
寸法
 62
     0
 48
50.0
370
    -2
100
AcDbBlockReference
  2
_DOTSMALL
 10
8419.085666461933
 20
5052.32449989827
 30
0.0
 41
100.0
 42
100.0
 43
100.0
 50
180.0
  0
INSERT
  5
1937E
330
18EF5
100
AcDbEntity
  8
寸法
 62
     0
 48
50.0
370
    -2
100
AcDbBlockReference
  2
_DOTSMALL
 10
11569.08566646193
 20
5052.32449989827
 30
0.0
 41
100.0
 42
100.0
 43
100.0
  0
MTEXT
  5
1937F
330
18EF5
100
AcDbEntity
  8
寸法
 62
     7
 48
50.0
100
AcDbMText
 10
9994.085666461932
 20
5152.32449989827
 30
0.0
 40
120.0
 41
0.0
 71
     5
 72
     1
  1
\A1;3150
  7
STYLE1
 73
     1
 44
1.0
1001
ACAD
1000
MTEXTBEGIN
1070
    73
1070
     1
1070
    44
1040
1.0
1070
    74
1070
     0
1000
MTEXTEND
  0
POINT
  5
19380
330
18EF5
100
AcDbEntity
  8
DEFPOINTS
 62
     0
 48
50.0
100
AcDbPoint
 10
8419.085666461933
 20
4436.705230940357
 30
0.0
  0
POINT
  5
19381
330
18EF5
100
AcDbEntity
  8
DEFPOINTS
 62
     0
 48
50.0
100
AcDbPoint
 10
11569.08566646193
 20
4436.705230940354
 30
0.0
  0
POINT
  5
19382
330
18EF5
100
AcDbEntity
  8
DEFPOINTS
 62
     0
 48
50.0
100
AcDbPoint
 10
11569.08566646193
 20
5052.32449989827
 30
0.0
  0
ENDBLK
  5
18F00
330
18EF5
100
AcDbEntity
  8
0
 48
50.0
100
AcDbBlockEnd
  0
BLOCK
  5
18F0D
330
18F01
100
AcDbEntity
  8
0
 48
50.0
100
AcDbBlockBegin
  2
*D28
 70
     1
 10
0.0
 20
0.0
 30
0.0
  3
*D28
  1

  0
LINE
  5
1936F
330
18F01
100
AcDbEntity
  8
寸法
 62
     0
 48
50.0
370
    -2
100
AcDbLine
 10
8469.085666461934
 20
4456.705230940357
 30
0.0
 11
8469.085666461934
 21
4895.798400279825
 31
0.0
  0
LINE
  5
19370
330
18F01
100
AcDbEntity
  8
寸法
 62
     0
 48
50.0
370
    -2
100
AcDbLine
 10
8419.085666461933
 20
4456.705230940356
 30
0.0
 11
8419.085666461933
 21
4895.798400279825
 31
0.0
  0
LINE
  5
19371
330
18F01
100
AcDbEntity
  8
寸法
 62
     0
 48
50.0
370
    -2
100
AcDbLine
 10
8469.085666461934
 20
4835.798400279824
 30
0.0
 11
8569.085666461933
 21
4835.798400279824
 31
0.0
  0
LINE
  5
19372
330
18F01
100
AcDbEntity
  8
寸法
 62
     0
 48
50.0
370
    -2
100
AcDbLine
 10
8419.085666461933
 20
4835.798400279824
 30
0.0
 11
7999.553140993199
 21
4835.798400279824
 31
0.0
  0
LINE
  5
19373
330
18F01
100
AcDbEntity
  8
寸法
 62
     0
 48
50.0
370
    -2
100
AcDbLine
 10
8469.085666461934
 20
4835.798400279824
 30
0.0
 11
8419.085666461933
 21
4835.798400279824
 31
0.0
  0
INSERT
  5
19374
330
18F01
100
AcDbEntity
  8
寸法
 62
     0
 48
50.0
370
    -2
100
AcDbBlockReference
  2
_DOTSMALL
 10
8469.085666461934
 20
4835.798400279824
 30
0.0
 41
100.0
 42
100.0
 43
100.0
 50
180.0
  0
INSERT
  5
19375
330
18F01
100
AcDbEntity
  8
寸法
 62
     0
 48
50.0
370
    -2
100
AcDbBlockReference
  2
_DOTSMALL
 10
8419.085666461933
 20
4835.798400279824
 30
0.0
 41
100.0
 42
100.0
 43
100.0
  0
MTEXT
  5
19376
330
18F01
100
AcDbEntity
  8
寸法
 62
     7
 48
50.0
100
AcDbMText
 10
8105.600385087686
 20
4935.798400279825
 30
0.0
 40
120.0
 41
0.0
 71
     5
 72
     1
  1
\A1;50
  7
STYLE1
 73
     1
 44
1.0
1001
ACAD
1000
MTEXTBEGIN
1070
    73
1070
     1
1070
    44
1040
1.0
1070
    74
1070
     0
1000
MTEXTEND
  0
POINT
  5
19377
330
18F01
100
AcDbEntity
  8
DEFPOINTS
 62
     0
 48
50.0
100
AcDbPoint
 10
8469.085666461934
 20
4436.705230940358
 30
0.0
  0
POINT
  5
19378
330
18F01
100
AcDbEntity
  8
DEFPOINTS
 62
     0
 48
50.0
100
AcDbPoint
 10
8419.085666461933
 20
4436.705230940357
 30
0.0
  0
POINT
  5
19379
330
18F01
100
AcDbEntity
  8
DEFPOINTS
 62
     0
 48
50.0
100
AcDbPoint
 10
8419.085666461933
 20
4835.798400279824
 30
0.0
  0
ENDBLK
  5
18F0E
330
18F01
100
AcDbEntity
  8
0
 48
50.0
100
AcDbBlockEnd
  0
BLOCK
  5
18F1B
330
18F0F
100
AcDbEntity
  8
0
 48
50.0
100
AcDbBlockBegin
  2
*D29
 70
     1
 10
0.0
 20
0.0
 30
0.0
  3
*D29
  1

  0
LINE
  5
19364
330
18F0F
100
AcDbEntity
  8
寸法
 62
     0
 48
50.0
370
    -2
100
AcDbLine
 10
11569.08566646193
 20
4456.705230940354
 30
0.0
 11
11569.08566646193
 21
4895.798400279825
 31
0.0
  0
LINE
  5
19365
330
18F0F
100
AcDbEntity
  8
寸法
 62
     0
 48
50.0
370
    -2
100
AcDbLine
 10
11519.08566646193
 20
4456.705230940356
 30
0.0
 11
11519.08566646193
 21
4895.798400279825
 31
0.0
  0
LINE
  5
19366
330
18F0F
100
AcDbEntity
  8
寸法
 62
     0
 48
50.0
370
    -2
100
AcDbLine
 10
11519.08566646193
 20
4835.798400279824
 30
0.0
 11
11419.08566646193
 21
4835.798400279824
 31
0.0
  0
LINE
  5
19367
330
18F0F
100
AcDbEntity
  8
寸法
 62
     0
 48
50.0
370
    -2
100
AcDbLine
 10
11569.08566646193
 20
4835.798400279824
 30
0.0
 11
11988.61819193065
 21
4835.798400279824
 31
0.0
  0
LINE
  5
19368
330
18F0F
100
AcDbEntity
  8
寸法
 62
     0
 48
50.0
370
    -2
100
AcDbLine
 10
11519.08566646193
 20
4835.798400279824
 30
0.0
 11
11569.08566646193
 21
4835.798400279824
 31
0.0
  0
INSERT
  5
19369
330
18F0F
100
AcDbEntity
  8
寸法
 62
     0
 48
50.0
370
    -2
100
AcDbBlockReference
  2
_DOTSMALL
 10
11519.08566646193
 20
4835.798400279824
 30
0.0
 41
100.0
 42
100.0
 43
100.0
  0
INSERT
  5
1936A
330
18F0F
100
AcDbEntity
  8
寸法
 62
     0
 48
50.0
370
    -2
100
AcDbBlockReference
  2
_DOTSMALL
 10
11569.08566646193
 20
4835.798400279824
 30
0.0
 41
100.0
 42
100.0
 43
100.0
 50
180.0
  0
MTEXT
  5
1936B
330
18F0F
100
AcDbEntity
  8
寸法
 62
     7
 48
50.0
100
AcDbMText
 10
11882.57094783616
 20
4935.798400279825
 30
0.0
 40
120.0
 41
0.0
 71
     5
 72
     1
  1
\A1;50
  7
STYLE1
 73
     1
 44
1.0
1001
ACAD
1000
MTEXTBEGIN
1070
    73
1070
     1
1070
    44
1040
1.0
1070
    74
1070
     0
1000
MTEXTEND
  0
POINT
  5
1936C
330
18F0F
100
AcDbEntity
  8
DEFPOINTS
 62
     0
 48
50.0
100
AcDbPoint
 10
11569.08566646193
 20
4436.705230940354
 30
0.0
  0
POINT
  5
1936D
330
18F0F
100
AcDbEntity
  8
DEFPOINTS
 62
     0
 48
50.0
100
AcDbPoint
 10
11519.08566646193
 20
4436.705230940357
 30
0.0
  0
POINT
  5
1936E
330
18F0F
100
AcDbEntity
  8
DEFPOINTS
 62
     0
 48
50.0
100
AcDbPoint
 10
11519.08566646193
 20
4835.798400279824
 30
0.0
  0
ENDBLK
  5
18F1C
330
18F0F
100
AcDbEntity
  8
0
 48
50.0
100
AcDbBlockEnd
  0
BLOCK
  5
1963E
330
19634
100
AcDbEntity
  8
0
 48
50.0
100
AcDbBlockBegin
  2
*D30
 70
     1
 10
0.0
 20
0.0
 30
0.0
  3
*D30
  1

  0
LINE
  5
19688
330
19634
100
AcDbEntity
  8
寸法
 62
     0
 48
50.0
370
    -2
100
AcDbLine
 10
8956.085666461911
 20
7181.062580356574
 30
0.0
 11
8956.085666461911
 21
6518.751363949879
 31
0.0
  0
LINE
  5
19689
330
19634
100
AcDbEntity
  8
寸法
 62
     0
 48
50.0
370
    -2
100
AcDbLine
 10
10222.08566646191
 20
7181.062580356574
 30
0.0
 11
10222.08566646191
 21
6518.751363949879
 31
0.0
  0
LINE
  5
1968A
330
19634
100
AcDbEntity
  8
寸法
 62
     0
 48
50.0
370
    -2
100
AcDbLine
 10
8976.08566646191
 20
6558.75136394988
 30
0.0
 11
10202.08566646191
 21
6558.75136394988
 31
0.0
  0
INSERT
  5
1968B
330
19634
100
AcDbEntity
  8
寸法
 62
     0
 48
50.0
370
    -2
100
AcDbBlockReference
  2
_DOT
 10
8956.085666461911
 20
6558.75136394988
 30
0.0
 41
20.0
 42
20.0
 43
20.0
 50
180.0
  0
INSERT
  5
1968C
330
19634
100
AcDbEntity
  8
寸法
 62
     0
 48
50.0
370
    -2
100
AcDbBlockReference
  2
_DOT
 10
10222.08566646191
 20
6558.75136394988
 30
0.0
 41
20.0
 42
20.0
 43
20.0
  0
MTEXT
  5
1968D
330
19634
100
AcDbEntity
  8
寸法
 62
     7
 48
50.0
100
AcDbMText
 10
9619.102266410468
 20
6750.763174973501
 30
0.0
 40
120.0
 41
0.0
 71
     5
 72
     1
  1
\A1;有効開口部間口\P1266
  7
STYLE1
 73
     1
 44
1.0
1001
ACAD
1000
MTEXTBEGIN
1070
    73
1070
     1
1070
    44
1040
1.0
1070
    74
1070
     0
1000
MTEXTEND
  0
POINT
  5
1968E
330
19634
100
AcDbEntity
  8
DEFPOINTS
 62
     0
 48
50.0
100
AcDbPoint
 10
8956.085666461911
 20
7201.062580356574
 30
0.0
  0
POINT
  5
1968F
330
19634
100
AcDbEntity
  8
DEFPOINTS
 62
     0
 48
50.0
100
AcDbPoint
 10
10222.08566646191
 20
7201.062580356574
 30
0.0
  0
POINT
  5
19690
330
19634
100
AcDbEntity
  8
DEFPOINTS
 62
     0
 48
50.0
100
AcDbPoint
 10
10222.08566646191
 20
6558.75136394988
 30
0.0
  0
ENDBLK
  5
1963F
330
19634
100
AcDbEntity
  8
0
 48
50.0
100
AcDbBlockEnd
  0
BLOCK
  5
19983
330
19979
100
AcDbEntity
  8
0
 48
50.0
100
AcDbBlockBegin
  2
*D31
 70
     1
 10
0.0
 20
0.0
 30
0.0
  3
*D31
  1

  0
LINE
  5
19AD9
330
19979
100
AcDbEntity
  8
寸法
 62
     0
 48
50.0
370
    -2
100
AcDbLine
 10
8917.085666461909
 20
7183.062580356537
 30
0.0
 11
8917.085666461909
 21
6199.109992491721
 31
0.0
  0
LINE
  5
19ADA
330
19979
100
AcDbEntity
  8
寸法
 62
     0
 48
50.0
370
    -2
100
AcDbLine
 10
11071.08566646191
 20
7183.062580356537
 30
0.0
 11
11071.08566646191
 21
6199.109992491721
 31
0.0
  0
LINE
  5
19ADB
330
19979
100
AcDbEntity
  8
寸法
 62
     0
 48
50.0
370
    -2
100
AcDbLine
 10
8917.085666461909
 20
6259.109992491722
 30
0.0
 11
11071.08566646191
 21
6259.109992491722
 31
0.0
  0
INSERT
  5
19ADC
330
19979
100
AcDbEntity
  8
寸法
 62
     0
 48
50.0
370
    -2
100
AcDbBlockReference
  2
_DOTSMALL
 10
8917.085666461909
 20
6259.109992491722
 30
0.0
 41
100.0
 42
100.0
 43
100.0
 50
180.0
  0
INSERT
  5
19ADD
330
19979
100
AcDbEntity
  8
寸法
 62
     0
 48
50.0
370
    -2
100
AcDbBlockReference
  2
_DOTSMALL
 10
11071.08566646191
 20
6259.109992491722
 30
0.0
 41
100.0
 42
100.0
 43
100.0
  0
MTEXT
  5
19ADE
330
19979
100
AcDbEntity
  8
寸法
 62
     7
 48
50.0
100
AcDbMText
 10
9978.09342227444
 20
6359.121803515343
 30
0.0
 40
120.0
 41
0.0
 71
     5
 72
     1
  1
\A1;2154
  7
STYLE1
 73
     1
 44
1.0
1001
ACAD
1000
MTEXTBEGIN
1070
    73
1070
     1
1070
    44
1040
1.0
1070
    74
1070
     0
1000
MTEXTEND
  0
POINT
  5
19ADF
330
19979
100
AcDbEntity
  8
DEFPOINTS
 62
     0
 48
50.0
100
AcDbPoint
 10
8917.085666461909
 20
7203.062580356537
 30
0.0
  0
POINT
  5
19AE0
330
19979
100
AcDbEntity
  8
DEFPOINTS
 62
     0
 48
50.0
100
AcDbPoint
 10
11071.08566646191
 20
7203.062580356537
 30
0.0
  0
POINT
  5
19AE1
330
19979
100
AcDbEntity
  8
DEFPOINTS
 62
     0
 48
50.0
100
AcDbPoint
 10
11071.08566646191
 20
6259.109992491722
 30
0.0
  0
ENDBLK
  5
19984
330
19979
100
AcDbEntity
  8
0
 48
50.0
100
AcDbBlockEnd
  0
BLOCK
  5
19991
330
19985
100
AcDbEntity
  8
0
 48
50.0
100
AcDbBlockBegin
  2
*D32
 70
     1
 10
0.0
 20
0.0
 30
0.0
  3
*D32
  1

  0
LINE
  5
19AC5
330
19985
100
AcDbEntity
  8
寸法
 62
     0
 48
50.0
370
    -2
100
AcDbLine
 10
8449.085666461936
 20
7278.062580356537
 30
0.0
 11
8134.474420835218
 21
7278.062580356537
 31
0.0
  0
LINE
  5
19AC6
330
19985
100
AcDbEntity
  8
寸法
 62
     0
 48
50.0
370
    -2
100
AcDbLine
 10
8897.08566646191
 20
7203.062580356537
 30
0.0
 11
8134.474420835218
 21
7203.062580356537
 31
0.0
  0
LINE
  5
19AC7
330
19985
100
AcDbEntity
  8
寸法
 62
     0
 48
50.0
370
    -2
100
AcDbLine
 10
8174.474420835219
 20
7298.062580356537
 30
0.0
 11
8174.474420835219
 21
7318.062580356538
 31
0.0
  0
LINE
  5
19AC8
330
19985
100
AcDbEntity
  8
寸法
 62
     0
 48
50.0
370
    -2
100
AcDbLine
 10
8174.474420835219
 20
7183.062580356537
 30
0.0
 11
8174.474420835219
 21
6962.092017608059
 31
0.0
  0
LINE
  5
19AC9
330
19985
100
AcDbEntity
  8
寸法
 62
     0
 48
50.0
370
    -2
100
AcDbLine
 10
8174.474420835219
 20
7278.062580356537
 30
0.0
 11
8174.474420835219
 21
7203.062580356537
 31
0.0
  0
INSERT
  5
19ACA
330
19985
100
AcDbEntity
  8
寸法
 62
     0
 48
50.0
370
    -2
100
AcDbBlockReference
  2
_DOT
 10
8174.474420835219
 20
7278.062580356537
 30
0.0
 41
20.0
 42
20.0
 43
20.0
 50
270.0
  0
INSERT
  5
19ACB
330
19985
100
AcDbEntity
  8
寸法
 62
     0
 48
50.0
370
    -2
100
AcDbBlockReference
  2
_DOT
 10
8174.474420835219
 20
7203.062580356537
 30
0.0
 41
20.0
 42
20.0
 43
20.0
 50
90.0
  0
MTEXT
  5
19ACC
330
19985
100
AcDbEntity
  8
寸法
 62
     7
 48
50.0
100
AcDbMText
 10
8082.474420835216
 20
7062.577298982299
 30
0.0
 40
120.0
 41
0.0
 71
     5
 72
     1
  1
\A1;75
  7
STYLE1
 11
0.0000000000000001
 21
1.0
 31
0.0
 73
     1
 44
1.0
1001
ACAD
1000
MTEXTBEGIN
1070
    73
1070
     1
1070
    44
1040
1.0
1070
    74
1070
     0
1000
MTEXTEND
  0
POINT
  5
19ACD
330
19985
100
AcDbEntity
  8
DEFPOINTS
 62
     0
 48
50.0
100
AcDbPoint
 10
8469.085666461934
 20
7278.062580356537
 30
0.0
  0
POINT
  5
19ACE
330
19985
100
AcDbEntity
  8
DEFPOINTS
 62
     0
 48
50.0
100
AcDbPoint
 10
8917.085666461909
 20
7203.062580356537
 30
0.0
  0
POINT
  5
19ACF
330
19985
100
AcDbEntity
  8
DEFPOINTS
 62
     0
 48
50.0
100
AcDbPoint
 10
8174.474420835219
 20
7203.062580356537
 30
0.0
  0
ENDBLK
  5
19992
330
19985
100
AcDbEntity
  8
0
 48
50.0
100
AcDbBlockEnd
  0
BLOCK
  5
19A11
330
19A07
100
AcDbEntity
  8
0
 48
50.0
100
AcDbBlockBegin
  2
*D33
 70
     1
 10
0.0
 20
0.0
 30
0.0
  3
*D33
  1

  0
LINE
  5
19AB3
330
19A07
100
AcDbEntity
  8
寸法
 62
     0
 48
50.0
370
    -2
100
AcDbLine
 10
8469.085666461934
 20
7258.062580356541
 30
0.0
 11
8469.085666461934
 21
5922.605663994083
 31
0.0
  0
LINE
  5
19AB4
330
19A07
100
AcDbEntity
  8
寸法
 62
     0
 48
50.0
370
    -2
100
AcDbLine
 10
11519.08566646191
 20
7258.062580356704
 30
0.0
 11
11519.08566646191
 21
5922.605663994083
 31
0.0
  0
LINE
  5
19AB5
330
19A07
100
AcDbEntity
  8
寸法
 62
     0
 48
50.0
370
    -2
100
AcDbLine
 10
8469.085666461934
 20
5982.605663994082
 30
0.0
 11
11519.08566646191
 21
5982.605663994082
 31
0.0
  0
INSERT
  5
19AB6
330
19A07
100
AcDbEntity
  8
寸法
 62
     0
 48
50.0
370
    -2
100
AcDbBlockReference
  2
_DOTSMALL
 10
8469.085666461934
 20
5982.605663994082
 30
0.0
 41
100.0
 42
100.0
 43
100.0
 50
180.0
  0
INSERT
  5
19AB7
330
19A07
100
AcDbEntity
  8
寸法
 62
     0
 48
50.0
370
    -2
100
AcDbBlockReference
  2
_DOTSMALL
 10
11519.08566646191
 20
5982.605663994082
 30
0.0
 41
100.0
 42
100.0
 43
100.0
  0
MTEXT
  5
19AB8
330
19A07
100
AcDbEntity
  8
寸法
 62
     7
 48
50.0
100
AcDbMText
 10
9968.031335559382
 20
6082.605663994082
 30
0.0
 40
120.0
 41
0.0
 71
     5
 72
     1
  1
\A1;3050
  7
STYLE1
 73
     1
 44
1.0
1001
ACAD
1000
MTEXTBEGIN
1070
    73
1070
     1
1070
    44
1040
1.0
1070
    74
1070
     0
1000
MTEXTEND
  0
POINT
  5
19AB9
330
19A07
100
AcDbEntity
  8
DEFPOINTS
 62
     0
 48
50.0
100
AcDbPoint
 10
8469.085666461934
 20
7278.062580356541
 30
0.0
  0
POINT
  5
19ABA
330
19A07
100
AcDbEntity
  8
DEFPOINTS
 62
     0
 48
50.0
100
AcDbPoint
 10
11519.08566646191
 20
7278.062580356705
 30
0.0
  0
POINT
  5
19ABB
330
19A07
100
AcDbEntity
  8
DEFPOINTS
 62
     0
 48
50.0
100
AcDbPoint
 10
11519.08566646191
 20
5982.605663994082
 30
0.0
  0
ENDBLK
  5
19A12
330
19A07
100
AcDbEntity
  8
0
 48
50.0
100
AcDbBlockEnd
  0
ENDSEC
  0
SECTION
  2
ENTITIES
  0
LINE
  5
10B57
330
747D
100
AcDbEntity
  8
補助
  6
PHANTOM
 62
   230
 48
50.0
100
AcDbLine
 10
139.9999999999995
 20
11409.6
 30
0.0
 11
16307.2
 21
11409.6
 31
0.0
  0
LINE
  5
10B59
330
747D
100
AcDbEntity
  8
仕様書枠
  6
Continuous
 48
50.0
100
AcDbLine
 10
13107.2
 20
1200.0
 30
0.0
 11
13107.2
 21
-0.0000000000000729
 31
0.0
  0
LINE
  5
10B5C
330
747D
100
AcDbEntity
  8
仕様書枠
 48
50.0
100
AcDbLine
 10
16307.2
 20
1200.0
 30
0.0
 11
16307.2
 21
-0.0000000000000909
 31
0.0
  0
LINE
  5
10B5D
330
747D
100
AcDbEntity
  8
仕様書枠
 48
50.0
100
AcDbLine
 10
140.0
 20
0.0
 30
0.0
 11
16307.2
 21
-0.0000000000000909
 31
0.0
  0
LINE
  5
10B5E
330
747D
100
AcDbEntity
  8
補助
  6
PHANTOM
 62
   230
 48
50.0
100
AcDbLine
 10
16307.2
 20
11409.6
 30
0.0
 11
16307.2
 21
1200.0
 31
0.0
  0
LINE
  5
10B6C
330
747D
100
AcDbEntity
  8
仕様書枠
 48
50.0
100
AcDbLine
 10
13107.2
 20
1200.0
 30
0.0
 11
16307.2
 21
1200.0
 31
0.0
  0
LINE
  5
10B6D
330
747D
100
AcDbEntity
  8
補助
  6
PHANTOM
 62
   230
 48
50.0
100
AcDbLine
 10
13107.2
 20
11409.6
 30
0.0
 11
13107.2
 21
4800.0
 31
0.0
  0
LINE
  5
10B6F
330
747D
100
AcDbEntity
  8
補助
  6
PHANTOM
 62
   230
 48
50.0
100
AcDbLine
 10
13107.2
 20
4800.0
 30
0.0
 11
16307.2
 21
4800.0
 31
0.0
  0
LINE
  5
10B72
330
747D
100
AcDbEntity
  8
文字
 62
     7
 48
50.0
100
AcDbLine
 10
13187.2
 20
400.0
 30
0.0
 11
16227.2
 21
400.0
 31
0.0
  0
TEXT
  5
10B73
330
747D
100
AcDbEntity
  8
文字
 62
     7
 48
50.0
100
AcDbText
 10
13162.9790565769
 20
895.0906074299405
 30
0.0
 40
200.0
  1
外 形 図
  7
STYLE2
100
AcDbText
  0
TEXT
  5
10B74
330
747D
100
AcDbEntity
  8
文字
 62
     7
 48
50.0
100
AcDbText
 10
13201.43669998441
 20
477.2740661031255
 30
0.0
 40
160.0
  1
機種名
  7
STYLE2
100
AcDbText
  0
TEXT
  5
10B76
330
747D
100
AcDbEntity
  8
文字
 62
     7
 48
50.0
100
AcDbText
 10
13209.4053442172
 20
76.09434707649343
 30
0.0
 40
100.0
  1
○床面積 ： 8.19㎡(2.48坪) 　
  7
STYLE2
100
AcDbText
  0
TEXT
  5
10B79
330
747D
100
AcDbEntity
  8
文字
 62
     7
 48
50.0
100
AcDbText
 10
14524.131837222
 20
1031.557706291228
 30
0.0
 40
100.0
  1
NO.32      <縮尺> S=1/40
  7
STYLE2
100
AcDbText
  0
LINE
  5
10B7B
330
747D
100
AcDbEntity
  8
仕様書枠
 48
50.0
100
AcDbLine
 10
13107.2
 20
800.0
 30
0.0
 11
14251.2
 21
800.0
 31
0.0
  0
LINE
  5
10B88
330
747D
100
AcDbEntity
  8
仕様書枠
  6
Continuous
 48
50.0
100
AcDbLine
 10
14251.2
 20
1200.0
 30
0.0
 11
14251.2
 21
800.0
 31
0.0
  0
TEXT
  5
154D3
330
747D
100
AcDbEntity
  8
文字
 62
     7
 48
50.0
100
AcDbText
 10
14643.63059855437
 20
863.0097378581719
 30
0.0
 40
100.0
  1
～一般型・多雪地型～
  7
STYLE2
100
AcDbText
  0
TEXT
  5
18A48
330
747D
100
AcDbEntity
  8
部品1
100
AcDbText
 10
1925.56953716034
 20
1997.812134546253
 30
0.0
 40
125.0
  1
▽G.L
  7
STYLE2
100
AcDbText
  0
TEXT
  5
18A49
330
747D
100
AcDbEntity
  8
部品1
100
AcDbText
 10
4779.699405434072
 20
1079.773438744418
 30
0.0
 40
135.0
  1
側面図
  7
STYLE2
100
AcDbText
  0
LINE
  5
18A4A
330
747D
100
AcDbEntity
  8
部品1
100
AcDbLine
 10
4690.253304010464
 20
1272.666967962941
 30
0.0
 11
4690.253304010464
 21
1032.774646417409
 31
0.0
  0
LINE
  5
18A4B
330
747D
100
AcDbEntity
  8
部品1
100
AcDbLine
 10
4690.253304010464
 20
1032.774646417409
 30
0.0
 11
5453.723970238905
 21
1032.774646417409
 31
0.0
  0
LINE
  5
18A4C
330
747D
100
AcDbEntity
  8
部品1
100
AcDbLine
 10
5453.723970238905
 20
1032.774646417409
 30
0.0
 11
5453.723970238905
 21
1272.666967962941
 31
0.0
  0
LINE
  5
18A4D
330
747D
100
AcDbEntity
  8
部品1
100
AcDbLine
 10
5453.723970238905
 20
1272.666967962941
 30
0.0
 11
4690.253304010464
 21
1272.666967962941
 31
0.0
  0
LINE
  5
18A4E
330
747D
100
AcDbEntity
  8
部品1
100
AcDbLine
 10
6369.488637124685
 20
2061.705230940352
 30
0.0
 11
6376.988637124688
 21
2061.705230940352
 31
0.0
  0
LINE
  5
18A4F
330
747D
100
AcDbEntity
  8
部品1
100
AcDbLine
 10
3746.988637124683
 20
2061.705230940352
 30
0.0
 11
3754.488637124683
 21
2061.705230940352
 31
0.0
  0
LINE
  5
18A50
330
747D
100
AcDbEntity
  8
部品1
100
AcDbLine
 10
3746.988637124683
 20
2061.705230940352
 30
0.0
 11
3754.488637124683
 21
2061.705230940352
 31
0.0
  0
DIMENSION
  5
18A51
330
747D
100
AcDbEntity
  8
寸法
100
AcDbDimension
  2
*D2
 10
3123.335927966386
 20
2111.705230940351
 30
0.0
 11
3123.335927966385
 21
3221.705230940353
 31
0.0
 70
   160
 71
     5
 42
2090.0
  3
INABA_S40G
100
AcDbAlignedDimension
 13
3746.988637124683
 23
4201.70523094035
 33
0.0
 14
3746.988637124683
 24
2111.705230940351
 34
0.0
 50
90.0
100
AcDbRotatedDimension
1001
ACAD
1000
DSTYLE
1002
{
1070
   174
1070
     0
1070
   272
1070
     1
1070
   288
1070
     0
1070
   341
1005
0
1002
}
  0
DIMENSION
  5
18A52
330
747D
100
AcDbEntity
  8
寸法
100
AcDbDimension
  2
*D3
 10
2838.349255195325
 20
4436.705230940355
 30
0.0
 11
2838.349255195324
 21
3221.705230940353
 31
0.0
 70
   160
 71
     5
 42
2375.000000000005
  3
INABA_S40G
100
AcDbAlignedDimension
 13
3746.988637124683
 23
2061.705230940351
 33
0.0
 14
3686.988637124683
 24
4436.705230940355
 34
0.0
 50
90.0
100
AcDbRotatedDimension
1001
ACAD
1000
DSTYLE
1002
{
1070
   174
1070
     0
1070
   272
1070
     1
1070
   288
1070
     0
1070
   341
1005
0
1002
}
  0
DIMENSION
  5
18A53
330
747D
100
AcDbEntity
  8
寸法
100
AcDbDimension
  2
*D4
 10
2838.349255195325
 20
1961.705230940351
 30
0.0
 11
2838.349255195324
 21
1725.657986845857
 31
0.0
 70
   160
 71
     5
 42
100.0000000000002
  3
INABA_S40G
100
AcDbAlignedDimension
 13
3691.988637124683
 23
2061.705230940351
 33
0.0
 14
3123.335927966385
 24
1961.705230940351
 34
0.0
 50
90.0
100
AcDbRotatedDimension
1001
ACAD
1000
DSTYLE
1002
{
1070
   174
1070
     0
1070
   272
1070
     1
1070
   288
1070
     0
1070
   341
1005
0
1002
}
  0
DIMENSION
  5
18A54
330
747D
100
AcDbEntity
  8
寸法
100
AcDbDimension
  2
*D5
 10
3123.335927966386
 20
2061.705230940351
 30
0.0
 11
3123.335927966385
 21
1755.657986845857
 31
0.0
 70
   160
 71
     5
 42
50.0
  3
INABA_S40G
100
AcDbAlignedDimension
 13
3746.988637124683
 23
2111.705230940351
 33
0.0
 14
3691.988637124683
 24
2061.705230940351
 34
0.0
 50
90.0
100
AcDbRotatedDimension
1001
ACAD
1000
DSTYLE
1002
{
1070
   174
1070
     0
1070
   272
1070
     1
1070
   288
1070
     0
1070
   341
1005
0
1002
}
  0
LINE
  5
18A55
330
747D
100
AcDbEntity
  8
破線
  6
HIDDEN
 48
5.0
100
AcDbLine
 10
6384.488637124685
 20
1806.705230940352
 30
0.0
 11
6314.488637124685
 21
1806.705230940352
 31
0.0
  0
LINE
  5
18A56
330
747D
100
AcDbEntity
  8
破線
  6
HIDDEN
 48
5.0
100
AcDbLine
 10
6329.488637124685
 20
1956.705230940352
 30
0.0
 11
6314.488637124685
 21
1809.005230940351
 31
0.0
  0
LINE
  5
18A57
330
747D
100
AcDbEntity
  8
破線
  6
HIDDEN
 48
5.0
100
AcDbLine
 10
6314.488637124685
 20
1809.005230940351
 30
0.0
 11
6314.488637124685
 21
1806.705230940352
 31
0.0
  0
LINE
  5
18A58
330
747D
100
AcDbEntity
  8
破線
  6
HIDDEN
 48
5.0
100
AcDbLine
 10
6369.488637124685
 20
1956.705230940352
 30
0.0
 11
6384.488637124685
 21
1809.005230940351
 31
0.0
  0
LINE
  5
18A59
330
747D
100
AcDbEntity
  8
破線
  6
HIDDEN
 48
5.0
100
AcDbLine
 10
6384.488637124685
 20
1809.005230940351
 30
0.0
 11
6384.488637124685
 21
1806.705230940352
 31
0.0
  0
LINE
  5
18A5A
330
747D
100
AcDbEntity
  8
破線
  6
HIDDEN
 48
5.0
100
AcDbLine
 10
3739.488637124683
 20
1806.705230940352
 30
0.0
 11
3809.488637124683
 21
1806.705230940352
 31
0.0
  0
LINE
  5
18A5B
330
747D
100
AcDbEntity
  8
破線
  6
HIDDEN
 48
5.0
100
AcDbLine
 10
3739.488637124683
 20
1809.005230940351
 30
0.0
 11
3739.488637124683
 21
1806.705230940352
 31
0.0
  0
LINE
  5
18A5C
330
747D
100
AcDbEntity
  8
破線
  6
HIDDEN
 48
5.0
100
AcDbLine
 10
3809.488637124683
 20
1809.005230940351
 30
0.0
 11
3809.488637124683
 21
1806.705230940352
 31
0.0
  0
LINE
  5
18A5D
330
747D
100
AcDbEntity
  8
破線
  6
HIDDEN
 48
5.0
100
AcDbLine
 10
3754.488637124683
 20
1956.705230940352
 30
0.0
 11
3739.488637124683
 21
1809.005230940351
 31
0.0
  0
LINE
  5
18A5E
330
747D
100
AcDbEntity
  8
破線
  6
HIDDEN
 48
5.0
100
AcDbLine
 10
3794.488637124683
 20
1956.705230940352
 30
0.0
 11
3809.488637124683
 21
1809.005230940351
 31
0.0
  0
LINE
  5
18A5F
330
747D
100
AcDbEntity
  8
部品1
 48
50.0
100
AcDbLine
 10
3754.488637124683
 20
2101.705230940352
 30
0.0
 11
3754.488637124683
 21
1961.705230940351
 31
0.0
  0
LINE
  5
18A60
330
747D
100
AcDbEntity
  8
部品1
 48
50.0
100
AcDbLine
 10
3794.488637124683
 20
2101.705230940352
 30
0.0
 11
3794.488637124683
 21
1961.705230940351
 31
0.0
  0
LINE
  5
18A61
330
747D
100
AcDbEntity
  8
部品1
100
AcDbLine
 10
3759.488637124683
 20
2106.705230940352
 30
0.0
 11
3789.488637124684
 21
2106.705230940352
 31
0.0
  0
ARC
  5
18A62
330
747D
100
AcDbEntity
  8
部品1
 48
50.0
100
AcDbCircle
 10
3759.488637124683
 20
2101.705230940352
 30
0.0
 40
5.0
100
AcDbArc
 50
90.0
 51
180.0
  0
ARC
  5
18A63
330
747D
100
AcDbEntity
  8
部品1
 48
50.0
100
AcDbCircle
 10
3789.488637124684
 20
2101.705230940352
 30
0.0
 40
5.0
100
AcDbArc
 50
0.0
 51
90.0
  0
LINE
  5
18A64
330
747D
100
AcDbEntity
  8
部品1
 48
50.0
100
AcDbLine
 10
6329.488637124685
 20
2101.705230940352
 30
0.0
 11
6329.488637124685
 21
1961.705230940351
 31
0.0
  0
LINE
  5
18A65
330
747D
100
AcDbEntity
  8
部品1
 48
50.0
100
AcDbLine
 10
6369.488637124685
 20
2101.705230940352
 30
0.0
 11
6369.488637124685
 21
1961.705230940351
 31
0.0
  0
LINE
  5
18A66
330
747D
100
AcDbEntity
  8
部品1
100
AcDbLine
 10
6364.488637124685
 20
2106.705230940352
 30
0.0
 11
6334.488637124685
 21
2106.705230940352
 31
0.0
  0
ARC
  5
18A67
330
747D
100
AcDbEntity
  8
部品1
 48
50.0
100
AcDbCircle
 10
6334.488637124685
 20
2101.705230940352
 30
0.0
 40
5.0
100
AcDbArc
 50
90.0
 51
180.0
  0
ARC
  5
18A68
330
747D
100
AcDbEntity
  8
部品1
 48
50.0
100
AcDbCircle
 10
6364.488637124685
 20
2101.705230940352
 30
0.0
 40
5.0
100
AcDbArc
 50
0.0
 51
90.0
  0
LINE
  5
18A69
330
747D
100
AcDbEntity
  8
破線
  6
HIDDEN
 48
5.0
100
AcDbLine
 10
6329.488637124685
 20
1961.705230940351
 30
0.0
 11
6329.488637124685
 21
1956.705230940352
 31
0.0
  0
LINE
  5
18A6A
330
747D
100
AcDbEntity
  8
破線
  6
HIDDEN
 48
5.0
100
AcDbLine
 10
6369.488637124685
 20
1961.705230940351
 30
0.0
 11
6369.488637124685
 21
1956.705230940352
 31
0.0
  0
LINE
  5
18A6B
330
747D
100
AcDbEntity
  8
破線
  6
HIDDEN
 48
5.0
100
AcDbLine
 10
3754.488637124691
 20
1961.705230940351
 30
0.0
 11
3754.488637124691
 21
1956.705230940352
 31
0.0
  0
LINE
  5
18A6C
330
747D
100
AcDbEntity
  8
破線
  6
HIDDEN
 48
5.0
100
AcDbLine
 10
3794.488637124683
 20
1961.705230940351
 30
0.0
 11
3794.488637124683
 21
1956.705230940352
 31
0.0
  0
LINE
  5
18A6D
330
747D
100
AcDbEntity
  8
部品1
100
AcDbLine
 10
6369.488637124685
 20
2061.705230940352
 30
0.0
 11
6376.988637124688
 21
2061.705230940352
 31
0.0
  0
DIMENSION
  5
18A6E
330
747D
100
AcDbEntity
  8
寸法
 48
50.0
100
AcDbDimension
  2
*D6
 10
3126.380230356335
 20
4311.050489813681
 30
0.0
 11
3137.045705615259
 21
4681.897153055379
 31
0.0
 70
   161
 71
     5
 42
141.0
  3
INABA_S40G
100
AcDbAlignedDimension
 13
3706.384657283262
 23
4435.42797977503
 33
0.0
 14
3702.331201726636
 24
4294.486256009317
 34
0.0
1001
ACAD
1000
DSTYLE
1002
{
1070
   174
1070
     0
1070
   272
1070
     1
1070
   288
1070
     0
1070
   341
1005
0
1002
}
  0
DIMENSION
  5
18A6F
330
747D
100
AcDbEntity
  8
寸法
 48
50.0
100
AcDbDimension
  2
*D7
 10
3524.988633878049
 20
1961.70523094035
 30
0.0
 11
3524.988633878049
 21
1861.70523094035
 31
0.0
 70
   160
 71
     5
 42
200.0
  3
INABA_S40G
100
AcDbAlignedDimension
 13
3674.488637124691
 23
1761.70523094035
 33
0.0
 14
3649.488637124683
 24
1961.705230940349
 34
0.0
 50
90.0
100
AcDbRotatedDimension
1001
ACAD
1000
DSTYLE
1002
{
1070
   174
1070
     0
1070
   272
1070
     1
1070
   288
1070
     0
1070
   341
1005
0
1002
}
  0
LINE
  5
18A70
330
747D
100
AcDbEntity
  8
破線
 48
5.0
100
AcDbLine
 10
3874.488637124683
 20
1761.705230940348
 30
0.0
 11
3674.488637124691
 21
1761.705230940348
 31
0.0
  0
LINE
  5
18A71
330
747D
100
AcDbEntity
  8
破線
 48
5.0
100
AcDbLine
 10
3874.488637124683
 20
1961.705230940351
 30
0.0
 11
3874.488637124683
 21
1761.705230940348
 31
0.0
  0
LINE
  5
18A72
330
747D
100
AcDbEntity
  8
破線
 48
5.0
100
AcDbLine
 10
3674.488637124683
 20
1961.705230940351
 30
0.0
 11
3674.488637124691
 21
1761.705230940348
 31
0.0
  0
DIMENSION
  5
18A73
330
747D
100
AcDbEntity
  8
寸法
 48
50.0
100
AcDbDimension
  2
*D8
 10
3674.488637124691
 20
1475.657901639972
 30
0.0
 11
3774.488637124687
 21
1475.657901639972
 31
0.0
 70
   160
 71
     5
 42
199.9999999999927
  3
INABA_S40G
100
AcDbAlignedDimension
 13
3874.488637124683
 23
1761.705230940348
 33
0.0
 14
3674.488637124691
 24
1761.70523094035
 34
0.0
100
AcDbRotatedDimension
  0
LINE
  5
18A74
330
747D
100
AcDbEntity
  8
破線
 48
5.0
100
AcDbLine
 10
6449.488637124692
 20
1961.705230940351
 30
0.0
 11
6449.488637124689
 21
1761.705230940348
 31
0.0
  0
LINE
  5
18A75
330
747D
100
AcDbEntity
  8
破線
 48
5.0
100
AcDbLine
 10
6449.488637124689
 20
1761.705230940348
 30
0.0
 11
6249.488637124692
 21
1761.705230940351
 31
0.0
  0
LINE
  5
18A76
330
747D
100
AcDbEntity
  8
破線
 48
5.0
100
AcDbLine
 10
6249.488637124692
 20
1961.705230940351
 30
0.0
 11
6249.488637124692
 21
1761.705230940351
 31
0.0
  0
LINE
  5
18A77
330
747D
100
AcDbEntity
  8
部品1
 48
50.0
100
AcDbLine
 10
6376.988637124688
 20
4196.705230940351
 30
0.0
 11
6453.988637124687
 21
4186.705230940352
 31
0.0
  0
LINE
  5
18A78
330
747D
100
AcDbEntity
  8
部品1
 48
50.0
100
AcDbLine
 10
6453.988637124687
 20
4186.705230940352
 30
0.0
 11
6453.988637124687
 21
1961.705230940351
 31
0.0
  0
LINE
  5
18A79
330
747D
100
AcDbEntity
  8
部品1
 48
50.0
100
AcDbLine
 10
6453.988637124687
 20
2061.705230940352
 30
0.0
 11
6369.488637124689
 21
2061.705230940352
 31
0.0
  0
LINE
  5
18A7A
330
747D
100
AcDbEntity
  8
部品1
100
AcDbLine
 10
6176.988637124685
 20
2061.705230940352
 30
0.0
 11
6176.988637124685
 21
1961.705230940351
 31
0.0
  0
LINE
  5
18A7B
330
747D
100
AcDbEntity
  8
部品1
100
AcDbLine
 10
3946.988637124683
 20
2061.705230940352
 30
0.0
 11
3946.988637124683
 21
1961.705230940351
 31
0.0
  0
LINE
  5
18A7C
330
747D
100
AcDbEntity
  8
細線
 48
50.0
100
AcDbLine
 10
6244.488637124693
 20
4201.705230940351
 30
0.0
 11
6244.488637124693
 21
2111.705230940351
 31
0.0
  0
LINE
  5
18A7D
330
747D
100
AcDbEntity
  8
細線
 48
50.0
100
AcDbLine
 10
6259.488637124692
 20
4201.705230940351
 30
0.0
 11
6259.488637124692
 21
2111.705230940351
 31
0.0
  0
LINE
  5
18A7E
330
747D
100
AcDbEntity
  8
細線
 48
50.0
100
AcDbLine
 10
6119.488637124693
 20
4201.705230940351
 30
0.0
 11
6119.488637124693
 21
2111.705230940351
 31
0.0
  0
LINE
  5
18A7F
330
747D
100
AcDbEntity
  8
細線
 48
50.0
100
AcDbLine
 10
6104.488637124692
 20
4201.705230940351
 30
0.0
 11
6104.488637124692
 21
2111.705230940351
 31
0.0
  0
LINE
  5
18A80
330
747D
100
AcDbEntity
  8
細線
 48
50.0
100
AcDbLine
 10
5964.488637124691
 20
4201.705230940351
 30
0.0
 11
5964.488637124691
 21
2111.705230940351
 31
0.0
  0
LINE
  5
18A81
330
747D
100
AcDbEntity
  8
細線
 48
50.0
100
AcDbLine
 10
5979.488637124692
 20
4201.705230940351
 30
0.0
 11
5979.488637124692
 21
2111.705230940351
 31
0.0
  0
LINE
  5
18A82
330
747D
100
AcDbEntity
  8
部品1
100
AcDbLine
 10
5061.988637124684
 20
4201.705230940351
 30
0.0
 11
5061.988637124684
 21
2111.705230940351
 31
0.0
  0
LINE
  5
18A83
330
747D
100
AcDbEntity
  8
細線
 48
50.0
100
AcDbLine
 10
4719.488637124689
 20
4201.705230940351
 30
0.0
 11
4719.488637124689
 21
2111.705230940351
 31
0.0
  0
LINE
  5
18A84
330
747D
100
AcDbEntity
  8
細線
 48
50.0
100
AcDbLine
 10
4704.488637124688
 20
4201.705230940351
 30
0.0
 11
4704.488637124688
 21
2111.705230940351
 31
0.0
  0
LINE
  5
18A85
330
747D
100
AcDbEntity
  8
細線
 48
50.0
100
AcDbLine
 10
4844.488637124689
 20
4201.705230940351
 30
0.0
 11
4844.488637124689
 21
2111.705230940351
 31
0.0
  0
LINE
  5
18A86
330
747D
100
AcDbEntity
  8
細線
 48
50.0
100
AcDbLine
 10
4859.488637124688
 20
4201.705230940351
 30
0.0
 11
4859.488637124688
 21
2111.705230940351
 31
0.0
  0
LINE
  5
18A87
330
747D
100
AcDbEntity
  8
細線
 48
50.0
100
AcDbLine
 10
4999.488637124688
 20
4201.705230940351
 30
0.0
 11
4999.488637124688
 21
2111.705230940351
 31
0.0
  0
LINE
  5
18A88
330
747D
100
AcDbEntity
  8
細線
 48
50.0
100
AcDbLine
 10
4984.488637124688
 20
4201.705230940351
 30
0.0
 11
4984.488637124688
 21
2111.705230940351
 31
0.0
  0
LINE
  5
18A89
330
747D
100
AcDbEntity
  8
部品1
100
AcDbLine
 10
4641.988637124685
 20
4201.705230940351
 30
0.0
 11
4641.988637124685
 21
2111.705230940351
 31
0.0
  0
DIMENSION
  5
18A8A
330
747D
100
AcDbEntity
  8
寸法
 48
50.0
100
AcDbDimension
  2
*D9
 10
6456.988637124685
 20
4835.362684519657
 30
0.0
 11
6663.035881219176
 21
4835.362684519657
 31
0.0
 70
   160
 71
     5
 42
80.0
  3
INABA_S40G
100
AcDbAlignedDimension
 13
6376.988637124685
 23
4383.515910552006
 33
0.0
 14
6456.988637124685
 24
4381.705230940354
 34
0.0
100
AcDbRotatedDimension
1001
ACAD
1000
DSTYLE
1002
{
1070
   174
1070
     0
1070
   272
1070
     1
1070
   288
1070
     0
1070
   341
1005
0
1002
}
  0
LINE
  5
18A8B
330
747D
100
AcDbEntity
  8
細線
 48
50.0
100
AcDbLine
 10
3879.488637124683
 20
4201.705230940351
 30
0.0
 11
3879.488637124683
 21
2111.705230940351
 31
0.0
  0
LINE
  5
18A8C
330
747D
100
AcDbEntity
  8
細線
 48
50.0
100
AcDbLine
 10
3864.488637124683
 20
4201.705230940351
 30
0.0
 11
3864.488637124683
 21
2111.705230940351
 31
0.0
  0
LINE
  5
18A8D
330
747D
100
AcDbEntity
  8
細線
 48
50.0
100
AcDbLine
 10
4004.488637124683
 20
4201.705230940351
 30
0.0
 11
4004.488637124683
 21
2111.705230940351
 31
0.0
  0
LINE
  5
18A8E
330
747D
100
AcDbEntity
  8
細線
 48
50.0
100
AcDbLine
 10
4019.488637124683
 20
4201.705230940351
 30
0.0
 11
4019.488637124683
 21
2111.705230940351
 31
0.0
  0
LINE
  5
18A8F
330
747D
100
AcDbEntity
  8
細線
 48
50.0
100
AcDbLine
 10
4159.488637124685
 20
4201.705230940351
 30
0.0
 11
4159.488637124685
 21
2111.705230940351
 31
0.0
  0
LINE
  5
18A90
330
747D
100
AcDbEntity
  8
細線
 48
50.0
100
AcDbLine
 10
4144.488637124685
 20
4201.705230940351
 30
0.0
 11
4144.488637124685
 21
2111.705230940351
 31
0.0
  0
LINE
  5
18A91
330
747D
100
AcDbEntity
  8
細線
 48
50.0
100
AcDbLine
 10
4564.488637124685
 20
4201.705230940351
 30
0.0
 11
4564.488637124685
 21
2111.705230940351
 31
0.0
  0
LINE
  5
18A92
330
747D
100
AcDbEntity
  8
細線
 48
50.0
100
AcDbLine
 10
4579.488637124685
 20
4201.705230940351
 30
0.0
 11
4579.488637124685
 21
2111.705230940351
 31
0.0
  0
LINE
  5
18A93
330
747D
100
AcDbEntity
  8
細線
 48
50.0
100
AcDbLine
 10
4439.488637124685
 20
4201.705230940351
 30
0.0
 11
4439.488637124685
 21
2111.705230940351
 31
0.0
  0
LINE
  5
18A94
330
747D
100
AcDbEntity
  8
細線
 48
50.0
100
AcDbLine
 10
4424.488637124684
 20
4201.705230940351
 30
0.0
 11
4424.488637124684
 21
2111.705230940351
 31
0.0
  0
LINE
  5
18A95
330
747D
100
AcDbEntity
  8
細線
 48
50.0
100
AcDbLine
 10
4284.488637124685
 20
4201.705230940351
 30
0.0
 11
4284.488637124685
 21
2111.705230940351
 31
0.0
  0
LINE
  5
18A96
330
747D
100
AcDbEntity
  8
細線
 48
50.0
100
AcDbLine
 10
4299.488637124684
 20
4201.705230940351
 30
0.0
 11
4299.488637124684
 21
2111.705230940351
 31
0.0
  0
LINE
  5
18A97
330
747D
100
AcDbEntity
  8
部品1
100
AcDbLine
 10
3746.988637124683
 20
2061.705230940352
 30
0.0
 11
3754.488637124687
 21
2061.705230940352
 31
0.0
  0
DIMENSION
  5
18A98
330
747D
100
AcDbEntity
  8
寸法
 48
50.0
100
AcDbDimension
  2
*D10
 10
3686.988637124683
 20
5055.573371251274
 30
0.0
 11
5090.347562012061
 21
5055.573371251274
 31
0.0
 70
   160
 71
     5
 42
2770.000000000002
  3
INABA_S40G
100
AcDbAlignedDimension
 13
6456.988637124685
 23
4381.705230940354
 33
0.0
 14
3686.988637124683
 24
4436.705230940356
 34
0.0
100
AcDbRotatedDimension
1001
ACAD
1000
DSTYLE
1002
{
1070
   174
1070
     0
1070
   272
1070
     1
1070
   288
1070
     0
1070
   341
1005
0
1002
}
  0
DIMENSION
  5
18A99
330
747D
100
AcDbEntity
  8
寸法
 48
50.0
100
AcDbDimension
  2
*D11
 10
3686.988637124683
 20
4835.362684519656
 30
0.0
 11
3377.350841849093
 21
4835.362684519656
 31
0.0
 70
   160
 71
     5
 42
60.0
  3
INABA_S40G
100
AcDbAlignedDimension
 13
3746.988637124683
 23
4432.706849063328
 33
0.0
 14
3686.988637124683
 24
4436.705230940356
 34
0.0
100
AcDbRotatedDimension
1001
ACAD
1000
DSTYLE
1002
{
1070
   174
1070
     0
1070
   272
1070
     1
1070
   288
1070
     0
1070
   341
1005
0
1002
}
  0
DIMENSION
  5
18A9A
330
747D
100
AcDbEntity
  8
寸法
 48
50.0
100
AcDbDimension
  2
*D12
 10
3746.988637124683
 20
4835.362684519657
 30
0.0
 11
5101.758828153879
 21
4835.362684519657
 31
0.0
 70
   160
  1
柱外寸法<>
 71
     5
 42
2630.000000000002
  3
INABA_S40G
100
AcDbAlignedDimension
 13
6376.988637124685
 23
4383.515910552006
 33
0.0
 14
3746.988637124683
 24
4432.706849063328
 34
0.0
100
AcDbRotatedDimension
1001
ACAD
1000
DSTYLE
1002
{
1070
   174
1070
     0
1070
   272
1070
     1
1070
   288
1070
     0
1070
   341
1005
0
1002
}
  0
DIMENSION
  5
18A9B
330
747D
100
AcDbEntity
  8
寸法
100
AcDbDimension
  2
*D13
 10
7081.915795096816
 20
4381.705230940354
 30
0.0
 11
6981.903984073195
 21
3221.705230940354
 31
0.0
 70
    32
 71
     5
 42
2320.000000000002
  3
INABA_S40G
100
AcDbAlignedDimension
 13
6453.988637124687
 23
2061.705230940352
 33
0.0
 14
6456.988637124685
 24
4381.705230940354
 34
0.0
 50
90.0
100
AcDbRotatedDimension
1001
ACAD
1000
DSTYLE
1002
{
1070
   174
1070
     0
1070
   272
1070
     1
1070
   288
1070
     0
1070
   341
1005
0
1002
}
  0
LINE
  5
18A9C
330
747D
100
AcDbEntity
  8
部品1
100
AcDbLine
 10
6321.988637124689
 20
4201.705230940351
 30
0.0
 11
6321.988637124689
 21
2111.705230940351
 31
0.0
  0
LINE
  5
18A9D
330
747D
100
AcDbEntity
  8
部品1
100
AcDbLine
 10
6376.988637124683
 20
4256.23950432809
 30
0.0
 11
6376.988637124688
 21
1961.705230940351
 31
0.0
  0
LINE
  5
18A9E
330
747D
100
AcDbEntity
  8
部品1
100
AcDbLine
 10
4221.988637124685
 20
4201.705230940351
 30
0.0
 11
4221.988637124685
 21
2111.705230940351
 31
0.0
  0
LINE
  5
18A9F
330
747D
100
AcDbEntity
  8
部品1
100
AcDbLine
 10
3746.988637124683
 20
4293.5637503826
 30
0.0
 11
3746.988637124683
 21
1961.705230940351
 31
0.0
  0
LINE
  5
18AA0
330
747D
100
AcDbEntity
  8
部品1
100
AcDbLine
 10
3801.988637124683
 20
4201.705230940351
 30
0.0
 11
3801.988637124683
 21
2111.705230940351
 31
0.0
  0
LINE
  5
18AA1
330
747D
100
AcDbEntity
  8
部品1
100
AcDbLine
 10
3746.988637124683
 20
2111.705230940351
 30
0.0
 11
6376.988637124688
 21
2111.705230940351
 31
0.0
  0
LINE
  5
18AA2
330
747D
100
AcDbEntity
  8
部品1
100
AcDbLine
 10
3746.988637124683
 20
4201.705230940351
 30
0.0
 11
6376.988637124685
 21
4201.705230940351
 31
0.0
  0
LINE
  5
18AA3
330
747D
100
AcDbEntity
  8
部品1
100
AcDbLine
 10
5901.988637124684
 20
4201.705230940351
 30
0.0
 11
5901.988637124684
 21
2111.705230940351
 31
0.0
  0
LINE
  5
18AA4
330
747D
100
AcDbEntity
  8
細線
 48
50.0
100
AcDbLine
 10
5404.488637124689
 20
4201.705230940351
 30
0.0
 11
5404.488637124689
 21
2111.705230940351
 31
0.0
  0
LINE
  5
18AA5
330
747D
100
AcDbEntity
  8
細線
 48
50.0
100
AcDbLine
 10
5419.488637124689
 20
4201.705230940351
 30
0.0
 11
5419.488637124689
 21
2111.705230940351
 31
0.0
  0
LINE
  5
18AA6
330
747D
100
AcDbEntity
  8
細線
 48
50.0
100
AcDbLine
 10
5279.488637124689
 20
4201.705230940351
 30
0.0
 11
5279.488637124689
 21
2111.705230940351
 31
0.0
  0
LINE
  5
18AA7
330
747D
100
AcDbEntity
  8
細線
 48
50.0
100
AcDbLine
 10
5264.488637124689
 20
4201.705230940351
 30
0.0
 11
5264.488637124689
 21
2111.705230940351
 31
0.0
  0
LINE
  5
18AA8
330
747D
100
AcDbEntity
  8
細線
 48
50.0
100
AcDbLine
 10
5124.488637124688
 20
4201.705230940351
 30
0.0
 11
5124.488637124688
 21
2111.705230940351
 31
0.0
  0
LINE
  5
18AA9
330
747D
100
AcDbEntity
  8
細線
 48
50.0
100
AcDbLine
 10
5139.488637124689
 20
4201.705230940351
 30
0.0
 11
5139.488637124689
 21
2111.705230940351
 31
0.0
  0
TEXT
  5
18AAA
330
747D
100
AcDbEntity
  8
部品1
 48
50.0
100
AcDbText
 10
5413.569639085779
 20
4458.974323878657
 30
0.0
 40
120.0
  1
37
 50
90.0
  7
STYLE1
100
AcDbText
  0
TEXT
  5
18AAB
330
747D
100
AcDbEntity
  8
部品1
 48
50.0
100
AcDbText
 10
4935.93661642069
 20
4596.47558209694
 30
0.0
 40
120.0
  1
1000
  7
STYLE1
100
AcDbText
  0
LINE
  5
18AAC
330
747D
100
AcDbEntity
  8
部品1
 48
50.0
100
AcDbLine
 10
5247.668781196963
 20
4560.591559944507
 30
0.0
 11
5247.668781196963
 21
4544.39155994451
 31
0.0
  0
LINE
  5
18AAD
330
747D
100
AcDbEntity
  8
部品1
 48
50.0
100
AcDbLine
 10
4947.668781196963
 20
4560.591559944507
 30
0.0
 11
5247.668781196963
 21
4560.591559944507
 31
0.0
  0
LINE
  5
18AAE
330
747D
100
AcDbEntity
  8
部品1
100
AcDbLine
 10
3694.53362348165
 20
4435.422966274618
 30
0.0
 11
6449.600513986152
 21
4380.346028649491
 31
0.0
  0
LINE
  5
18AAF
330
747D
100
AcDbEntity
  8
部品1
100
AcDbLine
 10
3702.331201726636
 20
4294.486256009319
 30
0.0
 11
6431.652337664535
 21
4255.457830775114
 31
0.0
  0
LINE
  5
18AB0
330
747D
100
AcDbEntity
  8
細線
 48
50.0
100
AcDbLine
 10
3719.988637124683
 20
4434.104907315755
 30
0.0
 11
3714.699535569176
 21
4294.019274688402
 31
0.0
  0
LINE
  5
18AB1
330
747D
100
AcDbEntity
  8
細線
 48
50.0
100
AcDbLine
 10
6423.957920318375
 20
4380.858653419822
 30
0.0
 11
6419.24095423669
 21
4255.926437484904
 31
0.0
  0
LINE
  5
18AB2
330
747D
100
AcDbEntity
  8
部品1
 48
50.0
100
AcDbLine
 10
3687.17292303779
 20
4428.298777105045
 30
0.0
 11
3687.553182815602
 21
4408.371812658631
 31
0.0
  0
LINE
  5
18AB3
330
747D
100
AcDbEntity
  8
部品1
 48
50.0
100
AcDbLine
 10
3690.621954921851
 20
4404.79653116516
 30
0.0
 11
3692.325856413212
 21
4315.506034458514
 31
0.0
  0
LINE
  5
18AB4
330
747D
100
AcDbEntity
  8
細線
 48
50.0
100
AcDbLine
 10
3688.028060225501
 20
4407.722312781713
 30
0.0
 11
6453.664044970672
 21
4352.098108140886
 31
0.0
  0
LINE
  5
18AB5
330
747D
100
AcDbEntity
  8
細線
 48
50.0
100
AcDbLine
 10
3692.788535462787
 20
4314.860801083851
 30
0.0
 11
6442.792199893425
 21
4275.051482109357
 31
0.0
  0
LINE
  5
18AB6
330
747D
100
AcDbEntity
  8
部品1
 48
50.0
100
AcDbLine
 10
3695.394628519454
 20
4311.930752965041
 30
0.0
 11
3695.596581139886
 21
4301.347717571949
 31
0.0
  0
ARC
  5
18AB7
330
747D
100
AcDbEntity
  8
部品1
 48
50.0
100
AcDbCircle
 10
3694.171648866134
 20
4428.43233151247
 30
0.0
 40
7.0
100
AcDbArc
 50
87.03587545303909
 51
181.0932240293156
  0
ARC
  5
18AB8
330
747D
100
AcDbEntity
  8
部品1
 48
50.0
100
AcDbCircle
 10
3702.59530696823
 20
4301.481271979377
 30
0.0
 40
7.0
100
AcDbArc
 50
181.0932240293156
 51
267.8377559869492
  0
ARC
  5
18AB9
330
747D
100
AcDbEntity
  8
部品1
100
AcDbCircle
 10
3692.395174593025
 20
4311.873515361858
 30
0.0
 40
3.0
100
AcDbArc
 50
1.093224029315636
 51
80.18775403148891
  0
ARC
  5
18ABA
330
747D
100
AcDbEntity
  8
部品1
100
AcDbCircle
 10
3687.622500995422
 20
4404.739293561977
 30
0.0
 40
3.0
100
AcDbArc
 50
1.093224029315636
 51
80.18775403148891
  0
ARC
  5
18ABB
330
747D
100
AcDbEntity
  8
部品1
100
AcDbCircle
 10
3688.25305539844
 20
4408.385168099376
 30
0.0
 40
0.7
100
AcDbArc
 50
181.0932240292114
 51
260.187754031489
  0
ARC
  5
18ABC
330
747D
100
AcDbEntity
  8
部品1
100
AcDbCircle
 10
3693.02572899605
 20
4315.519389899255
 30
0.0
 40
0.7
100
AcDbArc
 50
181.0932240292114
 51
260.187754031489
  0
LINE
  5
18ABD
330
747D
100
AcDbEntity
  8
部品1
 48
50.0
100
AcDbLine
 10
6456.202539935389
 20
4372.646383214571
 30
0.0
 11
6454.17191874442
 21
4352.701341956792
 31
0.0
  0
LINE
  5
18ABE
330
747D
100
AcDbEntity
  8
部品1
 48
50.0
100
AcDbLine
 10
6450.819352259938
 20
4349.390707883882
 30
0.0
 11
6443.3125729951
 21
4275.658087138868
 31
0.0
  0
LINE
  5
18ABF
330
747D
100
AcDbEntity
  8
部品1
 48
50.0
100
AcDbLine
 10
6439.960006510616
 20
4272.347453065958
 30
0.0
 11
6438.880443470875
 21
4261.743836072399
 31
0.0
  0
ARC
  5
18AC0
330
747D
100
AcDbEntity
  8
部品1
 48
50.0
100
AcDbCircle
 10
6449.238539370634
 20
4373.355393887345
 30
0.0
 40
7.0
100
AcDbArc
 50
354.1866997664495
 51
87.03587545303909
  0
ARC
  5
18AC1
330
747D
100
AcDbEntity
  8
部品1
 48
50.0
100
AcDbCircle
 10
6431.916442906119
 20
4262.452846745173
 30
0.0
 40
7.0
100
AcDbArc
 50
267.8377559869492
 51
354.1866997664495
  0
ARC
  5
18AC2
330
747D
100
AcDbEntity
  8
部品1
100
AcDbCircle
 10
6442.944578181223
 20
4272.043591349055
 30
0.0
 40
3.0
100
AcDbArc
 50
95.0921697642102
 51
174.1866997664495
  0
ARC
  5
18AC3
330
747D
100
AcDbEntity
  8
部品1
100
AcDbCircle
 10
6453.803923930549
 20
4349.086846166978
 30
0.0
 40
3.0
100
AcDbArc
 50
95.09216976441781
 51
174.1866997664495
  0
ARC
  5
18AC4
330
747D
100
AcDbEntity
  8
部品1
100
AcDbCircle
 10
6453.475518687946
 20
4352.772243024069
 30
0.0
 40
0.7
100
AcDbArc
 50
275.0921697642102
 51
354.1866997664495
  0
ARC
  5
18AC5
330
747D
100
AcDbEntity
  8
部品1
100
AcDbCircle
 10
6442.616172938627
 20
4275.728988206145
 30
0.0
 40
0.7
100
AcDbArc
 50
275.0921697642102
 51
354.1866997666569
  0
LINE
  5
18AC6
330
747D
100
AcDbEntity
  8
部品1
100
AcDbLine
 10
4922.213767553925
 20
4561.90961890337
 30
0.0
 11
5247.668781196963
 21
4544.39155994451
 31
0.0
  0
LINE
  5
18AC7
330
747D
100
AcDbEntity
  8
部品1
100
AcDbLine
 10
5481.988637124681
 20
4201.705230940353
 30
0.0
 11
5481.988637124681
 21
2111.705230940353
 31
0.0
  0
LINE
  5
18AC8
330
747D
100
AcDbEntity
  8
細線
 48
50.0
100
AcDbLine
 10
5559.488637124688
 20
4201.705230940353
 30
0.0
 11
5559.488637124688
 21
2111.705230940353
 31
0.0
  0
LINE
  5
18AC9
330
747D
100
AcDbEntity
  8
細線
 48
50.0
100
AcDbLine
 10
5544.488637124689
 20
4201.705230940353
 30
0.0
 11
5544.488637124689
 21
2111.705230940353
 31
0.0
  0
LINE
  5
18ACA
330
747D
100
AcDbEntity
  8
細線
 48
50.0
100
AcDbLine
 10
5684.488637124688
 20
4201.705230940353
 30
0.0
 11
5684.488637124688
 21
2111.705230940353
 31
0.0
  0
LINE
  5
18ACB
330
747D
100
AcDbEntity
  8
細線
 48
50.0
100
AcDbLine
 10
5699.488637124688
 20
4201.705230940353
 30
0.0
 11
5699.488637124688
 21
2111.705230940353
 31
0.0
  0
LINE
  5
18ACC
330
747D
100
AcDbEntity
  8
細線
 48
50.0
100
AcDbLine
 10
5839.488637124688
 20
4201.705230940353
 30
0.0
 11
5839.488637124688
 21
2111.705230940353
 31
0.0
  0
LINE
  5
18ACD
330
747D
100
AcDbEntity
  8
細線
 48
50.0
100
AcDbLine
 10
5824.488637124688
 20
4201.705230940353
 30
0.0
 11
5824.488637124688
 21
2111.705230940353
 31
0.0
  0
LINE
  5
18ACE
330
747D
100
AcDbEntity
  8
部品1
100
AcDbLine
 10
6369.488637124685
 20
2061.705230940352
 30
0.0
 11
6376.988637124688
 21
2061.705230940352
 31
0.0
  0
LINE
  5
18ACF
330
747D
100
AcDbEntity
  8
部品1
100
AcDbLine
 10
3794.488637124687
 20
2061.705230940352
 30
0.0
 11
6329.488637124685
 21
2061.705230940352
 31
0.0
  0
LINE
  5
18AD0
330
747D
100
AcDbEntity
  8
部品1
 48
50.0
100
AcDbLine
 10
5576.988637124687
 20
2061.705230940352
 30
0.0
 11
5576.988637124687
 21
1961.705230940351
 31
0.0
  0
LINE
  5
18AD1
330
747D
100
AcDbEntity
  8
部品1
 48
50.0
100
AcDbLine
 10
5376.988637124687
 20
2061.705230940352
 30
0.0
 11
5376.988637124687
 21
1961.705230940351
 31
0.0
  0
LINE
  5
18AD2
330
747D
100
AcDbEntity
  8
部品1
 48
50.0
100
AcDbLine
 10
4746.988637124686
 20
2061.705230940352
 30
0.0
 11
4746.988637124686
 21
1961.705230940351
 31
0.0
  0
LINE
  5
18AD3
330
747D
100
AcDbEntity
  8
部品1
 48
50.0
100
AcDbLine
 10
4546.988637124687
 20
2061.705230940352
 30
0.0
 11
4546.988637124687
 21
1961.705230940351
 31
0.0
  0
LINE
  5
18AD4
330
747D
100
AcDbEntity
  8
部品1
100
AcDbLine
 10
11491.08566646194
 20
8593.062580356717
 30
0.0
 11
11519.08566646194
 21
8593.062580356717
 31
0.0
  0
LINE
  5
18AD5
330
747D
100
AcDbEntity
  8
部品1
100
AcDbLine
 10
8497.085666461915
 20
8593.062580356589
 30
0.0
 11
8469.085666461914
 21
8593.062580356589
 31
0.0
  0
LINE
  5
18AD6
330
747D
100
AcDbEntity
  8
部品1
100
AcDbLine
 10
11462.58566646192
 20
8593.062580356686
 30
0.0
 11
8525.585666461926
 21
8593.062580356589
 31
0.0
  0
DIMENSION
  5
18AD7
330
747D
100
AcDbEntity
  8
寸法
 48
50.0
100
AcDbDimension
  2
*D14
 10
8359.085666461931
 20
1475.657901639974
 30
0.0
 11
8459.08566646193
 21
1475.657901639974
 31
0.0
 70
   160
 71
     5
 42
200.0000000000018
  3
INABA_S40G
100
AcDbAlignedDimension
 13
8559.085666461934
 23
1761.705230940351
 33
0.0
 14
8359.085666461931
 24
1761.705230940351
 34
0.0
100
AcDbRotatedDimension
  0
LINE
  5
18AD8
330
747D
100
AcDbEntity
  8
部品1
100
AcDbLine
 10
11491.08566646194
 20
7753.062580356716
 30
0.0
 11
11519.08566646194
 21
7753.062580356716
 31
0.0
  0
LINE
  5
18AD9
330
747D
100
AcDbEntity
  8
部品1
100
AcDbLine
 10
8497.085666461915
 20
7753.06258035659
 30
0.0
 11
8469.085666461914
 21
7753.06258035659
 31
0.0
  0
LINE
  5
18ADA
330
747D
100
AcDbEntity
  8
部品1
100
AcDbLine
 10
11462.58566646192
 20
7753.062580356687
 30
0.0
 11
8525.585666461926
 21
7753.06258035659
 31
0.0
  0
LINE
  5
18ADB
330
747D
100
AcDbEntity
  8
Ｇ．Ｌ
100
AcDbLine
 10
1836.22270853959
 20
1961.705230940351
 30
0.0
 11
12142.39821949077
 21
1961.705230940351
 31
0.0
  0
TEXT
  5
18ADC
330
747D
100
AcDbEntity
  8
部品1
100
AcDbText
 10
9702.875737085669
 20
1079.773438744418
 30
0.0
 40
135.0
  1
正面図
  7
STYLE2
100
AcDbText
  0
LINE
  5
18AE2
330
747D
100
AcDbEntity
  8
部品1
100
AcDbLine
 10
9612.350333347713
 20
1272.666967962941
 30
0.0
 11
9612.350333347713
 21
1032.774646417409
 31
0.0
  0
LINE
  5
18AE3
330
747D
100
AcDbEntity
  8
部品1
100
AcDbLine
 10
9612.350333347713
 20
1032.774646417409
 30
0.0
 11
10375.82099957615
 21
1032.774646417409
 31
0.0
  0
LINE
  5
18AE4
330
747D
100
AcDbEntity
  8
部品1
100
AcDbLine
 10
10375.82099957615
 20
1032.774646417409
 30
0.0
 11
10375.82099957615
 21
1272.666967962941
 31
0.0
  0
LINE
  5
18AE5
330
747D
100
AcDbEntity
  8
部品1
100
AcDbLine
 10
10375.82099957615
 20
1272.666967962941
 30
0.0
 11
9612.350333347713
 21
1272.666967962941
 31
0.0
  0
DIMENSION
  5
18AE6
330
747D
100
AcDbEntity
  8
寸法
 48
50.0
100
AcDbDimension
  2
*D15
 10
8157.907787245459
 20
2119.705230940352
 30
0.0
 11
8157.907787245459
 21
3099.112021552468
 31
0.0
 70
   160
  1
有効開口部高サ<>
 71
     5
 42
2024.999999999999
  3
INABA_S40G
100
AcDbAlignedDimension
 13
8917.085666461934
 23
4144.705230940351
 33
0.0
 14
8917.085666461934
 24
2119.705230940352
 34
0.0
 50
90.0
100
AcDbRotatedDimension
  0
LINE
  5
18AE7
330
747D
100
AcDbEntity
  8
部品1
100
AcDbLine
 10
8469.085666461932
 20
4201.705230940351
 30
0.0
 11
11519.08566646193
 21
4201.705230940351
 31
0.0
  0
LINE
  5
18AE8
330
747D
100
AcDbEntity
  8
部品1
 48
50.0
100
AcDbLine
 10
8497.085666461932
 20
2061.705230940352
 30
0.0
 11
11071.08566646193
 21
2061.705230940352
 31
0.0
  0
LINE
  5
18AE9
330
747D
100
AcDbEntity
  8
部品1
100
AcDbLine
 10
8469.085666461932
 20
4201.705230940351
 30
0.0
 11
11519.08566646193
 21
4201.705230940351
 31
0.0
  0
LINE
  5
18AEA
330
747D
100
AcDbEntity
  8
部品1
100
AcDbLine
 10
8469.085666461932
 20
2061.705230940352
 30
0.0
 11
11519.08566646193
 21
2061.705230940352
 31
0.0
  0
LINE
  5
18AEB
330
747D
100
AcDbEntity
  8
部品1
 48
50.0
100
AcDbLine
 10
8524.085666461933
 20
2111.705230940372
 30
0.0
 11
8524.085666461933
 21
4201.705230940351
 31
0.0
  0
LINE
  5
18AEC
330
747D
100
AcDbEntity
  8
部品1
100
AcDbLine
 10
8469.085666461932
 20
4255.205230940351
 30
0.0
 11
8469.085666461932
 21
1961.705230940351
 31
0.0
  0
LINE
  5
18AED
330
747D
100
AcDbEntity
  8
部品1
100
AcDbLine
 10
8464.085666461931
 20
2106.705230940354
 30
0.0
 11
8464.085666461931
 21
1961.705230940351
 31
0.0
  0
LINE
  5
18AEE
330
747D
100
AcDbEntity
  8
破線
 48
5.0
100
AcDbLine
 10
8464.085666461931
 20
1961.705230940351
 30
0.0
 11
8464.085666461931
 21
1806.705230940352
 31
0.0
  0
LINE
  5
18AEF
330
747D
100
AcDbEntity
  8
破線
 48
5.0
100
AcDbLine
 10
8444.085666461932
 20
1806.705230940352
 30
0.0
 11
8464.085666461933
 21
1806.705230940352
 31
0.0
  0
LINE
  5
18AF0
330
747D
100
AcDbEntity
  8
部品1
100
AcDbLine
 10
8869.085666461932
 20
2061.705230940352
 30
0.0
 11
8869.085666461932
 21
1961.705230940351
 31
0.0
  0
LINE
  5
18AF1
330
747D
100
AcDbEntity
  8
部品1
100
AcDbLine
 10
8469.085666461932
 20
2111.705230940372
 30
0.0
 11
8917.085666461934
 21
2111.705230940372
 31
0.0
  0
LINE
  5
18AF2
330
747D
100
AcDbEntity
  8
部品1
 48
50.0
100
AcDbLine
 10
9167.085666461932
 20
2061.705230940352
 30
0.0
 11
9167.085666461932
 21
1961.705230940351
 31
0.0
  0
LINE
  5
18AF3
330
747D
100
AcDbEntity
  8
部品1
 48
50.0
100
AcDbLine
 10
9367.085666461932
 20
2061.705230940352
 30
0.0
 11
9367.085666461932
 21
1961.705230940351
 31
0.0
  0
LINE
  5
18AF4
330
747D
100
AcDbEntity
  8
部品1
 48
50.0
100
AcDbLine
 10
9894.085666461933
 20
2061.705230940352
 30
0.0
 11
9894.085666461933
 21
1961.705230940351
 31
0.0
  0
LINE
  5
18AF5
330
747D
100
AcDbEntity
  8
部品1
 48
50.0
100
AcDbLine
 10
10094.08566646193
 20
2061.705230940352
 30
0.0
 11
10094.08566646193
 21
1961.705230940351
 31
0.0
  0
LINE
  5
18AF6
330
747D
100
AcDbEntity
  8
部品1
100
AcDbLine
 10
11119.08566646193
 20
2061.705230940352
 30
0.0
 11
11119.08566646193
 21
1961.705230940351
 31
0.0
  0
LINE
  5
18AF7
330
747D
100
AcDbEntity
  8
部品1
100
AcDbLine
 10
11519.08566646193
 20
4255.205230940351
 30
0.0
 11
11519.08566646193
 21
1961.705230940351
 31
0.0
  0
LINE
  5
18AF8
330
747D
100
AcDbEntity
  8
部品1
100
AcDbLine
 10
11524.08566646193
 20
2106.705230940352
 30
0.0
 11
11524.08566646193
 21
1961.705230940351
 31
0.0
  0
LINE
  5
18AF9
330
747D
100
AcDbEntity
  8
破線
 48
5.0
100
AcDbLine
 10
11524.08566646193
 20
1961.705230940351
 30
0.0
 11
11524.08566646193
 21
1806.705230940352
 31
0.0
  0
LINE
  5
18AFA
330
747D
100
AcDbEntity
  8
破線
 48
5.0
100
AcDbLine
 10
11544.08566646193
 20
1806.705230940352
 30
0.0
 11
11524.08566646193
 21
1806.705230940352
 31
0.0
  0
LINE
  5
18AFB
330
747D
100
AcDbEntity
  8
部品1
100
AcDbLine
 10
11071.08566646193
 20
2111.705230940372
 30
0.0
 11
11519.08566646193
 21
2111.705230940372
 31
0.0
  0
LINE
  5
18AFC
330
747D
100
AcDbEntity
  8
部品1
100
AcDbLine
 10
11464.08566646194
 20
4201.705230940351
 30
0.0
 11
11464.08566646193
 21
2111.705230940372
 31
0.0
  0
LINE
  5
18AFD
330
747D
100
AcDbEntity
  8
部品1
 48
50.0
100
AcDbLine
 10
10821.08566646193
 20
2061.705230940352
 30
0.0
 11
10821.08566646193
 21
1961.705230940351
 31
0.0
  0
LINE
  5
18AFE
330
747D
100
AcDbEntity
  8
部品1
 48
50.0
100
AcDbLine
 10
10621.08566646193
 20
2061.705230940352
 30
0.0
 11
10621.08566646193
 21
1961.705230940351
 31
0.0
  0
LINE
  5
18AFF
330
747D
100
AcDbEntity
  8
部品1
100
AcDbLine
 10
8497.08566646194
 20
9880.062580356618
 30
0.0
 11
9469.085666461941
 21
9880.062580356621
 31
0.0
  0
LINE
  5
18B00
330
747D
100
AcDbEntity
  8
細線
 48
50.0
100
AcDbLine
 10
9980.585666461941
 20
9428.062580356723
 30
0.0
 11
8497.585666461871
 21
9878.062580356665
 31
0.0
  0
LINE
  5
18B01
330
747D
100
AcDbEntity
  8
細線
 48
50.0
100
AcDbLine
 10
9980.585666461941
 20
9878.06258035672
 30
0.0
 11
8497.585666461871
 21
9428.062580356664
 31
0.0
  0
LINE
  5
18B02
330
747D
100
AcDbEntity
  8
部品1
100
AcDbLine
 10
8524.085666461941
 20
9880.062580356735
 30
0.0
 11
9981.58566646194
 21
9880.062580356735
 31
0.0
  0
LINE
  5
18B03
330
747D
100
AcDbEntity
  8
部品1
100
AcDbLine
 10
8497.585666461871
 20
9878.062580356665
 30
0.0
 11
9980.585666461941
 21
9878.062580356724
 31
0.0
  0
LINE
  5
18B04
330
747D
100
AcDbEntity
  8
部品1
100
AcDbLine
 10
8497.585666461871
 20
9428.062580356664
 30
0.0
 11
9980.585666461941
 21
9428.062580356723
 31
0.0
  0
LINE
  5
18B05
330
747D
100
AcDbEntity
  8
部品1
100
AcDbLine
 10
8944.085666461912
 20
7278.062580356574
 30
0.0
 11
8469.085666461934
 21
7278.062580356574
 31
0.0
  0
LINE
  5
18B06
330
747D
100
AcDbEntity
  8
破線
 48
10.0
100
AcDbLine
 10
9241.585666461919
 20
7358.062580356575
 30
0.0
 11
8549.085666461927
 21
7358.062580356585
 31
0.0
  0
DIMENSION
  5
18B07
330
747D
100
AcDbEntity
  8
寸法
100
AcDbDimension
  2
*D16
 10
9909.655660143268
 20
9163.348192994275
 30
0.0
 11
9057.271217292656
 21
9163.348192994275
 31
0.0
 70
   160
 71
     5
 42
1483.000000000071
  3
INABA_S40G
100
AcDbAlignedDimension
 13
8497.585666461864
 23
9428.06258035673
 33
0.0
 14
9980.585666461935
 24
9428.062580356723
 34
0.0
100
AcDbRotatedDimension
1001
ACAD
1000
DSTYLE
1002
{
1002
}
  0
DIMENSION
  5
18B08
330
747D
100
AcDbEntity
  8
寸法
100
AcDbDimension
  2
*D17
 10
11464.08566646194
 20
10408.06258035666
 30
0.0
 11
9994.085666461941
 21
10408.06258035666
 31
0.0
 70
   160
  1
7X420=<>
 71
     5
 42
2940.000000000002
  3
INABA_S40G
100
AcDbAlignedDimension
 13
8524.085666461941
 23
9908.062580356618
 33
0.0
 14
11464.08566646194
 24
9908.062580356713
 34
0.0
100
AcDbRotatedDimension
1001
ACAD
1000
DSTYLE
1002
{
1002
}
  0
LINE
  5
18B09
330
747D
100
AcDbEntity
  8
部品1
100
AcDbLine
 10
11462.58566646194
 20
7334.562580356706
 30
0.0
 11
8525.585666461834
 21
7334.562580356585
 31
0.0
  0
LINE
  5
18B0A
330
747D
100
AcDbEntity
  8
部品1
100
AcDbLine
 10
8469.085666461941
 20
9908.062580356618
 30
0.0
 11
11519.08566646194
 21
9908.062580356713
 31
0.0
  0
LINE
  5
18B0C
330
747D
100
AcDbEntity
  8
部品1
100
AcDbLine
 10
11462.58566646192
 20
9013.062580356686
 30
0.0
 11
8525.585666461926
 21
9013.062580356589
 31
0.0
  0
LINE
  5
18B0D
330
747D
100
AcDbEntity
  8
部品1
 48
50.0
100
AcDbLine
 10
8497.085666461938
 20
7306.062580356687
 30
0.0
 11
11491.08566646196
 21
7306.062580356691
 31
0.0
  0
LINE
  5
18B0E
330
747D
100
AcDbEntity
  8
破線
 48
10.0
100
AcDbLine
 10
8549.085666461918
 20
9428.062580356716
 30
0.0
 11
8549.08566646193
 21
7358.062580356585
 31
0.0
  0
LINE
  5
18B0F
330
747D
100
AcDbEntity
  8
部品1
100
AcDbLine
 10
8497.085666461915
 20
7306.062580356665
 30
0.0
 11
8497.085666461932
 21
9433.062580356589
 31
0.0
  0
LINE
  5
18B10
330
747D
100
AcDbEntity
  8
部品1
100
AcDbLine
 10
8469.085666461907
 20
9908.062580356585
 30
0.0
 11
8469.085666461934
 21
7278.062580356574
 31
0.0
  0
LINE
  5
18B11
330
747D
100
AcDbEntity
  8
部品1
100
AcDbLine
 10
8525.585666461919
 20
9428.062580356664
 30
0.0
 11
8525.58566646193
 21
7334.56258035668
 31
0.0
  0
LINE
  5
18B12
330
747D
100
AcDbEntity
  8
部品1
100
AcDbLine
 10
8497.085666461932
 20
7333.062580356589
 30
0.0
 11
8469.085666461934
 21
7333.062580356589
 31
0.0
  0
LINE
  5
18B13
330
747D
100
AcDbEntity
  8
部品1
100
AcDbLine
 10
8497.085666461918
 20
7333.062580356575
 30
0.0
 11
8469.085666461934
 21
7333.062580356575
 31
0.0
  0
LINE
  5
18B14
330
747D
100
AcDbEntity
  8
部品1
100
AcDbLine
 10
8497.085666461918
 20
7333.062580356538
 30
0.0
 11
8469.085666461934
 21
7333.062580356538
 31
0.0
  0
LINE
  5
18B15
330
747D
100
AcDbEntity
  8
部品1
100
AcDbLine
 10
8469.085666461934
 20
7333.062580356538
 30
0.0
 11
8469.085666461934
 21
7278.062580356541
 31
0.0
  0
LINE
  5
18B16
330
747D
100
AcDbEntity
  8
部品1
 48
50.0
100
AcDbLine
 10
8525.58566646193
 20
7334.56258035668
 30
0.0
 11
8497.085666461932
 21
7306.062580356684
 31
0.0
  0
LINE
  5
18B17
330
747D
100
AcDbEntity
  8
部品1
100
AcDbLine
 10
8524.08566646191
 20
7278.062580356706
 30
0.0
 11
8524.08566646191
 21
7306.062580356705
 31
0.0
  0
LINE
  5
18B18
330
747D
100
AcDbEntity
  8
部品1
 48
50.0
100
AcDbLine
 10
8497.585666461871
 20
9878.06258035672
 30
0.0
 11
8497.585666461871
 21
9428.062580356723
 31
0.0
  0
LINE
  5
18B19
330
747D
100
AcDbEntity
  8
部品1
100
AcDbLine
 10
8497.085666461932
 20
9427.562580356589
 30
0.0
 11
8497.08566646194
 21
9880.062580356618
 31
0.0
  0
LINE
  5
18B1A
330
747D
100
AcDbEntity
  8
部品1
100
AcDbLine
 10
8497.085666461915
 20
9013.062580356589
 30
0.0
 11
8469.085666461914
 21
9013.062580356589
 31
0.0
  0
LINE
  5
18B1B
330
747D
100
AcDbEntity
  8
部品1
100
AcDbLine
 10
8497.085666461915
 20
9433.062580356589
 30
0.0
 11
8469.085666461914
 21
9433.062580356589
 31
0.0
  0
DIMENSION
  5
18B1C
330
747D
100
AcDbEntity
  8
寸法
100
AcDbDimension
  2
*D18
 10
8524.085666461941
 20
10408.06258035662
 30
0.0
 11
8160.600385087667
 21
10408.06258035662
 31
0.0
 70
   160
 71
     5
 42
55.00000000003274
  3
INABA_S40G
100
AcDbAlignedDimension
 13
8469.085666461907
 23
9908.062580356618
 33
0.0
 14
8524.085666461941
 24
9908.062580356618
 34
0.0
100
AcDbRotatedDimension
1001
ACAD
1000
DSTYLE
1002
{
1002
}
  0
LINE
  5
18B1D
330
747D
100
AcDbEntity
  8
部品1
100
AcDbLine
 10
8497.085666461908
 20
9853.06258035659
 30
0.0
 11
8469.085666461907
 21
9853.06258035659
 31
0.0
  0
LINE
  5
18B1E
330
747D
100
AcDbEntity
  8
部品1
100
AcDbLine
 10
8524.085666461941
 20
9908.062580356618
 30
0.0
 11
8524.085666461941
 21
9880.062580356618
 31
0.0
  0
LINE
  5
18B1F
330
747D
100
AcDbEntity
  8
部品1
100
AcDbLine
 10
8524.085666461907
 20
9908.062580356585
 30
0.0
 11
8524.085666461907
 21
9880.062580356586
 31
0.0
  0
LINE
  5
18B20
330
747D
100
AcDbEntity
  8
部品1
100
AcDbLine
 10
11519.08566646191
 20
7278.062580356706
 30
0.0
 11
11044.08566646194
 21
7278.06258035669
 31
0.0
  0
LINE
  5
18B21
330
747D
100
AcDbEntity
  8
破線
 48
10.0
100
AcDbLine
 10
11439.08566646194
 20
7358.062580356701
 30
0.0
 11
10746.58566646191
 21
7358.062580356643
 31
0.0
  0
DIMENSION
  5
18B22
330
747D
100
AcDbEntity
  8
寸法
100
AcDbDimension
  2
*D19
 10
11419.65566014326
 20
9163.348192994275
 30
0.0
 11
10519.14937745999
 21
9163.348192994275
 31
0.0
 70
   160
 71
     5
 42
1483.000000000013
  3
INABA_S40G
100
AcDbAlignedDimension
 13
10007.58566646193
 23
9428.062580356789
 33
0.0
 14
11490.58566646194
 24
9428.062580356781
 34
0.0
100
AcDbRotatedDimension
1001
ACAD
1000
DSTYLE
1002
{
1002
}
  0
LINE
  5
18B23
330
747D
100
AcDbEntity
  8
細線
 48
50.0
100
AcDbLine
 10
11490.58566646194
 20
9878.062580356713
 30
0.0
 11
10007.58566646194
 21
9428.062580356723
 31
0.0
  0
LINE
  5
18B24
330
747D
100
AcDbEntity
  8
部品1
100
AcDbLine
 10
10007.58566646194
 20
9878.06258035672
 30
0.0
 11
11490.58566646194
 21
9878.062580356713
 31
0.0
  0
LINE
  5
18B25
330
747D
100
AcDbEntity
  8
部品1
100
AcDbLine
 10
10007.58566646194
 20
9428.062580356723
 30
0.0
 11
11490.58566646194
 21
9428.062580356716
 31
0.0
  0
LINE
  5
18B26
330
747D
100
AcDbEntity
  8
細線
 48
50.0
100
AcDbLine
 10
11490.58566646194
 20
9428.062580356716
 30
0.0
 11
10007.58566646194
 21
9878.062580356717
 31
0.0
  0
LINE
  5
18B27
330
747D
100
AcDbEntity
  8
部品1
100
AcDbLine
 10
10006.58566646194
 20
9880.062580356732
 30
0.0
 11
11491.08566646194
 21
9880.062580356714
 31
0.0
  0
LINE
  5
18B28
330
747D
100
AcDbEntity
  8
破線
 48
10.0
100
AcDbLine
 10
9969.08566646192
 20
7334.562580356615
 30
0.0
 11
9969.085666461912
 21
9428.062580356723
 31
0.0
  0
LINE
  5
18B29
330
747D
100
AcDbEntity
  8
破線
 48
10.0
100
AcDbLine
 10
10019.08566646191
 20
7334.562580356617
 30
0.0
 11
10019.08566646191
 21
9428.062580356721
 31
0.0
  0
LINE
  5
18B2A
330
747D
100
AcDbEntity
  8
破線
 48
10.0
100
AcDbLine
 10
9241.585666461919
 20
7334.562580356615
 30
0.0
 11
9241.585666461919
 21
9428.062580356723
 31
0.0
  0
LINE
  5
18B2B
330
747D
100
AcDbEntity
  8
破線
 48
10.0
100
AcDbLine
 10
9291.585666461918
 20
7334.562580356617
 30
0.0
 11
9291.585666461918
 21
9428.062580356723
 31
0.0
  0
LINE
  5
18B2C
330
747D
100
AcDbEntity
  8
破線
 48
10.0
100
AcDbLine
 10
10696.58566646192
 20
7334.562580356615
 30
0.0
 11
10696.58566646192
 21
9428.062580356723
 31
0.0
  0
LINE
  5
18B2D
330
747D
100
AcDbEntity
  8
破線
 48
10.0
100
AcDbLine
 10
10746.58566646191
 20
7334.562580356617
 30
0.0
 11
10746.58566646192
 21
9428.062580356723
 31
0.0
  0
LINE
  5
18B2E
330
747D
100
AcDbEntity
  8
部品1
 48
50.0
100
AcDbLine
 10
9994.085666461943
 20
9428.062580356723
 30
0.0
 11
9994.08566646197
 21
7334.562580356603
 31
0.0
  0
LINE
  5
18B2F
330
747D
100
AcDbEntity
  8
破線
 48
10.0
100
AcDbLine
 10
9969.08566646192
 20
7358.062580356615
 30
0.0
 11
9291.585666461916
 21
7358.062580356592
 31
0.0
  0
LINE
  5
18B30
330
747D
100
AcDbEntity
  8
部品1
100
AcDbLine
 10
8944.085666461909
 20
7278.062580356706
 30
0.0
 11
8944.085666461909
 21
7306.062580356705
 31
0.0
  0
LINE
  5
18B31
330
747D
100
AcDbEntity
  8
破線
 48
10.0
100
AcDbLine
 10
10696.58566646192
 20
7358.062580356629
 30
0.0
 11
10019.08566646192
 21
7358.062580356618
 31
0.0
  0
LINE
  5
18B32
330
747D
100
AcDbEntity
  8
部品1
100
AcDbLine
 10
11044.08566646194
 20
7278.062580356706
 30
0.0
 11
11044.08566646194
 21
7306.062580356705
 31
0.0
  0
LINE
  5
18B33
330
747D
100
AcDbEntity
  8
部品1
100
AcDbLine
 10
8944.085666461907
 20
9908.062580356585
 30
0.0
 11
8944.085666461907
 21
9880.062580356586
 31
0.0
  0
LINE
  5
18B34
330
747D
100
AcDbEntity
  8
部品1
100
AcDbLine
 10
9364.085666461908
 20
9908.062580356585
 30
0.0
 11
9364.085666461908
 21
9880.062580356586
 31
0.0
  0
LINE
  5
18B35
330
747D
100
AcDbEntity
  8
部品1
100
AcDbLine
 10
9784.085666461908
 20
9908.062580356585
 30
0.0
 11
9784.085666461908
 21
9880.062580356586
 31
0.0
  0
LINE
  5
18B36
330
747D
100
AcDbEntity
  8
部品1
 48
50.0
100
AcDbLine
 10
9980.585666461941
 20
9878.06258035672
 30
0.0
 11
9980.585666461941
 21
9428.062580356723
 31
0.0
  0
LINE
  5
18B37
330
747D
100
AcDbEntity
  8
部品1
 48
50.0
100
AcDbLine
 10
10007.58566646194
 20
9878.062580356717
 30
0.0
 11
10007.58566646194
 21
9428.062580356723
 31
0.0
  0
LINE
  5
18B38
330
747D
100
AcDbEntity
  8
部品1
 48
50.0
100
AcDbLine
 10
9981.58566646194
 20
9880.062580356728
 30
0.0
 11
9981.58566646194
 21
9428.062580356723
 31
0.0
  0
LINE
  5
18B39
330
747D
100
AcDbEntity
  8
部品1
 48
50.0
100
AcDbLine
 10
10006.58566646194
 20
9880.062580356725
 30
0.0
 11
10006.58566646194
 21
9428.062580356723
 31
0.0
  0
LINE
  5
18B3A
330
747D
100
AcDbEntity
  8
部品1
100
AcDbLine
 10
9981.58566646194
 20
9428.062580356723
 30
0.0
 11
10006.58566646194
 21
9428.062580356723
 31
0.0
  0
LINE
  5
18B3B
330
747D
100
AcDbEntity
  8
部品1
100
AcDbLine
 10
9981.58566646194
 20
9872.062580356717
 30
0.0
 11
10006.58566646194
 21
9872.06258035672
 31
0.0
  0
LINE
  5
18B3C
330
747D
100
AcDbEntity
  8
部品1
100
AcDbLine
 10
9959.085666461941
 20
9898.062580356722
 30
0.0
 11
9959.085666461941
 21
9880.062580356721
 31
0.0
  0
LINE
  5
18B3D
330
747D
100
AcDbEntity
  8
部品1
100
AcDbLine
 10
9959.085666461941
 20
9898.062580356722
 30
0.0
 11
9965.085666461941
 21
9898.062580356722
 31
0.0
  0
LINE
  5
18B3E
330
747D
100
AcDbEntity
  8
部品1
100
AcDbLine
 10
10029.08566646194
 20
9898.062580356722
 30
0.0
 11
10029.08566646194
 21
9880.062580356721
 31
0.0
  0
LINE
  5
18B3F
330
747D
100
AcDbEntity
  8
部品1
100
AcDbLine
 10
10023.08566646194
 20
9898.062580356722
 30
0.0
 11
10029.08566646194
 21
9898.062580356722
 31
0.0
  0
LINE
  5
18B40
330
747D
100
AcDbEntity
  8
部品1
100
AcDbLine
 10
10204.08566646191
 20
9908.062580356585
 30
0.0
 11
10204.08566646191
 21
9880.062580356586
 31
0.0
  0
LINE
  5
18B41
330
747D
100
AcDbEntity
  8
部品1
100
AcDbLine
 10
10624.08566646191
 20
9908.062580356585
 30
0.0
 11
10624.08566646191
 21
9880.062580356586
 31
0.0
  0
LINE
  5
18B42
330
747D
100
AcDbEntity
  8
部品1
100
AcDbLine
 10
11044.08566646191
 20
9908.062580356585
 30
0.0
 11
11044.08566646191
 21
9880.062580356586
 31
0.0
  0
DIMENSION
  5
18B43
330
747D
100
AcDbEntity
  8
寸法
100
AcDbDimension
  2
*D20
 10
12519.08566646193
 20
7278.062580356705
 30
0.0
 11
12519.08566646193
 21
8593.06258035671
 31
0.0
 70
   160
 71
     5
 42
2630.000000000007
  3
INABA_S40G
100
AcDbAlignedDimension
 13
11519.08566646194
 23
9908.062580356713
 33
0.0
 14
11519.08566646191
 24
7278.062580356705
 34
0.0
 50
90.0
100
AcDbRotatedDimension
1001
ACAD
1000
DSTYLE
1002
{
1002
}
  0
LINE
  5
18B44
330
747D
100
AcDbEntity
  8
破線
 48
10.0
100
AcDbLine
 10
11439.08566646193
 20
9428.062580356716
 30
0.0
 11
11439.08566646194
 21
7358.062580356701
 31
0.0
  0
DIMENSION
  5
18B45
330
747D
100
AcDbEntity
  8
寸法
100
AcDbDimension
  2
*D21
 10
12219.08566646193
 20
7333.062580356702
 30
0.0
 11
12219.08566646193
 21
8593.06258035671
 31
0.0
 70
   160
  1
6X420=<>
 71
     5
 42
2520.000000000015
  3
INABA_S40G
100
AcDbAlignedDimension
 13
11519.08566646194
 23
9853.062580356716
 33
0.0
 14
11519.08566646191
 24
7333.062580356702
 34
0.0
 50
90.0
100
AcDbRotatedDimension
1001
ACAD
1000
DSTYLE
1002
{
1002
}
  0
LINE
  5
18B46
330
747D
100
AcDbEntity
  8
部品1
100
AcDbLine
 10
11519.08566646194
 20
9908.062580356713
 30
0.0
 11
11519.08566646191
 21
7278.062580356706
 31
0.0
  0
LINE
  5
18B47
330
747D
100
AcDbEntity
  8
部品1
100
AcDbLine
 10
11462.58566646193
 20
9428.062580356716
 30
0.0
 11
11462.58566646194
 21
7334.562580356706
 31
0.0
  0
LINE
  5
18B48
330
747D
100
AcDbEntity
  8
部品1
100
AcDbLine
 10
11491.08566646193
 20
9433.062580356716
 30
0.0
 11
11491.08566646192
 21
7306.062580356705
 31
0.0
  0
DIMENSION
  5
18B49
330
747D
100
AcDbEntity
  8
寸法
100
AcDbDimension
  2
*D22
 10
12219.08566646192
 20
7278.062580356705
 30
0.0
 11
12219.08566646191
 21
6969.577298982464
 31
0.0
 70
   160
 71
     5
 42
54.99999999999636
  3
INABA_S40G
100
AcDbAlignedDimension
 13
11519.08566646191
 23
7333.062580356702
 33
0.0
 14
11519.08566646191
 24
7278.062580356705
 34
0.0
 50
90.0
100
AcDbRotatedDimension
1001
ACAD
1000
DSTYLE
1002
{
1002
}
  0
LINE
  5
18B4A
330
747D
100
AcDbEntity
  8
部品1
100
AcDbLine
 10
11491.08566646192
 20
7333.062580356702
 30
0.0
 11
11519.08566646191
 21
7333.062580356702
 31
0.0
  0
LINE
  5
18B4B
330
747D
100
AcDbEntity
  8
部品1
100
AcDbLine
 10
11519.08566646191
 20
7278.062580356706
 30
0.0
 11
11468.08566646192
 21
7278.062580356706
 31
0.0
  0
LINE
  5
18B4C
330
747D
100
AcDbEntity
  8
部品1
 48
50.0
100
AcDbLine
 10
11462.58566646194
 20
7334.562580356706
 30
0.0
 11
11491.08566646194
 21
7306.062580356705
 31
0.0
  0
LINE
  5
18B4D
330
747D
100
AcDbEntity
  8
部品1
100
AcDbLine
 10
11519.08566646192
 20
7333.062580356702
 30
0.0
 11
11519.08566646191
 21
7278.062580356706
 31
0.0
  0
LINE
  5
18B4E
330
747D
100
AcDbEntity
  8
部品1
100
AcDbLine
 10
11491.08566646194
 20
7333.062580356702
 30
0.0
 11
11519.08566646194
 21
7333.062580356702
 31
0.0
  0
LINE
  5
18B4F
330
747D
100
AcDbEntity
  8
部品1
100
AcDbLine
 10
11464.08566646194
 20
7278.062580356706
 30
0.0
 11
11464.08566646194
 21
7306.062580356705
 31
0.0
  0
LINE
  5
18B50
330
747D
100
AcDbEntity
  8
部品1
100
AcDbLine
 10
11491.08566646194
 20
9880.062580356714
 30
0.0
 11
11491.08566646193
 21
9427.562580356589
 31
0.0
  0
LINE
  5
18B51
330
747D
100
AcDbEntity
  8
部品1
100
AcDbLine
 10
11490.58566646194
 20
9878.062580356713
 30
0.0
 11
11490.58566646194
 21
9428.062580356716
 31
0.0
  0
DIMENSION
  5
18B52
330
747D
100
AcDbEntity
  8
寸法
100
AcDbDimension
  2
*D23
 10
11919.08566646194
 20
9313.24635139998
 30
0.0
 11
11919.08566646193
 21
9538.24635139998
 31
0.0
 70
   160
 71
     5
 42
449.9999999999963
  3
INABA_S40G
100
AcDbAlignedDimension
 13
11490.58566646194
 23
9878.062580356713
 33
0.0
 14
11490.58566646194
 24
9428.062580356716
 34
0.0
 50
90.0
100
AcDbRotatedDimension
1001
ACAD
1000
DSTYLE
1002
{
1002
}
  0
LINE
  5
18B53
330
747D
100
AcDbEntity
  8
部品1
100
AcDbLine
 10
11491.08566646194
 20
9013.062580356717
 30
0.0
 11
11519.08566646194
 21
9013.062580356717
 31
0.0
  0
LINE
  5
18B54
330
747D
100
AcDbEntity
  8
部品1
100
AcDbLine
 10
11491.08566646194
 20
9433.062580356716
 30
0.0
 11
11519.08566646194
 21
9433.062580356716
 31
0.0
  0
DIMENSION
  5
18B55
330
747D
100
AcDbEntity
  8
寸法
100
AcDbDimension
  2
*D24
 10
11519.08566646194
 20
10408.06258035671
 30
0.0
 11
11827.57094783618
 21
10408.06258035671
 31
0.0
 70
   160
 71
     5
 42
55.0
  3
INABA_S40G
100
AcDbAlignedDimension
 13
11464.08566646194
 23
9908.062580356713
 33
0.0
 14
11519.08566646194
 24
9908.062580356713
 34
0.0
100
AcDbRotatedDimension
1001
ACAD
1000
DSTYLE
1002
{
1002
}
  0
DIMENSION
  5
18B56
330
747D
100
AcDbEntity
  8
寸法
100
AcDbDimension
  2
*D25
 10
12219.08566646194
 20
9853.062580356716
 30
0.0
 11
12219.08566646194
 21
10216.54786173095
 31
0.0
 70
   160
 71
     5
 42
54.99999999999636
  3
INABA_S40G
100
AcDbAlignedDimension
 13
11519.08566646194
 23
9908.062580356713
 33
0.0
 14
11519.08566646194
 24
9853.062580356716
 34
0.0
 50
90.0
100
AcDbRotatedDimension
1001
ACAD
1000
DSTYLE
1002
{
1002
}
  0
LINE
  5
18B57
330
747D
100
AcDbEntity
  8
部品1
100
AcDbLine
 10
11491.08566646194
 20
9853.062580356716
 30
0.0
 11
11519.08566646194
 21
9853.062580356716
 31
0.0
  0
LINE
  5
18B58
330
747D
100
AcDbEntity
  8
部品1
100
AcDbLine
 10
11464.08566646194
 20
9908.062580356734
 30
0.0
 11
11464.08566646194
 21
9880.062580356735
 31
0.0
  0
LINE
  5
18B59
330
747D
100
AcDbEntity
  8
部品1
100
AcDbLine
 10
11464.08566646194
 20
9908.062580356713
 30
0.0
 11
11464.08566646194
 21
9880.062580356714
 31
0.0
  0
MTEXT
  5
18B5B
330
747D
100
AcDbEntity
  8
寸法
 62
     7
 48
50.0
100
AcDbMText
 10
10764.18820355508
 20
9494.297398554023
 30
0.0
 40
96.0
 41
0.0
 71
     5
 72
     1
  1
棚 3段
  7
STYLE1
 73
     1
 44
1.0
1001
ACAD
1000
MTEXTBEGIN
1070
    73
1070
     1
1070
    44
1040
1.0
1070
    74
1070
     0
1000
MTEXTEND
  0
TEXT
  5
18B5C
330
747D
100
AcDbEntity
  8
文字
 62
     7
 48
50.0
100
AcDbText
 10
13209.4053442172
 20
243.236973410656
 30
0.0
 40
100.0
  1
○有効開口寸法 ： 1266×2025(mm)
  7
STYLE2
100
AcDbText
  0
TEXT
  5
18B5D
330
747D
100
AcDbEntity
  8
文字
 62
     7
 48
50.0
100
AcDbText
 10
14491.96323844892
 20
483.8967129911416
 30
0.0
 40
160.0
  1
ＮＸＮ－８０ＨＡ
  7
STYLE2
100
AcDbText
  0
TEXT
  5
18B5E
330
747D
100
AcDbEntity
  8
文字
 62
     7
 48
50.0
100
AcDbText
 10
14892.7563502105
 20
9740.013745883725
 30
0.0
 40
100.0
  1
F12  1.0(多雪地型2.3,1.6)
  7
STYLE1
100
AcDbText
  0
TEXT
  5
18B5F
330
747D
100
AcDbEntity
  8
文字
 62
     7
 48
50.0
100
AcDbText
 10
13248.77747366447
 20
8380.013745883728
 30
0.0
 40
100.0
  1
17
  7
STYLE1
100
AcDbText
  0
TEXT
  5
18B60
330
747D
100
AcDbEntity
  8
文字
 62
     7
 48
50.0
100
AcDbText
 10
13248.77747366447
 20
8550.013745883729
 30
0.0
 40
100.0
  1
16
  7
STYLE1
100
AcDbText
  0
TEXT
  5
18B61
330
747D
100
AcDbEntity
  8
文字
 62
     7
 48
50.0
100
AcDbText
 10
15022.63965474517
 20
9060.013745883725
 30
0.0
 40
100.0
  1
F12            1.0
  7
STYLE1
100
AcDbText
  0
TEXT
  5
18B62
330
747D
100
AcDbEntity
  8
文字
 62
     7
 48
50.0
100
AcDbText
 10
13583.11819016569
 20
9060.013745883733
 30
0.0
 40
100.0
  1
壁面扉枠左右
  7
STYLE1
100
AcDbText
  0
TEXT
  5
18B63
330
747D
100
AcDbEntity
  8
文字
 62
     7
 48
50.0
100
AcDbText
 10
15022.63965474517
 20
9230.013745883725
 30
0.0
 40
100.0
  1
F12            1.0
  7
STYLE1
100
AcDbText
  0
TEXT
  5
18B64
330
747D
100
AcDbEntity
  8
文字
 62
     7
 48
50.0
100
AcDbText
 10
15022.63965474515
 20
9400.013745883727
 30
0.0
 40
100.0
  1
F12            0.7
  7
STYLE1
100
AcDbText
  0
TEXT
  5
18B65
330
747D
100
AcDbEntity
  8
文字
 62
     7
 48
50.0
100
AcDbText
 10
13583.11819016569
 20
9230.013745883733
 30
0.0
 40
100.0
  1
壁面扉敷居
  7
STYLE1
100
AcDbText
  0
TEXT
  5
18B66
330
747D
100
AcDbEntity
  8
文字
 62
     7
 48
50.0
100
AcDbText
 10
13583.11819016569
 20
9400.013745883729
 30
0.0
 40
100.0
  1
壁面扉鴨居
  7
STYLE1
100
AcDbText
  0
LINE
  5
18B67
330
747D
100
AcDbEntity
  8
仕様書枠
 48
50.0
100
AcDbLine
 10
16307.19999999999
 20
8689.600000000003
 30
0.0
 11
13127.2
 21
8689.600000000005
 31
0.0
  0
LINE
  5
18B68
330
747D
100
AcDbEntity
  8
仕様書枠
 48
50.0
100
AcDbLine
 10
16307.19999999999
 20
8519.600000000004
 30
0.0
 11
13127.2
 21
8519.600000000005
 31
0.0
  0
TEXT
  5
18B69
330
747D
100
AcDbEntity
  8
文字
 62
     7
 48
50.0
100
AcDbText
 10
13583.11819016569
 20
8380.013745883728
 30
0.0
 40
100.0
  1
アンカープレート
  7
STYLE1
100
AcDbText
  0
TEXT
  5
18B6A
330
747D
100
AcDbEntity
  8
文字
 62
     7
 48
50.0
100
AcDbText
 10
15022.63965474515
 20
8380.013745883724
 30
0.0
 40
100.0
  1
F12            2.3
  7
STYLE1
100
AcDbText
  0
LINE
  5
18B6B
330
747D
100
AcDbEntity
  8
仕様書枠
 48
50.0
100
AcDbLine
 10
16307.2
 20
10049.6
 30
0.0
 11
13127.2
 21
10049.6
 31
0.0
  0
LINE
  5
18B6C
330
747D
100
AcDbEntity
  8
仕様書枠
 48
50.0
100
AcDbLine
 10
16307.2
 20
11409.59999999999
 30
0.0
 11
13127.2
 21
11409.6
 31
0.0
  0
LINE
  5
18B6D
330
747D
100
AcDbEntity
  8
仕様書枠
 48
50.0
100
AcDbLine
 10
16307.19999999999
 20
8009.600000000004
 30
0.0
 11
16307.2
 21
11409.6
 31
0.0
  0
LINE
  5
18B6E
330
747D
100
AcDbEntity
  8
仕様書枠
 48
50.0
100
AcDbLine
 10
14785.2
 20
11409.59999999999
 30
0.0
 11
14785.2
 21
8349.600000000004
 31
0.0
  0
LINE
  5
18B6F
330
747D
100
AcDbEntity
  8
仕様書枠
 48
50.0
100
AcDbLine
 10
13490.2
 20
11409.59999999999
 30
0.0
 11
13490.20000000001
 21
8349.600000000007
 31
0.0
  0
LINE
  5
18B70
330
747D
100
AcDbEntity
  8
仕様書枠
 48
50.0
100
AcDbLine
 10
16307.2
 20
11239.59999999999
 30
0.0
 11
13127.2
 21
11239.6
 31
0.0
  0
LINE
  5
18B71
330
747D
100
AcDbEntity
  8
仕様書枠
 48
50.0
100
AcDbLine
 10
16307.2
 20
10899.6
 30
0.0
 11
13127.2
 21
10899.6
 31
0.0
  0
LINE
  5
18B72
330
747D
100
AcDbEntity
  8
仕様書枠
 48
50.0
100
AcDbLine
 10
16307.2
 20
11069.59999999999
 30
0.0
 11
13127.2
 21
11069.6
 31
0.0
  0
LINE
  5
18B73
330
747D
100
AcDbEntity
  8
仕様書枠
 48
50.0
100
AcDbLine
 10
16307.19999999999
 20
10559.6
 30
0.0
 11
13127.2
 21
10559.6
 31
0.0
  0
LINE
  5
18B74
330
747D
100
AcDbEntity
  8
仕様書枠
 48
50.0
100
AcDbLine
 10
16307.19999999999
 20
10389.6
 30
0.0
 11
13127.2
 21
10389.6
 31
0.0
  0
LINE
  5
18B75
330
747D
100
AcDbEntity
  8
仕様書枠
 48
50.0
100
AcDbLine
 10
16307.19999999999
 20
10729.59999999999
 30
0.0
 11
13127.2
 21
10729.6
 31
0.0
  0
TEXT
  5
18B76
330
747D
100
AcDbEntity
  8
文字
 62
     7
 48
50.0
100
AcDbText
 10
13197.42518560407
 20
11270.01374588372
 30
0.0
 40
100.0
  1
品番
  7
STYLE1
100
AcDbText
  0
TEXT
  5
18B77
330
747D
100
AcDbEntity
  8
文字
 62
     7
 48
50.0
100
AcDbText
 10
13271.19032244792
 20
11100.01374588373
 30
0.0
 40
100.0
  1
1
  7
STYLE1
100
AcDbText
  0
TEXT
  5
18B78
330
747D
100
AcDbEntity
  8
文字
 62
     7
 48
50.0
100
AcDbText
 10
13271.19032244792
 20
10930.01374588373
 30
0.0
 40
100.0
  1
2
  7
STYLE1
100
AcDbText
  0
TEXT
  5
18B79
330
747D
100
AcDbEntity
  8
文字
 62
     7
 48
50.0
100
AcDbText
 10
13271.19032244792
 20
10590.01374588373
 30
0.0
 40
100.0
  1
4
  7
STYLE1
100
AcDbText
  0
TEXT
  5
18B7A
330
747D
100
AcDbEntity
  8
文字
 62
     7
 48
50.0
100
AcDbText
 10
13271.19032244792
 20
10760.01374588373
 30
0.0
 40
100.0
  1
3
  7
STYLE1
100
AcDbText
  0
TEXT
  5
18B7B
330
747D
100
AcDbEntity
  8
文字
 62
     7
 48
50.0
100
AcDbText
 10
13732.03840939434
 20
11270.01374588372
 30
0.0
 40
100.0
  1
部　　品　　名
  7
STYLE1
100
AcDbText
  0
TEXT
  5
18B7C
330
747D
100
AcDbEntity
  8
文字
 62
     7
 48
50.0
100
AcDbText
 10
14859.79774614482
 20
11270.01374588372
 30
0.0
 40
100.0
  1
材料（材質）　　単位mm
  7
STYLE1
100
AcDbText
  0
TEXT
  5
18B7D
330
747D
100
AcDbEntity
  8
文字
 62
     7
 48
50.0
100
AcDbText
 10
13583.11819016569
 20
11100.01374588372
 30
0.0
 40
100.0
  1
土台枠
  7
STYLE1
100
AcDbText
  0
TEXT
  5
18B7E
330
747D
100
AcDbEntity
  8
文字
 62
     7
 48
50.0
100
AcDbText
 10
13583.1181901657
 20
10760.01374588372
 30
0.0
 40
100.0
  1
柱
  7
STYLE1
100
AcDbText
  0
TEXT
  5
18B7F
330
747D
100
AcDbEntity
  8
文字
 62
     7
 48
50.0
100
AcDbText
 10
13583.11819016569
 20
10420.01374588373
 30
0.0
 40
100.0
  1
桁前後
  7
STYLE1
100
AcDbText
  0
TEXT
  5
18B80
330
747D
100
AcDbEntity
  8
文字
 62
     7
 48
50.0
100
AcDbText
 10
13271.19032244792
 20
10420.01374588372
 30
0.0
 40
100.0
  1
5
  7
STYLE1
100
AcDbText
  0
TEXT
  5
18B81
330
747D
100
AcDbEntity
  8
文字
 62
     7
 48
50.0
100
AcDbText
 10
13583.11819016569
 20
10250.01374588373
 30
0.0
 40
100.0
  1
妻板左右
  7
STYLE1
100
AcDbText
  0
TEXT
  5
18B82
330
747D
100
AcDbEntity
  8
文字
 62
     7
 48
50.0
100
AcDbText
 10
13248.77747366447
 20
9570.013745883727
 30
0.0
 40
100.0
  1
10
  7
STYLE1
100
AcDbText
  0
TEXT
  5
18B83
330
747D
100
AcDbEntity
  8
文字
 62
     7
 48
50.0
100
AcDbText
 10
13583.11819016568
 20
9570.013745883729
 30
0.0
 40
100.0
  1
壁パネル
  7
STYLE1
100
AcDbText
  0
TEXT
  5
18B84
330
747D
100
AcDbEntity
  8
文字
 62
     7
 48
50.0
100
AcDbText
 10
13583.11819016569
 20
9910.013745883727
 30
0.0
 40
100.0
  1
屋根パネル
  7
STYLE1
100
AcDbText
  0
TEXT
  5
18B85
330
747D
100
AcDbEntity
  8
文字
 62
     7
 48
50.0
100
AcDbText
 10
13583.11819016569
 20
10080.01374588372
 30
0.0
 40
100.0
  1
鼻隠シ前後
  7
STYLE1
100
AcDbText
  0
TEXT
  5
18B86
330
747D
100
AcDbEntity
  8
文字
 62
     7
 48
50.0
100
AcDbText
 10
13271.19032244792
 20
9910.01374588373
 30
0.0
 40
100.0
  1
8
  7
STYLE1
100
AcDbText
  0
TEXT
  5
18B87
330
747D
100
AcDbEntity
  8
文字
 62
     7
 48
50.0
100
AcDbText
 10
13271.19032244792
 20
9740.013745883729
 30
0.0
 40
100.0
  1
9
  7
STYLE1
100
AcDbText
  0
TEXT
  5
18B88
330
747D
100
AcDbEntity
  8
文字
 62
     7
 48
50.0
100
AcDbText
 10
13271.19032244792
 20
10080.01374588373
 30
0.0
 40
100.0
  1
7
  7
STYLE1
100
AcDbText
  0
TEXT
  5
18B89
330
747D
100
AcDbEntity
  8
文字
 62
     7
 48
50.0
100
AcDbText
 10
13271.19032244792
 20
10250.01374588373
 30
0.0
 40
100.0
  1
6
  7
STYLE1
100
AcDbText
  0
LINE
  5
18B8A
330
747D
100
AcDbEntity
  8
仕様書枠
 48
50.0
100
AcDbLine
 10
16307.19999999999
 20
9709.6
 30
0.0
 11
13127.2
 21
9709.600000000001
 31
0.0
  0
LINE
  5
18B8B
330
747D
100
AcDbEntity
  8
仕様書枠
 48
50.0
100
AcDbLine
 10
16307.19999999999
 20
9369.599999999998
 30
0.0
 11
13127.2
 21
9369.600000000001
 31
0.0
  0
LINE
  5
18B8C
330
747D
100
AcDbEntity
  8
仕様書枠
 48
50.0
100
AcDbLine
 10
16307.19999999999
 20
9539.599999999998
 30
0.0
 11
13127.2
 21
9539.6
 31
0.0
  0
LINE
  5
18B8D
330
747D
100
AcDbEntity
  8
仕様書枠
 48
50.0
100
AcDbLine
 10
16307.2
 20
10219.6
 30
0.0
 11
13127.2
 21
10219.6
 31
0.0
  0
LINE
  5
18B8E
330
747D
100
AcDbEntity
  8
仕様書枠
 48
50.0
100
AcDbLine
 10
16307.2
 20
9879.599999999999
 30
0.0
 11
13127.2
 21
9879.600000000001
 31
0.0
  0
TEXT
  5
18B8F
330
747D
100
AcDbEntity
  8
文字
 62
     7
 48
50.0
100
AcDbText
 10
13248.77747366447
 20
9400.013745883727
 30
0.0
 40
100.0
  1
11
  7
STYLE1
100
AcDbText
  0
LINE
  5
18B90
330
747D
100
AcDbEntity
  8
仕様書枠
 48
50.0
100
AcDbLine
 10
16307.19999999999
 20
9199.599999999998
 30
0.0
 11
13127.2
 21
9199.600000000001
 31
0.0
  0
LINE
  5
18B91
330
747D
100
AcDbEntity
  8
仕様書枠
 48
50.0
100
AcDbLine
 10
16307.19999999999
 20
8859.6
 30
0.0
 11
13127.2
 21
8859.600000000002
 31
0.0
  0
TEXT
  5
18B92
330
747D
100
AcDbEntity
  8
文字
 62
     7
 48
50.0
100
AcDbText
 10
13248.77747366448
 20
9060.013745883727
 30
0.0
 40
100.0
  1
13
  7
STYLE1
100
AcDbText
  0
TEXT
  5
18B93
330
747D
100
AcDbEntity
  8
文字
 62
     7
 48
50.0
100
AcDbText
 10
13248.77747366448
 20
9230.013745883727
 30
0.0
 40
100.0
  1
12
  7
STYLE1
100
AcDbText
  0
TEXT
  5
18B94
330
747D
100
AcDbEntity
  8
文字
 62
     7
 48
50.0
100
AcDbText
 10
15022.63965474517
 20
11100.01374588372
 30
0.0
 40
100.0
  1
F12            1.2
  7
STYLE1
100
AcDbText
  0
TEXT
  5
18B95
330
747D
100
AcDbEntity
  8
文字
 62
     7
 48
50.0
100
AcDbText
 10
15022.63965474518
 20
10760.01374588372
 30
0.0
 40
100.0
  1
F12            1.0
  7
STYLE1
100
AcDbText
  0
TEXT
  5
18B96
330
747D
100
AcDbEntity
  8
文字
 62
     7
 48
50.0
100
AcDbText
 10
15022.63965474516
 20
10420.01374588372
 30
0.0
 40
100.0
  1
Y10            1.0
  7
STYLE1
100
AcDbText
  0
TEXT
  5
18B97
330
747D
100
AcDbEntity
  8
文字
 62
     7
 48
50.0
100
AcDbText
 10
15022.63965474516
 20
10250.01374588372
 30
0.0
 40
100.0
  1
Y10            0.7
  7
STYLE1
100
AcDbText
  0
TEXT
  5
18B98
330
747D
100
AcDbEntity
  8
文字
 62
     7
 48
50.0
100
AcDbText
 10
15022.63965474516
 20
10080.01374588372
 30
0.0
 40
100.0
  1
Y10            0.7
  7
STYLE1
100
AcDbText
  0
TEXT
  5
18B99
330
747D
100
AcDbEntity
  8
文字
 62
     7
 48
50.0
100
AcDbText
 10
15022.63965474517
 20
9910.013745883725
 30
0.0
 40
100.0
  1
Y10            0.5
  7
STYLE1
100
AcDbText
  0
TEXT
  5
18B9A
330
747D
100
AcDbEntity
  8
文字
 62
     7
 48
50.0
100
AcDbText
 10
15022.63965474515
 20
9570.013745883725
 30
0.0
 40
100.0
  1
F12            0.7
  7
STYLE1
100
AcDbText
  0
LINE
  5
18B9B
330
747D
100
AcDbEntity
  8
仕様書枠
 48
50.0
100
AcDbLine
 10
16307.19999999999
 20
8349.600000000004
 30
0.0
 11
13127.19999999999
 21
8349.600000000007
 31
0.0
  0
LINE
  5
18B9C
330
747D
100
AcDbEntity
  8
仕様書枠
 48
50.0
100
AcDbLine
 10
16307.19999999999
 20
8179.600000000004
 30
0.0
 11
13127.19999999999
 21
8179.600000000005
 31
0.0
  0
TEXT
  5
18B9D
330
747D
100
AcDbEntity
  8
文字
 62
     7
 48
50.0
100
AcDbText
 10
13229.83081656554
 20
8210.013745883733
 30
0.0
 40
100.0
  1
F12→溶融亜鉛めっき鋼板(JIS G 3302)
  7
STYLE1
100
AcDbText
  0
TEXT
  5
18B9E
330
747D
100
AcDbEntity
  8
文字
 62
     7
 48
50.0
100
AcDbText
 10
13229.83081656554
 20
8040.013745883731
 30
0.0
 40
100.0
  1
Y10→溶融亜鉛-5％アルミニウム合金めっき鋼板(JIS G 3317)
 41
0.9
  7
STYLE1
100
AcDbText
  0
LINE
  5
18B9F
330
747D
100
AcDbEntity
  8
仕様書枠
 48
50.0
100
AcDbLine
 10
13127.2
 20
11409.6
 30
0.0
 11
13127.19999999999
 21
8009.600000000006
 31
0.0
  0
LINE
  5
18BA0
330
747D
100
AcDbEntity
  8
仕様書枠
 48
50.0
100
AcDbLine
 10
16307.19999999999
 20
9029.6
 30
0.0
 11
13127.2
 21
9029.600000000002
 31
0.0
  0
TEXT
  5
18BA1
330
747D
100
AcDbEntity
  8
文字
 62
     7
 48
50.0
100
AcDbText
 10
13583.1181901657
 20
10590.01374588372
 30
0.0
 40
100.0
  1
床パネル
 41
0.9
  7
STYLE1
100
AcDbText
  0
TEXT
  5
18BA2
330
747D
100
AcDbEntity
  8
文字
 62
     7
 48
50.0
100
AcDbText
 10
13583.11819016569
 20
10930.01374588372
 30
0.0
 40
100.0
  1
根太
  7
STYLE1
100
AcDbText
  0
TEXT
  5
18BA3
330
747D
100
AcDbEntity
  8
文字
 62
     7
 48
50.0
100
AcDbText
 10
13248.77747366448
 20
8890.013745883727
 30
0.0
 40
100.0
  1
14
  7
STYLE1
100
AcDbText
  0
TEXT
  5
18BA4
330
747D
100
AcDbEntity
  8
文字
 62
     7
 48
50.0
100
AcDbText
 10
15022.63965474516
 20
10930.01374588372
 30
0.0
 40
100.0
  1
F12            1.2
  7
STYLE1
100
AcDbText
  0
TEXT
  5
18BA5
330
747D
100
AcDbEntity
  8
文字
 62
     7
 48
50.0
100
AcDbText
 10
15022.63965474517
 20
10590.01374588372
 30
0.0
 40
100.0
  1
F12            1.0
  7
STYLE1
100
AcDbText
  0
TEXT
  5
18BA6
330
747D
100
AcDbEntity
  8
文字
 62
     7
 48
50.0
100
AcDbText
 10
15022.63965474515
 20
8890.013745883727
 30
0.0
 40
100.0
  1
F12            0.7
  7
STYLE1
100
AcDbText
  0
TEXT
  5
18BA7
330
747D
100
AcDbEntity
  8
文字
 62
     7
 48
50.0
100
AcDbText
 10
13583.11819016568
 20
8890.013745883731
 30
0.0
 40
100.0
  1
正面パネル
  7
STYLE1
100
AcDbText
  0
TEXT
  5
18BA8
330
747D
100
AcDbEntity
  8
文字
 62
     7
 48
50.0
100
AcDbText
 10
15022.63965474516
 20
8720.013745883727
 30
0.0
 40
100.0
  1
F12            0.8
  7
STYLE1
100
AcDbText
  0
TEXT
  5
18BA9
330
747D
100
AcDbEntity
  8
文字
 62
     7
 48
50.0
100
AcDbText
 10
13583.11819016569
 20
8720.013745883731
 30
0.0
 40
100.0
  1
扉
  7
STYLE1
100
AcDbText
  0
LINE
  5
18BAA
330
747D
100
AcDbEntity
  8
仕様書枠
 48
50.0
100
AcDbLine
 10
16307.19999999999
 20
8009.600000000004
 30
0.0
 11
13127.19999999999
 21
8009.600000000006
 31
0.0
  0
TEXT
  5
18BAB
330
747D
100
AcDbEntity
  8
文字
 62
     7
 48
50.0
100
AcDbText
 10
13248.77747366447
 20
8720.013745883729
 30
0.0
 40
100.0
  1
15
  7
STYLE1
100
AcDbText
  0
TEXT
  5
18BAC
330
747D
100
AcDbEntity
  8
文字
 62
     7
 48
50.0
100
AcDbText
 10
13583.11819016569
 20
9740.013745883729
 30
0.0
 40
100.0
  1
母屋中
  7
STYLE1
100
AcDbText
  0
TEXT
  5
18BAD
330
747D
100
AcDbEntity
  8
文字
 62
     7
 48
50.0
100
AcDbText
 10
15022.63965474516
 20
8550.013745883727
 30
0.0
 40
100.0
  1
F12            0.6
  7
STYLE1
100
AcDbText
  0
TEXT
  5
18BAE
330
747D
100
AcDbEntity
  8
文字
 62
     7
 48
50.0
100
AcDbText
 10
13583.11819016569
 20
8550.013745883731
 30
0.0
 40
100.0
  1
棚板
  7
STYLE1
100
AcDbText
  0
LINE
  5
18C7C
330
747D
100
AcDbEntity
  8
部品1
 48
50.0
100
AcDbLine
 10
11071.08566646193
 20
4196.705230940351
 30
0.0
 11
8917.085666461934
 21
4196.705230940351
 31
0.0
  0
LINE
  5
18C7D
330
747D
100
AcDbEntity
  8
細線
 48
50.0
100
AcDbLine
 10
11071.08566646193
 20
4186.705230940352
 30
0.0
 11
8917.085666461934
 21
4186.705230940352
 31
0.0
  0
LINE
  5
18C7E
330
747D
100
AcDbEntity
  8
細線
 48
50.0
100
AcDbLine
 10
11041.08566646193
 20
4144.705230940352
 30
0.0
 11
8947.085666461934
 21
4144.705230940352
 31
0.0
  0
LINE
  5
18C7F
330
747D
100
AcDbEntity
  8
細線
 48
50.0
100
AcDbLine
 10
11041.08566646193
 20
4154.205230940351
 30
0.0
 11
8947.085666461934
 21
4154.205230940351
 31
0.0
  0
LINE
  5
18C80
330
747D
100
AcDbEntity
  8
部品1
 48
50.0
100
AcDbLine
 10
8917.085666461934
 20
2061.705230940352
 30
0.0
 11
11071.08566646193
 21
2061.705230940352
 31
0.0
  0
LINE
  5
18C81
330
747D
100
AcDbEntity
  8
細線
 48
50.0
100
AcDbLine
 10
8947.085666461934
 20
2104.705230940352
 30
0.0
 11
11041.08566646193
 21
2104.705230940352
 31
0.0
  0
LINE
  5
18C82
330
747D
100
AcDbEntity
  8
細線
 48
50.0
100
AcDbLine
 10
8947.085666461934
 20
2108.705230940352
 30
0.0
 11
11041.08566646193
 21
2108.705230940352
 31
0.0
  0
LINE
  5
18C83
330
747D
100
AcDbEntity
  8
細線
 48
50.0
100
AcDbLine
 10
9751.08566646193
 20
2119.205230940352
 30
0.0
 11
11015.08566646193
 21
2119.205230940352
 31
0.0
  0
LINE
  5
18C84
330
747D
100
AcDbEntity
  8
部品1
 48
50.0
100
AcDbLine
 10
8947.085666461934
 20
2111.705230940351
 30
0.0
 11
8947.085666461934
 21
4144.705230940352
 31
0.0
  0
LINE
  5
18C85
330
747D
100
AcDbEntity
  8
細線
 48
50.0
100
AcDbLine
 10
8947.085666461934
 20
4154.205230940351
 30
0.0
 11
8947.085666461934
 21
2061.705230940352
 31
0.0
  0
LINE
  5
18C86
330
747D
100
AcDbEntity
  8
部品1
 48
50.0
100
AcDbLine
 10
8917.085666461934
 20
4196.705230940351
 30
0.0
 11
8917.085666461934
 21
2061.705230940352
 31
0.0
  0
LINE
  5
18C87
330
747D
100
AcDbEntity
  8
部品1
 48
50.0
100
AcDbLine
 10
9751.08566646193
 20
4144.705230965119
 30
0.0
 11
9751.08566646193
 21
2111.705230965119
 31
0.0
  0
LINE
  5
18C88
330
747D
100
AcDbEntity
  8
部品1
 48
50.0
100
AcDbLine
 10
8947.085666461934
 20
2111.705230940351
 30
0.0
 11
9751.08566646193
 21
2111.705230940348
 31
0.0
  0
LINE
  5
18C89
330
747D
100
AcDbEntity
  8
部品1
 48
50.0
100
AcDbLine
 10
8956.085666461934
 20
2111.705230940351
 30
0.0
 11
8956.085666461934
 21
2108.705230940352
 31
0.0
  0
LINE
  5
18C8A
330
747D
100
AcDbEntity
  8
部品1
 48
50.0
100
AcDbLine
 10
8944.085666461933
 20
4196.705230940351
 30
0.0
 11
8944.085666461933
 21
4201.705230940351
 31
0.0
  0
LINE
  5
18C8B
330
747D
100
AcDbEntity
  8
部品1
 48
50.0
100
AcDbLine
 10
8947.085666461934
 20
4152.705230940351
 30
0.0
 11
8917.085666461934
 21
4152.705230940351
 31
0.0
  0
LINE
  5
18C8C
330
747D
100
AcDbEntity
  8
部品1
 48
50.0
100
AcDbLine
 10
11032.08566646193
 20
2108.705230940352
 30
0.0
 11
11032.08566646193
 21
4144.705230940352
 31
0.0
  0
LINE
  5
18C8D
330
747D
100
AcDbEntity
  8
細線
 48
50.0
100
AcDbLine
 10
11041.08566646193
 20
2061.705230940352
 30
0.0
 11
11041.08566646193
 21
4154.205230940351
 31
0.0
  0
LINE
  5
18C8E
330
747D
100
AcDbEntity
  8
部品1
 48
50.0
100
AcDbLine
 10
11071.08566646193
 20
2061.705230940352
 30
0.0
 11
11071.08566646193
 21
4196.705230940351
 31
0.0
  0
LINE
  5
18C8F
330
747D
100
AcDbEntity
  8
部品1
 48
50.0
100
AcDbLine
 10
10405.08565676679
 20
4144.705230977499
 30
0.0
 11
10405.08565676679
 21
2119.205230977499
 31
0.0
  0
LINE
  5
18C90
330
747D
100
AcDbEntity
  8
細線
 48
50.0
100
AcDbLine
 10
11019.08566646193
 20
2108.705230940352
 30
0.0
 11
11015.08566646193
 21
2119.205230940352
 31
0.0
  0
LINE
  5
18C91
330
747D
100
AcDbEntity
  8
部品1
 48
50.0
100
AcDbLine
 10
11044.08566646193
 20
4196.705230940351
 30
0.0
 11
11044.08566646193
 21
4201.705230940351
 31
0.0
  0
LINE
  5
18C92
330
747D
100
AcDbEntity
  8
部品1
 48
50.0
100
AcDbLine
 10
11071.08566646193
 20
4152.705230940351
 30
0.0
 11
11041.08566646193
 21
4152.705230940351
 31
0.0
  0
LINE
  5
18C93
330
747D
100
AcDbEntity
  8
細線
100
AcDbLine
 10
10527.83566646193
 20
4144.705230940352
 30
0.0
 11
10527.83566646193
 21
2119.20523094037
 31
0.0
  0
LINE
  5
18C94
330
747D
100
AcDbEntity
  8
細線
100
AcDbLine
 10
9812.585676212176
 20
4144.705230940352
 30
0.0
 11
9812.585676212176
 21
2119.205230940362
 31
0.0
  0
LINE
  5
18C95
330
747D
100
AcDbEntity
  8
細線
100
AcDbLine
 10
9882.585676212174
 20
4144.705230940352
 30
0.0
 11
9882.585676212174
 21
2119.205230940362
 31
0.0
  0
LINE
  5
18C96
330
747D
100
AcDbEntity
  8
細線
100
AcDbLine
 10
9161.085666461934
 20
4144.705230940352
 30
0.0
 11
9161.085666461929
 21
2111.705230940355
 31
0.0
  0
LINE
  5
18C97
330
747D
100
AcDbEntity
  8
細線
100
AcDbLine
 10
9231.085666461934
 20
4144.705230940352
 30
0.0
 11
9231.085666461929
 21
2111.705230940355
 31
0.0
  0
LINE
  5
18C98
330
747D
100
AcDbEntity
  8
細線
100
AcDbLine
 10
10597.83566646193
 20
4144.705230940352
 30
0.0
 11
10597.83566646193
 21
2119.20523094037
 31
0.0
  0
LINE
  5
18C99
330
747D
100
AcDbEntity
  8
細線
100
AcDbLine
 10
10667.83566646194
 20
4144.705230940352
 30
0.0
 11
10667.83566646194
 21
2119.20523094037
 31
0.0
  0
LINE
  5
18C9A
330
747D
100
AcDbEntity
  8
細線
100
AcDbLine
 10
10737.83566646193
 20
4144.705230940352
 30
0.0
 11
10737.83566646193
 21
2119.20523094037
 31
0.0
  0
LINE
  5
18C9B
330
747D
100
AcDbEntity
  8
細線
100
AcDbLine
 10
10807.83566646194
 20
4144.705230940352
 30
0.0
 11
10807.83566646194
 21
2119.20523094037
 31
0.0
  0
LINE
  5
18C9C
330
747D
100
AcDbEntity
  8
細線
100
AcDbLine
 10
10877.83566646193
 20
4144.705230940352
 30
0.0
 11
10877.83566646193
 21
2119.20523094037
 31
0.0
  0
LINE
  5
18C9D
330
747D
100
AcDbEntity
  8
細線
100
AcDbLine
 10
9952.585676212175
 20
4144.705230940352
 30
0.0
 11
9952.585676212175
 21
2119.205230940362
 31
0.0
  0
LINE
  5
18C9E
330
747D
100
AcDbEntity
  8
細線
100
AcDbLine
 10
10022.58567621217
 20
4144.705230940352
 30
0.0
 11
10022.58567621217
 21
2119.205230940362
 31
0.0
  0
LINE
  5
18C9F
330
747D
100
AcDbEntity
  8
細線
100
AcDbLine
 10
10092.58567621217
 20
4144.705230940352
 30
0.0
 11
10092.58567621217
 21
2119.205230940362
 31
0.0
  0
LINE
  5
18CA0
330
747D
100
AcDbEntity
  8
細線
100
AcDbLine
 10
10162.58567621217
 20
4144.705230940352
 30
0.0
 11
10162.58567621217
 21
2119.205230940362
 31
0.0
  0
LINE
  5
18CA1
330
747D
100
AcDbEntity
  8
細線
100
AcDbLine
 10
10232.58567621217
 20
4144.705230940352
 30
0.0
 11
10232.58567621217
 21
2119.205230940362
 31
0.0
  0
LINE
  5
18CA2
330
747D
100
AcDbEntity
  8
細線
100
AcDbLine
 10
10302.58567621217
 20
4144.705230940352
 30
0.0
 11
10302.58567621217
 21
2119.205230940362
 31
0.0
  0
LINE
  5
18CA3
330
747D
100
AcDbEntity
  8
細線
100
AcDbLine
 10
9075.085666461928
 20
4144.705230940352
 30
0.0
 11
9075.085666461934
 21
2111.705230940355
 31
0.0
  0
LINE
  5
18CA4
330
747D
100
AcDbEntity
  8
細線
100
AcDbLine
 10
9109.085666461929
 20
4144.705230940352
 30
0.0
 11
9109.085666461934
 21
2111.705230940355
 31
0.0
  0
LINE
  5
18CA5
330
747D
100
AcDbEntity
  8
部品1
100
AcDbLine
 10
9067.085666461929
 20
4144.705230940352
 30
0.0
 11
9067.085666461933
 21
2111.705230940355
 31
0.0
  0
LINE
  5
18CA6
330
747D
100
AcDbEntity
  8
部品1
100
AcDbLine
 10
9117.08566646193
 20
4144.705230940352
 30
0.0
 11
9117.085666461933
 21
2111.705230940355
 31
0.0
  0
LINE
  5
18CA7
330
747D
100
AcDbEntity
  8
細線
100
AcDbLine
 10
9301.085666461935
 20
4144.705230940352
 30
0.0
 11
9301.085666461929
 21
2111.705230940355
 31
0.0
  0
LINE
  5
18CA8
330
747D
100
AcDbEntity
  8
細線
100
AcDbLine
 10
9371.085666461933
 20
4144.705230940352
 30
0.0
 11
9371.085666461929
 21
2111.705230940355
 31
0.0
  0
LINE
  5
18CA9
330
747D
100
AcDbEntity
  8
細線
100
AcDbLine
 10
9441.085666461933
 20
4144.705230940352
 30
0.0
 11
9441.08566646193
 21
2111.705230940355
 31
0.0
  0
LINE
  5
18CAA
330
747D
100
AcDbEntity
  8
細線
100
AcDbLine
 10
9511.085666461934
 20
4144.705230940352
 30
0.0
 11
9511.085666461928
 21
2111.705230940355
 31
0.0
  0
LINE
  5
18CAB
330
747D
100
AcDbEntity
  8
細線
100
AcDbLine
 10
9581.085666461934
 20
4144.705230940352
 30
0.0
 11
9581.085666461929
 21
2111.705230940359
 31
0.0
  0
LINE
  5
18CAC
330
747D
100
AcDbEntity
  8
細線
100
AcDbLine
 10
9651.085666461934
 20
4144.705230940352
 30
0.0
 11
9651.085666461931
 21
2111.705230940359
 31
0.0
  0
LINE
  5
18CAD
330
747D
100
AcDbEntity
  8
部品1
100
AcDbLine
 10
10405.08565676678
 20
4144.705230977502
 30
0.0
 11
10405.08565676679
 21
2119.205230977517
 31
0.0
  0
LINE
  5
18CAE
330
747D
100
AcDbEntity
  8
部品1
 48
50.0
100
AcDbLine
 10
9751.08566646193
 20
4144.705230965119
 30
0.0
 11
9751.08566646193
 21
2111.705230940348
 31
0.0
  0
DIMENSION
  5
18CB0
330
747D
100
AcDbEntity
  8
寸法
 48
50.0
100
AcDbDimension
  2
*D26
 10
8469.085666461934
 20
4835.798400279823
 30
0.0
 11
9994.085666461932
 21
4835.798400279823
 31
0.0
 70
   160
  1
柱外寸法<>
 71
     5
 42
3049.999999999997
  3
INABA_S40G
100
AcDbAlignedDimension
 13
11519.08566646193
 23
4436.705230940357
 33
0.0
 14
8469.085666461934
 24
4436.705230940358
 34
0.0
100
AcDbRotatedDimension
  0
DIMENSION
  5
18CB1
330
747D
100
AcDbEntity
  8
寸法
 48
50.0
100
AcDbDimension
  2
*D27
 10
11569.08566646193
 20
5052.32449989827
 30
0.0
 11
9994.085666461932
 21
5052.32449989827
 31
0.0
 70
   160
 71
     5
 42
3149.999999999997
  3
INABA_S40G
100
AcDbAlignedDimension
 13
8419.085666461933
 23
4436.705230940357
 33
0.0
 14
11569.08566646193
 24
4436.705230940354
 34
0.0
100
AcDbRotatedDimension
  0
DIMENSION
  5
18CB2
330
747D
100
AcDbEntity
  8
寸法
 48
50.0
100
AcDbDimension
  2
*D28
 10
8419.085666461933
 20
4835.798400279824
 30
0.0
 11
8105.600385087686
 21
4835.798400279824
 31
0.0
 70
   160
 71
     5
 42
50.0
  3
INABA_S40G
100
AcDbAlignedDimension
 13
8469.085666461934
 23
4436.705230940358
 33
0.0
 14
8419.085666461933
 24
4436.705230940357
 34
0.0
100
AcDbRotatedDimension
1001
ACAD
1000
DSTYLE
1002
{
1002
}
  0
LINE
  5
18CB3
330
747D
100
AcDbEntity
  8
部品1
100
AcDbLine
 10
9632.085666461948
 20
4431.70523094882
 30
0.0
 11
9632.08566646195
 21
4334.294163440248
 31
0.0
  0
LINE
  5
18CB4
330
747D
100
AcDbEntity
  8
部品1
100
AcDbLine
 10
9607.085666461948
 20
4431.70523094882
 30
0.0
 11
9607.08566646195
 21
4334.294163440248
 31
0.0
  0
LINE
  5
18CB5
330
747D
100
AcDbEntity
  8
部品1
 48
50.0
100
AcDbLine
 10
9605.585666461941
 20
4431.705230948824
 30
0.0
 11
9633.585666461938
 21
4431.705230948824
 31
0.0
  0
LINE
  5
18CB6
330
747D
100
AcDbEntity
  8
部品1
 48
50.0
100
AcDbLine
 10
9633.585666461941
 20
4431.705230948824
 30
0.0
 11
9644.08566646194
 21
4412.305230948823
 31
0.0
  0
LINE
  5
18CB7
330
747D
100
AcDbEntity
  8
部品1
 48
50.0
100
AcDbLine
 10
9605.585666461941
 20
4431.705230948824
 30
0.0
 11
9595.08566646194
 21
4412.305230948823
 31
0.0
  0
LINE
  5
18CB8
330
747D
100
AcDbEntity
  8
部品1
 48
50.0
100
AcDbLine
 10
9532.58566646194
 20
4431.705230948824
 30
0.0
 11
9560.585666461937
 21
4431.705230948824
 31
0.0
  0
LINE
  5
18CB9
330
747D
100
AcDbEntity
  8
部品1
100
AcDbLine
 10
9534.085666461947
 20
4431.70523094882
 30
0.0
 11
9534.085666461947
 21
4334.294163440248
 31
0.0
  0
LINE
  5
18CBA
330
747D
100
AcDbEntity
  8
部品1
 48
50.0
100
AcDbLine
 10
9532.58566646194
 20
4431.705230948824
 30
0.0
 11
9522.08566646194
 21
4412.305230948823
 31
0.0
  0
LINE
  5
18CBB
330
747D
100
AcDbEntity
  8
部品1
100
AcDbLine
 10
9559.085666461948
 20
4431.70523094882
 30
0.0
 11
9559.085666461948
 21
4334.294163440248
 31
0.0
  0
LINE
  5
18CBC
330
747D
100
AcDbEntity
  8
部品1
 48
50.0
100
AcDbLine
 10
9560.585666461941
 20
4431.705230948824
 30
0.0
 11
9571.085666461941
 21
4412.305230948823
 31
0.0
  0
LINE
  5
18CBD
330
747D
100
AcDbEntity
  8
部品1
100
AcDbLine
 10
9373.085666461948
 20
4431.705230948813
 30
0.0
 11
9373.08566646195
 21
4334.294163440248
 31
0.0
  0
LINE
  5
18CBE
330
747D
100
AcDbEntity
  8
部品1
 48
50.0
100
AcDbLine
 10
9376.085666461941
 20
4431.705230948824
 30
0.0
 11
9378.58566646194
 21
4412.305230948823
 31
0.0
  0
LINE
  5
18CBF
330
747D
100
AcDbEntity
  8
部品1
100
AcDbLine
 10
9355.085666461947
 20
4431.705230948813
 30
0.0
 11
9355.085666461951
 21
4334.294163440248
 31
0.0
  0
LINE
  5
18CC0
330
747D
100
AcDbEntity
  8
部品1
 48
50.0
100
AcDbLine
 10
9336.874326255752
 20
4422.305230948823
 30
0.0
 11
9335.585666461941
 21
4412.305230948823
 31
0.0
  0
LINE
  5
18CC1
330
747D
100
AcDbEntity
  8
部品1
 48
50.0
100
AcDbLine
 10
9336.874326255752
 20
4422.305230948823
 30
0.0
 11
9350.874326255754
 21
4422.305230948823
 31
0.0
  0
LINE
  5
18CC2
330
747D
100
AcDbEntity
  8
部品1
 48
50.0
100
AcDbLine
 10
9352.08566646194
 20
4431.705230948824
 30
0.0
 11
9350.874326255754
 21
4422.305230948823
 31
0.0
  0
LINE
  5
18CC3
330
747D
100
AcDbEntity
  8
部品1
 48
50.0
100
AcDbLine
 10
9376.085666461941
 20
4431.705230948824
 30
0.0
 11
9352.08566646194
 21
4431.705230948824
 31
0.0
  0
LINE
  5
18CC4
330
747D
100
AcDbEntity
  8
部品1
100
AcDbLine
 10
9522.085666461938
 20
4412.305230948819
 30
0.0
 11
9378.585666461937
 21
4412.305230948819
 31
0.0
  0
LINE
  5
18CC5
330
747D
100
AcDbEntity
  8
部品1
100
AcDbLine
 10
9212.085666461948
 20
4431.70523094882
 30
0.0
 11
9212.08566646195
 21
4334.294163440248
 31
0.0
  0
LINE
  5
18CC6
330
747D
100
AcDbEntity
  8
部品1
 48
50.0
100
AcDbLine
 10
9213.585666461941
 20
4431.705230948824
 30
0.0
 11
9224.08566646194
 21
4412.305230948823
 31
0.0
  0
LINE
  5
18CC7
330
747D
100
AcDbEntity
  8
部品1
100
AcDbLine
 10
9114.085666461948
 20
4431.70523094882
 30
0.0
 11
9114.085666461948
 21
4334.294163440248
 31
0.0
  0
LINE
  5
18CC8
330
747D
100
AcDbEntity
  8
部品1
100
AcDbLine
 10
9139.085666461948
 20
4431.70523094882
 30
0.0
 11
9139.085666461948
 21
4334.294163440248
 31
0.0
  0
LINE
  5
18CC9
330
747D
100
AcDbEntity
  8
部品1
100
AcDbLine
 10
9187.085666461948
 20
4431.70523094882
 30
0.0
 11
9187.085666461948
 21
4334.294163440248
 31
0.0
  0
LINE
  5
18CCA
330
747D
100
AcDbEntity
  8
部品1
 48
50.0
100
AcDbLine
 10
9112.58566646194
 20
4431.705230948824
 30
0.0
 11
9102.08566646194
 21
4412.305230948823
 31
0.0
  0
LINE
  5
18CCB
330
747D
100
AcDbEntity
  8
部品1
100
AcDbLine
 10
9175.085666461937
 20
4412.305230948819
 30
0.0
 11
9151.085666461941
 21
4412.305230948819
 31
0.0
  0
LINE
  5
18CCC
330
747D
100
AcDbEntity
  8
部品1
 48
50.0
100
AcDbLine
 10
9140.585666461941
 20
4431.705230948824
 30
0.0
 11
9151.085666461941
 21
4412.305230948823
 31
0.0
  0
LINE
  5
18CCD
330
747D
100
AcDbEntity
  8
部品1
 48
50.0
100
AcDbLine
 10
9185.585666461941
 20
4431.705230948824
 30
0.0
 11
9175.08566646194
 21
4412.305230948823
 31
0.0
  0
LINE
  5
18CCE
330
747D
100
AcDbEntity
  8
部品1
 48
50.0
100
AcDbLine
 10
9112.58566646194
 20
4431.705230948824
 30
0.0
 11
9140.585666461936
 21
4431.705230948824
 31
0.0
  0
LINE
  5
18CCF
330
747D
100
AcDbEntity
  8
部品1
 48
50.0
100
AcDbLine
 10
9185.585666461941
 20
4431.705230948824
 30
0.0
 11
9213.585666461936
 21
4431.705230948824
 31
0.0
  0
LINE
  5
18CD0
330
747D
100
AcDbEntity
  8
部品1
100
AcDbLine
 10
8953.085666461948
 20
4431.705230948813
 30
0.0
 11
8953.08566646195
 21
4334.294163440248
 31
0.0
  0
LINE
  5
18CD1
330
747D
100
AcDbEntity
  8
部品1
100
AcDbLine
 10
8935.085666461949
 20
4431.705230948813
 30
0.0
 11
8935.085666461949
 21
4334.294163440248
 31
0.0
  0
LINE
  5
18CD2
330
747D
100
AcDbEntity
  8
部品1
 48
50.0
100
AcDbLine
 10
8956.085666461941
 20
4431.705230948824
 30
0.0
 11
8932.085666461942
 21
4431.705230948824
 31
0.0
  0
LINE
  5
18CD3
330
747D
100
AcDbEntity
  8
部品1
 48
50.0
100
AcDbLine
 10
8932.085666461942
 20
4431.705230948824
 30
0.0
 11
8930.874326255752
 21
4422.305230948823
 31
0.0
  0
LINE
  5
18CD4
330
747D
100
AcDbEntity
  8
部品1
 48
50.0
100
AcDbLine
 10
8956.085666461941
 20
4431.705230948824
 30
0.0
 11
8958.58566646194
 21
4412.305230948823
 31
0.0
  0
LINE
  5
18CD5
330
747D
100
AcDbEntity
  8
部品1
100
AcDbLine
 10
9102.085666461936
 20
4412.305230948819
 30
0.0
 11
8958.585666461937
 21
4412.305230948819
 31
0.0
  0
LINE
  5
18CD6
330
747D
100
AcDbEntity
  8
部品1
100
AcDbLine
 10
9335.585666461941
 20
4412.305230948819
 30
0.0
 11
9224.08566646194
 21
4412.305230948819
 31
0.0
  0
LINE
  5
18CD7
330
747D
100
AcDbEntity
  8
部品1
100
AcDbLine
 10
9595.085666461937
 20
4412.305230948819
 30
0.0
 11
9571.085666461941
 21
4412.305230948819
 31
0.0
  0
LINE
  5
18CD8
330
747D
100
AcDbEntity
  8
部品1
100
AcDbLine
 10
8915.585666461941
 20
4412.305230948819
 30
0.0
 11
8804.085666461942
 21
4412.305230948819
 31
0.0
  0
LINE
  5
18CD9
330
747D
100
AcDbEntity
  8
部品1
100
AcDbLine
 10
8767.085666461948
 20
4431.70523094882
 30
0.0
 11
8767.085666461948
 21
4334.294163440248
 31
0.0
  0
LINE
  5
18CDA
330
747D
100
AcDbEntity
  8
部品1
100
AcDbLine
 10
8792.085666461948
 20
4431.70523094882
 30
0.0
 11
8792.085666461948
 21
4334.294163440248
 31
0.0
  0
LINE
  5
18CDB
330
747D
100
AcDbEntity
  8
部品1
 48
50.0
100
AcDbLine
 10
8793.585666461941
 20
4431.705230948824
 30
0.0
 11
8804.085666461942
 21
4412.305230948823
 31
0.0
  0
LINE
  5
18CDC
330
747D
100
AcDbEntity
  8
部品1
 48
50.0
100
AcDbLine
 10
8765.585666461941
 20
4431.705230948824
 30
0.0
 11
8793.585666461936
 21
4431.705230948824
 31
0.0
  0
LINE
  5
18CDD
330
747D
100
AcDbEntity
  8
部品1
 48
50.0
100
AcDbLine
 10
8916.874326255753
 20
4422.305230948823
 30
0.0
 11
8915.585666461941
 21
4412.305230948823
 31
0.0
  0
LINE
  5
18CDE
330
747D
100
AcDbEntity
  8
部品1
100
AcDbLine
 10
8755.085666461937
 20
4412.305230948819
 30
0.0
 11
8731.085666461941
 21
4412.305230948823
 31
0.0
  0
LINE
  5
18CDF
330
747D
100
AcDbEntity
  8
部品1
100
AcDbLine
 10
8719.085666461948
 20
4431.70523094882
 30
0.0
 11
8719.08566646195
 21
4334.294163440248
 31
0.0
  0
LINE
  5
18CE0
330
747D
100
AcDbEntity
  8
部品1
 48
50.0
100
AcDbLine
 10
8720.585666461941
 20
4431.705230948824
 30
0.0
 11
8731.085666461941
 21
4412.305230948823
 31
0.0
  0
LINE
  5
18CE1
330
747D
100
AcDbEntity
  8
部品1
100
AcDbLine
 10
8694.085666461948
 20
4431.70523094882
 30
0.0
 11
8694.085666461946
 21
4334.294163440248
 31
0.0
  0
LINE
  5
18CE2
330
747D
100
AcDbEntity
  8
部品1
 48
50.0
100
AcDbLine
 10
8692.58566646194
 20
4431.705230948824
 30
0.0
 11
8682.085666461942
 21
4412.305230948823
 31
0.0
  0
LINE
  5
18CE3
330
747D
100
AcDbEntity
  8
部品1
 48
50.0
100
AcDbLine
 10
8692.58566646194
 20
4431.705230948824
 30
0.0
 11
8720.585666461937
 21
4431.705230948824
 31
0.0
  0
LINE
  5
18CE4
330
747D
100
AcDbEntity
  8
部品1
 48
50.0
100
AcDbLine
 10
8765.585666461941
 20
4431.705230948824
 30
0.0
 11
8755.08566646194
 21
4412.305230948823
 31
0.0
  0
LINE
  5
18CE5
330
747D
100
AcDbEntity
  8
部品1
100
AcDbLine
 10
8533.085666461948
 20
4431.705230948813
 30
0.0
 11
8533.085666461948
 21
4334.294163440248
 31
0.0
  0
LINE
  5
18CE6
330
747D
100
AcDbEntity
  8
部品1
100
AcDbLine
 10
8515.085666461947
 20
4431.705230948824
 30
0.0
 11
8515.085666461949
 21
4334.294163440248
 31
0.0
  0
LINE
  5
18CE7
330
747D
100
AcDbEntity
  8
部品1
 48
50.0
100
AcDbLine
 10
8536.085666461941
 20
4431.705230948824
 30
0.0
 11
8538.585666461941
 21
4412.305230948823
 31
0.0
  0
LINE
  5
18CE8
330
747D
100
AcDbEntity
  8
部品1
100
AcDbLine
 10
8495.58566646194
 20
4412.305230948823
 30
0.0
 11
8469.085666461941
 21
4412.305230948823
 31
0.0
  0
LINE
  5
18CE9
330
747D
100
AcDbEntity
  8
部品1
 48
50.0
100
AcDbLine
 10
8496.874326255753
 20
4422.305230948823
 30
0.0
 11
8510.874326255752
 21
4422.305230948823
 31
0.0
  0
LINE
  5
18CEA
330
747D
100
AcDbEntity
  8
部品1
 48
50.0
100
AcDbLine
 10
8496.874326255753
 20
4422.305230948823
 30
0.0
 11
8495.58566646194
 21
4412.305230948823
 31
0.0
  0
LINE
  5
18CEB
330
747D
100
AcDbEntity
  8
部品1
 48
50.0
100
AcDbLine
 10
8512.08566646194
 20
4431.705230948824
 30
0.0
 11
8510.874326255752
 21
4422.305230948823
 31
0.0
  0
LINE
  5
18CEC
330
747D
100
AcDbEntity
  8
部品1
 48
50.0
100
AcDbLine
 10
8536.085666461941
 20
4431.705230948824
 30
0.0
 11
8512.08566646194
 21
4431.705230948824
 31
0.0
  0
LINE
  5
18CED
330
747D
100
AcDbEntity
  8
部品1
100
AcDbLine
 10
8682.085666461942
 20
4412.305230948819
 30
0.0
 11
8538.585666461941
 21
4412.305230948823
 31
0.0
  0
LINE
  5
18CEE
330
747D
100
AcDbEntity
  8
部品1
 48
50.0
100
AcDbLine
 10
8916.874326255753
 20
4422.305230948823
 30
0.0
 11
8930.874326255752
 21
4422.305230948823
 31
0.0
  0
LINE
  5
18CEF
330
747D
100
AcDbEntity
  8
部品1
100
AcDbLine
 10
11524.15600370266
 20
4436.705230948795
 30
0.0
 11
8443.517826842848
 21
4436.705230948824
 31
0.0
  0
LINE
  5
18CF0
330
747D
100
AcDbEntity
  8
部品1
100
AcDbLine
 10
9755.585666461938
 20
4412.305230948805
 30
0.0
 11
9644.085666461947
 21
4412.305230948805
 31
0.0
  0
LINE
  5
18CF1
330
747D
100
AcDbEntity
  8
部品1
 48
50.0
100
AcDbLine
 10
8464.015038468735
 20
4381.705230940351
 30
0.0
 11
8426.071710279151
 21
4381.705230940351
 31
0.0
  0
ARC
  5
18CF2
330
747D
100
AcDbEntity
  8
部品1
100
AcDbCircle
 10
8421.044808902228
 20
4354.375348260941
 30
0.0
 40
0.7
100
AcDbArc
 50
183.6186294801377
 51
262.7131594833544
  0
ARC
  5
18CF3
330
747D
100
AcDbEntity
  8
部品1
100
AcDbCircle
 10
8420.575512777032
 20
4350.705230940351
 30
0.0
 40
3.0
100
AcDbArc
 50
3.618629480137788
 51
90.0
  0
LINE
  5
18CF4
330
747D
100
AcDbEntity
  8
部品1
100
AcDbLine
 10
8423.569531555839
 20
4350.894576001463
 30
0.0
 11
8428.316624567999
 21
4275.83116774668
 31
0.0
  0
ARC
  5
18CF5
330
747D
100
AcDbEntity
  8
部品1
100
AcDbCircle
 10
8429.015228949721
 20
4275.875348260941
 30
0.0
 40
0.7
100
AcDbArc
 50
183.6186294801377
 51
262.7131594833544
  0
ARC
  5
18CF6
330
747D
100
AcDbEntity
  8
部品1
100
AcDbCircle
 10
8428.545932824524
 20
4272.205230940351
 30
0.0
 40
3.0
100
AcDbArc
 50
3.618629480137788
 51
90.0
  0
ARC
  5
18CF7
330
747D
100
AcDbEntity
  8
部品1
100
AcDbCircle
 10
8439.198321125124
 20
4262.205230940351
 30
0.0
 40
7.0
100
AcDbArc
 50
183.6186294801377
 51
270.0
  0
ARC
  5
18CF8
330
747D
100
AcDbEntity
  8
部品1
100
AcDbCircle
 10
8426.071710279151
 20
4374.705230940351
 30
0.0
 40
7.0
100
AcDbArc
 50
90.0
 51
183.6186294801377
  0
LINE
  5
18CF9
330
747D
100
AcDbEntity
  8
部品1
100
AcDbLine
 10
8432.212277307911
 20
4261.763425797762
 30
0.0
 11
8431.539951603332
 21
4272.394576001462
 31
0.0
  0
LINE
  5
18CFA
330
747D
100
AcDbEntity
  8
部品1
100
AcDbLine
 10
8420.346204520507
 20
4354.331167746681
 30
0.0
 11
8419.08566646194
 21
4374.263425797763
 31
0.0
  0
LINE
  5
18CFB
330
747D
100
AcDbEntity
  8
部品1
100
AcDbLine
 10
8464.015038468735
 20
4381.705230940351
 30
0.0
 11
8426.071710279151
 21
4381.705230940351
 31
0.0
  0
ARC
  5
18CFC
330
747D
100
AcDbEntity
  8
部品1
100
AcDbCircle
 10
8464.015038468735
 20
4376.705230940351
 30
0.0
 40
5.0
100
AcDbArc
 50
0.0
 51
90.0
  0
LINE
  5
18CFD
330
747D
100
AcDbEntity
  8
部品1
100
AcDbLine
 10
8469.015038468736
 20
4431.70523095725
 30
0.0
 11
8469.015038468732
 21
4334.30120226768
 31
0.0
  0
LINE
  5
18CFE
330
747D
100
AcDbEntity
  8
部品1
100
AcDbLine
 10
11548.97301179874
 20
4255.205230940351
 30
0.0
 11
8439.198321125124
 21
4255.205230940351
 31
0.0
  0
LINE
  5
18CFF
330
747D
100
AcDbEntity
  8
部品1
 48
50.0
100
AcDbLine
 10
8419.08566646194
 20
4374.263425797763
 30
0.0
 11
8419.08566646194
 21
4429.263425814661
 31
0.0
  0
ARC
  5
18D00
330
747D
100
AcDbEntity
  8
部品1
100
AcDbCircle
 10
8464.015038468735
 20
4431.70523095725
 30
0.0
 40
5.0
100
AcDbArc
 50
0.0
 51
90.0
  0
LINE
  5
18D01
330
747D
100
AcDbEntity
  8
部品1
100
AcDbLine
 10
8464.015038468735
 20
4436.70523095725
 30
0.0
 11
8426.071710279151
 21
4436.70523095725
 31
0.0
  0
ARC
  5
18D02
330
747D
100
AcDbEntity
  8
部品1
100
AcDbCircle
 10
8426.071710279151
 20
4429.705230957249
 30
0.0
 40
7.0
100
AcDbArc
 50
90.0
 51
183.6186294801377
  0
LINE
  5
18D03
330
747D
100
AcDbEntity
  8
細線
 48
50.0
100
AcDbLine
 10
11559.86402413499
 20
4275.978473504132
 30
0.0
 11
8428.969258094459
 21
4275.978473504138
 31
0.0
  0
LINE
  5
18D04
330
747D
100
AcDbEntity
  8
細線
 48
50.0
100
AcDbLine
 10
8451.574576557659
 20
4381.705230940351
 30
0.0
 11
8451.574576557659
 21
4255.205230940351
 31
0.0
  0
LINE
  5
18D05
330
747D
100
AcDbEntity
  8
細線
 48
50.0
100
AcDbLine
 10
8469.015038468732
 20
4353.677063688301
 30
0.0
 11
8420.951797184788
 21
4353.677063688308
 31
0.0
  0
LINE
  5
18D06
330
747D
100
AcDbEntity
  8
部品1
100
AcDbLine
 10
9775.085666461935
 20
4431.705230948813
 30
0.0
 11
9775.085666461935
 21
4334.294163440248
 31
0.0
  0
LINE
  5
18D07
330
747D
100
AcDbEntity
  8
部品1
100
AcDbLine
 10
9793.085666461935
 20
4431.705230948824
 30
0.0
 11
9793.085666461935
 21
4334.294163440248
 31
0.0
  0
LINE
  5
18D08
330
747D
100
AcDbEntity
  8
部品1
 48
50.0
100
AcDbLine
 10
9772.085666461942
 20
4431.705230948824
 30
0.0
 11
9796.085666461943
 21
4431.705230948824
 31
0.0
  0
LINE
  5
18D09
330
747D
100
AcDbEntity
  8
部品1
 48
50.0
100
AcDbLine
 10
9772.085666461942
 20
4431.705230948824
 30
0.0
 11
9770.874326255757
 21
4422.305230948823
 31
0.0
  0
LINE
  5
18D0A
330
747D
100
AcDbEntity
  8
部品1
 48
50.0
100
AcDbLine
 10
9756.874326255756
 20
4422.305230948823
 30
0.0
 11
9770.874326255757
 21
4422.305230948823
 31
0.0
  0
LINE
  5
18D0B
330
747D
100
AcDbEntity
  8
部品1
 48
50.0
100
AcDbLine
 10
9756.874326255756
 20
4422.305230948823
 30
0.0
 11
9755.585666461943
 21
4412.305230948823
 31
0.0
  0
LINE
  5
18D0C
330
747D
100
AcDbEntity
  8
部品1
 48
50.0
100
AcDbLine
 10
9796.085666461943
 20
4431.705230948824
 30
0.0
 11
9798.585666461942
 21
4412.305230948823
 31
0.0
  0
LINE
  5
18D0D
330
747D
100
AcDbEntity
  8
部品1
 48
50.0
100
AcDbLine
 10
8451.574576557659
 20
4334.294163440248
 30
0.0
 11
11536.5967563662
 21
4334.294163440248
 31
0.0
  0
LINE
  5
18D0E
330
747D
100
AcDbEntity
  8
部品1
100
AcDbLine
 10
10015.08566646194
 20
4412.305230948823
 30
0.0
 11
9991.085666461943
 21
4412.305230948823
 31
0.0
  0
LINE
  5
18D0F
330
747D
100
AcDbEntity
  8
部品1
 48
50.0
100
AcDbLine
 10
9980.585666461943
 20
4431.705230948828
 30
0.0
 11
9991.085666461943
 21
4412.305230948827
 31
0.0
  0
LINE
  5
18D10
330
747D
100
AcDbEntity
  8
部品1
 48
50.0
100
AcDbLine
 10
9952.585666461942
 20
4431.705230948828
 30
0.0
 11
9942.085666461942
 21
4412.305230948827
 31
0.0
  0
LINE
  5
18D11
330
747D
100
AcDbEntity
  8
部品1
 48
50.0
100
AcDbLine
 10
9952.585666461942
 20
4431.705230948828
 30
0.0
 11
9980.585666461939
 21
4431.705230948828
 31
0.0
  0
LINE
  5
18D12
330
747D
100
AcDbEntity
  8
部品1
 48
50.0
100
AcDbLine
 10
10025.58566646194
 20
4431.705230948828
 30
0.0
 11
10015.08566646194
 21
4412.305230948827
 31
0.0
  0
LINE
  5
18D13
330
747D
100
AcDbEntity
  8
部品1
 48
50.0
100
AcDbLine
 10
10053.58566646194
 20
4431.705230948828
 30
0.0
 11
10064.08566646194
 21
4412.305230948827
 31
0.0
  0
LINE
  5
18D14
330
747D
100
AcDbEntity
  8
部品1
 48
50.0
100
AcDbLine
 10
10025.58566646194
 20
4431.705230948828
 30
0.0
 11
10053.58566646194
 21
4431.705230948828
 31
0.0
  0
LINE
  5
18D15
330
747D
100
AcDbEntity
  8
部品1
100
AcDbLine
 10
10175.58566646194
 20
4412.305230948809
 30
0.0
 11
10064.08566646195
 21
4412.305230948809
 31
0.0
  0
LINE
  5
18D16
330
747D
100
AcDbEntity
  8
部品1
100
AcDbLine
 10
9942.08566646194
 20
4412.305230948823
 30
0.0
 11
9798.585666461939
 21
4412.305230948823
 31
0.0
  0
LINE
  5
18D17
330
747D
100
AcDbEntity
  8
部品1
100
AcDbLine
 10
9979.08566646195
 20
4431.705230948824
 30
0.0
 11
9979.08566646195
 21
4334.294163440252
 31
0.0
  0
LINE
  5
18D18
330
747D
100
AcDbEntity
  8
部品1
100
AcDbLine
 10
9954.085666461949
 20
4431.705230948824
 30
0.0
 11
9954.085666461949
 21
4334.294163440252
 31
0.0
  0
LINE
  5
18D19
330
747D
100
AcDbEntity
  8
部品1
100
AcDbLine
 10
10027.08566646195
 20
4431.705230948824
 30
0.0
 11
10027.08566646195
 21
4334.294163440252
 31
0.0
  0
LINE
  5
18D1A
330
747D
100
AcDbEntity
  8
部品1
100
AcDbLine
 10
10052.08566646195
 20
4431.705230948824
 30
0.0
 11
10052.08566646195
 21
4334.294163440252
 31
0.0
  0
LINE
  5
18D1B
330
747D
100
AcDbEntity
  8
部品1
100
AcDbLine
 10
10595.58566646194
 20
4412.305230948812
 30
0.0
 11
10484.08566646195
 21
4412.305230948812
 31
0.0
  0
LINE
  5
18D1C
330
747D
100
AcDbEntity
  8
部品1
100
AcDbLine
 10
10472.08566646195
 20
4431.705230948828
 30
0.0
 11
10472.08566646195
 21
4334.294163440255
 31
0.0
  0
LINE
  5
18D1D
330
747D
100
AcDbEntity
  8
部品1
100
AcDbLine
 10
10447.08566646195
 20
4431.705230948828
 30
0.0
 11
10447.08566646195
 21
4334.294163440255
 31
0.0
  0
LINE
  5
18D1E
330
747D
100
AcDbEntity
  8
部品1
100
AcDbLine
 10
10374.08566646195
 20
4431.705230948828
 30
0.0
 11
10374.08566646195
 21
4334.294163440255
 31
0.0
  0
LINE
  5
18D1F
330
747D
100
AcDbEntity
  8
部品1
100
AcDbLine
 10
10399.08566646195
 20
4431.705230948828
 30
0.0
 11
10399.08566646195
 21
4334.294163440255
 31
0.0
  0
LINE
  5
18D20
330
747D
100
AcDbEntity
  8
部品1
 48
50.0
100
AcDbLine
 10
10445.58566646194
 20
4431.705230948831
 30
0.0
 11
10473.58566646194
 21
4431.705230948831
 31
0.0
  0
LINE
  5
18D21
330
747D
100
AcDbEntity
  8
部品1
 48
50.0
100
AcDbLine
 10
10473.58566646194
 20
4431.705230948831
 30
0.0
 11
10484.08566646194
 21
4412.30523094883
 31
0.0
  0
LINE
  5
18D22
330
747D
100
AcDbEntity
  8
部品1
 48
50.0
100
AcDbLine
 10
10445.58566646194
 20
4431.705230948831
 30
0.0
 11
10435.08566646194
 21
4412.30523094883
 31
0.0
  0
LINE
  5
18D23
330
747D
100
AcDbEntity
  8
部品1
 48
50.0
100
AcDbLine
 10
10372.58566646194
 20
4431.705230948831
 30
0.0
 11
10400.58566646194
 21
4431.705230948831
 31
0.0
  0
LINE
  5
18D24
330
747D
100
AcDbEntity
  8
部品1
 48
50.0
100
AcDbLine
 10
10372.58566646194
 20
4431.705230948831
 30
0.0
 11
10362.08566646194
 21
4412.30523094883
 31
0.0
  0
LINE
  5
18D25
330
747D
100
AcDbEntity
  8
部品1
 48
50.0
100
AcDbLine
 10
10400.58566646194
 20
4431.705230948831
 30
0.0
 11
10411.08566646194
 21
4412.30523094883
 31
0.0
  0
LINE
  5
18D26
330
747D
100
AcDbEntity
  8
部品1
100
AcDbLine
 10
10435.08566646194
 20
4412.305230948827
 30
0.0
 11
10411.08566646194
 21
4412.305230948827
 31
0.0
  0
LINE
  5
18D27
330
747D
100
AcDbEntity
  8
部品1
100
AcDbLine
 10
10362.08566646194
 20
4412.305230948827
 30
0.0
 11
10218.58566646194
 21
4412.305230948827
 31
0.0
  0
LINE
  5
18D28
330
747D
100
AcDbEntity
  8
部品1
 48
50.0
100
AcDbLine
 10
10216.08566646194
 20
4431.705230948828
 30
0.0
 11
10218.58566646194
 21
4412.305230948827
 31
0.0
  0
LINE
  5
18D29
330
747D
100
AcDbEntity
  8
部品1
 48
50.0
100
AcDbLine
 10
10176.87432625576
 20
4422.305230948826
 30
0.0
 11
10175.58566646194
 21
4412.305230948827
 31
0.0
  0
LINE
  5
18D2A
330
747D
100
AcDbEntity
  8
部品1
 48
50.0
100
AcDbLine
 10
10176.87432625576
 20
4422.305230948826
 30
0.0
 11
10190.87432625576
 21
4422.305230948826
 31
0.0
  0
LINE
  5
18D2B
330
747D
100
AcDbEntity
  8
部品1
 48
50.0
100
AcDbLine
 10
10192.08566646194
 20
4431.705230948828
 30
0.0
 11
10190.87432625576
 21
4422.305230948826
 31
0.0
  0
LINE
  5
18D2C
330
747D
100
AcDbEntity
  8
部品1
 48
50.0
100
AcDbLine
 10
10192.08566646194
 20
4431.705230948828
 30
0.0
 11
10216.08566646194
 21
4431.705230948828
 31
0.0
  0
LINE
  5
18D2D
330
747D
100
AcDbEntity
  8
部品1
100
AcDbLine
 10
10213.08566646193
 20
4431.705230948828
 30
0.0
 11
10213.08566646193
 21
4334.294163440252
 31
0.0
  0
LINE
  5
18D2E
330
747D
100
AcDbEntity
  8
部品1
100
AcDbLine
 10
10195.08566646194
 20
4431.705230948817
 30
0.0
 11
10195.08566646194
 21
4334.294163440252
 31
0.0
  0
LINE
  5
18D2F
330
747D
100
AcDbEntity
  8
部品1
100
AcDbLine
 10
10615.08566646192
 20
4431.705230948828
 30
0.0
 11
10615.08566646192
 21
4334.294163440263
 31
0.0
  0
LINE
  5
18D30
330
747D
100
AcDbEntity
  8
部品1
100
AcDbLine
 10
10633.08566646192
 20
4431.705230948838
 30
0.0
 11
10633.08566646192
 21
4334.294163440263
 31
0.0
  0
LINE
  5
18D31
330
747D
100
AcDbEntity
  8
部品1
 48
50.0
100
AcDbLine
 10
10612.08566646192
 20
4431.705230948838
 30
0.0
 11
10636.08566646192
 21
4431.705230948838
 31
0.0
  0
LINE
  5
18D32
330
747D
100
AcDbEntity
  8
部品1
 48
50.0
100
AcDbLine
 10
10612.08566646192
 20
4431.705230948838
 30
0.0
 11
10610.87432625574
 21
4422.305230948837
 31
0.0
  0
LINE
  5
18D33
330
747D
100
AcDbEntity
  8
部品1
 48
50.0
100
AcDbLine
 10
10596.87432625574
 20
4422.305230948837
 30
0.0
 11
10610.87432625574
 21
4422.305230948837
 31
0.0
  0
LINE
  5
18D34
330
747D
100
AcDbEntity
  8
部品1
 48
50.0
100
AcDbLine
 10
10596.87432625574
 20
4422.305230948837
 30
0.0
 11
10595.58566646192
 21
4412.305230948837
 31
0.0
  0
LINE
  5
18D35
330
747D
100
AcDbEntity
  8
部品1
 48
50.0
100
AcDbLine
 10
10636.08566646192
 20
4431.705230948838
 30
0.0
 11
10638.58566646192
 21
4412.305230948837
 31
0.0
  0
LINE
  5
18D36
330
747D
100
AcDbEntity
  8
部品1
100
AcDbLine
 10
10782.08566646192
 20
4412.305230948837
 30
0.0
 11
10638.58566646192
 21
4412.305230948837
 31
0.0
  0
LINE
  5
18D37
330
747D
100
AcDbEntity
  8
部品1
100
AcDbLine
 10
10855.08566646192
 20
4412.305230948837
 30
0.0
 11
10831.08566646192
 21
4412.305230948837
 31
0.0
  0
LINE
  5
18D38
330
747D
100
AcDbEntity
  8
部品1
 48
50.0
100
AcDbLine
 10
10820.58566646192
 20
4431.705230948842
 30
0.0
 11
10831.08566646192
 21
4412.305230948841
 31
0.0
  0
LINE
  5
18D39
330
747D
100
AcDbEntity
  8
部品1
 48
50.0
100
AcDbLine
 10
10792.58566646192
 20
4431.705230948842
 30
0.0
 11
10782.08566646192
 21
4412.305230948841
 31
0.0
  0
LINE
  5
18D3A
330
747D
100
AcDbEntity
  8
部品1
 48
50.0
100
AcDbLine
 10
10792.58566646192
 20
4431.705230948842
 30
0.0
 11
10820.58566646192
 21
4431.705230948842
 31
0.0
  0
LINE
  5
18D3B
330
747D
100
AcDbEntity
  8
部品1
 48
50.0
100
AcDbLine
 10
10865.58566646192
 20
4431.705230948842
 30
0.0
 11
10855.08566646192
 21
4412.305230948841
 31
0.0
  0
LINE
  5
18D3C
330
747D
100
AcDbEntity
  8
部品1
 48
50.0
100
AcDbLine
 10
10893.58566646192
 20
4431.705230948842
 30
0.0
 11
10904.08566646192
 21
4412.305230948841
 31
0.0
  0
LINE
  5
18D3D
330
747D
100
AcDbEntity
  8
部品1
 48
50.0
100
AcDbLine
 10
10865.58566646192
 20
4431.705230948842
 30
0.0
 11
10893.58566646192
 21
4431.705230948842
 31
0.0
  0
LINE
  5
18D3E
330
747D
100
AcDbEntity
  8
部品1
100
AcDbLine
 10
10819.08566646193
 20
4431.705230948838
 30
0.0
 11
10819.08566646193
 21
4334.294163440267
 31
0.0
  0
LINE
  5
18D3F
330
747D
100
AcDbEntity
  8
部品1
100
AcDbLine
 10
10794.08566646193
 20
4431.705230948838
 30
0.0
 11
10794.08566646193
 21
4334.294163440267
 31
0.0
  0
LINE
  5
18D40
330
747D
100
AcDbEntity
  8
部品1
100
AcDbLine
 10
10867.08566646193
 20
4431.705230948838
 30
0.0
 11
10867.08566646193
 21
4334.294163440267
 31
0.0
  0
LINE
  5
18D41
330
747D
100
AcDbEntity
  8
部品1
100
AcDbLine
 10
10892.08566646193
 20
4431.705230948838
 30
0.0
 11
10892.08566646193
 21
4334.294163440267
 31
0.0
  0
LINE
  5
18D42
330
747D
100
AcDbEntity
  8
部品1
100
AcDbLine
 10
11015.58566646192
 20
4412.305230948823
 30
0.0
 11
10904.08566646193
 21
4412.305230948823
 31
0.0
  0
DIMENSION
  5
18D43
330
747D
100
AcDbEntity
  8
寸法
 48
50.0
100
AcDbDimension
  2
*D29
 10
11519.08566646193
 20
4835.798400279824
 30
0.0
 11
11882.57094783616
 21
4835.798400279824
 31
0.0
 70
   160
 71
     5
 42
50.0
  3
INABA_S40G
100
AcDbAlignedDimension
 13
11569.08566646193
 23
4436.705230940354
 33
0.0
 14
11519.08566646193
 24
4436.705230940357
 34
0.0
100
AcDbRotatedDimension
  0
LINE
  5
18D44
330
747D
100
AcDbEntity
  8
部品1
100
AcDbLine
 10
11455.08566646191
 20
4431.705230948813
 30
0.0
 11
11455.08566646191
 21
4334.294163440248
 31
0.0
  0
LINE
  5
18D45
330
747D
100
AcDbEntity
  8
部品1
100
AcDbLine
 10
11473.08566646191
 20
4431.705230948824
 30
0.0
 11
11473.08566646191
 21
4334.294163440248
 31
0.0
  0
LINE
  5
18D46
330
747D
100
AcDbEntity
  8
部品1
 48
50.0
100
AcDbLine
 10
11452.08566646192
 20
4431.705230948824
 30
0.0
 11
11476.08566646192
 21
4431.705230948824
 31
0.0
  0
LINE
  5
18D47
330
747D
100
AcDbEntity
  8
部品1
 48
50.0
100
AcDbLine
 10
11524.15629445513
 20
4381.705230940351
 30
0.0
 11
11562.09962264471
 21
4381.705230940351
 31
0.0
  0
ARC
  5
18D48
330
747D
100
AcDbEntity
  8
部品1
100
AcDbCircle
 10
11567.12652402163
 20
4354.375348260941
 30
0.0
 40
0.7
100
AcDbArc
 50
277.2868405166456
 51
356.3813705198622
  0
ARC
  5
18D49
330
747D
100
AcDbEntity
  8
部品1
100
AcDbCircle
 10
11567.59582014682
 20
4350.705230940351
 30
0.0
 40
3.0
100
AcDbArc
 50
90.0
 51
176.3813705198622
  0
LINE
  5
18D4A
330
747D
100
AcDbEntity
  8
部品1
100
AcDbLine
 10
11564.60180136802
 20
4350.894576001463
 30
0.0
 11
11559.85470835586
 21
4275.83116774668
 31
0.0
  0
ARC
  5
18D4B
330
747D
100
AcDbEntity
  8
部品1
100
AcDbCircle
 10
11559.15610397414
 20
4275.875348260941
 30
0.0
 40
0.7
100
AcDbArc
 50
277.2868405166456
 51
356.3813705198622
  0
ARC
  5
18D4C
330
747D
100
AcDbEntity
  8
部品1
100
AcDbCircle
 10
11559.62540009934
 20
4272.205230940351
 30
0.0
 40
3.0
100
AcDbArc
 50
90.0
 51
176.3813705198622
  0
ARC
  5
18D4D
330
747D
100
AcDbEntity
  8
部品1
100
AcDbCircle
 10
11548.97301179874
 20
4262.205230940351
 30
0.0
 40
7.0
100
AcDbArc
 50
270.0
 51
356.3813705198622
  0
ARC
  5
18D4E
330
747D
100
AcDbEntity
  8
部品1
100
AcDbCircle
 10
11562.09962264471
 20
4374.705230940351
 30
0.0
 40
7.0
100
AcDbArc
 50
356.3813705198622
 51
90.0
  0
LINE
  5
18D4F
330
747D
100
AcDbEntity
  8
部品1
100
AcDbLine
 10
11555.95905561595
 20
4261.763425797762
 30
0.0
 11
11556.63138132053
 21
4272.394576001462
 31
0.0
  0
LINE
  5
18D50
330
747D
100
AcDbEntity
  8
部品1
100
AcDbLine
 10
11567.82512840335
 20
4354.331167746681
 30
0.0
 11
11569.08566646192
 21
4374.263425797763
 31
0.0
  0
LINE
  5
18D51
330
747D
100
AcDbEntity
  8
部品1
100
AcDbLine
 10
11524.15629445513
 20
4381.705230940351
 30
0.0
 11
11562.09962264471
 21
4381.705230940351
 31
0.0
  0
ARC
  5
18D52
330
747D
100
AcDbEntity
  8
部品1
100
AcDbCircle
 10
11524.15629445513
 20
4376.705230940351
 30
0.0
 40
5.0
100
AcDbArc
 50
90.0
 51
180.0
  0
LINE
  5
18D53
330
747D
100
AcDbEntity
  8
部品1
100
AcDbLine
 10
11519.15629445513
 20
4431.70523095725
 30
0.0
 11
11519.15629445512
 21
4334.294163440248
 31
0.0
  0
LINE
  5
18D54
330
747D
100
AcDbEntity
  8
部品1
 48
50.0
100
AcDbLine
 10
11569.08566646192
 20
4374.263425797763
 30
0.0
 11
11569.08566646192
 21
4429.263425814661
 31
0.0
  0
ARC
  5
18D55
330
747D
100
AcDbEntity
  8
部品1
100
AcDbCircle
 10
11524.15629445513
 20
4431.70523095725
 30
0.0
 40
5.0
100
AcDbArc
 50
90.0
 51
180.0
  0
LINE
  5
18D56
330
747D
100
AcDbEntity
  8
部品1
100
AcDbLine
 10
11524.15629445513
 20
4436.70523095725
 30
0.0
 11
11562.09962264471
 21
4436.70523095725
 31
0.0
  0
ARC
  5
18D57
330
747D
100
AcDbEntity
  8
部品1
100
AcDbCircle
 10
11562.09962264471
 20
4429.705230957249
 30
0.0
 40
7.0
100
AcDbArc
 50
356.3813705198622
 51
90.0
  0
LINE
  5
18D58
330
747D
100
AcDbEntity
  8
細線
 48
50.0
100
AcDbLine
 10
11536.5967563662
 20
4381.705230940351
 30
0.0
 11
11536.5967563662
 21
4255.205230940351
 31
0.0
  0
LINE
  5
18D59
330
747D
100
AcDbEntity
  8
細線
 48
50.0
100
AcDbLine
 10
11519.15629445513
 20
4353.677063688301
 30
0.0
 11
11567.21953573907
 21
4353.677063688308
 31
0.0
  0
LINE
  5
18D5A
330
747D
100
AcDbEntity
  8
部品1
 48
50.0
100
AcDbLine
 10
11452.08566646192
 20
4431.705230948824
 30
0.0
 11
11450.87432625573
 21
4422.305230948823
 31
0.0
  0
LINE
  5
18D5B
330
747D
100
AcDbEntity
  8
部品1
 48
50.0
100
AcDbLine
 10
11436.87432625573
 20
4422.305230948823
 30
0.0
 11
11450.87432625573
 21
4422.305230948823
 31
0.0
  0
LINE
  5
18D5C
330
747D
100
AcDbEntity
  8
部品1
 48
50.0
100
AcDbLine
 10
11436.87432625573
 20
4422.305230948823
 30
0.0
 11
11435.58566646192
 21
4412.305230948823
 31
0.0
  0
LINE
  5
18D5D
330
747D
100
AcDbEntity
  8
部品1
 48
50.0
100
AcDbLine
 10
11476.08566646192
 20
4431.705230948824
 30
0.0
 11
11478.58566646192
 21
4412.305230948823
 31
0.0
  0
LINE
  5
18D5E
330
747D
100
AcDbEntity
  8
部品1
100
AcDbLine
 10
11519.15629445513
 20
4412.305230948819
 30
0.0
 11
11478.58566646192
 21
4412.305230948819
 31
0.0
  0
LINE
  5
18D5F
330
747D
100
AcDbEntity
  8
部品1
100
AcDbLine
 10
11435.58566646192
 20
4412.305230948823
 30
0.0
 11
11324.08566646193
 21
4412.305230948823
 31
0.0
  0
LINE
  5
18D60
330
747D
100
AcDbEntity
  8
部品1
100
AcDbLine
 10
11312.08566646193
 20
4431.705230948838
 30
0.0
 11
11312.08566646193
 21
4334.294163440267
 31
0.0
  0
LINE
  5
18D61
330
747D
100
AcDbEntity
  8
部品1
100
AcDbLine
 10
11287.08566646193
 20
4431.705230948838
 30
0.0
 11
11287.08566646193
 21
4334.294163440267
 31
0.0
  0
LINE
  5
18D62
330
747D
100
AcDbEntity
  8
部品1
100
AcDbLine
 10
11214.08566646193
 20
4431.705230948838
 30
0.0
 11
11214.08566646193
 21
4334.294163440267
 31
0.0
  0
LINE
  5
18D63
330
747D
100
AcDbEntity
  8
部品1
100
AcDbLine
 10
11239.08566646193
 20
4431.705230948838
 30
0.0
 11
11239.08566646193
 21
4334.294163440267
 31
0.0
  0
LINE
  5
18D64
330
747D
100
AcDbEntity
  8
部品1
 48
50.0
100
AcDbLine
 10
11285.58566646192
 20
4431.705230948842
 30
0.0
 11
11313.58566646192
 21
4431.705230948842
 31
0.0
  0
LINE
  5
18D65
330
747D
100
AcDbEntity
  8
部品1
 48
50.0
100
AcDbLine
 10
11313.58566646192
 20
4431.705230948842
 30
0.0
 11
11324.08566646192
 21
4412.305230948841
 31
0.0
  0
LINE
  5
18D66
330
747D
100
AcDbEntity
  8
部品1
 48
50.0
100
AcDbLine
 10
11285.58566646192
 20
4431.705230948842
 30
0.0
 11
11275.08566646192
 21
4412.305230948841
 31
0.0
  0
LINE
  5
18D67
330
747D
100
AcDbEntity
  8
部品1
 48
50.0
100
AcDbLine
 10
11212.58566646192
 20
4431.705230948842
 30
0.0
 11
11240.58566646192
 21
4431.705230948842
 31
0.0
  0
LINE
  5
18D68
330
747D
100
AcDbEntity
  8
部品1
 48
50.0
100
AcDbLine
 10
11212.58566646192
 20
4431.705230948842
 30
0.0
 11
11202.08566646192
 21
4412.305230948841
 31
0.0
  0
LINE
  5
18D69
330
747D
100
AcDbEntity
  8
部品1
 48
50.0
100
AcDbLine
 10
11240.58566646192
 20
4431.705230948842
 30
0.0
 11
11251.08566646192
 21
4412.305230948841
 31
0.0
  0
LINE
  5
18D6A
330
747D
100
AcDbEntity
  8
部品1
100
AcDbLine
 10
11275.08566646192
 20
4412.305230948837
 30
0.0
 11
11251.08566646192
 21
4412.305230948837
 31
0.0
  0
LINE
  5
18D6B
330
747D
100
AcDbEntity
  8
部品1
100
AcDbLine
 10
11202.08566646192
 20
4412.305230948837
 30
0.0
 11
11058.58566646192
 21
4412.305230948837
 31
0.0
  0
LINE
  5
18D6C
330
747D
100
AcDbEntity
  8
部品1
 48
50.0
100
AcDbLine
 10
11056.08566646192
 20
4431.705230948838
 30
0.0
 11
11058.58566646192
 21
4412.305230948837
 31
0.0
  0
LINE
  5
18D6D
330
747D
100
AcDbEntity
  8
部品1
 48
50.0
100
AcDbLine
 10
11016.87432625574
 20
4422.305230948837
 30
0.0
 11
11015.58566646192
 21
4412.305230948837
 31
0.0
  0
LINE
  5
18D6E
330
747D
100
AcDbEntity
  8
部品1
 48
50.0
100
AcDbLine
 10
11016.87432625574
 20
4422.305230948837
 30
0.0
 11
11030.87432625574
 21
4422.305230948837
 31
0.0
  0
LINE
  5
18D6F
330
747D
100
AcDbEntity
  8
部品1
 48
50.0
100
AcDbLine
 10
11032.08566646192
 20
4431.705230948838
 30
0.0
 11
11030.87432625574
 21
4422.305230948837
 31
0.0
  0
LINE
  5
18D70
330
747D
100
AcDbEntity
  8
部品1
 48
50.0
100
AcDbLine
 10
11032.08566646192
 20
4431.705230948838
 30
0.0
 11
11056.08566646192
 21
4431.705230948838
 31
0.0
  0
LINE
  5
18D71
330
747D
100
AcDbEntity
  8
部品1
100
AcDbLine
 10
11053.08566646191
 20
4431.705230948838
 30
0.0
 11
11053.08566646191
 21
4334.294163440263
 31
0.0
  0
LINE
  5
18D72
330
747D
100
AcDbEntity
  8
部品1
100
AcDbLine
 10
11035.08566646191
 20
4431.705230948828
 30
0.0
 11
11035.08566646191
 21
4334.294163440263
 31
0.0
  0
LINE
  5
18D73
330
747D
100
AcDbEntity
  8
細線
 48
50.0
100
AcDbLine
 10
11386.58566646194
 20
4201.705230940351
 30
0.0
 11
11386.58566646194
 21
2111.705230940351
 31
0.0
  0
LINE
  5
18D74
330
747D
100
AcDbEntity
  8
細線
 48
50.0
100
AcDbLine
 10
11401.58566646194
 20
4201.705230940351
 30
0.0
 11
11401.58566646194
 21
2111.705230940351
 31
0.0
  0
LINE
  5
18D75
330
747D
100
AcDbEntity
  8
細線
 48
50.0
100
AcDbLine
 10
11261.58566646194
 20
4201.705230940351
 30
0.0
 11
11261.58566646194
 21
2111.705230940351
 31
0.0
  0
LINE
  5
18D76
330
747D
100
AcDbEntity
  8
細線
 48
50.0
100
AcDbLine
 10
11246.58566646194
 20
4201.705230940351
 30
0.0
 11
11246.58566646194
 21
2111.705230940351
 31
0.0
  0
LINE
  5
18D77
330
747D
100
AcDbEntity
  8
細線
 48
50.0
100
AcDbLine
 10
11106.58566646194
 20
4201.705230940351
 30
0.0
 11
11106.58566646194
 21
2111.705230940351
 31
0.0
  0
LINE
  5
18D78
330
747D
100
AcDbEntity
  8
細線
 48
50.0
100
AcDbLine
 10
11121.58566646194
 20
4201.705230940351
 30
0.0
 11
11121.58566646194
 21
2111.705230940351
 31
0.0
  0
LINE
  5
18D79
330
747D
100
AcDbEntity
  8
細線
 48
50.0
100
AcDbLine
 10
8866.585666461935
 20
4201.705230940351
 30
0.0
 11
8866.585666461935
 21
2111.705230940351
 31
0.0
  0
LINE
  5
18D7A
330
747D
100
AcDbEntity
  8
細線
 48
50.0
100
AcDbLine
 10
8881.585666461935
 20
4201.705230940351
 30
0.0
 11
8881.585666461935
 21
2111.705230940351
 31
0.0
  0
LINE
  5
18D7B
330
747D
100
AcDbEntity
  8
細線
 48
50.0
100
AcDbLine
 10
8741.585666461935
 20
4201.705230940351
 30
0.0
 11
8741.585666461935
 21
2111.705230940351
 31
0.0
  0
LINE
  5
18D7C
330
747D
100
AcDbEntity
  8
細線
 48
50.0
100
AcDbLine
 10
8726.585666461934
 20
4201.705230940351
 30
0.0
 11
8726.585666461934
 21
2111.705230940351
 31
0.0
  0
LINE
  5
18D7D
330
747D
100
AcDbEntity
  8
細線
 48
50.0
100
AcDbLine
 10
8586.585666461935
 20
4201.705230940351
 30
0.0
 11
8586.585666461935
 21
2111.705230940351
 31
0.0
  0
LINE
  5
18D7E
330
747D
100
AcDbEntity
  8
細線
 48
50.0
100
AcDbLine
 10
8601.585666461934
 20
4201.705230940351
 30
0.0
 11
8601.585666461934
 21
2111.705230940351
 31
0.0
  0
LINE
  5
18D7F
330
747D
100
AcDbEntity
  8
部品1
100
AcDbLine
 10
11462.58566646192
 20
8173.062580356688
 30
0.0
 11
8525.585666461926
 21
8173.062580356589
 31
0.0
  0
LINE
  5
18D80
330
747D
100
AcDbEntity
  8
部品1
100
AcDbLine
 10
8497.085666461915
 20
8173.062580356589
 30
0.0
 11
8469.085666461914
 21
8173.062580356589
 31
0.0
  0
LINE
  5
18D81
330
747D
100
AcDbEntity
  8
部品1
100
AcDbLine
 10
11491.08566646194
 20
8173.062580356717
 30
0.0
 11
11519.08566646194
 21
8173.062580356717
 31
0.0
  0
LINE
  5
18D82
330
747D
100
AcDbEntity
  8
破線
 48
5.0
100
AcDbLine
 10
11619.08566646193
 20
1961.705230940351
 30
0.0
 11
11619.08566646193
 21
1761.705230940351
 31
0.0
  0
LINE
  5
18D83
330
747D
100
AcDbEntity
  8
破線
 48
5.0
100
AcDbLine
 10
11619.08566646193
 20
1761.705230940351
 30
0.0
 11
11419.08566646193
 21
1761.705230940351
 31
0.0
  0
LINE
  5
18D84
330
747D
100
AcDbEntity
  8
破線
 48
5.0
100
AcDbLine
 10
11419.08566646193
 20
1961.705230940351
 30
0.0
 11
11419.08566646193
 21
1761.705230940351
 31
0.0
  0
LINE
  5
18D85
330
747D
100
AcDbEntity
  8
破線
 48
5.0
100
AcDbLine
 10
8359.085666461931
 20
1961.705230940351
 30
0.0
 11
8359.085666461931
 21
1761.705230940351
 31
0.0
  0
LINE
  5
18D86
330
747D
100
AcDbEntity
  8
破線
 48
5.0
100
AcDbLine
 10
8559.08566646193
 20
1761.705230940351
 30
0.0
 11
8359.085666461929
 21
1761.705230940351
 31
0.0
  0
LINE
  5
18D87
330
747D
100
AcDbEntity
  8
破線
 48
5.0
100
AcDbLine
 10
8559.08566646193
 20
1961.705230940351
 30
0.0
 11
8559.08566646193
 21
1761.705230940351
 31
0.0
  0
LINE
  5
19049
330
747D
100
AcDbEntity
  8
補助
  6
PHANTOM
 62
   230
 48
50.0
100
AcDbLine
 10
140.0
 20
0.0
 30
0.0
 11
139.9999999999995
 21
11409.6
 31
0.0
  0
MTEXT
  5
19176
330
747D
100
AcDbEntity
  8
寸法
 62
     7
 48
50.0
100
AcDbMText
 10
9254.188203555044
 20
9494.297398554001
 30
0.0
 40
96.0
 41
0.0
 71
     5
 72
     1
  1
棚 3段
  7
STYLE1
 73
     1
 44
1.0
1001
ACAD
1000
MTEXTBEGIN
1070
    73
1070
     1
1070
    44
1040
1.0
1070
    74
1070
     0
1000
MTEXTEND
  0
LINE
  5
192F2
330
747D
100
AcDbEntity
  8
部品1
 48
50.0
100
AcDbLine
 10
8991.085666461932
 20
3193.205230940354
 30
0.0
 11
9044.085666461933
 21
3193.205230940354
 31
0.0
  0
LINE
  5
19577
330
747D
100
AcDbEntity
  8
寸法
 48
50.0
100
AcDbLine
 10
9379.288672743756
 20
7056.099331925437
 30
0.0
 11
9327.882664833653
 21
7056.099331925437
 31
0.0
  0
LINE
  5
19578
330
747D
100
AcDbEntity
  8
寸法
 48
50.0
100
AcDbLine
 10
9327.882664833653
 20
7056.099331925437
 30
0.0
 11
9327.882664833653
 21
7087.409490577603
 31
0.0
  0
LINE
  5
19579
330
747D
100
AcDbEntity
  8
寸法
 48
50.0
100
AcDbLine
 10
9327.882664833653
 20
7087.409490577603
 30
0.0
 11
9298.12133284223
 21
7087.409490577603
 31
0.0
  0
LINE
  5
1957A
330
747D
100
AcDbEntity
  8
寸法
 48
50.0
100
AcDbLine
 10
9298.12133284223
 20
7087.409490577603
 30
0.0
 11
9353.585668788705
 21
7124.988941506214
 31
0.0
  0
LINE
  5
1957B
330
747D
100
AcDbEntity
  8
寸法
 48
50.0
100
AcDbLine
 10
9409.050004735179
 20
7087.409490577603
 30
0.0
 11
9353.585668788705
 21
7124.988941506214
 31
0.0
  0
LINE
  5
1957C
330
747D
100
AcDbEntity
  8
寸法
 48
50.0
100
AcDbLine
 10
9379.288672743756
 20
7087.409490577603
 30
0.0
 11
9409.050004735179
 21
7087.409490577603
 31
0.0
  0
LINE
  5
1957D
330
747D
100
AcDbEntity
  8
寸法
 48
50.0
100
AcDbLine
 10
9379.288672743756
 20
7056.099331925437
 30
0.0
 11
9379.288672743756
 21
7087.409490577603
 31
0.0
  0
LINE
  5
1957E
330
747D
100
AcDbEntity
  8
寸法
 48
50.0
100
AcDbLine
 10
9327.882664833653
 20
7056.099331925437
 30
0.0
 11
9379.288672743756
 21
7056.099331925437
 31
0.0
  0
LINE
  5
1957F
330
747D
100
AcDbEntity
  8
寸法
 48
50.0
100
AcDbLine
 10
9658.454207020614
 20
7113.24492268026
 30
0.0
 11
9658.454207020614
 21
7059.58128809847
 31
0.0
  0
LINE
  5
19580
330
747D
100
AcDbEntity
  8
寸法
 48
50.0
100
AcDbLine
 10
9747.738425616034
 20
7089.321288410774
 30
0.0
 11
9658.454207020614
 21
7113.24492268026
 31
0.0
  0
LINE
  5
19581
330
747D
100
AcDbEntity
  8
寸法
 48
50.0
100
AcDbLine
 10
9528.58648544031
 20
7089.321288410774
 30
0.0
 11
9747.738425616034
 21
7089.321288410774
 31
0.0
  0
LINE
  5
19582
330
747D
100
AcDbEntity
  8
細線
 48
50.0
100
AcDbLine
 10
10405.08566646191
 20
7254.5626953053
 30
0.0
 11
11032.08566646191
 21
7254.5626953053
 31
0.0
  0
LINE
  5
19583
330
747D
100
AcDbEntity
  8
細線
 48
50.0
100
AcDbLine
 10
9751.085671115502
 20
7220.853926751225
 30
0.0
 11
11032.08566646191
 21
7220.853926751225
 31
0.0
  0
LINE
  5
19584
330
747D
100
AcDbEntity
  8
細線
 48
50.0
100
AcDbLine
 10
9710.085671115505
 20
7250.258834747477
 30
0.0
 11
8956.085666461911
 21
7250.258834747474
 31
0.0
  0
LINE
  5
19585
330
747D
100
AcDbEntity
  8
細線
100
AcDbLine
 10
10807.83565704545
 20
7274.062595270308
 30
0.0
 11
10810.16719656726
 21
7279.06259791027
 31
0.0
  0
LINE
  5
19586
330
747D
100
AcDbEntity
  8
細線
100
AcDbLine
 10
10877.83566646191
 20
7274.062580356575
 30
0.0
 11
10875.50411998572
 21
7279.062597910256
 31
0.0
  0
LINE
  5
19587
330
747D
100
AcDbEntity
  8
細線
100
AcDbLine
 10
10875.50411998572
 20
7279.062597910256
 30
0.0
 11
10810.16719656725
 21
7279.06259791024
 31
0.0
  0
LINE
  5
19588
330
747D
100
AcDbEntity
  8
細線
100
AcDbLine
 10
10735.50411998572
 20
7279.062597910256
 30
0.0
 11
10670.16719656725
 21
7279.06259791024
 31
0.0
  0
LINE
  5
19589
330
747D
100
AcDbEntity
  8
細線
100
AcDbLine
 10
10737.83566646191
 20
7274.062580356575
 30
0.0
 11
10735.50411998572
 21
7279.062597910256
 31
0.0
  0
LINE
  5
1958A
330
747D
100
AcDbEntity
  8
細線
100
AcDbLine
 10
10667.83565704545
 20
7274.062595270308
 30
0.0
 11
10670.16719656726
 21
7279.06259791027
 31
0.0
  0
LINE
  5
1958B
330
747D
100
AcDbEntity
  8
細線
100
AcDbLine
 10
10527.83566646191
 20
7274.062580356575
 30
0.0
 11
10530.16720598372
 21
7279.062582996536
 31
0.0
  0
LINE
  5
1958C
330
747D
100
AcDbEntity
  8
細線
100
AcDbLine
 10
10597.83567587837
 20
7274.062565442839
 30
0.0
 11
10595.50412940218
 21
7279.06258299652
 31
0.0
  0
LINE
  5
1958D
330
747D
100
AcDbEntity
  8
細線
100
AcDbLine
 10
10595.50412940218
 20
7279.06258299652
 30
0.0
 11
10530.16720598371
 21
7279.062582996506
 31
0.0
  0
LINE
  5
1958E
330
747D
100
AcDbEntity
  8
細線
100
AcDbLine
 10
10300.25415065102
 20
7245.062619693903
 30
0.0
 11
10234.91722723254
 21
7245.062619693888
 31
0.0
  0
LINE
  5
1958F
330
747D
100
AcDbEntity
  8
細線
100
AcDbLine
 10
10302.5856971272
 20
7240.062602140222
 30
0.0
 11
10300.25415065102
 21
7245.062619693903
 31
0.0
  0
LINE
  5
19590
330
747D
100
AcDbEntity
  8
細線
100
AcDbLine
 10
10232.58568771075
 20
7240.062617053957
 30
0.0
 11
10234.91722723256
 21
7245.062619693918
 31
0.0
  0
LINE
  5
19591
330
747D
100
AcDbEntity
  8
細線
 48
50.0
100
AcDbLine
 10
10073.96904570992
 20
7258.333443509655
 30
0.0
 11
10079.72456329259
 21
7240.062592219167
 31
0.0
  0
LINE
  5
19592
330
747D
100
AcDbEntity
  8
細線
 48
50.0
100
AcDbLine
 10
10063.04059722949
 20
7258.333443509655
 30
0.0
 11
10073.96904570992
 21
7258.333443509655
 31
0.0
  0
ARC
  5
19593
330
747D
100
AcDbEntity
  8
細線
 48
50.0
100
AcDbCircle
 10
10057.58624117217
 20
7259.833443509655
 30
0.0
 40
5.0
100
AcDbArc
 50
204.6243183521304
 51
335.3756816478695
  0
ARC
  5
19594
330
747D
100
AcDbEntity
  8
細線
 48
50.0
100
AcDbCircle
 10
10063.04059722949
 20
7257.333443509655
 30
0.0
 40
1.0
100
AcDbArc
 50
90.0
 51
155.3756816478695
  0
ARC
  5
19595
330
747D
100
AcDbEntity
  8
細線
 48
50.0
100
AcDbCircle
 10
10052.13188511486
 20
7257.333443509655
 30
0.0
 40
1.0
100
AcDbArc
 50
24.62431835213048
 51
90.0
  0
LINE
  5
19596
330
747D
100
AcDbEntity
  8
細線
 48
50.0
100
AcDbLine
 10
10041.20343663442
 20
7258.333443509655
 30
0.0
 11
10052.13188511486
 21
7258.333443509655
 31
0.0
  0
LINE
  5
19597
330
747D
100
AcDbEntity
  8
細線
 48
50.0
100
AcDbLine
 10
10035.44791905176
 20
7240.06259221916
 30
0.0
 11
10041.20343663442
 21
7258.333443509655
 31
0.0
  0
LINE
  5
19598
330
747D
100
AcDbEntity
  8
細線
100
AcDbLine
 10
10092.58568894179
 20
7240.062589584965
 30
0.0
 11
10094.9172284636
 21
7245.062592224927
 31
0.0
  0
LINE
  5
19599
330
747D
100
AcDbEntity
  8
細線
100
AcDbLine
 10
10162.58569835825
 20
7240.062574671231
 30
0.0
 11
10160.25415188206
 21
7245.062592224911
 31
0.0
  0
LINE
  5
1959A
330
747D
100
AcDbEntity
  8
細線
100
AcDbLine
 10
10160.25415188206
 20
7245.062592224911
 30
0.0
 11
10094.91722846359
 21
7245.062592224897
 31
0.0
  0
LINE
  5
1959B
330
747D
100
AcDbEntity
  8
細線
100
AcDbLine
 10
10020.25412351754
 20
7245.062592219132
 30
0.0
 11
9954.917200099067
 21
7245.062592219118
 31
0.0
  0
LINE
  5
1959C
330
747D
100
AcDbEntity
  8
細線
100
AcDbLine
 10
10022.58566999373
 20
7240.062574665451
 30
0.0
 11
10020.25412351754
 21
7245.062592219132
 31
0.0
  0
LINE
  5
1959D
330
747D
100
AcDbEntity
  8
細線
100
AcDbLine
 10
9952.585661808313
 20
7240.06259221916
 30
0.0
 11
9954.917200099082
 21
7245.062592219146
 31
0.0
  0
LINE
  5
1959E
330
747D
100
AcDbEntity
  8
細線
100
AcDbLine
 10
9812.585697127206
 20
7240.06260040653
 30
0.0
 11
9814.917235417974
 21
7245.062600406516
 31
0.0
  0
LINE
  5
1959F
330
747D
100
AcDbEntity
  8
細線
100
AcDbLine
 10
9882.585705312623
 20
7240.062582852821
 30
0.0
 11
9880.254158836436
 21
7245.062600406498
 31
0.0
  0
LINE
  5
195A0
330
747D
100
AcDbEntity
  8
細線
100
AcDbLine
 10
9880.254158836436
 20
7245.062600406498
 30
0.0
 11
9814.91723541796
 21
7245.062600406487
 31
0.0
  0
LINE
  5
195A1
330
747D
100
AcDbEntity
  8
細線
100
AcDbLine
 10
9441.085662930085
 20
7206.062772087243
 30
0.0
 11
9443.417201220853
 21
7211.062772087228
 31
0.0
  0
LINE
  5
195A2
330
747D
100
AcDbEntity
  8
細線
100
AcDbLine
 10
9511.0856711155
 20
7206.06275453353
 30
0.0
 11
9508.754124639315
 21
7211.062772087207
 31
0.0
  0
LINE
  5
195A3
330
747D
100
AcDbEntity
  8
細線
100
AcDbLine
 10
9508.754124639315
 20
7211.062772087207
 30
0.0
 11
9443.417201220842
 21
7211.0627720872
 31
0.0
  0
LINE
  5
195A4
330
747D
100
AcDbEntity
  8
細線
100
AcDbLine
 10
9648.754124639314
 20
7211.062772087207
 30
0.0
 11
9583.417201220843
 21
7211.0627720872
 31
0.0
  0
LINE
  5
195A5
330
747D
100
AcDbEntity
  8
細線
100
AcDbLine
 10
9651.085671115502
 20
7206.06275453353
 30
0.0
 11
9648.754124639314
 21
7211.062772087207
 31
0.0
  0
LINE
  5
195A6
330
747D
100
AcDbEntity
  8
細線
100
AcDbLine
 10
9581.085662930085
 20
7206.062772087243
 30
0.0
 11
9583.417201220852
 21
7211.062772087228
 31
0.0
  0
LINE
  5
195A7
330
747D
100
AcDbEntity
  8
細線
100
AcDbLine
 10
9368.754124639314
 20
7211.062772087207
 30
0.0
 11
9303.417201220842
 21
7211.062772087196
 31
0.0
  0
LINE
  5
195A8
330
747D
100
AcDbEntity
  8
細線
100
AcDbLine
 10
9371.085671115501
 20
7206.06275453353
 30
0.0
 11
9368.754124639314
 21
7211.062772087207
 31
0.0
  0
LINE
  5
195A9
330
747D
100
AcDbEntity
  8
細線
100
AcDbLine
 10
9301.085662930084
 20
7206.06277208724
 30
0.0
 11
9303.417201220852
 21
7211.062772087226
 31
0.0
  0
LINE
  5
195AA
330
747D
100
AcDbEntity
  8
細線
100
AcDbLine
 10
9161.0856711155
 20
7206.062772087243
 30
0.0
 11
9163.417209406269
 21
7211.062772087228
 31
0.0
  0
LINE
  5
195AB
330
747D
100
AcDbEntity
  8
細線
100
AcDbLine
 10
9231.085679300916
 20
7206.06275453353
 30
0.0
 11
9228.754132824731
 21
7211.062772087207
 31
0.0
  0
LINE
  5
195AC
330
747D
100
AcDbEntity
  8
細線
100
AcDbLine
 10
9228.754132824731
 20
7211.062772087207
 30
0.0
 11
9163.417209406258
 21
7211.0627720872
 31
0.0
  0
ARC
  5
195AD
330
747D
100
AcDbEntity
  8
部品1
 48
0.01
100
AcDbCircle
 10
9116.585559863166
 20
7205.061649902171
 30
0.0
 40
0.5
100
AcDbArc
 50
270.0
 51
0.0
  0
LINE
  5
195AE
330
747D
100
AcDbEntity
  8
部品1
 48
0.01
100
AcDbLine
 10
9117.085559863166
 20
7206.061649902171
 30
0.0
 11
9117.085559863166
 21
7205.061649902171
 31
0.0
  0
LINE
  5
195AF
330
747D
100
AcDbEntity
  8
部品1
 48
0.01
100
AcDbLine
 10
9117.085559863166
 20
7206.061649902171
 30
0.0
 11
9117.085559863166
 21
7205.061649902171
 31
0.0
  0
LINE
  5
195B0
330
747D
100
AcDbEntity
  8
部品1
 48
0.01
100
AcDbLine
 10
9116.585559863166
 20
7204.561649902171
 30
0.0
 11
9109.973054433101
 21
7204.561649902171
 31
0.0
  0
ARC
  5
195B1
330
747D
100
AcDbEntity
  8
部品1
100
AcDbCircle
 10
9110.041403985881
 20
7205.561649902171
 30
0.0
 40
1.0
100
AcDbArc
 50
160.5287793655778
 51
270.0
  0
ARC
  5
195B2
330
747D
100
AcDbEntity
  8
部品1
100
AcDbCircle
 10
9084.585559863166
 20
7214.561649902171
 30
0.0
 40
26.0
100
AcDbArc
 50
340.5287793655779
 51
0.0
  0
LINE
  5
195B3
330
747D
100
AcDbEntity
  8
部品1
100
AcDbLine
 10
9110.585559863165
 20
7214.561649902171
 30
0.0
 11
9110.585559863165
 21
7219.561649902171
 31
0.0
  0
ARC
  5
195B4
330
747D
100
AcDbEntity
  8
部品1
 48
0.01
100
AcDbCircle
 10
9108.585559863167
 20
7219.561649902171
 30
0.0
 40
2.0
100
AcDbArc
 50
0.0
 51
90.0
  0
ARC
  5
195B5
330
747D
100
AcDbEntity
  8
部品1
100
AcDbCircle
 10
9106.977168238357
 20
7218.56164990217
 30
0.0
 40
3.0
100
AcDbArc
 50
90.0
 51
141.6069559807873
  0
LINE
  5
195B6
330
747D
100
AcDbEntity
  8
部品1
 48
0.01
100
AcDbLine
 10
9108.585559863167
 20
7221.56164990217
 30
0.0
 11
9106.977168238357
 21
7221.56164990217
 31
0.0
  0
ARC
  5
195B7
330
747D
100
AcDbEntity
  8
部品1
100
AcDbCircle
 10
9088.514845648894
 20
7217.861649902174
 30
0.0
 40
3.0
100
AcDbArc
 50
254.0576313943215
 51
270.0
  0
ARC
  5
195B8
330
747D
100
AcDbEntity
  8
部品1
100
AcDbCircle
 10
9095.656274077438
 20
7217.861649902174
 30
0.0
 40
3.0
100
AcDbArc
 50
270.0
 51
285.9423686056786
  0
LINE
  5
195B9
330
747D
100
AcDbEntity
  8
部品1
100
AcDbLine
 10
9095.656274077438
 20
7214.861649902174
 30
0.0
 11
9088.514845648894
 21
7214.861649902174
 31
0.0
  0
ARC
  5
195BA
330
747D
100
AcDbEntity
  8
部品1
100
AcDbCircle
 10
9092.085559863166
 20
7230.361649902175
 30
0.0
 40
16.0
100
AcDbArc
 50
285.9423686056786
 51
321.6069559807873
  0
LINE
  5
195BB
330
747D
100
AcDbEntity
  8
部品1
 48
0.01
100
AcDbLine
 10
9075.585559863167
 20
7221.56164990217
 30
0.0
 11
9077.193951487975
 21
7221.56164990217
 31
0.0
  0
ARC
  5
195BC
330
747D
100
AcDbEntity
  8
部品1
100
AcDbCircle
 10
9077.193951487975
 20
7218.56164990217
 30
0.0
 40
3.0
100
AcDbArc
 50
38.39304401921267
 51
90.0
  0
ARC
  5
195BD
330
747D
100
AcDbEntity
  8
部品1
100
AcDbCircle
 10
9092.085559863166
 20
7230.361649902175
 30
0.0
 40
16.0
100
AcDbArc
 50
218.3930440192126
 51
254.0576313943215
  0
LINE
  5
195BE
330
747D
100
AcDbEntity
  8
部品1
100
AcDbLine
 10
9073.585559863166
 20
7214.561649902171
 30
0.0
 11
9073.585559863166
 21
7219.561649902171
 31
0.0
  0
ARC
  5
195BF
330
747D
100
AcDbEntity
  8
部品1
 48
0.01
100
AcDbCircle
 10
9075.585559863167
 20
7219.561649902171
 30
0.0
 40
2.0
100
AcDbArc
 50
90.0
 51
180.0
  0
ARC
  5
195C0
330
747D
100
AcDbEntity
  8
部品1
100
AcDbCircle
 10
9099.585559863166
 20
7214.561649902171
 30
0.0
 40
26.0
100
AcDbArc
 50
180.0
 51
199.4712206344221
  0
ARC
  5
195C1
330
747D
100
AcDbEntity
  8
部品1
 48
0.01
100
AcDbCircle
 10
9067.585559863166
 20
7205.061649902171
 30
0.0
 40
0.5
100
AcDbArc
 50
180.0
 51
270.0
  0
LINE
  5
195C2
330
747D
100
AcDbEntity
  8
部品1
 48
0.01
100
AcDbLine
 10
9067.585559863166
 20
7204.561649902171
 30
0.0
 11
9074.129715740451
 21
7204.561649902171
 31
0.0
  0
LINE
  5
195C3
330
747D
100
AcDbEntity
  8
部品1
 48
0.01
100
AcDbLine
 10
9067.085559863166
 20
7206.061649902171
 30
0.0
 11
9067.085559863166
 21
7205.061649902171
 31
0.0
  0
ARC
  5
195C4
330
747D
100
AcDbEntity
  8
部品1
100
AcDbCircle
 10
9074.129715740451
 20
7205.561649902171
 30
0.0
 40
1.0
100
AcDbArc
 50
270.0
 51
19.47122063442214
  0
LINE
  5
195C5
330
747D
100
AcDbEntity
  8
細線
100
AcDbLine
 10
9112.585559863173
 20
7224.061649902174
 30
0.0
 11
9071.585559863173
 21
7224.061649902167
 31
0.0
  0
LINE
  5
195C6
330
747D
100
AcDbEntity
  8
細線
100
AcDbLine
 10
9071.585559863173
 20
7224.061649902167
 30
0.0
 11
9071.585559863173
 21
7206.061649902149
 31
0.0
  0
LINE
  5
195C7
330
747D
100
AcDbEntity
  8
細線
100
AcDbLine
 10
9112.585559863173
 20
7224.061649902174
 30
0.0
 11
9112.585559863173
 21
7206.061649902149
 31
0.0
  0
LINE
  5
195C8
330
747D
100
AcDbEntity
  8
細線
100
AcDbLine
 10
8956.085666461911
 20
7210.062580356574
 30
0.0
 11
8956.085666461911
 21
7206.062580356622
 31
0.0
  0
DIMENSION
  5
195C9
330
747D
100
AcDbEntity
  8
寸法
 48
50.0
100
AcDbDimension
  2
*D30
 10
10222.08566646191
 20
6558.75136394988
 30
0.0
 11
9619.102266410468
 21
6558.75136394988
 31
0.0
 70
   160
  1
有効開口部間口\P<>
 71
     5
 42
1266.0
  3
INABA_S40
100
AcDbAlignedDimension
 13
8956.085666461911
 23
7201.062580356574
 33
0.0
 14
10222.08566646191
 24
7201.062580356574
 34
0.0
100
AcDbRotatedDimension
1001
ACAD
1000
DSTYLE
1002
{
1070
    41
1040
0.5
1070
    44
1040
1.0
1070
   147
1040
0.8
1070
   271
1070
     2
1070
   272
1070
     2
1070
   289
1070
     3
1070
   340
1005
F706
1070
   343
1005
18567
1070
   344
1005
18567
1002
}
  0
LINE
  5
195CA
330
747D
100
AcDbEntity
  8
部品1
100
AcDbLine
 10
11044.08566646191
 20
7278.062580356574
 30
0.0
 11
11071.08566646191
 21
7278.062580356574
 31
0.0
  0
LINE
  5
195CC
330
747D
100
AcDbEntity
  8
部品1
100
AcDbLine
 10
11071.08566646191
 20
7201.062580356574
 30
0.0
 11
11071.08566646191
 21
7278.062580356574
 31
0.0
  0
LINE
  5
195CD
330
747D
100
AcDbEntity
  8
部品1
100
AcDbLine
 10
11032.08566646191
 20
7274.062580356575
 30
0.0
 11
11044.08566646191
 21
7274.062580356575
 31
0.0
  0
LINE
  5
195CE
330
747D
100
AcDbEntity
  8
部品1
100
AcDbLine
 10
11041.08566646191
 20
7210.062580356574
 30
0.0
 11
11041.08566646191
 21
7201.062580356574
 31
0.0
  0
LINE
  5
195CF
330
747D
100
AcDbEntity
  8
部品1
100
AcDbLine
 10
11032.08566646191
 20
7210.062580356574
 30
0.0
 11
11041.08566646191
 21
7210.062580356574
 31
0.0
  0
LINE
  5
195D0
330
747D
100
AcDbEntity
  8
部品1
100
AcDbLine
 10
11032.08566646191
 20
7274.062580356575
 30
0.0
 11
11032.08566646191
 21
7210.062580356574
 31
0.0
  0
LINE
  5
195D1
330
747D
100
AcDbEntity
  8
部品1
100
AcDbLine
 10
11044.08566646191
 20
7305.062580356575
 30
0.0
 11
11044.08566646191
 21
7274.062580356575
 31
0.0
  0
LINE
  5
195D2
330
747D
100
AcDbEntity
  8
部品1
100
AcDbLine
 10
8956.085666461911
 20
7274.062580356575
 30
0.0
 11
8944.085666461912
 21
7274.062580356575
 31
0.0
  0
LINE
  5
195D3
330
747D
100
AcDbEntity
  8
部品1
100
AcDbLine
 10
8917.085666461911
 20
7278.062580356574
 30
0.0
 11
8944.085666461912
 21
7278.062580356574
 31
0.0
  0
LINE
  5
195D4
330
747D
100
AcDbEntity
  8
部品1
100
AcDbLine
 10
8947.085666461912
 20
7210.062580356574
 30
0.0
 11
8947.085666461912
 21
7201.062580356574
 31
0.0
  0
LINE
  5
195D5
330
747D
100
AcDbEntity
  8
部品1
100
AcDbLine
 10
8956.085666461911
 20
7210.062580356574
 30
0.0
 11
8947.085666461912
 21
7210.062580356574
 31
0.0
  0
LINE
  5
195D6
330
747D
100
AcDbEntity
  8
部品1
100
AcDbLine
 10
8947.085666461912
 20
7201.062580356574
 30
0.0
 11
8917.085666461911
 21
7201.062580356574
 31
0.0
  0
LINE
  5
195D7
330
747D
100
AcDbEntity
  8
部品1
100
AcDbLine
 10
8917.085666461911
 20
7201.062580356574
 30
0.0
 11
8917.085666461911
 21
7278.062580356574
 31
0.0
  0
LINE
  5
195D8
330
747D
100
AcDbEntity
  8
部品1
100
AcDbLine
 10
8956.085666461911
 20
7274.062580356575
 30
0.0
 11
8956.085666461911
 21
7210.062580356574
 31
0.0
  0
LINE
  5
195D9
330
747D
100
AcDbEntity
  8
部品1
100
AcDbLine
 10
8944.085666461912
 20
7305.062580356571
 30
0.0
 11
8944.085666461912
 21
7274.062580356575
 31
0.0
  0
LINE
  5
195DA
330
747D
100
AcDbEntity
  8
部品1
100
AcDbLine
 10
8944.085666461912
 20
7305.062580356571
 30
0.0
 11
11044.08566646191
 21
7305.062580356575
 31
0.0
  0
LINE
  5
195DB
330
747D
100
AcDbEntity
  8
部品1
100
AcDbLine
 10
11041.08566646191
 20
7201.062580356574
 30
0.0
 11
11071.08566646191
 21
7201.062580356574
 31
0.0
  0
LINE
  5
195DC
330
747D
100
AcDbEntity
  8
部品1
100
AcDbLine
 10
8947.085666461912
 20
7201.062580356574
 30
0.0
 11
11044.08566646191
 21
7201.062580356574
 31
0.0
  0
LINE
  5
195DD
330
747D
100
AcDbEntity
  8
細線
  6
Continuous
 62
     5
100
AcDbLine
 10
10323.08566646191
 20
7240.062580356571
 30
0.0
 11
10323.08566646191
 21
7240.062580356571
 31
0.0
  0
LINE
  5
195DE
330
747D
100
AcDbEntity
  8
細線
  6
Continuous
 62
     5
100
AcDbLine
 10
10315.5857017808
 20
7240.062590277628
 30
0.0
 11
10315.5857017808
 21
7240.062590277628
 31
0.0
  0
LINE
  5
195DF
330
747D
100
AcDbEntity
  8
細線
  6
Continuous
 62
     5
100
AcDbLine
 10
10309.58570178081
 20
7240.062590277628
 30
0.0
 11
10309.58570178081
 21
7240.062590277628
 31
0.0
  0
LINE
  5
195E0
330
747D
100
AcDbEntity
  8
細線
  6
Continuous
 62
     5
100
AcDbLine
 10
10377.08566646191
 20
7259.062580356571
 30
0.0
 11
10377.08566646191
 21
7259.062580356571
 31
0.0
  0
LINE
  5
195E1
330
747D
100
AcDbEntity
  8
細線
 48
50.0
100
AcDbLine
 10
8970.085671115505
 20
7226.662754533528
 30
0.0
 11
8970.085671115505
 21
7235.058904941168
 31
0.0
  0
LINE
  5
195E2
330
747D
100
AcDbEntity
  8
細線
 48
50.0
100
AcDbLine
 10
8970.085671115505
 20
7235.058904941168
 30
0.0
 11
8956.085666461911
 21
7235.058904941165
 31
0.0
  0
LINE
  5
195E3
330
747D
100
AcDbEntity
  8
細線
 48
50.0
100
AcDbLine
 10
9721.085671115503
 20
7223.212754533527
 30
0.0
 11
9721.085671115503
 21
7228.062754533531
 31
0.0
  0
LINE
  5
195E4
330
747D
100
AcDbEntity
  8
細線
 48
50.0
100
AcDbLine
 10
9721.085671115503
 20
7228.062754533531
 30
0.0
 11
9736.085671115501
 21
7228.062754533531
 31
0.0
  0
LINE
  5
195E5
330
747D
100
AcDbEntity
  8
細線
 48
50.0
100
AcDbLine
 10
9736.085671115501
 20
7228.062754533531
 30
0.0
 11
9736.085671115505
 21
7235.062754533529
 31
0.0
  0
LINE
  5
195E6
330
747D
100
AcDbEntity
  8
細線
 48
50.0
100
AcDbLine
 10
9736.085671115505
 20
7235.062754533529
 30
0.0
 11
9751.085671115502
 21
7235.062754533529
 31
0.0
  0
LINE
  5
195E7
330
747D
100
AcDbEntity
  8
細線
 48
50.0
100
AcDbLine
 10
9751.085671115502
 20
7235.062754533529
 30
0.0
 11
9751.085671115502
 21
7206.06275453353
 31
0.0
  0
LINE
  5
195E8
330
747D
100
AcDbEntity
  8
細線
 48
50.0
100
AcDbLine
 10
8947.085666461912
 20
7206.060088876999
 30
0.0
 11
9161.0856711155
 21
7206.062772087243
 31
0.0
  0
LINE
  5
195E9
330
747D
100
AcDbEntity
  8
細線
 48
50.0
100
AcDbLine
 10
9651.085671115502
 20
7206.06275453353
 30
0.0
 11
9751.085671115502
 21
7206.06275453353
 31
0.0
  0
LINE
  5
195EA
330
747D
100
AcDbEntity
  8
細線
 48
50.0
100
AcDbLine
 10
9371.085671115501
 20
7206.06275453353
 30
0.0
 11
9441.0856711155
 21
7206.06275453353
 31
0.0
  0
LINE
  5
195EB
330
747D
100
AcDbEntity
  8
細線
 48
50.0
100
AcDbLine
 10
9383.947636128031
 20
7206.06275453353
 30
0.0
 11
9389.703153710698
 21
7224.333605824025
 31
0.0
  0
LINE
  5
195EC
330
747D
100
AcDbEntity
  8
細線
 48
50.0
100
AcDbLine
 10
9389.703153710698
 20
7224.333605824025
 30
0.0
 11
9400.631602191131
 21
7224.33360582402
 31
0.0
  0
ARC
  5
195ED
330
747D
100
AcDbEntity
  8
細線
 48
50.0
100
AcDbCircle
 10
9400.631602191131
 20
7223.33360582402
 30
0.0
 40
1.0
100
AcDbArc
 50
24.62431835213048
 51
90.0
  0
ARC
  5
195EE
330
747D
100
AcDbEntity
  8
細線
 48
50.0
100
AcDbCircle
 10
9411.540314305765
 20
7223.33360582402
 30
0.0
 40
1.0
100
AcDbArc
 50
90.0
 51
155.3756816478695
  0
ARC
  5
195EF
330
747D
100
AcDbEntity
  8
細線
 48
50.0
100
AcDbCircle
 10
9406.085958248446
 20
7225.83360582402
 30
0.0
 40
5.0
100
AcDbArc
 50
204.6243183521304
 51
335.3756816478695
  0
LINE
  5
195F0
330
747D
100
AcDbEntity
  8
細線
 48
50.0
100
AcDbLine
 10
9411.540314305765
 20
7224.33360582402
 30
0.0
 11
9422.468762786198
 21
7224.333605824025
 31
0.0
  0
LINE
  5
195F1
330
747D
100
AcDbEntity
  8
細線
 48
50.0
100
AcDbLine
 10
9422.468762786198
 20
7224.333605824025
 30
0.0
 11
9428.224280368866
 21
7206.06275453353
 31
0.0
  0
LINE
  5
195F2
330
747D
100
AcDbEntity
  8
細線
 48
50.0
100
AcDbLine
 10
9721.085671115503
 20
7226.662754533528
 30
0.0
 11
8970.085671115505
 21
7226.662754533528
 31
0.0
  0
LINE
  5
195F3
330
747D
100
AcDbEntity
  8
細線
 48
50.0
100
AcDbLine
 10
9581.0856711155
 20
7206.06275453353
 30
0.0
 11
9511.0856711155
 21
7206.06275453353
 31
0.0
  0
LINE
  5
195F4
330
747D
100
AcDbEntity
  8
細線
100
AcDbLine
 10
9301.085671115501
 20
7206.06275453353
 30
0.0
 11
9231.085679300916
 21
7206.06275453353
 31
0.0
  0
LINE
  5
195F5
330
747D
100
AcDbEntity
  8
細線
 48
50.0
100
AcDbLine
 10
10375.08566180832
 20
7260.662798391397
 30
0.0
 11
9740.085671115501
 21
7260.662798391393
 31
0.0
  0
LINE
  5
195F6
330
747D
100
AcDbEntity
  8
細線
 48
50.0
100
AcDbLine
 10
9740.085671115501
 20
7257.558948799037
 30
0.0
 11
9740.085671115501
 21
7262.058948799037
 31
0.0
  0
LINE
  5
195F7
330
747D
100
AcDbEntity
  8
細線
 48
50.0
100
AcDbLine
 10
9740.085671115501
 20
7262.058948799037
 30
0.0
 11
9725.0856711155
 21
7262.058948799037
 31
0.0
  0
LINE
  5
195F8
330
747D
100
AcDbEntity
  8
細線
 48
50.0
100
AcDbLine
 10
9725.0856711155
 20
7262.058948799037
 30
0.0
 11
9725.0856711155
 21
7269.058948799036
 31
0.0
  0
LINE
  5
195F9
330
747D
100
AcDbEntity
  8
細線
 48
50.0
100
AcDbLine
 10
9725.0856711155
 20
7269.058948799036
 30
0.0
 11
9710.085671115505
 21
7269.058948799032
 31
0.0
  0
LINE
  5
195FA
330
747D
100
AcDbEntity
  8
細線
 48
50.0
100
AcDbLine
 10
9710.085671115505
 20
7269.058948799032
 30
0.0
 11
9710.085671115505
 21
7231.458720695922
 31
0.0
  0
LINE
  5
195FB
330
747D
100
AcDbEntity
  8
細線
 48
50.0
100
AcDbLine
 10
9710.085671115505
 20
7231.458720695922
 30
0.0
 11
9730.085678416678
 21
7231.458762245464
 31
0.0
  0
LINE
  5
195FC
330
747D
100
AcDbEntity
  8
細線
 48
50.0
100
AcDbLine
 10
9730.085633547735
 20
7240.062223881271
 30
0.0
 11
9730.085678416678
 21
7231.458762245464
 31
0.0
  0
LINE
  5
195FD
330
747D
100
AcDbEntity
  8
細線
 48
50.0
100
AcDbLine
 10
10375.08566180832
 20
7257.212798391396
 30
0.0
 11
10375.08566180832
 21
7262.062798391395
 31
0.0
  0
LINE
  5
195FE
330
747D
100
AcDbEntity
  8
細線
 48
50.0
100
AcDbLine
 10
10375.08566180832
 20
7262.062798391395
 30
0.0
 11
10390.08566180832
 21
7262.062798391395
 31
0.0
  0
LINE
  5
195FF
330
747D
100
AcDbEntity
  8
細線
 48
50.0
100
AcDbLine
 10
10390.08566180832
 20
7262.062798391395
 30
0.0
 11
10390.08567344229
 21
7269.062798391438
 31
0.0
  0
LINE
  5
19600
330
747D
100
AcDbEntity
  8
細線
 48
50.0
100
AcDbLine
 10
10390.08567344229
 20
7269.062798391438
 30
0.0
 11
10405.08567161283
 21
7269.062798391438
 31
0.0
  0
LINE
  5
19601
330
747D
100
AcDbEntity
  8
細線
 48
50.0
100
AcDbLine
 10
10405.08567161283
 20
7269.062798391438
 30
0.0
 11
10405.085661311
 21
7240.062592219165
 31
0.0
  0
LINE
  5
19602
330
747D
100
AcDbEntity
  8
細線
 48
50.0
100
AcDbLine
 10
10092.58568894179
 20
7240.06260040653
 30
0.0
 11
10022.5859410242
 21
7240.062594969193
 31
0.0
  0
LINE
  5
19603
330
747D
100
AcDbEntity
  8
細線
 48
50.0
100
AcDbLine
 10
9730.085633547735
 20
7240.062223881271
 30
0.0
 11
9741.318322902445
 21
7240.062406834418
 31
0.0
  0
ARC
  5
19604
330
747D
100
AcDbEntity
  8
細線
 48
50.0
100
AcDbCircle
 10
9747.900615209781
 20
7238.862570748032
 30
0.0
 40
1.8
100
AcDbArc
 50
270.0006665777295
 51
345.0005554812987
  0
LINE
  5
19605
330
747D
100
AcDbEntity
  8
細線
 48
50.0
100
AcDbLine
 10
9749.887048655862
 20
7239.32141120531
 30
0.0
 11
9749.639286213662
 21
7238.396713323203
 31
0.0
  0
LINE
  5
19606
330
747D
100
AcDbEntity
  8
細線
 48
50.0
100
AcDbLine
 10
9747.900636150937
 20
7237.062570748152
 30
0.0
 11
9744.270708732166
 21
7237.062528517673
 31
0.0
  0
ARC
  5
19607
330
747D
100
AcDbEntity
  8
細線
 48
50.0
100
AcDbCircle
 10
9744.270687791015
 20
7238.86252851755
 30
0.0
 40
1.8
100
AcDbArc
 50
195.0010443049394
 51
270.0006665777295
  0
LINE
  5
19608
330
747D
100
AcDbEntity
  8
細線
 48
50.0
100
AcDbLine
 10
9742.284260298758
 20
7239.321243485116
 30
0.0
 11
9742.53202979527
 21
7238.396622546535
 31
0.0
  0
ARC
  5
19609
330
747D
100
AcDbEntity
  8
細線
 48
50.0
100
AcDbCircle
 10
9741.318339190009
 20
7239.062406834553
 30
0.0
 40
1.0
100
AcDbArc
 50
15.00104430493943
 51
90.00093320877969
  0
LINE
  5
1960A
330
747D
100
AcDbEntity
  8
細線
 48
50.0
100
AcDbLine
 10
9750.852970010964
 20
7240.062601524823
 30
0.0
 11
9751.794730161869
 21
7240.062608098672
 31
0.0
  0
ARC
  5
1960B
330
747D
100
AcDbEntity
  8
細線
 48
50.0
100
AcDbCircle
 10
9750.85297699135
 20
7239.062601524849
 30
0.0
 40
1.0
100
AcDbArc
 50
90.0003999466794
 51
165.0005554812987
  0
LINE
  5
1960C
330
747D
100
AcDbEntity
  8
細線
 48
50.0
100
AcDbLine
 10
10302.58566180831
 20
7240.062592219165
 30
0.0
 11
10405.085661311
 21
7240.062592219165
 31
0.0
  0
LINE
  5
1960D
330
747D
100
AcDbEntity
  8
細線
 48
50.0
100
AcDbLine
 10
9812.585697127206
 20
7240.06260040653
 30
0.0
 11
9751.485635900287
 21
7240.062608098672
 31
0.0
  0
LINE
  5
1960E
330
747D
100
AcDbEntity
  8
細線
 48
50.0
100
AcDbLine
 10
10232.5856971272
 20
7240.062637247614
 30
0.0
 11
10162.58569017282
 21
7240.062592224946
 31
0.0
  0
LINE
  5
1960F
330
747D
100
AcDbEntity
  8
細線
 48
50.0
100
AcDbLine
 10
9952.585661808313
 20
7240.06259221916
 30
0.0
 11
9882.585644520439
 21
7240.062592219167
 31
0.0
  0
ARC
  5
19610
330
747D
100
AcDbEntity
  8
細線
 48
50.0
100
AcDbCircle
 10
10389.28566646192
 20
7273.262580356576
 30
0.0
 40
0.8
100
AcDbArc
 50
359.9997333689499
 51
89.99986668437072
  0
ARC
  5
19611
330
747D
100
AcDbEntity
  8
細線
 48
50.0
100
AcDbCircle
 10
10396.88567328701
 20
7273.262591525192
 30
0.0
 40
0.8
100
AcDbArc
 50
90.00014387753465
 51
179.9997333689498
  0
LINE
  5
19612
330
747D
100
AcDbEntity
  8
細線
 48
50.0
100
AcDbLine
 10
10389.28566832336
 20
7274.062580356575
 30
0.0
 11
10384.08566646191
 21
7274.062580356575
 31
0.0
  0
ARC
  5
19613
330
747D
100
AcDbEntity
  8
細線
 48
50.0
100
AcDbCircle
 10
10390.78566646191
 20
7271.762580356575
 30
0.0
 40
0.7
100
AcDbArc
 50
180.0
 51
270.0
  0
ARC
  5
19614
330
747D
100
AcDbEntity
  8
細線
 48
50.0
100
AcDbCircle
 10
10395.38566646191
 20
7271.762580356575
 30
0.0
 40
0.7
100
AcDbArc
 50
270.0
 51
0.0
  0
LINE
  5
19615
330
747D
100
AcDbEntity
  8
細線
 48
50.0
100
AcDbLine
 10
10396.08566646191
 20
7271.762580356575
 30
0.0
 11
10396.08567328703
 21
7273.262595248063
 31
0.0
  0
LINE
  5
19616
330
747D
100
AcDbEntity
  8
細線
 48
50.0
100
AcDbLine
 10
10390.78566646191
 20
7271.062580356574
 30
0.0
 11
10395.38566646191
 21
7271.062580356574
 31
0.0
  0
LINE
  5
19617
330
747D
100
AcDbEntity
  8
細線
 48
50.0
100
AcDbLine
 10
10390.08566646191
 20
7273.262580356576
 30
0.0
 11
10390.08566646191
 21
7271.762580356575
 31
0.0
  0
LINE
  5
19618
330
747D
100
AcDbEntity
  8
細線
 48
50.0
100
AcDbLine
 10
11015.68566646192
 20
7304.062580356575
 30
0.0
 11
10379.08566646191
 21
7304.06258035657
 31
0.0
  0
LINE
  5
19619
330
747D
100
AcDbEntity
  8
細線
 48
50.0
100
AcDbLine
 10
11041.58566646191
 20
7299.062580356578
 30
0.0
 11
11025.68566646191
 21
7299.062580356575
 31
0.0
  0
LINE
  5
1961A
330
747D
100
AcDbEntity
  8
細線
 48
50.0
100
AcDbLine
 10
11025.68566646191
 20
7299.062580356575
 30
0.0
 11
11015.68566646192
 21
7304.062580356575
 31
0.0
  0
LINE
  5
1961B
330
747D
100
AcDbEntity
  8
細線
100
AcDbLine
 10
10626.58566646191
 20
7274.062580356575
 30
0.0
 11
10626.58566646191
 21
7303.362580356574
 31
0.0
  0
LINE
  5
1961C
330
747D
100
AcDbEntity
  8
細線
100
AcDbLine
 10
10626.58566646191
 20
7303.362580356574
 30
0.0
 11
10646.58566646191
 21
7303.362580356574
 31
0.0
  0
LINE
  5
1961D
330
747D
100
AcDbEntity
  8
細線
100
AcDbLine
 10
10646.58566646191
 20
7274.062580356575
 30
0.0
 11
10646.58566646191
 21
7303.362580356574
 31
0.0
  0
LINE
  5
1961E
330
747D
100
AcDbEntity
  8
細線
100
AcDbLine
 10
10807.83566646191
 20
7274.062580356575
 30
0.0
 11
10737.83566646191
 21
7274.062580356575
 31
0.0
  0
LINE
  5
1961F
330
747D
100
AcDbEntity
  8
細線
 48
50.0
100
AcDbLine
 10
10527.83566646191
 20
7274.062580356575
 30
0.0
 11
10396.88144603475
 21
7274.062580356575
 31
0.0
  0
LINE
  5
19620
330
747D
100
AcDbEntity
  8
細線
100
AcDbLine
 10
10667.83566646191
 20
7274.062580356575
 30
0.0
 11
10597.83566646191
 21
7274.062580356575
 31
0.0
  0
LINE
  5
19621
330
747D
100
AcDbEntity
  8
細線
 48
50.0
100
AcDbLine
 10
10384.08566646191
 20
7266.062580356575
 30
0.0
 11
10384.08566646191
 21
7274.062580356575
 31
0.0
  0
LINE
  5
19622
330
747D
100
AcDbEntity
  8
細線
 48
50.0
100
AcDbLine
 10
10364.08566646191
 20
7266.062580356578
 30
0.0
 11
10384.08566646191
 21
7266.062580356575
 31
0.0
  0
LINE
  5
19623
330
747D
100
AcDbEntity
  8
細線
 48
50.0
100
AcDbLine
 10
10379.08566646191
 20
7304.062580356575
 30
0.0
 11
10379.08566646191
 21
7299.062580356575
 31
0.0
  0
LINE
  5
19624
330
747D
100
AcDbEntity
  8
細線
 48
50.0
100
AcDbLine
 10
10364.08566646191
 20
7304.06258035657
 30
0.0
 11
10379.08566646191
 21
7304.062580356575
 31
0.0
  0
LINE
  5
19625
330
747D
100
AcDbEntity
  8
細線
 48
50.0
100
AcDbLine
 10
10364.08566646191
 20
7266.062580356578
 30
0.0
 11
10364.08566646191
 21
7304.06258035657
 31
0.0
  0
LINE
  5
19626
330
747D
100
AcDbEntity
  8
細線
100
AcDbLine
 10
11032.08566646191
 20
7274.062580356575
 30
0.0
 11
10877.83566646191
 21
7274.062580356575
 31
0.0
  0
LINE
  5
19627
330
747D
100
AcDbEntity
  8
細線
 48
50.0
100
AcDbLine
 10
11041.58566646191
 20
7299.062580356578
 30
0.0
 11
11041.58566646191
 21
7274.062580356575
 31
0.0
  0
DIMENSION
  5
19865
330
747D
100
AcDbEntity
  8
寸法
 48
50.0
100
AcDbDimension
  2
*D31
 10
11071.08566646191
 20
6259.109992491722
 30
0.0
 11
9978.09342227444
 21
6259.109992491722
 31
0.0
 70
   160
 71
     5
 42
2154.0
  3
INABA_S40G
100
AcDbAlignedDimension
 13
8917.085666461909
 23
7203.062580356537
 33
0.0
 14
11071.08566646191
 24
7203.062580356537
 34
0.0
100
AcDbRotatedDimension
1001
ACAD
1000
DSTYLE
1002
{
1070
   341
1005
0
1002
}
  0
DIMENSION
  5
19866
330
747D
100
AcDbEntity
  8
寸法
100
AcDbDimension
  2
*D32
 10
8174.474420835219
 20
7203.062580356537
 30
0.0
 11
8174.474420835217
 21
7062.577298982299
 31
0.0
 70
   160
 71
     5
 42
75.0
  3
INABA_S40
100
AcDbAlignedDimension
 13
8469.085666461934
 23
7278.062580356537
 33
0.0
 14
8917.085666461909
 24
7203.062580356537
 34
0.0
 50
90.0
100
AcDbRotatedDimension
1001
ACAD
1000
DSTYLE
1002
{
1070
    41
1040
0.5
1070
    44
1040
1.0
1070
   147
1040
0.8
1070
   271
1070
     2
1070
   272
1070
     2
1070
   289
1070
     3
1070
   340
1005
F706
1070
   343
1005
18567
1070
   344
1005
18567
1002
}
  0
DIMENSION
  5
19967
330
747D
100
AcDbEntity
  8
寸法
100
AcDbDimension
  2
*D33
 10
11519.08566646191
 20
5982.605663994082
 30
0.0
 11
9968.031335559382
 21
5982.605663994082
 31
0.0
 70
   160
 71
     5
 42
3049.999999999982
  3
INABA_S40G
100
AcDbAlignedDimension
 13
8469.085666461934
 23
7278.062580356541
 33
0.0
 14
11519.08566646191
 24
7278.062580356705
 34
0.0
100
AcDbRotatedDimension
1001
ACAD
1000
DSTYLE
1002
{
1002
}
  0
LINE
  5
19974
330
747D
100
AcDbEntity
  8
部品1
100
AcDbLine
 10
10375.82099957615
 20
5743.179180214994
 30
0.0
 11
9612.350333347713
 21
5743.179180214994
 31
0.0
  0
LINE
  5
19975
330
747D
100
AcDbEntity
  8
部品1
100
AcDbLine
 10
10375.82099957615
 20
5503.286858669461
 30
0.0
 11
10375.82099957615
 21
5743.179180214994
 31
0.0
  0
LINE
  5
19976
330
747D
100
AcDbEntity
  8
部品1
100
AcDbLine
 10
9612.350333347713
 20
5503.286858669461
 30
0.0
 11
10375.82099957615
 21
5503.286858669461
 31
0.0
  0
LINE
  5
19977
330
747D
100
AcDbEntity
  8
部品1
100
AcDbLine
 10
9612.350333347713
 20
5743.179180214994
 30
0.0
 11
9612.350333347713
 21
5503.286858669461
 31
0.0
  0
TEXT
  5
19978
330
747D
100
AcDbEntity
  8
部品1
100
AcDbText
 10
9702.269943176752
 20
5550.285650996471
 30
0.0
 40
135.0
  1
平面図
  7
STYLE2
100
AcDbText
  0
LWPOLYLINE
  5
19B1D
330
747D
100
AcDbEntity
  8
部品1
 48
50.0
100
AcDbPolyline
 90
        4
 70
     1
 43
0.0
 10
9016.135666461932
 20
3107.955230940353
 10
9019.035666461935
 20
3107.955230940353
 10
9019.035666461935
 20
3117.455230940354
 10
9016.135666461932
 20
3117.455230940354
  0
CIRCLE
  5
19B1E
330
747D
100
AcDbEntity
  8
部品1
 48
50.0
100
AcDbCircle
 10
9017.585666461933
 20
3112.705230940354
 30
0.0
 40
9.0
  0
ARC
  5
19B1F
330
747D
100
AcDbEntity
  8
細線
 48
50.0
100
AcDbCircle
 10
9017.585666461933
 20
3112.705230940354
 30
0.0
 40
4.0
100
AcDbArc
 50
111.2538091853132
 51
248.7461908146868
  0
ARC
  5
19B20
330
747D
100
AcDbEntity
  8
細線
 48
50.0
100
AcDbCircle
 10
9017.585666461933
 20
3112.705230940354
 30
0.0
 40
17.5
100
AcDbArc
 50
306.4837370612677
 51
233.5162629387323
  0
LINE
  5
19B21
330
747D
100
AcDbEntity
  8
細線
 48
50.0
100
AcDbLine
 10
9027.585666461929
 20
3088.846270359471
 30
0.0
 11
9027.585666461934
 21
3097.830756159713
 31
0.0
  0
LINE
  5
19B22
330
747D
100
AcDbEntity
  8
細線
 48
50.0
100
AcDbLine
 10
9007.585666461933
 20
3088.846270359472
 30
0.0
 11
9007.585666461933
 21
3097.830756159709
 31
0.0
  0
ARC
  5
19B23
330
747D
100
AcDbEntity
  8
細線
 48
50.0
100
AcDbCircle
 10
9017.585666461933
 20
3112.705230940354
 30
0.0
 40
26.5
100
AcDbArc
 50
249.3326835063939
 51
290.6673164933835
  0
ARC
  5
19B24
330
747D
100
AcDbEntity
  8
細線
 48
50.0
100
AcDbCircle
 10
9026.585666461926
 20
3088.846270359471
 30
0.0
 40
1.0
100
AcDbArc
 50
290.6673164936062
 51
359.9999999998958
  0
ARC
  5
19B25
330
747D
100
AcDbEntity
  8
細線
 48
50.0
100
AcDbCircle
 10
9008.585666461932
 20
3088.846270359472
 30
0.0
 40
1.0
100
AcDbArc
 50
180.0
 51
249.3326835066164
  0
ARC
  5
19B26
330
747D
100
AcDbEntity
  8
細線
 48
50.0
100
AcDbCircle
 10
9006.585666461933
 20
3097.830756159709
 30
0.0
 40
1.0
100
AcDbArc
 50
0.0
 51
53.51626293873231
  0
ARC
  5
19B27
330
747D
100
AcDbEntity
  8
細線
 48
50.0
100
AcDbCircle
 10
9028.585666461937
 20
3097.830756159713
 30
0.0
 40
1.0
100
AcDbArc
 50
126.4837370615127
 51
180.0
  0
ARC
  5
19B28
330
747D
100
AcDbEntity
  8
細線
 48
50.0
100
AcDbCircle
 10
9017.585666461933
 20
3112.705230940354
 30
0.0
 40
21.5
100
AcDbArc
 50
255.8014401250294
 51
284.1985598749706
  0
ARC
  5
19B29
330
747D
100
AcDbEntity
  8
細線
 48
50.0
100
AcDbCircle
 10
9017.585666461933
 20
3112.705230940354
 30
0.0
 40
16.5
100
AcDbArc
 50
251.9694646069326
 51
288.0305353930674
  0
LINE
  5
19B2A
330
747D
100
AcDbEntity
  8
細線
 48
50.0
100
AcDbLine
 10
9023.085666461934
 20
3092.152858814547
 30
0.0
 11
9023.085666461934
 21
3096.730250501884
 31
0.0
  0
LINE
  5
19B2B
330
747D
100
AcDbEntity
  8
細線
 48
50.0
100
AcDbLine
 10
9012.085666461933
 20
3092.152858814547
 30
0.0
 11
9012.085666461933
 21
3096.730250501881
 31
0.0
  0
ARC
  5
19B2C
330
747D
100
AcDbEntity
  8
細線
 48
50.0
100
AcDbCircle
 10
9012.385666461936
 20
3096.730250501881
 30
0.0
 40
0.3
100
AcDbArc
 50
71.96946460693259
 51
180.0
  0
ARC
  5
19B2D
330
747D
100
AcDbEntity
  8
細線
 48
50.0
100
AcDbCircle
 10
9022.785666461933
 20
3096.730250501884
 30
0.0
 40
0.3
100
AcDbArc
 50
0.0
 51
108.0305353930674
  0
ARC
  5
19B2E
330
747D
100
AcDbEntity
  8
細線
 48
50.0
100
AcDbCircle
 10
9022.785666461931
 20
3092.152858814547
 30
0.0
 40
0.3
100
AcDbArc
 50
284.1985598747622
 51
0.0000000001042204
  0
ARC
  5
19B2F
330
747D
100
AcDbEntity
  8
細線
 48
50.0
100
AcDbCircle
 10
9012.385666461936
 20
3092.152858814547
 30
0.0
 40
0.3
100
AcDbArc
 50
180.0
 51
255.8014401248081
  0
CIRCLE
  5
19B30
330
747D
100
AcDbEntity
  8
細線
 48
50.0
100
AcDbCircle
 10
9017.585666461933
 20
3112.705230940354
 30
0.0
 40
12.0
  0
ARC
  5
19B31
330
747D
100
AcDbEntity
  8
部品1
 48
50.0
100
AcDbCircle
 10
9017.585666461933
 20
3162.705230940354
 30
0.0
 40
8.5
100
AcDbArc
 50
114.315739171091
 51
245.684260828909
  0
CIRCLE
  5
19B32
330
747D
100
AcDbEntity
  8
細線
 48
50.0
100
AcDbCircle
 10
9017.585666461933
 20
3162.705230940354
 30
0.0
 40
4.5
  0
LWPOLYLINE
  5
19B33
330
747D
100
AcDbEntity
  8
部品1
 48
50.0
100
AcDbPolyline
 90
        2
 70
     0
 43
0.0
 10
9014.085666461934
 20
3181.380080337336
 10
9014.085666461934
 20
3170.451197632769
  0
CIRCLE
  5
19B34
330
747D
100
AcDbEntity
  8
部品1
 48
50.0
100
AcDbCircle
 10
9017.585666461933
 20
3162.705230940354
 30
0.0
 40
19.0
  0
LWPOLYLINE
  5
19B35
330
747D
100
AcDbEntity
  8
部品1
 48
50.0
100
AcDbPolyline
 90
        2
 70
     0
 43
0.0
 10
9014.085666461934
 20
3154.959264247939
 10
9014.085666461934
 20
3144.030381543371
  0
LWPOLYLINE
  5
19B36
330
747D
100
AcDbEntity
  8
部品1
 48
50.0
100
AcDbPolyline
 90
        2
 70
     0
 43
0.0
 10
9021.085666461933
 20
3170.451197632769
 10
9021.085666461933
 20
3181.380080337336
  0
ARC
  5
19B37
330
747D
100
AcDbEntity
  8
部品1
 48
50.0
100
AcDbCircle
 10
9017.585666461933
 20
3162.705230940354
 30
0.0
 40
8.5
100
AcDbArc
 50
294.315739171091
 51
65.68426082890896
  0
LWPOLYLINE
  5
19B38
330
747D
100
AcDbEntity
  8
部品1
 48
50.0
100
AcDbPolyline
 90
        2
 70
     0
 43
0.0
 10
9021.085666461933
 20
3144.030381543371
 10
9021.085666461933
 20
3154.959264247939
  0
ARC
  5
19B39
330
747D
100
AcDbEntity
  8
細線
 48
50.0
100
AcDbCircle
 10
9017.585666461933
 20
3162.705230940354
 30
0.0
 40
16.5
100
AcDbArc
 50
332.0012352654438
 51
27.99876473455621
  0
ARC
  5
19B3A
330
747D
100
AcDbEntity
  8
細線
 48
50.0
100
AcDbCircle
 10
9017.585666461933
 20
3162.705230940354
 30
0.0
 40
14.0
100
AcDbArc
 50
326.4074436112986
 51
33.59255638870134
  0
LINE
  5
19B3B
330
747D
100
AcDbEntity
  8
細線
 48
50.0
100
AcDbLine
 10
9003.016864177601
 20
3170.451197632769
 30
0.0
 11
9005.923762672244
 21
3170.451197632769
 31
0.0
  0
LINE
  5
19B3C
330
747D
100
AcDbEntity
  8
細線
 48
50.0
100
AcDbLine
 10
9003.016864177601
 20
3154.959264247939
 30
0.0
 11
9005.923762672244
 21
3154.959264247939
 31
0.0
  0
LINE
  5
19B3D
330
747D
100
AcDbEntity
  8
細線
 48
50.0
100
AcDbLine
 10
9029.247570251623
 20
3170.451197632769
 30
0.0
 11
9032.154468746268
 21
3170.451197632769
 31
0.0
  0
LINE
  5
19B3E
330
747D
100
AcDbEntity
  8
細線
 48
50.0
100
AcDbLine
 10
9029.247570251623
 20
3154.959264247939
 30
0.0
 11
9032.154468746268
 21
3154.959264247939
 31
0.0
  0
ARC
  5
19B3F
330
747D
100
AcDbEntity
  8
細線
 48
50.0
100
AcDbCircle
 10
9017.585666461933
 20
3162.705230940354
 30
0.0
 40
14.0
100
AcDbArc
 50
146.4074436112986
 51
213.5925563887013
  0
ARC
  5
19B40
330
747D
100
AcDbEntity
  8
細線
 48
50.0
100
AcDbCircle
 10
9017.585666461933
 20
3162.705230940354
 30
0.0
 40
16.5
100
AcDbArc
 50
152.0012352654438
 51
207.9987647345562
  0
ARC
  5
19B41
330
747D
100
AcDbEntity
  8
部品1
 48
50.0
100
AcDbCircle
 10
8991.085666461932
 20
3188.205230940353
 30
0.0
 40
5.0
100
AcDbArc
 50
90.0
 51
180.0
  0
ARC
  5
19B42
330
747D
100
AcDbEntity
  8
部品1
 48
50.0
100
AcDbCircle
 10
8991.085666461932
 20
3077.205230940354
 30
0.0
 40
5.0
100
AcDbArc
 50
180.0
 51
270.0
  0
ARC
  5
19B43
330
747D
100
AcDbEntity
  8
部品1
 48
50.0
100
AcDbCircle
 10
9044.085666461933
 20
3077.205230940354
 30
0.0
 40
5.0
100
AcDbArc
 50
270.0
 51
0.0
  0
ARC
  5
19B44
330
747D
100
AcDbEntity
  8
部品1
 48
50.0
100
AcDbCircle
 10
9044.085666461933
 20
3188.205230940353
 30
0.0
 40
5.0
100
AcDbArc
 50
0.0
 51
90.0
  0
LINE
  5
19B46
330
747D
100
AcDbEntity
  8
部品1
 48
50.0
100
AcDbLine
 10
8986.085666461933
 20
3077.205230940354
 30
0.0
 11
8986.085666461933
 21
3188.205230940353
 31
0.0
  0
LINE
  5
19B47
330
747D
100
AcDbEntity
  8
部品1
 48
50.0
100
AcDbLine
 10
9044.085666461933
 20
3072.205230940353
 30
0.0
 11
8991.085666461932
 21
3072.205230940353
 31
0.0
  0
LINE
  5
19B48
330
747D
100
AcDbEntity
  8
部品1
 48
50.0
100
AcDbLine
 10
9049.085666461932
 20
3188.205230940353
 30
0.0
 11
9049.085666461932
 21
3077.205230940354
 31
0.0
  0
ENDSEC
  0
SECTION
  2
OBJECTS
  0
DICTIONARY
  5
7471
330
0
100
AcDbDictionary
281
     1
  3
ACAD_COLOR
350
1855C
  3
ACAD_GROUP
350
7472
  3
ACAD_LAYOUT
350
1855D
  3
ACAD_MATERIAL
350
1855B
  3
ACAD_MLINESTYLE
350
7473
  3
ACAD_PLOTSETTINGS
350
1855E
  3
ACAD_PLOTSTYLENAME
350
18559
  3
ACDBHEADERROUNDTRIPXREC
350
19B67
  3
AcDbVariableDictionary
350
19B63
  3
CONTENTDICTIONARY
350
E71C
  3
DRAWINGVARIABLESDICT
350
F3B9
  0
DICTIONARY
  5
186F6
330
7467
100
AcDbDictionary
280
     1
281
     1
  3
ACAD_LAYERSTATES
360
186F7
  0
DICTIONARY
  5
1855C
102
{ACAD_REACTORS
330
7471
102
}
330
7471
100
AcDbDictionary
281
     1
  0
DICTIONARY
  5
7472
102
{ACAD_REACTORS
330
7471
102
}
330
7471
100
AcDbDictionary
281
     1
  0
DICTIONARY
  5
1855D
102
{ACAD_REACTORS
330
7471
102
}
330
7471
100
AcDbDictionary
281
     1
  3
Model
350
1855F
  3
レイアウト1
350
18560
  0
DICTIONARY
  5
1855B
102
{ACAD_REACTORS
330
7471
102
}
330
7471
100
AcDbDictionary
281
     1
  0
DICTIONARY
  5
7473
102
{ACAD_REACTORS
330
7471
102
}
330
7471
100
AcDbDictionary
281
     1
  3
STANDARD
350
7480
  0
DICTIONARY
  5
1855E
102
{ACAD_REACTORS
330
7471
102
}
330
7471
100
AcDbDictionary
281
     1
  0
ACDBDICTIONARYWDFLT
  5
18559
102
{ACAD_REACTORS
330
7471
102
}
330
7471
100
AcDbDictionary
281
     1
  3
Normal
350
1855A
100
AcDbDictionaryWithDefault
340
1855A
  0
DICTIONARY
  5
19B67
102
{ACAD_REACTORS
330
7471
102
}
330
7471
100
AcDbDictionary
281
     1
  3
COLORDICT
350
19B69
  3
MATERIALDICT
350
19B68
  0
DICTIONARY
  5
19B63
102
{ACAD_REACTORS
330
7471
102
}
330
7471
100
AcDbDictionary
281
     1
  3
DIMASSOC
350
19B64
  3
PROJECTNAME
350
19B65
  0
DICTIONARY
  5
E71C
102
{ACAD_REACTORS
330
7471
102
}
330
7471
100
AcDbDictionary
281
     1
  0
DICTIONARY
  5
F3B9
102
{ACAD_REACTORS
330
7471
102
}
330
7471
100
AcDbDictionary
281
     1
1001
DRAWINGVARIABLESXDATA
1000
POLARMODE
1000
1
  0
DICTIONARY
  5
186F7
102
{ACAD_REACTORS
330
186F6
102
}
330
186F6
100
AcDbDictionary
281
     1
  0
LAYOUT
  5
1855F
102
{ACAD_XDICTIONARY
360
19B6A
102
}
102
{ACAD_REACTORS
330
1855D
102
}
330
1855D
100
AcDbPlotSettings
  1

  2
クセロPDF
  4
A3
  6

 40
3.174999952316284
 41
3.174999952316284
 42
3.17498779296875
 43
3.17498779296875
 44
419.9466552734374
 45
296.9259948730469
 46
0.0
 47
0.0
 48
3.619013395666115
 49
-4.192117100517862
140
820.022926294543
141
573.2392198881443
142
1.0
143
39.99735023620806
 70
 11952
 72
     1
 73
     0
 74
     2
  7
inaba.ctb
 75
     0
147
0.0250016562120842
148
25.79074261211281
149
125.8223078213959
100
AcDbLayout
  1
Model
 70
     1
 71
     0
 10
0.0
 20
0.0
 11
12.0
 21
9.0
 12
0.0
 22
0.0
 32
0.0
 14
0.0
 24
0.0
 34
0.0
 15
0.0
 25
0.0
 35
0.0
146
0.0
 13
0.0
 23
0.0
 33
0.0
 16
1.0
 26
0.0
 36
0.0
 17
0.0
 27
1.0
 37
0.0
 76
     0
330
747D
  0
LAYOUT
  5
18560
102
{ACAD_XDICTIONARY
360
19B6C
102
}
102
{ACAD_REACTORS
330
1855D
102
}
330
1855D
100
AcDbPlotSettings
  1

  2
Microsoft Office Document Image Writer
  4

  6

 40
0.0
 41
0.0
 42
0.0
 43
0.0
 44
0.0
 45
0.0
 46
0.0
 47
0.0
 48
0.0
 49
0.0
140
0.0
141
0.0
142
1.0
143
1.0
 70
   688
 72
     0
 73
     0
 74
     5
  7

 75
    16
147
1.0
148
0.0
149
0.0
100
AcDbLayout
  1
レイアウト1
 70
     0
 71
     1
 10
0.0
 20
0.0
 11
420.0
 21
297.0
 12
0.0
 22
0.0
 32
0.0
 14
1.000000000000000E+20
 24
1.000000000000000E+20
 34
1.000000000000000E+20
 15
-1.000000000000000E+20
 25
-1.000000000000000E+20
 35
-1.000000000000000E+20
146
0.0
 13
0.0
 23
0.0
 33
0.0
 16
1.0
 26
0.0
 36
0.0
 17
0.0
 27
1.0
 37
0.0
 76
     0
330
747A
  0
MLINESTYLE
  5
7480
102
{ACAD_REACTORS
330
7473
102
}
330
7473
100
AcDbMlineStyle
  2
STANDARD
 70
     0
  3

 62
     0
 51
90.0
 52
90.0
 71
     2
 49
0.5
 62
   256
  6
BYLAYER
 49
-0.5
 62
   256
  6
BYLAYER
  0
ACDBPLACEHOLDER
  5
1855A
102
{ACAD_REACTORS
330
18559
102
}
330
18559
  0
XRECORD
  5
19B69
102
{ACAD_REACTORS
330
19B67
102
}
330
19B67
100
AcDbXrecord
280
     1
340
1855C
  0
XRECORD
  5
19B68
102
{ACAD_REACTORS
330
19B67
102
}
330
19B67
100
AcDbXrecord
280
     1
340
1855B
  0
DICTIONARYVAR
  5
19B64
102
{ACAD_REACTORS
330
19B63
102
}
330
19B63
100
DictionaryVariables
280
     0
  1
1
  0
DICTIONARYVAR
  5
19B65
102
{ACAD_REACTORS
330
19B63
102
}
330
19B63
100
DictionaryVariables
280
     0
  1

  0
DICTIONARY
  5
19B6A
330
1855F
100
AcDbDictionary
280
     1
281
     1
  3
ACAD_XREC_ROUNDTRIP
360
19B6B
  0
DICTIONARY
  5
19B6C
330
18560
100
AcDbDictionary
280
     1
281
     1
  3
ACAD_XREC_ROUNDTRIP
360
19B6D
  0
XRECORD
  5
19B6B
102
{ACAD_REACTORS
330
19B6A
102
}
330
19B6A
100
AcDbXrecord
280
     1
102
SHADEPLOT
 70
     0
102
SHADEPLOTRESLEVEL
 70
     2
102
SHADEPLOTCUSTOMDPI
 70
   150
  0
XRECORD
  5
19B6D
102
{ACAD_REACTORS
330
19B6C
102
}
330
19B6C
100
AcDbXrecord
280
     1
102
SHADEPLOT
 70
     0
102
SHADEPLOTRESLEVEL
 70
     2
102
SHADEPLOTCUSTOMDPI
 70
   300
  0
ENDSEC
  0
EOF
