  0
SECTION
  2
HEADER
  9
$ACADVER
  1
AC1015
  9
$ACADMAINTVER
 70
    20
  9
$DWGCODEPAGE
  3
ANSI_932
  9
$INSBASE
 10
0.0
 20
0.0
 30
0.0
  9
$EXTMIN
 10
139.9999999999995
 20
-0.0000000000000909
 30
0.0
  9
$EXTMAX
 10
16307.2
 20
11409.6
 30
0.0
  9
$LIMMIN
 10
0.0
 20
0.0
  9
$LIMMAX
 10
16800.0
 20
11880.0
  9
$ORTHOMODE
 70
     0
  9
$REGENMODE
 70
     1
  9
$FILLMODE
 70
     1
  9
$QTEXTMODE
 70
     0
  9
$MIRRTEXT
 70
     1
  9
$LTSCALE
 40
20.0
  9
$ATTMODE
 70
     1
  9
$TEXTSIZE
 40
4.0
  9
$TRACEWID
 40
1.0
  9
$TEXTSTYLE
  7
STYLE1
  9
$CLAYER
  8
部品1
  9
$CELTYPE
  6
BYLAYER
  9
$CECOLOR
 62
   256
  9
$CELTSCALE
 40
50.0
  9
$DISPSILH
 70
     0
  9
$DIMSCALE
 40
40.0
  9
$DIMASZ
 40
2.5
  9
$DIMEXO
 40
0.5
  9
$DIMDLI
 40
7.0
  9
$DIMRND
 40
0.0
  9
$DIMDLE
 40
0.0
  9
$DIMEXE
 40
1.5
  9
$DIMTP
 40
0.0
  9
$DIMTM
 40
0.0
  9
$DIMTXT
 40
3.0
  9
$DIMCEN
 40
0.0
  9
$DIMTSZ
 40
0.0
  9
$DIMTOL
 70
     0
  9
$DIMLIM
 70
     0
  9
$DIMTIH
 70
     0
  9
$DIMTOH
 70
     0
  9
$DIMSE1
 70
     0
  9
$DIMSE2
 70
     0
  9
$DIMTAD
 70
     3
  9
$DIMZIN
 70
     8
  9
$DIMBLK
  1

  9
$DIMASO
 70
     1
  9
$DIMSHO
 70
     1
  9
$DIMPOST
  1

  9
$DIMAPOST
  1

  9
$DIMALT
 70
     0
  9
$DIMALTD
 70
     2
  9
$DIMALTF
 40
0.0394
  9
$DIMLFAC
 40
1.0
  9
$DIMTOFL
 70
     1
  9
$DIMTVP
 40
0.0
  9
$DIMTIX
 70
     1
  9
$DIMSOXD
 70
     0
  9
$DIMSAH
 70
     1
  9
$DIMBLK1
  1
DOTSMALL
  9
$DIMBLK2
  1
DOTSMALL
  9
$DIMSTYLE
  2
INABA_S40G
  9
$DIMCLRD
 70
     0
  9
$DIMCLRE
 70
     0
  9
$DIMCLRT
 70
     7
  9
$DIMTFAC
 40
1.0
  9
$DIMGAP
 40
1.0
  9
$DIMJUST
 70
     0
  9
$DIMSD1
 70
     0
  9
$DIMSD2
 70
     0
  9
$DIMTOLJ
 70
     1
  9
$DIMTZIN
 70
     0
  9
$DIMALTZ
 70
     0
  9
$DIMALTTZ
 70
     0
  9
$DIMUPT
 70
     0
  9
$DIMDEC
 70
     1
  9
$DIMTDEC
 70
     4
  9
$DIMALTU
 70
     2
  9
$DIMALTTD
 70
     2
  9
$DIMTXSTY
  7
STYLE1
  9
$DIMAUNIT
 70
     0
  9
$DIMADEC
 70
     0
  9
$DIMALTRND
 40
0.0
  9
$DIMAZIN
 70
     0
  9
$DIMDSEP
 70
    46
  9
$DIMATFIT
 70
     3
  9
$DIMFRAC
 70
     0
  9
$DIMLDRBLK
  1

  9
$DIMLUNIT
 70
     2
  9
$DIMLWD
 70
    -2
  9
$DIMLWE
 70
    -2
  9
$DIMTMOVE
 70
     0
  9
$LUNITS
 70
     2
  9
$LUPREC
 70
     1
  9
$SKETCHINC
 40
1.0
  9
$FILLETRAD
 40
3.0
  9
$AUNITS
 70
     0
  9
$AUPREC
 70
     0
  9
$MENU
  1
acad
  9
$ELEVATION
 40
0.0
  9
$PELEVATION
 40
0.0
  9
$THICKNESS
 40
0.0
  9
$LIMCHECK
 70
     0
  9
$CHAMFERA
 40
0.0
  9
$CHAMFERB
 40
0.0
  9
$CHAMFERC
 40
0.0
  9
$CHAMFERD
 40
0.0
  9
$SKPOLY
 70
     0
  9
$TDCREATE
 40
2451368.612993866
  9
$TDUCREATE
 40
2451368.237993866
  9
$TDUPDATE
 40
2455575.686356331
  9
$TDUUPDATE
 40
2455575.311356331
  9
$TDINDWG
 40
0.6649356829
  9
$TDUSRTIMER
 40
0.6649356829
  9
$USRTIMER
 70
     1
  9
$ANGBASE
 50
0.0
  9
$ANGDIR
 70
     0
  9
$PDMODE
 70
     3
  9
$PDSIZE
 40
2.0
  9
$PLINEWID
 40
0.0
  9
$SPLFRAME
 70
     0
  9
$SPLINETYPE
 70
     6
  9
$SPLINESEGS
 70
     8
  9
$HANDSEED
  5
1940C
  9
$SURFTAB1
 70
     6
  9
$SURFTAB2
 70
     6
  9
$SURFTYPE
 70
     6
  9
$SURFU
 70
     6
  9
$SURFV
 70
     6
  9
$UCSBASE
  2

  9
$UCSNAME
  2

  9
$UCSORG
 10
0.0
 20
0.0
 30
0.0
  9
$UCSXDIR
 10
1.0
 20
0.0
 30
0.0
  9
$UCSYDIR
 10
0.0
 20
1.0
 30
0.0
  9
$UCSORTHOREF
  2

  9
$UCSORTHOVIEW
 70
     0
  9
$UCSORGTOP
 10
0.0
 20
0.0
 30
0.0
  9
$UCSORGBOTTOM
 10
0.0
 20
0.0
 30
0.0
  9
$UCSORGLEFT
 10
0.0
 20
0.0
 30
0.0
  9
$UCSORGRIGHT
 10
0.0
 20
0.0
 30
0.0
  9
$UCSORGFRONT
 10
0.0
 20
0.0
 30
0.0
  9
$UCSORGBACK
 10
0.0
 20
0.0
 30
0.0
  9
$PUCSBASE
  2

  9
$PUCSNAME
  2

  9
$PUCSORG
 10
0.0
 20
0.0
 30
0.0
  9
$PUCSXDIR
 10
1.0
 20
0.0
 30
0.0
  9
$PUCSYDIR
 10
0.0
 20
1.0
 30
0.0
  9
$PUCSORTHOREF
  2

  9
$PUCSORTHOVIEW
 70
     0
  9
$PUCSORGTOP
 10
0.0
 20
0.0
 30
0.0
  9
$PUCSORGBOTTOM
 10
0.0
 20
0.0
 30
0.0
  9
$PUCSORGLEFT
 10
0.0
 20
0.0
 30
0.0
  9
$PUCSORGRIGHT
 10
0.0
 20
0.0
 30
0.0
  9
$PUCSORGFRONT
 10
0.0
 20
0.0
 30
0.0
  9
$PUCSORGBACK
 10
0.0
 20
0.0
 30
0.0
  9
$USERI1
 70
     0
  9
$USERI2
 70
     0
  9
$USERI3
 70
     0
  9
$USERI4
 70
     0
  9
$USERI5
 70
     0
  9
$USERR1
 40
0.0
  9
$USERR2
 40
0.0
  9
$USERR3
 40
0.0
  9
$USERR4
 40
0.0
  9
$USERR5
 40
0.0
  9
$WORLDVIEW
 70
     1
  9
$SHADEDGE
 70
     3
  9
$SHADEDIF
 70
    70
  9
$TILEMODE
 70
     1
  9
$MAXACTVP
 70
    16
  9
$PINSBASE
 10
0.0
 20
0.0
 30
0.0
  9
$PLIMCHECK
 70
     0
  9
$PEXTMIN
 10
1.000000000000000E+20
 20
1.000000000000000E+20
 30
1.000000000000000E+20
  9
$PEXTMAX
 10
-1.000000000000000E+20
 20
-1.000000000000000E+20
 30
-1.000000000000000E+20
  9
$PLIMMIN
 10
0.0
 20
0.0
  9
$PLIMMAX
 10
420.0
 20
297.0
  9
$UNITMODE
 70
     0
  9
$VISRETAIN
 70
     0
  9
$PLINEGEN
 70
     0
  9
$PSLTSCALE
 70
     0
  9
$TREEDEPTH
 70
  3020
  9
$CMLSTYLE
  2
STANDARD
  9
$CMLJUST
 70
     0
  9
$CMLSCALE
 40
1.0
  9
$PROXYGRAPHICS
 70
     1
  9
$MEASUREMENT
 70
     1
  9
$CELWEIGHT
370
    -1
  9
$ENDCAPS
280
     0
  9
$JOINSTYLE
280
     0
  9
$LWDISPLAY
290
     0
  9
$INSUNITS
 70
     0
  9
$HYPERLINKBASE
  1

  9
$STYLESHEET
  1

  9
$XEDIT
290
     1
  9
$CEPSNTYPE
380
     0
  9
$PSTYLEMODE
290
     1
  9
$FINGERPRINTGUID
  2
{3142261D-B0D0-44ED-BA12-41398813A28C}
  9
$VERSIONGUID
  2
{9013FE04-33C0-4AB1-B785-029CD1D2C638}
  9
$EXTNAMES
290
     1
  9
$PSVPSCALE
 40
0.0
  9
$OLESTARTUP
290
     0
  0
ENDSEC
  0
SECTION
  2
CLASSES
  0
CLASS
  1
ACDBDICTIONARYWDFLT
  2
AcDbDictionaryWithDefault
  3
ObjectDBX Classes
 90
        0
280
     0
281
     0
  0
CLASS
  1
DICTIONARYVAR
  2
AcDbDictionaryVar
  3
ObjectDBX Classes
 90
        0
280
     0
281
     0
  0
CLASS
  1
ACDBPLACEHOLDER
  2
AcDbPlaceHolder
  3
ObjectDBX Classes
 90
        0
280
     0
281
     0
  0
CLASS
  1
LAYOUT
  2
AcDbLayout
  3
ObjectDBX Classes
 90
        0
280
     0
281
     0
  0
ENDSEC
  0
SECTION
  2
TABLES
  0
TABLE
  2
VPORT
  5
746D
330
0
100
AcDbSymbolTable
 70
     2
  0
VPORT
  5
19404
330
746D
100
AcDbSymbolTableRecord
100
AcDbViewportTableRecord
  2
*Active
 70
     0
 10
0.0
 20
0.0
 11
1.0
 21
1.0
 12
8223.761025238502
 22
6348.703162895247
 13
0.0
 23
0.0
 14
10.0
 24
10.0
 15
10.0
 25
10.0
 16
0.0
 26
0.0
 36
1.0
 17
0.0
 27
0.0
 37
0.0
 40
12805.60689082044
 41
1.525925925925925
 42
50.0
 43
0.0
 44
0.0
 50
0.0
 51
0.0
 71
     0
 72
     0
 73
     1
 74
     0
 75
     0
 76
     0
 77
     0
 78
     0
281
     0
 65
     1
110
0.0
120
0.0
130
0.0
111
1.0
121
0.0
131
0.0
112
0.0
122
1.0
132
0.0
 79
     0
146
0.0
  0
ENDTAB
  0
TABLE
  2
LTYPE
  5
746A
330
0
100
AcDbSymbolTable
 70
     4
  0
LTYPE
  5
7477
330
746A
100
AcDbSymbolTableRecord
100
AcDbLinetypeTableRecord
  2
BYBLOCK
 70
     0
  3

 72
    65
 73
     0
 40
0.0
  0
LTYPE
  5
7478
330
746A
100
AcDbSymbolTableRecord
100
AcDbLinetypeTableRecord
  2
BYLAYER
 70
     0
  3

 72
    65
 73
     0
 40
0.0
  0
LTYPE
  5
7479
330
746A
100
AcDbSymbolTableRecord
100
AcDbLinetypeTableRecord
  2
CONTINUOUS
 70
     0
  3
Solid line
 72
    65
 73
     0
 40
0.0
  0
LTYPE
  5
7816
330
746A
100
AcDbSymbolTableRecord
100
AcDbLinetypeTableRecord
  2
CENTER
 70
     0
  3
____ _ ____ _ ____ _ ____ _ ____ _ ____ _ ____ 
 72
    65
 73
     4
 40
2.0
 49
1.25
 74
     0
 49
-0.25
 74
     0
 49
0.25
 74
     0
 49
-0.25
 74
     0
  0
LTYPE
  5
781A
330
746A
100
AcDbSymbolTableRecord
100
AcDbLinetypeTableRecord
  2
HIDDEN
 70
     0
  3
__ __ __ __ __ __ __ __ __ __ __ __ __ __ __ __
 72
    65
 73
     2
 40
0.375
 49
0.25
 74
     0
 49
-0.125
 74
     0
  0
LTYPE
  5
781B
330
746A
100
AcDbSymbolTableRecord
100
AcDbLinetypeTableRecord
  2
PHANTOM
 70
     0
  3
______  __  __  ______  __  __  ______  __  __ 
 72
    65
 73
     6
 40
2.5
 49
1.25
 74
     0
 49
-0.25
 74
     0
 49
0.25
 74
     0
 49
-0.25
 74
     0
 49
0.25
 74
     0
 49
-0.25
 74
     0
  0
ENDTAB
  0
TABLE
  2
LAYER
  5
7467
102
{ACAD_XDICTIONARY
360
17C2D
102
}
330
0
100
AcDbSymbolTable
 70
    12
  0
LAYER
  5
7474
330
7467
100
AcDbSymbolTableRecord
100
AcDbLayerTableRecord
  2
0
 70
     0
 62
     7
  6
CONTINUOUS
370
    -3
390
17A91
  0
LAYER
  5
DEB2
330
7467
100
AcDbSymbolTableRecord
100
AcDbLayerTableRecord
  2
センター
 70
     0
 62
     3
  6
CENTER
370
    -3
390
17A91
  0
LAYER
  5
DEB3
330
7467
100
AcDbSymbolTableRecord
100
AcDbLayerTableRecord
  2
寸法
 70
     0
 62
     4
  6
CONTINUOUS
370
    -3
390
17A91
  0
LAYER
  5
DEB4
330
7467
100
AcDbSymbolTableRecord
100
AcDbLayerTableRecord
  2
部品1
 70
     0
 62
     7
  6
CONTINUOUS
370
    -3
390
17A91
  0
LAYER
  5
DEB5
330
7467
100
AcDbSymbolTableRecord
100
AcDbLayerTableRecord
  2
補助
 70
     0
 62
    -1
  6
CONTINUOUS
370
    -3
390
17A91
  0
LAYER
  5
DEB6
330
7467
100
AcDbSymbolTableRecord
100
AcDbLayerTableRecord
  2
文字
 70
     0
 62
     7
  6
CONTINUOUS
370
    -3
390
17A91
  0
LAYER
  5
F255
330
7467
100
AcDbSymbolTableRecord
100
AcDbLayerTableRecord
  2
DEFPOINTS
 70
     0
 62
     7
  6
CONTINUOUS
290
     0
370
    -3
390
17A91
  0
LAYER
  5
10B54
330
7467
100
AcDbSymbolTableRecord
100
AcDbLayerTableRecord
  2
仕様書枠
 70
     0
 62
   230
  6
CONTINUOUS
370
    -3
390
17A91
  0
LAYER
  5
11729
330
7467
100
AcDbSymbolTableRecord
100
AcDbLayerTableRecord
  2
Ｇ．Ｌ
 70
     0
 62
    30
  6
CONTINUOUS
370
    -3
390
17A91
  0
LAYER
  5
1173F
330
7467
100
AcDbSymbolTableRecord
100
AcDbLayerTableRecord
  2
細線
 70
     0
 62
     5
  6
CONTINUOUS
370
    -3
390
17A91
  0
LAYER
  5
12CC4
330
7467
100
AcDbSymbolTableRecord
100
AcDbLayerTableRecord
  2
想像線
 70
     0
 62
     6
  6
PHANTOM
370
    -3
390
17A91
  0
LAYER
  5
142E2
330
7467
100
AcDbSymbolTableRecord
100
AcDbLayerTableRecord
  2
破線
 70
     0
 62
     2
  6
HIDDEN
370
    -3
390
17A91
  0
ENDTAB
  0
TABLE
  2
STYLE
  5
7468
330
0
100
AcDbSymbolTable
 70
     4
  0
STYLE
  5
7475
330
7468
100
AcDbSymbolTableRecord
100
AcDbTextStyleTableRecord
  2
STANDARD
 70
     0
 40
0.0
 41
1.0
 50
0.0
 71
     0
 42
4.0
  3
txt
  4
C:\AutoCAD LT\bigfont.shx
  0
STYLE
  5
F706
330
7468
100
AcDbSymbolTableRecord
100
AcDbTextStyleTableRecord
  2
STYLE1
 70
     0
 40
0.0
 41
1.0
 50
0.0
 71
     0
 42
4.0
  3
isocp.shx
  4
bigfont.shx
  0
STYLE
  5
103BF
330
7468
100
AcDbSymbolTableRecord
100
AcDbTextStyleTableRecord
  2
STYLE2
 70
     0
 40
0.0
 41
1.0
 50
0.0
 71
     0
 42
100.0
  3
MS PGothic.ttf
  4

1001
ACAD
1000
MS PGothic
1071
    32818
  0
STYLE
  5
18CF8
330
7468
100
AcDbSymbolTableRecord
100
AcDbTextStyleTableRecord
  2
STYLE3
 70
     0
 40
0.0
 41
1.0
 50
0.0
 71
     0
 42
100.0
  3

  4

1001
ACAD
1000
DFPGothic-EB
1071
    32818
  0
ENDTAB
  0
TABLE
  2
VIEW
  5
746B
330
0
100
AcDbSymbolTable
 70
     0
  0
ENDTAB
  0
TABLE
  2
UCS
  5
746C
330
0
100
AcDbSymbolTable
 70
     0
  0
ENDTAB
  0
TABLE
  2
APPID
  5
746E
330
0
100
AcDbSymbolTable
 70
     6
  0
APPID
  5
7476
330
746E
100
AcDbSymbolTableRecord
100
AcDbRegAppTableRecord
  2
ACAD
 70
     0
  0
APPID
  5
DEA9
330
746E
100
AcDbSymbolTableRecord
100
AcDbRegAppTableRecord
  2
CONTENTBLOCKICON
 70
     0
  0
APPID
  5
DEAA
330
746E
100
AcDbSymbolTableRecord
100
AcDbRegAppTableRecord
  2
CONTENTBLOCKDESCRIPTION
 70
     0
  0
APPID
  5
E71D
330
746E
100
AcDbSymbolTableRecord
100
AcDbRegAppTableRecord
  2
CONTENTTABDATA
 70
     0
  0
APPID
  5
E71E
330
746E
100
AcDbSymbolTableRecord
100
AcDbRegAppTableRecord
  2
CONTENTCURRENTTAB
 70
     0
  0
APPID
  5
F3BA
330
746E
100
AcDbSymbolTableRecord
100
AcDbRegAppTableRecord
  2
DRAWINGVARIABLESXDATA
 70
     0
  0
ENDTAB
  0
TABLE
  2
DIMSTYLE
  5
746F
330
0
100
AcDbSymbolTable
 70
     5
100
AcDbDimStyleTable
 71
     0
  0
DIMSTYLE
105
7484
330
746F
100
AcDbSymbolTableRecord
100
AcDbDimStyleTableRecord
  2
JIS
 70
     0
 41
2.5
 42
1.0
 43
7.0
 44
1.0
 73
     0
 74
     0
 77
     1
 78
     8
140
2.5
141
0.0
143
0.0394
147
0.0
172
     1
174
     1
175
     1
340
7475
  0
DIMSTYLE
105
F71F
102
{ACAD_REACTORS
330
1818D
330
17FDE
330
17FDF
330
17FE0
330
17FE1
330
17FFF
330
18000
330
18001
330
18002
330
18003
330
18004
330
18010
330
1802F
330
18030
330
18031
330
18032
330
18036
330
1806D
330
1806E
330
18072
330
1807D
330
1807E
330
18670
330
186AB
330
186AC
330
186AD
330
186EC
330
186F0
330
1909F
330
190A6
102
}
330
746F
100
AcDbSymbolTableRecord
100
AcDbDimStyleTableRecord
  2
INABA_S40G
 70
     0
 40
40.0
 41
2.5
 42
0.5
 43
7.0
 44
1.5
 73
     0
 74
     0
 77
     3
 78
     8
140
3.0
141
0.0
143
0.0394
147
1.0
172
     1
173
     1
174
     1
178
     7
271
     1
340
F706
341
F770
343
F770
344
F770
  0
DIMSTYLE
105
17C2C
102
{ACAD_REACTORS
330
18E04
330
190A5
102
}
330
746F
100
AcDbSymbolTableRecord
100
AcDbDimStyleTableRecord
  2
INABA_S40
 70
     0
 40
40.0
 41
2.5
 42
0.5
 43
7.0
 44
1.5
 73
     0
 74
     0
 77
     3
 78
     8
140
3.0
141
0.0
143
0.0394
147
1.0
172
     1
173
     1
174
     1
175
     1
178
     7
340
7475
  0
DIMSTYLE
105
18CF9
330
746F
100
AcDbSymbolTableRecord
100
AcDbDimStyleTableRecord
  2
INABA_S50G
 70
     0
 41
125.0
 42
25.0
 43
7.0
 44
75.0
 73
     0
 74
     0
 77
     3
 78
     8
140
150.0
141
0.0
143
0.0394
147
25.0
172
     1
173
     1
174
     1
175
     1
178
     7
271
     1
340
F706
341
F770
343
F770
344
F770
  0
DIMSTYLE
105
1939A
330
746F
100
AcDbSymbolTableRecord
100
AcDbDimStyleTableRecord
  2
INABA_S20G
 70
     0
 40
20.0
 41
2.5
 42
0.5
 43
7.0
 44
1.5
 73
     0
 74
     0
 77
     3
 78
     8
140
3.0
141
0.0
143
0.0394
147
1.0
172
     1
173
     1
174
     1
178
     7
271
     1
340
F706
341
F770
343
F770
344
F770
  0
ENDTAB
  0
TABLE
  2
BLOCK_RECORD
  5
7466
330
0
100
AcDbSymbolTable
 70
    34
  0
BLOCK_RECORD
  5
747D
330
7466
100
AcDbSymbolTableRecord
100
AcDbBlockTableRecord
  2
*MODEL_SPACE
340
17A96
  0
BLOCK_RECORD
  5
747A
330
7466
100
AcDbSymbolTableRecord
100
AcDbBlockTableRecord
  2
*PAPER_SPACE
340
17A97
  0
BLOCK_RECORD
  5
F770
330
7466
100
AcDbSymbolTableRecord
100
AcDbBlockTableRecord
  2
_DOTSMALL
340
0
102
{BLKREFS
331
18B9D
331
18B9E
331
18BA6
331
18BA7
331
18BAF
331
18BB0
331
18BBA
331
18BBB
331
18BC3
331
18BC4
331
18BCE
331
18BCF
331
18BD7
331
18BD8
331
18C5F
331
18C60
331
18C68
331
18C69
331
18C72
331
18C73
331
18C7B
331
18C7C
331
18C84
331
18C85
331
18C8F
331
18C90
331
18C99
331
18C9A
331
18CA3
331
18CA4
331
18CAC
331
18CAD
331
18CB5
331
18CB6
331
18CC0
331
18CC1
331
1930C
331
1930D
331
19320
331
19321
331
19334
331
19335
331
1933D
331
1933E
331
19348
331
19349
331
19351
331
19352
331
1935A
331
1935B
331
19363
331
19364
331
1936C
331
1936D
331
19377
331
19378
331
19380
331
19381
331
1938B
331
1938C
102
}
  0
BLOCK_RECORD
  5
17A9E
330
7466
100
AcDbSymbolTableRecord
100
AcDbBlockTableRecord
  2
_DOT
340
0
102
{BLKREFS
331
19317
331
19318
331
19329
331
1932A
102
}
  0
BLOCK_RECORD
  5
181AB
330
7466
100
AcDbSymbolTableRecord
100
AcDbBlockTableRecord
  2
*D2
340
0
  0
BLOCK_RECORD
  5
18203
330
7466
100
AcDbSymbolTableRecord
100
AcDbBlockTableRecord
  2
*D3
340
0
  0
BLOCK_RECORD
  5
18211
330
7466
100
AcDbSymbolTableRecord
100
AcDbBlockTableRecord
  2
*D4
340
0
  0
BLOCK_RECORD
  5
1821D
330
7466
100
AcDbSymbolTableRecord
100
AcDbBlockTableRecord
  2
*D5
340
0
  0
BLOCK_RECORD
  5
18229
330
7466
100
AcDbSymbolTableRecord
100
AcDbBlockTableRecord
  2
*D6
340
0
  0
BLOCK_RECORD
  5
18236
330
7466
100
AcDbSymbolTableRecord
100
AcDbBlockTableRecord
  2
*D7
340
0
  0
BLOCK_RECORD
  5
18243
330
7466
100
AcDbSymbolTableRecord
100
AcDbBlockTableRecord
  2
*D8
340
0
  0
BLOCK_RECORD
  5
18251
330
7466
100
AcDbSymbolTableRecord
100
AcDbBlockTableRecord
  2
*D9
340
0
  0
BLOCK_RECORD
  5
1825D
330
7466
100
AcDbSymbolTableRecord
100
AcDbBlockTableRecord
  2
*D10
340
0
  0
BLOCK_RECORD
  5
18269
330
7466
100
AcDbSymbolTableRecord
100
AcDbBlockTableRecord
  2
*D11
340
0
  0
BLOCK_RECORD
  5
18276
330
7466
100
AcDbSymbolTableRecord
100
AcDbBlockTableRecord
  2
*D12
340
0
  0
BLOCK_RECORD
  5
18282
330
7466
100
AcDbSymbolTableRecord
100
AcDbBlockTableRecord
  2
*D13
340
0
  0
BLOCK_RECORD
  5
1828E
330
7466
100
AcDbSymbolTableRecord
100
AcDbBlockTableRecord
  2
*D14
340
0
  0
BLOCK_RECORD
  5
1829C
330
7466
100
AcDbSymbolTableRecord
100
AcDbBlockTableRecord
  2
*D15
340
0
  0
BLOCK_RECORD
  5
182A8
330
7466
100
AcDbSymbolTableRecord
100
AcDbBlockTableRecord
  2
*D16
340
0
  0
BLOCK_RECORD
  5
182B6
330
7466
100
AcDbSymbolTableRecord
100
AcDbBlockTableRecord
  2
*D17
340
0
  0
BLOCK_RECORD
  5
182CE
330
7466
100
AcDbSymbolTableRecord
100
AcDbBlockTableRecord
  2
*D18
340
0
  0
BLOCK_RECORD
  5
182DA
330
7466
100
AcDbSymbolTableRecord
100
AcDbBlockTableRecord
  2
*D19
340
0
  0
BLOCK_RECORD
  5
182E6
330
7466
100
AcDbSymbolTableRecord
100
AcDbBlockTableRecord
  2
*D20
340
0
  0
BLOCK_RECORD
  5
182F2
330
7466
100
AcDbSymbolTableRecord
100
AcDbBlockTableRecord
  2
*D21
340
0
  0
BLOCK_RECORD
  5
18300
330
7466
100
AcDbSymbolTableRecord
100
AcDbBlockTableRecord
  2
*D22
340
0
  0
BLOCK_RECORD
  5
1830C
330
7466
100
AcDbSymbolTableRecord
100
AcDbBlockTableRecord
  2
*D23
340
0
  0
BLOCK_RECORD
  5
187A0
330
7466
100
AcDbSymbolTableRecord
100
AcDbBlockTableRecord
  2
*D24
340
0
  0
BLOCK_RECORD
  5
187AE
330
7466
100
AcDbSymbolTableRecord
100
AcDbBlockTableRecord
  2
*D25
340
0
  0
BLOCK_RECORD
  5
187BA
330
7466
100
AcDbSymbolTableRecord
100
AcDbBlockTableRecord
  2
*D26
340
0
  0
BLOCK_RECORD
  5
187C8
330
7466
100
AcDbSymbolTableRecord
100
AcDbBlockTableRecord
  2
*D27
340
0
  0
BLOCK_RECORD
  5
187D4
330
7466
100
AcDbSymbolTableRecord
100
AcDbBlockTableRecord
  2
*D28
340
0
  0
BLOCK_RECORD
  5
187E0
330
7466
100
AcDbSymbolTableRecord
100
AcDbBlockTableRecord
  2
*D29
340
0
  0
BLOCK_RECORD
  5
18E6F
330
7466
100
AcDbSymbolTableRecord
100
AcDbBlockTableRecord
  2
*D30
340
0
  0
BLOCK_RECORD
  5
191B2
330
7466
100
AcDbSymbolTableRecord
100
AcDbBlockTableRecord
  2
*D31
340
0
  0
BLOCK_RECORD
  5
191BE
330
7466
100
AcDbSymbolTableRecord
100
AcDbBlockTableRecord
  2
*D32
340
0
  0
BLOCK_RECORD
  5
191CC
330
7466
100
AcDbSymbolTableRecord
100
AcDbBlockTableRecord
  2
*D33
340
0
  0
ENDTAB
  0
ENDSEC
  0
SECTION
  2
BLOCKS
  0
BLOCK
  5
7489
330
747D
100
AcDbEntity
  8
0
100
AcDbBlockBegin
  2
*MODEL_SPACE
 70
     0
 10
0.0
 20
0.0
 30
0.0
  3
*MODEL_SPACE
  1

  0
ENDBLK
  5
748A
330
747D
100
AcDbEntity
  8
0
100
AcDbBlockEnd
  0
BLOCK
  5
7487
330
747A
100
AcDbEntity
 67
     1
  8
0
100
AcDbBlockBegin
  2
*PAPER_SPACE
 70
     0
 10
0.0
 20
0.0
 30
0.0
  3
*PAPER_SPACE
  1

  0
ENDBLK
  5
7488
330
747A
100
AcDbEntity
 67
     1
  8
0
100
AcDbBlockEnd
  0
BLOCK
  5
F771
330
F770
100
AcDbEntity
  8
0
 48
50.0
100
AcDbBlockBegin
  2
_DOTSMALL
 70
     0
 10
0.0
 20
0.0
 30
0.0
  3
_DOTSMALL
  1

  0
LWPOLYLINE
  5
F772
330
F770
100
AcDbEntity
  8
0
  6
ByBlock
 62
     0
 48
50.0
100
AcDbPolyline
 90
        2
 70
     1
 43
0.5
 10
-0.0625
 20
0.0
 42
1.0
 10
0.0625
 20
0.0
 42
1.0
  0
ENDBLK
  5
F776
330
F770
100
AcDbEntity
  8
0
 48
50.0
100
AcDbBlockEnd
  0
BLOCK
  5
17A9F
330
17A9E
100
AcDbEntity
  8
0
 48
50.0
100
AcDbBlockBegin
  2
_DOT
 70
     0
 10
0.0
 20
0.0
 30
0.0
  3
_DOT
  1

  0
LWPOLYLINE
  5
17AA0
330
17A9E
100
AcDbEntity
  8
0
  6
ByBlock
 62
     0
 48
50.0
100
AcDbPolyline
 90
        2
 70
     1
 43
0.5
 10
-0.25
 20
0.0
 42
1.0
 10
0.25
 20
0.0
 42
1.0
  0
LINE
  5
17AA1
330
17A9E
100
AcDbEntity
  8
0
  6
ByBlock
 62
     0
 48
50.0
100
AcDbLine
 10
-0.5
 20
0.0
 30
0.0
 11
-1.0
 21
0.0
 31
0.0
  0
ENDBLK
  5
17AA2
330
17A9E
100
AcDbEntity
  8
0
 48
50.0
100
AcDbBlockEnd
  0
BLOCK
  5
181B5
330
181AB
100
AcDbEntity
  8
0
 48
50.0
100
AcDbBlockBegin
  2
*D2
 70
     1
 10
0.0
 20
0.0
 30
0.0
  3
*D2
  1

  0
LINE
  5
18BD4
330
181AB
100
AcDbEntity
  8
寸法
 62
     0
 48
50.0
370
    -2
100
AcDbLine
 10
11507.22836296777
 20
2431.01274692675
 30
0.0
 11
12082.3984587302
 21
2431.01274692675
 31
0.0
  0
LINE
  5
18BD5
330
181AB
100
AcDbEntity
  8
寸法
 62
     0
 48
50.0
370
    -2
100
AcDbLine
 10
11587.22836296776
 20
4451.012746926751
 30
0.0
 11
12082.3984587302
 21
4451.012746926751
 31
0.0
  0
LINE
  5
18BD6
330
181AB
100
AcDbEntity
  8
寸法
 62
     0
 48
50.0
370
    -2
100
AcDbLine
 10
12022.3984587302
 20
2431.01274692675
 30
0.0
 11
12022.3984587302
 21
4451.012746926751
 31
0.0
  0
INSERT
  5
18BD7
330
181AB
100
AcDbEntity
  8
寸法
 62
     0
 48
50.0
370
    -2
100
AcDbBlockReference
  2
_DOTSMALL
 10
12022.3984587302
 20
2431.01274692675
 30
0.0
 41
100.0
 42
100.0
 43
100.0
 50
270.0
  0
INSERT
  5
18BD8
330
181AB
100
AcDbEntity
  8
寸法
 62
     0
 48
50.0
370
    -2
100
AcDbBlockReference
  2
_DOTSMALL
 10
12022.3984587302
 20
4451.012746926751
 30
0.0
 41
100.0
 42
100.0
 43
100.0
 50
90.0
  0
MTEXT
  5
18BD9
330
181AB
100
AcDbEntity
  8
寸法
 62
     7
 48
50.0
100
AcDbMText
 10
11922.38664770658
 20
3413.269074356438
 30
0.0
 40
120.0
 41
0.0
 71
     5
 72
     1
  1
\A1;2020
  7
STYLE1
 11
0.0000000000000001
 21
1.0
 31
0.0
 73
     1
 44
1.0
1001
ACAD
1000
MTEXTBEGIN
1070
    73
1070
     1
1070
    44
1040
1.0
1070
    74
1070
     0
1000
MTEXTEND
  0
POINT
  5
18BDA
330
181AB
100
AcDbEntity
  8
DEFPOINTS
 62
     0
 48
50.0
100
AcDbPoint
 10
11487.22836296777
 20
2431.01274692675
 30
0.0
  0
POINT
  5
18BDB
330
181AB
100
AcDbEntity
  8
DEFPOINTS
 62
     0
 48
50.0
100
AcDbPoint
 10
11567.22836296776
 20
4451.012746926751
 30
0.0
  0
POINT
  5
18BDC
330
181AB
100
AcDbEntity
  8
DEFPOINTS
 62
     0
 48
50.0
100
AcDbPoint
 10
12022.3984587302
 20
4451.012746926751
 30
0.0
  0
ENDBLK
  5
181B6
330
181AB
100
AcDbEntity
  8
0
 48
50.0
100
AcDbBlockEnd
  0
BLOCK
  5
1820F
330
18203
100
AcDbEntity
  8
0
 48
50.0
100
AcDbBlockBegin
  2
*D3
 70
     1
 10
0.0
 20
0.0
 30
0.0
  3
*D3
  1

  0
LINE
  5
18CBB
330
18203
100
AcDbEntity
  8
寸法
 62
     0
 48
50.0
370
    -2
100
AcDbLine
 10
8857.228362967781
 20
4522.014365049726
 30
0.0
 11
8857.228362967781
 21
4964.670200506055
 31
0.0
  0
LINE
  5
18CBC
330
18203
100
AcDbEntity
  8
寸法
 62
     0
 48
50.0
370
    -2
100
AcDbLine
 10
8797.22836296778
 20
4526.012746926754
 30
0.0
 11
8797.22836296778
 21
4964.670200506055
 31
0.0
  0
LINE
  5
18CBD
330
18203
100
AcDbEntity
  8
寸法
 62
     0
 48
50.0
370
    -2
100
AcDbLine
 10
8857.228362967781
 20
4904.670200506054
 30
0.0
 11
8957.22836296778
 21
4904.670200506054
 31
0.0
  0
LINE
  5
18CBE
330
18203
100
AcDbEntity
  8
寸法
 62
     0
 48
50.0
370
    -2
100
AcDbLine
 10
8797.22836296778
 20
4904.670200506054
 30
0.0
 11
8377.9527724166
 21
4904.670200506054
 31
0.0
  0
LINE
  5
18CBF
330
18203
100
AcDbEntity
  8
寸法
 62
     0
 48
50.0
370
    -2
100
AcDbLine
 10
8857.228362967781
 20
4904.670200506054
 30
0.0
 11
8797.22836296778
 21
4904.670200506054
 31
0.0
  0
INSERT
  5
18CC0
330
18203
100
AcDbEntity
  8
寸法
 62
     0
 48
50.0
370
    -2
100
AcDbBlockReference
  2
_DOTSMALL
 10
8857.228362967781
 20
4904.670200506054
 30
0.0
 41
100.0
 42
100.0
 43
100.0
 50
180.0
  0
INSERT
  5
18CC1
330
18203
100
AcDbEntity
  8
寸法
 62
     0
 48
50.0
370
    -2
100
AcDbBlockReference
  2
_DOTSMALL
 10
8797.22836296778
 20
4904.670200506054
 30
0.0
 41
100.0
 42
100.0
 43
100.0
  0
MTEXT
  5
18CC2
330
18203
100
AcDbEntity
  8
寸法
 62
     7
 48
50.0
100
AcDbMText
 10
8487.590567692191
 20
5004.670200506055
 30
0.0
 40
120.0
 41
0.0
 71
     5
 72
     1
  1
\A1;60
  7
STYLE1
 73
     1
 44
1.0
1001
ACAD
1000
MTEXTBEGIN
1070
    73
1070
     1
1070
    44
1040
1.0
1070
    74
1070
     0
1000
MTEXTEND
  0
POINT
  5
18CC3
330
18203
100
AcDbEntity
  8
DEFPOINTS
 62
     0
 48
50.0
100
AcDbPoint
 10
8857.228362967781
 20
4502.014365049727
 30
0.0
  0
POINT
  5
18CC4
330
18203
100
AcDbEntity
  8
DEFPOINTS
 62
     0
 48
50.0
100
AcDbPoint
 10
8797.22836296778
 20
4506.012746926755
 30
0.0
  0
POINT
  5
18CC5
330
18203
100
AcDbEntity
  8
DEFPOINTS
 62
     0
 48
50.0
100
AcDbPoint
 10
8797.22836296778
 20
4904.670200506054
 30
0.0
  0
ENDBLK
  5
18210
330
18203
100
AcDbEntity
  8
0
 48
50.0
100
AcDbBlockEnd
  0
BLOCK
  5
1821B
330
18211
100
AcDbEntity
  8
0
 48
50.0
100
AcDbBlockBegin
  2
*D4
 70
     1
 10
0.0
 20
0.0
 30
0.0
  3
*D4
  1

  0
LINE
  5
18CB2
330
18211
100
AcDbEntity
  8
寸法
 62
     0
 48
50.0
370
    -2
100
AcDbLine
 10
11487.22836296778
 20
4472.823426538404
 30
0.0
 11
11487.22836296778
 21
4964.670200506056
 31
0.0
  0
LINE
  5
18CB3
330
18211
100
AcDbEntity
  8
寸法
 62
     0
 48
50.0
370
    -2
100
AcDbLine
 10
8857.228362967781
 20
4522.014365049726
 30
0.0
 11
8857.228362967781
 21
4964.670200506056
 31
0.0
  0
LINE
  5
18CB4
330
18211
100
AcDbEntity
  8
寸法
 62
     0
 48
50.0
370
    -2
100
AcDbLine
 10
11487.22836296778
 20
4904.670200506055
 30
0.0
 11
8857.228362967781
 21
4904.670200506055
 31
0.0
  0
INSERT
  5
18CB5
330
18211
100
AcDbEntity
  8
寸法
 62
     0
 48
50.0
370
    -2
100
AcDbBlockReference
  2
_DOTSMALL
 10
11487.22836296778
 20
4904.670200506055
 30
0.0
 41
100.0
 42
100.0
 43
100.0
  0
INSERT
  5
18CB6
330
18211
100
AcDbEntity
  8
寸法
 62
     0
 48
50.0
370
    -2
100
AcDbBlockReference
  2
_DOTSMALL
 10
8857.228362967781
 20
4904.670200506055
 30
0.0
 41
100.0
 42
100.0
 43
100.0
 50
180.0
  0
MTEXT
  5
18CB7
330
18211
100
AcDbEntity
  8
寸法
 62
     7
 48
50.0
100
AcDbMText
 10
10211.99855399697
 20
5004.682011529677
 30
0.0
 40
120.0
 41
0.0
 71
     5
 72
     1
  1
\A1;柱外寸法2630
  7
STYLE1
 73
     1
 44
1.0
1001
ACAD
1000
MTEXTBEGIN
1070
    73
1070
     1
1070
    44
1040
1.0
1070
    74
1070
     0
1000
MTEXTEND
  0
POINT
  5
18CB8
330
18211
100
AcDbEntity
  8
DEFPOINTS
 62
     0
 48
50.0
100
AcDbPoint
 10
11487.22836296778
 20
4452.823426538404
 30
0.0
  0
POINT
  5
18CB9
330
18211
100
AcDbEntity
  8
DEFPOINTS
 62
     0
 48
50.0
100
AcDbPoint
 10
8857.228362967781
 20
4502.014365049727
 30
0.0
  0
POINT
  5
18CBA
330
18211
100
AcDbEntity
  8
DEFPOINTS
 62
     0
 48
50.0
100
AcDbPoint
 10
8857.228362967781
 20
4904.670200506055
 30
0.0
  0
ENDBLK
  5
1821C
330
18211
100
AcDbEntity
  8
0
 48
50.0
100
AcDbBlockEnd
  0
BLOCK
  5
18227
330
1821D
100
AcDbEntity
  8
0
 48
50.0
100
AcDbBlockBegin
  2
*D5
 70
     1
 10
0.0
 20
0.0
 30
0.0
  3
*D5
  1

  0
LINE
  5
18CA9
330
1821D
100
AcDbEntity
  8
寸法
 62
     0
 48
50.0
370
    -2
100
AcDbLine
 10
11567.22836296778
 20
4471.012746926752
 30
0.0
 11
11567.22836296778
 21
5184.880887237672
 31
0.0
  0
LINE
  5
18CAA
330
1821D
100
AcDbEntity
  8
寸法
 62
     0
 48
50.0
370
    -2
100
AcDbLine
 10
8797.22836296778
 20
4526.012746926754
 30
0.0
 11
8797.22836296778
 21
5184.880887237672
 31
0.0
  0
LINE
  5
18CAB
330
1821D
100
AcDbEntity
  8
寸法
 62
     0
 48
50.0
370
    -2
100
AcDbLine
 10
11567.22836296778
 20
5124.880887237672
 30
0.0
 11
8797.22836296778
 21
5124.880887237672
 31
0.0
  0
INSERT
  5
18CAC
330
1821D
100
AcDbEntity
  8
寸法
 62
     0
 48
50.0
370
    -2
100
AcDbBlockReference
  2
_DOTSMALL
 10
11567.22836296778
 20
5124.880887237672
 30
0.0
 41
100.0
 42
100.0
 43
100.0
  0
INSERT
  5
18CAD
330
1821D
100
AcDbEntity
  8
寸法
 62
     0
 48
50.0
370
    -2
100
AcDbBlockReference
  2
_DOTSMALL
 10
8797.22836296778
 20
5124.880887237672
 30
0.0
 41
100.0
 42
100.0
 43
100.0
 50
180.0
  0
MTEXT
  5
18CAE
330
1821D
100
AcDbEntity
  8
寸法
 62
     7
 48
50.0
100
AcDbMText
 10
10200.58728785515
 20
5224.892698261294
 30
0.0
 40
120.0
 41
0.0
 71
     5
 72
     1
  1
\A1;2770
  7
STYLE1
 73
     1
 44
1.0
1001
ACAD
1000
MTEXTBEGIN
1070
    73
1070
     1
1070
    44
1040
1.0
1070
    74
1070
     0
1000
MTEXTEND
  0
POINT
  5
18CAF
330
1821D
100
AcDbEntity
  8
DEFPOINTS
 62
     0
 48
50.0
100
AcDbPoint
 10
11567.22836296778
 20
4451.012746926751
 30
0.0
  0
POINT
  5
18CB0
330
1821D
100
AcDbEntity
  8
DEFPOINTS
 62
     0
 48
50.0
100
AcDbPoint
 10
8797.22836296778
 20
4506.012746926755
 30
0.0
  0
POINT
  5
18CB1
330
1821D
100
AcDbEntity
  8
DEFPOINTS
 62
     0
 48
50.0
100
AcDbPoint
 10
8797.22836296778
 20
5124.880887237672
 30
0.0
  0
ENDBLK
  5
18228
330
1821D
100
AcDbEntity
  8
0
 48
50.0
100
AcDbBlockEnd
  0
BLOCK
  5
18234
330
18229
100
AcDbEntity
  8
0
 48
50.0
100
AcDbBlockBegin
  2
*D6
 70
     1
 10
0.0
 20
0.0
 30
0.0
  3
*D6
  1

  0
LINE
  5
18C9F
330
18229
100
AcDbEntity
  8
寸法
 62
     0
 48
50.0
370
    -2
100
AcDbLine
 10
11487.22836296778
 20
4472.823426538404
 30
0.0
 11
11487.22836296778
 21
4964.670200506056
 31
0.0
  0
LINE
  5
18CA0
330
18229
100
AcDbEntity
  8
寸法
 62
     0
 48
50.0
370
    -2
100
AcDbLine
 10
11567.22836296778
 20
4471.012746926752
 30
0.0
 11
11567.22836296778
 21
4964.670200506056
 31
0.0
  0
LINE
  5
18CA1
330
18229
100
AcDbEntity
  8
寸法
 62
     0
 48
50.0
370
    -2
100
AcDbLine
 10
11487.22836296778
 20
4904.670200506055
 30
0.0
 11
11567.22836296778
 21
4904.670200506055
 31
0.0
  0
LINE
  5
18CA2
330
18229
100
AcDbEntity
  8
寸法
 62
     0
 48
50.0
370
    -2
100
AcDbLine
 10
11567.22836296778
 20
4904.670200506055
 30
0.0
 11
11879.32285115676
 21
4904.670200506055
 31
0.0
  0
INSERT
  5
18CA3
330
18229
100
AcDbEntity
  8
寸法
 62
     0
 48
50.0
370
    -2
100
AcDbBlockReference
  2
_DOTSMALL
 10
11487.22836296778
 20
4904.670200506055
 30
0.0
 41
100.0
 42
100.0
 43
100.0
 50
180.0
  0
INSERT
  5
18CA4
330
18229
100
AcDbEntity
  8
寸法
 62
     0
 48
50.0
370
    -2
100
AcDbBlockReference
  2
_DOTSMALL
 10
11567.22836296778
 20
4904.670200506055
 30
0.0
 41
100.0
 42
100.0
 43
100.0
  0
MTEXT
  5
18CA5
330
18229
100
AcDbEntity
  8
寸法
 62
     7
 48
50.0
100
AcDbMText
 10
11773.27560706227
 20
5004.670200506055
 30
0.0
 40
120.0
 41
0.0
 71
     5
 72
     1
  1
\A1;80
  7
STYLE1
 73
     1
 44
1.0
1001
ACAD
1000
MTEXTBEGIN
1070
    73
1070
     1
1070
    44
1040
1.0
1070
    74
1070
     0
1000
MTEXTEND
  0
POINT
  5
18CA6
330
18229
100
AcDbEntity
  8
DEFPOINTS
 62
     0
 48
50.0
100
AcDbPoint
 10
11487.22836296778
 20
4452.823426538404
 30
0.0
  0
POINT
  5
18CA7
330
18229
100
AcDbEntity
  8
DEFPOINTS
 62
     0
 48
50.0
100
AcDbPoint
 10
11567.22836296778
 20
4451.012746926751
 30
0.0
  0
POINT
  5
18CA8
330
18229
100
AcDbEntity
  8
DEFPOINTS
 62
     0
 48
50.0
100
AcDbPoint
 10
11567.22836296778
 20
4904.670200506055
 30
0.0
  0
ENDBLK
  5
18235
330
18229
100
AcDbEntity
  8
0
 48
50.0
100
AcDbBlockEnd
  0
BLOCK
  5
18241
330
18236
100
AcDbEntity
  8
0
 48
50.0
100
AcDbBlockBegin
  2
*D7
 70
     1
 10
0.0
 20
0.0
 30
0.0
  3
*D7
  1

  0
LINE
  5
18C95
330
18236
100
AcDbEntity
  8
寸法
 62
     0
 48
50.0
370
    -2
100
AcDbLine
 10
8782.228362967776
 20
2431.01274692675
 30
0.0
 11
7888.588981038418
 21
2431.01274692675
 31
0.0
  0
LINE
  5
18C96
330
18236
100
AcDbEntity
  8
寸法
 62
     0
 48
50.0
370
    -2
100
AcDbLine
 10
8213.575653809479
 20
2331.01274692675
 30
0.0
 11
7888.588981038418
 21
2331.01274692675
 31
0.0
  0
LINE
  5
18C97
330
18236
100
AcDbEntity
  8
寸法
 62
     0
 48
50.0
370
    -2
100
AcDbLine
 10
7948.588981038419
 20
2431.01274692675
 30
0.0
 11
7948.588981038419
 21
2331.01274692675
 31
0.0
  0
LINE
  5
18C98
330
18236
100
AcDbEntity
  8
寸法
 62
     0
 48
50.0
370
    -2
100
AcDbLine
 10
7948.588981038419
 20
2331.01274692675
 30
0.0
 11
7948.588981038418
 21
1958.91825873777
 31
0.0
  0
INSERT
  5
18C99
330
18236
100
AcDbEntity
  8
寸法
 62
     0
 48
50.0
370
    -2
100
AcDbBlockReference
  2
_DOTSMALL
 10
7948.588981038419
 20
2431.01274692675
 30
0.0
 41
100.0
 42
100.0
 43
100.0
 50
90.0
  0
INSERT
  5
18C9A
330
18236
100
AcDbEntity
  8
寸法
 62
     0
 48
50.0
370
    -2
100
AcDbBlockReference
  2
_DOTSMALL
 10
7948.588981038419
 20
2331.01274692675
 30
0.0
 41
100.0
 42
100.0
 43
100.0
 50
270.0
  0
MTEXT
  5
18C9B
330
18236
100
AcDbEntity
  8
寸法
 62
     7
 48
50.0
100
AcDbMText
 10
7848.588981038417
 20
2094.96550283226
 30
0.0
 40
120.0
 41
0.0
 71
     5
 72
     1
  1
\A1;100
  7
STYLE1
 11
0.0000000000000001
 21
1.0
 31
0.0
 73
     1
 44
1.0
1001
ACAD
1000
MTEXTBEGIN
1070
    73
1070
     1
1070
    44
1040
1.0
1070
    74
1070
     0
1000
MTEXTEND
  0
POINT
  5
18C9C
330
18236
100
AcDbEntity
  8
DEFPOINTS
 62
     0
 48
50.0
100
AcDbPoint
 10
8802.228362967777
 20
2431.01274692675
 30
0.0
  0
POINT
  5
18C9D
330
18236
100
AcDbEntity
  8
DEFPOINTS
 62
     0
 48
50.0
100
AcDbPoint
 10
8233.575653809479
 20
2331.01274692675
 30
0.0
  0
POINT
  5
18C9E
330
18236
100
AcDbEntity
  8
DEFPOINTS
 62
     0
 48
50.0
100
AcDbPoint
 10
7948.588981038419
 20
2331.01274692675
 30
0.0
  0
ENDBLK
  5
18242
330
18236
100
AcDbEntity
  8
0
 48
50.0
100
AcDbBlockEnd
  0
BLOCK
  5
1824F
330
18243
100
AcDbEntity
  8
0
 48
50.0
100
AcDbBlockBegin
  2
*D8
 70
     1
 10
0.0
 20
0.0
 30
0.0
  3
*D8
  1

  0
LINE
  5
18C8A
330
18243
100
AcDbEntity
  8
寸法
 62
     0
 48
50.0
370
    -2
100
AcDbLine
 10
8837.228362967776
 20
2481.01274692675
 30
0.0
 11
8173.57565380948
 21
2481.01274692675
 31
0.0
  0
LINE
  5
18C8B
330
18243
100
AcDbEntity
  8
寸法
 62
     0
 48
50.0
370
    -2
100
AcDbLine
 10
8782.228362967776
 20
2431.01274692675
 30
0.0
 11
8173.57565380948
 21
2431.01274692675
 31
0.0
  0
LINE
  5
18C8C
330
18243
100
AcDbEntity
  8
寸法
 62
     0
 48
50.0
370
    -2
100
AcDbLine
 10
8233.575653809479
 20
2481.01274692675
 30
0.0
 11
8233.575653809479
 21
2581.01274692675
 31
0.0
  0
LINE
  5
18C8D
330
18243
100
AcDbEntity
  8
寸法
 62
     0
 48
50.0
370
    -2
100
AcDbLine
 10
8233.575653809479
 20
2431.01274692675
 30
0.0
 11
8233.575653809479
 21
2018.91825873777
 31
0.0
  0
LINE
  5
18C8E
330
18243
100
AcDbEntity
  8
寸法
 62
     0
 48
50.0
370
    -2
100
AcDbLine
 10
8233.575653809479
 20
2481.01274692675
 30
0.0
 11
8233.575653809479
 21
2431.01274692675
 31
0.0
  0
INSERT
  5
18C8F
330
18243
100
AcDbEntity
  8
寸法
 62
     0
 48
50.0
370
    -2
100
AcDbBlockReference
  2
_DOTSMALL
 10
8233.575653809479
 20
2481.01274692675
 30
0.0
 41
100.0
 42
100.0
 43
100.0
 50
270.0
  0
INSERT
  5
18C90
330
18243
100
AcDbEntity
  8
寸法
 62
     0
 48
50.0
370
    -2
100
AcDbBlockReference
  2
_DOTSMALL
 10
8233.575653809479
 20
2431.01274692675
 30
0.0
 41
100.0
 42
100.0
 43
100.0
 50
90.0
  0
MTEXT
  5
18C91
330
18243
100
AcDbEntity
  8
寸法
 62
     7
 48
50.0
100
AcDbMText
 10
8133.575653809479
 20
2124.96550283226
 30
0.0
 40
120.0
 41
0.0
 71
     5
 72
     1
  1
\A1;50
  7
STYLE1
 11
0.0000000000000001
 21
1.0
 31
0.0
 73
     1
 44
1.0
1001
ACAD
1000
MTEXTBEGIN
1070
    73
1070
     1
1070
    44
1040
1.0
1070
    74
1070
     0
1000
MTEXTEND
  0
POINT
  5
18C92
330
18243
100
AcDbEntity
  8
DEFPOINTS
 62
     0
 48
50.0
100
AcDbPoint
 10
8857.228362967777
 20
2481.01274692675
 30
0.0
  0
POINT
  5
18C93
330
18243
100
AcDbEntity
  8
DEFPOINTS
 62
     0
 48
50.0
100
AcDbPoint
 10
8802.228362967777
 20
2431.01274692675
 30
0.0
  0
POINT
  5
18C94
330
18243
100
AcDbEntity
  8
DEFPOINTS
 62
     0
 48
50.0
100
AcDbPoint
 10
8233.575653809479
 20
2431.01274692675
 30
0.0
  0
ENDBLK
  5
18250
330
18243
100
AcDbEntity
  8
0
 48
50.0
100
AcDbBlockEnd
  0
BLOCK
  5
1825B
330
18251
100
AcDbEntity
  8
0
 48
50.0
100
AcDbBlockBegin
  2
*D9
 70
     1
 10
0.0
 20
0.0
 30
0.0
  3
*D9
  1

  0
LINE
  5
18C81
330
18251
100
AcDbEntity
  8
寸法
 62
     0
 48
50.0
370
    -2
100
AcDbLine
 10
8837.228362967776
 20
4271.012746926749
 30
0.0
 11
8173.57565380948
 21
4271.012746926749
 31
0.0
  0
LINE
  5
18C82
330
18251
100
AcDbEntity
  8
寸法
 62
     0
 48
50.0
370
    -2
100
AcDbLine
 10
8837.228362967776
 20
2481.01274692675
 30
0.0
 11
8173.57565380948
 21
2481.01274692675
 31
0.0
  0
LINE
  5
18C83
330
18251
100
AcDbEntity
  8
寸法
 62
     0
 48
50.0
370
    -2
100
AcDbLine
 10
8233.575653809481
 20
4271.012746926749
 30
0.0
 11
8233.575653809479
 21
2481.01274692675
 31
0.0
  0
INSERT
  5
18C84
330
18251
100
AcDbEntity
  8
寸法
 62
     0
 48
50.0
370
    -2
100
AcDbBlockReference
  2
_DOTSMALL
 10
8233.575653809481
 20
4271.012746926749
 30
0.0
 41
100.0
 42
100.0
 43
100.0
 50
90.0
  0
INSERT
  5
18C85
330
18251
100
AcDbEntity
  8
寸法
 62
     0
 48
50.0
370
    -2
100
AcDbBlockReference
  2
_DOTSMALL
 10
8233.575653809479
 20
2481.01274692675
 30
0.0
 41
100.0
 42
100.0
 43
100.0
 50
270.0
  0
MTEXT
  5
18C86
330
18251
100
AcDbEntity
  8
寸法
 62
     7
 48
50.0
100
AcDbMText
 10
8133.575653809479
 20
3371.467045468707
 30
0.0
 40
120.0
 41
0.0
 71
     5
 72
     1
  1
\A1;1790
  7
STYLE1
 11
0.0000000000000001
 21
1.0
 31
0.0
 73
     1
 44
1.0
1001
ACAD
1000
MTEXTBEGIN
1070
    73
1070
     1
1070
    44
1040
1.0
1070
    74
1070
     0
1000
MTEXTEND
  0
POINT
  5
18C87
330
18251
100
AcDbEntity
  8
DEFPOINTS
 62
     0
 48
50.0
100
AcDbPoint
 10
8857.228362967777
 20
4271.012746926749
 30
0.0
  0
POINT
  5
18C88
330
18251
100
AcDbEntity
  8
DEFPOINTS
 62
     0
 48
50.0
100
AcDbPoint
 10
8857.228362967777
 20
2481.01274692675
 30
0.0
  0
POINT
  5
18C89
330
18251
100
AcDbEntity
  8
DEFPOINTS
 62
     0
 48
50.0
100
AcDbPoint
 10
8233.575653809479
 20
2481.01274692675
 30
0.0
  0
ENDBLK
  5
1825C
330
18251
100
AcDbEntity
  8
0
 48
50.0
100
AcDbBlockEnd
  0
BLOCK
  5
18267
330
1825D
100
AcDbEntity
  8
0
 48
50.0
100
AcDbBlockBegin
  2
*D10
 70
     1
 10
0.0
 20
0.0
 30
0.0
  3
*D10
  1

  0
LINE
  5
18C78
330
1825D
100
AcDbEntity
  8
寸法
 62
     0
 48
50.0
370
    -2
100
AcDbLine
 10
8837.228362967776
 20
2431.01274692675
 30
0.0
 11
7888.588981038418
 21
2431.01274692675
 31
0.0
  0
LINE
  5
18C79
330
1825D
100
AcDbEntity
  8
寸法
 62
     0
 48
50.0
370
    -2
100
AcDbLine
 10
8777.228362967777
 20
4506.012746926756
 30
0.0
 11
7888.588981038418
 21
4506.012746926756
 31
0.0
  0
LINE
  5
18C7A
330
1825D
100
AcDbEntity
  8
寸法
 62
     0
 48
50.0
370
    -2
100
AcDbLine
 10
7948.588981038419
 20
2431.01274692675
 30
0.0
 11
7948.588981038419
 21
4506.012746926756
 31
0.0
  0
INSERT
  5
18C7B
330
1825D
100
AcDbEntity
  8
寸法
 62
     0
 48
50.0
370
    -2
100
AcDbBlockReference
  2
_DOTSMALL
 10
7948.588981038419
 20
2431.01274692675
 30
0.0
 41
100.0
 42
100.0
 43
100.0
 50
270.0
  0
INSERT
  5
18C7C
330
1825D
100
AcDbEntity
  8
寸法
 62
     0
 48
50.0
370
    -2
100
AcDbBlockReference
  2
_DOTSMALL
 10
7948.588981038419
 20
4506.012746926756
 30
0.0
 41
100.0
 42
100.0
 43
100.0
 50
90.0
  0
MTEXT
  5
18C7D
330
1825D
100
AcDbEntity
  8
寸法
 62
     7
 48
50.0
100
AcDbMText
 10
7848.577170014796
 20
3425.218624419861
 30
0.0
 40
120.0
 41
0.0
 71
     5
 72
     1
  1
\A1;2075
  7
STYLE1
 11
0.0000000000000001
 21
1.0
 31
0.0
 73
     1
 44
1.0
1001
ACAD
1000
MTEXTBEGIN
1070
    73
1070
     1
1070
    44
1040
1.0
1070
    74
1070
     0
1000
MTEXTEND
  0
POINT
  5
18C7E
330
1825D
100
AcDbEntity
  8
DEFPOINTS
 62
     0
 48
50.0
100
AcDbPoint
 10
8857.228362967777
 20
2431.01274692675
 30
0.0
  0
POINT
  5
18C7F
330
1825D
100
AcDbEntity
  8
DEFPOINTS
 62
     0
 48
50.0
100
AcDbPoint
 10
8797.228362967777
 20
4506.012746926756
 30
0.0
  0
POINT
  5
18C80
330
1825D
100
AcDbEntity
  8
DEFPOINTS
 62
     0
 48
50.0
100
AcDbPoint
 10
7948.588981038419
 20
4506.012746926756
 30
0.0
  0
ENDBLK
  5
18268
330
1825D
100
AcDbEntity
  8
0
 48
50.0
100
AcDbBlockEnd
  0
BLOCK
  5
18274
330
18269
100
AcDbEntity
  8
0
 48
50.0
100
AcDbBlockBegin
  2
*D11
 70
     1
 10
0.0
 20
0.0
 30
0.0
  3
*D11
  1

  0
LINE
  5
18C6E
330
18269
100
AcDbEntity
  8
寸法
 62
     0
 48
50.0
370
    -2
100
AcDbLine
 10
8796.632649258878
 20
4505.310453996411
 30
0.0
 11
8180.698210153604
 21
4523.024604270741
 31
0.0
  0
LINE
  5
18C6F
330
18269
100
AcDbEntity
  8
寸法
 62
     0
 48
50.0
370
    -2
100
AcDbLine
 10
8792.57919370225
 20
4364.368730230697
 30
0.0
 11
8176.644754596976
 21
4382.082880505026
 31
0.0
  0
LINE
  5
18C70
330
18269
100
AcDbEntity
  8
寸法
 62
     0
 48
50.0
370
    -2
100
AcDbLine
 10
8236.619956199408
 20
4380.358005800078
 30
0.0
 11
8240.673411756032
 21
4521.299729565793
 31
0.0
  0
LINE
  5
18C71
330
18269
100
AcDbEntity
  8
寸法
 62
     0
 48
50.0
370
    -2
100
AcDbLine
 10
8240.673411756032
 20
4521.299729565793
 30
0.0
 11
8251.022659985718
 21
4881.150939180383
 31
0.0
  0
INSERT
  5
18C72
330
18269
100
AcDbEntity
  8
寸法
 62
     0
 48
50.0
370
    -2
100
AcDbBlockReference
  2
_DOTSMALL
 10
8236.619956199408
 20
4380.358005800078
 30
0.0
 41
100.0
 42
100.0
 43
100.0
 50
268.3526390256379
  0
INSERT
  5
18C73
330
18269
100
AcDbEntity
  8
寸法
 62
     0
 48
50.0
370
    -2
100
AcDbBlockReference
  2
_DOTSMALL
 10
8240.673411756032
 20
4521.299729565793
 30
0.0
 41
100.0
 42
100.0
 43
100.0
 50
88.35263902563784
  0
MTEXT
  5
18C74
330
18269
100
AcDbEntity
  8
寸法
 62
     7
 48
50.0
100
AcDbMText
 10
8147.326762120949
 20
4754.079460216696
 30
0.0
 40
120.0
 41
0.0
 71
     5
 72
     1
  1
\A1;141
  7
STYLE1
 11
0.0287479117491228
 21
0.9995866933738486
 31
0.0
 73
     1
 44
1.0
1001
ACAD
1000
MTEXTBEGIN
1070
    73
1070
     1
1070
    44
1040
1.0
1070
    74
1070
     0
1000
MTEXTEND
  0
POINT
  5
18C75
330
18269
100
AcDbEntity
  8
DEFPOINTS
 62
     0
 48
50.0
100
AcDbPoint
 10
8816.624383126354
 20
4504.735495761429
 30
0.0
  0
POINT
  5
18C76
330
18269
100
AcDbEntity
  8
DEFPOINTS
 62
     0
 48
50.0
100
AcDbPoint
 10
8812.570927569728
 20
4363.793771995715
 30
0.0
  0
POINT
  5
18C77
330
18269
100
AcDbEntity
  8
DEFPOINTS
 62
     0
 48
50.0
100
AcDbPoint
 10
8236.619956199408
 20
4380.358005800078
 30
0.0
  0
ENDBLK
  5
18275
330
18269
100
AcDbEntity
  8
0
 48
50.0
100
AcDbBlockEnd
  0
BLOCK
  5
18280
330
18276
100
AcDbEntity
  8
0
 48
50.0
100
AcDbBlockBegin
  2
*D12
 70
     1
 10
0.0
 20
0.0
 30
0.0
  3
*D12
  1

  0
LINE
  5
18C65
330
18276
100
AcDbEntity
  8
寸法
 62
     0
 48
50.0
370
    -2
100
AcDbLine
 10
9285.228362967778
 20
4214.01274692675
 30
0.0
 11
8504.003556496764
 21
4214.01274692675
 31
0.0
  0
LINE
  5
18C66
330
18276
100
AcDbEntity
  8
寸法
 62
     0
 48
50.0
370
    -2
100
AcDbLine
 10
9285.228362967778
 20
2489.012746926749
 30
0.0
 11
8504.003556496762
 21
2489.01274692675
 31
0.0
  0
LINE
  5
18C67
330
18276
100
AcDbEntity
  8
寸法
 62
     0
 48
50.0
370
    -2
100
AcDbLine
 10
8564.003556496764
 20
4214.01274692675
 30
0.0
 11
8564.003556496762
 21
2489.01274692675
 31
0.0
  0
INSERT
  5
18C68
330
18276
100
AcDbEntity
  8
寸法
 62
     0
 48
50.0
370
    -2
100
AcDbBlockReference
  2
_DOTSMALL
 10
8564.003556496764
 20
4214.01274692675
 30
0.0
 41
100.0
 42
100.0
 43
100.0
 50
90.0
  0
INSERT
  5
18C69
330
18276
100
AcDbEntity
  8
寸法
 62
     0
 48
50.0
370
    -2
100
AcDbBlockReference
  2
_DOTSMALL
 10
8564.003556496762
 20
2489.01274692675
 30
0.0
 41
100.0
 42
100.0
 43
100.0
 50
270.0
  0
MTEXT
  5
18C6A
330
18276
100
AcDbEntity
  8
寸法
 62
     7
 48
50.0
100
AcDbMText
 10
8463.991745473141
 20
3390.941367135711
 30
0.0
 40
120.0
 41
0.0
 71
     5
 72
     1
  1
\A1;有効開口部高サ1725
  7
STYLE1
 11
0.0000000000000001
 21
1.0
 31
0.0
 73
     1
 44
1.0
1001
ACAD
1000
MTEXTBEGIN
1070
    73
1070
     1
1070
    44
1040
1.0
1070
    74
1070
     0
1000
MTEXTEND
  0
POINT
  5
18C6B
330
18276
100
AcDbEntity
  8
DEFPOINTS
 62
     0
 48
50.0
100
AcDbPoint
 10
9305.228362967779
 20
4214.01274692675
 30
0.0
  0
POINT
  5
18C6C
330
18276
100
AcDbEntity
  8
DEFPOINTS
 62
     0
 48
50.0
100
AcDbPoint
 10
9305.228362967779
 20
2489.012746926749
 30
0.0
  0
POINT
  5
18C6D
330
18276
100
AcDbEntity
  8
DEFPOINTS
 62
     0
 48
50.0
100
AcDbPoint
 10
8564.003556496762
 20
2489.01274692675
 30
0.0
  0
ENDBLK
  5
18281
330
18276
100
AcDbEntity
  8
0
 48
50.0
100
AcDbBlockEnd
  0
BLOCK
  5
1828C
330
18282
100
AcDbEntity
  8
0
 48
50.0
100
AcDbBlockBegin
  2
*D13
 70
     1
 10
0.0
 20
0.0
 30
0.0
  3
*D13
  1

  0
LINE
  5
18C5C
330
18282
100
AcDbEntity
  8
寸法
 62
     0
 48
50.0
370
    -2
100
AcDbLine
 10
8957.228362967779
 20
2111.01274692675
 30
0.0
 11
8957.228362967779
 21
1784.965417626372
 31
0.0
  0
LINE
  5
18C5D
330
18282
100
AcDbEntity
  8
寸法
 62
     0
 48
50.0
370
    -2
100
AcDbLine
 10
8757.228362967778
 20
2111.01274692675
 30
0.0
 11
8757.228362967778
 21
1784.965417626372
 31
0.0
  0
LINE
  5
18C5E
330
18282
100
AcDbEntity
  8
寸法
 62
     0
 48
50.0
370
    -2
100
AcDbLine
 10
8957.228362967779
 20
1844.965417626372
 30
0.0
 11
8757.228362967778
 21
1844.965417626372
 31
0.0
  0
INSERT
  5
18C5F
330
18282
100
AcDbEntity
  8
寸法
 62
     0
 48
50.0
370
    -2
100
AcDbBlockReference
  2
_DOTSMALL
 10
8957.228362967779
 20
1844.965417626372
 30
0.0
 41
100.0
 42
100.0
 43
100.0
  0
INSERT
  5
18C60
330
18282
100
AcDbEntity
  8
寸法
 62
     0
 48
50.0
370
    -2
100
AcDbBlockReference
  2
_DOTSMALL
 10
8757.228362967778
 20
1844.965417626372
 30
0.0
 41
100.0
 42
100.0
 43
100.0
 50
180.0
  0
MTEXT
  5
18C61
330
18282
100
AcDbEntity
  8
寸法
 62
     7
 48
50.0
100
AcDbMText
 10
8857.228362967777
 20
1944.977228649994
 30
0.0
 40
120.0
 41
0.0
 71
     5
 72
     1
  1
\A1;200
  7
STYLE1
 73
     1
 44
1.0
1001
ACAD
1000
MTEXTBEGIN
1070
    73
1070
     1
1070
    44
1040
1.0
1070
    74
1070
     0
1000
MTEXTEND
  0
POINT
  5
18C62
330
18282
100
AcDbEntity
  8
DEFPOINTS
 62
     0
 48
50.0
100
AcDbPoint
 10
8957.228362967779
 20
2131.01274692675
 30
0.0
  0
POINT
  5
18C63
330
18282
100
AcDbEntity
  8
DEFPOINTS
 62
     0
 48
50.0
100
AcDbPoint
 10
8757.228362967778
 20
2131.01274692675
 30
0.0
  0
POINT
  5
18C64
330
18282
100
AcDbEntity
  8
DEFPOINTS
 62
     0
 48
50.0
100
AcDbPoint
 10
8757.228362967778
 20
1844.965417626372
 30
0.0
  0
ENDBLK
  5
1828D
330
18282
100
AcDbEntity
  8
0
 48
50.0
100
AcDbBlockEnd
  0
BLOCK
  5
1829A
330
1828E
100
AcDbEntity
  8
0
 48
50.0
100
AcDbBlockBegin
  2
*D14
 70
     1
 10
0.0
 20
0.0
 30
0.0
  3
*D14
  1

  0
LINE
  5
19386
330
1828E
100
AcDbEntity
  8
寸法
 62
     0
 48
50.0
370
    -2
100
AcDbLine
 10
8857.228362967751
 20
10094.2863404696
 30
0.0
 11
8857.228362967751
 21
10434.2863404696
 31
0.0
  0
LINE
  5
19387
330
1828E
100
AcDbEntity
  8
寸法
 62
     0
 48
50.0
370
    -2
100
AcDbLine
 10
8912.228362967788
 20
10094.2863404696
 30
0.0
 11
8912.228362967788
 21
10434.2863404696
 31
0.0
  0
LINE
  5
19388
330
1828E
100
AcDbEntity
  8
寸法
 62
     0
 48
50.0
370
    -2
100
AcDbLine
 10
8912.228362967788
 20
10374.2863404696
 30
0.0
 11
9012.228362967787
 21
10374.2863404696
 31
0.0
  0
LINE
  5
19389
330
1828E
100
AcDbEntity
  8
寸法
 62
     0
 48
50.0
370
    -2
100
AcDbLine
 10
8857.228362967751
 20
10374.2863404696
 30
0.0
 11
8440.257800219272
 21
10374.2863404696
 31
0.0
  0
LINE
  5
1938A
330
1828E
100
AcDbEntity
  8
寸法
 62
     0
 48
50.0
370
    -2
100
AcDbLine
 10
8912.228362967788
 20
10374.2863404696
 30
0.0
 11
8857.228362967751
 21
10374.2863404696
 31
0.0
  0
INSERT
  5
1938B
330
1828E
100
AcDbEntity
  8
寸法
 62
     0
 48
50.0
370
    -2
100
AcDbBlockReference
  2
_DOTSMALL
 10
8912.228362967788
 20
10374.2863404696
 30
0.0
 41
100.0
 42
100.0
 43
100.0
 50
180.0
  0
INSERT
  5
1938C
330
1828E
100
AcDbEntity
  8
寸法
 62
     0
 48
50.0
370
    -2
100
AcDbBlockReference
  2
_DOTSMALL
 10
8857.228362967751
 20
10374.2863404696
 30
0.0
 41
100.0
 42
100.0
 43
100.0
  0
MTEXT
  5
1938D
330
1828E
100
AcDbEntity
  8
寸法
 62
     7
 48
50.0
100
AcDbMText
 10
8548.743081593512
 20
10474.2863404696
 30
0.0
 40
120.0
 41
0.0
 71
     5
 72
     1
  1
\A1;55
  7
STYLE1
 73
     1
 44
1.0
1001
ACAD
1000
MTEXTBEGIN
1070
    73
1070
     1
1070
    44
1040
1.0
1070
    74
1070
     0
1000
MTEXTEND
  0
POINT
  5
1938E
330
1828E
100
AcDbEntity
  8
DEFPOINTS
 62
     0
 48
50.0
100
AcDbPoint
 10
8857.228362967751
 20
10074.2863404696
 30
0.0
  0
POINT
  5
1938F
330
1828E
100
AcDbEntity
  8
DEFPOINTS
 62
     0
 48
50.0
100
AcDbPoint
 10
8912.228362967788
 20
10074.2863404696
 30
0.0
  0
POINT
  5
19390
330
1828E
100
AcDbEntity
  8
DEFPOINTS
 62
     0
 48
50.0
100
AcDbPoint
 10
8912.228362967788
 20
10374.2863404696
 30
0.0
  0
ENDBLK
  5
1829B
330
1828E
100
AcDbEntity
  8
0
 48
50.0
100
AcDbBlockEnd
  0
BLOCK
  5
182A6
330
1829C
100
AcDbEntity
  8
0
 48
50.0
100
AcDbBlockBegin
  2
*D15
 70
     1
 10
0.0
 20
0.0
 30
0.0
  3
*D15
  1

  0
LINE
  5
1937D
330
1829C
100
AcDbEntity
  8
寸法
 62
     0
 48
50.0
370
    -2
100
AcDbLine
 10
8879.369379119095
 20
9574.286340469651
 30
0.0
 11
8782.917479585851
 21
9214.322950925049
 31
0.0
  0
LINE
  5
1937E
330
1829C
100
AcDbEntity
  8
寸法
 62
     0
 48
50.0
370
    -2
100
AcDbLine
 10
10152.36937911916
 20
9574.286340469644
 30
0.0
 11
10055.91747958592
 21
9214.322950925049
 31
0.0
  0
LINE
  5
1937F
330
1829C
100
AcDbEntity
  8
寸法
 62
     0
 48
50.0
370
    -2
100
AcDbLine
 10
8798.994431131717
 20
9274.322950925052
 30
0.0
 11
10071.99443113179
 21
9274.322950925052
 31
0.0
  0
INSERT
  5
19380
330
1829C
100
AcDbEntity
  8
寸法
 62
     0
 48
50.0
370
    -2
100
AcDbBlockReference
  2
_DOTSMALL
 10
8798.994431131717
 20
9274.322950925052
 30
0.0
 41
100.0
 42
100.0
 43
100.0
 50
180.0
  0
INSERT
  5
19381
330
1829C
100
AcDbEntity
  8
寸法
 62
     0
 48
50.0
370
    -2
100
AcDbBlockReference
  2
_DOTSMALL
 10
10071.99443113179
 20
9274.322950925052
 30
0.0
 41
100.0
 42
100.0
 43
100.0
  0
MTEXT
  5
19382
330
1829C
100
AcDbEntity
  8
寸法
 62
     7
 48
50.0
100
AcDbMText
 10
9435.494431131754
 20
9374.334761948672
 30
0.0
 40
120.0
 41
0.0
 71
     5
 72
     1
  1
\A1;1273
  7
STYLE1
 73
     1
 44
1.0
1001
ACAD
1000
MTEXTBEGIN
1070
    73
1070
     1
1070
    44
1040
1.0
1070
    74
1070
     0
1000
MTEXTEND
  0
POINT
  5
19383
330
1829C
100
AcDbEntity
  8
DEFPOINTS
 62
     0
 48
50.0
100
AcDbPoint
 10
8884.728362967718
 20
9594.286340469651
 30
0.0
  0
POINT
  5
19384
330
1829C
100
AcDbEntity
  8
DEFPOINTS
 62
     0
 48
50.0
100
AcDbPoint
 10
10157.72836296779
 20
9594.286340469643
 30
0.0
  0
POINT
  5
19385
330
1829C
100
AcDbEntity
  8
DEFPOINTS
 62
     0
 48
50.0
100
AcDbPoint
 10
10071.99443113179
 20
9274.322950925052
 30
0.0
  0
ENDBLK
  5
182A7
330
1829C
100
AcDbEntity
  8
0
 48
50.0
100
AcDbBlockEnd
  0
BLOCK
  5
182B4
330
182A8
100
AcDbEntity
  8
0
 48
50.0
100
AcDbBlockBegin
  2
*D16
 70
     1
 10
0.0
 20
0.0
 30
0.0
  3
*D16
  1

  0
LINE
  5
19372
330
182A8
100
AcDbEntity
  8
寸法
 62
     0
 48
50.0
370
    -2
100
AcDbLine
 10
11432.22836296779
 20
10094.2863404697
 30
0.0
 11
11432.22836296779
 21
10434.2863404696
 31
0.0
  0
LINE
  5
19373
330
182A8
100
AcDbEntity
  8
寸法
 62
     0
 48
50.0
370
    -2
100
AcDbLine
 10
11487.22836296778
 20
10094.2863404697
 30
0.0
 11
11487.22836296778
 21
10434.2863404696
 31
0.0
  0
LINE
  5
19374
330
182A8
100
AcDbEntity
  8
寸法
 62
     0
 48
50.0
370
    -2
100
AcDbLine
 10
11432.22836296779
 20
10374.2863404696
 30
0.0
 11
11332.22836296779
 21
10374.2863404696
 31
0.0
  0
LINE
  5
19375
330
182A8
100
AcDbEntity
  8
寸法
 62
     0
 48
50.0
370
    -2
100
AcDbLine
 10
11487.22836296778
 20
10374.2863404696
 30
0.0
 11
11904.19892571626
 21
10374.2863404696
 31
0.0
  0
LINE
  5
19376
330
182A8
100
AcDbEntity
  8
寸法
 62
     0
 48
50.0
370
    -2
100
AcDbLine
 10
11432.22836296779
 20
10374.2863404696
 30
0.0
 11
11487.22836296778
 21
10374.2863404696
 31
0.0
  0
INSERT
  5
19377
330
182A8
100
AcDbEntity
  8
寸法
 62
     0
 48
50.0
370
    -2
100
AcDbBlockReference
  2
_DOTSMALL
 10
11432.22836296779
 20
10374.2863404696
 30
0.0
 41
100.0
 42
100.0
 43
100.0
  0
INSERT
  5
19378
330
182A8
100
AcDbEntity
  8
寸法
 62
     0
 48
50.0
370
    -2
100
AcDbBlockReference
  2
_DOTSMALL
 10
11487.22836296778
 20
10374.2863404696
 30
0.0
 41
100.0
 42
100.0
 43
100.0
 50
180.0
  0
MTEXT
  5
19379
330
182A8
100
AcDbEntity
  8
寸法
 62
     7
 48
50.0
100
AcDbMText
 10
11795.71364434202
 20
10474.2863404696
 30
0.0
 40
120.0
 41
0.0
 71
     5
 72
     1
  1
\A1;55
  7
STYLE1
 73
     1
 44
1.0
1001
ACAD
1000
MTEXTBEGIN
1070
    73
1070
     1
1070
    44
1040
1.0
1070
    74
1070
     0
1000
MTEXTEND
  0
POINT
  5
1937A
330
182A8
100
AcDbEntity
  8
DEFPOINTS
 62
     0
 48
50.0
100
AcDbPoint
 10
11432.22836296779
 20
10074.2863404697
 30
0.0
  0
POINT
  5
1937B
330
182A8
100
AcDbEntity
  8
DEFPOINTS
 62
     0
 48
50.0
100
AcDbPoint
 10
11487.22836296778
 20
10074.2863404697
 30
0.0
  0
POINT
  5
1937C
330
182A8
100
AcDbEntity
  8
DEFPOINTS
 62
     0
 48
50.0
100
AcDbPoint
 10
11487.22836296778
 20
10374.2863404696
 30
0.0
  0
ENDBLK
  5
182B5
330
182A8
100
AcDbEntity
  8
0
 48
50.0
100
AcDbBlockEnd
  0
BLOCK
  5
182C0
330
182B6
100
AcDbEntity
  8
0
 48
50.0
100
AcDbBlockBegin
  2
*D17
 70
     1
 10
0.0
 20
0.0
 30
0.0
  3
*D17
  1

  0
LINE
  5
19369
330
182B6
100
AcDbEntity
  8
寸法
 62
     0
 48
50.0
370
    -2
100
AcDbLine
 10
8912.228362967788
 20
10094.2863404696
 30
0.0
 11
8912.228362967788
 21
10434.2863404696
 31
0.0
  0
LINE
  5
1936A
330
182B6
100
AcDbEntity
  8
寸法
 62
     0
 48
50.0
370
    -2
100
AcDbLine
 10
11432.22836296779
 20
10094.2863404697
 30
0.0
 11
11432.22836296779
 21
10434.2863404696
 31
0.0
  0
LINE
  5
1936B
330
182B6
100
AcDbEntity
  8
寸法
 62
     0
 48
50.0
370
    -2
100
AcDbLine
 10
8912.228362967788
 20
10374.2863404696
 30
0.0
 11
11432.22836296779
 21
10374.2863404696
 31
0.0
  0
INSERT
  5
1936C
330
182B6
100
AcDbEntity
  8
寸法
 62
     0
 48
50.0
370
    -2
100
AcDbBlockReference
  2
_DOTSMALL
 10
8912.228362967788
 20
10374.2863404696
 30
0.0
 41
100.0
 42
100.0
 43
100.0
 50
180.0
  0
INSERT
  5
1936D
330
182B6
100
AcDbEntity
  8
寸法
 62
     0
 48
50.0
370
    -2
100
AcDbBlockReference
  2
_DOTSMALL
 10
11432.22836296779
 20
10374.2863404696
 30
0.0
 41
100.0
 42
100.0
 43
100.0
  0
MTEXT
  5
1936E
330
182B6
100
AcDbEntity
  8
寸法
 62
     7
 48
50.0
100
AcDbMText
 10
10172.22836296778
 20
10474.29815149322
 30
0.0
 40
120.0
 41
0.0
 71
     5
 72
     1
  1
\A1;6X420=2520
  7
STYLE1
 73
     1
 44
1.0
1001
ACAD
1000
MTEXTBEGIN
1070
    73
1070
     1
1070
    44
1040
1.0
1070
    74
1070
     0
1000
MTEXTEND
  0
POINT
  5
1936F
330
182B6
100
AcDbEntity
  8
DEFPOINTS
 62
     0
 48
50.0
100
AcDbPoint
 10
8912.228362967788
 20
10074.2863404696
 30
0.0
  0
POINT
  5
19370
330
182B6
100
AcDbEntity
  8
DEFPOINTS
 62
     0
 48
50.0
100
AcDbPoint
 10
11432.22836296779
 20
10074.2863404697
 30
0.0
  0
POINT
  5
19371
330
182B6
100
AcDbEntity
  8
DEFPOINTS
 62
     0
 48
50.0
100
AcDbPoint
 10
11432.22836296779
 20
10374.2863404696
 30
0.0
  0
ENDBLK
  5
182C1
330
182B6
100
AcDbEntity
  8
0
 48
50.0
100
AcDbBlockEnd
  0
BLOCK
  5
182D8
330
182CE
100
AcDbEntity
  8
0
 48
50.0
100
AcDbBlockBegin
  2
*D18
 70
     1
 10
0.0
 20
0.0
 30
0.0
  3
*D18
  1

  0
LINE
  5
19360
330
182CE
100
AcDbEntity
  8
寸法
 62
     0
 48
50.0
370
    -2
100
AcDbLine
 10
10179.36937911916
 20
9574.28634046971
 30
0.0
 11
10082.9174795859
 21
9214.322950925049
 31
0.0
  0
LINE
  5
19361
330
182CE
100
AcDbEntity
  8
寸法
 62
     0
 48
50.0
370
    -2
100
AcDbLine
 10
11452.36937911917
 20
9574.286340469702
 30
0.0
 11
11355.91747958591
 21
9214.322950925049
 31
0.0
  0
LINE
  5
19362
330
182CE
100
AcDbEntity
  8
寸法
 62
     0
 48
50.0
370
    -2
100
AcDbLine
 10
10098.99443113177
 20
9274.322950925052
 30
0.0
 11
11371.99443113178
 21
9274.322950925052
 31
0.0
  0
INSERT
  5
19363
330
182CE
100
AcDbEntity
  8
寸法
 62
     0
 48
50.0
370
    -2
100
AcDbBlockReference
  2
_DOTSMALL
 10
10098.99443113177
 20
9274.322950925052
 30
0.0
 41
100.0
 42
100.0
 43
100.0
 50
180.0
  0
INSERT
  5
19364
330
182CE
100
AcDbEntity
  8
寸法
 62
     0
 48
50.0
370
    -2
100
AcDbBlockReference
  2
_DOTSMALL
 10
11371.99443113178
 20
9274.322950925052
 30
0.0
 41
100.0
 42
100.0
 43
100.0
  0
MTEXT
  5
19365
330
182CE
100
AcDbEntity
  8
寸法
 62
     7
 48
50.0
100
AcDbMText
 10
10805.1162702818
 20
9374.334761948672
 30
0.0
 40
120.0
 41
0.0
 71
     5
 72
     1
  1
\A1;1273
  7
STYLE1
 73
     1
 44
1.0
1001
ACAD
1000
MTEXTBEGIN
1070
    73
1070
     1
1070
    44
1040
1.0
1070
    74
1070
     0
1000
MTEXTEND
  0
POINT
  5
19366
330
182CE
100
AcDbEntity
  8
DEFPOINTS
 62
     0
 48
50.0
100
AcDbPoint
 10
10184.72836296778
 20
9594.286340469709
 30
0.0
  0
POINT
  5
19367
330
182CE
100
AcDbEntity
  8
DEFPOINTS
 62
     0
 48
50.0
100
AcDbPoint
 10
11457.7283629678
 20
9594.286340469702
 30
0.0
  0
POINT
  5
19368
330
182CE
100
AcDbEntity
  8
DEFPOINTS
 62
     0
 48
50.0
100
AcDbPoint
 10
11371.99443113178
 20
9274.322950925052
 30
0.0
  0
ENDBLK
  5
182D9
330
182CE
100
AcDbEntity
  8
0
 48
50.0
100
AcDbBlockEnd
  0
BLOCK
  5
182E4
330
182DA
100
AcDbEntity
  8
0
 48
50.0
100
AcDbBlockBegin
  2
*D19
 70
     1
 10
0.0
 20
0.0
 30
0.0
  3
*D19
  1

  0
LINE
  5
19357
330
182DA
100
AcDbEntity
  8
寸法
 62
     0
 48
50.0
370
    -2
100
AcDbLine
 10
11507.22836296778
 20
10074.2863404697
 30
0.0
 11
12547.22836296779
 21
10074.28634046969
 31
0.0
  0
LINE
  5
19358
330
182DA
100
AcDbEntity
  8
寸法
 62
     0
 48
50.0
370
    -2
100
AcDbLine
 10
11507.22836296776
 20
7444.286340469687
 30
0.0
 11
12547.22836296779
 21
7444.286340469687
 31
0.0
  0
LINE
  5
19359
330
182DA
100
AcDbEntity
  8
寸法
 62
     0
 48
50.0
370
    -2
100
AcDbLine
 10
12487.22836296779
 20
10074.28634046969
 30
0.0
 11
12487.22836296779
 21
7444.286340469687
 31
0.0
  0
INSERT
  5
1935A
330
182DA
100
AcDbEntity
  8
寸法
 62
     0
 48
50.0
370
    -2
100
AcDbBlockReference
  2
_DOTSMALL
 10
12487.22836296779
 20
10074.28634046969
 30
0.0
 41
100.0
 42
100.0
 43
100.0
 50
90.0
  0
INSERT
  5
1935B
330
182DA
100
AcDbEntity
  8
寸法
 62
     0
 48
50.0
370
    -2
100
AcDbBlockReference
  2
_DOTSMALL
 10
12487.22836296779
 20
7444.286340469687
 30
0.0
 41
100.0
 42
100.0
 43
100.0
 50
270.0
  0
MTEXT
  5
1935C
330
182DA
100
AcDbEntity
  8
寸法
 62
     7
 48
50.0
100
AcDbMText
 10
12387.21655194417
 20
8759.286340469694
 30
0.0
 40
120.0
 41
0.0
 71
     5
 72
     1
  1
\A1;2630
  7
STYLE1
 11
0.0000000000000001
 21
1.0
 31
0.0
 73
     1
 44
1.0
1001
ACAD
1000
MTEXTBEGIN
1070
    73
1070
     1
1070
    44
1040
1.0
1070
    74
1070
     0
1000
MTEXTEND
  0
POINT
  5
1935D
330
182DA
100
AcDbEntity
  8
DEFPOINTS
 62
     0
 48
50.0
100
AcDbPoint
 10
11487.22836296778
 20
10074.2863404697
 30
0.0
  0
POINT
  5
1935E
330
182DA
100
AcDbEntity
  8
DEFPOINTS
 62
     0
 48
50.0
100
AcDbPoint
 10
11487.22836296776
 20
7444.286340469687
 30
0.0
  0
POINT
  5
1935F
330
182DA
100
AcDbEntity
  8
DEFPOINTS
 62
     0
 48
50.0
100
AcDbPoint
 10
12487.22836296779
 20
7444.286340469687
 30
0.0
  0
ENDBLK
  5
182E5
330
182DA
100
AcDbEntity
  8
0
 48
50.0
100
AcDbBlockEnd
  0
BLOCK
  5
182F0
330
182E6
100
AcDbEntity
  8
0
 48
50.0
100
AcDbBlockBegin
  2
*D20
 70
     1
 10
0.0
 20
0.0
 30
0.0
  3
*D20
  1

  0
LINE
  5
1934E
330
182E6
100
AcDbEntity
  8
寸法
 62
     0
 48
50.0
370
    -2
100
AcDbLine
 10
11507.22836296778
 20
10019.2863404697
 30
0.0
 11
12247.22836296778
 21
10019.2863404697
 31
0.0
  0
LINE
  5
1934F
330
182E6
100
AcDbEntity
  8
寸法
 62
     0
 48
50.0
370
    -2
100
AcDbLine
 10
11507.22836296776
 20
7499.286340469684
 30
0.0
 11
12247.22836296778
 21
7499.286340469684
 31
0.0
  0
LINE
  5
19350
330
182E6
100
AcDbEntity
  8
寸法
 62
     0
 48
50.0
370
    -2
100
AcDbLine
 10
12187.22836296778
 20
10019.2863404697
 30
0.0
 11
12187.22836296778
 21
7499.286340469684
 31
0.0
  0
INSERT
  5
19351
330
182E6
100
AcDbEntity
  8
寸法
 62
     0
 48
50.0
370
    -2
100
AcDbBlockReference
  2
_DOTSMALL
 10
12187.22836296778
 20
10019.2863404697
 30
0.0
 41
100.0
 42
100.0
 43
100.0
 50
90.0
  0
INSERT
  5
19352
330
182E6
100
AcDbEntity
  8
寸法
 62
     0
 48
50.0
370
    -2
100
AcDbBlockReference
  2
_DOTSMALL
 10
12187.22836296778
 20
7499.286340469684
 30
0.0
 41
100.0
 42
100.0
 43
100.0
 50
270.0
  0
MTEXT
  5
19353
330
182E6
100
AcDbEntity
  8
寸法
 62
     7
 48
50.0
100
AcDbMText
 10
12087.21655194415
 20
8759.286340469694
 30
0.0
 40
120.0
 41
0.0
 71
     5
 72
     1
  1
\A1;6X420=2520
  7
STYLE1
 11
0.0000000000000001
 21
1.0
 31
0.0
 73
     1
 44
1.0
1001
ACAD
1000
MTEXTBEGIN
1070
    73
1070
     1
1070
    44
1040
1.0
1070
    74
1070
     0
1000
MTEXTEND
  0
POINT
  5
19354
330
182E6
100
AcDbEntity
  8
DEFPOINTS
 62
     0
 48
50.0
100
AcDbPoint
 10
11487.22836296778
 20
10019.2863404697
 30
0.0
  0
POINT
  5
19355
330
182E6
100
AcDbEntity
  8
DEFPOINTS
 62
     0
 48
50.0
100
AcDbPoint
 10
11487.22836296776
 20
7499.286340469684
 30
0.0
  0
POINT
  5
19356
330
182E6
100
AcDbEntity
  8
DEFPOINTS
 62
     0
 48
50.0
100
AcDbPoint
 10
12187.22836296778
 20
7499.286340469684
 30
0.0
  0
ENDBLK
  5
182F1
330
182E6
100
AcDbEntity
  8
0
 48
50.0
100
AcDbBlockEnd
  0
BLOCK
  5
182FE
330
182F2
100
AcDbEntity
  8
0
 48
50.0
100
AcDbBlockBegin
  2
*D21
 70
     1
 10
0.0
 20
0.0
 30
0.0
  3
*D21
  1

  0
LINE
  5
19343
330
182F2
100
AcDbEntity
  8
寸法
 62
     0
 48
50.0
370
    -2
100
AcDbLine
 10
11507.22836296776
 20
7499.286340469684
 30
0.0
 11
12247.22836296776
 21
7499.286340469684
 31
0.0
  0
LINE
  5
19344
330
182F2
100
AcDbEntity
  8
寸法
 62
     0
 48
50.0
370
    -2
100
AcDbLine
 10
11507.22836296776
 20
7444.286340469687
 30
0.0
 11
12247.22836296776
 21
7444.286340469687
 31
0.0
  0
LINE
  5
19345
330
182F2
100
AcDbEntity
  8
寸法
 62
     0
 48
50.0
370
    -2
100
AcDbLine
 10
12187.22836296776
 20
7499.286340469684
 30
0.0
 11
12187.22836296776
 21
7599.286340469683
 31
0.0
  0
LINE
  5
19346
330
182F2
100
AcDbEntity
  8
寸法
 62
     0
 48
50.0
370
    -2
100
AcDbLine
 10
12187.22836296776
 20
7444.286340469687
 30
0.0
 11
12187.22836296776
 21
7027.315777721196
 31
0.0
  0
LINE
  5
19347
330
182F2
100
AcDbEntity
  8
寸法
 62
     0
 48
50.0
370
    -2
100
AcDbLine
 10
12187.22836296776
 20
7499.286340469684
 30
0.0
 11
12187.22836296776
 21
7444.286340469687
 31
0.0
  0
INSERT
  5
19348
330
182F2
100
AcDbEntity
  8
寸法
 62
     0
 48
50.0
370
    -2
100
AcDbBlockReference
  2
_DOTSMALL
 10
12187.22836296776
 20
7499.286340469684
 30
0.0
 41
100.0
 42
100.0
 43
100.0
 50
270.0
  0
INSERT
  5
19349
330
182F2
100
AcDbEntity
  8
寸法
 62
     0
 48
50.0
370
    -2
100
AcDbBlockReference
  2
_DOTSMALL
 10
12187.22836296776
 20
7444.286340469687
 30
0.0
 41
100.0
 42
100.0
 43
100.0
 50
90.0
  0
MTEXT
  5
1934A
330
182F2
100
AcDbEntity
  8
寸法
 62
     7
 48
50.0
100
AcDbMText
 10
12087.22836296776
 20
7135.801059095438
 30
0.0
 40
120.0
 41
0.0
 71
     5
 72
     1
  1
\A1;55
  7
STYLE1
 11
0.0000000000000001
 21
1.0
 31
0.0
 73
     1
 44
1.0
1001
ACAD
1000
MTEXTBEGIN
1070
    73
1070
     1
1070
    44
1040
1.0
1070
    74
1070
     0
1000
MTEXTEND
  0
POINT
  5
1934B
330
182F2
100
AcDbEntity
  8
DEFPOINTS
 62
     0
 48
50.0
100
AcDbPoint
 10
11487.22836296776
 20
7499.286340469684
 30
0.0
  0
POINT
  5
1934C
330
182F2
100
AcDbEntity
  8
DEFPOINTS
 62
     0
 48
50.0
100
AcDbPoint
 10
11487.22836296776
 20
7444.286340469687
 30
0.0
  0
POINT
  5
1934D
330
182F2
100
AcDbEntity
  8
DEFPOINTS
 62
     0
 48
50.0
100
AcDbPoint
 10
12187.22836296776
 20
7444.286340469687
 30
0.0
  0
ENDBLK
  5
182FF
330
182F2
100
AcDbEntity
  8
0
 48
50.0
100
AcDbBlockEnd
  0
BLOCK
  5
1830A
330
18300
100
AcDbEntity
  8
0
 48
50.0
100
AcDbBlockBegin
  2
*D22
 70
     1
 10
0.0
 20
0.0
 30
0.0
  3
*D22
  1

  0
LINE
  5
1933A
330
18300
100
AcDbEntity
  8
寸法
 62
     0
 48
50.0
370
    -2
100
AcDbLine
 10
11478.72836296778
 20
10038.92735662107
 30
0.0
 11
11947.22836296778
 21
9913.393159967096
 31
0.0
  0
LINE
  5
1933B
330
18300
100
AcDbEntity
  8
寸法
 62
     0
 48
50.0
370
    -2
100
AcDbLine
 10
11478.72836296778
 20
9588.927356621081
 30
0.0
 11
11947.22836296778
 21
9463.3931599671
 31
0.0
  0
LINE
  5
1933C
330
18300
100
AcDbEntity
  8
寸法
 62
     0
 48
50.0
370
    -2
100
AcDbLine
 10
11887.22836296778
 20
9929.470111512962
 30
0.0
 11
11887.22836296778
 21
9479.470111512966
 31
0.0
  0
INSERT
  5
1933D
330
18300
100
AcDbEntity
  8
寸法
 62
     0
 48
50.0
370
    -2
100
AcDbBlockReference
  2
_DOTSMALL
 10
11887.22836296778
 20
9929.470111512962
 30
0.0
 41
100.0
 42
100.0
 43
100.0
 50
90.0
  0
INSERT
  5
1933E
330
18300
100
AcDbEntity
  8
寸法
 62
     0
 48
50.0
370
    -2
100
AcDbBlockReference
  2
_DOTSMALL
 10
11887.22836296778
 20
9479.470111512966
 30
0.0
 41
100.0
 42
100.0
 43
100.0
 50
270.0
  0
MTEXT
  5
1933F
330
18300
100
AcDbEntity
  8
寸法
 62
     7
 48
50.0
100
AcDbMText
 10
11787.22836296778
 20
9704.470111512966
 30
0.0
 40
120.0
 41
0.0
 71
     5
 72
     1
  1
\A1;450
  7
STYLE1
 11
0.0000000000000001
 21
1.0
 31
0.0
 73
     1
 44
1.0
1001
ACAD
1000
MTEXTBEGIN
1070
    73
1070
     1
1070
    44
1040
1.0
1070
    74
1070
     0
1000
MTEXTEND
  0
POINT
  5
19340
330
18300
100
AcDbEntity
  8
DEFPOINTS
 62
     0
 48
50.0
100
AcDbPoint
 10
11458.72836296778
 20
10044.2863404697
 30
0.0
  0
POINT
  5
19341
330
18300
100
AcDbEntity
  8
DEFPOINTS
 62
     0
 48
50.0
100
AcDbPoint
 10
11458.72836296778
 20
9594.286340469702
 30
0.0
  0
POINT
  5
19342
330
18300
100
AcDbEntity
  8
DEFPOINTS
 62
     0
 48
50.0
100
AcDbPoint
 10
11887.22836296778
 20
9479.470111512966
 30
0.0
  0
ENDBLK
  5
1830B
330
18300
100
AcDbEntity
  8
0
 48
50.0
100
AcDbBlockEnd
  0
BLOCK
  5
18318
330
1830C
100
AcDbEntity
  8
0
 48
50.0
100
AcDbBlockBegin
  2
*D23
 70
     1
 10
0.0
 20
0.0
 30
0.0
  3
*D23
  1

  0
LINE
  5
1932F
330
1830C
100
AcDbEntity
  8
寸法
 62
     0
 48
50.0
370
    -2
100
AcDbLine
 10
11507.22836296778
 20
10074.2863404697
 30
0.0
 11
12247.22836296778
 21
10074.2863404697
 31
0.0
  0
LINE
  5
19330
330
1830C
100
AcDbEntity
  8
寸法
 62
     0
 48
50.0
370
    -2
100
AcDbLine
 10
11507.22836296778
 20
10019.2863404697
 30
0.0
 11
12247.22836296778
 21
10019.2863404697
 31
0.0
  0
LINE
  5
19331
330
1830C
100
AcDbEntity
  8
寸法
 62
     0
 48
50.0
370
    -2
100
AcDbLine
 10
12187.22836296778
 20
10019.2863404697
 30
0.0
 11
12187.22836296778
 21
9919.286340469703
 31
0.0
  0
LINE
  5
19332
330
1830C
100
AcDbEntity
  8
寸法
 62
     0
 48
50.0
370
    -2
100
AcDbLine
 10
12187.22836296778
 20
10074.2863404697
 30
0.0
 11
12187.22836296778
 21
10491.25690321817
 31
0.0
  0
LINE
  5
19333
330
1830C
100
AcDbEntity
  8
寸法
 62
     0
 48
50.0
370
    -2
100
AcDbLine
 10
12187.22836296778
 20
10019.2863404697
 30
0.0
 11
12187.22836296778
 21
10074.2863404697
 31
0.0
  0
INSERT
  5
19334
330
1830C
100
AcDbEntity
  8
寸法
 62
     0
 48
50.0
370
    -2
100
AcDbBlockReference
  2
_DOTSMALL
 10
12187.22836296778
 20
10019.2863404697
 30
0.0
 41
100.0
 42
100.0
 43
100.0
 50
90.0
  0
INSERT
  5
19335
330
1830C
100
AcDbEntity
  8
寸法
 62
     0
 48
50.0
370
    -2
100
AcDbBlockReference
  2
_DOTSMALL
 10
12187.22836296778
 20
10074.2863404697
 30
0.0
 41
100.0
 42
100.0
 43
100.0
 50
270.0
  0
MTEXT
  5
19336
330
1830C
100
AcDbEntity
  8
寸法
 62
     7
 48
50.0
100
AcDbMText
 10
12087.22836296777
 20
10382.77162184394
 30
0.0
 40
120.0
 41
0.0
 71
     5
 72
     1
  1
\A1;55
  7
STYLE1
 11
0.0000000000000001
 21
1.0
 31
0.0
 73
     1
 44
1.0
1001
ACAD
1000
MTEXTBEGIN
1070
    73
1070
     1
1070
    44
1040
1.0
1070
    74
1070
     0
1000
MTEXTEND
  0
POINT
  5
19337
330
1830C
100
AcDbEntity
  8
DEFPOINTS
 62
     0
 48
50.0
100
AcDbPoint
 10
11487.22836296778
 20
10074.2863404697
 30
0.0
  0
POINT
  5
19338
330
1830C
100
AcDbEntity
  8
DEFPOINTS
 62
     0
 48
50.0
100
AcDbPoint
 10
11487.22836296778
 20
10019.2863404697
 30
0.0
  0
POINT
  5
19339
330
1830C
100
AcDbEntity
  8
DEFPOINTS
 62
     0
 48
50.0
100
AcDbPoint
 10
12187.22836296778
 20
10019.2863404697
 30
0.0
  0
ENDBLK
  5
18319
330
1830C
100
AcDbEntity
  8
0
 48
50.0
100
AcDbBlockEnd
  0
BLOCK
  5
187AC
330
187A0
100
AcDbEntity
  8
0
 48
50.0
100
AcDbBlockBegin
  2
*D24
 70
     1
 10
0.0
 20
0.0
 30
0.0
  3
*D24
  1

  0
LINE
  5
18BC9
330
187A0
100
AcDbEntity
  8
寸法
 62
     0
 48
50.0
370
    -2
100
AcDbLine
 10
6825.131333630531
 20
4526.01274692675
 30
0.0
 11
6825.131333630531
 21
4970.63300635402
 31
0.0
  0
LINE
  5
18BCA
330
187A0
100
AcDbEntity
  8
寸法
 62
     0
 48
50.0
370
    -2
100
AcDbLine
 10
6775.131333630532
 20
4526.012746926752
 30
0.0
 11
6775.131333630532
 21
4970.63300635402
 31
0.0
  0
LINE
  5
18BCB
330
187A0
100
AcDbEntity
  8
寸法
 62
     0
 48
50.0
370
    -2
100
AcDbLine
 10
6775.131333630532
 20
4910.633006354022
 30
0.0
 11
6675.131333630531
 21
4910.633006354022
 31
0.0
  0
LINE
  5
18BCC
330
187A0
100
AcDbEntity
  8
寸法
 62
     0
 48
50.0
370
    -2
100
AcDbLine
 10
6825.131333630531
 20
4910.633006354022
 30
0.0
 11
7244.663859099261
 21
4910.633006354022
 31
0.0
  0
LINE
  5
18BCD
330
187A0
100
AcDbEntity
  8
寸法
 62
     0
 48
50.0
370
    -2
100
AcDbLine
 10
6775.131333630532
 20
4910.633006354022
 30
0.0
 11
6825.131333630531
 21
4910.633006354022
 31
0.0
  0
INSERT
  5
18BCE
330
187A0
100
AcDbEntity
  8
寸法
 62
     0
 48
50.0
370
    -2
100
AcDbBlockReference
  2
_DOTSMALL
 10
6775.131333630532
 20
4910.633006354022
 30
0.0
 41
100.0
 42
100.0
 43
100.0
  0
INSERT
  5
18BCF
330
187A0
100
AcDbEntity
  8
寸法
 62
     0
 48
50.0
370
    -2
100
AcDbBlockReference
  2
_DOTSMALL
 10
6825.131333630531
 20
4910.633006354022
 30
0.0
 41
100.0
 42
100.0
 43
100.0
 50
180.0
  0
MTEXT
  5
18BD0
330
187A0
100
AcDbEntity
  8
寸法
 62
     7
 48
50.0
100
AcDbMText
 10
7138.616615004773
 20
5010.633006354021
 30
0.0
 40
120.0
 41
0.0
 71
     5
 72
     1
  1
\A1;50
  7
STYLE1
 73
     1
 44
1.0
1001
ACAD
1000
MTEXTBEGIN
1070
    73
1070
     1
1070
    44
1040
1.0
1070
    74
1070
     0
1000
MTEXTEND
  0
POINT
  5
18BD1
330
187A0
100
AcDbEntity
  8
DEFPOINTS
 62
     0
 48
50.0
100
AcDbPoint
 10
6825.131333630531
 20
4506.012746926749
 30
0.0
  0
POINT
  5
18BD2
330
187A0
100
AcDbEntity
  8
DEFPOINTS
 62
     0
 48
50.0
100
AcDbPoint
 10
6775.131333630532
 20
4506.012746926752
 30
0.0
  0
POINT
  5
18BD3
330
187A0
100
AcDbEntity
  8
DEFPOINTS
 62
     0
 48
50.0
100
AcDbPoint
 10
6775.131333630532
 20
4910.633006354022
 30
0.0
  0
ENDBLK
  5
187AD
330
187A0
100
AcDbEntity
  8
0
 48
50.0
100
AcDbBlockEnd
  0
BLOCK
  5
187B8
330
187AE
100
AcDbEntity
  8
0
 48
50.0
100
AcDbBlockBegin
  2
*D25
 70
     1
 10
0.0
 20
0.0
 30
0.0
  3
*D25
  1

  0
LINE
  5
18BC0
330
187AE
100
AcDbEntity
  8
寸法
 62
     0
 48
50.0
370
    -2
100
AcDbLine
 10
6775.131333630532
 20
4526.012746926752
 30
0.0
 11
6775.131333630532
 21
4970.63300635402
 31
0.0
  0
LINE
  5
18BC1
330
187AE
100
AcDbEntity
  8
寸法
 62
     0
 48
50.0
370
    -2
100
AcDbLine
 10
4145.131333630528
 20
4526.012746926753
 30
0.0
 11
4145.131333630528
 21
4970.63300635402
 31
0.0
  0
LINE
  5
18BC2
330
187AE
100
AcDbEntity
  8
寸法
 62
     0
 48
50.0
370
    -2
100
AcDbLine
 10
6775.131333630532
 20
4910.633006354022
 30
0.0
 11
4145.131333630528
 21
4910.633006354022
 31
0.0
  0
INSERT
  5
18BC3
330
187AE
100
AcDbEntity
  8
寸法
 62
     0
 48
50.0
370
    -2
100
AcDbBlockReference
  2
_DOTSMALL
 10
6775.131333630532
 20
4910.633006354022
 30
0.0
 41
100.0
 42
100.0
 43
100.0
  0
INSERT
  5
18BC4
330
187AE
100
AcDbEntity
  8
寸法
 62
     0
 48
50.0
370
    -2
100
AcDbBlockReference
  2
_DOTSMALL
 10
4145.131333630528
 20
4910.633006354022
 30
0.0
 41
100.0
 42
100.0
 43
100.0
 50
180.0
  0
MTEXT
  5
18BC5
330
187AE
100
AcDbEntity
  8
寸法
 62
     7
 48
50.0
100
AcDbMText
 10
5460.131333630528
 20
5010.644817377643
 30
0.0
 40
120.0
 41
0.0
 71
     5
 72
     1
  1
\A1;柱外寸法2630
  7
STYLE1
 73
     1
 44
1.0
1001
ACAD
1000
MTEXTBEGIN
1070
    73
1070
     1
1070
    44
1040
1.0
1070
    74
1070
     0
1000
MTEXTEND
  0
POINT
  5
18BC6
330
187AE
100
AcDbEntity
  8
DEFPOINTS
 62
     0
 48
50.0
100
AcDbPoint
 10
6775.131333630532
 20
4506.012746926752
 30
0.0
  0
POINT
  5
18BC7
330
187AE
100
AcDbEntity
  8
DEFPOINTS
 62
     0
 48
50.0
100
AcDbPoint
 10
4145.131333630528
 20
4506.012746926753
 30
0.0
  0
POINT
  5
18BC8
330
187AE
100
AcDbEntity
  8
DEFPOINTS
 62
     0
 48
50.0
100
AcDbPoint
 10
4145.131333630528
 20
4910.633006354022
 30
0.0
  0
ENDBLK
  5
187B9
330
187AE
100
AcDbEntity
  8
0
 48
50.0
100
AcDbBlockEnd
  0
BLOCK
  5
187C6
330
187BA
100
AcDbEntity
  8
0
 48
50.0
100
AcDbBlockBegin
  2
*D26
 70
     1
 10
0.0
 20
0.0
 30
0.0
  3
*D26
  1

  0
LINE
  5
18BB5
330
187BA
100
AcDbEntity
  8
寸法
 62
     0
 48
50.0
370
    -2
100
AcDbLine
 10
4145.131333630528
 20
4526.012746926753
 30
0.0
 11
4145.131333630528
 21
4970.63300635402
 31
0.0
  0
LINE
  5
18BB6
330
187BA
100
AcDbEntity
  8
寸法
 62
     0
 48
50.0
370
    -2
100
AcDbLine
 10
4095.131333630528
 20
4526.012746926752
 30
0.0
 11
4095.131333630528
 21
4970.63300635402
 31
0.0
  0
LINE
  5
18BB7
330
187BA
100
AcDbEntity
  8
寸法
 62
     0
 48
50.0
370
    -2
100
AcDbLine
 10
4145.131333630528
 20
4910.633006354022
 30
0.0
 11
4245.131333630528
 21
4910.633006354022
 31
0.0
  0
LINE
  5
18BB8
330
187BA
100
AcDbEntity
  8
寸法
 62
     0
 48
50.0
370
    -2
100
AcDbLine
 10
4095.131333630528
 20
4910.633006354022
 30
0.0
 11
3675.598808161793
 21
4910.633006354022
 31
0.0
  0
LINE
  5
18BB9
330
187BA
100
AcDbEntity
  8
寸法
 62
     0
 48
50.0
370
    -2
100
AcDbLine
 10
4145.131333630528
 20
4910.633006354022
 30
0.0
 11
4095.131333630528
 21
4910.633006354022
 31
0.0
  0
INSERT
  5
18BBA
330
187BA
100
AcDbEntity
  8
寸法
 62
     0
 48
50.0
370
    -2
100
AcDbBlockReference
  2
_DOTSMALL
 10
4145.131333630528
 20
4910.633006354022
 30
0.0
 41
100.0
 42
100.0
 43
100.0
 50
180.0
  0
INSERT
  5
18BBB
330
187BA
100
AcDbEntity
  8
寸法
 62
     0
 48
50.0
370
    -2
100
AcDbBlockReference
  2
_DOTSMALL
 10
4095.131333630528
 20
4910.633006354022
 30
0.0
 41
100.0
 42
100.0
 43
100.0
  0
MTEXT
  5
18BBC
330
187BA
100
AcDbEntity
  8
寸法
 62
     7
 48
50.0
100
AcDbMText
 10
3781.646052256281
 20
5010.633006354021
 30
0.0
 40
120.0
 41
0.0
 71
     5
 72
     1
  1
\A1;50
  7
STYLE1
 73
     1
 44
1.0
1001
ACAD
1000
MTEXTBEGIN
1070
    73
1070
     1
1070
    44
1040
1.0
1070
    74
1070
     0
1000
MTEXTEND
  0
POINT
  5
18BBD
330
187BA
100
AcDbEntity
  8
DEFPOINTS
 62
     0
 48
50.0
100
AcDbPoint
 10
4145.131333630528
 20
4506.012746926753
 30
0.0
  0
POINT
  5
18BBE
330
187BA
100
AcDbEntity
  8
DEFPOINTS
 62
     0
 48
50.0
100
AcDbPoint
 10
4095.131333630528
 20
4506.012746926752
 30
0.0
  0
POINT
  5
18BBF
330
187BA
100
AcDbEntity
  8
DEFPOINTS
 62
     0
 48
50.0
100
AcDbPoint
 10
4095.131333630528
 20
4910.633006354022
 30
0.0
  0
ENDBLK
  5
187C7
330
187BA
100
AcDbEntity
  8
0
 48
50.0
100
AcDbBlockEnd
  0
BLOCK
  5
187D2
330
187C8
100
AcDbEntity
  8
0
 48
50.0
100
AcDbBlockBegin
  2
*D27
 70
     1
 10
0.0
 20
0.0
 30
0.0
  3
*D27
  1

  0
LINE
  5
18BAC
330
187C8
100
AcDbEntity
  8
寸法
 62
     0
 48
50.0
370
    -2
100
AcDbLine
 10
4095.131333630528
 20
4526.012746926752
 30
0.0
 11
4095.131333630528
 21
5180.226880775472
 31
0.0
  0
LINE
  5
18BAD
330
187C8
100
AcDbEntity
  8
寸法
 62
     0
 48
50.0
370
    -2
100
AcDbLine
 10
6825.131333630531
 20
4526.01274692675
 30
0.0
 11
6825.131333630531
 21
5180.226880775472
 31
0.0
  0
LINE
  5
18BAE
330
187C8
100
AcDbEntity
  8
寸法
 62
     0
 48
50.0
370
    -2
100
AcDbLine
 10
4095.131333630528
 20
5120.226880775472
 30
0.0
 11
6825.131333630531
 21
5120.226880775472
 31
0.0
  0
INSERT
  5
18BAF
330
187C8
100
AcDbEntity
  8
寸法
 62
     0
 48
50.0
370
    -2
100
AcDbBlockReference
  2
_DOTSMALL
 10
4095.131333630528
 20
5120.226880775472
 30
0.0
 41
100.0
 42
100.0
 43
100.0
 50
180.0
  0
INSERT
  5
18BB0
330
187C8
100
AcDbEntity
  8
寸法
 62
     0
 48
50.0
370
    -2
100
AcDbBlockReference
  2
_DOTSMALL
 10
6825.131333630531
 20
5120.226880775472
 30
0.0
 41
100.0
 42
100.0
 43
100.0
  0
MTEXT
  5
18BB1
330
187C8
100
AcDbEntity
  8
寸法
 62
     7
 48
50.0
100
AcDbMText
 10
5460.131333630528
 20
5220.238691799093
 30
0.0
 40
120.0
 41
0.0
 71
     5
 72
     1
  1
\A1;2730
  7
STYLE1
 73
     1
 44
1.0
1001
ACAD
1000
MTEXTBEGIN
1070
    73
1070
     1
1070
    44
1040
1.0
1070
    74
1070
     0
1000
MTEXTEND
  0
POINT
  5
18BB2
330
187C8
100
AcDbEntity
  8
DEFPOINTS
 62
     0
 48
50.0
100
AcDbPoint
 10
4095.131333630528
 20
4506.012746926752
 30
0.0
  0
POINT
  5
18BB3
330
187C8
100
AcDbEntity
  8
DEFPOINTS
 62
     0
 48
50.0
100
AcDbPoint
 10
6825.131333630531
 20
4506.012746926749
 30
0.0
  0
POINT
  5
18BB4
330
187C8
100
AcDbEntity
  8
DEFPOINTS
 62
     0
 48
50.0
100
AcDbPoint
 10
6825.131333630531
 20
5120.226880775472
 30
0.0
  0
ENDBLK
  5
187D3
330
187C8
100
AcDbEntity
  8
0
 48
50.0
100
AcDbBlockEnd
  0
BLOCK
  5
187DE
330
187D4
100
AcDbEntity
  8
0
 48
50.0
100
AcDbBlockBegin
  2
*D28
 70
     1
 10
0.0
 20
0.0
 30
0.0
  3
*D28
  1

  0
LINE
  5
18BA3
330
187D4
100
AcDbEntity
  8
寸法
 62
     0
 48
50.0
370
    -2
100
AcDbLine
 10
4272.631333630528
 20
2111.012746926745
 30
0.0
 11
4272.631333630528
 21
1784.96541762637
 31
0.0
  0
LINE
  5
18BA4
330
187D4
100
AcDbEntity
  8
寸法
 62
     0
 48
50.0
370
    -2
100
AcDbLine
 10
4072.631333630527
 20
2111.012746926748
 30
0.0
 11
4072.631333630527
 21
1784.96541762637
 31
0.0
  0
LINE
  5
18BA5
330
187D4
100
AcDbEntity
  8
寸法
 62
     0
 48
50.0
370
    -2
100
AcDbLine
 10
4272.631333630528
 20
1844.96541762637
 30
0.0
 11
4072.631333630527
 21
1844.96541762637
 31
0.0
  0
INSERT
  5
18BA6
330
187D4
100
AcDbEntity
  8
寸法
 62
     0
 48
50.0
370
    -2
100
AcDbBlockReference
  2
_DOTSMALL
 10
4272.631333630528
 20
1844.96541762637
 30
0.0
 41
100.0
 42
100.0
 43
100.0
  0
INSERT
  5
18BA7
330
187D4
100
AcDbEntity
  8
寸法
 62
     0
 48
50.0
370
    -2
100
AcDbBlockReference
  2
_DOTSMALL
 10
4072.631333630527
 20
1844.96541762637
 30
0.0
 41
100.0
 42
100.0
 43
100.0
 50
180.0
  0
MTEXT
  5
18BA8
330
187D4
100
AcDbEntity
  8
寸法
 62
     7
 48
50.0
100
AcDbMText
 10
4172.631333630528
 20
1944.977228649992
 30
0.0
 40
120.0
 41
0.0
 71
     5
 72
     1
  1
\A1;200
  7
STYLE1
 73
     1
 44
1.0
1001
ACAD
1000
MTEXTBEGIN
1070
    73
1070
     1
1070
    44
1040
1.0
1070
    74
1070
     0
1000
MTEXTEND
  0
POINT
  5
18BA9
330
187D4
100
AcDbEntity
  8
DEFPOINTS
 62
     0
 48
50.0
100
AcDbPoint
 10
4272.631333630528
 20
2131.012746926745
 30
0.0
  0
POINT
  5
18BAA
330
187D4
100
AcDbEntity
  8
DEFPOINTS
 62
     0
 48
50.0
100
AcDbPoint
 10
4072.631333630527
 20
2131.012746926748
 30
0.0
  0
POINT
  5
18BAB
330
187D4
100
AcDbEntity
  8
DEFPOINTS
 62
     0
 48
50.0
100
AcDbPoint
 10
4072.631333630527
 20
1844.96541762637
 30
0.0
  0
ENDBLK
  5
187DF
330
187D4
100
AcDbEntity
  8
0
 48
50.0
100
AcDbBlockEnd
  0
BLOCK
  5
187EA
330
187E0
100
AcDbEntity
  8
0
 48
50.0
100
AcDbBlockBegin
  2
*D29
 70
     1
 10
0.0
 20
0.0
 30
0.0
  3
*D29
  1

  0
LINE
  5
18B9A
330
187E0
100
AcDbEntity
  8
寸法
 62
     0
 48
50.0
370
    -2
100
AcDbLine
 10
4052.631333630528
 20
2131.012746926748
 30
0.0
 11
3863.131330383895
 21
2131.012746926748
 31
0.0
  0
LINE
  5
18B9B
330
187E0
100
AcDbEntity
  8
寸法
 62
     0
 48
50.0
370
    -2
100
AcDbLine
 10
4027.631333630528
 20
2331.012746926748
 30
0.0
 11
3863.131330383895
 21
2331.012746926748
 31
0.0
  0
LINE
  5
18B9C
330
187E0
100
AcDbEntity
  8
寸法
 62
     0
 48
50.0
370
    -2
100
AcDbLine
 10
3923.131330383895
 20
2131.012746926748
 30
0.0
 11
3923.131330383895
 21
2331.012746926748
 31
0.0
  0
INSERT
  5
18B9D
330
187E0
100
AcDbEntity
  8
寸法
 62
     0
 48
50.0
370
    -2
100
AcDbBlockReference
  2
_DOTSMALL
 10
3923.131330383895
 20
2131.012746926748
 30
0.0
 41
100.0
 42
100.0
 43
100.0
 50
270.0
  0
INSERT
  5
18B9E
330
187E0
100
AcDbEntity
  8
寸法
 62
     0
 48
50.0
370
    -2
100
AcDbBlockReference
  2
_DOTSMALL
 10
3923.131330383895
 20
2331.012746926748
 30
0.0
 41
100.0
 42
100.0
 43
100.0
 50
90.0
  0
MTEXT
  5
18B9F
330
187E0
100
AcDbEntity
  8
寸法
 62
     7
 48
50.0
100
AcDbMText
 10
3823.119519360272
 20
2231.012746926749
 30
0.0
 40
120.0
 41
0.0
 71
     5
 72
     1
  1
\A1;200
  7
STYLE1
 11
0.0000000000000001
 21
1.0
 31
0.0
 73
     1
 44
1.0
1001
ACAD
1000
MTEXTBEGIN
1070
    73
1070
     1
1070
    44
1040
1.0
1070
    74
1070
     0
1000
MTEXTEND
  0
POINT
  5
18BA0
330
187E0
100
AcDbEntity
  8
DEFPOINTS
 62
     0
 48
50.0
100
AcDbPoint
 10
4072.631333630527
 20
2131.012746926748
 30
0.0
  0
POINT
  5
18BA1
330
187E0
100
AcDbEntity
  8
DEFPOINTS
 62
     0
 48
50.0
100
AcDbPoint
 10
4047.631333630528
 20
2331.012746926748
 30
0.0
  0
POINT
  5
18BA2
330
187E0
100
AcDbEntity
  8
DEFPOINTS
 62
     0
 48
50.0
100
AcDbPoint
 10
3923.131330383895
 20
2331.012746926748
 30
0.0
  0
ENDBLK
  5
187EB
330
187E0
100
AcDbEntity
  8
0
 48
50.0
100
AcDbBlockEnd
  0
BLOCK
  5
18E79
330
18E6F
100
AcDbEntity
  8
0
 48
50.0
100
AcDbBlockBegin
  2
*D30
 70
     1
 10
0.0
 20
0.0
 30
0.0
  3
*D30
  1

  0
LINE
  5
19326
330
18E6F
100
AcDbEntity
  8
寸法
 62
     0
 48
50.0
370
    -2
100
AcDbLine
 10
9344.228362967754
 20
7347.286340469558
 30
0.0
 11
9344.228362967754
 21
6687.847842202639
 31
0.0
  0
LINE
  5
19327
330
18E6F
100
AcDbEntity
  8
寸法
 62
     0
 48
50.0
370
    -2
100
AcDbLine
 10
10610.22836296775
 20
7347.286340469558
 30
0.0
 11
10610.22836296775
 21
6687.847842202639
 31
0.0
  0
LINE
  5
19328
330
18E6F
100
AcDbEntity
  8
寸法
 62
     0
 48
50.0
370
    -2
100
AcDbLine
 10
9364.228362967756
 20
6727.847842202638
 30
0.0
 11
10590.22836296775
 21
6727.847842202638
 31
0.0
  0
INSERT
  5
19329
330
18E6F
100
AcDbEntity
  8
寸法
 62
     0
 48
50.0
370
    -2
100
AcDbBlockReference
  2
_DOT
 10
9344.228362967754
 20
6727.847842202638
 30
0.0
 41
20.0
 42
20.0
 43
20.0
 50
180.0
  0
INSERT
  5
1932A
330
18E6F
100
AcDbEntity
  8
寸法
 62
     0
 48
50.0
370
    -2
100
AcDbBlockReference
  2
_DOT
 10
10610.22836296775
 20
6727.847842202638
 30
0.0
 41
20.0
 42
20.0
 43
20.0
  0
MTEXT
  5
1932B
330
18E6F
100
AcDbEntity
  8
寸法
 62
     7
 48
50.0
100
AcDbMText
 10
9969.372680740693
 20
6919.85965322626
 30
0.0
 40
120.0
 41
0.0
 71
     5
 72
     1
  1
\A1;有効開口部間口\P1266
  7
STYLE1
 73
     1
 44
1.0
1001
ACAD
1000
MTEXTBEGIN
1070
    73
1070
     1
1070
    44
1040
1.0
1070
    74
1070
     0
1000
MTEXTEND
  0
POINT
  5
1932C
330
18E6F
100
AcDbEntity
  8
DEFPOINTS
 62
     0
 48
50.0
100
AcDbPoint
 10
9344.228362967754
 20
7367.286340469558
 30
0.0
  0
POINT
  5
1932D
330
18E6F
100
AcDbEntity
  8
DEFPOINTS
 62
     0
 48
50.0
100
AcDbPoint
 10
10610.22836296775
 20
7367.286340469558
 30
0.0
  0
POINT
  5
1932E
330
18E6F
100
AcDbEntity
  8
DEFPOINTS
 62
     0
 48
50.0
100
AcDbPoint
 10
10610.22836296775
 20
6727.847842202638
 30
0.0
  0
ENDBLK
  5
18E7A
330
18E6F
100
AcDbEntity
  8
0
 48
50.0
100
AcDbBlockEnd
  0
BLOCK
  5
191BC
330
191B2
100
AcDbEntity
  8
0
 48
50.0
100
AcDbBlockBegin
  2
*D31
 70
     1
 10
0.0
 20
0.0
 30
0.0
  3
*D31
  1

  0
LINE
  5
1931D
330
191B2
100
AcDbEntity
  8
寸法
 62
     0
 48
50.0
370
    -2
100
AcDbLine
 10
8857.228362967781
 20
7424.286340469525
 30
0.0
 11
8857.228362967781
 21
6127.89882340678
 31
0.0
  0
LINE
  5
1931E
330
191B2
100
AcDbEntity
  8
寸法
 62
     0
 48
50.0
370
    -2
100
AcDbLine
 10
11487.22836296776
 20
7424.286340469689
 30
0.0
 11
11487.22836296776
 21
6127.89882340678
 31
0.0
  0
LINE
  5
1931F
330
191B2
100
AcDbEntity
  8
寸法
 62
     0
 48
50.0
370
    -2
100
AcDbLine
 10
8857.228362967781
 20
6187.898823406779
 30
0.0
 11
11487.22836296776
 21
6187.898823406779
 31
0.0
  0
INSERT
  5
19320
330
191B2
100
AcDbEntity
  8
寸法
 62
     0
 48
50.0
370
    -2
100
AcDbBlockReference
  2
_DOTSMALL
 10
8857.228362967781
 20
6187.898823406779
 30
0.0
 41
100.0
 42
100.0
 43
100.0
 50
180.0
  0
INSERT
  5
19321
330
191B2
100
AcDbEntity
  8
寸法
 62
     0
 48
50.0
370
    -2
100
AcDbBlockReference
  2
_DOTSMALL
 10
11487.22836296776
 20
6187.898823406779
 30
0.0
 41
100.0
 42
100.0
 43
100.0
  0
MTEXT
  5
19322
330
191B2
100
AcDbEntity
  8
寸法
 62
     7
 48
50.0
100
AcDbMText
 10
10190.03015160393
 20
6287.910634430401
 30
0.0
 40
120.0
 41
0.0
 71
     5
 72
     1
  1
\A1;2630
  7
STYLE1
 73
     1
 44
1.0
1001
ACAD
1000
MTEXTBEGIN
1070
    73
1070
     1
1070
    44
1040
1.0
1070
    74
1070
     0
1000
MTEXTEND
  0
POINT
  5
19323
330
191B2
100
AcDbEntity
  8
DEFPOINTS
 62
     0
 48
50.0
100
AcDbPoint
 10
8857.228362967781
 20
7444.286340469526
 30
0.0
  0
POINT
  5
19324
330
191B2
100
AcDbEntity
  8
DEFPOINTS
 62
     0
 48
50.0
100
AcDbPoint
 10
11487.22836296776
 20
7444.286340469689
 30
0.0
  0
POINT
  5
19325
330
191B2
100
AcDbEntity
  8
DEFPOINTS
 62
     0
 48
50.0
100
AcDbPoint
 10
11487.22836296776
 20
6187.898823406779
 30
0.0
  0
ENDBLK
  5
191BD
330
191B2
100
AcDbEntity
  8
0
 48
50.0
100
AcDbBlockEnd
  0
BLOCK
  5
191CA
330
191BE
100
AcDbEntity
  8
0
 48
50.0
100
AcDbBlockBegin
  2
*D32
 70
     1
 10
0.0
 20
0.0
 30
0.0
  3
*D32
  1

  0
LINE
  5
19312
330
191BE
100
AcDbEntity
  8
寸法
 62
     0
 48
50.0
370
    -2
100
AcDbLine
 10
8837.228362967781
 20
7444.286340469526
 30
0.0
 11
8522.617117341063
 21
7444.286340469526
 31
0.0
  0
LINE
  5
19313
330
191BE
100
AcDbEntity
  8
寸法
 62
     0
 48
50.0
370
    -2
100
AcDbLine
 10
9285.228362967755
 20
7369.286340469526
 30
0.0
 11
8522.617117341063
 21
7369.286340469526
 31
0.0
  0
LINE
  5
19314
330
191BE
100
AcDbEntity
  8
寸法
 62
     0
 48
50.0
370
    -2
100
AcDbLine
 10
8562.617117341064
 20
7464.286340469526
 30
0.0
 11
8562.617117341064
 21
7484.286340469525
 31
0.0
  0
LINE
  5
19315
330
191BE
100
AcDbEntity
  8
寸法
 62
     0
 48
50.0
370
    -2
100
AcDbLine
 10
8562.617117341064
 20
7349.286340469525
 30
0.0
 11
8562.617117341064
 21
7128.315777721048
 31
0.0
  0
LINE
  5
19316
330
191BE
100
AcDbEntity
  8
寸法
 62
     0
 48
50.0
370
    -2
100
AcDbLine
 10
8562.617117341064
 20
7444.286340469526
 30
0.0
 11
8562.617117341064
 21
7369.286340469526
 31
0.0
  0
INSERT
  5
19317
330
191BE
100
AcDbEntity
  8
寸法
 62
     0
 48
50.0
370
    -2
100
AcDbBlockReference
  2
_DOT
 10
8562.617117341064
 20
7444.286340469526
 30
0.0
 41
20.0
 42
20.0
 43
20.0
 50
270.0
  0
INSERT
  5
19318
330
191BE
100
AcDbEntity
  8
寸法
 62
     0
 48
50.0
370
    -2
100
AcDbBlockReference
  2
_DOT
 10
8562.617117341064
 20
7369.286340469526
 30
0.0
 41
20.0
 42
20.0
 43
20.0
 50
90.0
  0
MTEXT
  5
19319
330
191BE
100
AcDbEntity
  8
寸法
 62
     7
 48
50.0
100
AcDbMText
 10
8470.617117341062
 20
7228.801059095288
 30
0.0
 40
120.0
 41
0.0
 71
     5
 72
     1
  1
\A1;75
  7
STYLE1
 11
0.0000000000000001
 21
1.0
 31
0.0
 73
     1
 44
1.0
1001
ACAD
1000
MTEXTBEGIN
1070
    73
1070
     1
1070
    44
1040
1.0
1070
    74
1070
     0
1000
MTEXTEND
  0
POINT
  5
1931A
330
191BE
100
AcDbEntity
  8
DEFPOINTS
 62
     0
 48
50.0
100
AcDbPoint
 10
8857.228362967781
 20
7444.286340469526
 30
0.0
  0
POINT
  5
1931B
330
191BE
100
AcDbEntity
  8
DEFPOINTS
 62
     0
 48
50.0
100
AcDbPoint
 10
9305.228362967755
 20
7369.286340469526
 30
0.0
  0
POINT
  5
1931C
330
191BE
100
AcDbEntity
  8
DEFPOINTS
 62
     0
 48
50.0
100
AcDbPoint
 10
8562.617117341064
 20
7369.286340469526
 30
0.0
  0
ENDBLK
  5
191CB
330
191BE
100
AcDbEntity
  8
0
 48
50.0
100
AcDbBlockEnd
  0
BLOCK
  5
191D6
330
191CC
100
AcDbEntity
  8
0
 48
50.0
100
AcDbBlockBegin
  2
*D33
 70
     1
 10
0.0
 20
0.0
 30
0.0
  3
*D33
  1

  0
LINE
  5
19309
330
191CC
100
AcDbEntity
  8
寸法
 62
     0
 48
50.0
370
    -2
100
AcDbLine
 10
9305.228362967755
 20
7347.28634046956
 30
0.0
 11
9305.228362967755
 21
6387.156625041792
 31
0.0
  0
LINE
  5
1930A
330
191CC
100
AcDbEntity
  8
寸法
 62
     0
 48
50.0
370
    -2
100
AcDbLine
 10
11459.22836296775
 20
7347.28634046956
 30
0.0
 11
11459.22836296775
 21
6387.156625041792
 31
0.0
  0
LINE
  5
1930B
330
191CC
100
AcDbEntity
  8
寸法
 62
     0
 48
50.0
370
    -2
100
AcDbLine
 10
9305.228362967755
 20
6447.156625041792
 30
0.0
 11
11459.22836296775
 21
6447.156625041792
 31
0.0
  0
INSERT
  5
1930C
330
191CC
100
AcDbEntity
  8
寸法
 62
     0
 48
50.0
370
    -2
100
AcDbBlockReference
  2
_DOTSMALL
 10
9305.228362967755
 20
6447.156625041792
 30
0.0
 41
100.0
 42
100.0
 43
100.0
 50
180.0
  0
INSERT
  5
1930D
330
191CC
100
AcDbEntity
  8
寸法
 62
     0
 48
50.0
370
    -2
100
AcDbBlockReference
  2
_DOTSMALL
 10
11459.22836296775
 20
6447.156625041792
 30
0.0
 41
100.0
 42
100.0
 43
100.0
  0
MTEXT
  5
1930E
330
191CC
100
AcDbEntity
  8
寸法
 62
     7
 48
50.0
100
AcDbMText
 10
10404.36111971507
 20
6547.168436065414
 30
0.0
 40
120.0
 41
0.0
 71
     5
 72
     1
  1
\A1;2154
  7
STYLE1
 73
     1
 44
1.0
1001
ACAD
1000
MTEXTBEGIN
1070
    73
1070
     1
1070
    44
1040
1.0
1070
    74
1070
     0
1000
MTEXTEND
  0
POINT
  5
1930F
330
191CC
100
AcDbEntity
  8
DEFPOINTS
 62
     0
 48
50.0
100
AcDbPoint
 10
9305.228362967755
 20
7367.28634046956
 30
0.0
  0
POINT
  5
19310
330
191CC
100
AcDbEntity
  8
DEFPOINTS
 62
     0
 48
50.0
100
AcDbPoint
 10
11459.22836296775
 20
7367.28634046956
 30
0.0
  0
POINT
  5
19311
330
191CC
100
AcDbEntity
  8
DEFPOINTS
 62
     0
 48
50.0
100
AcDbPoint
 10
11459.22836296775
 20
6447.156625041792
 30
0.0
  0
ENDBLK
  5
191D7
330
191CC
100
AcDbEntity
  8
0
 48
50.0
100
AcDbBlockEnd
  0
ENDSEC
  0
SECTION
  2
ENTITIES
  0
LINE
  5
10B57
330
747D
100
AcDbEntity
  8
補助
  6
PHANTOM
 62
   230
 48
50.0
100
AcDbLine
 10
139.9999999999995
 20
11409.6
 30
0.0
 11
16307.2
 21
11409.6
 31
0.0
  0
LINE
  5
10B59
330
747D
100
AcDbEntity
  8
仕様書枠
  6
Continuous
 48
50.0
100
AcDbLine
 10
13107.2
 20
1200.0
 30
0.0
 11
13107.2
 21
-0.0000000000000729
 31
0.0
  0
LINE
  5
10B5C
330
747D
100
AcDbEntity
  8
仕様書枠
 48
50.0
100
AcDbLine
 10
16307.2
 20
1200.0
 30
0.0
 11
16307.2
 21
-0.0000000000000909
 31
0.0
  0
LINE
  5
10B5D
330
747D
100
AcDbEntity
  8
仕様書枠
 48
50.0
100
AcDbLine
 10
140.0
 20
0.0
 30
0.0
 11
16307.2
 21
-0.0000000000000909
 31
0.0
  0
LINE
  5
10B5E
330
747D
100
AcDbEntity
  8
補助
  6
PHANTOM
 62
   230
 48
50.0
100
AcDbLine
 10
16307.2
 20
11409.6
 30
0.0
 11
16307.2
 21
1200.0
 31
0.0
  0
LINE
  5
10B6C
330
747D
100
AcDbEntity
  8
仕様書枠
 48
50.0
100
AcDbLine
 10
13107.2
 20
1200.0
 30
0.0
 11
16307.2
 21
1200.0
 31
0.0
  0
LINE
  5
10B6D
330
747D
100
AcDbEntity
  8
補助
  6
PHANTOM
 62
   230
 48
50.0
100
AcDbLine
 10
13107.2
 20
11409.6
 30
0.0
 11
13107.2
 21
4800.0
 31
0.0
  0
LINE
  5
10B6F
330
747D
100
AcDbEntity
  8
補助
  6
PHANTOM
 62
   230
 48
50.0
100
AcDbLine
 10
13107.2
 20
4800.0
 30
0.0
 11
16307.2
 21
4800.0
 31
0.0
  0
LINE
  5
10B72
330
747D
100
AcDbEntity
  8
文字
 62
     7
 48
50.0
100
AcDbLine
 10
13187.2
 20
400.0
 30
0.0
 11
16227.2
 21
400.0
 31
0.0
  0
TEXT
  5
10B73
330
747D
100
AcDbEntity
  8
文字
 62
     7
 48
50.0
100
AcDbText
 10
13162.9790565769
 20
895.0906074299405
 30
0.0
 40
200.0
  1
外 形 図
  7
STYLE2
100
AcDbText
  0
TEXT
  5
10B74
330
747D
100
AcDbEntity
  8
文字
 62
     7
 48
50.0
100
AcDbText
 10
13201.43669998441
 20
477.2740661031255
 30
0.0
 40
160.0
  1
機種名
  7
STYLE2
100
AcDbText
  0
TEXT
  5
10B76
330
747D
100
AcDbEntity
  8
文字
 62
     7
 48
50.0
100
AcDbText
 10
13209.4053442172
 20
76.09434707649343
 30
0.0
 40
100.0
  1
○床面積 ： 7.08㎡(2.15坪) 　
  7
STYLE2
100
AcDbText
  0
TEXT
  5
10B79
330
747D
100
AcDbEntity
  8
文字
 62
     7
 48
50.0
100
AcDbText
 10
14524.131837222
 20
1031.557706291228
 30
0.0
 40
100.0
  1
NO.24     <縮尺> S=1/40
  7
STYLE2
100
AcDbText
  0
LINE
  5
10B7B
330
747D
100
AcDbEntity
  8
仕様書枠
 48
50.0
100
AcDbLine
 10
13107.2
 20
800.0
 30
0.0
 11
14251.2
 21
800.0
 31
0.0
  0
LINE
  5
10B88
330
747D
100
AcDbEntity
  8
仕様書枠
  6
Continuous
 48
50.0
100
AcDbLine
 10
14251.2
 20
1200.0
 30
0.0
 11
14251.2
 21
800.0
 31
0.0
  0
TEXT
  5
15729
330
747D
100
AcDbEntity
  8
文字
 62
     7
 48
50.0
100
AcDbText
 10
14622.37925174158
 20
869.7247441969318
 30
0.0
 40
100.0
  1
～一般型・多雪地型～
  7
STYLE2
100
AcDbText
  0
LINE
  5
17EE8
330
747D
100
AcDbEntity
  8
部品1
100
AcDbLine
 10
11430.72836296777
 20
8339.286340469675
 30
0.0
 11
8913.728362967772
 21
8339.286340469573
 31
0.0
  0
LINE
  5
17EE9
330
747D
100
AcDbEntity
  8
部品1
100
AcDbLine
 10
8885.228362967763
 20
8339.286340469573
 30
0.0
 11
8857.228362967763
 21
8339.286340469573
 31
0.0
  0
LINE
  5
17EEA
330
747D
100
AcDbEntity
  8
部品1
100
AcDbLine
 10
11459.22836296779
 20
8339.286340469699
 30
0.0
 11
11487.22836296778
 21
8339.286340469699
 31
0.0
  0
TEXT
  5
17EEB
330
747D
100
AcDbEntity
  8
文字
 62
     7
 48
50.0
100
AcDbText
 10
14798.72402257234
 20
9740.013745883725
 30
0.0
 40
100.0
  1
F12(一般型1.2/多雪地型2.3)
  7
STYLE1
100
AcDbText
  0
TEXT
  5
17EEC
330
747D
100
AcDbEntity
  8
文字
 62
     7
 48
50.0
100
AcDbText
 10
13248.77747366447
 20
8380.013745883728
 30
0.0
 40
100.0
  1
17
  7
STYLE1
100
AcDbText
  0
TEXT
  5
17EED
330
747D
100
AcDbEntity
  8
文字
 62
     7
 48
50.0
100
AcDbText
 10
13248.77747366447
 20
8550.013745883729
 30
0.0
 40
100.0
  1
16
  7
STYLE1
100
AcDbText
  0
TEXT
  5
17EEE
330
747D
100
AcDbEntity
  8
文字
 62
     7
 48
50.0
100
AcDbText
 10
15022.63965474517
 20
9060.013745883725
 30
0.0
 40
100.0
  1
F12            1.0
  7
STYLE1
100
AcDbText
  0
TEXT
  5
17EEF
330
747D
100
AcDbEntity
  8
文字
 62
     7
 48
50.0
100
AcDbText
 10
13583.11819016569
 20
9060.013745883733
 30
0.0
 40
100.0
  1
壁面扉枠左右
  7
STYLE1
100
AcDbText
  0
TEXT
  5
17EF0
330
747D
100
AcDbEntity
  8
文字
 62
     7
 48
50.0
100
AcDbText
 10
15022.63965474517
 20
9230.013745883725
 30
0.0
 40
100.0
  1
F12            1.0
  7
STYLE1
100
AcDbText
  0
TEXT
  5
17EF1
330
747D
100
AcDbEntity
  8
文字
 62
     7
 48
50.0
100
AcDbText
 10
15022.63965474515
 20
9400.013745883727
 30
0.0
 40
100.0
  1
F12            0.7
  7
STYLE1
100
AcDbText
  0
TEXT
  5
17EF2
330
747D
100
AcDbEntity
  8
文字
 62
     7
 48
50.0
100
AcDbText
 10
13583.11819016569
 20
9230.013745883733
 30
0.0
 40
100.0
  1
壁面扉敷居
  7
STYLE1
100
AcDbText
  0
TEXT
  5
17EF3
330
747D
100
AcDbEntity
  8
文字
 62
     7
 48
50.0
100
AcDbText
 10
13583.11819016569
 20
9400.013745883729
 30
0.0
 40
100.0
  1
壁面扉鴨居
  7
STYLE1
100
AcDbText
  0
LINE
  5
17EF4
330
747D
100
AcDbEntity
  8
仕様書枠
 48
50.0
100
AcDbLine
 10
16307.19999999999
 20
8689.600000000003
 30
0.0
 11
13127.2
 21
8689.600000000005
 31
0.0
  0
LINE
  5
17EF5
330
747D
100
AcDbEntity
  8
仕様書枠
 48
50.0
100
AcDbLine
 10
16307.19999999999
 20
8519.600000000004
 30
0.0
 11
13127.2
 21
8519.600000000005
 31
0.0
  0
TEXT
  5
17EF6
330
747D
100
AcDbEntity
  8
文字
 62
     7
 48
50.0
100
AcDbText
 10
13583.11819016569
 20
8380.013745883728
 30
0.0
 40
100.0
  1
アンカープレート
  7
STYLE1
100
AcDbText
  0
TEXT
  5
17EF7
330
747D
100
AcDbEntity
  8
文字
 62
     7
 48
50.0
100
AcDbText
 10
15022.63965474515
 20
8380.013745883724
 30
0.0
 40
100.0
  1
F12            2.3
  7
STYLE1
100
AcDbText
  0
LINE
  5
17EF8
330
747D
100
AcDbEntity
  8
仕様書枠
 48
50.0
100
AcDbLine
 10
16307.2
 20
10049.6
 30
0.0
 11
13127.2
 21
10049.6
 31
0.0
  0
LINE
  5
17EF9
330
747D
100
AcDbEntity
  8
仕様書枠
 48
50.0
100
AcDbLine
 10
16307.2
 20
11409.59999999999
 30
0.0
 11
13127.2
 21
11409.6
 31
0.0
  0
LINE
  5
17EFA
330
747D
100
AcDbEntity
  8
仕様書枠
 48
50.0
100
AcDbLine
 10
16307.19999999999
 20
8009.600000000004
 30
0.0
 11
16307.2
 21
11409.6
 31
0.0
  0
LINE
  5
17EFB
330
747D
100
AcDbEntity
  8
仕様書枠
 48
50.0
100
AcDbLine
 10
14785.2
 20
11409.59999999999
 30
0.0
 11
14785.2
 21
8349.600000000004
 31
0.0
  0
LINE
  5
17EFC
330
747D
100
AcDbEntity
  8
仕様書枠
 48
50.0
100
AcDbLine
 10
13490.2
 20
11409.59999999999
 30
0.0
 11
13490.20000000001
 21
8349.600000000007
 31
0.0
  0
LINE
  5
17EFD
330
747D
100
AcDbEntity
  8
仕様書枠
 48
50.0
100
AcDbLine
 10
16307.2
 20
11239.59999999999
 30
0.0
 11
13127.2
 21
11239.6
 31
0.0
  0
LINE
  5
17EFE
330
747D
100
AcDbEntity
  8
仕様書枠
 48
50.0
100
AcDbLine
 10
16307.2
 20
10899.6
 30
0.0
 11
13127.2
 21
10899.6
 31
0.0
  0
LINE
  5
17EFF
330
747D
100
AcDbEntity
  8
仕様書枠
 48
50.0
100
AcDbLine
 10
16307.2
 20
11069.59999999999
 30
0.0
 11
13127.2
 21
11069.6
 31
0.0
  0
LINE
  5
17F00
330
747D
100
AcDbEntity
  8
仕様書枠
 48
50.0
100
AcDbLine
 10
16307.19999999999
 20
10559.6
 30
0.0
 11
13127.2
 21
10559.6
 31
0.0
  0
LINE
  5
17F01
330
747D
100
AcDbEntity
  8
仕様書枠
 48
50.0
100
AcDbLine
 10
16307.19999999999
 20
10389.6
 30
0.0
 11
13127.2
 21
10389.6
 31
0.0
  0
LINE
  5
17F02
330
747D
100
AcDbEntity
  8
仕様書枠
 48
50.0
100
AcDbLine
 10
16307.19999999999
 20
10729.59999999999
 30
0.0
 11
13127.2
 21
10729.6
 31
0.0
  0
TEXT
  5
17F03
330
747D
100
AcDbEntity
  8
文字
 62
     7
 48
50.0
100
AcDbText
 10
13197.42518560407
 20
11270.01374588372
 30
0.0
 40
100.0
  1
品番
  7
STYLE1
100
AcDbText
  0
TEXT
  5
17F04
330
747D
100
AcDbEntity
  8
文字
 62
     7
 48
50.0
100
AcDbText
 10
13271.19032244792
 20
11100.01374588373
 30
0.0
 40
100.0
  1
1
  7
STYLE1
100
AcDbText
  0
TEXT
  5
17F05
330
747D
100
AcDbEntity
  8
文字
 62
     7
 48
50.0
100
AcDbText
 10
13271.19032244792
 20
10930.01374588373
 30
0.0
 40
100.0
  1
2
  7
STYLE1
100
AcDbText
  0
TEXT
  5
17F06
330
747D
100
AcDbEntity
  8
文字
 62
     7
 48
50.0
100
AcDbText
 10
13271.19032244792
 20
10590.01374588373
 30
0.0
 40
100.0
  1
4
  7
STYLE1
100
AcDbText
  0
TEXT
  5
17F07
330
747D
100
AcDbEntity
  8
文字
 62
     7
 48
50.0
100
AcDbText
 10
13271.19032244792
 20
10760.01374588373
 30
0.0
 40
100.0
  1
3
  7
STYLE1
100
AcDbText
  0
TEXT
  5
17F08
330
747D
100
AcDbEntity
  8
文字
 62
     7
 48
50.0
100
AcDbText
 10
13732.03840939434
 20
11270.01374588372
 30
0.0
 40
100.0
  1
部　　品　　名
  7
STYLE1
100
AcDbText
  0
TEXT
  5
17F09
330
747D
100
AcDbEntity
  8
文字
 62
     7
 48
50.0
100
AcDbText
 10
14859.79774614482
 20
11270.01374588372
 30
0.0
 40
100.0
  1
材料（材質）　　単位mm
  7
STYLE1
100
AcDbText
  0
TEXT
  5
17F0A
330
747D
100
AcDbEntity
  8
文字
 62
     7
 48
50.0
100
AcDbText
 10
13583.11819016569
 20
11100.01374588372
 30
0.0
 40
100.0
  1
土台枠
  7
STYLE1
100
AcDbText
  0
TEXT
  5
17F0B
330
747D
100
AcDbEntity
  8
文字
 62
     7
 48
50.0
100
AcDbText
 10
13583.1181901657
 20
10760.01374588372
 30
0.0
 40
100.0
  1
柱
  7
STYLE1
100
AcDbText
  0
TEXT
  5
17F0C
330
747D
100
AcDbEntity
  8
文字
 62
     7
 48
50.0
100
AcDbText
 10
13583.11819016569
 20
10420.01374588373
 30
0.0
 40
100.0
  1
桁前後
  7
STYLE1
100
AcDbText
  0
TEXT
  5
17F0D
330
747D
100
AcDbEntity
  8
文字
 62
     7
 48
50.0
100
AcDbText
 10
13271.19032244792
 20
10420.01374588372
 30
0.0
 40
100.0
  1
5
  7
STYLE1
100
AcDbText
  0
TEXT
  5
17F0E
330
747D
100
AcDbEntity
  8
文字
 62
     7
 48
50.0
100
AcDbText
 10
13583.11819016569
 20
10250.01374588373
 30
0.0
 40
100.0
  1
妻板左右
  7
STYLE1
100
AcDbText
  0
TEXT
  5
17F0F
330
747D
100
AcDbEntity
  8
文字
 62
     7
 48
50.0
100
AcDbText
 10
13248.77747366447
 20
9570.013745883727
 30
0.0
 40
100.0
  1
10
  7
STYLE1
100
AcDbText
  0
TEXT
  5
17F10
330
747D
100
AcDbEntity
  8
文字
 62
     7
 48
50.0
100
AcDbText
 10
13583.11819016568
 20
9570.013745883729
 30
0.0
 40
100.0
  1
壁パネル
  7
STYLE1
100
AcDbText
  0
TEXT
  5
17F11
330
747D
100
AcDbEntity
  8
文字
 62
     7
 48
50.0
100
AcDbText
 10
13583.11819016569
 20
9910.013745883727
 30
0.0
 40
100.0
  1
屋根パネル
  7
STYLE1
100
AcDbText
  0
TEXT
  5
17F12
330
747D
100
AcDbEntity
  8
文字
 62
     7
 48
50.0
100
AcDbText
 10
13583.11819016569
 20
10080.01374588372
 30
0.0
 40
100.0
  1
鼻隠シ前後
  7
STYLE1
100
AcDbText
  0
TEXT
  5
17F13
330
747D
100
AcDbEntity
  8
文字
 62
     7
 48
50.0
100
AcDbText
 10
13271.19032244792
 20
9910.01374588373
 30
0.0
 40
100.0
  1
8
  7
STYLE1
100
AcDbText
  0
TEXT
  5
17F14
330
747D
100
AcDbEntity
  8
文字
 62
     7
 48
50.0
100
AcDbText
 10
13271.19032244792
 20
9740.013745883729
 30
0.0
 40
100.0
  1
9
  7
STYLE1
100
AcDbText
  0
TEXT
  5
17F15
330
747D
100
AcDbEntity
  8
文字
 62
     7
 48
50.0
100
AcDbText
 10
13271.19032244792
 20
10080.01374588373
 30
0.0
 40
100.0
  1
7
  7
STYLE1
100
AcDbText
  0
TEXT
  5
17F16
330
747D
100
AcDbEntity
  8
文字
 62
     7
 48
50.0
100
AcDbText
 10
13271.19032244792
 20
10250.01374588373
 30
0.0
 40
100.0
  1
6
  7
STYLE1
100
AcDbText
  0
LINE
  5
17F17
330
747D
100
AcDbEntity
  8
仕様書枠
 48
50.0
100
AcDbLine
 10
16307.19999999999
 20
9709.6
 30
0.0
 11
13127.2
 21
9709.600000000001
 31
0.0
  0
LINE
  5
17F18
330
747D
100
AcDbEntity
  8
仕様書枠
 48
50.0
100
AcDbLine
 10
16307.19999999999
 20
9369.599999999998
 30
0.0
 11
13127.2
 21
9369.600000000001
 31
0.0
  0
LINE
  5
17F19
330
747D
100
AcDbEntity
  8
仕様書枠
 48
50.0
100
AcDbLine
 10
16307.19999999999
 20
9539.599999999998
 30
0.0
 11
13127.2
 21
9539.6
 31
0.0
  0
LINE
  5
17F1A
330
747D
100
AcDbEntity
  8
仕様書枠
 48
50.0
100
AcDbLine
 10
16307.2
 20
10219.6
 30
0.0
 11
13127.2
 21
10219.6
 31
0.0
  0
LINE
  5
17F1B
330
747D
100
AcDbEntity
  8
仕様書枠
 48
50.0
100
AcDbLine
 10
16307.2
 20
9879.599999999999
 30
0.0
 11
13127.2
 21
9879.600000000001
 31
0.0
  0
TEXT
  5
17F1C
330
747D
100
AcDbEntity
  8
文字
 62
     7
 48
50.0
100
AcDbText
 10
13248.77747366447
 20
9400.013745883727
 30
0.0
 40
100.0
  1
11
  7
STYLE1
100
AcDbText
  0
LINE
  5
17F1D
330
747D
100
AcDbEntity
  8
仕様書枠
 48
50.0
100
AcDbLine
 10
16307.19999999999
 20
9199.599999999998
 30
0.0
 11
13127.2
 21
9199.600000000001
 31
0.0
  0
LINE
  5
17F1E
330
747D
100
AcDbEntity
  8
仕様書枠
 48
50.0
100
AcDbLine
 10
16307.19999999999
 20
8859.6
 30
0.0
 11
13127.2
 21
8859.600000000002
 31
0.0
  0
TEXT
  5
17F1F
330
747D
100
AcDbEntity
  8
文字
 62
     7
 48
50.0
100
AcDbText
 10
13248.77747366448
 20
9060.013745883727
 30
0.0
 40
100.0
  1
13
  7
STYLE1
100
AcDbText
  0
TEXT
  5
17F20
330
747D
100
AcDbEntity
  8
文字
 62
     7
 48
50.0
100
AcDbText
 10
13248.77747366448
 20
9230.013745883727
 30
0.0
 40
100.0
  1
12
  7
STYLE1
100
AcDbText
  0
TEXT
  5
17F21
330
747D
100
AcDbEntity
  8
文字
 62
     7
 48
50.0
100
AcDbText
 10
15022.63965474517
 20
11100.01374588372
 30
0.0
 40
100.0
  1
F12            1.2
  7
STYLE1
100
AcDbText
  0
TEXT
  5
17F22
330
747D
100
AcDbEntity
  8
文字
 62
     7
 48
50.0
100
AcDbText
 10
15022.63965474518
 20
10760.01374588372
 30
0.0
 40
100.0
  1
F12            1.0
  7
STYLE1
100
AcDbText
  0
TEXT
  5
17F23
330
747D
100
AcDbEntity
  8
文字
 62
     7
 48
50.0
100
AcDbText
 10
15022.63965474516
 20
10420.01374588372
 30
0.0
 40
100.0
  1
Y10            1.0
  7
STYLE1
100
AcDbText
  0
TEXT
  5
17F24
330
747D
100
AcDbEntity
  8
文字
 62
     7
 48
50.0
100
AcDbText
 10
15022.63965474516
 20
10250.01374588372
 30
0.0
 40
100.0
  1
Y10            0.7
  7
STYLE1
100
AcDbText
  0
TEXT
  5
17F25
330
747D
100
AcDbEntity
  8
文字
 62
     7
 48
50.0
100
AcDbText
 10
15022.63965474516
 20
10080.01374588372
 30
0.0
 40
100.0
  1
Y10            0.7
  7
STYLE1
100
AcDbText
  0
TEXT
  5
17F26
330
747D
100
AcDbEntity
  8
文字
 62
     7
 48
50.0
100
AcDbText
 10
15022.63965474517
 20
9910.013745883725
 30
0.0
 40
100.0
  1
Y10            0.5
  7
STYLE1
100
AcDbText
  0
TEXT
  5
17F27
330
747D
100
AcDbEntity
  8
文字
 62
     7
 48
50.0
100
AcDbText
 10
15022.63965474515
 20
9570.013745883725
 30
0.0
 40
100.0
  1
F12            0.6
  7
STYLE1
100
AcDbText
  0
LINE
  5
17F28
330
747D
100
AcDbEntity
  8
仕様書枠
 48
50.0
100
AcDbLine
 10
16307.19999999999
 20
8349.600000000004
 30
0.0
 11
13127.19999999999
 21
8349.600000000007
 31
0.0
  0
LINE
  5
17F29
330
747D
100
AcDbEntity
  8
仕様書枠
 48
50.0
100
AcDbLine
 10
16307.19999999999
 20
8179.600000000004
 30
0.0
 11
13127.19999999999
 21
8179.600000000005
 31
0.0
  0
TEXT
  5
17F2A
330
747D
100
AcDbEntity
  8
文字
 62
     7
 48
50.0
100
AcDbText
 10
13229.83081656554
 20
8210.013745883733
 30
0.0
 40
100.0
  1
F12→溶融亜鉛めっき鋼板(JIS G 3302)
  7
STYLE1
100
AcDbText
  0
TEXT
  5
17F2B
330
747D
100
AcDbEntity
  8
文字
 62
     7
 48
50.0
100
AcDbText
 10
13229.83081656554
 20
8040.013745883731
 30
0.0
 40
100.0
  1
Y10→溶融亜鉛-5％アルミニウム合金めっき鋼板(JIS G 3317)
 41
0.9
  7
STYLE1
100
AcDbText
  0
LINE
  5
17F2C
330
747D
100
AcDbEntity
  8
仕様書枠
 48
50.0
100
AcDbLine
 10
13127.2
 20
11409.6
 30
0.0
 11
13127.19999999999
 21
8009.600000000006
 31
0.0
  0
LINE
  5
17F2D
330
747D
100
AcDbEntity
  8
仕様書枠
 48
50.0
100
AcDbLine
 10
16307.19999999999
 20
9029.6
 30
0.0
 11
13127.2
 21
9029.600000000002
 31
0.0
  0
TEXT
  5
17F2E
330
747D
100
AcDbEntity
  8
文字
 62
     7
 48
50.0
100
AcDbText
 10
13583.1181901657
 20
10590.01374588372
 30
0.0
 40
100.0
  1
床パネル
 41
0.9
  7
STYLE1
100
AcDbText
  0
TEXT
  5
17F2F
330
747D
100
AcDbEntity
  8
文字
 62
     7
 48
50.0
100
AcDbText
 10
13583.11819016569
 20
10930.01374588372
 30
0.0
 40
100.0
  1
根太
  7
STYLE1
100
AcDbText
  0
TEXT
  5
17F30
330
747D
100
AcDbEntity
  8
文字
 62
     7
 48
50.0
100
AcDbText
 10
13248.77747366448
 20
8890.013745883727
 30
0.0
 40
100.0
  1
14
  7
STYLE1
100
AcDbText
  0
TEXT
  5
17F31
330
747D
100
AcDbEntity
  8
文字
 62
     7
 48
50.0
100
AcDbText
 10
15022.63965474516
 20
10930.01374588372
 30
0.0
 40
100.0
  1
F12            1.2
  7
STYLE1
100
AcDbText
  0
TEXT
  5
17F32
330
747D
100
AcDbEntity
  8
文字
 62
     7
 48
50.0
100
AcDbText
 10
15022.63965474517
 20
10590.01374588372
 30
0.0
 40
100.0
  1
F12            1.0
  7
STYLE1
100
AcDbText
  0
TEXT
  5
17F33
330
747D
100
AcDbEntity
  8
文字
 62
     7
 48
50.0
100
AcDbText
 10
15022.63965474515
 20
8890.013745883727
 30
0.0
 40
100.0
  1
F12            0.7
  7
STYLE1
100
AcDbText
  0
TEXT
  5
17F34
330
747D
100
AcDbEntity
  8
文字
 62
     7
 48
50.0
100
AcDbText
 10
13583.11819016568
 20
8890.013745883731
 30
0.0
 40
100.0
  1
正面パネル
  7
STYLE1
100
AcDbText
  0
TEXT
  5
17F35
330
747D
100
AcDbEntity
  8
文字
 62
     7
 48
50.0
100
AcDbText
 10
15022.63965474516
 20
8720.013745883727
 30
0.0
 40
100.0
  1
F12            0.8
  7
STYLE1
100
AcDbText
  0
TEXT
  5
17F36
330
747D
100
AcDbEntity
  8
文字
 62
     7
 48
50.0
100
AcDbText
 10
13583.11819016569
 20
8720.013745883731
 30
0.0
 40
100.0
  1
扉
  7
STYLE1
100
AcDbText
  0
LINE
  5
17F37
330
747D
100
AcDbEntity
  8
仕様書枠
 48
50.0
100
AcDbLine
 10
16307.19999999999
 20
8009.600000000004
 30
0.0
 11
13127.19999999999
 21
8009.600000000006
 31
0.0
  0
TEXT
  5
17F38
330
747D
100
AcDbEntity
  8
文字
 62
     7
 48
50.0
100
AcDbText
 10
13248.77747366447
 20
8720.013745883729
 30
0.0
 40
100.0
  1
15
  7
STYLE1
100
AcDbText
  0
TEXT
  5
17F39
330
747D
100
AcDbEntity
  8
文字
 62
     7
 48
50.0
100
AcDbText
 10
13583.11819016569
 20
9740.013745883729
 30
0.0
 40
100.0
  1
母屋中
  7
STYLE1
100
AcDbText
  0
TEXT
  5
17F3A
330
747D
100
AcDbEntity
  8
文字
 62
     7
 48
50.0
100
AcDbText
 10
15022.63965474516
 20
8550.013745883727
 30
0.0
 40
100.0
  1
F12            0.6
  7
STYLE1
100
AcDbText
  0
TEXT
  5
17F3B
330
747D
100
AcDbEntity
  8
文字
 62
     7
 48
50.0
100
AcDbText
 10
13583.11819016569
 20
8550.013745883731
 30
0.0
 40
100.0
  1
棚板
  7
STYLE1
100
AcDbText
  0
DIMENSION
  5
17FDE
330
747D
100
AcDbEntity
  8
寸法
 48
50.0
100
AcDbDimension
  2
*D3
 10
8797.22836296778
 20
4904.670200506054
 30
0.0
 11
8487.590567692191
 21
4904.670200506054
 31
0.0
 70
   160
 71
     5
 42
60.0
  3
INABA_S40G
100
AcDbAlignedDimension
 13
8857.228362967781
 23
4502.014365049727
 33
0.0
 14
8797.22836296778
 24
4506.012746926755
 34
0.0
100
AcDbRotatedDimension
1001
ACAD
1000
DSTYLE
1002
{
1070
   174
1070
     0
1070
   272
1070
     1
1070
   288
1070
     0
1070
   341
1005
0
1002
}
  0
DIMENSION
  5
17FDF
330
747D
100
AcDbEntity
  8
寸法
 48
50.0
100
AcDbDimension
  2
*D4
 10
8857.228362967781
 20
4904.670200506055
 30
0.0
 11
10211.99855399697
 21
4904.670200506055
 31
0.0
 70
   160
  1
柱外寸法<>
 71
     5
 42
2630.0
  3
INABA_S40G
100
AcDbAlignedDimension
 13
11487.22836296778
 23
4452.823426538404
 33
0.0
 14
8857.228362967781
 24
4502.014365049727
 34
0.0
100
AcDbRotatedDimension
1001
ACAD
1000
DSTYLE
1002
{
1070
   174
1070
     0
1070
   272
1070
     1
1070
   288
1070
     0
1070
   341
1005
0
1002
}
  0
DIMENSION
  5
17FE0
330
747D
100
AcDbEntity
  8
寸法
 48
50.0
100
AcDbDimension
  2
*D5
 10
8797.22836296778
 20
5124.880887237672
 30
0.0
 11
10200.58728785515
 21
5124.880887237672
 31
0.0
 70
   160
 71
     5
 42
2770.0
  3
INABA_S40G
100
AcDbAlignedDimension
 13
11567.22836296778
 23
4451.012746926751
 33
0.0
 14
8797.22836296778
 24
4506.012746926755
 34
0.0
100
AcDbRotatedDimension
1001
ACAD
1000
DSTYLE
1002
{
1070
   174
1070
     0
1070
   272
1070
     1
1070
   288
1070
     0
1070
   341
1005
0
1002
}
  0
DIMENSION
  5
17FE1
330
747D
100
AcDbEntity
  8
寸法
 48
50.0
100
AcDbDimension
  2
*D6
 10
11567.22836296778
 20
4904.670200506055
 30
0.0
 11
11773.27560706227
 21
4904.670200506055
 31
0.0
 70
   160
 71
     5
 42
80.0
  3
INABA_S40G
100
AcDbAlignedDimension
 13
11487.22836296778
 23
4452.823426538404
 33
0.0
 14
11567.22836296778
 24
4451.012746926751
 34
0.0
100
AcDbRotatedDimension
1001
ACAD
1000
DSTYLE
1002
{
1070
   174
1070
     0
1070
   272
1070
     1
1070
   288
1070
     0
1070
   341
1005
0
1002
}
  0
ARC
  5
17FE2
330
747D
100
AcDbEntity
  8
部品1
100
AcDbCircle
 10
11552.85589878172
 20
4345.036504192544
 30
0.0
 40
0.7
100
AcDbArc
 50
275.0921697642102
 51
354.1866997667606
  0
ARC
  5
17FE3
330
747D
100
AcDbEntity
  8
部品1
100
AcDbCircle
 10
11563.71524453104
 20
4422.079759010467
 30
0.0
 40
0.7
100
AcDbArc
 50
275.0921697642102
 51
354.1866997665532
  0
ARC
  5
17FE4
330
747D
100
AcDbEntity
  8
部品1
100
AcDbCircle
 10
11564.04364977364
 20
4418.394362153377
 30
0.0
 40
3.0
100
AcDbArc
 50
95.0921697642102
 51
174.1866997665532
  0
ARC
  5
17FE5
330
747D
100
AcDbEntity
  8
部品1
100
AcDbCircle
 10
11553.18430402432
 20
4341.351107335452
 30
0.0
 40
3.0
100
AcDbArc
 50
95.0921697642102
 51
174.1866997665532
  0
ARC
  5
17FE6
330
747D
100
AcDbEntity
  8
部品1
 48
50.0
100
AcDbCircle
 10
11542.15616874921
 20
4331.760362731571
 30
0.0
 40
7.0
100
AcDbArc
 50
267.8377559869492
 51
354.1866997665532
  0
ARC
  5
17FE7
330
747D
100
AcDbEntity
  8
部品1
 48
50.0
100
AcDbCircle
 10
11559.47826521373
 20
4442.662909873745
 30
0.0
 40
7.0
100
AcDbArc
 50
354.1866997665532
 51
87.03587545283093
  0
LINE
  5
17FE8
330
747D
100
AcDbEntity
  8
部品1
 48
50.0
100
AcDbLine
 10
11550.19973235371
 20
4341.654969052355
 30
0.0
 11
11549.12016931397
 21
4331.051352058797
 31
0.0
  0
LINE
  5
17FE9
330
747D
100
AcDbEntity
  8
部品1
 48
50.0
100
AcDbLine
 10
11561.05907810303
 20
4418.69822387028
 30
0.0
 11
11553.55229883819
 21
4344.965603125269
 31
0.0
  0
LINE
  5
17FEA
330
747D
100
AcDbEntity
  8
部品1
 48
50.0
100
AcDbLine
 10
11566.44226577848
 20
4441.953899200969
 30
0.0
 11
11564.41164458751
 21
4422.008857943189
 31
0.0
  0
LINE
  5
17FEB
330
747D
100
AcDbEntity
  8
細線
 48
50.0
100
AcDbLine
 10
11534.19764616147
 20
4450.166169406219
 30
0.0
 11
11529.48068007978
 21
4325.233953471303
 31
0.0
  0
ARC
  5
17FEC
330
747D
100
AcDbEntity
  8
部品1
100
AcDbCircle
 10
8803.265454839147
 20
4384.826905885655
 30
0.0
 40
0.7
100
AcDbArc
 50
181.0932240292114
 51
260.1877540314845
  0
ARC
  5
17FED
330
747D
100
AcDbEntity
  8
部品1
100
AcDbCircle
 10
8798.492781241538
 20
4477.692684085773
 30
0.0
 40
0.7
100
AcDbArc
 50
181.0932240292114
 51
260.1877540314845
  0
ARC
  5
17FEE
330
747D
100
AcDbEntity
  8
部品1
100
AcDbCircle
 10
8797.862226838516
 20
4474.046809548375
 30
0.0
 40
3.0
100
AcDbArc
 50
1.093224029315636
 51
80.18775403169875
  0
ARC
  5
17FEF
330
747D
100
AcDbEntity
  8
部品1
100
AcDbCircle
 10
8802.634900436123
 20
4381.181031348257
 30
0.0
 40
3.0
100
AcDbArc
 50
1.093224029315636
 51
80.18775403169875
  0
ARC
  5
17FF0
330
747D
100
AcDbEntity
  8
部品1
 48
50.0
100
AcDbCircle
 10
8812.835032811323
 20
4370.788787965775
 30
0.0
 40
7.0
100
AcDbArc
 50
181.0932240293156
 51
267.8377559869492
  0
ARC
  5
17FF1
330
747D
100
AcDbEntity
  8
部品1
 48
50.0
100
AcDbCircle
 10
8804.411374709227
 20
4497.739847498871
 30
0.0
 40
7.0
100
AcDbArc
 50
87.03587545283093
 51
181.0932240293156
  0
LINE
  5
17FF2
330
747D
100
AcDbEntity
  8
部品1
 48
50.0
100
AcDbLine
 10
8805.634354362551
 20
4381.23826895144
 30
0.0
 11
8805.836306982984
 21
4370.655233558347
 31
0.0
  0
LINE
  5
17FF3
330
747D
100
AcDbEntity
  8
部品1
 48
50.0
100
AcDbLine
 10
8800.861680764944
 20
4474.104047151558
 30
0.0
 11
8802.56558225631
 21
4384.813550444911
 31
0.0
  0
LINE
  5
17FF4
330
747D
100
AcDbEntity
  8
部品1
 48
50.0
100
AcDbLine
 10
8797.412648880888
 20
4497.606293091442
 30
0.0
 11
8797.792908658699
 21
4477.679328645032
 31
0.0
  0
LINE
  5
17FF5
330
747D
100
AcDbEntity
  8
細線
 48
50.0
100
AcDbLine
 10
8830.22836296778
 20
4503.412423302155
 30
0.0
 11
8824.939261412273
 21
4363.326790674801
 31
0.0
  0
LINE
  5
17FF6
330
747D
100
AcDbEntity
  8
細線
 48
50.0
100
AcDbLine
 10
8803.028261305881
 20
4384.168317070247
 30
0.0
 11
11553.03192573652
 21
4344.358998095755
 31
0.0
  0
LINE
  5
17FF7
330
747D
100
AcDbEntity
  8
細線
 48
50.0
100
AcDbLine
 10
8798.267786068594
 20
4477.029828768112
 30
0.0
 11
11563.90377081376
 21
4421.405624127283
 31
0.0
  0
LINE
  5
17FF8
330
747D
100
AcDbEntity
  8
部品1
100
AcDbLine
 10
8812.570927569733
 20
4363.793771995717
 30
0.0
 11
11541.89206350763
 21
4324.765346761511
 31
0.0
  0
LINE
  5
17FF9
330
747D
100
AcDbEntity
  8
部品1
100
AcDbLine
 10
8804.773349324744
 20
4504.730482261016
 30
0.0
 11
11559.84023982925
 21
4449.653544635888
 31
0.0
  0
LINE
  5
17FFA
330
747D
100
AcDbEntity
  8
部品1
100
AcDbLine
 10
10032.45349339702
 20
4631.217134889769
 30
0.0
 11
10357.90850704006
 21
4613.699075930906
 31
0.0
  0
LINE
  5
17FFB
330
747D
100
AcDbEntity
  8
部品1
 48
50.0
100
AcDbLine
 10
10057.90850704006
 20
4629.899075930906
 30
0.0
 11
10357.90850704006
 21
4629.899075930906
 31
0.0
  0
LINE
  5
17FFC
330
747D
100
AcDbEntity
  8
部品1
 48
50.0
100
AcDbLine
 10
10357.90850704006
 20
4629.899075930906
 30
0.0
 11
10357.90850704006
 21
4613.699075930906
 31
0.0
  0
TEXT
  5
17FFD
330
747D
100
AcDbEntity
  8
部品1
 48
50.0
100
AcDbText
 10
10046.17634226378
 20
4665.78309808334
 30
0.0
 40
120.0
  1
1000
  7
STYLE1
100
AcDbText
  0
TEXT
  5
17FFE
330
747D
100
AcDbEntity
  8
部品1
 48
50.0
100
AcDbText
 10
10523.80936492887
 20
4528.281839865058
 30
0.0
 40
120.0
  1
37
 50
90.0
  7
STYLE1
100
AcDbText
  0
DIMENSION
  5
17FFF
330
747D
100
AcDbEntity
  8
寸法
100
AcDbDimension
  2
*D7
 10
7948.588981038419
 20
2331.01274692675
 30
0.0
 11
7948.588981038418
 21
2094.96550283226
 31
0.0
 70
   160
 71
     5
 42
100.0
  3
INABA_S40G
100
AcDbAlignedDimension
 13
8802.228362967777
 23
2431.01274692675
 33
0.0
 14
8233.575653809479
 24
2331.01274692675
 34
0.0
 50
90.0
100
AcDbRotatedDimension
1001
ACAD
1000
DSTYLE
1002
{
1070
   174
1070
     0
1070
   272
1070
     1
1070
   288
1070
     0
1070
   341
1005
0
1002
}
  0
DIMENSION
  5
18000
330
747D
100
AcDbEntity
  8
寸法
100
AcDbDimension
  2
*D8
 10
8233.575653809479
 20
2431.01274692675
 30
0.0
 11
8233.575653809479
 21
2124.96550283226
 31
0.0
 70
   160
 71
     5
 42
50.0
  3
INABA_S40G
100
AcDbAlignedDimension
 13
8857.228362967777
 23
2481.01274692675
 33
0.0
 14
8802.228362967777
 24
2431.01274692675
 34
0.0
 50
90.0
100
AcDbRotatedDimension
1001
ACAD
1000
DSTYLE
1002
{
1070
   174
1070
     0
1070
   272
1070
     1
1070
   288
1070
     0
1070
   341
1005
0
1002
}
  0
DIMENSION
  5
18001
330
747D
100
AcDbEntity
  8
寸法
100
AcDbDimension
  2
*D9
 10
8233.575653809479
 20
2481.01274692675
 30
0.0
 11
8233.575653809479
 21
3371.467045468707
 31
0.0
 70
   160
 71
     5
 42
1790.0
  3
INABA_S40G
100
AcDbAlignedDimension
 13
8857.228362967777
 23
4271.012746926749
 33
0.0
 14
8857.228362967777
 24
2481.01274692675
 34
0.0
 50
90.0
100
AcDbRotatedDimension
1001
ACAD
1000
DSTYLE
1002
{
1070
   174
1070
     0
1070
   272
1070
     1
1070
   288
1070
     0
1070
   341
1005
0
1002
}
  0
DIMENSION
  5
18002
330
747D
100
AcDbEntity
  8
寸法
100
AcDbDimension
  2
*D10
 10
7948.588981038419
 20
4506.012746926756
 30
0.0
 11
7948.588981038418
 21
3425.218624419861
 31
0.0
 70
   160
 71
     5
 42
2075.000000000005
  3
INABA_S40G
100
AcDbAlignedDimension
 13
8857.228362967777
 23
2431.01274692675
 33
0.0
 14
8797.228362967777
 24
4506.012746926756
 34
0.0
 50
90.0
100
AcDbRotatedDimension
1001
ACAD
1000
DSTYLE
1002
{
1070
   174
1070
     0
1070
   272
1070
     1
1070
   288
1070
     0
1070
   341
1005
0
1002
}
  0
DIMENSION
  5
18003
330
747D
100
AcDbEntity
  8
寸法
 48
50.0
100
AcDbDimension
  2
*D11
 10
8236.619956199408
 20
4380.358005800078
 30
0.0
 11
8247.285431458333
 21
4751.204669041785
 31
0.0
 70
   161
 71
     5
 42
141.0000000000018
  3
INABA_S40G
100
AcDbAlignedDimension
 13
8816.624383126358
 23
4504.735495761429
 33
0.0
 14
8812.57092756973
 24
4363.793771995715
 34
0.0
1001
ACAD
1000
DSTYLE
1002
{
1070
   174
1070
     0
1070
   272
1070
     1
1070
   288
1070
     0
1070
   341
1005
0
1002
}
  0
DIMENSION
  5
18004
330
747D
100
AcDbEntity
  8
寸法
 48
50.0
100
AcDbDimension
  2
*D12
 10
8564.003556496762
 20
2489.01274692675
 30
0.0
 11
8564.003556496762
 21
3390.941367135711
 31
0.0
 70
   160
  1
有効開口部高サ<>
 71
     5
 42
1725.0
  3
INABA_S40G
100
AcDbAlignedDimension
 13
9305.228362967779
 23
4214.01274692675
 33
0.0
 14
9305.228362967779
 24
2489.012746926749
 34
0.0
 50
90.0
100
AcDbRotatedDimension
  0
LINE
  5
18005
330
747D
100
AcDbEntity
  8
Ｇ．Ｌ
100
AcDbLine
 10
2970.009315368036
 20
2331.01274692675
 30
0.0
 11
12136.74091599662
 21
2331.01274692675
 31
0.0
  0
TEXT
  5
18006
330
747D
100
AcDbEntity
  8
部品1
100
AcDbText
 10
9881.018433591513
 20
1483.292614263744
 30
0.0
 40
135.0
  1
正面図
  7
STYLE2
100
AcDbText
  0
LINE
  5
1800C
330
747D
100
AcDbEntity
  8
部品1
100
AcDbLine
 10
9790.493029853559
 20
1676.186143482268
 30
0.0
 11
9790.493029853559
 21
1436.293821936735
 31
0.0
  0
LINE
  5
1800D
330
747D
100
AcDbEntity
  8
部品1
100
AcDbLine
 10
9790.493029853559
 20
1436.293821936735
 30
0.0
 11
10553.96369608199
 21
1436.293821936735
 31
0.0
  0
LINE
  5
1800E
330
747D
100
AcDbEntity
  8
部品1
100
AcDbLine
 10
10553.96369608199
 20
1436.293821936735
 30
0.0
 11
10553.96369608199
 21
1676.186143482268
 31
0.0
  0
LINE
  5
1800F
330
747D
100
AcDbEntity
  8
部品1
100
AcDbLine
 10
10553.96369608199
 20
1676.186143482268
 30
0.0
 11
9790.493029853559
 21
1676.186143482268
 31
0.0
  0
DIMENSION
  5
18010
330
747D
100
AcDbEntity
  8
寸法
 48
50.0
100
AcDbDimension
  2
*D13
 10
8757.228362967778
 20
1844.965417626372
 30
0.0
 11
8857.228362967777
 21
1844.965417626372
 31
0.0
 70
   160
 71
     5
 42
200.0000000000018
  3
INABA_S40G
100
AcDbAlignedDimension
 13
8957.228362967779
 23
2131.01274692675
 33
0.0
 14
8757.228362967778
 24
2131.01274692675
 34
0.0
100
AcDbRotatedDimension
  0
LINE
  5
18011
330
747D
100
AcDbEntity
  8
破線
 48
5.0
100
AcDbLine
 10
8757.228362967778
 20
2131.01274692675
 30
0.0
 11
8957.228362967779
 21
2131.01274692675
 31
0.0
  0
LINE
  5
18012
330
747D
100
AcDbEntity
  8
破線
 48
5.0
100
AcDbLine
 10
8757.228362967778
 20
2331.01274692675
 30
0.0
 11
8757.228362967778
 21
2131.01274692675
 31
0.0
  0
LINE
  5
18013
330
747D
100
AcDbEntity
  8
部品1
100
AcDbLine
 10
8857.228362967777
 20
4271.012746926749
 30
0.0
 11
11487.22836296777
 21
4271.012746926749
 31
0.0
  0
LINE
  5
18014
330
747D
100
AcDbEntity
  8
部品1
 48
50.0
100
AcDbLine
 10
9305.228362967779
 20
2431.01274692675
 30
0.0
 11
11459.22836296778
 21
2431.01274692675
 31
0.0
  0
LINE
  5
18015
330
747D
100
AcDbEntity
  8
部品1
 48
50.0
100
AcDbLine
 10
8885.228362967778
 20
2431.01274692675
 30
0.0
 11
11459.22836296778
 21
2431.01274692675
 31
0.0
  0
LINE
  5
18016
330
747D
100
AcDbEntity
  8
破線
 48
5.0
100
AcDbLine
 10
11587.22836296777
 20
2131.01274692675
 30
0.0
 11
11387.22836296777
 21
2131.01274692675
 31
0.0
  0
LINE
  5
18017
330
747D
100
AcDbEntity
  8
部品1
100
AcDbLine
 10
8857.228362967777
 20
4271.012746926749
 30
0.0
 11
11487.22836296777
 21
4271.012746926749
 31
0.0
  0
LINE
  5
18018
330
747D
100
AcDbEntity
  8
部品1
100
AcDbLine
 10
8857.228362967777
 20
2431.01274692675
 30
0.0
 11
11487.22836296777
 21
2431.01274692675
 31
0.0
  0
LINE
  5
18019
330
747D
100
AcDbEntity
  8
部品1
 48
50.0
100
AcDbLine
 10
8912.228362967779
 20
2481.01274692677
 30
0.0
 11
8912.228362967779
 21
4271.012746926749
 31
0.0
  0
LINE
  5
1801A
330
747D
100
AcDbEntity
  8
部品1
100
AcDbLine
 10
8857.228362967777
 20
4363.155184855628
 30
0.0
 11
8857.228362967777
 21
2331.01274692675
 31
0.0
  0
LINE
  5
1801B
330
747D
100
AcDbEntity
  8
部品1
100
AcDbLine
 10
8852.228362967776
 20
2476.012746926752
 30
0.0
 11
8852.228362967776
 21
2331.01274692675
 31
0.0
  0
LINE
  5
1801C
330
747D
100
AcDbEntity
  8
破線
 48
5.0
100
AcDbLine
 10
8852.228362967776
 20
2331.01274692675
 30
0.0
 11
8852.228362967776
 21
2176.01274692675
 31
0.0
  0
LINE
  5
1801D
330
747D
100
AcDbEntity
  8
破線
 48
5.0
100
AcDbLine
 10
8957.228362967777
 20
2331.01274692675
 30
0.0
 11
8957.228362967777
 21
2131.01274692675
 31
0.0
  0
LINE
  5
1801E
330
747D
100
AcDbEntity
  8
破線
 48
5.0
100
AcDbLine
 10
8832.228362967777
 20
2176.01274692675
 30
0.0
 11
8852.228362967778
 21
2176.01274692675
 31
0.0
  0
LINE
  5
1801F
330
747D
100
AcDbEntity
  8
部品1
100
AcDbLine
 10
9257.228362967778
 20
2431.01274692675
 30
0.0
 11
9257.228362967778
 21
2331.01274692675
 31
0.0
  0
LINE
  5
18020
330
747D
100
AcDbEntity
  8
部品1
100
AcDbLine
 10
8857.228362967777
 20
2481.01274692677
 30
0.0
 11
9305.228362967779
 21
2481.01274692677
 31
0.0
  0
LINE
  5
18021
330
747D
100
AcDbEntity
  8
部品1
 48
50.0
100
AcDbLine
 10
9657.228362967778
 20
2431.01274692675
 30
0.0
 11
9657.228362967778
 21
2331.01274692675
 31
0.0
  0
LINE
  5
18022
330
747D
100
AcDbEntity
  8
部品1
 48
50.0
100
AcDbLine
 10
9857.228362967777
 20
2431.01274692675
 30
0.0
 11
9857.228362967777
 21
2331.01274692675
 31
0.0
  0
LINE
  5
18023
330
747D
100
AcDbEntity
  8
部品1
 48
50.0
100
AcDbLine
 10
10487.22836296777
 20
2431.01274692675
 30
0.0
 11
10487.22836296777
 21
2331.01274692675
 31
0.0
  0
LINE
  5
18024
330
747D
100
AcDbEntity
  8
部品1
 48
50.0
100
AcDbLine
 10
10687.22836296778
 20
2431.01274692675
 30
0.0
 11
10687.22836296778
 21
2331.01274692675
 31
0.0
  0
LINE
  5
18025
330
747D
100
AcDbEntity
  8
部品1
100
AcDbLine
 10
11087.22836296778
 20
2431.01274692675
 30
0.0
 11
11087.22836296778
 21
2331.01274692675
 31
0.0
  0
LINE
  5
18026
330
747D
100
AcDbEntity
  8
破線
 48
5.0
100
AcDbLine
 10
11387.22836296778
 20
2331.01274692675
 30
0.0
 11
11387.22836296778
 21
2131.01274692675
 31
0.0
  0
LINE
  5
18027
330
747D
100
AcDbEntity
  8
部品1
 48
50.0
100
AcDbLine
 10
9332.228362967779
 20
4266.012746926747
 30
0.0
 11
9332.228362967779
 21
4271.012746926749
 31
0.0
  0
LINE
  5
18028
330
747D
100
AcDbEntity
  8
部品1
100
AcDbLine
 10
11487.22836296778
 20
4325.547020314489
 30
0.0
 11
11487.22836296777
 21
2331.01274692675
 31
0.0
  0
LINE
  5
18029
330
747D
100
AcDbEntity
  8
部品1
100
AcDbLine
 10
11492.22836296778
 20
2476.01274692675
 30
0.0
 11
11492.22836296778
 21
2331.01274692675
 31
0.0
  0
LINE
  5
1802A
330
747D
100
AcDbEntity
  8
破線
 48
5.0
100
AcDbLine
 10
11492.22836296778
 20
2331.01274692675
 30
0.0
 11
11492.22836296778
 21
2176.01274692675
 31
0.0
  0
LINE
  5
1802B
330
747D
100
AcDbEntity
  8
破線
 48
5.0
100
AcDbLine
 10
11587.22836296777
 20
2331.01274692675
 30
0.0
 11
11587.22836296777
 21
2131.01274692675
 31
0.0
  0
LINE
  5
1802C
330
747D
100
AcDbEntity
  8
破線
 48
5.0
100
AcDbLine
 10
11512.22836296778
 20
2176.01274692675
 30
0.0
 11
11492.22836296777
 21
2176.01274692675
 31
0.0
  0
LINE
  5
1802D
330
747D
100
AcDbEntity
  8
部品1
100
AcDbLine
 10
11459.22836296778
 20
2481.01274692677
 30
0.0
 11
11487.22836296777
 21
2481.01274692677
 31
0.0
  0
LINE
  5
1802E
330
747D
100
AcDbEntity
  8
部品1
 48
50.0
100
AcDbLine
 10
11432.22836296778
 20
4266.012746926747
 30
0.0
 11
11432.22836296778
 21
4271.012746926749
 31
0.0
  0
DIMENSION
  5
1802F
330
747D
100
AcDbEntity
  8
寸法
100
AcDbDimension
  2
*D14
 10
8912.228362967788
 20
10374.2863404696
 30
0.0
 11
8548.743081593512
 21
10374.2863404696
 31
0.0
 70
   160
 71
     5
 42
55.00000000003637
  3
INABA_S40G
100
AcDbAlignedDimension
 13
8857.228362967751
 23
10074.2863404696
 33
0.0
 14
8912.228362967788
 24
10074.2863404696
 34
0.0
100
AcDbRotatedDimension
1001
ACAD
1000
DSTYLE
1002
{
1002
}
  0
DIMENSION
  5
18030
330
747D
100
AcDbEntity
  8
寸法
100
AcDbDimension
  2
*D15
 10
10071.99443113179
 20
9274.322950925052
 30
0.0
 11
9435.494431131754
 21
9274.322950925052
 31
0.0
 70
   160
 71
     5
 42
1273.000000000069
  3
INABA_S40G
100
AcDbAlignedDimension
 13
8884.728362967718
 23
9594.286340469651
 33
0.0
 14
10157.72836296779
 24
9594.286340469643
 34
0.0
100
AcDbRotatedDimension
1001
ACAD
1000
DSTYLE
1002
{
1002
}
  0
DIMENSION
  5
18031
330
747D
100
AcDbEntity
  8
寸法
100
AcDbDimension
  2
*D16
 10
11487.22836296778
 20
10374.2863404696
 30
0.0
 11
11795.71364434202
 21
10374.2863404696
 31
0.0
 70
   160
 71
     5
 42
55.0
  3
INABA_S40G
100
AcDbAlignedDimension
 13
11432.22836296779
 23
10074.2863404697
 33
0.0
 14
11487.22836296778
 24
10074.2863404697
 34
0.0
100
AcDbRotatedDimension
1001
ACAD
1000
DSTYLE
1002
{
1002
}
  0
DIMENSION
  5
18032
330
747D
100
AcDbEntity
  8
寸法
100
AcDbDimension
  2
*D17
 10
11432.22836296779
 20
10374.2863404696
 30
0.0
 11
10172.22836296778
 21
10374.2863404696
 31
0.0
 70
   160
  1
6X420=<>
 71
     5
 42
2520.0
  3
INABA_S40G
100
AcDbAlignedDimension
 13
8912.228362967788
 23
10074.2863404696
 33
0.0
 14
11432.22836296779
 24
10074.2863404697
 34
0.0
100
AcDbRotatedDimension
1001
ACAD
1000
DSTYLE
1002
{
1002
}
  0
LINE
  5
18033
330
747D
100
AcDbEntity
  8
部品1
100
AcDbLine
 10
11430.72836296779
 20
7500.786340469689
 30
0.0
 11
8913.728362967679
 21
7500.78634046957
 31
0.0
  0
LINE
  5
18034
330
747D
100
AcDbEntity
  8
部品1
100
AcDbLine
 10
8857.228362967788
 20
10074.2863404696
 30
0.0
 11
11487.22836296778
 21
10074.2863404697
 31
0.0
  0
DIMENSION
  5
18036
330
747D
100
AcDbEntity
  8
寸法
100
AcDbDimension
  2
*D18
 10
11371.99443113178
 20
9274.322950925052
 30
0.0
 11
10805.1162702818
 21
9274.322950925052
 31
0.0
 70
   160
 71
     5
 42
1273.000000000011
  3
INABA_S40G
100
AcDbAlignedDimension
 13
10184.72836296778
 23
9594.286340469709
 33
0.0
 14
11457.7283629678
 24
9594.286340469702
 34
0.0
100
AcDbRotatedDimension
1001
ACAD
1000
DSTYLE
1002
{
1002
}
  0
LINE
  5
18037
330
747D
100
AcDbEntity
  8
細線
 48
50.0
100
AcDbLine
 10
11458.72836296778
 20
10044.2863404697
 30
0.0
 11
10185.72836296778
 21
9594.286340469709
 31
0.0
  0
LINE
  5
18038
330
747D
100
AcDbEntity
  8
部品1
100
AcDbLine
 10
10185.72836296778
 20
10044.2863404697
 30
0.0
 11
11458.72836296778
 21
10044.2863404697
 31
0.0
  0
LINE
  5
18039
330
747D
100
AcDbEntity
  8
部品1
100
AcDbLine
 10
10185.72836296778
 20
9594.286340469709
 30
0.0
 11
11458.72836296778
 21
9594.286340469702
 31
0.0
  0
LINE
  5
1803A
330
747D
100
AcDbEntity
  8
細線
 48
50.0
100
AcDbLine
 10
11458.72836296778
 20
9594.286340469702
 30
0.0
 11
10185.72836296778
 21
10044.2863404697
 31
0.0
  0
LINE
  5
1803B
330
747D
100
AcDbEntity
  8
部品1
100
AcDbLine
 10
10184.72836296778
 20
10046.28634046971
 30
0.0
 11
11459.22836296779
 21
10046.2863404697
 31
0.0
  0
LINE
  5
1803C
330
747D
100
AcDbEntity
  8
部品1
100
AcDbLine
 10
11430.72836296777
 20
9179.286340469674
 30
0.0
 11
8913.728362967772
 21
9179.286340469571
 31
0.0
  0
LINE
  5
1803D
330
747D
100
AcDbEntity
  8
部品1
 48
50.0
100
AcDbLine
 10
8885.228362967779
 20
7472.286340469671
 30
0.0
 11
11459.2283629678
 21
7472.286340469675
 31
0.0
  0
LINE
  5
1803E
330
747D
100
AcDbEntity
  8
破線
 48
10.0
100
AcDbLine
 10
11407.22836296778
 20
9594.286340469702
 30
0.0
 11
11407.22836296779
 21
7524.286340469686
 31
0.0
  0
LINE
  5
1803F
330
747D
100
AcDbEntity
  8
破線
 48
10.0
100
AcDbLine
 10
8937.228362967763
 20
9594.286340469702
 30
0.0
 11
8937.228362967777
 21
7524.286340469569
 31
0.0
  0
LINE
  5
18040
330
747D
100
AcDbEntity
  8
部品1
100
AcDbLine
 10
8885.228362967763
 20
7472.28634046965
 30
0.0
 11
8885.228362967779
 21
9599.286340469575
 31
0.0
  0
LINE
  5
18041
330
747D
100
AcDbEntity
  8
部品1
100
AcDbLine
 10
8857.228362967751
 20
10074.28634046957
 30
0.0
 11
8857.228362967781
 21
7444.286340469559
 31
0.0
  0
LINE
  5
18042
330
747D
100
AcDbEntity
  8
破線
 48
10.0
100
AcDbLine
 10
9731.728362967766
 20
7500.786340469598
 30
0.0
 11
9731.728362967762
 21
9594.286340469709
 31
0.0
  0
LINE
  5
18043
330
747D
100
AcDbEntity
  8
破線
 48
10.0
100
AcDbLine
 10
9781.728362967761
 20
7500.786340469602
 30
0.0
 11
9781.728362967761
 21
9594.286340469709
 31
0.0
  0
LINE
  5
18044
330
747D
100
AcDbEntity
  8
部品1
100
AcDbLine
 10
8913.728362967765
 20
9594.286340469651
 30
0.0
 11
8913.728362967777
 21
7500.786340469663
 31
0.0
  0
LINE
  5
18045
330
747D
100
AcDbEntity
  8
破線
 48
10.0
100
AcDbLine
 10
10612.72836296776
 20
7500.786340469602
 30
0.0
 11
10612.72836296776
 21
9594.286340469709
 31
0.0
  0
LINE
  5
18046
330
747D
100
AcDbEntity
  8
破線
 48
10.0
100
AcDbLine
 10
10562.72836296776
 20
7500.786340469598
 30
0.0
 11
10562.72836296776
 21
9594.286340469709
 31
0.0
  0
LINE
  5
18047
330
747D
100
AcDbEntity
  8
破線
 48
10.0
100
AcDbLine
 10
10562.72836296776
 20
7524.286340469605
 30
0.0
 11
9781.728362967761
 21
7524.286340469579
 31
0.0
  0
LINE
  5
18048
330
747D
100
AcDbEntity
  8
破線
 48
10.0
100
AcDbLine
 10
9731.728362967766
 20
7524.286340469554
 30
0.0
 11
8937.228362967774
 21
7524.286340469569
 31
0.0
  0
LINE
  5
18049
330
747D
100
AcDbEntity
  8
部品1
100
AcDbLine
 10
9332.228362967756
 20
7444.286340469559
 30
0.0
 11
8857.228362967781
 21
7444.286340469559
 31
0.0
  0
LINE
  5
1804A
330
747D
100
AcDbEntity
  8
部品1
100
AcDbLine
 10
8857.228362967779
 20
7499.286340469521
 30
0.0
 11
8857.228362967781
 21
7444.286340469526
 31
0.0
  0
LINE
  5
1804B
330
747D
100
AcDbEntity
  8
部品1
100
AcDbLine
 10
8885.228362967778
 20
7499.286340469573
 30
0.0
 11
8857.228362967779
 21
7499.286340469573
 31
0.0
  0
LINE
  5
1804C
330
747D
100
AcDbEntity
  8
部品1
100
AcDbLine
 10
8885.228362967763
 20
7499.286340469558
 30
0.0
 11
8857.228362967779
 21
7499.286340469558
 31
0.0
  0
LINE
  5
1804D
330
747D
100
AcDbEntity
  8
部品1
100
AcDbLine
 10
8885.228362967763
 20
7499.286340469521
 30
0.0
 11
8857.228362967779
 21
7499.286340469521
 31
0.0
  0
LINE
  5
1804E
330
747D
100
AcDbEntity
  8
部品1
100
AcDbLine
 10
8912.228362967756
 20
7444.286340469689
 30
0.0
 11
8912.228362967756
 21
7472.28634046969
 31
0.0
  0
LINE
  5
1804F
330
747D
100
AcDbEntity
  8
部品1
 48
50.0
100
AcDbLine
 10
8913.728362967777
 20
7500.786340469668
 30
0.0
 11
8885.228362967778
 21
7472.286340469667
 31
0.0
  0
LINE
  5
18050
330
747D
100
AcDbEntity
  8
部品1
100
AcDbLine
 10
9332.228362967756
 20
7444.286340469689
 30
0.0
 11
9332.228362967756
 21
7472.28634046969
 31
0.0
  0
LINE
  5
18051
330
747D
100
AcDbEntity
  8
破線
 48
10.0
100
AcDbLine
 10
11407.22836296778
 20
7524.286340469689
 30
0.0
 11
10612.72836296776
 21
7524.286340469512
 31
0.0
  0
LINE
  5
18052
330
747D
100
AcDbEntity
  8
細線
 48
50.0
100
AcDbLine
 10
10158.72836296778
 20
9594.286340469709
 30
0.0
 11
8885.728362967716
 21
10044.28634046965
 31
0.0
  0
LINE
  5
18053
330
747D
100
AcDbEntity
  8
細線
 48
50.0
100
AcDbLine
 10
10158.72836296779
 20
10044.2863404697
 30
0.0
 11
8885.728362967718
 21
9594.286340469651
 31
0.0
  0
LINE
  5
18054
330
747D
100
AcDbEntity
  8
部品1
100
AcDbLine
 10
8885.22836296779
 20
10046.28634046971
 30
0.0
 11
10159.72836296778
 21
10046.28634046972
 31
0.0
  0
LINE
  5
18055
330
747D
100
AcDbEntity
  8
部品1
100
AcDbLine
 10
8885.728362967718
 20
10044.28634046965
 30
0.0
 11
10158.72836296779
 21
10044.28634046971
 31
0.0
  0
LINE
  5
18056
330
747D
100
AcDbEntity
  8
部品1
100
AcDbLine
 10
8885.728362967718
 20
9594.286340469651
 30
0.0
 11
10158.72836296778
 21
9594.286340469709
 31
0.0
  0
LINE
  5
18057
330
747D
100
AcDbEntity
  8
部品1
 48
50.0
100
AcDbLine
 10
8885.728362967718
 20
10044.2863404697
 30
0.0
 11
8885.728362967718
 21
9594.286340469709
 31
0.0
  0
LINE
  5
18058
330
747D
100
AcDbEntity
  8
部品1
100
AcDbLine
 10
8885.228362967778
 20
9593.786340469575
 30
0.0
 11
8885.228362967788
 21
10046.2863404696
 31
0.0
  0
LINE
  5
18059
330
747D
100
AcDbEntity
  8
部品1
100
AcDbLine
 10
8885.228362967763
 20
9179.286340469571
 30
0.0
 11
8857.228362967763
 21
9179.286340469571
 31
0.0
  0
LINE
  5
1805A
330
747D
100
AcDbEntity
  8
部品1
100
AcDbLine
 10
8885.228362967763
 20
9599.286340469575
 30
0.0
 11
8857.228362967763
 21
9599.286340469575
 31
0.0
  0
LINE
  5
1805B
330
747D
100
AcDbEntity
  8
部品1
100
AcDbLine
 10
8885.228362967756
 20
10019.28634046957
 30
0.0
 11
8857.228362967756
 21
10019.28634046957
 31
0.0
  0
LINE
  5
1805C
330
747D
100
AcDbEntity
  8
部品1
100
AcDbLine
 10
8912.228362967788
 20
10074.2863404696
 30
0.0
 11
8912.228362967788
 21
10046.2863404696
 31
0.0
  0
LINE
  5
1805D
330
747D
100
AcDbEntity
  8
部品1
100
AcDbLine
 10
8912.22836296775
 20
10074.28634046957
 30
0.0
 11
8912.228362967756
 21
10046.28634046957
 31
0.0
  0
LINE
  5
1805E
330
747D
100
AcDbEntity
  8
部品1
100
AcDbLine
 10
9332.228362967752
 20
10074.28634046957
 30
0.0
 11
9332.228362967756
 21
10046.28634046957
 31
0.0
  0
LINE
  5
1805F
330
747D
100
AcDbEntity
  8
部品1
100
AcDbLine
 10
9752.228362967752
 20
10074.28634046957
 30
0.0
 11
9752.228362967755
 21
10046.28634046957
 31
0.0
  0
LINE
  5
18060
330
747D
100
AcDbEntity
  8
部品1
 48
50.0
100
AcDbLine
 10
10158.72836296779
 20
10044.2863404697
 30
0.0
 11
10158.72836296779
 21
9594.286340469709
 31
0.0
  0
LINE
  5
18061
330
747D
100
AcDbEntity
  8
部品1
 48
50.0
100
AcDbLine
 10
10185.72836296778
 20
10044.2863404697
 30
0.0
 11
10185.72836296778
 21
9594.286340469709
 31
0.0
  0
LINE
  5
18062
330
747D
100
AcDbEntity
  8
部品1
 48
50.0
100
AcDbLine
 10
10159.72836296778
 20
10046.28634046971
 30
0.0
 11
10159.72836296779
 21
9594.286340469709
 31
0.0
  0
LINE
  5
18063
330
747D
100
AcDbEntity
  8
部品1
 48
50.0
100
AcDbLine
 10
10184.72836296778
 20
10046.28634046971
 30
0.0
 11
10184.72836296778
 21
9594.286340469709
 31
0.0
  0
LINE
  5
18064
330
747D
100
AcDbEntity
  8
部品1
100
AcDbLine
 10
10159.72836296779
 20
9594.286340469709
 30
0.0
 11
10184.72836296778
 21
9594.286340469709
 31
0.0
  0
LINE
  5
18065
330
747D
100
AcDbEntity
  8
部品1
100
AcDbLine
 10
10159.72836296779
 20
10038.2863404697
 30
0.0
 11
10184.72836296778
 21
10038.2863404697
 31
0.0
  0
LINE
  5
18066
330
747D
100
AcDbEntity
  8
部品1
100
AcDbLine
 10
10137.22836296778
 20
10064.2863404697
 30
0.0
 11
10137.22836296778
 21
10046.2863404697
 31
0.0
  0
LINE
  5
18067
330
747D
100
AcDbEntity
  8
部品1
100
AcDbLine
 10
10137.22836296778
 20
10064.2863404697
 30
0.0
 11
10143.22836296779
 21
10064.2863404697
 31
0.0
  0
LINE
  5
18068
330
747D
100
AcDbEntity
  8
部品1
100
AcDbLine
 10
10207.22836296779
 20
10064.2863404697
 30
0.0
 11
10207.22836296779
 21
10046.2863404697
 31
0.0
  0
LINE
  5
18069
330
747D
100
AcDbEntity
  8
部品1
100
AcDbLine
 10
10201.22836296779
 20
10064.2863404697
 30
0.0
 11
10207.22836296779
 21
10064.2863404697
 31
0.0
  0
LINE
  5
1806A
330
747D
100
AcDbEntity
  8
部品1
100
AcDbLine
 10
10172.22836296775
 20
10074.28634046957
 30
0.0
 11
10172.22836296775
 21
10046.28634046957
 31
0.0
  0
LINE
  5
1806B
330
747D
100
AcDbEntity
  8
部品1
100
AcDbLine
 10
10592.22836296775
 20
10074.28634046957
 30
0.0
 11
10592.22836296775
 21
10046.28634046957
 31
0.0
  0
LINE
  5
1806C
330
747D
100
AcDbEntity
  8
部品1
100
AcDbLine
 10
11012.22836296775
 20
10074.28634046957
 30
0.0
 11
11012.22836296775
 21
10046.28634046957
 31
0.0
  0
DIMENSION
  5
1806D
330
747D
100
AcDbEntity
  8
寸法
100
AcDbDimension
  2
*D19
 10
12487.22836296779
 20
7444.286340469687
 30
0.0
 11
12487.22836296779
 21
8759.286340469694
 31
0.0
 70
   160
 71
     5
 42
2630.00000000001
  3
INABA_S40G
100
AcDbAlignedDimension
 13
11487.22836296778
 23
10074.2863404697
 33
0.0
 14
11487.22836296776
 24
7444.286340469687
 34
0.0
 50
90.0
100
AcDbRotatedDimension
1001
ACAD
1000
DSTYLE
1002
{
1002
}
  0
DIMENSION
  5
1806E
330
747D
100
AcDbEntity
  8
寸法
100
AcDbDimension
  2
*D20
 10
12187.22836296778
 20
7499.286340469684
 30
0.0
 11
12187.22836296777
 21
8759.286340469694
 31
0.0
 70
   160
  1
6X420=<>
 71
     5
 42
2520.000000000017
  3
INABA_S40G
100
AcDbAlignedDimension
 13
11487.22836296778
 23
10019.2863404697
 33
0.0
 14
11487.22836296776
 24
7499.286340469684
 34
0.0
 50
90.0
100
AcDbRotatedDimension
1001
ACAD
1000
DSTYLE
1002
{
1002
}
  0
LINE
  5
1806F
330
747D
100
AcDbEntity
  8
部品1
100
AcDbLine
 10
11487.22836296778
 20
10074.2863404697
 30
0.0
 11
11487.22836296776
 21
7444.286340469689
 31
0.0
  0
LINE
  5
18070
330
747D
100
AcDbEntity
  8
部品1
100
AcDbLine
 10
11430.72836296778
 20
9594.286340469698
 30
0.0
 11
11430.72836296779
 21
7500.786340469689
 31
0.0
  0
LINE
  5
18071
330
747D
100
AcDbEntity
  8
部品1
100
AcDbLine
 10
11459.22836296778
 20
9599.286340469701
 30
0.0
 11
11459.22836296776
 21
7472.28634046969
 31
0.0
  0
DIMENSION
  5
18072
330
747D
100
AcDbEntity
  8
寸法
100
AcDbDimension
  2
*D21
 10
12187.22836296776
 20
7444.286340469687
 30
0.0
 11
12187.22836296776
 21
7135.801059095438
 31
0.0
 70
   160
 71
     5
 42
54.99999999999636
  3
INABA_S40G
100
AcDbAlignedDimension
 13
11487.22836296776
 23
7499.286340469684
 33
0.0
 14
11487.22836296776
 24
7444.286340469687
 34
0.0
 50
90.0
100
AcDbRotatedDimension
1001
ACAD
1000
DSTYLE
1002
{
1002
}
  0
LINE
  5
18073
330
747D
100
AcDbEntity
  8
部品1
100
AcDbLine
 10
11487.22836296776
 20
7444.286340469689
 30
0.0
 11
11432.22836296779
 21
7444.286340469675
 31
0.0
  0
LINE
  5
18074
330
747D
100
AcDbEntity
  8
部品1
100
AcDbLine
 10
11459.22836296776
 20
7499.286340469686
 30
0.0
 11
11487.22836296776
 21
7499.286340469686
 31
0.0
  0
LINE
  5
18075
330
747D
100
AcDbEntity
  8
部品1
100
AcDbLine
 10
11487.22836296776
 20
7444.286340469689
 30
0.0
 11
11436.22836296776
 21
7444.286340469689
 31
0.0
  0
LINE
  5
18076
330
747D
100
AcDbEntity
  8
部品1
 48
50.0
100
AcDbLine
 10
11430.72836296779
 20
7500.786340469689
 30
0.0
 11
11459.22836296779
 21
7472.28634046969
 31
0.0
  0
LINE
  5
18077
330
747D
100
AcDbEntity
  8
部品1
100
AcDbLine
 10
11487.22836296776
 20
7499.286340469686
 30
0.0
 11
11487.22836296776
 21
7444.286340469689
 31
0.0
  0
LINE
  5
18078
330
747D
100
AcDbEntity
  8
部品1
100
AcDbLine
 10
11459.22836296779
 20
7499.286340469686
 30
0.0
 11
11487.22836296778
 21
7499.286340469686
 31
0.0
  0
LINE
  5
18079
330
747D
100
AcDbEntity
  8
部品1
 48
50.0
100
AcDbLine
 10
11432.22836296779
 20
7444.286340469675
 30
0.0
 11
11432.22836296779
 21
7472.286340469675
 31
0.0
  0
LINE
  5
1807B
330
747D
100
AcDbEntity
  8
部品1
100
AcDbLine
 10
11459.22836296779
 20
10046.2863404697
 30
0.0
 11
11459.22836296778
 21
9593.786340469575
 31
0.0
  0
LINE
  5
1807C
330
747D
100
AcDbEntity
  8
部品1
100
AcDbLine
 10
11458.72836296778
 20
10044.2863404697
 30
0.0
 11
11458.72836296778
 21
9594.286340469702
 31
0.0
  0
DIMENSION
  5
1807D
330
747D
100
AcDbEntity
  8
寸法
100
AcDbDimension
  2
*D22
 10
11887.22836296778
 20
9479.470111512966
 30
0.0
 11
11887.22836296778
 21
9704.470111512966
 31
0.0
 70
   160
 71
     5
 42
449.9999999999963
  3
INABA_S40G
100
AcDbAlignedDimension
 13
11458.72836296778
 23
10044.2863404697
 33
0.0
 14
11458.72836296778
 24
9594.286340469702
 34
0.0
 50
90.0
100
AcDbRotatedDimension
1001
ACAD
1000
DSTYLE
1002
{
1002
}
  0
DIMENSION
  5
1807E
330
747D
100
AcDbEntity
  8
寸法
100
AcDbDimension
  2
*D23
 10
12187.22836296778
 20
10019.2863404697
 30
0.0
 11
12187.22836296777
 21
10382.77162184394
 31
0.0
 70
   160
 71
     5
 42
54.99999999999636
  3
INABA_S40G
100
AcDbAlignedDimension
 13
11487.22836296778
 23
10074.2863404697
 33
0.0
 14
11487.22836296778
 24
10019.2863404697
 34
0.0
 50
90.0
100
AcDbRotatedDimension
1001
ACAD
1000
DSTYLE
1002
{
1002
}
  0
LINE
  5
1807F
330
747D
100
AcDbEntity
  8
部品1
100
AcDbLine
 10
11459.22836296779
 20
9179.286340469699
 30
0.0
 11
11487.22836296778
 21
9179.286340469699
 31
0.0
  0
LINE
  5
18080
330
747D
100
AcDbEntity
  8
部品1
100
AcDbLine
 10
11459.22836296779
 20
9599.286340469701
 30
0.0
 11
11487.22836296778
 21
9599.286340469701
 31
0.0
  0
LINE
  5
18081
330
747D
100
AcDbEntity
  8
部品1
100
AcDbLine
 10
11459.22836296779
 20
10019.2863404697
 30
0.0
 11
11487.22836296778
 21
10019.2863404697
 31
0.0
  0
LINE
  5
18082
330
747D
100
AcDbEntity
  8
部品1
100
AcDbLine
 10
11432.22836296779
 20
10074.28634046972
 30
0.0
 11
11432.22836296779
 21
10046.28634046972
 31
0.0
  0
LINE
  5
18083
330
747D
100
AcDbEntity
  8
部品1
100
AcDbLine
 10
11432.22836296779
 20
10074.2863404697
 30
0.0
 11
11432.22836296779
 21
10046.2863404697
 31
0.0
  0
MTEXT
  5
18084
330
747D
100
AcDbEntity
  8
寸法
 62
     7
 48
50.0
100
AcDbMText
 10
9537.330900060892
 20
9660.521158666986
 30
0.0
 40
96.0
 41
0.0
 71
     5
 72
     1
  1
棚 2段
  7
STYLE1
 73
     1
 44
1.0
1001
ACAD
1000
MTEXTBEGIN
1070
    73
1070
     1
1070
    44
1040
1.0
1070
    74
1070
     0
1000
MTEXTEND
  0
MTEXT
  5
18085
330
747D
100
AcDbEntity
  8
寸法
 62
     7
 48
50.0
100
AcDbMText
 10
10837.33090006092
 20
9660.521158667009
 30
0.0
 40
96.0
 41
0.0
 71
     5
 72
     1
  1
棚 2段
  7
STYLE1
 73
     1
 44
1.0
1001
ACAD
1000
MTEXTBEGIN
1070
    73
1070
     1
1070
    44
1040
1.0
1070
    74
1070
     0
1000
MTEXTEND
  0
LINE
  5
18089
330
747D
100
AcDbEntity
  8
部品1
 48
50.0
100
AcDbLine
 10
9379.228362967777
 20
3412.51274692675
 30
0.0
 11
9432.228362967778
 21
3412.51274692675
 31
0.0
  0
LINE
  5
180A3
330
747D
100
AcDbEntity
  8
部品1
 48
50.0
100
AcDbLine
 10
11459.22836296778
 20
4266.01274692675
 30
0.0
 11
9305.228362967779
 21
4266.01274692675
 31
0.0
  0
LINE
  5
180A4
330
747D
100
AcDbEntity
  8
細線
 48
50.0
100
AcDbLine
 10
11459.22836296778
 20
4256.012746926749
 30
0.0
 11
9305.228362967779
 21
4256.012746926749
 31
0.0
  0
LINE
  5
180A5
330
747D
100
AcDbEntity
  8
細線
 48
50.0
100
AcDbLine
 10
11429.22836296778
 20
4214.01274692675
 30
0.0
 11
9335.228362967779
 21
4214.01274692675
 31
0.0
  0
LINE
  5
180A6
330
747D
100
AcDbEntity
  8
細線
 48
50.0
100
AcDbLine
 10
11429.22836296778
 20
4223.51274692675
 30
0.0
 11
9335.228362967779
 21
4223.51274692675
 31
0.0
  0
LINE
  5
180A7
330
747D
100
AcDbEntity
  8
部品1
 48
50.0
100
AcDbLine
 10
9305.228362967779
 20
2431.01274692675
 30
0.0
 11
11459.22836296778
 21
2431.01274692675
 31
0.0
  0
LINE
  5
180A8
330
747D
100
AcDbEntity
  8
細線
 48
50.0
100
AcDbLine
 10
9335.228362967779
 20
2474.01274692675
 30
0.0
 11
11429.22836296778
 21
2474.01274692675
 31
0.0
  0
LINE
  5
180A9
330
747D
100
AcDbEntity
  8
細線
 48
50.0
100
AcDbLine
 10
9335.228362967779
 20
2478.01274692675
 30
0.0
 11
11429.22836296778
 21
2478.01274692675
 31
0.0
  0
LINE
  5
180AA
330
747D
100
AcDbEntity
  8
細線
 48
50.0
100
AcDbLine
 10
10139.22836296778
 20
2488.51274692675
 30
0.0
 11
11403.22836296778
 21
2488.51274692675
 31
0.0
  0
LINE
  5
180AB
330
747D
100
AcDbEntity
  8
部品1
 48
50.0
100
AcDbLine
 10
9335.228362967779
 20
2481.01274692675
 30
0.0
 11
9335.228362967779
 21
4214.01274692675
 31
0.0
  0
LINE
  5
180AC
330
747D
100
AcDbEntity
  8
細線
 48
50.0
100
AcDbLine
 10
9335.228362967779
 20
4223.51274692675
 30
0.0
 11
9335.228362967779
 21
2431.01274692675
 31
0.0
  0
LINE
  5
180AD
330
747D
100
AcDbEntity
  8
部品1
 48
50.0
100
AcDbLine
 10
9305.228362967779
 20
4266.01274692675
 30
0.0
 11
9305.228362967779
 21
2431.01274692675
 31
0.0
  0
LINE
  5
180AE
330
747D
100
AcDbEntity
  8
部品1
 48
50.0
100
AcDbLine
 10
10139.22836296778
 20
4214.012746951516
 30
0.0
 11
10139.22836296778
 21
2481.012746951517
 31
0.0
  0
LINE
  5
180AF
330
747D
100
AcDbEntity
  8
部品1
 48
50.0
100
AcDbLine
 10
9335.228362967779
 20
2481.01274692675
 30
0.0
 11
10139.22836296777
 21
2481.012746926746
 31
0.0
  0
LINE
  5
180B0
330
747D
100
AcDbEntity
  8
部品1
 48
50.0
100
AcDbLine
 10
9344.228362967779
 20
2481.01274692675
 30
0.0
 11
9344.228362967779
 21
2478.01274692675
 31
0.0
  0
LINE
  5
180B1
330
747D
100
AcDbEntity
  8
部品1
 48
50.0
100
AcDbLine
 10
9335.228362967779
 20
4222.01274692675
 30
0.0
 11
9305.228362967779
 21
4222.01274692675
 31
0.0
  0
LINE
  5
180B2
330
747D
100
AcDbEntity
  8
部品1
 48
50.0
100
AcDbLine
 10
11420.22836296778
 20
2478.01274692675
 30
0.0
 11
11420.22836296778
 21
4214.01274692675
 31
0.0
  0
LINE
  5
180B3
330
747D
100
AcDbEntity
  8
細線
 48
50.0
100
AcDbLine
 10
11429.22836296778
 20
2431.01274692675
 30
0.0
 11
11429.22836296778
 21
4223.51274692675
 31
0.0
  0
LINE
  5
180B4
330
747D
100
AcDbEntity
  8
部品1
 48
50.0
100
AcDbLine
 10
11459.22836296778
 20
2431.01274692675
 30
0.0
 11
11459.22836296778
 21
4266.01274692675
 31
0.0
  0
LINE
  5
180B5
330
747D
100
AcDbEntity
  8
部品1
 48
50.0
100
AcDbLine
 10
10793.22835327264
 20
4214.012746963898
 30
0.0
 11
10793.22835327264
 21
2488.512746963897
 31
0.0
  0
LINE
  5
180B6
330
747D
100
AcDbEntity
  8
細線
 48
50.0
100
AcDbLine
 10
11407.22836296778
 20
2478.01274692675
 30
0.0
 11
11403.22836296778
 21
2488.51274692675
 31
0.0
  0
LINE
  5
180B7
330
747D
100
AcDbEntity
  8
部品1
 48
50.0
100
AcDbLine
 10
11459.22836296778
 20
4222.01274692675
 30
0.0
 11
11429.22836296778
 21
4222.01274692675
 31
0.0
  0
LINE
  5
180B8
330
747D
100
AcDbEntity
  8
細線
100
AcDbLine
 10
10915.97836296778
 20
4214.01274692675
 30
0.0
 11
10915.97836296778
 21
2488.512746926768
 31
0.0
  0
LINE
  5
180B9
330
747D
100
AcDbEntity
  8
細線
100
AcDbLine
 10
10200.72837271802
 20
4214.01274692675
 30
0.0
 11
10200.72837271802
 21
2488.512746926761
 31
0.0
  0
LINE
  5
180BA
330
747D
100
AcDbEntity
  8
細線
100
AcDbLine
 10
10270.72837271802
 20
4214.01274692675
 30
0.0
 11
10270.72837271802
 21
2488.512746926761
 31
0.0
  0
LINE
  5
180BB
330
747D
100
AcDbEntity
  8
細線
100
AcDbLine
 10
9549.228362967779
 20
4214.01274692675
 30
0.0
 11
9549.228362967776
 21
2481.012746926754
 31
0.0
  0
LINE
  5
180BC
330
747D
100
AcDbEntity
  8
細線
100
AcDbLine
 10
9619.228362967779
 20
4214.01274692675
 30
0.0
 11
9619.228362967774
 21
2481.012746926754
 31
0.0
  0
LINE
  5
180BD
330
747D
100
AcDbEntity
  8
細線
100
AcDbLine
 10
10985.97836296778
 20
4214.01274692675
 30
0.0
 11
10985.97836296778
 21
2488.512746926768
 31
0.0
  0
LINE
  5
180BE
330
747D
100
AcDbEntity
  8
細線
100
AcDbLine
 10
11055.97836296778
 20
4214.01274692675
 30
0.0
 11
11055.97836296778
 21
2488.512746926768
 31
0.0
  0
LINE
  5
180BF
330
747D
100
AcDbEntity
  8
細線
100
AcDbLine
 10
11125.97836296778
 20
4214.01274692675
 30
0.0
 11
11125.97836296778
 21
2488.512746926768
 31
0.0
  0
LINE
  5
180C0
330
747D
100
AcDbEntity
  8
細線
100
AcDbLine
 10
11195.97836296778
 20
4214.01274692675
 30
0.0
 11
11195.97836296778
 21
2488.512746926768
 31
0.0
  0
LINE
  5
180C1
330
747D
100
AcDbEntity
  8
細線
100
AcDbLine
 10
11265.97836296778
 20
4214.01274692675
 30
0.0
 11
11265.97836296778
 21
2488.512746926768
 31
0.0
  0
LINE
  5
180C2
330
747D
100
AcDbEntity
  8
細線
100
AcDbLine
 10
10340.72837271802
 20
4214.01274692675
 30
0.0
 11
10340.72837271802
 21
2488.512746926761
 31
0.0
  0
LINE
  5
180C3
330
747D
100
AcDbEntity
  8
細線
100
AcDbLine
 10
10410.72837271802
 20
4214.01274692675
 30
0.0
 11
10410.72837271802
 21
2488.512746926761
 31
0.0
  0
LINE
  5
180C4
330
747D
100
AcDbEntity
  8
細線
100
AcDbLine
 10
10480.72837271802
 20
4214.01274692675
 30
0.0
 11
10480.72837271802
 21
2488.512746926761
 31
0.0
  0
LINE
  5
180C5
330
747D
100
AcDbEntity
  8
細線
100
AcDbLine
 10
10550.72837271802
 20
4214.01274692675
 30
0.0
 11
10550.72837271802
 21
2488.512746926761
 31
0.0
  0
LINE
  5
180C6
330
747D
100
AcDbEntity
  8
細線
100
AcDbLine
 10
10620.72837271802
 20
4214.01274692675
 30
0.0
 11
10620.72837271802
 21
2488.512746926761
 31
0.0
  0
LINE
  5
180C7
330
747D
100
AcDbEntity
  8
細線
100
AcDbLine
 10
10690.72837271802
 20
4214.01274692675
 30
0.0
 11
10690.72837271802
 21
2488.512746926761
 31
0.0
  0
LINE
  5
180C8
330
747D
100
AcDbEntity
  8
細線
100
AcDbLine
 10
9463.228362967775
 20
4214.01274692675
 30
0.0
 11
9463.228362967779
 21
2481.012746926754
 31
0.0
  0
LINE
  5
180C9
330
747D
100
AcDbEntity
  8
細線
100
AcDbLine
 10
9497.228362967774
 20
4214.01274692675
 30
0.0
 11
9497.22836296778
 21
2481.012746926754
 31
0.0
  0
LINE
  5
180CA
330
747D
100
AcDbEntity
  8
部品1
100
AcDbLine
 10
9455.228362967774
 20
4214.01274692675
 30
0.0
 11
9455.228362967778
 21
2481.012746926754
 31
0.0
  0
LINE
  5
180CB
330
747D
100
AcDbEntity
  8
部品1
100
AcDbLine
 10
9505.228362967775
 20
4214.01274692675
 30
0.0
 11
9505.228362967779
 21
2481.012746926754
 31
0.0
  0
LINE
  5
180CC
330
747D
100
AcDbEntity
  8
細線
100
AcDbLine
 10
9689.22836296778
 20
4214.01274692675
 30
0.0
 11
9689.228362967774
 21
2481.012746926754
 31
0.0
  0
LINE
  5
180CD
330
747D
100
AcDbEntity
  8
細線
100
AcDbLine
 10
9759.22836296778
 20
4214.01274692675
 30
0.0
 11
9759.228362967775
 21
2481.012746926754
 31
0.0
  0
LINE
  5
180CE
330
747D
100
AcDbEntity
  8
細線
100
AcDbLine
 10
9829.228362967779
 20
4214.01274692675
 30
0.0
 11
9829.228362967775
 21
2481.012746926754
 31
0.0
  0
LINE
  5
180CF
330
747D
100
AcDbEntity
  8
細線
100
AcDbLine
 10
9899.228362967779
 20
4214.01274692675
 30
0.0
 11
9899.228362967775
 21
2481.012746926754
 31
0.0
  0
LINE
  5
180D0
330
747D
100
AcDbEntity
  8
細線
100
AcDbLine
 10
9969.228362967779
 20
4214.01274692675
 30
0.0
 11
9969.228362967776
 21
2481.012746926757
 31
0.0
  0
LINE
  5
180D1
330
747D
100
AcDbEntity
  8
細線
100
AcDbLine
 10
10039.22836296778
 20
4214.01274692675
 30
0.0
 11
10039.22836296777
 21
2481.012746926757
 31
0.0
  0
LINE
  5
180D2
330
747D
100
AcDbEntity
  8
部品1
100
AcDbLine
 10
10793.22835327263
 20
4214.012746963901
 30
0.0
 11
10793.22835327263
 21
2488.512746963916
 31
0.0
  0
LINE
  5
180D3
330
747D
100
AcDbEntity
  8
部品1
 48
50.0
100
AcDbLine
 10
10139.22836296778
 20
4214.012746951516
 30
0.0
 11
10139.22836296777
 21
2481.012746926746
 31
0.0
  0
LINE
  5
18184
330
747D
100
AcDbEntity
  8
細線
 48
50.0
100
AcDbLine
 10
8989.728362967779
 20
4271.012746926749
 30
0.0
 11
8989.728362967779
 21
2481.01274692675
 31
0.0
  0
LINE
  5
18185
330
747D
100
AcDbEntity
  8
細線
 48
50.0
100
AcDbLine
 10
8974.728362967779
 20
4271.012746926749
 30
0.0
 11
8974.728362967779
 21
2481.01274692675
 31
0.0
  0
LINE
  5
18186
330
747D
100
AcDbEntity
  8
細線
 48
50.0
100
AcDbLine
 10
9114.728362967779
 20
4271.012746926749
 30
0.0
 11
9114.728362967779
 21
2481.01274692675
 31
0.0
  0
LINE
  5
18187
330
747D
100
AcDbEntity
  8
細線
 48
50.0
100
AcDbLine
 10
9129.72836296778
 20
4271.012746926749
 30
0.0
 11
9129.72836296778
 21
2481.01274692675
 31
0.0
  0
LINE
  5
18188
330
747D
100
AcDbEntity
  8
細線
 48
50.0
100
AcDbLine
 10
9269.728362967779
 20
4271.012746926749
 30
0.0
 11
9269.728362967779
 21
2481.01274692675
 31
0.0
  0
LINE
  5
18189
330
747D
100
AcDbEntity
  8
細線
 48
50.0
100
AcDbLine
 10
9254.72836296778
 20
4271.012746926749
 30
0.0
 11
9254.72836296778
 21
2481.01274692675
 31
0.0
  0
TEXT
  5
1818B
330
747D
100
AcDbEntity
  8
文字
 62
     7
 48
50.0
100
AcDbText
 10
14491.96323844892
 20
483.8967129911416
 30
0.0
 40
160.0
  1
ＮＸＮ－７０ＳＢ
  7
STYLE2
100
AcDbText
  0
TEXT
  5
1818C
330
747D
100
AcDbEntity
  8
文字
 62
     7
 48
50.0
100
AcDbText
 10
13209.4053442172
 20
228.543524256902
 30
0.0
 40
100.0
  1
○有効開口寸法 ： 1266×1725(mm)
  7
STYLE2
100
AcDbText
  0
DIMENSION
  5
1818D
330
747D
100
AcDbEntity
  8
寸法
100
AcDbDimension
  2
*D2
 10
12022.3984587302
 20
4451.012746926751
 30
0.0
 11
12022.3984587302
 21
3413.269074356438
 31
0.0
 70
   160
 71
     5
 42
2020.000000000002
  3
INABA_S40G
100
AcDbAlignedDimension
 13
11487.22836296777
 23
2431.01274692675
 33
0.0
 14
11567.22836296776
 24
4451.012746926751
 34
0.0
 50
90.0
100
AcDbRotatedDimension
1001
ACAD
1000
DSTYLE
1002
{
1070
   174
1070
     0
1070
   272
1070
     1
1070
   288
1070
     0
1070
   341
1005
0
1002
}
  0
LINE
  5
1818E
330
747D
100
AcDbEntity
  8
部品1
100
AcDbLine
 10
11459.22836296779
 20
7919.2863404697
 30
0.0
 11
11487.22836296778
 21
7919.2863404697
 31
0.0
  0
LINE
  5
1818F
330
747D
100
AcDbEntity
  8
部品1
100
AcDbLine
 10
8885.228362967763
 20
7919.286340469573
 30
0.0
 11
8857.228362967763
 21
7919.286340469573
 31
0.0
  0
LINE
  5
18190
330
747D
100
AcDbEntity
  8
部品1
100
AcDbLine
 10
11430.72836296777
 20
7919.286340469675
 30
0.0
 11
8913.728362967772
 21
7919.286340469573
 31
0.0
  0
ARC
  5
18666
330
747D
100
AcDbEntity
  8
部品1
100
AcDbCircle
 10
6817.722912524093
 20
4499.012746926752
 30
0.0
 40
7.0
100
AcDbArc
 50
356.7526572096623
 51
90.0
  0
ARC
  5
18667
330
747D
100
AcDbEntity
  8
部品1
100
AcDbCircle
 10
6804.507589063061
 20
4372.012746926754
 30
0.0
 40
7.0
100
AcDbArc
 50
270.0
 51
356.7526572096623
  0
ARC
  5
18668
330
747D
100
AcDbEntity
  8
部品1
 48
50.0
100
AcDbCircle
 10
6822.879399273741
 20
4478.679746088437
 30
0.0
 40
0.7
100
AcDbArc
 50
277.6581272073652
 51
356.7526572095583
  0
ARC
  5
18669
330
747D
100
AcDbEntity
  8
部品1
 48
50.0
100
AcDbCircle
 10
6814.643368748896
 20
4386.479746088435
 30
0.0
 40
0.7
100
AcDbArc
 50
277.6581272073652
 51
356.7526572096623
  0
ARC
  5
1866A
330
747D
100
AcDbEntity
  8
部品1
 48
50.0
100
AcDbCircle
 10
6815.136437857458
 20
4382.812746926749
 30
0.0
 40
3.0
100
AcDbArc
 50
97.65812720736519
 51
176.7526572096623
  0
ARC
  5
1866B
330
747D
100
AcDbEntity
  8
部品1
 48
50.0
100
AcDbCircle
 10
6823.372468382302
 20
4475.012746926753
 30
0.0
 40
3.0
100
AcDbArc
 50
97.65812720736519
 51
176.7526572096623
  0
LINE
  5
1866C
330
747D
100
AcDbEntity
  8
部品1
100
AcDbLine
 10
6820.377285486117
 20
4475.182686381855
 30
0.0
 11
6815.342244758001
 21
4386.44009354891
 31
0.0
  0
LINE
  5
1866D
330
747D
100
AcDbEntity
  8
部品1
100
AcDbLine
 10
6812.141254961272
 20
4382.982686381852
 30
0.0
 11
6811.496349154158
 21
4371.616221531513
 31
0.0
  0
LINE
  5
1866E
330
747D
100
AcDbEntity
  8
細線
 48
50.0
100
AcDbLine
 10
6792.131333630525
 20
4506.012746926752
 30
0.0
 11
6792.131333630525
 21
4365.012746926751
 31
0.0
  0
LINE
  5
1866F
330
747D
100
AcDbEntity
  8
部品1
100
AcDbLine
 10
6824.711672615194
 20
4498.616221531512
 30
0.0
 11
6823.578275282845
 21
4478.640093548913
 31
0.0
  0
DIMENSION
  5
18670
330
747D
100
AcDbEntity
  8
寸法
 48
50.0
100
AcDbDimension
  2
*D24
 10
6775.131333630532
 20
4910.633006354022
 30
0.0
 11
7138.616615004773
 21
4910.633006354022
 31
0.0
 70
   160
 71
     5
 42
50.0
  3
INABA_S40G
100
AcDbAlignedDimension
 13
6825.131333630531
 23
4506.012746926749
 33
0.0
 14
6775.131333630532
 24
4506.012746926752
 34
0.0
100
AcDbRotatedDimension
  0
ARC
  5
18671
330
747D
100
AcDbEntity
  8
部品1
 48
0.01
100
AcDbCircle
 10
4933.131333630528
 20
4303.512746926748
 30
0.0
 40
2.0
100
AcDbArc
 50
270.0
 51
0.0
  0
ARC
  5
18672
330
747D
100
AcDbEntity
  8
部品1
 48
0.01
100
AcDbCircle
 10
4933.131333630528
 20
4335.012746926748
 30
0.0
 40
2.0
100
AcDbArc
 50
0.0
 51
90.0
  0
ARC
  5
18673
330
747D
100
AcDbEntity
  8
部品1
 48
0.01
100
AcDbCircle
 10
4757.131333630528
 20
4303.512746926748
 30
0.0
 40
2.0
100
AcDbArc
 50
180.0
 51
270.0
  0
ARC
  5
18674
330
747D
100
AcDbEntity
  8
部品1
 48
0.01
100
AcDbCircle
 10
4757.131333630528
 20
4335.012746926748
 30
0.0
 40
2.0
100
AcDbArc
 50
90.0
 51
180.0
  0
LINE
  5
18675
330
747D
100
AcDbEntity
  8
細線
100
AcDbLine
 10
4845.131333630528
 20
4307.512746926748
 30
0.0
 11
4919.131333630528
 21
4307.512746926748
 31
0.0
  0
LINE
  5
18676
330
747D
100
AcDbEntity
  8
細線
100
AcDbLine
 10
4845.131333630528
 20
4330.512746926748
 30
0.0
 11
4771.131333630528
 21
4330.512746926748
 31
0.0
  0
LINE
  5
18677
330
747D
100
AcDbEntity
  8
細線
100
AcDbLine
 10
4771.131333630528
 20
4307.512746926748
 30
0.0
 11
4845.131333630528
 21
4307.512746926748
 31
0.0
  0
LINE
  5
18678
330
747D
100
AcDbEntity
  8
細線
100
AcDbLine
 10
4919.131333630528
 20
4330.512746926748
 30
0.0
 11
4845.131333630528
 21
4330.512746926748
 31
0.0
  0
LINE
  5
18679
330
747D
100
AcDbEntity
  8
細線
100
AcDbLine
 10
4919.131333630528
 20
4307.512746926748
 30
0.0
 11
4919.131333630528
 21
4330.512746926748
 31
0.0
  0
LINE
  5
1867A
330
747D
100
AcDbEntity
  8
細線
100
AcDbLine
 10
4771.131333630528
 20
4330.512746926748
 30
0.0
 11
4771.131333630528
 21
4307.512746926748
 31
0.0
  0
LINE
  5
1867B
330
747D
100
AcDbEntity
  8
部品1
 48
0.01
100
AcDbLine
 10
4935.131333630528
 20
4303.512746926748
 30
0.0
 11
4935.131333630528
 21
4335.012746926748
 31
0.0
  0
LINE
  5
1867C
330
747D
100
AcDbEntity
  8
部品1
 48
0.01
100
AcDbLine
 10
4757.131333630528
 20
4301.512746926748
 30
0.0
 11
4933.131333630528
 21
4301.512746926748
 31
0.0
  0
LINE
  5
1867D
330
747D
100
AcDbEntity
  8
部品1
 48
0.01
100
AcDbLine
 10
4755.131333630528
 20
4335.012746926748
 30
0.0
 11
4755.131333630528
 21
4303.512746926748
 31
0.0
  0
LINE
  5
1867E
330
747D
100
AcDbEntity
  8
部品1
 48
0.01
100
AcDbLine
 10
4933.131333630528
 20
4337.012746926748
 30
0.0
 11
4757.131333630528
 21
4337.012746926748
 31
0.0
  0
LINE
  5
1867F
330
747D
100
AcDbEntity
  8
細線
100
AcDbLine
 10
4771.131333630528
 20
4324.512746926748
 30
0.0
 11
4845.131333630528
 21
4324.512746926748
 31
0.0
  0
LINE
  5
18680
330
747D
100
AcDbEntity
  8
細線
100
AcDbLine
 10
4771.131333630528
 20
4318.512746926749
 30
0.0
 11
4845.131333630528
 21
4318.512746926749
 31
0.0
  0
LINE
  5
18681
330
747D
100
AcDbEntity
  8
細線
100
AcDbLine
 10
4771.131333630528
 20
4312.512746926748
 30
0.0
 11
4845.131333630528
 21
4312.512746926748
 31
0.0
  0
LINE
  5
18682
330
747D
100
AcDbEntity
  8
細線
100
AcDbLine
 10
4771.131333630528
 20
4324.512746926748
 30
0.0
 11
4840.131333630528
 21
4324.512746926748
 31
0.0
  0
LINE
  5
18683
330
747D
100
AcDbEntity
  8
細線
100
AcDbLine
 10
4919.131333630528
 20
4324.512746926746
 30
0.0
 11
4845.131333630528
 21
4324.512746926748
 31
0.0
  0
LINE
  5
18684
330
747D
100
AcDbEntity
  8
細線
100
AcDbLine
 10
4919.131333630528
 20
4312.512746926746
 30
0.0
 11
4845.131333630528
 21
4312.512746926748
 31
0.0
  0
LINE
  5
18685
330
747D
100
AcDbEntity
  8
細線
100
AcDbLine
 10
4919.131333630528
 20
4318.512746926749
 30
0.0
 11
4845.131333630528
 21
4318.512746926749
 31
0.0
  0
LINE
  5
18686
330
747D
100
AcDbEntity
  8
細線
100
AcDbLine
 10
4845.131333630528
 20
4330.512746926748
 30
0.0
 11
4845.131333630528
 21
4307.512746926748
 31
0.0
  0
LINE
  5
18687
330
747D
100
AcDbEntity
  8
部品1
 48
0.01
100
AcDbLine
 10
6165.131333630529
 20
4335.012746926748
 30
0.0
 11
6165.131333630529
 21
4303.512746926748
 31
0.0
  0
LINE
  5
18688
330
747D
100
AcDbEntity
  8
部品1
 48
0.01
100
AcDbLine
 10
6163.131333630528
 20
4301.512746926748
 30
0.0
 11
5987.131333630529
 21
4301.512746926748
 31
0.0
  0
LINE
  5
18689
330
747D
100
AcDbEntity
  8
部品1
 48
0.01
100
AcDbLine
 10
5985.131333630528
 20
4303.512746926748
 30
0.0
 11
5985.131333630528
 21
4335.012746926748
 31
0.0
  0
ARC
  5
1868A
330
747D
100
AcDbEntity
  8
部品1
 48
0.01
100
AcDbCircle
 10
6163.131333630528
 20
4303.512746926748
 30
0.0
 40
2.0
100
AcDbArc
 50
270.0
 51
0.0
  0
ARC
  5
1868B
330
747D
100
AcDbEntity
  8
部品1
 48
0.01
100
AcDbCircle
 10
5987.131333630529
 20
4303.512746926748
 30
0.0
 40
2.0
100
AcDbArc
 50
180.0
 51
270.0
  0
LINE
  5
1868C
330
747D
100
AcDbEntity
  8
細線
100
AcDbLine
 10
6075.131333630529
 20
4330.512746926748
 30
0.0
 11
6075.131333630529
 21
4307.512746926748
 31
0.0
  0
LINE
  5
1868D
330
747D
100
AcDbEntity
  8
細線
100
AcDbLine
 10
6001.131333630528
 20
4318.512746926749
 30
0.0
 11
6075.131333630529
 21
4318.512746926749
 31
0.0
  0
LINE
  5
1868E
330
747D
100
AcDbEntity
  8
細線
100
AcDbLine
 10
6001.131333630528
 20
4312.512746926746
 30
0.0
 11
6075.131333630529
 21
4312.512746926748
 31
0.0
  0
LINE
  5
1868F
330
747D
100
AcDbEntity
  8
細線
100
AcDbLine
 10
6001.131333630528
 20
4324.512746926746
 30
0.0
 11
6075.131333630529
 21
4324.512746926748
 31
0.0
  0
LINE
  5
18690
330
747D
100
AcDbEntity
  8
細線
100
AcDbLine
 10
6149.131333630528
 20
4324.512746926748
 30
0.0
 11
6080.131333630529
 21
4324.512746926748
 31
0.0
  0
LINE
  5
18691
330
747D
100
AcDbEntity
  8
細線
100
AcDbLine
 10
6149.131333630528
 20
4312.512746926748
 30
0.0
 11
6075.131333630529
 21
4312.512746926748
 31
0.0
  0
LINE
  5
18692
330
747D
100
AcDbEntity
  8
細線
100
AcDbLine
 10
6149.131333630528
 20
4318.512746926749
 30
0.0
 11
6075.131333630529
 21
4318.512746926749
 31
0.0
  0
LINE
  5
18693
330
747D
100
AcDbEntity
  8
細線
100
AcDbLine
 10
6149.131333630528
 20
4324.512746926748
 30
0.0
 11
6075.131333630529
 21
4324.512746926748
 31
0.0
  0
LINE
  5
18694
330
747D
100
AcDbEntity
  8
部品1
 48
0.01
100
AcDbLine
 10
5987.131333630529
 20
4337.012746926748
 30
0.0
 11
6163.131333630528
 21
4337.012746926748
 31
0.0
  0
LINE
  5
18695
330
747D
100
AcDbEntity
  8
細線
100
AcDbLine
 10
6149.131333630528
 20
4330.512746926748
 30
0.0
 11
6149.131333630528
 21
4307.512746926748
 31
0.0
  0
LINE
  5
18696
330
747D
100
AcDbEntity
  8
細線
100
AcDbLine
 10
6001.131333630528
 20
4307.512746926748
 30
0.0
 11
6001.131333630528
 21
4330.512746926748
 31
0.0
  0
LINE
  5
18697
330
747D
100
AcDbEntity
  8
細線
100
AcDbLine
 10
6001.131333630528
 20
4330.512746926748
 30
0.0
 11
6075.131333630529
 21
4330.512746926748
 31
0.0
  0
LINE
  5
18698
330
747D
100
AcDbEntity
  8
細線
100
AcDbLine
 10
6149.131333630528
 20
4307.512746926748
 30
0.0
 11
6075.131333630529
 21
4307.512746926748
 31
0.0
  0
LINE
  5
18699
330
747D
100
AcDbEntity
  8
細線
100
AcDbLine
 10
6075.131333630529
 20
4330.512746926748
 30
0.0
 11
6149.131333630528
 21
4330.512746926748
 31
0.0
  0
LINE
  5
1869A
330
747D
100
AcDbEntity
  8
細線
100
AcDbLine
 10
6075.131333630529
 20
4307.512746926748
 30
0.0
 11
6001.131333630528
 21
4307.512746926748
 31
0.0
  0
ARC
  5
1869B
330
747D
100
AcDbEntity
  8
部品1
 48
0.01
100
AcDbCircle
 10
6163.131333630528
 20
4335.012746926748
 30
0.0
 40
2.0
100
AcDbArc
 50
0.0
 51
90.0
  0
ARC
  5
1869C
330
747D
100
AcDbEntity
  8
部品1
 48
0.01
100
AcDbCircle
 10
5987.131333630529
 20
4335.012746926748
 30
0.0
 40
2.0
100
AcDbArc
 50
90.0
 51
180.0
  0
LINE
  5
1869D
330
747D
100
AcDbEntity
  8
部品1
100
AcDbLine
 10
4095.550994645859
 20
4498.616221531512
 30
0.0
 11
4096.684391978207
 21
4478.640093548913
 31
0.0
  0
LINE
  5
1869E
330
747D
100
AcDbEntity
  8
部品1
100
AcDbLine
 10
4108.121412299788
 20
4382.982686381852
 30
0.0
 11
4108.766318106897
 21
4371.616221531513
 31
0.0
  0
LINE
  5
1869F
330
747D
100
AcDbEntity
  8
部品1
100
AcDbLine
 10
4099.885381774937
 20
4475.182686381855
 30
0.0
 11
4104.920422503052
 21
4386.44009354891
 31
0.0
  0
ARC
  5
186A0
330
747D
100
AcDbEntity
  8
部品1
 48
50.0
100
AcDbCircle
 10
4096.890198878751
 20
4475.012746926753
 30
0.0
 40
3.0
100
AcDbArc
 50
3.247342790337682
 51
82.3418727926348
  0
ARC
  5
186A1
330
747D
100
AcDbEntity
  8
部品1
 48
50.0
100
AcDbCircle
 10
4105.126229403595
 20
4382.812746926749
 30
0.0
 40
3.0
100
AcDbArc
 50
3.247342790337682
 51
82.3418727926348
  0
ARC
  5
186A2
330
747D
100
AcDbEntity
  8
部品1
 48
50.0
100
AcDbCircle
 10
4105.619298512156
 20
4386.479746088435
 30
0.0
 40
0.7
100
AcDbArc
 50
183.2473427903377
 51
262.3418727926349
  0
ARC
  5
186A3
330
747D
100
AcDbEntity
  8
部品1
 48
50.0
100
AcDbCircle
 10
4097.38326798732
 20
4478.679746088437
 30
0.0
 40
0.7
100
AcDbArc
 50
183.2473427904417
 51
262.3418727926349
  0
ARC
  5
186A4
330
747D
100
AcDbEntity
  8
部品1
100
AcDbCircle
 10
4115.755078197991
 20
4372.012746926754
 30
0.0
 40
7.0
100
AcDbArc
 50
183.2473427903377
 51
270.0
  0
ARC
  5
186A5
330
747D
100
AcDbEntity
  8
部品1
100
AcDbCircle
 10
4102.539754736961
 20
4499.012746926752
 30
0.0
 40
7.0
100
AcDbArc
 50
90.0
 51
183.2473427903377
  0
LINE
  5
186A6
330
747D
100
AcDbEntity
  8
細線
 48
50.0
100
AcDbLine
 10
4128.131333630528
 20
4506.012746926752
 30
0.0
 11
4128.131333630528
 21
4365.012746926751
 31
0.0
  0
LINE
  5
186A7
330
747D
100
AcDbEntity
  8
細線
 48
50.0
100
AcDbLine
 10
6814.85576488424
 20
4385.812746926747
 30
0.0
 11
4105.406902376798
 21
4385.812746926752
 31
0.0
  0
LINE
  5
186A8
330
747D
100
AcDbEntity
  8
細線
 48
50.0
100
AcDbLine
 10
6823.091795409091
 20
4478.012746926752
 30
0.0
 11
4097.170871851969
 21
4478.01274692675
 31
0.0
  0
LINE
  5
186A9
330
747D
100
AcDbEntity
  8
部品1
 48
50.0
100
AcDbLine
 10
6804.507589063061
 20
4365.012746926754
 30
0.0
 11
4115.755078197991
 21
4365.012746926751
 31
0.0
  0
LINE
  5
186AA
330
747D
100
AcDbEntity
  8
部品1
 48
50.0
100
AcDbLine
 10
6817.722912524093
 20
4506.012746926752
 30
0.0
 11
4102.539754736961
 21
4506.012746926753
 31
0.0
  0
DIMENSION
  5
186AB
330
747D
100
AcDbEntity
  8
寸法
 48
50.0
100
AcDbDimension
  2
*D25
 10
4145.131333630528
 20
4910.633006354022
 30
0.0
 11
5460.131333630528
 21
4910.633006354022
 31
0.0
 70
   160
  1
柱外寸法<>
 71
     5
 42
2630.000000000004
  3
INABA_S40G
100
AcDbAlignedDimension
 13
6775.131333630532
 23
4506.012746926752
 33
0.0
 14
4145.131333630528
 24
4506.012746926753
 34
0.0
100
AcDbRotatedDimension
  0
DIMENSION
  5
186AC
330
747D
100
AcDbEntity
  8
寸法
 48
50.0
100
AcDbDimension
  2
*D26
 10
4095.131333630528
 20
4910.633006354022
 30
0.0
 11
3781.646052256281
 21
4910.633006354022
 31
0.0
 70
   160
 71
     5
 42
50.0
  3
INABA_S40G
100
AcDbAlignedDimension
 13
4145.131333630528
 23
4506.012746926753
 33
0.0
 14
4095.131333630528
 24
4506.012746926752
 34
0.0
100
AcDbRotatedDimension
1001
ACAD
1000
DSTYLE
1002
{
1002
}
  0
DIMENSION
  5
186AD
330
747D
100
AcDbEntity
  8
寸法
 48
50.0
100
AcDbDimension
  2
*D27
 10
6825.131333630531
 20
5120.226880775472
 30
0.0
 11
5460.131333630528
 21
5120.226880775472
 31
0.0
 70
   160
 71
     5
 42
2730.000000000004
  3
INABA_S40G
100
AcDbAlignedDimension
 13
4095.131333630528
 23
4506.012746926752
 33
0.0
 14
6825.131333630531
 24
4506.012746926749
 34
0.0
100
AcDbRotatedDimension
  0
LINE
  5
186AE
330
747D
100
AcDbEntity
  8
部品1
 48
50.0
100
AcDbLine
 10
4945.131333630528
 20
2431.012746926748
 30
0.0
 11
4945.131333630528
 21
2331.012746926748
 31
0.0
  0
LINE
  5
186AF
330
747D
100
AcDbEntity
  8
部品1
 48
50.0
100
AcDbLine
 10
5145.131333630528
 20
2431.012746926748
 30
0.0
 11
5145.131333630528
 21
2331.012746926748
 31
0.0
  0
LINE
  5
186B0
330
747D
100
AcDbEntity
  8
部品1
 48
50.0
100
AcDbLine
 10
5775.131333630529
 20
2431.012746926748
 30
0.0
 11
5775.131333630529
 21
2331.012746926748
 31
0.0
  0
LINE
  5
186B1
330
747D
100
AcDbEntity
  8
部品1
 48
50.0
100
AcDbLine
 10
5975.131333630528
 20
2431.012746926748
 30
0.0
 11
5975.131333630528
 21
2331.012746926748
 31
0.0
  0
LINE
  5
186B2
330
747D
100
AcDbEntity
  8
部品1
100
AcDbLine
 10
4192.631333630528
 20
2431.012746926748
 30
0.0
 11
6727.631333630532
 21
2431.012746926748
 31
0.0
  0
LINE
  5
186B3
330
747D
100
AcDbEntity
  8
部品1
100
AcDbLine
 10
6767.631333630532
 20
2431.012746926748
 30
0.0
 11
6775.131333630532
 21
2431.012746926748
 31
0.0
  0
LINE
  5
186B4
330
747D
100
AcDbEntity
  8
細線
 48
50.0
100
AcDbLine
 10
6222.631333630529
 20
4271.012746926752
 30
0.0
 11
6222.631333630529
 21
2481.012746926752
 31
0.0
  0
LINE
  5
186B5
330
747D
100
AcDbEntity
  8
細線
 48
50.0
100
AcDbLine
 10
6237.631333630528
 20
4271.012746926752
 30
0.0
 11
6237.631333630528
 21
2481.012746926752
 31
0.0
  0
LINE
  5
186B6
330
747D
100
AcDbEntity
  8
細線
 48
50.0
100
AcDbLine
 10
6097.631333630528
 20
4271.012746926752
 30
0.0
 11
6097.631333630528
 21
2481.012746926752
 31
0.0
  0
LINE
  5
186B7
330
747D
100
AcDbEntity
  8
細線
 48
50.0
100
AcDbLine
 10
6082.631333630528
 20
4271.012746926752
 30
0.0
 11
6082.631333630528
 21
2481.012746926752
 31
0.0
  0
LINE
  5
186B8
330
747D
100
AcDbEntity
  8
細線
 48
50.0
100
AcDbLine
 10
5942.631333630528
 20
4271.012746926752
 30
0.0
 11
5942.631333630528
 21
2481.012746926752
 31
0.0
  0
LINE
  5
186B9
330
747D
100
AcDbEntity
  8
細線
 48
50.0
100
AcDbLine
 10
5957.631333630528
 20
4271.012746926752
 30
0.0
 11
5957.631333630528
 21
2481.012746926752
 31
0.0
  0
LINE
  5
186BA
330
747D
100
AcDbEntity
  8
部品1
100
AcDbLine
 10
5880.131333630521
 20
4271.012746926752
 30
0.0
 11
5880.131333630521
 21
2481.012746926752
 31
0.0
  0
LINE
  5
186BB
330
747D
100
AcDbEntity
  8
細線
 48
50.0
100
AcDbLine
 10
5537.631333630528
 20
4271.012746926748
 30
0.0
 11
5537.631333630528
 21
2481.012746926748
 31
0.0
  0
LINE
  5
186BC
330
747D
100
AcDbEntity
  8
細線
 48
50.0
100
AcDbLine
 10
5522.631333630528
 20
4271.012746926748
 30
0.0
 11
5522.631333630528
 21
2481.012746926748
 31
0.0
  0
LINE
  5
186BD
330
747D
100
AcDbEntity
  8
細線
 48
50.0
100
AcDbLine
 10
5662.631333630528
 20
4271.012746926748
 30
0.0
 11
5662.631333630528
 21
2481.012746926748
 31
0.0
  0
LINE
  5
186BE
330
747D
100
AcDbEntity
  8
細線
 48
50.0
100
AcDbLine
 10
5677.631333630529
 20
4271.012746926748
 30
0.0
 11
5677.631333630529
 21
2481.012746926748
 31
0.0
  0
LINE
  5
186BF
330
747D
100
AcDbEntity
  8
細線
 48
50.0
100
AcDbLine
 10
5817.631333630528
 20
4271.012746926748
 30
0.0
 11
5817.631333630528
 21
2481.012746926748
 31
0.0
  0
LINE
  5
186C0
330
747D
100
AcDbEntity
  8
細線
 48
50.0
100
AcDbLine
 10
5802.631333630529
 20
4271.012746926748
 30
0.0
 11
5802.631333630529
 21
2481.012746926748
 31
0.0
  0
LINE
  5
186C1
330
747D
100
AcDbEntity
  8
部品1
100
AcDbLine
 10
6300.131333630528
 20
4271.012746926749
 30
0.0
 11
6300.131333630528
 21
2481.01274692675
 31
0.0
  0
LINE
  5
186C2
330
747D
100
AcDbEntity
  8
部品1
100
AcDbLine
 10
4145.131333630528
 20
4271.012746926748
 30
0.0
 11
6775.131333630532
 21
4271.012746926748
 31
0.0
  0
LINE
  5
186C3
330
747D
100
AcDbEntity
  8
部品1
100
AcDbLine
 10
4145.131333630528
 20
2481.012746926748
 30
0.0
 11
6775.131333630532
 21
2481.01274692675
 31
0.0
  0
LINE
  5
186C4
330
747D
100
AcDbEntity
  8
部品1
100
AcDbLine
 10
4200.131333630529
 20
4271.012746926748
 30
0.0
 11
4200.131333630529
 21
2481.012746926748
 31
0.0
  0
LINE
  5
186C5
330
747D
100
AcDbEntity
  8
部品1
100
AcDbLine
 10
4145.131333630528
 20
4365.012746926751
 30
0.0
 11
4145.131333630528
 21
2331.012746926748
 31
0.0
  0
LINE
  5
186C6
330
747D
100
AcDbEntity
  8
部品1
100
AcDbLine
 10
4620.131333630528
 20
4271.012746926748
 30
0.0
 11
4620.131333630528
 21
2481.012746926748
 31
0.0
  0
LINE
  5
186C7
330
747D
100
AcDbEntity
  8
部品1
100
AcDbLine
 10
6775.131333630524
 20
4365.012746926754
 30
0.0
 11
6775.131333630532
 21
2331.01274692675
 31
0.0
  0
LINE
  5
186C8
330
747D
100
AcDbEntity
  8
部品1
100
AcDbLine
 10
6720.131333630532
 20
4271.012746926749
 30
0.0
 11
6720.131333630532
 21
2481.01274692675
 31
0.0
  0
LINE
  5
186C9
330
747D
100
AcDbEntity
  8
部品1
100
AcDbLine
 10
4145.131333630528
 20
2431.012746926748
 30
0.0
 11
4152.631333630528
 21
2431.012746926748
 31
0.0
  0
LINE
  5
186CA
330
747D
100
AcDbEntity
  8
細線
 48
50.0
100
AcDbLine
 10
4697.631333630527
 20
4271.012746926748
 30
0.0
 11
4697.631333630527
 21
2481.012746926748
 31
0.0
  0
LINE
  5
186CB
330
747D
100
AcDbEntity
  8
細線
 48
50.0
100
AcDbLine
 10
4682.631333630528
 20
4271.012746926748
 30
0.0
 11
4682.631333630528
 21
2481.012746926748
 31
0.0
  0
LINE
  5
186CC
330
747D
100
AcDbEntity
  8
細線
 48
50.0
100
AcDbLine
 10
4822.631333630528
 20
4271.012746926748
 30
0.0
 11
4822.631333630528
 21
2481.012746926748
 31
0.0
  0
LINE
  5
186CD
330
747D
100
AcDbEntity
  8
細線
 48
50.0
100
AcDbLine
 10
4837.631333630529
 20
4271.012746926748
 30
0.0
 11
4837.631333630529
 21
2481.012746926748
 31
0.0
  0
LINE
  5
186CE
330
747D
100
AcDbEntity
  8
細線
 48
50.0
100
AcDbLine
 10
4977.631333630529
 20
4271.012746926748
 30
0.0
 11
4977.631333630529
 21
2481.012746926748
 31
0.0
  0
LINE
  5
186CF
330
747D
100
AcDbEntity
  8
細線
 48
50.0
100
AcDbLine
 10
4962.631333630529
 20
4271.012746926748
 30
0.0
 11
4962.631333630529
 21
2481.012746926748
 31
0.0
  0
LINE
  5
186D0
330
747D
100
AcDbEntity
  8
細線
 48
50.0
100
AcDbLine
 10
4542.631333630528
 20
4271.012746926748
 30
0.0
 11
4542.631333630528
 21
2481.012746926748
 31
0.0
  0
LINE
  5
186D1
330
747D
100
AcDbEntity
  8
細線
 48
50.0
100
AcDbLine
 10
4557.631333630528
 20
4271.012746926748
 30
0.0
 11
4557.631333630528
 21
2481.012746926748
 31
0.0
  0
LINE
  5
186D2
330
747D
100
AcDbEntity
  8
細線
 48
50.0
100
AcDbLine
 10
4417.631333630528
 20
4271.012746926748
 30
0.0
 11
4417.631333630528
 21
2481.012746926748
 31
0.0
  0
LINE
  5
186D3
330
747D
100
AcDbEntity
  8
細線
 48
50.0
100
AcDbLine
 10
4402.631333630528
 20
4271.012746926748
 30
0.0
 11
4402.631333630528
 21
2481.012746926748
 31
0.0
  0
LINE
  5
186D4
330
747D
100
AcDbEntity
  8
細線
 48
50.0
100
AcDbLine
 10
4262.631333630529
 20
4271.012746926748
 30
0.0
 11
4262.631333630529
 21
2481.012746926748
 31
0.0
  0
LINE
  5
186D5
330
747D
100
AcDbEntity
  8
細線
 48
50.0
100
AcDbLine
 10
4277.631333630528
 20
4271.012746926748
 30
0.0
 11
4277.631333630528
 21
2481.012746926748
 31
0.0
  0
LINE
  5
186D6
330
747D
100
AcDbEntity
  8
部品1
100
AcDbLine
 10
5040.131333630529
 20
4271.012746926748
 30
0.0
 11
5040.131333630529
 21
2481.012746926748
 31
0.0
  0
LINE
  5
186D7
330
747D
100
AcDbEntity
  8
細線
 48
50.0
100
AcDbLine
 10
5382.631333630528
 20
4271.012746926748
 30
0.0
 11
5382.631333630528
 21
2481.012746926748
 31
0.0
  0
LINE
  5
186D8
330
747D
100
AcDbEntity
  8
細線
 48
50.0
100
AcDbLine
 10
5397.631333630528
 20
4271.012746926748
 30
0.0
 11
5397.631333630528
 21
2481.012746926748
 31
0.0
  0
LINE
  5
186D9
330
747D
100
AcDbEntity
  8
細線
 48
50.0
100
AcDbLine
 10
5257.631333630528
 20
4271.012746926748
 30
0.0
 11
5257.631333630528
 21
2481.012746926748
 31
0.0
  0
LINE
  5
186DA
330
747D
100
AcDbEntity
  8
細線
 48
50.0
100
AcDbLine
 10
5242.631333630528
 20
4271.012746926748
 30
0.0
 11
5242.631333630528
 21
2481.012746926748
 31
0.0
  0
LINE
  5
186DB
330
747D
100
AcDbEntity
  8
細線
 48
50.0
100
AcDbLine
 10
5102.631333630529
 20
4271.012746926748
 30
0.0
 11
5102.631333630529
 21
2481.012746926748
 31
0.0
  0
LINE
  5
186DC
330
747D
100
AcDbEntity
  8
細線
 48
50.0
100
AcDbLine
 10
5117.631333630528
 20
4271.012746926748
 30
0.0
 11
5117.631333630528
 21
2481.012746926748
 31
0.0
  0
LINE
  5
186DD
330
747D
100
AcDbEntity
  8
部品1
100
AcDbLine
 10
5460.131333630528
 20
4271.012746926748
 30
0.0
 11
5460.131333630528
 21
2481.012746926748
 31
0.0
  0
LINE
  5
186DE
330
747D
100
AcDbEntity
  8
細線
 48
50.0
100
AcDbLine
 10
6377.631333630535
 20
4271.012746926749
 30
0.0
 11
6377.631333630535
 21
2481.01274692675
 31
0.0
  0
LINE
  5
186DF
330
747D
100
AcDbEntity
  8
細線
 48
50.0
100
AcDbLine
 10
6362.631333630536
 20
4271.012746926749
 30
0.0
 11
6362.631333630536
 21
2481.01274692675
 31
0.0
  0
LINE
  5
186E0
330
747D
100
AcDbEntity
  8
細線
 48
50.0
100
AcDbLine
 10
6502.631333630536
 20
4271.012746926749
 30
0.0
 11
6502.631333630536
 21
2481.01274692675
 31
0.0
  0
LINE
  5
186E1
330
747D
100
AcDbEntity
  8
細線
 48
50.0
100
AcDbLine
 10
6517.631333630536
 20
4271.012746926749
 30
0.0
 11
6517.631333630536
 21
2481.01274692675
 31
0.0
  0
LINE
  5
186E2
330
747D
100
AcDbEntity
  8
細線
 48
50.0
100
AcDbLine
 10
6657.631333630536
 20
4271.012746926749
 30
0.0
 11
6657.631333630536
 21
2481.01274692675
 31
0.0
  0
LINE
  5
186E3
330
747D
100
AcDbEntity
  8
細線
 48
50.0
100
AcDbLine
 10
6642.631333630536
 20
4271.012746926749
 30
0.0
 11
6642.631333630536
 21
2481.01274692675
 31
0.0
  0
LINE
  5
186E4
330
747D
100
AcDbEntity
  8
部品1
100
AcDbLine
 10
4345.131333630528
 20
2431.012746926748
 30
0.0
 11
4345.131333630528
 21
2331.012746926748
 31
0.0
  0
LINE
  5
186E5
330
747D
100
AcDbEntity
  8
部品1
100
AcDbLine
 10
6575.131333630529
 20
2431.012746926748
 30
0.0
 11
6575.131333630529
 21
2331.012746926748
 31
0.0
  0
LINE
  5
186E6
330
747D
100
AcDbEntity
  8
部品1
 48
50.0
100
AcDbLine
 10
6852.131333630532
 20
2431.012746926748
 30
0.0
 11
6767.631333630532
 21
2431.012746926748
 31
0.0
  0
LINE
  5
186E7
330
747D
100
AcDbEntity
  8
部品1
 48
50.0
100
AcDbLine
 10
6852.131333630532
 20
4256.012746926749
 30
0.0
 11
6852.131333630532
 21
2331.012746926748
 31
0.0
  0
LINE
  5
186E8
330
747D
100
AcDbEntity
  8
部品1
 48
50.0
100
AcDbLine
 10
6775.131333630532
 20
4266.012746926747
 30
0.0
 11
6852.131333630532
 21
4256.012746926749
 31
0.0
  0
LINE
  5
186E9
330
747D
100
AcDbEntity
  8
破線
 48
5.0
100
AcDbLine
 10
6647.631333630535
 20
2331.012746926748
 30
0.0
 11
6647.631333630535
 21
2131.012746926748
 31
0.0
  0
LINE
  5
186EA
330
747D
100
AcDbEntity
  8
破線
 48
5.0
100
AcDbLine
 10
6847.631333630532
 20
2131.012746926745
 30
0.0
 11
6647.631333630535
 21
2131.012746926748
 31
0.0
  0
LINE
  5
186EB
330
747D
100
AcDbEntity
  8
破線
 48
5.0
100
AcDbLine
 10
6847.631333630539
 20
2331.012746926748
 30
0.0
 11
6847.631333630532
 21
2131.012746926745
 31
0.0
  0
DIMENSION
  5
186EC
330
747D
100
AcDbEntity
  8
寸法
 48
50.0
100
AcDbDimension
  2
*D28
 10
4072.631333630527
 20
1844.96541762637
 30
0.0
 11
4172.631333630528
 21
1844.96541762637
 31
0.0
 70
   160
 71
     5
 42
200.0
  3
INABA_S40G
100
AcDbAlignedDimension
 13
4272.631333630528
 23
2131.012746926745
 33
0.0
 14
4072.631333630527
 24
2131.012746926748
 34
0.0
100
AcDbRotatedDimension
  0
LINE
  5
186ED
330
747D
100
AcDbEntity
  8
破線
 48
5.0
100
AcDbLine
 10
4072.631333630527
 20
2331.012746926748
 30
0.0
 11
4072.631333630527
 21
2131.012746926745
 31
0.0
  0
LINE
  5
186EE
330
747D
100
AcDbEntity
  8
破線
 48
5.0
100
AcDbLine
 10
4272.631333630528
 20
2331.012746926748
 30
0.0
 11
4272.631333630528
 21
2131.012746926745
 31
0.0
  0
LINE
  5
186EF
330
747D
100
AcDbEntity
  8
破線
 48
5.0
100
AcDbLine
 10
4272.631333630528
 20
2131.012746926745
 30
0.0
 11
4072.631333630527
 21
2131.012746926745
 31
0.0
  0
DIMENSION
  5
186F0
330
747D
100
AcDbEntity
  8
寸法
 48
50.0
100
AcDbDimension
  2
*D29
 10
3923.131330383895
 20
2331.012746926748
 30
0.0
 11
3923.131330383895
 21
2231.012746926749
 31
0.0
 70
   160
 71
     5
 42
200.0
  3
INABA_S40G
100
AcDbAlignedDimension
 13
4072.631333630527
 23
2131.012746926748
 33
0.0
 14
4047.631333630528
 24
2331.012746926748
 34
0.0
 50
90.0
100
AcDbRotatedDimension
1001
ACAD
1000
DSTYLE
1002
{
1070
   174
1070
     0
1070
   272
1070
     1
1070
   288
1070
     0
1070
   341
1005
0
1002
}
  0
LINE
  5
186F1
330
747D
100
AcDbEntity
  8
部品1
100
AcDbLine
 10
6767.631333630532
 20
2431.012746926748
 30
0.0
 11
6775.131333630532
 21
2431.012746926748
 31
0.0
  0
LINE
  5
186F2
330
747D
100
AcDbEntity
  8
破線
  6
HIDDEN
 48
5.0
100
AcDbLine
 10
4192.631333630528
 20
2331.012746926748
 30
0.0
 11
4192.631333630528
 21
2326.012746926748
 31
0.0
  0
LINE
  5
186F3
330
747D
100
AcDbEntity
  8
破線
  6
HIDDEN
 48
5.0
100
AcDbLine
 10
4152.631333630536
 20
2331.012746926748
 30
0.0
 11
4152.631333630536
 21
2326.012746926748
 31
0.0
  0
LINE
  5
186F4
330
747D
100
AcDbEntity
  8
破線
  6
HIDDEN
 48
5.0
100
AcDbLine
 10
6767.631333630532
 20
2331.012746926748
 30
0.0
 11
6767.631333630532
 21
2326.012746926748
 31
0.0
  0
LINE
  5
186F5
330
747D
100
AcDbEntity
  8
破線
  6
HIDDEN
 48
5.0
100
AcDbLine
 10
6727.631333630532
 20
2331.012746926748
 30
0.0
 11
6727.631333630532
 21
2326.012746926748
 31
0.0
  0
ARC
  5
186F6
330
747D
100
AcDbEntity
  8
部品1
 48
50.0
100
AcDbCircle
 10
6762.631333630531
 20
2471.012746926748
 30
0.0
 40
5.0
100
AcDbArc
 50
0.0
 51
90.0
  0
ARC
  5
186F7
330
747D
100
AcDbEntity
  8
部品1
 48
50.0
100
AcDbCircle
 10
6732.631333630532
 20
2471.012746926748
 30
0.0
 40
5.0
100
AcDbArc
 50
90.0
 51
180.0
  0
LINE
  5
186F8
330
747D
100
AcDbEntity
  8
部品1
100
AcDbLine
 10
6762.631333630531
 20
2476.012746926748
 30
0.0
 11
6732.631333630532
 21
2476.012746926748
 31
0.0
  0
LINE
  5
186F9
330
747D
100
AcDbEntity
  8
部品1
 48
50.0
100
AcDbLine
 10
6767.631333630532
 20
2471.012746926748
 30
0.0
 11
6767.631333630532
 21
2331.012746926748
 31
0.0
  0
LINE
  5
186FA
330
747D
100
AcDbEntity
  8
部品1
 48
50.0
100
AcDbLine
 10
6727.631333630532
 20
2471.012746926748
 30
0.0
 11
6727.631333630532
 21
2331.012746926748
 31
0.0
  0
ARC
  5
186FB
330
747D
100
AcDbEntity
  8
部品1
 48
50.0
100
AcDbCircle
 10
4187.631333630529
 20
2471.012746926748
 30
0.0
 40
5.0
100
AcDbArc
 50
0.0
 51
90.0
  0
ARC
  5
186FC
330
747D
100
AcDbEntity
  8
部品1
 48
50.0
100
AcDbCircle
 10
4157.631333630528
 20
2471.012746926748
 30
0.0
 40
5.0
100
AcDbArc
 50
90.0
 51
180.0
  0
LINE
  5
186FD
330
747D
100
AcDbEntity
  8
部品1
100
AcDbLine
 10
4157.631333630528
 20
2476.012746926748
 30
0.0
 11
4187.631333630529
 21
2476.012746926748
 31
0.0
  0
LINE
  5
186FE
330
747D
100
AcDbEntity
  8
部品1
 48
50.0
100
AcDbLine
 10
4192.631333630528
 20
2471.012746926748
 30
0.0
 11
4192.631333630528
 21
2331.012746926748
 31
0.0
  0
LINE
  5
186FF
330
747D
100
AcDbEntity
  8
部品1
 48
50.0
100
AcDbLine
 10
4152.631333630528
 20
2471.012746926748
 30
0.0
 11
4152.631333630528
 21
2331.012746926748
 31
0.0
  0
LINE
  5
18700
330
747D
100
AcDbEntity
  8
破線
  6
HIDDEN
 48
5.0
100
AcDbLine
 10
4192.631333630528
 20
2326.012746926748
 30
0.0
 11
4207.631333630528
 21
2178.312746926748
 31
0.0
  0
LINE
  5
18701
330
747D
100
AcDbEntity
  8
破線
  6
HIDDEN
 48
5.0
100
AcDbLine
 10
4152.631333630528
 20
2326.012746926748
 30
0.0
 11
4137.631333630529
 21
2178.312746926748
 31
0.0
  0
LINE
  5
18702
330
747D
100
AcDbEntity
  8
破線
  6
HIDDEN
 48
5.0
100
AcDbLine
 10
4207.631333630528
 20
2178.312746926748
 30
0.0
 11
4207.631333630528
 21
2176.012746926748
 31
0.0
  0
LINE
  5
18703
330
747D
100
AcDbEntity
  8
破線
  6
HIDDEN
 48
5.0
100
AcDbLine
 10
4137.631333630529
 20
2178.312746926748
 30
0.0
 11
4137.631333630529
 21
2176.012746926748
 31
0.0
  0
LINE
  5
18704
330
747D
100
AcDbEntity
  8
破線
  6
HIDDEN
 48
5.0
100
AcDbLine
 10
4137.631333630529
 20
2176.012746926748
 30
0.0
 11
4207.631333630528
 21
2176.012746926748
 31
0.0
  0
LINE
  5
18705
330
747D
100
AcDbEntity
  8
破線
  6
HIDDEN
 48
5.0
100
AcDbLine
 10
6782.631333630532
 20
2178.312746926748
 30
0.0
 11
6782.631333630532
 21
2176.012746926748
 31
0.0
  0
LINE
  5
18706
330
747D
100
AcDbEntity
  8
破線
  6
HIDDEN
 48
5.0
100
AcDbLine
 10
6767.631333630532
 20
2326.012746926748
 30
0.0
 11
6782.631333630532
 21
2178.312746926748
 31
0.0
  0
LINE
  5
18707
330
747D
100
AcDbEntity
  8
破線
  6
HIDDEN
 48
5.0
100
AcDbLine
 10
6712.631333630532
 20
2178.312746926748
 30
0.0
 11
6712.631333630532
 21
2176.012746926748
 31
0.0
  0
LINE
  5
18708
330
747D
100
AcDbEntity
  8
破線
  6
HIDDEN
 48
5.0
100
AcDbLine
 10
6727.631333630532
 20
2326.012746926748
 30
0.0
 11
6712.631333630532
 21
2178.312746926748
 31
0.0
  0
LINE
  5
18709
330
747D
100
AcDbEntity
  8
破線
  6
HIDDEN
 48
5.0
100
AcDbLine
 10
6782.631333630532
 20
2176.012746926748
 30
0.0
 11
6712.631333630532
 21
2176.012746926748
 31
0.0
  0
LINE
  5
1870A
330
747D
100
AcDbEntity
  8
部品1
100
AcDbLine
 10
4145.131333630528
 20
2431.012746926748
 30
0.0
 11
4152.631333630528
 21
2431.012746926748
 31
0.0
  0
LINE
  5
1870B
330
747D
100
AcDbEntity
  8
部品1
100
AcDbLine
 10
4145.131333630528
 20
2431.012746926748
 30
0.0
 11
4152.631333630528
 21
2431.012746926748
 31
0.0
  0
LINE
  5
1870C
330
747D
100
AcDbEntity
  8
部品1
100
AcDbLine
 10
6767.631333630532
 20
2431.012746926748
 30
0.0
 11
6775.131333630532
 21
2431.012746926748
 31
0.0
  0
LINE
  5
1870D
330
747D
100
AcDbEntity
  8
部品1
100
AcDbLine
 10
5851.866666744751
 20
1676.186143482268
 30
0.0
 11
5088.396000516306
 21
1676.186143482268
 31
0.0
  0
LINE
  5
1870E
330
747D
100
AcDbEntity
  8
部品1
100
AcDbLine
 10
5851.866666744751
 20
1436.293821936735
 30
0.0
 11
5851.866666744751
 21
1676.186143482268
 31
0.0
  0
LINE
  5
1870F
330
747D
100
AcDbEntity
  8
部品1
100
AcDbLine
 10
5088.396000516306
 20
1436.293821936735
 30
0.0
 11
5851.866666744751
 21
1436.293821936735
 31
0.0
  0
LINE
  5
18710
330
747D
100
AcDbEntity
  8
部品1
100
AcDbLine
 10
5088.396000516306
 20
1676.186143482268
 30
0.0
 11
5088.396000516306
 21
1436.293821936735
 31
0.0
  0
TEXT
  5
18711
330
747D
100
AcDbEntity
  8
部品1
100
AcDbText
 10
5177.842101939914
 20
1483.292614263742
 30
0.0
 40
135.0
  1
側面図
  7
STYLE2
100
AcDbText
  0
TEXT
  5
18712
330
747D
100
AcDbEntity
  8
部品1
100
AcDbText
 10
3089.227217545569
 20
2367.11965053265
 30
0.0
 40
125.0
  1
▽G.L
  7
STYLE2
100
AcDbText
  0
LINE
  5
18B22
330
747D
100
AcDbEntity
  8
補助
  6
PHANTOM
 62
   230
 48
50.0
100
AcDbLine
 10
140.0
 20
0.0
 30
0.0
 11
139.9999999999995
 21
11409.6
 31
0.0
  0
LINE
  5
18B7A
330
747D
100
AcDbEntity
  8
部品1
100
AcDbLine
 10
11459.22836296779
 20
8759.286340469699
 30
0.0
 11
11487.22836296778
 21
8759.286340469699
 31
0.0
  0
LINE
  5
18B7B
330
747D
100
AcDbEntity
  8
部品1
100
AcDbLine
 10
8885.228362967763
 20
8759.286340469573
 30
0.0
 11
8857.228362967763
 21
8759.286340469573
 31
0.0
  0
LINE
  5
18B7C
330
747D
100
AcDbEntity
  8
部品1
100
AcDbLine
 10
11430.72836296777
 20
8759.286340469675
 30
0.0
 11
8913.728362967772
 21
8759.286340469573
 31
0.0
  0
LINE
  5
18DB2
330
747D
100
AcDbEntity
  8
寸法
 48
50.0
100
AcDbLine
 10
9767.431369249599
 20
7222.323092038421
 30
0.0
 11
9716.025361339497
 21
7222.323092038421
 31
0.0
  0
LINE
  5
18DB3
330
747D
100
AcDbEntity
  8
寸法
 48
50.0
100
AcDbLine
 10
9716.025361339497
 20
7222.323092038421
 30
0.0
 11
9716.025361339497
 21
7253.633250690588
 31
0.0
  0
LINE
  5
18DB4
330
747D
100
AcDbEntity
  8
寸法
 48
50.0
100
AcDbLine
 10
9716.025361339497
 20
7253.633250690588
 30
0.0
 11
9686.264029348073
 21
7253.633250690588
 31
0.0
  0
LINE
  5
18DB5
330
747D
100
AcDbEntity
  8
寸法
 48
50.0
100
AcDbLine
 10
9686.264029348073
 20
7253.633250690588
 30
0.0
 11
9741.728365294548
 21
7291.212701619198
 31
0.0
  0
LINE
  5
18DB6
330
747D
100
AcDbEntity
  8
寸法
 48
50.0
100
AcDbLine
 10
9797.192701241023
 20
7253.633250690588
 30
0.0
 11
9741.728365294548
 21
7291.212701619198
 31
0.0
  0
LINE
  5
18DB7
330
747D
100
AcDbEntity
  8
寸法
 48
50.0
100
AcDbLine
 10
9767.431369249599
 20
7253.633250690588
 30
0.0
 11
9797.192701241023
 21
7253.633250690588
 31
0.0
  0
LINE
  5
18DB8
330
747D
100
AcDbEntity
  8
寸法
 48
50.0
100
AcDbLine
 10
9767.431369249599
 20
7222.323092038421
 30
0.0
 11
9767.431369249599
 21
7253.633250690588
 31
0.0
  0
LINE
  5
18DB9
330
747D
100
AcDbEntity
  8
寸法
 48
50.0
100
AcDbLine
 10
9716.025361339497
 20
7222.323092038421
 30
0.0
 11
9767.431369249599
 21
7222.323092038421
 31
0.0
  0
LINE
  5
18DBA
330
747D
100
AcDbEntity
  8
寸法
 48
50.0
100
AcDbLine
 10
10046.59690352645
 20
7279.468682793243
 30
0.0
 11
10046.59690352645
 21
7225.805048211454
 31
0.0
  0
LINE
  5
18DBB
330
747D
100
AcDbEntity
  8
寸法
 48
50.0
100
AcDbLine
 10
10135.88112212188
 20
7255.545048523758
 30
0.0
 11
10046.59690352645
 21
7279.468682793243
 31
0.0
  0
LINE
  5
18DBC
330
747D
100
AcDbEntity
  8
寸法
 48
50.0
100
AcDbLine
 10
9916.729181946154
 20
7255.545048523758
 30
0.0
 11
10135.88112212188
 21
7255.545048523758
 31
0.0
  0
LINE
  5
18DBD
330
747D
100
AcDbEntity
  8
細線
 48
50.0
100
AcDbLine
 10
10793.22836296776
 20
7420.786455418284
 30
0.0
 11
11420.22836296775
 21
7420.786455418284
 31
0.0
  0
LINE
  5
18DBE
330
747D
100
AcDbEntity
  8
細線
 48
50.0
100
AcDbLine
 10
10139.22836762134
 20
7387.077686864208
 30
0.0
 11
11420.22836296775
 21
7387.077686864208
 31
0.0
  0
LINE
  5
18DBF
330
747D
100
AcDbEntity
  8
細線
 48
50.0
100
AcDbLine
 10
10098.22836762135
 20
7416.482594860461
 30
0.0
 11
9344.228362967754
 21
7416.482594860458
 31
0.0
  0
LINE
  5
18DC0
330
747D
100
AcDbEntity
  8
細線
100
AcDbLine
 10
11195.9783535513
 20
7440.286355383292
 30
0.0
 11
11198.3098930731
 21
7445.286358023253
 31
0.0
  0
LINE
  5
18DC1
330
747D
100
AcDbEntity
  8
細線
100
AcDbLine
 10
11265.97836296775
 20
7440.286340469558
 30
0.0
 11
11263.64681649157
 21
7445.286358023238
 31
0.0
  0
LINE
  5
18DC2
330
747D
100
AcDbEntity
  8
細線
100
AcDbLine
 10
11263.64681649157
 20
7445.286358023238
 30
0.0
 11
11198.30989307309
 21
7445.286358023224
 31
0.0
  0
LINE
  5
18DC3
330
747D
100
AcDbEntity
  8
細線
100
AcDbLine
 10
11123.64681649157
 20
7445.286358023238
 30
0.0
 11
11058.30989307309
 21
7445.286358023224
 31
0.0
  0
LINE
  5
18DC4
330
747D
100
AcDbEntity
  8
細線
100
AcDbLine
 10
11125.97836296775
 20
7440.286340469558
 30
0.0
 11
11123.64681649157
 21
7445.286358023238
 31
0.0
  0
LINE
  5
18DC5
330
747D
100
AcDbEntity
  8
細線
100
AcDbLine
 10
11055.9783535513
 20
7440.286355383292
 30
0.0
 11
11058.3098930731
 21
7445.286358023253
 31
0.0
  0
LINE
  5
18DC6
330
747D
100
AcDbEntity
  8
細線
100
AcDbLine
 10
10915.97836296775
 20
7440.286340469558
 30
0.0
 11
10918.30990248956
 21
7445.286343109519
 31
0.0
  0
LINE
  5
18DC7
330
747D
100
AcDbEntity
  8
細線
100
AcDbLine
 10
10985.97837238421
 20
7440.286325555824
 30
0.0
 11
10983.64682590802
 21
7445.286343109505
 31
0.0
  0
LINE
  5
18DC8
330
747D
100
AcDbEntity
  8
細線
100
AcDbLine
 10
10983.64682590803
 20
7445.286343109505
 30
0.0
 11
10918.30990248955
 21
7445.28634310949
 31
0.0
  0
LINE
  5
18DC9
330
747D
100
AcDbEntity
  8
細線
100
AcDbLine
 10
10688.39684715686
 20
7411.286379806887
 30
0.0
 11
10623.05992373838
 21
7411.286379806871
 31
0.0
  0
LINE
  5
18DCA
330
747D
100
AcDbEntity
  8
細線
100
AcDbLine
 10
10690.72839363305
 20
7406.286362253206
 30
0.0
 11
10688.39684715686
 21
7411.286379806887
 31
0.0
  0
LINE
  5
18DCB
330
747D
100
AcDbEntity
  8
細線
100
AcDbLine
 10
10620.72838421659
 20
7406.28637716694
 30
0.0
 11
10623.0599237384
 21
7411.286379806901
 31
0.0
  0
LINE
  5
18DCC
330
747D
100
AcDbEntity
  8
細線
 48
50.0
100
AcDbLine
 10
10462.11174221577
 20
7424.557203622639
 30
0.0
 11
10467.86725979844
 21
7406.286352332152
 31
0.0
  0
LINE
  5
18DCD
330
747D
100
AcDbEntity
  8
細線
 48
50.0
100
AcDbLine
 10
10451.18329373534
 20
7424.557203622639
 30
0.0
 11
10462.11174221577
 21
7424.557203622639
 31
0.0
  0
ARC
  5
18DCE
330
747D
100
AcDbEntity
  8
細線
 48
50.0
100
AcDbCircle
 10
10445.72893767802
 20
7426.057203622639
 30
0.0
 40
5.0
100
AcDbArc
 50
204.6243183521304
 51
335.3756816478695
  0
ARC
  5
18DCF
330
747D
100
AcDbEntity
  8
細線
 48
50.0
100
AcDbCircle
 10
10451.18329373534
 20
7423.557203622639
 30
0.0
 40
1.0
100
AcDbArc
 50
90.0
 51
155.3756816478695
  0
ARC
  5
18DD0
330
747D
100
AcDbEntity
  8
細線
 48
50.0
100
AcDbCircle
 10
10440.2745816207
 20
7423.557203622639
 30
0.0
 40
1.0
100
AcDbArc
 50
24.62431835213048
 51
90.0
  0
LINE
  5
18DD1
330
747D
100
AcDbEntity
  8
細線
 48
50.0
100
AcDbLine
 10
10429.34613314027
 20
7424.557203622639
 30
0.0
 11
10440.2745816207
 21
7424.557203622639
 31
0.0
  0
LINE
  5
18DD2
330
747D
100
AcDbEntity
  8
細線
 48
50.0
100
AcDbLine
 10
10423.5906155576
 20
7406.286352332145
 30
0.0
 11
10429.34613314027
 21
7424.557203622639
 31
0.0
  0
LINE
  5
18DD3
330
747D
100
AcDbEntity
  8
細線
100
AcDbLine
 10
10480.72838544763
 20
7406.286349697949
 30
0.0
 11
10483.05992496944
 21
7411.28635233791
 31
0.0
  0
LINE
  5
18DD4
330
747D
100
AcDbEntity
  8
細線
100
AcDbLine
 10
10550.72839486409
 20
7406.286334784216
 30
0.0
 11
10548.3968483879
 21
7411.286352337896
 31
0.0
  0
LINE
  5
18DD5
330
747D
100
AcDbEntity
  8
細線
100
AcDbLine
 10
10548.3968483879
 20
7411.286352337896
 30
0.0
 11
10483.05992496943
 21
7411.286352337881
 31
0.0
  0
LINE
  5
18DD6
330
747D
100
AcDbEntity
  8
細線
100
AcDbLine
 10
10408.39682002338
 20
7411.286352332115
 30
0.0
 11
10343.05989660491
 21
7411.286352332101
 31
0.0
  0
LINE
  5
18DD7
330
747D
100
AcDbEntity
  8
細線
100
AcDbLine
 10
10410.72836649957
 20
7406.286334778435
 30
0.0
 11
10408.39682002338
 21
7411.286352332115
 31
0.0
  0
LINE
  5
18DD8
330
747D
100
AcDbEntity
  8
細線
100
AcDbLine
 10
10340.72835831415
 20
7406.286352332145
 30
0.0
 11
10343.05989660492
 21
7411.286352332131
 31
0.0
  0
LINE
  5
18DD9
330
747D
100
AcDbEntity
  8
細線
100
AcDbLine
 10
10200.72839363305
 20
7406.286360519515
 30
0.0
 11
10203.05993192381
 21
7411.2863605195
 31
0.0
  0
LINE
  5
18DDA
330
747D
100
AcDbEntity
  8
細線
100
AcDbLine
 10
10270.72840181846
 20
7406.286342965805
 30
0.0
 11
10268.39685534228
 21
7411.286360519482
 31
0.0
  0
LINE
  5
18DDB
330
747D
100
AcDbEntity
  8
細線
100
AcDbLine
 10
10268.39685534228
 20
7411.286360519482
 30
0.0
 11
10203.0599319238
 21
7411.28636051947
 31
0.0
  0
LINE
  5
18DDC
330
747D
100
AcDbEntity
  8
細線
100
AcDbLine
 10
9829.22835943593
 20
7372.286532200227
 30
0.0
 11
9831.559897726698
 21
7377.286532200213
 31
0.0
  0
LINE
  5
18DDD
330
747D
100
AcDbEntity
  8
細線
100
AcDbLine
 10
9899.228367621345
 20
7372.286514646514
 30
0.0
 11
9896.896821145158
 21
7377.286532200191
 31
0.0
  0
LINE
  5
18DDE
330
747D
100
AcDbEntity
  8
細線
100
AcDbLine
 10
9896.896821145158
 20
7377.286532200191
 30
0.0
 11
9831.559897726686
 21
7377.286532200184
 31
0.0
  0
LINE
  5
18DDF
330
747D
100
AcDbEntity
  8
細線
100
AcDbLine
 10
10036.89682114516
 20
7377.286532200191
 30
0.0
 11
9971.559897726685
 21
7377.286532200184
 31
0.0
  0
LINE
  5
18DE0
330
747D
100
AcDbEntity
  8
細線
100
AcDbLine
 10
10039.22836762134
 20
7372.286514646514
 30
0.0
 11
10036.89682114516
 21
7377.286532200191
 31
0.0
  0
LINE
  5
18DE1
330
747D
100
AcDbEntity
  8
細線
100
AcDbLine
 10
9969.22835943593
 20
7372.286532200227
 30
0.0
 11
9971.559897726697
 21
7377.286532200213
 31
0.0
  0
LINE
  5
18DE2
330
747D
100
AcDbEntity
  8
細線
100
AcDbLine
 10
9756.896821145158
 20
7377.286532200191
 30
0.0
 11
9691.559897726685
 21
7377.28653220018
 31
0.0
  0
LINE
  5
18DE3
330
747D
100
AcDbEntity
  8
細線
100
AcDbLine
 10
9759.228367621346
 20
7372.286514646514
 30
0.0
 11
9756.896821145158
 21
7377.286532200191
 31
0.0
  0
LINE
  5
18DE4
330
747D
100
AcDbEntity
  8
細線
100
AcDbLine
 10
9689.228359435929
 20
7372.286532200224
 30
0.0
 11
9691.559897726698
 21
7377.286532200209
 31
0.0
  0
LINE
  5
18DE5
330
747D
100
AcDbEntity
  8
細線
100
AcDbLine
 10
9549.228367621344
 20
7372.286532200227
 30
0.0
 11
9551.559905912112
 21
7377.286532200213
 31
0.0
  0
LINE
  5
18DE6
330
747D
100
AcDbEntity
  8
細線
100
AcDbLine
 10
9619.228375806761
 20
7372.286514646514
 30
0.0
 11
9616.896829330574
 21
7377.286532200191
 31
0.0
  0
LINE
  5
18DE7
330
747D
100
AcDbEntity
  8
細線
100
AcDbLine
 10
9616.896829330574
 20
7377.286532200191
 30
0.0
 11
9551.559905912101
 21
7377.286532200184
 31
0.0
  0
ARC
  5
18DE8
330
747D
100
AcDbEntity
  8
部品1
 48
0.01
100
AcDbCircle
 10
9504.728256369011
 20
7371.285410015154
 30
0.0
 40
0.5
100
AcDbArc
 50
270.0
 51
0.0
  0
LINE
  5
18DE9
330
747D
100
AcDbEntity
  8
部品1
 48
0.01
100
AcDbLine
 10
9505.22825636901
 20
7372.285410015155
 30
0.0
 11
9505.22825636901
 21
7371.285410015154
 31
0.0
  0
LINE
  5
18DEA
330
747D
100
AcDbEntity
  8
部品1
 48
0.01
100
AcDbLine
 10
9505.22825636901
 20
7372.285410015155
 30
0.0
 11
9505.22825636901
 21
7371.285410015154
 31
0.0
  0
LINE
  5
18DEB
330
747D
100
AcDbEntity
  8
部品1
 48
0.01
100
AcDbLine
 10
9504.728256369011
 20
7370.785410015155
 30
0.0
 11
9498.115750938945
 21
7370.785410015155
 31
0.0
  0
ARC
  5
18DEC
330
747D
100
AcDbEntity
  8
部品1
100
AcDbCircle
 10
9498.184100491725
 20
7371.785410015154
 30
0.0
 40
1.0
100
AcDbArc
 50
160.5287793655778
 51
270.0
  0
ARC
  5
18DED
330
747D
100
AcDbEntity
  8
部品1
100
AcDbCircle
 10
9472.728256369009
 20
7380.785410015154
 30
0.0
 40
26.0
100
AcDbArc
 50
340.5287793655779
 51
0.0
  0
LINE
  5
18DEE
330
747D
100
AcDbEntity
  8
部品1
100
AcDbLine
 10
9498.728256369011
 20
7380.785410015154
 30
0.0
 11
9498.728256369011
 21
7385.785410015154
 31
0.0
  0
ARC
  5
18DEF
330
747D
100
AcDbEntity
  8
部品1
 48
0.01
100
AcDbCircle
 10
9496.728256369008
 20
7385.785410015154
 30
0.0
 40
2.0
100
AcDbArc
 50
0.0
 51
90.0
  0
ARC
  5
18DF0
330
747D
100
AcDbEntity
  8
部品1
100
AcDbCircle
 10
9495.1198647442
 20
7384.785410015155
 30
0.0
 40
3.0
100
AcDbArc
 50
90.0
 51
141.6069559807873
  0
LINE
  5
18DF1
330
747D
100
AcDbEntity
  8
部品1
 48
0.01
100
AcDbLine
 10
9496.728256369008
 20
7387.785410015155
 30
0.0
 11
9495.1198647442
 21
7387.785410015155
 31
0.0
  0
ARC
  5
18DF2
330
747D
100
AcDbEntity
  8
部品1
100
AcDbCircle
 10
9476.657542154738
 20
7384.085410015157
 30
0.0
 40
3.0
100
AcDbArc
 50
254.0576313943215
 51
270.0
  0
ARC
  5
18DF3
330
747D
100
AcDbEntity
  8
部品1
100
AcDbCircle
 10
9483.798970583281
 20
7384.085410015157
 30
0.0
 40
3.0
100
AcDbArc
 50
270.0
 51
285.9423686056786
  0
LINE
  5
18DF4
330
747D
100
AcDbEntity
  8
部品1
100
AcDbLine
 10
9483.798970583281
 20
7381.085410015157
 30
0.0
 11
9476.657542154738
 21
7381.085410015157
 31
0.0
  0
ARC
  5
18DF5
330
747D
100
AcDbEntity
  8
部品1
100
AcDbCircle
 10
9480.228256369009
 20
7396.585410015157
 30
0.0
 40
16.0
100
AcDbArc
 50
285.9423686056786
 51
321.6069559807873
  0
LINE
  5
18DF6
330
747D
100
AcDbEntity
  8
部品1
 48
0.01
100
AcDbLine
 10
9463.728256369009
 20
7387.785410015155
 30
0.0
 11
9465.336647993821
 21
7387.785410015155
 31
0.0
  0
ARC
  5
18DF7
330
747D
100
AcDbEntity
  8
部品1
100
AcDbCircle
 10
9465.336647993821
 20
7384.785410015155
 30
0.0
 40
3.0
100
AcDbArc
 50
38.39304401921267
 51
90.0
  0
ARC
  5
18DF8
330
747D
100
AcDbEntity
  8
部品1
100
AcDbCircle
 10
9480.228256369009
 20
7396.585410015157
 30
0.0
 40
16.0
100
AcDbArc
 50
218.3930440192126
 51
254.0576313943215
  0
LINE
  5
18DF9
330
747D
100
AcDbEntity
  8
部品1
100
AcDbLine
 10
9461.72825636901
 20
7380.785410015154
 30
0.0
 11
9461.72825636901
 21
7385.785410015154
 31
0.0
  0
ARC
  5
18DFA
330
747D
100
AcDbEntity
  8
部品1
 48
0.01
100
AcDbCircle
 10
9463.728256369009
 20
7385.785410015154
 30
0.0
 40
2.0
100
AcDbArc
 50
90.0
 51
180.0
  0
ARC
  5
18DFB
330
747D
100
AcDbEntity
  8
部品1
100
AcDbCircle
 10
9487.72825636901
 20
7380.785410015154
 30
0.0
 40
26.0
100
AcDbArc
 50
180.0
 51
199.4712206344221
  0
ARC
  5
18DFC
330
747D
100
AcDbEntity
  8
部品1
 48
0.01
100
AcDbCircle
 10
9455.72825636901
 20
7371.285410015154
 30
0.0
 40
0.5
100
AcDbArc
 50
180.0
 51
270.0
  0
LINE
  5
18DFD
330
747D
100
AcDbEntity
  8
部品1
 48
0.01
100
AcDbLine
 10
9455.72825636901
 20
7370.785410015155
 30
0.0
 11
9462.272412246294
 21
7370.785410015155
 31
0.0
  0
LINE
  5
18DFE
330
747D
100
AcDbEntity
  8
部品1
 48
0.01
100
AcDbLine
 10
9455.228256369009
 20
7372.285410015155
 30
0.0
 11
9455.228256369009
 21
7371.285410015154
 31
0.0
  0
ARC
  5
18DFF
330
747D
100
AcDbEntity
  8
部品1
100
AcDbCircle
 10
9462.272412246294
 20
7371.785410015154
 30
0.0
 40
1.0
100
AcDbArc
 50
270.0
 51
19.47122063442214
  0
LINE
  5
18E00
330
747D
100
AcDbEntity
  8
細線
100
AcDbLine
 10
9500.728256369017
 20
7390.285410015159
 30
0.0
 11
9459.728256369016
 21
7390.285410015152
 31
0.0
  0
LINE
  5
18E01
330
747D
100
AcDbEntity
  8
細線
100
AcDbLine
 10
9459.728256369016
 20
7390.285410015152
 30
0.0
 11
9459.728256369016
 21
7372.285410015132
 31
0.0
  0
LINE
  5
18E02
330
747D
100
AcDbEntity
  8
細線
100
AcDbLine
 10
9500.728256369017
 20
7390.285410015159
 30
0.0
 11
9500.728256369017
 21
7372.285410015132
 31
0.0
  0
LINE
  5
18E03
330
747D
100
AcDbEntity
  8
細線
100
AcDbLine
 10
9344.228362967754
 20
7376.286340469558
 30
0.0
 11
9344.228362967754
 21
7372.286340469606
 31
0.0
  0
DIMENSION
  5
18E04
330
747D
100
AcDbEntity
  8
寸法
 48
50.0
100
AcDbDimension
  2
*D30
 10
10610.22836296775
 20
6727.847842202638
 30
0.0
 11
9969.372680740693
 21
6727.847842202638
 31
0.0
 70
   160
  1
有効開口部間口\P<>
 71
     5
 42
1266.0
  3
INABA_S40
100
AcDbAlignedDimension
 13
9344.228362967754
 23
7367.286340469558
 33
0.0
 14
10610.22836296775
 24
7367.286340469558
 34
0.0
100
AcDbRotatedDimension
1001
ACAD
1000
DSTYLE
1002
{
1070
    41
1040
0.5
1070
    44
1040
1.0
1070
   147
1040
0.8
1070
   271
1070
     2
1070
   272
1070
     2
1070
   289
1070
     3
1070
   340
1005
F706
1070
   343
1005
17A9E
1070
   344
1005
17A9E
1002
}
  0
LINE
  5
18E05
330
747D
100
AcDbEntity
  8
部品1
100
AcDbLine
 10
11432.22836296775
 20
7444.286340469559
 30
0.0
 11
11459.22836296775
 21
7444.286340469559
 31
0.0
  0
LINE
  5
18E07
330
747D
100
AcDbEntity
  8
部品1
100
AcDbLine
 10
11459.22836296775
 20
7367.286340469558
 30
0.0
 11
11459.22836296775
 21
7444.286340469559
 31
0.0
  0
LINE
  5
18E08
330
747D
100
AcDbEntity
  8
部品1
100
AcDbLine
 10
11420.22836296775
 20
7440.286340469558
 30
0.0
 11
11432.22836296775
 21
7440.286340469558
 31
0.0
  0
LINE
  5
18E09
330
747D
100
AcDbEntity
  8
部品1
100
AcDbLine
 10
11429.22836296775
 20
7376.286340469558
 30
0.0
 11
11429.22836296775
 21
7367.286340469558
 31
0.0
  0
LINE
  5
18E0A
330
747D
100
AcDbEntity
  8
部品1
100
AcDbLine
 10
11420.22836296775
 20
7376.286340469558
 30
0.0
 11
11429.22836296775
 21
7376.286340469558
 31
0.0
  0
LINE
  5
18E0B
330
747D
100
AcDbEntity
  8
部品1
100
AcDbLine
 10
11420.22836296775
 20
7440.286340469558
 30
0.0
 11
11420.22836296775
 21
7376.286340469558
 31
0.0
  0
LINE
  5
18E0C
330
747D
100
AcDbEntity
  8
部品1
100
AcDbLine
 10
11432.22836296775
 20
7471.286340469558
 30
0.0
 11
11432.22836296775
 21
7440.286340469558
 31
0.0
  0
LINE
  5
18E0D
330
747D
100
AcDbEntity
  8
部品1
100
AcDbLine
 10
9344.228362967754
 20
7440.286340469558
 30
0.0
 11
9332.228362967756
 21
7440.286340469558
 31
0.0
  0
LINE
  5
18E0E
330
747D
100
AcDbEntity
  8
部品1
100
AcDbLine
 10
9305.228362967755
 20
7444.286340469559
 30
0.0
 11
9332.228362967756
 21
7444.286340469559
 31
0.0
  0
LINE
  5
18E0F
330
747D
100
AcDbEntity
  8
部品1
100
AcDbLine
 10
9335.228362967756
 20
7376.286340469558
 30
0.0
 11
9335.228362967756
 21
7367.286340469558
 31
0.0
  0
LINE
  5
18E10
330
747D
100
AcDbEntity
  8
部品1
100
AcDbLine
 10
9344.228362967754
 20
7376.286340469558
 30
0.0
 11
9335.228362967756
 21
7376.286340469558
 31
0.0
  0
LINE
  5
18E11
330
747D
100
AcDbEntity
  8
部品1
100
AcDbLine
 10
9335.228362967756
 20
7367.286340469558
 30
0.0
 11
9305.228362967755
 21
7367.286340469558
 31
0.0
  0
LINE
  5
18E12
330
747D
100
AcDbEntity
  8
部品1
100
AcDbLine
 10
9305.228362967755
 20
7367.286340469558
 30
0.0
 11
9305.228362967755
 21
7444.286340469559
 31
0.0
  0
LINE
  5
18E13
330
747D
100
AcDbEntity
  8
部品1
100
AcDbLine
 10
9344.228362967754
 20
7440.286340469558
 30
0.0
 11
9344.228362967754
 21
7376.286340469558
 31
0.0
  0
LINE
  5
18E14
330
747D
100
AcDbEntity
  8
部品1
100
AcDbLine
 10
9332.228362967756
 20
7471.286340469553
 30
0.0
 11
9332.228362967756
 21
7440.286340469558
 31
0.0
  0
LINE
  5
18E15
330
747D
100
AcDbEntity
  8
部品1
100
AcDbLine
 10
9332.228362967756
 20
7471.286340469553
 30
0.0
 11
11432.22836296775
 21
7471.286340469558
 31
0.0
  0
LINE
  5
18E16
330
747D
100
AcDbEntity
  8
部品1
100
AcDbLine
 10
11429.22836296775
 20
7367.286340469558
 30
0.0
 11
11459.22836296775
 21
7367.286340469558
 31
0.0
  0
LINE
  5
18E17
330
747D
100
AcDbEntity
  8
部品1
100
AcDbLine
 10
9335.228362967756
 20
7367.286340469558
 30
0.0
 11
11432.22836296775
 21
7367.286340469558
 31
0.0
  0
LINE
  5
18E18
330
747D
100
AcDbEntity
  8
細線
  6
Continuous
 62
     5
100
AcDbLine
 10
10711.22836296776
 20
7406.286340469555
 30
0.0
 11
10711.22836296776
 21
7406.286340469555
 31
0.0
  0
LINE
  5
18E19
330
747D
100
AcDbEntity
  8
細線
  6
Continuous
 62
     5
100
AcDbLine
 10
10703.72839828665
 20
7406.286350390612
 30
0.0
 11
10703.72839828665
 21
7406.286350390612
 31
0.0
  0
LINE
  5
18E1A
330
747D
100
AcDbEntity
  8
細線
  6
Continuous
 62
     5
100
AcDbLine
 10
10697.72839828665
 20
7406.286350390612
 30
0.0
 11
10697.72839828665
 21
7406.286350390612
 31
0.0
  0
LINE
  5
18E1B
330
747D
100
AcDbEntity
  8
細線
  6
Continuous
 62
     5
100
AcDbLine
 10
10765.22836296776
 20
7425.286340469554
 30
0.0
 11
10765.22836296776
 21
7425.286340469554
 31
0.0
  0
LINE
  5
18E1C
330
747D
100
AcDbEntity
  8
細線
 48
50.0
100
AcDbLine
 10
9358.228367621348
 20
7392.886514646512
 30
0.0
 11
9358.228367621348
 21
7401.282665054153
 31
0.0
  0
LINE
  5
18E1D
330
747D
100
AcDbEntity
  8
細線
 48
50.0
100
AcDbLine
 10
9358.228367621348
 20
7401.282665054153
 30
0.0
 11
9344.228362967754
 21
7401.282665054148
 31
0.0
  0
LINE
  5
18E1E
330
747D
100
AcDbEntity
  8
細線
 48
50.0
100
AcDbLine
 10
10109.22836762134
 20
7389.436514646511
 30
0.0
 11
10109.22836762134
 21
7394.286514646513
 31
0.0
  0
LINE
  5
18E1F
330
747D
100
AcDbEntity
  8
細線
 48
50.0
100
AcDbLine
 10
10109.22836762134
 20
7394.286514646513
 30
0.0
 11
10124.22836762134
 21
7394.286514646513
 31
0.0
  0
LINE
  5
18E20
330
747D
100
AcDbEntity
  8
細線
 48
50.0
100
AcDbLine
 10
10124.22836762134
 20
7394.286514646513
 30
0.0
 11
10124.22836762135
 21
7401.286514646514
 31
0.0
  0
LINE
  5
18E21
330
747D
100
AcDbEntity
  8
細線
 48
50.0
100
AcDbLine
 10
10124.22836762135
 20
7401.286514646514
 30
0.0
 11
10139.22836762134
 21
7401.286514646514
 31
0.0
  0
LINE
  5
18E22
330
747D
100
AcDbEntity
  8
細線
 48
50.0
100
AcDbLine
 10
10139.22836762134
 20
7401.286514646514
 30
0.0
 11
10139.22836762134
 21
7372.286514646514
 31
0.0
  0
LINE
  5
18E23
330
747D
100
AcDbEntity
  8
細線
 48
50.0
100
AcDbLine
 10
9335.228362967756
 20
7372.283848989983
 30
0.0
 11
9549.228367621344
 21
7372.286532200227
 31
0.0
  0
LINE
  5
18E24
330
747D
100
AcDbEntity
  8
細線
 48
50.0
100
AcDbLine
 10
10039.22836762134
 20
7372.286514646514
 30
0.0
 11
10139.22836762134
 21
7372.286514646514
 31
0.0
  0
LINE
  5
18E25
330
747D
100
AcDbEntity
  8
細線
 48
50.0
100
AcDbLine
 10
9759.228367621346
 20
7372.286514646514
 30
0.0
 11
9829.228367621345
 21
7372.286514646514
 31
0.0
  0
LINE
  5
18E26
330
747D
100
AcDbEntity
  8
細線
 48
50.0
100
AcDbLine
 10
9772.090332633874
 20
7372.286514646514
 30
0.0
 11
9777.845850216543
 21
7390.557365937008
 31
0.0
  0
LINE
  5
18E27
330
747D
100
AcDbEntity
  8
細線
 48
50.0
100
AcDbLine
 10
9777.845850216543
 20
7390.557365937008
 30
0.0
 11
9788.774298696976
 21
7390.557365937003
 31
0.0
  0
ARC
  5
18E28
330
747D
100
AcDbEntity
  8
細線
 48
50.0
100
AcDbCircle
 10
9788.774298696976
 20
7389.557365937005
 30
0.0
 40
1.0
100
AcDbArc
 50
24.62431835213048
 51
90.0
  0
ARC
  5
18E29
330
747D
100
AcDbEntity
  8
細線
 48
50.0
100
AcDbCircle
 10
9799.683010811609
 20
7389.557365937005
 30
0.0
 40
1.0
100
AcDbArc
 50
90.0
 51
155.3756816478695
  0
ARC
  5
18E2A
330
747D
100
AcDbEntity
  8
細線
 48
50.0
100
AcDbCircle
 10
9794.228654754292
 20
7392.057365937003
 30
0.0
 40
5.0
100
AcDbArc
 50
204.6243183521304
 51
335.3756816478695
  0
LINE
  5
18E2B
330
747D
100
AcDbEntity
  8
細線
 48
50.0
100
AcDbLine
 10
9799.683010811609
 20
7390.557365937003
 30
0.0
 11
9810.611459292042
 21
7390.557365937008
 31
0.0
  0
LINE
  5
18E2C
330
747D
100
AcDbEntity
  8
細線
 48
50.0
100
AcDbLine
 10
9810.611459292042
 20
7390.557365937008
 30
0.0
 11
9816.366976874711
 21
7372.286514646514
 31
0.0
  0
LINE
  5
18E2D
330
747D
100
AcDbEntity
  8
細線
 48
50.0
100
AcDbLine
 10
10109.22836762134
 20
7392.886514646512
 30
0.0
 11
9358.228367621348
 21
7392.886514646512
 31
0.0
  0
LINE
  5
18E2E
330
747D
100
AcDbEntity
  8
細線
 48
50.0
100
AcDbLine
 10
9969.228367621346
 20
7372.286514646514
 30
0.0
 11
9899.228367621345
 21
7372.286514646514
 31
0.0
  0
LINE
  5
18E2F
330
747D
100
AcDbEntity
  8
細線
100
AcDbLine
 10
9689.228367621346
 20
7372.286514646514
 30
0.0
 11
9619.228375806761
 21
7372.286514646514
 31
0.0
  0
LINE
  5
18E30
330
747D
100
AcDbEntity
  8
細線
 48
50.0
100
AcDbLine
 10
10763.22835831417
 20
7426.886558504381
 30
0.0
 11
10128.22836762134
 21
7426.886558504377
 31
0.0
  0
LINE
  5
18E31
330
747D
100
AcDbEntity
  8
細線
 48
50.0
100
AcDbLine
 10
10128.22836762134
 20
7423.78270891202
 30
0.0
 11
10128.22836762134
 21
7428.28270891202
 31
0.0
  0
LINE
  5
18E32
330
747D
100
AcDbEntity
  8
細線
 48
50.0
100
AcDbLine
 10
10128.22836762134
 20
7428.28270891202
 30
0.0
 11
10113.22836762134
 21
7428.28270891202
 31
0.0
  0
LINE
  5
18E33
330
747D
100
AcDbEntity
  8
細線
 48
50.0
100
AcDbLine
 10
10113.22836762134
 20
7428.28270891202
 30
0.0
 11
10113.22836762134
 21
7435.282708912019
 31
0.0
  0
LINE
  5
18E34
330
747D
100
AcDbEntity
  8
細線
 48
50.0
100
AcDbLine
 10
10113.22836762134
 20
7435.282708912019
 30
0.0
 11
10098.22836762135
 21
7435.282708912017
 31
0.0
  0
LINE
  5
18E35
330
747D
100
AcDbEntity
  8
細線
 48
50.0
100
AcDbLine
 10
10098.22836762135
 20
7435.282708912017
 30
0.0
 11
10098.22836762135
 21
7397.682480808907
 31
0.0
  0
LINE
  5
18E36
330
747D
100
AcDbEntity
  8
細線
 48
50.0
100
AcDbLine
 10
10098.22836762135
 20
7397.682480808907
 30
0.0
 11
10118.22837492252
 21
7397.682522358447
 31
0.0
  0
LINE
  5
18E37
330
747D
100
AcDbEntity
  8
細線
 48
50.0
100
AcDbLine
 10
10118.22833005358
 20
7406.285983994256
 30
0.0
 11
10118.22837492252
 21
7397.682522358447
 31
0.0
  0
LINE
  5
18E38
330
747D
100
AcDbEntity
  8
細線
 48
50.0
100
AcDbLine
 10
10763.22835831417
 20
7423.436558504381
 30
0.0
 11
10763.22835831417
 21
7428.286558504378
 31
0.0
  0
LINE
  5
18E39
330
747D
100
AcDbEntity
  8
細線
 48
50.0
100
AcDbLine
 10
10763.22835831417
 20
7428.286558504378
 30
0.0
 11
10778.22835831416
 21
7428.286558504378
 31
0.0
  0
LINE
  5
18E3A
330
747D
100
AcDbEntity
  8
細線
 48
50.0
100
AcDbLine
 10
10778.22835831416
 20
7428.286558504378
 30
0.0
 11
10778.22836994814
 21
7435.286558504422
 31
0.0
  0
LINE
  5
18E3B
330
747D
100
AcDbEntity
  8
細線
 48
50.0
100
AcDbLine
 10
10778.22836994814
 20
7435.286558504422
 30
0.0
 11
10793.22836811867
 21
7435.286558504422
 31
0.0
  0
LINE
  5
18E3C
330
747D
100
AcDbEntity
  8
細線
 48
50.0
100
AcDbLine
 10
10793.22836811867
 20
7435.286558504422
 30
0.0
 11
10793.22835781685
 21
7406.286352332148
 31
0.0
  0
LINE
  5
18E3D
330
747D
100
AcDbEntity
  8
細線
 48
50.0
100
AcDbLine
 10
10480.72838544763
 20
7406.286360519515
 30
0.0
 11
10410.72863753005
 21
7406.286355082177
 31
0.0
  0
LINE
  5
18E3E
330
747D
100
AcDbEntity
  8
細線
 48
50.0
100
AcDbLine
 10
10118.22833005358
 20
7406.285983994256
 30
0.0
 11
10129.46101940829
 21
7406.286166947403
 31
0.0
  0
ARC
  5
18E3F
330
747D
100
AcDbEntity
  8
細線
 48
50.0
100
AcDbCircle
 10
10136.04331171562
 20
7405.086330861014
 30
0.0
 40
1.8
100
AcDbArc
 50
270.0006665777295
 51
345.0005554812987
  0
LINE
  5
18E40
330
747D
100
AcDbEntity
  8
細線
 48
50.0
100
AcDbLine
 10
10138.0297451617
 20
7405.545171318293
 30
0.0
 11
10137.7819827195
 21
7404.620473436188
 31
0.0
  0
LINE
  5
18E41
330
747D
100
AcDbEntity
  8
細線
 48
50.0
100
AcDbLine
 10
10136.04333265678
 20
7403.286330861135
 30
0.0
 11
10132.41340523801
 21
7403.286288630656
 31
0.0
  0
ARC
  5
18E42
330
747D
100
AcDbEntity
  8
細線
 48
50.0
100
AcDbCircle
 10
10132.41338429686
 20
7405.086288630535
 30
0.0
 40
1.8
100
AcDbArc
 50
195.0010443049394
 51
270.0006665777295
  0
LINE
  5
18E43
330
747D
100
AcDbEntity
  8
細線
 48
50.0
100
AcDbLine
 10
10130.4269568046
 20
7405.545003598099
 30
0.0
 11
10130.67472630111
 21
7404.620382659517
 31
0.0
  0
ARC
  5
18E44
330
747D
100
AcDbEntity
  8
細線
 48
50.0
100
AcDbCircle
 10
10129.46103569585
 20
7405.286166947537
 30
0.0
 40
1.0
100
AcDbArc
 50
15.00104430493943
 51
90.00093320877969
  0
LINE
  5
18E45
330
747D
100
AcDbEntity
  8
細線
 48
50.0
100
AcDbLine
 10
10138.99566651681
 20
7406.286361637807
 30
0.0
 11
10139.93742666771
 21
7406.286368211657
 31
0.0
  0
ARC
  5
18E46
330
747D
100
AcDbEntity
  8
細線
 48
50.0
100
AcDbCircle
 10
10138.99567349719
 20
7405.286361637833
 30
0.0
 40
1.0
100
AcDbArc
 50
90.0003999466794
 51
165.0005554812987
  0
LINE
  5
18E47
330
747D
100
AcDbEntity
  8
細線
 48
50.0
100
AcDbLine
 10
10690.72835831416
 20
7406.286352332148
 30
0.0
 11
10793.22835781685
 21
7406.286352332148
 31
0.0
  0
LINE
  5
18E48
330
747D
100
AcDbEntity
  8
細線
 48
50.0
100
AcDbLine
 10
10200.72839363305
 20
7406.286360519515
 30
0.0
 11
10139.62833240613
 21
7406.286368211657
 31
0.0
  0
LINE
  5
18E49
330
747D
100
AcDbEntity
  8
細線
 48
50.0
100
AcDbLine
 10
10620.72839363305
 20
7406.286397360597
 30
0.0
 11
10550.72838667866
 21
7406.286352337929
 31
0.0
  0
LINE
  5
18E4A
330
747D
100
AcDbEntity
  8
細線
 48
50.0
100
AcDbLine
 10
10340.72835831415
 20
7406.286352332145
 30
0.0
 11
10270.72834102628
 21
7406.286352332152
 31
0.0
  0
ARC
  5
18E4B
330
747D
100
AcDbEntity
  8
細線
 48
50.0
100
AcDbCircle
 10
10777.42836296776
 20
7439.486340469558
 30
0.0
 40
0.8
100
AcDbArc
 50
359.9997333689499
 51
89.99986668437072
  0
ARC
  5
18E4C
330
747D
100
AcDbEntity
  8
細線
 48
50.0
100
AcDbCircle
 10
10785.02836979286
 20
7439.486351638176
 30
0.0
 40
0.8
100
AcDbArc
 50
90.00014387753465
 51
179.9997333689498
  0
LINE
  5
18E4D
330
747D
100
AcDbEntity
  8
細線
 48
50.0
100
AcDbLine
 10
10777.4283648292
 20
7440.286340469558
 30
0.0
 11
10772.22836296775
 21
7440.286340469558
 31
0.0
  0
ARC
  5
18E4E
330
747D
100
AcDbEntity
  8
細線
 48
50.0
100
AcDbCircle
 10
10778.92836296775
 20
7437.986340469558
 30
0.0
 40
0.7
100
AcDbArc
 50
180.0
 51
270.0
  0
ARC
  5
18E4F
330
747D
100
AcDbEntity
  8
細線
 48
50.0
100
AcDbCircle
 10
10783.52836296776
 20
7437.986340469558
 30
0.0
 40
0.7
100
AcDbArc
 50
270.0
 51
0.0
  0
LINE
  5
18E50
330
747D
100
AcDbEntity
  8
細線
 48
50.0
100
AcDbLine
 10
10784.22836296775
 20
7437.986340469558
 30
0.0
 11
10784.22836979287
 21
7439.486355361046
 31
0.0
  0
LINE
  5
18E51
330
747D
100
AcDbEntity
  8
細線
 48
50.0
100
AcDbLine
 10
10778.92836296775
 20
7437.286340469558
 30
0.0
 11
10783.52836296776
 21
7437.286340469558
 31
0.0
  0
LINE
  5
18E52
330
747D
100
AcDbEntity
  8
細線
 48
50.0
100
AcDbLine
 10
10778.22836296775
 20
7439.486340469558
 30
0.0
 11
10778.22836296775
 21
7437.986340469558
 31
0.0
  0
LINE
  5
18E53
330
747D
100
AcDbEntity
  8
細線
 48
50.0
100
AcDbLine
 10
11403.82836296776
 20
7470.286340469558
 30
0.0
 11
10767.22836296775
 21
7470.286340469555
 31
0.0
  0
LINE
  5
18E54
330
747D
100
AcDbEntity
  8
細線
 48
50.0
100
AcDbLine
 10
11429.72836296775
 20
7465.286340469562
 30
0.0
 11
11413.82836296776
 21
7465.286340469558
 31
0.0
  0
LINE
  5
18E55
330
747D
100
AcDbEntity
  8
細線
 48
50.0
100
AcDbLine
 10
11413.82836296775
 20
7465.286340469558
 30
0.0
 11
11403.82836296776
 21
7470.286340469558
 31
0.0
  0
LINE
  5
18E56
330
747D
100
AcDbEntity
  8
細線
100
AcDbLine
 10
11014.72836296775
 20
7440.286340469558
 30
0.0
 11
11014.72836296775
 21
7469.586340469557
 31
0.0
  0
LINE
  5
18E57
330
747D
100
AcDbEntity
  8
細線
100
AcDbLine
 10
11014.72836296775
 20
7469.586340469557
 30
0.0
 11
11034.72836296775
 21
7469.586340469557
 31
0.0
  0
LINE
  5
18E58
330
747D
100
AcDbEntity
  8
細線
100
AcDbLine
 10
11034.72836296775
 20
7440.286340469558
 30
0.0
 11
11034.72836296775
 21
7469.586340469557
 31
0.0
  0
LINE
  5
18E59
330
747D
100
AcDbEntity
  8
細線
100
AcDbLine
 10
11195.97836296775
 20
7440.286340469558
 30
0.0
 11
11125.97836296775
 21
7440.286340469558
 31
0.0
  0
LINE
  5
18E5A
330
747D
100
AcDbEntity
  8
細線
 48
50.0
100
AcDbLine
 10
10915.97836296775
 20
7440.286340469558
 30
0.0
 11
10785.0241425406
 21
7440.286340469558
 31
0.0
  0
LINE
  5
18E5B
330
747D
100
AcDbEntity
  8
細線
100
AcDbLine
 10
11055.97836296775
 20
7440.286340469558
 30
0.0
 11
10985.97836296775
 21
7440.286340469558
 31
0.0
  0
LINE
  5
18E5C
330
747D
100
AcDbEntity
  8
細線
 48
50.0
100
AcDbLine
 10
10772.22836296775
 20
7432.286340469558
 30
0.0
 11
10772.22836296775
 21
7440.286340469558
 31
0.0
  0
LINE
  5
18E5D
330
747D
100
AcDbEntity
  8
細線
 48
50.0
100
AcDbLine
 10
10752.22836296775
 20
7432.286340469563
 30
0.0
 11
10772.22836296775
 21
7432.286340469558
 31
0.0
  0
LINE
  5
18E5E
330
747D
100
AcDbEntity
  8
細線
 48
50.0
100
AcDbLine
 10
10767.22836296775
 20
7470.286340469558
 30
0.0
 11
10767.22836296775
 21
7465.286340469558
 31
0.0
  0
LINE
  5
18E5F
330
747D
100
AcDbEntity
  8
細線
 48
50.0
100
AcDbLine
 10
10752.22836296775
 20
7470.286340469555
 30
0.0
 11
10767.22836296775
 21
7470.286340469558
 31
0.0
  0
LINE
  5
18E60
330
747D
100
AcDbEntity
  8
細線
 48
50.0
100
AcDbLine
 10
10752.22836296775
 20
7432.286340469563
 30
0.0
 11
10752.22836296775
 21
7470.286340469555
 31
0.0
  0
LINE
  5
18E61
330
747D
100
AcDbEntity
  8
細線
100
AcDbLine
 10
11420.22836296775
 20
7440.286340469558
 30
0.0
 11
11265.97836296775
 21
7440.286340469558
 31
0.0
  0
LINE
  5
18E62
330
747D
100
AcDbEntity
  8
細線
 48
50.0
100
AcDbLine
 10
11429.72836296775
 20
7465.286340469562
 30
0.0
 11
11429.72836296775
 21
7440.286340469558
 31
0.0
  0
DIMENSION
  5
1909F
330
747D
100
AcDbEntity
  8
寸法
100
AcDbDimension
  2
*D31
 10
11487.22836296776
 20
6187.898823406779
 30
0.0
 11
10190.03015160393
 21
6187.898823406779
 31
0.0
 70
   160
 71
     5
 42
2629.999999999982
  3
INABA_S40G
100
AcDbAlignedDimension
 13
8857.228362967781
 23
7444.286340469526
 33
0.0
 14
11487.22836296776
 24
7444.286340469689
 34
0.0
100
AcDbRotatedDimension
1001
ACAD
1000
DSTYLE
1002
{
1002
}
  0
LINE
  5
190A0
330
747D
100
AcDbEntity
  8
部品1
100
AcDbLine
 10
10553.96369608199
 20
5996.549671476607
 30
0.0
 11
9790.493029853559
 21
5996.549671476607
 31
0.0
  0
LINE
  5
190A1
330
747D
100
AcDbEntity
  8
部品1
100
AcDbLine
 10
10553.96369608199
 20
5756.657349931075
 30
0.0
 11
10553.96369608199
 21
5996.549671476607
 31
0.0
  0
LINE
  5
190A2
330
747D
100
AcDbEntity
  8
部品1
100
AcDbLine
 10
9790.493029853559
 20
5756.657349931075
 30
0.0
 11
10553.96369608199
 21
5756.657349931075
 31
0.0
  0
LINE
  5
190A3
330
747D
100
AcDbEntity
  8
部品1
100
AcDbLine
 10
9790.493029853559
 20
5996.549671476607
 30
0.0
 11
9790.493029853559
 21
5756.657349931075
 31
0.0
  0
TEXT
  5
190A4
330
747D
100
AcDbEntity
  8
部品1
100
AcDbText
 10
9880.412639682596
 20
5803.656142258084
 30
0.0
 40
135.0
  1
平面図
  7
STYLE2
100
AcDbText
  0
DIMENSION
  5
190A5
330
747D
100
AcDbEntity
  8
寸法
100
AcDbDimension
  2
*D32
 10
8562.617117341064
 20
7369.286340469526
 30
0.0
 11
8562.617117341062
 21
7228.801059095288
 31
0.0
 70
   160
 71
     5
 42
75.0
  3
INABA_S40
100
AcDbAlignedDimension
 13
8857.228362967781
 23
7444.286340469526
 33
0.0
 14
9305.228362967755
 24
7369.286340469526
 34
0.0
 50
90.0
100
AcDbRotatedDimension
1001
ACAD
1000
DSTYLE
1002
{
1070
    41
1040
0.5
1070
    44
1040
1.0
1070
   147
1040
0.8
1070
   271
1070
     2
1070
   272
1070
     2
1070
   289
1070
     3
1070
   340
1005
F706
1070
   343
1005
17A9E
1070
   344
1005
17A9E
1002
}
  0
DIMENSION
  5
190A6
330
747D
100
AcDbEntity
  8
寸法
 48
50.0
100
AcDbDimension
  2
*D33
 10
11459.22836296775
 20
6447.156625041792
 30
0.0
 11
10404.36111971507
 21
6447.156625041792
 31
0.0
 70
   160
 71
     5
 42
2154.0
  3
INABA_S40G
100
AcDbAlignedDimension
 13
9305.228362967755
 23
7367.28634046956
 33
0.0
 14
11459.22836296775
 24
7367.28634046956
 34
0.0
100
AcDbRotatedDimension
1001
ACAD
1000
DSTYLE
1002
{
1070
   341
1005
0
1002
}
  0
LWPOLYLINE
  5
193CB
330
747D
100
AcDbEntity
  8
部品1
 48
50.0
100
AcDbPolyline
 90
        4
 70
     1
 43
0.0
 10
9404.278362967778
 20
3327.26274692675
 10
9407.17836296778
 20
3327.26274692675
 10
9407.17836296778
 20
3336.76274692675
 10
9404.278362967778
 20
3336.76274692675
  0
CIRCLE
  5
193CC
330
747D
100
AcDbEntity
  8
部品1
 48
50.0
100
AcDbCircle
 10
9405.728362967778
 20
3332.01274692675
 30
0.0
 40
9.0
  0
ARC
  5
193CD
330
747D
100
AcDbEntity
  8
細線
 48
50.0
100
AcDbCircle
 10
9405.728362967778
 20
3332.01274692675
 30
0.0
 40
4.0
100
AcDbArc
 50
111.2538091853132
 51
248.7461908146868
  0
ARC
  5
193CE
330
747D
100
AcDbEntity
  8
細線
 48
50.0
100
AcDbCircle
 10
9405.728362967778
 20
3332.01274692675
 30
0.0
 40
17.5
100
AcDbArc
 50
306.4837370612677
 51
233.5162629387323
  0
LINE
  5
193CF
330
747D
100
AcDbEntity
  8
細線
 48
50.0
100
AcDbLine
 10
9415.728362967774
 20
3308.153786345867
 30
0.0
 11
9415.728362967779
 21
3317.138272146109
 31
0.0
  0
LINE
  5
193D0
330
747D
100
AcDbEntity
  8
細線
 48
50.0
100
AcDbLine
 10
9395.728362967778
 20
3308.153786345869
 30
0.0
 11
9395.728362967778
 21
3317.138272146105
 31
0.0
  0
ARC
  5
193D1
330
747D
100
AcDbEntity
  8
細線
 48
50.0
100
AcDbCircle
 10
9405.728362967778
 20
3332.01274692675
 30
0.0
 40
26.5
100
AcDbArc
 50
249.3326835063939
 51
290.6673164933835
  0
ARC
  5
193D2
330
747D
100
AcDbEntity
  8
細線
 48
50.0
100
AcDbCircle
 10
9414.728362967771
 20
3308.153786345867
 30
0.0
 40
1.0
100
AcDbArc
 50
290.6673164936062
 51
359.9999999998958
  0
ARC
  5
193D3
330
747D
100
AcDbEntity
  8
細線
 48
50.0
100
AcDbCircle
 10
9396.728362967779
 20
3308.153786345869
 30
0.0
 40
1.0
100
AcDbArc
 50
180.0
 51
249.3326835066164
  0
ARC
  5
193D4
330
747D
100
AcDbEntity
  8
細線
 48
50.0
100
AcDbCircle
 10
9394.728362967779
 20
3317.138272146105
 30
0.0
 40
1.0
100
AcDbArc
 50
0.0
 51
53.51626293873231
  0
ARC
  5
193D5
330
747D
100
AcDbEntity
  8
細線
 48
50.0
100
AcDbCircle
 10
9416.728362967782
 20
3317.138272146109
 30
0.0
 40
1.0
100
AcDbArc
 50
126.4837370615127
 51
180.0
  0
ARC
  5
193D6
330
747D
100
AcDbEntity
  8
細線
 48
50.0
100
AcDbCircle
 10
9405.728362967778
 20
3332.01274692675
 30
0.0
 40
21.5
100
AcDbArc
 50
255.8014401250294
 51
284.1985598749706
  0
ARC
  5
193D7
330
747D
100
AcDbEntity
  8
細線
 48
50.0
100
AcDbCircle
 10
9405.728362967778
 20
3332.01274692675
 30
0.0
 40
16.5
100
AcDbArc
 50
251.9694646069326
 51
288.0305353930674
  0
LINE
  5
193D8
330
747D
100
AcDbEntity
  8
細線
 48
50.0
100
AcDbLine
 10
9411.228362967779
 20
3311.460374800943
 30
0.0
 11
9411.228362967779
 21
3316.03776648828
 31
0.0
  0
LINE
  5
193D9
330
747D
100
AcDbEntity
  8
細線
 48
50.0
100
AcDbLine
 10
9400.228362967778
 20
3311.460374800943
 30
0.0
 11
9400.228362967778
 21
3316.037766488278
 31
0.0
  0
ARC
  5
193DA
330
747D
100
AcDbEntity
  8
細線
 48
50.0
100
AcDbCircle
 10
9400.528362967781
 20
3316.037766488278
 30
0.0
 40
0.3
100
AcDbArc
 50
71.96946460693259
 51
180.0
  0
ARC
  5
193DB
330
747D
100
AcDbEntity
  8
細線
 48
50.0
100
AcDbCircle
 10
9410.928362967778
 20
3316.03776648828
 30
0.0
 40
0.3
100
AcDbArc
 50
0.0
 51
108.0305353930674
  0
ARC
  5
193DC
330
747D
100
AcDbEntity
  8
細線
 48
50.0
100
AcDbCircle
 10
9410.928362967776
 20
3311.460374800943
 30
0.0
 40
0.3
100
AcDbArc
 50
284.1985598747622
 51
0.0000000001042204
  0
ARC
  5
193DD
330
747D
100
AcDbEntity
  8
細線
 48
50.0
100
AcDbCircle
 10
9400.528362967781
 20
3311.460374800943
 30
0.0
 40
0.3
100
AcDbArc
 50
180.0
 51
255.8014401248081
  0
CIRCLE
  5
193DE
330
747D
100
AcDbEntity
  8
細線
 48
50.0
100
AcDbCircle
 10
9405.728362967778
 20
3332.01274692675
 30
0.0
 40
12.0
  0
ARC
  5
193DF
330
747D
100
AcDbEntity
  8
部品1
 48
50.0
100
AcDbCircle
 10
9405.728362967778
 20
3382.01274692675
 30
0.0
 40
8.5
100
AcDbArc
 50
114.315739171091
 51
245.684260828909
  0
CIRCLE
  5
193E0
330
747D
100
AcDbEntity
  8
細線
 48
50.0
100
AcDbCircle
 10
9405.728362967778
 20
3382.01274692675
 30
0.0
 40
4.5
  0
LWPOLYLINE
  5
193E1
330
747D
100
AcDbEntity
  8
部品1
 48
50.0
100
AcDbPolyline
 90
        2
 70
     0
 43
0.0
 10
9402.228362967779
 20
3400.687596323733
 10
9402.228362967779
 20
3389.758713619166
  0
CIRCLE
  5
193E2
330
747D
100
AcDbEntity
  8
部品1
 48
50.0
100
AcDbCircle
 10
9405.728362967778
 20
3382.01274692675
 30
0.0
 40
19.0
  0
LWPOLYLINE
  5
193E3
330
747D
100
AcDbEntity
  8
部品1
 48
50.0
100
AcDbPolyline
 90
        2
 70
     0
 43
0.0
 10
9402.228362967779
 20
3374.266780234335
 10
9402.228362967779
 20
3363.337897529767
  0
LWPOLYLINE
  5
193E4
330
747D
100
AcDbEntity
  8
部品1
 48
50.0
100
AcDbPolyline
 90
        2
 70
     0
 43
0.0
 10
9409.228362967779
 20
3389.758713619166
 10
9409.228362967779
 20
3400.687596323733
  0
ARC
  5
193E5
330
747D
100
AcDbEntity
  8
部品1
 48
50.0
100
AcDbCircle
 10
9405.728362967778
 20
3382.01274692675
 30
0.0
 40
8.5
100
AcDbArc
 50
294.315739171091
 51
65.68426082890896
  0
LWPOLYLINE
  5
193E6
330
747D
100
AcDbEntity
  8
部品1
 48
50.0
100
AcDbPolyline
 90
        2
 70
     0
 43
0.0
 10
9409.228362967779
 20
3363.337897529767
 10
9409.228362967779
 20
3374.266780234335
  0
ARC
  5
193E7
330
747D
100
AcDbEntity
  8
細線
 48
50.0
100
AcDbCircle
 10
9405.728362967778
 20
3382.01274692675
 30
0.0
 40
16.5
100
AcDbArc
 50
332.0012352654438
 51
27.99876473455621
  0
ARC
  5
193E8
330
747D
100
AcDbEntity
  8
細線
 48
50.0
100
AcDbCircle
 10
9405.728362967778
 20
3382.01274692675
 30
0.0
 40
14.0
100
AcDbArc
 50
326.4074436112986
 51
33.59255638870134
  0
LINE
  5
193E9
330
747D
100
AcDbEntity
  8
細線
 48
50.0
100
AcDbLine
 10
9391.159560683446
 20
3389.758713619166
 30
0.0
 11
9394.066459178089
 21
3389.758713619166
 31
0.0
  0
LINE
  5
193EA
330
747D
100
AcDbEntity
  8
細線
 48
50.0
100
AcDbLine
 10
9391.159560683446
 20
3374.266780234335
 30
0.0
 11
9394.066459178089
 21
3374.266780234335
 31
0.0
  0
LINE
  5
193EB
330
747D
100
AcDbEntity
  8
細線
 48
50.0
100
AcDbLine
 10
9417.390266757468
 20
3389.758713619166
 30
0.0
 11
9420.297165252113
 21
3389.758713619166
 31
0.0
  0
LINE
  5
193EC
330
747D
100
AcDbEntity
  8
細線
 48
50.0
100
AcDbLine
 10
9417.390266757468
 20
3374.266780234335
 30
0.0
 11
9420.297165252113
 21
3374.266780234335
 31
0.0
  0
ARC
  5
193ED
330
747D
100
AcDbEntity
  8
細線
 48
50.0
100
AcDbCircle
 10
9405.728362967778
 20
3382.01274692675
 30
0.0
 40
14.0
100
AcDbArc
 50
146.4074436112986
 51
213.5925563887013
  0
ARC
  5
193EE
330
747D
100
AcDbEntity
  8
細線
 48
50.0
100
AcDbCircle
 10
9405.728362967778
 20
3382.01274692675
 30
0.0
 40
16.5
100
AcDbArc
 50
152.0012352654438
 51
207.9987647345562
  0
ARC
  5
193EF
330
747D
100
AcDbEntity
  8
部品1
 48
50.0
100
AcDbCircle
 10
9379.228362967777
 20
3407.51274692675
 30
0.0
 40
5.0
100
AcDbArc
 50
90.0
 51
180.0
  0
ARC
  5
193F0
330
747D
100
AcDbEntity
  8
部品1
 48
50.0
100
AcDbCircle
 10
9379.228362967777
 20
3296.51274692675
 30
0.0
 40
5.0
100
AcDbArc
 50
180.0
 51
270.0
  0
ARC
  5
193F1
330
747D
100
AcDbEntity
  8
部品1
 48
50.0
100
AcDbCircle
 10
9432.228362967778
 20
3296.51274692675
 30
0.0
 40
5.0
100
AcDbArc
 50
270.0
 51
0.0
  0
ARC
  5
193F2
330
747D
100
AcDbEntity
  8
部品1
 48
50.0
100
AcDbCircle
 10
9432.228362967778
 20
3407.51274692675
 30
0.0
 40
5.0
100
AcDbArc
 50
0.0
 51
90.0
  0
LINE
  5
193F4
330
747D
100
AcDbEntity
  8
部品1
 48
50.0
100
AcDbLine
 10
9374.228362967778
 20
3296.51274692675
 30
0.0
 11
9374.228362967778
 21
3407.51274692675
 31
0.0
  0
LINE
  5
193F5
330
747D
100
AcDbEntity
  8
部品1
 48
50.0
100
AcDbLine
 10
9432.228362967778
 20
3291.512746926751
 30
0.0
 11
9379.228362967777
 21
3291.512746926751
 31
0.0
  0
LINE
  5
193F6
330
747D
100
AcDbEntity
  8
部品1
 48
50.0
100
AcDbLine
 10
9437.228362967777
 20
3407.51274692675
 30
0.0
 11
9437.228362967777
 21
3296.51274692675
 31
0.0
  0
ENDSEC
  0
SECTION
  2
OBJECTS
  0
DICTIONARY
  5
7471
330
0
100
AcDbDictionary
281
     1
  3
ACAD_COLOR
350
17A93
  3
ACAD_GROUP
350
7472
  3
ACAD_LAYOUT
350
17A94
  3
ACAD_MATERIAL
350
17A92
  3
ACAD_MLINESTYLE
350
7473
  3
ACAD_PLOTSETTINGS
350
17A95
  3
ACAD_PLOTSTYLENAME
350
17A90
  3
ACDBHEADERROUNDTRIPXREC
350
19405
  3
AcDbVariableDictionary
350
19401
  3
CONTENTDICTIONARY
350
E71C
  3
DRAWINGVARIABLESDICT
350
F3B9
  0
DICTIONARY
  5
17C2D
330
7467
100
AcDbDictionary
280
     1
281
     1
  3
ACAD_LAYERSTATES
360
17C2E
  0
DICTIONARY
  5
17A93
102
{ACAD_REACTORS
330
7471
102
}
330
7471
100
AcDbDictionary
281
     1
  0
DICTIONARY
  5
7472
102
{ACAD_REACTORS
330
7471
102
}
330
7471
100
AcDbDictionary
281
     1
  0
DICTIONARY
  5
17A94
102
{ACAD_REACTORS
330
7471
102
}
330
7471
100
AcDbDictionary
281
     1
  3
Model
350
17A96
  3
レイアウト1
350
17A97
  0
DICTIONARY
  5
17A92
102
{ACAD_REACTORS
330
7471
102
}
330
7471
100
AcDbDictionary
281
     1
  0
DICTIONARY
  5
7473
102
{ACAD_REACTORS
330
7471
102
}
330
7471
100
AcDbDictionary
281
     1
  3
STANDARD
350
7480
  0
DICTIONARY
  5
17A95
102
{ACAD_REACTORS
330
7471
102
}
330
7471
100
AcDbDictionary
281
     1
  0
ACDBDICTIONARYWDFLT
  5
17A90
102
{ACAD_REACTORS
330
7471
102
}
330
7471
100
AcDbDictionary
281
     1
  3
Normal
350
17A91
100
AcDbDictionaryWithDefault
340
17A91
  0
DICTIONARY
  5
19405
102
{ACAD_REACTORS
330
7471
102
}
330
7471
100
AcDbDictionary
281
     1
  3
COLORDICT
350
19407
  3
MATERIALDICT
350
19406
  0
DICTIONARY
  5
19401
102
{ACAD_REACTORS
330
7471
102
}
330
7471
100
AcDbDictionary
281
     1
  3
DIMASSOC
350
19402
  3
PROJECTNAME
350
19403
  0
DICTIONARY
  5
E71C
102
{ACAD_REACTORS
330
7471
102
}
330
7471
100
AcDbDictionary
281
     1
  0
DICTIONARY
  5
F3B9
102
{ACAD_REACTORS
330
7471
102
}
330
7471
100
AcDbDictionary
281
     1
1001
DRAWINGVARIABLESXDATA
1000
POLARMODE
1000
1
  0
DICTIONARY
  5
17C2E
102
{ACAD_REACTORS
330
17C2D
102
}
330
17C2D
100
AcDbDictionary
281
     1
  0
LAYOUT
  5
17A96
102
{ACAD_XDICTIONARY
360
19408
102
}
102
{ACAD_REACTORS
330
17A94
102
}
330
17A94
100
AcDbPlotSettings
  1

  2
Microsoft Office Document Image Writer
  4

  6

 40
0.0
 41
0.0
 42
0.0
 43
0.0
 44
0.0
 45
0.0
 46
0.0
 47
0.0
 48
0.0
 49
0.0
140
0.0
141
0.0
142
1.0
143
1.0
 70
  1712
 72
     0
 73
     0
 74
     0
  7

 75
     0
147
1.0
148
0.0
149
0.0
100
AcDbLayout
  1
Model
 70
     1
 71
     0
 10
0.0
 20
0.0
 11
12.0
 21
9.0
 12
0.0
 22
0.0
 32
0.0
 14
0.0
 24
0.0
 34
0.0
 15
0.0
 25
0.0
 35
0.0
146
0.0
 13
0.0
 23
0.0
 33
0.0
 16
1.0
 26
0.0
 36
0.0
 17
0.0
 27
1.0
 37
0.0
 76
     0
330
747D
  0
LAYOUT
  5
17A97
102
{ACAD_XDICTIONARY
360
1940A
102
}
102
{ACAD_REACTORS
330
17A94
102
}
330
17A94
100
AcDbPlotSettings
  1

  2
Microsoft Office Document Image Writer
  4

  6

 40
0.0
 41
0.0
 42
0.0
 43
0.0
 44
0.0
 45
0.0
 46
0.0
 47
0.0
 48
0.0
 49
0.0
140
0.0
141
0.0
142
1.0
143
1.0
 70
   688
 72
     0
 73
     0
 74
     5
  7

 75
    16
147
1.0
148
0.0
149
0.0
100
AcDbLayout
  1
レイアウト1
 70
     0
 71
     1
 10
0.0
 20
0.0
 11
420.0
 21
297.0
 12
0.0
 22
0.0
 32
0.0
 14
1.000000000000000E+20
 24
1.000000000000000E+20
 34
1.000000000000000E+20
 15
-1.000000000000000E+20
 25
-1.000000000000000E+20
 35
-1.000000000000000E+20
146
0.0
 13
0.0
 23
0.0
 33
0.0
 16
1.0
 26
0.0
 36
0.0
 17
0.0
 27
1.0
 37
0.0
 76
     0
330
747A
  0
MLINESTYLE
  5
7480
102
{ACAD_REACTORS
330
7473
102
}
330
7473
100
AcDbMlineStyle
  2
STANDARD
 70
     0
  3

 62
     0
 51
90.0
 52
90.0
 71
     2
 49
0.5
 62
   256
  6
BYLAYER
 49
-0.5
 62
   256
  6
BYLAYER
  0
ACDBPLACEHOLDER
  5
17A91
102
{ACAD_REACTORS
330
17A90
102
}
330
17A90
  0
XRECORD
  5
19407
102
{ACAD_REACTORS
330
19405
102
}
330
19405
100
AcDbXrecord
280
     1
340
17A93
  0
XRECORD
  5
19406
102
{ACAD_REACTORS
330
19405
102
}
330
19405
100
AcDbXrecord
280
     1
340
17A92
  0
DICTIONARYVAR
  5
19402
102
{ACAD_REACTORS
330
19401
102
}
330
19401
100
DictionaryVariables
280
     0
  1
1
  0
DICTIONARYVAR
  5
19403
102
{ACAD_REACTORS
330
19401
102
}
330
19401
100
DictionaryVariables
280
     0
  1

  0
DICTIONARY
  5
19408
330
17A96
100
AcDbDictionary
280
     1
281
     1
  3
ACAD_XREC_ROUNDTRIP
360
19409
  0
DICTIONARY
  5
1940A
330
17A97
100
AcDbDictionary
280
     1
281
     1
  3
ACAD_XREC_ROUNDTRIP
360
1940B
  0
XRECORD
  5
19409
102
{ACAD_REACTORS
330
19408
102
}
330
19408
100
AcDbXrecord
280
     1
102
SHADEPLOT
 70
     0
102
SHADEPLOTRESLEVEL
 70
     2
102
SHADEPLOTCUSTOMDPI
 70
   300
  0
XRECORD
  5
1940B
102
{ACAD_REACTORS
330
1940A
102
}
330
1940A
100
AcDbXrecord
280
     1
102
SHADEPLOT
 70
     0
102
SHADEPLOTRESLEVEL
 70
     2
102
SHADEPLOTCUSTOMDPI
 70
   300
  0
ENDSEC
  0
EOF
