  0
SECTION
  2
HEADER
  9
$ACADVER
  1
AC1015
  9
$ACADMAINTVER
 70
    20
  9
$DWGCODEPAGE
  3
ANSI_932
  9
$INSBASE
 10
0.0
 20
0.0
 30
0.0
  9
$EXTMIN
 10
139.9999999999995
 20
-0.0000000000000909
 30
0.0
  9
$EXTMAX
 10
16307.2
 20
11409.6
 30
0.0
  9
$LIMMIN
 10
0.0
 20
0.0
  9
$LIMMAX
 10
16800.0
 20
11880.0
  9
$ORTHOMODE
 70
     0
  9
$REGENMODE
 70
     1
  9
$FILLMODE
 70
     1
  9
$QTEXTMODE
 70
     0
  9
$MIRRTEXT
 70
     1
  9
$LTSCALE
 40
20.0
  9
$ATTMODE
 70
     1
  9
$TEXTSIZE
 40
4.0
  9
$TRACEWID
 40
1.0
  9
$TEXTSTYLE
  7
STYLE1
  9
$CLAYER
  8
部品1
  9
$CELTYPE
  6
BYLAYER
  9
$CECOLOR
 62
   256
  9
$CELTSCALE
 40
50.0
  9
$DISPSILH
 70
     0
  9
$DIMSCALE
 40
40.0
  9
$DIMASZ
 40
2.5
  9
$DIMEXO
 40
0.5
  9
$DIMDLI
 40
7.0
  9
$DIMRND
 40
0.0
  9
$DIMDLE
 40
0.0
  9
$DIMEXE
 40
1.5
  9
$DIMTP
 40
0.0
  9
$DIMTM
 40
0.0
  9
$DIMTXT
 40
3.0
  9
$DIMCEN
 40
0.0
  9
$DIMTSZ
 40
0.0
  9
$DIMTOL
 70
     0
  9
$DIMLIM
 70
     0
  9
$DIMTIH
 70
     0
  9
$DIMTOH
 70
     0
  9
$DIMSE1
 70
     0
  9
$DIMSE2
 70
     0
  9
$DIMTAD
 70
     3
  9
$DIMZIN
 70
     8
  9
$DIMBLK
  1

  9
$DIMASO
 70
     1
  9
$DIMSHO
 70
     1
  9
$DIMPOST
  1

  9
$DIMAPOST
  1

  9
$DIMALT
 70
     0
  9
$DIMALTD
 70
     2
  9
$DIMALTF
 40
0.0394
  9
$DIMLFAC
 40
1.0
  9
$DIMTOFL
 70
     1
  9
$DIMTVP
 40
0.0
  9
$DIMTIX
 70
     1
  9
$DIMSOXD
 70
     0
  9
$DIMSAH
 70
     1
  9
$DIMBLK1
  1
DOTSMALL
  9
$DIMBLK2
  1
DOTSMALL
  9
$DIMSTYLE
  2
INABA_S40G
  9
$DIMCLRD
 70
     0
  9
$DIMCLRE
 70
     0
  9
$DIMCLRT
 70
     7
  9
$DIMTFAC
 40
1.0
  9
$DIMGAP
 40
1.0
  9
$DIMJUST
 70
     0
  9
$DIMSD1
 70
     0
  9
$DIMSD2
 70
     0
  9
$DIMTOLJ
 70
     1
  9
$DIMTZIN
 70
     0
  9
$DIMALTZ
 70
     0
  9
$DIMALTTZ
 70
     0
  9
$DIMUPT
 70
     0
  9
$DIMDEC
 70
     1
  9
$DIMTDEC
 70
     4
  9
$DIMALTU
 70
     2
  9
$DIMALTTD
 70
     2
  9
$DIMTXSTY
  7
STYLE1
  9
$DIMAUNIT
 70
     0
  9
$DIMADEC
 70
     0
  9
$DIMALTRND
 40
0.0
  9
$DIMAZIN
 70
     0
  9
$DIMDSEP
 70
    46
  9
$DIMATFIT
 70
     3
  9
$DIMFRAC
 70
     0
  9
$DIMLDRBLK
  1

  9
$DIMLUNIT
 70
     2
  9
$DIMLWD
 70
    -2
  9
$DIMLWE
 70
    -2
  9
$DIMTMOVE
 70
     0
  9
$LUNITS
 70
     2
  9
$LUPREC
 70
     1
  9
$SKETCHINC
 40
1.0
  9
$FILLETRAD
 40
3.0
  9
$AUNITS
 70
     0
  9
$AUPREC
 70
     0
  9
$MENU
  1
acad
  9
$ELEVATION
 40
0.0
  9
$PELEVATION
 40
0.0
  9
$THICKNESS
 40
0.0
  9
$LIMCHECK
 70
     0
  9
$CHAMFERA
 40
0.0
  9
$CHAMFERB
 40
0.0
  9
$CHAMFERC
 40
0.0
  9
$CHAMFERD
 40
0.0
  9
$SKPOLY
 70
     0
  9
$TDCREATE
 40
2451368.612993866
  9
$TDUCREATE
 40
2451368.237993866
  9
$TDUPDATE
 40
2455575.686385996
  9
$TDUUPDATE
 40
2455575.311385995
  9
$TDINDWG
 40
0.6743904398
  9
$TDUSRTIMER
 40
0.6743904398
  9
$USRTIMER
 70
     1
  9
$ANGBASE
 50
0.0
  9
$ANGDIR
 70
     0
  9
$PDMODE
 70
     3
  9
$PDSIZE
 40
2.0
  9
$PLINEWID
 40
0.0
  9
$SPLFRAME
 70
     0
  9
$SPLINETYPE
 70
     6
  9
$SPLINESEGS
 70
     8
  9
$HANDSEED
  5
193D9
  9
$SURFTAB1
 70
     6
  9
$SURFTAB2
 70
     6
  9
$SURFTYPE
 70
     6
  9
$SURFU
 70
     6
  9
$SURFV
 70
     6
  9
$UCSBASE
  2

  9
$UCSNAME
  2

  9
$UCSORG
 10
0.0
 20
0.0
 30
0.0
  9
$UCSXDIR
 10
1.0
 20
0.0
 30
0.0
  9
$UCSYDIR
 10
0.0
 20
1.0
 30
0.0
  9
$UCSORTHOREF
  2

  9
$UCSORTHOVIEW
 70
     0
  9
$UCSORGTOP
 10
0.0
 20
0.0
 30
0.0
  9
$UCSORGBOTTOM
 10
0.0
 20
0.0
 30
0.0
  9
$UCSORGLEFT
 10
0.0
 20
0.0
 30
0.0
  9
$UCSORGRIGHT
 10
0.0
 20
0.0
 30
0.0
  9
$UCSORGFRONT
 10
0.0
 20
0.0
 30
0.0
  9
$UCSORGBACK
 10
0.0
 20
0.0
 30
0.0
  9
$PUCSBASE
  2

  9
$PUCSNAME
  2

  9
$PUCSORG
 10
0.0
 20
0.0
 30
0.0
  9
$PUCSXDIR
 10
1.0
 20
0.0
 30
0.0
  9
$PUCSYDIR
 10
0.0
 20
1.0
 30
0.0
  9
$PUCSORTHOREF
  2

  9
$PUCSORTHOVIEW
 70
     0
  9
$PUCSORGTOP
 10
0.0
 20
0.0
 30
0.0
  9
$PUCSORGBOTTOM
 10
0.0
 20
0.0
 30
0.0
  9
$PUCSORGLEFT
 10
0.0
 20
0.0
 30
0.0
  9
$PUCSORGRIGHT
 10
0.0
 20
0.0
 30
0.0
  9
$PUCSORGFRONT
 10
0.0
 20
0.0
 30
0.0
  9
$PUCSORGBACK
 10
0.0
 20
0.0
 30
0.0
  9
$USERI1
 70
     0
  9
$USERI2
 70
     0
  9
$USERI3
 70
     0
  9
$USERI4
 70
     0
  9
$USERI5
 70
     0
  9
$USERR1
 40
0.0
  9
$USERR2
 40
0.0
  9
$USERR3
 40
0.0
  9
$USERR4
 40
0.0
  9
$USERR5
 40
0.0
  9
$WORLDVIEW
 70
     1
  9
$SHADEDGE
 70
     3
  9
$SHADEDIF
 70
    70
  9
$TILEMODE
 70
     1
  9
$MAXACTVP
 70
    16
  9
$PINSBASE
 10
0.0
 20
0.0
 30
0.0
  9
$PLIMCHECK
 70
     0
  9
$PEXTMIN
 10
1.000000000000000E+20
 20
1.000000000000000E+20
 30
1.000000000000000E+20
  9
$PEXTMAX
 10
-1.000000000000000E+20
 20
-1.000000000000000E+20
 30
-1.000000000000000E+20
  9
$PLIMMIN
 10
0.0
 20
0.0
  9
$PLIMMAX
 10
420.0
 20
297.0
  9
$UNITMODE
 70
     0
  9
$VISRETAIN
 70
     0
  9
$PLINEGEN
 70
     0
  9
$PSLTSCALE
 70
     0
  9
$TREEDEPTH
 70
  3020
  9
$CMLSTYLE
  2
STANDARD
  9
$CMLJUST
 70
     0
  9
$CMLSCALE
 40
1.0
  9
$PROXYGRAPHICS
 70
     1
  9
$MEASUREMENT
 70
     1
  9
$CELWEIGHT
370
    -1
  9
$ENDCAPS
280
     0
  9
$JOINSTYLE
280
     0
  9
$LWDISPLAY
290
     0
  9
$INSUNITS
 70
     0
  9
$HYPERLINKBASE
  1

  9
$STYLESHEET
  1

  9
$XEDIT
290
     1
  9
$CEPSNTYPE
380
     0
  9
$PSTYLEMODE
290
     1
  9
$FINGERPRINTGUID
  2
{8C62BEB7-5C92-4764-B699-8E5CF5FDF36C}
  9
$VERSIONGUID
  2
{021FE00E-51AD-42C6-9296-47518BF4CCE5}
  9
$EXTNAMES
290
     1
  9
$PSVPSCALE
 40
0.0
  9
$OLESTARTUP
290
     0
  0
ENDSEC
  0
SECTION
  2
CLASSES
  0
CLASS
  1
ACDBDICTIONARYWDFLT
  2
AcDbDictionaryWithDefault
  3
ObjectDBX Classes
 90
        0
280
     0
281
     0
  0
CLASS
  1
DICTIONARYVAR
  2
AcDbDictionaryVar
  3
ObjectDBX Classes
 90
        0
280
     0
281
     0
  0
CLASS
  1
ACDBPLACEHOLDER
  2
AcDbPlaceHolder
  3
ObjectDBX Classes
 90
        0
280
     0
281
     0
  0
CLASS
  1
LAYOUT
  2
AcDbLayout
  3
ObjectDBX Classes
 90
        0
280
     0
281
     0
  0
ENDSEC
  0
SECTION
  2
TABLES
  0
TABLE
  2
VPORT
  5
746D
330
0
100
AcDbSymbolTable
 70
     2
  0
VPORT
  5
193D1
330
746D
100
AcDbSymbolTableRecord
100
AcDbViewportTableRecord
  2
*Active
 70
     0
 10
0.0
 20
0.0
 11
1.0
 21
1.0
 12
8223.761025238502
 22
6348.703162895247
 13
0.0
 23
0.0
 14
10.0
 24
10.0
 15
10.0
 25
10.0
 16
0.0
 26
0.0
 36
1.0
 17
0.0
 27
0.0
 37
0.0
 40
12805.60689082044
 41
1.525925925925925
 42
50.0
 43
0.0
 44
0.0
 50
0.0
 51
0.0
 71
     0
 72
     0
 73
     1
 74
     0
 75
     0
 76
     0
 77
     0
 78
     0
281
     0
 65
     1
110
0.0
120
0.0
130
0.0
111
1.0
121
0.0
131
0.0
112
0.0
122
1.0
132
0.0
 79
     0
146
0.0
  0
ENDTAB
  0
TABLE
  2
LTYPE
  5
746A
330
0
100
AcDbSymbolTable
 70
     4
  0
LTYPE
  5
7477
330
746A
100
AcDbSymbolTableRecord
100
AcDbLinetypeTableRecord
  2
BYBLOCK
 70
     0
  3

 72
    65
 73
     0
 40
0.0
  0
LTYPE
  5
7478
330
746A
100
AcDbSymbolTableRecord
100
AcDbLinetypeTableRecord
  2
BYLAYER
 70
     0
  3

 72
    65
 73
     0
 40
0.0
  0
LTYPE
  5
7479
330
746A
100
AcDbSymbolTableRecord
100
AcDbLinetypeTableRecord
  2
CONTINUOUS
 70
     0
  3
Solid line
 72
    65
 73
     0
 40
0.0
  0
LTYPE
  5
7816
330
746A
100
AcDbSymbolTableRecord
100
AcDbLinetypeTableRecord
  2
CENTER
 70
     0
  3
____ _ ____ _ ____ _ ____ _ ____ _ ____ _ ____ 
 72
    65
 73
     4
 40
2.0
 49
1.25
 74
     0
 49
-0.25
 74
     0
 49
0.25
 74
     0
 49
-0.25
 74
     0
  0
LTYPE
  5
781A
330
746A
100
AcDbSymbolTableRecord
100
AcDbLinetypeTableRecord
  2
HIDDEN
 70
     0
  3
__ __ __ __ __ __ __ __ __ __ __ __ __ __ __ __
 72
    65
 73
     2
 40
0.375
 49
0.25
 74
     0
 49
-0.125
 74
     0
  0
LTYPE
  5
781B
330
746A
100
AcDbSymbolTableRecord
100
AcDbLinetypeTableRecord
  2
PHANTOM
 70
     0
  3
______  __  __  ______  __  __  ______  __  __ 
 72
    65
 73
     6
 40
2.5
 49
1.25
 74
     0
 49
-0.25
 74
     0
 49
0.25
 74
     0
 49
-0.25
 74
     0
 49
0.25
 74
     0
 49
-0.25
 74
     0
  0
ENDTAB
  0
TABLE
  2
LAYER
  5
7467
102
{ACAD_XDICTIONARY
360
18006
102
}
330
0
100
AcDbSymbolTable
 70
    12
  0
LAYER
  5
7474
330
7467
100
AcDbSymbolTableRecord
100
AcDbLayerTableRecord
  2
0
 70
     0
 62
     7
  6
CONTINUOUS
370
    -3
390
17E6A
  0
LAYER
  5
DEB2
330
7467
100
AcDbSymbolTableRecord
100
AcDbLayerTableRecord
  2
センター
 70
     0
 62
     3
  6
CENTER
370
    -3
390
17E6A
  0
LAYER
  5
DEB3
330
7467
100
AcDbSymbolTableRecord
100
AcDbLayerTableRecord
  2
寸法
 70
     0
 62
     4
  6
CONTINUOUS
370
    -3
390
17E6A
  0
LAYER
  5
DEB4
330
7467
100
AcDbSymbolTableRecord
100
AcDbLayerTableRecord
  2
部品1
 70
     0
 62
     7
  6
CONTINUOUS
370
    -3
390
17E6A
  0
LAYER
  5
DEB5
330
7467
100
AcDbSymbolTableRecord
100
AcDbLayerTableRecord
  2
補助
 70
     0
 62
    -1
  6
CONTINUOUS
370
    -3
390
17E6A
  0
LAYER
  5
DEB6
330
7467
100
AcDbSymbolTableRecord
100
AcDbLayerTableRecord
  2
文字
 70
     0
 62
     7
  6
CONTINUOUS
370
    -3
390
17E6A
  0
LAYER
  5
F255
330
7467
100
AcDbSymbolTableRecord
100
AcDbLayerTableRecord
  2
DEFPOINTS
 70
     0
 62
     7
  6
CONTINUOUS
290
     0
370
    -3
390
17E6A
  0
LAYER
  5
10B54
330
7467
100
AcDbSymbolTableRecord
100
AcDbLayerTableRecord
  2
仕様書枠
 70
     0
 62
   230
  6
CONTINUOUS
370
    -3
390
17E6A
  0
LAYER
  5
11729
330
7467
100
AcDbSymbolTableRecord
100
AcDbLayerTableRecord
  2
Ｇ．Ｌ
 70
     0
 62
    30
  6
CONTINUOUS
370
    -3
390
17E6A
  0
LAYER
  5
1173F
330
7467
100
AcDbSymbolTableRecord
100
AcDbLayerTableRecord
  2
細線
 70
     0
 62
     5
  6
CONTINUOUS
370
    -3
390
17E6A
  0
LAYER
  5
12CC4
330
7467
100
AcDbSymbolTableRecord
100
AcDbLayerTableRecord
  2
想像線
 70
     0
 62
     6
  6
PHANTOM
370
    -3
390
17E6A
  0
LAYER
  5
142E2
330
7467
100
AcDbSymbolTableRecord
100
AcDbLayerTableRecord
  2
破線
 70
     0
 62
     2
  6
HIDDEN
370
    -3
390
17E6A
  0
ENDTAB
  0
TABLE
  2
STYLE
  5
7468
330
0
100
AcDbSymbolTable
 70
     4
  0
STYLE
  5
7475
330
7468
100
AcDbSymbolTableRecord
100
AcDbTextStyleTableRecord
  2
STANDARD
 70
     0
 40
0.0
 41
1.0
 50
0.0
 71
     0
 42
4.0
  3
txt
  4
C:\AutoCAD LT\bigfont.shx
  0
STYLE
  5
F706
330
7468
100
AcDbSymbolTableRecord
100
AcDbTextStyleTableRecord
  2
STYLE1
 70
     0
 40
0.0
 41
1.0
 50
0.0
 71
     0
 42
4.0
  3
isocp.shx
  4
bigfont.shx
  0
STYLE
  5
103BF
330
7468
100
AcDbSymbolTableRecord
100
AcDbTextStyleTableRecord
  2
STYLE2
 70
     0
 40
0.0
 41
1.0
 50
0.0
 71
     0
 42
100.0
  3
MS PGothic.ttf
  4

1001
ACAD
1000
MS PGothic
1071
    32818
  0
STYLE
  5
18A7C
330
7468
100
AcDbSymbolTableRecord
100
AcDbTextStyleTableRecord
  2
STYLE3
 70
     0
 40
0.0
 41
1.0
 50
0.0
 71
     0
 42
100.0
  3

  4

1001
ACAD
1000
DFPGothic-EB
1071
    32818
  0
ENDTAB
  0
TABLE
  2
VIEW
  5
746B
330
0
100
AcDbSymbolTable
 70
     0
  0
ENDTAB
  0
TABLE
  2
UCS
  5
746C
330
0
100
AcDbSymbolTable
 70
     0
  0
ENDTAB
  0
TABLE
  2
APPID
  5
746E
330
0
100
AcDbSymbolTable
 70
     6
  0
APPID
  5
7476
330
746E
100
AcDbSymbolTableRecord
100
AcDbRegAppTableRecord
  2
ACAD
 70
     0
  0
APPID
  5
DEA9
330
746E
100
AcDbSymbolTableRecord
100
AcDbRegAppTableRecord
  2
CONTENTBLOCKICON
 70
     0
  0
APPID
  5
DEAA
330
746E
100
AcDbSymbolTableRecord
100
AcDbRegAppTableRecord
  2
CONTENTBLOCKDESCRIPTION
 70
     0
  0
APPID
  5
E71D
330
746E
100
AcDbSymbolTableRecord
100
AcDbRegAppTableRecord
  2
CONTENTTABDATA
 70
     0
  0
APPID
  5
E71E
330
746E
100
AcDbSymbolTableRecord
100
AcDbRegAppTableRecord
  2
CONTENTCURRENTTAB
 70
     0
  0
APPID
  5
F3BA
330
746E
100
AcDbSymbolTableRecord
100
AcDbRegAppTableRecord
  2
DRAWINGVARIABLESXDATA
 70
     0
  0
ENDTAB
  0
TABLE
  2
DIMSTYLE
  5
746F
330
0
100
AcDbSymbolTable
 70
     5
100
AcDbDimStyleTable
 71
     0
  0
DIMSTYLE
105
7484
330
746F
100
AcDbSymbolTableRecord
100
AcDbDimStyleTableRecord
  2
JIS
 70
     0
 41
2.5
 42
1.0
 43
7.0
 44
1.0
 73
     0
 74
     0
 77
     1
 78
     8
140
2.5
141
0.0
143
0.0394
147
0.0
172
     1
174
     1
175
     1
340
7475
  0
DIMSTYLE
105
F71F
102
{ACAD_REACTORS
330
182F4
330
182F8
330
18337
330
18338
330
18339
330
18374
330
18382
330
18491
330
18492
330
1849D
330
184A1
330
184A2
330
184D9
330
184DD
330
184DE
330
184DF
330
184E0
330
184FF
330
1850B
330
1850C
330
1850D
330
1850E
330
1850F
330
18510
330
1852E
330
1852F
330
18530
330
18531
330
1906C
330
19073
102
}
330
746F
100
AcDbSymbolTableRecord
100
AcDbDimStyleTableRecord
  2
INABA_S40G
 70
     0
 40
40.0
 41
2.5
 42
0.5
 43
7.0
 44
1.5
 73
     0
 74
     0
 77
     3
 78
     8
140
3.0
141
0.0
143
0.0394
147
1.0
172
     1
173
     1
174
     1
178
     7
271
     1
340
F706
341
F770
343
F770
344
F770
  0
DIMSTYLE
105
18005
102
{ACAD_REACTORS
330
18DD1
330
19072
102
}
330
746F
100
AcDbSymbolTableRecord
100
AcDbDimStyleTableRecord
  2
INABA_S40
 70
     0
 40
40.0
 41
2.5
 42
0.5
 43
7.0
 44
1.5
 73
     0
 74
     0
 77
     3
 78
     8
140
3.0
141
0.0
143
0.0394
147
1.0
172
     1
173
     1
174
     1
175
     1
178
     7
340
7475
  0
DIMSTYLE
105
18A7D
330
746F
100
AcDbSymbolTableRecord
100
AcDbDimStyleTableRecord
  2
INABA_S50G
 70
     0
 41
125.0
 42
25.0
 43
7.0
 44
75.0
 73
     0
 74
     0
 77
     3
 78
     8
140
150.0
141
0.0
143
0.0394
147
25.0
172
     1
173
     1
174
     1
175
     1
178
     7
271
     1
340
F706
341
F770
343
F770
344
F770
  0
DIMSTYLE
105
19367
330
746F
100
AcDbSymbolTableRecord
100
AcDbDimStyleTableRecord
  2
INABA_S20G
 70
     0
 40
20.0
 41
2.5
 42
0.5
 43
7.0
 44
1.5
 73
     0
 74
     0
 77
     3
 78
     8
140
3.0
141
0.0
143
0.0394
147
1.0
172
     1
173
     1
174
     1
178
     7
271
     1
340
F706
341
F770
343
F770
344
F770
  0
ENDTAB
  0
TABLE
  2
BLOCK_RECORD
  5
7466
330
0
100
AcDbSymbolTable
 70
    34
  0
BLOCK_RECORD
  5
747D
330
7466
100
AcDbSymbolTableRecord
100
AcDbBlockTableRecord
  2
*MODEL_SPACE
340
17E6F
  0
BLOCK_RECORD
  5
747A
330
7466
100
AcDbSymbolTableRecord
100
AcDbBlockTableRecord
  2
*PAPER_SPACE
340
17E70
  0
BLOCK_RECORD
  5
F770
330
7466
100
AcDbSymbolTableRecord
100
AcDbBlockTableRecord
  2
_DOTSMALL
340
0
102
{BLKREFS
331
18B70
331
18B71
331
18B79
331
18B7A
331
18B82
331
18B83
331
18B8C
331
18B8D
331
18B96
331
18B97
331
18BA1
331
18BA2
331
18BAA
331
18BAB
331
18BB3
331
18BB4
331
18BBD
331
18BBE
331
18BC6
331
18BC7
331
18BCF
331
18BD0
331
18C57
331
18C58
331
18C62
331
18C63
331
18C6B
331
18C6C
331
18C76
331
18C77
331
18C7F
331
18C80
331
18C88
331
18C89
331
18C91
331
18C92
331
192D9
331
192DA
331
192ED
331
192EE
331
19301
331
19302
331
1930A
331
1930B
331
19315
331
19316
331
1931E
331
1931F
331
19327
331
19328
331
19330
331
19331
331
19339
331
1933A
331
19344
331
19345
331
1934D
331
1934E
331
19358
331
19359
102
}
  0
BLOCK_RECORD
  5
17E77
330
7466
100
AcDbSymbolTableRecord
100
AcDbBlockTableRecord
  2
_DOT
340
0
102
{BLKREFS
331
192E4
331
192E5
331
192F6
331
192F7
102
}
  0
BLOCK_RECORD
  5
18592
330
7466
100
AcDbSymbolTableRecord
100
AcDbBlockTableRecord
  2
*D2
340
0
  0
BLOCK_RECORD
  5
1859E
330
7466
100
AcDbSymbolTableRecord
100
AcDbBlockTableRecord
  2
*D3
340
0
  0
BLOCK_RECORD
  5
185AA
330
7466
100
AcDbSymbolTableRecord
100
AcDbBlockTableRecord
  2
*D4
340
0
  0
BLOCK_RECORD
  5
185B6
330
7466
100
AcDbSymbolTableRecord
100
AcDbBlockTableRecord
  2
*D5
340
0
  0
BLOCK_RECORD
  5
185C4
330
7466
100
AcDbSymbolTableRecord
100
AcDbBlockTableRecord
  2
*D6
340
0
  0
BLOCK_RECORD
  5
185D0
330
7466
100
AcDbSymbolTableRecord
100
AcDbBlockTableRecord
  2
*D7
340
0
  0
BLOCK_RECORD
  5
185DE
330
7466
100
AcDbSymbolTableRecord
100
AcDbBlockTableRecord
  2
*D8
340
0
  0
BLOCK_RECORD
  5
18604
330
7466
100
AcDbSymbolTableRecord
100
AcDbBlockTableRecord
  2
*D9
340
0
  0
BLOCK_RECORD
  5
18612
330
7466
100
AcDbSymbolTableRecord
100
AcDbBlockTableRecord
  2
*D10
340
0
  0
BLOCK_RECORD
  5
1861E
330
7466
100
AcDbSymbolTableRecord
100
AcDbBlockTableRecord
  2
*D11
340
0
  0
BLOCK_RECORD
  5
1862C
330
7466
100
AcDbSymbolTableRecord
100
AcDbBlockTableRecord
  2
*D12
340
0
  0
BLOCK_RECORD
  5
18638
330
7466
100
AcDbSymbolTableRecord
100
AcDbBlockTableRecord
  2
*D13
340
0
  0
BLOCK_RECORD
  5
18644
330
7466
100
AcDbSymbolTableRecord
100
AcDbBlockTableRecord
  2
*D14
340
0
  0
BLOCK_RECORD
  5
1865C
330
7466
100
AcDbSymbolTableRecord
100
AcDbBlockTableRecord
  2
*D15
340
0
  0
BLOCK_RECORD
  5
18668
330
7466
100
AcDbSymbolTableRecord
100
AcDbBlockTableRecord
  2
*D16
340
0
  0
BLOCK_RECORD
  5
18676
330
7466
100
AcDbSymbolTableRecord
100
AcDbBlockTableRecord
  2
*D17
340
0
  0
BLOCK_RECORD
  5
18682
330
7466
100
AcDbSymbolTableRecord
100
AcDbBlockTableRecord
  2
*D18
340
0
  0
BLOCK_RECORD
  5
18690
330
7466
100
AcDbSymbolTableRecord
100
AcDbBlockTableRecord
  2
*D19
340
0
  0
BLOCK_RECORD
  5
1869C
330
7466
100
AcDbSymbolTableRecord
100
AcDbBlockTableRecord
  2
*D20
340
0
  0
BLOCK_RECORD
  5
186A8
330
7466
100
AcDbSymbolTableRecord
100
AcDbBlockTableRecord
  2
*D21
340
0
  0
BLOCK_RECORD
  5
186B5
330
7466
100
AcDbSymbolTableRecord
100
AcDbBlockTableRecord
  2
*D22
340
0
  0
BLOCK_RECORD
  5
186C1
330
7466
100
AcDbSymbolTableRecord
100
AcDbBlockTableRecord
  2
*D23
340
0
  0
BLOCK_RECORD
  5
186CD
330
7466
100
AcDbSymbolTableRecord
100
AcDbBlockTableRecord
  2
*D24
340
0
  0
BLOCK_RECORD
  5
186DB
330
7466
100
AcDbSymbolTableRecord
100
AcDbBlockTableRecord
  2
*D25
340
0
  0
BLOCK_RECORD
  5
186E8
330
7466
100
AcDbSymbolTableRecord
100
AcDbBlockTableRecord
  2
*D26
340
0
  0
BLOCK_RECORD
  5
186F5
330
7466
100
AcDbSymbolTableRecord
100
AcDbBlockTableRecord
  2
*D27
340
0
  0
BLOCK_RECORD
  5
18701
330
7466
100
AcDbSymbolTableRecord
100
AcDbBlockTableRecord
  2
*D28
340
0
  0
BLOCK_RECORD
  5
1870D
330
7466
100
AcDbSymbolTableRecord
100
AcDbBlockTableRecord
  2
*D29
340
0
  0
BLOCK_RECORD
  5
18E3C
330
7466
100
AcDbSymbolTableRecord
100
AcDbBlockTableRecord
  2
*D30
340
0
  0
BLOCK_RECORD
  5
1917F
330
7466
100
AcDbSymbolTableRecord
100
AcDbBlockTableRecord
  2
*D31
340
0
  0
BLOCK_RECORD
  5
1918B
330
7466
100
AcDbSymbolTableRecord
100
AcDbBlockTableRecord
  2
*D32
340
0
  0
BLOCK_RECORD
  5
19199
330
7466
100
AcDbSymbolTableRecord
100
AcDbBlockTableRecord
  2
*D33
340
0
  0
ENDTAB
  0
ENDSEC
  0
SECTION
  2
BLOCKS
  0
BLOCK
  5
7489
330
747D
100
AcDbEntity
  8
0
100
AcDbBlockBegin
  2
*MODEL_SPACE
 70
     0
 10
0.0
 20
0.0
 30
0.0
  3
*MODEL_SPACE
  1

  0
ENDBLK
  5
748A
330
747D
100
AcDbEntity
  8
0
100
AcDbBlockEnd
  0
BLOCK
  5
7487
330
747A
100
AcDbEntity
 67
     1
  8
0
100
AcDbBlockBegin
  2
*PAPER_SPACE
 70
     0
 10
0.0
 20
0.0
 30
0.0
  3
*PAPER_SPACE
  1

  0
ENDBLK
  5
7488
330
747A
100
AcDbEntity
 67
     1
  8
0
100
AcDbBlockEnd
  0
BLOCK
  5
F771
330
F770
100
AcDbEntity
  8
0
 48
50.0
100
AcDbBlockBegin
  2
_DOTSMALL
 70
     0
 10
0.0
 20
0.0
 30
0.0
  3
_DOTSMALL
  1

  0
LWPOLYLINE
  5
F772
330
F770
100
AcDbEntity
  8
0
  6
ByBlock
 62
     0
 48
50.0
100
AcDbPolyline
 90
        2
 70
     1
 43
0.5
 10
-0.0625
 20
0.0
 42
1.0
 10
0.0625
 20
0.0
 42
1.0
  0
ENDBLK
  5
F776
330
F770
100
AcDbEntity
  8
0
 48
50.0
100
AcDbBlockEnd
  0
BLOCK
  5
17E78
330
17E77
100
AcDbEntity
  8
0
 48
50.0
100
AcDbBlockBegin
  2
_DOT
 70
     0
 10
0.0
 20
0.0
 30
0.0
  3
_DOT
  1

  0
LWPOLYLINE
  5
17E79
330
17E77
100
AcDbEntity
  8
0
  6
ByBlock
 62
     0
 48
50.0
100
AcDbPolyline
 90
        2
 70
     1
 43
0.5
 10
-0.25
 20
0.0
 42
1.0
 10
0.25
 20
0.0
 42
1.0
  0
LINE
  5
17E7A
330
17E77
100
AcDbEntity
  8
0
  6
ByBlock
 62
     0
 48
50.0
100
AcDbLine
 10
-0.5
 20
0.0
 30
0.0
 11
-1.0
 21
0.0
 31
0.0
  0
ENDBLK
  5
17E7B
330
17E77
100
AcDbEntity
  8
0
 48
50.0
100
AcDbBlockEnd
  0
BLOCK
  5
1859C
330
18592
100
AcDbEntity
  8
0
 48
50.0
100
AcDbBlockBegin
  2
*D2
 70
     1
 10
0.0
 20
0.0
 30
0.0
  3
*D2
  1

  0
LINE
  5
18C8E
330
18592
100
AcDbEntity
  8
寸法
 62
     0
 48
50.0
370
    -2
100
AcDbLine
 10
3850.782834049547
 20
1825.776364073606
 30
0.0
 11
3661.282830802914
 21
1825.776364073606
 31
0.0
  0
LINE
  5
18C8F
330
18592
100
AcDbEntity
  8
寸法
 62
     0
 48
50.0
370
    -2
100
AcDbLine
 10
3825.782834049547
 20
2025.776364073607
 30
0.0
 11
3661.282830802914
 21
2025.776364073607
 31
0.0
  0
LINE
  5
18C90
330
18592
100
AcDbEntity
  8
寸法
 62
     0
 48
50.0
370
    -2
100
AcDbLine
 10
3721.282830802914
 20
1825.776364073606
 30
0.0
 11
3721.282830802914
 21
2025.776364073607
 31
0.0
  0
INSERT
  5
18C91
330
18592
100
AcDbEntity
  8
寸法
 62
     0
 48
50.0
370
    -2
100
AcDbBlockReference
  2
_DOTSMALL
 10
3721.282830802914
 20
1825.776364073606
 30
0.0
 41
100.0
 42
100.0
 43
100.0
 50
270.0
  0
INSERT
  5
18C92
330
18592
100
AcDbEntity
  8
寸法
 62
     0
 48
50.0
370
    -2
100
AcDbBlockReference
  2
_DOTSMALL
 10
3721.282830802914
 20
2025.776364073607
 30
0.0
 41
100.0
 42
100.0
 43
100.0
 50
90.0
  0
MTEXT
  5
18C93
330
18592
100
AcDbEntity
  8
寸法
 62
     7
 48
50.0
100
AcDbMText
 10
3621.271019779291
 20
1925.776364073607
 30
0.0
 40
120.0
 41
0.0
 71
     5
 72
     1
  1
\A1;200
  7
STYLE1
 11
0.0000000000000001
 21
1.0
 31
0.0
 73
     1
 44
1.0
1001
ACAD
1000
MTEXTBEGIN
1070
    73
1070
     1
1070
    44
1040
1.0
1070
    74
1070
     0
1000
MTEXTEND
  0
POINT
  5
18C94
330
18592
100
AcDbEntity
  8
DEFPOINTS
 62
     0
 48
50.0
100
AcDbPoint
 10
3870.782834049548
 20
1825.776364073606
 30
0.0
  0
POINT
  5
18C95
330
18592
100
AcDbEntity
  8
DEFPOINTS
 62
     0
 48
50.0
100
AcDbPoint
 10
3845.782834049547
 20
2025.776364073607
 30
0.0
  0
POINT
  5
18C96
330
18592
100
AcDbEntity
  8
DEFPOINTS
 62
     0
 48
50.0
100
AcDbPoint
 10
3721.282830802914
 20
2025.776364073607
 30
0.0
  0
ENDBLK
  5
1859D
330
18592
100
AcDbEntity
  8
0
 48
50.0
100
AcDbBlockEnd
  0
BLOCK
  5
185A8
330
1859E
100
AcDbEntity
  8
0
 48
50.0
100
AcDbBlockBegin
  2
*D3
 70
     1
 10
0.0
 20
0.0
 30
0.0
  3
*D3
  1

  0
LINE
  5
18C85
330
1859E
100
AcDbEntity
  8
寸法
 62
     0
 48
50.0
370
    -2
100
AcDbLine
 10
4070.782834049547
 20
1805.776364073603
 30
0.0
 11
4070.782834049547
 21
1479.729034773229
 31
0.0
  0
LINE
  5
18C86
330
1859E
100
AcDbEntity
  8
寸法
 62
     0
 48
50.0
370
    -2
100
AcDbLine
 10
3870.782834049548
 20
1805.776364073606
 30
0.0
 11
3870.782834049548
 21
1479.729034773229
 31
0.0
  0
LINE
  5
18C87
330
1859E
100
AcDbEntity
  8
寸法
 62
     0
 48
50.0
370
    -2
100
AcDbLine
 10
4070.782834049547
 20
1539.729034773229
 30
0.0
 11
3870.782834049548
 21
1539.729034773229
 31
0.0
  0
INSERT
  5
18C88
330
1859E
100
AcDbEntity
  8
寸法
 62
     0
 48
50.0
370
    -2
100
AcDbBlockReference
  2
_DOTSMALL
 10
4070.782834049547
 20
1539.729034773229
 30
0.0
 41
100.0
 42
100.0
 43
100.0
  0
INSERT
  5
18C89
330
1859E
100
AcDbEntity
  8
寸法
 62
     0
 48
50.0
370
    -2
100
AcDbBlockReference
  2
_DOTSMALL
 10
3870.782834049548
 20
1539.729034773229
 30
0.0
 41
100.0
 42
100.0
 43
100.0
 50
180.0
  0
MTEXT
  5
18C8A
330
1859E
100
AcDbEntity
  8
寸法
 62
     7
 48
50.0
100
AcDbMText
 10
3970.782834049547
 20
1639.740845796851
 30
0.0
 40
120.0
 41
0.0
 71
     5
 72
     1
  1
\A1;200
  7
STYLE1
 73
     1
 44
1.0
1001
ACAD
1000
MTEXTBEGIN
1070
    73
1070
     1
1070
    44
1040
1.0
1070
    74
1070
     0
1000
MTEXTEND
  0
POINT
  5
18C8B
330
1859E
100
AcDbEntity
  8
DEFPOINTS
 62
     0
 48
50.0
100
AcDbPoint
 10
4070.782834049547
 20
1825.776364073603
 30
0.0
  0
POINT
  5
18C8C
330
1859E
100
AcDbEntity
  8
DEFPOINTS
 62
     0
 48
50.0
100
AcDbPoint
 10
3870.782834049548
 20
1825.776364073606
 30
0.0
  0
POINT
  5
18C8D
330
1859E
100
AcDbEntity
  8
DEFPOINTS
 62
     0
 48
50.0
100
AcDbPoint
 10
3870.782834049548
 20
1539.729034773229
 30
0.0
  0
ENDBLK
  5
185A9
330
1859E
100
AcDbEntity
  8
0
 48
50.0
100
AcDbBlockEnd
  0
BLOCK
  5
185B4
330
185AA
100
AcDbEntity
  8
0
 48
50.0
100
AcDbBlockBegin
  2
*D4
 70
     1
 10
0.0
 20
0.0
 30
0.0
  3
*D4
  1

  0
LINE
  5
18C7C
330
185AA
100
AcDbEntity
  8
寸法
 62
     0
 48
50.0
370
    -2
100
AcDbLine
 10
3893.282834049547
 20
4520.77636407361
 30
0.0
 11
3893.282834049547
 21
5174.99049792233
 31
0.0
  0
LINE
  5
18C7D
330
185AA
100
AcDbEntity
  8
寸法
 62
     0
 48
50.0
370
    -2
100
AcDbLine
 10
6623.28283404955
 20
4520.776364073608
 30
0.0
 11
6623.28283404955
 21
5174.99049792233
 31
0.0
  0
LINE
  5
18C7E
330
185AA
100
AcDbEntity
  8
寸法
 62
     0
 48
50.0
370
    -2
100
AcDbLine
 10
3893.282834049547
 20
5114.99049792233
 30
0.0
 11
6623.28283404955
 21
5114.99049792233
 31
0.0
  0
INSERT
  5
18C7F
330
185AA
100
AcDbEntity
  8
寸法
 62
     0
 48
50.0
370
    -2
100
AcDbBlockReference
  2
_DOTSMALL
 10
3893.282834049547
 20
5114.99049792233
 30
0.0
 41
100.0
 42
100.0
 43
100.0
 50
180.0
  0
INSERT
  5
18C80
330
185AA
100
AcDbEntity
  8
寸法
 62
     0
 48
50.0
370
    -2
100
AcDbBlockReference
  2
_DOTSMALL
 10
6623.28283404955
 20
5114.99049792233
 30
0.0
 41
100.0
 42
100.0
 43
100.0
  0
MTEXT
  5
18C81
330
185AA
100
AcDbEntity
  8
寸法
 62
     7
 48
50.0
100
AcDbMText
 10
5258.282834049547
 20
5215.002308945952
 30
0.0
 40
120.0
 41
0.0
 71
     5
 72
     1
  1
\A1;2730
  7
STYLE1
 73
     1
 44
1.0
1001
ACAD
1000
MTEXTBEGIN
1070
    73
1070
     1
1070
    44
1040
1.0
1070
    74
1070
     0
1000
MTEXTEND
  0
POINT
  5
18C82
330
185AA
100
AcDbEntity
  8
DEFPOINTS
 62
     0
 48
50.0
100
AcDbPoint
 10
3893.282834049547
 20
4500.77636407361
 30
0.0
  0
POINT
  5
18C83
330
185AA
100
AcDbEntity
  8
DEFPOINTS
 62
     0
 48
50.0
100
AcDbPoint
 10
6623.28283404955
 20
4500.776364073608
 30
0.0
  0
POINT
  5
18C84
330
185AA
100
AcDbEntity
  8
DEFPOINTS
 62
     0
 48
50.0
100
AcDbPoint
 10
6623.28283404955
 20
5114.99049792233
 30
0.0
  0
ENDBLK
  5
185B5
330
185AA
100
AcDbEntity
  8
0
 48
50.0
100
AcDbBlockEnd
  0
BLOCK
  5
185C2
330
185B6
100
AcDbEntity
  8
0
 48
50.0
100
AcDbBlockBegin
  2
*D5
 70
     1
 10
0.0
 20
0.0
 30
0.0
  3
*D5
  1

  0
LINE
  5
18C71
330
185B6
100
AcDbEntity
  8
寸法
 62
     0
 48
50.0
370
    -2
100
AcDbLine
 10
3943.282834049547
 20
4520.776364073611
 30
0.0
 11
3943.282834049547
 21
4965.396623500879
 31
0.0
  0
LINE
  5
18C72
330
185B6
100
AcDbEntity
  8
寸法
 62
     0
 48
50.0
370
    -2
100
AcDbLine
 10
3893.282834049547
 20
4520.77636407361
 30
0.0
 11
3893.282834049547
 21
4965.396623500879
 31
0.0
  0
LINE
  5
18C73
330
185B6
100
AcDbEntity
  8
寸法
 62
     0
 48
50.0
370
    -2
100
AcDbLine
 10
3943.282834049547
 20
4905.396623500879
 30
0.0
 11
4043.282834049547
 21
4905.396623500879
 31
0.0
  0
LINE
  5
18C74
330
185B6
100
AcDbEntity
  8
寸法
 62
     0
 48
50.0
370
    -2
100
AcDbLine
 10
3893.282834049547
 20
4905.396623500879
 30
0.0
 11
3473.750308580811
 21
4905.396623500879
 31
0.0
  0
LINE
  5
18C75
330
185B6
100
AcDbEntity
  8
寸法
 62
     0
 48
50.0
370
    -2
100
AcDbLine
 10
3943.282834049547
 20
4905.396623500879
 30
0.0
 11
3893.282834049547
 21
4905.396623500879
 31
0.0
  0
INSERT
  5
18C76
330
185B6
100
AcDbEntity
  8
寸法
 62
     0
 48
50.0
370
    -2
100
AcDbBlockReference
  2
_DOTSMALL
 10
3943.282834049547
 20
4905.396623500879
 30
0.0
 41
100.0
 42
100.0
 43
100.0
 50
180.0
  0
INSERT
  5
18C77
330
185B6
100
AcDbEntity
  8
寸法
 62
     0
 48
50.0
370
    -2
100
AcDbBlockReference
  2
_DOTSMALL
 10
3893.282834049547
 20
4905.396623500879
 30
0.0
 41
100.0
 42
100.0
 43
100.0
  0
MTEXT
  5
18C78
330
185B6
100
AcDbEntity
  8
寸法
 62
     7
 48
50.0
100
AcDbMText
 10
3579.7975526753
 20
5005.396623500879
 30
0.0
 40
120.0
 41
0.0
 71
     5
 72
     1
  1
\A1;50
  7
STYLE1
 73
     1
 44
1.0
1001
ACAD
1000
MTEXTBEGIN
1070
    73
1070
     1
1070
    44
1040
1.0
1070
    74
1070
     0
1000
MTEXTEND
  0
POINT
  5
18C79
330
185B6
100
AcDbEntity
  8
DEFPOINTS
 62
     0
 48
50.0
100
AcDbPoint
 10
3943.282834049547
 20
4500.776364073612
 30
0.0
  0
POINT
  5
18C7A
330
185B6
100
AcDbEntity
  8
DEFPOINTS
 62
     0
 48
50.0
100
AcDbPoint
 10
3893.282834049547
 20
4500.77636407361
 30
0.0
  0
POINT
  5
18C7B
330
185B6
100
AcDbEntity
  8
DEFPOINTS
 62
     0
 48
50.0
100
AcDbPoint
 10
3893.282834049547
 20
4905.396623500879
 30
0.0
  0
ENDBLK
  5
185C3
330
185B6
100
AcDbEntity
  8
0
 48
50.0
100
AcDbBlockEnd
  0
BLOCK
  5
185CE
330
185C4
100
AcDbEntity
  8
0
 48
50.0
100
AcDbBlockBegin
  2
*D6
 70
     1
 10
0.0
 20
0.0
 30
0.0
  3
*D6
  1

  0
LINE
  5
18C68
330
185C4
100
AcDbEntity
  8
寸法
 62
     0
 48
50.0
370
    -2
100
AcDbLine
 10
6573.28283404955
 20
4520.77636407361
 30
0.0
 11
6573.28283404955
 21
4965.396623500879
 31
0.0
  0
LINE
  5
18C69
330
185C4
100
AcDbEntity
  8
寸法
 62
     0
 48
50.0
370
    -2
100
AcDbLine
 10
3943.282834049547
 20
4520.776364073611
 30
0.0
 11
3943.282834049547
 21
4965.396623500879
 31
0.0
  0
LINE
  5
18C6A
330
185C4
100
AcDbEntity
  8
寸法
 62
     0
 48
50.0
370
    -2
100
AcDbLine
 10
6573.28283404955
 20
4905.396623500879
 30
0.0
 11
3943.282834049547
 21
4905.396623500879
 31
0.0
  0
INSERT
  5
18C6B
330
185C4
100
AcDbEntity
  8
寸法
 62
     0
 48
50.0
370
    -2
100
AcDbBlockReference
  2
_DOTSMALL
 10
6573.28283404955
 20
4905.396623500879
 30
0.0
 41
100.0
 42
100.0
 43
100.0
  0
INSERT
  5
18C6C
330
185C4
100
AcDbEntity
  8
寸法
 62
     0
 48
50.0
370
    -2
100
AcDbBlockReference
  2
_DOTSMALL
 10
3943.282834049547
 20
4905.396623500879
 30
0.0
 41
100.0
 42
100.0
 43
100.0
 50
180.0
  0
MTEXT
  5
18C6D
330
185C4
100
AcDbEntity
  8
寸法
 62
     7
 48
50.0
100
AcDbMText
 10
5258.282834049547
 20
5005.4084345245
 30
0.0
 40
120.0
 41
0.0
 71
     5
 72
     1
  1
\A1;柱外寸法2630
  7
STYLE1
 73
     1
 44
1.0
1001
ACAD
1000
MTEXTBEGIN
1070
    73
1070
     1
1070
    44
1040
1.0
1070
    74
1070
     0
1000
MTEXTEND
  0
POINT
  5
18C6E
330
185C4
100
AcDbEntity
  8
DEFPOINTS
 62
     0
 48
50.0
100
AcDbPoint
 10
6573.28283404955
 20
4500.77636407361
 30
0.0
  0
POINT
  5
18C6F
330
185C4
100
AcDbEntity
  8
DEFPOINTS
 62
     0
 48
50.0
100
AcDbPoint
 10
3943.282834049547
 20
4500.776364073612
 30
0.0
  0
POINT
  5
18C70
330
185C4
100
AcDbEntity
  8
DEFPOINTS
 62
     0
 48
50.0
100
AcDbPoint
 10
3943.282834049547
 20
4905.396623500879
 30
0.0
  0
ENDBLK
  5
185CF
330
185C4
100
AcDbEntity
  8
0
 48
50.0
100
AcDbBlockEnd
  0
BLOCK
  5
185DC
330
185D0
100
AcDbEntity
  8
0
 48
50.0
100
AcDbBlockBegin
  2
*D7
 70
     1
 10
0.0
 20
0.0
 30
0.0
  3
*D7
  1

  0
LINE
  5
18C5D
330
185D0
100
AcDbEntity
  8
寸法
 62
     0
 48
50.0
370
    -2
100
AcDbLine
 10
6623.28283404955
 20
4520.776364073608
 30
0.0
 11
6623.28283404955
 21
4965.396623500879
 31
0.0
  0
LINE
  5
18C5E
330
185D0
100
AcDbEntity
  8
寸法
 62
     0
 48
50.0
370
    -2
100
AcDbLine
 10
6573.28283404955
 20
4520.77636407361
 30
0.0
 11
6573.28283404955
 21
4965.396623500879
 31
0.0
  0
LINE
  5
18C5F
330
185D0
100
AcDbEntity
  8
寸法
 62
     0
 48
50.0
370
    -2
100
AcDbLine
 10
6573.28283404955
 20
4905.396623500879
 30
0.0
 11
6473.28283404955
 21
4905.396623500879
 31
0.0
  0
LINE
  5
18C60
330
185D0
100
AcDbEntity
  8
寸法
 62
     0
 48
50.0
370
    -2
100
AcDbLine
 10
6623.28283404955
 20
4905.396623500879
 30
0.0
 11
7042.815359518279
 21
4905.396623500879
 31
0.0
  0
LINE
  5
18C61
330
185D0
100
AcDbEntity
  8
寸法
 62
     0
 48
50.0
370
    -2
100
AcDbLine
 10
6573.28283404955
 20
4905.396623500879
 30
0.0
 11
6623.28283404955
 21
4905.396623500879
 31
0.0
  0
INSERT
  5
18C62
330
185D0
100
AcDbEntity
  8
寸法
 62
     0
 48
50.0
370
    -2
100
AcDbBlockReference
  2
_DOTSMALL
 10
6573.28283404955
 20
4905.396623500879
 30
0.0
 41
100.0
 42
100.0
 43
100.0
  0
INSERT
  5
18C63
330
185D0
100
AcDbEntity
  8
寸法
 62
     0
 48
50.0
370
    -2
100
AcDbBlockReference
  2
_DOTSMALL
 10
6623.28283404955
 20
4905.396623500879
 30
0.0
 41
100.0
 42
100.0
 43
100.0
 50
180.0
  0
MTEXT
  5
18C64
330
185D0
100
AcDbEntity
  8
寸法
 62
     7
 48
50.0
100
AcDbMText
 10
6936.768115423792
 20
5005.396623500879
 30
0.0
 40
120.0
 41
0.0
 71
     5
 72
     1
  1
\A1;50
  7
STYLE1
 73
     1
 44
1.0
1001
ACAD
1000
MTEXTBEGIN
1070
    73
1070
     1
1070
    44
1040
1.0
1070
    74
1070
     0
1000
MTEXTEND
  0
POINT
  5
18C65
330
185D0
100
AcDbEntity
  8
DEFPOINTS
 62
     0
 48
50.0
100
AcDbPoint
 10
6623.28283404955
 20
4500.776364073608
 30
0.0
  0
POINT
  5
18C66
330
185D0
100
AcDbEntity
  8
DEFPOINTS
 62
     0
 48
50.0
100
AcDbPoint
 10
6573.28283404955
 20
4500.77636407361
 30
0.0
  0
POINT
  5
18C67
330
185D0
100
AcDbEntity
  8
DEFPOINTS
 62
     0
 48
50.0
100
AcDbPoint
 10
6573.28283404955
 20
4905.396623500879
 30
0.0
  0
ENDBLK
  5
185DD
330
185D0
100
AcDbEntity
  8
0
 48
50.0
100
AcDbBlockEnd
  0
BLOCK
  5
185E8
330
185DE
100
AcDbEntity
  8
0
 48
50.0
100
AcDbBlockBegin
  2
*D8
 70
     1
 10
0.0
 20
0.0
 30
0.0
  3
*D8
  1

  0
LINE
  5
18C54
330
185DE
100
AcDbEntity
  8
寸法
 62
     0
 48
50.0
370
    -2
100
AcDbLine
 10
11305.37986338679
 20
2125.776364073608
 30
0.0
 11
11880.34759110456
 21
2125.776364073608
 31
0.0
  0
LINE
  5
18C55
330
185DE
100
AcDbEntity
  8
寸法
 62
     0
 48
50.0
370
    -2
100
AcDbLine
 10
11385.37986338677
 20
4445.77636407361
 30
0.0
 11
11880.34759110456
 21
4445.77636407361
 31
0.0
  0
LINE
  5
18C56
330
185DE
100
AcDbEntity
  8
寸法
 62
     0
 48
50.0
370
    -2
100
AcDbLine
 10
11820.34759110456
 20
2125.776364073608
 30
0.0
 11
11820.34759110456
 21
4445.77636407361
 31
0.0
  0
INSERT
  5
18C57
330
185DE
100
AcDbEntity
  8
寸法
 62
     0
 48
50.0
370
    -2
100
AcDbBlockReference
  2
_DOTSMALL
 10
11820.34759110456
 20
2125.776364073608
 30
0.0
 41
100.0
 42
100.0
 43
100.0
 50
270.0
  0
INSERT
  5
18C58
330
185DE
100
AcDbEntity
  8
寸法
 62
     0
 48
50.0
370
    -2
100
AcDbBlockReference
  2
_DOTSMALL
 10
11820.34759110456
 20
4445.77636407361
 30
0.0
 41
100.0
 42
100.0
 43
100.0
 50
90.0
  0
MTEXT
  5
18C59
330
185DE
100
AcDbEntity
  8
寸法
 62
     7
 48
50.0
100
AcDbMText
 10
11720.33578008094
 20
3226.931140659887
 30
0.0
 40
120.0
 41
0.0
 71
     5
 72
     1
  1
\A1;2320
  7
STYLE1
 11
0.0000000000000001
 21
1.0
 31
0.0
 73
     1
 44
1.0
1001
ACAD
1000
MTEXTBEGIN
1070
    73
1070
     1
1070
    44
1040
1.0
1070
    74
1070
     0
1000
MTEXTEND
  0
POINT
  5
18C5A
330
185DE
100
AcDbEntity
  8
DEFPOINTS
 62
     0
 48
50.0
100
AcDbPoint
 10
11285.37986338679
 20
2125.776364073608
 30
0.0
  0
POINT
  5
18C5B
330
185DE
100
AcDbEntity
  8
DEFPOINTS
 62
     0
 48
50.0
100
AcDbPoint
 10
11365.37986338677
 20
4445.77636407361
 30
0.0
  0
POINT
  5
18C5C
330
185DE
100
AcDbEntity
  8
DEFPOINTS
 62
     0
 48
50.0
100
AcDbPoint
 10
11820.34759110456
 20
4445.77636407361
 30
0.0
  0
ENDBLK
  5
185E9
330
185DE
100
AcDbEntity
  8
0
 48
50.0
100
AcDbBlockEnd
  0
BLOCK
  5
18610
330
18604
100
AcDbEntity
  8
0
 48
50.0
100
AcDbBlockBegin
  2
*D9
 70
     1
 10
0.0
 20
0.0
 30
0.0
  3
*D9
  1

  0
LINE
  5
19353
330
18604
100
AcDbEntity
  8
寸法
 62
     0
 48
50.0
370
    -2
100
AcDbLine
 10
11305.3798633868
 20
10040.52306536072
 30
0.0
 11
12045.3798633868
 21
10040.52306536072
 31
0.0
  0
LINE
  5
19354
330
18604
100
AcDbEntity
  8
寸法
 62
     0
 48
50.0
370
    -2
100
AcDbLine
 10
11305.3798633868
 20
9985.523065360723
 30
0.0
 11
12045.3798633868
 21
9985.523065360723
 31
0.0
  0
LINE
  5
19355
330
18604
100
AcDbEntity
  8
寸法
 62
     0
 48
50.0
370
    -2
100
AcDbLine
 10
11985.3798633868
 20
9985.523065360723
 30
0.0
 11
11985.3798633868
 21
9885.523065360722
 31
0.0
  0
LINE
  5
19356
330
18604
100
AcDbEntity
  8
寸法
 62
     0
 48
50.0
370
    -2
100
AcDbLine
 10
11985.3798633868
 20
10040.52306536072
 30
0.0
 11
11985.3798633868
 21
10457.49362810919
 31
0.0
  0
LINE
  5
19357
330
18604
100
AcDbEntity
  8
寸法
 62
     0
 48
50.0
370
    -2
100
AcDbLine
 10
11985.3798633868
 20
9985.523065360723
 30
0.0
 11
11985.3798633868
 21
10040.52306536072
 31
0.0
  0
INSERT
  5
19358
330
18604
100
AcDbEntity
  8
寸法
 62
     0
 48
50.0
370
    -2
100
AcDbBlockReference
  2
_DOTSMALL
 10
11985.3798633868
 20
9985.523065360723
 30
0.0
 41
100.0
 42
100.0
 43
100.0
 50
90.0
  0
INSERT
  5
19359
330
18604
100
AcDbEntity
  8
寸法
 62
     0
 48
50.0
370
    -2
100
AcDbBlockReference
  2
_DOTSMALL
 10
11985.3798633868
 20
10040.52306536072
 30
0.0
 41
100.0
 42
100.0
 43
100.0
 50
270.0
  0
MTEXT
  5
1935A
330
18604
100
AcDbEntity
  8
寸法
 62
     7
 48
50.0
100
AcDbMText
 10
11885.37986338679
 20
10349.00834673496
 30
0.0
 40
120.0
 41
0.0
 71
     5
 72
     1
  1
\A1;55
  7
STYLE1
 11
0.0000000000000001
 21
1.0
 31
0.0
 73
     1
 44
1.0
1001
ACAD
1000
MTEXTBEGIN
1070
    73
1070
     1
1070
    44
1040
1.0
1070
    74
1070
     0
1000
MTEXTEND
  0
POINT
  5
1935B
330
18604
100
AcDbEntity
  8
DEFPOINTS
 62
     0
 48
50.0
100
AcDbPoint
 10
11285.3798633868
 20
10040.52306536072
 30
0.0
  0
POINT
  5
1935C
330
18604
100
AcDbEntity
  8
DEFPOINTS
 62
     0
 48
50.0
100
AcDbPoint
 10
11285.3798633868
 20
9985.523065360723
 30
0.0
  0
POINT
  5
1935D
330
18604
100
AcDbEntity
  8
DEFPOINTS
 62
     0
 48
50.0
100
AcDbPoint
 10
11985.3798633868
 20
9985.523065360723
 30
0.0
  0
ENDBLK
  5
18611
330
18604
100
AcDbEntity
  8
0
 48
50.0
100
AcDbBlockEnd
  0
BLOCK
  5
1861C
330
18612
100
AcDbEntity
  8
0
 48
50.0
100
AcDbBlockBegin
  2
*D10
 70
     1
 10
0.0
 20
0.0
 30
0.0
  3
*D10
  1

  0
LINE
  5
1934A
330
18612
100
AcDbEntity
  8
寸法
 62
     0
 48
50.0
370
    -2
100
AcDbLine
 10
11276.8798633868
 20
10005.16408151209
 30
0.0
 11
11745.3798633868
 21
9879.629884858116
 31
0.0
  0
LINE
  5
1934B
330
18612
100
AcDbEntity
  8
寸法
 62
     0
 48
50.0
370
    -2
100
AcDbLine
 10
11276.8798633868
 20
9555.164081512099
 30
0.0
 11
11745.3798633868
 21
9429.629884858119
 31
0.0
  0
LINE
  5
1934C
330
18612
100
AcDbEntity
  8
寸法
 62
     0
 48
50.0
370
    -2
100
AcDbLine
 10
11685.3798633868
 20
9895.706836403983
 30
0.0
 11
11685.3798633868
 21
9445.706836403985
 31
0.0
  0
INSERT
  5
1934D
330
18612
100
AcDbEntity
  8
寸法
 62
     0
 48
50.0
370
    -2
100
AcDbBlockReference
  2
_DOTSMALL
 10
11685.3798633868
 20
9895.706836403983
 30
0.0
 41
100.0
 42
100.0
 43
100.0
 50
90.0
  0
INSERT
  5
1934E
330
18612
100
AcDbEntity
  8
寸法
 62
     0
 48
50.0
370
    -2
100
AcDbBlockReference
  2
_DOTSMALL
 10
11685.3798633868
 20
9445.706836403985
 30
0.0
 41
100.0
 42
100.0
 43
100.0
 50
270.0
  0
MTEXT
  5
1934F
330
18612
100
AcDbEntity
  8
寸法
 62
     7
 48
50.0
100
AcDbMText
 10
11585.3798633868
 20
9670.706836403985
 30
0.0
 40
120.0
 41
0.0
 71
     5
 72
     1
  1
\A1;450
  7
STYLE1
 11
0.0000000000000001
 21
1.0
 31
0.0
 73
     1
 44
1.0
1001
ACAD
1000
MTEXTBEGIN
1070
    73
1070
     1
1070
    44
1040
1.0
1070
    74
1070
     0
1000
MTEXTEND
  0
POINT
  5
19350
330
18612
100
AcDbEntity
  8
DEFPOINTS
 62
     0
 48
50.0
100
AcDbPoint
 10
11256.8798633868
 20
10010.52306536072
 30
0.0
  0
POINT
  5
19351
330
18612
100
AcDbEntity
  8
DEFPOINTS
 62
     0
 48
50.0
100
AcDbPoint
 10
11256.8798633868
 20
9560.523065360722
 30
0.0
  0
POINT
  5
19352
330
18612
100
AcDbEntity
  8
DEFPOINTS
 62
     0
 48
50.0
100
AcDbPoint
 10
11685.3798633868
 20
9445.706836403985
 30
0.0
  0
ENDBLK
  5
1861D
330
18612
100
AcDbEntity
  8
0
 48
50.0
100
AcDbBlockEnd
  0
BLOCK
  5
1862A
330
1861E
100
AcDbEntity
  8
0
 48
50.0
100
AcDbBlockBegin
  2
*D11
 70
     1
 10
0.0
 20
0.0
 30
0.0
  3
*D11
  1

  0
LINE
  5
1933F
330
1861E
100
AcDbEntity
  8
寸法
 62
     0
 48
50.0
370
    -2
100
AcDbLine
 10
11305.37986338678
 20
7465.523065360703
 30
0.0
 11
12045.37986338678
 21
7465.523065360703
 31
0.0
  0
LINE
  5
19340
330
1861E
100
AcDbEntity
  8
寸法
 62
     0
 48
50.0
370
    -2
100
AcDbLine
 10
11305.37986338678
 20
7410.523065360706
 30
0.0
 11
12045.37986338678
 21
7410.523065360706
 31
0.0
  0
LINE
  5
19341
330
1861E
100
AcDbEntity
  8
寸法
 62
     0
 48
50.0
370
    -2
100
AcDbLine
 10
11985.37986338678
 20
7465.523065360703
 30
0.0
 11
11985.37986338678
 21
7565.523065360704
 31
0.0
  0
LINE
  5
19342
330
1861E
100
AcDbEntity
  8
寸法
 62
     0
 48
50.0
370
    -2
100
AcDbLine
 10
11985.37986338678
 20
7410.523065360706
 30
0.0
 11
11985.37986338678
 21
6993.552502612216
 31
0.0
  0
LINE
  5
19343
330
1861E
100
AcDbEntity
  8
寸法
 62
     0
 48
50.0
370
    -2
100
AcDbLine
 10
11985.37986338678
 20
7465.523065360703
 30
0.0
 11
11985.37986338678
 21
7410.523065360706
 31
0.0
  0
INSERT
  5
19344
330
1861E
100
AcDbEntity
  8
寸法
 62
     0
 48
50.0
370
    -2
100
AcDbBlockReference
  2
_DOTSMALL
 10
11985.37986338678
 20
7465.523065360703
 30
0.0
 41
100.0
 42
100.0
 43
100.0
 50
270.0
  0
INSERT
  5
19345
330
1861E
100
AcDbEntity
  8
寸法
 62
     0
 48
50.0
370
    -2
100
AcDbBlockReference
  2
_DOTSMALL
 10
11985.37986338678
 20
7410.523065360706
 30
0.0
 41
100.0
 42
100.0
 43
100.0
 50
90.0
  0
MTEXT
  5
19346
330
1861E
100
AcDbEntity
  8
寸法
 62
     7
 48
50.0
100
AcDbMText
 10
11885.37986338678
 20
7102.037783986457
 30
0.0
 40
120.0
 41
0.0
 71
     5
 72
     1
  1
\A1;55
  7
STYLE1
 11
0.0000000000000001
 21
1.0
 31
0.0
 73
     1
 44
1.0
1001
ACAD
1000
MTEXTBEGIN
1070
    73
1070
     1
1070
    44
1040
1.0
1070
    74
1070
     0
1000
MTEXTEND
  0
POINT
  5
19347
330
1861E
100
AcDbEntity
  8
DEFPOINTS
 62
     0
 48
50.0
100
AcDbPoint
 10
11285.37986338678
 20
7465.523065360703
 30
0.0
  0
POINT
  5
19348
330
1861E
100
AcDbEntity
  8
DEFPOINTS
 62
     0
 48
50.0
100
AcDbPoint
 10
11285.37986338678
 20
7410.523065360706
 30
0.0
  0
POINT
  5
19349
330
1861E
100
AcDbEntity
  8
DEFPOINTS
 62
     0
 48
50.0
100
AcDbPoint
 10
11985.37986338678
 20
7410.523065360706
 30
0.0
  0
ENDBLK
  5
1862B
330
1861E
100
AcDbEntity
  8
0
 48
50.0
100
AcDbBlockEnd
  0
BLOCK
  5
18636
330
1862C
100
AcDbEntity
  8
0
 48
50.0
100
AcDbBlockBegin
  2
*D12
 70
     1
 10
0.0
 20
0.0
 30
0.0
  3
*D12
  1

  0
LINE
  5
19336
330
1862C
100
AcDbEntity
  8
寸法
 62
     0
 48
50.0
370
    -2
100
AcDbLine
 10
11305.3798633868
 20
9985.523065360723
 30
0.0
 11
12045.3798633868
 21
9985.523065360723
 31
0.0
  0
LINE
  5
19337
330
1862C
100
AcDbEntity
  8
寸法
 62
     0
 48
50.0
370
    -2
100
AcDbLine
 10
11305.37986338678
 20
7465.523065360703
 30
0.0
 11
12045.3798633868
 21
7465.523065360703
 31
0.0
  0
LINE
  5
19338
330
1862C
100
AcDbEntity
  8
寸法
 62
     0
 48
50.0
370
    -2
100
AcDbLine
 10
11985.3798633868
 20
9985.523065360723
 30
0.0
 11
11985.3798633868
 21
7465.523065360703
 31
0.0
  0
INSERT
  5
19339
330
1862C
100
AcDbEntity
  8
寸法
 62
     0
 48
50.0
370
    -2
100
AcDbBlockReference
  2
_DOTSMALL
 10
11985.3798633868
 20
9985.523065360723
 30
0.0
 41
100.0
 42
100.0
 43
100.0
 50
90.0
  0
INSERT
  5
1933A
330
1862C
100
AcDbEntity
  8
寸法
 62
     0
 48
50.0
370
    -2
100
AcDbBlockReference
  2
_DOTSMALL
 10
11985.3798633868
 20
7465.523065360703
 30
0.0
 41
100.0
 42
100.0
 43
100.0
 50
270.0
  0
MTEXT
  5
1933B
330
1862C
100
AcDbEntity
  8
寸法
 62
     7
 48
50.0
100
AcDbMText
 10
11885.36805236317
 20
8725.523065360714
 30
0.0
 40
120.0
 41
0.0
 71
     5
 72
     1
  1
\A1;6X420=2520
  7
STYLE1
 11
0.0000000000000001
 21
1.0
 31
0.0
 73
     1
 44
1.0
1001
ACAD
1000
MTEXTBEGIN
1070
    73
1070
     1
1070
    44
1040
1.0
1070
    74
1070
     0
1000
MTEXTEND
  0
POINT
  5
1933C
330
1862C
100
AcDbEntity
  8
DEFPOINTS
 62
     0
 48
50.0
100
AcDbPoint
 10
11285.3798633868
 20
9985.523065360723
 30
0.0
  0
POINT
  5
1933D
330
1862C
100
AcDbEntity
  8
DEFPOINTS
 62
     0
 48
50.0
100
AcDbPoint
 10
11285.37986338678
 20
7465.523065360703
 30
0.0
  0
POINT
  5
1933E
330
1862C
100
AcDbEntity
  8
DEFPOINTS
 62
     0
 48
50.0
100
AcDbPoint
 10
11985.3798633868
 20
7465.523065360703
 30
0.0
  0
ENDBLK
  5
18637
330
1862C
100
AcDbEntity
  8
0
 48
50.0
100
AcDbBlockEnd
  0
BLOCK
  5
18642
330
18638
100
AcDbEntity
  8
0
 48
50.0
100
AcDbBlockBegin
  2
*D13
 70
     1
 10
0.0
 20
0.0
 30
0.0
  3
*D13
  1

  0
LINE
  5
1932D
330
18638
100
AcDbEntity
  8
寸法
 62
     0
 48
50.0
370
    -2
100
AcDbLine
 10
11305.3798633868
 20
10040.52306536072
 30
0.0
 11
12345.37986338681
 21
10040.52306536071
 31
0.0
  0
LINE
  5
1932E
330
18638
100
AcDbEntity
  8
寸法
 62
     0
 48
50.0
370
    -2
100
AcDbLine
 10
11305.37986338678
 20
7410.523065360706
 30
0.0
 11
12345.37986338681
 21
7410.523065360706
 31
0.0
  0
LINE
  5
1932F
330
18638
100
AcDbEntity
  8
寸法
 62
     0
 48
50.0
370
    -2
100
AcDbLine
 10
12285.37986338681
 20
10040.52306536072
 30
0.0
 11
12285.37986338681
 21
7410.523065360706
 31
0.0
  0
INSERT
  5
19330
330
18638
100
AcDbEntity
  8
寸法
 62
     0
 48
50.0
370
    -2
100
AcDbBlockReference
  2
_DOTSMALL
 10
12285.37986338681
 20
10040.52306536072
 30
0.0
 41
100.0
 42
100.0
 43
100.0
 50
90.0
  0
INSERT
  5
19331
330
18638
100
AcDbEntity
  8
寸法
 62
     0
 48
50.0
370
    -2
100
AcDbBlockReference
  2
_DOTSMALL
 10
12285.37986338681
 20
7410.523065360706
 30
0.0
 41
100.0
 42
100.0
 43
100.0
 50
270.0
  0
MTEXT
  5
19332
330
18638
100
AcDbEntity
  8
寸法
 62
     7
 48
50.0
100
AcDbMText
 10
12185.36805236319
 20
8725.523065360714
 30
0.0
 40
120.0
 41
0.0
 71
     5
 72
     1
  1
\A1;2630
  7
STYLE1
 11
0.0000000000000001
 21
1.0
 31
0.0
 73
     1
 44
1.0
1001
ACAD
1000
MTEXTBEGIN
1070
    73
1070
     1
1070
    44
1040
1.0
1070
    74
1070
     0
1000
MTEXTEND
  0
POINT
  5
19333
330
18638
100
AcDbEntity
  8
DEFPOINTS
 62
     0
 48
50.0
100
AcDbPoint
 10
11285.3798633868
 20
10040.52306536072
 30
0.0
  0
POINT
  5
19334
330
18638
100
AcDbEntity
  8
DEFPOINTS
 62
     0
 48
50.0
100
AcDbPoint
 10
11285.37986338678
 20
7410.523065360706
 30
0.0
  0
POINT
  5
19335
330
18638
100
AcDbEntity
  8
DEFPOINTS
 62
     0
 48
50.0
100
AcDbPoint
 10
12285.37986338681
 20
7410.523065360706
 30
0.0
  0
ENDBLK
  5
18643
330
18638
100
AcDbEntity
  8
0
 48
50.0
100
AcDbBlockEnd
  0
BLOCK
  5
1864E
330
18644
100
AcDbEntity
  8
0
 48
50.0
100
AcDbBlockBegin
  2
*D14
 70
     1
 10
0.0
 20
0.0
 30
0.0
  3
*D14
  1

  0
LINE
  5
19324
330
18644
100
AcDbEntity
  8
寸法
 62
     0
 48
50.0
370
    -2
100
AcDbLine
 10
9977.520879538184
 20
9540.523065360728
 30
0.0
 11
9881.068980004922
 21
9180.55967581607
 31
0.0
  0
LINE
  5
19325
330
18644
100
AcDbEntity
  8
寸法
 62
     0
 48
50.0
370
    -2
100
AcDbLine
 10
11250.52087953819
 20
9540.523065360721
 30
0.0
 11
11154.06898000493
 21
9180.55967581607
 31
0.0
  0
LINE
  5
19326
330
18644
100
AcDbEntity
  8
寸法
 62
     0
 48
50.0
370
    -2
100
AcDbLine
 10
9897.14593155079
 20
9240.55967581607
 30
0.0
 11
11170.1459315508
 21
9240.55967581607
 31
0.0
  0
INSERT
  5
19327
330
18644
100
AcDbEntity
  8
寸法
 62
     0
 48
50.0
370
    -2
100
AcDbBlockReference
  2
_DOTSMALL
 10
9897.14593155079
 20
9240.55967581607
 30
0.0
 41
100.0
 42
100.0
 43
100.0
 50
180.0
  0
INSERT
  5
19328
330
18644
100
AcDbEntity
  8
寸法
 62
     0
 48
50.0
370
    -2
100
AcDbBlockReference
  2
_DOTSMALL
 10
11170.1459315508
 20
9240.55967581607
 30
0.0
 41
100.0
 42
100.0
 43
100.0
  0
MTEXT
  5
19329
330
18644
100
AcDbEntity
  8
寸法
 62
     7
 48
50.0
100
AcDbMText
 10
10603.26777070082
 20
9340.57148683969
 30
0.0
 40
120.0
 41
0.0
 71
     5
 72
     1
  1
\A1;1273
  7
STYLE1
 73
     1
 44
1.0
1001
ACAD
1000
MTEXTBEGIN
1070
    73
1070
     1
1070
    44
1040
1.0
1070
    74
1070
     0
1000
MTEXTEND
  0
POINT
  5
1932A
330
18644
100
AcDbEntity
  8
DEFPOINTS
 62
     0
 48
50.0
100
AcDbPoint
 10
9982.879863386806
 20
9560.52306536073
 30
0.0
  0
POINT
  5
1932B
330
18644
100
AcDbEntity
  8
DEFPOINTS
 62
     0
 48
50.0
100
AcDbPoint
 10
11255.87986338681
 20
9560.523065360722
 30
0.0
  0
POINT
  5
1932C
330
18644
100
AcDbEntity
  8
DEFPOINTS
 62
     0
 48
50.0
100
AcDbPoint
 10
11170.1459315508
 20
9240.55967581607
 30
0.0
  0
ENDBLK
  5
1864F
330
18644
100
AcDbEntity
  8
0
 48
50.0
100
AcDbBlockEnd
  0
BLOCK
  5
18666
330
1865C
100
AcDbEntity
  8
0
 48
50.0
100
AcDbBlockBegin
  2
*D15
 70
     1
 10
0.0
 20
0.0
 30
0.0
  3
*D15
  1

  0
LINE
  5
1931B
330
1865C
100
AcDbEntity
  8
寸法
 62
     0
 48
50.0
370
    -2
100
AcDbLine
 10
8710.379863386807
 20
10060.52306536062
 30
0.0
 11
8710.379863386807
 21
10400.52306536062
 31
0.0
  0
LINE
  5
1931C
330
1865C
100
AcDbEntity
  8
寸法
 62
     0
 48
50.0
370
    -2
100
AcDbLine
 10
11230.37986338681
 20
10060.52306536072
 30
0.0
 11
11230.37986338681
 21
10400.52306536062
 31
0.0
  0
LINE
  5
1931D
330
1865C
100
AcDbEntity
  8
寸法
 62
     0
 48
50.0
370
    -2
100
AcDbLine
 10
8710.379863386807
 20
10340.52306536062
 30
0.0
 11
11230.37986338681
 21
10340.52306536062
 31
0.0
  0
INSERT
  5
1931E
330
1865C
100
AcDbEntity
  8
寸法
 62
     0
 48
50.0
370
    -2
100
AcDbBlockReference
  2
_DOTSMALL
 10
8710.379863386807
 20
10340.52306536062
 30
0.0
 41
100.0
 42
100.0
 43
100.0
 50
180.0
  0
INSERT
  5
1931F
330
1865C
100
AcDbEntity
  8
寸法
 62
     0
 48
50.0
370
    -2
100
AcDbBlockReference
  2
_DOTSMALL
 10
11230.37986338681
 20
10340.52306536062
 30
0.0
 41
100.0
 42
100.0
 43
100.0
  0
MTEXT
  5
19320
330
1865C
100
AcDbEntity
  8
寸法
 62
     7
 48
50.0
100
AcDbMText
 10
9970.379863386803
 20
10440.53487638424
 30
0.0
 40
120.0
 41
0.0
 71
     5
 72
     1
  1
\A1;6X420=2520
  7
STYLE1
 73
     1
 44
1.0
1001
ACAD
1000
MTEXTBEGIN
1070
    73
1070
     1
1070
    44
1040
1.0
1070
    74
1070
     0
1000
MTEXTEND
  0
POINT
  5
19321
330
1865C
100
AcDbEntity
  8
DEFPOINTS
 62
     0
 48
50.0
100
AcDbPoint
 10
8710.379863386807
 20
10040.52306536062
 30
0.0
  0
POINT
  5
19322
330
1865C
100
AcDbEntity
  8
DEFPOINTS
 62
     0
 48
50.0
100
AcDbPoint
 10
11230.37986338681
 20
10040.52306536072
 30
0.0
  0
POINT
  5
19323
330
1865C
100
AcDbEntity
  8
DEFPOINTS
 62
     0
 48
50.0
100
AcDbPoint
 10
11230.37986338681
 20
10340.52306536062
 30
0.0
  0
ENDBLK
  5
18667
330
1865C
100
AcDbEntity
  8
0
 48
50.0
100
AcDbBlockEnd
  0
BLOCK
  5
18674
330
18668
100
AcDbEntity
  8
0
 48
50.0
100
AcDbBlockBegin
  2
*D16
 70
     1
 10
0.0
 20
0.0
 30
0.0
  3
*D16
  1

  0
LINE
  5
19310
330
18668
100
AcDbEntity
  8
寸法
 62
     0
 48
50.0
370
    -2
100
AcDbLine
 10
11230.37986338681
 20
10060.52306536072
 30
0.0
 11
11230.37986338681
 21
10400.52306536062
 31
0.0
  0
LINE
  5
19311
330
18668
100
AcDbEntity
  8
寸法
 62
     0
 48
50.0
370
    -2
100
AcDbLine
 10
11285.3798633868
 20
10060.52306536072
 30
0.0
 11
11285.3798633868
 21
10400.52306536062
 31
0.0
  0
LINE
  5
19312
330
18668
100
AcDbEntity
  8
寸法
 62
     0
 48
50.0
370
    -2
100
AcDbLine
 10
11230.37986338681
 20
10340.52306536062
 30
0.0
 11
11130.37986338681
 21
10340.52306536062
 31
0.0
  0
LINE
  5
19313
330
18668
100
AcDbEntity
  8
寸法
 62
     0
 48
50.0
370
    -2
100
AcDbLine
 10
11285.3798633868
 20
10340.52306536062
 30
0.0
 11
11702.35042613528
 21
10340.52306536062
 31
0.0
  0
LINE
  5
19314
330
18668
100
AcDbEntity
  8
寸法
 62
     0
 48
50.0
370
    -2
100
AcDbLine
 10
11230.37986338681
 20
10340.52306536062
 30
0.0
 11
11285.3798633868
 21
10340.52306536062
 31
0.0
  0
INSERT
  5
19315
330
18668
100
AcDbEntity
  8
寸法
 62
     0
 48
50.0
370
    -2
100
AcDbBlockReference
  2
_DOTSMALL
 10
11230.37986338681
 20
10340.52306536062
 30
0.0
 41
100.0
 42
100.0
 43
100.0
  0
INSERT
  5
19316
330
18668
100
AcDbEntity
  8
寸法
 62
     0
 48
50.0
370
    -2
100
AcDbBlockReference
  2
_DOTSMALL
 10
11285.3798633868
 20
10340.52306536062
 30
0.0
 41
100.0
 42
100.0
 43
100.0
 50
180.0
  0
MTEXT
  5
19317
330
18668
100
AcDbEntity
  8
寸法
 62
     7
 48
50.0
100
AcDbMText
 10
11593.86514476104
 20
10440.52306536062
 30
0.0
 40
120.0
 41
0.0
 71
     5
 72
     1
  1
\A1;55
  7
STYLE1
 73
     1
 44
1.0
1001
ACAD
1000
MTEXTBEGIN
1070
    73
1070
     1
1070
    44
1040
1.0
1070
    74
1070
     0
1000
MTEXTEND
  0
POINT
  5
19318
330
18668
100
AcDbEntity
  8
DEFPOINTS
 62
     0
 48
50.0
100
AcDbPoint
 10
11230.37986338681
 20
10040.52306536072
 30
0.0
  0
POINT
  5
19319
330
18668
100
AcDbEntity
  8
DEFPOINTS
 62
     0
 48
50.0
100
AcDbPoint
 10
11285.3798633868
 20
10040.52306536072
 30
0.0
  0
POINT
  5
1931A
330
18668
100
AcDbEntity
  8
DEFPOINTS
 62
     0
 48
50.0
100
AcDbPoint
 10
11285.3798633868
 20
10340.52306536062
 30
0.0
  0
ENDBLK
  5
18675
330
18668
100
AcDbEntity
  8
0
 48
50.0
100
AcDbBlockEnd
  0
BLOCK
  5
18680
330
18676
100
AcDbEntity
  8
0
 48
50.0
100
AcDbBlockBegin
  2
*D17
 70
     1
 10
0.0
 20
0.0
 30
0.0
  3
*D17
  1

  0
LINE
  5
19307
330
18676
100
AcDbEntity
  8
寸法
 62
     0
 48
50.0
370
    -2
100
AcDbLine
 10
8677.520879538114
 20
9540.523065360671
 30
0.0
 11
8581.06898000487
 21
9180.55967581607
 31
0.0
  0
LINE
  5
19308
330
18676
100
AcDbEntity
  8
寸法
 62
     0
 48
50.0
370
    -2
100
AcDbLine
 10
9950.520879538185
 20
9540.523065360664
 30
0.0
 11
9854.068980004941
 21
9180.55967581607
 31
0.0
  0
LINE
  5
19309
330
18676
100
AcDbEntity
  8
寸法
 62
     0
 48
50.0
370
    -2
100
AcDbLine
 10
8597.145931550736
 20
9240.55967581607
 30
0.0
 11
9870.145931550808
 21
9240.55967581607
 31
0.0
  0
INSERT
  5
1930A
330
18676
100
AcDbEntity
  8
寸法
 62
     0
 48
50.0
370
    -2
100
AcDbBlockReference
  2
_DOTSMALL
 10
8597.145931550736
 20
9240.55967581607
 30
0.0
 41
100.0
 42
100.0
 43
100.0
 50
180.0
  0
INSERT
  5
1930B
330
18676
100
AcDbEntity
  8
寸法
 62
     0
 48
50.0
370
    -2
100
AcDbBlockReference
  2
_DOTSMALL
 10
9870.145931550808
 20
9240.55967581607
 30
0.0
 41
100.0
 42
100.0
 43
100.0
  0
MTEXT
  5
1930C
330
18676
100
AcDbEntity
  8
寸法
 62
     7
 48
50.0
100
AcDbMText
 10
9233.645931550773
 20
9340.57148683969
 30
0.0
 40
120.0
 41
0.0
 71
     5
 72
     1
  1
\A1;1273
  7
STYLE1
 73
     1
 44
1.0
1001
ACAD
1000
MTEXTBEGIN
1070
    73
1070
     1
1070
    44
1040
1.0
1070
    74
1070
     0
1000
MTEXTEND
  0
POINT
  5
1930D
330
18676
100
AcDbEntity
  8
DEFPOINTS
 62
     0
 48
50.0
100
AcDbPoint
 10
8682.879863386737
 20
9560.523065360671
 30
0.0
  0
POINT
  5
1930E
330
18676
100
AcDbEntity
  8
DEFPOINTS
 62
     0
 48
50.0
100
AcDbPoint
 10
9955.879863386806
 20
9560.523065360664
 30
0.0
  0
POINT
  5
1930F
330
18676
100
AcDbEntity
  8
DEFPOINTS
 62
     0
 48
50.0
100
AcDbPoint
 10
9870.145931550808
 20
9240.55967581607
 30
0.0
  0
ENDBLK
  5
18681
330
18676
100
AcDbEntity
  8
0
 48
50.0
100
AcDbBlockEnd
  0
BLOCK
  5
1868E
330
18682
100
AcDbEntity
  8
0
 48
50.0
100
AcDbBlockBegin
  2
*D18
 70
     1
 10
0.0
 20
0.0
 30
0.0
  3
*D18
  1

  0
LINE
  5
192FC
330
18682
100
AcDbEntity
  8
寸法
 62
     0
 48
50.0
370
    -2
100
AcDbLine
 10
8655.37986338677
 20
10060.52306536062
 30
0.0
 11
8655.37986338677
 21
10400.52306536062
 31
0.0
  0
LINE
  5
192FD
330
18682
100
AcDbEntity
  8
寸法
 62
     0
 48
50.0
370
    -2
100
AcDbLine
 10
8710.379863386807
 20
10060.52306536062
 30
0.0
 11
8710.379863386807
 21
10400.52306536062
 31
0.0
  0
LINE
  5
192FE
330
18682
100
AcDbEntity
  8
寸法
 62
     0
 48
50.0
370
    -2
100
AcDbLine
 10
8710.379863386807
 20
10340.52306536062
 30
0.0
 11
8810.379863386806
 21
10340.52306536062
 31
0.0
  0
LINE
  5
192FF
330
18682
100
AcDbEntity
  8
寸法
 62
     0
 48
50.0
370
    -2
100
AcDbLine
 10
8655.37986338677
 20
10340.52306536062
 30
0.0
 11
8238.409300638293
 21
10340.52306536062
 31
0.0
  0
LINE
  5
19300
330
18682
100
AcDbEntity
  8
寸法
 62
     0
 48
50.0
370
    -2
100
AcDbLine
 10
8710.379863386807
 20
10340.52306536062
 30
0.0
 11
8655.37986338677
 21
10340.52306536062
 31
0.0
  0
INSERT
  5
19301
330
18682
100
AcDbEntity
  8
寸法
 62
     0
 48
50.0
370
    -2
100
AcDbBlockReference
  2
_DOTSMALL
 10
8710.379863386807
 20
10340.52306536062
 30
0.0
 41
100.0
 42
100.0
 43
100.0
 50
180.0
  0
INSERT
  5
19302
330
18682
100
AcDbEntity
  8
寸法
 62
     0
 48
50.0
370
    -2
100
AcDbBlockReference
  2
_DOTSMALL
 10
8655.37986338677
 20
10340.52306536062
 30
0.0
 41
100.0
 42
100.0
 43
100.0
  0
MTEXT
  5
19303
330
18682
100
AcDbEntity
  8
寸法
 62
     7
 48
50.0
100
AcDbMText
 10
8346.894582012529
 20
10440.52306536062
 30
0.0
 40
120.0
 41
0.0
 71
     5
 72
     1
  1
\A1;55
  7
STYLE1
 73
     1
 44
1.0
1001
ACAD
1000
MTEXTBEGIN
1070
    73
1070
     1
1070
    44
1040
1.0
1070
    74
1070
     0
1000
MTEXTEND
  0
POINT
  5
19304
330
18682
100
AcDbEntity
  8
DEFPOINTS
 62
     0
 48
50.0
100
AcDbPoint
 10
8655.37986338677
 20
10040.52306536062
 30
0.0
  0
POINT
  5
19305
330
18682
100
AcDbEntity
  8
DEFPOINTS
 62
     0
 48
50.0
100
AcDbPoint
 10
8710.379863386807
 20
10040.52306536062
 30
0.0
  0
POINT
  5
19306
330
18682
100
AcDbEntity
  8
DEFPOINTS
 62
     0
 48
50.0
100
AcDbPoint
 10
8710.379863386807
 20
10340.52306536062
 30
0.0
  0
ENDBLK
  5
1868F
330
18682
100
AcDbEntity
  8
0
 48
50.0
100
AcDbBlockEnd
  0
BLOCK
  5
1869A
330
18690
100
AcDbEntity
  8
0
 48
50.0
100
AcDbBlockBegin
  2
*D19
 70
     1
 10
0.0
 20
0.0
 30
0.0
  3
*D19
  1

  0
LINE
  5
18BCC
330
18690
100
AcDbEntity
  8
寸法
 62
     0
 48
50.0
370
    -2
100
AcDbLine
 10
8755.379863386798
 20
1805.776364073608
 30
0.0
 11
8755.379863386798
 21
1479.72903477323
 31
0.0
  0
LINE
  5
18BCD
330
18690
100
AcDbEntity
  8
寸法
 62
     0
 48
50.0
370
    -2
100
AcDbLine
 10
8555.379863386795
 20
1805.776364073608
 30
0.0
 11
8555.379863386795
 21
1479.72903477323
 31
0.0
  0
LINE
  5
18BCE
330
18690
100
AcDbEntity
  8
寸法
 62
     0
 48
50.0
370
    -2
100
AcDbLine
 10
8755.379863386798
 20
1539.72903477323
 30
0.0
 11
8555.379863386795
 21
1539.72903477323
 31
0.0
  0
INSERT
  5
18BCF
330
18690
100
AcDbEntity
  8
寸法
 62
     0
 48
50.0
370
    -2
100
AcDbBlockReference
  2
_DOTSMALL
 10
8755.379863386798
 20
1539.72903477323
 30
0.0
 41
100.0
 42
100.0
 43
100.0
  0
INSERT
  5
18BD0
330
18690
100
AcDbEntity
  8
寸法
 62
     0
 48
50.0
370
    -2
100
AcDbBlockReference
  2
_DOTSMALL
 10
8555.379863386795
 20
1539.72903477323
 30
0.0
 41
100.0
 42
100.0
 43
100.0
 50
180.0
  0
MTEXT
  5
18BD1
330
18690
100
AcDbEntity
  8
寸法
 62
     7
 48
50.0
100
AcDbMText
 10
8655.379863386796
 20
1639.740845796852
 30
0.0
 40
120.0
 41
0.0
 71
     5
 72
     1
  1
\A1;200
  7
STYLE1
 73
     1
 44
1.0
1001
ACAD
1000
MTEXTBEGIN
1070
    73
1070
     1
1070
    44
1040
1.0
1070
    74
1070
     0
1000
MTEXTEND
  0
POINT
  5
18BD2
330
18690
100
AcDbEntity
  8
DEFPOINTS
 62
     0
 48
50.0
100
AcDbPoint
 10
8755.379863386798
 20
1825.776364073608
 30
0.0
  0
POINT
  5
18BD3
330
18690
100
AcDbEntity
  8
DEFPOINTS
 62
     0
 48
50.0
100
AcDbPoint
 10
8555.379863386795
 20
1825.776364073608
 30
0.0
  0
POINT
  5
18BD4
330
18690
100
AcDbEntity
  8
DEFPOINTS
 62
     0
 48
50.0
100
AcDbPoint
 10
8555.379863386795
 20
1539.72903477323
 30
0.0
  0
ENDBLK
  5
1869B
330
18690
100
AcDbEntity
  8
0
 48
50.0
100
AcDbBlockEnd
  0
BLOCK
  5
186A6
330
1869C
100
AcDbEntity
  8
0
 48
50.0
100
AcDbBlockBegin
  2
*D20
 70
     1
 10
0.0
 20
0.0
 30
0.0
  3
*D20
  1

  0
LINE
  5
18BC3
330
1869C
100
AcDbEntity
  8
寸法
 62
     0
 48
50.0
370
    -2
100
AcDbLine
 10
9083.379863386797
 20
4208.776364073608
 30
0.0
 11
8302.155056915783
 21
4208.776364073608
 31
0.0
  0
LINE
  5
18BC4
330
1869C
100
AcDbEntity
  8
寸法
 62
     0
 48
50.0
370
    -2
100
AcDbLine
 10
9083.379863386797
 20
2183.776364073608
 30
0.0
 11
8302.155056915781
 21
2183.776364073608
 31
0.0
  0
LINE
  5
18BC5
330
1869C
100
AcDbEntity
  8
寸法
 62
     0
 48
50.0
370
    -2
100
AcDbLine
 10
8362.155056915783
 20
4208.776364073608
 30
0.0
 11
8362.15505691578
 21
2183.776364073608
 31
0.0
  0
INSERT
  5
18BC6
330
1869C
100
AcDbEntity
  8
寸法
 62
     0
 48
50.0
370
    -2
100
AcDbBlockReference
  2
_DOTSMALL
 10
8362.155056915783
 20
4208.776364073608
 30
0.0
 41
100.0
 42
100.0
 43
100.0
 50
90.0
  0
INSERT
  5
18BC7
330
1869C
100
AcDbEntity
  8
寸法
 62
     0
 48
50.0
370
    -2
100
AcDbBlockReference
  2
_DOTSMALL
 10
8362.15505691578
 20
2183.776364073608
 30
0.0
 41
100.0
 42
100.0
 43
100.0
 50
270.0
  0
MTEXT
  5
18BC8
330
1869C
100
AcDbEntity
  8
寸法
 62
     7
 48
50.0
100
AcDbMText
 10
8262.143245892159
 20
3196.276364073608
 30
0.0
 40
120.0
 41
0.0
 71
     5
 72
     1
  1
\A1;有効開口部高サ2025
  7
STYLE1
 11
0.0000000000000001
 21
1.0
 31
0.0
 73
     1
 44
1.0
1001
ACAD
1000
MTEXTBEGIN
1070
    73
1070
     1
1070
    44
1040
1.0
1070
    74
1070
     0
1000
MTEXTEND
  0
POINT
  5
18BC9
330
1869C
100
AcDbEntity
  8
DEFPOINTS
 62
     0
 48
50.0
100
AcDbPoint
 10
9103.379863386797
 20
4208.776364073608
 30
0.0
  0
POINT
  5
18BCA
330
1869C
100
AcDbEntity
  8
DEFPOINTS
 62
     0
 48
50.0
100
AcDbPoint
 10
9103.379863386797
 20
2183.776364073608
 30
0.0
  0
POINT
  5
18BCB
330
1869C
100
AcDbEntity
  8
DEFPOINTS
 62
     0
 48
50.0
100
AcDbPoint
 10
8362.15505691578
 20
2183.776364073608
 30
0.0
  0
ENDBLK
  5
186A7
330
1869C
100
AcDbEntity
  8
0
 48
50.0
100
AcDbBlockEnd
  0
BLOCK
  5
186B3
330
186A8
100
AcDbEntity
  8
0
 48
50.0
100
AcDbBlockBegin
  2
*D21
 70
     1
 10
0.0
 20
0.0
 30
0.0
  3
*D21
  1

  0
LINE
  5
18BB9
330
186A8
100
AcDbEntity
  8
寸法
 62
     0
 48
50.0
370
    -2
100
AcDbLine
 10
8594.784149677897
 20
4500.074071143269
 30
0.0
 11
7978.849710572624
 21
4517.788221417598
 31
0.0
  0
LINE
  5
18BBA
330
186A8
100
AcDbEntity
  8
寸法
 62
     0
 48
50.0
370
    -2
100
AcDbLine
 10
8590.730694121267
 20
4359.132347377555
 30
0.0
 11
7974.796255015997
 21
4376.846497651884
 31
0.0
  0
LINE
  5
18BBB
330
186A8
100
AcDbEntity
  8
寸法
 62
     0
 48
50.0
370
    -2
100
AcDbLine
 10
8034.771456618427
 20
4375.121622946937
 30
0.0
 11
8038.824912175053
 21
4516.063346712651
 31
0.0
  0
LINE
  5
18BBC
330
186A8
100
AcDbEntity
  8
寸法
 62
     0
 48
50.0
370
    -2
100
AcDbLine
 10
8038.824912175053
 20
4516.063346712651
 30
0.0
 11
8049.174160404737
 21
4875.914556327243
 31
0.0
  0
INSERT
  5
18BBD
330
186A8
100
AcDbEntity
  8
寸法
 62
     0
 48
50.0
370
    -2
100
AcDbBlockReference
  2
_DOTSMALL
 10
8034.771456618427
 20
4375.121622946937
 30
0.0
 41
100.0
 42
100.0
 43
100.0
 50
268.3526390256379
  0
INSERT
  5
18BBE
330
186A8
100
AcDbEntity
  8
寸法
 62
     0
 48
50.0
370
    -2
100
AcDbBlockReference
  2
_DOTSMALL
 10
8038.824912175053
 20
4516.063346712651
 30
0.0
 41
100.0
 42
100.0
 43
100.0
 50
88.35263902563784
  0
MTEXT
  5
18BBF
330
186A8
100
AcDbEntity
  8
寸法
 62
     7
 48
50.0
100
AcDbMText
 10
7945.478262539968
 20
4748.843077363556
 30
0.0
 40
120.0
 41
0.0
 71
     5
 72
     1
  1
\A1;141
  7
STYLE1
 11
0.0287479117491228
 21
0.9995866933738486
 31
0.0
 73
     1
 44
1.0
1001
ACAD
1000
MTEXTBEGIN
1070
    73
1070
     1
1070
    44
1040
1.0
1070
    74
1070
     0
1000
MTEXTEND
  0
POINT
  5
18BC0
330
186A8
100
AcDbEntity
  8
DEFPOINTS
 62
     0
 48
50.0
100
AcDbPoint
 10
8614.775883545373
 20
4499.499112908288
 30
0.0
  0
POINT
  5
18BC1
330
186A8
100
AcDbEntity
  8
DEFPOINTS
 62
     0
 48
50.0
100
AcDbPoint
 10
8610.722427988745
 20
4358.557389142574
 30
0.0
  0
POINT
  5
18BC2
330
186A8
100
AcDbEntity
  8
DEFPOINTS
 62
     0
 48
50.0
100
AcDbPoint
 10
8034.771456618427
 20
4375.121622946937
 30
0.0
  0
ENDBLK
  5
186B4
330
186A8
100
AcDbEntity
  8
0
 48
50.0
100
AcDbBlockEnd
  0
BLOCK
  5
186BF
330
186B5
100
AcDbEntity
  8
0
 48
50.0
100
AcDbBlockBegin
  2
*D22
 70
     1
 10
0.0
 20
0.0
 30
0.0
  3
*D22
  1

  0
LINE
  5
18BB0
330
186B5
100
AcDbEntity
  8
寸法
 62
     0
 48
50.0
370
    -2
100
AcDbLine
 10
8635.379863386795
 20
2125.776364073608
 30
0.0
 11
7686.740481457437
 21
2125.776364073608
 31
0.0
  0
LINE
  5
18BB1
330
186B5
100
AcDbEntity
  8
寸法
 62
     0
 48
50.0
370
    -2
100
AcDbLine
 10
8575.379863386796
 20
4500.776364073614
 30
0.0
 11
7686.740481457437
 21
4500.776364073614
 31
0.0
  0
LINE
  5
18BB2
330
186B5
100
AcDbEntity
  8
寸法
 62
     0
 48
50.0
370
    -2
100
AcDbLine
 10
7746.740481457438
 20
2125.776364073608
 30
0.0
 11
7746.740481457438
 21
4500.776364073614
 31
0.0
  0
INSERT
  5
18BB3
330
186B5
100
AcDbEntity
  8
寸法
 62
     0
 48
50.0
370
    -2
100
AcDbBlockReference
  2
_DOTSMALL
 10
7746.740481457438
 20
2125.776364073608
 30
0.0
 41
100.0
 42
100.0
 43
100.0
 50
270.0
  0
INSERT
  5
18BB4
330
186B5
100
AcDbEntity
  8
寸法
 62
     0
 48
50.0
370
    -2
100
AcDbBlockReference
  2
_DOTSMALL
 10
7746.740481457438
 20
4500.776364073614
 30
0.0
 41
100.0
 42
100.0
 43
100.0
 50
90.0
  0
MTEXT
  5
18BB5
330
186B5
100
AcDbEntity
  8
寸法
 62
     7
 48
50.0
100
AcDbMText
 10
7646.728670433815
 20
3196.276364073608
 30
0.0
 40
120.0
 41
0.0
 71
     5
 72
     1
  1
\A1;2375
  7
STYLE1
 11
0.0000000000000001
 21
1.0
 31
0.0
 73
     1
 44
1.0
1001
ACAD
1000
MTEXTBEGIN
1070
    73
1070
     1
1070
    44
1040
1.0
1070
    74
1070
     0
1000
MTEXTEND
  0
POINT
  5
18BB6
330
186B5
100
AcDbEntity
  8
DEFPOINTS
 62
     0
 48
50.0
100
AcDbPoint
 10
8655.379863386796
 20
2125.776364073608
 30
0.0
  0
POINT
  5
18BB7
330
186B5
100
AcDbEntity
  8
DEFPOINTS
 62
     0
 48
50.0
100
AcDbPoint
 10
8595.379863386796
 20
4500.776364073614
 30
0.0
  0
POINT
  5
18BB8
330
186B5
100
AcDbEntity
  8
DEFPOINTS
 62
     0
 48
50.0
100
AcDbPoint
 10
7746.740481457438
 20
4500.776364073614
 30
0.0
  0
ENDBLK
  5
186C0
330
186B5
100
AcDbEntity
  8
0
 48
50.0
100
AcDbBlockEnd
  0
BLOCK
  5
186CB
330
186C1
100
AcDbEntity
  8
0
 48
50.0
100
AcDbBlockBegin
  2
*D23
 70
     1
 10
0.0
 20
0.0
 30
0.0
  3
*D23
  1

  0
LINE
  5
18BA7
330
186C1
100
AcDbEntity
  8
寸法
 62
     0
 48
50.0
370
    -2
100
AcDbLine
 10
8635.379863386795
 20
4265.776364073608
 30
0.0
 11
7971.727154228499
 21
4265.776364073608
 31
0.0
  0
LINE
  5
18BA8
330
186C1
100
AcDbEntity
  8
寸法
 62
     0
 48
50.0
370
    -2
100
AcDbLine
 10
8635.379863386795
 20
2175.776364073608
 30
0.0
 11
7971.727154228499
 21
2175.776364073608
 31
0.0
  0
LINE
  5
18BA9
330
186C1
100
AcDbEntity
  8
寸法
 62
     0
 48
50.0
370
    -2
100
AcDbLine
 10
8031.727154228498
 20
4265.776364073608
 30
0.0
 11
8031.727154228498
 21
2175.776364073608
 31
0.0
  0
INSERT
  5
18BAA
330
186C1
100
AcDbEntity
  8
寸法
 62
     0
 48
50.0
370
    -2
100
AcDbBlockReference
  2
_DOTSMALL
 10
8031.727154228498
 20
4265.776364073608
 30
0.0
 41
100.0
 42
100.0
 43
100.0
 50
90.0
  0
INSERT
  5
18BAB
330
186C1
100
AcDbEntity
  8
寸法
 62
     0
 48
50.0
370
    -2
100
AcDbBlockReference
  2
_DOTSMALL
 10
8031.727154228498
 20
2175.776364073608
 30
0.0
 41
100.0
 42
100.0
 43
100.0
 50
270.0
  0
MTEXT
  5
18BAC
330
186C1
100
AcDbEntity
  8
寸法
 62
     7
 48
50.0
100
AcDbMText
 10
7931.715343204877
 20
3196.276364073608
 30
0.0
 40
120.0
 41
0.0
 71
     5
 72
     1
  1
\A1;2090
  7
STYLE1
 11
0.0000000000000001
 21
1.0
 31
0.0
 73
     1
 44
1.0
1001
ACAD
1000
MTEXTBEGIN
1070
    73
1070
     1
1070
    44
1040
1.0
1070
    74
1070
     0
1000
MTEXTEND
  0
POINT
  5
18BAD
330
186C1
100
AcDbEntity
  8
DEFPOINTS
 62
     0
 48
50.0
100
AcDbPoint
 10
8655.379863386796
 20
4265.776364073608
 30
0.0
  0
POINT
  5
18BAE
330
186C1
100
AcDbEntity
  8
DEFPOINTS
 62
     0
 48
50.0
100
AcDbPoint
 10
8655.379863386796
 20
2175.776364073608
 30
0.0
  0
POINT
  5
18BAF
330
186C1
100
AcDbEntity
  8
DEFPOINTS
 62
     0
 48
50.0
100
AcDbPoint
 10
8031.727154228498
 20
2175.776364073608
 30
0.0
  0
ENDBLK
  5
186CC
330
186C1
100
AcDbEntity
  8
0
 48
50.0
100
AcDbBlockEnd
  0
BLOCK
  5
186D9
330
186CD
100
AcDbEntity
  8
0
 48
50.0
100
AcDbBlockBegin
  2
*D24
 70
     1
 10
0.0
 20
0.0
 30
0.0
  3
*D24
  1

  0
LINE
  5
18B9C
330
186CD
100
AcDbEntity
  8
寸法
 62
     0
 48
50.0
370
    -2
100
AcDbLine
 10
8635.379863386795
 20
2175.776364073608
 30
0.0
 11
7971.727154228499
 21
2175.776364073608
 31
0.0
  0
LINE
  5
18B9D
330
186CD
100
AcDbEntity
  8
寸法
 62
     0
 48
50.0
370
    -2
100
AcDbLine
 10
8580.379863386795
 20
2125.776364073608
 30
0.0
 11
7971.727154228499
 21
2125.776364073608
 31
0.0
  0
LINE
  5
18B9E
330
186CD
100
AcDbEntity
  8
寸法
 62
     0
 48
50.0
370
    -2
100
AcDbLine
 10
8031.727154228498
 20
2175.776364073608
 30
0.0
 11
8031.727154228498
 21
2275.776364073609
 31
0.0
  0
LINE
  5
18B9F
330
186CD
100
AcDbEntity
  8
寸法
 62
     0
 48
50.0
370
    -2
100
AcDbLine
 10
8031.727154228498
 20
2125.776364073608
 30
0.0
 11
8031.727154228498
 21
1713.681875884628
 31
0.0
  0
LINE
  5
18BA0
330
186CD
100
AcDbEntity
  8
寸法
 62
     0
 48
50.0
370
    -2
100
AcDbLine
 10
8031.727154228498
 20
2175.776364073608
 30
0.0
 11
8031.727154228498
 21
2125.776364073608
 31
0.0
  0
INSERT
  5
18BA1
330
186CD
100
AcDbEntity
  8
寸法
 62
     0
 48
50.0
370
    -2
100
AcDbBlockReference
  2
_DOTSMALL
 10
8031.727154228498
 20
2175.776364073608
 30
0.0
 41
100.0
 42
100.0
 43
100.0
 50
270.0
  0
INSERT
  5
18BA2
330
186CD
100
AcDbEntity
  8
寸法
 62
     0
 48
50.0
370
    -2
100
AcDbBlockReference
  2
_DOTSMALL
 10
8031.727154228498
 20
2125.776364073608
 30
0.0
 41
100.0
 42
100.0
 43
100.0
 50
90.0
  0
MTEXT
  5
18BA3
330
186CD
100
AcDbEntity
  8
寸法
 62
     7
 48
50.0
100
AcDbMText
 10
7931.727154228498
 20
1819.729119979118
 30
0.0
 40
120.0
 41
0.0
 71
     5
 72
     1
  1
\A1;50
  7
STYLE1
 11
0.0000000000000001
 21
1.0
 31
0.0
 73
     1
 44
1.0
1001
ACAD
1000
MTEXTBEGIN
1070
    73
1070
     1
1070
    44
1040
1.0
1070
    74
1070
     0
1000
MTEXTEND
  0
POINT
  5
18BA4
330
186CD
100
AcDbEntity
  8
DEFPOINTS
 62
     0
 48
50.0
100
AcDbPoint
 10
8655.379863386796
 20
2175.776364073608
 30
0.0
  0
POINT
  5
18BA5
330
186CD
100
AcDbEntity
  8
DEFPOINTS
 62
     0
 48
50.0
100
AcDbPoint
 10
8600.379863386796
 20
2125.776364073608
 30
0.0
  0
POINT
  5
18BA6
330
186CD
100
AcDbEntity
  8
DEFPOINTS
 62
     0
 48
50.0
100
AcDbPoint
 10
8031.727154228498
 20
2125.776364073608
 30
0.0
  0
ENDBLK
  5
186DA
330
186CD
100
AcDbEntity
  8
0
 48
50.0
100
AcDbBlockEnd
  0
BLOCK
  5
186E6
330
186DB
100
AcDbEntity
  8
0
 48
50.0
100
AcDbBlockBegin
  2
*D25
 70
     1
 10
0.0
 20
0.0
 30
0.0
  3
*D25
  1

  0
LINE
  5
18B92
330
186DB
100
AcDbEntity
  8
寸法
 62
     0
 48
50.0
370
    -2
100
AcDbLine
 10
8580.379863386795
 20
2125.776364073608
 30
0.0
 11
7686.740481457437
 21
2125.776364073608
 31
0.0
  0
LINE
  5
18B93
330
186DB
100
AcDbEntity
  8
寸法
 62
     0
 48
50.0
370
    -2
100
AcDbLine
 10
8011.727154228498
 20
2025.776364073609
 30
0.0
 11
7686.740481457437
 21
2025.776364073609
 31
0.0
  0
LINE
  5
18B94
330
186DB
100
AcDbEntity
  8
寸法
 62
     0
 48
50.0
370
    -2
100
AcDbLine
 10
7746.740481457438
 20
2125.776364073608
 30
0.0
 11
7746.740481457436
 21
2025.776364073609
 31
0.0
  0
LINE
  5
18B95
330
186DB
100
AcDbEntity
  8
寸法
 62
     0
 48
50.0
370
    -2
100
AcDbLine
 10
7746.740481457436
 20
2025.776364073609
 30
0.0
 11
7746.740481457436
 21
1653.681875884628
 31
0.0
  0
INSERT
  5
18B96
330
186DB
100
AcDbEntity
  8
寸法
 62
     0
 48
50.0
370
    -2
100
AcDbBlockReference
  2
_DOTSMALL
 10
7746.740481457438
 20
2125.776364073608
 30
0.0
 41
100.0
 42
100.0
 43
100.0
 50
90.0
  0
INSERT
  5
18B97
330
186DB
100
AcDbEntity
  8
寸法
 62
     0
 48
50.0
370
    -2
100
AcDbBlockReference
  2
_DOTSMALL
 10
7746.740481457436
 20
2025.776364073609
 30
0.0
 41
100.0
 42
100.0
 43
100.0
 50
270.0
  0
MTEXT
  5
18B98
330
186DB
100
AcDbEntity
  8
寸法
 62
     7
 48
50.0
100
AcDbMText
 10
7646.740481457436
 20
1789.729119979118
 30
0.0
 40
120.0
 41
0.0
 71
     5
 72
     1
  1
\A1;100
  7
STYLE1
 11
0.0000000000000001
 21
1.0
 31
0.0
 73
     1
 44
1.0
1001
ACAD
1000
MTEXTBEGIN
1070
    73
1070
     1
1070
    44
1040
1.0
1070
    74
1070
     0
1000
MTEXTEND
  0
POINT
  5
18B99
330
186DB
100
AcDbEntity
  8
DEFPOINTS
 62
     0
 48
50.0
100
AcDbPoint
 10
8600.379863386796
 20
2125.776364073608
 30
0.0
  0
POINT
  5
18B9A
330
186DB
100
AcDbEntity
  8
DEFPOINTS
 62
     0
 48
50.0
100
AcDbPoint
 10
8031.727154228498
 20
2025.776364073609
 30
0.0
  0
POINT
  5
18B9B
330
186DB
100
AcDbEntity
  8
DEFPOINTS
 62
     0
 48
50.0
100
AcDbPoint
 10
7746.740481457436
 20
2025.776364073609
 30
0.0
  0
ENDBLK
  5
186E7
330
186DB
100
AcDbEntity
  8
0
 48
50.0
100
AcDbBlockEnd
  0
BLOCK
  5
186F3
330
186E8
100
AcDbEntity
  8
0
 48
50.0
100
AcDbBlockBegin
  2
*D26
 70
     1
 10
0.0
 20
0.0
 30
0.0
  3
*D26
  1

  0
LINE
  5
18B88
330
186E8
100
AcDbEntity
  8
寸法
 62
     0
 48
50.0
370
    -2
100
AcDbLine
 10
11285.3798633868
 20
4467.587043685262
 30
0.0
 11
11285.3798633868
 21
4959.433817652914
 31
0.0
  0
LINE
  5
18B89
330
186E8
100
AcDbEntity
  8
寸法
 62
     0
 48
50.0
370
    -2
100
AcDbLine
 10
11365.3798633868
 20
4465.77636407361
 30
0.0
 11
11365.3798633868
 21
4959.433817652914
 31
0.0
  0
LINE
  5
18B8A
330
186E8
100
AcDbEntity
  8
寸法
 62
     0
 48
50.0
370
    -2
100
AcDbLine
 10
11285.3798633868
 20
4899.433817652914
 30
0.0
 11
11365.3798633868
 21
4899.433817652914
 31
0.0
  0
LINE
  5
18B8B
330
186E8
100
AcDbEntity
  8
寸法
 62
     0
 48
50.0
370
    -2
100
AcDbLine
 10
11365.3798633868
 20
4899.433817652914
 30
0.0
 11
11677.47435157578
 21
4899.433817652914
 31
0.0
  0
INSERT
  5
18B8C
330
186E8
100
AcDbEntity
  8
寸法
 62
     0
 48
50.0
370
    -2
100
AcDbBlockReference
  2
_DOTSMALL
 10
11285.3798633868
 20
4899.433817652914
 30
0.0
 41
100.0
 42
100.0
 43
100.0
 50
180.0
  0
INSERT
  5
18B8D
330
186E8
100
AcDbEntity
  8
寸法
 62
     0
 48
50.0
370
    -2
100
AcDbBlockReference
  2
_DOTSMALL
 10
11365.3798633868
 20
4899.433817652914
 30
0.0
 41
100.0
 42
100.0
 43
100.0
  0
MTEXT
  5
18B8E
330
186E8
100
AcDbEntity
  8
寸法
 62
     7
 48
50.0
100
AcDbMText
 10
11571.42710748129
 20
4999.433817652914
 30
0.0
 40
120.0
 41
0.0
 71
     5
 72
     1
  1
\A1;80
  7
STYLE1
 73
     1
 44
1.0
1001
ACAD
1000
MTEXTBEGIN
1070
    73
1070
     1
1070
    44
1040
1.0
1070
    74
1070
     0
1000
MTEXTEND
  0
POINT
  5
18B8F
330
186E8
100
AcDbEntity
  8
DEFPOINTS
 62
     0
 48
50.0
100
AcDbPoint
 10
11285.3798633868
 20
4447.587043685262
 30
0.0
  0
POINT
  5
18B90
330
186E8
100
AcDbEntity
  8
DEFPOINTS
 62
     0
 48
50.0
100
AcDbPoint
 10
11365.3798633868
 20
4445.77636407361
 30
0.0
  0
POINT
  5
18B91
330
186E8
100
AcDbEntity
  8
DEFPOINTS
 62
     0
 48
50.0
100
AcDbPoint
 10
11365.3798633868
 20
4899.433817652914
 30
0.0
  0
ENDBLK
  5
186F4
330
186E8
100
AcDbEntity
  8
0
 48
50.0
100
AcDbBlockEnd
  0
BLOCK
  5
186FF
330
186F5
100
AcDbEntity
  8
0
 48
50.0
100
AcDbBlockBegin
  2
*D27
 70
     1
 10
0.0
 20
0.0
 30
0.0
  3
*D27
  1

  0
LINE
  5
18B7F
330
186F5
100
AcDbEntity
  8
寸法
 62
     0
 48
50.0
370
    -2
100
AcDbLine
 10
11365.3798633868
 20
4465.77636407361
 30
0.0
 11
11365.3798633868
 21
5179.644504384531
 31
0.0
  0
LINE
  5
18B80
330
186F5
100
AcDbEntity
  8
寸法
 62
     0
 48
50.0
370
    -2
100
AcDbLine
 10
8595.379863386799
 20
4520.776364073613
 30
0.0
 11
8595.379863386799
 21
5179.644504384531
 31
0.0
  0
LINE
  5
18B81
330
186F5
100
AcDbEntity
  8
寸法
 62
     0
 48
50.0
370
    -2
100
AcDbLine
 10
11365.3798633868
 20
5119.644504384531
 30
0.0
 11
8595.379863386799
 21
5119.644504384531
 31
0.0
  0
INSERT
  5
18B82
330
186F5
100
AcDbEntity
  8
寸法
 62
     0
 48
50.0
370
    -2
100
AcDbBlockReference
  2
_DOTSMALL
 10
11365.3798633868
 20
5119.644504384531
 30
0.0
 41
100.0
 42
100.0
 43
100.0
  0
INSERT
  5
18B83
330
186F5
100
AcDbEntity
  8
寸法
 62
     0
 48
50.0
370
    -2
100
AcDbBlockReference
  2
_DOTSMALL
 10
8595.379863386799
 20
5119.644504384531
 30
0.0
 41
100.0
 42
100.0
 43
100.0
 50
180.0
  0
MTEXT
  5
18B84
330
186F5
100
AcDbEntity
  8
寸法
 62
     7
 48
50.0
100
AcDbMText
 10
9998.738788274176
 20
5219.656315408152
 30
0.0
 40
120.0
 41
0.0
 71
     5
 72
     1
  1
\A1;2770
  7
STYLE1
 73
     1
 44
1.0
1001
ACAD
1000
MTEXTBEGIN
1070
    73
1070
     1
1070
    44
1040
1.0
1070
    74
1070
     0
1000
MTEXTEND
  0
POINT
  5
18B85
330
186F5
100
AcDbEntity
  8
DEFPOINTS
 62
     0
 48
50.0
100
AcDbPoint
 10
11365.3798633868
 20
4445.77636407361
 30
0.0
  0
POINT
  5
18B86
330
186F5
100
AcDbEntity
  8
DEFPOINTS
 62
     0
 48
50.0
100
AcDbPoint
 10
8595.379863386799
 20
4500.776364073613
 30
0.0
  0
POINT
  5
18B87
330
186F5
100
AcDbEntity
  8
DEFPOINTS
 62
     0
 48
50.0
100
AcDbPoint
 10
8595.379863386799
 20
5119.644504384531
 30
0.0
  0
ENDBLK
  5
18700
330
186F5
100
AcDbEntity
  8
0
 48
50.0
100
AcDbBlockEnd
  0
BLOCK
  5
1870B
330
18701
100
AcDbEntity
  8
0
 48
50.0
100
AcDbBlockBegin
  2
*D28
 70
     1
 10
0.0
 20
0.0
 30
0.0
  3
*D28
  1

  0
LINE
  5
18B76
330
18701
100
AcDbEntity
  8
寸法
 62
     0
 48
50.0
370
    -2
100
AcDbLine
 10
11285.3798633868
 20
4467.587043685262
 30
0.0
 11
11285.3798633868
 21
4959.433817652914
 31
0.0
  0
LINE
  5
18B77
330
18701
100
AcDbEntity
  8
寸法
 62
     0
 48
50.0
370
    -2
100
AcDbLine
 10
8655.3798633868
 20
4516.777982196585
 30
0.0
 11
8655.3798633868
 21
4959.433817652914
 31
0.0
  0
LINE
  5
18B78
330
18701
100
AcDbEntity
  8
寸法
 62
     0
 48
50.0
370
    -2
100
AcDbLine
 10
11285.3798633868
 20
4899.433817652914
 30
0.0
 11
8655.3798633868
 21
4899.433817652914
 31
0.0
  0
INSERT
  5
18B79
330
18701
100
AcDbEntity
  8
寸法
 62
     0
 48
50.0
370
    -2
100
AcDbBlockReference
  2
_DOTSMALL
 10
11285.3798633868
 20
4899.433817652914
 30
0.0
 41
100.0
 42
100.0
 43
100.0
  0
INSERT
  5
18B7A
330
18701
100
AcDbEntity
  8
寸法
 62
     0
 48
50.0
370
    -2
100
AcDbBlockReference
  2
_DOTSMALL
 10
8655.3798633868
 20
4899.433817652914
 30
0.0
 41
100.0
 42
100.0
 43
100.0
 50
180.0
  0
MTEXT
  5
18B7B
330
18701
100
AcDbEntity
  8
寸法
 62
     7
 48
50.0
100
AcDbMText
 10
10010.15005441599
 20
4999.445628676536
 30
0.0
 40
120.0
 41
0.0
 71
     5
 72
     1
  1
\A1;柱外寸法2630
  7
STYLE1
 73
     1
 44
1.0
1001
ACAD
1000
MTEXTBEGIN
1070
    73
1070
     1
1070
    44
1040
1.0
1070
    74
1070
     0
1000
MTEXTEND
  0
POINT
  5
18B7C
330
18701
100
AcDbEntity
  8
DEFPOINTS
 62
     0
 48
50.0
100
AcDbPoint
 10
11285.3798633868
 20
4447.587043685262
 30
0.0
  0
POINT
  5
18B7D
330
18701
100
AcDbEntity
  8
DEFPOINTS
 62
     0
 48
50.0
100
AcDbPoint
 10
8655.3798633868
 20
4496.777982196585
 30
0.0
  0
POINT
  5
18B7E
330
18701
100
AcDbEntity
  8
DEFPOINTS
 62
     0
 48
50.0
100
AcDbPoint
 10
8655.3798633868
 20
4899.433817652914
 30
0.0
  0
ENDBLK
  5
1870C
330
18701
100
AcDbEntity
  8
0
 48
50.0
100
AcDbBlockEnd
  0
BLOCK
  5
18719
330
1870D
100
AcDbEntity
  8
0
 48
50.0
100
AcDbBlockBegin
  2
*D29
 70
     1
 10
0.0
 20
0.0
 30
0.0
  3
*D29
  1

  0
LINE
  5
18B6B
330
1870D
100
AcDbEntity
  8
寸法
 62
     0
 48
50.0
370
    -2
100
AcDbLine
 10
8655.3798633868
 20
4516.777982196585
 30
0.0
 11
8655.3798633868
 21
4959.433817652913
 31
0.0
  0
LINE
  5
18B6C
330
1870D
100
AcDbEntity
  8
寸法
 62
     0
 48
50.0
370
    -2
100
AcDbLine
 10
8595.379863386799
 20
4520.776364073613
 30
0.0
 11
8595.379863386799
 21
4959.433817652913
 31
0.0
  0
LINE
  5
18B6D
330
1870D
100
AcDbEntity
  8
寸法
 62
     0
 48
50.0
370
    -2
100
AcDbLine
 10
8655.3798633868
 20
4899.433817652912
 30
0.0
 11
8755.379863386799
 21
4899.433817652912
 31
0.0
  0
LINE
  5
18B6E
330
1870D
100
AcDbEntity
  8
寸法
 62
     0
 48
50.0
370
    -2
100
AcDbLine
 10
8595.379863386799
 20
4899.433817652912
 30
0.0
 11
8176.104272835617
 21
4899.433817652912
 31
0.0
  0
LINE
  5
18B6F
330
1870D
100
AcDbEntity
  8
寸法
 62
     0
 48
50.0
370
    -2
100
AcDbLine
 10
8655.3798633868
 20
4899.433817652912
 30
0.0
 11
8595.379863386799
 21
4899.433817652912
 31
0.0
  0
INSERT
  5
18B70
330
1870D
100
AcDbEntity
  8
寸法
 62
     0
 48
50.0
370
    -2
100
AcDbBlockReference
  2
_DOTSMALL
 10
8655.3798633868
 20
4899.433817652912
 30
0.0
 41
100.0
 42
100.0
 43
100.0
 50
180.0
  0
INSERT
  5
18B71
330
1870D
100
AcDbEntity
  8
寸法
 62
     0
 48
50.0
370
    -2
100
AcDbBlockReference
  2
_DOTSMALL
 10
8595.379863386799
 20
4899.433817652912
 30
0.0
 41
100.0
 42
100.0
 43
100.0
  0
MTEXT
  5
18B72
330
1870D
100
AcDbEntity
  8
寸法
 62
     7
 48
50.0
100
AcDbMText
 10
8285.742068111209
 20
4999.433817652913
 30
0.0
 40
120.0
 41
0.0
 71
     5
 72
     1
  1
\A1;60
  7
STYLE1
 73
     1
 44
1.0
1001
ACAD
1000
MTEXTBEGIN
1070
    73
1070
     1
1070
    44
1040
1.0
1070
    74
1070
     0
1000
MTEXTEND
  0
POINT
  5
18B73
330
1870D
100
AcDbEntity
  8
DEFPOINTS
 62
     0
 48
50.0
100
AcDbPoint
 10
8655.3798633868
 20
4496.777982196585
 30
0.0
  0
POINT
  5
18B74
330
1870D
100
AcDbEntity
  8
DEFPOINTS
 62
     0
 48
50.0
100
AcDbPoint
 10
8595.379863386799
 20
4500.776364073613
 30
0.0
  0
POINT
  5
18B75
330
1870D
100
AcDbEntity
  8
DEFPOINTS
 62
     0
 48
50.0
100
AcDbPoint
 10
8595.379863386799
 20
4899.433817652912
 30
0.0
  0
ENDBLK
  5
1871A
330
1870D
100
AcDbEntity
  8
0
 48
50.0
100
AcDbBlockEnd
  0
BLOCK
  5
18E46
330
18E3C
100
AcDbEntity
  8
0
 48
50.0
100
AcDbBlockBegin
  2
*D30
 70
     1
 10
0.0
 20
0.0
 30
0.0
  3
*D30
  1

  0
LINE
  5
192F3
330
18E3C
100
AcDbEntity
  8
寸法
 62
     0
 48
50.0
370
    -2
100
AcDbLine
 10
9142.379863386773
 20
7313.523065360577
 30
0.0
 11
9142.379863386773
 21
6644.44833561287
 31
0.0
  0
LINE
  5
192F4
330
18E3C
100
AcDbEntity
  8
寸法
 62
     0
 48
50.0
370
    -2
100
AcDbLine
 10
10408.37986338677
 20
7313.523065360577
 30
0.0
 11
10408.37986338677
 21
6644.44833561287
 31
0.0
  0
LINE
  5
192F5
330
18E3C
100
AcDbEntity
  8
寸法
 62
     0
 48
50.0
370
    -2
100
AcDbLine
 10
9162.379863386773
 20
6684.448335612869
 30
0.0
 11
10388.37986338677
 21
6684.448335612869
 31
0.0
  0
INSERT
  5
192F6
330
18E3C
100
AcDbEntity
  8
寸法
 62
     0
 48
50.0
370
    -2
100
AcDbBlockReference
  2
_DOT
 10
9142.379863386773
 20
6684.448335612869
 30
0.0
 41
20.0
 42
20.0
 43
20.0
 50
180.0
  0
INSERT
  5
192F7
330
18E3C
100
AcDbEntity
  8
寸法
 62
     0
 48
50.0
370
    -2
100
AcDbBlockReference
  2
_DOT
 10
10408.37986338677
 20
6684.448335612869
 30
0.0
 41
20.0
 42
20.0
 43
20.0
  0
MTEXT
  5
192F8
330
18E3C
100
AcDbEntity
  8
寸法
 62
     7
 48
50.0
100
AcDbMText
 10
9804.067499768178
 20
6876.460146636491
 30
0.0
 40
120.0
 41
0.0
 71
     5
 72
     1
  1
\A1;有効開口部間口\P1266
  7
STYLE1
 73
     1
 44
1.0
1001
ACAD
1000
MTEXTBEGIN
1070
    73
1070
     1
1070
    44
1040
1.0
1070
    74
1070
     0
1000
MTEXTEND
  0
POINT
  5
192F9
330
18E3C
100
AcDbEntity
  8
DEFPOINTS
 62
     0
 48
50.0
100
AcDbPoint
 10
9142.379863386773
 20
7333.523065360577
 30
0.0
  0
POINT
  5
192FA
330
18E3C
100
AcDbEntity
  8
DEFPOINTS
 62
     0
 48
50.0
100
AcDbPoint
 10
10408.37986338677
 20
7333.523065360577
 30
0.0
  0
POINT
  5
192FB
330
18E3C
100
AcDbEntity
  8
DEFPOINTS
 62
     0
 48
50.0
100
AcDbPoint
 10
10408.37986338677
 20
6684.448335612869
 30
0.0
  0
ENDBLK
  5
18E47
330
18E3C
100
AcDbEntity
  8
0
 48
50.0
100
AcDbBlockEnd
  0
BLOCK
  5
19189
330
1917F
100
AcDbEntity
  8
0
 48
50.0
100
AcDbBlockBegin
  2
*D31
 70
     1
 10
0.0
 20
0.0
 30
0.0
  3
*D31
  1

  0
LINE
  5
192EA
330
1917F
100
AcDbEntity
  8
寸法
 62
     0
 48
50.0
370
    -2
100
AcDbLine
 10
8655.3798633868
 20
7390.523065360546
 30
0.0
 11
8655.3798633868
 21
6094.135548297799
 31
0.0
  0
LINE
  5
192EB
330
1917F
100
AcDbEntity
  8
寸法
 62
     0
 48
50.0
370
    -2
100
AcDbLine
 10
11285.37986338678
 20
7390.523065360709
 30
0.0
 11
11285.37986338678
 21
6094.135548297799
 31
0.0
  0
LINE
  5
192EC
330
1917F
100
AcDbEntity
  8
寸法
 62
     0
 48
50.0
370
    -2
100
AcDbLine
 10
8655.3798633868
 20
6154.135548297799
 30
0.0
 11
11285.37986338678
 21
6154.135548297799
 31
0.0
  0
INSERT
  5
192ED
330
1917F
100
AcDbEntity
  8
寸法
 62
     0
 48
50.0
370
    -2
100
AcDbBlockReference
  2
_DOTSMALL
 10
8655.3798633868
 20
6154.135548297799
 30
0.0
 41
100.0
 42
100.0
 43
100.0
 50
180.0
  0
INSERT
  5
192EE
330
1917F
100
AcDbEntity
  8
寸法
 62
     0
 48
50.0
370
    -2
100
AcDbBlockReference
  2
_DOTSMALL
 10
11285.37986338678
 20
6154.135548297799
 30
0.0
 41
100.0
 42
100.0
 43
100.0
  0
MTEXT
  5
192EF
330
1917F
100
AcDbEntity
  8
寸法
 62
     7
 48
50.0
100
AcDbMText
 10
9988.181652022948
 20
6254.147359321421
 30
0.0
 40
120.0
 41
0.0
 71
     5
 72
     1
  1
\A1;2630
  7
STYLE1
 73
     1
 44
1.0
1001
ACAD
1000
MTEXTBEGIN
1070
    73
1070
     1
1070
    44
1040
1.0
1070
    74
1070
     0
1000
MTEXTEND
  0
POINT
  5
192F0
330
1917F
100
AcDbEntity
  8
DEFPOINTS
 62
     0
 48
50.0
100
AcDbPoint
 10
8655.3798633868
 20
7410.523065360544
 30
0.0
  0
POINT
  5
192F1
330
1917F
100
AcDbEntity
  8
DEFPOINTS
 62
     0
 48
50.0
100
AcDbPoint
 10
11285.37986338678
 20
7410.52306536071
 30
0.0
  0
POINT
  5
192F2
330
1917F
100
AcDbEntity
  8
DEFPOINTS
 62
     0
 48
50.0
100
AcDbPoint
 10
11285.37986338678
 20
6154.135548297799
 30
0.0
  0
ENDBLK
  5
1918A
330
1917F
100
AcDbEntity
  8
0
 48
50.0
100
AcDbBlockEnd
  0
BLOCK
  5
19197
330
1918B
100
AcDbEntity
  8
0
 48
50.0
100
AcDbBlockBegin
  2
*D32
 70
     1
 10
0.0
 20
0.0
 30
0.0
  3
*D32
  1

  0
LINE
  5
192DF
330
1918B
100
AcDbEntity
  8
寸法
 62
     0
 48
50.0
370
    -2
100
AcDbLine
 10
8635.3798633868
 20
7410.523065360544
 30
0.0
 11
8320.768617760084
 21
7410.523065360544
 31
0.0
  0
LINE
  5
192E0
330
1918B
100
AcDbEntity
  8
寸法
 62
     0
 48
50.0
370
    -2
100
AcDbLine
 10
9083.379863386774
 20
7335.523065360544
 30
0.0
 11
8320.768617760084
 21
7335.523065360544
 31
0.0
  0
LINE
  5
192E1
330
1918B
100
AcDbEntity
  8
寸法
 62
     0
 48
50.0
370
    -2
100
AcDbLine
 10
8360.768617760083
 20
7430.523065360545
 30
0.0
 11
8360.768617760083
 21
7450.523065360545
 31
0.0
  0
LINE
  5
192E2
330
1918B
100
AcDbEntity
  8
寸法
 62
     0
 48
50.0
370
    -2
100
AcDbLine
 10
8360.768617760083
 20
7315.523065360546
 30
0.0
 11
8360.768617760083
 21
7094.552502612066
 31
0.0
  0
LINE
  5
192E3
330
1918B
100
AcDbEntity
  8
寸法
 62
     0
 48
50.0
370
    -2
100
AcDbLine
 10
8360.768617760083
 20
7410.523065360544
 30
0.0
 11
8360.768617760083
 21
7335.523065360544
 31
0.0
  0
INSERT
  5
192E4
330
1918B
100
AcDbEntity
  8
寸法
 62
     0
 48
50.0
370
    -2
100
AcDbBlockReference
  2
_DOT
 10
8360.768617760083
 20
7410.523065360544
 30
0.0
 41
20.0
 42
20.0
 43
20.0
 50
270.0
  0
INSERT
  5
192E5
330
1918B
100
AcDbEntity
  8
寸法
 62
     0
 48
50.0
370
    -2
100
AcDbBlockReference
  2
_DOT
 10
8360.768617760083
 20
7335.523065360544
 30
0.0
 41
20.0
 42
20.0
 43
20.0
 50
90.0
  0
MTEXT
  5
192E6
330
1918B
100
AcDbEntity
  8
寸法
 62
     7
 48
50.0
100
AcDbMText
 10
8268.76861776008
 20
7195.037783986307
 30
0.0
 40
120.0
 41
0.0
 71
     5
 72
     1
  1
\A1;75
  7
STYLE1
 11
0.0000000000000001
 21
1.0
 31
0.0
 73
     1
 44
1.0
1001
ACAD
1000
MTEXTBEGIN
1070
    73
1070
     1
1070
    44
1040
1.0
1070
    74
1070
     0
1000
MTEXTEND
  0
POINT
  5
192E7
330
1918B
100
AcDbEntity
  8
DEFPOINTS
 62
     0
 48
50.0
100
AcDbPoint
 10
8655.3798633868
 20
7410.523065360544
 30
0.0
  0
POINT
  5
192E8
330
1918B
100
AcDbEntity
  8
DEFPOINTS
 62
     0
 48
50.0
100
AcDbPoint
 10
9103.379863386773
 20
7335.523065360544
 30
0.0
  0
POINT
  5
192E9
330
1918B
100
AcDbEntity
  8
DEFPOINTS
 62
     0
 48
50.0
100
AcDbPoint
 10
8360.768617760083
 20
7335.523065360544
 30
0.0
  0
ENDBLK
  5
19198
330
1918B
100
AcDbEntity
  8
0
 48
50.0
100
AcDbBlockEnd
  0
BLOCK
  5
191A3
330
19199
100
AcDbEntity
  8
0
 48
50.0
100
AcDbBlockBegin
  2
*D33
 70
     1
 10
0.0
 20
0.0
 30
0.0
  3
*D33
  1

  0
LINE
  5
192D6
330
19199
100
AcDbEntity
  8
寸法
 62
     0
 48
50.0
370
    -2
100
AcDbLine
 10
9103.379863386773
 20
7313.52306536058
 30
0.0
 11
9103.379863386773
 21
6353.393349932812
 31
0.0
  0
LINE
  5
192D7
330
19199
100
AcDbEntity
  8
寸法
 62
     0
 48
50.0
370
    -2
100
AcDbLine
 10
11257.37986338677
 20
7313.52306536058
 30
0.0
 11
11257.37986338677
 21
6353.393349932812
 31
0.0
  0
LINE
  5
192D8
330
19199
100
AcDbEntity
  8
寸法
 62
     0
 48
50.0
370
    -2
100
AcDbLine
 10
9103.379863386773
 20
6413.39334993281
 30
0.0
 11
11257.37986338677
 21
6413.39334993281
 31
0.0
  0
INSERT
  5
192D9
330
19199
100
AcDbEntity
  8
寸法
 62
     0
 48
50.0
370
    -2
100
AcDbBlockReference
  2
_DOTSMALL
 10
9103.379863386773
 20
6413.39334993281
 30
0.0
 41
100.0
 42
100.0
 43
100.0
 50
180.0
  0
INSERT
  5
192DA
330
19199
100
AcDbEntity
  8
寸法
 62
     0
 48
50.0
370
    -2
100
AcDbBlockReference
  2
_DOTSMALL
 10
11257.37986338677
 20
6413.39334993281
 30
0.0
 41
100.0
 42
100.0
 43
100.0
  0
MTEXT
  5
192DB
330
19199
100
AcDbEntity
  8
寸法
 62
     7
 48
50.0
100
AcDbMText
 10
10202.51262013408
 20
6513.405160956434
 30
0.0
 40
120.0
 41
0.0
 71
     5
 72
     1
  1
\A1;2154
  7
STYLE1
 73
     1
 44
1.0
1001
ACAD
1000
MTEXTBEGIN
1070
    73
1070
     1
1070
    44
1040
1.0
1070
    74
1070
     0
1000
MTEXTEND
  0
POINT
  5
192DC
330
19199
100
AcDbEntity
  8
DEFPOINTS
 62
     0
 48
50.0
100
AcDbPoint
 10
9103.379863386773
 20
7333.523065360579
 30
0.0
  0
POINT
  5
192DD
330
19199
100
AcDbEntity
  8
DEFPOINTS
 62
     0
 48
50.0
100
AcDbPoint
 10
11257.37986338677
 20
7333.523065360579
 30
0.0
  0
POINT
  5
192DE
330
19199
100
AcDbEntity
  8
DEFPOINTS
 62
     0
 48
50.0
100
AcDbPoint
 10
11257.37986338677
 20
6413.39334993281
 30
0.0
  0
ENDBLK
  5
191A4
330
19199
100
AcDbEntity
  8
0
 48
50.0
100
AcDbBlockEnd
  0
ENDSEC
  0
SECTION
  2
ENTITIES
  0
LINE
  5
10B57
330
747D
100
AcDbEntity
  8
補助
  6
PHANTOM
 62
   230
 48
50.0
100
AcDbLine
 10
139.9999999999995
 20
11409.6
 30
0.0
 11
16307.2
 21
11409.6
 31
0.0
  0
LINE
  5
10B59
330
747D
100
AcDbEntity
  8
仕様書枠
  6
Continuous
 48
50.0
100
AcDbLine
 10
13107.2
 20
1200.0
 30
0.0
 11
13107.2
 21
-0.0000000000000729
 31
0.0
  0
LINE
  5
10B5C
330
747D
100
AcDbEntity
  8
仕様書枠
 48
50.0
100
AcDbLine
 10
16307.2
 20
1200.0
 30
0.0
 11
16307.2
 21
-0.0000000000000909
 31
0.0
  0
LINE
  5
10B5D
330
747D
100
AcDbEntity
  8
仕様書枠
 48
50.0
100
AcDbLine
 10
140.0
 20
0.0
 30
0.0
 11
16307.2
 21
-0.0000000000000909
 31
0.0
  0
LINE
  5
10B5E
330
747D
100
AcDbEntity
  8
補助
  6
PHANTOM
 62
   230
 48
50.0
100
AcDbLine
 10
16307.2
 20
11409.6
 30
0.0
 11
16307.2
 21
1200.0
 31
0.0
  0
LINE
  5
10B6C
330
747D
100
AcDbEntity
  8
仕様書枠
 48
50.0
100
AcDbLine
 10
13107.2
 20
1200.0
 30
0.0
 11
16307.2
 21
1200.0
 31
0.0
  0
LINE
  5
10B6D
330
747D
100
AcDbEntity
  8
補助
  6
PHANTOM
 62
   230
 48
50.0
100
AcDbLine
 10
13107.2
 20
11409.6
 30
0.0
 11
13107.2
 21
4800.0
 31
0.0
  0
LINE
  5
10B6F
330
747D
100
AcDbEntity
  8
補助
  6
PHANTOM
 62
   230
 48
50.0
100
AcDbLine
 10
13107.2
 20
4800.0
 30
0.0
 11
16307.2
 21
4800.0
 31
0.0
  0
LINE
  5
10B72
330
747D
100
AcDbEntity
  8
文字
 62
     7
 48
50.0
100
AcDbLine
 10
13187.2
 20
400.0
 30
0.0
 11
16227.2
 21
400.0
 31
0.0
  0
TEXT
  5
10B73
330
747D
100
AcDbEntity
  8
文字
 62
     7
 48
50.0
100
AcDbText
 10
13162.9790565769
 20
895.0906074299405
 30
0.0
 40
200.0
  1
外 形 図
  7
STYLE2
100
AcDbText
  0
TEXT
  5
10B74
330
747D
100
AcDbEntity
  8
文字
 62
     7
 48
50.0
100
AcDbText
 10
13201.43669998441
 20
477.2740661031255
 30
0.0
 40
160.0
  1
機種名
  7
STYLE2
100
AcDbText
  0
TEXT
  5
10B76
330
747D
100
AcDbEntity
  8
文字
 62
     7
 48
50.0
100
AcDbText
 10
13209.4053442172
 20
76.09434707649343
 30
0.0
 40
100.0
  1
○床面積 ： 7.08㎡(2.15坪) 　
  7
STYLE2
100
AcDbText
  0
TEXT
  5
10B79
330
747D
100
AcDbEntity
  8
文字
 62
     7
 48
50.0
100
AcDbText
 10
14524.131837222
 20
1031.557706291228
 30
0.0
 40
100.0
  1
NO.25     <縮尺> S=1/40
  7
STYLE2
100
AcDbText
  0
LINE
  5
10B7B
330
747D
100
AcDbEntity
  8
仕様書枠
 48
50.0
100
AcDbLine
 10
13107.2
 20
800.0
 30
0.0
 11
14251.2
 21
800.0
 31
0.0
  0
LINE
  5
10B88
330
747D
100
AcDbEntity
  8
仕様書枠
  6
Continuous
 48
50.0
100
AcDbLine
 10
14251.2
 20
1200.0
 30
0.0
 11
14251.2
 21
800.0
 31
0.0
  0
TEXT
  5
15729
330
747D
100
AcDbEntity
  8
文字
 62
     7
 48
50.0
100
AcDbText
 10
14609.58599483005
 20
869.7247441969318
 30
0.0
 40
100.0
  1
～一般型・多雪地型～
  7
STYLE2
100
AcDbText
  0
LINE
  5
182CF
330
747D
100
AcDbEntity
  8
部品1
100
AcDbLine
 10
11228.87986338679
 20
8725.523065360695
 30
0.0
 11
8711.879863386789
 21
8725.523065360592
 31
0.0
  0
LINE
  5
182D0
330
747D
100
AcDbEntity
  8
部品1
100
AcDbLine
 10
8683.379863386781
 20
8725.523065360592
 30
0.0
 11
8655.379863386782
 21
8725.523065360592
 31
0.0
  0
LINE
  5
182D1
330
747D
100
AcDbEntity
  8
部品1
100
AcDbLine
 10
11257.3798633868
 20
8725.52306536072
 30
0.0
 11
11285.3798633868
 21
8725.52306536072
 31
0.0
  0
TEXT
  5
182D2
330
747D
100
AcDbEntity
  8
部品1
100
AcDbText
 10
2887.378717964588
 20
2061.883267679508
 30
0.0
 40
125.0
  1
▽G.L
  7
STYLE2
100
AcDbText
  0
TEXT
  5
182D3
330
747D
100
AcDbEntity
  8
部品1
100
AcDbText
 10
4975.993602358933
 20
1178.056231410601
 30
0.0
 40
135.0
  1
側面図
  7
STYLE2
100
AcDbText
  0
LINE
  5
182D4
330
747D
100
AcDbEntity
  8
部品1
100
AcDbLine
 10
4886.547500935325
 20
1370.949760629126
 30
0.0
 11
4886.547500935325
 21
1131.057439083593
 31
0.0
  0
LINE
  5
182D5
330
747D
100
AcDbEntity
  8
部品1
100
AcDbLine
 10
4886.547500935325
 20
1131.057439083593
 30
0.0
 11
5650.018167163769
 21
1131.057439083593
 31
0.0
  0
LINE
  5
182D6
330
747D
100
AcDbEntity
  8
部品1
100
AcDbLine
 10
5650.018167163769
 20
1131.057439083593
 30
0.0
 11
5650.018167163769
 21
1370.949760629126
 31
0.0
  0
LINE
  5
182D7
330
747D
100
AcDbEntity
  8
部品1
100
AcDbLine
 10
5650.018167163769
 20
1370.949760629126
 30
0.0
 11
4886.547500935325
 21
1370.949760629126
 31
0.0
  0
LINE
  5
182D8
330
747D
100
AcDbEntity
  8
部品1
100
AcDbLine
 10
6565.782834049551
 20
2125.776364073606
 30
0.0
 11
6573.28283404955
 21
2125.776364073606
 31
0.0
  0
LINE
  5
182D9
330
747D
100
AcDbEntity
  8
部品1
100
AcDbLine
 10
3943.282834049547
 20
2125.776364073606
 30
0.0
 11
3950.782834049547
 21
2125.776364073606
 31
0.0
  0
LINE
  5
182DA
330
747D
100
AcDbEntity
  8
部品1
100
AcDbLine
 10
3943.282834049547
 20
2125.776364073606
 30
0.0
 11
3950.782834049547
 21
2125.776364073606
 31
0.0
  0
LINE
  5
182DB
330
747D
100
AcDbEntity
  8
破線
  6
HIDDEN
 48
5.0
100
AcDbLine
 10
6580.78283404955
 20
1870.776364073606
 30
0.0
 11
6510.78283404955
 21
1870.776364073606
 31
0.0
  0
LINE
  5
182DC
330
747D
100
AcDbEntity
  8
破線
  6
HIDDEN
 48
5.0
100
AcDbLine
 10
6525.78283404955
 20
2020.776364073606
 30
0.0
 11
6510.78283404955
 21
1873.076364073606
 31
0.0
  0
LINE
  5
182DD
330
747D
100
AcDbEntity
  8
破線
  6
HIDDEN
 48
5.0
100
AcDbLine
 10
6510.78283404955
 20
1873.076364073606
 30
0.0
 11
6510.78283404955
 21
1870.776364073606
 31
0.0
  0
LINE
  5
182DE
330
747D
100
AcDbEntity
  8
破線
  6
HIDDEN
 48
5.0
100
AcDbLine
 10
6565.782834049551
 20
2020.776364073606
 30
0.0
 11
6580.78283404955
 21
1873.076364073606
 31
0.0
  0
LINE
  5
182DF
330
747D
100
AcDbEntity
  8
破線
  6
HIDDEN
 48
5.0
100
AcDbLine
 10
6580.78283404955
 20
1873.076364073606
 30
0.0
 11
6580.78283404955
 21
1870.776364073606
 31
0.0
  0
LINE
  5
182E0
330
747D
100
AcDbEntity
  8
破線
  6
HIDDEN
 48
5.0
100
AcDbLine
 10
3935.782834049547
 20
1870.776364073606
 30
0.0
 11
4005.782834049546
 21
1870.776364073606
 31
0.0
  0
LINE
  5
182E1
330
747D
100
AcDbEntity
  8
破線
  6
HIDDEN
 48
5.0
100
AcDbLine
 10
3935.782834049547
 20
1873.076364073606
 30
0.0
 11
3935.782834049547
 21
1870.776364073606
 31
0.0
  0
LINE
  5
182E2
330
747D
100
AcDbEntity
  8
破線
  6
HIDDEN
 48
5.0
100
AcDbLine
 10
4005.782834049546
 20
1873.076364073606
 30
0.0
 11
4005.782834049546
 21
1870.776364073606
 31
0.0
  0
LINE
  5
182E3
330
747D
100
AcDbEntity
  8
破線
  6
HIDDEN
 48
5.0
100
AcDbLine
 10
3950.782834049547
 20
2020.776364073606
 30
0.0
 11
3935.782834049547
 21
1873.076364073606
 31
0.0
  0
LINE
  5
182E4
330
747D
100
AcDbEntity
  8
破線
  6
HIDDEN
 48
5.0
100
AcDbLine
 10
3990.782834049547
 20
2020.776364073606
 30
0.0
 11
4005.782834049546
 21
1873.076364073606
 31
0.0
  0
LINE
  5
182E5
330
747D
100
AcDbEntity
  8
部品1
 48
50.0
100
AcDbLine
 10
3950.782834049547
 20
2165.776364073607
 30
0.0
 11
3950.782834049547
 21
2025.776364073607
 31
0.0
  0
LINE
  5
182E6
330
747D
100
AcDbEntity
  8
部品1
 48
50.0
100
AcDbLine
 10
3990.782834049547
 20
2165.776364073607
 30
0.0
 11
3990.782834049547
 21
2025.776364073607
 31
0.0
  0
LINE
  5
182E7
330
747D
100
AcDbEntity
  8
部品1
100
AcDbLine
 10
3955.782834049547
 20
2170.776364073606
 30
0.0
 11
3985.782834049548
 21
2170.776364073606
 31
0.0
  0
ARC
  5
182E8
330
747D
100
AcDbEntity
  8
部品1
 48
50.0
100
AcDbCircle
 10
3955.782834049547
 20
2165.776364073607
 30
0.0
 40
5.0
100
AcDbArc
 50
90.0
 51
180.0
  0
ARC
  5
182E9
330
747D
100
AcDbEntity
  8
部品1
 48
50.0
100
AcDbCircle
 10
3985.782834049548
 20
2165.776364073607
 30
0.0
 40
5.0
100
AcDbArc
 50
0.0
 51
90.0
  0
LINE
  5
182EA
330
747D
100
AcDbEntity
  8
部品1
 48
50.0
100
AcDbLine
 10
6525.78283404955
 20
2165.776364073607
 30
0.0
 11
6525.78283404955
 21
2025.776364073607
 31
0.0
  0
LINE
  5
182EB
330
747D
100
AcDbEntity
  8
部品1
 48
50.0
100
AcDbLine
 10
6565.782834049551
 20
2165.776364073607
 30
0.0
 11
6565.782834049551
 21
2025.776364073607
 31
0.0
  0
LINE
  5
182EC
330
747D
100
AcDbEntity
  8
部品1
100
AcDbLine
 10
6560.78283404955
 20
2170.776364073606
 30
0.0
 11
6530.78283404955
 21
2170.776364073606
 31
0.0
  0
ARC
  5
182ED
330
747D
100
AcDbEntity
  8
部品1
 48
50.0
100
AcDbCircle
 10
6530.78283404955
 20
2165.776364073607
 30
0.0
 40
5.0
100
AcDbArc
 50
90.0
 51
180.0
  0
ARC
  5
182EE
330
747D
100
AcDbEntity
  8
部品1
 48
50.0
100
AcDbCircle
 10
6560.78283404955
 20
2165.776364073607
 30
0.0
 40
5.0
100
AcDbArc
 50
0.0
 51
90.0
  0
LINE
  5
182EF
330
747D
100
AcDbEntity
  8
破線
  6
HIDDEN
 48
5.0
100
AcDbLine
 10
6525.78283404955
 20
2025.776364073607
 30
0.0
 11
6525.78283404955
 21
2020.776364073606
 31
0.0
  0
LINE
  5
182F0
330
747D
100
AcDbEntity
  8
破線
  6
HIDDEN
 48
5.0
100
AcDbLine
 10
6565.782834049551
 20
2025.776364073607
 30
0.0
 11
6565.782834049551
 21
2020.776364073606
 31
0.0
  0
LINE
  5
182F1
330
747D
100
AcDbEntity
  8
破線
  6
HIDDEN
 48
5.0
100
AcDbLine
 10
3950.782834049554
 20
2025.776364073607
 30
0.0
 11
3950.782834049554
 21
2020.776364073606
 31
0.0
  0
LINE
  5
182F2
330
747D
100
AcDbEntity
  8
破線
  6
HIDDEN
 48
5.0
100
AcDbLine
 10
3990.782834049547
 20
2025.776364073607
 30
0.0
 11
3990.782834049547
 21
2020.776364073606
 31
0.0
  0
LINE
  5
182F3
330
747D
100
AcDbEntity
  8
部品1
100
AcDbLine
 10
6565.782834049551
 20
2125.776364073606
 30
0.0
 11
6573.28283404955
 21
2125.776364073606
 31
0.0
  0
DIMENSION
  5
182F4
330
747D
100
AcDbEntity
  8
寸法
 48
50.0
100
AcDbDimension
  2
*D2
 10
3721.282830802914
 20
2025.776364073607
 30
0.0
 11
3721.282830802913
 21
1925.776364073607
 31
0.0
 70
   160
 71
     5
 42
200.0
  3
INABA_S40G
100
AcDbAlignedDimension
 13
3870.782834049548
 23
1825.776364073606
 33
0.0
 14
3845.782834049547
 24
2025.776364073607
 34
0.0
 50
90.0
100
AcDbRotatedDimension
1001
ACAD
1000
DSTYLE
1002
{
1070
   174
1070
     0
1070
   272
1070
     1
1070
   288
1070
     0
1070
   341
1005
0
1002
}
  0
LINE
  5
182F5
330
747D
100
AcDbEntity
  8
破線
 48
5.0
100
AcDbLine
 10
4070.782834049547
 20
1825.776364073603
 30
0.0
 11
3870.782834049548
 21
1825.776364073603
 31
0.0
  0
LINE
  5
182F6
330
747D
100
AcDbEntity
  8
破線
 48
5.0
100
AcDbLine
 10
4070.782834049547
 20
2025.776364073607
 30
0.0
 11
4070.782834049547
 21
1825.776364073603
 31
0.0
  0
LINE
  5
182F7
330
747D
100
AcDbEntity
  8
破線
 48
5.0
100
AcDbLine
 10
3870.782834049548
 20
2025.776364073607
 30
0.0
 11
3870.782834049548
 21
1825.776364073603
 31
0.0
  0
DIMENSION
  5
182F8
330
747D
100
AcDbEntity
  8
寸法
 48
50.0
100
AcDbDimension
  2
*D3
 10
3870.782834049548
 20
1539.729034773229
 30
0.0
 11
3970.782834049547
 21
1539.729034773229
 31
0.0
 70
   160
 71
     5
 42
200.0
  3
INABA_S40G
100
AcDbAlignedDimension
 13
4070.782834049547
 23
1825.776364073603
 33
0.0
 14
3870.782834049548
 24
1825.776364073606
 34
0.0
100
AcDbRotatedDimension
  0
LINE
  5
182F9
330
747D
100
AcDbEntity
  8
破線
 48
5.0
100
AcDbLine
 10
6645.782834049558
 20
2025.776364073607
 30
0.0
 11
6645.782834049551
 21
1825.776364073603
 31
0.0
  0
LINE
  5
182FA
330
747D
100
AcDbEntity
  8
破線
 48
5.0
100
AcDbLine
 10
6645.782834049551
 20
1825.776364073603
 30
0.0
 11
6445.782834049554
 21
1825.776364073606
 31
0.0
  0
LINE
  5
182FB
330
747D
100
AcDbEntity
  8
破線
 48
5.0
100
AcDbLine
 10
6445.782834049554
 20
2025.776364073607
 30
0.0
 11
6445.782834049554
 21
1825.776364073606
 31
0.0
  0
LINE
  5
182FC
330
747D
100
AcDbEntity
  8
部品1
 48
50.0
100
AcDbLine
 10
6573.28283404955
 20
4260.776364073606
 30
0.0
 11
6650.282834049551
 21
4250.776364073606
 31
0.0
  0
LINE
  5
182FD
330
747D
100
AcDbEntity
  8
部品1
 48
50.0
100
AcDbLine
 10
6650.282834049551
 20
4250.776364073606
 30
0.0
 11
6650.282834049551
 21
2025.776364073607
 31
0.0
  0
LINE
  5
182FE
330
747D
100
AcDbEntity
  8
部品1
 48
50.0
100
AcDbLine
 10
6650.282834049551
 20
2125.776364073606
 30
0.0
 11
6565.782834049551
 21
2125.776364073606
 31
0.0
  0
LINE
  5
182FF
330
747D
100
AcDbEntity
  8
部品1
100
AcDbLine
 10
6373.282834049547
 20
2125.776364073606
 30
0.0
 11
6373.282834049547
 21
2025.776364073607
 31
0.0
  0
LINE
  5
18300
330
747D
100
AcDbEntity
  8
部品1
100
AcDbLine
 10
4143.282834049546
 20
2125.776364073606
 30
0.0
 11
4143.282834049546
 21
2025.776364073607
 31
0.0
  0
LINE
  5
18301
330
747D
100
AcDbEntity
  8
細線
 48
50.0
100
AcDbLine
 10
6440.782834049554
 20
4265.776364073608
 30
0.0
 11
6440.782834049554
 21
2175.776364073608
 31
0.0
  0
LINE
  5
18302
330
747D
100
AcDbEntity
  8
細線
 48
50.0
100
AcDbLine
 10
6455.782834049554
 20
4265.776364073608
 30
0.0
 11
6455.782834049554
 21
2175.776364073608
 31
0.0
  0
LINE
  5
18303
330
747D
100
AcDbEntity
  8
細線
 48
50.0
100
AcDbLine
 10
6315.782834049555
 20
4265.776364073608
 30
0.0
 11
6315.782834049555
 21
2175.776364073608
 31
0.0
  0
LINE
  5
18304
330
747D
100
AcDbEntity
  8
細線
 48
50.0
100
AcDbLine
 10
6300.782834049554
 20
4265.776364073608
 30
0.0
 11
6300.782834049554
 21
2175.776364073608
 31
0.0
  0
LINE
  5
18305
330
747D
100
AcDbEntity
  8
細線
 48
50.0
100
AcDbLine
 10
6160.782834049554
 20
4265.776364073608
 30
0.0
 11
6160.782834049554
 21
2175.776364073608
 31
0.0
  0
LINE
  5
18306
330
747D
100
AcDbEntity
  8
細線
 48
50.0
100
AcDbLine
 10
6175.782834049554
 20
4265.776364073608
 30
0.0
 11
6175.782834049554
 21
2175.776364073608
 31
0.0
  0
LINE
  5
18307
330
747D
100
AcDbEntity
  8
部品1
100
AcDbLine
 10
5258.282834049547
 20
4265.776364073606
 30
0.0
 11
5258.282834049547
 21
2175.776364073607
 31
0.0
  0
LINE
  5
18308
330
747D
100
AcDbEntity
  8
細線
 48
50.0
100
AcDbLine
 10
4915.782834049547
 20
4265.776364073606
 30
0.0
 11
4915.782834049547
 21
2175.776364073607
 31
0.0
  0
LINE
  5
18309
330
747D
100
AcDbEntity
  8
細線
 48
50.0
100
AcDbLine
 10
4900.782834049547
 20
4265.776364073606
 30
0.0
 11
4900.782834049547
 21
2175.776364073607
 31
0.0
  0
LINE
  5
1830A
330
747D
100
AcDbEntity
  8
細線
 48
50.0
100
AcDbLine
 10
5040.782834049547
 20
4265.776364073606
 30
0.0
 11
5040.782834049547
 21
2175.776364073607
 31
0.0
  0
LINE
  5
1830B
330
747D
100
AcDbEntity
  8
細線
 48
50.0
100
AcDbLine
 10
5055.782834049547
 20
4265.776364073606
 30
0.0
 11
5055.782834049547
 21
2175.776364073607
 31
0.0
  0
LINE
  5
1830C
330
747D
100
AcDbEntity
  8
細線
 48
50.0
100
AcDbLine
 10
5195.782834049547
 20
4265.776364073606
 30
0.0
 11
5195.782834049547
 21
2175.776364073607
 31
0.0
  0
LINE
  5
1830D
330
747D
100
AcDbEntity
  8
細線
 48
50.0
100
AcDbLine
 10
5180.782834049547
 20
4265.776364073606
 30
0.0
 11
5180.782834049547
 21
2175.776364073607
 31
0.0
  0
LINE
  5
1830E
330
747D
100
AcDbEntity
  8
部品1
100
AcDbLine
 10
4838.282834049547
 20
4265.776364073606
 30
0.0
 11
4838.282834049547
 21
2175.776364073607
 31
0.0
  0
LINE
  5
1830F
330
747D
100
AcDbEntity
  8
細線
 48
50.0
100
AcDbLine
 10
4075.782834049546
 20
4265.776364073606
 30
0.0
 11
4075.782834049546
 21
2175.776364073607
 31
0.0
  0
LINE
  5
18310
330
747D
100
AcDbEntity
  8
細線
 48
50.0
100
AcDbLine
 10
4060.782834049547
 20
4265.776364073606
 30
0.0
 11
4060.782834049547
 21
2175.776364073607
 31
0.0
  0
LINE
  5
18311
330
747D
100
AcDbEntity
  8
細線
 48
50.0
100
AcDbLine
 10
4200.782834049546
 20
4265.776364073606
 30
0.0
 11
4200.782834049546
 21
2175.776364073607
 31
0.0
  0
LINE
  5
18312
330
747D
100
AcDbEntity
  8
細線
 48
50.0
100
AcDbLine
 10
4215.782834049547
 20
4265.776364073606
 30
0.0
 11
4215.782834049547
 21
2175.776364073607
 31
0.0
  0
LINE
  5
18313
330
747D
100
AcDbEntity
  8
細線
 48
50.0
100
AcDbLine
 10
4355.782834049547
 20
4265.776364073606
 30
0.0
 11
4355.782834049547
 21
2175.776364073607
 31
0.0
  0
LINE
  5
18314
330
747D
100
AcDbEntity
  8
細線
 48
50.0
100
AcDbLine
 10
4340.782834049547
 20
4265.776364073606
 30
0.0
 11
4340.782834049547
 21
2175.776364073607
 31
0.0
  0
LINE
  5
18315
330
747D
100
AcDbEntity
  8
細線
 48
50.0
100
AcDbLine
 10
4760.782834049547
 20
4265.776364073606
 30
0.0
 11
4760.782834049547
 21
2175.776364073607
 31
0.0
  0
LINE
  5
18316
330
747D
100
AcDbEntity
  8
細線
 48
50.0
100
AcDbLine
 10
4775.782834049547
 20
4265.776364073606
 30
0.0
 11
4775.782834049547
 21
2175.776364073607
 31
0.0
  0
LINE
  5
18317
330
747D
100
AcDbEntity
  8
細線
 48
50.0
100
AcDbLine
 10
4635.782834049547
 20
4265.776364073606
 30
0.0
 11
4635.782834049547
 21
2175.776364073607
 31
0.0
  0
LINE
  5
18318
330
747D
100
AcDbEntity
  8
細線
 48
50.0
100
AcDbLine
 10
4620.782834049547
 20
4265.776364073606
 30
0.0
 11
4620.782834049547
 21
2175.776364073607
 31
0.0
  0
LINE
  5
18319
330
747D
100
AcDbEntity
  8
細線
 48
50.0
100
AcDbLine
 10
4480.782834049547
 20
4265.776364073606
 30
0.0
 11
4480.782834049547
 21
2175.776364073607
 31
0.0
  0
LINE
  5
1831A
330
747D
100
AcDbEntity
  8
細線
 48
50.0
100
AcDbLine
 10
4495.782834049547
 20
4265.776364073606
 30
0.0
 11
4495.782834049547
 21
2175.776364073607
 31
0.0
  0
LINE
  5
1831B
330
747D
100
AcDbEntity
  8
部品1
100
AcDbLine
 10
3943.282834049547
 20
2125.776364073606
 30
0.0
 11
3950.782834049547
 21
2125.776364073606
 31
0.0
  0
LINE
  5
1831C
330
747D
100
AcDbEntity
  8
部品1
100
AcDbLine
 10
6518.28283404955
 20
4265.776364073608
 30
0.0
 11
6518.28283404955
 21
2175.776364073608
 31
0.0
  0
LINE
  5
1831D
330
747D
100
AcDbEntity
  8
部品1
100
AcDbLine
 10
6573.282834049543
 20
4359.776364073612
 30
0.0
 11
6573.28283404955
 21
2025.776364073609
 31
0.0
  0
LINE
  5
1831E
330
747D
100
AcDbEntity
  8
部品1
100
AcDbLine
 10
4418.282834049547
 20
4265.776364073606
 30
0.0
 11
4418.282834049547
 21
2175.776364073607
 31
0.0
  0
LINE
  5
1831F
330
747D
100
AcDbEntity
  8
部品1
100
AcDbLine
 10
3943.282834049547
 20
4359.77636407361
 30
0.0
 11
3943.282834049547
 21
2025.776364073607
 31
0.0
  0
LINE
  5
18320
330
747D
100
AcDbEntity
  8
部品1
100
AcDbLine
 10
3998.282834049547
 20
4265.776364073606
 30
0.0
 11
3998.282834049547
 21
2175.776364073607
 31
0.0
  0
LINE
  5
18321
330
747D
100
AcDbEntity
  8
部品1
100
AcDbLine
 10
3943.282834049547
 20
2175.776364073607
 30
0.0
 11
6573.28283404955
 21
2175.776364073608
 31
0.0
  0
LINE
  5
18322
330
747D
100
AcDbEntity
  8
部品1
100
AcDbLine
 10
3943.282834049547
 20
4265.776364073606
 30
0.0
 11
6573.28283404955
 21
4265.776364073606
 31
0.0
  0
LINE
  5
18323
330
747D
100
AcDbEntity
  8
部品1
100
AcDbLine
 10
6098.282834049547
 20
4265.776364073608
 30
0.0
 11
6098.282834049547
 21
2175.776364073608
 31
0.0
  0
LINE
  5
18324
330
747D
100
AcDbEntity
  8
細線
 48
50.0
100
AcDbLine
 10
5600.782834049547
 20
4265.776364073606
 30
0.0
 11
5600.782834049547
 21
2175.776364073607
 31
0.0
  0
LINE
  5
18325
330
747D
100
AcDbEntity
  8
細線
 48
50.0
100
AcDbLine
 10
5615.782834049547
 20
4265.776364073606
 30
0.0
 11
5615.782834049547
 21
2175.776364073607
 31
0.0
  0
LINE
  5
18326
330
747D
100
AcDbEntity
  8
細線
 48
50.0
100
AcDbLine
 10
5475.782834049547
 20
4265.776364073606
 30
0.0
 11
5475.782834049547
 21
2175.776364073607
 31
0.0
  0
LINE
  5
18327
330
747D
100
AcDbEntity
  8
細線
 48
50.0
100
AcDbLine
 10
5460.782834049547
 20
4265.776364073606
 30
0.0
 11
5460.782834049547
 21
2175.776364073607
 31
0.0
  0
LINE
  5
18328
330
747D
100
AcDbEntity
  8
細線
 48
50.0
100
AcDbLine
 10
5320.782834049547
 20
4265.776364073606
 30
0.0
 11
5320.782834049547
 21
2175.776364073607
 31
0.0
  0
LINE
  5
18329
330
747D
100
AcDbEntity
  8
細線
 48
50.0
100
AcDbLine
 10
5335.782834049547
 20
4265.776364073606
 30
0.0
 11
5335.782834049547
 21
2175.776364073607
 31
0.0
  0
LINE
  5
1832A
330
747D
100
AcDbEntity
  8
部品1
100
AcDbLine
 10
5678.282834049539
 20
4265.77636407361
 30
0.0
 11
5678.282834049539
 21
2175.77636407361
 31
0.0
  0
LINE
  5
1832B
330
747D
100
AcDbEntity
  8
細線
 48
50.0
100
AcDbLine
 10
5755.782834049547
 20
4265.77636407361
 30
0.0
 11
5755.782834049547
 21
2175.77636407361
 31
0.0
  0
LINE
  5
1832C
330
747D
100
AcDbEntity
  8
細線
 48
50.0
100
AcDbLine
 10
5740.782834049547
 20
4265.77636407361
 30
0.0
 11
5740.782834049547
 21
2175.77636407361
 31
0.0
  0
LINE
  5
1832D
330
747D
100
AcDbEntity
  8
細線
 48
50.0
100
AcDbLine
 10
5880.782834049547
 20
4265.77636407361
 30
0.0
 11
5880.782834049547
 21
2175.77636407361
 31
0.0
  0
LINE
  5
1832E
330
747D
100
AcDbEntity
  8
細線
 48
50.0
100
AcDbLine
 10
5895.782834049548
 20
4265.77636407361
 30
0.0
 11
5895.782834049548
 21
2175.77636407361
 31
0.0
  0
LINE
  5
1832F
330
747D
100
AcDbEntity
  8
細線
 48
50.0
100
AcDbLine
 10
6035.782834049547
 20
4265.77636407361
 30
0.0
 11
6035.782834049547
 21
2175.77636407361
 31
0.0
  0
LINE
  5
18330
330
747D
100
AcDbEntity
  8
細線
 48
50.0
100
AcDbLine
 10
6020.782834049548
 20
4265.77636407361
 30
0.0
 11
6020.782834049548
 21
2175.77636407361
 31
0.0
  0
LINE
  5
18331
330
747D
100
AcDbEntity
  8
部品1
100
AcDbLine
 10
6565.782834049551
 20
2125.776364073606
 30
0.0
 11
6573.28283404955
 21
2125.776364073606
 31
0.0
  0
LINE
  5
18332
330
747D
100
AcDbEntity
  8
部品1
100
AcDbLine
 10
3990.782834049547
 20
2125.776364073606
 30
0.0
 11
6525.78283404955
 21
2125.776364073606
 31
0.0
  0
LINE
  5
18333
330
747D
100
AcDbEntity
  8
部品1
 48
50.0
100
AcDbLine
 10
5773.282834049547
 20
2125.776364073606
 30
0.0
 11
5773.282834049547
 21
2025.776364073607
 31
0.0
  0
LINE
  5
18334
330
747D
100
AcDbEntity
  8
部品1
 48
50.0
100
AcDbLine
 10
5573.282834049547
 20
2125.776364073606
 30
0.0
 11
5573.282834049547
 21
2025.776364073607
 31
0.0
  0
LINE
  5
18335
330
747D
100
AcDbEntity
  8
部品1
 48
50.0
100
AcDbLine
 10
4943.282834049547
 20
2125.776364073606
 30
0.0
 11
4943.282834049547
 21
2025.776364073607
 31
0.0
  0
LINE
  5
18336
330
747D
100
AcDbEntity
  8
部品1
 48
50.0
100
AcDbLine
 10
4743.282834049547
 20
2125.776364073606
 30
0.0
 11
4743.282834049547
 21
2025.776364073607
 31
0.0
  0
DIMENSION
  5
18337
330
747D
100
AcDbEntity
  8
寸法
 48
50.0
100
AcDbDimension
  2
*D4
 10
6623.28283404955
 20
5114.99049792233
 30
0.0
 11
5258.282834049547
 21
5114.99049792233
 31
0.0
 70
   160
 71
     5
 42
2730.000000000004
  3
INABA_S40G
100
AcDbAlignedDimension
 13
3893.282834049547
 23
4500.77636407361
 33
0.0
 14
6623.28283404955
 24
4500.776364073608
 34
0.0
100
AcDbRotatedDimension
  0
DIMENSION
  5
18338
330
747D
100
AcDbEntity
  8
寸法
 48
50.0
100
AcDbDimension
  2
*D5
 10
3893.282834049547
 20
4905.396623500879
 30
0.0
 11
3579.7975526753
 21
4905.396623500879
 31
0.0
 70
   160
 71
     5
 42
50.0
  3
INABA_S40G
100
AcDbAlignedDimension
 13
3943.282834049547
 23
4500.776364073612
 33
0.0
 14
3893.282834049547
 24
4500.77636407361
 34
0.0
100
AcDbRotatedDimension
1001
ACAD
1000
DSTYLE
1002
{
1002
}
  0
DIMENSION
  5
18339
330
747D
100
AcDbEntity
  8
寸法
 48
50.0
100
AcDbDimension
  2
*D6
 10
3943.282834049547
 20
4905.396623500879
 30
0.0
 11
5258.282834049547
 21
4905.396623500879
 31
0.0
 70
   160
  1
柱外寸法<>
 71
     5
 42
2630.000000000004
  3
INABA_S40G
100
AcDbAlignedDimension
 13
6573.28283404955
 23
4500.77636407361
 33
0.0
 14
3943.282834049547
 24
4500.776364073612
 34
0.0
100
AcDbRotatedDimension
  0
LINE
  5
1833A
330
747D
100
AcDbEntity
  8
部品1
 48
50.0
100
AcDbLine
 10
6615.874412943111
 20
4500.77636407361
 30
0.0
 11
3900.69125515598
 21
4500.776364073612
 31
0.0
  0
LINE
  5
1833B
330
747D
100
AcDbEntity
  8
部品1
 48
50.0
100
AcDbLine
 10
6602.65908948208
 20
4359.776364073612
 30
0.0
 11
3913.906578617011
 21
4359.77636407361
 31
0.0
  0
LINE
  5
1833C
330
747D
100
AcDbEntity
  8
細線
 48
50.0
100
AcDbLine
 10
6621.24329582811
 20
4472.77636407361
 30
0.0
 11
3895.322372270988
 21
4472.776364073609
 31
0.0
  0
LINE
  5
1833D
330
747D
100
AcDbEntity
  8
細線
 48
50.0
100
AcDbLine
 10
6613.007265303258
 20
4380.576364073606
 30
0.0
 11
3903.558402795817
 21
4380.576364073611
 31
0.0
  0
LINE
  5
1833E
330
747D
100
AcDbEntity
  8
細線
 48
50.0
100
AcDbLine
 10
3926.282834049548
 20
4500.77636407361
 30
0.0
 11
3926.282834049548
 21
4359.77636407361
 31
0.0
  0
ARC
  5
1833F
330
747D
100
AcDbEntity
  8
部品1
100
AcDbCircle
 10
3900.69125515598
 20
4493.776364073609
 30
0.0
 40
7.0
100
AcDbArc
 50
90.0
 51
183.2473427903377
  0
ARC
  5
18340
330
747D
100
AcDbEntity
  8
部品1
100
AcDbCircle
 10
3913.906578617011
 20
4366.776364073611
 30
0.0
 40
7.0
100
AcDbArc
 50
183.2473427903377
 51
270.0
  0
ARC
  5
18341
330
747D
100
AcDbEntity
  8
部品1
 48
50.0
100
AcDbCircle
 10
3895.534768406339
 20
4473.443363235296
 30
0.0
 40
0.7
100
AcDbArc
 50
183.2473427904417
 51
262.3418727926365
  0
ARC
  5
18342
330
747D
100
AcDbEntity
  8
部品1
 48
50.0
100
AcDbCircle
 10
3903.770798931175
 20
4381.243363235293
 30
0.0
 40
0.7
100
AcDbArc
 50
183.2473427903377
 51
262.3418727926365
  0
ARC
  5
18343
330
747D
100
AcDbEntity
  8
部品1
 48
50.0
100
AcDbCircle
 10
3903.277729822614
 20
4377.576364073608
 30
0.0
 40
3.0
100
AcDbArc
 50
3.247342790337682
 51
82.34187279263654
  0
ARC
  5
18344
330
747D
100
AcDbEntity
  8
部品1
 48
50.0
100
AcDbCircle
 10
3895.04169929777
 20
4469.776364073612
 30
0.0
 40
3.0
100
AcDbArc
 50
3.247342790337682
 51
82.34187279263654
  0
LINE
  5
18345
330
747D
100
AcDbEntity
  8
部品1
100
AcDbLine
 10
3898.036882193956
 20
4469.946303528714
 30
0.0
 11
3903.071922922071
 21
4381.203710695769
 31
0.0
  0
LINE
  5
18346
330
747D
100
AcDbEntity
  8
部品1
100
AcDbLine
 10
3906.272912718807
 20
4377.746303528711
 30
0.0
 11
3906.917818525915
 21
4366.379838678371
 31
0.0
  0
LINE
  5
18347
330
747D
100
AcDbEntity
  8
部品1
100
AcDbLine
 10
3893.702495064878
 20
4493.379838678371
 30
0.0
 11
3894.835892397227
 21
4473.403710695771
 31
0.0
  0
ARC
  5
18348
330
747D
100
AcDbEntity
  8
部品1
 48
0.01
100
AcDbCircle
 10
5785.282834049547
 20
4329.776364073606
 30
0.0
 40
2.0
100
AcDbArc
 50
90.0
 51
180.0
  0
ARC
  5
18349
330
747D
100
AcDbEntity
  8
部品1
 48
0.01
100
AcDbCircle
 10
5961.282834049547
 20
4329.776364073606
 30
0.0
 40
2.0
100
AcDbArc
 50
0.0
 51
90.0
  0
LINE
  5
1834A
330
747D
100
AcDbEntity
  8
細線
100
AcDbLine
 10
5873.282834049547
 20
4302.276364073606
 30
0.0
 11
5799.282834049547
 21
4302.276364073606
 31
0.0
  0
LINE
  5
1834B
330
747D
100
AcDbEntity
  8
細線
100
AcDbLine
 10
5873.282834049547
 20
4325.276364073607
 30
0.0
 11
5947.282834049548
 21
4325.276364073607
 31
0.0
  0
LINE
  5
1834C
330
747D
100
AcDbEntity
  8
細線
100
AcDbLine
 10
5947.282834049548
 20
4302.276364073606
 30
0.0
 11
5873.282834049547
 21
4302.276364073606
 31
0.0
  0
LINE
  5
1834D
330
747D
100
AcDbEntity
  8
細線
100
AcDbLine
 10
5799.282834049547
 20
4325.276364073607
 30
0.0
 11
5873.282834049547
 21
4325.276364073607
 31
0.0
  0
LINE
  5
1834E
330
747D
100
AcDbEntity
  8
細線
100
AcDbLine
 10
5799.282834049547
 20
4302.276364073606
 30
0.0
 11
5799.282834049547
 21
4325.276364073607
 31
0.0
  0
LINE
  5
1834F
330
747D
100
AcDbEntity
  8
細線
100
AcDbLine
 10
5947.282834049548
 20
4325.276364073607
 30
0.0
 11
5947.282834049548
 21
4302.276364073606
 31
0.0
  0
LINE
  5
18350
330
747D
100
AcDbEntity
  8
部品1
 48
0.01
100
AcDbLine
 10
5785.282834049547
 20
4331.776364073607
 30
0.0
 11
5961.282834049547
 21
4331.776364073607
 31
0.0
  0
LINE
  5
18351
330
747D
100
AcDbEntity
  8
細線
100
AcDbLine
 10
5947.282834049548
 20
4319.276364073607
 30
0.0
 11
5873.282834049547
 21
4319.276364073607
 31
0.0
  0
LINE
  5
18352
330
747D
100
AcDbEntity
  8
細線
100
AcDbLine
 10
5947.282834049548
 20
4313.276364073606
 30
0.0
 11
5873.282834049547
 21
4313.276364073606
 31
0.0
  0
LINE
  5
18353
330
747D
100
AcDbEntity
  8
細線
100
AcDbLine
 10
5947.282834049548
 20
4307.276364073606
 30
0.0
 11
5873.282834049547
 21
4307.276364073606
 31
0.0
  0
LINE
  5
18354
330
747D
100
AcDbEntity
  8
細線
100
AcDbLine
 10
5947.282834049548
 20
4319.276364073607
 30
0.0
 11
5878.282834049547
 21
4319.276364073607
 31
0.0
  0
LINE
  5
18355
330
747D
100
AcDbEntity
  8
細線
100
AcDbLine
 10
5799.282834049547
 20
4319.276364073604
 30
0.0
 11
5873.282834049547
 21
4319.276364073607
 31
0.0
  0
LINE
  5
18356
330
747D
100
AcDbEntity
  8
細線
100
AcDbLine
 10
5799.282834049547
 20
4307.276364073604
 30
0.0
 11
5873.282834049547
 21
4307.276364073606
 31
0.0
  0
LINE
  5
18357
330
747D
100
AcDbEntity
  8
細線
100
AcDbLine
 10
5799.282834049547
 20
4313.276364073606
 30
0.0
 11
5873.282834049547
 21
4313.276364073606
 31
0.0
  0
LINE
  5
18358
330
747D
100
AcDbEntity
  8
細線
100
AcDbLine
 10
5873.282834049547
 20
4325.276364073607
 30
0.0
 11
5873.282834049547
 21
4302.276364073606
 31
0.0
  0
ARC
  5
18359
330
747D
100
AcDbEntity
  8
部品1
 48
0.01
100
AcDbCircle
 10
5785.282834049547
 20
4298.276364073607
 30
0.0
 40
2.0
100
AcDbArc
 50
180.0
 51
270.0
  0
ARC
  5
1835A
330
747D
100
AcDbEntity
  8
部品1
 48
0.01
100
AcDbCircle
 10
5961.282834049547
 20
4298.276364073607
 30
0.0
 40
2.0
100
AcDbArc
 50
270.0
 51
0.0
  0
LINE
  5
1835B
330
747D
100
AcDbEntity
  8
部品1
 48
0.01
100
AcDbLine
 10
5783.282834049547
 20
4298.276364073607
 30
0.0
 11
5783.282834049547
 21
4329.776364073606
 31
0.0
  0
LINE
  5
1835C
330
747D
100
AcDbEntity
  8
部品1
 48
0.01
100
AcDbLine
 10
5961.282834049547
 20
4296.276364073606
 30
0.0
 11
5785.282834049547
 21
4296.276364073606
 31
0.0
  0
LINE
  5
1835D
330
747D
100
AcDbEntity
  8
部品1
 48
0.01
100
AcDbLine
 10
5963.282834049547
 20
4329.776364073606
 30
0.0
 11
5963.282834049547
 21
4298.276364073607
 31
0.0
  0
LINE
  5
1835E
330
747D
100
AcDbEntity
  8
細線
100
AcDbLine
 10
4643.282834049546
 20
4325.276364073607
 30
0.0
 11
4643.282834049546
 21
4302.276364073606
 31
0.0
  0
LINE
  5
1835F
330
747D
100
AcDbEntity
  8
細線
100
AcDbLine
 10
4717.282834049547
 20
4313.276364073606
 30
0.0
 11
4643.282834049546
 21
4313.276364073606
 31
0.0
  0
LINE
  5
18360
330
747D
100
AcDbEntity
  8
細線
100
AcDbLine
 10
4717.282834049547
 20
4307.276364073604
 30
0.0
 11
4643.282834049546
 21
4307.276364073606
 31
0.0
  0
LINE
  5
18361
330
747D
100
AcDbEntity
  8
細線
100
AcDbLine
 10
4717.282834049547
 20
4319.276364073604
 30
0.0
 11
4643.282834049546
 21
4319.276364073607
 31
0.0
  0
LINE
  5
18362
330
747D
100
AcDbEntity
  8
細線
100
AcDbLine
 10
4569.282834049547
 20
4319.276364073607
 30
0.0
 11
4638.282834049546
 21
4319.276364073607
 31
0.0
  0
LINE
  5
18363
330
747D
100
AcDbEntity
  8
細線
100
AcDbLine
 10
4569.282834049547
 20
4307.276364073606
 30
0.0
 11
4643.282834049546
 21
4307.276364073606
 31
0.0
  0
LINE
  5
18364
330
747D
100
AcDbEntity
  8
細線
100
AcDbLine
 10
4569.282834049547
 20
4313.276364073606
 30
0.0
 11
4643.282834049546
 21
4313.276364073606
 31
0.0
  0
LINE
  5
18365
330
747D
100
AcDbEntity
  8
細線
100
AcDbLine
 10
4569.282834049547
 20
4319.276364073607
 30
0.0
 11
4643.282834049546
 21
4319.276364073607
 31
0.0
  0
LINE
  5
18366
330
747D
100
AcDbEntity
  8
部品1
 48
0.01
100
AcDbLine
 10
4731.282834049546
 20
4331.776364073607
 30
0.0
 11
4555.282834049547
 21
4331.776364073607
 31
0.0
  0
LINE
  5
18367
330
747D
100
AcDbEntity
  8
部品1
 48
0.01
100
AcDbLine
 10
4553.282834049547
 20
4329.776364073606
 30
0.0
 11
4553.282834049547
 21
4298.276364073607
 31
0.0
  0
LINE
  5
18368
330
747D
100
AcDbEntity
  8
部品1
 48
0.01
100
AcDbLine
 10
4555.282834049547
 20
4296.276364073606
 30
0.0
 11
4731.282834049546
 21
4296.276364073606
 31
0.0
  0
LINE
  5
18369
330
747D
100
AcDbEntity
  8
部品1
 48
0.01
100
AcDbLine
 10
4733.282834049547
 20
4298.276364073607
 30
0.0
 11
4733.282834049547
 21
4329.776364073606
 31
0.0
  0
LINE
  5
1836A
330
747D
100
AcDbEntity
  8
細線
100
AcDbLine
 10
4569.282834049547
 20
4325.276364073607
 30
0.0
 11
4569.282834049547
 21
4302.276364073606
 31
0.0
  0
LINE
  5
1836B
330
747D
100
AcDbEntity
  8
細線
100
AcDbLine
 10
4717.282834049547
 20
4302.276364073606
 30
0.0
 11
4717.282834049547
 21
4325.276364073607
 31
0.0
  0
LINE
  5
1836C
330
747D
100
AcDbEntity
  8
細線
100
AcDbLine
 10
4717.282834049547
 20
4325.276364073607
 30
0.0
 11
4643.282834049546
 21
4325.276364073607
 31
0.0
  0
LINE
  5
1836D
330
747D
100
AcDbEntity
  8
細線
100
AcDbLine
 10
4569.282834049547
 20
4302.276364073606
 30
0.0
 11
4643.282834049546
 21
4302.276364073606
 31
0.0
  0
LINE
  5
1836E
330
747D
100
AcDbEntity
  8
細線
100
AcDbLine
 10
4643.282834049546
 20
4325.276364073607
 30
0.0
 11
4569.282834049547
 21
4325.276364073607
 31
0.0
  0
LINE
  5
1836F
330
747D
100
AcDbEntity
  8
細線
100
AcDbLine
 10
4643.282834049546
 20
4302.276364073606
 30
0.0
 11
4717.282834049547
 21
4302.276364073606
 31
0.0
  0
ARC
  5
18370
330
747D
100
AcDbEntity
  8
部品1
 48
0.01
100
AcDbCircle
 10
4555.282834049547
 20
4329.776364073606
 30
0.0
 40
2.0
100
AcDbArc
 50
90.0
 51
180.0
  0
ARC
  5
18371
330
747D
100
AcDbEntity
  8
部品1
 48
0.01
100
AcDbCircle
 10
4555.282834049547
 20
4298.276364073607
 30
0.0
 40
2.0
100
AcDbArc
 50
180.0
 51
270.0
  0
ARC
  5
18372
330
747D
100
AcDbEntity
  8
部品1
 48
0.01
100
AcDbCircle
 10
4731.282834049546
 20
4329.776364073606
 30
0.0
 40
2.0
100
AcDbArc
 50
0.0
 51
90.0
  0
ARC
  5
18373
330
747D
100
AcDbEntity
  8
部品1
 48
0.01
100
AcDbCircle
 10
4731.282834049546
 20
4298.276364073607
 30
0.0
 40
2.0
100
AcDbArc
 50
270.0
 51
0.0
  0
DIMENSION
  5
18374
330
747D
100
AcDbEntity
  8
寸法
 48
50.0
100
AcDbDimension
  2
*D7
 10
6573.28283404955
 20
4905.396623500879
 30
0.0
 11
6936.768115423792
 21
4905.396623500879
 31
0.0
 70
   160
 71
     5
 42
50.0
  3
INABA_S40G
100
AcDbAlignedDimension
 13
6623.28283404955
 23
4500.776364073608
 33
0.0
 14
6573.28283404955
 24
4500.77636407361
 34
0.0
100
AcDbRotatedDimension
  0
LINE
  5
18375
330
747D
100
AcDbEntity
  8
部品1
100
AcDbLine
 10
6622.863173034213
 20
4493.379838678371
 30
0.0
 11
6621.729775701864
 21
4473.403710695771
 31
0.0
  0
LINE
  5
18376
330
747D
100
AcDbEntity
  8
細線
 48
50.0
100
AcDbLine
 10
6590.282834049543
 20
4500.77636407361
 30
0.0
 11
6590.282834049543
 21
4359.77636407361
 31
0.0
  0
LINE
  5
18377
330
747D
100
AcDbEntity
  8
部品1
100
AcDbLine
 10
6610.292755380291
 20
4377.746303528711
 30
0.0
 11
6609.647849573176
 21
4366.379838678371
 31
0.0
  0
LINE
  5
18378
330
747D
100
AcDbEntity
  8
部品1
100
AcDbLine
 10
6618.528785905136
 20
4469.946303528714
 30
0.0
 11
6613.49374517702
 21
4381.203710695769
 31
0.0
  0
ARC
  5
18379
330
747D
100
AcDbEntity
  8
部品1
 48
50.0
100
AcDbCircle
 10
6621.523968801321
 20
4469.776364073612
 30
0.0
 40
3.0
100
AcDbArc
 50
97.65812720736347
 51
176.7526572096623
  0
ARC
  5
1837A
330
747D
100
AcDbEntity
  8
部品1
 48
50.0
100
AcDbCircle
 10
6613.287938276477
 20
4377.576364073608
 30
0.0
 40
3.0
100
AcDbArc
 50
97.65812720736347
 51
176.7526572096623
  0
ARC
  5
1837B
330
747D
100
AcDbEntity
  8
部品1
 48
50.0
100
AcDbCircle
 10
6612.794869167917
 20
4381.243363235293
 30
0.0
 40
0.7
100
AcDbArc
 50
277.6581272073635
 51
356.7526572096623
  0
ARC
  5
1837C
330
747D
100
AcDbEntity
  8
部品1
 48
50.0
100
AcDbCircle
 10
6621.030899692759
 20
4473.443363235296
 30
0.0
 40
0.7
100
AcDbArc
 50
277.6581272073635
 51
356.7526572095583
  0
ARC
  5
1837D
330
747D
100
AcDbEntity
  8
部品1
100
AcDbCircle
 10
6602.65908948208
 20
4366.776364073611
 30
0.0
 40
7.0
100
AcDbArc
 50
270.0
 51
356.7526572096623
  0
ARC
  5
1837E
330
747D
100
AcDbEntity
  8
部品1
100
AcDbCircle
 10
6615.874412943111
 20
4493.776364073609
 30
0.0
 40
7.0
100
AcDbArc
 50
356.7526572096623
 51
90.0
  0
LINE
  5
1837F
330
747D
100
AcDbEntity
  8
部品1
100
AcDbLine
 10
11228.87986338679
 20
7885.523065360693
 30
0.0
 11
8711.879863386789
 21
7885.523065360593
 31
0.0
  0
LINE
  5
18380
330
747D
100
AcDbEntity
  8
部品1
100
AcDbLine
 10
8683.379863386781
 20
7885.523065360593
 30
0.0
 11
8655.379863386782
 21
7885.523065360593
 31
0.0
  0
LINE
  5
18381
330
747D
100
AcDbEntity
  8
部品1
100
AcDbLine
 10
11257.3798633868
 20
7885.523065360719
 30
0.0
 11
11285.3798633868
 21
7885.523065360719
 31
0.0
  0
DIMENSION
  5
18382
330
747D
100
AcDbEntity
  8
寸法
100
AcDbDimension
  2
*D8
 10
11820.34759110456
 20
4445.77636407361
 30
0.0
 11
11820.34759110456
 21
3226.931140659887
 31
0.0
 70
   160
 71
     5
 42
2320.000000000002
  3
INABA_S40G
100
AcDbAlignedDimension
 13
11285.37986338679
 23
2125.776364073608
 33
0.0
 14
11365.37986338677
 24
4445.77636407361
 34
0.0
 50
90.0
100
AcDbRotatedDimension
1001
ACAD
1000
DSTYLE
1002
{
1070
   174
1070
     0
1070
   272
1070
     1
1070
   288
1070
     0
1070
   341
1005
0
1002
}
  0
TEXT
  5
18383
330
747D
100
AcDbEntity
  8
文字
 62
     7
 48
50.0
100
AcDbText
 10
13209.4053442172
 20
228.543524256902
 30
0.0
 40
100.0
  1
○有効開口寸法 ： 1266×2025(mm)
  7
STYLE2
100
AcDbText
  0
TEXT
  5
18384
330
747D
100
AcDbEntity
  8
文字
 62
     7
 48
50.0
100
AcDbText
 10
14491.96323844892
 20
483.8967129911416
 30
0.0
 40
160.0
  1
ＮＸＮ－７０ＨＢ
  7
STYLE2
100
AcDbText
  0
LINE
  5
18386
330
747D
100
AcDbEntity
  8
細線
 48
50.0
100
AcDbLine
 10
9052.879863386797
 20
4265.776364073608
 30
0.0
 11
9052.879863386797
 21
2175.776364073608
 31
0.0
  0
LINE
  5
18387
330
747D
100
AcDbEntity
  8
細線
 48
50.0
100
AcDbLine
 10
9067.879863386798
 20
4265.776364073608
 30
0.0
 11
9067.879863386798
 21
2175.776364073608
 31
0.0
  0
LINE
  5
18388
330
747D
100
AcDbEntity
  8
細線
 48
50.0
100
AcDbLine
 10
8927.879863386797
 20
4265.776364073608
 30
0.0
 11
8927.879863386797
 21
2175.776364073608
 31
0.0
  0
LINE
  5
18389
330
747D
100
AcDbEntity
  8
細線
 48
50.0
100
AcDbLine
 10
8912.879863386796
 20
4265.776364073608
 30
0.0
 11
8912.879863386796
 21
2175.776364073608
 31
0.0
  0
LINE
  5
1838A
330
747D
100
AcDbEntity
  8
細線
 48
50.0
100
AcDbLine
 10
8772.879863386798
 20
4265.776364073608
 30
0.0
 11
8772.879863386798
 21
2175.776364073608
 31
0.0
  0
LINE
  5
1838B
330
747D
100
AcDbEntity
  8
細線
 48
50.0
100
AcDbLine
 10
8787.879863386796
 20
4265.776364073608
 30
0.0
 11
8787.879863386796
 21
2175.776364073608
 31
0.0
  0
LINE
  5
1843C
330
747D
100
AcDbEntity
  8
部品1
 48
50.0
100
AcDbLine
 10
9937.379863386796
 20
4208.776364098375
 30
0.0
 11
9937.379863386794
 21
2175.776364073605
 31
0.0
  0
LINE
  5
1843D
330
747D
100
AcDbEntity
  8
部品1
100
AcDbLine
 10
10591.37985369165
 20
4208.776364110759
 30
0.0
 11
10591.37985369165
 21
2183.276364110774
 31
0.0
  0
LINE
  5
1843E
330
747D
100
AcDbEntity
  8
細線
100
AcDbLine
 10
9837.379863386798
 20
4208.776364073608
 30
0.0
 11
9837.379863386793
 21
2175.776364073616
 31
0.0
  0
LINE
  5
1843F
330
747D
100
AcDbEntity
  8
細線
100
AcDbLine
 10
9767.379863386798
 20
4208.776364073608
 30
0.0
 11
9767.379863386793
 21
2175.776364073616
 31
0.0
  0
LINE
  5
18440
330
747D
100
AcDbEntity
  8
細線
100
AcDbLine
 10
9697.379863386798
 20
4208.776364073608
 30
0.0
 11
9697.379863386794
 21
2175.776364073612
 31
0.0
  0
LINE
  5
18441
330
747D
100
AcDbEntity
  8
細線
100
AcDbLine
 10
9627.379863386797
 20
4208.776364073608
 30
0.0
 11
9627.379863386794
 21
2175.776364073612
 31
0.0
  0
LINE
  5
18442
330
747D
100
AcDbEntity
  8
細線
100
AcDbLine
 10
9557.379863386797
 20
4208.776364073608
 30
0.0
 11
9557.379863386794
 21
2175.776364073612
 31
0.0
  0
LINE
  5
18443
330
747D
100
AcDbEntity
  8
細線
100
AcDbLine
 10
9487.379863386797
 20
4208.776364073608
 30
0.0
 11
9487.379863386793
 21
2175.776364073612
 31
0.0
  0
LINE
  5
18444
330
747D
100
AcDbEntity
  8
部品1
100
AcDbLine
 10
9303.379863386792
 20
4208.776364073608
 30
0.0
 11
9303.379863386798
 21
2175.776364073612
 31
0.0
  0
LINE
  5
18445
330
747D
100
AcDbEntity
  8
部品1
100
AcDbLine
 10
9253.379863386793
 20
4208.776364073608
 30
0.0
 11
9253.379863386797
 21
2175.776364073612
 31
0.0
  0
LINE
  5
18446
330
747D
100
AcDbEntity
  8
細線
100
AcDbLine
 10
9295.379863386793
 20
4208.776364073608
 30
0.0
 11
9295.379863386797
 21
2175.776364073612
 31
0.0
  0
LINE
  5
18447
330
747D
100
AcDbEntity
  8
細線
100
AcDbLine
 10
9261.379863386794
 20
4208.776364073608
 30
0.0
 11
9261.379863386798
 21
2175.776364073612
 31
0.0
  0
LINE
  5
18448
330
747D
100
AcDbEntity
  8
細線
100
AcDbLine
 10
10488.87987313704
 20
4208.776364073608
 30
0.0
 11
10488.87987313704
 21
2183.276364073619
 31
0.0
  0
LINE
  5
18449
330
747D
100
AcDbEntity
  8
細線
100
AcDbLine
 10
10418.87987313704
 20
4208.776364073608
 30
0.0
 11
10418.87987313704
 21
2183.276364073619
 31
0.0
  0
LINE
  5
1844A
330
747D
100
AcDbEntity
  8
細線
100
AcDbLine
 10
10348.87987313704
 20
4208.776364073608
 30
0.0
 11
10348.87987313704
 21
2183.276364073619
 31
0.0
  0
LINE
  5
1844B
330
747D
100
AcDbEntity
  8
細線
100
AcDbLine
 10
10278.87987313704
 20
4208.776364073608
 30
0.0
 11
10278.87987313704
 21
2183.276364073619
 31
0.0
  0
LINE
  5
1844C
330
747D
100
AcDbEntity
  8
細線
100
AcDbLine
 10
10208.87987313704
 20
4208.776364073608
 30
0.0
 11
10208.87987313704
 21
2183.276364073619
 31
0.0
  0
LINE
  5
1844D
330
747D
100
AcDbEntity
  8
細線
100
AcDbLine
 10
10138.87987313704
 20
4208.776364073608
 30
0.0
 11
10138.87987313704
 21
2183.276364073619
 31
0.0
  0
LINE
  5
1844E
330
747D
100
AcDbEntity
  8
細線
100
AcDbLine
 10
11064.1298633868
 20
4208.776364073608
 30
0.0
 11
11064.1298633868
 21
2183.276364073627
 31
0.0
  0
LINE
  5
1844F
330
747D
100
AcDbEntity
  8
細線
100
AcDbLine
 10
10994.1298633868
 20
4208.776364073608
 30
0.0
 11
10994.1298633868
 21
2183.276364073627
 31
0.0
  0
LINE
  5
18450
330
747D
100
AcDbEntity
  8
細線
100
AcDbLine
 10
10924.1298633868
 20
4208.776364073608
 30
0.0
 11
10924.1298633868
 21
2183.276364073627
 31
0.0
  0
LINE
  5
18451
330
747D
100
AcDbEntity
  8
細線
100
AcDbLine
 10
10854.1298633868
 20
4208.776364073608
 30
0.0
 11
10854.1298633868
 21
2183.276364073627
 31
0.0
  0
LINE
  5
18452
330
747D
100
AcDbEntity
  8
細線
100
AcDbLine
 10
10784.1298633868
 20
4208.776364073608
 30
0.0
 11
10784.1298633868
 21
2183.276364073627
 31
0.0
  0
LINE
  5
18453
330
747D
100
AcDbEntity
  8
細線
100
AcDbLine
 10
9417.379863386797
 20
4208.776364073608
 30
0.0
 11
9417.379863386793
 21
2175.776364073612
 31
0.0
  0
LINE
  5
18454
330
747D
100
AcDbEntity
  8
細線
100
AcDbLine
 10
9347.379863386796
 20
4208.776364073608
 30
0.0
 11
9347.379863386795
 21
2175.776364073612
 31
0.0
  0
LINE
  5
18455
330
747D
100
AcDbEntity
  8
細線
100
AcDbLine
 10
10068.87987313704
 20
4208.776364073608
 30
0.0
 11
10068.87987313704
 21
2183.276364073619
 31
0.0
  0
LINE
  5
18456
330
747D
100
AcDbEntity
  8
細線
100
AcDbLine
 10
9998.879873137042
 20
4208.776364073608
 30
0.0
 11
9998.879873137042
 21
2183.276364073619
 31
0.0
  0
LINE
  5
18457
330
747D
100
AcDbEntity
  8
細線
100
AcDbLine
 10
10714.1298633868
 20
4208.776364073608
 30
0.0
 11
10714.1298633868
 21
2183.276364073627
 31
0.0
  0
LINE
  5
18458
330
747D
100
AcDbEntity
  8
部品1
 48
50.0
100
AcDbLine
 10
11257.3798633868
 20
4216.776364073608
 30
0.0
 11
11227.37986338679
 21
4216.776364073608
 31
0.0
  0
LINE
  5
18459
330
747D
100
AcDbEntity
  8
細線
 48
50.0
100
AcDbLine
 10
11205.37986338679
 20
2172.776364073609
 30
0.0
 11
11201.3798633868
 21
2183.276364073609
 31
0.0
  0
LINE
  5
1845A
330
747D
100
AcDbEntity
  8
部品1
 48
50.0
100
AcDbLine
 10
10591.37985369166
 20
4208.776364110756
 30
0.0
 11
10591.37985369166
 21
2183.276364110756
 31
0.0
  0
LINE
  5
1845B
330
747D
100
AcDbEntity
  8
部品1
 48
50.0
100
AcDbLine
 10
11257.3798633868
 20
2125.776364073608
 30
0.0
 11
11257.3798633868
 21
4260.776364073609
 31
0.0
  0
LINE
  5
1845C
330
747D
100
AcDbEntity
  8
細線
 48
50.0
100
AcDbLine
 10
11227.37986338679
 20
2125.776364073608
 30
0.0
 11
11227.37986338679
 21
4218.276364073608
 31
0.0
  0
LINE
  5
1845D
330
747D
100
AcDbEntity
  8
部品1
 48
50.0
100
AcDbLine
 10
11218.3798633868
 20
2172.776364073609
 30
0.0
 11
11218.3798633868
 21
4208.776364073608
 31
0.0
  0
LINE
  5
1845E
330
747D
100
AcDbEntity
  8
部品1
 48
50.0
100
AcDbLine
 10
9133.379863386798
 20
4216.776364073608
 30
0.0
 11
9103.379863386797
 21
4216.776364073608
 31
0.0
  0
LINE
  5
1845F
330
747D
100
AcDbEntity
  8
部品1
 48
50.0
100
AcDbLine
 10
9142.379863386798
 20
2175.776364073608
 30
0.0
 11
9142.379863386798
 21
2172.776364073609
 31
0.0
  0
LINE
  5
18460
330
747D
100
AcDbEntity
  8
部品1
 48
50.0
100
AcDbLine
 10
9133.379863386798
 20
2175.776364073608
 30
0.0
 11
9937.379863386794
 21
2175.776364073605
 31
0.0
  0
LINE
  5
18461
330
747D
100
AcDbEntity
  8
部品1
 48
50.0
100
AcDbLine
 10
9937.379863386796
 20
4208.776364098375
 30
0.0
 11
9937.379863386796
 21
2175.776364098376
 31
0.0
  0
LINE
  5
18462
330
747D
100
AcDbEntity
  8
部品1
 48
50.0
100
AcDbLine
 10
9103.379863386797
 20
4260.776364073609
 30
0.0
 11
9103.379863386797
 21
2125.776364073608
 31
0.0
  0
LINE
  5
18463
330
747D
100
AcDbEntity
  8
細線
 48
50.0
100
AcDbLine
 10
9133.379863386798
 20
4218.276364073608
 30
0.0
 11
9133.379863386798
 21
2125.776364073608
 31
0.0
  0
LINE
  5
18464
330
747D
100
AcDbEntity
  8
部品1
 48
50.0
100
AcDbLine
 10
9133.379863386798
 20
2175.776364073608
 30
0.0
 11
9133.379863386798
 21
4208.776364073608
 31
0.0
  0
LINE
  5
18465
330
747D
100
AcDbEntity
  8
細線
 48
50.0
100
AcDbLine
 10
9937.379863386796
 20
2183.276364073609
 30
0.0
 11
11201.3798633868
 21
2183.276364073609
 31
0.0
  0
LINE
  5
18466
330
747D
100
AcDbEntity
  8
細線
 48
50.0
100
AcDbLine
 10
9133.379863386798
 20
2172.776364073609
 30
0.0
 11
11227.37986338679
 21
2172.776364073609
 31
0.0
  0
LINE
  5
18467
330
747D
100
AcDbEntity
  8
細線
 48
50.0
100
AcDbLine
 10
9133.379863386798
 20
2168.776364073608
 30
0.0
 11
11227.37986338679
 21
2168.776364073608
 31
0.0
  0
LINE
  5
18468
330
747D
100
AcDbEntity
  8
部品1
 48
50.0
100
AcDbLine
 10
9103.379863386797
 20
2125.776364073608
 30
0.0
 11
11257.3798633868
 21
2125.776364073608
 31
0.0
  0
LINE
  5
18469
330
747D
100
AcDbEntity
  8
細線
 48
50.0
100
AcDbLine
 10
11227.37986338679
 20
4218.276364073608
 30
0.0
 11
9133.379863386798
 21
4218.276364073608
 31
0.0
  0
LINE
  5
1846A
330
747D
100
AcDbEntity
  8
細線
 48
50.0
100
AcDbLine
 10
11227.37986338679
 20
4208.776364073608
 30
0.0
 11
9133.379863386798
 21
4208.776364073608
 31
0.0
  0
LINE
  5
1846B
330
747D
100
AcDbEntity
  8
細線
 48
50.0
100
AcDbLine
 10
11257.3798633868
 20
4250.776364073608
 30
0.0
 11
9103.379863386797
 21
4250.776364073608
 31
0.0
  0
LINE
  5
1846C
330
747D
100
AcDbEntity
  8
部品1
 48
50.0
100
AcDbLine
 10
11257.3798633868
 20
4260.776364073609
 30
0.0
 11
9103.379863386797
 21
4260.776364073609
 31
0.0
  0
MTEXT
  5
1848A
330
747D
100
AcDbEntity
  8
寸法
 62
     7
 48
50.0
100
AcDbMText
 10
10635.48240047994
 20
9626.757883558028
 30
0.0
 40
96.0
 41
0.0
 71
     5
 72
     1
  1
棚 3段
  7
STYLE1
 73
     1
 44
1.0
1001
ACAD
1000
MTEXTBEGIN
1070
    73
1070
     1
1070
    44
1040
1.0
1070
    74
1070
     0
1000
MTEXTEND
  0
LINE
  5
1848C
330
747D
100
AcDbEntity
  8
部品1
100
AcDbLine
 10
11230.37986338681
 20
10040.52306536072
 30
0.0
 11
11230.37986338681
 21
10012.52306536072
 31
0.0
  0
LINE
  5
1848D
330
747D
100
AcDbEntity
  8
部品1
100
AcDbLine
 10
11230.37986338681
 20
10040.52306536074
 30
0.0
 11
11230.37986338681
 21
10012.52306536074
 31
0.0
  0
LINE
  5
1848E
330
747D
100
AcDbEntity
  8
部品1
100
AcDbLine
 10
11257.3798633868
 20
9985.523065360723
 30
0.0
 11
11285.3798633868
 21
9985.523065360723
 31
0.0
  0
LINE
  5
1848F
330
747D
100
AcDbEntity
  8
部品1
100
AcDbLine
 10
11257.3798633868
 20
9565.523065360721
 30
0.0
 11
11285.3798633868
 21
9565.523065360721
 31
0.0
  0
LINE
  5
18490
330
747D
100
AcDbEntity
  8
部品1
100
AcDbLine
 10
11257.3798633868
 20
9145.52306536072
 30
0.0
 11
11285.3798633868
 21
9145.52306536072
 31
0.0
  0
DIMENSION
  5
18491
330
747D
100
AcDbEntity
  8
寸法
100
AcDbDimension
  2
*D9
 10
11985.3798633868
 20
9985.523065360723
 30
0.0
 11
11985.37986338679
 21
10349.00834673496
 31
0.0
 70
   160
 71
     5
 42
54.99999999999636
  3
INABA_S40G
100
AcDbAlignedDimension
 13
11285.3798633868
 23
10040.52306536072
 33
0.0
 14
11285.3798633868
 24
9985.523065360723
 34
0.0
 50
90.0
100
AcDbRotatedDimension
1001
ACAD
1000
DSTYLE
1002
{
1002
}
  0
DIMENSION
  5
18492
330
747D
100
AcDbEntity
  8
寸法
100
AcDbDimension
  2
*D10
 10
11685.3798633868
 20
9445.706836403985
 30
0.0
 11
11685.3798633868
 21
9670.706836403985
 31
0.0
 70
   160
 71
     5
 42
449.9999999999963
  3
INABA_S40G
100
AcDbAlignedDimension
 13
11256.8798633868
 23
10010.52306536072
 33
0.0
 14
11256.8798633868
 24
9560.523065360722
 34
0.0
 50
90.0
100
AcDbRotatedDimension
1001
ACAD
1000
DSTYLE
1002
{
1002
}
  0
LINE
  5
18493
330
747D
100
AcDbEntity
  8
部品1
100
AcDbLine
 10
11256.8798633868
 20
10010.52306536072
 30
0.0
 11
11256.8798633868
 21
9560.523065360722
 31
0.0
  0
LINE
  5
18494
330
747D
100
AcDbEntity
  8
部品1
100
AcDbLine
 10
11257.3798633868
 20
10012.52306536072
 30
0.0
 11
11257.3798633868
 21
9560.023065360594
 31
0.0
  0
LINE
  5
18496
330
747D
100
AcDbEntity
  8
部品1
 48
50.0
100
AcDbLine
 10
11230.37986338681
 20
7410.523065360694
 30
0.0
 11
11230.37986338681
 21
7438.523065360694
 31
0.0
  0
LINE
  5
18497
330
747D
100
AcDbEntity
  8
部品1
100
AcDbLine
 10
11257.3798633868
 20
7465.523065360705
 30
0.0
 11
11285.3798633868
 21
7465.523065360705
 31
0.0
  0
LINE
  5
18498
330
747D
100
AcDbEntity
  8
部品1
100
AcDbLine
 10
11285.37986338678
 20
7465.523065360705
 30
0.0
 11
11285.37986338678
 21
7410.52306536071
 31
0.0
  0
LINE
  5
18499
330
747D
100
AcDbEntity
  8
部品1
 48
50.0
100
AcDbLine
 10
11228.8798633868
 20
7467.023065360709
 30
0.0
 11
11257.3798633868
 21
7438.523065360708
 31
0.0
  0
LINE
  5
1849A
330
747D
100
AcDbEntity
  8
部品1
100
AcDbLine
 10
11285.37986338678
 20
7410.52306536071
 30
0.0
 11
11234.37986338678
 21
7410.52306536071
 31
0.0
  0
LINE
  5
1849B
330
747D
100
AcDbEntity
  8
部品1
100
AcDbLine
 10
11257.37986338678
 20
7465.523065360705
 30
0.0
 11
11285.37986338678
 21
7465.523065360705
 31
0.0
  0
LINE
  5
1849C
330
747D
100
AcDbEntity
  8
部品1
100
AcDbLine
 10
11285.37986338678
 20
7410.52306536071
 30
0.0
 11
11230.37986338681
 21
7410.523065360694
 31
0.0
  0
DIMENSION
  5
1849D
330
747D
100
AcDbEntity
  8
寸法
100
AcDbDimension
  2
*D11
 10
11985.37986338678
 20
7410.523065360706
 30
0.0
 11
11985.37986338678
 21
7102.037783986457
 31
0.0
 70
   160
 71
     5
 42
54.99999999999636
  3
INABA_S40G
100
AcDbAlignedDimension
 13
11285.37986338678
 23
7465.523065360703
 33
0.0
 14
11285.37986338678
 24
7410.523065360706
 34
0.0
 50
90.0
100
AcDbRotatedDimension
1001
ACAD
1000
DSTYLE
1002
{
1002
}
  0
LINE
  5
1849E
330
747D
100
AcDbEntity
  8
部品1
100
AcDbLine
 10
11257.3798633868
 20
9565.523065360721
 30
0.0
 11
11257.37986338678
 21
7438.523065360708
 31
0.0
  0
LINE
  5
1849F
330
747D
100
AcDbEntity
  8
部品1
100
AcDbLine
 10
11228.8798633868
 20
9560.523065360717
 30
0.0
 11
11228.8798633868
 21
7467.023065360709
 31
0.0
  0
LINE
  5
184A0
330
747D
100
AcDbEntity
  8
部品1
100
AcDbLine
 10
11285.3798633868
 20
10040.52306536072
 30
0.0
 11
11285.37986338678
 21
7410.52306536071
 31
0.0
  0
DIMENSION
  5
184A1
330
747D
100
AcDbEntity
  8
寸法
100
AcDbDimension
  2
*D12
 10
11985.3798633868
 20
7465.523065360703
 30
0.0
 11
11985.37986338679
 21
8725.523065360714
 31
0.0
 70
   160
  1
6X420=<>
 71
     5
 42
2520.000000000017
  3
INABA_S40G
100
AcDbAlignedDimension
 13
11285.3798633868
 23
9985.523065360723
 33
0.0
 14
11285.37986338678
 24
7465.523065360703
 34
0.0
 50
90.0
100
AcDbRotatedDimension
1001
ACAD
1000
DSTYLE
1002
{
1002
}
  0
DIMENSION
  5
184A2
330
747D
100
AcDbEntity
  8
寸法
100
AcDbDimension
  2
*D13
 10
12285.37986338681
 20
7410.523065360706
 30
0.0
 11
12285.37986338681
 21
8725.523065360714
 31
0.0
 70
   160
 71
     5
 42
2630.00000000001
  3
INABA_S40G
100
AcDbAlignedDimension
 13
11285.3798633868
 23
10040.52306536072
 33
0.0
 14
11285.37986338678
 24
7410.523065360706
 34
0.0
 50
90.0
100
AcDbRotatedDimension
1001
ACAD
1000
DSTYLE
1002
{
1002
}
  0
LINE
  5
184A3
330
747D
100
AcDbEntity
  8
部品1
100
AcDbLine
 10
10810.37986338677
 20
10040.52306536059
 30
0.0
 11
10810.37986338677
 21
10012.52306536059
 31
0.0
  0
LINE
  5
184A4
330
747D
100
AcDbEntity
  8
部品1
100
AcDbLine
 10
10390.37986338677
 20
10040.52306536059
 30
0.0
 11
10390.37986338677
 21
10012.52306536059
 31
0.0
  0
LINE
  5
184A5
330
747D
100
AcDbEntity
  8
部品1
100
AcDbLine
 10
9970.379863386771
 20
10040.52306536059
 30
0.0
 11
9970.379863386774
 21
10012.52306536059
 31
0.0
  0
LINE
  5
184A6
330
747D
100
AcDbEntity
  8
部品1
100
AcDbLine
 10
9999.379863386806
 20
10030.52306536072
 30
0.0
 11
10005.3798633868
 21
10030.52306536072
 31
0.0
  0
LINE
  5
184A7
330
747D
100
AcDbEntity
  8
部品1
100
AcDbLine
 10
10005.3798633868
 20
10030.52306536072
 30
0.0
 11
10005.3798633868
 21
10012.52306536072
 31
0.0
  0
LINE
  5
184A8
330
747D
100
AcDbEntity
  8
部品1
100
AcDbLine
 10
9935.379863386806
 20
10030.52306536072
 30
0.0
 11
9941.379863386806
 21
10030.52306536072
 31
0.0
  0
LINE
  5
184A9
330
747D
100
AcDbEntity
  8
部品1
100
AcDbLine
 10
9935.379863386806
 20
10030.52306536072
 30
0.0
 11
9935.379863386806
 21
10012.52306536072
 31
0.0
  0
LINE
  5
184AA
330
747D
100
AcDbEntity
  8
部品1
100
AcDbLine
 10
9957.879863386807
 20
10004.52306536072
 30
0.0
 11
9982.879863386806
 21
10004.52306536072
 31
0.0
  0
LINE
  5
184AB
330
747D
100
AcDbEntity
  8
部品1
100
AcDbLine
 10
9957.879863386807
 20
9560.52306536073
 30
0.0
 11
9982.879863386806
 21
9560.52306536073
 31
0.0
  0
LINE
  5
184AC
330
747D
100
AcDbEntity
  8
部品1
 48
50.0
100
AcDbLine
 10
9982.879863386806
 20
10012.52306536073
 30
0.0
 11
9982.879863386806
 21
9560.52306536073
 31
0.0
  0
LINE
  5
184AD
330
747D
100
AcDbEntity
  8
部品1
 48
50.0
100
AcDbLine
 10
9957.879863386805
 20
10012.52306536073
 30
0.0
 11
9957.879863386807
 21
9560.52306536073
 31
0.0
  0
LINE
  5
184AE
330
747D
100
AcDbEntity
  8
部品1
 48
50.0
100
AcDbLine
 10
9983.879863386807
 20
10010.52306536072
 30
0.0
 11
9983.879863386807
 21
9560.52306536073
 31
0.0
  0
LINE
  5
184AF
330
747D
100
AcDbEntity
  8
部品1
 48
50.0
100
AcDbLine
 10
9956.879863386808
 20
10010.52306536072
 30
0.0
 11
9956.879863386808
 21
9560.52306536073
 31
0.0
  0
LINE
  5
184B0
330
747D
100
AcDbEntity
  8
部品1
100
AcDbLine
 10
9550.379863386771
 20
10040.52306536059
 30
0.0
 11
9550.379863386773
 21
10012.52306536059
 31
0.0
  0
LINE
  5
184B1
330
747D
100
AcDbEntity
  8
部品1
100
AcDbLine
 10
9130.379863386769
 20
10040.52306536059
 30
0.0
 11
9130.379863386774
 21
10012.52306536059
 31
0.0
  0
LINE
  5
184B2
330
747D
100
AcDbEntity
  8
部品1
100
AcDbLine
 10
8710.379863386769
 20
10040.52306536059
 30
0.0
 11
8710.379863386775
 21
10012.52306536059
 31
0.0
  0
LINE
  5
184B3
330
747D
100
AcDbEntity
  8
部品1
100
AcDbLine
 10
8710.379863386807
 20
10040.52306536062
 30
0.0
 11
8710.379863386807
 21
10012.52306536062
 31
0.0
  0
LINE
  5
184B4
330
747D
100
AcDbEntity
  8
部品1
100
AcDbLine
 10
8683.379863386774
 20
9985.523065360595
 30
0.0
 11
8655.379863386775
 21
9985.523065360595
 31
0.0
  0
LINE
  5
184B5
330
747D
100
AcDbEntity
  8
部品1
100
AcDbLine
 10
8683.379863386781
 20
9565.523065360594
 30
0.0
 11
8655.379863386782
 21
9565.523065360594
 31
0.0
  0
LINE
  5
184B6
330
747D
100
AcDbEntity
  8
部品1
100
AcDbLine
 10
8683.379863386781
 20
9145.523065360592
 30
0.0
 11
8655.379863386782
 21
9145.523065360592
 31
0.0
  0
LINE
  5
184B7
330
747D
100
AcDbEntity
  8
部品1
100
AcDbLine
 10
8683.379863386795
 20
9560.023065360594
 30
0.0
 11
8683.379863386807
 21
10012.52306536062
 31
0.0
  0
LINE
  5
184B8
330
747D
100
AcDbEntity
  8
部品1
 48
50.0
100
AcDbLine
 10
8683.879863386737
 20
10010.52306536072
 30
0.0
 11
8683.879863386737
 21
9560.52306536073
 31
0.0
  0
LINE
  5
184B9
330
747D
100
AcDbEntity
  8
部品1
100
AcDbLine
 10
8683.879863386737
 20
9560.523065360671
 30
0.0
 11
9956.879863386804
 21
9560.52306536073
 31
0.0
  0
LINE
  5
184BA
330
747D
100
AcDbEntity
  8
部品1
100
AcDbLine
 10
8683.879863386737
 20
10010.52306536067
 30
0.0
 11
9956.879863386808
 21
10010.52306536073
 31
0.0
  0
LINE
  5
184BB
330
747D
100
AcDbEntity
  8
部品1
100
AcDbLine
 10
8683.379863386809
 20
10012.52306536073
 30
0.0
 11
9957.879863386803
 21
10012.52306536074
 31
0.0
  0
LINE
  5
184BC
330
747D
100
AcDbEntity
  8
細線
 48
50.0
100
AcDbLine
 10
9956.879863386808
 20
10010.52306536072
 30
0.0
 11
8683.879863386737
 21
9560.523065360671
 31
0.0
  0
LINE
  5
184BD
330
747D
100
AcDbEntity
  8
細線
 48
50.0
100
AcDbLine
 10
9956.879863386804
 20
9560.52306536073
 30
0.0
 11
8683.879863386735
 21
10010.52306536067
 31
0.0
  0
LINE
  5
184BE
330
747D
100
AcDbEntity
  8
破線
 48
10.0
100
AcDbLine
 10
11205.3798633868
 20
7490.523065360709
 30
0.0
 11
10410.87986338678
 21
7490.52306536053
 31
0.0
  0
LINE
  5
184BF
330
747D
100
AcDbEntity
  8
部品1
100
AcDbLine
 10
9130.379863386774
 20
7410.52306536071
 30
0.0
 11
9130.379863386774
 21
7438.523065360708
 31
0.0
  0
LINE
  5
184C0
330
747D
100
AcDbEntity
  8
部品1
 48
50.0
100
AcDbLine
 10
8711.879863386796
 20
7467.023065360686
 30
0.0
 11
8683.379863386795
 21
7438.523065360687
 31
0.0
  0
LINE
  5
184C1
330
747D
100
AcDbEntity
  8
部品1
100
AcDbLine
 10
8710.379863386775
 20
7410.52306536071
 30
0.0
 11
8710.379863386775
 21
7438.523065360708
 31
0.0
  0
LINE
  5
184C2
330
747D
100
AcDbEntity
  8
部品1
100
AcDbLine
 10
8683.379863386781
 20
7465.523065360541
 30
0.0
 11
8655.379863386796
 21
7465.523065360541
 31
0.0
  0
LINE
  5
184C3
330
747D
100
AcDbEntity
  8
部品1
100
AcDbLine
 10
8683.379863386781
 20
7465.523065360578
 30
0.0
 11
8655.379863386796
 21
7465.523065360578
 31
0.0
  0
LINE
  5
184C4
330
747D
100
AcDbEntity
  8
部品1
100
AcDbLine
 10
8683.379863386797
 20
7465.523065360592
 30
0.0
 11
8655.379863386796
 21
7465.523065360592
 31
0.0
  0
LINE
  5
184C5
330
747D
100
AcDbEntity
  8
部品1
100
AcDbLine
 10
8655.379863386796
 20
7465.523065360541
 30
0.0
 11
8655.3798633868
 21
7410.523065360544
 31
0.0
  0
LINE
  5
184C6
330
747D
100
AcDbEntity
  8
部品1
100
AcDbLine
 10
9130.379863386774
 20
7410.523065360577
 30
0.0
 11
8655.3798633868
 21
7410.523065360577
 31
0.0
  0
LINE
  5
184C7
330
747D
100
AcDbEntity
  8
破線
 48
10.0
100
AcDbLine
 10
9529.879863386785
 20
7490.523065360574
 30
0.0
 11
8735.379863386793
 21
7490.523065360588
 31
0.0
  0
LINE
  5
184C8
330
747D
100
AcDbEntity
  8
破線
 48
10.0
100
AcDbLine
 10
10360.87986338678
 20
7490.523065360625
 30
0.0
 11
9579.879863386782
 21
7490.5230653606
 31
0.0
  0
LINE
  5
184C9
330
747D
100
AcDbEntity
  8
破線
 48
10.0
100
AcDbLine
 10
10360.87986338678
 20
7467.023065360618
 30
0.0
 11
10360.87986338678
 21
9560.52306536073
 31
0.0
  0
LINE
  5
184CA
330
747D
100
AcDbEntity
  8
破線
 48
10.0
100
AcDbLine
 10
10410.87986338678
 20
7467.023065360621
 30
0.0
 11
10410.87986338678
 21
9560.52306536073
 31
0.0
  0
LINE
  5
184CB
330
747D
100
AcDbEntity
  8
部品1
100
AcDbLine
 10
8711.879863386782
 20
9560.523065360671
 30
0.0
 11
8711.879863386796
 21
7467.023065360684
 31
0.0
  0
LINE
  5
184CC
330
747D
100
AcDbEntity
  8
破線
 48
10.0
100
AcDbLine
 10
9579.879863386782
 20
7467.023065360621
 30
0.0
 11
9579.879863386782
 21
9560.52306536073
 31
0.0
  0
LINE
  5
184CD
330
747D
100
AcDbEntity
  8
破線
 48
10.0
100
AcDbLine
 10
9529.879863386785
 20
7467.023065360618
 30
0.0
 11
9529.87986338678
 21
9560.52306536073
 31
0.0
  0
LINE
  5
184CE
330
747D
100
AcDbEntity
  8
部品1
100
AcDbLine
 10
8655.37986338677
 20
10040.52306536059
 30
0.0
 11
8655.3798633868
 21
7410.523065360577
 31
0.0
  0
LINE
  5
184CF
330
747D
100
AcDbEntity
  8
部品1
100
AcDbLine
 10
8683.379863386781
 20
7438.523065360668
 30
0.0
 11
8683.3798633868
 21
9565.523065360594
 31
0.0
  0
LINE
  5
184D0
330
747D
100
AcDbEntity
  8
破線
 48
10.0
100
AcDbLine
 10
8735.37986338678
 20
9560.523065360722
 30
0.0
 11
8735.379863386794
 21
7490.523065360588
 31
0.0
  0
LINE
  5
184D1
330
747D
100
AcDbEntity
  8
破線
 48
10.0
100
AcDbLine
 10
11205.3798633868
 20
9560.523065360722
 30
0.0
 11
11205.37986338681
 21
7490.523065360704
 31
0.0
  0
LINE
  5
184D2
330
747D
100
AcDbEntity
  8
部品1
 48
50.0
100
AcDbLine
 10
8683.3798633868
 20
7438.523065360691
 30
0.0
 11
11257.37986338682
 21
7438.523065360694
 31
0.0
  0
LINE
  5
184D3
330
747D
100
AcDbEntity
  8
部品1
100
AcDbLine
 10
11228.87986338679
 20
9145.523065360695
 30
0.0
 11
8711.879863386789
 21
9145.523065360592
 31
0.0
  0
LINE
  5
184D4
330
747D
100
AcDbEntity
  8
部品1
100
AcDbLine
 10
9982.879863386806
 20
10012.52306536073
 30
0.0
 11
11257.3798633868
 21
10012.52306536072
 31
0.0
  0
LINE
  5
184D5
330
747D
100
AcDbEntity
  8
細線
 48
50.0
100
AcDbLine
 10
11256.8798633868
 20
9560.523065360722
 30
0.0
 11
9983.879863386807
 21
10010.52306536072
 31
0.0
  0
LINE
  5
184D6
330
747D
100
AcDbEntity
  8
部品1
100
AcDbLine
 10
9983.879863386805
 20
9560.52306536073
 30
0.0
 11
11256.8798633868
 21
9560.523065360722
 31
0.0
  0
LINE
  5
184D7
330
747D
100
AcDbEntity
  8
部品1
100
AcDbLine
 10
9983.879863386807
 20
10010.52306536072
 30
0.0
 11
11256.8798633868
 21
10010.52306536072
 31
0.0
  0
LINE
  5
184D8
330
747D
100
AcDbEntity
  8
細線
 48
50.0
100
AcDbLine
 10
11256.8798633868
 20
10010.52306536072
 30
0.0
 11
9983.879863386805
 21
9560.52306536073
 31
0.0
  0
DIMENSION
  5
184D9
330
747D
100
AcDbEntity
  8
寸法
100
AcDbDimension
  2
*D14
 10
11170.1459315508
 20
9240.55967581607
 30
0.0
 11
10603.26777070082
 21
9240.55967581607
 31
0.0
 70
   160
 71
     5
 42
1273.000000000011
  3
INABA_S40G
100
AcDbAlignedDimension
 13
9982.879863386806
 23
9560.52306536073
 33
0.0
 14
11255.87986338681
 24
9560.523065360722
 34
0.0
100
AcDbRotatedDimension
1001
ACAD
1000
DSTYLE
1002
{
1002
}
  0
LINE
  5
184DB
330
747D
100
AcDbEntity
  8
部品1
100
AcDbLine
 10
8655.379863386807
 20
10040.52306536062
 30
0.0
 11
11285.3798633868
 21
10040.52306536072
 31
0.0
  0
LINE
  5
184DC
330
747D
100
AcDbEntity
  8
部品1
100
AcDbLine
 10
11228.8798633868
 20
7467.023065360709
 30
0.0
 11
8711.879863386698
 21
7467.023065360589
 31
0.0
  0
DIMENSION
  5
184DD
330
747D
100
AcDbEntity
  8
寸法
100
AcDbDimension
  2
*D15
 10
11230.37986338681
 20
10340.52306536062
 30
0.0
 11
9970.379863386803
 21
10340.52306536062
 31
0.0
 70
   160
  1
6X420=<>
 71
     5
 42
2520.0
  3
INABA_S40G
100
AcDbAlignedDimension
 13
8710.379863386807
 23
10040.52306536062
 33
0.0
 14
11230.37986338681
 24
10040.52306536072
 34
0.0
100
AcDbRotatedDimension
1001
ACAD
1000
DSTYLE
1002
{
1002
}
  0
DIMENSION
  5
184DE
330
747D
100
AcDbEntity
  8
寸法
100
AcDbDimension
  2
*D16
 10
11285.3798633868
 20
10340.52306536062
 30
0.0
 11
11593.86514476104
 21
10340.52306536062
 31
0.0
 70
   160
 71
     5
 42
55.0
  3
INABA_S40G
100
AcDbAlignedDimension
 13
11230.37986338681
 23
10040.52306536072
 33
0.0
 14
11285.3798633868
 24
10040.52306536072
 34
0.0
100
AcDbRotatedDimension
1001
ACAD
1000
DSTYLE
1002
{
1002
}
  0
DIMENSION
  5
184DF
330
747D
100
AcDbEntity
  8
寸法
100
AcDbDimension
  2
*D17
 10
9870.145931550808
 20
9240.55967581607
 30
0.0
 11
9233.645931550773
 21
9240.55967581607
 31
0.0
 70
   160
 71
     5
 42
1273.000000000069
  3
INABA_S40G
100
AcDbAlignedDimension
 13
8682.879863386737
 23
9560.523065360671
 33
0.0
 14
9955.879863386806
 24
9560.523065360664
 34
0.0
100
AcDbRotatedDimension
1001
ACAD
1000
DSTYLE
1002
{
1002
}
  0
DIMENSION
  5
184E0
330
747D
100
AcDbEntity
  8
寸法
100
AcDbDimension
  2
*D18
 10
8710.379863386807
 20
10340.52306536062
 30
0.0
 11
8346.894582012529
 21
10340.52306536062
 31
0.0
 70
   160
 71
     5
 42
55.00000000003637
  3
INABA_S40G
100
AcDbAlignedDimension
 13
8655.37986338677
 23
10040.52306536062
 33
0.0
 14
8710.379863386807
 24
10040.52306536062
 34
0.0
100
AcDbRotatedDimension
1001
ACAD
1000
DSTYLE
1002
{
1002
}
  0
LINE
  5
184E1
330
747D
100
AcDbEntity
  8
部品1
 48
50.0
100
AcDbLine
 10
11230.37986338679
 20
4260.776364073606
 30
0.0
 11
11230.37986338679
 21
4265.776364073608
 31
0.0
  0
LINE
  5
184E2
330
747D
100
AcDbEntity
  8
部品1
100
AcDbLine
 10
11257.3798633868
 20
2175.776364073628
 30
0.0
 11
11285.37986338679
 21
2175.776364073628
 31
0.0
  0
LINE
  5
184E3
330
747D
100
AcDbEntity
  8
破線
 48
5.0
100
AcDbLine
 10
11310.37986338679
 20
1870.776364073608
 30
0.0
 11
11290.37986338679
 21
1870.776364073608
 31
0.0
  0
LINE
  5
184E4
330
747D
100
AcDbEntity
  8
破線
 48
5.0
100
AcDbLine
 10
11385.37986338679
 20
2025.776364073609
 30
0.0
 11
11385.37986338679
 21
1825.776364073608
 31
0.0
  0
LINE
  5
184E5
330
747D
100
AcDbEntity
  8
破線
 48
5.0
100
AcDbLine
 10
11290.37986338679
 20
2025.776364073609
 30
0.0
 11
11290.37986338679
 21
1870.776364073608
 31
0.0
  0
LINE
  5
184E6
330
747D
100
AcDbEntity
  8
部品1
100
AcDbLine
 10
11290.37986338679
 20
2170.776364073609
 30
0.0
 11
11290.37986338679
 21
2025.776364073609
 31
0.0
  0
LINE
  5
184E7
330
747D
100
AcDbEntity
  8
部品1
100
AcDbLine
 10
11285.3798633868
 20
4320.310637461346
 30
0.0
 11
11285.37986338679
 21
2025.776364073609
 31
0.0
  0
LINE
  5
184E8
330
747D
100
AcDbEntity
  8
部品1
 48
50.0
100
AcDbLine
 10
9130.379863386798
 20
4260.776364073606
 30
0.0
 11
9130.379863386798
 21
4265.776364073608
 31
0.0
  0
LINE
  5
184E9
330
747D
100
AcDbEntity
  8
破線
 48
5.0
100
AcDbLine
 10
11185.37986338679
 20
2025.776364073609
 30
0.0
 11
11185.37986338679
 21
1825.776364073608
 31
0.0
  0
LINE
  5
184EA
330
747D
100
AcDbEntity
  8
部品1
100
AcDbLine
 10
10885.37986338679
 20
2125.776364073608
 30
0.0
 11
10885.37986338679
 21
2025.776364073609
 31
0.0
  0
LINE
  5
184EB
330
747D
100
AcDbEntity
  8
部品1
 48
50.0
100
AcDbLine
 10
10485.37986338679
 20
2125.776364073608
 30
0.0
 11
10485.37986338679
 21
2025.776364073609
 31
0.0
  0
LINE
  5
184EC
330
747D
100
AcDbEntity
  8
部品1
 48
50.0
100
AcDbLine
 10
10285.37986338679
 20
2125.776364073608
 30
0.0
 11
10285.37986338679
 21
2025.776364073609
 31
0.0
  0
LINE
  5
184ED
330
747D
100
AcDbEntity
  8
部品1
 48
50.0
100
AcDbLine
 10
9655.379863386796
 20
2125.776364073608
 30
0.0
 11
9655.379863386796
 21
2025.776364073609
 31
0.0
  0
LINE
  5
184EE
330
747D
100
AcDbEntity
  8
部品1
 48
50.0
100
AcDbLine
 10
9455.379863386795
 20
2125.776364073608
 30
0.0
 11
9455.379863386795
 21
2025.776364073609
 31
0.0
  0
LINE
  5
184EF
330
747D
100
AcDbEntity
  8
部品1
100
AcDbLine
 10
8655.379863386796
 20
2175.776364073628
 30
0.0
 11
9103.379863386797
 21
2175.776364073628
 31
0.0
  0
LINE
  5
184F0
330
747D
100
AcDbEntity
  8
部品1
100
AcDbLine
 10
9055.379863386795
 20
2125.776364073608
 30
0.0
 11
9055.379863386795
 21
2025.776364073609
 31
0.0
  0
LINE
  5
184F1
330
747D
100
AcDbEntity
  8
破線
 48
5.0
100
AcDbLine
 10
8630.379863386796
 20
1870.776364073608
 30
0.0
 11
8650.379863386797
 21
1870.776364073608
 31
0.0
  0
LINE
  5
184F2
330
747D
100
AcDbEntity
  8
破線
 48
5.0
100
AcDbLine
 10
8755.379863386796
 20
2025.776364073609
 30
0.0
 11
8755.379863386796
 21
1825.776364073608
 31
0.0
  0
LINE
  5
184F3
330
747D
100
AcDbEntity
  8
破線
 48
5.0
100
AcDbLine
 10
8650.379863386795
 20
2025.776364073609
 30
0.0
 11
8650.379863386795
 21
1870.776364073608
 31
0.0
  0
LINE
  5
184F4
330
747D
100
AcDbEntity
  8
部品1
100
AcDbLine
 10
8650.379863386795
 20
2170.77636407361
 30
0.0
 11
8650.379863386795
 21
2025.776364073609
 31
0.0
  0
LINE
  5
184F5
330
747D
100
AcDbEntity
  8
部品1
100
AcDbLine
 10
8655.379863386796
 20
4357.918802002486
 30
0.0
 11
8655.379863386796
 21
2025.776364073609
 31
0.0
  0
LINE
  5
184F6
330
747D
100
AcDbEntity
  8
部品1
 48
50.0
100
AcDbLine
 10
8710.379863386798
 20
2175.776364073628
 30
0.0
 11
8710.379863386798
 21
4265.776364073608
 31
0.0
  0
LINE
  5
184F7
330
747D
100
AcDbEntity
  8
部品1
100
AcDbLine
 10
8655.379863386796
 20
2125.776364073608
 30
0.0
 11
11285.37986338679
 21
2125.776364073608
 31
0.0
  0
LINE
  5
184F8
330
747D
100
AcDbEntity
  8
部品1
100
AcDbLine
 10
8655.379863386796
 20
4265.776364073608
 30
0.0
 11
11285.37986338679
 21
4265.776364073608
 31
0.0
  0
LINE
  5
184F9
330
747D
100
AcDbEntity
  8
破線
 48
5.0
100
AcDbLine
 10
11385.37986338679
 20
1825.776364073608
 30
0.0
 11
11185.37986338679
 21
1825.776364073608
 31
0.0
  0
LINE
  5
184FA
330
747D
100
AcDbEntity
  8
部品1
 48
50.0
100
AcDbLine
 10
8683.379863386797
 20
2125.776364073608
 30
0.0
 11
11257.3798633868
 21
2125.776364073608
 31
0.0
  0
LINE
  5
184FB
330
747D
100
AcDbEntity
  8
部品1
 48
50.0
100
AcDbLine
 10
9103.379863386797
 20
2125.776364073608
 30
0.0
 11
11257.3798633868
 21
2125.776364073608
 31
0.0
  0
LINE
  5
184FC
330
747D
100
AcDbEntity
  8
部品1
100
AcDbLine
 10
8655.379863386796
 20
4265.776364073608
 30
0.0
 11
11285.37986338679
 21
4265.776364073608
 31
0.0
  0
LINE
  5
184FD
330
747D
100
AcDbEntity
  8
破線
 48
5.0
100
AcDbLine
 10
8555.379863386795
 20
2025.776364073609
 30
0.0
 11
8555.379863386795
 21
1825.776364073608
 31
0.0
  0
LINE
  5
184FE
330
747D
100
AcDbEntity
  8
破線
 48
5.0
100
AcDbLine
 10
8555.379863386795
 20
1825.776364073608
 30
0.0
 11
8755.379863386798
 21
1825.776364073608
 31
0.0
  0
DIMENSION
  5
184FF
330
747D
100
AcDbEntity
  8
寸法
 48
50.0
100
AcDbDimension
  2
*D19
 10
8555.379863386795
 20
1539.72903477323
 30
0.0
 11
8655.379863386796
 21
1539.72903477323
 31
0.0
 70
   160
 71
     5
 42
200.0000000000018
  3
INABA_S40G
100
AcDbAlignedDimension
 13
8755.379863386798
 23
1825.776364073608
 33
0.0
 14
8555.379863386795
 24
1825.776364073608
 34
0.0
100
AcDbRotatedDimension
  0
LINE
  5
18500
330
747D
100
AcDbEntity
  8
部品1
100
AcDbLine
 10
10352.11519650101
 20
1370.949760629126
 30
0.0
 11
9588.644530272578
 21
1370.949760629126
 31
0.0
  0
LINE
  5
18501
330
747D
100
AcDbEntity
  8
部品1
100
AcDbLine
 10
10352.11519650101
 20
1131.057439083593
 30
0.0
 11
10352.11519650101
 21
1370.949760629126
 31
0.0
  0
LINE
  5
18502
330
747D
100
AcDbEntity
  8
部品1
100
AcDbLine
 10
9588.644530272578
 20
1131.057439083593
 30
0.0
 11
10352.11519650101
 21
1131.057439083593
 31
0.0
  0
LINE
  5
18503
330
747D
100
AcDbEntity
  8
部品1
100
AcDbLine
 10
9588.644530272578
 20
1370.949760629126
 30
0.0
 11
9588.644530272578
 21
1131.057439083593
 31
0.0
  0
TEXT
  5
18509
330
747D
100
AcDbEntity
  8
部品1
100
AcDbText
 10
9679.169934010531
 20
1178.056231410603
 30
0.0
 40
135.0
  1
正面図
  7
STYLE2
100
AcDbText
  0
LINE
  5
1850A
330
747D
100
AcDbEntity
  8
Ｇ．Ｌ
100
AcDbLine
 10
2768.160815787054
 20
2025.776364073609
 30
0.0
 11
11934.89241641564
 21
2025.776364073609
 31
0.0
  0
DIMENSION
  5
1850B
330
747D
100
AcDbEntity
  8
寸法
 48
50.0
100
AcDbDimension
  2
*D20
 10
8362.15505691578
 20
2183.776364073608
 30
0.0
 11
8362.15505691578
 21
3196.276364073608
 31
0.0
 70
   160
  1
有効開口部高サ<>
 71
     5
 42
2025.000000000001
  3
INABA_S40G
100
AcDbAlignedDimension
 13
9103.379863386797
 23
4208.776364073608
 33
0.0
 14
9103.379863386797
 24
2183.776364073608
 34
0.0
 50
90.0
100
AcDbRotatedDimension
  0
DIMENSION
  5
1850C
330
747D
100
AcDbEntity
  8
寸法
 48
50.0
100
AcDbDimension
  2
*D21
 10
8034.771456618427
 20
4375.121622946937
 30
0.0
 11
8045.436931877352
 21
4745.968286188644
 31
0.0
 70
   161
 71
     5
 42
141.0000000000009
  3
INABA_S40G
100
AcDbAlignedDimension
 13
8614.775883545375
 23
4499.499112908288
 33
0.0
 14
8610.722427988749
 24
4358.557389142574
 34
0.0
1001
ACAD
1000
DSTYLE
1002
{
1070
   174
1070
     0
1070
   272
1070
     1
1070
   288
1070
     0
1070
   341
1005
0
1002
}
  0
DIMENSION
  5
1850D
330
747D
100
AcDbEntity
  8
寸法
100
AcDbDimension
  2
*D22
 10
7746.740481457438
 20
4500.776364073614
 30
0.0
 11
7746.740481457436
 21
3196.276364073608
 31
0.0
 70
   160
 71
     5
 42
2375.000000000005
  3
INABA_S40G
100
AcDbAlignedDimension
 13
8655.379863386796
 23
2125.776364073608
 33
0.0
 14
8595.379863386796
 24
4500.776364073614
 34
0.0
 50
90.0
100
AcDbRotatedDimension
1001
ACAD
1000
DSTYLE
1002
{
1070
   174
1070
     0
1070
   272
1070
     1
1070
   288
1070
     0
1070
   341
1005
0
1002
}
  0
DIMENSION
  5
1850E
330
747D
100
AcDbEntity
  8
寸法
100
AcDbDimension
  2
*D23
 10
8031.727154228498
 20
2175.776364073608
 30
0.0
 11
8031.727154228498
 21
3196.276364073608
 31
0.0
 70
   160
 71
     5
 42
2090.0
  3
INABA_S40G
100
AcDbAlignedDimension
 13
8655.379863386796
 23
4265.776364073608
 33
0.0
 14
8655.379863386796
 24
2175.776364073608
 34
0.0
 50
90.0
100
AcDbRotatedDimension
1001
ACAD
1000
DSTYLE
1002
{
1070
   174
1070
     0
1070
   272
1070
     1
1070
   288
1070
     0
1070
   341
1005
0
1002
}
  0
DIMENSION
  5
1850F
330
747D
100
AcDbEntity
  8
寸法
100
AcDbDimension
  2
*D24
 10
8031.727154228498
 20
2125.776364073608
 30
0.0
 11
8031.727154228498
 21
1819.729119979118
 31
0.0
 70
   160
 71
     5
 42
50.0
  3
INABA_S40G
100
AcDbAlignedDimension
 13
8655.379863386796
 23
2175.776364073608
 33
0.0
 14
8600.379863386796
 24
2125.776364073608
 34
0.0
 50
90.0
100
AcDbRotatedDimension
1001
ACAD
1000
DSTYLE
1002
{
1070
   174
1070
     0
1070
   272
1070
     1
1070
   288
1070
     0
1070
   341
1005
0
1002
}
  0
DIMENSION
  5
18510
330
747D
100
AcDbEntity
  8
寸法
100
AcDbDimension
  2
*D25
 10
7746.740481457436
 20
2025.776364073609
 30
0.0
 11
7746.740481457436
 21
1789.729119979118
 31
0.0
 70
   160
 71
     5
 42
100.0
  3
INABA_S40G
100
AcDbAlignedDimension
 13
8600.379863386796
 23
2125.776364073608
 33
0.0
 14
8031.727154228498
 24
2025.776364073609
 34
0.0
 50
90.0
100
AcDbRotatedDimension
1001
ACAD
1000
DSTYLE
1002
{
1070
   174
1070
     0
1070
   272
1070
     1
1070
   288
1070
     0
1070
   341
1005
0
1002
}
  0
TEXT
  5
18511
330
747D
100
AcDbEntity
  8
部品1
 48
50.0
100
AcDbText
 10
10321.96086534789
 20
4523.045457011916
 30
0.0
 40
120.0
  1
37
 50
90.0
  7
STYLE1
100
AcDbText
  0
TEXT
  5
18512
330
747D
100
AcDbEntity
  8
部品1
 48
50.0
100
AcDbText
 10
9844.327842682805
 20
4660.546715230199
 30
0.0
 40
120.0
  1
1000
  7
STYLE1
100
AcDbText
  0
LINE
  5
18513
330
747D
100
AcDbEntity
  8
部品1
 48
50.0
100
AcDbLine
 10
10156.06000745908
 20
4624.662693077765
 30
0.0
 11
10156.06000745908
 21
4608.462693077765
 31
0.0
  0
LINE
  5
18514
330
747D
100
AcDbEntity
  8
部品1
 48
50.0
100
AcDbLine
 10
9856.060007459078
 20
4624.662693077765
 30
0.0
 11
10156.06000745908
 21
4624.662693077765
 31
0.0
  0
LINE
  5
18515
330
747D
100
AcDbEntity
  8
部品1
100
AcDbLine
 10
9830.60499381604
 20
4625.980752036626
 30
0.0
 11
10156.06000745908
 21
4608.462693077765
 31
0.0
  0
LINE
  5
18516
330
747D
100
AcDbEntity
  8
部品1
100
AcDbLine
 10
8602.924849743763
 20
4499.494099407875
 30
0.0
 11
11357.99174024826
 21
4444.417161782747
 31
0.0
  0
LINE
  5
18517
330
747D
100
AcDbEntity
  8
部品1
100
AcDbLine
 10
8610.722427988752
 20
4358.557389142576
 30
0.0
 11
11340.04356392665
 21
4319.52896390837
 31
0.0
  0
LINE
  5
18518
330
747D
100
AcDbEntity
  8
細線
 48
50.0
100
AcDbLine
 10
8596.419286487614
 20
4471.793445914971
 30
0.0
 11
11362.05527123278
 21
4416.169241274142
 31
0.0
  0
LINE
  5
18519
330
747D
100
AcDbEntity
  8
細線
 48
50.0
100
AcDbLine
 10
8601.1797617249
 20
4378.931934217106
 30
0.0
 11
11351.18342615554
 21
4339.122615242613
 31
0.0
  0
LINE
  5
1851A
330
747D
100
AcDbEntity
  8
細線
 48
50.0
100
AcDbLine
 10
8628.379863386799
 20
4498.176040449014
 30
0.0
 11
8623.090761831292
 21
4358.090407821658
 31
0.0
  0
LINE
  5
1851B
330
747D
100
AcDbEntity
  8
部品1
 48
50.0
100
AcDbLine
 10
8595.564149299907
 20
4492.369910238301
 30
0.0
 11
8595.944409077718
 21
4472.442945791891
 31
0.0
  0
LINE
  5
1851C
330
747D
100
AcDbEntity
  8
部品1
 48
50.0
100
AcDbLine
 10
8599.013181183964
 20
4468.867664298417
 30
0.0
 11
8600.717082675329
 21
4379.57716759177
 31
0.0
  0
LINE
  5
1851D
330
747D
100
AcDbEntity
  8
部品1
 48
50.0
100
AcDbLine
 10
8603.78585478157
 20
4376.001886098298
 30
0.0
 11
8603.987807402003
 21
4365.418850705206
 31
0.0
  0
ARC
  5
1851E
330
747D
100
AcDbEntity
  8
部品1
 48
50.0
100
AcDbCircle
 10
8602.562875128246
 20
4492.50346464573
 30
0.0
 40
7.0
100
AcDbArc
 50
87.03587545283093
 51
181.0932240293156
  0
ARC
  5
1851F
330
747D
100
AcDbEntity
  8
部品1
 48
50.0
100
AcDbCircle
 10
8610.986533230342
 20
4365.552405112634
 30
0.0
 40
7.0
100
AcDbArc
 50
181.0932240293156
 51
267.8377559869489
  0
ARC
  5
18520
330
747D
100
AcDbEntity
  8
部品1
100
AcDbCircle
 10
8600.78640085514
 20
4375.944648495114
 30
0.0
 40
3.0
100
AcDbArc
 50
1.093224029315636
 51
80.18775403169765
  0
ARC
  5
18521
330
747D
100
AcDbEntity
  8
部品1
100
AcDbCircle
 10
8596.013727257533
 20
4468.810426695234
 30
0.0
 40
3.0
100
AcDbArc
 50
1.093224029315636
 51
80.18775403169765
  0
ARC
  5
18522
330
747D
100
AcDbEntity
  8
部品1
100
AcDbCircle
 10
8596.644281660557
 20
4472.456301232631
 30
0.0
 40
0.7
100
AcDbArc
 50
181.0932240292114
 51
260.1877540314855
  0
ARC
  5
18523
330
747D
100
AcDbEntity
  8
部品1
100
AcDbCircle
 10
8601.416955258166
 20
4379.590523032513
 30
0.0
 40
0.7
100
AcDbArc
 50
181.0932240292114
 51
260.1877540314855
  0
LINE
  5
18524
330
747D
100
AcDbEntity
  8
細線
 48
50.0
100
AcDbLine
 10
11332.34914658049
 20
4444.929786553077
 30
0.0
 11
11327.6321804988
 21
4319.997570618161
 31
0.0
  0
LINE
  5
18525
330
747D
100
AcDbEntity
  8
部品1
 48
50.0
100
AcDbLine
 10
11364.5937661975
 20
4436.717516347828
 30
0.0
 11
11362.56314500653
 21
4416.772475090047
 31
0.0
  0
LINE
  5
18526
330
747D
100
AcDbEntity
  8
部品1
 48
50.0
100
AcDbLine
 10
11359.21057852205
 20
4413.461841017139
 30
0.0
 11
11351.70379925721
 21
4339.729220272127
 31
0.0
  0
LINE
  5
18527
330
747D
100
AcDbEntity
  8
部品1
 48
50.0
100
AcDbLine
 10
11348.35123277273
 20
4336.418586199214
 30
0.0
 11
11347.27166973299
 21
4325.814969205656
 31
0.0
  0
ARC
  5
18528
330
747D
100
AcDbEntity
  8
部品1
 48
50.0
100
AcDbCircle
 10
11357.62976563275
 20
4437.426527020603
 30
0.0
 40
7.0
100
AcDbArc
 50
354.1866997665596
 51
87.03587545283093
  0
ARC
  5
18529
330
747D
100
AcDbEntity
  8
部品1
 48
50.0
100
AcDbCircle
 10
11340.30766916823
 20
4326.523979878429
 30
0.0
 40
7.0
100
AcDbArc
 50
267.8377559869489
 51
354.1866997665596
  0
ARC
  5
1852A
330
747D
100
AcDbEntity
  8
部品1
100
AcDbCircle
 10
11351.33580444333
 20
4336.114724482311
 30
0.0
 40
3.0
100
AcDbArc
 50
95.0921697642102
 51
174.1866997665596
  0
ARC
  5
1852B
330
747D
100
AcDbEntity
  8
部品1
100
AcDbCircle
 10
11362.19515019266
 20
4413.157979300236
 30
0.0
 40
3.0
100
AcDbArc
 50
95.0921697642102
 51
174.1866997665596
  0
ARC
  5
1852C
330
747D
100
AcDbEntity
  8
部品1
100
AcDbCircle
 10
11361.86674495006
 20
4416.843376157325
 30
0.0
 40
0.7
100
AcDbArc
 50
275.0921697642102
 51
354.1866997665596
  0
ARC
  5
1852D
330
747D
100
AcDbEntity
  8
部品1
100
AcDbCircle
 10
11351.00739920074
 20
4339.800121339401
 30
0.0
 40
0.7
100
AcDbArc
 50
275.0921697642102
 51
354.1866997667606
  0
DIMENSION
  5
1852E
330
747D
100
AcDbEntity
  8
寸法
 48
50.0
100
AcDbDimension
  2
*D26
 10
11365.3798633868
 20
4899.433817652914
 30
0.0
 11
11571.42710748129
 21
4899.433817652914
 31
0.0
 70
   160
 71
     5
 42
80.0
  3
INABA_S40G
100
AcDbAlignedDimension
 13
11285.3798633868
 23
4447.587043685262
 33
0.0
 14
11365.3798633868
 24
4445.77636407361
 34
0.0
100
AcDbRotatedDimension
1001
ACAD
1000
DSTYLE
1002
{
1070
   174
1070
     0
1070
   272
1070
     1
1070
   288
1070
     0
1070
   341
1005
0
1002
}
  0
DIMENSION
  5
1852F
330
747D
100
AcDbEntity
  8
寸法
 48
50.0
100
AcDbDimension
  2
*D27
 10
8595.379863386799
 20
5119.644504384531
 30
0.0
 11
9998.738788274176
 21
5119.644504384531
 31
0.0
 70
   160
 71
     5
 42
2770.0
  3
INABA_S40G
100
AcDbAlignedDimension
 13
11365.3798633868
 23
4445.77636407361
 33
0.0
 14
8595.379863386799
 24
4500.776364073613
 34
0.0
100
AcDbRotatedDimension
1001
ACAD
1000
DSTYLE
1002
{
1070
   174
1070
     0
1070
   272
1070
     1
1070
   288
1070
     0
1070
   341
1005
0
1002
}
  0
DIMENSION
  5
18530
330
747D
100
AcDbEntity
  8
寸法
 48
50.0
100
AcDbDimension
  2
*D28
 10
8655.3798633868
 20
4899.433817652914
 30
0.0
 11
10010.15005441599
 21
4899.433817652914
 31
0.0
 70
   160
  1
柱外寸法<>
 71
     5
 42
2630.0
  3
INABA_S40G
100
AcDbAlignedDimension
 13
11285.3798633868
 23
4447.587043685262
 33
0.0
 14
8655.3798633868
 24
4496.777982196585
 34
0.0
100
AcDbRotatedDimension
1001
ACAD
1000
DSTYLE
1002
{
1070
   174
1070
     0
1070
   272
1070
     1
1070
   288
1070
     0
1070
   341
1005
0
1002
}
  0
DIMENSION
  5
18531
330
747D
100
AcDbEntity
  8
寸法
 48
50.0
100
AcDbDimension
  2
*D29
 10
8595.379863386799
 20
4899.433817652912
 30
0.0
 11
8285.742068111209
 21
4899.433817652912
 31
0.0
 70
   160
 71
     5
 42
60.0
  3
INABA_S40G
100
AcDbAlignedDimension
 13
8655.3798633868
 23
4496.777982196585
 33
0.0
 14
8595.379863386799
 24
4500.776364073613
 34
0.0
100
AcDbRotatedDimension
1001
ACAD
1000
DSTYLE
1002
{
1070
   174
1070
     0
1070
   272
1070
     1
1070
   288
1070
     0
1070
   341
1005
0
1002
}
  0
TEXT
  5
18532
330
747D
100
AcDbEntity
  8
文字
 62
     7
 48
50.0
100
AcDbText
 10
13583.11819016569
 20
8550.013745883735
 30
0.0
 40
100.0
  1
棚板
  7
STYLE1
100
AcDbText
  0
TEXT
  5
18533
330
747D
100
AcDbEntity
  8
文字
 62
     7
 48
50.0
100
AcDbText
 10
15022.63965474516
 20
8550.013745883731
 30
0.0
 40
100.0
  1
F12            0.6
  7
STYLE1
100
AcDbText
  0
TEXT
  5
18534
330
747D
100
AcDbEntity
  8
文字
 62
     7
 48
50.0
100
AcDbText
 10
13583.11819016569
 20
9740.013745883731
 30
0.0
 40
100.0
  1
母屋中
  7
STYLE1
100
AcDbText
  0
TEXT
  5
18535
330
747D
100
AcDbEntity
  8
文字
 62
     7
 48
50.0
100
AcDbText
 10
13248.77747366447
 20
8720.013745883733
 30
0.0
 40
100.0
  1
15
  7
STYLE1
100
AcDbText
  0
LINE
  5
18536
330
747D
100
AcDbEntity
  8
仕様書枠
 48
50.0
100
AcDbLine
 10
16307.19999999999
 20
8009.600000000007
 30
0.0
 11
13127.19999999999
 21
8009.600000000011
 31
0.0
  0
TEXT
  5
18537
330
747D
100
AcDbEntity
  8
文字
 62
     7
 48
50.0
100
AcDbText
 10
13583.11819016569
 20
8720.013745883735
 30
0.0
 40
100.0
  1
扉
  7
STYLE1
100
AcDbText
  0
TEXT
  5
18538
330
747D
100
AcDbEntity
  8
文字
 62
     7
 48
50.0
100
AcDbText
 10
15022.63965474516
 20
8720.013745883731
 30
0.0
 40
100.0
  1
F12            0.8
  7
STYLE1
100
AcDbText
  0
TEXT
  5
18539
330
747D
100
AcDbEntity
  8
文字
 62
     7
 48
50.0
100
AcDbText
 10
13583.11819016568
 20
8890.013745883734
 30
0.0
 40
100.0
  1
正面パネル
  7
STYLE1
100
AcDbText
  0
TEXT
  5
1853A
330
747D
100
AcDbEntity
  8
文字
 62
     7
 48
50.0
100
AcDbText
 10
15022.63965474515
 20
8890.013745883731
 30
0.0
 40
100.0
  1
F12            0.7
  7
STYLE1
100
AcDbText
  0
TEXT
  5
1853B
330
747D
100
AcDbEntity
  8
文字
 62
     7
 48
50.0
100
AcDbText
 10
15022.63965474517
 20
10590.01374588373
 30
0.0
 40
100.0
  1
F12            1.0
  7
STYLE1
100
AcDbText
  0
TEXT
  5
1853C
330
747D
100
AcDbEntity
  8
文字
 62
     7
 48
50.0
100
AcDbText
 10
15022.63965474516
 20
10930.01374588373
 30
0.0
 40
100.0
  1
F12            1.2
  7
STYLE1
100
AcDbText
  0
TEXT
  5
1853D
330
747D
100
AcDbEntity
  8
文字
 62
     7
 48
50.0
100
AcDbText
 10
13248.77747366448
 20
8890.013745883731
 30
0.0
 40
100.0
  1
14
  7
STYLE1
100
AcDbText
  0
TEXT
  5
1853E
330
747D
100
AcDbEntity
  8
文字
 62
     7
 48
50.0
100
AcDbText
 10
13583.11819016569
 20
10930.01374588373
 30
0.0
 40
100.0
  1
根太
  7
STYLE1
100
AcDbText
  0
TEXT
  5
1853F
330
747D
100
AcDbEntity
  8
文字
 62
     7
 48
50.0
100
AcDbText
 10
13583.1181901657
 20
10590.01374588373
 30
0.0
 40
100.0
  1
床パネル
 41
0.9
  7
STYLE1
100
AcDbText
  0
LINE
  5
18540
330
747D
100
AcDbEntity
  8
仕様書枠
 48
50.0
100
AcDbLine
 10
16307.19999999999
 20
9029.600000000003
 30
0.0
 11
13127.2
 21
9029.600000000007
 31
0.0
  0
LINE
  5
18541
330
747D
100
AcDbEntity
  8
仕様書枠
 48
50.0
100
AcDbLine
 10
13127.2
 20
11409.6
 30
0.0
 11
13127.19999999999
 21
8009.600000000011
 31
0.0
  0
TEXT
  5
18542
330
747D
100
AcDbEntity
  8
文字
 62
     7
 48
50.0
100
AcDbText
 10
13229.83081656554
 20
8040.013745883737
 30
0.0
 40
100.0
  1
Y10→溶融亜鉛-5％アルミニウム合金めっき鋼板(JIS G 3317)
 41
0.9
  7
STYLE1
100
AcDbText
  0
TEXT
  5
18543
330
747D
100
AcDbEntity
  8
文字
 62
     7
 48
50.0
100
AcDbText
 10
13229.83081656554
 20
8210.013745883737
 30
0.0
 40
100.0
  1
F12→溶融亜鉛めっき鋼板(JIS G 3302)
  7
STYLE1
100
AcDbText
  0
LINE
  5
18544
330
747D
100
AcDbEntity
  8
仕様書枠
 48
50.0
100
AcDbLine
 10
16307.19999999999
 20
8179.600000000007
 30
0.0
 11
13127.19999999999
 21
8179.600000000009
 31
0.0
  0
LINE
  5
18545
330
747D
100
AcDbEntity
  8
仕様書枠
 48
50.0
100
AcDbLine
 10
16307.19999999999
 20
8349.600000000007
 30
0.0
 11
13127.19999999999
 21
8349.600000000009
 31
0.0
  0
TEXT
  5
18546
330
747D
100
AcDbEntity
  8
文字
 62
     7
 48
50.0
100
AcDbText
 10
15022.63965474515
 20
9570.013745883729
 30
0.0
 40
100.0
  1
F12            0.7
  7
STYLE1
100
AcDbText
  0
TEXT
  5
18547
330
747D
100
AcDbEntity
  8
文字
 62
     7
 48
50.0
100
AcDbText
 10
15022.63965474517
 20
9910.01374588373
 30
0.0
 40
100.0
  1
Y10            0.5
  7
STYLE1
100
AcDbText
  0
TEXT
  5
18548
330
747D
100
AcDbEntity
  8
文字
 62
     7
 48
50.0
100
AcDbText
 10
15022.63965474516
 20
10080.01374588373
 30
0.0
 40
100.0
  1
Y10            0.7
  7
STYLE1
100
AcDbText
  0
TEXT
  5
18549
330
747D
100
AcDbEntity
  8
文字
 62
     7
 48
50.0
100
AcDbText
 10
15022.63965474516
 20
10250.01374588373
 30
0.0
 40
100.0
  1
Y10            0.7
  7
STYLE1
100
AcDbText
  0
TEXT
  5
1854A
330
747D
100
AcDbEntity
  8
文字
 62
     7
 48
50.0
100
AcDbText
 10
15022.63965474516
 20
10420.01374588373
 30
0.0
 40
100.0
  1
Y10            1.0
  7
STYLE1
100
AcDbText
  0
TEXT
  5
1854B
330
747D
100
AcDbEntity
  8
文字
 62
     7
 48
50.0
100
AcDbText
 10
15022.63965474518
 20
10760.01374588373
 30
0.0
 40
100.0
  1
F12            1.0
  7
STYLE1
100
AcDbText
  0
TEXT
  5
1854C
330
747D
100
AcDbEntity
  8
文字
 62
     7
 48
50.0
100
AcDbText
 10
15022.63965474517
 20
11100.01374588373
 30
0.0
 40
100.0
  1
F12            1.2
  7
STYLE1
100
AcDbText
  0
TEXT
  5
1854D
330
747D
100
AcDbEntity
  8
文字
 62
     7
 48
50.0
100
AcDbText
 10
13248.77747366448
 20
9230.013745883731
 30
0.0
 40
100.0
  1
12
  7
STYLE1
100
AcDbText
  0
TEXT
  5
1854E
330
747D
100
AcDbEntity
  8
文字
 62
     7
 48
50.0
100
AcDbText
 10
13248.77747366448
 20
9060.013745883731
 30
0.0
 40
100.0
  1
13
  7
STYLE1
100
AcDbText
  0
LINE
  5
1854F
330
747D
100
AcDbEntity
  8
仕様書枠
 48
50.0
100
AcDbLine
 10
16307.19999999999
 20
8859.600000000005
 30
0.0
 11
13127.2
 21
8859.600000000005
 31
0.0
  0
LINE
  5
18550
330
747D
100
AcDbEntity
  8
仕様書枠
 48
50.0
100
AcDbLine
 10
16307.19999999999
 20
9199.600000000001
 30
0.0
 11
13127.2
 21
9199.600000000003
 31
0.0
  0
TEXT
  5
18551
330
747D
100
AcDbEntity
  8
文字
 62
     7
 48
50.0
100
AcDbText
 10
13248.77747366447
 20
9400.013745883731
 30
0.0
 40
100.0
  1
11
  7
STYLE1
100
AcDbText
  0
LINE
  5
18552
330
747D
100
AcDbEntity
  8
仕様書枠
 48
50.0
100
AcDbLine
 10
16307.2
 20
9879.600000000003
 30
0.0
 11
13127.2
 21
9879.600000000005
 31
0.0
  0
LINE
  5
18553
330
747D
100
AcDbEntity
  8
仕様書枠
 48
50.0
100
AcDbLine
 10
16307.2
 20
10219.6
 30
0.0
 11
13127.2
 21
10219.6
 31
0.0
  0
LINE
  5
18554
330
747D
100
AcDbEntity
  8
仕様書枠
 48
50.0
100
AcDbLine
 10
16307.19999999999
 20
9539.600000000003
 30
0.0
 11
13127.2
 21
9539.600000000005
 31
0.0
  0
LINE
  5
18555
330
747D
100
AcDbEntity
  8
仕様書枠
 48
50.0
100
AcDbLine
 10
16307.19999999999
 20
9369.600000000003
 30
0.0
 11
13127.2
 21
9369.600000000003
 31
0.0
  0
LINE
  5
18556
330
747D
100
AcDbEntity
  8
仕様書枠
 48
50.0
100
AcDbLine
 10
16307.19999999999
 20
9709.600000000001
 30
0.0
 11
13127.2
 21
9709.600000000005
 31
0.0
  0
TEXT
  5
18557
330
747D
100
AcDbEntity
  8
文字
 62
     7
 48
50.0
100
AcDbText
 10
13271.19032244792
 20
10250.01374588373
 30
0.0
 40
100.0
  1
6
  7
STYLE1
100
AcDbText
  0
TEXT
  5
18558
330
747D
100
AcDbEntity
  8
文字
 62
     7
 48
50.0
100
AcDbText
 10
13271.19032244792
 20
10080.01374588373
 30
0.0
 40
100.0
  1
7
  7
STYLE1
100
AcDbText
  0
TEXT
  5
18559
330
747D
100
AcDbEntity
  8
文字
 62
     7
 48
50.0
100
AcDbText
 10
13271.19032244792
 20
9740.013745883732
 30
0.0
 40
100.0
  1
9
  7
STYLE1
100
AcDbText
  0
TEXT
  5
1855A
330
747D
100
AcDbEntity
  8
文字
 62
     7
 48
50.0
100
AcDbText
 10
13271.19032244792
 20
9910.013745883732
 30
0.0
 40
100.0
  1
8
  7
STYLE1
100
AcDbText
  0
TEXT
  5
1855B
330
747D
100
AcDbEntity
  8
文字
 62
     7
 48
50.0
100
AcDbText
 10
13583.11819016569
 20
10080.01374588373
 30
0.0
 40
100.0
  1
鼻隠シ前後
  7
STYLE1
100
AcDbText
  0
TEXT
  5
1855C
330
747D
100
AcDbEntity
  8
文字
 62
     7
 48
50.0
100
AcDbText
 10
13583.11819016569
 20
9910.01374588373
 30
0.0
 40
100.0
  1
屋根パネル
  7
STYLE1
100
AcDbText
  0
TEXT
  5
1855D
330
747D
100
AcDbEntity
  8
文字
 62
     7
 48
50.0
100
AcDbText
 10
13583.11819016568
 20
9570.013745883732
 30
0.0
 40
100.0
  1
壁パネル
  7
STYLE1
100
AcDbText
  0
TEXT
  5
1855E
330
747D
100
AcDbEntity
  8
文字
 62
     7
 48
50.0
100
AcDbText
 10
13248.77747366447
 20
9570.013745883731
 30
0.0
 40
100.0
  1
10
  7
STYLE1
100
AcDbText
  0
TEXT
  5
1855F
330
747D
100
AcDbEntity
  8
文字
 62
     7
 48
50.0
100
AcDbText
 10
13583.11819016569
 20
10250.01374588373
 30
0.0
 40
100.0
  1
妻板左右
  7
STYLE1
100
AcDbText
  0
TEXT
  5
18560
330
747D
100
AcDbEntity
  8
文字
 62
     7
 48
50.0
100
AcDbText
 10
13271.19032244792
 20
10420.01374588373
 30
0.0
 40
100.0
  1
5
  7
STYLE1
100
AcDbText
  0
TEXT
  5
18561
330
747D
100
AcDbEntity
  8
文字
 62
     7
 48
50.0
100
AcDbText
 10
13583.11819016569
 20
10420.01374588373
 30
0.0
 40
100.0
  1
桁前後
  7
STYLE1
100
AcDbText
  0
TEXT
  5
18562
330
747D
100
AcDbEntity
  8
文字
 62
     7
 48
50.0
100
AcDbText
 10
13583.1181901657
 20
10760.01374588373
 30
0.0
 40
100.0
  1
柱
  7
STYLE1
100
AcDbText
  0
TEXT
  5
18563
330
747D
100
AcDbEntity
  8
文字
 62
     7
 48
50.0
100
AcDbText
 10
13583.11819016569
 20
11100.01374588373
 30
0.0
 40
100.0
  1
土台枠
  7
STYLE1
100
AcDbText
  0
TEXT
  5
18564
330
747D
100
AcDbEntity
  8
文字
 62
     7
 48
50.0
100
AcDbText
 10
14859.79774614482
 20
11270.01374588373
 30
0.0
 40
100.0
  1
材料（材質）　　単位mm
  7
STYLE1
100
AcDbText
  0
TEXT
  5
18565
330
747D
100
AcDbEntity
  8
文字
 62
     7
 48
50.0
100
AcDbText
 10
13732.03840939434
 20
11270.01374588373
 30
0.0
 40
100.0
  1
部　　品　　名
  7
STYLE1
100
AcDbText
  0
TEXT
  5
18566
330
747D
100
AcDbEntity
  8
文字
 62
     7
 48
50.0
100
AcDbText
 10
13271.19032244792
 20
10760.01374588373
 30
0.0
 40
100.0
  1
3
  7
STYLE1
100
AcDbText
  0
TEXT
  5
18567
330
747D
100
AcDbEntity
  8
文字
 62
     7
 48
50.0
100
AcDbText
 10
13271.19032244792
 20
10590.01374588373
 30
0.0
 40
100.0
  1
4
  7
STYLE1
100
AcDbText
  0
TEXT
  5
18568
330
747D
100
AcDbEntity
  8
文字
 62
     7
 48
50.0
100
AcDbText
 10
13271.19032244792
 20
10930.01374588373
 30
0.0
 40
100.0
  1
2
  7
STYLE1
100
AcDbText
  0
TEXT
  5
18569
330
747D
100
AcDbEntity
  8
文字
 62
     7
 48
50.0
100
AcDbText
 10
13271.19032244792
 20
11100.01374588373
 30
0.0
 40
100.0
  1
1
  7
STYLE1
100
AcDbText
  0
TEXT
  5
1856A
330
747D
100
AcDbEntity
  8
文字
 62
     7
 48
50.0
100
AcDbText
 10
13197.42518560407
 20
11270.01374588373
 30
0.0
 40
100.0
  1
品番
  7
STYLE1
100
AcDbText
  0
LINE
  5
1856B
330
747D
100
AcDbEntity
  8
仕様書枠
 48
50.0
100
AcDbLine
 10
16307.19999999999
 20
10729.6
 30
0.0
 11
13127.2
 21
10729.6
 31
0.0
  0
LINE
  5
1856C
330
747D
100
AcDbEntity
  8
仕様書枠
 48
50.0
100
AcDbLine
 10
16307.19999999999
 20
10389.6
 30
0.0
 11
13127.2
 21
10389.6
 31
0.0
  0
LINE
  5
1856D
330
747D
100
AcDbEntity
  8
仕様書枠
 48
50.0
100
AcDbLine
 10
16307.19999999999
 20
10559.6
 30
0.0
 11
13127.2
 21
10559.6
 31
0.0
  0
LINE
  5
1856E
330
747D
100
AcDbEntity
  8
仕様書枠
 48
50.0
100
AcDbLine
 10
16307.2
 20
11069.6
 30
0.0
 11
13127.2
 21
11069.6
 31
0.0
  0
LINE
  5
1856F
330
747D
100
AcDbEntity
  8
仕様書枠
 48
50.0
100
AcDbLine
 10
16307.2
 20
10899.6
 30
0.0
 11
13127.2
 21
10899.6
 31
0.0
  0
LINE
  5
18570
330
747D
100
AcDbEntity
  8
仕様書枠
 48
50.0
100
AcDbLine
 10
16307.2
 20
11239.6
 30
0.0
 11
13127.2
 21
11239.6
 31
0.0
  0
LINE
  5
18571
330
747D
100
AcDbEntity
  8
仕様書枠
 48
50.0
100
AcDbLine
 10
13490.2
 20
11409.6
 30
0.0
 11
13490.20000000001
 21
8349.600000000009
 31
0.0
  0
LINE
  5
18572
330
747D
100
AcDbEntity
  8
仕様書枠
 48
50.0
100
AcDbLine
 10
14785.2
 20
11409.6
 30
0.0
 11
14785.2
 21
8349.600000000007
 31
0.0
  0
LINE
  5
18573
330
747D
100
AcDbEntity
  8
仕様書枠
 48
50.0
100
AcDbLine
 10
16307.19999999999
 20
8009.600000000007
 30
0.0
 11
16307.2
 21
11409.6
 31
0.0
  0
LINE
  5
18574
330
747D
100
AcDbEntity
  8
仕様書枠
 48
50.0
100
AcDbLine
 10
16307.2
 20
11409.6
 30
0.0
 11
13127.2
 21
11409.6
 31
0.0
  0
LINE
  5
18575
330
747D
100
AcDbEntity
  8
仕様書枠
 48
50.0
100
AcDbLine
 10
16307.2
 20
10049.6
 30
0.0
 11
13127.2
 21
10049.6
 31
0.0
  0
TEXT
  5
18576
330
747D
100
AcDbEntity
  8
文字
 62
     7
 48
50.0
100
AcDbText
 10
15022.63965474515
 20
8380.013745883728
 30
0.0
 40
100.0
  1
F12            2.3
  7
STYLE1
100
AcDbText
  0
TEXT
  5
18577
330
747D
100
AcDbEntity
  8
文字
 62
     7
 48
50.0
100
AcDbText
 10
13583.11819016569
 20
8380.013745883733
 30
0.0
 40
100.0
  1
アンカープレート
  7
STYLE1
100
AcDbText
  0
LINE
  5
18578
330
747D
100
AcDbEntity
  8
仕様書枠
 48
50.0
100
AcDbLine
 10
16307.19999999999
 20
8519.600000000009
 30
0.0
 11
13127.2
 21
8519.600000000009
 31
0.0
  0
LINE
  5
18579
330
747D
100
AcDbEntity
  8
仕様書枠
 48
50.0
100
AcDbLine
 10
16307.19999999999
 20
8689.600000000007
 30
0.0
 11
13127.2
 21
8689.600000000011
 31
0.0
  0
TEXT
  5
1857A
330
747D
100
AcDbEntity
  8
文字
 62
     7
 48
50.0
100
AcDbText
 10
13583.11819016569
 20
9400.013745883732
 30
0.0
 40
100.0
  1
壁面扉鴨居
  7
STYLE1
100
AcDbText
  0
TEXT
  5
1857B
330
747D
100
AcDbEntity
  8
文字
 62
     7
 48
50.0
100
AcDbText
 10
13583.11819016569
 20
9230.013745883736
 30
0.0
 40
100.0
  1
壁面扉敷居
  7
STYLE1
100
AcDbText
  0
TEXT
  5
1857C
330
747D
100
AcDbEntity
  8
文字
 62
     7
 48
50.0
100
AcDbText
 10
15022.63965474515
 20
9400.013745883731
 30
0.0
 40
100.0
  1
F12            0.7
  7
STYLE1
100
AcDbText
  0
TEXT
  5
1857D
330
747D
100
AcDbEntity
  8
文字
 62
     7
 48
50.0
100
AcDbText
 10
15022.63965474517
 20
9230.013745883729
 30
0.0
 40
100.0
  1
F12            1.0
  7
STYLE1
100
AcDbText
  0
TEXT
  5
1857E
330
747D
100
AcDbEntity
  8
文字
 62
     7
 48
50.0
100
AcDbText
 10
13583.11819016569
 20
9060.013745883736
 30
0.0
 40
100.0
  1
壁面扉枠左右
  7
STYLE1
100
AcDbText
  0
TEXT
  5
1857F
330
747D
100
AcDbEntity
  8
文字
 62
     7
 48
50.0
100
AcDbText
 10
15022.63965474517
 20
9060.013745883729
 30
0.0
 40
100.0
  1
F12            1.0
  7
STYLE1
100
AcDbText
  0
TEXT
  5
18580
330
747D
100
AcDbEntity
  8
文字
 62
     7
 48
50.0
100
AcDbText
 10
13248.77747366447
 20
8550.013745883733
 30
0.0
 40
100.0
  1
16
  7
STYLE1
100
AcDbText
  0
TEXT
  5
18581
330
747D
100
AcDbEntity
  8
文字
 62
     7
 48
50.0
100
AcDbText
 10
13248.77747366447
 20
8380.013745883733
 30
0.0
 40
100.0
  1
17
  7
STYLE1
100
AcDbText
  0
TEXT
  5
18582
330
747D
100
AcDbEntity
  8
文字
 62
     7
 48
50.0
100
AcDbText
 10
14798.72402257234
 20
9740.013745883729
 30
0.0
 40
100.0
  1
F12(一般型1.2/多雪地型2.3)
  7
STYLE1
100
AcDbText
  0
LINE
  5
18583
330
747D
100
AcDbEntity
  8
部品1
100
AcDbLine
 10
11257.3798633868
 20
8305.52306536072
 30
0.0
 11
11285.3798633868
 21
8305.52306536072
 31
0.0
  0
LINE
  5
18584
330
747D
100
AcDbEntity
  8
部品1
100
AcDbLine
 10
8683.379863386781
 20
8305.523065360592
 30
0.0
 11
8655.379863386782
 21
8305.523065360592
 31
0.0
  0
LINE
  5
18585
330
747D
100
AcDbEntity
  8
部品1
100
AcDbLine
 10
11228.87986338679
 20
8305.523065360693
 30
0.0
 11
8711.879863386789
 21
8305.523065360592
 31
0.0
  0
LINE
  5
18847
330
747D
100
AcDbEntity
  8
補助
  6
PHANTOM
 62
   230
 48
50.0
100
AcDbLine
 10
140.0
 20
0.0
 30
0.0
 11
140.0
 21
11409.6
 31
0.0
  0
LINE
  5
18AEF
330
747D
100
AcDbEntity
  8
部品1
 48
50.0
100
AcDbLine
 10
9177.379863386796
 20
3257.276364073611
 30
0.0
 11
9230.379863386797
 21
3257.276364073611
 31
0.0
  0
MTEXT
  5
18B6A
330
747D
100
AcDbEntity
  8
寸法
 62
     7
 48
50.0
100
AcDbMText
 10
9335.482400479909
 20
9626.757883558006
 30
0.0
 40
96.0
 41
0.0
 71
     5
 72
     1
  1
棚 3段
  7
STYLE1
 73
     1
 44
1.0
1001
ACAD
1000
MTEXTBEGIN
1070
    73
1070
     1
1070
    44
1040
1.0
1070
    74
1070
     0
1000
MTEXTEND
  0
LINE
  5
18D7F
330
747D
100
AcDbEntity
  8
寸法
 48
50.0
100
AcDbLine
 10
9565.582869668618
 20
7188.559816929441
 30
0.0
 11
9514.176861758516
 21
7188.559816929441
 31
0.0
  0
LINE
  5
18D80
330
747D
100
AcDbEntity
  8
寸法
 48
50.0
100
AcDbLine
 10
9514.176861758516
 20
7188.559816929441
 30
0.0
 11
9514.176861758516
 21
7219.869975581606
 31
0.0
  0
LINE
  5
18D81
330
747D
100
AcDbEntity
  8
寸法
 48
50.0
100
AcDbLine
 10
9514.176861758516
 20
7219.869975581606
 30
0.0
 11
9484.41552976709
 21
7219.869975581606
 31
0.0
  0
LINE
  5
18D82
330
747D
100
AcDbEntity
  8
寸法
 48
50.0
100
AcDbLine
 10
9484.41552976709
 20
7219.869975581606
 30
0.0
 11
9539.879865713567
 21
7257.449426510217
 31
0.0
  0
LINE
  5
18D83
330
747D
100
AcDbEntity
  8
寸法
 48
50.0
100
AcDbLine
 10
9595.344201660042
 20
7219.869975581606
 30
0.0
 11
9539.879865713567
 21
7257.449426510217
 31
0.0
  0
LINE
  5
18D84
330
747D
100
AcDbEntity
  8
寸法
 48
50.0
100
AcDbLine
 10
9565.582869668618
 20
7219.869975581606
 30
0.0
 11
9595.344201660042
 21
7219.869975581606
 31
0.0
  0
LINE
  5
18D85
330
747D
100
AcDbEntity
  8
寸法
 48
50.0
100
AcDbLine
 10
9565.582869668618
 20
7188.559816929441
 30
0.0
 11
9565.582869668618
 21
7219.869975581606
 31
0.0
  0
LINE
  5
18D86
330
747D
100
AcDbEntity
  8
寸法
 48
50.0
100
AcDbLine
 10
9514.176861758516
 20
7188.559816929441
 30
0.0
 11
9565.582869668618
 21
7188.559816929441
 31
0.0
  0
LINE
  5
18D87
330
747D
100
AcDbEntity
  8
寸法
 48
50.0
100
AcDbLine
 10
9844.748403945477
 20
7245.705407684264
 30
0.0
 11
9844.748403945477
 21
7192.041773102474
 31
0.0
  0
LINE
  5
18D88
330
747D
100
AcDbEntity
  8
寸法
 48
50.0
100
AcDbLine
 10
9934.032622540897
 20
7221.781773414777
 30
0.0
 11
9844.748403945477
 21
7245.705407684264
 31
0.0
  0
LINE
  5
18D89
330
747D
100
AcDbEntity
  8
寸法
 48
50.0
100
AcDbLine
 10
9714.880682365173
 20
7221.781773414777
 30
0.0
 11
9934.032622540897
 21
7221.781773414777
 31
0.0
  0
LINE
  5
18D8A
330
747D
100
AcDbEntity
  8
細線
 48
50.0
100
AcDbLine
 10
10591.37986338678
 20
7387.023180309303
 30
0.0
 11
11218.37986338677
 21
7387.023180309303
 31
0.0
  0
LINE
  5
18D8B
330
747D
100
AcDbEntity
  8
細線
 48
50.0
100
AcDbLine
 10
9937.379868040364
 20
7353.314411755228
 30
0.0
 11
11218.37986338677
 21
7353.314411755228
 31
0.0
  0
LINE
  5
18D8C
330
747D
100
AcDbEntity
  8
細線
 48
50.0
100
AcDbLine
 10
9896.379868040368
 20
7382.71931975148
 30
0.0
 11
9142.379863386773
 21
7382.719319751477
 31
0.0
  0
LINE
  5
18D8D
330
747D
100
AcDbEntity
  8
細線
100
AcDbLine
 10
10994.12985397032
 20
7406.523080274311
 30
0.0
 11
10996.46139349212
 21
7411.523082914273
 31
0.0
  0
LINE
  5
18D8E
330
747D
100
AcDbEntity
  8
細線
100
AcDbLine
 10
11064.12986338677
 20
7406.523065360578
 30
0.0
 11
11061.79831691058
 21
7411.523082914259
 31
0.0
  0
LINE
  5
18D8F
330
747D
100
AcDbEntity
  8
細線
100
AcDbLine
 10
11061.79831691058
 20
7411.523082914259
 30
0.0
 11
10996.46139349211
 21
7411.523082914243
 31
0.0
  0
LINE
  5
18D90
330
747D
100
AcDbEntity
  8
細線
100
AcDbLine
 10
10921.79831691058
 20
7411.523082914259
 30
0.0
 11
10856.46139349211
 21
7411.523082914243
 31
0.0
  0
LINE
  5
18D91
330
747D
100
AcDbEntity
  8
細線
100
AcDbLine
 10
10924.12986338677
 20
7406.523065360578
 30
0.0
 11
10921.79831691058
 21
7411.523082914259
 31
0.0
  0
LINE
  5
18D92
330
747D
100
AcDbEntity
  8
細線
100
AcDbLine
 10
10854.12985397032
 20
7406.523080274311
 30
0.0
 11
10856.46139349212
 21
7411.523082914273
 31
0.0
  0
LINE
  5
18D93
330
747D
100
AcDbEntity
  8
細線
100
AcDbLine
 10
10714.12986338677
 20
7406.523065360578
 30
0.0
 11
10716.46140290858
 21
7411.52306800054
 31
0.0
  0
LINE
  5
18D94
330
747D
100
AcDbEntity
  8
細線
100
AcDbLine
 10
10784.12987280323
 20
7406.523050446843
 30
0.0
 11
10781.79832632704
 21
7411.523068000524
 31
0.0
  0
LINE
  5
18D95
330
747D
100
AcDbEntity
  8
細線
100
AcDbLine
 10
10781.79832632705
 20
7411.523068000524
 30
0.0
 11
10716.46140290857
 21
7411.523068000509
 31
0.0
  0
LINE
  5
18D96
330
747D
100
AcDbEntity
  8
細線
100
AcDbLine
 10
10486.54834757588
 20
7377.523104697906
 30
0.0
 11
10421.2114241574
 21
7377.523104697892
 31
0.0
  0
LINE
  5
18D97
330
747D
100
AcDbEntity
  8
細線
100
AcDbLine
 10
10488.87989405206
 20
7372.523087144225
 30
0.0
 11
10486.54834757588
 21
7377.523104697906
 31
0.0
  0
LINE
  5
18D98
330
747D
100
AcDbEntity
  8
細線
100
AcDbLine
 10
10418.87988463561
 20
7372.52310205796
 30
0.0
 11
10421.21142415742
 21
7377.523104697921
 31
0.0
  0
LINE
  5
18D99
330
747D
100
AcDbEntity
  8
細線
 48
50.0
100
AcDbLine
 10
10260.26324263479
 20
7390.793928513658
 30
0.0
 11
10266.01876021745
 21
7372.523077223171
 31
0.0
  0
LINE
  5
18D9A
330
747D
100
AcDbEntity
  8
細線
 48
50.0
100
AcDbLine
 10
10249.33479415436
 20
7390.793928513658
 30
0.0
 11
10260.26324263479
 21
7390.793928513658
 31
0.0
  0
ARC
  5
18D9B
330
747D
100
AcDbEntity
  8
細線
 48
50.0
100
AcDbCircle
 10
10243.88043809703
 20
7392.293928513658
 30
0.0
 40
5.0
100
AcDbArc
 50
204.6243183521304
 51
335.3756816478695
  0
ARC
  5
18D9C
330
747D
100
AcDbEntity
  8
細線
 48
50.0
100
AcDbCircle
 10
10249.33479415436
 20
7389.793928513658
 30
0.0
 40
1.0
100
AcDbArc
 50
90.0
 51
155.3756816478695
  0
ARC
  5
18D9D
330
747D
100
AcDbEntity
  8
細線
 48
50.0
100
AcDbCircle
 10
10238.42608203972
 20
7389.793928513658
 30
0.0
 40
1.0
100
AcDbArc
 50
24.62431835213048
 51
90.0
  0
LINE
  5
18D9E
330
747D
100
AcDbEntity
  8
細線
 48
50.0
100
AcDbLine
 10
10227.49763355929
 20
7390.793928513658
 30
0.0
 11
10238.42608203972
 21
7390.793928513658
 31
0.0
  0
LINE
  5
18D9F
330
747D
100
AcDbEntity
  8
細線
 48
50.0
100
AcDbLine
 10
10221.74211597662
 20
7372.523077223164
 30
0.0
 11
10227.49763355929
 21
7390.793928513658
 31
0.0
  0
LINE
  5
18DA0
330
747D
100
AcDbEntity
  8
細線
100
AcDbLine
 10
10278.87988586665
 20
7372.523074588968
 30
0.0
 11
10281.21142538846
 21
7377.52307722893
 31
0.0
  0
LINE
  5
18DA1
330
747D
100
AcDbEntity
  8
細線
100
AcDbLine
 10
10348.87989528311
 20
7372.523059675234
 30
0.0
 11
10346.54834880692
 21
7377.523077228914
 31
0.0
  0
LINE
  5
18DA2
330
747D
100
AcDbEntity
  8
細線
100
AcDbLine
 10
10346.54834880692
 20
7377.523077228914
 30
0.0
 11
10281.21142538845
 21
7377.5230772289
 31
0.0
  0
LINE
  5
18DA3
330
747D
100
AcDbEntity
  8
細線
100
AcDbLine
 10
10206.5483204424
 20
7377.523077223135
 30
0.0
 11
10141.21139702393
 21
7377.523077223121
 31
0.0
  0
LINE
  5
18DA4
330
747D
100
AcDbEntity
  8
細線
100
AcDbLine
 10
10208.87986691859
 20
7372.523059669454
 30
0.0
 11
10206.5483204424
 21
7377.523077223135
 31
0.0
  0
LINE
  5
18DA5
330
747D
100
AcDbEntity
  8
細線
100
AcDbLine
 10
10138.87985873317
 20
7372.523077223164
 30
0.0
 11
10141.21139702394
 21
7377.523077223149
 31
0.0
  0
LINE
  5
18DA6
330
747D
100
AcDbEntity
  8
細線
100
AcDbLine
 10
9998.879894052068
 20
7372.523085410533
 30
0.0
 11
10001.21143234283
 21
7377.523085410519
 31
0.0
  0
LINE
  5
18DA7
330
747D
100
AcDbEntity
  8
細線
100
AcDbLine
 10
10068.87990223748
 20
7372.523067856824
 30
0.0
 11
10066.5483557613
 21
7377.523085410501
 31
0.0
  0
LINE
  5
18DA8
330
747D
100
AcDbEntity
  8
細線
100
AcDbLine
 10
10066.5483557613
 20
7377.523085410501
 30
0.0
 11
10001.21143234282
 21
7377.523085410491
 31
0.0
  0
LINE
  5
18DA9
330
747D
100
AcDbEntity
  8
細線
100
AcDbLine
 10
9627.379859854947
 20
7338.523257091246
 30
0.0
 11
9629.711398145715
 21
7343.523257091232
 31
0.0
  0
LINE
  5
18DAA
330
747D
100
AcDbEntity
  8
細線
100
AcDbLine
 10
9697.379868040364
 20
7338.523239537534
 30
0.0
 11
9695.048321564177
 21
7343.52325709121
 31
0.0
  0
LINE
  5
18DAB
330
747D
100
AcDbEntity
  8
細線
100
AcDbLine
 10
9695.048321564177
 20
7343.52325709121
 30
0.0
 11
9629.711398145705
 21
7343.523257091203
 31
0.0
  0
LINE
  5
18DAC
330
747D
100
AcDbEntity
  8
細線
100
AcDbLine
 10
9835.048321564176
 20
7343.52325709121
 30
0.0
 11
9769.711398145705
 21
7343.523257091203
 31
0.0
  0
LINE
  5
18DAD
330
747D
100
AcDbEntity
  8
細線
100
AcDbLine
 10
9837.379868040365
 20
7338.523239537534
 30
0.0
 11
9835.048321564176
 21
7343.52325709121
 31
0.0
  0
LINE
  5
18DAE
330
747D
100
AcDbEntity
  8
細線
100
AcDbLine
 10
9767.379859854948
 20
7338.523257091246
 30
0.0
 11
9769.711398145716
 21
7343.523257091232
 31
0.0
  0
LINE
  5
18DAF
330
747D
100
AcDbEntity
  8
細線
100
AcDbLine
 10
9555.048321564177
 20
7343.52325709121
 30
0.0
 11
9489.711398145704
 21
7343.523257091199
 31
0.0
  0
LINE
  5
18DB0
330
747D
100
AcDbEntity
  8
細線
100
AcDbLine
 10
9557.379868040364
 20
7338.523239537534
 30
0.0
 11
9555.048321564177
 21
7343.52325709121
 31
0.0
  0
LINE
  5
18DB1
330
747D
100
AcDbEntity
  8
細線
100
AcDbLine
 10
9487.379859854947
 20
7338.523257091243
 30
0.0
 11
9489.711398145715
 21
7343.523257091229
 31
0.0
  0
LINE
  5
18DB2
330
747D
100
AcDbEntity
  8
細線
100
AcDbLine
 10
9347.379868040363
 20
7338.523257091246
 30
0.0
 11
9349.711406331131
 21
7343.523257091232
 31
0.0
  0
LINE
  5
18DB3
330
747D
100
AcDbEntity
  8
細線
100
AcDbLine
 10
9417.379876225778
 20
7338.523239537534
 30
0.0
 11
9415.048329749593
 21
7343.52325709121
 31
0.0
  0
LINE
  5
18DB4
330
747D
100
AcDbEntity
  8
細線
100
AcDbLine
 10
9415.048329749593
 20
7343.52325709121
 30
0.0
 11
9349.71140633112
 21
7343.523257091203
 31
0.0
  0
ARC
  5
18DB5
330
747D
100
AcDbEntity
  8
部品1
 48
0.01
100
AcDbCircle
 10
9302.879756788028
 20
7337.522134906174
 30
0.0
 40
0.5
100
AcDbArc
 50
270.0
 51
0.0
  0
LINE
  5
18DB6
330
747D
100
AcDbEntity
  8
部品1
 48
0.01
100
AcDbLine
 10
9303.379756788029
 20
7338.522134906174
 30
0.0
 11
9303.379756788029
 21
7337.522134906174
 31
0.0
  0
LINE
  5
18DB7
330
747D
100
AcDbEntity
  8
部品1
 48
0.01
100
AcDbLine
 10
9303.379756788029
 20
7338.522134906174
 30
0.0
 11
9303.379756788029
 21
7337.522134906174
 31
0.0
  0
LINE
  5
18DB8
330
747D
100
AcDbEntity
  8
部品1
 48
0.01
100
AcDbLine
 10
9302.879756788028
 20
7337.022134906174
 30
0.0
 11
9296.267251357964
 21
7337.022134906174
 31
0.0
  0
ARC
  5
18DB9
330
747D
100
AcDbEntity
  8
部品1
100
AcDbCircle
 10
9296.335600910744
 20
7338.022134906174
 30
0.0
 40
1.0
100
AcDbArc
 50
160.5287793655778
 51
270.0
  0
ARC
  5
18DBA
330
747D
100
AcDbEntity
  8
部品1
100
AcDbCircle
 10
9270.879756788028
 20
7347.022134906175
 30
0.0
 40
26.0
100
AcDbArc
 50
340.5287793655779
 51
0.0
  0
LINE
  5
18DBB
330
747D
100
AcDbEntity
  8
部品1
100
AcDbLine
 10
9296.879756788028
 20
7347.022134906175
 30
0.0
 11
9296.879756788028
 21
7352.022134906174
 31
0.0
  0
ARC
  5
18DBC
330
747D
100
AcDbEntity
  8
部品1
 48
0.01
100
AcDbCircle
 10
9294.879756788029
 20
7352.022134906174
 30
0.0
 40
2.0
100
AcDbArc
 50
0.0
 51
90.0
  0
ARC
  5
18DBD
330
747D
100
AcDbEntity
  8
部品1
100
AcDbCircle
 10
9293.271365163219
 20
7351.022134906173
 30
0.0
 40
3.0
100
AcDbArc
 50
90.0
 51
141.6069559807873
  0
LINE
  5
18DBE
330
747D
100
AcDbEntity
  8
部品1
 48
0.01
100
AcDbLine
 10
9294.879756788029
 20
7354.022134906173
 30
0.0
 11
9293.271365163219
 21
7354.022134906173
 31
0.0
  0
ARC
  5
18DBF
330
747D
100
AcDbEntity
  8
部品1
100
AcDbCircle
 10
9274.809042573757
 20
7350.322134906178
 30
0.0
 40
3.0
100
AcDbArc
 50
254.0576313943215
 51
270.0
  0
ARC
  5
18DC0
330
747D
100
AcDbEntity
  8
部品1
100
AcDbCircle
 10
9281.9504710023
 20
7350.322134906178
 30
0.0
 40
3.0
100
AcDbArc
 50
270.0
 51
285.9423686056786
  0
LINE
  5
18DC1
330
747D
100
AcDbEntity
  8
部品1
100
AcDbLine
 10
9281.9504710023
 20
7347.322134906177
 30
0.0
 11
9274.809042573757
 21
7347.322134906177
 31
0.0
  0
ARC
  5
18DC2
330
747D
100
AcDbEntity
  8
部品1
100
AcDbCircle
 10
9278.379756788028
 20
7362.822134906178
 30
0.0
 40
16.0
100
AcDbArc
 50
285.9423686056786
 51
321.6069559807873
  0
LINE
  5
18DC3
330
747D
100
AcDbEntity
  8
部品1
 48
0.01
100
AcDbLine
 10
9261.879756788028
 20
7354.022134906173
 30
0.0
 11
9263.488148412838
 21
7354.022134906173
 31
0.0
  0
ARC
  5
18DC4
330
747D
100
AcDbEntity
  8
部品1
100
AcDbCircle
 10
9263.488148412838
 20
7351.022134906173
 30
0.0
 40
3.0
100
AcDbArc
 50
38.39304401921267
 51
90.0
  0
ARC
  5
18DC5
330
747D
100
AcDbEntity
  8
部品1
100
AcDbCircle
 10
9278.379756788028
 20
7362.822134906178
 30
0.0
 40
16.0
100
AcDbArc
 50
218.3930440192126
 51
254.0576313943215
  0
LINE
  5
18DC6
330
747D
100
AcDbEntity
  8
部品1
100
AcDbLine
 10
9259.879756788029
 20
7347.022134906175
 30
0.0
 11
9259.879756788029
 21
7352.022134906174
 31
0.0
  0
ARC
  5
18DC7
330
747D
100
AcDbEntity
  8
部品1
 48
0.01
100
AcDbCircle
 10
9261.879756788028
 20
7352.022134906174
 30
0.0
 40
2.0
100
AcDbArc
 50
90.0
 51
180.0
  0
ARC
  5
18DC8
330
747D
100
AcDbEntity
  8
部品1
100
AcDbCircle
 10
9285.879756788029
 20
7347.022134906175
 30
0.0
 40
26.0
100
AcDbArc
 50
180.0
 51
199.4712206344221
  0
ARC
  5
18DC9
330
747D
100
AcDbEntity
  8
部品1
 48
0.01
100
AcDbCircle
 10
9253.879756788029
 20
7337.522134906174
 30
0.0
 40
0.5
100
AcDbArc
 50
180.0
 51
270.0
  0
LINE
  5
18DCA
330
747D
100
AcDbEntity
  8
部品1
 48
0.01
100
AcDbLine
 10
9253.879756788029
 20
7337.022134906174
 30
0.0
 11
9260.423912665313
 21
7337.022134906174
 31
0.0
  0
LINE
  5
18DCB
330
747D
100
AcDbEntity
  8
部品1
 48
0.01
100
AcDbLine
 10
9253.379756788028
 20
7338.522134906174
 30
0.0
 11
9253.379756788028
 21
7337.522134906174
 31
0.0
  0
ARC
  5
18DCC
330
747D
100
AcDbEntity
  8
部品1
100
AcDbCircle
 10
9260.423912665313
 20
7338.022134906174
 30
0.0
 40
1.0
100
AcDbArc
 50
270.0
 51
19.47122063442214
  0
LINE
  5
18DCD
330
747D
100
AcDbEntity
  8
細線
100
AcDbLine
 10
9298.879756788036
 20
7356.522134906177
 30
0.0
 11
9257.879756788035
 21
7356.52213490617
 31
0.0
  0
LINE
  5
18DCE
330
747D
100
AcDbEntity
  8
細線
100
AcDbLine
 10
9257.879756788035
 20
7356.52213490617
 30
0.0
 11
9257.879756788035
 21
7338.522134906153
 31
0.0
  0
LINE
  5
18DCF
330
747D
100
AcDbEntity
  8
細線
100
AcDbLine
 10
9298.879756788036
 20
7356.522134906177
 30
0.0
 11
9298.879756788036
 21
7338.522134906153
 31
0.0
  0
LINE
  5
18DD0
330
747D
100
AcDbEntity
  8
細線
100
AcDbLine
 10
9142.379863386773
 20
7342.523065360578
 30
0.0
 11
9142.379863386773
 21
7338.523065360625
 31
0.0
  0
DIMENSION
  5
18DD1
330
747D
100
AcDbEntity
  8
寸法
 48
50.0
100
AcDbDimension
  2
*D30
 10
10408.37986338677
 20
6684.448335612869
 30
0.0
 11
9804.067499768178
 21
6684.448335612869
 31
0.0
 70
   160
  1
有効開口部間口\P<>
 71
     5
 42
1266.0
  3
INABA_S40
100
AcDbAlignedDimension
 13
9142.379863386773
 23
7333.523065360577
 33
0.0
 14
10408.37986338677
 24
7333.523065360577
 34
0.0
100
AcDbRotatedDimension
1001
ACAD
1000
DSTYLE
1002
{
1070
    41
1040
0.5
1070
    44
1040
1.0
1070
   147
1040
0.8
1070
   271
1070
     2
1070
   272
1070
     2
1070
   289
1070
     3
1070
   340
1005
F706
1070
   343
1005
17E77
1070
   344
1005
17E77
1002
}
  0
LINE
  5
18DD2
330
747D
100
AcDbEntity
  8
部品1
100
AcDbLine
 10
11230.37986338677
 20
7410.523065360577
 30
0.0
 11
11257.37986338677
 21
7410.523065360577
 31
0.0
  0
LINE
  5
18DD4
330
747D
100
AcDbEntity
  8
部品1
100
AcDbLine
 10
11257.37986338677
 20
7333.523065360577
 30
0.0
 11
11257.37986338677
 21
7410.523065360577
 31
0.0
  0
LINE
  5
18DD5
330
747D
100
AcDbEntity
  8
部品1
100
AcDbLine
 10
11218.37986338677
 20
7406.523065360578
 30
0.0
 11
11230.37986338677
 21
7406.523065360578
 31
0.0
  0
LINE
  5
18DD6
330
747D
100
AcDbEntity
  8
部品1
100
AcDbLine
 10
11227.37986338677
 20
7342.523065360578
 30
0.0
 11
11227.37986338677
 21
7333.523065360577
 31
0.0
  0
LINE
  5
18DD7
330
747D
100
AcDbEntity
  8
部品1
100
AcDbLine
 10
11218.37986338677
 20
7342.523065360578
 30
0.0
 11
11227.37986338677
 21
7342.523065360578
 31
0.0
  0
LINE
  5
18DD8
330
747D
100
AcDbEntity
  8
部品1
100
AcDbLine
 10
11218.37986338677
 20
7406.523065360578
 30
0.0
 11
11218.37986338677
 21
7342.523065360578
 31
0.0
  0
LINE
  5
18DD9
330
747D
100
AcDbEntity
  8
部品1
100
AcDbLine
 10
11230.37986338677
 20
7437.523065360578
 30
0.0
 11
11230.37986338677
 21
7406.523065360578
 31
0.0
  0
LINE
  5
18DDA
330
747D
100
AcDbEntity
  8
部品1
100
AcDbLine
 10
9142.379863386773
 20
7406.523065360578
 30
0.0
 11
9130.379863386774
 21
7406.523065360578
 31
0.0
  0
LINE
  5
18DDB
330
747D
100
AcDbEntity
  8
部品1
100
AcDbLine
 10
9103.379863386773
 20
7410.523065360577
 30
0.0
 11
9130.379863386774
 21
7410.523065360577
 31
0.0
  0
LINE
  5
18DDC
330
747D
100
AcDbEntity
  8
部品1
100
AcDbLine
 10
9133.379863386775
 20
7342.523065360578
 30
0.0
 11
9133.379863386775
 21
7333.523065360577
 31
0.0
  0
LINE
  5
18DDD
330
747D
100
AcDbEntity
  8
部品1
100
AcDbLine
 10
9142.379863386773
 20
7342.523065360578
 30
0.0
 11
9133.379863386775
 21
7342.523065360578
 31
0.0
  0
LINE
  5
18DDE
330
747D
100
AcDbEntity
  8
部品1
100
AcDbLine
 10
9133.379863386775
 20
7333.523065360577
 30
0.0
 11
9103.379863386773
 21
7333.523065360577
 31
0.0
  0
LINE
  5
18DDF
330
747D
100
AcDbEntity
  8
部品1
100
AcDbLine
 10
9103.379863386773
 20
7333.523065360577
 30
0.0
 11
9103.379863386773
 21
7410.523065360577
 31
0.0
  0
LINE
  5
18DE0
330
747D
100
AcDbEntity
  8
部品1
100
AcDbLine
 10
9142.379863386773
 20
7406.523065360578
 30
0.0
 11
9142.379863386773
 21
7342.523065360578
 31
0.0
  0
LINE
  5
18DE1
330
747D
100
AcDbEntity
  8
部品1
100
AcDbLine
 10
9130.379863386774
 20
7437.523065360574
 30
0.0
 11
9130.379863386774
 21
7406.523065360578
 31
0.0
  0
LINE
  5
18DE2
330
747D
100
AcDbEntity
  8
部品1
100
AcDbLine
 10
9130.379863386774
 20
7437.523065360574
 30
0.0
 11
11230.37986338677
 21
7437.523065360578
 31
0.0
  0
LINE
  5
18DE3
330
747D
100
AcDbEntity
  8
部品1
100
AcDbLine
 10
11227.37986338677
 20
7333.523065360577
 30
0.0
 11
11257.37986338677
 21
7333.523065360577
 31
0.0
  0
LINE
  5
18DE4
330
747D
100
AcDbEntity
  8
部品1
100
AcDbLine
 10
9133.379863386775
 20
7333.523065360577
 30
0.0
 11
11230.37986338677
 21
7333.523065360577
 31
0.0
  0
LINE
  5
18DE5
330
747D
100
AcDbEntity
  8
細線
  6
Continuous
 62
     5
100
AcDbLine
 10
10509.37986338678
 20
7372.523065360574
 30
0.0
 11
10509.37986338678
 21
7372.523065360574
 31
0.0
  0
LINE
  5
18DE6
330
747D
100
AcDbEntity
  8
細線
  6
Continuous
 62
     5
100
AcDbLine
 10
10501.87989870567
 20
7372.523075281631
 30
0.0
 11
10501.87989870567
 21
7372.523075281631
 31
0.0
  0
LINE
  5
18DE7
330
747D
100
AcDbEntity
  8
細線
  6
Continuous
 62
     5
100
AcDbLine
 10
10495.87989870567
 20
7372.523075281631
 30
0.0
 11
10495.87989870567
 21
7372.523075281631
 31
0.0
  0
LINE
  5
18DE8
330
747D
100
AcDbEntity
  8
細線
  6
Continuous
 62
     5
100
AcDbLine
 10
10563.37986338677
 20
7391.523065360575
 30
0.0
 11
10563.37986338677
 21
7391.523065360575
 31
0.0
  0
LINE
  5
18DE9
330
747D
100
AcDbEntity
  8
細線
 48
50.0
100
AcDbLine
 10
9156.379868040367
 20
7359.123239537531
 30
0.0
 11
9156.379868040367
 21
7367.519389945171
 31
0.0
  0
LINE
  5
18DEA
330
747D
100
AcDbEntity
  8
細線
 48
50.0
100
AcDbLine
 10
9156.379868040367
 20
7367.519389945171
 30
0.0
 11
9142.379863386773
 21
7367.519389945169
 31
0.0
  0
LINE
  5
18DEB
330
747D
100
AcDbEntity
  8
細線
 48
50.0
100
AcDbLine
 10
9907.379868040365
 20
7355.67323953753
 30
0.0
 11
9907.379868040365
 21
7360.523239537534
 31
0.0
  0
LINE
  5
18DEC
330
747D
100
AcDbEntity
  8
細線
 48
50.0
100
AcDbLine
 10
9907.379868040365
 20
7360.523239537534
 30
0.0
 11
9922.379868040364
 21
7360.523239537534
 31
0.0
  0
LINE
  5
18DED
330
747D
100
AcDbEntity
  8
細線
 48
50.0
100
AcDbLine
 10
9922.379868040364
 20
7360.523239537534
 30
0.0
 11
9922.379868040367
 21
7367.523239537533
 31
0.0
  0
LINE
  5
18DEE
330
747D
100
AcDbEntity
  8
細線
 48
50.0
100
AcDbLine
 10
9922.379868040367
 20
7367.523239537533
 30
0.0
 11
9937.379868040364
 21
7367.523239537533
 31
0.0
  0
LINE
  5
18DEF
330
747D
100
AcDbEntity
  8
細線
 48
50.0
100
AcDbLine
 10
9937.379868040364
 20
7367.523239537533
 30
0.0
 11
9937.379868040364
 21
7338.523239537534
 31
0.0
  0
LINE
  5
18DF0
330
747D
100
AcDbEntity
  8
細線
 48
50.0
100
AcDbLine
 10
9133.379863386775
 20
7338.520573881002
 30
0.0
 11
9347.379868040363
 21
7338.523257091246
 31
0.0
  0
LINE
  5
18DF1
330
747D
100
AcDbEntity
  8
細線
 48
50.0
100
AcDbLine
 10
9837.379868040365
 20
7338.523239537534
 30
0.0
 11
9937.379868040364
 21
7338.523239537534
 31
0.0
  0
LINE
  5
18DF2
330
747D
100
AcDbEntity
  8
細線
 48
50.0
100
AcDbLine
 10
9557.379868040364
 20
7338.523239537534
 30
0.0
 11
9627.379868040364
 21
7338.523239537534
 31
0.0
  0
LINE
  5
18DF3
330
747D
100
AcDbEntity
  8
細線
 48
50.0
100
AcDbLine
 10
9570.241833052893
 20
7338.523239537534
 30
0.0
 11
9575.99735063556
 21
7356.794090828028
 31
0.0
  0
LINE
  5
18DF4
330
747D
100
AcDbEntity
  8
細線
 48
50.0
100
AcDbLine
 10
9575.99735063556
 20
7356.794090828028
 30
0.0
 11
9586.925799115993
 21
7356.794090828024
 31
0.0
  0
ARC
  5
18DF5
330
747D
100
AcDbEntity
  8
細線
 48
50.0
100
AcDbCircle
 10
9586.925799115993
 20
7355.794090828023
 30
0.0
 40
1.0
100
AcDbArc
 50
24.62431835213048
 51
90.0
  0
ARC
  5
18DF6
330
747D
100
AcDbEntity
  8
細線
 48
50.0
100
AcDbCircle
 10
9597.834511230628
 20
7355.794090828023
 30
0.0
 40
1.0
100
AcDbArc
 50
90.0
 51
155.3756816478695
  0
ARC
  5
18DF7
330
747D
100
AcDbEntity
  8
細線
 48
50.0
100
AcDbCircle
 10
9592.380155173309
 20
7358.294090828024
 30
0.0
 40
5.0
100
AcDbArc
 50
204.6243183521304
 51
335.3756816478695
  0
LINE
  5
18DF8
330
747D
100
AcDbEntity
  8
細線
 48
50.0
100
AcDbLine
 10
9597.834511230628
 20
7356.794090828024
 30
0.0
 11
9608.762959711061
 21
7356.794090828028
 31
0.0
  0
LINE
  5
18DF9
330
747D
100
AcDbEntity
  8
細線
 48
50.0
100
AcDbLine
 10
9608.762959711061
 20
7356.794090828028
 30
0.0
 11
9614.518477293728
 21
7338.523239537534
 31
0.0
  0
LINE
  5
18DFA
330
747D
100
AcDbEntity
  8
細線
 48
50.0
100
AcDbLine
 10
9907.379868040365
 20
7359.123239537531
 30
0.0
 11
9156.379868040367
 21
7359.123239537531
 31
0.0
  0
LINE
  5
18DFB
330
747D
100
AcDbEntity
  8
細線
 48
50.0
100
AcDbLine
 10
9767.379868040364
 20
7338.523239537534
 30
0.0
 11
9697.379868040364
 21
7338.523239537534
 31
0.0
  0
LINE
  5
18DFC
330
747D
100
AcDbEntity
  8
細線
100
AcDbLine
 10
9487.379868040363
 20
7338.523239537534
 30
0.0
 11
9417.379876225778
 21
7338.523239537534
 31
0.0
  0
LINE
  5
18DFD
330
747D
100
AcDbEntity
  8
細線
 48
50.0
100
AcDbLine
 10
10561.37985873319
 20
7393.1232833954
 30
0.0
 11
9926.379868040363
 21
7393.123283395397
 31
0.0
  0
LINE
  5
18DFE
330
747D
100
AcDbEntity
  8
細線
 48
50.0
100
AcDbLine
 10
9926.379868040363
 20
7390.01943380304
 30
0.0
 11
9926.379868040363
 21
7394.51943380304
 31
0.0
  0
LINE
  5
18DFF
330
747D
100
AcDbEntity
  8
細線
 48
50.0
100
AcDbLine
 10
9926.379868040363
 20
7394.51943380304
 30
0.0
 11
9911.379868040363
 21
7394.51943380304
 31
0.0
  0
LINE
  5
18E00
330
747D
100
AcDbEntity
  8
細線
 48
50.0
100
AcDbLine
 10
9911.379868040363
 20
7394.51943380304
 30
0.0
 11
9911.379868040363
 21
7401.51943380304
 31
0.0
  0
LINE
  5
18E01
330
747D
100
AcDbEntity
  8
細線
 48
50.0
100
AcDbLine
 10
9911.379868040363
 20
7401.51943380304
 30
0.0
 11
9896.379868040368
 21
7401.519433803035
 31
0.0
  0
LINE
  5
18E02
330
747D
100
AcDbEntity
  8
細線
 48
50.0
100
AcDbLine
 10
9896.379868040368
 20
7401.519433803035
 30
0.0
 11
9896.379868040368
 21
7363.919205699925
 31
0.0
  0
LINE
  5
18E03
330
747D
100
AcDbEntity
  8
細線
 48
50.0
100
AcDbLine
 10
9896.379868040368
 20
7363.919205699925
 30
0.0
 11
9916.37987534154
 21
7363.919247249467
 31
0.0
  0
LINE
  5
18E04
330
747D
100
AcDbEntity
  8
細線
 48
50.0
100
AcDbLine
 10
9916.379830472598
 20
7372.522708885274
 30
0.0
 11
9916.37987534154
 21
7363.919247249467
 31
0.0
  0
LINE
  5
18E05
330
747D
100
AcDbEntity
  8
細線
 48
50.0
100
AcDbLine
 10
10561.37985873319
 20
7389.673283395399
 30
0.0
 11
10561.37985873319
 21
7394.523283395398
 31
0.0
  0
LINE
  5
18E06
330
747D
100
AcDbEntity
  8
細線
 48
50.0
100
AcDbLine
 10
10561.37985873319
 20
7394.523283395398
 30
0.0
 11
10576.37985873318
 21
7394.523283395398
 31
0.0
  0
LINE
  5
18E07
330
747D
100
AcDbEntity
  8
細線
 48
50.0
100
AcDbLine
 10
10576.37985873318
 20
7394.523283395398
 30
0.0
 11
10576.37987036716
 21
7401.523283395441
 31
0.0
  0
LINE
  5
18E08
330
747D
100
AcDbEntity
  8
細線
 48
50.0
100
AcDbLine
 10
10576.37987036716
 20
7401.523283395441
 30
0.0
 11
10591.37986853769
 21
7401.523283395441
 31
0.0
  0
LINE
  5
18E09
330
747D
100
AcDbEntity
  8
細線
 48
50.0
100
AcDbLine
 10
10591.37986853769
 20
7401.523283395441
 30
0.0
 11
10591.37985823587
 21
7372.523077223168
 31
0.0
  0
LINE
  5
18E0A
330
747D
100
AcDbEntity
  8
細線
 48
50.0
100
AcDbLine
 10
10278.87988586665
 20
7372.523085410533
 30
0.0
 11
10208.88013794907
 21
7372.523079973196
 31
0.0
  0
LINE
  5
18E0B
330
747D
100
AcDbEntity
  8
細線
 48
50.0
100
AcDbLine
 10
9916.379830472598
 20
7372.522708885274
 30
0.0
 11
9927.612519827308
 21
7372.522891838421
 31
0.0
  0
ARC
  5
18E0C
330
747D
100
AcDbEntity
  8
細線
 48
50.0
100
AcDbCircle
 10
9934.194812134643
 20
7371.323055752035
 30
0.0
 40
1.8
100
AcDbArc
 50
270.0006665777295
 51
345.0005554812987
  0
LINE
  5
18E0D
330
747D
100
AcDbEntity
  8
細線
 48
50.0
100
AcDbLine
 10
9936.181245580725
 20
7371.781896209313
 30
0.0
 11
9935.933483138525
 21
7370.857198327207
 31
0.0
  0
LINE
  5
18E0E
330
747D
100
AcDbEntity
  8
細線
 48
50.0
100
AcDbLine
 10
9934.1948330758
 20
7369.523055752155
 30
0.0
 11
9930.564905657028
 21
7369.523013521676
 31
0.0
  0
ARC
  5
18E0F
330
747D
100
AcDbEntity
  8
細線
 48
50.0
100
AcDbCircle
 10
9930.564884715877
 20
7371.323013521553
 30
0.0
 40
1.8
100
AcDbArc
 50
195.0010443049394
 51
270.0006665777295
  0
LINE
  5
18E10
330
747D
100
AcDbEntity
  8
細線
 48
50.0
100
AcDbLine
 10
9928.57845722362
 20
7371.78172848912
 30
0.0
 11
9928.826226720133
 21
7370.857107550538
 31
0.0
  0
ARC
  5
18E11
330
747D
100
AcDbEntity
  8
細線
 48
50.0
100
AcDbCircle
 10
9927.612536114871
 20
7371.522891838556
 30
0.0
 40
1.0
100
AcDbArc
 50
15.00104430493943
 51
90.00093320877969
  0
LINE
  5
18E12
330
747D
100
AcDbEntity
  8
細線
 48
50.0
100
AcDbLine
 10
9937.147166935826
 20
7372.523086528826
 30
0.0
 11
9938.088927086731
 21
7372.523093102675
 31
0.0
  0
ARC
  5
18E13
330
747D
100
AcDbEntity
  8
細線
 48
50.0
100
AcDbCircle
 10
9937.147173916212
 20
7371.523086528852
 30
0.0
 40
1.0
100
AcDbArc
 50
90.0003999466794
 51
165.0005554812987
  0
LINE
  5
18E14
330
747D
100
AcDbEntity
  8
細線
 48
50.0
100
AcDbLine
 10
10488.87985873317
 20
7372.523077223168
 30
0.0
 11
10591.37985823587
 21
7372.523077223168
 31
0.0
  0
LINE
  5
18E15
330
747D
100
AcDbEntity
  8
細線
 48
50.0
100
AcDbLine
 10
9998.879894052068
 20
7372.523085410533
 30
0.0
 11
9937.77983282515
 21
7372.523093102675
 31
0.0
  0
LINE
  5
18E16
330
747D
100
AcDbEntity
  8
細線
 48
50.0
100
AcDbLine
 10
10418.87989405207
 20
7372.523122251617
 30
0.0
 11
10348.87988709768
 21
7372.523077228949
 31
0.0
  0
LINE
  5
18E17
330
747D
100
AcDbEntity
  8
細線
 48
50.0
100
AcDbLine
 10
10138.87985873317
 20
7372.523077223164
 30
0.0
 11
10068.8798414453
 21
7372.523077223171
 31
0.0
  0
ARC
  5
18E18
330
747D
100
AcDbEntity
  8
細線
 48
50.0
100
AcDbCircle
 10
10575.57986338678
 20
7405.723065360579
 30
0.0
 40
0.8
100
AcDbArc
 50
359.9997333689499
 51
89.99986668437072
  0
ARC
  5
18E19
330
747D
100
AcDbEntity
  8
細線
 48
50.0
100
AcDbCircle
 10
10583.17987021188
 20
7405.723076529195
 30
0.0
 40
0.8
100
AcDbArc
 50
90.00014387753465
 51
179.9997333689498
  0
LINE
  5
18E1A
330
747D
100
AcDbEntity
  8
細線
 48
50.0
100
AcDbLine
 10
10575.57986524822
 20
7406.523065360578
 30
0.0
 11
10570.37986338677
 21
7406.523065360578
 31
0.0
  0
ARC
  5
18E1B
330
747D
100
AcDbEntity
  8
細線
 48
50.0
100
AcDbCircle
 10
10577.07986338677
 20
7404.223065360579
 30
0.0
 40
0.7
100
AcDbArc
 50
180.0
 51
270.0
  0
ARC
  5
18E1C
330
747D
100
AcDbEntity
  8
細線
 48
50.0
100
AcDbCircle
 10
10581.67986338677
 20
7404.223065360579
 30
0.0
 40
0.7
100
AcDbArc
 50
270.0
 51
0.0
  0
LINE
  5
18E1D
330
747D
100
AcDbEntity
  8
細線
 48
50.0
100
AcDbLine
 10
10582.37986338677
 20
7404.223065360579
 30
0.0
 11
10582.37987021189
 21
7405.723080252066
 31
0.0
  0
LINE
  5
18E1E
330
747D
100
AcDbEntity
  8
細線
 48
50.0
100
AcDbLine
 10
10577.07986338677
 20
7403.523065360578
 30
0.0
 11
10581.67986338677
 21
7403.523065360578
 31
0.0
  0
LINE
  5
18E1F
330
747D
100
AcDbEntity
  8
細線
 48
50.0
100
AcDbLine
 10
10576.37986338677
 20
7405.723065360579
 30
0.0
 11
10576.37986338677
 21
7404.223065360579
 31
0.0
  0
LINE
  5
18E20
330
747D
100
AcDbEntity
  8
細線
 48
50.0
100
AcDbLine
 10
11201.97986338678
 20
7436.523065360578
 30
0.0
 11
10565.37986338677
 21
7436.523065360574
 31
0.0
  0
LINE
  5
18E21
330
747D
100
AcDbEntity
  8
細線
 48
50.0
100
AcDbLine
 10
11227.87986338677
 20
7431.523065360581
 30
0.0
 11
11211.97986338678
 21
7431.523065360578
 31
0.0
  0
LINE
  5
18E22
330
747D
100
AcDbEntity
  8
細線
 48
50.0
100
AcDbLine
 10
11211.97986338677
 20
7431.523065360578
 30
0.0
 11
11201.97986338678
 21
7436.523065360578
 31
0.0
  0
LINE
  5
18E23
330
747D
100
AcDbEntity
  8
細線
100
AcDbLine
 10
10812.87986338677
 20
7406.523065360578
 30
0.0
 11
10812.87986338677
 21
7435.823065360577
 31
0.0
  0
LINE
  5
18E24
330
747D
100
AcDbEntity
  8
細線
100
AcDbLine
 10
10812.87986338677
 20
7435.823065360577
 30
0.0
 11
10832.87986338677
 21
7435.823065360577
 31
0.0
  0
LINE
  5
18E25
330
747D
100
AcDbEntity
  8
細線
100
AcDbLine
 10
10832.87986338677
 20
7406.523065360578
 30
0.0
 11
10832.87986338677
 21
7435.823065360577
 31
0.0
  0
LINE
  5
18E26
330
747D
100
AcDbEntity
  8
細線
100
AcDbLine
 10
10994.12986338677
 20
7406.523065360578
 30
0.0
 11
10924.12986338677
 21
7406.523065360578
 31
0.0
  0
LINE
  5
18E27
330
747D
100
AcDbEntity
  8
細線
 48
50.0
100
AcDbLine
 10
10714.12986338677
 20
7406.523065360578
 30
0.0
 11
10583.17564295961
 21
7406.523065360578
 31
0.0
  0
LINE
  5
18E28
330
747D
100
AcDbEntity
  8
細線
100
AcDbLine
 10
10854.12986338677
 20
7406.523065360578
 30
0.0
 11
10784.12986338677
 21
7406.523065360578
 31
0.0
  0
LINE
  5
18E29
330
747D
100
AcDbEntity
  8
細線
 48
50.0
100
AcDbLine
 10
10570.37986338677
 20
7398.523065360578
 30
0.0
 11
10570.37986338677
 21
7406.523065360578
 31
0.0
  0
LINE
  5
18E2A
330
747D
100
AcDbEntity
  8
細線
 48
50.0
100
AcDbLine
 10
10550.37986338677
 20
7398.523065360581
 30
0.0
 11
10570.37986338677
 21
7398.523065360578
 31
0.0
  0
LINE
  5
18E2B
330
747D
100
AcDbEntity
  8
細線
 48
50.0
100
AcDbLine
 10
10565.37986338677
 20
7436.523065360578
 30
0.0
 11
10565.37986338677
 21
7431.523065360578
 31
0.0
  0
LINE
  5
18E2C
330
747D
100
AcDbEntity
  8
細線
 48
50.0
100
AcDbLine
 10
10550.37986338677
 20
7436.523065360574
 30
0.0
 11
10565.37986338677
 21
7436.523065360578
 31
0.0
  0
LINE
  5
18E2D
330
747D
100
AcDbEntity
  8
細線
 48
50.0
100
AcDbLine
 10
10550.37986338677
 20
7398.523065360581
 30
0.0
 11
10550.37986338677
 21
7436.523065360574
 31
0.0
  0
LINE
  5
18E2E
330
747D
100
AcDbEntity
  8
細線
100
AcDbLine
 10
11218.37986338677
 20
7406.523065360578
 30
0.0
 11
11064.12986338677
 21
7406.523065360578
 31
0.0
  0
LINE
  5
18E2F
330
747D
100
AcDbEntity
  8
細線
 48
50.0
100
AcDbLine
 10
11227.87986338677
 20
7431.523065360581
 30
0.0
 11
11227.87986338677
 21
7406.523065360578
 31
0.0
  0
DIMENSION
  5
1906C
330
747D
100
AcDbEntity
  8
寸法
100
AcDbDimension
  2
*D31
 10
11285.37986338678
 20
6154.135548297799
 30
0.0
 11
9988.181652022948
 21
6154.135548297799
 31
0.0
 70
   160
 71
     5
 42
2629.999999999982
  3
INABA_S40G
100
AcDbAlignedDimension
 13
8655.3798633868
 23
7410.523065360544
 33
0.0
 14
11285.37986338678
 24
7410.52306536071
 34
0.0
100
AcDbRotatedDimension
1001
ACAD
1000
DSTYLE
1002
{
1002
}
  0
LINE
  5
1906D
330
747D
100
AcDbEntity
  8
部品1
100
AcDbLine
 10
10352.11519650101
 20
5962.786396367627
 30
0.0
 11
9588.644530272578
 21
5962.786396367627
 31
0.0
  0
LINE
  5
1906E
330
747D
100
AcDbEntity
  8
部品1
100
AcDbLine
 10
10352.11519650101
 20
5722.894074822095
 30
0.0
 11
10352.11519650101
 21
5962.786396367627
 31
0.0
  0
LINE
  5
1906F
330
747D
100
AcDbEntity
  8
部品1
100
AcDbLine
 10
9588.644530272578
 20
5722.894074822095
 30
0.0
 11
10352.11519650101
 21
5722.894074822095
 31
0.0
  0
LINE
  5
19070
330
747D
100
AcDbEntity
  8
部品1
100
AcDbLine
 10
9588.644530272578
 20
5962.786396367627
 30
0.0
 11
9588.644530272578
 21
5722.894074822095
 31
0.0
  0
TEXT
  5
19071
330
747D
100
AcDbEntity
  8
部品1
100
AcDbText
 10
9678.564140101615
 20
5769.892867149104
 30
0.0
 40
135.0
  1
平面図
  7
STYLE2
100
AcDbText
  0
DIMENSION
  5
19072
330
747D
100
AcDbEntity
  8
寸法
100
AcDbDimension
  2
*D32
 10
8360.768617760083
 20
7335.523065360544
 30
0.0
 11
8360.768617760081
 21
7195.037783986307
 31
0.0
 70
   160
 71
     5
 42
75.0
  3
INABA_S40
100
AcDbAlignedDimension
 13
8655.3798633868
 23
7410.523065360544
 33
0.0
 14
9103.379863386773
 24
7335.523065360544
 34
0.0
 50
90.0
100
AcDbRotatedDimension
1001
ACAD
1000
DSTYLE
1002
{
1070
    41
1040
0.5
1070
    44
1040
1.0
1070
   147
1040
0.8
1070
   271
1070
     2
1070
   272
1070
     2
1070
   289
1070
     3
1070
   340
1005
F706
1070
   343
1005
17E77
1070
   344
1005
17E77
1002
}
  0
DIMENSION
  5
19073
330
747D
100
AcDbEntity
  8
寸法
 48
50.0
100
AcDbDimension
  2
*D33
 10
11257.37986338677
 20
6413.39334993281
 30
0.0
 11
10202.51262013408
 21
6413.39334993281
 31
0.0
 70
   160
 71
     5
 42
2154.0
  3
INABA_S40G
100
AcDbAlignedDimension
 13
9103.379863386773
 23
7333.523065360579
 33
0.0
 14
11257.37986338677
 24
7333.523065360579
 34
0.0
100
AcDbRotatedDimension
1001
ACAD
1000
DSTYLE
1002
{
1070
   341
1005
0
1002
}
  0
LWPOLYLINE
  5
19398
330
747D
100
AcDbEntity
  8
部品1
 48
50.0
100
AcDbPolyline
 90
        4
 70
     1
 43
0.0
 10
9202.429863386797
 20
3172.026364073611
 10
9205.329863386799
 20
3172.026364073611
 10
9205.329863386799
 20
3181.52636407361
 10
9202.429863386797
 20
3181.52636407361
  0
CIRCLE
  5
19399
330
747D
100
AcDbEntity
  8
部品1
 48
50.0
100
AcDbCircle
 10
9203.879863386797
 20
3176.776364073611
 30
0.0
 40
9.0
  0
ARC
  5
1939A
330
747D
100
AcDbEntity
  8
細線
 48
50.0
100
AcDbCircle
 10
9203.879863386797
 20
3176.776364073611
 30
0.0
 40
4.0
100
AcDbArc
 50
111.2538091853132
 51
248.7461908146868
  0
ARC
  5
1939B
330
747D
100
AcDbEntity
  8
細線
 48
50.0
100
AcDbCircle
 10
9203.879863386797
 20
3176.776364073611
 30
0.0
 40
17.5
100
AcDbArc
 50
306.4837370612677
 51
233.5162629387323
  0
LINE
  5
1939C
330
747D
100
AcDbEntity
  8
細線
 48
50.0
100
AcDbLine
 10
9213.879863386793
 20
3152.917403492728
 30
0.0
 11
9213.879863386798
 21
3161.901889292969
 31
0.0
  0
LINE
  5
1939D
330
747D
100
AcDbEntity
  8
細線
 48
50.0
100
AcDbLine
 10
9193.879863386797
 20
3152.917403492729
 30
0.0
 11
9193.879863386797
 21
3161.901889292965
 31
0.0
  0
ARC
  5
1939E
330
747D
100
AcDbEntity
  8
細線
 48
50.0
100
AcDbCircle
 10
9203.879863386797
 20
3176.776364073611
 30
0.0
 40
26.5
100
AcDbArc
 50
249.3326835063939
 51
290.6673164933835
  0
ARC
  5
1939F
330
747D
100
AcDbEntity
  8
細線
 48
50.0
100
AcDbCircle
 10
9212.87986338679
 20
3152.917403492728
 30
0.0
 40
1.0
100
AcDbArc
 50
290.6673164936062
 51
359.9999999998958
  0
ARC
  5
193A0
330
747D
100
AcDbEntity
  8
細線
 48
50.0
100
AcDbCircle
 10
9194.879863386798
 20
3152.917403492729
 30
0.0
 40
1.0
100
AcDbArc
 50
180.0
 51
249.3326835066164
  0
ARC
  5
193A1
330
747D
100
AcDbEntity
  8
細線
 48
50.0
100
AcDbCircle
 10
9192.879863386798
 20
3161.901889292965
 30
0.0
 40
1.0
100
AcDbArc
 50
0.0
 51
53.51626293873231
  0
ARC
  5
193A2
330
747D
100
AcDbEntity
  8
細線
 48
50.0
100
AcDbCircle
 10
9214.879863386801
 20
3161.901889292969
 30
0.0
 40
1.0
100
AcDbArc
 50
126.4837370615127
 51
180.0
  0
ARC
  5
193A3
330
747D
100
AcDbEntity
  8
細線
 48
50.0
100
AcDbCircle
 10
9203.879863386797
 20
3176.776364073611
 30
0.0
 40
21.5
100
AcDbArc
 50
255.8014401250294
 51
284.1985598749706
  0
ARC
  5
193A4
330
747D
100
AcDbEntity
  8
細線
 48
50.0
100
AcDbCircle
 10
9203.879863386797
 20
3176.776364073611
 30
0.0
 40
16.5
100
AcDbArc
 50
251.9694646069326
 51
288.0305353930674
  0
LINE
  5
193A5
330
747D
100
AcDbEntity
  8
細線
 48
50.0
100
AcDbLine
 10
9209.379863386798
 20
3156.223991947804
 30
0.0
 11
9209.379863386798
 21
3160.801383635141
 31
0.0
  0
LINE
  5
193A6
330
747D
100
AcDbEntity
  8
細線
 48
50.0
100
AcDbLine
 10
9198.379863386797
 20
3156.223991947804
 30
0.0
 11
9198.379863386797
 21
3160.801383635138
 31
0.0
  0
ARC
  5
193A7
330
747D
100
AcDbEntity
  8
細線
 48
50.0
100
AcDbCircle
 10
9198.6798633868
 20
3160.801383635138
 30
0.0
 40
0.3
100
AcDbArc
 50
71.96946460693259
 51
180.0
  0
ARC
  5
193A8
330
747D
100
AcDbEntity
  8
細線
 48
50.0
100
AcDbCircle
 10
9209.079863386797
 20
3160.801383635141
 30
0.0
 40
0.3
100
AcDbArc
 50
0.0
 51
108.0305353930674
  0
ARC
  5
193A9
330
747D
100
AcDbEntity
  8
細線
 48
50.0
100
AcDbCircle
 10
9209.079863386795
 20
3156.223991947804
 30
0.0
 40
0.3
100
AcDbArc
 50
284.1985598747622
 51
0.0000000001042204
  0
ARC
  5
193AA
330
747D
100
AcDbEntity
  8
細線
 48
50.0
100
AcDbCircle
 10
9198.6798633868
 20
3156.223991947804
 30
0.0
 40
0.3
100
AcDbArc
 50
180.0
 51
255.8014401248081
  0
CIRCLE
  5
193AB
330
747D
100
AcDbEntity
  8
細線
 48
50.0
100
AcDbCircle
 10
9203.879863386797
 20
3176.776364073611
 30
0.0
 40
12.0
  0
ARC
  5
193AC
330
747D
100
AcDbEntity
  8
部品1
 48
50.0
100
AcDbCircle
 10
9203.879863386797
 20
3226.776364073611
 30
0.0
 40
8.5
100
AcDbArc
 50
114.315739171091
 51
245.684260828909
  0
CIRCLE
  5
193AD
330
747D
100
AcDbEntity
  8
細線
 48
50.0
100
AcDbCircle
 10
9203.879863386797
 20
3226.776364073611
 30
0.0
 40
4.5
  0
LWPOLYLINE
  5
193AE
330
747D
100
AcDbEntity
  8
部品1
 48
50.0
100
AcDbPolyline
 90
        2
 70
     0
 43
0.0
 10
9200.379863386798
 20
3245.451213470593
 10
9200.379863386798
 20
3234.522330766026
  0
CIRCLE
  5
193AF
330
747D
100
AcDbEntity
  8
部品1
 48
50.0
100
AcDbCircle
 10
9203.879863386797
 20
3226.776364073611
 30
0.0
 40
19.0
  0
LWPOLYLINE
  5
193B0
330
747D
100
AcDbEntity
  8
部品1
 48
50.0
100
AcDbPolyline
 90
        2
 70
     0
 43
0.0
 10
9200.379863386798
 20
3219.030397381195
 10
9200.379863386798
 20
3208.101514676628
  0
LWPOLYLINE
  5
193B1
330
747D
100
AcDbEntity
  8
部品1
 48
50.0
100
AcDbPolyline
 90
        2
 70
     0
 43
0.0
 10
9207.379863386798
 20
3234.522330766026
 10
9207.379863386798
 20
3245.451213470593
  0
ARC
  5
193B2
330
747D
100
AcDbEntity
  8
部品1
 48
50.0
100
AcDbCircle
 10
9203.879863386797
 20
3226.776364073611
 30
0.0
 40
8.5
100
AcDbArc
 50
294.315739171091
 51
65.68426082890896
  0
LWPOLYLINE
  5
193B3
330
747D
100
AcDbEntity
  8
部品1
 48
50.0
100
AcDbPolyline
 90
        2
 70
     0
 43
0.0
 10
9207.379863386798
 20
3208.101514676628
 10
9207.379863386798
 20
3219.030397381195
  0
ARC
  5
193B4
330
747D
100
AcDbEntity
  8
細線
 48
50.0
100
AcDbCircle
 10
9203.879863386797
 20
3226.776364073611
 30
0.0
 40
16.5
100
AcDbArc
 50
332.0012352654438
 51
27.99876473455621
  0
ARC
  5
193B5
330
747D
100
AcDbEntity
  8
細線
 48
50.0
100
AcDbCircle
 10
9203.879863386797
 20
3226.776364073611
 30
0.0
 40
14.0
100
AcDbArc
 50
326.4074436112986
 51
33.59255638870134
  0
LINE
  5
193B6
330
747D
100
AcDbEntity
  8
細線
 48
50.0
100
AcDbLine
 10
9189.311061102465
 20
3234.522330766026
 30
0.0
 11
9192.217959597108
 21
3234.522330766026
 31
0.0
  0
LINE
  5
193B7
330
747D
100
AcDbEntity
  8
細線
 48
50.0
100
AcDbLine
 10
9189.311061102465
 20
3219.030397381195
 30
0.0
 11
9192.217959597108
 21
3219.030397381195
 31
0.0
  0
LINE
  5
193B8
330
747D
100
AcDbEntity
  8
細線
 48
50.0
100
AcDbLine
 10
9215.541767176487
 20
3234.522330766026
 30
0.0
 11
9218.448665671132
 21
3234.522330766026
 31
0.0
  0
LINE
  5
193B9
330
747D
100
AcDbEntity
  8
細線
 48
50.0
100
AcDbLine
 10
9215.541767176487
 20
3219.030397381195
 30
0.0
 11
9218.448665671132
 21
3219.030397381195
 31
0.0
  0
ARC
  5
193BA
330
747D
100
AcDbEntity
  8
細線
 48
50.0
100
AcDbCircle
 10
9203.879863386797
 20
3226.776364073611
 30
0.0
 40
14.0
100
AcDbArc
 50
146.4074436112986
 51
213.5925563887013
  0
ARC
  5
193BB
330
747D
100
AcDbEntity
  8
細線
 48
50.0
100
AcDbCircle
 10
9203.879863386797
 20
3226.776364073611
 30
0.0
 40
16.5
100
AcDbArc
 50
152.0012352654438
 51
207.9987647345562
  0
ARC
  5
193BC
330
747D
100
AcDbEntity
  8
部品1
 48
50.0
100
AcDbCircle
 10
9177.379863386796
 20
3252.27636407361
 30
0.0
 40
5.0
100
AcDbArc
 50
90.0
 51
180.0
  0
ARC
  5
193BD
330
747D
100
AcDbEntity
  8
部品1
 48
50.0
100
AcDbCircle
 10
9177.379863386796
 20
3141.27636407361
 30
0.0
 40
5.0
100
AcDbArc
 50
180.0
 51
270.0
  0
ARC
  5
193BE
330
747D
100
AcDbEntity
  8
部品1
 48
50.0
100
AcDbCircle
 10
9230.379863386797
 20
3141.27636407361
 30
0.0
 40
5.0
100
AcDbArc
 50
270.0
 51
0.0
  0
ARC
  5
193BF
330
747D
100
AcDbEntity
  8
部品1
 48
50.0
100
AcDbCircle
 10
9230.379863386797
 20
3252.27636407361
 30
0.0
 40
5.0
100
AcDbArc
 50
0.0
 51
90.0
  0
LINE
  5
193C1
330
747D
100
AcDbEntity
  8
部品1
 48
50.0
100
AcDbLine
 10
9172.379863386797
 20
3141.27636407361
 30
0.0
 11
9172.379863386797
 21
3252.27636407361
 31
0.0
  0
LINE
  5
193C2
330
747D
100
AcDbEntity
  8
部品1
 48
50.0
100
AcDbLine
 10
9230.379863386797
 20
3136.27636407361
 30
0.0
 11
9177.379863386796
 21
3136.27636407361
 31
0.0
  0
LINE
  5
193C3
330
747D
100
AcDbEntity
  8
部品1
 48
50.0
100
AcDbLine
 10
9235.379863386798
 20
3252.27636407361
 30
0.0
 11
9235.379863386798
 21
3141.27636407361
 31
0.0
  0
ENDSEC
  0
SECTION
  2
OBJECTS
  0
DICTIONARY
  5
7471
330
0
100
AcDbDictionary
281
     1
  3
ACAD_COLOR
350
17E6C
  3
ACAD_GROUP
350
7472
  3
ACAD_LAYOUT
350
17E6D
  3
ACAD_MATERIAL
350
17E6B
  3
ACAD_MLINESTYLE
350
7473
  3
ACAD_PLOTSETTINGS
350
17E6E
  3
ACAD_PLOTSTYLENAME
350
17E69
  3
ACDBHEADERROUNDTRIPXREC
350
193D2
  3
AcDbVariableDictionary
350
193CE
  3
CONTENTDICTIONARY
350
E71C
  3
DRAWINGVARIABLESDICT
350
F3B9
  0
DICTIONARY
  5
18006
330
7467
100
AcDbDictionary
280
     1
281
     1
  3
ACAD_LAYERSTATES
360
18007
  0
DICTIONARY
  5
17E6C
102
{ACAD_REACTORS
330
7471
102
}
330
7471
100
AcDbDictionary
281
     1
  0
DICTIONARY
  5
7472
102
{ACAD_REACTORS
330
7471
102
}
330
7471
100
AcDbDictionary
281
     1
  0
DICTIONARY
  5
17E6D
102
{ACAD_REACTORS
330
7471
102
}
330
7471
100
AcDbDictionary
281
     1
  3
Model
350
17E6F
  3
レイアウト1
350
17E70
  0
DICTIONARY
  5
17E6B
102
{ACAD_REACTORS
330
7471
102
}
330
7471
100
AcDbDictionary
281
     1
  0
DICTIONARY
  5
7473
102
{ACAD_REACTORS
330
7471
102
}
330
7471
100
AcDbDictionary
281
     1
  3
STANDARD
350
7480
  0
DICTIONARY
  5
17E6E
102
{ACAD_REACTORS
330
7471
102
}
330
7471
100
AcDbDictionary
281
     1
  0
ACDBDICTIONARYWDFLT
  5
17E69
102
{ACAD_REACTORS
330
7471
102
}
330
7471
100
AcDbDictionary
281
     1
  3
Normal
350
17E6A
100
AcDbDictionaryWithDefault
340
17E6A
  0
DICTIONARY
  5
193D2
102
{ACAD_REACTORS
330
7471
102
}
330
7471
100
AcDbDictionary
281
     1
  3
COLORDICT
350
193D4
  3
MATERIALDICT
350
193D3
  0
DICTIONARY
  5
193CE
102
{ACAD_REACTORS
330
7471
102
}
330
7471
100
AcDbDictionary
281
     1
  3
DIMASSOC
350
193CF
  3
PROJECTNAME
350
193D0
  0
DICTIONARY
  5
E71C
102
{ACAD_REACTORS
330
7471
102
}
330
7471
100
AcDbDictionary
281
     1
  0
DICTIONARY
  5
F3B9
102
{ACAD_REACTORS
330
7471
102
}
330
7471
100
AcDbDictionary
281
     1
1001
DRAWINGVARIABLESXDATA
1000
POLARMODE
1000
1
  0
DICTIONARY
  5
18007
102
{ACAD_REACTORS
330
18006
102
}
330
18006
100
AcDbDictionary
281
     1
  0
LAYOUT
  5
17E6F
102
{ACAD_XDICTIONARY
360
193D5
102
}
102
{ACAD_REACTORS
330
17E6D
102
}
330
17E6D
100
AcDbPlotSettings
  1

  2
Microsoft Office Document Image Writer
  4

  6

 40
0.0
 41
0.0
 42
0.0
 43
0.0
 44
0.0
 45
0.0
 46
0.0
 47
0.0
 48
0.0
 49
0.0
140
0.0
141
0.0
142
1.0
143
1.0
 70
  1712
 72
     0
 73
     0
 74
     0
  7

 75
     0
147
1.0
148
0.0
149
0.0
100
AcDbLayout
  1
Model
 70
     1
 71
     0
 10
0.0
 20
0.0
 11
12.0
 21
9.0
 12
0.0
 22
0.0
 32
0.0
 14
0.0
 24
0.0
 34
0.0
 15
0.0
 25
0.0
 35
0.0
146
0.0
 13
0.0
 23
0.0
 33
0.0
 16
1.0
 26
0.0
 36
0.0
 17
0.0
 27
1.0
 37
0.0
 76
     0
330
747D
  0
LAYOUT
  5
17E70
102
{ACAD_XDICTIONARY
360
193D7
102
}
102
{ACAD_REACTORS
330
17E6D
102
}
330
17E6D
100
AcDbPlotSettings
  1

  2
Microsoft Office Document Image Writer
  4

  6

 40
0.0
 41
0.0
 42
0.0
 43
0.0
 44
0.0
 45
0.0
 46
0.0
 47
0.0
 48
0.0
 49
0.0
140
0.0
141
0.0
142
1.0
143
1.0
 70
   688
 72
     0
 73
     0
 74
     5
  7

 75
    16
147
1.0
148
0.0
149
0.0
100
AcDbLayout
  1
レイアウト1
 70
     0
 71
     1
 10
0.0
 20
0.0
 11
420.0
 21
297.0
 12
0.0
 22
0.0
 32
0.0
 14
1.000000000000000E+20
 24
1.000000000000000E+20
 34
1.000000000000000E+20
 15
-1.000000000000000E+20
 25
-1.000000000000000E+20
 35
-1.000000000000000E+20
146
0.0
 13
0.0
 23
0.0
 33
0.0
 16
1.0
 26
0.0
 36
0.0
 17
0.0
 27
1.0
 37
0.0
 76
     0
330
747A
  0
MLINESTYLE
  5
7480
102
{ACAD_REACTORS
330
7473
102
}
330
7473
100
AcDbMlineStyle
  2
STANDARD
 70
     0
  3

 62
     0
 51
90.0
 52
90.0
 71
     2
 49
0.5
 62
   256
  6
BYLAYER
 49
-0.5
 62
   256
  6
BYLAYER
  0
ACDBPLACEHOLDER
  5
17E6A
102
{ACAD_REACTORS
330
17E69
102
}
330
17E69
  0
XRECORD
  5
193D4
102
{ACAD_REACTORS
330
193D2
102
}
330
193D2
100
AcDbXrecord
280
     1
340
17E6C
  0
XRECORD
  5
193D3
102
{ACAD_REACTORS
330
193D2
102
}
330
193D2
100
AcDbXrecord
280
     1
340
17E6B
  0
DICTIONARYVAR
  5
193CF
102
{ACAD_REACTORS
330
193CE
102
}
330
193CE
100
DictionaryVariables
280
     0
  1
1
  0
DICTIONARYVAR
  5
193D0
102
{ACAD_REACTORS
330
193CE
102
}
330
193CE
100
DictionaryVariables
280
     0
  1

  0
DICTIONARY
  5
193D5
330
17E6F
100
AcDbDictionary
280
     1
281
     1
  3
ACAD_XREC_ROUNDTRIP
360
193D6
  0
DICTIONARY
  5
193D7
330
17E70
100
AcDbDictionary
280
     1
281
     1
  3
ACAD_XREC_ROUNDTRIP
360
193D8
  0
XRECORD
  5
193D6
102
{ACAD_REACTORS
330
193D5
102
}
330
193D5
100
AcDbXrecord
280
     1
102
SHADEPLOT
 70
     0
102
SHADEPLOTRESLEVEL
 70
     2
102
SHADEPLOTCUSTOMDPI
 70
   300
  0
XRECORD
  5
193D8
102
{ACAD_REACTORS
330
193D7
102
}
330
193D7
100
AcDbXrecord
280
     1
102
SHADEPLOT
 70
     0
102
SHADEPLOTRESLEVEL
 70
     2
102
SHADEPLOTCUSTOMDPI
 70
   300
  0
ENDSEC
  0
EOF
