  0
SECTION
  2
HEADER
  9
$ACADVER
  1
AC1015
  9
$ACADMAINTVER
 70
    20
  9
$DWGCODEPAGE
  3
ANSI_932
  9
$INSBASE
 10
0.0
 20
0.0
 30
0.0
  9
$EXTMIN
 10
139.9999999999995
 20
-0.0000000000000909
 30
0.0
  9
$EXTMAX
 10
16307.2
 20
11409.6
 30
0.0
  9
$LIMMIN
 10
-25.79074261211281
 20
-125.8223078213959
  9
$LIMMAX
 10
16471.10331197129
 20
11496.44801950658
  9
$ORTHOMODE
 70
     0
  9
$REGENMODE
 70
     1
  9
$FILLMODE
 70
     1
  9
$QTEXTMODE
 70
     0
  9
$MIRRTEXT
 70
     1
  9
$LTSCALE
 40
20.0
  9
$ATTMODE
 70
     1
  9
$TEXTSIZE
 40
4.0
  9
$TRACEWID
 40
1.0
  9
$TEXTSTYLE
  7
STYLE1
  9
$CLAYER
  8
寸法
  9
$CELTYPE
  6
BYLAYER
  9
$CECOLOR
 62
   256
  9
$CELTSCALE
 40
50.0
  9
$DISPSILH
 70
     0
  9
$DIMSCALE
 40
40.0
  9
$DIMASZ
 40
2.5
  9
$DIMEXO
 40
0.5
  9
$DIMDLI
 40
7.0
  9
$DIMRND
 40
0.0
  9
$DIMDLE
 40
0.0
  9
$DIMEXE
 40
1.5
  9
$DIMTP
 40
0.0
  9
$DIMTM
 40
0.0
  9
$DIMTXT
 40
3.0
  9
$DIMCEN
 40
0.0
  9
$DIMTSZ
 40
0.0
  9
$DIMTOL
 70
     0
  9
$DIMLIM
 70
     0
  9
$DIMTIH
 70
     0
  9
$DIMTOH
 70
     0
  9
$DIMSE1
 70
     0
  9
$DIMSE2
 70
     0
  9
$DIMTAD
 70
     3
  9
$DIMZIN
 70
     8
  9
$DIMBLK
  1

  9
$DIMASO
 70
     1
  9
$DIMSHO
 70
     1
  9
$DIMPOST
  1

  9
$DIMAPOST
  1

  9
$DIMALT
 70
     0
  9
$DIMALTD
 70
     2
  9
$DIMALTF
 40
0.0394
  9
$DIMLFAC
 40
1.0
  9
$DIMTOFL
 70
     1
  9
$DIMTVP
 40
0.0
  9
$DIMTIX
 70
     1
  9
$DIMSOXD
 70
     0
  9
$DIMSAH
 70
     1
  9
$DIMBLK1
  1
DOTSMALL
  9
$DIMBLK2
  1
DOTSMALL
  9
$DIMSTYLE
  2
INABA_S40G
  9
$DIMCLRD
 70
     0
  9
$DIMCLRE
 70
     0
  9
$DIMCLRT
 70
     7
  9
$DIMTFAC
 40
1.0
  9
$DIMGAP
 40
1.0
  9
$DIMJUST
 70
     0
  9
$DIMSD1
 70
     0
  9
$DIMSD2
 70
     0
  9
$DIMTOLJ
 70
     1
  9
$DIMTZIN
 70
     0
  9
$DIMALTZ
 70
     0
  9
$DIMALTTZ
 70
     0
  9
$DIMUPT
 70
     0
  9
$DIMDEC
 70
     1
  9
$DIMTDEC
 70
     4
  9
$DIMALTU
 70
     2
  9
$DIMALTTD
 70
     2
  9
$DIMTXSTY
  7
STYLE1
  9
$DIMAUNIT
 70
     0
  9
$DIMADEC
 70
     0
  9
$DIMALTRND
 40
0.0
  9
$DIMAZIN
 70
     0
  9
$DIMDSEP
 70
    46
  9
$DIMATFIT
 70
     3
  9
$DIMFRAC
 70
     0
  9
$DIMLDRBLK
  1

  9
$DIMLUNIT
 70
     2
  9
$DIMLWD
 70
    -2
  9
$DIMLWE
 70
    -2
  9
$DIMTMOVE
 70
     0
  9
$LUNITS
 70
     2
  9
$LUPREC
 70
     1
  9
$SKETCHINC
 40
1.0
  9
$FILLETRAD
 40
3.0
  9
$AUNITS
 70
     0
  9
$AUPREC
 70
     0
  9
$MENU
  1
acad
  9
$ELEVATION
 40
0.0
  9
$PELEVATION
 40
0.0
  9
$THICKNESS
 40
0.0
  9
$LIMCHECK
 70
     0
  9
$CHAMFERA
 40
0.0
  9
$CHAMFERB
 40
0.0
  9
$CHAMFERC
 40
0.0
  9
$CHAMFERD
 40
0.0
  9
$SKPOLY
 70
     0
  9
$TDCREATE
 40
2451368.612993866
  9
$TDUCREATE
 40
2451368.237993866
  9
$TDUPDATE
 40
2455575.683080509
  9
$TDUUPDATE
 40
2455575.308080510
  9
$TDINDWG
 40
0.5275837616
  9
$TDUSRTIMER
 40
0.5275837616
  9
$USRTIMER
 70
     1
  9
$ANGBASE
 50
0.0
  9
$ANGDIR
 70
     0
  9
$PDMODE
 70
     3
  9
$PDSIZE
 40
2.0
  9
$PLINEWID
 40
0.0
  9
$SPLFRAME
 70
     0
  9
$SPLINETYPE
 70
     6
  9
$SPLINESEGS
 70
     8
  9
$HANDSEED
  5
1896C
  9
$SURFTAB1
 70
     6
  9
$SURFTAB2
 70
     6
  9
$SURFTYPE
 70
     6
  9
$SURFU
 70
     6
  9
$SURFV
 70
     6
  9
$UCSBASE
  2

  9
$UCSNAME
  2

  9
$UCSORG
 10
0.0
 20
0.0
 30
0.0
  9
$UCSXDIR
 10
1.0
 20
0.0
 30
0.0
  9
$UCSYDIR
 10
0.0
 20
1.0
 30
0.0
  9
$UCSORTHOREF
  2

  9
$UCSORTHOVIEW
 70
     0
  9
$UCSORGTOP
 10
0.0
 20
0.0
 30
0.0
  9
$UCSORGBOTTOM
 10
0.0
 20
0.0
 30
0.0
  9
$UCSORGLEFT
 10
0.0
 20
0.0
 30
0.0
  9
$UCSORGRIGHT
 10
0.0
 20
0.0
 30
0.0
  9
$UCSORGFRONT
 10
0.0
 20
0.0
 30
0.0
  9
$UCSORGBACK
 10
0.0
 20
0.0
 30
0.0
  9
$PUCSBASE
  2

  9
$PUCSNAME
  2

  9
$PUCSORG
 10
0.0
 20
0.0
 30
0.0
  9
$PUCSXDIR
 10
1.0
 20
0.0
 30
0.0
  9
$PUCSYDIR
 10
0.0
 20
1.0
 30
0.0
  9
$PUCSORTHOREF
  2

  9
$PUCSORTHOVIEW
 70
     0
  9
$PUCSORGTOP
 10
0.0
 20
0.0
 30
0.0
  9
$PUCSORGBOTTOM
 10
0.0
 20
0.0
 30
0.0
  9
$PUCSORGLEFT
 10
0.0
 20
0.0
 30
0.0
  9
$PUCSORGRIGHT
 10
0.0
 20
0.0
 30
0.0
  9
$PUCSORGFRONT
 10
0.0
 20
0.0
 30
0.0
  9
$PUCSORGBACK
 10
0.0
 20
0.0
 30
0.0
  9
$USERI1
 70
     0
  9
$USERI2
 70
     0
  9
$USERI3
 70
     0
  9
$USERI4
 70
     0
  9
$USERI5
 70
     0
  9
$USERR1
 40
0.0
  9
$USERR2
 40
0.0
  9
$USERR3
 40
0.0
  9
$USERR4
 40
0.0
  9
$USERR5
 40
0.0
  9
$WORLDVIEW
 70
     1
  9
$SHADEDGE
 70
     3
  9
$SHADEDIF
 70
    70
  9
$TILEMODE
 70
     1
  9
$MAXACTVP
 70
    16
  9
$PINSBASE
 10
0.0
 20
0.0
 30
0.0
  9
$PLIMCHECK
 70
     0
  9
$PEXTMIN
 10
1.000000000000000E+20
 20
1.000000000000000E+20
 30
1.000000000000000E+20
  9
$PEXTMAX
 10
-1.000000000000000E+20
 20
-1.000000000000000E+20
 30
-1.000000000000000E+20
  9
$PLIMMIN
 10
0.0
 20
0.0
  9
$PLIMMAX
 10
420.0
 20
297.0
  9
$UNITMODE
 70
     0
  9
$VISRETAIN
 70
     0
  9
$PLINEGEN
 70
     0
  9
$PSLTSCALE
 70
     0
  9
$TREEDEPTH
 70
  3020
  9
$CMLSTYLE
  2
STANDARD
  9
$CMLJUST
 70
     0
  9
$CMLSCALE
 40
1.0
  9
$PROXYGRAPHICS
 70
     1
  9
$MEASUREMENT
 70
     1
  9
$CELWEIGHT
370
    -1
  9
$ENDCAPS
280
     0
  9
$JOINSTYLE
280
     0
  9
$LWDISPLAY
290
     0
  9
$INSUNITS
 70
     0
  9
$HYPERLINKBASE
  1

  9
$STYLESHEET
  1
inaba.ctb
  9
$XEDIT
290
     1
  9
$CEPSNTYPE
380
     0
  9
$PSTYLEMODE
290
     1
  9
$FINGERPRINTGUID
  2
{44A0FDB9-6E22-42C5-A6E9-E6C1F054D430}
  9
$VERSIONGUID
  2
{714A19B4-30EF-4F05-91F6-CFD73961C6E5}
  9
$EXTNAMES
290
     1
  9
$PSVPSCALE
 40
0.0
  9
$OLESTARTUP
290
     0
  0
ENDSEC
  0
SECTION
  2
CLASSES
  0
CLASS
  1
ACDBDICTIONARYWDFLT
  2
AcDbDictionaryWithDefault
  3
ObjectDBX Classes
 90
        0
280
     0
281
     0
  0
CLASS
  1
DICTIONARYVAR
  2
AcDbDictionaryVar
  3
ObjectDBX Classes
 90
        0
280
     0
281
     0
  0
CLASS
  1
ACDBPLACEHOLDER
  2
AcDbPlaceHolder
  3
ObjectDBX Classes
 90
        0
280
     0
281
     0
  0
CLASS
  1
LAYOUT
  2
AcDbLayout
  3
ObjectDBX Classes
 90
        0
280
     0
281
     0
  0
ENDSEC
  0
SECTION
  2
TABLES
  0
TABLE
  2
VPORT
  5
746D
330
0
100
AcDbSymbolTable
 70
     2
  0
VPORT
  5
18964
330
746D
100
AcDbSymbolTableRecord
100
AcDbViewportTableRecord
  2
*Active
 70
     0
 10
0.0
 20
0.0
 11
1.0
 21
1.0
 12
8223.761025238504
 22
5704.608037261908
 13
0.0
 23
0.0
 14
10.0
 24
10.0
 15
10.0
 25
10.0
 16
0.0
 26
0.0
 36
1.0
 17
0.0
 27
0.0
 37
0.0
 40
11495.08541324274
 41
1.525925925925925
 42
50.0
 43
0.0
 44
0.0
 50
0.0
 51
0.0
 71
     0
 72
     0
 73
     1
 74
     0
 75
     0
 76
     0
 77
     0
 78
     0
281
     0
 65
     1
110
0.0
120
0.0
130
0.0
111
1.0
121
0.0
131
0.0
112
0.0
122
1.0
132
0.0
 79
     0
146
0.0
  0
ENDTAB
  0
TABLE
  2
LTYPE
  5
746A
330
0
100
AcDbSymbolTable
 70
     4
  0
LTYPE
  5
7477
330
746A
100
AcDbSymbolTableRecord
100
AcDbLinetypeTableRecord
  2
BYBLOCK
 70
     0
  3

 72
    65
 73
     0
 40
0.0
  0
LTYPE
  5
7478
330
746A
100
AcDbSymbolTableRecord
100
AcDbLinetypeTableRecord
  2
BYLAYER
 70
     0
  3

 72
    65
 73
     0
 40
0.0
  0
LTYPE
  5
7479
330
746A
100
AcDbSymbolTableRecord
100
AcDbLinetypeTableRecord
  2
CONTINUOUS
 70
     0
  3
Solid line
 72
    65
 73
     0
 40
0.0
  0
LTYPE
  5
7816
330
746A
100
AcDbSymbolTableRecord
100
AcDbLinetypeTableRecord
  2
CENTER
 70
     0
  3
____ _ ____ _ ____ _ ____ _ ____ _ ____ _ ____ 
 72
    65
 73
     4
 40
2.0
 49
1.25
 74
     0
 49
-0.25
 74
     0
 49
0.25
 74
     0
 49
-0.25
 74
     0
  0
LTYPE
  5
781A
330
746A
100
AcDbSymbolTableRecord
100
AcDbLinetypeTableRecord
  2
HIDDEN
 70
     0
  3
__ __ __ __ __ __ __ __ __ __ __ __ __ __ __ __
 72
    65
 73
     2
 40
0.375
 49
0.25
 74
     0
 49
-0.125
 74
     0
  0
LTYPE
  5
781B
330
746A
100
AcDbSymbolTableRecord
100
AcDbLinetypeTableRecord
  2
PHANTOM
 70
     0
  3
______  __  __  ______  __  __  ______  __  __ 
 72
    65
 73
     6
 40
2.5
 49
1.25
 74
     0
 49
-0.25
 74
     0
 49
0.25
 74
     0
 49
-0.25
 74
     0
 49
0.25
 74
     0
 49
-0.25
 74
     0
  0
ENDTAB
  0
TABLE
  2
LAYER
  5
7467
102
{ACAD_XDICTIONARY
360
17388
102
}
330
0
100
AcDbSymbolTable
 70
    12
  0
LAYER
  5
7474
330
7467
100
AcDbSymbolTableRecord
100
AcDbLayerTableRecord
  2
0
 70
     0
 62
     7
  6
CONTINUOUS
370
    -3
390
171EC
  0
LAYER
  5
DEB2
330
7467
100
AcDbSymbolTableRecord
100
AcDbLayerTableRecord
  2
センター
 70
     0
 62
     3
  6
CENTER
370
    -3
390
171EC
  0
LAYER
  5
DEB3
330
7467
100
AcDbSymbolTableRecord
100
AcDbLayerTableRecord
  2
寸法
 70
     0
 62
     4
  6
CONTINUOUS
370
    -3
390
171EC
  0
LAYER
  5
DEB4
330
7467
100
AcDbSymbolTableRecord
100
AcDbLayerTableRecord
  2
部品1
 70
     0
 62
     7
  6
CONTINUOUS
370
    -3
390
171EC
  0
LAYER
  5
DEB5
330
7467
100
AcDbSymbolTableRecord
100
AcDbLayerTableRecord
  2
補助
 70
     0
 62
    -1
  6
CONTINUOUS
370
    -3
390
171EC
  0
LAYER
  5
DEB6
330
7467
100
AcDbSymbolTableRecord
100
AcDbLayerTableRecord
  2
文字
 70
     0
 62
     7
  6
CONTINUOUS
370
    -3
390
171EC
  0
LAYER
  5
F255
330
7467
100
AcDbSymbolTableRecord
100
AcDbLayerTableRecord
  2
DEFPOINTS
 70
     0
 62
     7
  6
CONTINUOUS
290
     0
370
    -3
390
171EC
  0
LAYER
  5
10B54
330
7467
100
AcDbSymbolTableRecord
100
AcDbLayerTableRecord
  2
仕様書枠
 70
     0
 62
   230
  6
CONTINUOUS
370
    -3
390
171EC
  0
LAYER
  5
11729
330
7467
100
AcDbSymbolTableRecord
100
AcDbLayerTableRecord
  2
Ｇ．Ｌ
 70
     0
 62
    30
  6
CONTINUOUS
370
    -3
390
171EC
  0
LAYER
  5
1173F
330
7467
100
AcDbSymbolTableRecord
100
AcDbLayerTableRecord
  2
細線
 70
     0
 62
     5
  6
CONTINUOUS
370
    -3
390
171EC
  0
LAYER
  5
12CC4
330
7467
100
AcDbSymbolTableRecord
100
AcDbLayerTableRecord
  2
想像線
 70
     0
 62
     6
  6
PHANTOM
370
    -3
390
171EC
  0
LAYER
  5
142E2
330
7467
100
AcDbSymbolTableRecord
100
AcDbLayerTableRecord
  2
破線
 70
     0
 62
     2
  6
HIDDEN
370
    -3
390
171EC
  0
ENDTAB
  0
TABLE
  2
STYLE
  5
7468
330
0
100
AcDbSymbolTable
 70
     4
  0
STYLE
  5
7475
330
7468
100
AcDbSymbolTableRecord
100
AcDbTextStyleTableRecord
  2
STANDARD
 70
     0
 40
0.0
 41
1.0
 50
0.0
 71
     0
 42
4.0
  3
txt
  4
C:\AutoCAD LT\bigfont.shx
  0
STYLE
  5
F706
330
7468
100
AcDbSymbolTableRecord
100
AcDbTextStyleTableRecord
  2
STYLE1
 70
     0
 40
0.0
 41
1.0
 50
0.0
 71
     0
 42
4.0
  3
isocp.shx
  4
bigfont.shx
  0
STYLE
  5
103BF
330
7468
100
AcDbSymbolTableRecord
100
AcDbTextStyleTableRecord
  2
STYLE2
 70
     0
 40
0.0
 41
1.0
 50
0.0
 71
     0
 42
100.0
  3
MS PGothic.ttf
  4

1001
ACAD
1000
MS PGothic
1071
    32818
  0
STYLE
  5
1801D
330
7468
100
AcDbSymbolTableRecord
100
AcDbTextStyleTableRecord
  2
STYLE3
 70
     0
 40
0.0
 41
1.0
 50
0.0
 71
     0
 42
100.0
  3
DFPGothic-EB.ttf
  4

1001
ACAD
1000
DFPGothic-EB
1071
    32818
  0
ENDTAB
  0
TABLE
  2
VIEW
  5
746B
330
0
100
AcDbSymbolTable
 70
     0
  0
ENDTAB
  0
TABLE
  2
UCS
  5
746C
330
0
100
AcDbSymbolTable
 70
     0
  0
ENDTAB
  0
TABLE
  2
APPID
  5
746E
330
0
100
AcDbSymbolTable
 70
     6
  0
APPID
  5
7476
330
746E
100
AcDbSymbolTableRecord
100
AcDbRegAppTableRecord
  2
ACAD
 70
     0
  0
APPID
  5
DEA9
330
746E
100
AcDbSymbolTableRecord
100
AcDbRegAppTableRecord
  2
CONTENTBLOCKICON
 70
     0
  0
APPID
  5
DEAA
330
746E
100
AcDbSymbolTableRecord
100
AcDbRegAppTableRecord
  2
CONTENTBLOCKDESCRIPTION
 70
     0
  0
APPID
  5
E71D
330
746E
100
AcDbSymbolTableRecord
100
AcDbRegAppTableRecord
  2
CONTENTTABDATA
 70
     0
  0
APPID
  5
E71E
330
746E
100
AcDbSymbolTableRecord
100
AcDbRegAppTableRecord
  2
CONTENTCURRENTTAB
 70
     0
  0
APPID
  5
F3BA
330
746E
100
AcDbSymbolTableRecord
100
AcDbRegAppTableRecord
  2
DRAWINGVARIABLESXDATA
 70
     0
  0
ENDTAB
  0
TABLE
  2
DIMSTYLE
  5
746F
330
0
100
AcDbSymbolTable
 70
     5
100
AcDbDimStyleTable
 71
     0
  0
DIMSTYLE
105
7484
330
746F
100
AcDbSymbolTableRecord
100
AcDbDimStyleTableRecord
  2
JIS
 70
     0
 41
2.5
 42
1.0
 43
7.0
 44
1.0
 73
     0
 74
     0
 77
     1
 78
     8
140
2.5
141
0.0
143
0.0394
147
0.0
172
     1
174
     1
175
     1
340
7475
  0
DIMSTYLE
105
F71F
102
{ACAD_REACTORS
330
176F0
330
176F1
330
176F2
330
176F3
330
17701
330
17718
330
1771C
330
1771D
330
17737
330
17738
330
17739
330
1773A
330
17755
330
17756
330
17775
330
17776
330
17777
330
17778
330
1777C
330
177B3
330
177B4
330
177B8
330
177C3
330
177C4
330
1791D
330
1791E
330
1791F
330
1799C
330
185F5
330
186F6
102
}
330
746F
100
AcDbSymbolTableRecord
100
AcDbDimStyleTableRecord
  2
INABA_S40G
 70
     0
 40
40.0
 41
2.5
 42
0.5
 43
7.0
 44
1.5
 73
     0
 74
     0
 77
     3
 78
     8
140
3.0
141
0.0
143
0.0394
147
1.0
172
     1
173
     1
174
     1
178
     7
271
     1
340
F706
341
F770
343
F770
344
F770
  0
DIMSTYLE
105
17387
102
{ACAD_REACTORS
330
18360
330
185F6
102
}
330
746F
100
AcDbSymbolTableRecord
100
AcDbDimStyleTableRecord
  2
INABA_S40
 70
     0
 40
40.0
 41
2.5
 42
0.5
 43
7.0
 44
1.5
 73
     0
 74
     0
 77
     3
 78
     8
140
3.0
141
0.0
143
0.0394
147
1.0
172
     1
173
     1
174
     1
175
     1
178
     7
340
7475
  0
DIMSTYLE
105
1801E
330
746F
100
AcDbSymbolTableRecord
100
AcDbDimStyleTableRecord
  2
INABA_S50G
 70
     0
 41
125.0
 42
25.0
 43
7.0
 44
75.0
 73
     0
 74
     0
 77
     3
 78
     8
140
150.0
141
0.0
143
0.0394
147
25.0
172
     1
173
     1
174
     1
175
     1
178
     7
271
     1
340
F706
341
F770
343
F770
344
F770
  0
DIMSTYLE
105
188EA
330
746F
100
AcDbSymbolTableRecord
100
AcDbDimStyleTableRecord
  2
INABA_S20G
 70
     0
 40
20.0
 41
2.5
 42
0.5
 43
7.0
 44
1.5
 73
     0
 74
     0
 77
     3
 78
     8
140
3.0
141
0.0
143
0.0394
147
1.0
172
     1
173
     1
174
     1
178
     7
271
     1
340
F706
341
F770
343
F770
344
F770
  0
ENDTAB
  0
TABLE
  2
BLOCK_RECORD
  5
7466
330
0
100
AcDbSymbolTable
 70
    34
  0
BLOCK_RECORD
  5
747D
330
7466
100
AcDbSymbolTableRecord
100
AcDbBlockTableRecord
  2
*MODEL_SPACE
340
171F1
  0
BLOCK_RECORD
  5
747A
330
7466
100
AcDbSymbolTableRecord
100
AcDbBlockTableRecord
  2
*PAPER_SPACE
340
171F2
  0
BLOCK_RECORD
  5
F770
330
7466
100
AcDbSymbolTableRecord
100
AcDbBlockTableRecord
  2
_DOTSMALL
340
0
102
{BLKREFS
331
1810A
331
1810B
331
18113
331
18114
331
1811E
331
1811F
331
18127
331
18128
331
181A4
331
181A5
331
181AD
331
181AE
331
181B6
331
181B7
331
181BF
331
181C0
331
181C9
331
181CA
331
181D4
331
181D5
331
181DE
331
181DF
331
181E7
331
181E8
331
181F0
331
181F1
331
181FA
331
181FB
331
18203
331
18204
331
1820E
331
1820F
331
18217
331
18218
331
18220
331
18221
331
1885C
331
1885D
331
18870
331
18871
331
18884
331
18885
331
1888D
331
1888E
331
18898
331
18899
331
188A1
331
188A2
331
188AA
331
188AB
331
188B3
331
188B4
331
188BC
331
188BD
331
188C7
331
188C8
331
188D0
331
188D1
331
188DB
331
188DC
102
}
  0
BLOCK_RECORD
  5
171F9
330
7466
100
AcDbSymbolTableRecord
100
AcDbBlockTableRecord
  2
_DOT
340
0
102
{BLKREFS
331
18867
331
18868
331
18879
331
1887A
102
}
  0
BLOCK_RECORD
  5
179E2
330
7466
100
AcDbSymbolTableRecord
100
AcDbBlockTableRecord
  2
*D2
340
0
  0
BLOCK_RECORD
  5
179EE
330
7466
100
AcDbSymbolTableRecord
100
AcDbBlockTableRecord
  2
*D3
340
0
  0
BLOCK_RECORD
  5
179FA
330
7466
100
AcDbSymbolTableRecord
100
AcDbBlockTableRecord
  2
*D4
340
0
  0
BLOCK_RECORD
  5
17A08
330
7466
100
AcDbSymbolTableRecord
100
AcDbBlockTableRecord
  2
*D5
340
0
  0
BLOCK_RECORD
  5
17A14
330
7466
100
AcDbSymbolTableRecord
100
AcDbBlockTableRecord
  2
*D6
340
0
  0
BLOCK_RECORD
  5
17A21
330
7466
100
AcDbSymbolTableRecord
100
AcDbBlockTableRecord
  2
*D7
340
0
  0
BLOCK_RECORD
  5
17A2D
330
7466
100
AcDbSymbolTableRecord
100
AcDbBlockTableRecord
  2
*D8
340
0
  0
BLOCK_RECORD
  5
17A39
330
7466
100
AcDbSymbolTableRecord
100
AcDbBlockTableRecord
  2
*D9
340
0
  0
BLOCK_RECORD
  5
17A46
330
7466
100
AcDbSymbolTableRecord
100
AcDbBlockTableRecord
  2
*D10
340
0
  0
BLOCK_RECORD
  5
17A54
330
7466
100
AcDbSymbolTableRecord
100
AcDbBlockTableRecord
  2
*D11
340
0
  0
BLOCK_RECORD
  5
17A61
330
7466
100
AcDbSymbolTableRecord
100
AcDbBlockTableRecord
  2
*D12
340
0
  0
BLOCK_RECORD
  5
17A6D
330
7466
100
AcDbSymbolTableRecord
100
AcDbBlockTableRecord
  2
*D13
340
0
  0
BLOCK_RECORD
  5
17A79
330
7466
100
AcDbSymbolTableRecord
100
AcDbBlockTableRecord
  2
*D14
340
0
  0
BLOCK_RECORD
  5
17A85
330
7466
100
AcDbSymbolTableRecord
100
AcDbBlockTableRecord
  2
*D15
340
0
  0
BLOCK_RECORD
  5
17A91
330
7466
100
AcDbSymbolTableRecord
100
AcDbBlockTableRecord
  2
*D16
340
0
  0
BLOCK_RECORD
  5
17A9F
330
7466
100
AcDbSymbolTableRecord
100
AcDbBlockTableRecord
  2
*D17
340
0
  0
BLOCK_RECORD
  5
17AAB
330
7466
100
AcDbSymbolTableRecord
100
AcDbBlockTableRecord
  2
*D18
340
0
  0
BLOCK_RECORD
  5
17AB9
330
7466
100
AcDbSymbolTableRecord
100
AcDbBlockTableRecord
  2
*D19
340
0
  0
BLOCK_RECORD
  5
17AD1
330
7466
100
AcDbSymbolTableRecord
100
AcDbBlockTableRecord
  2
*D20
340
0
  0
BLOCK_RECORD
  5
17ADD
330
7466
100
AcDbSymbolTableRecord
100
AcDbBlockTableRecord
  2
*D21
340
0
  0
BLOCK_RECORD
  5
17AE9
330
7466
100
AcDbSymbolTableRecord
100
AcDbBlockTableRecord
  2
*D22
340
0
  0
BLOCK_RECORD
  5
17AF5
330
7466
100
AcDbSymbolTableRecord
100
AcDbBlockTableRecord
  2
*D23
340
0
  0
BLOCK_RECORD
  5
17B03
330
7466
100
AcDbSymbolTableRecord
100
AcDbBlockTableRecord
  2
*D24
340
0
  0
BLOCK_RECORD
  5
17B0F
330
7466
100
AcDbSymbolTableRecord
100
AcDbBlockTableRecord
  2
*D25
340
0
  0
BLOCK_RECORD
  5
17B29
330
7466
100
AcDbSymbolTableRecord
100
AcDbBlockTableRecord
  2
*D26
340
0
  0
BLOCK_RECORD
  5
17B35
330
7466
100
AcDbSymbolTableRecord
100
AcDbBlockTableRecord
  2
*D27
340
0
  0
BLOCK_RECORD
  5
17B43
330
7466
100
AcDbSymbolTableRecord
100
AcDbBlockTableRecord
  2
*D28
340
0
  0
BLOCK_RECORD
  5
17B4F
330
7466
100
AcDbSymbolTableRecord
100
AcDbBlockTableRecord
  2
*D29
340
0
  0
BLOCK_RECORD
  5
183CB
330
7466
100
AcDbSymbolTableRecord
100
AcDbBlockTableRecord
  2
*D30
340
0
  0
BLOCK_RECORD
  5
18702
330
7466
100
AcDbSymbolTableRecord
100
AcDbBlockTableRecord
  2
*D31
340
0
  0
BLOCK_RECORD
  5
1870E
330
7466
100
AcDbSymbolTableRecord
100
AcDbBlockTableRecord
  2
*D32
340
0
  0
BLOCK_RECORD
  5
18774
330
7466
100
AcDbSymbolTableRecord
100
AcDbBlockTableRecord
  2
*D33
340
0
  0
ENDTAB
  0
ENDSEC
  0
SECTION
  2
BLOCKS
  0
BLOCK
  5
7489
330
747D
100
AcDbEntity
  8
0
100
AcDbBlockBegin
  2
*MODEL_SPACE
 70
     0
 10
0.0
 20
0.0
 30
0.0
  3
*MODEL_SPACE
  1

  0
ENDBLK
  5
748A
330
747D
100
AcDbEntity
  8
0
100
AcDbBlockEnd
  0
BLOCK
  5
7487
330
747A
100
AcDbEntity
 67
     1
  8
0
100
AcDbBlockBegin
  2
*PAPER_SPACE
 70
     0
 10
0.0
 20
0.0
 30
0.0
  3
*PAPER_SPACE
  1

  0
ENDBLK
  5
7488
330
747A
100
AcDbEntity
 67
     1
  8
0
100
AcDbBlockEnd
  0
BLOCK
  5
F771
330
F770
100
AcDbEntity
  8
0
 48
50.0
100
AcDbBlockBegin
  2
_DOTSMALL
 70
     0
 10
0.0
 20
0.0
 30
0.0
  3
_DOTSMALL
  1

  0
LWPOLYLINE
  5
F772
330
F770
100
AcDbEntity
  8
0
  6
ByBlock
 62
     0
 48
50.0
100
AcDbPolyline
 90
        2
 70
     1
 43
0.5
 10
-0.0625
 20
0.0
 42
1.0
 10
0.0625
 20
0.0
 42
1.0
  0
ENDBLK
  5
F776
330
F770
100
AcDbEntity
  8
0
 48
50.0
100
AcDbBlockEnd
  0
BLOCK
  5
171FA
330
171F9
100
AcDbEntity
  8
0
 48
50.0
100
AcDbBlockBegin
  2
_DOT
 70
     0
 10
0.0
 20
0.0
 30
0.0
  3
_DOT
  1

  0
LWPOLYLINE
  5
171FB
330
171F9
100
AcDbEntity
  8
0
  6
ByBlock
 62
     0
 48
50.0
100
AcDbPolyline
 90
        2
 70
     1
 43
0.5
 10
-0.25
 20
0.0
 42
1.0
 10
0.25
 20
0.0
 42
1.0
  0
LINE
  5
171FC
330
171F9
100
AcDbEntity
  8
0
  6
ByBlock
 62
     0
 48
50.0
100
AcDbLine
 10
-0.5
 20
0.0
 30
0.0
 11
-1.0
 21
0.0
 31
0.0
  0
ENDBLK
  5
171FD
330
171F9
100
AcDbEntity
  8
0
 48
50.0
100
AcDbBlockEnd
  0
BLOCK
  5
179EC
330
179E2
100
AcDbEntity
  8
0
 48
50.0
100
AcDbBlockBegin
  2
*D2
 70
     1
 10
0.0
 20
0.0
 30
0.0
  3
*D2
  1

  0
LINE
  5
1821D
330
179E2
100
AcDbEntity
  8
寸法
 62
     0
 48
50.0
370
    -2
100
AcDbLine
 10
6669.305476892443
 20
1908.225840550706
 30
0.0
 11
7337.23263486457
 21
1908.225840550706
 31
0.0
  0
LINE
  5
1821E
330
179E2
100
AcDbEntity
  8
寸法
 62
     0
 48
50.0
370
    -2
100
AcDbLine
 10
6672.305476892439
 20
4228.225840550707
 30
0.0
 11
7337.232634864571
 21
4228.225840550707
 31
0.0
  0
LINE
  5
1821F
330
179E2
100
AcDbEntity
  8
寸法
 62
     0
 48
50.0
370
    -2
100
AcDbLine
 10
7277.232634864571
 20
1908.225840550706
 30
0.0
 11
7277.232634864571
 21
4228.225840550707
 31
0.0
  0
INSERT
  5
18220
330
179E2
100
AcDbEntity
  8
寸法
 62
     0
 48
50.0
370
    -2
100
AcDbBlockReference
  2
_DOTSMALL
 10
7277.232634864571
 20
1908.225840550706
 30
0.0
 41
100.0
 42
100.0
 43
100.0
 50
270.0
  0
INSERT
  5
18221
330
179E2
100
AcDbEntity
  8
寸法
 62
     0
 48
50.0
370
    -2
100
AcDbBlockReference
  2
_DOTSMALL
 10
7277.232634864571
 20
4228.225840550707
 30
0.0
 41
100.0
 42
100.0
 43
100.0
 50
90.0
  0
MTEXT
  5
18222
330
179E2
100
AcDbEntity
  8
寸法
 62
     7
 48
50.0
100
AcDbMText
 10
7177.220823840949
 20
3068.225840550708
 30
0.0
 40
120.0
 41
0.0
 71
     5
 72
     1
  1
\A1;2320
  7
STYLE1
 11
0.0000000000000001
 21
1.0
 31
0.0
 73
     1
 44
1.0
1001
ACAD
1000
MTEXTBEGIN
1070
    73
1070
     1
1070
    44
1040
1.0
1070
    74
1070
     0
1000
MTEXTEND
  0
POINT
  5
18223
330
179E2
100
AcDbEntity
  8
DEFPOINTS
 62
     0
 48
50.0
100
AcDbPoint
 10
6649.305476892443
 20
1908.225840550706
 30
0.0
  0
POINT
  5
18224
330
179E2
100
AcDbEntity
  8
DEFPOINTS
 62
     0
 48
50.0
100
AcDbPoint
 10
6652.30547689244
 20
4228.225840550707
 30
0.0
  0
POINT
  5
18225
330
179E2
100
AcDbEntity
  8
DEFPOINTS
 62
     0
 48
50.0
100
AcDbPoint
 10
7277.232634864571
 20
4228.225840550707
 30
0.0
  0
ENDBLK
  5
179ED
330
179E2
100
AcDbEntity
  8
0
 48
50.0
100
AcDbBlockEnd
  0
BLOCK
  5
179F8
330
179EE
100
AcDbEntity
  8
0
 48
50.0
100
AcDbBlockBegin
  2
*D3
 70
     1
 10
0.0
 20
0.0
 30
0.0
  3
*D3
  1

  0
LINE
  5
18214
330
179EE
100
AcDbEntity
  8
寸法
 62
     0
 48
50.0
370
    -2
100
AcDbLine
 10
6572.30547689244
 20
4250.036520162359
 30
0.0
 11
6572.30547689244
 21
4741.883294130011
 31
0.0
  0
LINE
  5
18215
330
179EE
100
AcDbEntity
  8
寸法
 62
     0
 48
50.0
370
    -2
100
AcDbLine
 10
3942.305476892439
 20
4299.227458673682
 30
0.0
 11
3942.305476892439
 21
4741.883294130011
 31
0.0
  0
LINE
  5
18216
330
179EE
100
AcDbEntity
  8
寸法
 62
     0
 48
50.0
370
    -2
100
AcDbLine
 10
6572.30547689244
 20
4681.883294130011
 30
0.0
 11
3942.305476892439
 21
4681.883294130011
 31
0.0
  0
INSERT
  5
18217
330
179EE
100
AcDbEntity
  8
寸法
 62
     0
 48
50.0
370
    -2
100
AcDbBlockReference
  2
_DOTSMALL
 10
6572.30547689244
 20
4681.883294130011
 30
0.0
 41
100.0
 42
100.0
 43
100.0
  0
INSERT
  5
18218
330
179EE
100
AcDbEntity
  8
寸法
 62
     0
 48
50.0
370
    -2
100
AcDbBlockReference
  2
_DOTSMALL
 10
3942.305476892439
 20
4681.883294130011
 30
0.0
 41
100.0
 42
100.0
 43
100.0
 50
180.0
  0
MTEXT
  5
18219
330
179EE
100
AcDbEntity
  8
寸法
 62
     7
 48
50.0
100
AcDbMText
 10
5297.075667921633
 20
4781.895105153632
 30
0.0
 40
120.0
 41
0.0
 71
     5
 72
     1
  1
\A1;柱外寸法2630
  7
STYLE1
 73
     1
 44
1.0
1001
ACAD
1000
MTEXTBEGIN
1070
    73
1070
     1
1070
    44
1040
1.0
1070
    74
1070
     0
1000
MTEXTEND
  0
POINT
  5
1821A
330
179EE
100
AcDbEntity
  8
DEFPOINTS
 62
     0
 48
50.0
100
AcDbPoint
 10
6572.30547689244
 20
4230.03652016236
 30
0.0
  0
POINT
  5
1821B
330
179EE
100
AcDbEntity
  8
DEFPOINTS
 62
     0
 48
50.0
100
AcDbPoint
 10
3942.305476892439
 20
4279.227458673682
 30
0.0
  0
POINT
  5
1821C
330
179EE
100
AcDbEntity
  8
DEFPOINTS
 62
     0
 48
50.0
100
AcDbPoint
 10
3942.305476892439
 20
4681.883294130011
 30
0.0
  0
ENDBLK
  5
179F9
330
179EE
100
AcDbEntity
  8
0
 48
50.0
100
AcDbBlockEnd
  0
BLOCK
  5
17A06
330
179FA
100
AcDbEntity
  8
0
 48
50.0
100
AcDbBlockBegin
  2
*D4
 70
     1
 10
0.0
 20
0.0
 30
0.0
  3
*D4
  1

  0
LINE
  5
18209
330
179FA
100
AcDbEntity
  8
寸法
 62
     0
 48
50.0
370
    -2
100
AcDbLine
 10
3942.305476892439
 20
4299.227458673682
 30
0.0
 11
3942.305476892439
 21
4741.883294130009
 31
0.0
  0
LINE
  5
1820A
330
179FA
100
AcDbEntity
  8
寸法
 62
     0
 48
50.0
370
    -2
100
AcDbLine
 10
3882.305476892439
 20
4303.22584055071
 30
0.0
 11
3882.305476892439
 21
4741.883294130009
 31
0.0
  0
LINE
  5
1820B
330
179FA
100
AcDbEntity
  8
寸法
 62
     0
 48
50.0
370
    -2
100
AcDbLine
 10
3942.305476892439
 20
4681.88329413001
 30
0.0
 11
4042.30547689244
 21
4681.88329413001
 31
0.0
  0
LINE
  5
1820C
330
179FA
100
AcDbEntity
  8
寸法
 62
     0
 48
50.0
370
    -2
100
AcDbLine
 10
3882.305476892439
 20
4681.88329413001
 30
0.0
 11
3463.029886341259
 21
4681.88329413001
 31
0.0
  0
LINE
  5
1820D
330
179FA
100
AcDbEntity
  8
寸法
 62
     0
 48
50.0
370
    -2
100
AcDbLine
 10
3942.305476892439
 20
4681.88329413001
 30
0.0
 11
3882.305476892439
 21
4681.88329413001
 31
0.0
  0
INSERT
  5
1820E
330
179FA
100
AcDbEntity
  8
寸法
 62
     0
 48
50.0
370
    -2
100
AcDbBlockReference
  2
_DOTSMALL
 10
3942.305476892439
 20
4681.88329413001
 30
0.0
 41
100.0
 42
100.0
 43
100.0
 50
180.0
  0
INSERT
  5
1820F
330
179FA
100
AcDbEntity
  8
寸法
 62
     0
 48
50.0
370
    -2
100
AcDbBlockReference
  2
_DOTSMALL
 10
3882.305476892439
 20
4681.88329413001
 30
0.0
 41
100.0
 42
100.0
 43
100.0
  0
MTEXT
  5
18210
330
179FA
100
AcDbEntity
  8
寸法
 62
     7
 48
50.0
100
AcDbMText
 10
3572.667681616849
 20
4781.88329413001
 30
0.0
 40
120.0
 41
0.0
 71
     5
 72
     1
  1
\A1;60
  7
STYLE1
 73
     1
 44
1.0
1001
ACAD
1000
MTEXTBEGIN
1070
    73
1070
     1
1070
    44
1040
1.0
1070
    74
1070
     0
1000
MTEXTEND
  0
POINT
  5
18211
330
179FA
100
AcDbEntity
  8
DEFPOINTS
 62
     0
 48
50.0
100
AcDbPoint
 10
3942.305476892439
 20
4279.227458673682
 30
0.0
  0
POINT
  5
18212
330
179FA
100
AcDbEntity
  8
DEFPOINTS
 62
     0
 48
50.0
100
AcDbPoint
 10
3882.305476892439
 20
4283.225840550709
 30
0.0
  0
POINT
  5
18213
330
179FA
100
AcDbEntity
  8
DEFPOINTS
 62
     0
 48
50.0
100
AcDbPoint
 10
3882.305476892439
 20
4681.88329413001
 30
0.0
  0
ENDBLK
  5
17A07
330
179FA
100
AcDbEntity
  8
0
 48
50.0
100
AcDbBlockEnd
  0
BLOCK
  5
17A12
330
17A08
100
AcDbEntity
  8
0
 48
50.0
100
AcDbBlockBegin
  2
*D5
 70
     1
 10
0.0
 20
0.0
 30
0.0
  3
*D5
  1

  0
LINE
  5
18200
330
17A08
100
AcDbEntity
  8
寸法
 62
     0
 48
50.0
370
    -2
100
AcDbLine
 10
6652.30547689244
 20
4248.225840550707
 30
0.0
 11
6652.30547689244
 21
4962.093980861627
 31
0.0
  0
LINE
  5
18201
330
17A08
100
AcDbEntity
  8
寸法
 62
     0
 48
50.0
370
    -2
100
AcDbLine
 10
3882.305476892439
 20
4303.22584055071
 30
0.0
 11
3882.305476892439
 21
4962.093980861627
 31
0.0
  0
LINE
  5
18202
330
17A08
100
AcDbEntity
  8
寸法
 62
     0
 48
50.0
370
    -2
100
AcDbLine
 10
6652.30547689244
 20
4902.093980861628
 30
0.0
 11
3882.305476892439
 21
4902.093980861628
 31
0.0
  0
INSERT
  5
18203
330
17A08
100
AcDbEntity
  8
寸法
 62
     0
 48
50.0
370
    -2
100
AcDbBlockReference
  2
_DOTSMALL
 10
6652.30547689244
 20
4902.093980861628
 30
0.0
 41
100.0
 42
100.0
 43
100.0
  0
INSERT
  5
18204
330
17A08
100
AcDbEntity
  8
寸法
 62
     0
 48
50.0
370
    -2
100
AcDbBlockReference
  2
_DOTSMALL
 10
3882.305476892439
 20
4902.093980861628
 30
0.0
 41
100.0
 42
100.0
 43
100.0
 50
180.0
  0
MTEXT
  5
18205
330
17A08
100
AcDbEntity
  8
寸法
 62
     7
 48
50.0
100
AcDbMText
 10
5285.664401779815
 20
5002.105791885249
 30
0.0
 40
120.0
 41
0.0
 71
     5
 72
     1
  1
\A1;2770
  7
STYLE1
 73
     1
 44
1.0
1001
ACAD
1000
MTEXTBEGIN
1070
    73
1070
     1
1070
    44
1040
1.0
1070
    74
1070
     0
1000
MTEXTEND
  0
POINT
  5
18206
330
17A08
100
AcDbEntity
  8
DEFPOINTS
 62
     0
 48
50.0
100
AcDbPoint
 10
6652.30547689244
 20
4228.225840550707
 30
0.0
  0
POINT
  5
18207
330
17A08
100
AcDbEntity
  8
DEFPOINTS
 62
     0
 48
50.0
100
AcDbPoint
 10
3882.305476892439
 20
4283.225840550709
 30
0.0
  0
POINT
  5
18208
330
17A08
100
AcDbEntity
  8
DEFPOINTS
 62
     0
 48
50.0
100
AcDbPoint
 10
3882.305476892439
 20
4902.093980861628
 30
0.0
  0
ENDBLK
  5
17A13
330
17A08
100
AcDbEntity
  8
0
 48
50.0
100
AcDbBlockEnd
  0
BLOCK
  5
17A1F
330
17A14
100
AcDbEntity
  8
0
 48
50.0
100
AcDbBlockBegin
  2
*D6
 70
     1
 10
0.0
 20
0.0
 30
0.0
  3
*D6
  1

  0
LINE
  5
181F6
330
17A14
100
AcDbEntity
  8
寸法
 62
     0
 48
50.0
370
    -2
100
AcDbLine
 10
6572.30547689244
 20
4250.036520162359
 30
0.0
 11
6572.30547689244
 21
4741.883294130011
 31
0.0
  0
LINE
  5
181F7
330
17A14
100
AcDbEntity
  8
寸法
 62
     0
 48
50.0
370
    -2
100
AcDbLine
 10
6652.30547689244
 20
4248.225840550707
 30
0.0
 11
6652.30547689244
 21
4741.883294130011
 31
0.0
  0
LINE
  5
181F8
330
17A14
100
AcDbEntity
  8
寸法
 62
     0
 48
50.0
370
    -2
100
AcDbLine
 10
6572.30547689244
 20
4681.883294130011
 30
0.0
 11
6652.30547689244
 21
4681.883294130011
 31
0.0
  0
LINE
  5
181F9
330
17A14
100
AcDbEntity
  8
寸法
 62
     0
 48
50.0
370
    -2
100
AcDbLine
 10
6652.30547689244
 20
4681.883294130011
 30
0.0
 11
6964.399965081418
 21
4681.883294130011
 31
0.0
  0
INSERT
  5
181FA
330
17A14
100
AcDbEntity
  8
寸法
 62
     0
 48
50.0
370
    -2
100
AcDbBlockReference
  2
_DOTSMALL
 10
6572.30547689244
 20
4681.883294130011
 30
0.0
 41
100.0
 42
100.0
 43
100.0
 50
180.0
  0
INSERT
  5
181FB
330
17A14
100
AcDbEntity
  8
寸法
 62
     0
 48
50.0
370
    -2
100
AcDbBlockReference
  2
_DOTSMALL
 10
6652.30547689244
 20
4681.883294130011
 30
0.0
 41
100.0
 42
100.0
 43
100.0
  0
MTEXT
  5
181FC
330
17A14
100
AcDbEntity
  8
寸法
 62
     7
 48
50.0
100
AcDbMText
 10
6858.35272098693
 20
4781.88329413001
 30
0.0
 40
120.0
 41
0.0
 71
     5
 72
     1
  1
\A1;80
  7
STYLE1
 73
     1
 44
1.0
1001
ACAD
1000
MTEXTBEGIN
1070
    73
1070
     1
1070
    44
1040
1.0
1070
    74
1070
     0
1000
MTEXTEND
  0
POINT
  5
181FD
330
17A14
100
AcDbEntity
  8
DEFPOINTS
 62
     0
 48
50.0
100
AcDbPoint
 10
6572.30547689244
 20
4230.03652016236
 30
0.0
  0
POINT
  5
181FE
330
17A14
100
AcDbEntity
  8
DEFPOINTS
 62
     0
 48
50.0
100
AcDbPoint
 10
6652.30547689244
 20
4228.225840550707
 30
0.0
  0
POINT
  5
181FF
330
17A14
100
AcDbEntity
  8
DEFPOINTS
 62
     0
 48
50.0
100
AcDbPoint
 10
6652.30547689244
 20
4681.883294130011
 30
0.0
  0
ENDBLK
  5
17A20
330
17A14
100
AcDbEntity
  8
0
 48
50.0
100
AcDbBlockEnd
  0
BLOCK
  5
17A2B
330
17A21
100
AcDbEntity
  8
0
 48
50.0
100
AcDbBlockBegin
  2
*D7
 70
     1
 10
0.0
 20
0.0
 30
0.0
  3
*D7
  1

  0
LINE
  5
181ED
330
17A21
100
AcDbEntity
  8
寸法
 62
     0
 48
50.0
370
    -2
100
AcDbLine
 10
4069.805476892439
 20
1588.225840550702
 30
0.0
 11
4069.805476892439
 21
1262.178511250326
 31
0.0
  0
LINE
  5
181EE
330
17A21
100
AcDbEntity
  8
寸法
 62
     0
 48
50.0
370
    -2
100
AcDbLine
 10
3869.805476892443
 20
1588.225840550703
 30
0.0
 11
3869.805476892443
 21
1262.178511250326
 31
0.0
  0
LINE
  5
181EF
330
17A21
100
AcDbEntity
  8
寸法
 62
     0
 48
50.0
370
    -2
100
AcDbLine
 10
4069.805476892439
 20
1322.178511250325
 30
0.0
 11
3869.805476892443
 21
1322.178511250325
 31
0.0
  0
INSERT
  5
181F0
330
17A21
100
AcDbEntity
  8
寸法
 62
     0
 48
50.0
370
    -2
100
AcDbBlockReference
  2
_DOTSMALL
 10
4069.805476892439
 20
1322.178511250325
 30
0.0
 41
100.0
 42
100.0
 43
100.0
  0
INSERT
  5
181F1
330
17A21
100
AcDbEntity
  8
寸法
 62
     0
 48
50.0
370
    -2
100
AcDbBlockReference
  2
_DOTSMALL
 10
3869.805476892443
 20
1322.178511250325
 30
0.0
 41
100.0
 42
100.0
 43
100.0
 50
180.0
  0
MTEXT
  5
181F2
330
17A21
100
AcDbEntity
  8
寸法
 62
     7
 48
50.0
100
AcDbMText
 10
3969.805476892442
 20
1422.190322273948
 30
0.0
 40
120.0
 41
0.0
 71
     5
 72
     1
  1
\A1;200
  7
STYLE1
 73
     1
 44
1.0
1001
ACAD
1000
MTEXTBEGIN
1070
    73
1070
     1
1070
    44
1040
1.0
1070
    74
1070
     0
1000
MTEXTEND
  0
POINT
  5
181F3
330
17A21
100
AcDbEntity
  8
DEFPOINTS
 62
     0
 48
50.0
100
AcDbPoint
 10
4069.805476892439
 20
1608.225840550702
 30
0.0
  0
POINT
  5
181F4
330
17A21
100
AcDbEntity
  8
DEFPOINTS
 62
     0
 48
50.0
100
AcDbPoint
 10
3869.805476892443
 20
1608.225840550703
 30
0.0
  0
POINT
  5
181F5
330
17A21
100
AcDbEntity
  8
DEFPOINTS
 62
     0
 48
50.0
100
AcDbPoint
 10
3869.805476892443
 20
1322.178511250325
 30
0.0
  0
ENDBLK
  5
17A2C
330
17A21
100
AcDbEntity
  8
0
 48
50.0
100
AcDbBlockEnd
  0
BLOCK
  5
17A37
330
17A2D
100
AcDbEntity
  8
0
 48
50.0
100
AcDbBlockBegin
  2
*D8
 70
     1
 10
0.0
 20
0.0
 30
0.0
  3
*D8
  1

  0
LINE
  5
181E4
330
17A2D
100
AcDbEntity
  8
寸法
 62
     0
 48
50.0
370
    -2
100
AcDbLine
 10
3849.805476892444
 20
1608.225840550703
 30
0.0
 11
3660.305473645806
 21
1608.225840550703
 31
0.0
  0
LINE
  5
181E5
330
17A2D
100
AcDbEntity
  8
寸法
 62
     0
 48
50.0
370
    -2
100
AcDbLine
 10
3824.80547689244
 20
1808.225840550704
 30
0.0
 11
3660.305473645806
 21
1808.225840550704
 31
0.0
  0
LINE
  5
181E6
330
17A2D
100
AcDbEntity
  8
寸法
 62
     0
 48
50.0
370
    -2
100
AcDbLine
 10
3720.305473645806
 20
1608.225840550703
 30
0.0
 11
3720.305473645806
 21
1808.225840550704
 31
0.0
  0
INSERT
  5
181E7
330
17A2D
100
AcDbEntity
  8
寸法
 62
     0
 48
50.0
370
    -2
100
AcDbBlockReference
  2
_DOTSMALL
 10
3720.305473645806
 20
1608.225840550703
 30
0.0
 41
100.0
 42
100.0
 43
100.0
 50
270.0
  0
INSERT
  5
181E8
330
17A2D
100
AcDbEntity
  8
寸法
 62
     0
 48
50.0
370
    -2
100
AcDbBlockReference
  2
_DOTSMALL
 10
3720.305473645806
 20
1808.225840550704
 30
0.0
 41
100.0
 42
100.0
 43
100.0
 50
90.0
  0
MTEXT
  5
181E9
330
17A2D
100
AcDbEntity
  8
寸法
 62
     7
 48
50.0
100
AcDbMText
 10
3620.293662622183
 20
1708.225840550704
 30
0.0
 40
120.0
 41
0.0
 71
     5
 72
     1
  1
\A1;200
  7
STYLE1
 11
0.0000000000000001
 21
1.0
 31
0.0
 73
     1
 44
1.0
1001
ACAD
1000
MTEXTBEGIN
1070
    73
1070
     1
1070
    44
1040
1.0
1070
    74
1070
     0
1000
MTEXTEND
  0
POINT
  5
181EA
330
17A2D
100
AcDbEntity
  8
DEFPOINTS
 62
     0
 48
50.0
100
AcDbPoint
 10
3869.805476892443
 20
1608.225840550703
 30
0.0
  0
POINT
  5
181EB
330
17A2D
100
AcDbEntity
  8
DEFPOINTS
 62
     0
 48
50.0
100
AcDbPoint
 10
3844.805476892439
 20
1808.225840550704
 30
0.0
  0
POINT
  5
181EC
330
17A2D
100
AcDbEntity
  8
DEFPOINTS
 62
     0
 48
50.0
100
AcDbPoint
 10
3720.305473645806
 20
1808.225840550704
 30
0.0
  0
ENDBLK
  5
17A38
330
17A2D
100
AcDbEntity
  8
0
 48
50.0
100
AcDbBlockEnd
  0
BLOCK
  5
17A44
330
17A39
100
AcDbEntity
  8
0
 48
50.0
100
AcDbBlockBegin
  2
*D9
 70
     1
 10
0.0
 20
0.0
 30
0.0
  3
*D9
  1

  0
LINE
  5
181DA
330
17A39
100
AcDbEntity
  8
寸法
 62
     0
 48
50.0
370
    -2
100
AcDbLine
 10
3881.709763183542
 20
4282.523547620366
 30
0.0
 11
3265.775324078286
 21
4300.237697894695
 31
0.0
  0
LINE
  5
181DB
330
17A39
100
AcDbEntity
  8
寸法
 62
     0
 48
50.0
370
    -2
100
AcDbLine
 10
3877.656307626916
 20
4141.581823854653
 30
0.0
 11
3261.72186852166
 21
4159.295974128982
 31
0.0
  0
LINE
  5
181DC
330
17A39
100
AcDbEntity
  8
寸法
 62
     0
 48
50.0
370
    -2
100
AcDbLine
 10
3321.69707012409
 20
4157.571099424035
 30
0.0
 11
3325.750525680717
 21
4298.512823189748
 31
0.0
  0
LINE
  5
181DD
330
17A39
100
AcDbEntity
  8
寸法
 62
     0
 48
50.0
370
    -2
100
AcDbLine
 10
3325.750525680717
 20
4298.512823189748
 30
0.0
 11
3336.099773910401
 21
4658.364032804334
 31
0.0
  0
INSERT
  5
181DE
330
17A39
100
AcDbEntity
  8
寸法
 62
     0
 48
50.0
370
    -2
100
AcDbBlockReference
  2
_DOTSMALL
 10
3321.69707012409
 20
4157.571099424035
 30
0.0
 41
100.0
 42
100.0
 43
100.0
 50
268.3526390256378
  0
INSERT
  5
181DF
330
17A39
100
AcDbEntity
  8
寸法
 62
     0
 48
50.0
370
    -2
100
AcDbBlockReference
  2
_DOTSMALL
 10
3325.750525680717
 20
4298.512823189748
 30
0.0
 41
100.0
 42
100.0
 43
100.0
 50
88.35263902563776
  0
MTEXT
  5
181E0
330
17A39
100
AcDbEntity
  8
寸法
 62
     7
 48
50.0
100
AcDbMText
 10
3232.40387604563
 20
4531.292553840645
 30
0.0
 40
120.0
 41
0.0
 71
     5
 72
     1
  1
\A1;141
  7
STYLE1
 11
0.0287479117491237
 21
0.9995866933738488
 31
0.0
 73
     1
 44
1.0
1001
ACAD
1000
MTEXTBEGIN
1070
    73
1070
     1
1070
    44
1040
1.0
1070
    74
1070
     0
1000
MTEXTEND
  0
POINT
  5
181E1
330
17A39
100
AcDbEntity
  8
DEFPOINTS
 62
     0
 48
50.0
100
AcDbPoint
 10
3901.701497051018
 20
4281.948589385383
 30
0.0
  0
POINT
  5
181E2
330
17A39
100
AcDbEntity
  8
DEFPOINTS
 62
     0
 48
50.0
100
AcDbPoint
 10
3897.648041494392
 20
4141.006865619671
 30
0.0
  0
POINT
  5
181E3
330
17A39
100
AcDbEntity
  8
DEFPOINTS
 62
     0
 48
50.0
100
AcDbPoint
 10
3321.69707012409
 20
4157.571099424035
 30
0.0
  0
ENDBLK
  5
17A45
330
17A39
100
AcDbEntity
  8
0
 48
50.0
100
AcDbBlockEnd
  0
BLOCK
  5
17A52
330
17A46
100
AcDbEntity
  8
0
 48
50.0
100
AcDbBlockBegin
  2
*D10
 70
     1
 10
0.0
 20
0.0
 30
0.0
  3
*D10
  1

  0
LINE
  5
181CF
330
17A46
100
AcDbEntity
  8
寸法
 62
     0
 48
50.0
370
    -2
100
AcDbLine
 10
3922.305476892439
 20
1958.225840550704
 30
0.0
 11
3258.652767734143
 21
1958.225840550705
 31
0.0
  0
LINE
  5
181D0
330
17A46
100
AcDbEntity
  8
寸法
 62
     0
 48
50.0
370
    -2
100
AcDbLine
 10
3867.30547689244
 20
1908.225840550704
 30
0.0
 11
3258.652767734143
 21
1908.225840550705
 31
0.0
  0
LINE
  5
181D1
330
17A46
100
AcDbEntity
  8
寸法
 62
     0
 48
50.0
370
    -2
100
AcDbLine
 10
3318.652767734143
 20
1958.225840550705
 30
0.0
 11
3318.652767734143
 21
2058.225840550704
 31
0.0
  0
LINE
  5
181D2
330
17A46
100
AcDbEntity
  8
寸法
 62
     0
 48
50.0
370
    -2
100
AcDbLine
 10
3318.652767734143
 20
1908.225840550705
 30
0.0
 11
3318.652767734143
 21
1496.131352361723
 31
0.0
  0
LINE
  5
181D3
330
17A46
100
AcDbEntity
  8
寸法
 62
     0
 48
50.0
370
    -2
100
AcDbLine
 10
3318.652767734143
 20
1958.225840550705
 30
0.0
 11
3318.652767734143
 21
1908.225840550705
 31
0.0
  0
INSERT
  5
181D4
330
17A46
100
AcDbEntity
  8
寸法
 62
     0
 48
50.0
370
    -2
100
AcDbBlockReference
  2
_DOTSMALL
 10
3318.652767734143
 20
1958.225840550705
 30
0.0
 41
100.0
 42
100.0
 43
100.0
 50
270.0
  0
INSERT
  5
181D5
330
17A46
100
AcDbEntity
  8
寸法
 62
     0
 48
50.0
370
    -2
100
AcDbBlockReference
  2
_DOTSMALL
 10
3318.652767734143
 20
1908.225840550705
 30
0.0
 41
100.0
 42
100.0
 43
100.0
 50
90.0
  0
MTEXT
  5
181D6
330
17A46
100
AcDbEntity
  8
寸法
 62
     7
 48
50.0
100
AcDbMText
 10
3218.652767734142
 20
1602.178596456211
 30
0.0
 40
120.0
 41
0.0
 71
     5
 72
     1
  1
\A1;50
  7
STYLE1
 11
0.0000000000000001
 21
1.0
 31
0.0
 73
     1
 44
1.0
1001
ACAD
1000
MTEXTBEGIN
1070
    73
1070
     1
1070
    44
1040
1.0
1070
    74
1070
     0
1000
MTEXTEND
  0
POINT
  5
181D7
330
17A46
100
AcDbEntity
  8
DEFPOINTS
 62
     0
 48
50.0
100
AcDbPoint
 10
3942.305476892439
 20
1958.225840550704
 30
0.0
  0
POINT
  5
181D8
330
17A46
100
AcDbEntity
  8
DEFPOINTS
 62
     0
 48
50.0
100
AcDbPoint
 10
3887.30547689244
 20
1908.225840550704
 30
0.0
  0
POINT
  5
181D9
330
17A46
100
AcDbEntity
  8
DEFPOINTS
 62
     0
 48
50.0
100
AcDbPoint
 10
3318.652767734143
 20
1908.225840550705
 30
0.0
  0
ENDBLK
  5
17A53
330
17A46
100
AcDbEntity
  8
0
 48
50.0
100
AcDbBlockEnd
  0
BLOCK
  5
17A5F
330
17A54
100
AcDbEntity
  8
0
 48
50.0
100
AcDbBlockBegin
  2
*D11
 70
     1
 10
0.0
 20
0.0
 30
0.0
  3
*D11
  1

  0
LINE
  5
181C5
330
17A54
100
AcDbEntity
  8
寸法
 62
     0
 48
50.0
370
    -2
100
AcDbLine
 10
3867.30547689244
 20
1908.225840550704
 30
0.0
 11
2973.666094963081
 21
1908.225840550705
 31
0.0
  0
LINE
  5
181C6
330
17A54
100
AcDbEntity
  8
寸法
 62
     0
 48
50.0
370
    -2
100
AcDbLine
 10
3298.652767734142
 20
1808.225840550704
 30
0.0
 11
2973.666094963081
 21
1808.225840550704
 31
0.0
  0
LINE
  5
181C7
330
17A54
100
AcDbEntity
  8
寸法
 62
     0
 48
50.0
370
    -2
100
AcDbLine
 10
3033.666094963081
 20
1908.225840550705
 30
0.0
 11
3033.666094963081
 21
1808.225840550704
 31
0.0
  0
LINE
  5
181C8
330
17A54
100
AcDbEntity
  8
寸法
 62
     0
 48
50.0
370
    -2
100
AcDbLine
 10
3033.666094963081
 20
1808.225840550704
 30
0.0
 11
3033.666094963081
 21
1436.131352361722
 31
0.0
  0
INSERT
  5
181C9
330
17A54
100
AcDbEntity
  8
寸法
 62
     0
 48
50.0
370
    -2
100
AcDbBlockReference
  2
_DOTSMALL
 10
3033.666094963081
 20
1908.225840550705
 30
0.0
 41
100.0
 42
100.0
 43
100.0
 50
90.0
  0
INSERT
  5
181CA
330
17A54
100
AcDbEntity
  8
寸法
 62
     0
 48
50.0
370
    -2
100
AcDbBlockReference
  2
_DOTSMALL
 10
3033.666094963081
 20
1808.225840550704
 30
0.0
 41
100.0
 42
100.0
 43
100.0
 50
270.0
  0
MTEXT
  5
181CB
330
17A54
100
AcDbEntity
  8
寸法
 62
     7
 48
50.0
100
AcDbMText
 10
2933.666094963081
 20
1572.178596456211
 30
0.0
 40
120.0
 41
0.0
 71
     5
 72
     1
  1
\A1;100
  7
STYLE1
 11
0.0000000000000001
 21
1.0
 31
0.0
 73
     1
 44
1.0
1001
ACAD
1000
MTEXTBEGIN
1070
    73
1070
     1
1070
    44
1040
1.0
1070
    74
1070
     0
1000
MTEXTEND
  0
POINT
  5
181CC
330
17A54
100
AcDbEntity
  8
DEFPOINTS
 62
     0
 48
50.0
100
AcDbPoint
 10
3887.30547689244
 20
1908.225840550704
 30
0.0
  0
POINT
  5
181CD
330
17A54
100
AcDbEntity
  8
DEFPOINTS
 62
     0
 48
50.0
100
AcDbPoint
 10
3318.652767734142
 20
1808.225840550704
 30
0.0
  0
POINT
  5
181CE
330
17A54
100
AcDbEntity
  8
DEFPOINTS
 62
     0
 48
50.0
100
AcDbPoint
 10
3033.666094963081
 20
1808.225840550704
 30
0.0
  0
ENDBLK
  5
17A60
330
17A54
100
AcDbEntity
  8
0
 48
50.0
100
AcDbBlockEnd
  0
BLOCK
  5
17A6B
330
17A61
100
AcDbEntity
  8
0
 48
50.0
100
AcDbBlockBegin
  2
*D12
 70
     1
 10
0.0
 20
0.0
 30
0.0
  3
*D12
  1

  0
LINE
  5
181BC
330
17A61
100
AcDbEntity
  8
寸法
 62
     0
 48
50.0
370
    -2
100
AcDbLine
 10
3922.305476892439
 20
1908.225840550704
 30
0.0
 11
2973.666094963081
 21
1908.225840550705
 31
0.0
  0
LINE
  5
181BD
330
17A61
100
AcDbEntity
  8
寸法
 62
     0
 48
50.0
370
    -2
100
AcDbLine
 10
3862.30547689244
 20
4283.225840550708
 30
0.0
 11
2973.666094963082
 21
4283.225840550708
 31
0.0
  0
LINE
  5
181BE
330
17A61
100
AcDbEntity
  8
寸法
 62
     0
 48
50.0
370
    -2
100
AcDbLine
 10
3033.666094963081
 20
1908.225840550705
 30
0.0
 11
3033.666094963082
 21
4283.225840550708
 31
0.0
  0
INSERT
  5
181BF
330
17A61
100
AcDbEntity
  8
寸法
 62
     0
 48
50.0
370
    -2
100
AcDbBlockReference
  2
_DOTSMALL
 10
3033.666094963081
 20
1908.225840550705
 30
0.0
 41
100.0
 42
100.0
 43
100.0
 50
270.0
  0
INSERT
  5
181C0
330
17A61
100
AcDbEntity
  8
寸法
 62
     0
 48
50.0
370
    -2
100
AcDbBlockReference
  2
_DOTSMALL
 10
3033.666094963082
 20
4283.225840550708
 30
0.0
 41
100.0
 42
100.0
 43
100.0
 50
90.0
  0
MTEXT
  5
181C1
330
17A61
100
AcDbEntity
  8
寸法
 62
     7
 48
50.0
100
AcDbMText
 10
2933.654283939458
 20
3068.225840550707
 30
0.0
 40
120.0
 41
0.0
 71
     5
 72
     1
  1
\A1;2375
  7
STYLE1
 11
0.0000000000000001
 21
1.0
 31
0.0
 73
     1
 44
1.0
1001
ACAD
1000
MTEXTBEGIN
1070
    73
1070
     1
1070
    44
1040
1.0
1070
    74
1070
     0
1000
MTEXTEND
  0
POINT
  5
181C2
330
17A61
100
AcDbEntity
  8
DEFPOINTS
 62
     0
 48
50.0
100
AcDbPoint
 10
3942.305476892439
 20
1908.225840550704
 30
0.0
  0
POINT
  5
181C3
330
17A61
100
AcDbEntity
  8
DEFPOINTS
 62
     0
 48
50.0
100
AcDbPoint
 10
3882.305476892439
 20
4283.225840550708
 30
0.0
  0
POINT
  5
181C4
330
17A61
100
AcDbEntity
  8
DEFPOINTS
 62
     0
 48
50.0
100
AcDbPoint
 10
3033.666094963082
 20
4283.225840550708
 30
0.0
  0
ENDBLK
  5
17A6C
330
17A61
100
AcDbEntity
  8
0
 48
50.0
100
AcDbBlockEnd
  0
BLOCK
  5
17A77
330
17A6D
100
AcDbEntity
  8
0
 48
50.0
100
AcDbBlockBegin
  2
*D13
 70
     1
 10
0.0
 20
0.0
 30
0.0
  3
*D13
  1

  0
LINE
  5
181B3
330
17A6D
100
AcDbEntity
  8
寸法
 62
     0
 48
50.0
370
    -2
100
AcDbLine
 10
3922.305476892439
 20
4048.225840550705
 30
0.0
 11
3258.652767734143
 21
4048.225840550705
 31
0.0
  0
LINE
  5
181B4
330
17A6D
100
AcDbEntity
  8
寸法
 62
     0
 48
50.0
370
    -2
100
AcDbLine
 10
3922.305476892439
 20
1958.225840550704
 30
0.0
 11
3258.652767734143
 21
1958.225840550705
 31
0.0
  0
LINE
  5
181B5
330
17A6D
100
AcDbEntity
  8
寸法
 62
     0
 48
50.0
370
    -2
100
AcDbLine
 10
3318.652767734143
 20
4048.225840550705
 30
0.0
 11
3318.652767734143
 21
1958.225840550705
 31
0.0
  0
INSERT
  5
181B6
330
17A6D
100
AcDbEntity
  8
寸法
 62
     0
 48
50.0
370
    -2
100
AcDbBlockReference
  2
_DOTSMALL
 10
3318.652767734143
 20
4048.225840550705
 30
0.0
 41
100.0
 42
100.0
 43
100.0
 50
90.0
  0
INSERT
  5
181B7
330
17A6D
100
AcDbEntity
  8
寸法
 62
     0
 48
50.0
370
    -2
100
AcDbBlockReference
  2
_DOTSMALL
 10
3318.652767734143
 20
1958.225840550705
 30
0.0
 41
100.0
 42
100.0
 43
100.0
 50
270.0
  0
MTEXT
  5
181B8
330
17A6D
100
AcDbEntity
  8
寸法
 62
     7
 48
50.0
100
AcDbMText
 10
3218.64095671052
 20
3068.225840550707
 30
0.0
 40
120.0
 41
0.0
 71
     5
 72
     1
  1
\A1;2090
  7
STYLE1
 11
0.0000000000000001
 21
1.0
 31
0.0
 73
     1
 44
1.0
1001
ACAD
1000
MTEXTBEGIN
1070
    73
1070
     1
1070
    44
1040
1.0
1070
    74
1070
     0
1000
MTEXTEND
  0
POINT
  5
181B9
330
17A6D
100
AcDbEntity
  8
DEFPOINTS
 62
     0
 48
50.0
100
AcDbPoint
 10
3942.305476892439
 20
4048.225840550705
 30
0.0
  0
POINT
  5
181BA
330
17A6D
100
AcDbEntity
  8
DEFPOINTS
 62
     0
 48
50.0
100
AcDbPoint
 10
3942.305476892439
 20
1958.225840550704
 30
0.0
  0
POINT
  5
181BB
330
17A6D
100
AcDbEntity
  8
DEFPOINTS
 62
     0
 48
50.0
100
AcDbPoint
 10
3318.652767734143
 20
1958.225840550705
 30
0.0
  0
ENDBLK
  5
17A78
330
17A6D
100
AcDbEntity
  8
0
 48
50.0
100
AcDbBlockEnd
  0
BLOCK
  5
17A83
330
17A79
100
AcDbEntity
  8
0
 48
50.0
100
AcDbBlockBegin
  2
*D14
 70
     1
 10
0.0
 20
0.0
 30
0.0
  3
*D14
  1

  0
LINE
  5
181AA
330
17A79
100
AcDbEntity
  8
寸法
 62
     0
 48
50.0
370
    -2
100
AcDbLine
 10
9092.402506229687
 20
3991.225840550706
 30
0.0
 11
8260.818803958478
 21
3991.225840550706
 31
0.0
  0
LINE
  5
181AB
330
17A79
100
AcDbEntity
  8
寸法
 62
     0
 48
50.0
370
    -2
100
AcDbLine
 10
9092.402506229687
 20
1966.225840550706
 30
0.0
 11
8260.818803958478
 21
1966.225840550706
 31
0.0
  0
LINE
  5
181AC
330
17A79
100
AcDbEntity
  8
寸法
 62
     0
 48
50.0
370
    -2
100
AcDbLine
 10
8320.818803958479
 20
3991.225840550706
 30
0.0
 11
8320.818803958479
 21
1966.225840550706
 31
0.0
  0
INSERT
  5
181AD
330
17A79
100
AcDbEntity
  8
寸法
 62
     0
 48
50.0
370
    -2
100
AcDbBlockReference
  2
_DOTSMALL
 10
8320.818803958479
 20
3991.225840550706
 30
0.0
 41
100.0
 42
100.0
 43
100.0
 50
90.0
  0
INSERT
  5
181AE
330
17A79
100
AcDbEntity
  8
寸法
 62
     0
 48
50.0
370
    -2
100
AcDbBlockReference
  2
_DOTSMALL
 10
8320.818803958479
 20
1966.225840550706
 30
0.0
 41
100.0
 42
100.0
 43
100.0
 50
270.0
  0
MTEXT
  5
181AF
330
17A79
100
AcDbEntity
  8
寸法
 62
     7
 48
50.0
100
AcDbMText
 10
8220.806992934857
 20
2999.450514426007
 30
0.0
 40
120.0
 41
0.0
 71
     5
 72
     1
  1
\A1;有効開口部高サ2025
  7
STYLE1
 11
0.0000000000000001
 21
1.0
 31
0.0
 73
     1
 44
1.0
1001
ACAD
1000
MTEXTBEGIN
1070
    73
1070
     1
1070
    44
1040
1.0
1070
    74
1070
     0
1000
MTEXTEND
  0
POINT
  5
181B0
330
17A79
100
AcDbEntity
  8
DEFPOINTS
 62
     0
 48
50.0
100
AcDbPoint
 10
9112.402506229688
 20
3991.225840550706
 30
0.0
  0
POINT
  5
181B1
330
17A79
100
AcDbEntity
  8
DEFPOINTS
 62
     0
 48
50.0
100
AcDbPoint
 10
9112.402506229688
 20
1966.225840550706
 30
0.0
  0
POINT
  5
181B2
330
17A79
100
AcDbEntity
  8
DEFPOINTS
 62
     0
 48
50.0
100
AcDbPoint
 10
8320.818803958479
 20
1966.225840550706
 30
0.0
  0
ENDBLK
  5
17A84
330
17A79
100
AcDbEntity
  8
0
 48
50.0
100
AcDbBlockEnd
  0
BLOCK
  5
17A8F
330
17A85
100
AcDbEntity
  8
0
 48
50.0
100
AcDbBlockBegin
  2
*D15
 70
     1
 10
0.0
 20
0.0
 30
0.0
  3
*D15
  1

  0
LINE
  5
181A1
330
17A85
100
AcDbEntity
  8
寸法
 62
     0
 48
50.0
370
    -2
100
AcDbLine
 10
8764.402506229687
 20
1588.225840550705
 30
0.0
 11
8764.402506229687
 21
1262.178511250327
 31
0.0
  0
LINE
  5
181A2
330
17A85
100
AcDbEntity
  8
寸法
 62
     0
 48
50.0
370
    -2
100
AcDbLine
 10
8564.402506229686
 20
1588.225840550705
 30
0.0
 11
8564.402506229686
 21
1262.178511250327
 31
0.0
  0
LINE
  5
181A3
330
17A85
100
AcDbEntity
  8
寸法
 62
     0
 48
50.0
370
    -2
100
AcDbLine
 10
8764.402506229687
 20
1322.178511250327
 30
0.0
 11
8564.402506229686
 21
1322.178511250327
 31
0.0
  0
INSERT
  5
181A4
330
17A85
100
AcDbEntity
  8
寸法
 62
     0
 48
50.0
370
    -2
100
AcDbBlockReference
  2
_DOTSMALL
 10
8764.402506229687
 20
1322.178511250327
 30
0.0
 41
100.0
 42
100.0
 43
100.0
  0
INSERT
  5
181A5
330
17A85
100
AcDbEntity
  8
寸法
 62
     0
 48
50.0
370
    -2
100
AcDbBlockReference
  2
_DOTSMALL
 10
8564.402506229686
 20
1322.178511250327
 30
0.0
 41
100.0
 42
100.0
 43
100.0
 50
180.0
  0
MTEXT
  5
181A6
330
17A85
100
AcDbEntity
  8
寸法
 62
     7
 48
50.0
100
AcDbMText
 10
8664.402506229686
 20
1422.19032227395
 30
0.0
 40
120.0
 41
0.0
 71
     5
 72
     1
  1
\A1;200
  7
STYLE1
 73
     1
 44
1.0
1001
ACAD
1000
MTEXTBEGIN
1070
    73
1070
     1
1070
    44
1040
1.0
1070
    74
1070
     0
1000
MTEXTEND
  0
POINT
  5
181A7
330
17A85
100
AcDbEntity
  8
DEFPOINTS
 62
     0
 48
50.0
100
AcDbPoint
 10
8764.402506229687
 20
1608.225840550705
 30
0.0
  0
POINT
  5
181A8
330
17A85
100
AcDbEntity
  8
DEFPOINTS
 62
     0
 48
50.0
100
AcDbPoint
 10
8564.402506229686
 20
1608.225840550705
 30
0.0
  0
POINT
  5
181A9
330
17A85
100
AcDbEntity
  8
DEFPOINTS
 62
     0
 48
50.0
100
AcDbPoint
 10
8564.402506229686
 20
1322.178511250327
 30
0.0
  0
ENDBLK
  5
17A90
330
17A85
100
AcDbEntity
  8
0
 48
50.0
100
AcDbBlockEnd
  0
BLOCK
  5
17A9D
330
17A91
100
AcDbEntity
  8
0
 48
50.0
100
AcDbBlockBegin
  2
*D16
 70
     1
 10
0.0
 20
0.0
 30
0.0
  3
*D16
  1

  0
LINE
  5
188D6
330
17A91
100
AcDbEntity
  8
寸法
 62
     0
 48
50.0
370
    -2
100
AcDbLine
 10
8664.402506229661
 20
9886.952473986756
 30
0.0
 11
8664.402506229661
 21
10226.95247398675
 31
0.0
  0
LINE
  5
188D7
330
17A91
100
AcDbEntity
  8
寸法
 62
     0
 48
50.0
370
    -2
100
AcDbLine
 10
8719.402506229696
 20
9886.952473986756
 30
0.0
 11
8719.402506229696
 21
10226.95247398675
 31
0.0
  0
LINE
  5
188D8
330
17A91
100
AcDbEntity
  8
寸法
 62
     0
 48
50.0
370
    -2
100
AcDbLine
 10
8719.402506229696
 20
10166.95247398675
 30
0.0
 11
8819.402506229698
 21
10166.95247398675
 31
0.0
  0
LINE
  5
188D9
330
17A91
100
AcDbEntity
  8
寸法
 62
     0
 48
50.0
370
    -2
100
AcDbLine
 10
8664.402506229661
 20
10166.95247398675
 30
0.0
 11
8247.431943481185
 21
10166.95247398675
 31
0.0
  0
LINE
  5
188DA
330
17A91
100
AcDbEntity
  8
寸法
 62
     0
 48
50.0
370
    -2
100
AcDbLine
 10
8719.402506229696
 20
10166.95247398675
 30
0.0
 11
8664.402506229661
 21
10166.95247398675
 31
0.0
  0
INSERT
  5
188DB
330
17A91
100
AcDbEntity
  8
寸法
 62
     0
 48
50.0
370
    -2
100
AcDbBlockReference
  2
_DOTSMALL
 10
8719.402506229696
 20
10166.95247398675
 30
0.0
 41
100.0
 42
100.0
 43
100.0
 50
180.0
  0
INSERT
  5
188DC
330
17A91
100
AcDbEntity
  8
寸法
 62
     0
 48
50.0
370
    -2
100
AcDbBlockReference
  2
_DOTSMALL
 10
8664.402506229661
 20
10166.95247398675
 30
0.0
 41
100.0
 42
100.0
 43
100.0
  0
MTEXT
  5
188DD
330
17A91
100
AcDbEntity
  8
寸法
 62
     7
 48
50.0
100
AcDbMText
 10
8355.917224855422
 20
10266.95247398675
 30
0.0
 40
120.0
 41
0.0
 71
     5
 72
     1
  1
\A1;55
  7
STYLE1
 73
     1
 44
1.0
1001
ACAD
1000
MTEXTBEGIN
1070
    73
1070
     1
1070
    44
1040
1.0
1070
    74
1070
     0
1000
MTEXTEND
  0
POINT
  5
188DE
330
17A91
100
AcDbEntity
  8
DEFPOINTS
 62
     0
 48
50.0
100
AcDbPoint
 10
8664.402506229661
 20
9866.952473986756
 30
0.0
  0
POINT
  5
188DF
330
17A91
100
AcDbEntity
  8
DEFPOINTS
 62
     0
 48
50.0
100
AcDbPoint
 10
8719.402506229696
 20
9866.952473986756
 30
0.0
  0
POINT
  5
188E0
330
17A91
100
AcDbEntity
  8
DEFPOINTS
 62
     0
 48
50.0
100
AcDbPoint
 10
8719.402506229696
 20
10166.95247398675
 30
0.0
  0
ENDBLK
  5
17A9E
330
17A91
100
AcDbEntity
  8
0
 48
50.0
100
AcDbBlockEnd
  0
BLOCK
  5
17AA9
330
17A9F
100
AcDbEntity
  8
0
 48
50.0
100
AcDbBlockBegin
  2
*D17
 70
     1
 10
0.0
 20
0.0
 30
0.0
  3
*D17
  1

  0
LINE
  5
188CD
330
17A9F
100
AcDbEntity
  8
寸法
 62
     0
 48
50.0
370
    -2
100
AcDbLine
 10
8686.543522381006
 20
9366.952473986804
 30
0.0
 11
8590.09162284776
 21
9006.989084442205
 31
0.0
  0
LINE
  5
188CE
330
17A9F
100
AcDbEntity
  8
寸法
 62
     0
 48
50.0
370
    -2
100
AcDbLine
 10
9959.543522381075
 20
9366.952473986795
 30
0.0
 11
9863.091622847832
 21
9006.989084442205
 31
0.0
  0
LINE
  5
188CF
330
17A9F
100
AcDbEntity
  8
寸法
 62
     0
 48
50.0
370
    -2
100
AcDbLine
 10
8606.168574393626
 20
9066.989084442203
 30
0.0
 11
9879.168574393698
 21
9066.989084442203
 31
0.0
  0
INSERT
  5
188D0
330
17A9F
100
AcDbEntity
  8
寸法
 62
     0
 48
50.0
370
    -2
100
AcDbBlockReference
  2
_DOTSMALL
 10
8606.168574393626
 20
9066.989084442203
 30
0.0
 41
100.0
 42
100.0
 43
100.0
 50
180.0
  0
INSERT
  5
188D1
330
17A9F
100
AcDbEntity
  8
寸法
 62
     0
 48
50.0
370
    -2
100
AcDbBlockReference
  2
_DOTSMALL
 10
9879.168574393698
 20
9066.989084442203
 30
0.0
 41
100.0
 42
100.0
 43
100.0
  0
MTEXT
  5
188D2
330
17A9F
100
AcDbEntity
  8
寸法
 62
     7
 48
50.0
100
AcDbMText
 10
9242.668574393663
 20
9167.000895465825
 30
0.0
 40
120.0
 41
0.0
 71
     5
 72
     1
  1
\A1;1273
  7
STYLE1
 73
     1
 44
1.0
1001
ACAD
1000
MTEXTBEGIN
1070
    73
1070
     1
1070
    44
1040
1.0
1070
    74
1070
     0
1000
MTEXTEND
  0
POINT
  5
188D3
330
17A9F
100
AcDbEntity
  8
DEFPOINTS
 62
     0
 48
50.0
100
AcDbPoint
 10
8691.902506229629
 20
9386.952473986802
 30
0.0
  0
POINT
  5
188D4
330
17A9F
100
AcDbEntity
  8
DEFPOINTS
 62
     0
 48
50.0
100
AcDbPoint
 10
9964.902506229698
 20
9386.952473986795
 30
0.0
  0
POINT
  5
188D5
330
17A9F
100
AcDbEntity
  8
DEFPOINTS
 62
     0
 48
50.0
100
AcDbPoint
 10
9879.168574393698
 20
9066.989084442203
 30
0.0
  0
ENDBLK
  5
17AAA
330
17A9F
100
AcDbEntity
  8
0
 48
50.0
100
AcDbBlockEnd
  0
BLOCK
  5
17AB7
330
17AAB
100
AcDbEntity
  8
0
 48
50.0
100
AcDbBlockBegin
  2
*D18
 70
     1
 10
0.0
 20
0.0
 30
0.0
  3
*D18
  1

  0
LINE
  5
188C2
330
17AAB
100
AcDbEntity
  8
寸法
 62
     0
 48
50.0
370
    -2
100
AcDbLine
 10
11239.40250622969
 20
9886.952473986852
 30
0.0
 11
11239.40250622969
 21
10226.95247398675
 31
0.0
  0
LINE
  5
188C3
330
17AAB
100
AcDbEntity
  8
寸法
 62
     0
 48
50.0
370
    -2
100
AcDbLine
 10
11294.40250622969
 20
9886.952473986852
 30
0.0
 11
11294.40250622969
 21
10226.95247398675
 31
0.0
  0
LINE
  5
188C4
330
17AAB
100
AcDbEntity
  8
寸法
 62
     0
 48
50.0
370
    -2
100
AcDbLine
 10
11239.40250622969
 20
10166.95247398675
 30
0.0
 11
11139.40250622969
 21
10166.95247398675
 31
0.0
  0
LINE
  5
188C5
330
17AAB
100
AcDbEntity
  8
寸法
 62
     0
 48
50.0
370
    -2
100
AcDbLine
 10
11294.40250622969
 20
10166.95247398675
 30
0.0
 11
11711.37306897817
 21
10166.95247398675
 31
0.0
  0
LINE
  5
188C6
330
17AAB
100
AcDbEntity
  8
寸法
 62
     0
 48
50.0
370
    -2
100
AcDbLine
 10
11239.40250622969
 20
10166.95247398675
 30
0.0
 11
11294.40250622969
 21
10166.95247398675
 31
0.0
  0
INSERT
  5
188C7
330
17AAB
100
AcDbEntity
  8
寸法
 62
     0
 48
50.0
370
    -2
100
AcDbBlockReference
  2
_DOTSMALL
 10
11239.40250622969
 20
10166.95247398675
 30
0.0
 41
100.0
 42
100.0
 43
100.0
  0
INSERT
  5
188C8
330
17AAB
100
AcDbEntity
  8
寸法
 62
     0
 48
50.0
370
    -2
100
AcDbBlockReference
  2
_DOTSMALL
 10
11294.40250622969
 20
10166.95247398675
 30
0.0
 41
100.0
 42
100.0
 43
100.0
 50
180.0
  0
MTEXT
  5
188C9
330
17AAB
100
AcDbEntity
  8
寸法
 62
     7
 48
50.0
100
AcDbMText
 10
11602.88778760393
 20
10266.95247398675
 30
0.0
 40
120.0
 41
0.0
 71
     5
 72
     1
  1
\A1;55
  7
STYLE1
 73
     1
 44
1.0
1001
ACAD
1000
MTEXTBEGIN
1070
    73
1070
     1
1070
    44
1040
1.0
1070
    74
1070
     0
1000
MTEXTEND
  0
POINT
  5
188CA
330
17AAB
100
AcDbEntity
  8
DEFPOINTS
 62
     0
 48
50.0
100
AcDbPoint
 10
11239.40250622969
 20
9866.952473986851
 30
0.0
  0
POINT
  5
188CB
330
17AAB
100
AcDbEntity
  8
DEFPOINTS
 62
     0
 48
50.0
100
AcDbPoint
 10
11294.40250622969
 20
9866.952473986851
 30
0.0
  0
POINT
  5
188CC
330
17AAB
100
AcDbEntity
  8
DEFPOINTS
 62
     0
 48
50.0
100
AcDbPoint
 10
11294.40250622969
 20
10166.95247398675
 30
0.0
  0
ENDBLK
  5
17AB8
330
17AAB
100
AcDbEntity
  8
0
 48
50.0
100
AcDbBlockEnd
  0
BLOCK
  5
17AC3
330
17AB9
100
AcDbEntity
  8
0
 48
50.0
100
AcDbBlockBegin
  2
*D19
 70
     1
 10
0.0
 20
0.0
 30
0.0
  3
*D19
  1

  0
LINE
  5
188B9
330
17AB9
100
AcDbEntity
  8
寸法
 62
     0
 48
50.0
370
    -2
100
AcDbLine
 10
8719.402506229696
 20
9886.952473986756
 30
0.0
 11
8719.402506229696
 21
10226.95247398675
 31
0.0
  0
LINE
  5
188BA
330
17AB9
100
AcDbEntity
  8
寸法
 62
     0
 48
50.0
370
    -2
100
AcDbLine
 10
11239.40250622969
 20
9886.952473986852
 30
0.0
 11
11239.40250622969
 21
10226.95247398675
 31
0.0
  0
LINE
  5
188BB
330
17AB9
100
AcDbEntity
  8
寸法
 62
     0
 48
50.0
370
    -2
100
AcDbLine
 10
8719.402506229696
 20
10166.95247398675
 30
0.0
 11
11239.40250622969
 21
10166.95247398675
 31
0.0
  0
INSERT
  5
188BC
330
17AB9
100
AcDbEntity
  8
寸法
 62
     0
 48
50.0
370
    -2
100
AcDbBlockReference
  2
_DOTSMALL
 10
8719.402506229696
 20
10166.95247398675
 30
0.0
 41
100.0
 42
100.0
 43
100.0
 50
180.0
  0
INSERT
  5
188BD
330
17AB9
100
AcDbEntity
  8
寸法
 62
     0
 48
50.0
370
    -2
100
AcDbBlockReference
  2
_DOTSMALL
 10
11239.40250622969
 20
10166.95247398675
 30
0.0
 41
100.0
 42
100.0
 43
100.0
  0
MTEXT
  5
188BE
330
17AB9
100
AcDbEntity
  8
寸法
 62
     7
 48
50.0
100
AcDbMText
 10
9979.402506229694
 20
10266.96428501038
 30
0.0
 40
120.0
 41
0.0
 71
     5
 72
     1
  1
\A1;6X420=2520
  7
STYLE1
 73
     1
 44
1.0
1001
ACAD
1000
MTEXTBEGIN
1070
    73
1070
     1
1070
    44
1040
1.0
1070
    74
1070
     0
1000
MTEXTEND
  0
POINT
  5
188BF
330
17AB9
100
AcDbEntity
  8
DEFPOINTS
 62
     0
 48
50.0
100
AcDbPoint
 10
8719.402506229696
 20
9866.952473986756
 30
0.0
  0
POINT
  5
188C0
330
17AB9
100
AcDbEntity
  8
DEFPOINTS
 62
     0
 48
50.0
100
AcDbPoint
 10
11239.40250622969
 20
9866.952473986851
 30
0.0
  0
POINT
  5
188C1
330
17AB9
100
AcDbEntity
  8
DEFPOINTS
 62
     0
 48
50.0
100
AcDbPoint
 10
11239.40250622969
 20
10166.95247398675
 30
0.0
  0
ENDBLK
  5
17AC4
330
17AB9
100
AcDbEntity
  8
0
 48
50.0
100
AcDbBlockEnd
  0
BLOCK
  5
17ADB
330
17AD1
100
AcDbEntity
  8
0
 48
50.0
100
AcDbBlockBegin
  2
*D20
 70
     1
 10
0.0
 20
0.0
 30
0.0
  3
*D20
  1

  0
LINE
  5
188B0
330
17AD1
100
AcDbEntity
  8
寸法
 62
     0
 48
50.0
370
    -2
100
AcDbLine
 10
9986.543522381076
 20
9366.952473986861
 30
0.0
 11
9890.091622847812
 21
9006.989084442205
 31
0.0
  0
LINE
  5
188B1
330
17AD1
100
AcDbEntity
  8
寸法
 62
     0
 48
50.0
370
    -2
100
AcDbLine
 10
11259.54352238108
 20
9366.952473986854
 30
0.0
 11
11163.09162284782
 21
9006.989084442205
 31
0.0
  0
LINE
  5
188B2
330
17AD1
100
AcDbEntity
  8
寸法
 62
     0
 48
50.0
370
    -2
100
AcDbLine
 10
9906.168574393682
 20
9066.989084442203
 30
0.0
 11
11179.16857439369
 21
9066.989084442203
 31
0.0
  0
INSERT
  5
188B3
330
17AD1
100
AcDbEntity
  8
寸法
 62
     0
 48
50.0
370
    -2
100
AcDbBlockReference
  2
_DOTSMALL
 10
9906.168574393682
 20
9066.989084442203
 30
0.0
 41
100.0
 42
100.0
 43
100.0
 50
180.0
  0
INSERT
  5
188B4
330
17AD1
100
AcDbEntity
  8
寸法
 62
     0
 48
50.0
370
    -2
100
AcDbBlockReference
  2
_DOTSMALL
 10
11179.16857439369
 20
9066.989084442203
 30
0.0
 41
100.0
 42
100.0
 43
100.0
  0
MTEXT
  5
188B5
330
17AD1
100
AcDbEntity
  8
寸法
 62
     7
 48
50.0
100
AcDbMText
 10
10612.29041354371
 20
9167.000895465825
 30
0.0
 40
120.0
 41
0.0
 71
     5
 72
     1
  1
\A1;1273
  7
STYLE1
 73
     1
 44
1.0
1001
ACAD
1000
MTEXTBEGIN
1070
    73
1070
     1
1070
    44
1040
1.0
1070
    74
1070
     0
1000
MTEXTEND
  0
POINT
  5
188B6
330
17AD1
100
AcDbEntity
  8
DEFPOINTS
 62
     0
 48
50.0
100
AcDbPoint
 10
9991.902506229697
 20
9386.952473986861
 30
0.0
  0
POINT
  5
188B7
330
17AD1
100
AcDbEntity
  8
DEFPOINTS
 62
     0
 48
50.0
100
AcDbPoint
 10
11264.90250622971
 20
9386.952473986854
 30
0.0
  0
POINT
  5
188B8
330
17AD1
100
AcDbEntity
  8
DEFPOINTS
 62
     0
 48
50.0
100
AcDbPoint
 10
11179.16857439369
 20
9066.989084442203
 30
0.0
  0
ENDBLK
  5
17ADC
330
17AD1
100
AcDbEntity
  8
0
 48
50.0
100
AcDbBlockEnd
  0
BLOCK
  5
17AE7
330
17ADD
100
AcDbEntity
  8
0
 48
50.0
100
AcDbBlockBegin
  2
*D21
 70
     1
 10
0.0
 20
0.0
 30
0.0
  3
*D21
  1

  0
LINE
  5
188A7
330
17ADD
100
AcDbEntity
  8
寸法
 62
     0
 48
50.0
370
    -2
100
AcDbLine
 10
11314.40250622969
 20
9866.952473986851
 30
0.0
 11
12354.4025062297
 21
9866.952473986849
 31
0.0
  0
LINE
  5
188A8
330
17ADD
100
AcDbEntity
  8
寸法
 62
     0
 48
50.0
370
    -2
100
AcDbLine
 10
11314.40250622967
 20
7236.952473986839
 30
0.0
 11
12354.4025062297
 21
7236.952473986839
 31
0.0
  0
LINE
  5
188A9
330
17ADD
100
AcDbEntity
  8
寸法
 62
     0
 48
50.0
370
    -2
100
AcDbLine
 10
12294.4025062297
 20
9866.952473986849
 30
0.0
 11
12294.4025062297
 21
7236.952473986839
 31
0.0
  0
INSERT
  5
188AA
330
17ADD
100
AcDbEntity
  8
寸法
 62
     0
 48
50.0
370
    -2
100
AcDbBlockReference
  2
_DOTSMALL
 10
12294.4025062297
 20
9866.952473986849
 30
0.0
 41
100.0
 42
100.0
 43
100.0
 50
90.0
  0
INSERT
  5
188AB
330
17ADD
100
AcDbEntity
  8
寸法
 62
     0
 48
50.0
370
    -2
100
AcDbBlockReference
  2
_DOTSMALL
 10
12294.4025062297
 20
7236.952473986839
 30
0.0
 41
100.0
 42
100.0
 43
100.0
 50
270.0
  0
MTEXT
  5
188AC
330
17ADD
100
AcDbEntity
  8
寸法
 62
     7
 48
50.0
100
AcDbMText
 10
12194.39069520608
 20
8551.952473986844
 30
0.0
 40
120.0
 41
0.0
 71
     5
 72
     1
  1
\A1;2630
  7
STYLE1
 11
0.0000000000000001
 21
1.0
 31
0.0
 73
     1
 44
1.0
1001
ACAD
1000
MTEXTBEGIN
1070
    73
1070
     1
1070
    44
1040
1.0
1070
    74
1070
     0
1000
MTEXTEND
  0
POINT
  5
188AD
330
17ADD
100
AcDbEntity
  8
DEFPOINTS
 62
     0
 48
50.0
100
AcDbPoint
 10
11294.40250622969
 20
9866.952473986851
 30
0.0
  0
POINT
  5
188AE
330
17ADD
100
AcDbEntity
  8
DEFPOINTS
 62
     0
 48
50.0
100
AcDbPoint
 10
11294.40250622967
 20
7236.952473986839
 30
0.0
  0
POINT
  5
188AF
330
17ADD
100
AcDbEntity
  8
DEFPOINTS
 62
     0
 48
50.0
100
AcDbPoint
 10
12294.4025062297
 20
7236.952473986839
 30
0.0
  0
ENDBLK
  5
17AE8
330
17ADD
100
AcDbEntity
  8
0
 48
50.0
100
AcDbBlockEnd
  0
BLOCK
  5
17AF3
330
17AE9
100
AcDbEntity
  8
0
 48
50.0
100
AcDbBlockBegin
  2
*D22
 70
     1
 10
0.0
 20
0.0
 30
0.0
  3
*D22
  1

  0
LINE
  5
1889E
330
17AE9
100
AcDbEntity
  8
寸法
 62
     0
 48
50.0
370
    -2
100
AcDbLine
 10
11314.40250622969
 20
9811.952473986854
 30
0.0
 11
12054.40250622969
 21
9811.952473986854
 31
0.0
  0
LINE
  5
1889F
330
17AE9
100
AcDbEntity
  8
寸法
 62
     0
 48
50.0
370
    -2
100
AcDbLine
 10
11314.40250622967
 20
7291.952473986836
 30
0.0
 11
12054.40250622969
 21
7291.952473986836
 31
0.0
  0
LINE
  5
188A0
330
17AE9
100
AcDbEntity
  8
寸法
 62
     0
 48
50.0
370
    -2
100
AcDbLine
 10
11994.40250622969
 20
9811.952473986854
 30
0.0
 11
11994.40250622969
 21
7291.952473986836
 31
0.0
  0
INSERT
  5
188A1
330
17AE9
100
AcDbEntity
  8
寸法
 62
     0
 48
50.0
370
    -2
100
AcDbBlockReference
  2
_DOTSMALL
 10
11994.40250622969
 20
9811.952473986854
 30
0.0
 41
100.0
 42
100.0
 43
100.0
 50
90.0
  0
INSERT
  5
188A2
330
17AE9
100
AcDbEntity
  8
寸法
 62
     0
 48
50.0
370
    -2
100
AcDbBlockReference
  2
_DOTSMALL
 10
11994.40250622969
 20
7291.952473986836
 30
0.0
 41
100.0
 42
100.0
 43
100.0
 50
270.0
  0
MTEXT
  5
188A3
330
17AE9
100
AcDbEntity
  8
寸法
 62
     7
 48
50.0
100
AcDbMText
 10
11894.39069520606
 20
8551.952473986844
 30
0.0
 40
120.0
 41
0.0
 71
     5
 72
     1
  1
\A1;6X420=2520
  7
STYLE1
 11
0.0000000000000001
 21
1.0
 31
0.0
 73
     1
 44
1.0
1001
ACAD
1000
MTEXTBEGIN
1070
    73
1070
     1
1070
    44
1040
1.0
1070
    74
1070
     0
1000
MTEXTEND
  0
POINT
  5
188A4
330
17AE9
100
AcDbEntity
  8
DEFPOINTS
 62
     0
 48
50.0
100
AcDbPoint
 10
11294.40250622969
 20
9811.952473986854
 30
0.0
  0
POINT
  5
188A5
330
17AE9
100
AcDbEntity
  8
DEFPOINTS
 62
     0
 48
50.0
100
AcDbPoint
 10
11294.40250622967
 20
7291.952473986836
 30
0.0
  0
POINT
  5
188A6
330
17AE9
100
AcDbEntity
  8
DEFPOINTS
 62
     0
 48
50.0
100
AcDbPoint
 10
11994.40250622969
 20
7291.952473986836
 30
0.0
  0
ENDBLK
  5
17AF4
330
17AE9
100
AcDbEntity
  8
0
 48
50.0
100
AcDbBlockEnd
  0
BLOCK
  5
17B01
330
17AF5
100
AcDbEntity
  8
0
 48
50.0
100
AcDbBlockBegin
  2
*D23
 70
     1
 10
0.0
 20
0.0
 30
0.0
  3
*D23
  1

  0
LINE
  5
18893
330
17AF5
100
AcDbEntity
  8
寸法
 62
     0
 48
50.0
370
    -2
100
AcDbLine
 10
11314.40250622967
 20
7291.952473986836
 30
0.0
 11
12054.40250622967
 21
7291.952473986836
 31
0.0
  0
LINE
  5
18894
330
17AF5
100
AcDbEntity
  8
寸法
 62
     0
 48
50.0
370
    -2
100
AcDbLine
 10
11314.40250622967
 20
7236.952473986839
 30
0.0
 11
12054.40250622967
 21
7236.952473986839
 31
0.0
  0
LINE
  5
18895
330
17AF5
100
AcDbEntity
  8
寸法
 62
     0
 48
50.0
370
    -2
100
AcDbLine
 10
11994.40250622967
 20
7291.952473986836
 30
0.0
 11
11994.40250622967
 21
7391.952473986837
 31
0.0
  0
LINE
  5
18896
330
17AF5
100
AcDbEntity
  8
寸法
 62
     0
 48
50.0
370
    -2
100
AcDbLine
 10
11994.40250622967
 20
7236.952473986839
 30
0.0
 11
11994.40250622967
 21
6819.981911238348
 31
0.0
  0
LINE
  5
18897
330
17AF5
100
AcDbEntity
  8
寸法
 62
     0
 48
50.0
370
    -2
100
AcDbLine
 10
11994.40250622967
 20
7291.952473986836
 30
0.0
 11
11994.40250622967
 21
7236.952473986839
 31
0.0
  0
INSERT
  5
18898
330
17AF5
100
AcDbEntity
  8
寸法
 62
     0
 48
50.0
370
    -2
100
AcDbBlockReference
  2
_DOTSMALL
 10
11994.40250622967
 20
7291.952473986836
 30
0.0
 41
100.0
 42
100.0
 43
100.0
 50
270.0
  0
INSERT
  5
18899
330
17AF5
100
AcDbEntity
  8
寸法
 62
     0
 48
50.0
370
    -2
100
AcDbBlockReference
  2
_DOTSMALL
 10
11994.40250622967
 20
7236.952473986839
 30
0.0
 41
100.0
 42
100.0
 43
100.0
 50
90.0
  0
MTEXT
  5
1889A
330
17AF5
100
AcDbEntity
  8
寸法
 62
     7
 48
50.0
100
AcDbMText
 10
11894.40250622967
 20
6928.467192612588
 30
0.0
 40
120.0
 41
0.0
 71
     5
 72
     1
  1
\A1;55
  7
STYLE1
 11
0.0000000000000001
 21
1.0
 31
0.0
 73
     1
 44
1.0
1001
ACAD
1000
MTEXTBEGIN
1070
    73
1070
     1
1070
    44
1040
1.0
1070
    74
1070
     0
1000
MTEXTEND
  0
POINT
  5
1889B
330
17AF5
100
AcDbEntity
  8
DEFPOINTS
 62
     0
 48
50.0
100
AcDbPoint
 10
11294.40250622967
 20
7291.952473986836
 30
0.0
  0
POINT
  5
1889C
330
17AF5
100
AcDbEntity
  8
DEFPOINTS
 62
     0
 48
50.0
100
AcDbPoint
 10
11294.40250622967
 20
7236.952473986839
 30
0.0
  0
POINT
  5
1889D
330
17AF5
100
AcDbEntity
  8
DEFPOINTS
 62
     0
 48
50.0
100
AcDbPoint
 10
11994.40250622967
 20
7236.952473986839
 30
0.0
  0
ENDBLK
  5
17B02
330
17AF5
100
AcDbEntity
  8
0
 48
50.0
100
AcDbBlockEnd
  0
BLOCK
  5
17B0D
330
17B03
100
AcDbEntity
  8
0
 48
50.0
100
AcDbBlockBegin
  2
*D24
 70
     1
 10
0.0
 20
0.0
 30
0.0
  3
*D24
  1

  0
LINE
  5
1888A
330
17B03
100
AcDbEntity
  8
寸法
 62
     0
 48
50.0
370
    -2
100
AcDbLine
 10
11285.90250622969
 20
9831.593490138228
 30
0.0
 11
11754.40250622969
 21
9706.059293484248
 31
0.0
  0
LINE
  5
1888B
330
17B03
100
AcDbEntity
  8
寸法
 62
     0
 48
50.0
370
    -2
100
AcDbLine
 10
11285.90250622969
 20
9381.593490138232
 30
0.0
 11
11754.40250622969
 21
9256.059293484252
 31
0.0
  0
LINE
  5
1888C
330
17B03
100
AcDbEntity
  8
寸法
 62
     0
 48
50.0
370
    -2
100
AcDbLine
 10
11694.40250622969
 20
9722.136245030116
 30
0.0
 11
11694.40250622969
 21
9272.136245030118
 31
0.0
  0
INSERT
  5
1888D
330
17B03
100
AcDbEntity
  8
寸法
 62
     0
 48
50.0
370
    -2
100
AcDbBlockReference
  2
_DOTSMALL
 10
11694.40250622969
 20
9722.136245030116
 30
0.0
 41
100.0
 42
100.0
 43
100.0
 50
90.0
  0
INSERT
  5
1888E
330
17B03
100
AcDbEntity
  8
寸法
 62
     0
 48
50.0
370
    -2
100
AcDbBlockReference
  2
_DOTSMALL
 10
11694.40250622969
 20
9272.136245030118
 30
0.0
 41
100.0
 42
100.0
 43
100.0
 50
270.0
  0
MTEXT
  5
1888F
330
17B03
100
AcDbEntity
  8
寸法
 62
     7
 48
50.0
100
AcDbMText
 10
11594.40250622969
 20
9497.136245030118
 30
0.0
 40
120.0
 41
0.0
 71
     5
 72
     1
  1
\A1;450
  7
STYLE1
 11
0.0000000000000001
 21
1.0
 31
0.0
 73
     1
 44
1.0
1001
ACAD
1000
MTEXTBEGIN
1070
    73
1070
     1
1070
    44
1040
1.0
1070
    74
1070
     0
1000
MTEXTEND
  0
POINT
  5
18890
330
17B03
100
AcDbEntity
  8
DEFPOINTS
 62
     0
 48
50.0
100
AcDbPoint
 10
11265.90250622969
 20
9836.952473986851
 30
0.0
  0
POINT
  5
18891
330
17B03
100
AcDbEntity
  8
DEFPOINTS
 62
     0
 48
50.0
100
AcDbPoint
 10
11265.90250622969
 20
9386.952473986854
 30
0.0
  0
POINT
  5
18892
330
17B03
100
AcDbEntity
  8
DEFPOINTS
 62
     0
 48
50.0
100
AcDbPoint
 10
11694.40250622969
 20
9272.136245030118
 30
0.0
  0
ENDBLK
  5
17B0E
330
17B03
100
AcDbEntity
  8
0
 48
50.0
100
AcDbBlockEnd
  0
BLOCK
  5
17B1B
330
17B0F
100
AcDbEntity
  8
0
 48
50.0
100
AcDbBlockBegin
  2
*D25
 70
     1
 10
0.0
 20
0.0
 30
0.0
  3
*D25
  1

  0
LINE
  5
1887F
330
17B0F
100
AcDbEntity
  8
寸法
 62
     0
 48
50.0
370
    -2
100
AcDbLine
 10
11314.40250622969
 20
9866.952473986851
 30
0.0
 11
12054.40250622969
 21
9866.952473986851
 31
0.0
  0
LINE
  5
18880
330
17B0F
100
AcDbEntity
  8
寸法
 62
     0
 48
50.0
370
    -2
100
AcDbLine
 10
11314.40250622969
 20
9811.952473986854
 30
0.0
 11
12054.40250622969
 21
9811.952473986854
 31
0.0
  0
LINE
  5
18881
330
17B0F
100
AcDbEntity
  8
寸法
 62
     0
 48
50.0
370
    -2
100
AcDbLine
 10
11994.40250622969
 20
9811.952473986854
 30
0.0
 11
11994.40250622969
 21
9711.952473986855
 31
0.0
  0
LINE
  5
18882
330
17B0F
100
AcDbEntity
  8
寸法
 62
     0
 48
50.0
370
    -2
100
AcDbLine
 10
11994.40250622969
 20
9866.952473986851
 30
0.0
 11
11994.40250622969
 21
10283.92303673532
 31
0.0
  0
LINE
  5
18883
330
17B0F
100
AcDbEntity
  8
寸法
 62
     0
 48
50.0
370
    -2
100
AcDbLine
 10
11994.40250622969
 20
9811.952473986854
 30
0.0
 11
11994.40250622969
 21
9866.952473986851
 31
0.0
  0
INSERT
  5
18884
330
17B0F
100
AcDbEntity
  8
寸法
 62
     0
 48
50.0
370
    -2
100
AcDbBlockReference
  2
_DOTSMALL
 10
11994.40250622969
 20
9811.952473986854
 30
0.0
 41
100.0
 42
100.0
 43
100.0
 50
90.0
  0
INSERT
  5
18885
330
17B0F
100
AcDbEntity
  8
寸法
 62
     0
 48
50.0
370
    -2
100
AcDbBlockReference
  2
_DOTSMALL
 10
11994.40250622969
 20
9866.952473986851
 30
0.0
 41
100.0
 42
100.0
 43
100.0
 50
270.0
  0
MTEXT
  5
18886
330
17B0F
100
AcDbEntity
  8
寸法
 62
     7
 48
50.0
100
AcDbMText
 10
11894.40250622968
 20
10175.43775536109
 30
0.0
 40
120.0
 41
0.0
 71
     5
 72
     1
  1
\A1;55
  7
STYLE1
 11
0.0000000000000001
 21
1.0
 31
0.0
 73
     1
 44
1.0
1001
ACAD
1000
MTEXTBEGIN
1070
    73
1070
     1
1070
    44
1040
1.0
1070
    74
1070
     0
1000
MTEXTEND
  0
POINT
  5
18887
330
17B0F
100
AcDbEntity
  8
DEFPOINTS
 62
     0
 48
50.0
100
AcDbPoint
 10
11294.40250622969
 20
9866.952473986851
 30
0.0
  0
POINT
  5
18888
330
17B0F
100
AcDbEntity
  8
DEFPOINTS
 62
     0
 48
50.0
100
AcDbPoint
 10
11294.40250622969
 20
9811.952473986854
 30
0.0
  0
POINT
  5
18889
330
17B0F
100
AcDbEntity
  8
DEFPOINTS
 62
     0
 48
50.0
100
AcDbPoint
 10
11994.40250622969
 20
9811.952473986854
 30
0.0
  0
ENDBLK
  5
17B1C
330
17B0F
100
AcDbEntity
  8
0
 48
50.0
100
AcDbBlockEnd
  0
BLOCK
  5
17B33
330
17B29
100
AcDbEntity
  8
0
 48
50.0
100
AcDbBlockBegin
  2
*D26
 70
     1
 10
0.0
 20
0.0
 30
0.0
  3
*D26
  1

  0
LINE
  5
18124
330
17B29
100
AcDbEntity
  8
寸法
 62
     0
 48
50.0
370
    -2
100
AcDbLine
 10
11294.40250622968
 20
4303.225840550709
 30
0.0
 11
11294.40250622968
 21
4742.319009890176
 31
0.0
  0
LINE
  5
18125
330
17B29
100
AcDbEntity
  8
寸法
 62
     0
 48
50.0
370
    -2
100
AcDbLine
 10
8664.402506229686
 20
4303.225840550712
 30
0.0
 11
8664.402506229686
 21
4742.319009890176
 31
0.0
  0
LINE
  5
18126
330
17B29
100
AcDbEntity
  8
寸法
 62
     0
 48
50.0
370
    -2
100
AcDbLine
 10
11294.40250622968
 20
4682.319009890176
 30
0.0
 11
8664.402506229686
 21
4682.319009890176
 31
0.0
  0
INSERT
  5
18127
330
17B29
100
AcDbEntity
  8
寸法
 62
     0
 48
50.0
370
    -2
100
AcDbBlockReference
  2
_DOTSMALL
 10
11294.40250622968
 20
4682.319009890176
 30
0.0
 41
100.0
 42
100.0
 43
100.0
  0
INSERT
  5
18128
330
17B29
100
AcDbEntity
  8
寸法
 62
     0
 48
50.0
370
    -2
100
AcDbBlockReference
  2
_DOTSMALL
 10
8664.402506229686
 20
4682.319009890176
 30
0.0
 41
100.0
 42
100.0
 43
100.0
 50
180.0
  0
MTEXT
  5
18129
330
17B29
100
AcDbEntity
  8
寸法
 62
     7
 48
50.0
100
AcDbMText
 10
9979.402506229684
 20
4782.330820913798
 30
0.0
 40
120.0
 41
0.0
 71
     5
 72
     1
  1
\A1;柱外寸法2630
  7
STYLE1
 73
     1
 44
1.0
1001
ACAD
1000
MTEXTBEGIN
1070
    73
1070
     1
1070
    44
1040
1.0
1070
    74
1070
     0
1000
MTEXTEND
  0
POINT
  5
1812A
330
17B29
100
AcDbEntity
  8
DEFPOINTS
 62
     0
 48
50.0
100
AcDbPoint
 10
11294.40250622968
 20
4283.225840550708
 30
0.0
  0
POINT
  5
1812B
330
17B29
100
AcDbEntity
  8
DEFPOINTS
 62
     0
 48
50.0
100
AcDbPoint
 10
8664.402506229686
 20
4283.225840550712
 30
0.0
  0
POINT
  5
1812C
330
17B29
100
AcDbEntity
  8
DEFPOINTS
 62
     0
 48
50.0
100
AcDbPoint
 10
8664.402506229686
 20
4682.319009890176
 30
0.0
  0
ENDBLK
  5
17B34
330
17B29
100
AcDbEntity
  8
0
 48
50.0
100
AcDbBlockEnd
  0
BLOCK
  5
17B41
330
17B35
100
AcDbEntity
  8
0
 48
50.0
100
AcDbBlockBegin
  2
*D27
 70
     1
 10
0.0
 20
0.0
 30
0.0
  3
*D27
  1

  0
LINE
  5
18119
330
17B35
100
AcDbEntity
  8
寸法
 62
     0
 48
50.0
370
    -2
100
AcDbLine
 10
8664.402506229686
 20
4303.225840550712
 30
0.0
 11
8664.402506229686
 21
4742.31900989018
 31
0.0
  0
LINE
  5
1811A
330
17B35
100
AcDbEntity
  8
寸法
 62
     0
 48
50.0
370
    -2
100
AcDbLine
 10
8614.402506229685
 20
4303.225840550709
 30
0.0
 11
8614.402506229685
 21
4742.31900989018
 31
0.0
  0
LINE
  5
1811B
330
17B35
100
AcDbEntity
  8
寸法
 62
     0
 48
50.0
370
    -2
100
AcDbLine
 10
8664.402506229686
 20
4682.319009890179
 30
0.0
 11
8764.402506229686
 21
4682.319009890179
 31
0.0
  0
LINE
  5
1811C
330
17B35
100
AcDbEntity
  8
寸法
 62
     0
 48
50.0
370
    -2
100
AcDbLine
 10
8614.402506229685
 20
4682.319009890179
 30
0.0
 11
8194.869980760952
 21
4682.319009890179
 31
0.0
  0
LINE
  5
1811D
330
17B35
100
AcDbEntity
  8
寸法
 62
     0
 48
50.0
370
    -2
100
AcDbLine
 10
8664.402506229686
 20
4682.319009890179
 30
0.0
 11
8614.402506229685
 21
4682.319009890179
 31
0.0
  0
INSERT
  5
1811E
330
17B35
100
AcDbEntity
  8
寸法
 62
     0
 48
50.0
370
    -2
100
AcDbBlockReference
  2
_DOTSMALL
 10
8664.402506229686
 20
4682.319009890179
 30
0.0
 41
100.0
 42
100.0
 43
100.0
 50
180.0
  0
INSERT
  5
1811F
330
17B35
100
AcDbEntity
  8
寸法
 62
     0
 48
50.0
370
    -2
100
AcDbBlockReference
  2
_DOTSMALL
 10
8614.402506229685
 20
4682.319009890179
 30
0.0
 41
100.0
 42
100.0
 43
100.0
  0
MTEXT
  5
18120
330
17B35
100
AcDbEntity
  8
寸法
 62
     7
 48
50.0
100
AcDbMText
 10
8300.917224855439
 20
4782.319009890179
 30
0.0
 40
120.0
 41
0.0
 71
     5
 72
     1
  1
\A1;50
  7
STYLE1
 73
     1
 44
1.0
1001
ACAD
1000
MTEXTBEGIN
1070
    73
1070
     1
1070
    44
1040
1.0
1070
    74
1070
     0
1000
MTEXTEND
  0
POINT
  5
18121
330
17B35
100
AcDbEntity
  8
DEFPOINTS
 62
     0
 48
50.0
100
AcDbPoint
 10
8664.402506229686
 20
4283.225840550712
 30
0.0
  0
POINT
  5
18122
330
17B35
100
AcDbEntity
  8
DEFPOINTS
 62
     0
 48
50.0
100
AcDbPoint
 10
8614.402506229685
 20
4283.225840550708
 30
0.0
  0
POINT
  5
18123
330
17B35
100
AcDbEntity
  8
DEFPOINTS
 62
     0
 48
50.0
100
AcDbPoint
 10
8614.402506229685
 20
4682.319009890179
 30
0.0
  0
ENDBLK
  5
17B42
330
17B35
100
AcDbEntity
  8
0
 48
50.0
100
AcDbBlockEnd
  0
BLOCK
  5
17B4D
330
17B43
100
AcDbEntity
  8
0
 48
50.0
100
AcDbBlockBegin
  2
*D28
 70
     1
 10
0.0
 20
0.0
 30
0.0
  3
*D28
  1

  0
LINE
  5
18110
330
17B43
100
AcDbEntity
  8
寸法
 62
     0
 48
50.0
370
    -2
100
AcDbLine
 10
8614.402506229685
 20
4303.225840550709
 30
0.0
 11
8614.402506229685
 21
4958.845109508624
 31
0.0
  0
LINE
  5
18111
330
17B43
100
AcDbEntity
  8
寸法
 62
     0
 48
50.0
370
    -2
100
AcDbLine
 10
11344.40250622968
 20
4303.225840550709
 30
0.0
 11
11344.40250622968
 21
4958.845109508624
 31
0.0
  0
LINE
  5
18112
330
17B43
100
AcDbEntity
  8
寸法
 62
     0
 48
50.0
370
    -2
100
AcDbLine
 10
8614.402506229685
 20
4898.845109508624
 30
0.0
 11
11344.40250622968
 21
4898.845109508624
 31
0.0
  0
INSERT
  5
18113
330
17B43
100
AcDbEntity
  8
寸法
 62
     0
 48
50.0
370
    -2
100
AcDbBlockReference
  2
_DOTSMALL
 10
8614.402506229685
 20
4898.845109508624
 30
0.0
 41
100.0
 42
100.0
 43
100.0
 50
180.0
  0
INSERT
  5
18114
330
17B43
100
AcDbEntity
  8
寸法
 62
     0
 48
50.0
370
    -2
100
AcDbBlockReference
  2
_DOTSMALL
 10
11344.40250622968
 20
4898.845109508624
 30
0.0
 41
100.0
 42
100.0
 43
100.0
  0
MTEXT
  5
18115
330
17B43
100
AcDbEntity
  8
寸法
 62
     7
 48
50.0
100
AcDbMText
 10
9979.402506229687
 20
4998.856920532245
 30
0.0
 40
120.0
 41
0.0
 71
     5
 72
     1
  1
\A1;2730
  7
STYLE1
 73
     1
 44
1.0
1001
ACAD
1000
MTEXTBEGIN
1070
    73
1070
     1
1070
    44
1040
1.0
1070
    74
1070
     0
1000
MTEXTEND
  0
POINT
  5
18116
330
17B43
100
AcDbEntity
  8
DEFPOINTS
 62
     0
 48
50.0
100
AcDbPoint
 10
8614.402506229685
 20
4283.225840550708
 30
0.0
  0
POINT
  5
18117
330
17B43
100
AcDbEntity
  8
DEFPOINTS
 62
     0
 48
50.0
100
AcDbPoint
 10
11344.40250622968
 20
4283.225840550708
 30
0.0
  0
POINT
  5
18118
330
17B43
100
AcDbEntity
  8
DEFPOINTS
 62
     0
 48
50.0
100
AcDbPoint
 10
11344.40250622968
 20
4898.845109508624
 30
0.0
  0
ENDBLK
  5
17B4E
330
17B43
100
AcDbEntity
  8
0
 48
50.0
100
AcDbBlockEnd
  0
BLOCK
  5
17B5B
330
17B4F
100
AcDbEntity
  8
0
 48
50.0
100
AcDbBlockBegin
  2
*D29
 70
     1
 10
0.0
 20
0.0
 30
0.0
  3
*D29
  1

  0
LINE
  5
18105
330
17B4F
100
AcDbEntity
  8
寸法
 62
     0
 48
50.0
370
    -2
100
AcDbLine
 10
11344.40250622968
 20
4303.225840550709
 30
0.0
 11
11344.40250622968
 21
4742.31900989018
 31
0.0
  0
LINE
  5
18106
330
17B4F
100
AcDbEntity
  8
寸法
 62
     0
 48
50.0
370
    -2
100
AcDbLine
 10
11294.40250622968
 20
4303.225840550709
 30
0.0
 11
11294.40250622968
 21
4742.31900989018
 31
0.0
  0
LINE
  5
18107
330
17B4F
100
AcDbEntity
  8
寸法
 62
     0
 48
50.0
370
    -2
100
AcDbLine
 10
11294.40250622968
 20
4682.319009890179
 30
0.0
 11
11194.40250622968
 21
4682.319009890179
 31
0.0
  0
LINE
  5
18108
330
17B4F
100
AcDbEntity
  8
寸法
 62
     0
 48
50.0
370
    -2
100
AcDbLine
 10
11344.40250622968
 20
4682.319009890179
 30
0.0
 11
11763.93503169841
 21
4682.319009890179
 31
0.0
  0
LINE
  5
18109
330
17B4F
100
AcDbEntity
  8
寸法
 62
     0
 48
50.0
370
    -2
100
AcDbLine
 10
11294.40250622968
 20
4682.319009890179
 30
0.0
 11
11344.40250622968
 21
4682.319009890179
 31
0.0
  0
INSERT
  5
1810A
330
17B4F
100
AcDbEntity
  8
寸法
 62
     0
 48
50.0
370
    -2
100
AcDbBlockReference
  2
_DOTSMALL
 10
11294.40250622968
 20
4682.319009890179
 30
0.0
 41
100.0
 42
100.0
 43
100.0
  0
INSERT
  5
1810B
330
17B4F
100
AcDbEntity
  8
寸法
 62
     0
 48
50.0
370
    -2
100
AcDbBlockReference
  2
_DOTSMALL
 10
11344.40250622968
 20
4682.319009890179
 30
0.0
 41
100.0
 42
100.0
 43
100.0
 50
180.0
  0
MTEXT
  5
1810C
330
17B4F
100
AcDbEntity
  8
寸法
 62
     7
 48
50.0
100
AcDbMText
 10
11657.88778760392
 20
4782.319009890179
 30
0.0
 40
120.0
 41
0.0
 71
     5
 72
     1
  1
\A1;50
  7
STYLE1
 73
     1
 44
1.0
1001
ACAD
1000
MTEXTBEGIN
1070
    73
1070
     1
1070
    44
1040
1.0
1070
    74
1070
     0
1000
MTEXTEND
  0
POINT
  5
1810D
330
17B4F
100
AcDbEntity
  8
DEFPOINTS
 62
     0
 48
50.0
100
AcDbPoint
 10
11344.40250622968
 20
4283.225840550708
 30
0.0
  0
POINT
  5
1810E
330
17B4F
100
AcDbEntity
  8
DEFPOINTS
 62
     0
 48
50.0
100
AcDbPoint
 10
11294.40250622968
 20
4283.225840550708
 30
0.0
  0
POINT
  5
1810F
330
17B4F
100
AcDbEntity
  8
DEFPOINTS
 62
     0
 48
50.0
100
AcDbPoint
 10
11294.40250622968
 20
4682.319009890179
 30
0.0
  0
ENDBLK
  5
17B5C
330
17B4F
100
AcDbEntity
  8
0
 48
50.0
100
AcDbBlockEnd
  0
BLOCK
  5
183D5
330
183CB
100
AcDbEntity
  8
0
 48
50.0
100
AcDbBlockBegin
  2
*D30
 70
     1
 10
0.0
 20
0.0
 30
0.0
  3
*D30
  1

  0
LINE
  5
18876
330
183CB
100
AcDbEntity
  8
寸法
 62
     0
 48
50.0
370
    -2
100
AcDbLine
 10
9151.402506229663
 20
7139.952473986845
 30
0.0
 11
9151.402506229663
 21
6466.633033692232
 31
0.0
  0
LINE
  5
18877
330
183CB
100
AcDbEntity
  8
寸法
 62
     0
 48
50.0
370
    -2
100
AcDbLine
 10
10417.40250622966
 20
7139.952473986845
 30
0.0
 11
10417.40250622966
 21
6466.633033692232
 31
0.0
  0
LINE
  5
18878
330
183CB
100
AcDbEntity
  8
寸法
 62
     0
 48
50.0
370
    -2
100
AcDbLine
 10
9171.402506229664
 20
6506.633033692233
 30
0.0
 11
10397.40250622966
 21
6506.633033692233
 31
0.0
  0
INSERT
  5
18879
330
183CB
100
AcDbEntity
  8
寸法
 62
     0
 48
50.0
370
    -2
100
AcDbBlockReference
  2
_DOT
 10
9151.402506229663
 20
6506.633033692233
 30
0.0
 41
20.0
 42
20.0
 43
20.0
 50
180.0
  0
INSERT
  5
1887A
330
183CB
100
AcDbEntity
  8
寸法
 62
     0
 48
50.0
370
    -2
100
AcDbBlockReference
  2
_DOT
 10
10417.40250622966
 20
6506.633033692233
 30
0.0
 41
20.0
 42
20.0
 43
20.0
  0
MTEXT
  5
1887B
330
183CB
100
AcDbEntity
  8
寸法
 62
     7
 48
50.0
100
AcDbMText
 10
9799.786344903026
 20
6698.644844715855
 30
0.0
 40
120.0
 41
0.0
 71
     5
 72
     1
  1
\A1;有効開口部間口\P1266
  7
STYLE1
 73
     1
 44
1.0
1001
ACAD
1000
MTEXTBEGIN
1070
    73
1070
     1
1070
    44
1040
1.0
1070
    74
1070
     0
1000
MTEXTEND
  0
POINT
  5
1887C
330
183CB
100
AcDbEntity
  8
DEFPOINTS
 62
     0
 48
50.0
100
AcDbPoint
 10
9151.402506229663
 20
7159.952473986844
 30
0.0
  0
POINT
  5
1887D
330
183CB
100
AcDbEntity
  8
DEFPOINTS
 62
     0
 48
50.0
100
AcDbPoint
 10
10417.40250622966
 20
7159.952473986844
 30
0.0
  0
POINT
  5
1887E
330
183CB
100
AcDbEntity
  8
DEFPOINTS
 62
     0
 48
50.0
100
AcDbPoint
 10
10417.40250622966
 20
6506.633033692233
 30
0.0
  0
ENDBLK
  5
183D6
330
183CB
100
AcDbEntity
  8
0
 48
50.0
100
AcDbBlockEnd
  0
BLOCK
  5
1870C
330
18702
100
AcDbEntity
  8
0
 48
50.0
100
AcDbBlockBegin
  2
*D31
 70
     1
 10
0.0
 20
0.0
 30
0.0
  3
*D31
  1

  0
LINE
  5
1886D
330
18702
100
AcDbEntity
  8
寸法
 62
     0
 48
50.0
370
    -2
100
AcDbLine
 10
9112.402506229663
 20
7139.952473986709
 30
0.0
 11
9112.402506229663
 21
6162.097104597383
 31
0.0
  0
LINE
  5
1886E
330
18702
100
AcDbEntity
  8
寸法
 62
     0
 48
50.0
370
    -2
100
AcDbLine
 10
11266.40250622966
 20
7139.952473986709
 30
0.0
 11
11266.40250622966
 21
6162.097104597383
 31
0.0
  0
LINE
  5
1886F
330
18702
100
AcDbEntity
  8
寸法
 62
     0
 48
50.0
370
    -2
100
AcDbLine
 10
9112.402506229663
 20
6222.097104597383
 30
0.0
 11
11266.40250622966
 21
6222.097104597383
 31
0.0
  0
INSERT
  5
18870
330
18702
100
AcDbEntity
  8
寸法
 62
     0
 48
50.0
370
    -2
100
AcDbBlockReference
  2
_DOTSMALL
 10
9112.402506229663
 20
6222.097104597383
 30
0.0
 41
100.0
 42
100.0
 43
100.0
 50
180.0
  0
INSERT
  5
18871
330
18702
100
AcDbEntity
  8
寸法
 62
     0
 48
50.0
370
    -2
100
AcDbBlockReference
  2
_DOTSMALL
 10
11266.40250622966
 20
6222.097104597383
 30
0.0
 41
100.0
 42
100.0
 43
100.0
  0
MTEXT
  5
18872
330
18702
100
AcDbEntity
  8
寸法
 62
     7
 48
50.0
100
AcDbMText
 10
10191.20247750011
 20
6322.108915621004
 30
0.0
 40
120.0
 41
0.0
 71
     5
 72
     1
  1
\A1;2154
  7
STYLE1
 73
     1
 44
1.0
1001
ACAD
1000
MTEXTBEGIN
1070
    73
1070
     1
1070
    44
1040
1.0
1070
    74
1070
     0
1000
MTEXTEND
  0
POINT
  5
18873
330
18702
100
AcDbEntity
  8
DEFPOINTS
 62
     0
 48
50.0
100
AcDbPoint
 10
9112.402506229663
 20
7159.952473986708
 30
0.0
  0
POINT
  5
18874
330
18702
100
AcDbEntity
  8
DEFPOINTS
 62
     0
 48
50.0
100
AcDbPoint
 10
11266.40250622966
 20
7159.952473986708
 30
0.0
  0
POINT
  5
18875
330
18702
100
AcDbEntity
  8
DEFPOINTS
 62
     0
 48
50.0
100
AcDbPoint
 10
11266.40250622966
 20
6222.097104597383
 30
0.0
  0
ENDBLK
  5
1870D
330
18702
100
AcDbEntity
  8
0
 48
50.0
100
AcDbBlockEnd
  0
BLOCK
  5
1871A
330
1870E
100
AcDbEntity
  8
0
 48
50.0
100
AcDbBlockBegin
  2
*D32
 70
     1
 10
0.0
 20
0.0
 30
0.0
  3
*D32
  1

  0
LINE
  5
18862
330
1870E
100
AcDbEntity
  8
寸法
 62
     0
 48
50.0
370
    -2
100
AcDbLine
 10
8644.40250622969
 20
7236.952473986706
 30
0.0
 11
8329.791260602972
 21
7236.952473986706
 31
0.0
  0
LINE
  5
18863
330
1870E
100
AcDbEntity
  8
寸法
 62
     0
 48
50.0
370
    -2
100
AcDbLine
 10
9092.402506229666
 20
7161.952473986706
 30
0.0
 11
8329.791260602972
 21
7161.952473986706
 31
0.0
  0
LINE
  5
18864
330
1870E
100
AcDbEntity
  8
寸法
 62
     0
 48
50.0
370
    -2
100
AcDbLine
 10
8369.791260602973
 20
7256.952473986706
 30
0.0
 11
8369.791260602973
 21
7276.952473986707
 31
0.0
  0
LINE
  5
18865
330
1870E
100
AcDbEntity
  8
寸法
 62
     0
 48
50.0
370
    -2
100
AcDbLine
 10
8369.791260602973
 20
7141.952473986707
 30
0.0
 11
8369.791260602973
 21
6920.981911238229
 31
0.0
  0
LINE
  5
18866
330
1870E
100
AcDbEntity
  8
寸法
 62
     0
 48
50.0
370
    -2
100
AcDbLine
 10
8369.791260602973
 20
7236.952473986706
 30
0.0
 11
8369.791260602973
 21
7161.952473986706
 31
0.0
  0
INSERT
  5
18867
330
1870E
100
AcDbEntity
  8
寸法
 62
     0
 48
50.0
370
    -2
100
AcDbBlockReference
  2
_DOT
 10
8369.791260602973
 20
7236.952473986706
 30
0.0
 41
20.0
 42
20.0
 43
20.0
 50
270.0
  0
INSERT
  5
18868
330
1870E
100
AcDbEntity
  8
寸法
 62
     0
 48
50.0
370
    -2
100
AcDbBlockReference
  2
_DOT
 10
8369.791260602973
 20
7161.952473986706
 30
0.0
 41
20.0
 42
20.0
 43
20.0
 50
90.0
  0
MTEXT
  5
18869
330
1870E
100
AcDbEntity
  8
寸法
 62
     7
 48
50.0
100
AcDbMText
 10
8277.791260602972
 20
7021.467192612468
 30
0.0
 40
120.0
 41
0.0
 71
     5
 72
     1
  1
\A1;75
  7
STYLE1
 11
0.0000000000000001
 21
1.0
 31
0.0
 73
     1
 44
1.0
1001
ACAD
1000
MTEXTBEGIN
1070
    73
1070
     1
1070
    44
1040
1.0
1070
    74
1070
     0
1000
MTEXTEND
  0
POINT
  5
1886A
330
1870E
100
AcDbEntity
  8
DEFPOINTS
 62
     0
 48
50.0
100
AcDbPoint
 10
8664.40250622969
 20
7236.952473986706
 30
0.0
  0
POINT
  5
1886B
330
1870E
100
AcDbEntity
  8
DEFPOINTS
 62
     0
 48
50.0
100
AcDbPoint
 10
9112.402506229663
 20
7161.952473986706
 30
0.0
  0
POINT
  5
1886C
330
1870E
100
AcDbEntity
  8
DEFPOINTS
 62
     0
 48
50.0
100
AcDbPoint
 10
8369.791260602973
 20
7161.952473986706
 30
0.0
  0
ENDBLK
  5
1871B
330
1870E
100
AcDbEntity
  8
0
 48
50.0
100
AcDbBlockEnd
  0
BLOCK
  5
1877E
330
18774
100
AcDbEntity
  8
0
 48
50.0
100
AcDbBlockBegin
  2
*D33
 70
     1
 10
0.0
 20
0.0
 30
0.0
  3
*D33
  1

  0
LINE
  5
18859
330
18774
100
AcDbEntity
  8
寸法
 62
     0
 48
50.0
370
    -2
100
AcDbLine
 10
8664.40250622969
 20
7216.952473986674
 30
0.0
 11
8664.40250622969
 21
5895.755516705705
 31
0.0
  0
LINE
  5
1885A
330
18774
100
AcDbEntity
  8
寸法
 62
     0
 48
50.0
370
    -2
100
AcDbLine
 10
11294.40250622967
 20
7216.952473986838
 30
0.0
 11
11294.40250622967
 21
5895.755516705705
 31
0.0
  0
LINE
  5
1885B
330
18774
100
AcDbEntity
  8
寸法
 62
     0
 48
50.0
370
    -2
100
AcDbLine
 10
8664.40250622969
 20
5955.755516705704
 30
0.0
 11
11294.40250622967
 21
5955.755516705704
 31
0.0
  0
INSERT
  5
1885C
330
18774
100
AcDbEntity
  8
寸法
 62
     0
 48
50.0
370
    -2
100
AcDbBlockReference
  2
_DOTSMALL
 10
8664.40250622969
 20
5955.755516705704
 30
0.0
 41
100.0
 42
100.0
 43
100.0
 50
180.0
  0
INSERT
  5
1885D
330
18774
100
AcDbEntity
  8
寸法
 62
     0
 48
50.0
370
    -2
100
AcDbBlockReference
  2
_DOTSMALL
 10
11294.40250622967
 20
5955.755516705704
 30
0.0
 41
100.0
 42
100.0
 43
100.0
  0
MTEXT
  5
1885E
330
18774
100
AcDbEntity
  8
寸法
 62
     7
 48
50.0
100
AcDbMText
 10
9963.841850932212
 20
6055.767327729326
 30
0.0
 40
120.0
 41
0.0
 71
     5
 72
     1
  1
\A1;2630
  7
STYLE1
 73
     1
 44
1.0
1001
ACAD
1000
MTEXTBEGIN
1070
    73
1070
     1
1070
    44
1040
1.0
1070
    74
1070
     0
1000
MTEXTEND
  0
POINT
  5
1885F
330
18774
100
AcDbEntity
  8
DEFPOINTS
 62
     0
 48
50.0
100
AcDbPoint
 10
8664.40250622969
 20
7236.952473986673
 30
0.0
  0
POINT
  5
18860
330
18774
100
AcDbEntity
  8
DEFPOINTS
 62
     0
 48
50.0
100
AcDbPoint
 10
11294.40250622967
 20
7236.952473986838
 30
0.0
  0
POINT
  5
18861
330
18774
100
AcDbEntity
  8
DEFPOINTS
 62
     0
 48
50.0
100
AcDbPoint
 10
11294.40250622967
 20
5955.755516705704
 30
0.0
  0
ENDBLK
  5
1877F
330
18774
100
AcDbEntity
  8
0
 48
50.0
100
AcDbBlockEnd
  0
ENDSEC
  0
SECTION
  2
ENTITIES
  0
LINE
  5
10B57
330
747D
100
AcDbEntity
  8
補助
  6
PHANTOM
 62
   230
 48
50.0
100
AcDbLine
 10
139.9999999999995
 20
11409.6
 30
0.0
 11
16307.2
 21
11409.6
 31
0.0
  0
LINE
  5
10B59
330
747D
100
AcDbEntity
  8
仕様書枠
  6
Continuous
 48
50.0
100
AcDbLine
 10
13107.2
 20
1200.0
 30
0.0
 11
13107.2
 21
-0.0000000000000729
 31
0.0
  0
LINE
  5
10B5C
330
747D
100
AcDbEntity
  8
仕様書枠
 48
50.0
100
AcDbLine
 10
16307.2
 20
1200.0
 30
0.0
 11
16307.2
 21
-0.0000000000000909
 31
0.0
  0
LINE
  5
10B5D
330
747D
100
AcDbEntity
  8
仕様書枠
 48
50.0
100
AcDbLine
 10
140.0
 20
0.0
 30
0.0
 11
16307.2
 21
-0.0000000000000909
 31
0.0
  0
LINE
  5
10B5E
330
747D
100
AcDbEntity
  8
補助
  6
PHANTOM
 62
   230
 48
50.0
100
AcDbLine
 10
16307.2
 20
11409.6
 30
0.0
 11
16307.2
 21
1200.0
 31
0.0
  0
LINE
  5
10B6C
330
747D
100
AcDbEntity
  8
仕様書枠
 48
50.0
100
AcDbLine
 10
13107.2
 20
1200.0
 30
0.0
 11
16307.2
 21
1200.0
 31
0.0
  0
LINE
  5
10B6D
330
747D
100
AcDbEntity
  8
補助
  6
PHANTOM
 62
   230
 48
50.0
100
AcDbLine
 10
13107.2
 20
11409.6
 30
0.0
 11
13107.2
 21
4800.0
 31
0.0
  0
LINE
  5
10B6F
330
747D
100
AcDbEntity
  8
補助
  6
PHANTOM
 62
   230
 48
50.0
100
AcDbLine
 10
13107.2
 20
4800.0
 30
0.0
 11
16307.2
 21
4800.0
 31
0.0
  0
LINE
  5
10B72
330
747D
100
AcDbEntity
  8
文字
 62
     7
 48
50.0
100
AcDbLine
 10
13187.2
 20
400.0
 30
0.0
 11
16227.2
 21
400.0
 31
0.0
  0
TEXT
  5
10B73
330
747D
100
AcDbEntity
  8
文字
 62
     7
 48
50.0
100
AcDbText
 10
13162.9790565769
 20
895.0906074299405
 30
0.0
 40
200.0
  1
外 形 図
  7
STYLE2
100
AcDbText
  0
TEXT
  5
10B74
330
747D
100
AcDbEntity
  8
文字
 62
     7
 48
50.0
100
AcDbText
 10
13201.43669998441
 20
477.2740661031255
 30
0.0
 40
160.0
  1
機種名
  7
STYLE2
100
AcDbText
  0
TEXT
  5
10B76
330
747D
100
AcDbEntity
  8
文字
 62
     7
 48
50.0
100
AcDbText
 10
13209.4053442172
 20
76.09434707649343
 30
0.0
 40
100.0
  1
○床面積 ： 7.08㎡(2.15坪) 　
  7
STYLE2
100
AcDbText
  0
TEXT
  5
10B79
330
747D
100
AcDbEntity
  8
文字
 62
     7
 48
50.0
100
AcDbText
 10
14524.131837222
 20
1031.557706291228
 30
0.0
 40
100.0
  1
NO.25      <縮尺> S=1/40
  7
STYLE2
100
AcDbText
  0
LINE
  5
10B7B
330
747D
100
AcDbEntity
  8
仕様書枠
 48
50.0
100
AcDbLine
 10
13107.2
 20
800.0
 30
0.0
 11
14251.2
 21
800.0
 31
0.0
  0
LINE
  5
10B88
330
747D
100
AcDbEntity
  8
仕様書枠
  6
Continuous
 48
50.0
100
AcDbLine
 10
14251.2
 20
1200.0
 30
0.0
 11
14251.2
 21
800.0
 31
0.0
  0
TEXT
  5
154D3
330
747D
100
AcDbEntity
  8
文字
 62
     7
 48
50.0
100
AcDbText
 10
14643.63059855437
 20
863.0097378581719
 30
0.0
 40
100.0
  1
～一般型・多雪地型～
  7
STYLE2
100
AcDbText
  0
LINE
  5
176B8
330
747D
100
AcDbEntity
  8
部品1
 48
50.0
100
AcDbLine
 10
4742.305476892441
 20
1908.225840550705
 30
0.0
 11
4742.305476892441
 21
1808.225840550705
 31
0.0
  0
LINE
  5
176B9
330
747D
100
AcDbEntity
  8
部品1
 48
50.0
100
AcDbLine
 10
4942.305476892442
 20
1908.225840550705
 30
0.0
 11
4942.305476892442
 21
1808.225840550705
 31
0.0
  0
LINE
  5
176BA
330
747D
100
AcDbEntity
  8
部品1
 48
50.0
100
AcDbLine
 10
5572.305476892442
 20
1908.225840550705
 30
0.0
 11
5572.305476892442
 21
1808.225840550705
 31
0.0
  0
LINE
  5
176BB
330
747D
100
AcDbEntity
  8
部品1
 48
50.0
100
AcDbLine
 10
5772.305476892441
 20
1908.225840550705
 30
0.0
 11
5772.305476892441
 21
1808.225840550705
 31
0.0
  0
LINE
  5
176BC
330
747D
100
AcDbEntity
  8
部品1
100
AcDbLine
 10
3989.805476892441
 20
1908.225840550705
 30
0.0
 11
6524.805476892439
 21
1908.225840550705
 31
0.0
  0
LINE
  5
176BD
330
747D
100
AcDbEntity
  8
部品1
100
AcDbLine
 10
6564.805476892439
 20
1908.225840550705
 30
0.0
 11
6572.305476892442
 21
1908.225840550705
 31
0.0
  0
LINE
  5
176BE
330
747D
100
AcDbEntity
  8
細線
 48
50.0
100
AcDbLine
 10
6019.805476892443
 20
4048.225840550707
 30
0.0
 11
6019.805476892443
 21
1958.225840550707
 31
0.0
  0
LINE
  5
176BF
330
747D
100
AcDbEntity
  8
細線
 48
50.0
100
AcDbLine
 10
6034.805476892444
 20
4048.225840550707
 30
0.0
 11
6034.805476892444
 21
1958.225840550707
 31
0.0
  0
LINE
  5
176C0
330
747D
100
AcDbEntity
  8
細線
 48
50.0
100
AcDbLine
 10
5894.805476892443
 20
4048.225840550707
 30
0.0
 11
5894.805476892443
 21
1958.225840550707
 31
0.0
  0
LINE
  5
176C1
330
747D
100
AcDbEntity
  8
細線
 48
50.0
100
AcDbLine
 10
5879.805476892443
 20
4048.225840550707
 30
0.0
 11
5879.805476892443
 21
1958.225840550707
 31
0.0
  0
LINE
  5
176C2
330
747D
100
AcDbEntity
  8
細線
 48
50.0
100
AcDbLine
 10
5739.805476892443
 20
4048.225840550707
 30
0.0
 11
5739.805476892443
 21
1958.225840550707
 31
0.0
  0
LINE
  5
176C3
330
747D
100
AcDbEntity
  8
細線
 48
50.0
100
AcDbLine
 10
5754.805476892443
 20
4048.225840550707
 30
0.0
 11
5754.805476892443
 21
1958.225840550707
 31
0.0
  0
LINE
  5
176C4
330
747D
100
AcDbEntity
  8
部品1
100
AcDbLine
 10
5677.305476892436
 20
4048.225840550707
 30
0.0
 11
5677.305476892436
 21
1958.225840550707
 31
0.0
  0
LINE
  5
176C5
330
747D
100
AcDbEntity
  8
部品1
100
AcDbLine
 10
5117.53060732168
 20
4408.430228513724
 30
0.0
 11
5442.985620964717
 21
4390.912169554861
 31
0.0
  0
ARC
  5
176C6
330
747D
100
AcDbEntity
  8
部品1
100
AcDbCircle
 10
6637.933012706382
 20
4122.249597816499
 30
0.0
 40
0.7
100
AcDbArc
 50
275.0921697642102
 51
354.1866997666569
  0
ARC
  5
176C7
330
747D
100
AcDbEntity
  8
部品1
100
AcDbCircle
 10
6648.7923584557
 20
4199.292852634422
 30
0.0
 40
0.7
100
AcDbArc
 50
275.0921697642102
 51
354.1866997664495
  0
ARC
  5
176C8
330
747D
100
AcDbEntity
  8
部品1
100
AcDbCircle
 10
6649.120763698303
 20
4195.607455777333
 30
0.0
 40
3.0
100
AcDbArc
 50
95.0921697642102
 51
174.1866997664495
  0
ARC
  5
176C9
330
747D
100
AcDbEntity
  8
部品1
100
AcDbCircle
 10
6638.261417948978
 20
4118.564200959408
 30
0.0
 40
3.0
100
AcDbArc
 50
95.0921697642102
 51
174.1866997664495
  0
ARC
  5
176CA
330
747D
100
AcDbEntity
  8
部品1
 48
50.0
100
AcDbCircle
 10
6627.233282673874
 20
4108.973456355527
 30
0.0
 40
7.0
100
AcDbArc
 50
267.8377559869492
 51
354.1866997664495
  0
ARC
  5
176CB
330
747D
100
AcDbEntity
  8
部品1
 48
50.0
100
AcDbCircle
 10
6644.555379138388
 20
4219.8760034977
 30
0.0
 40
7.0
100
AcDbArc
 50
354.1866997664495
 51
87.03587545283093
  0
LINE
  5
176CC
330
747D
100
AcDbEntity
  8
部品1
 48
50.0
100
AcDbLine
 10
6635.27684627837
 20
4118.868062676311
 30
0.0
 11
6634.197283238629
 21
4108.264445682753
 31
0.0
  0
LINE
  5
176CD
330
747D
100
AcDbEntity
  8
部品1
 48
50.0
100
AcDbLine
 10
6646.136192027693
 20
4195.911317494235
 30
0.0
 11
6638.629412762856
 21
4122.178696749224
 31
0.0
  0
LINE
  5
176CE
330
747D
100
AcDbEntity
  8
部品1
 48
50.0
100
AcDbLine
 10
6651.519379703144
 20
4219.166992824924
 30
0.0
 11
6649.488758512174
 21
4199.221951567144
 31
0.0
  0
ARC
  5
176CF
330
747D
100
AcDbEntity
  8
部品1
100
AcDbCircle
 10
3888.342568763807
 20
4162.039999509611
 30
0.0
 40
0.7
100
AcDbArc
 50
181.0932240292114
 51
260.187754031489
  0
ARC
  5
176D0
330
747D
100
AcDbEntity
  8
部品1
100
AcDbCircle
 10
3883.569895166196
 20
4254.905777709728
 30
0.0
 40
0.7
100
AcDbArc
 50
181.0932240292114
 51
260.187754031489
  0
ARC
  5
176D1
330
747D
100
AcDbEntity
  8
部品1
100
AcDbCircle
 10
3882.939340763174
 20
4251.259903172331
 30
0.0
 40
3.0
100
AcDbArc
 50
1.093224029315636
 51
80.18775403148891
  0
ARC
  5
176D2
330
747D
100
AcDbEntity
  8
部品1
100
AcDbCircle
 10
3887.712014360781
 20
4158.394124972212
 30
0.0
 40
3.0
100
AcDbArc
 50
1.093224029315636
 51
80.18775403148891
  0
ARC
  5
176D3
330
747D
100
AcDbEntity
  8
部品1
 48
50.0
100
AcDbCircle
 10
3897.912146735982
 20
4148.00188158973
 30
0.0
 40
7.0
100
AcDbArc
 50
181.0932240293156
 51
267.8377559869492
  0
ARC
  5
176D4
330
747D
100
AcDbEntity
  8
部品1
 48
50.0
100
AcDbCircle
 10
3889.488488633886
 20
4274.952941122826
 30
0.0
 40
7.0
100
AcDbArc
 50
87.03587545283093
 51
181.0932240293156
  0
LINE
  5
176D5
330
747D
100
AcDbEntity
  8
部品1
 48
50.0
100
AcDbLine
 10
3890.711468287211
 20
4158.451362575395
 30
0.0
 11
3890.913420907642
 21
4147.868327182303
 31
0.0
  0
LINE
  5
176D6
330
747D
100
AcDbEntity
  8
細線
 48
50.0
100
AcDbLine
 10
3888.10537523054
 20
4161.381410694203
 30
0.0
 11
6638.10903966118
 21
4121.57209171971
 31
0.0
  0
LINE
  5
176D7
330
747D
100
AcDbEntity
  8
細線
 48
50.0
100
AcDbLine
 10
3883.344899993254
 20
4254.242922392069
 30
0.0
 11
6648.980884738427
 21
4198.618717751238
 31
0.0
  0
LINE
  5
176D8
330
747D
100
AcDbEntity
  8
部品1
 48
50.0
100
AcDbLine
 10
3885.938794689604
 20
4251.317140775515
 30
0.0
 11
3887.642696180968
 21
4162.026644068866
 31
0.0
  0
LINE
  5
176D9
330
747D
100
AcDbEntity
  8
部品1
 48
50.0
100
AcDbLine
 10
3882.489762805546
 20
4274.819386715399
 30
0.0
 11
3882.870022583358
 21
4254.892422268987
 31
0.0
  0
LINE
  5
176DA
330
747D
100
AcDbEntity
  8
細線
 48
50.0
100
AcDbLine
 10
6619.274760086129
 20
4227.379263030174
 30
0.0
 11
6614.557794004444
 21
4102.447047095258
 31
0.0
  0
LINE
  5
176DB
330
747D
100
AcDbEntity
  8
細線
 48
50.0
100
AcDbLine
 10
3915.305476892439
 20
4280.625516926111
 30
0.0
 11
3910.016375336932
 21
4140.539884298756
 31
0.0
  0
LINE
  5
176DC
330
747D
100
AcDbEntity
  8
部品1
100
AcDbLine
 10
3897.648041494393
 20
4141.006865619672
 30
0.0
 11
6626.96917743229
 21
4101.978440385466
 31
0.0
  0
LINE
  5
176DD
330
747D
100
AcDbEntity
  8
部品1
100
AcDbLine
 10
3889.850463249402
 20
4281.943575884972
 30
0.0
 11
6644.917353753907
 21
4226.866638259844
 31
0.0
  0
LINE
  5
176DE
330
747D
100
AcDbEntity
  8
部品1
 48
50.0
100
AcDbLine
 10
5142.985620964717
 20
4407.112169554863
 30
0.0
 11
5442.985620964717
 21
4407.112169554863
 31
0.0
  0
LINE
  5
176DF
330
747D
100
AcDbEntity
  8
部品1
 48
50.0
100
AcDbLine
 10
5442.985620964717
 20
4407.112169554863
 30
0.0
 11
5442.985620964717
 21
4390.912169554861
 31
0.0
  0
TEXT
  5
176E0
330
747D
100
AcDbEntity
  8
部品1
 48
50.0
100
AcDbText
 10
5131.253456188444
 20
4442.996191707296
 30
0.0
 40
120.0
  1
1000
  7
STYLE1
100
AcDbText
  0
TEXT
  5
176E1
330
747D
100
AcDbEntity
  8
部品1
 48
50.0
100
AcDbText
 10
5608.886478853534
 20
4305.494933489013
 30
0.0
 40
120.0
  1
37
 50
90.0
  7
STYLE1
100
AcDbText
  0
LINE
  5
176E2
330
747D
100
AcDbEntity
  8
細線
 48
50.0
100
AcDbLine
 10
5334.805476892443
 20
4048.225840550705
 30
0.0
 11
5334.805476892443
 21
1958.225840550705
 31
0.0
  0
LINE
  5
176E3
330
747D
100
AcDbEntity
  8
細線
 48
50.0
100
AcDbLine
 10
5319.805476892443
 20
4048.225840550705
 30
0.0
 11
5319.805476892443
 21
1958.225840550705
 31
0.0
  0
LINE
  5
176E4
330
747D
100
AcDbEntity
  8
細線
 48
50.0
100
AcDbLine
 10
5459.805476892443
 20
4048.225840550705
 30
0.0
 11
5459.805476892443
 21
1958.225840550705
 31
0.0
  0
LINE
  5
176E5
330
747D
100
AcDbEntity
  8
細線
 48
50.0
100
AcDbLine
 10
5474.805476892443
 20
4048.225840550705
 30
0.0
 11
5474.805476892443
 21
1958.225840550705
 31
0.0
  0
LINE
  5
176E6
330
747D
100
AcDbEntity
  8
細線
 48
50.0
100
AcDbLine
 10
5614.805476892443
 20
4048.225840550705
 30
0.0
 11
5614.805476892443
 21
1958.225840550705
 31
0.0
  0
LINE
  5
176E7
330
747D
100
AcDbEntity
  8
細線
 48
50.0
100
AcDbLine
 10
5599.805476892443
 20
4048.225840550705
 30
0.0
 11
5599.805476892443
 21
1958.225840550705
 31
0.0
  0
LINE
  5
176E8
330
747D
100
AcDbEntity
  8
部品1
100
AcDbLine
 10
6097.305476892439
 20
4048.225840550707
 30
0.0
 11
6097.305476892439
 21
1958.225840550707
 31
0.0
  0
LINE
  5
176E9
330
747D
100
AcDbEntity
  8
部品1
100
AcDbLine
 10
3942.305476892439
 20
4048.225840550705
 30
0.0
 11
6572.30547689244
 21
4048.225840550705
 31
0.0
  0
LINE
  5
176EA
330
747D
100
AcDbEntity
  8
部品1
100
AcDbLine
 10
3942.305476892439
 20
1958.225840550705
 30
0.0
 11
6572.305476892442
 21
1958.225840550707
 31
0.0
  0
LINE
  5
176EB
330
747D
100
AcDbEntity
  8
部品1
100
AcDbLine
 10
3997.305476892439
 20
4048.225840550705
 30
0.0
 11
3997.305476892439
 21
1958.225840550705
 31
0.0
  0
LINE
  5
176EC
330
747D
100
AcDbEntity
  8
部品1
100
AcDbLine
 10
3942.305476892439
 20
4140.084359992952
 30
0.0
 11
3942.305476892439
 21
1808.225840550705
 31
0.0
  0
LINE
  5
176ED
330
747D
100
AcDbEntity
  8
部品1
100
AcDbLine
 10
4417.30547689244
 20
4048.225840550705
 30
0.0
 11
4417.30547689244
 21
1958.225840550705
 31
0.0
  0
LINE
  5
176EE
330
747D
100
AcDbEntity
  8
部品1
100
AcDbLine
 10
6572.305476892437
 20
4102.760113938444
 30
0.0
 11
6572.305476892442
 21
1808.225840550707
 31
0.0
  0
LINE
  5
176EF
330
747D
100
AcDbEntity
  8
部品1
100
AcDbLine
 10
6517.305476892443
 20
4048.225840550707
 30
0.0
 11
6517.305476892443
 21
1958.225840550707
 31
0.0
  0
DIMENSION
  5
176F0
330
747D
100
AcDbEntity
  8
寸法
100
AcDbDimension
  2
*D2
 10
7277.232634864571
 20
4228.225840550707
 30
0.0
 11
7177.220823840949
 21
3068.225840550708
 31
0.0
 70
    32
 71
     5
 42
2320.000000000002
  3
INABA_S40G
100
AcDbAlignedDimension
 13
6649.305476892443
 23
1908.225840550706
 33
0.0
 14
6652.30547689244
 24
4228.225840550707
 34
0.0
 50
90.0
100
AcDbRotatedDimension
1001
ACAD
1000
DSTYLE
1002
{
1070
   174
1070
     0
1070
   272
1070
     1
1070
   288
1070
     0
1070
   341
1005
0
1002
}
  0
DIMENSION
  5
176F1
330
747D
100
AcDbEntity
  8
寸法
 48
50.0
100
AcDbDimension
  2
*D3
 10
3942.305476892439
 20
4681.883294130011
 30
0.0
 11
5297.075667921633
 21
4681.883294130011
 31
0.0
 70
   160
  1
柱外寸法<>
 71
     5
 42
2630.0
  3
INABA_S40G
100
AcDbAlignedDimension
 13
6572.30547689244
 23
4230.03652016236
 33
0.0
 14
3942.305476892439
 24
4279.227458673682
 34
0.0
100
AcDbRotatedDimension
1001
ACAD
1000
DSTYLE
1002
{
1070
   174
1070
     0
1070
   272
1070
     1
1070
   288
1070
     0
1070
   341
1005
0
1002
}
  0
DIMENSION
  5
176F2
330
747D
100
AcDbEntity
  8
寸法
 48
50.0
100
AcDbDimension
  2
*D4
 10
3882.305476892439
 20
4681.88329413001
 30
0.0
 11
3572.667681616849
 21
4681.88329413001
 31
0.0
 70
   160
 71
     5
 42
60.0
  3
INABA_S40G
100
AcDbAlignedDimension
 13
3942.305476892439
 23
4279.227458673682
 33
0.0
 14
3882.305476892439
 24
4283.225840550709
 34
0.0
100
AcDbRotatedDimension
1001
ACAD
1000
DSTYLE
1002
{
1070
   174
1070
     0
1070
   272
1070
     1
1070
   288
1070
     0
1070
   341
1005
0
1002
}
  0
DIMENSION
  5
176F3
330
747D
100
AcDbEntity
  8
寸法
 48
50.0
100
AcDbDimension
  2
*D5
 10
3882.305476892439
 20
4902.093980861628
 30
0.0
 11
5285.664401779815
 21
4902.093980861628
 31
0.0
 70
   160
 71
     5
 42
2770.0
  3
INABA_S40G
100
AcDbAlignedDimension
 13
6652.30547689244
 23
4228.225840550707
 33
0.0
 14
3882.305476892439
 24
4283.225840550709
 34
0.0
100
AcDbRotatedDimension
1001
ACAD
1000
DSTYLE
1002
{
1070
   174
1070
     0
1070
   272
1070
     1
1070
   288
1070
     0
1070
   341
1005
0
1002
}
  0
LINE
  5
176F4
330
747D
100
AcDbEntity
  8
部品1
100
AcDbLine
 10
3942.305476892439
 20
1908.225840550705
 30
0.0
 11
3949.805476892441
 21
1908.225840550705
 31
0.0
  0
LINE
  5
176F5
330
747D
100
AcDbEntity
  8
細線
 48
50.0
100
AcDbLine
 10
4494.805476892439
 20
4048.225840550705
 30
0.0
 11
4494.805476892439
 21
1958.225840550705
 31
0.0
  0
LINE
  5
176F6
330
747D
100
AcDbEntity
  8
細線
 48
50.0
100
AcDbLine
 10
4479.80547689244
 20
4048.225840550705
 30
0.0
 11
4479.80547689244
 21
1958.225840550705
 31
0.0
  0
LINE
  5
176F7
330
747D
100
AcDbEntity
  8
細線
 48
50.0
100
AcDbLine
 10
4619.805476892439
 20
4048.225840550705
 30
0.0
 11
4619.805476892439
 21
1958.225840550705
 31
0.0
  0
LINE
  5
176F8
330
747D
100
AcDbEntity
  8
細線
 48
50.0
100
AcDbLine
 10
4634.805476892439
 20
4048.225840550705
 30
0.0
 11
4634.805476892439
 21
1958.225840550705
 31
0.0
  0
LINE
  5
176F9
330
747D
100
AcDbEntity
  8
細線
 48
50.0
100
AcDbLine
 10
4774.805476892439
 20
4048.225840550705
 30
0.0
 11
4774.805476892439
 21
1958.225840550705
 31
0.0
  0
LINE
  5
176FA
330
747D
100
AcDbEntity
  8
細線
 48
50.0
100
AcDbLine
 10
4759.805476892439
 20
4048.225840550705
 30
0.0
 11
4759.805476892439
 21
1958.225840550705
 31
0.0
  0
LINE
  5
176FB
330
747D
100
AcDbEntity
  8
細線
 48
50.0
100
AcDbLine
 10
4339.805476892439
 20
4048.225840550705
 30
0.0
 11
4339.805476892439
 21
1958.225840550705
 31
0.0
  0
LINE
  5
176FC
330
747D
100
AcDbEntity
  8
細線
 48
50.0
100
AcDbLine
 10
4354.80547689244
 20
4048.225840550705
 30
0.0
 11
4354.80547689244
 21
1958.225840550705
 31
0.0
  0
LINE
  5
176FD
330
747D
100
AcDbEntity
  8
細線
 48
50.0
100
AcDbLine
 10
4214.805476892439
 20
4048.225840550705
 30
0.0
 11
4214.805476892439
 21
1958.225840550705
 31
0.0
  0
LINE
  5
176FE
330
747D
100
AcDbEntity
  8
細線
 48
50.0
100
AcDbLine
 10
4199.805476892439
 20
4048.225840550705
 30
0.0
 11
4199.805476892439
 21
1958.225840550705
 31
0.0
  0
LINE
  5
176FF
330
747D
100
AcDbEntity
  8
細線
 48
50.0
100
AcDbLine
 10
4059.805476892439
 20
4048.225840550705
 30
0.0
 11
4059.805476892439
 21
1958.225840550705
 31
0.0
  0
LINE
  5
17700
330
747D
100
AcDbEntity
  8
細線
 48
50.0
100
AcDbLine
 10
4074.805476892439
 20
4048.225840550705
 30
0.0
 11
4074.805476892439
 21
1958.225840550705
 31
0.0
  0
DIMENSION
  5
17701
330
747D
100
AcDbEntity
  8
寸法
 48
50.0
100
AcDbDimension
  2
*D6
 10
6652.30547689244
 20
4681.883294130011
 30
0.0
 11
6858.35272098693
 21
4681.883294130011
 31
0.0
 70
   160
 71
     5
 42
80.0
  3
INABA_S40G
100
AcDbAlignedDimension
 13
6572.30547689244
 23
4230.03652016236
 33
0.0
 14
6652.30547689244
 24
4228.225840550707
 34
0.0
100
AcDbRotatedDimension
1001
ACAD
1000
DSTYLE
1002
{
1070
   174
1070
     0
1070
   272
1070
     1
1070
   288
1070
     0
1070
   341
1005
0
1002
}
  0
LINE
  5
17702
330
747D
100
AcDbEntity
  8
部品1
100
AcDbLine
 10
4837.305476892439
 20
4048.225840550705
 30
0.0
 11
4837.305476892439
 21
1958.225840550705
 31
0.0
  0
LINE
  5
17703
330
747D
100
AcDbEntity
  8
細線
 48
50.0
100
AcDbLine
 10
5179.805476892443
 20
4048.225840550705
 30
0.0
 11
5179.805476892443
 21
1958.225840550705
 31
0.0
  0
LINE
  5
17704
330
747D
100
AcDbEntity
  8
細線
 48
50.0
100
AcDbLine
 10
5194.805476892443
 20
4048.225840550705
 30
0.0
 11
5194.805476892443
 21
1958.225840550705
 31
0.0
  0
LINE
  5
17705
330
747D
100
AcDbEntity
  8
細線
 48
50.0
100
AcDbLine
 10
5054.805476892443
 20
4048.225840550705
 30
0.0
 11
5054.805476892443
 21
1958.225840550705
 31
0.0
  0
LINE
  5
17706
330
747D
100
AcDbEntity
  8
細線
 48
50.0
100
AcDbLine
 10
5039.805476892443
 20
4048.225840550705
 30
0.0
 11
5039.805476892443
 21
1958.225840550705
 31
0.0
  0
LINE
  5
17707
330
747D
100
AcDbEntity
  8
細線
 48
50.0
100
AcDbLine
 10
4899.805476892443
 20
4048.225840550705
 30
0.0
 11
4899.805476892443
 21
1958.225840550705
 31
0.0
  0
LINE
  5
17708
330
747D
100
AcDbEntity
  8
細線
 48
50.0
100
AcDbLine
 10
4914.805476892443
 20
4048.225840550705
 30
0.0
 11
4914.805476892443
 21
1958.225840550705
 31
0.0
  0
LINE
  5
17709
330
747D
100
AcDbEntity
  8
部品1
100
AcDbLine
 10
5257.305476892439
 20
4048.225840550705
 30
0.0
 11
5257.305476892439
 21
1958.225840550705
 31
0.0
  0
LINE
  5
1770A
330
747D
100
AcDbEntity
  8
細線
 48
50.0
100
AcDbLine
 10
6174.805476892447
 20
4048.225840550707
 30
0.0
 11
6174.805476892447
 21
1958.225840550707
 31
0.0
  0
LINE
  5
1770B
330
747D
100
AcDbEntity
  8
細線
 48
50.0
100
AcDbLine
 10
6159.805476892447
 20
4048.225840550707
 30
0.0
 11
6159.805476892447
 21
1958.225840550707
 31
0.0
  0
LINE
  5
1770C
330
747D
100
AcDbEntity
  8
細線
 48
50.0
100
AcDbLine
 10
6299.805476892447
 20
4048.225840550707
 30
0.0
 11
6299.805476892447
 21
1958.225840550707
 31
0.0
  0
LINE
  5
1770D
330
747D
100
AcDbEntity
  8
細線
 48
50.0
100
AcDbLine
 10
6314.805476892447
 20
4048.225840550707
 30
0.0
 11
6314.805476892447
 21
1958.225840550707
 31
0.0
  0
LINE
  5
1770E
330
747D
100
AcDbEntity
  8
細線
 48
50.0
100
AcDbLine
 10
6454.805476892447
 20
4048.225840550707
 30
0.0
 11
6454.805476892447
 21
1958.225840550707
 31
0.0
  0
LINE
  5
1770F
330
747D
100
AcDbEntity
  8
細線
 48
50.0
100
AcDbLine
 10
6439.805476892447
 20
4048.225840550707
 30
0.0
 11
6439.805476892447
 21
1958.225840550707
 31
0.0
  0
LINE
  5
17710
330
747D
100
AcDbEntity
  8
部品1
100
AcDbLine
 10
4142.305476892439
 20
1908.225840550705
 30
0.0
 11
4142.305476892439
 21
1808.225840550705
 31
0.0
  0
LINE
  5
17711
330
747D
100
AcDbEntity
  8
部品1
100
AcDbLine
 10
6372.305476892439
 20
1908.225840550705
 30
0.0
 11
6372.305476892439
 21
1808.225840550705
 31
0.0
  0
LINE
  5
17712
330
747D
100
AcDbEntity
  8
部品1
 48
50.0
100
AcDbLine
 10
6649.305476892443
 20
1908.225840550705
 30
0.0
 11
6564.805476892442
 21
1908.225840550705
 31
0.0
  0
LINE
  5
17713
330
747D
100
AcDbEntity
  8
部品1
 48
50.0
100
AcDbLine
 10
6649.305476892443
 20
4033.225840550705
 30
0.0
 11
6649.305476892443
 21
1808.225840550705
 31
0.0
  0
LINE
  5
17714
330
747D
100
AcDbEntity
  8
部品1
 48
50.0
100
AcDbLine
 10
6572.305476892442
 20
4043.225840550705
 30
0.0
 11
6649.305476892443
 21
4033.225840550705
 31
0.0
  0
LINE
  5
17715
330
747D
100
AcDbEntity
  8
破線
 48
5.0
100
AcDbLine
 10
6444.805476892446
 20
1808.225840550705
 30
0.0
 11
6444.805476892446
 21
1608.225840550705
 31
0.0
  0
LINE
  5
17716
330
747D
100
AcDbEntity
  8
破線
 48
5.0
100
AcDbLine
 10
6644.805476892443
 20
1608.225840550702
 30
0.0
 11
6444.805476892446
 21
1608.225840550705
 31
0.0
  0
LINE
  5
17717
330
747D
100
AcDbEntity
  8
破線
 48
5.0
100
AcDbLine
 10
6644.805476892447
 20
1808.225840550705
 30
0.0
 11
6644.805476892443
 21
1608.225840550702
 31
0.0
  0
DIMENSION
  5
17718
330
747D
100
AcDbEntity
  8
寸法
 48
50.0
100
AcDbDimension
  2
*D7
 10
3869.805476892443
 20
1322.178511250325
 30
0.0
 11
3969.805476892442
 21
1322.178511250325
 31
0.0
 70
   160
 71
     5
 42
199.9999999999963
  3
INABA_S40G
100
AcDbAlignedDimension
 13
4069.805476892439
 23
1608.225840550702
 33
0.0
 14
3869.805476892443
 24
1608.225840550703
 34
0.0
100
AcDbRotatedDimension
  0
LINE
  5
17719
330
747D
100
AcDbEntity
  8
破線
 48
5.0
100
AcDbLine
 10
3869.80547689244
 20
1808.225840550705
 30
0.0
 11
3869.805476892443
 21
1608.225840550702
 31
0.0
  0
LINE
  5
1771A
330
747D
100
AcDbEntity
  8
破線
 48
5.0
100
AcDbLine
 10
4069.805476892439
 20
1808.225840550705
 30
0.0
 11
4069.805476892439
 21
1608.225840550702
 31
0.0
  0
LINE
  5
1771B
330
747D
100
AcDbEntity
  8
破線
 48
5.0
100
AcDbLine
 10
4069.805476892439
 20
1608.225840550702
 30
0.0
 11
3869.805476892443
 21
1608.225840550702
 31
0.0
  0
DIMENSION
  5
1771C
330
747D
100
AcDbEntity
  8
寸法
 48
50.0
100
AcDbDimension
  2
*D8
 10
3720.305473645806
 20
1808.225840550704
 30
0.0
 11
3720.305473645805
 21
1708.225840550704
 31
0.0
 70
   160
 71
     5
 42
200.0
  3
INABA_S40G
100
AcDbAlignedDimension
 13
3869.805476892443
 23
1608.225840550703
 33
0.0
 14
3844.805476892439
 24
1808.225840550704
 34
0.0
 50
90.0
100
AcDbRotatedDimension
1001
ACAD
1000
DSTYLE
1002
{
1070
   174
1070
     0
1070
   272
1070
     1
1070
   288
1070
     0
1070
   341
1005
0
1002
}
  0
DIMENSION
  5
1771D
330
747D
100
AcDbEntity
  8
寸法
 48
50.0
100
AcDbDimension
  2
*D9
 10
3321.69707012409
 20
4157.571099424035
 30
0.0
 11
3332.362545383015
 21
4528.417762665733
 31
0.0
 70
   161
 71
     5
 42
141.0
  3
INABA_S40G
100
AcDbAlignedDimension
 13
3901.701497051019
 23
4281.948589385384
 33
0.0
 14
3897.648041494393
 24
4141.006865619671
 34
0.0
1001
ACAD
1000
DSTYLE
1002
{
1070
   174
1070
     0
1070
   272
1070
     1
1070
   288
1070
     0
1070
   341
1005
0
1002
}
  0
LINE
  5
1771E
330
747D
100
AcDbEntity
  8
部品1
100
AcDbLine
 10
6564.805476892439
 20
1908.225840550705
 30
0.0
 11
6572.305476892442
 21
1908.225840550705
 31
0.0
  0
LINE
  5
1771F
330
747D
100
AcDbEntity
  8
破線
  6
HIDDEN
 48
5.0
100
AcDbLine
 10
3989.80547689244
 20
1808.225840550705
 30
0.0
 11
3989.80547689244
 21
1803.225840550705
 31
0.0
  0
LINE
  5
17720
330
747D
100
AcDbEntity
  8
破線
  6
HIDDEN
 48
5.0
100
AcDbLine
 10
3949.805476892447
 20
1808.225840550705
 30
0.0
 11
3949.805476892447
 21
1803.225840550705
 31
0.0
  0
LINE
  5
17721
330
747D
100
AcDbEntity
  8
破線
  6
HIDDEN
 48
5.0
100
AcDbLine
 10
6564.805476892439
 20
1808.225840550705
 30
0.0
 11
6564.805476892439
 21
1803.225840550705
 31
0.0
  0
LINE
  5
17722
330
747D
100
AcDbEntity
  8
破線
  6
HIDDEN
 48
5.0
100
AcDbLine
 10
6524.805476892439
 20
1808.225840550705
 30
0.0
 11
6524.805476892439
 21
1803.225840550705
 31
0.0
  0
ARC
  5
17723
330
747D
100
AcDbEntity
  8
部品1
 48
50.0
100
AcDbCircle
 10
6559.80547689244
 20
1948.225840550705
 30
0.0
 40
5.0
100
AcDbArc
 50
0.0
 51
90.0
  0
ARC
  5
17724
330
747D
100
AcDbEntity
  8
部品1
 48
50.0
100
AcDbCircle
 10
6529.80547689244
 20
1948.225840550705
 30
0.0
 40
5.0
100
AcDbArc
 50
90.0
 51
180.0
  0
LINE
  5
17725
330
747D
100
AcDbEntity
  8
部品1
100
AcDbLine
 10
6559.80547689244
 20
1953.225840550705
 30
0.0
 11
6529.80547689244
 21
1953.225840550705
 31
0.0
  0
LINE
  5
17726
330
747D
100
AcDbEntity
  8
部品1
 48
50.0
100
AcDbLine
 10
6564.805476892439
 20
1948.225840550705
 30
0.0
 11
6564.805476892439
 21
1808.225840550705
 31
0.0
  0
LINE
  5
17727
330
747D
100
AcDbEntity
  8
部品1
 48
50.0
100
AcDbLine
 10
6524.805476892439
 20
1948.225840550705
 30
0.0
 11
6524.805476892439
 21
1808.225840550705
 31
0.0
  0
ARC
  5
17728
330
747D
100
AcDbEntity
  8
部品1
 48
50.0
100
AcDbCircle
 10
3984.805476892439
 20
1948.225840550705
 30
0.0
 40
5.0
100
AcDbArc
 50
0.0
 51
90.0
  0
ARC
  5
17729
330
747D
100
AcDbEntity
  8
部品1
 48
50.0
100
AcDbCircle
 10
3954.80547689244
 20
1948.225840550705
 30
0.0
 40
5.0
100
AcDbArc
 50
90.0
 51
180.0
  0
LINE
  5
1772A
330
747D
100
AcDbEntity
  8
部品1
100
AcDbLine
 10
3954.80547689244
 20
1953.225840550705
 30
0.0
 11
3984.805476892439
 21
1953.225840550705
 31
0.0
  0
LINE
  5
1772B
330
747D
100
AcDbEntity
  8
部品1
 48
50.0
100
AcDbLine
 10
3989.80547689244
 20
1948.225840550705
 30
0.0
 11
3989.80547689244
 21
1808.225840550705
 31
0.0
  0
LINE
  5
1772C
330
747D
100
AcDbEntity
  8
部品1
 48
50.0
100
AcDbLine
 10
3949.80547689244
 20
1948.225840550705
 30
0.0
 11
3949.80547689244
 21
1808.225840550705
 31
0.0
  0
LINE
  5
1772D
330
747D
100
AcDbEntity
  8
破線
  6
HIDDEN
 48
5.0
100
AcDbLine
 10
3989.80547689244
 20
1803.225840550705
 30
0.0
 11
4004.805476892439
 21
1655.525840550704
 31
0.0
  0
LINE
  5
1772E
330
747D
100
AcDbEntity
  8
破線
  6
HIDDEN
 48
5.0
100
AcDbLine
 10
3949.80547689244
 20
1803.225840550705
 30
0.0
 11
3934.805476892439
 21
1655.525840550704
 31
0.0
  0
LINE
  5
1772F
330
747D
100
AcDbEntity
  8
破線
  6
HIDDEN
 48
5.0
100
AcDbLine
 10
4004.805476892439
 20
1655.525840550704
 30
0.0
 11
4004.805476892439
 21
1653.225840550705
 31
0.0
  0
LINE
  5
17730
330
747D
100
AcDbEntity
  8
破線
  6
HIDDEN
 48
5.0
100
AcDbLine
 10
3934.805476892439
 20
1655.525840550704
 30
0.0
 11
3934.805476892439
 21
1653.225840550705
 31
0.0
  0
LINE
  5
17731
330
747D
100
AcDbEntity
  8
破線
  6
HIDDEN
 48
5.0
100
AcDbLine
 10
3934.805476892439
 20
1653.225840550705
 30
0.0
 11
4004.805476892439
 21
1653.225840550705
 31
0.0
  0
LINE
  5
17732
330
747D
100
AcDbEntity
  8
破線
  6
HIDDEN
 48
5.0
100
AcDbLine
 10
6579.80547689244
 20
1655.525840550704
 30
0.0
 11
6579.80547689244
 21
1653.225840550705
 31
0.0
  0
LINE
  5
17733
330
747D
100
AcDbEntity
  8
破線
  6
HIDDEN
 48
5.0
100
AcDbLine
 10
6564.805476892439
 20
1803.225840550705
 30
0.0
 11
6579.80547689244
 21
1655.525840550704
 31
0.0
  0
LINE
  5
17734
330
747D
100
AcDbEntity
  8
破線
  6
HIDDEN
 48
5.0
100
AcDbLine
 10
6509.80547689244
 20
1655.525840550704
 30
0.0
 11
6509.80547689244
 21
1653.225840550705
 31
0.0
  0
LINE
  5
17735
330
747D
100
AcDbEntity
  8
破線
  6
HIDDEN
 48
5.0
100
AcDbLine
 10
6524.805476892439
 20
1803.225840550705
 30
0.0
 11
6509.80547689244
 21
1655.525840550704
 31
0.0
  0
LINE
  5
17736
330
747D
100
AcDbEntity
  8
破線
  6
HIDDEN
 48
5.0
100
AcDbLine
 10
6579.80547689244
 20
1653.225840550705
 30
0.0
 11
6509.80547689244
 21
1653.225840550705
 31
0.0
  0
DIMENSION
  5
17737
330
747D
100
AcDbEntity
  8
寸法
100
AcDbDimension
  2
*D10
 10
3318.652767734143
 20
1908.225840550705
 30
0.0
 11
3318.652767734142
 21
1602.178596456211
 31
0.0
 70
   160
 71
     5
 42
50.0
  3
INABA_S40G
100
AcDbAlignedDimension
 13
3942.305476892439
 23
1958.225840550704
 33
0.0
 14
3887.30547689244
 24
1908.225840550704
 34
0.0
 50
90.0
100
AcDbRotatedDimension
1001
ACAD
1000
DSTYLE
1002
{
1070
   174
1070
     0
1070
   272
1070
     1
1070
   288
1070
     0
1070
   341
1005
0
1002
}
  0
DIMENSION
  5
17738
330
747D
100
AcDbEntity
  8
寸法
100
AcDbDimension
  2
*D11
 10
3033.666094963081
 20
1808.225840550704
 30
0.0
 11
3033.666094963081
 21
1572.178596456211
 31
0.0
 70
   160
 71
     5
 42
100.0000000000002
  3
INABA_S40G
100
AcDbAlignedDimension
 13
3887.30547689244
 23
1908.225840550704
 33
0.0
 14
3318.652767734142
 24
1808.225840550704
 34
0.0
 50
90.0
100
AcDbRotatedDimension
1001
ACAD
1000
DSTYLE
1002
{
1070
   174
1070
     0
1070
   272
1070
     1
1070
   288
1070
     0
1070
   341
1005
0
1002
}
  0
DIMENSION
  5
17739
330
747D
100
AcDbEntity
  8
寸法
100
AcDbDimension
  2
*D12
 10
3033.666094963082
 20
4283.225840550708
 30
0.0
 11
3033.666094963081
 21
3068.225840550707
 31
0.0
 70
   160
 71
     5
 42
2375.000000000005
  3
INABA_S40G
100
AcDbAlignedDimension
 13
3942.305476892439
 23
1908.225840550704
 33
0.0
 14
3882.305476892439
 24
4283.225840550708
 34
0.0
 50
90.0
100
AcDbRotatedDimension
1001
ACAD
1000
DSTYLE
1002
{
1070
   174
1070
     0
1070
   272
1070
     1
1070
   288
1070
     0
1070
   341
1005
0
1002
}
  0
DIMENSION
  5
1773A
330
747D
100
AcDbEntity
  8
寸法
100
AcDbDimension
  2
*D13
 10
3318.652767734143
 20
1958.225840550705
 30
0.0
 11
3318.652767734142
 21
3068.225840550707
 31
0.0
 70
   160
 71
     5
 42
2090.0
  3
INABA_S40G
100
AcDbAlignedDimension
 13
3942.305476892439
 23
4048.225840550705
 33
0.0
 14
3942.305476892439
 24
1958.225840550704
 34
0.0
 50
90.0
100
AcDbRotatedDimension
1001
ACAD
1000
DSTYLE
1002
{
1070
   174
1070
     0
1070
   272
1070
     1
1070
   288
1070
     0
1070
   341
1005
0
1002
}
  0
LINE
  5
1773B
330
747D
100
AcDbEntity
  8
部品1
100
AcDbLine
 10
3942.305476892439
 20
1908.225840550705
 30
0.0
 11
3949.80547689244
 21
1908.225840550705
 31
0.0
  0
LINE
  5
1773C
330
747D
100
AcDbEntity
  8
部品1
100
AcDbLine
 10
3942.305476892439
 20
1908.225840550705
 30
0.0
 11
3949.80547689244
 21
1908.225840550705
 31
0.0
  0
LINE
  5
1773D
330
747D
100
AcDbEntity
  8
部品1
100
AcDbLine
 10
6564.805476892439
 20
1908.225840550705
 30
0.0
 11
6572.305476892442
 21
1908.225840550705
 31
0.0
  0
LINE
  5
1773E
330
747D
100
AcDbEntity
  8
部品1
100
AcDbLine
 10
5649.04081000666
 20
1119.187577573295
 30
0.0
 11
4885.570143778219
 21
1119.187577573295
 31
0.0
  0
LINE
  5
1773F
330
747D
100
AcDbEntity
  8
部品1
100
AcDbLine
 10
5649.04081000666
 20
879.2952560277626
 30
0.0
 11
5649.04081000666
 21
1119.187577573295
 31
0.0
  0
LINE
  5
17740
330
747D
100
AcDbEntity
  8
部品1
100
AcDbLine
 10
4885.570143778219
 20
879.2952560277626
 30
0.0
 11
5649.04081000666
 21
879.2952560277626
 31
0.0
  0
LINE
  5
17741
330
747D
100
AcDbEntity
  8
部品1
100
AcDbLine
 10
4885.570143778219
 20
1119.187577573295
 30
0.0
 11
4885.570143778219
 21
879.2952560277626
 31
0.0
  0
TEXT
  5
17742
330
747D
100
AcDbEntity
  8
部品1
100
AcDbText
 10
4975.016245201826
 20
926.2940483547717
 30
0.0
 40
135.0
  1
側面図
  7
STYLE2
100
AcDbText
  0
TEXT
  5
17743
330
747D
100
AcDbEntity
  8
部品1
100
AcDbText
 10
2120.886376928094
 20
1844.332744156607
 30
0.0
 40
125.0
  1
▽G.L
  7
STYLE2
100
AcDbText
  0
LINE
  5
17744
330
747D
100
AcDbEntity
  8
部品1
100
AcDbLine
 10
11266.4025062297
 20
8131.952473986853
 30
0.0
 11
11294.40250622969
 21
8131.952473986853
 31
0.0
  0
LINE
  5
17745
330
747D
100
AcDbEntity
  8
部品1
100
AcDbLine
 10
8692.402506229672
 20
8131.952473986729
 30
0.0
 11
8664.402506229672
 21
8131.952473986729
 31
0.0
  0
LINE
  5
17746
330
747D
100
AcDbEntity
  8
部品1
100
AcDbLine
 10
11237.90250622968
 20
8131.952473986823
 30
0.0
 11
8720.90250622968
 21
8131.952473986729
 31
0.0
  0
LINE
  5
17747
330
747D
100
AcDbEntity
  8
部品1
100
AcDbLine
 10
11266.4025062297
 20
7711.952473986852
 30
0.0
 11
11294.40250622969
 21
7711.952473986852
 31
0.0
  0
LINE
  5
17748
330
747D
100
AcDbEntity
  8
部品1
100
AcDbLine
 10
8692.402506229672
 20
7711.952473986729
 30
0.0
 11
8664.402506229672
 21
7711.952473986729
 31
0.0
  0
LINE
  5
17749
330
747D
100
AcDbEntity
  8
部品1
100
AcDbLine
 10
11237.90250622968
 20
7711.952473986823
 30
0.0
 11
8720.90250622968
 21
7711.952473986729
 31
0.0
  0
LINE
  5
1774A
330
747D
100
AcDbEntity
  8
Ｇ．Ｌ
100
AcDbLine
 10
2056.67132519251
 20
1808.225840550705
 30
0.0
 11
11943.91505925853
 21
1808.225840550705
 31
0.0
  0
TEXT
  5
1774B
330
747D
100
AcDbEntity
  8
部品1
100
AcDbText
 10
9688.192576853422
 20
926.2940483547717
 30
0.0
 40
135.0
  1
正面図
  7
STYLE2
100
AcDbText
  0
LINE
  5
17751
330
747D
100
AcDbEntity
  8
部品1
100
AcDbLine
 10
9597.667173115468
 20
1119.187577573295
 30
0.0
 11
9597.667173115468
 21
879.2952560277626
 31
0.0
  0
LINE
  5
17752
330
747D
100
AcDbEntity
  8
部品1
100
AcDbLine
 10
9597.667173115468
 20
879.2952560277626
 30
0.0
 11
10361.1378393439
 21
879.2952560277626
 31
0.0
  0
LINE
  5
17753
330
747D
100
AcDbEntity
  8
部品1
100
AcDbLine
 10
10361.1378393439
 20
879.2952560277626
 30
0.0
 11
10361.1378393439
 21
1119.187577573295
 31
0.0
  0
LINE
  5
17754
330
747D
100
AcDbEntity
  8
部品1
100
AcDbLine
 10
10361.1378393439
 20
1119.187577573295
 30
0.0
 11
9597.667173115468
 21
1119.187577573295
 31
0.0
  0
DIMENSION
  5
17755
330
747D
100
AcDbEntity
  8
寸法
 48
50.0
100
AcDbDimension
  2
*D14
 10
8320.818803958479
 20
1966.225840550706
 30
0.0
 11
8320.818803958479
 21
2999.450514426007
 31
0.0
 70
   160
  1
有効開口部高サ<>
 71
     5
 42
2025.0
  3
INABA_S40G
100
AcDbAlignedDimension
 13
9112.402506229688
 23
3991.225840550706
 33
0.0
 14
9112.402506229688
 24
1966.225840550706
 34
0.0
 50
90.0
100
AcDbRotatedDimension
  0
DIMENSION
  5
17756
330
747D
100
AcDbEntity
  8
寸法
 48
50.0
100
AcDbDimension
  2
*D15
 10
8564.402506229686
 20
1322.178511250327
 30
0.0
 11
8664.402506229686
 21
1322.178511250327
 31
0.0
 70
   160
 71
     5
 42
200.0000000000018
  3
INABA_S40G
100
AcDbAlignedDimension
 13
8764.402506229687
 23
1608.225840550705
 33
0.0
 14
8564.402506229686
 24
1608.225840550705
 34
0.0
100
AcDbRotatedDimension
  0
LINE
  5
17757
330
747D
100
AcDbEntity
  8
破線
 48
5.0
100
AcDbLine
 10
8564.402506229686
 20
1608.225840550705
 30
0.0
 11
8764.402506229687
 21
1608.225840550705
 31
0.0
  0
LINE
  5
17758
330
747D
100
AcDbEntity
  8
破線
 48
5.0
100
AcDbLine
 10
8564.402506229686
 20
1808.225840550705
 30
0.0
 11
8564.402506229686
 21
1608.225840550705
 31
0.0
  0
LINE
  5
17759
330
747D
100
AcDbEntity
  8
部品1
100
AcDbLine
 10
8664.402506229686
 20
4048.225840550705
 30
0.0
 11
11294.40250622968
 21
4048.225840550705
 31
0.0
  0
LINE
  5
1775A
330
747D
100
AcDbEntity
  8
部品1
 48
50.0
100
AcDbLine
 10
9112.402506229688
 20
1908.225840550705
 30
0.0
 11
11266.40250622969
 21
1908.225840550705
 31
0.0
  0
LINE
  5
1775B
330
747D
100
AcDbEntity
  8
部品1
 48
50.0
100
AcDbLine
 10
8692.402506229688
 20
1908.225840550705
 30
0.0
 11
11266.40250622969
 21
1908.225840550705
 31
0.0
  0
LINE
  5
1775C
330
747D
100
AcDbEntity
  8
破線
 48
5.0
100
AcDbLine
 10
11394.40250622968
 20
1608.225840550705
 30
0.0
 11
11194.40250622968
 21
1608.225840550705
 31
0.0
  0
LINE
  5
1775D
330
747D
100
AcDbEntity
  8
部品1
100
AcDbLine
 10
8664.402506229686
 20
4048.225840550705
 30
0.0
 11
11294.40250622968
 21
4048.225840550705
 31
0.0
  0
LINE
  5
1775E
330
747D
100
AcDbEntity
  8
部品1
100
AcDbLine
 10
8664.402506229686
 20
1908.225840550705
 30
0.0
 11
11294.40250622968
 21
1908.225840550705
 31
0.0
  0
LINE
  5
1775F
330
747D
100
AcDbEntity
  8
部品1
 48
50.0
100
AcDbLine
 10
8719.402506229688
 20
1958.225840550725
 30
0.0
 11
8719.402506229688
 21
4048.225840550705
 31
0.0
  0
LINE
  5
17760
330
747D
100
AcDbEntity
  8
部品1
100
AcDbLine
 10
8664.402506229684
 20
4101.725840550705
 30
0.0
 11
8664.402506229686
 21
1808.225840550705
 31
0.0
  0
LINE
  5
17761
330
747D
100
AcDbEntity
  8
部品1
100
AcDbLine
 10
8659.402506229687
 20
1953.225840550707
 30
0.0
 11
8659.402506229687
 21
1808.225840550705
 31
0.0
  0
LINE
  5
17762
330
747D
100
AcDbEntity
  8
破線
 48
5.0
100
AcDbLine
 10
8659.402506229687
 20
1808.225840550705
 30
0.0
 11
8659.402506229687
 21
1653.225840550705
 31
0.0
  0
LINE
  5
17763
330
747D
100
AcDbEntity
  8
破線
 48
5.0
100
AcDbLine
 10
8764.402506229686
 20
1808.225840550705
 30
0.0
 11
8764.402506229686
 21
1608.225840550705
 31
0.0
  0
LINE
  5
17764
330
747D
100
AcDbEntity
  8
破線
 48
5.0
100
AcDbLine
 10
8639.402506229686
 20
1653.225840550705
 30
0.0
 11
8659.402506229687
 21
1653.225840550705
 31
0.0
  0
LINE
  5
17765
330
747D
100
AcDbEntity
  8
部品1
100
AcDbLine
 10
9064.402506229686
 20
1908.225840550705
 30
0.0
 11
9064.402506229686
 21
1808.225840550705
 31
0.0
  0
LINE
  5
17766
330
747D
100
AcDbEntity
  8
部品1
100
AcDbLine
 10
8664.402506229686
 20
1958.225840550725
 30
0.0
 11
9112.402506229688
 21
1958.225840550725
 31
0.0
  0
LINE
  5
17767
330
747D
100
AcDbEntity
  8
部品1
 48
50.0
100
AcDbLine
 10
9464.402506229687
 20
1908.225840550705
 30
0.0
 11
9464.402506229687
 21
1808.225840550705
 31
0.0
  0
LINE
  5
17768
330
747D
100
AcDbEntity
  8
部品1
 48
50.0
100
AcDbLine
 10
9664.402506229686
 20
1908.225840550705
 30
0.0
 11
9664.402506229686
 21
1808.225840550705
 31
0.0
  0
LINE
  5
17769
330
747D
100
AcDbEntity
  8
部品1
 48
50.0
100
AcDbLine
 10
10294.40250622968
 20
1908.225840550705
 30
0.0
 11
10294.40250622968
 21
1808.225840550705
 31
0.0
  0
LINE
  5
1776A
330
747D
100
AcDbEntity
  8
部品1
 48
50.0
100
AcDbLine
 10
10494.40250622968
 20
1908.225840550705
 30
0.0
 11
10494.40250622968
 21
1808.225840550705
 31
0.0
  0
LINE
  5
1776B
330
747D
100
AcDbEntity
  8
部品1
100
AcDbLine
 10
10894.40250622968
 20
1908.225840550705
 30
0.0
 11
10894.40250622968
 21
1808.225840550705
 31
0.0
  0
LINE
  5
1776C
330
747D
100
AcDbEntity
  8
破線
 48
5.0
100
AcDbLine
 10
11194.40250622968
 20
1808.225840550705
 30
0.0
 11
11194.40250622968
 21
1608.225840550705
 31
0.0
  0
LINE
  5
1776D
330
747D
100
AcDbEntity
  8
部品1
 48
50.0
100
AcDbLine
 10
9139.402506229687
 20
4043.225840550705
 30
0.0
 11
9139.402506229687
 21
4048.225840550705
 31
0.0
  0
LINE
  5
1776E
330
747D
100
AcDbEntity
  8
部品1
100
AcDbLine
 10
11294.40250622969
 20
4101.725840550705
 30
0.0
 11
11294.40250622968
 21
1808.225840550705
 31
0.0
  0
LINE
  5
1776F
330
747D
100
AcDbEntity
  8
部品1
100
AcDbLine
 10
11299.40250622968
 20
1953.225840550705
 30
0.0
 11
11299.40250622968
 21
1808.225840550705
 31
0.0
  0
LINE
  5
17770
330
747D
100
AcDbEntity
  8
破線
 48
5.0
100
AcDbLine
 10
11299.40250622968
 20
1808.225840550705
 30
0.0
 11
11299.40250622968
 21
1653.225840550705
 31
0.0
  0
LINE
  5
17771
330
747D
100
AcDbEntity
  8
破線
 48
5.0
100
AcDbLine
 10
11394.40250622968
 20
1808.225840550705
 30
0.0
 11
11394.40250622968
 21
1608.225840550705
 31
0.0
  0
LINE
  5
17772
330
747D
100
AcDbEntity
  8
破線
 48
5.0
100
AcDbLine
 10
11319.40250622968
 20
1653.225840550705
 30
0.0
 11
11299.40250622968
 21
1653.225840550705
 31
0.0
  0
LINE
  5
17773
330
747D
100
AcDbEntity
  8
部品1
100
AcDbLine
 10
11266.40250622969
 20
1958.225840550725
 30
0.0
 11
11294.40250622968
 21
1958.225840550725
 31
0.0
  0
LINE
  5
17774
330
747D
100
AcDbEntity
  8
部品1
 48
50.0
100
AcDbLine
 10
11239.40250622968
 20
4043.225840550705
 30
0.0
 11
11239.40250622968
 21
4048.225840550705
 31
0.0
  0
DIMENSION
  5
17775
330
747D
100
AcDbEntity
  8
寸法
100
AcDbDimension
  2
*D16
 10
8719.402506229696
 20
10166.95247398675
 30
0.0
 11
8355.917224855422
 21
10166.95247398675
 31
0.0
 70
   160
 71
     5
 42
55.00000000003637
  3
INABA_S40G
100
AcDbAlignedDimension
 13
8664.402506229661
 23
9866.952473986756
 33
0.0
 14
8719.402506229696
 24
9866.952473986756
 34
0.0
100
AcDbRotatedDimension
1001
ACAD
1000
DSTYLE
1002
{
1002
}
  0
DIMENSION
  5
17776
330
747D
100
AcDbEntity
  8
寸法
100
AcDbDimension
  2
*D17
 10
9879.168574393698
 20
9066.989084442203
 30
0.0
 11
9242.668574393663
 21
9066.989084442203
 31
0.0
 70
   160
 71
     5
 42
1273.000000000069
  3
INABA_S40G
100
AcDbAlignedDimension
 13
8691.902506229629
 23
9386.952473986802
 33
0.0
 14
9964.902506229698
 24
9386.952473986795
 34
0.0
100
AcDbRotatedDimension
1001
ACAD
1000
DSTYLE
1002
{
1002
}
  0
DIMENSION
  5
17777
330
747D
100
AcDbEntity
  8
寸法
100
AcDbDimension
  2
*D18
 10
11294.40250622969
 20
10166.95247398675
 30
0.0
 11
11602.88778760393
 21
10166.95247398675
 31
0.0
 70
   160
 71
     5
 42
55.0
  3
INABA_S40G
100
AcDbAlignedDimension
 13
11239.40250622969
 23
9866.952473986851
 33
0.0
 14
11294.40250622969
 24
9866.952473986851
 34
0.0
100
AcDbRotatedDimension
1001
ACAD
1000
DSTYLE
1002
{
1002
}
  0
DIMENSION
  5
17778
330
747D
100
AcDbEntity
  8
寸法
100
AcDbDimension
  2
*D19
 10
11239.40250622969
 20
10166.95247398675
 30
0.0
 11
9979.402506229694
 21
10166.95247398675
 31
0.0
 70
   160
  1
6X420=<>
 71
     5
 42
2520.0
  3
INABA_S40G
100
AcDbAlignedDimension
 13
8719.402506229696
 23
9866.952473986756
 33
0.0
 14
11239.40250622969
 24
9866.952473986851
 34
0.0
100
AcDbRotatedDimension
1001
ACAD
1000
DSTYLE
1002
{
1002
}
  0
LINE
  5
17779
330
747D
100
AcDbEntity
  8
部品1
100
AcDbLine
 10
11237.90250622969
 20
7293.452473986838
 30
0.0
 11
8720.90250622959
 21
7293.452473986722
 31
0.0
  0
LINE
  5
1777A
330
747D
100
AcDbEntity
  8
部品1
100
AcDbLine
 10
8664.402506229697
 20
9866.952473986758
 30
0.0
 11
11294.40250622969
 21
9866.952473986852
 31
0.0
  0
DIMENSION
  5
1777C
330
747D
100
AcDbEntity
  8
寸法
100
AcDbDimension
  2
*D20
 10
11179.16857439369
 20
9066.989084442203
 30
0.0
 11
10612.29041354371
 21
9066.989084442203
 31
0.0
 70
   160
 71
     5
 42
1273.000000000011
  3
INABA_S40G
100
AcDbAlignedDimension
 13
9991.902506229697
 23
9386.952473986861
 33
0.0
 14
11264.90250622971
 24
9386.952473986854
 34
0.0
100
AcDbRotatedDimension
1001
ACAD
1000
DSTYLE
1002
{
1002
}
  0
LINE
  5
1777D
330
747D
100
AcDbEntity
  8
細線
 48
50.0
100
AcDbLine
 10
11265.90250622969
 20
9836.952473986853
 30
0.0
 11
9992.902506229697
 21
9386.952473986859
 31
0.0
  0
LINE
  5
1777E
330
747D
100
AcDbEntity
  8
部品1
100
AcDbLine
 10
9992.902506229697
 20
9836.95247398686
 30
0.0
 11
11265.90250622969
 21
9836.952473986853
 31
0.0
  0
LINE
  5
1777F
330
747D
100
AcDbEntity
  8
部品1
100
AcDbLine
 10
9992.902506229697
 20
9386.952473986859
 30
0.0
 11
11265.90250622969
 21
9386.952473986852
 31
0.0
  0
LINE
  5
17780
330
747D
100
AcDbEntity
  8
細線
 48
50.0
100
AcDbLine
 10
11265.90250622969
 20
9386.952473986852
 30
0.0
 11
9992.902506229697
 21
9836.952473986853
 31
0.0
  0
LINE
  5
17781
330
747D
100
AcDbEntity
  8
部品1
100
AcDbLine
 10
9991.902506229697
 20
9838.952473986866
 30
0.0
 11
11266.4025062297
 21
9838.952473986852
 31
0.0
  0
LINE
  5
17782
330
747D
100
AcDbEntity
  8
部品1
100
AcDbLine
 10
11237.90250622968
 20
8971.952473986823
 30
0.0
 11
8720.90250622968
 21
8971.952473986728
 31
0.0
  0
LINE
  5
17783
330
747D
100
AcDbEntity
  8
部品1
 48
50.0
100
AcDbLine
 10
8692.402506229688
 20
7264.952473986823
 30
0.0
 11
11266.40250622971
 21
7264.95247398683
 31
0.0
  0
LINE
  5
17784
330
747D
100
AcDbEntity
  8
破線
 48
10.0
100
AcDbLine
 10
11214.40250622969
 20
9386.952473986852
 30
0.0
 11
11214.4025062297
 21
7316.952473986837
 31
0.0
  0
LINE
  5
17785
330
747D
100
AcDbEntity
  8
破線
 48
10.0
100
AcDbLine
 10
8744.402506229672
 20
9386.952473986852
 30
0.0
 11
8744.402506229686
 21
7316.952473986721
 31
0.0
  0
LINE
  5
17786
330
747D
100
AcDbEntity
  8
部品1
100
AcDbLine
 10
8692.402506229672
 20
7264.952473986801
 30
0.0
 11
8692.402506229688
 21
9391.952473986728
 31
0.0
  0
LINE
  5
17787
330
747D
100
AcDbEntity
  8
部品1
100
AcDbLine
 10
8664.402506229661
 20
9866.952473986721
 30
0.0
 11
8664.40250622969
 21
7236.952473986715
 31
0.0
  0
LINE
  5
17788
330
747D
100
AcDbEntity
  8
破線
 48
10.0
100
AcDbLine
 10
9538.902506229675
 20
7293.45247398675
 30
0.0
 11
9538.902506229671
 21
9386.952473986859
 31
0.0
  0
LINE
  5
17789
330
747D
100
AcDbEntity
  8
破線
 48
10.0
100
AcDbLine
 10
9588.90250622967
 20
7293.452473986757
 30
0.0
 11
9588.90250622967
 21
9386.952473986859
 31
0.0
  0
LINE
  5
1778A
330
747D
100
AcDbEntity
  8
部品1
100
AcDbLine
 10
8720.902506229673
 20
9386.9524739868
 30
0.0
 11
8720.902506229686
 21
7293.452473986815
 31
0.0
  0
LINE
  5
1778B
330
747D
100
AcDbEntity
  8
破線
 48
10.0
100
AcDbLine
 10
10419.90250622967
 20
7293.452473986757
 30
0.0
 11
10419.90250622967
 21
9386.952473986859
 31
0.0
  0
LINE
  5
1778C
330
747D
100
AcDbEntity
  8
破線
 48
10.0
100
AcDbLine
 10
10369.90250622967
 20
7293.45247398675
 30
0.0
 11
10369.90250622967
 21
9386.952473986859
 31
0.0
  0
LINE
  5
1778D
330
747D
100
AcDbEntity
  8
破線
 48
10.0
100
AcDbLine
 10
10369.90250622967
 20
7316.952473986758
 30
0.0
 11
9588.90250622967
 21
7316.952473986735
 31
0.0
  0
LINE
  5
1778E
330
747D
100
AcDbEntity
  8
破線
 48
10.0
100
AcDbLine
 10
9538.902506229675
 20
7316.952473986707
 30
0.0
 11
8744.402506229683
 21
7316.952473986721
 31
0.0
  0
LINE
  5
1778F
330
747D
100
AcDbEntity
  8
部品1
100
AcDbLine
 10
9139.402506229664
 20
7236.952473986715
 30
0.0
 11
8664.40250622969
 21
7236.952473986715
 31
0.0
  0
LINE
  5
17790
330
747D
100
AcDbEntity
  8
部品1
100
AcDbLine
 10
8664.402506229688
 20
7291.952473986677
 30
0.0
 11
8664.40250622969
 21
7236.952473986677
 31
0.0
  0
LINE
  5
17791
330
747D
100
AcDbEntity
  8
部品1
100
AcDbLine
 10
8692.402506229688
 20
7291.952473986722
 30
0.0
 11
8664.402506229688
 21
7291.952473986722
 31
0.0
  0
LINE
  5
17792
330
747D
100
AcDbEntity
  8
部品1
100
AcDbLine
 10
8692.402506229672
 20
7291.952473986707
 30
0.0
 11
8664.402506229688
 21
7291.952473986707
 31
0.0
  0
LINE
  5
17793
330
747D
100
AcDbEntity
  8
部品1
100
AcDbLine
 10
8692.402506229672
 20
7291.952473986677
 30
0.0
 11
8664.402506229688
 21
7291.952473986677
 31
0.0
  0
LINE
  5
17794
330
747D
100
AcDbEntity
  8
部品1
100
AcDbLine
 10
8719.402506229664
 20
7236.952473986845
 30
0.0
 11
8719.402506229664
 21
7264.952473986845
 31
0.0
  0
LINE
  5
17795
330
747D
100
AcDbEntity
  8
部品1
 48
50.0
100
AcDbLine
 10
8720.902506229686
 20
7293.452473986815
 30
0.0
 11
8692.402506229687
 21
7264.952473986823
 31
0.0
  0
LINE
  5
17796
330
747D
100
AcDbEntity
  8
部品1
100
AcDbLine
 10
9139.402506229664
 20
7236.952473986845
 30
0.0
 11
9139.402506229664
 21
7264.952473986845
 31
0.0
  0
LINE
  5
17797
330
747D
100
AcDbEntity
  8
破線
 48
10.0
100
AcDbLine
 10
11214.40250622969
 20
7316.952473986837
 30
0.0
 11
10419.90250622967
 21
7316.952473986663
 31
0.0
  0
LINE
  5
17798
330
747D
100
AcDbEntity
  8
細線
 48
50.0
100
AcDbLine
 10
9965.902506229696
 20
9386.952473986859
 30
0.0
 11
8692.902506229627
 21
9836.952473986801
 31
0.0
  0
LINE
  5
17799
330
747D
100
AcDbEntity
  8
細線
 48
50.0
100
AcDbLine
 10
9965.902506229697
 20
9836.95247398686
 30
0.0
 11
8692.902506229627
 21
9386.9524739868
 31
0.0
  0
LINE
  5
1779A
330
747D
100
AcDbEntity
  8
部品1
100
AcDbLine
 10
8692.402506229699
 20
9838.952473986866
 30
0.0
 11
9966.902506229693
 21
9838.952473986875
 31
0.0
  0
LINE
  5
1779B
330
747D
100
AcDbEntity
  8
部品1
100
AcDbLine
 10
8692.902506229627
 20
9836.952473986801
 30
0.0
 11
9965.902506229697
 21
9836.95247398686
 31
0.0
  0
LINE
  5
1779C
330
747D
100
AcDbEntity
  8
部品1
100
AcDbLine
 10
8692.902506229627
 20
9386.9524739868
 30
0.0
 11
9965.902506229696
 21
9386.952473986859
 31
0.0
  0
LINE
  5
1779D
330
747D
100
AcDbEntity
  8
部品1
 48
50.0
100
AcDbLine
 10
8692.902506229627
 20
9836.95247398686
 30
0.0
 11
8692.902506229627
 21
9386.952473986859
 31
0.0
  0
LINE
  5
1779E
330
747D
100
AcDbEntity
  8
部品1
100
AcDbLine
 10
8692.402506229687
 20
9386.452473986729
 30
0.0
 11
8692.402506229697
 21
9838.952473986758
 31
0.0
  0
LINE
  5
1779F
330
747D
100
AcDbEntity
  8
部品1
100
AcDbLine
 10
8692.402506229672
 20
8971.952473986728
 30
0.0
 11
8664.402506229672
 21
8971.952473986728
 31
0.0
  0
LINE
  5
177A0
330
747D
100
AcDbEntity
  8
部品1
100
AcDbLine
 10
8692.402506229672
 20
9391.952473986728
 30
0.0
 11
8664.402506229672
 21
9391.952473986728
 31
0.0
  0
LINE
  5
177A1
330
747D
100
AcDbEntity
  8
部品1
100
AcDbLine
 10
8692.402506229665
 20
9811.952473986728
 30
0.0
 11
8664.402506229665
 21
9811.952473986728
 31
0.0
  0
LINE
  5
177A2
330
747D
100
AcDbEntity
  8
部品1
100
AcDbLine
 10
8719.402506229696
 20
9866.952473986758
 30
0.0
 11
8719.402506229696
 21
9838.952473986758
 31
0.0
  0
LINE
  5
177A3
330
747D
100
AcDbEntity
  8
部品1
100
AcDbLine
 10
8719.402506229661
 20
9866.952473986721
 30
0.0
 11
8719.402506229664
 21
9838.952473986722
 31
0.0
  0
LINE
  5
177A4
330
747D
100
AcDbEntity
  8
部品1
100
AcDbLine
 10
9139.402506229661
 20
9866.952473986721
 30
0.0
 11
9139.402506229664
 21
9838.952473986722
 31
0.0
  0
LINE
  5
177A5
330
747D
100
AcDbEntity
  8
部品1
100
AcDbLine
 10
9559.402506229661
 20
9866.952473986721
 30
0.0
 11
9559.402506229664
 21
9838.952473986722
 31
0.0
  0
LINE
  5
177A6
330
747D
100
AcDbEntity
  8
部品1
 48
50.0
100
AcDbLine
 10
9965.902506229697
 20
9836.95247398686
 30
0.0
 11
9965.902506229697
 21
9386.952473986859
 31
0.0
  0
LINE
  5
177A7
330
747D
100
AcDbEntity
  8
部品1
 48
50.0
100
AcDbLine
 10
9992.902506229697
 20
9836.952473986853
 30
0.0
 11
9992.902506229697
 21
9386.952473986859
 31
0.0
  0
LINE
  5
177A8
330
747D
100
AcDbEntity
  8
部品1
 48
50.0
100
AcDbLine
 10
9966.902506229695
 20
9838.952473986866
 30
0.0
 11
9966.902506229697
 21
9386.952473986859
 31
0.0
  0
LINE
  5
177A9
330
747D
100
AcDbEntity
  8
部品1
 48
50.0
100
AcDbLine
 10
9991.902506229697
 20
9838.952473986859
 30
0.0
 11
9991.902506229697
 21
9386.952473986859
 31
0.0
  0
LINE
  5
177AA
330
747D
100
AcDbEntity
  8
部品1
100
AcDbLine
 10
9966.902506229697
 20
9386.952473986859
 30
0.0
 11
9991.902506229697
 21
9386.952473986859
 31
0.0
  0
LINE
  5
177AB
330
747D
100
AcDbEntity
  8
部品1
100
AcDbLine
 10
9966.902506229697
 20
9830.952473986853
 30
0.0
 11
9991.902506229697
 21
9830.95247398686
 31
0.0
  0
LINE
  5
177AC
330
747D
100
AcDbEntity
  8
部品1
100
AcDbLine
 10
9944.402506229698
 20
9856.95247398686
 30
0.0
 11
9944.402506229698
 21
9838.952473986859
 31
0.0
  0
LINE
  5
177AD
330
747D
100
AcDbEntity
  8
部品1
100
AcDbLine
 10
9944.402506229698
 20
9856.95247398686
 30
0.0
 11
9950.402506229698
 21
9856.95247398686
 31
0.0
  0
LINE
  5
177AE
330
747D
100
AcDbEntity
  8
部品1
100
AcDbLine
 10
10014.4025062297
 20
9856.95247398686
 30
0.0
 11
10014.4025062297
 21
9838.952473986859
 31
0.0
  0
LINE
  5
177AF
330
747D
100
AcDbEntity
  8
部品1
100
AcDbLine
 10
10008.40250622969
 20
9856.95247398686
 30
0.0
 11
10014.4025062297
 21
9856.95247398686
 31
0.0
  0
LINE
  5
177B0
330
747D
100
AcDbEntity
  8
部品1
100
AcDbLine
 10
9979.402506229661
 20
9866.952473986721
 30
0.0
 11
9979.402506229664
 21
9838.952473986722
 31
0.0
  0
LINE
  5
177B1
330
747D
100
AcDbEntity
  8
部品1
100
AcDbLine
 10
10399.40250622966
 20
9866.952473986721
 30
0.0
 11
10399.40250622966
 21
9838.952473986722
 31
0.0
  0
LINE
  5
177B2
330
747D
100
AcDbEntity
  8
部品1
100
AcDbLine
 10
10819.40250622966
 20
9866.952473986721
 30
0.0
 11
10819.40250622966
 21
9838.952473986722
 31
0.0
  0
DIMENSION
  5
177B3
330
747D
100
AcDbEntity
  8
寸法
100
AcDbDimension
  2
*D21
 10
12294.4025062297
 20
7236.952473986839
 30
0.0
 11
12294.4025062297
 21
8551.952473986844
 31
0.0
 70
   160
 71
     5
 42
2630.00000000001
  3
INABA_S40G
100
AcDbAlignedDimension
 13
11294.40250622969
 23
9866.952473986851
 33
0.0
 14
11294.40250622967
 24
7236.952473986839
 34
0.0
 50
90.0
100
AcDbRotatedDimension
1001
ACAD
1000
DSTYLE
1002
{
1002
}
  0
DIMENSION
  5
177B4
330
747D
100
AcDbEntity
  8
寸法
100
AcDbDimension
  2
*D22
 10
11994.40250622969
 20
7291.952473986836
 30
0.0
 11
11994.40250622968
 21
8551.952473986844
 31
0.0
 70
   160
  1
6X420=<>
 71
     5
 42
2520.000000000017
  3
INABA_S40G
100
AcDbAlignedDimension
 13
11294.40250622969
 23
9811.952473986854
 33
0.0
 14
11294.40250622967
 24
7291.952473986836
 34
0.0
 50
90.0
100
AcDbRotatedDimension
1001
ACAD
1000
DSTYLE
1002
{
1002
}
  0
LINE
  5
177B5
330
747D
100
AcDbEntity
  8
部品1
100
AcDbLine
 10
11294.40250622969
 20
9866.952473986852
 30
0.0
 11
11294.40250622967
 21
7236.952473986838
 31
0.0
  0
LINE
  5
177B6
330
747D
100
AcDbEntity
  8
部品1
100
AcDbLine
 10
11237.90250622969
 20
9386.952473986852
 30
0.0
 11
11237.90250622969
 21
7293.452473986838
 31
0.0
  0
LINE
  5
177B7
330
747D
100
AcDbEntity
  8
部品1
100
AcDbLine
 10
11266.40250622969
 20
9391.952473986853
 30
0.0
 11
11266.40250622967
 21
7264.952473986845
 31
0.0
  0
DIMENSION
  5
177B8
330
747D
100
AcDbEntity
  8
寸法
100
AcDbDimension
  2
*D23
 10
11994.40250622967
 20
7236.952473986839
 30
0.0
 11
11994.40250622967
 21
6928.467192612588
 31
0.0
 70
   160
 71
     5
 42
54.99999999999636
  3
INABA_S40G
100
AcDbAlignedDimension
 13
11294.40250622967
 23
7291.952473986836
 33
0.0
 14
11294.40250622967
 24
7236.952473986839
 34
0.0
 50
90.0
100
AcDbRotatedDimension
1001
ACAD
1000
DSTYLE
1002
{
1002
}
  0
LINE
  5
177B9
330
747D
100
AcDbEntity
  8
部品1
100
AcDbLine
 10
11294.40250622967
 20
7236.952473986838
 30
0.0
 11
11239.40250622969
 21
7236.952473986831
 31
0.0
  0
LINE
  5
177BA
330
747D
100
AcDbEntity
  8
部品1
100
AcDbLine
 10
11266.40250622967
 20
7291.952473986838
 30
0.0
 11
11294.40250622967
 21
7291.952473986838
 31
0.0
  0
LINE
  5
177BB
330
747D
100
AcDbEntity
  8
部品1
100
AcDbLine
 10
11294.40250622967
 20
7236.952473986838
 30
0.0
 11
11243.40250622967
 21
7236.952473986838
 31
0.0
  0
LINE
  5
177BC
330
747D
100
AcDbEntity
  8
部品1
 48
50.0
100
AcDbLine
 10
11237.90250622969
 20
7293.452473986838
 30
0.0
 11
11266.4025062297
 21
7264.952473986845
 31
0.0
  0
LINE
  5
177BD
330
747D
100
AcDbEntity
  8
部品1
100
AcDbLine
 10
11294.40250622967
 20
7291.952473986838
 30
0.0
 11
11294.40250622967
 21
7236.952473986838
 31
0.0
  0
LINE
  5
177BE
330
747D
100
AcDbEntity
  8
部品1
100
AcDbLine
 10
11266.4025062297
 20
7291.952473986838
 30
0.0
 11
11294.40250622969
 21
7291.952473986838
 31
0.0
  0
LINE
  5
177BF
330
747D
100
AcDbEntity
  8
部品1
 48
50.0
100
AcDbLine
 10
11239.40250622969
 20
7236.952473986831
 30
0.0
 11
11239.40250622969
 21
7264.95247398683
 31
0.0
  0
LINE
  5
177C1
330
747D
100
AcDbEntity
  8
部品1
100
AcDbLine
 10
11266.4025062297
 20
9838.952473986852
 30
0.0
 11
11266.40250622969
 21
9386.452473986729
 31
0.0
  0
LINE
  5
177C2
330
747D
100
AcDbEntity
  8
部品1
100
AcDbLine
 10
11265.90250622969
 20
9836.952473986853
 30
0.0
 11
11265.90250622969
 21
9386.952473986852
 31
0.0
  0
DIMENSION
  5
177C3
330
747D
100
AcDbEntity
  8
寸法
100
AcDbDimension
  2
*D24
 10
11694.40250622969
 20
9272.136245030118
 30
0.0
 11
11694.40250622969
 21
9497.136245030118
 31
0.0
 70
   160
 71
     5
 42
449.9999999999963
  3
INABA_S40G
100
AcDbAlignedDimension
 13
11265.90250622969
 23
9836.952473986851
 33
0.0
 14
11265.90250622969
 24
9386.952473986854
 34
0.0
 50
90.0
100
AcDbRotatedDimension
1001
ACAD
1000
DSTYLE
1002
{
1002
}
  0
DIMENSION
  5
177C4
330
747D
100
AcDbEntity
  8
寸法
100
AcDbDimension
  2
*D25
 10
11994.40250622969
 20
9811.952473986854
 30
0.0
 11
11994.40250622968
 21
10175.43775536109
 31
0.0
 70
   160
 71
     5
 42
54.99999999999636
  3
INABA_S40G
100
AcDbAlignedDimension
 13
11294.40250622969
 23
9866.952473986851
 33
0.0
 14
11294.40250622969
 24
9811.952473986854
 34
0.0
 50
90.0
100
AcDbRotatedDimension
1001
ACAD
1000
DSTYLE
1002
{
1002
}
  0
LINE
  5
177C5
330
747D
100
AcDbEntity
  8
部品1
100
AcDbLine
 10
11266.4025062297
 20
8971.952473986851
 30
0.0
 11
11294.40250622969
 21
8971.952473986851
 31
0.0
  0
LINE
  5
177C6
330
747D
100
AcDbEntity
  8
部品1
100
AcDbLine
 10
11266.4025062297
 20
9391.952473986853
 30
0.0
 11
11294.40250622969
 21
9391.952473986853
 31
0.0
  0
LINE
  5
177C7
330
747D
100
AcDbEntity
  8
部品1
100
AcDbLine
 10
11266.4025062297
 20
9811.952473986853
 30
0.0
 11
11294.40250622969
 21
9811.952473986853
 31
0.0
  0
LINE
  5
177C8
330
747D
100
AcDbEntity
  8
部品1
100
AcDbLine
 10
11239.40250622969
 20
9866.952473986874
 30
0.0
 11
11239.40250622969
 21
9838.952473986875
 31
0.0
  0
LINE
  5
177C9
330
747D
100
AcDbEntity
  8
部品1
100
AcDbLine
 10
11239.40250622969
 20
9866.952473986852
 30
0.0
 11
11239.40250622969
 21
9838.952473986852
 31
0.0
  0
TEXT
  5
177CA
330
747D
100
AcDbEntity
  8
文字
 62
     7
 48
50.0
100
AcDbText
 10
13583.11819016569
 20
8550.013745883733
 30
0.0
 40
100.0
  1
棚板
  7
STYLE1
100
AcDbText
  0
TEXT
  5
177CB
330
747D
100
AcDbEntity
  8
文字
 62
     7
 48
50.0
100
AcDbText
 10
15022.63965474516
 20
8550.013745883729
 30
0.0
 40
100.0
  1
F12            0.6
  7
STYLE1
100
AcDbText
  0
TEXT
  5
177CC
330
747D
100
AcDbEntity
  8
文字
 62
     7
 48
50.0
100
AcDbText
 10
13583.11819016569
 20
9740.013745883729
 30
0.0
 40
100.0
  1
母屋中
  7
STYLE1
100
AcDbText
  0
TEXT
  5
177CD
330
747D
100
AcDbEntity
  8
文字
 62
     7
 48
50.0
100
AcDbText
 10
13248.77747366447
 20
8720.013745883729
 30
0.0
 40
100.0
  1
15
  7
STYLE1
100
AcDbText
  0
LINE
  5
177CE
330
747D
100
AcDbEntity
  8
仕様書枠
 48
50.0
100
AcDbLine
 10
16307.19999999999
 20
8009.600000000007
 30
0.0
 11
13127.19999999999
 21
8009.600000000007
 31
0.0
  0
TEXT
  5
177CF
330
747D
100
AcDbEntity
  8
文字
 62
     7
 48
50.0
100
AcDbText
 10
13583.11819016569
 20
8720.013745883733
 30
0.0
 40
100.0
  1
扉
  7
STYLE1
100
AcDbText
  0
TEXT
  5
177D0
330
747D
100
AcDbEntity
  8
文字
 62
     7
 48
50.0
100
AcDbText
 10
15022.63965474516
 20
8720.013745883729
 30
0.0
 40
100.0
  1
F12            0.8
  7
STYLE1
100
AcDbText
  0
TEXT
  5
177D1
330
747D
100
AcDbEntity
  8
文字
 62
     7
 48
50.0
100
AcDbText
 10
13583.11819016568
 20
8890.013745883733
 30
0.0
 40
100.0
  1
正面パネル
  7
STYLE1
100
AcDbText
  0
TEXT
  5
177D2
330
747D
100
AcDbEntity
  8
文字
 62
     7
 48
50.0
100
AcDbText
 10
15022.63965474515
 20
8890.013745883729
 30
0.0
 40
100.0
  1
F12            0.7
  7
STYLE1
100
AcDbText
  0
TEXT
  5
177D3
330
747D
100
AcDbEntity
  8
文字
 62
     7
 48
50.0
100
AcDbText
 10
15022.63965474517
 20
10590.01374588373
 30
0.0
 40
100.0
  1
F12            1.0
  7
STYLE1
100
AcDbText
  0
TEXT
  5
177D4
330
747D
100
AcDbEntity
  8
文字
 62
     7
 48
50.0
100
AcDbText
 10
15022.63965474516
 20
10930.01374588373
 30
0.0
 40
100.0
  1
F12            1.2
  7
STYLE1
100
AcDbText
  0
TEXT
  5
177D5
330
747D
100
AcDbEntity
  8
文字
 62
     7
 48
50.0
100
AcDbText
 10
13248.77747366448
 20
8890.013745883729
 30
0.0
 40
100.0
  1
14
  7
STYLE1
100
AcDbText
  0
TEXT
  5
177D6
330
747D
100
AcDbEntity
  8
文字
 62
     7
 48
50.0
100
AcDbText
 10
13583.11819016569
 20
10930.01374588373
 30
0.0
 40
100.0
  1
根太
  7
STYLE1
100
AcDbText
  0
TEXT
  5
177D7
330
747D
100
AcDbEntity
  8
文字
 62
     7
 48
50.0
100
AcDbText
 10
13583.1181901657
 20
10590.01374588373
 30
0.0
 40
100.0
  1
床パネル
 41
0.9
  7
STYLE1
100
AcDbText
  0
LINE
  5
177D8
330
747D
100
AcDbEntity
  8
仕様書枠
 48
50.0
100
AcDbLine
 10
16307.19999999999
 20
9029.6
 30
0.0
 11
13127.2
 21
9029.600000000003
 31
0.0
  0
LINE
  5
177D9
330
747D
100
AcDbEntity
  8
仕様書枠
 48
50.0
100
AcDbLine
 10
13127.2
 20
11409.6
 30
0.0
 11
13127.19999999999
 21
8009.600000000007
 31
0.0
  0
TEXT
  5
177DA
330
747D
100
AcDbEntity
  8
文字
 62
     7
 48
50.0
100
AcDbText
 10
13229.83081656554
 20
8040.013745883737
 30
0.0
 40
100.0
  1
Y10→溶融亜鉛-5％アルミニウム合金めっき鋼板(JIS G 3317)
 41
0.9
  7
STYLE1
100
AcDbText
  0
TEXT
  5
177DB
330
747D
100
AcDbEntity
  8
文字
 62
     7
 48
50.0
100
AcDbText
 10
13229.83081656554
 20
8210.013745883737
 30
0.0
 40
100.0
  1
F12→溶融亜鉛めっき鋼板(JIS G 3302)
  7
STYLE1
100
AcDbText
  0
LINE
  5
177DC
330
747D
100
AcDbEntity
  8
仕様書枠
 48
50.0
100
AcDbLine
 10
16307.19999999999
 20
8179.600000000007
 30
0.0
 11
13127.19999999999
 21
8179.600000000007
 31
0.0
  0
LINE
  5
177DD
330
747D
100
AcDbEntity
  8
仕様書枠
 48
50.0
100
AcDbLine
 10
16307.19999999999
 20
8349.600000000007
 30
0.0
 11
13127.19999999999
 21
8349.600000000007
 31
0.0
  0
TEXT
  5
177DE
330
747D
100
AcDbEntity
  8
文字
 62
     7
 48
50.0
100
AcDbText
 10
15022.63965474515
 20
9570.013745883729
 30
0.0
 40
100.0
  1
F12            0.7
  7
STYLE1
100
AcDbText
  0
TEXT
  5
177DF
330
747D
100
AcDbEntity
  8
文字
 62
     7
 48
50.0
100
AcDbText
 10
15022.63965474517
 20
9910.01374588373
 30
0.0
 40
100.0
  1
Y10            0.5
  7
STYLE1
100
AcDbText
  0
TEXT
  5
177E0
330
747D
100
AcDbEntity
  8
文字
 62
     7
 48
50.0
100
AcDbText
 10
15022.63965474516
 20
10080.01374588373
 30
0.0
 40
100.0
  1
Y10            0.7
  7
STYLE1
100
AcDbText
  0
TEXT
  5
177E1
330
747D
100
AcDbEntity
  8
文字
 62
     7
 48
50.0
100
AcDbText
 10
15022.63965474516
 20
10250.01374588373
 30
0.0
 40
100.0
  1
Y10            0.7
  7
STYLE1
100
AcDbText
  0
TEXT
  5
177E2
330
747D
100
AcDbEntity
  8
文字
 62
     7
 48
50.0
100
AcDbText
 10
15022.63965474516
 20
10420.01374588373
 30
0.0
 40
100.0
  1
Y10            1.0
  7
STYLE1
100
AcDbText
  0
TEXT
  5
177E3
330
747D
100
AcDbEntity
  8
文字
 62
     7
 48
50.0
100
AcDbText
 10
15022.63965474518
 20
10760.01374588373
 30
0.0
 40
100.0
  1
F12            1.0
  7
STYLE1
100
AcDbText
  0
TEXT
  5
177E4
330
747D
100
AcDbEntity
  8
文字
 62
     7
 48
50.0
100
AcDbText
 10
15022.63965474517
 20
11100.01374588373
 30
0.0
 40
100.0
  1
F12            1.2
  7
STYLE1
100
AcDbText
  0
TEXT
  5
177E5
330
747D
100
AcDbEntity
  8
文字
 62
     7
 48
50.0
100
AcDbText
 10
13248.77747366448
 20
9230.013745883729
 30
0.0
 40
100.0
  1
12
  7
STYLE1
100
AcDbText
  0
TEXT
  5
177E6
330
747D
100
AcDbEntity
  8
文字
 62
     7
 48
50.0
100
AcDbText
 10
13248.77747366448
 20
9060.013745883729
 30
0.0
 40
100.0
  1
13
  7
STYLE1
100
AcDbText
  0
LINE
  5
177E7
330
747D
100
AcDbEntity
  8
仕様書枠
 48
50.0
100
AcDbLine
 10
16307.19999999999
 20
8859.6
 30
0.0
 11
13127.2
 21
8859.600000000005
 31
0.0
  0
LINE
  5
177E8
330
747D
100
AcDbEntity
  8
仕様書枠
 48
50.0
100
AcDbLine
 10
16307.19999999999
 20
9199.600000000001
 30
0.0
 11
13127.2
 21
9199.600000000001
 31
0.0
  0
TEXT
  5
177E9
330
747D
100
AcDbEntity
  8
文字
 62
     7
 48
50.0
100
AcDbText
 10
13248.77747366447
 20
9400.013745883729
 30
0.0
 40
100.0
  1
11
  7
STYLE1
100
AcDbText
  0
LINE
  5
177EA
330
747D
100
AcDbEntity
  8
仕様書枠
 48
50.0
100
AcDbLine
 10
16307.2
 20
9879.600000000001
 30
0.0
 11
13127.2
 21
9879.600000000001
 31
0.0
  0
LINE
  5
177EB
330
747D
100
AcDbEntity
  8
仕様書枠
 48
50.0
100
AcDbLine
 10
16307.2
 20
10219.6
 30
0.0
 11
13127.2
 21
10219.6
 31
0.0
  0
LINE
  5
177EC
330
747D
100
AcDbEntity
  8
仕様書枠
 48
50.0
100
AcDbLine
 10
16307.19999999999
 20
9539.6
 30
0.0
 11
13127.2
 21
9539.6
 31
0.0
  0
LINE
  5
177ED
330
747D
100
AcDbEntity
  8
仕様書枠
 48
50.0
100
AcDbLine
 10
16307.19999999999
 20
9369.600000000001
 30
0.0
 11
13127.2
 21
9369.600000000001
 31
0.0
  0
LINE
  5
177EE
330
747D
100
AcDbEntity
  8
仕様書枠
 48
50.0
100
AcDbLine
 10
16307.19999999999
 20
9709.600000000001
 30
0.0
 11
13127.2
 21
9709.600000000001
 31
0.0
  0
TEXT
  5
177EF
330
747D
100
AcDbEntity
  8
文字
 62
     7
 48
50.0
100
AcDbText
 10
13271.19032244792
 20
10250.01374588373
 30
0.0
 40
100.0
  1
6
  7
STYLE1
100
AcDbText
  0
TEXT
  5
177F0
330
747D
100
AcDbEntity
  8
文字
 62
     7
 48
50.0
100
AcDbText
 10
13271.19032244792
 20
10080.01374588373
 30
0.0
 40
100.0
  1
7
  7
STYLE1
100
AcDbText
  0
TEXT
  5
177F1
330
747D
100
AcDbEntity
  8
文字
 62
     7
 48
50.0
100
AcDbText
 10
13271.19032244792
 20
9740.013745883729
 30
0.0
 40
100.0
  1
9
  7
STYLE1
100
AcDbText
  0
TEXT
  5
177F2
330
747D
100
AcDbEntity
  8
文字
 62
     7
 48
50.0
100
AcDbText
 10
13271.19032244792
 20
9910.01374588373
 30
0.0
 40
100.0
  1
8
  7
STYLE1
100
AcDbText
  0
TEXT
  5
177F3
330
747D
100
AcDbEntity
  8
文字
 62
     7
 48
50.0
100
AcDbText
 10
13583.11819016569
 20
10080.01374588373
 30
0.0
 40
100.0
  1
鼻隠シ前後
  7
STYLE1
100
AcDbText
  0
TEXT
  5
177F4
330
747D
100
AcDbEntity
  8
文字
 62
     7
 48
50.0
100
AcDbText
 10
13583.11819016569
 20
9910.01374588373
 30
0.0
 40
100.0
  1
屋根パネル
  7
STYLE1
100
AcDbText
  0
TEXT
  5
177F5
330
747D
100
AcDbEntity
  8
文字
 62
     7
 48
50.0
100
AcDbText
 10
13583.11819016568
 20
9570.013745883729
 30
0.0
 40
100.0
  1
壁パネル
  7
STYLE1
100
AcDbText
  0
TEXT
  5
177F6
330
747D
100
AcDbEntity
  8
文字
 62
     7
 48
50.0
100
AcDbText
 10
13248.77747366447
 20
9570.013745883729
 30
0.0
 40
100.0
  1
10
  7
STYLE1
100
AcDbText
  0
TEXT
  5
177F7
330
747D
100
AcDbEntity
  8
文字
 62
     7
 48
50.0
100
AcDbText
 10
13583.11819016569
 20
10250.01374588373
 30
0.0
 40
100.0
  1
妻板左右
  7
STYLE1
100
AcDbText
  0
TEXT
  5
177F8
330
747D
100
AcDbEntity
  8
文字
 62
     7
 48
50.0
100
AcDbText
 10
13271.19032244792
 20
10420.01374588373
 30
0.0
 40
100.0
  1
5
  7
STYLE1
100
AcDbText
  0
TEXT
  5
177F9
330
747D
100
AcDbEntity
  8
文字
 62
     7
 48
50.0
100
AcDbText
 10
13583.11819016569
 20
10420.01374588373
 30
0.0
 40
100.0
  1
桁前後
  7
STYLE1
100
AcDbText
  0
TEXT
  5
177FA
330
747D
100
AcDbEntity
  8
文字
 62
     7
 48
50.0
100
AcDbText
 10
13583.1181901657
 20
10760.01374588373
 30
0.0
 40
100.0
  1
柱
  7
STYLE1
100
AcDbText
  0
TEXT
  5
177FB
330
747D
100
AcDbEntity
  8
文字
 62
     7
 48
50.0
100
AcDbText
 10
13583.11819016569
 20
11100.01374588373
 30
0.0
 40
100.0
  1
土台枠
  7
STYLE1
100
AcDbText
  0
TEXT
  5
177FC
330
747D
100
AcDbEntity
  8
文字
 62
     7
 48
50.0
100
AcDbText
 10
14859.79774614482
 20
11270.01374588373
 30
0.0
 40
100.0
  1
材料（材質）　　単位mm
  7
STYLE1
100
AcDbText
  0
TEXT
  5
177FD
330
747D
100
AcDbEntity
  8
文字
 62
     7
 48
50.0
100
AcDbText
 10
13732.03840939434
 20
11270.01374588373
 30
0.0
 40
100.0
  1
部　　品　　名
  7
STYLE1
100
AcDbText
  0
TEXT
  5
177FE
330
747D
100
AcDbEntity
  8
文字
 62
     7
 48
50.0
100
AcDbText
 10
13271.19032244792
 20
10760.01374588373
 30
0.0
 40
100.0
  1
3
  7
STYLE1
100
AcDbText
  0
TEXT
  5
177FF
330
747D
100
AcDbEntity
  8
文字
 62
     7
 48
50.0
100
AcDbText
 10
13271.19032244792
 20
10590.01374588373
 30
0.0
 40
100.0
  1
4
  7
STYLE1
100
AcDbText
  0
TEXT
  5
17800
330
747D
100
AcDbEntity
  8
文字
 62
     7
 48
50.0
100
AcDbText
 10
13271.19032244792
 20
10930.01374588373
 30
0.0
 40
100.0
  1
2
  7
STYLE1
100
AcDbText
  0
TEXT
  5
17801
330
747D
100
AcDbEntity
  8
文字
 62
     7
 48
50.0
100
AcDbText
 10
13271.19032244792
 20
11100.01374588373
 30
0.0
 40
100.0
  1
1
  7
STYLE1
100
AcDbText
  0
TEXT
  5
17802
330
747D
100
AcDbEntity
  8
文字
 62
     7
 48
50.0
100
AcDbText
 10
13197.42518560407
 20
11270.01374588373
 30
0.0
 40
100.0
  1
品番
  7
STYLE1
100
AcDbText
  0
LINE
  5
17803
330
747D
100
AcDbEntity
  8
仕様書枠
 48
50.0
100
AcDbLine
 10
16307.19999999999
 20
10729.6
 30
0.0
 11
13127.2
 21
10729.6
 31
0.0
  0
LINE
  5
17804
330
747D
100
AcDbEntity
  8
仕様書枠
 48
50.0
100
AcDbLine
 10
16307.19999999999
 20
10389.6
 30
0.0
 11
13127.2
 21
10389.6
 31
0.0
  0
LINE
  5
17805
330
747D
100
AcDbEntity
  8
仕様書枠
 48
50.0
100
AcDbLine
 10
16307.19999999999
 20
10559.6
 30
0.0
 11
13127.2
 21
10559.6
 31
0.0
  0
LINE
  5
17806
330
747D
100
AcDbEntity
  8
仕様書枠
 48
50.0
100
AcDbLine
 10
16307.2
 20
11069.6
 30
0.0
 11
13127.2
 21
11069.6
 31
0.0
  0
LINE
  5
17807
330
747D
100
AcDbEntity
  8
仕様書枠
 48
50.0
100
AcDbLine
 10
16307.2
 20
10899.6
 30
0.0
 11
13127.2
 21
10899.6
 31
0.0
  0
LINE
  5
17808
330
747D
100
AcDbEntity
  8
仕様書枠
 48
50.0
100
AcDbLine
 10
16307.2
 20
11239.6
 30
0.0
 11
13127.2
 21
11239.6
 31
0.0
  0
LINE
  5
17809
330
747D
100
AcDbEntity
  8
仕様書枠
 48
50.0
100
AcDbLine
 10
13490.2
 20
11409.6
 30
0.0
 11
13490.20000000001
 21
8349.600000000007
 31
0.0
  0
LINE
  5
1780A
330
747D
100
AcDbEntity
  8
仕様書枠
 48
50.0
100
AcDbLine
 10
14785.2
 20
11409.6
 30
0.0
 11
14785.2
 21
8349.600000000007
 31
0.0
  0
LINE
  5
1780B
330
747D
100
AcDbEntity
  8
仕様書枠
 48
50.0
100
AcDbLine
 10
16307.19999999999
 20
8009.600000000007
 30
0.0
 11
16307.2
 21
11409.6
 31
0.0
  0
LINE
  5
1780C
330
747D
100
AcDbEntity
  8
仕様書枠
 48
50.0
100
AcDbLine
 10
16307.2
 20
11409.6
 30
0.0
 11
13127.2
 21
11409.6
 31
0.0
  0
LINE
  5
1780D
330
747D
100
AcDbEntity
  8
仕様書枠
 48
50.0
100
AcDbLine
 10
16307.2
 20
10049.6
 30
0.0
 11
13127.2
 21
10049.6
 31
0.0
  0
TEXT
  5
1780E
330
747D
100
AcDbEntity
  8
文字
 62
     7
 48
50.0
100
AcDbText
 10
15022.63965474515
 20
8380.013745883726
 30
0.0
 40
100.0
  1
F12            2.3
  7
STYLE1
100
AcDbText
  0
TEXT
  5
1780F
330
747D
100
AcDbEntity
  8
文字
 62
     7
 48
50.0
100
AcDbText
 10
13583.11819016569
 20
8380.013745883728
 30
0.0
 40
100.0
  1
アンカープレート
  7
STYLE1
100
AcDbText
  0
LINE
  5
17810
330
747D
100
AcDbEntity
  8
仕様書枠
 48
50.0
100
AcDbLine
 10
16307.19999999999
 20
8519.600000000009
 30
0.0
 11
13127.2
 21
8519.600000000009
 31
0.0
  0
LINE
  5
17811
330
747D
100
AcDbEntity
  8
仕様書枠
 48
50.0
100
AcDbLine
 10
16307.19999999999
 20
8689.600000000007
 30
0.0
 11
13127.2
 21
8689.600000000007
 31
0.0
  0
TEXT
  5
17812
330
747D
100
AcDbEntity
  8
文字
 62
     7
 48
50.0
100
AcDbText
 10
13583.11819016569
 20
9400.013745883729
 30
0.0
 40
100.0
  1
壁面扉鴨居
  7
STYLE1
100
AcDbText
  0
TEXT
  5
17813
330
747D
100
AcDbEntity
  8
文字
 62
     7
 48
50.0
100
AcDbText
 10
13583.11819016569
 20
9230.013745883736
 30
0.0
 40
100.0
  1
壁面扉敷居
  7
STYLE1
100
AcDbText
  0
TEXT
  5
17814
330
747D
100
AcDbEntity
  8
文字
 62
     7
 48
50.0
100
AcDbText
 10
15022.63965474515
 20
9400.013745883729
 30
0.0
 40
100.0
  1
F12            0.7
  7
STYLE1
100
AcDbText
  0
TEXT
  5
17815
330
747D
100
AcDbEntity
  8
文字
 62
     7
 48
50.0
100
AcDbText
 10
15022.63965474517
 20
9230.013745883729
 30
0.0
 40
100.0
  1
F12            1.0
  7
STYLE1
100
AcDbText
  0
TEXT
  5
17816
330
747D
100
AcDbEntity
  8
文字
 62
     7
 48
50.0
100
AcDbText
 10
13583.11819016569
 20
9060.013745883736
 30
0.0
 40
100.0
  1
壁面扉枠左右
  7
STYLE1
100
AcDbText
  0
TEXT
  5
17817
330
747D
100
AcDbEntity
  8
文字
 62
     7
 48
50.0
100
AcDbText
 10
15022.63965474517
 20
9060.013745883729
 30
0.0
 40
100.0
  1
F12            1.0
  7
STYLE1
100
AcDbText
  0
TEXT
  5
17818
330
747D
100
AcDbEntity
  8
文字
 62
     7
 48
50.0
100
AcDbText
 10
13248.77747366447
 20
8550.013745883729
 30
0.0
 40
100.0
  1
16
  7
STYLE1
100
AcDbText
  0
TEXT
  5
17819
330
747D
100
AcDbEntity
  8
文字
 62
     7
 48
50.0
100
AcDbText
 10
13248.77747366447
 20
8380.013745883728
 30
0.0
 40
100.0
  1
17
  7
STYLE1
100
AcDbText
  0
TEXT
  5
1781A
330
747D
100
AcDbEntity
  8
文字
 62
     7
 48
50.0
100
AcDbText
 10
14798.72402257234
 20
9740.013745883729
 30
0.0
 40
100.0
  1
F12(一般型1.2/多雪地型2.3)
  7
STYLE1
100
AcDbText
  0
TEXT
  5
1781B
330
747D
100
AcDbEntity
  8
文字
 62
     7
 48
50.0
100
AcDbText
 10
14491.96323844892
 20
483.8967129911416
 30
0.0
 40
160.0
  1
ＮＸＮ－７０ＨＡ
  7
STYLE2
100
AcDbText
  0
TEXT
  5
1781C
330
747D
100
AcDbEntity
  8
文字
 62
     7
 48
50.0
100
AcDbText
 10
13209.4053442172
 20
243.7062907158852
 30
0.0
 40
100.0
  1
○有効開口寸法 ： 1266×2025(mm)
  7
STYLE2
100
AcDbText
  0
MTEXT
  5
1781D
330
747D
100
AcDbEntity
  8
寸法
 62
     7
 48
50.0
100
AcDbMText
 10
9344.505043322801
 20
9453.187292184136
 30
0.0
 40
96.0
 41
0.0
 71
     5
 72
     1
  1
棚 3段
  7
STYLE1
 73
     1
 44
1.0
1001
ACAD
1000
MTEXTBEGIN
1070
    73
1070
     1
1070
    44
1040
1.0
1070
    74
1070
     0
1000
MTEXTEND
  0
MTEXT
  5
1781E
330
747D
100
AcDbEntity
  8
寸法
 62
     7
 48
50.0
100
AcDbMText
 10
10644.50504332283
 20
9453.187292184161
 30
0.0
 40
96.0
 41
0.0
 71
     5
 72
     1
  1
棚 3段
  7
STYLE1
 73
     1
 44
1.0
1001
ACAD
1000
MTEXTBEGIN
1070
    73
1070
     1
1070
    44
1040
1.0
1070
    74
1070
     0
1000
MTEXTEND
  0
LINE
  5
1783C
330
747D
100
AcDbEntity
  8
部品1
 48
50.0
100
AcDbLine
 10
11266.40250622969
 20
4043.225840550705
 30
0.0
 11
9112.402506229688
 21
4043.225840550705
 31
0.0
  0
LINE
  5
1783D
330
747D
100
AcDbEntity
  8
細線
 48
50.0
100
AcDbLine
 10
11266.40250622969
 20
4033.225840550705
 30
0.0
 11
9112.402506229688
 21
4033.225840550705
 31
0.0
  0
LINE
  5
1783E
330
747D
100
AcDbEntity
  8
細線
 48
50.0
100
AcDbLine
 10
11236.40250622969
 20
3991.225840550706
 30
0.0
 11
9142.402506229688
 21
3991.225840550706
 31
0.0
  0
LINE
  5
1783F
330
747D
100
AcDbEntity
  8
細線
 48
50.0
100
AcDbLine
 10
11236.40250622969
 20
4000.725840550705
 30
0.0
 11
9142.402506229688
 21
4000.725840550705
 31
0.0
  0
LINE
  5
17840
330
747D
100
AcDbEntity
  8
部品1
 48
50.0
100
AcDbLine
 10
9112.402506229688
 20
1908.225840550705
 30
0.0
 11
11266.40250622969
 21
1908.225840550705
 31
0.0
  0
LINE
  5
17841
330
747D
100
AcDbEntity
  8
細線
 48
50.0
100
AcDbLine
 10
9142.402506229688
 20
1951.225840550705
 30
0.0
 11
11236.40250622969
 21
1951.225840550705
 31
0.0
  0
LINE
  5
17842
330
747D
100
AcDbEntity
  8
細線
 48
50.0
100
AcDbLine
 10
9142.402506229688
 20
1955.225840550705
 30
0.0
 11
11236.40250622969
 21
1955.225840550705
 31
0.0
  0
LINE
  5
17843
330
747D
100
AcDbEntity
  8
細線
 48
50.0
100
AcDbLine
 10
9946.402506229686
 20
1965.725840550705
 30
0.0
 11
11210.40250622969
 21
1965.725840550705
 31
0.0
  0
LINE
  5
17844
330
747D
100
AcDbEntity
  8
部品1
 48
50.0
100
AcDbLine
 10
9142.402506229688
 20
1958.225840550705
 30
0.0
 11
9142.402506229688
 21
3991.225840550706
 31
0.0
  0
LINE
  5
17845
330
747D
100
AcDbEntity
  8
細線
 48
50.0
100
AcDbLine
 10
9142.402506229688
 20
4000.725840550705
 30
0.0
 11
9142.402506229688
 21
1908.225840550705
 31
0.0
  0
LINE
  5
17846
330
747D
100
AcDbEntity
  8
部品1
 48
50.0
100
AcDbLine
 10
9112.402506229688
 20
4043.225840550705
 30
0.0
 11
9112.402506229688
 21
1908.225840550705
 31
0.0
  0
LINE
  5
17847
330
747D
100
AcDbEntity
  8
部品1
 48
50.0
100
AcDbLine
 10
9946.402506229686
 20
3991.225840575473
 30
0.0
 11
9946.402506229686
 21
1958.225840575473
 31
0.0
  0
LINE
  5
17848
330
747D
100
AcDbEntity
  8
部品1
 48
50.0
100
AcDbLine
 10
9142.402506229688
 20
1958.225840550705
 30
0.0
 11
9946.402506229684
 21
1958.225840550702
 31
0.0
  0
LINE
  5
17849
330
747D
100
AcDbEntity
  8
部品1
 48
50.0
100
AcDbLine
 10
9151.402506229688
 20
1958.225840550705
 30
0.0
 11
9151.402506229688
 21
1955.225840550705
 31
0.0
  0
LINE
  5
1784A
330
747D
100
AcDbEntity
  8
部品1
 48
50.0
100
AcDbLine
 10
9142.402506229688
 20
3999.225840550706
 30
0.0
 11
9112.402506229688
 21
3999.225840550706
 31
0.0
  0
LINE
  5
1784B
330
747D
100
AcDbEntity
  8
部品1
 48
50.0
100
AcDbLine
 10
11227.40250622969
 20
1955.225840550705
 30
0.0
 11
11227.40250622969
 21
3991.225840550706
 31
0.0
  0
LINE
  5
1784C
330
747D
100
AcDbEntity
  8
細線
 48
50.0
100
AcDbLine
 10
11236.40250622969
 20
1908.225840550705
 30
0.0
 11
11236.40250622969
 21
4000.725840550705
 31
0.0
  0
LINE
  5
1784D
330
747D
100
AcDbEntity
  8
部品1
 48
50.0
100
AcDbLine
 10
11266.40250622969
 20
1908.225840550705
 30
0.0
 11
11266.40250622969
 21
4043.225840550705
 31
0.0
  0
LINE
  5
1784E
330
747D
100
AcDbEntity
  8
部品1
 48
50.0
100
AcDbLine
 10
10600.40249653455
 20
3991.225840587853
 30
0.0
 11
10600.40249653455
 21
1965.725840587853
 31
0.0
  0
LINE
  5
1784F
330
747D
100
AcDbEntity
  8
細線
 48
50.0
100
AcDbLine
 10
11214.40250622969
 20
1955.225840550705
 30
0.0
 11
11210.40250622969
 21
1965.725840550705
 31
0.0
  0
LINE
  5
17850
330
747D
100
AcDbEntity
  8
部品1
 48
50.0
100
AcDbLine
 10
11266.40250622969
 20
3999.225840550706
 30
0.0
 11
11236.40250622969
 21
3999.225840550706
 31
0.0
  0
LINE
  5
17851
330
747D
100
AcDbEntity
  8
細線
100
AcDbLine
 10
10723.15250622969
 20
3991.225840550706
 30
0.0
 11
10723.15250622969
 21
1965.725840550723
 31
0.0
  0
LINE
  5
17852
330
747D
100
AcDbEntity
  8
細線
100
AcDbLine
 10
10007.90251597993
 20
3991.225840550706
 30
0.0
 11
10007.90251597993
 21
1965.725840550716
 31
0.0
  0
LINE
  5
17853
330
747D
100
AcDbEntity
  8
細線
100
AcDbLine
 10
10077.90251597993
 20
3991.225840550706
 30
0.0
 11
10077.90251597993
 21
1965.725840550716
 31
0.0
  0
LINE
  5
17854
330
747D
100
AcDbEntity
  8
細線
100
AcDbLine
 10
9356.402506229688
 20
3991.225840550706
 30
0.0
 11
9356.402506229684
 21
1958.225840550709
 31
0.0
  0
LINE
  5
17855
330
747D
100
AcDbEntity
  8
細線
100
AcDbLine
 10
9426.402506229688
 20
3991.225840550706
 30
0.0
 11
9426.402506229683
 21
1958.225840550709
 31
0.0
  0
LINE
  5
17856
330
747D
100
AcDbEntity
  8
細線
100
AcDbLine
 10
10793.15250622969
 20
3991.225840550706
 30
0.0
 11
10793.15250622969
 21
1965.725840550723
 31
0.0
  0
LINE
  5
17857
330
747D
100
AcDbEntity
  8
細線
100
AcDbLine
 10
10863.15250622969
 20
3991.225840550706
 30
0.0
 11
10863.15250622969
 21
1965.725840550723
 31
0.0
  0
LINE
  5
17858
330
747D
100
AcDbEntity
  8
細線
100
AcDbLine
 10
10933.15250622969
 20
3991.225840550706
 30
0.0
 11
10933.15250622969
 21
1965.725840550723
 31
0.0
  0
LINE
  5
17859
330
747D
100
AcDbEntity
  8
細線
100
AcDbLine
 10
11003.15250622969
 20
3991.225840550706
 30
0.0
 11
11003.15250622969
 21
1965.725840550723
 31
0.0
  0
LINE
  5
1785A
330
747D
100
AcDbEntity
  8
細線
100
AcDbLine
 10
11073.15250622969
 20
3991.225840550706
 30
0.0
 11
11073.15250622969
 21
1965.725840550723
 31
0.0
  0
LINE
  5
1785B
330
747D
100
AcDbEntity
  8
細線
100
AcDbLine
 10
10147.90251597993
 20
3991.225840550706
 30
0.0
 11
10147.90251597993
 21
1965.725840550716
 31
0.0
  0
LINE
  5
1785C
330
747D
100
AcDbEntity
  8
細線
100
AcDbLine
 10
10217.90251597993
 20
3991.225840550706
 30
0.0
 11
10217.90251597993
 21
1965.725840550716
 31
0.0
  0
LINE
  5
1785D
330
747D
100
AcDbEntity
  8
細線
100
AcDbLine
 10
10287.90251597993
 20
3991.225840550706
 30
0.0
 11
10287.90251597993
 21
1965.725840550716
 31
0.0
  0
LINE
  5
1785E
330
747D
100
AcDbEntity
  8
細線
100
AcDbLine
 10
10357.90251597993
 20
3991.225840550706
 30
0.0
 11
10357.90251597993
 21
1965.725840550716
 31
0.0
  0
LINE
  5
1785F
330
747D
100
AcDbEntity
  8
細線
100
AcDbLine
 10
10427.90251597993
 20
3991.225840550706
 30
0.0
 11
10427.90251597993
 21
1965.725840550716
 31
0.0
  0
LINE
  5
17860
330
747D
100
AcDbEntity
  8
細線
100
AcDbLine
 10
10497.90251597993
 20
3991.225840550706
 30
0.0
 11
10497.90251597993
 21
1965.725840550716
 31
0.0
  0
LINE
  5
17861
330
747D
100
AcDbEntity
  8
細線
100
AcDbLine
 10
9270.402506229684
 20
3991.225840550706
 30
0.0
 11
9270.402506229688
 21
1958.225840550709
 31
0.0
  0
LINE
  5
17862
330
747D
100
AcDbEntity
  8
細線
100
AcDbLine
 10
9304.402506229683
 20
3991.225840550706
 30
0.0
 11
9304.402506229688
 21
1958.225840550709
 31
0.0
  0
LINE
  5
17863
330
747D
100
AcDbEntity
  8
部品1
100
AcDbLine
 10
9262.402506229683
 20
3991.225840550706
 30
0.0
 11
9262.402506229689
 21
1958.225840550709
 31
0.0
  0
LINE
  5
17864
330
747D
100
AcDbEntity
  8
部品1
100
AcDbLine
 10
9312.402506229684
 20
3991.225840550706
 30
0.0
 11
9312.402506229688
 21
1958.225840550709
 31
0.0
  0
LINE
  5
17865
330
747D
100
AcDbEntity
  8
細線
100
AcDbLine
 10
9496.402506229689
 20
3991.225840550706
 30
0.0
 11
9496.402506229683
 21
1958.225840550709
 31
0.0
  0
LINE
  5
17866
330
747D
100
AcDbEntity
  8
細線
100
AcDbLine
 10
9566.402506229689
 20
3991.225840550706
 30
0.0
 11
9566.402506229684
 21
1958.225840550709
 31
0.0
  0
LINE
  5
17867
330
747D
100
AcDbEntity
  8
細線
100
AcDbLine
 10
9636.402506229687
 20
3991.225840550706
 30
0.0
 11
9636.402506229686
 21
1958.225840550709
 31
0.0
  0
LINE
  5
17868
330
747D
100
AcDbEntity
  8
細線
100
AcDbLine
 10
9706.402506229688
 20
3991.225840550706
 30
0.0
 11
9706.402506229686
 21
1958.225840550709
 31
0.0
  0
LINE
  5
17869
330
747D
100
AcDbEntity
  8
細線
100
AcDbLine
 10
9776.402506229688
 20
3991.225840550706
 30
0.0
 11
9776.402506229684
 21
1958.225840550713
 31
0.0
  0
LINE
  5
1786A
330
747D
100
AcDbEntity
  8
細線
100
AcDbLine
 10
9846.402506229688
 20
3991.225840550706
 30
0.0
 11
9846.402506229685
 21
1958.225840550713
 31
0.0
  0
LINE
  5
1786B
330
747D
100
AcDbEntity
  8
部品1
100
AcDbLine
 10
10600.40249653454
 20
3991.225840587857
 30
0.0
 11
10600.40249653454
 21
1965.725840587871
 31
0.0
  0
LINE
  5
1786C
330
747D
100
AcDbEntity
  8
部品1
 48
50.0
100
AcDbLine
 10
9946.402506229686
 20
3991.225840575473
 30
0.0
 11
9946.402506229684
 21
1958.225840550702
 31
0.0
  0
DIMENSION
  5
1791D
330
747D
100
AcDbEntity
  8
寸法
 48
50.0
100
AcDbDimension
  2
*D26
 10
8664.402506229686
 20
4682.319009890176
 30
0.0
 11
9979.402506229684
 21
4682.319009890176
 31
0.0
 70
   160
  1
柱外寸法<>
 71
     5
 42
2629.999999999999
  3
INABA_S40G
100
AcDbAlignedDimension
 13
11294.40250622968
 23
4283.225840550708
 33
0.0
 14
8664.402506229686
 24
4283.225840550712
 34
0.0
100
AcDbRotatedDimension
  0
DIMENSION
  5
1791E
330
747D
100
AcDbEntity
  8
寸法
 48
50.0
100
AcDbDimension
  2
*D27
 10
8614.402506229685
 20
4682.319009890179
 30
0.0
 11
8300.917224855439
 21
4682.319009890179
 31
0.0
 70
   160
 71
     5
 42
50.0
  3
INABA_S40G
100
AcDbAlignedDimension
 13
8664.402506229686
 23
4283.225840550712
 33
0.0
 14
8614.402506229685
 24
4283.225840550708
 34
0.0
100
AcDbRotatedDimension
1001
ACAD
1000
DSTYLE
1002
{
1002
}
  0
DIMENSION
  5
1791F
330
747D
100
AcDbEntity
  8
寸法
 48
50.0
100
AcDbDimension
  2
*D28
 10
11344.40250622968
 20
4898.845109508624
 30
0.0
 11
9979.402506229687
 21
4898.845109508624
 31
0.0
 70
   160
 71
     5
 42
2729.999999999999
  3
INABA_S40G
100
AcDbAlignedDimension
 13
8614.402506229685
 23
4283.225840550708
 33
0.0
 14
11344.40250622968
 24
4283.225840550708
 34
0.0
100
AcDbRotatedDimension
  0
LINE
  5
17920
330
747D
100
AcDbEntity
  8
部品1
100
AcDbLine
 10
9827.402506229702
 20
4278.225840559175
 30
0.0
 11
9827.402506229702
 21
4180.814773050602
 31
0.0
  0
LINE
  5
17921
330
747D
100
AcDbEntity
  8
部品1
100
AcDbLine
 10
9802.402506229702
 20
4278.225840559175
 30
0.0
 11
9802.402506229704
 21
4180.814773050602
 31
0.0
  0
LINE
  5
17922
330
747D
100
AcDbEntity
  8
部品1
 48
50.0
100
AcDbLine
 10
9800.902506229693
 20
4278.225840559178
 30
0.0
 11
9828.90250622969
 21
4278.225840559178
 31
0.0
  0
LINE
  5
17923
330
747D
100
AcDbEntity
  8
部品1
 48
50.0
100
AcDbLine
 10
9828.902506229693
 20
4278.225840559178
 30
0.0
 11
9839.402506229694
 21
4258.825840559176
 31
0.0
  0
LINE
  5
17924
330
747D
100
AcDbEntity
  8
部品1
 48
50.0
100
AcDbLine
 10
9800.902506229693
 20
4278.225840559178
 30
0.0
 11
9790.402506229694
 21
4258.825840559176
 31
0.0
  0
LINE
  5
17925
330
747D
100
AcDbEntity
  8
部品1
 48
50.0
100
AcDbLine
 10
9727.902506229694
 20
4278.225840559178
 30
0.0
 11
9755.90250622969
 21
4278.225840559178
 31
0.0
  0
LINE
  5
17926
330
747D
100
AcDbEntity
  8
部品1
100
AcDbLine
 10
9729.402506229702
 20
4278.225840559175
 30
0.0
 11
9729.402506229702
 21
4180.814773050602
 31
0.0
  0
LINE
  5
17927
330
747D
100
AcDbEntity
  8
部品1
 48
50.0
100
AcDbLine
 10
9727.902506229694
 20
4278.225840559178
 30
0.0
 11
9717.402506229694
 21
4258.825840559176
 31
0.0
  0
LINE
  5
17928
330
747D
100
AcDbEntity
  8
部品1
100
AcDbLine
 10
9754.402506229702
 20
4278.225840559175
 30
0.0
 11
9754.402506229702
 21
4180.814773050602
 31
0.0
  0
LINE
  5
17929
330
747D
100
AcDbEntity
  8
部品1
 48
50.0
100
AcDbLine
 10
9755.902506229695
 20
4278.225840559178
 30
0.0
 11
9766.402506229693
 21
4258.825840559176
 31
0.0
  0
LINE
  5
1792A
330
747D
100
AcDbEntity
  8
部品1
100
AcDbLine
 10
9568.4025062297
 20
4278.225840559167
 30
0.0
 11
9568.402506229702
 21
4180.814773050602
 31
0.0
  0
LINE
  5
1792B
330
747D
100
AcDbEntity
  8
部品1
 48
50.0
100
AcDbLine
 10
9571.402506229693
 20
4278.225840559178
 30
0.0
 11
9573.902506229693
 21
4258.825840559176
 31
0.0
  0
LINE
  5
1792C
330
747D
100
AcDbEntity
  8
部品1
100
AcDbLine
 10
9550.402506229699
 20
4278.225840559167
 30
0.0
 11
9550.402506229703
 21
4180.814773050602
 31
0.0
  0
LINE
  5
1792D
330
747D
100
AcDbEntity
  8
部品1
 48
50.0
100
AcDbLine
 10
9532.191166023507
 20
4268.825840559176
 30
0.0
 11
9530.902506229693
 21
4258.825840559176
 31
0.0
  0
LINE
  5
1792E
330
747D
100
AcDbEntity
  8
部品1
 48
50.0
100
AcDbLine
 10
9532.191166023507
 20
4268.825840559176
 30
0.0
 11
9546.191166023506
 21
4268.825840559176
 31
0.0
  0
LINE
  5
1792F
330
747D
100
AcDbEntity
  8
部品1
 48
50.0
100
AcDbLine
 10
9547.402506229692
 20
4278.225840559178
 30
0.0
 11
9546.191166023506
 21
4268.825840559176
 31
0.0
  0
LINE
  5
17930
330
747D
100
AcDbEntity
  8
部品1
 48
50.0
100
AcDbLine
 10
9571.402506229693
 20
4278.225840559178
 30
0.0
 11
9547.402506229692
 21
4278.225840559178
 31
0.0
  0
LINE
  5
17931
330
747D
100
AcDbEntity
  8
部品1
100
AcDbLine
 10
9717.402506229689
 20
4258.825840559173
 30
0.0
 11
9573.902506229691
 21
4258.825840559173
 31
0.0
  0
LINE
  5
17932
330
747D
100
AcDbEntity
  8
部品1
100
AcDbLine
 10
9407.402506229701
 20
4278.225840559175
 30
0.0
 11
9407.402506229702
 21
4180.814773050602
 31
0.0
  0
LINE
  5
17933
330
747D
100
AcDbEntity
  8
部品1
 48
50.0
100
AcDbLine
 10
9408.902506229694
 20
4278.225840559178
 30
0.0
 11
9419.402506229692
 21
4258.825840559176
 31
0.0
  0
LINE
  5
17934
330
747D
100
AcDbEntity
  8
部品1
100
AcDbLine
 10
9309.4025062297
 20
4278.225840559175
 30
0.0
 11
9309.4025062297
 21
4180.814773050602
 31
0.0
  0
LINE
  5
17935
330
747D
100
AcDbEntity
  8
部品1
100
AcDbLine
 10
9334.4025062297
 20
4278.225840559175
 30
0.0
 11
9334.4025062297
 21
4180.814773050602
 31
0.0
  0
LINE
  5
17936
330
747D
100
AcDbEntity
  8
部品1
100
AcDbLine
 10
9382.4025062297
 20
4278.225840559175
 30
0.0
 11
9382.4025062297
 21
4180.814773050602
 31
0.0
  0
LINE
  5
17937
330
747D
100
AcDbEntity
  8
部品1
 48
50.0
100
AcDbLine
 10
9307.902506229693
 20
4278.225840559178
 30
0.0
 11
9297.402506229692
 21
4258.825840559176
 31
0.0
  0
LINE
  5
17938
330
747D
100
AcDbEntity
  8
部品1
100
AcDbLine
 10
9370.402506229689
 20
4258.825840559173
 30
0.0
 11
9346.402506229694
 21
4258.825840559173
 31
0.0
  0
LINE
  5
17939
330
747D
100
AcDbEntity
  8
部品1
 48
50.0
100
AcDbLine
 10
9335.902506229693
 20
4278.225840559178
 30
0.0
 11
9346.402506229694
 21
4258.825840559176
 31
0.0
  0
LINE
  5
1793A
330
747D
100
AcDbEntity
  8
部品1
 48
50.0
100
AcDbLine
 10
9380.902506229693
 20
4278.225840559178
 30
0.0
 11
9370.402506229693
 21
4258.825840559176
 31
0.0
  0
LINE
  5
1793B
330
747D
100
AcDbEntity
  8
部品1
 48
50.0
100
AcDbLine
 10
9307.902506229693
 20
4278.225840559178
 30
0.0
 11
9335.90250622969
 21
4278.225840559178
 31
0.0
  0
LINE
  5
1793C
330
747D
100
AcDbEntity
  8
部品1
 48
50.0
100
AcDbLine
 10
9380.902506229693
 20
4278.225840559178
 30
0.0
 11
9408.90250622969
 21
4278.225840559178
 31
0.0
  0
LINE
  5
1793D
330
747D
100
AcDbEntity
  8
部品1
100
AcDbLine
 10
9148.4025062297
 20
4278.225840559167
 30
0.0
 11
9148.402506229702
 21
4180.814773050602
 31
0.0
  0
LINE
  5
1793E
330
747D
100
AcDbEntity
  8
部品1
100
AcDbLine
 10
9130.4025062297
 20
4278.225840559167
 30
0.0
 11
9130.402506229703
 21
4180.814773050602
 31
0.0
  0
LINE
  5
1793F
330
747D
100
AcDbEntity
  8
部品1
 48
50.0
100
AcDbLine
 10
9151.402506229693
 20
4278.225840559178
 30
0.0
 11
9127.402506229692
 21
4278.225840559178
 31
0.0
  0
LINE
  5
17940
330
747D
100
AcDbEntity
  8
部品1
 48
50.0
100
AcDbLine
 10
9127.402506229692
 20
4278.225840559178
 30
0.0
 11
9126.191166023506
 21
4268.825840559176
 31
0.0
  0
LINE
  5
17941
330
747D
100
AcDbEntity
  8
部品1
 48
50.0
100
AcDbLine
 10
9151.402506229693
 20
4278.225840559178
 30
0.0
 11
9153.902506229693
 21
4258.825840559176
 31
0.0
  0
LINE
  5
17942
330
747D
100
AcDbEntity
  8
部品1
100
AcDbLine
 10
9297.40250622969
 20
4258.825840559173
 30
0.0
 11
9153.902506229689
 21
4258.825840559173
 31
0.0
  0
LINE
  5
17943
330
747D
100
AcDbEntity
  8
部品1
100
AcDbLine
 10
9530.902506229693
 20
4258.825840559173
 30
0.0
 11
9419.402506229692
 21
4258.825840559173
 31
0.0
  0
LINE
  5
17944
330
747D
100
AcDbEntity
  8
部品1
100
AcDbLine
 10
9790.402506229689
 20
4258.825840559173
 30
0.0
 11
9766.402506229693
 21
4258.825840559173
 31
0.0
  0
LINE
  5
17945
330
747D
100
AcDbEntity
  8
部品1
100
AcDbLine
 10
9110.902506229693
 20
4258.825840559173
 30
0.0
 11
8999.402506229692
 21
4258.825840559173
 31
0.0
  0
LINE
  5
17946
330
747D
100
AcDbEntity
  8
部品1
100
AcDbLine
 10
8962.4025062297
 20
4278.225840559175
 30
0.0
 11
8962.4025062297
 21
4180.814773050602
 31
0.0
  0
LINE
  5
17947
330
747D
100
AcDbEntity
  8
部品1
100
AcDbLine
 10
8987.402506229701
 20
4278.225840559175
 30
0.0
 11
8987.402506229701
 21
4180.814773050602
 31
0.0
  0
LINE
  5
17948
330
747D
100
AcDbEntity
  8
部品1
 48
50.0
100
AcDbLine
 10
8988.902506229694
 20
4278.225840559178
 30
0.0
 11
8999.402506229692
 21
4258.825840559176
 31
0.0
  0
LINE
  5
17949
330
747D
100
AcDbEntity
  8
部品1
 48
50.0
100
AcDbLine
 10
8960.902506229693
 20
4278.225840559178
 30
0.0
 11
8988.90250622969
 21
4278.225840559178
 31
0.0
  0
LINE
  5
1794A
330
747D
100
AcDbEntity
  8
部品1
 48
50.0
100
AcDbLine
 10
9112.191166023505
 20
4268.825840559176
 30
0.0
 11
9110.902506229693
 21
4258.825840559176
 31
0.0
  0
LINE
  5
1794B
330
747D
100
AcDbEntity
  8
部品1
100
AcDbLine
 10
8950.402506229691
 20
4258.825840559173
 30
0.0
 11
8926.402506229694
 21
4258.825840559176
 31
0.0
  0
LINE
  5
1794C
330
747D
100
AcDbEntity
  8
部品1
100
AcDbLine
 10
8914.4025062297
 20
4278.225840559175
 30
0.0
 11
8914.402506229702
 21
4180.814773050602
 31
0.0
  0
LINE
  5
1794D
330
747D
100
AcDbEntity
  8
部品1
 48
50.0
100
AcDbLine
 10
8915.902506229693
 20
4278.225840559178
 30
0.0
 11
8926.402506229694
 21
4258.825840559176
 31
0.0
  0
LINE
  5
1794E
330
747D
100
AcDbEntity
  8
部品1
100
AcDbLine
 10
8889.4025062297
 20
4278.225840559175
 30
0.0
 11
8889.402506229698
 21
4180.814773050602
 31
0.0
  0
LINE
  5
1794F
330
747D
100
AcDbEntity
  8
部品1
 48
50.0
100
AcDbLine
 10
8887.902506229693
 20
4278.225840559178
 30
0.0
 11
8877.402506229692
 21
4258.825840559176
 31
0.0
  0
LINE
  5
17950
330
747D
100
AcDbEntity
  8
部品1
 48
50.0
100
AcDbLine
 10
8887.902506229693
 20
4278.225840559178
 30
0.0
 11
8915.90250622969
 21
4278.225840559178
 31
0.0
  0
LINE
  5
17951
330
747D
100
AcDbEntity
  8
部品1
 48
50.0
100
AcDbLine
 10
8960.902506229693
 20
4278.225840559178
 30
0.0
 11
8950.402506229693
 21
4258.825840559176
 31
0.0
  0
LINE
  5
17952
330
747D
100
AcDbEntity
  8
部品1
100
AcDbLine
 10
8728.4025062297
 20
4278.225840559167
 30
0.0
 11
8728.4025062297
 21
4180.814773050602
 31
0.0
  0
LINE
  5
17953
330
747D
100
AcDbEntity
  8
部品1
100
AcDbLine
 10
8710.402506229701
 20
4278.225840559178
 30
0.0
 11
8710.402506229703
 21
4180.814773050602
 31
0.0
  0
LINE
  5
17954
330
747D
100
AcDbEntity
  8
部品1
 48
50.0
100
AcDbLine
 10
8731.402506229693
 20
4278.225840559178
 30
0.0
 11
8733.902506229695
 21
4258.825840559176
 31
0.0
  0
LINE
  5
17955
330
747D
100
AcDbEntity
  8
部品1
100
AcDbLine
 10
8690.902506229694
 20
4258.825840559176
 30
0.0
 11
8664.402506229693
 21
4258.825840559176
 31
0.0
  0
LINE
  5
17956
330
747D
100
AcDbEntity
  8
部品1
 48
50.0
100
AcDbLine
 10
8692.191166023505
 20
4268.825840559176
 30
0.0
 11
8706.191166023506
 21
4268.825840559176
 31
0.0
  0
LINE
  5
17957
330
747D
100
AcDbEntity
  8
部品1
 48
50.0
100
AcDbLine
 10
8692.191166023505
 20
4268.825840559176
 30
0.0
 11
8690.902506229694
 21
4258.825840559176
 31
0.0
  0
LINE
  5
17958
330
747D
100
AcDbEntity
  8
部品1
 48
50.0
100
AcDbLine
 10
8707.402506229694
 20
4278.225840559178
 30
0.0
 11
8706.191166023506
 21
4268.825840559176
 31
0.0
  0
LINE
  5
17959
330
747D
100
AcDbEntity
  8
部品1
 48
50.0
100
AcDbLine
 10
8731.402506229693
 20
4278.225840559178
 30
0.0
 11
8707.402506229694
 21
4278.225840559178
 31
0.0
  0
LINE
  5
1795A
330
747D
100
AcDbEntity
  8
部品1
100
AcDbLine
 10
8877.402506229692
 20
4258.825840559173
 30
0.0
 11
8733.902506229695
 21
4258.825840559176
 31
0.0
  0
LINE
  5
1795B
330
747D
100
AcDbEntity
  8
部品1
 48
50.0
100
AcDbLine
 10
9112.191166023505
 20
4268.825840559176
 30
0.0
 11
9126.191166023506
 21
4268.825840559176
 31
0.0
  0
LINE
  5
1795C
330
747D
100
AcDbEntity
  8
部品1
100
AcDbLine
 10
11299.47284352432
 20
4283.225840559153
 30
0.0
 11
8638.834666610602
 21
4283.225840559178
 31
0.0
  0
LINE
  5
1795D
330
747D
100
AcDbEntity
  8
部品1
100
AcDbLine
 10
9950.90250622969
 20
4258.825840559159
 30
0.0
 11
9839.402506229701
 21
4258.825840559159
 31
0.0
  0
LINE
  5
1795E
330
747D
100
AcDbEntity
  8
部品1
 48
50.0
100
AcDbLine
 10
8659.331878236487
 20
4228.225840550705
 30
0.0
 11
8621.388550046905
 21
4228.225840550705
 31
0.0
  0
ARC
  5
1795F
330
747D
100
AcDbEntity
  8
部品1
100
AcDbCircle
 10
8616.361648669981
 20
4200.895957871296
 30
0.0
 40
0.7
100
AcDbArc
 50
183.6186294801377
 51
262.7131594833544
  0
ARC
  5
17960
330
747D
100
AcDbEntity
  8
部品1
100
AcDbCircle
 10
8615.892352544786
 20
4197.225840550705
 30
0.0
 40
3.0
100
AcDbArc
 50
3.618629480137788
 51
90.0
  0
LINE
  5
17961
330
747D
100
AcDbEntity
  8
部品1
100
AcDbLine
 10
8618.886371323592
 20
4197.415185611819
 30
0.0
 11
8623.633464335751
 21
4122.351777357034
 31
0.0
  0
ARC
  5
17962
330
747D
100
AcDbEntity
  8
部品1
100
AcDbCircle
 10
8624.332068717473
 20
4122.395957871296
 30
0.0
 40
0.7
100
AcDbArc
 50
183.6186294801377
 51
262.7131594833544
  0
ARC
  5
17963
330
747D
100
AcDbEntity
  8
部品1
100
AcDbCircle
 10
8623.862772592278
 20
4118.725840550705
 30
0.0
 40
3.0
100
AcDbArc
 50
3.618629480137788
 51
90.0
  0
ARC
  5
17964
330
747D
100
AcDbEntity
  8
部品1
100
AcDbCircle
 10
8634.515160892876
 20
4108.725840550706
 30
0.0
 40
7.0
100
AcDbArc
 50
183.6186294801377
 51
270.0
  0
ARC
  5
17965
330
747D
100
AcDbEntity
  8
部品1
100
AcDbCircle
 10
8621.388550046905
 20
4221.225840550705
 30
0.0
 40
7.0
100
AcDbArc
 50
90.0
 51
183.6186294801377
  0
LINE
  5
17966
330
747D
100
AcDbEntity
  8
部品1
100
AcDbLine
 10
8627.529117075665
 20
4108.284035408116
 30
0.0
 11
8626.856791371084
 21
4118.915185611818
 31
0.0
  0
LINE
  5
17967
330
747D
100
AcDbEntity
  8
部品1
100
AcDbLine
 10
8615.663044288259
 20
4200.851777357034
 30
0.0
 11
8614.402506229692
 21
4220.784035408116
 31
0.0
  0
LINE
  5
17968
330
747D
100
AcDbEntity
  8
部品1
100
AcDbLine
 10
8659.331878236487
 20
4228.225840550705
 30
0.0
 11
8621.388550046905
 21
4228.225840550705
 31
0.0
  0
ARC
  5
17969
330
747D
100
AcDbEntity
  8
部品1
100
AcDbCircle
 10
8659.331878236487
 20
4223.225840550705
 30
0.0
 40
5.0
100
AcDbArc
 50
0.0
 51
90.0
  0
LINE
  5
1796A
330
747D
100
AcDbEntity
  8
部品1
100
AcDbLine
 10
8664.331878236486
 20
4278.225840567603
 30
0.0
 11
8664.331878236486
 21
4180.821811878035
 31
0.0
  0
LINE
  5
1796B
330
747D
100
AcDbEntity
  8
部品1
100
AcDbLine
 10
11324.28985156649
 20
4101.725840550705
 30
0.0
 11
8634.515160892876
 21
4101.725840550705
 31
0.0
  0
LINE
  5
1796C
330
747D
100
AcDbEntity
  8
部品1
 48
50.0
100
AcDbLine
 10
8614.402506229692
 20
4220.784035408116
 30
0.0
 11
8614.402506229692
 21
4275.784035425014
 31
0.0
  0
ARC
  5
1796D
330
747D
100
AcDbEntity
  8
部品1
100
AcDbCircle
 10
8659.331878236487
 20
4278.225840567603
 30
0.0
 40
5.0
100
AcDbArc
 50
0.0
 51
90.0
  0
LINE
  5
1796E
330
747D
100
AcDbEntity
  8
部品1
100
AcDbLine
 10
8659.331878236487
 20
4283.225840567603
 30
0.0
 11
8621.388550046905
 21
4283.225840567603
 31
0.0
  0
ARC
  5
1796F
330
747D
100
AcDbEntity
  8
部品1
100
AcDbCircle
 10
8621.388550046905
 20
4276.225840567604
 30
0.0
 40
7.0
100
AcDbArc
 50
90.0
 51
183.6186294801377
  0
LINE
  5
17970
330
747D
100
AcDbEntity
  8
細線
 48
50.0
100
AcDbLine
 10
11335.18086390274
 20
4122.499083114489
 30
0.0
 11
8624.286097862212
 21
4122.499083114489
 31
0.0
  0
LINE
  5
17971
330
747D
100
AcDbEntity
  8
細線
 48
50.0
100
AcDbLine
 10
8646.891416325409
 20
4228.225840550705
 30
0.0
 11
8646.891416325409
 21
4101.725840550705
 31
0.0
  0
LINE
  5
17972
330
747D
100
AcDbEntity
  8
細線
 48
50.0
100
AcDbLine
 10
8664.331878236486
 20
4200.197673298655
 30
0.0
 11
8616.26863695254
 21
4200.197673298663
 31
0.0
  0
LINE
  5
17973
330
747D
100
AcDbEntity
  8
部品1
100
AcDbLine
 10
9970.402506229689
 20
4278.225840559167
 30
0.0
 11
9970.402506229689
 21
4180.814773050602
 31
0.0
  0
LINE
  5
17974
330
747D
100
AcDbEntity
  8
部品1
100
AcDbLine
 10
9988.402506229689
 20
4278.225840559178
 30
0.0
 11
9988.402506229689
 21
4180.814773050602
 31
0.0
  0
LINE
  5
17975
330
747D
100
AcDbEntity
  8
部品1
 48
50.0
100
AcDbLine
 10
9967.402506229696
 20
4278.225840559178
 30
0.0
 11
9991.402506229697
 21
4278.225840559178
 31
0.0
  0
LINE
  5
17976
330
747D
100
AcDbEntity
  8
部品1
 48
50.0
100
AcDbLine
 10
9967.402506229696
 20
4278.225840559178
 30
0.0
 11
9966.191166023509
 21
4268.825840559176
 31
0.0
  0
LINE
  5
17977
330
747D
100
AcDbEntity
  8
部品1
 48
50.0
100
AcDbLine
 10
9952.19116602351
 20
4268.825840559176
 30
0.0
 11
9966.191166023509
 21
4268.825840559176
 31
0.0
  0
LINE
  5
17978
330
747D
100
AcDbEntity
  8
部品1
 48
50.0
100
AcDbLine
 10
9952.19116602351
 20
4268.825840559176
 30
0.0
 11
9950.902506229695
 21
4258.825840559176
 31
0.0
  0
LINE
  5
17979
330
747D
100
AcDbEntity
  8
部品1
 48
50.0
100
AcDbLine
 10
9991.402506229697
 20
4278.225840559178
 30
0.0
 11
9993.902506229694
 21
4258.825840559176
 31
0.0
  0
LINE
  5
1797A
330
747D
100
AcDbEntity
  8
部品1
 48
50.0
100
AcDbLine
 10
8646.891416325413
 20
4180.814773050602
 30
0.0
 11
11311.91359613396
 21
4180.814773050606
 31
0.0
  0
LINE
  5
1797B
330
747D
100
AcDbEntity
  8
部品1
100
AcDbLine
 10
10210.40250622969
 20
4258.825840559176
 30
0.0
 11
10186.40250622969
 21
4258.825840559176
 31
0.0
  0
LINE
  5
1797C
330
747D
100
AcDbEntity
  8
部品1
 48
50.0
100
AcDbLine
 10
10175.90250622969
 20
4278.225840559182
 30
0.0
 11
10186.40250622969
 21
4258.825840559181
 31
0.0
  0
LINE
  5
1797D
330
747D
100
AcDbEntity
  8
部品1
 48
50.0
100
AcDbLine
 10
10147.90250622969
 20
4278.225840559182
 30
0.0
 11
10137.40250622969
 21
4258.825840559181
 31
0.0
  0
LINE
  5
1797E
330
747D
100
AcDbEntity
  8
部品1
 48
50.0
100
AcDbLine
 10
10147.90250622969
 20
4278.225840559182
 30
0.0
 11
10175.90250622969
 21
4278.225840559182
 31
0.0
  0
LINE
  5
1797F
330
747D
100
AcDbEntity
  8
部品1
 48
50.0
100
AcDbLine
 10
10220.90250622969
 20
4278.225840559182
 30
0.0
 11
10210.40250622969
 21
4258.825840559181
 31
0.0
  0
LINE
  5
17980
330
747D
100
AcDbEntity
  8
部品1
 48
50.0
100
AcDbLine
 10
10248.90250622969
 20
4278.225840559182
 30
0.0
 11
10259.40250622969
 21
4258.825840559181
 31
0.0
  0
LINE
  5
17981
330
747D
100
AcDbEntity
  8
部品1
 48
50.0
100
AcDbLine
 10
10220.90250622969
 20
4278.225840559182
 30
0.0
 11
10248.90250622969
 21
4278.225840559182
 31
0.0
  0
LINE
  5
17982
330
747D
100
AcDbEntity
  8
部品1
100
AcDbLine
 10
10370.90250622969
 20
4258.825840559162
 30
0.0
 11
10259.4025062297
 21
4258.825840559162
 31
0.0
  0
LINE
  5
17983
330
747D
100
AcDbEntity
  8
部品1
100
AcDbLine
 10
10137.40250622969
 20
4258.825840559176
 30
0.0
 11
9993.902506229693
 21
4258.825840559176
 31
0.0
  0
LINE
  5
17984
330
747D
100
AcDbEntity
  8
部品1
100
AcDbLine
 10
10174.4025062297
 20
4278.225840559178
 30
0.0
 11
10174.4025062297
 21
4180.814773050606
 31
0.0
  0
LINE
  5
17985
330
747D
100
AcDbEntity
  8
部品1
100
AcDbLine
 10
10149.4025062297
 20
4278.225840559178
 30
0.0
 11
10149.4025062297
 21
4180.814773050606
 31
0.0
  0
LINE
  5
17986
330
747D
100
AcDbEntity
  8
部品1
100
AcDbLine
 10
10222.4025062297
 20
4278.225840559178
 30
0.0
 11
10222.4025062297
 21
4180.814773050606
 31
0.0
  0
LINE
  5
17987
330
747D
100
AcDbEntity
  8
部品1
100
AcDbLine
 10
10247.4025062297
 20
4278.225840559178
 30
0.0
 11
10247.4025062297
 21
4180.814773050606
 31
0.0
  0
LINE
  5
17988
330
747D
100
AcDbEntity
  8
部品1
100
AcDbLine
 10
10790.90250622969
 20
4258.825840559166
 30
0.0
 11
10679.4025062297
 21
4258.825840559166
 31
0.0
  0
LINE
  5
17989
330
747D
100
AcDbEntity
  8
部品1
100
AcDbLine
 10
10667.4025062297
 20
4278.225840559182
 30
0.0
 11
10667.4025062297
 21
4180.81477305061
 31
0.0
  0
LINE
  5
1798A
330
747D
100
AcDbEntity
  8
部品1
100
AcDbLine
 10
10642.4025062297
 20
4278.225840559182
 30
0.0
 11
10642.4025062297
 21
4180.81477305061
 31
0.0
  0
LINE
  5
1798B
330
747D
100
AcDbEntity
  8
部品1
100
AcDbLine
 10
10569.4025062297
 20
4278.225840559182
 30
0.0
 11
10569.4025062297
 21
4180.81477305061
 31
0.0
  0
LINE
  5
1798C
330
747D
100
AcDbEntity
  8
部品1
100
AcDbLine
 10
10594.4025062297
 20
4278.225840559182
 30
0.0
 11
10594.4025062297
 21
4180.81477305061
 31
0.0
  0
LINE
  5
1798D
330
747D
100
AcDbEntity
  8
部品1
 48
50.0
100
AcDbLine
 10
10640.90250622969
 20
4278.225840559185
 30
0.0
 11
10668.90250622969
 21
4278.225840559185
 31
0.0
  0
LINE
  5
1798E
330
747D
100
AcDbEntity
  8
部品1
 48
50.0
100
AcDbLine
 10
10668.9025062297
 20
4278.225840559185
 30
0.0
 11
10679.4025062297
 21
4258.825840559184
 31
0.0
  0
LINE
  5
1798F
330
747D
100
AcDbEntity
  8
部品1
 48
50.0
100
AcDbLine
 10
10640.90250622969
 20
4278.225840559185
 30
0.0
 11
10630.40250622969
 21
4258.825840559184
 31
0.0
  0
LINE
  5
17990
330
747D
100
AcDbEntity
  8
部品1
 48
50.0
100
AcDbLine
 10
10567.9025062297
 20
4278.225840559185
 30
0.0
 11
10595.90250622969
 21
4278.225840559185
 31
0.0
  0
LINE
  5
17991
330
747D
100
AcDbEntity
  8
部品1
 48
50.0
100
AcDbLine
 10
10567.9025062297
 20
4278.225840559185
 30
0.0
 11
10557.4025062297
 21
4258.825840559184
 31
0.0
  0
LINE
  5
17992
330
747D
100
AcDbEntity
  8
部品1
 48
50.0
100
AcDbLine
 10
10595.90250622969
 20
4278.225840559185
 30
0.0
 11
10606.40250622969
 21
4258.825840559184
 31
0.0
  0
LINE
  5
17993
330
747D
100
AcDbEntity
  8
部品1
100
AcDbLine
 10
10630.40250622969
 20
4258.825840559181
 30
0.0
 11
10606.40250622969
 21
4258.825840559181
 31
0.0
  0
LINE
  5
17994
330
747D
100
AcDbEntity
  8
部品1
100
AcDbLine
 10
10557.40250622969
 20
4258.825840559181
 30
0.0
 11
10413.90250622969
 21
4258.825840559181
 31
0.0
  0
LINE
  5
17995
330
747D
100
AcDbEntity
  8
部品1
 48
50.0
100
AcDbLine
 10
10411.40250622969
 20
4278.225840559182
 30
0.0
 11
10413.90250622969
 21
4258.825840559181
 31
0.0
  0
LINE
  5
17996
330
747D
100
AcDbEntity
  8
部品1
 48
50.0
100
AcDbLine
 10
10372.19116602351
 20
4268.82584055918
 30
0.0
 11
10370.9025062297
 21
4258.825840559181
 31
0.0
  0
LINE
  5
17997
330
747D
100
AcDbEntity
  8
部品1
 48
50.0
100
AcDbLine
 10
10372.19116602351
 20
4268.82584055918
 30
0.0
 11
10386.19116602351
 21
4268.82584055918
 31
0.0
  0
LINE
  5
17998
330
747D
100
AcDbEntity
  8
部品1
 48
50.0
100
AcDbLine
 10
10387.40250622969
 20
4278.225840559182
 30
0.0
 11
10386.19116602351
 21
4268.82584055918
 31
0.0
  0
LINE
  5
17999
330
747D
100
AcDbEntity
  8
部品1
 48
50.0
100
AcDbLine
 10
10387.40250622969
 20
4278.225840559182
 30
0.0
 11
10411.40250622969
 21
4278.225840559182
 31
0.0
  0
LINE
  5
1799A
330
747D
100
AcDbEntity
  8
部品1
100
AcDbLine
 10
10408.40250622969
 20
4278.225840559182
 30
0.0
 11
10408.40250622969
 21
4180.814773050606
 31
0.0
  0
LINE
  5
1799B
330
747D
100
AcDbEntity
  8
部品1
100
AcDbLine
 10
10390.40250622969
 20
4278.225840559171
 30
0.0
 11
10390.40250622969
 21
4180.814773050606
 31
0.0
  0
DIMENSION
  5
1799C
330
747D
100
AcDbEntity
  8
寸法
 48
50.0
100
AcDbDimension
  2
*D29
 10
11294.40250622968
 20
4682.319009890179
 30
0.0
 11
11657.88778760392
 21
4682.319009890179
 31
0.0
 70
   160
 71
     5
 42
50.0
  3
INABA_S40G
100
AcDbAlignedDimension
 13
11344.40250622968
 23
4283.225840550708
 33
0.0
 14
11294.40250622968
 24
4283.225840550708
 34
0.0
100
AcDbRotatedDimension
  0
LINE
  5
1799D
330
747D
100
AcDbEntity
  8
部品1
100
AcDbLine
 10
11230.40250622967
 20
4278.225840559167
 30
0.0
 11
11230.40250622967
 21
4180.814773050602
 31
0.0
  0
LINE
  5
1799E
330
747D
100
AcDbEntity
  8
部品1
100
AcDbLine
 10
11248.40250622967
 20
4278.225840559178
 30
0.0
 11
11248.40250622967
 21
4180.814773050602
 31
0.0
  0
LINE
  5
1799F
330
747D
100
AcDbEntity
  8
部品1
 48
50.0
100
AcDbLine
 10
11227.40250622967
 20
4278.225840559178
 30
0.0
 11
11251.40250622967
 21
4278.225840559178
 31
0.0
  0
LINE
  5
179A0
330
747D
100
AcDbEntity
  8
部品1
 48
50.0
100
AcDbLine
 10
11299.47313422288
 20
4228.225840550705
 30
0.0
 11
11337.41646241246
 21
4228.225840550705
 31
0.0
  0
ARC
  5
179A1
330
747D
100
AcDbEntity
  8
部品1
100
AcDbCircle
 10
11342.44336378938
 20
4200.895957871296
 30
0.0
 40
0.7
100
AcDbArc
 50
277.2868405166456
 51
356.3813705198622
  0
ARC
  5
179A2
330
747D
100
AcDbEntity
  8
部品1
100
AcDbCircle
 10
11342.91265991458
 20
4197.225840550705
 30
0.0
 40
3.0
100
AcDbArc
 50
90.0
 51
176.3813705198622
  0
LINE
  5
179A3
330
747D
100
AcDbEntity
  8
部品1
100
AcDbLine
 10
11339.91864113578
 20
4197.415185611819
 30
0.0
 11
11335.17154812362
 21
4122.351777357034
 31
0.0
  0
ARC
  5
179A4
330
747D
100
AcDbEntity
  8
部品1
100
AcDbCircle
 10
11334.47294374189
 20
4122.395957871296
 30
0.0
 40
0.7
100
AcDbArc
 50
277.2868405166456
 51
356.3813705198622
  0
ARC
  5
179A5
330
747D
100
AcDbEntity
  8
部品1
100
AcDbCircle
 10
11334.94223986709
 20
4118.725840550705
 30
0.0
 40
3.0
100
AcDbArc
 50
90.0
 51
176.3813705198622
  0
ARC
  5
179A6
330
747D
100
AcDbEntity
  8
部品1
100
AcDbCircle
 10
11324.28985156649
 20
4108.725840550706
 30
0.0
 40
7.0
100
AcDbArc
 50
270.0
 51
356.3813705198622
  0
ARC
  5
179A7
330
747D
100
AcDbEntity
  8
部品1
100
AcDbCircle
 10
11337.41646241246
 20
4221.225840550705
 30
0.0
 40
7.0
100
AcDbArc
 50
356.3813705198622
 51
90.0
  0
LINE
  5
179A8
330
747D
100
AcDbEntity
  8
部品1
100
AcDbLine
 10
11331.2758953837
 20
4108.284035408116
 30
0.0
 11
11331.94822108829
 21
4118.915185611818
 31
0.0
  0
LINE
  5
179A9
330
747D
100
AcDbEntity
  8
部品1
100
AcDbLine
 10
11343.14196817111
 20
4200.851777357034
 30
0.0
 11
11344.40250622967
 21
4220.784035408116
 31
0.0
  0
LINE
  5
179AA
330
747D
100
AcDbEntity
  8
部品1
100
AcDbLine
 10
11299.47313422288
 20
4228.225840550705
 30
0.0
 11
11337.41646241246
 21
4228.225840550705
 31
0.0
  0
ARC
  5
179AB
330
747D
100
AcDbEntity
  8
部品1
100
AcDbCircle
 10
11299.47313422288
 20
4223.225840550705
 30
0.0
 40
5.0
100
AcDbArc
 50
90.0
 51
180.0
  0
LINE
  5
179AC
330
747D
100
AcDbEntity
  8
部品1
100
AcDbLine
 10
11294.47313422288
 20
4278.225840567603
 30
0.0
 11
11294.47313422288
 21
4180.814773050602
 31
0.0
  0
LINE
  5
179AD
330
747D
100
AcDbEntity
  8
部品1
 48
50.0
100
AcDbLine
 10
11344.40250622967
 20
4220.784035408116
 30
0.0
 11
11344.40250622967
 21
4275.784035425014
 31
0.0
  0
ARC
  5
179AE
330
747D
100
AcDbEntity
  8
部品1
100
AcDbCircle
 10
11299.47313422288
 20
4278.225840567603
 30
0.0
 40
5.0
100
AcDbArc
 50
90.0
 51
180.0
  0
LINE
  5
179AF
330
747D
100
AcDbEntity
  8
部品1
100
AcDbLine
 10
11299.47313422288
 20
4283.225840567603
 30
0.0
 11
11337.41646241246
 21
4283.225840567603
 31
0.0
  0
ARC
  5
179B0
330
747D
100
AcDbEntity
  8
部品1
100
AcDbCircle
 10
11337.41646241246
 20
4276.225840567604
 30
0.0
 40
7.0
100
AcDbArc
 50
356.3813705198622
 51
90.0
  0
LINE
  5
179B1
330
747D
100
AcDbEntity
  8
細線
 48
50.0
100
AcDbLine
 10
11311.91359613396
 20
4228.225840550705
 30
0.0
 11
11311.91359613396
 21
4101.725840550705
 31
0.0
  0
LINE
  5
179B2
330
747D
100
AcDbEntity
  8
細線
 48
50.0
100
AcDbLine
 10
11294.47313422288
 20
4200.197673298655
 30
0.0
 11
11342.53637550683
 21
4200.197673298663
 31
0.0
  0
LINE
  5
179B3
330
747D
100
AcDbEntity
  8
部品1
 48
50.0
100
AcDbLine
 10
11227.40250622967
 20
4278.225840559178
 30
0.0
 11
11226.19116602349
 21
4268.825840559176
 31
0.0
  0
LINE
  5
179B4
330
747D
100
AcDbEntity
  8
部品1
 48
50.0
100
AcDbLine
 10
11212.19116602349
 20
4268.825840559176
 30
0.0
 11
11226.19116602349
 21
4268.825840559176
 31
0.0
  0
LINE
  5
179B5
330
747D
100
AcDbEntity
  8
部品1
 48
50.0
100
AcDbLine
 10
11212.19116602349
 20
4268.825840559176
 30
0.0
 11
11210.90250622967
 21
4258.825840559176
 31
0.0
  0
LINE
  5
179B6
330
747D
100
AcDbEntity
  8
部品1
 48
50.0
100
AcDbLine
 10
11251.40250622967
 20
4278.225840559178
 30
0.0
 11
11253.90250622967
 21
4258.825840559176
 31
0.0
  0
LINE
  5
179B7
330
747D
100
AcDbEntity
  8
部品1
100
AcDbLine
 10
11294.47313422288
 20
4258.825840559173
 30
0.0
 11
11253.90250622967
 21
4258.825840559173
 31
0.0
  0
LINE
  5
179B8
330
747D
100
AcDbEntity
  8
部品1
100
AcDbLine
 10
10810.40250622967
 20
4278.225840559182
 30
0.0
 11
10810.40250622967
 21
4180.814773050617
 31
0.0
  0
LINE
  5
179B9
330
747D
100
AcDbEntity
  8
部品1
100
AcDbLine
 10
10828.40250622967
 20
4278.225840559193
 30
0.0
 11
10828.40250622967
 21
4180.814773050617
 31
0.0
  0
LINE
  5
179BA
330
747D
100
AcDbEntity
  8
部品1
 48
50.0
100
AcDbLine
 10
10807.40250622968
 20
4278.225840559193
 30
0.0
 11
10831.40250622968
 21
4278.225840559193
 31
0.0
  0
LINE
  5
179BB
330
747D
100
AcDbEntity
  8
部品1
 48
50.0
100
AcDbLine
 10
10807.40250622968
 20
4278.225840559193
 30
0.0
 11
10806.19116602349
 21
4268.825840559191
 31
0.0
  0
LINE
  5
179BC
330
747D
100
AcDbEntity
  8
部品1
 48
50.0
100
AcDbLine
 10
10792.19116602349
 20
4268.825840559191
 30
0.0
 11
10806.19116602349
 21
4268.825840559191
 31
0.0
  0
LINE
  5
179BD
330
747D
100
AcDbEntity
  8
部品1
 48
50.0
100
AcDbLine
 10
10792.19116602349
 20
4268.825840559191
 30
0.0
 11
10790.90250622968
 21
4258.825840559191
 31
0.0
  0
LINE
  5
179BE
330
747D
100
AcDbEntity
  8
部品1
 48
50.0
100
AcDbLine
 10
10831.40250622968
 20
4278.225840559193
 30
0.0
 11
10833.90250622968
 21
4258.825840559191
 31
0.0
  0
LINE
  5
179BF
330
747D
100
AcDbEntity
  8
部品1
100
AcDbLine
 10
10977.40250622967
 20
4258.825840559191
 30
0.0
 11
10833.90250622967
 21
4258.825840559191
 31
0.0
  0
LINE
  5
179C0
330
747D
100
AcDbEntity
  8
部品1
100
AcDbLine
 10
11050.40250622967
 20
4258.825840559191
 30
0.0
 11
11026.40250622968
 21
4258.825840559191
 31
0.0
  0
LINE
  5
179C1
330
747D
100
AcDbEntity
  8
部品1
 48
50.0
100
AcDbLine
 10
11015.90250622968
 20
4278.225840559197
 30
0.0
 11
11026.40250622968
 21
4258.825840559195
 31
0.0
  0
LINE
  5
179C2
330
747D
100
AcDbEntity
  8
部品1
 48
50.0
100
AcDbLine
 10
10987.90250622968
 20
4278.225840559197
 30
0.0
 11
10977.40250622968
 21
4258.825840559195
 31
0.0
  0
LINE
  5
179C3
330
747D
100
AcDbEntity
  8
部品1
 48
50.0
100
AcDbLine
 10
10987.90250622968
 20
4278.225840559197
 30
0.0
 11
11015.90250622967
 21
4278.225840559197
 31
0.0
  0
LINE
  5
179C4
330
747D
100
AcDbEntity
  8
部品1
 48
50.0
100
AcDbLine
 10
11060.90250622968
 20
4278.225840559197
 30
0.0
 11
11050.40250622968
 21
4258.825840559195
 31
0.0
  0
LINE
  5
179C5
330
747D
100
AcDbEntity
  8
部品1
 48
50.0
100
AcDbLine
 10
11088.90250622968
 20
4278.225840559197
 30
0.0
 11
11099.40250622968
 21
4258.825840559195
 31
0.0
  0
LINE
  5
179C6
330
747D
100
AcDbEntity
  8
部品1
 48
50.0
100
AcDbLine
 10
11060.90250622968
 20
4278.225840559197
 30
0.0
 11
11088.90250622967
 21
4278.225840559197
 31
0.0
  0
LINE
  5
179C7
330
747D
100
AcDbEntity
  8
部品1
100
AcDbLine
 10
11014.40250622968
 20
4278.225840559193
 30
0.0
 11
11014.40250622968
 21
4180.81477305062
 31
0.0
  0
LINE
  5
179C8
330
747D
100
AcDbEntity
  8
部品1
100
AcDbLine
 10
10989.40250622968
 20
4278.225840559193
 30
0.0
 11
10989.40250622968
 21
4180.81477305062
 31
0.0
  0
LINE
  5
179C9
330
747D
100
AcDbEntity
  8
部品1
100
AcDbLine
 10
11062.40250622968
 20
4278.225840559193
 30
0.0
 11
11062.40250622969
 21
4180.81477305062
 31
0.0
  0
LINE
  5
179CA
330
747D
100
AcDbEntity
  8
部品1
100
AcDbLine
 10
11087.40250622968
 20
4278.225840559193
 30
0.0
 11
11087.40250622969
 21
4180.81477305062
 31
0.0
  0
LINE
  5
179CB
330
747D
100
AcDbEntity
  8
部品1
100
AcDbLine
 10
11210.90250622967
 20
4258.825840559176
 30
0.0
 11
11099.40250622968
 21
4258.825840559176
 31
0.0
  0
LINE
  5
179CC
330
747D
100
AcDbEntity
  8
細線
 48
50.0
100
AcDbLine
 10
8796.902506229688
 20
4048.225840550705
 30
0.0
 11
8796.902506229688
 21
1958.225840550705
 31
0.0
  0
LINE
  5
179CD
330
747D
100
AcDbEntity
  8
細線
 48
50.0
100
AcDbLine
 10
8781.902506229688
 20
4048.225840550705
 30
0.0
 11
8781.902506229688
 21
1958.225840550705
 31
0.0
  0
LINE
  5
179CE
330
747D
100
AcDbEntity
  8
細線
 48
50.0
100
AcDbLine
 10
8921.902506229688
 20
4048.225840550705
 30
0.0
 11
8921.902506229688
 21
1958.225840550705
 31
0.0
  0
LINE
  5
179CF
330
747D
100
AcDbEntity
  8
細線
 48
50.0
100
AcDbLine
 10
8936.902506229689
 20
4048.225840550705
 30
0.0
 11
8936.902506229689
 21
1958.225840550705
 31
0.0
  0
LINE
  5
179D0
330
747D
100
AcDbEntity
  8
細線
 48
50.0
100
AcDbLine
 10
9076.902506229687
 20
4048.225840550705
 30
0.0
 11
9076.902506229687
 21
1958.225840550705
 31
0.0
  0
LINE
  5
179D1
330
747D
100
AcDbEntity
  8
細線
 48
50.0
100
AcDbLine
 10
9061.902506229689
 20
4048.225840550705
 30
0.0
 11
9061.902506229689
 21
1958.225840550705
 31
0.0
  0
LINE
  5
179D3
330
747D
100
AcDbEntity
  8
部品1
100
AcDbLine
 10
11237.90250622968
 20
8551.952473986823
 30
0.0
 11
8720.90250622968
 21
8551.952473986728
 31
0.0
  0
LINE
  5
179D4
330
747D
100
AcDbEntity
  8
部品1
100
AcDbLine
 10
8692.402506229672
 20
8551.952473986728
 30
0.0
 11
8664.402506229672
 21
8551.952473986728
 31
0.0
  0
LINE
  5
179D5
330
747D
100
AcDbEntity
  8
部品1
100
AcDbLine
 10
11266.4025062297
 20
8551.952473986851
 30
0.0
 11
11294.40250622969
 21
8551.952473986851
 31
0.0
  0
LINE
  5
17DC3
330
747D
100
AcDbEntity
  8
補助
  6
PHANTOM
 62
   230
 48
50.0
100
AcDbLine
 10
140.0
 20
0.0
 30
0.0
 11
140.0
 21
11409.6
 31
0.0
  0
LINE
  5
180F6
330
747D
100
AcDbEntity
  8
部品1
 48
50.0
100
AcDbLine
 10
9186.402506229688
 20
3039.725840550707
 30
0.0
 11
9239.402506229687
 21
3039.725840550707
 31
0.0
  0
LINE
  5
1830E
330
747D
100
AcDbEntity
  8
寸法
 48
50.0
100
AcDbLine
 10
9574.605512511508
 20
7014.989225555708
 30
0.0
 11
9523.199504601405
 21
7014.989225555708
 31
0.0
  0
LINE
  5
1830F
330
747D
100
AcDbEntity
  8
寸法
 48
50.0
100
AcDbLine
 10
9523.199504601405
 20
7014.989225555708
 30
0.0
 11
9523.199504601405
 21
7046.299384207874
 31
0.0
  0
LINE
  5
18310
330
747D
100
AcDbEntity
  8
寸法
 48
50.0
100
AcDbLine
 10
9523.199504601405
 20
7046.299384207874
 30
0.0
 11
9493.438172609982
 21
7046.299384207874
 31
0.0
  0
LINE
  5
18311
330
747D
100
AcDbEntity
  8
寸法
 48
50.0
100
AcDbLine
 10
9493.438172609982
 20
7046.299384207874
 30
0.0
 11
9548.902508556457
 21
7083.878835136484
 31
0.0
  0
LINE
  5
18312
330
747D
100
AcDbEntity
  8
寸法
 48
50.0
100
AcDbLine
 10
9604.366844502933
 20
7046.299384207874
 30
0.0
 11
9548.902508556457
 21
7083.878835136484
 31
0.0
  0
LINE
  5
18313
330
747D
100
AcDbEntity
  8
寸法
 48
50.0
100
AcDbLine
 10
9574.605512511508
 20
7046.299384207874
 30
0.0
 11
9604.366844502933
 21
7046.299384207874
 31
0.0
  0
LINE
  5
18314
330
747D
100
AcDbEntity
  8
寸法
 48
50.0
100
AcDbLine
 10
9574.605512511508
 20
7014.989225555708
 30
0.0
 11
9574.605512511508
 21
7046.299384207874
 31
0.0
  0
LINE
  5
18315
330
747D
100
AcDbEntity
  8
寸法
 48
50.0
100
AcDbLine
 10
9523.199504601405
 20
7014.989225555708
 30
0.0
 11
9574.605512511508
 21
7014.989225555708
 31
0.0
  0
LINE
  5
18316
330
747D
100
AcDbEntity
  8
寸法
 48
50.0
100
AcDbLine
 10
9853.771046788367
 20
7072.13481631053
 30
0.0
 11
9853.771046788367
 21
7018.471181728741
 31
0.0
  0
LINE
  5
18317
330
747D
100
AcDbEntity
  8
寸法
 48
50.0
100
AcDbLine
 10
9943.055265383788
 20
7048.211182041045
 30
0.0
 11
9853.771046788367
 21
7072.13481631053
 31
0.0
  0
LINE
  5
18318
330
747D
100
AcDbEntity
  8
寸法
 48
50.0
100
AcDbLine
 10
9723.903325208063
 20
7048.211182041045
 30
0.0
 11
9943.055265383788
 21
7048.211182041045
 31
0.0
  0
LINE
  5
18319
330
747D
100
AcDbEntity
  8
細線
 48
50.0
100
AcDbLine
 10
10600.40250622967
 20
7213.45258893557
 30
0.0
 11
11227.40250622966
 21
7213.45258893557
 31
0.0
  0
LINE
  5
1831A
330
747D
100
AcDbEntity
  8
細線
 48
50.0
100
AcDbLine
 10
9946.402510883254
 20
7179.743820381495
 30
0.0
 11
11227.40250622966
 21
7179.743820381495
 31
0.0
  0
LINE
  5
1831B
330
747D
100
AcDbEntity
  8
細線
 48
50.0
100
AcDbLine
 10
9905.402510883257
 20
7209.148728377748
 30
0.0
 11
9151.402506229663
 21
7209.148728377744
 31
0.0
  0
LINE
  5
1831C
330
747D
100
AcDbEntity
  8
細線
100
AcDbLine
 10
11003.1524968132
 20
7232.952488900579
 30
0.0
 11
11005.48403633501
 21
7237.952491540539
 31
0.0
  0
LINE
  5
1831D
330
747D
100
AcDbEntity
  8
細線
100
AcDbLine
 10
11073.15250622966
 20
7232.952473986845
 30
0.0
 11
11070.82095975348
 21
7237.952491540525
 31
0.0
  0
LINE
  5
1831E
330
747D
100
AcDbEntity
  8
細線
100
AcDbLine
 10
11070.82095975348
 20
7237.952491540525
 30
0.0
 11
11005.484036335
 21
7237.952491540511
 31
0.0
  0
LINE
  5
1831F
330
747D
100
AcDbEntity
  8
細線
100
AcDbLine
 10
10930.82095975348
 20
7237.952491540525
 30
0.0
 11
10865.484036335
 21
7237.952491540511
 31
0.0
  0
LINE
  5
18320
330
747D
100
AcDbEntity
  8
細線
100
AcDbLine
 10
10933.15250622966
 20
7232.952473986845
 30
0.0
 11
10930.82095975348
 21
7237.952491540525
 31
0.0
  0
LINE
  5
18321
330
747D
100
AcDbEntity
  8
細線
100
AcDbLine
 10
10863.15249681321
 20
7232.952488900579
 30
0.0
 11
10865.48403633501
 21
7237.952491540539
 31
0.0
  0
LINE
  5
18322
330
747D
100
AcDbEntity
  8
細線
100
AcDbLine
 10
10723.15250622966
 20
7232.952473986845
 30
0.0
 11
10725.48404575147
 21
7237.952476626806
 31
0.0
  0
LINE
  5
18323
330
747D
100
AcDbEntity
  8
細線
100
AcDbLine
 10
10793.15251564612
 20
7232.952459073111
 30
0.0
 11
10790.82096916993
 21
7237.952476626792
 31
0.0
  0
LINE
  5
18324
330
747D
100
AcDbEntity
  8
細線
100
AcDbLine
 10
10790.82096916994
 20
7237.952476626792
 30
0.0
 11
10725.48404575146
 21
7237.952476626777
 31
0.0
  0
LINE
  5
18325
330
747D
100
AcDbEntity
  8
細線
100
AcDbLine
 10
10495.57099041877
 20
7203.952513324174
 30
0.0
 11
10430.23406700029
 21
7203.952513324158
 31
0.0
  0
LINE
  5
18326
330
747D
100
AcDbEntity
  8
細線
100
AcDbLine
 10
10497.90253689496
 20
7198.952495770493
 30
0.0
 11
10495.57099041877
 21
7203.952513324174
 31
0.0
  0
LINE
  5
18327
330
747D
100
AcDbEntity
  8
細線
100
AcDbLine
 10
10427.9025274785
 20
7198.952510684226
 30
0.0
 11
10430.23406700031
 21
7203.952513324188
 31
0.0
  0
LINE
  5
18328
330
747D
100
AcDbEntity
  8
細線
 48
50.0
100
AcDbLine
 10
10269.28588547768
 20
7217.223337139926
 30
0.0
 11
10275.04140306034
 21
7198.952485849439
 31
0.0
  0
LINE
  5
18329
330
747D
100
AcDbEntity
  8
細線
 48
50.0
100
AcDbLine
 10
10258.35743699725
 20
7217.223337139926
 30
0.0
 11
10269.28588547768
 21
7217.223337139926
 31
0.0
  0
ARC
  5
1832A
330
747D
100
AcDbEntity
  8
細線
 48
50.0
100
AcDbCircle
 10
10252.90308093993
 20
7218.723337139926
 30
0.0
 40
5.0
100
AcDbArc
 50
204.6243183521304
 51
335.3756816478695
  0
ARC
  5
1832B
330
747D
100
AcDbEntity
  8
細線
 48
50.0
100
AcDbCircle
 10
10258.35743699725
 20
7216.223337139926
 30
0.0
 40
1.0
100
AcDbArc
 50
90.0
 51
155.3756816478695
  0
ARC
  5
1832C
330
747D
100
AcDbEntity
  8
細線
 48
50.0
100
AcDbCircle
 10
10247.44872488261
 20
7216.223337139926
 30
0.0
 40
1.0
100
AcDbArc
 50
24.62431835213048
 51
90.0
  0
LINE
  5
1832D
330
747D
100
AcDbEntity
  8
細線
 48
50.0
100
AcDbLine
 10
10236.52027640218
 20
7217.223337139926
 30
0.0
 11
10247.44872488261
 21
7217.223337139926
 31
0.0
  0
LINE
  5
1832E
330
747D
100
AcDbEntity
  8
細線
 48
50.0
100
AcDbLine
 10
10230.76475881951
 20
7198.952485849432
 30
0.0
 11
10236.52027640218
 21
7217.223337139926
 31
0.0
  0
LINE
  5
1832F
330
747D
100
AcDbEntity
  8
細線
100
AcDbLine
 10
10287.90252870954
 20
7198.952483215236
 30
0.0
 11
10290.23406823135
 21
7203.952485855197
 31
0.0
  0
LINE
  5
18330
330
747D
100
AcDbEntity
  8
細線
100
AcDbLine
 10
10357.902538126
 20
7198.952468301502
 30
0.0
 11
10355.57099164981
 21
7203.952485855182
 31
0.0
  0
LINE
  5
18331
330
747D
100
AcDbEntity
  8
細線
100
AcDbLine
 10
10355.57099164981
 20
7203.952485855182
 30
0.0
 11
10290.23406823134
 21
7203.952485855167
 31
0.0
  0
LINE
  5
18332
330
747D
100
AcDbEntity
  8
細線
100
AcDbLine
 10
10215.57096328529
 20
7203.952485849402
 30
0.0
 11
10150.23403986682
 21
7203.952485849388
 31
0.0
  0
LINE
  5
18333
330
747D
100
AcDbEntity
  8
細線
100
AcDbLine
 10
10217.90250976148
 20
7198.952468295722
 30
0.0
 11
10215.57096328529
 21
7203.952485849402
 31
0.0
  0
LINE
  5
18334
330
747D
100
AcDbEntity
  8
細線
100
AcDbLine
 10
10147.90250157606
 20
7198.952485849432
 30
0.0
 11
10150.23403986683
 21
7203.952485849417
 31
0.0
  0
LINE
  5
18335
330
747D
100
AcDbEntity
  8
細線
100
AcDbLine
 10
10007.90253689496
 20
7198.952494036801
 30
0.0
 11
10010.23407518572
 21
7203.952494036787
 31
0.0
  0
LINE
  5
18336
330
747D
100
AcDbEntity
  8
細線
100
AcDbLine
 10
10077.90254508037
 20
7198.952476483092
 30
0.0
 11
10075.57099860419
 21
7203.952494036768
 31
0.0
  0
LINE
  5
18337
330
747D
100
AcDbEntity
  8
細線
100
AcDbLine
 10
10075.57099860419
 20
7203.952494036768
 30
0.0
 11
10010.23407518571
 21
7203.952494036757
 31
0.0
  0
LINE
  5
18338
330
747D
100
AcDbEntity
  8
細線
100
AcDbLine
 10
9636.402502697839
 20
7164.952665717514
 30
0.0
 11
9638.734040988607
 21
7169.9526657175
 31
0.0
  0
LINE
  5
18339
330
747D
100
AcDbEntity
  8
細線
100
AcDbLine
 10
9706.402510883254
 20
7164.952648163801
 30
0.0
 11
9704.070964407067
 21
7169.952665717477
 31
0.0
  0
LINE
  5
1833A
330
747D
100
AcDbEntity
  8
細線
100
AcDbLine
 10
9704.070964407067
 20
7169.952665717477
 30
0.0
 11
9638.734040988595
 21
7169.95266571747
 31
0.0
  0
LINE
  5
1833B
330
747D
100
AcDbEntity
  8
細線
100
AcDbLine
 10
9844.070964407066
 20
7169.952665717477
 30
0.0
 11
9778.734040988595
 21
7169.95266571747
 31
0.0
  0
LINE
  5
1833C
330
747D
100
AcDbEntity
  8
細線
100
AcDbLine
 10
9846.402510883255
 20
7164.952648163801
 30
0.0
 11
9844.070964407066
 21
7169.952665717477
 31
0.0
  0
LINE
  5
1833D
330
747D
100
AcDbEntity
  8
細線
100
AcDbLine
 10
9776.402502697839
 20
7164.952665717514
 30
0.0
 11
9778.734040988606
 21
7169.9526657175
 31
0.0
  0
LINE
  5
1833E
330
747D
100
AcDbEntity
  8
細線
100
AcDbLine
 10
9564.070964407067
 20
7169.952665717477
 30
0.0
 11
9498.734040988594
 21
7169.952665717467
 31
0.0
  0
LINE
  5
1833F
330
747D
100
AcDbEntity
  8
細線
100
AcDbLine
 10
9566.402510883255
 20
7164.952648163801
 30
0.0
 11
9564.070964407067
 21
7169.952665717477
 31
0.0
  0
LINE
  5
18340
330
747D
100
AcDbEntity
  8
細線
100
AcDbLine
 10
9496.402502697838
 20
7164.95266571751
 30
0.0
 11
9498.734040988606
 21
7169.952665717495
 31
0.0
  0
LINE
  5
18341
330
747D
100
AcDbEntity
  8
細線
100
AcDbLine
 10
9356.402510883254
 20
7164.952665717514
 30
0.0
 11
9358.734049174023
 21
7169.9526657175
 31
0.0
  0
LINE
  5
18342
330
747D
100
AcDbEntity
  8
細線
100
AcDbLine
 10
9426.40251906867
 20
7164.952648163801
 30
0.0
 11
9424.070972592483
 21
7169.952665717477
 31
0.0
  0
LINE
  5
18343
330
747D
100
AcDbEntity
  8
細線
100
AcDbLine
 10
9424.070972592483
 20
7169.952665717477
 30
0.0
 11
9358.73404917401
 21
7169.95266571747
 31
0.0
  0
ARC
  5
18344
330
747D
100
AcDbEntity
  8
部品1
 48
0.01
100
AcDbCircle
 10
9311.90239963092
 20
7163.951543532441
 30
0.0
 40
0.5
100
AcDbArc
 50
270.0
 51
0.0
  0
LINE
  5
18345
330
747D
100
AcDbEntity
  8
部品1
 48
0.01
100
AcDbLine
 10
9312.402399630919
 20
7164.951543532442
 30
0.0
 11
9312.402399630919
 21
7163.951543532441
 31
0.0
  0
LINE
  5
18346
330
747D
100
AcDbEntity
  8
部品1
 48
0.01
100
AcDbLine
 10
9312.402399630919
 20
7164.951543532442
 30
0.0
 11
9312.402399630919
 21
7163.951543532441
 31
0.0
  0
LINE
  5
18347
330
747D
100
AcDbEntity
  8
部品1
 48
0.01
100
AcDbLine
 10
9311.90239963092
 20
7163.451543532442
 30
0.0
 11
9305.289894200853
 21
7163.451543532442
 31
0.0
  0
ARC
  5
18348
330
747D
100
AcDbEntity
  8
部品1
100
AcDbCircle
 10
9305.358243753635
 20
7164.45154353244
 30
0.0
 40
1.0
100
AcDbArc
 50
160.5287793655778
 51
270.0
  0
ARC
  5
18349
330
747D
100
AcDbEntity
  8
部品1
100
AcDbCircle
 10
9279.902399630918
 20
7173.451543532441
 30
0.0
 40
26.0
100
AcDbArc
 50
340.5287793655779
 51
0.0
  0
LINE
  5
1834A
330
747D
100
AcDbEntity
  8
部品1
100
AcDbLine
 10
9305.90239963092
 20
7173.451543532441
 30
0.0
 11
9305.90239963092
 21
7178.451543532441
 31
0.0
  0
ARC
  5
1834B
330
747D
100
AcDbEntity
  8
部品1
 48
0.01
100
AcDbCircle
 10
9303.902399630919
 20
7178.451543532441
 30
0.0
 40
2.0
100
AcDbArc
 50
0.0
 51
90.0
  0
ARC
  5
1834C
330
747D
100
AcDbEntity
  8
部品1
100
AcDbCircle
 10
9302.294008006109
 20
7177.451543532441
 30
0.0
 40
3.0
100
AcDbArc
 50
90.0
 51
141.6069559807873
  0
LINE
  5
1834D
330
747D
100
AcDbEntity
  8
部品1
 48
0.01
100
AcDbLine
 10
9303.902399630919
 20
7180.451543532441
 30
0.0
 11
9302.294008006109
 21
7180.451543532441
 31
0.0
  0
ARC
  5
1834E
330
747D
100
AcDbEntity
  8
部品1
100
AcDbCircle
 10
9283.831685416648
 20
7176.751543532444
 30
0.0
 40
3.0
100
AcDbArc
 50
254.0576313943215
 51
270.0
  0
ARC
  5
1834F
330
747D
100
AcDbEntity
  8
部品1
100
AcDbCircle
 10
9290.97311384519
 20
7176.751543532444
 30
0.0
 40
3.0
100
AcDbArc
 50
270.0
 51
285.9423686056786
  0
LINE
  5
18350
330
747D
100
AcDbEntity
  8
部品1
100
AcDbLine
 10
9290.97311384519
 20
7173.751543532444
 30
0.0
 11
9283.831685416648
 21
7173.751543532444
 31
0.0
  0
ARC
  5
18351
330
747D
100
AcDbEntity
  8
部品1
100
AcDbCircle
 10
9287.402399630918
 20
7189.251543532444
 30
0.0
 40
16.0
100
AcDbArc
 50
285.9423686056786
 51
321.6069559807873
  0
LINE
  5
18352
330
747D
100
AcDbEntity
  8
部品1
 48
0.01
100
AcDbLine
 10
9270.902399630918
 20
7180.451543532441
 30
0.0
 11
9272.510791255729
 21
7180.451543532441
 31
0.0
  0
ARC
  5
18353
330
747D
100
AcDbEntity
  8
部品1
100
AcDbCircle
 10
9272.510791255729
 20
7177.451543532441
 30
0.0
 40
3.0
100
AcDbArc
 50
38.39304401921267
 51
90.0
  0
ARC
  5
18354
330
747D
100
AcDbEntity
  8
部品1
100
AcDbCircle
 10
9287.402399630918
 20
7189.251543532444
 30
0.0
 40
16.0
100
AcDbArc
 50
218.3930440192126
 51
254.0576313943215
  0
LINE
  5
18355
330
747D
100
AcDbEntity
  8
部品1
100
AcDbLine
 10
9268.902399630919
 20
7173.451543532441
 30
0.0
 11
9268.902399630919
 21
7178.451543532441
 31
0.0
  0
ARC
  5
18356
330
747D
100
AcDbEntity
  8
部品1
 48
0.01
100
AcDbCircle
 10
9270.902399630918
 20
7178.451543532441
 30
0.0
 40
2.0
100
AcDbArc
 50
90.0
 51
180.0
  0
ARC
  5
18357
330
747D
100
AcDbEntity
  8
部品1
100
AcDbCircle
 10
9294.902399630919
 20
7173.451543532441
 30
0.0
 40
26.0
100
AcDbArc
 50
180.0
 51
199.4712206344221
  0
ARC
  5
18358
330
747D
100
AcDbEntity
  8
部品1
 48
0.01
100
AcDbCircle
 10
9262.902399630918
 20
7163.951543532441
 30
0.0
 40
0.5
100
AcDbArc
 50
180.0
 51
270.0
  0
LINE
  5
18359
330
747D
100
AcDbEntity
  8
部品1
 48
0.01
100
AcDbLine
 10
9262.902399630918
 20
7163.451543532442
 30
0.0
 11
9269.446555508203
 21
7163.451543532442
 31
0.0
  0
LINE
  5
1835A
330
747D
100
AcDbEntity
  8
部品1
 48
0.01
100
AcDbLine
 10
9262.40239963092
 20
7164.951543532442
 30
0.0
 11
9262.40239963092
 21
7163.951543532441
 31
0.0
  0
ARC
  5
1835B
330
747D
100
AcDbEntity
  8
部品1
100
AcDbCircle
 10
9269.446555508203
 20
7164.45154353244
 30
0.0
 40
1.0
100
AcDbArc
 50
270.0
 51
19.47122063442214
  0
LINE
  5
1835C
330
747D
100
AcDbEntity
  8
細線
100
AcDbLine
 10
9307.902399630926
 20
7182.951543532445
 30
0.0
 11
9266.902399630927
 21
7182.951543532438
 31
0.0
  0
LINE
  5
1835D
330
747D
100
AcDbEntity
  8
細線
100
AcDbLine
 10
9266.902399630927
 20
7182.951543532438
 30
0.0
 11
9266.902399630927
 21
7164.951543532419
 31
0.0
  0
LINE
  5
1835E
330
747D
100
AcDbEntity
  8
細線
100
AcDbLine
 10
9307.902399630926
 20
7182.951543532445
 30
0.0
 11
9307.902399630926
 21
7164.951543532419
 31
0.0
  0
LINE
  5
1835F
330
747D
100
AcDbEntity
  8
細線
100
AcDbLine
 10
9151.402506229663
 20
7168.952473986845
 30
0.0
 11
9151.402506229663
 21
7164.952473986892
 31
0.0
  0
DIMENSION
  5
18360
330
747D
100
AcDbEntity
  8
寸法
 48
50.0
100
AcDbDimension
  2
*D30
 10
10417.40250622966
 20
6506.633033692233
 30
0.0
 11
9799.786344903026
 21
6506.633033692233
 31
0.0
 70
   160
  1
有効開口部間口\P<>
 71
     5
 42
1266.0
  3
INABA_S40
100
AcDbAlignedDimension
 13
9151.402506229663
 23
7159.952473986844
 33
0.0
 14
10417.40250622966
 24
7159.952473986844
 34
0.0
100
AcDbRotatedDimension
1001
ACAD
1000
DSTYLE
1002
{
1070
    41
1040
0.5
1070
    44
1040
1.0
1070
   147
1040
0.8
1070
   271
1070
     2
1070
   272
1070
     2
1070
   289
1070
     3
1070
   340
1005
F706
1070
   343
1005
171F9
1070
   344
1005
171F9
1002
}
  0
LINE
  5
18361
330
747D
100
AcDbEntity
  8
部品1
100
AcDbLine
 10
11239.40250622966
 20
7236.952473986845
 30
0.0
 11
11266.40250622966
 21
7236.952473986845
 31
0.0
  0
LINE
  5
18363
330
747D
100
AcDbEntity
  8
部品1
100
AcDbLine
 10
11266.40250622966
 20
7159.952473986844
 30
0.0
 11
11266.40250622966
 21
7236.952473986845
 31
0.0
  0
LINE
  5
18364
330
747D
100
AcDbEntity
  8
部品1
100
AcDbLine
 10
11227.40250622966
 20
7232.952473986845
 30
0.0
 11
11239.40250622966
 21
7232.952473986845
 31
0.0
  0
LINE
  5
18365
330
747D
100
AcDbEntity
  8
部品1
100
AcDbLine
 10
11236.40250622966
 20
7168.952473986845
 30
0.0
 11
11236.40250622966
 21
7159.952473986844
 31
0.0
  0
LINE
  5
18366
330
747D
100
AcDbEntity
  8
部品1
100
AcDbLine
 10
11227.40250622966
 20
7168.952473986845
 30
0.0
 11
11236.40250622966
 21
7168.952473986845
 31
0.0
  0
LINE
  5
18367
330
747D
100
AcDbEntity
  8
部品1
100
AcDbLine
 10
11227.40250622966
 20
7232.952473986845
 30
0.0
 11
11227.40250622966
 21
7168.952473986845
 31
0.0
  0
LINE
  5
18368
330
747D
100
AcDbEntity
  8
部品1
100
AcDbLine
 10
11239.40250622966
 20
7263.952473986845
 30
0.0
 11
11239.40250622966
 21
7232.952473986845
 31
0.0
  0
LINE
  5
18369
330
747D
100
AcDbEntity
  8
部品1
100
AcDbLine
 10
9151.402506229663
 20
7232.952473986845
 30
0.0
 11
9139.402506229664
 21
7232.952473986845
 31
0.0
  0
LINE
  5
1836A
330
747D
100
AcDbEntity
  8
部品1
100
AcDbLine
 10
9112.402506229663
 20
7236.952473986845
 30
0.0
 11
9139.402506229664
 21
7236.952473986845
 31
0.0
  0
LINE
  5
1836B
330
747D
100
AcDbEntity
  8
部品1
100
AcDbLine
 10
9142.402506229664
 20
7168.952473986845
 30
0.0
 11
9142.402506229664
 21
7159.952473986844
 31
0.0
  0
LINE
  5
1836C
330
747D
100
AcDbEntity
  8
部品1
100
AcDbLine
 10
9151.402506229663
 20
7168.952473986845
 30
0.0
 11
9142.402506229664
 21
7168.952473986845
 31
0.0
  0
LINE
  5
1836D
330
747D
100
AcDbEntity
  8
部品1
100
AcDbLine
 10
9142.402506229664
 20
7159.952473986844
 30
0.0
 11
9112.402506229663
 21
7159.952473986844
 31
0.0
  0
LINE
  5
1836E
330
747D
100
AcDbEntity
  8
部品1
100
AcDbLine
 10
9112.402506229663
 20
7159.952473986844
 30
0.0
 11
9112.402506229663
 21
7236.952473986845
 31
0.0
  0
LINE
  5
1836F
330
747D
100
AcDbEntity
  8
部品1
100
AcDbLine
 10
9151.402506229663
 20
7232.952473986845
 30
0.0
 11
9151.402506229663
 21
7168.952473986845
 31
0.0
  0
LINE
  5
18370
330
747D
100
AcDbEntity
  8
部品1
100
AcDbLine
 10
9139.402506229664
 20
7263.95247398684
 30
0.0
 11
9139.402506229664
 21
7232.952473986845
 31
0.0
  0
LINE
  5
18371
330
747D
100
AcDbEntity
  8
部品1
100
AcDbLine
 10
9139.402506229664
 20
7263.95247398684
 30
0.0
 11
11239.40250622966
 21
7263.952473986845
 31
0.0
  0
LINE
  5
18372
330
747D
100
AcDbEntity
  8
部品1
100
AcDbLine
 10
11236.40250622966
 20
7159.952473986844
 30
0.0
 11
11266.40250622966
 21
7159.952473986844
 31
0.0
  0
LINE
  5
18373
330
747D
100
AcDbEntity
  8
部品1
100
AcDbLine
 10
9142.402506229664
 20
7159.952473986844
 30
0.0
 11
11239.40250622966
 21
7159.952473986844
 31
0.0
  0
LINE
  5
18374
330
747D
100
AcDbEntity
  8
細線
  6
Continuous
 62
     5
100
AcDbLine
 10
10518.40250622967
 20
7198.952473986842
 30
0.0
 11
10518.40250622967
 21
7198.952473986842
 31
0.0
  0
LINE
  5
18375
330
747D
100
AcDbEntity
  8
細線
  6
Continuous
 62
     5
100
AcDbLine
 10
10510.90254154856
 20
7198.952483907898
 30
0.0
 11
10510.90254154856
 21
7198.952483907898
 31
0.0
  0
LINE
  5
18376
330
747D
100
AcDbEntity
  8
細線
  6
Continuous
 62
     5
100
AcDbLine
 10
10504.90254154856
 20
7198.952483907898
 30
0.0
 11
10504.90254154856
 21
7198.952483907898
 31
0.0
  0
LINE
  5
18377
330
747D
100
AcDbEntity
  8
細線
  6
Continuous
 62
     5
100
AcDbLine
 10
10572.40250622967
 20
7217.952473986841
 30
0.0
 11
10572.40250622967
 21
7217.952473986841
 31
0.0
  0
LINE
  5
18378
330
747D
100
AcDbEntity
  8
細線
 48
50.0
100
AcDbLine
 10
9165.402510883257
 20
7185.552648163799
 30
0.0
 11
9165.402510883257
 21
7193.948798571439
 31
0.0
  0
LINE
  5
18379
330
747D
100
AcDbEntity
  8
細線
 48
50.0
100
AcDbLine
 10
9165.402510883257
 20
7193.948798571439
 30
0.0
 11
9151.402506229663
 21
7193.948798571435
 31
0.0
  0
LINE
  5
1837A
330
747D
100
AcDbEntity
  8
細線
 48
50.0
100
AcDbLine
 10
9916.402510883255
 20
7182.102648163798
 30
0.0
 11
9916.402510883255
 21
7186.9526481638
 31
0.0
  0
LINE
  5
1837B
330
747D
100
AcDbEntity
  8
細線
 48
50.0
100
AcDbLine
 10
9916.402510883255
 20
7186.9526481638
 30
0.0
 11
9931.402510883254
 21
7186.9526481638
 31
0.0
  0
LINE
  5
1837C
330
747D
100
AcDbEntity
  8
細線
 48
50.0
100
AcDbLine
 10
9931.402510883254
 20
7186.9526481638
 30
0.0
 11
9931.402510883259
 21
7193.952648163801
 31
0.0
  0
LINE
  5
1837D
330
747D
100
AcDbEntity
  8
細線
 48
50.0
100
AcDbLine
 10
9931.402510883259
 20
7193.952648163801
 30
0.0
 11
9946.402510883254
 21
7193.952648163801
 31
0.0
  0
LINE
  5
1837E
330
747D
100
AcDbEntity
  8
細線
 48
50.0
100
AcDbLine
 10
9946.402510883254
 20
7193.952648163801
 30
0.0
 11
9946.402510883254
 21
7164.952648163801
 31
0.0
  0
LINE
  5
1837F
330
747D
100
AcDbEntity
  8
細線
 48
50.0
100
AcDbLine
 10
9142.402506229664
 20
7164.94998250727
 30
0.0
 11
9356.402510883254
 21
7164.952665717514
 31
0.0
  0
LINE
  5
18380
330
747D
100
AcDbEntity
  8
細線
 48
50.0
100
AcDbLine
 10
9846.402510883255
 20
7164.952648163801
 30
0.0
 11
9946.402510883254
 21
7164.952648163801
 31
0.0
  0
LINE
  5
18381
330
747D
100
AcDbEntity
  8
細線
 48
50.0
100
AcDbLine
 10
9566.402510883255
 20
7164.952648163801
 30
0.0
 11
9636.402510883254
 21
7164.952648163801
 31
0.0
  0
LINE
  5
18382
330
747D
100
AcDbEntity
  8
細線
 48
50.0
100
AcDbLine
 10
9579.264475895783
 20
7164.952648163801
 30
0.0
 11
9585.019993478452
 21
7183.223499454294
 31
0.0
  0
LINE
  5
18383
330
747D
100
AcDbEntity
  8
細線
 48
50.0
100
AcDbLine
 10
9585.019993478452
 20
7183.223499454294
 30
0.0
 11
9595.948441958885
 21
7183.22349945429
 31
0.0
  0
ARC
  5
18384
330
747D
100
AcDbEntity
  8
細線
 48
50.0
100
AcDbCircle
 10
9595.948441958885
 20
7182.223499454291
 30
0.0
 40
1.0
100
AcDbArc
 50
24.62431835213048
 51
90.0
  0
ARC
  5
18385
330
747D
100
AcDbEntity
  8
細線
 48
50.0
100
AcDbCircle
 10
9606.857154073518
 20
7182.223499454291
 30
0.0
 40
1.0
100
AcDbArc
 50
90.0
 51
155.3756816478695
  0
ARC
  5
18386
330
747D
100
AcDbEntity
  8
細線
 48
50.0
100
AcDbCircle
 10
9601.4027980162
 20
7184.72349945429
 30
0.0
 40
5.0
100
AcDbArc
 50
204.6243183521304
 51
335.3756816478695
  0
LINE
  5
18387
330
747D
100
AcDbEntity
  8
細線
 48
50.0
100
AcDbLine
 10
9606.857154073518
 20
7183.22349945429
 30
0.0
 11
9617.785602553951
 21
7183.223499454294
 31
0.0
  0
LINE
  5
18388
330
747D
100
AcDbEntity
  8
細線
 48
50.0
100
AcDbLine
 10
9617.785602553951
 20
7183.223499454294
 30
0.0
 11
9623.54112013662
 21
7164.952648163801
 31
0.0
  0
LINE
  5
18389
330
747D
100
AcDbEntity
  8
細線
 48
50.0
100
AcDbLine
 10
9916.402510883255
 20
7185.552648163799
 30
0.0
 11
9165.402510883257
 21
7185.552648163799
 31
0.0
  0
LINE
  5
1838A
330
747D
100
AcDbEntity
  8
細線
 48
50.0
100
AcDbLine
 10
9776.402510883254
 20
7164.952648163801
 30
0.0
 11
9706.402510883254
 21
7164.952648163801
 31
0.0
  0
LINE
  5
1838B
330
747D
100
AcDbEntity
  8
細線
100
AcDbLine
 10
9496.402510883255
 20
7164.952648163801
 30
0.0
 11
9426.40251906867
 21
7164.952648163801
 31
0.0
  0
LINE
  5
1838C
330
747D
100
AcDbEntity
  8
細線
 48
50.0
100
AcDbLine
 10
10570.40250157608
 20
7219.552692021668
 30
0.0
 11
9935.402510883255
 21
7219.552692021664
 31
0.0
  0
LINE
  5
1838D
330
747D
100
AcDbEntity
  8
細線
 48
50.0
100
AcDbLine
 10
9935.402510883255
 20
7216.448842429307
 30
0.0
 11
9935.402510883255
 21
7220.948842429307
 31
0.0
  0
LINE
  5
1838E
330
747D
100
AcDbEntity
  8
細線
 48
50.0
100
AcDbLine
 10
9935.402510883255
 20
7220.948842429307
 30
0.0
 11
9920.402510883254
 21
7220.948842429307
 31
0.0
  0
LINE
  5
1838F
330
747D
100
AcDbEntity
  8
細線
 48
50.0
100
AcDbLine
 10
9920.402510883254
 20
7220.948842429307
 30
0.0
 11
9920.402510883254
 21
7227.948842429306
 31
0.0
  0
LINE
  5
18390
330
747D
100
AcDbEntity
  8
細線
 48
50.0
100
AcDbLine
 10
9920.402510883254
 20
7227.948842429306
 30
0.0
 11
9905.402510883257
 21
7227.948842429303
 31
0.0
  0
LINE
  5
18391
330
747D
100
AcDbEntity
  8
細線
 48
50.0
100
AcDbLine
 10
9905.402510883257
 20
7227.948842429303
 30
0.0
 11
9905.402510883257
 21
7190.348614326193
 31
0.0
  0
LINE
  5
18392
330
747D
100
AcDbEntity
  8
細線
 48
50.0
100
AcDbLine
 10
9905.402510883257
 20
7190.348614326193
 30
0.0
 11
9925.40251818443
 21
7190.348655875734
 31
0.0
  0
LINE
  5
18393
330
747D
100
AcDbEntity
  8
細線
 48
50.0
100
AcDbLine
 10
9925.402473315488
 20
7198.952117511542
 30
0.0
 11
9925.40251818443
 21
7190.348655875734
 31
0.0
  0
LINE
  5
18394
330
747D
100
AcDbEntity
  8
細線
 48
50.0
100
AcDbLine
 10
10570.40250157608
 20
7216.102692021667
 30
0.0
 11
10570.40250157608
 21
7220.952692021665
 31
0.0
  0
LINE
  5
18395
330
747D
100
AcDbEntity
  8
細線
 48
50.0
100
AcDbLine
 10
10570.40250157608
 20
7220.952692021665
 30
0.0
 11
10585.40250157607
 21
7220.952692021665
 31
0.0
  0
LINE
  5
18396
330
747D
100
AcDbEntity
  8
細線
 48
50.0
100
AcDbLine
 10
10585.40250157607
 20
7220.952692021665
 30
0.0
 11
10585.40251321005
 21
7227.952692021709
 31
0.0
  0
LINE
  5
18397
330
747D
100
AcDbEntity
  8
細線
 48
50.0
100
AcDbLine
 10
10585.40251321005
 20
7227.952692021709
 30
0.0
 11
10600.40251138058
 21
7227.952692021709
 31
0.0
  0
LINE
  5
18398
330
747D
100
AcDbEntity
  8
細線
 48
50.0
100
AcDbLine
 10
10600.40251138058
 20
7227.952692021709
 30
0.0
 11
10600.40250107876
 21
7198.952485849435
 31
0.0
  0
LINE
  5
18399
330
747D
100
AcDbEntity
  8
細線
 48
50.0
100
AcDbLine
 10
10287.90252870954
 20
7198.952494036801
 30
0.0
 11
10217.90278079196
 21
7198.952488599464
 31
0.0
  0
LINE
  5
1839A
330
747D
100
AcDbEntity
  8
細線
 48
50.0
100
AcDbLine
 10
9925.402473315488
 20
7198.952117511542
 30
0.0
 11
9936.635162670199
 21
7198.952300464689
 31
0.0
  0
ARC
  5
1839B
330
747D
100
AcDbEntity
  8
細線
 48
50.0
100
AcDbCircle
 10
9943.217454977535
 20
7197.752464378301
 30
0.0
 40
1.8
100
AcDbArc
 50
270.0006665777295
 51
345.0005554812987
  0
LINE
  5
1839C
330
747D
100
AcDbEntity
  8
細線
 48
50.0
100
AcDbLine
 10
9945.203888423613
 20
7198.21130483558
 30
0.0
 11
9944.956125981414
 21
7197.286606953475
 31
0.0
  0
LINE
  5
1839D
330
747D
100
AcDbEntity
  8
細線
 48
50.0
100
AcDbLine
 10
9943.217475918689
 20
7195.952464378422
 30
0.0
 11
9939.58754849992
 21
7195.952422147943
 31
0.0
  0
ARC
  5
1839E
330
747D
100
AcDbEntity
  8
細線
 48
50.0
100
AcDbCircle
 10
9939.587527558769
 20
7197.752422147821
 30
0.0
 40
1.8
100
AcDbArc
 50
195.0010443049394
 51
270.0006665777295
  0
LINE
  5
1839F
330
747D
100
AcDbEntity
  8
細線
 48
50.0
100
AcDbLine
 10
9937.60110006651
 20
7198.211137115386
 30
0.0
 11
9937.848869563023
 21
7197.286516176804
 31
0.0
  0
ARC
  5
183A0
330
747D
100
AcDbEntity
  8
細線
 48
50.0
100
AcDbCircle
 10
9936.635178957761
 20
7197.952300464824
 30
0.0
 40
1.0
100
AcDbArc
 50
15.00104430493943
 51
90.00093320877969
  0
LINE
  5
183A1
330
747D
100
AcDbEntity
  8
細線
 48
50.0
100
AcDbLine
 10
9946.169809778716
 20
7198.952495155094
 30
0.0
 11
9947.111569929621
 21
7198.952501728943
 31
0.0
  0
ARC
  5
183A2
330
747D
100
AcDbEntity
  8
細線
 48
50.0
100
AcDbCircle
 10
9946.169816759102
 20
7197.95249515512
 30
0.0
 40
1.0
100
AcDbArc
 50
90.0003999466794
 51
165.0005554812987
  0
LINE
  5
183A3
330
747D
100
AcDbEntity
  8
細線
 48
50.0
100
AcDbLine
 10
10497.90250157607
 20
7198.952485849435
 30
0.0
 11
10600.40250107876
 21
7198.952485849435
 31
0.0
  0
LINE
  5
183A4
330
747D
100
AcDbEntity
  8
細線
 48
50.0
100
AcDbLine
 10
10007.90253689496
 20
7198.952494036801
 30
0.0
 11
9946.802475668039
 21
7198.952501728943
 31
0.0
  0
LINE
  5
183A5
330
747D
100
AcDbEntity
  8
細線
 48
50.0
100
AcDbLine
 10
10427.90253689496
 20
7198.952530877884
 30
0.0
 11
10357.90252994057
 21
7198.952485855215
 31
0.0
  0
LINE
  5
183A6
330
747D
100
AcDbEntity
  8
細線
 48
50.0
100
AcDbLine
 10
10147.90250157606
 20
7198.952485849432
 30
0.0
 11
10077.90248428819
 21
7198.952485849439
 31
0.0
  0
ARC
  5
183A7
330
747D
100
AcDbEntity
  8
細線
 48
50.0
100
AcDbCircle
 10
10584.60250622967
 20
7232.152473986845
 30
0.0
 40
0.8
100
AcDbArc
 50
359.9997333689499
 51
89.99986668437072
  0
ARC
  5
183A8
330
747D
100
AcDbEntity
  8
細線
 48
50.0
100
AcDbCircle
 10
10592.20251305477
 20
7232.152485155463
 30
0.0
 40
0.8
100
AcDbArc
 50
90.00014387753465
 51
179.9997333689498
  0
LINE
  5
183A9
330
747D
100
AcDbEntity
  8
細線
 48
50.0
100
AcDbLine
 10
10584.60250809111
 20
7232.952473986845
 30
0.0
 11
10579.40250622966
 21
7232.952473986845
 31
0.0
  0
ARC
  5
183AA
330
747D
100
AcDbEntity
  8
細線
 48
50.0
100
AcDbCircle
 10
10586.10250622966
 20
7230.652473986845
 30
0.0
 40
0.7
100
AcDbArc
 50
180.0
 51
270.0
  0
ARC
  5
183AB
330
747D
100
AcDbEntity
  8
細線
 48
50.0
100
AcDbCircle
 10
10590.70250622967
 20
7230.652473986845
 30
0.0
 40
0.7
100
AcDbArc
 50
270.0
 51
0.0
  0
LINE
  5
183AC
330
747D
100
AcDbEntity
  8
細線
 48
50.0
100
AcDbLine
 10
10591.40250622966
 20
7230.652473986845
 30
0.0
 11
10591.40251305478
 21
7232.152488878333
 31
0.0
  0
LINE
  5
183AD
330
747D
100
AcDbEntity
  8
細線
 48
50.0
100
AcDbLine
 10
10586.10250622966
 20
7229.952473986845
 30
0.0
 11
10590.70250622967
 21
7229.952473986845
 31
0.0
  0
LINE
  5
183AE
330
747D
100
AcDbEntity
  8
細線
 48
50.0
100
AcDbLine
 10
10585.40250622966
 20
7232.152473986845
 30
0.0
 11
10585.40250622966
 21
7230.652473986845
 31
0.0
  0
LINE
  5
183AF
330
747D
100
AcDbEntity
  8
細線
 48
50.0
100
AcDbLine
 10
11211.00250622967
 20
7262.952473986844
 30
0.0
 11
10574.40250622966
 21
7262.952473986842
 31
0.0
  0
LINE
  5
183B0
330
747D
100
AcDbEntity
  8
細線
 48
50.0
100
AcDbLine
 10
11236.90250622966
 20
7257.952473986849
 30
0.0
 11
11221.00250622967
 21
7257.952473986844
 31
0.0
  0
LINE
  5
183B1
330
747D
100
AcDbEntity
  8
細線
 48
50.0
100
AcDbLine
 10
11221.00250622966
 20
7257.952473986844
 30
0.0
 11
11211.00250622967
 21
7262.952473986844
 31
0.0
  0
LINE
  5
183B2
330
747D
100
AcDbEntity
  8
細線
100
AcDbLine
 10
10821.90250622966
 20
7232.952473986845
 30
0.0
 11
10821.90250622966
 21
7262.252473986844
 31
0.0
  0
LINE
  5
183B3
330
747D
100
AcDbEntity
  8
細線
100
AcDbLine
 10
10821.90250622966
 20
7262.252473986844
 30
0.0
 11
10841.90250622966
 21
7262.252473986844
 31
0.0
  0
LINE
  5
183B4
330
747D
100
AcDbEntity
  8
細線
100
AcDbLine
 10
10841.90250622966
 20
7232.952473986845
 30
0.0
 11
10841.90250622966
 21
7262.252473986844
 31
0.0
  0
LINE
  5
183B5
330
747D
100
AcDbEntity
  8
細線
100
AcDbLine
 10
11003.15250622966
 20
7232.952473986845
 30
0.0
 11
10933.15250622966
 21
7232.952473986845
 31
0.0
  0
LINE
  5
183B6
330
747D
100
AcDbEntity
  8
細線
 48
50.0
100
AcDbLine
 10
10723.15250622966
 20
7232.952473986845
 30
0.0
 11
10592.1982858025
 21
7232.952473986845
 31
0.0
  0
LINE
  5
183B7
330
747D
100
AcDbEntity
  8
細線
100
AcDbLine
 10
10863.15250622966
 20
7232.952473986845
 30
0.0
 11
10793.15250622966
 21
7232.952473986845
 31
0.0
  0
LINE
  5
183B8
330
747D
100
AcDbEntity
  8
細線
 48
50.0
100
AcDbLine
 10
10579.40250622966
 20
7224.952473986845
 30
0.0
 11
10579.40250622966
 21
7232.952473986845
 31
0.0
  0
LINE
  5
183B9
330
747D
100
AcDbEntity
  8
細線
 48
50.0
100
AcDbLine
 10
10559.40250622966
 20
7224.952473986849
 30
0.0
 11
10579.40250622966
 21
7224.952473986845
 31
0.0
  0
LINE
  5
183BA
330
747D
100
AcDbEntity
  8
細線
 48
50.0
100
AcDbLine
 10
10574.40250622966
 20
7262.952473986844
 30
0.0
 11
10574.40250622966
 21
7257.952473986844
 31
0.0
  0
LINE
  5
183BB
330
747D
100
AcDbEntity
  8
細線
 48
50.0
100
AcDbLine
 10
10559.40250622966
 20
7262.952473986842
 30
0.0
 11
10574.40250622966
 21
7262.952473986844
 31
0.0
  0
LINE
  5
183BC
330
747D
100
AcDbEntity
  8
細線
 48
50.0
100
AcDbLine
 10
10559.40250622966
 20
7224.952473986849
 30
0.0
 11
10559.40250622966
 21
7262.952473986842
 31
0.0
  0
LINE
  5
183BD
330
747D
100
AcDbEntity
  8
細線
100
AcDbLine
 10
11227.40250622966
 20
7232.952473986845
 30
0.0
 11
11073.15250622966
 21
7232.952473986845
 31
0.0
  0
LINE
  5
183BE
330
747D
100
AcDbEntity
  8
細線
 48
50.0
100
AcDbLine
 10
11236.90250622966
 20
7257.952473986849
 30
0.0
 11
11236.90250622966
 21
7232.952473986845
 31
0.0
  0
DIMENSION
  5
185F5
330
747D
100
AcDbEntity
  8
寸法
 48
50.0
100
AcDbDimension
  2
*D31
 10
11266.40250622966
 20
6222.097104597383
 30
0.0
 11
10191.20247750011
 21
6222.097104597383
 31
0.0
 70
   160
 71
     5
 42
2154.0
  3
INABA_S40G
100
AcDbAlignedDimension
 13
9112.402506229663
 23
7159.952473986708
 33
0.0
 14
11266.40250622966
 24
7159.952473986708
 34
0.0
100
AcDbRotatedDimension
1001
ACAD
1000
DSTYLE
1002
{
1070
   341
1005
0
1002
}
  0
DIMENSION
  5
185F6
330
747D
100
AcDbEntity
  8
寸法
100
AcDbDimension
  2
*D32
 10
8369.791260602973
 20
7161.952473986706
 30
0.0
 11
8369.791260602971
 21
7021.467192612468
 31
0.0
 70
   160
 71
     5
 42
75.0
  3
INABA_S40
100
AcDbAlignedDimension
 13
8664.40250622969
 23
7236.952473986706
 33
0.0
 14
9112.402506229663
 24
7161.952473986706
 34
0.0
 50
90.0
100
AcDbRotatedDimension
1001
ACAD
1000
DSTYLE
1002
{
1070
    41
1040
0.5
1070
    44
1040
1.0
1070
   147
1040
0.8
1070
   271
1070
     2
1070
   272
1070
     2
1070
   289
1070
     3
1070
   340
1005
F706
1070
   343
1005
171F9
1070
   344
1005
171F9
1002
}
  0
DIMENSION
  5
186F6
330
747D
100
AcDbEntity
  8
寸法
100
AcDbDimension
  2
*D33
 10
11294.40250622967
 20
5955.755516705704
 30
0.0
 11
9963.841850932212
 21
5955.755516705704
 31
0.0
 70
   160
 71
     5
 42
2629.999999999982
  3
INABA_S40G
100
AcDbAlignedDimension
 13
8664.40250622969
 23
7236.952473986673
 33
0.0
 14
11294.40250622967
 24
7236.952473986838
 34
0.0
100
AcDbRotatedDimension
1001
ACAD
1000
DSTYLE
1002
{
1002
}
  0
LINE
  5
186FD
330
747D
100
AcDbEntity
  8
部品1
100
AcDbLine
 10
10361.1378393439
 20
5786.402056818747
 30
0.0
 11
9597.667173115468
 21
5786.402056818747
 31
0.0
  0
LINE
  5
186FE
330
747D
100
AcDbEntity
  8
部品1
100
AcDbLine
 10
10361.1378393439
 20
5546.509735273215
 30
0.0
 11
10361.1378393439
 21
5786.402056818747
 31
0.0
  0
LINE
  5
186FF
330
747D
100
AcDbEntity
  8
部品1
100
AcDbLine
 10
9597.667173115468
 20
5546.509735273215
 30
0.0
 11
10361.1378393439
 21
5546.509735273215
 31
0.0
  0
LINE
  5
18700
330
747D
100
AcDbEntity
  8
部品1
100
AcDbLine
 10
9597.667173115468
 20
5786.402056818747
 30
0.0
 11
9597.667173115468
 21
5546.509735273215
 31
0.0
  0
TEXT
  5
18701
330
747D
100
AcDbEntity
  8
部品1
100
AcDbText
 10
9687.586782944507
 20
5593.508527600224
 30
0.0
 40
135.0
  1
平面図
  7
STYLE2
100
AcDbText
  0
LWPOLYLINE
  5
1891B
330
747D
100
AcDbEntity
  8
部品1
 48
50.0
100
AcDbPolyline
 90
        4
 70
     1
 43
0.0
 10
9211.452506229688
 20
2954.475840550708
 10
9214.352506229689
 20
2954.475840550708
 10
9214.352506229689
 20
2963.975840550708
 10
9211.452506229688
 20
2963.975840550708
  0
CIRCLE
  5
1891C
330
747D
100
AcDbEntity
  8
部品1
 48
50.0
100
AcDbCircle
 10
9212.902506229687
 20
2959.225840550708
 30
0.0
 40
9.0
  0
ARC
  5
1891D
330
747D
100
AcDbEntity
  8
細線
 48
50.0
100
AcDbCircle
 10
9212.902506229687
 20
2959.225840550708
 30
0.0
 40
4.0
100
AcDbArc
 50
111.2538091853132
 51
248.7461908146868
  0
ARC
  5
1891E
330
747D
100
AcDbEntity
  8
細線
 48
50.0
100
AcDbCircle
 10
9212.902506229687
 20
2959.225840550708
 30
0.0
 40
17.5
100
AcDbArc
 50
306.4837370612677
 51
233.5162629387323
  0
LINE
  5
1891F
330
747D
100
AcDbEntity
  8
細線
 48
50.0
100
AcDbLine
 10
9222.902506229685
 20
2935.366879969825
 30
0.0
 11
9222.902506229688
 21
2944.351365770066
 31
0.0
  0
LINE
  5
18920
330
747D
100
AcDbEntity
  8
細線
 48
50.0
100
AcDbLine
 10
9202.902506229689
 20
2935.366879969826
 30
0.0
 11
9202.902506229689
 21
2944.351365770062
 31
0.0
  0
ARC
  5
18921
330
747D
100
AcDbEntity
  8
細線
 48
50.0
100
AcDbCircle
 10
9212.902506229687
 20
2959.225840550708
 30
0.0
 40
26.5
100
AcDbArc
 50
249.3326835063939
 51
290.6673164933835
  0
ARC
  5
18922
330
747D
100
AcDbEntity
  8
細線
 48
50.0
100
AcDbCircle
 10
9221.90250622968
 20
2935.366879969825
 30
0.0
 40
1.0
100
AcDbArc
 50
290.6673164936062
 51
359.9999999998958
  0
ARC
  5
18923
330
747D
100
AcDbEntity
  8
細線
 48
50.0
100
AcDbCircle
 10
9203.902506229688
 20
2935.366879969826
 30
0.0
 40
1.0
100
AcDbArc
 50
180.0
 51
249.3326835066164
  0
ARC
  5
18924
330
747D
100
AcDbEntity
  8
細線
 48
50.0
100
AcDbCircle
 10
9201.902506229687
 20
2944.351365770062
 30
0.0
 40
1.0
100
AcDbArc
 50
0.0
 51
53.51626293873231
  0
ARC
  5
18925
330
747D
100
AcDbEntity
  8
細線
 48
50.0
100
AcDbCircle
 10
9223.902506229691
 20
2944.351365770066
 30
0.0
 40
1.0
100
AcDbArc
 50
126.4837370615127
 51
180.0
  0
ARC
  5
18926
330
747D
100
AcDbEntity
  8
細線
 48
50.0
100
AcDbCircle
 10
9212.902506229687
 20
2959.225840550708
 30
0.0
 40
21.5
100
AcDbArc
 50
255.8014401250294
 51
284.1985598749706
  0
ARC
  5
18927
330
747D
100
AcDbEntity
  8
細線
 48
50.0
100
AcDbCircle
 10
9212.902506229687
 20
2959.225840550708
 30
0.0
 40
16.5
100
AcDbArc
 50
251.9694646069326
 51
288.0305353930674
  0
LINE
  5
18928
330
747D
100
AcDbEntity
  8
細線
 48
50.0
100
AcDbLine
 10
9218.402506229688
 20
2938.673468424901
 30
0.0
 11
9218.402506229688
 21
2943.250860112237
 31
0.0
  0
LINE
  5
18929
330
747D
100
AcDbEntity
  8
細線
 48
50.0
100
AcDbLine
 10
9207.402506229689
 20
2938.673468424901
 30
0.0
 11
9207.402506229689
 21
2943.250860112236
 31
0.0
  0
ARC
  5
1892A
330
747D
100
AcDbEntity
  8
細線
 48
50.0
100
AcDbCircle
 10
9207.702506229692
 20
2943.250860112236
 30
0.0
 40
0.3
100
AcDbArc
 50
71.96946460693259
 51
180.0
  0
ARC
  5
1892B
330
747D
100
AcDbEntity
  8
細線
 48
50.0
100
AcDbCircle
 10
9218.102506229689
 20
2943.250860112237
 30
0.0
 40
0.3
100
AcDbArc
 50
0.0
 51
108.0305353930674
  0
ARC
  5
1892C
330
747D
100
AcDbEntity
  8
細線
 48
50.0
100
AcDbCircle
 10
9218.102506229685
 20
2938.673468424901
 30
0.0
 40
0.3
100
AcDbArc
 50
284.1985598747622
 51
0.0000000001042204
  0
ARC
  5
1892D
330
747D
100
AcDbEntity
  8
細線
 48
50.0
100
AcDbCircle
 10
9207.702506229692
 20
2938.673468424901
 30
0.0
 40
0.3
100
AcDbArc
 50
180.0
 51
255.8014401248081
  0
CIRCLE
  5
1892E
330
747D
100
AcDbEntity
  8
細線
 48
50.0
100
AcDbCircle
 10
9212.902506229687
 20
2959.225840550708
 30
0.0
 40
12.0
  0
ARC
  5
1892F
330
747D
100
AcDbEntity
  8
部品1
 48
50.0
100
AcDbCircle
 10
9212.902506229687
 20
3009.225840550707
 30
0.0
 40
8.5
100
AcDbArc
 50
114.315739171091
 51
245.684260828909
  0
CIRCLE
  5
18930
330
747D
100
AcDbEntity
  8
細線
 48
50.0
100
AcDbCircle
 10
9212.902506229687
 20
3009.225840550707
 30
0.0
 40
4.5
  0
LWPOLYLINE
  5
18931
330
747D
100
AcDbEntity
  8
部品1
 48
50.0
100
AcDbPolyline
 90
        2
 70
     0
 43
0.0
 10
9209.402506229688
 20
3027.90068994769
 10
9209.402506229688
 20
3016.971807243122
  0
CIRCLE
  5
18932
330
747D
100
AcDbEntity
  8
部品1
 48
50.0
100
AcDbCircle
 10
9212.902506229687
 20
3009.225840550707
 30
0.0
 40
19.0
  0
LWPOLYLINE
  5
18933
330
747D
100
AcDbEntity
  8
部品1
 48
50.0
100
AcDbPolyline
 90
        2
 70
     0
 43
0.0
 10
9209.402506229688
 20
3001.479873858292
 10
9209.402506229688
 20
2990.550991153725
  0
LWPOLYLINE
  5
18934
330
747D
100
AcDbEntity
  8
部品1
 48
50.0
100
AcDbPolyline
 90
        2
 70
     0
 43
0.0
 10
9216.402506229689
 20
3016.971807243122
 10
9216.402506229689
 20
3027.90068994769
  0
ARC
  5
18935
330
747D
100
AcDbEntity
  8
部品1
 48
50.0
100
AcDbCircle
 10
9212.902506229687
 20
3009.225840550707
 30
0.0
 40
8.5
100
AcDbArc
 50
294.315739171091
 51
65.68426082890896
  0
LWPOLYLINE
  5
18936
330
747D
100
AcDbEntity
  8
部品1
 48
50.0
100
AcDbPolyline
 90
        2
 70
     0
 43
0.0
 10
9216.402506229689
 20
2990.550991153725
 10
9216.402506229689
 20
3001.479873858292
  0
ARC
  5
18937
330
747D
100
AcDbEntity
  8
細線
 48
50.0
100
AcDbCircle
 10
9212.902506229687
 20
3009.225840550707
 30
0.0
 40
16.5
100
AcDbArc
 50
332.0012352654438
 51
27.99876473455621
  0
ARC
  5
18938
330
747D
100
AcDbEntity
  8
細線
 48
50.0
100
AcDbCircle
 10
9212.902506229687
 20
3009.225840550707
 30
0.0
 40
14.0
100
AcDbArc
 50
326.4074436112986
 51
33.59255638870134
  0
LINE
  5
18939
330
747D
100
AcDbEntity
  8
細線
 48
50.0
100
AcDbLine
 10
9198.333703945356
 20
3016.971807243122
 30
0.0
 11
9201.24060244
 21
3016.971807243122
 31
0.0
  0
LINE
  5
1893A
330
747D
100
AcDbEntity
  8
細線
 48
50.0
100
AcDbLine
 10
9198.333703945356
 20
3001.479873858292
 30
0.0
 11
9201.24060244
 21
3001.479873858292
 31
0.0
  0
LINE
  5
1893B
330
747D
100
AcDbEntity
  8
細線
 48
50.0
100
AcDbLine
 10
9224.564410019377
 20
3016.971807243122
 30
0.0
 11
9227.471308514024
 21
3016.971807243122
 31
0.0
  0
LINE
  5
1893C
330
747D
100
AcDbEntity
  8
細線
 48
50.0
100
AcDbLine
 10
9224.564410019377
 20
3001.479873858292
 30
0.0
 11
9227.471308514024
 21
3001.479873858292
 31
0.0
  0
ARC
  5
1893D
330
747D
100
AcDbEntity
  8
細線
 48
50.0
100
AcDbCircle
 10
9212.902506229687
 20
3009.225840550707
 30
0.0
 40
14.0
100
AcDbArc
 50
146.4074436112986
 51
213.5925563887013
  0
ARC
  5
1893E
330
747D
100
AcDbEntity
  8
細線
 48
50.0
100
AcDbCircle
 10
9212.902506229687
 20
3009.225840550707
 30
0.0
 40
16.5
100
AcDbArc
 50
152.0012352654438
 51
207.9987647345562
  0
ARC
  5
1893F
330
747D
100
AcDbEntity
  8
部品1
 48
50.0
100
AcDbCircle
 10
9186.402506229688
 20
3034.725840550708
 30
0.0
 40
5.0
100
AcDbArc
 50
90.0
 51
180.0
  0
ARC
  5
18940
330
747D
100
AcDbEntity
  8
部品1
 48
50.0
100
AcDbCircle
 10
9186.402506229688
 20
2923.725840550707
 30
0.0
 40
5.0
100
AcDbArc
 50
180.0
 51
270.0
  0
ARC
  5
18941
330
747D
100
AcDbEntity
  8
部品1
 48
50.0
100
AcDbCircle
 10
9239.402506229687
 20
2923.725840550707
 30
0.0
 40
5.0
100
AcDbArc
 50
270.0
 51
0.0
  0
ARC
  5
18942
330
747D
100
AcDbEntity
  8
部品1
 48
50.0
100
AcDbCircle
 10
9239.402506229687
 20
3034.725840550708
 30
0.0
 40
5.0
100
AcDbArc
 50
0.0
 51
90.0
  0
LINE
  5
18944
330
747D
100
AcDbEntity
  8
部品1
 48
50.0
100
AcDbLine
 10
9181.402506229687
 20
2923.725840550707
 30
0.0
 11
9181.402506229687
 21
3034.725840550708
 31
0.0
  0
LINE
  5
18945
330
747D
100
AcDbEntity
  8
部品1
 48
50.0
100
AcDbLine
 10
9239.402506229687
 20
2918.725840550708
 30
0.0
 11
9186.402506229688
 21
2918.725840550708
 31
0.0
  0
LINE
  5
18946
330
747D
100
AcDbEntity
  8
部品1
 48
50.0
100
AcDbLine
 10
9244.402506229688
 20
3034.725840550708
 30
0.0
 11
9244.402506229688
 21
2923.725840550707
 31
0.0
  0
ENDSEC
  0
SECTION
  2
OBJECTS
  0
DICTIONARY
  5
7471
330
0
100
AcDbDictionary
281
     1
  3
ACAD_COLOR
350
171EE
  3
ACAD_GROUP
350
7472
  3
ACAD_LAYOUT
350
171EF
  3
ACAD_MATERIAL
350
171ED
  3
ACAD_MLINESTYLE
350
7473
  3
ACAD_PLOTSETTINGS
350
171F0
  3
ACAD_PLOTSTYLENAME
350
171EB
  3
ACDBHEADERROUNDTRIPXREC
350
18965
  3
AcDbVariableDictionary
350
18961
  3
CONTENTDICTIONARY
350
E71C
  3
DRAWINGVARIABLESDICT
350
F3B9
  0
DICTIONARY
  5
17388
330
7467
100
AcDbDictionary
280
     1
281
     1
  3
ACAD_LAYERSTATES
360
17389
  0
DICTIONARY
  5
171EE
102
{ACAD_REACTORS
330
7471
102
}
330
7471
100
AcDbDictionary
281
     1
  0
DICTIONARY
  5
7472
102
{ACAD_REACTORS
330
7471
102
}
330
7471
100
AcDbDictionary
281
     1
  0
DICTIONARY
  5
171EF
102
{ACAD_REACTORS
330
7471
102
}
330
7471
100
AcDbDictionary
281
     1
  3
Model
350
171F1
  3
レイアウト1
350
171F2
  0
DICTIONARY
  5
171ED
102
{ACAD_REACTORS
330
7471
102
}
330
7471
100
AcDbDictionary
281
     1
  0
DICTIONARY
  5
7473
102
{ACAD_REACTORS
330
7471
102
}
330
7471
100
AcDbDictionary
281
     1
  3
STANDARD
350
7480
  0
DICTIONARY
  5
171F0
102
{ACAD_REACTORS
330
7471
102
}
330
7471
100
AcDbDictionary
281
     1
  0
ACDBDICTIONARYWDFLT
  5
171EB
102
{ACAD_REACTORS
330
7471
102
}
330
7471
100
AcDbDictionary
281
     1
  3
Normal
350
171EC
100
AcDbDictionaryWithDefault
340
171EC
  0
DICTIONARY
  5
18965
102
{ACAD_REACTORS
330
7471
102
}
330
7471
100
AcDbDictionary
281
     1
  3
COLORDICT
350
18967
  3
MATERIALDICT
350
18966
  0
DICTIONARY
  5
18961
102
{ACAD_REACTORS
330
7471
102
}
330
7471
100
AcDbDictionary
281
     1
  3
DIMASSOC
350
18962
  3
PROJECTNAME
350
18963
  0
DICTIONARY
  5
E71C
102
{ACAD_REACTORS
330
7471
102
}
330
7471
100
AcDbDictionary
281
     1
  0
DICTIONARY
  5
F3B9
102
{ACAD_REACTORS
330
7471
102
}
330
7471
100
AcDbDictionary
281
     1
1001
DRAWINGVARIABLESXDATA
1000
POLARMODE
1000
1
  0
DICTIONARY
  5
17389
102
{ACAD_REACTORS
330
17388
102
}
330
17388
100
AcDbDictionary
281
     1
  0
LAYOUT
  5
171F1
102
{ACAD_XDICTIONARY
360
18968
102
}
102
{ACAD_REACTORS
330
171EF
102
}
330
171EF
100
AcDbPlotSettings
  1

  2
クセロPDF
  4
A3
  6

 40
3.174999952316284
 41
3.174999952316284
 42
3.17498779296875
 43
3.17498779296875
 44
419.9466552734374
 45
296.9259948730469
 46
0.0
 47
0.0
 48
3.619013395666115
 49
-4.192117100517862
140
820.022926294543
141
573.2392198881443
142
1.0
143
39.99735023620806
 70
 11952
 72
     1
 73
     0
 74
     2
  7
inaba.ctb
 75
     0
147
0.0250016562120842
148
25.79074261211281
149
125.8223078213959
100
AcDbLayout
  1
Model
 70
     1
 71
     0
 10
0.0
 20
0.0
 11
12.0
 21
9.0
 12
0.0
 22
0.0
 32
0.0
 14
0.0
 24
0.0
 34
0.0
 15
0.0
 25
0.0
 35
0.0
146
0.0
 13
0.0
 23
0.0
 33
0.0
 16
1.0
 26
0.0
 36
0.0
 17
0.0
 27
1.0
 37
0.0
 76
     0
330
747D
  0
LAYOUT
  5
171F2
102
{ACAD_XDICTIONARY
360
1896A
102
}
102
{ACAD_REACTORS
330
171EF
102
}
330
171EF
100
AcDbPlotSettings
  1

  2
Microsoft Office Document Image Writer
  4

  6

 40
0.0
 41
0.0
 42
0.0
 43
0.0
 44
0.0
 45
0.0
 46
0.0
 47
0.0
 48
0.0
 49
0.0
140
0.0
141
0.0
142
1.0
143
1.0
 70
   688
 72
     0
 73
     0
 74
     5
  7

 75
    16
147
1.0
148
0.0
149
0.0
100
AcDbLayout
  1
レイアウト1
 70
     0
 71
     1
 10
0.0
 20
0.0
 11
420.0
 21
297.0
 12
0.0
 22
0.0
 32
0.0
 14
1.000000000000000E+20
 24
1.000000000000000E+20
 34
1.000000000000000E+20
 15
-1.000000000000000E+20
 25
-1.000000000000000E+20
 35
-1.000000000000000E+20
146
0.0
 13
0.0
 23
0.0
 33
0.0
 16
1.0
 26
0.0
 36
0.0
 17
0.0
 27
1.0
 37
0.0
 76
     0
330
747A
  0
MLINESTYLE
  5
7480
102
{ACAD_REACTORS
330
7473
102
}
330
7473
100
AcDbMlineStyle
  2
STANDARD
 70
     0
  3

 62
     0
 51
90.0
 52
90.0
 71
     2
 49
0.5
 62
   256
  6
BYLAYER
 49
-0.5
 62
   256
  6
BYLAYER
  0
ACDBPLACEHOLDER
  5
171EC
102
{ACAD_REACTORS
330
171EB
102
}
330
171EB
  0
XRECORD
  5
18967
102
{ACAD_REACTORS
330
18965
102
}
330
18965
100
AcDbXrecord
280
     1
340
171EE
  0
XRECORD
  5
18966
102
{ACAD_REACTORS
330
18965
102
}
330
18965
100
AcDbXrecord
280
     1
340
171ED
  0
DICTIONARYVAR
  5
18962
102
{ACAD_REACTORS
330
18961
102
}
330
18961
100
DictionaryVariables
280
     0
  1
1
  0
DICTIONARYVAR
  5
18963
102
{ACAD_REACTORS
330
18961
102
}
330
18961
100
DictionaryVariables
280
     0
  1

  0
DICTIONARY
  5
18968
330
171F1
100
AcDbDictionary
280
     1
281
     1
  3
ACAD_XREC_ROUNDTRIP
360
18969
  0
DICTIONARY
  5
1896A
330
171F2
100
AcDbDictionary
280
     1
281
     1
  3
ACAD_XREC_ROUNDTRIP
360
1896B
  0
XRECORD
  5
18969
102
{ACAD_REACTORS
330
18968
102
}
330
18968
100
AcDbXrecord
280
     1
102
SHADEPLOT
 70
     0
102
SHADEPLOTRESLEVEL
 70
     2
102
SHADEPLOTCUSTOMDPI
 70
   150
  0
XRECORD
  5
1896B
102
{ACAD_REACTORS
330
1896A
102
}
330
1896A
100
AcDbXrecord
280
     1
102
SHADEPLOT
 70
     0
102
SHADEPLOTRESLEVEL
 70
     2
102
SHADEPLOTCUSTOMDPI
 70
   300
  0
ENDSEC
  0
EOF
