  0
SECTION
  2
HEADER
  9
$ACADVER
  1
AC1015
  9
$ACADMAINTVER
 70
    20
  9
$DWGCODEPAGE
  3
ANSI_932
  9
$INSBASE
 10
0.0
 20
0.0
 30
0.0
  9
$EXTMIN
 10
139.9999999999995
 20
-0.0000000000000909
 30
0.0
  9
$EXTMAX
 10
16307.2
 20
11409.6
 30
0.0
  9
$LIMMIN
 10
-25.79074261211281
 20
-125.8223078213959
  9
$LIMMAX
 10
16471.10331197129
 20
11496.44801950658
  9
$ORTHOMODE
 70
     0
  9
$REGENMODE
 70
     1
  9
$FILLMODE
 70
     1
  9
$QTEXTMODE
 70
     0
  9
$MIRRTEXT
 70
     1
  9
$LTSCALE
 40
20.0
  9
$ATTMODE
 70
     1
  9
$TEXTSIZE
 40
4.0
  9
$TRACEWID
 40
1.0
  9
$TEXTSTYLE
  7
STYLE1
  9
$CLAYER
  8
部品1
  9
$CELTYPE
  6
BYLAYER
  9
$CECOLOR
 62
   256
  9
$CELTSCALE
 40
50.0
  9
$DISPSILH
 70
     0
  9
$DIMSCALE
 40
40.0
  9
$DIMASZ
 40
2.5
  9
$DIMEXO
 40
0.5
  9
$DIMDLI
 40
7.0
  9
$DIMRND
 40
0.0
  9
$DIMDLE
 40
0.0
  9
$DIMEXE
 40
1.5
  9
$DIMTP
 40
0.0
  9
$DIMTM
 40
0.0
  9
$DIMTXT
 40
3.0
  9
$DIMCEN
 40
0.0
  9
$DIMTSZ
 40
0.0
  9
$DIMTOL
 70
     0
  9
$DIMLIM
 70
     0
  9
$DIMTIH
 70
     0
  9
$DIMTOH
 70
     0
  9
$DIMSE1
 70
     0
  9
$DIMSE2
 70
     0
  9
$DIMTAD
 70
     3
  9
$DIMZIN
 70
     8
  9
$DIMBLK
  1

  9
$DIMASO
 70
     1
  9
$DIMSHO
 70
     1
  9
$DIMPOST
  1

  9
$DIMAPOST
  1

  9
$DIMALT
 70
     0
  9
$DIMALTD
 70
     2
  9
$DIMALTF
 40
0.0394
  9
$DIMLFAC
 40
1.0
  9
$DIMTOFL
 70
     1
  9
$DIMTVP
 40
0.0
  9
$DIMTIX
 70
     1
  9
$DIMSOXD
 70
     0
  9
$DIMSAH
 70
     1
  9
$DIMBLK1
  1
DOTSMALL
  9
$DIMBLK2
  1
DOTSMALL
  9
$DIMSTYLE
  2
INABA_S40G
  9
$DIMCLRD
 70
     0
  9
$DIMCLRE
 70
     0
  9
$DIMCLRT
 70
     7
  9
$DIMTFAC
 40
1.0
  9
$DIMGAP
 40
1.0
  9
$DIMJUST
 70
     0
  9
$DIMSD1
 70
     0
  9
$DIMSD2
 70
     0
  9
$DIMTOLJ
 70
     1
  9
$DIMTZIN
 70
     0
  9
$DIMALTZ
 70
     0
  9
$DIMALTTZ
 70
     0
  9
$DIMUPT
 70
     0
  9
$DIMDEC
 70
     1
  9
$DIMTDEC
 70
     4
  9
$DIMALTU
 70
     2
  9
$DIMALTTD
 70
     2
  9
$DIMTXSTY
  7
STYLE1
  9
$DIMAUNIT
 70
     0
  9
$DIMADEC
 70
     0
  9
$DIMALTRND
 40
0.0
  9
$DIMAZIN
 70
     0
  9
$DIMDSEP
 70
    46
  9
$DIMATFIT
 70
     3
  9
$DIMFRAC
 70
     0
  9
$DIMLDRBLK
  1

  9
$DIMLUNIT
 70
     2
  9
$DIMLWD
 70
    -2
  9
$DIMLWE
 70
    -2
  9
$DIMTMOVE
 70
     0
  9
$LUNITS
 70
     2
  9
$LUPREC
 70
     1
  9
$SKETCHINC
 40
1.0
  9
$FILLETRAD
 40
3.0
  9
$AUNITS
 70
     0
  9
$AUPREC
 70
     0
  9
$MENU
  1
acad
  9
$ELEVATION
 40
0.0
  9
$PELEVATION
 40
0.0
  9
$THICKNESS
 40
0.0
  9
$LIMCHECK
 70
     0
  9
$CHAMFERA
 40
0.0
  9
$CHAMFERB
 40
0.0
  9
$CHAMFERC
 40
0.0
  9
$CHAMFERD
 40
0.0
  9
$SKPOLY
 70
     0
  9
$TDCREATE
 40
2451368.612993866
  9
$TDUCREATE
 40
2451368.237993866
  9
$TDUPDATE
 40
2455575.683202581
  9
$TDUUPDATE
 40
2455575.308202581
  9
$TDINDWG
 40
0.4937422454
  9
$TDUSRTIMER
 40
0.4937422454
  9
$USRTIMER
 70
     1
  9
$ANGBASE
 50
0.0
  9
$ANGDIR
 70
     0
  9
$PDMODE
 70
     3
  9
$PDSIZE
 40
2.0
  9
$PLINEWID
 40
0.0
  9
$SPLFRAME
 70
     0
  9
$SPLINETYPE
 70
     6
  9
$SPLINESEGS
 70
     8
  9
$HANDSEED
  5
1A159
  9
$SURFTAB1
 70
     6
  9
$SURFTAB2
 70
     6
  9
$SURFTYPE
 70
     6
  9
$SURFU
 70
     6
  9
$SURFV
 70
     6
  9
$UCSBASE
  2

  9
$UCSNAME
  2

  9
$UCSORG
 10
0.0
 20
0.0
 30
0.0
  9
$UCSXDIR
 10
1.0
 20
0.0
 30
0.0
  9
$UCSYDIR
 10
0.0
 20
1.0
 30
0.0
  9
$UCSORTHOREF
  2

  9
$UCSORTHOVIEW
 70
     0
  9
$UCSORGTOP
 10
0.0
 20
0.0
 30
0.0
  9
$UCSORGBOTTOM
 10
0.0
 20
0.0
 30
0.0
  9
$UCSORGLEFT
 10
0.0
 20
0.0
 30
0.0
  9
$UCSORGRIGHT
 10
0.0
 20
0.0
 30
0.0
  9
$UCSORGFRONT
 10
0.0
 20
0.0
 30
0.0
  9
$UCSORGBACK
 10
0.0
 20
0.0
 30
0.0
  9
$PUCSBASE
  2

  9
$PUCSNAME
  2

  9
$PUCSORG
 10
0.0
 20
0.0
 30
0.0
  9
$PUCSXDIR
 10
1.0
 20
0.0
 30
0.0
  9
$PUCSYDIR
 10
0.0
 20
1.0
 30
0.0
  9
$PUCSORTHOREF
  2

  9
$PUCSORTHOVIEW
 70
     0
  9
$PUCSORGTOP
 10
0.0
 20
0.0
 30
0.0
  9
$PUCSORGBOTTOM
 10
0.0
 20
0.0
 30
0.0
  9
$PUCSORGLEFT
 10
0.0
 20
0.0
 30
0.0
  9
$PUCSORGRIGHT
 10
0.0
 20
0.0
 30
0.0
  9
$PUCSORGFRONT
 10
0.0
 20
0.0
 30
0.0
  9
$PUCSORGBACK
 10
0.0
 20
0.0
 30
0.0
  9
$USERI1
 70
     0
  9
$USERI2
 70
     0
  9
$USERI3
 70
     0
  9
$USERI4
 70
     0
  9
$USERI5
 70
     0
  9
$USERR1
 40
0.0
  9
$USERR2
 40
0.0
  9
$USERR3
 40
0.0
  9
$USERR4
 40
0.0
  9
$USERR5
 40
0.0
  9
$WORLDVIEW
 70
     1
  9
$SHADEDGE
 70
     3
  9
$SHADEDIF
 70
    70
  9
$TILEMODE
 70
     1
  9
$MAXACTVP
 70
    16
  9
$PINSBASE
 10
0.0
 20
0.0
 30
0.0
  9
$PLIMCHECK
 70
     0
  9
$PEXTMIN
 10
1.000000000000000E+20
 20
1.000000000000000E+20
 30
1.000000000000000E+20
  9
$PEXTMAX
 10
-1.000000000000000E+20
 20
-1.000000000000000E+20
 30
-1.000000000000000E+20
  9
$PLIMMIN
 10
0.0
 20
0.0
  9
$PLIMMAX
 10
420.0
 20
297.0
  9
$UNITMODE
 70
     0
  9
$VISRETAIN
 70
     0
  9
$PLINEGEN
 70
     0
  9
$PSLTSCALE
 70
     0
  9
$TREEDEPTH
 70
  3020
  9
$CMLSTYLE
  2
STANDARD
  9
$CMLJUST
 70
     0
  9
$CMLSCALE
 40
1.0
  9
$PROXYGRAPHICS
 70
     1
  9
$MEASUREMENT
 70
     1
  9
$CELWEIGHT
370
    -1
  9
$ENDCAPS
280
     0
  9
$JOINSTYLE
280
     0
  9
$LWDISPLAY
290
     0
  9
$INSUNITS
 70
     0
  9
$HYPERLINKBASE
  1

  9
$STYLESHEET
  1
inaba.ctb
  9
$XEDIT
290
     1
  9
$CEPSNTYPE
380
     0
  9
$PSTYLEMODE
290
     1
  9
$FINGERPRINTGUID
  2
{708A53B4-B778-4DEE-B520-256BA7DE3C22}
  9
$VERSIONGUID
  2
{0D42D93B-F0CE-4A39-AD35-3E369F12F67F}
  9
$EXTNAMES
290
     1
  9
$PSVPSCALE
 40
0.0
  9
$OLESTARTUP
290
     0
  0
ENDSEC
  0
SECTION
  2
CLASSES
  0
CLASS
  1
ACDBDICTIONARYWDFLT
  2
AcDbDictionaryWithDefault
  3
ObjectDBX Classes
 90
        0
280
     0
281
     0
  0
CLASS
  1
DICTIONARYVAR
  2
AcDbDictionaryVar
  3
ObjectDBX Classes
 90
        0
280
     0
281
     0
  0
CLASS
  1
ACDBPLACEHOLDER
  2
AcDbPlaceHolder
  3
ObjectDBX Classes
 90
        0
280
     0
281
     0
  0
CLASS
  1
LAYOUT
  2
AcDbLayout
  3
ObjectDBX Classes
 90
        0
280
     0
281
     0
  0
ENDSEC
  0
SECTION
  2
TABLES
  0
TABLE
  2
VPORT
  5
746D
330
0
100
AcDbSymbolTable
 70
     2
  0
VPORT
  5
1A151
330
746D
100
AcDbSymbolTableRecord
100
AcDbViewportTableRecord
  2
*Active
 70
     0
 10
0.0
 20
0.0
 11
1.0
 21
1.0
 12
8223.761025238504
 22
5704.608037261908
 13
0.0
 23
0.0
 14
10.0
 24
10.0
 15
10.0
 25
10.0
 16
0.0
 26
0.0
 36
1.0
 17
0.0
 27
0.0
 37
0.0
 40
11495.08541324274
 41
1.525925925925925
 42
50.0
 43
0.0
 44
0.0
 50
0.0
 51
0.0
 71
     0
 72
     0
 73
     1
 74
     0
 75
     0
 76
     0
 77
     0
 78
     0
281
     0
 65
     1
110
0.0
120
0.0
130
0.0
111
1.0
121
0.0
131
0.0
112
0.0
122
1.0
132
0.0
 79
     0
146
0.0
  0
ENDTAB
  0
TABLE
  2
LTYPE
  5
746A
330
0
100
AcDbSymbolTable
 70
     4
  0
LTYPE
  5
7477
330
746A
100
AcDbSymbolTableRecord
100
AcDbLinetypeTableRecord
  2
BYBLOCK
 70
     0
  3

 72
    65
 73
     0
 40
0.0
  0
LTYPE
  5
7478
330
746A
100
AcDbSymbolTableRecord
100
AcDbLinetypeTableRecord
  2
BYLAYER
 70
     0
  3

 72
    65
 73
     0
 40
0.0
  0
LTYPE
  5
7479
330
746A
100
AcDbSymbolTableRecord
100
AcDbLinetypeTableRecord
  2
CONTINUOUS
 70
     0
  3
Solid line
 72
    65
 73
     0
 40
0.0
  0
LTYPE
  5
7816
330
746A
100
AcDbSymbolTableRecord
100
AcDbLinetypeTableRecord
  2
CENTER
 70
     0
  3
____ _ ____ _ ____ _ ____ _ ____ _ ____ _ ____ 
 72
    65
 73
     4
 40
2.0
 49
1.25
 74
     0
 49
-0.25
 74
     0
 49
0.25
 74
     0
 49
-0.25
 74
     0
  0
LTYPE
  5
781A
330
746A
100
AcDbSymbolTableRecord
100
AcDbLinetypeTableRecord
  2
HIDDEN
 70
     0
  3
__ __ __ __ __ __ __ __ __ __ __ __ __ __ __ __
 72
    65
 73
     2
 40
0.375
 49
0.25
 74
     0
 49
-0.125
 74
     0
  0
LTYPE
  5
781B
330
746A
100
AcDbSymbolTableRecord
100
AcDbLinetypeTableRecord
  2
PHANTOM
 70
     0
  3
______  __  __  ______  __  __  ______  __  __ 
 72
    65
 73
     6
 40
2.5
 49
1.25
 74
     0
 49
-0.25
 74
     0
 49
0.25
 74
     0
 49
-0.25
 74
     0
 49
0.25
 74
     0
 49
-0.25
 74
     0
  0
ENDTAB
  0
TABLE
  2
LAYER
  5
7467
102
{ACAD_XDICTIONARY
360
180C8
102
}
330
0
100
AcDbSymbolTable
 70
    12
  0
LAYER
  5
7474
330
7467
100
AcDbSymbolTableRecord
100
AcDbLayerTableRecord
  2
0
 70
     0
 62
     7
  6
CONTINUOUS
370
    -3
390
17F2C
  0
LAYER
  5
DEB2
330
7467
100
AcDbSymbolTableRecord
100
AcDbLayerTableRecord
  2
センター
 70
     0
 62
     3
  6
CENTER
370
    -3
390
17F2C
  0
LAYER
  5
DEB3
330
7467
100
AcDbSymbolTableRecord
100
AcDbLayerTableRecord
  2
寸法
 70
     0
 62
     4
  6
CONTINUOUS
370
    -3
390
17F2C
  0
LAYER
  5
DEB4
330
7467
100
AcDbSymbolTableRecord
100
AcDbLayerTableRecord
  2
部品1
 70
     0
 62
     7
  6
CONTINUOUS
370
    -3
390
17F2C
  0
LAYER
  5
DEB5
330
7467
100
AcDbSymbolTableRecord
100
AcDbLayerTableRecord
  2
補助
 70
     0
 62
    -1
  6
CONTINUOUS
370
    -3
390
17F2C
  0
LAYER
  5
DEB6
330
7467
100
AcDbSymbolTableRecord
100
AcDbLayerTableRecord
  2
文字
 70
     0
 62
     7
  6
CONTINUOUS
370
    -3
390
17F2C
  0
LAYER
  5
F255
330
7467
100
AcDbSymbolTableRecord
100
AcDbLayerTableRecord
  2
DEFPOINTS
 70
     0
 62
     7
  6
CONTINUOUS
290
     0
370
    -3
390
17F2C
  0
LAYER
  5
10B54
330
7467
100
AcDbSymbolTableRecord
100
AcDbLayerTableRecord
  2
仕様書枠
 70
     0
 62
   230
  6
CONTINUOUS
370
    -3
390
17F2C
  0
LAYER
  5
11729
330
7467
100
AcDbSymbolTableRecord
100
AcDbLayerTableRecord
  2
Ｇ．Ｌ
 70
     0
 62
    30
  6
CONTINUOUS
370
    -3
390
17F2C
  0
LAYER
  5
1173F
330
7467
100
AcDbSymbolTableRecord
100
AcDbLayerTableRecord
  2
細線
 70
     0
 62
     5
  6
CONTINUOUS
370
    -3
390
17F2C
  0
LAYER
  5
12CC4
330
7467
100
AcDbSymbolTableRecord
100
AcDbLayerTableRecord
  2
想像線
 70
     0
 62
     6
  6
PHANTOM
370
    -3
390
17F2C
  0
LAYER
  5
142E2
330
7467
100
AcDbSymbolTableRecord
100
AcDbLayerTableRecord
  2
破線
 70
     0
 62
     2
  6
HIDDEN
370
    -3
390
17F2C
  0
ENDTAB
  0
TABLE
  2
STYLE
  5
7468
330
0
100
AcDbSymbolTable
 70
     4
  0
STYLE
  5
7475
330
7468
100
AcDbSymbolTableRecord
100
AcDbTextStyleTableRecord
  2
STANDARD
 70
     0
 40
0.0
 41
1.0
 50
0.0
 71
     0
 42
4.0
  3
txt
  4
C:\AutoCAD LT\bigfont.shx
  0
STYLE
  5
F706
330
7468
100
AcDbSymbolTableRecord
100
AcDbTextStyleTableRecord
  2
STYLE1
 70
     0
 40
0.0
 41
1.0
 50
0.0
 71
     0
 42
4.0
  3
isocp.shx
  4
bigfont.shx
  0
STYLE
  5
103BF
330
7468
100
AcDbSymbolTableRecord
100
AcDbTextStyleTableRecord
  2
STYLE2
 70
     0
 40
0.0
 41
1.0
 50
0.0
 71
     0
 42
100.0
  3
MS PGothic.ttf
  4

1001
ACAD
1000
MS PGothic
1071
    32818
  0
STYLE
  5
19A33
330
7468
100
AcDbSymbolTableRecord
100
AcDbTextStyleTableRecord
  2
STYLE3
 70
     0
 40
0.0
 41
1.0
 50
0.0
 71
     0
 42
100.0
  3
DFPGothic-EB.ttf
  4

1001
ACAD
1000
DFPGothic-EB
1071
    32818
  0
ENDTAB
  0
TABLE
  2
VIEW
  5
746B
330
0
100
AcDbSymbolTable
 70
     0
  0
ENDTAB
  0
TABLE
  2
UCS
  5
746C
330
0
100
AcDbSymbolTable
 70
     0
  0
ENDTAB
  0
TABLE
  2
APPID
  5
746E
330
0
100
AcDbSymbolTable
 70
     6
  0
APPID
  5
7476
330
746E
100
AcDbSymbolTableRecord
100
AcDbRegAppTableRecord
  2
ACAD
 70
     0
  0
APPID
  5
DEA9
330
746E
100
AcDbSymbolTableRecord
100
AcDbRegAppTableRecord
  2
CONTENTBLOCKICON
 70
     0
  0
APPID
  5
DEAA
330
746E
100
AcDbSymbolTableRecord
100
AcDbRegAppTableRecord
  2
CONTENTBLOCKDESCRIPTION
 70
     0
  0
APPID
  5
E71D
330
746E
100
AcDbSymbolTableRecord
100
AcDbRegAppTableRecord
  2
CONTENTTABDATA
 70
     0
  0
APPID
  5
E71E
330
746E
100
AcDbSymbolTableRecord
100
AcDbRegAppTableRecord
  2
CONTENTCURRENTTAB
 70
     0
  0
APPID
  5
F3BA
330
746E
100
AcDbSymbolTableRecord
100
AcDbRegAppTableRecord
  2
DRAWINGVARIABLESXDATA
 70
     0
  0
ENDTAB
  0
TABLE
  2
DIMSTYLE
  5
746F
330
0
100
AcDbSymbolTable
 70
     5
100
AcDbDimStyleTable
 71
     0
  0
DIMSTYLE
105
7484
330
746F
100
AcDbSymbolTableRecord
100
AcDbDimStyleTableRecord
  2
JIS
 70
     0
 41
2.5
 42
1.0
 43
7.0
 44
1.0
 73
     0
 74
     0
 77
     1
 78
     8
140
2.5
141
0.0
143
0.0394
147
0.0
172
     1
174
     1
175
     1
340
7475
  0
DIMSTYLE
105
F71F
102
{ACAD_REACTORS
330
164B5
330
18657
330
18658
330
18659
330
186EA
330
18486
330
184AE
330
184AF
330
184C3
330
184C9
330
184EA
330
184EC
330
184F0
330
184F9
330
184FC
330
184FD
330
18F53
330
18F57
330
18F58
330
18F72
330
18F73
330
18F74
330
18F75
330
18F8A
330
18F98
330
18F99
330
18F9A
330
18F9B
330
19DDB
330
19EDD
102
}
330
746F
100
AcDbSymbolTableRecord
100
AcDbDimStyleTableRecord
  2
INABA_S40G
 70
     0
 40
40.0
 41
2.5
 42
0.5
 43
7.0
 44
1.5
 73
     0
 74
     0
 77
     3
 78
     8
140
3.0
141
0.0
143
0.0394
147
1.0
172
     1
173
     1
174
     1
178
     7
271
     1
340
F706
341
F770
343
F770
344
F770
  0
DIMSTYLE
105
180C7
102
{ACAD_REACTORS
330
19B3F
330
19DDC
102
}
330
746F
100
AcDbSymbolTableRecord
100
AcDbDimStyleTableRecord
  2
INABA_S40
 70
     0
 40
40.0
 41
2.5
 42
0.5
 43
7.0
 44
1.5
 73
     0
 74
     0
 77
     3
 78
     8
140
3.0
141
0.0
143
0.0394
147
1.0
172
     1
173
     1
174
     1
175
     1
178
     7
340
7475
  0
DIMSTYLE
105
19A34
330
746F
100
AcDbSymbolTableRecord
100
AcDbDimStyleTableRecord
  2
INABA_S50G
 70
     0
 41
125.0
 42
25.0
 43
7.0
 44
75.0
 73
     0
 74
     0
 77
     3
 78
     8
140
150.0
141
0.0
143
0.0394
147
25.0
172
     1
173
     1
174
     1
175
     1
178
     7
271
     1
340
F706
341
F770
343
F770
344
F770
  0
DIMSTYLE
105
1A0D7
330
746F
100
AcDbSymbolTableRecord
100
AcDbDimStyleTableRecord
  2
INABA_S20G
 70
     0
 40
20.0
 41
2.5
 42
0.5
 43
7.0
 44
1.5
 73
     0
 74
     0
 77
     3
 78
     8
140
3.0
141
0.0
143
0.0394
147
1.0
172
     1
173
     1
174
     1
178
     7
271
     1
340
F706
341
F770
343
F770
344
F770
  0
ENDTAB
  0
TABLE
  2
BLOCK_RECORD
  5
7466
330
0
100
AcDbSymbolTable
 70
    34
  0
BLOCK_RECORD
  5
747D
330
7466
100
AcDbSymbolTableRecord
100
AcDbBlockTableRecord
  2
*MODEL_SPACE
340
17F31
  0
BLOCK_RECORD
  5
747A
330
7466
100
AcDbSymbolTableRecord
100
AcDbBlockTableRecord
  2
*PAPER_SPACE
340
17F32
  0
BLOCK_RECORD
  5
F770
330
7466
100
AcDbSymbolTableRecord
100
AcDbBlockTableRecord
  2
_DOTSMALL
340
0
102
{BLKREFS
331
198DB
331
198DC
331
198E4
331
198E5
331
198EF
331
198F0
331
198F8
331
198F9
331
19902
331
19903
331
1990B
331
1990C
331
19914
331
19915
331
1991E
331
1991F
331
19929
331
1992A
331
19933
331
19934
331
1993D
331
1993E
331
19945
331
19946
331
19950
331
19951
331
1995B
331
1995C
331
19964
331
19965
331
1996D
331
1996E
331
199F5
331
199F6
331
199FE
331
199FF
331
1A049
331
1A04A
331
1A05D
331
1A05E
331
1A071
331
1A072
331
1A07C
331
1A07D
331
1A085
331
1A086
331
1A090
331
1A091
331
1A099
331
1A09A
331
1A0A2
331
1A0A3
331
1A0AB
331
1A0AC
331
1A0B6
331
1A0B7
331
1A0BF
331
1A0C0
331
1A0C8
331
1A0C9
102
}
  0
BLOCK_RECORD
  5
165E0
330
7466
100
AcDbSymbolTableRecord
100
AcDbBlockTableRecord
  2
*D1
340
0
  0
BLOCK_RECORD
  5
17F39
330
7466
100
AcDbSymbolTableRecord
100
AcDbBlockTableRecord
  2
_DOT
340
0
102
{BLKREFS
331
1A054
331
1A055
331
1A066
331
1A067
102
}
  0
BLOCK_RECORD
  5
18732
330
7466
100
AcDbSymbolTableRecord
100
AcDbBlockTableRecord
  2
*D3
340
0
  0
BLOCK_RECORD
  5
1873E
330
7466
100
AcDbSymbolTableRecord
100
AcDbBlockTableRecord
  2
*D4
340
0
  0
BLOCK_RECORD
  5
1874A
330
7466
100
AcDbSymbolTableRecord
100
AcDbBlockTableRecord
  2
*D5
340
0
  0
BLOCK_RECORD
  5
18758
330
7466
100
AcDbSymbolTableRecord
100
AcDbBlockTableRecord
  2
*D6
340
0
  0
BLOCK_RECORD
  5
187FD
330
7466
100
AcDbSymbolTableRecord
100
AcDbBlockTableRecord
  2
*D7
340
0
  0
BLOCK_RECORD
  5
18815
330
7466
100
AcDbSymbolTableRecord
100
AcDbBlockTableRecord
  2
*D8
340
0
  0
BLOCK_RECORD
  5
18821
330
7466
100
AcDbSymbolTableRecord
100
AcDbBlockTableRecord
  2
*D9
340
0
  0
BLOCK_RECORD
  5
18839
330
7466
100
AcDbSymbolTableRecord
100
AcDbBlockTableRecord
  2
*D10
340
0
  0
BLOCK_RECORD
  5
18847
330
7466
100
AcDbSymbolTableRecord
100
AcDbBlockTableRecord
  2
*D11
340
0
  0
BLOCK_RECORD
  5
18853
330
7466
100
AcDbSymbolTableRecord
100
AcDbBlockTableRecord
  2
*D12
340
0
  0
BLOCK_RECORD
  5
1885F
330
7466
100
AcDbSymbolTableRecord
100
AcDbBlockTableRecord
  2
*D13
340
0
  0
BLOCK_RECORD
  5
1886B
330
7466
100
AcDbSymbolTableRecord
100
AcDbBlockTableRecord
  2
*D14
340
0
  0
BLOCK_RECORD
  5
18879
330
7466
100
AcDbSymbolTableRecord
100
AcDbBlockTableRecord
  2
*D15
340
0
  0
BLOCK_RECORD
  5
18885
330
7466
100
AcDbSymbolTableRecord
100
AcDbBlockTableRecord
  2
*D16
340
0
  0
BLOCK_RECORD
  5
18893
330
7466
100
AcDbSymbolTableRecord
100
AcDbBlockTableRecord
  2
*D17
340
0
  0
BLOCK_RECORD
  5
190F2
330
7466
100
AcDbSymbolTableRecord
100
AcDbBlockTableRecord
  2
*D18
340
0
  0
BLOCK_RECORD
  5
190FE
330
7466
100
AcDbSymbolTableRecord
100
AcDbBlockTableRecord
  2
*D19
340
0
  0
BLOCK_RECORD
  5
1910A
330
7466
100
AcDbSymbolTableRecord
100
AcDbBlockTableRecord
  2
*D20
340
0
  0
BLOCK_RECORD
  5
19117
330
7466
100
AcDbSymbolTableRecord
100
AcDbBlockTableRecord
  2
*D21
340
0
  0
BLOCK_RECORD
  5
19125
330
7466
100
AcDbSymbolTableRecord
100
AcDbBlockTableRecord
  2
*D22
340
0
  0
BLOCK_RECORD
  5
19132
330
7466
100
AcDbSymbolTableRecord
100
AcDbBlockTableRecord
  2
*D23
340
0
  0
BLOCK_RECORD
  5
1913E
330
7466
100
AcDbSymbolTableRecord
100
AcDbBlockTableRecord
  2
*D24
340
0
  0
BLOCK_RECORD
  5
1914A
330
7466
100
AcDbSymbolTableRecord
100
AcDbBlockTableRecord
  2
*D25
340
0
  0
BLOCK_RECORD
  5
19157
330
7466
100
AcDbSymbolTableRecord
100
AcDbBlockTableRecord
  2
*D26
340
0
  0
BLOCK_RECORD
  5
19163
330
7466
100
AcDbSymbolTableRecord
100
AcDbBlockTableRecord
  2
*D27
340
0
  0
BLOCK_RECORD
  5
19171
330
7466
100
AcDbSymbolTableRecord
100
AcDbBlockTableRecord
  2
*D28
340
0
  0
BLOCK_RECORD
  5
1917D
330
7466
100
AcDbSymbolTableRecord
100
AcDbBlockTableRecord
  2
*D29
340
0
  0
BLOCK_RECORD
  5
19BAA
330
7466
100
AcDbSymbolTableRecord
100
AcDbBlockTableRecord
  2
*D30
340
0
  0
BLOCK_RECORD
  5
19EEF
330
7466
100
AcDbSymbolTableRecord
100
AcDbBlockTableRecord
  2
*D31
340
0
  0
BLOCK_RECORD
  5
19EFB
330
7466
100
AcDbSymbolTableRecord
100
AcDbBlockTableRecord
  2
*D32
340
0
  0
BLOCK_RECORD
  5
19F7D
330
7466
100
AcDbSymbolTableRecord
100
AcDbBlockTableRecord
  2
*D33
340
0
  0
ENDTAB
  0
ENDSEC
  0
SECTION
  2
BLOCKS
  0
BLOCK
  5
7489
330
747D
100
AcDbEntity
  8
0
100
AcDbBlockBegin
  2
*MODEL_SPACE
 70
     0
 10
0.0
 20
0.0
 30
0.0
  3
*MODEL_SPACE
  1

  0
ENDBLK
  5
748A
330
747D
100
AcDbEntity
  8
0
100
AcDbBlockEnd
  0
BLOCK
  5
7487
330
747A
100
AcDbEntity
 67
     1
  8
0
100
AcDbBlockBegin
  2
*PAPER_SPACE
 70
     0
 10
0.0
 20
0.0
 30
0.0
  3
*PAPER_SPACE
  1

  0
ENDBLK
  5
7488
330
747A
100
AcDbEntity
 67
     1
  8
0
100
AcDbBlockEnd
  0
BLOCK
  5
F771
330
F770
100
AcDbEntity
  8
0
 48
50.0
100
AcDbBlockBegin
  2
_DOTSMALL
 70
     0
 10
0.0
 20
0.0
 30
0.0
  3
_DOTSMALL
  1

  0
LWPOLYLINE
  5
F772
330
F770
100
AcDbEntity
  8
0
  6
ByBlock
 62
     0
 48
50.0
100
AcDbPolyline
 90
        2
 70
     1
 43
0.5
 10
-0.0625
 20
0.0
 42
1.0
 10
0.0625
 20
0.0
 42
1.0
  0
ENDBLK
  5
F776
330
F770
100
AcDbEntity
  8
0
 48
50.0
100
AcDbBlockEnd
  0
BLOCK
  5
17126
330
165E0
100
AcDbEntity
  8
0
 48
50.0
100
AcDbBlockBegin
  2
*D1
 70
     1
 10
0.0
 20
0.0
 30
0.0
  3
*D1
  1

  0
LINE
  5
199FB
330
165E0
100
AcDbEntity
  8
寸法
 62
     0
 48
50.0
370
    -2
100
AcDbLine
 10
8471.136519119305
 20
2097.985280366385
 30
0.0
 11
8471.136519119305
 21
1771.937951066007
 31
0.0
  0
LINE
  5
199FC
330
165E0
100
AcDbEntity
  8
寸法
 62
     0
 48
50.0
370
    -2
100
AcDbLine
 10
8271.136519119304
 20
2097.985280366385
 30
0.0
 11
8271.136519119304
 21
1771.937951066007
 31
0.0
  0
LINE
  5
199FD
330
165E0
100
AcDbEntity
  8
寸法
 62
     0
 48
50.0
370
    -2
100
AcDbLine
 10
8471.136519119305
 20
1831.937951066007
 30
0.0
 11
8271.136519119304
 21
1831.937951066007
 31
0.0
  0
INSERT
  5
199FE
330
165E0
100
AcDbEntity
  8
寸法
 62
     0
 48
50.0
370
    -2
100
AcDbBlockReference
  2
_DOTSMALL
 10
8471.136519119305
 20
1831.937951066007
 30
0.0
 41
100.0
 42
100.0
 43
100.0
  0
INSERT
  5
199FF
330
165E0
100
AcDbEntity
  8
寸法
 62
     0
 48
50.0
370
    -2
100
AcDbBlockReference
  2
_DOTSMALL
 10
8271.136519119304
 20
1831.937951066007
 30
0.0
 41
100.0
 42
100.0
 43
100.0
 50
180.0
  0
MTEXT
  5
19A00
330
165E0
100
AcDbEntity
  8
寸法
 62
     7
 48
50.0
100
AcDbMText
 10
8371.136519119303
 20
1931.949762089629
 30
0.0
 40
120.0
 41
0.0
 71
     5
 72
     1
  1
\A1;200
  7
STYLE1
 73
     1
 44
1.0
1001
ACAD
1000
MTEXTBEGIN
1070
    73
1070
     1
1070
    44
1040
1.0
1070
    74
1070
     0
1000
MTEXTEND
  0
POINT
  5
19A01
330
165E0
100
AcDbEntity
  8
DEFPOINTS
 62
     0
 48
50.0
100
AcDbPoint
 10
8471.136519119305
 20
2117.985280366385
 30
0.0
  0
POINT
  5
19A02
330
165E0
100
AcDbEntity
  8
DEFPOINTS
 62
     0
 48
50.0
100
AcDbPoint
 10
8271.136519119304
 20
2117.985280366385
 30
0.0
  0
POINT
  5
19A03
330
165E0
100
AcDbEntity
  8
DEFPOINTS
 62
     0
 48
50.0
100
AcDbPoint
 10
8271.136519119304
 20
1831.937951066007
 30
0.0
  0
ENDBLK
  5
17130
330
165E0
100
AcDbEntity
  8
0
 48
50.0
100
AcDbBlockEnd
  0
BLOCK
  5
17F3A
330
17F39
100
AcDbEntity
  8
0
 48
50.0
100
AcDbBlockBegin
  2
_DOT
 70
     0
 10
0.0
 20
0.0
 30
0.0
  3
_DOT
  1

  0
LWPOLYLINE
  5
17F3B
330
17F39
100
AcDbEntity
  8
0
  6
ByBlock
 62
     0
 48
50.0
100
AcDbPolyline
 90
        2
 70
     1
 43
0.5
 10
-0.25
 20
0.0
 42
1.0
 10
0.25
 20
0.0
 42
1.0
  0
LINE
  5
17F3C
330
17F39
100
AcDbEntity
  8
0
  6
ByBlock
 62
     0
 48
50.0
100
AcDbLine
 10
-0.5
 20
0.0
 30
0.0
 11
-1.0
 21
0.0
 31
0.0
  0
ENDBLK
  5
17F3D
330
17F39
100
AcDbEntity
  8
0
 48
50.0
100
AcDbBlockEnd
  0
BLOCK
  5
1873C
330
18732
100
AcDbEntity
  8
0
 48
50.0
100
AcDbBlockBegin
  2
*D3
 70
     1
 10
0.0
 20
0.0
 30
0.0
  3
*D3
  1

  0
LINE
  5
1996A
330
18732
100
AcDbEntity
  8
寸法
 62
     0
 48
50.0
370
    -2
100
AcDbLine
 10
11431.1365191193
 20
4512.985280366391
 30
0.0
 11
11431.1365191193
 21
4952.078449705858
 31
0.0
  0
LINE
  5
1996B
330
18732
100
AcDbEntity
  8
寸法
 62
     0
 48
50.0
370
    -2
100
AcDbLine
 10
8381.136519119307
 20
4512.985280366391
 30
0.0
 11
8381.136519119307
 21
4952.078449705858
 31
0.0
  0
LINE
  5
1996C
330
18732
100
AcDbEntity
  8
寸法
 62
     0
 48
50.0
370
    -2
100
AcDbLine
 10
11431.1365191193
 20
4892.078449705858
 30
0.0
 11
8381.136519119307
 21
4892.078449705858
 31
0.0
  0
INSERT
  5
1996D
330
18732
100
AcDbEntity
  8
寸法
 62
     0
 48
50.0
370
    -2
100
AcDbBlockReference
  2
_DOTSMALL
 10
11431.1365191193
 20
4892.078449705858
 30
0.0
 41
100.0
 42
100.0
 43
100.0
  0
INSERT
  5
1996E
330
18732
100
AcDbEntity
  8
寸法
 62
     0
 48
50.0
370
    -2
100
AcDbBlockReference
  2
_DOTSMALL
 10
8381.136519119307
 20
4892.078449705858
 30
0.0
 41
100.0
 42
100.0
 43
100.0
 50
180.0
  0
MTEXT
  5
1996F
330
18732
100
AcDbEntity
  8
寸法
 62
     7
 48
50.0
100
AcDbMText
 10
9906.136519119304
 20
4992.078449705857
 30
0.0
 40
120.0
 41
0.0
 71
     5
 72
     1
  1
\A1;柱外寸法3050
  7
STYLE1
 73
     1
 44
1.0
1001
ACAD
1000
MTEXTBEGIN
1070
    73
1070
     1
1070
    44
1040
1.0
1070
    74
1070
     0
1000
MTEXTEND
  0
POINT
  5
19970
330
18732
100
AcDbEntity
  8
DEFPOINTS
 62
     0
 48
50.0
100
AcDbPoint
 10
11431.1365191193
 20
4492.98528036639
 30
0.0
  0
POINT
  5
19971
330
18732
100
AcDbEntity
  8
DEFPOINTS
 62
     0
 48
50.0
100
AcDbPoint
 10
8381.136519119307
 20
4492.985280366392
 30
0.0
  0
POINT
  5
19972
330
18732
100
AcDbEntity
  8
DEFPOINTS
 62
     0
 48
50.0
100
AcDbPoint
 10
8381.136519119307
 20
4892.078449705858
 30
0.0
  0
ENDBLK
  5
1873D
330
18732
100
AcDbEntity
  8
0
 48
50.0
100
AcDbBlockEnd
  0
BLOCK
  5
18748
330
1873E
100
AcDbEntity
  8
0
 48
50.0
100
AcDbBlockBegin
  2
*D4
 70
     1
 10
0.0
 20
0.0
 30
0.0
  3
*D4
  1

  0
LINE
  5
19961
330
1873E
100
AcDbEntity
  8
寸法
 62
     0
 48
50.0
370
    -2
100
AcDbLine
 10
8331.136519119306
 20
4512.985280366391
 30
0.0
 11
8331.136519119306
 21
5168.604549324303
 31
0.0
  0
LINE
  5
19962
330
1873E
100
AcDbEntity
  8
寸法
 62
     0
 48
50.0
370
    -2
100
AcDbLine
 10
11481.1365191193
 20
4512.985280366388
 30
0.0
 11
11481.1365191193
 21
5168.604549324303
 31
0.0
  0
LINE
  5
19963
330
1873E
100
AcDbEntity
  8
寸法
 62
     0
 48
50.0
370
    -2
100
AcDbLine
 10
8331.136519119306
 20
5108.604549324303
 30
0.0
 11
11481.1365191193
 21
5108.604549324303
 31
0.0
  0
INSERT
  5
19964
330
1873E
100
AcDbEntity
  8
寸法
 62
     0
 48
50.0
370
    -2
100
AcDbBlockReference
  2
_DOTSMALL
 10
8331.136519119306
 20
5108.604549324303
 30
0.0
 41
100.0
 42
100.0
 43
100.0
 50
180.0
  0
INSERT
  5
19965
330
1873E
100
AcDbEntity
  8
寸法
 62
     0
 48
50.0
370
    -2
100
AcDbBlockReference
  2
_DOTSMALL
 10
11481.1365191193
 20
5108.604549324303
 30
0.0
 41
100.0
 42
100.0
 43
100.0
  0
MTEXT
  5
19966
330
1873E
100
AcDbEntity
  8
寸法
 62
     7
 48
50.0
100
AcDbMText
 10
9906.136519119304
 20
5208.604549324303
 30
0.0
 40
120.0
 41
0.0
 71
     5
 72
     1
  1
\A1;3150
  7
STYLE1
 73
     1
 44
1.0
1001
ACAD
1000
MTEXTBEGIN
1070
    73
1070
     1
1070
    44
1040
1.0
1070
    74
1070
     0
1000
MTEXTEND
  0
POINT
  5
19967
330
1873E
100
AcDbEntity
  8
DEFPOINTS
 62
     0
 48
50.0
100
AcDbPoint
 10
8331.136519119306
 20
4492.98528036639
 30
0.0
  0
POINT
  5
19968
330
1873E
100
AcDbEntity
  8
DEFPOINTS
 62
     0
 48
50.0
100
AcDbPoint
 10
11481.1365191193
 20
4492.985280366388
 30
0.0
  0
POINT
  5
19969
330
1873E
100
AcDbEntity
  8
DEFPOINTS
 62
     0
 48
50.0
100
AcDbPoint
 10
11481.1365191193
 20
5108.604549324303
 30
0.0
  0
ENDBLK
  5
18749
330
1873E
100
AcDbEntity
  8
0
 48
50.0
100
AcDbBlockEnd
  0
BLOCK
  5
18756
330
1874A
100
AcDbEntity
  8
0
 48
50.0
100
AcDbBlockBegin
  2
*D5
 70
     1
 10
0.0
 20
0.0
 30
0.0
  3
*D5
  1

  0
LINE
  5
19956
330
1874A
100
AcDbEntity
  8
寸法
 62
     0
 48
50.0
370
    -2
100
AcDbLine
 10
8381.136519119307
 20
4512.985280366391
 30
0.0
 11
8381.136519119307
 21
4952.078449705858
 31
0.0
  0
LINE
  5
19957
330
1874A
100
AcDbEntity
  8
寸法
 62
     0
 48
50.0
370
    -2
100
AcDbLine
 10
8331.136519119306
 20
4512.985280366391
 30
0.0
 11
8331.136519119306
 21
4952.078449705858
 31
0.0
  0
LINE
  5
19958
330
1874A
100
AcDbEntity
  8
寸法
 62
     0
 48
50.0
370
    -2
100
AcDbLine
 10
8381.136519119307
 20
4892.078449705858
 30
0.0
 11
8481.136519119306
 21
4892.078449705858
 31
0.0
  0
LINE
  5
19959
330
1874A
100
AcDbEntity
  8
寸法
 62
     0
 48
50.0
370
    -2
100
AcDbLine
 10
8331.136519119306
 20
4892.078449705858
 30
0.0
 11
7911.60399365057
 21
4892.078449705858
 31
0.0
  0
LINE
  5
1995A
330
1874A
100
AcDbEntity
  8
寸法
 62
     0
 48
50.0
370
    -2
100
AcDbLine
 10
8381.136519119307
 20
4892.078449705858
 30
0.0
 11
8331.136519119306
 21
4892.078449705858
 31
0.0
  0
INSERT
  5
1995B
330
1874A
100
AcDbEntity
  8
寸法
 62
     0
 48
50.0
370
    -2
100
AcDbBlockReference
  2
_DOTSMALL
 10
8381.136519119307
 20
4892.078449705858
 30
0.0
 41
100.0
 42
100.0
 43
100.0
 50
180.0
  0
INSERT
  5
1995C
330
1874A
100
AcDbEntity
  8
寸法
 62
     0
 48
50.0
370
    -2
100
AcDbBlockReference
  2
_DOTSMALL
 10
8331.136519119306
 20
4892.078449705858
 30
0.0
 41
100.0
 42
100.0
 43
100.0
  0
MTEXT
  5
1995D
330
1874A
100
AcDbEntity
  8
寸法
 62
     7
 48
50.0
100
AcDbMText
 10
8017.651237745058
 20
4992.078449705858
 30
0.0
 40
120.0
 41
0.0
 71
     5
 72
     1
  1
\A1;50
  7
STYLE1
 73
     1
 44
1.0
1001
ACAD
1000
MTEXTBEGIN
1070
    73
1070
     1
1070
    44
1040
1.0
1070
    74
1070
     0
1000
MTEXTEND
  0
POINT
  5
1995E
330
1874A
100
AcDbEntity
  8
DEFPOINTS
 62
     0
 48
50.0
100
AcDbPoint
 10
8381.136519119307
 20
4492.985280366392
 30
0.0
  0
POINT
  5
1995F
330
1874A
100
AcDbEntity
  8
DEFPOINTS
 62
     0
 48
50.0
100
AcDbPoint
 10
8331.136519119306
 20
4492.98528036639
 30
0.0
  0
POINT
  5
19960
330
1874A
100
AcDbEntity
  8
DEFPOINTS
 62
     0
 48
50.0
100
AcDbPoint
 10
8331.136519119306
 20
4892.078449705858
 30
0.0
  0
ENDBLK
  5
18757
330
1874A
100
AcDbEntity
  8
0
 48
50.0
100
AcDbBlockEnd
  0
BLOCK
  5
18764
330
18758
100
AcDbEntity
  8
0
 48
50.0
100
AcDbBlockBegin
  2
*D6
 70
     1
 10
0.0
 20
0.0
 30
0.0
  3
*D6
  1

  0
LINE
  5
1994B
330
18758
100
AcDbEntity
  8
寸法
 62
     0
 48
50.0
370
    -2
100
AcDbLine
 10
11481.1365191193
 20
4512.985280366388
 30
0.0
 11
11481.1365191193
 21
4952.078449705858
 31
0.0
  0
LINE
  5
1994C
330
18758
100
AcDbEntity
  8
寸法
 62
     0
 48
50.0
370
    -2
100
AcDbLine
 10
11431.1365191193
 20
4512.985280366391
 30
0.0
 11
11431.1365191193
 21
4952.078449705858
 31
0.0
  0
LINE
  5
1994D
330
18758
100
AcDbEntity
  8
寸法
 62
     0
 48
50.0
370
    -2
100
AcDbLine
 10
11431.1365191193
 20
4892.078449705858
 30
0.0
 11
11331.1365191193
 21
4892.078449705858
 31
0.0
  0
LINE
  5
1994E
330
18758
100
AcDbEntity
  8
寸法
 62
     0
 48
50.0
370
    -2
100
AcDbLine
 10
11481.1365191193
 20
4892.078449705858
 30
0.0
 11
11900.66904458803
 21
4892.078449705858
 31
0.0
  0
LINE
  5
1994F
330
18758
100
AcDbEntity
  8
寸法
 62
     0
 48
50.0
370
    -2
100
AcDbLine
 10
11431.1365191193
 20
4892.078449705858
 30
0.0
 11
11481.1365191193
 21
4892.078449705858
 31
0.0
  0
INSERT
  5
19950
330
18758
100
AcDbEntity
  8
寸法
 62
     0
 48
50.0
370
    -2
100
AcDbBlockReference
  2
_DOTSMALL
 10
11431.1365191193
 20
4892.078449705858
 30
0.0
 41
100.0
 42
100.0
 43
100.0
  0
INSERT
  5
19951
330
18758
100
AcDbEntity
  8
寸法
 62
     0
 48
50.0
370
    -2
100
AcDbBlockReference
  2
_DOTSMALL
 10
11481.1365191193
 20
4892.078449705858
 30
0.0
 41
100.0
 42
100.0
 43
100.0
 50
180.0
  0
MTEXT
  5
19952
330
18758
100
AcDbEntity
  8
寸法
 62
     7
 48
50.0
100
AcDbMText
 10
11794.62180049354
 20
4992.078449705858
 30
0.0
 40
120.0
 41
0.0
 71
     5
 72
     1
  1
\A1;50
  7
STYLE1
 73
     1
 44
1.0
1001
ACAD
1000
MTEXTBEGIN
1070
    73
1070
     1
1070
    44
1040
1.0
1070
    74
1070
     0
1000
MTEXTEND
  0
POINT
  5
19953
330
18758
100
AcDbEntity
  8
DEFPOINTS
 62
     0
 48
50.0
100
AcDbPoint
 10
11481.1365191193
 20
4492.985280366388
 30
0.0
  0
POINT
  5
19954
330
18758
100
AcDbEntity
  8
DEFPOINTS
 62
     0
 48
50.0
100
AcDbPoint
 10
11431.1365191193
 20
4492.98528036639
 30
0.0
  0
POINT
  5
19955
330
18758
100
AcDbEntity
  8
DEFPOINTS
 62
     0
 48
50.0
100
AcDbPoint
 10
11431.1365191193
 20
4892.078449705858
 30
0.0
  0
ENDBLK
  5
18765
330
18758
100
AcDbEntity
  8
0
 48
50.0
100
AcDbBlockEnd
  0
BLOCK
  5
18807
330
187FD
100
AcDbEntity
  8
0
 48
50.0
100
AcDbBlockBegin
  2
*D7
 70
     1
 10
0.0
 20
0.0
 30
0.0
  3
*D7
  1

  0
LINE
  5
199F2
330
187FD
100
AcDbEntity
  8
寸法
 62
     0
 48
50.0
370
    -2
100
AcDbLine
 10
8809.136519119304
 20
4200.985280366384
 30
0.0
 11
8017.835459374907
 21
4200.985280366384
 31
0.0
  0
LINE
  5
199F3
330
187FD
100
AcDbEntity
  8
寸法
 62
     0
 48
50.0
370
    -2
100
AcDbLine
 10
8809.136519119304
 20
2475.985280366386
 30
0.0
 11
8017.835459374907
 21
2475.985280366386
 31
0.0
  0
LINE
  5
199F4
330
187FD
100
AcDbEntity
  8
寸法
 62
     0
 48
50.0
370
    -2
100
AcDbLine
 10
8077.835459374908
 20
4200.985280366384
 30
0.0
 11
8077.835459374908
 21
2475.985280366386
 31
0.0
  0
INSERT
  5
199F5
330
187FD
100
AcDbEntity
  8
寸法
 62
     0
 48
50.0
370
    -2
100
AcDbBlockReference
  2
_DOTSMALL
 10
8077.835459374908
 20
4200.985280366384
 30
0.0
 41
100.0
 42
100.0
 43
100.0
 50
90.0
  0
INSERT
  5
199F6
330
187FD
100
AcDbEntity
  8
寸法
 62
     0
 48
50.0
370
    -2
100
AcDbBlockReference
  2
_DOTSMALL
 10
8077.835459374908
 20
2475.985280366386
 30
0.0
 41
100.0
 42
100.0
 43
100.0
 50
270.0
  0
MTEXT
  5
199F7
330
187FD
100
AcDbEntity
  8
寸法
 62
     7
 48
50.0
100
AcDbMText
 10
7977.823648351284
 20
3312.061206721082
 30
0.0
 40
120.0
 41
0.0
 71
     5
 72
     1
  1
\A1;有効開口部高サ1725
  7
STYLE1
 11
0.0000000000000001
 21
1.0
 31
0.0
 73
     1
 44
1.0
1001
ACAD
1000
MTEXTBEGIN
1070
    73
1070
     1
1070
    44
1040
1.0
1070
    74
1070
     0
1000
MTEXTEND
  0
POINT
  5
199F8
330
187FD
100
AcDbEntity
  8
DEFPOINTS
 62
     0
 48
50.0
100
AcDbPoint
 10
8829.136519119305
 20
4200.985280366384
 30
0.0
  0
POINT
  5
199F9
330
187FD
100
AcDbEntity
  8
DEFPOINTS
 62
     0
 48
50.0
100
AcDbPoint
 10
8829.136519119305
 20
2475.985280366386
 30
0.0
  0
POINT
  5
199FA
330
187FD
100
AcDbEntity
  8
DEFPOINTS
 62
     0
 48
50.0
100
AcDbPoint
 10
8077.835459374908
 20
2475.985280366386
 30
0.0
  0
ENDBLK
  5
18808
330
187FD
100
AcDbEntity
  8
0
 48
50.0
100
AcDbBlockEnd
  0
BLOCK
  5
1881F
330
18815
100
AcDbEntity
  8
0
 48
50.0
100
AcDbBlockBegin
  2
*D8
 70
     1
 10
0.0
 20
0.0
 30
0.0
  3
*D8
  1

  0
LINE
  5
1A0C5
330
18815
100
AcDbEntity
  8
寸法
 62
     0
 48
50.0
370
    -2
100
AcDbLine
 10
8404.277535270614
 20
9279.645503741992
 30
0.0
 11
8322.629561254698
 21
8974.931116379535
 31
0.0
  0
LINE
  5
1A0C6
330
18815
100
AcDbEntity
  8
寸法
 62
     0
 48
50.0
370
    -2
100
AcDbLine
 10
9887.277535270685
 20
9279.645503741983
 30
0.0
 11
9805.629561254772
 21
8974.931116379535
 31
0.0
  0
LINE
  5
1A0C7
330
18815
100
AcDbEntity
  8
寸法
 62
     0
 48
50.0
370
    -2
100
AcDbLine
 10
8338.706512800568
 20
9034.931116379537
 30
0.0
 11
9821.706512800639
 21
9034.931116379537
 31
0.0
  0
INSERT
  5
1A0C8
330
18815
100
AcDbEntity
  8
寸法
 62
     0
 48
50.0
370
    -2
100
AcDbBlockReference
  2
_DOTSMALL
 10
8338.706512800568
 20
9034.931116379537
 30
0.0
 41
100.0
 42
100.0
 43
100.0
 50
180.0
  0
INSERT
  5
1A0C9
330
18815
100
AcDbEntity
  8
寸法
 62
     0
 48
50.0
370
    -2
100
AcDbBlockReference
  2
_DOTSMALL
 10
9821.706512800639
 20
9034.931116379537
 30
0.0
 41
100.0
 42
100.0
 43
100.0
  0
MTEXT
  5
1A0CA
330
18815
100
AcDbEntity
  8
寸法
 62
     7
 48
50.0
100
AcDbMText
 10
8969.322069950028
 20
9134.931116379537
 30
0.0
 40
120.0
 41
0.0
 71
     5
 72
     1
  1
\A1;1483
  7
STYLE1
 73
     1
 44
1.0
1001
ACAD
1000
MTEXTBEGIN
1070
    73
1070
     1
1070
    44
1040
1.0
1070
    74
1070
     0
1000
MTEXTEND
  0
POINT
  5
1A0CB
330
18815
100
AcDbEntity
  8
DEFPOINTS
 62
     0
 48
50.0
100
AcDbPoint
 10
8409.636519119237
 20
9299.64550374199
 30
0.0
  0
POINT
  5
1A0CC
330
18815
100
AcDbEntity
  8
DEFPOINTS
 62
     0
 48
50.0
100
AcDbPoint
 10
9892.636519119307
 20
9299.645503741983
 30
0.0
  0
POINT
  5
1A0CD
330
18815
100
AcDbEntity
  8
DEFPOINTS
 62
     0
 48
50.0
100
AcDbPoint
 10
9821.706512800639
 20
9034.931116379537
 30
0.0
  0
ENDBLK
  5
18820
330
18815
100
AcDbEntity
  8
0
 48
50.0
100
AcDbBlockEnd
  0
BLOCK
  5
1882B
330
18821
100
AcDbEntity
  8
0
 48
50.0
100
AcDbBlockBegin
  2
*D9
 70
     1
 10
0.0
 20
0.0
 30
0.0
  3
*D9
  1

  0
LINE
  5
1A0BC
330
18821
100
AcDbEntity
  8
寸法
 62
     0
 48
50.0
370
    -2
100
AcDbLine
 10
8436.136519119314
 20
9799.645503741878
 30
0.0
 11
8436.136519119314
 21
10339.64550374192
 31
0.0
  0
LINE
  5
1A0BD
330
18821
100
AcDbEntity
  8
寸法
 62
     0
 48
50.0
370
    -2
100
AcDbLine
 10
11376.13651911931
 20
9799.645503741974
 30
0.0
 11
11376.13651911931
 21
10339.64550374192
 31
0.0
  0
LINE
  5
1A0BE
330
18821
100
AcDbEntity
  8
寸法
 62
     0
 48
50.0
370
    -2
100
AcDbLine
 10
8436.136519119314
 20
10279.64550374192
 30
0.0
 11
11376.13651911931
 21
10279.64550374192
 31
0.0
  0
INSERT
  5
1A0BF
330
18821
100
AcDbEntity
  8
寸法
 62
     0
 48
50.0
370
    -2
100
AcDbBlockReference
  2
_DOTSMALL
 10
8436.136519119314
 20
10279.64550374192
 30
0.0
 41
100.0
 42
100.0
 43
100.0
 50
180.0
  0
INSERT
  5
1A0C0
330
18821
100
AcDbEntity
  8
寸法
 62
     0
 48
50.0
370
    -2
100
AcDbBlockReference
  2
_DOTSMALL
 10
11376.13651911931
 20
10279.64550374192
 30
0.0
 41
100.0
 42
100.0
 43
100.0
  0
MTEXT
  5
1A0C1
330
18821
100
AcDbEntity
  8
寸法
 62
     7
 48
50.0
100
AcDbMText
 10
9906.136519119314
 20
10379.65731476554
 30
0.0
 40
120.0
 41
0.0
 71
     5
 72
     1
  1
\A1;7X420=2940
  7
STYLE1
 73
     1
 44
1.0
1001
ACAD
1000
MTEXTBEGIN
1070
    73
1070
     1
1070
    44
1040
1.0
1070
    74
1070
     0
1000
MTEXTEND
  0
POINT
  5
1A0C2
330
18821
100
AcDbEntity
  8
DEFPOINTS
 62
     0
 48
50.0
100
AcDbPoint
 10
8436.136519119314
 20
9779.645503741878
 30
0.0
  0
POINT
  5
1A0C3
330
18821
100
AcDbEntity
  8
DEFPOINTS
 62
     0
 48
50.0
100
AcDbPoint
 10
11376.13651911931
 20
9779.645503741974
 30
0.0
  0
POINT
  5
1A0C4
330
18821
100
AcDbEntity
  8
DEFPOINTS
 62
     0
 48
50.0
100
AcDbPoint
 10
11376.13651911931
 20
10279.64550374192
 30
0.0
  0
ENDBLK
  5
1882C
330
18821
100
AcDbEntity
  8
0
 48
50.0
100
AcDbBlockEnd
  0
BLOCK
  5
18845
330
18839
100
AcDbEntity
  8
0
 48
50.0
100
AcDbBlockBegin
  2
*D10
 70
     1
 10
0.0
 20
0.0
 30
0.0
  3
*D10
  1

  0
LINE
  5
1A0B1
330
18839
100
AcDbEntity
  8
寸法
 62
     0
 48
50.0
370
    -2
100
AcDbLine
 10
8381.13651911928
 20
9799.645503741878
 30
0.0
 11
8381.13651911928
 21
10339.64550374188
 31
0.0
  0
LINE
  5
1A0B2
330
18839
100
AcDbEntity
  8
寸法
 62
     0
 48
50.0
370
    -2
100
AcDbLine
 10
8436.136519119314
 20
9799.645503741878
 30
0.0
 11
8436.136519119314
 21
10339.64550374188
 31
0.0
  0
LINE
  5
1A0B3
330
18839
100
AcDbEntity
  8
寸法
 62
     0
 48
50.0
370
    -2
100
AcDbLine
 10
8436.136519119314
 20
10279.64550374188
 30
0.0
 11
8536.136519119313
 21
10279.64550374188
 31
0.0
  0
LINE
  5
1A0B4
330
18839
100
AcDbEntity
  8
寸法
 62
     0
 48
50.0
370
    -2
100
AcDbLine
 10
8381.13651911928
 20
10279.64550374188
 30
0.0
 11
7964.1659563708
 21
10279.64550374188
 31
0.0
  0
LINE
  5
1A0B5
330
18839
100
AcDbEntity
  8
寸法
 62
     0
 48
50.0
370
    -2
100
AcDbLine
 10
8436.136519119314
 20
10279.64550374188
 30
0.0
 11
8381.13651911928
 21
10279.64550374188
 31
0.0
  0
INSERT
  5
1A0B6
330
18839
100
AcDbEntity
  8
寸法
 62
     0
 48
50.0
370
    -2
100
AcDbBlockReference
  2
_DOTSMALL
 10
8436.136519119314
 20
10279.64550374188
 30
0.0
 41
100.0
 42
100.0
 43
100.0
 50
180.0
  0
INSERT
  5
1A0B7
330
18839
100
AcDbEntity
  8
寸法
 62
     0
 48
50.0
370
    -2
100
AcDbBlockReference
  2
_DOTSMALL
 10
8381.13651911928
 20
10279.64550374188
 30
0.0
 41
100.0
 42
100.0
 43
100.0
  0
MTEXT
  5
1A0B8
330
18839
100
AcDbEntity
  8
寸法
 62
     7
 48
50.0
100
AcDbMText
 10
8072.65123774504
 20
10379.64550374188
 30
0.0
 40
120.0
 41
0.0
 71
     5
 72
     1
  1
\A1;55
  7
STYLE1
 73
     1
 44
1.0
1001
ACAD
1000
MTEXTBEGIN
1070
    73
1070
     1
1070
    44
1040
1.0
1070
    74
1070
     0
1000
MTEXTEND
  0
POINT
  5
1A0B9
330
18839
100
AcDbEntity
  8
DEFPOINTS
 62
     0
 48
50.0
100
AcDbPoint
 10
8381.13651911928
 20
9779.645503741878
 30
0.0
  0
POINT
  5
1A0BA
330
18839
100
AcDbEntity
  8
DEFPOINTS
 62
     0
 48
50.0
100
AcDbPoint
 10
8436.136519119314
 20
9779.645503741878
 30
0.0
  0
POINT
  5
1A0BB
330
18839
100
AcDbEntity
  8
DEFPOINTS
 62
     0
 48
50.0
100
AcDbPoint
 10
8436.136519119314
 20
10279.64550374188
 30
0.0
  0
ENDBLK
  5
18846
330
18839
100
AcDbEntity
  8
0
 48
50.0
100
AcDbBlockEnd
  0
BLOCK
  5
18851
330
18847
100
AcDbEntity
  8
0
 48
50.0
100
AcDbBlockBegin
  2
*D11
 70
     1
 10
0.0
 20
0.0
 30
0.0
  3
*D11
  1

  0
LINE
  5
1A0A8
330
18847
100
AcDbEntity
  8
寸法
 62
     0
 48
50.0
370
    -2
100
AcDbLine
 10
9914.277535270684
 20
9279.645503742051
 30
0.0
 11
9832.629561254753
 21
8974.931116379535
 31
0.0
  0
LINE
  5
1A0A9
330
18847
100
AcDbEntity
  8
寸法
 62
     0
 48
50.0
370
    -2
100
AcDbLine
 10
11397.27753527069
 20
9279.645503742042
 30
0.0
 11
11315.62956125476
 21
8974.931116379535
 31
0.0
  0
LINE
  5
1A0AA
330
18847
100
AcDbEntity
  8
寸法
 62
     0
 48
50.0
370
    -2
100
AcDbLine
 10
9848.706512800619
 20
9034.931116379537
 30
0.0
 11
11331.70651280063
 21
9034.931116379537
 31
0.0
  0
INSERT
  5
1A0AB
330
18847
100
AcDbEntity
  8
寸法
 62
     0
 48
50.0
370
    -2
100
AcDbBlockReference
  2
_DOTSMALL
 10
9848.706512800619
 20
9034.931116379537
 30
0.0
 41
100.0
 42
100.0
 43
100.0
 50
180.0
  0
INSERT
  5
1A0AC
330
18847
100
AcDbEntity
  8
寸法
 62
     0
 48
50.0
370
    -2
100
AcDbBlockReference
  2
_DOTSMALL
 10
11331.70651280063
 20
9034.931116379537
 30
0.0
 41
100.0
 42
100.0
 43
100.0
  0
MTEXT
  5
1A0AD
330
18847
100
AcDbEntity
  8
寸法
 62
     7
 48
50.0
100
AcDbMText
 10
10431.20023011736
 20
9134.931116379537
 30
0.0
 40
120.0
 41
0.0
 71
     5
 72
     1
  1
\A1;1483
  7
STYLE1
 73
     1
 44
1.0
1001
ACAD
1000
MTEXTBEGIN
1070
    73
1070
     1
1070
    44
1040
1.0
1070
    74
1070
     0
1000
MTEXTEND
  0
POINT
  5
1A0AE
330
18847
100
AcDbEntity
  8
DEFPOINTS
 62
     0
 48
50.0
100
AcDbPoint
 10
9919.636519119306
 20
9299.645503742048
 30
0.0
  0
POINT
  5
1A0AF
330
18847
100
AcDbEntity
  8
DEFPOINTS
 62
     0
 48
50.0
100
AcDbPoint
 10
11402.63651911932
 20
9299.645503742041
 30
0.0
  0
POINT
  5
1A0B0
330
18847
100
AcDbEntity
  8
DEFPOINTS
 62
     0
 48
50.0
100
AcDbPoint
 10
11331.70651280063
 20
9034.931116379537
 30
0.0
  0
ENDBLK
  5
18852
330
18847
100
AcDbEntity
  8
0
 48
50.0
100
AcDbBlockEnd
  0
BLOCK
  5
1885D
330
18853
100
AcDbEntity
  8
0
 48
50.0
100
AcDbBlockBegin
  2
*D12
 70
     1
 10
0.0
 20
0.0
 30
0.0
  3
*D12
  1

  0
LINE
  5
1A09F
330
18853
100
AcDbEntity
  8
寸法
 62
     0
 48
50.0
370
    -2
100
AcDbLine
 10
11451.13651911931
 20
9779.645503741974
 30
0.0
 11
12491.1365191193
 21
9779.645503741972
 31
0.0
  0
LINE
  5
1A0A0
330
18853
100
AcDbEntity
  8
寸法
 62
     0
 48
50.0
370
    -2
100
AcDbLine
 10
11451.13651911929
 20
7569.645503741965
 30
0.0
 11
12491.1365191193
 21
7569.645503741965
 31
0.0
  0
LINE
  5
1A0A1
330
18853
100
AcDbEntity
  8
寸法
 62
     0
 48
50.0
370
    -2
100
AcDbLine
 10
12431.1365191193
 20
9779.645503741972
 30
0.0
 11
12431.1365191193
 21
7569.645503741965
 31
0.0
  0
INSERT
  5
1A0A2
330
18853
100
AcDbEntity
  8
寸法
 62
     0
 48
50.0
370
    -2
100
AcDbBlockReference
  2
_DOTSMALL
 10
12431.1365191193
 20
9779.645503741972
 30
0.0
 41
100.0
 42
100.0
 43
100.0
 50
90.0
  0
INSERT
  5
1A0A3
330
18853
100
AcDbEntity
  8
寸法
 62
     0
 48
50.0
370
    -2
100
AcDbBlockReference
  2
_DOTSMALL
 10
12431.1365191193
 20
7569.645503741965
 30
0.0
 41
100.0
 42
100.0
 43
100.0
 50
270.0
  0
MTEXT
  5
1A0A4
330
18853
100
AcDbEntity
  8
寸法
 62
     7
 48
50.0
100
AcDbMText
 10
12331.12470809568
 20
8674.645503741968
 30
0.0
 40
120.0
 41
0.0
 71
     5
 72
     1
  1
\A1;2210
  7
STYLE1
 11
0.0000000000000001
 21
1.0
 31
0.0
 73
     1
 44
1.0
1001
ACAD
1000
MTEXTBEGIN
1070
    73
1070
     1
1070
    44
1040
1.0
1070
    74
1070
     0
1000
MTEXTEND
  0
POINT
  5
1A0A5
330
18853
100
AcDbEntity
  8
DEFPOINTS
 62
     0
 48
50.0
100
AcDbPoint
 10
11431.13651911931
 20
9779.645503741974
 30
0.0
  0
POINT
  5
1A0A6
330
18853
100
AcDbEntity
  8
DEFPOINTS
 62
     0
 48
50.0
100
AcDbPoint
 10
11431.13651911929
 20
7569.645503741965
 30
0.0
  0
POINT
  5
1A0A7
330
18853
100
AcDbEntity
  8
DEFPOINTS
 62
     0
 48
50.0
100
AcDbPoint
 10
12431.1365191193
 20
7569.645503741965
 30
0.0
  0
ENDBLK
  5
1885E
330
18853
100
AcDbEntity
  8
0
 48
50.0
100
AcDbBlockEnd
  0
BLOCK
  5
18869
330
1885F
100
AcDbEntity
  8
0
 48
50.0
100
AcDbBlockBegin
  2
*D13
 70
     1
 10
0.0
 20
0.0
 30
0.0
  3
*D13
  1

  0
LINE
  5
1A096
330
1885F
100
AcDbEntity
  8
寸法
 62
     0
 48
50.0
370
    -2
100
AcDbLine
 10
11451.13651911931
 20
9724.645503741976
 30
0.0
 11
12191.1365191193
 21
9724.645503741976
 31
0.0
  0
LINE
  5
1A097
330
1885F
100
AcDbEntity
  8
寸法
 62
     0
 48
50.0
370
    -2
100
AcDbLine
 10
11451.13651911929
 20
7624.645503741961
 30
0.0
 11
12191.1365191193
 21
7624.645503741961
 31
0.0
  0
LINE
  5
1A098
330
1885F
100
AcDbEntity
  8
寸法
 62
     0
 48
50.0
370
    -2
100
AcDbLine
 10
12131.1365191193
 20
9724.645503741976
 30
0.0
 11
12131.1365191193
 21
7624.645503741961
 31
0.0
  0
INSERT
  5
1A099
330
1885F
100
AcDbEntity
  8
寸法
 62
     0
 48
50.0
370
    -2
100
AcDbBlockReference
  2
_DOTSMALL
 10
12131.1365191193
 20
9724.645503741976
 30
0.0
 41
100.0
 42
100.0
 43
100.0
 50
90.0
  0
INSERT
  5
1A09A
330
1885F
100
AcDbEntity
  8
寸法
 62
     0
 48
50.0
370
    -2
100
AcDbBlockReference
  2
_DOTSMALL
 10
12131.1365191193
 20
7624.645503741961
 30
0.0
 41
100.0
 42
100.0
 43
100.0
 50
270.0
  0
MTEXT
  5
1A09B
330
1885F
100
AcDbEntity
  8
寸法
 62
     7
 48
50.0
100
AcDbMText
 10
12031.12470809568
 20
8674.645503741968
 30
0.0
 40
120.0
 41
0.0
 71
     5
 72
     1
  1
\A1;5X420=2100
  7
STYLE1
 11
0.0000000000000001
 21
1.0
 31
0.0
 73
     1
 44
1.0
1001
ACAD
1000
MTEXTBEGIN
1070
    73
1070
     1
1070
    44
1040
1.0
1070
    74
1070
     0
1000
MTEXTEND
  0
POINT
  5
1A09C
330
1885F
100
AcDbEntity
  8
DEFPOINTS
 62
     0
 48
50.0
100
AcDbPoint
 10
11431.13651911931
 20
9724.645503741976
 30
0.0
  0
POINT
  5
1A09D
330
1885F
100
AcDbEntity
  8
DEFPOINTS
 62
     0
 48
50.0
100
AcDbPoint
 10
11431.13651911929
 20
7624.645503741961
 30
0.0
  0
POINT
  5
1A09E
330
1885F
100
AcDbEntity
  8
DEFPOINTS
 62
     0
 48
50.0
100
AcDbPoint
 10
12131.1365191193
 20
7624.645503741961
 30
0.0
  0
ENDBLK
  5
1886A
330
1885F
100
AcDbEntity
  8
0
 48
50.0
100
AcDbBlockEnd
  0
BLOCK
  5
18877
330
1886B
100
AcDbEntity
  8
0
 48
50.0
100
AcDbBlockBegin
  2
*D14
 70
     1
 10
0.0
 20
0.0
 30
0.0
  3
*D14
  1

  0
LINE
  5
1A08B
330
1886B
100
AcDbEntity
  8
寸法
 62
     0
 48
50.0
370
    -2
100
AcDbLine
 10
11451.13651911929
 20
7624.645503741961
 30
0.0
 11
12191.13651911929
 21
7624.645503741961
 31
0.0
  0
LINE
  5
1A08C
330
1886B
100
AcDbEntity
  8
寸法
 62
     0
 48
50.0
370
    -2
100
AcDbLine
 10
11451.13651911929
 20
7569.645503741965
 30
0.0
 11
12191.13651911929
 21
7569.645503741965
 31
0.0
  0
LINE
  5
1A08D
330
1886B
100
AcDbEntity
  8
寸法
 62
     0
 48
50.0
370
    -2
100
AcDbLine
 10
12131.13651911929
 20
7624.645503741961
 30
0.0
 11
12131.13651911929
 21
7724.64550374196
 31
0.0
  0
LINE
  5
1A08E
330
1886B
100
AcDbEntity
  8
寸法
 62
     0
 48
50.0
370
    -2
100
AcDbLine
 10
12131.13651911929
 20
7569.645503741965
 30
0.0
 11
12131.13651911929
 21
7152.674940993484
 31
0.0
  0
LINE
  5
1A08F
330
1886B
100
AcDbEntity
  8
寸法
 62
     0
 48
50.0
370
    -2
100
AcDbLine
 10
12131.13651911929
 20
7624.645503741961
 30
0.0
 11
12131.13651911929
 21
7569.645503741965
 31
0.0
  0
INSERT
  5
1A090
330
1886B
100
AcDbEntity
  8
寸法
 62
     0
 48
50.0
370
    -2
100
AcDbBlockReference
  2
_DOTSMALL
 10
12131.13651911929
 20
7624.645503741961
 30
0.0
 41
100.0
 42
100.0
 43
100.0
 50
270.0
  0
INSERT
  5
1A091
330
1886B
100
AcDbEntity
  8
寸法
 62
     0
 48
50.0
370
    -2
100
AcDbBlockReference
  2
_DOTSMALL
 10
12131.13651911929
 20
7569.645503741965
 30
0.0
 41
100.0
 42
100.0
 43
100.0
 50
90.0
  0
MTEXT
  5
1A092
330
1886B
100
AcDbEntity
  8
寸法
 62
     7
 48
50.0
100
AcDbMText
 10
12031.13651911929
 20
7261.160222367725
 30
0.0
 40
120.0
 41
0.0
 71
     5
 72
     1
  1
\A1;55
  7
STYLE1
 11
0.0000000000000001
 21
1.0
 31
0.0
 73
     1
 44
1.0
1001
ACAD
1000
MTEXTBEGIN
1070
    73
1070
     1
1070
    44
1040
1.0
1070
    74
1070
     0
1000
MTEXTEND
  0
POINT
  5
1A093
330
1886B
100
AcDbEntity
  8
DEFPOINTS
 62
     0
 48
50.0
100
AcDbPoint
 10
11431.13651911929
 20
7624.645503741961
 30
0.0
  0
POINT
  5
1A094
330
1886B
100
AcDbEntity
  8
DEFPOINTS
 62
     0
 48
50.0
100
AcDbPoint
 10
11431.13651911929
 20
7569.645503741965
 30
0.0
  0
POINT
  5
1A095
330
1886B
100
AcDbEntity
  8
DEFPOINTS
 62
     0
 48
50.0
100
AcDbPoint
 10
12131.13651911929
 20
7569.645503741965
 30
0.0
  0
ENDBLK
  5
18878
330
1886B
100
AcDbEntity
  8
0
 48
50.0
100
AcDbBlockEnd
  0
BLOCK
  5
18883
330
18879
100
AcDbEntity
  8
0
 48
50.0
100
AcDbBlockBegin
  2
*D15
 70
     1
 10
0.0
 20
0.0
 30
0.0
  3
*D15
  1

  0
LINE
  5
1A082
330
18879
100
AcDbEntity
  8
寸法
 62
     0
 48
50.0
370
    -2
100
AcDbLine
 10
11422.63651911931
 20
9744.28651989335
 30
0.0
 11
11891.13651911931
 21
9618.75232323937
 31
0.0
  0
LINE
  5
1A083
330
18879
100
AcDbEntity
  8
寸法
 62
     0
 48
50.0
370
    -2
100
AcDbLine
 10
11422.63651911931
 20
9294.286519893354
 30
0.0
 11
11891.13651911931
 21
9168.752323239374
 31
0.0
  0
LINE
  5
1A084
330
18879
100
AcDbEntity
  8
寸法
 62
     0
 48
50.0
370
    -2
100
AcDbLine
 10
11831.13651911931
 20
9634.829274785239
 30
0.0
 11
11831.13651911931
 21
9184.829274785242
 31
0.0
  0
INSERT
  5
1A085
330
18879
100
AcDbEntity
  8
寸法
 62
     0
 48
50.0
370
    -2
100
AcDbBlockReference
  2
_DOTSMALL
 10
11831.13651911931
 20
9634.829274785239
 30
0.0
 41
100.0
 42
100.0
 43
100.0
 50
90.0
  0
INSERT
  5
1A086
330
18879
100
AcDbEntity
  8
寸法
 62
     0
 48
50.0
370
    -2
100
AcDbBlockReference
  2
_DOTSMALL
 10
11831.13651911931
 20
9184.829274785242
 30
0.0
 41
100.0
 42
100.0
 43
100.0
 50
270.0
  0
MTEXT
  5
1A087
330
18879
100
AcDbEntity
  8
寸法
 62
     7
 48
50.0
100
AcDbMText
 10
11731.13651911931
 20
9409.82927478524
 30
0.0
 40
120.0
 41
0.0
 71
     5
 72
     1
  1
\A1;450
  7
STYLE1
 11
0.0000000000000001
 21
1.0
 31
0.0
 73
     1
 44
1.0
1001
ACAD
1000
MTEXTBEGIN
1070
    73
1070
     1
1070
    44
1040
1.0
1070
    74
1070
     0
1000
MTEXTEND
  0
POINT
  5
1A088
330
18879
100
AcDbEntity
  8
DEFPOINTS
 62
     0
 48
50.0
100
AcDbPoint
 10
11402.63651911931
 20
9749.645503741973
 30
0.0
  0
POINT
  5
1A089
330
18879
100
AcDbEntity
  8
DEFPOINTS
 62
     0
 48
50.0
100
AcDbPoint
 10
11402.63651911931
 20
9299.645503741976
 30
0.0
  0
POINT
  5
1A08A
330
18879
100
AcDbEntity
  8
DEFPOINTS
 62
     0
 48
50.0
100
AcDbPoint
 10
11831.13651911931
 20
9184.829274785242
 30
0.0
  0
ENDBLK
  5
18884
330
18879
100
AcDbEntity
  8
0
 48
50.0
100
AcDbBlockEnd
  0
BLOCK
  5
18891
330
18885
100
AcDbEntity
  8
0
 48
50.0
100
AcDbBlockBegin
  2
*D16
 70
     1
 10
0.0
 20
0.0
 30
0.0
  3
*D16
  1

  0
LINE
  5
1A077
330
18885
100
AcDbEntity
  8
寸法
 62
     0
 48
50.0
370
    -2
100
AcDbLine
 10
11376.13651911931
 20
9799.645503741974
 30
0.0
 11
11376.13651911931
 21
10339.64550374197
 31
0.0
  0
LINE
  5
1A078
330
18885
100
AcDbEntity
  8
寸法
 62
     0
 48
50.0
370
    -2
100
AcDbLine
 10
11431.13651911931
 20
9799.645503741974
 30
0.0
 11
11431.13651911931
 21
10339.64550374197
 31
0.0
  0
LINE
  5
1A079
330
18885
100
AcDbEntity
  8
寸法
 62
     0
 48
50.0
370
    -2
100
AcDbLine
 10
11376.13651911931
 20
10279.64550374197
 30
0.0
 11
11276.13651911931
 21
10279.64550374197
 31
0.0
  0
LINE
  5
1A07A
330
18885
100
AcDbEntity
  8
寸法
 62
     0
 48
50.0
370
    -2
100
AcDbLine
 10
11431.13651911931
 20
10279.64550374197
 30
0.0
 11
11848.10708186779
 21
10279.64550374197
 31
0.0
  0
LINE
  5
1A07B
330
18885
100
AcDbEntity
  8
寸法
 62
     0
 48
50.0
370
    -2
100
AcDbLine
 10
11376.13651911931
 20
10279.64550374197
 30
0.0
 11
11431.13651911931
 21
10279.64550374197
 31
0.0
  0
INSERT
  5
1A07C
330
18885
100
AcDbEntity
  8
寸法
 62
     0
 48
50.0
370
    -2
100
AcDbBlockReference
  2
_DOTSMALL
 10
11376.13651911931
 20
10279.64550374197
 30
0.0
 41
100.0
 42
100.0
 43
100.0
  0
INSERT
  5
1A07D
330
18885
100
AcDbEntity
  8
寸法
 62
     0
 48
50.0
370
    -2
100
AcDbBlockReference
  2
_DOTSMALL
 10
11431.13651911931
 20
10279.64550374197
 30
0.0
 41
100.0
 42
100.0
 43
100.0
 50
180.0
  0
MTEXT
  5
1A07E
330
18885
100
AcDbEntity
  8
寸法
 62
     7
 48
50.0
100
AcDbMText
 10
11739.62180049355
 20
10379.64550374197
 30
0.0
 40
120.0
 41
0.0
 71
     5
 72
     1
  1
\A1;55
  7
STYLE1
 73
     1
 44
1.0
1001
ACAD
1000
MTEXTBEGIN
1070
    73
1070
     1
1070
    44
1040
1.0
1070
    74
1070
     0
1000
MTEXTEND
  0
POINT
  5
1A07F
330
18885
100
AcDbEntity
  8
DEFPOINTS
 62
     0
 48
50.0
100
AcDbPoint
 10
11376.13651911931
 20
9779.645503741974
 30
0.0
  0
POINT
  5
1A080
330
18885
100
AcDbEntity
  8
DEFPOINTS
 62
     0
 48
50.0
100
AcDbPoint
 10
11431.13651911931
 20
9779.645503741974
 30
0.0
  0
POINT
  5
1A081
330
18885
100
AcDbEntity
  8
DEFPOINTS
 62
     0
 48
50.0
100
AcDbPoint
 10
11431.13651911931
 20
10279.64550374197
 30
0.0
  0
ENDBLK
  5
18892
330
18885
100
AcDbEntity
  8
0
 48
50.0
100
AcDbBlockEnd
  0
BLOCK
  5
1889F
330
18893
100
AcDbEntity
  8
0
 48
50.0
100
AcDbBlockBegin
  2
*D17
 70
     1
 10
0.0
 20
0.0
 30
0.0
  3
*D17
  1

  0
LINE
  5
1A06C
330
18893
100
AcDbEntity
  8
寸法
 62
     0
 48
50.0
370
    -2
100
AcDbLine
 10
11451.13651911931
 20
9779.645503741974
 30
0.0
 11
12191.13651911931
 21
9779.645503741974
 31
0.0
  0
LINE
  5
1A06D
330
18893
100
AcDbEntity
  8
寸法
 62
     0
 48
50.0
370
    -2
100
AcDbLine
 10
11451.13651911931
 20
9724.645503741976
 30
0.0
 11
12191.13651911931
 21
9724.645503741976
 31
0.0
  0
LINE
  5
1A06E
330
18893
100
AcDbEntity
  8
寸法
 62
     0
 48
50.0
370
    -2
100
AcDbLine
 10
12131.13651911931
 20
9724.645503741976
 30
0.0
 11
12131.13651911931
 21
9624.645503741977
 31
0.0
  0
LINE
  5
1A06F
330
18893
100
AcDbEntity
  8
寸法
 62
     0
 48
50.0
370
    -2
100
AcDbLine
 10
12131.13651911931
 20
9779.645503741974
 30
0.0
 11
12131.13651911931
 21
10196.61606649045
 31
0.0
  0
LINE
  5
1A070
330
18893
100
AcDbEntity
  8
寸法
 62
     0
 48
50.0
370
    -2
100
AcDbLine
 10
12131.13651911931
 20
9724.645503741976
 30
0.0
 11
12131.13651911931
 21
9779.645503741974
 31
0.0
  0
INSERT
  5
1A071
330
18893
100
AcDbEntity
  8
寸法
 62
     0
 48
50.0
370
    -2
100
AcDbBlockReference
  2
_DOTSMALL
 10
12131.13651911931
 20
9724.645503741976
 30
0.0
 41
100.0
 42
100.0
 43
100.0
 50
90.0
  0
INSERT
  5
1A072
330
18893
100
AcDbEntity
  8
寸法
 62
     0
 48
50.0
370
    -2
100
AcDbBlockReference
  2
_DOTSMALL
 10
12131.13651911931
 20
9779.645503741974
 30
0.0
 41
100.0
 42
100.0
 43
100.0
 50
270.0
  0
MTEXT
  5
1A073
330
18893
100
AcDbEntity
  8
寸法
 62
     7
 48
50.0
100
AcDbMText
 10
12031.13651911931
 20
10088.13078511621
 30
0.0
 40
120.0
 41
0.0
 71
     5
 72
     1
  1
\A1;55
  7
STYLE1
 11
0.0000000000000001
 21
1.0
 31
0.0
 73
     1
 44
1.0
1001
ACAD
1000
MTEXTBEGIN
1070
    73
1070
     1
1070
    44
1040
1.0
1070
    74
1070
     0
1000
MTEXTEND
  0
POINT
  5
1A074
330
18893
100
AcDbEntity
  8
DEFPOINTS
 62
     0
 48
50.0
100
AcDbPoint
 10
11431.13651911931
 20
9779.645503741974
 30
0.0
  0
POINT
  5
1A075
330
18893
100
AcDbEntity
  8
DEFPOINTS
 62
     0
 48
50.0
100
AcDbPoint
 10
11431.13651911931
 20
9724.645503741976
 30
0.0
  0
POINT
  5
1A076
330
18893
100
AcDbEntity
  8
DEFPOINTS
 62
     0
 48
50.0
100
AcDbPoint
 10
12131.13651911931
 20
9724.645503741976
 30
0.0
  0
ENDBLK
  5
188A0
330
18893
100
AcDbEntity
  8
0
 48
50.0
100
AcDbBlockEnd
  0
BLOCK
  5
190FC
330
190F2
100
AcDbEntity
  8
0
 48
50.0
100
AcDbBlockBegin
  2
*D18
 70
     1
 10
0.0
 20
0.0
 30
0.0
  3
*D18
  1

  0
LINE
  5
19942
330
190F2
100
AcDbEntity
  8
寸法
 62
     0
 48
50.0
370
    -2
100
AcDbLine
 10
4196.539489782044
 20
2097.985280366382
 30
0.0
 11
4196.539489782044
 21
1771.937951066005
 31
0.0
  0
LINE
  5
19943
330
190F2
100
AcDbEntity
  8
寸法
 62
     0
 48
50.0
370
    -2
100
AcDbLine
 10
3996.539489782044
 20
2097.985280366383
 30
0.0
 11
3996.539489782044
 21
1771.937951066005
 31
0.0
  0
LINE
  5
19944
330
190F2
100
AcDbEntity
  8
寸法
 62
     0
 48
50.0
370
    -2
100
AcDbLine
 10
4196.539489782044
 20
1831.937951066005
 30
0.0
 11
3996.539489782044
 21
1831.937951066005
 31
0.0
  0
INSERT
  5
19945
330
190F2
100
AcDbEntity
  8
寸法
 62
     0
 48
50.0
370
    -2
100
AcDbBlockReference
  2
_DOTSMALL
 10
4196.539489782044
 20
1831.937951066005
 30
0.0
 41
100.0
 42
100.0
 43
100.0
  0
INSERT
  5
19946
330
190F2
100
AcDbEntity
  8
寸法
 62
     0
 48
50.0
370
    -2
100
AcDbBlockReference
  2
_DOTSMALL
 10
3996.539489782044
 20
1831.937951066005
 30
0.0
 41
100.0
 42
100.0
 43
100.0
 50
180.0
  0
MTEXT
  5
19947
330
190F2
100
AcDbEntity
  8
寸法
 62
     7
 48
50.0
100
AcDbMText
 10
4096.539489782045
 20
1931.949762089628
 30
0.0
 40
120.0
 41
0.0
 71
     5
 72
     1
  1
\A1;200
  7
STYLE1
 73
     1
 44
1.0
1001
ACAD
1000
MTEXTBEGIN
1070
    73
1070
     1
1070
    44
1040
1.0
1070
    74
1070
     0
1000
MTEXTEND
  0
POINT
  5
19948
330
190F2
100
AcDbEntity
  8
DEFPOINTS
 62
     0
 48
50.0
100
AcDbPoint
 10
4196.539489782044
 20
2117.985280366382
 30
0.0
  0
POINT
  5
19949
330
190F2
100
AcDbEntity
  8
DEFPOINTS
 62
     0
 48
50.0
100
AcDbPoint
 10
3996.539489782044
 20
2117.985280366383
 30
0.0
  0
POINT
  5
1994A
330
190F2
100
AcDbEntity
  8
DEFPOINTS
 62
     0
 48
50.0
100
AcDbPoint
 10
3996.539489782044
 20
1831.937951066005
 30
0.0
  0
ENDBLK
  5
190FD
330
190F2
100
AcDbEntity
  8
0
 48
50.0
100
AcDbBlockEnd
  0
BLOCK
  5
19108
330
190FE
100
AcDbEntity
  8
0
 48
50.0
100
AcDbBlockBegin
  2
*D19
 70
     1
 10
0.0
 20
0.0
 30
0.0
  3
*D19
  1

  0
LINE
  5
19939
330
190FE
100
AcDbEntity
  8
寸法
 62
     0
 48
50.0
370
    -2
100
AcDbLine
 10
3976.539489782044
 20
2117.985280366383
 30
0.0
 11
3787.03948653541
 21
2117.985280366383
 31
0.0
  0
LINE
  5
1993A
330
190FE
100
AcDbEntity
  8
寸法
 62
     0
 48
50.0
370
    -2
100
AcDbLine
 10
3951.539489782044
 20
2317.985280366384
 30
0.0
 11
3787.03948653541
 21
2317.985280366384
 31
0.0
  0
LINE
  5
1993B
330
190FE
100
AcDbEntity
  8
寸法
 62
     0
 48
50.0
370
    -2
100
AcDbLine
 10
3847.03948653541
 20
2117.985280366383
 30
0.0
 11
3847.03948653541
 21
2317.985280366384
 31
0.0
  0
MTEXT
  5
1993C
330
190FE
100
AcDbEntity
  8
寸法
 62
     7
 48
50.0
100
AcDbMText
 10
3711.771066396276
 20
2188.129633633316
 30
0.0
 40
120.0
 41
0.0
 71
     5
 72
     1
  1
\A1;200
  7
STYLE1
 11
0.0000000000000001
 21
1.0
 31
0.0
 73
     1
 44
1.0
1001
ACAD
1000
MTEXTBEGIN
1070
    73
1070
     1
1070
    44
1040
1.0
1070
    74
1070
     0
1000
MTEXTEND
  0
INSERT
  5
1993D
330
190FE
100
AcDbEntity
  8
寸法
 62
     0
 48
50.0
370
    -2
100
AcDbBlockReference
  2
_DOTSMALL
 10
3847.03948653541
 20
2117.985280366383
 30
0.0
 41
100.0
 42
100.0
 43
100.0
 50
270.0
  0
INSERT
  5
1993E
330
190FE
100
AcDbEntity
  8
寸法
 62
     0
 48
50.0
370
    -2
100
AcDbBlockReference
  2
_DOTSMALL
 10
3847.03948653541
 20
2317.985280366384
 30
0.0
 41
100.0
 42
100.0
 43
100.0
 50
90.0
  0
POINT
  5
1993F
330
190FE
100
AcDbEntity
  8
DEFPOINTS
 62
     0
 48
50.0
100
AcDbPoint
 10
3996.539489782044
 20
2117.985280366383
 30
0.0
  0
POINT
  5
19940
330
190FE
100
AcDbEntity
  8
DEFPOINTS
 62
     0
 48
50.0
100
AcDbPoint
 10
3971.539489782045
 20
2317.985280366384
 30
0.0
  0
POINT
  5
19941
330
190FE
100
AcDbEntity
  8
DEFPOINTS
 62
     0
 48
50.0
100
AcDbPoint
 10
3847.03948653541
 20
2317.985280366384
 30
0.0
  0
ENDBLK
  5
19109
330
190FE
100
AcDbEntity
  8
0
 48
50.0
100
AcDbBlockEnd
  0
BLOCK
  5
19115
330
1910A
100
AcDbEntity
  8
0
 48
50.0
100
AcDbBlockBegin
  2
*D20
 70
     1
 10
0.0
 20
0.0
 30
0.0
  3
*D20
  1

  0
LINE
  5
1992F
330
1910A
100
AcDbEntity
  8
寸法
 62
     0
 48
50.0
370
    -2
100
AcDbLine
 10
4008.443776073145
 20
4492.282987436047
 30
0.0
 11
3392.509336967868
 21
4509.997137710376
 31
0.0
  0
LINE
  5
19930
330
1910A
100
AcDbEntity
  8
寸法
 62
     0
 48
50.0
370
    -2
100
AcDbLine
 10
4004.390320516519
 20
4351.341263670334
 30
0.0
 11
3388.455881411241
 21
4369.055413944662
 31
0.0
  0
LINE
  5
19931
330
1910A
100
AcDbEntity
  8
寸法
 62
     0
 48
50.0
370
    -2
100
AcDbLine
 10
3448.431083013672
 20
4367.330539239714
 30
0.0
 11
3452.484538570298
 21
4508.272263005428
 31
0.0
  0
LINE
  5
19932
330
1910A
100
AcDbEntity
  8
寸法
 62
     0
 48
50.0
370
    -2
100
AcDbLine
 10
3452.484538570298
 20
4508.272263005428
 30
0.0
 11
3462.833786799983
 21
4868.123472620017
 31
0.0
  0
INSERT
  5
19933
330
1910A
100
AcDbEntity
  8
寸法
 62
     0
 48
50.0
370
    -2
100
AcDbBlockReference
  2
_DOTSMALL
 10
3448.431083013672
 20
4367.330539239714
 30
0.0
 41
100.0
 42
100.0
 43
100.0
 50
268.3526390256379
  0
INSERT
  5
19934
330
1910A
100
AcDbEntity
  8
寸法
 62
     0
 48
50.0
370
    -2
100
AcDbBlockReference
  2
_DOTSMALL
 10
3452.484538570298
 20
4508.272263005428
 30
0.0
 41
100.0
 42
100.0
 43
100.0
 50
88.35263902563784
  0
MTEXT
  5
19935
330
1910A
100
AcDbEntity
  8
寸法
 62
     7
 48
50.0
100
AcDbMText
 10
3359.137888935212
 20
4741.05199365633
 30
0.0
 40
120.0
 41
0.0
 71
     5
 72
     1
  1
\A1;141
  7
STYLE1
 11
0.0287479117491228
 21
0.9995866933738486
 31
0.0
 73
     1
 44
1.0
1001
ACAD
1000
MTEXTBEGIN
1070
    73
1070
     1
1070
    44
1040
1.0
1070
    74
1070
     0
1000
MTEXTEND
  0
POINT
  5
19936
330
1910A
100
AcDbEntity
  8
DEFPOINTS
 62
     0
 48
50.0
100
AcDbPoint
 10
4028.435509940623
 20
4491.708029201065
 30
0.0
  0
POINT
  5
19937
330
1910A
100
AcDbEntity
  8
DEFPOINTS
 62
     0
 48
50.0
100
AcDbPoint
 10
4024.382054383996
 20
4350.76630543535
 30
0.0
  0
POINT
  5
19938
330
1910A
100
AcDbEntity
  8
DEFPOINTS
 62
     0
 48
50.0
100
AcDbPoint
 10
3448.431083013672
 20
4367.330539239714
 30
0.0
  0
ENDBLK
  5
19116
330
1910A
100
AcDbEntity
  8
0
 48
50.0
100
AcDbBlockEnd
  0
BLOCK
  5
19123
330
19117
100
AcDbEntity
  8
0
 48
50.0
100
AcDbBlockBegin
  2
*D21
 70
     1
 10
0.0
 20
0.0
 30
0.0
  3
*D21
  1

  0
LINE
  5
19924
330
19117
100
AcDbEntity
  8
寸法
 62
     0
 48
50.0
370
    -2
100
AcDbLine
 10
4049.039489782044
 20
2467.985280366385
 30
0.0
 11
3385.386780623747
 21
2467.985280366385
 31
0.0
  0
LINE
  5
19925
330
19117
100
AcDbEntity
  8
寸法
 62
     0
 48
50.0
370
    -2
100
AcDbLine
 10
3994.039489782045
 20
2417.985280366385
 30
0.0
 11
3385.386780623747
 21
2417.985280366385
 31
0.0
  0
LINE
  5
19926
330
19117
100
AcDbEntity
  8
寸法
 62
     0
 48
50.0
370
    -2
100
AcDbLine
 10
3445.386780623748
 20
2467.985280366385
 30
0.0
 11
3445.386780623748
 21
2567.985280366385
 31
0.0
  0
LINE
  5
19927
330
19117
100
AcDbEntity
  8
寸法
 62
     0
 48
50.0
370
    -2
100
AcDbLine
 10
3445.386780623748
 20
2417.985280366385
 30
0.0
 11
3445.386780623748
 21
2005.890792177402
 31
0.0
  0
LINE
  5
19928
330
19117
100
AcDbEntity
  8
寸法
 62
     0
 48
50.0
370
    -2
100
AcDbLine
 10
3445.386780623748
 20
2467.985280366385
 30
0.0
 11
3445.386780623748
 21
2417.985280366385
 31
0.0
  0
INSERT
  5
19929
330
19117
100
AcDbEntity
  8
寸法
 62
     0
 48
50.0
370
    -2
100
AcDbBlockReference
  2
_DOTSMALL
 10
3445.386780623748
 20
2467.985280366385
 30
0.0
 41
100.0
 42
100.0
 43
100.0
 50
270.0
  0
INSERT
  5
1992A
330
19117
100
AcDbEntity
  8
寸法
 62
     0
 48
50.0
370
    -2
100
AcDbBlockReference
  2
_DOTSMALL
 10
3445.386780623748
 20
2417.985280366385
 30
0.0
 41
100.0
 42
100.0
 43
100.0
 50
90.0
  0
MTEXT
  5
1992B
330
19117
100
AcDbEntity
  8
寸法
 62
     7
 48
50.0
100
AcDbMText
 10
3345.386780623747
 20
2111.938036271891
 30
0.0
 40
120.0
 41
0.0
 71
     5
 72
     1
  1
\A1;50
  7
STYLE1
 11
0.0000000000000001
 21
1.0
 31
0.0
 73
     1
 44
1.0
1001
ACAD
1000
MTEXTBEGIN
1070
    73
1070
     1
1070
    44
1040
1.0
1070
    74
1070
     0
1000
MTEXTEND
  0
POINT
  5
1992C
330
19117
100
AcDbEntity
  8
DEFPOINTS
 62
     0
 48
50.0
100
AcDbPoint
 10
4069.039489782045
 20
2467.985280366385
 30
0.0
  0
POINT
  5
1992D
330
19117
100
AcDbEntity
  8
DEFPOINTS
 62
     0
 48
50.0
100
AcDbPoint
 10
4014.039489782044
 20
2417.985280366385
 30
0.0
  0
POINT
  5
1992E
330
19117
100
AcDbEntity
  8
DEFPOINTS
 62
     0
 48
50.0
100
AcDbPoint
 10
3445.386780623748
 20
2417.985280366385
 30
0.0
  0
ENDBLK
  5
19124
330
19117
100
AcDbEntity
  8
0
 48
50.0
100
AcDbBlockEnd
  0
BLOCK
  5
19130
330
19125
100
AcDbEntity
  8
0
 48
50.0
100
AcDbBlockBegin
  2
*D22
 70
     1
 10
0.0
 20
0.0
 30
0.0
  3
*D22
  1

  0
LINE
  5
1991A
330
19125
100
AcDbEntity
  8
寸法
 62
     0
 48
50.0
370
    -2
100
AcDbLine
 10
3994.039489782045
 20
2417.985280366385
 30
0.0
 11
3100.400107852686
 21
2417.985280366385
 31
0.0
  0
LINE
  5
1991B
330
19125
100
AcDbEntity
  8
寸法
 62
     0
 48
50.0
370
    -2
100
AcDbLine
 10
3425.386780623747
 20
2317.985280366385
 30
0.0
 11
3100.400107852686
 21
2317.985280366385
 31
0.0
  0
LINE
  5
1991C
330
19125
100
AcDbEntity
  8
寸法
 62
     0
 48
50.0
370
    -2
100
AcDbLine
 10
3160.400107852686
 20
2417.985280366385
 30
0.0
 11
3160.400107852686
 21
2317.985280366385
 31
0.0
  0
LINE
  5
1991D
330
19125
100
AcDbEntity
  8
寸法
 62
     0
 48
50.0
370
    -2
100
AcDbLine
 10
3160.400107852686
 20
2317.985280366385
 30
0.0
 11
3160.400107852686
 21
1945.890792177402
 31
0.0
  0
INSERT
  5
1991E
330
19125
100
AcDbEntity
  8
寸法
 62
     0
 48
50.0
370
    -2
100
AcDbBlockReference
  2
_DOTSMALL
 10
3160.400107852686
 20
2417.985280366385
 30
0.0
 41
100.0
 42
100.0
 43
100.0
 50
90.0
  0
INSERT
  5
1991F
330
19125
100
AcDbEntity
  8
寸法
 62
     0
 48
50.0
370
    -2
100
AcDbBlockReference
  2
_DOTSMALL
 10
3160.400107852686
 20
2317.985280366385
 30
0.0
 41
100.0
 42
100.0
 43
100.0
 50
270.0
  0
MTEXT
  5
19920
330
19125
100
AcDbEntity
  8
寸法
 62
     7
 48
50.0
100
AcDbMText
 10
3060.400107852685
 20
2081.938036271891
 30
0.0
 40
120.0
 41
0.0
 71
     5
 72
     1
  1
\A1;100
  7
STYLE1
 11
0.0000000000000001
 21
1.0
 31
0.0
 73
     1
 44
1.0
1001
ACAD
1000
MTEXTBEGIN
1070
    73
1070
     1
1070
    44
1040
1.0
1070
    74
1070
     0
1000
MTEXTEND
  0
POINT
  5
19921
330
19125
100
AcDbEntity
  8
DEFPOINTS
 62
     0
 48
50.0
100
AcDbPoint
 10
4014.039489782044
 20
2417.985280366385
 30
0.0
  0
POINT
  5
19922
330
19125
100
AcDbEntity
  8
DEFPOINTS
 62
     0
 48
50.0
100
AcDbPoint
 10
3445.386780623747
 20
2317.985280366385
 30
0.0
  0
POINT
  5
19923
330
19125
100
AcDbEntity
  8
DEFPOINTS
 62
     0
 48
50.0
100
AcDbPoint
 10
3160.400107852686
 20
2317.985280366385
 30
0.0
  0
ENDBLK
  5
19131
330
19125
100
AcDbEntity
  8
0
 48
50.0
100
AcDbBlockEnd
  0
BLOCK
  5
1913C
330
19132
100
AcDbEntity
  8
0
 48
50.0
100
AcDbBlockBegin
  2
*D23
 70
     1
 10
0.0
 20
0.0
 30
0.0
  3
*D23
  1

  0
LINE
  5
19911
330
19132
100
AcDbEntity
  8
寸法
 62
     0
 48
50.0
370
    -2
100
AcDbLine
 10
4049.039489782044
 20
2417.985280366385
 30
0.0
 11
3100.400107852686
 21
2417.985280366385
 31
0.0
  0
LINE
  5
19912
330
19132
100
AcDbEntity
  8
寸法
 62
     0
 48
50.0
370
    -2
100
AcDbLine
 10
3989.039489782044
 20
4492.985280366389
 30
0.0
 11
3100.400107852686
 21
4492.985280366389
 31
0.0
  0
LINE
  5
19913
330
19132
100
AcDbEntity
  8
寸法
 62
     0
 48
50.0
370
    -2
100
AcDbLine
 10
3160.400107852686
 20
2417.985280366385
 30
0.0
 11
3160.400107852686
 21
4492.985280366389
 31
0.0
  0
INSERT
  5
19914
330
19132
100
AcDbEntity
  8
寸法
 62
     0
 48
50.0
370
    -2
100
AcDbBlockReference
  2
_DOTSMALL
 10
3160.400107852686
 20
2417.985280366385
 30
0.0
 41
100.0
 42
100.0
 43
100.0
 50
270.0
  0
INSERT
  5
19915
330
19132
100
AcDbEntity
  8
寸法
 62
     0
 48
50.0
370
    -2
100
AcDbBlockReference
  2
_DOTSMALL
 10
3160.400107852686
 20
4492.985280366389
 30
0.0
 41
100.0
 42
100.0
 43
100.0
 50
90.0
  0
MTEXT
  5
19916
330
19132
100
AcDbEntity
  8
寸法
 62
     7
 48
50.0
100
AcDbMText
 10
3060.388296829064
 20
3412.191157859496
 30
0.0
 40
120.0
 41
0.0
 71
     5
 72
     1
  1
\A1;2075
  7
STYLE1
 11
0.0000000000000001
 21
1.0
 31
0.0
 73
     1
 44
1.0
1001
ACAD
1000
MTEXTBEGIN
1070
    73
1070
     1
1070
    44
1040
1.0
1070
    74
1070
     0
1000
MTEXTEND
  0
POINT
  5
19917
330
19132
100
AcDbEntity
  8
DEFPOINTS
 62
     0
 48
50.0
100
AcDbPoint
 10
4069.039489782045
 20
2417.985280366385
 30
0.0
  0
POINT
  5
19918
330
19132
100
AcDbEntity
  8
DEFPOINTS
 62
     0
 48
50.0
100
AcDbPoint
 10
4009.039489782044
 20
4492.985280366389
 30
0.0
  0
POINT
  5
19919
330
19132
100
AcDbEntity
  8
DEFPOINTS
 62
     0
 48
50.0
100
AcDbPoint
 10
3160.400107852686
 20
4492.985280366389
 30
0.0
  0
ENDBLK
  5
1913D
330
19132
100
AcDbEntity
  8
0
 48
50.0
100
AcDbBlockEnd
  0
BLOCK
  5
19148
330
1913E
100
AcDbEntity
  8
0
 48
50.0
100
AcDbBlockBegin
  2
*D24
 70
     1
 10
0.0
 20
0.0
 30
0.0
  3
*D24
  1

  0
LINE
  5
19908
330
1913E
100
AcDbEntity
  8
寸法
 62
     0
 48
50.0
370
    -2
100
AcDbLine
 10
4049.039489782044
 20
4257.985280366385
 30
0.0
 11
3385.386780623747
 21
4257.985280366385
 31
0.0
  0
LINE
  5
19909
330
1913E
100
AcDbEntity
  8
寸法
 62
     0
 48
50.0
370
    -2
100
AcDbLine
 10
4049.039489782044
 20
2467.985280366385
 30
0.0
 11
3385.386780623747
 21
2467.985280366385
 31
0.0
  0
LINE
  5
1990A
330
1913E
100
AcDbEntity
  8
寸法
 62
     0
 48
50.0
370
    -2
100
AcDbLine
 10
3445.386780623748
 20
4257.985280366385
 30
0.0
 11
3445.386780623748
 21
2467.985280366385
 31
0.0
  0
INSERT
  5
1990B
330
1913E
100
AcDbEntity
  8
寸法
 62
     0
 48
50.0
370
    -2
100
AcDbBlockReference
  2
_DOTSMALL
 10
3445.386780623748
 20
4257.985280366385
 30
0.0
 41
100.0
 42
100.0
 43
100.0
 50
90.0
  0
INSERT
  5
1990C
330
1913E
100
AcDbEntity
  8
寸法
 62
     0
 48
50.0
370
    -2
100
AcDbBlockReference
  2
_DOTSMALL
 10
3445.386780623748
 20
2467.985280366385
 30
0.0
 41
100.0
 42
100.0
 43
100.0
 50
270.0
  0
MTEXT
  5
1990D
330
1913E
100
AcDbEntity
  8
寸法
 62
     7
 48
50.0
100
AcDbMText
 10
3345.386780623747
 20
3358.439578908343
 30
0.0
 40
120.0
 41
0.0
 71
     5
 72
     1
  1
\A1;1790
  7
STYLE1
 11
0.0000000000000001
 21
1.0
 31
0.0
 73
     1
 44
1.0
1001
ACAD
1000
MTEXTBEGIN
1070
    73
1070
     1
1070
    44
1040
1.0
1070
    74
1070
     0
1000
MTEXTEND
  0
POINT
  5
1990E
330
1913E
100
AcDbEntity
  8
DEFPOINTS
 62
     0
 48
50.0
100
AcDbPoint
 10
4069.039489782045
 20
4257.985280366385
 30
0.0
  0
POINT
  5
1990F
330
1913E
100
AcDbEntity
  8
DEFPOINTS
 62
     0
 48
50.0
100
AcDbPoint
 10
4069.039489782045
 20
2467.985280366385
 30
0.0
  0
POINT
  5
19910
330
1913E
100
AcDbEntity
  8
DEFPOINTS
 62
     0
 48
50.0
100
AcDbPoint
 10
3445.386780623748
 20
2467.985280366385
 30
0.0
  0
ENDBLK
  5
19149
330
1913E
100
AcDbEntity
  8
0
 48
50.0
100
AcDbBlockEnd
  0
BLOCK
  5
19155
330
1914A
100
AcDbEntity
  8
0
 48
50.0
100
AcDbBlockBegin
  2
*D25
 70
     1
 10
0.0
 20
0.0
 30
0.0
  3
*D25
  1

  0
LINE
  5
198FE
330
1914A
100
AcDbEntity
  8
寸法
 62
     0
 48
50.0
370
    -2
100
AcDbLine
 10
6279.039489782044
 20
4459.795959978037
 30
0.0
 11
6279.039489782044
 21
4951.642733945689
 31
0.0
  0
LINE
  5
198FF
330
1914A
100
AcDbEntity
  8
寸法
 62
     0
 48
50.0
370
    -2
100
AcDbLine
 10
6359.039489782045
 20
4457.985280366385
 30
0.0
 11
6359.039489782045
 21
4951.642733945689
 31
0.0
  0
LINE
  5
19900
330
1914A
100
AcDbEntity
  8
寸法
 62
     0
 48
50.0
370
    -2
100
AcDbLine
 10
6279.039489782044
 20
4891.642733945689
 30
0.0
 11
6359.039489782045
 21
4891.642733945689
 31
0.0
  0
LINE
  5
19901
330
1914A
100
AcDbEntity
  8
寸法
 62
     0
 48
50.0
370
    -2
100
AcDbLine
 10
6359.039489782045
 20
4891.642733945689
 30
0.0
 11
6671.13397797102
 21
4891.642733945689
 31
0.0
  0
INSERT
  5
19902
330
1914A
100
AcDbEntity
  8
寸法
 62
     0
 48
50.0
370
    -2
100
AcDbBlockReference
  2
_DOTSMALL
 10
6279.039489782044
 20
4891.642733945689
 30
0.0
 41
100.0
 42
100.0
 43
100.0
 50
180.0
  0
INSERT
  5
19903
330
1914A
100
AcDbEntity
  8
寸法
 62
     0
 48
50.0
370
    -2
100
AcDbBlockReference
  2
_DOTSMALL
 10
6359.039489782045
 20
4891.642733945689
 30
0.0
 41
100.0
 42
100.0
 43
100.0
  0
MTEXT
  5
19904
330
1914A
100
AcDbEntity
  8
寸法
 62
     7
 48
50.0
100
AcDbMText
 10
6565.086733876532
 20
4991.642733945688
 30
0.0
 40
120.0
 41
0.0
 71
     5
 72
     1
  1
\A1;80
  7
STYLE1
 73
     1
 44
1.0
1001
ACAD
1000
MTEXTBEGIN
1070
    73
1070
     1
1070
    44
1040
1.0
1070
    74
1070
     0
1000
MTEXTEND
  0
POINT
  5
19905
330
1914A
100
AcDbEntity
  8
DEFPOINTS
 62
     0
 48
50.0
100
AcDbPoint
 10
6279.039489782044
 20
4439.795959978037
 30
0.0
  0
POINT
  5
19906
330
1914A
100
AcDbEntity
  8
DEFPOINTS
 62
     0
 48
50.0
100
AcDbPoint
 10
6359.039489782045
 20
4437.985280366385
 30
0.0
  0
POINT
  5
19907
330
1914A
100
AcDbEntity
  8
DEFPOINTS
 62
     0
 48
50.0
100
AcDbPoint
 10
6359.039489782045
 20
4891.642733945689
 30
0.0
  0
ENDBLK
  5
19156
330
1914A
100
AcDbEntity
  8
0
 48
50.0
100
AcDbBlockEnd
  0
BLOCK
  5
19161
330
19157
100
AcDbEntity
  8
0
 48
50.0
100
AcDbBlockBegin
  2
*D26
 70
     1
 10
0.0
 20
0.0
 30
0.0
  3
*D26
  1

  0
LINE
  5
198F5
330
19157
100
AcDbEntity
  8
寸法
 62
     0
 48
50.0
370
    -2
100
AcDbLine
 10
6359.039489782045
 20
4457.985280366385
 30
0.0
 11
6359.039489782045
 21
5170.84456761998
 31
0.0
  0
LINE
  5
198F6
330
19157
100
AcDbEntity
  8
寸法
 62
     0
 48
50.0
370
    -2
100
AcDbLine
 10
4009.039489782044
 20
4512.985280366389
 30
0.0
 11
4009.039489782044
 21
5170.84456761998
 31
0.0
  0
LINE
  5
198F7
330
19157
100
AcDbEntity
  8
寸法
 62
     0
 48
50.0
370
    -2
100
AcDbLine
 10
6359.039489782045
 20
5110.84456761998
 30
0.0
 11
4009.039489782044
 21
5110.84456761998
 31
0.0
  0
INSERT
  5
198F8
330
19157
100
AcDbEntity
  8
寸法
 62
     0
 48
50.0
370
    -2
100
AcDbBlockReference
  2
_DOTSMALL
 10
6359.039489782045
 20
5110.84456761998
 30
0.0
 41
100.0
 42
100.0
 43
100.0
  0
INSERT
  5
198F9
330
19157
100
AcDbEntity
  8
寸法
 62
     0
 48
50.0
370
    -2
100
AcDbBlockReference
  2
_DOTSMALL
 10
4009.039489782044
 20
5110.84456761998
 30
0.0
 41
100.0
 42
100.0
 43
100.0
 50
180.0
  0
MTEXT
  5
198FA
330
19157
100
AcDbEntity
  8
寸法
 62
     7
 48
50.0
100
AcDbMText
 10
5243.383343874513
 20
5210.856378643601
 30
0.0
 40
120.0
 41
0.0
 71
     5
 72
     1
  1
\A1;2350
  7
STYLE1
 73
     1
 44
1.0
1001
ACAD
1000
MTEXTBEGIN
1070
    73
1070
     1
1070
    44
1040
1.0
1070
    74
1070
     0
1000
MTEXTEND
  0
POINT
  5
198FB
330
19157
100
AcDbEntity
  8
DEFPOINTS
 62
     0
 48
50.0
100
AcDbPoint
 10
6359.039489782045
 20
4437.985280366385
 30
0.0
  0
POINT
  5
198FC
330
19157
100
AcDbEntity
  8
DEFPOINTS
 62
     0
 48
50.0
100
AcDbPoint
 10
4009.039489782044
 20
4492.985280366389
 30
0.0
  0
POINT
  5
198FD
330
19157
100
AcDbEntity
  8
DEFPOINTS
 62
     0
 48
50.0
100
AcDbPoint
 10
4009.039489782044
 20
5110.84456761998
 30
0.0
  0
ENDBLK
  5
19162
330
19157
100
AcDbEntity
  8
0
 48
50.0
100
AcDbBlockEnd
  0
BLOCK
  5
1916F
330
19163
100
AcDbEntity
  8
0
 48
50.0
100
AcDbBlockBegin
  2
*D27
 70
     1
 10
0.0
 20
0.0
 30
0.0
  3
*D27
  1

  0
LINE
  5
198EA
330
19163
100
AcDbEntity
  8
寸法
 62
     0
 48
50.0
370
    -2
100
AcDbLine
 10
4069.039489782045
 20
4508.986898489362
 30
0.0
 11
4069.039489782045
 21
4951.642733945689
 31
0.0
  0
LINE
  5
198EB
330
19163
100
AcDbEntity
  8
寸法
 62
     0
 48
50.0
370
    -2
100
AcDbLine
 10
4009.039489782044
 20
4512.985280366389
 30
0.0
 11
4009.039489782044
 21
4951.642733945689
 31
0.0
  0
LINE
  5
198EC
330
19163
100
AcDbEntity
  8
寸法
 62
     0
 48
50.0
370
    -2
100
AcDbLine
 10
4069.039489782045
 20
4891.642733945689
 30
0.0
 11
4169.039489782044
 21
4891.642733945689
 31
0.0
  0
LINE
  5
198ED
330
19163
100
AcDbEntity
  8
寸法
 62
     0
 48
50.0
370
    -2
100
AcDbLine
 10
4009.039489782044
 20
4891.642733945689
 30
0.0
 11
3589.76389923086
 21
4891.642733945689
 31
0.0
  0
LINE
  5
198EE
330
19163
100
AcDbEntity
  8
寸法
 62
     0
 48
50.0
370
    -2
100
AcDbLine
 10
4069.039489782045
 20
4891.642733945689
 30
0.0
 11
4009.039489782044
 21
4891.642733945689
 31
0.0
  0
INSERT
  5
198EF
330
19163
100
AcDbEntity
  8
寸法
 62
     0
 48
50.0
370
    -2
100
AcDbBlockReference
  2
_DOTSMALL
 10
4069.039489782045
 20
4891.642733945689
 30
0.0
 41
100.0
 42
100.0
 43
100.0
 50
180.0
  0
INSERT
  5
198F0
330
19163
100
AcDbEntity
  8
寸法
 62
     0
 48
50.0
370
    -2
100
AcDbBlockReference
  2
_DOTSMALL
 10
4009.039489782044
 20
4891.642733945689
 30
0.0
 41
100.0
 42
100.0
 43
100.0
  0
MTEXT
  5
198F1
330
19163
100
AcDbEntity
  8
寸法
 62
     7
 48
50.0
100
AcDbMText
 10
3699.401694506451
 20
4991.642733945688
 30
0.0
 40
120.0
 41
0.0
 71
     5
 72
     1
  1
\A1;60
  7
STYLE1
 73
     1
 44
1.0
1001
ACAD
1000
MTEXTBEGIN
1070
    73
1070
     1
1070
    44
1040
1.0
1070
    74
1070
     0
1000
MTEXTEND
  0
POINT
  5
198F2
330
19163
100
AcDbEntity
  8
DEFPOINTS
 62
     0
 48
50.0
100
AcDbPoint
 10
4069.039489782045
 20
4488.986898489361
 30
0.0
  0
POINT
  5
198F3
330
19163
100
AcDbEntity
  8
DEFPOINTS
 62
     0
 48
50.0
100
AcDbPoint
 10
4009.039489782044
 20
4492.985280366389
 30
0.0
  0
POINT
  5
198F4
330
19163
100
AcDbEntity
  8
DEFPOINTS
 62
     0
 48
50.0
100
AcDbPoint
 10
4009.039489782044
 20
4891.642733945689
 30
0.0
  0
ENDBLK
  5
19170
330
19163
100
AcDbEntity
  8
0
 48
50.0
100
AcDbBlockEnd
  0
BLOCK
  5
1917B
330
19171
100
AcDbEntity
  8
0
 48
50.0
100
AcDbBlockBegin
  2
*D28
 70
     1
 10
0.0
 20
0.0
 30
0.0
  3
*D28
  1

  0
LINE
  5
198E1
330
19171
100
AcDbEntity
  8
寸法
 62
     0
 48
50.0
370
    -2
100
AcDbLine
 10
6279.039489782044
 20
4459.795959978037
 30
0.0
 11
6279.039489782044
 21
4951.642733945689
 31
0.0
  0
LINE
  5
198E2
330
19171
100
AcDbEntity
  8
寸法
 62
     0
 48
50.0
370
    -2
100
AcDbLine
 10
4069.039489782045
 20
4508.986898489362
 30
0.0
 11
4069.039489782045
 21
4951.642733945689
 31
0.0
  0
LINE
  5
198E3
330
19171
100
AcDbEntity
  8
寸法
 62
     0
 48
50.0
370
    -2
100
AcDbLine
 10
6279.039489782044
 20
4891.642733945689
 30
0.0
 11
4069.039489782045
 21
4891.642733945689
 31
0.0
  0
INSERT
  5
198E4
330
19171
100
AcDbEntity
  8
寸法
 62
     0
 48
50.0
370
    -2
100
AcDbBlockReference
  2
_DOTSMALL
 10
6279.039489782044
 20
4891.642733945689
 30
0.0
 41
100.0
 42
100.0
 43
100.0
  0
INSERT
  5
198E5
330
19171
100
AcDbEntity
  8
寸法
 62
     0
 48
50.0
370
    -2
100
AcDbBlockReference
  2
_DOTSMALL
 10
4069.039489782045
 20
4891.642733945689
 30
0.0
 41
100.0
 42
100.0
 43
100.0
 50
180.0
  0
MTEXT
  5
198E6
330
19171
100
AcDbEntity
  8
寸法
 62
     7
 48
50.0
100
AcDbMText
 10
5163.684226852558
 20
4991.654544969311
 30
0.0
 40
120.0
 41
0.0
 71
     5
 72
     1
  1
\A1;柱外寸法2210
  7
STYLE1
 73
     1
 44
1.0
1001
ACAD
1000
MTEXTBEGIN
1070
    73
1070
     1
1070
    44
1040
1.0
1070
    74
1070
     0
1000
MTEXTEND
  0
POINT
  5
198E7
330
19171
100
AcDbEntity
  8
DEFPOINTS
 62
     0
 48
50.0
100
AcDbPoint
 10
6279.039489782044
 20
4439.795959978037
 30
0.0
  0
POINT
  5
198E8
330
19171
100
AcDbEntity
  8
DEFPOINTS
 62
     0
 48
50.0
100
AcDbPoint
 10
4069.039489782045
 20
4488.986898489361
 30
0.0
  0
POINT
  5
198E9
330
19171
100
AcDbEntity
  8
DEFPOINTS
 62
     0
 48
50.0
100
AcDbPoint
 10
4069.039489782045
 20
4891.642733945689
 30
0.0
  0
ENDBLK
  5
1917C
330
19171
100
AcDbEntity
  8
0
 48
50.0
100
AcDbBlockEnd
  0
BLOCK
  5
19187
330
1917D
100
AcDbEntity
  8
0
 48
50.0
100
AcDbBlockBegin
  2
*D29
 70
     1
 10
0.0
 20
0.0
 30
0.0
  3
*D29
  1

  0
LINE
  5
198D8
330
1917D
100
AcDbEntity
  8
寸法
 62
     0
 48
50.0
370
    -2
100
AcDbLine
 10
6376.039489782044
 20
2417.985280366384
 30
0.0
 11
6899.146113723634
 21
2417.985280366384
 31
0.0
  0
LINE
  5
198D9
330
1917D
100
AcDbEntity
  8
寸法
 62
     0
 48
50.0
370
    -2
100
AcDbLine
 10
6379.039489782044
 20
4437.985280366385
 30
0.0
 11
6899.146113723634
 21
4437.985280366385
 31
0.0
  0
LINE
  5
198DA
330
1917D
100
AcDbEntity
  8
寸法
 62
     0
 48
50.0
370
    -2
100
AcDbLine
 10
6839.146113723633
 20
2417.985280366384
 30
0.0
 11
6839.146113723633
 21
4437.985280366385
 31
0.0
  0
INSERT
  5
198DB
330
1917D
100
AcDbEntity
  8
寸法
 62
     0
 48
50.0
370
    -2
100
AcDbBlockReference
  2
_DOTSMALL
 10
6839.146113723633
 20
2417.985280366384
 30
0.0
 41
100.0
 42
100.0
 43
100.0
 50
270.0
  0
INSERT
  5
198DC
330
1917D
100
AcDbEntity
  8
寸法
 62
     0
 48
50.0
370
    -2
100
AcDbBlockReference
  2
_DOTSMALL
 10
6839.146113723633
 20
4437.985280366385
 30
0.0
 41
100.0
 42
100.0
 43
100.0
 50
90.0
  0
MTEXT
  5
198DD
330
1917D
100
AcDbEntity
  8
寸法
 62
     7
 48
50.0
100
AcDbMText
 10
6739.134302700012
 20
3440.037961613322
 30
0.0
 40
120.0
 41
0.0
 71
     5
 72
     1
  1
\A1;2020
  7
STYLE1
 11
0.0000000000000001
 21
1.0
 31
0.0
 73
     1
 44
1.0
1001
ACAD
1000
MTEXTBEGIN
1070
    73
1070
     1
1070
    44
1040
1.0
1070
    74
1070
     0
1000
MTEXTEND
  0
POINT
  5
198DE
330
1917D
100
AcDbEntity
  8
DEFPOINTS
 62
     0
 48
50.0
100
AcDbPoint
 10
6356.039489782045
 20
2417.985280366384
 30
0.0
  0
POINT
  5
198DF
330
1917D
100
AcDbEntity
  8
DEFPOINTS
 62
     0
 48
50.0
100
AcDbPoint
 10
6359.039489782045
 20
4437.985280366385
 30
0.0
  0
POINT
  5
198E0
330
1917D
100
AcDbEntity
  8
DEFPOINTS
 62
     0
 48
50.0
100
AcDbPoint
 10
6839.146113723633
 20
4437.985280366385
 30
0.0
  0
ENDBLK
  5
19188
330
1917D
100
AcDbEntity
  8
0
 48
50.0
100
AcDbBlockEnd
  0
BLOCK
  5
19BB4
330
19BAA
100
AcDbEntity
  8
0
 48
50.0
100
AcDbBlockBegin
  2
*D30
 70
     1
 10
0.0
 20
0.0
 30
0.0
  3
*D30
  1

  0
LINE
  5
1A063
330
19BAA
100
AcDbEntity
  8
寸法
 62
     0
 48
50.0
370
    -2
100
AcDbLine
 10
8868.136519119282
 20
7472.645503741834
 30
0.0
 11
8868.136519119282
 21
6796.095088836489
 31
0.0
  0
LINE
  5
1A064
330
19BAA
100
AcDbEntity
  8
寸法
 62
     0
 48
50.0
370
    -2
100
AcDbLine
 10
10134.13651911928
 20
7472.645503741834
 30
0.0
 11
10134.13651911928
 21
6796.095088836489
 31
0.0
  0
LINE
  5
1A065
330
19BAA
100
AcDbEntity
  8
寸法
 62
     0
 48
50.0
370
    -2
100
AcDbLine
 10
8888.136519119282
 20
6836.09508883649
 30
0.0
 11
10114.13651911928
 21
6836.09508883649
 31
0.0
  0
INSERT
  5
1A066
330
19BAA
100
AcDbEntity
  8
寸法
 62
     0
 48
50.0
370
    -2
100
AcDbBlockReference
  2
_DOT
 10
8868.136519119282
 20
6836.09508883649
 30
0.0
 41
20.0
 42
20.0
 43
20.0
 50
180.0
  0
INSERT
  5
1A067
330
19BAA
100
AcDbEntity
  8
寸法
 62
     0
 48
50.0
370
    -2
100
AcDbBlockReference
  2
_DOT
 10
10134.13651911928
 20
6836.09508883649
 30
0.0
 41
20.0
 42
20.0
 43
20.0
  0
MTEXT
  5
1A068
330
19BAA
100
AcDbEntity
  8
寸法
 62
     7
 48
50.0
100
AcDbMText
 10
9504.076547235483
 20
7028.106899860111
 30
0.0
 40
120.0
 41
0.0
 71
     5
 72
     1
  1
\A1;有効開口部間口\P1266
  7
STYLE1
 73
     1
 44
1.0
1001
ACAD
1000
MTEXTBEGIN
1070
    73
1070
     1
1070
    44
1040
1.0
1070
    74
1070
     0
1000
MTEXTEND
  0
POINT
  5
1A069
330
19BAA
100
AcDbEntity
  8
DEFPOINTS
 62
     0
 48
50.0
100
AcDbPoint
 10
8868.136519119282
 20
7492.645503741835
 30
0.0
  0
POINT
  5
1A06A
330
19BAA
100
AcDbEntity
  8
DEFPOINTS
 62
     0
 48
50.0
100
AcDbPoint
 10
10134.13651911928
 20
7492.645503741835
 30
0.0
  0
POINT
  5
1A06B
330
19BAA
100
AcDbEntity
  8
DEFPOINTS
 62
     0
 48
50.0
100
AcDbPoint
 10
10134.13651911928
 20
6836.09508883649
 30
0.0
  0
ENDBLK
  5
19BB5
330
19BAA
100
AcDbEntity
  8
0
 48
50.0
100
AcDbBlockEnd
  0
BLOCK
  5
19EF9
330
19EEF
100
AcDbEntity
  8
0
 48
50.0
100
AcDbBlockBegin
  2
*D31
 70
     1
 10
0.0
 20
0.0
 30
0.0
  3
*D31
  1

  0
LINE
  5
1A05A
330
19EEF
100
AcDbEntity
  8
寸法
 62
     0
 48
50.0
370
    -2
100
AcDbLine
 10
8829.136519119282
 20
7474.645503741799
 30
0.0
 11
8829.136519119282
 21
6472.301699502605
 31
0.0
  0
LINE
  5
1A05B
330
19EEF
100
AcDbEntity
  8
寸法
 62
     0
 48
50.0
370
    -2
100
AcDbLine
 10
10983.13651911928
 20
7474.645503741799
 30
0.0
 11
10983.13651911928
 21
6472.301699502605
 31
0.0
  0
LINE
  5
1A05C
330
19EEF
100
AcDbEntity
  8
寸法
 62
     0
 48
50.0
370
    -2
100
AcDbLine
 10
8829.136519119282
 20
6532.301699502605
 30
0.0
 11
10983.13651911928
 21
6532.301699502605
 31
0.0
  0
INSERT
  5
1A05D
330
19EEF
100
AcDbEntity
  8
寸法
 62
     0
 48
50.0
370
    -2
100
AcDbBlockReference
  2
_DOTSMALL
 10
8829.136519119282
 20
6532.301699502605
 30
0.0
 41
100.0
 42
100.0
 43
100.0
 50
180.0
  0
INSERT
  5
1A05E
330
19EEF
100
AcDbEntity
  8
寸法
 62
     0
 48
50.0
370
    -2
100
AcDbBlockReference
  2
_DOTSMALL
 10
10983.13651911928
 20
6532.301699502605
 30
0.0
 41
100.0
 42
100.0
 43
100.0
  0
MTEXT
  5
1A05F
330
19EEF
100
AcDbEntity
  8
寸法
 62
     7
 48
50.0
100
AcDbMText
 10
9884.273265315748
 20
6632.313510526227
 30
0.0
 40
120.0
 41
0.0
 71
     5
 72
     1
  1
\A1;2154
  7
STYLE1
 73
     1
 44
1.0
1001
ACAD
1000
MTEXTBEGIN
1070
    73
1070
     1
1070
    44
1040
1.0
1070
    74
1070
     0
1000
MTEXTEND
  0
POINT
  5
1A060
330
19EEF
100
AcDbEntity
  8
DEFPOINTS
 62
     0
 48
50.0
100
AcDbPoint
 10
8829.136519119282
 20
7494.645503741799
 30
0.0
  0
POINT
  5
1A061
330
19EEF
100
AcDbEntity
  8
DEFPOINTS
 62
     0
 48
50.0
100
AcDbPoint
 10
10983.13651911928
 20
7494.645503741799
 30
0.0
  0
POINT
  5
1A062
330
19EEF
100
AcDbEntity
  8
DEFPOINTS
 62
     0
 48
50.0
100
AcDbPoint
 10
10983.13651911928
 20
6532.301699502605
 30
0.0
  0
ENDBLK
  5
19EFA
330
19EEF
100
AcDbEntity
  8
0
 48
50.0
100
AcDbBlockEnd
  0
BLOCK
  5
19F07
330
19EFB
100
AcDbEntity
  8
0
 48
50.0
100
AcDbBlockBegin
  2
*D32
 70
     1
 10
0.0
 20
0.0
 30
0.0
  3
*D32
  1

  0
LINE
  5
1A04F
330
19EFB
100
AcDbEntity
  8
寸法
 62
     0
 48
50.0
370
    -2
100
AcDbLine
 10
8361.136519119307
 20
7569.645503741799
 30
0.0
 11
8046.525273492591
 21
7569.645503741799
 31
0.0
  0
LINE
  5
1A050
330
19EFB
100
AcDbEntity
  8
寸法
 62
     0
 48
50.0
370
    -2
100
AcDbLine
 10
8809.136519119283
 20
7494.645503741799
 30
0.0
 11
8046.525273492591
 21
7494.645503741799
 31
0.0
  0
LINE
  5
1A051
330
19EFB
100
AcDbEntity
  8
寸法
 62
     0
 48
50.0
370
    -2
100
AcDbLine
 10
8086.52527349259
 20
7589.645503741799
 30
0.0
 11
8086.52527349259
 21
7609.645503741799
 31
0.0
  0
LINE
  5
1A052
330
19EFB
100
AcDbEntity
  8
寸法
 62
     0
 48
50.0
370
    -2
100
AcDbLine
 10
8086.52527349259
 20
7474.645503741799
 30
0.0
 11
8086.52527349259
 21
7253.67494099332
 31
0.0
  0
LINE
  5
1A053
330
19EFB
100
AcDbEntity
  8
寸法
 62
     0
 48
50.0
370
    -2
100
AcDbLine
 10
8086.52527349259
 20
7569.645503741799
 30
0.0
 11
8086.52527349259
 21
7494.645503741799
 31
0.0
  0
INSERT
  5
1A054
330
19EFB
100
AcDbEntity
  8
寸法
 62
     0
 48
50.0
370
    -2
100
AcDbBlockReference
  2
_DOT
 10
8086.52527349259
 20
7569.645503741799
 30
0.0
 41
20.0
 42
20.0
 43
20.0
 50
270.0
  0
INSERT
  5
1A055
330
19EFB
100
AcDbEntity
  8
寸法
 62
     0
 48
50.0
370
    -2
100
AcDbBlockReference
  2
_DOT
 10
8086.52527349259
 20
7494.645503741799
 30
0.0
 41
20.0
 42
20.0
 43
20.0
 50
90.0
  0
MTEXT
  5
1A056
330
19EFB
100
AcDbEntity
  8
寸法
 62
     7
 48
50.0
100
AcDbMText
 10
7994.525273492588
 20
7354.160222367561
 30
0.0
 40
120.0
 41
0.0
 71
     5
 72
     1
  1
\A1;75
  7
STYLE1
 11
0.0000000000000001
 21
1.0
 31
0.0
 73
     1
 44
1.0
1001
ACAD
1000
MTEXTBEGIN
1070
    73
1070
     1
1070
    44
1040
1.0
1070
    74
1070
     0
1000
MTEXTEND
  0
POINT
  5
1A057
330
19EFB
100
AcDbEntity
  8
DEFPOINTS
 62
     0
 48
50.0
100
AcDbPoint
 10
8381.136519119307
 20
7569.645503741799
 30
0.0
  0
POINT
  5
1A058
330
19EFB
100
AcDbEntity
  8
DEFPOINTS
 62
     0
 48
50.0
100
AcDbPoint
 10
8829.136519119282
 20
7494.645503741799
 30
0.0
  0
POINT
  5
1A059
330
19EFB
100
AcDbEntity
  8
DEFPOINTS
 62
     0
 48
50.0
100
AcDbPoint
 10
8086.52527349259
 20
7494.645503741799
 30
0.0
  0
ENDBLK
  5
19F08
330
19EFB
100
AcDbEntity
  8
0
 48
50.0
100
AcDbBlockEnd
  0
BLOCK
  5
19F87
330
19F7D
100
AcDbEntity
  8
0
 48
50.0
100
AcDbBlockBegin
  2
*D33
 70
     1
 10
0.0
 20
0.0
 30
0.0
  3
*D33
  1

  0
LINE
  5
1A046
330
19F7D
100
AcDbEntity
  8
寸法
 62
     0
 48
50.0
370
    -2
100
AcDbLine
 10
8381.136519119307
 20
7549.645503741801
 30
0.0
 11
8381.136519119307
 21
6214.188587379343
 31
0.0
  0
LINE
  5
1A047
330
19F7D
100
AcDbEntity
  8
寸法
 62
     0
 48
50.0
370
    -2
100
AcDbLine
 10
11431.13651911929
 20
7549.645503741965
 30
0.0
 11
11431.13651911929
 21
6214.188587379343
 31
0.0
  0
LINE
  5
1A048
330
19F7D
100
AcDbEntity
  8
寸法
 62
     0
 48
50.0
370
    -2
100
AcDbLine
 10
8381.136519119307
 20
6274.188587379343
 30
0.0
 11
11431.13651911929
 21
6274.188587379343
 31
0.0
  0
INSERT
  5
1A049
330
19F7D
100
AcDbEntity
  8
寸法
 62
     0
 48
50.0
370
    -2
100
AcDbBlockReference
  2
_DOTSMALL
 10
8381.136519119307
 20
6274.188587379343
 30
0.0
 41
100.0
 42
100.0
 43
100.0
 50
180.0
  0
INSERT
  5
1A04A
330
19F7D
100
AcDbEntity
  8
寸法
 62
     0
 48
50.0
370
    -2
100
AcDbBlockReference
  2
_DOTSMALL
 10
11431.13651911929
 20
6274.188587379343
 30
0.0
 41
100.0
 42
100.0
 43
100.0
  0
MTEXT
  5
1A04B
330
19F7D
100
AcDbEntity
  8
寸法
 62
     7
 48
50.0
100
AcDbMText
 10
9880.082188216755
 20
6374.188587379343
 30
0.0
 40
120.0
 41
0.0
 71
     5
 72
     1
  1
\A1;3050
  7
STYLE1
 73
     1
 44
1.0
1001
ACAD
1000
MTEXTBEGIN
1070
    73
1070
     1
1070
    44
1040
1.0
1070
    74
1070
     0
1000
MTEXTEND
  0
POINT
  5
1A04C
330
19F7D
100
AcDbEntity
  8
DEFPOINTS
 62
     0
 48
50.0
100
AcDbPoint
 10
8381.136519119307
 20
7569.6455037418
 30
0.0
  0
POINT
  5
1A04D
330
19F7D
100
AcDbEntity
  8
DEFPOINTS
 62
     0
 48
50.0
100
AcDbPoint
 10
11431.13651911929
 20
7569.645503741965
 30
0.0
  0
POINT
  5
1A04E
330
19F7D
100
AcDbEntity
  8
DEFPOINTS
 62
     0
 48
50.0
100
AcDbPoint
 10
11431.13651911929
 20
6274.188587379343
 30
0.0
  0
ENDBLK
  5
19F88
330
19F7D
100
AcDbEntity
  8
0
 48
50.0
100
AcDbBlockEnd
  0
ENDSEC
  0
SECTION
  2
ENTITIES
  0
LINE
  5
10B57
330
747D
100
AcDbEntity
  8
補助
  6
PHANTOM
 62
   230
 48
50.0
100
AcDbLine
 10
139.9999999999995
 20
11409.6
 30
0.0
 11
16307.2
 21
11409.6
 31
0.0
  0
LINE
  5
10B59
330
747D
100
AcDbEntity
  8
仕様書枠
  6
Continuous
 48
50.0
100
AcDbLine
 10
13107.2
 20
1200.0
 30
0.0
 11
13107.2
 21
-0.0000000000000729
 31
0.0
  0
LINE
  5
10B5C
330
747D
100
AcDbEntity
  8
仕様書枠
 48
50.0
100
AcDbLine
 10
16307.2
 20
1200.0
 30
0.0
 11
16307.2
 21
-0.0000000000000909
 31
0.0
  0
LINE
  5
10B5D
330
747D
100
AcDbEntity
  8
仕様書枠
 48
50.0
100
AcDbLine
 10
140.0
 20
0.0
 30
0.0
 11
16307.2
 21
-0.0000000000000909
 31
0.0
  0
LINE
  5
10B5E
330
747D
100
AcDbEntity
  8
補助
  6
PHANTOM
 62
   230
 48
50.0
100
AcDbLine
 10
16307.2
 20
11409.6
 30
0.0
 11
16307.2
 21
1200.0
 31
0.0
  0
LINE
  5
10B6C
330
747D
100
AcDbEntity
  8
仕様書枠
 48
50.0
100
AcDbLine
 10
13107.2
 20
1200.0
 30
0.0
 11
16307.2
 21
1200.0
 31
0.0
  0
LINE
  5
10B6D
330
747D
100
AcDbEntity
  8
補助
  6
PHANTOM
 62
   230
 48
50.0
100
AcDbLine
 10
13107.2
 20
11409.6
 30
0.0
 11
13107.2
 21
4800.0
 31
0.0
  0
LINE
  5
10B6F
330
747D
100
AcDbEntity
  8
補助
  6
PHANTOM
 62
   230
 48
50.0
100
AcDbLine
 10
13107.2
 20
4800.0
 30
0.0
 11
16307.2
 21
4800.0
 31
0.0
  0
LINE
  5
10B72
330
747D
100
AcDbEntity
  8
文字
 62
     7
 48
50.0
100
AcDbLine
 10
13187.2
 20
400.0
 30
0.0
 11
16227.2
 21
400.0
 31
0.0
  0
TEXT
  5
10B73
330
747D
100
AcDbEntity
  8
文字
 62
     7
 48
50.0
100
AcDbText
 10
13162.9790565769
 20
895.0906074299405
 30
0.0
 40
200.0
  1
外 形 図
  7
STYLE2
100
AcDbText
  0
TEXT
  5
10B74
330
747D
100
AcDbEntity
  8
文字
 62
     7
 48
50.0
100
AcDbText
 10
13201.43669998441
 20
477.2740661031255
 30
0.0
 40
160.0
  1
機種名
  7
STYLE2
100
AcDbText
  0
TEXT
  5
10B76
330
747D
100
AcDbEntity
  8
文字
 62
     7
 48
50.0
100
AcDbText
 10
13209.4053442172
 20
76.09434707649343
 30
0.0
 40
100.0
  1
○床面積 ： 6.91㎡(2.09坪) 　
  7
STYLE2
100
AcDbText
  0
TEXT
  5
10B79
330
747D
100
AcDbEntity
  8
文字
 62
     7
 48
50.0
100
AcDbText
 10
14524.131837222
 20
1031.557706291228
 30
0.0
 40
100.0
  1
NO.29      <縮尺> S=1/40
  7
STYLE2
100
AcDbText
  0
LINE
  5
10B7B
330
747D
100
AcDbEntity
  8
仕様書枠
 48
50.0
100
AcDbLine
 10
13107.2
 20
800.0
 30
0.0
 11
14251.2
 21
800.0
 31
0.0
  0
LINE
  5
10B88
330
747D
100
AcDbEntity
  8
仕様書枠
  6
Continuous
 48
50.0
100
AcDbLine
 10
14251.2
 20
1200.0
 30
0.0
 11
14251.2
 21
800.0
 31
0.0
  0
TEXT
  5
154D3
330
747D
100
AcDbEntity
  8
文字
 62
     7
 48
50.0
100
AcDbText
 10
14643.63059855437
 20
863.0097378581719
 30
0.0
 40
100.0
  1
～一般型・多雪地型～
  7
STYLE2
100
AcDbText
  0
DIMENSION
  5
164B5
330
747D
100
AcDbEntity
  8
寸法
 48
50.0
100
AcDbDimension
  2
*D1
 10
8271.136519119304
 20
1831.937951066007
 30
0.0
 11
8371.136519119303
 21
1831.937951066007
 31
0.0
 70
   160
 71
     5
 42
200.0000000000018
  3
INABA_S40G
100
AcDbAlignedDimension
 13
8471.136519119305
 23
2117.985280366385
 33
0.0
 14
8271.136519119304
 24
2117.985280366385
 34
0.0
100
AcDbRotatedDimension
  0
LINE
  5
18400
330
747D
100
AcDbEntity
  8
部品1
100
AcDbLine
 10
11403.13651911931
 20
8044.645503741977
 30
0.0
 11
11431.13651911931
 21
8044.645503741977
 31
0.0
  0
LINE
  5
18401
330
747D
100
AcDbEntity
  8
部品1
100
AcDbLine
 10
8409.136519119288
 20
8044.645503741849
 30
0.0
 11
8381.136519119287
 21
8044.645503741849
 31
0.0
  0
LINE
  5
18402
330
747D
100
AcDbEntity
  8
部品1
100
AcDbLine
 10
11374.6365191193
 20
8044.645503741946
 30
0.0
 11
8437.636519119299
 21
8044.645503741849
 31
0.0
  0
LINE
  5
1847B
330
747D
100
AcDbEntity
  8
Ｇ．Ｌ
100
AcDbLine
 10
2160.782217724445
 20
2317.985280366385
 30
0.0
 11
12054.44907214815
 21
2317.985280366385
 31
0.0
  0
TEXT
  5
1847C
330
747D
100
AcDbEntity
  8
部品1
100
AcDbText
 10
9614.92658974304
 20
1436.053488170452
 30
0.0
 40
135.0
  1
正面図
  7
STYLE2
100
AcDbText
  0
LINE
  5
18482
330
747D
100
AcDbEntity
  8
部品1
100
AcDbLine
 10
9524.401186005084
 20
1628.947017388975
 30
0.0
 11
9524.401186005084
 21
1389.054695843442
 31
0.0
  0
LINE
  5
18483
330
747D
100
AcDbEntity
  8
部品1
100
AcDbLine
 10
9524.401186005084
 20
1389.054695843442
 30
0.0
 11
10287.87185223352
 21
1389.054695843442
 31
0.0
  0
LINE
  5
18484
330
747D
100
AcDbEntity
  8
部品1
100
AcDbLine
 10
10287.87185223352
 20
1389.054695843442
 30
0.0
 11
10287.87185223352
 21
1628.947017388975
 31
0.0
  0
LINE
  5
18485
330
747D
100
AcDbEntity
  8
部品1
100
AcDbLine
 10
10287.87185223352
 20
1628.947017388975
 30
0.0
 11
9524.401186005084
 21
1628.947017388975
 31
0.0
  0
DIMENSION
  5
18486
330
747D
100
AcDbEntity
  8
寸法
 48
50.0
100
AcDbDimension
  2
*D7
 10
8077.835459374908
 20
2475.985280366386
 30
0.0
 11
8077.835459374908
 21
3312.061206721082
 31
0.0
 70
   160
  1
有効開口部高サ<>
 71
     5
 42
1724.999999999999
  3
INABA_S40G
100
AcDbAlignedDimension
 13
8829.136519119305
 23
4200.985280366384
 33
0.0
 14
8829.136519119305
 24
2475.985280366386
 34
0.0
 50
90.0
100
AcDbRotatedDimension
  0
LINE
  5
1848A
330
747D
100
AcDbEntity
  8
部品1
100
AcDbLine
 10
8381.136519119303
 20
4257.985280366385
 30
0.0
 11
11431.1365191193
 21
4257.985280366385
 31
0.0
  0
LINE
  5
1848B
330
747D
100
AcDbEntity
  8
部品1
 48
50.0
100
AcDbLine
 10
8409.136519119305
 20
2417.985280366385
 30
0.0
 11
10983.1365191193
 21
2417.985280366385
 31
0.0
  0
LINE
  5
1848C
330
747D
100
AcDbEntity
  8
部品1
100
AcDbLine
 10
8381.136519119303
 20
4257.985280366385
 30
0.0
 11
11431.1365191193
 21
4257.985280366385
 31
0.0
  0
LINE
  5
1848D
330
747D
100
AcDbEntity
  8
部品1
100
AcDbLine
 10
8381.136519119303
 20
2417.985280366385
 30
0.0
 11
11431.1365191193
 21
2417.985280366385
 31
0.0
  0
LINE
  5
1848E
330
747D
100
AcDbEntity
  8
部品1
 48
50.0
100
AcDbLine
 10
8436.136519119306
 20
2467.985280366406
 30
0.0
 11
8436.136519119306
 21
4257.985280366385
 31
0.0
  0
LINE
  5
1848F
330
747D
100
AcDbEntity
  8
部品1
100
AcDbLine
 10
8381.136519119303
 20
4311.485280366385
 30
0.0
 11
8381.136519119303
 21
2317.985280366385
 31
0.0
  0
LINE
  5
18490
330
747D
100
AcDbEntity
  8
部品1
100
AcDbLine
 10
8376.136519119304
 20
2462.985280366388
 30
0.0
 11
8376.136519119304
 21
2317.985280366385
 31
0.0
  0
LINE
  5
18491
330
747D
100
AcDbEntity
  8
破線
 48
5.0
100
AcDbLine
 10
8376.136519119304
 20
2317.985280366385
 30
0.0
 11
8376.136519119304
 21
2162.985280366385
 31
0.0
  0
LINE
  5
18493
330
747D
100
AcDbEntity
  8
破線
 48
5.0
100
AcDbLine
 10
8356.136519119303
 20
2162.985280366385
 30
0.0
 11
8376.136519119304
 21
2162.985280366385
 31
0.0
  0
LINE
  5
18494
330
747D
100
AcDbEntity
  8
部品1
100
AcDbLine
 10
8781.136519119304
 20
2417.985280366385
 30
0.0
 11
8781.136519119304
 21
2317.985280366385
 31
0.0
  0
LINE
  5
18495
330
747D
100
AcDbEntity
  8
部品1
100
AcDbLine
 10
8381.136519119303
 20
2467.985280366406
 30
0.0
 11
8829.136519119305
 21
2467.985280366406
 31
0.0
  0
LINE
  5
18496
330
747D
100
AcDbEntity
  8
部品1
 48
50.0
100
AcDbLine
 10
9079.136519119304
 20
2417.985280366385
 30
0.0
 11
9079.136519119304
 21
2317.985280366385
 31
0.0
  0
LINE
  5
18497
330
747D
100
AcDbEntity
  8
部品1
 48
50.0
100
AcDbLine
 10
9279.136519119303
 20
2417.985280366385
 30
0.0
 11
9279.136519119303
 21
2317.985280366385
 31
0.0
  0
LINE
  5
18498
330
747D
100
AcDbEntity
  8
部品1
 48
50.0
100
AcDbLine
 10
9806.136519119304
 20
2417.985280366385
 30
0.0
 11
9806.136519119304
 21
2317.985280366385
 31
0.0
  0
LINE
  5
18499
330
747D
100
AcDbEntity
  8
部品1
 48
50.0
100
AcDbLine
 10
10006.1365191193
 20
2417.985280366385
 30
0.0
 11
10006.1365191193
 21
2317.985280366385
 31
0.0
  0
LINE
  5
1849A
330
747D
100
AcDbEntity
  8
部品1
100
AcDbLine
 10
11031.1365191193
 20
2417.985280366385
 30
0.0
 11
11031.1365191193
 21
2317.985280366385
 31
0.0
  0
LINE
  5
1849B
330
747D
100
AcDbEntity
  8
部品1
100
AcDbLine
 10
11431.1365191193
 20
4311.485280366385
 30
0.0
 11
11431.1365191193
 21
2317.985280366385
 31
0.0
  0
LINE
  5
1849C
330
747D
100
AcDbEntity
  8
部品1
100
AcDbLine
 10
11436.1365191193
 20
2462.985280366385
 30
0.0
 11
11436.1365191193
 21
2317.985280366385
 31
0.0
  0
LINE
  5
1849D
330
747D
100
AcDbEntity
  8
破線
 48
5.0
100
AcDbLine
 10
11436.1365191193
 20
2317.985280366385
 30
0.0
 11
11436.1365191193
 21
2162.985280366385
 31
0.0
  0
LINE
  5
1849E
330
747D
100
AcDbEntity
  8
破線
 48
5.0
100
AcDbLine
 10
11456.1365191193
 20
2162.985280366385
 30
0.0
 11
11436.1365191193
 21
2162.985280366385
 31
0.0
  0
LINE
  5
1849F
330
747D
100
AcDbEntity
  8
部品1
100
AcDbLine
 10
10983.1365191193
 20
2467.985280366406
 30
0.0
 11
11431.1365191193
 21
2467.985280366406
 31
0.0
  0
LINE
  5
184A0
330
747D
100
AcDbEntity
  8
部品1
100
AcDbLine
 10
11376.13651911931
 20
4257.985280366385
 30
0.0
 11
11376.1365191193
 21
2467.985280366406
 31
0.0
  0
LINE
  5
184A1
330
747D
100
AcDbEntity
  8
部品1
 48
50.0
100
AcDbLine
 10
10733.1365191193
 20
2417.985280366385
 30
0.0
 11
10733.1365191193
 21
2317.985280366385
 31
0.0
  0
LINE
  5
184A2
330
747D
100
AcDbEntity
  8
部品1
 48
50.0
100
AcDbLine
 10
10533.1365191193
 20
2417.985280366385
 30
0.0
 11
10533.1365191193
 21
2317.985280366385
 31
0.0
  0
LINE
  5
184A6
330
747D
100
AcDbEntity
  8
部品1
100
AcDbLine
 10
8409.136519119313
 20
9751.645503741878
 30
0.0
 11
9381.136519119314
 21
9751.645503741883
 31
0.0
  0
LINE
  5
184A7
330
747D
100
AcDbEntity
  8
細線
 48
50.0
100
AcDbLine
 10
9892.636519119314
 20
9299.645503741983
 30
0.0
 11
8409.636519119244
 21
9749.645503741925
 31
0.0
  0
LINE
  5
184A8
330
747D
100
AcDbEntity
  8
細線
 48
50.0
100
AcDbLine
 10
9892.636519119314
 20
9749.64550374198
 30
0.0
 11
8409.636519119244
 21
9299.645503741926
 31
0.0
  0
LINE
  5
184A9
330
747D
100
AcDbEntity
  8
部品1
100
AcDbLine
 10
8436.136519119314
 20
9751.645503741995
 30
0.0
 11
9893.636519119313
 21
9751.645503741995
 31
0.0
  0
LINE
  5
184AA
330
747D
100
AcDbEntity
  8
部品1
100
AcDbLine
 10
8409.636519119244
 20
9749.645503741925
 30
0.0
 11
9892.636519119314
 21
9749.645503741984
 31
0.0
  0
LINE
  5
184AB
330
747D
100
AcDbEntity
  8
部品1
100
AcDbLine
 10
8409.636519119244
 20
9299.645503741926
 30
0.0
 11
9892.636519119314
 21
9299.645503741983
 31
0.0
  0
LINE
  5
184AC
330
747D
100
AcDbEntity
  8
部品1
100
AcDbLine
 10
8856.136519119283
 20
7569.645503741835
 30
0.0
 11
8381.136519119307
 21
7569.645503741835
 31
0.0
  0
LINE
  5
184AD
330
747D
100
AcDbEntity
  8
破線
 48
10.0
100
AcDbLine
 10
9153.636519119292
 20
7649.645503741834
 30
0.0
 11
8461.1365191193
 21
7649.645503741846
 31
0.0
  0
DIMENSION
  5
184AE
330
747D
100
AcDbEntity
  8
寸法
100
AcDbDimension
  2
*D8
 10
9821.706512800639
 20
9034.931116379537
 30
0.0
 11
8969.322069950028
 21
9034.931116379537
 31
0.0
 70
   160
 71
     5
 42
1483.000000000071
  3
INABA_S40G
100
AcDbAlignedDimension
 13
8409.636519119237
 23
9299.64550374199
 33
0.0
 14
9892.636519119307
 24
9299.645503741983
 34
0.0
100
AcDbRotatedDimension
1001
ACAD
1000
DSTYLE
1002
{
1002
}
  0
DIMENSION
  5
184AF
330
747D
100
AcDbEntity
  8
寸法
100
AcDbDimension
  2
*D9
 10
11376.13651911931
 20
10279.64550374192
 30
0.0
 11
9906.136519119314
 21
10279.64550374192
 31
0.0
 70
   160
  1
7X420=<>
 71
     5
 42
2940.000000000002
  3
INABA_S40G
100
AcDbAlignedDimension
 13
8436.136519119314
 23
9779.645503741878
 33
0.0
 14
11376.13651911931
 24
9779.645503741974
 34
0.0
100
AcDbRotatedDimension
1001
ACAD
1000
DSTYLE
1002
{
1002
}
  0
LINE
  5
184B0
330
747D
100
AcDbEntity
  8
部品1
100
AcDbLine
 10
11374.63651911931
 20
7626.145503741965
 30
0.0
 11
8437.636519119207
 21
7626.145503741845
 31
0.0
  0
LINE
  5
184B1
330
747D
100
AcDbEntity
  8
部品1
100
AcDbLine
 10
8381.136519119314
 20
9779.645503741878
 30
0.0
 11
11431.13651911931
 21
9779.645503741974
 31
0.0
  0
LINE
  5
184B3
330
747D
100
AcDbEntity
  8
部品1
100
AcDbLine
 10
11374.6365191193
 20
8884.645503741948
 30
0.0
 11
8437.636519119299
 21
8884.645503741849
 31
0.0
  0
LINE
  5
184B4
330
747D
100
AcDbEntity
  8
部品1
 48
50.0
100
AcDbLine
 10
8409.136519119309
 20
7597.645503741947
 30
0.0
 11
11403.13651911933
 21
7597.645503741951
 31
0.0
  0
LINE
  5
184B5
330
747D
100
AcDbEntity
  8
破線
 48
10.0
100
AcDbLine
 10
8461.136519119289
 20
9299.645503741976
 30
0.0
 11
8461.136519119301
 21
7649.645503741846
 31
0.0
  0
LINE
  5
184B6
330
747D
100
AcDbEntity
  8
部品1
100
AcDbLine
 10
8409.136519119288
 20
7597.645503741926
 30
0.0
 11
8409.136519119305
 21
9304.64550374185
 31
0.0
  0
LINE
  5
184B7
330
747D
100
AcDbEntity
  8
部品1
100
AcDbLine
 10
8381.13651911928
 20
9779.645503741846
 30
0.0
 11
8381.136519119307
 21
7569.645503741835
 31
0.0
  0
LINE
  5
184B8
330
747D
100
AcDbEntity
  8
部品1
100
AcDbLine
 10
8437.636519119291
 20
9299.645503741926
 30
0.0
 11
8437.636519119301
 21
7626.145503741939
 31
0.0
  0
LINE
  5
184B9
330
747D
100
AcDbEntity
  8
部品1
100
AcDbLine
 10
8409.136519119305
 20
7624.64550374185
 30
0.0
 11
8381.136519119307
 21
7624.64550374185
 31
0.0
  0
LINE
  5
184BA
330
747D
100
AcDbEntity
  8
部品1
100
AcDbLine
 10
8409.136519119289
 20
7624.645503741835
 30
0.0
 11
8381.136519119307
 21
7624.645503741835
 31
0.0
  0
LINE
  5
184BB
330
747D
100
AcDbEntity
  8
部品1
100
AcDbLine
 10
8409.136519119289
 20
7624.645503741799
 30
0.0
 11
8381.136519119307
 21
7624.645503741799
 31
0.0
  0
LINE
  5
184BC
330
747D
100
AcDbEntity
  8
部品1
100
AcDbLine
 10
8381.136519119307
 20
7624.645503741799
 30
0.0
 11
8381.136519119307
 21
7569.645503741802
 31
0.0
  0
LINE
  5
184BD
330
747D
100
AcDbEntity
  8
部品1
 48
50.0
100
AcDbLine
 10
8437.636519119301
 20
7626.145503741939
 30
0.0
 11
8409.136519119305
 21
7597.645503741944
 31
0.0
  0
LINE
  5
184BE
330
747D
100
AcDbEntity
  8
部品1
100
AcDbLine
 10
8436.136519119282
 20
7569.645503741965
 30
0.0
 11
8436.136519119282
 21
7597.645503741965
 31
0.0
  0
LINE
  5
184BF
330
747D
100
AcDbEntity
  8
部品1
 48
50.0
100
AcDbLine
 10
8409.636519119244
 20
9749.64550374198
 30
0.0
 11
8409.636519119244
 21
9299.645503741983
 31
0.0
  0
LINE
  5
184C0
330
747D
100
AcDbEntity
  8
部品1
100
AcDbLine
 10
8409.136519119305
 20
9299.145503741849
 30
0.0
 11
8409.136519119313
 21
9751.645503741878
 31
0.0
  0
LINE
  5
184C1
330
747D
100
AcDbEntity
  8
部品1
100
AcDbLine
 10
8409.136519119288
 20
8884.645503741849
 30
0.0
 11
8381.136519119287
 21
8884.645503741849
 31
0.0
  0
LINE
  5
184C2
330
747D
100
AcDbEntity
  8
部品1
100
AcDbLine
 10
8409.136519119288
 20
9304.64550374185
 30
0.0
 11
8381.136519119287
 21
9304.64550374185
 31
0.0
  0
DIMENSION
  5
184C3
330
747D
100
AcDbEntity
  8
寸法
100
AcDbDimension
  2
*D10
 10
8436.136519119314
 20
10279.64550374188
 30
0.0
 11
8072.65123774504
 21
10279.64550374188
 31
0.0
 70
   160
 71
     5
 42
55.00000000003274
  3
INABA_S40G
100
AcDbAlignedDimension
 13
8381.13651911928
 23
9779.645503741878
 33
0.0
 14
8436.136519119314
 24
9779.645503741878
 34
0.0
100
AcDbRotatedDimension
1001
ACAD
1000
DSTYLE
1002
{
1002
}
  0
LINE
  5
184C4
330
747D
100
AcDbEntity
  8
部品1
100
AcDbLine
 10
8409.136519119281
 20
9724.64550374185
 30
0.0
 11
8381.13651911928
 21
9724.64550374185
 31
0.0
  0
LINE
  5
184C5
330
747D
100
AcDbEntity
  8
部品1
100
AcDbLine
 10
8436.136519119314
 20
9779.645503741878
 30
0.0
 11
8436.136519119314
 21
9751.645503741878
 31
0.0
  0
LINE
  5
184C6
330
747D
100
AcDbEntity
  8
部品1
100
AcDbLine
 10
8436.13651911928
 20
9779.645503741846
 30
0.0
 11
8436.13651911928
 21
9751.645503741846
 31
0.0
  0
LINE
  5
184C7
330
747D
100
AcDbEntity
  8
部品1
100
AcDbLine
 10
11431.13651911929
 20
7569.645503741965
 30
0.0
 11
10956.13651911931
 21
7569.645503741951
 31
0.0
  0
LINE
  5
184C8
330
747D
100
AcDbEntity
  8
破線
 48
10.0
100
AcDbLine
 10
11351.13651911931
 20
7649.645503741962
 30
0.0
 11
10658.63651911929
 21
7649.645503741904
 31
0.0
  0
DIMENSION
  5
184C9
330
747D
100
AcDbEntity
  8
寸法
100
AcDbDimension
  2
*D11
 10
11331.70651280063
 20
9034.931116379537
 30
0.0
 11
10431.20023011736
 21
9034.931116379537
 31
0.0
 70
   160
 71
     5
 42
1483.000000000013
  3
INABA_S40G
100
AcDbAlignedDimension
 13
9919.636519119306
 23
9299.645503742048
 33
0.0
 14
11402.63651911932
 24
9299.645503742041
 34
0.0
100
AcDbRotatedDimension
1001
ACAD
1000
DSTYLE
1002
{
1002
}
  0
LINE
  5
184CA
330
747D
100
AcDbEntity
  8
細線
 48
50.0
100
AcDbLine
 10
11402.63651911931
 20
9749.645503741973
 30
0.0
 11
9919.636519119313
 21
9299.645503741983
 31
0.0
  0
LINE
  5
184CB
330
747D
100
AcDbEntity
  8
部品1
100
AcDbLine
 10
9919.636519119313
 20
9749.64550374198
 30
0.0
 11
11402.63651911931
 21
9749.645503741973
 31
0.0
  0
LINE
  5
184CC
330
747D
100
AcDbEntity
  8
部品1
100
AcDbLine
 10
9919.636519119313
 20
9299.645503741983
 30
0.0
 11
11402.63651911931
 21
9299.645503741976
 31
0.0
  0
LINE
  5
184CD
330
747D
100
AcDbEntity
  8
細線
 48
50.0
100
AcDbLine
 10
11402.63651911931
 20
9299.645503741976
 30
0.0
 11
9919.636519119313
 21
9749.645503741977
 31
0.0
  0
LINE
  5
184CE
330
747D
100
AcDbEntity
  8
部品1
100
AcDbLine
 10
9918.636519119313
 20
9751.645503741992
 30
0.0
 11
11403.13651911931
 21
9751.645503741974
 31
0.0
  0
LINE
  5
184CF
330
747D
100
AcDbEntity
  8
破線
 48
10.0
100
AcDbLine
 10
9881.136519119291
 20
7626.145503741874
 30
0.0
 11
9881.136519119284
 21
9299.645503741983
 31
0.0
  0
LINE
  5
184D0
330
747D
100
AcDbEntity
  8
破線
 48
10.0
100
AcDbLine
 10
9931.13651911929
 20
7626.145503741878
 30
0.0
 11
9931.136519119284
 21
9299.645503741981
 31
0.0
  0
LINE
  5
184D1
330
747D
100
AcDbEntity
  8
破線
 48
10.0
100
AcDbLine
 10
9153.636519119292
 20
7626.145503741874
 30
0.0
 11
9153.636519119292
 21
9299.645503741983
 31
0.0
  0
LINE
  5
184D2
330
747D
100
AcDbEntity
  8
破線
 48
10.0
100
AcDbLine
 10
9203.636519119289
 20
7626.145503741878
 30
0.0
 11
9203.636519119291
 21
9299.645503741983
 31
0.0
  0
LINE
  5
184D3
330
747D
100
AcDbEntity
  8
破線
 48
10.0
100
AcDbLine
 10
10608.63651911929
 20
7626.145503741874
 30
0.0
 11
10608.63651911929
 21
9299.645503741983
 31
0.0
  0
LINE
  5
184D4
330
747D
100
AcDbEntity
  8
破線
 48
10.0
100
AcDbLine
 10
10658.63651911929
 20
7626.145503741878
 30
0.0
 11
10658.63651911929
 21
9299.645503741983
 31
0.0
  0
LINE
  5
184D5
330
747D
100
AcDbEntity
  8
部品1
 48
50.0
100
AcDbLine
 10
9906.136519119314
 20
9299.645503741983
 30
0.0
 11
9906.136519119343
 21
7626.145503741864
 31
0.0
  0
LINE
  5
184D6
330
747D
100
AcDbEntity
  8
破線
 48
10.0
100
AcDbLine
 10
9881.136519119291
 20
7649.645503741874
 30
0.0
 11
9203.636519119287
 21
7649.645503741853
 31
0.0
  0
LINE
  5
184D7
330
747D
100
AcDbEntity
  8
部品1
100
AcDbLine
 10
8856.136519119282
 20
7569.645503741965
 30
0.0
 11
8856.136519119282
 21
7597.645503741965
 31
0.0
  0
LINE
  5
184D8
330
747D
100
AcDbEntity
  8
破線
 48
10.0
100
AcDbLine
 10
10608.63651911929
 20
7649.64550374189
 30
0.0
 11
9931.136519119291
 21
7649.645503741878
 31
0.0
  0
LINE
  5
184D9
330
747D
100
AcDbEntity
  8
部品1
100
AcDbLine
 10
10956.13651911931
 20
7569.645503741965
 30
0.0
 11
10956.13651911931
 21
7597.645503741965
 31
0.0
  0
LINE
  5
184DA
330
747D
100
AcDbEntity
  8
部品1
100
AcDbLine
 10
8856.13651911928
 20
9779.645503741846
 30
0.0
 11
8856.13651911928
 21
9751.645503741846
 31
0.0
  0
LINE
  5
184DB
330
747D
100
AcDbEntity
  8
部品1
100
AcDbLine
 10
9276.13651911928
 20
9779.645503741846
 30
0.0
 11
9276.13651911928
 21
9751.645503741846
 31
0.0
  0
LINE
  5
184DC
330
747D
100
AcDbEntity
  8
部品1
100
AcDbLine
 10
9696.13651911928
 20
9779.645503741846
 30
0.0
 11
9696.13651911928
 21
9751.645503741846
 31
0.0
  0
LINE
  5
184DD
330
747D
100
AcDbEntity
  8
部品1
 48
50.0
100
AcDbLine
 10
9892.636519119314
 20
9749.64550374198
 30
0.0
 11
9892.636519119314
 21
9299.645503741983
 31
0.0
  0
LINE
  5
184DE
330
747D
100
AcDbEntity
  8
部品1
 48
50.0
100
AcDbLine
 10
9919.636519119313
 20
9749.645503741977
 30
0.0
 11
9919.636519119313
 21
9299.645503741983
 31
0.0
  0
LINE
  5
184DF
330
747D
100
AcDbEntity
  8
部品1
 48
50.0
100
AcDbLine
 10
9893.636519119313
 20
9751.645503741988
 30
0.0
 11
9893.636519119313
 21
9299.645503741983
 31
0.0
  0
LINE
  5
184E0
330
747D
100
AcDbEntity
  8
部品1
 48
50.0
100
AcDbLine
 10
9918.636519119313
 20
9751.645503741984
 30
0.0
 11
9918.636519119313
 21
9299.645503741983
 31
0.0
  0
LINE
  5
184E1
330
747D
100
AcDbEntity
  8
部品1
100
AcDbLine
 10
9893.636519119313
 20
9299.645503741983
 30
0.0
 11
9918.636519119313
 21
9299.645503741983
 31
0.0
  0
LINE
  5
184E2
330
747D
100
AcDbEntity
  8
部品1
100
AcDbLine
 10
9893.636519119313
 20
9743.645503741976
 30
0.0
 11
9918.636519119313
 21
9743.64550374198
 31
0.0
  0
LINE
  5
184E3
330
747D
100
AcDbEntity
  8
部品1
100
AcDbLine
 10
9871.136519119312
 20
9769.645503741982
 30
0.0
 11
9871.136519119312
 21
9751.645503741981
 31
0.0
  0
LINE
  5
184E4
330
747D
100
AcDbEntity
  8
部品1
100
AcDbLine
 10
9871.136519119312
 20
9769.645503741982
 30
0.0
 11
9877.136519119313
 21
9769.645503741982
 31
0.0
  0
LINE
  5
184E5
330
747D
100
AcDbEntity
  8
部品1
100
AcDbLine
 10
9941.136519119313
 20
9769.645503741982
 30
0.0
 11
9941.136519119313
 21
9751.645503741981
 31
0.0
  0
LINE
  5
184E6
330
747D
100
AcDbEntity
  8
部品1
100
AcDbLine
 10
9935.136519119312
 20
9769.645503741982
 30
0.0
 11
9941.136519119313
 21
9769.645503741982
 31
0.0
  0
LINE
  5
184E7
330
747D
100
AcDbEntity
  8
部品1
100
AcDbLine
 10
10116.13651911928
 20
9779.645503741846
 30
0.0
 11
10116.13651911928
 21
9751.645503741846
 31
0.0
  0
LINE
  5
184E8
330
747D
100
AcDbEntity
  8
部品1
100
AcDbLine
 10
10536.13651911928
 20
9779.645503741846
 30
0.0
 11
10536.13651911928
 21
9751.645503741846
 31
0.0
  0
LINE
  5
184E9
330
747D
100
AcDbEntity
  8
部品1
100
AcDbLine
 10
10956.13651911928
 20
9779.645503741846
 30
0.0
 11
10956.13651911928
 21
9751.645503741846
 31
0.0
  0
DIMENSION
  5
184EA
330
747D
100
AcDbEntity
  8
寸法
100
AcDbDimension
  2
*D12
 10
12431.1365191193
 20
7569.645503741965
 30
0.0
 11
12431.1365191193
 21
8674.645503741968
 31
0.0
 70
   160
 71
     5
 42
2210.000000000007
  3
INABA_S40G
100
AcDbAlignedDimension
 13
11431.13651911931
 23
9779.645503741974
 33
0.0
 14
11431.13651911929
 24
7569.645503741965
 34
0.0
 50
90.0
100
AcDbRotatedDimension
1001
ACAD
1000
DSTYLE
1002
{
1002
}
  0
LINE
  5
184EB
330
747D
100
AcDbEntity
  8
破線
 48
10.0
100
AcDbLine
 10
11351.1365191193
 20
9299.645503741976
 30
0.0
 11
11351.13651911931
 21
7649.645503741962
 31
0.0
  0
DIMENSION
  5
184EC
330
747D
100
AcDbEntity
  8
寸法
100
AcDbDimension
  2
*D13
 10
12131.1365191193
 20
7624.645503741961
 30
0.0
 11
12131.1365191193
 21
8674.645503741968
 31
0.0
 70
   160
  1
5X420=<>
 71
     5
 42
2100.000000000015
  3
INABA_S40G
100
AcDbAlignedDimension
 13
11431.13651911931
 23
9724.645503741976
 33
0.0
 14
11431.13651911929
 24
7624.645503741961
 34
0.0
 50
90.0
100
AcDbRotatedDimension
1001
ACAD
1000
DSTYLE
1002
{
1002
}
  0
LINE
  5
184ED
330
747D
100
AcDbEntity
  8
部品1
100
AcDbLine
 10
11431.13651911931
 20
9779.645503741974
 30
0.0
 11
11431.13651911929
 21
7569.645503741965
 31
0.0
  0
LINE
  5
184EE
330
747D
100
AcDbEntity
  8
部品1
100
AcDbLine
 10
11374.6365191193
 20
9299.645503741976
 30
0.0
 11
11374.63651911931
 21
7626.145503741965
 31
0.0
  0
LINE
  5
184EF
330
747D
100
AcDbEntity
  8
部品1
100
AcDbLine
 10
11403.13651911931
 20
9304.645503741976
 30
0.0
 11
11403.13651911929
 21
7597.645503741965
 31
0.0
  0
DIMENSION
  5
184F0
330
747D
100
AcDbEntity
  8
寸法
100
AcDbDimension
  2
*D14
 10
12131.13651911929
 20
7569.645503741965
 30
0.0
 11
12131.13651911929
 21
7261.160222367725
 31
0.0
 70
   160
 71
     5
 42
54.99999999999636
  3
INABA_S40G
100
AcDbAlignedDimension
 13
11431.13651911929
 23
7624.645503741961
 33
0.0
 14
11431.13651911929
 24
7569.645503741965
 34
0.0
 50
90.0
100
AcDbRotatedDimension
1001
ACAD
1000
DSTYLE
1002
{
1002
}
  0
LINE
  5
184F1
330
747D
100
AcDbEntity
  8
部品1
100
AcDbLine
 10
11403.13651911929
 20
7624.645503741962
 30
0.0
 11
11431.13651911929
 21
7624.645503741962
 31
0.0
  0
LINE
  5
184F2
330
747D
100
AcDbEntity
  8
部品1
100
AcDbLine
 10
11431.13651911929
 20
7569.645503741965
 30
0.0
 11
11380.13651911929
 21
7569.645503741965
 31
0.0
  0
LINE
  5
184F3
330
747D
100
AcDbEntity
  8
部品1
 48
50.0
100
AcDbLine
 10
11374.63651911931
 20
7626.145503741965
 30
0.0
 11
11403.13651911931
 21
7597.645503741965
 31
0.0
  0
LINE
  5
184F4
330
747D
100
AcDbEntity
  8
部品1
100
AcDbLine
 10
11431.13651911929
 20
7624.645503741962
 30
0.0
 11
11431.13651911929
 21
7569.645503741965
 31
0.0
  0
LINE
  5
184F5
330
747D
100
AcDbEntity
  8
部品1
100
AcDbLine
 10
11403.13651911931
 20
7624.645503741962
 30
0.0
 11
11431.13651911931
 21
7624.645503741962
 31
0.0
  0
LINE
  5
184F6
330
747D
100
AcDbEntity
  8
部品1
100
AcDbLine
 10
11376.13651911931
 20
7569.645503741965
 30
0.0
 11
11376.13651911931
 21
7597.645503741965
 31
0.0
  0
LINE
  5
184F7
330
747D
100
AcDbEntity
  8
部品1
100
AcDbLine
 10
11403.13651911931
 20
9751.645503741974
 30
0.0
 11
11403.13651911931
 21
9299.145503741849
 31
0.0
  0
LINE
  5
184F8
330
747D
100
AcDbEntity
  8
部品1
100
AcDbLine
 10
11402.63651911931
 20
9749.645503741973
 30
0.0
 11
11402.63651911931
 21
9299.645503741976
 31
0.0
  0
DIMENSION
  5
184F9
330
747D
100
AcDbEntity
  8
寸法
100
AcDbDimension
  2
*D15
 10
11831.13651911931
 20
9184.829274785242
 30
0.0
 11
11831.13651911931
 21
9409.82927478524
 31
0.0
 70
   160
 71
     5
 42
449.9999999999963
  3
INABA_S40G
100
AcDbAlignedDimension
 13
11402.63651911931
 23
9749.645503741973
 33
0.0
 14
11402.63651911931
 24
9299.645503741976
 34
0.0
 50
90.0
100
AcDbRotatedDimension
1001
ACAD
1000
DSTYLE
1002
{
1002
}
  0
LINE
  5
184FA
330
747D
100
AcDbEntity
  8
部品1
100
AcDbLine
 10
11403.13651911931
 20
8884.645503741976
 30
0.0
 11
11431.13651911931
 21
8884.645503741976
 31
0.0
  0
LINE
  5
184FB
330
747D
100
AcDbEntity
  8
部品1
100
AcDbLine
 10
11403.13651911931
 20
9304.645503741976
 30
0.0
 11
11431.13651911931
 21
9304.645503741976
 31
0.0
  0
DIMENSION
  5
184FC
330
747D
100
AcDbEntity
  8
寸法
100
AcDbDimension
  2
*D16
 10
11431.13651911931
 20
10279.64550374197
 30
0.0
 11
11739.62180049355
 21
10279.64550374197
 31
0.0
 70
   160
 71
     5
 42
55.0
  3
INABA_S40G
100
AcDbAlignedDimension
 13
11376.13651911931
 23
9779.645503741974
 33
0.0
 14
11431.13651911931
 24
9779.645503741974
 34
0.0
100
AcDbRotatedDimension
1001
ACAD
1000
DSTYLE
1002
{
1002
}
  0
DIMENSION
  5
184FD
330
747D
100
AcDbEntity
  8
寸法
100
AcDbDimension
  2
*D17
 10
12131.13651911931
 20
9724.645503741976
 30
0.0
 11
12131.13651911931
 21
10088.13078511621
 31
0.0
 70
   160
 71
     5
 42
54.99999999999636
  3
INABA_S40G
100
AcDbAlignedDimension
 13
11431.13651911931
 23
9779.645503741974
 33
0.0
 14
11431.13651911931
 24
9724.645503741976
 34
0.0
 50
90.0
100
AcDbRotatedDimension
1001
ACAD
1000
DSTYLE
1002
{
1002
}
  0
LINE
  5
184FE
330
747D
100
AcDbEntity
  8
部品1
100
AcDbLine
 10
11403.13651911931
 20
9724.645503741976
 30
0.0
 11
11431.13651911931
 21
9724.645503741976
 31
0.0
  0
LINE
  5
184FF
330
747D
100
AcDbEntity
  8
部品1
100
AcDbLine
 10
11376.13651911931
 20
9779.645503741996
 30
0.0
 11
11376.13651911931
 21
9751.645503741995
 31
0.0
  0
LINE
  5
18500
330
747D
100
AcDbEntity
  8
部品1
100
AcDbLine
 10
11376.13651911931
 20
9779.645503741974
 30
0.0
 11
11376.13651911931
 21
9751.645503741974
 31
0.0
  0
MTEXT
  5
18502
330
747D
100
AcDbEntity
  8
寸法
 62
     7
 48
50.0
100
AcDbMText
 10
10676.23905621245
 20
9365.880321939284
 30
0.0
 40
96.0
 41
0.0
 71
     5
 72
     1
  1
棚 2段
  7
STYLE1
 73
     1
 44
1.0
1001
ACAD
1000
MTEXTBEGIN
1070
    73
1070
     1
1070
    44
1040
1.0
1070
    74
1070
     0
1000
MTEXTEND
  0
TEXT
  5
18503
330
747D
100
AcDbEntity
  8
文字
 62
     7
 48
50.0
100
AcDbText
 10
13209.4053442172
 20
243.236973410656
 30
0.0
 40
100.0
  1
○有効開口寸法 ： 1266×1725(mm)
  7
STYLE2
100
AcDbText
  0
TEXT
  5
18504
330
747D
100
AcDbEntity
  8
文字
 62
     7
 48
50.0
100
AcDbText
 10
14491.96323844892
 20
483.8967129911416
 30
0.0
 40
160.0
  1
ＮＸＮ－６５ＳＡ
  7
STYLE2
100
AcDbText
  0
TEXT
  5
18505
330
747D
100
AcDbEntity
  8
文字
 62
     7
 48
50.0
100
AcDbText
 10
14892.7563502105
 20
9740.013745883725
 30
0.0
 40
100.0
  1
F12  1.0(多雪地型2.3,1.6)
  7
STYLE1
100
AcDbText
  0
TEXT
  5
18506
330
747D
100
AcDbEntity
  8
文字
 62
     7
 48
50.0
100
AcDbText
 10
13248.77747366447
 20
8380.013745883728
 30
0.0
 40
100.0
  1
17
  7
STYLE1
100
AcDbText
  0
TEXT
  5
18507
330
747D
100
AcDbEntity
  8
文字
 62
     7
 48
50.0
100
AcDbText
 10
13248.77747366447
 20
8550.013745883729
 30
0.0
 40
100.0
  1
16
  7
STYLE1
100
AcDbText
  0
TEXT
  5
18508
330
747D
100
AcDbEntity
  8
文字
 62
     7
 48
50.0
100
AcDbText
 10
15022.63965474517
 20
9060.013745883725
 30
0.0
 40
100.0
  1
F12            1.0
  7
STYLE1
100
AcDbText
  0
TEXT
  5
18509
330
747D
100
AcDbEntity
  8
文字
 62
     7
 48
50.0
100
AcDbText
 10
13583.11819016569
 20
9060.013745883733
 30
0.0
 40
100.0
  1
壁面扉枠左右
  7
STYLE1
100
AcDbText
  0
TEXT
  5
1850A
330
747D
100
AcDbEntity
  8
文字
 62
     7
 48
50.0
100
AcDbText
 10
15022.63965474517
 20
9230.013745883725
 30
0.0
 40
100.0
  1
F12            1.0
  7
STYLE1
100
AcDbText
  0
TEXT
  5
1850B
330
747D
100
AcDbEntity
  8
文字
 62
     7
 48
50.0
100
AcDbText
 10
15022.63965474515
 20
9400.013745883727
 30
0.0
 40
100.0
  1
F12            0.7
  7
STYLE1
100
AcDbText
  0
TEXT
  5
1850C
330
747D
100
AcDbEntity
  8
文字
 62
     7
 48
50.0
100
AcDbText
 10
13583.11819016569
 20
9230.013745883733
 30
0.0
 40
100.0
  1
壁面扉敷居
  7
STYLE1
100
AcDbText
  0
TEXT
  5
1850D
330
747D
100
AcDbEntity
  8
文字
 62
     7
 48
50.0
100
AcDbText
 10
13583.11819016569
 20
9400.013745883729
 30
0.0
 40
100.0
  1
壁面扉鴨居
  7
STYLE1
100
AcDbText
  0
LINE
  5
1850E
330
747D
100
AcDbEntity
  8
仕様書枠
 48
50.0
100
AcDbLine
 10
16307.19999999999
 20
8689.600000000003
 30
0.0
 11
13127.2
 21
8689.600000000005
 31
0.0
  0
LINE
  5
1850F
330
747D
100
AcDbEntity
  8
仕様書枠
 48
50.0
100
AcDbLine
 10
16307.19999999999
 20
8519.600000000004
 30
0.0
 11
13127.2
 21
8519.600000000005
 31
0.0
  0
TEXT
  5
18510
330
747D
100
AcDbEntity
  8
文字
 62
     7
 48
50.0
100
AcDbText
 10
13583.11819016569
 20
8380.013745883728
 30
0.0
 40
100.0
  1
アンカープレート
  7
STYLE1
100
AcDbText
  0
TEXT
  5
18511
330
747D
100
AcDbEntity
  8
文字
 62
     7
 48
50.0
100
AcDbText
 10
15022.63965474515
 20
8380.013745883724
 30
0.0
 40
100.0
  1
F12            2.3
  7
STYLE1
100
AcDbText
  0
LINE
  5
18512
330
747D
100
AcDbEntity
  8
仕様書枠
 48
50.0
100
AcDbLine
 10
16307.2
 20
10049.6
 30
0.0
 11
13127.2
 21
10049.6
 31
0.0
  0
LINE
  5
18513
330
747D
100
AcDbEntity
  8
仕様書枠
 48
50.0
100
AcDbLine
 10
16307.2
 20
11409.59999999999
 30
0.0
 11
13127.2
 21
11409.6
 31
0.0
  0
LINE
  5
18514
330
747D
100
AcDbEntity
  8
仕様書枠
 48
50.0
100
AcDbLine
 10
16307.19999999999
 20
8009.600000000004
 30
0.0
 11
16307.2
 21
11409.6
 31
0.0
  0
LINE
  5
18515
330
747D
100
AcDbEntity
  8
仕様書枠
 48
50.0
100
AcDbLine
 10
14785.2
 20
11409.59999999999
 30
0.0
 11
14785.2
 21
8349.600000000004
 31
0.0
  0
LINE
  5
18516
330
747D
100
AcDbEntity
  8
仕様書枠
 48
50.0
100
AcDbLine
 10
13490.2
 20
11409.59999999999
 30
0.0
 11
13490.20000000001
 21
8349.600000000007
 31
0.0
  0
LINE
  5
18517
330
747D
100
AcDbEntity
  8
仕様書枠
 48
50.0
100
AcDbLine
 10
16307.2
 20
11239.59999999999
 30
0.0
 11
13127.2
 21
11239.6
 31
0.0
  0
LINE
  5
18518
330
747D
100
AcDbEntity
  8
仕様書枠
 48
50.0
100
AcDbLine
 10
16307.2
 20
10899.6
 30
0.0
 11
13127.2
 21
10899.6
 31
0.0
  0
LINE
  5
18519
330
747D
100
AcDbEntity
  8
仕様書枠
 48
50.0
100
AcDbLine
 10
16307.2
 20
11069.59999999999
 30
0.0
 11
13127.2
 21
11069.6
 31
0.0
  0
LINE
  5
1851A
330
747D
100
AcDbEntity
  8
仕様書枠
 48
50.0
100
AcDbLine
 10
16307.19999999999
 20
10559.6
 30
0.0
 11
13127.2
 21
10559.6
 31
0.0
  0
LINE
  5
1851B
330
747D
100
AcDbEntity
  8
仕様書枠
 48
50.0
100
AcDbLine
 10
16307.19999999999
 20
10389.6
 30
0.0
 11
13127.2
 21
10389.6
 31
0.0
  0
LINE
  5
1851C
330
747D
100
AcDbEntity
  8
仕様書枠
 48
50.0
100
AcDbLine
 10
16307.19999999999
 20
10729.59999999999
 30
0.0
 11
13127.2
 21
10729.6
 31
0.0
  0
TEXT
  5
1851D
330
747D
100
AcDbEntity
  8
文字
 62
     7
 48
50.0
100
AcDbText
 10
13197.42518560407
 20
11270.01374588372
 30
0.0
 40
100.0
  1
品番
  7
STYLE1
100
AcDbText
  0
TEXT
  5
1851E
330
747D
100
AcDbEntity
  8
文字
 62
     7
 48
50.0
100
AcDbText
 10
13271.19032244792
 20
11100.01374588373
 30
0.0
 40
100.0
  1
1
  7
STYLE1
100
AcDbText
  0
TEXT
  5
1851F
330
747D
100
AcDbEntity
  8
文字
 62
     7
 48
50.0
100
AcDbText
 10
13271.19032244792
 20
10930.01374588373
 30
0.0
 40
100.0
  1
2
  7
STYLE1
100
AcDbText
  0
TEXT
  5
18520
330
747D
100
AcDbEntity
  8
文字
 62
     7
 48
50.0
100
AcDbText
 10
13271.19032244792
 20
10590.01374588373
 30
0.0
 40
100.0
  1
4
  7
STYLE1
100
AcDbText
  0
TEXT
  5
18521
330
747D
100
AcDbEntity
  8
文字
 62
     7
 48
50.0
100
AcDbText
 10
13271.19032244792
 20
10760.01374588373
 30
0.0
 40
100.0
  1
3
  7
STYLE1
100
AcDbText
  0
TEXT
  5
18522
330
747D
100
AcDbEntity
  8
文字
 62
     7
 48
50.0
100
AcDbText
 10
13732.03840939434
 20
11270.01374588372
 30
0.0
 40
100.0
  1
部　　品　　名
  7
STYLE1
100
AcDbText
  0
TEXT
  5
18523
330
747D
100
AcDbEntity
  8
文字
 62
     7
 48
50.0
100
AcDbText
 10
14859.79774614482
 20
11270.01374588372
 30
0.0
 40
100.0
  1
材料（材質）　　単位mm
  7
STYLE1
100
AcDbText
  0
TEXT
  5
18524
330
747D
100
AcDbEntity
  8
文字
 62
     7
 48
50.0
100
AcDbText
 10
13583.11819016569
 20
11100.01374588372
 30
0.0
 40
100.0
  1
土台枠
  7
STYLE1
100
AcDbText
  0
TEXT
  5
18525
330
747D
100
AcDbEntity
  8
文字
 62
     7
 48
50.0
100
AcDbText
 10
13583.1181901657
 20
10760.01374588372
 30
0.0
 40
100.0
  1
柱
  7
STYLE1
100
AcDbText
  0
TEXT
  5
18526
330
747D
100
AcDbEntity
  8
文字
 62
     7
 48
50.0
100
AcDbText
 10
13583.11819016569
 20
10420.01374588373
 30
0.0
 40
100.0
  1
桁前後
  7
STYLE1
100
AcDbText
  0
TEXT
  5
18527
330
747D
100
AcDbEntity
  8
文字
 62
     7
 48
50.0
100
AcDbText
 10
13271.19032244792
 20
10420.01374588372
 30
0.0
 40
100.0
  1
5
  7
STYLE1
100
AcDbText
  0
TEXT
  5
18528
330
747D
100
AcDbEntity
  8
文字
 62
     7
 48
50.0
100
AcDbText
 10
13583.11819016569
 20
10250.01374588373
 30
0.0
 40
100.0
  1
妻板左右
  7
STYLE1
100
AcDbText
  0
TEXT
  5
18529
330
747D
100
AcDbEntity
  8
文字
 62
     7
 48
50.0
100
AcDbText
 10
13248.77747366447
 20
9570.013745883727
 30
0.0
 40
100.0
  1
10
  7
STYLE1
100
AcDbText
  0
TEXT
  5
1852A
330
747D
100
AcDbEntity
  8
文字
 62
     7
 48
50.0
100
AcDbText
 10
13583.11819016568
 20
9570.013745883729
 30
0.0
 40
100.0
  1
壁パネル
  7
STYLE1
100
AcDbText
  0
TEXT
  5
1852B
330
747D
100
AcDbEntity
  8
文字
 62
     7
 48
50.0
100
AcDbText
 10
13583.11819016569
 20
9910.013745883727
 30
0.0
 40
100.0
  1
屋根パネル
  7
STYLE1
100
AcDbText
  0
TEXT
  5
1852C
330
747D
100
AcDbEntity
  8
文字
 62
     7
 48
50.0
100
AcDbText
 10
13583.11819016569
 20
10080.01374588372
 30
0.0
 40
100.0
  1
鼻隠シ前後
  7
STYLE1
100
AcDbText
  0
TEXT
  5
1852D
330
747D
100
AcDbEntity
  8
文字
 62
     7
 48
50.0
100
AcDbText
 10
13271.19032244792
 20
9910.01374588373
 30
0.0
 40
100.0
  1
8
  7
STYLE1
100
AcDbText
  0
TEXT
  5
1852E
330
747D
100
AcDbEntity
  8
文字
 62
     7
 48
50.0
100
AcDbText
 10
13271.19032244792
 20
9740.013745883729
 30
0.0
 40
100.0
  1
9
  7
STYLE1
100
AcDbText
  0
TEXT
  5
1852F
330
747D
100
AcDbEntity
  8
文字
 62
     7
 48
50.0
100
AcDbText
 10
13271.19032244792
 20
10080.01374588373
 30
0.0
 40
100.0
  1
7
  7
STYLE1
100
AcDbText
  0
TEXT
  5
18530
330
747D
100
AcDbEntity
  8
文字
 62
     7
 48
50.0
100
AcDbText
 10
13271.19032244792
 20
10250.01374588373
 30
0.0
 40
100.0
  1
6
  7
STYLE1
100
AcDbText
  0
LINE
  5
18531
330
747D
100
AcDbEntity
  8
仕様書枠
 48
50.0
100
AcDbLine
 10
16307.19999999999
 20
9709.6
 30
0.0
 11
13127.2
 21
9709.600000000001
 31
0.0
  0
LINE
  5
18532
330
747D
100
AcDbEntity
  8
仕様書枠
 48
50.0
100
AcDbLine
 10
16307.19999999999
 20
9369.599999999998
 30
0.0
 11
13127.2
 21
9369.600000000001
 31
0.0
  0
LINE
  5
18533
330
747D
100
AcDbEntity
  8
仕様書枠
 48
50.0
100
AcDbLine
 10
16307.19999999999
 20
9539.599999999998
 30
0.0
 11
13127.2
 21
9539.6
 31
0.0
  0
LINE
  5
18534
330
747D
100
AcDbEntity
  8
仕様書枠
 48
50.0
100
AcDbLine
 10
16307.2
 20
10219.6
 30
0.0
 11
13127.2
 21
10219.6
 31
0.0
  0
LINE
  5
18535
330
747D
100
AcDbEntity
  8
仕様書枠
 48
50.0
100
AcDbLine
 10
16307.2
 20
9879.599999999999
 30
0.0
 11
13127.2
 21
9879.600000000001
 31
0.0
  0
TEXT
  5
18536
330
747D
100
AcDbEntity
  8
文字
 62
     7
 48
50.0
100
AcDbText
 10
13248.77747366447
 20
9400.013745883727
 30
0.0
 40
100.0
  1
11
  7
STYLE1
100
AcDbText
  0
LINE
  5
18537
330
747D
100
AcDbEntity
  8
仕様書枠
 48
50.0
100
AcDbLine
 10
16307.19999999999
 20
9199.599999999998
 30
0.0
 11
13127.2
 21
9199.600000000001
 31
0.0
  0
LINE
  5
18538
330
747D
100
AcDbEntity
  8
仕様書枠
 48
50.0
100
AcDbLine
 10
16307.19999999999
 20
8859.6
 30
0.0
 11
13127.2
 21
8859.600000000002
 31
0.0
  0
TEXT
  5
18539
330
747D
100
AcDbEntity
  8
文字
 62
     7
 48
50.0
100
AcDbText
 10
13248.77747366448
 20
9060.013745883727
 30
0.0
 40
100.0
  1
13
  7
STYLE1
100
AcDbText
  0
TEXT
  5
1853A
330
747D
100
AcDbEntity
  8
文字
 62
     7
 48
50.0
100
AcDbText
 10
13248.77747366448
 20
9230.013745883727
 30
0.0
 40
100.0
  1
12
  7
STYLE1
100
AcDbText
  0
TEXT
  5
1853B
330
747D
100
AcDbEntity
  8
文字
 62
     7
 48
50.0
100
AcDbText
 10
15022.63965474517
 20
11100.01374588372
 30
0.0
 40
100.0
  1
F12            1.2
  7
STYLE1
100
AcDbText
  0
TEXT
  5
1853C
330
747D
100
AcDbEntity
  8
文字
 62
     7
 48
50.0
100
AcDbText
 10
15022.63965474518
 20
10760.01374588372
 30
0.0
 40
100.0
  1
F12            1.0
  7
STYLE1
100
AcDbText
  0
TEXT
  5
1853D
330
747D
100
AcDbEntity
  8
文字
 62
     7
 48
50.0
100
AcDbText
 10
15022.63965474516
 20
10420.01374588372
 30
0.0
 40
100.0
  1
Y10            1.0
  7
STYLE1
100
AcDbText
  0
TEXT
  5
1853E
330
747D
100
AcDbEntity
  8
文字
 62
     7
 48
50.0
100
AcDbText
 10
15022.63965474516
 20
10250.01374588372
 30
0.0
 40
100.0
  1
Y10            0.7
  7
STYLE1
100
AcDbText
  0
TEXT
  5
1853F
330
747D
100
AcDbEntity
  8
文字
 62
     7
 48
50.0
100
AcDbText
 10
15022.63965474516
 20
10080.01374588372
 30
0.0
 40
100.0
  1
Y10            0.7
  7
STYLE1
100
AcDbText
  0
TEXT
  5
18540
330
747D
100
AcDbEntity
  8
文字
 62
     7
 48
50.0
100
AcDbText
 10
15022.63965474517
 20
9910.013745883725
 30
0.0
 40
100.0
  1
Y10            0.5
  7
STYLE1
100
AcDbText
  0
TEXT
  5
18541
330
747D
100
AcDbEntity
  8
文字
 62
     7
 48
50.0
100
AcDbText
 10
15022.63965474515
 20
9570.013745883725
 30
0.0
 40
100.0
  1
F12            0.6
  7
STYLE1
100
AcDbText
  0
LINE
  5
18542
330
747D
100
AcDbEntity
  8
仕様書枠
 48
50.0
100
AcDbLine
 10
16307.19999999999
 20
8349.600000000004
 30
0.0
 11
13127.19999999999
 21
8349.600000000007
 31
0.0
  0
LINE
  5
18543
330
747D
100
AcDbEntity
  8
仕様書枠
 48
50.0
100
AcDbLine
 10
16307.19999999999
 20
8179.600000000004
 30
0.0
 11
13127.19999999999
 21
8179.600000000005
 31
0.0
  0
TEXT
  5
18544
330
747D
100
AcDbEntity
  8
文字
 62
     7
 48
50.0
100
AcDbText
 10
13229.83081656554
 20
8210.013745883733
 30
0.0
 40
100.0
  1
F12→溶融亜鉛めっき鋼板(JIS G 3302)
  7
STYLE1
100
AcDbText
  0
TEXT
  5
18545
330
747D
100
AcDbEntity
  8
文字
 62
     7
 48
50.0
100
AcDbText
 10
13229.83081656554
 20
8040.013745883731
 30
0.0
 40
100.0
  1
Y10→溶融亜鉛-5％アルミニウム合金めっき鋼板(JIS G 3317)
 41
0.9
  7
STYLE1
100
AcDbText
  0
LINE
  5
18546
330
747D
100
AcDbEntity
  8
仕様書枠
 48
50.0
100
AcDbLine
 10
13127.2
 20
11409.6
 30
0.0
 11
13127.19999999999
 21
8009.600000000006
 31
0.0
  0
LINE
  5
18547
330
747D
100
AcDbEntity
  8
仕様書枠
 48
50.0
100
AcDbLine
 10
16307.19999999999
 20
9029.6
 30
0.0
 11
13127.2
 21
9029.600000000002
 31
0.0
  0
TEXT
  5
18548
330
747D
100
AcDbEntity
  8
文字
 62
     7
 48
50.0
100
AcDbText
 10
13583.1181901657
 20
10590.01374588372
 30
0.0
 40
100.0
  1
床パネル
 41
0.9
  7
STYLE1
100
AcDbText
  0
TEXT
  5
18549
330
747D
100
AcDbEntity
  8
文字
 62
     7
 48
50.0
100
AcDbText
 10
13583.11819016569
 20
10930.01374588372
 30
0.0
 40
100.0
  1
根太
  7
STYLE1
100
AcDbText
  0
TEXT
  5
1854A
330
747D
100
AcDbEntity
  8
文字
 62
     7
 48
50.0
100
AcDbText
 10
13248.77747366448
 20
8890.013745883727
 30
0.0
 40
100.0
  1
14
  7
STYLE1
100
AcDbText
  0
TEXT
  5
1854B
330
747D
100
AcDbEntity
  8
文字
 62
     7
 48
50.0
100
AcDbText
 10
15022.63965474516
 20
10930.01374588372
 30
0.0
 40
100.0
  1
F12            1.2
  7
STYLE1
100
AcDbText
  0
TEXT
  5
1854C
330
747D
100
AcDbEntity
  8
文字
 62
     7
 48
50.0
100
AcDbText
 10
15022.63965474517
 20
10590.01374588372
 30
0.0
 40
100.0
  1
F12            1.0
  7
STYLE1
100
AcDbText
  0
TEXT
  5
1854D
330
747D
100
AcDbEntity
  8
文字
 62
     7
 48
50.0
100
AcDbText
 10
15022.63965474515
 20
8890.013745883727
 30
0.0
 40
100.0
  1
F12            0.7
  7
STYLE1
100
AcDbText
  0
TEXT
  5
1854E
330
747D
100
AcDbEntity
  8
文字
 62
     7
 48
50.0
100
AcDbText
 10
13583.11819016568
 20
8890.013745883731
 30
0.0
 40
100.0
  1
正面パネル
  7
STYLE1
100
AcDbText
  0
TEXT
  5
1854F
330
747D
100
AcDbEntity
  8
文字
 62
     7
 48
50.0
100
AcDbText
 10
15022.63965474516
 20
8720.013745883727
 30
0.0
 40
100.0
  1
F12            0.8
  7
STYLE1
100
AcDbText
  0
TEXT
  5
18550
330
747D
100
AcDbEntity
  8
文字
 62
     7
 48
50.0
100
AcDbText
 10
13583.11819016569
 20
8720.013745883731
 30
0.0
 40
100.0
  1
扉
  7
STYLE1
100
AcDbText
  0
LINE
  5
18551
330
747D
100
AcDbEntity
  8
仕様書枠
 48
50.0
100
AcDbLine
 10
16307.19999999999
 20
8009.600000000004
 30
0.0
 11
13127.19999999999
 21
8009.600000000006
 31
0.0
  0
TEXT
  5
18552
330
747D
100
AcDbEntity
  8
文字
 62
     7
 48
50.0
100
AcDbText
 10
13248.77747366447
 20
8720.013745883729
 30
0.0
 40
100.0
  1
15
  7
STYLE1
100
AcDbText
  0
TEXT
  5
18553
330
747D
100
AcDbEntity
  8
文字
 62
     7
 48
50.0
100
AcDbText
 10
13583.11819016569
 20
9740.013745883729
 30
0.0
 40
100.0
  1
母屋中
  7
STYLE1
100
AcDbText
  0
TEXT
  5
18554
330
747D
100
AcDbEntity
  8
文字
 62
     7
 48
50.0
100
AcDbText
 10
15022.63965474516
 20
8550.013745883727
 30
0.0
 40
100.0
  1
F12            0.6
  7
STYLE1
100
AcDbText
  0
TEXT
  5
18555
330
747D
100
AcDbEntity
  8
文字
 62
     7
 48
50.0
100
AcDbText
 10
13583.11819016569
 20
8550.013745883731
 30
0.0
 40
100.0
  1
棚板
  7
STYLE1
100
AcDbText
  0
LINE
  5
18609
330
747D
100
AcDbEntity
  8
部品1
 48
50.0
100
AcDbLine
 10
8903.136519119305
 20
3399.485280366385
 30
0.0
 11
8956.136519119306
 21
3399.485280366385
 31
0.0
  0
LINE
  5
18623
330
747D
100
AcDbEntity
  8
部品1
 48
50.0
100
AcDbLine
 10
10983.1365191193
 20
4252.985280366385
 30
0.0
 11
8829.136519119305
 21
4252.985280366385
 31
0.0
  0
LINE
  5
18624
330
747D
100
AcDbEntity
  8
細線
 48
50.0
100
AcDbLine
 10
10983.1365191193
 20
4242.985280366386
 30
0.0
 11
8829.136519119305
 21
4242.985280366386
 31
0.0
  0
LINE
  5
18625
330
747D
100
AcDbEntity
  8
細線
 48
50.0
100
AcDbLine
 10
10953.1365191193
 20
4200.985280366385
 30
0.0
 11
8859.136519119305
 21
4200.985280366385
 31
0.0
  0
LINE
  5
18626
330
747D
100
AcDbEntity
  8
細線
 48
50.0
100
AcDbLine
 10
10953.1365191193
 20
4210.485280366385
 30
0.0
 11
8859.136519119305
 21
4210.485280366385
 31
0.0
  0
LINE
  5
18627
330
747D
100
AcDbEntity
  8
部品1
 48
50.0
100
AcDbLine
 10
8829.136519119305
 20
2417.985280366385
 30
0.0
 11
10983.1365191193
 21
2417.985280366385
 31
0.0
  0
LINE
  5
18628
330
747D
100
AcDbEntity
  8
細線
 48
50.0
100
AcDbLine
 10
8859.136519119305
 20
2460.985280366385
 30
0.0
 11
10953.1365191193
 21
2460.985280366385
 31
0.0
  0
LINE
  5
18629
330
747D
100
AcDbEntity
  8
細線
 48
50.0
100
AcDbLine
 10
8859.136519119305
 20
2464.985280366386
 30
0.0
 11
10953.1365191193
 21
2464.985280366386
 31
0.0
  0
LINE
  5
1862A
330
747D
100
AcDbEntity
  8
細線
 48
50.0
100
AcDbLine
 10
9663.136519119303
 20
2475.485280366385
 30
0.0
 11
10927.1365191193
 21
2475.485280366385
 31
0.0
  0
LINE
  5
1862B
330
747D
100
AcDbEntity
  8
部品1
 48
50.0
100
AcDbLine
 10
8859.136519119305
 20
2467.985280366385
 30
0.0
 11
8859.136519119305
 21
4200.985280366385
 31
0.0
  0
LINE
  5
1862C
330
747D
100
AcDbEntity
  8
細線
 48
50.0
100
AcDbLine
 10
8859.136519119305
 20
4210.485280366385
 30
0.0
 11
8859.136519119305
 21
2417.985280366385
 31
0.0
  0
LINE
  5
1862D
330
747D
100
AcDbEntity
  8
部品1
 48
50.0
100
AcDbLine
 10
8829.136519119305
 20
4252.985280366385
 30
0.0
 11
8829.136519119305
 21
2417.985280366385
 31
0.0
  0
LINE
  5
1862E
330
747D
100
AcDbEntity
  8
部品1
 48
50.0
100
AcDbLine
 10
9663.136519119303
 20
4200.985280391153
 30
0.0
 11
9663.136519119303
 21
2467.985280391153
 31
0.0
  0
LINE
  5
1862F
330
747D
100
AcDbEntity
  8
部品1
 48
50.0
100
AcDbLine
 10
8859.136519119305
 20
2467.985280366385
 30
0.0
 11
9663.136519119303
 21
2467.985280366382
 31
0.0
  0
LINE
  5
18630
330
747D
100
AcDbEntity
  8
部品1
 48
50.0
100
AcDbLine
 10
8868.136519119305
 20
2467.985280366385
 30
0.0
 11
8868.136519119305
 21
2464.985280366386
 31
0.0
  0
LINE
  5
18631
330
747D
100
AcDbEntity
  8
部品1
 48
50.0
100
AcDbLine
 10
8856.136519119306
 20
4252.985280366385
 30
0.0
 11
8856.136519119306
 21
4257.985280366385
 31
0.0
  0
LINE
  5
18632
330
747D
100
AcDbEntity
  8
部品1
 48
50.0
100
AcDbLine
 10
8859.136519119305
 20
4208.985280366385
 30
0.0
 11
8829.136519119305
 21
4208.985280366385
 31
0.0
  0
LINE
  5
18633
330
747D
100
AcDbEntity
  8
部品1
 48
50.0
100
AcDbLine
 10
10944.1365191193
 20
2464.985280366386
 30
0.0
 11
10944.1365191193
 21
4200.985280366385
 31
0.0
  0
LINE
  5
18634
330
747D
100
AcDbEntity
  8
細線
 48
50.0
100
AcDbLine
 10
10953.1365191193
 20
2417.985280366385
 30
0.0
 11
10953.1365191193
 21
4210.485280366385
 31
0.0
  0
LINE
  5
18635
330
747D
100
AcDbEntity
  8
部品1
 48
50.0
100
AcDbLine
 10
10983.1365191193
 20
2417.985280366385
 30
0.0
 11
10983.1365191193
 21
4252.985280366385
 31
0.0
  0
LINE
  5
18636
330
747D
100
AcDbEntity
  8
部品1
 48
50.0
100
AcDbLine
 10
10317.13650942416
 20
4200.985280403532
 30
0.0
 11
10317.13650942416
 21
2475.485280403533
 31
0.0
  0
LINE
  5
18637
330
747D
100
AcDbEntity
  8
細線
 48
50.0
100
AcDbLine
 10
10931.1365191193
 20
2464.985280366386
 30
0.0
 11
10927.1365191193
 21
2475.485280366385
 31
0.0
  0
LINE
  5
18638
330
747D
100
AcDbEntity
  8
部品1
 48
50.0
100
AcDbLine
 10
10956.1365191193
 20
4252.985280366385
 30
0.0
 11
10956.1365191193
 21
4257.985280366385
 31
0.0
  0
LINE
  5
18639
330
747D
100
AcDbEntity
  8
部品1
 48
50.0
100
AcDbLine
 10
10983.1365191193
 20
4208.985280366385
 30
0.0
 11
10953.1365191193
 21
4208.985280366385
 31
0.0
  0
LINE
  5
1863A
330
747D
100
AcDbEntity
  8
細線
100
AcDbLine
 10
10439.88651911931
 20
4200.985280366385
 30
0.0
 11
10439.88651911931
 21
2475.485280366404
 31
0.0
  0
LINE
  5
1863B
330
747D
100
AcDbEntity
  8
細線
100
AcDbLine
 10
9724.636528869547
 20
4200.985280366385
 30
0.0
 11
9724.636528869547
 21
2475.485280366396
 31
0.0
  0
LINE
  5
1863C
330
747D
100
AcDbEntity
  8
細線
100
AcDbLine
 10
9794.636528869547
 20
4200.985280366385
 30
0.0
 11
9794.636528869547
 21
2475.485280366396
 31
0.0
  0
LINE
  5
1863D
330
747D
100
AcDbEntity
  8
細線
100
AcDbLine
 10
9073.136519119305
 20
4200.985280366385
 30
0.0
 11
9073.136519119302
 21
2467.985280366389
 31
0.0
  0
LINE
  5
1863E
330
747D
100
AcDbEntity
  8
細線
100
AcDbLine
 10
9143.136519119305
 20
4200.985280366385
 30
0.0
 11
9143.136519119302
 21
2467.985280366389
 31
0.0
  0
LINE
  5
1863F
330
747D
100
AcDbEntity
  8
細線
100
AcDbLine
 10
10509.88651911931
 20
4200.985280366385
 30
0.0
 11
10509.88651911931
 21
2475.485280366404
 31
0.0
  0
LINE
  5
18640
330
747D
100
AcDbEntity
  8
細線
100
AcDbLine
 10
10579.88651911931
 20
4200.985280366385
 30
0.0
 11
10579.88651911931
 21
2475.485280366404
 31
0.0
  0
LINE
  5
18641
330
747D
100
AcDbEntity
  8
細線
100
AcDbLine
 10
10649.88651911931
 20
4200.985280366385
 30
0.0
 11
10649.88651911931
 21
2475.485280366404
 31
0.0
  0
LINE
  5
18642
330
747D
100
AcDbEntity
  8
細線
100
AcDbLine
 10
10719.88651911931
 20
4200.985280366385
 30
0.0
 11
10719.88651911931
 21
2475.485280366404
 31
0.0
  0
LINE
  5
18643
330
747D
100
AcDbEntity
  8
細線
100
AcDbLine
 10
10789.88651911931
 20
4200.985280366385
 30
0.0
 11
10789.88651911931
 21
2475.485280366404
 31
0.0
  0
LINE
  5
18644
330
747D
100
AcDbEntity
  8
細線
100
AcDbLine
 10
9864.636528869548
 20
4200.985280366385
 30
0.0
 11
9864.636528869548
 21
2475.485280366396
 31
0.0
  0
LINE
  5
18645
330
747D
100
AcDbEntity
  8
細線
100
AcDbLine
 10
9934.636528869546
 20
4200.985280366385
 30
0.0
 11
9934.636528869546
 21
2475.485280366396
 31
0.0
  0
LINE
  5
18646
330
747D
100
AcDbEntity
  8
細線
100
AcDbLine
 10
10004.63652886955
 20
4200.985280366385
 30
0.0
 11
10004.63652886955
 21
2475.485280366396
 31
0.0
  0
LINE
  5
18647
330
747D
100
AcDbEntity
  8
細線
100
AcDbLine
 10
10074.63652886954
 20
4200.985280366385
 30
0.0
 11
10074.63652886954
 21
2475.485280366396
 31
0.0
  0
LINE
  5
18648
330
747D
100
AcDbEntity
  8
細線
100
AcDbLine
 10
10144.63652886955
 20
4200.985280366385
 30
0.0
 11
10144.63652886955
 21
2475.485280366396
 31
0.0
  0
LINE
  5
18649
330
747D
100
AcDbEntity
  8
細線
100
AcDbLine
 10
10214.63652886954
 20
4200.985280366385
 30
0.0
 11
10214.63652886954
 21
2475.485280366396
 31
0.0
  0
LINE
  5
1864A
330
747D
100
AcDbEntity
  8
細線
100
AcDbLine
 10
8987.136519119301
 20
4200.985280366385
 30
0.0
 11
8987.136519119305
 21
2467.985280366389
 31
0.0
  0
LINE
  5
1864B
330
747D
100
AcDbEntity
  8
細線
100
AcDbLine
 10
9021.136519119302
 20
4200.985280366385
 30
0.0
 11
9021.136519119306
 21
2467.985280366389
 31
0.0
  0
LINE
  5
1864C
330
747D
100
AcDbEntity
  8
部品1
100
AcDbLine
 10
8979.136519119302
 20
4200.985280366385
 30
0.0
 11
8979.136519119306
 21
2467.985280366389
 31
0.0
  0
LINE
  5
1864D
330
747D
100
AcDbEntity
  8
部品1
100
AcDbLine
 10
9029.136519119303
 20
4200.985280366385
 30
0.0
 11
9029.136519119305
 21
2467.985280366389
 31
0.0
  0
LINE
  5
1864E
330
747D
100
AcDbEntity
  8
細線
100
AcDbLine
 10
9213.136519119306
 20
4200.985280366385
 30
0.0
 11
9213.1365191193
 21
2467.985280366389
 31
0.0
  0
LINE
  5
1864F
330
747D
100
AcDbEntity
  8
細線
100
AcDbLine
 10
9283.136519119306
 20
4200.985280366385
 30
0.0
 11
9283.136519119301
 21
2467.985280366389
 31
0.0
  0
LINE
  5
18650
330
747D
100
AcDbEntity
  8
細線
100
AcDbLine
 10
9353.136519119306
 20
4200.985280366385
 30
0.0
 11
9353.136519119301
 21
2467.985280366389
 31
0.0
  0
LINE
  5
18651
330
747D
100
AcDbEntity
  8
細線
100
AcDbLine
 10
9423.136519119305
 20
4200.985280366385
 30
0.0
 11
9423.136519119301
 21
2467.985280366389
 31
0.0
  0
LINE
  5
18652
330
747D
100
AcDbEntity
  8
細線
100
AcDbLine
 10
9493.136519119305
 20
4200.985280366385
 30
0.0
 11
9493.136519119302
 21
2467.985280366393
 31
0.0
  0
LINE
  5
18653
330
747D
100
AcDbEntity
  8
細線
100
AcDbLine
 10
9563.136519119305
 20
4200.985280366385
 30
0.0
 11
9563.136519119302
 21
2467.985280366393
 31
0.0
  0
LINE
  5
18654
330
747D
100
AcDbEntity
  8
部品1
100
AcDbLine
 10
10317.13650942416
 20
4200.985280403536
 30
0.0
 11
10317.13650942416
 21
2475.485280403551
 31
0.0
  0
LINE
  5
18655
330
747D
100
AcDbEntity
  8
部品1
 48
50.0
100
AcDbLine
 10
9663.136519119303
 20
4200.985280391153
 30
0.0
 11
9663.136519119303
 21
2467.985280366382
 31
0.0
  0
MTEXT
  5
18656
330
747D
100
AcDbEntity
  8
寸法
 62
     7
 48
50.0
100
AcDbMText
 10
9166.239056212416
 20
9365.880321939259
 30
0.0
 40
96.0
 41
0.0
 71
     5
 72
     1
  1
棚 2段
  7
STYLE1
 73
     1
 44
1.0
1001
ACAD
1000
MTEXTBEGIN
1070
    73
1070
     1
1070
    44
1040
1.0
1070
    74
1070
     0
1000
MTEXTEND
  0
DIMENSION
  5
18657
330
747D
100
AcDbEntity
  8
寸法
 48
50.0
100
AcDbDimension
  2
*D3
 10
8381.136519119307
 20
4892.078449705858
 30
0.0
 11
9906.136519119304
 21
4892.078449705858
 31
0.0
 70
   160
  1
柱外寸法<>
 71
     5
 42
3049.999999999997
  3
INABA_S40G
100
AcDbAlignedDimension
 13
11431.1365191193
 23
4492.98528036639
 33
0.0
 14
8381.136519119307
 24
4492.985280366392
 34
0.0
100
AcDbRotatedDimension
  0
DIMENSION
  5
18658
330
747D
100
AcDbEntity
  8
寸法
 48
50.0
100
AcDbDimension
  2
*D4
 10
11481.1365191193
 20
5108.604549324303
 30
0.0
 11
9906.136519119304
 21
5108.604549324303
 31
0.0
 70
   160
 71
     5
 42
3149.999999999997
  3
INABA_S40G
100
AcDbAlignedDimension
 13
8331.136519119306
 23
4492.98528036639
 33
0.0
 14
11481.1365191193
 24
4492.985280366388
 34
0.0
100
AcDbRotatedDimension
  0
DIMENSION
  5
18659
330
747D
100
AcDbEntity
  8
寸法
 48
50.0
100
AcDbDimension
  2
*D5
 10
8331.136519119306
 20
4892.078449705858
 30
0.0
 11
8017.651237745058
 21
4892.078449705858
 31
0.0
 70
   160
 71
     5
 42
50.0
  3
INABA_S40G
100
AcDbAlignedDimension
 13
8381.136519119307
 23
4492.985280366392
 33
0.0
 14
8331.136519119306
 24
4492.98528036639
 34
0.0
100
AcDbRotatedDimension
1001
ACAD
1000
DSTYLE
1002
{
1002
}
  0
LINE
  5
1865A
330
747D
100
AcDbEntity
  8
部品1
100
AcDbLine
 10
9544.136519119319
 20
4487.985280374855
 30
0.0
 11
9544.136519119321
 21
4390.574212866282
 31
0.0
  0
LINE
  5
1865B
330
747D
100
AcDbEntity
  8
部品1
100
AcDbLine
 10
9519.136519119319
 20
4487.985280374855
 30
0.0
 11
9519.136519119321
 21
4390.574212866282
 31
0.0
  0
LINE
  5
1865C
330
747D
100
AcDbEntity
  8
部品1
 48
50.0
100
AcDbLine
 10
9517.636519119312
 20
4487.985280374858
 30
0.0
 11
9545.636519119309
 21
4487.985280374858
 31
0.0
  0
LINE
  5
1865D
330
747D
100
AcDbEntity
  8
部品1
 48
50.0
100
AcDbLine
 10
9545.636519119312
 20
4487.985280374858
 30
0.0
 11
9556.136519119313
 21
4468.585280374856
 31
0.0
  0
LINE
  5
1865E
330
747D
100
AcDbEntity
  8
部品1
 48
50.0
100
AcDbLine
 10
9517.636519119312
 20
4487.985280374858
 30
0.0
 11
9507.136519119312
 21
4468.585280374856
 31
0.0
  0
LINE
  5
1865F
330
747D
100
AcDbEntity
  8
部品1
 48
50.0
100
AcDbLine
 10
9444.636519119312
 20
4487.985280374858
 30
0.0
 11
9472.63651911931
 21
4487.985280374858
 31
0.0
  0
LINE
  5
18660
330
747D
100
AcDbEntity
  8
部品1
100
AcDbLine
 10
9446.136519119319
 20
4487.985280374855
 30
0.0
 11
9446.136519119319
 21
4390.574212866282
 31
0.0
  0
LINE
  5
18661
330
747D
100
AcDbEntity
  8
部品1
 48
50.0
100
AcDbLine
 10
9444.636519119312
 20
4487.985280374858
 30
0.0
 11
9434.136519119313
 21
4468.585280374856
 31
0.0
  0
LINE
  5
18662
330
747D
100
AcDbEntity
  8
部品1
100
AcDbLine
 10
9471.136519119319
 20
4487.985280374855
 30
0.0
 11
9471.136519119319
 21
4390.574212866282
 31
0.0
  0
LINE
  5
18663
330
747D
100
AcDbEntity
  8
部品1
 48
50.0
100
AcDbLine
 10
9472.636519119312
 20
4487.985280374858
 30
0.0
 11
9483.136519119312
 21
4468.585280374856
 31
0.0
  0
LINE
  5
18664
330
747D
100
AcDbEntity
  8
部品1
100
AcDbLine
 10
9285.136519119319
 20
4487.985280374847
 30
0.0
 11
9285.136519119323
 21
4390.574212866282
 31
0.0
  0
LINE
  5
18665
330
747D
100
AcDbEntity
  8
部品1
 48
50.0
100
AcDbLine
 10
9288.136519119312
 20
4487.985280374858
 30
0.0
 11
9290.636519119313
 21
4468.585280374856
 31
0.0
  0
LINE
  5
18666
330
747D
100
AcDbEntity
  8
部品1
100
AcDbLine
 10
9267.13651911932
 20
4487.985280374847
 30
0.0
 11
9267.136519119322
 21
4390.574212866282
 31
0.0
  0
LINE
  5
18667
330
747D
100
AcDbEntity
  8
部品1
 48
50.0
100
AcDbLine
 10
9248.925178913124
 20
4478.585280374857
 30
0.0
 11
9247.636519119312
 21
4468.585280374856
 31
0.0
  0
LINE
  5
18668
330
747D
100
AcDbEntity
  8
部品1
 48
50.0
100
AcDbLine
 10
9248.925178913124
 20
4478.585280374857
 30
0.0
 11
9262.925178913125
 21
4478.585280374857
 31
0.0
  0
LINE
  5
18669
330
747D
100
AcDbEntity
  8
部品1
 48
50.0
100
AcDbLine
 10
9264.136519119313
 20
4487.985280374858
 30
0.0
 11
9262.925178913125
 21
4478.585280374857
 31
0.0
  0
LINE
  5
1866A
330
747D
100
AcDbEntity
  8
部品1
 48
50.0
100
AcDbLine
 10
9288.136519119312
 20
4487.985280374858
 30
0.0
 11
9264.136519119313
 21
4487.985280374858
 31
0.0
  0
LINE
  5
1866B
330
747D
100
AcDbEntity
  8
部品1
100
AcDbLine
 10
9434.136519119309
 20
4468.585280374853
 30
0.0
 11
9290.636519119308
 21
4468.585280374853
 31
0.0
  0
LINE
  5
1866C
330
747D
100
AcDbEntity
  8
部品1
100
AcDbLine
 10
9124.136519119319
 20
4487.985280374855
 30
0.0
 11
9124.136519119323
 21
4390.574212866282
 31
0.0
  0
LINE
  5
1866D
330
747D
100
AcDbEntity
  8
部品1
 48
50.0
100
AcDbLine
 10
9125.636519119312
 20
4487.985280374858
 30
0.0
 11
9136.136519119313
 21
4468.585280374856
 31
0.0
  0
LINE
  5
1866E
330
747D
100
AcDbEntity
  8
部品1
100
AcDbLine
 10
9026.136519119321
 20
4487.985280374855
 30
0.0
 11
9026.136519119321
 21
4390.574212866282
 31
0.0
  0
LINE
  5
1866F
330
747D
100
AcDbEntity
  8
部品1
100
AcDbLine
 10
9051.136519119321
 20
4487.985280374855
 30
0.0
 11
9051.136519119321
 21
4390.574212866282
 31
0.0
  0
LINE
  5
18670
330
747D
100
AcDbEntity
  8
部品1
100
AcDbLine
 10
9099.136519119319
 20
4487.985280374855
 30
0.0
 11
9099.136519119319
 21
4390.574212866282
 31
0.0
  0
LINE
  5
18671
330
747D
100
AcDbEntity
  8
部品1
 48
50.0
100
AcDbLine
 10
9024.636519119313
 20
4487.985280374858
 30
0.0
 11
9014.136519119313
 21
4468.585280374856
 31
0.0
  0
LINE
  5
18672
330
747D
100
AcDbEntity
  8
部品1
100
AcDbLine
 10
9087.13651911931
 20
4468.585280374853
 30
0.0
 11
9063.136519119312
 21
4468.585280374853
 31
0.0
  0
LINE
  5
18673
330
747D
100
AcDbEntity
  8
部品1
 48
50.0
100
AcDbLine
 10
9052.636519119312
 20
4487.985280374858
 30
0.0
 11
9063.136519119312
 21
4468.585280374856
 31
0.0
  0
LINE
  5
18674
330
747D
100
AcDbEntity
  8
部品1
 48
50.0
100
AcDbLine
 10
9097.636519119312
 20
4487.985280374858
 30
0.0
 11
9087.136519119313
 21
4468.585280374856
 31
0.0
  0
LINE
  5
18675
330
747D
100
AcDbEntity
  8
部品1
 48
50.0
100
AcDbLine
 10
9024.636519119313
 20
4487.985280374858
 30
0.0
 11
9052.636519119308
 21
4487.985280374858
 31
0.0
  0
LINE
  5
18676
330
747D
100
AcDbEntity
  8
部品1
 48
50.0
100
AcDbLine
 10
9097.636519119312
 20
4487.985280374858
 30
0.0
 11
9125.636519119309
 21
4487.985280374858
 31
0.0
  0
LINE
  5
18677
330
747D
100
AcDbEntity
  8
部品1
100
AcDbLine
 10
8865.136519119321
 20
4487.985280374847
 30
0.0
 11
8865.136519119323
 21
4390.574212866282
 31
0.0
  0
LINE
  5
18678
330
747D
100
AcDbEntity
  8
部品1
100
AcDbLine
 10
8847.13651911932
 20
4487.985280374847
 30
0.0
 11
8847.136519119322
 21
4390.574212866282
 31
0.0
  0
LINE
  5
18679
330
747D
100
AcDbEntity
  8
部品1
 48
50.0
100
AcDbLine
 10
8868.136519119312
 20
4487.985280374858
 30
0.0
 11
8844.136519119313
 21
4487.985280374858
 31
0.0
  0
LINE
  5
1867A
330
747D
100
AcDbEntity
  8
部品1
 48
50.0
100
AcDbLine
 10
8844.136519119313
 20
4487.985280374858
 30
0.0
 11
8842.925178913125
 21
4478.585280374857
 31
0.0
  0
LINE
  5
1867B
330
747D
100
AcDbEntity
  8
部品1
 48
50.0
100
AcDbLine
 10
8868.136519119312
 20
4487.985280374858
 30
0.0
 11
8870.636519119313
 21
4468.585280374856
 31
0.0
  0
LINE
  5
1867C
330
747D
100
AcDbEntity
  8
部品1
100
AcDbLine
 10
9014.136519119309
 20
4468.585280374853
 30
0.0
 11
8870.636519119308
 21
4468.585280374853
 31
0.0
  0
LINE
  5
1867D
330
747D
100
AcDbEntity
  8
部品1
100
AcDbLine
 10
9247.636519119312
 20
4468.585280374853
 30
0.0
 11
9136.136519119313
 21
4468.585280374853
 31
0.0
  0
LINE
  5
1867E
330
747D
100
AcDbEntity
  8
部品1
100
AcDbLine
 10
9507.13651911931
 20
4468.585280374853
 30
0.0
 11
9483.136519119312
 21
4468.585280374853
 31
0.0
  0
LINE
  5
1867F
330
747D
100
AcDbEntity
  8
部品1
100
AcDbLine
 10
8827.636519119312
 20
4468.585280374853
 30
0.0
 11
8716.136519119313
 21
4468.585280374853
 31
0.0
  0
LINE
  5
18680
330
747D
100
AcDbEntity
  8
部品1
100
AcDbLine
 10
8679.136519119321
 20
4487.985280374855
 30
0.0
 11
8679.136519119321
 21
4390.574212866282
 31
0.0
  0
LINE
  5
18681
330
747D
100
AcDbEntity
  8
部品1
100
AcDbLine
 10
8704.136519119321
 20
4487.985280374855
 30
0.0
 11
8704.136519119321
 21
4390.574212866282
 31
0.0
  0
LINE
  5
18682
330
747D
100
AcDbEntity
  8
部品1
 48
50.0
100
AcDbLine
 10
8705.636519119313
 20
4487.985280374858
 30
0.0
 11
8716.136519119313
 21
4468.585280374856
 31
0.0
  0
LINE
  5
18683
330
747D
100
AcDbEntity
  8
部品1
 48
50.0
100
AcDbLine
 10
8677.636519119312
 20
4487.985280374858
 30
0.0
 11
8705.636519119309
 21
4487.985280374858
 31
0.0
  0
LINE
  5
18684
330
747D
100
AcDbEntity
  8
部品1
 48
50.0
100
AcDbLine
 10
8828.925178913126
 20
4478.585280374857
 30
0.0
 11
8827.636519119312
 21
4468.585280374856
 31
0.0
  0
LINE
  5
18685
330
747D
100
AcDbEntity
  8
部品1
100
AcDbLine
 10
8667.136519119308
 20
4468.585280374853
 30
0.0
 11
8643.136519119313
 21
4468.585280374856
 31
0.0
  0
LINE
  5
18686
330
747D
100
AcDbEntity
  8
部品1
100
AcDbLine
 10
8631.136519119321
 20
4487.985280374855
 30
0.0
 11
8631.136519119321
 21
4390.574212866282
 31
0.0
  0
LINE
  5
18687
330
747D
100
AcDbEntity
  8
部品1
 48
50.0
100
AcDbLine
 10
8632.636519119314
 20
4487.985280374858
 30
0.0
 11
8643.136519119313
 21
4468.585280374856
 31
0.0
  0
LINE
  5
18688
330
747D
100
AcDbEntity
  8
部品1
100
AcDbLine
 10
8606.136519119321
 20
4487.985280374855
 30
0.0
 11
8606.136519119319
 21
4390.574212866282
 31
0.0
  0
LINE
  5
18689
330
747D
100
AcDbEntity
  8
部品1
 48
50.0
100
AcDbLine
 10
8604.636519119313
 20
4487.985280374858
 30
0.0
 11
8594.136519119313
 21
4468.585280374856
 31
0.0
  0
LINE
  5
1868A
330
747D
100
AcDbEntity
  8
部品1
 48
50.0
100
AcDbLine
 10
8604.636519119313
 20
4487.985280374858
 30
0.0
 11
8632.636519119309
 21
4487.985280374858
 31
0.0
  0
LINE
  5
1868B
330
747D
100
AcDbEntity
  8
部品1
 48
50.0
100
AcDbLine
 10
8677.636519119312
 20
4487.985280374858
 30
0.0
 11
8667.136519119313
 21
4468.585280374856
 31
0.0
  0
LINE
  5
1868C
330
747D
100
AcDbEntity
  8
部品1
100
AcDbLine
 10
8445.136519119321
 20
4487.985280374847
 30
0.0
 11
8445.136519119321
 21
4390.574212866282
 31
0.0
  0
LINE
  5
1868D
330
747D
100
AcDbEntity
  8
部品1
100
AcDbLine
 10
8427.13651911932
 20
4487.985280374858
 30
0.0
 11
8427.136519119322
 21
4390.574212866282
 31
0.0
  0
LINE
  5
1868E
330
747D
100
AcDbEntity
  8
部品1
 48
50.0
100
AcDbLine
 10
8448.136519119314
 20
4487.985280374858
 30
0.0
 11
8450.636519119312
 21
4468.585280374856
 31
0.0
  0
LINE
  5
1868F
330
747D
100
AcDbEntity
  8
部品1
100
AcDbLine
 10
8407.636519119312
 20
4468.585280374856
 30
0.0
 11
8381.136519119314
 21
4468.585280374856
 31
0.0
  0
LINE
  5
18690
330
747D
100
AcDbEntity
  8
部品1
 48
50.0
100
AcDbLine
 10
8408.925178913126
 20
4478.585280374857
 30
0.0
 11
8422.925178913125
 21
4478.585280374857
 31
0.0
  0
LINE
  5
18691
330
747D
100
AcDbEntity
  8
部品1
 48
50.0
100
AcDbLine
 10
8408.925178913126
 20
4478.585280374857
 30
0.0
 11
8407.636519119312
 21
4468.585280374856
 31
0.0
  0
LINE
  5
18692
330
747D
100
AcDbEntity
  8
部品1
 48
50.0
100
AcDbLine
 10
8424.136519119313
 20
4487.985280374858
 30
0.0
 11
8422.925178913125
 21
4478.585280374857
 31
0.0
  0
LINE
  5
18693
330
747D
100
AcDbEntity
  8
部品1
 48
50.0
100
AcDbLine
 10
8448.136519119314
 20
4487.985280374858
 30
0.0
 11
8424.136519119313
 21
4487.985280374858
 31
0.0
  0
LINE
  5
18694
330
747D
100
AcDbEntity
  8
部品1
100
AcDbLine
 10
8594.136519119313
 20
4468.585280374853
 30
0.0
 11
8450.636519119312
 21
4468.585280374856
 31
0.0
  0
LINE
  5
18695
330
747D
100
AcDbEntity
  8
部品1
 48
50.0
100
AcDbLine
 10
8828.925178913126
 20
4478.585280374857
 30
0.0
 11
8842.925178913125
 21
4478.585280374857
 31
0.0
  0
LINE
  5
18696
330
747D
100
AcDbEntity
  8
部品1
100
AcDbLine
 10
11436.20685636003
 20
4492.985280374829
 30
0.0
 11
8355.568679500221
 21
4492.985280374858
 31
0.0
  0
LINE
  5
18697
330
747D
100
AcDbEntity
  8
部品1
100
AcDbLine
 10
9667.63651911931
 20
4468.585280374838
 30
0.0
 11
9556.13651911932
 21
4468.585280374838
 31
0.0
  0
LINE
  5
18698
330
747D
100
AcDbEntity
  8
部品1
 48
50.0
100
AcDbLine
 10
8376.065891126108
 20
4437.985280366385
 30
0.0
 11
8338.122562936524
 21
4437.985280366385
 31
0.0
  0
ARC
  5
18699
330
747D
100
AcDbEntity
  8
部品1
100
AcDbCircle
 10
8333.095661559601
 20
4410.655397686975
 30
0.0
 40
0.7
100
AcDbArc
 50
183.6186294801312
 51
262.7131594833544
  0
ARC
  5
1869A
330
747D
100
AcDbEntity
  8
部品1
100
AcDbCircle
 10
8332.626365434405
 20
4406.985280366385
 30
0.0
 40
3.0
100
AcDbArc
 50
3.61862948013121
 51
90.0
  0
LINE
  5
1869B
330
747D
100
AcDbEntity
  8
部品1
100
AcDbLine
 10
8335.620384213211
 20
4407.174625427496
 30
0.0
 11
8340.36747722537
 21
4332.111217172714
 31
0.0
  0
ARC
  5
1869C
330
747D
100
AcDbEntity
  8
部品1
100
AcDbCircle
 10
8341.066081607094
 20
4332.155397686974
 30
0.0
 40
0.7
100
AcDbArc
 50
183.6186294801312
 51
262.7131594833544
  0
ARC
  5
1869D
330
747D
100
AcDbEntity
  8
部品1
100
AcDbCircle
 10
8340.596785481897
 20
4328.485280366385
 30
0.0
 40
3.0
100
AcDbArc
 50
3.61862948013121
 51
90.0
  0
ARC
  5
1869E
330
747D
100
AcDbEntity
  8
部品1
100
AcDbCircle
 10
8351.249173782495
 20
4318.485280366385
 30
0.0
 40
7.0
100
AcDbArc
 50
183.6186294801312
 51
270.0
  0
ARC
  5
1869F
330
747D
100
AcDbEntity
  8
部品1
100
AcDbCircle
 10
8338.122562936524
 20
4430.985280366384
 30
0.0
 40
7.0
100
AcDbArc
 50
90.0
 51
183.6186294801312
  0
LINE
  5
186A0
330
747D
100
AcDbEntity
  8
部品1
100
AcDbLine
 10
8344.263129965284
 20
4318.043475223796
 30
0.0
 11
8343.590804260703
 21
4328.674625427496
 31
0.0
  0
LINE
  5
186A1
330
747D
100
AcDbEntity
  8
部品1
100
AcDbLine
 10
8332.397057177878
 20
4410.611217172714
 30
0.0
 11
8331.136519119313
 21
4430.543475223796
 31
0.0
  0
LINE
  5
186A2
330
747D
100
AcDbEntity
  8
部品1
100
AcDbLine
 10
8376.065891126108
 20
4437.985280366385
 30
0.0
 11
8338.122562936524
 21
4437.985280366385
 31
0.0
  0
ARC
  5
186A3
330
747D
100
AcDbEntity
  8
部品1
100
AcDbCircle
 10
8376.065891126108
 20
4432.985280366385
 30
0.0
 40
5.0
100
AcDbArc
 50
0.0
 51
90.0
  0
LINE
  5
186A4
330
747D
100
AcDbEntity
  8
部品1
100
AcDbLine
 10
8381.065891126107
 20
4487.985280383283
 30
0.0
 11
8381.065891126105
 21
4390.581251693714
 31
0.0
  0
LINE
  5
186A5
330
747D
100
AcDbEntity
  8
部品1
100
AcDbLine
 10
11461.02386445611
 20
4311.485280366385
 30
0.0
 11
8351.249173782495
 21
4311.485280366385
 31
0.0
  0
LINE
  5
186A6
330
747D
100
AcDbEntity
  8
部品1
 48
50.0
100
AcDbLine
 10
8331.136519119313
 20
4430.543475223796
 30
0.0
 11
8331.136519119313
 21
4485.543475240694
 31
0.0
  0
ARC
  5
186A7
330
747D
100
AcDbEntity
  8
部品1
100
AcDbCircle
 10
8376.065891126108
 20
4487.985280383283
 30
0.0
 40
5.0
100
AcDbArc
 50
0.0
 51
90.0
  0
LINE
  5
186A8
330
747D
100
AcDbEntity
  8
部品1
100
AcDbLine
 10
8376.065891126108
 20
4492.985280383283
 30
0.0
 11
8338.122562936524
 21
4492.985280383283
 31
0.0
  0
ARC
  5
186A9
330
747D
100
AcDbEntity
  8
部品1
100
AcDbCircle
 10
8338.122562936524
 20
4485.985280383284
 30
0.0
 40
7.0
100
AcDbArc
 50
90.0
 51
183.6186294801312
  0
LINE
  5
186AA
330
747D
100
AcDbEntity
  8
細線
 48
50.0
100
AcDbLine
 10
11471.91487679236
 20
4332.258522930166
 30
0.0
 11
8341.020110751832
 21
4332.258522930171
 31
0.0
  0
LINE
  5
186AB
330
747D
100
AcDbEntity
  8
細線
 48
50.0
100
AcDbLine
 10
8363.62542921503
 20
4437.985280366385
 30
0.0
 11
8363.62542921503
 21
4311.485280366385
 31
0.0
  0
LINE
  5
186AC
330
747D
100
AcDbEntity
  8
細線
 48
50.0
100
AcDbLine
 10
8381.065891126105
 20
4409.957113114335
 30
0.0
 11
8333.002649842159
 21
4409.957113114342
 31
0.0
  0
LINE
  5
186AD
330
747D
100
AcDbEntity
  8
部品1
100
AcDbLine
 10
9687.136519119308
 20
4487.985280374847
 30
0.0
 11
9687.136519119308
 21
4390.574212866282
 31
0.0
  0
LINE
  5
186AE
330
747D
100
AcDbEntity
  8
部品1
100
AcDbLine
 10
9705.136519119307
 20
4487.985280374858
 30
0.0
 11
9705.136519119307
 21
4390.574212866282
 31
0.0
  0
LINE
  5
186AF
330
747D
100
AcDbEntity
  8
部品1
 48
50.0
100
AcDbLine
 10
9684.136519119315
 20
4487.985280374858
 30
0.0
 11
9708.136519119314
 21
4487.985280374858
 31
0.0
  0
LINE
  5
186B0
330
747D
100
AcDbEntity
  8
部品1
 48
50.0
100
AcDbLine
 10
9684.136519119315
 20
4487.985280374858
 30
0.0
 11
9682.92517891313
 21
4478.585280374857
 31
0.0
  0
LINE
  5
186B1
330
747D
100
AcDbEntity
  8
部品1
 48
50.0
100
AcDbLine
 10
9668.925178913129
 20
4478.585280374857
 30
0.0
 11
9682.92517891313
 21
4478.585280374857
 31
0.0
  0
LINE
  5
186B2
330
747D
100
AcDbEntity
  8
部品1
 48
50.0
100
AcDbLine
 10
9668.925178913129
 20
4478.585280374857
 30
0.0
 11
9667.636519119314
 21
4468.585280374856
 31
0.0
  0
LINE
  5
186B3
330
747D
100
AcDbEntity
  8
部品1
 48
50.0
100
AcDbLine
 10
9708.136519119314
 20
4487.985280374858
 30
0.0
 11
9710.636519119315
 21
4468.585280374856
 31
0.0
  0
LINE
  5
186B4
330
747D
100
AcDbEntity
  8
部品1
 48
50.0
100
AcDbLine
 10
8363.625429215032
 20
4390.574212866282
 30
0.0
 11
11448.64760902357
 21
4390.574212866282
 31
0.0
  0
LINE
  5
186B5
330
747D
100
AcDbEntity
  8
部品1
100
AcDbLine
 10
9927.136519119311
 20
4468.585280374856
 30
0.0
 11
9903.136519119314
 21
4468.585280374856
 31
0.0
  0
LINE
  5
186B6
330
747D
100
AcDbEntity
  8
部品1
 48
50.0
100
AcDbLine
 10
9892.636519119314
 20
4487.985280374862
 30
0.0
 11
9903.136519119314
 21
4468.58528037486
 31
0.0
  0
LINE
  5
186B7
330
747D
100
AcDbEntity
  8
部品1
 48
50.0
100
AcDbLine
 10
9864.636519119315
 20
4487.985280374862
 30
0.0
 11
9854.136519119315
 21
4468.58528037486
 31
0.0
  0
LINE
  5
186B8
330
747D
100
AcDbEntity
  8
部品1
 48
50.0
100
AcDbLine
 10
9864.636519119315
 20
4487.985280374862
 30
0.0
 11
9892.636519119312
 21
4487.985280374862
 31
0.0
  0
LINE
  5
186B9
330
747D
100
AcDbEntity
  8
部品1
 48
50.0
100
AcDbLine
 10
9937.636519119315
 20
4487.985280374862
 30
0.0
 11
9927.136519119315
 21
4468.58528037486
 31
0.0
  0
LINE
  5
186BA
330
747D
100
AcDbEntity
  8
部品1
 48
50.0
100
AcDbLine
 10
9965.636519119314
 20
4487.985280374862
 30
0.0
 11
9976.136519119314
 21
4468.58528037486
 31
0.0
  0
LINE
  5
186BB
330
747D
100
AcDbEntity
  8
部品1
 48
50.0
100
AcDbLine
 10
9937.636519119315
 20
4487.985280374862
 30
0.0
 11
9965.636519119312
 21
4487.985280374862
 31
0.0
  0
LINE
  5
186BC
330
747D
100
AcDbEntity
  8
部品1
100
AcDbLine
 10
10087.63651911931
 20
4468.585280374842
 30
0.0
 11
9976.136519119322
 21
4468.585280374842
 31
0.0
  0
LINE
  5
186BD
330
747D
100
AcDbEntity
  8
部品1
100
AcDbLine
 10
9854.136519119311
 20
4468.585280374856
 30
0.0
 11
9710.636519119312
 21
4468.585280374856
 31
0.0
  0
LINE
  5
186BE
330
747D
100
AcDbEntity
  8
部品1
100
AcDbLine
 10
9891.136519119323
 20
4487.985280374858
 30
0.0
 11
9891.136519119323
 21
4390.574212866286
 31
0.0
  0
LINE
  5
186BF
330
747D
100
AcDbEntity
  8
部品1
100
AcDbLine
 10
9866.136519119322
 20
4487.985280374858
 30
0.0
 11
9866.136519119322
 21
4390.574212866286
 31
0.0
  0
LINE
  5
186C0
330
747D
100
AcDbEntity
  8
部品1
100
AcDbLine
 10
9939.136519119323
 20
4487.985280374858
 30
0.0
 11
9939.136519119324
 21
4390.574212866286
 31
0.0
  0
LINE
  5
186C1
330
747D
100
AcDbEntity
  8
部品1
100
AcDbLine
 10
9964.136519119321
 20
4487.985280374858
 30
0.0
 11
9964.136519119325
 21
4390.574212866286
 31
0.0
  0
LINE
  5
186C2
330
747D
100
AcDbEntity
  8
部品1
100
AcDbLine
 10
10507.63651911931
 20
4468.585280374846
 30
0.0
 11
10396.13651911932
 21
4468.585280374846
 31
0.0
  0
LINE
  5
186C3
330
747D
100
AcDbEntity
  8
部品1
100
AcDbLine
 10
10384.13651911932
 20
4487.985280374862
 30
0.0
 11
10384.13651911932
 21
4390.574212866289
 31
0.0
  0
LINE
  5
186C4
330
747D
100
AcDbEntity
  8
部品1
100
AcDbLine
 10
10359.13651911932
 20
4487.985280374862
 30
0.0
 11
10359.13651911932
 21
4390.574212866289
 31
0.0
  0
LINE
  5
186C5
330
747D
100
AcDbEntity
  8
部品1
100
AcDbLine
 10
10286.13651911932
 20
4487.985280374862
 30
0.0
 11
10286.13651911932
 21
4390.574212866289
 31
0.0
  0
LINE
  5
186C6
330
747D
100
AcDbEntity
  8
部品1
100
AcDbLine
 10
10311.13651911932
 20
4487.985280374862
 30
0.0
 11
10311.13651911932
 21
4390.574212866289
 31
0.0
  0
LINE
  5
186C7
330
747D
100
AcDbEntity
  8
部品1
 48
50.0
100
AcDbLine
 10
10357.63651911931
 20
4487.985280374865
 30
0.0
 11
10385.63651911931
 21
4487.985280374865
 31
0.0
  0
LINE
  5
186C8
330
747D
100
AcDbEntity
  8
部品1
 48
50.0
100
AcDbLine
 10
10385.63651911931
 20
4487.985280374865
 30
0.0
 11
10396.13651911931
 21
4468.585280374863
 31
0.0
  0
LINE
  5
186C9
330
747D
100
AcDbEntity
  8
部品1
 48
50.0
100
AcDbLine
 10
10357.63651911931
 20
4487.985280374865
 30
0.0
 11
10347.13651911931
 21
4468.585280374863
 31
0.0
  0
LINE
  5
186CA
330
747D
100
AcDbEntity
  8
部品1
 48
50.0
100
AcDbLine
 10
10284.63651911931
 20
4487.985280374865
 30
0.0
 11
10312.63651911931
 21
4487.985280374865
 31
0.0
  0
LINE
  5
186CB
330
747D
100
AcDbEntity
  8
部品1
 48
50.0
100
AcDbLine
 10
10284.63651911931
 20
4487.985280374865
 30
0.0
 11
10274.13651911931
 21
4468.585280374863
 31
0.0
  0
LINE
  5
186CC
330
747D
100
AcDbEntity
  8
部品1
 48
50.0
100
AcDbLine
 10
10312.63651911931
 20
4487.985280374865
 30
0.0
 11
10323.13651911931
 21
4468.585280374863
 31
0.0
  0
LINE
  5
186CD
330
747D
100
AcDbEntity
  8
部品1
100
AcDbLine
 10
10347.13651911931
 20
4468.58528037486
 30
0.0
 11
10323.13651911931
 21
4468.58528037486
 31
0.0
  0
LINE
  5
186CE
330
747D
100
AcDbEntity
  8
部品1
100
AcDbLine
 10
10274.13651911931
 20
4468.58528037486
 30
0.0
 11
10130.63651911931
 21
4468.58528037486
 31
0.0
  0
LINE
  5
186CF
330
747D
100
AcDbEntity
  8
部品1
 48
50.0
100
AcDbLine
 10
10128.13651911931
 20
4487.985280374862
 30
0.0
 11
10130.63651911931
 21
4468.58528037486
 31
0.0
  0
LINE
  5
186D0
330
747D
100
AcDbEntity
  8
部品1
 48
50.0
100
AcDbLine
 10
10088.92517891313
 20
4478.58528037486
 30
0.0
 11
10087.63651911931
 21
4468.58528037486
 31
0.0
  0
LINE
  5
186D1
330
747D
100
AcDbEntity
  8
部品1
 48
50.0
100
AcDbLine
 10
10088.92517891313
 20
4478.58528037486
 30
0.0
 11
10102.92517891313
 21
4478.58528037486
 31
0.0
  0
LINE
  5
186D2
330
747D
100
AcDbEntity
  8
部品1
 48
50.0
100
AcDbLine
 10
10104.13651911931
 20
4487.985280374862
 30
0.0
 11
10102.92517891313
 21
4478.58528037486
 31
0.0
  0
LINE
  5
186D3
330
747D
100
AcDbEntity
  8
部品1
 48
50.0
100
AcDbLine
 10
10104.13651911931
 20
4487.985280374862
 30
0.0
 11
10128.13651911931
 21
4487.985280374862
 31
0.0
  0
LINE
  5
186D4
330
747D
100
AcDbEntity
  8
部品1
100
AcDbLine
 10
10125.13651911931
 20
4487.985280374862
 30
0.0
 11
10125.13651911931
 21
4390.574212866286
 31
0.0
  0
LINE
  5
186D5
330
747D
100
AcDbEntity
  8
部品1
100
AcDbLine
 10
10107.13651911931
 20
4487.985280374851
 30
0.0
 11
10107.13651911931
 21
4390.574212866286
 31
0.0
  0
LINE
  5
186D6
330
747D
100
AcDbEntity
  8
部品1
100
AcDbLine
 10
10527.13651911929
 20
4487.985280374862
 30
0.0
 11
10527.13651911929
 21
4390.574212866297
 31
0.0
  0
LINE
  5
186D7
330
747D
100
AcDbEntity
  8
部品1
100
AcDbLine
 10
10545.13651911929
 20
4487.985280374872
 30
0.0
 11
10545.13651911929
 21
4390.574212866297
 31
0.0
  0
LINE
  5
186D8
330
747D
100
AcDbEntity
  8
部品1
 48
50.0
100
AcDbLine
 10
10524.1365191193
 20
4487.985280374872
 30
0.0
 11
10548.13651911929
 21
4487.985280374872
 31
0.0
  0
LINE
  5
186D9
330
747D
100
AcDbEntity
  8
部品1
 48
50.0
100
AcDbLine
 10
10524.1365191193
 20
4487.985280374872
 30
0.0
 11
10522.92517891311
 21
4478.585280374871
 31
0.0
  0
LINE
  5
186DA
330
747D
100
AcDbEntity
  8
部品1
 48
50.0
100
AcDbLine
 10
10508.92517891311
 20
4478.585280374871
 30
0.0
 11
10522.92517891311
 21
4478.585280374871
 31
0.0
  0
LINE
  5
186DB
330
747D
100
AcDbEntity
  8
部品1
 48
50.0
100
AcDbLine
 10
10508.92517891311
 20
4478.585280374871
 30
0.0
 11
10507.6365191193
 21
4468.585280374871
 31
0.0
  0
LINE
  5
186DC
330
747D
100
AcDbEntity
  8
部品1
 48
50.0
100
AcDbLine
 10
10548.13651911929
 20
4487.985280374872
 30
0.0
 11
10550.6365191193
 21
4468.585280374871
 31
0.0
  0
LINE
  5
186DD
330
747D
100
AcDbEntity
  8
部品1
100
AcDbLine
 10
10694.13651911929
 20
4468.585280374871
 30
0.0
 11
10550.63651911929
 21
4468.585280374871
 31
0.0
  0
LINE
  5
186DE
330
747D
100
AcDbEntity
  8
部品1
100
AcDbLine
 10
10767.13651911929
 20
4468.585280374871
 30
0.0
 11
10743.1365191193
 21
4468.585280374871
 31
0.0
  0
LINE
  5
186DF
330
747D
100
AcDbEntity
  8
部品1
 48
50.0
100
AcDbLine
 10
10732.6365191193
 20
4487.985280374876
 30
0.0
 11
10743.1365191193
 21
4468.585280374875
 31
0.0
  0
LINE
  5
186E0
330
747D
100
AcDbEntity
  8
部品1
 48
50.0
100
AcDbLine
 10
10704.6365191193
 20
4487.985280374876
 30
0.0
 11
10694.1365191193
 21
4468.585280374875
 31
0.0
  0
LINE
  5
186E1
330
747D
100
AcDbEntity
  8
部品1
 48
50.0
100
AcDbLine
 10
10704.6365191193
 20
4487.985280374876
 30
0.0
 11
10732.63651911929
 21
4487.985280374876
 31
0.0
  0
LINE
  5
186E2
330
747D
100
AcDbEntity
  8
部品1
 48
50.0
100
AcDbLine
 10
10777.6365191193
 20
4487.985280374876
 30
0.0
 11
10767.1365191193
 21
4468.585280374875
 31
0.0
  0
LINE
  5
186E3
330
747D
100
AcDbEntity
  8
部品1
 48
50.0
100
AcDbLine
 10
10805.6365191193
 20
4487.985280374876
 30
0.0
 11
10816.1365191193
 21
4468.585280374875
 31
0.0
  0
LINE
  5
186E4
330
747D
100
AcDbEntity
  8
部品1
 48
50.0
100
AcDbLine
 10
10777.6365191193
 20
4487.985280374876
 30
0.0
 11
10805.63651911929
 21
4487.985280374876
 31
0.0
  0
LINE
  5
186E5
330
747D
100
AcDbEntity
  8
部品1
100
AcDbLine
 10
10731.1365191193
 20
4487.985280374872
 30
0.0
 11
10731.1365191193
 21
4390.5742128663
 31
0.0
  0
LINE
  5
186E6
330
747D
100
AcDbEntity
  8
部品1
100
AcDbLine
 10
10706.1365191193
 20
4487.985280374872
 30
0.0
 11
10706.1365191193
 21
4390.5742128663
 31
0.0
  0
LINE
  5
186E7
330
747D
100
AcDbEntity
  8
部品1
100
AcDbLine
 10
10779.1365191193
 20
4487.985280374872
 30
0.0
 11
10779.13651911931
 21
4390.5742128663
 31
0.0
  0
LINE
  5
186E8
330
747D
100
AcDbEntity
  8
部品1
100
AcDbLine
 10
10804.1365191193
 20
4487.985280374872
 30
0.0
 11
10804.1365191193
 21
4390.5742128663
 31
0.0
  0
LINE
  5
186E9
330
747D
100
AcDbEntity
  8
部品1
100
AcDbLine
 10
10927.63651911929
 20
4468.585280374856
 30
0.0
 11
10816.1365191193
 21
4468.585280374856
 31
0.0
  0
DIMENSION
  5
186EA
330
747D
100
AcDbEntity
  8
寸法
 48
50.0
100
AcDbDimension
  2
*D6
 10
11431.1365191193
 20
4892.078449705858
 30
0.0
 11
11794.62180049354
 21
4892.078449705858
 31
0.0
 70
   160
 71
     5
 42
50.0
  3
INABA_S40G
100
AcDbAlignedDimension
 13
11481.1365191193
 23
4492.985280366388
 33
0.0
 14
11431.1365191193
 24
4492.98528036639
 34
0.0
100
AcDbRotatedDimension
  0
LINE
  5
186EB
330
747D
100
AcDbEntity
  8
部品1
100
AcDbLine
 10
11367.13651911928
 20
4487.985280374847
 30
0.0
 11
11367.13651911928
 21
4390.574212866282
 31
0.0
  0
LINE
  5
186EC
330
747D
100
AcDbEntity
  8
部品1
100
AcDbLine
 10
11385.13651911928
 20
4487.985280374858
 30
0.0
 11
11385.13651911928
 21
4390.574212866282
 31
0.0
  0
LINE
  5
186ED
330
747D
100
AcDbEntity
  8
部品1
 48
50.0
100
AcDbLine
 10
11364.13651911929
 20
4487.985280374858
 30
0.0
 11
11388.13651911929
 21
4487.985280374858
 31
0.0
  0
LINE
  5
186EE
330
747D
100
AcDbEntity
  8
部品1
 48
50.0
100
AcDbLine
 10
11436.2071471125
 20
4437.985280366385
 30
0.0
 11
11474.15047530208
 21
4437.985280366385
 31
0.0
  0
ARC
  5
186EF
330
747D
100
AcDbEntity
  8
部品1
100
AcDbCircle
 10
11479.177376679
 20
4410.655397686975
 30
0.0
 40
0.7
100
AcDbArc
 50
277.2868405166456
 51
356.3813705198688
  0
ARC
  5
186F0
330
747D
100
AcDbEntity
  8
部品1
100
AcDbCircle
 10
11479.6466728042
 20
4406.985280366385
 30
0.0
 40
3.0
100
AcDbArc
 50
90.0
 51
176.3813705198687
  0
LINE
  5
186F1
330
747D
100
AcDbEntity
  8
部品1
100
AcDbLine
 10
11476.65265402539
 20
4407.174625427496
 30
0.0
 11
11471.90556101323
 21
4332.111217172714
 31
0.0
  0
ARC
  5
186F2
330
747D
100
AcDbEntity
  8
部品1
100
AcDbCircle
 10
11471.20695663151
 20
4332.155397686974
 30
0.0
 40
0.7
100
AcDbArc
 50
277.2868405166456
 51
356.3813705198688
  0
ARC
  5
186F3
330
747D
100
AcDbEntity
  8
部品1
100
AcDbCircle
 10
11471.67625275671
 20
4328.485280366385
 30
0.0
 40
3.0
100
AcDbArc
 50
90.0
 51
176.3813705198687
  0
ARC
  5
186F4
330
747D
100
AcDbEntity
  8
部品1
100
AcDbCircle
 10
11461.02386445611
 20
4318.485280366385
 30
0.0
 40
7.0
100
AcDbArc
 50
270.0
 51
356.3813705198688
  0
ARC
  5
186F5
330
747D
100
AcDbEntity
  8
部品1
100
AcDbCircle
 10
11474.15047530208
 20
4430.985280366384
 30
0.0
 40
7.0
100
AcDbArc
 50
356.3813705198688
 51
90.0
  0
LINE
  5
186F6
330
747D
100
AcDbEntity
  8
部品1
100
AcDbLine
 10
11468.00990827332
 20
4318.043475223796
 30
0.0
 11
11468.6822339779
 21
4328.674625427496
 31
0.0
  0
LINE
  5
186F7
330
747D
100
AcDbEntity
  8
部品1
100
AcDbLine
 10
11479.87598106072
 20
4410.611217172714
 30
0.0
 11
11481.13651911929
 21
4430.543475223796
 31
0.0
  0
LINE
  5
186F8
330
747D
100
AcDbEntity
  8
部品1
100
AcDbLine
 10
11436.2071471125
 20
4437.985280366385
 30
0.0
 11
11474.15047530208
 21
4437.985280366385
 31
0.0
  0
ARC
  5
186F9
330
747D
100
AcDbEntity
  8
部品1
100
AcDbCircle
 10
11436.2071471125
 20
4432.985280366385
 30
0.0
 40
5.0
100
AcDbArc
 50
90.0
 51
180.0
  0
LINE
  5
186FA
330
747D
100
AcDbEntity
  8
部品1
100
AcDbLine
 10
11431.2071471125
 20
4487.985280383283
 30
0.0
 11
11431.2071471125
 21
4390.574212866282
 31
0.0
  0
LINE
  5
186FB
330
747D
100
AcDbEntity
  8
部品1
 48
50.0
100
AcDbLine
 10
11481.13651911929
 20
4430.543475223796
 30
0.0
 11
11481.13651911929
 21
4485.543475240694
 31
0.0
  0
ARC
  5
186FC
330
747D
100
AcDbEntity
  8
部品1
100
AcDbCircle
 10
11436.2071471125
 20
4487.985280383283
 30
0.0
 40
5.0
100
AcDbArc
 50
90.0
 51
180.0
  0
LINE
  5
186FD
330
747D
100
AcDbEntity
  8
部品1
100
AcDbLine
 10
11436.2071471125
 20
4492.985280383283
 30
0.0
 11
11474.15047530208
 21
4492.985280383283
 31
0.0
  0
ARC
  5
186FE
330
747D
100
AcDbEntity
  8
部品1
100
AcDbCircle
 10
11474.15047530208
 20
4485.985280383284
 30
0.0
 40
7.0
100
AcDbArc
 50
356.3813705198688
 51
90.0
  0
LINE
  5
186FF
330
747D
100
AcDbEntity
  8
細線
 48
50.0
100
AcDbLine
 10
11448.64760902358
 20
4437.985280366385
 30
0.0
 11
11448.64760902357
 21
4311.485280366385
 31
0.0
  0
LINE
  5
18700
330
747D
100
AcDbEntity
  8
細線
 48
50.0
100
AcDbLine
 10
11431.2071471125
 20
4409.957113114335
 30
0.0
 11
11479.27038839644
 21
4409.957113114342
 31
0.0
  0
LINE
  5
18701
330
747D
100
AcDbEntity
  8
部品1
 48
50.0
100
AcDbLine
 10
11364.13651911929
 20
4487.985280374858
 30
0.0
 11
11362.92517891311
 21
4478.585280374857
 31
0.0
  0
LINE
  5
18702
330
747D
100
AcDbEntity
  8
部品1
 48
50.0
100
AcDbLine
 10
11348.9251789131
 20
4478.585280374857
 30
0.0
 11
11362.92517891311
 21
4478.585280374857
 31
0.0
  0
LINE
  5
18703
330
747D
100
AcDbEntity
  8
部品1
 48
50.0
100
AcDbLine
 10
11348.9251789131
 20
4478.585280374857
 30
0.0
 11
11347.63651911929
 21
4468.585280374856
 31
0.0
  0
LINE
  5
18704
330
747D
100
AcDbEntity
  8
部品1
 48
50.0
100
AcDbLine
 10
11388.13651911929
 20
4487.985280374858
 30
0.0
 11
11390.63651911929
 21
4468.585280374856
 31
0.0
  0
LINE
  5
18705
330
747D
100
AcDbEntity
  8
部品1
100
AcDbLine
 10
11431.2071471125
 20
4468.585280374853
 30
0.0
 11
11390.63651911929
 21
4468.585280374853
 31
0.0
  0
LINE
  5
18706
330
747D
100
AcDbEntity
  8
部品1
100
AcDbLine
 10
11347.63651911929
 20
4468.585280374856
 30
0.0
 11
11236.1365191193
 21
4468.585280374856
 31
0.0
  0
LINE
  5
18707
330
747D
100
AcDbEntity
  8
部品1
100
AcDbLine
 10
11224.1365191193
 20
4487.985280374872
 30
0.0
 11
11224.1365191193
 21
4390.5742128663
 31
0.0
  0
LINE
  5
18708
330
747D
100
AcDbEntity
  8
部品1
100
AcDbLine
 10
11199.1365191193
 20
4487.985280374872
 30
0.0
 11
11199.1365191193
 21
4390.5742128663
 31
0.0
  0
LINE
  5
18709
330
747D
100
AcDbEntity
  8
部品1
100
AcDbLine
 10
11126.1365191193
 20
4487.985280374872
 30
0.0
 11
11126.1365191193
 21
4390.5742128663
 31
0.0
  0
LINE
  5
1870A
330
747D
100
AcDbEntity
  8
部品1
100
AcDbLine
 10
11151.1365191193
 20
4487.985280374872
 30
0.0
 11
11151.1365191193
 21
4390.5742128663
 31
0.0
  0
LINE
  5
1870B
330
747D
100
AcDbEntity
  8
部品1
 48
50.0
100
AcDbLine
 10
11197.63651911929
 20
4487.985280374876
 30
0.0
 11
11225.63651911929
 21
4487.985280374876
 31
0.0
  0
LINE
  5
1870C
330
747D
100
AcDbEntity
  8
部品1
 48
50.0
100
AcDbLine
 10
11225.63651911929
 20
4487.985280374876
 30
0.0
 11
11236.13651911929
 21
4468.585280374875
 31
0.0
  0
LINE
  5
1870D
330
747D
100
AcDbEntity
  8
部品1
 48
50.0
100
AcDbLine
 10
11197.63651911929
 20
4487.985280374876
 30
0.0
 11
11187.13651911929
 21
4468.585280374875
 31
0.0
  0
LINE
  5
1870E
330
747D
100
AcDbEntity
  8
部品1
 48
50.0
100
AcDbLine
 10
11124.63651911929
 20
4487.985280374876
 30
0.0
 11
11152.63651911929
 21
4487.985280374876
 31
0.0
  0
LINE
  5
1870F
330
747D
100
AcDbEntity
  8
部品1
 48
50.0
100
AcDbLine
 10
11124.63651911929
 20
4487.985280374876
 30
0.0
 11
11114.13651911929
 21
4468.585280374875
 31
0.0
  0
LINE
  5
18710
330
747D
100
AcDbEntity
  8
部品1
 48
50.0
100
AcDbLine
 10
11152.63651911929
 20
4487.985280374876
 30
0.0
 11
11163.13651911929
 21
4468.585280374875
 31
0.0
  0
LINE
  5
18711
330
747D
100
AcDbEntity
  8
部品1
100
AcDbLine
 10
11187.13651911929
 20
4468.585280374871
 30
0.0
 11
11163.13651911929
 21
4468.585280374871
 31
0.0
  0
LINE
  5
18712
330
747D
100
AcDbEntity
  8
部品1
100
AcDbLine
 10
11114.13651911929
 20
4468.585280374871
 30
0.0
 11
10970.63651911929
 21
4468.585280374871
 31
0.0
  0
LINE
  5
18713
330
747D
100
AcDbEntity
  8
部品1
 48
50.0
100
AcDbLine
 10
10968.13651911929
 20
4487.985280374872
 30
0.0
 11
10970.63651911929
 21
4468.585280374871
 31
0.0
  0
LINE
  5
18714
330
747D
100
AcDbEntity
  8
部品1
 48
50.0
100
AcDbLine
 10
10928.92517891311
 20
4478.585280374871
 30
0.0
 11
10927.63651911929
 21
4468.585280374871
 31
0.0
  0
LINE
  5
18715
330
747D
100
AcDbEntity
  8
部品1
 48
50.0
100
AcDbLine
 10
10928.92517891311
 20
4478.585280374871
 30
0.0
 11
10942.92517891311
 21
4478.585280374871
 31
0.0
  0
LINE
  5
18716
330
747D
100
AcDbEntity
  8
部品1
 48
50.0
100
AcDbLine
 10
10944.13651911929
 20
4487.985280374872
 30
0.0
 11
10942.92517891311
 21
4478.585280374871
 31
0.0
  0
LINE
  5
18717
330
747D
100
AcDbEntity
  8
部品1
 48
50.0
100
AcDbLine
 10
10944.13651911929
 20
4487.985280374872
 30
0.0
 11
10968.13651911929
 21
4487.985280374872
 31
0.0
  0
LINE
  5
18718
330
747D
100
AcDbEntity
  8
部品1
100
AcDbLine
 10
10965.13651911929
 20
4487.985280374872
 30
0.0
 11
10965.13651911929
 21
4390.574212866297
 31
0.0
  0
LINE
  5
18719
330
747D
100
AcDbEntity
  8
部品1
100
AcDbLine
 10
10947.13651911929
 20
4487.985280374862
 30
0.0
 11
10947.13651911929
 21
4390.574212866297
 31
0.0
  0
LINE
  5
1871A
330
747D
100
AcDbEntity
  8
細線
 48
50.0
100
AcDbLine
 10
11298.63651911931
 20
4257.985280366385
 30
0.0
 11
11298.63651911931
 21
2467.985280366385
 31
0.0
  0
LINE
  5
1871B
330
747D
100
AcDbEntity
  8
細線
 48
50.0
100
AcDbLine
 10
11313.63651911931
 20
4257.985280366385
 30
0.0
 11
11313.63651911931
 21
2467.985280366385
 31
0.0
  0
LINE
  5
1871C
330
747D
100
AcDbEntity
  8
細線
 48
50.0
100
AcDbLine
 10
11173.63651911931
 20
4257.985280366385
 30
0.0
 11
11173.63651911931
 21
2467.985280366385
 31
0.0
  0
LINE
  5
1871D
330
747D
100
AcDbEntity
  8
細線
 48
50.0
100
AcDbLine
 10
11158.63651911931
 20
4257.985280366385
 30
0.0
 11
11158.63651911931
 21
2467.985280366385
 31
0.0
  0
LINE
  5
1871E
330
747D
100
AcDbEntity
  8
細線
 48
50.0
100
AcDbLine
 10
11018.63651911931
 20
4257.985280366385
 30
0.0
 11
11018.63651911931
 21
2467.985280366385
 31
0.0
  0
LINE
  5
1871F
330
747D
100
AcDbEntity
  8
細線
 48
50.0
100
AcDbLine
 10
11033.63651911931
 20
4257.985280366385
 30
0.0
 11
11033.63651911931
 21
2467.985280366385
 31
0.0
  0
LINE
  5
18720
330
747D
100
AcDbEntity
  8
細線
 48
50.0
100
AcDbLine
 10
8778.636519119308
 20
4257.985280366385
 30
0.0
 11
8778.636519119308
 21
2467.985280366385
 31
0.0
  0
LINE
  5
18721
330
747D
100
AcDbEntity
  8
細線
 48
50.0
100
AcDbLine
 10
8793.636519119308
 20
4257.985280366385
 30
0.0
 11
8793.636519119308
 21
2467.985280366385
 31
0.0
  0
LINE
  5
18722
330
747D
100
AcDbEntity
  8
細線
 48
50.0
100
AcDbLine
 10
8653.636519119308
 20
4257.985280366385
 30
0.0
 11
8653.636519119308
 21
2467.985280366385
 31
0.0
  0
LINE
  5
18723
330
747D
100
AcDbEntity
  8
細線
 48
50.0
100
AcDbLine
 10
8638.636519119307
 20
4257.985280366385
 30
0.0
 11
8638.636519119307
 21
2467.985280366385
 31
0.0
  0
LINE
  5
18724
330
747D
100
AcDbEntity
  8
細線
 48
50.0
100
AcDbLine
 10
8498.636519119306
 20
4257.985280366385
 30
0.0
 11
8498.636519119306
 21
2467.985280366385
 31
0.0
  0
LINE
  5
18725
330
747D
100
AcDbEntity
  8
細線
 48
50.0
100
AcDbLine
 10
8513.636519119307
 20
4257.985280366385
 30
0.0
 11
8513.636519119307
 21
2467.985280366385
 31
0.0
  0
LINE
  5
18B13
330
747D
100
AcDbEntity
  8
補助
  6
PHANTOM
 62
   230
 48
50.0
100
AcDbLine
 10
140.0
 20
0.0
 30
0.0
 11
139.9999999999995
 21
11409.6
 31
0.0
  0
LINE
  5
18C97
330
747D
100
AcDbEntity
  8
部品1
100
AcDbLine
 10
11374.6365191193
 20
8464.645503741946
 30
0.0
 11
8437.636519119299
 21
8464.645503741849
 31
0.0
  0
LINE
  5
18C98
330
747D
100
AcDbEntity
  8
部品1
100
AcDbLine
 10
8409.136519119288
 20
8464.645503741849
 30
0.0
 11
8381.136519119287
 21
8464.645503741849
 31
0.0
  0
LINE
  5
18C99
330
747D
100
AcDbEntity
  8
部品1
100
AcDbLine
 10
11403.13651911931
 20
8464.645503741976
 30
0.0
 11
11431.13651911931
 21
8464.645503741976
 31
0.0
  0
TEXT
  5
18F48
330
747D
100
AcDbEntity
  8
部品1
100
AcDbText
 10
2277.669134791707
 20
2354.092183972287
 30
0.0
 40
125.0
  1
▽G.L
  7
STYLE2
100
AcDbText
  0
LINE
  5
18F49
330
747D
100
AcDbEntity
  8
部品1
100
AcDbLine
 10
4269.039489782044
 20
2417.985280366385
 30
0.0
 11
4269.039489782044
 21
2317.985280366385
 31
0.0
  0
LINE
  5
18F4A
330
747D
100
AcDbEntity
  8
部品1
 48
50.0
100
AcDbLine
 10
5074.039489782045
 20
2417.985280366385
 30
0.0
 11
5074.039489782045
 21
2317.985280366385
 31
0.0
  0
LINE
  5
18F4B
330
747D
100
AcDbEntity
  8
部品1
 48
50.0
100
AcDbLine
 10
5274.039489782044
 20
2417.985280366385
 30
0.0
 11
5274.039489782044
 21
2317.985280366385
 31
0.0
  0
LINE
  5
18F4C
330
747D
100
AcDbEntity
  8
部品1
100
AcDbLine
 10
6079.039489782044
 20
2417.985280366385
 30
0.0
 11
6079.039489782044
 21
2317.985280366385
 31
0.0
  0
LINE
  5
18F4D
330
747D
100
AcDbEntity
  8
部品1
 48
50.0
100
AcDbLine
 10
6356.039489782045
 20
2417.985280366385
 30
0.0
 11
6271.539489782044
 21
2417.985280366385
 31
0.0
  0
LINE
  5
18F4E
330
747D
100
AcDbEntity
  8
部品1
 48
50.0
100
AcDbLine
 10
6356.039489782045
 20
4242.985280366386
 30
0.0
 11
6356.039489782045
 21
2317.985280366385
 31
0.0
  0
LINE
  5
18F4F
330
747D
100
AcDbEntity
  8
部品1
 48
50.0
100
AcDbLine
 10
6279.039489782044
 20
4252.985280366385
 30
0.0
 11
6356.039489782045
 21
4242.985280366386
 31
0.0
  0
LINE
  5
18F50
330
747D
100
AcDbEntity
  8
破線
 48
5.0
100
AcDbLine
 10
6151.539489782051
 20
2317.985280366385
 30
0.0
 11
6151.539489782051
 21
2117.985280366385
 31
0.0
  0
LINE
  5
18F51
330
747D
100
AcDbEntity
  8
破線
 48
5.0
100
AcDbLine
 10
6351.539489782044
 20
2117.985280366382
 30
0.0
 11
6151.539489782051
 21
2117.985280366385
 31
0.0
  0
LINE
  5
18F52
330
747D
100
AcDbEntity
  8
破線
 48
5.0
100
AcDbLine
 10
6351.539489782052
 20
2317.985280366385
 30
0.0
 11
6351.539489782044
 21
2117.985280366382
 31
0.0
  0
DIMENSION
  5
18F53
330
747D
100
AcDbEntity
  8
寸法
 48
50.0
100
AcDbDimension
  2
*D18
 10
3996.539489782044
 20
1831.937951066005
 30
0.0
 11
4096.539489782045
 21
1831.937951066005
 31
0.0
 70
   160
 71
     5
 42
200.0
  3
INABA_S40G
100
AcDbAlignedDimension
 13
4196.539489782044
 23
2117.985280366382
 33
0.0
 14
3996.539489782044
 24
2117.985280366383
 34
0.0
100
AcDbRotatedDimension
  0
LINE
  5
18F54
330
747D
100
AcDbEntity
  8
破線
 48
5.0
100
AcDbLine
 10
3996.539489782044
 20
2317.985280366385
 30
0.0
 11
3996.539489782044
 21
2117.985280366382
 31
0.0
  0
LINE
  5
18F55
330
747D
100
AcDbEntity
  8
破線
 48
5.0
100
AcDbLine
 10
4196.539489782044
 20
2317.985280366385
 30
0.0
 11
4196.539489782044
 21
2117.985280366382
 31
0.0
  0
LINE
  5
18F56
330
747D
100
AcDbEntity
  8
破線
 48
5.0
100
AcDbLine
 10
4196.539489782044
 20
2117.985280366382
 30
0.0
 11
3996.539489782044
 21
2117.985280366382
 31
0.0
  0
DIMENSION
  5
18F57
330
747D
100
AcDbEntity
  8
寸法
 48
50.0
100
AcDbDimension
  2
*D19
 10
3847.03948653541
 20
2317.985280366384
 30
0.0
 11
3711.771066396276
 21
2188.129633633316
 31
0.0
 70
   160
 71
     5
 42
200.0
  3
INABA_S40G
100
AcDbAlignedDimension
 13
3996.539489782044
 23
2117.985280366383
 33
0.0
 14
3971.539489782045
 24
2317.985280366384
 34
0.0
 50
90.0
100
AcDbRotatedDimension
1001
ACAD
1000
DSTYLE
1002
{
1070
   174
1070
     0
1070
   272
1070
     1
1070
   279
1070
     2
1070
   341
1005
0
1002
}
  0
DIMENSION
  5
18F58
330
747D
100
AcDbEntity
  8
寸法
 48
50.0
100
AcDbDimension
  2
*D20
 10
3448.431083013672
 20
4367.330539239714
 30
0.0
 11
3459.096558272597
 21
4738.177202481418
 31
0.0
 70
   161
 71
     5
 42
141.0000000000018
  3
INABA_S40G
100
AcDbAlignedDimension
 13
4028.435509940623
 23
4491.708029201065
 33
0.0
 14
4024.382054383997
 24
4350.76630543535
 34
0.0
1001
ACAD
1000
DSTYLE
1002
{
1070
   174
1070
     0
1070
   272
1070
     1
1070
   288
1070
     0
1070
   341
1005
0
1002
}
  0
LINE
  5
18F59
330
747D
100
AcDbEntity
  8
部品1
100
AcDbLine
 10
6271.539489782044
 20
2417.985280366385
 30
0.0
 11
6279.039489782044
 21
2417.985280366385
 31
0.0
  0
LINE
  5
18F5A
330
747D
100
AcDbEntity
  8
破線
  6
HIDDEN
 48
5.0
100
AcDbLine
 10
4116.539489782044
 20
2317.985280366385
 30
0.0
 11
4116.539489782044
 21
2312.985280366385
 31
0.0
  0
LINE
  5
18F5B
330
747D
100
AcDbEntity
  8
破線
  6
HIDDEN
 48
5.0
100
AcDbLine
 10
4076.539489782051
 20
2317.985280366385
 30
0.0
 11
4076.539489782051
 21
2312.985280366385
 31
0.0
  0
LINE
  5
18F5C
330
747D
100
AcDbEntity
  8
破線
  6
HIDDEN
 48
5.0
100
AcDbLine
 10
6271.539489782044
 20
2317.985280366385
 30
0.0
 11
6271.539489782044
 21
2312.985280366385
 31
0.0
  0
LINE
  5
18F5D
330
747D
100
AcDbEntity
  8
破線
  6
HIDDEN
 48
5.0
100
AcDbLine
 10
6231.539489782044
 20
2317.985280366385
 30
0.0
 11
6231.539489782044
 21
2312.985280366385
 31
0.0
  0
ARC
  5
18F5E
330
747D
100
AcDbEntity
  8
部品1
 48
50.0
100
AcDbCircle
 10
6266.539489782044
 20
2457.985280366385
 30
0.0
 40
5.0
100
AcDbArc
 50
0.0
 51
90.0
  0
ARC
  5
18F5F
330
747D
100
AcDbEntity
  8
部品1
 48
50.0
100
AcDbCircle
 10
6236.539489782044
 20
2457.985280366385
 30
0.0
 40
5.0
100
AcDbArc
 50
90.0
 51
180.0
  0
LINE
  5
18F60
330
747D
100
AcDbEntity
  8
部品1
100
AcDbLine
 10
6266.539489782044
 20
2462.985280366385
 30
0.0
 11
6236.539489782044
 21
2462.985280366385
 31
0.0
  0
LINE
  5
18F61
330
747D
100
AcDbEntity
  8
部品1
 48
50.0
100
AcDbLine
 10
6271.539489782044
 20
2457.985280366385
 30
0.0
 11
6271.539489782044
 21
2317.985280366385
 31
0.0
  0
LINE
  5
18F62
330
747D
100
AcDbEntity
  8
部品1
 48
50.0
100
AcDbLine
 10
6231.539489782044
 20
2457.985280366385
 30
0.0
 11
6231.539489782044
 21
2317.985280366385
 31
0.0
  0
ARC
  5
18F63
330
747D
100
AcDbEntity
  8
部品1
 48
50.0
100
AcDbCircle
 10
4111.539489782044
 20
2457.985280366385
 30
0.0
 40
5.0
100
AcDbArc
 50
0.0
 51
90.0
  0
ARC
  5
18F64
330
747D
100
AcDbEntity
  8
部品1
 48
50.0
100
AcDbCircle
 10
4081.539489782044
 20
2457.985280366385
 30
0.0
 40
5.0
100
AcDbArc
 50
90.0
 51
180.0
  0
LINE
  5
18F65
330
747D
100
AcDbEntity
  8
部品1
100
AcDbLine
 10
4081.539489782044
 20
2462.985280366385
 30
0.0
 11
4111.539489782044
 21
2462.985280366385
 31
0.0
  0
LINE
  5
18F66
330
747D
100
AcDbEntity
  8
部品1
 48
50.0
100
AcDbLine
 10
4116.539489782044
 20
2457.985280366385
 30
0.0
 11
4116.539489782044
 21
2317.985280366385
 31
0.0
  0
LINE
  5
18F67
330
747D
100
AcDbEntity
  8
部品1
 48
50.0
100
AcDbLine
 10
4076.539489782044
 20
2457.985280366385
 30
0.0
 11
4076.539489782044
 21
2317.985280366385
 31
0.0
  0
LINE
  5
18F68
330
747D
100
AcDbEntity
  8
破線
  6
HIDDEN
 48
5.0
100
AcDbLine
 10
4116.539489782044
 20
2312.985280366385
 30
0.0
 11
4131.539489782045
 21
2165.285280366385
 31
0.0
  0
LINE
  5
18F69
330
747D
100
AcDbEntity
  8
破線
  6
HIDDEN
 48
5.0
100
AcDbLine
 10
4076.539489782044
 20
2312.985280366385
 30
0.0
 11
4061.539489782044
 21
2165.285280366385
 31
0.0
  0
LINE
  5
18F6A
330
747D
100
AcDbEntity
  8
破線
  6
HIDDEN
 48
5.0
100
AcDbLine
 10
4131.539489782045
 20
2165.285280366385
 30
0.0
 11
4131.539489782045
 21
2162.985280366385
 31
0.0
  0
LINE
  5
18F6B
330
747D
100
AcDbEntity
  8
破線
  6
HIDDEN
 48
5.0
100
AcDbLine
 10
4061.539489782044
 20
2165.285280366385
 30
0.0
 11
4061.539489782044
 21
2162.985280366385
 31
0.0
  0
LINE
  5
18F6C
330
747D
100
AcDbEntity
  8
破線
  6
HIDDEN
 48
5.0
100
AcDbLine
 10
4061.539489782044
 20
2162.985280366385
 30
0.0
 11
4131.539489782045
 21
2162.985280366385
 31
0.0
  0
LINE
  5
18F6D
330
747D
100
AcDbEntity
  8
破線
  6
HIDDEN
 48
5.0
100
AcDbLine
 10
6286.539489782044
 20
2165.285280366385
 30
0.0
 11
6286.539489782044
 21
2162.985280366385
 31
0.0
  0
LINE
  5
18F6E
330
747D
100
AcDbEntity
  8
破線
  6
HIDDEN
 48
5.0
100
AcDbLine
 10
6271.539489782044
 20
2312.985280366385
 30
0.0
 11
6286.539489782044
 21
2165.285280366385
 31
0.0
  0
LINE
  5
18F6F
330
747D
100
AcDbEntity
  8
破線
  6
HIDDEN
 48
5.0
100
AcDbLine
 10
6216.539489782044
 20
2165.285280366385
 30
0.0
 11
6216.539489782044
 21
2162.985280366385
 31
0.0
  0
LINE
  5
18F70
330
747D
100
AcDbEntity
  8
破線
  6
HIDDEN
 48
5.0
100
AcDbLine
 10
6231.539489782044
 20
2312.985280366385
 30
0.0
 11
6216.539489782044
 21
2165.285280366385
 31
0.0
  0
LINE
  5
18F71
330
747D
100
AcDbEntity
  8
破線
  6
HIDDEN
 48
5.0
100
AcDbLine
 10
6286.539489782044
 20
2162.985280366385
 30
0.0
 11
6216.539489782044
 21
2162.985280366385
 31
0.0
  0
DIMENSION
  5
18F72
330
747D
100
AcDbEntity
  8
寸法
100
AcDbDimension
  2
*D21
 10
3445.386780623748
 20
2417.985280366385
 30
0.0
 11
3445.386780623747
 21
2111.938036271891
 31
0.0
 70
   160
 71
     5
 42
50.0
  3
INABA_S40G
100
AcDbAlignedDimension
 13
4069.039489782045
 23
2467.985280366385
 33
0.0
 14
4014.039489782044
 24
2417.985280366385
 34
0.0
 50
90.0
100
AcDbRotatedDimension
1001
ACAD
1000
DSTYLE
1002
{
1070
   174
1070
     0
1070
   272
1070
     1
1070
   288
1070
     0
1070
   341
1005
0
1002
}
  0
DIMENSION
  5
18F73
330
747D
100
AcDbEntity
  8
寸法
100
AcDbDimension
  2
*D22
 10
3160.400107852686
 20
2317.985280366385
 30
0.0
 11
3160.400107852685
 21
2081.938036271891
 31
0.0
 70
   160
 71
     5
 42
100.0
  3
INABA_S40G
100
AcDbAlignedDimension
 13
4014.039489782044
 23
2417.985280366385
 33
0.0
 14
3445.386780623747
 24
2317.985280366385
 34
0.0
 50
90.0
100
AcDbRotatedDimension
1001
ACAD
1000
DSTYLE
1002
{
1070
   174
1070
     0
1070
   272
1070
     1
1070
   288
1070
     0
1070
   341
1005
0
1002
}
  0
DIMENSION
  5
18F74
330
747D
100
AcDbEntity
  8
寸法
100
AcDbDimension
  2
*D23
 10
3160.400107852686
 20
4492.985280366389
 30
0.0
 11
3160.400107852685
 21
3412.191157859496
 31
0.0
 70
   160
 71
     5
 42
2075.000000000004
  3
INABA_S40G
100
AcDbAlignedDimension
 13
4069.039489782045
 23
2417.985280366385
 33
0.0
 14
4009.039489782044
 24
4492.985280366389
 34
0.0
 50
90.0
100
AcDbRotatedDimension
1001
ACAD
1000
DSTYLE
1002
{
1070
   174
1070
     0
1070
   272
1070
     1
1070
   288
1070
     0
1070
   341
1005
0
1002
}
  0
DIMENSION
  5
18F75
330
747D
100
AcDbEntity
  8
寸法
100
AcDbDimension
  2
*D24
 10
3445.386780623748
 20
2467.985280366385
 30
0.0
 11
3445.386780623747
 21
3358.439578908343
 31
0.0
 70
   160
 71
     5
 42
1790.0
  3
INABA_S40G
100
AcDbAlignedDimension
 13
4069.039489782045
 23
4257.985280366385
 33
0.0
 14
4069.039489782045
 24
2467.985280366385
 34
0.0
 50
90.0
100
AcDbRotatedDimension
1001
ACAD
1000
DSTYLE
1002
{
1070
   174
1070
     0
1070
   272
1070
     1
1070
   288
1070
     0
1070
   341
1005
0
1002
}
  0
LINE
  5
18F76
330
747D
100
AcDbEntity
  8
部品1
100
AcDbLine
 10
4069.039489782045
 20
2417.985280366385
 30
0.0
 11
4076.539489782044
 21
2417.985280366385
 31
0.0
  0
LINE
  5
18F77
330
747D
100
AcDbEntity
  8
部品1
100
AcDbLine
 10
5555.774822896263
 20
1628.947017388975
 30
0.0
 11
4792.304156667822
 21
1628.947017388975
 31
0.0
  0
LINE
  5
18F78
330
747D
100
AcDbEntity
  8
部品1
100
AcDbLine
 10
5555.774822896263
 20
1389.054695843442
 30
0.0
 11
5555.774822896263
 21
1628.947017388975
 31
0.0
  0
LINE
  5
18F79
330
747D
100
AcDbEntity
  8
部品1
100
AcDbLine
 10
4792.304156667822
 20
1389.054695843442
 30
0.0
 11
5555.774822896263
 21
1389.054695843442
 31
0.0
  0
LINE
  5
18F7A
330
747D
100
AcDbEntity
  8
部品1
100
AcDbLine
 10
4792.304156667822
 20
1628.947017388975
 30
0.0
 11
4792.304156667822
 21
1389.054695843442
 31
0.0
  0
TEXT
  5
18F7B
330
747D
100
AcDbEntity
  8
部品1
100
AcDbText
 10
4881.75025809143
 20
1436.05348817045
 30
0.0
 40
135.0
  1
側面図
  7
STYLE2
100
AcDbText
  0
LINE
  5
18F7C
330
747D
100
AcDbEntity
  8
細線
 48
50.0
100
AcDbLine
 10
6146.539489782052
 20
4257.985280366385
 30
0.0
 11
6146.539489782052
 21
2467.985280366385
 31
0.0
  0
LINE
  5
18F7D
330
747D
100
AcDbEntity
  8
細線
 48
50.0
100
AcDbLine
 10
6161.539489782051
 20
4257.985280366385
 30
0.0
 11
6161.539489782051
 21
2467.985280366385
 31
0.0
  0
LINE
  5
18F7E
330
747D
100
AcDbEntity
  8
細線
 48
50.0
100
AcDbLine
 10
6021.539489782052
 20
4257.985280366385
 30
0.0
 11
6021.539489782052
 21
2467.985280366385
 31
0.0
  0
LINE
  5
18F7F
330
747D
100
AcDbEntity
  8
細線
 48
50.0
100
AcDbLine
 10
6006.539489782052
 20
4257.985280366385
 30
0.0
 11
6006.539489782052
 21
2467.985280366385
 31
0.0
  0
LINE
  5
18F80
330
747D
100
AcDbEntity
  8
細線
 48
50.0
100
AcDbLine
 10
5866.539489782052
 20
4257.985280366385
 30
0.0
 11
5866.539489782052
 21
2467.985280366385
 31
0.0
  0
LINE
  5
18F81
330
747D
100
AcDbEntity
  8
細線
 48
50.0
100
AcDbLine
 10
5881.539489782052
 20
4257.985280366385
 30
0.0
 11
5881.539489782052
 21
2467.985280366385
 31
0.0
  0
LINE
  5
18F82
330
747D
100
AcDbEntity
  8
部品1
100
AcDbLine
 10
5384.039489782044
 20
4257.985280366385
 30
0.0
 11
5384.039489782044
 21
2467.985280366385
 31
0.0
  0
LINE
  5
18F83
330
747D
100
AcDbEntity
  8
細線
 48
50.0
100
AcDbLine
 10
5041.539489782044
 20
4257.985280366385
 30
0.0
 11
5041.539489782044
 21
2467.985280366385
 31
0.0
  0
LINE
  5
18F84
330
747D
100
AcDbEntity
  8
細線
 48
50.0
100
AcDbLine
 10
5026.539489782044
 20
4257.985280366385
 30
0.0
 11
5026.539489782044
 21
2467.985280366385
 31
0.0
  0
LINE
  5
18F85
330
747D
100
AcDbEntity
  8
細線
 48
50.0
100
AcDbLine
 10
5166.539489782044
 20
4257.985280366385
 30
0.0
 11
5166.539489782044
 21
2467.985280366385
 31
0.0
  0
LINE
  5
18F86
330
747D
100
AcDbEntity
  8
細線
 48
50.0
100
AcDbLine
 10
5181.539489782045
 20
4257.985280366385
 30
0.0
 11
5181.539489782045
 21
2467.985280366385
 31
0.0
  0
LINE
  5
18F87
330
747D
100
AcDbEntity
  8
細線
 48
50.0
100
AcDbLine
 10
5321.539489782044
 20
4257.985280366385
 30
0.0
 11
5321.539489782044
 21
2467.985280366385
 31
0.0
  0
LINE
  5
18F88
330
747D
100
AcDbEntity
  8
細線
 48
50.0
100
AcDbLine
 10
5306.539489782045
 20
4257.985280366385
 30
0.0
 11
5306.539489782045
 21
2467.985280366385
 31
0.0
  0
LINE
  5
18F89
330
747D
100
AcDbEntity
  8
部品1
100
AcDbLine
 10
4964.039489782044
 20
4257.985280366385
 30
0.0
 11
4964.039489782044
 21
2467.985280366385
 31
0.0
  0
DIMENSION
  5
18F8A
330
747D
100
AcDbEntity
  8
寸法
 48
50.0
100
AcDbDimension
  2
*D25
 10
6359.039489782045
 20
4891.642733945689
 30
0.0
 11
6565.086733876532
 21
4891.642733945689
 31
0.0
 70
   160
 71
     5
 42
80.0
  3
INABA_S40G
100
AcDbAlignedDimension
 13
6279.039489782044
 23
4439.795959978037
 33
0.0
 14
6359.039489782045
 24
4437.985280366385
 34
0.0
100
AcDbRotatedDimension
1001
ACAD
1000
DSTYLE
1002
{
1070
   174
1070
     0
1070
   272
1070
     1
1070
   288
1070
     0
1070
   341
1005
0
1002
}
  0
LINE
  5
18F8B
330
747D
100
AcDbEntity
  8
細線
 48
50.0
100
AcDbLine
 10
4201.539489782044
 20
4257.985280366385
 30
0.0
 11
4201.539489782044
 21
2467.985280366385
 31
0.0
  0
LINE
  5
18F8C
330
747D
100
AcDbEntity
  8
細線
 48
50.0
100
AcDbLine
 10
4186.539489782044
 20
4257.985280366385
 30
0.0
 11
4186.539489782044
 21
2467.985280366385
 31
0.0
  0
LINE
  5
18F8D
330
747D
100
AcDbEntity
  8
細線
 48
50.0
100
AcDbLine
 10
4326.539489782044
 20
4257.985280366385
 30
0.0
 11
4326.539489782044
 21
2467.985280366385
 31
0.0
  0
LINE
  5
18F8E
330
747D
100
AcDbEntity
  8
細線
 48
50.0
100
AcDbLine
 10
4341.539489782044
 20
4257.985280366385
 30
0.0
 11
4341.539489782044
 21
2467.985280366385
 31
0.0
  0
LINE
  5
18F8F
330
747D
100
AcDbEntity
  8
細線
 48
50.0
100
AcDbLine
 10
4481.539489782044
 20
4257.985280366385
 30
0.0
 11
4481.539489782044
 21
2467.985280366385
 31
0.0
  0
LINE
  5
18F90
330
747D
100
AcDbEntity
  8
細線
 48
50.0
100
AcDbLine
 10
4466.539489782044
 20
4257.985280366385
 30
0.0
 11
4466.539489782044
 21
2467.985280366385
 31
0.0
  0
LINE
  5
18F91
330
747D
100
AcDbEntity
  8
細線
 48
50.0
100
AcDbLine
 10
4886.539489782045
 20
4257.985280366385
 30
0.0
 11
4886.539489782045
 21
2467.985280366385
 31
0.0
  0
LINE
  5
18F92
330
747D
100
AcDbEntity
  8
細線
 48
50.0
100
AcDbLine
 10
4901.539489782044
 20
4257.985280366385
 30
0.0
 11
4901.539489782044
 21
2467.985280366385
 31
0.0
  0
LINE
  5
18F93
330
747D
100
AcDbEntity
  8
細線
 48
50.0
100
AcDbLine
 10
4761.539489782044
 20
4257.985280366385
 30
0.0
 11
4761.539489782044
 21
2467.985280366385
 31
0.0
  0
LINE
  5
18F94
330
747D
100
AcDbEntity
  8
細線
 48
50.0
100
AcDbLine
 10
4746.539489782044
 20
4257.985280366385
 30
0.0
 11
4746.539489782044
 21
2467.985280366385
 31
0.0
  0
LINE
  5
18F95
330
747D
100
AcDbEntity
  8
細線
 48
50.0
100
AcDbLine
 10
4606.539489782044
 20
4257.985280366385
 30
0.0
 11
4606.539489782044
 21
2467.985280366385
 31
0.0
  0
LINE
  5
18F96
330
747D
100
AcDbEntity
  8
細線
 48
50.0
100
AcDbLine
 10
4621.539489782044
 20
4257.985280366385
 30
0.0
 11
4621.539489782044
 21
2467.985280366385
 31
0.0
  0
LINE
  5
18F97
330
747D
100
AcDbEntity
  8
部品1
100
AcDbLine
 10
4069.039489782045
 20
2417.985280366385
 30
0.0
 11
4076.539489782044
 21
2417.985280366385
 31
0.0
  0
DIMENSION
  5
18F98
330
747D
100
AcDbEntity
  8
寸法
 48
50.0
100
AcDbDimension
  2
*D26
 10
4009.039489782044
 20
5110.84456761998
 30
0.0
 11
5243.383343874513
 21
5110.84456761998
 31
0.0
 70
   160
 71
     5
 42
2350.0
  3
INABA_S40G
100
AcDbAlignedDimension
 13
6359.039489782045
 23
4437.985280366385
 33
0.0
 14
4009.039489782044
 24
4492.985280366389
 34
0.0
100
AcDbRotatedDimension
1001
ACAD
1000
DSTYLE
1002
{
1070
   174
1070
     0
1070
   272
1070
     1
1070
   288
1070
     0
1070
   341
1005
0
1002
}
  0
DIMENSION
  5
18F99
330
747D
100
AcDbEntity
  8
寸法
 48
50.0
100
AcDbDimension
  2
*D27
 10
4009.039489782044
 20
4891.642733945689
 30
0.0
 11
3699.401694506451
 21
4891.642733945689
 31
0.0
 70
   160
 71
     5
 42
60.0
  3
INABA_S40G
100
AcDbAlignedDimension
 13
4069.039489782045
 23
4488.986898489361
 33
0.0
 14
4009.039489782044
 24
4492.985280366389
 34
0.0
100
AcDbRotatedDimension
1001
ACAD
1000
DSTYLE
1002
{
1070
   174
1070
     0
1070
   272
1070
     1
1070
   288
1070
     0
1070
   341
1005
0
1002
}
  0
DIMENSION
  5
18F9A
330
747D
100
AcDbEntity
  8
寸法
 48
50.0
100
AcDbDimension
  2
*D28
 10
4069.039489782045
 20
4891.642733945689
 30
0.0
 11
5163.684226852558
 21
4891.642733945689
 31
0.0
 70
   160
  1
柱外寸法<>
 71
     5
 42
2210.0
  3
INABA_S40G
100
AcDbAlignedDimension
 13
6279.039489782044
 23
4439.795959978037
 33
0.0
 14
4069.039489782045
 24
4488.986898489361
 34
0.0
100
AcDbRotatedDimension
1001
ACAD
1000
DSTYLE
1002
{
1070
   174
1070
     0
1070
   272
1070
     1
1070
   288
1070
     0
1070
   341
1005
0
1002
}
  0
DIMENSION
  5
18F9B
330
747D
100
AcDbEntity
  8
寸法
100
AcDbDimension
  2
*D29
 10
6839.146113723633
 20
4437.985280366385
 30
0.0
 11
6839.146113723633
 21
3440.037961613322
 31
0.0
 70
   160
 71
     5
 42
2020.000000000003
  3
INABA_S40G
100
AcDbAlignedDimension
 13
6356.039489782045
 23
2417.985280366384
 33
0.0
 14
6359.039489782045
 24
4437.985280366385
 34
0.0
 50
90.0
100
AcDbRotatedDimension
1001
ACAD
1000
DSTYLE
1002
{
1070
   174
1070
     0
1070
   272
1070
     1
1070
   288
1070
     0
1070
   341
1005
0
1002
}
  0
LINE
  5
18F9C
330
747D
100
AcDbEntity
  8
部品1
100
AcDbLine
 10
6224.039489782044
 20
4257.985280366385
 30
0.0
 11
6224.039489782044
 21
2467.985280366385
 31
0.0
  0
LINE
  5
18F9D
330
747D
100
AcDbEntity
  8
部品1
100
AcDbLine
 10
6279.039489782044
 20
4312.661717997605
 30
0.0
 11
6279.039489782044
 21
2317.985280366385
 31
0.0
  0
LINE
  5
18F9E
330
747D
100
AcDbEntity
  8
部品1
100
AcDbLine
 10
4544.039489782044
 20
4257.985280366385
 30
0.0
 11
4544.039489782044
 21
2467.985280366385
 31
0.0
  0
LINE
  5
18F9F
330
747D
100
AcDbEntity
  8
部品1
100
AcDbLine
 10
4069.039489782045
 20
4349.843799808632
 30
0.0
 11
4069.039489782045
 21
2317.985280366385
 31
0.0
  0
LINE
  5
18FA0
330
747D
100
AcDbEntity
  8
部品1
100
AcDbLine
 10
4124.039489782044
 20
4257.985280366385
 30
0.0
 11
4124.039489782044
 21
2467.985280366385
 31
0.0
  0
LINE
  5
18FA1
330
747D
100
AcDbEntity
  8
部品1
100
AcDbLine
 10
4069.039489782045
 20
2467.985280366385
 30
0.0
 11
6279.039489782044
 21
2467.985280366385
 31
0.0
  0
LINE
  5
18FA2
330
747D
100
AcDbEntity
  8
部品1
100
AcDbLine
 10
4069.039489782045
 20
4257.985280366385
 30
0.0
 11
6279.039489782044
 21
4257.985280366385
 31
0.0
  0
LINE
  5
18FA3
330
747D
100
AcDbEntity
  8
部品1
100
AcDbLine
 10
5804.039489782044
 20
4257.985280366385
 30
0.0
 11
5804.039489782044
 21
2467.985280366385
 31
0.0
  0
LINE
  5
18FA4
330
747D
100
AcDbEntity
  8
細線
 48
50.0
100
AcDbLine
 10
5726.539489782044
 20
4257.985280366385
 30
0.0
 11
5726.539489782044
 21
2467.985280366385
 31
0.0
  0
LINE
  5
18FA5
330
747D
100
AcDbEntity
  8
細線
 48
50.0
100
AcDbLine
 10
5741.539489782044
 20
4257.985280366385
 30
0.0
 11
5741.539489782044
 21
2467.985280366385
 31
0.0
  0
LINE
  5
18FA6
330
747D
100
AcDbEntity
  8
細線
 48
50.0
100
AcDbLine
 10
5601.539489782044
 20
4257.985280366385
 30
0.0
 11
5601.539489782044
 21
2467.985280366385
 31
0.0
  0
LINE
  5
18FA7
330
747D
100
AcDbEntity
  8
細線
 48
50.0
100
AcDbLine
 10
5586.539489782044
 20
4257.985280366385
 30
0.0
 11
5586.539489782044
 21
2467.985280366385
 31
0.0
  0
LINE
  5
18FA8
330
747D
100
AcDbEntity
  8
細線
 48
50.0
100
AcDbLine
 10
5446.539489782044
 20
4257.985280366385
 30
0.0
 11
5446.539489782044
 21
2467.985280366385
 31
0.0
  0
LINE
  5
18FA9
330
747D
100
AcDbEntity
  8
細線
 48
50.0
100
AcDbLine
 10
5461.539489782044
 20
4257.985280366385
 30
0.0
 11
5461.539489782044
 21
2467.985280366385
 31
0.0
  0
TEXT
  5
18FAA
330
747D
100
AcDbEntity
  8
部品1
 48
50.0
100
AcDbText
 10
5489.940347670861
 20
4521.800467641646
 30
0.0
 40
120.0
  1
44
 50
90.0
  7
STYLE1
100
AcDbText
  0
TEXT
  5
18FAB
330
747D
100
AcDbEntity
  8
部品1
 48
50.0
100
AcDbText
 10
5012.307325005771
 20
4659.301725859928
 30
0.0
 40
120.0
  1
1000
  7
STYLE1
100
AcDbText
  0
LINE
  5
18FAC
330
747D
100
AcDbEntity
  8
部品1
 48
50.0
100
AcDbLine
 10
5324.039489782045
 20
4623.417703707494
 30
0.0
 11
5324.039489782045
 21
4607.217703707497
 31
0.0
  0
LINE
  5
18FAD
330
747D
100
AcDbEntity
  8
部品1
 48
50.0
100
AcDbLine
 10
5024.039489782044
 20
4623.417703707494
 30
0.0
 11
5324.039489782045
 21
4623.417703707494
 31
0.0
  0
LINE
  5
18FAE
330
747D
100
AcDbEntity
  8
部品1
100
AcDbLine
 10
4016.584476139003
 20
4491.703015700652
 30
0.0
 11
6351.651366643506
 21
4436.626078075524
 31
0.0
  0
LINE
  5
18FAF
330
747D
100
AcDbEntity
  8
部品1
100
AcDbLine
 10
4024.382054383997
 20
4350.76630543535
 30
0.0
 11
6333.703190321888
 21
4311.737880201146
 31
0.0
  0
LINE
  5
18FB0
330
747D
100
AcDbEntity
  8
細線
 48
50.0
100
AcDbLine
 10
4042.039489782044
 20
4490.384956741789
 30
0.0
 11
4036.750388226537
 21
4350.299324114436
 31
0.0
  0
LINE
  5
18FB1
330
747D
100
AcDbEntity
  8
細線
 48
50.0
100
AcDbLine
 10
6326.039489782044
 20
4437.952259401682
 30
0.0
 11
6321.291806894048
 21
4312.206486910937
 31
0.0
  0
LINE
  5
18FB2
330
747D
100
AcDbEntity
  8
部品1
 48
50.0
100
AcDbLine
 10
4009.223775695151
 20
4484.578826531076
 30
0.0
 11
4009.604035472963
 21
4464.651862084665
 31
0.0
  0
LINE
  5
18FB3
330
747D
100
AcDbEntity
  8
部品1
 48
50.0
100
AcDbLine
 10
4012.672807579205
 20
4461.076580591194
 30
0.0
 11
4014.376709070574
 21
4371.786083884546
 31
0.0
  0
LINE
  5
18FB4
330
747D
100
AcDbEntity
  8
細線
 48
50.0
100
AcDbLine
 10
4010.078912882854
 20
4464.002362207746
 30
0.0
 11
6355.714897628029
 21
4408.378157566918
 31
0.0
  0
LINE
  5
18FB5
330
747D
100
AcDbEntity
  8
細線
 48
50.0
100
AcDbLine
 10
4014.83938812014
 20
4371.140850509882
 30
0.0
 11
6344.843052550779
 21
4331.33153153539
 31
0.0
  0
LINE
  5
18FB6
330
747D
100
AcDbEntity
  8
部品1
 48
50.0
100
AcDbLine
 10
4017.445481176816
 20
4368.210802391073
 30
0.0
 11
4017.647433797247
 21
4357.627766997983
 31
0.0
  0
ARC
  5
18FB7
330
747D
100
AcDbEntity
  8
部品1
 48
50.0
100
AcDbCircle
 10
4016.222501523487
 20
4484.712380938504
 30
0.0
 40
7.0
100
AcDbArc
 50
87.03587545283228
 51
181.0932240293156
  0
ARC
  5
18FB8
330
747D
100
AcDbEntity
  8
部品1
 48
50.0
100
AcDbCircle
 10
4024.646159625583
 20
4357.761321405411
 30
0.0
 40
7.0
100
AcDbArc
 50
181.0932240293156
 51
267.8377559871574
  0
ARC
  5
18FB9
330
747D
100
AcDbEntity
  8
部品1
100
AcDbCircle
 10
4014.446027250385
 20
4368.153564787891
 30
0.0
 40
3.0
100
AcDbArc
 50
1.093224029315636
 51
80.18775403169875
  0
ARC
  5
18FBA
330
747D
100
AcDbEntity
  8
部品1
100
AcDbCircle
 10
4009.673353652775
 20
4461.019342988008
 30
0.0
 40
3.0
100
AcDbArc
 50
1.093224029315636
 51
80.18775403169875
  0
ARC
  5
18FBB
330
747D
100
AcDbEntity
  8
部品1
100
AcDbCircle
 10
4010.303908055801
 20
4464.665217525407
 30
0.0
 40
0.7
100
AcDbArc
 50
181.0932240292114
 51
260.1877540316988
  0
ARC
  5
18FBC
330
747D
100
AcDbEntity
  8
部品1
100
AcDbCircle
 10
4015.076581653411
 20
4371.799439325289
 30
0.0
 40
0.7
100
AcDbArc
 50
181.0932240293156
 51
260.1877540316988
  0
LINE
  5
18FBD
330
747D
100
AcDbEntity
  8
部品1
 48
50.0
100
AcDbLine
 10
6358.253392592749
 20
4428.926432640603
 30
0.0
 11
6356.222771401779
 21
4408.981391382822
 31
0.0
  0
LINE
  5
18FBE
330
747D
100
AcDbEntity
  8
部品1
 48
50.0
100
AcDbLine
 10
6352.870204917294
 20
4405.670757309914
 30
0.0
 11
6345.36342565246
 21
4331.938136564902
 31
0.0
  0
LINE
  5
18FBF
330
747D
100
AcDbEntity
  8
部品1
 48
50.0
100
AcDbLine
 10
6342.010859167975
 20
4328.627502491989
 30
0.0
 11
6340.931296128234
 21
4318.023885498431
 31
0.0
  0
ARC
  5
18FC0
330
747D
100
AcDbEntity
  8
部品1
 48
50.0
100
AcDbCircle
 10
6351.28939202799
 20
4429.635443313379
 30
0.0
 40
7.0
100
AcDbArc
 50
354.1866997665532
 51
87.03587545283228
  0
ARC
  5
18FC1
330
747D
100
AcDbEntity
  8
部品1
 48
50.0
100
AcDbCircle
 10
6333.967295563475
 20
4318.732896171204
 30
0.0
 40
7.0
100
AcDbArc
 50
267.8377559871574
 51
354.1866997665532
  0
ARC
  5
18FC2
330
747D
100
AcDbEntity
  8
部品1
100
AcDbCircle
 10
6344.995430838578
 20
4328.323640775086
 30
0.0
 40
3.0
100
AcDbArc
 50
95.09216976420788
 51
174.1866997665532
  0
ARC
  5
18FC3
330
747D
100
AcDbEntity
  8
部品1
100
AcDbCircle
 10
6355.854776587904
 20
4405.366895593011
 30
0.0
 40
3.0
100
AcDbArc
 50
95.09216976442012
 51
174.1866997665532
  0
ARC
  5
18FC4
330
747D
100
AcDbEntity
  8
部品1
100
AcDbCircle
 10
6355.526371345302
 20
4409.0522924501
 30
0.0
 40
0.7
100
AcDbArc
 50
275.0921697642079
 51
354.1866997665532
  0
ARC
  5
18FC5
330
747D
100
AcDbEntity
  8
部品1
100
AcDbCircle
 10
6344.667025595984
 20
4332.009037632177
 30
0.0
 40
0.7
100
AcDbArc
 50
275.0921697642079
 51
354.1866997666569
  0
LINE
  5
18FC6
330
747D
100
AcDbEntity
  8
部品1
100
AcDbLine
 10
4998.584476139003
 20
4624.735762666357
 30
0.0
 11
5324.039489782045
 21
4607.217703707497
 31
0.0
  0
LINE
  5
18FC7
330
747D
100
AcDbEntity
  8
部品1
100
AcDbLine
 10
4116.539489782044
 20
2417.985280366385
 30
0.0
 11
6231.539489782044
 21
2417.985280366385
 31
0.0
  0
LINE
  5
18FC8
330
747D
100
AcDbEntity
  8
部品1
100
AcDbLine
 10
6271.539489782044
 20
2417.985280366385
 30
0.0
 11
6279.039489782044
 21
2417.985280366385
 31
0.0
  0
LINE
  5
192F5
330
747D
100
AcDbEntity
  8
破線
 48
5.0
100
AcDbLine
 10
11531.1365191193
 20
2317.985280366385
 30
0.0
 11
11531.1365191193
 21
2117.985280366385
 31
0.0
  0
LINE
  5
192F6
330
747D
100
AcDbEntity
  8
破線
 48
5.0
100
AcDbLine
 10
11531.1365191193
 20
2117.985280366385
 30
0.0
 11
11331.1365191193
 21
2117.985280366385
 31
0.0
  0
LINE
  5
192F7
330
747D
100
AcDbEntity
  8
破線
 48
5.0
100
AcDbLine
 10
11331.1365191193
 20
2317.985280366385
 30
0.0
 11
11331.1365191193
 21
2117.985280366385
 31
0.0
  0
LINE
  5
192F8
330
747D
100
AcDbEntity
  8
破線
 48
5.0
100
AcDbLine
 10
8271.136519119304
 20
2317.985280366385
 30
0.0
 11
8271.136519119304
 21
2117.985280366385
 31
0.0
  0
LINE
  5
192F9
330
747D
100
AcDbEntity
  8
破線
 48
5.0
100
AcDbLine
 10
8471.136519119303
 20
2117.985280366385
 30
0.0
 11
8271.136519119302
 21
2117.985280366385
 31
0.0
  0
LINE
  5
192FA
330
747D
100
AcDbEntity
  8
破線
 48
5.0
100
AcDbLine
 10
8471.136519119303
 20
2317.985280366385
 30
0.0
 11
8471.136519119303
 21
2117.985280366385
 31
0.0
  0
LINE
  5
19AED
330
747D
100
AcDbEntity
  8
寸法
 48
50.0
100
AcDbLine
 10
9291.339525401125
 20
7347.682255310698
 30
0.0
 11
9239.933517491023
 21
7347.682255310698
 31
0.0
  0
LINE
  5
19AEE
330
747D
100
AcDbEntity
  8
寸法
 48
50.0
100
AcDbLine
 10
9239.933517491023
 20
7347.682255310698
 30
0.0
 11
9239.933517491023
 21
7378.992413962864
 31
0.0
  0
LINE
  5
19AEF
330
747D
100
AcDbEntity
  8
寸法
 48
50.0
100
AcDbLine
 10
9239.933517491023
 20
7378.992413962864
 30
0.0
 11
9210.172185499599
 21
7378.992413962864
 31
0.0
  0
LINE
  5
19AF0
330
747D
100
AcDbEntity
  8
寸法
 48
50.0
100
AcDbLine
 10
9210.172185499599
 20
7378.992413962864
 30
0.0
 11
9265.636521446074
 21
7416.571864891473
 31
0.0
  0
LINE
  5
19AF1
330
747D
100
AcDbEntity
  8
寸法
 48
50.0
100
AcDbLine
 10
9321.100857392549
 20
7378.992413962864
 30
0.0
 11
9265.636521446074
 21
7416.571864891473
 31
0.0
  0
LINE
  5
19AF2
330
747D
100
AcDbEntity
  8
寸法
 48
50.0
100
AcDbLine
 10
9291.339525401125
 20
7378.992413962864
 30
0.0
 11
9321.100857392549
 21
7378.992413962864
 31
0.0
  0
LINE
  5
19AF3
330
747D
100
AcDbEntity
  8
寸法
 48
50.0
100
AcDbLine
 10
9291.339525401125
 20
7347.682255310698
 30
0.0
 11
9291.339525401125
 21
7378.992413962864
 31
0.0
  0
LINE
  5
19AF4
330
747D
100
AcDbEntity
  8
寸法
 48
50.0
100
AcDbLine
 10
9239.933517491023
 20
7347.682255310698
 30
0.0
 11
9291.339525401125
 21
7347.682255310698
 31
0.0
  0
LINE
  5
19AF5
330
747D
100
AcDbEntity
  8
寸法
 48
50.0
100
AcDbLine
 10
9570.505059677984
 20
7404.827846065519
 30
0.0
 11
9570.505059677984
 21
7351.16421148373
 31
0.0
  0
LINE
  5
19AF6
330
747D
100
AcDbEntity
  8
寸法
 48
50.0
100
AcDbLine
 10
9659.789278273406
 20
7380.904211796035
 30
0.0
 11
9570.505059677984
 21
7404.827846065519
 31
0.0
  0
LINE
  5
19AF7
330
747D
100
AcDbEntity
  8
寸法
 48
50.0
100
AcDbLine
 10
9440.63733809768
 20
7380.904211796035
 30
0.0
 11
9659.789278273406
 21
7380.904211796035
 31
0.0
  0
LINE
  5
19AF8
330
747D
100
AcDbEntity
  8
細線
 48
50.0
100
AcDbLine
 10
10317.13651911928
 20
7546.145618690559
 30
0.0
 11
10944.13651911928
 21
7546.145618690559
 31
0.0
  0
LINE
  5
19AF9
330
747D
100
AcDbEntity
  8
細線
 48
50.0
100
AcDbLine
 10
9663.136523772871
 20
7512.436850136484
 30
0.0
 11
10944.13651911928
 21
7512.436850136484
 31
0.0
  0
LINE
  5
19AFA
330
747D
100
AcDbEntity
  8
細線
 48
50.0
100
AcDbLine
 10
9622.136523772875
 20
7541.841758132737
 30
0.0
 11
8868.136519119282
 21
7541.841758132735
 31
0.0
  0
LINE
  5
19AFB
330
747D
100
AcDbEntity
  8
細線
100
AcDbLine
 10
10719.88650970282
 20
7565.645518655569
 30
0.0
 11
10722.21804922463
 21
7570.645521295531
 31
0.0
  0
LINE
  5
19AFC
330
747D
100
AcDbEntity
  8
細線
100
AcDbLine
 10
10789.88651911928
 20
7565.645503741835
 30
0.0
 11
10787.55497264309
 21
7570.645521295515
 31
0.0
  0
LINE
  5
19AFD
330
747D
100
AcDbEntity
  8
細線
100
AcDbLine
 10
10787.55497264309
 20
7570.645521295515
 30
0.0
 11
10722.21804922462
 21
7570.6455212955
 31
0.0
  0
LINE
  5
19AFE
330
747D
100
AcDbEntity
  8
細線
100
AcDbLine
 10
10647.55497264309
 20
7570.645521295515
 30
0.0
 11
10582.21804922462
 21
7570.6455212955
 31
0.0
  0
LINE
  5
19AFF
330
747D
100
AcDbEntity
  8
細線
100
AcDbLine
 10
10649.88651911928
 20
7565.645503741835
 30
0.0
 11
10647.55497264309
 21
7570.645521295515
 31
0.0
  0
LINE
  5
19B00
330
747D
100
AcDbEntity
  8
細線
100
AcDbLine
 10
10579.88650970282
 20
7565.645518655569
 30
0.0
 11
10582.21804922463
 21
7570.645521295531
 31
0.0
  0
LINE
  5
19B01
330
747D
100
AcDbEntity
  8
細線
100
AcDbLine
 10
10439.88651911928
 20
7565.645503741835
 30
0.0
 11
10442.21805864109
 21
7570.645506381795
 31
0.0
  0
LINE
  5
19B02
330
747D
100
AcDbEntity
  8
細線
100
AcDbLine
 10
10509.88652853574
 20
7565.6454888281
 30
0.0
 11
10507.55498205955
 21
7570.645506381781
 31
0.0
  0
LINE
  5
19B03
330
747D
100
AcDbEntity
  8
細線
100
AcDbLine
 10
10507.55498205955
 20
7570.645506381781
 30
0.0
 11
10442.21805864108
 21
7570.645506381767
 31
0.0
  0
LINE
  5
19B04
330
747D
100
AcDbEntity
  8
細線
100
AcDbLine
 10
10212.30500330839
 20
7536.645543079163
 30
0.0
 11
10146.96807988991
 21
7536.645543079149
 31
0.0
  0
LINE
  5
19B05
330
747D
100
AcDbEntity
  8
細線
100
AcDbLine
 10
10214.63654978457
 20
7531.645525525482
 30
0.0
 11
10212.30500330839
 21
7536.645543079163
 31
0.0
  0
LINE
  5
19B06
330
747D
100
AcDbEntity
  8
細線
100
AcDbLine
 10
10144.63654036812
 20
7531.645540439216
 30
0.0
 11
10146.96807988993
 21
7536.645543079178
 31
0.0
  0
LINE
  5
19B07
330
747D
100
AcDbEntity
  8
細線
 48
50.0
100
AcDbLine
 10
9986.019898367295
 20
7549.916366894915
 30
0.0
 11
9991.775415949964
 21
7531.645515604428
 31
0.0
  0
LINE
  5
19B08
330
747D
100
AcDbEntity
  8
細線
 48
50.0
100
AcDbLine
 10
9975.091449886868
 20
7549.916366894915
 30
0.0
 11
9986.019898367295
 21
7549.916366894915
 31
0.0
  0
ARC
  5
19B09
330
747D
100
AcDbEntity
  8
細線
 48
50.0
100
AcDbCircle
 10
9969.637093829545
 20
7551.416366894915
 30
0.0
 40
5.0
100
AcDbArc
 50
204.6243183521304
 51
335.3756816478695
  0
ARC
  5
19B0A
330
747D
100
AcDbEntity
  8
細線
 48
50.0
100
AcDbCircle
 10
9975.091449886868
 20
7548.916366894914
 30
0.0
 40
1.0
100
AcDbArc
 50
90.0
 51
155.3756816478695
  0
ARC
  5
19B0B
330
747D
100
AcDbEntity
  8
細線
 48
50.0
100
AcDbCircle
 10
9964.18273777223
 20
7548.916366894914
 30
0.0
 40
1.0
100
AcDbArc
 50
24.62431835213048
 51
90.0
  0
LINE
  5
19B0C
330
747D
100
AcDbEntity
  8
細線
 48
50.0
100
AcDbLine
 10
9953.254289291797
 20
7549.916366894915
 30
0.0
 11
9964.18273777223
 21
7549.916366894915
 31
0.0
  0
LINE
  5
19B0D
330
747D
100
AcDbEntity
  8
細線
 48
50.0
100
AcDbLine
 10
9947.498771709128
 20
7531.645515604421
 30
0.0
 11
9953.254289291797
 21
7549.916366894915
 31
0.0
  0
LINE
  5
19B0E
330
747D
100
AcDbEntity
  8
細線
100
AcDbLine
 10
10004.63654159916
 20
7531.645512970225
 30
0.0
 11
10006.96808112097
 21
7536.645515610186
 31
0.0
  0
LINE
  5
19B0F
330
747D
100
AcDbEntity
  8
細線
100
AcDbLine
 10
10074.63655101562
 20
7531.645498056491
 30
0.0
 11
10072.30500453943
 21
7536.645515610172
 31
0.0
  0
LINE
  5
19B10
330
747D
100
AcDbEntity
  8
細線
100
AcDbLine
 10
10072.30500453943
 20
7536.645515610172
 30
0.0
 11
10006.96808112096
 21
7536.645515610158
 31
0.0
  0
LINE
  5
19B11
330
747D
100
AcDbEntity
  8
細線
100
AcDbLine
 10
9932.304976174913
 20
7536.645515604392
 30
0.0
 11
9866.968052756439
 21
7536.645515604378
 31
0.0
  0
LINE
  5
19B12
330
747D
100
AcDbEntity
  8
細線
100
AcDbLine
 10
9934.636522651102
 20
7531.645498050711
 30
0.0
 11
9932.304976174913
 21
7536.645515604392
 31
0.0
  0
LINE
  5
19B13
330
747D
100
AcDbEntity
  8
細線
100
AcDbLine
 10
9864.636514465686
 20
7531.645515604421
 30
0.0
 11
9866.968052756453
 21
7536.645515604407
 31
0.0
  0
LINE
  5
19B14
330
747D
100
AcDbEntity
  8
細線
100
AcDbLine
 10
9724.636549784577
 20
7531.645523791791
 30
0.0
 11
9726.968088075345
 21
7536.645523791776
 31
0.0
  0
LINE
  5
19B15
330
747D
100
AcDbEntity
  8
細線
100
AcDbLine
 10
9794.636557969994
 20
7531.645506238081
 30
0.0
 11
9792.305011493805
 21
7536.645523791758
 31
0.0
  0
LINE
  5
19B16
330
747D
100
AcDbEntity
  8
細線
100
AcDbLine
 10
9792.305011493805
 20
7536.645523791758
 30
0.0
 11
9726.968088075331
 21
7536.645523791747
 31
0.0
  0
LINE
  5
19B17
330
747D
100
AcDbEntity
  8
細線
100
AcDbLine
 10
9353.136515587456
 20
7497.645695472503
 30
0.0
 11
9355.468053878224
 21
7502.645695472489
 31
0.0
  0
LINE
  5
19B18
330
747D
100
AcDbEntity
  8
細線
100
AcDbLine
 10
9423.136523772871
 20
7497.645677918789
 30
0.0
 11
9420.804977296684
 21
7502.645695472468
 31
0.0
  0
LINE
  5
19B19
330
747D
100
AcDbEntity
  8
細線
100
AcDbLine
 10
9420.804977296684
 20
7502.645695472468
 30
0.0
 11
9355.468053878212
 21
7502.645695472459
 31
0.0
  0
LINE
  5
19B1A
330
747D
100
AcDbEntity
  8
細線
100
AcDbLine
 10
9560.804977296685
 20
7502.645695472468
 30
0.0
 11
9495.468053878212
 21
7502.645695472459
 31
0.0
  0
LINE
  5
19B1B
330
747D
100
AcDbEntity
  8
細線
100
AcDbLine
 10
9563.136523772872
 20
7497.645677918789
 30
0.0
 11
9560.804977296685
 21
7502.645695472468
 31
0.0
  0
LINE
  5
19B1C
330
747D
100
AcDbEntity
  8
細線
100
AcDbLine
 10
9493.136515587456
 20
7497.645695472503
 30
0.0
 11
9495.468053878223
 21
7502.645695472489
 31
0.0
  0
LINE
  5
19B1D
330
747D
100
AcDbEntity
  8
細線
100
AcDbLine
 10
9280.804977296684
 20
7502.645695472468
 30
0.0
 11
9215.468053878213
 21
7502.645695472456
 31
0.0
  0
LINE
  5
19B1E
330
747D
100
AcDbEntity
  8
細線
100
AcDbLine
 10
9283.136523772872
 20
7497.645677918789
 30
0.0
 11
9280.804977296684
 21
7502.645695472468
 31
0.0
  0
LINE
  5
19B1F
330
747D
100
AcDbEntity
  8
細線
100
AcDbLine
 10
9213.136515587455
 20
7497.645695472499
 30
0.0
 11
9215.468053878224
 21
7502.645695472485
 31
0.0
  0
LINE
  5
19B20
330
747D
100
AcDbEntity
  8
細線
100
AcDbLine
 10
9073.136523772872
 20
7497.645695472503
 30
0.0
 11
9075.46806206364
 21
7502.645695472489
 31
0.0
  0
LINE
  5
19B21
330
747D
100
AcDbEntity
  8
細線
100
AcDbLine
 10
9143.136531958289
 20
7497.645677918789
 30
0.0
 11
9140.8049854821
 21
7502.645695472468
 31
0.0
  0
LINE
  5
19B22
330
747D
100
AcDbEntity
  8
細線
100
AcDbLine
 10
9140.8049854821
 20
7502.645695472468
 30
0.0
 11
9075.468062063627
 21
7502.645695472459
 31
0.0
  0
ARC
  5
19B23
330
747D
100
AcDbEntity
  8
部品1
 48
0.01
100
AcDbCircle
 10
9028.636412520537
 20
7496.64457328743
 30
0.0
 40
0.5
100
AcDbArc
 50
270.0
 51
0.0
  0
LINE
  5
19B24
330
747D
100
AcDbEntity
  8
部品1
 48
0.01
100
AcDbLine
 10
9029.136412520536
 20
7497.644573287431
 30
0.0
 11
9029.136412520536
 21
7496.64457328743
 31
0.0
  0
LINE
  5
19B25
330
747D
100
AcDbEntity
  8
部品1
 48
0.01
100
AcDbLine
 10
9029.136412520536
 20
7497.644573287431
 30
0.0
 11
9029.136412520536
 21
7496.64457328743
 31
0.0
  0
LINE
  5
19B26
330
747D
100
AcDbEntity
  8
部品1
 48
0.01
100
AcDbLine
 10
9028.636412520537
 20
7496.144573287431
 30
0.0
 11
9022.023907090472
 21
7496.144573287431
 31
0.0
  0
ARC
  5
19B27
330
747D
100
AcDbEntity
  8
部品1
100
AcDbCircle
 10
9022.092256643253
 20
7497.144573287432
 30
0.0
 40
1.0
100
AcDbArc
 50
160.5287793655778
 51
270.0
  0
ARC
  5
19B28
330
747D
100
AcDbEntity
  8
部品1
100
AcDbCircle
 10
8996.636412520535
 20
7506.14457328743
 30
0.0
 40
26.0
100
AcDbArc
 50
340.5287793655779
 51
0.0
  0
LINE
  5
19B29
330
747D
100
AcDbEntity
  8
部品1
100
AcDbLine
 10
9022.636412520537
 20
7506.14457328743
 30
0.0
 11
9022.636412520537
 21
7511.144573287431
 31
0.0
  0
ARC
  5
19B2A
330
747D
100
AcDbEntity
  8
部品1
 48
0.01
100
AcDbCircle
 10
9020.636412520536
 20
7511.144573287431
 30
0.0
 40
2.0
100
AcDbArc
 50
0.0
 51
90.0
  0
ARC
  5
19B2B
330
747D
100
AcDbEntity
  8
部品1
100
AcDbCircle
 10
9019.028020895726
 20
7510.144573287431
 30
0.0
 40
3.0
100
AcDbArc
 50
90.0
 51
141.6069559807873
  0
LINE
  5
19B2C
330
747D
100
AcDbEntity
  8
部品1
 48
0.01
100
AcDbLine
 10
9020.636412520536
 20
7513.144573287431
 30
0.0
 11
9019.028020895726
 21
7513.144573287431
 31
0.0
  0
ARC
  5
19B2D
330
747D
100
AcDbEntity
  8
部品1
100
AcDbCircle
 10
9000.565698306266
 20
7509.444573287433
 30
0.0
 40
3.0
100
AcDbArc
 50
254.0576313943215
 51
270.0
  0
ARC
  5
19B2E
330
747D
100
AcDbEntity
  8
部品1
100
AcDbCircle
 10
9007.707126734807
 20
7509.444573287433
 30
0.0
 40
3.0
100
AcDbArc
 50
270.0
 51
285.9423686056786
  0
LINE
  5
19B2F
330
747D
100
AcDbEntity
  8
部品1
100
AcDbLine
 10
9007.707126734807
 20
7506.444573287433
 30
0.0
 11
9000.565698306266
 21
7506.444573287433
 31
0.0
  0
ARC
  5
19B30
330
747D
100
AcDbEntity
  8
部品1
100
AcDbCircle
 10
9004.136412520535
 20
7521.944573287433
 30
0.0
 40
16.0
100
AcDbArc
 50
285.9423686056786
 51
321.6069559807873
  0
LINE
  5
19B31
330
747D
100
AcDbEntity
  8
部品1
 48
0.01
100
AcDbLine
 10
8987.636412520537
 20
7513.144573287431
 30
0.0
 11
8989.244804145346
 21
7513.144573287431
 31
0.0
  0
ARC
  5
19B32
330
747D
100
AcDbEntity
  8
部品1
100
AcDbCircle
 10
8989.244804145346
 20
7510.144573287431
 30
0.0
 40
3.0
100
AcDbArc
 50
38.39304401921267
 51
90.0
  0
ARC
  5
19B33
330
747D
100
AcDbEntity
  8
部品1
100
AcDbCircle
 10
9004.136412520535
 20
7521.944573287433
 30
0.0
 40
16.0
100
AcDbArc
 50
218.3930440192126
 51
254.0576313943215
  0
LINE
  5
19B34
330
747D
100
AcDbEntity
  8
部品1
100
AcDbLine
 10
8985.636412520536
 20
7506.14457328743
 30
0.0
 11
8985.636412520536
 21
7511.144573287431
 31
0.0
  0
ARC
  5
19B35
330
747D
100
AcDbEntity
  8
部品1
 48
0.01
100
AcDbCircle
 10
8987.636412520537
 20
7511.144573287431
 30
0.0
 40
2.0
100
AcDbArc
 50
90.0
 51
180.0
  0
ARC
  5
19B36
330
747D
100
AcDbEntity
  8
部品1
100
AcDbCircle
 10
9011.636412520536
 20
7506.14457328743
 30
0.0
 40
26.0
100
AcDbArc
 50
180.0
 51
199.4712206344221
  0
ARC
  5
19B37
330
747D
100
AcDbEntity
  8
部品1
 48
0.01
100
AcDbCircle
 10
8979.636412520537
 20
7496.64457328743
 30
0.0
 40
0.5
100
AcDbArc
 50
180.0
 51
270.0
  0
LINE
  5
19B38
330
747D
100
AcDbEntity
  8
部品1
 48
0.01
100
AcDbLine
 10
8979.636412520537
 20
7496.144573287431
 30
0.0
 11
8986.18056839782
 21
7496.144573287431
 31
0.0
  0
LINE
  5
19B39
330
747D
100
AcDbEntity
  8
部品1
 48
0.01
100
AcDbLine
 10
8979.136412520537
 20
7497.644573287431
 30
0.0
 11
8979.136412520537
 21
7496.64457328743
 31
0.0
  0
ARC
  5
19B3A
330
747D
100
AcDbEntity
  8
部品1
100
AcDbCircle
 10
8986.18056839782
 20
7497.144573287432
 30
0.0
 40
1.0
100
AcDbArc
 50
270.0
 51
19.47122063442214
  0
LINE
  5
19B3B
330
747D
100
AcDbEntity
  8
細線
100
AcDbLine
 10
9024.636412520543
 20
7515.644573287435
 30
0.0
 11
8983.636412520544
 21
7515.644573287428
 31
0.0
  0
LINE
  5
19B3C
330
747D
100
AcDbEntity
  8
細線
100
AcDbLine
 10
8983.636412520544
 20
7515.644573287428
 30
0.0
 11
8983.636412520544
 21
7497.644573287409
 31
0.0
  0
LINE
  5
19B3D
330
747D
100
AcDbEntity
  8
細線
100
AcDbLine
 10
9024.636412520543
 20
7515.644573287435
 30
0.0
 11
9024.636412520543
 21
7497.644573287409
 31
0.0
  0
LINE
  5
19B3E
330
747D
100
AcDbEntity
  8
細線
100
AcDbLine
 10
8868.136519119282
 20
7501.645503741835
 30
0.0
 11
8868.136519119282
 21
7497.645503741882
 31
0.0
  0
DIMENSION
  5
19B3F
330
747D
100
AcDbEntity
  8
寸法
 48
50.0
100
AcDbDimension
  2
*D30
 10
10134.13651911928
 20
6836.09508883649
 30
0.0
 11
9504.076547235483
 21
6836.09508883649
 31
0.0
 70
   160
  1
有効開口部間口\P<>
 71
     5
 42
1266.0
  3
INABA_S40
100
AcDbAlignedDimension
 13
8868.136519119282
 23
7492.645503741835
 33
0.0
 14
10134.13651911928
 24
7492.645503741835
 34
0.0
100
AcDbRotatedDimension
1001
ACAD
1000
DSTYLE
1002
{
1070
    41
1040
0.5
1070
    44
1040
1.0
1070
   147
1040
0.8
1070
   271
1070
     2
1070
   272
1070
     2
1070
   289
1070
     3
1070
   340
1005
F706
1070
   343
1005
17F39
1070
   344
1005
17F39
1002
}
  0
LINE
  5
19B40
330
747D
100
AcDbEntity
  8
部品1
100
AcDbLine
 10
10956.13651911928
 20
7569.645503741835
 30
0.0
 11
10983.13651911928
 21
7569.645503741835
 31
0.0
  0
LINE
  5
19B42
330
747D
100
AcDbEntity
  8
部品1
100
AcDbLine
 10
10983.13651911928
 20
7492.645503741835
 30
0.0
 11
10983.13651911928
 21
7569.645503741835
 31
0.0
  0
LINE
  5
19B43
330
747D
100
AcDbEntity
  8
部品1
100
AcDbLine
 10
10944.13651911928
 20
7565.645503741835
 30
0.0
 11
10956.13651911928
 21
7565.645503741835
 31
0.0
  0
LINE
  5
19B44
330
747D
100
AcDbEntity
  8
部品1
100
AcDbLine
 10
10953.13651911928
 20
7501.645503741835
 30
0.0
 11
10953.13651911928
 21
7492.645503741835
 31
0.0
  0
LINE
  5
19B45
330
747D
100
AcDbEntity
  8
部品1
100
AcDbLine
 10
10944.13651911928
 20
7501.645503741835
 30
0.0
 11
10953.13651911928
 21
7501.645503741835
 31
0.0
  0
LINE
  5
19B46
330
747D
100
AcDbEntity
  8
部品1
100
AcDbLine
 10
10944.13651911928
 20
7565.645503741835
 30
0.0
 11
10944.13651911928
 21
7501.645503741835
 31
0.0
  0
LINE
  5
19B47
330
747D
100
AcDbEntity
  8
部品1
100
AcDbLine
 10
10956.13651911928
 20
7596.645503741834
 30
0.0
 11
10956.13651911928
 21
7565.645503741835
 31
0.0
  0
LINE
  5
19B48
330
747D
100
AcDbEntity
  8
部品1
100
AcDbLine
 10
8868.136519119282
 20
7565.645503741835
 30
0.0
 11
8856.136519119282
 21
7565.645503741835
 31
0.0
  0
LINE
  5
19B49
330
747D
100
AcDbEntity
  8
部品1
100
AcDbLine
 10
8829.136519119282
 20
7569.645503741835
 30
0.0
 11
8856.136519119282
 21
7569.645503741835
 31
0.0
  0
LINE
  5
19B4A
330
747D
100
AcDbEntity
  8
部品1
100
AcDbLine
 10
8859.136519119282
 20
7501.645503741835
 30
0.0
 11
8859.136519119282
 21
7492.645503741835
 31
0.0
  0
LINE
  5
19B4B
330
747D
100
AcDbEntity
  8
部品1
100
AcDbLine
 10
8868.136519119282
 20
7501.645503741835
 30
0.0
 11
8859.136519119282
 21
7501.645503741835
 31
0.0
  0
LINE
  5
19B4C
330
747D
100
AcDbEntity
  8
部品1
100
AcDbLine
 10
8859.136519119282
 20
7492.645503741835
 30
0.0
 11
8829.136519119282
 21
7492.645503741835
 31
0.0
  0
LINE
  5
19B4D
330
747D
100
AcDbEntity
  8
部品1
100
AcDbLine
 10
8829.136519119282
 20
7492.645503741835
 30
0.0
 11
8829.136519119282
 21
7569.645503741835
 31
0.0
  0
LINE
  5
19B4E
330
747D
100
AcDbEntity
  8
部品1
100
AcDbLine
 10
8868.136519119282
 20
7565.645503741835
 30
0.0
 11
8868.136519119282
 21
7501.645503741835
 31
0.0
  0
LINE
  5
19B4F
330
747D
100
AcDbEntity
  8
部品1
100
AcDbLine
 10
8856.136519119282
 20
7596.645503741831
 30
0.0
 11
8856.136519119282
 21
7565.645503741835
 31
0.0
  0
LINE
  5
19B50
330
747D
100
AcDbEntity
  8
部品1
100
AcDbLine
 10
8856.136519119282
 20
7596.645503741831
 30
0.0
 11
10956.13651911928
 21
7596.645503741834
 31
0.0
  0
LINE
  5
19B51
330
747D
100
AcDbEntity
  8
部品1
100
AcDbLine
 10
10953.13651911928
 20
7492.645503741835
 30
0.0
 11
10983.13651911928
 21
7492.645503741835
 31
0.0
  0
LINE
  5
19B52
330
747D
100
AcDbEntity
  8
部品1
100
AcDbLine
 10
8859.136519119282
 20
7492.645503741835
 30
0.0
 11
10956.13651911928
 21
7492.645503741835
 31
0.0
  0
LINE
  5
19B53
330
747D
100
AcDbEntity
  8
細線
  6
Continuous
 62
     5
100
AcDbLine
 10
10235.13651911928
 20
7531.645503741831
 30
0.0
 11
10235.13651911928
 21
7531.645503741831
 31
0.0
  0
LINE
  5
19B54
330
747D
100
AcDbEntity
  8
細線
  6
Continuous
 62
     5
100
AcDbLine
 10
10227.63655443817
 20
7531.645513662889
 30
0.0
 11
10227.63655443817
 21
7531.645513662889
 31
0.0
  0
LINE
  5
19B55
330
747D
100
AcDbEntity
  8
細線
  6
Continuous
 62
     5
100
AcDbLine
 10
10221.63655443818
 20
7531.645513662889
 30
0.0
 11
10221.63655443818
 21
7531.645513662889
 31
0.0
  0
LINE
  5
19B56
330
747D
100
AcDbEntity
  8
細線
  6
Continuous
 62
     5
100
AcDbLine
 10
10289.13651911928
 20
7550.64550374183
 30
0.0
 11
10289.13651911928
 21
7550.64550374183
 31
0.0
  0
LINE
  5
19B57
330
747D
100
AcDbEntity
  8
細線
 48
50.0
100
AcDbLine
 10
8882.136523772876
 20
7518.245677918788
 30
0.0
 11
8882.136523772876
 21
7526.641828326429
 31
0.0
  0
LINE
  5
19B58
330
747D
100
AcDbEntity
  8
細線
 48
50.0
100
AcDbLine
 10
8882.136523772876
 20
7526.641828326429
 30
0.0
 11
8868.136519119282
 21
7526.641828326424
 31
0.0
  0
LINE
  5
19B59
330
747D
100
AcDbEntity
  8
細線
 48
50.0
100
AcDbLine
 10
9633.136523772872
 20
7514.795677918788
 30
0.0
 11
9633.136523772872
 21
7519.64567791879
 31
0.0
  0
LINE
  5
19B5A
330
747D
100
AcDbEntity
  8
細線
 48
50.0
100
AcDbLine
 10
9633.136523772872
 20
7519.64567791879
 30
0.0
 11
9648.136523772871
 21
7519.64567791879
 31
0.0
  0
LINE
  5
19B5B
330
747D
100
AcDbEntity
  8
細線
 48
50.0
100
AcDbLine
 10
9648.136523772871
 20
7519.64567791879
 30
0.0
 11
9648.136523772876
 21
7526.64567791879
 31
0.0
  0
LINE
  5
19B5C
330
747D
100
AcDbEntity
  8
細線
 48
50.0
100
AcDbLine
 10
9648.136523772876
 20
7526.64567791879
 30
0.0
 11
9663.136523772871
 21
7526.64567791879
 31
0.0
  0
LINE
  5
19B5D
330
747D
100
AcDbEntity
  8
細線
 48
50.0
100
AcDbLine
 10
9663.136523772871
 20
7526.64567791879
 30
0.0
 11
9663.136523772871
 21
7497.645677918789
 31
0.0
  0
LINE
  5
19B5E
330
747D
100
AcDbEntity
  8
細線
 48
50.0
100
AcDbLine
 10
8859.136519119282
 20
7497.643012262258
 30
0.0
 11
9073.136523772872
 21
7497.645695472503
 31
0.0
  0
LINE
  5
19B5F
330
747D
100
AcDbEntity
  8
細線
 48
50.0
100
AcDbLine
 10
9563.136523772872
 20
7497.645677918789
 30
0.0
 11
9663.136523772871
 21
7497.645677918789
 31
0.0
  0
LINE
  5
19B60
330
747D
100
AcDbEntity
  8
細線
 48
50.0
100
AcDbLine
 10
9283.136523772872
 20
7497.645677918789
 30
0.0
 11
9353.136523772873
 21
7497.645677918789
 31
0.0
  0
LINE
  5
19B61
330
747D
100
AcDbEntity
  8
細線
 48
50.0
100
AcDbLine
 10
9295.9984887854
 20
7497.645677918789
 30
0.0
 11
9301.754006368069
 21
7515.916529209284
 31
0.0
  0
LINE
  5
19B62
330
747D
100
AcDbEntity
  8
細線
 48
50.0
100
AcDbLine
 10
9301.754006368069
 20
7515.916529209284
 30
0.0
 11
9312.682454848502
 21
7515.916529209281
 31
0.0
  0
ARC
  5
19B63
330
747D
100
AcDbEntity
  8
細線
 48
50.0
100
AcDbCircle
 10
9312.682454848502
 20
7514.91652920928
 30
0.0
 40
1.0
100
AcDbArc
 50
24.62431835213048
 51
90.0
  0
ARC
  5
19B64
330
747D
100
AcDbEntity
  8
細線
 48
50.0
100
AcDbCircle
 10
9323.591166963135
 20
7514.91652920928
 30
0.0
 40
1.0
100
AcDbArc
 50
90.0
 51
155.3756816478695
  0
ARC
  5
19B65
330
747D
100
AcDbEntity
  8
細線
 48
50.0
100
AcDbCircle
 10
9318.136810905818
 20
7517.416529209281
 30
0.0
 40
5.0
100
AcDbArc
 50
204.6243183521304
 51
335.3756816478695
  0
LINE
  5
19B66
330
747D
100
AcDbEntity
  8
細線
 48
50.0
100
AcDbLine
 10
9323.591166963135
 20
7515.916529209281
 30
0.0
 11
9334.51961544357
 21
7515.916529209284
 31
0.0
  0
LINE
  5
19B67
330
747D
100
AcDbEntity
  8
細線
 48
50.0
100
AcDbLine
 10
9334.51961544357
 20
7515.916529209284
 30
0.0
 11
9340.275133026237
 21
7497.645677918789
 31
0.0
  0
LINE
  5
19B68
330
747D
100
AcDbEntity
  8
細線
 48
50.0
100
AcDbLine
 10
9633.136523772872
 20
7518.245677918788
 30
0.0
 11
8882.136523772876
 21
7518.245677918788
 31
0.0
  0
LINE
  5
19B69
330
747D
100
AcDbEntity
  8
細線
 48
50.0
100
AcDbLine
 10
9493.136523772871
 20
7497.645677918789
 30
0.0
 11
9423.136523772871
 21
7497.645677918789
 31
0.0
  0
LINE
  5
19B6A
330
747D
100
AcDbEntity
  8
細線
100
AcDbLine
 10
9213.136523772872
 20
7497.645677918789
 30
0.0
 11
9143.136531958289
 21
7497.645677918789
 31
0.0
  0
LINE
  5
19B6B
330
747D
100
AcDbEntity
  8
細線
 48
50.0
100
AcDbLine
 10
10287.13651446569
 20
7552.245721776657
 30
0.0
 11
9652.136523772872
 21
7552.245721776653
 31
0.0
  0
LINE
  5
19B6C
330
747D
100
AcDbEntity
  8
細線
 48
50.0
100
AcDbLine
 10
9652.136523772872
 20
7549.141872184296
 30
0.0
 11
9652.136523772872
 21
7553.641872184297
 31
0.0
  0
LINE
  5
19B6D
330
747D
100
AcDbEntity
  8
細線
 48
50.0
100
AcDbLine
 10
9652.136523772872
 20
7553.641872184297
 30
0.0
 11
9637.136523772872
 21
7553.641872184297
 31
0.0
  0
LINE
  5
19B6E
330
747D
100
AcDbEntity
  8
細線
 48
50.0
100
AcDbLine
 10
9637.136523772872
 20
7553.641872184297
 30
0.0
 11
9637.136523772872
 21
7560.641872184297
 31
0.0
  0
LINE
  5
19B6F
330
747D
100
AcDbEntity
  8
細線
 48
50.0
100
AcDbLine
 10
9637.136523772872
 20
7560.641872184297
 30
0.0
 11
9622.136523772875
 21
7560.641872184293
 31
0.0
  0
LINE
  5
19B70
330
747D
100
AcDbEntity
  8
細線
 48
50.0
100
AcDbLine
 10
9622.136523772875
 20
7560.641872184293
 30
0.0
 11
9622.136523772875
 21
7523.041644081182
 31
0.0
  0
LINE
  5
19B71
330
747D
100
AcDbEntity
  8
細線
 48
50.0
100
AcDbLine
 10
9622.136523772875
 20
7523.041644081182
 30
0.0
 11
9642.136531074049
 21
7523.041685630724
 31
0.0
  0
LINE
  5
19B72
330
747D
100
AcDbEntity
  8
細線
 48
50.0
100
AcDbLine
 10
9642.136486205105
 20
7531.645147266532
 30
0.0
 11
9642.136531074049
 21
7523.041685630724
 31
0.0
  0
LINE
  5
19B73
330
747D
100
AcDbEntity
  8
細線
 48
50.0
100
AcDbLine
 10
10287.13651446569
 20
7548.795721776656
 30
0.0
 11
10287.13651446569
 21
7553.645721776655
 31
0.0
  0
LINE
  5
19B74
330
747D
100
AcDbEntity
  8
細線
 48
50.0
100
AcDbLine
 10
10287.13651446569
 20
7553.645721776655
 30
0.0
 11
10302.13651446569
 21
7553.645721776655
 31
0.0
  0
LINE
  5
19B75
330
747D
100
AcDbEntity
  8
細線
 48
50.0
100
AcDbLine
 10
10302.13651446569
 20
7553.645721776655
 30
0.0
 11
10302.13652609967
 21
7560.645721776698
 31
0.0
  0
LINE
  5
19B76
330
747D
100
AcDbEntity
  8
細線
 48
50.0
100
AcDbLine
 10
10302.13652609967
 20
7560.645721776698
 30
0.0
 11
10317.1365242702
 21
7560.645721776698
 31
0.0
  0
LINE
  5
19B77
330
747D
100
AcDbEntity
  8
細線
 48
50.0
100
AcDbLine
 10
10317.1365242702
 20
7560.645721776698
 30
0.0
 11
10317.13651396837
 21
7531.645515604425
 31
0.0
  0
LINE
  5
19B78
330
747D
100
AcDbEntity
  8
細線
 48
50.0
100
AcDbLine
 10
10004.63654159916
 20
7531.645523791791
 30
0.0
 11
9934.636793681576
 21
7531.645518354453
 31
0.0
  0
LINE
  5
19B79
330
747D
100
AcDbEntity
  8
細線
 48
50.0
100
AcDbLine
 10
9642.136486205105
 20
7531.645147266532
 30
0.0
 11
9653.369175559816
 21
7531.645330219679
 31
0.0
  0
ARC
  5
19B7A
330
747D
100
AcDbEntity
  8
細線
 48
50.0
100
AcDbCircle
 10
9659.951467867152
 20
7530.445494133292
 30
0.0
 40
1.8
100
AcDbArc
 50
270.0006665777295
 51
345.0005554812987
  0
LINE
  5
19B7B
330
747D
100
AcDbEntity
  8
細線
 48
50.0
100
AcDbLine
 10
9661.937901313232
 20
7530.90433459057
 30
0.0
 11
9661.690138871032
 21
7529.979636708464
 31
0.0
  0
LINE
  5
19B7C
330
747D
100
AcDbEntity
  8
細線
 48
50.0
100
AcDbLine
 10
9659.951488808307
 20
7528.645494133413
 30
0.0
 11
9656.321561389539
 21
7528.645451902931
 31
0.0
  0
ARC
  5
19B7D
330
747D
100
AcDbEntity
  8
細線
 48
50.0
100
AcDbCircle
 10
9656.321540448386
 20
7530.445451902811
 30
0.0
 40
1.8
100
AcDbArc
 50
195.0010443049394
 51
270.0006665777295
  0
LINE
  5
19B7E
330
747D
100
AcDbEntity
  8
細線
 48
50.0
100
AcDbLine
 10
9654.335112956127
 20
7530.904166870375
 30
0.0
 11
9654.58288245264
 21
7529.979545931793
 31
0.0
  0
ARC
  5
19B7F
330
747D
100
AcDbEntity
  8
細線
 48
50.0
100
AcDbCircle
 10
9653.369191847378
 20
7530.645330219813
 30
0.0
 40
1.0
100
AcDbArc
 50
15.00104430493943
 51
90.00093320877969
  0
LINE
  5
19B80
330
747D
100
AcDbEntity
  8
細線
 48
50.0
100
AcDbLine
 10
9662.903822668333
 20
7531.645524910084
 30
0.0
 11
9663.845582819238
 21
7531.645531483933
 31
0.0
  0
ARC
  5
19B81
330
747D
100
AcDbEntity
  8
細線
 48
50.0
100
AcDbCircle
 10
9662.903829648719
 20
7530.645524910109
 30
0.0
 40
1.0
100
AcDbArc
 50
90.0003999466794
 51
165.0005554812987
  0
LINE
  5
19B82
330
747D
100
AcDbEntity
  8
細線
 48
50.0
100
AcDbLine
 10
10214.63651446568
 20
7531.645515604425
 30
0.0
 11
10317.13651396837
 21
7531.645515604425
 31
0.0
  0
LINE
  5
19B83
330
747D
100
AcDbEntity
  8
細線
 48
50.0
100
AcDbLine
 10
9724.636549784577
 20
7531.645523791791
 30
0.0
 11
9663.536488557657
 21
7531.645531483933
 31
0.0
  0
LINE
  5
19B84
330
747D
100
AcDbEntity
  8
細線
 48
50.0
100
AcDbLine
 10
10144.63654978457
 20
7531.645560632874
 30
0.0
 11
10074.63654283019
 21
7531.645515610205
 31
0.0
  0
LINE
  5
19B85
330
747D
100
AcDbEntity
  8
細線
 48
50.0
100
AcDbLine
 10
9864.636514465686
 20
7531.645515604421
 30
0.0
 11
9794.63649717781
 21
7531.645515604428
 31
0.0
  0
ARC
  5
19B86
330
747D
100
AcDbEntity
  8
細線
 48
50.0
100
AcDbCircle
 10
10301.33651911929
 20
7564.845503741835
 30
0.0
 40
0.8
100
AcDbArc
 50
359.9997333689499
 51
89.99986668437072
  0
ARC
  5
19B87
330
747D
100
AcDbEntity
  8
細線
 48
50.0
100
AcDbCircle
 10
10308.93652594438
 20
7564.845514910452
 30
0.0
 40
0.8
100
AcDbArc
 50
90.00014387753465
 51
179.9997333689498
  0
LINE
  5
19B88
330
747D
100
AcDbEntity
  8
細線
 48
50.0
100
AcDbLine
 10
10301.33652098073
 20
7565.645503741835
 30
0.0
 11
10296.13651911928
 21
7565.645503741835
 31
0.0
  0
ARC
  5
19B89
330
747D
100
AcDbEntity
  8
細線
 48
50.0
100
AcDbCircle
 10
10302.83651911928
 20
7563.345503741835
 30
0.0
 40
0.7
100
AcDbArc
 50
180.0
 51
270.0
  0
ARC
  5
19B8A
330
747D
100
AcDbEntity
  8
細線
 48
50.0
100
AcDbCircle
 10
10307.43651911928
 20
7563.345503741835
 30
0.0
 40
0.7
100
AcDbArc
 50
270.0
 51
0.0
  0
LINE
  5
19B8B
330
747D
100
AcDbEntity
  8
細線
 48
50.0
100
AcDbLine
 10
10308.13651911928
 20
7563.345503741835
 30
0.0
 11
10308.1365259444
 21
7564.845518633323
 31
0.0
  0
LINE
  5
19B8C
330
747D
100
AcDbEntity
  8
細線
 48
50.0
100
AcDbLine
 10
10302.83651911928
 20
7562.645503741835
 30
0.0
 11
10307.43651911928
 21
7562.645503741835
 31
0.0
  0
LINE
  5
19B8D
330
747D
100
AcDbEntity
  8
細線
 48
50.0
100
AcDbLine
 10
10302.13651911928
 20
7564.845503741835
 30
0.0
 11
10302.13651911928
 21
7563.345503741835
 31
0.0
  0
LINE
  5
19B8E
330
747D
100
AcDbEntity
  8
細線
 48
50.0
100
AcDbLine
 10
10927.73651911929
 20
7595.645503741835
 30
0.0
 11
10291.13651911928
 21
7595.645503741831
 31
0.0
  0
LINE
  5
19B8F
330
747D
100
AcDbEntity
  8
細線
 48
50.0
100
AcDbLine
 10
10953.63651911928
 20
7590.645503741838
 30
0.0
 11
10937.73651911928
 21
7590.645503741836
 31
0.0
  0
LINE
  5
19B90
330
747D
100
AcDbEntity
  8
細線
 48
50.0
100
AcDbLine
 10
10937.73651911928
 20
7590.645503741836
 30
0.0
 11
10927.73651911929
 21
7595.645503741835
 31
0.0
  0
LINE
  5
19B91
330
747D
100
AcDbEntity
  8
細線
100
AcDbLine
 10
10538.63651911928
 20
7565.645503741835
 30
0.0
 11
10538.63651911928
 21
7594.945503741834
 31
0.0
  0
LINE
  5
19B92
330
747D
100
AcDbEntity
  8
細線
100
AcDbLine
 10
10538.63651911928
 20
7594.945503741834
 30
0.0
 11
10558.63651911928
 21
7594.945503741834
 31
0.0
  0
LINE
  5
19B93
330
747D
100
AcDbEntity
  8
細線
100
AcDbLine
 10
10558.63651911928
 20
7565.645503741835
 30
0.0
 11
10558.63651911928
 21
7594.945503741834
 31
0.0
  0
LINE
  5
19B94
330
747D
100
AcDbEntity
  8
細線
100
AcDbLine
 10
10719.88651911928
 20
7565.645503741835
 30
0.0
 11
10649.88651911928
 21
7565.645503741835
 31
0.0
  0
LINE
  5
19B95
330
747D
100
AcDbEntity
  8
細線
 48
50.0
100
AcDbLine
 10
10439.88651911928
 20
7565.645503741835
 30
0.0
 11
10308.93229869212
 21
7565.645503741835
 31
0.0
  0
LINE
  5
19B96
330
747D
100
AcDbEntity
  8
細線
100
AcDbLine
 10
10579.88651911928
 20
7565.645503741835
 30
0.0
 11
10509.88651911928
 21
7565.645503741835
 31
0.0
  0
LINE
  5
19B97
330
747D
100
AcDbEntity
  8
細線
 48
50.0
100
AcDbLine
 10
10296.13651911928
 20
7557.645503741834
 30
0.0
 11
10296.13651911928
 21
7565.645503741835
 31
0.0
  0
LINE
  5
19B98
330
747D
100
AcDbEntity
  8
細線
 48
50.0
100
AcDbLine
 10
10276.13651911928
 20
7557.645503741838
 30
0.0
 11
10296.13651911928
 21
7557.645503741834
 31
0.0
  0
LINE
  5
19B99
330
747D
100
AcDbEntity
  8
細線
 48
50.0
100
AcDbLine
 10
10291.13651911928
 20
7595.645503741835
 30
0.0
 11
10291.13651911928
 21
7590.645503741836
 31
0.0
  0
LINE
  5
19B9A
330
747D
100
AcDbEntity
  8
細線
 48
50.0
100
AcDbLine
 10
10276.13651911928
 20
7595.645503741831
 30
0.0
 11
10291.13651911928
 21
7595.645503741835
 31
0.0
  0
LINE
  5
19B9B
330
747D
100
AcDbEntity
  8
細線
 48
50.0
100
AcDbLine
 10
10276.13651911928
 20
7557.645503741838
 30
0.0
 11
10276.13651911928
 21
7595.645503741831
 31
0.0
  0
LINE
  5
19B9C
330
747D
100
AcDbEntity
  8
細線
100
AcDbLine
 10
10944.13651911928
 20
7565.645503741835
 30
0.0
 11
10789.88651911928
 21
7565.645503741835
 31
0.0
  0
LINE
  5
19B9D
330
747D
100
AcDbEntity
  8
細線
 48
50.0
100
AcDbLine
 10
10953.63651911928
 20
7590.645503741838
 30
0.0
 11
10953.63651911928
 21
7565.645503741835
 31
0.0
  0
DIMENSION
  5
19DDB
330
747D
100
AcDbEntity
  8
寸法
 48
50.0
100
AcDbDimension
  2
*D31
 10
10983.13651911928
 20
6532.301699502605
 30
0.0
 11
9884.273265315748
 21
6532.301699502605
 31
0.0
 70
   160
 71
     5
 42
2154.0
  3
INABA_S40G
100
AcDbAlignedDimension
 13
8829.136519119282
 23
7494.645503741799
 33
0.0
 14
10983.13651911928
 24
7494.645503741799
 34
0.0
100
AcDbRotatedDimension
1001
ACAD
1000
DSTYLE
1002
{
1070
   341
1005
0
1002
}
  0
DIMENSION
  5
19DDC
330
747D
100
AcDbEntity
  8
寸法
100
AcDbDimension
  2
*D32
 10
8086.52527349259
 20
7494.645503741799
 30
0.0
 11
8086.525273492588
 21
7354.160222367561
 31
0.0
 70
   160
 71
     5
 42
75.0
  3
INABA_S40
100
AcDbAlignedDimension
 13
8381.136519119307
 23
7569.645503741799
 33
0.0
 14
8829.136519119282
 24
7494.645503741799
 34
0.0
 50
90.0
100
AcDbRotatedDimension
1001
ACAD
1000
DSTYLE
1002
{
1070
    41
1040
0.5
1070
    44
1040
1.0
1070
   147
1040
0.8
1070
   271
1070
     2
1070
   272
1070
     2
1070
   289
1070
     3
1070
   340
1005
F706
1070
   343
1005
17F39
1070
   344
1005
17F39
1002
}
  0
DIMENSION
  5
19EDD
330
747D
100
AcDbEntity
  8
寸法
100
AcDbDimension
  2
*D33
 10
11431.13651911929
 20
6274.188587379343
 30
0.0
 11
9880.082188216755
 21
6274.188587379343
 31
0.0
 70
   160
 71
     5
 42
3049.999999999982
  3
INABA_S40G
100
AcDbAlignedDimension
 13
8381.136519119307
 23
7569.6455037418
 33
0.0
 14
11431.13651911929
 24
7569.645503741965
 34
0.0
100
AcDbRotatedDimension
1001
ACAD
1000
DSTYLE
1002
{
1002
}
  0
LINE
  5
19EEA
330
747D
100
AcDbEntity
  8
部品1
100
AcDbLine
 10
10287.87185223352
 20
6034.762103600255
 30
0.0
 11
9524.401186005084
 21
6034.762103600255
 31
0.0
  0
LINE
  5
19EEB
330
747D
100
AcDbEntity
  8
部品1
100
AcDbLine
 10
10287.87185223352
 20
5794.869782054722
 30
0.0
 11
10287.87185223352
 21
6034.762103600255
 31
0.0
  0
LINE
  5
19EEC
330
747D
100
AcDbEntity
  8
部品1
100
AcDbLine
 10
9524.401186005084
 20
5794.869782054722
 30
0.0
 11
10287.87185223352
 21
5794.869782054722
 31
0.0
  0
LINE
  5
19EED
330
747D
100
AcDbEntity
  8
部品1
100
AcDbLine
 10
9524.401186005084
 20
6034.762103600255
 30
0.0
 11
9524.401186005084
 21
5794.869782054722
 31
0.0
  0
TEXT
  5
19EEE
330
747D
100
AcDbEntity
  8
部品1
100
AcDbText
 10
9614.320795834125
 20
5841.868574381731
 30
0.0
 40
135.0
  1
平面図
  7
STYLE2
100
AcDbText
  0
LWPOLYLINE
  5
1A108
330
747D
100
AcDbEntity
  8
部品1
 48
50.0
100
AcDbPolyline
 90
        4
 70
     1
 43
0.0
 10
8928.186519119305
 20
3314.235280366386
 10
8931.086519119306
 20
3314.235280366386
 10
8931.086519119306
 20
3323.735280366385
 10
8928.186519119305
 20
3323.735280366385
  0
CIRCLE
  5
1A109
330
747D
100
AcDbEntity
  8
部品1
 48
50.0
100
AcDbCircle
 10
8929.636519119306
 20
3318.985280366386
 30
0.0
 40
9.0
  0
ARC
  5
1A10A
330
747D
100
AcDbEntity
  8
細線
 48
50.0
100
AcDbCircle
 10
8929.636519119306
 20
3318.985280366386
 30
0.0
 40
4.0
100
AcDbArc
 50
111.2538091853132
 51
248.7461908146868
  0
ARC
  5
1A10B
330
747D
100
AcDbEntity
  8
細線
 48
50.0
100
AcDbCircle
 10
8929.636519119306
 20
3318.985280366386
 30
0.0
 40
17.5
100
AcDbArc
 50
306.4837370612677
 51
233.5162629387323
  0
LINE
  5
1A10C
330
747D
100
AcDbEntity
  8
細線
 48
50.0
100
AcDbLine
 10
8939.636519119302
 20
3295.126319785503
 30
0.0
 11
8939.636519119305
 21
3304.110805585744
 31
0.0
  0
LINE
  5
1A10D
330
747D
100
AcDbEntity
  8
細線
 48
50.0
100
AcDbLine
 10
8919.636519119306
 20
3295.126319785504
 30
0.0
 11
8919.636519119306
 21
3304.110805585741
 31
0.0
  0
ARC
  5
1A10E
330
747D
100
AcDbEntity
  8
細線
 48
50.0
100
AcDbCircle
 10
8929.636519119306
 20
3318.985280366386
 30
0.0
 40
26.5
100
AcDbArc
 50
249.3326835063939
 51
290.6673164933835
  0
ARC
  5
1A10F
330
747D
100
AcDbEntity
  8
細線
 48
50.0
100
AcDbCircle
 10
8938.636519119297
 20
3295.126319785503
 30
0.0
 40
1.0
100
AcDbArc
 50
290.6673164936062
 51
359.9999999998958
  0
ARC
  5
1A110
330
747D
100
AcDbEntity
  8
細線
 48
50.0
100
AcDbCircle
 10
8920.636519119305
 20
3295.126319785504
 30
0.0
 40
1.0
100
AcDbArc
 50
180.0
 51
249.3326835066164
  0
ARC
  5
1A111
330
747D
100
AcDbEntity
  8
細線
 48
50.0
100
AcDbCircle
 10
8918.636519119306
 20
3304.110805585741
 30
0.0
 40
1.0
100
AcDbArc
 50
0.0
 51
53.51626293873231
  0
ARC
  5
1A112
330
747D
100
AcDbEntity
  8
細線
 48
50.0
100
AcDbCircle
 10
8940.636519119308
 20
3304.110805585744
 30
0.0
 40
1.0
100
AcDbArc
 50
126.4837370615127
 51
180.0
  0
ARC
  5
1A113
330
747D
100
AcDbEntity
  8
細線
 48
50.0
100
AcDbCircle
 10
8929.636519119306
 20
3318.985280366386
 30
0.0
 40
21.5
100
AcDbArc
 50
255.8014401250294
 51
284.1985598749706
  0
ARC
  5
1A114
330
747D
100
AcDbEntity
  8
細線
 48
50.0
100
AcDbCircle
 10
8929.636519119306
 20
3318.985280366386
 30
0.0
 40
16.5
100
AcDbArc
 50
251.9694646069326
 51
288.0305353930674
  0
LINE
  5
1A115
330
747D
100
AcDbEntity
  8
細線
 48
50.0
100
AcDbLine
 10
8935.136519119305
 20
3298.432908240579
 30
0.0
 11
8935.136519119305
 21
3303.010299927915
 31
0.0
  0
LINE
  5
1A116
330
747D
100
AcDbEntity
  8
細線
 48
50.0
100
AcDbLine
 10
8924.136519119306
 20
3298.432908240579
 30
0.0
 11
8924.136519119306
 21
3303.010299927914
 31
0.0
  0
ARC
  5
1A117
330
747D
100
AcDbEntity
  8
細線
 48
50.0
100
AcDbCircle
 10
8924.436519119309
 20
3303.010299927914
 30
0.0
 40
0.3
100
AcDbArc
 50
71.96946460693259
 51
180.0
  0
ARC
  5
1A118
330
747D
100
AcDbEntity
  8
細線
 48
50.0
100
AcDbCircle
 10
8934.836519119306
 20
3303.010299927915
 30
0.0
 40
0.3
100
AcDbArc
 50
0.0
 51
108.0305353930674
  0
ARC
  5
1A119
330
747D
100
AcDbEntity
  8
細線
 48
50.0
100
AcDbCircle
 10
8934.836519119302
 20
3298.432908240579
 30
0.0
 40
0.3
100
AcDbArc
 50
284.1985598747622
 51
0.0000000001042204
  0
ARC
  5
1A11A
330
747D
100
AcDbEntity
  8
細線
 48
50.0
100
AcDbCircle
 10
8924.436519119309
 20
3298.432908240579
 30
0.0
 40
0.3
100
AcDbArc
 50
180.0
 51
255.8014401248081
  0
CIRCLE
  5
1A11B
330
747D
100
AcDbEntity
  8
細線
 48
50.0
100
AcDbCircle
 10
8929.636519119306
 20
3318.985280366386
 30
0.0
 40
12.0
  0
ARC
  5
1A11C
330
747D
100
AcDbEntity
  8
部品1
 48
50.0
100
AcDbCircle
 10
8929.636519119306
 20
3368.985280366386
 30
0.0
 40
8.5
100
AcDbArc
 50
114.315739171091
 51
245.684260828909
  0
CIRCLE
  5
1A11D
330
747D
100
AcDbEntity
  8
細線
 48
50.0
100
AcDbCircle
 10
8929.636519119306
 20
3368.985280366386
 30
0.0
 40
4.5
  0
LWPOLYLINE
  5
1A11E
330
747D
100
AcDbEntity
  8
部品1
 48
50.0
100
AcDbPolyline
 90
        2
 70
     0
 43
0.0
 10
8926.136519119305
 20
3387.660129763368
 10
8926.136519119305
 20
3376.7312470588
  0
CIRCLE
  5
1A11F
330
747D
100
AcDbEntity
  8
部品1
 48
50.0
100
AcDbCircle
 10
8929.636519119306
 20
3368.985280366386
 30
0.0
 40
19.0
  0
LWPOLYLINE
  5
1A120
330
747D
100
AcDbEntity
  8
部品1
 48
50.0
100
AcDbPolyline
 90
        2
 70
     0
 43
0.0
 10
8926.136519119305
 20
3361.239313673971
 10
8926.136519119305
 20
3350.310430969403
  0
LWPOLYLINE
  5
1A121
330
747D
100
AcDbEntity
  8
部品1
 48
50.0
100
AcDbPolyline
 90
        2
 70
     0
 43
0.0
 10
8933.136519119306
 20
3376.7312470588
 10
8933.136519119306
 20
3387.660129763368
  0
ARC
  5
1A122
330
747D
100
AcDbEntity
  8
部品1
 48
50.0
100
AcDbCircle
 10
8929.636519119306
 20
3368.985280366386
 30
0.0
 40
8.5
100
AcDbArc
 50
294.315739171091
 51
65.68426082890896
  0
LWPOLYLINE
  5
1A123
330
747D
100
AcDbEntity
  8
部品1
 48
50.0
100
AcDbPolyline
 90
        2
 70
     0
 43
0.0
 10
8933.136519119306
 20
3350.310430969403
 10
8933.136519119306
 20
3361.239313673971
  0
ARC
  5
1A124
330
747D
100
AcDbEntity
  8
細線
 48
50.0
100
AcDbCircle
 10
8929.636519119306
 20
3368.985280366386
 30
0.0
 40
16.5
100
AcDbArc
 50
332.0012352654438
 51
27.99876473455621
  0
ARC
  5
1A125
330
747D
100
AcDbEntity
  8
細線
 48
50.0
100
AcDbCircle
 10
8929.636519119306
 20
3368.985280366386
 30
0.0
 40
14.0
100
AcDbArc
 50
326.4074436112986
 51
33.59255638870134
  0
LINE
  5
1A126
330
747D
100
AcDbEntity
  8
細線
 48
50.0
100
AcDbLine
 10
8915.067716834974
 20
3376.7312470588
 30
0.0
 11
8917.974615329617
 21
3376.7312470588
 31
0.0
  0
LINE
  5
1A127
330
747D
100
AcDbEntity
  8
細線
 48
50.0
100
AcDbLine
 10
8915.067716834974
 20
3361.239313673971
 30
0.0
 11
8917.974615329617
 21
3361.239313673971
 31
0.0
  0
LINE
  5
1A128
330
747D
100
AcDbEntity
  8
細線
 48
50.0
100
AcDbLine
 10
8941.298422908994
 20
3376.7312470588
 30
0.0
 11
8944.205321403641
 21
3376.7312470588
 31
0.0
  0
LINE
  5
1A129
330
747D
100
AcDbEntity
  8
細線
 48
50.0
100
AcDbLine
 10
8941.298422908994
 20
3361.239313673971
 30
0.0
 11
8944.205321403641
 21
3361.239313673971
 31
0.0
  0
ARC
  5
1A12A
330
747D
100
AcDbEntity
  8
細線
 48
50.0
100
AcDbCircle
 10
8929.636519119306
 20
3368.985280366386
 30
0.0
 40
14.0
100
AcDbArc
 50
146.4074436112986
 51
213.5925563887013
  0
ARC
  5
1A12B
330
747D
100
AcDbEntity
  8
細線
 48
50.0
100
AcDbCircle
 10
8929.636519119306
 20
3368.985280366386
 30
0.0
 40
16.5
100
AcDbArc
 50
152.0012352654438
 51
207.9987647345562
  0
ARC
  5
1A12C
330
747D
100
AcDbEntity
  8
部品1
 48
50.0
100
AcDbCircle
 10
8903.136519119305
 20
3394.485280366386
 30
0.0
 40
5.0
100
AcDbArc
 50
90.0
 51
180.0
  0
ARC
  5
1A12D
330
747D
100
AcDbEntity
  8
部品1
 48
50.0
100
AcDbCircle
 10
8903.136519119305
 20
3283.485280366385
 30
0.0
 40
5.0
100
AcDbArc
 50
180.0
 51
270.0
  0
ARC
  5
1A12E
330
747D
100
AcDbEntity
  8
部品1
 48
50.0
100
AcDbCircle
 10
8956.136519119306
 20
3283.485280366385
 30
0.0
 40
5.0
100
AcDbArc
 50
270.0
 51
0.0
  0
ARC
  5
1A12F
330
747D
100
AcDbEntity
  8
部品1
 48
50.0
100
AcDbCircle
 10
8956.136519119306
 20
3394.485280366386
 30
0.0
 40
5.0
100
AcDbArc
 50
0.0
 51
90.0
  0
LINE
  5
1A131
330
747D
100
AcDbEntity
  8
部品1
 48
50.0
100
AcDbLine
 10
8898.136519119304
 20
3283.485280366385
 30
0.0
 11
8898.136519119304
 21
3394.485280366386
 31
0.0
  0
LINE
  5
1A132
330
747D
100
AcDbEntity
  8
部品1
 48
50.0
100
AcDbLine
 10
8956.136519119306
 20
3278.485280366385
 30
0.0
 11
8903.136519119305
 21
3278.485280366385
 31
0.0
  0
LINE
  5
1A133
330
747D
100
AcDbEntity
  8
部品1
 48
50.0
100
AcDbLine
 10
8961.136519119305
 20
3394.485280366386
 30
0.0
 11
8961.136519119305
 21
3283.485280366385
 31
0.0
  0
ENDSEC
  0
SECTION
  2
OBJECTS
  0
DICTIONARY
  5
7471
330
0
100
AcDbDictionary
281
     1
  3
ACAD_COLOR
350
17F2E
  3
ACAD_GROUP
350
7472
  3
ACAD_LAYOUT
350
17F2F
  3
ACAD_MATERIAL
350
17F2D
  3
ACAD_MLINESTYLE
350
7473
  3
ACAD_PLOTSETTINGS
350
17F30
  3
ACAD_PLOTSTYLENAME
350
17F2B
  3
ACDBHEADERROUNDTRIPXREC
350
1A152
  3
AcDbVariableDictionary
350
1A14E
  3
CONTENTDICTIONARY
350
E71C
  3
DRAWINGVARIABLESDICT
350
F3B9
  0
DICTIONARY
  5
180C8
330
7467
100
AcDbDictionary
280
     1
281
     1
  3
ACAD_LAYERSTATES
360
180C9
  0
DICTIONARY
  5
17F2E
102
{ACAD_REACTORS
330
7471
102
}
330
7471
100
AcDbDictionary
281
     1
  0
DICTIONARY
  5
7472
102
{ACAD_REACTORS
330
7471
102
}
330
7471
100
AcDbDictionary
281
     1
  0
DICTIONARY
  5
17F2F
102
{ACAD_REACTORS
330
7471
102
}
330
7471
100
AcDbDictionary
281
     1
  3
Model
350
17F31
  3
レイアウト1
350
17F32
  0
DICTIONARY
  5
17F2D
102
{ACAD_REACTORS
330
7471
102
}
330
7471
100
AcDbDictionary
281
     1
  0
DICTIONARY
  5
7473
102
{ACAD_REACTORS
330
7471
102
}
330
7471
100
AcDbDictionary
281
     1
  3
STANDARD
350
7480
  0
DICTIONARY
  5
17F30
102
{ACAD_REACTORS
330
7471
102
}
330
7471
100
AcDbDictionary
281
     1
  0
ACDBDICTIONARYWDFLT
  5
17F2B
102
{ACAD_REACTORS
330
7471
102
}
330
7471
100
AcDbDictionary
281
     1
  3
Normal
350
17F2C
100
AcDbDictionaryWithDefault
340
17F2C
  0
DICTIONARY
  5
1A152
102
{ACAD_REACTORS
330
7471
102
}
330
7471
100
AcDbDictionary
281
     1
  3
COLORDICT
350
1A154
  3
MATERIALDICT
350
1A153
  0
DICTIONARY
  5
1A14E
102
{ACAD_REACTORS
330
7471
102
}
330
7471
100
AcDbDictionary
281
     1
  3
DIMASSOC
350
1A14F
  3
PROJECTNAME
350
1A150
  0
DICTIONARY
  5
E71C
102
{ACAD_REACTORS
330
7471
102
}
330
7471
100
AcDbDictionary
281
     1
  0
DICTIONARY
  5
F3B9
102
{ACAD_REACTORS
330
7471
102
}
330
7471
100
AcDbDictionary
281
     1
1001
DRAWINGVARIABLESXDATA
1000
POLARMODE
1000
1
  0
DICTIONARY
  5
180C9
102
{ACAD_REACTORS
330
180C8
102
}
330
180C8
100
AcDbDictionary
281
     1
  0
LAYOUT
  5
17F31
102
{ACAD_XDICTIONARY
360
1A155
102
}
102
{ACAD_REACTORS
330
17F2F
102
}
330
17F2F
100
AcDbPlotSettings
  1

  2
クセロPDF
  4
A3
  6

 40
3.174999952316284
 41
3.174999952316284
 42
3.17498779296875
 43
3.17498779296875
 44
419.9466552734374
 45
296.9259948730469
 46
0.0
 47
0.0
 48
3.619013395666115
 49
-4.192117100517862
140
820.022926294543
141
573.2392198881443
142
1.0
143
39.99735023620806
 70
 11952
 72
     1
 73
     0
 74
     2
  7
inaba.ctb
 75
     0
147
0.0250016562120842
148
25.79074261211281
149
125.8223078213959
100
AcDbLayout
  1
Model
 70
     1
 71
     0
 10
0.0
 20
0.0
 11
12.0
 21
9.0
 12
0.0
 22
0.0
 32
0.0
 14
0.0
 24
0.0
 34
0.0
 15
0.0
 25
0.0
 35
0.0
146
0.0
 13
0.0
 23
0.0
 33
0.0
 16
1.0
 26
0.0
 36
0.0
 17
0.0
 27
1.0
 37
0.0
 76
     0
330
747D
  0
LAYOUT
  5
17F32
102
{ACAD_XDICTIONARY
360
1A157
102
}
102
{ACAD_REACTORS
330
17F2F
102
}
330
17F2F
100
AcDbPlotSettings
  1

  2
Microsoft Office Document Image Writer
  4

  6

 40
0.0
 41
0.0
 42
0.0
 43
0.0
 44
0.0
 45
0.0
 46
0.0
 47
0.0
 48
0.0
 49
0.0
140
0.0
141
0.0
142
1.0
143
1.0
 70
   688
 72
     0
 73
     0
 74
     5
  7

 75
    16
147
1.0
148
0.0
149
0.0
100
AcDbLayout
  1
レイアウト1
 70
     0
 71
     1
 10
0.0
 20
0.0
 11
420.0
 21
297.0
 12
0.0
 22
0.0
 32
0.0
 14
1.000000000000000E+20
 24
1.000000000000000E+20
 34
1.000000000000000E+20
 15
-1.000000000000000E+20
 25
-1.000000000000000E+20
 35
-1.000000000000000E+20
146
0.0
 13
0.0
 23
0.0
 33
0.0
 16
1.0
 26
0.0
 36
0.0
 17
0.0
 27
1.0
 37
0.0
 76
     0
330
747A
  0
MLINESTYLE
  5
7480
102
{ACAD_REACTORS
330
7473
102
}
330
7473
100
AcDbMlineStyle
  2
STANDARD
 70
     0
  3

 62
     0
 51
90.0
 52
90.0
 71
     2
 49
0.5
 62
   256
  6
BYLAYER
 49
-0.5
 62
   256
  6
BYLAYER
  0
ACDBPLACEHOLDER
  5
17F2C
102
{ACAD_REACTORS
330
17F2B
102
}
330
17F2B
  0
XRECORD
  5
1A154
102
{ACAD_REACTORS
330
1A152
102
}
330
1A152
100
AcDbXrecord
280
     1
340
17F2E
  0
XRECORD
  5
1A153
102
{ACAD_REACTORS
330
1A152
102
}
330
1A152
100
AcDbXrecord
280
     1
340
17F2D
  0
DICTIONARYVAR
  5
1A14F
102
{ACAD_REACTORS
330
1A14E
102
}
330
1A14E
100
DictionaryVariables
280
     0
  1
1
  0
DICTIONARYVAR
  5
1A150
102
{ACAD_REACTORS
330
1A14E
102
}
330
1A14E
100
DictionaryVariables
280
     0
  1

  0
DICTIONARY
  5
1A155
330
17F31
100
AcDbDictionary
280
     1
281
     1
  3
ACAD_XREC_ROUNDTRIP
360
1A156
  0
DICTIONARY
  5
1A157
330
17F32
100
AcDbDictionary
280
     1
281
     1
  3
ACAD_XREC_ROUNDTRIP
360
1A158
  0
XRECORD
  5
1A156
102
{ACAD_REACTORS
330
1A155
102
}
330
1A155
100
AcDbXrecord
280
     1
102
SHADEPLOT
 70
     0
102
SHADEPLOTRESLEVEL
 70
     2
102
SHADEPLOTCUSTOMDPI
 70
   150
  0
XRECORD
  5
1A158
102
{ACAD_REACTORS
330
1A157
102
}
330
1A157
100
AcDbXrecord
280
     1
102
SHADEPLOT
 70
     0
102
SHADEPLOTRESLEVEL
 70
     2
102
SHADEPLOTCUSTOMDPI
 70
   300
  0
ENDSEC
  0
EOF
