  0
SECTION
  2
HEADER
  9
$ACADVER
  1
AC1015
  9
$ACADMAINTVER
 70
    20
  9
$DWGCODEPAGE
  3
ANSI_932
  9
$INSBASE
 10
0.0
 20
0.0
 30
0.0
  9
$EXTMIN
 10
139.9999999999995
 20
-0.0000000000000909
 30
0.0
  9
$EXTMAX
 10
16307.2
 20
11409.6
 30
0.0
  9
$LIMMIN
 10
0.0
 20
0.0
  9
$LIMMAX
 10
16800.0
 20
11880.0
  9
$ORTHOMODE
 70
     0
  9
$REGENMODE
 70
     1
  9
$FILLMODE
 70
     1
  9
$QTEXTMODE
 70
     0
  9
$MIRRTEXT
 70
     1
  9
$LTSCALE
 40
20.0
  9
$ATTMODE
 70
     1
  9
$TEXTSIZE
 40
4.0
  9
$TRACEWID
 40
1.0
  9
$TEXTSTYLE
  7
STYLE1
  9
$CLAYER
  8
寸法
  9
$CELTYPE
  6
BYLAYER
  9
$CECOLOR
 62
   256
  9
$CELTSCALE
 40
50.0
  9
$DISPSILH
 70
     0
  9
$DIMSCALE
 40
40.0
  9
$DIMASZ
 40
2.5
  9
$DIMEXO
 40
0.5
  9
$DIMDLI
 40
7.0
  9
$DIMRND
 40
0.0
  9
$DIMDLE
 40
0.0
  9
$DIMEXE
 40
1.5
  9
$DIMTP
 40
0.0
  9
$DIMTM
 40
0.0
  9
$DIMTXT
 40
3.0
  9
$DIMCEN
 40
0.0
  9
$DIMTSZ
 40
0.0
  9
$DIMTOL
 70
     0
  9
$DIMLIM
 70
     0
  9
$DIMTIH
 70
     0
  9
$DIMTOH
 70
     0
  9
$DIMSE1
 70
     0
  9
$DIMSE2
 70
     0
  9
$DIMTAD
 70
     3
  9
$DIMZIN
 70
     8
  9
$DIMBLK
  1

  9
$DIMASO
 70
     1
  9
$DIMSHO
 70
     1
  9
$DIMPOST
  1

  9
$DIMAPOST
  1

  9
$DIMALT
 70
     0
  9
$DIMALTD
 70
     2
  9
$DIMALTF
 40
0.0394
  9
$DIMLFAC
 40
1.0
  9
$DIMTOFL
 70
     1
  9
$DIMTVP
 40
0.0
  9
$DIMTIX
 70
     1
  9
$DIMSOXD
 70
     0
  9
$DIMSAH
 70
     1
  9
$DIMBLK1
  1
DOTSMALL
  9
$DIMBLK2
  1
DOTSMALL
  9
$DIMSTYLE
  2
INABA_S40G
  9
$DIMCLRD
 70
     0
  9
$DIMCLRE
 70
     0
  9
$DIMCLRT
 70
     7
  9
$DIMTFAC
 40
1.0
  9
$DIMGAP
 40
1.0
  9
$DIMJUST
 70
     0
  9
$DIMSD1
 70
     0
  9
$DIMSD2
 70
     0
  9
$DIMTOLJ
 70
     1
  9
$DIMTZIN
 70
     0
  9
$DIMALTZ
 70
     0
  9
$DIMALTTZ
 70
     0
  9
$DIMUPT
 70
     0
  9
$DIMDEC
 70
     1
  9
$DIMTDEC
 70
     4
  9
$DIMALTU
 70
     2
  9
$DIMALTTD
 70
     2
  9
$DIMTXSTY
  7
STYLE1
  9
$DIMAUNIT
 70
     0
  9
$DIMADEC
 70
     0
  9
$DIMALTRND
 40
0.0
  9
$DIMAZIN
 70
     0
  9
$DIMDSEP
 70
    46
  9
$DIMATFIT
 70
     3
  9
$DIMFRAC
 70
     0
  9
$DIMLDRBLK
  1

  9
$DIMLUNIT
 70
     2
  9
$DIMLWD
 70
    -2
  9
$DIMLWE
 70
    -2
  9
$DIMTMOVE
 70
     0
  9
$LUNITS
 70
     2
  9
$LUPREC
 70
     1
  9
$SKETCHINC
 40
1.0
  9
$FILLETRAD
 40
3.0
  9
$AUNITS
 70
     0
  9
$AUPREC
 70
     0
  9
$MENU
  1
acad
  9
$ELEVATION
 40
0.0
  9
$PELEVATION
 40
0.0
  9
$THICKNESS
 40
0.0
  9
$LIMCHECK
 70
     0
  9
$CHAMFERA
 40
0.0
  9
$CHAMFERB
 40
0.0
  9
$CHAMFERC
 40
0.0
  9
$CHAMFERD
 40
0.0
  9
$SKPOLY
 70
     0
  9
$TDCREATE
 40
2451368.612993866
  9
$TDUCREATE
 40
2451368.237993866
  9
$TDUPDATE
 40
2455575.701820556
  9
$TDUUPDATE
 40
2455575.326820556
  9
$TDINDWG
 40
0.6041470023
  9
$TDUSRTIMER
 40
0.6041470023
  9
$USRTIMER
 70
     1
  9
$ANGBASE
 50
0.0
  9
$ANGDIR
 70
     0
  9
$PDMODE
 70
     3
  9
$PDSIZE
 40
2.0
  9
$PLINEWID
 40
0.0
  9
$SPLFRAME
 70
     0
  9
$SPLINETYPE
 70
     6
  9
$SPLINESEGS
 70
     8
  9
$HANDSEED
  5
19901
  9
$SURFTAB1
 70
     6
  9
$SURFTAB2
 70
     6
  9
$SURFTYPE
 70
     6
  9
$SURFU
 70
     6
  9
$SURFV
 70
     6
  9
$UCSBASE
  2

  9
$UCSNAME
  2

  9
$UCSORG
 10
0.0
 20
0.0
 30
0.0
  9
$UCSXDIR
 10
1.0
 20
0.0
 30
0.0
  9
$UCSYDIR
 10
0.0
 20
1.0
 30
0.0
  9
$UCSORTHOREF
  2

  9
$UCSORTHOVIEW
 70
     0
  9
$UCSORGTOP
 10
0.0
 20
0.0
 30
0.0
  9
$UCSORGBOTTOM
 10
0.0
 20
0.0
 30
0.0
  9
$UCSORGLEFT
 10
0.0
 20
0.0
 30
0.0
  9
$UCSORGRIGHT
 10
0.0
 20
0.0
 30
0.0
  9
$UCSORGFRONT
 10
0.0
 20
0.0
 30
0.0
  9
$UCSORGBACK
 10
0.0
 20
0.0
 30
0.0
  9
$PUCSBASE
  2

  9
$PUCSNAME
  2

  9
$PUCSORG
 10
0.0
 20
0.0
 30
0.0
  9
$PUCSXDIR
 10
1.0
 20
0.0
 30
0.0
  9
$PUCSYDIR
 10
0.0
 20
1.0
 30
0.0
  9
$PUCSORTHOREF
  2

  9
$PUCSORTHOVIEW
 70
     0
  9
$PUCSORGTOP
 10
0.0
 20
0.0
 30
0.0
  9
$PUCSORGBOTTOM
 10
0.0
 20
0.0
 30
0.0
  9
$PUCSORGLEFT
 10
0.0
 20
0.0
 30
0.0
  9
$PUCSORGRIGHT
 10
0.0
 20
0.0
 30
0.0
  9
$PUCSORGFRONT
 10
0.0
 20
0.0
 30
0.0
  9
$PUCSORGBACK
 10
0.0
 20
0.0
 30
0.0
  9
$USERI1
 70
     0
  9
$USERI2
 70
     0
  9
$USERI3
 70
     0
  9
$USERI4
 70
     0
  9
$USERI5
 70
     0
  9
$USERR1
 40
0.0
  9
$USERR2
 40
0.0
  9
$USERR3
 40
0.0
  9
$USERR4
 40
0.0
  9
$USERR5
 40
0.0
  9
$WORLDVIEW
 70
     1
  9
$SHADEDGE
 70
     3
  9
$SHADEDIF
 70
    70
  9
$TILEMODE
 70
     1
  9
$MAXACTVP
 70
    16
  9
$PINSBASE
 10
0.0
 20
0.0
 30
0.0
  9
$PLIMCHECK
 70
     0
  9
$PEXTMIN
 10
1.000000000000000E+20
 20
1.000000000000000E+20
 30
1.000000000000000E+20
  9
$PEXTMAX
 10
-1.000000000000000E+20
 20
-1.000000000000000E+20
 30
-1.000000000000000E+20
  9
$PLIMMIN
 10
0.0
 20
0.0
  9
$PLIMMAX
 10
420.0
 20
297.0
  9
$UNITMODE
 70
     0
  9
$VISRETAIN
 70
     0
  9
$PLINEGEN
 70
     0
  9
$PSLTSCALE
 70
     0
  9
$TREEDEPTH
 70
  3020
  9
$CMLSTYLE
  2
STANDARD
  9
$CMLJUST
 70
     0
  9
$CMLSCALE
 40
1.0
  9
$PROXYGRAPHICS
 70
     1
  9
$MEASUREMENT
 70
     1
  9
$CELWEIGHT
370
    -1
  9
$ENDCAPS
280
     0
  9
$JOINSTYLE
280
     0
  9
$LWDISPLAY
290
     0
  9
$INSUNITS
 70
     0
  9
$HYPERLINKBASE
  1

  9
$STYLESHEET
  1

  9
$XEDIT
290
     1
  9
$CEPSNTYPE
380
     0
  9
$PSTYLEMODE
290
     1
  9
$FINGERPRINTGUID
  2
{5EAC461A-2277-4BF8-9AB0-99C43BB394F0}
  9
$VERSIONGUID
  2
{97C0337C-599D-4465-82E1-11A467D31F58}
  9
$EXTNAMES
290
     1
  9
$PSVPSCALE
 40
0.0
  9
$OLESTARTUP
290
     0
  0
ENDSEC
  0
SECTION
  2
CLASSES
  0
CLASS
  1
ACDBDICTIONARYWDFLT
  2
AcDbDictionaryWithDefault
  3
ObjectDBX Classes
 90
        0
280
     0
281
     0
  0
CLASS
  1
DICTIONARYVAR
  2
AcDbDictionaryVar
  3
ObjectDBX Classes
 90
        0
280
     0
281
     0
  0
CLASS
  1
ACDBPLACEHOLDER
  2
AcDbPlaceHolder
  3
ObjectDBX Classes
 90
        0
280
     0
281
     0
  0
CLASS
  1
LAYOUT
  2
AcDbLayout
  3
ObjectDBX Classes
 90
        0
280
     0
281
     0
  0
ENDSEC
  0
SECTION
  2
TABLES
  0
TABLE
  2
VPORT
  5
746D
330
0
100
AcDbSymbolTable
 70
     2
  0
VPORT
  5
198F9
330
746D
100
AcDbSymbolTableRecord
100
AcDbViewportTableRecord
  2
*Active
 70
     0
 10
0.0
 20
0.0
 11
1.0
 21
1.0
 12
8223.761025238502
 22
6348.703162895247
 13
0.0
 23
0.0
 14
10.0
 24
10.0
 15
10.0
 25
10.0
 16
0.0
 26
0.0
 36
1.0
 17
0.0
 27
0.0
 37
0.0
 40
12805.60689082044
 41
1.525925925925925
 42
50.0
 43
0.0
 44
0.0
 50
0.0
 51
0.0
 71
     0
 72
     0
 73
     1
 74
     0
 75
     0
 76
     0
 77
     0
 78
     0
281
     0
 65
     1
110
0.0
120
0.0
130
0.0
111
1.0
121
0.0
131
0.0
112
0.0
122
1.0
132
0.0
 79
     0
146
0.0
  0
ENDTAB
  0
TABLE
  2
LTYPE
  5
746A
330
0
100
AcDbSymbolTable
 70
     5
  0
LTYPE
  5
7477
330
746A
100
AcDbSymbolTableRecord
100
AcDbLinetypeTableRecord
  2
BYBLOCK
 70
     0
  3

 72
    65
 73
     0
 40
0.0
  0
LTYPE
  5
7478
330
746A
100
AcDbSymbolTableRecord
100
AcDbLinetypeTableRecord
  2
BYLAYER
 70
     0
  3

 72
    65
 73
     0
 40
0.0
  0
LTYPE
  5
7479
330
746A
100
AcDbSymbolTableRecord
100
AcDbLinetypeTableRecord
  2
CONTINUOUS
 70
     0
  3
Solid line
 72
    65
 73
     0
 40
0.0
  0
LTYPE
  5
7816
330
746A
100
AcDbSymbolTableRecord
100
AcDbLinetypeTableRecord
  2
CENTER
 70
     0
  3
____ _ ____ _ ____ _ ____ _ ____ _ ____ _ ____ 
 72
    65
 73
     4
 40
2.0
 49
1.25
 74
     0
 49
-0.25
 74
     0
 49
0.25
 74
     0
 49
-0.25
 74
     0
  0
LTYPE
  5
781A
330
746A
100
AcDbSymbolTableRecord
100
AcDbLinetypeTableRecord
  2
HIDDEN
 70
     0
  3
__ __ __ __ __ __ __ __ __ __ __ __ __ __ __ __
 72
    65
 73
     2
 40
0.375
 49
0.25
 74
     0
 49
-0.125
 74
     0
  0
LTYPE
  5
781B
330
746A
100
AcDbSymbolTableRecord
100
AcDbLinetypeTableRecord
  2
PHANTOM
 70
     0
  3
______  __  __  ______  __  __  ______  __  __ 
 72
    65
 73
     6
 40
2.5
 49
1.25
 74
     0
 49
-0.25
 74
     0
 49
0.25
 74
     0
 49
-0.25
 74
     0
 49
0.25
 74
     0
 49
-0.25
 74
     0
  0
LTYPE
  5
12CC3
330
746A
100
AcDbSymbolTableRecord
100
AcDbLinetypeTableRecord
  2
HIDDENX2
 70
     0
  3
Hidden (2x) ____ ____ ____ ____ ____ ____ ____
 72
    65
 73
     2
 40
19.05
 49
12.7
 74
     0
 49
-6.349999999999999
 74
     0
  0
ENDTAB
  0
TABLE
  2
LAYER
  5
7467
102
{ACAD_XDICTIONARY
360
1758F
102
}
330
0
100
AcDbSymbolTable
 70
    12
  0
LAYER
  5
7474
330
7467
100
AcDbSymbolTableRecord
100
AcDbLayerTableRecord
  2
0
 70
     0
 62
     7
  6
CONTINUOUS
370
    -3
390
173D0
  0
LAYER
  5
DEB2
330
7467
100
AcDbSymbolTableRecord
100
AcDbLayerTableRecord
  2
センター
 70
     0
 62
     3
  6
CENTER
370
    -3
390
173D0
  0
LAYER
  5
DEB3
330
7467
100
AcDbSymbolTableRecord
100
AcDbLayerTableRecord
  2
寸法
 70
     0
 62
     4
  6
CONTINUOUS
370
    -3
390
173D0
  0
LAYER
  5
DEB4
330
7467
100
AcDbSymbolTableRecord
100
AcDbLayerTableRecord
  2
部品1
 70
     0
 62
     7
  6
CONTINUOUS
370
    -3
390
173D0
  0
LAYER
  5
DEB5
330
7467
100
AcDbSymbolTableRecord
100
AcDbLayerTableRecord
  2
補助
 70
     0
 62
    -1
  6
CONTINUOUS
370
    -3
390
173D0
  0
LAYER
  5
DEB6
330
7467
100
AcDbSymbolTableRecord
100
AcDbLayerTableRecord
  2
文字
 70
     0
 62
     7
  6
CONTINUOUS
370
    -3
390
173D0
  0
LAYER
  5
F255
330
7467
100
AcDbSymbolTableRecord
100
AcDbLayerTableRecord
  2
DEFPOINTS
 70
     0
 62
     7
  6
CONTINUOUS
290
     0
370
    -3
390
173D0
  0
LAYER
  5
10B54
330
7467
100
AcDbSymbolTableRecord
100
AcDbLayerTableRecord
  2
仕様書枠
 70
     0
 62
   230
  6
CONTINUOUS
370
    -3
390
173D0
  0
LAYER
  5
11729
330
7467
100
AcDbSymbolTableRecord
100
AcDbLayerTableRecord
  2
Ｇ．Ｌ
 70
     0
 62
    30
  6
CONTINUOUS
370
    -3
390
173D0
  0
LAYER
  5
1173F
330
7467
100
AcDbSymbolTableRecord
100
AcDbLayerTableRecord
  2
細線
 70
     0
 62
     5
  6
CONTINUOUS
370
    -3
390
173D0
  0
LAYER
  5
12CC4
330
7467
100
AcDbSymbolTableRecord
100
AcDbLayerTableRecord
  2
想像線
 70
     0
 62
     6
  6
PHANTOM
370
    -3
390
173D0
  0
LAYER
  5
142E2
330
7467
100
AcDbSymbolTableRecord
100
AcDbLayerTableRecord
  2
破線
 70
     0
 62
     2
  6
HIDDEN
370
    -3
390
173D0
  0
ENDTAB
  0
TABLE
  2
STYLE
  5
7468
330
0
100
AcDbSymbolTable
 70
     7
  0
STYLE
  5
7475
330
7468
100
AcDbSymbolTableRecord
100
AcDbTextStyleTableRecord
  2
STANDARD
 70
     0
 40
0.0
 41
1.0
 50
0.0
 71
     0
 42
4.0
  3
txt
  4
C:\AutoCAD LT\bigfont.shx
  0
STYLE
  5
763C
330
7468
100
AcDbSymbolTableRecord
100
AcDbTextStyleTableRecord
  2
MSMINCHO
 70
     0
 40
0.0
 41
1.0
 50
0.0
 71
     0
 42
1.199999999999999
  3
C:\AutoCAD LT\msminch2.TTF
  4

  0
STYLE
  5
F706
330
7468
100
AcDbSymbolTableRecord
100
AcDbTextStyleTableRecord
  2
STYLE1
 70
     0
 40
0.0
 41
1.0
 50
0.0
 71
     0
 42
4.0
  3
isocp.shx
  4
bigfont.shx
  0
STYLE
  5
103BF
330
7468
100
AcDbSymbolTableRecord
100
AcDbTextStyleTableRecord
  2
STYLE2
 70
     0
 40
0.0
 41
1.0
 50
0.0
 71
     0
 42
100.0
  3
MS PGothic.ttf
  4

1001
ACAD
1000
MS PGothic
1071
    32818
  0
STYLE
  5
11A15
330
7468
100
AcDbSymbolTableRecord
100
AcDbTextStyleTableRecord
  2
MSGOTHIC
 70
     0
 40
0.0
 41
1.0
 50
0.0
 71
     0
 42
3.5
  3
msgothi2.ttf
  4

  0
STYLE
  5
13E96
330
7468
100
AcDbSymbolTableRecord
100
AcDbTextStyleTableRecord
  2
MSPゴシック
 70
     0
 40
0.0
 41
1.0
 50
0.0
 71
     0
 42
4.0
  3
MS PGothic.ttf
  4

1001
ACAD
1000
MS PGothic
1071
    32818
  0
STYLE
  5
19890
330
7468
100
AcDbSymbolTableRecord
100
AcDbTextStyleTableRecord
  2
STYLE3
 70
     0
 40
0.0
 41
1.0
 50
0.0
 71
     0
 42
100.0
  3

  4

1001
ACAD
1000
DFPGothic-EB
1071
    32818
  0
ENDTAB
  0
TABLE
  2
VIEW
  5
746B
330
0
100
AcDbSymbolTable
 70
     0
  0
ENDTAB
  0
TABLE
  2
UCS
  5
746C
330
0
100
AcDbSymbolTable
 70
     0
  0
ENDTAB
  0
TABLE
  2
APPID
  5
746E
330
0
100
AcDbSymbolTable
 70
     6
  0
APPID
  5
7476
330
746E
100
AcDbSymbolTableRecord
100
AcDbRegAppTableRecord
  2
ACAD
 70
     0
  0
APPID
  5
DEA9
330
746E
100
AcDbSymbolTableRecord
100
AcDbRegAppTableRecord
  2
CONTENTBLOCKICON
 70
     0
  0
APPID
  5
DEAA
330
746E
100
AcDbSymbolTableRecord
100
AcDbRegAppTableRecord
  2
CONTENTBLOCKDESCRIPTION
 70
     0
  0
APPID
  5
E71D
330
746E
100
AcDbSymbolTableRecord
100
AcDbRegAppTableRecord
  2
CONTENTTABDATA
 70
     0
  0
APPID
  5
E71E
330
746E
100
AcDbSymbolTableRecord
100
AcDbRegAppTableRecord
  2
CONTENTCURRENTTAB
 70
     0
  0
APPID
  5
F3BA
330
746E
100
AcDbSymbolTableRecord
100
AcDbRegAppTableRecord
  2
DRAWINGVARIABLESXDATA
 70
     0
  0
ENDTAB
  0
TABLE
  2
DIMSTYLE
  5
746F
330
0
100
AcDbSymbolTable
 70
     7
100
AcDbDimStyleTable
 71
     1
340
F71F
  0
DIMSTYLE
105
7484
330
746F
100
AcDbSymbolTableRecord
100
AcDbDimStyleTableRecord
  2
JIS
 70
     0
 41
2.5
 42
1.0
 43
7.0
 44
1.0
 73
     0
 74
     0
 77
     1
 78
     8
140
2.5
141
0.0
143
0.0394
147
0.0
172
     1
174
     1
175
     1
340
7475
  0
DIMSTYLE
105
F236
102
{ACAD_REACTORS
330
17C53
330
17C54
330
17C68
330
17C6A
330
17C6B
330
17C6C
330
17C78
330
19451
102
}
330
746F
100
AcDbSymbolTableRecord
100
AcDbDimStyleTableRecord
  2
INABA_S40
 70
     0
 40
40.0
 41
2.5
 42
0.5
 43
7.0
 44
1.5
 73
     0
 74
     0
 77
     3
 78
     8
140
3.0
141
0.0
143
0.0394
147
1.0
172
     1
173
     1
174
     1
175
     1
178
     7
289
     0
340
7475
341
DEAC
343
DEAC
344
DEAC
  0
DIMSTYLE
105
F71F
102
{ACAD_REACTORS
330
146C0
330
14E59
330
14E5A
330
14E5B
330
14E5C
330
14E5D
330
14E87
330
14E8B
330
14ECF
330
14ED1
330
155F4
330
17082
330
179DE
330
179FC
330
179FD
330
179FE
330
179FF
330
17A00
330
1810D
330
1810C
330
1810A
330
18186
330
14E6F
330
19175
330
19452
102
}
330
746F
100
AcDbSymbolTableRecord
100
AcDbDimStyleTableRecord
  2
INABA_S40G
 70
     0
 40
40.0
 41
2.5
 42
0.5
 43
7.0
 44
1.5
 73
     0
 74
     0
 77
     3
 78
     8
140
3.0
141
0.0
143
0.0394
147
1.0
172
     1
173
     1
174
     1
178
     7
271
     1
340
F706
341
F770
343
F770
344
F770
  0
DIMSTYLE
105
142E3
330
746F
100
AcDbSymbolTableRecord
100
AcDbDimStyleTableRecord
  2
INABA_S1
 70
     0
 40
0.0
 41
2.5
 42
0.5
 43
7.0
 44
1.5
 73
     0
 74
     0
 77
     3
 78
     8
140
3.0
141
0.0
143
0.0394
146
0.5
147
0.5
172
     1
173
     1
176
   256
177
   256
178
     7
271
     2
272
     2
284
     8
288
     1
340
7475
341
DEAC
343
DEAC
344
DEAC
  0
DIMSTYLE
105
14463
330
746F
100
AcDbSymbolTableRecord
100
AcDbDimStyleTableRecord
  2
INABA_S30G
 70
     0
 40
30.0
 41
2.5
 42
0.5
 43
7.0
 44
1.5
 73
     0
 74
     0
 77
     3
 78
     8
140
3.0
141
0.0
143
0.0394
147
1.0
172
     1
173
     1
174
     1
175
     1
178
     7
271
     1
340
F706
341
F770
343
F770
344
F770
  0
DIMSTYLE
105
1758E
330
746F
100
AcDbSymbolTableRecord
100
AcDbDimStyleTableRecord
  2
INABA_S50G
 70
     0
 41
125.0
 42
25.0
 43
7.0
 44
75.0
 73
     0
 74
     0
 77
     3
 78
     8
140
150.0
141
0.0
143
0.0394
147
25.0
172
     1
173
     1
174
     1
175
     1
178
     7
271
     1
340
F706
341
F770
343
F770
344
F770
  0
DIMSTYLE
105
19891
330
746F
100
AcDbSymbolTableRecord
100
AcDbDimStyleTableRecord
  2
INABA_S20G
 70
     0
 40
20.0
 41
2.5
 42
0.5
 43
7.0
 44
1.5
 73
     0
 74
     0
 77
     3
 78
     8
140
3.0
141
0.0
143
0.0394
147
1.0
172
     1
173
     1
174
     1
178
     7
271
     1
340
F706
341
F770
343
F770
344
F770
  0
ENDTAB
  0
TABLE
  2
BLOCK_RECORD
  5
7466
330
0
100
AcDbSymbolTable
 70
    51
  0
BLOCK_RECORD
  5
747D
330
7466
100
AcDbSymbolTableRecord
100
AcDbBlockTableRecord
  2
*MODEL_SPACE
340
173D5
  0
BLOCK_RECORD
  5
747A
330
7466
100
AcDbSymbolTableRecord
100
AcDbBlockTableRecord
  2
*PAPER_SPACE
340
173D6
  0
BLOCK_RECORD
  5
DEAC
330
7466
100
AcDbSymbolTableRecord
100
AcDbBlockTableRecord
  2
_OPEN
340
0
  0
BLOCK_RECORD
  5
F770
330
7466
100
AcDbSymbolTableRecord
100
AcDbBlockTableRecord
  2
_DOTSMALL
340
0
102
{BLKREFS
331
1870A
331
1870B
331
18715
331
18716
331
1871E
331
1871F
331
18727
331
18728
331
1877F
331
18780
331
18788
331
18789
331
18791
331
18792
331
1879C
331
1879D
331
187A6
331
187A7
331
187AF
331
187B0
331
1882C
331
1882D
331
18C65
331
18C66
331
18C59
331
18C5A
331
18C4D
331
18C4E
331
18C41
331
18C42
331
18C35
331
18C36
331
18C29
331
18C2A
331
18C1D
331
18C1E
331
18C0F
331
18C10
331
18C03
331
18C04
331
18BF5
331
18BF6
331
18BE7
331
18BE8
331
18BD9
331
18BDA
331
18BCD
331
18BCE
331
1978E
331
1978F
331
197A2
331
197A3
331
197AB
331
197AC
331
197B4
331
197B5
331
197BD
331
197BE
331
197C6
331
197C7
331
197CF
331
197D0
331
197DA
331
197DB
331
197E3
331
197E4
331
197EE
331
197EF
331
197F9
331
197FA
331
19804
331
19805
331
1980D
331
1980E
331
19816
331
19817
102
}
  0
BLOCK_RECORD
  5
146B4
330
7466
100
AcDbSymbolTableRecord
100
AcDbBlockTableRecord
  2
*D2
340
0
  0
BLOCK_RECORD
  5
14EE4
330
7466
100
AcDbSymbolTableRecord
100
AcDbBlockTableRecord
  2
*D3
340
0
  0
BLOCK_RECORD
  5
14EF0
330
7466
100
AcDbSymbolTableRecord
100
AcDbBlockTableRecord
  2
*D4
340
0
  0
BLOCK_RECORD
  5
14EFC
330
7466
100
AcDbSymbolTableRecord
100
AcDbBlockTableRecord
  2
*D5
340
0
  0
BLOCK_RECORD
  5
14F0A
330
7466
100
AcDbSymbolTableRecord
100
AcDbBlockTableRecord
  2
*D6
340
0
  0
BLOCK_RECORD
  5
14F18
330
7466
100
AcDbSymbolTableRecord
100
AcDbBlockTableRecord
  2
*D7
340
0
  0
BLOCK_RECORD
  5
14F3E
330
7466
100
AcDbSymbolTableRecord
100
AcDbBlockTableRecord
  2
*D8
340
0
  0
BLOCK_RECORD
  5
14F4A
330
7466
100
AcDbSymbolTableRecord
100
AcDbBlockTableRecord
  2
*D9
340
0
  0
BLOCK_RECORD
  5
14F58
330
7466
100
AcDbSymbolTableRecord
100
AcDbBlockTableRecord
  2
*D10
340
0
  0
BLOCK_RECORD
  5
14F64
330
7466
100
AcDbSymbolTableRecord
100
AcDbBlockTableRecord
  2
*D11
340
0
  0
BLOCK_RECORD
  5
14F70
330
7466
100
AcDbSymbolTableRecord
100
AcDbBlockTableRecord
  2
*D12
340
0
  0
BLOCK_RECORD
  5
155F5
330
7466
100
AcDbSymbolTableRecord
100
AcDbBlockTableRecord
  2
*D13
340
0
  0
BLOCK_RECORD
  5
164B4
330
7466
100
AcDbSymbolTableRecord
100
AcDbBlockTableRecord
  2
_DOT
340
0
102
{BLKREFS
331
18746
331
18747
331
18751
331
18752
331
1875A
331
1875B
331
18763
331
18764
331
1876C
331
1876D
331
18775
331
18776
331
18835
331
18836
331
18C73
331
18C74
331
1982C
331
1982D
102
}
  0
BLOCK_RECORD
  5
17083
330
7466
100
AcDbSymbolTableRecord
100
AcDbBlockTableRecord
  2
*D15
340
0
  0
BLOCK_RECORD
  5
17D47
330
7466
100
AcDbSymbolTableRecord
100
AcDbBlockTableRecord
  2
*D16
340
0
  0
BLOCK_RECORD
  5
17D53
330
7466
100
AcDbSymbolTableRecord
100
AcDbBlockTableRecord
  2
*D17
340
0
  0
BLOCK_RECORD
  5
17D5F
330
7466
100
AcDbSymbolTableRecord
100
AcDbBlockTableRecord
  2
*D18
340
0
  0
BLOCK_RECORD
  5
17D6B
330
7466
100
AcDbSymbolTableRecord
100
AcDbBlockTableRecord
  2
*D19
340
0
  0
BLOCK_RECORD
  5
17D77
330
7466
100
AcDbSymbolTableRecord
100
AcDbBlockTableRecord
  2
*D20
340
0
  0
BLOCK_RECORD
  5
17D85
330
7466
100
AcDbSymbolTableRecord
100
AcDbBlockTableRecord
  2
*D21
340
0
  0
BLOCK_RECORD
  5
17D93
330
7466
100
AcDbSymbolTableRecord
100
AcDbBlockTableRecord
  2
*D22
340
0
  0
BLOCK_RECORD
  5
17E43
330
7466
100
AcDbSymbolTableRecord
100
AcDbBlockTableRecord
  2
*D23
340
0
  0
BLOCK_RECORD
  5
17E4F
330
7466
100
AcDbSymbolTableRecord
100
AcDbBlockTableRecord
  2
*D24
340
0
  0
BLOCK_RECORD
  5
17E5C
330
7466
100
AcDbSymbolTableRecord
100
AcDbBlockTableRecord
  2
*D25
340
0
  0
BLOCK_RECORD
  5
17E6A
330
7466
100
AcDbSymbolTableRecord
100
AcDbBlockTableRecord
  2
*D26
340
0
  0
BLOCK_RECORD
  5
17E76
330
7466
100
AcDbSymbolTableRecord
100
AcDbBlockTableRecord
  2
*D27
340
0
  0
BLOCK_RECORD
  5
17E82
330
7466
100
AcDbSymbolTableRecord
100
AcDbBlockTableRecord
  2
*D28
340
0
  0
BLOCK_RECORD
  5
1812A
330
7466
100
AcDbSymbolTableRecord
100
AcDbBlockTableRecord
  2
*D29
340
0
  0
BLOCK_RECORD
  5
18138
330
7466
100
AcDbSymbolTableRecord
100
AcDbBlockTableRecord
  2
*D30
340
0
  0
BLOCK_RECORD
  5
18152
330
7466
100
AcDbSymbolTableRecord
100
AcDbBlockTableRecord
  2
*D31
340
0
  0
BLOCK_RECORD
  5
18191
330
7466
100
AcDbSymbolTableRecord
100
AcDbBlockTableRecord
  2
*D32
340
0
  0
BLOCK_RECORD
  5
18BC8
330
7466
100
AcDbSymbolTableRecord
100
AcDbBlockTableRecord
  2
*D33
340
0
  0
BLOCK_RECORD
  5
18BD4
330
7466
100
AcDbSymbolTableRecord
100
AcDbBlockTableRecord
  2
*D34
340
0
  0
BLOCK_RECORD
  5
18BE0
330
7466
100
AcDbSymbolTableRecord
100
AcDbBlockTableRecord
  2
*D35
340
0
  0
BLOCK_RECORD
  5
18BEE
330
7466
100
AcDbSymbolTableRecord
100
AcDbBlockTableRecord
  2
*D36
340
0
  0
BLOCK_RECORD
  5
18BFC
330
7466
100
AcDbSymbolTableRecord
100
AcDbBlockTableRecord
  2
*D37
340
0
  0
BLOCK_RECORD
  5
18C0A
330
7466
100
AcDbSymbolTableRecord
100
AcDbBlockTableRecord
  2
*D38
340
0
  0
BLOCK_RECORD
  5
18C16
330
7466
100
AcDbSymbolTableRecord
100
AcDbBlockTableRecord
  2
*D39
340
0
  0
BLOCK_RECORD
  5
18C24
330
7466
100
AcDbSymbolTableRecord
100
AcDbBlockTableRecord
  2
*D40
340
0
  0
BLOCK_RECORD
  5
18C30
330
7466
100
AcDbSymbolTableRecord
100
AcDbBlockTableRecord
  2
*D41
340
0
  0
BLOCK_RECORD
  5
18C3C
330
7466
100
AcDbSymbolTableRecord
100
AcDbBlockTableRecord
  2
*D42
340
0
  0
BLOCK_RECORD
  5
18C48
330
7466
100
AcDbSymbolTableRecord
100
AcDbBlockTableRecord
  2
*D43
340
0
  0
BLOCK_RECORD
  5
18C54
330
7466
100
AcDbSymbolTableRecord
100
AcDbBlockTableRecord
  2
*D44
340
0
  0
BLOCK_RECORD
  5
18C60
330
7466
100
AcDbSymbolTableRecord
100
AcDbBlockTableRecord
  2
*D45
340
0
  0
BLOCK_RECORD
  5
18C6C
330
7466
100
AcDbSymbolTableRecord
100
AcDbBlockTableRecord
  2
*D46
340
0
  0
BLOCK_RECORD
  5
18C7A
330
7466
100
AcDbSymbolTableRecord
100
AcDbBlockTableRecord
  2
A$C3B1A506B
340
0
  0
BLOCK_RECORD
  5
191E0
330
7466
100
AcDbSymbolTableRecord
100
AcDbBlockTableRecord
  2
*D48
340
0
  0
BLOCK_RECORD
  5
19565
330
7466
100
AcDbSymbolTableRecord
100
AcDbBlockTableRecord
  2
*D49
340
0
  0
BLOCK_RECORD
  5
19573
330
7466
100
AcDbSymbolTableRecord
100
AcDbBlockTableRecord
  2
*D50
340
0
  0
ENDTAB
  0
ENDSEC
  0
SECTION
  2
BLOCKS
  0
BLOCK
  5
7489
330
747D
100
AcDbEntity
  8
0
100
AcDbBlockBegin
  2
*MODEL_SPACE
 70
     0
 10
0.0
 20
0.0
 30
0.0
  3
*MODEL_SPACE
  1

  0
ENDBLK
  5
748A
330
747D
100
AcDbEntity
  8
0
100
AcDbBlockEnd
  0
BLOCK
  5
7487
330
747A
100
AcDbEntity
 67
     1
  8
0
100
AcDbBlockBegin
  2
*PAPER_SPACE
 70
     0
 10
0.0
 20
0.0
 30
0.0
  3
*PAPER_SPACE
  1

  0
ENDBLK
  5
7488
330
747A
100
AcDbEntity
 67
     1
  8
0
100
AcDbBlockEnd
  0
BLOCK
  5
DEAD
330
DEAC
100
AcDbEntity
  8
0
100
AcDbBlockBegin
  2
_OPEN
 70
     0
 10
0.0
 20
0.0
 30
0.0
  3
_OPEN
  1

  0
LINE
  5
DEAE
330
DEAC
100
AcDbEntity
  8
0
  6
ByBlock
 62
     0
100
AcDbLine
 10
-1.0
 20
0.1666666666666666
 30
0.0
 11
0.0
 21
0.0
 31
0.0
  0
LINE
  5
DEAF
330
DEAC
100
AcDbEntity
  8
0
  6
ByBlock
 62
     0
100
AcDbLine
 10
0.0
 20
0.0
 30
0.0
 11
-1.0
 21
-0.1666666666666666
 31
0.0
  0
LINE
  5
DEB0
330
DEAC
100
AcDbEntity
  8
0
  6
ByBlock
 62
     0
100
AcDbLine
 10
0.0
 20
0.0
 30
0.0
 11
-1.0
 21
0.0
 31
0.0
  0
ENDBLK
  5
DEB1
330
DEAC
100
AcDbEntity
  8
0
100
AcDbBlockEnd
  0
BLOCK
  5
F771
330
F770
100
AcDbEntity
  8
0
 48
50.0
100
AcDbBlockBegin
  2
_DOTSMALL
 70
     0
 10
0.0
 20
0.0
 30
0.0
  3
_DOTSMALL
  1

  0
LWPOLYLINE
  5
F772
330
F770
100
AcDbEntity
  8
0
  6
ByBlock
 62
     0
 48
50.0
100
AcDbPolyline
 90
        2
 70
     1
 43
0.5
 10
-0.0625
 20
0.0
 42
1.0
 10
0.0625
 20
0.0
 42
1.0
  0
ENDBLK
  5
F776
330
F770
100
AcDbEntity
  8
0
 48
50.0
100
AcDbBlockEnd
  0
BLOCK
  5
16403
330
146B4
100
AcDbEntity
  8
0
 48
50.0
100
AcDbBlockBegin
  2
*D2
 70
     1
 10
0.0
 20
0.0
 30
0.0
  3
*D2
  1

  0
LINE
  5
18829
330
146B4
100
AcDbEntity
  8
寸法
 62
     0
 48
50.0
370
    -2
100
AcDbLine
 10
7729.896575106991
 20
2624.574105358052
 30
0.0
 11
7729.896575106991
 21
2298.526776057675
 31
0.0
  0
LINE
  5
1882A
330
146B4
100
AcDbEntity
  8
寸法
 62
     0
 48
50.0
370
    -2
100
AcDbLine
 10
7529.89657510699
 20
2624.574105358052
 30
0.0
 11
7529.89657510699
 21
2298.526776057675
 31
0.0
  0
LINE
  5
1882B
330
146B4
100
AcDbEntity
  8
寸法
 62
     0
 48
50.0
370
    -2
100
AcDbLine
 10
7729.896575106991
 20
2358.526776057675
 30
0.0
 11
7529.89657510699
 21
2358.526776057675
 31
0.0
  0
INSERT
  5
1882C
330
146B4
100
AcDbEntity
  8
寸法
 62
     0
 48
50.0
370
    -2
100
AcDbBlockReference
  2
_DOTSMALL
 10
7729.896575106991
 20
2358.526776057675
 30
0.0
 41
100.0
 42
100.0
 43
100.0
  0
INSERT
  5
1882D
330
146B4
100
AcDbEntity
  8
寸法
 62
     0
 48
50.0
370
    -2
100
AcDbBlockReference
  2
_DOTSMALL
 10
7529.89657510699
 20
2358.526776057675
 30
0.0
 41
100.0
 42
100.0
 43
100.0
 50
180.0
  0
MTEXT
  5
1882E
330
146B4
100
AcDbEntity
  8
寸法
 62
     7
 48
50.0
100
AcDbMText
 10
7629.896575106991
 20
2458.538587081298
 30
0.0
 40
120.0
 41
0.0
 71
     5
 72
     1
  1
\A1;200
  7
STYLE1
 73
     1
 44
1.0
1001
ACAD
1000
MTEXTBEGIN
1070
    73
1070
     1
1070
    44
1040
1.0
1070
    74
1070
     0
1000
MTEXTEND
  0
POINT
  5
1882F
330
146B4
100
AcDbEntity
  8
DEFPOINTS
 62
     0
 48
50.0
100
AcDbPoint
 10
7729.896575106991
 20
2644.574105358052
 30
0.0
  0
POINT
  5
18830
330
146B4
100
AcDbEntity
  8
DEFPOINTS
 62
     0
 48
50.0
100
AcDbPoint
 10
7529.89657510699
 20
2644.574105358052
 30
0.0
  0
POINT
  5
18831
330
146B4
100
AcDbEntity
  8
DEFPOINTS
 62
     0
 48
50.0
100
AcDbPoint
 10
7529.89657510699
 20
2358.526776057675
 30
0.0
  0
ENDBLK
  5
1640D
330
146B4
100
AcDbEntity
  8
0
 48
50.0
100
AcDbBlockEnd
  0
BLOCK
  5
16430
330
14EE4
100
AcDbEntity
  8
0
 48
50.0
100
AcDbBlockBegin
  2
*D3
 70
     1
 10
0.0
 20
0.0
 30
0.0
  3
*D3
  1

  0
LINE
  5
19813
330
14EE4
100
AcDbEntity
  8
寸法
 62
     0
 48
50.0
370
    -2
100
AcDbLine
 10
7649.896575106999
 20
9921.665184317404
 30
0.0
 11
8702.429862581047
 21
9921.665184317404
 31
0.0
  0
LINE
  5
19814
330
14EE4
100
AcDbEntity
  8
寸法
 62
     0
 48
50.0
370
    -2
100
AcDbLine
 10
7649.896575106973
 20
8131.665184317396
 30
0.0
 11
8702.429862581047
 21
8131.665184317396
 31
0.0
  0
LINE
  5
19815
330
14EE4
100
AcDbEntity
  8
寸法
 62
     0
 48
50.0
370
    -2
100
AcDbLine
 10
8642.429862581046
 20
9921.665184317404
 30
0.0
 11
8642.429862581046
 21
8131.665184317396
 31
0.0
  0
INSERT
  5
19816
330
14EE4
100
AcDbEntity
  8
寸法
 62
     0
 48
50.0
370
    -2
100
AcDbBlockReference
  2
_DOTSMALL
 10
8642.429862581046
 20
9921.665184317404
 30
0.0
 41
100.0
 42
100.0
 43
100.0
 50
90.0
  0
INSERT
  5
19817
330
14EE4
100
AcDbEntity
  8
寸法
 62
     0
 48
50.0
370
    -2
100
AcDbBlockReference
  2
_DOTSMALL
 10
8642.429862581046
 20
8131.665184317396
 30
0.0
 41
100.0
 42
100.0
 43
100.0
 50
270.0
  0
MTEXT
  5
19818
330
14EE4
100
AcDbEntity
  8
寸法
 62
     7
 48
50.0
100
AcDbMText
 10
8542.429862581045
 20
9026.665184317399
 30
0.0
 40
120.0
 41
0.0
 71
     5
 72
     1
  1
\A1;1790
  7
STYLE1
 11
0.0000000000000001
 21
1.0
 31
0.0
 73
     1
 44
1.0
1001
ACAD
1000
MTEXTBEGIN
1070
    73
1070
     1
1070
    44
1040
1.0
1070
    74
1070
     0
1000
MTEXTEND
  0
POINT
  5
19819
330
14EE4
100
AcDbEntity
  8
DEFPOINTS
 62
     0
 48
50.0
100
AcDbPoint
 10
7629.896575106998
 20
9921.665184317404
 30
0.0
  0
POINT
  5
1981A
330
14EE4
100
AcDbEntity
  8
DEFPOINTS
 62
     0
 48
50.0
100
AcDbPoint
 10
7629.896575106974
 20
8131.665184317396
 30
0.0
  0
POINT
  5
1981B
330
14EE4
100
AcDbEntity
  8
DEFPOINTS
 62
     0
 48
50.0
100
AcDbPoint
 10
8642.429862581046
 20
8131.665184317396
 30
0.0
  0
ENDBLK
  5
1643A
330
14EE4
100
AcDbEntity
  8
0
 48
50.0
100
AcDbBlockEnd
  0
BLOCK
  5
170C6
330
14EF0
100
AcDbEntity
  8
0
 48
50.0
100
AcDbBlockBegin
  2
*D4
 70
     1
 10
0.0
 20
0.0
 30
0.0
  3
*D4
  1

  0
LINE
  5
1980A
330
14EF0
100
AcDbEntity
  8
寸法
 62
     0
 48
50.0
370
    -2
100
AcDbLine
 10
4214.896575106998
 20
9941.66518431731
 30
0.0
 11
4214.896575106998
 21
10497.47340394241
 31
0.0
  0
LINE
  5
1980B
330
14EF0
100
AcDbEntity
  8
寸法
 62
     0
 48
50.0
370
    -2
100
AcDbLine
 10
7574.896575106999
 20
9941.665184317404
 30
0.0
 11
7574.896575106999
 21
10497.47340394241
 31
0.0
  0
LINE
  5
1980C
330
14EF0
100
AcDbEntity
  8
寸法
 62
     0
 48
50.0
370
    -2
100
AcDbLine
 10
4214.896575106998
 20
10437.4734039424
 30
0.0
 11
7574.896575106999
 21
10437.4734039424
 31
0.0
  0
INSERT
  5
1980D
330
14EF0
100
AcDbEntity
  8
寸法
 62
     0
 48
50.0
370
    -2
100
AcDbBlockReference
  2
_DOTSMALL
 10
4214.896575106998
 20
10437.4734039424
 30
0.0
 41
100.0
 42
100.0
 43
100.0
 50
180.0
  0
INSERT
  5
1980E
330
14EF0
100
AcDbEntity
  8
寸法
 62
     0
 48
50.0
370
    -2
100
AcDbBlockReference
  2
_DOTSMALL
 10
7574.896575106999
 20
10437.4734039424
 30
0.0
 41
100.0
 42
100.0
 43
100.0
  0
MTEXT
  5
1980F
330
14EF0
100
AcDbEntity
  8
寸法
 62
     7
 48
50.0
100
AcDbMText
 10
5894.896575106997
 20
10537.48521496603
 30
0.0
 40
120.0
 41
0.0
 71
     5
 72
     1
  1
\A1;8X420=3360
  7
STYLE1
 73
     1
 44
1.0
1001
ACAD
1000
MTEXTBEGIN
1070
    73
1070
     1
1070
    44
1040
1.0
1070
    74
1070
     0
1000
MTEXTEND
  0
POINT
  5
19810
330
14EF0
100
AcDbEntity
  8
DEFPOINTS
 62
     0
 48
50.0
100
AcDbPoint
 10
4214.896575106998
 20
9921.66518431731
 30
0.0
  0
POINT
  5
19811
330
14EF0
100
AcDbEntity
  8
DEFPOINTS
 62
     0
 48
50.0
100
AcDbPoint
 10
7574.896575106999
 20
9921.665184317404
 30
0.0
  0
POINT
  5
19812
330
14EF0
100
AcDbEntity
  8
DEFPOINTS
 62
     0
 48
50.0
100
AcDbPoint
 10
7574.896575106999
 20
10437.4734039424
 30
0.0
  0
ENDBLK
  5
170D0
330
14EF0
100
AcDbEntity
  8
0
 48
50.0
100
AcDbBlockEnd
  0
BLOCK
  5
1528E
330
14EFC
100
AcDbEntity
  8
0
 48
50.0
100
AcDbBlockBegin
  2
*D5
 70
     1
 10
0.0
 20
0.0
 30
0.0
  3
*D5
  1

  0
LINE
  5
197FF
330
14EFC
100
AcDbEntity
  8
寸法
 62
     0
 48
50.0
370
    -2
100
AcDbLine
 10
7574.896575106999
 20
9941.665184317404
 30
0.0
 11
7574.896575106999
 21
10497.47340394239
 31
0.0
  0
LINE
  5
19800
330
14EFC
100
AcDbEntity
  8
寸法
 62
     0
 48
50.0
370
    -2
100
AcDbLine
 10
7629.896575106998
 20
9941.665184317404
 30
0.0
 11
7629.896575106998
 21
10497.47340394239
 31
0.0
  0
LINE
  5
19801
330
14EFC
100
AcDbEntity
  8
寸法
 62
     0
 48
50.0
370
    -2
100
AcDbLine
 10
7574.896575106999
 20
10437.47340394239
 30
0.0
 11
7474.896575106999
 21
10437.47340394239
 31
0.0
  0
LINE
  5
19802
330
14EFC
100
AcDbEntity
  8
寸法
 62
     0
 48
50.0
370
    -2
100
AcDbLine
 10
7629.896575106998
 20
10437.47340394239
 30
0.0
 11
8046.867137855477
 21
10437.47340394239
 31
0.0
  0
LINE
  5
19803
330
14EFC
100
AcDbEntity
  8
寸法
 62
     0
 48
50.0
370
    -2
100
AcDbLine
 10
7574.896575106999
 20
10437.47340394239
 30
0.0
 11
7629.896575106998
 21
10437.47340394239
 31
0.0
  0
INSERT
  5
19804
330
14EFC
100
AcDbEntity
  8
寸法
 62
     0
 48
50.0
370
    -2
100
AcDbBlockReference
  2
_DOTSMALL
 10
7574.896575106999
 20
10437.47340394239
 30
0.0
 41
100.0
 42
100.0
 43
100.0
  0
INSERT
  5
19805
330
14EFC
100
AcDbEntity
  8
寸法
 62
     0
 48
50.0
370
    -2
100
AcDbBlockReference
  2
_DOTSMALL
 10
7629.896575106998
 20
10437.47340394239
 30
0.0
 41
100.0
 42
100.0
 43
100.0
 50
180.0
  0
MTEXT
  5
19806
330
14EFC
100
AcDbEntity
  8
寸法
 62
     7
 48
50.0
100
AcDbMText
 10
7938.381856481237
 20
10537.47340394239
 30
0.0
 40
120.0
 41
0.0
 71
     5
 72
     1
  1
\A1;55
  7
STYLE1
 73
     1
 44
1.0
1001
ACAD
1000
MTEXTBEGIN
1070
    73
1070
     1
1070
    44
1040
1.0
1070
    74
1070
     0
1000
MTEXTEND
  0
POINT
  5
19807
330
14EFC
100
AcDbEntity
  8
DEFPOINTS
 62
     0
 48
50.0
100
AcDbPoint
 10
7574.896575106999
 20
9921.665184317404
 30
0.0
  0
POINT
  5
19808
330
14EFC
100
AcDbEntity
  8
DEFPOINTS
 62
     0
 48
50.0
100
AcDbPoint
 10
7629.896575106998
 20
9921.665184317404
 30
0.0
  0
POINT
  5
19809
330
14EFC
100
AcDbEntity
  8
DEFPOINTS
 62
     0
 48
50.0
100
AcDbPoint
 10
7629.896575106998
 20
10437.47340394239
 30
0.0
  0
ENDBLK
  5
1529A
330
14EFC
100
AcDbEntity
  8
0
 48
50.0
100
AcDbBlockEnd
  0
BLOCK
  5
1529B
330
14F0A
100
AcDbEntity
  8
0
 48
50.0
100
AcDbBlockBegin
  2
*D6
 70
     1
 10
0.0
 20
0.0
 30
0.0
  3
*D6
  1

  0
LINE
  5
197F4
330
14F0A
100
AcDbEntity
  8
寸法
 62
     0
 48
50.0
370
    -2
100
AcDbLine
 10
7649.896575106999
 20
9921.665184317404
 30
0.0
 11
8337.32292084141
 21
9921.665184317404
 31
0.0
  0
LINE
  5
197F5
330
14F0A
100
AcDbEntity
  8
寸法
 62
     0
 48
50.0
370
    -2
100
AcDbLine
 10
7649.896575106999
 20
9866.665184317408
 30
0.0
 11
8337.32292084141
 21
9866.665184317408
 31
0.0
  0
LINE
  5
197F6
330
14F0A
100
AcDbEntity
  8
寸法
 62
     0
 48
50.0
370
    -2
100
AcDbLine
 10
8277.322920841411
 20
9866.665184317408
 30
0.0
 11
8277.322920841411
 21
9766.665184317409
 31
0.0
  0
LINE
  5
197F7
330
14F0A
100
AcDbEntity
  8
寸法
 62
     0
 48
50.0
370
    -2
100
AcDbLine
 10
8277.322920841411
 20
9921.665184317404
 30
0.0
 11
8277.322920841411
 21
10338.63574706588
 31
0.0
  0
LINE
  5
197F8
330
14F0A
100
AcDbEntity
  8
寸法
 62
     0
 48
50.0
370
    -2
100
AcDbLine
 10
8277.322920841411
 20
9866.665184317408
 30
0.0
 11
8277.322920841411
 21
9921.665184317404
 31
0.0
  0
INSERT
  5
197F9
330
14F0A
100
AcDbEntity
  8
寸法
 62
     0
 48
50.0
370
    -2
100
AcDbBlockReference
  2
_DOTSMALL
 10
8277.322920841411
 20
9866.665184317408
 30
0.0
 41
100.0
 42
100.0
 43
100.0
 50
90.0
  0
INSERT
  5
197FA
330
14F0A
100
AcDbEntity
  8
寸法
 62
     0
 48
50.0
370
    -2
100
AcDbBlockReference
  2
_DOTSMALL
 10
8277.322920841411
 20
9921.665184317404
 30
0.0
 41
100.0
 42
100.0
 43
100.0
 50
270.0
  0
MTEXT
  5
197FB
330
14F0A
100
AcDbEntity
  8
寸法
 62
     7
 48
50.0
100
AcDbMText
 10
8177.32292084141
 20
10230.15046569164
 30
0.0
 40
120.0
 41
0.0
 71
     5
 72
     1
  1
\A1;55
  7
STYLE1
 11
0.0000000000000001
 21
1.0
 31
0.0
 73
     1
 44
1.0
1001
ACAD
1000
MTEXTBEGIN
1070
    73
1070
     1
1070
    44
1040
1.0
1070
    74
1070
     0
1000
MTEXTEND
  0
POINT
  5
197FC
330
14F0A
100
AcDbEntity
  8
DEFPOINTS
 62
     0
 48
50.0
100
AcDbPoint
 10
7629.896575106998
 20
9921.665184317404
 30
0.0
  0
POINT
  5
197FD
330
14F0A
100
AcDbEntity
  8
DEFPOINTS
 62
     0
 48
50.0
100
AcDbPoint
 10
7629.896575106998
 20
9866.665184317408
 30
0.0
  0
POINT
  5
197FE
330
14F0A
100
AcDbEntity
  8
DEFPOINTS
 62
     0
 48
50.0
100
AcDbPoint
 10
8277.322920841411
 20
9866.665184317408
 30
0.0
  0
ENDBLK
  5
152A7
330
14F0A
100
AcDbEntity
  8
0
 48
50.0
100
AcDbBlockEnd
  0
BLOCK
  5
152A8
330
14F18
100
AcDbEntity
  8
0
 48
50.0
100
AcDbBlockBegin
  2
*D7
 70
     1
 10
0.0
 20
0.0
 30
0.0
  3
*D7
  1

  0
LINE
  5
197E9
330
14F18
100
AcDbEntity
  8
寸法
 62
     0
 48
50.0
370
    -2
100
AcDbLine
 10
4159.896575106963
 20
9941.66518431731
 30
0.0
 11
4159.896575106963
 21
10497.47340394229
 31
0.0
  0
LINE
  5
197EA
330
14F18
100
AcDbEntity
  8
寸法
 62
     0
 48
50.0
370
    -2
100
AcDbLine
 10
4214.896575106998
 20
9941.66518431731
 30
0.0
 11
4214.896575106998
 21
10497.47340394229
 31
0.0
  0
LINE
  5
197EB
330
14F18
100
AcDbEntity
  8
寸法
 62
     0
 48
50.0
370
    -2
100
AcDbLine
 10
4214.896575106998
 20
10437.47340394229
 30
0.0
 11
4314.896575106998
 21
10437.47340394229
 31
0.0
  0
LINE
  5
197EC
330
14F18
100
AcDbEntity
  8
寸法
 62
     0
 48
50.0
370
    -2
100
AcDbLine
 10
4159.896575106963
 20
10437.47340394229
 30
0.0
 11
3742.926012358486
 21
10437.47340394229
 31
0.0
  0
LINE
  5
197ED
330
14F18
100
AcDbEntity
  8
寸法
 62
     0
 48
50.0
370
    -2
100
AcDbLine
 10
4214.896575106998
 20
10437.47340394229
 30
0.0
 11
4159.896575106963
 21
10437.47340394229
 31
0.0
  0
INSERT
  5
197EE
330
14F18
100
AcDbEntity
  8
寸法
 62
     0
 48
50.0
370
    -2
100
AcDbBlockReference
  2
_DOTSMALL
 10
4214.896575106998
 20
10437.47340394229
 30
0.0
 41
100.0
 42
100.0
 43
100.0
 50
180.0
  0
INSERT
  5
197EF
330
14F18
100
AcDbEntity
  8
寸法
 62
     0
 48
50.0
370
    -2
100
AcDbBlockReference
  2
_DOTSMALL
 10
4159.896575106963
 20
10437.47340394229
 30
0.0
 41
100.0
 42
100.0
 43
100.0
  0
MTEXT
  5
197F0
330
14F18
100
AcDbEntity
  8
寸法
 62
     7
 48
50.0
100
AcDbMText
 10
3851.411293732725
 20
10537.47340394229
 30
0.0
 40
120.0
 41
0.0
 71
     5
 72
     1
  1
\A1;55
  7
STYLE1
 73
     1
 44
1.0
1001
ACAD
1000
MTEXTBEGIN
1070
    73
1070
     1
1070
    44
1040
1.0
1070
    74
1070
     0
1000
MTEXTEND
  0
POINT
  5
197F1
330
14F18
100
AcDbEntity
  8
DEFPOINTS
 62
     0
 48
50.0
100
AcDbPoint
 10
4159.896575106963
 20
9921.66518431731
 30
0.0
  0
POINT
  5
197F2
330
14F18
100
AcDbEntity
  8
DEFPOINTS
 62
     0
 48
50.0
100
AcDbPoint
 10
4214.896575106998
 20
9921.66518431731
 30
0.0
  0
POINT
  5
197F3
330
14F18
100
AcDbEntity
  8
DEFPOINTS
 62
     0
 48
50.0
100
AcDbPoint
 10
4214.896575106998
 20
10437.47340394229
 30
0.0
  0
ENDBLK
  5
152B4
330
14F18
100
AcDbEntity
  8
0
 48
50.0
100
AcDbBlockEnd
  0
BLOCK
  5
16F89
330
14F3E
100
AcDbEntity
  8
0
 48
50.0
100
AcDbBlockBegin
  2
*D8
 70
     1
 10
0.0
 20
0.0
 30
0.0
  3
*D8
  1

  0
LINE
  5
197E0
330
14F3E
100
AcDbEntity
  8
寸法
 62
     0
 48
50.0
370
    -2
100
AcDbLine
 10
4159.896575106992
 20
8111.665184317233
 30
0.0
 11
4159.896575106992
 21
6767.338789371031
 31
0.0
  0
LINE
  5
197E1
330
14F3E
100
AcDbEntity
  8
寸法
 62
     0
 48
50.0
370
    -2
100
AcDbLine
 10
7629.896575106974
 20
8111.665184317359
 30
0.0
 11
7629.896575106974
 21
6767.338789371031
 31
0.0
  0
LINE
  5
197E2
330
14F3E
100
AcDbEntity
  8
寸法
 62
     0
 48
50.0
370
    -2
100
AcDbLine
 10
4159.896575106992
 20
6827.338789371032
 30
0.0
 11
7629.896575106974
 21
6827.338789371032
 31
0.0
  0
INSERT
  5
197E3
330
14F3E
100
AcDbEntity
  8
寸法
 62
     0
 48
50.0
370
    -2
100
AcDbBlockReference
  2
_DOTSMALL
 10
4159.896575106992
 20
6827.338789371032
 30
0.0
 41
100.0
 42
100.0
 43
100.0
 50
180.0
  0
INSERT
  5
197E4
330
14F3E
100
AcDbEntity
  8
寸法
 62
     0
 48
50.0
370
    -2
100
AcDbBlockReference
  2
_DOTSMALL
 10
7629.896575106974
 20
6827.338789371032
 30
0.0
 41
100.0
 42
100.0
 43
100.0
  0
MTEXT
  5
197E5
330
14F3E
100
AcDbEntity
  8
寸法
 62
     7
 48
50.0
100
AcDbMText
 10
5961.233327116322
 20
6927.338789371032
 30
0.0
 40
120.0
 41
0.0
 71
     5
 72
     1
  1
\A1;3470
  7
STYLE1
 73
     1
 44
1.0
1001
ACAD
1000
MTEXTBEGIN
1070
    73
1070
     1
1070
    44
1040
1.0
1070
    74
1070
     0
1000
MTEXTEND
  0
POINT
  5
197E6
330
14F3E
100
AcDbEntity
  8
DEFPOINTS
 62
     0
 48
50.0
100
AcDbPoint
 10
4159.896575106992
 20
8131.665184317233
 30
0.0
  0
POINT
  5
197E7
330
14F3E
100
AcDbEntity
  8
DEFPOINTS
 62
     0
 48
50.0
100
AcDbPoint
 10
7629.896575106974
 20
8131.665184317361
 30
0.0
  0
POINT
  5
197E8
330
14F3E
100
AcDbEntity
  8
DEFPOINTS
 62
     0
 48
50.0
100
AcDbPoint
 10
7629.896575106974
 20
6827.338789371032
 30
0.0
  0
ENDBLK
  5
16F93
330
14F3E
100
AcDbEntity
  8
0
 48
50.0
100
AcDbBlockEnd
  0
BLOCK
  5
1737F
330
14F4A
100
AcDbEntity
  8
0
 48
50.0
100
AcDbBlockBegin
  2
*D9
 70
     1
 10
0.0
 20
0.0
 30
0.0
  3
*D9
  1

  0
LINE
  5
197D5
330
14F4A
100
AcDbEntity
  8
寸法
 62
     0
 48
50.0
370
    -2
100
AcDbLine
 10
7649.896575106973
 20
8186.665184317392
 30
0.0
 11
8337.322920841385
 21
8186.665184317392
 31
0.0
  0
LINE
  5
197D6
330
14F4A
100
AcDbEntity
  8
寸法
 62
     0
 48
50.0
370
    -2
100
AcDbLine
 10
7649.896575106973
 20
8131.665184317396
 30
0.0
 11
8337.322920841385
 21
8131.665184317396
 31
0.0
  0
LINE
  5
197D7
330
14F4A
100
AcDbEntity
  8
寸法
 62
     0
 48
50.0
370
    -2
100
AcDbLine
 10
8277.322920841385
 20
8186.665184317392
 30
0.0
 11
8277.322920841385
 21
8286.665184317392
 31
0.0
  0
LINE
  5
197D8
330
14F4A
100
AcDbEntity
  8
寸法
 62
     0
 48
50.0
370
    -2
100
AcDbLine
 10
8277.322920841385
 20
8131.665184317396
 30
0.0
 11
8277.322920841385
 21
7714.694621568916
 31
0.0
  0
LINE
  5
197D9
330
14F4A
100
AcDbEntity
  8
寸法
 62
     0
 48
50.0
370
    -2
100
AcDbLine
 10
8277.322920841385
 20
8186.665184317392
 30
0.0
 11
8277.322920841385
 21
8131.665184317396
 31
0.0
  0
INSERT
  5
197DA
330
14F4A
100
AcDbEntity
  8
寸法
 62
     0
 48
50.0
370
    -2
100
AcDbBlockReference
  2
_DOTSMALL
 10
8277.322920841385
 20
8186.665184317392
 30
0.0
 41
100.0
 42
100.0
 43
100.0
 50
270.0
  0
INSERT
  5
197DB
330
14F4A
100
AcDbEntity
  8
寸法
 62
     0
 48
50.0
370
    -2
100
AcDbBlockReference
  2
_DOTSMALL
 10
8277.322920841385
 20
8131.665184317396
 30
0.0
 41
100.0
 42
100.0
 43
100.0
 50
90.0
  0
MTEXT
  5
197DC
330
14F4A
100
AcDbEntity
  8
寸法
 62
     7
 48
50.0
100
AcDbMText
 10
8177.322920841383
 20
7823.179902943157
 30
0.0
 40
120.0
 41
0.0
 71
     5
 72
     1
  1
\A1;55
  7
STYLE1
 11
0.0000000000000001
 21
1.0
 31
0.0
 73
     1
 44
1.0
1001
ACAD
1000
MTEXTBEGIN
1070
    73
1070
     1
1070
    44
1040
1.0
1070
    74
1070
     0
1000
MTEXTEND
  0
POINT
  5
197DD
330
14F4A
100
AcDbEntity
  8
DEFPOINTS
 62
     0
 48
50.0
100
AcDbPoint
 10
7629.896575106974
 20
8186.665184317392
 30
0.0
  0
POINT
  5
197DE
330
14F4A
100
AcDbEntity
  8
DEFPOINTS
 62
     0
 48
50.0
100
AcDbPoint
 10
7629.896575106974
 20
8131.665184317396
 30
0.0
  0
POINT
  5
197DF
330
14F4A
100
AcDbEntity
  8
DEFPOINTS
 62
     0
 48
50.0
100
AcDbPoint
 10
8277.322920841385
 20
8131.665184317396
 30
0.0
  0
ENDBLK
  5
1738B
330
14F4A
100
AcDbEntity
  8
0
 48
50.0
100
AcDbBlockEnd
  0
BLOCK
  5
1705D
330
14F58
100
AcDbEntity
  8
0
 48
50.0
100
AcDbBlockBegin
  2
*D10
 70
     1
 10
0.0
 20
0.0
 30
0.0
  3
*D10
  1

  0
LINE
  5
197CC
330
14F58
100
AcDbEntity
  8
寸法
 62
     0
 48
50.0
370
    -2
100
AcDbLine
 10
6533.037591258376
 20
9421.665184317415
 30
0.0
 11
6465.083950562664
 21
9168.058744681736
 31
0.0
  0
LINE
  5
197CD
330
14F58
100
AcDbEntity
  8
寸法
 62
     0
 48
50.0
370
    -2
100
AcDbLine
 10
7596.037591258388
 20
9421.665184317408
 30
0.0
 11
7528.083950562677
 21
9168.058744681736
 31
0.0
  0
LINE
  5
197CE
330
14F58
100
AcDbEntity
  8
寸法
 62
     0
 48
50.0
370
    -2
100
AcDbLine
 10
6481.160902108531
 20
9228.058744681737
 30
0.0
 11
7544.160902108544
 21
9228.058744681737
 31
0.0
  0
INSERT
  5
197CF
330
14F58
100
AcDbEntity
  8
寸法
 62
     0
 48
50.0
370
    -2
100
AcDbBlockReference
  2
_DOTSMALL
 10
6481.160902108531
 20
9228.058744681737
 30
0.0
 41
100.0
 42
100.0
 43
100.0
 50
180.0
  0
INSERT
  5
197D0
330
14F58
100
AcDbEntity
  8
寸法
 62
     0
 48
50.0
370
    -2
100
AcDbBlockReference
  2
_DOTSMALL
 10
7544.160902108544
 20
9228.058744681737
 30
0.0
 41
100.0
 42
100.0
 43
100.0
  0
MTEXT
  5
197D1
330
14F58
100
AcDbEntity
  8
寸法
 62
     7
 48
50.0
100
AcDbMText
 10
7061.28653022935
 20
9328.058744681738
 30
0.0
 40
120.0
 41
0.0
 71
     5
 72
     1
  1
\A1;1063
  7
STYLE1
 73
     1
 44
1.0
1001
ACAD
1000
MTEXTBEGIN
1070
    73
1070
     1
1070
    44
1040
1.0
1070
    74
1070
     0
1000
MTEXTEND
  0
POINT
  5
197D2
330
14F58
100
AcDbEntity
  8
DEFPOINTS
 62
     0
 48
50.0
100
AcDbPoint
 10
6538.396575106998
 20
9441.665184317415
 30
0.0
  0
POINT
  5
197D3
330
14F58
100
AcDbEntity
  8
DEFPOINTS
 62
     0
 48
50.0
100
AcDbPoint
 10
7601.39657510701
 20
9441.665184317407
 30
0.0
  0
POINT
  5
197D4
330
14F58
100
AcDbEntity
  8
DEFPOINTS
 62
     0
 48
50.0
100
AcDbPoint
 10
7544.160902108544
 20
9228.058744681737
 30
0.0
  0
ENDBLK
  5
17067
330
14F58
100
AcDbEntity
  8
0
 48
50.0
100
AcDbBlockEnd
  0
BLOCK
  5
152EE
330
14F64
100
AcDbEntity
  8
0
 48
50.0
100
AcDbBlockBegin
  2
*D11
 70
     1
 10
0.0
 20
0.0
 30
0.0
  3
*D11
  1

  0
LINE
  5
197C3
330
14F64
100
AcDbEntity
  8
寸法
 62
     0
 48
50.0
370
    -2
100
AcDbLine
 10
7621.396575106999
 20
9886.306200468782
 30
0.0
 11
8016.754300969024
 21
9780.370417102648
 31
0.0
  0
LINE
  5
197C4
330
14F64
100
AcDbEntity
  8
寸法
 62
     0
 48
50.0
370
    -2
100
AcDbLine
 10
7621.396575106999
 20
9436.306200468786
 30
0.0
 11
8016.754300969024
 21
9330.370417102651
 31
0.0
  0
LINE
  5
197C5
330
14F64
100
AcDbEntity
  8
寸法
 62
     0
 48
50.0
370
    -2
100
AcDbLine
 10
7956.754300969024
 20
9796.447368648514
 30
0.0
 11
7956.754300969024
 21
9346.447368648517
 31
0.0
  0
INSERT
  5
197C6
330
14F64
100
AcDbEntity
  8
寸法
 62
     0
 48
50.0
370
    -2
100
AcDbBlockReference
  2
_DOTSMALL
 10
7956.754300969024
 20
9796.447368648514
 30
0.0
 41
100.0
 42
100.0
 43
100.0
 50
90.0
  0
INSERT
  5
197C7
330
14F64
100
AcDbEntity
  8
寸法
 62
     0
 48
50.0
370
    -2
100
AcDbBlockReference
  2
_DOTSMALL
 10
7956.754300969024
 20
9346.447368648517
 30
0.0
 41
100.0
 42
100.0
 43
100.0
 50
270.0
  0
MTEXT
  5
197C8
330
14F64
100
AcDbEntity
  8
寸法
 62
     7
 48
50.0
100
AcDbMText
 10
7856.754300969022
 20
9571.447368648518
 30
0.0
 40
120.0
 41
0.0
 71
     5
 72
     1
  1
\A1;450
  7
STYLE1
 11
0.0000000000000001
 21
1.0
 31
0.0
 73
     1
 44
1.0
1001
ACAD
1000
MTEXTBEGIN
1070
    73
1070
     1
1070
    44
1040
1.0
1070
    74
1070
     0
1000
MTEXTEND
  0
POINT
  5
197C9
330
14F64
100
AcDbEntity
  8
DEFPOINTS
 62
     0
 48
50.0
100
AcDbPoint
 10
7601.396575106999
 20
9891.665184317403
 30
0.0
  0
POINT
  5
197CA
330
14F64
100
AcDbEntity
  8
DEFPOINTS
 62
     0
 48
50.0
100
AcDbPoint
 10
7601.396575106999
 20
9441.665184317407
 30
0.0
  0
POINT
  5
197CB
330
14F64
100
AcDbEntity
  8
DEFPOINTS
 62
     0
 48
50.0
100
AcDbPoint
 10
7956.754300969024
 20
9346.447368648517
 30
0.0
  0
ENDBLK
  5
152F8
330
14F64
100
AcDbEntity
  8
0
 48
50.0
100
AcDbBlockEnd
  0
BLOCK
  5
1643B
330
14F70
100
AcDbEntity
  8
0
 48
50.0
100
AcDbBlockBegin
  2
*D12
 70
     1
 10
0.0
 20
0.0
 30
0.0
  3
*D12
  1

  0
LINE
  5
197BA
330
14F70
100
AcDbEntity
  8
寸法
 62
     0
 48
50.0
370
    -2
100
AcDbLine
 10
7649.896575106999
 20
9866.665184317408
 30
0.0
 11
8337.32292084141
 21
9866.665184317408
 31
0.0
  0
LINE
  5
197BB
330
14F70
100
AcDbEntity
  8
寸法
 62
     0
 48
50.0
370
    -2
100
AcDbLine
 10
7649.896575106973
 20
8186.665184317392
 30
0.0
 11
8337.32292084141
 21
8186.665184317392
 31
0.0
  0
LINE
  5
197BC
330
14F70
100
AcDbEntity
  8
寸法
 62
     0
 48
50.0
370
    -2
100
AcDbLine
 10
8277.322920841411
 20
9866.665184317408
 30
0.0
 11
8277.322920841411
 21
8186.665184317392
 31
0.0
  0
INSERT
  5
197BD
330
14F70
100
AcDbEntity
  8
寸法
 62
     0
 48
50.0
370
    -2
100
AcDbBlockReference
  2
_DOTSMALL
 10
8277.322920841411
 20
9866.665184317408
 30
0.0
 41
100.0
 42
100.0
 43
100.0
 50
90.0
  0
INSERT
  5
197BE
330
14F70
100
AcDbEntity
  8
寸法
 62
     0
 48
50.0
370
    -2
100
AcDbBlockReference
  2
_DOTSMALL
 10
8277.322920841411
 20
8186.665184317392
 30
0.0
 41
100.0
 42
100.0
 43
100.0
 50
270.0
  0
MTEXT
  5
197BF
330
14F70
100
AcDbEntity
  8
寸法
 62
     7
 48
50.0
100
AcDbMText
 10
8177.311109817788
 20
9026.665184317399
 30
0.0
 40
120.0
 41
0.0
 71
     5
 72
     1
  1
\A1;4X420=1680
  7
STYLE1
 11
0.0000000000000001
 21
1.0
 31
0.0
 73
     1
 44
1.0
1001
ACAD
1000
MTEXTBEGIN
1070
    73
1070
     1
1070
    44
1040
1.0
1070
    74
1070
     0
1000
MTEXTEND
  0
POINT
  5
197C0
330
14F70
100
AcDbEntity
  8
DEFPOINTS
 62
     0
 48
50.0
100
AcDbPoint
 10
7629.896575106998
 20
9866.665184317408
 30
0.0
  0
POINT
  5
197C1
330
14F70
100
AcDbEntity
  8
DEFPOINTS
 62
     0
 48
50.0
100
AcDbPoint
 10
7629.896575106974
 20
8186.665184317392
 30
0.0
  0
POINT
  5
197C2
330
14F70
100
AcDbEntity
  8
DEFPOINTS
 62
     0
 48
50.0
100
AcDbPoint
 10
8277.322920841411
 20
8186.665184317392
 30
0.0
  0
ENDBLK
  5
16445
330
14F70
100
AcDbEntity
  8
0
 48
50.0
100
AcDbBlockEnd
  0
BLOCK
  5
17100
330
155F5
100
AcDbEntity
  8
0
 48
50.0
100
AcDbBlockBegin
  2
*D13
 70
     1
 10
0.0
 20
0.0
 30
0.0
  3
*D13
  1

  0
LINE
  5
197B1
330
155F5
100
AcDbEntity
  8
寸法
 62
     0
 48
50.0
370
    -2
100
AcDbLine
 10
4183.037591258377
 20
9421.665184317305
 30
0.0
 11
4115.083950562663
 21
9168.058744681628
 31
0.0
  0
LINE
  5
197B2
330
155F5
100
AcDbEntity
  8
寸法
 62
     0
 48
50.0
370
    -2
100
AcDbLine
 10
5246.037591258307
 20
9421.66518431736
 30
0.0
 11
5178.08395056258
 21
9168.058744681628
 31
0.0
  0
LINE
  5
197B3
330
155F5
100
AcDbEntity
  8
寸法
 62
     0
 48
50.0
370
    -2
100
AcDbLine
 10
4131.160902108532
 20
9228.058744681629
 30
0.0
 11
5194.160902108448
 21
9228.058744681629
 31
0.0
  0
INSERT
  5
197B4
330
155F5
100
AcDbEntity
  8
寸法
 62
     0
 48
50.0
370
    -2
100
AcDbBlockReference
  2
_DOTSMALL
 10
4131.160902108532
 20
9228.058744681629
 30
0.0
 41
100.0
 42
100.0
 43
100.0
 50
180.0
  0
INSERT
  5
197B5
330
155F5
100
AcDbEntity
  8
寸法
 62
     0
 48
50.0
370
    -2
100
AcDbBlockReference
  2
_DOTSMALL
 10
5194.160902108448
 20
9228.058744681629
 30
0.0
 41
100.0
 42
100.0
 43
100.0
  0
MTEXT
  5
197B6
330
155F5
100
AcDbEntity
  8
寸法
 62
     7
 48
50.0
100
AcDbMText
 10
4658.986452655306
 20
9328.058744681628
 30
0.0
 40
120.0
 41
0.0
 71
     5
 72
     1
  1
\A1;1063
  7
STYLE1
 73
     1
 44
1.0
1001
ACAD
1000
MTEXTBEGIN
1070
    73
1070
     1
1070
    44
1040
1.0
1070
    74
1070
     0
1000
MTEXTEND
  0
POINT
  5
197B7
330
155F5
100
AcDbEntity
  8
DEFPOINTS
 62
     0
 48
50.0
100
AcDbPoint
 10
4188.396575106999
 20
9441.665184317306
 30
0.0
  0
POINT
  5
197B8
330
155F5
100
AcDbEntity
  8
DEFPOINTS
 62
     0
 48
50.0
100
AcDbPoint
 10
5251.396575106929
 20
9441.665184317358
 30
0.0
  0
POINT
  5
197B9
330
155F5
100
AcDbEntity
  8
DEFPOINTS
 62
     0
 48
50.0
100
AcDbPoint
 10
5194.160902108448
 20
9228.058744681629
 30
0.0
  0
ENDBLK
  5
1710A
330
155F5
100
AcDbEntity
  8
0
 48
50.0
100
AcDbBlockEnd
  0
BLOCK
  5
164BA
330
164B4
100
AcDbEntity
  8
0
 48
50.0
100
AcDbBlockBegin
  2
_DOT
 70
     0
 10
0.0
 20
0.0
 30
0.0
  3
_DOT
  1

  0
LWPOLYLINE
  5
164B5
330
164B4
100
AcDbEntity
  8
0
  6
ByBlock
 62
     0
 48
50.0
100
AcDbPolyline
 90
        2
 70
     1
 43
0.5
 10
-0.25
 20
0.0
 42
1.0
 10
0.25
 20
0.0
 42
1.0
  0
LINE
  5
164B9
330
164B4
100
AcDbEntity
  8
0
  6
ByBlock
 62
     0
 48
50.0
100
AcDbLine
 10
-0.5
 20
0.0
 30
0.0
 11
-1.0
 21
0.0
 31
0.0
  0
ENDBLK
  5
164BB
330
164B4
100
AcDbEntity
  8
0
 48
50.0
100
AcDbBlockEnd
  0
BLOCK
  5
170BB
330
17083
100
AcDbEntity
  8
0
 48
50.0
100
AcDbBlockBegin
  2
*D15
 70
     1
 10
0.0
 20
0.0
 30
0.0
  3
*D15
  1

  0
LINE
  5
197A8
330
17083
100
AcDbEntity
  8
寸法
 62
     0
 48
50.0
370
    -2
100
AcDbLine
 10
5274.037591258307
 20
9421.665184317356
 30
0.0
 11
5206.08395056258
 21
9168.058744681628
 31
0.0
  0
LINE
  5
197A9
330
17083
100
AcDbEntity
  8
寸法
 62
     0
 48
50.0
370
    -2
100
AcDbLine
 10
6505.037591258377
 20
9421.665184317349
 30
0.0
 11
6437.083950562653
 21
9168.058744681628
 31
0.0
  0
LINE
  5
197AA
330
17083
100
AcDbEntity
  8
寸法
 62
     0
 48
50.0
370
    -2
100
AcDbLine
 10
5222.160902108448
 20
9228.058744681629
 30
0.0
 11
6453.16090210852
 21
9228.058744681629
 31
0.0
  0
INSERT
  5
197AB
330
17083
100
AcDbEntity
  8
寸法
 62
     0
 48
50.0
370
    -2
100
AcDbBlockReference
  2
_DOTSMALL
 10
5222.160902108448
 20
9228.058744681629
 30
0.0
 41
100.0
 42
100.0
 43
100.0
 50
180.0
  0
INSERT
  5
197AC
330
17083
100
AcDbEntity
  8
寸法
 62
     0
 48
50.0
370
    -2
100
AcDbBlockReference
  2
_DOTSMALL
 10
6453.16090210852
 20
9228.058744681629
 30
0.0
 41
100.0
 42
100.0
 43
100.0
  0
MTEXT
  5
197AD
330
17083
100
AcDbEntity
  8
寸法
 62
     7
 48
50.0
100
AcDbMText
 10
6081.244808320626
 20
9328.070555705251
 30
0.0
 40
120.0
 41
0.0
 71
     5
 72
     1
  1
\A1;1231
  7
STYLE1
 73
     1
 44
1.0
1001
ACAD
1000
MTEXTBEGIN
1070
    73
1070
     1
1070
    44
1040
1.0
1070
    74
1070
     0
1000
MTEXTEND
  0
POINT
  5
197AE
330
17083
100
AcDbEntity
  8
DEFPOINTS
 62
     0
 48
50.0
100
AcDbPoint
 10
5279.396575106929
 20
9441.665184317356
 30
0.0
  0
POINT
  5
197AF
330
17083
100
AcDbEntity
  8
DEFPOINTS
 62
     0
 48
50.0
100
AcDbPoint
 10
6510.396575106999
 20
9441.665184317349
 30
0.0
  0
POINT
  5
197B0
330
17083
100
AcDbEntity
  8
DEFPOINTS
 62
     0
 48
50.0
100
AcDbPoint
 10
6453.16090210852
 20
9228.058744681629
 30
0.0
  0
ENDBLK
  5
170C5
330
17083
100
AcDbEntity
  8
0
 48
50.0
100
AcDbBlockEnd
  0
BLOCK
  5
17D51
330
17D47
100
AcDbEntity
  8
0
 48
50.0
100
AcDbBlockBegin
  2
*D16
 70
     1
 10
0.0
 20
0.0
 30
0.0
  3
*D16
  1

  0
LINE
  5
18772
330
17D47
100
AcDbEntity
  8
寸法
 62
     0
 48
50.0
370
    -2
100
AcDbLine
 10
10197.65313193489
 20
4784.574105358053
 30
0.0
 11
9333.903002751629
 21
4784.574105358053
 31
0.0
  0
LINE
  5
18773
330
17D47
100
AcDbEntity
  8
寸法
 62
     0
 48
50.0
370
    -2
100
AcDbLine
 10
10197.65313193489
 20
2994.574105358053
 30
0.0
 11
9333.903002751627
 21
2994.574105358053
 31
0.0
  0
LINE
  5
18774
330
17D47
100
AcDbEntity
  8
寸法
 62
     0
 48
50.0
370
    -2
100
AcDbLine
 10
9373.90300275163
 20
4764.574105358053
 30
0.0
 11
9373.903002751628
 21
3014.574105358053
 31
0.0
  0
INSERT
  5
18775
330
17D47
100
AcDbEntity
  8
寸法
 62
     0
 48
50.0
370
    -2
100
AcDbBlockReference
  2
_DOT
 10
9373.90300275163
 20
4784.574105358053
 30
0.0
 41
20.0
 42
20.0
 43
20.0
 50
90.0
  0
INSERT
  5
18776
330
17D47
100
AcDbEntity
  8
寸法
 62
     0
 48
50.0
370
    -2
100
AcDbBlockReference
  2
_DOT
 10
9373.903002751628
 20
2994.574105358053
 30
0.0
 41
20.0
 42
20.0
 43
20.0
 50
270.0
  0
MTEXT
  5
18777
330
17D47
100
AcDbEntity
  8
寸法
 62
     7
 48
50.0
100
AcDbMText
 10
9281.903002751628
 20
3889.574105358054
 30
0.0
 40
120.0
 41
0.0
 71
     5
 72
     1
  1
\A1;1790
  7
STYLE1
 11
0.0000000000000001
 21
1.0
 31
0.0
 73
     1
 44
1.0
1001
ACAD
1000
MTEXTBEGIN
1070
    73
1070
     1
1070
    44
1040
1.0
1070
    74
1070
     0
1000
MTEXTEND
  0
POINT
  5
18778
330
17D47
100
AcDbEntity
  8
DEFPOINTS
 62
     0
 48
50.0
100
AcDbPoint
 10
10217.65313193489
 20
4784.574105358053
 30
0.0
  0
POINT
  5
18779
330
17D47
100
AcDbEntity
  8
DEFPOINTS
 62
     0
 48
50.0
100
AcDbPoint
 10
10217.65313193489
 20
2994.574105358053
 30
0.0
  0
POINT
  5
1877A
330
17D47
100
AcDbEntity
  8
DEFPOINTS
 62
     0
 48
50.0
100
AcDbPoint
 10
9373.903002751628
 20
2994.574105358053
 30
0.0
  0
ENDBLK
  5
17D52
330
17D47
100
AcDbEntity
  8
0
 48
50.0
100
AcDbBlockEnd
  0
BLOCK
  5
17D5D
330
17D53
100
AcDbEntity
  8
0
 48
50.0
100
AcDbBlockBegin
  2
*D17
 70
     1
 10
0.0
 20
0.0
 30
0.0
  3
*D17
  1

  0
LINE
  5
18769
330
17D53
100
AcDbEntity
  8
寸法
 62
     0
 48
50.0
370
    -2
100
AcDbLine
 10
10120.65313193489
 20
4735.574105358053
 30
0.0
 11
9632.744490537634
 21
4735.574105358053
 31
0.0
  0
LINE
  5
1876A
330
17D53
100
AcDbEntity
  8
寸法
 62
     0
 48
50.0
370
    -2
100
AcDbLine
 10
10120.65313193488
 20
3010.574105358053
 30
0.0
 11
9632.744490537632
 21
3010.574105358053
 31
0.0
  0
LINE
  5
1876B
330
17D53
100
AcDbEntity
  8
寸法
 62
     0
 48
50.0
370
    -2
100
AcDbLine
 10
9672.744490537635
 20
4715.574105358053
 30
0.0
 11
9672.744490537633
 21
3030.574105358053
 31
0.0
  0
INSERT
  5
1876C
330
17D53
100
AcDbEntity
  8
寸法
 62
     0
 48
50.0
370
    -2
100
AcDbBlockReference
  2
_DOT
 10
9672.744490537635
 20
4735.574105358053
 30
0.0
 41
20.0
 42
20.0
 43
20.0
 50
90.0
  0
INSERT
  5
1876D
330
17D53
100
AcDbEntity
  8
寸法
 62
     0
 48
50.0
370
    -2
100
AcDbBlockReference
  2
_DOT
 10
9672.744490537633
 20
3010.574105358053
 30
0.0
 41
20.0
 42
20.0
 43
20.0
 50
270.0
  0
MTEXT
  5
1876E
330
17D53
100
AcDbEntity
  8
寸法
 62
     7
 48
50.0
100
AcDbMText
 10
9580.732679514012
 20
3873.074105358055
 30
0.0
 40
120.0
 41
0.0
 71
     5
 72
     1
  1
\A1;有効開口部高サ1725
  7
STYLE1
 11
0.0000000000000001
 21
1.0
 31
0.0
 73
     1
 44
1.0
1001
ACAD
1000
MTEXTBEGIN
1070
    73
1070
     1
1070
    44
1040
1.0
1070
    74
1070
     0
1000
MTEXTEND
  0
POINT
  5
1876F
330
17D53
100
AcDbEntity
  8
DEFPOINTS
 62
     0
 48
50.0
100
AcDbPoint
 10
10140.65313193489
 20
4735.574105358053
 30
0.0
  0
POINT
  5
18770
330
17D53
100
AcDbEntity
  8
DEFPOINTS
 62
     0
 48
50.0
100
AcDbPoint
 10
10140.65313193488
 20
3010.574105358053
 30
0.0
  0
POINT
  5
18771
330
17D53
100
AcDbEntity
  8
DEFPOINTS
 62
     0
 48
50.0
100
AcDbPoint
 10
9672.744490537633
 20
3010.574105358053
 30
0.0
  0
ENDBLK
  5
17D5E
330
17D53
100
AcDbEntity
  8
0
 48
50.0
100
AcDbBlockEnd
  0
BLOCK
  5
17D69
330
17D5F
100
AcDbEntity
  8
0
 48
50.0
100
AcDbBlockBegin
  2
*D18
 70
     1
 10
0.0
 20
0.0
 30
0.0
  3
*D18
  1

  0
LINE
  5
18760
330
17D5F
100
AcDbEntity
  8
寸法
 62
     0
 48
50.0
370
    -2
100
AcDbLine
 10
10145.15313193489
 20
2624.574105358053
 30
0.0
 11
10145.15313193489
 21
2269.38372111884
 31
0.0
  0
LINE
  5
18761
330
17D5F
100
AcDbEntity
  8
寸法
 62
     0
 48
50.0
370
    -2
100
AcDbLine
 10
10345.15313193489
 20
2624.574105358052
 30
0.0
 11
10345.15313193489
 21
2269.38372111884
 31
0.0
  0
LINE
  5
18762
330
17D5F
100
AcDbEntity
  8
寸法
 62
     0
 48
50.0
370
    -2
100
AcDbLine
 10
10165.15313193489
 20
2309.38372111884
 30
0.0
 11
10325.15313193489
 21
2309.38372111884
 31
0.0
  0
INSERT
  5
18763
330
17D5F
100
AcDbEntity
  8
寸法
 62
     0
 48
50.0
370
    -2
100
AcDbBlockReference
  2
_DOT
 10
10145.15313193489
 20
2309.38372111884
 30
0.0
 41
20.0
 42
20.0
 43
20.0
 50
180.0
  0
INSERT
  5
18764
330
17D5F
100
AcDbEntity
  8
寸法
 62
     0
 48
50.0
370
    -2
100
AcDbBlockReference
  2
_DOT
 10
10345.15313193489
 20
2309.38372111884
 30
0.0
 41
20.0
 42
20.0
 43
20.0
  0
MTEXT
  5
18765
330
17D5F
100
AcDbEntity
  8
寸法
 62
     7
 48
50.0
100
AcDbMText
 10
10245.15313193489
 20
2401.395532142462
 30
0.0
 40
120.0
 41
0.0
 71
     5
 72
     1
  1
\A1;200
  7
STYLE1
 73
     1
 44
1.0
1001
ACAD
1000
MTEXTBEGIN
1070
    73
1070
     1
1070
    44
1040
1.0
1070
    74
1070
     0
1000
MTEXTEND
  0
POINT
  5
18766
330
17D5F
100
AcDbEntity
  8
DEFPOINTS
 62
     0
 48
50.0
100
AcDbPoint
 10
10145.15313193489
 20
2644.574105358053
 30
0.0
  0
POINT
  5
18767
330
17D5F
100
AcDbEntity
  8
DEFPOINTS
 62
     0
 48
50.0
100
AcDbPoint
 10
10345.15313193489
 20
2644.574105358052
 30
0.0
  0
POINT
  5
18768
330
17D5F
100
AcDbEntity
  8
DEFPOINTS
 62
     0
 48
50.0
100
AcDbPoint
 10
10345.15313193489
 20
2309.38372111884
 30
0.0
  0
ENDBLK
  5
17D6A
330
17D5F
100
AcDbEntity
  8
0
 48
50.0
100
AcDbBlockEnd
  0
BLOCK
  5
17D75
330
17D6B
100
AcDbEntity
  8
0
 48
50.0
100
AcDbBlockBegin
  2
*D19
 70
     1
 10
0.0
 20
0.0
 30
0.0
  3
*D19
  1

  0
LINE
  5
18757
330
17D6B
100
AcDbEntity
  8
寸法
 62
     0
 48
50.0
370
    -2
100
AcDbLine
 10
10125.15313193489
 20
2644.574105358053
 30
0.0
 11
9697.908555850409
 21
2644.574105358053
 31
0.0
  0
LINE
  5
18758
330
17D6B
100
AcDbEntity
  8
寸法
 62
     0
 48
50.0
370
    -2
100
AcDbLine
 10
10125.15313193489
 20
2844.574105358054
 30
0.0
 11
9697.908555850409
 21
2844.574105358054
 31
0.0
  0
LINE
  5
18759
330
17D6B
100
AcDbEntity
  8
寸法
 62
     0
 48
50.0
370
    -2
100
AcDbLine
 10
9737.90855585041
 20
2664.574105358053
 30
0.0
 11
9737.90855585041
 21
2824.574105358053
 31
0.0
  0
INSERT
  5
1875A
330
17D6B
100
AcDbEntity
  8
寸法
 62
     0
 48
50.0
370
    -2
100
AcDbBlockReference
  2
_DOT
 10
9737.90855585041
 20
2644.574105358053
 30
0.0
 41
20.0
 42
20.0
 43
20.0
 50
270.0
  0
INSERT
  5
1875B
330
17D6B
100
AcDbEntity
  8
寸法
 62
     0
 48
50.0
370
    -2
100
AcDbBlockReference
  2
_DOT
 10
9737.90855585041
 20
2844.574105358054
 30
0.0
 41
20.0
 42
20.0
 43
20.0
 50
90.0
  0
MTEXT
  5
1875C
330
17D6B
100
AcDbEntity
  8
寸法
 62
     7
 48
50.0
100
AcDbMText
 10
9645.896744826787
 20
2702.135428571619
 30
0.0
 40
120.0
 41
0.0
 71
     5
 72
     1
  1
\A1;200
  7
STYLE1
 11
0.0000000000000001
 21
1.0
 31
0.0
 73
     1
 44
1.0
1001
ACAD
1000
MTEXTBEGIN
1070
    73
1070
     1
1070
    44
1040
1.0
1070
    74
1070
     0
1000
MTEXTEND
  0
POINT
  5
1875D
330
17D6B
100
AcDbEntity
  8
DEFPOINTS
 62
     0
 48
50.0
100
AcDbPoint
 10
10145.15313193489
 20
2644.574105358053
 30
0.0
  0
POINT
  5
1875E
330
17D6B
100
AcDbEntity
  8
DEFPOINTS
 62
     0
 48
50.0
100
AcDbPoint
 10
10145.15313193489
 20
2844.574105358054
 30
0.0
  0
POINT
  5
1875F
330
17D6B
100
AcDbEntity
  8
DEFPOINTS
 62
     0
 48
50.0
100
AcDbPoint
 10
9737.90855585041
 20
2844.574105358054
 30
0.0
  0
ENDBLK
  5
17D76
330
17D6B
100
AcDbEntity
  8
0
 48
50.0
100
AcDbBlockEnd
  0
BLOCK
  5
17D83
330
17D77
100
AcDbEntity
  8
0
 48
50.0
100
AcDbBlockBegin
  2
*D20
 70
     1
 10
0.0
 20
0.0
 30
0.0
  3
*D20
  1

  0
LINE
  5
1874C
330
17D77
100
AcDbEntity
  8
寸法
 62
     0
 48
50.0
370
    -2
100
AcDbLine
 10
10120.65313193488
 20
2944.574105358054
 30
0.0
 11
9033.903002751626
 21
2944.574105358054
 31
0.0
  0
LINE
  5
1874D
330
17D77
100
AcDbEntity
  8
寸法
 62
     0
 48
50.0
370
    -2
100
AcDbLine
 10
9141.152056039755
 20
2844.574105358054
 30
0.0
 11
9033.903002751626
 21
2844.574105358054
 31
0.0
  0
LINE
  5
1874E
330
17D77
100
AcDbEntity
  8
寸法
 62
     0
 48
50.0
370
    -2
100
AcDbLine
 10
9073.903002751627
 20
2964.574105358054
 30
0.0
 11
9073.903002751627
 21
2984.574105358054
 31
0.0
  0
LINE
  5
1874F
330
17D77
100
AcDbEntity
  8
寸法
 62
     0
 48
50.0
370
    -2
100
AcDbLine
 10
9073.903002751627
 20
2824.574105358053
 30
0.0
 11
9073.903002751627
 21
2301.526861263564
 31
0.0
  0
LINE
  5
18750
330
17D77
100
AcDbEntity
  8
寸法
 62
     0
 48
50.0
370
    -2
100
AcDbLine
 10
9073.903002751627
 20
2944.574105358054
 30
0.0
 11
9073.903002751627
 21
2844.574105358054
 31
0.0
  0
INSERT
  5
18751
330
17D77
100
AcDbEntity
  8
寸法
 62
     0
 48
50.0
370
    -2
100
AcDbBlockReference
  2
_DOT
 10
9073.903002751627
 20
2944.574105358054
 30
0.0
 41
20.0
 42
20.0
 43
20.0
 50
270.0
  0
INSERT
  5
18752
330
17D77
100
AcDbEntity
  8
寸法
 62
     0
 48
50.0
370
    -2
100
AcDbBlockReference
  2
_DOT
 10
9073.903002751627
 20
2844.574105358054
 30
0.0
 41
20.0
 42
20.0
 43
20.0
 50
90.0
  0
MTEXT
  5
18753
330
17D77
100
AcDbEntity
  8
寸法
 62
     7
 48
50.0
100
AcDbMText
 10
8981.903002751627
 20
2429.574105358053
 30
0.0
 40
120.0
 41
0.0
 71
     5
 72
     1
  1
\A1;100
  7
STYLE1
 11
0.0000000000000001
 21
1.0
 31
0.0
 73
     1
 44
1.0
1001
ACAD
1000
MTEXTBEGIN
1070
    73
1070
     1
1070
    44
1040
1.0
1070
    74
1070
     0
1000
MTEXTEND
  0
POINT
  5
18754
330
17D77
100
AcDbEntity
  8
DEFPOINTS
 62
     0
 48
50.0
100
AcDbPoint
 10
10140.65313193488
 20
2944.574105358054
 30
0.0
  0
POINT
  5
18755
330
17D77
100
AcDbEntity
  8
DEFPOINTS
 62
     0
 48
50.0
100
AcDbPoint
 10
9161.152056039755
 20
2844.574105358054
 30
0.0
  0
POINT
  5
18756
330
17D77
100
AcDbEntity
  8
DEFPOINTS
 62
     0
 48
50.0
100
AcDbPoint
 10
9073.903002751627
 20
2844.574105358054
 30
0.0
  0
ENDBLK
  5
17D84
330
17D77
100
AcDbEntity
  8
0
 48
50.0
100
AcDbBlockEnd
  0
BLOCK
  5
17D91
330
17D85
100
AcDbEntity
  8
0
 48
50.0
100
AcDbBlockBegin
  2
*D21
 70
     1
 10
0.0
 20
0.0
 30
0.0
  3
*D21
  1

  0
LINE
  5
18741
330
17D85
100
AcDbEntity
  8
寸法
 62
     0
 48
50.0
370
    -2
100
AcDbLine
 10
10197.65313193489
 20
2994.574105358053
 30
0.0
 11
9333.903002751627
 21
2994.574105358053
 31
0.0
  0
LINE
  5
18742
330
17D85
100
AcDbEntity
  8
寸法
 62
     0
 48
50.0
370
    -2
100
AcDbLine
 10
10120.65313193488
 20
2944.574105358054
 30
0.0
 11
9333.903002751627
 21
2944.574105358054
 31
0.0
  0
LINE
  5
18743
330
17D85
100
AcDbEntity
  8
寸法
 62
     0
 48
50.0
370
    -2
100
AcDbLine
 10
9373.903002751628
 20
3014.574105358053
 30
0.0
 11
9373.903002751628
 21
3034.574105358053
 31
0.0
  0
LINE
  5
18744
330
17D85
100
AcDbEntity
  8
寸法
 62
     0
 48
50.0
370
    -2
100
AcDbLine
 10
9373.903002751628
 20
2924.574105358053
 30
0.0
 11
9373.903002751628
 21
2462.776861263563
 31
0.0
  0
LINE
  5
18745
330
17D85
100
AcDbEntity
  8
寸法
 62
     0
 48
50.0
370
    -2
100
AcDbLine
 10
9373.903002751628
 20
2994.574105358053
 30
0.0
 11
9373.903002751628
 21
2944.574105358054
 31
0.0
  0
INSERT
  5
18746
330
17D85
100
AcDbEntity
  8
寸法
 62
     0
 48
50.0
370
    -2
100
AcDbBlockReference
  2
_DOT
 10
9373.903002751628
 20
2994.574105358053
 30
0.0
 41
20.0
 42
20.0
 43
20.0
 50
270.0
  0
INSERT
  5
18747
330
17D85
100
AcDbEntity
  8
寸法
 62
     0
 48
50.0
370
    -2
100
AcDbBlockReference
  2
_DOT
 10
9373.903002751628
 20
2944.574105358054
 30
0.0
 41
20.0
 42
20.0
 43
20.0
 50
90.0
  0
MTEXT
  5
18748
330
17D85
100
AcDbEntity
  8
寸法
 62
     7
 48
50.0
100
AcDbMText
 10
9281.903002751628
 20
2560.824105358053
 30
0.0
 40
120.0
 41
0.0
 71
     5
 72
     1
  1
\A1;50
  7
STYLE1
 11
0.0000000000000001
 21
1.0
 31
0.0
 73
     1
 44
1.0
1001
ACAD
1000
MTEXTBEGIN
1070
    73
1070
     1
1070
    44
1040
1.0
1070
    74
1070
     0
1000
MTEXTEND
  0
POINT
  5
18749
330
17D85
100
AcDbEntity
  8
DEFPOINTS
 62
     0
 48
50.0
100
AcDbPoint
 10
10217.65313193489
 20
2994.574105358053
 30
0.0
  0
POINT
  5
1874A
330
17D85
100
AcDbEntity
  8
DEFPOINTS
 62
     0
 48
50.0
100
AcDbPoint
 10
10140.65313193488
 20
2944.574105358054
 30
0.0
  0
POINT
  5
1874B
330
17D85
100
AcDbEntity
  8
DEFPOINTS
 62
     0
 48
50.0
100
AcDbPoint
 10
9373.903002751628
 20
2944.574105358054
 30
0.0
  0
ENDBLK
  5
17D92
330
17D85
100
AcDbEntity
  8
0
 48
50.0
100
AcDbBlockEnd
  0
BLOCK
  5
17D9D
330
17D93
100
AcDbEntity
  8
0
 48
50.0
100
AcDbBlockBegin
  2
*D22
 70
     1
 10
0.0
 20
0.0
 30
0.0
  3
*D22
  1

  0
LINE
  5
18832
330
17D93
100
AcDbEntity
  8
寸法
 62
     0
 48
50.0
370
    -2
100
AcDbLine
 10
12027.65313193489
 20
2944.574105358054
 30
0.0
 11
12738.86671092095
 21
2944.574105358054
 31
0.0
  0
LINE
  5
18833
330
17D93
100
AcDbEntity
  8
寸法
 62
     0
 48
50.0
370
    -2
100
AcDbLine
 10
12107.6531319349
 20
4964.574105358053
 30
0.0
 11
12738.86671092095
 21
4964.574105358053
 31
0.0
  0
LINE
  5
18834
330
17D93
100
AcDbEntity
  8
寸法
 62
     0
 48
50.0
370
    -2
100
AcDbLine
 10
12698.86671092095
 20
2964.574105358054
 30
0.0
 11
12698.86671092095
 21
4944.574105358054
 31
0.0
  0
INSERT
  5
18835
330
17D93
100
AcDbEntity
  8
寸法
 62
     0
 48
50.0
370
    -2
100
AcDbBlockReference
  2
_DOT
 10
12698.86671092095
 20
2944.574105358054
 30
0.0
 41
20.0
 42
20.0
 43
20.0
 50
270.0
  0
INSERT
  5
18836
330
17D93
100
AcDbEntity
  8
寸法
 62
     0
 48
50.0
370
    -2
100
AcDbBlockReference
  2
_DOT
 10
12698.86671092095
 20
4964.574105358053
 30
0.0
 41
20.0
 42
20.0
 43
20.0
 50
90.0
  0
MTEXT
  5
18837
330
17D93
100
AcDbEntity
  8
寸法
 62
     7
 48
50.0
100
AcDbMText
 10
12606.85489989733
 20
3954.574105358055
 30
0.0
 40
120.0
 41
0.0
 71
     5
 72
     1
  1
\A1;2020
  7
STYLE1
 11
0.0000000000000001
 21
1.0
 31
0.0
 73
     1
 44
1.0
1001
ACAD
1000
MTEXTBEGIN
1070
    73
1070
     1
1070
    44
1040
1.0
1070
    74
1070
     0
1000
MTEXTEND
  0
POINT
  5
18838
330
17D93
100
AcDbEntity
  8
DEFPOINTS
 62
     0
 48
50.0
100
AcDbPoint
 10
12007.65313193489
 20
2944.574105358054
 30
0.0
  0
POINT
  5
18839
330
17D93
100
AcDbEntity
  8
DEFPOINTS
 62
     0
 48
50.0
100
AcDbPoint
 10
12087.6531319349
 20
4964.574105358053
 30
0.0
  0
POINT
  5
1883A
330
17D93
100
AcDbEntity
  8
DEFPOINTS
 62
     0
 48
50.0
100
AcDbPoint
 10
12698.86671092095
 20
4964.574105358053
 30
0.0
  0
ENDBLK
  5
17D9E
330
17D93
100
AcDbEntity
  8
0
 48
50.0
100
AcDbBlockEnd
  0
BLOCK
  5
17E4D
330
17E43
100
AcDbEntity
  8
0
 48
50.0
100
AcDbBlockBegin
  2
*D23
 70
     1
 10
0.0
 20
0.0
 30
0.0
  3
*D23
  1

  0
LINE
  5
187AC
330
17E43
100
AcDbEntity
  8
寸法
 62
     0
 48
50.0
370
    -2
100
AcDbLine
 10
10120.65313193488
 20
2944.574105358054
 30
0.0
 11
9013.903002751627
 21
2944.574105358054
 31
0.0
  0
LINE
  5
187AD
330
17E43
100
AcDbEntity
  8
寸法
 62
     0
 48
50.0
370
    -2
100
AcDbLine
 10
10137.65313193489
 20
5019.574105358059
 30
0.0
 11
9013.90300275163
 21
5019.574105358059
 31
0.0
  0
LINE
  5
187AE
330
17E43
100
AcDbEntity
  8
寸法
 62
     0
 48
50.0
370
    -2
100
AcDbLine
 10
9073.903002751627
 20
2944.574105358054
 30
0.0
 11
9073.903002751629
 21
5019.574105358059
 31
0.0
  0
INSERT
  5
187AF
330
17E43
100
AcDbEntity
  8
寸法
 62
     0
 48
50.0
370
    -2
100
AcDbBlockReference
  2
_DOTSMALL
 10
9073.903002751627
 20
2944.574105358054
 30
0.0
 41
100.0
 42
100.0
 43
100.0
 50
270.0
  0
INSERT
  5
187B0
330
17E43
100
AcDbEntity
  8
寸法
 62
     0
 48
50.0
370
    -2
100
AcDbBlockReference
  2
_DOTSMALL
 10
9073.903002751629
 20
5019.574105358059
 30
0.0
 41
100.0
 42
100.0
 43
100.0
 50
90.0
  0
MTEXT
  5
187B1
330
17E43
100
AcDbEntity
  8
寸法
 62
     7
 48
50.0
100
AcDbMText
 10
8973.891191728005
 20
3982.074105358058
 30
0.0
 40
120.0
 41
0.0
 71
     5
 72
     1
  1
\A1;2075
  7
STYLE1
 11
0.0000000000000001
 21
1.0
 31
0.0
 73
     1
 44
1.0
1001
ACAD
1000
MTEXTBEGIN
1070
    73
1070
     1
1070
    44
1040
1.0
1070
    74
1070
     0
1000
MTEXTEND
  0
POINT
  5
187B2
330
17E43
100
AcDbEntity
  8
DEFPOINTS
 62
     0
 48
50.0
100
AcDbPoint
 10
10140.65313193488
 20
2944.574105358054
 30
0.0
  0
POINT
  5
187B3
330
17E43
100
AcDbEntity
  8
DEFPOINTS
 62
     0
 48
50.0
100
AcDbPoint
 10
10157.65313193489
 20
5019.574105358059
 30
0.0
  0
POINT
  5
187B4
330
17E43
100
AcDbEntity
  8
DEFPOINTS
 62
     0
 48
50.0
100
AcDbPoint
 10
9073.903002751629
 20
5019.574105358059
 30
0.0
  0
ENDBLK
  5
17E4E
330
17E43
100
AcDbEntity
  8
0
 48
50.0
100
AcDbBlockEnd
  0
BLOCK
  5
17E5A
330
17E4F
100
AcDbEntity
  8
0
 48
50.0
100
AcDbBlockBegin
  2
*D24
 70
     1
 10
0.0
 20
0.0
 30
0.0
  3
*D24
  1

  0
LINE
  5
187A2
330
17E4F
100
AcDbEntity
  8
寸法
 62
     0
 48
50.0
370
    -2
100
AcDbLine
 10
10157.05741822598
 20
5018.871812427715
 30
0.0
 11
9541.12297912073
 21
5036.585962702035
 31
0.0
  0
LINE
  5
187A3
330
17E4F
100
AcDbEntity
  8
寸法
 62
     0
 48
50.0
370
    -2
100
AcDbLine
 10
10153.00396266936
 20
4877.930088662002
 30
0.0
 11
9537.069523564104
 21
4895.644238936323
 31
0.0
  0
LINE
  5
187A4
330
17E4F
100
AcDbEntity
  8
寸法
 62
     0
 48
50.0
370
    -2
100
AcDbLine
 10
9597.044725166538
 20
4893.919364231376
 30
0.0
 11
9601.098180723163
 21
5034.861087997088
 31
0.0
  0
LINE
  5
187A5
330
17E4F
100
AcDbEntity
  8
寸法
 62
     0
 48
50.0
370
    -2
100
AcDbLine
 10
9601.098180723163
 20
5034.861087997088
 30
0.0
 11
9611.447428952841
 21
5394.712297611675
 31
0.0
  0
INSERT
  5
187A6
330
17E4F
100
AcDbEntity
  8
寸法
 62
     0
 48
50.0
370
    -2
100
AcDbBlockReference
  2
_DOTSMALL
 10
9597.044725166538
 20
4893.919364231376
 30
0.0
 41
100.0
 42
100.0
 43
100.0
 50
268.3526390256385
  0
INSERT
  5
187A7
330
17E4F
100
AcDbEntity
  8
寸法
 62
     0
 48
50.0
370
    -2
100
AcDbBlockReference
  2
_DOTSMALL
 10
9601.098180723163
 20
5034.861087997088
 30
0.0
 41
100.0
 42
100.0
 43
100.0
 50
88.35263902563855
  0
MTEXT
  5
187A8
330
17E4F
100
AcDbEntity
  8
寸法
 62
     7
 48
50.0
100
AcDbMText
 10
9507.751531088073
 20
5267.64081864799
 30
0.0
 40
120.0
 41
0.0
 71
     5
 72
     1
  1
\A1;141
  7
STYLE1
 11
0.0287479117491103
 21
0.999586693373849
 31
0.0
 73
     1
 44
1.0
1001
ACAD
1000
MTEXTBEGIN
1070
    73
1070
     1
1070
    44
1040
1.0
1070
    74
1070
     0
1000
MTEXTEND
  0
POINT
  5
187A9
330
17E4F
100
AcDbEntity
  8
DEFPOINTS
 62
     0
 48
50.0
100
AcDbPoint
 10
10177.04915209346
 20
5018.296854192732
 30
0.0
  0
POINT
  5
187AA
330
17E4F
100
AcDbEntity
  8
DEFPOINTS
 62
     0
 48
50.0
100
AcDbPoint
 10
10172.99569653684
 20
4877.355130427019
 30
0.0
  0
POINT
  5
187AB
330
17E4F
100
AcDbEntity
  8
DEFPOINTS
 62
     0
 48
50.0
100
AcDbPoint
 10
9597.044725166538
 20
4893.919364231376
 30
0.0
  0
ENDBLK
  5
17E5B
330
17E4F
100
AcDbEntity
  8
0
 48
50.0
100
AcDbBlockEnd
  0
BLOCK
  5
17E68
330
17E5C
100
AcDbEntity
  8
0
 48
50.0
100
AcDbBlockBegin
  2
*D25
 70
     1
 10
0.0
 20
0.0
 30
0.0
  3
*D25
  1

  0
LINE
  5
18797
330
17E5C
100
AcDbEntity
  8
寸法
 62
     0
 48
50.0
370
    -2
100
AcDbLine
 10
10217.65313193489
 20
5035.57572348103
 30
0.0
 11
10217.65313193489
 21
5478.231558937357
 31
0.0
  0
LINE
  5
18798
330
17E5C
100
AcDbEntity
  8
寸法
 62
     0
 48
50.0
370
    -2
100
AcDbLine
 10
10157.65313193489
 20
5039.574105358058
 30
0.0
 11
10157.65313193489
 21
5478.231558937357
 31
0.0
  0
LINE
  5
18799
330
17E5C
100
AcDbEntity
  8
寸法
 62
     0
 48
50.0
370
    -2
100
AcDbLine
 10
10217.65313193489
 20
5418.231558937357
 30
0.0
 11
10317.65313193489
 21
5418.231558937357
 31
0.0
  0
LINE
  5
1879A
330
17E5C
100
AcDbEntity
  8
寸法
 62
     0
 48
50.0
370
    -2
100
AcDbLine
 10
10157.65313193489
 20
5418.231558937357
 30
0.0
 11
9738.377541383709
 21
5418.231558937357
 31
0.0
  0
LINE
  5
1879B
330
17E5C
100
AcDbEntity
  8
寸法
 62
     0
 48
50.0
370
    -2
100
AcDbLine
 10
10217.65313193489
 20
5418.231558937357
 30
0.0
 11
10157.65313193489
 21
5418.231558937357
 31
0.0
  0
INSERT
  5
1879C
330
17E5C
100
AcDbEntity
  8
寸法
 62
     0
 48
50.0
370
    -2
100
AcDbBlockReference
  2
_DOTSMALL
 10
10217.65313193489
 20
5418.231558937357
 30
0.0
 41
100.0
 42
100.0
 43
100.0
 50
180.0
  0
INSERT
  5
1879D
330
17E5C
100
AcDbEntity
  8
寸法
 62
     0
 48
50.0
370
    -2
100
AcDbBlockReference
  2
_DOTSMALL
 10
10157.65313193489
 20
5418.231558937357
 30
0.0
 41
100.0
 42
100.0
 43
100.0
  0
MTEXT
  5
1879E
330
17E5C
100
AcDbEntity
  8
寸法
 62
     7
 48
50.0
100
AcDbMText
 10
9848.015336659299
 20
5518.231558937357
 30
0.0
 40
120.0
 41
0.0
 71
     5
 72
     1
  1
\A1;60
  7
STYLE1
 73
     1
 44
1.0
1001
ACAD
1000
MTEXTBEGIN
1070
    73
1070
     1
1070
    44
1040
1.0
1070
    74
1070
     0
1000
MTEXTEND
  0
POINT
  5
1879F
330
17E5C
100
AcDbEntity
  8
DEFPOINTS
 62
     0
 48
50.0
100
AcDbPoint
 10
10217.65313193489
 20
5015.57572348103
 30
0.0
  0
POINT
  5
187A0
330
17E5C
100
AcDbEntity
  8
DEFPOINTS
 62
     0
 48
50.0
100
AcDbPoint
 10
10157.65313193489
 20
5019.574105358057
 30
0.0
  0
POINT
  5
187A1
330
17E5C
100
AcDbEntity
  8
DEFPOINTS
 62
     0
 48
50.0
100
AcDbPoint
 10
10157.65313193489
 20
5418.231558937357
 30
0.0
  0
ENDBLK
  5
17E69
330
17E5C
100
AcDbEntity
  8
0
 48
50.0
100
AcDbBlockEnd
  0
BLOCK
  5
17E74
330
17E6A
100
AcDbEntity
  8
0
 48
50.0
100
AcDbBlockBegin
  2
*D26
 70
     1
 10
0.0
 20
0.0
 30
0.0
  3
*D26
  1

  0
LINE
  5
1878E
330
17E6A
100
AcDbEntity
  8
寸法
 62
     0
 48
50.0
370
    -2
100
AcDbLine
 10
12007.65313193489
 20
4986.384784969707
 30
0.0
 11
12007.65313193489
 21
5478.667274697526
 31
0.0
  0
LINE
  5
1878F
330
17E6A
100
AcDbEntity
  8
寸法
 62
     0
 48
50.0
370
    -2
100
AcDbLine
 10
10217.65313193489
 20
5035.57572348103
 30
0.0
 11
10217.65313193489
 21
5478.667274697526
 31
0.0
  0
LINE
  5
18790
330
17E6A
100
AcDbEntity
  8
寸法
 62
     0
 48
50.0
370
    -2
100
AcDbLine
 10
12007.65313193489
 20
5418.667274697526
 30
0.0
 11
10217.65313193489
 21
5418.667274697526
 31
0.0
  0
INSERT
  5
18791
330
17E6A
100
AcDbEntity
  8
寸法
 62
     0
 48
50.0
370
    -2
100
AcDbBlockReference
  2
_DOTSMALL
 10
12007.65313193489
 20
5418.667274697526
 30
0.0
 41
100.0
 42
100.0
 43
100.0
  0
INSERT
  5
18792
330
17E6A
100
AcDbEntity
  8
寸法
 62
     0
 48
50.0
370
    -2
100
AcDbBlockReference
  2
_DOTSMALL
 10
10217.65313193489
 20
5418.667274697526
 30
0.0
 41
100.0
 42
100.0
 43
100.0
 50
180.0
  0
MTEXT
  5
18793
330
17E6A
100
AcDbEntity
  8
寸法
 62
     7
 48
50.0
100
AcDbMText
 10
11127.24878061136
 20
5518.667274697526
 30
0.0
 40
120.0
 41
0.0
 71
     5
 72
     1
  1
\A1;柱外寸法1790
  7
STYLE1
 73
     1
 44
1.0
1001
ACAD
1000
MTEXTBEGIN
1070
    73
1070
     1
1070
    44
1040
1.0
1070
    74
1070
     0
1000
MTEXTEND
  0
POINT
  5
18794
330
17E6A
100
AcDbEntity
  8
DEFPOINTS
 62
     0
 48
50.0
100
AcDbPoint
 10
12007.65313193489
 20
4966.384784969707
 30
0.0
  0
POINT
  5
18795
330
17E6A
100
AcDbEntity
  8
DEFPOINTS
 62
     0
 48
50.0
100
AcDbPoint
 10
10217.65313193489
 20
5015.57572348103
 30
0.0
  0
POINT
  5
18796
330
17E6A
100
AcDbEntity
  8
DEFPOINTS
 62
     0
 48
50.0
100
AcDbPoint
 10
10217.65313193489
 20
5418.667274697526
 30
0.0
  0
ENDBLK
  5
17E75
330
17E6A
100
AcDbEntity
  8
0
 48
50.0
100
AcDbBlockEnd
  0
BLOCK
  5
17E80
330
17E76
100
AcDbEntity
  8
0
 48
50.0
100
AcDbBlockBegin
  2
*D27
 70
     1
 10
0.0
 20
0.0
 30
0.0
  3
*D27
  1

  0
LINE
  5
18785
330
17E76
100
AcDbEntity
  8
寸法
 62
     0
 48
50.0
370
    -2
100
AcDbLine
 10
12087.65313193489
 20
4984.574105358054
 30
0.0
 11
12087.65313193489
 21
5695.193374315971
 31
0.0
  0
LINE
  5
18786
330
17E76
100
AcDbEntity
  8
寸法
 62
     0
 48
50.0
370
    -2
100
AcDbLine
 10
10157.65313193489
 20
5039.574105358058
 30
0.0
 11
10157.65313193489
 21
5695.193374315971
 31
0.0
  0
LINE
  5
18787
330
17E76
100
AcDbEntity
  8
寸法
 62
     0
 48
50.0
370
    -2
100
AcDbLine
 10
12087.65313193489
 20
5635.193374315972
 30
0.0
 11
10157.65313193489
 21
5635.193374315972
 31
0.0
  0
INSERT
  5
18788
330
17E76
100
AcDbEntity
  8
寸法
 62
     0
 48
50.0
370
    -2
100
AcDbBlockReference
  2
_DOTSMALL
 10
12087.65313193489
 20
5635.193374315972
 30
0.0
 41
100.0
 42
100.0
 43
100.0
  0
INSERT
  5
18789
330
17E76
100
AcDbEntity
  8
寸法
 62
     0
 48
50.0
370
    -2
100
AcDbBlockReference
  2
_DOTSMALL
 10
10157.65313193489
 20
5635.193374315972
 30
0.0
 41
100.0
 42
100.0
 43
100.0
 50
180.0
  0
MTEXT
  5
1878A
330
17E76
100
AcDbEntity
  8
寸法
 62
     7
 48
50.0
100
AcDbMText
 10
11063.45888318585
 20
5735.193374315972
 30
0.0
 40
120.0
 41
0.0
 71
     5
 72
     1
  1
\A1;1930
  7
STYLE1
 73
     1
 44
1.0
1001
ACAD
1000
MTEXTBEGIN
1070
    73
1070
     1
1070
    44
1040
1.0
1070
    74
1070
     0
1000
MTEXTEND
  0
POINT
  5
1878B
330
17E76
100
AcDbEntity
  8
DEFPOINTS
 62
     0
 48
50.0
100
AcDbPoint
 10
12087.65313193489
 20
4964.574105358054
 30
0.0
  0
POINT
  5
1878C
330
17E76
100
AcDbEntity
  8
DEFPOINTS
 62
     0
 48
50.0
100
AcDbPoint
 10
10157.65313193489
 20
5019.574105358057
 30
0.0
  0
POINT
  5
1878D
330
17E76
100
AcDbEntity
  8
DEFPOINTS
 62
     0
 48
50.0
100
AcDbPoint
 10
10157.65313193489
 20
5635.193374315972
 30
0.0
  0
ENDBLK
  5
17E81
330
17E76
100
AcDbEntity
  8
0
 48
50.0
100
AcDbBlockEnd
  0
BLOCK
  5
17E8D
330
17E82
100
AcDbEntity
  8
0
 48
50.0
100
AcDbBlockBegin
  2
*D28
 70
     1
 10
0.0
 20
0.0
 30
0.0
  3
*D28
  1

  0
LINE
  5
1877B
330
17E82
100
AcDbEntity
  8
寸法
 62
     0
 48
50.0
370
    -2
100
AcDbLine
 10
12007.65313193489
 20
4986.384784969707
 30
0.0
 11
12007.65313193489
 21
5478.231558937357
 31
0.0
  0
LINE
  5
1877C
330
17E82
100
AcDbEntity
  8
寸法
 62
     0
 48
50.0
370
    -2
100
AcDbLine
 10
12087.65313193489
 20
4984.574105358054
 30
0.0
 11
12087.65313193489
 21
5478.231558937357
 31
0.0
  0
LINE
  5
1877D
330
17E82
100
AcDbEntity
  8
寸法
 62
     0
 48
50.0
370
    -2
100
AcDbLine
 10
12007.65313193489
 20
5418.231558937357
 30
0.0
 11
12087.65313193489
 21
5418.231558937357
 31
0.0
  0
LINE
  5
1877E
330
17E82
100
AcDbEntity
  8
寸法
 62
     0
 48
50.0
370
    -2
100
AcDbLine
 10
12087.65313193489
 20
5418.231558937357
 30
0.0
 11
12399.74762012386
 21
5418.231558937357
 31
0.0
  0
INSERT
  5
1877F
330
17E82
100
AcDbEntity
  8
寸法
 62
     0
 48
50.0
370
    -2
100
AcDbBlockReference
  2
_DOTSMALL
 10
12007.65313193489
 20
5418.231558937357
 30
0.0
 41
100.0
 42
100.0
 43
100.0
 50
180.0
  0
INSERT
  5
18780
330
17E82
100
AcDbEntity
  8
寸法
 62
     0
 48
50.0
370
    -2
100
AcDbBlockReference
  2
_DOTSMALL
 10
12087.65313193489
 20
5418.231558937357
 30
0.0
 41
100.0
 42
100.0
 43
100.0
  0
MTEXT
  5
18781
330
17E82
100
AcDbEntity
  8
寸法
 62
     7
 48
50.0
100
AcDbMText
 10
12293.70037602937
 20
5518.231558937357
 30
0.0
 40
120.0
 41
0.0
 71
     5
 72
     1
  1
\A1;80
  7
STYLE1
 73
     1
 44
1.0
1001
ACAD
1000
MTEXTBEGIN
1070
    73
1070
     1
1070
    44
1040
1.0
1070
    74
1070
     0
1000
MTEXTEND
  0
POINT
  5
18782
330
17E82
100
AcDbEntity
  8
DEFPOINTS
 62
     0
 48
50.0
100
AcDbPoint
 10
12007.65313193489
 20
4966.384784969707
 30
0.0
  0
POINT
  5
18783
330
17E82
100
AcDbEntity
  8
DEFPOINTS
 62
     0
 48
50.0
100
AcDbPoint
 10
12087.65313193489
 20
4964.574105358054
 30
0.0
  0
POINT
  5
18784
330
17E82
100
AcDbEntity
  8
DEFPOINTS
 62
     0
 48
50.0
100
AcDbPoint
 10
12087.65313193489
 20
5418.231558937357
 30
0.0
  0
ENDBLK
  5
17E8E
330
17E82
100
AcDbEntity
  8
0
 48
50.0
100
AcDbBlockEnd
  0
BLOCK
  5
18136
330
1812A
100
AcDbEntity
  8
0
 48
50.0
100
AcDbBlockBegin
  2
*D29
 70
     1
 10
0.0
 20
0.0
 30
0.0
  3
*D29
  1

  0
LINE
  5
18710
330
1812A
100
AcDbEntity
  8
寸法
 62
     0
 48
50.0
370
    -2
100
AcDbLine
 10
4159.896575106992
 20
5039.574105358061
 30
0.0
 11
4159.896575106992
 21
5292.115690616299
 31
0.0
  0
LINE
  5
18711
330
1812A
100
AcDbEntity
  8
寸法
 62
     0
 48
50.0
370
    -2
100
AcDbLine
 10
4109.896575106992
 20
5039.57410535806
 30
0.0
 11
4109.896575106992
 21
5292.115690616299
 31
0.0
  0
LINE
  5
18712
330
1812A
100
AcDbEntity
  8
寸法
 62
     0
 48
50.0
370
    -2
100
AcDbLine
 10
4159.896575106992
 20
5232.115690616299
 30
0.0
 11
4259.896575106991
 21
5232.115690616299
 31
0.0
  0
LINE
  5
18713
330
1812A
100
AcDbEntity
  8
寸法
 62
     0
 48
50.0
370
    -2
100
AcDbLine
 10
4109.896575106992
 20
5232.115690616299
 30
0.0
 11
3690.364049638257
 21
5232.115690616299
 31
0.0
  0
LINE
  5
18714
330
1812A
100
AcDbEntity
  8
寸法
 62
     0
 48
50.0
370
    -2
100
AcDbLine
 10
4159.896575106992
 20
5232.115690616299
 30
0.0
 11
4109.896575106992
 21
5232.115690616299
 31
0.0
  0
INSERT
  5
18715
330
1812A
100
AcDbEntity
  8
寸法
 62
     0
 48
50.0
370
    -2
100
AcDbBlockReference
  2
_DOTSMALL
 10
4159.896575106992
 20
5232.115690616299
 30
0.0
 41
100.0
 42
100.0
 43
100.0
 50
180.0
  0
INSERT
  5
18716
330
1812A
100
AcDbEntity
  8
寸法
 62
     0
 48
50.0
370
    -2
100
AcDbBlockReference
  2
_DOTSMALL
 10
4109.896575106992
 20
5232.115690616299
 30
0.0
 41
100.0
 42
100.0
 43
100.0
  0
MTEXT
  5
18717
330
1812A
100
AcDbEntity
  8
寸法
 62
     7
 48
50.0
100
AcDbMText
 10
3796.411293732745
 20
5332.115690616299
 30
0.0
 40
120.0
 41
0.0
 71
     5
 72
     1
  1
\A1;50
  7
STYLE1
 73
     1
 44
1.0
1001
ACAD
1000
MTEXTBEGIN
1070
    73
1070
     1
1070
    44
1040
1.0
1070
    74
1070
     0
1000
MTEXTEND
  0
POINT
  5
18718
330
1812A
100
AcDbEntity
  8
DEFPOINTS
 62
     0
 48
50.0
100
AcDbPoint
 10
4159.896575106992
 20
5019.574105358061
 30
0.0
  0
POINT
  5
18719
330
1812A
100
AcDbEntity
  8
DEFPOINTS
 62
     0
 48
50.0
100
AcDbPoint
 10
4109.896575106992
 20
5019.57410535806
 30
0.0
  0
POINT
  5
1871A
330
1812A
100
AcDbEntity
  8
DEFPOINTS
 62
     0
 48
50.0
100
AcDbPoint
 10
4109.896575106992
 20
5232.115690616299
 30
0.0
  0
ENDBLK
  5
18137
330
1812A
100
AcDbEntity
  8
0
 48
50.0
100
AcDbBlockEnd
  0
BLOCK
  5
18142
330
18138
100
AcDbEntity
  8
0
 48
50.0
100
AcDbBlockBegin
  2
*D30
 70
     1
 10
0.0
 20
0.0
 30
0.0
  3
*D30
  1

  0
LINE
  5
1871B
330
18138
100
AcDbEntity
  8
寸法
 62
     0
 48
50.0
370
    -2
100
AcDbLine
 10
4109.896575106992
 20
5039.57410535806
 30
0.0
 11
4109.896575106992
 21
5513.020991090047
 31
0.0
  0
LINE
  5
1871C
330
18138
100
AcDbEntity
  8
寸法
 62
     0
 48
50.0
370
    -2
100
AcDbLine
 10
7679.896575106996
 20
5039.574105358055
 30
0.0
 11
7679.896575106996
 21
5513.020991090047
 31
0.0
  0
LINE
  5
1871D
330
18138
100
AcDbEntity
  8
寸法
 62
     0
 48
50.0
370
    -2
100
AcDbLine
 10
4109.896575106992
 20
5453.020991090046
 30
0.0
 11
7679.896575106996
 21
5453.020991090046
 31
0.0
  0
INSERT
  5
1871E
330
18138
100
AcDbEntity
  8
寸法
 62
     0
 48
50.0
370
    -2
100
AcDbBlockReference
  2
_DOTSMALL
 10
4109.896575106992
 20
5453.020991090046
 30
0.0
 41
100.0
 42
100.0
 43
100.0
 50
180.0
  0
INSERT
  5
1871F
330
18138
100
AcDbEntity
  8
寸法
 62
     0
 48
50.0
370
    -2
100
AcDbBlockReference
  2
_DOTSMALL
 10
7679.896575106996
 20
5453.020991090046
 30
0.0
 41
100.0
 42
100.0
 43
100.0
  0
MTEXT
  5
18720
330
18138
100
AcDbEntity
  8
寸法
 62
     7
 48
50.0
100
AcDbMText
 10
5894.896575107
 20
5553.020991090047
 30
0.0
 40
120.0
 41
0.0
 71
     5
 72
     1
  1
\A1;3570
  7
STYLE1
 73
     1
 44
1.0
1001
ACAD
1000
MTEXTBEGIN
1070
    73
1070
     1
1070
    44
1040
1.0
1070
    74
1070
     0
1000
MTEXTEND
  0
POINT
  5
18721
330
18138
100
AcDbEntity
  8
DEFPOINTS
 62
     0
 48
50.0
100
AcDbPoint
 10
4109.896575106992
 20
5019.57410535806
 30
0.0
  0
POINT
  5
18722
330
18138
100
AcDbEntity
  8
DEFPOINTS
 62
     0
 48
50.0
100
AcDbPoint
 10
7679.896575106996
 20
5019.574105358055
 30
0.0
  0
POINT
  5
18723
330
18138
100
AcDbEntity
  8
DEFPOINTS
 62
     0
 48
50.0
100
AcDbPoint
 10
7679.896575106996
 20
5453.020991090046
 30
0.0
  0
ENDBLK
  5
18143
330
18138
100
AcDbEntity
  8
0
 48
50.0
100
AcDbBlockEnd
  0
BLOCK
  5
1815C
330
18152
100
AcDbEntity
  8
0
 48
50.0
100
AcDbBlockBegin
  2
*D31
 70
     1
 10
0.0
 20
0.0
 30
0.0
  3
*D31
  1

  0
LINE
  5
18724
330
18152
100
AcDbEntity
  8
寸法
 62
     0
 48
50.0
370
    -2
100
AcDbLine
 10
7629.896575106996
 20
5039.574105358057
 30
0.0
 11
7629.896575106996
 21
5292.115690616297
 31
0.0
  0
LINE
  5
18725
330
18152
100
AcDbEntity
  8
寸法
 62
     0
 48
50.0
370
    -2
100
AcDbLine
 10
4159.896575106992
 20
5039.574105358061
 30
0.0
 11
4159.896575106992
 21
5292.115690616297
 31
0.0
  0
LINE
  5
18726
330
18152
100
AcDbEntity
  8
寸法
 62
     0
 48
50.0
370
    -2
100
AcDbLine
 10
7629.896575106996
 20
5232.115690616296
 30
0.0
 11
4159.896575106992
 21
5232.115690616296
 31
0.0
  0
INSERT
  5
18727
330
18152
100
AcDbEntity
  8
寸法
 62
     0
 48
50.0
370
    -2
100
AcDbBlockReference
  2
_DOTSMALL
 10
7629.896575106996
 20
5232.115690616296
 30
0.0
 41
100.0
 42
100.0
 43
100.0
  0
INSERT
  5
18728
330
18152
100
AcDbEntity
  8
寸法
 62
     0
 48
50.0
370
    -2
100
AcDbBlockReference
  2
_DOTSMALL
 10
4159.896575106992
 20
5232.115690616296
 30
0.0
 41
100.0
 42
100.0
 43
100.0
 50
180.0
  0
MTEXT
  5
18729
330
18152
100
AcDbEntity
  8
寸法
 62
     7
 48
50.0
100
AcDbMText
 10
5894.896575107
 20
5332.115690616297
 30
0.0
 40
120.0
 41
0.0
 71
     5
 72
     1
  1
\A1;柱外寸法3470
  7
STYLE1
 73
     1
 44
1.0
1001
ACAD
1000
MTEXTBEGIN
1070
    73
1070
     1
1070
    44
1040
1.0
1070
    74
1070
     0
1000
MTEXTEND
  0
POINT
  5
1872A
330
18152
100
AcDbEntity
  8
DEFPOINTS
 62
     0
 48
50.0
100
AcDbPoint
 10
7629.896575106996
 20
5019.574105358056
 30
0.0
  0
POINT
  5
1872B
330
18152
100
AcDbEntity
  8
DEFPOINTS
 62
     0
 48
50.0
100
AcDbPoint
 10
4159.896575106992
 20
5019.574105358061
 30
0.0
  0
POINT
  5
1872C
330
18152
100
AcDbEntity
  8
DEFPOINTS
 62
     0
 48
50.0
100
AcDbPoint
 10
4159.896575106992
 20
5232.115690616296
 30
0.0
  0
ENDBLK
  5
1815D
330
18152
100
AcDbEntity
  8
0
 48
50.0
100
AcDbBlockEnd
  0
BLOCK
  5
1819D
330
18191
100
AcDbEntity
  8
0
 48
50.0
100
AcDbBlockBegin
  2
*D32
 70
     1
 10
0.0
 20
0.0
 30
0.0
  3
*D32
  1

  0
LINE
  5
18705
330
18191
100
AcDbEntity
  8
寸法
 62
     0
 48
50.0
370
    -2
100
AcDbLine
 10
7679.896575106996
 20
5039.574105358055
 30
0.0
 11
7679.896575106996
 21
5292.115690616296
 31
0.0
  0
LINE
  5
18706
330
18191
100
AcDbEntity
  8
寸法
 62
     0
 48
50.0
370
    -2
100
AcDbLine
 10
7629.896575106996
 20
5039.574105358057
 30
0.0
 11
7629.896575106996
 21
5292.115690616296
 31
0.0
  0
LINE
  5
18707
330
18191
100
AcDbEntity
  8
寸法
 62
     0
 48
50.0
370
    -2
100
AcDbLine
 10
7629.896575106996
 20
5232.115690616296
 30
0.0
 11
7529.896575106995
 21
5232.115690616296
 31
0.0
  0
LINE
  5
18708
330
18191
100
AcDbEntity
  8
寸法
 62
     0
 48
50.0
370
    -2
100
AcDbLine
 10
7679.896575106996
 20
5232.115690616296
 30
0.0
 11
8099.429100575719
 21
5232.115690616296
 31
0.0
  0
LINE
  5
18709
330
18191
100
AcDbEntity
  8
寸法
 62
     0
 48
50.0
370
    -2
100
AcDbLine
 10
7629.896575106996
 20
5232.115690616296
 30
0.0
 11
7679.896575106996
 21
5232.115690616296
 31
0.0
  0
INSERT
  5
1870A
330
18191
100
AcDbEntity
  8
寸法
 62
     0
 48
50.0
370
    -2
100
AcDbBlockReference
  2
_DOTSMALL
 10
7629.896575106996
 20
5232.115690616296
 30
0.0
 41
100.0
 42
100.0
 43
100.0
  0
INSERT
  5
1870B
330
18191
100
AcDbEntity
  8
寸法
 62
     0
 48
50.0
370
    -2
100
AcDbBlockReference
  2
_DOTSMALL
 10
7679.896575106996
 20
5232.115690616296
 30
0.0
 41
100.0
 42
100.0
 43
100.0
 50
180.0
  0
MTEXT
  5
1870C
330
18191
100
AcDbEntity
  8
寸法
 62
     7
 48
50.0
100
AcDbMText
 10
7993.381856481232
 20
5332.115690616296
 30
0.0
 40
120.0
 41
0.0
 71
     5
 72
     1
  1
\A1;50
  7
STYLE1
 73
     1
 44
1.0
1001
ACAD
1000
MTEXTBEGIN
1070
    73
1070
     1
1070
    44
1040
1.0
1070
    74
1070
     0
1000
MTEXTEND
  0
POINT
  5
1870D
330
18191
100
AcDbEntity
  8
DEFPOINTS
 62
     0
 48
50.0
100
AcDbPoint
 10
7679.896575106996
 20
5019.574105358055
 30
0.0
  0
POINT
  5
1870E
330
18191
100
AcDbEntity
  8
DEFPOINTS
 62
     0
 48
50.0
100
AcDbPoint
 10
7629.896575106996
 20
5019.574105358056
 30
0.0
  0
POINT
  5
1870F
330
18191
100
AcDbEntity
  8
DEFPOINTS
 62
     0
 48
50.0
100
AcDbPoint
 10
7629.896575106996
 20
5232.115690616296
 30
0.0
  0
ENDBLK
  5
1819E
330
18191
100
AcDbEntity
  8
0
 48
50.0
100
AcDbBlockEnd
  0
BLOCK
  5
18BC9
330
18BC8
100
AcDbEntity
  8
0
 48
50.0
100
AcDbBlockBegin
  2
*D33
 70
     1
 10
0.0
 20
0.0
 30
0.0
  3
*D33
  1

  0
LINE
  5
18BCA
330
18BC8
100
AcDbEntity
  8
寸法
 62
     0
 48
50.0
370
    -2
100
AcDbLine
 10
7649.896575106999
 20
9636.123139034717
 30
0.0
 11
8702.429862581047
 21
9636.123139034717
 31
0.0
  0
LINE
  5
18BCB
330
18BC8
100
AcDbEntity
  8
寸法
 62
     0
 48
50.0
370
    -2
100
AcDbLine
 10
7649.896575106973
 20
7846.123139034709
 30
0.0
 11
8702.429862581047
 21
7846.123139034709
 31
0.0
  0
LINE
  5
18BCC
330
18BC8
100
AcDbEntity
  8
寸法
 62
     0
 48
50.0
370
    -2
100
AcDbLine
 10
8642.429862581046
 20
9636.123139034717
 30
0.0
 11
8642.429862581046
 21
7846.123139034709
 31
0.0
  0
INSERT
  5
18BCD
330
18BC8
100
AcDbEntity
  8
寸法
 62
     0
 48
50.0
370
    -2
100
AcDbBlockReference
  2
_DOTSMALL
 10
8642.429862581046
 20
9636.123139034717
 30
0.0
 41
100.0
 42
100.0
 43
100.0
 50
90.0
  0
INSERT
  5
18BCE
330
18BC8
100
AcDbEntity
  8
寸法
 62
     0
 48
50.0
370
    -2
100
AcDbBlockReference
  2
_DOTSMALL
 10
8642.429862581046
 20
7846.123139034709
 30
0.0
 41
100.0
 42
100.0
 43
100.0
 50
270.0
  0
MTEXT
  5
18BCF
330
18BC8
100
AcDbEntity
  8
寸法
 62
     7
 48
50.0
100
AcDbMText
 10
8542.429862581045
 20
8741.123139034712
 30
0.0
 40
120.0
 41
0.0
 71
     5
 72
     1
  1
\A1;1790
  7
STYLE1
 11
0.0000000000000001
 21
1.0
 31
0.0
 73
     1
 44
1.0
1001
ACAD
1000
MTEXTBEGIN
1070
    73
1070
     1
1070
    44
1040
1.0
1070
    74
1070
     0
1000
MTEXTEND
  0
POINT
  5
18BD0
330
18BC8
100
AcDbEntity
  8
DEFPOINTS
 62
     0
 48
50.0
100
AcDbPoint
 10
7629.896575106998
 20
9636.123139034717
 30
0.0
  0
POINT
  5
18BD1
330
18BC8
100
AcDbEntity
  8
DEFPOINTS
 62
     0
 48
50.0
100
AcDbPoint
 10
7629.896575106974
 20
7846.123139034709
 30
0.0
  0
POINT
  5
18BD2
330
18BC8
100
AcDbEntity
  8
DEFPOINTS
 62
     0
 48
50.0
100
AcDbPoint
 10
8642.429862581046
 20
7846.123139034709
 30
0.0
  0
ENDBLK
  5
18BD3
330
18BC8
100
AcDbEntity
  8
0
 48
50.0
100
AcDbBlockEnd
  0
BLOCK
  5
18BD5
330
18BD4
100
AcDbEntity
  8
0
 48
50.0
100
AcDbBlockBegin
  2
*D34
 70
     1
 10
0.0
 20
0.0
 30
0.0
  3
*D34
  1

  0
LINE
  5
18BD6
330
18BD4
100
AcDbEntity
  8
寸法
 62
     0
 48
50.0
370
    -2
100
AcDbLine
 10
4214.896575106998
 20
9656.123139034622
 30
0.0
 11
4214.896575106998
 21
10211.93135865972
 31
0.0
  0
LINE
  5
18BD7
330
18BD4
100
AcDbEntity
  8
寸法
 62
     0
 48
50.0
370
    -2
100
AcDbLine
 10
7574.896575106999
 20
9656.123139034718
 30
0.0
 11
7574.896575106999
 21
10211.93135865972
 31
0.0
  0
LINE
  5
18BD8
330
18BD4
100
AcDbEntity
  8
寸法
 62
     0
 48
50.0
370
    -2
100
AcDbLine
 10
4214.896575106998
 20
10151.93135865972
 30
0.0
 11
7574.896575106999
 21
10151.93135865972
 31
0.0
  0
INSERT
  5
18BD9
330
18BD4
100
AcDbEntity
  8
寸法
 62
     0
 48
50.0
370
    -2
100
AcDbBlockReference
  2
_DOTSMALL
 10
4214.896575106998
 20
10151.93135865972
 30
0.0
 41
100.0
 42
100.0
 43
100.0
 50
180.0
  0
INSERT
  5
18BDA
330
18BD4
100
AcDbEntity
  8
寸法
 62
     0
 48
50.0
370
    -2
100
AcDbBlockReference
  2
_DOTSMALL
 10
7574.896575106999
 20
10151.93135865972
 30
0.0
 41
100.0
 42
100.0
 43
100.0
  0
MTEXT
  5
18BDB
330
18BD4
100
AcDbEntity
  8
寸法
 62
     7
 48
50.0
100
AcDbMText
 10
5894.896575106997
 20
10251.94316968334
 30
0.0
 40
120.0
 41
0.0
 71
     5
 72
     1
  1
\A1;8X420=3360
  7
STYLE1
 73
     1
 44
1.0
1001
ACAD
1000
MTEXTBEGIN
1070
    73
1070
     1
1070
    44
1040
1.0
1070
    74
1070
     0
1000
MTEXTEND
  0
POINT
  5
18BDC
330
18BD4
100
AcDbEntity
  8
DEFPOINTS
 62
     0
 48
50.0
100
AcDbPoint
 10
4214.896575106998
 20
9636.123139034623
 30
0.0
  0
POINT
  5
18BDD
330
18BD4
100
AcDbEntity
  8
DEFPOINTS
 62
     0
 48
50.0
100
AcDbPoint
 10
7574.896575106999
 20
9636.123139034717
 30
0.0
  0
POINT
  5
18BDE
330
18BD4
100
AcDbEntity
  8
DEFPOINTS
 62
     0
 48
50.0
100
AcDbPoint
 10
7574.896575106999
 20
10151.93135865972
 30
0.0
  0
ENDBLK
  5
18BDF
330
18BD4
100
AcDbEntity
  8
0
 48
50.0
100
AcDbBlockEnd
  0
BLOCK
  5
18BE1
330
18BE0
100
AcDbEntity
  8
0
 48
50.0
100
AcDbBlockBegin
  2
*D35
 70
     1
 10
0.0
 20
0.0
 30
0.0
  3
*D35
  1

  0
LINE
  5
18BE2
330
18BE0
100
AcDbEntity
  8
寸法
 62
     0
 48
50.0
370
    -2
100
AcDbLine
 10
7574.896575106999
 20
9656.123139034718
 30
0.0
 11
7574.896575106999
 21
10211.9313586597
 31
0.0
  0
LINE
  5
18BE3
330
18BE0
100
AcDbEntity
  8
寸法
 62
     0
 48
50.0
370
    -2
100
AcDbLine
 10
7629.896575106998
 20
9656.123139034718
 30
0.0
 11
7629.896575106998
 21
10211.9313586597
 31
0.0
  0
LINE
  5
18BE4
330
18BE0
100
AcDbEntity
  8
寸法
 62
     0
 48
50.0
370
    -2
100
AcDbLine
 10
7574.896575106999
 20
10151.9313586597
 30
0.0
 11
7474.896575106999
 21
10151.9313586597
 31
0.0
  0
LINE
  5
18BE5
330
18BE0
100
AcDbEntity
  8
寸法
 62
     0
 48
50.0
370
    -2
100
AcDbLine
 10
7629.896575106998
 20
10151.9313586597
 30
0.0
 11
8046.867137855477
 21
10151.9313586597
 31
0.0
  0
LINE
  5
18BE6
330
18BE0
100
AcDbEntity
  8
寸法
 62
     0
 48
50.0
370
    -2
100
AcDbLine
 10
7574.896575106999
 20
10151.9313586597
 30
0.0
 11
7629.896575106998
 21
10151.9313586597
 31
0.0
  0
INSERT
  5
18BE7
330
18BE0
100
AcDbEntity
  8
寸法
 62
     0
 48
50.0
370
    -2
100
AcDbBlockReference
  2
_DOTSMALL
 10
7574.896575106999
 20
10151.9313586597
 30
0.0
 41
100.0
 42
100.0
 43
100.0
  0
INSERT
  5
18BE8
330
18BE0
100
AcDbEntity
  8
寸法
 62
     0
 48
50.0
370
    -2
100
AcDbBlockReference
  2
_DOTSMALL
 10
7629.896575106998
 20
10151.9313586597
 30
0.0
 41
100.0
 42
100.0
 43
100.0
 50
180.0
  0
MTEXT
  5
18BE9
330
18BE0
100
AcDbEntity
  8
寸法
 62
     7
 48
50.0
100
AcDbMText
 10
7938.381856481237
 20
10251.9313586597
 30
0.0
 40
120.0
 41
0.0
 71
     5
 72
     1
  1
\A1;55
  7
STYLE1
 73
     1
 44
1.0
1001
ACAD
1000
MTEXTBEGIN
1070
    73
1070
     1
1070
    44
1040
1.0
1070
    74
1070
     0
1000
MTEXTEND
  0
POINT
  5
18BEA
330
18BE0
100
AcDbEntity
  8
DEFPOINTS
 62
     0
 48
50.0
100
AcDbPoint
 10
7574.896575106999
 20
9636.123139034717
 30
0.0
  0
POINT
  5
18BEB
330
18BE0
100
AcDbEntity
  8
DEFPOINTS
 62
     0
 48
50.0
100
AcDbPoint
 10
7629.896575106998
 20
9636.123139034717
 30
0.0
  0
POINT
  5
18BEC
330
18BE0
100
AcDbEntity
  8
DEFPOINTS
 62
     0
 48
50.0
100
AcDbPoint
 10
7629.896575106998
 20
10151.9313586597
 30
0.0
  0
ENDBLK
  5
18BED
330
18BE0
100
AcDbEntity
  8
0
 48
50.0
100
AcDbBlockEnd
  0
BLOCK
  5
18BEF
330
18BEE
100
AcDbEntity
  8
0
 48
50.0
100
AcDbBlockBegin
  2
*D36
 70
     1
 10
0.0
 20
0.0
 30
0.0
  3
*D36
  1

  0
LINE
  5
18BF0
330
18BEE
100
AcDbEntity
  8
寸法
 62
     0
 48
50.0
370
    -2
100
AcDbLine
 10
7649.896575106999
 20
9636.123139034717
 30
0.0
 11
8337.32292084141
 21
9636.123139034717
 31
0.0
  0
LINE
  5
18BF1
330
18BEE
100
AcDbEntity
  8
寸法
 62
     0
 48
50.0
370
    -2
100
AcDbLine
 10
7649.896575106999
 20
9581.123139034721
 30
0.0
 11
8337.32292084141
 21
9581.123139034721
 31
0.0
  0
LINE
  5
18BF2
330
18BEE
100
AcDbEntity
  8
寸法
 62
     0
 48
50.0
370
    -2
100
AcDbLine
 10
8277.322920841411
 20
9581.123139034721
 30
0.0
 11
8277.322920841411
 21
9481.123139034719
 31
0.0
  0
LINE
  5
18BF3
330
18BEE
100
AcDbEntity
  8
寸法
 62
     0
 48
50.0
370
    -2
100
AcDbLine
 10
8277.322920841411
 20
9636.123139034717
 30
0.0
 11
8277.322920841411
 21
10053.09370178319
 31
0.0
  0
LINE
  5
18BF4
330
18BEE
100
AcDbEntity
  8
寸法
 62
     0
 48
50.0
370
    -2
100
AcDbLine
 10
8277.322920841411
 20
9581.123139034721
 30
0.0
 11
8277.322920841411
 21
9636.123139034717
 31
0.0
  0
INSERT
  5
18BF5
330
18BEE
100
AcDbEntity
  8
寸法
 62
     0
 48
50.0
370
    -2
100
AcDbBlockReference
  2
_DOTSMALL
 10
8277.322920841411
 20
9581.123139034721
 30
0.0
 41
100.0
 42
100.0
 43
100.0
 50
90.0
  0
INSERT
  5
18BF6
330
18BEE
100
AcDbEntity
  8
寸法
 62
     0
 48
50.0
370
    -2
100
AcDbBlockReference
  2
_DOTSMALL
 10
8277.322920841411
 20
9636.123139034717
 30
0.0
 41
100.0
 42
100.0
 43
100.0
 50
270.0
  0
MTEXT
  5
18BF7
330
18BEE
100
AcDbEntity
  8
寸法
 62
     7
 48
50.0
100
AcDbMText
 10
8177.32292084141
 20
9944.608420408957
 30
0.0
 40
120.0
 41
0.0
 71
     5
 72
     1
  1
\A1;55
  7
STYLE1
 11
0.0000000000000001
 21
1.0
 31
0.0
 73
     1
 44
1.0
1001
ACAD
1000
MTEXTBEGIN
1070
    73
1070
     1
1070
    44
1040
1.0
1070
    74
1070
     0
1000
MTEXTEND
  0
POINT
  5
18BF8
330
18BEE
100
AcDbEntity
  8
DEFPOINTS
 62
     0
 48
50.0
100
AcDbPoint
 10
7629.896575106998
 20
9636.123139034717
 30
0.0
  0
POINT
  5
18BF9
330
18BEE
100
AcDbEntity
  8
DEFPOINTS
 62
     0
 48
50.0
100
AcDbPoint
 10
7629.896575106998
 20
9581.123139034721
 30
0.0
  0
POINT
  5
18BFA
330
18BEE
100
AcDbEntity
  8
DEFPOINTS
 62
     0
 48
50.0
100
AcDbPoint
 10
8277.322920841411
 20
9581.123139034721
 30
0.0
  0
ENDBLK
  5
18BFB
330
18BEE
100
AcDbEntity
  8
0
 48
50.0
100
AcDbBlockEnd
  0
BLOCK
  5
18BFD
330
18BFC
100
AcDbEntity
  8
0
 48
50.0
100
AcDbBlockBegin
  2
*D37
 70
     1
 10
0.0
 20
0.0
 30
0.0
  3
*D37
  1

  0
LINE
  5
18BFE
330
18BFC
100
AcDbEntity
  8
寸法
 62
     0
 48
50.0
370
    -2
100
AcDbLine
 10
4159.896575106963
 20
9656.123139034622
 30
0.0
 11
4159.896575106963
 21
10211.9313586596
 31
0.0
  0
LINE
  5
18BFF
330
18BFC
100
AcDbEntity
  8
寸法
 62
     0
 48
50.0
370
    -2
100
AcDbLine
 10
4214.896575106998
 20
9656.123139034622
 30
0.0
 11
4214.896575106998
 21
10211.9313586596
 31
0.0
  0
LINE
  5
18C00
330
18BFC
100
AcDbEntity
  8
寸法
 62
     0
 48
50.0
370
    -2
100
AcDbLine
 10
4214.896575106998
 20
10151.9313586596
 30
0.0
 11
4314.896575106998
 21
10151.9313586596
 31
0.0
  0
LINE
  5
18C01
330
18BFC
100
AcDbEntity
  8
寸法
 62
     0
 48
50.0
370
    -2
100
AcDbLine
 10
4159.896575106963
 20
10151.9313586596
 30
0.0
 11
3742.926012358486
 21
10151.9313586596
 31
0.0
  0
LINE
  5
18C02
330
18BFC
100
AcDbEntity
  8
寸法
 62
     0
 48
50.0
370
    -2
100
AcDbLine
 10
4214.896575106998
 20
10151.9313586596
 30
0.0
 11
4159.896575106963
 21
10151.9313586596
 31
0.0
  0
INSERT
  5
18C03
330
18BFC
100
AcDbEntity
  8
寸法
 62
     0
 48
50.0
370
    -2
100
AcDbBlockReference
  2
_DOTSMALL
 10
4214.896575106998
 20
10151.9313586596
 30
0.0
 41
100.0
 42
100.0
 43
100.0
 50
180.0
  0
INSERT
  5
18C04
330
18BFC
100
AcDbEntity
  8
寸法
 62
     0
 48
50.0
370
    -2
100
AcDbBlockReference
  2
_DOTSMALL
 10
4159.896575106963
 20
10151.9313586596
 30
0.0
 41
100.0
 42
100.0
 43
100.0
  0
MTEXT
  5
18C05
330
18BFC
100
AcDbEntity
  8
寸法
 62
     7
 48
50.0
100
AcDbMText
 10
3851.411293732725
 20
10251.9313586596
 30
0.0
 40
120.0
 41
0.0
 71
     5
 72
     1
  1
\A1;55
  7
STYLE1
 73
     1
 44
1.0
1001
ACAD
1000
MTEXTBEGIN
1070
    73
1070
     1
1070
    44
1040
1.0
1070
    74
1070
     0
1000
MTEXTEND
  0
POINT
  5
18C06
330
18BFC
100
AcDbEntity
  8
DEFPOINTS
 62
     0
 48
50.0
100
AcDbPoint
 10
4159.896575106963
 20
9636.123139034623
 30
0.0
  0
POINT
  5
18C07
330
18BFC
100
AcDbEntity
  8
DEFPOINTS
 62
     0
 48
50.0
100
AcDbPoint
 10
4214.896575106998
 20
9636.123139034623
 30
0.0
  0
POINT
  5
18C08
330
18BFC
100
AcDbEntity
  8
DEFPOINTS
 62
     0
 48
50.0
100
AcDbPoint
 10
4214.896575106998
 20
10151.9313586596
 30
0.0
  0
ENDBLK
  5
18C09
330
18BFC
100
AcDbEntity
  8
0
 48
50.0
100
AcDbBlockEnd
  0
BLOCK
  5
18C0B
330
18C0A
100
AcDbEntity
  8
0
 48
50.0
100
AcDbBlockBegin
  2
*D38
 70
     1
 10
0.0
 20
0.0
 30
0.0
  3
*D38
  1

  0
LINE
  5
18C0C
330
18C0A
100
AcDbEntity
  8
寸法
 62
     0
 48
50.0
370
    -2
100
AcDbLine
 10
4159.896575106992
 20
7826.123139034546
 30
0.0
 11
4159.896575106992
 21
6804.372203245664
 31
0.0
  0
LINE
  5
18C0D
330
18C0A
100
AcDbEntity
  8
寸法
 62
     0
 48
50.0
370
    -2
100
AcDbLine
 10
7629.896575106974
 20
7826.123139034674
 30
0.0
 11
7629.896575106974
 21
6804.372203245664
 31
0.0
  0
LINE
  5
18C0E
330
18C0A
100
AcDbEntity
  8
寸法
 62
     0
 48
50.0
370
    -2
100
AcDbLine
 10
4159.896575106992
 20
6864.372203245665
 30
0.0
 11
7629.896575106974
 21
6864.372203245665
 31
0.0
  0
INSERT
  5
18C0F
330
18C0A
100
AcDbEntity
  8
寸法
 62
     0
 48
50.0
370
    -2
100
AcDbBlockReference
  2
_DOTSMALL
 10
4159.896575106992
 20
6864.372203245665
 30
0.0
 41
100.0
 42
100.0
 43
100.0
 50
180.0
  0
INSERT
  5
18C10
330
18C0A
100
AcDbEntity
  8
寸法
 62
     0
 48
50.0
370
    -2
100
AcDbBlockReference
  2
_DOTSMALL
 10
7629.896575106974
 20
6864.372203245665
 30
0.0
 41
100.0
 42
100.0
 43
100.0
  0
MTEXT
  5
18C11
330
18C0A
100
AcDbEntity
  8
寸法
 62
     7
 48
50.0
100
AcDbMText
 10
5911.12376113973
 20
6964.372203245665
 30
0.0
 40
120.0
 41
0.0
 71
     5
 72
     1
  1
\A1;3470
  7
STYLE1
 73
     1
 44
1.0
1001
ACAD
1000
MTEXTBEGIN
1070
    73
1070
     1
1070
    44
1040
1.0
1070
    74
1070
     0
1000
MTEXTEND
  0
POINT
  5
18C12
330
18C0A
100
AcDbEntity
  8
DEFPOINTS
 62
     0
 48
50.0
100
AcDbPoint
 10
4159.896575106992
 20
7846.123139034546
 30
0.0
  0
POINT
  5
18C13
330
18C0A
100
AcDbEntity
  8
DEFPOINTS
 62
     0
 48
50.0
100
AcDbPoint
 10
7629.896575106974
 20
7846.123139034673
 30
0.0
  0
POINT
  5
18C14
330
18C0A
100
AcDbEntity
  8
DEFPOINTS
 62
     0
 48
50.0
100
AcDbPoint
 10
7629.896575106974
 20
6864.372203245665
 30
0.0
  0
ENDBLK
  5
18C15
330
18C0A
100
AcDbEntity
  8
0
 48
50.0
100
AcDbBlockEnd
  0
BLOCK
  5
18C17
330
18C16
100
AcDbEntity
  8
0
 48
50.0
100
AcDbBlockBegin
  2
*D39
 70
     1
 10
0.0
 20
0.0
 30
0.0
  3
*D39
  1

  0
LINE
  5
18C18
330
18C16
100
AcDbEntity
  8
寸法
 62
     0
 48
50.0
370
    -2
100
AcDbLine
 10
7649.896575106973
 20
7901.123139034706
 30
0.0
 11
8337.322920841385
 21
7901.123139034706
 31
0.0
  0
LINE
  5
18C19
330
18C16
100
AcDbEntity
  8
寸法
 62
     0
 48
50.0
370
    -2
100
AcDbLine
 10
7649.896575106973
 20
7846.123139034709
 30
0.0
 11
8337.322920841385
 21
7846.123139034709
 31
0.0
  0
LINE
  5
18C1A
330
18C16
100
AcDbEntity
  8
寸法
 62
     0
 48
50.0
370
    -2
100
AcDbLine
 10
8277.322920841385
 20
7901.123139034706
 30
0.0
 11
8277.322920841385
 21
8001.123139034707
 31
0.0
  0
LINE
  5
18C1B
330
18C16
100
AcDbEntity
  8
寸法
 62
     0
 48
50.0
370
    -2
100
AcDbLine
 10
8277.322920841385
 20
7846.123139034709
 30
0.0
 11
8277.322920841385
 21
7429.152576286229
 31
0.0
  0
LINE
  5
18C1C
330
18C16
100
AcDbEntity
  8
寸法
 62
     0
 48
50.0
370
    -2
100
AcDbLine
 10
8277.322920841385
 20
7901.123139034706
 30
0.0
 11
8277.322920841385
 21
7846.123139034709
 31
0.0
  0
INSERT
  5
18C1D
330
18C16
100
AcDbEntity
  8
寸法
 62
     0
 48
50.0
370
    -2
100
AcDbBlockReference
  2
_DOTSMALL
 10
8277.322920841385
 20
7901.123139034706
 30
0.0
 41
100.0
 42
100.0
 43
100.0
 50
270.0
  0
INSERT
  5
18C1E
330
18C16
100
AcDbEntity
  8
寸法
 62
     0
 48
50.0
370
    -2
100
AcDbBlockReference
  2
_DOTSMALL
 10
8277.322920841385
 20
7846.123139034709
 30
0.0
 41
100.0
 42
100.0
 43
100.0
 50
90.0
  0
MTEXT
  5
18C1F
330
18C16
100
AcDbEntity
  8
寸法
 62
     7
 48
50.0
100
AcDbMText
 10
8177.322920841383
 20
7537.637857660469
 30
0.0
 40
120.0
 41
0.0
 71
     5
 72
     1
  1
\A1;55
  7
STYLE1
 11
0.0000000000000001
 21
1.0
 31
0.0
 73
     1
 44
1.0
1001
ACAD
1000
MTEXTBEGIN
1070
    73
1070
     1
1070
    44
1040
1.0
1070
    74
1070
     0
1000
MTEXTEND
  0
POINT
  5
18C20
330
18C16
100
AcDbEntity
  8
DEFPOINTS
 62
     0
 48
50.0
100
AcDbPoint
 10
7629.896575106974
 20
7901.123139034706
 30
0.0
  0
POINT
  5
18C21
330
18C16
100
AcDbEntity
  8
DEFPOINTS
 62
     0
 48
50.0
100
AcDbPoint
 10
7629.896575106974
 20
7846.123139034709
 30
0.0
  0
POINT
  5
18C22
330
18C16
100
AcDbEntity
  8
DEFPOINTS
 62
     0
 48
50.0
100
AcDbPoint
 10
8277.322920841385
 20
7846.123139034709
 30
0.0
  0
ENDBLK
  5
18C23
330
18C16
100
AcDbEntity
  8
0
 48
50.0
100
AcDbBlockEnd
  0
BLOCK
  5
18C25
330
18C24
100
AcDbEntity
  8
0
 48
50.0
100
AcDbBlockBegin
  2
*D40
 70
     1
 10
0.0
 20
0.0
 30
0.0
  3
*D40
  1

  0
LINE
  5
18C26
330
18C24
100
AcDbEntity
  8
寸法
 62
     0
 48
50.0
370
    -2
100
AcDbLine
 10
6533.037591258376
 20
9136.123139034728
 30
0.0
 11
6465.083950562664
 21
8882.516699399049
 31
0.0
  0
LINE
  5
18C27
330
18C24
100
AcDbEntity
  8
寸法
 62
     0
 48
50.0
370
    -2
100
AcDbLine
 10
7596.037591258388
 20
9136.123139034721
 30
0.0
 11
7528.083950562677
 21
8882.516699399049
 31
0.0
  0
LINE
  5
18C28
330
18C24
100
AcDbEntity
  8
寸法
 62
     0
 48
50.0
370
    -2
100
AcDbLine
 10
6481.160902108531
 20
8942.51669939905
 30
0.0
 11
7544.160902108544
 21
8942.51669939905
 31
0.0
  0
INSERT
  5
18C29
330
18C24
100
AcDbEntity
  8
寸法
 62
     0
 48
50.0
370
    -2
100
AcDbBlockReference
  2
_DOTSMALL
 10
6481.160902108531
 20
8942.51669939905
 30
0.0
 41
100.0
 42
100.0
 43
100.0
 50
180.0
  0
INSERT
  5
18C2A
330
18C24
100
AcDbEntity
  8
寸法
 62
     0
 48
50.0
370
    -2
100
AcDbBlockReference
  2
_DOTSMALL
 10
7544.160902108544
 20
8942.51669939905
 30
0.0
 41
100.0
 42
100.0
 43
100.0
  0
MTEXT
  5
18C2B
330
18C24
100
AcDbEntity
  8
寸法
 62
     7
 48
50.0
100
AcDbMText
 10
7061.28653022935
 20
9042.516699399049
 30
0.0
 40
120.0
 41
0.0
 71
     5
 72
     1
  1
\A1;1063
  7
STYLE1
 73
     1
 44
1.0
1001
ACAD
1000
MTEXTBEGIN
1070
    73
1070
     1
1070
    44
1040
1.0
1070
    74
1070
     0
1000
MTEXTEND
  0
POINT
  5
18C2C
330
18C24
100
AcDbEntity
  8
DEFPOINTS
 62
     0
 48
50.0
100
AcDbPoint
 10
6538.396575106998
 20
9156.123139034727
 30
0.0
  0
POINT
  5
18C2D
330
18C24
100
AcDbEntity
  8
DEFPOINTS
 62
     0
 48
50.0
100
AcDbPoint
 10
7601.39657510701
 20
9156.12313903472
 30
0.0
  0
POINT
  5
18C2E
330
18C24
100
AcDbEntity
  8
DEFPOINTS
 62
     0
 48
50.0
100
AcDbPoint
 10
7544.160902108544
 20
8942.51669939905
 30
0.0
  0
ENDBLK
  5
18C2F
330
18C24
100
AcDbEntity
  8
0
 48
50.0
100
AcDbBlockEnd
  0
BLOCK
  5
18C31
330
18C30
100
AcDbEntity
  8
0
 48
50.0
100
AcDbBlockBegin
  2
*D41
 70
     1
 10
0.0
 20
0.0
 30
0.0
  3
*D41
  1

  0
LINE
  5
18C32
330
18C30
100
AcDbEntity
  8
寸法
 62
     0
 48
50.0
370
    -2
100
AcDbLine
 10
7621.396575106999
 20
9600.764155186094
 30
0.0
 11
8016.754300969024
 21
9494.828371819961
 31
0.0
  0
LINE
  5
18C33
330
18C30
100
AcDbEntity
  8
寸法
 62
     0
 48
50.0
370
    -2
100
AcDbLine
 10
7621.396575106999
 20
9150.764155186099
 30
0.0
 11
8016.754300969024
 21
9044.828371819964
 31
0.0
  0
LINE
  5
18C34
330
18C30
100
AcDbEntity
  8
寸法
 62
     0
 48
50.0
370
    -2
100
AcDbLine
 10
7956.754300969024
 20
9510.905323365827
 30
0.0
 11
7956.754300969024
 21
9060.90532336583
 31
0.0
  0
INSERT
  5
18C35
330
18C30
100
AcDbEntity
  8
寸法
 62
     0
 48
50.0
370
    -2
100
AcDbBlockReference
  2
_DOTSMALL
 10
7956.754300969024
 20
9510.905323365827
 30
0.0
 41
100.0
 42
100.0
 43
100.0
 50
90.0
  0
INSERT
  5
18C36
330
18C30
100
AcDbEntity
  8
寸法
 62
     0
 48
50.0
370
    -2
100
AcDbBlockReference
  2
_DOTSMALL
 10
7956.754300969024
 20
9060.90532336583
 30
0.0
 41
100.0
 42
100.0
 43
100.0
 50
270.0
  0
MTEXT
  5
18C37
330
18C30
100
AcDbEntity
  8
寸法
 62
     7
 48
50.0
100
AcDbMText
 10
7856.754300969022
 20
9285.905323365829
 30
0.0
 40
120.0
 41
0.0
 71
     5
 72
     1
  1
\A1;450
  7
STYLE1
 11
0.0000000000000001
 21
1.0
 31
0.0
 73
     1
 44
1.0
1001
ACAD
1000
MTEXTBEGIN
1070
    73
1070
     1
1070
    44
1040
1.0
1070
    74
1070
     0
1000
MTEXTEND
  0
POINT
  5
18C38
330
18C30
100
AcDbEntity
  8
DEFPOINTS
 62
     0
 48
50.0
100
AcDbPoint
 10
7601.396575106999
 20
9606.123139034718
 30
0.0
  0
POINT
  5
18C39
330
18C30
100
AcDbEntity
  8
DEFPOINTS
 62
     0
 48
50.0
100
AcDbPoint
 10
7601.396575106999
 20
9156.12313903472
 30
0.0
  0
POINT
  5
18C3A
330
18C30
100
AcDbEntity
  8
DEFPOINTS
 62
     0
 48
50.0
100
AcDbPoint
 10
7956.754300969024
 20
9060.90532336583
 30
0.0
  0
ENDBLK
  5
18C3B
330
18C30
100
AcDbEntity
  8
0
 48
50.0
100
AcDbBlockEnd
  0
BLOCK
  5
18C3D
330
18C3C
100
AcDbEntity
  8
0
 48
50.0
100
AcDbBlockBegin
  2
*D42
 70
     1
 10
0.0
 20
0.0
 30
0.0
  3
*D42
  1

  0
LINE
  5
18C3E
330
18C3C
100
AcDbEntity
  8
寸法
 62
     0
 48
50.0
370
    -2
100
AcDbLine
 10
7649.896575106999
 20
9581.123139034721
 30
0.0
 11
8337.32292084141
 21
9581.123139034721
 31
0.0
  0
LINE
  5
18C3F
330
18C3C
100
AcDbEntity
  8
寸法
 62
     0
 48
50.0
370
    -2
100
AcDbLine
 10
7649.896575106973
 20
7901.123139034706
 30
0.0
 11
8337.32292084141
 21
7901.123139034706
 31
0.0
  0
LINE
  5
18C40
330
18C3C
100
AcDbEntity
  8
寸法
 62
     0
 48
50.0
370
    -2
100
AcDbLine
 10
8277.322920841411
 20
9581.123139034721
 30
0.0
 11
8277.322920841411
 21
7901.123139034706
 31
0.0
  0
INSERT
  5
18C41
330
18C3C
100
AcDbEntity
  8
寸法
 62
     0
 48
50.0
370
    -2
100
AcDbBlockReference
  2
_DOTSMALL
 10
8277.322920841411
 20
9581.123139034721
 30
0.0
 41
100.0
 42
100.0
 43
100.0
 50
90.0
  0
INSERT
  5
18C42
330
18C3C
100
AcDbEntity
  8
寸法
 62
     0
 48
50.0
370
    -2
100
AcDbBlockReference
  2
_DOTSMALL
 10
8277.322920841411
 20
7901.123139034706
 30
0.0
 41
100.0
 42
100.0
 43
100.0
 50
270.0
  0
MTEXT
  5
18C43
330
18C3C
100
AcDbEntity
  8
寸法
 62
     7
 48
50.0
100
AcDbMText
 10
8177.311109817788
 20
8741.123139034712
 30
0.0
 40
120.0
 41
0.0
 71
     5
 72
     1
  1
\A1;4X420=1680
  7
STYLE1
 11
0.0000000000000001
 21
1.0
 31
0.0
 73
     1
 44
1.0
1001
ACAD
1000
MTEXTBEGIN
1070
    73
1070
     1
1070
    44
1040
1.0
1070
    74
1070
     0
1000
MTEXTEND
  0
POINT
  5
18C44
330
18C3C
100
AcDbEntity
  8
DEFPOINTS
 62
     0
 48
50.0
100
AcDbPoint
 10
7629.896575106998
 20
9581.123139034721
 30
0.0
  0
POINT
  5
18C45
330
18C3C
100
AcDbEntity
  8
DEFPOINTS
 62
     0
 48
50.0
100
AcDbPoint
 10
7629.896575106974
 20
7901.123139034706
 30
0.0
  0
POINT
  5
18C46
330
18C3C
100
AcDbEntity
  8
DEFPOINTS
 62
     0
 48
50.0
100
AcDbPoint
 10
8277.322920841411
 20
7901.123139034706
 30
0.0
  0
ENDBLK
  5
18C47
330
18C3C
100
AcDbEntity
  8
0
 48
50.0
100
AcDbBlockEnd
  0
BLOCK
  5
18C49
330
18C48
100
AcDbEntity
  8
0
 48
50.0
100
AcDbBlockBegin
  2
*D43
 70
     1
 10
0.0
 20
0.0
 30
0.0
  3
*D43
  1

  0
LINE
  5
18C4A
330
18C48
100
AcDbEntity
  8
寸法
 62
     0
 48
50.0
370
    -2
100
AcDbLine
 10
4183.037591258377
 20
9136.123139034619
 30
0.0
 11
4115.083950562663
 21
8882.516699398941
 31
0.0
  0
LINE
  5
18C4B
330
18C48
100
AcDbEntity
  8
寸法
 62
     0
 48
50.0
370
    -2
100
AcDbLine
 10
5246.037591258307
 20
9136.123139034671
 30
0.0
 11
5178.08395056258
 21
8882.516699398941
 31
0.0
  0
LINE
  5
18C4C
330
18C48
100
AcDbEntity
  8
寸法
 62
     0
 48
50.0
370
    -2
100
AcDbLine
 10
4131.160902108532
 20
8942.516699398941
 30
0.0
 11
5194.160902108448
 21
8942.516699398941
 31
0.0
  0
INSERT
  5
18C4D
330
18C48
100
AcDbEntity
  8
寸法
 62
     0
 48
50.0
370
    -2
100
AcDbBlockReference
  2
_DOTSMALL
 10
4131.160902108532
 20
8942.516699398941
 30
0.0
 41
100.0
 42
100.0
 43
100.0
 50
180.0
  0
INSERT
  5
18C4E
330
18C48
100
AcDbEntity
  8
寸法
 62
     0
 48
50.0
370
    -2
100
AcDbBlockReference
  2
_DOTSMALL
 10
5194.160902108448
 20
8942.516699398941
 30
0.0
 41
100.0
 42
100.0
 43
100.0
  0
MTEXT
  5
18C4F
330
18C48
100
AcDbEntity
  8
寸法
 62
     7
 48
50.0
100
AcDbMText
 10
4658.986452655306
 20
9042.516699398941
 30
0.0
 40
120.0
 41
0.0
 71
     5
 72
     1
  1
\A1;1063
  7
STYLE1
 73
     1
 44
1.0
1001
ACAD
1000
MTEXTBEGIN
1070
    73
1070
     1
1070
    44
1040
1.0
1070
    74
1070
     0
1000
MTEXTEND
  0
POINT
  5
18C50
330
18C48
100
AcDbEntity
  8
DEFPOINTS
 62
     0
 48
50.0
100
AcDbPoint
 10
4188.396575106999
 20
9156.123139034617
 30
0.0
  0
POINT
  5
18C51
330
18C48
100
AcDbEntity
  8
DEFPOINTS
 62
     0
 48
50.0
100
AcDbPoint
 10
5251.396575106929
 20
9156.123139034672
 30
0.0
  0
POINT
  5
18C52
330
18C48
100
AcDbEntity
  8
DEFPOINTS
 62
     0
 48
50.0
100
AcDbPoint
 10
5194.160902108448
 20
8942.516699398941
 30
0.0
  0
ENDBLK
  5
18C53
330
18C48
100
AcDbEntity
  8
0
 48
50.0
100
AcDbBlockEnd
  0
BLOCK
  5
18C55
330
18C54
100
AcDbEntity
  8
0
 48
50.0
100
AcDbBlockBegin
  2
*D44
 70
     1
 10
0.0
 20
0.0
 30
0.0
  3
*D44
  1

  0
LINE
  5
18C56
330
18C54
100
AcDbEntity
  8
寸法
 62
     0
 48
50.0
370
    -2
100
AcDbLine
 10
5274.037591258307
 20
9136.123139034669
 30
0.0
 11
5206.08395056258
 21
8882.516699398941
 31
0.0
  0
LINE
  5
18C57
330
18C54
100
AcDbEntity
  8
寸法
 62
     0
 48
50.0
370
    -2
100
AcDbLine
 10
6505.037591258377
 20
9136.123139034662
 30
0.0
 11
6437.083950562653
 21
8882.516699398941
 31
0.0
  0
LINE
  5
18C58
330
18C54
100
AcDbEntity
  8
寸法
 62
     0
 48
50.0
370
    -2
100
AcDbLine
 10
5222.160902108448
 20
8942.516699398941
 30
0.0
 11
6453.16090210852
 21
8942.516699398941
 31
0.0
  0
INSERT
  5
18C59
330
18C54
100
AcDbEntity
  8
寸法
 62
     0
 48
50.0
370
    -2
100
AcDbBlockReference
  2
_DOTSMALL
 10
5222.160902108448
 20
8942.516699398941
 30
0.0
 41
100.0
 42
100.0
 43
100.0
 50
180.0
  0
INSERT
  5
18C5A
330
18C54
100
AcDbEntity
  8
寸法
 62
     0
 48
50.0
370
    -2
100
AcDbBlockReference
  2
_DOTSMALL
 10
6453.16090210852
 20
8942.516699398941
 30
0.0
 41
100.0
 42
100.0
 43
100.0
  0
MTEXT
  5
18C5B
330
18C54
100
AcDbEntity
  8
寸法
 62
     7
 48
50.0
100
AcDbMText
 10
6081.244808320626
 20
9042.528510422561
 30
0.0
 40
120.0
 41
0.0
 71
     5
 72
     1
  1
\A1;1231
  7
STYLE1
 73
     1
 44
1.0
1001
ACAD
1000
MTEXTBEGIN
1070
    73
1070
     1
1070
    44
1040
1.0
1070
    74
1070
     0
1000
MTEXTEND
  0
POINT
  5
18C5C
330
18C54
100
AcDbEntity
  8
DEFPOINTS
 62
     0
 48
50.0
100
AcDbPoint
 10
5279.396575106929
 20
9156.123139034669
 30
0.0
  0
POINT
  5
18C5D
330
18C54
100
AcDbEntity
  8
DEFPOINTS
 62
     0
 48
50.0
100
AcDbPoint
 10
6510.396575106999
 20
9156.123139034662
 30
0.0
  0
POINT
  5
18C5E
330
18C54
100
AcDbEntity
  8
DEFPOINTS
 62
     0
 48
50.0
100
AcDbPoint
 10
6453.16090210852
 20
8942.516699398941
 30
0.0
  0
ENDBLK
  5
18C5F
330
18C54
100
AcDbEntity
  8
0
 48
50.0
100
AcDbBlockEnd
  0
BLOCK
  5
18C61
330
18C60
100
AcDbEntity
  8
0
 48
50.0
100
AcDbBlockBegin
  2
*D45
 70
     1
 10
0.0
 20
0.0
 30
0.0
  3
*D45
  1

  0
LINE
  5
18C62
330
18C60
100
AcDbEntity
  8
寸法
 62
     0
 48
50.0
370
    -2
100
AcDbLine
 10
5065.896575106966
 20
7749.123139034579
 30
0.0
 11
5065.896575106966
 21
7099.952920982538
 31
0.0
  0
LINE
  5
18C63
330
18C60
100
AcDbEntity
  8
寸法
 62
     0
 48
50.0
370
    -2
100
AcDbLine
 10
6331.896575106966
 20
7749.123139034579
 30
0.0
 11
6331.896575106966
 21
7099.952920982538
 31
0.0
  0
LINE
  5
18C64
330
18C60
100
AcDbEntity
  8
寸法
 62
     0
 48
50.0
370
    -2
100
AcDbLine
 10
5065.896575106966
 20
7159.952920982537
 30
0.0
 11
6331.896575106966
 21
7159.952920982537
 31
0.0
  0
INSERT
  5
18C65
330
18C60
100
AcDbEntity
  8
寸法
 62
     0
 48
50.0
370
    -2
100
AcDbBlockReference
  2
_DOTSMALL
 10
5065.896575106966
 20
7159.952920982537
 30
0.0
 41
100.0
 42
100.0
 43
100.0
 50
180.0
  0
INSERT
  5
18C66
330
18C60
100
AcDbEntity
  8
寸法
 62
     0
 48
50.0
370
    -2
100
AcDbBlockReference
  2
_DOTSMALL
 10
6331.896575106966
 20
7159.952920982537
 30
0.0
 41
100.0
 42
100.0
 43
100.0
  0
MTEXT
  5
18C67
330
18C60
100
AcDbEntity
  8
寸法
 62
     7
 48
50.0
100
AcDbMText
 10
5711.986008735934
 20
7359.964732006159
 30
0.0
 40
120.0
 41
0.0
 71
     5
 72
     1
  1
\A1;有効開口部間口\P1266
  7
STYLE1
 73
     1
 44
1.0
1001
ACAD
1000
MTEXTBEGIN
1070
    73
1070
     1
1070
    44
1040
1.0
1070
    74
1070
     0
1000
MTEXTEND
  0
POINT
  5
18C68
330
18C60
100
AcDbEntity
  8
DEFPOINTS
 62
     0
 48
50.0
100
AcDbPoint
 10
5065.896575106966
 20
7769.123139034579
 30
0.0
  0
POINT
  5
18C69
330
18C60
100
AcDbEntity
  8
DEFPOINTS
 62
     0
 48
50.0
100
AcDbPoint
 10
6331.896575106966
 20
7769.123139034579
 30
0.0
  0
POINT
  5
18C6A
330
18C60
100
AcDbEntity
  8
DEFPOINTS
 62
     0
 48
50.0
100
AcDbPoint
 10
6331.896575106966
 20
7159.952920982537
 30
0.0
  0
ENDBLK
  5
18C6B
330
18C60
100
AcDbEntity
  8
0
 48
50.0
100
AcDbBlockEnd
  0
BLOCK
  5
18C6D
330
18C6C
100
AcDbEntity
  8
0
 48
50.0
100
AcDbBlockBegin
  2
*D46
 70
     1
 10
0.0
 20
0.0
 30
0.0
  3
*D46
  1

  0
LINE
  5
18C6E
330
18C6C
100
AcDbEntity
  8
寸法
 62
     0
 48
50.0
370
    -2
100
AcDbLine
 10
7200.896575106966
 20
7846.123139034578
 30
0.0
 11
7457.192158500191
 21
7846.123139034578
 31
0.0
  0
LINE
  5
18C6F
330
18C6C
100
AcDbEntity
  8
寸法
 62
     0
 48
50.0
370
    -2
100
AcDbLine
 10
7199.896575106966
 20
7769.123139034579
 30
0.0
 11
7457.192158500191
 21
7769.123139034579
 31
0.0
  0
LINE
  5
18C70
330
18C6C
100
AcDbEntity
  8
寸法
 62
     0
 48
50.0
370
    -2
100
AcDbLine
 10
7417.192158500192
 20
7866.123139034579
 30
0.0
 11
7417.192158500192
 21
7886.123139034578
 31
0.0
  0
LINE
  5
18C71
330
18C6C
100
AcDbEntity
  8
寸法
 62
     0
 48
50.0
370
    -2
100
AcDbLine
 10
7417.192158500192
 20
7749.123139034579
 30
0.0
 11
7417.192158500192
 21
7533.123139034573
 31
0.0
  0
LINE
  5
18C72
330
18C6C
100
AcDbEntity
  8
寸法
 62
     0
 48
50.0
370
    -2
100
AcDbLine
 10
7417.192158500192
 20
7846.123139034578
 30
0.0
 11
7417.192158500192
 21
7769.123139034579
 31
0.0
  0
INSERT
  5
18C73
330
18C6C
100
AcDbEntity
  8
寸法
 62
     0
 48
50.0
370
    -2
100
AcDbBlockReference
  2
_DOT
 10
7417.192158500192
 20
7846.123139034578
 30
0.0
 41
20.0
 42
20.0
 43
20.0
 50
270.0
  0
INSERT
  5
18C74
330
18C6C
100
AcDbEntity
  8
寸法
 62
     0
 48
50.0
370
    -2
100
AcDbBlockReference
  2
_DOT
 10
7417.192158500192
 20
7769.123139034579
 30
0.0
 41
20.0
 42
20.0
 43
20.0
 50
90.0
  0
MTEXT
  5
18C75
330
18C6C
100
AcDbEntity
  8
寸法
 62
     7
 48
50.0
100
AcDbMText
 10
7325.192158500191
 20
7631.123139034575
 30
0.0
 40
120.0
 41
0.0
 71
     5
 72
     1
  1
\A1;77
  7
STYLE1
 11
0.0000000000000001
 21
1.0
 31
0.0
 73
     1
 44
1.0
1001
ACAD
1000
MTEXTBEGIN
1070
    73
1070
     1
1070
    44
1040
1.0
1070
    74
1070
     0
1000
MTEXTEND
  0
POINT
  5
18C76
330
18C6C
100
AcDbEntity
  8
DEFPOINTS
 62
     0
 48
50.0
100
AcDbPoint
 10
7180.896575106967
 20
7846.123139034578
 30
0.0
  0
POINT
  5
18C77
330
18C6C
100
AcDbEntity
  8
DEFPOINTS
 62
     0
 48
50.0
100
AcDbPoint
 10
7179.896575106965
 20
7769.123139034579
 30
0.0
  0
POINT
  5
18C78
330
18C6C
100
AcDbEntity
  8
DEFPOINTS
 62
     0
 48
50.0
100
AcDbPoint
 10
7417.192158500192
 20
7769.123139034579
 30
0.0
  0
ENDBLK
  5
18C79
330
18C6C
100
AcDbEntity
  8
0
 48
50.0
100
AcDbBlockEnd
  0
BLOCK
  5
18DA0
330
18C7A
100
AcDbEntity
  8
0
 48
50.0
100
AcDbBlockBegin
  2
A$C3B1A506B
 70
     0
 10
0.0
 20
0.0
 30
0.0
  3
A$C3B1A506B
  1

  0
MTEXT
  5
18C7B
330
18C7A
100
AcDbEntity
  8
寸法
 62
     7
 48
50.0
100
AcDbMText
 10
3342.250386887194
 20
2778.329429134012
 30
0.0
 40
96.0
 41
0.0
 71
     5
 72
     1
  1
棚 2段
  7
STYLE1
 73
     1
 44
1.0
1001
ACAD
1000
MTEXTBEGIN
1070
    73
1070
     1
1070
    44
1040
1.0
1070
    74
1070
     0
1000
MTEXTEND
  0
MTEXT
  5
18C7C
330
18C7A
100
AcDbEntity
  8
寸法
 62
     7
 48
50.0
100
AcDbMText
 10
2167.25038688716
 20
2778.329429133986
 30
0.0
 40
96.0
 41
0.0
 71
     5
 72
     1
  1
棚 2段
  7
STYLE1
 73
     1
 44
1.0
1001
ACAD
1000
MTEXTBEGIN
1070
    73
1070
     1
1070
    44
1040
1.0
1070
    74
1070
     0
1000
MTEXTEND
  0
MTEXT
  5
18C7D
330
18C7A
100
AcDbEntity
  8
寸法
 62
     7
 48
50.0
100
AcDbMText
 10
992.2503868871608
 20
2778.329429133935
 30
0.0
 40
96.0
 41
0.0
 71
     5
 72
     1
  1
棚 2段
  7
STYLE1
 73
     1
 44
1.0
1001
ACAD
1000
MTEXTBEGIN
1070
    73
1070
     1
1070
    44
1040
1.0
1070
    74
1070
     0
1000
MTEXTEND
  0
LINE
  5
18C7E
330
18C7A
100
AcDbEntity
  8
細線
 48
50.0
100
AcDbLine
 10
2771.970589276527
 20
1368.994384123192
 30
0.0
 11
3398.970589276523
 21
1368.994384123192
 31
0.0
  0
LINE
  5
18C7F
330
18C7A
100
AcDbEntity
  8
細線
 48
50.0
100
AcDbLine
 10
2117.970593930113
 20
1335.285615569113
 30
0.0
 11
3398.970589276523
 21
1335.285615569113
 31
0.0
  0
LINE
  5
18C80
330
18C7A
100
AcDbEntity
  8
細線
 48
50.0
100
AcDbLine
 10
2076.970593930115
 20
1364.690523565368
 30
0.0
 11
1322.970589276523
 21
1364.690523565367
 31
0.0
  0
LINE
  5
18C81
330
18C7A
100
AcDbEntity
  8
細線
100
AcDbLine
 10
3170.720579860066
 20
1388.494284088199
 30
0.0
 11
3173.052119381877
 21
1393.494286728162
 31
0.0
  0
LINE
  5
18C82
330
18C7A
100
AcDbEntity
  8
細線
100
AcDbLine
 10
3240.720589276525
 20
1388.494269174465
 30
0.0
 11
3238.389042800336
 21
1393.494286728144
 31
0.0
  0
LINE
  5
18C83
330
18C7A
100
AcDbEntity
  8
細線
100
AcDbLine
 10
3238.389042800336
 20
1393.494286728144
 30
0.0
 11
3173.052119381862
 21
1393.494286728133
 31
0.0
  0
LINE
  5
18C84
330
18C7A
100
AcDbEntity
  8
細線
100
AcDbLine
 10
3098.389042800336
 20
1393.494286728144
 30
0.0
 11
3033.052119381862
 21
1393.494286728133
 31
0.0
  0
LINE
  5
18C85
330
18C7A
100
AcDbEntity
  8
細線
100
AcDbLine
 10
3100.720589276523
 20
1388.494269174465
 30
0.0
 11
3098.389042800336
 21
1393.494286728144
 31
0.0
  0
LINE
  5
18C86
330
18C7A
100
AcDbEntity
  8
細線
100
AcDbLine
 10
3030.720579860066
 20
1388.494284088199
 30
0.0
 11
3033.052119381875
 21
1393.494286728162
 31
0.0
  0
LINE
  5
18C87
330
18C7A
100
AcDbEntity
  8
細線
100
AcDbLine
 10
2890.720589276525
 20
1388.494269174465
 30
0.0
 11
2893.052128798336
 21
1393.494271814428
 31
0.0
  0
LINE
  5
18C88
330
18C7A
100
AcDbEntity
  8
細線
100
AcDbLine
 10
2960.720598692984
 20
1388.494254260731
 30
0.0
 11
2958.389052216793
 21
1393.49427181441
 31
0.0
  0
LINE
  5
18C89
330
18C7A
100
AcDbEntity
  8
細線
100
AcDbLine
 10
2958.389052216795
 20
1393.49427181441
 30
0.0
 11
2893.052128798321
 21
1393.494271814399
 31
0.0
  0
LINE
  5
18C8A
330
18C7A
100
AcDbEntity
  8
細線
100
AcDbLine
 10
2667.139038146739
 20
1359.494298590735
 30
0.0
 11
2601.802114728263
 21
1359.494298590724
 31
0.0
  0
LINE
  5
18C8B
330
18C7A
100
AcDbEntity
  8
細線
100
AcDbLine
 10
2669.470584622926
 20
1354.494281037055
 30
0.0
 11
2667.139038146737
 21
1359.494298590735
 31
0.0
  0
LINE
  5
18C8C
330
18C7A
100
AcDbEntity
  8
細線
100
AcDbLine
 10
2599.470575206469
 20
1354.49429595079
 30
0.0
 11
2601.802114728278
 21
1359.494298590752
 31
0.0
  0
LINE
  5
18C8D
330
18C7A
100
AcDbEntity
  8
細線
 48
50.0
100
AcDbLine
 10
2440.853968524536
 20
1372.765132327548
 30
0.0
 11
2446.609486107205
 21
1354.494281037057
 31
0.0
  0
LINE
  5
18C8E
330
18C7A
100
AcDbEntity
  8
細線
 48
50.0
100
AcDbLine
 10
2429.925520044106
 20
1372.765132327546
 30
0.0
 11
2440.853968524536
 21
1372.765132327548
 31
0.0
  0
ARC
  5
18C8F
330
18C7A
100
AcDbEntity
  8
細線
 48
50.0
100
AcDbCircle
 10
2424.471163986787
 20
1374.265132327546
 30
0.0
 40
5.0
100
AcDbArc
 50
204.6243183520723
 51
335.3756816479278
  0
ARC
  5
18C90
330
18C7A
100
AcDbEntity
  8
細線
 48
50.0
100
AcDbCircle
 10
2429.925520044106
 20
1371.765132327546
 30
0.0
 40
1.0
100
AcDbArc
 50
90.0
 51
155.3756816479277
  0
ARC
  5
18C91
330
18C7A
100
AcDbEntity
  8
細線
 48
50.0
100
AcDbCircle
 10
2419.016807929469
 20
1371.765132327546
 30
0.0
 40
1.0
100
AcDbArc
 50
24.62431835207225
 51
90.0
  0
LINE
  5
18C92
330
18C7A
100
AcDbEntity
  8
細線
 48
50.0
100
AcDbLine
 10
2408.088359449037
 20
1372.765132327548
 30
0.0
 11
2419.016807929469
 21
1372.765132327546
 31
0.0
  0
LINE
  5
18C93
330
18C7A
100
AcDbEntity
  8
細線
 48
50.0
100
AcDbLine
 10
2402.33284186637
 20
1354.494281037054
 30
0.0
 11
2408.088359449037
 21
1372.765132327548
 31
0.0
  0
LINE
  5
18C94
330
18C7A
100
AcDbEntity
  8
細線
100
AcDbLine
 10
2458.070304175992
 20
1354.494278397076
 30
0.0
 11
2460.401843697802
 21
1359.494281037039
 31
0.0
  0
LINE
  5
18C95
330
18C7A
100
AcDbEntity
  8
細線
100
AcDbLine
 10
2528.070313592451
 20
1354.494263483342
 30
0.0
 11
2525.738767116262
 21
1359.494281037021
 31
0.0
  0
LINE
  5
18C96
330
18C7A
100
AcDbEntity
  8
細線
100
AcDbLine
 10
2525.738767116262
 20
1359.494281037021
 30
0.0
 11
2460.40184369779
 21
1359.49428103701
 31
0.0
  0
LINE
  5
18C97
330
18C7A
100
AcDbEntity
  8
細線
100
AcDbLine
 10
2387.139046332155
 20
1359.494281037021
 30
0.0
 11
2321.80212291368
 21
1359.49428103701
 31
0.0
  0
LINE
  5
18C98
330
18C7A
100
AcDbEntity
  8
細線
100
AcDbLine
 10
2389.470592808342
 20
1354.494263483342
 30
0.0
 11
2387.139046332153
 21
1359.494281037021
 31
0.0
  0
LINE
  5
18C99
330
18C7A
100
AcDbEntity
  8
細線
100
AcDbLine
 10
2319.470584622926
 20
1354.494281037054
 30
0.0
 11
2321.802122913694
 21
1359.494281037039
 31
0.0
  0
LINE
  5
18C9A
330
18C7A
100
AcDbEntity
  8
細線
100
AcDbLine
 10
2179.47061994182
 20
1354.494289224422
 30
0.0
 11
2181.802158232587
 21
1359.494289224407
 31
0.0
  0
LINE
  5
18C9B
330
18C7A
100
AcDbEntity
  8
細線
100
AcDbLine
 10
2249.470628127236
 20
1354.49427167071
 30
0.0
 11
2247.139081651047
 21
1359.494289224389
 31
0.0
  0
LINE
  5
18C9C
330
18C7A
100
AcDbEntity
  8
細線
100
AcDbLine
 10
2247.139081651047
 20
1359.494289224389
 30
0.0
 11
2181.802158232573
 21
1359.494289224378
 31
0.0
  0
LINE
  5
18C9D
330
18C7A
100
AcDbEntity
  8
細線
100
AcDbLine
 10
1807.970585744697
 20
1320.494460905133
 30
0.0
 11
1810.302124035464
 21
1325.494460905118
 31
0.0
  0
LINE
  5
18C9E
330
18C7A
100
AcDbEntity
  8
細線
100
AcDbLine
 10
1877.970593930113
 20
1320.494443351421
 30
0.0
 11
1875.639047453926
 21
1325.4944609051
 31
0.0
  0
LINE
  5
18C9F
330
18C7A
100
AcDbEntity
  8
細線
100
AcDbLine
 10
1875.639047453926
 20
1325.4944609051
 30
0.0
 11
1810.302124035452
 21
1325.494460905089
 31
0.0
  0
LINE
  5
18CA0
330
18C7A
100
AcDbEntity
  8
細線
100
AcDbLine
 10
2015.639047453926
 20
1325.4944609051
 30
0.0
 11
1950.302124035452
 21
1325.494460905089
 31
0.0
  0
LINE
  5
18CA1
330
18C7A
100
AcDbEntity
  8
細線
100
AcDbLine
 10
2017.970593930113
 20
1320.494443351421
 30
0.0
 11
2015.639047453924
 21
1325.4944609051
 31
0.0
  0
LINE
  5
18CA2
330
18C7A
100
AcDbEntity
  8
細線
100
AcDbLine
 10
1947.970585744697
 20
1320.494460905133
 30
0.0
 11
1950.302124035465
 21
1325.494460905118
 31
0.0
  0
LINE
  5
18CA3
330
18C7A
100
AcDbEntity
  8
細線
100
AcDbLine
 10
1735.639047453926
 20
1325.494460905098
 30
0.0
 11
1670.302124035454
 21
1325.494460905087
 31
0.0
  0
LINE
  5
18CA4
330
18C7A
100
AcDbEntity
  8
細線
100
AcDbLine
 10
1737.970593930113
 20
1320.494443351419
 30
0.0
 11
1735.639047453926
 21
1325.494460905098
 31
0.0
  0
LINE
  5
18CA5
330
18C7A
100
AcDbEntity
  8
細線
100
AcDbLine
 10
1667.970585744697
 20
1320.494460905131
 30
0.0
 11
1670.302124035465
 21
1325.494460905116
 31
0.0
  0
LINE
  5
18CA6
330
18C7A
100
AcDbEntity
  8
細線
100
AcDbLine
 10
1527.970593930113
 20
1320.494460905133
 30
0.0
 11
1530.302132220881
 21
1325.494460905118
 31
0.0
  0
LINE
  5
18CA7
330
18C7A
100
AcDbEntity
  8
細線
100
AcDbLine
 10
1597.970602115529
 20
1320.494443351421
 30
0.0
 11
1595.639055639342
 21
1325.4944609051
 31
0.0
  0
LINE
  5
18CA8
330
18C7A
100
AcDbEntity
  8
細線
100
AcDbLine
 10
1595.639055639342
 20
1325.4944609051
 30
0.0
 11
1530.302132220869
 21
1325.494460905089
 31
0.0
  0
ARC
  5
18CA9
330
18C7A
100
AcDbEntity
  8
部品1
 48
0.01
100
AcDbCircle
 10
1483.470482677778
 20
1319.493338720063
 30
0.0
 40
0.5
100
AcDbArc
 50
270.0
 51
0.0
  0
LINE
  5
18CAA
330
18C7A
100
AcDbEntity
  8
部品1
 48
0.01
100
AcDbLine
 10
1483.970482677778
 20
1320.493338720063
 30
0.0
 11
1483.970482677778
 21
1319.493338720063
 31
0.0
  0
LINE
  5
18CAB
330
18C7A
100
AcDbEntity
  8
部品1
 48
0.01
100
AcDbLine
 10
1483.970482677778
 20
1320.493338720063
 30
0.0
 11
1483.970482677778
 21
1319.493338720063
 31
0.0
  0
LINE
  5
18CAC
330
18C7A
100
AcDbEntity
  8
部品1
 48
0.01
100
AcDbLine
 10
1483.470482677778
 20
1318.993338720063
 30
0.0
 11
1476.857977247713
 21
1318.993338720062
 31
0.0
  0
ARC
  5
18CAD
330
18C7A
100
AcDbEntity
  8
部品1
100
AcDbCircle
 10
1476.926326800494
 20
1319.993338720062
 30
0.0
 40
1.0
100
AcDbArc
 50
160.5287793655865
 51
270.0
  0
ARC
  5
18CAE
330
18C7A
100
AcDbEntity
  8
部品1
100
AcDbCircle
 10
1451.470482677778
 20
1328.993338720062
 30
0.0
 40
26.0
100
AcDbArc
 50
340.5287793655865
 51
0.0
  0
LINE
  5
18CAF
330
18C7A
100
AcDbEntity
  8
部品1
100
AcDbLine
 10
1477.470482677778
 20
1328.993338720062
 30
0.0
 11
1477.470482677778
 21
1333.993338720061
 31
0.0
  0
ARC
  5
18CB0
330
18C7A
100
AcDbEntity
  8
部品1
 48
0.01
100
AcDbCircle
 10
1475.470482677778
 20
1333.993338720061
 30
0.0
 40
2.0
100
AcDbArc
 50
0.0
 51
90.0
  0
ARC
  5
18CB1
330
18C7A
100
AcDbEntity
  8
部品1
100
AcDbCircle
 10
1473.862091052968
 20
1332.993338720062
 30
0.0
 40
3.0
100
AcDbArc
 50
90.0
 51
141.6069559808035
  0
LINE
  5
18CB2
330
18C7A
100
AcDbEntity
  8
部品1
 48
0.01
100
AcDbLine
 10
1475.470482677778
 20
1335.993338720062
 30
0.0
 11
1473.862091052968
 21
1335.993338720062
 31
0.0
  0
ARC
  5
18CB3
330
18C7A
100
AcDbEntity
  8
部品1
100
AcDbCircle
 10
1455.399768463507
 20
1332.293338720065
 30
0.0
 40
3.0
100
AcDbArc
 50
254.0576313943215
 51
270.0
  0
ARC
  5
18CB4
330
18C7A
100
AcDbEntity
  8
部品1
100
AcDbCircle
 10
1462.541196892049
 20
1332.293338720065
 30
0.0
 40
3.0
100
AcDbArc
 50
270.0
 51
285.9423686056786
  0
LINE
  5
18CB5
330
18C7A
100
AcDbEntity
  8
部品1
100
AcDbLine
 10
1462.541196892049
 20
1329.293338720064
 30
0.0
 11
1455.399768463507
 21
1329.293338720064
 31
0.0
  0
ARC
  5
18CB6
330
18C7A
100
AcDbEntity
  8
部品1
100
AcDbCircle
 10
1458.970482677778
 20
1344.793338720065
 30
0.0
 40
16.0
100
AcDbArc
 50
285.9423686056786
 51
321.6069559808035
  0
LINE
  5
18CB7
330
18C7A
100
AcDbEntity
  8
部品1
 48
0.01
100
AcDbLine
 10
1442.470482677778
 20
1335.993338720062
 30
0.0
 11
1444.078874302588
 21
1335.993338720062
 31
0.0
  0
ARC
  5
18CB8
330
18C7A
100
AcDbEntity
  8
部品1
100
AcDbCircle
 10
1444.078874302588
 20
1332.993338720062
 30
0.0
 40
3.0
100
AcDbArc
 50
38.39304401919648
 51
90.0
  0
ARC
  5
18CB9
330
18C7A
100
AcDbEntity
  8
部品1
100
AcDbCircle
 10
1458.970482677778
 20
1344.793338720065
 30
0.0
 40
16.0
100
AcDbArc
 50
218.3930440191965
 51
254.0576313943215
  0
LINE
  5
18CBA
330
18C7A
100
AcDbEntity
  8
部品1
100
AcDbLine
 10
1440.470482677778
 20
1328.993338720062
 30
0.0
 11
1440.470482677778
 21
1333.993338720061
 31
0.0
  0
ARC
  5
18CBB
330
18C7A
100
AcDbEntity
  8
部品1
 48
0.01
100
AcDbCircle
 10
1442.470482677778
 20
1333.993338720061
 30
0.0
 40
2.0
100
AcDbArc
 50
90.0
 51
180.0
  0
ARC
  5
18CBC
330
18C7A
100
AcDbEntity
  8
部品1
100
AcDbCircle
 10
1466.470482677778
 20
1328.993338720062
 30
0.0
 40
26.0
100
AcDbArc
 50
180.0
 51
199.4712206344134
  0
ARC
  5
18CBD
330
18C7A
100
AcDbEntity
  8
部品1
 48
0.01
100
AcDbCircle
 10
1434.470482677778
 20
1319.493338720063
 30
0.0
 40
0.5
100
AcDbArc
 50
180.0
 51
270.0
  0
LINE
  5
18CBE
330
18C7A
100
AcDbEntity
  8
部品1
 48
0.01
100
AcDbLine
 10
1434.470482677778
 20
1318.993338720063
 30
0.0
 11
1441.014638555061
 21
1318.993338720062
 31
0.0
  0
LINE
  5
18CBF
330
18C7A
100
AcDbEntity
  8
部品1
 48
0.01
100
AcDbLine
 10
1433.970482677778
 20
1320.493338720063
 30
0.0
 11
1433.970482677778
 21
1319.493338720063
 31
0.0
  0
ARC
  5
18CC0
330
18C7A
100
AcDbEntity
  8
部品1
100
AcDbCircle
 10
1441.014638555061
 20
1319.993338720062
 30
0.0
 40
1.0
100
AcDbArc
 50
270.0
 51
19.47122063441346
  0
LINE
  5
18CC1
330
18C7A
100
AcDbEntity
  8
細線
100
AcDbLine
 10
1479.470482677785
 20
1338.493338720065
 30
0.0
 11
1438.470482677785
 21
1338.493338720058
 31
0.0
  0
LINE
  5
18CC2
330
18C7A
100
AcDbEntity
  8
細線
100
AcDbLine
 10
1438.470482677785
 20
1338.493338720058
 30
0.0
 11
1438.470482677785
 21
1320.49333872004
 31
0.0
  0
LINE
  5
18CC3
330
18C7A
100
AcDbEntity
  8
細線
100
AcDbLine
 10
1479.470482677785
 20
1338.493338720065
 30
0.0
 11
1479.470482677785
 21
1320.49333872004
 31
0.0
  0
LINE
  5
18CC4
330
18C7A
100
AcDbEntity
  8
細線
100
AcDbLine
 10
1322.970589276523
 20
1324.494269174465
 30
0.0
 11
1322.970589276523
 21
1320.494269174513
 31
0.0
  0
LINE
  5
18CC5
330
18C7A
100
AcDbEntity
  8
寸法
 48
50.0
100
AcDbLine
 10
1746.17359555837
 20
1170.531020743327
 30
0.0
 11
1694.767587648266
 21
1170.531020743327
 31
0.0
  0
LINE
  5
18CC6
330
18C7A
100
AcDbEntity
  8
寸法
 48
50.0
100
AcDbLine
 10
1694.767587648266
 20
1170.531020743327
 30
0.0
 11
1694.767587648266
 21
1201.841179395494
 31
0.0
  0
LINE
  5
18CC7
330
18C7A
100
AcDbEntity
  8
寸法
 48
50.0
100
AcDbLine
 10
1694.767587648266
 20
1201.841179395494
 30
0.0
 11
1665.006255656843
 21
1201.841179395494
 31
0.0
  0
LINE
  5
18CC8
330
18C7A
100
AcDbEntity
  8
寸法
 48
50.0
100
AcDbLine
 10
1665.006255656843
 20
1201.841179395494
 30
0.0
 11
1720.470591603318
 21
1239.420630324105
 31
0.0
  0
LINE
  5
18CC9
330
18C7A
100
AcDbEntity
  8
寸法
 48
50.0
100
AcDbLine
 10
1775.934927549793
 20
1201.841179395494
 30
0.0
 11
1720.470591603318
 21
1239.420630324105
 31
0.0
  0
LINE
  5
18CCA
330
18C7A
100
AcDbEntity
  8
寸法
 48
50.0
100
AcDbLine
 10
1746.17359555837
 20
1201.841179395494
 30
0.0
 11
1775.934927549793
 21
1201.841179395494
 31
0.0
  0
LINE
  5
18CCB
330
18C7A
100
AcDbEntity
  8
寸法
 48
50.0
100
AcDbLine
 10
1746.17359555837
 20
1170.531020743327
 30
0.0
 11
1746.17359555837
 21
1201.841179395494
 31
0.0
  0
LINE
  5
18CCC
330
18C7A
100
AcDbEntity
  8
寸法
 48
50.0
100
AcDbLine
 10
1694.767587648266
 20
1170.531020743327
 30
0.0
 11
1746.17359555837
 21
1170.531020743327
 31
0.0
  0
LINE
  5
18CCD
330
18C7A
100
AcDbEntity
  8
寸法
 48
50.0
100
AcDbLine
 10
2025.339129835225
 20
1227.676611498152
 30
0.0
 11
2025.339129835225
 21
1174.01297691636
 31
0.0
  0
LINE
  5
18CCE
330
18C7A
100
AcDbEntity
  8
寸法
 48
50.0
100
AcDbLine
 10
2114.623348430647
 20
1203.752977228664
 30
0.0
 11
2025.339129835225
 21
1227.676611498152
 31
0.0
  0
LINE
  5
18CCF
330
18C7A
100
AcDbEntity
  8
寸法
 48
50.0
100
AcDbLine
 10
1895.471408254923
 20
1203.752977228664
 30
0.0
 11
2114.623348430647
 21
1203.752977228664
 31
0.0
  0
DIMENSION
  5
18CD0
330
18C7A
100
AcDbEntity
  8
寸法
 48
50.0
100
AcDbDimension
  2
*D45
 10
2588.970589276523
 20
706.3240511224249
 30
0.0
 11
1969.060022905491
 21
706.3240511224249
 31
0.0
 12
-3742.925985830444
 22
-6453.628869860112
 32
0.0
 70
   128
  1
有効開口部間口\P<>
 71
     5
 42
1266.0
  3
INABA_S40G
100
AcDbAlignedDimension
 13
1322.970589276523
 23
1315.494269174465
 33
0.0
 14
2588.970589276523
 24
1315.494269174465
 34
0.0
100
AcDbRotatedDimension
1001
ACAD
1000
DSTYLE
1002
{
1070
   341
1005
0
1002
}
  0
LINE
  5
18CD1
330
18C7A
100
AcDbEntity
  8
部品1
100
AcDbLine
 10
3409.970589276524
 20
1392.494269174465
 30
0.0
 11
3437.970589276523
 21
1392.494269174465
 31
0.0
  0
DIMENSION
  5
18CD2
330
18C7A
100
AcDbEntity
  8
寸法
100
AcDbDimension
  2
*D46
 10
3674.266172669749
 20
1315.494269174465
 30
0.0
 11
3674.266172669748
 21
1177.494269174462
 31
0.0
 12
-3742.925985830444
 22
-6453.628869860112
 32
0.0
 70
   128
 71
     5
 42
77.0
  3
INABA_S40
100
AcDbAlignedDimension
 13
3437.970589276523
 23
1392.494269174465
 33
0.0
 14
3436.970589276523
 24
1315.494269174465
 34
0.0
 50
90.0
100
AcDbRotatedDimension
1001
ACAD
1000
DSTYLE
1002
{
1070
    41
1040
0.5
1070
    44
1040
1.0
1070
   147
1040
0.8
1070
   271
1070
     2
1070
   272
1070
     2
1070
   289
1070
     3
1070
   340
1005
F706
1070
   343
1005
164B4
1070
   344
1005
164B4
1002
}
  0
LINE
  5
18CD3
330
18C7A
100
AcDbEntity
  8
部品1
100
AcDbLine
 10
3437.970589276523
 20
1315.494269174465
 30
0.0
 11
3437.970589276523
 21
1392.494269174465
 31
0.0
  0
LINE
  5
18CD4
330
18C7A
100
AcDbEntity
  8
部品1
100
AcDbLine
 10
3398.970589276523
 20
1388.494269174465
 30
0.0
 11
3409.970589276524
 21
1388.494269174465
 31
0.0
  0
LINE
  5
18CD5
330
18C7A
100
AcDbEntity
  8
部品1
100
AcDbLine
 10
3407.970589276523
 20
1324.494269174465
 30
0.0
 11
3407.970589276523
 21
1315.494269174465
 31
0.0
  0
LINE
  5
18CD6
330
18C7A
100
AcDbEntity
  8
部品1
100
AcDbLine
 10
3398.970589276523
 20
1324.494269174465
 30
0.0
 11
3407.970589276523
 21
1324.494269174465
 31
0.0
  0
LINE
  5
18CD7
330
18C7A
100
AcDbEntity
  8
部品1
100
AcDbLine
 10
3398.970589276523
 20
1388.494269174465
 30
0.0
 11
3398.970589276523
 21
1324.494269174465
 31
0.0
  0
LINE
  5
18CD8
330
18C7A
100
AcDbEntity
  8
部品1
100
AcDbLine
 10
3409.970589276524
 20
1419.494269174465
 30
0.0
 11
3409.970589276524
 21
1388.494269174465
 31
0.0
  0
LINE
  5
18CD9
330
18C7A
100
AcDbEntity
  8
部品1
100
AcDbLine
 10
1322.970589276523
 20
1388.494269174465
 30
0.0
 11
1311.970589276523
 21
1388.494269174465
 31
0.0
  0
LINE
  5
18CDA
330
18C7A
100
AcDbEntity
  8
部品1
100
AcDbLine
 10
1283.970589276523
 20
1392.494269174465
 30
0.0
 11
1311.970589276523
 21
1392.494269174465
 31
0.0
  0
LINE
  5
18CDB
330
18C7A
100
AcDbEntity
  8
部品1
100
AcDbLine
 10
1313.970589276523
 20
1324.494269174465
 30
0.0
 11
1313.970589276523
 21
1315.494269174465
 31
0.0
  0
LINE
  5
18CDC
330
18C7A
100
AcDbEntity
  8
部品1
100
AcDbLine
 10
1322.970589276523
 20
1324.494269174465
 30
0.0
 11
1313.970589276523
 21
1324.494269174465
 31
0.0
  0
LINE
  5
18CDD
330
18C7A
100
AcDbEntity
  8
部品1
100
AcDbLine
 10
1313.970589276523
 20
1315.494269174465
 30
0.0
 11
1283.970589276523
 21
1315.494269174465
 31
0.0
  0
LINE
  5
18CDE
330
18C7A
100
AcDbEntity
  8
部品1
100
AcDbLine
 10
1283.970589276523
 20
1315.494269174465
 30
0.0
 11
1283.970589276523
 21
1392.494269174465
 31
0.0
  0
LINE
  5
18CDF
330
18C7A
100
AcDbEntity
  8
部品1
100
AcDbLine
 10
1322.970589276523
 20
1388.494269174465
 30
0.0
 11
1322.970589276523
 21
1324.494269174465
 31
0.0
  0
LINE
  5
18CE0
330
18C7A
100
AcDbEntity
  8
部品1
100
AcDbLine
 10
1311.970589276523
 20
1419.494269174462
 30
0.0
 11
1311.970589276523
 21
1388.494269174465
 31
0.0
  0
LINE
  5
18CE1
330
18C7A
100
AcDbEntity
  8
部品1
100
AcDbLine
 10
1311.970589276523
 20
1419.494269174462
 30
0.0
 11
3409.970589276524
 21
1419.494269174465
 31
0.0
  0
LINE
  5
18CE2
330
18C7A
100
AcDbEntity
  8
部品1
100
AcDbLine
 10
3407.970589276523
 20
1315.494269174465
 30
0.0
 11
3437.970589276523
 21
1315.494269174465
 31
0.0
  0
LINE
  5
18CE3
330
18C7A
100
AcDbEntity
  8
部品1
100
AcDbLine
 10
1313.970589276523
 20
1315.494269174465
 30
0.0
 11
3410.970589276523
 21
1315.494269174465
 31
0.0
  0
LINE
  5
18CE4
330
18C7A
100
AcDbEntity
  8
細線
  6
Continuous
 62
     5
100
AcDbLine
 10
2689.970589276527
 20
1354.494269174462
 30
0.0
 11
2689.970589276527
 21
1354.494269174462
 31
0.0
  0
LINE
  5
18CE5
330
18C7A
100
AcDbEntity
  8
細線
  6
Continuous
 62
     5
100
AcDbLine
 10
2682.470589276527
 20
1354.494269174462
 30
0.0
 11
2682.470589276527
 21
1354.494269174462
 31
0.0
  0
LINE
  5
18CE6
330
18C7A
100
AcDbEntity
  8
細線
  6
Continuous
 62
     5
100
AcDbLine
 10
2676.470589276527
 20
1354.494269174462
 30
0.0
 11
2676.470589276527
 21
1354.494269174462
 31
0.0
  0
LINE
  5
18CE7
330
18C7A
100
AcDbEntity
  8
細線
  6
Continuous
 62
     5
100
AcDbLine
 10
2743.970589276527
 20
1373.494269174462
 30
0.0
 11
2743.970589276527
 21
1373.494269174462
 31
0.0
  0
LINE
  5
18CE8
330
18C7A
100
AcDbEntity
  8
細線
 48
50.0
100
AcDbLine
 10
1336.970593930116
 20
1341.094443351418
 30
0.0
 11
1336.970593930113
 21
1349.490593759059
 31
0.0
  0
LINE
  5
18CE9
330
18C7A
100
AcDbEntity
  8
細線
 48
50.0
100
AcDbLine
 10
1336.970593930113
 20
1349.490593759059
 30
0.0
 11
1322.970589276523
 21
1349.490593759057
 31
0.0
  0
LINE
  5
18CEA
330
18C7A
100
AcDbEntity
  8
細線
 48
50.0
100
AcDbLine
 10
2087.970593930113
 20
1337.644443351419
 30
0.0
 11
2087.970593930113
 21
1342.494443351421
 31
0.0
  0
LINE
  5
18CEB
330
18C7A
100
AcDbEntity
  8
細線
 48
50.0
100
AcDbLine
 10
2087.970593930113
 20
1342.494443351421
 30
0.0
 11
2102.970593930113
 21
1342.494443351421
 31
0.0
  0
LINE
  5
18CEC
330
18C7A
100
AcDbEntity
  8
細線
 48
50.0
100
AcDbLine
 10
2102.970593930113
 20
1342.494443351421
 30
0.0
 11
2102.970593930115
 21
1349.494443351419
 31
0.0
  0
LINE
  5
18CED
330
18C7A
100
AcDbEntity
  8
細線
 48
50.0
100
AcDbLine
 10
2102.970593930115
 20
1349.494443351419
 30
0.0
 11
2117.970593930113
 21
1349.494443351419
 31
0.0
  0
LINE
  5
18CEE
330
18C7A
100
AcDbEntity
  8
細線
 48
50.0
100
AcDbLine
 10
2117.970593930113
 20
1349.494443351419
 30
0.0
 11
2117.970593930113
 21
1320.494443351421
 31
0.0
  0
LINE
  5
18CEF
330
18C7A
100
AcDbEntity
  8
細線
 48
50.0
100
AcDbLine
 10
1313.970589276523
 20
1320.491777694889
 30
0.0
 11
1527.970593930113
 21
1320.494460905133
 31
0.0
  0
LINE
  5
18CF0
330
18C7A
100
AcDbEntity
  8
細線
 48
50.0
100
AcDbLine
 10
2017.970593930113
 20
1320.494443351421
 30
0.0
 11
2117.970593930113
 21
1320.494443351421
 31
0.0
  0
LINE
  5
18CF1
330
18C7A
100
AcDbEntity
  8
細線
 48
50.0
100
AcDbLine
 10
1737.970593930113
 20
1320.494443351419
 30
0.0
 11
1807.970593930113
 21
1320.494443351423
 31
0.0
  0
LINE
  5
18CF2
330
18C7A
100
AcDbEntity
  8
細線
 48
50.0
100
AcDbLine
 10
1750.832558942642
 20
1320.494443351419
 30
0.0
 11
1756.588076525309
 21
1338.765294641913
 31
0.0
  0
LINE
  5
18CF3
330
18C7A
100
AcDbEntity
  8
細線
 48
50.0
100
AcDbLine
 10
1756.588076525309
 20
1338.765294641913
 30
0.0
 11
1767.516525005743
 21
1338.765294641911
 31
0.0
  0
ARC
  5
18CF4
330
18C7A
100
AcDbEntity
  8
細線
 48
50.0
100
AcDbCircle
 10
1767.516525005743
 20
1337.765294641911
 30
0.0
 40
1.0
100
AcDbArc
 50
24.62431835207225
 51
90.0
  0
ARC
  5
18CF5
330
18C7A
100
AcDbEntity
  8
細線
 48
50.0
100
AcDbCircle
 10
1778.425237120377
 20
1337.765294641911
 30
0.0
 40
1.0
100
AcDbArc
 50
90.0
 51
155.3756816479277
  0
ARC
  5
18CF6
330
18C7A
100
AcDbEntity
  8
細線
 48
50.0
100
AcDbCircle
 10
1772.970881063058
 20
1340.265294641911
 30
0.0
 40
5.0
100
AcDbArc
 50
204.6243183520723
 51
335.3756816479278
  0
LINE
  5
18CF7
330
18C7A
100
AcDbEntity
  8
細線
 48
50.0
100
AcDbLine
 10
1778.425237120377
 20
1338.765294641911
 30
0.0
 11
1789.35368560081
 21
1338.765294641913
 31
0.0
  0
LINE
  5
18CF8
330
18C7A
100
AcDbEntity
  8
細線
 48
50.0
100
AcDbLine
 10
1789.35368560081
 20
1338.765294641913
 30
0.0
 11
1795.109203183478
 21
1320.494443351423
 31
0.0
  0
LINE
  5
18CF9
330
18C7A
100
AcDbEntity
  8
細線
 48
50.0
100
AcDbLine
 10
2087.970593930113
 20
1341.094443351419
 30
0.0
 11
1336.970593930116
 21
1341.094443351418
 31
0.0
  0
LINE
  5
18CFA
330
18C7A
100
AcDbEntity
  8
細線
 48
50.0
100
AcDbLine
 10
1947.970593930113
 20
1320.494443351421
 30
0.0
 11
1877.970593930113
 21
1320.494443351421
 31
0.0
  0
LINE
  5
18CFB
330
18C7A
100
AcDbEntity
  8
細線
100
AcDbLine
 10
1667.970593930113
 20
1320.494443351421
 30
0.0
 11
1597.970602115529
 21
1320.494443351421
 31
0.0
  0
LINE
  5
18CFC
330
18C7A
100
AcDbEntity
  8
細線
 48
50.0
100
AcDbLine
 10
2741.970584622936
 20
1375.094487209288
 30
0.0
 11
2106.970593930113
 21
1375.094487209284
 31
0.0
  0
LINE
  5
18CFD
330
18C7A
100
AcDbEntity
  8
細線
 48
50.0
100
AcDbLine
 10
2106.970593930113
 20
1371.990637616925
 30
0.0
 11
2106.970593930113
 21
1376.490637616925
 31
0.0
  0
LINE
  5
18CFE
330
18C7A
100
AcDbEntity
  8
細線
 48
50.0
100
AcDbLine
 10
2106.970593930113
 20
1376.490637616925
 30
0.0
 11
2091.970593930113
 21
1376.490637616925
 31
0.0
  0
LINE
  5
18CFF
330
18C7A
100
AcDbEntity
  8
細線
 48
50.0
100
AcDbLine
 10
2091.970593930113
 20
1376.490637616925
 30
0.0
 11
2091.970593930113
 21
1383.490637616927
 31
0.0
  0
LINE
  5
18D00
330
18C7A
100
AcDbEntity
  8
細線
 48
50.0
100
AcDbLine
 10
2091.970593930113
 20
1383.490637616927
 30
0.0
 11
2076.970593930115
 21
1383.490637616924
 31
0.0
  0
LINE
  5
18D01
330
18C7A
100
AcDbEntity
  8
細線
 48
50.0
100
AcDbLine
 10
2076.970593930115
 20
1383.490637616924
 30
0.0
 11
2076.970593930115
 21
1345.890409513813
 31
0.0
  0
LINE
  5
18D02
330
18C7A
100
AcDbEntity
  8
細線
 48
50.0
100
AcDbLine
 10
2076.970593930115
 20
1345.890409513813
 30
0.0
 11
2096.970601231289
 21
1345.890451063353
 31
0.0
  0
LINE
  5
18D03
330
18C7A
100
AcDbEntity
  8
細線
 48
50.0
100
AcDbLine
 10
2096.970556362348
 20
1354.493912699161
 30
0.0
 11
2096.970601231289
 21
1345.890451063353
 31
0.0
  0
LINE
  5
18D04
330
18C7A
100
AcDbEntity
  8
細線
 48
50.0
100
AcDbLine
 10
2741.970584622936
 20
1371.644487209287
 30
0.0
 11
2741.970584622936
 21
1376.494487209284
 31
0.0
  0
LINE
  5
18D05
330
18C7A
100
AcDbEntity
  8
細線
 48
50.0
100
AcDbLine
 10
2741.970584622936
 20
1376.494487209284
 30
0.0
 11
2756.970584622934
 21
1376.494487209285
 31
0.0
  0
LINE
  5
18D06
330
18C7A
100
AcDbEntity
  8
細線
 48
50.0
100
AcDbLine
 10
2756.970584622934
 20
1376.494487209285
 30
0.0
 11
2756.970596256909
 21
1383.494487209331
 31
0.0
  0
LINE
  5
18D07
330
18C7A
100
AcDbEntity
  8
細線
 48
50.0
100
AcDbLine
 10
2756.970596256909
 20
1383.494487209331
 30
0.0
 11
2771.970594427439
 21
1383.494487209329
 31
0.0
  0
LINE
  5
18D08
330
18C7A
100
AcDbEntity
  8
細線
 48
50.0
100
AcDbLine
 10
2771.970594427439
 20
1383.494487209329
 30
0.0
 11
2771.970584125617
 21
1354.494281037055
 31
0.0
  0
LINE
  5
18D09
330
18C7A
100
AcDbEntity
  8
細線
 48
50.0
100
AcDbLine
 10
2458.070304175992
 20
1354.494278397076
 30
0.0
 11
2389.470863838818
 21
1354.494283787084
 31
0.0
  0
LINE
  5
18D0A
330
18C7A
100
AcDbEntity
  8
細線
 48
50.0
100
AcDbLine
 10
2096.970556362348
 20
1354.493912699161
 30
0.0
 11
2108.203245717057
 21
1354.494095652309
 31
0.0
  0
ARC
  5
18D0B
330
18C7A
100
AcDbEntity
  8
細線
 48
50.0
100
AcDbCircle
 10
2114.785538024393
 20
1353.294259565922
 30
0.0
 40
1.8
100
AcDbArc
 50
270.0006665777295
 51
345.000555481349
  0
LINE
  5
18D0C
330
18C7A
100
AcDbEntity
  8
細線
 48
50.0
100
AcDbLine
 10
2116.771971470473
 20
1353.753100023201
 30
0.0
 11
2116.524209028273
 21
1352.828402141094
 31
0.0
  0
LINE
  5
18D0D
330
18C7A
100
AcDbEntity
  8
細線
 48
50.0
100
AcDbLine
 10
2114.785558965548
 20
1351.494259566043
 30
0.0
 11
2111.155631546781
 21
1351.494217335563
 31
0.0
  0
ARC
  5
18D0E
330
18C7A
100
AcDbEntity
  8
細線
 48
50.0
100
AcDbCircle
 10
2111.155610605627
 20
1353.29421733544
 30
0.0
 40
1.8
100
AcDbArc
 50
195.0010443049965
 51
270.0006665777295
  0
LINE
  5
18D0F
330
18C7A
100
AcDbEntity
  8
細線
 48
50.0
100
AcDbLine
 10
2109.169183113368
 20
1353.752932303007
 30
0.0
 11
2109.416952609882
 21
1352.828311364425
 31
0.0
  0
ARC
  5
18D10
330
18C7A
100
AcDbEntity
  8
細線
 48
50.0
100
AcDbCircle
 10
2108.203262004622
 20
1353.494095652444
 30
0.0
 40
1.0
100
AcDbArc
 50
15.00104430499651
 51
90.00093320877969
  0
LINE
  5
18D11
330
18C7A
100
AcDbEntity
  8
細線
 48
50.0
100
AcDbLine
 10
2117.737892825577
 20
1354.494290342714
 30
0.0
 11
2118.679652976481
 21
1354.494296916564
 31
0.0
  0
ARC
  5
18D12
330
18C7A
100
AcDbEntity
  8
細線
 48
50.0
100
AcDbCircle
 10
2117.737899805961
 20
1353.49429034274
 30
0.0
 40
1.0
100
AcDbArc
 50
90.0003999466794
 51
165.000555481349
  0
LINE
  5
18D13
330
18C7A
100
AcDbEntity
  8
細線
 48
50.0
100
AcDbLine
 10
2669.470584622926
 20
1354.494281037055
 30
0.0
 11
2771.970584125617
 21
1354.494281037055
 31
0.0
  0
LINE
  5
18D14
330
18C7A
100
AcDbEntity
  8
細線
 48
50.0
100
AcDbLine
 10
2179.47061994182
 20
1354.494289224422
 30
0.0
 11
2118.370558714898
 21
1354.494296916564
 31
0.0
  0
LINE
  5
18D15
330
18C7A
100
AcDbEntity
  8
細線
 48
50.0
100
AcDbLine
 10
2599.470584622926
 20
1354.494281037057
 30
0.0
 11
2529.470584622926
 21
1354.494281037055
 31
0.0
  0
LINE
  5
18D16
330
18C7A
100
AcDbEntity
  8
細線
 48
50.0
100
AcDbLine
 10
2319.470584622926
 20
1354.494281037054
 30
0.0
 11
2249.470567335051
 21
1354.494281037057
 31
0.0
  0
ARC
  5
18D17
330
18C7A
100
AcDbEntity
  8
細線
 48
50.0
100
AcDbCircle
 10
2756.170589276533
 20
1387.694269174466
 30
0.0
 40
0.8
100
AcDbArc
 50
359.9997333689499
 51
89.99986668437072
  0
ARC
  5
18D18
330
18C7A
100
AcDbEntity
  8
細線
 48
50.0
100
AcDbCircle
 10
2763.770596101631
 20
1387.694280343081
 30
0.0
 40
0.8
100
AcDbArc
 50
90.00014387753465
 51
179.9997333689498
  0
LINE
  5
18D19
330
18C7A
100
AcDbEntity
  8
細線
 48
50.0
100
AcDbLine
 10
2756.170591137969
 20
1388.494269174465
 30
0.0
 11
2750.970589276525
 21
1388.494269174465
 31
0.0
  0
ARC
  5
18D1A
330
18C7A
100
AcDbEntity
  8
細線
 48
50.0
100
AcDbCircle
 10
2757.670589276524
 20
1386.194269174464
 30
0.0
 40
0.7
100
AcDbArc
 50
180.0
 51
270.0
  0
ARC
  5
18D1B
330
18C7A
100
AcDbEntity
  8
細線
 48
50.0
100
AcDbCircle
 10
2762.270589276524
 20
1386.194269174464
 30
0.0
 40
0.7
100
AcDbArc
 50
270.0
 51
0.0
  0
LINE
  5
18D1C
330
18C7A
100
AcDbEntity
  8
細線
 48
50.0
100
AcDbLine
 10
2762.970589276525
 20
1386.194269174464
 30
0.0
 11
2762.970596101639
 21
1387.694284065954
 31
0.0
  0
LINE
  5
18D1D
330
18C7A
100
AcDbEntity
  8
細線
 48
50.0
100
AcDbLine
 10
2757.670589276524
 20
1385.494269174465
 30
0.0
 11
2762.270589276524
 21
1385.494269174465
 31
0.0
  0
LINE
  5
18D1E
330
18C7A
100
AcDbEntity
  8
細線
 48
50.0
100
AcDbLine
 10
2756.970589276525
 20
1387.694269174466
 30
0.0
 11
2756.970589276525
 21
1386.194269174464
 31
0.0
  0
LINE
  5
18D1F
330
18C7A
100
AcDbEntity
  8
細線
 48
50.0
100
AcDbLine
 10
3382.570589276527
 20
1418.494269174465
 30
0.0
 11
2745.970589276525
 21
1418.494269174463
 31
0.0
  0
LINE
  5
18D20
330
18C7A
100
AcDbEntity
  8
細線
 48
50.0
100
AcDbLine
 10
3408.470589276525
 20
1413.494269174467
 30
0.0
 11
3392.570589276527
 21
1413.494269174465
 31
0.0
  0
LINE
  5
18D21
330
18C7A
100
AcDbEntity
  8
細線
 48
50.0
100
AcDbLine
 10
3392.570589276526
 20
1413.494269174465
 30
0.0
 11
3382.570589276527
 21
1418.494269174465
 31
0.0
  0
LINE
  5
18D22
330
18C7A
100
AcDbEntity
  8
細線
100
AcDbLine
 10
2993.470589276525
 20
1388.494269174465
 30
0.0
 11
2993.470589276525
 21
1417.794269174464
 31
0.0
  0
LINE
  5
18D23
330
18C7A
100
AcDbEntity
  8
細線
100
AcDbLine
 10
2993.470589276525
 20
1417.794269174464
 30
0.0
 11
3013.470589276525
 21
1417.794269174464
 31
0.0
  0
LINE
  5
18D24
330
18C7A
100
AcDbEntity
  8
細線
100
AcDbLine
 10
3013.470589276525
 20
1388.494269174465
 30
0.0
 11
3013.470589276525
 21
1417.794269174464
 31
0.0
  0
LINE
  5
18D25
330
18C7A
100
AcDbEntity
  8
細線
100
AcDbLine
 10
3170.720589276524
 20
1388.494269174465
 30
0.0
 11
3100.720589276523
 21
1388.494269174465
 31
0.0
  0
LINE
  5
18D26
330
18C7A
100
AcDbEntity
  8
細線
 48
50.0
100
AcDbLine
 10
2890.720589276525
 20
1388.494269174465
 30
0.0
 11
2763.766368849365
 21
1388.494269174465
 31
0.0
  0
LINE
  5
18D27
330
18C7A
100
AcDbEntity
  8
細線
100
AcDbLine
 10
3030.720589276525
 20
1388.494269174465
 30
0.0
 11
2960.720589276525
 21
1388.494269174465
 31
0.0
  0
LINE
  5
18D28
330
18C7A
100
AcDbEntity
  8
細線
 48
50.0
100
AcDbLine
 10
2750.970589276525
 20
1380.494269174465
 30
0.0
 11
2750.970589276525
 21
1388.494269174465
 31
0.0
  0
LINE
  5
18D29
330
18C7A
100
AcDbEntity
  8
細線
 48
50.0
100
AcDbLine
 10
2730.970589276524
 20
1380.494269174467
 30
0.0
 11
2750.970589276525
 21
1380.494269174465
 31
0.0
  0
LINE
  5
18D2A
330
18C7A
100
AcDbEntity
  8
細線
 48
50.0
100
AcDbLine
 10
2745.970589276525
 20
1418.494269174465
 30
0.0
 11
2745.970589276525
 21
1413.494269174465
 31
0.0
  0
LINE
  5
18D2B
330
18C7A
100
AcDbEntity
  8
細線
 48
50.0
100
AcDbLine
 10
2730.970589276525
 20
1418.494269174463
 30
0.0
 11
2745.970589276525
 21
1418.494269174465
 31
0.0
  0
LINE
  5
18D2C
330
18C7A
100
AcDbEntity
  8
細線
 48
50.0
100
AcDbLine
 10
2730.970589276524
 20
1380.494269174467
 30
0.0
 11
2730.970589276525
 21
1418.494269174463
 31
0.0
  0
LINE
  5
18D2D
330
18C7A
100
AcDbEntity
  8
細線
100
AcDbLine
 10
3398.970589276523
 20
1388.494269174465
 30
0.0
 11
3240.720589276525
 21
1388.494269174465
 31
0.0
  0
LINE
  5
18D2E
330
18C7A
100
AcDbEntity
  8
細線
 48
50.0
100
AcDbLine
 10
3408.470589276525
 20
1413.494269174467
 30
0.0
 11
3408.470589276524
 21
1388.494269174465
 31
0.0
  0
TEXT
  5
18D2F
330
18C7A
100
AcDbEntity
  8
部品1
100
AcDbText
 10
1860.154865991392
 20
46.99880823813145
 30
0.0
 40
135.0
  1
平面図
  7
STYLE2
100
AcDbText
  0
LWPOLYLINE
  5
18D30
330
18C7A
100
AcDbEntity
  8
部品1
100
AcDbPolyline
 90
        4
 70
     1
 43
0.0
 10
1770.23525616235
 20
239.8923374566548
 10
1770.23525616235
 20
0.0000159111223184
 10
2533.705922390791
 20
0.0000159111223184
 10
2533.705922390791
 20
239.8923374566548
  0
LINE
  5
18D31
330
18C7A
100
AcDbEntity
  8
部品1
100
AcDbLine
 10
1534.470589276487
 20
3154.494269174626
 30
0.0
 11
2769.470589276552
 21
3154.494269174626
 31
0.0
  0
LINE
  5
18D32
330
18C7A
100
AcDbEntity
  8
部品1
 48
50.0
100
AcDbLine
 10
1311.970589276523
 20
1420.494269174462
 30
0.0
 11
3411.970589276523
 21
1420.494269174465
 31
0.0
  0
LINE
  5
18D33
330
18C7A
100
AcDbEntity
  8
部品1
 48
50.0
100
AcDbLine
 10
471.9705892765232
 20
1392.494269174465
 30
0.0
 11
1311.970589276523
 21
1392.494269174465
 31
0.0
  0
DIMENSION
  5
18D34
330
18C7A
100
AcDbEntity
  8
寸法
100
AcDbDimension
  2
*D44
 10
2710.234916278077
 20
2488.887829538828
 30
0.0
 11
2338.318822490183
 21
2488.887829538828
 31
0.0
 12
-3742.925985830444
 22
-6453.628869860112
 32
0.0
 70
   128
 71
     5
 42
1231.00000000007
  3
INABA_S40G
100
AcDbAlignedDimension
 13
1536.470589276486
 23
2702.494269174557
 33
0.0
 14
2767.470589276556
 24
2702.494269174549
 34
0.0
100
AcDbRotatedDimension
1001
ACAD
1000
DSTYLE
1002
{
1002
}
  0
LINE
  5
18D35
330
18C7A
100
AcDbEntity
  8
部品1
100
AcDbLine
 10
1536.470589276487
 20
2702.494269174557
 30
0.0
 11
2767.470589276554
 21
2702.494269174615
 31
0.0
  0
LINE
  5
18D36
330
18C7A
100
AcDbEntity
  8
部品1
100
AcDbLine
 10
1536.470589276487
 20
3152.494269174557
 30
0.0
 11
2767.470589276556
 21
3152.494269174615
 31
0.0
  0
LINE
  5
18D37
330
18C7A
100
AcDbEntity
  8
細線
 48
50.0
100
AcDbLine
 10
1508.470589276487
 20
3152.494269174558
 30
0.0
 11
445.4705892765559
 21
2702.494269174509
 31
0.0
  0
LINE
  5
18D38
330
18C7A
100
AcDbEntity
  8
細線
 48
50.0
100
AcDbLine
 10
1508.470589276487
 20
2702.494269174558
 30
0.0
 11
445.4705892765542
 21
3152.494269174509
 31
0.0
  0
LINE
  5
18D39
330
18C7A
100
AcDbEntity
  8
部品1
100
AcDbLine
 10
1556.970589276487
 20
3172.494269174611
 30
0.0
 11
1556.970589276487
 21
3154.494269174611
 31
0.0
  0
LINE
  5
18D3A
330
18C7A
100
AcDbEntity
  8
部品1
100
AcDbLine
 10
1556.970589276487
 20
3172.494269174611
 30
0.0
 11
1550.970589276487
 21
3172.494269174611
 31
0.0
  0
LINE
  5
18D3B
330
18C7A
100
AcDbEntity
  8
部品1
100
AcDbLine
 10
1534.470589276487
 20
3146.494269174608
 30
0.0
 11
1509.470589276487
 21
3146.494269174611
 31
0.0
  0
LINE
  5
18D3C
330
18C7A
100
AcDbEntity
  8
部品1
100
AcDbLine
 10
1486.970589276487
 20
3172.494269174611
 30
0.0
 11
1486.970589276487
 21
3154.494269174611
 31
0.0
  0
LINE
  5
18D3D
330
18C7A
100
AcDbEntity
  8
部品1
100
AcDbLine
 10
1492.970589276487
 20
3172.494269174611
 30
0.0
 11
1486.970589276487
 21
3172.494269174611
 31
0.0
  0
LINE
  5
18D3E
330
18C7A
100
AcDbEntity
  8
部品1
100
AcDbLine
 10
1534.470589276487
 20
2702.494269174615
 30
0.0
 11
1509.470589276487
 21
2702.494269174615
 31
0.0
  0
LINE
  5
18D3F
330
18C7A
100
AcDbEntity
  8
部品1
 48
50.0
100
AcDbLine
 10
1536.470589276487
 20
3152.494269174611
 30
0.0
 11
1536.470589276487
 21
2702.494269174615
 31
0.0
  0
LINE
  5
18D40
330
18C7A
100
AcDbEntity
  8
部品1
 48
50.0
100
AcDbLine
 10
1508.470589276487
 20
3152.494269174607
 30
0.0
 11
1508.470589276487
 21
2702.494269174615
 31
0.0
  0
LINE
  5
18D41
330
18C7A
100
AcDbEntity
  8
部品1
 48
50.0
100
AcDbLine
 10
1534.470589276487
 20
3154.494269174618
 30
0.0
 11
1534.470589276487
 21
2702.494269174615
 31
0.0
  0
LINE
  5
18D42
330
18C7A
100
AcDbEntity
  8
部品1
 48
50.0
100
AcDbLine
 10
1509.470589276487
 20
3154.494269174615
 30
0.0
 11
1509.470589276487
 21
2702.494269174615
 31
0.0
  0
LINE
  5
18D43
330
18C7A
100
AcDbEntity
  8
部品1
100
AcDbLine
 10
3411.970589276556
 20
1392.494269174582
 30
0.0
 11
3411.970589276556
 21
1420.494269174596
 31
0.0
  0
LINE
  5
18D44
330
18C7A
100
AcDbEntity
  8
部品1
100
AcDbLine
 10
1311.970589276523
 20
1392.494269174596
 30
0.0
 11
1311.970589276523
 21
1420.494269174596
 31
0.0
  0
LINE
  5
18D45
330
18C7A
100
AcDbEntity
  8
部品1
100
AcDbLine
 10
891.9705892765232
 20
1392.494269174596
 30
0.0
 11
891.9705892765232
 21
1420.494269174596
 31
0.0
  0
LINE
  5
18D46
330
18C7A
100
AcDbEntity
  8
部品1
100
AcDbLine
 10
3411.97058927652
 20
3182.494269174477
 30
0.0
 11
3411.970589276523
 21
3154.494269174477
 31
0.0
  0
LINE
  5
18D47
330
18C7A
100
AcDbEntity
  8
部品1
100
AcDbLine
 10
2571.97058927652
 20
3182.494269174477
 30
0.0
 11
2571.970589276523
 21
3154.494269174477
 31
0.0
  0
LINE
  5
18D48
330
18C7A
100
AcDbEntity
  8
部品1
100
AcDbLine
 10
2991.97058927652
 20
3182.494269174477
 30
0.0
 11
2991.970589276523
 21
3154.494269174477
 31
0.0
  0
LINE
  5
18D49
330
18C7A
100
AcDbEntity
  8
部品1
100
AcDbLine
 10
2151.970589276519
 20
3182.494269174477
 30
0.0
 11
2151.970589276523
 21
3154.494269174477
 31
0.0
  0
LINE
  5
18D4A
330
18C7A
100
AcDbEntity
  8
部品1
100
AcDbLine
 10
1731.970589276519
 20
3182.494269174477
 30
0.0
 11
1731.970589276523
 21
3154.494269174477
 31
0.0
  0
LINE
  5
18D4B
330
18C7A
100
AcDbEntity
  8
部品1
100
AcDbLine
 10
1311.970589276519
 20
3182.494269174477
 30
0.0
 11
1311.970589276523
 21
3154.494269174477
 31
0.0
  0
LINE
  5
18D4C
330
18C7A
100
AcDbEntity
  8
部品1
100
AcDbLine
 10
891.9705892765195
 20
3182.494269174477
 30
0.0
 11
891.9705892765232
 21
3154.494269174477
 31
0.0
  0
LINE
  5
18D4D
330
18C7A
100
AcDbEntity
  8
部品1
100
AcDbLine
 10
471.9705892765232
 20
1392.494269174596
 30
0.0
 11
471.9705892765232
 21
1420.494269174596
 31
0.0
  0
LINE
  5
18D4E
330
18C7A
100
AcDbEntity
  8
部品1
100
AcDbLine
 10
444.9705892765305
 20
1420.494269174558
 30
0.0
 11
3858.970589276556
 21
1420.494269174596
 31
0.0
  0
LINE
  5
18D4F
330
18C7A
100
AcDbEntity
  8
部品1
100
AcDbLine
 10
3831.970589276556
 20
1392.494269174596
 30
0.0
 11
3831.970589276556
 21
1420.494269174596
 31
0.0
  0
LINE
  5
18D50
330
18C7A
100
AcDbEntity
  8
部品1
100
AcDbLine
 10
3858.970589276556
 20
1447.494269174593
 30
0.0
 11
3886.970589276556
 21
1447.494269174593
 31
0.0
  0
LINE
  5
18D51
330
18C7A
100
AcDbEntity
  8
部品1
100
AcDbLine
 10
3858.970589276556
 20
1867.494269174607
 30
0.0
 11
3886.970589276556
 21
1867.494269174607
 31
0.0
  0
LINE
  5
18D52
330
18C7A
100
AcDbEntity
  8
部品1
100
AcDbLine
 10
444.9705892765305
 20
1867.49426917448
 30
0.0
 11
416.9705892765305
 21
1867.49426917448
 31
0.0
  0
LINE
  5
18D53
330
18C7A
100
AcDbEntity
  8
部品1
100
AcDbLine
 10
3830.470589276541
 20
1867.49426917458
 30
0.0
 11
473.4705892765396
 21
1867.49426917448
 31
0.0
  0
LINE
  5
18D54
330
18C7A
100
AcDbEntity
  8
部品1
100
AcDbLine
 10
3830.470589276541
 20
2287.49426917458
 30
0.0
 11
473.4705892765396
 21
2287.49426917448
 31
0.0
  0
LINE
  5
18D55
330
18C7A
100
AcDbEntity
  8
部品1
100
AcDbLine
 10
444.9705892765305
 20
2287.49426917448
 30
0.0
 11
416.9705892765305
 21
2287.49426917448
 31
0.0
  0
LINE
  5
18D56
330
18C7A
100
AcDbEntity
  8
部品1
100
AcDbLine
 10
3858.970589276556
 20
2287.494269174608
 30
0.0
 11
3886.970589276556
 21
2287.494269174608
 31
0.0
  0
LINE
  5
18D57
330
18C7A
100
AcDbEntity
  8
部品1
 48
50.0
100
AcDbLine
 10
2151.970589276551
 20
2702.494269174586
 30
0.0
 11
2151.970589276581
 21
1448.994269174494
 31
0.0
  0
LINE
  5
18D58
330
18C7A
100
AcDbEntity
  8
破線
 48
10.0
100
AcDbLine
 10
2959.470589276535
 20
1472.494269174522
 30
0.0
 11
2176.970589276532
 21
1472.494269174505
 31
0.0
  0
LINE
  5
18D59
330
18C7A
100
AcDbEntity
  8
破線
 48
10.0
100
AcDbLine
 10
3009.47058927653
 20
1448.994269174509
 30
0.0
 11
3009.47058927653
 21
2702.494269174615
 31
0.0
  0
LINE
  5
18D5A
330
18C7A
100
AcDbEntity
  8
破線
 48
10.0
100
AcDbLine
 10
2959.470589276535
 20
1448.994269174505
 30
0.0
 11
2959.470589276531
 21
2702.494269174615
 31
0.0
  0
LINE
  5
18D5B
330
18C7A
100
AcDbEntity
  8
破線
 48
10.0
100
AcDbLine
 10
1344.47058927653
 20
1448.994269174509
 30
0.0
 11
1344.47058927653
 21
2702.494269174615
 31
0.0
  0
LINE
  5
18D5C
330
18C7A
100
AcDbEntity
  8
破線
 48
10.0
100
AcDbLine
 10
1294.470589276534
 20
1448.994269174505
 30
0.0
 11
1294.47058927653
 21
2702.494269174615
 31
0.0
  0
DIMENSION
  5
18D5D
330
18C7A
100
AcDbEntity
  8
寸法
100
AcDbDimension
  2
*D43
 10
1451.234916278005
 20
2488.887829538828
 30
0.0
 11
916.0604668248634
 21
2488.887829538828
 31
0.0
 12
-3742.925985830444
 22
-6453.628869860112
 32
0.0
 70
   128
 71
     5
 42
1062.99999999993
  3
INABA_S40G
100
AcDbAlignedDimension
 13
445.4705892765559
 23
2702.494269174505
 33
0.0
 14
1508.470589276486
 24
2702.494269174558
 34
0.0
100
AcDbRotatedDimension
1001
ACAD
1000
DSTYLE
1002
{
1002
}
  0
LINE
  5
18D5E
330
18C7A
100
AcDbEntity
  8
破線
 48
10.0
100
AcDbLine
 10
1294.470589276534
 20
1472.494269174469
 30
0.0
 11
496.9705892765414
 21
1472.494269174476
 31
0.0
  0
LINE
  5
18D5F
330
18C7A
100
AcDbEntity
  8
部品1
100
AcDbLine
 10
3831.970589276556
 20
3182.494269174604
 30
0.0
 11
3831.970589276556
 21
3154.494269174604
 31
0.0
  0
LINE
  5
18D60
330
18C7A
100
AcDbEntity
  8
部品1
100
AcDbLine
 10
3831.970589276556
 20
3182.494269174626
 30
0.0
 11
3831.970589276556
 21
3154.494269174626
 31
0.0
  0
LINE
  5
18D61
330
18C7A
100
AcDbEntity
  8
部品1
100
AcDbLine
 10
3858.970589276556
 20
3127.494269174607
 30
0.0
 11
3886.970589276556
 21
3127.494269174607
 31
0.0
  0
LINE
  5
18D62
330
18C7A
100
AcDbEntity
  8
部品1
100
AcDbLine
 10
3858.970589276556
 20
2707.494269174608
 30
0.0
 11
3886.970589276556
 21
2707.494269174608
 31
0.0
  0
LINE
  5
18D63
330
18C7A
100
AcDbEntity
  8
部品1
100
AcDbLine
 10
3858.470589276556
 20
3152.494269174604
 30
0.0
 11
3858.470589276556
 21
2702.494269174608
 31
0.0
  0
LINE
  5
18D64
330
18C7A
100
AcDbEntity
  8
部品1
100
AcDbLine
 10
3886.970589276533
 20
1447.494269174593
 30
0.0
 11
3886.970589276531
 21
1392.494269174596
 31
0.0
  0
LINE
  5
18D65
330
18C7A
100
AcDbEntity
  8
部品1
 48
50.0
100
AcDbLine
 10
3830.470589276556
 20
1448.994269174596
 30
0.0
 11
3858.970589276554
 21
1420.494269174596
 31
0.0
  0
LINE
  5
18D66
330
18C7A
100
AcDbEntity
  8
部品1
100
AcDbLine
 10
3886.970589276531
 20
1392.494269174596
 30
0.0
 11
3835.970589276531
 21
1392.494269174596
 31
0.0
  0
LINE
  5
18D67
330
18C7A
100
AcDbEntity
  8
部品1
100
AcDbLine
 10
3858.970589276533
 20
1447.494269174593
 30
0.0
 11
3886.970589276531
 21
1447.494269174593
 31
0.0
  0
LINE
  5
18D68
330
18C7A
100
AcDbEntity
  8
部品1
100
AcDbLine
 10
3886.970589276556
 20
3182.494269174604
 30
0.0
 11
3886.970589276531
 21
1392.494269174596
 31
0.0
  0
DIMENSION
  5
18D69
330
18C7A
100
AcDbEntity
  8
寸法
100
AcDbDimension
  2
*D42
 10
4534.396935010967
 20
1447.494269174593
 30
0.0
 11
4534.396935010965
 21
2287.4942691746
 31
0.0
 12
-3742.925985830444
 22
-6453.628869860112
 32
0.0
 70
   128
  1
4X420=<>
 71
     5
 42
1680.000000000014
  3
INABA_S40G
100
AcDbAlignedDimension
 13
3886.970589276556
 23
3127.494269174607
 33
0.0
 14
3886.970589276531
 24
1447.494269174593
 34
0.0
 50
90.0
100
AcDbRotatedDimension
1001
ACAD
1000
DSTYLE
1002
{
1002
}
  0
LINE
  5
18D6A
330
18C7A
100
AcDbEntity
  8
部品1
100
AcDbLine
 10
3858.970589276556
 20
3154.494269174604
 30
0.0
 11
3858.970589276534
 21
1420.494269174596
 31
0.0
  0
DIMENSION
  5
18D6B
330
18C7A
100
AcDbEntity
  8
寸法
100
AcDbDimension
  2
*D41
 10
4213.82831513858
 20
2607.276453505718
 30
0.0
 11
4113.828315138579
 21
2832.276453505718
 31
0.0
 12
-3742.925985830444
 22
-6453.628869860112
 32
0.0
 71
     5
 42
449.9999999999963
  3
INABA_S40G
100
AcDbAlignedDimension
 13
3858.470589276556
 23
3152.494269174604
 33
0.0
 14
3858.470589276556
 24
2702.494269174608
 34
0.0
 50
90.0
100
AcDbRotatedDimension
1001
ACAD
1000
DSTYLE
1002
{
1002
}
  0
LINE
  5
18D6C
330
18C7A
100
AcDbEntity
  8
部品1
100
AcDbLine
 10
3830.470589276547
 20
2702.494269174608
 30
0.0
 11
3830.470589276556
 21
1448.994269174596
 31
0.0
  0
LINE
  5
18D6D
330
18C7A
100
AcDbEntity
  8
破線
 48
10.0
100
AcDbLine
 10
3806.970589276549
 20
2702.494269174608
 30
0.0
 11
3806.970589276558
 21
1472.494269174593
 31
0.0
  0
LINE
  5
18D6E
330
18C7A
100
AcDbEntity
  8
部品1
100
AcDbLine
 10
2769.470589276556
 20
3146.494269174608
 30
0.0
 11
2794.470589276556
 21
3146.494269174611
 31
0.0
  0
LINE
  5
18D6F
330
18C7A
100
AcDbEntity
  8
部品1
100
AcDbLine
 10
2810.970589276556
 20
3172.494269174611
 30
0.0
 11
2816.970589276556
 21
3172.494269174611
 31
0.0
  0
LINE
  5
18D70
330
18C7A
100
AcDbEntity
  8
部品1
100
AcDbLine
 10
2816.970589276556
 20
3172.494269174611
 30
0.0
 11
2816.970589276556
 21
3154.494269174611
 31
0.0
  0
LINE
  5
18D71
330
18C7A
100
AcDbEntity
  8
部品1
100
AcDbLine
 10
2746.970589276556
 20
3172.494269174611
 30
0.0
 11
2752.970589276556
 21
3172.494269174611
 31
0.0
  0
LINE
  5
18D72
330
18C7A
100
AcDbEntity
  8
部品1
100
AcDbLine
 10
2746.970589276556
 20
3172.494269174611
 30
0.0
 11
2746.970589276556
 21
3154.494269174611
 31
0.0
  0
LINE
  5
18D73
330
18C7A
100
AcDbEntity
  8
部品1
100
AcDbLine
 10
2769.470589276556
 20
2702.494269174615
 30
0.0
 11
2794.470589276556
 21
2702.494269174615
 31
0.0
  0
LINE
  5
18D74
330
18C7A
100
AcDbEntity
  8
部品1
 48
50.0
100
AcDbLine
 10
2794.470589276556
 20
3154.494269174615
 30
0.0
 11
2794.470589276556
 21
2702.494269174615
 31
0.0
  0
LINE
  5
18D75
330
18C7A
100
AcDbEntity
  8
部品1
 48
50.0
100
AcDbLine
 10
2769.470589276554
 20
3154.494269174618
 30
0.0
 11
2769.470589276556
 21
2702.494269174615
 31
0.0
  0
LINE
  5
18D76
330
18C7A
100
AcDbEntity
  8
部品1
 48
50.0
100
AcDbLine
 10
2795.470589276556
 20
3152.494269174607
 30
0.0
 11
2795.470589276556
 21
2702.494269174615
 31
0.0
  0
LINE
  5
18D77
330
18C7A
100
AcDbEntity
  8
部品1
 48
50.0
100
AcDbLine
 10
2767.470589276556
 20
3152.494269174611
 30
0.0
 11
2767.470589276556
 21
2702.494269174615
 31
0.0
  0
LINE
  5
18D78
330
18C7A
100
AcDbEntity
  8
破線
 48
10.0
100
AcDbLine
 10
2176.97058927653
 20
1448.994269174509
 30
0.0
 11
2176.97058927653
 21
2702.494269174588
 31
0.0
  0
LINE
  5
18D79
330
18C7A
100
AcDbEntity
  8
破線
 48
10.0
100
AcDbLine
 10
2126.970589276534
 20
1448.994269174505
 30
0.0
 11
2126.970589276531
 21
2702.494269174586
 31
0.0
  0
LINE
  5
18D7A
330
18C7A
100
AcDbEntity
  8
部品1
100
AcDbLine
 10
2794.470589276556
 20
3154.494269174622
 30
0.0
 11
3858.970589276556
 21
3154.494269174604
 31
0.0
  0
LINE
  5
18D7B
330
18C7A
100
AcDbEntity
  8
細線
 48
50.0
100
AcDbLine
 10
3858.470589276556
 20
2702.494269174608
 30
0.0
 11
2795.470589276556
 21
3152.494269174607
 31
0.0
  0
LINE
  5
18D7C
330
18C7A
100
AcDbEntity
  8
部品1
100
AcDbLine
 10
2795.470589276555
 20
2702.494269174615
 30
0.0
 11
3858.470589276556
 21
2702.494269174608
 31
0.0
  0
LINE
  5
18D7D
330
18C7A
100
AcDbEntity
  8
部品1
100
AcDbLine
 10
2795.470589276556
 20
3152.494269174611
 30
0.0
 11
3858.470589276556
 21
3152.494269174604
 31
0.0
  0
LINE
  5
18D7E
330
18C7A
100
AcDbEntity
  8
細線
 48
50.0
100
AcDbLine
 10
3858.470589276556
 20
3152.494269174604
 30
0.0
 11
2795.470589276555
 21
2702.494269174615
 31
0.0
  0
DIMENSION
  5
18D7F
330
18C7A
100
AcDbEntity
  8
寸法
100
AcDbDimension
  2
*D40
 10
3801.234916278101
 20
2488.887829538937
 30
0.0
 11
3318.360544398907
 21
2488.887829538937
 31
0.0
 12
-3742.925985830444
 22
-6453.628869860112
 32
0.0
 70
   128
 71
     5
 42
1063.000000000012
  3
INABA_S40G
100
AcDbAlignedDimension
 13
2795.470589276555
 23
2702.494269174615
 33
0.0
 14
3858.470589276567
 24
2702.494269174608
 34
0.0
100
AcDbRotatedDimension
1001
ACAD
1000
DSTYLE
1002
{
1002
}
  0
LINE
  5
18D80
330
18C7A
100
AcDbEntity
  8
破線
 48
10.0
100
AcDbLine
 10
3806.970589276556
 20
1472.494269174594
 30
0.0
 11
3009.47058927653
 21
1472.494269174523
 31
0.0
  0
DIMENSION
  5
18D81
330
18C7A
100
AcDbEntity
  8
寸法
100
AcDbDimension
  2
*D39
 10
4534.396935010941
 20
1392.494269174596
 30
0.0
 11
4534.39693501094
 21
1084.008987800356
 31
0.0
 12
-3742.925985830444
 22
-6453.628869860112
 32
0.0
 70
   128
 71
     5
 42
54.99999999999636
  3
INABA_S40G
100
AcDbAlignedDimension
 13
3886.970589276531
 23
1447.494269174593
 33
0.0
 14
3886.970589276531
 24
1392.494269174596
 34
0.0
 50
90.0
100
AcDbRotatedDimension
1001
ACAD
1000
DSTYLE
1002
{
1002
}
  0
LINE
  5
18D82
330
18C7A
100
AcDbEntity
  8
部品1
100
AcDbLine
 10
471.9705892765196
 20
3182.494269174477
 30
0.0
 11
471.9705892765232
 21
3154.494269174477
 31
0.0
  0
LINE
  5
18D83
330
18C7A
100
AcDbEntity
  8
部品1
100
AcDbLine
 10
471.9705892765559
 20
3182.494269174509
 30
0.0
 11
471.9705892765559
 21
3154.494269174509
 31
0.0
  0
LINE
  5
18D84
330
18C7A
100
AcDbEntity
  8
部品1
100
AcDbLine
 10
444.9705892765232
 20
3127.49426917448
 30
0.0
 11
416.9705892765232
 21
3127.49426917448
 31
0.0
  0
LINE
  5
18D85
330
18C7A
100
AcDbEntity
  8
部品1
100
AcDbLine
 10
444.9705892765305
 20
2707.49426917448
 30
0.0
 11
416.9705892765305
 21
2707.49426917448
 31
0.0
  0
LINE
  5
18D86
330
18C7A
100
AcDbEntity
  8
部品1
 48
50.0
100
AcDbLine
 10
445.4705892765542
 20
3152.494269174506
 30
0.0
 11
445.4705892765559
 21
2702.494269174505
 31
0.0
  0
LINE
  5
18D87
330
18C7A
100
AcDbEntity
  8
部品1
 48
50.0
100
AcDbLine
 10
473.470589276545
 20
1448.994269174573
 30
0.0
 11
444.970589276545
 21
1420.494269174574
 31
0.0
  0
LINE
  5
18D88
330
18C7A
100
AcDbEntity
  8
部品1
100
AcDbLine
 10
471.9705892765232
 20
1392.494269174465
 30
0.0
 11
416.9705892765486
 21
1392.494269174465
 31
0.0
  0
LINE
  5
18D89
330
18C7A
100
AcDbEntity
  8
部品1
100
AcDbLine
 10
444.9705892765305
 20
1447.494269174429
 30
0.0
 11
416.9705892765469
 21
1447.494269174429
 31
0.0
  0
LINE
  5
18D8A
330
18C7A
100
AcDbEntity
  8
部品1
100
AcDbLine
 10
444.9705892765305
 20
1447.494269174465
 30
0.0
 11
416.9705892765469
 21
1447.494269174465
 31
0.0
  0
LINE
  5
18D8B
330
18C7A
100
AcDbEntity
  8
部品1
100
AcDbLine
 10
444.9705892765469
 20
1447.49426917448
 30
0.0
 11
416.9705892765469
 21
1447.49426917448
 31
0.0
  0
LINE
  5
18D8C
330
18C7A
100
AcDbEntity
  8
部品1
100
AcDbLine
 10
416.9705892765469
 20
1447.494269174429
 30
0.0
 11
416.9705892765486
 21
1392.494269174433
 31
0.0
  0
LINE
  5
18D8D
330
18C7A
100
AcDbEntity
  8
部品1
100
AcDbLine
 10
416.9705892765196
 20
3182.494269174477
 30
0.0
 11
416.9705892765486
 21
1392.494269174465
 31
0.0
  0
LINE
  5
18D8E
330
18C7A
100
AcDbEntity
  8
部品1
100
AcDbLine
 10
444.9705892765305
 20
1420.494269174556
 30
0.0
 11
444.9705892765559
 21
3154.494269174509
 31
0.0
  0
LINE
  5
18D8F
330
18C7A
100
AcDbEntity
  8
部品1
100
AcDbLine
 10
473.4705892765323
 20
2702.494269174608
 30
0.0
 11
473.470589276545
 21
1448.994269174571
 31
0.0
  0
LINE
  5
18D90
330
18C7A
100
AcDbEntity
  8
破線
 48
10.0
100
AcDbLine
 10
496.9705892765305
 20
2702.494269174608
 30
0.0
 11
496.9705892765451
 21
1472.494269174476
 31
0.0
  0
DIMENSION
  5
18D91
330
18C7A
100
AcDbEntity
  8
寸法
100
AcDbDimension
  2
*D38
 10
3886.970589276531
 20
410.7433333855515
 30
0.0
 11
2168.197775309287
 21
410.7433333855515
 31
0.0
 12
-3742.925985830444
 22
-6453.628869860112
 32
0.0
 70
   128
 71
     5
 42
3469.999999999982
  3
INABA_S40G
100
AcDbAlignedDimension
 13
416.9705892765486
 23
1392.494269174433
 33
0.0
 14
3886.970589276531
 24
1392.49426917456
 34
0.0
100
AcDbRotatedDimension
1001
ACAD
1000
DSTYLE
1002
{
1070
   341
1005
0
1002
}
  0
LINE
  5
18D92
330
18C7A
100
AcDbEntity
  8
部品1
100
AcDbLine
 10
444.9705892765559
 20
3154.494269174624
 30
0.0
 11
1509.470589276487
 21
3154.494269174626
 31
0.0
  0
LINE
  5
18D93
330
18C7A
100
AcDbEntity
  8
部品1
100
AcDbLine
 10
3886.970589276531
 20
1392.494269174596
 30
0.0
 11
3411.970589276556
 21
1392.494269174582
 31
0.0
  0
LINE
  5
18D94
330
18C7A
100
AcDbEntity
  8
部品1
100
AcDbLine
 10
416.9705892765559
 20
3182.494269174509
 30
0.0
 11
3886.970589276556
 21
3182.494269174604
 31
0.0
  0
LINE
  5
18D95
330
18C7A
100
AcDbEntity
  8
部品1
100
AcDbLine
 10
445.4705892765559
 20
2702.494269174509
 30
0.0
 11
1508.470589276487
 21
2702.494269174558
 31
0.0
  0
LINE
  5
18D96
330
18C7A
100
AcDbEntity
  8
細線
 48
50.0
100
AcDbLine
 10
2767.470589276556
 20
3152.494269174611
 30
0.0
 11
1536.470589276487
 21
2702.494269174558
 31
0.0
  0
LINE
  5
18D97
330
18C7A
100
AcDbEntity
  8
部品1
100
AcDbLine
 10
445.4705892765542
 20
3152.494269174509
 30
0.0
 11
1508.470589276485
 21
3152.494269174558
 31
0.0
  0
LINE
  5
18D98
330
18C7A
100
AcDbEntity
  8
細線
 48
50.0
100
AcDbLine
 10
2767.470589276554
 20
2702.494269174615
 30
0.0
 11
1536.470589276485
 21
3152.494269174558
 31
0.0
  0
LINE
  5
18D99
330
18C7A
100
AcDbEntity
  8
破線
 48
10.0
100
AcDbLine
 10
2126.970589276534
 20
1472.494269174502
 30
0.0
 11
1344.47058927653
 21
1472.494269174473
 31
0.0
  0
LINE
  5
18D9A
330
18C7A
100
AcDbEntity
  8
部品1
100
AcDbLine
 10
3830.470589276556
 20
1448.994269174596
 30
0.0
 11
473.4705892764487
 21
1448.994269174476
 31
0.0
  0
DIMENSION
  5
18D9B
330
18C7A
100
AcDbEntity
  8
寸法
100
AcDbDimension
  2
*D37
 10
471.970589276555
 20
3698.302488799491
 30
0.0
 11
108.4853079022819
 21
3698.302488799491
 31
0.0
 12
-3742.925985830444
 22
-6453.628869860112
 32
0.0
 70
   128
 71
     5
 42
55.00000000003456
  3
INABA_S40G
100
AcDbAlignedDimension
 13
416.9705892765205
 23
3182.494269174509
 33
0.0
 14
471.970589276555
 24
3182.494269174509
 34
0.0
100
AcDbRotatedDimension
1001
ACAD
1000
DSTYLE
1002
{
1002
}
  0
DIMENSION
  5
18D9C
330
18C7A
100
AcDbEntity
  8
寸法
100
AcDbDimension
  2
*D36
 10
4534.396935010967
 20
3127.494269174607
 30
0.0
 11
4534.396935010965
 21
3490.979550548844
 31
0.0
 12
-3742.925985830444
 22
-6453.628869860112
 32
0.0
 70
   128
 71
     5
 42
54.99999999999636
  3
INABA_S40G
100
AcDbAlignedDimension
 13
3886.970589276556
 23
3182.494269174604
 33
0.0
 14
3886.970589276556
 24
3127.494269174607
 34
0.0
 50
90.0
100
AcDbRotatedDimension
1001
ACAD
1000
DSTYLE
1002
{
1002
}
  0
DIMENSION
  5
18D9D
330
18C7A
100
AcDbEntity
  8
寸法
100
AcDbDimension
  2
*D35
 10
3886.970589276556
 20
3698.302488799589
 30
0.0
 11
4195.455870650794
 21
3698.302488799589
 31
0.0
 12
-3742.925985830444
 22
-6453.628869860112
 32
0.0
 70
   128
 71
     5
 42
55.0
  3
INABA_S40G
100
AcDbAlignedDimension
 13
3831.970589276556
 23
3182.494269174604
 33
0.0
 14
3886.970589276556
 24
3182.494269174604
 34
0.0
100
AcDbRotatedDimension
1001
ACAD
1000
DSTYLE
1002
{
1002
}
  0
DIMENSION
  5
18D9E
330
18C7A
100
AcDbEntity
  8
寸法
100
AcDbDimension
  2
*D34
 10
3831.970589276556
 20
3698.302488799607
 30
0.0
 11
2151.970589276555
 21
3698.302488799607
 31
0.0
 12
-3742.925985830444
 22
-6453.628869860112
 32
0.0
 70
   128
  1
8X420=<>
 71
     5
 42
3360.000000000001
  3
INABA_S40G
100
AcDbAlignedDimension
 13
471.970589276555
 23
3182.494269174509
 33
0.0
 14
3831.970589276556
 24
3182.494269174604
 34
0.0
100
AcDbRotatedDimension
1001
ACAD
1000
DSTYLE
1002
{
1002
}
  0
DIMENSION
  5
18D9F
330
18C7A
100
AcDbEntity
  8
寸法
100
AcDbDimension
  2
*D33
 10
4899.503876750603
 20
1392.494269174596
 30
0.0
 11
4899.503876750601
 21
2287.4942691746
 31
0.0
 12
-3742.925985830444
 22
-6453.628869860112
 32
0.0
 70
   128
 71
     5
 42
1790.000000000007
  3
INABA_S40G
100
AcDbAlignedDimension
 13
3886.970589276556
 23
3182.494269174604
 33
0.0
 14
3886.970589276531
 24
1392.494269174596
 34
0.0
 50
90.0
100
AcDbRotatedDimension
1001
ACAD
1000
DSTYLE
1002
{
1002
}
  0
ENDBLK
  5
18DA1
330
18C7A
100
AcDbEntity
  8
0
 48
50.0
100
AcDbBlockEnd
  0
BLOCK
  5
191EA
330
191E0
100
AcDbEntity
  8
0
 48
50.0
100
AcDbBlockBegin
  2
*D48
 70
     1
 10
0.0
 20
0.0
 30
0.0
  3
*D48
  1

  0
LINE
  5
1979F
330
191E0
100
AcDbEntity
  8
寸法
 62
     0
 48
50.0
370
    -2
100
AcDbLine
 10
5066.896575106966
 20
8034.665184317267
 30
0.0
 11
5066.896575106966
 21
7380.338266729282
 31
0.0
  0
LINE
  5
197A0
330
191E0
100
AcDbEntity
  8
寸法
 62
     0
 48
50.0
370
    -2
100
AcDbLine
 10
6332.896575106967
 20
8034.665184317267
 30
0.0
 11
6332.896575106967
 21
7380.338266729282
 31
0.0
  0
LINE
  5
197A1
330
191E0
100
AcDbEntity
  8
寸法
 62
     0
 48
50.0
370
    -2
100
AcDbLine
 10
5066.896575106966
 20
7440.338266729283
 30
0.0
 11
6332.896575106967
 21
7440.338266729283
 31
0.0
  0
INSERT
  5
197A2
330
191E0
100
AcDbEntity
  8
寸法
 62
     0
 48
50.0
370
    -2
100
AcDbBlockReference
  2
_DOTSMALL
 10
5066.896575106966
 20
7440.338266729283
 30
0.0
 41
100.0
 42
100.0
 43
100.0
 50
180.0
  0
INSERT
  5
197A3
330
191E0
100
AcDbEntity
  8
寸法
 62
     0
 48
50.0
370
    -2
100
AcDbBlockReference
  2
_DOTSMALL
 10
6332.896575106967
 20
7440.338266729283
 30
0.0
 41
100.0
 42
100.0
 43
100.0
  0
MTEXT
  5
197A4
330
191E0
100
AcDbEntity
  8
寸法
 62
     7
 48
50.0
100
AcDbMText
 10
5726.250529222904
 20
7640.350077752905
 30
0.0
 40
120.0
 41
0.0
 71
     5
 72
     1
  1
\A1;有効開口部間口\P1266
  7
STYLE1
 73
     1
 44
1.0
1001
ACAD
1000
MTEXTBEGIN
1070
    73
1070
     1
1070
    44
1040
1.0
1070
    74
1070
     0
1000
MTEXTEND
  0
POINT
  5
197A5
330
191E0
100
AcDbEntity
  8
DEFPOINTS
 62
     0
 48
50.0
100
AcDbPoint
 10
5066.896575106966
 20
8054.665184317265
 30
0.0
  0
POINT
  5
197A6
330
191E0
100
AcDbEntity
  8
DEFPOINTS
 62
     0
 48
50.0
100
AcDbPoint
 10
6332.896575106967
 20
8054.665184317265
 30
0.0
  0
POINT
  5
197A7
330
191E0
100
AcDbEntity
  8
DEFPOINTS
 62
     0
 48
50.0
100
AcDbPoint
 10
6332.896575106967
 20
7440.338266729283
 30
0.0
  0
ENDBLK
  5
191EB
330
191E0
100
AcDbEntity
  8
0
 48
50.0
100
AcDbBlockEnd
  0
BLOCK
  5
19571
330
19565
100
AcDbEntity
  8
0
 48
50.0
100
AcDbBlockBegin
  2
*D49
 70
     1
 10
0.0
 20
0.0
 30
0.0
  3
*D49
  1

  0
LINE
  5
19827
330
19565
100
AcDbEntity
  8
寸法
 62
     0
 48
50.0
370
    -2
100
AcDbLine
 10
5007.896575106967
 20
8131.665184317267
 30
0.0
 11
4779.282607432259
 21
8131.665184317267
 31
0.0
  0
LINE
  5
19828
330
19565
100
AcDbEntity
  8
寸法
 62
     0
 48
50.0
370
    -2
100
AcDbLine
 10
5007.896575106965
 20
8056.665184317234
 30
0.0
 11
4779.282607432259
 21
8056.665184317234
 31
0.0
  0
LINE
  5
19829
330
19565
100
AcDbEntity
  8
寸法
 62
     0
 48
50.0
370
    -2
100
AcDbLine
 10
4819.28260743226
 20
8151.665184317264
 30
0.0
 11
4819.28260743226
 21
8171.665184317266
 31
0.0
  0
LINE
  5
1982A
330
19565
100
AcDbEntity
  8
寸法
 62
     0
 48
50.0
370
    -2
100
AcDbLine
 10
4819.28260743226
 20
8036.665184317234
 30
0.0
 11
4819.28260743226
 21
7810.008128995308
 31
0.0
  0
LINE
  5
1982B
330
19565
100
AcDbEntity
  8
寸法
 62
     0
 48
50.0
370
    -2
100
AcDbLine
 10
4819.28260743226
 20
8131.665184317267
 30
0.0
 11
4819.28260743226
 21
8056.665184317234
 31
0.0
  0
INSERT
  5
1982C
330
19565
100
AcDbEntity
  8
寸法
 62
     0
 48
50.0
370
    -2
100
AcDbBlockReference
  2
_DOT
 10
4819.28260743226
 20
8131.665184317267
 30
0.0
 41
20.0
 42
20.0
 43
20.0
 50
270.0
  0
INSERT
  5
1982D
330
19565
100
AcDbEntity
  8
寸法
 62
     0
 48
50.0
370
    -2
100
AcDbBlockReference
  2
_DOT
 10
4819.28260743226
 20
8056.665184317234
 30
0.0
 41
20.0
 42
20.0
 43
20.0
 50
90.0
  0
MTEXT
  5
1982E
330
19565
100
AcDbEntity
  8
寸法
 62
     7
 48
50.0
100
AcDbMText
 10
4727.282607432258
 20
7910.493410369548
 30
0.0
 40
120.0
 41
0.0
 71
     5
 72
     1
  1
\A1;75
  7
STYLE1
 11
0.0000000000000001
 21
1.0
 31
0.0
 73
     1
 44
1.0
1001
ACAD
1000
MTEXTBEGIN
1070
    73
1070
     1
1070
    44
1040
1.0
1070
    74
1070
     0
1000
MTEXTEND
  0
POINT
  5
1982F
330
19565
100
AcDbEntity
  8
DEFPOINTS
 62
     0
 48
50.0
100
AcDbPoint
 10
5027.896575106966
 20
8131.665184317267
 30
0.0
  0
POINT
  5
19830
330
19565
100
AcDbEntity
  8
DEFPOINTS
 62
     0
 48
50.0
100
AcDbPoint
 10
5027.896575106964
 20
8056.665184317234
 30
0.0
  0
POINT
  5
19831
330
19565
100
AcDbEntity
  8
DEFPOINTS
 62
     0
 48
50.0
100
AcDbPoint
 10
4819.28260743226
 20
8056.665184317234
 30
0.0
  0
ENDBLK
  5
19572
330
19565
100
AcDbEntity
  8
0
 48
50.0
100
AcDbBlockEnd
  0
BLOCK
  5
1957D
330
19573
100
AcDbEntity
  8
0
 48
50.0
100
AcDbBlockBegin
  2
*D50
 70
     1
 10
0.0
 20
0.0
 30
0.0
  3
*D50
  1

  0
LINE
  5
1978B
330
19573
100
AcDbEntity
  8
寸法
 62
     0
 48
50.0
370
    -2
100
AcDbLine
 10
5027.896575106966
 20
8034.665184317267
 30
0.0
 11
5027.896575106966
 21
7074.535468889497
 31
0.0
  0
LINE
  5
1978C
330
19573
100
AcDbEntity
  8
寸法
 62
     0
 48
50.0
370
    -2
100
AcDbLine
 10
7181.896575106967
 20
8034.665184317267
 30
0.0
 11
7181.896575106967
 21
7074.535468889497
 31
0.0
  0
LINE
  5
1978D
330
19573
100
AcDbEntity
  8
寸法
 62
     0
 48
50.0
370
    -2
100
AcDbLine
 10
5027.896575106966
 20
7134.535468889497
 30
0.0
 11
7181.896575106967
 21
7134.535468889497
 31
0.0
  0
INSERT
  5
1978E
330
19573
100
AcDbEntity
  8
寸法
 62
     0
 48
50.0
370
    -2
100
AcDbBlockReference
  2
_DOTSMALL
 10
5027.896575106966
 20
7134.535468889497
 30
0.0
 41
100.0
 42
100.0
 43
100.0
 50
180.0
  0
INSERT
  5
1978F
330
19573
100
AcDbEntity
  8
寸法
 62
     0
 48
50.0
370
    -2
100
AcDbBlockReference
  2
_DOTSMALL
 10
7181.896575106967
 20
7134.535468889497
 30
0.0
 41
100.0
 42
100.0
 43
100.0
  0
MTEXT
  5
19790
330
19573
100
AcDbEntity
  8
寸法
 62
     7
 48
50.0
100
AcDbMText
 10
6127.029331854279
 20
7234.54727991312
 30
0.0
 40
120.0
 41
0.0
 71
     5
 72
     1
  1
\A1;2154
  7
STYLE1
 73
     1
 44
1.0
1001
ACAD
1000
MTEXTBEGIN
1070
    73
1070
     1
1070
    44
1040
1.0
1070
    74
1070
     0
1000
MTEXTEND
  0
POINT
  5
19791
330
19573
100
AcDbEntity
  8
DEFPOINTS
 62
     0
 48
50.0
100
AcDbPoint
 10
5027.896575106966
 20
8054.665184317265
 30
0.0
  0
POINT
  5
19792
330
19573
100
AcDbEntity
  8
DEFPOINTS
 62
     0
 48
50.0
100
AcDbPoint
 10
7181.896575106967
 20
8054.665184317265
 30
0.0
  0
POINT
  5
19793
330
19573
100
AcDbEntity
  8
DEFPOINTS
 62
     0
 48
50.0
100
AcDbPoint
 10
7181.896575106967
 20
7134.535468889497
 30
0.0
  0
ENDBLK
  5
1957E
330
19573
100
AcDbEntity
  8
0
 48
50.0
100
AcDbBlockEnd
  0
ENDSEC
  0
SECTION
  2
ENTITIES
  0
MTEXT
  5
763F
330
747D
100
AcDbEntity
  8
0
100
AcDbMText
 10
302.846345836809
 20
280.1983726409901
 30
0.0
 40
3.5
 41
5.323721266742722
 71
     1
 72
     5
  1

  7
MSMINCHO
 73
     1
 44
1.0
1001
ACAD
1000
MTEXTBEGIN
1070
    73
1070
     1
1070
    44
1040
1.0
1070
    74
1070
     0
1000
MTEXTEND
  0
LINE
  5
10B57
330
747D
100
AcDbEntity
  8
補助
  6
PHANTOM
 62
   230
 48
50.0
100
AcDbLine
 10
139.9999999999995
 20
11409.6
 30
0.0
 11
16307.2
 21
11409.6
 31
0.0
  0
LINE
  5
10B59
330
747D
100
AcDbEntity
  8
仕様書枠
  6
Continuous
 48
50.0
100
AcDbLine
 10
13107.2
 20
1200.0
 30
0.0
 11
13107.2
 21
-0.0000000000000729
 31
0.0
  0
LINE
  5
10B5D
330
747D
100
AcDbEntity
  8
仕様書枠
 48
50.0
100
AcDbLine
 10
140.0
 20
0.0
 30
0.0
 11
16307.2
 21
-0.0000000000000909
 31
0.0
  0
LINE
  5
10B5E
330
747D
100
AcDbEntity
  8
補助
  6
PHANTOM
 62
   230
 48
50.0
100
AcDbLine
 10
16307.2
 20
11409.6
 30
0.0
 11
16307.2
 21
1200.0
 31
0.0
  0
LINE
  5
10B6C
330
747D
100
AcDbEntity
  8
仕様書枠
 48
50.0
100
AcDbLine
 10
13107.2
 20
1200.0
 30
0.0
 11
16307.2
 21
1200.0
 31
0.0
  0
LINE
  5
10B6D
330
747D
100
AcDbEntity
  8
補助
  6
PHANTOM
 62
   230
 48
50.0
100
AcDbLine
 10
13107.2
 20
11409.6
 30
0.0
 11
13107.2
 21
4800.0
 31
0.0
  0
LINE
  5
10B6F
330
747D
100
AcDbEntity
  8
補助
  6
PHANTOM
 62
   230
 48
50.0
100
AcDbLine
 10
13107.2
 20
4800.0
 30
0.0
 11
16307.2
 21
4800.0
 31
0.0
  0
LINE
  5
10B72
330
747D
100
AcDbEntity
  8
文字
 62
     7
 48
50.0
100
AcDbLine
 10
13187.2
 20
400.0
 30
0.0
 11
16227.2
 21
400.0
 31
0.0
  0
TEXT
  5
10B73
330
747D
100
AcDbEntity
  8
文字
 62
     7
 48
50.0
100
AcDbText
 10
13162.9790565769
 20
895.0906074299405
 30
0.0
 40
200.0
  1
外 形 図
  7
STYLE2
100
AcDbText
  0
TEXT
  5
10B74
330
747D
100
AcDbEntity
  8
文字
 62
     7
 48
50.0
100
AcDbText
 10
13201.43669998441
 20
477.2740661031255
 30
0.0
 40
160.0
  1
機種名
  7
STYLE2
100
AcDbText
  0
LINE
  5
10B7B
330
747D
100
AcDbEntity
  8
仕様書枠
 48
50.0
100
AcDbLine
 10
13107.2
 20
800.0
 30
0.0
 11
14251.2
 21
800.0
 31
0.0
  0
LINE
  5
10B88
330
747D
100
AcDbEntity
  8
仕様書枠
  6
Continuous
 48
50.0
100
AcDbLine
 10
14251.2
 20
1200.0
 30
0.0
 11
14251.2
 21
800.0
 31
0.0
  0
LINE
  5
12765
330
747D
100
AcDbEntity
  8
Ｇ．Ｌ
100
AcDbLine
 10
3281.629972436509
 20
2844.574105358054
 30
0.0
 11
12948.31588119198
 21
2844.574105358054
 31
0.0
  0
LINE
  5
127A8
330
747D
100
AcDbEntity
  8
部品1
100
AcDbLine
 10
3381.126983760609
 20
2974.477915925718
 30
0.0
 11
3531.126983760609
 21
2974.477915925718
 31
0.0
  0
LINE
  5
127A9
330
747D
100
AcDbEntity
  8
部品1
100
AcDbLine
 10
3456.126983760609
 20
2844.574105358054
 30
0.0
 11
3381.126983760609
 21
2974.477915925718
 31
0.0
  0
TEXT
  5
127AA
330
747D
100
AcDbEntity
  8
部品1
100
AcDbText
 10
3559.231925885382
 20
2880.681008963955
 30
0.0
 40
125.0
  1
G.L
  7
MSGOTHIC
100
AcDbText
  0
LINE
  5
127AB
330
747D
100
AcDbEntity
  8
部品1
100
AcDbLine
 10
3531.126983760609
 20
2974.477915925718
 30
0.0
 11
3456.126983760609
 21
2844.574105358054
 31
0.0
  0
LINE
  5
13BE8
330
747D
100
AcDbEntity
  8
部品1
100
AcDbLine
 10
4159.896575106992
 20
2944.574105358054
 30
0.0
 11
7629.896575106991
 21
2944.574105358054
 31
0.0
  0
LINE
  5
13BE9
330
747D
100
AcDbEntity
  8
部品1
100
AcDbLine
 10
4159.896575106992
 20
4784.574105358053
 30
0.0
 11
7629.896575106991
 21
4784.574105358053
 31
0.0
  0
LINE
  5
13C1F
330
747D
100
AcDbEntity
  8
部品1
100
AcDbLine
 10
4159.896575106992
 20
4878.574105358058
 30
0.0
 11
4159.896575106992
 21
2844.574105358054
 31
0.0
  0
LINE
  5
13CFC
330
747D
100
AcDbEntity
  8
部品1
100
AcDbLine
 10
7574.896575106992
 20
4784.574105358053
 30
0.0
 11
7574.896575106992
 21
2994.574105358073
 31
0.0
  0
LINE
  5
13CFE
330
747D
100
AcDbEntity
  8
部品1
100
AcDbLine
 10
4214.896575106991
 20
4784.574105358053
 30
0.0
 11
4214.896575106991
 21
2994.574105358057
 31
0.0
  0
LINE
  5
13D18
330
747D
100
AcDbEntity
  8
部品1
100
AcDbLine
 10
7629.896575106991
 20
4878.574105358057
 30
0.0
 11
7629.896575106991
 21
2844.574105358054
 31
0.0
  0
LINE
  5
13E0C
330
747D
100
AcDbEntity
  8
部品1
100
AcDbLine
 10
7229.896575106991
 20
2944.574105358053
 30
0.0
 11
7229.896575106991
 21
2844.574105358054
 31
0.0
  0
LINE
  5
13E0D
330
747D
100
AcDbEntity
  8
部品1
100
AcDbLine
 10
4559.896575106992
 20
2944.574105358053
 30
0.0
 11
4559.896575106992
 21
2844.574105358054
 31
0.0
  0
LINE
  5
1426B
330
747D
100
AcDbEntity
  8
部品1
 48
50.0
100
AcDbLine
 10
6626.896575106991
 20
2944.574105358054
 30
0.0
 11
6626.896575106991
 21
2844.574105358054
 31
0.0
  0
LINE
  5
1426C
330
747D
100
AcDbEntity
  8
部品1
 48
50.0
100
AcDbLine
 10
6826.896575106991
 20
2944.574105358054
 30
0.0
 11
6826.896575106991
 21
2844.574105358054
 31
0.0
  0
LINE
  5
14517
330
747D
100
AcDbEntity
  8
部品1
100
AcDbLine
 10
7634.896575106992
 20
2989.574105358054
 30
0.0
 11
7634.896575106992
 21
2844.574105358054
 31
0.0
  0
LINE
  5
14518
330
747D
100
AcDbEntity
  8
破線
 48
5.0
100
AcDbLine
 10
7729.896575106991
 20
2644.574105358052
 30
0.0
 11
7529.89657510699
 21
2644.574105358052
 31
0.0
  0
LINE
  5
14519
330
747D
100
AcDbEntity
  8
破線
 48
5.0
100
AcDbLine
 10
7529.896575106992
 20
2844.574105358054
 30
0.0
 11
7529.896575106992
 21
2644.574105358052
 31
0.0
  0
LINE
  5
1451A
330
747D
100
AcDbEntity
  8
破線
 48
5.0
100
AcDbLine
 10
7729.896575106991
 20
2844.574105358054
 30
0.0
 11
7729.896575106991
 21
2644.574105358052
 31
0.0
  0
LINE
  5
1451B
330
747D
100
AcDbEntity
  8
破線
 48
5.0
100
AcDbLine
 10
7654.896575106992
 20
2689.574105358053
 30
0.0
 11
7634.896575106989
 21
2689.574105358053
 31
0.0
  0
LINE
  5
1451C
330
747D
100
AcDbEntity
  8
部品1
100
AcDbLine
 10
4154.896575106992
 20
2989.574105358055
 30
0.0
 11
4154.896575106992
 21
2844.574105358054
 31
0.0
  0
LINE
  5
1451D
330
747D
100
AcDbEntity
  8
破線
 48
5.0
100
AcDbLine
 10
4059.896575106992
 20
2644.574105358053
 30
0.0
 11
4259.896575106994
 21
2644.574105358053
 31
0.0
  0
LINE
  5
1451E
330
747D
100
AcDbEntity
  8
破線
 48
5.0
100
AcDbLine
 10
4059.896575106992
 20
2844.574105358054
 30
0.0
 11
4059.896575106992
 21
2644.574105358053
 31
0.0
  0
LINE
  5
1451F
330
747D
100
AcDbEntity
  8
破線
 48
5.0
100
AcDbLine
 10
4134.896575106991
 20
2689.574105358054
 30
0.0
 11
4154.896575106993
 21
2689.574105358054
 31
0.0
  0
LINE
  5
14520
330
747D
100
AcDbEntity
  8
破線
 48
5.0
100
AcDbLine
 10
4259.896575106991
 20
2844.574105358054
 30
0.0
 11
4259.896575106991
 21
2644.574105358053
 31
0.0
  0
LINE
  5
146B2
330
747D
100
AcDbEntity
  8
破線
 48
5.0
100
AcDbLine
 10
7634.896575106992
 20
2844.574105358054
 30
0.0
 11
7634.896575106992
 21
2689.574105358053
 31
0.0
  0
LINE
  5
146B3
330
747D
100
AcDbEntity
  8
破線
 48
5.0
100
AcDbLine
 10
4154.896575106992
 20
2844.574105358054
 30
0.0
 11
4154.896575106992
 21
2689.574105358054
 31
0.0
  0
DIMENSION
  5
146C0
330
747D
100
AcDbEntity
  8
寸法
 48
50.0
100
AcDbDimension
  2
*D2
 10
7529.89657510699
 20
2358.526776057675
 30
0.0
 11
7629.896575106991
 21
2358.526776057675
 31
0.0
 70
   160
 71
     5
 42
200.0000000000018
  3
INABA_S40G
100
AcDbAlignedDimension
 13
7729.896575106991
 23
2644.574105358052
 33
0.0
 14
7529.89657510699
 24
2644.574105358052
 34
0.0
100
AcDbRotatedDimension
  0
LINE
  5
149E3
330
747D
100
AcDbEntity
  8
部品1
100
AcDbLine
 10
4159.896575106992
 20
2994.574105358057
 30
0.0
 11
5027.896575106992
 21
2994.574105358061
 31
0.0
  0
DIMENSION
  5
14E59
330
747D
100
AcDbEntity
  8
寸法
100
AcDbDimension
  2
*D3
 10
8642.429862581046
 20
8131.665184317396
 30
0.0
 11
8642.429862581044
 21
9026.665184317399
 31
0.0
 70
   160
 71
     5
 42
1790.000000000007
  3
INABA_S40G
100
AcDbAlignedDimension
 13
7629.896575106998
 23
9921.665184317404
 33
0.0
 14
7629.896575106974
 24
8131.665184317396
 34
0.0
 50
90.0
100
AcDbRotatedDimension
1001
ACAD
1000
DSTYLE
1002
{
1002
}
  0
DIMENSION
  5
14E5A
330
747D
100
AcDbEntity
  8
寸法
100
AcDbDimension
  2
*D4
 10
7574.896575106999
 20
10437.4734039424
 30
0.0
 11
5894.896575106997
 21
10437.4734039424
 31
0.0
 70
   160
  1
8X420=<>
 71
     5
 42
3360.000000000001
  3
INABA_S40G
100
AcDbAlignedDimension
 13
4214.896575106998
 23
9921.66518431731
 33
0.0
 14
7574.896575106999
 24
9921.665184317404
 34
0.0
100
AcDbRotatedDimension
1001
ACAD
1000
DSTYLE
1002
{
1002
}
  0
DIMENSION
  5
14E5B
330
747D
100
AcDbEntity
  8
寸法
100
AcDbDimension
  2
*D5
 10
7629.896575106998
 20
10437.47340394239
 30
0.0
 11
7938.381856481237
 21
10437.47340394239
 31
0.0
 70
   160
 71
     5
 42
55.0
  3
INABA_S40G
100
AcDbAlignedDimension
 13
7574.896575106999
 23
9921.665184317404
 33
0.0
 14
7629.896575106998
 24
9921.665184317404
 34
0.0
100
AcDbRotatedDimension
1001
ACAD
1000
DSTYLE
1002
{
1002
}
  0
DIMENSION
  5
14E5C
330
747D
100
AcDbEntity
  8
寸法
100
AcDbDimension
  2
*D6
 10
8277.322920841411
 20
9866.665184317408
 30
0.0
 11
8277.32292084141
 21
10230.15046569164
 31
0.0
 70
   160
 71
     5
 42
54.99999999999636
  3
INABA_S40G
100
AcDbAlignedDimension
 13
7629.896575106998
 23
9921.665184317404
 33
0.0
 14
7629.896575106998
 24
9866.665184317408
 34
0.0
 50
90.0
100
AcDbRotatedDimension
1001
ACAD
1000
DSTYLE
1002
{
1002
}
  0
DIMENSION
  5
14E5D
330
747D
100
AcDbEntity
  8
寸法
100
AcDbDimension
  2
*D7
 10
4214.896575106998
 20
10437.47340394229
 30
0.0
 11
3851.411293732725
 21
10437.47340394229
 31
0.0
 70
   160
 71
     5
 42
55.00000000003456
  3
INABA_S40G
100
AcDbAlignedDimension
 13
4159.896575106963
 23
9921.66518431731
 33
0.0
 14
4214.896575106998
 24
9921.66518431731
 34
0.0
100
AcDbRotatedDimension
1001
ACAD
1000
DSTYLE
1002
{
1002
}
  0
LINE
  5
14E5E
330
747D
100
AcDbEntity
  8
部品1
100
AcDbLine
 10
7573.396575106999
 20
8188.165184317396
 30
0.0
 11
4216.396575106892
 21
8188.165184317277
 31
0.0
  0
LINE
  5
14E5F
330
747D
100
AcDbEntity
  8
破線
 48
10.0
100
AcDbLine
 10
5869.896575106977
 20
8211.665184317302
 30
0.0
 11
5087.396575106974
 21
8211.665184317274
 31
0.0
  0
LINE
  5
14E62
330
747D
100
AcDbEntity
  8
細線
 48
50.0
100
AcDbLine
 10
6510.396575106998
 20
9441.665184317415
 30
0.0
 11
5279.396575106928
 21
9891.665184317359
 31
0.0
  0
LINE
  5
14E63
330
747D
100
AcDbEntity
  8
部品1
100
AcDbLine
 10
4188.396575106997
 20
9891.665184317311
 30
0.0
 11
5251.396575106928
 21
9891.665184317359
 31
0.0
  0
LINE
  5
14E64
330
747D
100
AcDbEntity
  8
細線
 48
50.0
100
AcDbLine
 10
6510.396575106999
 20
9891.665184317412
 30
0.0
 11
5279.39657510693
 21
9441.665184317358
 31
0.0
  0
LINE
  5
14E65
330
747D
100
AcDbEntity
  8
部品1
100
AcDbLine
 10
4188.396575106999
 20
9441.66518431731
 30
0.0
 11
5251.39657510693
 21
9441.665184317358
 31
0.0
  0
LINE
  5
14E67
330
747D
100
AcDbEntity
  8
部品1
100
AcDbLine
 10
4159.896575106999
 20
9921.66518431731
 30
0.0
 11
7629.896575106998
 21
9921.665184317404
 31
0.0
  0
LINE
  5
14E6C
330
747D
100
AcDbEntity
  8
部品1
100
AcDbLine
 10
7629.896575106974
 20
8131.665184317396
 30
0.0
 11
7154.896575106999
 21
8131.665184317382
 31
0.0
  0
LINE
  5
14E6D
330
747D
100
AcDbEntity
  8
部品1
100
AcDbLine
 10
4187.896575106999
 20
9893.665184317425
 30
0.0
 11
5252.39657510693
 21
9893.665184317427
 31
0.0
  0
DIMENSION
  5
14E6F
330
747D
100
AcDbEntity
  8
寸法
100
AcDbDimension
  2
*D8
 10
7629.896575106974
 20
6827.338789371032
 30
0.0
 11
5961.233327116322
 21
6827.338789371032
 31
0.0
 70
   160
 71
     5
 42
3469.999999999982
  3
INABA_S40G
100
AcDbAlignedDimension
 13
4159.896575106992
 23
8131.665184317233
 33
0.0
 14
7629.896575106974
 24
8131.665184317361
 34
0.0
100
AcDbRotatedDimension
1001
ACAD
1000
DSTYLE
1002
{
1070
   341
1005
0
1002
}
  0
LINE
  5
14E70
330
747D
100
AcDbEntity
  8
破線
 48
10.0
100
AcDbLine
 10
4239.896575106974
 20
9441.665184317407
 30
0.0
 11
4239.896575106988
 21
8211.665184317277
 31
0.0
  0
LINE
  5
14E71
330
747D
100
AcDbEntity
  8
部品1
100
AcDbLine
 10
4216.396575106975
 20
9441.665184317407
 30
0.0
 11
4216.396575106988
 21
8188.165184317371
 31
0.0
  0
LINE
  5
14E72
330
747D
100
AcDbEntity
  8
部品1
100
AcDbLine
 10
4187.896575106973
 20
8159.665184317358
 30
0.0
 11
4187.896575106999
 21
9893.66518431731
 31
0.0
  0
LINE
  5
14E73
330
747D
100
AcDbEntity
  8
部品1
100
AcDbLine
 10
4159.896575106962
 20
9921.665184317276
 30
0.0
 11
4159.896575106992
 21
8131.665184317267
 31
0.0
  0
LINE
  5
14E7B
330
747D
100
AcDbEntity
  8
部品1
100
AcDbLine
 10
4159.89657510699
 20
8186.665184317229
 30
0.0
 11
4159.896575106992
 21
8131.665184317233
 31
0.0
  0
LINE
  5
14E7C
330
747D
100
AcDbEntity
  8
部品1
100
AcDbLine
 10
4187.896575106989
 20
8186.665184317281
 30
0.0
 11
4159.89657510699
 21
8186.665184317281
 31
0.0
  0
LINE
  5
14E7D
330
747D
100
AcDbEntity
  8
部品1
100
AcDbLine
 10
4187.896575106973
 20
8186.665184317266
 30
0.0
 11
4159.89657510699
 21
8186.665184317266
 31
0.0
  0
LINE
  5
14E7E
330
747D
100
AcDbEntity
  8
部品1
100
AcDbLine
 10
4187.896575106973
 20
8186.665184317229
 30
0.0
 11
4159.89657510699
 21
8186.665184317229
 31
0.0
  0
LINE
  5
14E7F
330
747D
100
AcDbEntity
  8
部品1
100
AcDbLine
 10
4214.896575106966
 20
8131.665184317267
 30
0.0
 11
4159.896575106992
 21
8131.665184317267
 31
0.0
  0
LINE
  5
14E80
330
747D
100
AcDbEntity
  8
部品1
 48
50.0
100
AcDbLine
 10
4216.396575106988
 20
8188.165184317373
 30
0.0
 11
4187.896575106988
 21
8159.665184317374
 31
0.0
  0
LINE
  5
14E82
330
747D
100
AcDbEntity
  8
部品1
 48
50.0
100
AcDbLine
 10
4188.396575106997
 20
9891.665184317306
 30
0.0
 11
4188.396575106999
 21
9441.665184317306
 31
0.0
  0
LINE
  5
14E83
330
747D
100
AcDbEntity
  8
部品1
100
AcDbLine
 10
4187.896575106973
 20
9446.66518431728
 30
0.0
 11
4159.896575106973
 21
9446.66518431728
 31
0.0
  0
LINE
  5
14E84
330
747D
100
AcDbEntity
  8
部品1
100
AcDbLine
 10
4187.896575106966
 20
9866.66518431728
 30
0.0
 11
4159.896575106966
 21
9866.66518431728
 31
0.0
  0
LINE
  5
14E85
330
747D
100
AcDbEntity
  8
部品1
100
AcDbLine
 10
4214.896575106999
 20
9921.66518431731
 30
0.0
 11
4214.896575106999
 21
9893.66518431731
 31
0.0
  0
LINE
  5
14E86
330
747D
100
AcDbEntity
  8
部品1
100
AcDbLine
 10
4214.896575106962
 20
9921.665184317276
 30
0.0
 11
4214.896575106966
 21
9893.665184317278
 31
0.0
  0
DIMENSION
  5
14E87
330
747D
100
AcDbEntity
  8
寸法
100
AcDbDimension
  2
*D9
 10
8277.322920841385
 20
8131.665184317396
 30
0.0
 11
8277.322920841383
 21
7823.179902943157
 31
0.0
 70
   160
 71
     5
 42
54.99999999999636
  3
INABA_S40G
100
AcDbAlignedDimension
 13
7629.896575106974
 23
8186.665184317392
 33
0.0
 14
7629.896575106974
 24
8131.665184317396
 34
0.0
 50
90.0
100
AcDbRotatedDimension
1001
ACAD
1000
DSTYLE
1002
{
1002
}
  0
LINE
  5
14E8A
330
747D
100
AcDbEntity
  8
破線
 48
10.0
100
AcDbLine
 10
7549.896575106998
 20
8211.665184317395
 30
0.0
 11
6752.396575106974
 21
8211.665184317324
 31
0.0
  0
DIMENSION
  5
14E8B
330
747D
100
AcDbEntity
  8
寸法
100
AcDbDimension
  2
*D10
 10
7544.160902108544
 20
9228.058744681737
 30
0.0
 11
7061.28653022935
 21
9228.058744681737
 31
0.0
 70
   160
 71
     5
 42
1063.000000000012
  3
INABA_S40G
100
AcDbAlignedDimension
 13
6538.396575106998
 23
9441.665184317415
 33
0.0
 14
7601.39657510701
 24
9441.665184317407
 34
0.0
100
AcDbRotatedDimension
1001
ACAD
1000
DSTYLE
1002
{
1002
}
  0
LINE
  5
14E8C
330
747D
100
AcDbEntity
  8
細線
 48
50.0
100
AcDbLine
 10
7601.396575106999
 20
9891.665184317403
 30
0.0
 11
6538.396575106998
 21
9441.665184317415
 31
0.0
  0
LINE
  5
14E8D
330
747D
100
AcDbEntity
  8
部品1
100
AcDbLine
 10
6538.396575106999
 20
9891.665184317412
 30
0.0
 11
7601.396575106999
 21
9891.665184317403
 31
0.0
  0
LINE
  5
14E8E
330
747D
100
AcDbEntity
  8
部品1
100
AcDbLine
 10
6538.396575106998
 20
9441.665184317415
 30
0.0
 11
7601.396575106999
 21
9441.665184317407
 31
0.0
  0
LINE
  5
14E8F
330
747D
100
AcDbEntity
  8
細線
 48
50.0
100
AcDbLine
 10
7601.396575106999
 20
9441.665184317407
 30
0.0
 11
6538.396575106999
 21
9891.665184317409
 31
0.0
  0
LINE
  5
14E90
330
747D
100
AcDbEntity
  8
部品1
100
AcDbLine
 10
6537.396575106999
 20
9893.665184317422
 30
0.0
 11
7601.896575107
 21
9893.665184317406
 31
0.0
  0
LINE
  5
14E95
330
747D
100
AcDbEntity
  8
破線
 48
10.0
100
AcDbLine
 10
5869.896575106977
 20
8188.165184317306
 30
0.0
 11
5869.896575106974
 21
9441.665184317386
 31
0.0
  0
LINE
  5
14E96
330
747D
100
AcDbEntity
  8
破線
 48
10.0
100
AcDbLine
 10
5919.896575106974
 20
8188.165184317311
 30
0.0
 11
5919.896575106974
 21
9441.665184317388
 31
0.0
  0
LINE
  5
14EC1
330
747D
100
AcDbEntity
  8
部品1
 48
50.0
100
AcDbLine
 10
6510.396575106999
 20
9891.665184317412
 30
0.0
 11
6510.396575106999
 21
9441.665184317415
 31
0.0
  0
LINE
  5
14EC2
330
747D
100
AcDbEntity
  8
部品1
 48
50.0
100
AcDbLine
 10
6538.396575106999
 20
9891.665184317409
 30
0.0
 11
6538.396575106999
 21
9441.665184317415
 31
0.0
  0
LINE
  5
14EC3
330
747D
100
AcDbEntity
  8
部品1
 48
50.0
100
AcDbLine
 10
6512.396575106997
 20
9893.66518431742
 30
0.0
 11
6512.396575106999
 21
9441.665184317415
 31
0.0
  0
LINE
  5
14EC4
330
747D
100
AcDbEntity
  8
部品1
 48
50.0
100
AcDbLine
 10
6537.396575106999
 20
9893.665184317415
 30
0.0
 11
6537.396575106999
 21
9441.665184317415
 31
0.0
  0
LINE
  5
14EC5
330
747D
100
AcDbEntity
  8
部品1
100
AcDbLine
 10
6512.396575106999
 20
9441.665184317415
 30
0.0
 11
6537.396575106999
 21
9441.665184317415
 31
0.0
  0
LINE
  5
14EC6
330
747D
100
AcDbEntity
  8
部品1
100
AcDbLine
 10
6489.896575107
 20
9911.665184317412
 30
0.0
 11
6489.896575107
 21
9893.665184317413
 31
0.0
  0
LINE
  5
14EC7
330
747D
100
AcDbEntity
  8
部品1
100
AcDbLine
 10
6489.896575107
 20
9911.665184317412
 30
0.0
 11
6495.896575107
 21
9911.665184317412
 31
0.0
  0
LINE
  5
14EC8
330
747D
100
AcDbEntity
  8
部品1
100
AcDbLine
 10
6559.896575107
 20
9911.665184317412
 30
0.0
 11
6559.896575107
 21
9893.665184317413
 31
0.0
  0
LINE
  5
14EC9
330
747D
100
AcDbEntity
  8
部品1
100
AcDbLine
 10
6553.896575107
 20
9911.665184317412
 30
0.0
 11
6559.896575107
 21
9911.665184317412
 31
0.0
  0
LINE
  5
14ECA
330
747D
100
AcDbEntity
  8
部品1
100
AcDbLine
 10
6512.396575106999
 20
9885.665184317408
 30
0.0
 11
6537.396575106999
 21
9885.665184317412
 31
0.0
  0
LINE
  5
14ECD
330
747D
100
AcDbEntity
  8
破線
 48
10.0
100
AcDbLine
 10
7549.896575106991
 20
9441.665184317407
 30
0.0
 11
7549.896575107002
 21
8211.665184317393
 31
0.0
  0
LINE
  5
14ECE
330
747D
100
AcDbEntity
  8
部品1
100
AcDbLine
 10
7573.39657510699
 20
9441.665184317407
 30
0.0
 11
7573.396575106999
 21
8188.165184317396
 31
0.0
  0
DIMENSION
  5
14ECF
330
747D
100
AcDbEntity
  8
寸法
100
AcDbDimension
  2
*D11
 10
7956.754300969024
 20
9346.447368648517
 30
0.0
 11
7856.754300969022
 21
9571.447368648518
 31
0.0
 70
    32
 71
     5
 42
449.9999999999963
  3
INABA_S40G
100
AcDbAlignedDimension
 13
7601.396575106999
 23
9891.665184317403
 33
0.0
 14
7601.396575106999
 24
9441.665184317407
 34
0.0
 50
90.0
100
AcDbRotatedDimension
1001
ACAD
1000
DSTYLE
1002
{
1002
}
  0
LINE
  5
14ED0
330
747D
100
AcDbEntity
  8
部品1
100
AcDbLine
 10
7601.896575107
 20
9893.665184317406
 30
0.0
 11
7601.896575106977
 21
8159.665184317397
 31
0.0
  0
DIMENSION
  5
14ED1
330
747D
100
AcDbEntity
  8
寸法
100
AcDbDimension
  2
*D12
 10
8277.322920841411
 20
8186.665184317392
 30
0.0
 11
8277.32292084141
 21
9026.665184317399
 31
0.0
 70
   160
  1
4X420=<>
 71
     5
 42
1680.000000000014
  3
INABA_S40G
100
AcDbAlignedDimension
 13
7629.896575106998
 23
9866.665184317408
 33
0.0
 14
7629.896575106974
 24
8186.665184317392
 34
0.0
 50
90.0
100
AcDbRotatedDimension
1001
ACAD
1000
DSTYLE
1002
{
1002
}
  0
LINE
  5
14ED2
330
747D
100
AcDbEntity
  8
部品1
100
AcDbLine
 10
7629.896575106998
 20
9921.665184317404
 30
0.0
 11
7629.896575106974
 21
8131.665184317396
 31
0.0
  0
LINE
  5
14ED4
330
747D
100
AcDbEntity
  8
部品1
100
AcDbLine
 10
7601.896575106976
 20
8186.665184317392
 30
0.0
 11
7629.896575106974
 21
8186.665184317392
 31
0.0
  0
LINE
  5
14ED5
330
747D
100
AcDbEntity
  8
部品1
100
AcDbLine
 10
7629.896575106974
 20
8131.665184317396
 30
0.0
 11
7578.896575106973
 21
8131.665184317396
 31
0.0
  0
LINE
  5
14EDC
330
747D
100
AcDbEntity
  8
部品1
 48
50.0
100
AcDbLine
 10
7573.396575106999
 20
8188.165184317396
 30
0.0
 11
7601.896575106997
 21
8159.665184317397
 31
0.0
  0
LINE
  5
14EDD
330
747D
100
AcDbEntity
  8
部品1
100
AcDbLine
 10
7629.896575106975
 20
8186.665184317392
 30
0.0
 11
7629.896575106974
 21
8131.665184317396
 31
0.0
  0
LINE
  5
14EDF
330
747D
100
AcDbEntity
  8
部品1
100
AcDbLine
 10
7601.396575106999
 20
9891.665184317403
 30
0.0
 11
7601.396575106999
 21
9441.665184317407
 31
0.0
  0
LINE
  5
14EE0
330
747D
100
AcDbEntity
  8
部品1
100
AcDbLine
 10
7601.896575107
 20
9446.665184317408
 30
0.0
 11
7629.896575106998
 21
9446.665184317408
 31
0.0
  0
LINE
  5
14EE1
330
747D
100
AcDbEntity
  8
部品1
100
AcDbLine
 10
7601.896575107
 20
9866.665184317408
 30
0.0
 11
7629.896575106998
 21
9866.665184317408
 31
0.0
  0
LINE
  5
14EE2
330
747D
100
AcDbEntity
  8
部品1
100
AcDbLine
 10
7574.896575106999
 20
9921.665184317426
 30
0.0
 11
7574.896575106999
 21
9893.665184317427
 31
0.0
  0
LINE
  5
14EE3
330
747D
100
AcDbEntity
  8
部品1
100
AcDbLine
 10
7574.896575106999
 20
9921.665184317404
 30
0.0
 11
7574.896575106999
 21
9893.665184317406
 31
0.0
  0
LINE
  5
153D6
330
747D
100
AcDbEntity
  8
部品1
 48
50.0
100
AcDbLine
 10
5162.896575106993
 20
2944.574105358054
 30
0.0
 11
5162.896575106993
 21
2844.574105358054
 31
0.0
  0
LINE
  5
153D7
330
747D
100
AcDbEntity
  8
部品1
 48
50.0
100
AcDbLine
 10
4962.896575106993
 20
2944.574105358054
 30
0.0
 11
4962.896575106993
 21
2844.574105358054
 31
0.0
  0
LINE
  5
1545F
330
747D
100
AcDbEntity
  8
破線
 48
10.0
100
AcDbLine
 10
5037.396575106978
 20
8211.665184317268
 30
0.0
 11
4239.896575106985
 21
8211.665184317277
 31
0.0
  0
DIMENSION
  5
155F4
330
747D
100
AcDbEntity
  8
寸法
100
AcDbDimension
  2
*D13
 10
5194.160902108448
 20
9228.058744681629
 30
0.0
 11
4658.986452655306
 21
9228.058744681629
 31
0.0
 70
   160
 71
     5
 42
1062.99999999993
  3
INABA_S40G
100
AcDbAlignedDimension
 13
4188.396575106999
 23
9441.665184317306
 33
0.0
 14
5251.396575106929
 24
9441.665184317358
 34
0.0
100
AcDbRotatedDimension
1001
ACAD
1000
DSTYLE
1002
{
1002
}
  0
LINE
  5
15C2E
330
747D
100
AcDbEntity
  8
破線
 48
10.0
100
AcDbLine
 10
5037.396575106978
 20
8188.165184317306
 30
0.0
 11
5037.396575106974
 21
9441.665184317415
 31
0.0
  0
LINE
  5
15C2F
330
747D
100
AcDbEntity
  8
破線
 48
10.0
100
AcDbLine
 10
5087.396575106974
 20
8188.165184317311
 30
0.0
 11
5087.396575106974
 21
9441.665184317415
 31
0.0
  0
LINE
  5
15C30
330
747D
100
AcDbEntity
  8
破線
 48
10.0
100
AcDbLine
 10
6702.396575106977
 20
8188.165184317306
 30
0.0
 11
6702.396575106973
 21
9441.665184317415
 31
0.0
  0
LINE
  5
15C31
330
747D
100
AcDbEntity
  8
破線
 48
10.0
100
AcDbLine
 10
6752.396575106974
 20
8188.165184317311
 30
0.0
 11
6752.396575106974
 21
9441.665184317415
 31
0.0
  0
LINE
  5
15C32
330
747D
100
AcDbEntity
  8
破線
 48
10.0
100
AcDbLine
 10
6702.396575106977
 20
8211.665184317324
 30
0.0
 11
5919.896575106975
 21
8211.665184317306
 31
0.0
  0
LINE
  5
15D90
330
747D
100
AcDbEntity
  8
部品1
 48
50.0
100
AcDbLine
 10
5794.896575106992
 20
2944.574105358053
 30
0.0
 11
5794.896575106992
 21
2844.574105358053
 31
0.0
  0
LINE
  5
15D91
330
747D
100
AcDbEntity
  8
部品1
 48
50.0
100
AcDbLine
 10
5994.896575106992
 20
2944.574105358053
 30
0.0
 11
5994.896575106992
 21
2844.574105358053
 31
0.0
  0
LINE
  5
160E9
330
747D
100
AcDbEntity
  8
部品1
 48
50.0
100
AcDbLine
 10
5894.896575106994
 20
9441.665184317386
 30
0.0
 11
5894.896575107025
 21
8188.165184317295
 31
0.0
  0
LINE
  5
160EA
330
747D
100
AcDbEntity
  8
部品1
100
AcDbLine
 10
7601.896575107
 20
9026.665184317407
 30
0.0
 11
7629.896575106998
 21
9026.665184317407
 31
0.0
  0
LINE
  5
160EB
330
747D
100
AcDbEntity
  8
部品1
100
AcDbLine
 10
4187.896575106973
 20
9026.66518431728
 30
0.0
 11
4159.896575106973
 21
9026.66518431728
 31
0.0
  0
LINE
  5
160EC
330
747D
100
AcDbEntity
  8
部品1
100
AcDbLine
 10
7573.396575106984
 20
9026.66518431738
 30
0.0
 11
4216.396575106982
 21
9026.66518431728
 31
0.0
  0
LINE
  5
16446
330
747D
100
AcDbEntity
  8
部品1
100
AcDbLine
 10
7573.396575106984
 20
8606.66518431738
 30
0.0
 11
4216.396575106982
 21
8606.665184317281
 31
0.0
  0
LINE
  5
16447
330
747D
100
AcDbEntity
  8
部品1
100
AcDbLine
 10
4187.896575106973
 20
8606.665184317281
 30
0.0
 11
4159.896575106973
 21
8606.665184317281
 31
0.0
  0
LINE
  5
16448
330
747D
100
AcDbEntity
  8
部品1
100
AcDbLine
 10
7601.896575107
 20
8606.665184317408
 30
0.0
 11
7629.896575106998
 21
8606.665184317408
 31
0.0
  0
LINE
  5
16462
330
747D
100
AcDbEntity
  8
仕様書枠
 48
50.0
100
AcDbLine
 10
16307.2
 20
1200.0
 30
0.0
 11
16307.2
 21
-0.0000000000000909
 31
0.0
  0
TEXT
  5
1649E
330
747D
100
AcDbEntity
  8
文字
 62
     7
 48
50.0
100
AcDbText
 10
14524.131837222
 20
1031.557706291228
 30
0.0
 40
100.0
  1
NO.41     <縮尺> S=1/40
  7
STYLE2
100
AcDbText
  0
TEXT
  5
1649F
330
747D
100
AcDbEntity
  8
文字
 62
     7
 48
50.0
100
AcDbText
 10
14883.82156197996
 20
881.2807276968213
 30
0.0
 40
100.0
  1
～一般型～
  7
STYLE2
100
AcDbText
  0
TEXT
  5
164A1
330
747D
100
AcDbEntity
  8
文字
 62
     7
 48
50.0
100
AcDbText
 10
13209.4053442172
 20
76.09434707649348
 30
0.0
 40
100.0
  1
○床面積 ： 6.38㎡(1.93坪) 　
  7
STYLE2
100
AcDbText
  0
LINE
  5
16E93
330
747D
100
AcDbEntity
  8
部品1
100
AcDbLine
 10
4634.896575106991
 20
4784.574105358053
 30
0.0
 11
4634.896575106991
 21
2994.574105358053
 31
0.0
  0
LINE
  5
16EE4
330
747D
100
AcDbEntity
  8
部品1
100
AcDbLine
 10
7601.896575107
 20
8186.665184317392
 30
0.0
 11
7629.896575106998
 21
8186.665184317392
 31
0.0
  0
LINE
  5
16EE5
330
747D
100
AcDbEntity
  8
部品1
100
AcDbLine
 10
7574.896575106999
 20
8131.665184317396
 30
0.0
 11
7574.896575106999
 21
8159.665184317397
 31
0.0
  0
LINE
  5
16EE6
330
747D
100
AcDbEntity
  8
部品1
100
AcDbLine
 10
4187.896575106973
 20
8159.665184317359
 30
0.0
 11
7601.896575107
 21
8159.665184317397
 31
0.0
  0
LINE
  5
16EE7
330
747D
100
AcDbEntity
  8
部品1
100
AcDbLine
 10
4214.896575106966
 20
8131.665184317396
 30
0.0
 11
4214.896575106966
 21
8159.665184317397
 31
0.0
  0
LINE
  5
16F82
330
747D
100
AcDbEntity
  8
部品1
100
AcDbLine
 10
4634.896575106963
 20
9921.665184317276
 30
0.0
 11
4634.896575106966
 21
9893.665184317278
 31
0.0
  0
LINE
  5
16F83
330
747D
100
AcDbEntity
  8
部品1
100
AcDbLine
 10
5054.896575106963
 20
9921.665184317276
 30
0.0
 11
5054.896575106966
 21
9893.665184317278
 31
0.0
  0
LINE
  5
16F84
330
747D
100
AcDbEntity
  8
部品1
100
AcDbLine
 10
5474.896575106963
 20
9921.665184317276
 30
0.0
 11
5474.896575106966
 21
9893.665184317278
 31
0.0
  0
LINE
  5
16F85
330
747D
100
AcDbEntity
  8
部品1
100
AcDbLine
 10
5894.896575106963
 20
9921.665184317276
 30
0.0
 11
5894.896575106966
 21
9893.665184317278
 31
0.0
  0
LINE
  5
16F86
330
747D
100
AcDbEntity
  8
部品1
100
AcDbLine
 10
6734.896575106962
 20
9921.665184317276
 30
0.0
 11
6734.896575106967
 21
9893.665184317278
 31
0.0
  0
LINE
  5
16F87
330
747D
100
AcDbEntity
  8
部品1
100
AcDbLine
 10
6314.896575106963
 20
9921.665184317276
 30
0.0
 11
6314.896575106967
 21
9893.665184317278
 31
0.0
  0
LINE
  5
16F88
330
747D
100
AcDbEntity
  8
部品1
100
AcDbLine
 10
7154.896575106963
 20
9921.665184317276
 30
0.0
 11
7154.896575106966
 21
9893.665184317278
 31
0.0
  0
LINE
  5
16FE6
330
747D
100
AcDbEntity
  8
部品1
100
AcDbLine
 10
4634.896575106966
 20
8131.665184317396
 30
0.0
 11
4634.896575106966
 21
8159.665184317397
 31
0.0
  0
LINE
  5
16FE7
330
747D
100
AcDbEntity
  8
部品1
100
AcDbLine
 10
5054.896575106966
 20
8131.665184317396
 30
0.0
 11
5054.896575106966
 21
8159.665184317397
 31
0.0
  0
LINE
  5
16FE8
330
747D
100
AcDbEntity
  8
部品1
100
AcDbLine
 10
7154.896575106999
 20
8131.665184317382
 30
0.0
 11
7154.896575106999
 21
8159.665184317397
 31
0.0
  0
LINE
  5
17068
330
747D
100
AcDbEntity
  8
部品1
 48
50.0
100
AcDbLine
 10
5252.39657510693
 20
9893.665184317415
 30
0.0
 11
5252.39657510693
 21
9441.665184317415
 31
0.0
  0
LINE
  5
17069
330
747D
100
AcDbEntity
  8
部品1
 48
50.0
100
AcDbLine
 10
5277.39657510693
 20
9893.66518431742
 30
0.0
 11
5277.39657510693
 21
9441.665184317415
 31
0.0
  0
LINE
  5
1706A
330
747D
100
AcDbEntity
  8
部品1
 48
50.0
100
AcDbLine
 10
5251.39657510693
 20
9891.665184317409
 30
0.0
 11
5251.39657510693
 21
9441.665184317415
 31
0.0
  0
LINE
  5
1706B
330
747D
100
AcDbEntity
  8
部品1
 48
50.0
100
AcDbLine
 10
5279.39657510693
 20
9891.665184317412
 30
0.0
 11
5279.39657510693
 21
9441.665184317415
 31
0.0
  0
LINE
  5
1706C
330
747D
100
AcDbEntity
  8
部品1
100
AcDbLine
 10
5277.39657510693
 20
9441.665184317415
 30
0.0
 11
5252.39657510693
 21
9441.665184317415
 31
0.0
  0
LINE
  5
1706D
330
747D
100
AcDbEntity
  8
部品1
100
AcDbLine
 10
5235.89657510693
 20
9911.665184317412
 30
0.0
 11
5229.896575106931
 21
9911.665184317412
 31
0.0
  0
LINE
  5
1706E
330
747D
100
AcDbEntity
  8
部品1
100
AcDbLine
 10
5229.896575106931
 20
9911.665184317412
 30
0.0
 11
5229.896575106931
 21
9893.665184317413
 31
0.0
  0
LINE
  5
1706F
330
747D
100
AcDbEntity
  8
部品1
100
AcDbLine
 10
5277.39657510693
 20
9885.665184317408
 30
0.0
 11
5252.39657510693
 21
9885.665184317412
 31
0.0
  0
LINE
  5
17070
330
747D
100
AcDbEntity
  8
部品1
100
AcDbLine
 10
5299.89657510693
 20
9911.665184317412
 30
0.0
 11
5293.896575106931
 21
9911.665184317412
 31
0.0
  0
LINE
  5
17071
330
747D
100
AcDbEntity
  8
部品1
100
AcDbLine
 10
5299.89657510693
 20
9911.665184317412
 30
0.0
 11
5299.89657510693
 21
9893.665184317413
 31
0.0
  0
LINE
  5
17072
330
747D
100
AcDbEntity
  8
細線
 48
50.0
100
AcDbLine
 10
5251.39657510693
 20
9441.665184317358
 30
0.0
 11
4188.396575106997
 21
9891.665184317311
 31
0.0
  0
LINE
  5
17073
330
747D
100
AcDbEntity
  8
細線
 48
50.0
100
AcDbLine
 10
5251.39657510693
 20
9891.665184317359
 30
0.0
 11
4188.396575106999
 21
9441.66518431731
 31
0.0
  0
LINE
  5
17074
330
747D
100
AcDbEntity
  8
部品1
100
AcDbLine
 10
5279.39657510693
 20
9891.665184317357
 30
0.0
 11
6510.396575106999
 21
9891.665184317416
 31
0.0
  0
LINE
  5
17075
330
747D
100
AcDbEntity
  8
部品1
100
AcDbLine
 10
5279.39657510693
 20
9441.665184317356
 30
0.0
 11
6510.396575106998
 21
9441.665184317415
 31
0.0
  0
DIMENSION
  5
17082
330
747D
100
AcDbEntity
  8
寸法
100
AcDbDimension
  2
*D15
 10
6453.16090210852
 20
9228.058744681629
 30
0.0
 11
6081.244808320626
 21
9228.058744681629
 31
0.0
 70
   160
 71
     5
 42
1231.00000000007
  3
INABA_S40G
100
AcDbAlignedDimension
 13
5279.396575106929
 23
9441.665184317356
 33
0.0
 14
6510.396575106999
 24
9441.665184317349
 34
0.0
100
AcDbRotatedDimension
1001
ACAD
1000
DSTYLE
1002
{
1002
}
  0
LINE
  5
172BD
330
747D
100
AcDbEntity
  8
部品1
 48
50.0
100
AcDbLine
 10
4214.896575106966
 20
8131.665184317267
 30
0.0
 11
5054.896575106966
 21
8131.665184317267
 31
0.0
  0
LINE
  5
172C0
330
747D
100
AcDbEntity
  8
部品1
 48
50.0
100
AcDbLine
 10
5054.896575106966
 20
8159.665184317262
 30
0.0
 11
7154.896575106966
 21
8159.665184317267
 31
0.0
  0
LINE
  5
1736C
330
747D
100
AcDbEntity
  8
部品1
100
AcDbLine
 10
5277.39657510693
 20
9893.665184317427
 30
0.0
 11
6512.396575106996
 21
9893.665184317427
 31
0.0
  0
LINE
  5
17961
330
747D
100
AcDbEntity
  8
部品1
100
AcDbLine
 10
10140.65313193489
 20
4770.261210266455
 30
0.0
 11
10217.65313193489
 21
4784.574105358053
 31
0.0
  0
DIMENSION
  5
179DE
330
747D
100
AcDbEntity
  8
寸法
100
AcDbDimension
  2
*D23
 10
9073.903002751629
 20
5019.574105358059
 30
0.0
 11
8973.891191728005
 21
3982.074105358058
 31
0.0
 70
    32
 71
     5
 42
2075.000000000005
  3
INABA_S40G
100
AcDbAlignedDimension
 13
10140.65313193488
 23
2944.574105358054
 33
0.0
 14
10157.65313193489
 24
5019.574105358059
 34
0.0
 50
90.0
100
AcDbRotatedDimension
1001
ACAD
1000
DSTYLE
1002
{
1070
   174
1070
     0
1070
   272
1070
     1
1070
   288
1070
     0
1070
   341
1005
0
1002
}
  0
TEXT
  5
179DF
330
747D
100
AcDbEntity
  8
部品1
 48
50.0
100
AcDbText
 10
10950.92096715861
 20
5186.326266611766
 30
0.0
 40
120.0
  1
1000
  7
STYLE1
100
AcDbText
  0
LINE
  5
179E0
330
747D
100
AcDbEntity
  8
部品1
100
AcDbLine
 10
10165.19811829185
 20
5018.29184069232
 30
0.0
 11
12080.26500879635
 21
4963.214903067193
 31
0.0
  0
LINE
  5
179E1
330
747D
100
AcDbEntity
  8
部品1
100
AcDbLine
 10
10172.99569653684
 20
4877.35513042702
 30
0.0
 11
12062.31683247473
 21
4838.326705192815
 31
0.0
  0
LINE
  5
179E2
330
747D
100
AcDbEntity
  8
細線
 48
50.0
100
AcDbLine
 10
10190.65313193489
 20
5016.973781733458
 30
0.0
 11
10185.36403037938
 21
4876.888149106104
 31
0.0
  0
LINE
  5
179E3
330
747D
100
AcDbEntity
  8
細線
 48
50.0
100
AcDbLine
 10
12054.65313193489
 20
4964.541084393349
 30
0.0
 11
12049.90544904689
 21
4838.795311902605
 31
0.0
  0
LINE
  5
179E4
330
747D
100
AcDbEntity
  8
部品1
 48
50.0
100
AcDbLine
 10
10157.83741784799
 20
5011.167651522747
 30
0.0
 11
10158.2176776258
 21
4991.240687076334
 31
0.0
  0
LINE
  5
179E5
330
747D
100
AcDbEntity
  8
部品1
 48
50.0
100
AcDbLine
 10
10161.28644973205
 20
4987.665405582863
 30
0.0
 11
10162.99035122341
 21
4898.374908876215
 31
0.0
  0
LINE
  5
179E6
330
747D
100
AcDbEntity
  8
細線
 48
50.0
100
AcDbLine
 10
10158.6925550357
 20
4990.591187199415
 30
0.0
 11
12084.32853978087
 21
4934.966982558587
 31
0.0
  0
LINE
  5
179E7
330
747D
100
AcDbEntity
  8
細線
 48
50.0
100
AcDbLine
 10
10163.45303027299
 20
4897.729675501551
 30
0.0
 11
12073.45669470362
 21
4857.920356527058
 31
0.0
  0
LINE
  5
179E8
330
747D
100
AcDbEntity
  8
部品1
 48
50.0
100
AcDbLine
 10
10166.05912332966
 20
4894.799627382742
 30
0.0
 11
10166.26107595009
 21
4884.216591989651
 31
0.0
  0
ARC
  5
179E9
330
747D
100
AcDbEntity
  8
部品1
 48
50.0
100
AcDbCircle
 10
10164.83614367633
 20
5011.301205930173
 30
0.0
 40
7.0
100
AcDbArc
 50
87.03587545303976
 51
181.0932240292635
  0
ARC
  5
179EA
330
747D
100
AcDbEntity
  8
部品1
 48
50.0
100
AcDbCircle
 10
10173.25980177843
 20
4884.350146397078
 30
0.0
 40
7.0
100
AcDbArc
 50
181.0932240292635
 51
267.8377559871574
  0
ARC
  5
179EB
330
747D
100
AcDbEntity
  8
部品1
100
AcDbCircle
 10
10163.05966940322
 20
4894.74238977956
 30
0.0
 40
3.0
100
AcDbArc
 50
1.093224029263536
 51
80.18775403148671
  0
ARC
  5
179EC
330
747D
100
AcDbEntity
  8
部品1
100
AcDbCircle
 10
10158.28699580562
 20
4987.608167979679
 30
0.0
 40
3.0
100
AcDbArc
 50
1.093224029263536
 51
80.18775403148671
  0
ARC
  5
179ED
330
747D
100
AcDbEntity
  8
部品1
100
AcDbCircle
 10
10158.91755020864
 20
4991.254042517077
 30
0.0
 40
0.7
100
AcDbArc
 50
181.0932240292114
 51
260.1877540314867
  0
ARC
  5
179EE
330
747D
100
AcDbEntity
  8
部品1
100
AcDbCircle
 10
10163.69022380625
 20
4898.388264316957
 30
0.0
 40
0.7
100
AcDbArc
 50
181.0932240292114
 51
260.1877540314867
  0
LINE
  5
179EF
330
747D
100
AcDbEntity
  8
部品1
 48
50.0
100
AcDbLine
 10
12086.86703474559
 20
4955.515257632272
 30
0.0
 11
12084.83641355462
 21
4935.570216374492
 31
0.0
  0
LINE
  5
179F0
330
747D
100
AcDbEntity
  8
部品1
 48
50.0
100
AcDbLine
 10
12081.48384707013
 20
4932.259582301583
 30
0.0
 11
12073.9770678053
 21
4858.52696155657
 31
0.0
  0
LINE
  5
179F1
330
747D
100
AcDbEntity
  8
部品1
 48
50.0
100
AcDbLine
 10
12070.62450132081
 20
4855.216327483659
 30
0.0
 11
12069.54493828107
 21
4844.6127104901
 31
0.0
  0
ARC
  5
179F2
330
747D
100
AcDbEntity
  8
部品1
 48
50.0
100
AcDbCircle
 10
12079.90303418083
 20
4956.224268305046
 30
0.0
 40
7.0
100
AcDbArc
 50
354.1866997665532
 51
87.03587545303976
  0
ARC
  5
179F3
330
747D
100
AcDbEntity
  8
部品1
 48
50.0
100
AcDbCircle
 10
12062.58093771632
 20
4845.321721162873
 30
0.0
 40
7.0
100
AcDbArc
 50
267.8377559871574
 51
354.1866997665532
  0
ARC
  5
179F4
330
747D
100
AcDbEntity
  8
部品1
100
AcDbCircle
 10
12073.60907299142
 20
4854.912465766755
 30
0.0
 40
3.0
100
AcDbArc
 50
95.0921697642102
 51
174.1866997665532
  0
ARC
  5
179F5
330
747D
100
AcDbEntity
  8
部品1
100
AcDbCircle
 10
12084.46841874075
 20
4931.95572058468
 30
0.0
 40
3.0
100
AcDbArc
 50
95.09216976441896
 51
174.1866997665532
  0
ARC
  5
179F6
330
747D
100
AcDbEntity
  8
部品1
100
AcDbCircle
 10
12084.14001349814
 20
4935.641117441769
 30
0.0
 40
0.7
100
AcDbArc
 50
275.0921697642102
 51
354.1866997665532
  0
ARC
  5
179F7
330
747D
100
AcDbEntity
  8
部品1
100
AcDbCircle
 10
12073.28066774882
 20
4858.597862623845
 30
0.0
 40
0.7
100
AcDbArc
 50
275.0921697642102
 51
354.1866997667087
  0
LINE
  5
179F8
330
747D
100
AcDbEntity
  8
部品1
 48
50.0
100
AcDbLine
 10
10962.65313193488
 20
5150.442244459333
 30
0.0
 11
11262.65313193488
 21
5150.442244459333
 31
0.0
  0
LINE
  5
179F9
330
747D
100
AcDbEntity
  8
部品1
 48
50.0
100
AcDbLine
 10
11262.65313193488
 20
5150.442244459333
 30
0.0
 11
11262.65313193488
 21
5134.242244459334
 31
0.0
  0
TEXT
  5
179FA
330
747D
100
AcDbEntity
  8
部品1
 48
50.0
100
AcDbText
 10
11439.74597922275
 20
5048.825008393484
 30
0.0
 40
120.0
  1
54
 50
90.0
  7
STYLE1
100
AcDbText
  0
LINE
  5
179FB
330
747D
100
AcDbEntity
  8
部品1
 48
50.0
100
AcDbLine
 10
10962.65313193488
 20
5150.442244459333
 30
0.0
 11
11262.65313193488
 21
5134.242244459334
 31
0.0
  0
DIMENSION
  5
179FC
330
747D
100
AcDbEntity
  8
寸法
 48
50.0
100
AcDbDimension
  2
*D24
 10
9597.044725166538
 20
4893.919364231376
 30
0.0
 11
9607.710200425458
 21
5264.766027473078
 31
0.0
 70
   161
 71
     5
 42
141.0
  3
INABA_S40G
100
AcDbAlignedDimension
 13
10177.04915209346
 23
5018.296854192733
 33
0.0
 14
10172.99569653684
 24
4877.35513042702
 34
0.0
1001
ACAD
1000
DSTYLE
1002
{
1070
   174
1070
     0
1070
   272
1070
     1
1070
   288
1070
     0
1070
   341
1005
0
1002
}
  0
DIMENSION
  5
179FD
330
747D
100
AcDbEntity
  8
寸法
 48
50.0
100
AcDbDimension
  2
*D25
 10
10157.65313193489
 20
5418.231558937357
 30
0.0
 11
9848.015336659299
 21
5418.231558937357
 31
0.0
 70
   160
 71
     5
 42
60.0
  3
INABA_S40G
100
AcDbAlignedDimension
 13
10217.65313193489
 23
5015.57572348103
 33
0.0
 14
10157.65313193489
 24
5019.574105358057
 34
0.0
100
AcDbRotatedDimension
1001
ACAD
1000
DSTYLE
1002
{
1070
   174
1070
     0
1070
   272
1070
     1
1070
   288
1070
     0
1070
   341
1005
0
1002
}
  0
DIMENSION
  5
179FE
330
747D
100
AcDbEntity
  8
寸法
 48
50.0
100
AcDbDimension
  2
*D26
 10
10217.65313193489
 20
5418.667274697526
 30
0.0
 11
11127.24878061136
 21
5418.667274697526
 31
0.0
 70
   160
  1
柱外寸法<>
 71
     5
 42
1790.0
  3
INABA_S40G
100
AcDbAlignedDimension
 13
12007.65313193489
 23
4966.384784969707
 33
0.0
 14
10217.65313193489
 24
5015.57572348103
 34
0.0
100
AcDbRotatedDimension
1001
ACAD
1000
DSTYLE
1002
{
1070
   174
1070
     0
1070
   272
1070
     1
1070
   288
1070
     0
1070
   341
1005
0
1002
}
  0
DIMENSION
  5
179FF
330
747D
100
AcDbEntity
  8
寸法
 48
50.0
100
AcDbDimension
  2
*D27
 10
10157.65313193489
 20
5635.193374315972
 30
0.0
 11
11063.45888318585
 21
5635.193374315972
 31
0.0
 70
   160
 71
     5
 42
1930.0
  3
INABA_S40G
100
AcDbAlignedDimension
 13
12087.65313193489
 23
4964.574105358054
 33
0.0
 14
10157.65313193489
 24
5019.574105358057
 34
0.0
100
AcDbRotatedDimension
1001
ACAD
1000
DSTYLE
1002
{
1070
   174
1070
     0
1070
   272
1070
     1
1070
   288
1070
     0
1070
   341
1005
0
1002
}
  0
DIMENSION
  5
17A00
330
747D
100
AcDbEntity
  8
寸法
 48
50.0
100
AcDbDimension
  2
*D28
 10
12087.65313193489
 20
5418.231558937357
 30
0.0
 11
12293.70037602937
 21
5418.231558937357
 31
0.0
 70
   160
 71
     5
 42
80.0
  3
INABA_S40G
100
AcDbAlignedDimension
 13
12007.65313193489
 23
4966.384784969707
 33
0.0
 14
12087.65313193489
 24
4964.574105358054
 34
0.0
100
AcDbRotatedDimension
1001
ACAD
1000
DSTYLE
1002
{
1070
   174
1070
     0
1070
   272
1070
     1
1070
   288
1070
     0
1070
   341
1005
0
1002
}
  0
LINE
  5
17A01
330
747D
100
AcDbEntity
  8
細線
 48
50.0
100
AcDbLine
 10
10350.15313193489
 20
4784.574105358053
 30
0.0
 11
10350.15313193489
 21
2994.574105358053
 31
0.0
  0
LINE
  5
17A02
330
747D
100
AcDbEntity
  8
細線
 48
50.0
100
AcDbLine
 10
10335.15313193489
 20
4784.574105358053
 30
0.0
 11
10335.15313193489
 21
2994.574105358053
 31
0.0
  0
LINE
  5
17A03
330
747D
100
AcDbEntity
  8
細線
 48
50.0
100
AcDbLine
 10
10475.15313193489
 20
4784.574105358053
 30
0.0
 11
10475.15313193489
 21
2994.574105358053
 31
0.0
  0
LINE
  5
17A04
330
747D
100
AcDbEntity
  8
細線
 48
50.0
100
AcDbLine
 10
10490.15313193489
 20
4784.574105358053
 30
0.0
 11
10490.15313193489
 21
2994.574105358053
 31
0.0
  0
LINE
  5
17A05
330
747D
100
AcDbEntity
  8
細線
 48
50.0
100
AcDbLine
 10
10630.15313193489
 20
4784.574105358053
 30
0.0
 11
10630.15313193489
 21
2994.574105358053
 31
0.0
  0
LINE
  5
17A06
330
747D
100
AcDbEntity
  8
細線
 48
50.0
100
AcDbLine
 10
10615.15313193489
 20
4784.574105358053
 30
0.0
 11
10615.15313193489
 21
2994.574105358053
 31
0.0
  0
LINE
  5
17A07
330
747D
100
AcDbEntity
  8
細線
 48
50.0
100
AcDbLine
 10
10770.15313193489
 20
4784.574105358053
 30
0.0
 11
10770.15313193489
 21
2994.574105358053
 31
0.0
  0
LINE
  5
17A08
330
747D
100
AcDbEntity
  8
細線
 48
50.0
100
AcDbLine
 10
10755.15313193489
 20
4784.574105358053
 30
0.0
 11
10755.15313193489
 21
2994.574105358053
 31
0.0
  0
LINE
  5
17A09
330
747D
100
AcDbEntity
  8
細線
 48
50.0
100
AcDbLine
 10
10895.15313193489
 20
4784.574105358053
 30
0.0
 11
10895.15313193489
 21
2994.574105358053
 31
0.0
  0
LINE
  5
17A0A
330
747D
100
AcDbEntity
  8
細線
 48
50.0
100
AcDbLine
 10
10910.15313193489
 20
4784.574105358053
 30
0.0
 11
10910.15313193489
 21
2994.574105358053
 31
0.0
  0
LINE
  5
17A0B
330
747D
100
AcDbEntity
  8
細線
 48
50.0
100
AcDbLine
 10
11050.15313193489
 20
4784.574105358053
 30
0.0
 11
11050.15313193489
 21
2994.574105358053
 31
0.0
  0
LINE
  5
17A0C
330
747D
100
AcDbEntity
  8
細線
 48
50.0
100
AcDbLine
 10
11035.15313193489
 20
4784.574105358053
 30
0.0
 11
11035.15313193489
 21
2994.574105358053
 31
0.0
  0
LINE
  5
17A0D
330
747D
100
AcDbEntity
  8
細線
 48
50.0
100
AcDbLine
 10
11455.15313193489
 20
4784.574105358053
 30
0.0
 11
11455.15313193489
 21
2994.574105358053
 31
0.0
  0
LINE
  5
17A0E
330
747D
100
AcDbEntity
  8
細線
 48
50.0
100
AcDbLine
 10
11470.15313193489
 20
4784.574105358053
 30
0.0
 11
11470.15313193489
 21
2994.574105358053
 31
0.0
  0
LINE
  5
17A0F
330
747D
100
AcDbEntity
  8
細線
 48
50.0
100
AcDbLine
 10
11330.15313193489
 20
4784.574105358053
 30
0.0
 11
11330.15313193489
 21
2994.574105358053
 31
0.0
  0
LINE
  5
17A10
330
747D
100
AcDbEntity
  8
細線
 48
50.0
100
AcDbLine
 10
11315.15313193489
 20
4784.574105358053
 30
0.0
 11
11315.15313193489
 21
2994.574105358053
 31
0.0
  0
LINE
  5
17A11
330
747D
100
AcDbEntity
  8
細線
 48
50.0
100
AcDbLine
 10
11175.15313193489
 20
4784.574105358053
 30
0.0
 11
11175.15313193489
 21
2994.574105358053
 31
0.0
  0
LINE
  5
17A12
330
747D
100
AcDbEntity
  8
細線
 48
50.0
100
AcDbLine
 10
11190.15313193489
 20
4784.574105358053
 30
0.0
 11
11190.15313193489
 21
2994.574105358053
 31
0.0
  0
LINE
  5
17A13
330
747D
100
AcDbEntity
  8
細線
 48
50.0
100
AcDbLine
 10
11875.15313193489
 20
4784.574105358053
 30
0.0
 11
11875.15313193489
 21
2994.574105358053
 31
0.0
  0
LINE
  5
17A14
330
747D
100
AcDbEntity
  8
細線
 48
50.0
100
AcDbLine
 10
11890.15313193489
 20
4784.574105358053
 30
0.0
 11
11890.15313193489
 21
2994.574105358053
 31
0.0
  0
LINE
  5
17A15
330
747D
100
AcDbEntity
  8
細線
 48
50.0
100
AcDbLine
 10
11750.15313193489
 20
4784.574105358053
 30
0.0
 11
11750.15313193489
 21
2994.574105358053
 31
0.0
  0
LINE
  5
17A16
330
747D
100
AcDbEntity
  8
細線
 48
50.0
100
AcDbLine
 10
11735.15313193489
 20
4784.574105358053
 30
0.0
 11
11735.15313193489
 21
2994.574105358053
 31
0.0
  0
LINE
  5
17A17
330
747D
100
AcDbEntity
  8
細線
 48
50.0
100
AcDbLine
 10
11595.15313193489
 20
4784.574105358053
 30
0.0
 11
11595.15313193489
 21
2994.574105358053
 31
0.0
  0
LINE
  5
17A18
330
747D
100
AcDbEntity
  8
細線
 48
50.0
100
AcDbLine
 10
11610.15313193489
 20
4784.574105358053
 30
0.0
 11
11610.15313193489
 21
2994.574105358053
 31
0.0
  0
TEXT
  5
17BE4
330
747D
100
AcDbEntity
  8
文字
 62
     7
 48
50.0
100
AcDbText
 10
13248.77747366447
 20
8380.013745883728
 30
0.0
 40
100.0
  1
17
  7
STYLE1
100
AcDbText
  0
TEXT
  5
17BE5
330
747D
100
AcDbEntity
  8
文字
 62
     7
 48
50.0
100
AcDbText
 10
13248.77747366447
 20
8550.013745883729
 30
0.0
 40
100.0
  1
16
  7
STYLE1
100
AcDbText
  0
TEXT
  5
17BE6
330
747D
100
AcDbEntity
  8
文字
 62
     7
 48
50.0
100
AcDbText
 10
15022.63965474517
 20
9060.013745883725
 30
0.0
 40
100.0
  1
F12            1.0
  7
STYLE1
100
AcDbText
  0
TEXT
  5
17BE7
330
747D
100
AcDbEntity
  8
文字
 62
     7
 48
50.0
100
AcDbText
 10
13583.11819016569
 20
9060.013745883733
 30
0.0
 40
100.0
  1
壁面扉枠左右
  7
STYLE1
100
AcDbText
  0
TEXT
  5
17BE8
330
747D
100
AcDbEntity
  8
文字
 62
     7
 48
50.0
100
AcDbText
 10
15022.63965474517
 20
9230.013745883725
 30
0.0
 40
100.0
  1
F12            1.0
  7
STYLE1
100
AcDbText
  0
TEXT
  5
17BE9
330
747D
100
AcDbEntity
  8
文字
 62
     7
 48
50.0
100
AcDbText
 10
15022.63965474515
 20
9400.013745883727
 30
0.0
 40
100.0
  1
F12            0.7
  7
STYLE1
100
AcDbText
  0
TEXT
  5
17BEA
330
747D
100
AcDbEntity
  8
文字
 62
     7
 48
50.0
100
AcDbText
 10
13583.11819016569
 20
9230.013745883733
 30
0.0
 40
100.0
  1
壁面扉敷居
  7
STYLE1
100
AcDbText
  0
TEXT
  5
17BEB
330
747D
100
AcDbEntity
  8
文字
 62
     7
 48
50.0
100
AcDbText
 10
13583.11819016569
 20
9400.013745883729
 30
0.0
 40
100.0
  1
壁面扉鴨居
  7
STYLE1
100
AcDbText
  0
LINE
  5
17BEC
330
747D
100
AcDbEntity
  8
仕様書枠
 48
50.0
100
AcDbLine
 10
16307.19999999999
 20
8689.600000000003
 30
0.0
 11
13127.2
 21
8689.600000000005
 31
0.0
  0
LINE
  5
17BED
330
747D
100
AcDbEntity
  8
仕様書枠
 48
50.0
100
AcDbLine
 10
16307.19999999999
 20
8519.600000000004
 30
0.0
 11
13127.2
 21
8519.600000000005
 31
0.0
  0
LWPOLYLINE
  5
17BEE
330
747D
100
AcDbEntity
  8
部品1
100
AcDbPolyline
 90
        4
 70
     1
 43
0.0
 10
5513.161241992794
 20
6571.636714448043
 10
5513.161241992794
 20
6331.744392902511
 10
6276.631908221234
 20
6331.744392902511
 10
6276.631908221234
 20
6571.636714448043
  0
TEXT
  5
17BEF
330
747D
100
AcDbEntity
  8
部品1
100
AcDbText
 10
5603.080851821835
 20
6378.743185229519
 30
0.0
 40
135.0
  1
平面図
  7
STYLE2
100
AcDbText
  0
TEXT
  5
17BF0
330
747D
100
AcDbEntity
  8
部品1
100
AcDbText
 10
5603.686645730736
 20
2116.746235394419
 30
0.0
 40
135.0
  1
正面図
  7
STYLE2
100
AcDbText
  0
LWPOLYLINE
  5
17BF1
330
747D
100
AcDbEntity
  8
部品1
100
AcDbPolyline
 90
        4
 70
     1
 43
0.0
 10
5513.161241992779
 20
2309.639764612944
 10
5513.161241992779
 20
2069.747443067411
 10
6276.63190822122
 20
2069.747443067411
 10
6276.63190822122
 20
2309.639764612944
  0
TEXT
  5
17BF2
330
747D
100
AcDbEntity
  8
文字
 62
     7
 48
50.0
100
AcDbText
 10
14505.34213575793
 20
483.8967129911411
 30
0.0
 40
160.0
  1
ＮＸＮ－６２Ｓ
  7
STYLE2
100
AcDbText
  0
TEXT
  5
17BF3
330
747D
100
AcDbEntity
  8
文字
 62
     7
 48
50.0
100
AcDbText
 10
13583.11819016569
 20
8380.013745883728
 30
0.0
 40
100.0
  1
アンカープレート
  7
STYLE1
100
AcDbText
  0
TEXT
  5
17BF4
330
747D
100
AcDbEntity
  8
文字
 62
     7
 48
50.0
100
AcDbText
 10
15022.63965474515
 20
8380.013745883724
 30
0.0
 40
100.0
  1
F12            2.3
  7
STYLE1
100
AcDbText
  0
LINE
  5
17BF5
330
747D
100
AcDbEntity
  8
仕様書枠
 48
50.0
100
AcDbLine
 10
16307.2
 20
10049.6
 30
0.0
 11
13127.2
 21
10049.6
 31
0.0
  0
LINE
  5
17BF6
330
747D
100
AcDbEntity
  8
仕様書枠
 48
50.0
100
AcDbLine
 10
16307.2
 20
11409.6
 30
0.0
 11
13127.2
 21
11409.6
 31
0.0
  0
LINE
  5
17BF7
330
747D
100
AcDbEntity
  8
仕様書枠
 48
50.0
100
AcDbLine
 10
16307.19999999999
 20
8009.600000000004
 30
0.0
 11
16307.2
 21
11409.6
 31
0.0
  0
LINE
  5
17BF8
330
747D
100
AcDbEntity
  8
仕様書枠
 48
50.0
100
AcDbLine
 10
14785.2
 20
11409.59999999999
 30
0.0
 11
14785.2
 21
8349.600000000004
 31
0.0
  0
LINE
  5
17BF9
330
747D
100
AcDbEntity
  8
仕様書枠
 48
50.0
100
AcDbLine
 10
13490.2
 20
11409.6
 30
0.0
 11
13490.20000000001
 21
8349.600000000007
 31
0.0
  0
LINE
  5
17BFA
330
747D
100
AcDbEntity
  8
仕様書枠
 48
50.0
100
AcDbLine
 10
16307.2
 20
11239.6
 30
0.0
 11
13127.2
 21
11239.6
 31
0.0
  0
LINE
  5
17BFB
330
747D
100
AcDbEntity
  8
仕様書枠
 48
50.0
100
AcDbLine
 10
16307.2
 20
10899.6
 30
0.0
 11
13127.2
 21
10899.6
 31
0.0
  0
LINE
  5
17BFC
330
747D
100
AcDbEntity
  8
仕様書枠
 48
50.0
100
AcDbLine
 10
16307.2
 20
11069.6
 30
0.0
 11
13127.2
 21
11069.6
 31
0.0
  0
LINE
  5
17BFD
330
747D
100
AcDbEntity
  8
仕様書枠
 48
50.0
100
AcDbLine
 10
16307.19999999999
 20
10559.6
 30
0.0
 11
13127.2
 21
10559.6
 31
0.0
  0
LINE
  5
17BFE
330
747D
100
AcDbEntity
  8
仕様書枠
 48
50.0
100
AcDbLine
 10
16307.19999999999
 20
10389.6
 30
0.0
 11
13127.2
 21
10389.6
 31
0.0
  0
LINE
  5
17BFF
330
747D
100
AcDbEntity
  8
仕様書枠
 48
50.0
100
AcDbLine
 10
16307.19999999999
 20
10729.6
 30
0.0
 11
13127.2
 21
10729.6
 31
0.0
  0
TEXT
  5
17C00
330
747D
100
AcDbEntity
  8
文字
 62
     7
 48
50.0
100
AcDbText
 10
13197.42518560407
 20
11270.01374588372
 30
0.0
 40
100.0
  1
品番
  7
STYLE1
100
AcDbText
  0
TEXT
  5
17C01
330
747D
100
AcDbEntity
  8
文字
 62
     7
 48
50.0
100
AcDbText
 10
13271.19032244792
 20
11100.01374588373
 30
0.0
 40
100.0
  1
1
  7
STYLE1
100
AcDbText
  0
TEXT
  5
17C02
330
747D
100
AcDbEntity
  8
文字
 62
     7
 48
50.0
100
AcDbText
 10
13271.19032244792
 20
10930.01374588373
 30
0.0
 40
100.0
  1
2
  7
STYLE1
100
AcDbText
  0
TEXT
  5
17C03
330
747D
100
AcDbEntity
  8
文字
 62
     7
 48
50.0
100
AcDbText
 10
13271.19032244792
 20
10590.01374588373
 30
0.0
 40
100.0
  1
4
  7
STYLE1
100
AcDbText
  0
TEXT
  5
17C04
330
747D
100
AcDbEntity
  8
文字
 62
     7
 48
50.0
100
AcDbText
 10
13271.19032244792
 20
10760.01374588373
 30
0.0
 40
100.0
  1
3
  7
STYLE1
100
AcDbText
  0
TEXT
  5
17C05
330
747D
100
AcDbEntity
  8
文字
 62
     7
 48
50.0
100
AcDbText
 10
13732.03840939434
 20
11270.01374588372
 30
0.0
 40
100.0
  1
部　　品　　名
  7
STYLE1
100
AcDbText
  0
TEXT
  5
17C06
330
747D
100
AcDbEntity
  8
文字
 62
     7
 48
50.0
100
AcDbText
 10
14859.79774614482
 20
11270.01374588372
 30
0.0
 40
100.0
  1
材料（材質）　　単位mm
  7
STYLE1
100
AcDbText
  0
TEXT
  5
17C07
330
747D
100
AcDbEntity
  8
文字
 62
     7
 48
50.0
100
AcDbText
 10
13583.11819016569
 20
11100.01374588373
 30
0.0
 40
100.0
  1
土台枠
  7
STYLE1
100
AcDbText
  0
TEXT
  5
17C08
330
747D
100
AcDbEntity
  8
文字
 62
     7
 48
50.0
100
AcDbText
 10
13583.1181901657
 20
10760.01374588372
 30
0.0
 40
100.0
  1
柱
  7
STYLE1
100
AcDbText
  0
TEXT
  5
17C09
330
747D
100
AcDbEntity
  8
文字
 62
     7
 48
50.0
100
AcDbText
 10
13583.11819016569
 20
10420.01374588373
 30
0.0
 40
100.0
  1
桁前後
  7
STYLE1
100
AcDbText
  0
TEXT
  5
17C0A
330
747D
100
AcDbEntity
  8
文字
 62
     7
 48
50.0
100
AcDbText
 10
13271.19032244792
 20
10420.01374588372
 30
0.0
 40
100.0
  1
5
  7
STYLE1
100
AcDbText
  0
TEXT
  5
17C0B
330
747D
100
AcDbEntity
  8
文字
 62
     7
 48
50.0
100
AcDbText
 10
13583.11819016569
 20
10250.01374588373
 30
0.0
 40
100.0
  1
妻板左右
  7
STYLE1
100
AcDbText
  0
TEXT
  5
17C0C
330
747D
100
AcDbEntity
  8
文字
 62
     7
 48
50.0
100
AcDbText
 10
13248.77747366447
 20
9570.013745883727
 30
0.0
 40
100.0
  1
10
  7
STYLE1
100
AcDbText
  0
TEXT
  5
17C0D
330
747D
100
AcDbEntity
  8
文字
 62
     7
 48
50.0
100
AcDbText
 10
13583.11819016568
 20
9570.013745883729
 30
0.0
 40
100.0
  1
壁パネル
  7
STYLE1
100
AcDbText
  0
TEXT
  5
17C0E
330
747D
100
AcDbEntity
  8
文字
 62
     7
 48
50.0
100
AcDbText
 10
13583.11819016569
 20
9910.013745883727
 30
0.0
 40
100.0
  1
屋根パネル
  7
STYLE1
100
AcDbText
  0
TEXT
  5
17C0F
330
747D
100
AcDbEntity
  8
文字
 62
     7
 48
50.0
100
AcDbText
 10
13583.11819016569
 20
10080.01374588372
 30
0.0
 40
100.0
  1
鼻隠シ前後
  7
STYLE1
100
AcDbText
  0
TEXT
  5
17C10
330
747D
100
AcDbEntity
  8
文字
 62
     7
 48
50.0
100
AcDbText
 10
13271.19032244792
 20
9910.01374588373
 30
0.0
 40
100.0
  1
8
  7
STYLE1
100
AcDbText
  0
TEXT
  5
17C11
330
747D
100
AcDbEntity
  8
文字
 62
     7
 48
50.0
100
AcDbText
 10
13271.19032244792
 20
9740.013745883729
 30
0.0
 40
100.0
  1
9
  7
STYLE1
100
AcDbText
  0
TEXT
  5
17C12
330
747D
100
AcDbEntity
  8
文字
 62
     7
 48
50.0
100
AcDbText
 10
13271.19032244792
 20
10080.01374588373
 30
0.0
 40
100.0
  1
7
  7
STYLE1
100
AcDbText
  0
TEXT
  5
17C13
330
747D
100
AcDbEntity
  8
文字
 62
     7
 48
50.0
100
AcDbText
 10
13271.19032244792
 20
10250.01374588373
 30
0.0
 40
100.0
  1
6
  7
STYLE1
100
AcDbText
  0
LINE
  5
17C14
330
747D
100
AcDbEntity
  8
仕様書枠
 48
50.0
100
AcDbLine
 10
16307.19999999999
 20
9709.6
 30
0.0
 11
13127.2
 21
9709.600000000001
 31
0.0
  0
LINE
  5
17C15
330
747D
100
AcDbEntity
  8
仕様書枠
 48
50.0
100
AcDbLine
 10
16307.19999999999
 20
9369.599999999998
 30
0.0
 11
13127.2
 21
9369.600000000001
 31
0.0
  0
LINE
  5
17C16
330
747D
100
AcDbEntity
  8
仕様書枠
 48
50.0
100
AcDbLine
 10
16307.19999999999
 20
9539.599999999998
 30
0.0
 11
13127.2
 21
9539.6
 31
0.0
  0
LINE
  5
17C17
330
747D
100
AcDbEntity
  8
仕様書枠
 48
50.0
100
AcDbLine
 10
16307.2
 20
10219.6
 30
0.0
 11
13127.2
 21
10219.6
 31
0.0
  0
LINE
  5
17C18
330
747D
100
AcDbEntity
  8
仕様書枠
 48
50.0
100
AcDbLine
 10
16307.2
 20
9879.599999999999
 30
0.0
 11
13127.2
 21
9879.600000000001
 31
0.0
  0
TEXT
  5
17C19
330
747D
100
AcDbEntity
  8
文字
 62
     7
 48
50.0
100
AcDbText
 10
13248.77747366447
 20
9400.013745883727
 30
0.0
 40
100.0
  1
11
  7
STYLE1
100
AcDbText
  0
LINE
  5
17C1A
330
747D
100
AcDbEntity
  8
仕様書枠
 48
50.0
100
AcDbLine
 10
16307.19999999999
 20
9199.599999999998
 30
0.0
 11
13127.2
 21
9199.600000000001
 31
0.0
  0
LINE
  5
17C1B
330
747D
100
AcDbEntity
  8
仕様書枠
 48
50.0
100
AcDbLine
 10
16307.19999999999
 20
8859.6
 30
0.0
 11
13127.2
 21
8859.600000000002
 31
0.0
  0
TEXT
  5
17C1C
330
747D
100
AcDbEntity
  8
文字
 62
     7
 48
50.0
100
AcDbText
 10
13248.77747366448
 20
9060.013745883727
 30
0.0
 40
100.0
  1
13
  7
STYLE1
100
AcDbText
  0
TEXT
  5
17C1D
330
747D
100
AcDbEntity
  8
文字
 62
     7
 48
50.0
100
AcDbText
 10
13248.77747366448
 20
9230.013745883727
 30
0.0
 40
100.0
  1
12
  7
STYLE1
100
AcDbText
  0
TEXT
  5
17C1E
330
747D
100
AcDbEntity
  8
文字
 62
     7
 48
50.0
100
AcDbText
 10
15022.63965474517
 20
11100.01374588372
 30
0.0
 40
100.0
  1
F12            1.2
  7
STYLE1
100
AcDbText
  0
TEXT
  5
17C1F
330
747D
100
AcDbEntity
  8
文字
 62
     7
 48
50.0
100
AcDbText
 10
15022.63965474518
 20
10760.01374588372
 30
0.0
 40
100.0
  1
F12            1.0
  7
STYLE1
100
AcDbText
  0
TEXT
  5
17C20
330
747D
100
AcDbEntity
  8
文字
 62
     7
 48
50.0
100
AcDbText
 10
15022.63965474516
 20
10420.01374588372
 30
0.0
 40
100.0
  1
Y10            1.0
  7
STYLE1
100
AcDbText
  0
TEXT
  5
17C21
330
747D
100
AcDbEntity
  8
文字
 62
     7
 48
50.0
100
AcDbText
 10
15022.63965474516
 20
10250.01374588372
 30
0.0
 40
100.0
  1
Y10            0.7
  7
STYLE1
100
AcDbText
  0
TEXT
  5
17C22
330
747D
100
AcDbEntity
  8
文字
 62
     7
 48
50.0
100
AcDbText
 10
15022.63965474516
 20
10080.01374588372
 30
0.0
 40
100.0
  1
Y10            0.7
  7
STYLE1
100
AcDbText
  0
TEXT
  5
17C23
330
747D
100
AcDbEntity
  8
文字
 62
     7
 48
50.0
100
AcDbText
 10
15022.63965474517
 20
9910.013745883725
 30
0.0
 40
100.0
  1
Y10            0.5
  7
STYLE1
100
AcDbText
  0
TEXT
  5
17C24
330
747D
100
AcDbEntity
  8
文字
 62
     7
 48
50.0
100
AcDbText
 10
15022.63965474515
 20
9570.013745883725
 30
0.0
 40
100.0
  1
F12            0.6
  7
STYLE1
100
AcDbText
  0
LINE
  5
17C25
330
747D
100
AcDbEntity
  8
仕様書枠
 48
50.0
100
AcDbLine
 10
16307.19999999999
 20
8349.600000000004
 30
0.0
 11
13127.19999999999
 21
8349.600000000007
 31
0.0
  0
LINE
  5
17C26
330
747D
100
AcDbEntity
  8
仕様書枠
 48
50.0
100
AcDbLine
 10
16307.19999999999
 20
8179.600000000004
 30
0.0
 11
13127.19999999999
 21
8179.600000000005
 31
0.0
  0
TEXT
  5
17C27
330
747D
100
AcDbEntity
  8
文字
 62
     7
 48
50.0
100
AcDbText
 10
13229.83081656554
 20
8210.013745883733
 30
0.0
 40
100.0
  1
F12→溶融亜鉛めっき鋼板(JIS G 3302)
  7
STYLE1
100
AcDbText
  0
TEXT
  5
17C28
330
747D
100
AcDbEntity
  8
文字
 62
     7
 48
50.0
100
AcDbText
 10
13229.83081656554
 20
8040.013745883731
 30
0.0
 40
100.0
  1
Y10→溶融亜鉛-5％アルミニウム合金めっき鋼板(JIS G 3317)
 41
0.9
  7
STYLE1
100
AcDbText
  0
LINE
  5
17C29
330
747D
100
AcDbEntity
  8
仕様書枠
 48
50.0
100
AcDbLine
 10
13127.2
 20
11409.6
 30
0.0
 11
13127.19999999999
 21
8009.600000000006
 31
0.0
  0
LINE
  5
17C2A
330
747D
100
AcDbEntity
  8
仕様書枠
 48
50.0
100
AcDbLine
 10
16307.19999999999
 20
9029.6
 30
0.0
 11
13127.2
 21
9029.600000000002
 31
0.0
  0
TEXT
  5
17C2B
330
747D
100
AcDbEntity
  8
文字
 62
     7
 48
50.0
100
AcDbText
 10
13583.1181901657
 20
10590.01374588373
 30
0.0
 40
100.0
  1
床パネル
 41
0.9
  7
STYLE1
100
AcDbText
  0
TEXT
  5
17C2C
330
747D
100
AcDbEntity
  8
文字
 62
     7
 48
50.0
100
AcDbText
 10
13583.11819016569
 20
10930.01374588372
 30
0.0
 40
100.0
  1
根太
  7
STYLE1
100
AcDbText
  0
TEXT
  5
17C2D
330
747D
100
AcDbEntity
  8
文字
 62
     7
 48
50.0
100
AcDbText
 10
13248.77747366448
 20
8890.013745883727
 30
0.0
 40
100.0
  1
14
  7
STYLE1
100
AcDbText
  0
TEXT
  5
17C2E
330
747D
100
AcDbEntity
  8
文字
 62
     7
 48
50.0
100
AcDbText
 10
15022.63965474516
 20
10930.01374588372
 30
0.0
 40
100.0
  1
F12            1.2
  7
STYLE1
100
AcDbText
  0
TEXT
  5
17C2F
330
747D
100
AcDbEntity
  8
文字
 62
     7
 48
50.0
100
AcDbText
 10
15022.63965474517
 20
10590.01374588372
 30
0.0
 40
100.0
  1
F12            1.0
  7
STYLE1
100
AcDbText
  0
TEXT
  5
17C30
330
747D
100
AcDbEntity
  8
文字
 62
     7
 48
50.0
100
AcDbText
 10
15022.63965474515
 20
8890.013745883727
 30
0.0
 40
100.0
  1
F12            0.7
  7
STYLE1
100
AcDbText
  0
TEXT
  5
17C31
330
747D
100
AcDbEntity
  8
文字
 62
     7
 48
50.0
100
AcDbText
 10
13583.11819016568
 20
8890.013745883731
 30
0.0
 40
100.0
  1
正面パネル
  7
STYLE1
100
AcDbText
  0
TEXT
  5
17C32
330
747D
100
AcDbEntity
  8
文字
 62
     7
 48
50.0
100
AcDbText
 10
15022.63965474516
 20
8720.013745883727
 30
0.0
 40
100.0
  1
F12            0.8
  7
STYLE1
100
AcDbText
  0
TEXT
  5
17C33
330
747D
100
AcDbEntity
  8
文字
 62
     7
 48
50.0
100
AcDbText
 10
13583.11819016569
 20
8720.013745883731
 30
0.0
 40
100.0
  1
扉
  7
STYLE1
100
AcDbText
  0
LINE
  5
17C34
330
747D
100
AcDbEntity
  8
仕様書枠
 48
50.0
100
AcDbLine
 10
16307.19999999999
 20
8009.600000000004
 30
0.0
 11
13127.19999999999
 21
8009.600000000006
 31
0.0
  0
TEXT
  5
17C35
330
747D
100
AcDbEntity
  8
文字
 62
     7
 48
50.0
100
AcDbText
 10
13248.77747366447
 20
8720.013745883729
 30
0.0
 40
100.0
  1
15
  7
STYLE1
100
AcDbText
  0
TEXT
  5
17C36
330
747D
100
AcDbEntity
  8
文字
 62
     7
 48
50.0
100
AcDbText
 10
13583.11819016569
 20
9740.013745883729
 30
0.0
 40
100.0
  1
母屋中
  7
STYLE1
100
AcDbText
  0
LWPOLYLINE
  5
17C38
330
747D
100
AcDbEntity
  8
部品1
100
AcDbPolyline
 90
        4
 70
     1
 43
0.0
 10
10740.91779882067
 20
2309.639764612944
 10
10740.91779882067
 20
2069.747443067411
 10
11504.3884650491
 20
2069.747443067411
 10
11504.3884650491
 20
2309.639764612944
  0
TEXT
  5
17C39
330
747D
100
AcDbEntity
  8
部品1
100
AcDbText
 10
10830.36390024427
 20
2116.746235394419
 30
0.0
 40
135.0
  1
側面図
  7
STYLE2
100
AcDbText
  0
LINE
  5
17C41
330
747D
100
AcDbEntity
  8
部品1
100
AcDbLine
 10
10217.65313193489
 20
4784.574105358053
 30
0.0
 11
12007.65313193489
 21
4784.574105358053
 31
0.0
  0
LINE
  5
17C42
330
747D
100
AcDbEntity
  8
部品1
100
AcDbLine
 10
12000.15313193488
 20
2944.574105358054
 30
0.0
 11
12007.65313193489
 21
2944.574105358054
 31
0.0
  0
ARC
  5
17C43
330
747D
100
AcDbEntity
  8
部品1
 48
50.0
100
AcDbCircle
 10
11995.15313193489
 20
2984.574105358053
 30
0.0
 40
5.0
100
AcDbArc
 50
0.0
 51
90.0
  0
LINE
  5
17C44
330
747D
100
AcDbEntity
  8
部品1
100
AcDbLine
 10
11995.15313193489
 20
2989.574105358054
 30
0.0
 11
11965.15313193488
 21
2989.574105358054
 31
0.0
  0
ARC
  5
17C45
330
747D
100
AcDbEntity
  8
部品1
 48
50.0
100
AcDbCircle
 10
11965.15313193488
 20
2984.574105358053
 30
0.0
 40
5.0
100
AcDbArc
 50
90.0
 51
180.0
  0
LINE
  5
17C46
330
747D
100
AcDbEntity
  8
部品1
100
AcDbLine
 10
12007.65313193488
 20
2944.574105358054
 30
0.0
 11
12000.15313193489
 21
2944.574105358054
 31
0.0
  0
ARC
  5
17C47
330
747D
100
AcDbEntity
  8
部品1
 48
50.0
100
AcDbCircle
 10
10260.15313193489
 20
2984.574105358053
 30
0.0
 40
5.0
100
AcDbArc
 50
0.0
 51
90.0
  0
ARC
  5
17C48
330
747D
100
AcDbEntity
  8
部品1
 48
50.0
100
AcDbCircle
 10
10230.15313193488
 20
2984.574105358053
 30
0.0
 40
5.0
100
AcDbArc
 50
90.0
 51
180.0
  0
LINE
  5
17C49
330
747D
100
AcDbEntity
  8
部品1
100
AcDbLine
 10
10230.15313193488
 20
2989.574105358054
 30
0.0
 11
10260.15313193489
 21
2989.574105358054
 31
0.0
  0
LINE
  5
17C4A
330
747D
100
AcDbEntity
  8
部品1
100
AcDbLine
 10
10217.65313193489
 20
2944.574105358054
 30
0.0
 11
10225.15313193488
 21
2944.574105358054
 31
0.0
  0
LINE
  5
17C4B
330
747D
100
AcDbEntity
  8
部品1
100
AcDbLine
 10
10217.65313193489
 20
2944.574105358054
 30
0.0
 11
10140.65313193488
 21
2944.574105358054
 31
0.0
  0
LINE
  5
17C4C
330
747D
100
AcDbEntity
  8
部品1
100
AcDbLine
 10
10265.15313193488
 20
2944.574105358054
 30
0.0
 11
11960.15313193488
 21
2944.574105358054
 31
0.0
  0
LINE
  5
17C4D
330
747D
100
AcDbEntity
  8
部品1
100
AcDbLine
 10
10217.65313193489
 20
2994.574105358053
 30
0.0
 11
12007.65313193489
 21
2994.574105358053
 31
0.0
  0
LINE
  5
17C4E
330
747D
100
AcDbEntity
  8
部品1
100
AcDbLine
 10
10692.65313193489
 20
4784.574105358053
 30
0.0
 11
10692.65313193489
 21
2994.574105358053
 31
0.0
  0
LINE
  5
17C4F
330
747D
100
AcDbEntity
  8
部品1
100
AcDbLine
 10
10272.65313193489
 20
4784.574105358053
 30
0.0
 11
10272.65313193489
 21
2994.574105358053
 31
0.0
  0
LINE
  5
17C50
330
747D
100
AcDbEntity
  8
部品1
100
AcDbLine
 10
11532.65313193488
 20
4784.574105358053
 30
0.0
 11
11532.65313193488
 21
2994.574105358053
 31
0.0
  0
LINE
  5
17C51
330
747D
100
AcDbEntity
  8
部品1
100
AcDbLine
 10
11952.65313193488
 20
4784.574105358053
 30
0.0
 11
11952.65313193489
 21
2994.574105358053
 31
0.0
  0
LINE
  5
17C52
330
747D
100
AcDbEntity
  8
部品1
100
AcDbLine
 10
11112.65313193488
 20
4784.574105358053
 30
0.0
 11
11112.65313193488
 21
2994.574105358053
 31
0.0
  0
DIMENSION
  5
17C53
330
747D
100
AcDbEntity
  8
寸法
 48
50.0
100
AcDbDimension
  2
*D16
 10
9373.903002751628
 20
2994.574105358053
 30
0.0
 11
9281.903002751628
 21
3889.574105358054
 31
0.0
 70
    32
 71
     5
 42
1789.999999999999
  3
INABA_S40
100
AcDbAlignedDimension
 13
10217.65313193489
 23
4784.574105358053
 33
0.0
 14
10217.65313193489
 24
2994.574105358053
 34
0.0
 50
90.0
100
AcDbRotatedDimension
1001
ACAD
1000
DSTYLE
1002
{
1070
    41
1040
0.5
1070
    44
1040
1.0
1070
   147
1040
0.8
1070
   271
1070
     2
1070
   272
1070
     2
1070
   289
1070
     3
1070
   340
1005
F706
1070
   343
1005
164B4
1070
   344
1005
164B4
1002
}
  0
DIMENSION
  5
17C54
330
747D
100
AcDbEntity
  8
寸法
 48
50.0
100
AcDbDimension
  2
*D17
 10
9672.744490537633
 20
3010.574105358053
 30
0.0
 11
9580.732679514012
 21
3873.074105358055
 31
0.0
 70
    32
  1
有効開口部高サ<>
 71
     5
 42
1724.999999999999
  3
INABA_S40
100
AcDbAlignedDimension
 13
10140.65313193489
 23
4735.574105358053
 33
0.0
 14
10140.65313193488
 24
3010.574105358053
 34
0.0
 50
90.0
100
AcDbRotatedDimension
1001
ACAD
1000
DSTYLE
1002
{
1070
    41
1040
0.5
1070
    44
1040
1.0
1070
   147
1040
0.8
1070
   271
1070
     2
1070
   272
1070
     2
1070
   289
1070
     3
1070
   340
1005
F706
1070
   343
1005
164B4
1070
   344
1005
164B4
1002
}
  0
LINE
  5
17C55
330
747D
100
AcDbEntity
  8
破線
  6
HIDDEN
 48
5.0
100
AcDbLine
 10
12000.15313193489
 20
2839.574105358054
 30
0.0
 11
12015.15313193489
 21
2691.874105358053
 31
0.0
  0
LINE
  5
17C56
330
747D
100
AcDbEntity
  8
破線
  6
HIDDEN
 48
5.0
100
AcDbLine
 10
12015.15313193489
 20
2691.874105358053
 30
0.0
 11
12015.15313193489
 21
2689.574105358053
 31
0.0
  0
LINE
  5
17C57
330
747D
100
AcDbEntity
  8
破線
  6
HIDDEN
 48
50.0
100
AcDbLine
 10
12000.15313193488
 20
2844.574105358054
 30
0.0
 11
12000.15313193488
 21
2839.574105358054
 31
0.0
  0
LINE
  5
17C58
330
747D
100
AcDbEntity
  8
破線
  6
HIDDEN
 48
50.0
100
AcDbLine
 10
11960.15313193489
 20
2844.574105358054
 30
0.0
 11
11960.15313193489
 21
2839.574105358054
 31
0.0
  0
LINE
  5
17C59
330
747D
100
AcDbEntity
  8
破線
  6
HIDDEN
 48
5.0
100
AcDbLine
 10
12080.15313193489
 20
2844.574105358054
 30
0.0
 11
12080.15313193489
 21
2644.574105358053
 31
0.0
  0
LINE
  5
17C5A
330
747D
100
AcDbEntity
  8
破線
  6
HIDDEN
 48
5.0
100
AcDbLine
 10
11945.15313193489
 20
2691.874105358053
 30
0.0
 11
11945.15313193489
 21
2689.574105358053
 31
0.0
  0
LINE
  5
17C5B
330
747D
100
AcDbEntity
  8
破線
  6
HIDDEN
 48
5.0
100
AcDbLine
 10
11880.15313193488
 20
2844.574105358054
 30
0.0
 11
11880.15313193489
 21
2644.574105358053
 31
0.0
  0
LINE
  5
17C5C
330
747D
100
AcDbEntity
  8
破線
  6
HIDDEN
 48
5.0
100
AcDbLine
 10
11960.15313193488
 20
2839.574105358054
 30
0.0
 11
11945.15313193489
 21
2691.874105358053
 31
0.0
  0
LINE
  5
17C5D
330
747D
100
AcDbEntity
  8
破線
  6
HIDDEN
 48
5.0
100
AcDbLine
 10
12080.15313193489
 20
2644.574105358053
 30
0.0
 11
11880.15313193489
 21
2644.574105358053
 31
0.0
  0
LINE
  5
17C5E
330
747D
100
AcDbEntity
  8
破線
  6
HIDDEN
 48
5.0
100
AcDbLine
 10
12015.15313193489
 20
2689.574105358053
 30
0.0
 11
11945.15313193489
 21
2689.574105358053
 31
0.0
  0
LINE
  5
17C5F
330
747D
100
AcDbEntity
  8
破線
  6
HIDDEN
 48
5.0
100
AcDbLine
 10
10345.15313193489
 20
2844.574105358054
 30
0.0
 11
10345.15313193489
 21
2644.574105358052
 31
0.0
  0
LINE
  5
17C60
330
747D
100
AcDbEntity
  8
破線
  6
HIDDEN
 48
5.0
100
AcDbLine
 10
10225.15313193489
 20
2839.574105358054
 30
0.0
 11
10210.15313193489
 21
2691.874105358053
 31
0.0
  0
LINE
  5
17C61
330
747D
100
AcDbEntity
  8
破線
  6
HIDDEN
 48
5.0
100
AcDbLine
 10
10265.15313193489
 20
2839.574105358054
 30
0.0
 11
10280.15313193489
 21
2691.874105358053
 31
0.0
  0
LINE
  5
17C62
330
747D
100
AcDbEntity
  8
破線
  6
HIDDEN
 48
5.0
100
AcDbLine
 10
10210.15313193489
 20
2689.574105358053
 30
0.0
 11
10280.15313193489
 21
2689.574105358053
 31
0.0
  0
LINE
  5
17C63
330
747D
100
AcDbEntity
  8
破線
  6
HIDDEN
 48
5.0
100
AcDbLine
 10
10210.15313193489
 20
2691.874105358053
 30
0.0
 11
10210.15313193489
 21
2689.574105358053
 31
0.0
  0
LINE
  5
17C64
330
747D
100
AcDbEntity
  8
破線
  6
HIDDEN
 48
5.0
100
AcDbLine
 10
10280.15313193489
 20
2691.874105358053
 30
0.0
 11
10280.15313193489
 21
2689.574105358053
 31
0.0
  0
LINE
  5
17C65
330
747D
100
AcDbEntity
  8
破線
  6
HIDDEN
 48
5.0
100
AcDbLine
 10
10225.15313193489
 20
2844.574105358054
 30
0.0
 11
10225.15313193489
 21
2839.574105358054
 31
0.0
  0
LINE
  5
17C66
330
747D
100
AcDbEntity
  8
破線
  6
HIDDEN
 48
5.0
100
AcDbLine
 10
10265.15313193489
 20
2844.574105358054
 30
0.0
 11
10265.15313193489
 21
2839.574105358054
 31
0.0
  0
LINE
  5
17C67
330
747D
100
AcDbEntity
  8
破線
  6
HIDDEN
 48
5.0
100
AcDbLine
 10
10145.15313193489
 20
2844.574105358054
 30
0.0
 11
10145.15313193489
 21
2644.574105358053
 31
0.0
  0
DIMENSION
  5
17C68
330
747D
100
AcDbEntity
  8
寸法
 48
50.0
100
AcDbDimension
  2
*D18
 10
10345.15313193489
 20
2309.38372111884
 30
0.0
 11
10245.15313193489
 21
2309.38372111884
 31
0.0
 70
   160
 71
     5
 42
200.0
  3
INABA_S40
100
AcDbAlignedDimension
 13
10145.15313193489
 23
2644.574105358053
 33
0.0
 14
10345.15313193489
 24
2644.574105358052
 34
0.0
100
AcDbRotatedDimension
1001
ACAD
1000
DSTYLE
1002
{
1070
    41
1040
0.5
1070
    44
1040
1.0
1070
   147
1040
0.8
1070
   271
1070
     2
1070
   272
1070
     2
1070
   289
1070
     3
1070
   340
1005
F706
1070
   343
1005
164B4
1070
   344
1005
164B4
1002
}
  0
LINE
  5
17C69
330
747D
100
AcDbEntity
  8
破線
  6
HIDDEN
 48
5.0
100
AcDbLine
 10
10145.15313193489
 20
2644.574105358053
 30
0.0
 11
10345.15313193489
 21
2644.574105358052
 31
0.0
  0
DIMENSION
  5
17C6A
330
747D
100
AcDbEntity
  8
寸法
 48
50.0
100
AcDbDimension
  2
*D19
 10
9737.90855585041
 20
2844.574105358054
 30
0.0
 11
9737.90855585041
 21
2702.135428571619
 31
0.0
 70
   160
 71
     5
 42
200.0
  3
INABA_S40
100
AcDbAlignedDimension
 13
10145.15313193489
 23
2644.574105358053
 33
0.0
 14
10145.15313193489
 24
2844.574105358054
 34
0.0
 50
90.0
100
AcDbRotatedDimension
1001
ACAD
1000
DSTYLE
1002
{
1070
    41
1040
0.5
1070
    44
1040
1.0
1070
   147
1040
0.8
1070
   271
1070
     2
1070
   272
1070
     2
1070
   289
1070
     3
1070
   340
1005
F706
1070
   343
1005
164B4
1070
   344
1005
164B4
1002
}
  0
DIMENSION
  5
17C6B
330
747D
100
AcDbEntity
  8
寸法
 48
50.0
100
AcDbDimension
  2
*D20
 10
9073.903002751627
 20
2844.574105358054
 30
0.0
 11
9073.903002751627
 21
2429.574105358053
 31
0.0
 70
   160
 71
     5
 42
100.0000000000004
  3
INABA_S40
100
AcDbAlignedDimension
 13
10140.65313193488
 23
2944.574105358054
 33
0.0
 14
9161.152056039755
 24
2844.574105358054
 34
0.0
 50
90.0
100
AcDbRotatedDimension
1001
ACAD
1000
DSTYLE
1002
{
1070
    41
1040
0.5
1070
    44
1040
1.0
1070
   147
1040
0.8
1070
   271
1070
     2
1070
   272
1070
     2
1070
   289
1070
     3
1070
   340
1005
F706
1070
   343
1005
164B4
1070
   344
1005
164B4
1002
}
  0
DIMENSION
  5
17C6C
330
747D
100
AcDbEntity
  8
寸法
 48
50.0
100
AcDbDimension
  2
*D21
 10
9373.903002751628
 20
2944.574105358054
 30
0.0
 11
9373.903002751628
 21
2560.824105358053
 31
0.0
 70
   160
 71
     5
 42
50.0
  3
INABA_S40
100
AcDbAlignedDimension
 13
10217.65313193489
 23
2994.574105358053
 33
0.0
 14
10140.65313193488
 24
2944.574105358054
 34
0.0
 50
90.0
100
AcDbRotatedDimension
1001
ACAD
1000
DSTYLE
1002
{
1070
    41
1040
0.5
1070
    44
1040
1.0
1070
   147
1040
0.8
1070
   271
1070
     2
1070
   272
1070
     2
1070
   289
1070
     3
1070
   340
1005
F706
1070
   343
1005
164B4
1070
   344
1005
164B4
1002
}
  0
LINE
  5
17C6D
330
747D
100
AcDbEntity
  8
部品1
100
AcDbLine
 10
10217.65313193489
 20
4876.4326248003
 30
0.0
 11
10217.65313193489
 21
2844.574105358054
 31
0.0
  0
LINE
  5
17C6E
330
747D
100
AcDbEntity
  8
部品1
100
AcDbLine
 10
10140.65313193489
 20
4770.261210266455
 30
0.0
 11
10140.65313193488
 21
2844.574105358054
 31
0.0
  0
LINE
  5
17C6F
330
747D
100
AcDbEntity
  8
部品1
 48
50.0
100
AcDbLine
 10
10265.15313193489
 20
2984.574105358053
 30
0.0
 11
10265.15313193488
 21
2844.574105358054
 31
0.0
  0
LINE
  5
17C70
330
747D
100
AcDbEntity
  8
部品1
 48
50.0
100
AcDbLine
 10
10225.15313193488
 20
2984.574105358053
 30
0.0
 11
10225.15313193489
 21
2844.574105358054
 31
0.0
  0
LINE
  5
17C71
330
747D
100
AcDbEntity
  8
部品1
100
AcDbLine
 10
10417.65313193488
 20
2944.574105358054
 30
0.0
 11
10417.65313193488
 21
2844.574105358054
 31
0.0
  0
LINE
  5
17C72
330
747D
100
AcDbEntity
  8
部品1
100
AcDbLine
 10
12007.65313193489
 20
4839.455914044059
 30
0.0
 11
12007.65313193489
 21
2844.574105358054
 31
0.0
  0
LINE
  5
17C73
330
747D
100
AcDbEntity
  8
部品1
 48
50.0
100
AcDbLine
 10
11012.65313193488
 20
2944.574105358054
 30
0.0
 11
11012.65313193488
 21
2844.574105358054
 31
0.0
  0
LINE
  5
17C74
330
747D
100
AcDbEntity
  8
部品1
 48
50.0
100
AcDbLine
 10
11212.65313193488
 20
2944.574105358054
 30
0.0
 11
11212.65313193488
 21
2844.574105358054
 31
0.0
  0
LINE
  5
17C75
330
747D
100
AcDbEntity
  8
部品1
100
AcDbLine
 10
11807.65313193488
 20
2944.574105358054
 30
0.0
 11
11807.65313193488
 21
2844.574105358054
 31
0.0
  0
LINE
  5
17C76
330
747D
100
AcDbEntity
  8
部品1
 48
50.0
100
AcDbLine
 10
12000.15313193489
 20
2984.574105358053
 30
0.0
 11
12000.15313193488
 21
2844.574105358054
 31
0.0
  0
LINE
  5
17C77
330
747D
100
AcDbEntity
  8
部品1
 48
50.0
100
AcDbLine
 10
11960.15313193488
 20
2984.574105358053
 30
0.0
 11
11960.15313193489
 21
2844.574105358054
 31
0.0
  0
DIMENSION
  5
17C78
330
747D
100
AcDbEntity
  8
寸法
 48
50.0
100
AcDbDimension
  2
*D22
 10
12698.86671092095
 20
4964.574105358053
 30
0.0
 11
12606.85489989733
 21
3954.574105358055
 31
0.0
 70
    32
 71
     5
 42
2020.0
  3
INABA_S40
100
AcDbAlignedDimension
 13
12007.65313193489
 23
2944.574105358054
 33
0.0
 14
12087.6531319349
 24
4964.574105358053
 34
0.0
 50
90.0
100
AcDbRotatedDimension
1001
ACAD
1000
DSTYLE
1002
{
1070
    41
1040
0.5
1070
    44
1040
1.0
1070
   147
1040
0.8
1070
   271
1070
     2
1070
   272
1070
     2
1070
   289
1070
     3
1070
   340
1005
F706
1070
   343
1005
164B4
1070
   344
1005
164B4
1002
}
  0
TEXT
  5
17D25
330
747D
100
AcDbEntity
  8
文字
 62
     7
 48
50.0
100
AcDbText
 10
13209.4053442172
 20
228.5435242569015
 30
0.0
 40
100.0
  1
○有効開口寸法 ： 1266×1725(mm)
  7
STYLE2
100
AcDbText
  0
TEXT
  5
18027
330
747D
100
AcDbEntity
  8
文字
 62
     7
 48
50.0
100
AcDbText
 10
15022.63965474515
 20
9740.013745883723
 30
0.0
 40
100.0
  1
F12            1.2
  7
STYLE1
100
AcDbText
  0
TEXT
  5
18028
330
747D
100
AcDbEntity
  8
文字
 62
     7
 48
50.0
100
AcDbText
 10
15022.63965474516
 20
8550.013745883727
 30
0.0
 40
100.0
  1
F12            0.6
  7
STYLE1
100
AcDbText
  0
TEXT
  5
18029
330
747D
100
AcDbEntity
  8
文字
 62
     7
 48
50.0
100
AcDbText
 10
13583.11819016569
 20
8550.013745883731
 30
0.0
 40
100.0
  1
棚板
  7
STYLE1
100
AcDbText
  0
DIMENSION
  5
1810A
330
747D
100
AcDbEntity
  8
寸法
 48
50.0
100
AcDbDimension
  2
*D31
 10
4159.896575106992
 20
5232.115690616296
 30
0.0
 11
5894.896575107
 21
5232.115690616296
 31
0.0
 70
   160
  1
柱外寸法<>
 71
     5
 42
3470.000000000004
  3
INABA_S40G
100
AcDbAlignedDimension
 13
7629.896575106996
 23
5019.574105358056
 33
0.0
 14
4159.896575106992
 24
5019.574105358061
 34
0.0
100
AcDbRotatedDimension
  0
DIMENSION
  5
1810C
330
747D
100
AcDbEntity
  8
寸法
 48
50.0
100
AcDbDimension
  2
*D30
 10
7679.896575106996
 20
5453.020991090046
 30
0.0
 11
5894.896575107
 21
5453.020991090046
 31
0.0
 70
   160
 71
     5
 42
3570.000000000004
  3
INABA_S40G
100
AcDbAlignedDimension
 13
4109.896575106992
 23
5019.57410535806
 33
0.0
 14
7679.896575106996
 24
5019.574105358055
 34
0.0
100
AcDbRotatedDimension
  0
DIMENSION
  5
1810D
330
747D
100
AcDbEntity
  8
寸法
 48
50.0
100
AcDbDimension
  2
*D29
 10
4109.896575106992
 20
5232.115690616299
 30
0.0
 11
3796.411293732745
 21
5232.115690616299
 31
0.0
 70
   160
 71
     5
 42
50.0
  3
INABA_S40G
100
AcDbAlignedDimension
 13
4159.896575106992
 23
5019.574105358061
 33
0.0
 14
4109.896575106992
 24
5019.57410535806
 34
0.0
100
AcDbRotatedDimension
1001
ACAD
1000
DSTYLE
1002
{
1002
}
  0
LINE
  5
18118
330
747D
100
AcDbEntity
  8
部品1
 48
50.0
100
AcDbLine
 10
7659.272830539528
 20
4878.574105358057
 30
0.0
 11
4130.520319674455
 21
4878.574105358058
 31
0.0
  0
LINE
  5
18119
330
747D
100
AcDbEntity
  8
細線
 48
50.0
100
AcDbLine
 10
7669.501893568649
 20
4899.347347921633
 30
0.0
 11
4120.291256642238
 21
4899.347347922053
 31
0.0
  0
LINE
  5
1811A
330
747D
100
AcDbEntity
  8
細線
 48
50.0
100
AcDbLine
 10
7677.737924093479
 20
4991.547347921635
 30
0.0
 11
4112.055226117405
 21
4991.547347922054
 31
0.0
  0
LINE
  5
1811B
330
747D
100
AcDbEntity
  8
部品1
 48
50.0
100
AcDbLine
 10
7672.488154000562
 20
5019.574105358054
 30
0.0
 11
4117.30499621342
 21
5019.574105358055
 31
0.0
  0
LINE
  5
1811C
330
747D
100
AcDbEntity
  8
部品1
100
AcDbLine
 10
4110.316236122321
 20
5012.177579962819
 30
0.0
 11
4111.449633454671
 21
4992.201451980219
 31
0.0
  0
LINE
  5
1811D
330
747D
100
AcDbEntity
  8
部品1
100
AcDbLine
 10
4122.886653776247
 20
4896.54404481316
 30
0.0
 11
4123.531559583356
 21
4885.177579962821
 31
0.0
  0
LINE
  5
1811E
330
747D
100
AcDbEntity
  8
部品1
100
AcDbLine
 10
4114.6506232514
 20
4988.744044813161
 30
0.0
 11
4119.685663979511
 21
4900.001451980218
 31
0.0
  0
ARC
  5
1811F
330
747D
100
AcDbEntity
  8
部品1
 48
50.0
100
AcDbCircle
 10
4111.655440355214
 20
4988.574105358059
 30
0.0
 40
3.0
100
AcDbArc
 50
3.247342790337682
 51
82.34187279263654
  0
ARC
  5
18120
330
747D
100
AcDbEntity
  8
部品1
 48
50.0
100
AcDbCircle
 10
4119.891470880058
 20
4896.374105358057
 30
0.0
 40
3.0
100
AcDbArc
 50
3.247342790337682
 51
82.34187279263654
  0
ARC
  5
18121
330
747D
100
AcDbEntity
  8
部品1
 48
50.0
100
AcDbCircle
 10
4120.384539988619
 20
4900.041104519741
 30
0.0
 40
0.7
100
AcDbArc
 50
183.2473427902856
 51
262.3418727926365
  0
ARC
  5
18122
330
747D
100
AcDbEntity
  8
部品1
 48
50.0
100
AcDbCircle
 10
4112.148509463779
 20
4992.241104519745
 30
0.0
 40
0.7
100
AcDbArc
 50
183.2473427903897
 51
262.3418727926365
  0
ARC
  5
18123
330
747D
100
AcDbEntity
  8
部品1
100
AcDbCircle
 10
4130.520319674455
 20
4885.57410535806
 30
0.0
 40
7.0
100
AcDbArc
 50
183.2473427903377
 51
270.0
  0
ARC
  5
18124
330
747D
100
AcDbEntity
  8
部品1
100
AcDbCircle
 10
4117.30499621342
 20
5012.574105358058
 30
0.0
 40
7.0
100
AcDbArc
 50
90.0
 51
183.2473427903377
  0
LINE
  5
18125
330
747D
100
AcDbEntity
  8
細線
 48
50.0
100
AcDbLine
 10
4142.896575106991
 20
5019.574105358057
 30
0.0
 11
4142.896575106991
 21
4878.574105358058
 31
0.0
  0
DIMENSION
  5
18186
330
747D
100
AcDbEntity
  8
寸法
 48
50.0
100
AcDbDimension
  2
*D32
 10
7629.896575106996
 20
5232.115690616296
 30
0.0
 11
7993.381856481232
 21
5232.115690616296
 31
0.0
 70
   160
 71
     5
 42
50.0
  3
INABA_S40G
100
AcDbAlignedDimension
 13
7679.896575106996
 23
5019.574105358055
 33
0.0
 14
7629.896575106996
 24
5019.574105358056
 34
0.0
100
AcDbRotatedDimension
  0
ARC
  5
18187
330
747D
100
AcDbEntity
  8
部品1
100
AcDbCircle
 10
7672.488154000562
 20
5012.574105358055
 30
0.0
 40
7.0
100
AcDbArc
 50
356.7526572096623
 51
90.0
  0
ARC
  5
18188
330
747D
100
AcDbEntity
  8
部品1
100
AcDbCircle
 10
7659.272830539528
 20
4885.574105358057
 30
0.0
 40
7.0
100
AcDbArc
 50
270.0
 51
356.7526572096623
  0
ARC
  5
18189
330
747D
100
AcDbEntity
  8
部品1
 48
50.0
100
AcDbCircle
 10
7677.644640750208
 20
4992.241104519742
 30
0.0
 40
0.7
100
AcDbArc
 50
277.6581272073635
 51
356.7526572096103
  0
ARC
  5
1818A
330
747D
100
AcDbEntity
  8
部品1
 48
50.0
100
AcDbCircle
 10
7669.408610225365
 20
4900.041104519738
 30
0.0
 40
0.7
100
AcDbArc
 50
277.6581272073635
 51
356.7526572097143
  0
ARC
  5
1818B
330
747D
100
AcDbEntity
  8
部品1
 48
50.0
100
AcDbCircle
 10
7669.901679333925
 20
4896.374105358054
 30
0.0
 40
3.0
100
AcDbArc
 50
97.65812720736347
 51
176.7526572096623
  0
ARC
  5
1818C
330
747D
100
AcDbEntity
  8
部品1
 48
50.0
100
AcDbCircle
 10
7678.13770985877
 20
4988.574105358057
 30
0.0
 40
3.0
100
AcDbArc
 50
97.65812720736347
 51
176.7526572096623
  0
LINE
  5
1818D
330
747D
100
AcDbEntity
  8
部品1
100
AcDbLine
 10
7675.142526962584
 20
4988.744044813159
 30
0.0
 11
7670.107486234472
 21
4900.001451980216
 31
0.0
  0
LINE
  5
1818E
330
747D
100
AcDbEntity
  8
部品1
100
AcDbLine
 10
7666.906496437739
 20
4896.544044813158
 30
0.0
 11
7666.261590630627
 21
4885.177579962817
 31
0.0
  0
LINE
  5
1818F
330
747D
100
AcDbEntity
  8
細線
 48
50.0
100
AcDbLine
 10
7646.896575106996
 20
5019.574105358055
 30
0.0
 11
7646.896575106996
 21
4878.574105358055
 31
0.0
  0
LINE
  5
18190
330
747D
100
AcDbEntity
  8
部品1
100
AcDbLine
 10
7679.476914091662
 20
5012.177579962816
 30
0.0
 11
7678.343516759317
 21
4992.201451980216
 31
0.0
  0
LINE
  5
18316
330
747D
100
AcDbEntity
  8
部品1
100
AcDbLine
 10
7154.896575106992
 20
4784.574105358053
 30
0.0
 11
7154.896575106992
 21
4779.574105358054
 31
0.0
  0
LINE
  5
18318
330
747D
100
AcDbEntity
  8
細線
 48
50.0
100
AcDbLine
 10
4557.396575106995
 20
4784.574105358053
 30
0.0
 11
4557.396575106999
 21
2994.574105358059
 31
0.0
  0
LINE
  5
18319
330
747D
100
AcDbEntity
  8
細線
 48
50.0
100
AcDbLine
 10
4572.396575106995
 20
4784.574105358053
 30
0.0
 11
4572.396575106998
 21
2994.574105358059
 31
0.0
  0
LINE
  5
1831A
330
747D
100
AcDbEntity
  8
細線
 48
50.0
100
AcDbLine
 10
4432.396575106995
 20
4784.574105358053
 30
0.0
 11
4432.396575106999
 21
2994.574105358058
 31
0.0
  0
LINE
  5
1831B
330
747D
100
AcDbEntity
  8
細線
 48
50.0
100
AcDbLine
 10
4417.396575106995
 20
4784.574105358053
 30
0.0
 11
4417.396575106999
 21
2994.574105358058
 31
0.0
  0
LINE
  5
1831C
330
747D
100
AcDbEntity
  8
細線
 48
50.0
100
AcDbLine
 10
4277.396575106996
 20
4784.574105358053
 30
0.0
 11
4277.396575106999
 21
2994.574105358057
 31
0.0
  0
LINE
  5
1831D
330
747D
100
AcDbEntity
  8
細線
 48
50.0
100
AcDbLine
 10
4292.396575106995
 20
4784.574105358053
 30
0.0
 11
4292.396575106999
 21
2994.574105358057
 31
0.0
  0
LINE
  5
1831E
330
747D
100
AcDbEntity
  8
細線
 48
50.0
100
AcDbLine
 10
4712.396575106995
 20
4784.574105358053
 30
0.0
 11
4712.396575106999
 21
2994.574105358057
 31
0.0
  0
LINE
  5
1831F
330
747D
100
AcDbEntity
  8
細線
 48
50.0
100
AcDbLine
 10
4697.396575106995
 20
4784.574105358053
 30
0.0
 11
4697.396575106998
 21
2994.574105358057
 31
0.0
  0
LINE
  5
18320
330
747D
100
AcDbEntity
  8
細線
 48
50.0
100
AcDbLine
 10
4837.396575106995
 20
4784.574105358053
 30
0.0
 11
4837.396575106999
 21
2994.574105358058
 31
0.0
  0
LINE
  5
18321
330
747D
100
AcDbEntity
  8
細線
 48
50.0
100
AcDbLine
 10
4852.396575106996
 20
4784.574105358053
 30
0.0
 11
4852.396575106999
 21
2994.574105358058
 31
0.0
  0
LINE
  5
18322
330
747D
100
AcDbEntity
  8
細線
 48
50.0
100
AcDbLine
 10
4992.396575106996
 20
4784.574105358053
 30
0.0
 11
4992.396575106999
 21
2994.574105358059
 31
0.0
  0
LINE
  5
18323
330
747D
100
AcDbEntity
  8
細線
 48
50.0
100
AcDbLine
 10
4977.396575106996
 20
4784.574105358053
 30
0.0
 11
4977.396575106999
 21
2994.574105358059
 31
0.0
  0
LINE
  5
18324
330
747D
100
AcDbEntity
  8
細線
 48
50.0
100
AcDbLine
 10
7497.396575106995
 20
4784.574105358053
 30
0.0
 11
7497.396575107
 21
2994.574105358059
 31
0.0
  0
LINE
  5
18325
330
747D
100
AcDbEntity
  8
細線
 48
50.0
100
AcDbLine
 10
7512.396575106996
 20
4784.574105358053
 30
0.0
 11
7512.396575106999
 21
2994.574105358059
 31
0.0
  0
LINE
  5
18326
330
747D
100
AcDbEntity
  8
細線
 48
50.0
100
AcDbLine
 10
7372.396575106995
 20
4784.574105358053
 30
0.0
 11
7372.396575107
 21
2994.574105358058
 31
0.0
  0
LINE
  5
18327
330
747D
100
AcDbEntity
  8
細線
 48
50.0
100
AcDbLine
 10
7357.396575106996
 20
4784.574105358053
 30
0.0
 11
7357.396575106999
 21
2994.574105358058
 31
0.0
  0
LINE
  5
18328
330
747D
100
AcDbEntity
  8
細線
 48
50.0
100
AcDbLine
 10
7217.396575106995
 20
4784.574105358053
 30
0.0
 11
7217.396575106999
 21
2994.574105358057
 31
0.0
  0
LINE
  5
18329
330
747D
100
AcDbEntity
  8
細線
 48
50.0
100
AcDbLine
 10
7232.396575106996
 20
4784.574105358053
 30
0.0
 11
7232.396575106999
 21
2994.574105358057
 31
0.0
  0
LINE
  5
183C4
330
747D
100
AcDbEntity
  8
細線
100
AcDbLine
 10
6641.396575106992
 20
4727.574105358053
 30
0.0
 11
6641.396575106992
 21
3002.074105358071
 31
0.0
  0
LINE
  5
183C5
330
747D
100
AcDbEntity
  8
細線
100
AcDbLine
 10
5915.896575106992
 20
4727.574105358053
 30
0.0
 11
5915.896575106992
 21
3002.074105358064
 31
0.0
  0
LINE
  5
183C6
330
747D
100
AcDbEntity
  8
細線
100
AcDbLine
 10
5985.896575106991
 20
4727.574105358053
 30
0.0
 11
5985.896575106991
 21
3002.074105358064
 31
0.0
  0
LINE
  5
183C7
330
747D
100
AcDbEntity
  8
細線
100
AcDbLine
 10
5271.896575106992
 20
4727.574105358053
 30
0.0
 11
5271.896575106992
 21
2994.574105358057
 31
0.0
  0
LINE
  5
183C8
330
747D
100
AcDbEntity
  8
細線
100
AcDbLine
 10
5341.896575106992
 20
4727.574105358053
 30
0.0
 11
5341.896575106992
 21
2994.574105358057
 31
0.0
  0
LINE
  5
183E2
330
747D
100
AcDbEntity
  8
部品1
 48
50.0
100
AcDbLine
 10
5101.896575106992
 20
3926.074105358053
 30
0.0
 11
5154.896575106992
 21
3926.074105358053
 31
0.0
  0
LINE
  5
183E6
330
747D
100
AcDbEntity
  8
細線
100
AcDbLine
 10
6711.396575106991
 20
4727.574105358053
 30
0.0
 11
6711.396575106991
 21
3002.074105358071
 31
0.0
  0
LINE
  5
183E7
330
747D
100
AcDbEntity
  8
細線
100
AcDbLine
 10
6781.396575106992
 20
4727.574105358053
 30
0.0
 11
6781.396575106992
 21
3002.074105358071
 31
0.0
  0
LINE
  5
183E8
330
747D
100
AcDbEntity
  8
細線
100
AcDbLine
 10
6851.396575106992
 20
4727.574105358053
 30
0.0
 11
6851.396575106992
 21
3002.074105358071
 31
0.0
  0
LINE
  5
183E9
330
747D
100
AcDbEntity
  8
細線
100
AcDbLine
 10
6921.396575106992
 20
4727.574105358053
 30
0.0
 11
6921.396575106992
 21
3002.074105358071
 31
0.0
  0
LINE
  5
183EA
330
747D
100
AcDbEntity
  8
細線
100
AcDbLine
 10
6991.396575106993
 20
4727.574105358053
 30
0.0
 11
6991.396575106993
 21
3002.074105358071
 31
0.0
  0
LINE
  5
183EB
330
747D
100
AcDbEntity
  8
細線
100
AcDbLine
 10
6055.896575106991
 20
4727.574105358053
 30
0.0
 11
6055.896575106991
 21
3002.074105358064
 31
0.0
  0
LINE
  5
183EC
330
747D
100
AcDbEntity
  8
細線
100
AcDbLine
 10
6125.896575106992
 20
4727.574105358053
 30
0.0
 11
6125.896575106992
 21
3002.074105358064
 31
0.0
  0
LINE
  5
183ED
330
747D
100
AcDbEntity
  8
細線
100
AcDbLine
 10
6195.896575106992
 20
4727.574105358053
 30
0.0
 11
6195.896575106992
 21
3002.074105358064
 31
0.0
  0
LINE
  5
183EE
330
747D
100
AcDbEntity
  8
細線
100
AcDbLine
 10
6265.896575106992
 20
4727.574105358053
 30
0.0
 11
6265.896575106992
 21
3002.074105358064
 31
0.0
  0
LINE
  5
183EF
330
747D
100
AcDbEntity
  8
細線
100
AcDbLine
 10
6335.896575106992
 20
4727.574105358053
 30
0.0
 11
6335.896575106992
 21
3002.074105358064
 31
0.0
  0
LINE
  5
183F0
330
747D
100
AcDbEntity
  8
細線
100
AcDbLine
 10
6405.896575106992
 20
4727.574105358053
 30
0.0
 11
6405.896575106992
 21
3002.074105358064
 31
0.0
  0
LINE
  5
183F1
330
747D
100
AcDbEntity
  8
細線
100
AcDbLine
 10
5185.896575106991
 20
4727.574105358053
 30
0.0
 11
5185.896575106991
 21
2994.574105358057
 31
0.0
  0
LINE
  5
183F2
330
747D
100
AcDbEntity
  8
細線
100
AcDbLine
 10
5219.896575106992
 20
4727.574105358053
 30
0.0
 11
5219.896575106992
 21
2994.574105358057
 31
0.0
  0
LINE
  5
183F3
330
747D
100
AcDbEntity
  8
部品1
100
AcDbLine
 10
5177.896575106991
 20
4727.574105358053
 30
0.0
 11
5177.896575106991
 21
2994.574105358057
 31
0.0
  0
LINE
  5
183F4
330
747D
100
AcDbEntity
  8
部品1
100
AcDbLine
 10
5227.896575106992
 20
4727.574105358053
 30
0.0
 11
5227.896575106992
 21
2994.574105358057
 31
0.0
  0
LINE
  5
183F5
330
747D
100
AcDbEntity
  8
細線
100
AcDbLine
 10
5411.896575106992
 20
4727.574105358053
 30
0.0
 11
5411.896575106992
 21
2994.574105358057
 31
0.0
  0
LINE
  5
183F6
330
747D
100
AcDbEntity
  8
細線
100
AcDbLine
 10
5481.896575106992
 20
4727.574105358053
 30
0.0
 11
5481.896575106992
 21
2994.574105358057
 31
0.0
  0
LINE
  5
183F7
330
747D
100
AcDbEntity
  8
細線
100
AcDbLine
 10
5551.896575106992
 20
4727.574105358053
 30
0.0
 11
5551.896575106992
 21
2994.574105358057
 31
0.0
  0
LINE
  5
183F8
330
747D
100
AcDbEntity
  8
細線
100
AcDbLine
 10
5621.896575106991
 20
4727.574105358053
 30
0.0
 11
5621.896575106991
 21
2994.574105358057
 31
0.0
  0
LINE
  5
183F9
330
747D
100
AcDbEntity
  8
細線
100
AcDbLine
 10
5691.896575106992
 20
4727.574105358053
 30
0.0
 11
5691.896575106992
 21
2994.574105358061
 31
0.0
  0
LINE
  5
183FA
330
747D
100
AcDbEntity
  8
細線
100
AcDbLine
 10
5761.896575106992
 20
4727.574105358053
 30
0.0
 11
5761.896575106992
 21
2994.574105358061
 31
0.0
  0
LINE
  5
183FB
330
747D
100
AcDbEntity
  8
部品1
100
AcDbLine
 10
6506.896575106988
 20
4727.574105358053
 30
0.0
 11
6506.896575106988
 21
3002.074105358068
 31
0.0
  0
LINE
  5
18400
330
747D
100
AcDbEntity
  8
部品1
 48
50.0
100
AcDbLine
 10
7181.896575106993
 20
4735.574105358053
 30
0.0
 11
7151.896575106992
 21
4735.574105358053
 31
0.0
  0
LINE
  5
18402
330
747D
100
AcDbEntity
  8
部品1
 48
50.0
100
AcDbLine
 10
5057.896575106991
 20
4735.574105358053
 30
0.0
 11
5027.896575106992
 21
4735.574105358053
 31
0.0
  0
LINE
  5
18403
330
747D
100
AcDbEntity
  8
部品1
 48
50.0
100
AcDbLine
 10
5054.896575106992
 20
4779.574105358054
 30
0.0
 11
5054.896575106992
 21
4784.574105358053
 31
0.0
  0
LINE
  5
18404
330
747D
100
AcDbEntity
  8
部品1
 48
50.0
100
AcDbLine
 10
7181.896575106993
 20
4779.574105358054
 30
0.0
 11
5027.896575106992
 21
4779.574105358054
 31
0.0
  0
LINE
  5
18405
330
747D
100
AcDbEntity
  8
細線
 48
50.0
100
AcDbLine
 10
7181.896575106993
 20
4769.574105358053
 30
0.0
 11
5027.896575106992
 21
4769.574105358053
 31
0.0
  0
LINE
  5
18406
330
747D
100
AcDbEntity
  8
細線
 48
50.0
100
AcDbLine
 10
7151.896575106992
 20
4727.574105358053
 30
0.0
 11
5057.896575106991
 21
4727.574105358053
 31
0.0
  0
LINE
  5
18407
330
747D
100
AcDbEntity
  8
細線
 48
50.0
100
AcDbLine
 10
7151.896575106992
 20
4737.074105358053
 30
0.0
 11
5057.896575106991
 21
4737.074105358053
 31
0.0
  0
LINE
  5
18408
330
747D
100
AcDbEntity
  8
細線
 48
50.0
100
AcDbLine
 10
7129.896575106991
 20
2991.574105358053
 30
0.0
 11
7125.896575106992
 21
3002.074105358053
 31
0.0
  0
LINE
  5
18409
330
747D
100
AcDbEntity
  8
部品1
 48
50.0
100
AcDbLine
 10
5066.896575106992
 20
2994.574105358053
 30
0.0
 11
5066.896575106992
 21
2991.574105358053
 31
0.0
  0
LINE
  5
1840A
330
747D
100
AcDbEntity
  8
部品1
 48
50.0
100
AcDbLine
 10
5057.896575106991
 20
2994.574105358053
 30
0.0
 11
5855.896575106992
 21
2994.574105358053
 31
0.0
  0
LINE
  5
1840B
330
747D
100
AcDbEntity
  8
部品1
 48
50.0
100
AcDbLine
 10
5027.896575106992
 20
2944.574105358054
 30
0.0
 11
7181.896575106993
 21
2944.574105358054
 31
0.0
  0
LINE
  5
1840C
330
747D
100
AcDbEntity
  8
細線
 48
50.0
100
AcDbLine
 10
5057.896575106991
 20
2987.574105358053
 30
0.0
 11
7151.896575106992
 21
2987.574105358053
 31
0.0
  0
LINE
  5
1840D
330
747D
100
AcDbEntity
  8
細線
 48
50.0
100
AcDbLine
 10
5057.896575106991
 20
2991.574105358053
 30
0.0
 11
7151.896575106992
 21
2991.574105358053
 31
0.0
  0
LINE
  5
1840E
330
747D
100
AcDbEntity
  8
細線
 48
50.0
100
AcDbLine
 10
5855.896575106992
 20
3002.074105358053
 30
0.0
 11
7125.896575106992
 21
3002.074105358053
 31
0.0
  0
LINE
  5
1840F
330
747D
100
AcDbEntity
  8
部品1
 48
50.0
100
AcDbLine
 10
5057.896575106991
 20
2994.574105358053
 30
0.0
 11
5057.896575106991
 21
4727.574105358053
 31
0.0
  0
LINE
  5
18410
330
747D
100
AcDbEntity
  8
細線
 48
50.0
100
AcDbLine
 10
5057.896575106991
 20
4737.074105358053
 30
0.0
 11
5057.896575106991
 21
2944.574105358054
 31
0.0
  0
LINE
  5
18411
330
747D
100
AcDbEntity
  8
部品1
 48
50.0
100
AcDbLine
 10
5027.896575106992
 20
4779.574105358054
 30
0.0
 11
5027.896575106992
 21
2944.574105358054
 31
0.0
  0
LINE
  5
18413
330
747D
100
AcDbEntity
  8
部品1
 48
50.0
100
AcDbLine
 10
7142.896575106992
 20
2991.574105358053
 30
0.0
 11
7142.896575106992
 21
4727.574105358053
 31
0.0
  0
LINE
  5
18414
330
747D
100
AcDbEntity
  8
細線
 48
50.0
100
AcDbLine
 10
7151.896575106992
 20
2944.574105358054
 30
0.0
 11
7151.896575106992
 21
4737.074105358053
 31
0.0
  0
LINE
  5
18415
330
747D
100
AcDbEntity
  8
部品1
 48
50.0
100
AcDbLine
 10
7181.896575106993
 20
2944.574105358054
 30
0.0
 11
7181.896575106993
 21
4779.574105358054
 31
0.0
  0
LINE
  5
18416
330
747D
100
AcDbEntity
  8
部品1
 48
50.0
100
AcDbLine
 10
5855.896575106992
 20
4727.574105358053
 30
0.0
 11
5855.896575106992
 21
2994.574105358053
 31
0.0
  0
LINE
  5
1847D
330
747D
100
AcDbEntity
  8
部品1
100
AcDbLine
 10
7181.896575106993
 20
2994.574105358071
 30
0.0
 11
7629.896575106991
 21
2994.574105358073
 31
0.0
  0
MTEXT
  5
189B4
330
747D
100
AcDbEntity
  8
寸法
 62
     7
 48
50.0
100
AcDbMText
 10
4735.176372717604
 20
9517.500344276736
 30
0.0
 40
96.0
 41
0.0
 71
     5
 72
     1
  1
棚 2段
  7
STYLE1
 73
     1
 44
1.0
1001
ACAD
1000
MTEXTBEGIN
1070
    73
1070
     1
1070
    44
1040
1.0
1070
    74
1070
     0
1000
MTEXTEND
  0
MTEXT
  5
18B91
330
747D
100
AcDbEntity
  8
寸法
 62
     7
 48
50.0
100
AcDbMText
 10
5910.176372717604
 20
9517.500344276788
 30
0.0
 40
96.0
 41
0.0
 71
     5
 72
     1
  1
棚 2段
  7
STYLE1
 73
     1
 44
1.0
1001
ACAD
1000
MTEXTBEGIN
1070
    73
1070
     1
1070
    44
1040
1.0
1070
    74
1070
     0
1000
MTEXTEND
  0
MTEXT
  5
18B92
330
747D
100
AcDbEntity
  8
寸法
 62
     7
 48
50.0
100
AcDbMText
 10
7085.176372717637
 20
9517.500344276811
 30
0.0
 40
96.0
 41
0.0
 71
     5
 72
     1
  1
棚 2段
  7
STYLE1
 73
     1
 44
1.0
1001
ACAD
1000
MTEXTBEGIN
1070
    73
1070
     1
1070
    44
1040
1.0
1070
    74
1070
     0
1000
MTEXTEND
  0
LINE
  5
18FBB
330
747D
100
AcDbEntity
  8
細線
100
AcDbLine
 10
6734.896575106994
 20
4844.074105358052
 30
0.0
 11
6734.896575106994
 21
4821.074105358051
 31
0.0
  0
LINE
  5
18FBC
330
747D
100
AcDbEntity
  8
細線
100
AcDbLine
 10
6660.896575106993
 20
4832.074105358051
 30
0.0
 11
6734.896575106994
 21
4832.074105358051
 31
0.0
  0
LINE
  5
18FBD
330
747D
100
AcDbEntity
  8
細線
100
AcDbLine
 10
6660.896575106993
 20
4826.074105358052
 30
0.0
 11
6734.896575106994
 21
4826.074105358052
 31
0.0
  0
LINE
  5
18FBE
330
747D
100
AcDbEntity
  8
細線
100
AcDbLine
 10
6660.896575106993
 20
4838.074105358051
 30
0.0
 11
6734.896575106994
 21
4838.074105358051
 31
0.0
  0
LINE
  5
18FBF
330
747D
100
AcDbEntity
  8
細線
100
AcDbLine
 10
6808.896575106993
 20
4838.074105358051
 30
0.0
 11
6739.896575106993
 21
4838.074105358051
 31
0.0
  0
LINE
  5
18FC0
330
747D
100
AcDbEntity
  8
細線
100
AcDbLine
 10
6808.896575106993
 20
4826.074105358052
 30
0.0
 11
6734.896575106994
 21
4826.074105358052
 31
0.0
  0
LINE
  5
18FC1
330
747D
100
AcDbEntity
  8
細線
100
AcDbLine
 10
6808.896575106993
 20
4832.074105358051
 30
0.0
 11
6734.896575106994
 21
4832.074105358051
 31
0.0
  0
LINE
  5
18FC2
330
747D
100
AcDbEntity
  8
細線
100
AcDbLine
 10
6808.896575106993
 20
4838.074105358051
 30
0.0
 11
6734.896575106994
 21
4838.074105358051
 31
0.0
  0
LINE
  5
18FC3
330
747D
100
AcDbEntity
  8
部品1
 48
0.01
100
AcDbLine
 10
6646.896575106993
 20
4850.574105358052
 30
0.0
 11
6822.896575106994
 21
4850.574105358052
 31
0.0
  0
LINE
  5
18FC4
330
747D
100
AcDbEntity
  8
部品1
 48
0.01
100
AcDbLine
 10
6824.896575106993
 20
4848.574105358051
 30
0.0
 11
6824.896575106993
 21
4817.074105358051
 31
0.0
  0
LINE
  5
18FC5
330
747D
100
AcDbEntity
  8
部品1
 48
0.01
100
AcDbLine
 10
6822.896575106994
 20
4815.074105358052
 30
0.0
 11
6646.896575106993
 21
4815.074105358052
 31
0.0
  0
LINE
  5
18FC6
330
747D
100
AcDbEntity
  8
部品1
 48
0.01
100
AcDbLine
 10
6644.896575106994
 20
4817.074105358051
 30
0.0
 11
6644.896575106994
 21
4848.574105358051
 31
0.0
  0
LINE
  5
18FC7
330
747D
100
AcDbEntity
  8
細線
100
AcDbLine
 10
6808.896575106993
 20
4844.074105358052
 30
0.0
 11
6808.896575106993
 21
4821.074105358051
 31
0.0
  0
LINE
  5
18FC8
330
747D
100
AcDbEntity
  8
細線
100
AcDbLine
 10
6660.896575106993
 20
4821.074105358051
 30
0.0
 11
6660.896575106993
 21
4844.074105358052
 31
0.0
  0
LINE
  5
18FC9
330
747D
100
AcDbEntity
  8
細線
100
AcDbLine
 10
6660.896575106993
 20
4844.074105358052
 30
0.0
 11
6734.896575106994
 21
4844.074105358052
 31
0.0
  0
LINE
  5
18FCA
330
747D
100
AcDbEntity
  8
細線
100
AcDbLine
 10
6808.896575106993
 20
4821.074105358051
 30
0.0
 11
6734.896575106994
 21
4821.074105358051
 31
0.0
  0
LINE
  5
18FCB
330
747D
100
AcDbEntity
  8
細線
100
AcDbLine
 10
6734.896575106994
 20
4844.074105358052
 30
0.0
 11
6808.896575106993
 21
4844.074105358052
 31
0.0
  0
LINE
  5
18FCC
330
747D
100
AcDbEntity
  8
細線
100
AcDbLine
 10
6734.896575106994
 20
4821.074105358051
 30
0.0
 11
6660.896575106993
 21
4821.074105358051
 31
0.0
  0
ARC
  5
18FCD
330
747D
100
AcDbEntity
  8
部品1
 48
0.01
100
AcDbCircle
 10
6822.896575106994
 20
4848.574105358051
 30
0.0
 40
2.0
100
AcDbArc
 50
0.0
 51
90.0
  0
ARC
  5
18FCE
330
747D
100
AcDbEntity
  8
部品1
 48
0.01
100
AcDbCircle
 10
6822.896575106994
 20
4817.074105358051
 30
0.0
 40
2.0
100
AcDbArc
 50
270.0
 51
0.0
  0
ARC
  5
18FCF
330
747D
100
AcDbEntity
  8
部品1
 48
0.01
100
AcDbCircle
 10
6646.896575106993
 20
4848.574105358051
 30
0.0
 40
2.0
100
AcDbArc
 50
90.0
 51
180.0
  0
ARC
  5
18FD0
330
747D
100
AcDbEntity
  8
部品1
 48
0.01
100
AcDbCircle
 10
6646.896575106993
 20
4817.074105358051
 30
0.0
 40
2.0
100
AcDbArc
 50
180.0
 51
270.0
  0
ARC
  5
18FD1
330
747D
100
AcDbEntity
  8
部品1
 48
0.01
100
AcDbCircle
 10
5142.896575106991
 20
4817.074105358051
 30
0.0
 40
2.0
100
AcDbArc
 50
270.0
 51
0.0
  0
ARC
  5
18FD2
330
747D
100
AcDbEntity
  8
部品1
 48
0.01
100
AcDbCircle
 10
5142.896575106994
 20
4848.574105358051
 30
0.0
 40
2.0
100
AcDbArc
 50
0.0
 51
90.0
  0
ARC
  5
18FD3
330
747D
100
AcDbEntity
  8
部品1
 48
0.01
100
AcDbCircle
 10
4966.896575106994
 20
4817.074105358051
 30
0.0
 40
2.0
100
AcDbArc
 50
180.0
 51
270.0
  0
ARC
  5
18FD4
330
747D
100
AcDbEntity
  8
部品1
 48
0.01
100
AcDbCircle
 10
4966.896575106994
 20
4848.574105358051
 30
0.0
 40
2.0
100
AcDbArc
 50
90.0
 51
180.0
  0
LINE
  5
18FD5
330
747D
100
AcDbEntity
  8
細線
100
AcDbLine
 10
5054.896575106992
 20
4821.074105358051
 30
0.0
 11
5128.896575106994
 21
4821.074105358051
 31
0.0
  0
LINE
  5
18FD6
330
747D
100
AcDbEntity
  8
細線
100
AcDbLine
 10
5054.896575106994
 20
4844.074105358052
 30
0.0
 11
4980.896575106993
 21
4844.074105358052
 31
0.0
  0
LINE
  5
18FD7
330
747D
100
AcDbEntity
  8
細線
100
AcDbLine
 10
4980.896575106993
 20
4821.074105358051
 30
0.0
 11
5054.896575106994
 21
4821.074105358051
 31
0.0
  0
LINE
  5
18FD8
330
747D
100
AcDbEntity
  8
細線
100
AcDbLine
 10
5128.896575106994
 20
4844.074105358052
 30
0.0
 11
5054.896575106994
 21
4844.074105358052
 31
0.0
  0
LINE
  5
18FD9
330
747D
100
AcDbEntity
  8
細線
100
AcDbLine
 10
5128.896575106994
 20
4821.074105358051
 30
0.0
 11
5128.896575106994
 21
4844.074105358052
 31
0.0
  0
LINE
  5
18FDA
330
747D
100
AcDbEntity
  8
細線
100
AcDbLine
 10
4980.896575106993
 20
4844.074105358052
 30
0.0
 11
4980.896575106993
 21
4821.074105358051
 31
0.0
  0
LINE
  5
18FDB
330
747D
100
AcDbEntity
  8
部品1
 48
0.01
100
AcDbLine
 10
5144.896575106992
 20
4817.074105358051
 30
0.0
 11
5144.896575106994
 21
4848.574105358051
 31
0.0
  0
LINE
  5
18FDC
330
747D
100
AcDbEntity
  8
部品1
 48
0.01
100
AcDbLine
 10
4966.896575106994
 20
4815.074105358052
 30
0.0
 11
5142.896575106991
 21
4815.074105358052
 31
0.0
  0
LINE
  5
18FDD
330
747D
100
AcDbEntity
  8
部品1
 48
0.01
100
AcDbLine
 10
4964.896575106994
 20
4848.574105358051
 30
0.0
 11
4964.896575106994
 21
4817.074105358051
 31
0.0
  0
LINE
  5
18FDE
330
747D
100
AcDbEntity
  8
部品1
 48
0.01
100
AcDbLine
 10
5142.896575106994
 20
4850.574105358052
 30
0.0
 11
4966.896575106994
 21
4850.574105358052
 31
0.0
  0
LINE
  5
18FDF
330
747D
100
AcDbEntity
  8
細線
100
AcDbLine
 10
4980.896575106993
 20
4838.074105358051
 30
0.0
 11
5054.896575106994
 21
4838.074105358051
 31
0.0
  0
LINE
  5
18FE0
330
747D
100
AcDbEntity
  8
細線
100
AcDbLine
 10
4980.896575106993
 20
4832.074105358051
 30
0.0
 11
5054.896575106994
 21
4832.074105358051
 31
0.0
  0
LINE
  5
18FE1
330
747D
100
AcDbEntity
  8
細線
100
AcDbLine
 10
4980.896575106992
 20
4826.074105358052
 30
0.0
 11
5054.896575106994
 21
4826.074105358052
 31
0.0
  0
LINE
  5
18FE2
330
747D
100
AcDbEntity
  8
細線
100
AcDbLine
 10
4980.896575106993
 20
4838.074105358051
 30
0.0
 11
5049.896575106994
 21
4838.074105358051
 31
0.0
  0
LINE
  5
18FE3
330
747D
100
AcDbEntity
  8
細線
100
AcDbLine
 10
5128.896575106992
 20
4838.074105358051
 30
0.0
 11
5054.896575106994
 21
4838.074105358051
 31
0.0
  0
LINE
  5
18FE4
330
747D
100
AcDbEntity
  8
細線
100
AcDbLine
 10
5128.896575106992
 20
4826.074105358052
 30
0.0
 11
5054.896575106994
 21
4826.074105358052
 31
0.0
  0
LINE
  5
18FE5
330
747D
100
AcDbEntity
  8
細線
100
AcDbLine
 10
5128.896575106992
 20
4832.074105358051
 30
0.0
 11
5054.896575106994
 21
4832.074105358051
 31
0.0
  0
LINE
  5
18FE6
330
747D
100
AcDbEntity
  8
細線
100
AcDbLine
 10
5054.896575106994
 20
4844.074105358052
 30
0.0
 11
5054.896575106992
 21
4821.074105358051
 31
0.0
  0
LINE
  5
1903B
330
747D
100
AcDbEntity
  8
補助
  6
PHANTOM
 62
   230
 48
50.0
100
AcDbLine
 10
140.0
 20
0.0
 30
0.0
 11
139.9999999999995
 21
11409.6
 31
0.0
  0
LINE
  5
19123
330
747D
100
AcDbEntity
  8
寸法
 48
50.0
100
AcDbLine
 10
5490.099581388811
 20
7909.701935886129
 30
0.0
 11
5438.693573478707
 21
7909.701935886129
 31
0.0
  0
LINE
  5
19124
330
747D
100
AcDbEntity
  8
寸法
 48
50.0
100
AcDbLine
 10
5438.693573478707
 20
7909.701935886129
 30
0.0
 11
5438.693573478707
 21
7941.012094538296
 31
0.0
  0
LINE
  5
19125
330
747D
100
AcDbEntity
  8
寸法
 48
50.0
100
AcDbLine
 10
5438.693573478707
 20
7941.012094538296
 30
0.0
 11
5408.932241487284
 21
7941.012094538296
 31
0.0
  0
LINE
  5
19126
330
747D
100
AcDbEntity
  8
寸法
 48
50.0
100
AcDbLine
 10
5408.932241487284
 20
7941.012094538296
 30
0.0
 11
5464.39657743376
 21
7978.591545466905
 31
0.0
  0
LINE
  5
19127
330
747D
100
AcDbEntity
  8
寸法
 48
50.0
100
AcDbLine
 10
5519.860913380234
 20
7941.012094538296
 30
0.0
 11
5464.39657743376
 21
7978.591545466905
 31
0.0
  0
LINE
  5
19128
330
747D
100
AcDbEntity
  8
寸法
 48
50.0
100
AcDbLine
 10
5490.099581388811
 20
7941.012094538296
 30
0.0
 11
5519.860913380234
 21
7941.012094538296
 31
0.0
  0
LINE
  5
19129
330
747D
100
AcDbEntity
  8
寸法
 48
50.0
100
AcDbLine
 10
5490.099581388811
 20
7909.701935886129
 30
0.0
 11
5490.099581388811
 21
7941.012094538296
 31
0.0
  0
LINE
  5
1912A
330
747D
100
AcDbEntity
  8
寸法
 48
50.0
100
AcDbLine
 10
5438.693573478707
 20
7909.701935886129
 30
0.0
 11
5490.099581388811
 21
7909.701935886129
 31
0.0
  0
LINE
  5
1912B
330
747D
100
AcDbEntity
  8
寸法
 48
50.0
100
AcDbLine
 10
5769.265115665668
 20
7966.847526640951
 30
0.0
 11
5769.265115665668
 21
7913.183892059162
 31
0.0
  0
LINE
  5
1912C
330
747D
100
AcDbEntity
  8
寸法
 48
50.0
100
AcDbLine
 10
5858.54933426109
 20
7942.923892371466
 30
0.0
 11
5769.265115665668
 21
7966.847526640951
 31
0.0
  0
LINE
  5
1912D
330
747D
100
AcDbEntity
  8
寸法
 48
50.0
100
AcDbLine
 10
5639.397394085365
 20
7942.923892371466
 30
0.0
 11
5858.54933426109
 21
7942.923892371466
 31
0.0
  0
LINE
  5
1912E
330
747D
100
AcDbEntity
  8
細線
 48
50.0
100
AcDbLine
 10
6515.89657510697
 20
8108.165299265991
 30
0.0
 11
7142.896575106966
 21
8108.165299265991
 31
0.0
  0
LINE
  5
1912F
330
747D
100
AcDbEntity
  8
細線
 48
50.0
100
AcDbLine
 10
5861.896579760556
 20
8074.456530711916
 30
0.0
 11
7142.896575106966
 21
8074.456530711916
 31
0.0
  0
LINE
  5
19130
330
747D
100
AcDbEntity
  8
細線
 48
50.0
100
AcDbLine
 10
5820.89657976056
 20
8103.86143870817
 30
0.0
 11
5066.896575106966
 21
8103.861438708165
 31
0.0
  0
LINE
  5
19131
330
747D
100
AcDbEntity
  8
細線
100
AcDbLine
 10
6918.64656569051
 20
8127.665199231
 30
0.0
 11
6920.978105212319
 21
8132.665201870961
 31
0.0
  0
LINE
  5
19132
330
747D
100
AcDbEntity
  8
細線
100
AcDbLine
 10
6988.646575106968
 20
8127.665184317265
 30
0.0
 11
6986.31502863078
 21
8132.665201870947
 31
0.0
  0
LINE
  5
19133
330
747D
100
AcDbEntity
  8
細線
100
AcDbLine
 10
6986.31502863078
 20
8132.665201870947
 30
0.0
 11
6920.978105212305
 21
8132.665201870933
 31
0.0
  0
LINE
  5
19134
330
747D
100
AcDbEntity
  8
細線
100
AcDbLine
 10
6846.315028630781
 20
8132.665201870947
 30
0.0
 11
6780.978105212304
 21
8132.665201870933
 31
0.0
  0
LINE
  5
19135
330
747D
100
AcDbEntity
  8
細線
100
AcDbLine
 10
6848.646575106967
 20
8127.665184317265
 30
0.0
 11
6846.315028630781
 21
8132.665201870947
 31
0.0
  0
LINE
  5
19136
330
747D
100
AcDbEntity
  8
細線
100
AcDbLine
 10
6778.646565690511
 20
8127.665199231
 30
0.0
 11
6780.978105212319
 21
8132.665201870961
 31
0.0
  0
LINE
  5
19137
330
747D
100
AcDbEntity
  8
細線
100
AcDbLine
 10
6638.646575106967
 20
8127.665184317265
 30
0.0
 11
6640.978114628779
 21
8132.665186957227
 31
0.0
  0
LINE
  5
19138
330
747D
100
AcDbEntity
  8
細線
100
AcDbLine
 10
6708.646584523428
 20
8127.665169403533
 30
0.0
 11
6706.315038047236
 21
8132.665186957213
 31
0.0
  0
LINE
  5
19139
330
747D
100
AcDbEntity
  8
細線
100
AcDbLine
 10
6706.31503804724
 20
8132.665186957213
 30
0.0
 11
6640.978114628765
 21
8132.665186957197
 31
0.0
  0
LINE
  5
1913A
330
747D
100
AcDbEntity
  8
細線
100
AcDbLine
 10
6411.065059296074
 20
8098.665223654595
 30
0.0
 11
6345.728135877598
 21
8098.665223654579
 31
0.0
  0
LINE
  5
1913B
330
747D
100
AcDbEntity
  8
細線
100
AcDbLine
 10
6413.396605772262
 20
8093.665206100913
 30
0.0
 11
6411.065059296074
 21
8098.665223654595
 31
0.0
  0
LINE
  5
1913C
330
747D
100
AcDbEntity
  8
細線
100
AcDbLine
 10
6343.396596355804
 20
8093.665221014648
 30
0.0
 11
6345.728135877613
 21
8098.665223654609
 31
0.0
  0
LINE
  5
1913D
330
747D
100
AcDbEntity
  8
細線
 48
50.0
100
AcDbLine
 10
6184.779954354981
 20
8111.936047470347
 30
0.0
 11
6190.535471937648
 21
8093.665196179861
 31
0.0
  0
LINE
  5
1913E
330
747D
100
AcDbEntity
  8
細線
 48
50.0
100
AcDbLine
 10
6173.851505874551
 20
8111.936047470347
 30
0.0
 11
6184.779954354981
 21
8111.936047470347
 31
0.0
  0
ARC
  5
1913F
330
747D
100
AcDbEntity
  8
細線
 48
50.0
100
AcDbCircle
 10
6168.397149817229
 20
8113.436047470347
 30
0.0
 40
5.0
100
AcDbArc
 50
204.6243183521277
 51
335.3756816478722
  0
ARC
  5
19140
330
747D
100
AcDbEntity
  8
細線
 48
50.0
100
AcDbCircle
 10
6173.851505874551
 20
8110.936047470346
 30
0.0
 40
1.0
100
AcDbArc
 50
90.0
 51
155.3756816478722
  0
ARC
  5
19141
330
747D
100
AcDbEntity
  8
細線
 48
50.0
100
AcDbCircle
 10
6162.942793759913
 20
8110.936047470346
 30
0.0
 40
1.0
100
AcDbArc
 50
24.62431835212777
 51
90.0
  0
LINE
  5
19142
330
747D
100
AcDbEntity
  8
細線
 48
50.0
100
AcDbLine
 10
6152.01434527948
 20
8111.936047470347
 30
0.0
 11
6162.942793759913
 21
8111.936047470347
 31
0.0
  0
LINE
  5
19143
330
747D
100
AcDbEntity
  8
細線
 48
50.0
100
AcDbLine
 10
6146.258827696812
 20
8093.665196179854
 30
0.0
 11
6152.01434527948
 21
8111.936047470347
 31
0.0
  0
LINE
  5
19144
330
747D
100
AcDbEntity
  8
細線
100
AcDbLine
 10
6203.396597586845
 20
8093.665193545659
 30
0.0
 11
6205.728137108657
 21
8098.665196185619
 31
0.0
  0
LINE
  5
19145
330
747D
100
AcDbEntity
  8
細線
100
AcDbLine
 10
6273.396607003306
 20
8093.665178631923
 30
0.0
 11
6271.065060527114
 21
8098.665196185605
 31
0.0
  0
LINE
  5
19146
330
747D
100
AcDbEntity
  8
細線
100
AcDbLine
 10
6271.065060527114
 20
8098.665196185605
 30
0.0
 11
6205.728137108643
 21
8098.66519618559
 31
0.0
  0
LINE
  5
19147
330
747D
100
AcDbEntity
  8
細線
100
AcDbLine
 10
6131.065032162599
 20
8098.665196179823
 30
0.0
 11
6065.728108744123
 21
8098.665196179808
 31
0.0
  0
LINE
  5
19148
330
747D
100
AcDbEntity
  8
細線
100
AcDbLine
 10
6133.396578638786
 20
8093.665178626144
 30
0.0
 11
6131.065032162599
 21
8098.665196179823
 31
0.0
  0
LINE
  5
19149
330
747D
100
AcDbEntity
  8
細線
100
AcDbLine
 10
6063.396570453369
 20
8093.665196179854
 30
0.0
 11
6065.728108744137
 21
8098.665196179839
 31
0.0
  0
LINE
  5
1914A
330
747D
100
AcDbEntity
  8
細線
100
AcDbLine
 10
5923.396605772261
 20
8093.665204367223
 30
0.0
 11
5925.728144063029
 21
8098.665204367208
 31
0.0
  0
LINE
  5
1914B
330
747D
100
AcDbEntity
  8
細線
100
AcDbLine
 10
5993.396613957677
 20
8093.665186813513
 30
0.0
 11
5991.065067481489
 21
8098.66520436719
 31
0.0
  0
LINE
  5
1914C
330
747D
100
AcDbEntity
  8
細線
100
AcDbLine
 10
5991.065067481489
 20
8098.66520436719
 30
0.0
 11
5925.728144063015
 21
8098.665204367177
 31
0.0
  0
LINE
  5
1914D
330
747D
100
AcDbEntity
  8
細線
100
AcDbLine
 10
5551.89657157514
 20
8059.665376047936
 30
0.0
 11
5554.228109865908
 21
8064.665376047921
 31
0.0
  0
LINE
  5
1914E
330
747D
100
AcDbEntity
  8
細線
100
AcDbLine
 10
5621.896579760556
 20
8059.665358494221
 30
0.0
 11
5619.565033284369
 21
8064.665376047898
 31
0.0
  0
LINE
  5
1914F
330
747D
100
AcDbEntity
  8
細線
100
AcDbLine
 10
5619.565033284369
 20
8064.665376047898
 30
0.0
 11
5554.228109865896
 21
8064.665376047891
 31
0.0
  0
LINE
  5
19150
330
747D
100
AcDbEntity
  8
細線
100
AcDbLine
 10
5759.565033284369
 20
8064.665376047898
 30
0.0
 11
5694.228109865896
 21
8064.665376047891
 31
0.0
  0
LINE
  5
19151
330
747D
100
AcDbEntity
  8
細線
100
AcDbLine
 10
5761.896579760556
 20
8059.665358494221
 30
0.0
 11
5759.565033284369
 21
8064.665376047898
 31
0.0
  0
LINE
  5
19152
330
747D
100
AcDbEntity
  8
細線
100
AcDbLine
 10
5691.89657157514
 20
8059.665376047936
 30
0.0
 11
5694.228109865908
 21
8064.665376047921
 31
0.0
  0
LINE
  5
19153
330
747D
100
AcDbEntity
  8
細線
100
AcDbLine
 10
5479.565033284369
 20
8064.665376047898
 30
0.0
 11
5414.228109865897
 21
8064.665376047889
 31
0.0
  0
LINE
  5
19154
330
747D
100
AcDbEntity
  8
細線
100
AcDbLine
 10
5481.896579760556
 20
8059.665358494221
 30
0.0
 11
5479.565033284369
 21
8064.665376047898
 31
0.0
  0
LINE
  5
19155
330
747D
100
AcDbEntity
  8
細線
100
AcDbLine
 10
5411.89657157514
 20
8059.665376047931
 30
0.0
 11
5414.228109865907
 21
8064.665376047917
 31
0.0
  0
LINE
  5
19156
330
747D
100
AcDbEntity
  8
細線
100
AcDbLine
 10
5271.896579760556
 20
8059.665376047936
 30
0.0
 11
5274.228118051324
 21
8064.665376047921
 31
0.0
  0
LINE
  5
19157
330
747D
100
AcDbEntity
  8
細線
100
AcDbLine
 10
5341.896587945972
 20
8059.665358494221
 30
0.0
 11
5339.565041469785
 21
8064.665376047898
 31
0.0
  0
LINE
  5
19158
330
747D
100
AcDbEntity
  8
細線
100
AcDbLine
 10
5339.565041469785
 20
8064.665376047898
 30
0.0
 11
5274.228118051313
 21
8064.665376047891
 31
0.0
  0
ARC
  5
19159
330
747D
100
AcDbEntity
  8
部品1
 48
0.01
100
AcDbCircle
 10
5227.396468508221
 20
8058.664253862863
 30
0.0
 40
0.5
100
AcDbArc
 50
270.0
 51
0.0
  0
LINE
  5
1915A
330
747D
100
AcDbEntity
  8
部品1
 48
0.01
100
AcDbLine
 10
5227.89646850822
 20
8059.664253862862
 30
0.0
 11
5227.89646850822
 21
8058.664253862863
 31
0.0
  0
LINE
  5
1915B
330
747D
100
AcDbEntity
  8
部品1
 48
0.01
100
AcDbLine
 10
5227.89646850822
 20
8059.664253862862
 30
0.0
 11
5227.89646850822
 21
8058.664253862863
 31
0.0
  0
LINE
  5
1915C
330
747D
100
AcDbEntity
  8
部品1
 48
0.01
100
AcDbLine
 10
5227.396468508221
 20
8058.164253862862
 30
0.0
 11
5220.783963078156
 21
8058.164253862862
 31
0.0
  0
ARC
  5
1915D
330
747D
100
AcDbEntity
  8
部品1
100
AcDbCircle
 10
5220.852312630937
 20
8059.164253862862
 30
0.0
 40
1.0
100
AcDbArc
 50
160.5287793655822
 51
270.0
  0
ARC
  5
1915E
330
747D
100
AcDbEntity
  8
部品1
100
AcDbCircle
 10
5195.396468508221
 20
8068.164253862862
 30
0.0
 40
26.0
100
AcDbArc
 50
340.5287793655822
 51
0.0
  0
LINE
  5
1915F
330
747D
100
AcDbEntity
  8
部品1
100
AcDbLine
 10
5221.396468508221
 20
8068.164253862862
 30
0.0
 11
5221.396468508221
 21
8073.164253862861
 31
0.0
  0
ARC
  5
19160
330
747D
100
AcDbEntity
  8
部品1
 48
0.01
100
AcDbCircle
 10
5219.396468508222
 20
8073.164253862861
 30
0.0
 40
2.0
100
AcDbArc
 50
0.0
 51
90.0
  0
ARC
  5
19161
330
747D
100
AcDbEntity
  8
部品1
100
AcDbCircle
 10
5217.788076883412
 20
8072.164253862863
 30
0.0
 40
3.0
100
AcDbArc
 50
90.0
 51
141.6069559807873
  0
LINE
  5
19162
330
747D
100
AcDbEntity
  8
部品1
 48
0.01
100
AcDbLine
 10
5219.396468508222
 20
8075.164253862862
 30
0.0
 11
5217.788076883412
 21
8075.164253862862
 31
0.0
  0
ARC
  5
19163
330
747D
100
AcDbEntity
  8
部品1
100
AcDbCircle
 10
5199.32575429395
 20
8071.464253862865
 30
0.0
 40
3.0
100
AcDbArc
 50
254.0576313943215
 51
270.0
  0
ARC
  5
19164
330
747D
100
AcDbEntity
  8
部品1
100
AcDbCircle
 10
5206.467182722492
 20
8071.464253862865
 30
0.0
 40
3.0
100
AcDbArc
 50
270.0
 51
285.9423686056786
  0
LINE
  5
19165
330
747D
100
AcDbEntity
  8
部品1
100
AcDbLine
 10
5206.467182722492
 20
8068.464253862865
 30
0.0
 11
5199.32575429395
 21
8068.464253862865
 31
0.0
  0
ARC
  5
19166
330
747D
100
AcDbEntity
  8
部品1
100
AcDbCircle
 10
5202.896468508221
 20
8083.964253862864
 30
0.0
 40
16.0
100
AcDbArc
 50
285.9423686056786
 51
321.6069559807873
  0
LINE
  5
19167
330
747D
100
AcDbEntity
  8
部品1
 48
0.01
100
AcDbLine
 10
5186.39646850822
 20
8075.164253862862
 30
0.0
 11
5188.00486013303
 21
8075.164253862862
 31
0.0
  0
ARC
  5
19168
330
747D
100
AcDbEntity
  8
部品1
100
AcDbCircle
 10
5188.00486013303
 20
8072.164253862863
 30
0.0
 40
3.0
100
AcDbArc
 50
38.39304401921267
 51
90.0
  0
ARC
  5
19169
330
747D
100
AcDbEntity
  8
部品1
100
AcDbCircle
 10
5202.896468508221
 20
8083.964253862864
 30
0.0
 40
16.0
100
AcDbArc
 50
218.3930440192126
 51
254.0576313943215
  0
LINE
  5
1916A
330
747D
100
AcDbEntity
  8
部品1
100
AcDbLine
 10
5184.396468508222
 20
8068.164253862862
 30
0.0
 11
5184.396468508222
 21
8073.164253862861
 31
0.0
  0
ARC
  5
1916B
330
747D
100
AcDbEntity
  8
部品1
 48
0.01
100
AcDbCircle
 10
5186.39646850822
 20
8073.164253862861
 30
0.0
 40
2.0
100
AcDbArc
 50
90.0
 51
180.0
  0
ARC
  5
1916C
330
747D
100
AcDbEntity
  8
部品1
100
AcDbCircle
 10
5210.396468508221
 20
8068.164253862862
 30
0.0
 40
26.0
100
AcDbArc
 50
180.0
 51
199.4712206344178
  0
ARC
  5
1916D
330
747D
100
AcDbEntity
  8
部品1
 48
0.01
100
AcDbCircle
 10
5178.396468508221
 20
8058.664253862863
 30
0.0
 40
0.5
100
AcDbArc
 50
180.0
 51
270.0
  0
LINE
  5
1916E
330
747D
100
AcDbEntity
  8
部品1
 48
0.01
100
AcDbLine
 10
5178.396468508221
 20
8058.164253862862
 30
0.0
 11
5184.940624385505
 21
8058.164253862862
 31
0.0
  0
LINE
  5
1916F
330
747D
100
AcDbEntity
  8
部品1
 48
0.01
100
AcDbLine
 10
5177.896468508221
 20
8059.664253862862
 30
0.0
 11
5177.896468508221
 21
8058.664253862863
 31
0.0
  0
ARC
  5
19170
330
747D
100
AcDbEntity
  8
部品1
100
AcDbCircle
 10
5184.940624385505
 20
8059.164253862862
 30
0.0
 40
1.0
100
AcDbArc
 50
270.0
 51
19.4712206344178
  0
LINE
  5
19171
330
747D
100
AcDbEntity
  8
細線
100
AcDbLine
 10
5223.396468508228
 20
8077.664253862867
 30
0.0
 11
5182.396468508228
 21
8077.66425386286
 31
0.0
  0
LINE
  5
19172
330
747D
100
AcDbEntity
  8
細線
100
AcDbLine
 10
5182.396468508228
 20
8077.66425386286
 30
0.0
 11
5182.396468508228
 21
8059.664253862839
 31
0.0
  0
LINE
  5
19173
330
747D
100
AcDbEntity
  8
細線
100
AcDbLine
 10
5223.396468508228
 20
8077.664253862867
 30
0.0
 11
5223.396468508228
 21
8059.664253862839
 31
0.0
  0
LINE
  5
19174
330
747D
100
AcDbEntity
  8
細線
100
AcDbLine
 10
5066.896575106966
 20
8063.665184317265
 30
0.0
 11
5066.896575106966
 21
8059.665184317314
 31
0.0
  0
DIMENSION
  5
19175
330
747D
100
AcDbEntity
  8
寸法
 48
50.0
100
AcDbDimension
  2
*D48
 10
6332.896575106967
 20
7440.338266729283
 30
0.0
 11
5726.250529222904
 21
7440.338266729283
 31
0.0
 70
   160
  1
有効開口部間口\P<>
 71
     5
 42
1266.0
  3
INABA_S40G
100
AcDbAlignedDimension
 13
5066.896575106966
 23
8054.665184317265
 33
0.0
 14
6332.896575106967
 24
8054.665184317265
 34
0.0
100
AcDbRotatedDimension
1001
ACAD
1000
DSTYLE
1002
{
1070
   341
1005
0
1002
}
  0
LINE
  5
19176
330
747D
100
AcDbEntity
  8
部品1
100
AcDbLine
 10
7154.896575106966
 20
8131.665184317267
 30
0.0
 11
7181.896575106967
 21
8131.665184317267
 31
0.0
  0
LINE
  5
19178
330
747D
100
AcDbEntity
  8
部品1
100
AcDbLine
 10
7181.896575106967
 20
8054.665184317265
 30
0.0
 11
7181.896575106967
 21
8131.665184317267
 31
0.0
  0
LINE
  5
19179
330
747D
100
AcDbEntity
  8
部品1
100
AcDbLine
 10
7142.896575106966
 20
8127.665184317265
 30
0.0
 11
7154.896575106966
 21
8127.665184317265
 31
0.0
  0
LINE
  5
1917A
330
747D
100
AcDbEntity
  8
部品1
100
AcDbLine
 10
7151.896575106967
 20
8063.665184317265
 30
0.0
 11
7151.896575106967
 21
8054.665184317265
 31
0.0
  0
LINE
  5
1917B
330
747D
100
AcDbEntity
  8
部品1
100
AcDbLine
 10
7142.896575106966
 20
8063.665184317265
 30
0.0
 11
7151.896575106967
 21
8063.665184317265
 31
0.0
  0
LINE
  5
1917C
330
747D
100
AcDbEntity
  8
部品1
100
AcDbLine
 10
7142.896575106966
 20
8127.665184317265
 30
0.0
 11
7142.896575106966
 21
8063.665184317265
 31
0.0
  0
LINE
  5
1917D
330
747D
100
AcDbEntity
  8
部品1
100
AcDbLine
 10
7154.896575106966
 20
8158.665184317266
 30
0.0
 11
7154.896575106966
 21
8127.665184317265
 31
0.0
  0
LINE
  5
1917E
330
747D
100
AcDbEntity
  8
部品1
100
AcDbLine
 10
5066.896575106966
 20
8127.665184317265
 30
0.0
 11
5054.896575106966
 21
8127.665184317265
 31
0.0
  0
LINE
  5
1917F
330
747D
100
AcDbEntity
  8
部品1
100
AcDbLine
 10
5027.896575106966
 20
8131.665184317267
 30
0.0
 11
5054.896575106965
 21
8131.665184317267
 31
0.0
  0
LINE
  5
19180
330
747D
100
AcDbEntity
  8
部品1
100
AcDbLine
 10
5057.896575106966
 20
8063.665184317265
 30
0.0
 11
5057.896575106966
 21
8054.665184317265
 31
0.0
  0
LINE
  5
19181
330
747D
100
AcDbEntity
  8
部品1
100
AcDbLine
 10
5066.896575106966
 20
8063.665184317265
 30
0.0
 11
5057.896575106966
 21
8063.665184317265
 31
0.0
  0
LINE
  5
19182
330
747D
100
AcDbEntity
  8
部品1
100
AcDbLine
 10
5057.896575106966
 20
8054.665184317265
 30
0.0
 11
5027.896575106966
 21
8054.665184317265
 31
0.0
  0
LINE
  5
19183
330
747D
100
AcDbEntity
  8
部品1
100
AcDbLine
 10
5027.896575106966
 20
8054.665184317265
 30
0.0
 11
5027.896575106966
 21
8131.665184317267
 31
0.0
  0
LINE
  5
19184
330
747D
100
AcDbEntity
  8
部品1
100
AcDbLine
 10
5066.896575106966
 20
8127.665184317265
 30
0.0
 11
5066.896575106966
 21
8063.665184317265
 31
0.0
  0
LINE
  5
19185
330
747D
100
AcDbEntity
  8
部品1
100
AcDbLine
 10
5054.896575106965
 20
8158.665184317262
 30
0.0
 11
5054.896575106966
 21
8127.665184317265
 31
0.0
  0
LINE
  5
19186
330
747D
100
AcDbEntity
  8
部品1
100
AcDbLine
 10
5054.896575106965
 20
8158.665184317262
 30
0.0
 11
7154.896575106966
 21
8158.665184317266
 31
0.0
  0
LINE
  5
19187
330
747D
100
AcDbEntity
  8
部品1
100
AcDbLine
 10
7151.896575106967
 20
8054.665184317265
 30
0.0
 11
7181.896575106967
 21
8054.665184317265
 31
0.0
  0
LINE
  5
19188
330
747D
100
AcDbEntity
  8
部品1
100
AcDbLine
 10
5057.896575106966
 20
8054.665184317265
 30
0.0
 11
7154.896575106966
 21
8054.665184317265
 31
0.0
  0
LINE
  5
19189
330
747D
100
AcDbEntity
  8
細線
  6
Continuous
 62
     5
100
AcDbLine
 10
6433.89657510697
 20
8093.665184317263
 30
0.0
 11
6433.89657510697
 21
8093.665184317263
 31
0.0
  0
LINE
  5
1918A
330
747D
100
AcDbEntity
  8
細線
  6
Continuous
 62
     5
100
AcDbLine
 10
6426.396610425861
 20
8093.665194238319
 30
0.0
 11
6426.396610425861
 21
8093.665194238319
 31
0.0
  0
LINE
  5
1918B
330
747D
100
AcDbEntity
  8
細線
  6
Continuous
 62
     5
100
AcDbLine
 10
6420.396610425861
 20
8093.665194238319
 30
0.0
 11
6420.396610425861
 21
8093.665194238319
 31
0.0
  0
LINE
  5
1918C
330
747D
100
AcDbEntity
  8
細線
  6
Continuous
 62
     5
100
AcDbLine
 10
6487.89657510697
 20
8112.665184317263
 30
0.0
 11
6487.89657510697
 21
8112.665184317263
 31
0.0
  0
LINE
  5
1918D
330
747D
100
AcDbEntity
  8
細線
 48
50.0
100
AcDbLine
 10
5080.896579760559
 20
8080.265358494221
 30
0.0
 11
5080.896579760559
 21
8088.661508901861
 31
0.0
  0
LINE
  5
1918E
330
747D
100
AcDbEntity
  8
細線
 48
50.0
100
AcDbLine
 10
5080.896579760559
 20
8088.661508901861
 30
0.0
 11
5066.896575106966
 21
8088.661508901855
 31
0.0
  0
LINE
  5
1918F
330
747D
100
AcDbEntity
  8
細線
 48
50.0
100
AcDbLine
 10
5831.896579760556
 20
8076.81535849422
 30
0.0
 11
5831.896579760556
 21
8081.665358494221
 31
0.0
  0
LINE
  5
19190
330
747D
100
AcDbEntity
  8
細線
 48
50.0
100
AcDbLine
 10
5831.896579760556
 20
8081.665358494221
 30
0.0
 11
5846.896579760556
 21
8081.665358494221
 31
0.0
  0
LINE
  5
19191
330
747D
100
AcDbEntity
  8
細線
 48
50.0
100
AcDbLine
 10
5846.896579760556
 20
8081.665358494221
 30
0.0
 11
5846.89657976056
 21
8088.665358494221
 31
0.0
  0
LINE
  5
19192
330
747D
100
AcDbEntity
  8
細線
 48
50.0
100
AcDbLine
 10
5846.89657976056
 20
8088.665358494221
 30
0.0
 11
5861.896579760556
 21
8088.665358494221
 31
0.0
  0
LINE
  5
19193
330
747D
100
AcDbEntity
  8
細線
 48
50.0
100
AcDbLine
 10
5861.896579760556
 20
8088.665358494221
 30
0.0
 11
5861.896579760556
 21
8059.665358494221
 31
0.0
  0
LINE
  5
19194
330
747D
100
AcDbEntity
  8
細線
 48
50.0
100
AcDbLine
 10
5057.896575106966
 20
8059.66269283769
 30
0.0
 11
5271.896579760556
 21
8059.665376047936
 31
0.0
  0
LINE
  5
19195
330
747D
100
AcDbEntity
  8
細線
 48
50.0
100
AcDbLine
 10
5761.896579760556
 20
8059.665358494221
 30
0.0
 11
5861.896579760556
 21
8059.665358494221
 31
0.0
  0
LINE
  5
19196
330
747D
100
AcDbEntity
  8
細線
 48
50.0
100
AcDbLine
 10
5481.896579760556
 20
8059.665358494221
 30
0.0
 11
5551.896579760556
 21
8059.665358494221
 31
0.0
  0
LINE
  5
19197
330
747D
100
AcDbEntity
  8
細線
 48
50.0
100
AcDbLine
 10
5494.758544773085
 20
8059.665358494221
 30
0.0
 11
5500.514062355753
 21
8077.936209784715
 31
0.0
  0
LINE
  5
19198
330
747D
100
AcDbEntity
  8
細線
 48
50.0
100
AcDbLine
 10
5500.514062355753
 20
8077.936209784715
 30
0.0
 11
5511.442510836186
 21
8077.936209784711
 31
0.0
  0
ARC
  5
19199
330
747D
100
AcDbEntity
  8
細線
 48
50.0
100
AcDbCircle
 10
5511.442510836186
 20
8076.936209784712
 30
0.0
 40
1.0
100
AcDbArc
 50
24.62431835212777
 51
90.0
  0
ARC
  5
1919A
330
747D
100
AcDbEntity
  8
細線
 48
50.0
100
AcDbCircle
 10
5522.35122295082
 20
8076.936209784712
 30
0.0
 40
1.0
100
AcDbArc
 50
90.0
 51
155.3756816478722
  0
ARC
  5
1919B
330
747D
100
AcDbEntity
  8
細線
 48
50.0
100
AcDbCircle
 10
5516.896866893501
 20
8079.436209784711
 30
0.0
 40
5.0
100
AcDbArc
 50
204.6243183521277
 51
335.3756816478722
  0
LINE
  5
1919C
330
747D
100
AcDbEntity
  8
細線
 48
50.0
100
AcDbLine
 10
5522.35122295082
 20
8077.936209784711
 30
0.0
 11
5533.279671431253
 21
8077.936209784715
 31
0.0
  0
LINE
  5
1919D
330
747D
100
AcDbEntity
  8
細線
 48
50.0
100
AcDbLine
 10
5533.279671431253
 20
8077.936209784715
 30
0.0
 11
5539.035189013921
 21
8059.665358494221
 31
0.0
  0
LINE
  5
1919E
330
747D
100
AcDbEntity
  8
細線
 48
50.0
100
AcDbLine
 10
5831.896579760556
 20
8080.265358494221
 30
0.0
 11
5080.896579760559
 21
8080.265358494221
 31
0.0
  0
LINE
  5
1919F
330
747D
100
AcDbEntity
  8
細線
 48
50.0
100
AcDbLine
 10
5691.896579760555
 20
8059.665358494221
 30
0.0
 11
5621.896579760556
 21
8059.665358494221
 31
0.0
  0
LINE
  5
191A0
330
747D
100
AcDbEntity
  8
細線
100
AcDbLine
 10
5411.896579760556
 20
8059.665358494221
 30
0.0
 11
5341.896587945972
 21
8059.665358494221
 31
0.0
  0
LINE
  5
191A1
330
747D
100
AcDbEntity
  8
細線
 48
50.0
100
AcDbLine
 10
6485.89657045338
 20
8114.265402352087
 30
0.0
 11
5850.896579760556
 21
8114.265402352085
 31
0.0
  0
LINE
  5
191A2
330
747D
100
AcDbEntity
  8
細線
 48
50.0
100
AcDbLine
 10
5850.896579760556
 20
8111.161552759728
 30
0.0
 11
5850.896579760556
 21
8115.661552759728
 31
0.0
  0
LINE
  5
191A3
330
747D
100
AcDbEntity
  8
細線
 48
50.0
100
AcDbLine
 10
5850.896579760556
 20
8115.661552759728
 30
0.0
 11
5835.896579760556
 21
8115.661552759728
 31
0.0
  0
LINE
  5
191A4
330
747D
100
AcDbEntity
  8
細線
 48
50.0
100
AcDbLine
 10
5835.896579760556
 20
8115.661552759728
 30
0.0
 11
5835.896579760556
 21
8122.661552759728
 31
0.0
  0
LINE
  5
191A5
330
747D
100
AcDbEntity
  8
細線
 48
50.0
100
AcDbLine
 10
5835.896579760556
 20
8122.661552759728
 30
0.0
 11
5820.89657976056
 21
8122.661552759725
 31
0.0
  0
LINE
  5
191A6
330
747D
100
AcDbEntity
  8
細線
 48
50.0
100
AcDbLine
 10
5820.89657976056
 20
8122.661552759725
 30
0.0
 11
5820.89657976056
 21
8085.061324656614
 31
0.0
  0
LINE
  5
191A7
330
747D
100
AcDbEntity
  8
細線
 48
50.0
100
AcDbLine
 10
5820.89657976056
 20
8085.061324656614
 30
0.0
 11
5840.896587061732
 21
8085.061366206154
 31
0.0
  0
LINE
  5
191A8
330
747D
100
AcDbEntity
  8
細線
 48
50.0
100
AcDbLine
 10
5840.89654219279
 20
8093.664827841964
 30
0.0
 11
5840.896587061732
 21
8085.061366206154
 31
0.0
  0
LINE
  5
191A9
330
747D
100
AcDbEntity
  8
細線
 48
50.0
100
AcDbLine
 10
6485.89657045338
 20
8110.815402352088
 30
0.0
 11
6485.89657045338
 21
8115.665402352085
 31
0.0
  0
LINE
  5
191AA
330
747D
100
AcDbEntity
  8
細線
 48
50.0
100
AcDbLine
 10
6485.89657045338
 20
8115.665402352085
 30
0.0
 11
6500.896570453376
 21
8115.665402352085
 31
0.0
  0
LINE
  5
191AB
330
747D
100
AcDbEntity
  8
細線
 48
50.0
100
AcDbLine
 10
6500.896570453376
 20
8115.665402352085
 30
0.0
 11
6500.896582087353
 21
8122.665402352129
 31
0.0
  0
LINE
  5
191AC
330
747D
100
AcDbEntity
  8
細線
 48
50.0
100
AcDbLine
 10
6500.896582087353
 20
8122.665402352129
 30
0.0
 11
6515.896580257882
 21
8122.665402352129
 31
0.0
  0
LINE
  5
191AD
330
747D
100
AcDbEntity
  8
細線
 48
50.0
100
AcDbLine
 10
6515.896580257882
 20
8122.665402352129
 30
0.0
 11
6515.896569956061
 21
8093.665196179856
 31
0.0
  0
LINE
  5
191AE
330
747D
100
AcDbEntity
  8
細線
 48
50.0
100
AcDbLine
 10
6203.396597586845
 20
8093.665204367223
 30
0.0
 11
6133.396849669261
 21
8093.665198929885
 31
0.0
  0
LINE
  5
191AF
330
747D
100
AcDbEntity
  8
細線
 48
50.0
100
AcDbLine
 10
5840.89654219279
 20
8093.664827841964
 30
0.0
 11
5852.1292315475
 21
8093.66501079511
 31
0.0
  0
ARC
  5
191B0
330
747D
100
AcDbEntity
  8
細線
 48
50.0
100
AcDbCircle
 10
5858.711523854836
 20
8092.465174708722
 30
0.0
 40
1.8
100
AcDbArc
 50
270.0006665777295
 51
345.0005554812987
  0
LINE
  5
191B1
330
747D
100
AcDbEntity
  8
細線
 48
50.0
100
AcDbLine
 10
5860.697957300915
 20
8092.924015166001
 30
0.0
 11
5860.450194858717
 21
8091.999317283896
 31
0.0
  0
LINE
  5
191B2
330
747D
100
AcDbEntity
  8
細線
 48
50.0
100
AcDbLine
 10
5858.711544795991
 20
8090.665174708844
 30
0.0
 11
5855.081617377222
 21
8090.665132478363
 31
0.0
  0
ARC
  5
191B3
330
747D
100
AcDbEntity
  8
細線
 48
50.0
100
AcDbCircle
 10
5855.08159643607
 20
8092.465132478244
 30
0.0
 40
1.8
100
AcDbArc
 50
195.0010443049445
 51
270.0006665777295
  0
LINE
  5
191B4
330
747D
100
AcDbEntity
  8
細線
 48
50.0
100
AcDbLine
 10
5853.095168943812
 20
8092.923847445808
 30
0.0
 11
5853.342938440324
 21
8091.999226507224
 31
0.0
  0
ARC
  5
191B5
330
747D
100
AcDbEntity
  8
細線
 48
50.0
100
AcDbCircle
 10
5852.129247835062
 20
8092.665010795245
 30
0.0
 40
1.0
100
AcDbArc
 50
15.00104430494449
 51
90.00093320877969
  0
LINE
  5
191B6
330
747D
100
AcDbEntity
  8
細線
 48
50.0
100
AcDbLine
 10
5861.663878656018
 20
8093.665205485514
 30
0.0
 11
5862.605638806923
 21
8093.665212059365
 31
0.0
  0
ARC
  5
191B7
330
747D
100
AcDbEntity
  8
細線
 48
50.0
100
AcDbCircle
 10
5861.663885636404
 20
8092.665205485541
 30
0.0
 40
1.0
100
AcDbArc
 50
90.0003999466794
 51
165.0005554812987
  0
LINE
  5
191B8
330
747D
100
AcDbEntity
  8
細線
 48
50.0
100
AcDbLine
 10
6413.396570453369
 20
8093.665196179856
 30
0.0
 11
6515.896569956061
 21
8093.665196179856
 31
0.0
  0
LINE
  5
191B9
330
747D
100
AcDbEntity
  8
細線
 48
50.0
100
AcDbLine
 10
5923.396605772261
 20
8093.665204367223
 30
0.0
 11
5862.29654454534
 21
8093.665212059365
 31
0.0
  0
LINE
  5
191BA
330
747D
100
AcDbEntity
  8
細線
 48
50.0
100
AcDbLine
 10
6343.396605772261
 20
8093.665241208306
 30
0.0
 11
6273.396598817875
 21
8093.665196185638
 31
0.0
  0
LINE
  5
191BB
330
747D
100
AcDbEntity
  8
細線
 48
50.0
100
AcDbLine
 10
6063.396570453369
 20
8093.665196179854
 30
0.0
 11
5993.396553165494
 21
8093.665196179861
 31
0.0
  0
ARC
  5
191BC
330
747D
100
AcDbEntity
  8
細線
 48
50.0
100
AcDbCircle
 10
6500.096575106979
 20
8126.865184317265
 30
0.0
 40
0.8
100
AcDbArc
 50
359.9997333689499
 51
89.99986668437072
  0
ARC
  5
191BD
330
747D
100
AcDbEntity
  8
細線
 48
50.0
100
AcDbCircle
 10
6507.696581932072
 20
8126.865195485883
 30
0.0
 40
0.8
100
AcDbArc
 50
90.00014387753465
 51
179.9997333689498
  0
LINE
  5
191BE
330
747D
100
AcDbEntity
  8
細線
 48
50.0
100
AcDbLine
 10
6500.096576968411
 20
8127.665184317265
 30
0.0
 11
6494.896575106967
 21
8127.665184317265
 31
0.0
  0
ARC
  5
191BF
330
747D
100
AcDbEntity
  8
細線
 48
50.0
100
AcDbCircle
 10
6501.596575106967
 20
8125.365184317265
 30
0.0
 40
0.7
100
AcDbArc
 50
180.0
 51
270.0
  0
ARC
  5
191C0
330
747D
100
AcDbEntity
  8
細線
 48
50.0
100
AcDbCircle
 10
6506.196575106969
 20
8125.365184317265
 30
0.0
 40
0.7
100
AcDbArc
 50
270.0
 51
0.0
  0
LINE
  5
191C1
330
747D
100
AcDbEntity
  8
細線
 48
50.0
100
AcDbLine
 10
6506.896575106967
 20
8125.365184317265
 30
0.0
 11
6506.896581932084
 21
8126.865199208754
 31
0.0
  0
LINE
  5
191C2
330
747D
100
AcDbEntity
  8
細線
 48
50.0
100
AcDbLine
 10
6501.596575106967
 20
8124.665184317265
 30
0.0
 11
6506.196575106969
 21
8124.665184317265
 31
0.0
  0
LINE
  5
191C3
330
747D
100
AcDbEntity
  8
細線
 48
50.0
100
AcDbLine
 10
6500.896575106967
 20
8126.865184317265
 30
0.0
 11
6500.896575106967
 21
8125.365184317265
 31
0.0
  0
LINE
  5
191C4
330
747D
100
AcDbEntity
  8
細線
 48
50.0
100
AcDbLine
 10
7126.496575106973
 20
8157.665184317265
 30
0.0
 11
6489.896575106967
 21
8157.665184317263
 31
0.0
  0
LINE
  5
191C5
330
747D
100
AcDbEntity
  8
細線
 48
50.0
100
AcDbLine
 10
7152.396575106966
 20
8152.665184317269
 30
0.0
 11
7136.496575106971
 21
8152.665184317266
 31
0.0
  0
LINE
  5
191C6
330
747D
100
AcDbEntity
  8
細線
 48
50.0
100
AcDbLine
 10
7136.496575106969
 20
8152.665184317266
 30
0.0
 11
7126.496575106973
 21
8157.665184317265
 31
0.0
  0
LINE
  5
191C7
330
747D
100
AcDbEntity
  8
細線
100
AcDbLine
 10
6737.396575106967
 20
8127.665184317265
 30
0.0
 11
6737.396575106967
 21
8156.965184317265
 31
0.0
  0
LINE
  5
191C8
330
747D
100
AcDbEntity
  8
細線
100
AcDbLine
 10
6737.396575106967
 20
8156.965184317265
 30
0.0
 11
6757.396575106968
 21
8156.965184317265
 31
0.0
  0
LINE
  5
191C9
330
747D
100
AcDbEntity
  8
細線
100
AcDbLine
 10
6757.396575106968
 20
8127.665184317265
 30
0.0
 11
6757.396575106968
 21
8156.965184317265
 31
0.0
  0
LINE
  5
191CA
330
747D
100
AcDbEntity
  8
細線
100
AcDbLine
 10
6918.646575106968
 20
8127.665184317265
 30
0.0
 11
6848.646575106967
 21
8127.665184317265
 31
0.0
  0
LINE
  5
191CB
330
747D
100
AcDbEntity
  8
細線
 48
50.0
100
AcDbLine
 10
6638.646575106966
 20
8127.665184317265
 30
0.0
 11
6507.69235467981
 21
8127.665184317265
 31
0.0
  0
LINE
  5
191CC
330
747D
100
AcDbEntity
  8
細線
100
AcDbLine
 10
6778.646575106967
 20
8127.665184317265
 30
0.0
 11
6708.646575106967
 21
8127.665184317265
 31
0.0
  0
LINE
  5
191CD
330
747D
100
AcDbEntity
  8
細線
 48
50.0
100
AcDbLine
 10
6494.896575106967
 20
8119.665184317266
 30
0.0
 11
6494.896575106967
 21
8127.665184317265
 31
0.0
  0
LINE
  5
191CE
330
747D
100
AcDbEntity
  8
細線
 48
50.0
100
AcDbLine
 10
6474.896575106966
 20
8119.66518431727
 30
0.0
 11
6494.896575106967
 21
8119.665184317266
 31
0.0
  0
LINE
  5
191CF
330
747D
100
AcDbEntity
  8
細線
 48
50.0
100
AcDbLine
 10
6489.896575106967
 20
8157.665184317265
 30
0.0
 11
6489.896575106967
 21
8152.665184317266
 31
0.0
  0
LINE
  5
191D0
330
747D
100
AcDbEntity
  8
細線
 48
50.0
100
AcDbLine
 10
6474.896575106966
 20
8157.665184317263
 30
0.0
 11
6489.896575106967
 21
8157.665184317265
 31
0.0
  0
LINE
  5
191D1
330
747D
100
AcDbEntity
  8
細線
 48
50.0
100
AcDbLine
 10
6474.896575106966
 20
8119.66518431727
 30
0.0
 11
6474.896575106966
 21
8157.665184317263
 31
0.0
  0
LINE
  5
191D2
330
747D
100
AcDbEntity
  8
細線
100
AcDbLine
 10
7142.896575106966
 20
8127.665184317265
 30
0.0
 11
6988.646575106968
 21
8127.665184317265
 31
0.0
  0
LINE
  5
191D3
330
747D
100
AcDbEntity
  8
細線
 48
50.0
100
AcDbLine
 10
7152.396575106966
 20
8152.665184317269
 30
0.0
 11
7152.396575106966
 21
8127.665184317265
 31
0.0
  0
DIMENSION
  5
19451
330
747D
100
AcDbEntity
  8
寸法
100
AcDbDimension
  2
*D49
 10
4819.28260743226
 20
8056.665184317234
 30
0.0
 11
4819.282607432258
 21
7910.493410369548
 31
0.0
 70
   160
 71
     5
 42
75.00000000003274
  3
INABA_S40
100
AcDbAlignedDimension
 13
5027.896575106966
 23
8131.665184317267
 33
0.0
 14
5027.896575106964
 24
8056.665184317234
 34
0.0
 50
90.0
100
AcDbRotatedDimension
1001
ACAD
1000
DSTYLE
1002
{
1070
    41
1040
0.5
1070
    44
1040
1.0
1070
   147
1040
0.8
1070
   271
1070
     2
1070
   272
1070
     2
1070
   289
1070
     3
1070
   340
1005
F706
1070
   343
1005
164B4
1070
   344
1005
164B4
1002
}
  0
DIMENSION
  5
19452
330
747D
100
AcDbEntity
  8
寸法
 48
50.0
100
AcDbDimension
  2
*D50
 10
7181.896575106967
 20
7134.535468889497
 30
0.0
 11
6127.029331854279
 21
7134.535468889497
 31
0.0
 70
   160
 71
     5
 42
2154.0
  3
INABA_S40G
100
AcDbAlignedDimension
 13
5027.896575106966
 23
8054.665184317265
 33
0.0
 14
7181.896575106967
 24
8054.665184317265
 34
0.0
100
AcDbRotatedDimension
1001
ACAD
1000
DSTYLE
1002
{
1070
   341
1005
0
1002
}
  0
LWPOLYLINE
  5
198C1
330
747D
100
AcDbEntity
  8
部品1
 48
50.0
100
AcDbPolyline
 90
        4
 70
     1
 43
0.0
 10
5126.946575106991
 20
3840.824105358053
 10
5129.846575106992
 20
3840.824105358053
 10
5129.846575106992
 20
3850.324105358053
 10
5126.946575106991
 20
3850.324105358053
  0
CIRCLE
  5
198C2
330
747D
100
AcDbEntity
  8
部品1
 48
50.0
100
AcDbCircle
 10
5128.396575106992
 20
3845.574105358053
 30
0.0
 40
9.0
  0
ARC
  5
198C3
330
747D
100
AcDbEntity
  8
細線
 48
50.0
100
AcDbCircle
 10
5128.396575106992
 20
3845.574105358053
 30
0.0
 40
4.0
100
AcDbArc
 50
111.2538091853132
 51
248.7461908146868
  0
ARC
  5
198C4
330
747D
100
AcDbEntity
  8
細線
 48
50.0
100
AcDbCircle
 10
5128.396575106992
 20
3845.574105358053
 30
0.0
 40
17.5
100
AcDbArc
 50
306.4837370612677
 51
233.5162629387323
  0
LINE
  5
198C5
330
747D
100
AcDbEntity
  8
細線
 48
50.0
100
AcDbLine
 10
5138.396575106987
 20
3821.715144777171
 30
0.0
 11
5138.396575106992
 21
3830.699630577412
 31
0.0
  0
LINE
  5
198C6
330
747D
100
AcDbEntity
  8
細線
 48
50.0
100
AcDbLine
 10
5118.396575106991
 20
3821.715144777172
 30
0.0
 11
5118.396575106991
 21
3830.699630577409
 31
0.0
  0
ARC
  5
198C7
330
747D
100
AcDbEntity
  8
細線
 48
50.0
100
AcDbCircle
 10
5128.396575106992
 20
3845.574105358053
 30
0.0
 40
26.5
100
AcDbArc
 50
249.3326835063939
 51
290.6673164933835
  0
ARC
  5
198C8
330
747D
100
AcDbEntity
  8
細線
 48
50.0
100
AcDbCircle
 10
5137.396575106984
 20
3821.715144777171
 30
0.0
 40
1.0
100
AcDbArc
 50
290.6673164936062
 51
359.9999999998958
  0
ARC
  5
198C9
330
747D
100
AcDbEntity
  8
細線
 48
50.0
100
AcDbCircle
 10
5119.396575106992
 20
3821.715144777172
 30
0.0
 40
1.0
100
AcDbArc
 50
180.0
 51
249.3326835066164
  0
ARC
  5
198CA
330
747D
100
AcDbEntity
  8
細線
 48
50.0
100
AcDbCircle
 10
5117.396575106992
 20
3830.699630577409
 30
0.0
 40
1.0
100
AcDbArc
 50
0.0
 51
53.51626293873231
  0
ARC
  5
198CB
330
747D
100
AcDbEntity
  8
細線
 48
50.0
100
AcDbCircle
 10
5139.396575106996
 20
3830.699630577412
 30
0.0
 40
1.0
100
AcDbArc
 50
126.4837370615127
 51
180.0
  0
ARC
  5
198CC
330
747D
100
AcDbEntity
  8
細線
 48
50.0
100
AcDbCircle
 10
5128.396575106992
 20
3845.574105358053
 30
0.0
 40
21.5
100
AcDbArc
 50
255.8014401250294
 51
284.1985598749706
  0
ARC
  5
198CD
330
747D
100
AcDbEntity
  8
細線
 48
50.0
100
AcDbCircle
 10
5128.396575106992
 20
3845.574105358053
 30
0.0
 40
16.5
100
AcDbArc
 50
251.9694646069326
 51
288.0305353930674
  0
LINE
  5
198CE
330
747D
100
AcDbEntity
  8
細線
 48
50.0
100
AcDbLine
 10
5133.896575106992
 20
3825.021733232246
 30
0.0
 11
5133.896575106992
 21
3829.599124919583
 31
0.0
  0
LINE
  5
198CF
330
747D
100
AcDbEntity
  8
細線
 48
50.0
100
AcDbLine
 10
5122.896575106992
 20
3825.021733232246
 30
0.0
 11
5122.896575106992
 21
3829.599124919582
 31
0.0
  0
ARC
  5
198D0
330
747D
100
AcDbEntity
  8
細線
 48
50.0
100
AcDbCircle
 10
5123.196575106994
 20
3829.599124919582
 30
0.0
 40
0.3
100
AcDbArc
 50
71.96946460693259
 51
180.0
  0
ARC
  5
198D1
330
747D
100
AcDbEntity
  8
細線
 48
50.0
100
AcDbCircle
 10
5133.596575106992
 20
3829.599124919583
 30
0.0
 40
0.3
100
AcDbArc
 50
0.0
 51
108.0305353930674
  0
ARC
  5
198D2
330
747D
100
AcDbEntity
  8
細線
 48
50.0
100
AcDbCircle
 10
5133.596575106989
 20
3825.021733232246
 30
0.0
 40
0.3
100
AcDbArc
 50
284.1985598747622
 51
0.0000000001042204
  0
ARC
  5
198D3
330
747D
100
AcDbEntity
  8
細線
 48
50.0
100
AcDbCircle
 10
5123.196575106994
 20
3825.021733232246
 30
0.0
 40
0.3
100
AcDbArc
 50
180.0
 51
255.8014401248081
  0
CIRCLE
  5
198D4
330
747D
100
AcDbEntity
  8
細線
 48
50.0
100
AcDbCircle
 10
5128.396575106992
 20
3845.574105358053
 30
0.0
 40
12.0
  0
ARC
  5
198D5
330
747D
100
AcDbEntity
  8
部品1
 48
50.0
100
AcDbCircle
 10
5128.396575106992
 20
3895.574105358053
 30
0.0
 40
8.5
100
AcDbArc
 50
114.315739171091
 51
245.684260828909
  0
CIRCLE
  5
198D6
330
747D
100
AcDbEntity
  8
細線
 48
50.0
100
AcDbCircle
 10
5128.396575106992
 20
3895.574105358053
 30
0.0
 40
4.5
  0
LWPOLYLINE
  5
198D7
330
747D
100
AcDbEntity
  8
部品1
 48
50.0
100
AcDbPolyline
 90
        2
 70
     0
 43
0.0
 10
5124.896575106991
 20
3914.248954755036
 10
5124.896575106991
 20
3903.320072050468
  0
CIRCLE
  5
198D8
330
747D
100
AcDbEntity
  8
部品1
 48
50.0
100
AcDbCircle
 10
5128.396575106992
 20
3895.574105358053
 30
0.0
 40
19.0
  0
LWPOLYLINE
  5
198D9
330
747D
100
AcDbEntity
  8
部品1
 48
50.0
100
AcDbPolyline
 90
        2
 70
     0
 43
0.0
 10
5124.896575106991
 20
3887.828138665638
 10
5124.896575106991
 20
3876.899255961071
  0
LWPOLYLINE
  5
198DA
330
747D
100
AcDbEntity
  8
部品1
 48
50.0
100
AcDbPolyline
 90
        2
 70
     0
 43
0.0
 10
5131.896575106992
 20
3903.320072050468
 10
5131.896575106992
 20
3914.248954755036
  0
ARC
  5
198DB
330
747D
100
AcDbEntity
  8
部品1
 48
50.0
100
AcDbCircle
 10
5128.396575106992
 20
3895.574105358053
 30
0.0
 40
8.5
100
AcDbArc
 50
294.315739171091
 51
65.68426082890896
  0
LWPOLYLINE
  5
198DC
330
747D
100
AcDbEntity
  8
部品1
 48
50.0
100
AcDbPolyline
 90
        2
 70
     0
 43
0.0
 10
5131.896575106992
 20
3876.899255961071
 10
5131.896575106992
 20
3887.828138665638
  0
ARC
  5
198DD
330
747D
100
AcDbEntity
  8
細線
 48
50.0
100
AcDbCircle
 10
5128.396575106992
 20
3895.574105358053
 30
0.0
 40
16.5
100
AcDbArc
 50
332.0012352654438
 51
27.99876473455621
  0
ARC
  5
198DE
330
747D
100
AcDbEntity
  8
細線
 48
50.0
100
AcDbCircle
 10
5128.396575106992
 20
3895.574105358053
 30
0.0
 40
14.0
100
AcDbArc
 50
326.4074436112986
 51
33.59255638870134
  0
LINE
  5
198DF
330
747D
100
AcDbEntity
  8
細線
 48
50.0
100
AcDbLine
 10
5113.82777282266
 20
3903.320072050468
 30
0.0
 11
5116.734671317303
 21
3903.320072050468
 31
0.0
  0
LINE
  5
198E0
330
747D
100
AcDbEntity
  8
細線
 48
50.0
100
AcDbLine
 10
5113.82777282266
 20
3887.828138665638
 30
0.0
 11
5116.734671317303
 21
3887.828138665638
 31
0.0
  0
LINE
  5
198E1
330
747D
100
AcDbEntity
  8
細線
 48
50.0
100
AcDbLine
 10
5140.058478896681
 20
3903.320072050468
 30
0.0
 11
5142.965377391327
 21
3903.320072050468
 31
0.0
  0
LINE
  5
198E2
330
747D
100
AcDbEntity
  8
細線
 48
50.0
100
AcDbLine
 10
5140.058478896681
 20
3887.828138665638
 30
0.0
 11
5142.965377391327
 21
3887.828138665638
 31
0.0
  0
ARC
  5
198E3
330
747D
100
AcDbEntity
  8
細線
 48
50.0
100
AcDbCircle
 10
5128.396575106992
 20
3895.574105358053
 30
0.0
 40
14.0
100
AcDbArc
 50
146.4074436112986
 51
213.5925563887013
  0
ARC
  5
198E4
330
747D
100
AcDbEntity
  8
細線
 48
50.0
100
AcDbCircle
 10
5128.396575106992
 20
3895.574105358053
 30
0.0
 40
16.5
100
AcDbArc
 50
152.0012352654438
 51
207.9987647345562
  0
ARC
  5
198E5
330
747D
100
AcDbEntity
  8
部品1
 48
50.0
100
AcDbCircle
 10
5101.896575106992
 20
3921.074105358054
 30
0.0
 40
5.0
100
AcDbArc
 50
90.0
 51
180.0
  0
ARC
  5
198E6
330
747D
100
AcDbEntity
  8
部品1
 48
50.0
100
AcDbCircle
 10
5101.896575106992
 20
3810.074105358054
 30
0.0
 40
5.0
100
AcDbArc
 50
180.0
 51
270.0
  0
ARC
  5
198E7
330
747D
100
AcDbEntity
  8
部品1
 48
50.0
100
AcDbCircle
 10
5154.896575106992
 20
3810.074105358054
 30
0.0
 40
5.0
100
AcDbArc
 50
270.0
 51
0.0
  0
ARC
  5
198E8
330
747D
100
AcDbEntity
  8
部品1
 48
50.0
100
AcDbCircle
 10
5154.896575106992
 20
3921.074105358054
 30
0.0
 40
5.0
100
AcDbArc
 50
0.0
 51
90.0
  0
LINE
  5
198E9
330
747D
100
AcDbEntity
  8
部品1
 48
50.0
100
AcDbLine
 10
5096.896575106992
 20
3810.074105358054
 30
0.0
 11
5096.896575106992
 21
3921.074105358054
 31
0.0
  0
LINE
  5
198EA
330
747D
100
AcDbEntity
  8
部品1
 48
50.0
100
AcDbLine
 10
5154.896575106992
 20
3805.074105358053
 30
0.0
 11
5101.896575106992
 21
3805.074105358053
 31
0.0
  0
LINE
  5
198EB
330
747D
100
AcDbEntity
  8
部品1
 48
50.0
100
AcDbLine
 10
5159.896575106992
 20
3921.074105358054
 30
0.0
 11
5159.896575106992
 21
3810.074105358054
 31
0.0
  0
ENDSEC
  0
SECTION
  2
OBJECTS
  0
DICTIONARY
  5
7471
330
0
100
AcDbDictionary
281
     1
  3
ACAD_COLOR
350
173D2
  3
ACAD_GROUP
350
7472
  3
ACAD_LAYOUT
350
173D3
  3
ACAD_MATERIAL
350
173D1
  3
ACAD_MLINESTYLE
350
7473
  3
ACAD_PLOTSETTINGS
350
173D4
  3
ACAD_PLOTSTYLENAME
350
173CF
  3
ACDBHEADERROUNDTRIPXREC
350
198FA
  3
AcDbVariableDictionary
350
198F6
  3
CONTENTDICTIONARY
350
E71C
  3
DRAWINGVARIABLESDICT
350
F3B9
  0
DICTIONARY
  5
1758F
330
7467
100
AcDbDictionary
280
     1
281
     1
  3
ACAD_LAYERSTATES
360
17590
  0
DICTIONARY
  5
173D2
102
{ACAD_REACTORS
330
7471
102
}
330
7471
100
AcDbDictionary
281
     1
  0
DICTIONARY
  5
7472
102
{ACAD_REACTORS
330
7471
102
}
330
7471
100
AcDbDictionary
281
     1
  0
DICTIONARY
  5
173D3
102
{ACAD_REACTORS
330
7471
102
}
330
7471
100
AcDbDictionary
281
     1
  3
Model
350
173D5
  3
レイアウト1
350
173D6
  0
DICTIONARY
  5
173D1
102
{ACAD_REACTORS
330
7471
102
}
330
7471
100
AcDbDictionary
281
     1
  0
DICTIONARY
  5
7473
102
{ACAD_REACTORS
330
7471
102
}
330
7471
100
AcDbDictionary
281
     1
  3
STANDARD
350
7480
  0
DICTIONARY
  5
173D4
102
{ACAD_REACTORS
330
7471
102
}
330
7471
100
AcDbDictionary
281
     1
  0
ACDBDICTIONARYWDFLT
  5
173CF
102
{ACAD_REACTORS
330
7471
102
}
330
7471
100
AcDbDictionary
281
     1
  3
Normal
350
173D0
100
AcDbDictionaryWithDefault
340
173D0
  0
DICTIONARY
  5
198FA
102
{ACAD_REACTORS
330
7471
102
}
330
7471
100
AcDbDictionary
281
     1
  3
COLORDICT
350
198FC
  3
MATERIALDICT
350
198FB
  0
DICTIONARY
  5
198F6
102
{ACAD_REACTORS
330
7471
102
}
330
7471
100
AcDbDictionary
281
     1
  3
DIMASSOC
350
198F7
  3
PROJECTNAME
350
198F8
  0
DICTIONARY
  5
E71C
102
{ACAD_REACTORS
330
7471
102
}
330
7471
100
AcDbDictionary
281
     1
  0
DICTIONARY
  5
F3B9
102
{ACAD_REACTORS
330
7471
102
}
330
7471
100
AcDbDictionary
281
     1
1001
DRAWINGVARIABLESXDATA
1000
POLARMODE
1000
1
  0
DICTIONARY
  5
17590
102
{ACAD_REACTORS
330
1758F
102
}
330
1758F
100
AcDbDictionary
281
     1
  0
LAYOUT
  5
173D5
102
{ACAD_XDICTIONARY
360
198FD
102
}
102
{ACAD_REACTORS
330
173D3
102
}
330
173D3
100
AcDbPlotSettings
  1

  2
Microsoft Office Document Image Writer
  4

  6

 40
0.0
 41
0.0
 42
0.0
 43
0.0
 44
0.0
 45
0.0
 46
0.0
 47
0.0
 48
0.0
 49
0.0
140
0.0
141
0.0
142
1.0
143
1.0
 70
  1712
 72
     0
 73
     0
 74
     0
  7

 75
     0
147
1.0
148
0.0
149
0.0
100
AcDbLayout
  1
Model
 70
     1
 71
     0
 10
0.0
 20
0.0
 11
12.0
 21
9.0
 12
0.0
 22
0.0
 32
0.0
 14
0.0
 24
0.0
 34
0.0
 15
0.0
 25
0.0
 35
0.0
146
0.0
 13
0.0
 23
0.0
 33
0.0
 16
1.0
 26
0.0
 36
0.0
 17
0.0
 27
1.0
 37
0.0
 76
     0
330
747D
  0
LAYOUT
  5
173D6
102
{ACAD_XDICTIONARY
360
198FF
102
}
102
{ACAD_REACTORS
330
173D3
102
}
330
173D3
100
AcDbPlotSettings
  1

  2
Microsoft Office Document Image Writer
  4

  6

 40
0.0
 41
0.0
 42
0.0
 43
0.0
 44
0.0
 45
0.0
 46
0.0
 47
0.0
 48
0.0
 49
0.0
140
0.0
141
0.0
142
1.0
143
1.0
 70
   688
 72
     0
 73
     0
 74
     5
  7

 75
    16
147
1.0
148
0.0
149
0.0
100
AcDbLayout
  1
レイアウト1
 70
     0
 71
     1
 10
0.0
 20
0.0
 11
420.0
 21
297.0
 12
0.0
 22
0.0
 32
0.0
 14
1.000000000000000E+20
 24
1.000000000000000E+20
 34
1.000000000000000E+20
 15
-1.000000000000000E+20
 25
-1.000000000000000E+20
 35
-1.000000000000000E+20
146
0.0
 13
0.0
 23
0.0
 33
0.0
 16
1.0
 26
0.0
 36
0.0
 17
0.0
 27
1.0
 37
0.0
 76
     0
330
747A
  0
MLINESTYLE
  5
7480
102
{ACAD_REACTORS
330
7473
102
}
330
7473
100
AcDbMlineStyle
  2
STANDARD
 70
     0
  3

 62
     0
 51
90.0
 52
90.0
 71
     2
 49
0.5
 62
   256
  6
BYLAYER
 49
-0.5
 62
   256
  6
BYLAYER
  0
ACDBPLACEHOLDER
  5
173D0
102
{ACAD_REACTORS
330
173CF
102
}
330
173CF
  0
XRECORD
  5
198FC
102
{ACAD_REACTORS
330
198FA
102
}
330
198FA
100
AcDbXrecord
280
     1
340
173D2
  0
XRECORD
  5
198FB
102
{ACAD_REACTORS
330
198FA
102
}
330
198FA
100
AcDbXrecord
280
     1
340
173D1
  0
DICTIONARYVAR
  5
198F7
102
{ACAD_REACTORS
330
198F6
102
}
330
198F6
100
DictionaryVariables
280
     0
  1
1
  0
DICTIONARYVAR
  5
198F8
102
{ACAD_REACTORS
330
198F6
102
}
330
198F6
100
DictionaryVariables
280
     0
  1

  0
DICTIONARY
  5
198FD
330
173D5
100
AcDbDictionary
280
     1
281
     1
  3
ACAD_XREC_ROUNDTRIP
360
198FE
  0
DICTIONARY
  5
198FF
330
173D6
100
AcDbDictionary
280
     1
281
     1
  3
ACAD_XREC_ROUNDTRIP
360
19900
  0
XRECORD
  5
198FE
102
{ACAD_REACTORS
330
198FD
102
}
330
198FD
100
AcDbXrecord
280
     1
102
SHADEPLOT
 70
     0
102
SHADEPLOTRESLEVEL
 70
     2
102
SHADEPLOTCUSTOMDPI
 70
   300
  0
XRECORD
  5
19900
102
{ACAD_REACTORS
330
198FF
102
}
330
198FF
100
AcDbXrecord
280
     1
102
SHADEPLOT
 70
     0
102
SHADEPLOTRESLEVEL
 70
     2
102
SHADEPLOTCUSTOMDPI
 70
   300
  0
ENDSEC
  0
EOF
