  0
SECTION
  2
HEADER
  9
$ACADVER
  1
AC1015
  9
$ACADMAINTVER
 70
    20
  9
$DWGCODEPAGE
  3
ANSI_932
  9
$INSBASE
 10
0.0
 20
0.0
 30
0.0
  9
$EXTMIN
 10
139.9999999999995
 20
-0.0000000000000909
 30
0.0
  9
$EXTMAX
 10
16307.2
 20
11409.6
 30
0.0
  9
$LIMMIN
 10
0.0
 20
0.0
  9
$LIMMAX
 10
16800.0
 20
11880.0
  9
$ORTHOMODE
 70
     0
  9
$REGENMODE
 70
     1
  9
$FILLMODE
 70
     1
  9
$QTEXTMODE
 70
     0
  9
$MIRRTEXT
 70
     1
  9
$LTSCALE
 40
20.0
  9
$ATTMODE
 70
     1
  9
$TEXTSIZE
 40
4.0
  9
$TRACEWID
 40
1.0
  9
$TEXTSTYLE
  7
STYLE1
  9
$CLAYER
  8
部品1
  9
$CELTYPE
  6
BYLAYER
  9
$CECOLOR
 62
   256
  9
$CELTSCALE
 40
50.0
  9
$DISPSILH
 70
     0
  9
$DIMSCALE
 40
40.0
  9
$DIMASZ
 40
2.5
  9
$DIMEXO
 40
0.5
  9
$DIMDLI
 40
7.0
  9
$DIMRND
 40
0.0
  9
$DIMDLE
 40
0.0
  9
$DIMEXE
 40
1.5
  9
$DIMTP
 40
0.0
  9
$DIMTM
 40
0.0
  9
$DIMTXT
 40
3.0
  9
$DIMCEN
 40
0.0
  9
$DIMTSZ
 40
0.0
  9
$DIMTOL
 70
     0
  9
$DIMLIM
 70
     0
  9
$DIMTIH
 70
     0
  9
$DIMTOH
 70
     0
  9
$DIMSE1
 70
     0
  9
$DIMSE2
 70
     0
  9
$DIMTAD
 70
     3
  9
$DIMZIN
 70
     8
  9
$DIMBLK
  1

  9
$DIMASO
 70
     1
  9
$DIMSHO
 70
     1
  9
$DIMPOST
  1

  9
$DIMAPOST
  1

  9
$DIMALT
 70
     0
  9
$DIMALTD
 70
     2
  9
$DIMALTF
 40
0.0394
  9
$DIMLFAC
 40
1.0
  9
$DIMTOFL
 70
     1
  9
$DIMTVP
 40
0.0
  9
$DIMTIX
 70
     1
  9
$DIMSOXD
 70
     0
  9
$DIMSAH
 70
     1
  9
$DIMBLK1
  1
DOTSMALL
  9
$DIMBLK2
  1
DOTSMALL
  9
$DIMSTYLE
  2
INABA_S40G
  9
$DIMCLRD
 70
     0
  9
$DIMCLRE
 70
     0
  9
$DIMCLRT
 70
     7
  9
$DIMTFAC
 40
1.0
  9
$DIMGAP
 40
1.0
  9
$DIMJUST
 70
     0
  9
$DIMSD1
 70
     0
  9
$DIMSD2
 70
     0
  9
$DIMTOLJ
 70
     1
  9
$DIMTZIN
 70
     0
  9
$DIMALTZ
 70
     0
  9
$DIMALTTZ
 70
     0
  9
$DIMUPT
 70
     0
  9
$DIMDEC
 70
     1
  9
$DIMTDEC
 70
     4
  9
$DIMALTU
 70
     2
  9
$DIMALTTD
 70
     2
  9
$DIMTXSTY
  7
STYLE1
  9
$DIMAUNIT
 70
     0
  9
$DIMADEC
 70
     0
  9
$DIMALTRND
 40
0.0
  9
$DIMAZIN
 70
     0
  9
$DIMDSEP
 70
    46
  9
$DIMATFIT
 70
     3
  9
$DIMFRAC
 70
     0
  9
$DIMLDRBLK
  1

  9
$DIMLUNIT
 70
     2
  9
$DIMLWD
 70
    -2
  9
$DIMLWE
 70
    -2
  9
$DIMTMOVE
 70
     0
  9
$LUNITS
 70
     2
  9
$LUPREC
 70
     1
  9
$SKETCHINC
 40
1.0
  9
$FILLETRAD
 40
3.0
  9
$AUNITS
 70
     0
  9
$AUPREC
 70
     0
  9
$MENU
  1
acad
  9
$ELEVATION
 40
0.0
  9
$PELEVATION
 40
0.0
  9
$THICKNESS
 40
0.0
  9
$LIMCHECK
 70
     0
  9
$CHAMFERA
 40
0.0
  9
$CHAMFERB
 40
0.0
  9
$CHAMFERC
 40
0.0
  9
$CHAMFERD
 40
0.0
  9
$SKPOLY
 70
     0
  9
$TDCREATE
 40
2451368.612993866
  9
$TDUCREATE
 40
2451368.237993866
  9
$TDUPDATE
 40
2455575.686297373
  9
$TDUUPDATE
 40
2455575.311297373
  9
$TDINDWG
 40
0.6959151157
  9
$TDUSRTIMER
 40
0.6959151157
  9
$USRTIMER
 70
     1
  9
$ANGBASE
 50
0.0
  9
$ANGDIR
 70
     0
  9
$PDMODE
 70
     3
  9
$PDSIZE
 40
2.0
  9
$PLINEWID
 40
0.0
  9
$SPLFRAME
 70
     0
  9
$SPLINETYPE
 70
     6
  9
$SPLINESEGS
 70
     8
  9
$HANDSEED
  5
18D33
  9
$SURFTAB1
 70
     6
  9
$SURFTAB2
 70
     6
  9
$SURFTYPE
 70
     6
  9
$SURFU
 70
     6
  9
$SURFV
 70
     6
  9
$UCSBASE
  2

  9
$UCSNAME
  2

  9
$UCSORG
 10
0.0
 20
0.0
 30
0.0
  9
$UCSXDIR
 10
1.0
 20
0.0
 30
0.0
  9
$UCSYDIR
 10
0.0
 20
1.0
 30
0.0
  9
$UCSORTHOREF
  2

  9
$UCSORTHOVIEW
 70
     0
  9
$UCSORGTOP
 10
0.0
 20
0.0
 30
0.0
  9
$UCSORGBOTTOM
 10
0.0
 20
0.0
 30
0.0
  9
$UCSORGLEFT
 10
0.0
 20
0.0
 30
0.0
  9
$UCSORGRIGHT
 10
0.0
 20
0.0
 30
0.0
  9
$UCSORGFRONT
 10
0.0
 20
0.0
 30
0.0
  9
$UCSORGBACK
 10
0.0
 20
0.0
 30
0.0
  9
$PUCSBASE
  2

  9
$PUCSNAME
  2

  9
$PUCSORG
 10
0.0
 20
0.0
 30
0.0
  9
$PUCSXDIR
 10
1.0
 20
0.0
 30
0.0
  9
$PUCSYDIR
 10
0.0
 20
1.0
 30
0.0
  9
$PUCSORTHOREF
  2

  9
$PUCSORTHOVIEW
 70
     0
  9
$PUCSORGTOP
 10
0.0
 20
0.0
 30
0.0
  9
$PUCSORGBOTTOM
 10
0.0
 20
0.0
 30
0.0
  9
$PUCSORGLEFT
 10
0.0
 20
0.0
 30
0.0
  9
$PUCSORGRIGHT
 10
0.0
 20
0.0
 30
0.0
  9
$PUCSORGFRONT
 10
0.0
 20
0.0
 30
0.0
  9
$PUCSORGBACK
 10
0.0
 20
0.0
 30
0.0
  9
$USERI1
 70
     0
  9
$USERI2
 70
     0
  9
$USERI3
 70
     0
  9
$USERI4
 70
     0
  9
$USERI5
 70
     0
  9
$USERR1
 40
0.0
  9
$USERR2
 40
0.0
  9
$USERR3
 40
0.0
  9
$USERR4
 40
0.0
  9
$USERR5
 40
0.0
  9
$WORLDVIEW
 70
     1
  9
$SHADEDGE
 70
     3
  9
$SHADEDIF
 70
    70
  9
$TILEMODE
 70
     1
  9
$MAXACTVP
 70
    16
  9
$PINSBASE
 10
0.0
 20
0.0
 30
0.0
  9
$PLIMCHECK
 70
     0
  9
$PEXTMIN
 10
1.000000000000000E+20
 20
1.000000000000000E+20
 30
1.000000000000000E+20
  9
$PEXTMAX
 10
-1.000000000000000E+20
 20
-1.000000000000000E+20
 30
-1.000000000000000E+20
  9
$PLIMMIN
 10
0.0
 20
0.0
  9
$PLIMMAX
 10
420.0
 20
297.0
  9
$UNITMODE
 70
     0
  9
$VISRETAIN
 70
     0
  9
$PLINEGEN
 70
     0
  9
$PSLTSCALE
 70
     0
  9
$TREEDEPTH
 70
  3020
  9
$CMLSTYLE
  2
STANDARD
  9
$CMLJUST
 70
     0
  9
$CMLSCALE
 40
1.0
  9
$PROXYGRAPHICS
 70
     1
  9
$MEASUREMENT
 70
     1
  9
$CELWEIGHT
370
    -1
  9
$ENDCAPS
280
     0
  9
$JOINSTYLE
280
     0
  9
$LWDISPLAY
290
     0
  9
$INSUNITS
 70
     0
  9
$HYPERLINKBASE
  1

  9
$STYLESHEET
  1

  9
$XEDIT
290
     1
  9
$CEPSNTYPE
380
     0
  9
$PSTYLEMODE
290
     1
  9
$FINGERPRINTGUID
  2
{4263B47D-926A-47A6-A9D4-C45DC367B4E3}
  9
$VERSIONGUID
  2
{0B2F9663-66D0-4E0E-8D1E-C9D915A16C75}
  9
$EXTNAMES
290
     1
  9
$PSVPSCALE
 40
0.0
  9
$OLESTARTUP
290
     0
  0
ENDSEC
  0
SECTION
  2
CLASSES
  0
CLASS
  1
ACDBDICTIONARYWDFLT
  2
AcDbDictionaryWithDefault
  3
ObjectDBX Classes
 90
        0
280
     0
281
     0
  0
CLASS
  1
DICTIONARYVAR
  2
AcDbDictionaryVar
  3
ObjectDBX Classes
 90
        0
280
     0
281
     0
  0
CLASS
  1
ACDBPLACEHOLDER
  2
AcDbPlaceHolder
  3
ObjectDBX Classes
 90
        0
280
     0
281
     0
  0
CLASS
  1
LAYOUT
  2
AcDbLayout
  3
ObjectDBX Classes
 90
        0
280
     0
281
     0
  0
ENDSEC
  0
SECTION
  2
TABLES
  0
TABLE
  2
VPORT
  5
746D
330
0
100
AcDbSymbolTable
 70
     2
  0
VPORT
  5
18D2B
330
746D
100
AcDbSymbolTableRecord
100
AcDbViewportTableRecord
  2
*Active
 70
     0
 10
0.0
 20
0.0
 11
1.0
 21
1.0
 12
8223.761025238502
 22
6348.703162895247
 13
0.0
 23
0.0
 14
10.0
 24
10.0
 15
10.0
 25
10.0
 16
0.0
 26
0.0
 36
1.0
 17
0.0
 27
0.0
 37
0.0
 40
12805.60689082044
 41
1.525925925925925
 42
50.0
 43
0.0
 44
0.0
 50
0.0
 51
0.0
 71
     0
 72
     0
 73
     1
 74
     0
 75
     0
 76
     0
 77
     0
 78
     0
281
     0
 65
     1
110
0.0
120
0.0
130
0.0
111
1.0
121
0.0
131
0.0
112
0.0
122
1.0
132
0.0
 79
     0
146
0.0
  0
ENDTAB
  0
TABLE
  2
LTYPE
  5
746A
330
0
100
AcDbSymbolTable
 70
     4
  0
LTYPE
  5
7477
330
746A
100
AcDbSymbolTableRecord
100
AcDbLinetypeTableRecord
  2
BYBLOCK
 70
     0
  3

 72
    65
 73
     0
 40
0.0
  0
LTYPE
  5
7478
330
746A
100
AcDbSymbolTableRecord
100
AcDbLinetypeTableRecord
  2
BYLAYER
 70
     0
  3

 72
    65
 73
     0
 40
0.0
  0
LTYPE
  5
7479
330
746A
100
AcDbSymbolTableRecord
100
AcDbLinetypeTableRecord
  2
CONTINUOUS
 70
     0
  3
Solid line
 72
    65
 73
     0
 40
0.0
  0
LTYPE
  5
7816
330
746A
100
AcDbSymbolTableRecord
100
AcDbLinetypeTableRecord
  2
CENTER
 70
     0
  3
____ _ ____ _ ____ _ ____ _ ____ _ ____ _ ____ 
 72
    65
 73
     4
 40
2.0
 49
1.25
 74
     0
 49
-0.25
 74
     0
 49
0.25
 74
     0
 49
-0.25
 74
     0
  0
LTYPE
  5
781A
330
746A
100
AcDbSymbolTableRecord
100
AcDbLinetypeTableRecord
  2
HIDDEN
 70
     0
  3
__ __ __ __ __ __ __ __ __ __ __ __ __ __ __ __
 72
    65
 73
     2
 40
0.375
 49
0.25
 74
     0
 49
-0.125
 74
     0
  0
LTYPE
  5
781B
330
746A
100
AcDbSymbolTableRecord
100
AcDbLinetypeTableRecord
  2
PHANTOM
 70
     0
  3
______  __  __  ______  __  __  ______  __  __ 
 72
    65
 73
     6
 40
2.5
 49
1.25
 74
     0
 49
-0.25
 74
     0
 49
0.25
 74
     0
 49
-0.25
 74
     0
 49
0.25
 74
     0
 49
-0.25
 74
     0
  0
ENDTAB
  0
TABLE
  2
LAYER
  5
7467
102
{ACAD_XDICTIONARY
360
17554
102
}
330
0
100
AcDbSymbolTable
 70
    12
  0
LAYER
  5
7474
330
7467
100
AcDbSymbolTableRecord
100
AcDbLayerTableRecord
  2
0
 70
     0
 62
     7
  6
CONTINUOUS
370
    -3
390
173B8
  0
LAYER
  5
DEB2
330
7467
100
AcDbSymbolTableRecord
100
AcDbLayerTableRecord
  2
センター
 70
     0
 62
     3
  6
CENTER
370
    -3
390
173B8
  0
LAYER
  5
DEB3
330
7467
100
AcDbSymbolTableRecord
100
AcDbLayerTableRecord
  2
寸法
 70
     0
 62
     4
  6
CONTINUOUS
370
    -3
390
173B8
  0
LAYER
  5
DEB4
330
7467
100
AcDbSymbolTableRecord
100
AcDbLayerTableRecord
  2
部品1
 70
     0
 62
     7
  6
CONTINUOUS
370
    -3
390
173B8
  0
LAYER
  5
DEB5
330
7467
100
AcDbSymbolTableRecord
100
AcDbLayerTableRecord
  2
補助
 70
     0
 62
    -1
  6
CONTINUOUS
370
    -3
390
173B8
  0
LAYER
  5
DEB6
330
7467
100
AcDbSymbolTableRecord
100
AcDbLayerTableRecord
  2
文字
 70
     0
 62
     7
  6
CONTINUOUS
370
    -3
390
173B8
  0
LAYER
  5
F255
330
7467
100
AcDbSymbolTableRecord
100
AcDbLayerTableRecord
  2
DEFPOINTS
 70
     0
 62
     7
  6
CONTINUOUS
290
     0
370
    -3
390
173B8
  0
LAYER
  5
10B54
330
7467
100
AcDbSymbolTableRecord
100
AcDbLayerTableRecord
  2
仕様書枠
 70
     0
 62
   230
  6
CONTINUOUS
370
    -3
390
173B8
  0
LAYER
  5
11729
330
7467
100
AcDbSymbolTableRecord
100
AcDbLayerTableRecord
  2
Ｇ．Ｌ
 70
     0
 62
    30
  6
CONTINUOUS
370
    -3
390
173B8
  0
LAYER
  5
1173F
330
7467
100
AcDbSymbolTableRecord
100
AcDbLayerTableRecord
  2
細線
 70
     0
 62
     5
  6
CONTINUOUS
370
    -3
390
173B8
  0
LAYER
  5
12CC4
330
7467
100
AcDbSymbolTableRecord
100
AcDbLayerTableRecord
  2
想像線
 70
     0
 62
     6
  6
PHANTOM
370
    -3
390
173B8
  0
LAYER
  5
142E2
330
7467
100
AcDbSymbolTableRecord
100
AcDbLayerTableRecord
  2
破線
 70
     0
 62
     2
  6
HIDDEN
370
    -3
390
173B8
  0
ENDTAB
  0
TABLE
  2
STYLE
  5
7468
330
0
100
AcDbSymbolTable
 70
     4
  0
STYLE
  5
7475
330
7468
100
AcDbSymbolTableRecord
100
AcDbTextStyleTableRecord
  2
STANDARD
 70
     0
 40
0.0
 41
1.0
 50
0.0
 71
     0
 42
4.0
  3
txt
  4
C:\AutoCAD LT\bigfont.shx
  0
STYLE
  5
F706
330
7468
100
AcDbSymbolTableRecord
100
AcDbTextStyleTableRecord
  2
STYLE1
 70
     0
 40
0.0
 41
1.0
 50
0.0
 71
     0
 42
4.0
  3
isocp.shx
  4
bigfont.shx
  0
STYLE
  5
103BF
330
7468
100
AcDbSymbolTableRecord
100
AcDbTextStyleTableRecord
  2
STYLE2
 70
     0
 40
0.0
 41
1.0
 50
0.0
 71
     0
 42
100.0
  3
MS PGothic.ttf
  4

1001
ACAD
1000
MS PGothic
1071
    32818
  0
STYLE
  5
1862A
330
7468
100
AcDbSymbolTableRecord
100
AcDbTextStyleTableRecord
  2
STYLE3
 70
     0
 40
0.0
 41
1.0
 50
0.0
 71
     0
 42
100.0
  3

  4

1001
ACAD
1000
DFPGothic-EB
1071
    32818
  0
ENDTAB
  0
TABLE
  2
VIEW
  5
746B
330
0
100
AcDbSymbolTable
 70
     0
  0
ENDTAB
  0
TABLE
  2
UCS
  5
746C
330
0
100
AcDbSymbolTable
 70
     0
  0
ENDTAB
  0
TABLE
  2
APPID
  5
746E
330
0
100
AcDbSymbolTable
 70
     6
  0
APPID
  5
7476
330
746E
100
AcDbSymbolTableRecord
100
AcDbRegAppTableRecord
  2
ACAD
 70
     0
  0
APPID
  5
DEA9
330
746E
100
AcDbSymbolTableRecord
100
AcDbRegAppTableRecord
  2
CONTENTBLOCKICON
 70
     0
  0
APPID
  5
DEAA
330
746E
100
AcDbSymbolTableRecord
100
AcDbRegAppTableRecord
  2
CONTENTBLOCKDESCRIPTION
 70
     0
  0
APPID
  5
E71D
330
746E
100
AcDbSymbolTableRecord
100
AcDbRegAppTableRecord
  2
CONTENTTABDATA
 70
     0
  0
APPID
  5
E71E
330
746E
100
AcDbSymbolTableRecord
100
AcDbRegAppTableRecord
  2
CONTENTCURRENTTAB
 70
     0
  0
APPID
  5
F3BA
330
746E
100
AcDbSymbolTableRecord
100
AcDbRegAppTableRecord
  2
DRAWINGVARIABLESXDATA
 70
     0
  0
ENDTAB
  0
TABLE
  2
DIMSTYLE
  5
746F
330
0
100
AcDbSymbolTable
 70
     5
100
AcDbDimStyleTable
 71
     0
  0
DIMSTYLE
105
7484
330
746F
100
AcDbSymbolTableRecord
100
AcDbDimStyleTableRecord
  2
JIS
 70
     0
 41
2.5
 42
1.0
 43
7.0
 44
1.0
 73
     0
 74
     0
 77
     1
 78
     8
140
2.5
141
0.0
143
0.0394
147
0.0
172
     1
174
     1
175
     1
340
7475
  0
DIMSTYLE
105
F71F
102
{ACAD_REACTORS
330
1789F
330
179FF
330
17A00
330
17A0B
330
17A0F
330
17A10
330
17A47
330
17A4B
330
17A4C
330
17A4D
330
17A4E
330
17A6D
330
17A79
330
17A7A
330
17A7B
330
17A7C
330
17A7D
330
17A7E
330
17A9C
330
17A9D
330
17A9E
330
17A9F
330
180B8
330
180F3
330
180F4
330
180F5
330
18101
330
18105
330
189CB
330
18A88
102
}
330
746F
100
AcDbSymbolTableRecord
100
AcDbDimStyleTableRecord
  2
INABA_S40G
 70
     0
 40
40.0
 41
2.5
 42
0.5
 43
7.0
 44
1.5
 73
     0
 74
     0
 77
     3
 78
     8
140
3.0
141
0.0
143
0.0394
147
1.0
172
     1
173
     1
174
     1
178
     7
271
     1
340
F706
341
F770
343
F770
344
F770
  0
DIMSTYLE
105
17553
102
{ACAD_REACTORS
330
18736
330
189CC
102
}
330
746F
100
AcDbSymbolTableRecord
100
AcDbDimStyleTableRecord
  2
INABA_S40
 70
     0
 40
40.0
 41
2.5
 42
0.5
 43
7.0
 44
1.5
 73
     0
 74
     0
 77
     3
 78
     8
140
3.0
141
0.0
143
0.0394
147
1.0
172
     1
173
     1
174
     1
175
     1
178
     7
340
7475
  0
DIMSTYLE
105
1862B
330
746F
100
AcDbSymbolTableRecord
100
AcDbDimStyleTableRecord
  2
INABA_S50G
 70
     0
 41
125.0
 42
25.0
 43
7.0
 44
75.0
 73
     0
 74
     0
 77
     3
 78
     8
140
150.0
141
0.0
143
0.0394
147
25.0
172
     1
173
     1
174
     1
175
     1
178
     7
271
     1
340
F706
341
F770
343
F770
344
F770
  0
DIMSTYLE
105
18CC1
330
746F
100
AcDbSymbolTableRecord
100
AcDbDimStyleTableRecord
  2
INABA_S20G
 70
     0
 40
20.0
 41
2.5
 42
0.5
 43
7.0
 44
1.5
 73
     0
 74
     0
 77
     3
 78
     8
140
3.0
141
0.0
143
0.0394
147
1.0
172
     1
173
     1
174
     1
178
     7
271
     1
340
F706
341
F770
343
F770
344
F770
  0
ENDTAB
  0
TABLE
  2
BLOCK_RECORD
  5
7466
330
0
100
AcDbSymbolTable
 70
    34
  0
BLOCK_RECORD
  5
747D
330
7466
100
AcDbSymbolTableRecord
100
AcDbBlockTableRecord
  2
*MODEL_SPACE
340
173BD
  0
BLOCK_RECORD
  5
747A
330
7466
100
AcDbSymbolTableRecord
100
AcDbBlockTableRecord
  2
*PAPER_SPACE
340
173BE
  0
BLOCK_RECORD
  5
F770
330
7466
100
AcDbSymbolTableRecord
100
AcDbBlockTableRecord
  2
_DOTSMALL
340
0
102
{BLKREFS
331
184D1
331
184D2
331
184DA
331
184DB
331
184E3
331
184E4
331
184EE
331
184EF
331
184F7
331
184F8
331
18502
331
18503
331
1850D
331
1850E
331
18516
331
18517
331
1851F
331
18520
331
18529
331
1852A
331
18533
331
18534
331
1853E
331
1853F
331
18547
331
18548
331
18550
331
18551
331
1855A
331
1855B
331
18563
331
18564
331
1856C
331
1856D
331
185F4
331
185F5
331
18C33
331
18C34
331
18C47
331
18C48
331
18C5B
331
18C5C
331
18C64
331
18C65
331
18C6F
331
18C70
331
18C78
331
18C79
331
18C81
331
18C82
331
18C8A
331
18C8B
331
18C93
331
18C94
331
18C9E
331
18C9F
331
18CA7
331
18CA8
331
18CB2
331
18CB3
102
}
  0
BLOCK_RECORD
  5
173C5
330
7466
100
AcDbSymbolTableRecord
100
AcDbBlockTableRecord
  2
_DOT
340
0
102
{BLKREFS
331
18C3E
331
18C3F
331
18C50
331
18C51
102
}
  0
BLOCK_RECORD
  5
17AF8
330
7466
100
AcDbSymbolTableRecord
100
AcDbBlockTableRecord
  2
*D2
340
0
  0
BLOCK_RECORD
  5
17B1E
330
7466
100
AcDbSymbolTableRecord
100
AcDbBlockTableRecord
  2
*D3
340
0
  0
BLOCK_RECORD
  5
17B2C
330
7466
100
AcDbSymbolTableRecord
100
AcDbBlockTableRecord
  2
*D4
340
0
  0
BLOCK_RECORD
  5
17B38
330
7466
100
AcDbSymbolTableRecord
100
AcDbBlockTableRecord
  2
*D5
340
0
  0
BLOCK_RECORD
  5
17B46
330
7466
100
AcDbSymbolTableRecord
100
AcDbBlockTableRecord
  2
*D6
340
0
  0
BLOCK_RECORD
  5
17B52
330
7466
100
AcDbSymbolTableRecord
100
AcDbBlockTableRecord
  2
*D7
340
0
  0
BLOCK_RECORD
  5
17B5E
330
7466
100
AcDbSymbolTableRecord
100
AcDbBlockTableRecord
  2
*D8
340
0
  0
BLOCK_RECORD
  5
17B76
330
7466
100
AcDbSymbolTableRecord
100
AcDbBlockTableRecord
  2
*D9
340
0
  0
BLOCK_RECORD
  5
17B82
330
7466
100
AcDbSymbolTableRecord
100
AcDbBlockTableRecord
  2
*D10
340
0
  0
BLOCK_RECORD
  5
17B90
330
7466
100
AcDbSymbolTableRecord
100
AcDbBlockTableRecord
  2
*D11
340
0
  0
BLOCK_RECORD
  5
17B9C
330
7466
100
AcDbSymbolTableRecord
100
AcDbBlockTableRecord
  2
*D12
340
0
  0
BLOCK_RECORD
  5
17BAA
330
7466
100
AcDbSymbolTableRecord
100
AcDbBlockTableRecord
  2
*D13
340
0
  0
BLOCK_RECORD
  5
17BB6
330
7466
100
AcDbSymbolTableRecord
100
AcDbBlockTableRecord
  2
*D14
340
0
  0
BLOCK_RECORD
  5
17BC2
330
7466
100
AcDbSymbolTableRecord
100
AcDbBlockTableRecord
  2
*D15
340
0
  0
BLOCK_RECORD
  5
17BCF
330
7466
100
AcDbSymbolTableRecord
100
AcDbBlockTableRecord
  2
*D16
340
0
  0
BLOCK_RECORD
  5
17BDB
330
7466
100
AcDbSymbolTableRecord
100
AcDbBlockTableRecord
  2
*D17
340
0
  0
BLOCK_RECORD
  5
17BE7
330
7466
100
AcDbSymbolTableRecord
100
AcDbBlockTableRecord
  2
*D18
340
0
  0
BLOCK_RECORD
  5
17BF5
330
7466
100
AcDbSymbolTableRecord
100
AcDbBlockTableRecord
  2
*D19
340
0
  0
BLOCK_RECORD
  5
17C02
330
7466
100
AcDbSymbolTableRecord
100
AcDbBlockTableRecord
  2
*D20
340
0
  0
BLOCK_RECORD
  5
17C0F
330
7466
100
AcDbSymbolTableRecord
100
AcDbBlockTableRecord
  2
*D21
340
0
  0
BLOCK_RECORD
  5
17C1B
330
7466
100
AcDbSymbolTableRecord
100
AcDbBlockTableRecord
  2
*D22
340
0
  0
BLOCK_RECORD
  5
17C27
330
7466
100
AcDbSymbolTableRecord
100
AcDbBlockTableRecord
  2
*D23
340
0
  0
BLOCK_RECORD
  5
181E7
330
7466
100
AcDbSymbolTableRecord
100
AcDbBlockTableRecord
  2
*D24
340
0
  0
BLOCK_RECORD
  5
181F5
330
7466
100
AcDbSymbolTableRecord
100
AcDbBlockTableRecord
  2
*D25
340
0
  0
BLOCK_RECORD
  5
18201
330
7466
100
AcDbSymbolTableRecord
100
AcDbBlockTableRecord
  2
*D26
340
0
  0
BLOCK_RECORD
  5
1820F
330
7466
100
AcDbSymbolTableRecord
100
AcDbBlockTableRecord
  2
*D27
340
0
  0
BLOCK_RECORD
  5
1821B
330
7466
100
AcDbSymbolTableRecord
100
AcDbBlockTableRecord
  2
*D28
340
0
  0
BLOCK_RECORD
  5
18227
330
7466
100
AcDbSymbolTableRecord
100
AcDbBlockTableRecord
  2
*D29
340
0
  0
BLOCK_RECORD
  5
187A1
330
7466
100
AcDbSymbolTableRecord
100
AcDbBlockTableRecord
  2
*D30
340
0
  0
BLOCK_RECORD
  5
18AD8
330
7466
100
AcDbSymbolTableRecord
100
AcDbBlockTableRecord
  2
*D31
340
0
  0
BLOCK_RECORD
  5
18AE4
330
7466
100
AcDbSymbolTableRecord
100
AcDbBlockTableRecord
  2
*D32
340
0
  0
BLOCK_RECORD
  5
18B32
330
7466
100
AcDbSymbolTableRecord
100
AcDbBlockTableRecord
  2
*D33
340
0
  0
ENDTAB
  0
ENDSEC
  0
SECTION
  2
BLOCKS
  0
BLOCK
  5
7489
330
747D
100
AcDbEntity
  8
0
100
AcDbBlockBegin
  2
*MODEL_SPACE
 70
     0
 10
0.0
 20
0.0
 30
0.0
  3
*MODEL_SPACE
  1

  0
ENDBLK
  5
748A
330
747D
100
AcDbEntity
  8
0
100
AcDbBlockEnd
  0
BLOCK
  5
7487
330
747A
100
AcDbEntity
 67
     1
  8
0
100
AcDbBlockBegin
  2
*PAPER_SPACE
 70
     0
 10
0.0
 20
0.0
 30
0.0
  3
*PAPER_SPACE
  1

  0
ENDBLK
  5
7488
330
747A
100
AcDbEntity
 67
     1
  8
0
100
AcDbBlockEnd
  0
BLOCK
  5
F771
330
F770
100
AcDbEntity
  8
0
 48
50.0
100
AcDbBlockBegin
  2
_DOTSMALL
 70
     0
 10
0.0
 20
0.0
 30
0.0
  3
_DOTSMALL
  1

  0
LWPOLYLINE
  5
F772
330
F770
100
AcDbEntity
  8
0
  6
ByBlock
 62
     0
 48
50.0
100
AcDbPolyline
 90
        2
 70
     1
 43
0.5
 10
-0.0625
 20
0.0
 42
1.0
 10
0.0625
 20
0.0
 42
1.0
  0
ENDBLK
  5
F776
330
F770
100
AcDbEntity
  8
0
 48
50.0
100
AcDbBlockEnd
  0
BLOCK
  5
173C6
330
173C5
100
AcDbEntity
  8
0
 48
50.0
100
AcDbBlockBegin
  2
_DOT
 70
     0
 10
0.0
 20
0.0
 30
0.0
  3
_DOT
  1

  0
LWPOLYLINE
  5
173C7
330
173C5
100
AcDbEntity
  8
0
  6
ByBlock
 62
     0
 48
50.0
100
AcDbPolyline
 90
        2
 70
     1
 43
0.5
 10
-0.25
 20
0.0
 42
1.0
 10
0.25
 20
0.0
 42
1.0
  0
LINE
  5
173C8
330
173C5
100
AcDbEntity
  8
0
  6
ByBlock
 62
     0
 48
50.0
100
AcDbLine
 10
-0.5
 20
0.0
 30
0.0
 11
-1.0
 21
0.0
 31
0.0
  0
ENDBLK
  5
173C9
330
173C5
100
AcDbEntity
  8
0
 48
50.0
100
AcDbBlockEnd
  0
BLOCK
  5
17B02
330
17AF8
100
AcDbEntity
  8
0
 48
50.0
100
AcDbBlockBegin
  2
*D2
 70
     1
 10
0.0
 20
0.0
 30
0.0
  3
*D2
  1

  0
LINE
  5
185F1
330
17AF8
100
AcDbEntity
  8
寸法
 62
     0
 48
50.0
370
    -2
100
AcDbLine
 10
11125.40475250374
 20
2660.96395924404
 30
0.0
 11
11700.57484826616
 21
2660.963959244039
 31
0.0
  0
LINE
  5
185F2
330
17AF8
100
AcDbEntity
  8
寸法
 62
     0
 48
50.0
370
    -2
100
AcDbLine
 10
11205.40475250372
 20
4680.963959244041
 30
0.0
 11
11700.57484826616
 21
4680.963959244041
 31
0.0
  0
LINE
  5
185F3
330
17AF8
100
AcDbEntity
  8
寸法
 62
     0
 48
50.0
370
    -2
100
AcDbLine
 10
11640.57484826616
 20
2660.963959244039
 30
0.0
 11
11640.57484826616
 21
4680.963959244041
 31
0.0
  0
INSERT
  5
185F4
330
17AF8
100
AcDbEntity
  8
寸法
 62
     0
 48
50.0
370
    -2
100
AcDbBlockReference
  2
_DOTSMALL
 10
11640.57484826616
 20
2660.963959244039
 30
0.0
 41
100.0
 42
100.0
 43
100.0
 50
270.0
  0
INSERT
  5
185F5
330
17AF8
100
AcDbEntity
  8
寸法
 62
     0
 48
50.0
370
    -2
100
AcDbBlockReference
  2
_DOTSMALL
 10
11640.57484826616
 20
4680.963959244041
 30
0.0
 41
100.0
 42
100.0
 43
100.0
 50
90.0
  0
MTEXT
  5
185F6
330
17AF8
100
AcDbEntity
  8
寸法
 62
     7
 48
50.0
100
AcDbMText
 10
11540.56303724254
 20
3643.220286673728
 30
0.0
 40
120.0
 41
0.0
 71
     5
 72
     1
  1
\A1;2020
  7
STYLE1
 11
0.0000000000000001
 21
1.0
 31
0.0
 73
     1
 44
1.0
1001
ACAD
1000
MTEXTBEGIN
1070
    73
1070
     1
1070
    44
1040
1.0
1070
    74
1070
     0
1000
MTEXTEND
  0
POINT
  5
185F7
330
17AF8
100
AcDbEntity
  8
DEFPOINTS
 62
     0
 48
50.0
100
AcDbPoint
 10
11105.40475250374
 20
2660.96395924404
 30
0.0
  0
POINT
  5
185F8
330
17AF8
100
AcDbEntity
  8
DEFPOINTS
 62
     0
 48
50.0
100
AcDbPoint
 10
11185.40475250372
 20
4680.963959244041
 30
0.0
  0
POINT
  5
185F9
330
17AF8
100
AcDbEntity
  8
DEFPOINTS
 62
     0
 48
50.0
100
AcDbPoint
 10
11640.57484826616
 20
4680.963959244041
 30
0.0
  0
ENDBLK
  5
17B03
330
17AF8
100
AcDbEntity
  8
0
 48
50.0
100
AcDbBlockEnd
  0
BLOCK
  5
17B2A
330
17B1E
100
AcDbEntity
  8
0
 48
50.0
100
AcDbBlockBegin
  2
*D3
 70
     1
 10
0.0
 20
0.0
 30
0.0
  3
*D3
  1

  0
LINE
  5
18CAD
330
17B1E
100
AcDbEntity
  8
寸法
 62
     0
 48
50.0
370
    -2
100
AcDbLine
 10
11125.40475250375
 20
9835.75467753406
 30
0.0
 11
11865.40475250374
 21
9835.75467753406
 31
0.0
  0
LINE
  5
18CAE
330
17B1E
100
AcDbEntity
  8
寸法
 62
     0
 48
50.0
370
    -2
100
AcDbLine
 10
11125.40475250375
 20
9780.754677534064
 30
0.0
 11
11865.40475250374
 21
9780.754677534064
 31
0.0
  0
LINE
  5
18CAF
330
17B1E
100
AcDbEntity
  8
寸法
 62
     0
 48
50.0
370
    -2
100
AcDbLine
 10
11805.40475250374
 20
9780.754677534064
 30
0.0
 11
11805.40475250374
 21
9680.754677534064
 31
0.0
  0
LINE
  5
18CB0
330
17B1E
100
AcDbEntity
  8
寸法
 62
     0
 48
50.0
370
    -2
100
AcDbLine
 10
11805.40475250374
 20
9835.75467753406
 30
0.0
 11
11805.40475250374
 21
10252.72524028253
 31
0.0
  0
LINE
  5
18CB1
330
17B1E
100
AcDbEntity
  8
寸法
 62
     0
 48
50.0
370
    -2
100
AcDbLine
 10
11805.40475250374
 20
9780.754677534064
 30
0.0
 11
11805.40475250374
 21
9835.75467753406
 31
0.0
  0
INSERT
  5
18CB2
330
17B1E
100
AcDbEntity
  8
寸法
 62
     0
 48
50.0
370
    -2
100
AcDbBlockReference
  2
_DOTSMALL
 10
11805.40475250374
 20
9780.754677534064
 30
0.0
 41
100.0
 42
100.0
 43
100.0
 50
90.0
  0
INSERT
  5
18CB3
330
17B1E
100
AcDbEntity
  8
寸法
 62
     0
 48
50.0
370
    -2
100
AcDbBlockReference
  2
_DOTSMALL
 10
11805.40475250374
 20
9835.75467753406
 30
0.0
 41
100.0
 42
100.0
 43
100.0
 50
270.0
  0
MTEXT
  5
18CB4
330
17B1E
100
AcDbEntity
  8
寸法
 62
     7
 48
50.0
100
AcDbMText
 10
11705.40475250374
 20
10144.2399589083
 30
0.0
 40
120.0
 41
0.0
 71
     5
 72
     1
  1
\A1;55
  7
STYLE1
 11
0.0000000000000001
 21
1.0
 31
0.0
 73
     1
 44
1.0
1001
ACAD
1000
MTEXTBEGIN
1070
    73
1070
     1
1070
    44
1040
1.0
1070
    74
1070
     0
1000
MTEXTEND
  0
POINT
  5
18CB5
330
17B1E
100
AcDbEntity
  8
DEFPOINTS
 62
     0
 48
50.0
100
AcDbPoint
 10
11105.40475250375
 20
9835.75467753406
 30
0.0
  0
POINT
  5
18CB6
330
17B1E
100
AcDbEntity
  8
DEFPOINTS
 62
     0
 48
50.0
100
AcDbPoint
 10
11105.40475250375
 20
9780.754677534064
 30
0.0
  0
POINT
  5
18CB7
330
17B1E
100
AcDbEntity
  8
DEFPOINTS
 62
     0
 48
50.0
100
AcDbPoint
 10
11805.40475250374
 20
9780.754677534064
 30
0.0
  0
ENDBLK
  5
17B2B
330
17B1E
100
AcDbEntity
  8
0
 48
50.0
100
AcDbBlockEnd
  0
BLOCK
  5
17B36
330
17B2C
100
AcDbEntity
  8
0
 48
50.0
100
AcDbBlockBegin
  2
*D4
 70
     1
 10
0.0
 20
0.0
 30
0.0
  3
*D4
  1

  0
LINE
  5
18CA4
330
17B2C
100
AcDbEntity
  8
寸法
 62
     0
 48
50.0
370
    -2
100
AcDbLine
 10
11096.90475250375
 20
9800.395693685437
 30
0.0
 11
11565.40475250374
 21
9674.861497031457
 31
0.0
  0
LINE
  5
18CA5
330
17B2C
100
AcDbEntity
  8
寸法
 62
     0
 48
50.0
370
    -2
100
AcDbLine
 10
11096.90475250375
 20
9350.39569368544
 30
0.0
 11
11565.40475250374
 21
9224.861497031461
 31
0.0
  0
LINE
  5
18CA6
330
17B2C
100
AcDbEntity
  8
寸法
 62
     0
 48
50.0
370
    -2
100
AcDbLine
 10
11505.40475250374
 20
9690.938448577325
 30
0.0
 11
11505.40475250374
 21
9240.938448577329
 31
0.0
  0
INSERT
  5
18CA7
330
17B2C
100
AcDbEntity
  8
寸法
 62
     0
 48
50.0
370
    -2
100
AcDbBlockReference
  2
_DOTSMALL
 10
11505.40475250374
 20
9690.938448577325
 30
0.0
 41
100.0
 42
100.0
 43
100.0
 50
90.0
  0
INSERT
  5
18CA8
330
17B2C
100
AcDbEntity
  8
寸法
 62
     0
 48
50.0
370
    -2
100
AcDbBlockReference
  2
_DOTSMALL
 10
11505.40475250374
 20
9240.938448577329
 30
0.0
 41
100.0
 42
100.0
 43
100.0
 50
270.0
  0
MTEXT
  5
18CA9
330
17B2C
100
AcDbEntity
  8
寸法
 62
     7
 48
50.0
100
AcDbMText
 10
11405.40475250374
 20
9465.938448577325
 30
0.0
 40
120.0
 41
0.0
 71
     5
 72
     1
  1
\A1;450
  7
STYLE1
 11
0.0000000000000001
 21
1.0
 31
0.0
 73
     1
 44
1.0
1001
ACAD
1000
MTEXTBEGIN
1070
    73
1070
     1
1070
    44
1040
1.0
1070
    74
1070
     0
1000
MTEXTEND
  0
POINT
  5
18CAA
330
17B2C
100
AcDbEntity
  8
DEFPOINTS
 62
     0
 48
50.0
100
AcDbPoint
 10
11076.90475250375
 20
9805.754677534061
 30
0.0
  0
POINT
  5
18CAB
330
17B2C
100
AcDbEntity
  8
DEFPOINTS
 62
     0
 48
50.0
100
AcDbPoint
 10
11076.90475250375
 20
9355.754677534063
 30
0.0
  0
POINT
  5
18CAC
330
17B2C
100
AcDbEntity
  8
DEFPOINTS
 62
     0
 48
50.0
100
AcDbPoint
 10
11505.40475250374
 20
9240.938448577329
 30
0.0
  0
ENDBLK
  5
17B37
330
17B2C
100
AcDbEntity
  8
0
 48
50.0
100
AcDbBlockEnd
  0
BLOCK
  5
17B44
330
17B38
100
AcDbEntity
  8
0
 48
50.0
100
AcDbBlockBegin
  2
*D5
 70
     1
 10
0.0
 20
0.0
 30
0.0
  3
*D5
  1

  0
LINE
  5
18C99
330
17B38
100
AcDbEntity
  8
寸法
 62
     0
 48
50.0
370
    -2
100
AcDbLine
 10
11125.40475250372
 20
7680.754677534046
 30
0.0
 11
11865.40475250372
 21
7680.754677534046
 31
0.0
  0
LINE
  5
18C9A
330
17B38
100
AcDbEntity
  8
寸法
 62
     0
 48
50.0
370
    -2
100
AcDbLine
 10
11125.40475250372
 20
7625.754677534049
 30
0.0
 11
11865.40475250372
 21
7625.754677534049
 31
0.0
  0
LINE
  5
18C9B
330
17B38
100
AcDbEntity
  8
寸法
 62
     0
 48
50.0
370
    -2
100
AcDbLine
 10
11805.40475250372
 20
7680.754677534046
 30
0.0
 11
11805.40475250372
 21
7780.754677534045
 31
0.0
  0
LINE
  5
18C9C
330
17B38
100
AcDbEntity
  8
寸法
 62
     0
 48
50.0
370
    -2
100
AcDbLine
 10
11805.40475250372
 20
7625.754677534049
 30
0.0
 11
11805.40475250372
 21
7208.784114785558
 31
0.0
  0
LINE
  5
18C9D
330
17B38
100
AcDbEntity
  8
寸法
 62
     0
 48
50.0
370
    -2
100
AcDbLine
 10
11805.40475250372
 20
7680.754677534046
 30
0.0
 11
11805.40475250372
 21
7625.754677534049
 31
0.0
  0
INSERT
  5
18C9E
330
17B38
100
AcDbEntity
  8
寸法
 62
     0
 48
50.0
370
    -2
100
AcDbBlockReference
  2
_DOTSMALL
 10
11805.40475250372
 20
7680.754677534046
 30
0.0
 41
100.0
 42
100.0
 43
100.0
 50
270.0
  0
INSERT
  5
18C9F
330
17B38
100
AcDbEntity
  8
寸法
 62
     0
 48
50.0
370
    -2
100
AcDbBlockReference
  2
_DOTSMALL
 10
11805.40475250372
 20
7625.754677534049
 30
0.0
 41
100.0
 42
100.0
 43
100.0
 50
90.0
  0
MTEXT
  5
18CA0
330
17B38
100
AcDbEntity
  8
寸法
 62
     7
 48
50.0
100
AcDbMText
 10
11705.40475250372
 20
7317.269396159798
 30
0.0
 40
120.0
 41
0.0
 71
     5
 72
     1
  1
\A1;55
  7
STYLE1
 11
0.0000000000000001
 21
1.0
 31
0.0
 73
     1
 44
1.0
1001
ACAD
1000
MTEXTBEGIN
1070
    73
1070
     1
1070
    44
1040
1.0
1070
    74
1070
     0
1000
MTEXTEND
  0
POINT
  5
18CA1
330
17B38
100
AcDbEntity
  8
DEFPOINTS
 62
     0
 48
50.0
100
AcDbPoint
 10
11105.40475250372
 20
7680.754677534046
 30
0.0
  0
POINT
  5
18CA2
330
17B38
100
AcDbEntity
  8
DEFPOINTS
 62
     0
 48
50.0
100
AcDbPoint
 10
11105.40475250372
 20
7625.754677534049
 30
0.0
  0
POINT
  5
18CA3
330
17B38
100
AcDbEntity
  8
DEFPOINTS
 62
     0
 48
50.0
100
AcDbPoint
 10
11805.40475250372
 20
7625.754677534049
 30
0.0
  0
ENDBLK
  5
17B45
330
17B38
100
AcDbEntity
  8
0
 48
50.0
100
AcDbBlockEnd
  0
BLOCK
  5
17B50
330
17B46
100
AcDbEntity
  8
0
 48
50.0
100
AcDbBlockBegin
  2
*D6
 70
     1
 10
0.0
 20
0.0
 30
0.0
  3
*D6
  1

  0
LINE
  5
18C90
330
17B46
100
AcDbEntity
  8
寸法
 62
     0
 48
50.0
370
    -2
100
AcDbLine
 10
11125.40475250375
 20
9780.754677534064
 30
0.0
 11
11865.40475250374
 21
9780.754677534064
 31
0.0
  0
LINE
  5
18C91
330
17B46
100
AcDbEntity
  8
寸法
 62
     0
 48
50.0
370
    -2
100
AcDbLine
 10
11125.40475250372
 20
7680.754677534046
 30
0.0
 11
11865.40475250374
 21
7680.754677534046
 31
0.0
  0
LINE
  5
18C92
330
17B46
100
AcDbEntity
  8
寸法
 62
     0
 48
50.0
370
    -2
100
AcDbLine
 10
11805.40475250374
 20
9780.754677534064
 30
0.0
 11
11805.40475250374
 21
7680.754677534046
 31
0.0
  0
INSERT
  5
18C93
330
17B46
100
AcDbEntity
  8
寸法
 62
     0
 48
50.0
370
    -2
100
AcDbBlockReference
  2
_DOTSMALL
 10
11805.40475250374
 20
9780.754677534064
 30
0.0
 41
100.0
 42
100.0
 43
100.0
 50
90.0
  0
INSERT
  5
18C94
330
17B46
100
AcDbEntity
  8
寸法
 62
     0
 48
50.0
370
    -2
100
AcDbBlockReference
  2
_DOTSMALL
 10
11805.40475250374
 20
7680.754677534046
 30
0.0
 41
100.0
 42
100.0
 43
100.0
 50
270.0
  0
MTEXT
  5
18C95
330
17B46
100
AcDbEntity
  8
寸法
 62
     7
 48
50.0
100
AcDbMText
 10
11705.39294148011
 20
8730.754677534056
 30
0.0
 40
120.0
 41
0.0
 71
     5
 72
     1
  1
\A1;5X420=2100
  7
STYLE1
 11
0.0000000000000001
 21
1.0
 31
0.0
 73
     1
 44
1.0
1001
ACAD
1000
MTEXTBEGIN
1070
    73
1070
     1
1070
    44
1040
1.0
1070
    74
1070
     0
1000
MTEXTEND
  0
POINT
  5
18C96
330
17B46
100
AcDbEntity
  8
DEFPOINTS
 62
     0
 48
50.0
100
AcDbPoint
 10
11105.40475250375
 20
9780.754677534064
 30
0.0
  0
POINT
  5
18C97
330
17B46
100
AcDbEntity
  8
DEFPOINTS
 62
     0
 48
50.0
100
AcDbPoint
 10
11105.40475250372
 20
7680.754677534046
 30
0.0
  0
POINT
  5
18C98
330
17B46
100
AcDbEntity
  8
DEFPOINTS
 62
     0
 48
50.0
100
AcDbPoint
 10
11805.40475250374
 20
7680.754677534046
 30
0.0
  0
ENDBLK
  5
17B51
330
17B46
100
AcDbEntity
  8
0
 48
50.0
100
AcDbBlockEnd
  0
BLOCK
  5
17B5C
330
17B52
100
AcDbEntity
  8
0
 48
50.0
100
AcDbBlockBegin
  2
*D7
 70
     1
 10
0.0
 20
0.0
 30
0.0
  3
*D7
  1

  0
LINE
  5
18C87
330
17B52
100
AcDbEntity
  8
寸法
 62
     0
 48
50.0
370
    -2
100
AcDbLine
 10
11125.40475250375
 20
9835.75467753406
 30
0.0
 11
12165.40475250375
 21
9835.75467753406
 31
0.0
  0
LINE
  5
18C88
330
17B52
100
AcDbEntity
  8
寸法
 62
     0
 48
50.0
370
    -2
100
AcDbLine
 10
11125.40475250372
 20
7625.754677534049
 30
0.0
 11
12165.40475250375
 21
7625.754677534049
 31
0.0
  0
LINE
  5
18C89
330
17B52
100
AcDbEntity
  8
寸法
 62
     0
 48
50.0
370
    -2
100
AcDbLine
 10
12105.40475250375
 20
9835.75467753406
 30
0.0
 11
12105.40475250375
 21
7625.754677534049
 31
0.0
  0
INSERT
  5
18C8A
330
17B52
100
AcDbEntity
  8
寸法
 62
     0
 48
50.0
370
    -2
100
AcDbBlockReference
  2
_DOTSMALL
 10
12105.40475250375
 20
9835.75467753406
 30
0.0
 41
100.0
 42
100.0
 43
100.0
 50
90.0
  0
INSERT
  5
18C8B
330
17B52
100
AcDbEntity
  8
寸法
 62
     0
 48
50.0
370
    -2
100
AcDbBlockReference
  2
_DOTSMALL
 10
12105.40475250375
 20
7625.754677534049
 30
0.0
 41
100.0
 42
100.0
 43
100.0
 50
270.0
  0
MTEXT
  5
18C8C
330
17B52
100
AcDbEntity
  8
寸法
 62
     7
 48
50.0
100
AcDbMText
 10
12005.39294148013
 20
8730.754677534056
 30
0.0
 40
120.0
 41
0.0
 71
     5
 72
     1
  1
\A1;2210
  7
STYLE1
 11
0.0000000000000001
 21
1.0
 31
0.0
 73
     1
 44
1.0
1001
ACAD
1000
MTEXTBEGIN
1070
    73
1070
     1
1070
    44
1040
1.0
1070
    74
1070
     0
1000
MTEXTEND
  0
POINT
  5
18C8D
330
17B52
100
AcDbEntity
  8
DEFPOINTS
 62
     0
 48
50.0
100
AcDbPoint
 10
11105.40475250375
 20
9835.75467753406
 30
0.0
  0
POINT
  5
18C8E
330
17B52
100
AcDbEntity
  8
DEFPOINTS
 62
     0
 48
50.0
100
AcDbPoint
 10
11105.40475250372
 20
7625.754677534049
 30
0.0
  0
POINT
  5
18C8F
330
17B52
100
AcDbEntity
  8
DEFPOINTS
 62
     0
 48
50.0
100
AcDbPoint
 10
12105.40475250375
 20
7625.754677534049
 30
0.0
  0
ENDBLK
  5
17B5D
330
17B52
100
AcDbEntity
  8
0
 48
50.0
100
AcDbBlockEnd
  0
BLOCK
  5
17B68
330
17B5E
100
AcDbEntity
  8
0
 48
50.0
100
AcDbBlockBegin
  2
*D8
 70
     1
 10
0.0
 20
0.0
 30
0.0
  3
*D8
  1

  0
LINE
  5
18C7E
330
17B5E
100
AcDbEntity
  8
寸法
 62
     0
 48
50.0
370
    -2
100
AcDbLine
 10
9797.545768655128
 20
9335.754677534071
 30
0.0
 11
9701.093869121866
 21
8975.791287989412
 31
0.0
  0
LINE
  5
18C7F
330
17B5E
100
AcDbEntity
  8
寸法
 62
     0
 48
50.0
370
    -2
100
AcDbLine
 10
11070.54576865514
 20
9335.754677534064
 30
0.0
 11
10974.09386912188
 21
8975.791287989412
 31
0.0
  0
LINE
  5
18C80
330
17B5E
100
AcDbEntity
  8
寸法
 62
     0
 48
50.0
370
    -2
100
AcDbLine
 10
9717.170820667732
 20
9035.791287989411
 30
0.0
 11
10990.17082066774
 21
9035.791287989411
 31
0.0
  0
INSERT
  5
18C81
330
17B5E
100
AcDbEntity
  8
寸法
 62
     0
 48
50.0
370
    -2
100
AcDbBlockReference
  2
_DOTSMALL
 10
9717.170820667732
 20
9035.791287989411
 30
0.0
 41
100.0
 42
100.0
 43
100.0
 50
180.0
  0
INSERT
  5
18C82
330
17B5E
100
AcDbEntity
  8
寸法
 62
     0
 48
50.0
370
    -2
100
AcDbBlockReference
  2
_DOTSMALL
 10
10990.17082066774
 20
9035.791287989411
 30
0.0
 41
100.0
 42
100.0
 43
100.0
  0
MTEXT
  5
18C83
330
17B5E
100
AcDbEntity
  8
寸法
 62
     7
 48
50.0
100
AcDbMText
 10
10423.29265981776
 20
9135.803099013035
 30
0.0
 40
120.0
 41
0.0
 71
     5
 72
     1
  1
\A1;1273
  7
STYLE1
 73
     1
 44
1.0
1001
ACAD
1000
MTEXTBEGIN
1070
    73
1070
     1
1070
    44
1040
1.0
1070
    74
1070
     0
1000
MTEXTEND
  0
POINT
  5
18C84
330
17B5E
100
AcDbEntity
  8
DEFPOINTS
 62
     0
 48
50.0
100
AcDbPoint
 10
9802.904752503749
 20
9355.75467753407
 30
0.0
  0
POINT
  5
18C85
330
17B5E
100
AcDbEntity
  8
DEFPOINTS
 62
     0
 48
50.0
100
AcDbPoint
 10
11075.90475250376
 20
9355.754677534063
 30
0.0
  0
POINT
  5
18C86
330
17B5E
100
AcDbEntity
  8
DEFPOINTS
 62
     0
 48
50.0
100
AcDbPoint
 10
10990.17082066774
 20
9035.791287989411
 30
0.0
  0
ENDBLK
  5
17B69
330
17B5E
100
AcDbEntity
  8
0
 48
50.0
100
AcDbBlockEnd
  0
BLOCK
  5
17B80
330
17B76
100
AcDbEntity
  8
0
 48
50.0
100
AcDbBlockBegin
  2
*D9
 70
     1
 10
0.0
 20
0.0
 30
0.0
  3
*D9
  1

  0
LINE
  5
18C75
330
17B76
100
AcDbEntity
  8
寸法
 62
     0
 48
50.0
370
    -2
100
AcDbLine
 10
8530.404752503748
 20
9855.754677533965
 30
0.0
 11
8530.404752503748
 21
10195.75467753396
 31
0.0
  0
LINE
  5
18C76
330
17B76
100
AcDbEntity
  8
寸法
 62
     0
 48
50.0
370
    -2
100
AcDbLine
 10
11050.40475250375
 20
9855.75467753406
 30
0.0
 11
11050.40475250375
 21
10195.75467753396
 31
0.0
  0
LINE
  5
18C77
330
17B76
100
AcDbEntity
  8
寸法
 62
     0
 48
50.0
370
    -2
100
AcDbLine
 10
8530.404752503748
 20
10135.75467753396
 30
0.0
 11
11050.40475250375
 21
10135.75467753396
 31
0.0
  0
INSERT
  5
18C78
330
17B76
100
AcDbEntity
  8
寸法
 62
     0
 48
50.0
370
    -2
100
AcDbBlockReference
  2
_DOTSMALL
 10
8530.404752503748
 20
10135.75467753396
 30
0.0
 41
100.0
 42
100.0
 43
100.0
 50
180.0
  0
INSERT
  5
18C79
330
17B76
100
AcDbEntity
  8
寸法
 62
     0
 48
50.0
370
    -2
100
AcDbBlockReference
  2
_DOTSMALL
 10
11050.40475250375
 20
10135.75467753396
 30
0.0
 41
100.0
 42
100.0
 43
100.0
  0
MTEXT
  5
18C7A
330
17B76
100
AcDbEntity
  8
寸法
 62
     7
 48
50.0
100
AcDbMText
 10
9790.404752503746
 20
10235.76648855758
 30
0.0
 40
120.0
 41
0.0
 71
     5
 72
     1
  1
\A1;6X420=2520
  7
STYLE1
 73
     1
 44
1.0
1001
ACAD
1000
MTEXTBEGIN
1070
    73
1070
     1
1070
    44
1040
1.0
1070
    74
1070
     0
1000
MTEXTEND
  0
POINT
  5
18C7B
330
17B76
100
AcDbEntity
  8
DEFPOINTS
 62
     0
 48
50.0
100
AcDbPoint
 10
8530.404752503748
 20
9835.754677533966
 30
0.0
  0
POINT
  5
18C7C
330
17B76
100
AcDbEntity
  8
DEFPOINTS
 62
     0
 48
50.0
100
AcDbPoint
 10
11050.40475250375
 20
9835.75467753406
 30
0.0
  0
POINT
  5
18C7D
330
17B76
100
AcDbEntity
  8
DEFPOINTS
 62
     0
 48
50.0
100
AcDbPoint
 10
11050.40475250375
 20
10135.75467753396
 30
0.0
  0
ENDBLK
  5
17B81
330
17B76
100
AcDbEntity
  8
0
 48
50.0
100
AcDbBlockEnd
  0
BLOCK
  5
17B8E
330
17B82
100
AcDbEntity
  8
0
 48
50.0
100
AcDbBlockBegin
  2
*D10
 70
     1
 10
0.0
 20
0.0
 30
0.0
  3
*D10
  1

  0
LINE
  5
18C6A
330
17B82
100
AcDbEntity
  8
寸法
 62
     0
 48
50.0
370
    -2
100
AcDbLine
 10
11050.40475250375
 20
9855.75467753406
 30
0.0
 11
11050.40475250375
 21
10195.75467753396
 31
0.0
  0
LINE
  5
18C6B
330
17B82
100
AcDbEntity
  8
寸法
 62
     0
 48
50.0
370
    -2
100
AcDbLine
 10
11105.40475250375
 20
9855.75467753406
 30
0.0
 11
11105.40475250375
 21
10195.75467753396
 31
0.0
  0
LINE
  5
18C6C
330
17B82
100
AcDbEntity
  8
寸法
 62
     0
 48
50.0
370
    -2
100
AcDbLine
 10
11050.40475250375
 20
10135.75467753396
 30
0.0
 11
10950.40475250375
 21
10135.75467753396
 31
0.0
  0
LINE
  5
18C6D
330
17B82
100
AcDbEntity
  8
寸法
 62
     0
 48
50.0
370
    -2
100
AcDbLine
 10
11105.40475250375
 20
10135.75467753396
 30
0.0
 11
11522.37531525223
 21
10135.75467753396
 31
0.0
  0
LINE
  5
18C6E
330
17B82
100
AcDbEntity
  8
寸法
 62
     0
 48
50.0
370
    -2
100
AcDbLine
 10
11050.40475250375
 20
10135.75467753396
 30
0.0
 11
11105.40475250375
 21
10135.75467753396
 31
0.0
  0
INSERT
  5
18C6F
330
17B82
100
AcDbEntity
  8
寸法
 62
     0
 48
50.0
370
    -2
100
AcDbBlockReference
  2
_DOTSMALL
 10
11050.40475250375
 20
10135.75467753396
 30
0.0
 41
100.0
 42
100.0
 43
100.0
  0
INSERT
  5
18C70
330
17B82
100
AcDbEntity
  8
寸法
 62
     0
 48
50.0
370
    -2
100
AcDbBlockReference
  2
_DOTSMALL
 10
11105.40475250375
 20
10135.75467753396
 30
0.0
 41
100.0
 42
100.0
 43
100.0
 50
180.0
  0
MTEXT
  5
18C71
330
17B82
100
AcDbEntity
  8
寸法
 62
     7
 48
50.0
100
AcDbMText
 10
11413.89003387799
 20
10235.75467753396
 30
0.0
 40
120.0
 41
0.0
 71
     5
 72
     1
  1
\A1;55
  7
STYLE1
 73
     1
 44
1.0
1001
ACAD
1000
MTEXTBEGIN
1070
    73
1070
     1
1070
    44
1040
1.0
1070
    74
1070
     0
1000
MTEXTEND
  0
POINT
  5
18C72
330
17B82
100
AcDbEntity
  8
DEFPOINTS
 62
     0
 48
50.0
100
AcDbPoint
 10
11050.40475250375
 20
9835.75467753406
 30
0.0
  0
POINT
  5
18C73
330
17B82
100
AcDbEntity
  8
DEFPOINTS
 62
     0
 48
50.0
100
AcDbPoint
 10
11105.40475250375
 20
9835.75467753406
 30
0.0
  0
POINT
  5
18C74
330
17B82
100
AcDbEntity
  8
DEFPOINTS
 62
     0
 48
50.0
100
AcDbPoint
 10
11105.40475250375
 20
10135.75467753396
 30
0.0
  0
ENDBLK
  5
17B8F
330
17B82
100
AcDbEntity
  8
0
 48
50.0
100
AcDbBlockEnd
  0
BLOCK
  5
17B9A
330
17B90
100
AcDbEntity
  8
0
 48
50.0
100
AcDbBlockBegin
  2
*D11
 70
     1
 10
0.0
 20
0.0
 30
0.0
  3
*D11
  1

  0
LINE
  5
18C61
330
17B90
100
AcDbEntity
  8
寸法
 62
     0
 48
50.0
370
    -2
100
AcDbLine
 10
8497.545768655058
 20
9335.754677534012
 30
0.0
 11
8401.093869121813
 21
8975.791287989412
 31
0.0
  0
LINE
  5
18C62
330
17B90
100
AcDbEntity
  8
寸法
 62
     0
 48
50.0
370
    -2
100
AcDbLine
 10
9770.545768655127
 20
9335.754677534005
 30
0.0
 11
9674.093869121884
 21
8975.791287989412
 31
0.0
  0
LINE
  5
18C63
330
17B90
100
AcDbEntity
  8
寸法
 62
     0
 48
50.0
370
    -2
100
AcDbLine
 10
8417.17082066768
 20
9035.791287989411
 30
0.0
 11
9690.170820667752
 21
9035.791287989411
 31
0.0
  0
INSERT
  5
18C64
330
17B90
100
AcDbEntity
  8
寸法
 62
     0
 48
50.0
370
    -2
100
AcDbBlockReference
  2
_DOTSMALL
 10
8417.17082066768
 20
9035.791287989411
 30
0.0
 41
100.0
 42
100.0
 43
100.0
 50
180.0
  0
INSERT
  5
18C65
330
17B90
100
AcDbEntity
  8
寸法
 62
     0
 48
50.0
370
    -2
100
AcDbBlockReference
  2
_DOTSMALL
 10
9690.170820667752
 20
9035.791287989411
 30
0.0
 41
100.0
 42
100.0
 43
100.0
  0
MTEXT
  5
18C66
330
17B90
100
AcDbEntity
  8
寸法
 62
     7
 48
50.0
100
AcDbMText
 10
9053.670820667717
 20
9135.803099013035
 30
0.0
 40
120.0
 41
0.0
 71
     5
 72
     1
  1
\A1;1273
  7
STYLE1
 73
     1
 44
1.0
1001
ACAD
1000
MTEXTBEGIN
1070
    73
1070
     1
1070
    44
1040
1.0
1070
    74
1070
     0
1000
MTEXTEND
  0
POINT
  5
18C67
330
17B90
100
AcDbEntity
  8
DEFPOINTS
 62
     0
 48
50.0
100
AcDbPoint
 10
8502.904752503679
 20
9355.754677534013
 30
0.0
  0
POINT
  5
18C68
330
17B90
100
AcDbEntity
  8
DEFPOINTS
 62
     0
 48
50.0
100
AcDbPoint
 10
9775.90475250375
 20
9355.754677534006
 30
0.0
  0
POINT
  5
18C69
330
17B90
100
AcDbEntity
  8
DEFPOINTS
 62
     0
 48
50.0
100
AcDbPoint
 10
9690.170820667752
 20
9035.791287989411
 30
0.0
  0
ENDBLK
  5
17B9B
330
17B90
100
AcDbEntity
  8
0
 48
50.0
100
AcDbBlockEnd
  0
BLOCK
  5
17BA8
330
17B9C
100
AcDbEntity
  8
0
 48
50.0
100
AcDbBlockBegin
  2
*D12
 70
     1
 10
0.0
 20
0.0
 30
0.0
  3
*D12
  1

  0
LINE
  5
18C56
330
17B9C
100
AcDbEntity
  8
寸法
 62
     0
 48
50.0
370
    -2
100
AcDbLine
 10
8475.404752503713
 20
9855.754677533965
 30
0.0
 11
8475.404752503713
 21
10195.75467753396
 31
0.0
  0
LINE
  5
18C57
330
17B9C
100
AcDbEntity
  8
寸法
 62
     0
 48
50.0
370
    -2
100
AcDbLine
 10
8530.404752503748
 20
9855.754677533965
 30
0.0
 11
8530.404752503748
 21
10195.75467753396
 31
0.0
  0
LINE
  5
18C58
330
17B9C
100
AcDbEntity
  8
寸法
 62
     0
 48
50.0
370
    -2
100
AcDbLine
 10
8530.404752503748
 20
10135.75467753396
 30
0.0
 11
8630.404752503748
 21
10135.75467753396
 31
0.0
  0
LINE
  5
18C59
330
17B9C
100
AcDbEntity
  8
寸法
 62
     0
 48
50.0
370
    -2
100
AcDbLine
 10
8475.404752503713
 20
10135.75467753396
 30
0.0
 11
8058.434189755233
 21
10135.75467753396
 31
0.0
  0
LINE
  5
18C5A
330
17B9C
100
AcDbEntity
  8
寸法
 62
     0
 48
50.0
370
    -2
100
AcDbLine
 10
8530.404752503748
 20
10135.75467753396
 30
0.0
 11
8475.404752503713
 21
10135.75467753396
 31
0.0
  0
INSERT
  5
18C5B
330
17B9C
100
AcDbEntity
  8
寸法
 62
     0
 48
50.0
370
    -2
100
AcDbBlockReference
  2
_DOTSMALL
 10
8530.404752503748
 20
10135.75467753396
 30
0.0
 41
100.0
 42
100.0
 43
100.0
 50
180.0
  0
INSERT
  5
18C5C
330
17B9C
100
AcDbEntity
  8
寸法
 62
     0
 48
50.0
370
    -2
100
AcDbBlockReference
  2
_DOTSMALL
 10
8475.404752503713
 20
10135.75467753396
 30
0.0
 41
100.0
 42
100.0
 43
100.0
  0
MTEXT
  5
18C5D
330
17B9C
100
AcDbEntity
  8
寸法
 62
     7
 48
50.0
100
AcDbMText
 10
8166.919471129473
 20
10235.75467753396
 30
0.0
 40
120.0
 41
0.0
 71
     5
 72
     1
  1
\A1;55
  7
STYLE1
 73
     1
 44
1.0
1001
ACAD
1000
MTEXTBEGIN
1070
    73
1070
     1
1070
    44
1040
1.0
1070
    74
1070
     0
1000
MTEXTEND
  0
POINT
  5
18C5E
330
17B9C
100
AcDbEntity
  8
DEFPOINTS
 62
     0
 48
50.0
100
AcDbPoint
 10
8475.404752503713
 20
9835.754677533966
 30
0.0
  0
POINT
  5
18C5F
330
17B9C
100
AcDbEntity
  8
DEFPOINTS
 62
     0
 48
50.0
100
AcDbPoint
 10
8530.404752503748
 20
9835.754677533966
 30
0.0
  0
POINT
  5
18C60
330
17B9C
100
AcDbEntity
  8
DEFPOINTS
 62
     0
 48
50.0
100
AcDbPoint
 10
8530.404752503748
 20
10135.75467753396
 30
0.0
  0
ENDBLK
  5
17BA9
330
17B9C
100
AcDbEntity
  8
0
 48
50.0
100
AcDbBlockEnd
  0
BLOCK
  5
17BB4
330
17BAA
100
AcDbEntity
  8
0
 48
50.0
100
AcDbBlockBegin
  2
*D13
 70
     1
 10
0.0
 20
0.0
 30
0.0
  3
*D13
  1

  0
LINE
  5
18569
330
17BAA
100
AcDbEntity
  8
寸法
 62
     0
 48
50.0
370
    -2
100
AcDbLine
 10
8575.404752503741
 20
2340.96395924404
 30
0.0
 11
8575.404752503741
 21
2014.916629943662
 31
0.0
  0
LINE
  5
1856A
330
17BAA
100
AcDbEntity
  8
寸法
 62
     0
 48
50.0
370
    -2
100
AcDbLine
 10
8375.404752503738
 20
2340.96395924404
 30
0.0
 11
8375.404752503738
 21
2014.916629943662
 31
0.0
  0
LINE
  5
1856B
330
17BAA
100
AcDbEntity
  8
寸法
 62
     0
 48
50.0
370
    -2
100
AcDbLine
 10
8575.404752503741
 20
2074.916629943662
 30
0.0
 11
8375.404752503738
 21
2074.916629943662
 31
0.0
  0
INSERT
  5
1856C
330
17BAA
100
AcDbEntity
  8
寸法
 62
     0
 48
50.0
370
    -2
100
AcDbBlockReference
  2
_DOTSMALL
 10
8575.404752503741
 20
2074.916629943662
 30
0.0
 41
100.0
 42
100.0
 43
100.0
  0
INSERT
  5
1856D
330
17BAA
100
AcDbEntity
  8
寸法
 62
     0
 48
50.0
370
    -2
100
AcDbBlockReference
  2
_DOTSMALL
 10
8375.404752503738
 20
2074.916629943662
 30
0.0
 41
100.0
 42
100.0
 43
100.0
 50
180.0
  0
MTEXT
  5
1856E
330
17BAA
100
AcDbEntity
  8
寸法
 62
     7
 48
50.0
100
AcDbMText
 10
8475.40475250374
 20
2174.928440967284
 30
0.0
 40
120.0
 41
0.0
 71
     5
 72
     1
  1
\A1;200
  7
STYLE1
 73
     1
 44
1.0
1001
ACAD
1000
MTEXTBEGIN
1070
    73
1070
     1
1070
    44
1040
1.0
1070
    74
1070
     0
1000
MTEXTEND
  0
POINT
  5
1856F
330
17BAA
100
AcDbEntity
  8
DEFPOINTS
 62
     0
 48
50.0
100
AcDbPoint
 10
8575.404752503741
 20
2360.96395924404
 30
0.0
  0
POINT
  5
18570
330
17BAA
100
AcDbEntity
  8
DEFPOINTS
 62
     0
 48
50.0
100
AcDbPoint
 10
8375.404752503738
 20
2360.96395924404
 30
0.0
  0
POINT
  5
18571
330
17BAA
100
AcDbEntity
  8
DEFPOINTS
 62
     0
 48
50.0
100
AcDbPoint
 10
8375.404752503738
 20
2074.916629943662
 30
0.0
  0
ENDBLK
  5
17BB5
330
17BAA
100
AcDbEntity
  8
0
 48
50.0
100
AcDbBlockEnd
  0
BLOCK
  5
17BC0
330
17BB6
100
AcDbEntity
  8
0
 48
50.0
100
AcDbBlockBegin
  2
*D14
 70
     1
 10
0.0
 20
0.0
 30
0.0
  3
*D14
  1

  0
LINE
  5
18560
330
17BB6
100
AcDbEntity
  8
寸法
 62
     0
 48
50.0
370
    -2
100
AcDbLine
 10
8903.404752503741
 20
4443.963959244039
 30
0.0
 11
8122.179946032725
 21
4443.963959244039
 31
0.0
  0
LINE
  5
18561
330
17BB6
100
AcDbEntity
  8
寸法
 62
     0
 48
50.0
370
    -2
100
AcDbLine
 10
8903.404752503741
 20
2718.963959244039
 30
0.0
 11
8122.179946032725
 21
2718.963959244039
 31
0.0
  0
LINE
  5
18562
330
17BB6
100
AcDbEntity
  8
寸法
 62
     0
 48
50.0
370
    -2
100
AcDbLine
 10
8182.179946032725
 20
4443.963959244039
 30
0.0
 11
8182.179946032725
 21
2718.963959244039
 31
0.0
  0
INSERT
  5
18563
330
17BB6
100
AcDbEntity
  8
寸法
 62
     0
 48
50.0
370
    -2
100
AcDbBlockReference
  2
_DOTSMALL
 10
8182.179946032725
 20
4443.963959244039
 30
0.0
 41
100.0
 42
100.0
 43
100.0
 50
90.0
  0
INSERT
  5
18564
330
17BB6
100
AcDbEntity
  8
寸法
 62
     0
 48
50.0
370
    -2
100
AcDbBlockReference
  2
_DOTSMALL
 10
8182.179946032725
 20
2718.963959244039
 30
0.0
 41
100.0
 42
100.0
 43
100.0
 50
270.0
  0
MTEXT
  5
18565
330
17BB6
100
AcDbEntity
  8
寸法
 62
     7
 48
50.0
100
AcDbMText
 10
8082.168135009103
 20
3620.892579453001
 30
0.0
 40
120.0
 41
0.0
 71
     5
 72
     1
  1
\A1;有効開口部高サ1725
  7
STYLE1
 11
0.0000000000000001
 21
1.0
 31
0.0
 73
     1
 44
1.0
1001
ACAD
1000
MTEXTBEGIN
1070
    73
1070
     1
1070
    44
1040
1.0
1070
    74
1070
     0
1000
MTEXTEND
  0
POINT
  5
18566
330
17BB6
100
AcDbEntity
  8
DEFPOINTS
 62
     0
 48
50.0
100
AcDbPoint
 10
8923.40475250374
 20
4443.963959244039
 30
0.0
  0
POINT
  5
18567
330
17BB6
100
AcDbEntity
  8
DEFPOINTS
 62
     0
 48
50.0
100
AcDbPoint
 10
8923.40475250374
 20
2718.963959244039
 30
0.0
  0
POINT
  5
18568
330
17BB6
100
AcDbEntity
  8
DEFPOINTS
 62
     0
 48
50.0
100
AcDbPoint
 10
8182.179946032725
 20
2718.963959244039
 30
0.0
  0
ENDBLK
  5
17BC1
330
17BB6
100
AcDbEntity
  8
0
 48
50.0
100
AcDbBlockEnd
  0
BLOCK
  5
17BCD
330
17BC2
100
AcDbEntity
  8
0
 48
50.0
100
AcDbBlockBegin
  2
*D15
 70
     1
 10
0.0
 20
0.0
 30
0.0
  3
*D15
  1

  0
LINE
  5
18556
330
17BC2
100
AcDbEntity
  8
寸法
 62
     0
 48
50.0
370
    -2
100
AcDbLine
 10
8414.809038794841
 20
4735.261666313701
 30
0.0
 11
7798.874599689563
 21
4752.97581658803
 31
0.0
  0
LINE
  5
18557
330
17BC2
100
AcDbEntity
  8
寸法
 62
     0
 48
50.0
370
    -2
100
AcDbLine
 10
8410.755583238215
 20
4594.319942547988
 30
0.0
 11
7794.821144132936
 21
4612.034092822317
 31
0.0
  0
LINE
  5
18558
330
17BC2
100
AcDbEntity
  8
寸法
 62
     0
 48
50.0
370
    -2
100
AcDbLine
 10
7854.796345735369
 20
4610.309218117368
 30
0.0
 11
7858.849801291994
 21
4751.250941883082
 31
0.0
  0
LINE
  5
18559
330
17BC2
100
AcDbEntity
  8
寸法
 62
     0
 48
50.0
370
    -2
100
AcDbLine
 10
7858.849801291994
 20
4751.250941883082
 30
0.0
 11
7869.199049521679
 21
5111.102151497672
 31
0.0
  0
INSERT
  5
1855A
330
17BC2
100
AcDbEntity
  8
寸法
 62
     0
 48
50.0
370
    -2
100
AcDbBlockReference
  2
_DOTSMALL
 10
7854.796345735369
 20
4610.309218117368
 30
0.0
 41
100.0
 42
100.0
 43
100.0
 50
268.3526390256379
  0
INSERT
  5
1855B
330
17BC2
100
AcDbEntity
  8
寸法
 62
     0
 48
50.0
370
    -2
100
AcDbBlockReference
  2
_DOTSMALL
 10
7858.849801291994
 20
4751.250941883082
 30
0.0
 41
100.0
 42
100.0
 43
100.0
 50
88.35263902563784
  0
MTEXT
  5
1855C
330
17BC2
100
AcDbEntity
  8
寸法
 62
     7
 48
50.0
100
AcDbMText
 10
7765.503151656909
 20
4984.030672533986
 30
0.0
 40
120.0
 41
0.0
 71
     5
 72
     1
  1
\A1;141
  7
STYLE1
 11
0.0287479117491228
 21
0.9995866933738486
 31
0.0
 73
     1
 44
1.0
1001
ACAD
1000
MTEXTBEGIN
1070
    73
1070
     1
1070
    44
1040
1.0
1070
    74
1070
     0
1000
MTEXTEND
  0
POINT
  5
1855D
330
17BC2
100
AcDbEntity
  8
DEFPOINTS
 62
     0
 48
50.0
100
AcDbPoint
 10
8434.800772662319
 20
4734.686708078719
 30
0.0
  0
POINT
  5
1855E
330
17BC2
100
AcDbEntity
  8
DEFPOINTS
 62
     0
 48
50.0
100
AcDbPoint
 10
8430.747317105691
 20
4593.744984313005
 30
0.0
  0
POINT
  5
1855F
330
17BC2
100
AcDbEntity
  8
DEFPOINTS
 62
     0
 48
50.0
100
AcDbPoint
 10
7854.796345735369
 20
4610.309218117368
 30
0.0
  0
ENDBLK
  5
17BCE
330
17BC2
100
AcDbEntity
  8
0
 48
50.0
100
AcDbBlockEnd
  0
BLOCK
  5
17BD9
330
17BCF
100
AcDbEntity
  8
0
 48
50.0
100
AcDbBlockBegin
  2
*D16
 70
     1
 10
0.0
 20
0.0
 30
0.0
  3
*D16
  1

  0
LINE
  5
1854D
330
17BCF
100
AcDbEntity
  8
寸法
 62
     0
 48
50.0
370
    -2
100
AcDbLine
 10
8455.404752503739
 20
2660.96395924404
 30
0.0
 11
7506.765370574381
 21
2660.96395924404
 31
0.0
  0
LINE
  5
1854E
330
17BCF
100
AcDbEntity
  8
寸法
 62
     0
 48
50.0
370
    -2
100
AcDbLine
 10
8395.404752503738
 20
4735.963959244045
 30
0.0
 11
7506.765370574381
 21
4735.963959244045
 31
0.0
  0
LINE
  5
1854F
330
17BCF
100
AcDbEntity
  8
寸法
 62
     0
 48
50.0
370
    -2
100
AcDbLine
 10
7566.76537057438
 20
2660.96395924404
 30
0.0
 11
7566.76537057438
 21
4735.963959244045
 31
0.0
  0
INSERT
  5
18550
330
17BCF
100
AcDbEntity
  8
寸法
 62
     0
 48
50.0
370
    -2
100
AcDbBlockReference
  2
_DOTSMALL
 10
7566.76537057438
 20
2660.96395924404
 30
0.0
 41
100.0
 42
100.0
 43
100.0
 50
270.0
  0
INSERT
  5
18551
330
17BCF
100
AcDbEntity
  8
寸法
 62
     0
 48
50.0
370
    -2
100
AcDbBlockReference
  2
_DOTSMALL
 10
7566.76537057438
 20
4735.963959244045
 30
0.0
 41
100.0
 42
100.0
 43
100.0
 50
90.0
  0
MTEXT
  5
18552
330
17BCF
100
AcDbEntity
  8
寸法
 62
     7
 48
50.0
100
AcDbMText
 10
7466.753559550759
 20
3655.16983673715
 30
0.0
 40
120.0
 41
0.0
 71
     5
 72
     1
  1
\A1;2075
  7
STYLE1
 11
0.0000000000000001
 21
1.0
 31
0.0
 73
     1
 44
1.0
1001
ACAD
1000
MTEXTBEGIN
1070
    73
1070
     1
1070
    44
1040
1.0
1070
    74
1070
     0
1000
MTEXTEND
  0
POINT
  5
18553
330
17BCF
100
AcDbEntity
  8
DEFPOINTS
 62
     0
 48
50.0
100
AcDbPoint
 10
8475.40475250374
 20
2660.96395924404
 30
0.0
  0
POINT
  5
18554
330
17BCF
100
AcDbEntity
  8
DEFPOINTS
 62
     0
 48
50.0
100
AcDbPoint
 10
8415.404752503738
 20
4735.963959244045
 30
0.0
  0
POINT
  5
18555
330
17BCF
100
AcDbEntity
  8
DEFPOINTS
 62
     0
 48
50.0
100
AcDbPoint
 10
7566.76537057438
 20
4735.963959244045
 30
0.0
  0
ENDBLK
  5
17BDA
330
17BCF
100
AcDbEntity
  8
0
 48
50.0
100
AcDbBlockEnd
  0
BLOCK
  5
17BE5
330
17BDB
100
AcDbEntity
  8
0
 48
50.0
100
AcDbBlockBegin
  2
*D17
 70
     1
 10
0.0
 20
0.0
 30
0.0
  3
*D17
  1

  0
LINE
  5
18544
330
17BDB
100
AcDbEntity
  8
寸法
 62
     0
 48
50.0
370
    -2
100
AcDbLine
 10
8455.404752503739
 20
4500.96395924404
 30
0.0
 11
7791.752043345443
 21
4500.96395924404
 31
0.0
  0
LINE
  5
18545
330
17BDB
100
AcDbEntity
  8
寸法
 62
     0
 48
50.0
370
    -2
100
AcDbLine
 10
8455.404752503739
 20
2710.96395924404
 30
0.0
 11
7791.752043345443
 21
2710.96395924404
 31
0.0
  0
LINE
  5
18546
330
17BDB
100
AcDbEntity
  8
寸法
 62
     0
 48
50.0
370
    -2
100
AcDbLine
 10
7851.752043345442
 20
4500.96395924404
 30
0.0
 11
7851.752043345442
 21
2710.96395924404
 31
0.0
  0
INSERT
  5
18547
330
17BDB
100
AcDbEntity
  8
寸法
 62
     0
 48
50.0
370
    -2
100
AcDbBlockReference
  2
_DOTSMALL
 10
7851.752043345442
 20
4500.96395924404
 30
0.0
 41
100.0
 42
100.0
 43
100.0
 50
90.0
  0
INSERT
  5
18548
330
17BDB
100
AcDbEntity
  8
寸法
 62
     0
 48
50.0
370
    -2
100
AcDbBlockReference
  2
_DOTSMALL
 10
7851.752043345442
 20
2710.96395924404
 30
0.0
 41
100.0
 42
100.0
 43
100.0
 50
270.0
  0
MTEXT
  5
18549
330
17BDB
100
AcDbEntity
  8
寸法
 62
     7
 48
50.0
100
AcDbMText
 10
7751.75204334544
 20
3601.418257785998
 30
0.0
 40
120.0
 41
0.0
 71
     5
 72
     1
  1
\A1;1790
  7
STYLE1
 11
0.0000000000000001
 21
1.0
 31
0.0
 73
     1
 44
1.0
1001
ACAD
1000
MTEXTBEGIN
1070
    73
1070
     1
1070
    44
1040
1.0
1070
    74
1070
     0
1000
MTEXTEND
  0
POINT
  5
1854A
330
17BDB
100
AcDbEntity
  8
DEFPOINTS
 62
     0
 48
50.0
100
AcDbPoint
 10
8475.40475250374
 20
4500.96395924404
 30
0.0
  0
POINT
  5
1854B
330
17BDB
100
AcDbEntity
  8
DEFPOINTS
 62
     0
 48
50.0
100
AcDbPoint
 10
8475.40475250374
 20
2710.96395924404
 30
0.0
  0
POINT
  5
1854C
330
17BDB
100
AcDbEntity
  8
DEFPOINTS
 62
     0
 48
50.0
100
AcDbPoint
 10
7851.752043345442
 20
2710.96395924404
 30
0.0
  0
ENDBLK
  5
17BE6
330
17BDB
100
AcDbEntity
  8
0
 48
50.0
100
AcDbBlockEnd
  0
BLOCK
  5
17BF3
330
17BE7
100
AcDbEntity
  8
0
 48
50.0
100
AcDbBlockBegin
  2
*D18
 70
     1
 10
0.0
 20
0.0
 30
0.0
  3
*D18
  1

  0
LINE
  5
18539
330
17BE7
100
AcDbEntity
  8
寸法
 62
     0
 48
50.0
370
    -2
100
AcDbLine
 10
8455.404752503739
 20
2710.96395924404
 30
0.0
 11
7791.752043345443
 21
2710.96395924404
 31
0.0
  0
LINE
  5
1853A
330
17BE7
100
AcDbEntity
  8
寸法
 62
     0
 48
50.0
370
    -2
100
AcDbLine
 10
8400.404752503739
 20
2660.96395924404
 30
0.0
 11
7791.752043345443
 21
2660.96395924404
 31
0.0
  0
LINE
  5
1853B
330
17BE7
100
AcDbEntity
  8
寸法
 62
     0
 48
50.0
370
    -2
100
AcDbLine
 10
7851.752043345442
 20
2710.96395924404
 30
0.0
 11
7851.752043345442
 21
2810.96395924404
 31
0.0
  0
LINE
  5
1853C
330
17BE7
100
AcDbEntity
  8
寸法
 62
     0
 48
50.0
370
    -2
100
AcDbLine
 10
7851.752043345442
 20
2660.96395924404
 30
0.0
 11
7851.752043345442
 21
2248.86947105506
 31
0.0
  0
LINE
  5
1853D
330
17BE7
100
AcDbEntity
  8
寸法
 62
     0
 48
50.0
370
    -2
100
AcDbLine
 10
7851.752043345442
 20
2710.96395924404
 30
0.0
 11
7851.752043345442
 21
2660.96395924404
 31
0.0
  0
INSERT
  5
1853E
330
17BE7
100
AcDbEntity
  8
寸法
 62
     0
 48
50.0
370
    -2
100
AcDbBlockReference
  2
_DOTSMALL
 10
7851.752043345442
 20
2710.96395924404
 30
0.0
 41
100.0
 42
100.0
 43
100.0
 50
270.0
  0
INSERT
  5
1853F
330
17BE7
100
AcDbEntity
  8
寸法
 62
     0
 48
50.0
370
    -2
100
AcDbBlockReference
  2
_DOTSMALL
 10
7851.752043345442
 20
2660.96395924404
 30
0.0
 41
100.0
 42
100.0
 43
100.0
 50
90.0
  0
MTEXT
  5
18540
330
17BE7
100
AcDbEntity
  8
寸法
 62
     7
 48
50.0
100
AcDbMText
 10
7751.75204334544
 20
2354.91671514955
 30
0.0
 40
120.0
 41
0.0
 71
     5
 72
     1
  1
\A1;50
  7
STYLE1
 11
0.0000000000000001
 21
1.0
 31
0.0
 73
     1
 44
1.0
1001
ACAD
1000
MTEXTBEGIN
1070
    73
1070
     1
1070
    44
1040
1.0
1070
    74
1070
     0
1000
MTEXTEND
  0
POINT
  5
18541
330
17BE7
100
AcDbEntity
  8
DEFPOINTS
 62
     0
 48
50.0
100
AcDbPoint
 10
8475.40475250374
 20
2710.96395924404
 30
0.0
  0
POINT
  5
18542
330
17BE7
100
AcDbEntity
  8
DEFPOINTS
 62
     0
 48
50.0
100
AcDbPoint
 10
8420.404752503738
 20
2660.96395924404
 30
0.0
  0
POINT
  5
18543
330
17BE7
100
AcDbEntity
  8
DEFPOINTS
 62
     0
 48
50.0
100
AcDbPoint
 10
7851.752043345442
 20
2660.96395924404
 30
0.0
  0
ENDBLK
  5
17BF4
330
17BE7
100
AcDbEntity
  8
0
 48
50.0
100
AcDbBlockEnd
  0
BLOCK
  5
17C00
330
17BF5
100
AcDbEntity
  8
0
 48
50.0
100
AcDbBlockBegin
  2
*D19
 70
     1
 10
0.0
 20
0.0
 30
0.0
  3
*D19
  1

  0
LINE
  5
1852F
330
17BF5
100
AcDbEntity
  8
寸法
 62
     0
 48
50.0
370
    -2
100
AcDbLine
 10
8400.404752503739
 20
2660.96395924404
 30
0.0
 11
7506.765370574381
 21
2660.96395924404
 31
0.0
  0
LINE
  5
18530
330
17BF5
100
AcDbEntity
  8
寸法
 62
     0
 48
50.0
370
    -2
100
AcDbLine
 10
7831.752043345442
 20
2560.96395924404
 30
0.0
 11
7506.765370574381
 21
2560.96395924404
 31
0.0
  0
LINE
  5
18531
330
17BF5
100
AcDbEntity
  8
寸法
 62
     0
 48
50.0
370
    -2
100
AcDbLine
 10
7566.76537057438
 20
2660.96395924404
 30
0.0
 11
7566.76537057438
 21
2560.96395924404
 31
0.0
  0
LINE
  5
18532
330
17BF5
100
AcDbEntity
  8
寸法
 62
     0
 48
50.0
370
    -2
100
AcDbLine
 10
7566.76537057438
 20
2560.96395924404
 30
0.0
 11
7566.76537057438
 21
2188.86947105506
 31
0.0
  0
INSERT
  5
18533
330
17BF5
100
AcDbEntity
  8
寸法
 62
     0
 48
50.0
370
    -2
100
AcDbBlockReference
  2
_DOTSMALL
 10
7566.76537057438
 20
2660.96395924404
 30
0.0
 41
100.0
 42
100.0
 43
100.0
 50
90.0
  0
INSERT
  5
18534
330
17BF5
100
AcDbEntity
  8
寸法
 62
     0
 48
50.0
370
    -2
100
AcDbBlockReference
  2
_DOTSMALL
 10
7566.76537057438
 20
2560.96395924404
 30
0.0
 41
100.0
 42
100.0
 43
100.0
 50
270.0
  0
MTEXT
  5
18535
330
17BF5
100
AcDbEntity
  8
寸法
 62
     7
 48
50.0
100
AcDbMText
 10
7466.76537057438
 20
2324.91671514955
 30
0.0
 40
120.0
 41
0.0
 71
     5
 72
     1
  1
\A1;100
  7
STYLE1
 11
0.0000000000000001
 21
1.0
 31
0.0
 73
     1
 44
1.0
1001
ACAD
1000
MTEXTBEGIN
1070
    73
1070
     1
1070
    44
1040
1.0
1070
    74
1070
     0
1000
MTEXTEND
  0
POINT
  5
18536
330
17BF5
100
AcDbEntity
  8
DEFPOINTS
 62
     0
 48
50.0
100
AcDbPoint
 10
8420.404752503738
 20
2660.96395924404
 30
0.0
  0
POINT
  5
18537
330
17BF5
100
AcDbEntity
  8
DEFPOINTS
 62
     0
 48
50.0
100
AcDbPoint
 10
7851.752043345441
 20
2560.96395924404
 30
0.0
  0
POINT
  5
18538
330
17BF5
100
AcDbEntity
  8
DEFPOINTS
 62
     0
 48
50.0
100
AcDbPoint
 10
7566.76537057438
 20
2560.96395924404
 30
0.0
  0
ENDBLK
  5
17C01
330
17BF5
100
AcDbEntity
  8
0
 48
50.0
100
AcDbBlockEnd
  0
BLOCK
  5
17C0D
330
17C02
100
AcDbEntity
  8
0
 48
50.0
100
AcDbBlockBegin
  2
*D20
 70
     1
 10
0.0
 20
0.0
 30
0.0
  3
*D20
  1

  0
LINE
  5
18525
330
17C02
100
AcDbEntity
  8
寸法
 62
     0
 48
50.0
370
    -2
100
AcDbLine
 10
11105.40475250374
 20
4702.774638855694
 30
0.0
 11
11105.40475250374
 21
5194.621412823344
 31
0.0
  0
LINE
  5
18526
330
17C02
100
AcDbEntity
  8
寸法
 62
     0
 48
50.0
370
    -2
100
AcDbLine
 10
11185.40475250374
 20
4700.963959244041
 30
0.0
 11
11185.40475250374
 21
5194.621412823344
 31
0.0
  0
LINE
  5
18527
330
17C02
100
AcDbEntity
  8
寸法
 62
     0
 48
50.0
370
    -2
100
AcDbLine
 10
11105.40475250374
 20
5134.621412823345
 30
0.0
 11
11185.40475250374
 21
5134.621412823345
 31
0.0
  0
LINE
  5
18528
330
17C02
100
AcDbEntity
  8
寸法
 62
     0
 48
50.0
370
    -2
100
AcDbLine
 10
11185.40475250374
 20
5134.621412823345
 30
0.0
 11
11497.49924069272
 21
5134.621412823345
 31
0.0
  0
INSERT
  5
18529
330
17C02
100
AcDbEntity
  8
寸法
 62
     0
 48
50.0
370
    -2
100
AcDbBlockReference
  2
_DOTSMALL
 10
11105.40475250374
 20
5134.621412823345
 30
0.0
 41
100.0
 42
100.0
 43
100.0
 50
180.0
  0
INSERT
  5
1852A
330
17C02
100
AcDbEntity
  8
寸法
 62
     0
 48
50.0
370
    -2
100
AcDbBlockReference
  2
_DOTSMALL
 10
11185.40475250374
 20
5134.621412823345
 30
0.0
 41
100.0
 42
100.0
 43
100.0
  0
MTEXT
  5
1852B
330
17C02
100
AcDbEntity
  8
寸法
 62
     7
 48
50.0
100
AcDbMText
 10
11391.45199659823
 20
5234.621412823345
 30
0.0
 40
120.0
 41
0.0
 71
     5
 72
     1
  1
\A1;80
  7
STYLE1
 73
     1
 44
1.0
1001
ACAD
1000
MTEXTBEGIN
1070
    73
1070
     1
1070
    44
1040
1.0
1070
    74
1070
     0
1000
MTEXTEND
  0
POINT
  5
1852C
330
17C02
100
AcDbEntity
  8
DEFPOINTS
 62
     0
 48
50.0
100
AcDbPoint
 10
11105.40475250374
 20
4682.774638855694
 30
0.0
  0
POINT
  5
1852D
330
17C02
100
AcDbEntity
  8
DEFPOINTS
 62
     0
 48
50.0
100
AcDbPoint
 10
11185.40475250374
 20
4680.963959244041
 30
0.0
  0
POINT
  5
1852E
330
17C02
100
AcDbEntity
  8
DEFPOINTS
 62
     0
 48
50.0
100
AcDbPoint
 10
11185.40475250374
 20
5134.621412823345
 30
0.0
  0
ENDBLK
  5
17C0E
330
17C02
100
AcDbEntity
  8
0
 48
50.0
100
AcDbBlockEnd
  0
BLOCK
  5
17C19
330
17C0F
100
AcDbEntity
  8
0
 48
50.0
100
AcDbBlockBegin
  2
*D21
 70
     1
 10
0.0
 20
0.0
 30
0.0
  3
*D21
  1

  0
LINE
  5
1851C
330
17C0F
100
AcDbEntity
  8
寸法
 62
     0
 48
50.0
370
    -2
100
AcDbLine
 10
11185.40475250374
 20
4700.963959244041
 30
0.0
 11
11185.40475250374
 21
5414.832099554963
 31
0.0
  0
LINE
  5
1851D
330
17C0F
100
AcDbEntity
  8
寸法
 62
     0
 48
50.0
370
    -2
100
AcDbLine
 10
8415.404752503743
 20
4755.963959244044
 30
0.0
 11
8415.404752503743
 21
5414.832099554963
 31
0.0
  0
LINE
  5
1851E
330
17C0F
100
AcDbEntity
  8
寸法
 62
     0
 48
50.0
370
    -2
100
AcDbLine
 10
11185.40475250374
 20
5354.832099554962
 30
0.0
 11
8415.404752503743
 21
5354.832099554962
 31
0.0
  0
INSERT
  5
1851F
330
17C0F
100
AcDbEntity
  8
寸法
 62
     0
 48
50.0
370
    -2
100
AcDbBlockReference
  2
_DOTSMALL
 10
11185.40475250374
 20
5354.832099554962
 30
0.0
 41
100.0
 42
100.0
 43
100.0
  0
INSERT
  5
18520
330
17C0F
100
AcDbEntity
  8
寸法
 62
     0
 48
50.0
370
    -2
100
AcDbBlockReference
  2
_DOTSMALL
 10
8415.404752503743
 20
5354.832099554962
 30
0.0
 41
100.0
 42
100.0
 43
100.0
 50
180.0
  0
MTEXT
  5
18521
330
17C0F
100
AcDbEntity
  8
寸法
 62
     7
 48
50.0
100
AcDbMText
 10
9818.763677391117
 20
5454.843910578584
 30
0.0
 40
120.0
 41
0.0
 71
     5
 72
     1
  1
\A1;2770
  7
STYLE1
 73
     1
 44
1.0
1001
ACAD
1000
MTEXTBEGIN
1070
    73
1070
     1
1070
    44
1040
1.0
1070
    74
1070
     0
1000
MTEXTEND
  0
POINT
  5
18522
330
17C0F
100
AcDbEntity
  8
DEFPOINTS
 62
     0
 48
50.0
100
AcDbPoint
 10
11185.40475250374
 20
4680.963959244041
 30
0.0
  0
POINT
  5
18523
330
17C0F
100
AcDbEntity
  8
DEFPOINTS
 62
     0
 48
50.0
100
AcDbPoint
 10
8415.404752503743
 20
4735.963959244045
 30
0.0
  0
POINT
  5
18524
330
17C0F
100
AcDbEntity
  8
DEFPOINTS
 62
     0
 48
50.0
100
AcDbPoint
 10
8415.404752503743
 20
5354.832099554962
 30
0.0
  0
ENDBLK
  5
17C1A
330
17C0F
100
AcDbEntity
  8
0
 48
50.0
100
AcDbBlockEnd
  0
BLOCK
  5
17C25
330
17C1B
100
AcDbEntity
  8
0
 48
50.0
100
AcDbBlockBegin
  2
*D22
 70
     1
 10
0.0
 20
0.0
 30
0.0
  3
*D22
  1

  0
LINE
  5
18513
330
17C1B
100
AcDbEntity
  8
寸法
 62
     0
 48
50.0
370
    -2
100
AcDbLine
 10
11105.40475250374
 20
4702.774638855694
 30
0.0
 11
11105.40475250374
 21
5194.621412823344
 31
0.0
  0
LINE
  5
18514
330
17C1B
100
AcDbEntity
  8
寸法
 62
     0
 48
50.0
370
    -2
100
AcDbLine
 10
8475.404752503742
 20
4751.965577367016
 30
0.0
 11
8475.404752503742
 21
5194.621412823344
 31
0.0
  0
LINE
  5
18515
330
17C1B
100
AcDbEntity
  8
寸法
 62
     0
 48
50.0
370
    -2
100
AcDbLine
 10
11105.40475250374
 20
5134.621412823345
 30
0.0
 11
8475.404752503742
 21
5134.621412823345
 31
0.0
  0
INSERT
  5
18516
330
17C1B
100
AcDbEntity
  8
寸法
 62
     0
 48
50.0
370
    -2
100
AcDbBlockReference
  2
_DOTSMALL
 10
11105.40475250374
 20
5134.621412823345
 30
0.0
 41
100.0
 42
100.0
 43
100.0
  0
INSERT
  5
18517
330
17C1B
100
AcDbEntity
  8
寸法
 62
     0
 48
50.0
370
    -2
100
AcDbBlockReference
  2
_DOTSMALL
 10
8475.404752503742
 20
5134.621412823345
 30
0.0
 41
100.0
 42
100.0
 43
100.0
 50
180.0
  0
MTEXT
  5
18518
330
17C1B
100
AcDbEntity
  8
寸法
 62
     7
 48
50.0
100
AcDbMText
 10
9830.174943532938
 20
5234.633223846967
 30
0.0
 40
120.0
 41
0.0
 71
     5
 72
     1
  1
\A1;柱外寸法2630
  7
STYLE1
 73
     1
 44
1.0
1001
ACAD
1000
MTEXTBEGIN
1070
    73
1070
     1
1070
    44
1040
1.0
1070
    74
1070
     0
1000
MTEXTEND
  0
POINT
  5
18519
330
17C1B
100
AcDbEntity
  8
DEFPOINTS
 62
     0
 48
50.0
100
AcDbPoint
 10
11105.40475250374
 20
4682.774638855694
 30
0.0
  0
POINT
  5
1851A
330
17C1B
100
AcDbEntity
  8
DEFPOINTS
 62
     0
 48
50.0
100
AcDbPoint
 10
8475.404752503742
 20
4731.965577367016
 30
0.0
  0
POINT
  5
1851B
330
17C1B
100
AcDbEntity
  8
DEFPOINTS
 62
     0
 48
50.0
100
AcDbPoint
 10
8475.404752503742
 20
5134.621412823345
 30
0.0
  0
ENDBLK
  5
17C26
330
17C1B
100
AcDbEntity
  8
0
 48
50.0
100
AcDbBlockEnd
  0
BLOCK
  5
17C33
330
17C27
100
AcDbEntity
  8
0
 48
50.0
100
AcDbBlockBegin
  2
*D23
 70
     1
 10
0.0
 20
0.0
 30
0.0
  3
*D23
  1

  0
LINE
  5
18508
330
17C27
100
AcDbEntity
  8
寸法
 62
     0
 48
50.0
370
    -2
100
AcDbLine
 10
8475.404752503742
 20
4751.965577367016
 30
0.0
 11
8475.404752503742
 21
5194.621412823344
 31
0.0
  0
LINE
  5
18509
330
17C27
100
AcDbEntity
  8
寸法
 62
     0
 48
50.0
370
    -2
100
AcDbLine
 10
8415.404752503743
 20
4755.963959244044
 30
0.0
 11
8415.404752503743
 21
5194.621412823344
 31
0.0
  0
LINE
  5
1850A
330
17C27
100
AcDbEntity
  8
寸法
 62
     0
 48
50.0
370
    -2
100
AcDbLine
 10
8475.404752503742
 20
5134.621412823344
 30
0.0
 11
8575.404752503741
 21
5134.621412823344
 31
0.0
  0
LINE
  5
1850B
330
17C27
100
AcDbEntity
  8
寸法
 62
     0
 48
50.0
370
    -2
100
AcDbLine
 10
8415.404752503743
 20
5134.621412823344
 30
0.0
 11
7996.129161952561
 21
5134.621412823344
 31
0.0
  0
LINE
  5
1850C
330
17C27
100
AcDbEntity
  8
寸法
 62
     0
 48
50.0
370
    -2
100
AcDbLine
 10
8475.404752503742
 20
5134.621412823344
 30
0.0
 11
8415.404752503743
 21
5134.621412823344
 31
0.0
  0
INSERT
  5
1850D
330
17C27
100
AcDbEntity
  8
寸法
 62
     0
 48
50.0
370
    -2
100
AcDbBlockReference
  2
_DOTSMALL
 10
8475.404752503742
 20
5134.621412823344
 30
0.0
 41
100.0
 42
100.0
 43
100.0
 50
180.0
  0
INSERT
  5
1850E
330
17C27
100
AcDbEntity
  8
寸法
 62
     0
 48
50.0
370
    -2
100
AcDbBlockReference
  2
_DOTSMALL
 10
8415.404752503743
 20
5134.621412823344
 30
0.0
 41
100.0
 42
100.0
 43
100.0
  0
MTEXT
  5
1850F
330
17C27
100
AcDbEntity
  8
寸法
 62
     7
 48
50.0
100
AcDbMText
 10
8105.766957228153
 20
5234.621412823344
 30
0.0
 40
120.0
 41
0.0
 71
     5
 72
     1
  1
\A1;60
  7
STYLE1
 73
     1
 44
1.0
1001
ACAD
1000
MTEXTBEGIN
1070
    73
1070
     1
1070
    44
1040
1.0
1070
    74
1070
     0
1000
MTEXTEND
  0
POINT
  5
18510
330
17C27
100
AcDbEntity
  8
DEFPOINTS
 62
     0
 48
50.0
100
AcDbPoint
 10
8475.404752503742
 20
4731.965577367016
 30
0.0
  0
POINT
  5
18511
330
17C27
100
AcDbEntity
  8
DEFPOINTS
 62
     0
 48
50.0
100
AcDbPoint
 10
8415.404752503743
 20
4735.963959244045
 30
0.0
  0
POINT
  5
18512
330
17C27
100
AcDbEntity
  8
DEFPOINTS
 62
     0
 48
50.0
100
AcDbPoint
 10
8415.404752503743
 20
5134.621412823344
 30
0.0
  0
ENDBLK
  5
17C34
330
17C27
100
AcDbEntity
  8
0
 48
50.0
100
AcDbBlockEnd
  0
BLOCK
  5
181F3
330
181E7
100
AcDbEntity
  8
0
 48
50.0
100
AcDbBlockBegin
  2
*D24
 70
     1
 10
0.0
 20
0.0
 30
0.0
  3
*D24
  1

  0
LINE
  5
184FD
330
181E7
100
AcDbEntity
  8
寸法
 62
     0
 48
50.0
370
    -2
100
AcDbLine
 10
6423.307723166484
 20
4755.963959244042
 30
0.0
 11
6423.307723166484
 21
5200.584218671312
 31
0.0
  0
LINE
  5
184FE
330
181E7
100
AcDbEntity
  8
寸法
 62
     0
 48
50.0
370
    -2
100
AcDbLine
 10
6373.307723166483
 20
4755.963959244046
 30
0.0
 11
6373.307723166483
 21
5200.584218671312
 31
0.0
  0
LINE
  5
184FF
330
181E7
100
AcDbEntity
  8
寸法
 62
     0
 48
50.0
370
    -2
100
AcDbLine
 10
6373.307723166483
 20
5140.584218671311
 30
0.0
 11
6273.307723166483
 21
5140.584218671311
 31
0.0
  0
LINE
  5
18500
330
181E7
100
AcDbEntity
  8
寸法
 62
     0
 48
50.0
370
    -2
100
AcDbLine
 10
6423.307723166484
 20
5140.584218671311
 30
0.0
 11
6842.840248635204
 21
5140.584218671311
 31
0.0
  0
LINE
  5
18501
330
181E7
100
AcDbEntity
  8
寸法
 62
     0
 48
50.0
370
    -2
100
AcDbLine
 10
6373.307723166483
 20
5140.584218671311
 30
0.0
 11
6423.307723166484
 21
5140.584218671311
 31
0.0
  0
INSERT
  5
18502
330
181E7
100
AcDbEntity
  8
寸法
 62
     0
 48
50.0
370
    -2
100
AcDbBlockReference
  2
_DOTSMALL
 10
6373.307723166483
 20
5140.584218671311
 30
0.0
 41
100.0
 42
100.0
 43
100.0
  0
INSERT
  5
18503
330
181E7
100
AcDbEntity
  8
寸法
 62
     0
 48
50.0
370
    -2
100
AcDbBlockReference
  2
_DOTSMALL
 10
6423.307723166484
 20
5140.584218671311
 30
0.0
 41
100.0
 42
100.0
 43
100.0
 50
180.0
  0
MTEXT
  5
18504
330
181E7
100
AcDbEntity
  8
寸法
 62
     7
 48
50.0
100
AcDbMText
 10
6736.793004540716
 20
5240.584218671312
 30
0.0
 40
120.0
 41
0.0
 71
     5
 72
     1
  1
\A1;50
  7
STYLE1
 73
     1
 44
1.0
1001
ACAD
1000
MTEXTBEGIN
1070
    73
1070
     1
1070
    44
1040
1.0
1070
    74
1070
     0
1000
MTEXTEND
  0
POINT
  5
18505
330
181E7
100
AcDbEntity
  8
DEFPOINTS
 62
     0
 48
50.0
100
AcDbPoint
 10
6423.307723166484
 20
4735.963959244042
 30
0.0
  0
POINT
  5
18506
330
181E7
100
AcDbEntity
  8
DEFPOINTS
 62
     0
 48
50.0
100
AcDbPoint
 10
6373.307723166483
 20
4735.963959244046
 30
0.0
  0
POINT
  5
18507
330
181E7
100
AcDbEntity
  8
DEFPOINTS
 62
     0
 48
50.0
100
AcDbPoint
 10
6373.307723166483
 20
5140.584218671311
 30
0.0
  0
ENDBLK
  5
181F4
330
181E7
100
AcDbEntity
  8
0
 48
50.0
100
AcDbBlockEnd
  0
BLOCK
  5
181FF
330
181F5
100
AcDbEntity
  8
0
 48
50.0
100
AcDbBlockBegin
  2
*D25
 70
     1
 10
0.0
 20
0.0
 30
0.0
  3
*D25
  1

  0
LINE
  5
184F4
330
181F5
100
AcDbEntity
  8
寸法
 62
     0
 48
50.0
370
    -2
100
AcDbLine
 10
6373.307723166483
 20
4755.963959244046
 30
0.0
 11
6373.307723166483
 21
5200.584218671312
 31
0.0
  0
LINE
  5
184F5
330
181F5
100
AcDbEntity
  8
寸法
 62
     0
 48
50.0
370
    -2
100
AcDbLine
 10
4163.307723166479
 20
4755.963959244046
 30
0.0
 11
4163.307723166479
 21
5200.584218671312
 31
0.0
  0
LINE
  5
184F6
330
181F5
100
AcDbEntity
  8
寸法
 62
     0
 48
50.0
370
    -2
100
AcDbLine
 10
6373.307723166483
 20
5140.584218671311
 30
0.0
 11
4163.307723166479
 21
5140.584218671311
 31
0.0
  0
INSERT
  5
184F7
330
181F5
100
AcDbEntity
  8
寸法
 62
     0
 48
50.0
370
    -2
100
AcDbBlockReference
  2
_DOTSMALL
 10
6373.307723166483
 20
5140.584218671311
 30
0.0
 41
100.0
 42
100.0
 43
100.0
  0
INSERT
  5
184F8
330
181F5
100
AcDbEntity
  8
寸法
 62
     0
 48
50.0
370
    -2
100
AcDbBlockReference
  2
_DOTSMALL
 10
4163.307723166479
 20
5140.584218671311
 30
0.0
 41
100.0
 42
100.0
 43
100.0
 50
180.0
  0
MTEXT
  5
184F9
330
181F5
100
AcDbEntity
  8
寸法
 62
     7
 48
50.0
100
AcDbMText
 10
5268.307723166479
 20
5240.596029694933
 30
0.0
 40
120.0
 41
0.0
 71
     5
 72
     1
  1
\A1;柱外寸法2210
  7
STYLE1
 73
     1
 44
1.0
1001
ACAD
1000
MTEXTBEGIN
1070
    73
1070
     1
1070
    44
1040
1.0
1070
    74
1070
     0
1000
MTEXTEND
  0
POINT
  5
184FA
330
181F5
100
AcDbEntity
  8
DEFPOINTS
 62
     0
 48
50.0
100
AcDbPoint
 10
6373.307723166483
 20
4735.963959244046
 30
0.0
  0
POINT
  5
184FB
330
181F5
100
AcDbEntity
  8
DEFPOINTS
 62
     0
 48
50.0
100
AcDbPoint
 10
4163.307723166479
 20
4735.963959244046
 30
0.0
  0
POINT
  5
184FC
330
181F5
100
AcDbEntity
  8
DEFPOINTS
 62
     0
 48
50.0
100
AcDbPoint
 10
4163.307723166479
 20
5140.584218671311
 30
0.0
  0
ENDBLK
  5
18200
330
181F5
100
AcDbEntity
  8
0
 48
50.0
100
AcDbBlockEnd
  0
BLOCK
  5
1820D
330
18201
100
AcDbEntity
  8
0
 48
50.0
100
AcDbBlockBegin
  2
*D26
 70
     1
 10
0.0
 20
0.0
 30
0.0
  3
*D26
  1

  0
LINE
  5
184E9
330
18201
100
AcDbEntity
  8
寸法
 62
     0
 48
50.0
370
    -2
100
AcDbLine
 10
4163.307723166479
 20
4755.963959244046
 30
0.0
 11
4163.307723166479
 21
5200.584218671312
 31
0.0
  0
LINE
  5
184EA
330
18201
100
AcDbEntity
  8
寸法
 62
     0
 48
50.0
370
    -2
100
AcDbLine
 10
4113.307723166479
 20
4755.963959244046
 30
0.0
 11
4113.307723166479
 21
5200.584218671312
 31
0.0
  0
LINE
  5
184EB
330
18201
100
AcDbEntity
  8
寸法
 62
     0
 48
50.0
370
    -2
100
AcDbLine
 10
4163.307723166479
 20
5140.584218671311
 30
0.0
 11
4263.307723166479
 21
5140.584218671311
 31
0.0
  0
LINE
  5
184EC
330
18201
100
AcDbEntity
  8
寸法
 62
     0
 48
50.0
370
    -2
100
AcDbLine
 10
4113.307723166479
 20
5140.584218671311
 30
0.0
 11
3693.775197697744
 21
5140.584218671311
 31
0.0
  0
LINE
  5
184ED
330
18201
100
AcDbEntity
  8
寸法
 62
     0
 48
50.0
370
    -2
100
AcDbLine
 10
4163.307723166479
 20
5140.584218671311
 30
0.0
 11
4113.307723166479
 21
5140.584218671311
 31
0.0
  0
INSERT
  5
184EE
330
18201
100
AcDbEntity
  8
寸法
 62
     0
 48
50.0
370
    -2
100
AcDbBlockReference
  2
_DOTSMALL
 10
4163.307723166479
 20
5140.584218671311
 30
0.0
 41
100.0
 42
100.0
 43
100.0
 50
180.0
  0
INSERT
  5
184EF
330
18201
100
AcDbEntity
  8
寸法
 62
     0
 48
50.0
370
    -2
100
AcDbBlockReference
  2
_DOTSMALL
 10
4113.307723166479
 20
5140.584218671311
 30
0.0
 41
100.0
 42
100.0
 43
100.0
  0
MTEXT
  5
184F0
330
18201
100
AcDbEntity
  8
寸法
 62
     7
 48
50.0
100
AcDbMText
 10
3799.822441792232
 20
5240.584218671312
 30
0.0
 40
120.0
 41
0.0
 71
     5
 72
     1
  1
\A1;50
  7
STYLE1
 73
     1
 44
1.0
1001
ACAD
1000
MTEXTBEGIN
1070
    73
1070
     1
1070
    44
1040
1.0
1070
    74
1070
     0
1000
MTEXTEND
  0
POINT
  5
184F1
330
18201
100
AcDbEntity
  8
DEFPOINTS
 62
     0
 48
50.0
100
AcDbPoint
 10
4163.307723166479
 20
4735.963959244046
 30
0.0
  0
POINT
  5
184F2
330
18201
100
AcDbEntity
  8
DEFPOINTS
 62
     0
 48
50.0
100
AcDbPoint
 10
4113.307723166479
 20
4735.963959244046
 30
0.0
  0
POINT
  5
184F3
330
18201
100
AcDbEntity
  8
DEFPOINTS
 62
     0
 48
50.0
100
AcDbPoint
 10
4113.307723166479
 20
5140.584218671311
 30
0.0
  0
ENDBLK
  5
1820E
330
18201
100
AcDbEntity
  8
0
 48
50.0
100
AcDbBlockEnd
  0
BLOCK
  5
18219
330
1820F
100
AcDbEntity
  8
0
 48
50.0
100
AcDbBlockBegin
  2
*D27
 70
     1
 10
0.0
 20
0.0
 30
0.0
  3
*D27
  1

  0
LINE
  5
184E0
330
1820F
100
AcDbEntity
  8
寸法
 62
     0
 48
50.0
370
    -2
100
AcDbLine
 10
4113.307723166479
 20
4755.963959244046
 30
0.0
 11
4113.307723166479
 21
5410.178093092762
 31
0.0
  0
LINE
  5
184E1
330
1820F
100
AcDbEntity
  8
寸法
 62
     0
 48
50.0
370
    -2
100
AcDbLine
 10
6423.307723166484
 20
4755.963959244042
 30
0.0
 11
6423.307723166484
 21
5410.178093092762
 31
0.0
  0
LINE
  5
184E2
330
1820F
100
AcDbEntity
  8
寸法
 62
     0
 48
50.0
370
    -2
100
AcDbLine
 10
4113.307723166479
 20
5350.178093092762
 30
0.0
 11
6423.307723166484
 21
5350.178093092762
 31
0.0
  0
INSERT
  5
184E3
330
1820F
100
AcDbEntity
  8
寸法
 62
     0
 48
50.0
370
    -2
100
AcDbBlockReference
  2
_DOTSMALL
 10
4113.307723166479
 20
5350.178093092762
 30
0.0
 41
100.0
 42
100.0
 43
100.0
 50
180.0
  0
INSERT
  5
184E4
330
1820F
100
AcDbEntity
  8
寸法
 62
     0
 48
50.0
370
    -2
100
AcDbBlockReference
  2
_DOTSMALL
 10
6423.307723166484
 20
5350.178093092762
 30
0.0
 41
100.0
 42
100.0
 43
100.0
  0
MTEXT
  5
184E5
330
1820F
100
AcDbEntity
  8
寸法
 62
     7
 48
50.0
100
AcDbMText
 10
5268.307723166479
 20
5450.189904116385
 30
0.0
 40
120.0
 41
0.0
 71
     5
 72
     1
  1
\A1;2310
  7
STYLE1
 73
     1
 44
1.0
1001
ACAD
1000
MTEXTBEGIN
1070
    73
1070
     1
1070
    44
1040
1.0
1070
    74
1070
     0
1000
MTEXTEND
  0
POINT
  5
184E6
330
1820F
100
AcDbEntity
  8
DEFPOINTS
 62
     0
 48
50.0
100
AcDbPoint
 10
4113.307723166479
 20
4735.963959244046
 30
0.0
  0
POINT
  5
184E7
330
1820F
100
AcDbEntity
  8
DEFPOINTS
 62
     0
 48
50.0
100
AcDbPoint
 10
6423.307723166484
 20
4735.963959244042
 30
0.0
  0
POINT
  5
184E8
330
1820F
100
AcDbEntity
  8
DEFPOINTS
 62
     0
 48
50.0
100
AcDbPoint
 10
6423.307723166484
 20
5350.178093092762
 30
0.0
  0
ENDBLK
  5
1821A
330
1820F
100
AcDbEntity
  8
0
 48
50.0
100
AcDbBlockEnd
  0
BLOCK
  5
18225
330
1821B
100
AcDbEntity
  8
0
 48
50.0
100
AcDbBlockBegin
  2
*D28
 70
     1
 10
0.0
 20
0.0
 30
0.0
  3
*D28
  1

  0
LINE
  5
184D7
330
1821B
100
AcDbEntity
  8
寸法
 62
     0
 48
50.0
370
    -2
100
AcDbLine
 10
4290.807723166479
 20
2340.963959244039
 30
0.0
 11
4290.807723166479
 21
2014.916629943663
 31
0.0
  0
LINE
  5
184D8
330
1821B
100
AcDbEntity
  8
寸法
 62
     0
 48
50.0
370
    -2
100
AcDbLine
 10
4090.807723166483
 20
2340.963959244041
 30
0.0
 11
4090.807723166483
 21
2014.916629943663
 31
0.0
  0
LINE
  5
184D9
330
1821B
100
AcDbEntity
  8
寸法
 62
     0
 48
50.0
370
    -2
100
AcDbLine
 10
4290.807723166479
 20
2074.916629943663
 30
0.0
 11
4090.807723166483
 21
2074.916629943663
 31
0.0
  0
INSERT
  5
184DA
330
1821B
100
AcDbEntity
  8
寸法
 62
     0
 48
50.0
370
    -2
100
AcDbBlockReference
  2
_DOTSMALL
 10
4290.807723166479
 20
2074.916629943663
 30
0.0
 41
100.0
 42
100.0
 43
100.0
  0
INSERT
  5
184DB
330
1821B
100
AcDbEntity
  8
寸法
 62
     0
 48
50.0
370
    -2
100
AcDbBlockReference
  2
_DOTSMALL
 10
4090.807723166483
 20
2074.916629943663
 30
0.0
 41
100.0
 42
100.0
 43
100.0
 50
180.0
  0
MTEXT
  5
184DC
330
1821B
100
AcDbEntity
  8
寸法
 62
     7
 48
50.0
100
AcDbMText
 10
4190.807723166481
 20
2174.928440967285
 30
0.0
 40
120.0
 41
0.0
 71
     5
 72
     1
  1
\A1;200
  7
STYLE1
 73
     1
 44
1.0
1001
ACAD
1000
MTEXTBEGIN
1070
    73
1070
     1
1070
    44
1040
1.0
1070
    74
1070
     0
1000
MTEXTEND
  0
POINT
  5
184DD
330
1821B
100
AcDbEntity
  8
DEFPOINTS
 62
     0
 48
50.0
100
AcDbPoint
 10
4290.807723166479
 20
2360.963959244039
 30
0.0
  0
POINT
  5
184DE
330
1821B
100
AcDbEntity
  8
DEFPOINTS
 62
     0
 48
50.0
100
AcDbPoint
 10
4090.807723166483
 20
2360.963959244041
 30
0.0
  0
POINT
  5
184DF
330
1821B
100
AcDbEntity
  8
DEFPOINTS
 62
     0
 48
50.0
100
AcDbPoint
 10
4090.807723166483
 20
2074.916629943663
 30
0.0
  0
ENDBLK
  5
18226
330
1821B
100
AcDbEntity
  8
0
 48
50.0
100
AcDbBlockEnd
  0
BLOCK
  5
18231
330
18227
100
AcDbEntity
  8
0
 48
50.0
100
AcDbBlockBegin
  2
*D29
 70
     1
 10
0.0
 20
0.0
 30
0.0
  3
*D29
  1

  0
LINE
  5
184CE
330
18227
100
AcDbEntity
  8
寸法
 62
     0
 48
50.0
370
    -2
100
AcDbLine
 10
4070.807723166483
 20
2360.963959244041
 30
0.0
 11
3881.307719919846
 21
2360.963959244041
 31
0.0
  0
LINE
  5
184CF
330
18227
100
AcDbEntity
  8
寸法
 62
     0
 48
50.0
370
    -2
100
AcDbLine
 10
4045.807723166479
 20
2560.963959244041
 30
0.0
 11
3881.307719919846
 21
2560.963959244041
 31
0.0
  0
LINE
  5
184D0
330
18227
100
AcDbEntity
  8
寸法
 62
     0
 48
50.0
370
    -2
100
AcDbLine
 10
3941.307719919846
 20
2360.963959244041
 30
0.0
 11
3941.307719919846
 21
2560.963959244041
 31
0.0
  0
INSERT
  5
184D1
330
18227
100
AcDbEntity
  8
寸法
 62
     0
 48
50.0
370
    -2
100
AcDbBlockReference
  2
_DOTSMALL
 10
3941.307719919846
 20
2360.963959244041
 30
0.0
 41
100.0
 42
100.0
 43
100.0
 50
270.0
  0
INSERT
  5
184D2
330
18227
100
AcDbEntity
  8
寸法
 62
     0
 48
50.0
370
    -2
100
AcDbBlockReference
  2
_DOTSMALL
 10
3941.307719919846
 20
2560.963959244041
 30
0.0
 41
100.0
 42
100.0
 43
100.0
 50
90.0
  0
MTEXT
  5
184D3
330
18227
100
AcDbEntity
  8
寸法
 62
     7
 48
50.0
100
AcDbMText
 10
3841.295908896223
 20
2460.963959244041
 30
0.0
 40
120.0
 41
0.0
 71
     5
 72
     1
  1
\A1;200
  7
STYLE1
 11
0.0000000000000001
 21
1.0
 31
0.0
 73
     1
 44
1.0
1001
ACAD
1000
MTEXTBEGIN
1070
    73
1070
     1
1070
    44
1040
1.0
1070
    74
1070
     0
1000
MTEXTEND
  0
POINT
  5
184D4
330
18227
100
AcDbEntity
  8
DEFPOINTS
 62
     0
 48
50.0
100
AcDbPoint
 10
4090.807723166483
 20
2360.963959244041
 30
0.0
  0
POINT
  5
184D5
330
18227
100
AcDbEntity
  8
DEFPOINTS
 62
     0
 48
50.0
100
AcDbPoint
 10
4065.807723166479
 20
2560.963959244041
 30
0.0
  0
POINT
  5
184D6
330
18227
100
AcDbEntity
  8
DEFPOINTS
 62
     0
 48
50.0
100
AcDbPoint
 10
3941.307719919846
 20
2560.963959244041
 30
0.0
  0
ENDBLK
  5
18232
330
18227
100
AcDbEntity
  8
0
 48
50.0
100
AcDbBlockEnd
  0
BLOCK
  5
187AB
330
187A1
100
AcDbEntity
  8
0
 48
50.0
100
AcDbBlockBegin
  2
*D30
 70
     1
 10
0.0
 20
0.0
 30
0.0
  3
*D30
  1

  0
LINE
  5
18C4D
330
187A1
100
AcDbEntity
  8
寸法
 62
     0
 48
50.0
370
    -2
100
AcDbLine
 10
8962.404752503717
 20
7528.75467753405
 30
0.0
 11
8962.404752503717
 21
6875.774348288586
 31
0.0
  0
LINE
  5
18C4E
330
187A1
100
AcDbEntity
  8
寸法
 62
     0
 48
50.0
370
    -2
100
AcDbLine
 10
10228.40475250371
 20
7528.75467753405
 30
0.0
 11
10228.40475250371
 21
6875.774348288586
 31
0.0
  0
LINE
  5
18C4F
330
187A1
100
AcDbEntity
  8
寸法
 62
     0
 48
50.0
370
    -2
100
AcDbLine
 10
8982.404752503716
 20
6915.774348288585
 30
0.0
 11
10208.40475250371
 21
6915.774348288585
 31
0.0
  0
INSERT
  5
18C50
330
187A1
100
AcDbEntity
  8
寸法
 62
     0
 48
50.0
370
    -2
100
AcDbBlockReference
  2
_DOT
 10
8962.404752503717
 20
6915.774348288585
 30
0.0
 41
20.0
 42
20.0
 43
20.0
 50
180.0
  0
INSERT
  5
18C51
330
187A1
100
AcDbEntity
  8
寸法
 62
     0
 48
50.0
370
    -2
100
AcDbBlockReference
  2
_DOT
 10
10228.40475250371
 20
6915.774348288585
 30
0.0
 41
20.0
 42
20.0
 43
20.0
  0
MTEXT
  5
18C52
330
187A1
100
AcDbEntity
  8
寸法
 62
     7
 48
50.0
100
AcDbMText
 10
9608.125088012618
 20
7107.786159312206
 30
0.0
 40
120.0
 41
0.0
 71
     5
 72
     1
  1
\A1;有効開口部間口\P1266
  7
STYLE1
 73
     1
 44
1.0
1001
ACAD
1000
MTEXTBEGIN
1070
    73
1070
     1
1070
    44
1040
1.0
1070
    74
1070
     0
1000
MTEXTEND
  0
POINT
  5
18C53
330
187A1
100
AcDbEntity
  8
DEFPOINTS
 62
     0
 48
50.0
100
AcDbPoint
 10
8962.404752503717
 20
7548.75467753405
 30
0.0
  0
POINT
  5
18C54
330
187A1
100
AcDbEntity
  8
DEFPOINTS
 62
     0
 48
50.0
100
AcDbPoint
 10
10228.40475250371
 20
7548.75467753405
 30
0.0
  0
POINT
  5
18C55
330
187A1
100
AcDbEntity
  8
DEFPOINTS
 62
     0
 48
50.0
100
AcDbPoint
 10
10228.40475250371
 20
6915.774348288585
 30
0.0
  0
ENDBLK
  5
187AC
330
187A1
100
AcDbEntity
  8
0
 48
50.0
100
AcDbBlockEnd
  0
BLOCK
  5
18AE2
330
18AD8
100
AcDbEntity
  8
0
 48
50.0
100
AcDbBlockBegin
  2
*D31
 70
     1
 10
0.0
 20
0.0
 30
0.0
  3
*D31
  1

  0
LINE
  5
18C44
330
18AD8
100
AcDbEntity
  8
寸法
 62
     0
 48
50.0
370
    -2
100
AcDbLine
 10
8923.404752503717
 20
7528.754677533921
 30
0.0
 11
8923.404752503717
 21
6568.624962106153
 31
0.0
  0
LINE
  5
18C45
330
18AD8
100
AcDbEntity
  8
寸法
 62
     0
 48
50.0
370
    -2
100
AcDbLine
 10
11077.40475250371
 20
7528.754677533921
 30
0.0
 11
11077.40475250371
 21
6568.624962106153
 31
0.0
  0
LINE
  5
18C46
330
18AD8
100
AcDbEntity
  8
寸法
 62
     0
 48
50.0
370
    -2
100
AcDbLine
 10
8923.404752503717
 20
6628.624962106153
 30
0.0
 11
11077.40475250371
 21
6628.624962106153
 31
0.0
  0
INSERT
  5
18C47
330
18AD8
100
AcDbEntity
  8
寸法
 62
     0
 48
50.0
370
    -2
100
AcDbBlockReference
  2
_DOTSMALL
 10
8923.404752503717
 20
6628.624962106153
 30
0.0
 41
100.0
 42
100.0
 43
100.0
 50
180.0
  0
INSERT
  5
18C48
330
18AD8
100
AcDbEntity
  8
寸法
 62
     0
 48
50.0
370
    -2
100
AcDbBlockReference
  2
_DOTSMALL
 10
11077.40475250371
 20
6628.624962106153
 30
0.0
 41
100.0
 42
100.0
 43
100.0
  0
MTEXT
  5
18C49
330
18AD8
100
AcDbEntity
  8
寸法
 62
     7
 48
50.0
100
AcDbMText
 10
10022.53750925103
 20
6728.636773129776
 30
0.0
 40
120.0
 41
0.0
 71
     5
 72
     1
  1
\A1;2154
  7
STYLE1
 73
     1
 44
1.0
1001
ACAD
1000
MTEXTBEGIN
1070
    73
1070
     1
1070
    44
1040
1.0
1070
    74
1070
     0
1000
MTEXTEND
  0
POINT
  5
18C4A
330
18AD8
100
AcDbEntity
  8
DEFPOINTS
 62
     0
 48
50.0
100
AcDbPoint
 10
8923.404752503717
 20
7548.754677533921
 30
0.0
  0
POINT
  5
18C4B
330
18AD8
100
AcDbEntity
  8
DEFPOINTS
 62
     0
 48
50.0
100
AcDbPoint
 10
11077.40475250371
 20
7548.754677533921
 30
0.0
  0
POINT
  5
18C4C
330
18AD8
100
AcDbEntity
  8
DEFPOINTS
 62
     0
 48
50.0
100
AcDbPoint
 10
11077.40475250371
 20
6628.624962106153
 30
0.0
  0
ENDBLK
  5
18AE3
330
18AD8
100
AcDbEntity
  8
0
 48
50.0
100
AcDbBlockEnd
  0
BLOCK
  5
18AF0
330
18AE4
100
AcDbEntity
  8
0
 48
50.0
100
AcDbBlockBegin
  2
*D32
 70
     1
 10
0.0
 20
0.0
 30
0.0
  3
*D32
  1

  0
LINE
  5
18C39
330
18AE4
100
AcDbEntity
  8
寸法
 62
     0
 48
50.0
370
    -2
100
AcDbLine
 10
8455.404752503742
 20
7625.754677533887
 30
0.0
 11
8140.793506877026
 21
7625.754677533887
 31
0.0
  0
LINE
  5
18C3A
330
18AE4
100
AcDbEntity
  8
寸法
 62
     0
 48
50.0
370
    -2
100
AcDbLine
 10
8903.404752503716
 20
7550.754677533887
 30
0.0
 11
8140.793506877026
 21
7550.754677533887
 31
0.0
  0
LINE
  5
18C3B
330
18AE4
100
AcDbEntity
  8
寸法
 62
     0
 48
50.0
370
    -2
100
AcDbLine
 10
8180.793506877026
 20
7645.754677533886
 30
0.0
 11
8180.793506877026
 21
7665.754677533887
 31
0.0
  0
LINE
  5
18C3C
330
18AE4
100
AcDbEntity
  8
寸法
 62
     0
 48
50.0
370
    -2
100
AcDbLine
 10
8180.793506877026
 20
7530.754677533888
 30
0.0
 11
8180.793506877026
 21
7309.784114785408
 31
0.0
  0
LINE
  5
18C3D
330
18AE4
100
AcDbEntity
  8
寸法
 62
     0
 48
50.0
370
    -2
100
AcDbLine
 10
8180.793506877026
 20
7625.754677533887
 30
0.0
 11
8180.793506877026
 21
7550.754677533887
 31
0.0
  0
INSERT
  5
18C3E
330
18AE4
100
AcDbEntity
  8
寸法
 62
     0
 48
50.0
370
    -2
100
AcDbBlockReference
  2
_DOT
 10
8180.793506877026
 20
7625.754677533887
 30
0.0
 41
20.0
 42
20.0
 43
20.0
 50
270.0
  0
INSERT
  5
18C3F
330
18AE4
100
AcDbEntity
  8
寸法
 62
     0
 48
50.0
370
    -2
100
AcDbBlockReference
  2
_DOT
 10
8180.793506877026
 20
7550.754677533887
 30
0.0
 41
20.0
 42
20.0
 43
20.0
 50
90.0
  0
MTEXT
  5
18C40
330
18AE4
100
AcDbEntity
  8
寸法
 62
     7
 48
50.0
100
AcDbMText
 10
8088.793506877024
 20
7410.269396159648
 30
0.0
 40
120.0
 41
0.0
 71
     5
 72
     1
  1
\A1;75
  7
STYLE1
 11
0.0000000000000001
 21
1.0
 31
0.0
 73
     1
 44
1.0
1001
ACAD
1000
MTEXTBEGIN
1070
    73
1070
     1
1070
    44
1040
1.0
1070
    74
1070
     0
1000
MTEXTEND
  0
POINT
  5
18C41
330
18AE4
100
AcDbEntity
  8
DEFPOINTS
 62
     0
 48
50.0
100
AcDbPoint
 10
8475.404752503742
 20
7625.754677533887
 30
0.0
  0
POINT
  5
18C42
330
18AE4
100
AcDbEntity
  8
DEFPOINTS
 62
     0
 48
50.0
100
AcDbPoint
 10
8923.404752503717
 20
7550.754677533887
 30
0.0
  0
POINT
  5
18C43
330
18AE4
100
AcDbEntity
  8
DEFPOINTS
 62
     0
 48
50.0
100
AcDbPoint
 10
8180.793506877026
 20
7550.754677533887
 30
0.0
  0
ENDBLK
  5
18AF1
330
18AE4
100
AcDbEntity
  8
0
 48
50.0
100
AcDbBlockEnd
  0
BLOCK
  5
18B3C
330
18B32
100
AcDbEntity
  8
0
 48
50.0
100
AcDbBlockBegin
  2
*D33
 70
     1
 10
0.0
 20
0.0
 30
0.0
  3
*D33
  1

  0
LINE
  5
18C30
330
18B32
100
AcDbEntity
  8
寸法
 62
     0
 48
50.0
370
    -2
100
AcDbLine
 10
8475.404752503742
 20
7605.754677533887
 30
0.0
 11
8475.404752503742
 21
6309.367160471141
 31
0.0
  0
LINE
  5
18C31
330
18B32
100
AcDbEntity
  8
寸法
 62
     0
 48
50.0
370
    -2
100
AcDbLine
 10
11105.40475250372
 20
7605.754677534051
 30
0.0
 11
11105.40475250372
 21
6309.367160471141
 31
0.0
  0
LINE
  5
18C32
330
18B32
100
AcDbEntity
  8
寸法
 62
     0
 48
50.0
370
    -2
100
AcDbLine
 10
8475.404752503742
 20
6369.367160471141
 30
0.0
 11
11105.40475250372
 21
6369.367160471141
 31
0.0
  0
INSERT
  5
18C33
330
18B32
100
AcDbEntity
  8
寸法
 62
     0
 48
50.0
370
    -2
100
AcDbBlockReference
  2
_DOTSMALL
 10
8475.404752503742
 20
6369.367160471141
 30
0.0
 41
100.0
 42
100.0
 43
100.0
 50
180.0
  0
INSERT
  5
18C34
330
18B32
100
AcDbEntity
  8
寸法
 62
     0
 48
50.0
370
    -2
100
AcDbBlockReference
  2
_DOTSMALL
 10
11105.40475250372
 20
6369.367160471141
 30
0.0
 41
100.0
 42
100.0
 43
100.0
  0
MTEXT
  5
18C35
330
18B32
100
AcDbEntity
  8
寸法
 62
     7
 48
50.0
100
AcDbMText
 10
9808.206541139892
 20
6469.378971494762
 30
0.0
 40
120.0
 41
0.0
 71
     5
 72
     1
  1
\A1;2630
  7
STYLE1
 73
     1
 44
1.0
1001
ACAD
1000
MTEXTBEGIN
1070
    73
1070
     1
1070
    44
1040
1.0
1070
    74
1070
     0
1000
MTEXTEND
  0
POINT
  5
18C36
330
18B32
100
AcDbEntity
  8
DEFPOINTS
 62
     0
 48
50.0
100
AcDbPoint
 10
8475.404752503742
 20
7625.754677533887
 30
0.0
  0
POINT
  5
18C37
330
18B32
100
AcDbEntity
  8
DEFPOINTS
 62
     0
 48
50.0
100
AcDbPoint
 10
11105.40475250372
 20
7625.754677534051
 30
0.0
  0
POINT
  5
18C38
330
18B32
100
AcDbEntity
  8
DEFPOINTS
 62
     0
 48
50.0
100
AcDbPoint
 10
11105.40475250372
 20
6369.367160471141
 30
0.0
  0
ENDBLK
  5
18B3D
330
18B32
100
AcDbEntity
  8
0
 48
50.0
100
AcDbBlockEnd
  0
ENDSEC
  0
SECTION
  2
ENTITIES
  0
LINE
  5
10B57
330
747D
100
AcDbEntity
  8
補助
  6
PHANTOM
 62
   230
 48
50.0
100
AcDbLine
 10
139.9999999999995
 20
11409.6
 30
0.0
 11
16307.2
 21
11409.6
 31
0.0
  0
LINE
  5
10B59
330
747D
100
AcDbEntity
  8
仕様書枠
  6
Continuous
 48
50.0
100
AcDbLine
 10
13107.2
 20
1200.0
 30
0.0
 11
13107.2
 21
-0.0000000000000729
 31
0.0
  0
LINE
  5
10B5C
330
747D
100
AcDbEntity
  8
仕様書枠
 48
50.0
100
AcDbLine
 10
16307.2
 20
1200.0
 30
0.0
 11
16307.2
 21
-0.0000000000000909
 31
0.0
  0
LINE
  5
10B5D
330
747D
100
AcDbEntity
  8
仕様書枠
 48
50.0
100
AcDbLine
 10
140.0
 20
0.0
 30
0.0
 11
16307.2
 21
-0.0000000000000909
 31
0.0
  0
LINE
  5
10B5E
330
747D
100
AcDbEntity
  8
補助
  6
PHANTOM
 62
   230
 48
50.0
100
AcDbLine
 10
16307.2
 20
11409.6
 30
0.0
 11
16307.2
 21
1200.0
 31
0.0
  0
LINE
  5
10B6C
330
747D
100
AcDbEntity
  8
仕様書枠
 48
50.0
100
AcDbLine
 10
13107.2
 20
1200.0
 30
0.0
 11
16307.2
 21
1200.0
 31
0.0
  0
LINE
  5
10B6D
330
747D
100
AcDbEntity
  8
補助
  6
PHANTOM
 62
   230
 48
50.0
100
AcDbLine
 10
13107.2
 20
11409.6
 30
0.0
 11
13107.2
 21
4800.0
 31
0.0
  0
LINE
  5
10B6F
330
747D
100
AcDbEntity
  8
補助
  6
PHANTOM
 62
   230
 48
50.0
100
AcDbLine
 10
13107.2
 20
4800.0
 30
0.0
 11
16307.2
 21
4800.0
 31
0.0
  0
LINE
  5
10B72
330
747D
100
AcDbEntity
  8
文字
 62
     7
 48
50.0
100
AcDbLine
 10
13187.2
 20
400.0
 30
0.0
 11
16227.2
 21
400.0
 31
0.0
  0
TEXT
  5
10B73
330
747D
100
AcDbEntity
  8
文字
 62
     7
 48
50.0
100
AcDbText
 10
13162.9790565769
 20
895.0906074299405
 30
0.0
 40
200.0
  1
外 形 図
  7
STYLE2
100
AcDbText
  0
TEXT
  5
10B74
330
747D
100
AcDbEntity
  8
文字
 62
     7
 48
50.0
100
AcDbText
 10
13201.43669998441
 20
477.2740661031255
 30
0.0
 40
160.0
  1
機種名
  7
STYLE2
100
AcDbText
  0
TEXT
  5
10B76
330
747D
100
AcDbEntity
  8
文字
 62
     7
 48
50.0
100
AcDbText
 10
13209.4053442172
 20
76.09434707649343
 30
0.0
 40
100.0
  1
○床面積 ： 5.98㎡(1.81坪) 　
  7
STYLE2
100
AcDbText
  0
TEXT
  5
10B79
330
747D
100
AcDbEntity
  8
文字
 62
     7
 48
50.0
100
AcDbText
 10
14524.131837222
 20
1031.557706291228
 30
0.0
 40
100.0
  1
NO.22     <縮尺> S=1/40
  7
STYLE2
100
AcDbText
  0
LINE
  5
10B7B
330
747D
100
AcDbEntity
  8
仕様書枠
 48
50.0
100
AcDbLine
 10
13107.2
 20
800.0
 30
0.0
 11
14251.2
 21
800.0
 31
0.0
  0
LINE
  5
10B88
330
747D
100
AcDbEntity
  8
仕様書枠
  6
Continuous
 48
50.0
100
AcDbLine
 10
14251.2
 20
1200.0
 30
0.0
 11
14251.2
 21
800.0
 31
0.0
  0
TEXT
  5
15729
330
747D
100
AcDbEntity
  8
文字
 62
     7
 48
50.0
100
AcDbText
 10
14622.05638072648
 20
869.7247441969318
 30
0.0
 40
100.0
  1
～一般型・多雪地型～
  7
STYLE2
100
AcDbText
  0
LINE
  5
1789C
330
747D
100
AcDbEntity
  8
部品1
100
AcDbLine
 10
11048.90475250373
 20
8100.754677534036
 30
0.0
 11
8531.904752503733
 21
8100.754677533934
 31
0.0
  0
LINE
  5
1789D
330
747D
100
AcDbEntity
  8
部品1
100
AcDbLine
 10
8503.404752503724
 20
8100.754677533934
 30
0.0
 11
8475.404752503724
 21
8100.754677533934
 31
0.0
  0
LINE
  5
1789E
330
747D
100
AcDbEntity
  8
部品1
100
AcDbLine
 10
11077.40475250375
 20
8100.754677534061
 30
0.0
 11
11105.40475250375
 21
8100.754677534061
 31
0.0
  0
DIMENSION
  5
1789F
330
747D
100
AcDbEntity
  8
寸法
100
AcDbDimension
  2
*D2
 10
11640.57484826616
 20
4680.963959244041
 30
0.0
 11
11640.57484826616
 21
3643.220286673728
 31
0.0
 70
   160
 71
     5
 42
2020.000000000003
  3
INABA_S40G
100
AcDbAlignedDimension
 13
11105.40475250374
 23
2660.96395924404
 33
0.0
 14
11185.40475250372
 24
4680.963959244041
 34
0.0
 50
90.0
100
AcDbRotatedDimension
1001
ACAD
1000
DSTYLE
1002
{
1070
   174
1070
     0
1070
   272
1070
     1
1070
   288
1070
     0
1070
   341
1005
0
1002
}
  0
TEXT
  5
178F1
330
747D
100
AcDbEntity
  8
文字
 62
     7
 48
50.0
100
AcDbText
 10
13209.4053442172
 20
228.543524256902
 30
0.0
 40
100.0
  1
○有効開口寸法 ： 1266×1725(mm)
  7
STYLE2
100
AcDbText
  0
TEXT
  5
178F2
330
747D
100
AcDbEntity
  8
文字
 62
     7
 48
50.0
100
AcDbText
 10
14491.96323844892
 20
483.8967129911416
 30
0.0
 40
160.0
  1
ＮＸＮ－６０ＳＢ
  7
STYLE2
100
AcDbText
  0
LINE
  5
178F4
330
747D
100
AcDbEntity
  8
細線
 48
50.0
100
AcDbLine
 10
8872.904752503741
 20
4500.96395924404
 30
0.0
 11
8872.904752503741
 21
2710.96395924404
 31
0.0
  0
LINE
  5
178F5
330
747D
100
AcDbEntity
  8
細線
 48
50.0
100
AcDbLine
 10
8887.904752503741
 20
4500.96395924404
 30
0.0
 11
8887.904752503741
 21
2710.96395924404
 31
0.0
  0
LINE
  5
178F6
330
747D
100
AcDbEntity
  8
細線
 48
50.0
100
AcDbLine
 10
8747.904752503741
 20
4500.96395924404
 30
0.0
 11
8747.904752503741
 21
2710.96395924404
 31
0.0
  0
LINE
  5
178F7
330
747D
100
AcDbEntity
  8
細線
 48
50.0
100
AcDbLine
 10
8732.90475250374
 20
4500.96395924404
 30
0.0
 11
8732.90475250374
 21
2710.96395924404
 31
0.0
  0
LINE
  5
178F8
330
747D
100
AcDbEntity
  8
細線
 48
50.0
100
AcDbLine
 10
8592.90475250374
 20
4500.96395924404
 30
0.0
 11
8592.90475250374
 21
2710.96395924404
 31
0.0
  0
LINE
  5
178F9
330
747D
100
AcDbEntity
  8
細線
 48
50.0
100
AcDbLine
 10
8607.90475250374
 20
4500.96395924404
 30
0.0
 11
8607.90475250374
 21
2710.96395924404
 31
0.0
  0
LINE
  5
179AA
330
747D
100
AcDbEntity
  8
部品1
 48
50.0
100
AcDbLine
 10
9757.404752503738
 20
4443.963959268807
 30
0.0
 11
9757.404752503738
 21
2710.963959244037
 31
0.0
  0
LINE
  5
179AB
330
747D
100
AcDbEntity
  8
部品1
100
AcDbLine
 10
10411.40474280859
 20
4443.96395928119
 30
0.0
 11
10411.4047428086
 21
2718.463959281205
 31
0.0
  0
LINE
  5
179AC
330
747D
100
AcDbEntity
  8
細線
100
AcDbLine
 10
9657.40475250374
 20
4443.963959244039
 30
0.0
 11
9657.404752503737
 21
2710.963959244047
 31
0.0
  0
LINE
  5
179AD
330
747D
100
AcDbEntity
  8
細線
100
AcDbLine
 10
9587.404752503742
 20
4443.963959244039
 30
0.0
 11
9587.404752503736
 21
2710.963959244047
 31
0.0
  0
LINE
  5
179AE
330
747D
100
AcDbEntity
  8
細線
100
AcDbLine
 10
9517.404752503741
 20
4443.963959244039
 30
0.0
 11
9517.404752503736
 21
2710.963959244044
 31
0.0
  0
LINE
  5
179AF
330
747D
100
AcDbEntity
  8
細線
100
AcDbLine
 10
9447.404752503741
 20
4443.963959244039
 30
0.0
 11
9447.404752503736
 21
2710.963959244044
 31
0.0
  0
LINE
  5
179B0
330
747D
100
AcDbEntity
  8
細線
100
AcDbLine
 10
9377.404752503741
 20
4443.963959244039
 30
0.0
 11
9377.404752503737
 21
2710.963959244044
 31
0.0
  0
LINE
  5
179B1
330
747D
100
AcDbEntity
  8
細線
100
AcDbLine
 10
9307.404752503741
 20
4443.963959244039
 30
0.0
 11
9307.404752503737
 21
2710.963959244044
 31
0.0
  0
LINE
  5
179B2
330
747D
100
AcDbEntity
  8
部品1
100
AcDbLine
 10
9123.404752503736
 20
4443.963959244039
 30
0.0
 11
9123.404752503741
 21
2710.963959244044
 31
0.0
  0
LINE
  5
179B3
330
747D
100
AcDbEntity
  8
部品1
100
AcDbLine
 10
9073.404752503737
 20
4443.963959244039
 30
0.0
 11
9073.404752503741
 21
2710.963959244044
 31
0.0
  0
LINE
  5
179B4
330
747D
100
AcDbEntity
  8
細線
100
AcDbLine
 10
9115.404752503737
 20
4443.963959244039
 30
0.0
 11
9115.40475250374
 21
2710.963959244044
 31
0.0
  0
LINE
  5
179B5
330
747D
100
AcDbEntity
  8
細線
100
AcDbLine
 10
9081.404752503736
 20
4443.963959244039
 30
0.0
 11
9081.404752503742
 21
2710.963959244044
 31
0.0
  0
LINE
  5
179B6
330
747D
100
AcDbEntity
  8
細線
100
AcDbLine
 10
10308.90476225398
 20
4443.963959244039
 30
0.0
 11
10308.90476225398
 21
2718.463959244051
 31
0.0
  0
LINE
  5
179B7
330
747D
100
AcDbEntity
  8
細線
100
AcDbLine
 10
10238.90476225398
 20
4443.963959244039
 30
0.0
 11
10238.90476225398
 21
2718.463959244051
 31
0.0
  0
LINE
  5
179B8
330
747D
100
AcDbEntity
  8
細線
100
AcDbLine
 10
10168.90476225398
 20
4443.963959244039
 30
0.0
 11
10168.90476225398
 21
2718.463959244051
 31
0.0
  0
LINE
  5
179B9
330
747D
100
AcDbEntity
  8
細線
100
AcDbLine
 10
10098.90476225398
 20
4443.963959244039
 30
0.0
 11
10098.90476225398
 21
2718.463959244051
 31
0.0
  0
LINE
  5
179BA
330
747D
100
AcDbEntity
  8
細線
100
AcDbLine
 10
10028.90476225398
 20
4443.963959244039
 30
0.0
 11
10028.90476225398
 21
2718.463959244051
 31
0.0
  0
LINE
  5
179BB
330
747D
100
AcDbEntity
  8
細線
100
AcDbLine
 10
9958.904762253984
 20
4443.963959244039
 30
0.0
 11
9958.904762253984
 21
2718.463959244051
 31
0.0
  0
LINE
  5
179BC
330
747D
100
AcDbEntity
  8
細線
100
AcDbLine
 10
10884.15475250374
 20
4443.963959244039
 30
0.0
 11
10884.15475250374
 21
2718.463959244058
 31
0.0
  0
LINE
  5
179BD
330
747D
100
AcDbEntity
  8
細線
100
AcDbLine
 10
10814.15475250374
 20
4443.963959244039
 30
0.0
 11
10814.15475250374
 21
2718.463959244058
 31
0.0
  0
LINE
  5
179BE
330
747D
100
AcDbEntity
  8
細線
100
AcDbLine
 10
10744.15475250374
 20
4443.963959244039
 30
0.0
 11
10744.15475250374
 21
2718.463959244058
 31
0.0
  0
LINE
  5
179BF
330
747D
100
AcDbEntity
  8
細線
100
AcDbLine
 10
10674.15475250374
 20
4443.963959244039
 30
0.0
 11
10674.15475250374
 21
2718.463959244058
 31
0.0
  0
LINE
  5
179C0
330
747D
100
AcDbEntity
  8
細線
100
AcDbLine
 10
10604.15475250374
 20
4443.963959244039
 30
0.0
 11
10604.15475250374
 21
2718.463959244058
 31
0.0
  0
LINE
  5
179C1
330
747D
100
AcDbEntity
  8
細線
100
AcDbLine
 10
9237.40475250374
 20
4443.963959244039
 30
0.0
 11
9237.404752503737
 21
2710.963959244044
 31
0.0
  0
LINE
  5
179C2
330
747D
100
AcDbEntity
  8
細線
100
AcDbLine
 10
9167.40475250374
 20
4443.963959244039
 30
0.0
 11
9167.404752503736
 21
2710.963959244044
 31
0.0
  0
LINE
  5
179C3
330
747D
100
AcDbEntity
  8
細線
100
AcDbLine
 10
9888.904762253984
 20
4443.963959244039
 30
0.0
 11
9888.904762253984
 21
2718.463959244051
 31
0.0
  0
LINE
  5
179C4
330
747D
100
AcDbEntity
  8
細線
100
AcDbLine
 10
9818.904762253986
 20
4443.963959244039
 30
0.0
 11
9818.904762253986
 21
2718.463959244051
 31
0.0
  0
LINE
  5
179C5
330
747D
100
AcDbEntity
  8
細線
100
AcDbLine
 10
10534.15475250374
 20
4443.963959244039
 30
0.0
 11
10534.15475250374
 21
2718.463959244058
 31
0.0
  0
LINE
  5
179C6
330
747D
100
AcDbEntity
  8
部品1
 48
50.0
100
AcDbLine
 10
11077.40475250374
 20
4451.963959244039
 30
0.0
 11
11047.40475250374
 21
4451.963959244039
 31
0.0
  0
LINE
  5
179C7
330
747D
100
AcDbEntity
  8
細線
 48
50.0
100
AcDbLine
 10
11025.40475250374
 20
2707.96395924404
 30
0.0
 11
11021.40475250374
 21
2718.46395924404
 31
0.0
  0
LINE
  5
179C8
330
747D
100
AcDbEntity
  8
部品1
 48
50.0
100
AcDbLine
 10
10411.4047428086
 20
4443.963959281187
 30
0.0
 11
10411.4047428086
 21
2718.463959281188
 31
0.0
  0
LINE
  5
179C9
330
747D
100
AcDbEntity
  8
部品1
 48
50.0
100
AcDbLine
 10
11077.40475250374
 20
2660.96395924404
 30
0.0
 11
11077.40475250374
 21
4495.963959244039
 31
0.0
  0
LINE
  5
179CA
330
747D
100
AcDbEntity
  8
細線
 48
50.0
100
AcDbLine
 10
11047.40475250374
 20
2660.96395924404
 30
0.0
 11
11047.40475250374
 21
4453.463959244039
 31
0.0
  0
LINE
  5
179CB
330
747D
100
AcDbEntity
  8
部品1
 48
50.0
100
AcDbLine
 10
11038.40475250374
 20
2707.96395924404
 30
0.0
 11
11038.40475250374
 21
4443.963959244039
 31
0.0
  0
LINE
  5
179CC
330
747D
100
AcDbEntity
  8
部品1
 48
50.0
100
AcDbLine
 10
8953.404752503741
 20
4451.963959244039
 30
0.0
 11
8923.40475250374
 21
4451.963959244039
 31
0.0
  0
LINE
  5
179CD
330
747D
100
AcDbEntity
  8
部品1
 48
50.0
100
AcDbLine
 10
8962.404752503742
 20
2710.96395924404
 30
0.0
 11
8962.404752503742
 21
2707.96395924404
 31
0.0
  0
LINE
  5
179CE
330
747D
100
AcDbEntity
  8
部品1
 48
50.0
100
AcDbLine
 10
8953.404752503741
 20
2710.96395924404
 30
0.0
 11
9757.404752503738
 21
2710.963959244037
 31
0.0
  0
LINE
  5
179CF
330
747D
100
AcDbEntity
  8
部品1
 48
50.0
100
AcDbLine
 10
9757.404752503738
 20
4443.963959268807
 30
0.0
 11
9757.404752503738
 21
2710.963959268807
 31
0.0
  0
LINE
  5
179D0
330
747D
100
AcDbEntity
  8
部品1
 48
50.0
100
AcDbLine
 10
8923.40475250374
 20
4495.963959244039
 30
0.0
 11
8923.40475250374
 21
2660.96395924404
 31
0.0
  0
LINE
  5
179D1
330
747D
100
AcDbEntity
  8
細線
 48
50.0
100
AcDbLine
 10
8953.404752503741
 20
4453.463959244039
 30
0.0
 11
8953.404752503741
 21
2660.96395924404
 31
0.0
  0
LINE
  5
179D2
330
747D
100
AcDbEntity
  8
部品1
 48
50.0
100
AcDbLine
 10
8953.404752503741
 20
2710.96395924404
 30
0.0
 11
8953.404752503741
 21
4443.963959244039
 31
0.0
  0
LINE
  5
179D3
330
747D
100
AcDbEntity
  8
細線
 48
50.0
100
AcDbLine
 10
9757.404752503738
 20
2718.46395924404
 30
0.0
 11
11021.40475250374
 21
2718.46395924404
 31
0.0
  0
LINE
  5
179D4
330
747D
100
AcDbEntity
  8
細線
 48
50.0
100
AcDbLine
 10
8953.404752503741
 20
2707.96395924404
 30
0.0
 11
11047.40475250374
 21
2707.96395924404
 31
0.0
  0
LINE
  5
179D5
330
747D
100
AcDbEntity
  8
細線
 48
50.0
100
AcDbLine
 10
8953.404752503741
 20
2703.96395924404
 30
0.0
 11
11047.40475250374
 21
2703.96395924404
 31
0.0
  0
LINE
  5
179D6
330
747D
100
AcDbEntity
  8
部品1
 48
50.0
100
AcDbLine
 10
8923.40475250374
 20
2660.96395924404
 30
0.0
 11
11077.40475250374
 21
2660.96395924404
 31
0.0
  0
LINE
  5
179D7
330
747D
100
AcDbEntity
  8
細線
 48
50.0
100
AcDbLine
 10
11047.40475250374
 20
4453.463959244039
 30
0.0
 11
8953.404752503741
 21
4453.463959244039
 31
0.0
  0
LINE
  5
179D8
330
747D
100
AcDbEntity
  8
細線
 48
50.0
100
AcDbLine
 10
11047.40475250374
 20
4443.963959244039
 30
0.0
 11
8953.404752503741
 21
4443.963959244039
 31
0.0
  0
LINE
  5
179D9
330
747D
100
AcDbEntity
  8
細線
 48
50.0
100
AcDbLine
 10
11077.40475250374
 20
4485.96395924404
 30
0.0
 11
8923.40475250374
 21
4485.96395924404
 31
0.0
  0
LINE
  5
179DA
330
747D
100
AcDbEntity
  8
部品1
 48
50.0
100
AcDbLine
 10
11077.40475250374
 20
4495.963959244039
 30
0.0
 11
8923.40475250374
 21
4495.963959244039
 31
0.0
  0
LINE
  5
179F4
330
747D
100
AcDbEntity
  8
部品1
 48
50.0
100
AcDbLine
 10
8997.40475250374
 20
3642.46395924404
 30
0.0
 11
9050.404752503741
 21
3642.46395924404
 31
0.0
  0
MTEXT
  5
179F8
330
747D
100
AcDbEntity
  8
寸法
 62
     7
 48
50.0
100
AcDbMText
 10
10455.50728959689
 20
9421.98949573137
 30
0.0
 40
96.0
 41
0.0
 71
     5
 72
     1
  1
棚 2段
  7
STYLE1
 73
     1
 44
1.0
1001
ACAD
1000
MTEXTBEGIN
1070
    73
1070
     1
1070
    44
1040
1.0
1070
    74
1070
     0
1000
MTEXTEND
  0
MTEXT
  5
179F9
330
747D
100
AcDbEntity
  8
寸法
 62
     7
 48
50.0
100
AcDbMText
 10
9155.507289596853
 20
9421.989495731347
 30
0.0
 40
96.0
 41
0.0
 71
     5
 72
     1
  1
棚 2段
  7
STYLE1
 73
     1
 44
1.0
1001
ACAD
1000
MTEXTBEGIN
1070
    73
1070
     1
1070
    44
1040
1.0
1070
    74
1070
     0
1000
MTEXTEND
  0
LINE
  5
179FA
330
747D
100
AcDbEntity
  8
部品1
100
AcDbLine
 10
11050.40475250375
 20
9835.75467753406
 30
0.0
 11
11050.40475250375
 21
9807.75467753406
 31
0.0
  0
LINE
  5
179FB
330
747D
100
AcDbEntity
  8
部品1
100
AcDbLine
 10
11050.40475250375
 20
9835.754677534083
 30
0.0
 11
11050.40475250375
 21
9807.754677534083
 31
0.0
  0
LINE
  5
179FC
330
747D
100
AcDbEntity
  8
部品1
100
AcDbLine
 10
11077.40475250375
 20
9780.754677534064
 30
0.0
 11
11105.40475250375
 21
9780.754677534064
 31
0.0
  0
LINE
  5
179FD
330
747D
100
AcDbEntity
  8
部品1
100
AcDbLine
 10
11077.40475250375
 20
9360.754677534064
 30
0.0
 11
11105.40475250375
 21
9360.754677534064
 31
0.0
  0
LINE
  5
179FE
330
747D
100
AcDbEntity
  8
部品1
100
AcDbLine
 10
11077.40475250375
 20
8940.754677534062
 30
0.0
 11
11105.40475250375
 21
8940.754677534062
 31
0.0
  0
DIMENSION
  5
179FF
330
747D
100
AcDbEntity
  8
寸法
100
AcDbDimension
  2
*D3
 10
11805.40475250374
 20
9780.754677534064
 30
0.0
 11
11805.40475250374
 21
10144.2399589083
 31
0.0
 70
   160
 71
     5
 42
54.99999999999636
  3
INABA_S40G
100
AcDbAlignedDimension
 13
11105.40475250375
 23
9835.75467753406
 33
0.0
 14
11105.40475250375
 24
9780.754677534064
 34
0.0
 50
90.0
100
AcDbRotatedDimension
1001
ACAD
1000
DSTYLE
1002
{
1002
}
  0
DIMENSION
  5
17A00
330
747D
100
AcDbEntity
  8
寸法
100
AcDbDimension
  2
*D4
 10
11505.40475250374
 20
9240.938448577329
 30
0.0
 11
11505.40475250374
 21
9465.938448577325
 31
0.0
 70
   160
 71
     5
 42
449.9999999999963
  3
INABA_S40G
100
AcDbAlignedDimension
 13
11076.90475250375
 23
9805.754677534061
 33
0.0
 14
11076.90475250375
 24
9355.754677534063
 34
0.0
 50
90.0
100
AcDbRotatedDimension
1001
ACAD
1000
DSTYLE
1002
{
1002
}
  0
LINE
  5
17A01
330
747D
100
AcDbEntity
  8
部品1
100
AcDbLine
 10
11076.90475250375
 20
9805.754677534061
 30
0.0
 11
11076.90475250375
 21
9355.754677534063
 31
0.0
  0
LINE
  5
17A02
330
747D
100
AcDbEntity
  8
部品1
100
AcDbLine
 10
11077.40475250375
 20
9807.75467753406
 30
0.0
 11
11077.40475250374
 21
9355.254677533936
 31
0.0
  0
LINE
  5
17A04
330
747D
100
AcDbEntity
  8
部品1
 48
50.0
100
AcDbLine
 10
11050.40475250375
 20
7625.754677534036
 30
0.0
 11
11050.40475250375
 21
7653.754677534036
 31
0.0
  0
LINE
  5
17A05
330
747D
100
AcDbEntity
  8
部品1
100
AcDbLine
 10
11077.40475250375
 20
7680.754677534046
 30
0.0
 11
11105.40475250375
 21
7680.754677534046
 31
0.0
  0
LINE
  5
17A06
330
747D
100
AcDbEntity
  8
部品1
100
AcDbLine
 10
11105.40475250373
 20
7680.754677534046
 30
0.0
 11
11105.40475250372
 21
7625.754677534051
 31
0.0
  0
LINE
  5
17A07
330
747D
100
AcDbEntity
  8
部品1
 48
50.0
100
AcDbLine
 10
11048.90475250375
 20
7682.254677534051
 30
0.0
 11
11077.40475250375
 21
7653.75467753405
 31
0.0
  0
LINE
  5
17A08
330
747D
100
AcDbEntity
  8
部品1
100
AcDbLine
 10
11105.40475250372
 20
7625.754677534051
 30
0.0
 11
11054.40475250372
 21
7625.754677534051
 31
0.0
  0
LINE
  5
17A09
330
747D
100
AcDbEntity
  8
部品1
100
AcDbLine
 10
11077.40475250373
 20
7680.754677534046
 30
0.0
 11
11105.40475250372
 21
7680.754677534046
 31
0.0
  0
LINE
  5
17A0A
330
747D
100
AcDbEntity
  8
部品1
100
AcDbLine
 10
11105.40475250372
 20
7625.754677534051
 30
0.0
 11
11050.40475250375
 21
7625.754677534036
 31
0.0
  0
DIMENSION
  5
17A0B
330
747D
100
AcDbEntity
  8
寸法
100
AcDbDimension
  2
*D5
 10
11805.40475250372
 20
7625.754677534049
 30
0.0
 11
11805.40475250372
 21
7317.269396159798
 31
0.0
 70
   160
 71
     5
 42
54.99999999999636
  3
INABA_S40G
100
AcDbAlignedDimension
 13
11105.40475250372
 23
7680.754677534046
 33
0.0
 14
11105.40475250372
 24
7625.754677534049
 34
0.0
 50
90.0
100
AcDbRotatedDimension
1001
ACAD
1000
DSTYLE
1002
{
1002
}
  0
LINE
  5
17A0C
330
747D
100
AcDbEntity
  8
部品1
100
AcDbLine
 10
11077.40475250374
 20
9360.754677534064
 30
0.0
 11
11077.40475250373
 21
7653.75467753405
 31
0.0
  0
LINE
  5
17A0D
330
747D
100
AcDbEntity
  8
部品1
100
AcDbLine
 10
11048.90475250374
 20
9355.75467753406
 30
0.0
 11
11048.90475250375
 21
7682.254677534051
 31
0.0
  0
LINE
  5
17A0E
330
747D
100
AcDbEntity
  8
部品1
100
AcDbLine
 10
11105.40475250375
 20
9835.75467753406
 30
0.0
 11
11105.40475250372
 21
7625.754677534051
 31
0.0
  0
DIMENSION
  5
17A0F
330
747D
100
AcDbEntity
  8
寸法
100
AcDbDimension
  2
*D6
 10
11805.40475250374
 20
7680.754677534046
 30
0.0
 11
11805.40475250374
 21
8730.754677534056
 31
0.0
 70
   160
  1
5X420=<>
 71
     5
 42
2100.000000000017
  3
INABA_S40G
100
AcDbAlignedDimension
 13
11105.40475250375
 23
9780.754677534064
 33
0.0
 14
11105.40475250372
 24
7680.754677534046
 34
0.0
 50
90.0
100
AcDbRotatedDimension
1001
ACAD
1000
DSTYLE
1002
{
1002
}
  0
DIMENSION
  5
17A10
330
747D
100
AcDbEntity
  8
寸法
100
AcDbDimension
  2
*D7
 10
12105.40475250375
 20
7625.754677534049
 30
0.0
 11
12105.40475250375
 21
8730.754677534056
 31
0.0
 70
   160
 71
     5
 42
2210.00000000001
  3
INABA_S40G
100
AcDbAlignedDimension
 13
11105.40475250375
 23
9835.75467753406
 33
0.0
 14
11105.40475250372
 24
7625.754677534049
 34
0.0
 50
90.0
100
AcDbRotatedDimension
1001
ACAD
1000
DSTYLE
1002
{
1002
}
  0
LINE
  5
17A11
330
747D
100
AcDbEntity
  8
部品1
100
AcDbLine
 10
10630.40475250371
 20
9835.754677533934
 30
0.0
 11
10630.40475250371
 21
9807.754677533933
 31
0.0
  0
LINE
  5
17A12
330
747D
100
AcDbEntity
  8
部品1
100
AcDbLine
 10
10210.40475250371
 20
9835.754677533934
 30
0.0
 11
10210.40475250371
 21
9807.754677533933
 31
0.0
  0
LINE
  5
17A13
330
747D
100
AcDbEntity
  8
部品1
100
AcDbLine
 10
9790.404752503713
 20
9835.754677533934
 30
0.0
 11
9790.404752503718
 21
9807.754677533933
 31
0.0
  0
LINE
  5
17A14
330
747D
100
AcDbEntity
  8
部品1
100
AcDbLine
 10
9819.40475250375
 20
9825.754677534067
 30
0.0
 11
9825.40475250375
 21
9825.754677534067
 31
0.0
  0
LINE
  5
17A15
330
747D
100
AcDbEntity
  8
部品1
100
AcDbLine
 10
9825.40475250375
 20
9825.754677534067
 30
0.0
 11
9825.40475250375
 21
9807.754677534068
 31
0.0
  0
LINE
  5
17A16
330
747D
100
AcDbEntity
  8
部品1
100
AcDbLine
 10
9755.40475250375
 20
9825.754677534067
 30
0.0
 11
9761.40475250375
 21
9825.754677534067
 31
0.0
  0
LINE
  5
17A17
330
747D
100
AcDbEntity
  8
部品1
100
AcDbLine
 10
9755.40475250375
 20
9825.754677534067
 30
0.0
 11
9755.40475250375
 21
9807.754677534068
 31
0.0
  0
LINE
  5
17A18
330
747D
100
AcDbEntity
  8
部品1
100
AcDbLine
 10
9777.904752503751
 20
9799.754677534064
 30
0.0
 11
9802.904752503749
 21
9799.754677534068
 31
0.0
  0
LINE
  5
17A19
330
747D
100
AcDbEntity
  8
部品1
100
AcDbLine
 10
9777.904752503751
 20
9355.75467753407
 30
0.0
 11
9802.904752503749
 21
9355.75467753407
 31
0.0
  0
LINE
  5
17A1A
330
747D
100
AcDbEntity
  8
部品1
 48
50.0
100
AcDbLine
 10
9802.904752503749
 20
9807.75467753407
 30
0.0
 11
9802.904752503749
 21
9355.75467753407
 31
0.0
  0
LINE
  5
17A1B
330
747D
100
AcDbEntity
  8
部品1
 48
50.0
100
AcDbLine
 10
9777.904752503749
 20
9807.754677534076
 30
0.0
 11
9777.904752503751
 21
9355.75467753407
 31
0.0
  0
LINE
  5
17A1C
330
747D
100
AcDbEntity
  8
部品1
 48
50.0
100
AcDbLine
 10
9803.904752503751
 20
9805.754677534064
 30
0.0
 11
9803.904752503751
 21
9355.75467753407
 31
0.0
  0
LINE
  5
17A1D
330
747D
100
AcDbEntity
  8
部品1
 48
50.0
100
AcDbLine
 10
9776.90475250375
 20
9805.754677534068
 30
0.0
 11
9776.90475250375
 21
9355.75467753407
 31
0.0
  0
LINE
  5
17A1E
330
747D
100
AcDbEntity
  8
部品1
100
AcDbLine
 10
9370.404752503713
 20
9835.754677533934
 30
0.0
 11
9370.404752503716
 21
9807.754677533933
 31
0.0
  0
LINE
  5
17A1F
330
747D
100
AcDbEntity
  8
部品1
100
AcDbLine
 10
8950.404752503713
 20
9835.754677533934
 30
0.0
 11
8950.404752503716
 21
9807.754677533933
 31
0.0
  0
LINE
  5
17A20
330
747D
100
AcDbEntity
  8
部品1
100
AcDbLine
 10
8530.404752503713
 20
9835.754677533934
 30
0.0
 11
8530.404752503716
 21
9807.754677533933
 31
0.0
  0
LINE
  5
17A21
330
747D
100
AcDbEntity
  8
部品1
100
AcDbLine
 10
8530.404752503748
 20
9835.754677533966
 30
0.0
 11
8530.404752503748
 21
9807.754677533965
 31
0.0
  0
LINE
  5
17A22
330
747D
100
AcDbEntity
  8
部品1
100
AcDbLine
 10
8503.404752503717
 20
9780.754677533936
 30
0.0
 11
8475.404752503717
 21
9780.754677533936
 31
0.0
  0
LINE
  5
17A23
330
747D
100
AcDbEntity
  8
部品1
100
AcDbLine
 10
8503.404752503724
 20
9360.754677533936
 30
0.0
 11
8475.404752503724
 21
9360.754677533936
 31
0.0
  0
LINE
  5
17A24
330
747D
100
AcDbEntity
  8
部品1
100
AcDbLine
 10
8503.404752503724
 20
8940.754677533934
 30
0.0
 11
8475.404752503724
 21
8940.754677533934
 31
0.0
  0
LINE
  5
17A25
330
747D
100
AcDbEntity
  8
部品1
100
AcDbLine
 10
8503.404752503739
 20
9355.254677533936
 30
0.0
 11
8503.404752503749
 21
9807.754677533965
 31
0.0
  0
LINE
  5
17A26
330
747D
100
AcDbEntity
  8
部品1
 48
50.0
100
AcDbLine
 10
8503.904752503681
 20
9805.754677534068
 30
0.0
 11
8503.904752503681
 21
9355.75467753407
 31
0.0
  0
LINE
  5
17A27
330
747D
100
AcDbEntity
  8
部品1
100
AcDbLine
 10
8503.904752503681
 20
9355.754677534013
 30
0.0
 11
9776.904752503748
 21
9355.75467753407
 31
0.0
  0
LINE
  5
17A28
330
747D
100
AcDbEntity
  8
部品1
100
AcDbLine
 10
8503.904752503681
 20
9805.754677534013
 30
0.0
 11
9776.90475250375
 21
9805.754677534071
 31
0.0
  0
LINE
  5
17A29
330
747D
100
AcDbEntity
  8
部品1
100
AcDbLine
 10
8503.404752503751
 20
9807.754677534077
 30
0.0
 11
9777.904752503745
 21
9807.754677534083
 31
0.0
  0
LINE
  5
17A2A
330
747D
100
AcDbEntity
  8
細線
 48
50.0
100
AcDbLine
 10
9776.90475250375
 20
9805.754677534068
 30
0.0
 11
8503.904752503681
 21
9355.754677534013
 31
0.0
  0
LINE
  5
17A2B
330
747D
100
AcDbEntity
  8
細線
 48
50.0
100
AcDbLine
 10
9776.904752503748
 20
9355.75467753407
 30
0.0
 11
8503.904752503679
 21
9805.754677534013
 31
0.0
  0
LINE
  5
17A2C
330
747D
100
AcDbEntity
  8
破線
 48
10.0
100
AcDbLine
 10
11025.40475250375
 20
7705.754677534051
 30
0.0
 11
10230.90475250372
 21
7705.754677533872
 31
0.0
  0
LINE
  5
17A2D
330
747D
100
AcDbEntity
  8
部品1
100
AcDbLine
 10
8950.404752503716
 20
7625.754677534051
 30
0.0
 11
8950.404752503716
 21
7653.75467753405
 31
0.0
  0
LINE
  5
17A2E
330
747D
100
AcDbEntity
  8
部品1
 48
50.0
100
AcDbLine
 10
8531.90475250374
 20
7682.254677534029
 30
0.0
 11
8503.404752503739
 21
7653.754677534029
 31
0.0
  0
LINE
  5
17A2F
330
747D
100
AcDbEntity
  8
部品1
100
AcDbLine
 10
8530.404752503716
 20
7625.754677534051
 30
0.0
 11
8530.404752503716
 21
7653.75467753405
 31
0.0
  0
LINE
  5
17A30
330
747D
100
AcDbEntity
  8
部品1
100
AcDbLine
 10
8503.404752503724
 20
7680.754677533883
 30
0.0
 11
8475.40475250374
 21
7680.754677533883
 31
0.0
  0
LINE
  5
17A31
330
747D
100
AcDbEntity
  8
部品1
100
AcDbLine
 10
8503.404752503724
 20
7680.75467753392
 30
0.0
 11
8475.40475250374
 21
7680.75467753392
 31
0.0
  0
LINE
  5
17A32
330
747D
100
AcDbEntity
  8
部品1
100
AcDbLine
 10
8503.40475250374
 20
7680.754677533935
 30
0.0
 11
8475.40475250374
 21
7680.754677533935
 31
0.0
  0
LINE
  5
17A33
330
747D
100
AcDbEntity
  8
部品1
100
AcDbLine
 10
8475.40475250374
 20
7680.754677533883
 30
0.0
 11
8475.404752503742
 21
7625.754677533887
 31
0.0
  0
LINE
  5
17A34
330
747D
100
AcDbEntity
  8
部品1
100
AcDbLine
 10
8950.404752503716
 20
7625.754677533919
 30
0.0
 11
8475.404752503742
 21
7625.754677533919
 31
0.0
  0
LINE
  5
17A35
330
747D
100
AcDbEntity
  8
破線
 48
10.0
100
AcDbLine
 10
9349.904752503729
 20
7705.754677533916
 30
0.0
 11
8555.404752503735
 21
7705.75467753393
 31
0.0
  0
LINE
  5
17A36
330
747D
100
AcDbEntity
  8
破線
 48
10.0
100
AcDbLine
 10
10180.90475250372
 20
7705.754677533967
 30
0.0
 11
9399.904752503724
 21
7705.754677533942
 31
0.0
  0
LINE
  5
17A37
330
747D
100
AcDbEntity
  8
破線
 48
10.0
100
AcDbLine
 10
10180.90475250372
 20
7682.25467753396
 30
0.0
 11
10180.90475250372
 21
9355.75467753407
 31
0.0
  0
LINE
  5
17A38
330
747D
100
AcDbEntity
  8
破線
 48
10.0
100
AcDbLine
 10
10230.90475250372
 20
7682.254677533963
 30
0.0
 11
10230.90475250372
 21
9355.75467753407
 31
0.0
  0
LINE
  5
17A39
330
747D
100
AcDbEntity
  8
部品1
100
AcDbLine
 10
8531.904752503725
 20
9355.754677534013
 30
0.0
 11
8531.90475250374
 21
7682.254677534025
 31
0.0
  0
LINE
  5
17A3A
330
747D
100
AcDbEntity
  8
破線
 48
10.0
100
AcDbLine
 10
9399.904752503724
 20
7682.254677533963
 30
0.0
 11
9399.904752503724
 21
9355.75467753407
 31
0.0
  0
LINE
  5
17A3B
330
747D
100
AcDbEntity
  8
破線
 48
10.0
100
AcDbLine
 10
9349.904752503729
 20
7682.25467753396
 30
0.0
 11
9349.904752503723
 21
9355.75467753407
 31
0.0
  0
LINE
  5
17A3C
330
747D
100
AcDbEntity
  8
部品1
100
AcDbLine
 10
8475.404752503713
 20
9835.754677533934
 30
0.0
 11
8475.404752503742
 21
7625.754677533919
 31
0.0
  0
LINE
  5
17A3D
330
747D
100
AcDbEntity
  8
部品1
100
AcDbLine
 10
8503.404752503724
 20
7653.75467753401
 30
0.0
 11
8503.404752503742
 21
9360.754677533936
 31
0.0
  0
LINE
  5
17A3E
330
747D
100
AcDbEntity
  8
破線
 48
10.0
100
AcDbLine
 10
8555.404752503724
 20
9355.754677534063
 30
0.0
 11
8555.404752503738
 21
7705.75467753393
 31
0.0
  0
LINE
  5
17A3F
330
747D
100
AcDbEntity
  8
破線
 48
10.0
100
AcDbLine
 10
11025.40475250374
 20
9355.754677534063
 30
0.0
 11
11025.40475250375
 21
7705.754677534047
 31
0.0
  0
LINE
  5
17A40
330
747D
100
AcDbEntity
  8
部品1
 48
50.0
100
AcDbLine
 10
8503.404752503742
 20
7653.754677534033
 30
0.0
 11
11077.40475250376
 21
7653.754677534036
 31
0.0
  0
LINE
  5
17A41
330
747D
100
AcDbEntity
  8
部品1
100
AcDbLine
 10
11048.90475250373
 20
8940.754677534036
 30
0.0
 11
8531.904752503733
 21
8940.754677533934
 31
0.0
  0
LINE
  5
17A42
330
747D
100
AcDbEntity
  8
部品1
100
AcDbLine
 10
9802.904752503749
 20
9807.754677534077
 30
0.0
 11
11077.40475250375
 21
9807.75467753406
 31
0.0
  0
LINE
  5
17A43
330
747D
100
AcDbEntity
  8
細線
 48
50.0
100
AcDbLine
 10
11076.90475250375
 20
9355.754677534063
 30
0.0
 11
9803.904752503751
 21
9805.754677534064
 31
0.0
  0
LINE
  5
17A44
330
747D
100
AcDbEntity
  8
部品1
100
AcDbLine
 10
9803.904752503747
 20
9355.75467753407
 30
0.0
 11
11076.90475250375
 21
9355.754677534063
 31
0.0
  0
LINE
  5
17A45
330
747D
100
AcDbEntity
  8
部品1
100
AcDbLine
 10
9803.904752503751
 20
9805.754677534068
 30
0.0
 11
11076.90475250375
 21
9805.754677534061
 31
0.0
  0
LINE
  5
17A46
330
747D
100
AcDbEntity
  8
細線
 48
50.0
100
AcDbLine
 10
11076.90475250375
 20
9805.754677534061
 30
0.0
 11
9803.904752503747
 21
9355.75467753407
 31
0.0
  0
DIMENSION
  5
17A47
330
747D
100
AcDbEntity
  8
寸法
100
AcDbDimension
  2
*D8
 10
10990.17082066774
 20
9035.791287989411
 30
0.0
 11
10423.29265981776
 21
9035.791287989411
 31
0.0
 70
   160
 71
     5
 42
1273.000000000011
  3
INABA_S40G
100
AcDbAlignedDimension
 13
9802.904752503749
 23
9355.75467753407
 33
0.0
 14
11075.90475250376
 24
9355.754677534063
 34
0.0
100
AcDbRotatedDimension
1001
ACAD
1000
DSTYLE
1002
{
1002
}
  0
LINE
  5
17A49
330
747D
100
AcDbEntity
  8
部品1
100
AcDbLine
 10
8475.404752503749
 20
9835.754677533966
 30
0.0
 11
11105.40475250375
 21
9835.75467753406
 31
0.0
  0
LINE
  5
17A4A
330
747D
100
AcDbEntity
  8
部品1
100
AcDbLine
 10
11048.90475250375
 20
7682.254677534051
 30
0.0
 11
8531.904752503642
 21
7682.25467753393
 31
0.0
  0
DIMENSION
  5
17A4B
330
747D
100
AcDbEntity
  8
寸法
100
AcDbDimension
  2
*D9
 10
11050.40475250375
 20
10135.75467753396
 30
0.0
 11
9790.404752503746
 21
10135.75467753396
 31
0.0
 70
   160
  1
6X420=<>
 71
     5
 42
2520.0
  3
INABA_S40G
100
AcDbAlignedDimension
 13
8530.404752503748
 23
9835.754677533966
 33
0.0
 14
11050.40475250375
 24
9835.75467753406
 34
0.0
100
AcDbRotatedDimension
1001
ACAD
1000
DSTYLE
1002
{
1002
}
  0
DIMENSION
  5
17A4C
330
747D
100
AcDbEntity
  8
寸法
100
AcDbDimension
  2
*D10
 10
11105.40475250375
 20
10135.75467753396
 30
0.0
 11
11413.89003387799
 21
10135.75467753396
 31
0.0
 70
   160
 71
     5
 42
55.0
  3
INABA_S40G
100
AcDbAlignedDimension
 13
11050.40475250375
 23
9835.75467753406
 33
0.0
 14
11105.40475250375
 24
9835.75467753406
 34
0.0
100
AcDbRotatedDimension
1001
ACAD
1000
DSTYLE
1002
{
1002
}
  0
DIMENSION
  5
17A4D
330
747D
100
AcDbEntity
  8
寸法
100
AcDbDimension
  2
*D11
 10
9690.170820667752
 20
9035.791287989411
 30
0.0
 11
9053.670820667717
 21
9035.791287989411
 31
0.0
 70
   160
 71
     5
 42
1273.000000000069
  3
INABA_S40G
100
AcDbAlignedDimension
 13
8502.904752503679
 23
9355.754677534013
 33
0.0
 14
9775.90475250375
 24
9355.754677534006
 34
0.0
100
AcDbRotatedDimension
1001
ACAD
1000
DSTYLE
1002
{
1002
}
  0
DIMENSION
  5
17A4E
330
747D
100
AcDbEntity
  8
寸法
100
AcDbDimension
  2
*D12
 10
8530.404752503748
 20
10135.75467753396
 30
0.0
 11
8166.919471129473
 21
10135.75467753396
 31
0.0
 70
   160
 71
     5
 42
55.00000000003637
  3
INABA_S40G
100
AcDbAlignedDimension
 13
8475.404752503713
 23
9835.754677533966
 33
0.0
 14
8530.404752503748
 24
9835.754677533966
 34
0.0
100
AcDbRotatedDimension
1001
ACAD
1000
DSTYLE
1002
{
1002
}
  0
LINE
  5
17A4F
330
747D
100
AcDbEntity
  8
部品1
 48
50.0
100
AcDbLine
 10
11050.40475250374
 20
4495.963959244038
 30
0.0
 11
11050.40475250374
 21
4500.96395924404
 31
0.0
  0
LINE
  5
17A50
330
747D
100
AcDbEntity
  8
部品1
100
AcDbLine
 10
11077.40475250374
 20
2710.96395924406
 30
0.0
 11
11105.40475250374
 21
2710.96395924406
 31
0.0
  0
LINE
  5
17A51
330
747D
100
AcDbEntity
  8
破線
 48
5.0
100
AcDbLine
 10
11130.40475250374
 20
2405.96395924404
 30
0.0
 11
11110.40475250373
 21
2405.96395924404
 31
0.0
  0
LINE
  5
17A52
330
747D
100
AcDbEntity
  8
破線
 48
5.0
100
AcDbLine
 10
11205.40475250374
 20
2560.96395924404
 30
0.0
 11
11205.40475250374
 21
2360.96395924404
 31
0.0
  0
LINE
  5
17A53
330
747D
100
AcDbEntity
  8
破線
 48
5.0
100
AcDbLine
 10
11110.40475250374
 20
2560.96395924404
 30
0.0
 11
11110.40475250374
 21
2405.96395924404
 31
0.0
  0
LINE
  5
17A54
330
747D
100
AcDbEntity
  8
部品1
100
AcDbLine
 10
11110.40475250374
 20
2705.96395924404
 30
0.0
 11
11110.40475250374
 21
2560.96395924404
 31
0.0
  0
LINE
  5
17A55
330
747D
100
AcDbEntity
  8
部品1
100
AcDbLine
 10
11105.40475250374
 20
4555.498232631778
 30
0.0
 11
11105.40475250374
 21
2560.96395924404
 31
0.0
  0
LINE
  5
17A56
330
747D
100
AcDbEntity
  8
部品1
 48
50.0
100
AcDbLine
 10
8950.404752503741
 20
4495.963959244038
 30
0.0
 11
8950.404752503741
 21
4500.96395924404
 31
0.0
  0
LINE
  5
17A57
330
747D
100
AcDbEntity
  8
破線
 48
5.0
100
AcDbLine
 10
11005.40475250374
 20
2560.96395924404
 30
0.0
 11
11005.40475250374
 21
2360.96395924404
 31
0.0
  0
LINE
  5
17A58
330
747D
100
AcDbEntity
  8
部品1
100
AcDbLine
 10
10705.40475250374
 20
2660.96395924404
 30
0.0
 11
10705.40475250374
 21
2560.96395924404
 31
0.0
  0
LINE
  5
17A59
330
747D
100
AcDbEntity
  8
部品1
 48
50.0
100
AcDbLine
 10
10305.40475250374
 20
2660.96395924404
 30
0.0
 11
10305.40475250374
 21
2560.96395924404
 31
0.0
  0
LINE
  5
17A5A
330
747D
100
AcDbEntity
  8
部品1
 48
50.0
100
AcDbLine
 10
10105.40475250374
 20
2660.96395924404
 30
0.0
 11
10105.40475250374
 21
2560.96395924404
 31
0.0
  0
LINE
  5
17A5B
330
747D
100
AcDbEntity
  8
部品1
 48
50.0
100
AcDbLine
 10
9475.40475250374
 20
2660.96395924404
 30
0.0
 11
9475.40475250374
 21
2560.96395924404
 31
0.0
  0
LINE
  5
17A5C
330
747D
100
AcDbEntity
  8
部品1
 48
50.0
100
AcDbLine
 10
9275.404752503739
 20
2660.96395924404
 30
0.0
 11
9275.404752503739
 21
2560.96395924404
 31
0.0
  0
LINE
  5
17A5D
330
747D
100
AcDbEntity
  8
部品1
100
AcDbLine
 10
8475.40475250374
 20
2710.96395924406
 30
0.0
 11
8923.40475250374
 21
2710.96395924406
 31
0.0
  0
LINE
  5
17A5E
330
747D
100
AcDbEntity
  8
部品1
100
AcDbLine
 10
8875.404752503738
 20
2660.96395924404
 30
0.0
 11
8875.404752503738
 21
2560.96395924404
 31
0.0
  0
LINE
  5
17A5F
330
747D
100
AcDbEntity
  8
破線
 48
5.0
100
AcDbLine
 10
8450.40475250374
 20
2405.96395924404
 30
0.0
 11
8470.404752503741
 21
2405.96395924404
 31
0.0
  0
LINE
  5
17A60
330
747D
100
AcDbEntity
  8
破線
 48
5.0
100
AcDbLine
 10
8575.40475250374
 20
2560.96395924404
 30
0.0
 11
8575.40475250374
 21
2360.96395924404
 31
0.0
  0
LINE
  5
17A61
330
747D
100
AcDbEntity
  8
破線
 48
5.0
100
AcDbLine
 10
8470.404752503737
 20
2560.96395924404
 30
0.0
 11
8470.404752503737
 21
2405.96395924404
 31
0.0
  0
LINE
  5
17A62
330
747D
100
AcDbEntity
  8
部品1
100
AcDbLine
 10
8470.404752503737
 20
2705.963959244042
 30
0.0
 11
8470.404752503737
 21
2560.96395924404
 31
0.0
  0
LINE
  5
17A63
330
747D
100
AcDbEntity
  8
部品1
100
AcDbLine
 10
8475.40475250374
 20
4593.106397172918
 30
0.0
 11
8475.40475250374
 21
2560.96395924404
 31
0.0
  0
LINE
  5
17A64
330
747D
100
AcDbEntity
  8
部品1
 48
50.0
100
AcDbLine
 10
8530.40475250374
 20
2710.96395924406
 30
0.0
 11
8530.40475250374
 21
4500.96395924404
 31
0.0
  0
LINE
  5
17A65
330
747D
100
AcDbEntity
  8
部品1
100
AcDbLine
 10
8475.40475250374
 20
2660.96395924404
 30
0.0
 11
11105.40475250374
 21
2660.96395924404
 31
0.0
  0
LINE
  5
17A66
330
747D
100
AcDbEntity
  8
部品1
100
AcDbLine
 10
8475.40475250374
 20
4500.96395924404
 30
0.0
 11
11105.40475250374
 21
4500.96395924404
 31
0.0
  0
LINE
  5
17A67
330
747D
100
AcDbEntity
  8
破線
 48
5.0
100
AcDbLine
 10
11205.40475250374
 20
2360.96395924404
 30
0.0
 11
11005.40475250374
 21
2360.96395924404
 31
0.0
  0
LINE
  5
17A68
330
747D
100
AcDbEntity
  8
部品1
 48
50.0
100
AcDbLine
 10
8503.40475250374
 20
2660.96395924404
 30
0.0
 11
11077.40475250374
 21
2660.96395924404
 31
0.0
  0
LINE
  5
17A69
330
747D
100
AcDbEntity
  8
部品1
 48
50.0
100
AcDbLine
 10
8923.40475250374
 20
2660.96395924404
 30
0.0
 11
11077.40475250374
 21
2660.96395924404
 31
0.0
  0
LINE
  5
17A6A
330
747D
100
AcDbEntity
  8
部品1
100
AcDbLine
 10
8475.40475250374
 20
4500.96395924404
 30
0.0
 11
11105.40475250374
 21
4500.96395924404
 31
0.0
  0
LINE
  5
17A6B
330
747D
100
AcDbEntity
  8
破線
 48
5.0
100
AcDbLine
 10
8375.404752503738
 20
2560.96395924404
 30
0.0
 11
8375.404752503738
 21
2360.96395924404
 31
0.0
  0
LINE
  5
17A6C
330
747D
100
AcDbEntity
  8
破線
 48
5.0
100
AcDbLine
 10
8375.404752503738
 20
2360.96395924404
 30
0.0
 11
8575.404752503741
 21
2360.96395924404
 31
0.0
  0
DIMENSION
  5
17A6D
330
747D
100
AcDbEntity
  8
寸法
 48
50.0
100
AcDbDimension
  2
*D13
 10
8375.404752503738
 20
2074.916629943662
 30
0.0
 11
8475.40475250374
 21
2074.916629943662
 31
0.0
 70
   160
 71
     5
 42
200.0000000000018
  3
INABA_S40G
100
AcDbAlignedDimension
 13
8575.404752503741
 23
2360.96395924404
 33
0.0
 14
8375.404752503738
 24
2360.96395924404
 34
0.0
100
AcDbRotatedDimension
  0
LINE
  5
17A6E
330
747D
100
AcDbEntity
  8
部品1
100
AcDbLine
 10
10172.14008561796
 20
1681.648416269079
 30
0.0
 11
9408.66941938952
 21
1681.648416269079
 31
0.0
  0
LINE
  5
17A6F
330
747D
100
AcDbEntity
  8
部品1
100
AcDbLine
 10
10172.14008561796
 20
1441.756094723547
 30
0.0
 11
10172.14008561796
 21
1681.648416269079
 31
0.0
  0
LINE
  5
17A70
330
747D
100
AcDbEntity
  8
部品1
100
AcDbLine
 10
9408.66941938952
 20
1441.756094723547
 30
0.0
 11
10172.14008561796
 21
1441.756094723547
 31
0.0
  0
LINE
  5
17A71
330
747D
100
AcDbEntity
  8
部品1
100
AcDbLine
 10
9408.66941938952
 20
1681.648416269079
 30
0.0
 11
9408.66941938952
 21
1441.756094723547
 31
0.0
  0
TEXT
  5
17A77
330
747D
100
AcDbEntity
  8
部品1
100
AcDbText
 10
9499.194823127474
 20
1488.754887050556
 30
0.0
 40
135.0
  1
正面図
  7
STYLE2
100
AcDbText
  0
LINE
  5
17A78
330
747D
100
AcDbEntity
  8
Ｇ．Ｌ
100
AcDbLine
 10
2933.079777669999
 20
2560.96395924404
 30
0.0
 11
11754.91730553258
 21
2560.96395924404
 31
0.0
  0
DIMENSION
  5
17A79
330
747D
100
AcDbEntity
  8
寸法
 48
50.0
100
AcDbDimension
  2
*D14
 10
8182.179946032725
 20
2718.963959244039
 30
0.0
 11
8182.179946032723
 21
3620.892579453001
 31
0.0
 70
   160
  1
有効開口部高サ<>
 71
     5
 42
1725.000000000001
  3
INABA_S40G
100
AcDbAlignedDimension
 13
8923.40475250374
 23
4443.963959244039
 33
0.0
 14
8923.40475250374
 24
2718.963959244039
 34
0.0
 50
90.0
100
AcDbRotatedDimension
  0
DIMENSION
  5
17A7A
330
747D
100
AcDbEntity
  8
寸法
 48
50.0
100
AcDbDimension
  2
*D15
 10
7854.796345735369
 20
4610.309218117368
 30
0.0
 11
7865.461820994294
 21
4981.155881359073
 31
0.0
 70
   161
 71
     5
 42
141.0000000000009
  3
INABA_S40G
100
AcDbAlignedDimension
 13
8434.800772662319
 23
4734.68670807872
 33
0.0
 14
8430.747317105691
 24
4593.744984313005
 34
0.0
1001
ACAD
1000
DSTYLE
1002
{
1070
   174
1070
     0
1070
   272
1070
     1
1070
   288
1070
     0
1070
   341
1005
0
1002
}
  0
DIMENSION
  5
17A7B
330
747D
100
AcDbEntity
  8
寸法
100
AcDbDimension
  2
*D16
 10
7566.76537057438
 20
4735.963959244045
 30
0.0
 11
7566.76537057438
 21
3655.16983673715
 31
0.0
 70
   160
 71
     5
 42
2075.000000000005
  3
INABA_S40G
100
AcDbAlignedDimension
 13
8475.40475250374
 23
2660.96395924404
 33
0.0
 14
8415.404752503738
 24
4735.963959244045
 34
0.0
 50
90.0
100
AcDbRotatedDimension
1001
ACAD
1000
DSTYLE
1002
{
1070
   174
1070
     0
1070
   272
1070
     1
1070
   288
1070
     0
1070
   341
1005
0
1002
}
  0
DIMENSION
  5
17A7C
330
747D
100
AcDbEntity
  8
寸法
100
AcDbDimension
  2
*D17
 10
7851.752043345442
 20
2710.96395924404
 30
0.0
 11
7851.752043345441
 21
3601.418257785998
 31
0.0
 70
   160
 71
     5
 42
1790.0
  3
INABA_S40G
100
AcDbAlignedDimension
 13
8475.40475250374
 23
4500.96395924404
 33
0.0
 14
8475.40475250374
 24
2710.96395924404
 34
0.0
 50
90.0
100
AcDbRotatedDimension
1001
ACAD
1000
DSTYLE
1002
{
1070
   174
1070
     0
1070
   272
1070
     1
1070
   288
1070
     0
1070
   341
1005
0
1002
}
  0
DIMENSION
  5
17A7D
330
747D
100
AcDbEntity
  8
寸法
100
AcDbDimension
  2
*D18
 10
7851.752043345442
 20
2660.96395924404
 30
0.0
 11
7851.752043345441
 21
2354.91671514955
 31
0.0
 70
   160
 71
     5
 42
50.0
  3
INABA_S40G
100
AcDbAlignedDimension
 13
8475.40475250374
 23
2710.96395924404
 33
0.0
 14
8420.404752503738
 24
2660.96395924404
 34
0.0
 50
90.0
100
AcDbRotatedDimension
1001
ACAD
1000
DSTYLE
1002
{
1070
   174
1070
     0
1070
   272
1070
     1
1070
   288
1070
     0
1070
   341
1005
0
1002
}
  0
DIMENSION
  5
17A7E
330
747D
100
AcDbEntity
  8
寸法
100
AcDbDimension
  2
*D19
 10
7566.76537057438
 20
2560.96395924404
 30
0.0
 11
7566.76537057438
 21
2324.91671514955
 31
0.0
 70
   160
 71
     5
 42
100.0
  3
INABA_S40G
100
AcDbAlignedDimension
 13
8420.404752503738
 23
2660.96395924404
 33
0.0
 14
7851.752043345441
 24
2560.96395924404
 34
0.0
 50
90.0
100
AcDbRotatedDimension
1001
ACAD
1000
DSTYLE
1002
{
1070
   174
1070
     0
1070
   272
1070
     1
1070
   288
1070
     0
1070
   341
1005
0
1002
}
  0
TEXT
  5
17A7F
330
747D
100
AcDbEntity
  8
部品1
 48
50.0
100
AcDbText
 10
10141.98575446483
 20
4758.233052182347
 30
0.0
 40
120.0
  1
37
 50
90.0
  7
STYLE1
100
AcDbText
  0
TEXT
  5
17A80
330
747D
100
AcDbEntity
  8
部品1
 48
50.0
100
AcDbText
 10
9664.352731799747
 20
4895.73431040063
 30
0.0
 40
120.0
  1
1000
  7
STYLE1
100
AcDbText
  0
LINE
  5
17A81
330
747D
100
AcDbEntity
  8
部品1
 48
50.0
100
AcDbLine
 10
9976.08489657602
 20
4859.850288248197
 30
0.0
 11
9976.08489657602
 21
4843.650288248197
 31
0.0
  0
LINE
  5
17A82
330
747D
100
AcDbEntity
  8
部品1
 48
50.0
100
AcDbLine
 10
9676.084896576021
 20
4859.850288248197
 30
0.0
 11
9976.08489657602
 21
4859.850288248197
 31
0.0
  0
LINE
  5
17A83
330
747D
100
AcDbEntity
  8
部品1
100
AcDbLine
 10
9650.629882932982
 20
4861.168347207058
 30
0.0
 11
9976.08489657602
 21
4843.650288248197
 31
0.0
  0
LINE
  5
17A84
330
747D
100
AcDbEntity
  8
部品1
100
AcDbLine
 10
8422.949738860706
 20
4734.681694578307
 30
0.0
 11
11178.01662936521
 21
4679.604756953178
 31
0.0
  0
LINE
  5
17A85
330
747D
100
AcDbEntity
  8
部品1
100
AcDbLine
 10
8430.747317105696
 20
4593.744984313008
 30
0.0
 11
11160.06845304359
 21
4554.716559078801
 31
0.0
  0
LINE
  5
17A86
330
747D
100
AcDbEntity
  8
細線
 48
50.0
100
AcDbLine
 10
8416.444175604556
 20
4706.981041085402
 30
0.0
 11
11182.08016034972
 21
4651.356836444572
 31
0.0
  0
LINE
  5
17A87
330
747D
100
AcDbEntity
  8
細線
 48
50.0
100
AcDbLine
 10
8421.204650841842
 20
4614.119529387536
 30
0.0
 11
11171.20831527248
 21
4574.310210413044
 31
0.0
  0
LINE
  5
17A88
330
747D
100
AcDbEntity
  8
細線
 48
50.0
100
AcDbLine
 10
8448.404752503742
 20
4733.363635619445
 30
0.0
 11
8443.115650948234
 21
4593.27800299209
 31
0.0
  0
LINE
  5
17A89
330
747D
100
AcDbEntity
  8
部品1
 48
50.0
100
AcDbLine
 10
8415.589038416849
 20
4727.557505408733
 30
0.0
 11
8415.96929819466
 21
4707.630540962322
 31
0.0
  0
LINE
  5
17A8A
330
747D
100
AcDbEntity
  8
部品1
 48
50.0
100
AcDbLine
 10
8419.038070300906
 20
4704.055259468849
 30
0.0
 11
8420.741971792272
 21
4614.764762762201
 31
0.0
  0
LINE
  5
17A8B
330
747D
100
AcDbEntity
  8
部品1
 48
50.0
100
AcDbLine
 10
8423.810743898513
 20
4611.18948126873
 30
0.0
 11
8424.012696518945
 21
4600.606445875637
 31
0.0
  0
ARC
  5
17A8C
330
747D
100
AcDbEntity
  8
部品1
 48
50.0
100
AcDbCircle
 10
8422.587764245189
 20
4727.691059816161
 30
0.0
 40
7.0
100
AcDbArc
 50
87.03587545283093
 51
181.0932240293156
  0
ARC
  5
17A8D
330
747D
100
AcDbEntity
  8
部品1
 48
50.0
100
AcDbCircle
 10
8431.011422347285
 20
4600.740000283066
 30
0.0
 40
7.0
100
AcDbArc
 50
181.0932240293156
 51
267.8377559869492
  0
ARC
  5
17A8E
330
747D
100
AcDbEntity
  8
部品1
100
AcDbCircle
 10
8420.811289972084
 20
4611.132243665546
 30
0.0
 40
3.0
100
AcDbArc
 50
1.093224029315636
 51
80.18775403169875
  0
ARC
  5
17A8F
330
747D
100
AcDbEntity
  8
部品1
100
AcDbCircle
 10
8416.038616374477
 20
4703.998021865666
 30
0.0
 40
3.0
100
AcDbArc
 50
1.093224029315636
 51
80.18775403169875
  0
ARC
  5
17A90
330
747D
100
AcDbEntity
  8
部品1
100
AcDbCircle
 10
8416.669170777499
 20
4707.643896403062
 30
0.0
 40
0.7
100
AcDbArc
 50
181.0932240292114
 51
260.1877540314845
  0
ARC
  5
17A91
330
747D
100
AcDbEntity
  8
部品1
100
AcDbCircle
 10
8421.44184437511
 20
4614.778118202944
 30
0.0
 40
0.7
100
AcDbArc
 50
181.0932240292114
 51
260.1877540314845
  0
LINE
  5
17A92
330
747D
100
AcDbEntity
  8
細線
 48
50.0
100
AcDbLine
 10
11152.37403569743
 20
4680.117381723508
 30
0.0
 11
11147.65706961575
 21
4555.185165788592
 31
0.0
  0
LINE
  5
17A93
330
747D
100
AcDbEntity
  8
部品1
 48
50.0
100
AcDbLine
 10
11184.61865531444
 20
4671.905111518259
 30
0.0
 11
11182.58803412347
 21
4651.960070260478
 31
0.0
  0
LINE
  5
17A94
330
747D
100
AcDbEntity
  8
部品1
 48
50.0
100
AcDbLine
 10
11179.23546763899
 20
4648.649436187571
 30
0.0
 11
11171.72868837416
 21
4574.916815442558
 31
0.0
  0
LINE
  5
17A95
330
747D
100
AcDbEntity
  8
部品1
 48
50.0
100
AcDbLine
 10
11168.37612188967
 20
4571.606181369644
 30
0.0
 11
11167.29655884993
 21
4561.002564376087
 31
0.0
  0
ARC
  5
17A96
330
747D
100
AcDbEntity
  8
部品1
 48
50.0
100
AcDbCircle
 10
11177.65465474969
 20
4672.614122191034
 30
0.0
 40
7.0
100
AcDbArc
 50
354.1866997665532
 51
87.03587545283093
  0
ARC
  5
17A97
330
747D
100
AcDbEntity
  8
部品1
 48
50.0
100
AcDbCircle
 10
11160.33255828517
 20
4561.71157504886
 30
0.0
 40
7.0
100
AcDbArc
 50
267.8377559869492
 51
354.1866997665532
  0
ARC
  5
17A98
330
747D
100
AcDbEntity
  8
部品1
100
AcDbCircle
 10
11171.36069356028
 20
4571.302319652743
 30
0.0
 40
3.0
100
AcDbArc
 50
95.0921697642102
 51
174.1866997665532
  0
ARC
  5
17A99
330
747D
100
AcDbEntity
  8
部品1
100
AcDbCircle
 10
11182.2200393096
 20
4648.345574470668
 30
0.0
 40
3.0
100
AcDbArc
 50
95.0921697642102
 51
174.1866997665532
  0
ARC
  5
17A9A
330
747D
100
AcDbEntity
  8
部品1
100
AcDbCircle
 10
11181.891634067
 20
4652.030971327756
 30
0.0
 40
0.7
100
AcDbArc
 50
275.0921697642102
 51
354.1866997665532
  0
ARC
  5
17A9B
330
747D
100
AcDbEntity
  8
部品1
100
AcDbCircle
 10
11171.03228831768
 20
4574.987716509833
 30
0.0
 40
0.7
100
AcDbArc
 50
275.0921697642102
 51
354.1866997667606
  0
DIMENSION
  5
17A9C
330
747D
100
AcDbEntity
  8
寸法
 48
50.0
100
AcDbDimension
  2
*D20
 10
11185.40475250374
 20
5134.621412823345
 30
0.0
 11
11391.45199659823
 21
5134.621412823345
 31
0.0
 70
   160
 71
     5
 42
80.0
  3
INABA_S40G
100
AcDbAlignedDimension
 13
11105.40475250374
 23
4682.774638855694
 33
0.0
 14
11185.40475250374
 24
4680.963959244041
 34
0.0
100
AcDbRotatedDimension
1001
ACAD
1000
DSTYLE
1002
{
1070
   174
1070
     0
1070
   272
1070
     1
1070
   288
1070
     0
1070
   341
1005
0
1002
}
  0
DIMENSION
  5
17A9D
330
747D
100
AcDbEntity
  8
寸法
 48
50.0
100
AcDbDimension
  2
*D21
 10
8415.404752503743
 20
5354.832099554962
 30
0.0
 11
9818.763677391117
 21
5354.832099554962
 31
0.0
 70
   160
 71
     5
 42
2770.0
  3
INABA_S40G
100
AcDbAlignedDimension
 13
11185.40475250374
 23
4680.963959244041
 33
0.0
 14
8415.404752503743
 24
4735.963959244045
 34
0.0
100
AcDbRotatedDimension
1001
ACAD
1000
DSTYLE
1002
{
1070
   174
1070
     0
1070
   272
1070
     1
1070
   288
1070
     0
1070
   341
1005
0
1002
}
  0
DIMENSION
  5
17A9E
330
747D
100
AcDbEntity
  8
寸法
 48
50.0
100
AcDbDimension
  2
*D22
 10
8475.404752503742
 20
5134.621412823345
 30
0.0
 11
9830.174943532938
 21
5134.621412823345
 31
0.0
 70
   160
  1
柱外寸法<>
 71
     5
 42
2630.0
  3
INABA_S40G
100
AcDbAlignedDimension
 13
11105.40475250374
 23
4682.774638855694
 33
0.0
 14
8475.404752503742
 24
4731.965577367016
 34
0.0
100
AcDbRotatedDimension
1001
ACAD
1000
DSTYLE
1002
{
1070
   174
1070
     0
1070
   272
1070
     1
1070
   288
1070
     0
1070
   341
1005
0
1002
}
  0
DIMENSION
  5
17A9F
330
747D
100
AcDbEntity
  8
寸法
 48
50.0
100
AcDbDimension
  2
*D23
 10
8415.404752503743
 20
5134.621412823344
 30
0.0
 11
8105.766957228153
 21
5134.621412823344
 31
0.0
 70
   160
 71
     5
 42
60.0
  3
INABA_S40G
100
AcDbAlignedDimension
 13
8475.404752503742
 23
4731.965577367016
 33
0.0
 14
8415.404752503743
 24
4735.963959244045
 34
0.0
100
AcDbRotatedDimension
1001
ACAD
1000
DSTYLE
1002
{
1070
   174
1070
     0
1070
   272
1070
     1
1070
   288
1070
     0
1070
   341
1005
0
1002
}
  0
LINE
  5
17D61
330
747D
100
AcDbEntity
  8
補助
  6
PHANTOM
 62
   230
 48
50.0
100
AcDbLine
 10
140.0
 20
0.0
 30
0.0
 11
140.0
 21
11409.6
 31
0.0
  0
ARC
  5
180AE
330
747D
100
AcDbEntity
  8
部品1
100
AcDbCircle
 10
6415.899302060051
 20
4728.963959244047
 30
0.0
 40
7.0
100
AcDbArc
 50
356.7526572096682
 51
90.0
  0
ARC
  5
180AF
330
747D
100
AcDbEntity
  8
部品1
100
AcDbCircle
 10
6402.683978599012
 20
4601.963959244046
 30
0.0
 40
7.0
100
AcDbArc
 50
270.0
 51
356.7526572096682
  0
ARC
  5
180B0
330
747D
100
AcDbEntity
  8
部品1
 48
50.0
100
AcDbCircle
 10
6421.055788809692
 20
4708.63095840573
 30
0.0
 40
0.7
100
AcDbArc
 50
277.6581272073652
 51
356.7526572095583
  0
ARC
  5
180B1
330
747D
100
AcDbEntity
  8
部品1
 48
50.0
100
AcDbCircle
 10
6412.819758284848
 20
4616.430958405729
 30
0.0
 40
0.7
100
AcDbArc
 50
277.6581272073652
 51
356.7526572096682
  0
ARC
  5
180B2
330
747D
100
AcDbEntity
  8
部品1
 48
50.0
100
AcDbCircle
 10
6413.312827393409
 20
4612.763959244041
 30
0.0
 40
3.0
100
AcDbArc
 50
97.65812720736519
 51
176.7526572096682
  0
ARC
  5
180B3
330
747D
100
AcDbEntity
  8
部品1
 48
50.0
100
AcDbCircle
 10
6421.548857918253
 20
4704.963959244046
 30
0.0
 40
3.0
100
AcDbArc
 50
97.65812720736519
 51
176.7526572096682
  0
LINE
  5
180B4
330
747D
100
AcDbEntity
  8
部品1
100
AcDbLine
 10
6418.553675022067
 20
4705.133898699149
 30
0.0
 11
6413.518634293959
 21
4616.391305866203
 31
0.0
  0
LINE
  5
180B5
330
747D
100
AcDbEntity
  8
部品1
100
AcDbLine
 10
6410.317644497223
 20
4612.933898699145
 30
0.0
 11
6409.672738690115
 21
4601.567433848805
 31
0.0
  0
LINE
  5
180B6
330
747D
100
AcDbEntity
  8
細線
 48
50.0
100
AcDbLine
 10
6390.307723166483
 20
4735.963959244046
 30
0.0
 11
6390.307723166483
 21
4594.963959244046
 31
0.0
  0
LINE
  5
180B7
330
747D
100
AcDbEntity
  8
部品1
100
AcDbLine
 10
6422.888062151145
 20
4728.567433848804
 30
0.0
 11
6421.754664818803
 21
4708.591305866207
 31
0.0
  0
DIMENSION
  5
180B8
330
747D
100
AcDbEntity
  8
寸法
 48
50.0
100
AcDbDimension
  2
*D24
 10
6373.307723166483
 20
5140.584218671311
 30
0.0
 11
6736.793004540716
 21
5140.584218671311
 31
0.0
 70
   160
 71
     5
 42
50.0
  3
INABA_S40G
100
AcDbAlignedDimension
 13
6423.307723166484
 23
4735.963959244042
 33
0.0
 14
6373.307723166483
 24
4735.963959244046
 34
0.0
100
AcDbRotatedDimension
  0
ARC
  5
180B9
330
747D
100
AcDbEntity
  8
部品1
 48
0.01
100
AcDbCircle
 10
4741.307723166475
 20
4533.463959244042
 30
0.0
 40
2.0
100
AcDbArc
 50
270.0
 51
0.0
  0
ARC
  5
180BA
330
747D
100
AcDbEntity
  8
部品1
 48
0.01
100
AcDbCircle
 10
4741.307723166479
 20
4564.963959244042
 30
0.0
 40
2.0
100
AcDbArc
 50
0.0
 51
90.0
  0
ARC
  5
180BB
330
747D
100
AcDbEntity
  8
部品1
 48
0.01
100
AcDbCircle
 10
4565.307723166479
 20
4533.463959244042
 30
0.0
 40
2.0
100
AcDbArc
 50
180.0
 51
270.0
  0
ARC
  5
180BC
330
747D
100
AcDbEntity
  8
部品1
 48
0.01
100
AcDbCircle
 10
4565.307723166479
 20
4564.963959244042
 30
0.0
 40
2.0
100
AcDbArc
 50
90.0
 51
180.0
  0
LINE
  5
180BD
330
747D
100
AcDbEntity
  8
細線
100
AcDbLine
 10
4653.307723166475
 20
4537.463959244042
 30
0.0
 11
4727.307723166479
 21
4537.463959244042
 31
0.0
  0
LINE
  5
180BE
330
747D
100
AcDbEntity
  8
細線
100
AcDbLine
 10
4653.307723166479
 20
4560.463959244042
 30
0.0
 11
4579.307723166479
 21
4560.463959244042
 31
0.0
  0
LINE
  5
180BF
330
747D
100
AcDbEntity
  8
細線
100
AcDbLine
 10
4579.307723166479
 20
4537.463959244042
 30
0.0
 11
4653.307723166479
 21
4537.463959244042
 31
0.0
  0
LINE
  5
180C0
330
747D
100
AcDbEntity
  8
細線
100
AcDbLine
 10
4727.307723166479
 20
4560.463959244042
 30
0.0
 11
4653.307723166479
 21
4560.463959244042
 31
0.0
  0
LINE
  5
180C1
330
747D
100
AcDbEntity
  8
細線
100
AcDbLine
 10
4727.307723166479
 20
4537.463959244042
 30
0.0
 11
4727.307723166479
 21
4560.463959244042
 31
0.0
  0
LINE
  5
180C2
330
747D
100
AcDbEntity
  8
細線
100
AcDbLine
 10
4579.307723166479
 20
4560.463959244042
 30
0.0
 11
4579.307723166479
 21
4537.463959244042
 31
0.0
  0
LINE
  5
180C3
330
747D
100
AcDbEntity
  8
部品1
 48
0.01
100
AcDbLine
 10
4743.307723166475
 20
4533.463959244042
 30
0.0
 11
4743.30772316648
 21
4564.963959244042
 31
0.0
  0
LINE
  5
180C4
330
747D
100
AcDbEntity
  8
部品1
 48
0.01
100
AcDbLine
 10
4565.307723166479
 20
4531.463959244042
 30
0.0
 11
4741.307723166475
 21
4531.463959244042
 31
0.0
  0
LINE
  5
180C5
330
747D
100
AcDbEntity
  8
部品1
 48
0.01
100
AcDbLine
 10
4563.307723166479
 20
4564.963959244042
 30
0.0
 11
4563.307723166479
 21
4533.463959244042
 31
0.0
  0
LINE
  5
180C6
330
747D
100
AcDbEntity
  8
部品1
 48
0.01
100
AcDbLine
 10
4741.307723166479
 20
4566.963959244042
 30
0.0
 11
4565.307723166479
 21
4566.963959244042
 31
0.0
  0
LINE
  5
180C7
330
747D
100
AcDbEntity
  8
細線
100
AcDbLine
 10
4579.307723166479
 20
4554.463959244042
 30
0.0
 11
4653.307723166479
 21
4554.463959244042
 31
0.0
  0
LINE
  5
180C8
330
747D
100
AcDbEntity
  8
細線
100
AcDbLine
 10
4579.307723166479
 20
4548.463959244042
 30
0.0
 11
4653.307723166479
 21
4548.463959244042
 31
0.0
  0
LINE
  5
180C9
330
747D
100
AcDbEntity
  8
細線
100
AcDbLine
 10
4579.307723166476
 20
4542.463959244043
 30
0.0
 11
4653.307723166479
 21
4542.463959244043
 31
0.0
  0
LINE
  5
180CA
330
747D
100
AcDbEntity
  8
細線
100
AcDbLine
 10
4579.307723166479
 20
4554.463959244042
 30
0.0
 11
4648.307723166479
 21
4554.463959244042
 31
0.0
  0
LINE
  5
180CB
330
747D
100
AcDbEntity
  8
細線
100
AcDbLine
 10
4727.307723166475
 20
4554.463959244039
 30
0.0
 11
4653.307723166479
 21
4554.463959244042
 31
0.0
  0
LINE
  5
180CC
330
747D
100
AcDbEntity
  8
細線
100
AcDbLine
 10
4727.307723166475
 20
4542.463959244039
 30
0.0
 11
4653.307723166479
 21
4542.463959244043
 31
0.0
  0
LINE
  5
180CD
330
747D
100
AcDbEntity
  8
細線
100
AcDbLine
 10
4727.307723166475
 20
4548.463959244042
 30
0.0
 11
4653.307723166479
 21
4548.463959244042
 31
0.0
  0
LINE
  5
180CE
330
747D
100
AcDbEntity
  8
細線
100
AcDbLine
 10
4653.307723166479
 20
4560.463959244042
 30
0.0
 11
4653.307723166475
 21
4537.463959244042
 31
0.0
  0
LINE
  5
180CF
330
747D
100
AcDbEntity
  8
部品1
 48
0.01
100
AcDbLine
 10
5973.307723166479
 20
4564.963959244042
 30
0.0
 11
5973.307723166479
 21
4533.463959244042
 31
0.0
  0
LINE
  5
180D0
330
747D
100
AcDbEntity
  8
部品1
 48
0.01
100
AcDbLine
 10
5971.307723166479
 20
4531.463959244042
 30
0.0
 11
5795.307723166479
 21
4531.463959244042
 31
0.0
  0
LINE
  5
180D1
330
747D
100
AcDbEntity
  8
部品1
 48
0.01
100
AcDbLine
 10
5793.30772316648
 20
4533.463959244042
 30
0.0
 11
5793.30772316648
 21
4564.963959244042
 31
0.0
  0
ARC
  5
180D2
330
747D
100
AcDbEntity
  8
部品1
 48
0.01
100
AcDbCircle
 10
5971.307723166479
 20
4533.463959244042
 30
0.0
 40
2.0
100
AcDbArc
 50
270.0
 51
0.0
  0
ARC
  5
180D3
330
747D
100
AcDbEntity
  8
部品1
 48
0.01
100
AcDbCircle
 10
5795.307723166479
 20
4533.463959244042
 30
0.0
 40
2.0
100
AcDbArc
 50
180.0
 51
270.0
  0
LINE
  5
180D4
330
747D
100
AcDbEntity
  8
細線
100
AcDbLine
 10
5883.307723166479
 20
4560.463959244042
 30
0.0
 11
5883.307723166479
 21
4537.463959244042
 31
0.0
  0
LINE
  5
180D5
330
747D
100
AcDbEntity
  8
細線
100
AcDbLine
 10
5809.30772316648
 20
4548.463959244042
 30
0.0
 11
5883.307723166479
 21
4548.463959244042
 31
0.0
  0
LINE
  5
180D6
330
747D
100
AcDbEntity
  8
細線
100
AcDbLine
 10
5809.30772316648
 20
4542.463959244039
 30
0.0
 11
5883.307723166479
 21
4542.463959244043
 31
0.0
  0
LINE
  5
180D7
330
747D
100
AcDbEntity
  8
細線
100
AcDbLine
 10
5809.30772316648
 20
4554.463959244039
 30
0.0
 11
5883.307723166479
 21
4554.463959244042
 31
0.0
  0
LINE
  5
180D8
330
747D
100
AcDbEntity
  8
細線
100
AcDbLine
 10
5957.307723166479
 20
4554.463959244042
 30
0.0
 11
5888.307723166479
 21
4554.463959244042
 31
0.0
  0
LINE
  5
180D9
330
747D
100
AcDbEntity
  8
細線
100
AcDbLine
 10
5957.307723166479
 20
4542.463959244043
 30
0.0
 11
5883.307723166479
 21
4542.463959244043
 31
0.0
  0
LINE
  5
180DA
330
747D
100
AcDbEntity
  8
細線
100
AcDbLine
 10
5957.307723166479
 20
4548.463959244042
 30
0.0
 11
5883.307723166479
 21
4548.463959244042
 31
0.0
  0
LINE
  5
180DB
330
747D
100
AcDbEntity
  8
細線
100
AcDbLine
 10
5957.307723166479
 20
4554.463959244042
 30
0.0
 11
5883.307723166479
 21
4554.463959244042
 31
0.0
  0
LINE
  5
180DC
330
747D
100
AcDbEntity
  8
部品1
 48
0.01
100
AcDbLine
 10
5795.307723166479
 20
4566.963959244042
 30
0.0
 11
5971.307723166479
 21
4566.963959244042
 31
0.0
  0
LINE
  5
180DD
330
747D
100
AcDbEntity
  8
細線
100
AcDbLine
 10
5957.307723166479
 20
4560.463959244042
 30
0.0
 11
5957.307723166479
 21
4537.463959244042
 31
0.0
  0
LINE
  5
180DE
330
747D
100
AcDbEntity
  8
細線
100
AcDbLine
 10
5809.30772316648
 20
4537.463959244042
 30
0.0
 11
5809.30772316648
 21
4560.463959244042
 31
0.0
  0
LINE
  5
180DF
330
747D
100
AcDbEntity
  8
細線
100
AcDbLine
 10
5809.30772316648
 20
4560.463959244042
 30
0.0
 11
5883.307723166479
 21
4560.463959244042
 31
0.0
  0
LINE
  5
180E0
330
747D
100
AcDbEntity
  8
細線
100
AcDbLine
 10
5957.307723166479
 20
4537.463959244042
 30
0.0
 11
5883.307723166479
 21
4537.463959244042
 31
0.0
  0
LINE
  5
180E1
330
747D
100
AcDbEntity
  8
細線
100
AcDbLine
 10
5883.307723166479
 20
4560.463959244042
 30
0.0
 11
5957.307723166479
 21
4560.463959244042
 31
0.0
  0
LINE
  5
180E2
330
747D
100
AcDbEntity
  8
細線
100
AcDbLine
 10
5883.307723166479
 20
4537.463959244042
 30
0.0
 11
5809.30772316648
 21
4537.463959244042
 31
0.0
  0
ARC
  5
180E3
330
747D
100
AcDbEntity
  8
部品1
 48
0.01
100
AcDbCircle
 10
5971.307723166479
 20
4564.963959244042
 30
0.0
 40
2.0
100
AcDbArc
 50
0.0
 51
90.0
  0
ARC
  5
180E4
330
747D
100
AcDbEntity
  8
部品1
 48
0.01
100
AcDbCircle
 10
5795.307723166479
 20
4564.963959244042
 30
0.0
 40
2.0
100
AcDbArc
 50
90.0
 51
180.0
  0
LINE
  5
180E5
330
747D
100
AcDbEntity
  8
部品1
100
AcDbLine
 10
4113.727384181813
 20
4728.567433848804
 30
0.0
 11
4114.860781514159
 21
4708.591305866207
 31
0.0
  0
LINE
  5
180E6
330
747D
100
AcDbEntity
  8
部品1
100
AcDbLine
 10
4126.297801835735
 20
4612.933898699145
 30
0.0
 11
4126.942707642843
 21
4601.567433848805
 31
0.0
  0
LINE
  5
180E7
330
747D
100
AcDbEntity
  8
部品1
100
AcDbLine
 10
4118.061771310888
 20
4705.133898699149
 30
0.0
 11
4123.096812038999
 21
4616.391305866203
 31
0.0
  0
ARC
  5
180E8
330
747D
100
AcDbEntity
  8
部品1
 48
50.0
100
AcDbCircle
 10
4115.066588414705
 20
4704.963959244046
 30
0.0
 40
3.0
100
AcDbArc
 50
3.247342790331777
 51
82.3418727926348
  0
ARC
  5
180E9
330
747D
100
AcDbEntity
  8
部品1
 48
50.0
100
AcDbCircle
 10
4123.302618939546
 20
4612.763959244041
 30
0.0
 40
3.0
100
AcDbArc
 50
3.247342790331777
 51
82.3418727926348
  0
ARC
  5
180EA
330
747D
100
AcDbEntity
  8
部品1
 48
50.0
100
AcDbCircle
 10
4123.795688048107
 20
4616.430958405729
 30
0.0
 40
0.7
100
AcDbArc
 50
183.2473427903317
 51
262.3418727926349
  0
ARC
  5
180EB
330
747D
100
AcDbEntity
  8
部品1
 48
50.0
100
AcDbCircle
 10
4115.559657523266
 20
4708.63095840573
 30
0.0
 40
0.7
100
AcDbArc
 50
183.2473427904417
 51
262.3418727926349
  0
ARC
  5
180EC
330
747D
100
AcDbEntity
  8
部品1
100
AcDbCircle
 10
4133.931467733942
 20
4601.963959244046
 30
0.0
 40
7.0
100
AcDbArc
 50
183.2473427903317
 51
270.0
  0
ARC
  5
180ED
330
747D
100
AcDbEntity
  8
部品1
100
AcDbCircle
 10
4120.716144272908
 20
4728.963959244047
 30
0.0
 40
7.0
100
AcDbArc
 50
90.0
 51
183.2473427903317
  0
LINE
  5
180EE
330
747D
100
AcDbEntity
  8
細線
 48
50.0
100
AcDbLine
 10
4146.307723166478
 20
4735.963959244046
 30
0.0
 11
4146.307723166478
 21
4594.963959244046
 31
0.0
  0
LINE
  5
180EF
330
747D
100
AcDbEntity
  8
細線
 48
50.0
100
AcDbLine
 10
6413.032154420195
 20
4615.763959244041
 30
0.0
 11
4123.583291912746
 21
4615.763959244045
 31
0.0
  0
LINE
  5
180F0
330
747D
100
AcDbEntity
  8
細線
 48
50.0
100
AcDbLine
 10
6421.268184945041
 20
4707.963959244046
 30
0.0
 11
4115.347261387916
 21
4707.963959244042
 31
0.0
  0
LINE
  5
180F1
330
747D
100
AcDbEntity
  8
部品1
 48
50.0
100
AcDbLine
 10
6402.683978599012
 20
4594.96395924405
 30
0.0
 11
4133.931467733942
 21
4594.963959244046
 31
0.0
  0
LINE
  5
180F2
330
747D
100
AcDbEntity
  8
部品1
 48
50.0
100
AcDbLine
 10
6415.899302060051
 20
4735.963959244042
 30
0.0
 11
4120.716144272908
 21
4735.963959244046
 31
0.0
  0
DIMENSION
  5
180F3
330
747D
100
AcDbEntity
  8
寸法
 48
50.0
100
AcDbDimension
  2
*D25
 10
4163.307723166479
 20
5140.584218671311
 30
0.0
 11
5268.307723166479
 21
5140.584218671311
 31
0.0
 70
   160
  1
柱外寸法<>
 71
     5
 42
2210.000000000004
  3
INABA_S40G
100
AcDbAlignedDimension
 13
6373.307723166483
 23
4735.963959244046
 33
0.0
 14
4163.307723166479
 24
4735.963959244046
 34
0.0
100
AcDbRotatedDimension
  0
DIMENSION
  5
180F4
330
747D
100
AcDbEntity
  8
寸法
 48
50.0
100
AcDbDimension
  2
*D26
 10
4113.307723166479
 20
5140.584218671311
 30
0.0
 11
3799.822441792232
 21
5140.584218671311
 31
0.0
 70
   160
 71
     5
 42
50.0
  3
INABA_S40G
100
AcDbAlignedDimension
 13
4163.307723166479
 23
4735.963959244046
 33
0.0
 14
4113.307723166479
 24
4735.963959244046
 34
0.0
100
AcDbRotatedDimension
1001
ACAD
1000
DSTYLE
1002
{
1002
}
  0
DIMENSION
  5
180F5
330
747D
100
AcDbEntity
  8
寸法
 48
50.0
100
AcDbDimension
  2
*D27
 10
6423.307723166484
 20
5350.178093092762
 30
0.0
 11
5268.307723166479
 21
5350.178093092762
 31
0.0
 70
   160
 71
     5
 42
2310.000000000004
  3
INABA_S40G
100
AcDbAlignedDimension
 13
4113.307723166479
 23
4735.963959244046
 33
0.0
 14
6423.307723166484
 24
4735.963959244042
 34
0.0
100
AcDbRotatedDimension
  0
TEXT
  5
180F6
330
747D
100
AcDbEntity
  8
部品1
100
AcDbText
 10
3043.468418970999
 20
2597.070862849944
 30
0.0
 40
125.0
  1
▽G.L
  7
STYLE2
100
AcDbText
  0
LINE
  5
180F7
330
747D
100
AcDbEntity
  8
部品1
100
AcDbLine
 10
4363.307723166479
 20
2660.963959244043
 30
0.0
 11
4363.307723166479
 21
2560.963959244043
 31
0.0
  0
LINE
  5
180F8
330
747D
100
AcDbEntity
  8
部品1
 48
50.0
100
AcDbLine
 10
5168.30772316648
 20
2660.963959244043
 30
0.0
 11
5168.30772316648
 21
2560.963959244043
 31
0.0
  0
LINE
  5
180F9
330
747D
100
AcDbEntity
  8
部品1
 48
50.0
100
AcDbLine
 10
5368.30772316648
 20
2660.963959244043
 30
0.0
 11
5368.30772316648
 21
2560.963959244043
 31
0.0
  0
LINE
  5
180FA
330
747D
100
AcDbEntity
  8
部品1
100
AcDbLine
 10
6173.307723166479
 20
2660.963959244043
 30
0.0
 11
6173.307723166479
 21
2560.963959244043
 31
0.0
  0
LINE
  5
180FB
330
747D
100
AcDbEntity
  8
部品1
 48
50.0
100
AcDbLine
 10
6450.307723166483
 20
2660.963959244043
 30
0.0
 11
6365.807723166483
 21
2660.963959244043
 31
0.0
  0
LINE
  5
180FC
330
747D
100
AcDbEntity
  8
部品1
 48
50.0
100
AcDbLine
 10
6450.307723166483
 20
4485.963959244042
 30
0.0
 11
6450.307723166483
 21
2560.963959244043
 31
0.0
  0
LINE
  5
180FD
330
747D
100
AcDbEntity
  8
部品1
 48
50.0
100
AcDbLine
 10
6373.307723166483
 20
4495.963959244043
 30
0.0
 11
6450.307723166483
 21
4485.963959244042
 31
0.0
  0
LINE
  5
180FE
330
747D
100
AcDbEntity
  8
破線
 48
5.0
100
AcDbLine
 10
6245.807723166486
 20
2560.963959244043
 30
0.0
 11
6245.807723166486
 21
2360.963959244043
 31
0.0
  0
LINE
  5
180FF
330
747D
100
AcDbEntity
  8
破線
 48
5.0
100
AcDbLine
 10
6445.807723166483
 20
2360.963959244039
 30
0.0
 11
6245.807723166486
 21
2360.963959244043
 31
0.0
  0
LINE
  5
18100
330
747D
100
AcDbEntity
  8
破線
 48
5.0
100
AcDbLine
 10
6445.807723166487
 20
2560.963959244043
 30
0.0
 11
6445.807723166483
 21
2360.963959244039
 31
0.0
  0
DIMENSION
  5
18101
330
747D
100
AcDbEntity
  8
寸法
 48
50.0
100
AcDbDimension
  2
*D28
 10
4090.807723166483
 20
2074.916629943663
 30
0.0
 11
4190.807723166481
 21
2074.916629943663
 31
0.0
 70
   160
 71
     5
 42
199.9999999999963
  3
INABA_S40G
100
AcDbAlignedDimension
 13
4290.807723166479
 23
2360.963959244039
 33
0.0
 14
4090.807723166483
 24
2360.963959244041
 34
0.0
100
AcDbRotatedDimension
  0
LINE
  5
18102
330
747D
100
AcDbEntity
  8
破線
 48
5.0
100
AcDbLine
 10
4090.807723166479
 20
2560.963959244043
 30
0.0
 11
4090.807723166483
 21
2360.963959244039
 31
0.0
  0
LINE
  5
18103
330
747D
100
AcDbEntity
  8
破線
 48
5.0
100
AcDbLine
 10
4290.807723166479
 20
2560.963959244043
 30
0.0
 11
4290.807723166479
 21
2360.963959244039
 31
0.0
  0
LINE
  5
18104
330
747D
100
AcDbEntity
  8
破線
 48
5.0
100
AcDbLine
 10
4290.807723166479
 20
2360.963959244039
 30
0.0
 11
4090.807723166483
 21
2360.963959244039
 31
0.0
  0
DIMENSION
  5
18105
330
747D
100
AcDbEntity
  8
寸法
 48
50.0
100
AcDbDimension
  2
*D29
 10
3941.307719919846
 20
2560.963959244041
 30
0.0
 11
3941.307719919846
 21
2460.963959244041
 31
0.0
 70
   160
 71
     5
 42
200.0
  3
INABA_S40G
100
AcDbAlignedDimension
 13
4090.807723166483
 23
2360.963959244041
 33
0.0
 14
4065.807723166479
 24
2560.963959244041
 34
0.0
 50
90.0
100
AcDbRotatedDimension
1001
ACAD
1000
DSTYLE
1002
{
1070
   174
1070
     0
1070
   272
1070
     1
1070
   288
1070
     0
1070
   341
1005
0
1002
}
  0
LINE
  5
18106
330
747D
100
AcDbEntity
  8
部品1
100
AcDbLine
 10
6365.807723166479
 20
2660.963959244043
 30
0.0
 11
6373.307723166483
 21
2660.963959244043
 31
0.0
  0
LINE
  5
18107
330
747D
100
AcDbEntity
  8
破線
  6
HIDDEN
 48
5.0
100
AcDbLine
 10
4210.807723166479
 20
2560.963959244043
 30
0.0
 11
4210.807723166479
 21
2555.963959244043
 31
0.0
  0
LINE
  5
18108
330
747D
100
AcDbEntity
  8
破線
  6
HIDDEN
 48
5.0
100
AcDbLine
 10
4170.807723166486
 20
2560.963959244043
 30
0.0
 11
4170.807723166486
 21
2555.963959244043
 31
0.0
  0
LINE
  5
18109
330
747D
100
AcDbEntity
  8
破線
  6
HIDDEN
 48
5.0
100
AcDbLine
 10
6365.807723166479
 20
2560.963959244043
 30
0.0
 11
6365.807723166479
 21
2555.963959244043
 31
0.0
  0
LINE
  5
1810A
330
747D
100
AcDbEntity
  8
破線
  6
HIDDEN
 48
5.0
100
AcDbLine
 10
6325.807723166479
 20
2560.963959244043
 30
0.0
 11
6325.807723166479
 21
2555.963959244043
 31
0.0
  0
ARC
  5
1810B
330
747D
100
AcDbEntity
  8
部品1
 48
50.0
100
AcDbCircle
 10
6360.807723166479
 20
2700.963959244043
 30
0.0
 40
5.0
100
AcDbArc
 50
0.0
 51
90.0
  0
ARC
  5
1810C
330
747D
100
AcDbEntity
  8
部品1
 48
50.0
100
AcDbCircle
 10
6330.807723166479
 20
2700.963959244043
 30
0.0
 40
5.0
100
AcDbArc
 50
90.0
 51
180.0
  0
LINE
  5
1810D
330
747D
100
AcDbEntity
  8
部品1
100
AcDbLine
 10
6360.807723166479
 20
2705.963959244043
 30
0.0
 11
6330.807723166479
 21
2705.963959244043
 31
0.0
  0
LINE
  5
1810E
330
747D
100
AcDbEntity
  8
部品1
 48
50.0
100
AcDbLine
 10
6365.807723166479
 20
2700.963959244043
 30
0.0
 11
6365.807723166479
 21
2560.963959244043
 31
0.0
  0
LINE
  5
1810F
330
747D
100
AcDbEntity
  8
部品1
 48
50.0
100
AcDbLine
 10
6325.807723166479
 20
2700.963959244043
 30
0.0
 11
6325.807723166479
 21
2560.963959244043
 31
0.0
  0
ARC
  5
18110
330
747D
100
AcDbEntity
  8
部品1
 48
50.0
100
AcDbCircle
 10
4205.807723166479
 20
2700.963959244043
 30
0.0
 40
5.0
100
AcDbArc
 50
0.0
 51
90.0
  0
ARC
  5
18111
330
747D
100
AcDbEntity
  8
部品1
 48
50.0
100
AcDbCircle
 10
4175.807723166479
 20
2700.963959244043
 30
0.0
 40
5.0
100
AcDbArc
 50
90.0
 51
180.0
  0
LINE
  5
18112
330
747D
100
AcDbEntity
  8
部品1
100
AcDbLine
 10
4175.807723166479
 20
2705.963959244043
 30
0.0
 11
4205.807723166479
 21
2705.963959244043
 31
0.0
  0
LINE
  5
18113
330
747D
100
AcDbEntity
  8
部品1
 48
50.0
100
AcDbLine
 10
4210.807723166479
 20
2700.963959244043
 30
0.0
 11
4210.807723166479
 21
2560.963959244043
 31
0.0
  0
LINE
  5
18114
330
747D
100
AcDbEntity
  8
部品1
 48
50.0
100
AcDbLine
 10
4170.807723166479
 20
2700.963959244043
 30
0.0
 11
4170.807723166479
 21
2560.963959244043
 31
0.0
  0
LINE
  5
18115
330
747D
100
AcDbEntity
  8
破線
  6
HIDDEN
 48
5.0
100
AcDbLine
 10
4210.807723166479
 20
2555.963959244043
 30
0.0
 11
4225.807723166479
 21
2408.263959244042
 31
0.0
  0
LINE
  5
18116
330
747D
100
AcDbEntity
  8
破線
  6
HIDDEN
 48
5.0
100
AcDbLine
 10
4170.807723166479
 20
2555.963959244043
 30
0.0
 11
4155.807723166479
 21
2408.263959244042
 31
0.0
  0
LINE
  5
18117
330
747D
100
AcDbEntity
  8
破線
  6
HIDDEN
 48
5.0
100
AcDbLine
 10
4225.807723166479
 20
2408.263959244042
 30
0.0
 11
4225.807723166479
 21
2405.963959244043
 31
0.0
  0
LINE
  5
18118
330
747D
100
AcDbEntity
  8
破線
  6
HIDDEN
 48
5.0
100
AcDbLine
 10
4155.807723166479
 20
2408.263959244042
 30
0.0
 11
4155.807723166479
 21
2405.963959244043
 31
0.0
  0
LINE
  5
18119
330
747D
100
AcDbEntity
  8
破線
  6
HIDDEN
 48
5.0
100
AcDbLine
 10
4155.807723166479
 20
2405.963959244043
 30
0.0
 11
4225.807723166479
 21
2405.963959244043
 31
0.0
  0
LINE
  5
1811A
330
747D
100
AcDbEntity
  8
破線
  6
HIDDEN
 48
5.0
100
AcDbLine
 10
6380.80772316648
 20
2408.263959244042
 30
0.0
 11
6380.80772316648
 21
2405.963959244043
 31
0.0
  0
LINE
  5
1811B
330
747D
100
AcDbEntity
  8
破線
  6
HIDDEN
 48
5.0
100
AcDbLine
 10
6365.807723166479
 20
2555.963959244043
 30
0.0
 11
6380.80772316648
 21
2408.263959244042
 31
0.0
  0
LINE
  5
1811C
330
747D
100
AcDbEntity
  8
破線
  6
HIDDEN
 48
5.0
100
AcDbLine
 10
6310.80772316648
 20
2408.263959244042
 30
0.0
 11
6310.80772316648
 21
2405.963959244043
 31
0.0
  0
LINE
  5
1811D
330
747D
100
AcDbEntity
  8
破線
  6
HIDDEN
 48
5.0
100
AcDbLine
 10
6325.807723166479
 20
2555.963959244043
 30
0.0
 11
6310.80772316648
 21
2408.263959244042
 31
0.0
  0
LINE
  5
1811E
330
747D
100
AcDbEntity
  8
破線
  6
HIDDEN
 48
5.0
100
AcDbLine
 10
6380.80772316648
 20
2405.963959244043
 30
0.0
 11
6310.80772316648
 21
2405.963959244043
 31
0.0
  0
LINE
  5
1811F
330
747D
100
AcDbEntity
  8
部品1
100
AcDbLine
 10
4163.307723166479
 20
2660.963959244043
 30
0.0
 11
4170.807723166479
 21
2660.963959244043
 31
0.0
  0
LINE
  5
18120
330
747D
100
AcDbEntity
  8
部品1
100
AcDbLine
 10
5650.043056280697
 20
1871.925696266632
 30
0.0
 11
4886.572390052261
 21
1871.925696266632
 31
0.0
  0
LINE
  5
18121
330
747D
100
AcDbEntity
  8
部品1
100
AcDbLine
 10
5650.043056280697
 20
1632.0333747211
 30
0.0
 11
5650.043056280697
 21
1871.925696266632
 31
0.0
  0
LINE
  5
18122
330
747D
100
AcDbEntity
  8
部品1
100
AcDbLine
 10
4886.572390052261
 20
1632.0333747211
 30
0.0
 11
5650.043056280697
 21
1632.0333747211
 31
0.0
  0
LINE
  5
18123
330
747D
100
AcDbEntity
  8
部品1
100
AcDbLine
 10
4886.572390052261
 20
1871.925696266632
 30
0.0
 11
4886.572390052261
 21
1632.0333747211
 31
0.0
  0
TEXT
  5
18124
330
747D
100
AcDbEntity
  8
部品1
100
AcDbText
 10
4976.018491475868
 20
1679.032167048107
 30
0.0
 40
135.0
  1
側面図
  7
STYLE2
100
AcDbText
  0
LINE
  5
18125
330
747D
100
AcDbEntity
  8
細線
 48
50.0
100
AcDbLine
 10
6240.807723166486
 20
4500.963959244042
 30
0.0
 11
6240.807723166486
 21
2710.963959244043
 31
0.0
  0
LINE
  5
18126
330
747D
100
AcDbEntity
  8
細線
 48
50.0
100
AcDbLine
 10
6255.807723166487
 20
4500.963959244042
 30
0.0
 11
6255.807723166487
 21
2710.963959244043
 31
0.0
  0
LINE
  5
18127
330
747D
100
AcDbEntity
  8
細線
 48
50.0
100
AcDbLine
 10
6115.807723166486
 20
4500.963959244042
 30
0.0
 11
6115.807723166486
 21
2710.963959244043
 31
0.0
  0
LINE
  5
18128
330
747D
100
AcDbEntity
  8
細線
 48
50.0
100
AcDbLine
 10
6100.807723166486
 20
4500.963959244042
 30
0.0
 11
6100.807723166486
 21
2710.963959244043
 31
0.0
  0
LINE
  5
18129
330
747D
100
AcDbEntity
  8
細線
 48
50.0
100
AcDbLine
 10
5960.807723166486
 20
4500.963959244042
 30
0.0
 11
5960.807723166486
 21
2710.963959244043
 31
0.0
  0
LINE
  5
1812A
330
747D
100
AcDbEntity
  8
細線
 48
50.0
100
AcDbLine
 10
5975.807723166486
 20
4500.963959244042
 30
0.0
 11
5975.807723166486
 21
2710.963959244043
 31
0.0
  0
LINE
  5
1812B
330
747D
100
AcDbEntity
  8
部品1
100
AcDbLine
 10
5478.307723166479
 20
4500.963959244042
 30
0.0
 11
5478.307723166479
 21
2710.963959244043
 31
0.0
  0
LINE
  5
1812C
330
747D
100
AcDbEntity
  8
細線
 48
50.0
100
AcDbLine
 10
5135.807723166482
 20
4500.963959244042
 30
0.0
 11
5135.807723166482
 21
2710.963959244043
 31
0.0
  0
LINE
  5
1812D
330
747D
100
AcDbEntity
  8
細線
 48
50.0
100
AcDbLine
 10
5120.807723166483
 20
4500.963959244042
 30
0.0
 11
5120.807723166483
 21
2710.963959244043
 31
0.0
  0
LINE
  5
1812E
330
747D
100
AcDbEntity
  8
細線
 48
50.0
100
AcDbLine
 10
5260.807723166482
 20
4500.963959244042
 30
0.0
 11
5260.807723166482
 21
2710.963959244043
 31
0.0
  0
LINE
  5
1812F
330
747D
100
AcDbEntity
  8
細線
 48
50.0
100
AcDbLine
 10
5275.807723166483
 20
4500.963959244042
 30
0.0
 11
5275.807723166483
 21
2710.963959244043
 31
0.0
  0
LINE
  5
18130
330
747D
100
AcDbEntity
  8
細線
 48
50.0
100
AcDbLine
 10
5415.807723166484
 20
4500.963959244042
 30
0.0
 11
5415.807723166484
 21
2710.963959244043
 31
0.0
  0
LINE
  5
18131
330
747D
100
AcDbEntity
  8
細線
 48
50.0
100
AcDbLine
 10
5400.807723166483
 20
4500.963959244042
 30
0.0
 11
5400.807723166483
 21
2710.963959244043
 31
0.0
  0
LINE
  5
18132
330
747D
100
AcDbEntity
  8
部品1
100
AcDbLine
 10
5058.307723166479
 20
4500.963959244042
 30
0.0
 11
5058.307723166479
 21
2710.963959244043
 31
0.0
  0
LINE
  5
18133
330
747D
100
AcDbEntity
  8
細線
 48
50.0
100
AcDbLine
 10
4295.807723166479
 20
4500.963959244042
 30
0.0
 11
4295.807723166479
 21
2710.963959244043
 31
0.0
  0
LINE
  5
18134
330
747D
100
AcDbEntity
  8
細線
 48
50.0
100
AcDbLine
 10
4280.807723166479
 20
4500.963959244042
 30
0.0
 11
4280.807723166479
 21
2710.963959244043
 31
0.0
  0
LINE
  5
18135
330
747D
100
AcDbEntity
  8
細線
 48
50.0
100
AcDbLine
 10
4420.807723166479
 20
4500.963959244042
 30
0.0
 11
4420.807723166479
 21
2710.963959244043
 31
0.0
  0
LINE
  5
18136
330
747D
100
AcDbEntity
  8
細線
 48
50.0
100
AcDbLine
 10
4435.807723166479
 20
4500.963959244042
 30
0.0
 11
4435.807723166479
 21
2710.963959244043
 31
0.0
  0
LINE
  5
18137
330
747D
100
AcDbEntity
  8
細線
 48
50.0
100
AcDbLine
 10
4575.807723166479
 20
4500.963959244042
 30
0.0
 11
4575.807723166479
 21
2710.963959244043
 31
0.0
  0
LINE
  5
18138
330
747D
100
AcDbEntity
  8
細線
 48
50.0
100
AcDbLine
 10
4560.807723166479
 20
4500.963959244042
 30
0.0
 11
4560.807723166479
 21
2710.963959244043
 31
0.0
  0
LINE
  5
18139
330
747D
100
AcDbEntity
  8
細線
 48
50.0
100
AcDbLine
 10
4980.80772316648
 20
4500.963959244042
 30
0.0
 11
4980.80772316648
 21
2710.963959244043
 31
0.0
  0
LINE
  5
1813A
330
747D
100
AcDbEntity
  8
細線
 48
50.0
100
AcDbLine
 10
4995.807723166479
 20
4500.963959244042
 30
0.0
 11
4995.807723166479
 21
2710.963959244043
 31
0.0
  0
LINE
  5
1813B
330
747D
100
AcDbEntity
  8
細線
 48
50.0
100
AcDbLine
 10
4855.80772316648
 20
4500.963959244042
 30
0.0
 11
4855.80772316648
 21
2710.963959244043
 31
0.0
  0
LINE
  5
1813C
330
747D
100
AcDbEntity
  8
細線
 48
50.0
100
AcDbLine
 10
4840.807723166479
 20
4500.963959244042
 30
0.0
 11
4840.807723166479
 21
2710.963959244043
 31
0.0
  0
LINE
  5
1813D
330
747D
100
AcDbEntity
  8
細線
 48
50.0
100
AcDbLine
 10
4700.807723166479
 20
4500.963959244042
 30
0.0
 11
4700.807723166479
 21
2710.963959244043
 31
0.0
  0
LINE
  5
1813E
330
747D
100
AcDbEntity
  8
細線
 48
50.0
100
AcDbLine
 10
4715.807723166479
 20
4500.963959244042
 30
0.0
 11
4715.807723166479
 21
2710.963959244043
 31
0.0
  0
LINE
  5
1813F
330
747D
100
AcDbEntity
  8
部品1
100
AcDbLine
 10
4163.307723166479
 20
2660.963959244043
 30
0.0
 11
4170.807723166479
 21
2660.963959244043
 31
0.0
  0
LINE
  5
18140
330
747D
100
AcDbEntity
  8
部品1
100
AcDbLine
 10
6318.307723166483
 20
4500.963959244042
 30
0.0
 11
6318.307723166483
 21
2710.963959244043
 31
0.0
  0
LINE
  5
18141
330
747D
100
AcDbEntity
  8
部品1
100
AcDbLine
 10
6373.30772316648
 20
4594.96395924405
 30
0.0
 11
6373.307723166483
 21
2560.963959244043
 31
0.0
  0
LINE
  5
18142
330
747D
100
AcDbEntity
  8
部品1
100
AcDbLine
 10
4638.307723166479
 20
4500.963959244042
 30
0.0
 11
4638.307723166479
 21
2710.963959244043
 31
0.0
  0
LINE
  5
18143
330
747D
100
AcDbEntity
  8
部品1
100
AcDbLine
 10
4163.307723166482
 20
4594.963959244046
 30
0.0
 11
4163.307723166479
 21
2560.963959244043
 31
0.0
  0
LINE
  5
18144
330
747D
100
AcDbEntity
  8
部品1
100
AcDbLine
 10
4218.307723166479
 20
4500.963959244042
 30
0.0
 11
4218.307723166479
 21
2710.963959244043
 31
0.0
  0
LINE
  5
18145
330
747D
100
AcDbEntity
  8
部品1
100
AcDbLine
 10
4163.307723166479
 20
2710.963959244043
 30
0.0
 11
6373.307723166483
 21
2710.963959244043
 31
0.0
  0
LINE
  5
18146
330
747D
100
AcDbEntity
  8
部品1
100
AcDbLine
 10
4163.307723166479
 20
4500.963959244042
 30
0.0
 11
6373.307723166483
 21
4500.963959244042
 31
0.0
  0
LINE
  5
18147
330
747D
100
AcDbEntity
  8
部品1
100
AcDbLine
 10
5898.307723166479
 20
4500.963959244042
 30
0.0
 11
5898.307723166479
 21
2710.963959244043
 31
0.0
  0
LINE
  5
18148
330
747D
100
AcDbEntity
  8
細線
 48
50.0
100
AcDbLine
 10
5820.807723166483
 20
4500.963959244042
 30
0.0
 11
5820.807723166483
 21
2710.963959244043
 31
0.0
  0
LINE
  5
18149
330
747D
100
AcDbEntity
  8
細線
 48
50.0
100
AcDbLine
 10
5835.807723166483
 20
4500.963959244042
 30
0.0
 11
5835.807723166483
 21
2710.963959244043
 31
0.0
  0
LINE
  5
1814A
330
747D
100
AcDbEntity
  8
細線
 48
50.0
100
AcDbLine
 10
5695.807723166483
 20
4500.963959244042
 30
0.0
 11
5695.807723166483
 21
2710.963959244043
 31
0.0
  0
LINE
  5
1814B
330
747D
100
AcDbEntity
  8
細線
 48
50.0
100
AcDbLine
 10
5680.807723166483
 20
4500.963959244042
 30
0.0
 11
5680.807723166483
 21
2710.963959244043
 31
0.0
  0
LINE
  5
1814C
330
747D
100
AcDbEntity
  8
細線
 48
50.0
100
AcDbLine
 10
5540.807723166484
 20
4500.963959244042
 30
0.0
 11
5540.807723166484
 21
2710.963959244043
 31
0.0
  0
LINE
  5
1814D
330
747D
100
AcDbEntity
  8
細線
 48
50.0
100
AcDbLine
 10
5555.807723166483
 20
4500.963959244042
 30
0.0
 11
5555.807723166483
 21
2710.963959244043
 31
0.0
  0
LINE
  5
1814E
330
747D
100
AcDbEntity
  8
部品1
100
AcDbLine
 10
4210.807723166479
 20
2660.963959244043
 30
0.0
 11
6325.807723166479
 21
2660.963959244043
 31
0.0
  0
LINE
  5
1814F
330
747D
100
AcDbEntity
  8
部品1
100
AcDbLine
 10
6365.807723166479
 20
2660.963959244043
 30
0.0
 11
6373.307723166483
 21
2660.963959244043
 31
0.0
  0
TEXT
  5
18407
330
747D
100
AcDbEntity
  8
文字
 62
     7
 48
50.0
100
AcDbText
 10
13583.11819016569
 20
8550.013745883731
 30
0.0
 40
100.0
  1
棚板
  7
STYLE1
100
AcDbText
  0
TEXT
  5
18408
330
747D
100
AcDbEntity
  8
文字
 62
     7
 48
50.0
100
AcDbText
 10
15022.63965474516
 20
8550.013745883727
 30
0.0
 40
100.0
  1
F12            0.6
  7
STYLE1
100
AcDbText
  0
TEXT
  5
18409
330
747D
100
AcDbEntity
  8
文字
 62
     7
 48
50.0
100
AcDbText
 10
13583.11819016569
 20
9740.013745883729
 30
0.0
 40
100.0
  1
母屋中
  7
STYLE1
100
AcDbText
  0
TEXT
  5
1840A
330
747D
100
AcDbEntity
  8
文字
 62
     7
 48
50.0
100
AcDbText
 10
13248.77747366447
 20
8720.013745883729
 30
0.0
 40
100.0
  1
15
  7
STYLE1
100
AcDbText
  0
LINE
  5
1840B
330
747D
100
AcDbEntity
  8
仕様書枠
 48
50.0
100
AcDbLine
 10
16307.19999999999
 20
8009.600000000004
 30
0.0
 11
13127.19999999999
 21
8009.600000000006
 31
0.0
  0
TEXT
  5
1840C
330
747D
100
AcDbEntity
  8
文字
 62
     7
 48
50.0
100
AcDbText
 10
13583.11819016569
 20
8720.013745883731
 30
0.0
 40
100.0
  1
扉
  7
STYLE1
100
AcDbText
  0
TEXT
  5
1840D
330
747D
100
AcDbEntity
  8
文字
 62
     7
 48
50.0
100
AcDbText
 10
15022.63965474516
 20
8720.013745883727
 30
0.0
 40
100.0
  1
F12            0.8
  7
STYLE1
100
AcDbText
  0
TEXT
  5
1840E
330
747D
100
AcDbEntity
  8
文字
 62
     7
 48
50.0
100
AcDbText
 10
13583.11819016568
 20
8890.013745883731
 30
0.0
 40
100.0
  1
正面パネル
  7
STYLE1
100
AcDbText
  0
TEXT
  5
1840F
330
747D
100
AcDbEntity
  8
文字
 62
     7
 48
50.0
100
AcDbText
 10
15022.63965474515
 20
8890.013745883727
 30
0.0
 40
100.0
  1
F12            0.7
  7
STYLE1
100
AcDbText
  0
TEXT
  5
18410
330
747D
100
AcDbEntity
  8
文字
 62
     7
 48
50.0
100
AcDbText
 10
15022.63965474517
 20
10590.01374588372
 30
0.0
 40
100.0
  1
F12            1.0
  7
STYLE1
100
AcDbText
  0
TEXT
  5
18411
330
747D
100
AcDbEntity
  8
文字
 62
     7
 48
50.0
100
AcDbText
 10
15022.63965474516
 20
10930.01374588372
 30
0.0
 40
100.0
  1
F12            1.2
  7
STYLE1
100
AcDbText
  0
TEXT
  5
18412
330
747D
100
AcDbEntity
  8
文字
 62
     7
 48
50.0
100
AcDbText
 10
13248.77747366448
 20
8890.013745883727
 30
0.0
 40
100.0
  1
14
  7
STYLE1
100
AcDbText
  0
TEXT
  5
18413
330
747D
100
AcDbEntity
  8
文字
 62
     7
 48
50.0
100
AcDbText
 10
13583.11819016569
 20
10930.01374588372
 30
0.0
 40
100.0
  1
根太
  7
STYLE1
100
AcDbText
  0
TEXT
  5
18414
330
747D
100
AcDbEntity
  8
文字
 62
     7
 48
50.0
100
AcDbText
 10
13583.1181901657
 20
10590.01374588372
 30
0.0
 40
100.0
  1
床パネル
 41
0.9
  7
STYLE1
100
AcDbText
  0
LINE
  5
18415
330
747D
100
AcDbEntity
  8
仕様書枠
 48
50.0
100
AcDbLine
 10
16307.19999999999
 20
9029.6
 30
0.0
 11
13127.2
 21
9029.600000000002
 31
0.0
  0
LINE
  5
18416
330
747D
100
AcDbEntity
  8
仕様書枠
 48
50.0
100
AcDbLine
 10
13127.2
 20
11409.6
 30
0.0
 11
13127.19999999999
 21
8009.600000000006
 31
0.0
  0
TEXT
  5
18417
330
747D
100
AcDbEntity
  8
文字
 62
     7
 48
50.0
100
AcDbText
 10
13229.83081656554
 20
8040.013745883731
 30
0.0
 40
100.0
  1
Y10→溶融亜鉛-5％アルミニウム合金めっき鋼板(JIS G 3317)
 41
0.9
  7
STYLE1
100
AcDbText
  0
TEXT
  5
18418
330
747D
100
AcDbEntity
  8
文字
 62
     7
 48
50.0
100
AcDbText
 10
13229.83081656554
 20
8210.013745883733
 30
0.0
 40
100.0
  1
F12→溶融亜鉛めっき鋼板(JIS G 3302)
  7
STYLE1
100
AcDbText
  0
LINE
  5
18419
330
747D
100
AcDbEntity
  8
仕様書枠
 48
50.0
100
AcDbLine
 10
16307.19999999999
 20
8179.600000000004
 30
0.0
 11
13127.19999999999
 21
8179.600000000005
 31
0.0
  0
LINE
  5
1841A
330
747D
100
AcDbEntity
  8
仕様書枠
 48
50.0
100
AcDbLine
 10
16307.19999999999
 20
8349.600000000004
 30
0.0
 11
13127.19999999999
 21
8349.600000000007
 31
0.0
  0
TEXT
  5
1841B
330
747D
100
AcDbEntity
  8
文字
 62
     7
 48
50.0
100
AcDbText
 10
15022.63965474515
 20
9570.013745883725
 30
0.0
 40
100.0
  1
F12            0.6
  7
STYLE1
100
AcDbText
  0
TEXT
  5
1841C
330
747D
100
AcDbEntity
  8
文字
 62
     7
 48
50.0
100
AcDbText
 10
15022.63965474517
 20
9910.013745883725
 30
0.0
 40
100.0
  1
Y10            0.5
  7
STYLE1
100
AcDbText
  0
TEXT
  5
1841D
330
747D
100
AcDbEntity
  8
文字
 62
     7
 48
50.0
100
AcDbText
 10
15022.63965474516
 20
10080.01374588372
 30
0.0
 40
100.0
  1
Y10            0.7
  7
STYLE1
100
AcDbText
  0
TEXT
  5
1841E
330
747D
100
AcDbEntity
  8
文字
 62
     7
 48
50.0
100
AcDbText
 10
15022.63965474516
 20
10250.01374588372
 30
0.0
 40
100.0
  1
Y10            0.7
  7
STYLE1
100
AcDbText
  0
TEXT
  5
1841F
330
747D
100
AcDbEntity
  8
文字
 62
     7
 48
50.0
100
AcDbText
 10
15022.63965474516
 20
10420.01374588372
 30
0.0
 40
100.0
  1
Y10            1.0
  7
STYLE1
100
AcDbText
  0
TEXT
  5
18420
330
747D
100
AcDbEntity
  8
文字
 62
     7
 48
50.0
100
AcDbText
 10
15022.63965474518
 20
10760.01374588372
 30
0.0
 40
100.0
  1
F12            1.0
  7
STYLE1
100
AcDbText
  0
TEXT
  5
18421
330
747D
100
AcDbEntity
  8
文字
 62
     7
 48
50.0
100
AcDbText
 10
15022.63965474517
 20
11100.01374588372
 30
0.0
 40
100.0
  1
F12            1.2
  7
STYLE1
100
AcDbText
  0
TEXT
  5
18422
330
747D
100
AcDbEntity
  8
文字
 62
     7
 48
50.0
100
AcDbText
 10
13248.77747366448
 20
9230.013745883727
 30
0.0
 40
100.0
  1
12
  7
STYLE1
100
AcDbText
  0
TEXT
  5
18423
330
747D
100
AcDbEntity
  8
文字
 62
     7
 48
50.0
100
AcDbText
 10
13248.77747366448
 20
9060.013745883727
 30
0.0
 40
100.0
  1
13
  7
STYLE1
100
AcDbText
  0
LINE
  5
18424
330
747D
100
AcDbEntity
  8
仕様書枠
 48
50.0
100
AcDbLine
 10
16307.19999999999
 20
8859.6
 30
0.0
 11
13127.2
 21
8859.600000000002
 31
0.0
  0
LINE
  5
18425
330
747D
100
AcDbEntity
  8
仕様書枠
 48
50.0
100
AcDbLine
 10
16307.19999999999
 20
9199.599999999998
 30
0.0
 11
13127.2
 21
9199.600000000001
 31
0.0
  0
TEXT
  5
18426
330
747D
100
AcDbEntity
  8
文字
 62
     7
 48
50.0
100
AcDbText
 10
13248.77747366447
 20
9400.013745883727
 30
0.0
 40
100.0
  1
11
  7
STYLE1
100
AcDbText
  0
LINE
  5
18427
330
747D
100
AcDbEntity
  8
仕様書枠
 48
50.0
100
AcDbLine
 10
16307.2
 20
9879.599999999999
 30
0.0
 11
13127.2
 21
9879.600000000001
 31
0.0
  0
LINE
  5
18428
330
747D
100
AcDbEntity
  8
仕様書枠
 48
50.0
100
AcDbLine
 10
16307.2
 20
10219.6
 30
0.0
 11
13127.2
 21
10219.6
 31
0.0
  0
LINE
  5
18429
330
747D
100
AcDbEntity
  8
仕様書枠
 48
50.0
100
AcDbLine
 10
16307.19999999999
 20
9539.599999999998
 30
0.0
 11
13127.2
 21
9539.6
 31
0.0
  0
LINE
  5
1842A
330
747D
100
AcDbEntity
  8
仕様書枠
 48
50.0
100
AcDbLine
 10
16307.19999999999
 20
9369.599999999998
 30
0.0
 11
13127.2
 21
9369.600000000001
 31
0.0
  0
LINE
  5
1842B
330
747D
100
AcDbEntity
  8
仕様書枠
 48
50.0
100
AcDbLine
 10
16307.19999999999
 20
9709.6
 30
0.0
 11
13127.2
 21
9709.600000000001
 31
0.0
  0
TEXT
  5
1842C
330
747D
100
AcDbEntity
  8
文字
 62
     7
 48
50.0
100
AcDbText
 10
13271.19032244792
 20
10250.01374588373
 30
0.0
 40
100.0
  1
6
  7
STYLE1
100
AcDbText
  0
TEXT
  5
1842D
330
747D
100
AcDbEntity
  8
文字
 62
     7
 48
50.0
100
AcDbText
 10
13271.19032244792
 20
10080.01374588373
 30
0.0
 40
100.0
  1
7
  7
STYLE1
100
AcDbText
  0
TEXT
  5
1842E
330
747D
100
AcDbEntity
  8
文字
 62
     7
 48
50.0
100
AcDbText
 10
13271.19032244792
 20
9740.013745883729
 30
0.0
 40
100.0
  1
9
  7
STYLE1
100
AcDbText
  0
TEXT
  5
1842F
330
747D
100
AcDbEntity
  8
文字
 62
     7
 48
50.0
100
AcDbText
 10
13271.19032244792
 20
9910.01374588373
 30
0.0
 40
100.0
  1
8
  7
STYLE1
100
AcDbText
  0
TEXT
  5
18430
330
747D
100
AcDbEntity
  8
文字
 62
     7
 48
50.0
100
AcDbText
 10
13583.11819016569
 20
10080.01374588372
 30
0.0
 40
100.0
  1
鼻隠シ前後
  7
STYLE1
100
AcDbText
  0
TEXT
  5
18431
330
747D
100
AcDbEntity
  8
文字
 62
     7
 48
50.0
100
AcDbText
 10
13583.11819016569
 20
9910.013745883727
 30
0.0
 40
100.0
  1
屋根パネル
  7
STYLE1
100
AcDbText
  0
TEXT
  5
18432
330
747D
100
AcDbEntity
  8
文字
 62
     7
 48
50.0
100
AcDbText
 10
13583.11819016568
 20
9570.013745883729
 30
0.0
 40
100.0
  1
壁パネル
  7
STYLE1
100
AcDbText
  0
TEXT
  5
18433
330
747D
100
AcDbEntity
  8
文字
 62
     7
 48
50.0
100
AcDbText
 10
13248.77747366447
 20
9570.013745883727
 30
0.0
 40
100.0
  1
10
  7
STYLE1
100
AcDbText
  0
TEXT
  5
18434
330
747D
100
AcDbEntity
  8
文字
 62
     7
 48
50.0
100
AcDbText
 10
13583.11819016569
 20
10250.01374588373
 30
0.0
 40
100.0
  1
妻板左右
  7
STYLE1
100
AcDbText
  0
TEXT
  5
18435
330
747D
100
AcDbEntity
  8
文字
 62
     7
 48
50.0
100
AcDbText
 10
13271.19032244792
 20
10420.01374588372
 30
0.0
 40
100.0
  1
5
  7
STYLE1
100
AcDbText
  0
TEXT
  5
18436
330
747D
100
AcDbEntity
  8
文字
 62
     7
 48
50.0
100
AcDbText
 10
13583.11819016569
 20
10420.01374588373
 30
0.0
 40
100.0
  1
桁前後
  7
STYLE1
100
AcDbText
  0
TEXT
  5
18437
330
747D
100
AcDbEntity
  8
文字
 62
     7
 48
50.0
100
AcDbText
 10
13583.1181901657
 20
10760.01374588372
 30
0.0
 40
100.0
  1
柱
  7
STYLE1
100
AcDbText
  0
TEXT
  5
18438
330
747D
100
AcDbEntity
  8
文字
 62
     7
 48
50.0
100
AcDbText
 10
13583.11819016569
 20
11100.01374588372
 30
0.0
 40
100.0
  1
土台枠
  7
STYLE1
100
AcDbText
  0
TEXT
  5
18439
330
747D
100
AcDbEntity
  8
文字
 62
     7
 48
50.0
100
AcDbText
 10
14859.79774614482
 20
11270.01374588372
 30
0.0
 40
100.0
  1
材料（材質）　　単位mm
  7
STYLE1
100
AcDbText
  0
TEXT
  5
1843A
330
747D
100
AcDbEntity
  8
文字
 62
     7
 48
50.0
100
AcDbText
 10
13732.03840939434
 20
11270.01374588372
 30
0.0
 40
100.0
  1
部　　品　　名
  7
STYLE1
100
AcDbText
  0
TEXT
  5
1843B
330
747D
100
AcDbEntity
  8
文字
 62
     7
 48
50.0
100
AcDbText
 10
13271.19032244792
 20
10760.01374588373
 30
0.0
 40
100.0
  1
3
  7
STYLE1
100
AcDbText
  0
TEXT
  5
1843C
330
747D
100
AcDbEntity
  8
文字
 62
     7
 48
50.0
100
AcDbText
 10
13271.19032244792
 20
10590.01374588373
 30
0.0
 40
100.0
  1
4
  7
STYLE1
100
AcDbText
  0
TEXT
  5
1843D
330
747D
100
AcDbEntity
  8
文字
 62
     7
 48
50.0
100
AcDbText
 10
13271.19032244792
 20
10930.01374588373
 30
0.0
 40
100.0
  1
2
  7
STYLE1
100
AcDbText
  0
TEXT
  5
1843E
330
747D
100
AcDbEntity
  8
文字
 62
     7
 48
50.0
100
AcDbText
 10
13271.19032244792
 20
11100.01374588373
 30
0.0
 40
100.0
  1
1
  7
STYLE1
100
AcDbText
  0
TEXT
  5
1843F
330
747D
100
AcDbEntity
  8
文字
 62
     7
 48
50.0
100
AcDbText
 10
13197.42518560407
 20
11270.01374588372
 30
0.0
 40
100.0
  1
品番
  7
STYLE1
100
AcDbText
  0
LINE
  5
18440
330
747D
100
AcDbEntity
  8
仕様書枠
 48
50.0
100
AcDbLine
 10
16307.19999999999
 20
10729.59999999999
 30
0.0
 11
13127.2
 21
10729.6
 31
0.0
  0
LINE
  5
18441
330
747D
100
AcDbEntity
  8
仕様書枠
 48
50.0
100
AcDbLine
 10
16307.19999999999
 20
10389.6
 30
0.0
 11
13127.2
 21
10389.6
 31
0.0
  0
LINE
  5
18442
330
747D
100
AcDbEntity
  8
仕様書枠
 48
50.0
100
AcDbLine
 10
16307.19999999999
 20
10559.6
 30
0.0
 11
13127.2
 21
10559.6
 31
0.0
  0
LINE
  5
18443
330
747D
100
AcDbEntity
  8
仕様書枠
 48
50.0
100
AcDbLine
 10
16307.2
 20
11069.59999999999
 30
0.0
 11
13127.2
 21
11069.6
 31
0.0
  0
LINE
  5
18444
330
747D
100
AcDbEntity
  8
仕様書枠
 48
50.0
100
AcDbLine
 10
16307.2
 20
10899.6
 30
0.0
 11
13127.2
 21
10899.6
 31
0.0
  0
LINE
  5
18445
330
747D
100
AcDbEntity
  8
仕様書枠
 48
50.0
100
AcDbLine
 10
16307.2
 20
11239.59999999999
 30
0.0
 11
13127.2
 21
11239.6
 31
0.0
  0
LINE
  5
18446
330
747D
100
AcDbEntity
  8
仕様書枠
 48
50.0
100
AcDbLine
 10
13490.2
 20
11409.59999999999
 30
0.0
 11
13490.20000000001
 21
8349.600000000007
 31
0.0
  0
LINE
  5
18447
330
747D
100
AcDbEntity
  8
仕様書枠
 48
50.0
100
AcDbLine
 10
14785.2
 20
11409.59999999999
 30
0.0
 11
14785.2
 21
8349.600000000004
 31
0.0
  0
LINE
  5
18448
330
747D
100
AcDbEntity
  8
仕様書枠
 48
50.0
100
AcDbLine
 10
16307.19999999999
 20
8009.600000000004
 30
0.0
 11
16307.2
 21
11409.6
 31
0.0
  0
LINE
  5
18449
330
747D
100
AcDbEntity
  8
仕様書枠
 48
50.0
100
AcDbLine
 10
16307.2
 20
11409.59999999999
 30
0.0
 11
13127.2
 21
11409.6
 31
0.0
  0
LINE
  5
1844A
330
747D
100
AcDbEntity
  8
仕様書枠
 48
50.0
100
AcDbLine
 10
16307.2
 20
10049.6
 30
0.0
 11
13127.2
 21
10049.6
 31
0.0
  0
TEXT
  5
1844B
330
747D
100
AcDbEntity
  8
文字
 62
     7
 48
50.0
100
AcDbText
 10
15022.63965474515
 20
8380.013745883724
 30
0.0
 40
100.0
  1
F12            2.3
  7
STYLE1
100
AcDbText
  0
TEXT
  5
1844C
330
747D
100
AcDbEntity
  8
文字
 62
     7
 48
50.0
100
AcDbText
 10
13583.11819016569
 20
8380.013745883728
 30
0.0
 40
100.0
  1
アンカープレート
  7
STYLE1
100
AcDbText
  0
LINE
  5
1844D
330
747D
100
AcDbEntity
  8
仕様書枠
 48
50.0
100
AcDbLine
 10
16307.19999999999
 20
8519.600000000004
 30
0.0
 11
13127.2
 21
8519.600000000005
 31
0.0
  0
LINE
  5
1844E
330
747D
100
AcDbEntity
  8
仕様書枠
 48
50.0
100
AcDbLine
 10
16307.19999999999
 20
8689.600000000003
 30
0.0
 11
13127.2
 21
8689.600000000005
 31
0.0
  0
TEXT
  5
1844F
330
747D
100
AcDbEntity
  8
文字
 62
     7
 48
50.0
100
AcDbText
 10
13583.11819016569
 20
9400.013745883729
 30
0.0
 40
100.0
  1
壁面扉鴨居
  7
STYLE1
100
AcDbText
  0
TEXT
  5
18450
330
747D
100
AcDbEntity
  8
文字
 62
     7
 48
50.0
100
AcDbText
 10
13583.11819016569
 20
9230.013745883733
 30
0.0
 40
100.0
  1
壁面扉敷居
  7
STYLE1
100
AcDbText
  0
TEXT
  5
18451
330
747D
100
AcDbEntity
  8
文字
 62
     7
 48
50.0
100
AcDbText
 10
15022.63965474515
 20
9400.013745883727
 30
0.0
 40
100.0
  1
F12            0.7
  7
STYLE1
100
AcDbText
  0
TEXT
  5
18452
330
747D
100
AcDbEntity
  8
文字
 62
     7
 48
50.0
100
AcDbText
 10
15022.63965474517
 20
9230.013745883725
 30
0.0
 40
100.0
  1
F12            1.0
  7
STYLE1
100
AcDbText
  0
TEXT
  5
18453
330
747D
100
AcDbEntity
  8
文字
 62
     7
 48
50.0
100
AcDbText
 10
13583.11819016569
 20
9060.013745883733
 30
0.0
 40
100.0
  1
壁面扉枠左右
  7
STYLE1
100
AcDbText
  0
TEXT
  5
18454
330
747D
100
AcDbEntity
  8
文字
 62
     7
 48
50.0
100
AcDbText
 10
15022.63965474517
 20
9060.013745883725
 30
0.0
 40
100.0
  1
F12            1.0
  7
STYLE1
100
AcDbText
  0
TEXT
  5
18455
330
747D
100
AcDbEntity
  8
文字
 62
     7
 48
50.0
100
AcDbText
 10
13248.77747366447
 20
8550.013745883729
 30
0.0
 40
100.0
  1
16
  7
STYLE1
100
AcDbText
  0
TEXT
  5
18456
330
747D
100
AcDbEntity
  8
文字
 62
     7
 48
50.0
100
AcDbText
 10
13248.77747366447
 20
8380.013745883728
 30
0.0
 40
100.0
  1
17
  7
STYLE1
100
AcDbText
  0
TEXT
  5
18457
330
747D
100
AcDbEntity
  8
文字
 62
     7
 48
50.0
100
AcDbText
 10
14798.72402257234
 20
9740.013745883725
 30
0.0
 40
100.0
  1
F12(一般型1.0/多雪地型2.3)
  7
STYLE1
100
AcDbText
  0
LINE
  5
184AF
330
747D
100
AcDbEntity
  8
部品1
100
AcDbLine
 10
11077.40475250375
 20
8520.754677534062
 30
0.0
 11
11105.40475250375
 21
8520.754677534062
 31
0.0
  0
LINE
  5
184B0
330
747D
100
AcDbEntity
  8
部品1
100
AcDbLine
 10
8503.404752503724
 20
8520.754677533934
 30
0.0
 11
8475.404752503724
 21
8520.754677533934
 31
0.0
  0
LINE
  5
184B1
330
747D
100
AcDbEntity
  8
部品1
100
AcDbLine
 10
11048.90475250373
 20
8520.754677534036
 30
0.0
 11
8531.904752503733
 21
8520.754677533934
 31
0.0
  0
LINE
  5
186E4
330
747D
100
AcDbEntity
  8
寸法
 48
50.0
100
AcDbLine
 10
9385.607758785562
 20
7403.791429102914
 30
0.0
 11
9334.201750875458
 21
7403.791429102914
 31
0.0
  0
LINE
  5
186E5
330
747D
100
AcDbEntity
  8
寸法
 48
50.0
100
AcDbLine
 10
9334.201750875458
 20
7403.791429102914
 30
0.0
 11
9334.201750875458
 21
7435.101587755081
 31
0.0
  0
LINE
  5
186E6
330
747D
100
AcDbEntity
  8
寸法
 48
50.0
100
AcDbLine
 10
9334.201750875458
 20
7435.101587755081
 30
0.0
 11
9304.440418884034
 21
7435.101587755081
 31
0.0
  0
LINE
  5
186E7
330
747D
100
AcDbEntity
  8
寸法
 48
50.0
100
AcDbLine
 10
9304.440418884034
 20
7435.101587755081
 30
0.0
 11
9359.904754830509
 21
7472.68103868369
 31
0.0
  0
LINE
  5
186E8
330
747D
100
AcDbEntity
  8
寸法
 48
50.0
100
AcDbLine
 10
9415.369090776986
 20
7435.101587755081
 30
0.0
 11
9359.904754830509
 21
7472.68103868369
 31
0.0
  0
LINE
  5
186E9
330
747D
100
AcDbEntity
  8
寸法
 48
50.0
100
AcDbLine
 10
9385.607758785562
 20
7435.101587755081
 30
0.0
 11
9415.369090776986
 21
7435.101587755081
 31
0.0
  0
LINE
  5
186EA
330
747D
100
AcDbEntity
  8
寸法
 48
50.0
100
AcDbLine
 10
9385.607758785562
 20
7403.791429102914
 30
0.0
 11
9385.607758785562
 21
7435.101587755081
 31
0.0
  0
LINE
  5
186EB
330
747D
100
AcDbEntity
  8
寸法
 48
50.0
100
AcDbLine
 10
9334.201750875458
 20
7403.791429102914
 30
0.0
 11
9385.607758785562
 21
7403.791429102914
 31
0.0
  0
LINE
  5
186EC
330
747D
100
AcDbEntity
  8
寸法
 48
50.0
100
AcDbLine
 10
9664.773293062419
 20
7460.937019857737
 30
0.0
 11
9664.773293062419
 21
7407.273385275947
 31
0.0
  0
LINE
  5
186ED
330
747D
100
AcDbEntity
  8
寸法
 48
50.0
100
AcDbLine
 10
9754.05751165784
 20
7437.01338558825
 30
0.0
 11
9664.773293062419
 21
7460.937019857737
 31
0.0
  0
LINE
  5
186EE
330
747D
100
AcDbEntity
  8
寸法
 48
50.0
100
AcDbLine
 10
9534.905571482115
 20
7437.01338558825
 30
0.0
 11
9754.05751165784
 21
7437.01338558825
 31
0.0
  0
LINE
  5
186EF
330
747D
100
AcDbEntity
  8
細線
 48
50.0
100
AcDbLine
 10
10411.40475250372
 20
7602.254792482776
 30
0.0
 11
11038.40475250371
 21
7602.254792482776
 31
0.0
  0
LINE
  5
186F0
330
747D
100
AcDbEntity
  8
細線
 48
50.0
100
AcDbLine
 10
9757.404757157306
 20
7568.546023928701
 30
0.0
 11
11038.40475250371
 21
7568.546023928701
 31
0.0
  0
LINE
  5
186F1
330
747D
100
AcDbEntity
  8
細線
 48
50.0
100
AcDbLine
 10
9716.404757157311
 20
7597.950931924954
 30
0.0
 11
8962.404752503717
 21
7597.95093192495
 31
0.0
  0
LINE
  5
186F2
330
747D
100
AcDbEntity
  8
細線
100
AcDbLine
 10
10814.15474308726
 20
7621.754692447784
 30
0.0
 11
10816.48628260907
 21
7626.754695087746
 31
0.0
  0
LINE
  5
186F3
330
747D
100
AcDbEntity
  8
細線
100
AcDbLine
 10
10884.15475250371
 20
7621.754677534051
 30
0.0
 11
10881.82320602753
 21
7626.754695087732
 31
0.0
  0
LINE
  5
186F4
330
747D
100
AcDbEntity
  8
細線
100
AcDbLine
 10
10881.82320602753
 20
7626.754695087732
 30
0.0
 11
10816.48628260905
 21
7626.754695087718
 31
0.0
  0
LINE
  5
186F5
330
747D
100
AcDbEntity
  8
細線
100
AcDbLine
 10
10741.82320602753
 20
7626.754695087732
 30
0.0
 11
10676.48628260905
 21
7626.754695087718
 31
0.0
  0
LINE
  5
186F6
330
747D
100
AcDbEntity
  8
細線
100
AcDbLine
 10
10744.15475250371
 20
7621.754677534051
 30
0.0
 11
10741.82320602753
 21
7626.754695087732
 31
0.0
  0
LINE
  5
186F7
330
747D
100
AcDbEntity
  8
細線
100
AcDbLine
 10
10674.15474308726
 20
7621.754692447784
 30
0.0
 11
10676.48628260907
 21
7626.754695087746
 31
0.0
  0
LINE
  5
186F8
330
747D
100
AcDbEntity
  8
細線
100
AcDbLine
 10
10534.15475250371
 20
7621.754677534051
 30
0.0
 11
10536.48629202553
 21
7626.754680174013
 31
0.0
  0
LINE
  5
186F9
330
747D
100
AcDbEntity
  8
細線
100
AcDbLine
 10
10604.15476192017
 20
7621.754662620317
 30
0.0
 11
10601.82321544398
 21
7626.754680173997
 31
0.0
  0
LINE
  5
186FA
330
747D
100
AcDbEntity
  8
細線
100
AcDbLine
 10
10601.82321544399
 20
7626.754680173997
 30
0.0
 11
10536.48629202551
 21
7626.754680173982
 31
0.0
  0
LINE
  5
186FB
330
747D
100
AcDbEntity
  8
細線
100
AcDbLine
 10
10306.57323669282
 20
7592.754716871379
 30
0.0
 11
10241.23631327435
 21
7592.754716871365
 31
0.0
  0
LINE
  5
186FC
330
747D
100
AcDbEntity
  8
細線
100
AcDbLine
 10
10308.90478316901
 20
7587.754699317699
 30
0.0
 11
10306.57323669282
 21
7592.754716871379
 31
0.0
  0
LINE
  5
186FD
330
747D
100
AcDbEntity
  8
細線
100
AcDbLine
 10
10238.90477375255
 20
7587.754714231433
 30
0.0
 11
10241.23631327436
 21
7592.754716871394
 31
0.0
  0
LINE
  5
186FE
330
747D
100
AcDbEntity
  8
細線
 48
50.0
100
AcDbLine
 10
10080.28813175173
 20
7606.025540687131
 30
0.0
 11
10086.0436493344
 21
7587.754689396645
 31
0.0
  0
LINE
  5
186FF
330
747D
100
AcDbEntity
  8
細線
 48
50.0
100
AcDbLine
 10
10069.3596832713
 20
7606.025540687131
 30
0.0
 11
10080.28813175173
 21
7606.025540687131
 31
0.0
  0
ARC
  5
18700
330
747D
100
AcDbEntity
  8
細線
 48
50.0
100
AcDbCircle
 10
10063.90532721398
 20
7607.525540687131
 30
0.0
 40
5.0
100
AcDbArc
 50
204.6243183521304
 51
335.3756816478695
  0
ARC
  5
18701
330
747D
100
AcDbEntity
  8
細線
 48
50.0
100
AcDbCircle
 10
10069.3596832713
 20
7605.025540687131
 30
0.0
 40
1.0
100
AcDbArc
 50
90.0
 51
155.3756816478695
  0
ARC
  5
18702
330
747D
100
AcDbEntity
  8
細線
 48
50.0
100
AcDbCircle
 10
10058.45097115666
 20
7605.025540687131
 30
0.0
 40
1.0
100
AcDbArc
 50
24.62431835213048
 51
90.0
  0
LINE
  5
18703
330
747D
100
AcDbEntity
  8
細線
 48
50.0
100
AcDbLine
 10
10047.52252267623
 20
7606.025540687131
 30
0.0
 11
10058.45097115666
 21
7606.025540687131
 31
0.0
  0
LINE
  5
18704
330
747D
100
AcDbEntity
  8
細線
 48
50.0
100
AcDbLine
 10
10041.76700509356
 20
7587.754689396636
 30
0.0
 11
10047.52252267623
 21
7606.025540687131
 31
0.0
  0
LINE
  5
18705
330
747D
100
AcDbEntity
  8
細線
100
AcDbLine
 10
10098.90477498359
 20
7587.754686762441
 30
0.0
 11
10101.23631450541
 21
7592.754689402403
 31
0.0
  0
LINE
  5
18706
330
747D
100
AcDbEntity
  8
細線
100
AcDbLine
 10
10168.90478440005
 20
7587.754671848708
 30
0.0
 11
10166.57323792386
 21
7592.754689402387
 31
0.0
  0
LINE
  5
18707
330
747D
100
AcDbEntity
  8
細線
100
AcDbLine
 10
10166.57323792386
 20
7592.754689402387
 30
0.0
 11
10101.23631450539
 21
7592.754689402373
 31
0.0
  0
LINE
  5
18708
330
747D
100
AcDbEntity
  8
細線
100
AcDbLine
 10
10026.57320955935
 20
7592.754689396608
 30
0.0
 11
9961.236286140874
 21
7592.754689396594
 31
0.0
  0
LINE
  5
18709
330
747D
100
AcDbEntity
  8
細線
100
AcDbLine
 10
10028.90475603553
 20
7587.754671842927
 30
0.0
 11
10026.57320955935
 21
7592.754689396608
 31
0.0
  0
LINE
  5
1870A
330
747D
100
AcDbEntity
  8
細線
100
AcDbLine
 10
9958.90474785012
 20
7587.754689396636
 30
0.0
 11
9961.236286140888
 21
7592.754689396622
 31
0.0
  0
LINE
  5
1870B
330
747D
100
AcDbEntity
  8
細線
100
AcDbLine
 10
9818.904783169012
 20
7587.754697584007
 30
0.0
 11
9821.236321459778
 21
7592.754697583993
 31
0.0
  0
LINE
  5
1870C
330
747D
100
AcDbEntity
  8
細線
100
AcDbLine
 10
9888.904791354427
 20
7587.754680030297
 30
0.0
 11
9886.573244878242
 21
7592.754697583974
 31
0.0
  0
LINE
  5
1870D
330
747D
100
AcDbEntity
  8
細線
100
AcDbLine
 10
9886.573244878242
 20
7592.754697583974
 30
0.0
 11
9821.236321459764
 21
7592.754697583963
 31
0.0
  0
LINE
  5
1870E
330
747D
100
AcDbEntity
  8
細線
100
AcDbLine
 10
9447.404748971891
 20
7553.754869264719
 30
0.0
 11
9449.736287262657
 21
7558.754869264705
 31
0.0
  0
LINE
  5
1870F
330
747D
100
AcDbEntity
  8
細線
100
AcDbLine
 10
9517.404757157306
 20
7553.754851711007
 30
0.0
 11
9515.073210681119
 21
7558.754869264683
 31
0.0
  0
LINE
  5
18710
330
747D
100
AcDbEntity
  8
細線
100
AcDbLine
 10
9515.073210681119
 20
7558.754869264683
 30
0.0
 11
9449.736287262647
 21
7558.754869264676
 31
0.0
  0
LINE
  5
18711
330
747D
100
AcDbEntity
  8
細線
100
AcDbLine
 10
9655.07321068112
 20
7558.754869264683
 30
0.0
 11
9589.736287262647
 21
7558.754869264676
 31
0.0
  0
LINE
  5
18712
330
747D
100
AcDbEntity
  8
細線
100
AcDbLine
 10
9657.404757157307
 20
7553.754851711007
 30
0.0
 11
9655.07321068112
 21
7558.754869264683
 31
0.0
  0
LINE
  5
18713
330
747D
100
AcDbEntity
  8
細線
100
AcDbLine
 10
9587.40474897189
 20
7553.754869264719
 30
0.0
 11
9589.736287262658
 21
7558.754869264705
 31
0.0
  0
LINE
  5
18714
330
747D
100
AcDbEntity
  8
細線
100
AcDbLine
 10
9375.07321068112
 20
7558.754869264683
 30
0.0
 11
9309.736287262648
 21
7558.754869264672
 31
0.0
  0
LINE
  5
18715
330
747D
100
AcDbEntity
  8
細線
100
AcDbLine
 10
9377.404757157306
 20
7553.754851711007
 30
0.0
 11
9375.07321068112
 21
7558.754869264683
 31
0.0
  0
LINE
  5
18716
330
747D
100
AcDbEntity
  8
細線
100
AcDbLine
 10
9307.40474897189
 20
7553.754869264716
 30
0.0
 11
9309.736287262659
 21
7558.754869264702
 31
0.0
  0
LINE
  5
18717
330
747D
100
AcDbEntity
  8
細線
100
AcDbLine
 10
9167.404757157306
 20
7553.754869264719
 30
0.0
 11
9169.736295448073
 21
7558.754869264705
 31
0.0
  0
LINE
  5
18718
330
747D
100
AcDbEntity
  8
細線
100
AcDbLine
 10
9237.404765342722
 20
7553.754851711007
 30
0.0
 11
9235.073218866535
 21
7558.754869264683
 31
0.0
  0
LINE
  5
18719
330
747D
100
AcDbEntity
  8
細線
100
AcDbLine
 10
9235.073218866535
 20
7558.754869264683
 30
0.0
 11
9169.736295448064
 21
7558.754869264676
 31
0.0
  0
ARC
  5
1871A
330
747D
100
AcDbEntity
  8
部品1
 48
0.01
100
AcDbCircle
 10
9122.904645904972
 20
7552.753747079647
 30
0.0
 40
0.5
100
AcDbArc
 50
270.0
 51
0.0
  0
LINE
  5
1871B
330
747D
100
AcDbEntity
  8
部品1
 48
0.01
100
AcDbLine
 10
9123.404645904972
 20
7553.753747079646
 30
0.0
 11
9123.404645904972
 21
7552.753747079647
 31
0.0
  0
LINE
  5
1871C
330
747D
100
AcDbEntity
  8
部品1
 48
0.01
100
AcDbLine
 10
9123.404645904972
 20
7553.753747079646
 30
0.0
 11
9123.404645904972
 21
7552.753747079647
 31
0.0
  0
LINE
  5
1871D
330
747D
100
AcDbEntity
  8
部品1
 48
0.01
100
AcDbLine
 10
9122.904645904972
 20
7552.253747079646
 30
0.0
 11
9116.292140474907
 21
7552.253747079646
 31
0.0
  0
ARC
  5
1871E
330
747D
100
AcDbEntity
  8
部品1
100
AcDbCircle
 10
9116.360490027688
 20
7553.253747079647
 30
0.0
 40
1.0
100
AcDbArc
 50
160.5287793655778
 51
270.0
  0
ARC
  5
1871F
330
747D
100
AcDbEntity
  8
部品1
100
AcDbCircle
 10
9090.904645904972
 20
7562.253747079648
 30
0.0
 40
26.0
100
AcDbArc
 50
340.5287793655779
 51
0.0
  0
LINE
  5
18720
330
747D
100
AcDbEntity
  8
部品1
100
AcDbLine
 10
9116.904645904972
 20
7562.253747079648
 30
0.0
 11
9116.904645904972
 21
7567.253747079647
 31
0.0
  0
ARC
  5
18721
330
747D
100
AcDbEntity
  8
部品1
 48
0.01
100
AcDbCircle
 10
9114.904645904971
 20
7567.253747079647
 30
0.0
 40
2.0
100
AcDbArc
 50
0.0
 51
90.0
  0
ARC
  5
18722
330
747D
100
AcDbEntity
  8
部品1
100
AcDbCircle
 10
9113.296254280163
 20
7566.253747079646
 30
0.0
 40
3.0
100
AcDbArc
 50
90.0
 51
141.6069559807873
  0
LINE
  5
18723
330
747D
100
AcDbEntity
  8
部品1
 48
0.01
100
AcDbLine
 10
9114.904645904971
 20
7569.253747079646
 30
0.0
 11
9113.296254280163
 21
7569.253747079646
 31
0.0
  0
ARC
  5
18724
330
747D
100
AcDbEntity
  8
部品1
100
AcDbCircle
 10
9094.8339316907
 20
7565.553747079651
 30
0.0
 40
3.0
100
AcDbArc
 50
254.0576313943215
 51
270.0
  0
ARC
  5
18725
330
747D
100
AcDbEntity
  8
部品1
100
AcDbCircle
 10
9101.975360119242
 20
7565.553747079651
 30
0.0
 40
3.0
100
AcDbArc
 50
270.0
 51
285.9423686056786
  0
LINE
  5
18726
330
747D
100
AcDbEntity
  8
部品1
100
AcDbLine
 10
9101.975360119242
 20
7562.55374707965
 30
0.0
 11
9094.8339316907
 21
7562.55374707965
 31
0.0
  0
ARC
  5
18727
330
747D
100
AcDbEntity
  8
部品1
100
AcDbCircle
 10
9098.404645904972
 20
7578.05374707965
 30
0.0
 40
16.0
100
AcDbArc
 50
285.9423686056786
 51
321.6069559807873
  0
LINE
  5
18728
330
747D
100
AcDbEntity
  8
部品1
 48
0.01
100
AcDbLine
 10
9081.904645904971
 20
7569.253747079646
 30
0.0
 11
9083.513037529781
 21
7569.253747079646
 31
0.0
  0
ARC
  5
18729
330
747D
100
AcDbEntity
  8
部品1
100
AcDbCircle
 10
9083.513037529781
 20
7566.253747079646
 30
0.0
 40
3.0
100
AcDbArc
 50
38.39304401921267
 51
90.0
  0
ARC
  5
1872A
330
747D
100
AcDbEntity
  8
部品1
100
AcDbCircle
 10
9098.404645904972
 20
7578.05374707965
 30
0.0
 40
16.0
100
AcDbArc
 50
218.3930440192126
 51
254.0576313943215
  0
LINE
  5
1872B
330
747D
100
AcDbEntity
  8
部品1
100
AcDbLine
 10
9079.904645904973
 20
7562.253747079648
 30
0.0
 11
9079.904645904973
 21
7567.253747079647
 31
0.0
  0
ARC
  5
1872C
330
747D
100
AcDbEntity
  8
部品1
 48
0.01
100
AcDbCircle
 10
9081.904645904971
 20
7567.253747079647
 30
0.0
 40
2.0
100
AcDbArc
 50
90.0
 51
180.0
  0
ARC
  5
1872D
330
747D
100
AcDbEntity
  8
部品1
100
AcDbCircle
 10
9105.904645904971
 20
7562.253747079648
 30
0.0
 40
26.0
100
AcDbArc
 50
180.0
 51
199.4712206344221
  0
ARC
  5
1872E
330
747D
100
AcDbEntity
  8
部品1
 48
0.01
100
AcDbCircle
 10
9073.904645904972
 20
7552.753747079647
 30
0.0
 40
0.5
100
AcDbArc
 50
180.0
 51
270.0
  0
LINE
  5
1872F
330
747D
100
AcDbEntity
  8
部品1
 48
0.01
100
AcDbLine
 10
9073.904645904972
 20
7552.253747079646
 30
0.0
 11
9080.448801782255
 21
7552.253747079646
 31
0.0
  0
LINE
  5
18730
330
747D
100
AcDbEntity
  8
部品1
 48
0.01
100
AcDbLine
 10
9073.404645904972
 20
7553.753747079646
 30
0.0
 11
9073.404645904972
 21
7552.753747079647
 31
0.0
  0
ARC
  5
18731
330
747D
100
AcDbEntity
  8
部品1
100
AcDbCircle
 10
9080.448801782255
 20
7553.253747079647
 30
0.0
 40
1.0
100
AcDbArc
 50
270.0
 51
19.47122063442214
  0
LINE
  5
18732
330
747D
100
AcDbEntity
  8
細線
100
AcDbLine
 10
9118.904645904979
 20
7571.75374707965
 30
0.0
 11
9077.904645904979
 21
7571.753747079643
 31
0.0
  0
LINE
  5
18733
330
747D
100
AcDbEntity
  8
細線
100
AcDbLine
 10
9077.904645904979
 20
7571.753747079643
 30
0.0
 11
9077.904645904979
 21
7553.753747079625
 31
0.0
  0
LINE
  5
18734
330
747D
100
AcDbEntity
  8
細線
100
AcDbLine
 10
9118.904645904979
 20
7571.75374707965
 30
0.0
 11
9118.904645904979
 21
7553.753747079625
 31
0.0
  0
LINE
  5
18735
330
747D
100
AcDbEntity
  8
細線
100
AcDbLine
 10
8962.404752503717
 20
7557.754677534051
 30
0.0
 11
8962.404752503717
 21
7553.754677534098
 31
0.0
  0
DIMENSION
  5
18736
330
747D
100
AcDbEntity
  8
寸法
 48
50.0
100
AcDbDimension
  2
*D30
 10
10228.40475250371
 20
6915.774348288585
 30
0.0
 11
9608.125088012618
 21
6915.774348288585
 31
0.0
 70
   160
  1
有効開口部間口\P<>
 71
     5
 42
1266.0
  3
INABA_S40
100
AcDbAlignedDimension
 13
8962.404752503717
 23
7548.75467753405
 33
0.0
 14
10228.40475250371
 24
7548.75467753405
 34
0.0
100
AcDbRotatedDimension
1001
ACAD
1000
DSTYLE
1002
{
1070
    41
1040
0.5
1070
    44
1040
1.0
1070
   147
1040
0.8
1070
   271
1070
     2
1070
   272
1070
     2
1070
   289
1070
     3
1070
   340
1005
F706
1070
   343
1005
173C5
1070
   344
1005
173C5
1002
}
  0
LINE
  5
18737
330
747D
100
AcDbEntity
  8
部品1
100
AcDbLine
 10
11050.40475250371
 20
7625.754677534051
 30
0.0
 11
11077.40475250371
 21
7625.754677534051
 31
0.0
  0
LINE
  5
18739
330
747D
100
AcDbEntity
  8
部品1
100
AcDbLine
 10
11077.40475250371
 20
7548.75467753405
 30
0.0
 11
11077.40475250371
 21
7625.754677534051
 31
0.0
  0
LINE
  5
1873A
330
747D
100
AcDbEntity
  8
部品1
100
AcDbLine
 10
11038.40475250371
 20
7621.754677534051
 30
0.0
 11
11050.40475250371
 21
7621.754677534051
 31
0.0
  0
LINE
  5
1873B
330
747D
100
AcDbEntity
  8
部品1
100
AcDbLine
 10
11047.40475250372
 20
7557.754677534051
 30
0.0
 11
11047.40475250372
 21
7548.75467753405
 31
0.0
  0
LINE
  5
1873C
330
747D
100
AcDbEntity
  8
部品1
100
AcDbLine
 10
11038.40475250371
 20
7557.754677534051
 30
0.0
 11
11047.40475250372
 21
7557.754677534051
 31
0.0
  0
LINE
  5
1873D
330
747D
100
AcDbEntity
  8
部品1
100
AcDbLine
 10
11038.40475250371
 20
7621.754677534051
 30
0.0
 11
11038.40475250371
 21
7557.754677534051
 31
0.0
  0
LINE
  5
1873E
330
747D
100
AcDbEntity
  8
部品1
100
AcDbLine
 10
11050.40475250371
 20
7652.754677534051
 30
0.0
 11
11050.40475250371
 21
7621.754677534051
 31
0.0
  0
LINE
  5
1873F
330
747D
100
AcDbEntity
  8
部品1
100
AcDbLine
 10
8962.404752503717
 20
7621.754677534051
 30
0.0
 11
8950.404752503716
 21
7621.754677534051
 31
0.0
  0
LINE
  5
18740
330
747D
100
AcDbEntity
  8
部品1
100
AcDbLine
 10
8923.404752503717
 20
7625.754677534051
 30
0.0
 11
8950.404752503716
 21
7625.754677534051
 31
0.0
  0
LINE
  5
18741
330
747D
100
AcDbEntity
  8
部品1
100
AcDbLine
 10
8953.404752503717
 20
7557.754677534051
 30
0.0
 11
8953.404752503717
 21
7548.75467753405
 31
0.0
  0
LINE
  5
18742
330
747D
100
AcDbEntity
  8
部品1
100
AcDbLine
 10
8962.404752503717
 20
7557.754677534051
 30
0.0
 11
8953.404752503717
 21
7557.754677534051
 31
0.0
  0
LINE
  5
18743
330
747D
100
AcDbEntity
  8
部品1
100
AcDbLine
 10
8953.404752503717
 20
7548.75467753405
 30
0.0
 11
8923.404752503717
 21
7548.75467753405
 31
0.0
  0
LINE
  5
18744
330
747D
100
AcDbEntity
  8
部品1
100
AcDbLine
 10
8923.404752503717
 20
7548.75467753405
 30
0.0
 11
8923.404752503717
 21
7625.754677534051
 31
0.0
  0
LINE
  5
18745
330
747D
100
AcDbEntity
  8
部品1
100
AcDbLine
 10
8962.404752503717
 20
7621.754677534051
 30
0.0
 11
8962.404752503717
 21
7557.754677534051
 31
0.0
  0
LINE
  5
18746
330
747D
100
AcDbEntity
  8
部品1
100
AcDbLine
 10
8950.404752503716
 20
7652.754677534047
 30
0.0
 11
8950.404752503716
 21
7621.754677534051
 31
0.0
  0
LINE
  5
18747
330
747D
100
AcDbEntity
  8
部品1
100
AcDbLine
 10
8950.404752503716
 20
7652.754677534047
 30
0.0
 11
11050.40475250371
 21
7652.754677534051
 31
0.0
  0
LINE
  5
18748
330
747D
100
AcDbEntity
  8
部品1
100
AcDbLine
 10
11047.40475250372
 20
7548.75467753405
 30
0.0
 11
11077.40475250371
 21
7548.75467753405
 31
0.0
  0
LINE
  5
18749
330
747D
100
AcDbEntity
  8
部品1
100
AcDbLine
 10
8953.404752503717
 20
7548.75467753405
 30
0.0
 11
11050.40475250371
 21
7548.75467753405
 31
0.0
  0
LINE
  5
1874A
330
747D
100
AcDbEntity
  8
細線
  6
Continuous
 62
     5
100
AcDbLine
 10
10329.40475250372
 20
7587.754677534047
 30
0.0
 11
10329.40475250372
 21
7587.754677534047
 31
0.0
  0
LINE
  5
1874B
330
747D
100
AcDbEntity
  8
細線
  6
Continuous
 62
     5
100
AcDbLine
 10
10321.90478782261
 20
7587.754687455104
 30
0.0
 11
10321.90478782261
 21
7587.754687455104
 31
0.0
  0
LINE
  5
1874C
330
747D
100
AcDbEntity
  8
細線
  6
Continuous
 62
     5
100
AcDbLine
 10
10315.90478782261
 20
7587.754687455104
 30
0.0
 11
10315.90478782261
 21
7587.754687455104
 31
0.0
  0
LINE
  5
1874D
330
747D
100
AcDbEntity
  8
細線
  6
Continuous
 62
     5
100
AcDbLine
 10
10383.40475250372
 20
7606.754677534047
 30
0.0
 11
10383.40475250372
 21
7606.754677534047
 31
0.0
  0
LINE
  5
1874E
330
747D
100
AcDbEntity
  8
細線
 48
50.0
100
AcDbLine
 10
8976.404757157309
 20
7574.354851711006
 30
0.0
 11
8976.404757157309
 21
7582.751002118644
 31
0.0
  0
LINE
  5
1874F
330
747D
100
AcDbEntity
  8
細線
 48
50.0
100
AcDbLine
 10
8976.404757157309
 20
7582.751002118644
 30
0.0
 11
8962.404752503717
 21
7582.751002118641
 31
0.0
  0
LINE
  5
18750
330
747D
100
AcDbEntity
  8
細線
 48
50.0
100
AcDbLine
 10
9727.404757157307
 20
7570.904851711005
 30
0.0
 11
9727.404757157307
 21
7575.754851711007
 31
0.0
  0
LINE
  5
18751
330
747D
100
AcDbEntity
  8
細線
 48
50.0
100
AcDbLine
 10
9727.404757157307
 20
7575.754851711007
 30
0.0
 11
9742.404757157308
 21
7575.754851711007
 31
0.0
  0
LINE
  5
18752
330
747D
100
AcDbEntity
  8
細線
 48
50.0
100
AcDbLine
 10
9742.404757157308
 20
7575.754851711007
 30
0.0
 11
9742.404757157309
 21
7582.754851711006
 31
0.0
  0
LINE
  5
18753
330
747D
100
AcDbEntity
  8
細線
 48
50.0
100
AcDbLine
 10
9742.404757157309
 20
7582.754851711006
 30
0.0
 11
9757.404757157306
 21
7582.754851711006
 31
0.0
  0
LINE
  5
18754
330
747D
100
AcDbEntity
  8
細線
 48
50.0
100
AcDbLine
 10
9757.404757157306
 20
7582.754851711006
 30
0.0
 11
9757.404757157306
 21
7553.754851711007
 31
0.0
  0
LINE
  5
18755
330
747D
100
AcDbEntity
  8
細線
 48
50.0
100
AcDbLine
 10
8953.404752503717
 20
7553.752186054474
 30
0.0
 11
9167.404757157306
 21
7553.754869264719
 31
0.0
  0
LINE
  5
18756
330
747D
100
AcDbEntity
  8
細線
 48
50.0
100
AcDbLine
 10
9657.404757157307
 20
7553.754851711007
 30
0.0
 11
9757.404757157306
 21
7553.754851711007
 31
0.0
  0
LINE
  5
18757
330
747D
100
AcDbEntity
  8
細線
 48
50.0
100
AcDbLine
 10
9377.404757157306
 20
7553.754851711007
 30
0.0
 11
9447.404757157306
 21
7553.754851711007
 31
0.0
  0
LINE
  5
18758
330
747D
100
AcDbEntity
  8
細線
 48
50.0
100
AcDbLine
 10
9390.266722169837
 20
7553.754851711007
 30
0.0
 11
9396.022239752502
 21
7572.0257030015
 31
0.0
  0
LINE
  5
18759
330
747D
100
AcDbEntity
  8
細線
 48
50.0
100
AcDbLine
 10
9396.022239752502
 20
7572.0257030015
 30
0.0
 11
9406.950688232937
 21
7572.025703001497
 31
0.0
  0
ARC
  5
1875A
330
747D
100
AcDbEntity
  8
細線
 48
50.0
100
AcDbCircle
 10
9406.950688232937
 20
7571.025703001497
 30
0.0
 40
1.0
100
AcDbArc
 50
24.62431835213048
 51
90.0
  0
ARC
  5
1875B
330
747D
100
AcDbEntity
  8
細線
 48
50.0
100
AcDbCircle
 10
9417.859400347571
 20
7571.025703001497
 30
0.0
 40
1.0
100
AcDbArc
 50
90.0
 51
155.3756816478695
  0
ARC
  5
1875C
330
747D
100
AcDbEntity
  8
細線
 48
50.0
100
AcDbCircle
 10
9412.405044290251
 20
7573.525703001497
 30
0.0
 40
5.0
100
AcDbArc
 50
204.6243183521304
 51
335.3756816478695
  0
LINE
  5
1875D
330
747D
100
AcDbEntity
  8
細線
 48
50.0
100
AcDbLine
 10
9417.859400347571
 20
7572.025703001497
 30
0.0
 11
9428.787848828005
 21
7572.0257030015
 31
0.0
  0
LINE
  5
1875E
330
747D
100
AcDbEntity
  8
細線
 48
50.0
100
AcDbLine
 10
9428.787848828005
 20
7572.0257030015
 30
0.0
 11
9434.543366410672
 21
7553.754851711007
 31
0.0
  0
LINE
  5
1875F
330
747D
100
AcDbEntity
  8
細線
 48
50.0
100
AcDbLine
 10
9727.404757157307
 20
7574.354851711006
 30
0.0
 11
8976.404757157309
 21
7574.354851711006
 31
0.0
  0
LINE
  5
18760
330
747D
100
AcDbEntity
  8
細線
 48
50.0
100
AcDbLine
 10
9587.404757157306
 20
7553.754851711007
 30
0.0
 11
9517.404757157306
 21
7553.754851711007
 31
0.0
  0
LINE
  5
18761
330
747D
100
AcDbEntity
  8
細線
100
AcDbLine
 10
9307.404757157305
 20
7553.754851711007
 30
0.0
 11
9237.404765342722
 21
7553.754851711007
 31
0.0
  0
LINE
  5
18762
330
747D
100
AcDbEntity
  8
細線
 48
50.0
100
AcDbLine
 10
10381.40474785013
 20
7608.354895568872
 30
0.0
 11
9746.404757157307
 21
7608.35489556887
 31
0.0
  0
LINE
  5
18763
330
747D
100
AcDbEntity
  8
細線
 48
50.0
100
AcDbLine
 10
9746.404757157307
 20
7605.251045976513
 30
0.0
 11
9746.404757157307
 21
7609.751045976513
 31
0.0
  0
LINE
  5
18764
330
747D
100
AcDbEntity
  8
細線
 48
50.0
100
AcDbLine
 10
9746.404757157307
 20
7609.751045976513
 30
0.0
 11
9731.404757157307
 21
7609.751045976513
 31
0.0
  0
LINE
  5
18765
330
747D
100
AcDbEntity
  8
細線
 48
50.0
100
AcDbLine
 10
9731.404757157307
 20
7609.751045976513
 30
0.0
 11
9731.404757157307
 21
7616.751045976513
 31
0.0
  0
LINE
  5
18766
330
747D
100
AcDbEntity
  8
細線
 48
50.0
100
AcDbLine
 10
9731.404757157307
 20
7616.751045976513
 30
0.0
 11
9716.404757157311
 21
7616.75104597651
 31
0.0
  0
LINE
  5
18767
330
747D
100
AcDbEntity
  8
細線
 48
50.0
100
AcDbLine
 10
9716.404757157311
 20
7616.75104597651
 30
0.0
 11
9716.404757157311
 21
7579.150817873399
 31
0.0
  0
LINE
  5
18768
330
747D
100
AcDbEntity
  8
細線
 48
50.0
100
AcDbLine
 10
9716.404757157311
 20
7579.150817873399
 30
0.0
 11
9736.404764458484
 21
7579.15085942294
 31
0.0
  0
LINE
  5
18769
330
747D
100
AcDbEntity
  8
細線
 48
50.0
100
AcDbLine
 10
9736.404719589542
 20
7587.754321058749
 30
0.0
 11
9736.404764458484
 21
7579.15085942294
 31
0.0
  0
LINE
  5
1876A
330
747D
100
AcDbEntity
  8
細線
 48
50.0
100
AcDbLine
 10
10381.40474785013
 20
7604.904895568871
 30
0.0
 11
10381.40474785013
 21
7609.754895568871
 31
0.0
  0
LINE
  5
1876B
330
747D
100
AcDbEntity
  8
細線
 48
50.0
100
AcDbLine
 10
10381.40474785013
 20
7609.754895568871
 30
0.0
 11
10396.40474785012
 21
7609.754895568871
 31
0.0
  0
LINE
  5
1876C
330
747D
100
AcDbEntity
  8
細線
 48
50.0
100
AcDbLine
 10
10396.40474785012
 20
7609.754895568871
 30
0.0
 11
10396.4047594841
 21
7616.754895568914
 31
0.0
  0
LINE
  5
1876D
330
747D
100
AcDbEntity
  8
細線
 48
50.0
100
AcDbLine
 10
10396.4047594841
 20
7616.754895568914
 30
0.0
 11
10411.40475765463
 21
7616.754895568914
 31
0.0
  0
LINE
  5
1876E
330
747D
100
AcDbEntity
  8
細線
 48
50.0
100
AcDbLine
 10
10411.40475765463
 20
7616.754895568914
 30
0.0
 11
10411.40474735281
 21
7587.754689396641
 31
0.0
  0
LINE
  5
1876F
330
747D
100
AcDbEntity
  8
細線
 48
50.0
100
AcDbLine
 10
10098.90477498359
 20
7587.754697584007
 30
0.0
 11
10028.90502706601
 21
7587.754692146669
 31
0.0
  0
LINE
  5
18770
330
747D
100
AcDbEntity
  8
細線
 48
50.0
100
AcDbLine
 10
9736.404719589542
 20
7587.754321058749
 30
0.0
 11
9747.637408944251
 21
7587.754504011894
 31
0.0
  0
ARC
  5
18771
330
747D
100
AcDbEntity
  8
細線
 48
50.0
100
AcDbCircle
 10
9754.219701251587
 20
7586.554667925508
 30
0.0
 40
1.8
100
AcDbArc
 50
270.0006665777295
 51
345.0005554812987
  0
LINE
  5
18772
330
747D
100
AcDbEntity
  8
細線
 48
50.0
100
AcDbLine
 10
9756.206134697666
 20
7587.013508382786
 30
0.0
 11
9755.958372255468
 21
7586.08881050068
 31
0.0
  0
LINE
  5
18773
330
747D
100
AcDbEntity
  8
細線
 48
50.0
100
AcDbLine
 10
9754.219722192743
 20
7584.754667925628
 30
0.0
 11
9750.589794773972
 21
7584.754625695149
 31
0.0
  0
ARC
  5
18774
330
747D
100
AcDbEntity
  8
細線
 48
50.0
100
AcDbCircle
 10
9750.589773832821
 20
7586.554625695028
 30
0.0
 40
1.8
100
AcDbArc
 50
195.0010443049394
 51
270.0006665777295
  0
LINE
  5
18775
330
747D
100
AcDbEntity
  8
細線
 48
50.0
100
AcDbLine
 10
9748.603346340562
 20
7587.013340662593
 30
0.0
 11
9748.851115837076
 21
7586.08871972401
 31
0.0
  0
ARC
  5
18776
330
747D
100
AcDbEntity
  8
細線
 48
50.0
100
AcDbCircle
 10
9747.637425231813
 20
7586.754504012029
 30
0.0
 40
1.0
100
AcDbArc
 50
15.00104430493943
 51
90.00093320877969
  0
LINE
  5
18777
330
747D
100
AcDbEntity
  8
細線
 48
50.0
100
AcDbLine
 10
9757.172056052768
 20
7587.754698702299
 30
0.0
 11
9758.113816203675
 21
7587.75470527615
 31
0.0
  0
ARC
  5
18778
330
747D
100
AcDbEntity
  8
細線
 48
50.0
100
AcDbCircle
 10
9757.172063033156
 20
7586.754698702326
 30
0.0
 40
1.0
100
AcDbArc
 50
90.0003999466794
 51
165.0005554812987
  0
LINE
  5
18779
330
747D
100
AcDbEntity
  8
細線
 48
50.0
100
AcDbLine
 10
10308.90474785012
 20
7587.754689396641
 30
0.0
 11
10411.40474735281
 21
7587.754689396641
 31
0.0
  0
LINE
  5
1877A
330
747D
100
AcDbEntity
  8
細線
 48
50.0
100
AcDbLine
 10
9818.904783169012
 20
7587.754697584007
 30
0.0
 11
9757.804721942092
 21
7587.75470527615
 31
0.0
  0
LINE
  5
1877B
330
747D
100
AcDbEntity
  8
細線
 48
50.0
100
AcDbLine
 10
10238.90478316901
 20
7587.754734425089
 30
0.0
 11
10168.90477621462
 21
7587.754689402422
 31
0.0
  0
LINE
  5
1877C
330
747D
100
AcDbEntity
  8
細線
 48
50.0
100
AcDbLine
 10
9958.90474785012
 20
7587.754689396636
 30
0.0
 11
9888.904730562245
 21
7587.754689396645
 31
0.0
  0
ARC
  5
1877D
330
747D
100
AcDbEntity
  8
細線
 48
50.0
100
AcDbCircle
 10
10395.60475250373
 20
7620.954677534051
 30
0.0
 40
0.8
100
AcDbArc
 50
359.9997333689499
 51
89.99986668437072
  0
ARC
  5
1877E
330
747D
100
AcDbEntity
  8
細線
 48
50.0
100
AcDbCircle
 10
10403.20475932882
 20
7620.954688702669
 30
0.0
 40
0.8
100
AcDbArc
 50
90.00014387753465
 51
179.9997333689498
  0
LINE
  5
1877F
330
747D
100
AcDbEntity
  8
細線
 48
50.0
100
AcDbLine
 10
10395.60475436516
 20
7621.754677534051
 30
0.0
 11
10390.40475250371
 21
7621.754677534051
 31
0.0
  0
ARC
  5
18780
330
747D
100
AcDbEntity
  8
細線
 48
50.0
100
AcDbCircle
 10
10397.10475250372
 20
7619.454677534051
 30
0.0
 40
0.7
100
AcDbArc
 50
180.0
 51
270.0
  0
ARC
  5
18781
330
747D
100
AcDbEntity
  8
細線
 48
50.0
100
AcDbCircle
 10
10401.70475250372
 20
7619.454677534051
 30
0.0
 40
0.7
100
AcDbArc
 50
270.0
 51
0.0
  0
LINE
  5
18782
330
747D
100
AcDbEntity
  8
細線
 48
50.0
100
AcDbLine
 10
10402.40475250371
 20
7619.454677534051
 30
0.0
 11
10402.40475932883
 21
7620.954692425539
 31
0.0
  0
LINE
  5
18783
330
747D
100
AcDbEntity
  8
細線
 48
50.0
100
AcDbLine
 10
10397.10475250372
 20
7618.754677534051
 30
0.0
 11
10401.70475250372
 21
7618.754677534051
 31
0.0
  0
LINE
  5
18784
330
747D
100
AcDbEntity
  8
細線
 48
50.0
100
AcDbLine
 10
10396.40475250371
 20
7620.954677534051
 30
0.0
 11
10396.40475250371
 21
7619.454677534051
 31
0.0
  0
LINE
  5
18785
330
747D
100
AcDbEntity
  8
細線
 48
50.0
100
AcDbLine
 10
11022.00475250372
 20
7651.75467753405
 30
0.0
 11
10385.40475250371
 21
7651.754677534047
 31
0.0
  0
LINE
  5
18786
330
747D
100
AcDbEntity
  8
細線
 48
50.0
100
AcDbLine
 10
11047.90475250371
 20
7646.754677534055
 30
0.0
 11
11032.00475250372
 21
7646.754677534051
 31
0.0
  0
LINE
  5
18787
330
747D
100
AcDbEntity
  8
細線
 48
50.0
100
AcDbLine
 10
11032.00475250372
 20
7646.754677534051
 30
0.0
 11
11022.00475250372
 21
7651.75467753405
 31
0.0
  0
LINE
  5
18788
330
747D
100
AcDbEntity
  8
細線
100
AcDbLine
 10
10632.90475250372
 20
7621.754677534051
 30
0.0
 11
10632.90475250372
 21
7651.05467753405
 31
0.0
  0
LINE
  5
18789
330
747D
100
AcDbEntity
  8
細線
100
AcDbLine
 10
10632.90475250372
 20
7651.05467753405
 30
0.0
 11
10652.90475250372
 21
7651.05467753405
 31
0.0
  0
LINE
  5
1878A
330
747D
100
AcDbEntity
  8
細線
100
AcDbLine
 10
10652.90475250372
 20
7621.754677534051
 30
0.0
 11
10652.90475250372
 21
7651.05467753405
 31
0.0
  0
LINE
  5
1878B
330
747D
100
AcDbEntity
  8
細線
100
AcDbLine
 10
10814.15475250371
 20
7621.754677534051
 30
0.0
 11
10744.15475250371
 21
7621.754677534051
 31
0.0
  0
LINE
  5
1878C
330
747D
100
AcDbEntity
  8
細線
 48
50.0
100
AcDbLine
 10
10534.15475250371
 20
7621.754677534051
 30
0.0
 11
10403.20053207656
 21
7621.754677534051
 31
0.0
  0
LINE
  5
1878D
330
747D
100
AcDbEntity
  8
細線
100
AcDbLine
 10
10674.15475250371
 20
7621.754677534051
 30
0.0
 11
10604.15475250372
 21
7621.754677534051
 31
0.0
  0
LINE
  5
1878E
330
747D
100
AcDbEntity
  8
細線
 48
50.0
100
AcDbLine
 10
10390.40475250371
 20
7613.754677534051
 30
0.0
 11
10390.40475250371
 21
7621.754677534051
 31
0.0
  0
LINE
  5
1878F
330
747D
100
AcDbEntity
  8
細線
 48
50.0
100
AcDbLine
 10
10370.40475250371
 20
7613.754677534053
 30
0.0
 11
10390.40475250371
 21
7613.754677534051
 31
0.0
  0
LINE
  5
18790
330
747D
100
AcDbEntity
  8
細線
 48
50.0
100
AcDbLine
 10
10385.40475250371
 20
7651.75467753405
 30
0.0
 11
10385.40475250371
 21
7646.754677534051
 31
0.0
  0
LINE
  5
18791
330
747D
100
AcDbEntity
  8
細線
 48
50.0
100
AcDbLine
 10
10370.40475250371
 20
7651.754677534047
 30
0.0
 11
10385.40475250371
 21
7651.75467753405
 31
0.0
  0
LINE
  5
18792
330
747D
100
AcDbEntity
  8
細線
 48
50.0
100
AcDbLine
 10
10370.40475250371
 20
7613.754677534053
 30
0.0
 11
10370.40475250371
 21
7651.754677534047
 31
0.0
  0
LINE
  5
18793
330
747D
100
AcDbEntity
  8
細線
100
AcDbLine
 10
11038.40475250371
 20
7621.754677534051
 30
0.0
 11
10884.15475250371
 21
7621.754677534051
 31
0.0
  0
LINE
  5
18794
330
747D
100
AcDbEntity
  8
細線
 48
50.0
100
AcDbLine
 10
11047.90475250371
 20
7646.754677534055
 30
0.0
 11
11047.90475250371
 21
7621.754677534051
 31
0.0
  0
DIMENSION
  5
189CB
330
747D
100
AcDbEntity
  8
寸法
 48
50.0
100
AcDbDimension
  2
*D31
 10
11077.40475250371
 20
6628.624962106153
 30
0.0
 11
10022.53750925103
 21
6628.624962106153
 31
0.0
 70
   160
 71
     5
 42
2154.0
  3
INABA_S40G
100
AcDbAlignedDimension
 13
8923.404752503717
 23
7548.754677533921
 33
0.0
 14
11077.40475250371
 24
7548.754677533921
 34
0.0
100
AcDbRotatedDimension
1001
ACAD
1000
DSTYLE
1002
{
1070
   341
1005
0
1002
}
  0
DIMENSION
  5
189CC
330
747D
100
AcDbEntity
  8
寸法
100
AcDbDimension
  2
*D32
 10
8180.793506877026
 20
7550.754677533887
 30
0.0
 11
8180.793506877023
 21
7410.269396159648
 31
0.0
 70
   160
 71
     5
 42
75.0
  3
INABA_S40
100
AcDbAlignedDimension
 13
8475.404752503742
 23
7625.754677533887
 33
0.0
 14
8923.404752503717
 24
7550.754677533887
 34
0.0
 50
90.0
100
AcDbRotatedDimension
1001
ACAD
1000
DSTYLE
1002
{
1070
    41
1040
0.5
1070
    44
1040
1.0
1070
   147
1040
0.8
1070
   271
1070
     2
1070
   272
1070
     2
1070
   289
1070
     3
1070
   340
1005
F706
1070
   343
1005
173C5
1070
   344
1005
173C5
1002
}
  0
TEXT
  5
18A7D
330
747D
100
AcDbEntity
  8
部品1
100
AcDbText
 10
9498.589029218557
 20
5985.124479322446
 30
0.0
 40
135.0
  1
平面図
  7
STYLE2
100
AcDbText
  0
LINE
  5
18A7E
330
747D
100
AcDbEntity
  8
部品1
100
AcDbLine
 10
9408.66941938952
 20
6178.01800854097
 30
0.0
 11
9408.66941938952
 21
5938.125686995437
 31
0.0
  0
LINE
  5
18A7F
330
747D
100
AcDbEntity
  8
部品1
100
AcDbLine
 10
9408.66941938952
 20
5938.125686995437
 30
0.0
 11
10172.14008561796
 21
5938.125686995437
 31
0.0
  0
LINE
  5
18A80
330
747D
100
AcDbEntity
  8
部品1
100
AcDbLine
 10
10172.14008561796
 20
5938.125686995437
 30
0.0
 11
10172.14008561796
 21
6178.01800854097
 31
0.0
  0
LINE
  5
18A81
330
747D
100
AcDbEntity
  8
部品1
100
AcDbLine
 10
10172.14008561796
 20
6178.01800854097
 30
0.0
 11
9408.66941938952
 21
6178.01800854097
 31
0.0
  0
DIMENSION
  5
18A88
330
747D
100
AcDbEntity
  8
寸法
100
AcDbDimension
  2
*D33
 10
11105.40475250372
 20
6369.367160471141
 30
0.0
 11
9808.206541139892
 21
6369.367160471141
 31
0.0
 70
   160
 71
     5
 42
2629.999999999982
  3
INABA_S40G
100
AcDbAlignedDimension
 13
8475.404752503742
 23
7625.754677533887
 33
0.0
 14
11105.40475250372
 24
7625.754677534051
 34
0.0
100
AcDbRotatedDimension
1001
ACAD
1000
DSTYLE
1002
{
1002
}
  0
LWPOLYLINE
  5
18CF2
330
747D
100
AcDbEntity
  8
部品1
 48
50.0
100
AcDbPolyline
 90
        4
 70
     1
 43
0.0
 10
9022.454752503739
 20
3557.21395924404
 10
9025.354752503742
 20
3557.21395924404
 10
9025.354752503742
 20
3566.71395924404
 10
9022.454752503739
 20
3566.71395924404
  0
CIRCLE
  5
18CF3
330
747D
100
AcDbEntity
  8
部品1
 48
50.0
100
AcDbCircle
 10
9023.904752503741
 20
3561.96395924404
 30
0.0
 40
9.0
  0
ARC
  5
18CF4
330
747D
100
AcDbEntity
  8
細線
 48
50.0
100
AcDbCircle
 10
9023.904752503741
 20
3561.96395924404
 30
0.0
 40
4.0
100
AcDbArc
 50
111.2538091853132
 51
248.7461908146868
  0
ARC
  5
18CF5
330
747D
100
AcDbEntity
  8
細線
 48
50.0
100
AcDbCircle
 10
9023.904752503741
 20
3561.96395924404
 30
0.0
 40
17.5
100
AcDbArc
 50
306.4837370612677
 51
233.5162629387323
  0
LINE
  5
18CF6
330
747D
100
AcDbEntity
  8
細線
 48
50.0
100
AcDbLine
 10
9033.904752503737
 20
3538.104998663158
 30
0.0
 11
9033.90475250374
 21
3547.089484463399
 31
0.0
  0
LINE
  5
18CF7
330
747D
100
AcDbEntity
  8
細線
 48
50.0
100
AcDbLine
 10
9013.904752503741
 20
3538.104998663159
 30
0.0
 11
9013.904752503741
 21
3547.089484463395
 31
0.0
  0
ARC
  5
18CF8
330
747D
100
AcDbEntity
  8
細線
 48
50.0
100
AcDbCircle
 10
9023.904752503741
 20
3561.96395924404
 30
0.0
 40
26.5
100
AcDbArc
 50
249.3326835063939
 51
290.6673164933835
  0
ARC
  5
18CF9
330
747D
100
AcDbEntity
  8
細線
 48
50.0
100
AcDbCircle
 10
9032.904752503734
 20
3538.104998663158
 30
0.0
 40
1.0
100
AcDbArc
 50
290.6673164936062
 51
359.9999999998958
  0
ARC
  5
18CFA
330
747D
100
AcDbEntity
  8
細線
 48
50.0
100
AcDbCircle
 10
9014.90475250374
 20
3538.104998663159
 30
0.0
 40
1.0
100
AcDbArc
 50
180.0
 51
249.3326835066164
  0
ARC
  5
18CFB
330
747D
100
AcDbEntity
  8
細線
 48
50.0
100
AcDbCircle
 10
9012.904752503741
 20
3547.089484463395
 30
0.0
 40
1.0
100
AcDbArc
 50
0.0
 51
53.51626293873231
  0
ARC
  5
18CFC
330
747D
100
AcDbEntity
  8
細線
 48
50.0
100
AcDbCircle
 10
9034.904752503745
 20
3547.089484463399
 30
0.0
 40
1.0
100
AcDbArc
 50
126.4837370615127
 51
180.0
  0
ARC
  5
18CFD
330
747D
100
AcDbEntity
  8
細線
 48
50.0
100
AcDbCircle
 10
9023.904752503741
 20
3561.96395924404
 30
0.0
 40
21.5
100
AcDbArc
 50
255.8014401250294
 51
284.1985598749706
  0
ARC
  5
18CFE
330
747D
100
AcDbEntity
  8
細線
 48
50.0
100
AcDbCircle
 10
9023.904752503741
 20
3561.96395924404
 30
0.0
 40
16.5
100
AcDbArc
 50
251.9694646069326
 51
288.0305353930674
  0
LINE
  5
18CFF
330
747D
100
AcDbEntity
  8
細線
 48
50.0
100
AcDbLine
 10
9029.40475250374
 20
3541.411587118233
 30
0.0
 11
9029.40475250374
 21
3545.98897880557
 31
0.0
  0
LINE
  5
18D00
330
747D
100
AcDbEntity
  8
細線
 48
50.0
100
AcDbLine
 10
9018.404752503739
 20
3541.411587118233
 30
0.0
 11
9018.404752503739
 21
3545.988978805568
 31
0.0
  0
ARC
  5
18D01
330
747D
100
AcDbEntity
  8
細線
 48
50.0
100
AcDbCircle
 10
9018.704752503742
 20
3545.988978805568
 30
0.0
 40
0.3
100
AcDbArc
 50
71.96946460693259
 51
180.0
  0
ARC
  5
18D02
330
747D
100
AcDbEntity
  8
細線
 48
50.0
100
AcDbCircle
 10
9029.104752503741
 20
3545.98897880557
 30
0.0
 40
0.3
100
AcDbArc
 50
0.0
 51
108.0305353930674
  0
ARC
  5
18D03
330
747D
100
AcDbEntity
  8
細線
 48
50.0
100
AcDbCircle
 10
9029.104752503737
 20
3541.411587118233
 30
0.0
 40
0.3
100
AcDbArc
 50
284.1985598747622
 51
0.0000000001042204
  0
ARC
  5
18D04
330
747D
100
AcDbEntity
  8
細線
 48
50.0
100
AcDbCircle
 10
9018.704752503742
 20
3541.411587118233
 30
0.0
 40
0.3
100
AcDbArc
 50
180.0
 51
255.8014401248081
  0
CIRCLE
  5
18D05
330
747D
100
AcDbEntity
  8
細線
 48
50.0
100
AcDbCircle
 10
9023.904752503741
 20
3561.96395924404
 30
0.0
 40
12.0
  0
ARC
  5
18D06
330
747D
100
AcDbEntity
  8
部品1
 48
50.0
100
AcDbCircle
 10
9023.904752503741
 20
3611.96395924404
 30
0.0
 40
8.5
100
AcDbArc
 50
114.315739171091
 51
245.684260828909
  0
CIRCLE
  5
18D07
330
747D
100
AcDbEntity
  8
細線
 48
50.0
100
AcDbCircle
 10
9023.904752503741
 20
3611.96395924404
 30
0.0
 40
4.5
  0
LWPOLYLINE
  5
18D08
330
747D
100
AcDbEntity
  8
部品1
 48
50.0
100
AcDbPolyline
 90
        2
 70
     0
 43
0.0
 10
9020.404752503742
 20
3630.638808641022
 10
9020.404752503742
 20
3619.709925936455
  0
CIRCLE
  5
18D09
330
747D
100
AcDbEntity
  8
部品1
 48
50.0
100
AcDbCircle
 10
9023.904752503741
 20
3611.96395924404
 30
0.0
 40
19.0
  0
LWPOLYLINE
  5
18D0A
330
747D
100
AcDbEntity
  8
部品1
 48
50.0
100
AcDbPolyline
 90
        2
 70
     0
 43
0.0
 10
9020.404752503742
 20
3604.217992551625
 10
9020.404752503742
 20
3593.289109847057
  0
LWPOLYLINE
  5
18D0B
330
747D
100
AcDbEntity
  8
部品1
 48
50.0
100
AcDbPolyline
 90
        2
 70
     0
 43
0.0
 10
9027.404752503739
 20
3619.709925936455
 10
9027.404752503739
 20
3630.638808641022
  0
ARC
  5
18D0C
330
747D
100
AcDbEntity
  8
部品1
 48
50.0
100
AcDbCircle
 10
9023.904752503741
 20
3611.96395924404
 30
0.0
 40
8.5
100
AcDbArc
 50
294.315739171091
 51
65.68426082890896
  0
LWPOLYLINE
  5
18D0D
330
747D
100
AcDbEntity
  8
部品1
 48
50.0
100
AcDbPolyline
 90
        2
 70
     0
 43
0.0
 10
9027.404752503739
 20
3593.289109847057
 10
9027.404752503739
 20
3604.217992551625
  0
ARC
  5
18D0E
330
747D
100
AcDbEntity
  8
細線
 48
50.0
100
AcDbCircle
 10
9023.904752503741
 20
3611.96395924404
 30
0.0
 40
16.5
100
AcDbArc
 50
332.0012352654438
 51
27.99876473455621
  0
ARC
  5
18D0F
330
747D
100
AcDbEntity
  8
細線
 48
50.0
100
AcDbCircle
 10
9023.904752503741
 20
3611.96395924404
 30
0.0
 40
14.0
100
AcDbArc
 50
326.4074436112986
 51
33.59255638870134
  0
LINE
  5
18D10
330
747D
100
AcDbEntity
  8
細線
 48
50.0
100
AcDbLine
 10
9009.335950219409
 20
3619.709925936455
 30
0.0
 11
9012.24284871405
 21
3619.709925936455
 31
0.0
  0
LINE
  5
18D11
330
747D
100
AcDbEntity
  8
細線
 48
50.0
100
AcDbLine
 10
9009.335950219409
 20
3604.217992551625
 30
0.0
 11
9012.24284871405
 21
3604.217992551625
 31
0.0
  0
LINE
  5
18D12
330
747D
100
AcDbEntity
  8
細線
 48
50.0
100
AcDbLine
 10
9035.566656293429
 20
3619.709925936455
 30
0.0
 11
9038.473554788074
 21
3619.709925936455
 31
0.0
  0
LINE
  5
18D13
330
747D
100
AcDbEntity
  8
細線
 48
50.0
100
AcDbLine
 10
9035.566656293429
 20
3604.217992551625
 30
0.0
 11
9038.473554788074
 21
3604.217992551625
 31
0.0
  0
ARC
  5
18D14
330
747D
100
AcDbEntity
  8
細線
 48
50.0
100
AcDbCircle
 10
9023.904752503741
 20
3611.96395924404
 30
0.0
 40
14.0
100
AcDbArc
 50
146.4074436112986
 51
213.5925563887013
  0
ARC
  5
18D15
330
747D
100
AcDbEntity
  8
細線
 48
50.0
100
AcDbCircle
 10
9023.904752503741
 20
3611.96395924404
 30
0.0
 40
16.5
100
AcDbArc
 50
152.0012352654438
 51
207.9987647345562
  0
ARC
  5
18D16
330
747D
100
AcDbEntity
  8
部品1
 48
50.0
100
AcDbCircle
 10
8997.40475250374
 20
3637.46395924404
 30
0.0
 40
5.0
100
AcDbArc
 50
90.0
 51
180.0
  0
ARC
  5
18D17
330
747D
100
AcDbEntity
  8
部品1
 48
50.0
100
AcDbCircle
 10
8997.40475250374
 20
3526.46395924404
 30
0.0
 40
5.0
100
AcDbArc
 50
180.0
 51
270.0
  0
ARC
  5
18D18
330
747D
100
AcDbEntity
  8
部品1
 48
50.0
100
AcDbCircle
 10
9050.404752503741
 20
3526.46395924404
 30
0.0
 40
5.0
100
AcDbArc
 50
270.0
 51
0.0
  0
ARC
  5
18D19
330
747D
100
AcDbEntity
  8
部品1
 48
50.0
100
AcDbCircle
 10
9050.404752503741
 20
3637.46395924404
 30
0.0
 40
5.0
100
AcDbArc
 50
0.0
 51
90.0
  0
LINE
  5
18D1B
330
747D
100
AcDbEntity
  8
部品1
 48
50.0
100
AcDbLine
 10
8992.404752503741
 20
3526.46395924404
 30
0.0
 11
8992.404752503741
 21
3637.46395924404
 31
0.0
  0
LINE
  5
18D1C
330
747D
100
AcDbEntity
  8
部品1
 48
50.0
100
AcDbLine
 10
9050.404752503741
 20
3521.46395924404
 30
0.0
 11
8997.40475250374
 21
3521.46395924404
 31
0.0
  0
LINE
  5
18D1D
330
747D
100
AcDbEntity
  8
部品1
 48
50.0
100
AcDbLine
 10
9055.40475250374
 20
3637.46395924404
 30
0.0
 11
9055.40475250374
 21
3526.46395924404
 31
0.0
  0
ENDSEC
  0
SECTION
  2
OBJECTS
  0
DICTIONARY
  5
7471
330
0
100
AcDbDictionary
281
     1
  3
ACAD_COLOR
350
173BA
  3
ACAD_GROUP
350
7472
  3
ACAD_LAYOUT
350
173BB
  3
ACAD_MATERIAL
350
173B9
  3
ACAD_MLINESTYLE
350
7473
  3
ACAD_PLOTSETTINGS
350
173BC
  3
ACAD_PLOTSTYLENAME
350
173B7
  3
ACDBHEADERROUNDTRIPXREC
350
18D2C
  3
AcDbVariableDictionary
350
18D28
  3
CONTENTDICTIONARY
350
E71C
  3
DRAWINGVARIABLESDICT
350
F3B9
  0
DICTIONARY
  5
17554
330
7467
100
AcDbDictionary
280
     1
281
     1
  3
ACAD_LAYERSTATES
360
17555
  0
DICTIONARY
  5
173BA
102
{ACAD_REACTORS
330
7471
102
}
330
7471
100
AcDbDictionary
281
     1
  0
DICTIONARY
  5
7472
102
{ACAD_REACTORS
330
7471
102
}
330
7471
100
AcDbDictionary
281
     1
  0
DICTIONARY
  5
173BB
102
{ACAD_REACTORS
330
7471
102
}
330
7471
100
AcDbDictionary
281
     1
  3
Model
350
173BD
  3
レイアウト1
350
173BE
  0
DICTIONARY
  5
173B9
102
{ACAD_REACTORS
330
7471
102
}
330
7471
100
AcDbDictionary
281
     1
  0
DICTIONARY
  5
7473
102
{ACAD_REACTORS
330
7471
102
}
330
7471
100
AcDbDictionary
281
     1
  3
STANDARD
350
7480
  0
DICTIONARY
  5
173BC
102
{ACAD_REACTORS
330
7471
102
}
330
7471
100
AcDbDictionary
281
     1
  0
ACDBDICTIONARYWDFLT
  5
173B7
102
{ACAD_REACTORS
330
7471
102
}
330
7471
100
AcDbDictionary
281
     1
  3
Normal
350
173B8
100
AcDbDictionaryWithDefault
340
173B8
  0
DICTIONARY
  5
18D2C
102
{ACAD_REACTORS
330
7471
102
}
330
7471
100
AcDbDictionary
281
     1
  3
COLORDICT
350
18D2E
  3
MATERIALDICT
350
18D2D
  0
DICTIONARY
  5
18D28
102
{ACAD_REACTORS
330
7471
102
}
330
7471
100
AcDbDictionary
281
     1
  3
DIMASSOC
350
18D29
  3
PROJECTNAME
350
18D2A
  0
DICTIONARY
  5
E71C
102
{ACAD_REACTORS
330
7471
102
}
330
7471
100
AcDbDictionary
281
     1
  0
DICTIONARY
  5
F3B9
102
{ACAD_REACTORS
330
7471
102
}
330
7471
100
AcDbDictionary
281
     1
1001
DRAWINGVARIABLESXDATA
1000
POLARMODE
1000
1
  0
DICTIONARY
  5
17555
102
{ACAD_REACTORS
330
17554
102
}
330
17554
100
AcDbDictionary
281
     1
  0
LAYOUT
  5
173BD
102
{ACAD_XDICTIONARY
360
18D2F
102
}
102
{ACAD_REACTORS
330
173BB
102
}
330
173BB
100
AcDbPlotSettings
  1

  2
Microsoft Office Document Image Writer
  4

  6

 40
0.0
 41
0.0
 42
0.0
 43
0.0
 44
0.0
 45
0.0
 46
0.0
 47
0.0
 48
0.0
 49
0.0
140
0.0
141
0.0
142
1.0
143
1.0
 70
  1712
 72
     0
 73
     0
 74
     0
  7

 75
     0
147
1.0
148
0.0
149
0.0
100
AcDbLayout
  1
Model
 70
     1
 71
     0
 10
0.0
 20
0.0
 11
12.0
 21
9.0
 12
0.0
 22
0.0
 32
0.0
 14
0.0
 24
0.0
 34
0.0
 15
0.0
 25
0.0
 35
0.0
146
0.0
 13
0.0
 23
0.0
 33
0.0
 16
1.0
 26
0.0
 36
0.0
 17
0.0
 27
1.0
 37
0.0
 76
     0
330
747D
  0
LAYOUT
  5
173BE
102
{ACAD_XDICTIONARY
360
18D31
102
}
102
{ACAD_REACTORS
330
173BB
102
}
330
173BB
100
AcDbPlotSettings
  1

  2
Microsoft Office Document Image Writer
  4

  6

 40
0.0
 41
0.0
 42
0.0
 43
0.0
 44
0.0
 45
0.0
 46
0.0
 47
0.0
 48
0.0
 49
0.0
140
0.0
141
0.0
142
1.0
143
1.0
 70
   688
 72
     0
 73
     0
 74
     5
  7

 75
    16
147
1.0
148
0.0
149
0.0
100
AcDbLayout
  1
レイアウト1
 70
     0
 71
     1
 10
0.0
 20
0.0
 11
420.0
 21
297.0
 12
0.0
 22
0.0
 32
0.0
 14
1.000000000000000E+20
 24
1.000000000000000E+20
 34
1.000000000000000E+20
 15
-1.000000000000000E+20
 25
-1.000000000000000E+20
 35
-1.000000000000000E+20
146
0.0
 13
0.0
 23
0.0
 33
0.0
 16
1.0
 26
0.0
 36
0.0
 17
0.0
 27
1.0
 37
0.0
 76
     0
330
747A
  0
MLINESTYLE
  5
7480
102
{ACAD_REACTORS
330
7473
102
}
330
7473
100
AcDbMlineStyle
  2
STANDARD
 70
     0
  3

 62
     0
 51
90.0
 52
90.0
 71
     2
 49
0.5
 62
   256
  6
BYLAYER
 49
-0.5
 62
   256
  6
BYLAYER
  0
ACDBPLACEHOLDER
  5
173B8
102
{ACAD_REACTORS
330
173B7
102
}
330
173B7
  0
XRECORD
  5
18D2E
102
{ACAD_REACTORS
330
18D2C
102
}
330
18D2C
100
AcDbXrecord
280
     1
340
173BA
  0
XRECORD
  5
18D2D
102
{ACAD_REACTORS
330
18D2C
102
}
330
18D2C
100
AcDbXrecord
280
     1
340
173B9
  0
DICTIONARYVAR
  5
18D29
102
{ACAD_REACTORS
330
18D28
102
}
330
18D28
100
DictionaryVariables
280
     0
  1
1
  0
DICTIONARYVAR
  5
18D2A
102
{ACAD_REACTORS
330
18D28
102
}
330
18D28
100
DictionaryVariables
280
     0
  1

  0
DICTIONARY
  5
18D2F
330
173BD
100
AcDbDictionary
280
     1
281
     1
  3
ACAD_XREC_ROUNDTRIP
360
18D30
  0
DICTIONARY
  5
18D31
330
173BE
100
AcDbDictionary
280
     1
281
     1
  3
ACAD_XREC_ROUNDTRIP
360
18D32
  0
XRECORD
  5
18D30
102
{ACAD_REACTORS
330
18D2F
102
}
330
18D2F
100
AcDbXrecord
280
     1
102
SHADEPLOT
 70
     0
102
SHADEPLOTRESLEVEL
 70
     2
102
SHADEPLOTCUSTOMDPI
 70
   300
  0
XRECORD
  5
18D32
102
{ACAD_REACTORS
330
18D31
102
}
330
18D31
100
AcDbXrecord
280
     1
102
SHADEPLOT
 70
     0
102
SHADEPLOTRESLEVEL
 70
     2
102
SHADEPLOTCUSTOMDPI
 70
   300
  0
ENDSEC
  0
EOF
