  0
SECTION
  2
HEADER
  9
$ACADVER
  1
AC1015
  9
$ACADMAINTVER
 70
    20
  9
$DWGCODEPAGE
  3
ANSI_932
  9
$INSBASE
 10
0.0
 20
0.0
 30
0.0
  9
$EXTMIN
 10
139.9999999999995
 20
-0.0000000000000909
 30
0.0
  9
$EXTMAX
 10
16307.2
 20
11409.6
 30
0.0
  9
$LIMMIN
 10
0.0
 20
0.0
  9
$LIMMAX
 10
16800.0
 20
11880.0
  9
$ORTHOMODE
 70
     0
  9
$REGENMODE
 70
     1
  9
$FILLMODE
 70
     1
  9
$QTEXTMODE
 70
     0
  9
$MIRRTEXT
 70
     1
  9
$LTSCALE
 40
20.0
  9
$ATTMODE
 70
     1
  9
$TEXTSIZE
 40
4.0
  9
$TRACEWID
 40
1.0
  9
$TEXTSTYLE
  7
STYLE1
  9
$CLAYER
  8
部品1
  9
$CELTYPE
  6
BYLAYER
  9
$CECOLOR
 62
   256
  9
$CELTSCALE
 40
50.0
  9
$DISPSILH
 70
     0
  9
$DIMSCALE
 40
40.0
  9
$DIMASZ
 40
2.5
  9
$DIMEXO
 40
0.5
  9
$DIMDLI
 40
7.0
  9
$DIMRND
 40
0.0
  9
$DIMDLE
 40
0.0
  9
$DIMEXE
 40
1.5
  9
$DIMTP
 40
0.0
  9
$DIMTM
 40
0.0
  9
$DIMTXT
 40
3.0
  9
$DIMCEN
 40
0.0
  9
$DIMTSZ
 40
0.0
  9
$DIMTOL
 70
     0
  9
$DIMLIM
 70
     0
  9
$DIMTIH
 70
     0
  9
$DIMTOH
 70
     0
  9
$DIMSE1
 70
     0
  9
$DIMSE2
 70
     0
  9
$DIMTAD
 70
     3
  9
$DIMZIN
 70
     8
  9
$DIMBLK
  1

  9
$DIMASO
 70
     1
  9
$DIMSHO
 70
     1
  9
$DIMPOST
  1

  9
$DIMAPOST
  1

  9
$DIMALT
 70
     0
  9
$DIMALTD
 70
     2
  9
$DIMALTF
 40
0.0394
  9
$DIMLFAC
 40
1.0
  9
$DIMTOFL
 70
     1
  9
$DIMTVP
 40
0.0
  9
$DIMTIX
 70
     1
  9
$DIMSOXD
 70
     0
  9
$DIMSAH
 70
     1
  9
$DIMBLK1
  1
DOTSMALL
  9
$DIMBLK2
  1
DOTSMALL
  9
$DIMSTYLE
  2
INABA_S40G
  9
$DIMCLRD
 70
     0
  9
$DIMCLRE
 70
     0
  9
$DIMCLRT
 70
     7
  9
$DIMTFAC
 40
1.0
  9
$DIMGAP
 40
1.0
  9
$DIMJUST
 70
     0
  9
$DIMSD1
 70
     0
  9
$DIMSD2
 70
     0
  9
$DIMTOLJ
 70
     1
  9
$DIMTZIN
 70
     0
  9
$DIMALTZ
 70
     0
  9
$DIMALTTZ
 70
     0
  9
$DIMUPT
 70
     0
  9
$DIMDEC
 70
     1
  9
$DIMTDEC
 70
     4
  9
$DIMALTU
 70
     2
  9
$DIMALTTD
 70
     2
  9
$DIMTXSTY
  7
STYLE1
  9
$DIMAUNIT
 70
     0
  9
$DIMADEC
 70
     0
  9
$DIMALTRND
 40
0.0
  9
$DIMAZIN
 70
     0
  9
$DIMDSEP
 70
    46
  9
$DIMATFIT
 70
     3
  9
$DIMFRAC
 70
     0
  9
$DIMLDRBLK
  1

  9
$DIMLUNIT
 70
     2
  9
$DIMLWD
 70
    -2
  9
$DIMLWE
 70
    -2
  9
$DIMTMOVE
 70
     0
  9
$LUNITS
 70
     2
  9
$LUPREC
 70
     1
  9
$SKETCHINC
 40
1.0
  9
$FILLETRAD
 40
3.0
  9
$AUNITS
 70
     0
  9
$AUPREC
 70
     0
  9
$MENU
  1
acad
  9
$ELEVATION
 40
0.0
  9
$PELEVATION
 40
0.0
  9
$THICKNESS
 40
0.0
  9
$LIMCHECK
 70
     0
  9
$CHAMFERA
 40
0.0
  9
$CHAMFERB
 40
0.0
  9
$CHAMFERC
 40
0.0
  9
$CHAMFERD
 40
0.0
  9
$SKPOLY
 70
     0
  9
$TDCREATE
 40
2451368.612993866
  9
$TDUCREATE
 40
2451368.237993866
  9
$TDUPDATE
 40
2455575.686326679
  9
$TDUUPDATE
 40
2455575.311326679
  9
$TDINDWG
 40
0.6730850694
  9
$TDUSRTIMER
 40
0.6730850694
  9
$USRTIMER
 70
     1
  9
$ANGBASE
 50
0.0
  9
$ANGDIR
 70
     0
  9
$PDMODE
 70
     3
  9
$PDSIZE
 40
2.0
  9
$PLINEWID
 40
0.0
  9
$SPLFRAME
 70
     0
  9
$SPLINETYPE
 70
     6
  9
$SPLINESEGS
 70
     8
  9
$HANDSEED
  5
18D19
  9
$SURFTAB1
 70
     6
  9
$SURFTAB2
 70
     6
  9
$SURFTYPE
 70
     6
  9
$SURFU
 70
     6
  9
$SURFV
 70
     6
  9
$UCSBASE
  2

  9
$UCSNAME
  2

  9
$UCSORG
 10
0.0
 20
0.0
 30
0.0
  9
$UCSXDIR
 10
1.0
 20
0.0
 30
0.0
  9
$UCSYDIR
 10
0.0
 20
1.0
 30
0.0
  9
$UCSORTHOREF
  2

  9
$UCSORTHOVIEW
 70
     0
  9
$UCSORGTOP
 10
0.0
 20
0.0
 30
0.0
  9
$UCSORGBOTTOM
 10
0.0
 20
0.0
 30
0.0
  9
$UCSORGLEFT
 10
0.0
 20
0.0
 30
0.0
  9
$UCSORGRIGHT
 10
0.0
 20
0.0
 30
0.0
  9
$UCSORGFRONT
 10
0.0
 20
0.0
 30
0.0
  9
$UCSORGBACK
 10
0.0
 20
0.0
 30
0.0
  9
$PUCSBASE
  2

  9
$PUCSNAME
  2

  9
$PUCSORG
 10
0.0
 20
0.0
 30
0.0
  9
$PUCSXDIR
 10
1.0
 20
0.0
 30
0.0
  9
$PUCSYDIR
 10
0.0
 20
1.0
 30
0.0
  9
$PUCSORTHOREF
  2

  9
$PUCSORTHOVIEW
 70
     0
  9
$PUCSORGTOP
 10
0.0
 20
0.0
 30
0.0
  9
$PUCSORGBOTTOM
 10
0.0
 20
0.0
 30
0.0
  9
$PUCSORGLEFT
 10
0.0
 20
0.0
 30
0.0
  9
$PUCSORGRIGHT
 10
0.0
 20
0.0
 30
0.0
  9
$PUCSORGFRONT
 10
0.0
 20
0.0
 30
0.0
  9
$PUCSORGBACK
 10
0.0
 20
0.0
 30
0.0
  9
$USERI1
 70
     0
  9
$USERI2
 70
     0
  9
$USERI3
 70
     0
  9
$USERI4
 70
     0
  9
$USERI5
 70
     0
  9
$USERR1
 40
0.0
  9
$USERR2
 40
0.0
  9
$USERR3
 40
0.0
  9
$USERR4
 40
0.0
  9
$USERR5
 40
0.0
  9
$WORLDVIEW
 70
     1
  9
$SHADEDGE
 70
     3
  9
$SHADEDIF
 70
    70
  9
$TILEMODE
 70
     1
  9
$MAXACTVP
 70
    16
  9
$PINSBASE
 10
0.0
 20
0.0
 30
0.0
  9
$PLIMCHECK
 70
     0
  9
$PEXTMIN
 10
1.000000000000000E+20
 20
1.000000000000000E+20
 30
1.000000000000000E+20
  9
$PEXTMAX
 10
-1.000000000000000E+20
 20
-1.000000000000000E+20
 30
-1.000000000000000E+20
  9
$PLIMMIN
 10
0.0
 20
0.0
  9
$PLIMMAX
 10
420.0
 20
297.0
  9
$UNITMODE
 70
     0
  9
$VISRETAIN
 70
     0
  9
$PLINEGEN
 70
     0
  9
$PSLTSCALE
 70
     0
  9
$TREEDEPTH
 70
  3020
  9
$CMLSTYLE
  2
STANDARD
  9
$CMLJUST
 70
     0
  9
$CMLSCALE
 40
1.0
  9
$PROXYGRAPHICS
 70
     1
  9
$MEASUREMENT
 70
     1
  9
$CELWEIGHT
370
    -1
  9
$ENDCAPS
280
     0
  9
$JOINSTYLE
280
     0
  9
$LWDISPLAY
290
     0
  9
$INSUNITS
 70
     0
  9
$HYPERLINKBASE
  1

  9
$STYLESHEET
  1

  9
$XEDIT
290
     1
  9
$CEPSNTYPE
380
     0
  9
$PSTYLEMODE
290
     1
  9
$FINGERPRINTGUID
  2
{7B939EAA-28FC-49BA-A8B4-0C2382B85270}
  9
$VERSIONGUID
  2
{4BEA9724-8902-401D-9B2A-071854E88C4C}
  9
$EXTNAMES
290
     1
  9
$PSVPSCALE
 40
0.0
  9
$OLESTARTUP
290
     0
  0
ENDSEC
  0
SECTION
  2
CLASSES
  0
CLASS
  1
ACDBDICTIONARYWDFLT
  2
AcDbDictionaryWithDefault
  3
ObjectDBX Classes
 90
        0
280
     0
281
     0
  0
CLASS
  1
DICTIONARYVAR
  2
AcDbDictionaryVar
  3
ObjectDBX Classes
 90
        0
280
     0
281
     0
  0
CLASS
  1
ACDBPLACEHOLDER
  2
AcDbPlaceHolder
  3
ObjectDBX Classes
 90
        0
280
     0
281
     0
  0
CLASS
  1
LAYOUT
  2
AcDbLayout
  3
ObjectDBX Classes
 90
        0
280
     0
281
     0
  0
ENDSEC
  0
SECTION
  2
TABLES
  0
TABLE
  2
VPORT
  5
746D
330
0
100
AcDbSymbolTable
 70
     2
  0
VPORT
  5
18D11
330
746D
100
AcDbSymbolTableRecord
100
AcDbViewportTableRecord
  2
*Active
 70
     0
 10
0.0
 20
0.0
 11
1.0
 21
1.0
 12
8223.786071210248
 22
6349.010395104233
 13
0.0
 23
0.0
 14
10.0
 24
10.0
 15
10.0
 25
10.0
 16
0.0
 26
0.0
 36
1.0
 17
0.0
 27
0.0
 37
0.0
 40
12806.32783590875
 41
1.525925925925925
 42
50.0
 43
0.0
 44
0.0
 50
0.0
 51
0.0
 71
     0
 72
     0
 73
     1
 74
     0
 75
     0
 76
     0
 77
     0
 78
     0
281
     0
 65
     1
110
0.0
120
0.0
130
0.0
111
1.0
121
0.0
131
0.0
112
0.0
122
1.0
132
0.0
 79
     0
146
0.0
  0
ENDTAB
  0
TABLE
  2
LTYPE
  5
746A
330
0
100
AcDbSymbolTable
 70
     4
  0
LTYPE
  5
7477
330
746A
100
AcDbSymbolTableRecord
100
AcDbLinetypeTableRecord
  2
BYBLOCK
 70
     0
  3

 72
    65
 73
     0
 40
0.0
  0
LTYPE
  5
7478
330
746A
100
AcDbSymbolTableRecord
100
AcDbLinetypeTableRecord
  2
BYLAYER
 70
     0
  3

 72
    65
 73
     0
 40
0.0
  0
LTYPE
  5
7479
330
746A
100
AcDbSymbolTableRecord
100
AcDbLinetypeTableRecord
  2
CONTINUOUS
 70
     0
  3
Solid line
 72
    65
 73
     0
 40
0.0
  0
LTYPE
  5
7816
330
746A
100
AcDbSymbolTableRecord
100
AcDbLinetypeTableRecord
  2
CENTER
 70
     0
  3
____ _ ____ _ ____ _ ____ _ ____ _ ____ _ ____ 
 72
    65
 73
     4
 40
2.0
 49
1.25
 74
     0
 49
-0.25
 74
     0
 49
0.25
 74
     0
 49
-0.25
 74
     0
  0
LTYPE
  5
781A
330
746A
100
AcDbSymbolTableRecord
100
AcDbLinetypeTableRecord
  2
HIDDEN
 70
     0
  3
__ __ __ __ __ __ __ __ __ __ __ __ __ __ __ __
 72
    65
 73
     2
 40
0.375
 49
0.25
 74
     0
 49
-0.125
 74
     0
  0
LTYPE
  5
781B
330
746A
100
AcDbSymbolTableRecord
100
AcDbLinetypeTableRecord
  2
PHANTOM
 70
     0
  3
______  __  __  ______  __  __  ______  __  __ 
 72
    65
 73
     6
 40
2.5
 49
1.25
 74
     0
 49
-0.25
 74
     0
 49
0.25
 74
     0
 49
-0.25
 74
     0
 49
0.25
 74
     0
 49
-0.25
 74
     0
  0
ENDTAB
  0
TABLE
  2
LAYER
  5
7467
102
{ACAD_XDICTIONARY
360
17905
102
}
330
0
100
AcDbSymbolTable
 70
    12
  0
LAYER
  5
7474
330
7467
100
AcDbSymbolTableRecord
100
AcDbLayerTableRecord
  2
0
 70
     0
 62
     7
  6
CONTINUOUS
370
    -3
390
17769
  0
LAYER
  5
DEB2
330
7467
100
AcDbSymbolTableRecord
100
AcDbLayerTableRecord
  2
センター
 70
     0
 62
     3
  6
CENTER
370
    -3
390
17769
  0
LAYER
  5
DEB3
330
7467
100
AcDbSymbolTableRecord
100
AcDbLayerTableRecord
  2
寸法
 70
     0
 62
     4
  6
CONTINUOUS
370
    -3
390
17769
  0
LAYER
  5
DEB4
330
7467
100
AcDbSymbolTableRecord
100
AcDbLayerTableRecord
  2
部品1
 70
     0
 62
     7
  6
CONTINUOUS
370
    -3
390
17769
  0
LAYER
  5
DEB5
330
7467
100
AcDbSymbolTableRecord
100
AcDbLayerTableRecord
  2
補助
 70
     0
 62
    -1
  6
CONTINUOUS
370
    -3
390
17769
  0
LAYER
  5
DEB6
330
7467
100
AcDbSymbolTableRecord
100
AcDbLayerTableRecord
  2
文字
 70
     0
 62
     7
  6
CONTINUOUS
370
    -3
390
17769
  0
LAYER
  5
F255
330
7467
100
AcDbSymbolTableRecord
100
AcDbLayerTableRecord
  2
DEFPOINTS
 70
     0
 62
     7
  6
CONTINUOUS
290
     0
370
    -3
390
17769
  0
LAYER
  5
10B54
330
7467
100
AcDbSymbolTableRecord
100
AcDbLayerTableRecord
  2
仕様書枠
 70
     0
 62
   230
  6
CONTINUOUS
370
    -3
390
17769
  0
LAYER
  5
11729
330
7467
100
AcDbSymbolTableRecord
100
AcDbLayerTableRecord
  2
Ｇ．Ｌ
 70
     0
 62
    30
  6
CONTINUOUS
370
    -3
390
17769
  0
LAYER
  5
1173F
330
7467
100
AcDbSymbolTableRecord
100
AcDbLayerTableRecord
  2
細線
 70
     0
 62
     5
  6
CONTINUOUS
370
    -3
390
17769
  0
LAYER
  5
12CC4
330
7467
100
AcDbSymbolTableRecord
100
AcDbLayerTableRecord
  2
想像線
 70
     0
 62
     6
  6
PHANTOM
370
    -3
390
17769
  0
LAYER
  5
142E2
330
7467
100
AcDbSymbolTableRecord
100
AcDbLayerTableRecord
  2
破線
 70
     0
 62
     2
  6
HIDDEN
370
    -3
390
17769
  0
ENDTAB
  0
TABLE
  2
STYLE
  5
7468
330
0
100
AcDbSymbolTable
 70
     4
  0
STYLE
  5
7475
330
7468
100
AcDbSymbolTableRecord
100
AcDbTextStyleTableRecord
  2
STANDARD
 70
     0
 40
0.0
 41
1.0
 50
0.0
 71
     0
 42
4.0
  3
txt
  4
C:\AutoCAD LT\bigfont.shx
  0
STYLE
  5
F706
330
7468
100
AcDbSymbolTableRecord
100
AcDbTextStyleTableRecord
  2
STYLE1
 70
     0
 40
0.0
 41
1.0
 50
0.0
 71
     0
 42
4.0
  3
isocp.shx
  4
bigfont.shx
  0
STYLE
  5
103BF
330
7468
100
AcDbSymbolTableRecord
100
AcDbTextStyleTableRecord
  2
STYLE2
 70
     0
 40
0.0
 41
1.0
 50
0.0
 71
     0
 42
100.0
  3
MS PGothic.ttf
  4

1001
ACAD
1000
MS PGothic
1071
    32818
  0
STYLE
  5
1838E
330
7468
100
AcDbSymbolTableRecord
100
AcDbTextStyleTableRecord
  2
STYLE3
 70
     0
 40
0.0
 41
1.0
 50
0.0
 71
     0
 42
100.0
  3

  4

1001
ACAD
1000
DFPGothic-EB
1071
    32818
  0
ENDTAB
  0
TABLE
  2
VIEW
  5
746B
330
0
100
AcDbSymbolTable
 70
     0
  0
ENDTAB
  0
TABLE
  2
UCS
  5
746C
330
0
100
AcDbSymbolTable
 70
     0
  0
ENDTAB
  0
TABLE
  2
APPID
  5
746E
330
0
100
AcDbSymbolTable
 70
     6
  0
APPID
  5
7476
330
746E
100
AcDbSymbolTableRecord
100
AcDbRegAppTableRecord
  2
ACAD
 70
     0
  0
APPID
  5
DEA9
330
746E
100
AcDbSymbolTableRecord
100
AcDbRegAppTableRecord
  2
CONTENTBLOCKICON
 70
     0
  0
APPID
  5
DEAA
330
746E
100
AcDbSymbolTableRecord
100
AcDbRegAppTableRecord
  2
CONTENTBLOCKDESCRIPTION
 70
     0
  0
APPID
  5
E71D
330
746E
100
AcDbSymbolTableRecord
100
AcDbRegAppTableRecord
  2
CONTENTTABDATA
 70
     0
  0
APPID
  5
E71E
330
746E
100
AcDbSymbolTableRecord
100
AcDbRegAppTableRecord
  2
CONTENTCURRENTTAB
 70
     0
  0
APPID
  5
F3BA
330
746E
100
AcDbSymbolTableRecord
100
AcDbRegAppTableRecord
  2
DRAWINGVARIABLESXDATA
 70
     0
  0
ENDTAB
  0
TABLE
  2
DIMSTYLE
  5
746F
330
0
100
AcDbSymbolTable
 70
     5
100
AcDbDimStyleTable
 71
     0
  0
DIMSTYLE
105
7484
330
746F
100
AcDbSymbolTableRecord
100
AcDbDimStyleTableRecord
  2
JIS
 70
     0
 41
2.5
 42
1.0
 43
7.0
 44
1.0
 73
     0
 74
     0
 77
     1
 78
     8
140
2.5
141
0.0
143
0.0394
147
0.0
172
     1
174
     1
175
     1
340
7475
  0
DIMSTYLE
105
F71F
102
{ACAD_REACTORS
330
17C5E
330
17C62
330
17C6E
330
17C6F
330
17C70
330
17CAB
330
17CB6
330
17CB7
330
17CB8
330
17CB9
330
17CD7
330
17CD8
330
17CD9
330
17CDA
330
17CDB
330
17CDC
330
17CE8
330
17D07
330
17D08
330
17D09
330
17D0A
330
17D0E
330
17D45
330
17D46
330
17D4A
330
17D55
330
17D56
330
17E65
330
1894F
330
18956
102
}
330
746F
100
AcDbSymbolTableRecord
100
AcDbDimStyleTableRecord
  2
INABA_S40G
 70
     0
 40
40.0
 41
2.5
 42
0.5
 43
7.0
 44
1.5
 73
     0
 74
     0
 77
     3
 78
     8
140
3.0
141
0.0
143
0.0394
147
1.0
172
     1
173
     1
174
     1
178
     7
271
     1
340
F706
341
F770
343
F770
344
F770
  0
DIMSTYLE
105
17904
102
{ACAD_REACTORS
330
186B3
330
18955
102
}
330
746F
100
AcDbSymbolTableRecord
100
AcDbDimStyleTableRecord
  2
INABA_S40
 70
     0
 40
40.0
 41
2.5
 42
0.5
 43
7.0
 44
1.5
 73
     0
 74
     0
 77
     3
 78
     8
140
3.0
141
0.0
143
0.0394
147
1.0
172
     1
173
     1
174
     1
175
     1
178
     7
340
7475
  0
DIMSTYLE
105
1838F
330
746F
100
AcDbSymbolTableRecord
100
AcDbDimStyleTableRecord
  2
INABA_S50G
 70
     0
 41
125.0
 42
25.0
 43
7.0
 44
75.0
 73
     0
 74
     0
 77
     3
 78
     8
140
150.0
141
0.0
143
0.0394
147
25.0
172
     1
173
     1
174
     1
175
     1
178
     7
271
     1
340
F706
341
F770
343
F770
344
F770
  0
DIMSTYLE
105
18CA7
330
746F
100
AcDbSymbolTableRecord
100
AcDbDimStyleTableRecord
  2
INABA_S20G
 70
     0
 40
20.0
 41
2.5
 42
0.5
 43
7.0
 44
1.5
 73
     0
 74
     0
 77
     3
 78
     8
140
3.0
141
0.0
143
0.0394
147
1.0
172
     1
173
     1
174
     1
178
     7
271
     1
340
F706
341
F770
343
F770
344
F770
  0
ENDTAB
  0
TABLE
  2
BLOCK_RECORD
  5
7466
330
0
100
AcDbSymbolTable
 70
    34
  0
BLOCK_RECORD
  5
747D
330
7466
100
AcDbSymbolTableRecord
100
AcDbBlockTableRecord
  2
*MODEL_SPACE
340
1776E
  0
BLOCK_RECORD
  5
747A
330
7466
100
AcDbSymbolTableRecord
100
AcDbBlockTableRecord
  2
*PAPER_SPACE
340
1776F
  0
BLOCK_RECORD
  5
F770
330
7466
100
AcDbSymbolTableRecord
100
AcDbBlockTableRecord
  2
_DOTSMALL
340
0
102
{BLKREFS
331
18451
331
18452
331
184D9
331
184DA
331
184E2
331
184E3
331
184EC
331
184ED
331
184F5
331
184F6
331
184FE
331
184FF
331
18509
331
1850A
331
18513
331
18514
331
1851D
331
1851E
331
18526
331
18527
331
1852F
331
18530
331
1853A
331
1853B
331
18545
331
18546
331
1854E
331
1854F
331
18559
331
1855A
331
18562
331
18563
331
1856B
331
1856C
331
18574
331
18575
331
18BBC
331
18BBD
331
18BD0
331
18BD1
331
18BE4
331
18BE5
331
18BED
331
18BEE
331
18BF8
331
18BF9
331
18C01
331
18C02
331
18C0A
331
18C0B
331
18C13
331
18C14
331
18C1C
331
18C1D
331
18C27
331
18C28
331
18C30
331
18C31
331
18C3B
331
18C3C
102
}
  0
BLOCK_RECORD
  5
17776
330
7466
100
AcDbSymbolTableRecord
100
AcDbBlockTableRecord
  2
_DOT
340
0
102
{BLKREFS
331
18BC7
331
18BC8
331
18BD9
331
18BDA
102
}
  0
BLOCK_RECORD
  5
17E75
330
7466
100
AcDbSymbolTableRecord
100
AcDbBlockTableRecord
  2
*D2
340
0
  0
BLOCK_RECORD
  5
17E81
330
7466
100
AcDbSymbolTableRecord
100
AcDbBlockTableRecord
  2
*D3
340
0
  0
BLOCK_RECORD
  5
17E8D
330
7466
100
AcDbSymbolTableRecord
100
AcDbBlockTableRecord
  2
*D4
340
0
  0
BLOCK_RECORD
  5
17E99
330
7466
100
AcDbSymbolTableRecord
100
AcDbBlockTableRecord
  2
*D5
340
0
  0
BLOCK_RECORD
  5
17EA7
330
7466
100
AcDbSymbolTableRecord
100
AcDbBlockTableRecord
  2
*D6
340
0
  0
BLOCK_RECORD
  5
17EB3
330
7466
100
AcDbSymbolTableRecord
100
AcDbBlockTableRecord
  2
*D7
340
0
  0
BLOCK_RECORD
  5
17EC1
330
7466
100
AcDbSymbolTableRecord
100
AcDbBlockTableRecord
  2
*D8
340
0
  0
BLOCK_RECORD
  5
17ECF
330
7466
100
AcDbSymbolTableRecord
100
AcDbBlockTableRecord
  2
*D9
340
0
  0
BLOCK_RECORD
  5
17EDB
330
7466
100
AcDbSymbolTableRecord
100
AcDbBlockTableRecord
  2
*D10
340
0
  0
BLOCK_RECORD
  5
17EE7
330
7466
100
AcDbSymbolTableRecord
100
AcDbBlockTableRecord
  2
*D11
340
0
  0
BLOCK_RECORD
  5
17EF4
330
7466
100
AcDbSymbolTableRecord
100
AcDbBlockTableRecord
  2
*D12
340
0
  0
BLOCK_RECORD
  5
17F01
330
7466
100
AcDbSymbolTableRecord
100
AcDbBlockTableRecord
  2
*D13
340
0
  0
BLOCK_RECORD
  5
17F0F
330
7466
100
AcDbSymbolTableRecord
100
AcDbBlockTableRecord
  2
*D14
340
0
  0
BLOCK_RECORD
  5
17F1B
330
7466
100
AcDbSymbolTableRecord
100
AcDbBlockTableRecord
  2
*D15
340
0
  0
BLOCK_RECORD
  5
17F27
330
7466
100
AcDbSymbolTableRecord
100
AcDbBlockTableRecord
  2
*D16
340
0
  0
BLOCK_RECORD
  5
17F34
330
7466
100
AcDbSymbolTableRecord
100
AcDbBlockTableRecord
  2
*D17
340
0
  0
BLOCK_RECORD
  5
17F40
330
7466
100
AcDbSymbolTableRecord
100
AcDbBlockTableRecord
  2
*D18
340
0
  0
BLOCK_RECORD
  5
17F4C
330
7466
100
AcDbSymbolTableRecord
100
AcDbBlockTableRecord
  2
*D19
340
0
  0
BLOCK_RECORD
  5
17F5A
330
7466
100
AcDbSymbolTableRecord
100
AcDbBlockTableRecord
  2
*D20
340
0
  0
BLOCK_RECORD
  5
17F66
330
7466
100
AcDbSymbolTableRecord
100
AcDbBlockTableRecord
  2
*D21
340
0
  0
BLOCK_RECORD
  5
17F74
330
7466
100
AcDbSymbolTableRecord
100
AcDbBlockTableRecord
  2
*D22
340
0
  0
BLOCK_RECORD
  5
17F8C
330
7466
100
AcDbSymbolTableRecord
100
AcDbBlockTableRecord
  2
*D23
340
0
  0
BLOCK_RECORD
  5
17F98
330
7466
100
AcDbSymbolTableRecord
100
AcDbBlockTableRecord
  2
*D24
340
0
  0
BLOCK_RECORD
  5
17FA4
330
7466
100
AcDbSymbolTableRecord
100
AcDbBlockTableRecord
  2
*D25
340
0
  0
BLOCK_RECORD
  5
17FB0
330
7466
100
AcDbSymbolTableRecord
100
AcDbBlockTableRecord
  2
*D26
340
0
  0
BLOCK_RECORD
  5
17FBE
330
7466
100
AcDbSymbolTableRecord
100
AcDbBlockTableRecord
  2
*D27
340
0
  0
BLOCK_RECORD
  5
17FCA
330
7466
100
AcDbSymbolTableRecord
100
AcDbBlockTableRecord
  2
*D28
340
0
  0
BLOCK_RECORD
  5
17FF2
330
7466
100
AcDbSymbolTableRecord
100
AcDbBlockTableRecord
  2
*D29
340
0
  0
BLOCK_RECORD
  5
1871E
330
7466
100
AcDbSymbolTableRecord
100
AcDbBlockTableRecord
  2
*D30
340
0
  0
BLOCK_RECORD
  5
18A62
330
7466
100
AcDbSymbolTableRecord
100
AcDbBlockTableRecord
  2
*D31
340
0
  0
BLOCK_RECORD
  5
18A6E
330
7466
100
AcDbSymbolTableRecord
100
AcDbBlockTableRecord
  2
*D32
340
0
  0
BLOCK_RECORD
  5
18A7C
330
7466
100
AcDbSymbolTableRecord
100
AcDbBlockTableRecord
  2
*D33
340
0
  0
ENDTAB
  0
ENDSEC
  0
SECTION
  2
BLOCKS
  0
BLOCK
  5
7489
330
747D
100
AcDbEntity
  8
0
100
AcDbBlockBegin
  2
*MODEL_SPACE
 70
     0
 10
0.0
 20
0.0
 30
0.0
  3
*MODEL_SPACE
  1

  0
ENDBLK
  5
748A
330
747D
100
AcDbEntity
  8
0
100
AcDbBlockEnd
  0
BLOCK
  5
7487
330
747A
100
AcDbEntity
 67
     1
  8
0
100
AcDbBlockBegin
  2
*PAPER_SPACE
 70
     0
 10
0.0
 20
0.0
 30
0.0
  3
*PAPER_SPACE
  1

  0
ENDBLK
  5
7488
330
747A
100
AcDbEntity
 67
     1
  8
0
100
AcDbBlockEnd
  0
BLOCK
  5
F771
330
F770
100
AcDbEntity
  8
0
 48
50.0
100
AcDbBlockBegin
  2
_DOTSMALL
 70
     0
 10
0.0
 20
0.0
 30
0.0
  3
_DOTSMALL
  1

  0
LWPOLYLINE
  5
F772
330
F770
100
AcDbEntity
  8
0
  6
ByBlock
 62
     0
 48
50.0
100
AcDbPolyline
 90
        2
 70
     1
 43
0.5
 10
-0.0625
 20
0.0
 42
1.0
 10
0.0625
 20
0.0
 42
1.0
  0
ENDBLK
  5
F776
330
F770
100
AcDbEntity
  8
0
 48
50.0
100
AcDbBlockEnd
  0
BLOCK
  5
17777
330
17776
100
AcDbEntity
  8
0
 48
50.0
100
AcDbBlockBegin
  2
_DOT
 70
     0
 10
0.0
 20
0.0
 30
0.0
  3
_DOT
  1

  0
LWPOLYLINE
  5
17778
330
17776
100
AcDbEntity
  8
0
  6
ByBlock
 62
     0
 48
50.0
100
AcDbPolyline
 90
        2
 70
     1
 43
0.5
 10
-0.25
 20
0.0
 42
1.0
 10
0.25
 20
0.0
 42
1.0
  0
LINE
  5
17779
330
17776
100
AcDbEntity
  8
0
  6
ByBlock
 62
     0
 48
50.0
100
AcDbLine
 10
-0.5
 20
0.0
 30
0.0
 11
-1.0
 21
0.0
 31
0.0
  0
ENDBLK
  5
1777A
330
17776
100
AcDbEntity
  8
0
 48
50.0
100
AcDbBlockEnd
  0
BLOCK
  5
17E7F
330
17E75
100
AcDbEntity
  8
0
 48
50.0
100
AcDbBlockBegin
  2
*D2
 70
     1
 10
0.0
 20
0.0
 30
0.0
  3
*D2
  1

  0
LINE
  5
18571
330
17E75
100
AcDbEntity
  8
寸法
 62
     0
 48
50.0
370
    -2
100
AcDbLine
 10
4207.018213407755
 20
2036.775961235218
 30
0.0
 11
4017.518210161117
 21
2036.775961235218
 31
0.0
  0
LINE
  5
18572
330
17E75
100
AcDbEntity
  8
寸法
 62
     0
 48
50.0
370
    -2
100
AcDbLine
 10
4182.018213407751
 20
2236.775961235217
 30
0.0
 11
4017.518210161117
 21
2236.775961235217
 31
0.0
  0
LINE
  5
18573
330
17E75
100
AcDbEntity
  8
寸法
 62
     0
 48
50.0
370
    -2
100
AcDbLine
 10
4077.518210161118
 20
2036.775961235218
 30
0.0
 11
4077.518210161118
 21
2236.775961235217
 31
0.0
  0
INSERT
  5
18574
330
17E75
100
AcDbEntity
  8
寸法
 62
     0
 48
50.0
370
    -2
100
AcDbBlockReference
  2
_DOTSMALL
 10
4077.518210161118
 20
2036.775961235218
 30
0.0
 41
100.0
 42
100.0
 43
100.0
 50
270.0
  0
INSERT
  5
18575
330
17E75
100
AcDbEntity
  8
寸法
 62
     0
 48
50.0
370
    -2
100
AcDbBlockReference
  2
_DOTSMALL
 10
4077.518210161118
 20
2236.775961235217
 30
0.0
 41
100.0
 42
100.0
 43
100.0
 50
90.0
  0
MTEXT
  5
18576
330
17E75
100
AcDbEntity
  8
寸法
 62
     7
 48
50.0
100
AcDbMText
 10
3977.506399137495
 20
2136.775961235218
 30
0.0
 40
120.0
 41
0.0
 71
     5
 72
     1
  1
\A1;200
  7
STYLE1
 11
0.0000000000000001
 21
1.0
 31
0.0
 73
     1
 44
1.0
1001
ACAD
1000
MTEXTBEGIN
1070
    73
1070
     1
1070
    44
1040
1.0
1070
    74
1070
     0
1000
MTEXTEND
  0
POINT
  5
18577
330
17E75
100
AcDbEntity
  8
DEFPOINTS
 62
     0
 48
50.0
100
AcDbPoint
 10
4227.018213407755
 20
2036.775961235218
 30
0.0
  0
POINT
  5
18578
330
17E75
100
AcDbEntity
  8
DEFPOINTS
 62
     0
 48
50.0
100
AcDbPoint
 10
4202.018213407751
 20
2236.775961235217
 30
0.0
  0
POINT
  5
18579
330
17E75
100
AcDbEntity
  8
DEFPOINTS
 62
     0
 48
50.0
100
AcDbPoint
 10
4077.518210161118
 20
2236.775961235217
 30
0.0
  0
ENDBLK
  5
17E80
330
17E75
100
AcDbEntity
  8
0
 48
50.0
100
AcDbBlockEnd
  0
BLOCK
  5
17E8B
330
17E81
100
AcDbEntity
  8
0
 48
50.0
100
AcDbBlockBegin
  2
*D3
 70
     1
 10
0.0
 20
0.0
 30
0.0
  3
*D3
  1

  0
LINE
  5
18568
330
17E81
100
AcDbEntity
  8
寸法
 62
     0
 48
50.0
370
    -2
100
AcDbLine
 10
4427.018213407751
 20
2016.775961235216
 30
0.0
 11
4427.018213407751
 21
1690.728631934839
 31
0.0
  0
LINE
  5
18569
330
17E81
100
AcDbEntity
  8
寸法
 62
     0
 48
50.0
370
    -2
100
AcDbLine
 10
4227.018213407755
 20
2016.775961235218
 30
0.0
 11
4227.018213407755
 21
1690.728631934839
 31
0.0
  0
LINE
  5
1856A
330
17E81
100
AcDbEntity
  8
寸法
 62
     0
 48
50.0
370
    -2
100
AcDbLine
 10
4427.018213407751
 20
1750.728631934839
 30
0.0
 11
4227.018213407755
 21
1750.728631934839
 31
0.0
  0
INSERT
  5
1856B
330
17E81
100
AcDbEntity
  8
寸法
 62
     0
 48
50.0
370
    -2
100
AcDbBlockReference
  2
_DOTSMALL
 10
4427.018213407751
 20
1750.728631934839
 30
0.0
 41
100.0
 42
100.0
 43
100.0
  0
INSERT
  5
1856C
330
17E81
100
AcDbEntity
  8
寸法
 62
     0
 48
50.0
370
    -2
100
AcDbBlockReference
  2
_DOTSMALL
 10
4227.018213407755
 20
1750.728631934839
 30
0.0
 41
100.0
 42
100.0
 43
100.0
 50
180.0
  0
MTEXT
  5
1856D
330
17E81
100
AcDbEntity
  8
寸法
 62
     7
 48
50.0
100
AcDbMText
 10
4327.018213407753
 20
1850.740442958462
 30
0.0
 40
120.0
 41
0.0
 71
     5
 72
     1
  1
\A1;200
  7
STYLE1
 73
     1
 44
1.0
1001
ACAD
1000
MTEXTBEGIN
1070
    73
1070
     1
1070
    44
1040
1.0
1070
    74
1070
     0
1000
MTEXTEND
  0
POINT
  5
1856E
330
17E81
100
AcDbEntity
  8
DEFPOINTS
 62
     0
 48
50.0
100
AcDbPoint
 10
4427.018213407751
 20
2036.775961235216
 30
0.0
  0
POINT
  5
1856F
330
17E81
100
AcDbEntity
  8
DEFPOINTS
 62
     0
 48
50.0
100
AcDbPoint
 10
4227.018213407755
 20
2036.775961235218
 30
0.0
  0
POINT
  5
18570
330
17E81
100
AcDbEntity
  8
DEFPOINTS
 62
     0
 48
50.0
100
AcDbPoint
 10
4227.018213407755
 20
1750.728631934839
 30
0.0
  0
ENDBLK
  5
17E8C
330
17E81
100
AcDbEntity
  8
0
 48
50.0
100
AcDbBlockEnd
  0
BLOCK
  5
17E97
330
17E8D
100
AcDbEntity
  8
0
 48
50.0
100
AcDbBlockBegin
  2
*D4
 70
     1
 10
0.0
 20
0.0
 30
0.0
  3
*D4
  1

  0
LINE
  5
1855F
330
17E8D
100
AcDbEntity
  8
寸法
 62
     0
 48
50.0
370
    -2
100
AcDbLine
 10
4249.518213407752
 20
4731.775961235222
 30
0.0
 11
4249.518213407752
 21
5385.99009508394
 31
0.0
  0
LINE
  5
18560
330
17E8D
100
AcDbEntity
  8
寸法
 62
     0
 48
50.0
370
    -2
100
AcDbLine
 10
6559.518213407755
 20
4731.775961235219
 30
0.0
 11
6559.518213407755
 21
5385.99009508394
 31
0.0
  0
LINE
  5
18561
330
17E8D
100
AcDbEntity
  8
寸法
 62
     0
 48
50.0
370
    -2
100
AcDbLine
 10
4249.518213407752
 20
5325.990095083939
 30
0.0
 11
6559.518213407755
 21
5325.990095083939
 31
0.0
  0
INSERT
  5
18562
330
17E8D
100
AcDbEntity
  8
寸法
 62
     0
 48
50.0
370
    -2
100
AcDbBlockReference
  2
_DOTSMALL
 10
4249.518213407752
 20
5325.990095083939
 30
0.0
 41
100.0
 42
100.0
 43
100.0
 50
180.0
  0
INSERT
  5
18563
330
17E8D
100
AcDbEntity
  8
寸法
 62
     0
 48
50.0
370
    -2
100
AcDbBlockReference
  2
_DOTSMALL
 10
6559.518213407755
 20
5325.990095083939
 30
0.0
 41
100.0
 42
100.0
 43
100.0
  0
MTEXT
  5
18564
330
17E8D
100
AcDbEntity
  8
寸法
 62
     7
 48
50.0
100
AcDbMText
 10
5404.518213407751
 20
5426.001906107561
 30
0.0
 40
120.0
 41
0.0
 71
     5
 72
     1
  1
\A1;2310
  7
STYLE1
 73
     1
 44
1.0
1001
ACAD
1000
MTEXTBEGIN
1070
    73
1070
     1
1070
    44
1040
1.0
1070
    74
1070
     0
1000
MTEXTEND
  0
POINT
  5
18565
330
17E8D
100
AcDbEntity
  8
DEFPOINTS
 62
     0
 48
50.0
100
AcDbPoint
 10
4249.518213407752
 20
4711.775961235223
 30
0.0
  0
POINT
  5
18566
330
17E8D
100
AcDbEntity
  8
DEFPOINTS
 62
     0
 48
50.0
100
AcDbPoint
 10
6559.518213407755
 20
4711.775961235219
 30
0.0
  0
POINT
  5
18567
330
17E8D
100
AcDbEntity
  8
DEFPOINTS
 62
     0
 48
50.0
100
AcDbPoint
 10
6559.518213407755
 20
5325.990095083939
 30
0.0
  0
ENDBLK
  5
17E98
330
17E8D
100
AcDbEntity
  8
0
 48
50.0
100
AcDbBlockEnd
  0
BLOCK
  5
17EA5
330
17E99
100
AcDbEntity
  8
0
 48
50.0
100
AcDbBlockBegin
  2
*D5
 70
     1
 10
0.0
 20
0.0
 30
0.0
  3
*D5
  1

  0
LINE
  5
18554
330
17E99
100
AcDbEntity
  8
寸法
 62
     0
 48
50.0
370
    -2
100
AcDbLine
 10
4299.518213407751
 20
4731.775961235222
 30
0.0
 11
4299.518213407751
 21
5176.396220662488
 31
0.0
  0
LINE
  5
18555
330
17E99
100
AcDbEntity
  8
寸法
 62
     0
 48
50.0
370
    -2
100
AcDbLine
 10
4249.518213407752
 20
4731.775961235222
 30
0.0
 11
4249.518213407752
 21
5176.396220662488
 31
0.0
  0
LINE
  5
18556
330
17E99
100
AcDbEntity
  8
寸法
 62
     0
 48
50.0
370
    -2
100
AcDbLine
 10
4299.518213407751
 20
5116.396220662489
 30
0.0
 11
4399.518213407751
 21
5116.396220662489
 31
0.0
  0
LINE
  5
18557
330
17E99
100
AcDbEntity
  8
寸法
 62
     0
 48
50.0
370
    -2
100
AcDbLine
 10
4249.518213407752
 20
5116.396220662489
 30
0.0
 11
3829.985687939016
 21
5116.396220662489
 31
0.0
  0
LINE
  5
18558
330
17E99
100
AcDbEntity
  8
寸法
 62
     0
 48
50.0
370
    -2
100
AcDbLine
 10
4299.518213407751
 20
5116.396220662489
 30
0.0
 11
4249.518213407752
 21
5116.396220662489
 31
0.0
  0
INSERT
  5
18559
330
17E99
100
AcDbEntity
  8
寸法
 62
     0
 48
50.0
370
    -2
100
AcDbBlockReference
  2
_DOTSMALL
 10
4299.518213407751
 20
5116.396220662489
 30
0.0
 41
100.0
 42
100.0
 43
100.0
 50
180.0
  0
INSERT
  5
1855A
330
17E99
100
AcDbEntity
  8
寸法
 62
     0
 48
50.0
370
    -2
100
AcDbBlockReference
  2
_DOTSMALL
 10
4249.518213407752
 20
5116.396220662489
 30
0.0
 41
100.0
 42
100.0
 43
100.0
  0
MTEXT
  5
1855B
330
17E99
100
AcDbEntity
  8
寸法
 62
     7
 48
50.0
100
AcDbMText
 10
3936.032932033504
 20
5216.396220662488
 30
0.0
 40
120.0
 41
0.0
 71
     5
 72
     1
  1
\A1;50
  7
STYLE1
 73
     1
 44
1.0
1001
ACAD
1000
MTEXTBEGIN
1070
    73
1070
     1
1070
    44
1040
1.0
1070
    74
1070
     0
1000
MTEXTEND
  0
POINT
  5
1855C
330
17E99
100
AcDbEntity
  8
DEFPOINTS
 62
     0
 48
50.0
100
AcDbPoint
 10
4299.518213407751
 20
4711.775961235223
 30
0.0
  0
POINT
  5
1855D
330
17E99
100
AcDbEntity
  8
DEFPOINTS
 62
     0
 48
50.0
100
AcDbPoint
 10
4249.518213407752
 20
4711.775961235223
 30
0.0
  0
POINT
  5
1855E
330
17E99
100
AcDbEntity
  8
DEFPOINTS
 62
     0
 48
50.0
100
AcDbPoint
 10
4249.518213407752
 20
5116.396220662489
 30
0.0
  0
ENDBLK
  5
17EA6
330
17E99
100
AcDbEntity
  8
0
 48
50.0
100
AcDbBlockEnd
  0
BLOCK
  5
17EB1
330
17EA7
100
AcDbEntity
  8
0
 48
50.0
100
AcDbBlockBegin
  2
*D6
 70
     1
 10
0.0
 20
0.0
 30
0.0
  3
*D6
  1

  0
LINE
  5
1854B
330
17EA7
100
AcDbEntity
  8
寸法
 62
     0
 48
50.0
370
    -2
100
AcDbLine
 10
6509.518213407755
 20
4731.775961235222
 30
0.0
 11
6509.518213407755
 21
5176.396220662488
 31
0.0
  0
LINE
  5
1854C
330
17EA7
100
AcDbEntity
  8
寸法
 62
     0
 48
50.0
370
    -2
100
AcDbLine
 10
4299.518213407751
 20
4731.775961235222
 30
0.0
 11
4299.518213407751
 21
5176.396220662488
 31
0.0
  0
LINE
  5
1854D
330
17EA7
100
AcDbEntity
  8
寸法
 62
     0
 48
50.0
370
    -2
100
AcDbLine
 10
6509.518213407755
 20
5116.396220662489
 30
0.0
 11
4299.518213407751
 21
5116.396220662489
 31
0.0
  0
INSERT
  5
1854E
330
17EA7
100
AcDbEntity
  8
寸法
 62
     0
 48
50.0
370
    -2
100
AcDbBlockReference
  2
_DOTSMALL
 10
6509.518213407755
 20
5116.396220662489
 30
0.0
 41
100.0
 42
100.0
 43
100.0
  0
INSERT
  5
1854F
330
17EA7
100
AcDbEntity
  8
寸法
 62
     0
 48
50.0
370
    -2
100
AcDbBlockReference
  2
_DOTSMALL
 10
4299.518213407751
 20
5116.396220662489
 30
0.0
 41
100.0
 42
100.0
 43
100.0
 50
180.0
  0
MTEXT
  5
18550
330
17EA7
100
AcDbEntity
  8
寸法
 62
     7
 48
50.0
100
AcDbMText
 10
5404.518213407751
 20
5216.408031686111
 30
0.0
 40
120.0
 41
0.0
 71
     5
 72
     1
  1
\A1;柱外寸法2210
  7
STYLE1
 73
     1
 44
1.0
1001
ACAD
1000
MTEXTBEGIN
1070
    73
1070
     1
1070
    44
1040
1.0
1070
    74
1070
     0
1000
MTEXTEND
  0
POINT
  5
18551
330
17EA7
100
AcDbEntity
  8
DEFPOINTS
 62
     0
 48
50.0
100
AcDbPoint
 10
6509.518213407755
 20
4711.775961235223
 30
0.0
  0
POINT
  5
18552
330
17EA7
100
AcDbEntity
  8
DEFPOINTS
 62
     0
 48
50.0
100
AcDbPoint
 10
4299.518213407751
 20
4711.775961235223
 30
0.0
  0
POINT
  5
18553
330
17EA7
100
AcDbEntity
  8
DEFPOINTS
 62
     0
 48
50.0
100
AcDbPoint
 10
4299.518213407751
 20
5116.396220662489
 30
0.0
  0
ENDBLK
  5
17EB2
330
17EA7
100
AcDbEntity
  8
0
 48
50.0
100
AcDbBlockEnd
  0
BLOCK
  5
17EBF
330
17EB3
100
AcDbEntity
  8
0
 48
50.0
100
AcDbBlockBegin
  2
*D7
 70
     1
 10
0.0
 20
0.0
 30
0.0
  3
*D7
  1

  0
LINE
  5
18540
330
17EB3
100
AcDbEntity
  8
寸法
 62
     0
 48
50.0
370
    -2
100
AcDbLine
 10
6559.518213407755
 20
4731.775961235219
 30
0.0
 11
6559.518213407755
 21
5176.396220662488
 31
0.0
  0
LINE
  5
18541
330
17EB3
100
AcDbEntity
  8
寸法
 62
     0
 48
50.0
370
    -2
100
AcDbLine
 10
6509.518213407755
 20
4731.775961235222
 30
0.0
 11
6509.518213407755
 21
5176.396220662488
 31
0.0
  0
LINE
  5
18542
330
17EB3
100
AcDbEntity
  8
寸法
 62
     0
 48
50.0
370
    -2
100
AcDbLine
 10
6509.518213407755
 20
5116.396220662489
 30
0.0
 11
6409.518213407754
 21
5116.396220662489
 31
0.0
  0
LINE
  5
18543
330
17EB3
100
AcDbEntity
  8
寸法
 62
     0
 48
50.0
370
    -2
100
AcDbLine
 10
6559.518213407755
 20
5116.396220662489
 30
0.0
 11
6979.050738876475
 21
5116.396220662489
 31
0.0
  0
LINE
  5
18544
330
17EB3
100
AcDbEntity
  8
寸法
 62
     0
 48
50.0
370
    -2
100
AcDbLine
 10
6509.518213407755
 20
5116.396220662489
 30
0.0
 11
6559.518213407755
 21
5116.396220662489
 31
0.0
  0
INSERT
  5
18545
330
17EB3
100
AcDbEntity
  8
寸法
 62
     0
 48
50.0
370
    -2
100
AcDbBlockReference
  2
_DOTSMALL
 10
6509.518213407755
 20
5116.396220662489
 30
0.0
 41
100.0
 42
100.0
 43
100.0
  0
INSERT
  5
18546
330
17EB3
100
AcDbEntity
  8
寸法
 62
     0
 48
50.0
370
    -2
100
AcDbBlockReference
  2
_DOTSMALL
 10
6559.518213407755
 20
5116.396220662489
 30
0.0
 41
100.0
 42
100.0
 43
100.0
 50
180.0
  0
MTEXT
  5
18547
330
17EB3
100
AcDbEntity
  8
寸法
 62
     7
 48
50.0
100
AcDbMText
 10
6873.003494781987
 20
5216.396220662488
 30
0.0
 40
120.0
 41
0.0
 71
     5
 72
     1
  1
\A1;50
  7
STYLE1
 73
     1
 44
1.0
1001
ACAD
1000
MTEXTBEGIN
1070
    73
1070
     1
1070
    44
1040
1.0
1070
    74
1070
     0
1000
MTEXTEND
  0
POINT
  5
18548
330
17EB3
100
AcDbEntity
  8
DEFPOINTS
 62
     0
 48
50.0
100
AcDbPoint
 10
6559.518213407755
 20
4711.775961235219
 30
0.0
  0
POINT
  5
18549
330
17EB3
100
AcDbEntity
  8
DEFPOINTS
 62
     0
 48
50.0
100
AcDbPoint
 10
6509.518213407755
 20
4711.775961235223
 30
0.0
  0
POINT
  5
1854A
330
17EB3
100
AcDbEntity
  8
DEFPOINTS
 62
     0
 48
50.0
100
AcDbPoint
 10
6509.518213407755
 20
5116.396220662489
 30
0.0
  0
ENDBLK
  5
17EC0
330
17EB3
100
AcDbEntity
  8
0
 48
50.0
100
AcDbBlockEnd
  0
BLOCK
  5
17ECD
330
17EC1
100
AcDbEntity
  8
0
 48
50.0
100
AcDbBlockBegin
  2
*D8
 70
     1
 10
0.0
 20
0.0
 30
0.0
  3
*D8
  1

  0
LINE
  5
18535
330
17EC1
100
AcDbEntity
  8
寸法
 62
     0
 48
50.0
370
    -2
100
AcDbLine
 10
8611.615242745015
 20
4727.777579358193
 30
0.0
 11
8611.615242745015
 21
5170.433414814521
 31
0.0
  0
LINE
  5
18536
330
17EC1
100
AcDbEntity
  8
寸法
 62
     0
 48
50.0
370
    -2
100
AcDbLine
 10
8551.615242745013
 20
4731.775961235221
 30
0.0
 11
8551.615242745013
 21
5170.433414814521
 31
0.0
  0
LINE
  5
18537
330
17EC1
100
AcDbEntity
  8
寸法
 62
     0
 48
50.0
370
    -2
100
AcDbLine
 10
8611.615242745015
 20
5110.43341481452
 30
0.0
 11
8711.615242745015
 21
5110.43341481452
 31
0.0
  0
LINE
  5
18538
330
17EC1
100
AcDbEntity
  8
寸法
 62
     0
 48
50.0
370
    -2
100
AcDbLine
 10
8551.615242745013
 20
5110.43341481452
 30
0.0
 11
8132.339652193833
 21
5110.43341481452
 31
0.0
  0
LINE
  5
18539
330
17EC1
100
AcDbEntity
  8
寸法
 62
     0
 48
50.0
370
    -2
100
AcDbLine
 10
8611.615242745015
 20
5110.43341481452
 30
0.0
 11
8551.615242745013
 21
5110.43341481452
 31
0.0
  0
INSERT
  5
1853A
330
17EC1
100
AcDbEntity
  8
寸法
 62
     0
 48
50.0
370
    -2
100
AcDbBlockReference
  2
_DOTSMALL
 10
8611.615242745015
 20
5110.43341481452
 30
0.0
 41
100.0
 42
100.0
 43
100.0
 50
180.0
  0
INSERT
  5
1853B
330
17EC1
100
AcDbEntity
  8
寸法
 62
     0
 48
50.0
370
    -2
100
AcDbBlockReference
  2
_DOTSMALL
 10
8551.615242745013
 20
5110.43341481452
 30
0.0
 41
100.0
 42
100.0
 43
100.0
  0
MTEXT
  5
1853C
330
17EC1
100
AcDbEntity
  8
寸法
 62
     7
 48
50.0
100
AcDbMText
 10
8241.977447469423
 20
5210.43341481452
 30
0.0
 40
120.0
 41
0.0
 71
     5
 72
     1
  1
\A1;60
  7
STYLE1
 73
     1
 44
1.0
1001
ACAD
1000
MTEXTBEGIN
1070
    73
1070
     1
1070
    44
1040
1.0
1070
    74
1070
     0
1000
MTEXTEND
  0
POINT
  5
1853D
330
17EC1
100
AcDbEntity
  8
DEFPOINTS
 62
     0
 48
50.0
100
AcDbPoint
 10
8611.615242745015
 20
4707.777579358193
 30
0.0
  0
POINT
  5
1853E
330
17EC1
100
AcDbEntity
  8
DEFPOINTS
 62
     0
 48
50.0
100
AcDbPoint
 10
8551.615242745013
 20
4711.775961235221
 30
0.0
  0
POINT
  5
1853F
330
17EC1
100
AcDbEntity
  8
DEFPOINTS
 62
     0
 48
50.0
100
AcDbPoint
 10
8551.615242745013
 20
5110.43341481452
 30
0.0
  0
ENDBLK
  5
17ECE
330
17EC1
100
AcDbEntity
  8
0
 48
50.0
100
AcDbBlockEnd
  0
BLOCK
  5
17ED9
330
17ECF
100
AcDbEntity
  8
0
 48
50.0
100
AcDbBlockBegin
  2
*D9
 70
     1
 10
0.0
 20
0.0
 30
0.0
  3
*D9
  1

  0
LINE
  5
1852C
330
17ECF
100
AcDbEntity
  8
寸法
 62
     0
 48
50.0
370
    -2
100
AcDbLine
 10
11241.61524274501
 20
4678.586640846871
 30
0.0
 11
11241.61524274501
 21
5170.433414814522
 31
0.0
  0
LINE
  5
1852D
330
17ECF
100
AcDbEntity
  8
寸法
 62
     0
 48
50.0
370
    -2
100
AcDbLine
 10
8611.615242745015
 20
4727.777579358193
 30
0.0
 11
8611.615242745015
 21
5170.433414814522
 31
0.0
  0
LINE
  5
1852E
330
17ECF
100
AcDbEntity
  8
寸法
 62
     0
 48
50.0
370
    -2
100
AcDbLine
 10
11241.61524274501
 20
5110.433414814522
 30
0.0
 11
8611.615242745015
 21
5110.433414814522
 31
0.0
  0
INSERT
  5
1852F
330
17ECF
100
AcDbEntity
  8
寸法
 62
     0
 48
50.0
370
    -2
100
AcDbBlockReference
  2
_DOTSMALL
 10
11241.61524274501
 20
5110.433414814522
 30
0.0
 41
100.0
 42
100.0
 43
100.0
  0
INSERT
  5
18530
330
17ECF
100
AcDbEntity
  8
寸法
 62
     0
 48
50.0
370
    -2
100
AcDbBlockReference
  2
_DOTSMALL
 10
8611.615242745015
 20
5110.433414814522
 30
0.0
 41
100.0
 42
100.0
 43
100.0
 50
180.0
  0
MTEXT
  5
18531
330
17ECF
100
AcDbEntity
  8
寸法
 62
     7
 48
50.0
100
AcDbMText
 10
9966.38543377421
 20
5210.445225838143
 30
0.0
 40
120.0
 41
0.0
 71
     5
 72
     1
  1
\A1;柱外寸法2630
  7
STYLE1
 73
     1
 44
1.0
1001
ACAD
1000
MTEXTBEGIN
1070
    73
1070
     1
1070
    44
1040
1.0
1070
    74
1070
     0
1000
MTEXTEND
  0
POINT
  5
18532
330
17ECF
100
AcDbEntity
  8
DEFPOINTS
 62
     0
 48
50.0
100
AcDbPoint
 10
11241.61524274501
 20
4658.586640846871
 30
0.0
  0
POINT
  5
18533
330
17ECF
100
AcDbEntity
  8
DEFPOINTS
 62
     0
 48
50.0
100
AcDbPoint
 10
8611.615242745015
 20
4707.777579358193
 30
0.0
  0
POINT
  5
18534
330
17ECF
100
AcDbEntity
  8
DEFPOINTS
 62
     0
 48
50.0
100
AcDbPoint
 10
8611.615242745015
 20
5110.433414814522
 30
0.0
  0
ENDBLK
  5
17EDA
330
17ECF
100
AcDbEntity
  8
0
 48
50.0
100
AcDbBlockEnd
  0
BLOCK
  5
17EE5
330
17EDB
100
AcDbEntity
  8
0
 48
50.0
100
AcDbBlockBegin
  2
*D10
 70
     1
 10
0.0
 20
0.0
 30
0.0
  3
*D10
  1

  0
LINE
  5
18523
330
17EDB
100
AcDbEntity
  8
寸法
 62
     0
 48
50.0
370
    -2
100
AcDbLine
 10
11321.61524274501
 20
4676.775961235218
 30
0.0
 11
11321.61524274501
 21
5390.644101546139
 31
0.0
  0
LINE
  5
18524
330
17EDB
100
AcDbEntity
  8
寸法
 62
     0
 48
50.0
370
    -2
100
AcDbLine
 10
8551.615242745013
 20
4731.775961235221
 30
0.0
 11
8551.615242745013
 21
5390.644101546139
 31
0.0
  0
LINE
  5
18525
330
17EDB
100
AcDbEntity
  8
寸法
 62
     0
 48
50.0
370
    -2
100
AcDbLine
 10
11321.61524274501
 20
5330.644101546138
 30
0.0
 11
8551.615242745013
 21
5330.644101546138
 31
0.0
  0
INSERT
  5
18526
330
17EDB
100
AcDbEntity
  8
寸法
 62
     0
 48
50.0
370
    -2
100
AcDbBlockReference
  2
_DOTSMALL
 10
11321.61524274501
 20
5330.644101546138
 30
0.0
 41
100.0
 42
100.0
 43
100.0
  0
INSERT
  5
18527
330
17EDB
100
AcDbEntity
  8
寸法
 62
     0
 48
50.0
370
    -2
100
AcDbBlockReference
  2
_DOTSMALL
 10
8551.615242745013
 20
5330.644101546138
 30
0.0
 41
100.0
 42
100.0
 43
100.0
 50
180.0
  0
MTEXT
  5
18528
330
17EDB
100
AcDbEntity
  8
寸法
 62
     7
 48
50.0
100
AcDbMText
 10
9954.974167632391
 20
5430.65591256976
 30
0.0
 40
120.0
 41
0.0
 71
     5
 72
     1
  1
\A1;2770
  7
STYLE1
 73
     1
 44
1.0
1001
ACAD
1000
MTEXTBEGIN
1070
    73
1070
     1
1070
    44
1040
1.0
1070
    74
1070
     0
1000
MTEXTEND
  0
POINT
  5
18529
330
17EDB
100
AcDbEntity
  8
DEFPOINTS
 62
     0
 48
50.0
100
AcDbPoint
 10
11321.61524274501
 20
4656.775961235218
 30
0.0
  0
POINT
  5
1852A
330
17EDB
100
AcDbEntity
  8
DEFPOINTS
 62
     0
 48
50.0
100
AcDbPoint
 10
8551.615242745013
 20
4711.775961235221
 30
0.0
  0
POINT
  5
1852B
330
17EDB
100
AcDbEntity
  8
DEFPOINTS
 62
     0
 48
50.0
100
AcDbPoint
 10
8551.615242745013
 20
5330.644101546138
 30
0.0
  0
ENDBLK
  5
17EE6
330
17EDB
100
AcDbEntity
  8
0
 48
50.0
100
AcDbBlockEnd
  0
BLOCK
  5
17EF2
330
17EE7
100
AcDbEntity
  8
0
 48
50.0
100
AcDbBlockBegin
  2
*D11
 70
     1
 10
0.0
 20
0.0
 30
0.0
  3
*D11
  1

  0
LINE
  5
18519
330
17EE7
100
AcDbEntity
  8
寸法
 62
     0
 48
50.0
370
    -2
100
AcDbLine
 10
11241.61524274501
 20
4678.586640846871
 30
0.0
 11
11241.61524274501
 21
5170.433414814522
 31
0.0
  0
LINE
  5
1851A
330
17EE7
100
AcDbEntity
  8
寸法
 62
     0
 48
50.0
370
    -2
100
AcDbLine
 10
11321.61524274501
 20
4676.775961235218
 30
0.0
 11
11321.61524274501
 21
5170.433414814522
 31
0.0
  0
LINE
  5
1851B
330
17EE7
100
AcDbEntity
  8
寸法
 62
     0
 48
50.0
370
    -2
100
AcDbLine
 10
11241.61524274501
 20
5110.433414814522
 30
0.0
 11
11321.61524274501
 21
5110.433414814522
 31
0.0
  0
LINE
  5
1851C
330
17EE7
100
AcDbEntity
  8
寸法
 62
     0
 48
50.0
370
    -2
100
AcDbLine
 10
11321.61524274501
 20
5110.433414814522
 30
0.0
 11
11633.70973093399
 21
5110.433414814522
 31
0.0
  0
INSERT
  5
1851D
330
17EE7
100
AcDbEntity
  8
寸法
 62
     0
 48
50.0
370
    -2
100
AcDbBlockReference
  2
_DOTSMALL
 10
11241.61524274501
 20
5110.433414814522
 30
0.0
 41
100.0
 42
100.0
 43
100.0
 50
180.0
  0
INSERT
  5
1851E
330
17EE7
100
AcDbEntity
  8
寸法
 62
     0
 48
50.0
370
    -2
100
AcDbBlockReference
  2
_DOTSMALL
 10
11321.61524274501
 20
5110.433414814522
 30
0.0
 41
100.0
 42
100.0
 43
100.0
  0
MTEXT
  5
1851F
330
17EE7
100
AcDbEntity
  8
寸法
 62
     7
 48
50.0
100
AcDbMText
 10
11527.6624868395
 20
5210.433414814522
 30
0.0
 40
120.0
 41
0.0
 71
     5
 72
     1
  1
\A1;80
  7
STYLE1
 73
     1
 44
1.0
1001
ACAD
1000
MTEXTBEGIN
1070
    73
1070
     1
1070
    44
1040
1.0
1070
    74
1070
     0
1000
MTEXTEND
  0
POINT
  5
18520
330
17EE7
100
AcDbEntity
  8
DEFPOINTS
 62
     0
 48
50.0
100
AcDbPoint
 10
11241.61524274501
 20
4658.586640846871
 30
0.0
  0
POINT
  5
18521
330
17EE7
100
AcDbEntity
  8
DEFPOINTS
 62
     0
 48
50.0
100
AcDbPoint
 10
11321.61524274501
 20
4656.775961235218
 30
0.0
  0
POINT
  5
18522
330
17EE7
100
AcDbEntity
  8
DEFPOINTS
 62
     0
 48
50.0
100
AcDbPoint
 10
11321.61524274501
 20
5110.433414814522
 30
0.0
  0
ENDBLK
  5
17EF3
330
17EE7
100
AcDbEntity
  8
0
 48
50.0
100
AcDbBlockEnd
  0
BLOCK
  5
17EFF
330
17EF4
100
AcDbEntity
  8
0
 48
50.0
100
AcDbBlockBegin
  2
*D12
 70
     1
 10
0.0
 20
0.0
 30
0.0
  3
*D12
  1

  0
LINE
  5
1850F
330
17EF4
100
AcDbEntity
  8
寸法
 62
     0
 48
50.0
370
    -2
100
AcDbLine
 10
8536.615242745011
 20
2336.775961235217
 30
0.0
 11
7642.975860815653
 21
2336.775961235217
 31
0.0
  0
LINE
  5
18510
330
17EF4
100
AcDbEntity
  8
寸法
 62
     0
 48
50.0
370
    -2
100
AcDbLine
 10
7967.962533586713
 20
2236.775961235217
 30
0.0
 11
7642.975860815653
 21
2236.775961235217
 31
0.0
  0
LINE
  5
18511
330
17EF4
100
AcDbEntity
  8
寸法
 62
     0
 48
50.0
370
    -2
100
AcDbLine
 10
7702.975860815652
 20
2336.775961235217
 30
0.0
 11
7702.975860815652
 21
2236.775961235217
 31
0.0
  0
LINE
  5
18512
330
17EF4
100
AcDbEntity
  8
寸法
 62
     0
 48
50.0
370
    -2
100
AcDbLine
 10
7702.975860815652
 20
2236.775961235217
 30
0.0
 11
7702.975860815651
 21
1864.681473046235
 31
0.0
  0
INSERT
  5
18513
330
17EF4
100
AcDbEntity
  8
寸法
 62
     0
 48
50.0
370
    -2
100
AcDbBlockReference
  2
_DOTSMALL
 10
7702.975860815652
 20
2336.775961235217
 30
0.0
 41
100.0
 42
100.0
 43
100.0
 50
90.0
  0
INSERT
  5
18514
330
17EF4
100
AcDbEntity
  8
寸法
 62
     0
 48
50.0
370
    -2
100
AcDbBlockReference
  2
_DOTSMALL
 10
7702.975860815652
 20
2236.775961235217
 30
0.0
 41
100.0
 42
100.0
 43
100.0
 50
270.0
  0
MTEXT
  5
18515
330
17EF4
100
AcDbEntity
  8
寸法
 62
     7
 48
50.0
100
AcDbMText
 10
7602.975860815651
 20
2000.728717140725
 30
0.0
 40
120.0
 41
0.0
 71
     5
 72
     1
  1
\A1;100
  7
STYLE1
 11
0.0000000000000001
 21
1.0
 31
0.0
 73
     1
 44
1.0
1001
ACAD
1000
MTEXTBEGIN
1070
    73
1070
     1
1070
    44
1040
1.0
1070
    74
1070
     0
1000
MTEXTEND
  0
POINT
  5
18516
330
17EF4
100
AcDbEntity
  8
DEFPOINTS
 62
     0
 48
50.0
100
AcDbPoint
 10
8556.61524274501
 20
2336.775961235217
 30
0.0
  0
POINT
  5
18517
330
17EF4
100
AcDbEntity
  8
DEFPOINTS
 62
     0
 48
50.0
100
AcDbPoint
 10
7987.962533586713
 20
2236.775961235217
 30
0.0
  0
POINT
  5
18518
330
17EF4
100
AcDbEntity
  8
DEFPOINTS
 62
     0
 48
50.0
100
AcDbPoint
 10
7702.975860815652
 20
2236.775961235217
 30
0.0
  0
ENDBLK
  5
17F00
330
17EF4
100
AcDbEntity
  8
0
 48
50.0
100
AcDbBlockEnd
  0
BLOCK
  5
17F0D
330
17F01
100
AcDbEntity
  8
0
 48
50.0
100
AcDbBlockBegin
  2
*D13
 70
     1
 10
0.0
 20
0.0
 30
0.0
  3
*D13
  1

  0
LINE
  5
18504
330
17F01
100
AcDbEntity
  8
寸法
 62
     0
 48
50.0
370
    -2
100
AcDbLine
 10
8591.615242745012
 20
2386.775961235217
 30
0.0
 11
7927.962533586714
 21
2386.775961235217
 31
0.0
  0
LINE
  5
18505
330
17F01
100
AcDbEntity
  8
寸法
 62
     0
 48
50.0
370
    -2
100
AcDbLine
 10
8536.615242745011
 20
2336.775961235217
 30
0.0
 11
7927.962533586714
 21
2336.775961235217
 31
0.0
  0
LINE
  5
18506
330
17F01
100
AcDbEntity
  8
寸法
 62
     0
 48
50.0
370
    -2
100
AcDbLine
 10
7987.962533586714
 20
2386.775961235217
 30
0.0
 11
7987.962533586714
 21
2486.775961235217
 31
0.0
  0
LINE
  5
18507
330
17F01
100
AcDbEntity
  8
寸法
 62
     0
 48
50.0
370
    -2
100
AcDbLine
 10
7987.962533586714
 20
2336.775961235217
 30
0.0
 11
7987.962533586713
 21
1924.681473046236
 31
0.0
  0
LINE
  5
18508
330
17F01
100
AcDbEntity
  8
寸法
 62
     0
 48
50.0
370
    -2
100
AcDbLine
 10
7987.962533586714
 20
2386.775961235217
 30
0.0
 11
7987.962533586714
 21
2336.775961235217
 31
0.0
  0
INSERT
  5
18509
330
17F01
100
AcDbEntity
  8
寸法
 62
     0
 48
50.0
370
    -2
100
AcDbBlockReference
  2
_DOTSMALL
 10
7987.962533586714
 20
2386.775961235217
 30
0.0
 41
100.0
 42
100.0
 43
100.0
 50
270.0
  0
INSERT
  5
1850A
330
17F01
100
AcDbEntity
  8
寸法
 62
     0
 48
50.0
370
    -2
100
AcDbBlockReference
  2
_DOTSMALL
 10
7987.962533586714
 20
2336.775961235217
 30
0.0
 41
100.0
 42
100.0
 43
100.0
 50
90.0
  0
MTEXT
  5
1850B
330
17F01
100
AcDbEntity
  8
寸法
 62
     7
 48
50.0
100
AcDbMText
 10
7887.962533586713
 20
2030.728717140726
 30
0.0
 40
120.0
 41
0.0
 71
     5
 72
     1
  1
\A1;50
  7
STYLE1
 11
0.0000000000000001
 21
1.0
 31
0.0
 73
     1
 44
1.0
1001
ACAD
1000
MTEXTBEGIN
1070
    73
1070
     1
1070
    44
1040
1.0
1070
    74
1070
     0
1000
MTEXTEND
  0
POINT
  5
1850C
330
17F01
100
AcDbEntity
  8
DEFPOINTS
 62
     0
 48
50.0
100
AcDbPoint
 10
8611.61524274501
 20
2386.775961235217
 30
0.0
  0
POINT
  5
1850D
330
17F01
100
AcDbEntity
  8
DEFPOINTS
 62
     0
 48
50.0
100
AcDbPoint
 10
8556.61524274501
 20
2336.775961235217
 30
0.0
  0
POINT
  5
1850E
330
17F01
100
AcDbEntity
  8
DEFPOINTS
 62
     0
 48
50.0
100
AcDbPoint
 10
7987.962533586714
 20
2336.775961235217
 30
0.0
  0
ENDBLK
  5
17F0E
330
17F01
100
AcDbEntity
  8
0
 48
50.0
100
AcDbBlockEnd
  0
BLOCK
  5
17F19
330
17F0F
100
AcDbEntity
  8
0
 48
50.0
100
AcDbBlockBegin
  2
*D14
 70
     1
 10
0.0
 20
0.0
 30
0.0
  3
*D14
  1

  0
LINE
  5
184FB
330
17F0F
100
AcDbEntity
  8
寸法
 62
     0
 48
50.0
370
    -2
100
AcDbLine
 10
8591.615242745012
 20
4476.775961235216
 30
0.0
 11
7927.962533586715
 21
4476.775961235216
 31
0.0
  0
LINE
  5
184FC
330
17F0F
100
AcDbEntity
  8
寸法
 62
     0
 48
50.0
370
    -2
100
AcDbLine
 10
8591.615242745012
 20
2386.775961235217
 30
0.0
 11
7927.962533586715
 21
2386.775961235217
 31
0.0
  0
LINE
  5
184FD
330
17F0F
100
AcDbEntity
  8
寸法
 62
     0
 48
50.0
370
    -2
100
AcDbLine
 10
7987.962533586714
 20
4476.775961235216
 30
0.0
 11
7987.962533586714
 21
2386.775961235217
 31
0.0
  0
INSERT
  5
184FE
330
17F0F
100
AcDbEntity
  8
寸法
 62
     0
 48
50.0
370
    -2
100
AcDbBlockReference
  2
_DOTSMALL
 10
7987.962533586714
 20
4476.775961235216
 30
0.0
 41
100.0
 42
100.0
 43
100.0
 50
90.0
  0
INSERT
  5
184FF
330
17F0F
100
AcDbEntity
  8
寸法
 62
     0
 48
50.0
370
    -2
100
AcDbBlockReference
  2
_DOTSMALL
 10
7987.962533586714
 20
2386.775961235217
 30
0.0
 41
100.0
 42
100.0
 43
100.0
 50
270.0
  0
MTEXT
  5
18500
330
17F0F
100
AcDbEntity
  8
寸法
 62
     7
 48
50.0
100
AcDbMText
 10
7887.950722563093
 20
3407.275961235217
 30
0.0
 40
120.0
 41
0.0
 71
     5
 72
     1
  1
\A1;2090
  7
STYLE1
 11
0.0000000000000001
 21
1.0
 31
0.0
 73
     1
 44
1.0
1001
ACAD
1000
MTEXTBEGIN
1070
    73
1070
     1
1070
    44
1040
1.0
1070
    74
1070
     0
1000
MTEXTEND
  0
POINT
  5
18501
330
17F0F
100
AcDbEntity
  8
DEFPOINTS
 62
     0
 48
50.0
100
AcDbPoint
 10
8611.61524274501
 20
4476.775961235216
 30
0.0
  0
POINT
  5
18502
330
17F0F
100
AcDbEntity
  8
DEFPOINTS
 62
     0
 48
50.0
100
AcDbPoint
 10
8611.61524274501
 20
2386.775961235217
 30
0.0
  0
POINT
  5
18503
330
17F0F
100
AcDbEntity
  8
DEFPOINTS
 62
     0
 48
50.0
100
AcDbPoint
 10
7987.962533586714
 20
2386.775961235217
 30
0.0
  0
ENDBLK
  5
17F1A
330
17F0F
100
AcDbEntity
  8
0
 48
50.0
100
AcDbBlockEnd
  0
BLOCK
  5
17F25
330
17F1B
100
AcDbEntity
  8
0
 48
50.0
100
AcDbBlockBegin
  2
*D15
 70
     1
 10
0.0
 20
0.0
 30
0.0
  3
*D15
  1

  0
LINE
  5
184F2
330
17F1B
100
AcDbEntity
  8
寸法
 62
     0
 48
50.0
370
    -2
100
AcDbLine
 10
8591.615242745012
 20
2336.775961235217
 30
0.0
 11
7642.975860815653
 21
2336.775961235217
 31
0.0
  0
LINE
  5
184F3
330
17F1B
100
AcDbEntity
  8
寸法
 62
     0
 48
50.0
370
    -2
100
AcDbLine
 10
8531.61524274501
 20
4711.775961235222
 30
0.0
 11
7642.975860815653
 21
4711.775961235222
 31
0.0
  0
LINE
  5
184F4
330
17F1B
100
AcDbEntity
  8
寸法
 62
     0
 48
50.0
370
    -2
100
AcDbLine
 10
7702.975860815654
 20
2336.775961235217
 30
0.0
 11
7702.975860815654
 21
4711.775961235222
 31
0.0
  0
INSERT
  5
184F5
330
17F1B
100
AcDbEntity
  8
寸法
 62
     0
 48
50.0
370
    -2
100
AcDbBlockReference
  2
_DOTSMALL
 10
7702.975860815654
 20
2336.775961235217
 30
0.0
 41
100.0
 42
100.0
 43
100.0
 50
270.0
  0
INSERT
  5
184F6
330
17F1B
100
AcDbEntity
  8
寸法
 62
     0
 48
50.0
370
    -2
100
AcDbBlockReference
  2
_DOTSMALL
 10
7702.975860815654
 20
4711.775961235222
 30
0.0
 41
100.0
 42
100.0
 43
100.0
 50
90.0
  0
MTEXT
  5
184F7
330
17F1B
100
AcDbEntity
  8
寸法
 62
     7
 48
50.0
100
AcDbMText
 10
7602.964049792031
 20
3407.275961235217
 30
0.0
 40
120.0
 41
0.0
 71
     5
 72
     1
  1
\A1;2375
  7
STYLE1
 11
0.0000000000000001
 21
1.0
 31
0.0
 73
     1
 44
1.0
1001
ACAD
1000
MTEXTBEGIN
1070
    73
1070
     1
1070
    44
1040
1.0
1070
    74
1070
     0
1000
MTEXTEND
  0
POINT
  5
184F8
330
17F1B
100
AcDbEntity
  8
DEFPOINTS
 62
     0
 48
50.0
100
AcDbPoint
 10
8611.61524274501
 20
2336.775961235217
 30
0.0
  0
POINT
  5
184F9
330
17F1B
100
AcDbEntity
  8
DEFPOINTS
 62
     0
 48
50.0
100
AcDbPoint
 10
8551.615242745011
 20
4711.775961235222
 30
0.0
  0
POINT
  5
184FA
330
17F1B
100
AcDbEntity
  8
DEFPOINTS
 62
     0
 48
50.0
100
AcDbPoint
 10
7702.975860815654
 20
4711.775961235222
 30
0.0
  0
ENDBLK
  5
17F26
330
17F1B
100
AcDbEntity
  8
0
 48
50.0
100
AcDbBlockEnd
  0
BLOCK
  5
17F32
330
17F27
100
AcDbEntity
  8
0
 48
50.0
100
AcDbBlockBegin
  2
*D16
 70
     1
 10
0.0
 20
0.0
 30
0.0
  3
*D16
  1

  0
LINE
  5
184E8
330
17F27
100
AcDbEntity
  8
寸法
 62
     0
 48
50.0
370
    -2
100
AcDbLine
 10
8551.019529036112
 20
4711.073668304878
 30
0.0
 11
7935.085089930836
 21
4728.787818579206
 31
0.0
  0
LINE
  5
184E9
330
17F27
100
AcDbEntity
  8
寸法
 62
     0
 48
50.0
370
    -2
100
AcDbLine
 10
8546.966073479486
 20
4570.131944539164
 30
0.0
 11
7931.031634374209
 21
4587.846094813492
 31
0.0
  0
LINE
  5
184EA
330
17F27
100
AcDbEntity
  8
寸法
 62
     0
 48
50.0
370
    -2
100
AcDbLine
 10
7991.00683597664
 20
4586.121220108545
 30
0.0
 11
7995.060291533265
 21
4727.06294387426
 31
0.0
  0
LINE
  5
184EB
330
17F27
100
AcDbEntity
  8
寸法
 62
     0
 48
50.0
370
    -2
100
AcDbLine
 10
7995.060291533265
 20
4727.06294387426
 30
0.0
 11
8005.409539762949
 21
5086.914153488852
 31
0.0
  0
INSERT
  5
184EC
330
17F27
100
AcDbEntity
  8
寸法
 62
     0
 48
50.0
370
    -2
100
AcDbBlockReference
  2
_DOTSMALL
 10
7991.00683597664
 20
4586.121220108545
 30
0.0
 41
100.0
 42
100.0
 43
100.0
 50
268.3526390256379
  0
INSERT
  5
184ED
330
17F27
100
AcDbEntity
  8
寸法
 62
     0
 48
50.0
370
    -2
100
AcDbBlockReference
  2
_DOTSMALL
 10
7995.060291533265
 20
4727.06294387426
 30
0.0
 41
100.0
 42
100.0
 43
100.0
 50
88.35263902563784
  0
MTEXT
  5
184EE
330
17F27
100
AcDbEntity
  8
寸法
 62
     7
 48
50.0
100
AcDbMText
 10
7901.71364189818
 20
4959.842674525166
 30
0.0
 40
120.0
 41
0.0
 71
     5
 72
     1
  1
\A1;141
  7
STYLE1
 11
0.0287479117491228
 21
0.9995866933738486
 31
0.0
 73
     1
 44
1.0
1001
ACAD
1000
MTEXTBEGIN
1070
    73
1070
     1
1070
    44
1040
1.0
1070
    74
1070
     0
1000
MTEXTEND
  0
POINT
  5
184EF
330
17F27
100
AcDbEntity
  8
DEFPOINTS
 62
     0
 48
50.0
100
AcDbPoint
 10
8571.01126290359
 20
4710.498710069895
 30
0.0
  0
POINT
  5
184F0
330
17F27
100
AcDbEntity
  8
DEFPOINTS
 62
     0
 48
50.0
100
AcDbPoint
 10
8566.957807346964
 20
4569.55698630418
 30
0.0
  0
POINT
  5
184F1
330
17F27
100
AcDbEntity
  8
DEFPOINTS
 62
     0
 48
50.0
100
AcDbPoint
 10
7991.00683597664
 20
4586.121220108545
 30
0.0
  0
ENDBLK
  5
17F33
330
17F27
100
AcDbEntity
  8
0
 48
50.0
100
AcDbBlockEnd
  0
BLOCK
  5
17F3E
330
17F34
100
AcDbEntity
  8
0
 48
50.0
100
AcDbBlockBegin
  2
*D17
 70
     1
 10
0.0
 20
0.0
 30
0.0
  3
*D17
  1

  0
LINE
  5
184DF
330
17F34
100
AcDbEntity
  8
寸法
 62
     0
 48
50.0
370
    -2
100
AcDbLine
 10
9039.615242745011
 20
4419.775961235216
 30
0.0
 11
8258.390436273996
 21
4419.775961235216
 31
0.0
  0
LINE
  5
184E0
330
17F34
100
AcDbEntity
  8
寸法
 62
     0
 48
50.0
370
    -2
100
AcDbLine
 10
9039.615242745011
 20
2394.775961235216
 30
0.0
 11
8258.390436273996
 21
2394.775961235216
 31
0.0
  0
LINE
  5
184E1
330
17F34
100
AcDbEntity
  8
寸法
 62
     0
 48
50.0
370
    -2
100
AcDbLine
 10
8318.390436273999
 20
4419.775961235216
 30
0.0
 11
8318.390436273997
 21
2394.775961235216
 31
0.0
  0
INSERT
  5
184E2
330
17F34
100
AcDbEntity
  8
寸法
 62
     0
 48
50.0
370
    -2
100
AcDbBlockReference
  2
_DOTSMALL
 10
8318.390436273999
 20
4419.775961235216
 30
0.0
 41
100.0
 42
100.0
 43
100.0
 50
90.0
  0
INSERT
  5
184E3
330
17F34
100
AcDbEntity
  8
寸法
 62
     0
 48
50.0
370
    -2
100
AcDbBlockReference
  2
_DOTSMALL
 10
8318.390436273997
 20
2394.775961235216
 30
0.0
 41
100.0
 42
100.0
 43
100.0
 50
270.0
  0
MTEXT
  5
184E4
330
17F34
100
AcDbEntity
  8
寸法
 62
     7
 48
50.0
100
AcDbMText
 10
8218.378625250373
 20
3407.275961235217
 30
0.0
 40
120.0
 41
0.0
 71
     5
 72
     1
  1
\A1;有効開口部高サ2025
  7
STYLE1
 11
0.0000000000000001
 21
1.0
 31
0.0
 73
     1
 44
1.0
1001
ACAD
1000
MTEXTBEGIN
1070
    73
1070
     1
1070
    44
1040
1.0
1070
    74
1070
     0
1000
MTEXTEND
  0
POINT
  5
184E5
330
17F34
100
AcDbEntity
  8
DEFPOINTS
 62
     0
 48
50.0
100
AcDbPoint
 10
9059.61524274501
 20
4419.775961235216
 30
0.0
  0
POINT
  5
184E6
330
17F34
100
AcDbEntity
  8
DEFPOINTS
 62
     0
 48
50.0
100
AcDbPoint
 10
9059.61524274501
 20
2394.775961235216
 30
0.0
  0
POINT
  5
184E7
330
17F34
100
AcDbEntity
  8
DEFPOINTS
 62
     0
 48
50.0
100
AcDbPoint
 10
8318.390436273997
 20
2394.775961235216
 30
0.0
  0
ENDBLK
  5
17F3F
330
17F34
100
AcDbEntity
  8
0
 48
50.0
100
AcDbBlockEnd
  0
BLOCK
  5
17F4A
330
17F40
100
AcDbEntity
  8
0
 48
50.0
100
AcDbBlockBegin
  2
*D18
 70
     1
 10
0.0
 20
0.0
 30
0.0
  3
*D18
  1

  0
LINE
  5
184D6
330
17F40
100
AcDbEntity
  8
寸法
 62
     0
 48
50.0
370
    -2
100
AcDbLine
 10
8711.615242745009
 20
2016.775961235217
 30
0.0
 11
8711.615242745009
 21
1690.728631934838
 31
0.0
  0
LINE
  5
184D7
330
17F40
100
AcDbEntity
  8
寸法
 62
     0
 48
50.0
370
    -2
100
AcDbLine
 10
8511.61524274501
 20
2016.775961235217
 30
0.0
 11
8511.61524274501
 21
1690.728631934838
 31
0.0
  0
LINE
  5
184D8
330
17F40
100
AcDbEntity
  8
寸法
 62
     0
 48
50.0
370
    -2
100
AcDbLine
 10
8711.615242745009
 20
1750.728631934839
 30
0.0
 11
8511.61524274501
 21
1750.728631934839
 31
0.0
  0
INSERT
  5
184D9
330
17F40
100
AcDbEntity
  8
寸法
 62
     0
 48
50.0
370
    -2
100
AcDbBlockReference
  2
_DOTSMALL
 10
8711.615242745009
 20
1750.728631934839
 30
0.0
 41
100.0
 42
100.0
 43
100.0
  0
INSERT
  5
184DA
330
17F40
100
AcDbEntity
  8
寸法
 62
     0
 48
50.0
370
    -2
100
AcDbBlockReference
  2
_DOTSMALL
 10
8511.61524274501
 20
1750.728631934839
 30
0.0
 41
100.0
 42
100.0
 43
100.0
 50
180.0
  0
MTEXT
  5
184DB
330
17F40
100
AcDbEntity
  8
寸法
 62
     7
 48
50.0
100
AcDbMText
 10
8611.61524274501
 20
1850.740442958461
 30
0.0
 40
120.0
 41
0.0
 71
     5
 72
     1
  1
\A1;200
  7
STYLE1
 73
     1
 44
1.0
1001
ACAD
1000
MTEXTBEGIN
1070
    73
1070
     1
1070
    44
1040
1.0
1070
    74
1070
     0
1000
MTEXTEND
  0
POINT
  5
184DC
330
17F40
100
AcDbEntity
  8
DEFPOINTS
 62
     0
 48
50.0
100
AcDbPoint
 10
8711.615242745009
 20
2036.775961235217
 30
0.0
  0
POINT
  5
184DD
330
17F40
100
AcDbEntity
  8
DEFPOINTS
 62
     0
 48
50.0
100
AcDbPoint
 10
8511.61524274501
 20
2036.775961235217
 30
0.0
  0
POINT
  5
184DE
330
17F40
100
AcDbEntity
  8
DEFPOINTS
 62
     0
 48
50.0
100
AcDbPoint
 10
8511.61524274501
 20
1750.728631934839
 30
0.0
  0
ENDBLK
  5
17F4B
330
17F40
100
AcDbEntity
  8
0
 48
50.0
100
AcDbBlockEnd
  0
BLOCK
  5
17F58
330
17F4C
100
AcDbEntity
  8
0
 48
50.0
100
AcDbBlockBegin
  2
*D19
 70
     1
 10
0.0
 20
0.0
 30
0.0
  3
*D19
  1

  0
LINE
  5
18C36
330
17F4C
100
AcDbEntity
  8
寸法
 62
     0
 48
50.0
370
    -2
100
AcDbLine
 10
8611.615242744985
 20
9849.907155145997
 30
0.0
 11
8611.615242744985
 21
10189.90715514599
 31
0.0
  0
LINE
  5
18C37
330
17F4C
100
AcDbEntity
  8
寸法
 62
     0
 48
50.0
370
    -2
100
AcDbLine
 10
8666.615242745022
 20
9849.907155145997
 30
0.0
 11
8666.615242745022
 21
10189.90715514599
 31
0.0
  0
LINE
  5
18C38
330
17F4C
100
AcDbEntity
  8
寸法
 62
     0
 48
50.0
370
    -2
100
AcDbLine
 10
8666.615242745022
 20
10129.90715514599
 30
0.0
 11
8766.615242745022
 21
10129.90715514599
 31
0.0
  0
LINE
  5
18C39
330
17F4C
100
AcDbEntity
  8
寸法
 62
     0
 48
50.0
370
    -2
100
AcDbLine
 10
8611.615242744985
 20
10129.90715514599
 30
0.0
 11
8194.644679996507
 21
10129.90715514599
 31
0.0
  0
LINE
  5
18C3A
330
17F4C
100
AcDbEntity
  8
寸法
 62
     0
 48
50.0
370
    -2
100
AcDbLine
 10
8666.615242745022
 20
10129.90715514599
 30
0.0
 11
8611.615242744985
 21
10129.90715514599
 31
0.0
  0
INSERT
  5
18C3B
330
17F4C
100
AcDbEntity
  8
寸法
 62
     0
 48
50.0
370
    -2
100
AcDbBlockReference
  2
_DOTSMALL
 10
8666.615242745022
 20
10129.90715514599
 30
0.0
 41
100.0
 42
100.0
 43
100.0
 50
180.0
  0
INSERT
  5
18C3C
330
17F4C
100
AcDbEntity
  8
寸法
 62
     0
 48
50.0
370
    -2
100
AcDbBlockReference
  2
_DOTSMALL
 10
8611.615242744985
 20
10129.90715514599
 30
0.0
 41
100.0
 42
100.0
 43
100.0
  0
MTEXT
  5
18C3D
330
17F4C
100
AcDbEntity
  8
寸法
 62
     7
 48
50.0
100
AcDbMText
 10
8303.129961370744
 20
10229.90715514599
 30
0.0
 40
120.0
 41
0.0
 71
     5
 72
     1
  1
\A1;55
  7
STYLE1
 73
     1
 44
1.0
1001
ACAD
1000
MTEXTBEGIN
1070
    73
1070
     1
1070
    44
1040
1.0
1070
    74
1070
     0
1000
MTEXTEND
  0
POINT
  5
18C3E
330
17F4C
100
AcDbEntity
  8
DEFPOINTS
 62
     0
 48
50.0
100
AcDbPoint
 10
8611.615242744985
 20
9829.907155145997
 30
0.0
  0
POINT
  5
18C3F
330
17F4C
100
AcDbEntity
  8
DEFPOINTS
 62
     0
 48
50.0
100
AcDbPoint
 10
8666.615242745022
 20
9829.907155145997
 30
0.0
  0
POINT
  5
18C40
330
17F4C
100
AcDbEntity
  8
DEFPOINTS
 62
     0
 48
50.0
100
AcDbPoint
 10
8666.615242745022
 20
10129.90715514599
 30
0.0
  0
ENDBLK
  5
17F59
330
17F4C
100
AcDbEntity
  8
0
 48
50.0
100
AcDbBlockEnd
  0
BLOCK
  5
17F64
330
17F5A
100
AcDbEntity
  8
0
 48
50.0
100
AcDbBlockBegin
  2
*D20
 70
     1
 10
0.0
 20
0.0
 30
0.0
  3
*D20
  1

  0
LINE
  5
18C2D
330
17F5A
100
AcDbEntity
  8
寸法
 62
     0
 48
50.0
370
    -2
100
AcDbLine
 10
8633.756258896331
 20
9329.907155146043
 30
0.0
 11
8537.304359363085
 21
8969.943765601444
 31
0.0
  0
LINE
  5
18C2E
330
17F5A
100
AcDbEntity
  8
寸法
 62
     0
 48
50.0
370
    -2
100
AcDbLine
 10
9906.7562588964
 20
9329.907155146036
 30
0.0
 11
9810.304359363156
 21
8969.943765601444
 31
0.0
  0
LINE
  5
18C2F
330
17F5A
100
AcDbEntity
  8
寸法
 62
     0
 48
50.0
370
    -2
100
AcDbLine
 10
8553.381310908951
 20
9029.943765601442
 30
0.0
 11
9826.381310909022
 21
9029.943765601442
 31
0.0
  0
INSERT
  5
18C30
330
17F5A
100
AcDbEntity
  8
寸法
 62
     0
 48
50.0
370
    -2
100
AcDbBlockReference
  2
_DOTSMALL
 10
8553.381310908951
 20
9029.943765601442
 30
0.0
 41
100.0
 42
100.0
 43
100.0
 50
180.0
  0
INSERT
  5
18C31
330
17F5A
100
AcDbEntity
  8
寸法
 62
     0
 48
50.0
370
    -2
100
AcDbBlockReference
  2
_DOTSMALL
 10
9826.381310909022
 20
9029.943765601442
 30
0.0
 41
100.0
 42
100.0
 43
100.0
  0
MTEXT
  5
18C32
330
17F5A
100
AcDbEntity
  8
寸法
 62
     7
 48
50.0
100
AcDbMText
 10
9189.881310908985
 20
9129.955576625064
 30
0.0
 40
120.0
 41
0.0
 71
     5
 72
     1
  1
\A1;1273
  7
STYLE1
 73
     1
 44
1.0
1001
ACAD
1000
MTEXTBEGIN
1070
    73
1070
     1
1070
    44
1040
1.0
1070
    74
1070
     0
1000
MTEXTEND
  0
POINT
  5
18C33
330
17F5A
100
AcDbEntity
  8
DEFPOINTS
 62
     0
 48
50.0
100
AcDbPoint
 10
8639.115242744953
 20
9349.907155146045
 30
0.0
  0
POINT
  5
18C34
330
17F5A
100
AcDbEntity
  8
DEFPOINTS
 62
     0
 48
50.0
100
AcDbPoint
 10
9912.115242745022
 20
9349.907155146036
 30
0.0
  0
POINT
  5
18C35
330
17F5A
100
AcDbEntity
  8
DEFPOINTS
 62
     0
 48
50.0
100
AcDbPoint
 10
9826.381310909022
 20
9029.943765601442
 30
0.0
  0
ENDBLK
  5
17F65
330
17F5A
100
AcDbEntity
  8
0
 48
50.0
100
AcDbBlockEnd
  0
BLOCK
  5
17F72
330
17F66
100
AcDbEntity
  8
0
 48
50.0
100
AcDbBlockBegin
  2
*D21
 70
     1
 10
0.0
 20
0.0
 30
0.0
  3
*D21
  1

  0
LINE
  5
18C22
330
17F66
100
AcDbEntity
  8
寸法
 62
     0
 48
50.0
370
    -2
100
AcDbLine
 10
11186.61524274502
 20
9849.907155146091
 30
0.0
 11
11186.61524274502
 21
10189.90715514599
 31
0.0
  0
LINE
  5
18C23
330
17F66
100
AcDbEntity
  8
寸法
 62
     0
 48
50.0
370
    -2
100
AcDbLine
 10
11241.61524274502
 20
9849.907155146091
 30
0.0
 11
11241.61524274502
 21
10189.90715514599
 31
0.0
  0
LINE
  5
18C24
330
17F66
100
AcDbEntity
  8
寸法
 62
     0
 48
50.0
370
    -2
100
AcDbLine
 10
11186.61524274502
 20
10129.90715514599
 30
0.0
 11
11086.61524274502
 21
10129.90715514599
 31
0.0
  0
LINE
  5
18C25
330
17F66
100
AcDbEntity
  8
寸法
 62
     0
 48
50.0
370
    -2
100
AcDbLine
 10
11241.61524274502
 20
10129.90715514599
 30
0.0
 11
11658.5858054935
 21
10129.90715514599
 31
0.0
  0
LINE
  5
18C26
330
17F66
100
AcDbEntity
  8
寸法
 62
     0
 48
50.0
370
    -2
100
AcDbLine
 10
11186.61524274502
 20
10129.90715514599
 30
0.0
 11
11241.61524274502
 21
10129.90715514599
 31
0.0
  0
INSERT
  5
18C27
330
17F66
100
AcDbEntity
  8
寸法
 62
     0
 48
50.0
370
    -2
100
AcDbBlockReference
  2
_DOTSMALL
 10
11186.61524274502
 20
10129.90715514599
 30
0.0
 41
100.0
 42
100.0
 43
100.0
  0
INSERT
  5
18C28
330
17F66
100
AcDbEntity
  8
寸法
 62
     0
 48
50.0
370
    -2
100
AcDbBlockReference
  2
_DOTSMALL
 10
11241.61524274502
 20
10129.90715514599
 30
0.0
 41
100.0
 42
100.0
 43
100.0
 50
180.0
  0
MTEXT
  5
18C29
330
17F66
100
AcDbEntity
  8
寸法
 62
     7
 48
50.0
100
AcDbMText
 10
11550.10052411926
 20
10229.90715514599
 30
0.0
 40
120.0
 41
0.0
 71
     5
 72
     1
  1
\A1;55
  7
STYLE1
 73
     1
 44
1.0
1001
ACAD
1000
MTEXTBEGIN
1070
    73
1070
     1
1070
    44
1040
1.0
1070
    74
1070
     0
1000
MTEXTEND
  0
POINT
  5
18C2A
330
17F66
100
AcDbEntity
  8
DEFPOINTS
 62
     0
 48
50.0
100
AcDbPoint
 10
11186.61524274502
 20
9829.907155146091
 30
0.0
  0
POINT
  5
18C2B
330
17F66
100
AcDbEntity
  8
DEFPOINTS
 62
     0
 48
50.0
100
AcDbPoint
 10
11241.61524274502
 20
9829.907155146091
 30
0.0
  0
POINT
  5
18C2C
330
17F66
100
AcDbEntity
  8
DEFPOINTS
 62
     0
 48
50.0
100
AcDbPoint
 10
11241.61524274502
 20
10129.90715514599
 30
0.0
  0
ENDBLK
  5
17F73
330
17F66
100
AcDbEntity
  8
0
 48
50.0
100
AcDbBlockEnd
  0
BLOCK
  5
17F7E
330
17F74
100
AcDbEntity
  8
0
 48
50.0
100
AcDbBlockBegin
  2
*D22
 70
     1
 10
0.0
 20
0.0
 30
0.0
  3
*D22
  1

  0
LINE
  5
18C19
330
17F74
100
AcDbEntity
  8
寸法
 62
     0
 48
50.0
370
    -2
100
AcDbLine
 10
8666.615242745022
 20
9849.907155145997
 30
0.0
 11
8666.615242745022
 21
10189.90715514599
 31
0.0
  0
LINE
  5
18C1A
330
17F74
100
AcDbEntity
  8
寸法
 62
     0
 48
50.0
370
    -2
100
AcDbLine
 10
11186.61524274502
 20
9849.907155146091
 30
0.0
 11
11186.61524274502
 21
10189.90715514599
 31
0.0
  0
LINE
  5
18C1B
330
17F74
100
AcDbEntity
  8
寸法
 62
     0
 48
50.0
370
    -2
100
AcDbLine
 10
8666.615242745022
 20
10129.90715514599
 30
0.0
 11
11186.61524274502
 21
10129.90715514599
 31
0.0
  0
INSERT
  5
18C1C
330
17F74
100
AcDbEntity
  8
寸法
 62
     0
 48
50.0
370
    -2
100
AcDbBlockReference
  2
_DOTSMALL
 10
8666.615242745022
 20
10129.90715514599
 30
0.0
 41
100.0
 42
100.0
 43
100.0
 50
180.0
  0
INSERT
  5
18C1D
330
17F74
100
AcDbEntity
  8
寸法
 62
     0
 48
50.0
370
    -2
100
AcDbBlockReference
  2
_DOTSMALL
 10
11186.61524274502
 20
10129.90715514599
 30
0.0
 41
100.0
 42
100.0
 43
100.0
  0
MTEXT
  5
18C1E
330
17F74
100
AcDbEntity
  8
寸法
 62
     7
 48
50.0
100
AcDbMText
 10
9926.615242745018
 20
10229.91896616961
 30
0.0
 40
120.0
 41
0.0
 71
     5
 72
     1
  1
\A1;6X420=2520
  7
STYLE1
 73
     1
 44
1.0
1001
ACAD
1000
MTEXTBEGIN
1070
    73
1070
     1
1070
    44
1040
1.0
1070
    74
1070
     0
1000
MTEXTEND
  0
POINT
  5
18C1F
330
17F74
100
AcDbEntity
  8
DEFPOINTS
 62
     0
 48
50.0
100
AcDbPoint
 10
8666.615242745022
 20
9829.907155145997
 30
0.0
  0
POINT
  5
18C20
330
17F74
100
AcDbEntity
  8
DEFPOINTS
 62
     0
 48
50.0
100
AcDbPoint
 10
11186.61524274502
 20
9829.907155146091
 30
0.0
  0
POINT
  5
18C21
330
17F74
100
AcDbEntity
  8
DEFPOINTS
 62
     0
 48
50.0
100
AcDbPoint
 10
11186.61524274502
 20
10129.90715514599
 30
0.0
  0
ENDBLK
  5
17F7F
330
17F74
100
AcDbEntity
  8
0
 48
50.0
100
AcDbBlockEnd
  0
BLOCK
  5
17F96
330
17F8C
100
AcDbEntity
  8
0
 48
50.0
100
AcDbBlockBegin
  2
*D23
 70
     1
 10
0.0
 20
0.0
 30
0.0
  3
*D23
  1

  0
LINE
  5
18C10
330
17F8C
100
AcDbEntity
  8
寸法
 62
     0
 48
50.0
370
    -2
100
AcDbLine
 10
9933.7562588964
 20
9329.907155146102
 30
0.0
 11
9837.304359363137
 21
8969.943765601444
 31
0.0
  0
LINE
  5
18C11
330
17F8C
100
AcDbEntity
  8
寸法
 62
     0
 48
50.0
370
    -2
100
AcDbLine
 10
11206.75625889641
 20
9329.907155146095
 30
0.0
 11
11110.30435936315
 21
8969.943765601444
 31
0.0
  0
LINE
  5
18C12
330
17F8C
100
AcDbEntity
  8
寸法
 62
     0
 48
50.0
370
    -2
100
AcDbLine
 10
9853.381310909005
 20
9029.943765601442
 30
0.0
 11
11126.38131090901
 21
9029.943765601442
 31
0.0
  0
INSERT
  5
18C13
330
17F8C
100
AcDbEntity
  8
寸法
 62
     0
 48
50.0
370
    -2
100
AcDbBlockReference
  2
_DOTSMALL
 10
9853.381310909005
 20
9029.943765601442
 30
0.0
 41
100.0
 42
100.0
 43
100.0
 50
180.0
  0
INSERT
  5
18C14
330
17F8C
100
AcDbEntity
  8
寸法
 62
     0
 48
50.0
370
    -2
100
AcDbBlockReference
  2
_DOTSMALL
 10
11126.38131090901
 20
9029.943765601442
 30
0.0
 41
100.0
 42
100.0
 43
100.0
  0
MTEXT
  5
18C15
330
17F8C
100
AcDbEntity
  8
寸法
 62
     7
 48
50.0
100
AcDbMText
 10
10559.50315005903
 20
9129.955576625064
 30
0.0
 40
120.0
 41
0.0
 71
     5
 72
     1
  1
\A1;1273
  7
STYLE1
 73
     1
 44
1.0
1001
ACAD
1000
MTEXTBEGIN
1070
    73
1070
     1
1070
    44
1040
1.0
1070
    74
1070
     0
1000
MTEXTEND
  0
POINT
  5
18C16
330
17F8C
100
AcDbEntity
  8
DEFPOINTS
 62
     0
 48
50.0
100
AcDbPoint
 10
9939.115242745023
 20
9349.907155146103
 30
0.0
  0
POINT
  5
18C17
330
17F8C
100
AcDbEntity
  8
DEFPOINTS
 62
     0
 48
50.0
100
AcDbPoint
 10
11212.11524274503
 20
9349.907155146095
 30
0.0
  0
POINT
  5
18C18
330
17F8C
100
AcDbEntity
  8
DEFPOINTS
 62
     0
 48
50.0
100
AcDbPoint
 10
11126.38131090901
 20
9029.943765601442
 30
0.0
  0
ENDBLK
  5
17F97
330
17F8C
100
AcDbEntity
  8
0
 48
50.0
100
AcDbBlockEnd
  0
BLOCK
  5
17FA2
330
17F98
100
AcDbEntity
  8
0
 48
50.0
100
AcDbBlockBegin
  2
*D24
 70
     1
 10
0.0
 20
0.0
 30
0.0
  3
*D24
  1

  0
LINE
  5
18C07
330
17F98
100
AcDbEntity
  8
寸法
 62
     0
 48
50.0
370
    -2
100
AcDbLine
 10
11261.61524274502
 20
9829.907155146091
 30
0.0
 11
12301.61524274502
 21
9829.90715514609
 31
0.0
  0
LINE
  5
18C08
330
17F98
100
AcDbEntity
  8
寸法
 62
     0
 48
50.0
370
    -2
100
AcDbLine
 10
11261.61524274499
 20
7619.90715514608
 30
0.0
 11
12301.61524274502
 21
7619.90715514608
 31
0.0
  0
LINE
  5
18C09
330
17F98
100
AcDbEntity
  8
寸法
 62
     0
 48
50.0
370
    -2
100
AcDbLine
 10
12241.61524274502
 20
9829.907155146091
 30
0.0
 11
12241.61524274502
 21
7619.90715514608
 31
0.0
  0
INSERT
  5
18C0A
330
17F98
100
AcDbEntity
  8
寸法
 62
     0
 48
50.0
370
    -2
100
AcDbBlockReference
  2
_DOTSMALL
 10
12241.61524274502
 20
9829.907155146091
 30
0.0
 41
100.0
 42
100.0
 43
100.0
 50
90.0
  0
INSERT
  5
18C0B
330
17F98
100
AcDbEntity
  8
寸法
 62
     0
 48
50.0
370
    -2
100
AcDbBlockReference
  2
_DOTSMALL
 10
12241.61524274502
 20
7619.90715514608
 30
0.0
 41
100.0
 42
100.0
 43
100.0
 50
270.0
  0
MTEXT
  5
18C0C
330
17F98
100
AcDbEntity
  8
寸法
 62
     7
 48
50.0
100
AcDbMText
 10
12141.6034317214
 20
8724.907155146087
 30
0.0
 40
120.0
 41
0.0
 71
     5
 72
     1
  1
\A1;2210
  7
STYLE1
 11
0.0000000000000001
 21
1.0
 31
0.0
 73
     1
 44
1.0
1001
ACAD
1000
MTEXTBEGIN
1070
    73
1070
     1
1070
    44
1040
1.0
1070
    74
1070
     0
1000
MTEXTEND
  0
POINT
  5
18C0D
330
17F98
100
AcDbEntity
  8
DEFPOINTS
 62
     0
 48
50.0
100
AcDbPoint
 10
11241.61524274502
 20
9829.907155146091
 30
0.0
  0
POINT
  5
18C0E
330
17F98
100
AcDbEntity
  8
DEFPOINTS
 62
     0
 48
50.0
100
AcDbPoint
 10
11241.61524274499
 20
7619.90715514608
 30
0.0
  0
POINT
  5
18C0F
330
17F98
100
AcDbEntity
  8
DEFPOINTS
 62
     0
 48
50.0
100
AcDbPoint
 10
12241.61524274502
 20
7619.90715514608
 30
0.0
  0
ENDBLK
  5
17FA3
330
17F98
100
AcDbEntity
  8
0
 48
50.0
100
AcDbBlockEnd
  0
BLOCK
  5
17FAE
330
17FA4
100
AcDbEntity
  8
0
 48
50.0
100
AcDbBlockBegin
  2
*D25
 70
     1
 10
0.0
 20
0.0
 30
0.0
  3
*D25
  1

  0
LINE
  5
18BFE
330
17FA4
100
AcDbEntity
  8
寸法
 62
     0
 48
50.0
370
    -2
100
AcDbLine
 10
11261.61524274502
 20
9774.907155146095
 30
0.0
 11
12001.61524274501
 21
9774.907155146095
 31
0.0
  0
LINE
  5
18BFF
330
17FA4
100
AcDbEntity
  8
寸法
 62
     0
 48
50.0
370
    -2
100
AcDbLine
 10
11261.61524274499
 20
7674.907155146077
 30
0.0
 11
12001.61524274501
 21
7674.907155146077
 31
0.0
  0
LINE
  5
18C00
330
17FA4
100
AcDbEntity
  8
寸法
 62
     0
 48
50.0
370
    -2
100
AcDbLine
 10
11941.61524274501
 20
9774.907155146095
 30
0.0
 11
11941.61524274501
 21
7674.907155146077
 31
0.0
  0
INSERT
  5
18C01
330
17FA4
100
AcDbEntity
  8
寸法
 62
     0
 48
50.0
370
    -2
100
AcDbBlockReference
  2
_DOTSMALL
 10
11941.61524274501
 20
9774.907155146095
 30
0.0
 41
100.0
 42
100.0
 43
100.0
 50
90.0
  0
INSERT
  5
18C02
330
17FA4
100
AcDbEntity
  8
寸法
 62
     0
 48
50.0
370
    -2
100
AcDbBlockReference
  2
_DOTSMALL
 10
11941.61524274501
 20
7674.907155146077
 30
0.0
 41
100.0
 42
100.0
 43
100.0
 50
270.0
  0
MTEXT
  5
18C03
330
17FA4
100
AcDbEntity
  8
寸法
 62
     7
 48
50.0
100
AcDbMText
 10
11841.60343172139
 20
8724.907155146087
 30
0.0
 40
120.0
 41
0.0
 71
     5
 72
     1
  1
\A1;5X420=2100
  7
STYLE1
 11
0.0000000000000001
 21
1.0
 31
0.0
 73
     1
 44
1.0
1001
ACAD
1000
MTEXTBEGIN
1070
    73
1070
     1
1070
    44
1040
1.0
1070
    74
1070
     0
1000
MTEXTEND
  0
POINT
  5
18C04
330
17FA4
100
AcDbEntity
  8
DEFPOINTS
 62
     0
 48
50.0
100
AcDbPoint
 10
11241.61524274502
 20
9774.907155146095
 30
0.0
  0
POINT
  5
18C05
330
17FA4
100
AcDbEntity
  8
DEFPOINTS
 62
     0
 48
50.0
100
AcDbPoint
 10
11241.61524274499
 20
7674.907155146077
 30
0.0
  0
POINT
  5
18C06
330
17FA4
100
AcDbEntity
  8
DEFPOINTS
 62
     0
 48
50.0
100
AcDbPoint
 10
11941.61524274501
 20
7674.907155146077
 30
0.0
  0
ENDBLK
  5
17FAF
330
17FA4
100
AcDbEntity
  8
0
 48
50.0
100
AcDbBlockEnd
  0
BLOCK
  5
17FBC
330
17FB0
100
AcDbEntity
  8
0
 48
50.0
100
AcDbBlockBegin
  2
*D26
 70
     1
 10
0.0
 20
0.0
 30
0.0
  3
*D26
  1

  0
LINE
  5
18BF3
330
17FB0
100
AcDbEntity
  8
寸法
 62
     0
 48
50.0
370
    -2
100
AcDbLine
 10
11261.61524274499
 20
7674.907155146077
 30
0.0
 11
12001.615242745
 21
7674.907155146077
 31
0.0
  0
LINE
  5
18BF4
330
17FB0
100
AcDbEntity
  8
寸法
 62
     0
 48
50.0
370
    -2
100
AcDbLine
 10
11261.61524274499
 20
7619.90715514608
 30
0.0
 11
12001.615242745
 21
7619.90715514608
 31
0.0
  0
LINE
  5
18BF5
330
17FB0
100
AcDbEntity
  8
寸法
 62
     0
 48
50.0
370
    -2
100
AcDbLine
 10
11941.615242745
 20
7674.907155146077
 30
0.0
 11
11941.615242745
 21
7774.907155146077
 31
0.0
  0
LINE
  5
18BF6
330
17FB0
100
AcDbEntity
  8
寸法
 62
     0
 48
50.0
370
    -2
100
AcDbLine
 10
11941.615242745
 20
7619.90715514608
 30
0.0
 11
11941.615242745
 21
7202.936592397588
 31
0.0
  0
LINE
  5
18BF7
330
17FB0
100
AcDbEntity
  8
寸法
 62
     0
 48
50.0
370
    -2
100
AcDbLine
 10
11941.615242745
 20
7674.907155146077
 30
0.0
 11
11941.615242745
 21
7619.90715514608
 31
0.0
  0
INSERT
  5
18BF8
330
17FB0
100
AcDbEntity
  8
寸法
 62
     0
 48
50.0
370
    -2
100
AcDbBlockReference
  2
_DOTSMALL
 10
11941.615242745
 20
7674.907155146077
 30
0.0
 41
100.0
 42
100.0
 43
100.0
 50
270.0
  0
INSERT
  5
18BF9
330
17FB0
100
AcDbEntity
  8
寸法
 62
     0
 48
50.0
370
    -2
100
AcDbBlockReference
  2
_DOTSMALL
 10
11941.615242745
 20
7619.90715514608
 30
0.0
 41
100.0
 42
100.0
 43
100.0
 50
90.0
  0
MTEXT
  5
18BFA
330
17FB0
100
AcDbEntity
  8
寸法
 62
     7
 48
50.0
100
AcDbMText
 10
11841.61524274499
 20
7311.421873771831
 30
0.0
 40
120.0
 41
0.0
 71
     5
 72
     1
  1
\A1;55
  7
STYLE1
 11
0.0000000000000001
 21
1.0
 31
0.0
 73
     1
 44
1.0
1001
ACAD
1000
MTEXTBEGIN
1070
    73
1070
     1
1070
    44
1040
1.0
1070
    74
1070
     0
1000
MTEXTEND
  0
POINT
  5
18BFB
330
17FB0
100
AcDbEntity
  8
DEFPOINTS
 62
     0
 48
50.0
100
AcDbPoint
 10
11241.61524274499
 20
7674.907155146077
 30
0.0
  0
POINT
  5
18BFC
330
17FB0
100
AcDbEntity
  8
DEFPOINTS
 62
     0
 48
50.0
100
AcDbPoint
 10
11241.61524274499
 20
7619.90715514608
 30
0.0
  0
POINT
  5
18BFD
330
17FB0
100
AcDbEntity
  8
DEFPOINTS
 62
     0
 48
50.0
100
AcDbPoint
 10
11941.615242745
 20
7619.90715514608
 30
0.0
  0
ENDBLK
  5
17FBD
330
17FB0
100
AcDbEntity
  8
0
 48
50.0
100
AcDbBlockEnd
  0
BLOCK
  5
17FC8
330
17FBE
100
AcDbEntity
  8
0
 48
50.0
100
AcDbBlockBegin
  2
*D27
 70
     1
 10
0.0
 20
0.0
 30
0.0
  3
*D27
  1

  0
LINE
  5
18BEA
330
17FBE
100
AcDbEntity
  8
寸法
 62
     0
 48
50.0
370
    -2
100
AcDbLine
 10
11233.11524274502
 20
9794.548171297471
 30
0.0
 11
11701.61524274501
 21
9669.01397464349
 31
0.0
  0
LINE
  5
18BEB
330
17FBE
100
AcDbEntity
  8
寸法
 62
     0
 48
50.0
370
    -2
100
AcDbLine
 10
11233.11524274502
 20
9344.548171297473
 30
0.0
 11
11701.61524274501
 21
9219.013974643493
 31
0.0
  0
LINE
  5
18BEC
330
17FBE
100
AcDbEntity
  8
寸法
 62
     0
 48
50.0
370
    -2
100
AcDbLine
 10
11641.61524274501
 20
9685.090926189356
 30
0.0
 11
11641.61524274501
 21
9235.090926189359
 31
0.0
  0
INSERT
  5
18BED
330
17FBE
100
AcDbEntity
  8
寸法
 62
     0
 48
50.0
370
    -2
100
AcDbBlockReference
  2
_DOTSMALL
 10
11641.61524274501
 20
9685.090926189356
 30
0.0
 41
100.0
 42
100.0
 43
100.0
 50
90.0
  0
INSERT
  5
18BEE
330
17FBE
100
AcDbEntity
  8
寸法
 62
     0
 48
50.0
370
    -2
100
AcDbBlockReference
  2
_DOTSMALL
 10
11641.61524274501
 20
9235.090926189359
 30
0.0
 41
100.0
 42
100.0
 43
100.0
 50
270.0
  0
MTEXT
  5
18BEF
330
17FBE
100
AcDbEntity
  8
寸法
 62
     7
 48
50.0
100
AcDbMText
 10
11541.61524274501
 20
9460.090926189357
 30
0.0
 40
120.0
 41
0.0
 71
     5
 72
     1
  1
\A1;450
  7
STYLE1
 11
0.0000000000000001
 21
1.0
 31
0.0
 73
     1
 44
1.0
1001
ACAD
1000
MTEXTBEGIN
1070
    73
1070
     1
1070
    44
1040
1.0
1070
    74
1070
     0
1000
MTEXTEND
  0
POINT
  5
18BF0
330
17FBE
100
AcDbEntity
  8
DEFPOINTS
 62
     0
 48
50.0
100
AcDbPoint
 10
11213.11524274502
 20
9799.907155146092
 30
0.0
  0
POINT
  5
18BF1
330
17FBE
100
AcDbEntity
  8
DEFPOINTS
 62
     0
 48
50.0
100
AcDbPoint
 10
11213.11524274502
 20
9349.907155146095
 30
0.0
  0
POINT
  5
18BF2
330
17FBE
100
AcDbEntity
  8
DEFPOINTS
 62
     0
 48
50.0
100
AcDbPoint
 10
11641.61524274501
 20
9235.090926189359
 30
0.0
  0
ENDBLK
  5
17FC9
330
17FBE
100
AcDbEntity
  8
0
 48
50.0
100
AcDbBlockEnd
  0
BLOCK
  5
17FD6
330
17FCA
100
AcDbEntity
  8
0
 48
50.0
100
AcDbBlockBegin
  2
*D28
 70
     1
 10
0.0
 20
0.0
 30
0.0
  3
*D28
  1

  0
LINE
  5
18BDF
330
17FCA
100
AcDbEntity
  8
寸法
 62
     0
 48
50.0
370
    -2
100
AcDbLine
 10
11261.61524274502
 20
9829.907155146091
 30
0.0
 11
12001.61524274501
 21
9829.907155146091
 31
0.0
  0
LINE
  5
18BE0
330
17FCA
100
AcDbEntity
  8
寸法
 62
     0
 48
50.0
370
    -2
100
AcDbLine
 10
11261.61524274502
 20
9774.907155146095
 30
0.0
 11
12001.61524274501
 21
9774.907155146095
 31
0.0
  0
LINE
  5
18BE1
330
17FCA
100
AcDbEntity
  8
寸法
 62
     0
 48
50.0
370
    -2
100
AcDbLine
 10
11941.61524274501
 20
9774.907155146095
 30
0.0
 11
11941.61524274501
 21
9674.907155146094
 31
0.0
  0
LINE
  5
18BE2
330
17FCA
100
AcDbEntity
  8
寸法
 62
     0
 48
50.0
370
    -2
100
AcDbLine
 10
11941.61524274501
 20
9829.907155146091
 30
0.0
 11
11941.61524274501
 21
10246.87771789456
 31
0.0
  0
LINE
  5
18BE3
330
17FCA
100
AcDbEntity
  8
寸法
 62
     0
 48
50.0
370
    -2
100
AcDbLine
 10
11941.61524274501
 20
9774.907155146095
 30
0.0
 11
11941.61524274501
 21
9829.907155146091
 31
0.0
  0
INSERT
  5
18BE4
330
17FCA
100
AcDbEntity
  8
寸法
 62
     0
 48
50.0
370
    -2
100
AcDbBlockReference
  2
_DOTSMALL
 10
11941.61524274501
 20
9774.907155146095
 30
0.0
 41
100.0
 42
100.0
 43
100.0
 50
90.0
  0
INSERT
  5
18BE5
330
17FCA
100
AcDbEntity
  8
寸法
 62
     0
 48
50.0
370
    -2
100
AcDbBlockReference
  2
_DOTSMALL
 10
11941.61524274501
 20
9829.907155146091
 30
0.0
 41
100.0
 42
100.0
 43
100.0
 50
270.0
  0
MTEXT
  5
18BE6
330
17FCA
100
AcDbEntity
  8
寸法
 62
     7
 48
50.0
100
AcDbMText
 10
11841.61524274501
 20
10138.39243652033
 30
0.0
 40
120.0
 41
0.0
 71
     5
 72
     1
  1
\A1;55
  7
STYLE1
 11
0.0000000000000001
 21
1.0
 31
0.0
 73
     1
 44
1.0
1001
ACAD
1000
MTEXTBEGIN
1070
    73
1070
     1
1070
    44
1040
1.0
1070
    74
1070
     0
1000
MTEXTEND
  0
POINT
  5
18BE7
330
17FCA
100
AcDbEntity
  8
DEFPOINTS
 62
     0
 48
50.0
100
AcDbPoint
 10
11241.61524274502
 20
9829.907155146091
 30
0.0
  0
POINT
  5
18BE8
330
17FCA
100
AcDbEntity
  8
DEFPOINTS
 62
     0
 48
50.0
100
AcDbPoint
 10
11241.61524274502
 20
9774.907155146095
 30
0.0
  0
POINT
  5
18BE9
330
17FCA
100
AcDbEntity
  8
DEFPOINTS
 62
     0
 48
50.0
100
AcDbPoint
 10
11941.61524274501
 20
9774.907155146095
 30
0.0
  0
ENDBLK
  5
17FD7
330
17FCA
100
AcDbEntity
  8
0
 48
50.0
100
AcDbBlockEnd
  0
BLOCK
  5
17FFC
330
17FF2
100
AcDbEntity
  8
0
 48
50.0
100
AcDbBlockBegin
  2
*D29
 70
     1
 10
0.0
 20
0.0
 30
0.0
  3
*D29
  1

  0
LINE
  5
1844E
330
17FF2
100
AcDbEntity
  8
寸法
 62
     0
 48
50.0
370
    -2
100
AcDbLine
 10
11261.61524274501
 20
2336.775961235217
 30
0.0
 11
11834.45275809241
 21
2336.775961235216
 31
0.0
  0
LINE
  5
1844F
330
17FF2
100
AcDbEntity
  8
寸法
 62
     0
 48
50.0
370
    -2
100
AcDbLine
 10
11341.61524274499
 20
4656.775961235218
 30
0.0
 11
11834.45275809241
 21
4656.775961235218
 31
0.0
  0
LINE
  5
18450
330
17FF2
100
AcDbEntity
  8
寸法
 62
     0
 48
50.0
370
    -2
100
AcDbLine
 10
11774.45275809241
 20
2336.775961235216
 30
0.0
 11
11774.45275809241
 21
4656.775961235218
 31
0.0
  0
INSERT
  5
18451
330
17FF2
100
AcDbEntity
  8
寸法
 62
     0
 48
50.0
370
    -2
100
AcDbBlockReference
  2
_DOTSMALL
 10
11774.45275809241
 20
2336.775961235216
 30
0.0
 41
100.0
 42
100.0
 43
100.0
 50
270.0
  0
INSERT
  5
18452
330
17FF2
100
AcDbEntity
  8
寸法
 62
     0
 48
50.0
370
    -2
100
AcDbBlockReference
  2
_DOTSMALL
 10
11774.45275809241
 20
4656.775961235218
 30
0.0
 41
100.0
 42
100.0
 43
100.0
 50
90.0
  0
MTEXT
  5
18453
330
17FF2
100
AcDbEntity
  8
寸法
 62
     7
 48
50.0
100
AcDbMText
 10
11674.44094706879
 20
3512.219001178124
 30
0.0
 40
120.0
 41
0.0
 71
     5
 72
     1
  1
\A1;2320
  7
STYLE1
 11
0.0000000000000001
 21
1.0
 31
0.0
 73
     1
 44
1.0
1001
ACAD
1000
MTEXTBEGIN
1070
    73
1070
     1
1070
    44
1040
1.0
1070
    74
1070
     0
1000
MTEXTEND
  0
POINT
  5
18454
330
17FF2
100
AcDbEntity
  8
DEFPOINTS
 62
     0
 48
50.0
100
AcDbPoint
 10
11241.61524274501
 20
2336.775961235217
 30
0.0
  0
POINT
  5
18455
330
17FF2
100
AcDbEntity
  8
DEFPOINTS
 62
     0
 48
50.0
100
AcDbPoint
 10
11321.61524274499
 20
4656.775961235218
 30
0.0
  0
POINT
  5
18456
330
17FF2
100
AcDbEntity
  8
DEFPOINTS
 62
     0
 48
50.0
100
AcDbPoint
 10
11774.45275809241
 20
4656.775961235218
 30
0.0
  0
ENDBLK
  5
17FFD
330
17FF2
100
AcDbEntity
  8
0
 48
50.0
100
AcDbBlockEnd
  0
BLOCK
  5
18728
330
1871E
100
AcDbEntity
  8
0
 48
50.0
100
AcDbBlockBegin
  2
*D30
 70
     1
 10
0.0
 20
0.0
 30
0.0
  3
*D30
  1

  0
LINE
  5
18BD6
330
1871E
100
AcDbEntity
  8
寸法
 62
     0
 48
50.0
370
    -2
100
AcDbLine
 10
9098.615242744989
 20
7522.907155146082
 30
0.0
 11
9098.615242744989
 21
6852.51833259753
 31
0.0
  0
LINE
  5
18BD7
330
1871E
100
AcDbEntity
  8
寸法
 62
     0
 48
50.0
370
    -2
100
AcDbLine
 10
10364.61524274499
 20
7522.907155146082
 30
0.0
 11
10364.61524274499
 21
6852.51833259753
 31
0.0
  0
LINE
  5
18BD8
330
1871E
100
AcDbEntity
  8
寸法
 62
     0
 48
50.0
370
    -2
100
AcDbLine
 10
9118.615242744988
 20
6892.518332597531
 30
0.0
 11
10344.61524274499
 21
6892.518332597531
 31
0.0
  0
INSERT
  5
18BD9
330
1871E
100
AcDbEntity
  8
寸法
 62
     0
 48
50.0
370
    -2
100
AcDbBlockReference
  2
_DOT
 10
9098.615242744989
 20
6892.518332597531
 30
0.0
 41
20.0
 42
20.0
 43
20.0
 50
180.0
  0
INSERT
  5
18BDA
330
1871E
100
AcDbEntity
  8
寸法
 62
     0
 48
50.0
370
    -2
100
AcDbBlockReference
  2
_DOT
 10
10364.61524274499
 20
6892.518332597531
 30
0.0
 41
20.0
 42
20.0
 43
20.0
  0
MTEXT
  5
18BDB
330
1871E
100
AcDbEntity
  8
寸法
 62
     7
 48
50.0
100
AcDbMText
 10
9747.487000104943
 20
7084.530143621153
 30
0.0
 40
120.0
 41
0.0
 71
     5
 72
     1
  1
\A1;有効開口部間口\P1266
  7
STYLE1
 73
     1
 44
1.0
1001
ACAD
1000
MTEXTBEGIN
1070
    73
1070
     1
1070
    44
1040
1.0
1070
    74
1070
     0
1000
MTEXTEND
  0
POINT
  5
18BDC
330
1871E
100
AcDbEntity
  8
DEFPOINTS
 62
     0
 48
50.0
100
AcDbPoint
 10
9098.615242744989
 20
7542.907155146082
 30
0.0
  0
POINT
  5
18BDD
330
1871E
100
AcDbEntity
  8
DEFPOINTS
 62
     0
 48
50.0
100
AcDbPoint
 10
10364.61524274499
 20
7542.907155146082
 30
0.0
  0
POINT
  5
18BDE
330
1871E
100
AcDbEntity
  8
DEFPOINTS
 62
     0
 48
50.0
100
AcDbPoint
 10
10364.61524274499
 20
6892.518332597531
 30
0.0
  0
ENDBLK
  5
18729
330
1871E
100
AcDbEntity
  8
0
 48
50.0
100
AcDbBlockEnd
  0
BLOCK
  5
18A6C
330
18A62
100
AcDbEntity
  8
0
 48
50.0
100
AcDbBlockBegin
  2
*D31
 70
     1
 10
0.0
 20
0.0
 30
0.0
  3
*D31
  1

  0
LINE
  5
18BCD
330
18A62
100
AcDbEntity
  8
寸法
 62
     0
 48
50.0
370
    -2
100
AcDbLine
 10
8611.615242745015
 20
7599.907155145918
 30
0.0
 11
8611.615242745015
 21
6303.519638083172
 31
0.0
  0
LINE
  5
18BCE
330
18A62
100
AcDbEntity
  8
寸法
 62
     0
 48
50.0
370
    -2
100
AcDbLine
 10
11241.61524274499
 20
7599.907155146081
 30
0.0
 11
11241.61524274499
 21
6303.519638083172
 31
0.0
  0
LINE
  5
18BCF
330
18A62
100
AcDbEntity
  8
寸法
 62
     0
 48
50.0
370
    -2
100
AcDbLine
 10
8611.615242745015
 20
6363.519638083172
 30
0.0
 11
11241.61524274499
 21
6363.519638083172
 31
0.0
  0
INSERT
  5
18BD0
330
18A62
100
AcDbEntity
  8
寸法
 62
     0
 48
50.0
370
    -2
100
AcDbBlockReference
  2
_DOTSMALL
 10
8611.615242745015
 20
6363.519638083172
 30
0.0
 41
100.0
 42
100.0
 43
100.0
 50
180.0
  0
INSERT
  5
18BD1
330
18A62
100
AcDbEntity
  8
寸法
 62
     0
 48
50.0
370
    -2
100
AcDbBlockReference
  2
_DOTSMALL
 10
11241.61524274499
 20
6363.519638083172
 30
0.0
 41
100.0
 42
100.0
 43
100.0
  0
MTEXT
  5
18BD2
330
18A62
100
AcDbEntity
  8
寸法
 62
     7
 48
50.0
100
AcDbMText
 10
9944.417031381163
 20
6463.531449106795
 30
0.0
 40
120.0
 41
0.0
 71
     5
 72
     1
  1
\A1;2630
  7
STYLE1
 73
     1
 44
1.0
1001
ACAD
1000
MTEXTBEGIN
1070
    73
1070
     1
1070
    44
1040
1.0
1070
    74
1070
     0
1000
MTEXTEND
  0
POINT
  5
18BD3
330
18A62
100
AcDbEntity
  8
DEFPOINTS
 62
     0
 48
50.0
100
AcDbPoint
 10
8611.615242745015
 20
7619.907155145918
 30
0.0
  0
POINT
  5
18BD4
330
18A62
100
AcDbEntity
  8
DEFPOINTS
 62
     0
 48
50.0
100
AcDbPoint
 10
11241.61524274499
 20
7619.907155146082
 30
0.0
  0
POINT
  5
18BD5
330
18A62
100
AcDbEntity
  8
DEFPOINTS
 62
     0
 48
50.0
100
AcDbPoint
 10
11241.61524274499
 20
6363.519638083172
 30
0.0
  0
ENDBLK
  5
18A6D
330
18A62
100
AcDbEntity
  8
0
 48
50.0
100
AcDbBlockEnd
  0
BLOCK
  5
18A7A
330
18A6E
100
AcDbEntity
  8
0
 48
50.0
100
AcDbBlockBegin
  2
*D32
 70
     1
 10
0.0
 20
0.0
 30
0.0
  3
*D32
  1

  0
LINE
  5
18BC2
330
18A6E
100
AcDbEntity
  8
寸法
 62
     0
 48
50.0
370
    -2
100
AcDbLine
 10
8591.615242745014
 20
7619.907155145918
 30
0.0
 11
8277.003997118297
 21
7619.907155145918
 31
0.0
  0
LINE
  5
18BC3
330
18A6E
100
AcDbEntity
  8
寸法
 62
     0
 48
50.0
370
    -2
100
AcDbLine
 10
9039.615242744989
 20
7544.907155145918
 30
0.0
 11
8277.003997118297
 21
7544.907155145918
 31
0.0
  0
LINE
  5
18BC4
330
18A6E
100
AcDbEntity
  8
寸法
 62
     0
 48
50.0
370
    -2
100
AcDbLine
 10
8317.003997118296
 20
7639.907155145919
 30
0.0
 11
8317.003997118296
 21
7659.907155145919
 31
0.0
  0
LINE
  5
18BC5
330
18A6E
100
AcDbEntity
  8
寸法
 62
     0
 48
50.0
370
    -2
100
AcDbLine
 10
8317.003997118296
 20
7524.907155145918
 30
0.0
 11
8317.003997118296
 21
7303.93659239744
 31
0.0
  0
LINE
  5
18BC6
330
18A6E
100
AcDbEntity
  8
寸法
 62
     0
 48
50.0
370
    -2
100
AcDbLine
 10
8317.003997118296
 20
7619.907155145918
 30
0.0
 11
8317.003997118296
 21
7544.907155145918
 31
0.0
  0
INSERT
  5
18BC7
330
18A6E
100
AcDbEntity
  8
寸法
 62
     0
 48
50.0
370
    -2
100
AcDbBlockReference
  2
_DOT
 10
8317.003997118296
 20
7619.907155145918
 30
0.0
 41
20.0
 42
20.0
 43
20.0
 50
270.0
  0
INSERT
  5
18BC8
330
18A6E
100
AcDbEntity
  8
寸法
 62
     0
 48
50.0
370
    -2
100
AcDbBlockReference
  2
_DOT
 10
8317.003997118296
 20
7544.907155145918
 30
0.0
 41
20.0
 42
20.0
 43
20.0
 50
90.0
  0
MTEXT
  5
18BC9
330
18A6E
100
AcDbEntity
  8
寸法
 62
     7
 48
50.0
100
AcDbMText
 10
8225.003997118296
 20
7404.42187377168
 30
0.0
 40
120.0
 41
0.0
 71
     5
 72
     1
  1
\A1;75
  7
STYLE1
 11
0.0000000000000001
 21
1.0
 31
0.0
 73
     1
 44
1.0
1001
ACAD
1000
MTEXTBEGIN
1070
    73
1070
     1
1070
    44
1040
1.0
1070
    74
1070
     0
1000
MTEXTEND
  0
POINT
  5
18BCA
330
18A6E
100
AcDbEntity
  8
DEFPOINTS
 62
     0
 48
50.0
100
AcDbPoint
 10
8611.615242745015
 20
7619.907155145918
 30
0.0
  0
POINT
  5
18BCB
330
18A6E
100
AcDbEntity
  8
DEFPOINTS
 62
     0
 48
50.0
100
AcDbPoint
 10
9059.615242744989
 20
7544.907155145918
 30
0.0
  0
POINT
  5
18BCC
330
18A6E
100
AcDbEntity
  8
DEFPOINTS
 62
     0
 48
50.0
100
AcDbPoint
 10
8317.003997118296
 20
7544.907155145918
 30
0.0
  0
ENDBLK
  5
18A7B
330
18A6E
100
AcDbEntity
  8
0
 48
50.0
100
AcDbBlockEnd
  0
BLOCK
  5
18A86
330
18A7C
100
AcDbEntity
  8
0
 48
50.0
100
AcDbBlockBegin
  2
*D33
 70
     1
 10
0.0
 20
0.0
 30
0.0
  3
*D33
  1

  0
LINE
  5
18BB9
330
18A7C
100
AcDbEntity
  8
寸法
 62
     0
 48
50.0
370
    -2
100
AcDbLine
 10
9059.615242744989
 20
7522.907155145952
 30
0.0
 11
9059.615242744989
 21
6562.777439718185
 31
0.0
  0
LINE
  5
18BBA
330
18A7C
100
AcDbEntity
  8
寸法
 62
     0
 48
50.0
370
    -2
100
AcDbLine
 10
11213.61524274499
 20
7522.907155145952
 30
0.0
 11
11213.61524274499
 21
6562.777439718185
 31
0.0
  0
LINE
  5
18BBB
330
18A7C
100
AcDbEntity
  8
寸法
 62
     0
 48
50.0
370
    -2
100
AcDbLine
 10
9059.615242744989
 20
6622.777439718184
 30
0.0
 11
11213.61524274499
 21
6622.777439718184
 31
0.0
  0
INSERT
  5
18BBC
330
18A7C
100
AcDbEntity
  8
寸法
 62
     0
 48
50.0
370
    -2
100
AcDbBlockReference
  2
_DOTSMALL
 10
9059.615242744989
 20
6622.777439718184
 30
0.0
 41
100.0
 42
100.0
 43
100.0
 50
180.0
  0
INSERT
  5
18BBD
330
18A7C
100
AcDbEntity
  8
寸法
 62
     0
 48
50.0
370
    -2
100
AcDbBlockReference
  2
_DOTSMALL
 10
11213.61524274499
 20
6622.777439718184
 30
0.0
 41
100.0
 42
100.0
 43
100.0
  0
MTEXT
  5
18BBE
330
18A7C
100
AcDbEntity
  8
寸法
 62
     7
 48
50.0
100
AcDbMText
 10
10158.7479994923
 20
6722.789250741806
 30
0.0
 40
120.0
 41
0.0
 71
     5
 72
     1
  1
\A1;2154
  7
STYLE1
 73
     1
 44
1.0
1001
ACAD
1000
MTEXTBEGIN
1070
    73
1070
     1
1070
    44
1040
1.0
1070
    74
1070
     0
1000
MTEXTEND
  0
POINT
  5
18BBF
330
18A7C
100
AcDbEntity
  8
DEFPOINTS
 62
     0
 48
50.0
100
AcDbPoint
 10
9059.615242744989
 20
7542.907155145953
 30
0.0
  0
POINT
  5
18BC0
330
18A7C
100
AcDbEntity
  8
DEFPOINTS
 62
     0
 48
50.0
100
AcDbPoint
 10
11213.61524274499
 20
7542.907155145953
 30
0.0
  0
POINT
  5
18BC1
330
18A7C
100
AcDbEntity
  8
DEFPOINTS
 62
     0
 48
50.0
100
AcDbPoint
 10
11213.61524274499
 20
6622.777439718184
 30
0.0
  0
ENDBLK
  5
18A87
330
18A7C
100
AcDbEntity
  8
0
 48
50.0
100
AcDbBlockEnd
  0
ENDSEC
  0
SECTION
  2
ENTITIES
  0
LINE
  5
10B57
330
747D
100
AcDbEntity
  8
補助
  6
PHANTOM
 62
   230
 48
50.0
100
AcDbLine
 10
139.9999999999995
 20
11409.6
 30
0.0
 11
16307.2
 21
11409.6
 31
0.0
  0
LINE
  5
10B59
330
747D
100
AcDbEntity
  8
仕様書枠
  6
Continuous
 48
50.0
100
AcDbLine
 10
13107.2
 20
1200.0
 30
0.0
 11
13107.2
 21
-0.0000000000000729
 31
0.0
  0
LINE
  5
10B5C
330
747D
100
AcDbEntity
  8
仕様書枠
 48
50.0
100
AcDbLine
 10
16307.2
 20
1200.0
 30
0.0
 11
16307.2
 21
-0.0000000000000909
 31
0.0
  0
LINE
  5
10B5D
330
747D
100
AcDbEntity
  8
仕様書枠
 48
50.0
100
AcDbLine
 10
140.0
 20
0.0
 30
0.0
 11
16307.2
 21
-0.0000000000000909
 31
0.0
  0
LINE
  5
10B5E
330
747D
100
AcDbEntity
  8
補助
  6
PHANTOM
 62
   230
 48
50.0
100
AcDbLine
 10
16307.2
 20
11409.6
 30
0.0
 11
16307.2
 21
1200.0
 31
0.0
  0
LINE
  5
10B6C
330
747D
100
AcDbEntity
  8
仕様書枠
 48
50.0
100
AcDbLine
 10
13107.2
 20
1200.0
 30
0.0
 11
16307.2
 21
1200.0
 31
0.0
  0
LINE
  5
10B6D
330
747D
100
AcDbEntity
  8
補助
  6
PHANTOM
 62
   230
 48
50.0
100
AcDbLine
 10
13107.2
 20
11409.6
 30
0.0
 11
13107.2
 21
4800.0
 31
0.0
  0
LINE
  5
10B6F
330
747D
100
AcDbEntity
  8
補助
  6
PHANTOM
 62
   230
 48
50.0
100
AcDbLine
 10
13107.2
 20
4800.0
 30
0.0
 11
16307.2
 21
4800.0
 31
0.0
  0
LINE
  5
10B72
330
747D
100
AcDbEntity
  8
文字
 62
     7
 48
50.0
100
AcDbLine
 10
13187.2
 20
400.0
 30
0.0
 11
16227.2
 21
400.0
 31
0.0
  0
TEXT
  5
10B73
330
747D
100
AcDbEntity
  8
文字
 62
     7
 48
50.0
100
AcDbText
 10
13162.9790565769
 20
895.0906074299405
 30
0.0
 40
200.0
  1
外 形 図
  7
STYLE2
100
AcDbText
  0
TEXT
  5
10B74
330
747D
100
AcDbEntity
  8
文字
 62
     7
 48
50.0
100
AcDbText
 10
13201.43669998441
 20
477.2740661031255
 30
0.0
 40
160.0
  1
機種名
  7
STYLE2
100
AcDbText
  0
TEXT
  5
10B76
330
747D
100
AcDbEntity
  8
文字
 62
     7
 48
50.0
100
AcDbText
 10
13209.4053442172
 20
76.09434707649343
 30
0.0
 40
100.0
  1
○床面積 ： 5.98㎡(1.81坪) 　
  7
STYLE2
100
AcDbText
  0
TEXT
  5
10B79
330
747D
100
AcDbEntity
  8
文字
 62
     7
 48
50.0
100
AcDbText
 10
14524.131837222
 20
1031.557706291228
 30
0.0
 40
100.0
  1
NO.23     <縮尺> S=1/40
  7
STYLE2
100
AcDbText
  0
LINE
  5
10B7B
330
747D
100
AcDbEntity
  8
仕様書枠
 48
50.0
100
AcDbLine
 10
13107.2
 20
800.0
 30
0.0
 11
14251.2
 21
800.0
 31
0.0
  0
LINE
  5
10B88
330
747D
100
AcDbEntity
  8
仕様書枠
  6
Continuous
 48
50.0
100
AcDbLine
 10
14251.2
 20
1200.0
 30
0.0
 11
14251.2
 21
800.0
 31
0.0
  0
TEXT
  5
15729
330
747D
100
AcDbEntity
  8
文字
 62
     7
 48
50.0
100
AcDbText
 10
14624.86512942918
 20
869.7247441969318
 30
0.0
 40
100.0
  1
～一般型・多雪地型～
  7
STYLE2
100
AcDbText
  0
LINE
  5
17BC0
330
747D
100
AcDbEntity
  8
部品1
100
AcDbLine
 10
11185.115242745
 20
8514.907155146067
 30
0.0
 11
8668.115242745003
 21
8514.907155145966
 31
0.0
  0
LINE
  5
17BC1
330
747D
100
AcDbEntity
  8
部品1
100
AcDbLine
 10
8639.615242744996
 20
8514.907155145966
 30
0.0
 11
8611.615242744996
 21
8514.907155145966
 31
0.0
  0
LINE
  5
17BC2
330
747D
100
AcDbEntity
  8
部品1
100
AcDbLine
 10
11213.61524274502
 20
8514.907155146094
 30
0.0
 11
11241.61524274502
 21
8514.907155146094
 31
0.0
  0
TEXT
  5
17BC3
330
747D
100
AcDbEntity
  8
文字
 62
     7
 48
50.0
100
AcDbText
 10
14798.72402257234
 20
9740.013745883725
 30
0.0
 40
100.0
  1
F12(一般型1.0/多雪地型2.3)
  7
STYLE1
100
AcDbText
  0
TEXT
  5
17BC4
330
747D
100
AcDbEntity
  8
文字
 62
     7
 48
50.0
100
AcDbText
 10
13248.77747366447
 20
8380.013745883728
 30
0.0
 40
100.0
  1
17
  7
STYLE1
100
AcDbText
  0
TEXT
  5
17BC5
330
747D
100
AcDbEntity
  8
文字
 62
     7
 48
50.0
100
AcDbText
 10
13248.77747366447
 20
8550.013745883729
 30
0.0
 40
100.0
  1
16
  7
STYLE1
100
AcDbText
  0
TEXT
  5
17BC6
330
747D
100
AcDbEntity
  8
文字
 62
     7
 48
50.0
100
AcDbText
 10
15022.63965474517
 20
9060.013745883725
 30
0.0
 40
100.0
  1
F12            1.0
  7
STYLE1
100
AcDbText
  0
TEXT
  5
17BC7
330
747D
100
AcDbEntity
  8
文字
 62
     7
 48
50.0
100
AcDbText
 10
13583.11819016569
 20
9060.013745883733
 30
0.0
 40
100.0
  1
壁面扉枠左右
  7
STYLE1
100
AcDbText
  0
TEXT
  5
17BC8
330
747D
100
AcDbEntity
  8
文字
 62
     7
 48
50.0
100
AcDbText
 10
15022.63965474517
 20
9230.013745883725
 30
0.0
 40
100.0
  1
F12            1.0
  7
STYLE1
100
AcDbText
  0
TEXT
  5
17BC9
330
747D
100
AcDbEntity
  8
文字
 62
     7
 48
50.0
100
AcDbText
 10
15022.63965474515
 20
9400.013745883727
 30
0.0
 40
100.0
  1
F12            0.7
  7
STYLE1
100
AcDbText
  0
TEXT
  5
17BCA
330
747D
100
AcDbEntity
  8
文字
 62
     7
 48
50.0
100
AcDbText
 10
13583.11819016569
 20
9230.013745883733
 30
0.0
 40
100.0
  1
壁面扉敷居
  7
STYLE1
100
AcDbText
  0
TEXT
  5
17BCB
330
747D
100
AcDbEntity
  8
文字
 62
     7
 48
50.0
100
AcDbText
 10
13583.11819016569
 20
9400.013745883729
 30
0.0
 40
100.0
  1
壁面扉鴨居
  7
STYLE1
100
AcDbText
  0
LINE
  5
17BCC
330
747D
100
AcDbEntity
  8
仕様書枠
 48
50.0
100
AcDbLine
 10
16307.19999999999
 20
8689.600000000003
 30
0.0
 11
13127.2
 21
8689.600000000005
 31
0.0
  0
LINE
  5
17BCD
330
747D
100
AcDbEntity
  8
仕様書枠
 48
50.0
100
AcDbLine
 10
16307.19999999999
 20
8519.600000000004
 30
0.0
 11
13127.2
 21
8519.600000000005
 31
0.0
  0
TEXT
  5
17BCE
330
747D
100
AcDbEntity
  8
文字
 62
     7
 48
50.0
100
AcDbText
 10
13583.11819016569
 20
8380.013745883728
 30
0.0
 40
100.0
  1
アンカープレート
  7
STYLE1
100
AcDbText
  0
TEXT
  5
17BCF
330
747D
100
AcDbEntity
  8
文字
 62
     7
 48
50.0
100
AcDbText
 10
15022.63965474515
 20
8380.013745883724
 30
0.0
 40
100.0
  1
F12            2.3
  7
STYLE1
100
AcDbText
  0
LINE
  5
17BD0
330
747D
100
AcDbEntity
  8
仕様書枠
 48
50.0
100
AcDbLine
 10
16307.2
 20
10049.6
 30
0.0
 11
13127.2
 21
10049.6
 31
0.0
  0
LINE
  5
17BD1
330
747D
100
AcDbEntity
  8
仕様書枠
 48
50.0
100
AcDbLine
 10
16307.2
 20
11409.59999999999
 30
0.0
 11
13127.2
 21
11409.6
 31
0.0
  0
LINE
  5
17BD2
330
747D
100
AcDbEntity
  8
仕様書枠
 48
50.0
100
AcDbLine
 10
16307.19999999999
 20
8009.600000000004
 30
0.0
 11
16307.2
 21
11409.6
 31
0.0
  0
LINE
  5
17BD3
330
747D
100
AcDbEntity
  8
仕様書枠
 48
50.0
100
AcDbLine
 10
14785.2
 20
11409.59999999999
 30
0.0
 11
14785.2
 21
8349.600000000004
 31
0.0
  0
LINE
  5
17BD4
330
747D
100
AcDbEntity
  8
仕様書枠
 48
50.0
100
AcDbLine
 10
13490.2
 20
11409.59999999999
 30
0.0
 11
13490.20000000001
 21
8349.600000000007
 31
0.0
  0
LINE
  5
17BD5
330
747D
100
AcDbEntity
  8
仕様書枠
 48
50.0
100
AcDbLine
 10
16307.2
 20
11239.59999999999
 30
0.0
 11
13127.2
 21
11239.6
 31
0.0
  0
LINE
  5
17BD6
330
747D
100
AcDbEntity
  8
仕様書枠
 48
50.0
100
AcDbLine
 10
16307.2
 20
10899.6
 30
0.0
 11
13127.2
 21
10899.6
 31
0.0
  0
LINE
  5
17BD7
330
747D
100
AcDbEntity
  8
仕様書枠
 48
50.0
100
AcDbLine
 10
16307.2
 20
11069.59999999999
 30
0.0
 11
13127.2
 21
11069.6
 31
0.0
  0
LINE
  5
17BD8
330
747D
100
AcDbEntity
  8
仕様書枠
 48
50.0
100
AcDbLine
 10
16307.19999999999
 20
10559.6
 30
0.0
 11
13127.2
 21
10559.6
 31
0.0
  0
LINE
  5
17BD9
330
747D
100
AcDbEntity
  8
仕様書枠
 48
50.0
100
AcDbLine
 10
16307.19999999999
 20
10389.6
 30
0.0
 11
13127.2
 21
10389.6
 31
0.0
  0
LINE
  5
17BDA
330
747D
100
AcDbEntity
  8
仕様書枠
 48
50.0
100
AcDbLine
 10
16307.19999999999
 20
10729.59999999999
 30
0.0
 11
13127.2
 21
10729.6
 31
0.0
  0
TEXT
  5
17BDB
330
747D
100
AcDbEntity
  8
文字
 62
     7
 48
50.0
100
AcDbText
 10
13197.42518560407
 20
11270.01374588372
 30
0.0
 40
100.0
  1
品番
  7
STYLE1
100
AcDbText
  0
TEXT
  5
17BDC
330
747D
100
AcDbEntity
  8
文字
 62
     7
 48
50.0
100
AcDbText
 10
13271.19032244792
 20
11100.01374588373
 30
0.0
 40
100.0
  1
1
  7
STYLE1
100
AcDbText
  0
TEXT
  5
17BDD
330
747D
100
AcDbEntity
  8
文字
 62
     7
 48
50.0
100
AcDbText
 10
13271.19032244792
 20
10930.01374588373
 30
0.0
 40
100.0
  1
2
  7
STYLE1
100
AcDbText
  0
TEXT
  5
17BDE
330
747D
100
AcDbEntity
  8
文字
 62
     7
 48
50.0
100
AcDbText
 10
13271.19032244792
 20
10590.01374588373
 30
0.0
 40
100.0
  1
4
  7
STYLE1
100
AcDbText
  0
TEXT
  5
17BDF
330
747D
100
AcDbEntity
  8
文字
 62
     7
 48
50.0
100
AcDbText
 10
13271.19032244792
 20
10760.01374588373
 30
0.0
 40
100.0
  1
3
  7
STYLE1
100
AcDbText
  0
TEXT
  5
17BE0
330
747D
100
AcDbEntity
  8
文字
 62
     7
 48
50.0
100
AcDbText
 10
13732.03840939434
 20
11270.01374588372
 30
0.0
 40
100.0
  1
部　　品　　名
  7
STYLE1
100
AcDbText
  0
TEXT
  5
17BE1
330
747D
100
AcDbEntity
  8
文字
 62
     7
 48
50.0
100
AcDbText
 10
14859.79774614482
 20
11270.01374588372
 30
0.0
 40
100.0
  1
材料（材質）　　単位mm
  7
STYLE1
100
AcDbText
  0
TEXT
  5
17BE2
330
747D
100
AcDbEntity
  8
文字
 62
     7
 48
50.0
100
AcDbText
 10
13583.11819016569
 20
11100.01374588372
 30
0.0
 40
100.0
  1
土台枠
  7
STYLE1
100
AcDbText
  0
TEXT
  5
17BE3
330
747D
100
AcDbEntity
  8
文字
 62
     7
 48
50.0
100
AcDbText
 10
13583.1181901657
 20
10760.01374588372
 30
0.0
 40
100.0
  1
柱
  7
STYLE1
100
AcDbText
  0
TEXT
  5
17BE4
330
747D
100
AcDbEntity
  8
文字
 62
     7
 48
50.0
100
AcDbText
 10
13583.11819016569
 20
10420.01374588373
 30
0.0
 40
100.0
  1
桁前後
  7
STYLE1
100
AcDbText
  0
TEXT
  5
17BE5
330
747D
100
AcDbEntity
  8
文字
 62
     7
 48
50.0
100
AcDbText
 10
13271.19032244792
 20
10420.01374588372
 30
0.0
 40
100.0
  1
5
  7
STYLE1
100
AcDbText
  0
TEXT
  5
17BE6
330
747D
100
AcDbEntity
  8
文字
 62
     7
 48
50.0
100
AcDbText
 10
13583.11819016569
 20
10250.01374588373
 30
0.0
 40
100.0
  1
妻板左右
  7
STYLE1
100
AcDbText
  0
TEXT
  5
17BE7
330
747D
100
AcDbEntity
  8
文字
 62
     7
 48
50.0
100
AcDbText
 10
13248.77747366447
 20
9570.013745883727
 30
0.0
 40
100.0
  1
10
  7
STYLE1
100
AcDbText
  0
TEXT
  5
17BE8
330
747D
100
AcDbEntity
  8
文字
 62
     7
 48
50.0
100
AcDbText
 10
13583.11819016568
 20
9570.013745883729
 30
0.0
 40
100.0
  1
壁パネル
  7
STYLE1
100
AcDbText
  0
TEXT
  5
17BE9
330
747D
100
AcDbEntity
  8
文字
 62
     7
 48
50.0
100
AcDbText
 10
13583.11819016569
 20
9910.013745883727
 30
0.0
 40
100.0
  1
屋根パネル
  7
STYLE1
100
AcDbText
  0
TEXT
  5
17BEA
330
747D
100
AcDbEntity
  8
文字
 62
     7
 48
50.0
100
AcDbText
 10
13583.11819016569
 20
10080.01374588372
 30
0.0
 40
100.0
  1
鼻隠シ前後
  7
STYLE1
100
AcDbText
  0
TEXT
  5
17BEB
330
747D
100
AcDbEntity
  8
文字
 62
     7
 48
50.0
100
AcDbText
 10
13271.19032244792
 20
9910.01374588373
 30
0.0
 40
100.0
  1
8
  7
STYLE1
100
AcDbText
  0
TEXT
  5
17BEC
330
747D
100
AcDbEntity
  8
文字
 62
     7
 48
50.0
100
AcDbText
 10
13271.19032244792
 20
9740.013745883729
 30
0.0
 40
100.0
  1
9
  7
STYLE1
100
AcDbText
  0
TEXT
  5
17BED
330
747D
100
AcDbEntity
  8
文字
 62
     7
 48
50.0
100
AcDbText
 10
13271.19032244792
 20
10080.01374588373
 30
0.0
 40
100.0
  1
7
  7
STYLE1
100
AcDbText
  0
TEXT
  5
17BEE
330
747D
100
AcDbEntity
  8
文字
 62
     7
 48
50.0
100
AcDbText
 10
13271.19032244792
 20
10250.01374588373
 30
0.0
 40
100.0
  1
6
  7
STYLE1
100
AcDbText
  0
LINE
  5
17BEF
330
747D
100
AcDbEntity
  8
仕様書枠
 48
50.0
100
AcDbLine
 10
16307.19999999999
 20
9709.6
 30
0.0
 11
13127.2
 21
9709.600000000001
 31
0.0
  0
LINE
  5
17BF0
330
747D
100
AcDbEntity
  8
仕様書枠
 48
50.0
100
AcDbLine
 10
16307.19999999999
 20
9369.599999999998
 30
0.0
 11
13127.2
 21
9369.600000000001
 31
0.0
  0
LINE
  5
17BF1
330
747D
100
AcDbEntity
  8
仕様書枠
 48
50.0
100
AcDbLine
 10
16307.19999999999
 20
9539.599999999998
 30
0.0
 11
13127.2
 21
9539.6
 31
0.0
  0
LINE
  5
17BF2
330
747D
100
AcDbEntity
  8
仕様書枠
 48
50.0
100
AcDbLine
 10
16307.2
 20
10219.6
 30
0.0
 11
13127.2
 21
10219.6
 31
0.0
  0
LINE
  5
17BF3
330
747D
100
AcDbEntity
  8
仕様書枠
 48
50.0
100
AcDbLine
 10
16307.2
 20
9879.599999999999
 30
0.0
 11
13127.2
 21
9879.600000000001
 31
0.0
  0
TEXT
  5
17BF4
330
747D
100
AcDbEntity
  8
文字
 62
     7
 48
50.0
100
AcDbText
 10
13248.77747366447
 20
9400.013745883727
 30
0.0
 40
100.0
  1
11
  7
STYLE1
100
AcDbText
  0
LINE
  5
17BF5
330
747D
100
AcDbEntity
  8
仕様書枠
 48
50.0
100
AcDbLine
 10
16307.19999999999
 20
9199.599999999998
 30
0.0
 11
13127.2
 21
9199.600000000001
 31
0.0
  0
LINE
  5
17BF6
330
747D
100
AcDbEntity
  8
仕様書枠
 48
50.0
100
AcDbLine
 10
16307.19999999999
 20
8859.6
 30
0.0
 11
13127.2
 21
8859.600000000002
 31
0.0
  0
TEXT
  5
17BF7
330
747D
100
AcDbEntity
  8
文字
 62
     7
 48
50.0
100
AcDbText
 10
13248.77747366448
 20
9060.013745883727
 30
0.0
 40
100.0
  1
13
  7
STYLE1
100
AcDbText
  0
TEXT
  5
17BF8
330
747D
100
AcDbEntity
  8
文字
 62
     7
 48
50.0
100
AcDbText
 10
13248.77747366448
 20
9230.013745883727
 30
0.0
 40
100.0
  1
12
  7
STYLE1
100
AcDbText
  0
TEXT
  5
17BF9
330
747D
100
AcDbEntity
  8
文字
 62
     7
 48
50.0
100
AcDbText
 10
15022.63965474517
 20
11100.01374588372
 30
0.0
 40
100.0
  1
F12            1.2
  7
STYLE1
100
AcDbText
  0
TEXT
  5
17BFA
330
747D
100
AcDbEntity
  8
文字
 62
     7
 48
50.0
100
AcDbText
 10
15022.63965474518
 20
10760.01374588372
 30
0.0
 40
100.0
  1
F12            1.0
  7
STYLE1
100
AcDbText
  0
TEXT
  5
17BFB
330
747D
100
AcDbEntity
  8
文字
 62
     7
 48
50.0
100
AcDbText
 10
15022.63965474516
 20
10420.01374588372
 30
0.0
 40
100.0
  1
Y10            1.0
  7
STYLE1
100
AcDbText
  0
TEXT
  5
17BFC
330
747D
100
AcDbEntity
  8
文字
 62
     7
 48
50.0
100
AcDbText
 10
15022.63965474516
 20
10250.01374588372
 30
0.0
 40
100.0
  1
Y10            0.7
  7
STYLE1
100
AcDbText
  0
TEXT
  5
17BFD
330
747D
100
AcDbEntity
  8
文字
 62
     7
 48
50.0
100
AcDbText
 10
15022.63965474516
 20
10080.01374588372
 30
0.0
 40
100.0
  1
Y10            0.7
  7
STYLE1
100
AcDbText
  0
TEXT
  5
17BFE
330
747D
100
AcDbEntity
  8
文字
 62
     7
 48
50.0
100
AcDbText
 10
15022.63965474517
 20
9910.013745883725
 30
0.0
 40
100.0
  1
Y10            0.5
  7
STYLE1
100
AcDbText
  0
TEXT
  5
17BFF
330
747D
100
AcDbEntity
  8
文字
 62
     7
 48
50.0
100
AcDbText
 10
15022.63965474515
 20
9570.013745883725
 30
0.0
 40
100.0
  1
F12            0.7
  7
STYLE1
100
AcDbText
  0
LINE
  5
17C00
330
747D
100
AcDbEntity
  8
仕様書枠
 48
50.0
100
AcDbLine
 10
16307.19999999999
 20
8349.600000000004
 30
0.0
 11
13127.19999999999
 21
8349.600000000007
 31
0.0
  0
LINE
  5
17C01
330
747D
100
AcDbEntity
  8
仕様書枠
 48
50.0
100
AcDbLine
 10
16307.19999999999
 20
8179.600000000004
 30
0.0
 11
13127.19999999999
 21
8179.600000000005
 31
0.0
  0
TEXT
  5
17C02
330
747D
100
AcDbEntity
  8
文字
 62
     7
 48
50.0
100
AcDbText
 10
13229.83081656554
 20
8210.013745883733
 30
0.0
 40
100.0
  1
F12→溶融亜鉛めっき鋼板(JIS G 3302)
  7
STYLE1
100
AcDbText
  0
TEXT
  5
17C03
330
747D
100
AcDbEntity
  8
文字
 62
     7
 48
50.0
100
AcDbText
 10
13229.83081656554
 20
8040.013745883731
 30
0.0
 40
100.0
  1
Y10→溶融亜鉛-5％アルミニウム合金めっき鋼板(JIS G 3317)
 41
0.9
  7
STYLE1
100
AcDbText
  0
LINE
  5
17C04
330
747D
100
AcDbEntity
  8
仕様書枠
 48
50.0
100
AcDbLine
 10
13127.2
 20
11409.6
 30
0.0
 11
13127.19999999999
 21
8009.600000000006
 31
0.0
  0
LINE
  5
17C05
330
747D
100
AcDbEntity
  8
仕様書枠
 48
50.0
100
AcDbLine
 10
16307.19999999999
 20
9029.6
 30
0.0
 11
13127.2
 21
9029.600000000002
 31
0.0
  0
TEXT
  5
17C06
330
747D
100
AcDbEntity
  8
文字
 62
     7
 48
50.0
100
AcDbText
 10
13583.1181901657
 20
10590.01374588372
 30
0.0
 40
100.0
  1
床パネル
 41
0.9
  7
STYLE1
100
AcDbText
  0
TEXT
  5
17C07
330
747D
100
AcDbEntity
  8
文字
 62
     7
 48
50.0
100
AcDbText
 10
13583.11819016569
 20
10930.01374588372
 30
0.0
 40
100.0
  1
根太
  7
STYLE1
100
AcDbText
  0
TEXT
  5
17C08
330
747D
100
AcDbEntity
  8
文字
 62
     7
 48
50.0
100
AcDbText
 10
13248.77747366448
 20
8890.013745883727
 30
0.0
 40
100.0
  1
14
  7
STYLE1
100
AcDbText
  0
TEXT
  5
17C09
330
747D
100
AcDbEntity
  8
文字
 62
     7
 48
50.0
100
AcDbText
 10
15022.63965474516
 20
10930.01374588372
 30
0.0
 40
100.0
  1
F12            1.2
  7
STYLE1
100
AcDbText
  0
TEXT
  5
17C0A
330
747D
100
AcDbEntity
  8
文字
 62
     7
 48
50.0
100
AcDbText
 10
15022.63965474517
 20
10590.01374588372
 30
0.0
 40
100.0
  1
F12            1.0
  7
STYLE1
100
AcDbText
  0
TEXT
  5
17C0B
330
747D
100
AcDbEntity
  8
文字
 62
     7
 48
50.0
100
AcDbText
 10
15022.63965474515
 20
8890.013745883727
 30
0.0
 40
100.0
  1
F12            0.7
  7
STYLE1
100
AcDbText
  0
TEXT
  5
17C0C
330
747D
100
AcDbEntity
  8
文字
 62
     7
 48
50.0
100
AcDbText
 10
13583.11819016568
 20
8890.013745883731
 30
0.0
 40
100.0
  1
正面パネル
  7
STYLE1
100
AcDbText
  0
TEXT
  5
17C0D
330
747D
100
AcDbEntity
  8
文字
 62
     7
 48
50.0
100
AcDbText
 10
15022.63965474516
 20
8720.013745883727
 30
0.0
 40
100.0
  1
F12            0.8
  7
STYLE1
100
AcDbText
  0
TEXT
  5
17C0E
330
747D
100
AcDbEntity
  8
文字
 62
     7
 48
50.0
100
AcDbText
 10
13583.11819016569
 20
8720.013745883731
 30
0.0
 40
100.0
  1
扉
  7
STYLE1
100
AcDbText
  0
LINE
  5
17C0F
330
747D
100
AcDbEntity
  8
仕様書枠
 48
50.0
100
AcDbLine
 10
16307.19999999999
 20
8009.600000000004
 30
0.0
 11
13127.19999999999
 21
8009.600000000006
 31
0.0
  0
TEXT
  5
17C10
330
747D
100
AcDbEntity
  8
文字
 62
     7
 48
50.0
100
AcDbText
 10
13248.77747366447
 20
8720.013745883729
 30
0.0
 40
100.0
  1
15
  7
STYLE1
100
AcDbText
  0
TEXT
  5
17C11
330
747D
100
AcDbEntity
  8
文字
 62
     7
 48
50.0
100
AcDbText
 10
13583.11819016569
 20
9740.013745883729
 30
0.0
 40
100.0
  1
母屋中
  7
STYLE1
100
AcDbText
  0
TEXT
  5
17C12
330
747D
100
AcDbEntity
  8
文字
 62
     7
 48
50.0
100
AcDbText
 10
15022.63965474516
 20
8550.013745883727
 30
0.0
 40
100.0
  1
F12            0.6
  7
STYLE1
100
AcDbText
  0
TEXT
  5
17C13
330
747D
100
AcDbEntity
  8
文字
 62
     7
 48
50.0
100
AcDbText
 10
13583.11819016569
 20
8550.013745883731
 30
0.0
 40
100.0
  1
棚板
  7
STYLE1
100
AcDbText
  0
LINE
  5
17C14
330
747D
100
AcDbEntity
  8
部品1
100
AcDbLine
 10
6502.018213407751
 20
2336.775961235219
 30
0.0
 11
6509.518213407755
 21
2336.775961235219
 31
0.0
  0
LINE
  5
17C15
330
747D
100
AcDbEntity
  8
部品1
100
AcDbLine
 10
4347.018213407751
 20
2336.775961235219
 30
0.0
 11
6462.018213407751
 21
2336.775961235219
 31
0.0
  0
LINE
  5
17C16
330
747D
100
AcDbEntity
  8
細線
 48
50.0
100
AcDbLine
 10
5692.018213407755
 20
4476.77596123522
 30
0.0
 11
5692.018213407755
 21
2386.775961235219
 31
0.0
  0
LINE
  5
17C17
330
747D
100
AcDbEntity
  8
細線
 48
50.0
100
AcDbLine
 10
5677.018213407755
 20
4476.77596123522
 30
0.0
 11
5677.018213407755
 21
2386.775961235219
 31
0.0
  0
LINE
  5
17C18
330
747D
100
AcDbEntity
  8
細線
 48
50.0
100
AcDbLine
 10
5817.018213407755
 20
4476.77596123522
 30
0.0
 11
5817.018213407755
 21
2386.775961235219
 31
0.0
  0
LINE
  5
17C19
330
747D
100
AcDbEntity
  8
細線
 48
50.0
100
AcDbLine
 10
5832.018213407755
 20
4476.77596123522
 30
0.0
 11
5832.018213407755
 21
2386.775961235219
 31
0.0
  0
LINE
  5
17C1A
330
747D
100
AcDbEntity
  8
細線
 48
50.0
100
AcDbLine
 10
5972.018213407755
 20
4476.77596123522
 30
0.0
 11
5972.018213407755
 21
2386.775961235219
 31
0.0
  0
LINE
  5
17C1B
330
747D
100
AcDbEntity
  8
細線
 48
50.0
100
AcDbLine
 10
5957.018213407755
 20
4476.77596123522
 30
0.0
 11
5957.018213407755
 21
2386.775961235219
 31
0.0
  0
LINE
  5
17C1C
330
747D
100
AcDbEntity
  8
部品1
100
AcDbLine
 10
6034.518213407751
 20
4476.77596123522
 30
0.0
 11
6034.518213407751
 21
2386.775961235219
 31
0.0
  0
LINE
  5
17C1D
330
747D
100
AcDbEntity
  8
部品1
100
AcDbLine
 10
4299.518213407751
 20
4476.77596123522
 30
0.0
 11
6509.518213407755
 21
4476.77596123522
 31
0.0
  0
LINE
  5
17C1E
330
747D
100
AcDbEntity
  8
部品1
100
AcDbLine
 10
4299.518213407751
 20
2386.775961235219
 30
0.0
 11
6509.518213407755
 21
2386.775961235219
 31
0.0
  0
LINE
  5
17C1F
330
747D
100
AcDbEntity
  8
部品1
100
AcDbLine
 10
4354.518213407751
 20
4476.77596123522
 30
0.0
 11
4354.518213407751
 21
2386.775961235219
 31
0.0
  0
LINE
  5
17C20
330
747D
100
AcDbEntity
  8
部品1
100
AcDbLine
 10
4299.518213407755
 20
4570.775961235224
 30
0.0
 11
4299.518213407751
 21
2236.775961235219
 31
0.0
  0
LINE
  5
17C21
330
747D
100
AcDbEntity
  8
部品1
100
AcDbLine
 10
4774.518213407751
 20
4476.77596123522
 30
0.0
 11
4774.518213407751
 21
2386.775961235219
 31
0.0
  0
LINE
  5
17C22
330
747D
100
AcDbEntity
  8
部品1
100
AcDbLine
 10
6509.518213407751
 20
4570.775961235227
 30
0.0
 11
6509.518213407755
 21
2236.775961235219
 31
0.0
  0
LINE
  5
17C23
330
747D
100
AcDbEntity
  8
部品1
100
AcDbLine
 10
6454.518213407755
 20
4476.77596123522
 30
0.0
 11
6454.518213407755
 21
2386.775961235219
 31
0.0
  0
LINE
  5
17C24
330
747D
100
AcDbEntity
  8
部品1
100
AcDbLine
 10
4299.518213407751
 20
2336.775961235219
 30
0.0
 11
4307.018213407751
 21
2336.775961235219
 31
0.0
  0
LINE
  5
17C25
330
747D
100
AcDbEntity
  8
細線
 48
50.0
100
AcDbLine
 10
4852.018213407752
 20
4476.77596123522
 30
0.0
 11
4852.018213407752
 21
2386.775961235219
 31
0.0
  0
LINE
  5
17C26
330
747D
100
AcDbEntity
  8
細線
 48
50.0
100
AcDbLine
 10
4837.018213407752
 20
4476.77596123522
 30
0.0
 11
4837.018213407752
 21
2386.775961235219
 31
0.0
  0
LINE
  5
17C27
330
747D
100
AcDbEntity
  8
細線
 48
50.0
100
AcDbLine
 10
4977.018213407752
 20
4476.77596123522
 30
0.0
 11
4977.018213407752
 21
2386.775961235219
 31
0.0
  0
LINE
  5
17C28
330
747D
100
AcDbEntity
  8
細線
 48
50.0
100
AcDbLine
 10
4992.018213407751
 20
4476.77596123522
 30
0.0
 11
4992.018213407751
 21
2386.775961235219
 31
0.0
  0
LINE
  5
17C29
330
747D
100
AcDbEntity
  8
細線
 48
50.0
100
AcDbLine
 10
5132.018213407751
 20
4476.77596123522
 30
0.0
 11
5132.018213407751
 21
2386.775961235219
 31
0.0
  0
LINE
  5
17C2A
330
747D
100
AcDbEntity
  8
細線
 48
50.0
100
AcDbLine
 10
5117.018213407751
 20
4476.77596123522
 30
0.0
 11
5117.018213407751
 21
2386.775961235219
 31
0.0
  0
LINE
  5
17C2B
330
747D
100
AcDbEntity
  8
細線
 48
50.0
100
AcDbLine
 10
4697.01821340775
 20
4476.77596123522
 30
0.0
 11
4697.01821340775
 21
2386.775961235219
 31
0.0
  0
LINE
  5
17C2C
330
747D
100
AcDbEntity
  8
細線
 48
50.0
100
AcDbLine
 10
4712.018213407751
 20
4476.77596123522
 30
0.0
 11
4712.018213407751
 21
2386.775961235219
 31
0.0
  0
LINE
  5
17C2D
330
747D
100
AcDbEntity
  8
細線
 48
50.0
100
AcDbLine
 10
4572.01821340775
 20
4476.77596123522
 30
0.0
 11
4572.01821340775
 21
2386.775961235219
 31
0.0
  0
LINE
  5
17C2E
330
747D
100
AcDbEntity
  8
細線
 48
50.0
100
AcDbLine
 10
4557.018213407751
 20
4476.77596123522
 30
0.0
 11
4557.018213407751
 21
2386.775961235219
 31
0.0
  0
LINE
  5
17C2F
330
747D
100
AcDbEntity
  8
細線
 48
50.0
100
AcDbLine
 10
4417.018213407751
 20
4476.77596123522
 30
0.0
 11
4417.018213407751
 21
2386.775961235219
 31
0.0
  0
LINE
  5
17C30
330
747D
100
AcDbEntity
  8
細線
 48
50.0
100
AcDbLine
 10
4432.018213407751
 20
4476.77596123522
 30
0.0
 11
4432.018213407751
 21
2386.775961235219
 31
0.0
  0
LINE
  5
17C31
330
747D
100
AcDbEntity
  8
部品1
100
AcDbLine
 10
5194.518213407751
 20
4476.77596123522
 30
0.0
 11
5194.518213407751
 21
2386.775961235219
 31
0.0
  0
LINE
  5
17C32
330
747D
100
AcDbEntity
  8
細線
 48
50.0
100
AcDbLine
 10
5537.018213407755
 20
4476.77596123522
 30
0.0
 11
5537.018213407755
 21
2386.775961235219
 31
0.0
  0
LINE
  5
17C33
330
747D
100
AcDbEntity
  8
細線
 48
50.0
100
AcDbLine
 10
5552.018213407755
 20
4476.77596123522
 30
0.0
 11
5552.018213407755
 21
2386.775961235219
 31
0.0
  0
LINE
  5
17C34
330
747D
100
AcDbEntity
  8
細線
 48
50.0
100
AcDbLine
 10
5412.018213407755
 20
4476.77596123522
 30
0.0
 11
5412.018213407755
 21
2386.775961235219
 31
0.0
  0
LINE
  5
17C35
330
747D
100
AcDbEntity
  8
細線
 48
50.0
100
AcDbLine
 10
5397.018213407755
 20
4476.77596123522
 30
0.0
 11
5397.018213407755
 21
2386.775961235219
 31
0.0
  0
LINE
  5
17C36
330
747D
100
AcDbEntity
  8
細線
 48
50.0
100
AcDbLine
 10
5257.018213407754
 20
4476.77596123522
 30
0.0
 11
5257.018213407754
 21
2386.775961235219
 31
0.0
  0
LINE
  5
17C37
330
747D
100
AcDbEntity
  8
細線
 48
50.0
100
AcDbLine
 10
5272.018213407755
 20
4476.77596123522
 30
0.0
 11
5272.018213407755
 21
2386.775961235219
 31
0.0
  0
LINE
  5
17C38
330
747D
100
AcDbEntity
  8
部品1
100
AcDbLine
 10
5614.518213407752
 20
4476.77596123522
 30
0.0
 11
5614.518213407752
 21
2386.775961235219
 31
0.0
  0
LINE
  5
17C39
330
747D
100
AcDbEntity
  8
細線
 48
50.0
100
AcDbLine
 10
6112.018213407758
 20
4476.77596123522
 30
0.0
 11
6112.018213407758
 21
2386.775961235219
 31
0.0
  0
LINE
  5
17C3A
330
747D
100
AcDbEntity
  8
細線
 48
50.0
100
AcDbLine
 10
6097.018213407759
 20
4476.77596123522
 30
0.0
 11
6097.018213407759
 21
2386.775961235219
 31
0.0
  0
LINE
  5
17C3B
330
747D
100
AcDbEntity
  8
細線
 48
50.0
100
AcDbLine
 10
6237.018213407758
 20
4476.77596123522
 30
0.0
 11
6237.018213407758
 21
2386.775961235219
 31
0.0
  0
LINE
  5
17C3C
330
747D
100
AcDbEntity
  8
細線
 48
50.0
100
AcDbLine
 10
6252.018213407758
 20
4476.77596123522
 30
0.0
 11
6252.018213407758
 21
2386.775961235219
 31
0.0
  0
LINE
  5
17C3D
330
747D
100
AcDbEntity
  8
細線
 48
50.0
100
AcDbLine
 10
6392.018213407759
 20
4476.77596123522
 30
0.0
 11
6392.018213407759
 21
2386.775961235219
 31
0.0
  0
LINE
  5
17C3E
330
747D
100
AcDbEntity
  8
細線
 48
50.0
100
AcDbLine
 10
6377.018213407758
 20
4476.77596123522
 30
0.0
 11
6377.018213407758
 21
2386.775961235219
 31
0.0
  0
TEXT
  5
17C3F
330
747D
100
AcDbEntity
  8
部品1
100
AcDbText
 10
5112.228981717141
 20
1354.844169039284
 30
0.0
 40
135.0
  1
側面図
  7
STYLE2
100
AcDbText
  0
LINE
  5
17C40
330
747D
100
AcDbEntity
  8
部品1
100
AcDbLine
 10
5022.782880293533
 20
1547.737698257809
 30
0.0
 11
5022.782880293533
 21
1307.845376712276
 31
0.0
  0
LINE
  5
17C41
330
747D
100
AcDbEntity
  8
部品1
100
AcDbLine
 10
5022.782880293533
 20
1307.845376712276
 30
0.0
 11
5786.25354652197
 21
1307.845376712276
 31
0.0
  0
LINE
  5
17C42
330
747D
100
AcDbEntity
  8
部品1
100
AcDbLine
 10
5786.25354652197
 20
1307.845376712276
 30
0.0
 11
5786.25354652197
 21
1547.737698257809
 31
0.0
  0
LINE
  5
17C43
330
747D
100
AcDbEntity
  8
部品1
100
AcDbLine
 10
5786.25354652197
 20
1547.737698257809
 30
0.0
 11
5022.782880293533
 21
1547.737698257809
 31
0.0
  0
LINE
  5
17C44
330
747D
100
AcDbEntity
  8
部品1
100
AcDbLine
 10
4299.518213407751
 20
2336.775961235219
 30
0.0
 11
4307.018213407751
 21
2336.775961235219
 31
0.0
  0
LINE
  5
17C45
330
747D
100
AcDbEntity
  8
破線
  6
HIDDEN
 48
5.0
100
AcDbLine
 10
6517.018213407752
 20
2081.775961235219
 30
0.0
 11
6447.018213407751
 21
2081.775961235219
 31
0.0
  0
LINE
  5
17C46
330
747D
100
AcDbEntity
  8
破線
  6
HIDDEN
 48
5.0
100
AcDbLine
 10
6462.018213407751
 20
2231.77596123522
 30
0.0
 11
6447.018213407751
 21
2084.075961235219
 31
0.0
  0
LINE
  5
17C47
330
747D
100
AcDbEntity
  8
破線
  6
HIDDEN
 48
5.0
100
AcDbLine
 10
6447.018213407751
 20
2084.075961235219
 30
0.0
 11
6447.018213407751
 21
2081.775961235219
 31
0.0
  0
LINE
  5
17C48
330
747D
100
AcDbEntity
  8
破線
  6
HIDDEN
 48
5.0
100
AcDbLine
 10
6502.018213407751
 20
2231.77596123522
 30
0.0
 11
6517.018213407752
 21
2084.075961235219
 31
0.0
  0
LINE
  5
17C49
330
747D
100
AcDbEntity
  8
破線
  6
HIDDEN
 48
5.0
100
AcDbLine
 10
6517.018213407752
 20
2084.075961235219
 30
0.0
 11
6517.018213407752
 21
2081.775961235219
 31
0.0
  0
LINE
  5
17C4A
330
747D
100
AcDbEntity
  8
破線
  6
HIDDEN
 48
5.0
100
AcDbLine
 10
4292.018213407751
 20
2081.775961235219
 30
0.0
 11
4362.018213407751
 21
2081.775961235219
 31
0.0
  0
LINE
  5
17C4B
330
747D
100
AcDbEntity
  8
破線
  6
HIDDEN
 48
5.0
100
AcDbLine
 10
4292.018213407751
 20
2084.075961235219
 30
0.0
 11
4292.018213407751
 21
2081.775961235219
 31
0.0
  0
LINE
  5
17C4C
330
747D
100
AcDbEntity
  8
破線
  6
HIDDEN
 48
5.0
100
AcDbLine
 10
4362.018213407751
 20
2084.075961235219
 30
0.0
 11
4362.018213407751
 21
2081.775961235219
 31
0.0
  0
LINE
  5
17C4D
330
747D
100
AcDbEntity
  8
破線
  6
HIDDEN
 48
5.0
100
AcDbLine
 10
4307.018213407751
 20
2231.77596123522
 30
0.0
 11
4292.018213407751
 21
2084.075961235219
 31
0.0
  0
LINE
  5
17C4E
330
747D
100
AcDbEntity
  8
破線
  6
HIDDEN
 48
5.0
100
AcDbLine
 10
4347.018213407751
 20
2231.77596123522
 30
0.0
 11
4362.018213407751
 21
2084.075961235219
 31
0.0
  0
LINE
  5
17C4F
330
747D
100
AcDbEntity
  8
部品1
 48
50.0
100
AcDbLine
 10
4307.018213407751
 20
2376.775961235219
 30
0.0
 11
4307.018213407751
 21
2236.775961235219
 31
0.0
  0
LINE
  5
17C50
330
747D
100
AcDbEntity
  8
部品1
 48
50.0
100
AcDbLine
 10
4347.018213407751
 20
2376.775961235219
 30
0.0
 11
4347.018213407751
 21
2236.775961235219
 31
0.0
  0
LINE
  5
17C51
330
747D
100
AcDbEntity
  8
部品1
100
AcDbLine
 10
4312.018213407752
 20
2381.77596123522
 30
0.0
 11
4342.018213407751
 21
2381.77596123522
 31
0.0
  0
ARC
  5
17C52
330
747D
100
AcDbEntity
  8
部品1
 48
50.0
100
AcDbCircle
 10
4312.018213407752
 20
2376.775961235219
 30
0.0
 40
5.0
100
AcDbArc
 50
90.0
 51
180.0
  0
ARC
  5
17C53
330
747D
100
AcDbEntity
  8
部品1
 48
50.0
100
AcDbCircle
 10
4342.018213407751
 20
2376.775961235219
 30
0.0
 40
5.0
100
AcDbArc
 50
0.0
 51
90.0
  0
LINE
  5
17C54
330
747D
100
AcDbEntity
  8
部品1
 48
50.0
100
AcDbLine
 10
6462.018213407751
 20
2376.775961235219
 30
0.0
 11
6462.018213407751
 21
2236.775961235219
 31
0.0
  0
LINE
  5
17C55
330
747D
100
AcDbEntity
  8
部品1
 48
50.0
100
AcDbLine
 10
6502.018213407751
 20
2376.775961235219
 30
0.0
 11
6502.018213407751
 21
2236.775961235219
 31
0.0
  0
LINE
  5
17C56
330
747D
100
AcDbEntity
  8
部品1
100
AcDbLine
 10
6497.018213407752
 20
2381.77596123522
 30
0.0
 11
6467.018213407752
 21
2381.77596123522
 31
0.0
  0
ARC
  5
17C57
330
747D
100
AcDbEntity
  8
部品1
 48
50.0
100
AcDbCircle
 10
6467.018213407752
 20
2376.775961235219
 30
0.0
 40
5.0
100
AcDbArc
 50
90.0
 51
180.0
  0
ARC
  5
17C58
330
747D
100
AcDbEntity
  8
部品1
 48
50.0
100
AcDbCircle
 10
6497.018213407752
 20
2376.775961235219
 30
0.0
 40
5.0
100
AcDbArc
 50
0.0
 51
90.0
  0
LINE
  5
17C59
330
747D
100
AcDbEntity
  8
破線
  6
HIDDEN
 48
5.0
100
AcDbLine
 10
6462.018213407751
 20
2236.775961235219
 30
0.0
 11
6462.018213407751
 21
2231.77596123522
 31
0.0
  0
LINE
  5
17C5A
330
747D
100
AcDbEntity
  8
破線
  6
HIDDEN
 48
5.0
100
AcDbLine
 10
6502.018213407751
 20
2236.775961235219
 30
0.0
 11
6502.018213407751
 21
2231.77596123522
 31
0.0
  0
LINE
  5
17C5B
330
747D
100
AcDbEntity
  8
破線
  6
HIDDEN
 48
5.0
100
AcDbLine
 10
4307.018213407758
 20
2236.775961235219
 30
0.0
 11
4307.018213407758
 21
2231.77596123522
 31
0.0
  0
LINE
  5
17C5C
330
747D
100
AcDbEntity
  8
破線
  6
HIDDEN
 48
5.0
100
AcDbLine
 10
4347.018213407751
 20
2236.775961235219
 30
0.0
 11
4347.018213407751
 21
2231.77596123522
 31
0.0
  0
LINE
  5
17C5D
330
747D
100
AcDbEntity
  8
部品1
100
AcDbLine
 10
6502.018213407751
 20
2336.775961235219
 30
0.0
 11
6509.518213407755
 21
2336.775961235219
 31
0.0
  0
DIMENSION
  5
17C5E
330
747D
100
AcDbEntity
  8
寸法
 48
50.0
100
AcDbDimension
  2
*D2
 10
4077.518210161118
 20
2236.775961235217
 30
0.0
 11
4077.518210161117
 21
2136.775961235218
 31
0.0
 70
   160
 71
     5
 42
200.0
  3
INABA_S40G
100
AcDbAlignedDimension
 13
4227.018213407755
 23
2036.775961235218
 33
0.0
 14
4202.018213407751
 24
2236.775961235217
 34
0.0
 50
90.0
100
AcDbRotatedDimension
1001
ACAD
1000
DSTYLE
1002
{
1070
   174
1070
     0
1070
   272
1070
     1
1070
   288
1070
     0
1070
   341
1005
0
1002
}
  0
LINE
  5
17C5F
330
747D
100
AcDbEntity
  8
破線
 48
5.0
100
AcDbLine
 10
4427.018213407751
 20
2036.775961235216
 30
0.0
 11
4227.018213407755
 21
2036.775961235216
 31
0.0
  0
LINE
  5
17C60
330
747D
100
AcDbEntity
  8
破線
 48
5.0
100
AcDbLine
 10
4427.018213407751
 20
2236.775961235219
 30
0.0
 11
4427.018213407751
 21
2036.775961235216
 31
0.0
  0
LINE
  5
17C61
330
747D
100
AcDbEntity
  8
破線
 48
5.0
100
AcDbLine
 10
4227.018213407752
 20
2236.775961235219
 30
0.0
 11
4227.018213407755
 21
2036.775961235216
 31
0.0
  0
DIMENSION
  5
17C62
330
747D
100
AcDbEntity
  8
寸法
 48
50.0
100
AcDbDimension
  2
*D3
 10
4227.018213407755
 20
1750.728631934839
 30
0.0
 11
4327.018213407753
 21
1750.728631934839
 31
0.0
 70
   160
 71
     5
 42
199.9999999999963
  3
INABA_S40G
100
AcDbAlignedDimension
 13
4427.018213407751
 23
2036.775961235216
 33
0.0
 14
4227.018213407755
 24
2036.775961235218
 34
0.0
100
AcDbRotatedDimension
  0
LINE
  5
17C63
330
747D
100
AcDbEntity
  8
破線
 48
5.0
100
AcDbLine
 10
6582.018213407758
 20
2236.775961235219
 30
0.0
 11
6582.018213407756
 21
2036.775961235216
 31
0.0
  0
LINE
  5
17C64
330
747D
100
AcDbEntity
  8
破線
 48
5.0
100
AcDbLine
 10
6582.018213407756
 20
2036.775961235216
 30
0.0
 11
6382.018213407759
 21
2036.775961235219
 31
0.0
  0
LINE
  5
17C65
330
747D
100
AcDbEntity
  8
破線
 48
5.0
100
AcDbLine
 10
6382.018213407759
 20
2236.775961235219
 30
0.0
 11
6382.018213407759
 21
2036.775961235219
 31
0.0
  0
LINE
  5
17C66
330
747D
100
AcDbEntity
  8
部品1
 48
50.0
100
AcDbLine
 10
6509.518213407755
 20
4471.77596123522
 30
0.0
 11
6586.518213407756
 21
4461.77596123522
 31
0.0
  0
LINE
  5
17C67
330
747D
100
AcDbEntity
  8
部品1
 48
50.0
100
AcDbLine
 10
6586.518213407756
 20
4461.77596123522
 30
0.0
 11
6586.518213407756
 21
2236.775961235219
 31
0.0
  0
LINE
  5
17C68
330
747D
100
AcDbEntity
  8
部品1
 48
50.0
100
AcDbLine
 10
6586.518213407756
 20
2336.775961235219
 30
0.0
 11
6502.018213407755
 21
2336.775961235219
 31
0.0
  0
LINE
  5
17C69
330
747D
100
AcDbEntity
  8
部品1
100
AcDbLine
 10
6309.518213407751
 20
2336.775961235219
 30
0.0
 11
6309.518213407751
 21
2236.775961235219
 31
0.0
  0
LINE
  5
17C6A
330
747D
100
AcDbEntity
  8
部品1
 48
50.0
100
AcDbLine
 10
5504.518213407751
 20
2336.775961235219
 30
0.0
 11
5504.518213407751
 21
2236.775961235219
 31
0.0
  0
LINE
  5
17C6B
330
747D
100
AcDbEntity
  8
部品1
 48
50.0
100
AcDbLine
 10
5304.518213407751
 20
2336.775961235219
 30
0.0
 11
5304.518213407751
 21
2236.775961235219
 31
0.0
  0
LINE
  5
17C6C
330
747D
100
AcDbEntity
  8
部品1
100
AcDbLine
 10
4499.518213407752
 20
2336.775961235219
 30
0.0
 11
4499.518213407752
 21
2236.775961235219
 31
0.0
  0
TEXT
  5
17C6D
330
747D
100
AcDbEntity
  8
部品1
100
AcDbText
 10
3179.678909212271
 20
2272.882864841121
 30
0.0
 40
125.0
  1
▽G.L
  7
STYLE2
100
AcDbText
  0
DIMENSION
  5
17C6E
330
747D
100
AcDbEntity
  8
寸法
 48
50.0
100
AcDbDimension
  2
*D4
 10
6559.518213407755
 20
5325.990095083939
 30
0.0
 11
5404.518213407751
 21
5325.990095083939
 31
0.0
 70
   160
 71
     5
 42
2310.000000000004
  3
INABA_S40G
100
AcDbAlignedDimension
 13
4249.518213407752
 23
4711.775961235223
 33
0.0
 14
6559.518213407755
 24
4711.775961235219
 34
0.0
100
AcDbRotatedDimension
  0
DIMENSION
  5
17C6F
330
747D
100
AcDbEntity
  8
寸法
 48
50.0
100
AcDbDimension
  2
*D5
 10
4249.518213407752
 20
5116.396220662489
 30
0.0
 11
3936.032932033504
 21
5116.396220662489
 31
0.0
 70
   160
 71
     5
 42
50.0
  3
INABA_S40G
100
AcDbAlignedDimension
 13
4299.518213407751
 23
4711.775961235223
 33
0.0
 14
4249.518213407752
 24
4711.775961235223
 34
0.0
100
AcDbRotatedDimension
1001
ACAD
1000
DSTYLE
1002
{
1002
}
  0
DIMENSION
  5
17C70
330
747D
100
AcDbEntity
  8
寸法
 48
50.0
100
AcDbDimension
  2
*D6
 10
4299.518213407751
 20
5116.396220662489
 30
0.0
 11
5404.518213407751
 21
5116.396220662489
 31
0.0
 70
   160
  1
柱外寸法<>
 71
     5
 42
2210.000000000004
  3
INABA_S40G
100
AcDbAlignedDimension
 13
6509.518213407755
 23
4711.775961235223
 33
0.0
 14
4299.518213407751
 24
4711.775961235223
 34
0.0
100
AcDbRotatedDimension
  0
LINE
  5
17C71
330
747D
100
AcDbEntity
  8
部品1
 48
50.0
100
AcDbLine
 10
6552.109792301322
 20
4711.77596123522
 30
0.0
 11
4256.92663451418
 21
4711.775961235224
 31
0.0
  0
LINE
  5
17C72
330
747D
100
AcDbEntity
  8
部品1
 48
50.0
100
AcDbLine
 10
6538.894468840284
 20
4570.775961235227
 30
0.0
 11
4270.141957975215
 21
4570.775961235224
 31
0.0
  0
LINE
  5
17C73
330
747D
100
AcDbEntity
  8
細線
 48
50.0
100
AcDbLine
 10
6557.478675186314
 20
4683.775961235223
 30
0.0
 11
4251.557751629189
 21
4683.77596123522
 31
0.0
  0
LINE
  5
17C74
330
747D
100
AcDbEntity
  8
細線
 48
50.0
100
AcDbLine
 10
6549.242644661465
 20
4591.57596123522
 30
0.0
 11
4259.793782154019
 21
4591.575961235223
 31
0.0
  0
LINE
  5
17C75
330
747D
100
AcDbEntity
  8
細線
 48
50.0
100
AcDbLine
 10
4282.518213407751
 20
4711.775961235224
 30
0.0
 11
4282.518213407751
 21
4570.775961235224
 31
0.0
  0
ARC
  5
17C76
330
747D
100
AcDbEntity
  8
部品1
100
AcDbCircle
 10
4256.92663451418
 20
4704.775961235223
 30
0.0
 40
7.0
100
AcDbArc
 50
90.0
 51
183.2473427903377
  0
ARC
  5
17C77
330
747D
100
AcDbEntity
  8
部品1
100
AcDbCircle
 10
4270.141957975215
 20
4577.775961235224
 30
0.0
 40
7.0
100
AcDbArc
 50
183.2473427903377
 51
270.0
  0
ARC
  5
17C78
330
747D
100
AcDbEntity
  8
部品1
 48
50.0
100
AcDbCircle
 10
4251.770147764538
 20
4684.442960396907
 30
0.0
 40
0.7
100
AcDbArc
 50
183.2473427904417
 51
262.3418727926349
  0
ARC
  5
17C79
330
747D
100
AcDbEntity
  8
部品1
 48
50.0
100
AcDbCircle
 10
4260.006178289379
 20
4592.242960396907
 30
0.0
 40
0.7
100
AcDbArc
 50
183.2473427903377
 51
262.3418727926349
  0
ARC
  5
17C7A
330
747D
100
AcDbEntity
  8
部品1
 48
50.0
100
AcDbCircle
 10
4259.513109180818
 20
4588.575961235219
 30
0.0
 40
3.0
100
AcDbArc
 50
3.247342790337682
 51
82.3418727926348
  0
ARC
  5
17C7B
330
747D
100
AcDbEntity
  8
部品1
 48
50.0
100
AcDbCircle
 10
4251.277078655977
 20
4680.775961235223
 30
0.0
 40
3.0
100
AcDbArc
 50
3.247342790337682
 51
82.3418727926348
  0
LINE
  5
17C7C
330
747D
100
AcDbEntity
  8
部品1
100
AcDbLine
 10
4254.272261552159
 20
4680.945900690328
 30
0.0
 11
4259.307302280271
 21
4592.20330785738
 31
0.0
  0
LINE
  5
17C7D
330
747D
100
AcDbEntity
  8
部品1
100
AcDbLine
 10
4262.508292077007
 20
4588.745900690322
 30
0.0
 11
4263.153197884116
 21
4577.379435839982
 31
0.0
  0
LINE
  5
17C7E
330
747D
100
AcDbEntity
  8
部品1
100
AcDbLine
 10
4249.937874423085
 20
4704.379435839983
 30
0.0
 11
4251.071271755431
 21
4684.403307857385
 31
0.0
  0
ARC
  5
17C7F
330
747D
100
AcDbEntity
  8
部品1
 48
0.01
100
AcDbCircle
 10
5931.518213407752
 20
4540.77596123522
 30
0.0
 40
2.0
100
AcDbArc
 50
90.0
 51
180.0
  0
ARC
  5
17C80
330
747D
100
AcDbEntity
  8
部品1
 48
0.01
100
AcDbCircle
 10
6107.518213407751
 20
4540.77596123522
 30
0.0
 40
2.0
100
AcDbArc
 50
0.0
 51
90.0
  0
LINE
  5
17C81
330
747D
100
AcDbEntity
  8
細線
100
AcDbLine
 10
6019.518213407751
 20
4513.27596123522
 30
0.0
 11
5945.518213407751
 21
4513.27596123522
 31
0.0
  0
LINE
  5
17C82
330
747D
100
AcDbEntity
  8
細線
100
AcDbLine
 10
6019.518213407751
 20
4536.27596123522
 30
0.0
 11
6093.518213407751
 21
4536.27596123522
 31
0.0
  0
LINE
  5
17C83
330
747D
100
AcDbEntity
  8
細線
100
AcDbLine
 10
6093.518213407751
 20
4513.27596123522
 30
0.0
 11
6019.518213407751
 21
4513.27596123522
 31
0.0
  0
LINE
  5
17C84
330
747D
100
AcDbEntity
  8
細線
100
AcDbLine
 10
5945.518213407751
 20
4536.27596123522
 30
0.0
 11
6019.518213407751
 21
4536.27596123522
 31
0.0
  0
LINE
  5
17C85
330
747D
100
AcDbEntity
  8
細線
100
AcDbLine
 10
5945.518213407751
 20
4513.27596123522
 30
0.0
 11
5945.518213407751
 21
4536.27596123522
 31
0.0
  0
LINE
  5
17C86
330
747D
100
AcDbEntity
  8
細線
100
AcDbLine
 10
6093.518213407751
 20
4536.27596123522
 30
0.0
 11
6093.518213407751
 21
4513.27596123522
 31
0.0
  0
LINE
  5
17C87
330
747D
100
AcDbEntity
  8
部品1
 48
0.01
100
AcDbLine
 10
5931.518213407752
 20
4542.77596123522
 30
0.0
 11
6107.518213407751
 21
4542.77596123522
 31
0.0
  0
LINE
  5
17C88
330
747D
100
AcDbEntity
  8
細線
100
AcDbLine
 10
6093.518213407751
 20
4530.27596123522
 30
0.0
 11
6019.518213407751
 21
4530.27596123522
 31
0.0
  0
LINE
  5
17C89
330
747D
100
AcDbEntity
  8
細線
100
AcDbLine
 10
6093.518213407751
 20
4524.27596123522
 30
0.0
 11
6019.518213407751
 21
4524.27596123522
 31
0.0
  0
LINE
  5
17C8A
330
747D
100
AcDbEntity
  8
細線
100
AcDbLine
 10
6093.518213407751
 20
4518.27596123522
 30
0.0
 11
6019.518213407751
 21
4518.27596123522
 31
0.0
  0
LINE
  5
17C8B
330
747D
100
AcDbEntity
  8
細線
100
AcDbLine
 10
6093.518213407751
 20
4530.27596123522
 30
0.0
 11
6024.518213407752
 21
4530.27596123522
 31
0.0
  0
LINE
  5
17C8C
330
747D
100
AcDbEntity
  8
細線
100
AcDbLine
 10
5945.518213407751
 20
4530.275961235217
 30
0.0
 11
6019.518213407751
 21
4530.27596123522
 31
0.0
  0
LINE
  5
17C8D
330
747D
100
AcDbEntity
  8
細線
100
AcDbLine
 10
5945.518213407751
 20
4518.275961235216
 30
0.0
 11
6019.518213407751
 21
4518.27596123522
 31
0.0
  0
LINE
  5
17C8E
330
747D
100
AcDbEntity
  8
細線
100
AcDbLine
 10
5945.518213407751
 20
4524.27596123522
 30
0.0
 11
6019.518213407751
 21
4524.27596123522
 31
0.0
  0
LINE
  5
17C8F
330
747D
100
AcDbEntity
  8
細線
100
AcDbLine
 10
6019.518213407751
 20
4536.27596123522
 30
0.0
 11
6019.518213407751
 21
4513.27596123522
 31
0.0
  0
ARC
  5
17C90
330
747D
100
AcDbEntity
  8
部品1
 48
0.01
100
AcDbCircle
 10
5931.518213407752
 20
4509.27596123522
 30
0.0
 40
2.0
100
AcDbArc
 50
180.0
 51
270.0
  0
ARC
  5
17C91
330
747D
100
AcDbEntity
  8
部品1
 48
0.01
100
AcDbCircle
 10
6107.518213407751
 20
4509.27596123522
 30
0.0
 40
2.0
100
AcDbArc
 50
270.0
 51
0.0
  0
LINE
  5
17C92
330
747D
100
AcDbEntity
  8
部品1
 48
0.01
100
AcDbLine
 10
5929.518213407751
 20
4509.27596123522
 30
0.0
 11
5929.518213407751
 21
4540.77596123522
 31
0.0
  0
LINE
  5
17C93
330
747D
100
AcDbEntity
  8
部品1
 48
0.01
100
AcDbLine
 10
6107.518213407751
 20
4507.27596123522
 30
0.0
 11
5931.518213407752
 21
4507.27596123522
 31
0.0
  0
LINE
  5
17C94
330
747D
100
AcDbEntity
  8
部品1
 48
0.01
100
AcDbLine
 10
6109.518213407751
 20
4540.77596123522
 30
0.0
 11
6109.518213407751
 21
4509.27596123522
 31
0.0
  0
LINE
  5
17C95
330
747D
100
AcDbEntity
  8
細線
100
AcDbLine
 10
4789.518213407752
 20
4536.27596123522
 30
0.0
 11
4789.518213407748
 21
4513.27596123522
 31
0.0
  0
LINE
  5
17C96
330
747D
100
AcDbEntity
  8
細線
100
AcDbLine
 10
4863.518213407747
 20
4524.27596123522
 30
0.0
 11
4789.518213407752
 21
4524.27596123522
 31
0.0
  0
LINE
  5
17C97
330
747D
100
AcDbEntity
  8
細線
100
AcDbLine
 10
4863.518213407747
 20
4518.275961235216
 30
0.0
 11
4789.518213407752
 21
4518.27596123522
 31
0.0
  0
LINE
  5
17C98
330
747D
100
AcDbEntity
  8
細線
100
AcDbLine
 10
4863.518213407747
 20
4530.275961235217
 30
0.0
 11
4789.518213407752
 21
4530.27596123522
 31
0.0
  0
LINE
  5
17C99
330
747D
100
AcDbEntity
  8
細線
100
AcDbLine
 10
4715.518213407751
 20
4530.27596123522
 30
0.0
 11
4784.518213407751
 21
4530.27596123522
 31
0.0
  0
LINE
  5
17C9A
330
747D
100
AcDbEntity
  8
細線
100
AcDbLine
 10
4715.518213407747
 20
4518.27596123522
 30
0.0
 11
4789.518213407752
 21
4518.27596123522
 31
0.0
  0
LINE
  5
17C9B
330
747D
100
AcDbEntity
  8
細線
100
AcDbLine
 10
4715.518213407751
 20
4524.27596123522
 30
0.0
 11
4789.518213407752
 21
4524.27596123522
 31
0.0
  0
LINE
  5
17C9C
330
747D
100
AcDbEntity
  8
細線
100
AcDbLine
 10
4715.518213407751
 20
4530.27596123522
 30
0.0
 11
4789.518213407752
 21
4530.27596123522
 31
0.0
  0
LINE
  5
17C9D
330
747D
100
AcDbEntity
  8
部品1
 48
0.01
100
AcDbLine
 10
4877.518213407751
 20
4542.77596123522
 30
0.0
 11
4701.518213407751
 21
4542.77596123522
 31
0.0
  0
LINE
  5
17C9E
330
747D
100
AcDbEntity
  8
部品1
 48
0.01
100
AcDbLine
 10
4699.518213407752
 20
4540.77596123522
 30
0.0
 11
4699.518213407752
 21
4509.27596123522
 31
0.0
  0
LINE
  5
17C9F
330
747D
100
AcDbEntity
  8
部品1
 48
0.01
100
AcDbLine
 10
4701.518213407751
 20
4507.27596123522
 30
0.0
 11
4877.518213407747
 21
4507.27596123522
 31
0.0
  0
LINE
  5
17CA0
330
747D
100
AcDbEntity
  8
部品1
 48
0.01
100
AcDbLine
 10
4879.518213407748
 20
4509.27596123522
 30
0.0
 11
4879.518213407751
 21
4540.77596123522
 31
0.0
  0
LINE
  5
17CA1
330
747D
100
AcDbEntity
  8
細線
100
AcDbLine
 10
4715.518213407751
 20
4536.27596123522
 30
0.0
 11
4715.518213407751
 21
4513.27596123522
 31
0.0
  0
LINE
  5
17CA2
330
747D
100
AcDbEntity
  8
細線
100
AcDbLine
 10
4863.518213407751
 20
4513.27596123522
 30
0.0
 11
4863.518213407751
 21
4536.27596123522
 31
0.0
  0
LINE
  5
17CA3
330
747D
100
AcDbEntity
  8
細線
100
AcDbLine
 10
4863.518213407751
 20
4536.27596123522
 30
0.0
 11
4789.518213407752
 21
4536.27596123522
 31
0.0
  0
LINE
  5
17CA4
330
747D
100
AcDbEntity
  8
細線
100
AcDbLine
 10
4715.518213407751
 20
4513.27596123522
 30
0.0
 11
4789.518213407752
 21
4513.27596123522
 31
0.0
  0
LINE
  5
17CA5
330
747D
100
AcDbEntity
  8
細線
100
AcDbLine
 10
4789.518213407752
 20
4536.27596123522
 30
0.0
 11
4715.518213407751
 21
4536.27596123522
 31
0.0
  0
LINE
  5
17CA6
330
747D
100
AcDbEntity
  8
細線
100
AcDbLine
 10
4789.518213407748
 20
4513.27596123522
 30
0.0
 11
4863.518213407751
 21
4513.27596123522
 31
0.0
  0
ARC
  5
17CA7
330
747D
100
AcDbEntity
  8
部品1
 48
0.01
100
AcDbCircle
 10
4701.518213407751
 20
4540.77596123522
 30
0.0
 40
2.0
100
AcDbArc
 50
90.0
 51
180.0
  0
ARC
  5
17CA8
330
747D
100
AcDbEntity
  8
部品1
 48
0.01
100
AcDbCircle
 10
4701.518213407751
 20
4509.27596123522
 30
0.0
 40
2.0
100
AcDbArc
 50
180.0
 51
270.0
  0
ARC
  5
17CA9
330
747D
100
AcDbEntity
  8
部品1
 48
0.01
100
AcDbCircle
 10
4877.518213407751
 20
4540.77596123522
 30
0.0
 40
2.0
100
AcDbArc
 50
0.0
 51
90.0
  0
ARC
  5
17CAA
330
747D
100
AcDbEntity
  8
部品1
 48
0.01
100
AcDbCircle
 10
4877.518213407747
 20
4509.27596123522
 30
0.0
 40
2.0
100
AcDbArc
 50
270.0
 51
0.0
  0
DIMENSION
  5
17CAB
330
747D
100
AcDbEntity
  8
寸法
 48
50.0
100
AcDbDimension
  2
*D7
 10
6509.518213407755
 20
5116.396220662489
 30
0.0
 11
6873.003494781987
 21
5116.396220662489
 31
0.0
 70
   160
 71
     5
 42
50.0
  3
INABA_S40G
100
AcDbAlignedDimension
 13
6559.518213407755
 23
4711.775961235219
 33
0.0
 14
6509.518213407755
 24
4711.775961235223
 34
0.0
100
AcDbRotatedDimension
  0
LINE
  5
17CAC
330
747D
100
AcDbEntity
  8
部品1
100
AcDbLine
 10
6559.098552392417
 20
4704.379435839983
 30
0.0
 11
6557.965155060076
 21
4684.403307857385
 31
0.0
  0
LINE
  5
17CAD
330
747D
100
AcDbEntity
  8
細線
 48
50.0
100
AcDbLine
 10
6526.518213407754
 20
4711.775961235224
 30
0.0
 11
6526.518213407754
 21
4570.775961235224
 31
0.0
  0
LINE
  5
17CAE
330
747D
100
AcDbEntity
  8
部品1
100
AcDbLine
 10
6546.528134738496
 20
4588.745900690322
 30
0.0
 11
6545.883228931387
 21
4577.379435839982
 31
0.0
  0
LINE
  5
17CAF
330
747D
100
AcDbEntity
  8
部品1
100
AcDbLine
 10
6554.764165263339
 20
4680.945900690328
 30
0.0
 11
6549.729124535232
 21
4592.20330785738
 31
0.0
  0
ARC
  5
17CB0
330
747D
100
AcDbEntity
  8
部品1
 48
50.0
100
AcDbCircle
 10
6557.759348159525
 20
4680.775961235223
 30
0.0
 40
3.0
100
AcDbArc
 50
97.65812720736519
 51
176.7526572096623
  0
ARC
  5
17CB1
330
747D
100
AcDbEntity
  8
部品1
 48
50.0
100
AcDbCircle
 10
6549.523317634681
 20
4588.575961235219
 30
0.0
 40
3.0
100
AcDbArc
 50
97.65812720736519
 51
176.7526572096623
  0
ARC
  5
17CB2
330
747D
100
AcDbEntity
  8
部品1
 48
50.0
100
AcDbCircle
 10
6549.030248526119
 20
4592.242960396907
 30
0.0
 40
0.7
100
AcDbArc
 50
277.6581272073652
 51
356.7526572096623
  0
ARC
  5
17CB3
330
747D
100
AcDbEntity
  8
部品1
 48
50.0
100
AcDbCircle
 10
6557.266279050963
 20
4684.442960396907
 30
0.0
 40
0.7
100
AcDbArc
 50
277.6581272073652
 51
356.7526572095583
  0
ARC
  5
17CB4
330
747D
100
AcDbEntity
  8
部品1
100
AcDbCircle
 10
6538.894468840284
 20
4577.775961235224
 30
0.0
 40
7.0
100
AcDbArc
 50
270.0
 51
356.7526572096623
  0
ARC
  5
17CB5
330
747D
100
AcDbEntity
  8
部品1
100
AcDbCircle
 10
6552.109792301322
 20
4704.775961235223
 30
0.0
 40
7.0
100
AcDbArc
 50
356.7526572096623
 51
90.0
  0
DIMENSION
  5
17CB6
330
747D
100
AcDbEntity
  8
寸法
 48
50.0
100
AcDbDimension
  2
*D8
 10
8551.615242745013
 20
5110.43341481452
 30
0.0
 11
8241.977447469423
 21
5110.43341481452
 31
0.0
 70
   160
 71
     5
 42
60.0
  3
INABA_S40G
100
AcDbAlignedDimension
 13
8611.615242745015
 23
4707.777579358193
 33
0.0
 14
8551.615242745013
 24
4711.775961235221
 34
0.0
100
AcDbRotatedDimension
1001
ACAD
1000
DSTYLE
1002
{
1070
   174
1070
     0
1070
   272
1070
     1
1070
   288
1070
     0
1070
   341
1005
0
1002
}
  0
DIMENSION
  5
17CB7
330
747D
100
AcDbEntity
  8
寸法
 48
50.0
100
AcDbDimension
  2
*D9
 10
8611.615242745015
 20
5110.433414814522
 30
0.0
 11
9966.38543377421
 21
5110.433414814522
 31
0.0
 70
   160
  1
柱外寸法<>
 71
     5
 42
2630.0
  3
INABA_S40G
100
AcDbAlignedDimension
 13
11241.61524274501
 23
4658.586640846871
 33
0.0
 14
8611.615242745015
 24
4707.777579358193
 34
0.0
100
AcDbRotatedDimension
1001
ACAD
1000
DSTYLE
1002
{
1070
   174
1070
     0
1070
   272
1070
     1
1070
   288
1070
     0
1070
   341
1005
0
1002
}
  0
DIMENSION
  5
17CB8
330
747D
100
AcDbEntity
  8
寸法
 48
50.0
100
AcDbDimension
  2
*D10
 10
8551.615242745013
 20
5330.644101546138
 30
0.0
 11
9954.974167632391
 21
5330.644101546138
 31
0.0
 70
   160
 71
     5
 42
2770.0
  3
INABA_S40G
100
AcDbAlignedDimension
 13
11321.61524274501
 23
4656.775961235218
 33
0.0
 14
8551.615242745013
 24
4711.775961235221
 34
0.0
100
AcDbRotatedDimension
1001
ACAD
1000
DSTYLE
1002
{
1070
   174
1070
     0
1070
   272
1070
     1
1070
   288
1070
     0
1070
   341
1005
0
1002
}
  0
DIMENSION
  5
17CB9
330
747D
100
AcDbEntity
  8
寸法
 48
50.0
100
AcDbDimension
  2
*D11
 10
11321.61524274501
 20
5110.433414814522
 30
0.0
 11
11527.6624868395
 21
5110.433414814522
 31
0.0
 70
   160
 71
     5
 42
80.0
  3
INABA_S40G
100
AcDbAlignedDimension
 13
11241.61524274501
 23
4658.586640846871
 33
0.0
 14
11321.61524274501
 24
4656.775961235218
 34
0.0
100
AcDbRotatedDimension
1001
ACAD
1000
DSTYLE
1002
{
1070
   174
1070
     0
1070
   272
1070
     1
1070
   288
1070
     0
1070
   341
1005
0
1002
}
  0
ARC
  5
17CBA
330
747D
100
AcDbEntity
  8
部品1
100
AcDbCircle
 10
11307.24277855895
 20
4550.79971850101
 30
0.0
 40
0.7
100
AcDbArc
 50
275.0921697642102
 51
354.1866997667606
  0
ARC
  5
17CBB
330
747D
100
AcDbEntity
  8
部品1
100
AcDbCircle
 10
11318.10212430827
 20
4627.842973318933
 30
0.0
 40
0.7
100
AcDbArc
 50
275.0921697642102
 51
354.1866997665532
  0
ARC
  5
17CBC
330
747D
100
AcDbEntity
  8
部品1
100
AcDbCircle
 10
11318.43052955088
 20
4624.157576461844
 30
0.0
 40
3.0
100
AcDbArc
 50
95.0921697642102
 51
174.1866997665532
  0
ARC
  5
17CBD
330
747D
100
AcDbEntity
  8
部品1
100
AcDbCircle
 10
11307.57118380155
 20
4547.11432164392
 30
0.0
 40
3.0
100
AcDbArc
 50
95.0921697642102
 51
174.1866997665532
  0
ARC
  5
17CBE
330
747D
100
AcDbEntity
  8
部品1
 48
50.0
100
AcDbCircle
 10
11296.54304852645
 20
4537.523577040038
 30
0.0
 40
7.0
100
AcDbArc
 50
267.8377559869492
 51
354.1866997665532
  0
ARC
  5
17CBF
330
747D
100
AcDbEntity
  8
部品1
 48
50.0
100
AcDbCircle
 10
11313.86514499096
 20
4648.426124182211
 30
0.0
 40
7.0
100
AcDbArc
 50
354.1866997665532
 51
87.03587545283093
  0
LINE
  5
17CC0
330
747D
100
AcDbEntity
  8
部品1
 48
50.0
100
AcDbLine
 10
11304.58661213094
 20
4547.418183360822
 30
0.0
 11
11303.5070490912
 21
4536.814566367264
 31
0.0
  0
LINE
  5
17CC1
330
747D
100
AcDbEntity
  8
部品1
 48
50.0
100
AcDbLine
 10
11315.44595788027
 20
4624.461438178747
 30
0.0
 11
11307.93917861543
 21
4550.728817433735
 31
0.0
  0
LINE
  5
17CC2
330
747D
100
AcDbEntity
  8
部品1
 48
50.0
100
AcDbLine
 10
11320.82914555572
 20
4647.717113509435
 30
0.0
 11
11318.79852436475
 21
4627.772072251655
 31
0.0
  0
LINE
  5
17CC3
330
747D
100
AcDbEntity
  8
細線
 48
50.0
100
AcDbLine
 10
11288.5845259387
 20
4655.929383714685
 30
0.0
 11
11283.86755985702
 21
4530.997167779769
 31
0.0
  0
ARC
  5
17CC4
330
747D
100
AcDbEntity
  8
部品1
100
AcDbCircle
 10
8557.652334616381
 20
4590.590120194121
 30
0.0
 40
0.7
100
AcDbArc
 50
181.0932240292114
 51
260.1877540314845
  0
ARC
  5
17CC5
330
747D
100
AcDbEntity
  8
部品1
100
AcDbCircle
 10
8552.879661018771
 20
4683.455898394238
 30
0.0
 40
0.7
100
AcDbArc
 50
181.0932240292114
 51
260.1877540314845
  0
ARC
  5
17CC6
330
747D
100
AcDbEntity
  8
部品1
100
AcDbCircle
 10
8552.249106615748
 20
4679.810023856842
 30
0.0
 40
3.0
100
AcDbArc
 50
1.093224029315636
 51
80.18775403169875
  0
ARC
  5
17CC7
330
747D
100
AcDbEntity
  8
部品1
100
AcDbCircle
 10
8557.021780213355
 20
4586.944245656723
 30
0.0
 40
3.0
100
AcDbArc
 50
1.093224029315636
 51
80.18775403169875
  0
ARC
  5
17CC8
330
747D
100
AcDbEntity
  8
部品1
 48
50.0
100
AcDbCircle
 10
8567.221912588557
 20
4576.552002274242
 30
0.0
 40
7.0
100
AcDbArc
 50
181.0932240293156
 51
267.8377559869492
  0
ARC
  5
17CC9
330
747D
100
AcDbEntity
  8
部品1
 48
50.0
100
AcDbCircle
 10
8558.798254486461
 20
4703.503061807338
 30
0.0
 40
7.0
100
AcDbArc
 50
87.03587545283093
 51
181.0932240293156
  0
LINE
  5
17CCA
330
747D
100
AcDbEntity
  8
部品1
 48
50.0
100
AcDbLine
 10
8560.021234139787
 20
4587.001483259906
 30
0.0
 11
8560.223186760216
 21
4576.418447866814
 31
0.0
  0
LINE
  5
17CCB
330
747D
100
AcDbEntity
  8
部品1
 48
50.0
100
AcDbLine
 10
8555.24856054218
 20
4679.867261460025
 30
0.0
 11
8556.952462033542
 21
4590.576764753378
 31
0.0
  0
LINE
  5
17CCC
330
747D
100
AcDbEntity
  8
部品1
 48
50.0
100
AcDbLine
 10
8551.79952865812
 20
4703.369507399909
 30
0.0
 11
8552.179788435934
 21
4683.442542953499
 31
0.0
  0
LINE
  5
17CCD
330
747D
100
AcDbEntity
  8
細線
 48
50.0
100
AcDbLine
 10
8584.615242745014
 20
4709.175637610623
 30
0.0
 11
8579.326141189508
 21
4569.090004983267
 31
0.0
  0
LINE
  5
17CCE
330
747D
100
AcDbEntity
  8
細線
 48
50.0
100
AcDbLine
 10
8557.415141083115
 20
4589.931531378714
 30
0.0
 11
11307.41880551376
 21
4550.122212404221
 31
0.0
  0
LINE
  5
17CCF
330
747D
100
AcDbEntity
  8
細線
 48
50.0
100
AcDbLine
 10
8552.654665845828
 20
4682.793043076578
 30
0.0
 11
11318.290650591
 21
4627.168838435749
 31
0.0
  0
LINE
  5
17CD0
330
747D
100
AcDbEntity
  8
部品1
100
AcDbLine
 10
8566.957807346968
 20
4569.556986304184
 30
0.0
 11
11296.27894328486
 21
4530.528561069977
 31
0.0
  0
LINE
  5
17CD1
330
747D
100
AcDbEntity
  8
部品1
100
AcDbLine
 10
8559.160229101976
 20
4710.493696569483
 30
0.0
 11
11314.22711960648
 21
4655.416758944355
 31
0.0
  0
LINE
  5
17CD2
330
747D
100
AcDbEntity
  8
部品1
100
AcDbLine
 10
9786.840373174255
 20
4836.980349198235
 30
0.0
 11
10112.29538681729
 21
4819.462290239373
 31
0.0
  0
LINE
  5
17CD3
330
747D
100
AcDbEntity
  8
部品1
 48
50.0
100
AcDbLine
 10
9812.295386817291
 20
4835.662290239373
 30
0.0
 11
10112.29538681729
 21
4835.662290239373
 31
0.0
  0
LINE
  5
17CD4
330
747D
100
AcDbEntity
  8
部品1
 48
50.0
100
AcDbLine
 10
10112.29538681729
 20
4835.662290239373
 30
0.0
 11
10112.29538681729
 21
4819.462290239373
 31
0.0
  0
TEXT
  5
17CD5
330
747D
100
AcDbEntity
  8
部品1
 48
50.0
100
AcDbText
 10
9800.56322204102
 20
4871.546312391807
 30
0.0
 40
120.0
  1
1000
  7
STYLE1
100
AcDbText
  0
TEXT
  5
17CD6
330
747D
100
AcDbEntity
  8
部品1
 48
50.0
100
AcDbText
 10
10278.19624470611
 20
4734.045054173524
 30
0.0
 40
120.0
  1
37
 50
90.0
  7
STYLE1
100
AcDbText
  0
DIMENSION
  5
17CD7
330
747D
100
AcDbEntity
  8
寸法
100
AcDbDimension
  2
*D12
 10
7702.975860815652
 20
2236.775961235217
 30
0.0
 11
7702.975860815651
 21
2000.728717140725
 31
0.0
 70
   160
 71
     5
 42
100.0
  3
INABA_S40G
100
AcDbAlignedDimension
 13
8556.61524274501
 23
2336.775961235217
 33
0.0
 14
7987.962533586713
 24
2236.775961235217
 34
0.0
 50
90.0
100
AcDbRotatedDimension
1001
ACAD
1000
DSTYLE
1002
{
1070
   174
1070
     0
1070
   272
1070
     1
1070
   288
1070
     0
1070
   341
1005
0
1002
}
  0
DIMENSION
  5
17CD8
330
747D
100
AcDbEntity
  8
寸法
100
AcDbDimension
  2
*D13
 10
7987.962533586714
 20
2336.775961235217
 30
0.0
 11
7987.962533586713
 21
2030.728717140726
 31
0.0
 70
   160
 71
     5
 42
50.0
  3
INABA_S40G
100
AcDbAlignedDimension
 13
8611.61524274501
 23
2386.775961235217
 33
0.0
 14
8556.61524274501
 24
2336.775961235217
 34
0.0
 50
90.0
100
AcDbRotatedDimension
1001
ACAD
1000
DSTYLE
1002
{
1070
   174
1070
     0
1070
   272
1070
     1
1070
   288
1070
     0
1070
   341
1005
0
1002
}
  0
DIMENSION
  5
17CD9
330
747D
100
AcDbEntity
  8
寸法
100
AcDbDimension
  2
*D14
 10
7987.962533586714
 20
2386.775961235217
 30
0.0
 11
7987.962533586714
 21
3407.275961235217
 31
0.0
 70
   160
 71
     5
 42
2090.0
  3
INABA_S40G
100
AcDbAlignedDimension
 13
8611.61524274501
 23
4476.775961235216
 33
0.0
 14
8611.61524274501
 24
2386.775961235217
 34
0.0
 50
90.0
100
AcDbRotatedDimension
1001
ACAD
1000
DSTYLE
1002
{
1070
   174
1070
     0
1070
   272
1070
     1
1070
   288
1070
     0
1070
   341
1005
0
1002
}
  0
DIMENSION
  5
17CDA
330
747D
100
AcDbEntity
  8
寸法
100
AcDbDimension
  2
*D15
 10
7702.975860815654
 20
4711.775961235222
 30
0.0
 11
7702.975860815652
 21
3407.275961235217
 31
0.0
 70
   160
 71
     5
 42
2375.000000000005
  3
INABA_S40G
100
AcDbAlignedDimension
 13
8611.61524274501
 23
2336.775961235217
 33
0.0
 14
8551.615242745011
 24
4711.775961235222
 34
0.0
 50
90.0
100
AcDbRotatedDimension
1001
ACAD
1000
DSTYLE
1002
{
1070
   174
1070
     0
1070
   272
1070
     1
1070
   288
1070
     0
1070
   341
1005
0
1002
}
  0
DIMENSION
  5
17CDB
330
747D
100
AcDbEntity
  8
寸法
 48
50.0
100
AcDbDimension
  2
*D16
 10
7991.00683597664
 20
4586.121220108545
 30
0.0
 11
8001.672311235564
 21
4956.967883350253
 31
0.0
 70
   161
 71
     5
 42
141.0000000000018
  3
INABA_S40G
100
AcDbAlignedDimension
 13
8571.01126290359
 23
4710.498710069896
 33
0.0
 14
8566.957807346964
 24
4569.556986304181
 34
0.0
1001
ACAD
1000
DSTYLE
1002
{
1070
   174
1070
     0
1070
   272
1070
     1
1070
   288
1070
     0
1070
   341
1005
0
1002
}
  0
DIMENSION
  5
17CDC
330
747D
100
AcDbEntity
  8
寸法
 48
50.0
100
AcDbDimension
  2
*D17
 10
8318.390436273997
 20
2394.775961235216
 30
0.0
 11
8318.390436273997
 21
3407.275961235217
 31
0.0
 70
   160
  1
有効開口部高サ<>
 71
     5
 42
2025.000000000001
  3
INABA_S40G
100
AcDbAlignedDimension
 13
9059.61524274501
 23
4419.775961235216
 33
0.0
 14
9059.61524274501
 24
2394.775961235216
 34
0.0
 50
90.0
100
AcDbRotatedDimension
  0
LINE
  5
17CDD
330
747D
100
AcDbEntity
  8
Ｇ．Ｌ
100
AcDbLine
 10
3069.290267911271
 20
2236.775961235217
 30
0.0
 11
11891.12779577385
 21
2236.775961235217
 31
0.0
  0
TEXT
  5
17CDE
330
747D
100
AcDbEntity
  8
部品1
100
AcDbText
 10
9635.405313368744
 20
1164.566889041733
 30
0.0
 40
135.0
  1
正面図
  7
STYLE2
100
AcDbText
  0
LINE
  5
17CE4
330
747D
100
AcDbEntity
  8
部品1
100
AcDbLine
 10
9544.879909630791
 20
1357.460418260256
 30
0.0
 11
9544.879909630791
 21
1117.568096714723
 31
0.0
  0
LINE
  5
17CE5
330
747D
100
AcDbEntity
  8
部品1
100
AcDbLine
 10
9544.879909630791
 20
1117.568096714723
 30
0.0
 11
10308.35057585923
 21
1117.568096714723
 31
0.0
  0
LINE
  5
17CE6
330
747D
100
AcDbEntity
  8
部品1
100
AcDbLine
 10
10308.35057585923
 20
1117.568096714723
 30
0.0
 11
10308.35057585923
 21
1357.460418260256
 31
0.0
  0
LINE
  5
17CE7
330
747D
100
AcDbEntity
  8
部品1
100
AcDbLine
 10
10308.35057585923
 20
1357.460418260256
 30
0.0
 11
9544.879909630791
 21
1357.460418260256
 31
0.0
  0
DIMENSION
  5
17CE8
330
747D
100
AcDbEntity
  8
寸法
 48
50.0
100
AcDbDimension
  2
*D18
 10
8511.61524274501
 20
1750.728631934839
 30
0.0
 11
8611.61524274501
 21
1750.728631934839
 31
0.0
 70
   160
 71
     5
 42
200.0
  3
INABA_S40G
100
AcDbAlignedDimension
 13
8711.615242745009
 23
2036.775961235217
 33
0.0
 14
8511.61524274501
 24
2036.775961235217
 34
0.0
100
AcDbRotatedDimension
  0
LINE
  5
17CE9
330
747D
100
AcDbEntity
  8
破線
 48
5.0
100
AcDbLine
 10
8511.61524274501
 20
2036.775961235217
 30
0.0
 11
8711.615242745009
 21
2036.775961235217
 31
0.0
  0
LINE
  5
17CEA
330
747D
100
AcDbEntity
  8
破線
 48
5.0
100
AcDbLine
 10
8511.61524274501
 20
2236.775961235217
 30
0.0
 11
8511.61524274501
 21
2036.775961235217
 31
0.0
  0
LINE
  5
17CEB
330
747D
100
AcDbEntity
  8
部品1
100
AcDbLine
 10
8611.61524274501
 20
4476.775961235216
 30
0.0
 11
11241.61524274501
 21
4476.775961235216
 31
0.0
  0
LINE
  5
17CEC
330
747D
100
AcDbEntity
  8
部品1
 48
50.0
100
AcDbLine
 10
9059.61524274501
 20
2336.775961235217
 30
0.0
 11
11213.61524274501
 21
2336.775961235217
 31
0.0
  0
LINE
  5
17CED
330
747D
100
AcDbEntity
  8
部品1
 48
50.0
100
AcDbLine
 10
8639.61524274501
 20
2336.775961235217
 30
0.0
 11
11213.61524274501
 21
2336.775961235217
 31
0.0
  0
LINE
  5
17CEE
330
747D
100
AcDbEntity
  8
破線
 48
5.0
100
AcDbLine
 10
11341.61524274501
 20
2036.775961235217
 30
0.0
 11
11141.61524274501
 21
2036.775961235217
 31
0.0
  0
LINE
  5
17CEF
330
747D
100
AcDbEntity
  8
部品1
100
AcDbLine
 10
8611.61524274501
 20
4476.775961235216
 30
0.0
 11
11241.61524274501
 21
4476.775961235216
 31
0.0
  0
LINE
  5
17CF0
330
747D
100
AcDbEntity
  8
部品1
100
AcDbLine
 10
8611.61524274501
 20
2336.775961235217
 30
0.0
 11
11241.61524274501
 21
2336.775961235217
 31
0.0
  0
LINE
  5
17CF1
330
747D
100
AcDbEntity
  8
部品1
 48
50.0
100
AcDbLine
 10
8666.615242745011
 20
2386.775961235237
 30
0.0
 11
8666.615242745011
 21
4476.775961235216
 31
0.0
  0
LINE
  5
17CF2
330
747D
100
AcDbEntity
  8
部品1
100
AcDbLine
 10
8611.61524274501
 20
4568.918399164095
 30
0.0
 11
8611.61524274501
 21
2236.775961235217
 31
0.0
  0
LINE
  5
17CF3
330
747D
100
AcDbEntity
  8
部品1
100
AcDbLine
 10
8606.615242745011
 20
2381.775961235218
 30
0.0
 11
8606.615242745011
 21
2236.775961235217
 31
0.0
  0
LINE
  5
17CF4
330
747D
100
AcDbEntity
  8
破線
 48
5.0
100
AcDbLine
 10
8606.615242745011
 20
2236.775961235217
 30
0.0
 11
8606.615242745011
 21
2081.775961235217
 31
0.0
  0
LINE
  5
17CF5
330
747D
100
AcDbEntity
  8
破線
 48
5.0
100
AcDbLine
 10
8711.615242745009
 20
2236.775961235217
 30
0.0
 11
8711.615242745009
 21
2036.775961235217
 31
0.0
  0
LINE
  5
17CF6
330
747D
100
AcDbEntity
  8
破線
 48
5.0
100
AcDbLine
 10
8586.615242745009
 20
2081.775961235217
 30
0.0
 11
8606.615242745011
 21
2081.775961235217
 31
0.0
  0
LINE
  5
17CF7
330
747D
100
AcDbEntity
  8
部品1
100
AcDbLine
 10
9011.61524274501
 20
2336.775961235217
 30
0.0
 11
9011.61524274501
 21
2236.775961235217
 31
0.0
  0
LINE
  5
17CF8
330
747D
100
AcDbEntity
  8
部品1
100
AcDbLine
 10
8611.61524274501
 20
2386.775961235237
 30
0.0
 11
9059.61524274501
 21
2386.775961235237
 31
0.0
  0
LINE
  5
17CF9
330
747D
100
AcDbEntity
  8
部品1
 48
50.0
100
AcDbLine
 10
9411.615242745011
 20
2336.775961235217
 30
0.0
 11
9411.615242745011
 21
2236.775961235217
 31
0.0
  0
LINE
  5
17CFA
330
747D
100
AcDbEntity
  8
部品1
 48
50.0
100
AcDbLine
 10
9611.61524274501
 20
2336.775961235217
 30
0.0
 11
9611.61524274501
 21
2236.775961235217
 31
0.0
  0
LINE
  5
17CFB
330
747D
100
AcDbEntity
  8
部品1
 48
50.0
100
AcDbLine
 10
10241.61524274501
 20
2336.775961235217
 30
0.0
 11
10241.61524274501
 21
2236.775961235217
 31
0.0
  0
LINE
  5
17CFC
330
747D
100
AcDbEntity
  8
部品1
 48
50.0
100
AcDbLine
 10
10441.61524274501
 20
2336.775961235217
 30
0.0
 11
10441.61524274501
 21
2236.775961235217
 31
0.0
  0
LINE
  5
17CFD
330
747D
100
AcDbEntity
  8
部品1
100
AcDbLine
 10
10841.61524274501
 20
2336.775961235217
 30
0.0
 11
10841.61524274501
 21
2236.775961235217
 31
0.0
  0
LINE
  5
17CFE
330
747D
100
AcDbEntity
  8
破線
 48
5.0
100
AcDbLine
 10
11141.61524274501
 20
2236.775961235217
 30
0.0
 11
11141.61524274501
 21
2036.775961235217
 31
0.0
  0
LINE
  5
17CFF
330
747D
100
AcDbEntity
  8
部品1
 48
50.0
100
AcDbLine
 10
9086.615242745009
 20
4471.775961235215
 30
0.0
 11
9086.615242745009
 21
4476.775961235216
 31
0.0
  0
LINE
  5
17D00
330
747D
100
AcDbEntity
  8
部品1
100
AcDbLine
 10
11241.61524274501
 20
4531.310234622956
 30
0.0
 11
11241.61524274501
 21
2236.775961235217
 31
0.0
  0
LINE
  5
17D01
330
747D
100
AcDbEntity
  8
部品1
100
AcDbLine
 10
11246.61524274501
 20
2381.775961235216
 30
0.0
 11
11246.61524274501
 21
2236.775961235217
 31
0.0
  0
LINE
  5
17D02
330
747D
100
AcDbEntity
  8
破線
 48
5.0
100
AcDbLine
 10
11246.61524274501
 20
2236.775961235217
 30
0.0
 11
11246.61524274501
 21
2081.775961235217
 31
0.0
  0
LINE
  5
17D03
330
747D
100
AcDbEntity
  8
破線
 48
5.0
100
AcDbLine
 10
11341.61524274501
 20
2236.775961235217
 30
0.0
 11
11341.61524274501
 21
2036.775961235217
 31
0.0
  0
LINE
  5
17D04
330
747D
100
AcDbEntity
  8
破線
 48
5.0
100
AcDbLine
 10
11266.61524274501
 20
2081.775961235217
 30
0.0
 11
11246.61524274501
 21
2081.775961235217
 31
0.0
  0
LINE
  5
17D05
330
747D
100
AcDbEntity
  8
部品1
100
AcDbLine
 10
11213.61524274501
 20
2386.775961235237
 30
0.0
 11
11241.61524274501
 21
2386.775961235237
 31
0.0
  0
LINE
  5
17D06
330
747D
100
AcDbEntity
  8
部品1
 48
50.0
100
AcDbLine
 10
11186.61524274501
 20
4471.775961235215
 30
0.0
 11
11186.61524274501
 21
4476.775961235216
 31
0.0
  0
DIMENSION
  5
17D07
330
747D
100
AcDbEntity
  8
寸法
100
AcDbDimension
  2
*D19
 10
8666.615242745022
 20
10129.90715514599
 30
0.0
 11
8303.129961370744
 21
10129.90715514599
 31
0.0
 70
   160
 71
     5
 42
55.00000000003637
  3
INABA_S40G
100
AcDbAlignedDimension
 13
8611.615242744985
 23
9829.907155145997
 33
0.0
 14
8666.615242745022
 24
9829.907155145997
 34
0.0
100
AcDbRotatedDimension
1001
ACAD
1000
DSTYLE
1002
{
1002
}
  0
DIMENSION
  5
17D08
330
747D
100
AcDbEntity
  8
寸法
100
AcDbDimension
  2
*D20
 10
9826.381310909022
 20
9029.943765601442
 30
0.0
 11
9189.881310908985
 21
9029.943765601442
 31
0.0
 70
   160
 71
     5
 42
1273.000000000069
  3
INABA_S40G
100
AcDbAlignedDimension
 13
8639.115242744953
 23
9349.907155146045
 33
0.0
 14
9912.115242745022
 24
9349.907155146036
 34
0.0
100
AcDbRotatedDimension
1001
ACAD
1000
DSTYLE
1002
{
1002
}
  0
DIMENSION
  5
17D09
330
747D
100
AcDbEntity
  8
寸法
100
AcDbDimension
  2
*D21
 10
11241.61524274502
 20
10129.90715514599
 30
0.0
 11
11550.10052411926
 21
10129.90715514599
 31
0.0
 70
   160
 71
     5
 42
55.0
  3
INABA_S40G
100
AcDbAlignedDimension
 13
11186.61524274502
 23
9829.907155146091
 33
0.0
 14
11241.61524274502
 24
9829.907155146091
 34
0.0
100
AcDbRotatedDimension
1001
ACAD
1000
DSTYLE
1002
{
1002
}
  0
DIMENSION
  5
17D0A
330
747D
100
AcDbEntity
  8
寸法
100
AcDbDimension
  2
*D22
 10
11186.61524274502
 20
10129.90715514599
 30
0.0
 11
9926.615242745018
 21
10129.90715514599
 31
0.0
 70
   160
  1
6X420=<>
 71
     5
 42
2520.0
  3
INABA_S40G
100
AcDbAlignedDimension
 13
8666.615242745022
 23
9829.907155145997
 33
0.0
 14
11186.61524274502
 24
9829.907155146091
 34
0.0
100
AcDbRotatedDimension
1001
ACAD
1000
DSTYLE
1002
{
1002
}
  0
LINE
  5
17D0B
330
747D
100
AcDbEntity
  8
部品1
100
AcDbLine
 10
11185.11524274502
 20
7676.407155146081
 30
0.0
 11
8668.115242744915
 21
7676.407155145962
 31
0.0
  0
LINE
  5
17D0C
330
747D
100
AcDbEntity
  8
部品1
100
AcDbLine
 10
8611.615242745022
 20
9829.907155145997
 30
0.0
 11
11241.61524274502
 21
9829.907155146091
 31
0.0
  0
DIMENSION
  5
17D0E
330
747D
100
AcDbEntity
  8
寸法
100
AcDbDimension
  2
*D23
 10
11126.38131090901
 20
9029.943765601442
 30
0.0
 11
10559.50315005903
 21
9029.943765601442
 31
0.0
 70
   160
 71
     5
 42
1273.000000000011
  3
INABA_S40G
100
AcDbAlignedDimension
 13
9939.115242745023
 23
9349.907155146103
 33
0.0
 14
11212.11524274503
 24
9349.907155146095
 34
0.0
100
AcDbRotatedDimension
1001
ACAD
1000
DSTYLE
1002
{
1002
}
  0
LINE
  5
17D0F
330
747D
100
AcDbEntity
  8
細線
 48
50.0
100
AcDbLine
 10
11213.11524274502
 20
9799.907155146092
 30
0.0
 11
9940.115242745019
 21
9349.907155146103
 31
0.0
  0
LINE
  5
17D10
330
747D
100
AcDbEntity
  8
部品1
100
AcDbLine
 10
9940.115242745022
 20
9799.907155146099
 30
0.0
 11
11213.11524274502
 21
9799.907155146092
 31
0.0
  0
LINE
  5
17D11
330
747D
100
AcDbEntity
  8
部品1
100
AcDbLine
 10
9940.115242745019
 20
9349.907155146103
 30
0.0
 11
11213.11524274502
 21
9349.907155146095
 31
0.0
  0
LINE
  5
17D12
330
747D
100
AcDbEntity
  8
細線
 48
50.0
100
AcDbLine
 10
11213.11524274502
 20
9349.907155146095
 30
0.0
 11
9940.115242745022
 21
9799.907155146094
 31
0.0
  0
LINE
  5
17D13
330
747D
100
AcDbEntity
  8
部品1
100
AcDbLine
 10
9939.115242745023
 20
9801.90715514611
 30
0.0
 11
11213.61524274502
 21
9801.907155146091
 31
0.0
  0
LINE
  5
17D14
330
747D
100
AcDbEntity
  8
部品1
100
AcDbLine
 10
11185.115242745
 20
8934.907155146069
 30
0.0
 11
8668.115242745003
 21
8934.907155145966
 31
0.0
  0
LINE
  5
17D15
330
747D
100
AcDbEntity
  8
部品1
 48
50.0
100
AcDbLine
 10
8639.615242745014
 20
7647.907155146064
 30
0.0
 11
11213.61524274503
 21
7647.907155146068
 31
0.0
  0
LINE
  5
17D16
330
747D
100
AcDbEntity
  8
破線
 48
10.0
100
AcDbLine
 10
11161.61524274501
 20
9349.907155146095
 30
0.0
 11
11161.61524274502
 21
7699.907155146078
 31
0.0
  0
LINE
  5
17D17
330
747D
100
AcDbEntity
  8
破線
 48
10.0
100
AcDbLine
 10
8691.615242744996
 20
9349.907155146095
 30
0.0
 11
8691.615242745012
 21
7699.907155145962
 31
0.0
  0
LINE
  5
17D18
330
747D
100
AcDbEntity
  8
部品1
100
AcDbLine
 10
8639.615242744996
 20
7647.907155146042
 30
0.0
 11
8639.615242745014
 21
9354.907155145967
 31
0.0
  0
LINE
  5
17D19
330
747D
100
AcDbEntity
  8
部品1
100
AcDbLine
 10
8611.615242744985
 20
9829.907155145964
 30
0.0
 11
8611.615242745015
 21
7619.907155145951
 31
0.0
  0
LINE
  5
17D1A
330
747D
100
AcDbEntity
  8
破線
 48
10.0
100
AcDbLine
 10
9486.115242744999
 20
7676.407155145991
 30
0.0
 11
9486.115242744997
 21
9349.907155146103
 31
0.0
  0
LINE
  5
17D1B
330
747D
100
AcDbEntity
  8
破線
 48
10.0
100
AcDbLine
 10
9536.115242744996
 20
7676.407155145994
 30
0.0
 11
9536.115242744996
 21
9349.907155146103
 31
0.0
  0
LINE
  5
17D1C
330
747D
100
AcDbEntity
  8
部品1
100
AcDbLine
 10
8668.115242744995
 20
9349.907155146045
 30
0.0
 11
8668.11524274501
 21
7676.407155146056
 31
0.0
  0
LINE
  5
17D1D
330
747D
100
AcDbEntity
  8
破線
 48
10.0
100
AcDbLine
 10
10367.11524274499
 20
7676.407155145994
 30
0.0
 11
10367.11524274499
 21
9349.907155146103
 31
0.0
  0
LINE
  5
17D1E
330
747D
100
AcDbEntity
  8
破線
 48
10.0
100
AcDbLine
 10
10317.115242745
 20
7676.407155145991
 30
0.0
 11
10317.11524274499
 21
9349.907155146103
 31
0.0
  0
LINE
  5
17D1F
330
747D
100
AcDbEntity
  8
破線
 48
10.0
100
AcDbLine
 10
10317.115242745
 20
7699.907155145999
 30
0.0
 11
9536.115242744996
 21
7699.907155145973
 31
0.0
  0
LINE
  5
17D20
330
747D
100
AcDbEntity
  8
破線
 48
10.0
100
AcDbLine
 10
9486.115242744999
 20
7699.907155145948
 30
0.0
 11
8691.615242745006
 21
7699.907155145962
 31
0.0
  0
LINE
  5
17D21
330
747D
100
AcDbEntity
  8
部品1
100
AcDbLine
 10
9086.615242744988
 20
7619.907155145951
 30
0.0
 11
8611.615242745015
 21
7619.907155145951
 31
0.0
  0
LINE
  5
17D22
330
747D
100
AcDbEntity
  8
部品1
100
AcDbLine
 10
8611.61524274501
 20
7674.907155145915
 30
0.0
 11
8611.615242745015
 21
7619.907155145918
 31
0.0
  0
LINE
  5
17D23
330
747D
100
AcDbEntity
  8
部品1
100
AcDbLine
 10
8639.61524274501
 20
7674.907155145966
 30
0.0
 11
8611.61524274501
 21
7674.907155145966
 31
0.0
  0
LINE
  5
17D24
330
747D
100
AcDbEntity
  8
部品1
100
AcDbLine
 10
8639.615242744996
 20
7674.907155145951
 30
0.0
 11
8611.61524274501
 21
7674.907155145951
 31
0.0
  0
LINE
  5
17D25
330
747D
100
AcDbEntity
  8
部品1
100
AcDbLine
 10
8639.615242744996
 20
7674.907155145915
 30
0.0
 11
8611.61524274501
 21
7674.907155145915
 31
0.0
  0
LINE
  5
17D26
330
747D
100
AcDbEntity
  8
部品1
100
AcDbLine
 10
8666.615242744988
 20
7619.907155146082
 30
0.0
 11
8666.615242744988
 21
7647.907155146082
 31
0.0
  0
LINE
  5
17D27
330
747D
100
AcDbEntity
  8
部品1
 48
50.0
100
AcDbLine
 10
8668.11524274501
 20
7676.40715514606
 30
0.0
 11
8639.61524274501
 21
7647.907155146061
 31
0.0
  0
LINE
  5
17D28
330
747D
100
AcDbEntity
  8
部品1
100
AcDbLine
 10
9086.615242744988
 20
7619.907155146082
 30
0.0
 11
9086.615242744988
 21
7647.907155146082
 31
0.0
  0
LINE
  5
17D29
330
747D
100
AcDbEntity
  8
破線
 48
10.0
100
AcDbLine
 10
11161.61524274502
 20
7699.907155146082
 30
0.0
 11
10367.11524274499
 21
7699.907155145904
 31
0.0
  0
LINE
  5
17D2A
330
747D
100
AcDbEntity
  8
細線
 48
50.0
100
AcDbLine
 10
9913.115242745018
 20
9349.907155146103
 30
0.0
 11
8640.115242744952
 21
9799.907155146044
 31
0.0
  0
LINE
  5
17D2B
330
747D
100
AcDbEntity
  8
細線
 48
50.0
100
AcDbLine
 10
9913.115242745021
 20
9799.907155146099
 30
0.0
 11
8640.115242744952
 21
9349.907155146045
 31
0.0
  0
LINE
  5
17D2C
330
747D
100
AcDbEntity
  8
部品1
100
AcDbLine
 10
8639.615242745025
 20
9801.90715514611
 30
0.0
 11
9914.115242745019
 21
9801.907155146114
 31
0.0
  0
LINE
  5
17D2D
330
747D
100
AcDbEntity
  8
部品1
100
AcDbLine
 10
8640.115242744952
 20
9799.907155146044
 30
0.0
 11
9913.115242745021
 21
9799.907155146103
 31
0.0
  0
LINE
  5
17D2E
330
747D
100
AcDbEntity
  8
部品1
100
AcDbLine
 10
8640.115242744952
 20
9349.907155146045
 30
0.0
 11
9913.115242745018
 21
9349.907155146103
 31
0.0
  0
LINE
  5
17D2F
330
747D
100
AcDbEntity
  8
部品1
 48
50.0
100
AcDbLine
 10
8640.115242744952
 20
9799.907155146099
 30
0.0
 11
8640.115242744952
 21
9349.907155146103
 31
0.0
  0
LINE
  5
17D30
330
747D
100
AcDbEntity
  8
部品1
100
AcDbLine
 10
8639.61524274501
 20
9349.407155145966
 30
0.0
 11
8639.615242745021
 21
9801.907155145997
 31
0.0
  0
LINE
  5
17D31
330
747D
100
AcDbEntity
  8
部品1
100
AcDbLine
 10
8639.615242744996
 20
8934.907155145966
 30
0.0
 11
8611.615242744996
 21
8934.907155145966
 31
0.0
  0
LINE
  5
17D32
330
747D
100
AcDbEntity
  8
部品1
100
AcDbLine
 10
8639.615242744996
 20
9354.907155145967
 30
0.0
 11
8611.615242744996
 21
9354.907155145967
 31
0.0
  0
LINE
  5
17D33
330
747D
100
AcDbEntity
  8
部品1
100
AcDbLine
 10
8639.615242744989
 20
9774.907155145967
 30
0.0
 11
8611.615242744989
 21
9774.907155145967
 31
0.0
  0
LINE
  5
17D34
330
747D
100
AcDbEntity
  8
部品1
100
AcDbLine
 10
8666.615242745022
 20
9829.907155145997
 30
0.0
 11
8666.615242745022
 21
9801.907155145997
 31
0.0
  0
LINE
  5
17D35
330
747D
100
AcDbEntity
  8
部品1
100
AcDbLine
 10
8666.615242744986
 20
9829.907155145964
 30
0.0
 11
8666.615242744988
 21
9801.907155145965
 31
0.0
  0
LINE
  5
17D36
330
747D
100
AcDbEntity
  8
部品1
100
AcDbLine
 10
9086.615242744985
 20
9829.907155145964
 30
0.0
 11
9086.615242744988
 21
9801.907155145965
 31
0.0
  0
LINE
  5
17D37
330
747D
100
AcDbEntity
  8
部品1
100
AcDbLine
 10
9506.615242744985
 20
9829.907155145964
 30
0.0
 11
9506.61524274499
 21
9801.907155145965
 31
0.0
  0
LINE
  5
17D38
330
747D
100
AcDbEntity
  8
部品1
 48
50.0
100
AcDbLine
 10
9913.115242745021
 20
9799.907155146099
 30
0.0
 11
9913.115242745021
 21
9349.907155146103
 31
0.0
  0
LINE
  5
17D39
330
747D
100
AcDbEntity
  8
部品1
 48
50.0
100
AcDbLine
 10
9940.115242745022
 20
9799.907155146094
 30
0.0
 11
9940.115242745022
 21
9349.907155146103
 31
0.0
  0
LINE
  5
17D3A
330
747D
100
AcDbEntity
  8
部品1
 48
50.0
100
AcDbLine
 10
9914.115242745019
 20
9801.907155146105
 30
0.0
 11
9914.115242745022
 21
9349.907155146103
 31
0.0
  0
LINE
  5
17D3B
330
747D
100
AcDbEntity
  8
部品1
 48
50.0
100
AcDbLine
 10
9939.115242745023
 20
9801.907155146103
 30
0.0
 11
9939.115242745023
 21
9349.907155146103
 31
0.0
  0
LINE
  5
17D3C
330
747D
100
AcDbEntity
  8
部品1
100
AcDbLine
 10
9914.115242745022
 20
9349.907155146103
 30
0.0
 11
9939.115242745023
 21
9349.907155146103
 31
0.0
  0
LINE
  5
17D3D
330
747D
100
AcDbEntity
  8
部品1
100
AcDbLine
 10
9914.115242745022
 20
9793.907155146095
 30
0.0
 11
9939.115242745023
 21
9793.907155146099
 31
0.0
  0
LINE
  5
17D3E
330
747D
100
AcDbEntity
  8
部品1
100
AcDbLine
 10
9891.615242745022
 20
9819.907155146099
 30
0.0
 11
9891.615242745022
 21
9801.907155146098
 31
0.0
  0
LINE
  5
17D3F
330
747D
100
AcDbEntity
  8
部品1
100
AcDbLine
 10
9891.615242745022
 20
9819.907155146099
 30
0.0
 11
9897.615242745022
 21
9819.907155146099
 31
0.0
  0
LINE
  5
17D40
330
747D
100
AcDbEntity
  8
部品1
100
AcDbLine
 10
9961.615242745022
 20
9819.907155146099
 30
0.0
 11
9961.615242745022
 21
9801.907155146098
 31
0.0
  0
LINE
  5
17D41
330
747D
100
AcDbEntity
  8
部品1
100
AcDbLine
 10
9955.615242745022
 20
9819.907155146099
 30
0.0
 11
9961.615242745022
 21
9819.907155146099
 31
0.0
  0
LINE
  5
17D42
330
747D
100
AcDbEntity
  8
部品1
100
AcDbLine
 10
9926.615242744986
 20
9829.907155145964
 30
0.0
 11
9926.61524274499
 21
9801.907155145965
 31
0.0
  0
LINE
  5
17D43
330
747D
100
AcDbEntity
  8
部品1
100
AcDbLine
 10
10346.61524274498
 20
9829.907155145964
 30
0.0
 11
10346.61524274499
 21
9801.907155145965
 31
0.0
  0
LINE
  5
17D44
330
747D
100
AcDbEntity
  8
部品1
100
AcDbLine
 10
10766.61524274498
 20
9829.907155145964
 30
0.0
 11
10766.61524274499
 21
9801.907155145965
 31
0.0
  0
DIMENSION
  5
17D45
330
747D
100
AcDbEntity
  8
寸法
100
AcDbDimension
  2
*D24
 10
12241.61524274502
 20
7619.90715514608
 30
0.0
 11
12241.61524274502
 21
8724.907155146087
 31
0.0
 70
   160
 71
     5
 42
2210.00000000001
  3
INABA_S40G
100
AcDbAlignedDimension
 13
11241.61524274502
 23
9829.907155146091
 33
0.0
 14
11241.61524274499
 24
7619.90715514608
 34
0.0
 50
90.0
100
AcDbRotatedDimension
1001
ACAD
1000
DSTYLE
1002
{
1002
}
  0
DIMENSION
  5
17D46
330
747D
100
AcDbEntity
  8
寸法
100
AcDbDimension
  2
*D25
 10
11941.61524274501
 20
7674.907155146077
 30
0.0
 11
11941.61524274501
 21
8724.907155146087
 31
0.0
 70
   160
  1
5X420=<>
 71
     5
 42
2100.000000000017
  3
INABA_S40G
100
AcDbAlignedDimension
 13
11241.61524274502
 23
9774.907155146095
 33
0.0
 14
11241.61524274499
 24
7674.907155146077
 34
0.0
 50
90.0
100
AcDbRotatedDimension
1001
ACAD
1000
DSTYLE
1002
{
1002
}
  0
LINE
  5
17D47
330
747D
100
AcDbEntity
  8
部品1
100
AcDbLine
 10
11241.61524274502
 20
9829.907155146091
 30
0.0
 11
11241.61524274499
 21
7619.907155146082
 31
0.0
  0
LINE
  5
17D48
330
747D
100
AcDbEntity
  8
部品1
100
AcDbLine
 10
11185.11524274501
 20
9349.907155146091
 30
0.0
 11
11185.11524274502
 21
7676.407155146081
 31
0.0
  0
LINE
  5
17D49
330
747D
100
AcDbEntity
  8
部品1
100
AcDbLine
 10
11213.61524274501
 20
9354.907155146095
 30
0.0
 11
11213.615242745
 21
7647.907155146082
 31
0.0
  0
DIMENSION
  5
17D4A
330
747D
100
AcDbEntity
  8
寸法
100
AcDbDimension
  2
*D26
 10
11941.615242745
 20
7619.90715514608
 30
0.0
 11
11941.61524274499
 21
7311.421873771831
 31
0.0
 70
   160
 71
     5
 42
54.99999999999636
  3
INABA_S40G
100
AcDbAlignedDimension
 13
11241.61524274499
 23
7674.907155146077
 33
0.0
 14
11241.61524274499
 24
7619.90715514608
 34
0.0
 50
90.0
100
AcDbRotatedDimension
1001
ACAD
1000
DSTYLE
1002
{
1002
}
  0
LINE
  5
17D4B
330
747D
100
AcDbEntity
  8
部品1
100
AcDbLine
 10
11241.61524274499
 20
7619.907155146082
 30
0.0
 11
11186.61524274502
 21
7619.907155146067
 31
0.0
  0
LINE
  5
17D4C
330
747D
100
AcDbEntity
  8
部品1
100
AcDbLine
 10
11213.615242745
 20
7674.907155146079
 30
0.0
 11
11241.61524274499
 21
7674.907155146079
 31
0.0
  0
LINE
  5
17D4D
330
747D
100
AcDbEntity
  8
部品1
100
AcDbLine
 10
11241.61524274499
 20
7619.907155146082
 30
0.0
 11
11190.61524274499
 21
7619.907155146082
 31
0.0
  0
LINE
  5
17D4E
330
747D
100
AcDbEntity
  8
部品1
 48
50.0
100
AcDbLine
 10
11185.11524274502
 20
7676.407155146081
 30
0.0
 11
11213.61524274502
 21
7647.907155146082
 31
0.0
  0
LINE
  5
17D4F
330
747D
100
AcDbEntity
  8
部品1
100
AcDbLine
 10
11241.615242745
 20
7674.907155146079
 30
0.0
 11
11241.61524274499
 21
7619.907155146082
 31
0.0
  0
LINE
  5
17D50
330
747D
100
AcDbEntity
  8
部品1
100
AcDbLine
 10
11213.61524274502
 20
7674.907155146079
 30
0.0
 11
11241.61524274502
 21
7674.907155146079
 31
0.0
  0
LINE
  5
17D51
330
747D
100
AcDbEntity
  8
部品1
 48
50.0
100
AcDbLine
 10
11186.61524274502
 20
7619.907155146067
 30
0.0
 11
11186.61524274502
 21
7647.907155146068
 31
0.0
  0
LINE
  5
17D53
330
747D
100
AcDbEntity
  8
部品1
100
AcDbLine
 10
11213.61524274502
 20
9801.907155146091
 30
0.0
 11
11213.61524274501
 21
9349.407155145966
 31
0.0
  0
LINE
  5
17D54
330
747D
100
AcDbEntity
  8
部品1
100
AcDbLine
 10
11213.11524274502
 20
9799.907155146092
 30
0.0
 11
11213.11524274502
 21
9349.907155146095
 31
0.0
  0
DIMENSION
  5
17D55
330
747D
100
AcDbEntity
  8
寸法
100
AcDbDimension
  2
*D27
 10
11641.61524274501
 20
9235.090926189359
 30
0.0
 11
11641.61524274501
 21
9460.090926189357
 31
0.0
 70
   160
 71
     5
 42
449.9999999999963
  3
INABA_S40G
100
AcDbAlignedDimension
 13
11213.11524274502
 23
9799.907155146092
 33
0.0
 14
11213.11524274502
 24
9349.907155146095
 34
0.0
 50
90.0
100
AcDbRotatedDimension
1001
ACAD
1000
DSTYLE
1002
{
1002
}
  0
DIMENSION
  5
17D56
330
747D
100
AcDbEntity
  8
寸法
100
AcDbDimension
  2
*D28
 10
11941.61524274501
 20
9774.907155146095
 30
0.0
 11
11941.61524274501
 21
10138.39243652033
 31
0.0
 70
   160
 71
     5
 42
54.99999999999636
  3
INABA_S40G
100
AcDbAlignedDimension
 13
11241.61524274502
 23
9829.907155146091
 33
0.0
 14
11241.61524274502
 24
9774.907155146095
 34
0.0
 50
90.0
100
AcDbRotatedDimension
1001
ACAD
1000
DSTYLE
1002
{
1002
}
  0
LINE
  5
17D57
330
747D
100
AcDbEntity
  8
部品1
100
AcDbLine
 10
11213.61524274502
 20
8934.907155146094
 30
0.0
 11
11241.61524274502
 21
8934.907155146094
 31
0.0
  0
LINE
  5
17D58
330
747D
100
AcDbEntity
  8
部品1
100
AcDbLine
 10
11213.61524274502
 20
9354.907155146095
 30
0.0
 11
11241.61524274502
 21
9354.907155146095
 31
0.0
  0
LINE
  5
17D59
330
747D
100
AcDbEntity
  8
部品1
100
AcDbLine
 10
11213.61524274502
 20
9774.907155146095
 30
0.0
 11
11241.61524274502
 21
9774.907155146095
 31
0.0
  0
LINE
  5
17D5A
330
747D
100
AcDbEntity
  8
部品1
100
AcDbLine
 10
11186.61524274502
 20
9829.907155146113
 30
0.0
 11
11186.61524274502
 21
9801.907155146114
 31
0.0
  0
LINE
  5
17D5B
330
747D
100
AcDbEntity
  8
部品1
100
AcDbLine
 10
11186.61524274502
 20
9829.907155146091
 30
0.0
 11
11186.61524274502
 21
9801.907155146091
 31
0.0
  0
MTEXT
  5
17D5D
330
747D
100
AcDbEntity
  8
寸法
 62
     7
 48
50.0
100
AcDbMText
 10
10591.71777983816
 20
9416.141973343401
 30
0.0
 40
96.0
 41
0.0
 71
     5
 72
     1
  1
棚 3段
  7
STYLE1
 73
     1
 44
1.0
1001
ACAD
1000
MTEXTBEGIN
1070
    73
1070
     1
1070
    44
1040
1.0
1070
    74
1070
     0
1000
MTEXTEND
  0
LINE
  5
17D7B
330
747D
100
AcDbEntity
  8
部品1
 48
50.0
100
AcDbLine
 10
11213.61524274501
 20
4471.775961235216
 30
0.0
 11
9059.61524274501
 21
4471.775961235216
 31
0.0
  0
LINE
  5
17D7C
330
747D
100
AcDbEntity
  8
細線
 48
50.0
100
AcDbLine
 10
11213.61524274501
 20
4461.775961235217
 30
0.0
 11
9059.61524274501
 21
4461.775961235217
 31
0.0
  0
LINE
  5
17D7D
330
747D
100
AcDbEntity
  8
細線
 48
50.0
100
AcDbLine
 10
11183.61524274501
 20
4419.775961235216
 30
0.0
 11
9089.61524274501
 21
4419.775961235216
 31
0.0
  0
LINE
  5
17D7E
330
747D
100
AcDbEntity
  8
細線
 48
50.0
100
AcDbLine
 10
11183.61524274501
 20
4429.275961235216
 30
0.0
 11
9089.61524274501
 21
4429.275961235216
 31
0.0
  0
LINE
  5
17D7F
330
747D
100
AcDbEntity
  8
部品1
 48
50.0
100
AcDbLine
 10
9059.61524274501
 20
2336.775961235217
 30
0.0
 11
11213.61524274501
 21
2336.775961235217
 31
0.0
  0
LINE
  5
17D80
330
747D
100
AcDbEntity
  8
細線
 48
50.0
100
AcDbLine
 10
9089.61524274501
 20
2379.775961235217
 30
0.0
 11
11183.61524274501
 21
2379.775961235217
 31
0.0
  0
LINE
  5
17D81
330
747D
100
AcDbEntity
  8
細線
 48
50.0
100
AcDbLine
 10
9089.61524274501
 20
2383.775961235217
 30
0.0
 11
11183.61524274501
 21
2383.775961235217
 31
0.0
  0
LINE
  5
17D82
330
747D
100
AcDbEntity
  8
細線
 48
50.0
100
AcDbLine
 10
9893.615242745012
 20
2394.275961235217
 30
0.0
 11
11157.61524274501
 21
2394.275961235217
 31
0.0
  0
LINE
  5
17D83
330
747D
100
AcDbEntity
  8
部品1
 48
50.0
100
AcDbLine
 10
9089.61524274501
 20
2386.775961235217
 30
0.0
 11
9089.61524274501
 21
4419.775961235216
 31
0.0
  0
LINE
  5
17D84
330
747D
100
AcDbEntity
  8
細線
 48
50.0
100
AcDbLine
 10
9089.61524274501
 20
4429.275961235216
 30
0.0
 11
9089.61524274501
 21
2336.775961235217
 31
0.0
  0
LINE
  5
17D85
330
747D
100
AcDbEntity
  8
部品1
 48
50.0
100
AcDbLine
 10
9059.61524274501
 20
4471.775961235216
 30
0.0
 11
9059.61524274501
 21
2336.775961235217
 31
0.0
  0
LINE
  5
17D86
330
747D
100
AcDbEntity
  8
部品1
 48
50.0
100
AcDbLine
 10
9893.615242745012
 20
4419.775961259984
 30
0.0
 11
9893.615242745012
 21
2386.775961259984
 31
0.0
  0
LINE
  5
17D87
330
747D
100
AcDbEntity
  8
部品1
 48
50.0
100
AcDbLine
 10
9089.61524274501
 20
2386.775961235217
 30
0.0
 11
9893.615242745012
 21
2386.775961235213
 31
0.0
  0
LINE
  5
17D88
330
747D
100
AcDbEntity
  8
部品1
 48
50.0
100
AcDbLine
 10
9098.61524274501
 20
2386.775961235217
 30
0.0
 11
9098.61524274501
 21
2383.775961235217
 31
0.0
  0
LINE
  5
17D89
330
747D
100
AcDbEntity
  8
部品1
 48
50.0
100
AcDbLine
 10
9089.61524274501
 20
4427.775961235216
 30
0.0
 11
9059.61524274501
 21
4427.775961235216
 31
0.0
  0
LINE
  5
17D8A
330
747D
100
AcDbEntity
  8
部品1
 48
50.0
100
AcDbLine
 10
11174.61524274501
 20
2383.775961235217
 30
0.0
 11
11174.61524274501
 21
4419.775961235216
 31
0.0
  0
LINE
  5
17D8B
330
747D
100
AcDbEntity
  8
細線
 48
50.0
100
AcDbLine
 10
11183.61524274501
 20
2336.775961235217
 30
0.0
 11
11183.61524274501
 21
4429.275961235216
 31
0.0
  0
LINE
  5
17D8C
330
747D
100
AcDbEntity
  8
部品1
 48
50.0
100
AcDbLine
 10
11213.61524274501
 20
2336.775961235217
 30
0.0
 11
11213.61524274501
 21
4471.775961235216
 31
0.0
  0
LINE
  5
17D8D
330
747D
100
AcDbEntity
  8
部品1
 48
50.0
100
AcDbLine
 10
10547.61523304987
 20
4419.775961272363
 30
0.0
 11
10547.61523304987
 21
2394.275961272364
 31
0.0
  0
LINE
  5
17D8E
330
747D
100
AcDbEntity
  8
細線
 48
50.0
100
AcDbLine
 10
11161.61524274501
 20
2383.775961235217
 30
0.0
 11
11157.61524274501
 21
2394.275961235217
 31
0.0
  0
LINE
  5
17D8F
330
747D
100
AcDbEntity
  8
部品1
 48
50.0
100
AcDbLine
 10
11213.61524274501
 20
4427.775961235216
 30
0.0
 11
11183.61524274501
 21
4427.775961235216
 31
0.0
  0
LINE
  5
17D90
330
747D
100
AcDbEntity
  8
細線
100
AcDbLine
 10
10670.36524274501
 20
4419.775961235216
 30
0.0
 11
10670.36524274501
 21
2394.275961235235
 31
0.0
  0
LINE
  5
17D91
330
747D
100
AcDbEntity
  8
細線
100
AcDbLine
 10
9955.115252495255
 20
4419.775961235216
 30
0.0
 11
9955.115252495255
 21
2394.275961235228
 31
0.0
  0
LINE
  5
17D92
330
747D
100
AcDbEntity
  8
細線
100
AcDbLine
 10
10025.11525249525
 20
4419.775961235216
 30
0.0
 11
10025.11525249525
 21
2394.275961235228
 31
0.0
  0
LINE
  5
17D93
330
747D
100
AcDbEntity
  8
細線
100
AcDbLine
 10
9303.61524274501
 20
4419.775961235216
 30
0.0
 11
9303.61524274501
 21
2386.77596123522
 31
0.0
  0
LINE
  5
17D94
330
747D
100
AcDbEntity
  8
細線
100
AcDbLine
 10
9373.61524274501
 20
4419.775961235216
 30
0.0
 11
9373.61524274501
 21
2386.77596123522
 31
0.0
  0
LINE
  5
17D95
330
747D
100
AcDbEntity
  8
細線
100
AcDbLine
 10
10740.36524274501
 20
4419.775961235216
 30
0.0
 11
10740.36524274501
 21
2394.275961235235
 31
0.0
  0
LINE
  5
17D96
330
747D
100
AcDbEntity
  8
細線
100
AcDbLine
 10
10810.36524274501
 20
4419.775961235216
 30
0.0
 11
10810.36524274501
 21
2394.275961235235
 31
0.0
  0
LINE
  5
17D97
330
747D
100
AcDbEntity
  8
細線
100
AcDbLine
 10
10880.36524274501
 20
4419.775961235216
 30
0.0
 11
10880.36524274501
 21
2394.275961235235
 31
0.0
  0
LINE
  5
17D98
330
747D
100
AcDbEntity
  8
細線
100
AcDbLine
 10
10950.36524274501
 20
4419.775961235216
 30
0.0
 11
10950.36524274501
 21
2394.275961235235
 31
0.0
  0
LINE
  5
17D99
330
747D
100
AcDbEntity
  8
細線
100
AcDbLine
 10
11020.36524274501
 20
4419.775961235216
 30
0.0
 11
11020.36524274501
 21
2394.275961235235
 31
0.0
  0
LINE
  5
17D9A
330
747D
100
AcDbEntity
  8
細線
100
AcDbLine
 10
10095.11525249525
 20
4419.775961235216
 30
0.0
 11
10095.11525249525
 21
2394.275961235228
 31
0.0
  0
LINE
  5
17D9B
330
747D
100
AcDbEntity
  8
細線
100
AcDbLine
 10
10165.11525249525
 20
4419.775961235216
 30
0.0
 11
10165.11525249525
 21
2394.275961235228
 31
0.0
  0
LINE
  5
17D9C
330
747D
100
AcDbEntity
  8
細線
100
AcDbLine
 10
10235.11525249525
 20
4419.775961235216
 30
0.0
 11
10235.11525249525
 21
2394.275961235228
 31
0.0
  0
LINE
  5
17D9D
330
747D
100
AcDbEntity
  8
細線
100
AcDbLine
 10
10305.11525249525
 20
4419.775961235216
 30
0.0
 11
10305.11525249525
 21
2394.275961235228
 31
0.0
  0
LINE
  5
17D9E
330
747D
100
AcDbEntity
  8
細線
100
AcDbLine
 10
10375.11525249525
 20
4419.775961235216
 30
0.0
 11
10375.11525249525
 21
2394.275961235228
 31
0.0
  0
LINE
  5
17D9F
330
747D
100
AcDbEntity
  8
細線
100
AcDbLine
 10
10445.11525249525
 20
4419.775961235216
 30
0.0
 11
10445.11525249525
 21
2394.275961235228
 31
0.0
  0
LINE
  5
17DA0
330
747D
100
AcDbEntity
  8
細線
100
AcDbLine
 10
9217.61524274501
 20
4419.775961235216
 30
0.0
 11
9217.61524274501
 21
2386.77596123522
 31
0.0
  0
LINE
  5
17DA1
330
747D
100
AcDbEntity
  8
細線
100
AcDbLine
 10
9251.61524274501
 20
4419.775961235216
 30
0.0
 11
9251.61524274501
 21
2386.77596123522
 31
0.0
  0
LINE
  5
17DA2
330
747D
100
AcDbEntity
  8
部品1
100
AcDbLine
 10
9209.615242745011
 20
4419.775961235216
 30
0.0
 11
9209.615242745011
 21
2386.77596123522
 31
0.0
  0
LINE
  5
17DA3
330
747D
100
AcDbEntity
  8
部品1
100
AcDbLine
 10
9259.615242745011
 20
4419.775961235216
 30
0.0
 11
9259.615242745011
 21
2386.77596123522
 31
0.0
  0
LINE
  5
17DA4
330
747D
100
AcDbEntity
  8
細線
100
AcDbLine
 10
9443.615242745011
 20
4419.775961235216
 30
0.0
 11
9443.615242745011
 21
2386.77596123522
 31
0.0
  0
LINE
  5
17DA5
330
747D
100
AcDbEntity
  8
細線
100
AcDbLine
 10
9513.615242745011
 20
4419.775961235216
 30
0.0
 11
9513.615242745011
 21
2386.77596123522
 31
0.0
  0
LINE
  5
17DA6
330
747D
100
AcDbEntity
  8
細線
100
AcDbLine
 10
9583.615242745009
 20
4419.775961235216
 30
0.0
 11
9583.615242745009
 21
2386.77596123522
 31
0.0
  0
LINE
  5
17DA7
330
747D
100
AcDbEntity
  8
細線
100
AcDbLine
 10
9653.615242745011
 20
4419.775961235216
 30
0.0
 11
9653.615242745011
 21
2386.77596123522
 31
0.0
  0
LINE
  5
17DA8
330
747D
100
AcDbEntity
  8
細線
100
AcDbLine
 10
9723.615242745012
 20
4419.775961235216
 30
0.0
 11
9723.615242745012
 21
2386.775961235224
 31
0.0
  0
LINE
  5
17DA9
330
747D
100
AcDbEntity
  8
細線
100
AcDbLine
 10
9793.615242745012
 20
4419.775961235216
 30
0.0
 11
9793.615242745012
 21
2386.775961235224
 31
0.0
  0
LINE
  5
17DAA
330
747D
100
AcDbEntity
  8
部品1
100
AcDbLine
 10
10547.61523304986
 20
4419.775961272367
 30
0.0
 11
10547.61523304987
 21
2394.275961272382
 31
0.0
  0
LINE
  5
17DAB
330
747D
100
AcDbEntity
  8
部品1
 48
50.0
100
AcDbLine
 10
9893.615242745012
 20
4419.775961259984
 30
0.0
 11
9893.615242745012
 21
2386.775961235213
 31
0.0
  0
LINE
  5
17E5C
330
747D
100
AcDbEntity
  8
細線
 48
50.0
100
AcDbLine
 10
8744.11524274501
 20
4476.775961235216
 30
0.0
 11
8744.11524274501
 21
2386.775961235217
 31
0.0
  0
LINE
  5
17E5D
330
747D
100
AcDbEntity
  8
細線
 48
50.0
100
AcDbLine
 10
8729.115242745011
 20
4476.775961235216
 30
0.0
 11
8729.115242745011
 21
2386.775961235217
 31
0.0
  0
LINE
  5
17E5E
330
747D
100
AcDbEntity
  8
細線
 48
50.0
100
AcDbLine
 10
8869.11524274501
 20
4476.775961235216
 30
0.0
 11
8869.11524274501
 21
2386.775961235217
 31
0.0
  0
LINE
  5
17E5F
330
747D
100
AcDbEntity
  8
細線
 48
50.0
100
AcDbLine
 10
8884.115242745011
 20
4476.775961235216
 30
0.0
 11
8884.115242745011
 21
2386.775961235217
 31
0.0
  0
LINE
  5
17E60
330
747D
100
AcDbEntity
  8
細線
 48
50.0
100
AcDbLine
 10
9024.115242745009
 20
4476.775961235216
 30
0.0
 11
9024.115242745009
 21
2386.775961235217
 31
0.0
  0
LINE
  5
17E61
330
747D
100
AcDbEntity
  8
細線
 48
50.0
100
AcDbLine
 10
9009.115242745011
 20
4476.775961235216
 30
0.0
 11
9009.115242745011
 21
2386.775961235217
 31
0.0
  0
TEXT
  5
17E63
330
747D
100
AcDbEntity
  8
文字
 62
     7
 48
50.0
100
AcDbText
 10
14491.96323844892
 20
483.8967129911416
 30
0.0
 40
160.0
  1
ＮＸＮ－６０ＨＢ
  7
STYLE2
100
AcDbText
  0
TEXT
  5
17E64
330
747D
100
AcDbEntity
  8
文字
 62
     7
 48
50.0
100
AcDbText
 10
13209.4053442172
 20
228.543524256902
 30
0.0
 40
100.0
  1
○有効開口寸法 ： 1266×2025(mm)
  7
STYLE2
100
AcDbText
  0
DIMENSION
  5
17E65
330
747D
100
AcDbEntity
  8
寸法
100
AcDbDimension
  2
*D29
 10
11774.45275809241
 20
4656.775961235218
 30
0.0
 11
11774.45275809241
 21
3512.219001178124
 31
0.0
 70
   160
 71
     5
 42
2320.000000000002
  3
INABA_S40G
100
AcDbAlignedDimension
 13
11241.61524274501
 23
2336.775961235217
 33
0.0
 14
11321.61524274499
 24
4656.775961235218
 34
0.0
 50
90.0
100
AcDbRotatedDimension
1001
ACAD
1000
DSTYLE
1002
{
1070
   174
1070
     0
1070
   272
1070
     1
1070
   288
1070
     0
1070
   341
1005
0
1002
}
  0
LINE
  5
17E66
330
747D
100
AcDbEntity
  8
部品1
100
AcDbLine
 10
11213.61524274502
 20
8094.907155146094
 30
0.0
 11
11241.61524274502
 21
8094.907155146094
 31
0.0
  0
LINE
  5
17E67
330
747D
100
AcDbEntity
  8
部品1
100
AcDbLine
 10
8639.615242744996
 20
8094.907155145966
 30
0.0
 11
8611.615242744996
 21
8094.907155145966
 31
0.0
  0
LINE
  5
17E68
330
747D
100
AcDbEntity
  8
部品1
100
AcDbLine
 10
11185.115242745
 20
8094.907155146067
 30
0.0
 11
8668.115242745003
 21
8094.907155145966
 31
0.0
  0
LINE
  5
18256
330
747D
100
AcDbEntity
  8
補助
  6
PHANTOM
 62
   230
 48
50.0
100
AcDbLine
 10
140.0
 20
0.0
 30
0.0
 11
139.9999999999995
 21
11409.6
 31
0.0
  0
MTEXT
  5
18257
330
747D
100
AcDbEntity
  8
寸法
 62
     7
 48
50.0
100
AcDbMText
 10
9291.717779838128
 20
9416.141973343377
 30
0.0
 40
96.0
 41
0.0
 71
     5
 72
     1
  1
棚 3段
  7
STYLE1
 73
     1
 44
1.0
1001
ACAD
1000
MTEXTBEGIN
1070
    73
1070
     1
1070
    44
1040
1.0
1070
    74
1070
     0
1000
MTEXTEND
  0
LINE
  5
18401
330
747D
100
AcDbEntity
  8
部品1
 48
50.0
100
AcDbLine
 10
9133.61524274501
 20
3468.275961235219
 30
0.0
 11
9186.615242745011
 21
3468.275961235219
 31
0.0
  0
LINE
  5
18661
330
747D
100
AcDbEntity
  8
寸法
 48
50.0
100
AcDbLine
 10
9521.818249026834
 20
7397.943906714946
 30
0.0
 11
9470.412241116731
 21
7397.943906714946
 31
0.0
  0
LINE
  5
18662
330
747D
100
AcDbEntity
  8
寸法
 48
50.0
100
AcDbLine
 10
9470.412241116731
 20
7397.943906714946
 30
0.0
 11
9470.412241116731
 21
7429.254065367111
 31
0.0
  0
LINE
  5
18663
330
747D
100
AcDbEntity
  8
寸法
 48
50.0
100
AcDbLine
 10
9470.412241116731
 20
7429.254065367111
 30
0.0
 11
9440.650909125308
 21
7429.254065367111
 31
0.0
  0
LINE
  5
18664
330
747D
100
AcDbEntity
  8
寸法
 48
50.0
100
AcDbLine
 10
9440.650909125308
 20
7429.254065367111
 30
0.0
 11
9496.115245071782
 21
7466.833516295721
 31
0.0
  0
LINE
  5
18665
330
747D
100
AcDbEntity
  8
寸法
 48
50.0
100
AcDbLine
 10
9551.579581018257
 20
7429.254065367111
 30
0.0
 11
9496.115245071782
 21
7466.833516295721
 31
0.0
  0
LINE
  5
18666
330
747D
100
AcDbEntity
  8
寸法
 48
50.0
100
AcDbLine
 10
9521.818249026834
 20
7429.254065367111
 30
0.0
 11
9551.579581018257
 21
7429.254065367111
 31
0.0
  0
LINE
  5
18667
330
747D
100
AcDbEntity
  8
寸法
 48
50.0
100
AcDbLine
 10
9521.818249026834
 20
7397.943906714946
 30
0.0
 11
9521.818249026834
 21
7429.254065367111
 31
0.0
  0
LINE
  5
18668
330
747D
100
AcDbEntity
  8
寸法
 48
50.0
100
AcDbLine
 10
9470.412241116731
 20
7397.943906714946
 30
0.0
 11
9521.818249026834
 21
7397.943906714946
 31
0.0
  0
LINE
  5
18669
330
747D
100
AcDbEntity
  8
寸法
 48
50.0
100
AcDbLine
 10
9800.983783303692
 20
7455.089497469768
 30
0.0
 11
9800.983783303692
 21
7401.425862887979
 31
0.0
  0
LINE
  5
1866A
330
747D
100
AcDbEntity
  8
寸法
 48
50.0
100
AcDbLine
 10
9890.268001899112
 20
7431.165863200281
 30
0.0
 11
9800.983783303692
 21
7455.089497469768
 31
0.0
  0
LINE
  5
1866B
330
747D
100
AcDbEntity
  8
寸法
 48
50.0
100
AcDbLine
 10
9671.116061723388
 20
7431.165863200281
 30
0.0
 11
9890.268001899112
 21
7431.165863200281
 31
0.0
  0
LINE
  5
1866C
330
747D
100
AcDbEntity
  8
細線
 48
50.0
100
AcDbLine
 10
10547.61524274499
 20
7596.407270094807
 30
0.0
 11
11174.61524274499
 21
7596.407270094807
 31
0.0
  0
LINE
  5
1866D
330
747D
100
AcDbEntity
  8
細線
 48
50.0
100
AcDbLine
 10
9893.615247398578
 20
7562.698501540731
 30
0.0
 11
11174.61524274499
 21
7562.698501540731
 31
0.0
  0
LINE
  5
1866E
330
747D
100
AcDbEntity
  8
細線
 48
50.0
100
AcDbLine
 10
9852.615247398581
 20
7592.103409536985
 30
0.0
 11
9098.615242744989
 21
7592.103409536981
 31
0.0
  0
LINE
  5
1866F
330
747D
100
AcDbEntity
  8
細線
100
AcDbLine
 10
10950.36523332853
 20
7615.907170059816
 30
0.0
 11
10952.69677285034
 21
7620.907172699777
 31
0.0
  0
LINE
  5
18670
330
747D
100
AcDbEntity
  8
細線
100
AcDbLine
 10
11020.36524274499
 20
7615.907155146082
 30
0.0
 11
11018.0336962688
 21
7620.907172699763
 31
0.0
  0
LINE
  5
18671
330
747D
100
AcDbEntity
  8
細線
100
AcDbLine
 10
11018.0336962688
 20
7620.907172699763
 30
0.0
 11
10952.69677285032
 21
7620.907172699748
 31
0.0
  0
LINE
  5
18672
330
747D
100
AcDbEntity
  8
細線
100
AcDbLine
 10
10878.0336962688
 20
7620.907172699763
 30
0.0
 11
10812.69677285032
 21
7620.907172699748
 31
0.0
  0
LINE
  5
18673
330
747D
100
AcDbEntity
  8
細線
100
AcDbLine
 10
10880.36524274499
 20
7615.907155146082
 30
0.0
 11
10878.0336962688
 21
7620.907172699763
 31
0.0
  0
LINE
  5
18674
330
747D
100
AcDbEntity
  8
細線
100
AcDbLine
 10
10810.36523332853
 20
7615.907170059816
 30
0.0
 11
10812.69677285034
 21
7620.907172699777
 31
0.0
  0
LINE
  5
18675
330
747D
100
AcDbEntity
  8
細線
100
AcDbLine
 10
10670.36524274499
 20
7615.907155146082
 30
0.0
 11
10672.6967822668
 21
7620.907157786042
 31
0.0
  0
LINE
  5
18676
330
747D
100
AcDbEntity
  8
細線
100
AcDbLine
 10
10740.36525216145
 20
7615.907140232348
 30
0.0
 11
10738.03370568526
 21
7620.907157786028
 31
0.0
  0
LINE
  5
18677
330
747D
100
AcDbEntity
  8
細線
100
AcDbLine
 10
10738.03370568526
 20
7620.907157786028
 30
0.0
 11
10672.69678226678
 21
7620.907157786014
 31
0.0
  0
LINE
  5
18678
330
747D
100
AcDbEntity
  8
細線
100
AcDbLine
 10
10442.78372693409
 20
7586.90719448341
 30
0.0
 11
10377.44680351562
 21
7586.907194483396
 31
0.0
  0
LINE
  5
18679
330
747D
100
AcDbEntity
  8
細線
100
AcDbLine
 10
10445.11527341028
 20
7581.907176929729
 30
0.0
 11
10442.78372693409
 21
7586.90719448341
 31
0.0
  0
LINE
  5
1867A
330
747D
100
AcDbEntity
  8
細線
100
AcDbLine
 10
10375.11526399382
 20
7581.907191843464
 30
0.0
 11
10377.44680351563
 21
7586.907194483424
 31
0.0
  0
LINE
  5
1867B
330
747D
100
AcDbEntity
  8
細線
 48
50.0
100
AcDbLine
 10
10216.498621993
 20
7600.178018299162
 30
0.0
 11
10222.25413957567
 21
7581.907167008676
 31
0.0
  0
LINE
  5
1867C
330
747D
100
AcDbEntity
  8
細線
 48
50.0
100
AcDbLine
 10
10205.57017351257
 20
7600.178018299162
 30
0.0
 11
10216.498621993
 21
7600.178018299162
 31
0.0
  0
ARC
  5
1867D
330
747D
100
AcDbEntity
  8
細線
 48
50.0
100
AcDbCircle
 10
10200.11581745525
 20
7601.678018299162
 30
0.0
 40
5.0
100
AcDbArc
 50
204.6243183521304
 51
335.3756816478695
  0
ARC
  5
1867E
330
747D
100
AcDbEntity
  8
細線
 48
50.0
100
AcDbCircle
 10
10205.57017351257
 20
7599.178018299163
 30
0.0
 40
1.0
100
AcDbArc
 50
90.0
 51
155.3756816478695
  0
ARC
  5
1867F
330
747D
100
AcDbEntity
  8
細線
 48
50.0
100
AcDbCircle
 10
10194.66146139793
 20
7599.178018299163
 30
0.0
 40
1.0
100
AcDbArc
 50
24.62431835213048
 51
90.0
  0
LINE
  5
18680
330
747D
100
AcDbEntity
  8
細線
 48
50.0
100
AcDbLine
 10
10183.7330129175
 20
7600.178018299162
 30
0.0
 11
10194.66146139793
 21
7600.178018299162
 31
0.0
  0
LINE
  5
18681
330
747D
100
AcDbEntity
  8
細線
 48
50.0
100
AcDbLine
 10
10177.97749533483
 20
7581.907167008669
 30
0.0
 11
10183.7330129175
 21
7600.178018299162
 31
0.0
  0
LINE
  5
18682
330
747D
100
AcDbEntity
  8
細線
100
AcDbLine
 10
10235.11526522487
 20
7581.907164374474
 30
0.0
 11
10237.44680474668
 21
7586.907167014434
 31
0.0
  0
LINE
  5
18683
330
747D
100
AcDbEntity
  8
細線
100
AcDbLine
 10
10305.11527464132
 20
7581.907149460739
 30
0.0
 11
10302.78372816513
 21
7586.90716701442
 31
0.0
  0
LINE
  5
18684
330
747D
100
AcDbEntity
  8
細線
100
AcDbLine
 10
10302.78372816513
 20
7586.90716701442
 30
0.0
 11
10237.44680474666
 21
7586.907167014405
 31
0.0
  0
LINE
  5
18685
330
747D
100
AcDbEntity
  8
細線
100
AcDbLine
 10
10162.78369980062
 20
7586.907167008639
 30
0.0
 11
10097.44677638214
 21
7586.907167008625
 31
0.0
  0
LINE
  5
18686
330
747D
100
AcDbEntity
  8
細線
100
AcDbLine
 10
10165.11524627681
 20
7581.907149454959
 30
0.0
 11
10162.78369980062
 21
7586.907167008639
 31
0.0
  0
LINE
  5
18687
330
747D
100
AcDbEntity
  8
細線
100
AcDbLine
 10
10095.11523809139
 20
7581.907167008669
 30
0.0
 11
10097.44677638216
 21
7586.907167008654
 31
0.0
  0
LINE
  5
18688
330
747D
100
AcDbEntity
  8
細線
100
AcDbLine
 10
9955.115273410285
 20
7581.907175196038
 30
0.0
 11
9957.446811701052
 21
7586.907175196023
 31
0.0
  0
LINE
  5
18689
330
747D
100
AcDbEntity
  8
細線
100
AcDbLine
 10
10025.1152815957
 20
7581.907157642328
 30
0.0
 11
10022.78373511951
 21
7586.907175196005
 31
0.0
  0
LINE
  5
1868A
330
747D
100
AcDbEntity
  8
細線
100
AcDbLine
 10
10022.78373511951
 20
7586.907175196005
 30
0.0
 11
9957.446811701037
 21
7586.907175195995
 31
0.0
  0
LINE
  5
1868B
330
747D
100
AcDbEntity
  8
細線
100
AcDbLine
 10
9583.615239213163
 20
7547.907346876751
 30
0.0
 11
9585.946777503931
 21
7552.907346876736
 31
0.0
  0
LINE
  5
1868C
330
747D
100
AcDbEntity
  8
細線
100
AcDbLine
 10
9653.61524739858
 20
7547.907329323037
 30
0.0
 11
9651.283700922391
 21
7552.907346876715
 31
0.0
  0
LINE
  5
1868D
330
747D
100
AcDbEntity
  8
細線
100
AcDbLine
 10
9651.283700922391
 20
7552.907346876715
 30
0.0
 11
9585.946777503918
 21
7552.907346876708
 31
0.0
  0
LINE
  5
1868E
330
747D
100
AcDbEntity
  8
細線
100
AcDbLine
 10
9791.283700922392
 20
7552.907346876715
 30
0.0
 11
9725.946777503921
 21
7552.907346876708
 31
0.0
  0
LINE
  5
1868F
330
747D
100
AcDbEntity
  8
細線
100
AcDbLine
 10
9793.615247398578
 20
7547.907329323037
 30
0.0
 11
9791.283700922392
 21
7552.907346876715
 31
0.0
  0
LINE
  5
18690
330
747D
100
AcDbEntity
  8
細線
100
AcDbLine
 10
9723.615239213163
 20
7547.907346876751
 30
0.0
 11
9725.94677750393
 21
7552.907346876736
 31
0.0
  0
LINE
  5
18691
330
747D
100
AcDbEntity
  8
細線
100
AcDbLine
 10
9511.28370092239
 20
7552.907346876715
 30
0.0
 11
9445.94677750392
 21
7552.907346876704
 31
0.0
  0
LINE
  5
18692
330
747D
100
AcDbEntity
  8
細線
100
AcDbLine
 10
9513.615247398579
 20
7547.907329323037
 30
0.0
 11
9511.28370092239
 21
7552.907346876715
 31
0.0
  0
LINE
  5
18693
330
747D
100
AcDbEntity
  8
細線
100
AcDbLine
 10
9443.615239213164
 20
7547.907346876748
 30
0.0
 11
9445.94677750393
 21
7552.907346876733
 31
0.0
  0
LINE
  5
18694
330
747D
100
AcDbEntity
  8
細線
100
AcDbLine
 10
9303.615247398578
 20
7547.907346876751
 30
0.0
 11
9305.946785689346
 21
7552.907346876736
 31
0.0
  0
LINE
  5
18695
330
747D
100
AcDbEntity
  8
細線
100
AcDbLine
 10
9373.615255583995
 20
7547.907329323037
 30
0.0
 11
9371.283709107807
 21
7552.907346876715
 31
0.0
  0
LINE
  5
18696
330
747D
100
AcDbEntity
  8
細線
100
AcDbLine
 10
9371.283709107807
 20
7552.907346876715
 30
0.0
 11
9305.946785689334
 21
7552.907346876708
 31
0.0
  0
ARC
  5
18697
330
747D
100
AcDbEntity
  8
部品1
 48
0.01
100
AcDbCircle
 10
9259.115136146244
 20
7546.906224691678
 30
0.0
 40
0.5
100
AcDbArc
 50
270.0
 51
0.0
  0
LINE
  5
18698
330
747D
100
AcDbEntity
  8
部品1
 48
0.01
100
AcDbLine
 10
9259.615136146242
 20
7547.906224691678
 30
0.0
 11
9259.615136146242
 21
7546.906224691678
 31
0.0
  0
LINE
  5
18699
330
747D
100
AcDbEntity
  8
部品1
 48
0.01
100
AcDbLine
 10
9259.615136146242
 20
7547.906224691678
 30
0.0
 11
9259.615136146242
 21
7546.906224691678
 31
0.0
  0
LINE
  5
1869A
330
747D
100
AcDbEntity
  8
部品1
 48
0.01
100
AcDbLine
 10
9259.115136146244
 20
7546.406224691678
 30
0.0
 11
9252.502630716179
 21
7546.406224691678
 31
0.0
  0
ARC
  5
1869B
330
747D
100
AcDbEntity
  8
部品1
100
AcDbCircle
 10
9252.570980268961
 20
7547.406224691679
 30
0.0
 40
1.0
100
AcDbArc
 50
160.5287793655778
 51
270.0
  0
ARC
  5
1869C
330
747D
100
AcDbEntity
  8
部品1
100
AcDbCircle
 10
9227.115136146244
 20
7556.406224691679
 30
0.0
 40
26.0
100
AcDbArc
 50
340.5287793655779
 51
0.0
  0
LINE
  5
1869D
330
747D
100
AcDbEntity
  8
部品1
100
AcDbLine
 10
9253.115136146243
 20
7556.406224691679
 30
0.0
 11
9253.115136146243
 21
7561.406224691679
 31
0.0
  0
ARC
  5
1869E
330
747D
100
AcDbEntity
  8
部品1
 48
0.01
100
AcDbCircle
 10
9251.115136146244
 20
7561.406224691679
 30
0.0
 40
2.0
100
AcDbArc
 50
0.0
 51
90.0
  0
ARC
  5
1869F
330
747D
100
AcDbEntity
  8
部品1
100
AcDbCircle
 10
9249.506744521433
 20
7560.406224691679
 30
0.0
 40
3.0
100
AcDbArc
 50
90.0
 51
141.6069559807873
  0
LINE
  5
186A0
330
747D
100
AcDbEntity
  8
部品1
 48
0.01
100
AcDbLine
 10
9251.115136146244
 20
7563.406224691679
 30
0.0
 11
9249.506744521433
 21
7563.406224691679
 31
0.0
  0
ARC
  5
186A1
330
747D
100
AcDbEntity
  8
部品1
100
AcDbCircle
 10
9231.044421931972
 20
7559.706224691682
 30
0.0
 40
3.0
100
AcDbArc
 50
254.0576313943215
 51
270.0
  0
ARC
  5
186A2
330
747D
100
AcDbEntity
  8
部品1
100
AcDbCircle
 10
9238.185850360514
 20
7559.706224691682
 30
0.0
 40
3.0
100
AcDbArc
 50
270.0
 51
285.9423686056786
  0
LINE
  5
186A3
330
747D
100
AcDbEntity
  8
部品1
100
AcDbLine
 10
9238.185850360514
 20
7556.706224691682
 30
0.0
 11
9231.044421931972
 21
7556.706224691682
 31
0.0
  0
ARC
  5
186A4
330
747D
100
AcDbEntity
  8
部品1
100
AcDbCircle
 10
9234.615136146244
 20
7572.206224691682
 30
0.0
 40
16.0
100
AcDbArc
 50
285.9423686056786
 51
321.6069559807873
  0
LINE
  5
186A5
330
747D
100
AcDbEntity
  8
部品1
 48
0.01
100
AcDbLine
 10
9218.115136146243
 20
7563.406224691679
 30
0.0
 11
9219.723527771053
 21
7563.406224691679
 31
0.0
  0
ARC
  5
186A6
330
747D
100
AcDbEntity
  8
部品1
100
AcDbCircle
 10
9219.723527771053
 20
7560.406224691679
 30
0.0
 40
3.0
100
AcDbArc
 50
38.39304401921267
 51
90.0
  0
ARC
  5
186A7
330
747D
100
AcDbEntity
  8
部品1
100
AcDbCircle
 10
9234.615136146244
 20
7572.206224691682
 30
0.0
 40
16.0
100
AcDbArc
 50
218.3930440192126
 51
254.0576313943215
  0
LINE
  5
186A8
330
747D
100
AcDbEntity
  8
部品1
100
AcDbLine
 10
9216.115136146243
 20
7556.406224691679
 30
0.0
 11
9216.115136146243
 21
7561.406224691679
 31
0.0
  0
ARC
  5
186A9
330
747D
100
AcDbEntity
  8
部品1
 48
0.01
100
AcDbCircle
 10
9218.115136146243
 20
7561.406224691679
 30
0.0
 40
2.0
100
AcDbArc
 50
90.0
 51
180.0
  0
ARC
  5
186AA
330
747D
100
AcDbEntity
  8
部品1
100
AcDbCircle
 10
9242.115136146244
 20
7556.406224691679
 30
0.0
 40
26.0
100
AcDbArc
 50
180.0
 51
199.4712206344221
  0
ARC
  5
186AB
330
747D
100
AcDbEntity
  8
部品1
 48
0.01
100
AcDbCircle
 10
9210.115136146244
 20
7546.906224691678
 30
0.0
 40
0.5
100
AcDbArc
 50
180.0
 51
270.0
  0
LINE
  5
186AC
330
747D
100
AcDbEntity
  8
部品1
 48
0.01
100
AcDbLine
 10
9210.115136146244
 20
7546.406224691678
 30
0.0
 11
9216.659292023527
 21
7546.406224691678
 31
0.0
  0
LINE
  5
186AD
330
747D
100
AcDbEntity
  8
部品1
 48
0.01
100
AcDbLine
 10
9209.615136146243
 20
7547.906224691678
 30
0.0
 11
9209.615136146243
 21
7546.906224691678
 31
0.0
  0
ARC
  5
186AE
330
747D
100
AcDbEntity
  8
部品1
100
AcDbCircle
 10
9216.659292023527
 20
7547.406224691679
 30
0.0
 40
1.0
100
AcDbArc
 50
270.0
 51
19.47122063442214
  0
LINE
  5
186AF
330
747D
100
AcDbEntity
  8
細線
100
AcDbLine
 10
9255.115136146251
 20
7565.906224691682
 30
0.0
 11
9214.115136146251
 21
7565.906224691675
 31
0.0
  0
LINE
  5
186B0
330
747D
100
AcDbEntity
  8
細線
100
AcDbLine
 10
9214.115136146251
 20
7565.906224691675
 30
0.0
 11
9214.115136146251
 21
7547.906224691657
 31
0.0
  0
LINE
  5
186B1
330
747D
100
AcDbEntity
  8
細線
100
AcDbLine
 10
9255.115136146251
 20
7565.906224691682
 30
0.0
 11
9255.115136146251
 21
7547.906224691657
 31
0.0
  0
LINE
  5
186B2
330
747D
100
AcDbEntity
  8
細線
100
AcDbLine
 10
9098.615242744989
 20
7551.907155146082
 30
0.0
 11
9098.615242744989
 21
7547.907155146129
 31
0.0
  0
DIMENSION
  5
186B3
330
747D
100
AcDbEntity
  8
寸法
 48
50.0
100
AcDbDimension
  2
*D30
 10
10364.61524274499
 20
6892.518332597531
 30
0.0
 11
9747.487000104943
 21
6892.518332597531
 31
0.0
 70
   160
  1
有効開口部間口\P<>
 71
     5
 42
1266.0
  3
INABA_S40
100
AcDbAlignedDimension
 13
9098.615242744989
 23
7542.907155146082
 33
0.0
 14
10364.61524274499
 24
7542.907155146082
 34
0.0
100
AcDbRotatedDimension
1001
ACAD
1000
DSTYLE
1002
{
1070
    41
1040
0.5
1070
    44
1040
1.0
1070
   147
1040
0.8
1070
   271
1070
     2
1070
   272
1070
     2
1070
   289
1070
     3
1070
   340
1005
F706
1070
   343
1005
17776
1070
   344
1005
17776
1002
}
  0
LINE
  5
186B4
330
747D
100
AcDbEntity
  8
部品1
100
AcDbLine
 10
11186.61524274499
 20
7619.907155146082
 30
0.0
 11
11213.61524274499
 21
7619.907155146082
 31
0.0
  0
LINE
  5
186B6
330
747D
100
AcDbEntity
  8
部品1
100
AcDbLine
 10
11213.61524274499
 20
7542.907155146082
 30
0.0
 11
11213.61524274499
 21
7619.907155146082
 31
0.0
  0
LINE
  5
186B7
330
747D
100
AcDbEntity
  8
部品1
100
AcDbLine
 10
11174.61524274499
 20
7615.907155146082
 30
0.0
 11
11186.61524274499
 21
7615.907155146082
 31
0.0
  0
LINE
  5
186B8
330
747D
100
AcDbEntity
  8
部品1
100
AcDbLine
 10
11183.61524274499
 20
7551.907155146082
 30
0.0
 11
11183.61524274499
 21
7542.907155146082
 31
0.0
  0
LINE
  5
186B9
330
747D
100
AcDbEntity
  8
部品1
100
AcDbLine
 10
11174.61524274499
 20
7551.907155146082
 30
0.0
 11
11183.61524274499
 21
7551.907155146082
 31
0.0
  0
LINE
  5
186BA
330
747D
100
AcDbEntity
  8
部品1
100
AcDbLine
 10
11174.61524274499
 20
7615.907155146082
 30
0.0
 11
11174.61524274499
 21
7551.907155146082
 31
0.0
  0
LINE
  5
186BB
330
747D
100
AcDbEntity
  8
部品1
100
AcDbLine
 10
11186.61524274499
 20
7646.907155146083
 30
0.0
 11
11186.61524274499
 21
7615.907155146082
 31
0.0
  0
LINE
  5
186BC
330
747D
100
AcDbEntity
  8
部品1
100
AcDbLine
 10
9098.615242744989
 20
7615.907155146082
 30
0.0
 11
9086.615242744988
 21
7615.907155146082
 31
0.0
  0
LINE
  5
186BD
330
747D
100
AcDbEntity
  8
部品1
100
AcDbLine
 10
9059.615242744989
 20
7619.907155146082
 30
0.0
 11
9086.615242744988
 21
7619.907155146082
 31
0.0
  0
LINE
  5
186BE
330
747D
100
AcDbEntity
  8
部品1
100
AcDbLine
 10
9089.615242744988
 20
7551.907155146082
 30
0.0
 11
9089.615242744988
 21
7542.907155146082
 31
0.0
  0
LINE
  5
186BF
330
747D
100
AcDbEntity
  8
部品1
100
AcDbLine
 10
9098.615242744989
 20
7551.907155146082
 30
0.0
 11
9089.615242744988
 21
7551.907155146082
 31
0.0
  0
LINE
  5
186C0
330
747D
100
AcDbEntity
  8
部品1
100
AcDbLine
 10
9089.615242744988
 20
7542.907155146082
 30
0.0
 11
9059.615242744989
 21
7542.907155146082
 31
0.0
  0
LINE
  5
186C1
330
747D
100
AcDbEntity
  8
部品1
100
AcDbLine
 10
9059.615242744989
 20
7542.907155146082
 30
0.0
 11
9059.615242744989
 21
7619.907155146082
 31
0.0
  0
LINE
  5
186C2
330
747D
100
AcDbEntity
  8
部品1
100
AcDbLine
 10
9098.615242744989
 20
7615.907155146082
 30
0.0
 11
9098.615242744989
 21
7551.907155146082
 31
0.0
  0
LINE
  5
186C3
330
747D
100
AcDbEntity
  8
部品1
100
AcDbLine
 10
9086.615242744988
 20
7646.907155146078
 30
0.0
 11
9086.615242744988
 21
7615.907155146082
 31
0.0
  0
LINE
  5
186C4
330
747D
100
AcDbEntity
  8
部品1
100
AcDbLine
 10
9086.615242744988
 20
7646.907155146078
 30
0.0
 11
11186.61524274499
 21
7646.907155146083
 31
0.0
  0
LINE
  5
186C5
330
747D
100
AcDbEntity
  8
部品1
100
AcDbLine
 10
11183.61524274499
 20
7542.907155146082
 30
0.0
 11
11213.61524274499
 21
7542.907155146082
 31
0.0
  0
LINE
  5
186C6
330
747D
100
AcDbEntity
  8
部品1
100
AcDbLine
 10
9089.615242744988
 20
7542.907155146082
 30
0.0
 11
11186.61524274499
 21
7542.907155146082
 31
0.0
  0
LINE
  5
186C7
330
747D
100
AcDbEntity
  8
細線
  6
Continuous
 62
     5
100
AcDbLine
 10
10465.61524274499
 20
7581.907155146078
 30
0.0
 11
10465.61524274499
 21
7581.907155146078
 31
0.0
  0
LINE
  5
186C8
330
747D
100
AcDbEntity
  8
細線
  6
Continuous
 62
     5
100
AcDbLine
 10
10458.11527806388
 20
7581.907165067136
 30
0.0
 11
10458.11527806388
 21
7581.907165067136
 31
0.0
  0
LINE
  5
186C9
330
747D
100
AcDbEntity
  8
細線
  6
Continuous
 62
     5
100
AcDbLine
 10
10452.11527806388
 20
7581.907165067136
 30
0.0
 11
10452.11527806388
 21
7581.907165067136
 31
0.0
  0
LINE
  5
186CA
330
747D
100
AcDbEntity
  8
細線
  6
Continuous
 62
     5
100
AcDbLine
 10
10519.61524274499
 20
7600.907155146079
 30
0.0
 11
10519.61524274499
 21
7600.907155146079
 31
0.0
  0
LINE
  5
186CB
330
747D
100
AcDbEntity
  8
細線
 48
50.0
100
AcDbLine
 10
9112.615247398583
 20
7568.507329323036
 30
0.0
 11
9112.615247398583
 21
7576.903479730676
 31
0.0
  0
LINE
  5
186CC
330
747D
100
AcDbEntity
  8
細線
 48
50.0
100
AcDbLine
 10
9112.615247398583
 20
7576.903479730676
 30
0.0
 11
9098.615242744989
 21
7576.903479730673
 31
0.0
  0
LINE
  5
186CD
330
747D
100
AcDbEntity
  8
細線
 48
50.0
100
AcDbLine
 10
9863.615247398579
 20
7565.057329323035
 30
0.0
 11
9863.615247398579
 21
7569.907329323038
 31
0.0
  0
LINE
  5
186CE
330
747D
100
AcDbEntity
  8
細線
 48
50.0
100
AcDbLine
 10
9863.615247398579
 20
7569.907329323038
 30
0.0
 11
9878.615247398579
 21
7569.907329323038
 31
0.0
  0
LINE
  5
186CF
330
747D
100
AcDbEntity
  8
細線
 48
50.0
100
AcDbLine
 10
9878.615247398579
 20
7569.907329323038
 30
0.0
 11
9878.615247398583
 21
7576.907329323038
 31
0.0
  0
LINE
  5
186D0
330
747D
100
AcDbEntity
  8
細線
 48
50.0
100
AcDbLine
 10
9878.615247398583
 20
7576.907329323038
 30
0.0
 11
9893.615247398578
 21
7576.907329323038
 31
0.0
  0
LINE
  5
186D1
330
747D
100
AcDbEntity
  8
細線
 48
50.0
100
AcDbLine
 10
9893.615247398578
 20
7576.907329323038
 30
0.0
 11
9893.615247398578
 21
7547.907329323037
 31
0.0
  0
LINE
  5
186D2
330
747D
100
AcDbEntity
  8
細線
 48
50.0
100
AcDbLine
 10
9089.615242744988
 20
7547.904663666506
 30
0.0
 11
9303.615247398578
 21
7547.907346876751
 31
0.0
  0
LINE
  5
186D3
330
747D
100
AcDbEntity
  8
細線
 48
50.0
100
AcDbLine
 10
9793.615247398578
 20
7547.907329323037
 30
0.0
 11
9893.615247398578
 21
7547.907329323037
 31
0.0
  0
LINE
  5
186D4
330
747D
100
AcDbEntity
  8
細線
 48
50.0
100
AcDbLine
 10
9513.615247398579
 20
7547.907329323037
 30
0.0
 11
9583.615247398579
 21
7547.907329323037
 31
0.0
  0
LINE
  5
186D5
330
747D
100
AcDbEntity
  8
細線
 48
50.0
100
AcDbLine
 10
9526.477212411107
 20
7547.907329323037
 30
0.0
 11
9532.232729993776
 21
7566.178180613531
 31
0.0
  0
LINE
  5
186D6
330
747D
100
AcDbEntity
  8
細線
 48
50.0
100
AcDbLine
 10
9532.232729993776
 20
7566.178180613531
 30
0.0
 11
9543.161178474209
 21
7566.178180613528
 31
0.0
  0
ARC
  5
186D7
330
747D
100
AcDbEntity
  8
細線
 48
50.0
100
AcDbCircle
 10
9543.161178474209
 20
7565.178180613528
 30
0.0
 40
1.0
100
AcDbArc
 50
24.62431835213048
 51
90.0
  0
ARC
  5
186D8
330
747D
100
AcDbEntity
  8
細線
 48
50.0
100
AcDbCircle
 10
9554.069890588841
 20
7565.178180613528
 30
0.0
 40
1.0
100
AcDbArc
 50
90.0
 51
155.3756816478695
  0
ARC
  5
186D9
330
747D
100
AcDbEntity
  8
細線
 48
50.0
100
AcDbCircle
 10
9548.615534531524
 20
7567.678180613528
 30
0.0
 40
5.0
100
AcDbArc
 50
204.6243183521304
 51
335.3756816478695
  0
LINE
  5
186DA
330
747D
100
AcDbEntity
  8
細線
 48
50.0
100
AcDbLine
 10
9554.069890588841
 20
7566.178180613528
 30
0.0
 11
9564.998339069276
 21
7566.178180613531
 31
0.0
  0
LINE
  5
186DB
330
747D
100
AcDbEntity
  8
細線
 48
50.0
100
AcDbLine
 10
9564.998339069276
 20
7566.178180613531
 30
0.0
 11
9570.753856651943
 21
7547.907329323037
 31
0.0
  0
LINE
  5
186DC
330
747D
100
AcDbEntity
  8
細線
 48
50.0
100
AcDbLine
 10
9863.615247398579
 20
7568.507329323036
 30
0.0
 11
9112.615247398583
 21
7568.507329323036
 31
0.0
  0
LINE
  5
186DD
330
747D
100
AcDbEntity
  8
細線
 48
50.0
100
AcDbLine
 10
9723.615247398578
 20
7547.907329323037
 30
0.0
 11
9653.61524739858
 21
7547.907329323037
 31
0.0
  0
LINE
  5
186DE
330
747D
100
AcDbEntity
  8
細線
100
AcDbLine
 10
9443.615247398579
 20
7547.907329323037
 30
0.0
 11
9373.615255583995
 21
7547.907329323037
 31
0.0
  0
LINE
  5
186DF
330
747D
100
AcDbEntity
  8
細線
 48
50.0
100
AcDbLine
 10
10517.6152380914
 20
7602.507373180904
 30
0.0
 11
9882.615247398579
 21
7602.5073731809
 31
0.0
  0
LINE
  5
186E0
330
747D
100
AcDbEntity
  8
細線
 48
50.0
100
AcDbLine
 10
9882.615247398579
 20
7599.403523588545
 30
0.0
 11
9882.615247398579
 21
7603.903523588543
 31
0.0
  0
LINE
  5
186E1
330
747D
100
AcDbEntity
  8
細線
 48
50.0
100
AcDbLine
 10
9882.615247398579
 20
7603.903523588543
 30
0.0
 11
9867.615247398578
 21
7603.903523588543
 31
0.0
  0
LINE
  5
186E2
330
747D
100
AcDbEntity
  8
細線
 48
50.0
100
AcDbLine
 10
9867.615247398578
 20
7603.903523588543
 30
0.0
 11
9867.615247398578
 21
7610.903523588544
 31
0.0
  0
LINE
  5
186E3
330
747D
100
AcDbEntity
  8
細線
 48
50.0
100
AcDbLine
 10
9867.615247398578
 20
7610.903523588544
 30
0.0
 11
9852.615247398581
 21
7610.90352358854
 31
0.0
  0
LINE
  5
186E4
330
747D
100
AcDbEntity
  8
細線
 48
50.0
100
AcDbLine
 10
9852.615247398581
 20
7610.90352358854
 30
0.0
 11
9852.615247398581
 21
7573.30329548543
 31
0.0
  0
LINE
  5
186E5
330
747D
100
AcDbEntity
  8
細線
 48
50.0
100
AcDbLine
 10
9852.615247398581
 20
7573.30329548543
 30
0.0
 11
9872.615254699756
 21
7573.303337034971
 31
0.0
  0
LINE
  5
186E6
330
747D
100
AcDbEntity
  8
細線
 48
50.0
100
AcDbLine
 10
9872.615209830811
 20
7581.906798670779
 30
0.0
 11
9872.615254699756
 21
7573.303337034971
 31
0.0
  0
LINE
  5
186E7
330
747D
100
AcDbEntity
  8
細線
 48
50.0
100
AcDbLine
 10
10517.6152380914
 20
7599.057373180904
 30
0.0
 11
10517.6152380914
 21
7603.907373180902
 31
0.0
  0
LINE
  5
186E8
330
747D
100
AcDbEntity
  8
細線
 48
50.0
100
AcDbLine
 10
10517.6152380914
 20
7603.907373180902
 30
0.0
 11
10532.6152380914
 21
7603.907373180902
 31
0.0
  0
LINE
  5
186E9
330
747D
100
AcDbEntity
  8
細線
 48
50.0
100
AcDbLine
 10
10532.6152380914
 20
7603.907373180902
 30
0.0
 11
10532.61524972537
 21
7610.907373180946
 31
0.0
  0
LINE
  5
186EA
330
747D
100
AcDbEntity
  8
細線
 48
50.0
100
AcDbLine
 10
10532.61524972537
 20
7610.907373180946
 30
0.0
 11
10547.6152478959
 21
7610.907373180946
 31
0.0
  0
LINE
  5
186EB
330
747D
100
AcDbEntity
  8
細線
 48
50.0
100
AcDbLine
 10
10547.6152478959
 20
7610.907373180946
 30
0.0
 11
10547.61523759408
 21
7581.907167008672
 31
0.0
  0
LINE
  5
186EC
330
747D
100
AcDbEntity
  8
細線
 48
50.0
100
AcDbLine
 10
10235.11526522487
 20
7581.907175196038
 30
0.0
 11
10165.11551730728
 21
7581.9071697587
 31
0.0
  0
LINE
  5
186ED
330
747D
100
AcDbEntity
  8
細線
 48
50.0
100
AcDbLine
 10
9872.615209830811
 20
7581.906798670779
 30
0.0
 11
9883.847899185523
 21
7581.906981623927
 31
0.0
  0
ARC
  5
186EE
330
747D
100
AcDbEntity
  8
細線
 48
50.0
100
AcDbCircle
 10
9890.430191492859
 20
7580.707145537539
 30
0.0
 40
1.8
100
AcDbArc
 50
270.0006665777295
 51
345.0005554812987
  0
LINE
  5
186EF
330
747D
100
AcDbEntity
  8
細線
 48
50.0
100
AcDbLine
 10
9892.416624938938
 20
7581.165985994818
 30
0.0
 11
9892.168862496738
 21
7580.241288112711
 31
0.0
  0
LINE
  5
186F0
330
747D
100
AcDbEntity
  8
細線
 48
50.0
100
AcDbLine
 10
9890.430212434013
 20
7578.90714553766
 30
0.0
 11
9886.800285015246
 21
7578.907103307179
 31
0.0
  0
ARC
  5
186F1
330
747D
100
AcDbEntity
  8
細線
 48
50.0
100
AcDbCircle
 10
9886.800264074093
 20
7580.707103307059
 30
0.0
 40
1.8
100
AcDbArc
 50
195.0010443049394
 51
270.0006665777295
  0
LINE
  5
186F2
330
747D
100
AcDbEntity
  8
細線
 48
50.0
100
AcDbLine
 10
9884.813836581834
 20
7581.165818274623
 30
0.0
 11
9885.061606078346
 21
7580.241197336042
 31
0.0
  0
ARC
  5
186F3
330
747D
100
AcDbEntity
  8
細線
 48
50.0
100
AcDbCircle
 10
9883.847915473085
 20
7580.90698162406
 30
0.0
 40
1.0
100
AcDbArc
 50
15.00104430493943
 51
90.00093320877969
  0
LINE
  5
186F4
330
747D
100
AcDbEntity
  8
細線
 48
50.0
100
AcDbLine
 10
9893.382546294041
 20
7581.907176314331
 30
0.0
 11
9894.324306444946
 21
7581.90718288818
 31
0.0
  0
ARC
  5
186F5
330
747D
100
AcDbEntity
  8
細線
 48
50.0
100
AcDbCircle
 10
9893.382553274427
 20
7580.907176314356
 30
0.0
 40
1.0
100
AcDbArc
 50
90.0003999466794
 51
165.0005554812987
  0
LINE
  5
186F6
330
747D
100
AcDbEntity
  8
細線
 48
50.0
100
AcDbLine
 10
10445.11523809139
 20
7581.907167008672
 30
0.0
 11
10547.61523759408
 21
7581.907167008672
 31
0.0
  0
LINE
  5
186F7
330
747D
100
AcDbEntity
  8
細線
 48
50.0
100
AcDbLine
 10
9955.115273410285
 20
7581.907175196038
 30
0.0
 11
9894.015212183363
 21
7581.90718288818
 31
0.0
  0
LINE
  5
186F8
330
747D
100
AcDbEntity
  8
細線
 48
50.0
100
AcDbLine
 10
10375.11527341028
 20
7581.907212037122
 30
0.0
 11
10305.11526645589
 21
7581.907167014453
 31
0.0
  0
LINE
  5
186F9
330
747D
100
AcDbEntity
  8
細線
 48
50.0
100
AcDbLine
 10
10095.11523809139
 20
7581.907167008669
 30
0.0
 11
10025.11522080351
 21
7581.907167008676
 31
0.0
  0
ARC
  5
186FA
330
747D
100
AcDbEntity
  8
細線
 48
50.0
100
AcDbCircle
 10
10531.815242745
 20
7615.107155146083
 30
0.0
 40
0.8
100
AcDbArc
 50
359.9997333689499
 51
89.99986668437072
  0
ARC
  5
186FB
330
747D
100
AcDbEntity
  8
細線
 48
50.0
100
AcDbCircle
 10
10539.41524957009
 20
7615.107166314699
 30
0.0
 40
0.8
100
AcDbArc
 50
90.00014387753465
 51
179.9997333689498
  0
LINE
  5
186FC
330
747D
100
AcDbEntity
  8
細線
 48
50.0
100
AcDbLine
 10
10531.81524460643
 20
7615.907155146082
 30
0.0
 11
10526.61524274499
 21
7615.907155146082
 31
0.0
  0
ARC
  5
186FD
330
747D
100
AcDbEntity
  8
細線
 48
50.0
100
AcDbCircle
 10
10533.31524274499
 20
7613.607155146083
 30
0.0
 40
0.7
100
AcDbArc
 50
180.0
 51
270.0
  0
ARC
  5
186FE
330
747D
100
AcDbEntity
  8
細線
 48
50.0
100
AcDbCircle
 10
10537.91524274499
 20
7613.607155146083
 30
0.0
 40
0.7
100
AcDbArc
 50
270.0
 51
0.0
  0
LINE
  5
186FF
330
747D
100
AcDbEntity
  8
細線
 48
50.0
100
AcDbLine
 10
10538.61524274499
 20
7613.607155146083
 30
0.0
 11
10538.6152495701
 21
7615.107170037571
 31
0.0
  0
LINE
  5
18700
330
747D
100
AcDbEntity
  8
細線
 48
50.0
100
AcDbLine
 10
10533.31524274499
 20
7612.907155146082
 30
0.0
 11
10537.91524274499
 21
7612.907155146082
 31
0.0
  0
LINE
  5
18701
330
747D
100
AcDbEntity
  8
細線
 48
50.0
100
AcDbLine
 10
10532.61524274499
 20
7615.107155146083
 30
0.0
 11
10532.61524274499
 21
7613.607155146083
 31
0.0
  0
LINE
  5
18702
330
747D
100
AcDbEntity
  8
細線
 48
50.0
100
AcDbLine
 10
11158.21524274499
 20
7645.907155146082
 30
0.0
 11
10521.61524274499
 21
7645.907155146078
 31
0.0
  0
LINE
  5
18703
330
747D
100
AcDbEntity
  8
細線
 48
50.0
100
AcDbLine
 10
11184.11524274499
 20
7640.907155146085
 30
0.0
 11
11168.21524274499
 21
7640.907155146082
 31
0.0
  0
LINE
  5
18704
330
747D
100
AcDbEntity
  8
細線
 48
50.0
100
AcDbLine
 10
11168.21524274499
 20
7640.907155146082
 30
0.0
 11
11158.21524274499
 21
7645.907155146082
 31
0.0
  0
LINE
  5
18705
330
747D
100
AcDbEntity
  8
細線
100
AcDbLine
 10
10769.11524274499
 20
7615.907155146082
 30
0.0
 11
10769.11524274499
 21
7645.207155146081
 31
0.0
  0
LINE
  5
18706
330
747D
100
AcDbEntity
  8
細線
100
AcDbLine
 10
10769.11524274499
 20
7645.207155146081
 30
0.0
 11
10789.11524274499
 21
7645.207155146081
 31
0.0
  0
LINE
  5
18707
330
747D
100
AcDbEntity
  8
細線
100
AcDbLine
 10
10789.11524274499
 20
7615.907155146082
 30
0.0
 11
10789.11524274499
 21
7645.207155146081
 31
0.0
  0
LINE
  5
18708
330
747D
100
AcDbEntity
  8
細線
100
AcDbLine
 10
10950.36524274499
 20
7615.907155146082
 30
0.0
 11
10880.36524274499
 21
7615.907155146082
 31
0.0
  0
LINE
  5
18709
330
747D
100
AcDbEntity
  8
細線
 48
50.0
100
AcDbLine
 10
10670.36524274499
 20
7615.907155146082
 30
0.0
 11
10539.41102231783
 21
7615.907155146082
 31
0.0
  0
LINE
  5
1870A
330
747D
100
AcDbEntity
  8
細線
100
AcDbLine
 10
10810.36524274499
 20
7615.907155146082
 30
0.0
 11
10740.36524274499
 21
7615.907155146082
 31
0.0
  0
LINE
  5
1870B
330
747D
100
AcDbEntity
  8
細線
 48
50.0
100
AcDbLine
 10
10526.61524274499
 20
7607.907155146083
 30
0.0
 11
10526.61524274499
 21
7615.907155146082
 31
0.0
  0
LINE
  5
1870C
330
747D
100
AcDbEntity
  8
細線
 48
50.0
100
AcDbLine
 10
10506.61524274499
 20
7607.907155146086
 30
0.0
 11
10526.61524274499
 21
7607.907155146083
 31
0.0
  0
LINE
  5
1870D
330
747D
100
AcDbEntity
  8
細線
 48
50.0
100
AcDbLine
 10
10521.61524274499
 20
7645.907155146082
 30
0.0
 11
10521.61524274499
 21
7640.907155146082
 31
0.0
  0
LINE
  5
1870E
330
747D
100
AcDbEntity
  8
細線
 48
50.0
100
AcDbLine
 10
10506.61524274499
 20
7645.907155146078
 30
0.0
 11
10521.61524274499
 21
7645.907155146082
 31
0.0
  0
LINE
  5
1870F
330
747D
100
AcDbEntity
  8
細線
 48
50.0
100
AcDbLine
 10
10506.61524274499
 20
7607.907155146086
 30
0.0
 11
10506.61524274499
 21
7645.907155146078
 31
0.0
  0
LINE
  5
18710
330
747D
100
AcDbEntity
  8
細線
100
AcDbLine
 10
11174.61524274499
 20
7615.907155146082
 30
0.0
 11
11020.36524274499
 21
7615.907155146082
 31
0.0
  0
LINE
  5
18711
330
747D
100
AcDbEntity
  8
細線
 48
50.0
100
AcDbLine
 10
11184.11524274499
 20
7640.907155146085
 30
0.0
 11
11184.11524274499
 21
7615.907155146082
 31
0.0
  0
DIMENSION
  5
1894F
330
747D
100
AcDbEntity
  8
寸法
100
AcDbDimension
  2
*D31
 10
11241.61524274499
 20
6363.519638083172
 30
0.0
 11
9944.417031381163
 21
6363.519638083172
 31
0.0
 70
   160
 71
     5
 42
2629.999999999982
  3
INABA_S40G
100
AcDbAlignedDimension
 13
8611.615242745015
 23
7619.907155145918
 33
0.0
 14
11241.61524274499
 24
7619.907155146082
 34
0.0
100
AcDbRotatedDimension
1001
ACAD
1000
DSTYLE
1002
{
1002
}
  0
LINE
  5
18950
330
747D
100
AcDbEntity
  8
部品1
100
AcDbLine
 10
10308.35057585923
 20
6172.170486153
 30
0.0
 11
9544.879909630791
 21
6172.170486153
 31
0.0
  0
LINE
  5
18951
330
747D
100
AcDbEntity
  8
部品1
100
AcDbLine
 10
10308.35057585923
 20
5932.278164607468
 30
0.0
 11
10308.35057585923
 21
6172.170486153
 31
0.0
  0
LINE
  5
18952
330
747D
100
AcDbEntity
  8
部品1
100
AcDbLine
 10
9544.879909630791
 20
5932.278164607468
 30
0.0
 11
10308.35057585923
 21
5932.278164607468
 31
0.0
  0
LINE
  5
18953
330
747D
100
AcDbEntity
  8
部品1
100
AcDbLine
 10
9544.879909630791
 20
6172.170486153
 30
0.0
 11
9544.879909630791
 21
5932.278164607468
 31
0.0
  0
TEXT
  5
18954
330
747D
100
AcDbEntity
  8
部品1
100
AcDbText
 10
9634.79951945983
 20
5979.276956934477
 30
0.0
 40
135.0
  1
平面図
  7
STYLE2
100
AcDbText
  0
DIMENSION
  5
18955
330
747D
100
AcDbEntity
  8
寸法
100
AcDbDimension
  2
*D32
 10
8317.003997118296
 20
7544.907155145918
 30
0.0
 11
8317.003997118296
 21
7404.42187377168
 31
0.0
 70
   160
 71
     5
 42
75.0
  3
INABA_S40
100
AcDbAlignedDimension
 13
8611.615242745015
 23
7619.907155145918
 33
0.0
 14
9059.615242744989
 24
7544.907155145918
 34
0.0
 50
90.0
100
AcDbRotatedDimension
1001
ACAD
1000
DSTYLE
1002
{
1070
    41
1040
0.5
1070
    44
1040
1.0
1070
   147
1040
0.8
1070
   271
1070
     2
1070
   272
1070
     2
1070
   289
1070
     3
1070
   340
1005
F706
1070
   343
1005
17776
1070
   344
1005
17776
1002
}
  0
DIMENSION
  5
18956
330
747D
100
AcDbEntity
  8
寸法
 48
50.0
100
AcDbDimension
  2
*D33
 10
11213.61524274499
 20
6622.777439718184
 30
0.0
 11
10158.7479994923
 21
6622.777439718184
 31
0.0
 70
   160
 71
     5
 42
2154.0
  3
INABA_S40G
100
AcDbAlignedDimension
 13
9059.615242744989
 23
7542.907155145953
 33
0.0
 14
11213.61524274499
 24
7542.907155145953
 34
0.0
100
AcDbRotatedDimension
1001
ACAD
1000
DSTYLE
1002
{
1070
   341
1005
0
1002
}
  0
LWPOLYLINE
  5
18CD8
330
747D
100
AcDbEntity
  8
部品1
 48
50.0
100
AcDbPolyline
 90
        4
 70
     1
 43
0.0
 10
9158.66524274501
 20
3383.025961235219
 10
9161.565242745011
 20
3383.025961235219
 10
9161.565242745011
 20
3392.525961235218
 10
9158.66524274501
 20
3392.525961235218
  0
CIRCLE
  5
18CD9
330
747D
100
AcDbEntity
  8
部品1
 48
50.0
100
AcDbCircle
 10
9160.11524274501
 20
3387.775961235219
 30
0.0
 40
9.0
  0
ARC
  5
18CDA
330
747D
100
AcDbEntity
  8
細線
 48
50.0
100
AcDbCircle
 10
9160.11524274501
 20
3387.775961235219
 30
0.0
 40
4.0
100
AcDbArc
 50
111.2538091853132
 51
248.7461908146868
  0
ARC
  5
18CDB
330
747D
100
AcDbEntity
  8
細線
 48
50.0
100
AcDbCircle
 10
9160.11524274501
 20
3387.775961235219
 30
0.0
 40
17.5
100
AcDbArc
 50
306.4837370612677
 51
233.5162629387323
  0
LINE
  5
18CDC
330
747D
100
AcDbEntity
  8
細線
 48
50.0
100
AcDbLine
 10
9170.115242745007
 20
3363.917000654335
 30
0.0
 11
9170.11524274501
 21
3372.901486454577
 31
0.0
  0
LINE
  5
18CDD
330
747D
100
AcDbEntity
  8
細線
 48
50.0
100
AcDbLine
 10
9150.115242745011
 20
3363.917000654338
 30
0.0
 11
9150.115242745011
 21
3372.901486454573
 31
0.0
  0
ARC
  5
18CDE
330
747D
100
AcDbEntity
  8
細線
 48
50.0
100
AcDbCircle
 10
9160.11524274501
 20
3387.775961235219
 30
0.0
 40
26.5
100
AcDbArc
 50
249.3326835063939
 51
290.6673164933835
  0
ARC
  5
18CDF
330
747D
100
AcDbEntity
  8
細線
 48
50.0
100
AcDbCircle
 10
9169.115242745004
 20
3363.917000654335
 30
0.0
 40
1.0
100
AcDbArc
 50
290.6673164936062
 51
359.9999999998958
  0
ARC
  5
18CE0
330
747D
100
AcDbEntity
  8
細線
 48
50.0
100
AcDbCircle
 10
9151.115242745012
 20
3363.917000654338
 30
0.0
 40
1.0
100
AcDbArc
 50
180.0
 51
249.3326835066164
  0
ARC
  5
18CE1
330
747D
100
AcDbEntity
  8
細線
 48
50.0
100
AcDbCircle
 10
9149.115242745009
 20
3372.901486454573
 30
0.0
 40
1.0
100
AcDbArc
 50
0.0
 51
53.51626293873231
  0
ARC
  5
18CE2
330
747D
100
AcDbEntity
  8
細線
 48
50.0
100
AcDbCircle
 10
9171.115242745015
 20
3372.901486454577
 30
0.0
 40
1.0
100
AcDbArc
 50
126.4837370615127
 51
180.0
  0
ARC
  5
18CE3
330
747D
100
AcDbEntity
  8
細線
 48
50.0
100
AcDbCircle
 10
9160.11524274501
 20
3387.775961235219
 30
0.0
 40
21.5
100
AcDbArc
 50
255.8014401250294
 51
284.1985598749706
  0
ARC
  5
18CE4
330
747D
100
AcDbEntity
  8
細線
 48
50.0
100
AcDbCircle
 10
9160.11524274501
 20
3387.775961235219
 30
0.0
 40
16.5
100
AcDbArc
 50
251.9694646069326
 51
288.0305353930674
  0
LINE
  5
18CE5
330
747D
100
AcDbEntity
  8
細線
 48
50.0
100
AcDbLine
 10
9165.61524274501
 20
3367.223589109412
 30
0.0
 11
9165.61524274501
 21
3371.800980796749
 31
0.0
  0
LINE
  5
18CE6
330
747D
100
AcDbEntity
  8
細線
 48
50.0
100
AcDbLine
 10
9154.615242745011
 20
3367.223589109412
 30
0.0
 11
9154.615242745011
 21
3371.800980796746
 31
0.0
  0
ARC
  5
18CE7
330
747D
100
AcDbEntity
  8
細線
 48
50.0
100
AcDbCircle
 10
9154.915242745014
 20
3371.800980796746
 30
0.0
 40
0.3
100
AcDbArc
 50
71.96946460693259
 51
180.0
  0
ARC
  5
18CE8
330
747D
100
AcDbEntity
  8
細線
 48
50.0
100
AcDbCircle
 10
9165.315242745011
 20
3371.800980796749
 30
0.0
 40
0.3
100
AcDbArc
 50
0.0
 51
108.0305353930674
  0
ARC
  5
18CE9
330
747D
100
AcDbEntity
  8
細線
 48
50.0
100
AcDbCircle
 10
9165.315242745007
 20
3367.223589109412
 30
0.0
 40
0.3
100
AcDbArc
 50
284.1985598747622
 51
0.0000000001042204
  0
ARC
  5
18CEA
330
747D
100
AcDbEntity
  8
細線
 48
50.0
100
AcDbCircle
 10
9154.915242745014
 20
3367.223589109412
 30
0.0
 40
0.3
100
AcDbArc
 50
180.0
 51
255.8014401248081
  0
CIRCLE
  5
18CEB
330
747D
100
AcDbEntity
  8
細線
 48
50.0
100
AcDbCircle
 10
9160.11524274501
 20
3387.775961235219
 30
0.0
 40
12.0
  0
ARC
  5
18CEC
330
747D
100
AcDbEntity
  8
部品1
 48
50.0
100
AcDbCircle
 10
9160.11524274501
 20
3437.775961235219
 30
0.0
 40
8.5
100
AcDbArc
 50
114.315739171091
 51
245.684260828909
  0
CIRCLE
  5
18CED
330
747D
100
AcDbEntity
  8
細線
 48
50.0
100
AcDbCircle
 10
9160.11524274501
 20
3437.775961235219
 30
0.0
 40
4.5
  0
LWPOLYLINE
  5
18CEE
330
747D
100
AcDbEntity
  8
部品1
 48
50.0
100
AcDbPolyline
 90
        2
 70
     0
 43
0.0
 10
9156.61524274501
 20
3456.450810632201
 10
9156.61524274501
 20
3445.521927927634
  0
CIRCLE
  5
18CEF
330
747D
100
AcDbEntity
  8
部品1
 48
50.0
100
AcDbCircle
 10
9160.11524274501
 20
3437.775961235219
 30
0.0
 40
19.0
  0
LWPOLYLINE
  5
18CF0
330
747D
100
AcDbEntity
  8
部品1
 48
50.0
100
AcDbPolyline
 90
        2
 70
     0
 43
0.0
 10
9156.61524274501
 20
3430.029994542803
 10
9156.61524274501
 20
3419.101111838236
  0
LWPOLYLINE
  5
18CF1
330
747D
100
AcDbEntity
  8
部品1
 48
50.0
100
AcDbPolyline
 90
        2
 70
     0
 43
0.0
 10
9163.615242745011
 20
3445.521927927634
 10
9163.615242745011
 20
3456.450810632201
  0
ARC
  5
18CF2
330
747D
100
AcDbEntity
  8
部品1
 48
50.0
100
AcDbCircle
 10
9160.11524274501
 20
3437.775961235219
 30
0.0
 40
8.5
100
AcDbArc
 50
294.315739171091
 51
65.68426082890896
  0
LWPOLYLINE
  5
18CF3
330
747D
100
AcDbEntity
  8
部品1
 48
50.0
100
AcDbPolyline
 90
        2
 70
     0
 43
0.0
 10
9163.615242745011
 20
3419.101111838236
 10
9163.615242745011
 20
3430.029994542803
  0
ARC
  5
18CF4
330
747D
100
AcDbEntity
  8
細線
 48
50.0
100
AcDbCircle
 10
9160.11524274501
 20
3437.775961235219
 30
0.0
 40
16.5
100
AcDbArc
 50
332.0012352654438
 51
27.99876473455621
  0
ARC
  5
18CF5
330
747D
100
AcDbEntity
  8
細線
 48
50.0
100
AcDbCircle
 10
9160.11524274501
 20
3437.775961235219
 30
0.0
 40
14.0
100
AcDbArc
 50
326.4074436112986
 51
33.59255638870134
  0
LINE
  5
18CF6
330
747D
100
AcDbEntity
  8
細線
 48
50.0
100
AcDbLine
 10
9145.546440460678
 20
3445.521927927634
 30
0.0
 11
9148.453338955322
 21
3445.521927927634
 31
0.0
  0
LINE
  5
18CF7
330
747D
100
AcDbEntity
  8
細線
 48
50.0
100
AcDbLine
 10
9145.546440460678
 20
3430.029994542803
 30
0.0
 11
9148.453338955322
 21
3430.029994542803
 31
0.0
  0
LINE
  5
18CF8
330
747D
100
AcDbEntity
  8
細線
 48
50.0
100
AcDbLine
 10
9171.777146534699
 20
3445.521927927634
 30
0.0
 11
9174.684045029346
 21
3445.521927927634
 31
0.0
  0
LINE
  5
18CF9
330
747D
100
AcDbEntity
  8
細線
 48
50.0
100
AcDbLine
 10
9171.777146534699
 20
3430.029994542803
 30
0.0
 11
9174.684045029346
 21
3430.029994542803
 31
0.0
  0
ARC
  5
18CFA
330
747D
100
AcDbEntity
  8
細線
 48
50.0
100
AcDbCircle
 10
9160.11524274501
 20
3437.775961235219
 30
0.0
 40
14.0
100
AcDbArc
 50
146.4074436112986
 51
213.5925563887013
  0
ARC
  5
18CFB
330
747D
100
AcDbEntity
  8
細線
 48
50.0
100
AcDbCircle
 10
9160.11524274501
 20
3437.775961235219
 30
0.0
 40
16.5
100
AcDbArc
 50
152.0012352654438
 51
207.9987647345562
  0
ARC
  5
18CFC
330
747D
100
AcDbEntity
  8
部品1
 48
50.0
100
AcDbCircle
 10
9133.61524274501
 20
3463.275961235218
 30
0.0
 40
5.0
100
AcDbArc
 50
90.0
 51
180.0
  0
ARC
  5
18CFD
330
747D
100
AcDbEntity
  8
部品1
 48
50.0
100
AcDbCircle
 10
9133.61524274501
 20
3352.275961235218
 30
0.0
 40
5.0
100
AcDbArc
 50
180.0
 51
270.0
  0
ARC
  5
18CFE
330
747D
100
AcDbEntity
  8
部品1
 48
50.0
100
AcDbCircle
 10
9186.615242745011
 20
3352.275961235218
 30
0.0
 40
5.0
100
AcDbArc
 50
270.0
 51
0.0
  0
ARC
  5
18CFF
330
747D
100
AcDbEntity
  8
部品1
 48
50.0
100
AcDbCircle
 10
9186.615242745011
 20
3463.275961235218
 30
0.0
 40
5.0
100
AcDbArc
 50
0.0
 51
90.0
  0
LINE
  5
18D01
330
747D
100
AcDbEntity
  8
部品1
 48
50.0
100
AcDbLine
 10
9128.615242745011
 20
3352.275961235218
 30
0.0
 11
9128.615242745011
 21
3463.275961235218
 31
0.0
  0
LINE
  5
18D02
330
747D
100
AcDbEntity
  8
部品1
 48
50.0
100
AcDbLine
 10
9186.615242745011
 20
3347.275961235219
 30
0.0
 11
9133.61524274501
 21
3347.275961235219
 31
0.0
  0
LINE
  5
18D03
330
747D
100
AcDbEntity
  8
部品1
 48
50.0
100
AcDbLine
 10
9191.615242745012
 20
3463.275961235218
 30
0.0
 11
9191.615242745012
 21
3352.275961235218
 31
0.0
  0
ENDSEC
  0
SECTION
  2
OBJECTS
  0
DICTIONARY
  5
7471
330
0
100
AcDbDictionary
281
     1
  3
ACAD_COLOR
350
1776B
  3
ACAD_GROUP
350
7472
  3
ACAD_LAYOUT
350
1776C
  3
ACAD_MATERIAL
350
1776A
  3
ACAD_MLINESTYLE
350
7473
  3
ACAD_PLOTSETTINGS
350
1776D
  3
ACAD_PLOTSTYLENAME
350
17768
  3
ACDBHEADERROUNDTRIPXREC
350
18D12
  3
AcDbVariableDictionary
350
18D0E
  3
CONTENTDICTIONARY
350
E71C
  3
DRAWINGVARIABLESDICT
350
F3B9
  0
DICTIONARY
  5
17905
330
7467
100
AcDbDictionary
280
     1
281
     1
  3
ACAD_LAYERSTATES
360
17906
  0
DICTIONARY
  5
1776B
102
{ACAD_REACTORS
330
7471
102
}
330
7471
100
AcDbDictionary
281
     1
  0
DICTIONARY
  5
7472
102
{ACAD_REACTORS
330
7471
102
}
330
7471
100
AcDbDictionary
281
     1
  0
DICTIONARY
  5
1776C
102
{ACAD_REACTORS
330
7471
102
}
330
7471
100
AcDbDictionary
281
     1
  3
Model
350
1776E
  3
レイアウト1
350
1776F
  0
DICTIONARY
  5
1776A
102
{ACAD_REACTORS
330
7471
102
}
330
7471
100
AcDbDictionary
281
     1
  0
DICTIONARY
  5
7473
102
{ACAD_REACTORS
330
7471
102
}
330
7471
100
AcDbDictionary
281
     1
  3
STANDARD
350
7480
  0
DICTIONARY
  5
1776D
102
{ACAD_REACTORS
330
7471
102
}
330
7471
100
AcDbDictionary
281
     1
  0
ACDBDICTIONARYWDFLT
  5
17768
102
{ACAD_REACTORS
330
7471
102
}
330
7471
100
AcDbDictionary
281
     1
  3
Normal
350
17769
100
AcDbDictionaryWithDefault
340
17769
  0
DICTIONARY
  5
18D12
102
{ACAD_REACTORS
330
7471
102
}
330
7471
100
AcDbDictionary
281
     1
  3
COLORDICT
350
18D14
  3
MATERIALDICT
350
18D13
  0
DICTIONARY
  5
18D0E
102
{ACAD_REACTORS
330
7471
102
}
330
7471
100
AcDbDictionary
281
     1
  3
DIMASSOC
350
18D0F
  3
PROJECTNAME
350
18D10
  0
DICTIONARY
  5
E71C
102
{ACAD_REACTORS
330
7471
102
}
330
7471
100
AcDbDictionary
281
     1
  0
DICTIONARY
  5
F3B9
102
{ACAD_REACTORS
330
7471
102
}
330
7471
100
AcDbDictionary
281
     1
1001
DRAWINGVARIABLESXDATA
1000
POLARMODE
1000
1
  0
DICTIONARY
  5
17906
102
{ACAD_REACTORS
330
17905
102
}
330
17905
100
AcDbDictionary
281
     1
  0
LAYOUT
  5
1776E
102
{ACAD_XDICTIONARY
360
18D15
102
}
102
{ACAD_REACTORS
330
1776C
102
}
330
1776C
100
AcDbPlotSettings
  1

  2
Microsoft Office Document Image Writer
  4

  6

 40
0.0
 41
0.0
 42
0.0
 43
0.0
 44
0.0
 45
0.0
 46
0.0
 47
0.0
 48
0.0
 49
0.0
140
0.0
141
0.0
142
1.0
143
1.0
 70
  1712
 72
     0
 73
     0
 74
     0
  7

 75
     0
147
1.0
148
0.0
149
0.0
100
AcDbLayout
  1
Model
 70
     1
 71
     0
 10
0.0
 20
0.0
 11
12.0
 21
9.0
 12
0.0
 22
0.0
 32
0.0
 14
0.0
 24
0.0
 34
0.0
 15
0.0
 25
0.0
 35
0.0
146
0.0
 13
0.0
 23
0.0
 33
0.0
 16
1.0
 26
0.0
 36
0.0
 17
0.0
 27
1.0
 37
0.0
 76
     0
330
747D
  0
LAYOUT
  5
1776F
102
{ACAD_XDICTIONARY
360
18D17
102
}
102
{ACAD_REACTORS
330
1776C
102
}
330
1776C
100
AcDbPlotSettings
  1

  2
Microsoft Office Document Image Writer
  4

  6

 40
0.0
 41
0.0
 42
0.0
 43
0.0
 44
0.0
 45
0.0
 46
0.0
 47
0.0
 48
0.0
 49
0.0
140
0.0
141
0.0
142
1.0
143
1.0
 70
   688
 72
     0
 73
     0
 74
     5
  7

 75
    16
147
1.0
148
0.0
149
0.0
100
AcDbLayout
  1
レイアウト1
 70
     0
 71
     1
 10
0.0
 20
0.0
 11
420.0
 21
297.0
 12
0.0
 22
0.0
 32
0.0
 14
1.000000000000000E+20
 24
1.000000000000000E+20
 34
1.000000000000000E+20
 15
-1.000000000000000E+20
 25
-1.000000000000000E+20
 35
-1.000000000000000E+20
146
0.0
 13
0.0
 23
0.0
 33
0.0
 16
1.0
 26
0.0
 36
0.0
 17
0.0
 27
1.0
 37
0.0
 76
     0
330
747A
  0
MLINESTYLE
  5
7480
102
{ACAD_REACTORS
330
7473
102
}
330
7473
100
AcDbMlineStyle
  2
STANDARD
 70
     0
  3

 62
     0
 51
90.0
 52
90.0
 71
     2
 49
0.5
 62
   256
  6
BYLAYER
 49
-0.5
 62
   256
  6
BYLAYER
  0
ACDBPLACEHOLDER
  5
17769
102
{ACAD_REACTORS
330
17768
102
}
330
17768
  0
XRECORD
  5
18D14
102
{ACAD_REACTORS
330
18D12
102
}
330
18D12
100
AcDbXrecord
280
     1
340
1776B
  0
XRECORD
  5
18D13
102
{ACAD_REACTORS
330
18D12
102
}
330
18D12
100
AcDbXrecord
280
     1
340
1776A
  0
DICTIONARYVAR
  5
18D0F
102
{ACAD_REACTORS
330
18D0E
102
}
330
18D0E
100
DictionaryVariables
280
     0
  1
1
  0
DICTIONARYVAR
  5
18D10
102
{ACAD_REACTORS
330
18D0E
102
}
330
18D0E
100
DictionaryVariables
280
     0
  1

  0
DICTIONARY
  5
18D15
330
1776E
100
AcDbDictionary
280
     1
281
     1
  3
ACAD_XREC_ROUNDTRIP
360
18D16
  0
DICTIONARY
  5
18D17
330
1776F
100
AcDbDictionary
280
     1
281
     1
  3
ACAD_XREC_ROUNDTRIP
360
18D18
  0
XRECORD
  5
18D16
102
{ACAD_REACTORS
330
18D15
102
}
330
18D15
100
AcDbXrecord
280
     1
102
SHADEPLOT
 70
     0
102
SHADEPLOTRESLEVEL
 70
     2
102
SHADEPLOTCUSTOMDPI
 70
   300
  0
XRECORD
  5
18D18
102
{ACAD_REACTORS
330
18D17
102
}
330
18D17
100
AcDbXrecord
280
     1
102
SHADEPLOT
 70
     0
102
SHADEPLOTRESLEVEL
 70
     2
102
SHADEPLOTCUSTOMDPI
 70
   300
  0
ENDSEC
  0
EOF
