  0
SECTION
  2
HEADER
  9
$ACADVER
  1
AC1015
  9
$ACADMAINTVER
 70
    20
  9
$DWGCODEPAGE
  3
ANSI_932
  9
$INSBASE
 10
0.0
 20
0.0
 30
0.0
  9
$EXTMIN
 10
139.9999999999995
 20
-0.0000000000000909
 30
0.0
  9
$EXTMAX
 10
16307.2
 20
11409.6
 30
0.0
  9
$LIMMIN
 10
-25.79074261211281
 20
-125.8223078213959
  9
$LIMMAX
 10
16471.10331197129
 20
11496.44801950658
  9
$ORTHOMODE
 70
     0
  9
$REGENMODE
 70
     1
  9
$FILLMODE
 70
     1
  9
$QTEXTMODE
 70
     0
  9
$MIRRTEXT
 70
     1
  9
$LTSCALE
 40
20.0
  9
$ATTMODE
 70
     1
  9
$TEXTSIZE
 40
4.0
  9
$TRACEWID
 40
1.0
  9
$TEXTSTYLE
  7
STYLE1
  9
$CLAYER
  8
寸法
  9
$CELTYPE
  6
BYLAYER
  9
$CECOLOR
 62
   256
  9
$CELTSCALE
 40
50.0
  9
$DISPSILH
 70
     0
  9
$DIMSCALE
 40
40.0
  9
$DIMASZ
 40
2.5
  9
$DIMEXO
 40
0.5
  9
$DIMDLI
 40
7.0
  9
$DIMRND
 40
0.0
  9
$DIMDLE
 40
0.0
  9
$DIMEXE
 40
1.5
  9
$DIMTP
 40
0.0
  9
$DIMTM
 40
0.0
  9
$DIMTXT
 40
3.0
  9
$DIMCEN
 40
0.0
  9
$DIMTSZ
 40
0.0
  9
$DIMTOL
 70
     0
  9
$DIMLIM
 70
     0
  9
$DIMTIH
 70
     0
  9
$DIMTOH
 70
     0
  9
$DIMSE1
 70
     0
  9
$DIMSE2
 70
     0
  9
$DIMTAD
 70
     3
  9
$DIMZIN
 70
     8
  9
$DIMBLK
  1

  9
$DIMASO
 70
     1
  9
$DIMSHO
 70
     1
  9
$DIMPOST
  1

  9
$DIMAPOST
  1

  9
$DIMALT
 70
     0
  9
$DIMALTD
 70
     2
  9
$DIMALTF
 40
0.0394
  9
$DIMLFAC
 40
1.0
  9
$DIMTOFL
 70
     1
  9
$DIMTVP
 40
0.0
  9
$DIMTIX
 70
     1
  9
$DIMSOXD
 70
     0
  9
$DIMSAH
 70
     1
  9
$DIMBLK1
  1
DOTSMALL
  9
$DIMBLK2
  1
DOTSMALL
  9
$DIMSTYLE
  2
INABA_S40G
  9
$DIMCLRD
 70
     0
  9
$DIMCLRE
 70
     0
  9
$DIMCLRT
 70
     7
  9
$DIMTFAC
 40
1.0
  9
$DIMGAP
 40
1.0
  9
$DIMJUST
 70
     0
  9
$DIMSD1
 70
     0
  9
$DIMSD2
 70
     0
  9
$DIMTOLJ
 70
     1
  9
$DIMTZIN
 70
     0
  9
$DIMALTZ
 70
     0
  9
$DIMALTTZ
 70
     0
  9
$DIMUPT
 70
     0
  9
$DIMDEC
 70
     1
  9
$DIMTDEC
 70
     4
  9
$DIMALTU
 70
     2
  9
$DIMALTTD
 70
     2
  9
$DIMTXSTY
  7
STYLE1
  9
$DIMAUNIT
 70
     0
  9
$DIMADEC
 70
     0
  9
$DIMALTRND
 40
0.0
  9
$DIMAZIN
 70
     0
  9
$DIMDSEP
 70
    46
  9
$DIMATFIT
 70
     3
  9
$DIMFRAC
 70
     0
  9
$DIMLDRBLK
  1

  9
$DIMLUNIT
 70
     2
  9
$DIMLWD
 70
    -2
  9
$DIMLWE
 70
    -2
  9
$DIMTMOVE
 70
     0
  9
$LUNITS
 70
     2
  9
$LUPREC
 70
     1
  9
$SKETCHINC
 40
1.0
  9
$FILLETRAD
 40
3.0
  9
$AUNITS
 70
     0
  9
$AUPREC
 70
     0
  9
$MENU
  1
acad
  9
$ELEVATION
 40
0.0
  9
$PELEVATION
 40
0.0
  9
$THICKNESS
 40
0.0
  9
$LIMCHECK
 70
     0
  9
$CHAMFERA
 40
0.0
  9
$CHAMFERB
 40
0.0
  9
$CHAMFERC
 40
0.0
  9
$CHAMFERD
 40
0.0
  9
$SKPOLY
 70
     0
  9
$TDCREATE
 40
2451368.612993866
  9
$TDUCREATE
 40
2451368.237993866
  9
$TDUPDATE
 40
2455575.683018658
  9
$TDUUPDATE
 40
2455575.308018657
  9
$TDINDWG
 40
0.5294684606
  9
$TDUSRTIMER
 40
0.5294684606
  9
$USRTIMER
 70
     1
  9
$ANGBASE
 50
0.0
  9
$ANGDIR
 70
     0
  9
$PDMODE
 70
     3
  9
$PDSIZE
 40
2.0
  9
$PLINEWID
 40
0.0
  9
$SPLFRAME
 70
     0
  9
$SPLINETYPE
 70
     6
  9
$SPLINESEGS
 70
     8
  9
$HANDSEED
  5
1818C
  9
$SURFTAB1
 70
     6
  9
$SURFTAB2
 70
     6
  9
$SURFTYPE
 70
     6
  9
$SURFU
 70
     6
  9
$SURFV
 70
     6
  9
$UCSBASE
  2

  9
$UCSNAME
  2

  9
$UCSORG
 10
0.0
 20
0.0
 30
0.0
  9
$UCSXDIR
 10
1.0
 20
0.0
 30
0.0
  9
$UCSYDIR
 10
0.0
 20
1.0
 30
0.0
  9
$UCSORTHOREF
  2

  9
$UCSORTHOVIEW
 70
     0
  9
$UCSORGTOP
 10
0.0
 20
0.0
 30
0.0
  9
$UCSORGBOTTOM
 10
0.0
 20
0.0
 30
0.0
  9
$UCSORGLEFT
 10
0.0
 20
0.0
 30
0.0
  9
$UCSORGRIGHT
 10
0.0
 20
0.0
 30
0.0
  9
$UCSORGFRONT
 10
0.0
 20
0.0
 30
0.0
  9
$UCSORGBACK
 10
0.0
 20
0.0
 30
0.0
  9
$PUCSBASE
  2

  9
$PUCSNAME
  2

  9
$PUCSORG
 10
0.0
 20
0.0
 30
0.0
  9
$PUCSXDIR
 10
1.0
 20
0.0
 30
0.0
  9
$PUCSYDIR
 10
0.0
 20
1.0
 30
0.0
  9
$PUCSORTHOREF
  2

  9
$PUCSORTHOVIEW
 70
     0
  9
$PUCSORGTOP
 10
0.0
 20
0.0
 30
0.0
  9
$PUCSORGBOTTOM
 10
0.0
 20
0.0
 30
0.0
  9
$PUCSORGLEFT
 10
0.0
 20
0.0
 30
0.0
  9
$PUCSORGRIGHT
 10
0.0
 20
0.0
 30
0.0
  9
$PUCSORGFRONT
 10
0.0
 20
0.0
 30
0.0
  9
$PUCSORGBACK
 10
0.0
 20
0.0
 30
0.0
  9
$USERI1
 70
     0
  9
$USERI2
 70
     0
  9
$USERI3
 70
     0
  9
$USERI4
 70
     0
  9
$USERI5
 70
     0
  9
$USERR1
 40
0.0
  9
$USERR2
 40
0.0
  9
$USERR3
 40
0.0
  9
$USERR4
 40
0.0
  9
$USERR5
 40
0.0
  9
$WORLDVIEW
 70
     1
  9
$SHADEDGE
 70
     3
  9
$SHADEDIF
 70
    70
  9
$TILEMODE
 70
     1
  9
$MAXACTVP
 70
    16
  9
$PINSBASE
 10
0.0
 20
0.0
 30
0.0
  9
$PLIMCHECK
 70
     0
  9
$PEXTMIN
 10
1.000000000000000E+20
 20
1.000000000000000E+20
 30
1.000000000000000E+20
  9
$PEXTMAX
 10
-1.000000000000000E+20
 20
-1.000000000000000E+20
 30
-1.000000000000000E+20
  9
$PLIMMIN
 10
0.0
 20
0.0
  9
$PLIMMAX
 10
420.0
 20
297.0
  9
$UNITMODE
 70
     0
  9
$VISRETAIN
 70
     0
  9
$PLINEGEN
 70
     0
  9
$PSLTSCALE
 70
     0
  9
$TREEDEPTH
 70
  3020
  9
$CMLSTYLE
  2
STANDARD
  9
$CMLJUST
 70
     0
  9
$CMLSCALE
 40
1.0
  9
$PROXYGRAPHICS
 70
     1
  9
$MEASUREMENT
 70
     1
  9
$CELWEIGHT
370
    -1
  9
$ENDCAPS
280
     0
  9
$JOINSTYLE
280
     0
  9
$LWDISPLAY
290
     0
  9
$INSUNITS
 70
     0
  9
$HYPERLINKBASE
  1

  9
$STYLESHEET
  1
inaba.ctb
  9
$XEDIT
290
     1
  9
$CEPSNTYPE
380
     0
  9
$PSTYLEMODE
290
     1
  9
$FINGERPRINTGUID
  2
{AECDD638-ACE1-45F1-B367-B382C9F82443}
  9
$VERSIONGUID
  2
{A2DC342E-D3D5-4BBF-9908-6295A03F673A}
  9
$EXTNAMES
290
     1
  9
$PSVPSCALE
 40
0.0
  9
$OLESTARTUP
290
     0
  0
ENDSEC
  0
SECTION
  2
CLASSES
  0
CLASS
  1
ACDBDICTIONARYWDFLT
  2
AcDbDictionaryWithDefault
  3
ObjectDBX Classes
 90
        0
280
     0
281
     0
  0
CLASS
  1
DICTIONARYVAR
  2
AcDbDictionaryVar
  3
ObjectDBX Classes
 90
        0
280
     0
281
     0
  0
CLASS
  1
ACDBPLACEHOLDER
  2
AcDbPlaceHolder
  3
ObjectDBX Classes
 90
        0
280
     0
281
     0
  0
CLASS
  1
LAYOUT
  2
AcDbLayout
  3
ObjectDBX Classes
 90
        0
280
     0
281
     0
  0
ENDSEC
  0
SECTION
  2
TABLES
  0
TABLE
  2
VPORT
  5
746D
330
0
100
AcDbSymbolTable
 70
     2
  0
VPORT
  5
18184
330
746D
100
AcDbSymbolTableRecord
100
AcDbViewportTableRecord
  2
*Active
 70
     0
 10
0.0
 20
0.0
 11
1.0
 21
1.0
 12
8223.761025238504
 22
5704.608037261908
 13
0.0
 23
0.0
 14
10.0
 24
10.0
 15
10.0
 25
10.0
 16
0.0
 26
0.0
 36
1.0
 17
0.0
 27
0.0
 37
0.0
 40
11495.08541324274
 41
1.525925925925925
 42
50.0
 43
0.0
 44
0.0
 50
0.0
 51
0.0
 71
     0
 72
     0
 73
     1
 74
     0
 75
     0
 76
     0
 77
     0
 78
     0
281
     0
 65
     1
110
0.0
120
0.0
130
0.0
111
1.0
121
0.0
131
0.0
112
0.0
122
1.0
132
0.0
 79
     0
146
0.0
  0
ENDTAB
  0
TABLE
  2
LTYPE
  5
746A
330
0
100
AcDbSymbolTable
 70
     4
  0
LTYPE
  5
7477
330
746A
100
AcDbSymbolTableRecord
100
AcDbLinetypeTableRecord
  2
BYBLOCK
 70
     0
  3

 72
    65
 73
     0
 40
0.0
  0
LTYPE
  5
7478
330
746A
100
AcDbSymbolTableRecord
100
AcDbLinetypeTableRecord
  2
BYLAYER
 70
     0
  3

 72
    65
 73
     0
 40
0.0
  0
LTYPE
  5
7479
330
746A
100
AcDbSymbolTableRecord
100
AcDbLinetypeTableRecord
  2
CONTINUOUS
 70
     0
  3
Solid line
 72
    65
 73
     0
 40
0.0
  0
LTYPE
  5
7816
330
746A
100
AcDbSymbolTableRecord
100
AcDbLinetypeTableRecord
  2
CENTER
 70
     0
  3
____ _ ____ _ ____ _ ____ _ ____ _ ____ _ ____ 
 72
    65
 73
     4
 40
2.0
 49
1.25
 74
     0
 49
-0.25
 74
     0
 49
0.25
 74
     0
 49
-0.25
 74
     0
  0
LTYPE
  5
781A
330
746A
100
AcDbSymbolTableRecord
100
AcDbLinetypeTableRecord
  2
HIDDEN
 70
     0
  3
__ __ __ __ __ __ __ __ __ __ __ __ __ __ __ __
 72
    65
 73
     2
 40
0.375
 49
0.25
 74
     0
 49
-0.125
 74
     0
  0
LTYPE
  5
781B
330
746A
100
AcDbSymbolTableRecord
100
AcDbLinetypeTableRecord
  2
PHANTOM
 70
     0
  3
______  __  __  ______  __  __  ______  __  __ 
 72
    65
 73
     6
 40
2.5
 49
1.25
 74
     0
 49
-0.25
 74
     0
 49
0.25
 74
     0
 49
-0.25
 74
     0
 49
0.25
 74
     0
 49
-0.25
 74
     0
  0
ENDTAB
  0
TABLE
  2
LAYER
  5
7467
102
{ACAD_XDICTIONARY
360
16D04
102
}
330
0
100
AcDbSymbolTable
 70
    12
  0
LAYER
  5
7474
330
7467
100
AcDbSymbolTableRecord
100
AcDbLayerTableRecord
  2
0
 70
     0
 62
     7
  6
CONTINUOUS
370
    -3
390
16B68
  0
LAYER
  5
DEB2
330
7467
100
AcDbSymbolTableRecord
100
AcDbLayerTableRecord
  2
センター
 70
     0
 62
     3
  6
CENTER
370
    -3
390
16B68
  0
LAYER
  5
DEB3
330
7467
100
AcDbSymbolTableRecord
100
AcDbLayerTableRecord
  2
寸法
 70
     0
 62
     4
  6
CONTINUOUS
370
    -3
390
16B68
  0
LAYER
  5
DEB4
330
7467
100
AcDbSymbolTableRecord
100
AcDbLayerTableRecord
  2
部品1
 70
     0
 62
     7
  6
CONTINUOUS
370
    -3
390
16B68
  0
LAYER
  5
DEB5
330
7467
100
AcDbSymbolTableRecord
100
AcDbLayerTableRecord
  2
補助
 70
     0
 62
    -1
  6
CONTINUOUS
370
    -3
390
16B68
  0
LAYER
  5
DEB6
330
7467
100
AcDbSymbolTableRecord
100
AcDbLayerTableRecord
  2
文字
 70
     0
 62
     7
  6
CONTINUOUS
370
    -3
390
16B68
  0
LAYER
  5
F255
330
7467
100
AcDbSymbolTableRecord
100
AcDbLayerTableRecord
  2
DEFPOINTS
 70
     0
 62
     7
  6
CONTINUOUS
290
     0
370
    -3
390
16B68
  0
LAYER
  5
10B54
330
7467
100
AcDbSymbolTableRecord
100
AcDbLayerTableRecord
  2
仕様書枠
 70
     0
 62
   230
  6
CONTINUOUS
370
    -3
390
16B68
  0
LAYER
  5
11729
330
7467
100
AcDbSymbolTableRecord
100
AcDbLayerTableRecord
  2
Ｇ．Ｌ
 70
     0
 62
    30
  6
CONTINUOUS
370
    -3
390
16B68
  0
LAYER
  5
1173F
330
7467
100
AcDbSymbolTableRecord
100
AcDbLayerTableRecord
  2
細線
 70
     0
 62
     5
  6
CONTINUOUS
370
    -3
390
16B68
  0
LAYER
  5
12CC4
330
7467
100
AcDbSymbolTableRecord
100
AcDbLayerTableRecord
  2
想像線
 70
     0
 62
     6
  6
PHANTOM
370
    -3
390
16B68
  0
LAYER
  5
142E2
330
7467
100
AcDbSymbolTableRecord
100
AcDbLayerTableRecord
  2
破線
 70
     0
 62
     2
  6
HIDDEN
370
    -3
390
16B68
  0
ENDTAB
  0
TABLE
  2
STYLE
  5
7468
330
0
100
AcDbSymbolTable
 70
     4
  0
STYLE
  5
7475
330
7468
100
AcDbSymbolTableRecord
100
AcDbTextStyleTableRecord
  2
STANDARD
 70
     0
 40
0.0
 41
1.0
 50
0.0
 71
     0
 42
4.0
  3
txt
  4
C:\AutoCAD LT\bigfont.shx
  0
STYLE
  5
F706
330
7468
100
AcDbSymbolTableRecord
100
AcDbTextStyleTableRecord
  2
STYLE1
 70
     0
 40
0.0
 41
1.0
 50
0.0
 71
     0
 42
4.0
  3
isocp.shx
  4
bigfont.shx
  0
STYLE
  5
103BF
330
7468
100
AcDbSymbolTableRecord
100
AcDbTextStyleTableRecord
  2
STYLE2
 70
     0
 40
0.0
 41
1.0
 50
0.0
 71
     0
 42
100.0
  3
MS PGothic.ttf
  4

1001
ACAD
1000
MS PGothic
1071
    32818
  0
STYLE
  5
1785B
330
7468
100
AcDbSymbolTableRecord
100
AcDbTextStyleTableRecord
  2
STYLE3
 70
     0
 40
0.0
 41
1.0
 50
0.0
 71
     0
 42
100.0
  3
DFPGothic-EB.ttf
  4

1001
ACAD
1000
DFPGothic-EB
1071
    32818
  0
ENDTAB
  0
TABLE
  2
VIEW
  5
746B
330
0
100
AcDbSymbolTable
 70
     0
  0
ENDTAB
  0
TABLE
  2
UCS
  5
746C
330
0
100
AcDbSymbolTable
 70
     0
  0
ENDTAB
  0
TABLE
  2
APPID
  5
746E
330
0
100
AcDbSymbolTable
 70
     6
  0
APPID
  5
7476
330
746E
100
AcDbSymbolTableRecord
100
AcDbRegAppTableRecord
  2
ACAD
 70
     0
  0
APPID
  5
DEA9
330
746E
100
AcDbSymbolTableRecord
100
AcDbRegAppTableRecord
  2
CONTENTBLOCKICON
 70
     0
  0
APPID
  5
DEAA
330
746E
100
AcDbSymbolTableRecord
100
AcDbRegAppTableRecord
  2
CONTENTBLOCKDESCRIPTION
 70
     0
  0
APPID
  5
E71D
330
746E
100
AcDbSymbolTableRecord
100
AcDbRegAppTableRecord
  2
CONTENTTABDATA
 70
     0
  0
APPID
  5
E71E
330
746E
100
AcDbSymbolTableRecord
100
AcDbRegAppTableRecord
  2
CONTENTCURRENTTAB
 70
     0
  0
APPID
  5
F3BA
330
746E
100
AcDbSymbolTableRecord
100
AcDbRegAppTableRecord
  2
DRAWINGVARIABLESXDATA
 70
     0
  0
ENDTAB
  0
TABLE
  2
DIMSTYLE
  5
746F
330
0
100
AcDbSymbolTable
 70
     5
100
AcDbDimStyleTable
 71
     0
  0
DIMSTYLE
105
7484
330
746F
100
AcDbSymbolTableRecord
100
AcDbDimStyleTableRecord
  2
JIS
 70
     0
 41
2.5
 42
1.0
 43
7.0
 44
1.0
 73
     0
 74
     0
 77
     1
 78
     8
140
2.5
141
0.0
143
0.0394
147
0.0
172
     1
174
     1
175
     1
340
7475
  0
DIMSTYLE
105
F71F
102
{ACAD_REACTORS
330
17034
330
17038
330
17039
330
17053
330
17054
330
17055
330
17056
330
1706B
330
17079
330
1707A
330
1707B
330
1707C
330
170E0
330
1715D
330
1715E
330
1715F
330
172B8
330
172B9
330
172C4
330
172C8
330
172C9
330
17300
330
17304
330
17305
330
17306
330
17307
330
17326
330
17327
330
17E15
330
17F16
102
}
330
746F
100
AcDbSymbolTableRecord
100
AcDbDimStyleTableRecord
  2
INABA_S40G
 70
     0
 40
40.0
 41
2.5
 42
0.5
 43
7.0
 44
1.5
 73
     0
 74
     0
 77
     3
 78
     8
140
3.0
141
0.0
143
0.0394
147
1.0
172
     1
173
     1
174
     1
178
     7
271
     1
340
F706
341
F770
343
F770
344
F770
  0
DIMSTYLE
105
16D03
102
{ACAD_REACTORS
330
17B80
330
17E16
102
}
330
746F
100
AcDbSymbolTableRecord
100
AcDbDimStyleTableRecord
  2
INABA_S40
 70
     0
 40
40.0
 41
2.5
 42
0.5
 43
7.0
 44
1.5
 73
     0
 74
     0
 77
     3
 78
     8
140
3.0
141
0.0
143
0.0394
147
1.0
172
     1
173
     1
174
     1
175
     1
178
     7
340
7475
  0
DIMSTYLE
105
1785C
330
746F
100
AcDbSymbolTableRecord
100
AcDbDimStyleTableRecord
  2
INABA_S50G
 70
     0
 41
125.0
 42
25.0
 43
7.0
 44
75.0
 73
     0
 74
     0
 77
     3
 78
     8
140
150.0
141
0.0
143
0.0394
147
25.0
172
     1
173
     1
174
     1
175
     1
178
     7
271
     1
340
F706
341
F770
343
F770
344
F770
  0
DIMSTYLE
105
1810A
330
746F
100
AcDbSymbolTableRecord
100
AcDbDimStyleTableRecord
  2
INABA_S20G
 70
     0
 40
20.0
 41
2.5
 42
0.5
 43
7.0
 44
1.5
 73
     0
 74
     0
 77
     3
 78
     8
140
3.0
141
0.0
143
0.0394
147
1.0
172
     1
173
     1
174
     1
178
     7
271
     1
340
F706
341
F770
343
F770
344
F770
  0
ENDTAB
  0
TABLE
  2
BLOCK_RECORD
  5
7466
330
0
100
AcDbSymbolTable
 70
    34
  0
BLOCK_RECORD
  5
747D
330
7466
100
AcDbSymbolTableRecord
100
AcDbBlockTableRecord
  2
*MODEL_SPACE
340
16B6D
  0
BLOCK_RECORD
  5
747A
330
7466
100
AcDbSymbolTableRecord
100
AcDbBlockTableRecord
  2
*PAPER_SPACE
340
16B6E
  0
BLOCK_RECORD
  5
F770
330
7466
100
AcDbSymbolTableRecord
100
AcDbBlockTableRecord
  2
_DOTSMALL
340
0
102
{BLKREFS
331
1791E
331
1791F
331
17927
331
17928
331
179A4
331
179A5
331
179AF
331
179B0
331
179B8
331
179B9
331
179C3
331
179C4
331
179D7
331
179D8
331
179E0
331
179E1
331
179EB
331
179EC
331
179F4
331
179F5
331
179FE
331
179FF
331
17A07
331
17A08
331
17A10
331
17A11
331
17A1A
331
17A1B
331
17A25
331
17A26
331
17A2F
331
17A30
331
17A39
331
17A3A
331
17A41
331
17A42
331
1807C
331
1807D
331
18090
331
18091
331
180A4
331
180A5
331
180AD
331
180AE
331
180B8
331
180B9
331
180C1
331
180C2
331
180CA
331
180CB
331
180D3
331
180D4
331
180DC
331
180DD
331
180E7
331
180E8
331
180F0
331
180F1
331
180FB
331
180FC
102
}
  0
BLOCK_RECORD
  5
16B75
330
7466
100
AcDbSymbolTableRecord
100
AcDbBlockTableRecord
  2
_DOT
340
0
102
{BLKREFS
331
18087
331
18088
331
18099
331
1809A
102
}
  0
BLOCK_RECORD
  5
17342
330
7466
100
AcDbSymbolTableRecord
100
AcDbBlockTableRecord
  2
*D2
340
0
  0
BLOCK_RECORD
  5
1734E
330
7466
100
AcDbSymbolTableRecord
100
AcDbBlockTableRecord
  2
*D3
340
0
  0
BLOCK_RECORD
  5
1735A
330
7466
100
AcDbSymbolTableRecord
100
AcDbBlockTableRecord
  2
*D4
340
0
  0
BLOCK_RECORD
  5
17367
330
7466
100
AcDbSymbolTableRecord
100
AcDbBlockTableRecord
  2
*D5
340
0
  0
BLOCK_RECORD
  5
17375
330
7466
100
AcDbSymbolTableRecord
100
AcDbBlockTableRecord
  2
*D6
340
0
  0
BLOCK_RECORD
  5
17382
330
7466
100
AcDbSymbolTableRecord
100
AcDbBlockTableRecord
  2
*D7
340
0
  0
BLOCK_RECORD
  5
1738E
330
7466
100
AcDbSymbolTableRecord
100
AcDbBlockTableRecord
  2
*D8
340
0
  0
BLOCK_RECORD
  5
1739A
330
7466
100
AcDbSymbolTableRecord
100
AcDbBlockTableRecord
  2
*D9
340
0
  0
BLOCK_RECORD
  5
173A7
330
7466
100
AcDbSymbolTableRecord
100
AcDbBlockTableRecord
  2
*D10
340
0
  0
BLOCK_RECORD
  5
173B3
330
7466
100
AcDbSymbolTableRecord
100
AcDbBlockTableRecord
  2
*D11
340
0
  0
BLOCK_RECORD
  5
173C1
330
7466
100
AcDbSymbolTableRecord
100
AcDbBlockTableRecord
  2
*D12
340
0
  0
BLOCK_RECORD
  5
173CD
330
7466
100
AcDbSymbolTableRecord
100
AcDbBlockTableRecord
  2
*D13
340
0
  0
BLOCK_RECORD
  5
173E7
330
7466
100
AcDbSymbolTableRecord
100
AcDbBlockTableRecord
  2
*D14
340
0
  0
BLOCK_RECORD
  5
173F5
330
7466
100
AcDbSymbolTableRecord
100
AcDbBlockTableRecord
  2
*D15
340
0
  0
BLOCK_RECORD
  5
17401
330
7466
100
AcDbSymbolTableRecord
100
AcDbBlockTableRecord
  2
*D16
340
0
  0
BLOCK_RECORD
  5
1740F
330
7466
100
AcDbSymbolTableRecord
100
AcDbBlockTableRecord
  2
*D17
340
0
  0
BLOCK_RECORD
  5
17427
330
7466
100
AcDbSymbolTableRecord
100
AcDbBlockTableRecord
  2
*D18
340
0
  0
BLOCK_RECORD
  5
17435
330
7466
100
AcDbSymbolTableRecord
100
AcDbBlockTableRecord
  2
*D19
340
0
  0
BLOCK_RECORD
  5
17441
330
7466
100
AcDbSymbolTableRecord
100
AcDbBlockTableRecord
  2
*D20
340
0
  0
BLOCK_RECORD
  5
1744F
330
7466
100
AcDbSymbolTableRecord
100
AcDbBlockTableRecord
  2
*D21
340
0
  0
BLOCK_RECORD
  5
1745B
330
7466
100
AcDbSymbolTableRecord
100
AcDbBlockTableRecord
  2
*D22
340
0
  0
BLOCK_RECORD
  5
17467
330
7466
100
AcDbSymbolTableRecord
100
AcDbBlockTableRecord
  2
*D23
340
0
  0
BLOCK_RECORD
  5
1747F
330
7466
100
AcDbSymbolTableRecord
100
AcDbBlockTableRecord
  2
*D24
340
0
  0
BLOCK_RECORD
  5
1748B
330
7466
100
AcDbSymbolTableRecord
100
AcDbBlockTableRecord
  2
*D25
340
0
  0
BLOCK_RECORD
  5
17499
330
7466
100
AcDbSymbolTableRecord
100
AcDbBlockTableRecord
  2
*D26
340
0
  0
BLOCK_RECORD
  5
174A5
330
7466
100
AcDbSymbolTableRecord
100
AcDbBlockTableRecord
  2
*D27
340
0
  0
BLOCK_RECORD
  5
174B3
330
7466
100
AcDbSymbolTableRecord
100
AcDbBlockTableRecord
  2
*D28
340
0
  0
BLOCK_RECORD
  5
174BF
330
7466
100
AcDbSymbolTableRecord
100
AcDbBlockTableRecord
  2
*D29
340
0
  0
BLOCK_RECORD
  5
17BEB
330
7466
100
AcDbSymbolTableRecord
100
AcDbBlockTableRecord
  2
*D30
340
0
  0
BLOCK_RECORD
  5
17F22
330
7466
100
AcDbSymbolTableRecord
100
AcDbBlockTableRecord
  2
*D31
340
0
  0
BLOCK_RECORD
  5
17F2E
330
7466
100
AcDbSymbolTableRecord
100
AcDbBlockTableRecord
  2
*D32
340
0
  0
BLOCK_RECORD
  5
17F94
330
7466
100
AcDbSymbolTableRecord
100
AcDbBlockTableRecord
  2
*D33
340
0
  0
ENDTAB
  0
ENDSEC
  0
SECTION
  2
BLOCKS
  0
BLOCK
  5
7489
330
747D
100
AcDbEntity
  8
0
100
AcDbBlockBegin
  2
*MODEL_SPACE
 70
     0
 10
0.0
 20
0.0
 30
0.0
  3
*MODEL_SPACE
  1

  0
ENDBLK
  5
748A
330
747D
100
AcDbEntity
  8
0
100
AcDbBlockEnd
  0
BLOCK
  5
7487
330
747A
100
AcDbEntity
 67
     1
  8
0
100
AcDbBlockBegin
  2
*PAPER_SPACE
 70
     0
 10
0.0
 20
0.0
 30
0.0
  3
*PAPER_SPACE
  1

  0
ENDBLK
  5
7488
330
747A
100
AcDbEntity
 67
     1
  8
0
100
AcDbBlockEnd
  0
BLOCK
  5
F771
330
F770
100
AcDbEntity
  8
0
 48
50.0
100
AcDbBlockBegin
  2
_DOTSMALL
 70
     0
 10
0.0
 20
0.0
 30
0.0
  3
_DOTSMALL
  1

  0
LWPOLYLINE
  5
F772
330
F770
100
AcDbEntity
  8
0
  6
ByBlock
 62
     0
 48
50.0
100
AcDbPolyline
 90
        2
 70
     1
 43
0.5
 10
-0.0625
 20
0.0
 42
1.0
 10
0.0625
 20
0.0
 42
1.0
  0
ENDBLK
  5
F776
330
F770
100
AcDbEntity
  8
0
 48
50.0
100
AcDbBlockEnd
  0
BLOCK
  5
16B76
330
16B75
100
AcDbEntity
  8
0
 48
50.0
100
AcDbBlockBegin
  2
_DOT
 70
     0
 10
0.0
 20
0.0
 30
0.0
  3
_DOT
  1

  0
LWPOLYLINE
  5
16B77
330
16B75
100
AcDbEntity
  8
0
  6
ByBlock
 62
     0
 48
50.0
100
AcDbPolyline
 90
        2
 70
     1
 43
0.5
 10
-0.25
 20
0.0
 42
1.0
 10
0.25
 20
0.0
 42
1.0
  0
LINE
  5
16B78
330
16B75
100
AcDbEntity
  8
0
  6
ByBlock
 62
     0
 48
50.0
100
AcDbLine
 10
-0.5
 20
0.0
 30
0.0
 11
-1.0
 21
0.0
 31
0.0
  0
ENDBLK
  5
16B79
330
16B75
100
AcDbEntity
  8
0
 48
50.0
100
AcDbBlockEnd
  0
BLOCK
  5
1734C
330
17342
100
AcDbEntity
  8
0
 48
50.0
100
AcDbBlockBegin
  2
*D2
 70
     1
 10
0.0
 20
0.0
 30
0.0
  3
*D2
  1

  0
LINE
  5
17A3E
330
17342
100
AcDbEntity
  8
寸法
 62
     0
 48
50.0
370
    -2
100
AcDbLine
 10
4700.579463617716
 20
2077.207038820215
 30
0.0
 11
4700.579463617716
 21
1751.159709519839
 31
0.0
  0
LINE
  5
17A3F
330
17342
100
AcDbEntity
  8
寸法
 62
     0
 48
50.0
370
    -2
100
AcDbLine
 10
4500.579463617716
 20
2077.207038820217
 30
0.0
 11
4500.579463617716
 21
1751.159709519839
 31
0.0
  0
LINE
  5
17A40
330
17342
100
AcDbEntity
  8
寸法
 62
     0
 48
50.0
370
    -2
100
AcDbLine
 10
4700.579463617716
 20
1811.159709519839
 30
0.0
 11
4500.579463617716
 21
1811.159709519839
 31
0.0
  0
INSERT
  5
17A41
330
17342
100
AcDbEntity
  8
寸法
 62
     0
 48
50.0
370
    -2
100
AcDbBlockReference
  2
_DOTSMALL
 10
4700.579463617716
 20
1811.159709519839
 30
0.0
 41
100.0
 42
100.0
 43
100.0
  0
INSERT
  5
17A42
330
17342
100
AcDbEntity
  8
寸法
 62
     0
 48
50.0
370
    -2
100
AcDbBlockReference
  2
_DOTSMALL
 10
4500.579463617716
 20
1811.159709519839
 30
0.0
 41
100.0
 42
100.0
 43
100.0
 50
180.0
  0
MTEXT
  5
17A43
330
17342
100
AcDbEntity
  8
寸法
 62
     7
 48
50.0
100
AcDbMText
 10
4600.579463617716
 20
1911.171520543462
 30
0.0
 40
120.0
 41
0.0
 71
     5
 72
     1
  1
\A1;200
  7
STYLE1
 73
     1
 44
1.0
1001
ACAD
1000
MTEXTBEGIN
1070
    73
1070
     1
1070
    44
1040
1.0
1070
    74
1070
     0
1000
MTEXTEND
  0
POINT
  5
17A44
330
17342
100
AcDbEntity
  8
DEFPOINTS
 62
     0
 48
50.0
100
AcDbPoint
 10
4700.579463617716
 20
2097.207038820215
 30
0.0
  0
POINT
  5
17A45
330
17342
100
AcDbEntity
  8
DEFPOINTS
 62
     0
 48
50.0
100
AcDbPoint
 10
4500.579463617716
 20
2097.207038820217
 30
0.0
  0
POINT
  5
17A46
330
17342
100
AcDbEntity
  8
DEFPOINTS
 62
     0
 48
50.0
100
AcDbPoint
 10
4500.579463617716
 20
1811.159709519839
 30
0.0
  0
ENDBLK
  5
1734D
330
17342
100
AcDbEntity
  8
0
 48
50.0
100
AcDbBlockEnd
  0
BLOCK
  5
17358
330
1734E
100
AcDbEntity
  8
0
 48
50.0
100
AcDbBlockBegin
  2
*D3
 70
     1
 10
0.0
 20
0.0
 30
0.0
  3
*D3
  1

  0
LINE
  5
17A35
330
1734E
100
AcDbEntity
  8
寸法
 62
     0
 48
50.0
370
    -2
100
AcDbLine
 10
4480.579463617716
 20
2097.207038820217
 30
0.0
 11
4291.079460371082
 21
2097.207038820217
 31
0.0
  0
LINE
  5
17A36
330
1734E
100
AcDbEntity
  8
寸法
 62
     0
 48
50.0
370
    -2
100
AcDbLine
 10
4455.579463617715
 20
2297.207038820217
 30
0.0
 11
4291.079460371082
 21
2297.207038820217
 31
0.0
  0
LINE
  5
17A37
330
1734E
100
AcDbEntity
  8
寸法
 62
     0
 48
50.0
370
    -2
100
AcDbLine
 10
4351.079460371082
 20
2097.207038820217
 30
0.0
 11
4351.079460371082
 21
2297.207038820217
 31
0.0
  0
MTEXT
  5
17A38
330
1734E
100
AcDbEntity
  8
寸法
 62
     7
 48
50.0
100
AcDbMText
 10
4215.811040231947
 20
2167.35139208715
 30
0.0
 40
120.0
 41
0.0
 71
     5
 72
     1
  1
\A1;200
  7
STYLE1
 11
0.0000000000000001
 21
1.0
 31
0.0
 73
     1
 44
1.0
1001
ACAD
1000
MTEXTBEGIN
1070
    73
1070
     1
1070
    44
1040
1.0
1070
    74
1070
     0
1000
MTEXTEND
  0
INSERT
  5
17A39
330
1734E
100
AcDbEntity
  8
寸法
 62
     0
 48
50.0
370
    -2
100
AcDbBlockReference
  2
_DOTSMALL
 10
4351.079460371082
 20
2097.207038820217
 30
0.0
 41
100.0
 42
100.0
 43
100.0
 50
270.0
  0
INSERT
  5
17A3A
330
1734E
100
AcDbEntity
  8
寸法
 62
     0
 48
50.0
370
    -2
100
AcDbBlockReference
  2
_DOTSMALL
 10
4351.079460371082
 20
2297.207038820217
 30
0.0
 41
100.0
 42
100.0
 43
100.0
 50
90.0
  0
POINT
  5
17A3B
330
1734E
100
AcDbEntity
  8
DEFPOINTS
 62
     0
 48
50.0
100
AcDbPoint
 10
4500.579463617716
 20
2097.207038820217
 30
0.0
  0
POINT
  5
17A3C
330
1734E
100
AcDbEntity
  8
DEFPOINTS
 62
     0
 48
50.0
100
AcDbPoint
 10
4475.579463617716
 20
2297.207038820217
 30
0.0
  0
POINT
  5
17A3D
330
1734E
100
AcDbEntity
  8
DEFPOINTS
 62
     0
 48
50.0
100
AcDbPoint
 10
4351.079460371082
 20
2297.207038820217
 30
0.0
  0
ENDBLK
  5
17359
330
1734E
100
AcDbEntity
  8
0
 48
50.0
100
AcDbBlockEnd
  0
BLOCK
  5
17365
330
1735A
100
AcDbEntity
  8
0
 48
50.0
100
AcDbBlockBegin
  2
*D4
 70
     1
 10
0.0
 20
0.0
 30
0.0
  3
*D4
  1

  0
LINE
  5
17A2B
330
1735A
100
AcDbEntity
  8
寸法
 62
     0
 48
50.0
370
    -2
100
AcDbLine
 10
4512.483749908818
 20
4771.50474588988
 30
0.0
 11
3896.549310803539
 21
4789.21889616421
 31
0.0
  0
LINE
  5
17A2C
330
1735A
100
AcDbEntity
  8
寸法
 62
     0
 48
50.0
370
    -2
100
AcDbLine
 10
4508.43029435219
 20
4630.563022124166
 30
0.0
 11
3892.495855246913
 21
4648.277172398495
 31
0.0
  0
LINE
  5
17A2D
330
1735A
100
AcDbEntity
  8
寸法
 62
     0
 48
50.0
370
    -2
100
AcDbLine
 10
3952.471056849344
 20
4646.552297693548
 30
0.0
 11
3956.524512405971
 21
4787.494021459262
 31
0.0
  0
LINE
  5
17A2E
330
1735A
100
AcDbEntity
  8
寸法
 62
     0
 48
50.0
370
    -2
100
AcDbLine
 10
3956.524512405971
 20
4787.494021459262
 30
0.0
 11
3966.873760635655
 21
5147.345231073853
 31
0.0
  0
INSERT
  5
17A2F
330
1735A
100
AcDbEntity
  8
寸法
 62
     0
 48
50.0
370
    -2
100
AcDbBlockReference
  2
_DOTSMALL
 10
3952.471056849344
 20
4646.552297693548
 30
0.0
 41
100.0
 42
100.0
 43
100.0
 50
268.3526390256379
  0
INSERT
  5
17A30
330
1735A
100
AcDbEntity
  8
寸法
 62
     0
 48
50.0
370
    -2
100
AcDbBlockReference
  2
_DOTSMALL
 10
3956.524512405971
 20
4787.494021459262
 30
0.0
 41
100.0
 42
100.0
 43
100.0
 50
88.35263902563784
  0
MTEXT
  5
17A31
330
1735A
100
AcDbEntity
  8
寸法
 62
     7
 48
50.0
100
AcDbMText
 10
3863.177862770884
 20
5020.273752110167
 30
0.0
 40
120.0
 41
0.0
 71
     5
 72
     1
  1
\A1;141
  7
STYLE1
 11
0.0287479117491228
 21
0.9995866933738486
 31
0.0
 73
     1
 44
1.0
1001
ACAD
1000
MTEXTBEGIN
1070
    73
1070
     1
1070
    44
1040
1.0
1070
    74
1070
     0
1000
MTEXTEND
  0
POINT
  5
17A32
330
1735A
100
AcDbEntity
  8
DEFPOINTS
 62
     0
 48
50.0
100
AcDbPoint
 10
4532.475483776294
 20
4770.929787654898
 30
0.0
  0
POINT
  5
17A33
330
1735A
100
AcDbEntity
  8
DEFPOINTS
 62
     0
 48
50.0
100
AcDbPoint
 10
4528.422028219668
 20
4629.988063889183
 30
0.0
  0
POINT
  5
17A34
330
1735A
100
AcDbEntity
  8
DEFPOINTS
 62
     0
 48
50.0
100
AcDbPoint
 10
3952.471056849344
 20
4646.552297693548
 30
0.0
  0
ENDBLK
  5
17366
330
1735A
100
AcDbEntity
  8
0
 48
50.0
100
AcDbBlockEnd
  0
BLOCK
  5
17373
330
17367
100
AcDbEntity
  8
0
 48
50.0
100
AcDbBlockBegin
  2
*D5
 70
     1
 10
0.0
 20
0.0
 30
0.0
  3
*D5
  1

  0
LINE
  5
17A20
330
17367
100
AcDbEntity
  8
寸法
 62
     0
 48
50.0
370
    -2
100
AcDbLine
 10
4553.079463617716
 20
2447.207038820219
 30
0.0
 11
3889.42675445942
 21
2447.207038820219
 31
0.0
  0
LINE
  5
17A21
330
17367
100
AcDbEntity
  8
寸法
 62
     0
 48
50.0
370
    -2
100
AcDbLine
 10
4498.079463617716
 20
2397.207038820219
 30
0.0
 11
3889.42675445942
 21
2397.207038820219
 31
0.0
  0
LINE
  5
17A22
330
17367
100
AcDbEntity
  8
寸法
 62
     0
 48
50.0
370
    -2
100
AcDbLine
 10
3949.42675445942
 20
2447.207038820219
 30
0.0
 11
3949.42675445942
 21
2547.207038820219
 31
0.0
  0
LINE
  5
17A23
330
17367
100
AcDbEntity
  8
寸法
 62
     0
 48
50.0
370
    -2
100
AcDbLine
 10
3949.42675445942
 20
2397.207038820219
 30
0.0
 11
3949.42675445942
 21
1985.112550631236
 31
0.0
  0
LINE
  5
17A24
330
17367
100
AcDbEntity
  8
寸法
 62
     0
 48
50.0
370
    -2
100
AcDbLine
 10
3949.42675445942
 20
2447.207038820219
 30
0.0
 11
3949.42675445942
 21
2397.207038820219
 31
0.0
  0
INSERT
  5
17A25
330
17367
100
AcDbEntity
  8
寸法
 62
     0
 48
50.0
370
    -2
100
AcDbBlockReference
  2
_DOTSMALL
 10
3949.42675445942
 20
2447.207038820219
 30
0.0
 41
100.0
 42
100.0
 43
100.0
 50
270.0
  0
INSERT
  5
17A26
330
17367
100
AcDbEntity
  8
寸法
 62
     0
 48
50.0
370
    -2
100
AcDbBlockReference
  2
_DOTSMALL
 10
3949.42675445942
 20
2397.207038820219
 30
0.0
 41
100.0
 42
100.0
 43
100.0
 50
90.0
  0
MTEXT
  5
17A27
330
17367
100
AcDbEntity
  8
寸法
 62
     7
 48
50.0
100
AcDbMText
 10
3849.426754459419
 20
2091.159794725725
 30
0.0
 40
120.0
 41
0.0
 71
     5
 72
     1
  1
\A1;50
  7
STYLE1
 11
0.0000000000000001
 21
1.0
 31
0.0
 73
     1
 44
1.0
1001
ACAD
1000
MTEXTBEGIN
1070
    73
1070
     1
1070
    44
1040
1.0
1070
    74
1070
     0
1000
MTEXTEND
  0
POINT
  5
17A28
330
17367
100
AcDbEntity
  8
DEFPOINTS
 62
     0
 48
50.0
100
AcDbPoint
 10
4573.079463617715
 20
2447.207038820219
 30
0.0
  0
POINT
  5
17A29
330
17367
100
AcDbEntity
  8
DEFPOINTS
 62
     0
 48
50.0
100
AcDbPoint
 10
4518.079463617715
 20
2397.207038820219
 30
0.0
  0
POINT
  5
17A2A
330
17367
100
AcDbEntity
  8
DEFPOINTS
 62
     0
 48
50.0
100
AcDbPoint
 10
3949.42675445942
 20
2397.207038820219
 30
0.0
  0
ENDBLK
  5
17374
330
17367
100
AcDbEntity
  8
0
 48
50.0
100
AcDbBlockEnd
  0
BLOCK
  5
17380
330
17375
100
AcDbEntity
  8
0
 48
50.0
100
AcDbBlockBegin
  2
*D6
 70
     1
 10
0.0
 20
0.0
 30
0.0
  3
*D6
  1

  0
LINE
  5
17A16
330
17375
100
AcDbEntity
  8
寸法
 62
     0
 48
50.0
370
    -2
100
AcDbLine
 10
4498.079463617716
 20
2397.207038820219
 30
0.0
 11
3604.440081688358
 21
2397.207038820219
 31
0.0
  0
LINE
  5
17A17
330
17375
100
AcDbEntity
  8
寸法
 62
     0
 48
50.0
370
    -2
100
AcDbLine
 10
3929.426754459419
 20
2297.207038820219
 30
0.0
 11
3604.440081688358
 21
2297.207038820219
 31
0.0
  0
LINE
  5
17A18
330
17375
100
AcDbEntity
  8
寸法
 62
     0
 48
50.0
370
    -2
100
AcDbLine
 10
3664.440081688358
 20
2397.207038820219
 30
0.0
 11
3664.440081688358
 21
2297.207038820219
 31
0.0
  0
LINE
  5
17A19
330
17375
100
AcDbEntity
  8
寸法
 62
     0
 48
50.0
370
    -2
100
AcDbLine
 10
3664.440081688358
 20
2297.207038820219
 30
0.0
 11
3664.440081688358
 21
1925.112550631236
 31
0.0
  0
INSERT
  5
17A1A
330
17375
100
AcDbEntity
  8
寸法
 62
     0
 48
50.0
370
    -2
100
AcDbBlockReference
  2
_DOTSMALL
 10
3664.440081688358
 20
2397.207038820219
 30
0.0
 41
100.0
 42
100.0
 43
100.0
 50
90.0
  0
INSERT
  5
17A1B
330
17375
100
AcDbEntity
  8
寸法
 62
     0
 48
50.0
370
    -2
100
AcDbBlockReference
  2
_DOTSMALL
 10
3664.440081688358
 20
2297.207038820219
 30
0.0
 41
100.0
 42
100.0
 43
100.0
 50
270.0
  0
MTEXT
  5
17A1C
330
17375
100
AcDbEntity
  8
寸法
 62
     7
 48
50.0
100
AcDbMText
 10
3564.440081688358
 20
2061.159794725725
 30
0.0
 40
120.0
 41
0.0
 71
     5
 72
     1
  1
\A1;100
  7
STYLE1
 11
0.0000000000000001
 21
1.0
 31
0.0
 73
     1
 44
1.0
1001
ACAD
1000
MTEXTBEGIN
1070
    73
1070
     1
1070
    44
1040
1.0
1070
    74
1070
     0
1000
MTEXTEND
  0
POINT
  5
17A1D
330
17375
100
AcDbEntity
  8
DEFPOINTS
 62
     0
 48
50.0
100
AcDbPoint
 10
4518.079463617715
 20
2397.207038820219
 30
0.0
  0
POINT
  5
17A1E
330
17375
100
AcDbEntity
  8
DEFPOINTS
 62
     0
 48
50.0
100
AcDbPoint
 10
3949.426754459419
 20
2297.207038820219
 30
0.0
  0
POINT
  5
17A1F
330
17375
100
AcDbEntity
  8
DEFPOINTS
 62
     0
 48
50.0
100
AcDbPoint
 10
3664.440081688358
 20
2297.207038820219
 30
0.0
  0
ENDBLK
  5
17381
330
17375
100
AcDbEntity
  8
0
 48
50.0
100
AcDbBlockEnd
  0
BLOCK
  5
1738C
330
17382
100
AcDbEntity
  8
0
 48
50.0
100
AcDbBlockBegin
  2
*D7
 70
     1
 10
0.0
 20
0.0
 30
0.0
  3
*D7
  1

  0
LINE
  5
17A0D
330
17382
100
AcDbEntity
  8
寸法
 62
     0
 48
50.0
370
    -2
100
AcDbLine
 10
4553.079463617716
 20
2397.207038820219
 30
0.0
 11
3604.440081688359
 21
2397.207038820219
 31
0.0
  0
LINE
  5
17A0E
330
17382
100
AcDbEntity
  8
寸法
 62
     0
 48
50.0
370
    -2
100
AcDbLine
 10
4493.079463617716
 20
4772.207038820222
 30
0.0
 11
3604.44008168836
 21
4772.207038820222
 31
0.0
  0
LINE
  5
17A0F
330
17382
100
AcDbEntity
  8
寸法
 62
     0
 48
50.0
370
    -2
100
AcDbLine
 10
3664.44008168836
 20
2397.207038820219
 30
0.0
 11
3664.44008168836
 21
4772.207038820222
 31
0.0
  0
INSERT
  5
17A10
330
17382
100
AcDbEntity
  8
寸法
 62
     0
 48
50.0
370
    -2
100
AcDbBlockReference
  2
_DOTSMALL
 10
3664.44008168836
 20
2397.207038820219
 30
0.0
 41
100.0
 42
100.0
 43
100.0
 50
270.0
  0
INSERT
  5
17A11
330
17382
100
AcDbEntity
  8
寸法
 62
     0
 48
50.0
370
    -2
100
AcDbBlockReference
  2
_DOTSMALL
 10
3664.44008168836
 20
4772.207038820222
 30
0.0
 41
100.0
 42
100.0
 43
100.0
 50
90.0
  0
MTEXT
  5
17A12
330
17382
100
AcDbEntity
  8
寸法
 62
     7
 48
50.0
100
AcDbMText
 10
3564.428270664737
 20
3557.207038820218
 30
0.0
 40
120.0
 41
0.0
 71
     5
 72
     1
  1
\A1;2375
  7
STYLE1
 11
0.0000000000000001
 21
1.0
 31
0.0
 73
     1
 44
1.0
1001
ACAD
1000
MTEXTBEGIN
1070
    73
1070
     1
1070
    44
1040
1.0
1070
    74
1070
     0
1000
MTEXTEND
  0
POINT
  5
17A13
330
17382
100
AcDbEntity
  8
DEFPOINTS
 62
     0
 48
50.0
100
AcDbPoint
 10
4573.079463617715
 20
2397.207038820219
 30
0.0
  0
POINT
  5
17A14
330
17382
100
AcDbEntity
  8
DEFPOINTS
 62
     0
 48
50.0
100
AcDbPoint
 10
4513.079463617716
 20
4772.207038820222
 30
0.0
  0
POINT
  5
17A15
330
17382
100
AcDbEntity
  8
DEFPOINTS
 62
     0
 48
50.0
100
AcDbPoint
 10
3664.44008168836
 20
4772.207038820222
 30
0.0
  0
ENDBLK
  5
1738D
330
17382
100
AcDbEntity
  8
0
 48
50.0
100
AcDbBlockEnd
  0
BLOCK
  5
17398
330
1738E
100
AcDbEntity
  8
0
 48
50.0
100
AcDbBlockBegin
  2
*D8
 70
     1
 10
0.0
 20
0.0
 30
0.0
  3
*D8
  1

  0
LINE
  5
17A04
330
1738E
100
AcDbEntity
  8
寸法
 62
     0
 48
50.0
370
    -2
100
AcDbLine
 10
4553.079463617716
 20
4537.207038820219
 30
0.0
 11
3889.42675445942
 21
4537.207038820219
 31
0.0
  0
LINE
  5
17A05
330
1738E
100
AcDbEntity
  8
寸法
 62
     0
 48
50.0
370
    -2
100
AcDbLine
 10
4553.079463617716
 20
2447.207038820219
 30
0.0
 11
3889.42675445942
 21
2447.207038820219
 31
0.0
  0
LINE
  5
17A06
330
1738E
100
AcDbEntity
  8
寸法
 62
     0
 48
50.0
370
    -2
100
AcDbLine
 10
3949.42675445942
 20
4537.207038820219
 30
0.0
 11
3949.42675445942
 21
2447.207038820219
 31
0.0
  0
INSERT
  5
17A07
330
1738E
100
AcDbEntity
  8
寸法
 62
     0
 48
50.0
370
    -2
100
AcDbBlockReference
  2
_DOTSMALL
 10
3949.42675445942
 20
4537.207038820219
 30
0.0
 41
100.0
 42
100.0
 43
100.0
 50
90.0
  0
INSERT
  5
17A08
330
1738E
100
AcDbEntity
  8
寸法
 62
     0
 48
50.0
370
    -2
100
AcDbBlockReference
  2
_DOTSMALL
 10
3949.42675445942
 20
2447.207038820219
 30
0.0
 41
100.0
 42
100.0
 43
100.0
 50
270.0
  0
MTEXT
  5
17A09
330
1738E
100
AcDbEntity
  8
寸法
 62
     7
 48
50.0
100
AcDbMText
 10
3849.414943435796
 20
3557.207038820218
 30
0.0
 40
120.0
 41
0.0
 71
     5
 72
     1
  1
\A1;2090
  7
STYLE1
 11
0.0000000000000001
 21
1.0
 31
0.0
 73
     1
 44
1.0
1001
ACAD
1000
MTEXTBEGIN
1070
    73
1070
     1
1070
    44
1040
1.0
1070
    74
1070
     0
1000
MTEXTEND
  0
POINT
  5
17A0A
330
1738E
100
AcDbEntity
  8
DEFPOINTS
 62
     0
 48
50.0
100
AcDbPoint
 10
4573.079463617715
 20
4537.207038820219
 30
0.0
  0
POINT
  5
17A0B
330
1738E
100
AcDbEntity
  8
DEFPOINTS
 62
     0
 48
50.0
100
AcDbPoint
 10
4573.079463617715
 20
2447.207038820219
 30
0.0
  0
POINT
  5
17A0C
330
1738E
100
AcDbEntity
  8
DEFPOINTS
 62
     0
 48
50.0
100
AcDbPoint
 10
3949.42675445942
 20
2447.207038820219
 30
0.0
  0
ENDBLK
  5
17399
330
1738E
100
AcDbEntity
  8
0
 48
50.0
100
AcDbBlockEnd
  0
BLOCK
  5
173A5
330
1739A
100
AcDbEntity
  8
0
 48
50.0
100
AcDbBlockBegin
  2
*D9
 70
     1
 10
0.0
 20
0.0
 30
0.0
  3
*D9
  1

  0
LINE
  5
179FA
330
1739A
100
AcDbEntity
  8
寸法
 62
     0
 48
50.0
370
    -2
100
AcDbLine
 10
6783.079463617716
 20
4739.01771843187
 30
0.0
 11
6783.079463617716
 21
5230.864492399522
 31
0.0
  0
LINE
  5
179FB
330
1739A
100
AcDbEntity
  8
寸法
 62
     0
 48
50.0
370
    -2
100
AcDbLine
 10
6863.079463617715
 20
4737.207038820218
 30
0.0
 11
6863.079463617715
 21
5230.864492399522
 31
0.0
  0
LINE
  5
179FC
330
1739A
100
AcDbEntity
  8
寸法
 62
     0
 48
50.0
370
    -2
100
AcDbLine
 10
6783.079463617716
 20
5170.864492399522
 30
0.0
 11
6863.079463617715
 21
5170.864492399522
 31
0.0
  0
LINE
  5
179FD
330
1739A
100
AcDbEntity
  8
寸法
 62
     0
 48
50.0
370
    -2
100
AcDbLine
 10
6863.079463617715
 20
5170.864492399522
 30
0.0
 11
7175.173951806693
 21
5170.864492399522
 31
0.0
  0
INSERT
  5
179FE
330
1739A
100
AcDbEntity
  8
寸法
 62
     0
 48
50.0
370
    -2
100
AcDbBlockReference
  2
_DOTSMALL
 10
6783.079463617716
 20
5170.864492399522
 30
0.0
 41
100.0
 42
100.0
 43
100.0
 50
180.0
  0
INSERT
  5
179FF
330
1739A
100
AcDbEntity
  8
寸法
 62
     0
 48
50.0
370
    -2
100
AcDbBlockReference
  2
_DOTSMALL
 10
6863.079463617715
 20
5170.864492399522
 30
0.0
 41
100.0
 42
100.0
 43
100.0
  0
MTEXT
  5
17A00
330
1739A
100
AcDbEntity
  8
寸法
 62
     7
 48
50.0
100
AcDbMText
 10
7069.126707712205
 20
5270.864492399522
 30
0.0
 40
120.0
 41
0.0
 71
     5
 72
     1
  1
\A1;80
  7
STYLE1
 73
     1
 44
1.0
1001
ACAD
1000
MTEXTBEGIN
1070
    73
1070
     1
1070
    44
1040
1.0
1070
    74
1070
     0
1000
MTEXTEND
  0
POINT
  5
17A01
330
1739A
100
AcDbEntity
  8
DEFPOINTS
 62
     0
 48
50.0
100
AcDbPoint
 10
6783.079463617716
 20
4719.01771843187
 30
0.0
  0
POINT
  5
17A02
330
1739A
100
AcDbEntity
  8
DEFPOINTS
 62
     0
 48
50.0
100
AcDbPoint
 10
6863.079463617715
 20
4717.207038820219
 30
0.0
  0
POINT
  5
17A03
330
1739A
100
AcDbEntity
  8
DEFPOINTS
 62
     0
 48
50.0
100
AcDbPoint
 10
6863.079463617715
 20
5170.864492399522
 30
0.0
  0
ENDBLK
  5
173A6
330
1739A
100
AcDbEntity
  8
0
 48
50.0
100
AcDbBlockEnd
  0
BLOCK
  5
173B1
330
173A7
100
AcDbEntity
  8
0
 48
50.0
100
AcDbBlockBegin
  2
*D10
 70
     1
 10
0.0
 20
0.0
 30
0.0
  3
*D10
  1

  0
LINE
  5
179F1
330
173A7
100
AcDbEntity
  8
寸法
 62
     0
 48
50.0
370
    -2
100
AcDbLine
 10
6863.079463617715
 20
4737.207038820218
 30
0.0
 11
6863.079463617715
 21
5450.066326073813
 31
0.0
  0
LINE
  5
179F2
330
173A7
100
AcDbEntity
  8
寸法
 62
     0
 48
50.0
370
    -2
100
AcDbLine
 10
4513.079463617716
 20
4792.207038820222
 30
0.0
 11
4513.079463617716
 21
5450.066326073813
 31
0.0
  0
LINE
  5
179F3
330
173A7
100
AcDbEntity
  8
寸法
 62
     0
 48
50.0
370
    -2
100
AcDbLine
 10
6863.079463617715
 20
5390.066326073814
 30
0.0
 11
4513.079463617716
 21
5390.066326073814
 31
0.0
  0
INSERT
  5
179F4
330
173A7
100
AcDbEntity
  8
寸法
 62
     0
 48
50.0
370
    -2
100
AcDbBlockReference
  2
_DOTSMALL
 10
6863.079463617715
 20
5390.066326073814
 30
0.0
 41
100.0
 42
100.0
 43
100.0
  0
INSERT
  5
179F5
330
173A7
100
AcDbEntity
  8
寸法
 62
     0
 48
50.0
370
    -2
100
AcDbBlockReference
  2
_DOTSMALL
 10
4513.079463617716
 20
5390.066326073814
 30
0.0
 41
100.0
 42
100.0
 43
100.0
 50
180.0
  0
MTEXT
  5
179F6
330
173A7
100
AcDbEntity
  8
寸法
 62
     7
 48
50.0
100
AcDbMText
 10
5747.423317710185
 20
5490.078137097436
 30
0.0
 40
120.0
 41
0.0
 71
     5
 72
     1
  1
\A1;2350
  7
STYLE1
 73
     1
 44
1.0
1001
ACAD
1000
MTEXTBEGIN
1070
    73
1070
     1
1070
    44
1040
1.0
1070
    74
1070
     0
1000
MTEXTEND
  0
POINT
  5
179F7
330
173A7
100
AcDbEntity
  8
DEFPOINTS
 62
     0
 48
50.0
100
AcDbPoint
 10
6863.079463617715
 20
4717.207038820219
 30
0.0
  0
POINT
  5
179F8
330
173A7
100
AcDbEntity
  8
DEFPOINTS
 62
     0
 48
50.0
100
AcDbPoint
 10
4513.079463617716
 20
4772.207038820222
 30
0.0
  0
POINT
  5
179F9
330
173A7
100
AcDbEntity
  8
DEFPOINTS
 62
     0
 48
50.0
100
AcDbPoint
 10
4513.079463617716
 20
5390.066326073814
 30
0.0
  0
ENDBLK
  5
173B2
330
173A7
100
AcDbEntity
  8
0
 48
50.0
100
AcDbBlockEnd
  0
BLOCK
  5
173BF
330
173B3
100
AcDbEntity
  8
0
 48
50.0
100
AcDbBlockBegin
  2
*D11
 70
     1
 10
0.0
 20
0.0
 30
0.0
  3
*D11
  1

  0
LINE
  5
179E6
330
173B3
100
AcDbEntity
  8
寸法
 62
     0
 48
50.0
370
    -2
100
AcDbLine
 10
4573.079463617715
 20
4788.208656943196
 30
0.0
 11
4573.079463617715
 21
5230.864492399522
 31
0.0
  0
LINE
  5
179E7
330
173B3
100
AcDbEntity
  8
寸法
 62
     0
 48
50.0
370
    -2
100
AcDbLine
 10
4513.079463617716
 20
4792.207038820222
 30
0.0
 11
4513.079463617716
 21
5230.864492399522
 31
0.0
  0
LINE
  5
179E8
330
173B3
100
AcDbEntity
  8
寸法
 62
     0
 48
50.0
370
    -2
100
AcDbLine
 10
4573.079463617715
 20
5170.864492399522
 30
0.0
 11
4673.079463617716
 21
5170.864492399522
 31
0.0
  0
LINE
  5
179E9
330
173B3
100
AcDbEntity
  8
寸法
 62
     0
 48
50.0
370
    -2
100
AcDbLine
 10
4513.079463617716
 20
5170.864492399522
 30
0.0
 11
4093.803873066531
 21
5170.864492399522
 31
0.0
  0
LINE
  5
179EA
330
173B3
100
AcDbEntity
  8
寸法
 62
     0
 48
50.0
370
    -2
100
AcDbLine
 10
4573.079463617715
 20
5170.864492399522
 30
0.0
 11
4513.079463617716
 21
5170.864492399522
 31
0.0
  0
INSERT
  5
179EB
330
173B3
100
AcDbEntity
  8
寸法
 62
     0
 48
50.0
370
    -2
100
AcDbBlockReference
  2
_DOTSMALL
 10
4573.079463617715
 20
5170.864492399522
 30
0.0
 41
100.0
 42
100.0
 43
100.0
 50
180.0
  0
INSERT
  5
179EC
330
173B3
100
AcDbEntity
  8
寸法
 62
     0
 48
50.0
370
    -2
100
AcDbBlockReference
  2
_DOTSMALL
 10
4513.079463617716
 20
5170.864492399522
 30
0.0
 41
100.0
 42
100.0
 43
100.0
  0
MTEXT
  5
179ED
330
173B3
100
AcDbEntity
  8
寸法
 62
     7
 48
50.0
100
AcDbMText
 10
4203.441668342121
 20
5270.864492399522
 30
0.0
 40
120.0
 41
0.0
 71
     5
 72
     1
  1
\A1;60
  7
STYLE1
 73
     1
 44
1.0
1001
ACAD
1000
MTEXTBEGIN
1070
    73
1070
     1
1070
    44
1040
1.0
1070
    74
1070
     0
1000
MTEXTEND
  0
POINT
  5
179EE
330
173B3
100
AcDbEntity
  8
DEFPOINTS
 62
     0
 48
50.0
100
AcDbPoint
 10
4573.079463617715
 20
4768.208656943196
 30
0.0
  0
POINT
  5
179EF
330
173B3
100
AcDbEntity
  8
DEFPOINTS
 62
     0
 48
50.0
100
AcDbPoint
 10
4513.079463617716
 20
4772.207038820222
 30
0.0
  0
POINT
  5
179F0
330
173B3
100
AcDbEntity
  8
DEFPOINTS
 62
     0
 48
50.0
100
AcDbPoint
 10
4513.079463617716
 20
5170.864492399522
 30
0.0
  0
ENDBLK
  5
173C0
330
173B3
100
AcDbEntity
  8
0
 48
50.0
100
AcDbBlockEnd
  0
BLOCK
  5
173CB
330
173C1
100
AcDbEntity
  8
0
 48
50.0
100
AcDbBlockBegin
  2
*D12
 70
     1
 10
0.0
 20
0.0
 30
0.0
  3
*D12
  1

  0
LINE
  5
179DD
330
173C1
100
AcDbEntity
  8
寸法
 62
     0
 48
50.0
370
    -2
100
AcDbLine
 10
6783.079463617716
 20
4739.01771843187
 30
0.0
 11
6783.079463617716
 21
5230.864492399522
 31
0.0
  0
LINE
  5
179DE
330
173C1
100
AcDbEntity
  8
寸法
 62
     0
 48
50.0
370
    -2
100
AcDbLine
 10
4573.079463617715
 20
4788.208656943196
 30
0.0
 11
4573.079463617715
 21
5230.864492399522
 31
0.0
  0
LINE
  5
179DF
330
173C1
100
AcDbEntity
  8
寸法
 62
     0
 48
50.0
370
    -2
100
AcDbLine
 10
6783.079463617716
 20
5170.864492399522
 30
0.0
 11
4573.079463617715
 21
5170.864492399522
 31
0.0
  0
INSERT
  5
179E0
330
173C1
100
AcDbEntity
  8
寸法
 62
     0
 48
50.0
370
    -2
100
AcDbBlockReference
  2
_DOTSMALL
 10
6783.079463617716
 20
5170.864492399522
 30
0.0
 41
100.0
 42
100.0
 43
100.0
  0
INSERT
  5
179E1
330
173C1
100
AcDbEntity
  8
寸法
 62
     0
 48
50.0
370
    -2
100
AcDbBlockReference
  2
_DOTSMALL
 10
4573.079463617715
 20
5170.864492399522
 30
0.0
 41
100.0
 42
100.0
 43
100.0
 50
180.0
  0
MTEXT
  5
179E2
330
173C1
100
AcDbEntity
  8
寸法
 62
     7
 48
50.0
100
AcDbMText
 10
5667.72420068823
 20
5270.876303423144
 30
0.0
 40
120.0
 41
0.0
 71
     5
 72
     1
  1
\A1;柱外寸法2210
  7
STYLE1
 73
     1
 44
1.0
1001
ACAD
1000
MTEXTBEGIN
1070
    73
1070
     1
1070
    44
1040
1.0
1070
    74
1070
     0
1000
MTEXTEND
  0
POINT
  5
179E3
330
173C1
100
AcDbEntity
  8
DEFPOINTS
 62
     0
 48
50.0
100
AcDbPoint
 10
6783.079463617716
 20
4719.01771843187
 30
0.0
  0
POINT
  5
179E4
330
173C1
100
AcDbEntity
  8
DEFPOINTS
 62
     0
 48
50.0
100
AcDbPoint
 10
4573.079463617715
 20
4768.208656943196
 30
0.0
  0
POINT
  5
179E5
330
173C1
100
AcDbEntity
  8
DEFPOINTS
 62
     0
 48
50.0
100
AcDbPoint
 10
4573.079463617715
 20
5170.864492399522
 30
0.0
  0
ENDBLK
  5
173CC
330
173C1
100
AcDbEntity
  8
0
 48
50.0
100
AcDbBlockEnd
  0
BLOCK
  5
173D7
330
173CD
100
AcDbEntity
  8
0
 48
50.0
100
AcDbBlockBegin
  2
*D13
 70
     1
 10
0.0
 20
0.0
 30
0.0
  3
*D13
  1

  0
LINE
  5
179D4
330
173CD
100
AcDbEntity
  8
寸法
 62
     0
 48
50.0
370
    -2
100
AcDbLine
 10
6880.079463617716
 20
2397.207038820218
 30
0.0
 11
7403.186087559305
 21
2397.207038820217
 31
0.0
  0
LINE
  5
179D5
330
173CD
100
AcDbEntity
  8
寸法
 62
     0
 48
50.0
370
    -2
100
AcDbLine
 10
6883.079463617716
 20
4717.207038820219
 30
0.0
 11
7403.186087559305
 21
4717.207038820219
 31
0.0
  0
LINE
  5
179D6
330
173CD
100
AcDbEntity
  8
寸法
 62
     0
 48
50.0
370
    -2
100
AcDbLine
 10
7343.186087559306
 20
2397.207038820217
 30
0.0
 11
7343.186087559306
 21
4717.207038820219
 31
0.0
  0
INSERT
  5
179D7
330
173CD
100
AcDbEntity
  8
寸法
 62
     0
 48
50.0
370
    -2
100
AcDbBlockReference
  2
_DOTSMALL
 10
7343.186087559306
 20
2397.207038820217
 30
0.0
 41
100.0
 42
100.0
 43
100.0
 50
270.0
  0
INSERT
  5
179D8
330
173CD
100
AcDbEntity
  8
寸法
 62
     0
 48
50.0
370
    -2
100
AcDbBlockReference
  2
_DOTSMALL
 10
7343.186087559306
 20
4717.207038820219
 30
0.0
 41
100.0
 42
100.0
 43
100.0
 50
90.0
  0
MTEXT
  5
179D9
330
173CD
100
AcDbEntity
  8
寸法
 62
     7
 48
50.0
100
AcDbMText
 10
7243.174276535683
 20
3557.207038820218
 30
0.0
 40
120.0
 41
0.0
 71
     5
 72
     1
  1
\A1;2320
  7
STYLE1
 11
0.0000000000000001
 21
1.0
 31
0.0
 73
     1
 44
1.0
1001
ACAD
1000
MTEXTBEGIN
1070
    73
1070
     1
1070
    44
1040
1.0
1070
    74
1070
     0
1000
MTEXTEND
  0
POINT
  5
179DA
330
173CD
100
AcDbEntity
  8
DEFPOINTS
 62
     0
 48
50.0
100
AcDbPoint
 10
6860.079463617715
 20
2397.207038820218
 30
0.0
  0
POINT
  5
179DB
330
173CD
100
AcDbEntity
  8
DEFPOINTS
 62
     0
 48
50.0
100
AcDbPoint
 10
6863.079463617715
 20
4717.207038820219
 30
0.0
  0
POINT
  5
179DC
330
173CD
100
AcDbEntity
  8
DEFPOINTS
 62
     0
 48
50.0
100
AcDbPoint
 10
7343.186087559306
 20
4717.207038820219
 30
0.0
  0
ENDBLK
  5
173D8
330
173CD
100
AcDbEntity
  8
0
 48
50.0
100
AcDbBlockEnd
  0
BLOCK
  5
173F3
330
173E7
100
AcDbEntity
  8
0
 48
50.0
100
AcDbBlockBegin
  2
*D14
 70
     1
 10
0.0
 20
0.0
 30
0.0
  3
*D14
  1

  0
LINE
  5
179BE
330
173E7
100
AcDbEntity
  8
寸法
 62
     0
 48
50.0
370
    -2
100
AcDbLine
 10
11565.17649295497
 20
4792.207038820222
 30
0.0
 11
11565.17649295497
 21
5231.300208159693
 31
0.0
  0
LINE
  5
179BF
330
173E7
100
AcDbEntity
  8
寸法
 62
     0
 48
50.0
370
    -2
100
AcDbLine
 10
11515.17649295497
 20
4792.207038820222
 30
0.0
 11
11515.17649295497
 21
5231.300208159693
 31
0.0
  0
LINE
  5
179C0
330
173E7
100
AcDbEntity
  8
寸法
 62
     0
 48
50.0
370
    -2
100
AcDbLine
 10
11515.17649295497
 20
5171.300208159693
 30
0.0
 11
11415.17649295497
 21
5171.300208159693
 31
0.0
  0
LINE
  5
179C1
330
173E7
100
AcDbEntity
  8
寸法
 62
     0
 48
50.0
370
    -2
100
AcDbLine
 10
11565.17649295497
 20
5171.300208159693
 30
0.0
 11
11984.7090184237
 21
5171.300208159693
 31
0.0
  0
LINE
  5
179C2
330
173E7
100
AcDbEntity
  8
寸法
 62
     0
 48
50.0
370
    -2
100
AcDbLine
 10
11515.17649295497
 20
5171.300208159693
 30
0.0
 11
11565.17649295497
 21
5171.300208159693
 31
0.0
  0
INSERT
  5
179C3
330
173E7
100
AcDbEntity
  8
寸法
 62
     0
 48
50.0
370
    -2
100
AcDbBlockReference
  2
_DOTSMALL
 10
11515.17649295497
 20
5171.300208159693
 30
0.0
 41
100.0
 42
100.0
 43
100.0
  0
INSERT
  5
179C4
330
173E7
100
AcDbEntity
  8
寸法
 62
     0
 48
50.0
370
    -2
100
AcDbBlockReference
  2
_DOTSMALL
 10
11565.17649295497
 20
5171.300208159693
 30
0.0
 41
100.0
 42
100.0
 43
100.0
 50
180.0
  0
MTEXT
  5
179C5
330
173E7
100
AcDbEntity
  8
寸法
 62
     7
 48
50.0
100
AcDbMText
 10
11878.66177432921
 20
5271.300208159694
 30
0.0
 40
120.0
 41
0.0
 71
     5
 72
     1
  1
\A1;50
  7
STYLE1
 73
     1
 44
1.0
1001
ACAD
1000
MTEXTBEGIN
1070
    73
1070
     1
1070
    44
1040
1.0
1070
    74
1070
     0
1000
MTEXTEND
  0
POINT
  5
179C6
330
173E7
100
AcDbEntity
  8
DEFPOINTS
 62
     0
 48
50.0
100
AcDbPoint
 10
11565.17649295497
 20
4772.207038820222
 30
0.0
  0
POINT
  5
179C7
330
173E7
100
AcDbEntity
  8
DEFPOINTS
 62
     0
 48
50.0
100
AcDbPoint
 10
11515.17649295497
 20
4772.207038820222
 30
0.0
  0
POINT
  5
179C8
330
173E7
100
AcDbEntity
  8
DEFPOINTS
 62
     0
 48
50.0
100
AcDbPoint
 10
11515.17649295497
 20
5171.300208159693
 30
0.0
  0
ENDBLK
  5
173F4
330
173E7
100
AcDbEntity
  8
0
 48
50.0
100
AcDbBlockEnd
  0
BLOCK
  5
173FF
330
173F5
100
AcDbEntity
  8
0
 48
50.0
100
AcDbBlockBegin
  2
*D15
 70
     1
 10
0.0
 20
0.0
 30
0.0
  3
*D15
  1

  0
LINE
  5
179B5
330
173F5
100
AcDbEntity
  8
寸法
 62
     0
 48
50.0
370
    -2
100
AcDbLine
 10
8835.176492954976
 20
4792.207038820222
 30
0.0
 11
8835.176492954976
 21
5447.826307778138
 31
0.0
  0
LINE
  5
179B6
330
173F5
100
AcDbEntity
  8
寸法
 62
     0
 48
50.0
370
    -2
100
AcDbLine
 10
11565.17649295497
 20
4792.207038820222
 30
0.0
 11
11565.17649295497
 21
5447.826307778138
 31
0.0
  0
LINE
  5
179B7
330
173F5
100
AcDbEntity
  8
寸法
 62
     0
 48
50.0
370
    -2
100
AcDbLine
 10
8835.176492954976
 20
5387.826307778137
 30
0.0
 11
11565.17649295497
 21
5387.826307778137
 31
0.0
  0
INSERT
  5
179B8
330
173F5
100
AcDbEntity
  8
寸法
 62
     0
 48
50.0
370
    -2
100
AcDbBlockReference
  2
_DOTSMALL
 10
8835.176492954976
 20
5387.826307778137
 30
0.0
 41
100.0
 42
100.0
 43
100.0
 50
180.0
  0
INSERT
  5
179B9
330
173F5
100
AcDbEntity
  8
寸法
 62
     0
 48
50.0
370
    -2
100
AcDbBlockReference
  2
_DOTSMALL
 10
11565.17649295497
 20
5387.826307778137
 30
0.0
 41
100.0
 42
100.0
 43
100.0
  0
MTEXT
  5
179BA
330
173F5
100
AcDbEntity
  8
寸法
 62
     7
 48
50.0
100
AcDbMText
 10
10200.17649295497
 20
5487.838118801759
 30
0.0
 40
120.0
 41
0.0
 71
     5
 72
     1
  1
\A1;2730
  7
STYLE1
 73
     1
 44
1.0
1001
ACAD
1000
MTEXTBEGIN
1070
    73
1070
     1
1070
    44
1040
1.0
1070
    74
1070
     0
1000
MTEXTEND
  0
POINT
  5
179BB
330
173F5
100
AcDbEntity
  8
DEFPOINTS
 62
     0
 48
50.0
100
AcDbPoint
 10
8835.176492954976
 20
4772.207038820222
 30
0.0
  0
POINT
  5
179BC
330
173F5
100
AcDbEntity
  8
DEFPOINTS
 62
     0
 48
50.0
100
AcDbPoint
 10
11565.17649295497
 20
4772.207038820222
 30
0.0
  0
POINT
  5
179BD
330
173F5
100
AcDbEntity
  8
DEFPOINTS
 62
     0
 48
50.0
100
AcDbPoint
 10
11565.17649295497
 20
5387.826307778137
 30
0.0
  0
ENDBLK
  5
17400
330
173F5
100
AcDbEntity
  8
0
 48
50.0
100
AcDbBlockEnd
  0
BLOCK
  5
1740D
330
17401
100
AcDbEntity
  8
0
 48
50.0
100
AcDbBlockBegin
  2
*D16
 70
     1
 10
0.0
 20
0.0
 30
0.0
  3
*D16
  1

  0
LINE
  5
179AA
330
17401
100
AcDbEntity
  8
寸法
 62
     0
 48
50.0
370
    -2
100
AcDbLine
 10
8885.176492954975
 20
4792.207038820226
 30
0.0
 11
8885.176492954975
 21
5231.300208159693
 31
0.0
  0
LINE
  5
179AB
330
17401
100
AcDbEntity
  8
寸法
 62
     0
 48
50.0
370
    -2
100
AcDbLine
 10
8835.176492954976
 20
4792.207038820222
 30
0.0
 11
8835.176492954976
 21
5231.300208159693
 31
0.0
  0
LINE
  5
179AC
330
17401
100
AcDbEntity
  8
寸法
 62
     0
 48
50.0
370
    -2
100
AcDbLine
 10
8885.176492954975
 20
5171.300208159693
 30
0.0
 11
8985.176492954975
 21
5171.300208159693
 31
0.0
  0
LINE
  5
179AD
330
17401
100
AcDbEntity
  8
寸法
 62
     0
 48
50.0
370
    -2
100
AcDbLine
 10
8835.176492954976
 20
5171.300208159693
 30
0.0
 11
8415.643967486241
 21
5171.300208159693
 31
0.0
  0
LINE
  5
179AE
330
17401
100
AcDbEntity
  8
寸法
 62
     0
 48
50.0
370
    -2
100
AcDbLine
 10
8885.176492954975
 20
5171.300208159693
 30
0.0
 11
8835.176492954976
 21
5171.300208159693
 31
0.0
  0
INSERT
  5
179AF
330
17401
100
AcDbEntity
  8
寸法
 62
     0
 48
50.0
370
    -2
100
AcDbBlockReference
  2
_DOTSMALL
 10
8885.176492954975
 20
5171.300208159693
 30
0.0
 41
100.0
 42
100.0
 43
100.0
 50
180.0
  0
INSERT
  5
179B0
330
17401
100
AcDbEntity
  8
寸法
 62
     0
 48
50.0
370
    -2
100
AcDbBlockReference
  2
_DOTSMALL
 10
8835.176492954976
 20
5171.300208159693
 30
0.0
 41
100.0
 42
100.0
 43
100.0
  0
MTEXT
  5
179B1
330
17401
100
AcDbEntity
  8
寸法
 62
     7
 48
50.0
100
AcDbMText
 10
8521.691211580728
 20
5271.300208159694
 30
0.0
 40
120.0
 41
0.0
 71
     5
 72
     1
  1
\A1;50
  7
STYLE1
 73
     1
 44
1.0
1001
ACAD
1000
MTEXTBEGIN
1070
    73
1070
     1
1070
    44
1040
1.0
1070
    74
1070
     0
1000
MTEXTEND
  0
POINT
  5
179B2
330
17401
100
AcDbEntity
  8
DEFPOINTS
 62
     0
 48
50.0
100
AcDbPoint
 10
8885.176492954975
 20
4772.207038820226
 30
0.0
  0
POINT
  5
179B3
330
17401
100
AcDbEntity
  8
DEFPOINTS
 62
     0
 48
50.0
100
AcDbPoint
 10
8835.176492954976
 20
4772.207038820222
 30
0.0
  0
POINT
  5
179B4
330
17401
100
AcDbEntity
  8
DEFPOINTS
 62
     0
 48
50.0
100
AcDbPoint
 10
8835.176492954976
 20
5171.300208159693
 30
0.0
  0
ENDBLK
  5
1740E
330
17401
100
AcDbEntity
  8
0
 48
50.0
100
AcDbBlockEnd
  0
BLOCK
  5
17419
330
1740F
100
AcDbEntity
  8
0
 48
50.0
100
AcDbBlockBegin
  2
*D17
 70
     1
 10
0.0
 20
0.0
 30
0.0
  3
*D17
  1

  0
LINE
  5
179A1
330
1740F
100
AcDbEntity
  8
寸法
 62
     0
 48
50.0
370
    -2
100
AcDbLine
 10
11515.17649295497
 20
4792.207038820222
 30
0.0
 11
11515.17649295497
 21
5231.30020815969
 31
0.0
  0
LINE
  5
179A2
330
1740F
100
AcDbEntity
  8
寸法
 62
     0
 48
50.0
370
    -2
100
AcDbLine
 10
8885.176492954975
 20
4792.207038820226
 30
0.0
 11
8885.176492954975
 21
5231.30020815969
 31
0.0
  0
LINE
  5
179A3
330
1740F
100
AcDbEntity
  8
寸法
 62
     0
 48
50.0
370
    -2
100
AcDbLine
 10
11515.17649295497
 20
5171.300208159689
 30
0.0
 11
8885.176492954975
 21
5171.300208159689
 31
0.0
  0
INSERT
  5
179A4
330
1740F
100
AcDbEntity
  8
寸法
 62
     0
 48
50.0
370
    -2
100
AcDbBlockReference
  2
_DOTSMALL
 10
11515.17649295497
 20
5171.300208159689
 30
0.0
 41
100.0
 42
100.0
 43
100.0
  0
INSERT
  5
179A5
330
1740F
100
AcDbEntity
  8
寸法
 62
     0
 48
50.0
370
    -2
100
AcDbBlockReference
  2
_DOTSMALL
 10
8885.176492954975
 20
5171.300208159689
 30
0.0
 41
100.0
 42
100.0
 43
100.0
 50
180.0
  0
MTEXT
  5
179A6
330
1740F
100
AcDbEntity
  8
寸法
 62
     7
 48
50.0
100
AcDbMText
 10
10200.17649295497
 20
5271.312019183311
 30
0.0
 40
120.0
 41
0.0
 71
     5
 72
     1
  1
\A1;柱外寸法2630
  7
STYLE1
 73
     1
 44
1.0
1001
ACAD
1000
MTEXTBEGIN
1070
    73
1070
     1
1070
    44
1040
1.0
1070
    74
1070
     0
1000
MTEXTEND
  0
POINT
  5
179A7
330
1740F
100
AcDbEntity
  8
DEFPOINTS
 62
     0
 48
50.0
100
AcDbPoint
 10
11515.17649295497
 20
4772.207038820222
 30
0.0
  0
POINT
  5
179A8
330
1740F
100
AcDbEntity
  8
DEFPOINTS
 62
     0
 48
50.0
100
AcDbPoint
 10
8885.176492954975
 20
4772.207038820226
 30
0.0
  0
POINT
  5
179A9
330
1740F
100
AcDbEntity
  8
DEFPOINTS
 62
     0
 48
50.0
100
AcDbPoint
 10
8885.176492954975
 20
5171.300208159689
 30
0.0
  0
ENDBLK
  5
1741A
330
1740F
100
AcDbEntity
  8
0
 48
50.0
100
AcDbBlockEnd
  0
BLOCK
  5
17433
330
17427
100
AcDbEntity
  8
0
 48
50.0
100
AcDbBlockBegin
  2
*D18
 70
     1
 10
0.0
 20
0.0
 30
0.0
  3
*D18
  1

  0
LINE
  5
180F6
330
17427
100
AcDbEntity
  8
寸法
 62
     0
 48
50.0
370
    -2
100
AcDbLine
 10
11535.17649295498
 20
9932.93956280797
 30
0.0
 11
12275.17649295498
 21
9932.93956280797
 31
0.0
  0
LINE
  5
180F7
330
17427
100
AcDbEntity
  8
寸法
 62
     0
 48
50.0
370
    -2
100
AcDbLine
 10
11535.17649295498
 20
9877.939562807974
 30
0.0
 11
12275.17649295498
 21
9877.939562807974
 31
0.0
  0
LINE
  5
180F8
330
17427
100
AcDbEntity
  8
寸法
 62
     0
 48
50.0
370
    -2
100
AcDbLine
 10
12215.17649295497
 20
9877.939562807974
 30
0.0
 11
12215.17649295497
 21
9777.939562807972
 31
0.0
  0
LINE
  5
180F9
330
17427
100
AcDbEntity
  8
寸法
 62
     0
 48
50.0
370
    -2
100
AcDbLine
 10
12215.17649295497
 20
9932.93956280797
 30
0.0
 11
12215.17649295497
 21
10349.91012555644
 31
0.0
  0
LINE
  5
180FA
330
17427
100
AcDbEntity
  8
寸法
 62
     0
 48
50.0
370
    -2
100
AcDbLine
 10
12215.17649295497
 20
9877.939562807974
 30
0.0
 11
12215.17649295497
 21
9932.93956280797
 31
0.0
  0
INSERT
  5
180FB
330
17427
100
AcDbEntity
  8
寸法
 62
     0
 48
50.0
370
    -2
100
AcDbBlockReference
  2
_DOTSMALL
 10
12215.17649295497
 20
9877.939562807974
 30
0.0
 41
100.0
 42
100.0
 43
100.0
 50
90.0
  0
INSERT
  5
180FC
330
17427
100
AcDbEntity
  8
寸法
 62
     0
 48
50.0
370
    -2
100
AcDbBlockReference
  2
_DOTSMALL
 10
12215.17649295497
 20
9932.93956280797
 30
0.0
 41
100.0
 42
100.0
 43
100.0
 50
270.0
  0
MTEXT
  5
180FD
330
17427
100
AcDbEntity
  8
寸法
 62
     7
 48
50.0
100
AcDbMText
 10
12115.17649295497
 20
10241.42484418221
 30
0.0
 40
120.0
 41
0.0
 71
     5
 72
     1
  1
\A1;55
  7
STYLE1
 11
0.0000000000000001
 21
1.0
 31
0.0
 73
     1
 44
1.0
1001
ACAD
1000
MTEXTBEGIN
1070
    73
1070
     1
1070
    44
1040
1.0
1070
    74
1070
     0
1000
MTEXTEND
  0
POINT
  5
180FE
330
17427
100
AcDbEntity
  8
DEFPOINTS
 62
     0
 48
50.0
100
AcDbPoint
 10
11515.17649295498
 20
9932.93956280797
 30
0.0
  0
POINT
  5
180FF
330
17427
100
AcDbEntity
  8
DEFPOINTS
 62
     0
 48
50.0
100
AcDbPoint
 10
11515.17649295498
 20
9877.939562807974
 30
0.0
  0
POINT
  5
18100
330
17427
100
AcDbEntity
  8
DEFPOINTS
 62
     0
 48
50.0
100
AcDbPoint
 10
12215.17649295497
 20
9877.939562807974
 30
0.0
  0
ENDBLK
  5
17434
330
17427
100
AcDbEntity
  8
0
 48
50.0
100
AcDbBlockEnd
  0
BLOCK
  5
1743F
330
17435
100
AcDbEntity
  8
0
 48
50.0
100
AcDbBlockBegin
  2
*D19
 70
     1
 10
0.0
 20
0.0
 30
0.0
  3
*D19
  1

  0
LINE
  5
180ED
330
17435
100
AcDbEntity
  8
寸法
 62
     0
 48
50.0
370
    -2
100
AcDbLine
 10
11506.67649295498
 20
9897.580578959347
 30
0.0
 11
11975.17649295498
 21
9772.046382305369
 31
0.0
  0
LINE
  5
180EE
330
17435
100
AcDbEntity
  8
寸法
 62
     0
 48
50.0
370
    -2
100
AcDbLine
 10
11506.67649295498
 20
9447.580578959351
 30
0.0
 11
11975.17649295498
 21
9322.046382305371
 31
0.0
  0
LINE
  5
180EF
330
17435
100
AcDbEntity
  8
寸法
 62
     0
 48
50.0
370
    -2
100
AcDbLine
 10
11915.17649295498
 20
9788.123333851235
 30
0.0
 11
11915.17649295498
 21
9338.123333851237
 31
0.0
  0
INSERT
  5
180F0
330
17435
100
AcDbEntity
  8
寸法
 62
     0
 48
50.0
370
    -2
100
AcDbBlockReference
  2
_DOTSMALL
 10
11915.17649295498
 20
9788.123333851235
 30
0.0
 41
100.0
 42
100.0
 43
100.0
 50
90.0
  0
INSERT
  5
180F1
330
17435
100
AcDbEntity
  8
寸法
 62
     0
 48
50.0
370
    -2
100
AcDbBlockReference
  2
_DOTSMALL
 10
11915.17649295498
 20
9338.123333851237
 30
0.0
 41
100.0
 42
100.0
 43
100.0
 50
270.0
  0
MTEXT
  5
180F2
330
17435
100
AcDbEntity
  8
寸法
 62
     7
 48
50.0
100
AcDbMText
 10
11815.17649295498
 20
9563.123333851235
 30
0.0
 40
120.0
 41
0.0
 71
     5
 72
     1
  1
\A1;450
  7
STYLE1
 11
0.0000000000000001
 21
1.0
 31
0.0
 73
     1
 44
1.0
1001
ACAD
1000
MTEXTBEGIN
1070
    73
1070
     1
1070
    44
1040
1.0
1070
    74
1070
     0
1000
MTEXTEND
  0
POINT
  5
180F3
330
17435
100
AcDbEntity
  8
DEFPOINTS
 62
     0
 48
50.0
100
AcDbPoint
 10
11486.67649295498
 20
9902.93956280797
 30
0.0
  0
POINT
  5
180F4
330
17435
100
AcDbEntity
  8
DEFPOINTS
 62
     0
 48
50.0
100
AcDbPoint
 10
11486.67649295498
 20
9452.939562807973
 30
0.0
  0
POINT
  5
180F5
330
17435
100
AcDbEntity
  8
DEFPOINTS
 62
     0
 48
50.0
100
AcDbPoint
 10
11915.17649295498
 20
9338.123333851237
 30
0.0
  0
ENDBLK
  5
17440
330
17435
100
AcDbEntity
  8
0
 48
50.0
100
AcDbBlockEnd
  0
BLOCK
  5
1744D
330
17441
100
AcDbEntity
  8
0
 48
50.0
100
AcDbBlockBegin
  2
*D20
 70
     1
 10
0.0
 20
0.0
 30
0.0
  3
*D20
  1

  0
LINE
  5
180E2
330
17441
100
AcDbEntity
  8
寸法
 62
     0
 48
50.0
370
    -2
100
AcDbLine
 10
11535.17649295496
 20
7777.939562807954
 30
0.0
 11
12275.17649295496
 21
7777.939562807954
 31
0.0
  0
LINE
  5
180E3
330
17441
100
AcDbEntity
  8
寸法
 62
     0
 48
50.0
370
    -2
100
AcDbLine
 10
11535.17649295496
 20
7722.939562807958
 30
0.0
 11
12275.17649295496
 21
7722.939562807958
 31
0.0
  0
LINE
  5
180E4
330
17441
100
AcDbEntity
  8
寸法
 62
     0
 48
50.0
370
    -2
100
AcDbLine
 10
12215.17649295496
 20
7777.939562807954
 30
0.0
 11
12215.17649295496
 21
7877.939562807954
 31
0.0
  0
LINE
  5
180E5
330
17441
100
AcDbEntity
  8
寸法
 62
     0
 48
50.0
370
    -2
100
AcDbLine
 10
12215.17649295496
 20
7722.939562807958
 30
0.0
 11
12215.17649295496
 21
7305.969000059467
 31
0.0
  0
LINE
  5
180E6
330
17441
100
AcDbEntity
  8
寸法
 62
     0
 48
50.0
370
    -2
100
AcDbLine
 10
12215.17649295496
 20
7777.939562807954
 30
0.0
 11
12215.17649295496
 21
7722.939562807958
 31
0.0
  0
INSERT
  5
180E7
330
17441
100
AcDbEntity
  8
寸法
 62
     0
 48
50.0
370
    -2
100
AcDbBlockReference
  2
_DOTSMALL
 10
12215.17649295496
 20
7777.939562807954
 30
0.0
 41
100.0
 42
100.0
 43
100.0
 50
270.0
  0
INSERT
  5
180E8
330
17441
100
AcDbEntity
  8
寸法
 62
     0
 48
50.0
370
    -2
100
AcDbBlockReference
  2
_DOTSMALL
 10
12215.17649295496
 20
7722.939562807958
 30
0.0
 41
100.0
 42
100.0
 43
100.0
 50
90.0
  0
MTEXT
  5
180E9
330
17441
100
AcDbEntity
  8
寸法
 62
     7
 48
50.0
100
AcDbMText
 10
12115.17649295496
 20
7414.454281433707
 30
0.0
 40
120.0
 41
0.0
 71
     5
 72
     1
  1
\A1;55
  7
STYLE1
 11
0.0000000000000001
 21
1.0
 31
0.0
 73
     1
 44
1.0
1001
ACAD
1000
MTEXTBEGIN
1070
    73
1070
     1
1070
    44
1040
1.0
1070
    74
1070
     0
1000
MTEXTEND
  0
POINT
  5
180EA
330
17441
100
AcDbEntity
  8
DEFPOINTS
 62
     0
 48
50.0
100
AcDbPoint
 10
11515.17649295496
 20
7777.939562807954
 30
0.0
  0
POINT
  5
180EB
330
17441
100
AcDbEntity
  8
DEFPOINTS
 62
     0
 48
50.0
100
AcDbPoint
 10
11515.17649295496
 20
7722.939562807958
 30
0.0
  0
POINT
  5
180EC
330
17441
100
AcDbEntity
  8
DEFPOINTS
 62
     0
 48
50.0
100
AcDbPoint
 10
12215.17649295496
 20
7722.939562807958
 30
0.0
  0
ENDBLK
  5
1744E
330
17441
100
AcDbEntity
  8
0
 48
50.0
100
AcDbBlockEnd
  0
BLOCK
  5
17459
330
1744F
100
AcDbEntity
  8
0
 48
50.0
100
AcDbBlockBegin
  2
*D21
 70
     1
 10
0.0
 20
0.0
 30
0.0
  3
*D21
  1

  0
LINE
  5
180D9
330
1744F
100
AcDbEntity
  8
寸法
 62
     0
 48
50.0
370
    -2
100
AcDbLine
 10
11535.17649295498
 20
9877.939562807974
 30
0.0
 11
12275.17649295498
 21
9877.939562807974
 31
0.0
  0
LINE
  5
180DA
330
1744F
100
AcDbEntity
  8
寸法
 62
     0
 48
50.0
370
    -2
100
AcDbLine
 10
11535.17649295496
 20
7777.939562807954
 30
0.0
 11
12275.17649295498
 21
7777.939562807954
 31
0.0
  0
LINE
  5
180DB
330
1744F
100
AcDbEntity
  8
寸法
 62
     0
 48
50.0
370
    -2
100
AcDbLine
 10
12215.17649295497
 20
9877.939562807974
 30
0.0
 11
12215.17649295497
 21
7777.939562807954
 31
0.0
  0
INSERT
  5
180DC
330
1744F
100
AcDbEntity
  8
寸法
 62
     0
 48
50.0
370
    -2
100
AcDbBlockReference
  2
_DOTSMALL
 10
12215.17649295497
 20
9877.939562807974
 30
0.0
 41
100.0
 42
100.0
 43
100.0
 50
90.0
  0
INSERT
  5
180DD
330
1744F
100
AcDbEntity
  8
寸法
 62
     0
 48
50.0
370
    -2
100
AcDbBlockReference
  2
_DOTSMALL
 10
12215.17649295497
 20
7777.939562807954
 30
0.0
 41
100.0
 42
100.0
 43
100.0
 50
270.0
  0
MTEXT
  5
180DE
330
1744F
100
AcDbEntity
  8
寸法
 62
     7
 48
50.0
100
AcDbMText
 10
12115.16468193135
 20
8827.939562807964
 30
0.0
 40
120.0
 41
0.0
 71
     5
 72
     1
  1
\A1;5X420=2100
  7
STYLE1
 11
0.0000000000000001
 21
1.0
 31
0.0
 73
     1
 44
1.0
1001
ACAD
1000
MTEXTBEGIN
1070
    73
1070
     1
1070
    44
1040
1.0
1070
    74
1070
     0
1000
MTEXTEND
  0
POINT
  5
180DF
330
1744F
100
AcDbEntity
  8
DEFPOINTS
 62
     0
 48
50.0
100
AcDbPoint
 10
11515.17649295498
 20
9877.939562807974
 30
0.0
  0
POINT
  5
180E0
330
1744F
100
AcDbEntity
  8
DEFPOINTS
 62
     0
 48
50.0
100
AcDbPoint
 10
11515.17649295496
 20
7777.939562807954
 30
0.0
  0
POINT
  5
180E1
330
1744F
100
AcDbEntity
  8
DEFPOINTS
 62
     0
 48
50.0
100
AcDbPoint
 10
12215.17649295497
 20
7777.939562807954
 30
0.0
  0
ENDBLK
  5
1745A
330
1744F
100
AcDbEntity
  8
0
 48
50.0
100
AcDbBlockEnd
  0
BLOCK
  5
17465
330
1745B
100
AcDbEntity
  8
0
 48
50.0
100
AcDbBlockBegin
  2
*D22
 70
     1
 10
0.0
 20
0.0
 30
0.0
  3
*D22
  1

  0
LINE
  5
180D0
330
1745B
100
AcDbEntity
  8
寸法
 62
     0
 48
50.0
370
    -2
100
AcDbLine
 10
11535.17649295498
 20
9932.93956280797
 30
0.0
 11
12575.17649295499
 21
9932.939562807968
 31
0.0
  0
LINE
  5
180D1
330
1745B
100
AcDbEntity
  8
寸法
 62
     0
 48
50.0
370
    -2
100
AcDbLine
 10
11535.17649295496
 20
7722.939562807958
 30
0.0
 11
12575.17649295499
 21
7722.939562807958
 31
0.0
  0
LINE
  5
180D2
330
1745B
100
AcDbEntity
  8
寸法
 62
     0
 48
50.0
370
    -2
100
AcDbLine
 10
12515.17649295499
 20
9932.939562807968
 30
0.0
 11
12515.17649295499
 21
7722.939562807958
 31
0.0
  0
INSERT
  5
180D3
330
1745B
100
AcDbEntity
  8
寸法
 62
     0
 48
50.0
370
    -2
100
AcDbBlockReference
  2
_DOTSMALL
 10
12515.17649295499
 20
9932.939562807968
 30
0.0
 41
100.0
 42
100.0
 43
100.0
 50
90.0
  0
INSERT
  5
180D4
330
1745B
100
AcDbEntity
  8
寸法
 62
     0
 48
50.0
370
    -2
100
AcDbBlockReference
  2
_DOTSMALL
 10
12515.17649295499
 20
7722.939562807958
 30
0.0
 41
100.0
 42
100.0
 43
100.0
 50
270.0
  0
MTEXT
  5
180D5
330
1745B
100
AcDbEntity
  8
寸法
 62
     7
 48
50.0
100
AcDbMText
 10
12415.16468193137
 20
8827.939562807964
 30
0.0
 40
120.0
 41
0.0
 71
     5
 72
     1
  1
\A1;2210
  7
STYLE1
 11
0.0000000000000001
 21
1.0
 31
0.0
 73
     1
 44
1.0
1001
ACAD
1000
MTEXTBEGIN
1070
    73
1070
     1
1070
    44
1040
1.0
1070
    74
1070
     0
1000
MTEXTEND
  0
POINT
  5
180D6
330
1745B
100
AcDbEntity
  8
DEFPOINTS
 62
     0
 48
50.0
100
AcDbPoint
 10
11515.17649295498
 20
9932.93956280797
 30
0.0
  0
POINT
  5
180D7
330
1745B
100
AcDbEntity
  8
DEFPOINTS
 62
     0
 48
50.0
100
AcDbPoint
 10
11515.17649295496
 20
7722.939562807958
 30
0.0
  0
POINT
  5
180D8
330
1745B
100
AcDbEntity
  8
DEFPOINTS
 62
     0
 48
50.0
100
AcDbPoint
 10
12515.17649295499
 20
7722.939562807958
 30
0.0
  0
ENDBLK
  5
17466
330
1745B
100
AcDbEntity
  8
0
 48
50.0
100
AcDbBlockEnd
  0
BLOCK
  5
17471
330
17467
100
AcDbEntity
  8
0
 48
50.0
100
AcDbBlockBegin
  2
*D23
 70
     1
 10
0.0
 20
0.0
 30
0.0
  3
*D23
  1

  0
LINE
  5
180C7
330
17467
100
AcDbEntity
  8
寸法
 62
     0
 48
50.0
370
    -2
100
AcDbLine
 10
10207.31750910636
 20
9432.93956280798
 30
0.0
 11
10110.8656095731
 21
9072.976173263324
 31
0.0
  0
LINE
  5
180C8
330
17467
100
AcDbEntity
  8
寸法
 62
     0
 48
50.0
370
    -2
100
AcDbLine
 10
11480.31750910637
 20
9432.939562807971
 30
0.0
 11
11383.86560957311
 21
9072.976173263324
 31
0.0
  0
LINE
  5
180C9
330
17467
100
AcDbEntity
  8
寸法
 62
     0
 48
50.0
370
    -2
100
AcDbLine
 10
10126.94256111897
 20
9132.976173263323
 30
0.0
 11
11399.94256111898
 21
9132.976173263323
 31
0.0
  0
INSERT
  5
180CA
330
17467
100
AcDbEntity
  8
寸法
 62
     0
 48
50.0
370
    -2
100
AcDbBlockReference
  2
_DOTSMALL
 10
10126.94256111897
 20
9132.976173263323
 30
0.0
 41
100.0
 42
100.0
 43
100.0
 50
180.0
  0
INSERT
  5
180CB
330
17467
100
AcDbEntity
  8
寸法
 62
     0
 48
50.0
370
    -2
100
AcDbBlockReference
  2
_DOTSMALL
 10
11399.94256111898
 20
9132.976173263323
 30
0.0
 41
100.0
 42
100.0
 43
100.0
  0
MTEXT
  5
180CC
330
17467
100
AcDbEntity
  8
寸法
 62
     7
 48
50.0
100
AcDbMText
 10
10833.064400269
 20
9232.987984286944
 30
0.0
 40
120.0
 41
0.0
 71
     5
 72
     1
  1
\A1;1273
  7
STYLE1
 73
     1
 44
1.0
1001
ACAD
1000
MTEXTBEGIN
1070
    73
1070
     1
1070
    44
1040
1.0
1070
    74
1070
     0
1000
MTEXTEND
  0
POINT
  5
180CD
330
17467
100
AcDbEntity
  8
DEFPOINTS
 62
     0
 48
50.0
100
AcDbPoint
 10
10212.67649295498
 20
9452.93956280798
 30
0.0
  0
POINT
  5
180CE
330
17467
100
AcDbEntity
  8
DEFPOINTS
 62
     0
 48
50.0
100
AcDbPoint
 10
11485.67649295499
 20
9452.939562807973
 30
0.0
  0
POINT
  5
180CF
330
17467
100
AcDbEntity
  8
DEFPOINTS
 62
     0
 48
50.0
100
AcDbPoint
 10
11399.94256111898
 20
9132.976173263323
 30
0.0
  0
ENDBLK
  5
17472
330
17467
100
AcDbEntity
  8
0
 48
50.0
100
AcDbBlockEnd
  0
BLOCK
  5
17489
330
1747F
100
AcDbEntity
  8
0
 48
50.0
100
AcDbBlockBegin
  2
*D24
 70
     1
 10
0.0
 20
0.0
 30
0.0
  3
*D24
  1

  0
LINE
  5
180BE
330
1747F
100
AcDbEntity
  8
寸法
 62
     0
 48
50.0
370
    -2
100
AcDbLine
 10
8940.176492954988
 20
9952.939562807875
 30
0.0
 11
8940.176492954988
 21
10292.93956280787
 31
0.0
  0
LINE
  5
180BF
330
1747F
100
AcDbEntity
  8
寸法
 62
     0
 48
50.0
370
    -2
100
AcDbLine
 10
11460.17649295498
 20
9952.939562807969
 30
0.0
 11
11460.17649295498
 21
10292.93956280787
 31
0.0
  0
LINE
  5
180C0
330
1747F
100
AcDbEntity
  8
寸法
 62
     0
 48
50.0
370
    -2
100
AcDbLine
 10
8940.176492954988
 20
10232.93956280787
 30
0.0
 11
11460.17649295498
 21
10232.93956280787
 31
0.0
  0
INSERT
  5
180C1
330
1747F
100
AcDbEntity
  8
寸法
 62
     0
 48
50.0
370
    -2
100
AcDbBlockReference
  2
_DOTSMALL
 10
8940.176492954988
 20
10232.93956280787
 30
0.0
 41
100.0
 42
100.0
 43
100.0
 50
180.0
  0
INSERT
  5
180C2
330
1747F
100
AcDbEntity
  8
寸法
 62
     0
 48
50.0
370
    -2
100
AcDbBlockReference
  2
_DOTSMALL
 10
11460.17649295498
 20
10232.93956280787
 30
0.0
 41
100.0
 42
100.0
 43
100.0
  0
MTEXT
  5
180C3
330
1747F
100
AcDbEntity
  8
寸法
 62
     7
 48
50.0
100
AcDbMText
 10
10200.17649295498
 20
10332.95137383149
 30
0.0
 40
120.0
 41
0.0
 71
     5
 72
     1
  1
\A1;6X420=2520
  7
STYLE1
 73
     1
 44
1.0
1001
ACAD
1000
MTEXTBEGIN
1070
    73
1070
     1
1070
    44
1040
1.0
1070
    74
1070
     0
1000
MTEXTEND
  0
POINT
  5
180C4
330
1747F
100
AcDbEntity
  8
DEFPOINTS
 62
     0
 48
50.0
100
AcDbPoint
 10
8940.176492954988
 20
9932.939562807874
 30
0.0
  0
POINT
  5
180C5
330
1747F
100
AcDbEntity
  8
DEFPOINTS
 62
     0
 48
50.0
100
AcDbPoint
 10
11460.17649295498
 20
9932.93956280797
 30
0.0
  0
POINT
  5
180C6
330
1747F
100
AcDbEntity
  8
DEFPOINTS
 62
     0
 48
50.0
100
AcDbPoint
 10
11460.17649295498
 20
10232.93956280787
 30
0.0
  0
ENDBLK
  5
1748A
330
1747F
100
AcDbEntity
  8
0
 48
50.0
100
AcDbBlockEnd
  0
BLOCK
  5
17497
330
1748B
100
AcDbEntity
  8
0
 48
50.0
100
AcDbBlockBegin
  2
*D25
 70
     1
 10
0.0
 20
0.0
 30
0.0
  3
*D25
  1

  0
LINE
  5
180B3
330
1748B
100
AcDbEntity
  8
寸法
 62
     0
 48
50.0
370
    -2
100
AcDbLine
 10
11460.17649295498
 20
9952.939562807969
 30
0.0
 11
11460.17649295498
 21
10292.93956280787
 31
0.0
  0
LINE
  5
180B4
330
1748B
100
AcDbEntity
  8
寸法
 62
     0
 48
50.0
370
    -2
100
AcDbLine
 10
11515.17649295498
 20
9952.939562807969
 30
0.0
 11
11515.17649295498
 21
10292.93956280787
 31
0.0
  0
LINE
  5
180B5
330
1748B
100
AcDbEntity
  8
寸法
 62
     0
 48
50.0
370
    -2
100
AcDbLine
 10
11460.17649295498
 20
10232.93956280787
 30
0.0
 11
11360.17649295498
 21
10232.93956280787
 31
0.0
  0
LINE
  5
180B6
330
1748B
100
AcDbEntity
  8
寸法
 62
     0
 48
50.0
370
    -2
100
AcDbLine
 10
11515.17649295498
 20
10232.93956280787
 30
0.0
 11
11932.14705570346
 21
10232.93956280787
 31
0.0
  0
LINE
  5
180B7
330
1748B
100
AcDbEntity
  8
寸法
 62
     0
 48
50.0
370
    -2
100
AcDbLine
 10
11460.17649295498
 20
10232.93956280787
 30
0.0
 11
11515.17649295498
 21
10232.93956280787
 31
0.0
  0
INSERT
  5
180B8
330
1748B
100
AcDbEntity
  8
寸法
 62
     0
 48
50.0
370
    -2
100
AcDbBlockReference
  2
_DOTSMALL
 10
11460.17649295498
 20
10232.93956280787
 30
0.0
 41
100.0
 42
100.0
 43
100.0
  0
INSERT
  5
180B9
330
1748B
100
AcDbEntity
  8
寸法
 62
     0
 48
50.0
370
    -2
100
AcDbBlockReference
  2
_DOTSMALL
 10
11515.17649295498
 20
10232.93956280787
 30
0.0
 41
100.0
 42
100.0
 43
100.0
 50
180.0
  0
MTEXT
  5
180BA
330
1748B
100
AcDbEntity
  8
寸法
 62
     7
 48
50.0
100
AcDbMText
 10
11823.66177432922
 20
10332.93956280787
 30
0.0
 40
120.0
 41
0.0
 71
     5
 72
     1
  1
\A1;55
  7
STYLE1
 73
     1
 44
1.0
1001
ACAD
1000
MTEXTBEGIN
1070
    73
1070
     1
1070
    44
1040
1.0
1070
    74
1070
     0
1000
MTEXTEND
  0
POINT
  5
180BB
330
1748B
100
AcDbEntity
  8
DEFPOINTS
 62
     0
 48
50.0
100
AcDbPoint
 10
11460.17649295498
 20
9932.93956280797
 30
0.0
  0
POINT
  5
180BC
330
1748B
100
AcDbEntity
  8
DEFPOINTS
 62
     0
 48
50.0
100
AcDbPoint
 10
11515.17649295498
 20
9932.93956280797
 30
0.0
  0
POINT
  5
180BD
330
1748B
100
AcDbEntity
  8
DEFPOINTS
 62
     0
 48
50.0
100
AcDbPoint
 10
11515.17649295498
 20
10232.93956280787
 30
0.0
  0
ENDBLK
  5
17498
330
1748B
100
AcDbEntity
  8
0
 48
50.0
100
AcDbBlockEnd
  0
BLOCK
  5
174A3
330
17499
100
AcDbEntity
  8
0
 48
50.0
100
AcDbBlockBegin
  2
*D26
 70
     1
 10
0.0
 20
0.0
 30
0.0
  3
*D26
  1

  0
LINE
  5
180AA
330
17499
100
AcDbEntity
  8
寸法
 62
     0
 48
50.0
370
    -2
100
AcDbLine
 10
8907.317509106295
 20
9432.939562807922
 30
0.0
 11
8810.865609573049
 21
9072.976173263324
 31
0.0
  0
LINE
  5
180AB
330
17499
100
AcDbEntity
  8
寸法
 62
     0
 48
50.0
370
    -2
100
AcDbLine
 10
10180.31750910636
 20
9432.939562807915
 30
0.0
 11
10083.86560957312
 21
9072.976173263324
 31
0.0
  0
LINE
  5
180AC
330
17499
100
AcDbEntity
  8
寸法
 62
     0
 48
50.0
370
    -2
100
AcDbLine
 10
8826.942561118917
 20
9132.976173263323
 30
0.0
 11
10099.94256111899
 21
9132.976173263323
 31
0.0
  0
INSERT
  5
180AD
330
17499
100
AcDbEntity
  8
寸法
 62
     0
 48
50.0
370
    -2
100
AcDbBlockReference
  2
_DOTSMALL
 10
8826.942561118917
 20
9132.976173263323
 30
0.0
 41
100.0
 42
100.0
 43
100.0
 50
180.0
  0
INSERT
  5
180AE
330
17499
100
AcDbEntity
  8
寸法
 62
     0
 48
50.0
370
    -2
100
AcDbBlockReference
  2
_DOTSMALL
 10
10099.94256111899
 20
9132.976173263323
 30
0.0
 41
100.0
 42
100.0
 43
100.0
  0
MTEXT
  5
180AF
330
17499
100
AcDbEntity
  8
寸法
 62
     7
 48
50.0
100
AcDbMText
 10
9463.442561118952
 20
9232.987984286944
 30
0.0
 40
120.0
 41
0.0
 71
     5
 72
     1
  1
\A1;1273
  7
STYLE1
 73
     1
 44
1.0
1001
ACAD
1000
MTEXTBEGIN
1070
    73
1070
     1
1070
    44
1040
1.0
1070
    74
1070
     0
1000
MTEXTEND
  0
POINT
  5
180B0
330
17499
100
AcDbEntity
  8
DEFPOINTS
 62
     0
 48
50.0
100
AcDbPoint
 10
8912.676492954917
 20
9452.939562807921
 30
0.0
  0
POINT
  5
180B1
330
17499
100
AcDbEntity
  8
DEFPOINTS
 62
     0
 48
50.0
100
AcDbPoint
 10
10185.67649295498
 20
9452.939562807914
 30
0.0
  0
POINT
  5
180B2
330
17499
100
AcDbEntity
  8
DEFPOINTS
 62
     0
 48
50.0
100
AcDbPoint
 10
10099.94256111899
 20
9132.976173263323
 30
0.0
  0
ENDBLK
  5
174A4
330
17499
100
AcDbEntity
  8
0
 48
50.0
100
AcDbBlockEnd
  0
BLOCK
  5
174B1
330
174A5
100
AcDbEntity
  8
0
 48
50.0
100
AcDbBlockBegin
  2
*D27
 70
     1
 10
0.0
 20
0.0
 30
0.0
  3
*D27
  1

  0
LINE
  5
1809F
330
174A5
100
AcDbEntity
  8
寸法
 62
     0
 48
50.0
370
    -2
100
AcDbLine
 10
8885.176492954951
 20
9952.939562807875
 30
0.0
 11
8885.176492954951
 21
10292.93956280787
 31
0.0
  0
LINE
  5
180A0
330
174A5
100
AcDbEntity
  8
寸法
 62
     0
 48
50.0
370
    -2
100
AcDbLine
 10
8940.176492954988
 20
9952.939562807875
 30
0.0
 11
8940.176492954988
 21
10292.93956280787
 31
0.0
  0
LINE
  5
180A1
330
174A5
100
AcDbEntity
  8
寸法
 62
     0
 48
50.0
370
    -2
100
AcDbLine
 10
8940.176492954988
 20
10232.93956280787
 30
0.0
 11
9040.176492954987
 21
10232.93956280787
 31
0.0
  0
LINE
  5
180A2
330
174A5
100
AcDbEntity
  8
寸法
 62
     0
 48
50.0
370
    -2
100
AcDbLine
 10
8885.176492954951
 20
10232.93956280787
 30
0.0
 11
8468.205930206474
 21
10232.93956280787
 31
0.0
  0
LINE
  5
180A3
330
174A5
100
AcDbEntity
  8
寸法
 62
     0
 48
50.0
370
    -2
100
AcDbLine
 10
8940.176492954988
 20
10232.93956280787
 30
0.0
 11
8885.176492954951
 21
10232.93956280787
 31
0.0
  0
INSERT
  5
180A4
330
174A5
100
AcDbEntity
  8
寸法
 62
     0
 48
50.0
370
    -2
100
AcDbBlockReference
  2
_DOTSMALL
 10
8940.176492954988
 20
10232.93956280787
 30
0.0
 41
100.0
 42
100.0
 43
100.0
 50
180.0
  0
INSERT
  5
180A5
330
174A5
100
AcDbEntity
  8
寸法
 62
     0
 48
50.0
370
    -2
100
AcDbBlockReference
  2
_DOTSMALL
 10
8885.176492954951
 20
10232.93956280787
 30
0.0
 41
100.0
 42
100.0
 43
100.0
  0
MTEXT
  5
180A6
330
174A5
100
AcDbEntity
  8
寸法
 62
     7
 48
50.0
100
AcDbMText
 10
8576.691211580712
 20
10332.93956280787
 30
0.0
 40
120.0
 41
0.0
 71
     5
 72
     1
  1
\A1;55
  7
STYLE1
 73
     1
 44
1.0
1001
ACAD
1000
MTEXTBEGIN
1070
    73
1070
     1
1070
    44
1040
1.0
1070
    74
1070
     0
1000
MTEXTEND
  0
POINT
  5
180A7
330
174A5
100
AcDbEntity
  8
DEFPOINTS
 62
     0
 48
50.0
100
AcDbPoint
 10
8885.176492954951
 20
9932.939562807874
 30
0.0
  0
POINT
  5
180A8
330
174A5
100
AcDbEntity
  8
DEFPOINTS
 62
     0
 48
50.0
100
AcDbPoint
 10
8940.176492954988
 20
9932.939562807874
 30
0.0
  0
POINT
  5
180A9
330
174A5
100
AcDbEntity
  8
DEFPOINTS
 62
     0
 48
50.0
100
AcDbPoint
 10
8940.176492954988
 20
10232.93956280787
 30
0.0
  0
ENDBLK
  5
174B2
330
174A5
100
AcDbEntity
  8
0
 48
50.0
100
AcDbBlockEnd
  0
BLOCK
  5
174BD
330
174B3
100
AcDbEntity
  8
0
 48
50.0
100
AcDbBlockBegin
  2
*D28
 70
     1
 10
0.0
 20
0.0
 30
0.0
  3
*D28
  1

  0
LINE
  5
17924
330
174B3
100
AcDbEntity
  8
寸法
 62
     0
 48
50.0
370
    -2
100
AcDbLine
 10
8985.176492954977
 20
2077.207038820219
 30
0.0
 11
8985.176492954977
 21
1751.159709519841
 31
0.0
  0
LINE
  5
17925
330
174B3
100
AcDbEntity
  8
寸法
 62
     0
 48
50.0
370
    -2
100
AcDbLine
 10
8785.176492954976
 20
2077.207038820219
 30
0.0
 11
8785.176492954976
 21
1751.159709519841
 31
0.0
  0
LINE
  5
17926
330
174B3
100
AcDbEntity
  8
寸法
 62
     0
 48
50.0
370
    -2
100
AcDbLine
 10
8985.176492954977
 20
1811.159709519841
 30
0.0
 11
8785.176492954976
 21
1811.159709519841
 31
0.0
  0
INSERT
  5
17927
330
174B3
100
AcDbEntity
  8
寸法
 62
     0
 48
50.0
370
    -2
100
AcDbBlockReference
  2
_DOTSMALL
 10
8985.176492954977
 20
1811.159709519841
 30
0.0
 41
100.0
 42
100.0
 43
100.0
  0
INSERT
  5
17928
330
174B3
100
AcDbEntity
  8
寸法
 62
     0
 48
50.0
370
    -2
100
AcDbBlockReference
  2
_DOTSMALL
 10
8785.176492954976
 20
1811.159709519841
 30
0.0
 41
100.0
 42
100.0
 43
100.0
 50
180.0
  0
MTEXT
  5
17929
330
174B3
100
AcDbEntity
  8
寸法
 62
     7
 48
50.0
100
AcDbMText
 10
8885.176492954975
 20
1911.171520543463
 30
0.0
 40
120.0
 41
0.0
 71
     5
 72
     1
  1
\A1;200
  7
STYLE1
 73
     1
 44
1.0
1001
ACAD
1000
MTEXTBEGIN
1070
    73
1070
     1
1070
    44
1040
1.0
1070
    74
1070
     0
1000
MTEXTEND
  0
POINT
  5
1792A
330
174B3
100
AcDbEntity
  8
DEFPOINTS
 62
     0
 48
50.0
100
AcDbPoint
 10
8985.176492954977
 20
2097.207038820219
 30
0.0
  0
POINT
  5
1792B
330
174B3
100
AcDbEntity
  8
DEFPOINTS
 62
     0
 48
50.0
100
AcDbPoint
 10
8785.176492954976
 20
2097.207038820219
 30
0.0
  0
POINT
  5
1792C
330
174B3
100
AcDbEntity
  8
DEFPOINTS
 62
     0
 48
50.0
100
AcDbPoint
 10
8785.176492954976
 20
1811.159709519841
 30
0.0
  0
ENDBLK
  5
174BE
330
174B3
100
AcDbEntity
  8
0
 48
50.0
100
AcDbBlockEnd
  0
BLOCK
  5
174C9
330
174BF
100
AcDbEntity
  8
0
 48
50.0
100
AcDbBlockBegin
  2
*D29
 70
     1
 10
0.0
 20
0.0
 30
0.0
  3
*D29
  1

  0
LINE
  5
1791B
330
174BF
100
AcDbEntity
  8
寸法
 62
     0
 48
50.0
370
    -2
100
AcDbLine
 10
9313.176492954978
 20
4480.207038820219
 30
0.0
 11
8491.016016538301
 21
4480.207038820219
 31
0.0
  0
LINE
  5
1791C
330
174BF
100
AcDbEntity
  8
寸法
 62
     0
 48
50.0
370
    -2
100
AcDbLine
 10
9313.176492954978
 20
2455.20703882022
 30
0.0
 11
8491.016016538299
 21
2455.20703882022
 31
0.0
  0
LINE
  5
1791D
330
174BF
100
AcDbEntity
  8
寸法
 62
     0
 48
50.0
370
    -2
100
AcDbLine
 10
8551.0160165383
 20
4480.207038820219
 30
0.0
 11
8551.016016538298
 21
2455.20703882022
 31
0.0
  0
INSERT
  5
1791E
330
174BF
100
AcDbEntity
  8
寸法
 62
     0
 48
50.0
370
    -2
100
AcDbBlockReference
  2
_DOTSMALL
 10
8551.0160165383
 20
4480.207038820219
 30
0.0
 41
100.0
 42
100.0
 43
100.0
 50
90.0
  0
INSERT
  5
1791F
330
174BF
100
AcDbEntity
  8
寸法
 62
     0
 48
50.0
370
    -2
100
AcDbBlockReference
  2
_DOTSMALL
 10
8551.016016538298
 20
2455.20703882022
 30
0.0
 41
100.0
 42
100.0
 43
100.0
 50
270.0
  0
MTEXT
  5
17920
330
174BF
100
AcDbEntity
  8
寸法
 62
     7
 48
50.0
100
AcDbMText
 10
8451.004205514676
 20
3473.015677189152
 30
0.0
 40
120.0
 41
0.0
 71
     5
 72
     1
  1
\A1;有効開口部高サ2025
  7
STYLE1
 11
0.0000000000000001
 21
1.0
 31
0.0
 73
     1
 44
1.0
1001
ACAD
1000
MTEXTBEGIN
1070
    73
1070
     1
1070
    44
1040
1.0
1070
    74
1070
     0
1000
MTEXTEND
  0
POINT
  5
17921
330
174BF
100
AcDbEntity
  8
DEFPOINTS
 62
     0
 48
50.0
100
AcDbPoint
 10
9333.176492954978
 20
4480.207038820219
 30
0.0
  0
POINT
  5
17922
330
174BF
100
AcDbEntity
  8
DEFPOINTS
 62
     0
 48
50.0
100
AcDbPoint
 10
9333.176492954978
 20
2455.20703882022
 30
0.0
  0
POINT
  5
17923
330
174BF
100
AcDbEntity
  8
DEFPOINTS
 62
     0
 48
50.0
100
AcDbPoint
 10
8551.016016538298
 20
2455.20703882022
 30
0.0
  0
ENDBLK
  5
174CA
330
174BF
100
AcDbEntity
  8
0
 48
50.0
100
AcDbBlockEnd
  0
BLOCK
  5
17BF5
330
17BEB
100
AcDbEntity
  8
0
 48
50.0
100
AcDbBlockBegin
  2
*D30
 70
     1
 10
0.0
 20
0.0
 30
0.0
  3
*D30
  1

  0
LINE
  5
18096
330
17BEB
100
AcDbEntity
  8
寸法
 62
     0
 48
50.0
370
    -2
100
AcDbLine
 10
9372.176492954954
 20
7625.939562807833
 30
0.0
 11
9372.176492954954
 21
6943.965607419494
 31
0.0
  0
LINE
  5
18097
330
17BEB
100
AcDbEntity
  8
寸法
 62
     0
 48
50.0
370
    -2
100
AcDbLine
 10
10638.17649295495
 20
7625.939562807833
 30
0.0
 11
10638.17649295495
 21
6943.965607419494
 31
0.0
  0
LINE
  5
18098
330
17BEB
100
AcDbEntity
  8
寸法
 62
     0
 48
50.0
370
    -2
100
AcDbLine
 10
9392.176492954954
 20
6983.965607419493
 30
0.0
 11
10618.17649295495
 21
6983.965607419493
 31
0.0
  0
INSERT
  5
18099
330
17BEB
100
AcDbEntity
  8
寸法
 62
     0
 48
50.0
370
    -2
100
AcDbBlockReference
  2
_DOT
 10
9372.176492954954
 20
6983.965607419493
 30
0.0
 41
20.0
 42
20.0
 43
20.0
 50
180.0
  0
INSERT
  5
1809A
330
17BEB
100
AcDbEntity
  8
寸法
 62
     0
 48
50.0
370
    -2
100
AcDbBlockReference
  2
_DOT
 10
10638.17649295495
 20
6983.965607419493
 30
0.0
 41
20.0
 42
20.0
 43
20.0
  0
MTEXT
  5
1809B
330
17BEB
100
AcDbEntity
  8
寸法
 62
     7
 48
50.0
100
AcDbMText
 10
10030.13618859752
 20
7175.977418443115
 30
0.0
 40
120.0
 41
0.0
 71
     5
 72
     1
  1
\A1;有効開口部間口\P1266
  7
STYLE1
 73
     1
 44
1.0
1001
ACAD
1000
MTEXTBEGIN
1070
    73
1070
     1
1070
    44
1040
1.0
1070
    74
1070
     0
1000
MTEXTEND
  0
POINT
  5
1809C
330
17BEB
100
AcDbEntity
  8
DEFPOINTS
 62
     0
 48
50.0
100
AcDbPoint
 10
9372.176492954954
 20
7645.939562807832
 30
0.0
  0
POINT
  5
1809D
330
17BEB
100
AcDbEntity
  8
DEFPOINTS
 62
     0
 48
50.0
100
AcDbPoint
 10
10638.17649295495
 20
7645.939562807832
 30
0.0
  0
POINT
  5
1809E
330
17BEB
100
AcDbEntity
  8
DEFPOINTS
 62
     0
 48
50.0
100
AcDbPoint
 10
10638.17649295495
 20
6983.965607419493
 30
0.0
  0
ENDBLK
  5
17BF6
330
17BEB
100
AcDbEntity
  8
0
 48
50.0
100
AcDbBlockEnd
  0
BLOCK
  5
17F2C
330
17F22
100
AcDbEntity
  8
0
 48
50.0
100
AcDbBlockBegin
  2
*D31
 70
     1
 10
0.0
 20
0.0
 30
0.0
  3
*D31
  1

  0
LINE
  5
1808D
330
17F22
100
AcDbEntity
  8
寸法
 62
     0
 48
50.0
370
    -2
100
AcDbLine
 10
9333.176492954953
 20
7625.939562807829
 30
0.0
 11
9333.176492954953
 21
6648.084193418502
 31
0.0
  0
LINE
  5
1808E
330
17F22
100
AcDbEntity
  8
寸法
 62
     0
 48
50.0
370
    -2
100
AcDbLine
 10
11487.17649295495
 20
7625.939562807829
 30
0.0
 11
11487.17649295495
 21
6648.084193418502
 31
0.0
  0
LINE
  5
1808F
330
17F22
100
AcDbEntity
  8
寸法
 62
     0
 48
50.0
370
    -2
100
AcDbLine
 10
9333.176492954953
 20
6708.084193418503
 30
0.0
 11
11487.17649295495
 21
6708.084193418503
 31
0.0
  0
INSERT
  5
18090
330
17F22
100
AcDbEntity
  8
寸法
 62
     0
 48
50.0
370
    -2
100
AcDbBlockReference
  2
_DOTSMALL
 10
9333.176492954953
 20
6708.084193418503
 30
0.0
 41
100.0
 42
100.0
 43
100.0
 50
180.0
  0
INSERT
  5
18091
330
17F22
100
AcDbEntity
  8
寸法
 62
     0
 48
50.0
370
    -2
100
AcDbBlockReference
  2
_DOTSMALL
 10
11487.17649295495
 20
6708.084193418503
 30
0.0
 41
100.0
 42
100.0
 43
100.0
  0
MTEXT
  5
18092
330
17F22
100
AcDbEntity
  8
寸法
 62
     7
 48
50.0
100
AcDbMText
 10
10411.9764642254
 20
6808.096004442124
 30
0.0
 40
120.0
 41
0.0
 71
     5
 72
     1
  1
\A1;2154
  7
STYLE1
 73
     1
 44
1.0
1001
ACAD
1000
MTEXTBEGIN
1070
    73
1070
     1
1070
    44
1040
1.0
1070
    74
1070
     0
1000
MTEXTEND
  0
POINT
  5
18093
330
17F22
100
AcDbEntity
  8
DEFPOINTS
 62
     0
 48
50.0
100
AcDbPoint
 10
9333.176492954953
 20
7645.939562807829
 30
0.0
  0
POINT
  5
18094
330
17F22
100
AcDbEntity
  8
DEFPOINTS
 62
     0
 48
50.0
100
AcDbPoint
 10
11487.17649295495
 20
7645.939562807829
 30
0.0
  0
POINT
  5
18095
330
17F22
100
AcDbEntity
  8
DEFPOINTS
 62
     0
 48
50.0
100
AcDbPoint
 10
11487.17649295495
 20
6708.084193418503
 30
0.0
  0
ENDBLK
  5
17F2D
330
17F22
100
AcDbEntity
  8
0
 48
50.0
100
AcDbBlockEnd
  0
BLOCK
  5
17F3A
330
17F2E
100
AcDbEntity
  8
0
 48
50.0
100
AcDbBlockBegin
  2
*D32
 70
     1
 10
0.0
 20
0.0
 30
0.0
  3
*D32
  1

  0
LINE
  5
18082
330
17F2E
100
AcDbEntity
  8
寸法
 62
     0
 48
50.0
370
    -2
100
AcDbLine
 10
8865.176492954979
 20
7722.939562807825
 30
0.0
 11
8550.565247328263
 21
7722.939562807825
 31
0.0
  0
LINE
  5
18083
330
17F2E
100
AcDbEntity
  8
寸法
 62
     0
 48
50.0
370
    -2
100
AcDbLine
 10
9313.176492954953
 20
7647.939562807825
 30
0.0
 11
8550.565247328263
 21
7647.939562807825
 31
0.0
  0
LINE
  5
18084
330
17F2E
100
AcDbEntity
  8
寸法
 62
     0
 48
50.0
370
    -2
100
AcDbLine
 10
8590.565247328262
 20
7742.939562807825
 30
0.0
 11
8590.565247328262
 21
7762.939562807826
 31
0.0
  0
LINE
  5
18085
330
17F2E
100
AcDbEntity
  8
寸法
 62
     0
 48
50.0
370
    -2
100
AcDbLine
 10
8590.565247328262
 20
7627.939562807826
 30
0.0
 11
8590.565247328262
 21
7406.969000059347
 31
0.0
  0
LINE
  5
18086
330
17F2E
100
AcDbEntity
  8
寸法
 62
     0
 48
50.0
370
    -2
100
AcDbLine
 10
8590.565247328262
 20
7722.939562807825
 30
0.0
 11
8590.565247328262
 21
7647.939562807825
 31
0.0
  0
INSERT
  5
18087
330
17F2E
100
AcDbEntity
  8
寸法
 62
     0
 48
50.0
370
    -2
100
AcDbBlockReference
  2
_DOT
 10
8590.565247328262
 20
7722.939562807825
 30
0.0
 41
20.0
 42
20.0
 43
20.0
 50
270.0
  0
INSERT
  5
18088
330
17F2E
100
AcDbEntity
  8
寸法
 62
     0
 48
50.0
370
    -2
100
AcDbBlockReference
  2
_DOT
 10
8590.565247328262
 20
7647.939562807825
 30
0.0
 41
20.0
 42
20.0
 43
20.0
 50
90.0
  0
MTEXT
  5
18089
330
17F2E
100
AcDbEntity
  8
寸法
 62
     7
 48
50.0
100
AcDbMText
 10
8498.565247328262
 20
7507.454281433587
 30
0.0
 40
120.0
 41
0.0
 71
     5
 72
     1
  1
\A1;75
  7
STYLE1
 11
0.0000000000000001
 21
1.0
 31
0.0
 73
     1
 44
1.0
1001
ACAD
1000
MTEXTBEGIN
1070
    73
1070
     1
1070
    44
1040
1.0
1070
    74
1070
     0
1000
MTEXTEND
  0
POINT
  5
1808A
330
17F2E
100
AcDbEntity
  8
DEFPOINTS
 62
     0
 48
50.0
100
AcDbPoint
 10
8885.176492954979
 20
7722.939562807825
 30
0.0
  0
POINT
  5
1808B
330
17F2E
100
AcDbEntity
  8
DEFPOINTS
 62
     0
 48
50.0
100
AcDbPoint
 10
9333.176492954953
 20
7647.939562807825
 30
0.0
  0
POINT
  5
1808C
330
17F2E
100
AcDbEntity
  8
DEFPOINTS
 62
     0
 48
50.0
100
AcDbPoint
 10
8590.565247328262
 20
7647.939562807825
 30
0.0
  0
ENDBLK
  5
17F3B
330
17F2E
100
AcDbEntity
  8
0
 48
50.0
100
AcDbBlockEnd
  0
BLOCK
  5
17F9E
330
17F94
100
AcDbEntity
  8
0
 48
50.0
100
AcDbBlockBegin
  2
*D33
 70
     1
 10
0.0
 20
0.0
 30
0.0
  3
*D33
  1

  0
LINE
  5
18079
330
17F94
100
AcDbEntity
  8
寸法
 62
     0
 48
50.0
370
    -2
100
AcDbLine
 10
8885.176492954979
 20
7702.939562807793
 30
0.0
 11
8885.176492954979
 21
6381.742605526824
 31
0.0
  0
LINE
  5
1807A
330
17F94
100
AcDbEntity
  8
寸法
 62
     0
 48
50.0
370
    -2
100
AcDbLine
 10
11515.17649295496
 20
7702.939562807957
 30
0.0
 11
11515.17649295496
 21
6381.742605526824
 31
0.0
  0
LINE
  5
1807B
330
17F94
100
AcDbEntity
  8
寸法
 62
     0
 48
50.0
370
    -2
100
AcDbLine
 10
8885.176492954979
 20
6441.742605526823
 30
0.0
 11
11515.17649295496
 21
6441.742605526823
 31
0.0
  0
INSERT
  5
1807C
330
17F94
100
AcDbEntity
  8
寸法
 62
     0
 48
50.0
370
    -2
100
AcDbBlockReference
  2
_DOTSMALL
 10
8885.176492954979
 20
6441.742605526823
 30
0.0
 41
100.0
 42
100.0
 43
100.0
 50
180.0
  0
INSERT
  5
1807D
330
17F94
100
AcDbEntity
  8
寸法
 62
     0
 48
50.0
370
    -2
100
AcDbBlockReference
  2
_DOTSMALL
 10
11515.17649295496
 20
6441.742605526823
 30
0.0
 41
100.0
 42
100.0
 43
100.0
  0
MTEXT
  5
1807E
330
17F94
100
AcDbEntity
  8
寸法
 62
     7
 48
50.0
100
AcDbMText
 10
10184.6158376575
 20
6541.754416550446
 30
0.0
 40
120.0
 41
0.0
 71
     5
 72
     1
  1
\A1;2630
  7
STYLE1
 73
     1
 44
1.0
1001
ACAD
1000
MTEXTBEGIN
1070
    73
1070
     1
1070
    44
1040
1.0
1070
    74
1070
     0
1000
MTEXTEND
  0
POINT
  5
1807F
330
17F94
100
AcDbEntity
  8
DEFPOINTS
 62
     0
 48
50.0
100
AcDbPoint
 10
8885.176492954979
 20
7722.939562807792
 30
0.0
  0
POINT
  5
18080
330
17F94
100
AcDbEntity
  8
DEFPOINTS
 62
     0
 48
50.0
100
AcDbPoint
 10
11515.17649295496
 20
7722.939562807957
 30
0.0
  0
POINT
  5
18081
330
17F94
100
AcDbEntity
  8
DEFPOINTS
 62
     0
 48
50.0
100
AcDbPoint
 10
11515.17649295496
 20
6441.742605526823
 30
0.0
  0
ENDBLK
  5
17F9F
330
17F94
100
AcDbEntity
  8
0
 48
50.0
100
AcDbBlockEnd
  0
ENDSEC
  0
SECTION
  2
ENTITIES
  0
LINE
  5
10B57
330
747D
100
AcDbEntity
  8
補助
  6
PHANTOM
 62
   230
 48
50.0
100
AcDbLine
 10
139.9999999999995
 20
11409.6
 30
0.0
 11
16307.2
 21
11409.6
 31
0.0
  0
LINE
  5
10B59
330
747D
100
AcDbEntity
  8
仕様書枠
  6
Continuous
 48
50.0
100
AcDbLine
 10
13107.2
 20
1200.0
 30
0.0
 11
13107.2
 21
-0.0000000000000729
 31
0.0
  0
LINE
  5
10B5C
330
747D
100
AcDbEntity
  8
仕様書枠
 48
50.0
100
AcDbLine
 10
16307.2
 20
1200.0
 30
0.0
 11
16307.2
 21
-0.0000000000000909
 31
0.0
  0
LINE
  5
10B5D
330
747D
100
AcDbEntity
  8
仕様書枠
 48
50.0
100
AcDbLine
 10
140.0
 20
0.0
 30
0.0
 11
16307.2
 21
-0.0000000000000909
 31
0.0
  0
LINE
  5
10B5E
330
747D
100
AcDbEntity
  8
補助
  6
PHANTOM
 62
   230
 48
50.0
100
AcDbLine
 10
16307.2
 20
11409.6
 30
0.0
 11
16307.2
 21
1200.0
 31
0.0
  0
LINE
  5
10B6C
330
747D
100
AcDbEntity
  8
仕様書枠
 48
50.0
100
AcDbLine
 10
13107.2
 20
1200.0
 30
0.0
 11
16307.2
 21
1200.0
 31
0.0
  0
LINE
  5
10B6D
330
747D
100
AcDbEntity
  8
補助
  6
PHANTOM
 62
   230
 48
50.0
100
AcDbLine
 10
13107.2
 20
11409.6
 30
0.0
 11
13107.2
 21
4800.0
 31
0.0
  0
LINE
  5
10B6F
330
747D
100
AcDbEntity
  8
補助
  6
PHANTOM
 62
   230
 48
50.0
100
AcDbLine
 10
13107.2
 20
4800.0
 30
0.0
 11
16307.2
 21
4800.0
 31
0.0
  0
LINE
  5
10B72
330
747D
100
AcDbEntity
  8
文字
 62
     7
 48
50.0
100
AcDbLine
 10
13187.2
 20
400.0
 30
0.0
 11
16227.2
 21
400.0
 31
0.0
  0
TEXT
  5
10B73
330
747D
100
AcDbEntity
  8
文字
 62
     7
 48
50.0
100
AcDbText
 10
13162.9790565769
 20
895.0906074299405
 30
0.0
 40
200.0
  1
外 形 図
  7
STYLE2
100
AcDbText
  0
TEXT
  5
10B74
330
747D
100
AcDbEntity
  8
文字
 62
     7
 48
50.0
100
AcDbText
 10
13201.43669998441
 20
477.2740661031255
 30
0.0
 40
160.0
  1
機種名
  7
STYLE2
100
AcDbText
  0
TEXT
  5
10B76
330
747D
100
AcDbEntity
  8
文字
 62
     7
 48
50.0
100
AcDbText
 10
13209.4053442172
 20
76.09434707649343
 30
0.0
 40
100.0
  1
○床面積 ： 5.98㎡(1.81坪) 　
  7
STYLE2
100
AcDbText
  0
TEXT
  5
10B79
330
747D
100
AcDbEntity
  8
文字
 62
     7
 48
50.0
100
AcDbText
 10
14524.131837222
 20
1031.557706291228
 30
0.0
 40
100.0
  1
NO.23      <縮尺> S=1/40
  7
STYLE2
100
AcDbText
  0
LINE
  5
10B7B
330
747D
100
AcDbEntity
  8
仕様書枠
 48
50.0
100
AcDbLine
 10
13107.2
 20
800.0
 30
0.0
 11
14251.2
 21
800.0
 31
0.0
  0
LINE
  5
10B88
330
747D
100
AcDbEntity
  8
仕様書枠
  6
Continuous
 48
50.0
100
AcDbLine
 10
14251.2
 20
1200.0
 30
0.0
 11
14251.2
 21
800.0
 31
0.0
  0
TEXT
  5
154D3
330
747D
100
AcDbEntity
  8
文字
 62
     7
 48
50.0
100
AcDbText
 10
14643.63059855437
 20
863.0097378581719
 30
0.0
 40
100.0
  1
～一般型・多雪地型～
  7
STYLE2
100
AcDbText
  0
LINE
  5
17026
330
747D
100
AcDbEntity
  8
部品1
100
AcDbLine
 10
11487.17649295498
 20
8617.939562807972
 30
0.0
 11
11515.17649295498
 21
8617.939562807972
 31
0.0
  0
LINE
  5
17027
330
747D
100
AcDbEntity
  8
部品1
100
AcDbLine
 10
8913.17649295496
 20
8617.939562807848
 30
0.0
 11
8885.176492954961
 21
8617.939562807848
 31
0.0
  0
LINE
  5
17028
330
747D
100
AcDbEntity
  8
部品1
100
AcDbLine
 10
11458.67649295497
 20
8617.939562807942
 30
0.0
 11
8941.67649295497
 21
8617.939562807848
 31
0.0
  0
TEXT
  5
17029
330
747D
100
AcDbEntity
  8
部品1
100
AcDbText
 10
2781.70910862738
 20
2333.313942426121
 30
0.0
 40
125.0
  1
▽G.L
  7
STYLE2
100
AcDbText
  0
LINE
  5
1702A
330
747D
100
AcDbEntity
  8
部品1
100
AcDbLine
 10
4773.079463617715
 20
2397.207038820219
 30
0.0
 11
4773.079463617715
 21
2297.207038820219
 31
0.0
  0
LINE
  5
1702B
330
747D
100
AcDbEntity
  8
部品1
 48
50.0
100
AcDbLine
 10
5578.079463617716
 20
2397.207038820219
 30
0.0
 11
5578.079463617716
 21
2297.207038820219
 31
0.0
  0
LINE
  5
1702C
330
747D
100
AcDbEntity
  8
部品1
 48
50.0
100
AcDbLine
 10
5778.079463617716
 20
2397.207038820219
 30
0.0
 11
5778.079463617716
 21
2297.207038820219
 31
0.0
  0
LINE
  5
1702D
330
747D
100
AcDbEntity
  8
部品1
100
AcDbLine
 10
6583.079463617716
 20
2397.207038820219
 30
0.0
 11
6583.079463617716
 21
2297.207038820219
 31
0.0
  0
LINE
  5
1702E
330
747D
100
AcDbEntity
  8
部品1
 48
50.0
100
AcDbLine
 10
6860.079463617715
 20
2397.207038820219
 30
0.0
 11
6775.579463617716
 21
2397.207038820219
 31
0.0
  0
LINE
  5
1702F
330
747D
100
AcDbEntity
  8
部品1
 48
50.0
100
AcDbLine
 10
6860.079463617715
 20
4522.207038820218
 30
0.0
 11
6860.079463617715
 21
2297.207038820219
 31
0.0
  0
LINE
  5
17030
330
747D
100
AcDbEntity
  8
部品1
 48
50.0
100
AcDbLine
 10
6783.079463617716
 20
4532.207038820219
 30
0.0
 11
6860.079463617715
 21
4522.207038820218
 31
0.0
  0
LINE
  5
17031
330
747D
100
AcDbEntity
  8
破線
 48
5.0
100
AcDbLine
 10
6655.579463617724
 20
2297.207038820219
 30
0.0
 11
6655.579463617724
 21
2097.207038820219
 31
0.0
  0
LINE
  5
17032
330
747D
100
AcDbEntity
  8
破線
 48
5.0
100
AcDbLine
 10
6855.579463617717
 20
2097.207038820215
 30
0.0
 11
6655.579463617724
 21
2097.207038820219
 31
0.0
  0
LINE
  5
17033
330
747D
100
AcDbEntity
  8
破線
 48
5.0
100
AcDbLine
 10
6855.579463617724
 20
2297.207038820219
 30
0.0
 11
6855.579463617717
 21
2097.207038820215
 31
0.0
  0
DIMENSION
  5
17034
330
747D
100
AcDbEntity
  8
寸法
 48
50.0
100
AcDbDimension
  2
*D2
 10
4500.579463617716
 20
1811.159709519839
 30
0.0
 11
4600.579463617716
 21
1811.159709519839
 31
0.0
 70
   160
 71
     5
 42
200.0
  3
INABA_S40G
100
AcDbAlignedDimension
 13
4700.579463617716
 23
2097.207038820215
 33
0.0
 14
4500.579463617716
 24
2097.207038820217
 34
0.0
100
AcDbRotatedDimension
  0
LINE
  5
17035
330
747D
100
AcDbEntity
  8
破線
 48
5.0
100
AcDbLine
 10
4500.579463617716
 20
2297.207038820219
 30
0.0
 11
4500.579463617716
 21
2097.207038820215
 31
0.0
  0
LINE
  5
17036
330
747D
100
AcDbEntity
  8
破線
 48
5.0
100
AcDbLine
 10
4700.579463617716
 20
2297.207038820219
 30
0.0
 11
4700.579463617716
 21
2097.207038820215
 31
0.0
  0
LINE
  5
17037
330
747D
100
AcDbEntity
  8
破線
 48
5.0
100
AcDbLine
 10
4700.579463617716
 20
2097.207038820215
 30
0.0
 11
4500.579463617716
 21
2097.207038820215
 31
0.0
  0
DIMENSION
  5
17038
330
747D
100
AcDbEntity
  8
寸法
 48
50.0
100
AcDbDimension
  2
*D3
 10
4351.079460371082
 20
2297.207038820217
 30
0.0
 11
4215.811040231947
 21
2167.35139208715
 31
0.0
 70
   160
 71
     5
 42
200.0
  3
INABA_S40G
100
AcDbAlignedDimension
 13
4500.579463617716
 23
2097.207038820217
 33
0.0
 14
4475.579463617716
 24
2297.207038820217
 34
0.0
 50
90.0
100
AcDbRotatedDimension
1001
ACAD
1000
DSTYLE
1002
{
1070
   174
1070
     0
1070
   272
1070
     1
1070
   279
1070
     2
1070
   341
1005
0
1002
}
  0
DIMENSION
  5
17039
330
747D
100
AcDbEntity
  8
寸法
 48
50.0
100
AcDbDimension
  2
*D4
 10
3952.471056849344
 20
4646.552297693548
 30
0.0
 11
3963.136532108268
 21
5017.398960935254
 31
0.0
 70
   161
 71
     5
 42
141.0000000000018
  3
INABA_S40G
100
AcDbAlignedDimension
 13
4532.475483776296
 23
4770.929787654899
 33
0.0
 14
4528.422028219669
 24
4629.988063889185
 34
0.0
1001
ACAD
1000
DSTYLE
1002
{
1070
   174
1070
     0
1070
   272
1070
     1
1070
   288
1070
     0
1070
   341
1005
0
1002
}
  0
LINE
  5
1703A
330
747D
100
AcDbEntity
  8
部品1
100
AcDbLine
 10
6775.579463617716
 20
2397.207038820219
 30
0.0
 11
6783.079463617716
 21
2397.207038820219
 31
0.0
  0
LINE
  5
1703B
330
747D
100
AcDbEntity
  8
破線
  6
HIDDEN
 48
5.0
100
AcDbLine
 10
4620.579463617715
 20
2297.207038820219
 30
0.0
 11
4620.579463617715
 21
2292.207038820219
 31
0.0
  0
LINE
  5
1703C
330
747D
100
AcDbEntity
  8
破線
  6
HIDDEN
 48
5.0
100
AcDbLine
 10
4580.579463617723
 20
2297.207038820219
 30
0.0
 11
4580.579463617723
 21
2292.207038820219
 31
0.0
  0
LINE
  5
1703D
330
747D
100
AcDbEntity
  8
破線
  6
HIDDEN
 48
5.0
100
AcDbLine
 10
6775.579463617716
 20
2297.207038820219
 30
0.0
 11
6775.579463617716
 21
2292.207038820219
 31
0.0
  0
LINE
  5
1703E
330
747D
100
AcDbEntity
  8
破線
  6
HIDDEN
 48
5.0
100
AcDbLine
 10
6735.579463617717
 20
2297.207038820219
 30
0.0
 11
6735.579463617717
 21
2292.207038820219
 31
0.0
  0
ARC
  5
1703F
330
747D
100
AcDbEntity
  8
部品1
 48
50.0
100
AcDbCircle
 10
6770.579463617716
 20
2437.207038820219
 30
0.0
 40
5.0
100
AcDbArc
 50
0.0
 51
90.0
  0
ARC
  5
17040
330
747D
100
AcDbEntity
  8
部品1
 48
50.0
100
AcDbCircle
 10
6740.579463617716
 20
2437.207038820219
 30
0.0
 40
5.0
100
AcDbArc
 50
90.0
 51
180.0
  0
LINE
  5
17041
330
747D
100
AcDbEntity
  8
部品1
100
AcDbLine
 10
6770.579463617716
 20
2442.20703882022
 30
0.0
 11
6740.579463617716
 21
2442.20703882022
 31
0.0
  0
LINE
  5
17042
330
747D
100
AcDbEntity
  8
部品1
 48
50.0
100
AcDbLine
 10
6775.579463617716
 20
2437.207038820219
 30
0.0
 11
6775.579463617716
 21
2297.207038820219
 31
0.0
  0
LINE
  5
17043
330
747D
100
AcDbEntity
  8
部品1
 48
50.0
100
AcDbLine
 10
6735.579463617717
 20
2437.207038820219
 30
0.0
 11
6735.579463617717
 21
2297.207038820219
 31
0.0
  0
ARC
  5
17044
330
747D
100
AcDbEntity
  8
部品1
 48
50.0
100
AcDbCircle
 10
4615.579463617716
 20
2437.207038820219
 30
0.0
 40
5.0
100
AcDbArc
 50
0.0
 51
90.0
  0
ARC
  5
17045
330
747D
100
AcDbEntity
  8
部品1
 48
50.0
100
AcDbCircle
 10
4585.579463617715
 20
2437.207038820219
 30
0.0
 40
5.0
100
AcDbArc
 50
90.0
 51
180.0
  0
LINE
  5
17046
330
747D
100
AcDbEntity
  8
部品1
100
AcDbLine
 10
4585.579463617715
 20
2442.20703882022
 30
0.0
 11
4615.579463617716
 21
2442.20703882022
 31
0.0
  0
LINE
  5
17047
330
747D
100
AcDbEntity
  8
部品1
 48
50.0
100
AcDbLine
 10
4620.579463617715
 20
2437.207038820219
 30
0.0
 11
4620.579463617715
 21
2297.207038820219
 31
0.0
  0
LINE
  5
17048
330
747D
100
AcDbEntity
  8
部品1
 48
50.0
100
AcDbLine
 10
4580.579463617715
 20
2437.207038820219
 30
0.0
 11
4580.579463617715
 21
2297.207038820219
 31
0.0
  0
LINE
  5
17049
330
747D
100
AcDbEntity
  8
破線
  6
HIDDEN
 48
5.0
100
AcDbLine
 10
4620.579463617715
 20
2292.207038820219
 30
0.0
 11
4635.579463617715
 21
2144.507038820218
 31
0.0
  0
LINE
  5
1704A
330
747D
100
AcDbEntity
  8
破線
  6
HIDDEN
 48
5.0
100
AcDbLine
 10
4580.579463617715
 20
2292.207038820219
 30
0.0
 11
4565.579463617716
 21
2144.507038820218
 31
0.0
  0
LINE
  5
1704B
330
747D
100
AcDbEntity
  8
破線
  6
HIDDEN
 48
5.0
100
AcDbLine
 10
4635.579463617715
 20
2144.507038820218
 30
0.0
 11
4635.579463617715
 21
2142.207038820219
 31
0.0
  0
LINE
  5
1704C
330
747D
100
AcDbEntity
  8
破線
  6
HIDDEN
 48
5.0
100
AcDbLine
 10
4565.579463617716
 20
2144.507038820218
 30
0.0
 11
4565.579463617716
 21
2142.207038820219
 31
0.0
  0
LINE
  5
1704D
330
747D
100
AcDbEntity
  8
破線
  6
HIDDEN
 48
5.0
100
AcDbLine
 10
4565.579463617716
 20
2142.207038820219
 30
0.0
 11
4635.579463617715
 21
2142.207038820219
 31
0.0
  0
LINE
  5
1704E
330
747D
100
AcDbEntity
  8
破線
  6
HIDDEN
 48
5.0
100
AcDbLine
 10
6790.579463617716
 20
2144.507038820218
 30
0.0
 11
6790.579463617716
 21
2142.207038820219
 31
0.0
  0
LINE
  5
1704F
330
747D
100
AcDbEntity
  8
破線
  6
HIDDEN
 48
5.0
100
AcDbLine
 10
6775.579463617716
 20
2292.207038820219
 30
0.0
 11
6790.579463617716
 21
2144.507038820218
 31
0.0
  0
LINE
  5
17050
330
747D
100
AcDbEntity
  8
破線
  6
HIDDEN
 48
5.0
100
AcDbLine
 10
6720.579463617716
 20
2144.507038820218
 30
0.0
 11
6720.579463617716
 21
2142.207038820219
 31
0.0
  0
LINE
  5
17051
330
747D
100
AcDbEntity
  8
破線
  6
HIDDEN
 48
5.0
100
AcDbLine
 10
6735.579463617717
 20
2292.207038820219
 30
0.0
 11
6720.579463617716
 21
2144.507038820218
 31
0.0
  0
LINE
  5
17052
330
747D
100
AcDbEntity
  8
破線
  6
HIDDEN
 48
5.0
100
AcDbLine
 10
6790.579463617716
 20
2142.207038820219
 30
0.0
 11
6720.579463617716
 21
2142.207038820219
 31
0.0
  0
DIMENSION
  5
17053
330
747D
100
AcDbEntity
  8
寸法
100
AcDbDimension
  2
*D5
 10
3949.42675445942
 20
2397.207038820219
 30
0.0
 11
3949.426754459419
 21
2091.159794725725
 31
0.0
 70
   160
 71
     5
 42
50.0
  3
INABA_S40G
100
AcDbAlignedDimension
 13
4573.079463617715
 23
2447.207038820219
 33
0.0
 14
4518.079463617715
 24
2397.207038820219
 34
0.0
 50
90.0
100
AcDbRotatedDimension
1001
ACAD
1000
DSTYLE
1002
{
1070
   174
1070
     0
1070
   272
1070
     1
1070
   288
1070
     0
1070
   341
1005
0
1002
}
  0
DIMENSION
  5
17054
330
747D
100
AcDbEntity
  8
寸法
100
AcDbDimension
  2
*D6
 10
3664.440081688358
 20
2297.207038820219
 30
0.0
 11
3664.440081688358
 21
2061.159794725725
 31
0.0
 70
   160
 71
     5
 42
100.0
  3
INABA_S40G
100
AcDbAlignedDimension
 13
4518.079463617715
 23
2397.207038820219
 33
0.0
 14
3949.426754459419
 24
2297.207038820219
 34
0.0
 50
90.0
100
AcDbRotatedDimension
1001
ACAD
1000
DSTYLE
1002
{
1070
   174
1070
     0
1070
   272
1070
     1
1070
   288
1070
     0
1070
   341
1005
0
1002
}
  0
DIMENSION
  5
17055
330
747D
100
AcDbEntity
  8
寸法
100
AcDbDimension
  2
*D7
 10
3664.44008168836
 20
4772.207038820222
 30
0.0
 11
3664.440081688359
 21
3557.207038820218
 31
0.0
 70
   160
 71
     5
 42
2375.000000000003
  3
INABA_S40G
100
AcDbAlignedDimension
 13
4573.079463617715
 23
2397.207038820219
 33
0.0
 14
4513.079463617716
 24
4772.207038820222
 34
0.0
 50
90.0
100
AcDbRotatedDimension
1001
ACAD
1000
DSTYLE
1002
{
1070
   174
1070
     0
1070
   272
1070
     1
1070
   288
1070
     0
1070
   341
1005
0
1002
}
  0
DIMENSION
  5
17056
330
747D
100
AcDbEntity
  8
寸法
100
AcDbDimension
  2
*D8
 10
3949.42675445942
 20
2447.207038820219
 30
0.0
 11
3949.426754459419
 21
3557.207038820218
 31
0.0
 70
   160
 71
     5
 42
2090.0
  3
INABA_S40G
100
AcDbAlignedDimension
 13
4573.079463617715
 23
4537.207038820219
 33
0.0
 14
4573.079463617715
 24
2447.207038820219
 34
0.0
 50
90.0
100
AcDbRotatedDimension
1001
ACAD
1000
DSTYLE
1002
{
1070
   174
1070
     0
1070
   272
1070
     1
1070
   288
1070
     0
1070
   341
1005
0
1002
}
  0
LINE
  5
17057
330
747D
100
AcDbEntity
  8
部品1
100
AcDbLine
 10
4573.079463617715
 20
2397.207038820219
 30
0.0
 11
4580.579463617715
 21
2397.207038820219
 31
0.0
  0
LINE
  5
17058
330
747D
100
AcDbEntity
  8
部品1
100
AcDbLine
 10
6059.814796731934
 20
1608.168775842809
 30
0.0
 11
5296.344130503494
 21
1608.168775842809
 31
0.0
  0
LINE
  5
17059
330
747D
100
AcDbEntity
  8
部品1
100
AcDbLine
 10
6059.814796731934
 20
1368.276454297276
 30
0.0
 11
6059.814796731934
 21
1608.168775842809
 31
0.0
  0
LINE
  5
1705A
330
747D
100
AcDbEntity
  8
部品1
100
AcDbLine
 10
5296.344130503494
 20
1368.276454297276
 30
0.0
 11
6059.814796731934
 21
1368.276454297276
 31
0.0
  0
LINE
  5
1705B
330
747D
100
AcDbEntity
  8
部品1
100
AcDbLine
 10
5296.344130503494
 20
1608.168775842809
 30
0.0
 11
5296.344130503494
 21
1368.276454297276
 31
0.0
  0
TEXT
  5
1705C
330
747D
100
AcDbEntity
  8
部品1
100
AcDbText
 10
5385.790231927102
 20
1415.275246624284
 30
0.0
 40
135.0
  1
側面図
  7
STYLE2
100
AcDbText
  0
LINE
  5
1705D
330
747D
100
AcDbEntity
  8
細線
 48
50.0
100
AcDbLine
 10
6650.579463617723
 20
4537.207038820219
 30
0.0
 11
6650.579463617723
 21
2447.207038820219
 31
0.0
  0
LINE
  5
1705E
330
747D
100
AcDbEntity
  8
細線
 48
50.0
100
AcDbLine
 10
6665.579463617723
 20
4537.207038820219
 30
0.0
 11
6665.579463617723
 21
2447.207038820219
 31
0.0
  0
LINE
  5
1705F
330
747D
100
AcDbEntity
  8
細線
 48
50.0
100
AcDbLine
 10
6525.579463617723
 20
4537.207038820219
 30
0.0
 11
6525.579463617723
 21
2447.207038820219
 31
0.0
  0
LINE
  5
17060
330
747D
100
AcDbEntity
  8
細線
 48
50.0
100
AcDbLine
 10
6510.579463617723
 20
4537.207038820219
 30
0.0
 11
6510.579463617723
 21
2447.207038820219
 31
0.0
  0
LINE
  5
17061
330
747D
100
AcDbEntity
  8
細線
 48
50.0
100
AcDbLine
 10
6370.579463617723
 20
4537.207038820219
 30
0.0
 11
6370.579463617723
 21
2447.207038820219
 31
0.0
  0
LINE
  5
17062
330
747D
100
AcDbEntity
  8
細線
 48
50.0
100
AcDbLine
 10
6385.579463617723
 20
4537.207038820219
 30
0.0
 11
6385.579463617723
 21
2447.207038820219
 31
0.0
  0
LINE
  5
17063
330
747D
100
AcDbEntity
  8
部品1
100
AcDbLine
 10
5888.079463617716
 20
4537.207038820219
 30
0.0
 11
5888.079463617716
 21
2447.207038820219
 31
0.0
  0
LINE
  5
17064
330
747D
100
AcDbEntity
  8
細線
 48
50.0
100
AcDbLine
 10
5545.579463617716
 20
4537.207038820219
 30
0.0
 11
5545.579463617716
 21
2447.207038820219
 31
0.0
  0
LINE
  5
17065
330
747D
100
AcDbEntity
  8
細線
 48
50.0
100
AcDbLine
 10
5530.579463617716
 20
4537.207038820219
 30
0.0
 11
5530.579463617716
 21
2447.207038820219
 31
0.0
  0
LINE
  5
17066
330
747D
100
AcDbEntity
  8
細線
 48
50.0
100
AcDbLine
 10
5670.579463617716
 20
4537.207038820219
 30
0.0
 11
5670.579463617716
 21
2447.207038820219
 31
0.0
  0
LINE
  5
17067
330
747D
100
AcDbEntity
  8
細線
 48
50.0
100
AcDbLine
 10
5685.579463617717
 20
4537.207038820219
 30
0.0
 11
5685.579463617717
 21
2447.207038820219
 31
0.0
  0
LINE
  5
17068
330
747D
100
AcDbEntity
  8
細線
 48
50.0
100
AcDbLine
 10
5825.579463617716
 20
4537.207038820219
 30
0.0
 11
5825.579463617716
 21
2447.207038820219
 31
0.0
  0
LINE
  5
17069
330
747D
100
AcDbEntity
  8
細線
 48
50.0
100
AcDbLine
 10
5810.579463617717
 20
4537.207038820219
 30
0.0
 11
5810.579463617717
 21
2447.207038820219
 31
0.0
  0
LINE
  5
1706A
330
747D
100
AcDbEntity
  8
部品1
100
AcDbLine
 10
5468.079463617716
 20
4537.207038820219
 30
0.0
 11
5468.079463617716
 21
2447.207038820219
 31
0.0
  0
DIMENSION
  5
1706B
330
747D
100
AcDbEntity
  8
寸法
 48
50.0
100
AcDbDimension
  2
*D9
 10
6863.079463617715
 20
5170.864492399522
 30
0.0
 11
7069.126707712205
 21
5170.864492399522
 31
0.0
 70
   160
 71
     5
 42
80.0
  3
INABA_S40G
100
AcDbAlignedDimension
 13
6783.079463617716
 23
4719.01771843187
 33
0.0
 14
6863.079463617715
 24
4717.207038820219
 34
0.0
100
AcDbRotatedDimension
1001
ACAD
1000
DSTYLE
1002
{
1070
   174
1070
     0
1070
   272
1070
     1
1070
   288
1070
     0
1070
   341
1005
0
1002
}
  0
LINE
  5
1706C
330
747D
100
AcDbEntity
  8
細線
 48
50.0
100
AcDbLine
 10
4705.579463617715
 20
4537.207038820219
 30
0.0
 11
4705.579463617715
 21
2447.207038820219
 31
0.0
  0
LINE
  5
1706D
330
747D
100
AcDbEntity
  8
細線
 48
50.0
100
AcDbLine
 10
4690.579463617716
 20
4537.207038820219
 30
0.0
 11
4690.579463617716
 21
2447.207038820219
 31
0.0
  0
LINE
  5
1706E
330
747D
100
AcDbEntity
  8
細線
 48
50.0
100
AcDbLine
 10
4830.579463617716
 20
4537.207038820219
 30
0.0
 11
4830.579463617716
 21
2447.207038820219
 31
0.0
  0
LINE
  5
1706F
330
747D
100
AcDbEntity
  8
細線
 48
50.0
100
AcDbLine
 10
4845.579463617716
 20
4537.207038820219
 30
0.0
 11
4845.579463617716
 21
2447.207038820219
 31
0.0
  0
LINE
  5
17070
330
747D
100
AcDbEntity
  8
細線
 48
50.0
100
AcDbLine
 10
4985.579463617717
 20
4537.207038820219
 30
0.0
 11
4985.579463617717
 21
2447.207038820219
 31
0.0
  0
LINE
  5
17071
330
747D
100
AcDbEntity
  8
細線
 48
50.0
100
AcDbLine
 10
4970.579463617716
 20
4537.207038820219
 30
0.0
 11
4970.579463617716
 21
2447.207038820219
 31
0.0
  0
LINE
  5
17072
330
747D
100
AcDbEntity
  8
細線
 48
50.0
100
AcDbLine
 10
5390.579463617716
 20
4537.207038820219
 30
0.0
 11
5390.579463617716
 21
2447.207038820219
 31
0.0
  0
LINE
  5
17073
330
747D
100
AcDbEntity
  8
細線
 48
50.0
100
AcDbLine
 10
5405.579463617716
 20
4537.207038820219
 30
0.0
 11
5405.579463617716
 21
2447.207038820219
 31
0.0
  0
LINE
  5
17074
330
747D
100
AcDbEntity
  8
細線
 48
50.0
100
AcDbLine
 10
5265.579463617716
 20
4537.207038820219
 30
0.0
 11
5265.579463617716
 21
2447.207038820219
 31
0.0
  0
LINE
  5
17075
330
747D
100
AcDbEntity
  8
細線
 48
50.0
100
AcDbLine
 10
5250.579463617716
 20
4537.207038820219
 30
0.0
 11
5250.579463617716
 21
2447.207038820219
 31
0.0
  0
LINE
  5
17076
330
747D
100
AcDbEntity
  8
細線
 48
50.0
100
AcDbLine
 10
5110.579463617717
 20
4537.207038820219
 30
0.0
 11
5110.579463617717
 21
2447.207038820219
 31
0.0
  0
LINE
  5
17077
330
747D
100
AcDbEntity
  8
細線
 48
50.0
100
AcDbLine
 10
5125.579463617716
 20
4537.207038820219
 30
0.0
 11
5125.579463617716
 21
2447.207038820219
 31
0.0
  0
LINE
  5
17078
330
747D
100
AcDbEntity
  8
部品1
100
AcDbLine
 10
4573.079463617715
 20
2397.207038820219
 30
0.0
 11
4580.579463617715
 21
2397.207038820219
 31
0.0
  0
DIMENSION
  5
17079
330
747D
100
AcDbEntity
  8
寸法
 48
50.0
100
AcDbDimension
  2
*D10
 10
4513.079463617716
 20
5390.066326073814
 30
0.0
 11
5747.423317710185
 21
5390.066326073814
 31
0.0
 70
   160
 71
     5
 42
2350.0
  3
INABA_S40G
100
AcDbAlignedDimension
 13
6863.079463617715
 23
4717.207038820219
 33
0.0
 14
4513.079463617716
 24
4772.207038820222
 34
0.0
100
AcDbRotatedDimension
1001
ACAD
1000
DSTYLE
1002
{
1070
   174
1070
     0
1070
   272
1070
     1
1070
   288
1070
     0
1070
   341
1005
0
1002
}
  0
DIMENSION
  5
1707A
330
747D
100
AcDbEntity
  8
寸法
 48
50.0
100
AcDbDimension
  2
*D11
 10
4513.079463617716
 20
5170.864492399522
 30
0.0
 11
4203.441668342121
 21
5170.864492399522
 31
0.0
 70
   160
 71
     5
 42
60.0
  3
INABA_S40G
100
AcDbAlignedDimension
 13
4573.079463617715
 23
4768.208656943196
 33
0.0
 14
4513.079463617716
 24
4772.207038820222
 34
0.0
100
AcDbRotatedDimension
1001
ACAD
1000
DSTYLE
1002
{
1070
   174
1070
     0
1070
   272
1070
     1
1070
   288
1070
     0
1070
   341
1005
0
1002
}
  0
DIMENSION
  5
1707B
330
747D
100
AcDbEntity
  8
寸法
 48
50.0
100
AcDbDimension
  2
*D12
 10
4573.079463617715
 20
5170.864492399522
 30
0.0
 11
5667.72420068823
 21
5170.864492399522
 31
0.0
 70
   160
  1
柱外寸法<>
 71
     5
 42
2210.0
  3
INABA_S40G
100
AcDbAlignedDimension
 13
6783.079463617716
 23
4719.01771843187
 33
0.0
 14
4573.079463617715
 24
4768.208656943196
 34
0.0
100
AcDbRotatedDimension
1001
ACAD
1000
DSTYLE
1002
{
1070
   174
1070
     0
1070
   272
1070
     1
1070
   288
1070
     0
1070
   341
1005
0
1002
}
  0
DIMENSION
  5
1707C
330
747D
100
AcDbEntity
  8
寸法
100
AcDbDimension
  2
*D13
 10
7343.186087559306
 20
4717.207038820219
 30
0.0
 11
7343.186087559304
 21
3557.207038820218
 31
0.0
 70
   160
 71
     5
 42
2320.000000000002
  3
INABA_S40G
100
AcDbAlignedDimension
 13
6860.079463617715
 23
2397.207038820218
 33
0.0
 14
6863.079463617715
 24
4717.207038820219
 34
0.0
 50
90.0
100
AcDbRotatedDimension
1001
ACAD
1000
DSTYLE
1002
{
1070
   174
1070
     0
1070
   272
1070
     1
1070
   288
1070
     0
1070
   341
1005
0
1002
}
  0
LINE
  5
1707D
330
747D
100
AcDbEntity
  8
部品1
100
AcDbLine
 10
6728.079463617716
 20
4537.207038820219
 30
0.0
 11
6728.079463617716
 21
2447.207038820219
 31
0.0
  0
LINE
  5
1707E
330
747D
100
AcDbEntity
  8
部品1
100
AcDbLine
 10
6783.079463617716
 20
4591.883476451439
 30
0.0
 11
6783.079463617716
 21
2297.207038820219
 31
0.0
  0
LINE
  5
1707F
330
747D
100
AcDbEntity
  8
部品1
100
AcDbLine
 10
5048.079463617717
 20
4537.207038820219
 30
0.0
 11
5048.079463617717
 21
2447.207038820219
 31
0.0
  0
LINE
  5
17080
330
747D
100
AcDbEntity
  8
部品1
100
AcDbLine
 10
4573.079463617715
 20
4629.065558262466
 30
0.0
 11
4573.079463617715
 21
2297.207038820219
 31
0.0
  0
LINE
  5
17081
330
747D
100
AcDbEntity
  8
部品1
100
AcDbLine
 10
4628.079463617716
 20
4537.207038820219
 30
0.0
 11
4628.079463617716
 21
2447.207038820219
 31
0.0
  0
LINE
  5
17082
330
747D
100
AcDbEntity
  8
部品1
100
AcDbLine
 10
4573.079463617715
 20
2447.207038820219
 30
0.0
 11
6783.079463617716
 21
2447.207038820219
 31
0.0
  0
LINE
  5
17083
330
747D
100
AcDbEntity
  8
部品1
100
AcDbLine
 10
4573.079463617715
 20
4537.207038820219
 30
0.0
 11
6783.079463617716
 21
4537.207038820219
 31
0.0
  0
LINE
  5
17084
330
747D
100
AcDbEntity
  8
部品1
100
AcDbLine
 10
6308.079463617715
 20
4537.207038820219
 30
0.0
 11
6308.079463617715
 21
2447.207038820219
 31
0.0
  0
LINE
  5
17085
330
747D
100
AcDbEntity
  8
細線
 48
50.0
100
AcDbLine
 10
6230.579463617716
 20
4537.207038820219
 30
0.0
 11
6230.579463617716
 21
2447.207038820219
 31
0.0
  0
LINE
  5
17086
330
747D
100
AcDbEntity
  8
細線
 48
50.0
100
AcDbLine
 10
6245.579463617715
 20
4537.207038820219
 30
0.0
 11
6245.579463617715
 21
2447.207038820219
 31
0.0
  0
LINE
  5
17087
330
747D
100
AcDbEntity
  8
細線
 48
50.0
100
AcDbLine
 10
6105.579463617716
 20
4537.207038820219
 30
0.0
 11
6105.579463617716
 21
2447.207038820219
 31
0.0
  0
LINE
  5
17088
330
747D
100
AcDbEntity
  8
細線
 48
50.0
100
AcDbLine
 10
6090.579463617716
 20
4537.207038820219
 30
0.0
 11
6090.579463617716
 21
2447.207038820219
 31
0.0
  0
LINE
  5
17089
330
747D
100
AcDbEntity
  8
細線
 48
50.0
100
AcDbLine
 10
5950.579463617716
 20
4537.207038820219
 30
0.0
 11
5950.579463617716
 21
2447.207038820219
 31
0.0
  0
LINE
  5
1708A
330
747D
100
AcDbEntity
  8
細線
 48
50.0
100
AcDbLine
 10
5965.579463617716
 20
4537.207038820219
 30
0.0
 11
5965.579463617716
 21
2447.207038820219
 31
0.0
  0
TEXT
  5
1708B
330
747D
100
AcDbEntity
  8
部品1
 48
50.0
100
AcDbText
 10
5993.980321506533
 20
4801.022226095479
 30
0.0
 40
120.0
  1
44
 50
90.0
  7
STYLE1
100
AcDbText
  0
TEXT
  5
1708C
330
747D
100
AcDbEntity
  8
部品1
 48
50.0
100
AcDbText
 10
5516.347298841443
 20
4938.523484313762
 30
0.0
 40
120.0
  1
1000
  7
STYLE1
100
AcDbText
  0
LINE
  5
1708D
330
747D
100
AcDbEntity
  8
部品1
 48
50.0
100
AcDbLine
 10
5828.079463617716
 20
4902.639462161329
 30
0.0
 11
5828.079463617716
 21
4886.43946216133
 31
0.0
  0
LINE
  5
1708E
330
747D
100
AcDbEntity
  8
部品1
 48
50.0
100
AcDbLine
 10
5528.079463617716
 20
4902.639462161329
 30
0.0
 11
5828.079463617716
 21
4902.639462161329
 31
0.0
  0
LINE
  5
1708F
330
747D
100
AcDbEntity
  8
部品1
100
AcDbLine
 10
4520.624449974675
 20
4770.924774154486
 30
0.0
 11
6855.691340479177
 21
4715.847836529357
 31
0.0
  0
LINE
  5
17090
330
747D
100
AcDbEntity
  8
部品1
100
AcDbLine
 10
4528.422028219669
 20
4629.988063889185
 30
0.0
 11
6837.743164157561
 21
4590.95963865498
 31
0.0
  0
LINE
  5
17091
330
747D
100
AcDbEntity
  8
細線
 48
50.0
100
AcDbLine
 10
4546.079463617716
 20
4769.606715195624
 30
0.0
 11
4540.790362062209
 21
4629.521082568269
 31
0.0
  0
LINE
  5
17092
330
747D
100
AcDbEntity
  8
細線
 48
50.0
100
AcDbLine
 10
6830.079463617716
 20
4717.174017855515
 30
0.0
 11
6825.331780729721
 21
4591.428245364769
 31
0.0
  0
LINE
  5
17093
330
747D
100
AcDbEntity
  8
部品1
 48
50.0
100
AcDbLine
 10
4513.263749530823
 20
4763.80058498491
 30
0.0
 11
4513.644009308634
 21
4743.873620538499
 31
0.0
  0
LINE
  5
17094
330
747D
100
AcDbEntity
  8
部品1
 48
50.0
100
AcDbLine
 10
4516.712781414876
 20
4740.298339045028
 30
0.0
 11
4518.416682906245
 21
4651.00784233838
 31
0.0
  0
LINE
  5
17095
330
747D
100
AcDbEntity
  8
細線
 48
50.0
100
AcDbLine
 10
4514.118886718526
 20
4743.224120661579
 30
0.0
 11
6859.754871463701
 21
4687.599916020752
 31
0.0
  0
LINE
  5
17096
330
747D
100
AcDbEntity
  8
細線
 48
50.0
100
AcDbLine
 10
4518.879361955812
 20
4650.362608963717
 30
0.0
 11
6848.883026386451
 21
4610.553289989224
 31
0.0
  0
LINE
  5
17097
330
747D
100
AcDbEntity
  8
部品1
 48
50.0
100
AcDbLine
 10
4521.485455012487
 20
4647.432560844907
 30
0.0
 11
4521.687407632918
 21
4636.849525451816
 31
0.0
  0
ARC
  5
17098
330
747D
100
AcDbEntity
  8
部品1
 48
50.0
100
AcDbCircle
 10
4520.262475359159
 20
4763.934139392339
 30
0.0
 40
7.0
100
AcDbArc
 50
87.03587545283093
 51
181.0932240293156
  0
ARC
  5
17099
330
747D
100
AcDbEntity
  8
部品1
 48
50.0
100
AcDbCircle
 10
4528.686133461255
 20
4636.983079859244
 30
0.0
 40
7.0
100
AcDbArc
 50
181.0932240293156
 51
267.8377559871574
  0
ARC
  5
1709A
330
747D
100
AcDbEntity
  8
部品1
100
AcDbCircle
 10
4518.486001086057
 20
4647.375323241726
 30
0.0
 40
3.0
100
AcDbArc
 50
1.093224029315636
 51
80.18775403169875
  0
ARC
  5
1709B
330
747D
100
AcDbEntity
  8
部品1
100
AcDbCircle
 10
4513.713327488448
 20
4740.241101441843
 30
0.0
 40
3.0
100
AcDbArc
 50
1.093224029315636
 51
80.18775403169875
  0
ARC
  5
1709C
330
747D
100
AcDbEntity
  8
部品1
100
AcDbCircle
 10
4514.343881891472
 20
4743.886975979242
 30
0.0
 40
0.7
100
AcDbArc
 50
181.0932240292114
 51
260.1877540316988
  0
ARC
  5
1709D
330
747D
100
AcDbEntity
  8
部品1
100
AcDbCircle
 10
4519.116555489083
 20
4651.021197779122
 30
0.0
 40
0.7
100
AcDbArc
 50
181.0932240293156
 51
260.1877540316988
  0
LINE
  5
1709E
330
747D
100
AcDbEntity
  8
部品1
 48
50.0
100
AcDbLine
 10
6862.293366428422
 20
4708.148191094436
 30
0.0
 11
6860.26274523745
 21
4688.203149836655
 31
0.0
  0
LINE
  5
1709F
330
747D
100
AcDbEntity
  8
部品1
 48
50.0
100
AcDbLine
 10
6856.910178752966
 20
4684.892515763748
 30
0.0
 11
6849.403399488132
 21
4611.159895018736
 31
0.0
  0
LINE
  5
170A0
330
747D
100
AcDbEntity
  8
部品1
 48
50.0
100
AcDbLine
 10
6846.050833003646
 20
4607.849260945823
 30
0.0
 11
6844.971269963906
 21
4597.245643952265
 31
0.0
  0
ARC
  5
170A1
330
747D
100
AcDbEntity
  8
部品1
 48
50.0
100
AcDbCircle
 10
6855.329365863662
 20
4708.857201767211
 30
0.0
 40
7.0
100
AcDbArc
 50
354.1866997665532
 51
87.03587545283093
  0
ARC
  5
170A2
330
747D
100
AcDbEntity
  8
部品1
 48
50.0
100
AcDbCircle
 10
6838.007269399146
 20
4597.954654625038
 30
0.0
 40
7.0
100
AcDbArc
 50
267.8377559871574
 51
354.1866997665532
  0
ARC
  5
170A3
330
747D
100
AcDbEntity
  8
部品1
100
AcDbCircle
 10
6849.035404674251
 20
4607.545399228921
 30
0.0
 40
3.0
100
AcDbArc
 50
95.0921697642102
 51
174.1866997665532
  0
ARC
  5
170A4
330
747D
100
AcDbEntity
  8
部品1
100
AcDbCircle
 10
6859.894750423577
 20
4684.588654046845
 30
0.0
 40
3.0
100
AcDbArc
 50
95.09216976442012
 51
174.1866997665532
  0
ARC
  5
170A5
330
747D
100
AcDbEntity
  8
部品1
100
AcDbCircle
 10
6859.566345180974
 20
4688.274050903934
 30
0.0
 40
0.7
100
AcDbArc
 50
275.0921697642102
 51
354.1866997665532
  0
ARC
  5
170A6
330
747D
100
AcDbEntity
  8
部品1
100
AcDbCircle
 10
6848.706999431655
 20
4611.230796086011
 30
0.0
 40
0.7
100
AcDbArc
 50
275.0921697642102
 51
354.1866997666569
  0
LINE
  5
170A7
330
747D
100
AcDbEntity
  8
部品1
100
AcDbLine
 10
5502.624449974675
 20
4903.957521120192
 30
0.0
 11
5828.079463617716
 21
4886.43946216133
 31
0.0
  0
LINE
  5
170A8
330
747D
100
AcDbEntity
  8
部品1
100
AcDbLine
 10
4620.579463617715
 20
2397.207038820219
 30
0.0
 11
6735.579463617717
 21
2397.207038820219
 31
0.0
  0
LINE
  5
170A9
330
747D
100
AcDbEntity
  8
部品1
100
AcDbLine
 10
6775.579463617716
 20
2397.207038820219
 30
0.0
 11
6783.079463617716
 21
2397.207038820219
 31
0.0
  0
LINE
  5
170AB
330
747D
100
AcDbEntity
  8
細線
 48
50.0
100
AcDbLine
 10
9282.676492954976
 20
4537.207038820219
 30
0.0
 11
9282.676492954976
 21
2447.207038820219
 31
0.0
  0
LINE
  5
170AC
330
747D
100
AcDbEntity
  8
細線
 48
50.0
100
AcDbLine
 10
9297.676492954977
 20
4537.207038820219
 30
0.0
 11
9297.676492954977
 21
2447.207038820219
 31
0.0
  0
LINE
  5
170AD
330
747D
100
AcDbEntity
  8
細線
 48
50.0
100
AcDbLine
 10
9157.676492954976
 20
4537.207038820219
 30
0.0
 11
9157.676492954976
 21
2447.207038820219
 31
0.0
  0
LINE
  5
170AE
330
747D
100
AcDbEntity
  8
細線
 48
50.0
100
AcDbLine
 10
9142.676492954977
 20
4537.207038820219
 30
0.0
 11
9142.676492954977
 21
2447.207038820219
 31
0.0
  0
LINE
  5
170AF
330
747D
100
AcDbEntity
  8
細線
 48
50.0
100
AcDbLine
 10
9002.676492954977
 20
4537.207038820219
 30
0.0
 11
9002.676492954977
 21
2447.207038820219
 31
0.0
  0
LINE
  5
170B0
330
747D
100
AcDbEntity
  8
細線
 48
50.0
100
AcDbLine
 10
9017.676492954977
 20
4537.207038820219
 30
0.0
 11
9017.676492954977
 21
2447.207038820219
 31
0.0
  0
LINE
  5
170B1
330
747D
100
AcDbEntity
  8
部品1
100
AcDbLine
 10
11431.67649295496
 20
4747.807038828691
 30
0.0
 11
11320.17649295497
 21
4747.807038828691
 31
0.0
  0
LINE
  5
170B2
330
747D
100
AcDbEntity
  8
部品1
100
AcDbLine
 10
11308.17649295497
 20
4767.207038828707
 30
0.0
 11
11308.17649295497
 21
4669.795971320134
 31
0.0
  0
LINE
  5
170B3
330
747D
100
AcDbEntity
  8
部品1
100
AcDbLine
 10
11283.17649295497
 20
4767.207038828707
 30
0.0
 11
11283.17649295498
 21
4669.795971320134
 31
0.0
  0
LINE
  5
170B4
330
747D
100
AcDbEntity
  8
部品1
100
AcDbLine
 10
11210.17649295497
 20
4767.207038828707
 30
0.0
 11
11210.17649295497
 21
4669.795971320134
 31
0.0
  0
LINE
  5
170B5
330
747D
100
AcDbEntity
  8
部品1
100
AcDbLine
 10
11235.17649295497
 20
4767.207038828707
 30
0.0
 11
11235.17649295497
 21
4669.795971320134
 31
0.0
  0
LINE
  5
170B6
330
747D
100
AcDbEntity
  8
部品1
 48
50.0
100
AcDbLine
 10
11281.67649295497
 20
4767.20703882871
 30
0.0
 11
11309.67649295496
 21
4767.20703882871
 31
0.0
  0
LINE
  5
170B7
330
747D
100
AcDbEntity
  8
部品1
 48
50.0
100
AcDbLine
 10
11309.67649295496
 20
4767.20703882871
 30
0.0
 11
11320.17649295497
 21
4747.807038828709
 31
0.0
  0
LINE
  5
170B8
330
747D
100
AcDbEntity
  8
部品1
 48
50.0
100
AcDbLine
 10
11281.67649295497
 20
4767.20703882871
 30
0.0
 11
11271.17649295497
 21
4747.807038828709
 31
0.0
  0
LINE
  5
170B9
330
747D
100
AcDbEntity
  8
部品1
 48
50.0
100
AcDbLine
 10
11208.67649295496
 20
4767.20703882871
 30
0.0
 11
11236.67649295496
 21
4767.20703882871
 31
0.0
  0
LINE
  5
170BA
330
747D
100
AcDbEntity
  8
部品1
 48
50.0
100
AcDbLine
 10
11208.67649295496
 20
4767.20703882871
 30
0.0
 11
11198.17649295496
 21
4747.807038828709
 31
0.0
  0
LINE
  5
170BB
330
747D
100
AcDbEntity
  8
部品1
 48
50.0
100
AcDbLine
 10
11236.67649295497
 20
4767.20703882871
 30
0.0
 11
11247.17649295497
 21
4747.807038828709
 31
0.0
  0
LINE
  5
170BC
330
747D
100
AcDbEntity
  8
部品1
100
AcDbLine
 10
11271.17649295496
 20
4747.807038828705
 30
0.0
 11
11247.17649295497
 21
4747.807038828705
 31
0.0
  0
LINE
  5
170BD
330
747D
100
AcDbEntity
  8
部品1
100
AcDbLine
 10
11198.17649295496
 20
4747.807038828705
 30
0.0
 11
11054.67649295496
 21
4747.807038828705
 31
0.0
  0
LINE
  5
170BE
330
747D
100
AcDbEntity
  8
部品1
 48
50.0
100
AcDbLine
 10
11052.17649295497
 20
4767.207038828707
 30
0.0
 11
11054.67649295497
 21
4747.807038828705
 31
0.0
  0
LINE
  5
170BF
330
747D
100
AcDbEntity
  8
部品1
 48
50.0
100
AcDbLine
 10
11012.96515274878
 20
4757.807038828705
 30
0.0
 11
11011.67649295497
 21
4747.807038828705
 31
0.0
  0
LINE
  5
170C0
330
747D
100
AcDbEntity
  8
部品1
 48
50.0
100
AcDbLine
 10
11012.96515274878
 20
4757.807038828705
 30
0.0
 11
11026.96515274878
 21
4757.807038828705
 31
0.0
  0
LINE
  5
170C1
330
747D
100
AcDbEntity
  8
部品1
 48
50.0
100
AcDbLine
 10
11028.17649295497
 20
4767.207038828707
 30
0.0
 11
11026.96515274878
 21
4757.807038828705
 31
0.0
  0
LINE
  5
170C2
330
747D
100
AcDbEntity
  8
部品1
 48
50.0
100
AcDbLine
 10
11028.17649295497
 20
4767.207038828707
 30
0.0
 11
11052.17649295497
 21
4767.207038828707
 31
0.0
  0
LINE
  5
170C3
330
747D
100
AcDbEntity
  8
部品1
100
AcDbLine
 10
11049.17649295496
 20
4767.207038828707
 30
0.0
 11
11049.17649295496
 21
4669.79597132013
 31
0.0
  0
LINE
  5
170C4
330
747D
100
AcDbEntity
  8
部品1
100
AcDbLine
 10
11031.17649295496
 20
4767.207038828695
 30
0.0
 11
11031.17649295496
 21
4669.79597132013
 31
0.0
  0
LINE
  5
170C5
330
747D
100
AcDbEntity
  8
部品1
100
AcDbLine
 10
11515.24712094817
 20
4747.807038828687
 30
0.0
 11
11474.67649295496
 21
4747.807038828687
 31
0.0
  0
LINE
  5
170C6
330
747D
100
AcDbEntity
  8
部品1
 48
50.0
100
AcDbLine
 10
11472.17649295496
 20
4767.207038828692
 30
0.0
 11
11474.67649295496
 21
4747.807038828691
 31
0.0
  0
LINE
  5
170C7
330
747D
100
AcDbEntity
  8
部品1
 48
50.0
100
AcDbLine
 10
11432.96515274878
 20
4757.80703882869
 30
0.0
 11
11431.67649295496
 21
4747.807038828691
 31
0.0
  0
LINE
  5
170C8
330
747D
100
AcDbEntity
  8
部品1
 48
50.0
100
AcDbLine
 10
11432.96515274878
 20
4757.80703882869
 30
0.0
 11
11446.96515274878
 21
4757.80703882869
 31
0.0
  0
LINE
  5
170C9
330
747D
100
AcDbEntity
  8
部品1
 48
50.0
100
AcDbLine
 10
11448.17649295496
 20
4767.207038828692
 30
0.0
 11
11446.96515274878
 21
4757.80703882869
 31
0.0
  0
LINE
  5
170CA
330
747D
100
AcDbEntity
  8
細線
 48
50.0
100
AcDbLine
 10
11515.24712094817
 20
4689.178871568168
 30
0.0
 11
11563.31036223211
 21
4689.178871568176
 31
0.0
  0
LINE
  5
170CB
330
747D
100
AcDbEntity
  8
細線
 48
50.0
100
AcDbLine
 10
11532.68758285925
 20
4717.207038820219
 30
0.0
 11
11532.68758285925
 21
4590.707038820219
 31
0.0
  0
ARC
  5
170CC
330
747D
100
AcDbEntity
  8
部品1
100
AcDbCircle
 10
11558.19044913775
 20
4765.207038837117
 30
0.0
 40
7.0
100
AcDbArc
 50
356.3813705198622
 51
90.0
  0
LINE
  5
170CD
330
747D
100
AcDbEntity
  8
部品1
100
AcDbLine
 10
11520.24712094817
 20
4772.207038837118
 30
0.0
 11
11558.19044913775
 21
4772.207038837118
 31
0.0
  0
ARC
  5
170CE
330
747D
100
AcDbEntity
  8
部品1
100
AcDbCircle
 10
11520.24712094817
 20
4767.207038837117
 30
0.0
 40
5.0
100
AcDbArc
 50
90.0
 51
180.0
  0
LINE
  5
170CF
330
747D
100
AcDbEntity
  8
部品1
 48
50.0
100
AcDbLine
 10
11565.17649295496
 20
4709.76523367763
 30
0.0
 11
11565.17649295496
 21
4764.765233694528
 31
0.0
  0
LINE
  5
170D0
330
747D
100
AcDbEntity
  8
部品1
100
AcDbLine
 10
11515.24712094817
 20
4767.207038837117
 30
0.0
 11
11515.24712094817
 21
4669.795971320116
 31
0.0
  0
ARC
  5
170D1
330
747D
100
AcDbEntity
  8
部品1
100
AcDbCircle
 10
11520.24712094817
 20
4712.207038820219
 30
0.0
 40
5.0
100
AcDbArc
 50
90.0
 51
180.0
  0
LINE
  5
170D2
330
747D
100
AcDbEntity
  8
部品1
100
AcDbLine
 10
11520.24712094817
 20
4717.207038820219
 30
0.0
 11
11558.19044913775
 21
4717.207038820219
 31
0.0
  0
LINE
  5
170D3
330
747D
100
AcDbEntity
  8
部品1
100
AcDbLine
 10
11563.9159548964
 20
4689.832975626548
 30
0.0
 11
11565.17649295496
 21
4709.76523367763
 31
0.0
  0
LINE
  5
170D4
330
747D
100
AcDbEntity
  8
部品1
100
AcDbLine
 10
11552.04988210899
 20
4597.26523367763
 30
0.0
 11
11552.72220781357
 21
4607.896383881332
 31
0.0
  0
ARC
  5
170D5
330
747D
100
AcDbEntity
  8
部品1
100
AcDbCircle
 10
11558.19044913775
 20
4710.207038820219
 30
0.0
 40
7.0
100
AcDbArc
 50
356.3813705198622
 51
90.0
  0
ARC
  5
170D6
330
747D
100
AcDbEntity
  8
部品1
100
AcDbCircle
 10
11545.06383829178
 20
4597.707038820219
 30
0.0
 40
7.0
100
AcDbArc
 50
270.0
 51
356.3813705198622
  0
ARC
  5
170D7
330
747D
100
AcDbEntity
  8
部品1
100
AcDbCircle
 10
11555.71622659238
 20
4607.707038820219
 30
0.0
 40
3.0
100
AcDbArc
 50
90.0
 51
176.3813705198622
  0
ARC
  5
170D8
330
747D
100
AcDbEntity
  8
部品1
100
AcDbCircle
 10
11555.24693046718
 20
4611.37715614081
 30
0.0
 40
0.7
100
AcDbArc
 50
277.2868405166456
 51
356.3813705198622
  0
LINE
  5
170D9
330
747D
100
AcDbEntity
  8
部品1
100
AcDbLine
 10
11560.69262786107
 20
4686.396383881333
 30
0.0
 11
11555.94553484891
 21
4611.332975626548
 31
0.0
  0
ARC
  5
170DA
330
747D
100
AcDbEntity
  8
部品1
100
AcDbCircle
 10
11563.68664663987
 20
4686.207038820219
 30
0.0
 40
3.0
100
AcDbArc
 50
90.0
 51
176.3813705198622
  0
ARC
  5
170DB
330
747D
100
AcDbEntity
  8
部品1
100
AcDbCircle
 10
11563.21735051467
 20
4689.87715614081
 30
0.0
 40
0.7
100
AcDbArc
 50
277.2868405166456
 51
356.3813705198622
  0
LINE
  5
170DC
330
747D
100
AcDbEntity
  8
部品1
 48
50.0
100
AcDbLine
 10
11520.24712094817
 20
4717.207038820219
 30
0.0
 11
11558.19044913775
 21
4717.207038820219
 31
0.0
  0
LINE
  5
170DD
330
747D
100
AcDbEntity
  8
部品1
 48
50.0
100
AcDbLine
 10
11448.17649295496
 20
4767.207038828692
 30
0.0
 11
11472.17649295496
 21
4767.207038828692
 31
0.0
  0
LINE
  5
170DE
330
747D
100
AcDbEntity
  8
部品1
100
AcDbLine
 10
11469.17649295496
 20
4767.207038828692
 30
0.0
 11
11469.17649295496
 21
4669.795971320116
 31
0.0
  0
LINE
  5
170DF
330
747D
100
AcDbEntity
  8
部品1
100
AcDbLine
 10
11451.17649295495
 20
4767.207038828681
 30
0.0
 11
11451.17649295495
 21
4669.795971320116
 31
0.0
  0
DIMENSION
  5
170E0
330
747D
100
AcDbEntity
  8
寸法
 48
50.0
100
AcDbDimension
  2
*D14
 10
11515.17649295497
 20
5171.300208159693
 30
0.0
 11
11878.66177432921
 21
5171.300208159693
 31
0.0
 70
   160
 71
     5
 42
50.0
  3
INABA_S40G
100
AcDbAlignedDimension
 13
11565.17649295497
 23
4772.207038820222
 33
0.0
 14
11515.17649295497
 24
4772.207038820222
 34
0.0
100
AcDbRotatedDimension
  0
LINE
  5
170E1
330
747D
100
AcDbEntity
  8
部品1
100
AcDbLine
 10
10611.17649295498
 20
4767.207038828685
 30
0.0
 11
10611.17649295498
 21
4669.79597132012
 31
0.0
  0
LINE
  5
170E2
330
747D
100
AcDbEntity
  8
部品1
100
AcDbLine
 10
10629.17649295498
 20
4767.207038828695
 30
0.0
 11
10629.17649295498
 21
4669.79597132012
 31
0.0
  0
LINE
  5
170E3
330
747D
100
AcDbEntity
  8
部品1
 48
50.0
100
AcDbLine
 10
10608.17649295498
 20
4767.207038828695
 30
0.0
 11
10632.17649295499
 21
4767.207038828695
 31
0.0
  0
LINE
  5
170E4
330
747D
100
AcDbEntity
  8
部品1
 48
50.0
100
AcDbLine
 10
10608.17649295498
 20
4767.207038828695
 30
0.0
 11
10606.9651527488
 21
4757.807038828694
 31
0.0
  0
LINE
  5
170E5
330
747D
100
AcDbEntity
  8
部品1
 48
50.0
100
AcDbLine
 10
10592.9651527488
 20
4757.807038828694
 30
0.0
 11
10606.9651527488
 21
4757.807038828694
 31
0.0
  0
LINE
  5
170E6
330
747D
100
AcDbEntity
  8
部品1
 48
50.0
100
AcDbLine
 10
10592.9651527488
 20
4757.807038828694
 30
0.0
 11
10591.67649295498
 21
4747.807038828694
 31
0.0
  0
LINE
  5
170E7
330
747D
100
AcDbEntity
  8
部品1
 48
50.0
100
AcDbLine
 10
10632.17649295499
 20
4767.207038828695
 30
0.0
 11
10634.67649295498
 21
4747.807038828694
 31
0.0
  0
LINE
  5
170E8
330
747D
100
AcDbEntity
  8
部品1
100
AcDbLine
 10
10778.17649295498
 20
4747.807038828694
 30
0.0
 11
10634.67649295498
 21
4747.807038828694
 31
0.0
  0
LINE
  5
170E9
330
747D
100
AcDbEntity
  8
部品1
100
AcDbLine
 10
10851.17649295498
 20
4747.807038828694
 30
0.0
 11
10827.17649295498
 21
4747.807038828694
 31
0.0
  0
LINE
  5
170EA
330
747D
100
AcDbEntity
  8
部品1
 48
50.0
100
AcDbLine
 10
10816.67649295498
 20
4767.2070388287
 30
0.0
 11
10827.17649295498
 21
4747.807038828698
 31
0.0
  0
LINE
  5
170EB
330
747D
100
AcDbEntity
  8
部品1
 48
50.0
100
AcDbLine
 10
10788.67649295498
 20
4767.2070388287
 30
0.0
 11
10778.17649295498
 21
4747.807038828698
 31
0.0
  0
LINE
  5
170EC
330
747D
100
AcDbEntity
  8
部品1
 48
50.0
100
AcDbLine
 10
10788.67649295498
 20
4767.2070388287
 30
0.0
 11
10816.67649295498
 21
4767.2070388287
 31
0.0
  0
LINE
  5
170ED
330
747D
100
AcDbEntity
  8
部品1
 48
50.0
100
AcDbLine
 10
10861.67649295498
 20
4767.2070388287
 30
0.0
 11
10851.17649295498
 21
4747.807038828698
 31
0.0
  0
LINE
  5
170EE
330
747D
100
AcDbEntity
  8
部品1
 48
50.0
100
AcDbLine
 10
10889.67649295498
 20
4767.2070388287
 30
0.0
 11
10900.17649295498
 21
4747.807038828698
 31
0.0
  0
LINE
  5
170EF
330
747D
100
AcDbEntity
  8
部品1
 48
50.0
100
AcDbLine
 10
10861.67649295498
 20
4767.2070388287
 30
0.0
 11
10889.67649295498
 21
4767.2070388287
 31
0.0
  0
LINE
  5
170F0
330
747D
100
AcDbEntity
  8
部品1
100
AcDbLine
 10
10815.17649295499
 20
4767.207038828695
 30
0.0
 11
10815.17649295499
 21
4669.795971320123
 31
0.0
  0
LINE
  5
170F1
330
747D
100
AcDbEntity
  8
部品1
100
AcDbLine
 10
10790.17649295499
 20
4767.207038828695
 30
0.0
 11
10790.17649295499
 21
4669.795971320123
 31
0.0
  0
LINE
  5
170F2
330
747D
100
AcDbEntity
  8
部品1
100
AcDbLine
 10
10863.17649295499
 20
4767.207038828695
 30
0.0
 11
10863.17649295499
 21
4669.795971320123
 31
0.0
  0
LINE
  5
170F3
330
747D
100
AcDbEntity
  8
部品1
100
AcDbLine
 10
10888.17649295499
 20
4767.207038828695
 30
0.0
 11
10888.17649295499
 21
4669.795971320123
 31
0.0
  0
LINE
  5
170F4
330
747D
100
AcDbEntity
  8
部品1
100
AcDbLine
 10
11011.67649295498
 20
4747.807038828679
 30
0.0
 11
10900.17649295499
 21
4747.807038828679
 31
0.0
  0
LINE
  5
170F5
330
747D
100
AcDbEntity
  8
部品1
100
AcDbLine
 10
10468.17649295499
 20
4767.207038828692
 30
0.0
 11
10468.17649295499
 21
4669.79597132012
 31
0.0
  0
LINE
  5
170F6
330
747D
100
AcDbEntity
  8
部品1
100
AcDbLine
 10
10443.17649295499
 20
4767.207038828692
 30
0.0
 11
10443.17649295499
 21
4669.79597132012
 31
0.0
  0
LINE
  5
170F7
330
747D
100
AcDbEntity
  8
部品1
100
AcDbLine
 10
10370.17649295499
 20
4767.207038828692
 30
0.0
 11
10370.17649295499
 21
4669.79597132012
 31
0.0
  0
LINE
  5
170F8
330
747D
100
AcDbEntity
  8
部品1
100
AcDbLine
 10
10395.17649295499
 20
4767.207038828692
 30
0.0
 11
10395.17649295499
 21
4669.79597132012
 31
0.0
  0
LINE
  5
170F9
330
747D
100
AcDbEntity
  8
部品1
100
AcDbLine
 10
10358.17649295498
 20
4747.807038828691
 30
0.0
 11
10214.67649295498
 21
4747.807038828691
 31
0.0
  0
LINE
  5
170FA
330
747D
100
AcDbEntity
  8
部品1
100
AcDbLine
 10
10591.67649295498
 20
4747.807038828676
 30
0.0
 11
10480.17649295499
 21
4747.807038828676
 31
0.0
  0
LINE
  5
170FB
330
747D
100
AcDbEntity
  8
部品1
 48
50.0
100
AcDbLine
 10
10441.67649295498
 20
4767.207038828695
 30
0.0
 11
10469.67649295498
 21
4767.207038828695
 31
0.0
  0
LINE
  5
170FC
330
747D
100
AcDbEntity
  8
部品1
 48
50.0
100
AcDbLine
 10
10469.67649295498
 20
4767.207038828695
 30
0.0
 11
10480.17649295498
 21
4747.807038828694
 31
0.0
  0
LINE
  5
170FD
330
747D
100
AcDbEntity
  8
部品1
 48
50.0
100
AcDbLine
 10
10441.67649295498
 20
4767.207038828695
 30
0.0
 11
10431.17649295498
 21
4747.807038828694
 31
0.0
  0
LINE
  5
170FE
330
747D
100
AcDbEntity
  8
部品1
 48
50.0
100
AcDbLine
 10
10368.67649295498
 20
4767.207038828695
 30
0.0
 11
10396.67649295498
 21
4767.207038828695
 31
0.0
  0
LINE
  5
170FF
330
747D
100
AcDbEntity
  8
部品1
 48
50.0
100
AcDbLine
 10
10368.67649295498
 20
4767.207038828695
 30
0.0
 11
10358.17649295498
 21
4747.807038828694
 31
0.0
  0
LINE
  5
17100
330
747D
100
AcDbEntity
  8
部品1
 48
50.0
100
AcDbLine
 10
10396.67649295498
 20
4767.207038828695
 30
0.0
 11
10407.17649295498
 21
4747.807038828694
 31
0.0
  0
LINE
  5
17101
330
747D
100
AcDbEntity
  8
部品1
100
AcDbLine
 10
10431.17649295498
 20
4747.807038828691
 30
0.0
 11
10407.17649295498
 21
4747.807038828691
 31
0.0
  0
LINE
  5
17102
330
747D
100
AcDbEntity
  8
部品1
 48
50.0
100
AcDbLine
 10
8867.665403050702
 20
4669.795971320116
 30
0.0
 11
11532.68758285925
 21
4669.79597132012
 31
0.0
  0
LINE
  5
17103
330
747D
100
AcDbEntity
  8
部品1
 48
50.0
100
AcDbLine
 10
10212.17649295498
 20
4767.207038828692
 30
0.0
 11
10214.67649295498
 21
4747.807038828691
 31
0.0
  0
LINE
  5
17104
330
747D
100
AcDbEntity
  8
部品1
 48
50.0
100
AcDbLine
 10
10172.9651527488
 20
4757.80703882869
 30
0.0
 11
10171.67649295498
 21
4747.807038828691
 31
0.0
  0
LINE
  5
17105
330
747D
100
AcDbEntity
  8
部品1
 48
50.0
100
AcDbLine
 10
10172.9651527488
 20
4757.80703882869
 30
0.0
 11
10186.9651527488
 21
4757.80703882869
 31
0.0
  0
LINE
  5
17106
330
747D
100
AcDbEntity
  8
部品1
 48
50.0
100
AcDbLine
 10
10188.17649295498
 20
4767.207038828692
 30
0.0
 11
10186.9651527488
 21
4757.80703882869
 31
0.0
  0
LINE
  5
17107
330
747D
100
AcDbEntity
  8
部品1
 48
50.0
100
AcDbLine
 10
10188.17649295498
 20
4767.207038828692
 30
0.0
 11
10212.17649295498
 21
4767.207038828692
 31
0.0
  0
LINE
  5
17108
330
747D
100
AcDbEntity
  8
部品1
100
AcDbLine
 10
10209.17649295497
 20
4767.207038828692
 30
0.0
 11
10209.17649295497
 21
4669.795971320116
 31
0.0
  0
LINE
  5
17109
330
747D
100
AcDbEntity
  8
部品1
100
AcDbLine
 10
10191.17649295498
 20
4767.207038828681
 30
0.0
 11
10191.17649295498
 21
4669.795971320116
 31
0.0
  0
LINE
  5
1710A
330
747D
100
AcDbEntity
  8
細線
 48
50.0
100
AcDbLine
 10
8885.105864961776
 20
4689.178871568168
 30
0.0
 11
8837.042623677829
 21
4689.178871568176
 31
0.0
  0
LINE
  5
1710B
330
747D
100
AcDbEntity
  8
細線
 48
50.0
100
AcDbLine
 10
8867.665403050699
 20
4717.207038820219
 30
0.0
 11
8867.665403050699
 21
4590.707038820219
 31
0.0
  0
LINE
  5
1710C
330
747D
100
AcDbEntity
  8
細線
 48
50.0
100
AcDbLine
 10
11555.95485062803
 20
4611.480281384003
 30
0.0
 11
8845.060084587501
 21
4611.480281384003
 31
0.0
  0
ARC
  5
1710D
330
747D
100
AcDbEntity
  8
部品1
100
AcDbCircle
 10
8842.162536772194
 20
4765.207038837117
 30
0.0
 40
7.0
100
AcDbArc
 50
90.0
 51
183.6186294801377
  0
LINE
  5
1710E
330
747D
100
AcDbEntity
  8
部品1
100
AcDbLine
 10
8880.105864961777
 20
4772.207038837118
 30
0.0
 11
8842.162536772194
 21
4772.207038837118
 31
0.0
  0
ARC
  5
1710F
330
747D
100
AcDbEntity
  8
部品1
100
AcDbCircle
 10
8880.105864961777
 20
4767.207038837117
 30
0.0
 40
5.0
100
AcDbArc
 50
0.0
 51
90.0
  0
LINE
  5
17110
330
747D
100
AcDbEntity
  8
部品1
 48
50.0
100
AcDbLine
 10
8835.176492954984
 20
4709.76523367763
 30
0.0
 11
8835.176492954984
 21
4764.765233694528
 31
0.0
  0
LINE
  5
17111
330
747D
100
AcDbEntity
  8
部品1
100
AcDbLine
 10
11545.06383829178
 20
4590.707038820219
 30
0.0
 11
8855.289147618165
 21
4590.707038820219
 31
0.0
  0
LINE
  5
17112
330
747D
100
AcDbEntity
  8
部品1
100
AcDbLine
 10
8885.105864961778
 20
4767.207038837117
 30
0.0
 11
8885.105864961776
 21
4669.803010147549
 31
0.0
  0
ARC
  5
17113
330
747D
100
AcDbEntity
  8
部品1
100
AcDbCircle
 10
8880.105864961777
 20
4712.207038820219
 30
0.0
 40
5.0
100
AcDbArc
 50
0.0
 51
90.0
  0
LINE
  5
17114
330
747D
100
AcDbEntity
  8
部品1
100
AcDbLine
 10
8880.105864961777
 20
4717.207038820219
 30
0.0
 11
8842.162536772194
 21
4717.207038820219
 31
0.0
  0
LINE
  5
17115
330
747D
100
AcDbEntity
  8
部品1
100
AcDbLine
 10
8836.43703101355
 20
4689.832975626548
 30
0.0
 11
8835.176492954984
 21
4709.76523367763
 31
0.0
  0
LINE
  5
17116
330
747D
100
AcDbEntity
  8
部品1
100
AcDbLine
 10
8848.303103800954
 20
4597.26523367763
 30
0.0
 11
8847.630778096371
 21
4607.896383881332
 31
0.0
  0
ARC
  5
17117
330
747D
100
AcDbEntity
  8
部品1
100
AcDbCircle
 10
8842.162536772194
 20
4710.207038820219
 30
0.0
 40
7.0
100
AcDbArc
 50
90.0
 51
183.6186294801377
  0
ARC
  5
17118
330
747D
100
AcDbEntity
  8
部品1
100
AcDbCircle
 10
8855.289147618165
 20
4597.707038820219
 30
0.0
 40
7.0
100
AcDbArc
 50
183.6186294801377
 51
270.0
  0
ARC
  5
17119
330
747D
100
AcDbEntity
  8
部品1
100
AcDbCircle
 10
8844.636759317568
 20
4607.707038820219
 30
0.0
 40
3.0
100
AcDbArc
 50
3.618629480137788
 51
90.0
  0
ARC
  5
1711A
330
747D
100
AcDbEntity
  8
部品1
100
AcDbCircle
 10
8845.106055442762
 20
4611.37715614081
 30
0.0
 40
0.7
100
AcDbArc
 50
183.6186294801377
 51
262.7131594833544
  0
LINE
  5
1711B
330
747D
100
AcDbEntity
  8
部品1
100
AcDbLine
 10
8839.660358048881
 20
4686.396383881333
 30
0.0
 11
8844.407451061041
 21
4611.332975626548
 31
0.0
  0
ARC
  5
1711C
330
747D
100
AcDbEntity
  8
部品1
100
AcDbCircle
 10
8836.666339270076
 20
4686.207038820219
 30
0.0
 40
3.0
100
AcDbArc
 50
3.618629480137788
 51
90.0
  0
ARC
  5
1711D
330
747D
100
AcDbEntity
  8
部品1
100
AcDbCircle
 10
8837.13563539527
 20
4689.87715614081
 30
0.0
 40
0.7
100
AcDbArc
 50
183.6186294801377
 51
262.7131594833544
  0
LINE
  5
1711E
330
747D
100
AcDbEntity
  8
部品1
 48
50.0
100
AcDbLine
 10
8880.105864961777
 20
4717.207038820219
 30
0.0
 11
8842.162536772194
 21
4717.207038820219
 31
0.0
  0
LINE
  5
1711F
330
747D
100
AcDbEntity
  8
部品1
100
AcDbLine
 10
10171.67649295498
 20
4747.807038828672
 30
0.0
 11
10060.17649295499
 21
4747.807038828672
 31
0.0
  0
LINE
  5
17120
330
747D
100
AcDbEntity
  8
部品1
100
AcDbLine
 10
11520.24683024961
 20
4772.207038828667
 30
0.0
 11
8859.608653335889
 21
4772.207038828692
 31
0.0
  0
LINE
  5
17121
330
747D
100
AcDbEntity
  8
部品1
 48
50.0
100
AcDbLine
 10
9332.965152748796
 20
4757.80703882869
 30
0.0
 11
9346.965152748795
 21
4757.80703882869
 31
0.0
  0
LINE
  5
17122
330
747D
100
AcDbEntity
  8
部品1
100
AcDbLine
 10
9098.176492954982
 20
4747.807038828687
 30
0.0
 11
8954.676492954982
 21
4747.807038828691
 31
0.0
  0
LINE
  5
17123
330
747D
100
AcDbEntity
  8
部品1
 48
50.0
100
AcDbLine
 10
8952.176492954983
 20
4767.207038828692
 30
0.0
 11
8928.176492954982
 21
4767.207038828692
 31
0.0
  0
LINE
  5
17124
330
747D
100
AcDbEntity
  8
部品1
 48
50.0
100
AcDbLine
 10
8928.176492954982
 20
4767.207038828692
 30
0.0
 11
8926.965152748795
 21
4757.80703882869
 31
0.0
  0
LINE
  5
17125
330
747D
100
AcDbEntity
  8
部品1
 48
50.0
100
AcDbLine
 10
8912.965152748794
 20
4757.80703882869
 30
0.0
 11
8911.676492954983
 21
4747.807038828691
 31
0.0
  0
LINE
  5
17126
330
747D
100
AcDbEntity
  8
部品1
 48
50.0
100
AcDbLine
 10
8912.965152748794
 20
4757.80703882869
 30
0.0
 11
8926.965152748795
 21
4757.80703882869
 31
0.0
  0
LINE
  5
17127
330
747D
100
AcDbEntity
  8
部品1
100
AcDbLine
 10
8911.676492954983
 20
4747.807038828691
 30
0.0
 11
8885.176492954983
 21
4747.807038828691
 31
0.0
  0
LINE
  5
17128
330
747D
100
AcDbEntity
  8
部品1
 48
50.0
100
AcDbLine
 10
8952.176492954983
 20
4767.207038828692
 30
0.0
 11
8954.676492954982
 21
4747.807038828691
 31
0.0
  0
LINE
  5
17129
330
747D
100
AcDbEntity
  8
部品1
100
AcDbLine
 10
8931.176492954989
 20
4767.207038828692
 30
0.0
 11
8931.176492954993
 21
4669.795971320116
 31
0.0
  0
LINE
  5
1712A
330
747D
100
AcDbEntity
  8
部品1
100
AcDbLine
 10
8949.17649295499
 20
4767.207038828681
 30
0.0
 11
8949.17649295499
 21
4669.795971320116
 31
0.0
  0
LINE
  5
1712B
330
747D
100
AcDbEntity
  8
部品1
 48
50.0
100
AcDbLine
 10
9181.676492954983
 20
4767.207038828692
 30
0.0
 11
9171.176492954982
 21
4747.807038828691
 31
0.0
  0
LINE
  5
1712C
330
747D
100
AcDbEntity
  8
部品1
 48
50.0
100
AcDbLine
 10
9108.676492954982
 20
4767.207038828692
 30
0.0
 11
9136.676492954979
 21
4767.207038828692
 31
0.0
  0
LINE
  5
1712D
330
747D
100
AcDbEntity
  8
部品1
 48
50.0
100
AcDbLine
 10
9108.676492954982
 20
4767.207038828692
 30
0.0
 11
9098.176492954982
 21
4747.807038828691
 31
0.0
  0
LINE
  5
1712E
330
747D
100
AcDbEntity
  8
部品1
100
AcDbLine
 10
9110.176492954989
 20
4767.207038828688
 30
0.0
 11
9110.176492954989
 21
4669.795971320116
 31
0.0
  0
LINE
  5
1712F
330
747D
100
AcDbEntity
  8
部品1
 48
50.0
100
AcDbLine
 10
9136.676492954983
 20
4767.207038828692
 30
0.0
 11
9147.176492954983
 21
4747.807038828691
 31
0.0
  0
LINE
  5
17130
330
747D
100
AcDbEntity
  8
部品1
100
AcDbLine
 10
9135.17649295499
 20
4767.207038828688
 30
0.0
 11
9135.176492954991
 21
4669.795971320116
 31
0.0
  0
LINE
  5
17131
330
747D
100
AcDbEntity
  8
部品1
100
AcDbLine
 10
9171.176492954979
 20
4747.807038828687
 30
0.0
 11
9147.176492954983
 21
4747.807038828691
 31
0.0
  0
LINE
  5
17132
330
747D
100
AcDbEntity
  8
部品1
 48
50.0
100
AcDbLine
 10
9332.965152748796
 20
4757.80703882869
 30
0.0
 11
9331.676492954983
 21
4747.807038828691
 31
0.0
  0
LINE
  5
17133
330
747D
100
AcDbEntity
  8
部品1
 48
50.0
100
AcDbLine
 10
9181.676492954983
 20
4767.207038828692
 30
0.0
 11
9209.676492954979
 21
4767.207038828692
 31
0.0
  0
LINE
  5
17134
330
747D
100
AcDbEntity
  8
部品1
 48
50.0
100
AcDbLine
 10
9209.676492954983
 20
4767.207038828692
 30
0.0
 11
9220.176492954982
 21
4747.807038828691
 31
0.0
  0
LINE
  5
17135
330
747D
100
AcDbEntity
  8
部品1
100
AcDbLine
 10
9208.17649295499
 20
4767.207038828688
 30
0.0
 11
9208.17649295499
 21
4669.795971320116
 31
0.0
  0
LINE
  5
17136
330
747D
100
AcDbEntity
  8
部品1
100
AcDbLine
 10
9183.17649295499
 20
4767.207038828688
 30
0.0
 11
9183.17649295499
 21
4669.795971320116
 31
0.0
  0
LINE
  5
17137
330
747D
100
AcDbEntity
  8
部品1
100
AcDbLine
 10
9331.676492954983
 20
4747.807038828687
 30
0.0
 11
9220.176492954982
 21
4747.807038828687
 31
0.0
  0
LINE
  5
17138
330
747D
100
AcDbEntity
  8
部品1
100
AcDbLine
 10
10011.17649295498
 20
4747.807038828687
 30
0.0
 11
9987.176492954983
 21
4747.807038828687
 31
0.0
  0
LINE
  5
17139
330
747D
100
AcDbEntity
  8
部品1
100
AcDbLine
 10
9751.676492954983
 20
4747.807038828687
 30
0.0
 11
9640.176492954983
 21
4747.807038828687
 31
0.0
  0
LINE
  5
1713A
330
747D
100
AcDbEntity
  8
部品1
100
AcDbLine
 10
9518.176492954978
 20
4747.807038828687
 30
0.0
 11
9374.67649295498
 21
4747.807038828687
 31
0.0
  0
LINE
  5
1713B
330
747D
100
AcDbEntity
  8
部品1
 48
50.0
100
AcDbLine
 10
9372.176492954983
 20
4767.207038828692
 30
0.0
 11
9374.676492954982
 21
4747.807038828691
 31
0.0
  0
LINE
  5
1713C
330
747D
100
AcDbEntity
  8
部品1
 48
50.0
100
AcDbLine
 10
9348.176492954982
 20
4767.207038828692
 30
0.0
 11
9346.965152748795
 21
4757.80703882869
 31
0.0
  0
LINE
  5
1713D
330
747D
100
AcDbEntity
  8
部品1
 48
50.0
100
AcDbLine
 10
9372.176492954983
 20
4767.207038828692
 30
0.0
 11
9348.176492954982
 21
4767.207038828692
 31
0.0
  0
LINE
  5
1713E
330
747D
100
AcDbEntity
  8
部品1
100
AcDbLine
 10
9351.176492954989
 20
4767.207038828681
 30
0.0
 11
9351.176492954992
 21
4669.795971320116
 31
0.0
  0
LINE
  5
1713F
330
747D
100
AcDbEntity
  8
部品1
100
AcDbLine
 10
9369.17649295499
 20
4767.207038828681
 30
0.0
 11
9369.176492954991
 21
4669.795971320116
 31
0.0
  0
LINE
  5
17140
330
747D
100
AcDbEntity
  8
部品1
 48
50.0
100
AcDbLine
 10
9601.676492954982
 20
4767.207038828692
 30
0.0
 11
9629.676492954979
 21
4767.207038828692
 31
0.0
  0
LINE
  5
17141
330
747D
100
AcDbEntity
  8
部品1
 48
50.0
100
AcDbLine
 10
9528.676492954984
 20
4767.207038828692
 30
0.0
 11
9556.676492954979
 21
4767.207038828692
 31
0.0
  0
LINE
  5
17142
330
747D
100
AcDbEntity
  8
部品1
 48
50.0
100
AcDbLine
 10
9601.676492954982
 20
4767.207038828692
 30
0.0
 11
9591.176492954984
 21
4747.807038828691
 31
0.0
  0
LINE
  5
17143
330
747D
100
AcDbEntity
  8
部品1
 48
50.0
100
AcDbLine
 10
9556.676492954983
 20
4767.207038828692
 30
0.0
 11
9567.176492954983
 21
4747.807038828691
 31
0.0
  0
LINE
  5
17144
330
747D
100
AcDbEntity
  8
部品1
100
AcDbLine
 10
9591.176492954978
 20
4747.807038828687
 30
0.0
 11
9567.176492954983
 21
4747.807038828687
 31
0.0
  0
LINE
  5
17145
330
747D
100
AcDbEntity
  8
部品1
 48
50.0
100
AcDbLine
 10
9528.676492954984
 20
4767.207038828692
 30
0.0
 11
9518.176492954983
 21
4747.807038828691
 31
0.0
  0
LINE
  5
17146
330
747D
100
AcDbEntity
  8
部品1
100
AcDbLine
 10
9603.176492954991
 20
4767.207038828688
 30
0.0
 11
9603.176492954991
 21
4669.795971320116
 31
0.0
  0
LINE
  5
17147
330
747D
100
AcDbEntity
  8
部品1
100
AcDbLine
 10
9555.17649295499
 20
4767.207038828688
 30
0.0
 11
9555.17649295499
 21
4669.795971320116
 31
0.0
  0
LINE
  5
17148
330
747D
100
AcDbEntity
  8
部品1
100
AcDbLine
 10
9530.176492954991
 20
4767.207038828688
 30
0.0
 11
9530.176492954991
 21
4669.795971320116
 31
0.0
  0
LINE
  5
17149
330
747D
100
AcDbEntity
  8
部品1
 48
50.0
100
AcDbLine
 10
9629.676492954983
 20
4767.207038828692
 30
0.0
 11
9640.176492954983
 21
4747.807038828691
 31
0.0
  0
LINE
  5
1714A
330
747D
100
AcDbEntity
  8
部品1
100
AcDbLine
 10
9628.176492954992
 20
4767.207038828688
 30
0.0
 11
9628.176492954992
 21
4669.795971320116
 31
0.0
  0
LINE
  5
1714B
330
747D
100
AcDbEntity
  8
部品1
100
AcDbLine
 10
9938.17649295498
 20
4747.807038828687
 30
0.0
 11
9794.676492954978
 21
4747.807038828687
 31
0.0
  0
LINE
  5
1714C
330
747D
100
AcDbEntity
  8
部品1
 48
50.0
100
AcDbLine
 10
9792.176492954983
 20
4767.207038828692
 30
0.0
 11
9768.176492954983
 21
4767.207038828692
 31
0.0
  0
LINE
  5
1714D
330
747D
100
AcDbEntity
  8
部品1
 48
50.0
100
AcDbLine
 10
9768.176492954983
 20
4767.207038828692
 30
0.0
 11
9766.965152748795
 21
4757.80703882869
 31
0.0
  0
LINE
  5
1714E
330
747D
100
AcDbEntity
  8
部品1
 48
50.0
100
AcDbLine
 10
9752.965152748796
 20
4757.80703882869
 30
0.0
 11
9766.965152748795
 21
4757.80703882869
 31
0.0
  0
LINE
  5
1714F
330
747D
100
AcDbEntity
  8
部品1
 48
50.0
100
AcDbLine
 10
9752.965152748796
 20
4757.80703882869
 30
0.0
 11
9751.676492954983
 21
4747.807038828691
 31
0.0
  0
LINE
  5
17150
330
747D
100
AcDbEntity
  8
部品1
100
AcDbLine
 10
9771.176492954991
 20
4767.207038828681
 30
0.0
 11
9771.176492954992
 21
4669.795971320116
 31
0.0
  0
LINE
  5
17151
330
747D
100
AcDbEntity
  8
部品1
 48
50.0
100
AcDbLine
 10
9792.176492954983
 20
4767.207038828692
 30
0.0
 11
9794.676492954984
 21
4747.807038828691
 31
0.0
  0
LINE
  5
17152
330
747D
100
AcDbEntity
  8
部品1
100
AcDbLine
 10
9789.176492954991
 20
4767.207038828681
 30
0.0
 11
9789.176492954993
 21
4669.795971320116
 31
0.0
  0
LINE
  5
17153
330
747D
100
AcDbEntity
  8
部品1
 48
50.0
100
AcDbLine
 10
9976.676492954982
 20
4767.207038828692
 30
0.0
 11
9987.176492954983
 21
4747.807038828691
 31
0.0
  0
LINE
  5
17154
330
747D
100
AcDbEntity
  8
部品1
100
AcDbLine
 10
9975.176492954991
 20
4767.207038828688
 30
0.0
 11
9975.176492954991
 21
4669.795971320116
 31
0.0
  0
LINE
  5
17155
330
747D
100
AcDbEntity
  8
部品1
 48
50.0
100
AcDbLine
 10
9948.676492954984
 20
4767.207038828692
 30
0.0
 11
9938.176492954983
 21
4747.807038828691
 31
0.0
  0
LINE
  5
17156
330
747D
100
AcDbEntity
  8
部品1
100
AcDbLine
 10
9950.176492954991
 20
4767.207038828688
 30
0.0
 11
9950.176492954991
 21
4669.795971320116
 31
0.0
  0
LINE
  5
17157
330
747D
100
AcDbEntity
  8
部品1
 48
50.0
100
AcDbLine
 10
9948.676492954984
 20
4767.207038828692
 30
0.0
 11
9976.676492954979
 21
4767.207038828692
 31
0.0
  0
LINE
  5
17158
330
747D
100
AcDbEntity
  8
部品1
 48
50.0
100
AcDbLine
 10
10021.67649295498
 20
4767.207038828692
 30
0.0
 11
10011.17649295498
 21
4747.807038828691
 31
0.0
  0
LINE
  5
17159
330
747D
100
AcDbEntity
  8
部品1
 48
50.0
100
AcDbLine
 10
10049.67649295498
 20
4767.207038828692
 30
0.0
 11
10060.17649295498
 21
4747.807038828691
 31
0.0
  0
LINE
  5
1715A
330
747D
100
AcDbEntity
  8
部品1
 48
50.0
100
AcDbLine
 10
10021.67649295498
 20
4767.207038828692
 30
0.0
 11
10049.67649295498
 21
4767.207038828692
 31
0.0
  0
LINE
  5
1715B
330
747D
100
AcDbEntity
  8
部品1
100
AcDbLine
 10
10023.17649295499
 20
4767.207038828688
 30
0.0
 11
10023.17649295499
 21
4669.795971320116
 31
0.0
  0
LINE
  5
1715C
330
747D
100
AcDbEntity
  8
部品1
100
AcDbLine
 10
10048.17649295499
 20
4767.207038828688
 30
0.0
 11
10048.17649295499
 21
4669.795971320116
 31
0.0
  0
DIMENSION
  5
1715D
330
747D
100
AcDbEntity
  8
寸法
 48
50.0
100
AcDbDimension
  2
*D15
 10
11565.17649295497
 20
5387.826307778137
 30
0.0
 11
10200.17649295497
 21
5387.826307778137
 31
0.0
 70
   160
 71
     5
 42
2729.999999999999
  3
INABA_S40G
100
AcDbAlignedDimension
 13
8835.176492954976
 23
4772.207038820222
 33
0.0
 14
11565.17649295497
 24
4772.207038820222
 34
0.0
100
AcDbRotatedDimension
  0
DIMENSION
  5
1715E
330
747D
100
AcDbEntity
  8
寸法
 48
50.0
100
AcDbDimension
  2
*D16
 10
8835.176492954976
 20
5171.300208159693
 30
0.0
 11
8521.691211580728
 21
5171.300208159693
 31
0.0
 70
   160
 71
     5
 42
50.0
  3
INABA_S40G
100
AcDbAlignedDimension
 13
8885.176492954975
 23
4772.207038820226
 33
0.0
 14
8835.176492954976
 24
4772.207038820222
 34
0.0
100
AcDbRotatedDimension
1001
ACAD
1000
DSTYLE
1002
{
1002
}
  0
DIMENSION
  5
1715F
330
747D
100
AcDbEntity
  8
寸法
 48
50.0
100
AcDbDimension
  2
*D17
 10
8885.176492954975
 20
5171.300208159689
 30
0.0
 11
10200.17649295497
 21
5171.300208159689
 31
0.0
 70
   160
  1
柱外寸法<>
 71
     5
 42
2629.999999999999
  3
INABA_S40G
100
AcDbAlignedDimension
 13
11515.17649295497
 23
4772.207038820222
 33
0.0
 14
8885.176492954975
 24
4772.207038820226
 34
0.0
100
AcDbRotatedDimension
  0
LINE
  5
17210
330
747D
100
AcDbEntity
  8
部品1
 48
50.0
100
AcDbLine
 10
10167.17649295497
 20
4480.207038844986
 30
0.0
 11
10167.17649295497
 21
2447.207038820216
 31
0.0
  0
LINE
  5
17211
330
747D
100
AcDbEntity
  8
部品1
100
AcDbLine
 10
10821.17648325983
 20
4480.20703885737
 30
0.0
 11
10821.17648325983
 21
2454.707038857385
 31
0.0
  0
LINE
  5
17212
330
747D
100
AcDbEntity
  8
細線
100
AcDbLine
 10
10067.17649295497
 20
4480.207038820219
 30
0.0
 11
10067.17649295497
 21
2447.207038820227
 31
0.0
  0
LINE
  5
17213
330
747D
100
AcDbEntity
  8
細線
100
AcDbLine
 10
9997.176492954977
 20
4480.207038820219
 30
0.0
 11
9997.176492954974
 21
2447.207038820227
 31
0.0
  0
LINE
  5
17214
330
747D
100
AcDbEntity
  8
細線
100
AcDbLine
 10
9927.176492954977
 20
4480.207038820219
 30
0.0
 11
9927.176492954973
 21
2447.207038820223
 31
0.0
  0
LINE
  5
17215
330
747D
100
AcDbEntity
  8
細線
100
AcDbLine
 10
9857.176492954977
 20
4480.207038820219
 30
0.0
 11
9857.176492954975
 21
2447.207038820223
 31
0.0
  0
LINE
  5
17216
330
747D
100
AcDbEntity
  8
細線
100
AcDbLine
 10
9787.176492954976
 20
4480.207038820219
 30
0.0
 11
9787.176492954975
 21
2447.207038820223
 31
0.0
  0
LINE
  5
17217
330
747D
100
AcDbEntity
  8
細線
100
AcDbLine
 10
9717.176492954978
 20
4480.207038820219
 30
0.0
 11
9717.176492954974
 21
2447.207038820223
 31
0.0
  0
LINE
  5
17218
330
747D
100
AcDbEntity
  8
部品1
100
AcDbLine
 10
9533.176492954973
 20
4480.207038820219
 30
0.0
 11
9533.176492954977
 21
2447.207038820223
 31
0.0
  0
LINE
  5
17219
330
747D
100
AcDbEntity
  8
部品1
100
AcDbLine
 10
9483.176492954973
 20
4480.207038820219
 30
0.0
 11
9483.176492954978
 21
2447.207038820223
 31
0.0
  0
LINE
  5
1721A
330
747D
100
AcDbEntity
  8
細線
100
AcDbLine
 10
9525.176492954974
 20
4480.207038820219
 30
0.0
 11
9525.176492954978
 21
2447.207038820223
 31
0.0
  0
LINE
  5
1721B
330
747D
100
AcDbEntity
  8
細線
100
AcDbLine
 10
9491.176492954974
 20
4480.207038820219
 30
0.0
 11
9491.176492954977
 21
2447.207038820223
 31
0.0
  0
LINE
  5
1721C
330
747D
100
AcDbEntity
  8
細線
100
AcDbLine
 10
10718.67650270522
 20
4480.207038820219
 30
0.0
 11
10718.67650270522
 21
2454.70703882023
 31
0.0
  0
LINE
  5
1721D
330
747D
100
AcDbEntity
  8
細線
100
AcDbLine
 10
10648.67650270522
 20
4480.207038820219
 30
0.0
 11
10648.67650270522
 21
2454.70703882023
 31
0.0
  0
LINE
  5
1721E
330
747D
100
AcDbEntity
  8
細線
100
AcDbLine
 10
10578.67650270522
 20
4480.207038820219
 30
0.0
 11
10578.67650270522
 21
2454.70703882023
 31
0.0
  0
LINE
  5
1721F
330
747D
100
AcDbEntity
  8
細線
100
AcDbLine
 10
10508.67650270522
 20
4480.207038820219
 30
0.0
 11
10508.67650270522
 21
2454.70703882023
 31
0.0
  0
LINE
  5
17220
330
747D
100
AcDbEntity
  8
細線
100
AcDbLine
 10
10438.67650270522
 20
4480.207038820219
 30
0.0
 11
10438.67650270522
 21
2454.70703882023
 31
0.0
  0
LINE
  5
17221
330
747D
100
AcDbEntity
  8
細線
100
AcDbLine
 10
10368.67650270522
 20
4480.207038820219
 30
0.0
 11
10368.67650270522
 21
2454.70703882023
 31
0.0
  0
LINE
  5
17222
330
747D
100
AcDbEntity
  8
細線
100
AcDbLine
 10
11293.92649295498
 20
4480.207038820219
 30
0.0
 11
11293.92649295498
 21
2454.707038820238
 31
0.0
  0
LINE
  5
17223
330
747D
100
AcDbEntity
  8
細線
100
AcDbLine
 10
11223.92649295498
 20
4480.207038820219
 30
0.0
 11
11223.92649295498
 21
2454.707038820238
 31
0.0
  0
LINE
  5
17224
330
747D
100
AcDbEntity
  8
細線
100
AcDbLine
 10
11153.92649295498
 20
4480.207038820219
 30
0.0
 11
11153.92649295498
 21
2454.707038820238
 31
0.0
  0
LINE
  5
17225
330
747D
100
AcDbEntity
  8
細線
100
AcDbLine
 10
11083.92649295498
 20
4480.207038820219
 30
0.0
 11
11083.92649295498
 21
2454.707038820238
 31
0.0
  0
LINE
  5
17226
330
747D
100
AcDbEntity
  8
細線
100
AcDbLine
 10
11013.92649295498
 20
4480.207038820219
 30
0.0
 11
11013.92649295498
 21
2454.707038820238
 31
0.0
  0
LINE
  5
17227
330
747D
100
AcDbEntity
  8
細線
100
AcDbLine
 10
9647.176492954978
 20
4480.207038820219
 30
0.0
 11
9647.176492954974
 21
2447.207038820223
 31
0.0
  0
LINE
  5
17228
330
747D
100
AcDbEntity
  8
細線
100
AcDbLine
 10
9577.176492954977
 20
4480.207038820219
 30
0.0
 11
9577.176492954974
 21
2447.207038820223
 31
0.0
  0
LINE
  5
17229
330
747D
100
AcDbEntity
  8
細線
100
AcDbLine
 10
10298.67650270522
 20
4480.207038820219
 30
0.0
 11
10298.67650270522
 21
2454.70703882023
 31
0.0
  0
LINE
  5
1722A
330
747D
100
AcDbEntity
  8
細線
100
AcDbLine
 10
10228.67650270522
 20
4480.207038820219
 30
0.0
 11
10228.67650270522
 21
2454.70703882023
 31
0.0
  0
LINE
  5
1722B
330
747D
100
AcDbEntity
  8
細線
100
AcDbLine
 10
10943.92649295498
 20
4480.207038820219
 30
0.0
 11
10943.92649295498
 21
2454.707038820238
 31
0.0
  0
LINE
  5
1722C
330
747D
100
AcDbEntity
  8
部品1
 48
50.0
100
AcDbLine
 10
11487.17649295498
 20
4488.207038820219
 30
0.0
 11
11457.17649295497
 21
4488.207038820219
 31
0.0
  0
LINE
  5
1722D
330
747D
100
AcDbEntity
  8
細線
 48
50.0
100
AcDbLine
 10
11435.17649295497
 20
2444.207038820219
 30
0.0
 11
11431.17649295497
 21
2454.707038820219
 31
0.0
  0
LINE
  5
1722E
330
747D
100
AcDbEntity
  8
部品1
 48
50.0
100
AcDbLine
 10
10821.17648325984
 20
4480.207038857367
 30
0.0
 11
10821.17648325984
 21
2454.707038857367
 31
0.0
  0
LINE
  5
1722F
330
747D
100
AcDbEntity
  8
部品1
 48
50.0
100
AcDbLine
 10
11487.17649295498
 20
2397.207038820219
 30
0.0
 11
11487.17649295498
 21
4532.207038820219
 31
0.0
  0
LINE
  5
17230
330
747D
100
AcDbEntity
  8
細線
 48
50.0
100
AcDbLine
 10
11457.17649295497
 20
2397.207038820219
 30
0.0
 11
11457.17649295497
 21
4489.70703882022
 31
0.0
  0
LINE
  5
17231
330
747D
100
AcDbEntity
  8
部品1
 48
50.0
100
AcDbLine
 10
11448.17649295498
 20
2444.207038820219
 30
0.0
 11
11448.17649295498
 21
4480.207038820219
 31
0.0
  0
LINE
  5
17232
330
747D
100
AcDbEntity
  8
部品1
 48
50.0
100
AcDbLine
 10
9363.176492954977
 20
4488.207038820219
 30
0.0
 11
9333.176492954978
 21
4488.207038820219
 31
0.0
  0
LINE
  5
17233
330
747D
100
AcDbEntity
  8
部品1
 48
50.0
100
AcDbLine
 10
9372.176492954977
 20
2447.207038820219
 30
0.0
 11
9372.176492954977
 21
2444.207038820219
 31
0.0
  0
LINE
  5
17234
330
747D
100
AcDbEntity
  8
部品1
 48
50.0
100
AcDbLine
 10
9363.176492954977
 20
2447.207038820219
 30
0.0
 11
10167.17649295497
 21
2447.207038820216
 31
0.0
  0
LINE
  5
17235
330
747D
100
AcDbEntity
  8
部品1
 48
50.0
100
AcDbLine
 10
10167.17649295497
 20
4480.207038844986
 30
0.0
 11
10167.17649295497
 21
2447.207038844986
 31
0.0
  0
LINE
  5
17236
330
747D
100
AcDbEntity
  8
部品1
 48
50.0
100
AcDbLine
 10
9333.176492954978
 20
4532.207038820219
 30
0.0
 11
9333.176492954978
 21
2397.207038820219
 31
0.0
  0
LINE
  5
17237
330
747D
100
AcDbEntity
  8
細線
 48
50.0
100
AcDbLine
 10
9363.176492954977
 20
4489.70703882022
 30
0.0
 11
9363.176492954977
 21
2397.207038820219
 31
0.0
  0
LINE
  5
17238
330
747D
100
AcDbEntity
  8
部品1
 48
50.0
100
AcDbLine
 10
9363.176492954977
 20
2447.207038820219
 30
0.0
 11
9363.176492954977
 21
4480.207038820219
 31
0.0
  0
LINE
  5
17239
330
747D
100
AcDbEntity
  8
細線
 48
50.0
100
AcDbLine
 10
10167.17649295497
 20
2454.707038820219
 30
0.0
 11
11431.17649295497
 21
2454.707038820219
 31
0.0
  0
LINE
  5
1723A
330
747D
100
AcDbEntity
  8
細線
 48
50.0
100
AcDbLine
 10
9363.176492954977
 20
2444.207038820219
 30
0.0
 11
11457.17649295497
 21
2444.207038820219
 31
0.0
  0
LINE
  5
1723B
330
747D
100
AcDbEntity
  8
細線
 48
50.0
100
AcDbLine
 10
9363.176492954977
 20
2440.207038820219
 30
0.0
 11
11457.17649295497
 21
2440.207038820219
 31
0.0
  0
LINE
  5
1723C
330
747D
100
AcDbEntity
  8
部品1
 48
50.0
100
AcDbLine
 10
9333.176492954978
 20
2397.207038820219
 30
0.0
 11
11487.17649295498
 21
2397.207038820219
 31
0.0
  0
LINE
  5
1723D
330
747D
100
AcDbEntity
  8
細線
 48
50.0
100
AcDbLine
 10
11457.17649295497
 20
4489.70703882022
 30
0.0
 11
9363.176492954977
 21
4489.70703882022
 31
0.0
  0
LINE
  5
1723E
330
747D
100
AcDbEntity
  8
細線
 48
50.0
100
AcDbLine
 10
11457.17649295497
 20
4480.207038820219
 30
0.0
 11
9363.176492954977
 21
4480.207038820219
 31
0.0
  0
LINE
  5
1723F
330
747D
100
AcDbEntity
  8
細線
 48
50.0
100
AcDbLine
 10
11487.17649295498
 20
4522.207038820218
 30
0.0
 11
9333.176492954978
 21
4522.207038820218
 31
0.0
  0
LINE
  5
17240
330
747D
100
AcDbEntity
  8
部品1
 48
50.0
100
AcDbLine
 10
11487.17649295498
 20
4532.207038820219
 30
0.0
 11
9333.176492954978
 21
4532.207038820219
 31
0.0
  0
MTEXT
  5
1725E
330
747D
100
AcDbEntity
  8
寸法
 62
     7
 48
50.0
100
AcDbMText
 10
10865.27903004812
 20
9519.17438100528
 30
0.0
 40
96.0
 41
0.0
 71
     5
 72
     1
  1
棚 3段
  7
STYLE1
 73
     1
 44
1.0
1001
ACAD
1000
MTEXTBEGIN
1070
    73
1070
     1
1070
    44
1040
1.0
1070
    74
1070
     0
1000
MTEXTEND
  0
MTEXT
  5
1725F
330
747D
100
AcDbEntity
  8
寸法
 62
     7
 48
50.0
100
AcDbMText
 10
9565.27903004809
 20
9519.174381005255
 30
0.0
 40
96.0
 41
0.0
 71
     5
 72
     1
  1
棚 3段
  7
STYLE1
 73
     1
 44
1.0
1001
ACAD
1000
MTEXTBEGIN
1070
    73
1070
     1
1070
    44
1040
1.0
1070
    74
1070
     0
1000
MTEXTEND
  0
TEXT
  5
17260
330
747D
100
AcDbEntity
  8
文字
 62
     7
 48
50.0
100
AcDbText
 10
13209.4053442172
 20
243.7062907158852
 30
0.0
 40
100.0
  1
○有効開口寸法 ： 1266×2025(mm)
  7
STYLE2
100
AcDbText
  0
TEXT
  5
17261
330
747D
100
AcDbEntity
  8
文字
 62
     7
 48
50.0
100
AcDbText
 10
14491.96323844892
 20
483.8967129911416
 30
0.0
 40
160.0
  1
ＮＸＮ－６０ＨＡ
  7
STYLE2
100
AcDbText
  0
TEXT
  5
17262
330
747D
100
AcDbEntity
  8
文字
 62
     7
 48
50.0
100
AcDbText
 10
14798.72402257234
 20
9740.013745883729
 30
0.0
 40
100.0
  1
F12(一般型1.2/多雪地型2.3)
  7
STYLE1
100
AcDbText
  0
TEXT
  5
17263
330
747D
100
AcDbEntity
  8
文字
 62
     7
 48
50.0
100
AcDbText
 10
13248.77747366447
 20
8380.013745883728
 30
0.0
 40
100.0
  1
17
  7
STYLE1
100
AcDbText
  0
TEXT
  5
17264
330
747D
100
AcDbEntity
  8
文字
 62
     7
 48
50.0
100
AcDbText
 10
13248.77747366447
 20
8550.013745883729
 30
0.0
 40
100.0
  1
16
  7
STYLE1
100
AcDbText
  0
TEXT
  5
17265
330
747D
100
AcDbEntity
  8
文字
 62
     7
 48
50.0
100
AcDbText
 10
15022.63965474517
 20
9060.013745883729
 30
0.0
 40
100.0
  1
F12            1.0
  7
STYLE1
100
AcDbText
  0
TEXT
  5
17266
330
747D
100
AcDbEntity
  8
文字
 62
     7
 48
50.0
100
AcDbText
 10
13583.11819016569
 20
9060.013745883736
 30
0.0
 40
100.0
  1
壁面扉枠左右
  7
STYLE1
100
AcDbText
  0
TEXT
  5
17267
330
747D
100
AcDbEntity
  8
文字
 62
     7
 48
50.0
100
AcDbText
 10
15022.63965474517
 20
9230.013745883729
 30
0.0
 40
100.0
  1
F12            1.0
  7
STYLE1
100
AcDbText
  0
TEXT
  5
17268
330
747D
100
AcDbEntity
  8
文字
 62
     7
 48
50.0
100
AcDbText
 10
15022.63965474515
 20
9400.013745883729
 30
0.0
 40
100.0
  1
F12            0.7
  7
STYLE1
100
AcDbText
  0
TEXT
  5
17269
330
747D
100
AcDbEntity
  8
文字
 62
     7
 48
50.0
100
AcDbText
 10
13583.11819016569
 20
9230.013745883736
 30
0.0
 40
100.0
  1
壁面扉敷居
  7
STYLE1
100
AcDbText
  0
TEXT
  5
1726A
330
747D
100
AcDbEntity
  8
文字
 62
     7
 48
50.0
100
AcDbText
 10
13583.11819016569
 20
9400.013745883729
 30
0.0
 40
100.0
  1
壁面扉鴨居
  7
STYLE1
100
AcDbText
  0
LINE
  5
1726B
330
747D
100
AcDbEntity
  8
仕様書枠
 48
50.0
100
AcDbLine
 10
16307.19999999999
 20
8689.600000000007
 30
0.0
 11
13127.2
 21
8689.600000000007
 31
0.0
  0
LINE
  5
1726C
330
747D
100
AcDbEntity
  8
仕様書枠
 48
50.0
100
AcDbLine
 10
16307.19999999999
 20
8519.600000000009
 30
0.0
 11
13127.2
 21
8519.600000000009
 31
0.0
  0
TEXT
  5
1726D
330
747D
100
AcDbEntity
  8
文字
 62
     7
 48
50.0
100
AcDbText
 10
13583.11819016569
 20
8380.013745883728
 30
0.0
 40
100.0
  1
アンカープレート
  7
STYLE1
100
AcDbText
  0
TEXT
  5
1726E
330
747D
100
AcDbEntity
  8
文字
 62
     7
 48
50.0
100
AcDbText
 10
15022.63965474515
 20
8380.013745883726
 30
0.0
 40
100.0
  1
F12            2.3
  7
STYLE1
100
AcDbText
  0
LINE
  5
1726F
330
747D
100
AcDbEntity
  8
仕様書枠
 48
50.0
100
AcDbLine
 10
16307.2
 20
10049.6
 30
0.0
 11
13127.2
 21
10049.6
 31
0.0
  0
LINE
  5
17270
330
747D
100
AcDbEntity
  8
仕様書枠
 48
50.0
100
AcDbLine
 10
16307.2
 20
11409.6
 30
0.0
 11
13127.2
 21
11409.6
 31
0.0
  0
LINE
  5
17271
330
747D
100
AcDbEntity
  8
仕様書枠
 48
50.0
100
AcDbLine
 10
16307.19999999999
 20
8009.600000000007
 30
0.0
 11
16307.2
 21
11409.6
 31
0.0
  0
LINE
  5
17272
330
747D
100
AcDbEntity
  8
仕様書枠
 48
50.0
100
AcDbLine
 10
14785.2
 20
11409.6
 30
0.0
 11
14785.2
 21
8349.600000000007
 31
0.0
  0
LINE
  5
17273
330
747D
100
AcDbEntity
  8
仕様書枠
 48
50.0
100
AcDbLine
 10
13490.2
 20
11409.6
 30
0.0
 11
13490.20000000001
 21
8349.600000000007
 31
0.0
  0
LINE
  5
17274
330
747D
100
AcDbEntity
  8
仕様書枠
 48
50.0
100
AcDbLine
 10
16307.2
 20
11239.6
 30
0.0
 11
13127.2
 21
11239.6
 31
0.0
  0
LINE
  5
17275
330
747D
100
AcDbEntity
  8
仕様書枠
 48
50.0
100
AcDbLine
 10
16307.2
 20
10899.6
 30
0.0
 11
13127.2
 21
10899.6
 31
0.0
  0
LINE
  5
17276
330
747D
100
AcDbEntity
  8
仕様書枠
 48
50.0
100
AcDbLine
 10
16307.2
 20
11069.6
 30
0.0
 11
13127.2
 21
11069.6
 31
0.0
  0
LINE
  5
17277
330
747D
100
AcDbEntity
  8
仕様書枠
 48
50.0
100
AcDbLine
 10
16307.19999999999
 20
10559.6
 30
0.0
 11
13127.2
 21
10559.6
 31
0.0
  0
LINE
  5
17278
330
747D
100
AcDbEntity
  8
仕様書枠
 48
50.0
100
AcDbLine
 10
16307.19999999999
 20
10389.6
 30
0.0
 11
13127.2
 21
10389.6
 31
0.0
  0
LINE
  5
17279
330
747D
100
AcDbEntity
  8
仕様書枠
 48
50.0
100
AcDbLine
 10
16307.19999999999
 20
10729.6
 30
0.0
 11
13127.2
 21
10729.6
 31
0.0
  0
TEXT
  5
1727A
330
747D
100
AcDbEntity
  8
文字
 62
     7
 48
50.0
100
AcDbText
 10
13197.42518560407
 20
11270.01374588373
 30
0.0
 40
100.0
  1
品番
  7
STYLE1
100
AcDbText
  0
TEXT
  5
1727B
330
747D
100
AcDbEntity
  8
文字
 62
     7
 48
50.0
100
AcDbText
 10
13271.19032244792
 20
11100.01374588373
 30
0.0
 40
100.0
  1
1
  7
STYLE1
100
AcDbText
  0
TEXT
  5
1727C
330
747D
100
AcDbEntity
  8
文字
 62
     7
 48
50.0
100
AcDbText
 10
13271.19032244792
 20
10930.01374588373
 30
0.0
 40
100.0
  1
2
  7
STYLE1
100
AcDbText
  0
TEXT
  5
1727D
330
747D
100
AcDbEntity
  8
文字
 62
     7
 48
50.0
100
AcDbText
 10
13271.19032244792
 20
10590.01374588373
 30
0.0
 40
100.0
  1
4
  7
STYLE1
100
AcDbText
  0
TEXT
  5
1727E
330
747D
100
AcDbEntity
  8
文字
 62
     7
 48
50.0
100
AcDbText
 10
13271.19032244792
 20
10760.01374588373
 30
0.0
 40
100.0
  1
3
  7
STYLE1
100
AcDbText
  0
TEXT
  5
1727F
330
747D
100
AcDbEntity
  8
文字
 62
     7
 48
50.0
100
AcDbText
 10
13732.03840939434
 20
11270.01374588373
 30
0.0
 40
100.0
  1
部　　品　　名
  7
STYLE1
100
AcDbText
  0
TEXT
  5
17280
330
747D
100
AcDbEntity
  8
文字
 62
     7
 48
50.0
100
AcDbText
 10
14859.79774614482
 20
11270.01374588373
 30
0.0
 40
100.0
  1
材料（材質）　　単位mm
  7
STYLE1
100
AcDbText
  0
TEXT
  5
17281
330
747D
100
AcDbEntity
  8
文字
 62
     7
 48
50.0
100
AcDbText
 10
13583.11819016569
 20
11100.01374588373
 30
0.0
 40
100.0
  1
土台枠
  7
STYLE1
100
AcDbText
  0
TEXT
  5
17282
330
747D
100
AcDbEntity
  8
文字
 62
     7
 48
50.0
100
AcDbText
 10
13583.1181901657
 20
10760.01374588373
 30
0.0
 40
100.0
  1
柱
  7
STYLE1
100
AcDbText
  0
TEXT
  5
17283
330
747D
100
AcDbEntity
  8
文字
 62
     7
 48
50.0
100
AcDbText
 10
13583.11819016569
 20
10420.01374588373
 30
0.0
 40
100.0
  1
桁前後
  7
STYLE1
100
AcDbText
  0
TEXT
  5
17284
330
747D
100
AcDbEntity
  8
文字
 62
     7
 48
50.0
100
AcDbText
 10
13271.19032244792
 20
10420.01374588373
 30
0.0
 40
100.0
  1
5
  7
STYLE1
100
AcDbText
  0
TEXT
  5
17285
330
747D
100
AcDbEntity
  8
文字
 62
     7
 48
50.0
100
AcDbText
 10
13583.11819016569
 20
10250.01374588373
 30
0.0
 40
100.0
  1
妻板左右
  7
STYLE1
100
AcDbText
  0
TEXT
  5
17286
330
747D
100
AcDbEntity
  8
文字
 62
     7
 48
50.0
100
AcDbText
 10
13248.77747366447
 20
9570.013745883729
 30
0.0
 40
100.0
  1
10
  7
STYLE1
100
AcDbText
  0
TEXT
  5
17287
330
747D
100
AcDbEntity
  8
文字
 62
     7
 48
50.0
100
AcDbText
 10
13583.11819016568
 20
9570.013745883729
 30
0.0
 40
100.0
  1
壁パネル
  7
STYLE1
100
AcDbText
  0
TEXT
  5
17288
330
747D
100
AcDbEntity
  8
文字
 62
     7
 48
50.0
100
AcDbText
 10
13583.11819016569
 20
9910.01374588373
 30
0.0
 40
100.0
  1
屋根パネル
  7
STYLE1
100
AcDbText
  0
TEXT
  5
17289
330
747D
100
AcDbEntity
  8
文字
 62
     7
 48
50.0
100
AcDbText
 10
13583.11819016569
 20
10080.01374588373
 30
0.0
 40
100.0
  1
鼻隠シ前後
  7
STYLE1
100
AcDbText
  0
TEXT
  5
1728A
330
747D
100
AcDbEntity
  8
文字
 62
     7
 48
50.0
100
AcDbText
 10
13271.19032244792
 20
9910.01374588373
 30
0.0
 40
100.0
  1
8
  7
STYLE1
100
AcDbText
  0
TEXT
  5
1728B
330
747D
100
AcDbEntity
  8
文字
 62
     7
 48
50.0
100
AcDbText
 10
13271.19032244792
 20
9740.013745883729
 30
0.0
 40
100.0
  1
9
  7
STYLE1
100
AcDbText
  0
TEXT
  5
1728C
330
747D
100
AcDbEntity
  8
文字
 62
     7
 48
50.0
100
AcDbText
 10
13271.19032244792
 20
10080.01374588373
 30
0.0
 40
100.0
  1
7
  7
STYLE1
100
AcDbText
  0
TEXT
  5
1728D
330
747D
100
AcDbEntity
  8
文字
 62
     7
 48
50.0
100
AcDbText
 10
13271.19032244792
 20
10250.01374588373
 30
0.0
 40
100.0
  1
6
  7
STYLE1
100
AcDbText
  0
LINE
  5
1728E
330
747D
100
AcDbEntity
  8
仕様書枠
 48
50.0
100
AcDbLine
 10
16307.19999999999
 20
9709.600000000001
 30
0.0
 11
13127.2
 21
9709.600000000001
 31
0.0
  0
LINE
  5
1728F
330
747D
100
AcDbEntity
  8
仕様書枠
 48
50.0
100
AcDbLine
 10
16307.19999999999
 20
9369.600000000001
 30
0.0
 11
13127.2
 21
9369.600000000001
 31
0.0
  0
LINE
  5
17290
330
747D
100
AcDbEntity
  8
仕様書枠
 48
50.0
100
AcDbLine
 10
16307.19999999999
 20
9539.6
 30
0.0
 11
13127.2
 21
9539.6
 31
0.0
  0
LINE
  5
17291
330
747D
100
AcDbEntity
  8
仕様書枠
 48
50.0
100
AcDbLine
 10
16307.2
 20
10219.6
 30
0.0
 11
13127.2
 21
10219.6
 31
0.0
  0
LINE
  5
17292
330
747D
100
AcDbEntity
  8
仕様書枠
 48
50.0
100
AcDbLine
 10
16307.2
 20
9879.600000000001
 30
0.0
 11
13127.2
 21
9879.600000000001
 31
0.0
  0
TEXT
  5
17293
330
747D
100
AcDbEntity
  8
文字
 62
     7
 48
50.0
100
AcDbText
 10
13248.77747366447
 20
9400.013745883729
 30
0.0
 40
100.0
  1
11
  7
STYLE1
100
AcDbText
  0
LINE
  5
17294
330
747D
100
AcDbEntity
  8
仕様書枠
 48
50.0
100
AcDbLine
 10
16307.19999999999
 20
9199.600000000001
 30
0.0
 11
13127.2
 21
9199.600000000001
 31
0.0
  0
LINE
  5
17295
330
747D
100
AcDbEntity
  8
仕様書枠
 48
50.0
100
AcDbLine
 10
16307.19999999999
 20
8859.6
 30
0.0
 11
13127.2
 21
8859.600000000005
 31
0.0
  0
TEXT
  5
17296
330
747D
100
AcDbEntity
  8
文字
 62
     7
 48
50.0
100
AcDbText
 10
13248.77747366448
 20
9060.013745883729
 30
0.0
 40
100.0
  1
13
  7
STYLE1
100
AcDbText
  0
TEXT
  5
17297
330
747D
100
AcDbEntity
  8
文字
 62
     7
 48
50.0
100
AcDbText
 10
13248.77747366448
 20
9230.013745883729
 30
0.0
 40
100.0
  1
12
  7
STYLE1
100
AcDbText
  0
TEXT
  5
17298
330
747D
100
AcDbEntity
  8
文字
 62
     7
 48
50.0
100
AcDbText
 10
15022.63965474517
 20
11100.01374588373
 30
0.0
 40
100.0
  1
F12            1.2
  7
STYLE1
100
AcDbText
  0
TEXT
  5
17299
330
747D
100
AcDbEntity
  8
文字
 62
     7
 48
50.0
100
AcDbText
 10
15022.63965474518
 20
10760.01374588373
 30
0.0
 40
100.0
  1
F12            1.0
  7
STYLE1
100
AcDbText
  0
TEXT
  5
1729A
330
747D
100
AcDbEntity
  8
文字
 62
     7
 48
50.0
100
AcDbText
 10
15022.63965474516
 20
10420.01374588373
 30
0.0
 40
100.0
  1
Y10            1.0
  7
STYLE1
100
AcDbText
  0
TEXT
  5
1729B
330
747D
100
AcDbEntity
  8
文字
 62
     7
 48
50.0
100
AcDbText
 10
15022.63965474516
 20
10250.01374588373
 30
0.0
 40
100.0
  1
Y10            0.7
  7
STYLE1
100
AcDbText
  0
TEXT
  5
1729C
330
747D
100
AcDbEntity
  8
文字
 62
     7
 48
50.0
100
AcDbText
 10
15022.63965474516
 20
10080.01374588373
 30
0.0
 40
100.0
  1
Y10            0.7
  7
STYLE1
100
AcDbText
  0
TEXT
  5
1729D
330
747D
100
AcDbEntity
  8
文字
 62
     7
 48
50.0
100
AcDbText
 10
15022.63965474517
 20
9910.01374588373
 30
0.0
 40
100.0
  1
Y10            0.5
  7
STYLE1
100
AcDbText
  0
TEXT
  5
1729E
330
747D
100
AcDbEntity
  8
文字
 62
     7
 48
50.0
100
AcDbText
 10
15022.63965474515
 20
9570.013745883729
 30
0.0
 40
100.0
  1
F12            0.7
  7
STYLE1
100
AcDbText
  0
LINE
  5
1729F
330
747D
100
AcDbEntity
  8
仕様書枠
 48
50.0
100
AcDbLine
 10
16307.19999999999
 20
8349.600000000007
 30
0.0
 11
13127.19999999999
 21
8349.600000000007
 31
0.0
  0
LINE
  5
172A0
330
747D
100
AcDbEntity
  8
仕様書枠
 48
50.0
100
AcDbLine
 10
16307.19999999999
 20
8179.600000000007
 30
0.0
 11
13127.19999999999
 21
8179.600000000007
 31
0.0
  0
TEXT
  5
172A1
330
747D
100
AcDbEntity
  8
文字
 62
     7
 48
50.0
100
AcDbText
 10
13229.83081656554
 20
8210.013745883737
 30
0.0
 40
100.0
  1
F12→溶融亜鉛めっき鋼板(JIS G 3302)
  7
STYLE1
100
AcDbText
  0
TEXT
  5
172A2
330
747D
100
AcDbEntity
  8
文字
 62
     7
 48
50.0
100
AcDbText
 10
13229.83081656554
 20
8040.013745883737
 30
0.0
 40
100.0
  1
Y10→溶融亜鉛-5％アルミニウム合金めっき鋼板(JIS G 3317)
 41
0.9
  7
STYLE1
100
AcDbText
  0
LINE
  5
172A3
330
747D
100
AcDbEntity
  8
仕様書枠
 48
50.0
100
AcDbLine
 10
13127.2
 20
11409.6
 30
0.0
 11
13127.19999999999
 21
8009.600000000007
 31
0.0
  0
LINE
  5
172A4
330
747D
100
AcDbEntity
  8
仕様書枠
 48
50.0
100
AcDbLine
 10
16307.19999999999
 20
9029.6
 30
0.0
 11
13127.2
 21
9029.600000000003
 31
0.0
  0
TEXT
  5
172A5
330
747D
100
AcDbEntity
  8
文字
 62
     7
 48
50.0
100
AcDbText
 10
13583.1181901657
 20
10590.01374588373
 30
0.0
 40
100.0
  1
床パネル
 41
0.9
  7
STYLE1
100
AcDbText
  0
TEXT
  5
172A6
330
747D
100
AcDbEntity
  8
文字
 62
     7
 48
50.0
100
AcDbText
 10
13583.11819016569
 20
10930.01374588373
 30
0.0
 40
100.0
  1
根太
  7
STYLE1
100
AcDbText
  0
TEXT
  5
172A7
330
747D
100
AcDbEntity
  8
文字
 62
     7
 48
50.0
100
AcDbText
 10
13248.77747366448
 20
8890.013745883729
 30
0.0
 40
100.0
  1
14
  7
STYLE1
100
AcDbText
  0
TEXT
  5
172A8
330
747D
100
AcDbEntity
  8
文字
 62
     7
 48
50.0
100
AcDbText
 10
15022.63965474516
 20
10930.01374588373
 30
0.0
 40
100.0
  1
F12            1.2
  7
STYLE1
100
AcDbText
  0
TEXT
  5
172A9
330
747D
100
AcDbEntity
  8
文字
 62
     7
 48
50.0
100
AcDbText
 10
15022.63965474517
 20
10590.01374588373
 30
0.0
 40
100.0
  1
F12            1.0
  7
STYLE1
100
AcDbText
  0
TEXT
  5
172AA
330
747D
100
AcDbEntity
  8
文字
 62
     7
 48
50.0
100
AcDbText
 10
15022.63965474515
 20
8890.013745883729
 30
0.0
 40
100.0
  1
F12            0.7
  7
STYLE1
100
AcDbText
  0
TEXT
  5
172AB
330
747D
100
AcDbEntity
  8
文字
 62
     7
 48
50.0
100
AcDbText
 10
13583.11819016568
 20
8890.013745883733
 30
0.0
 40
100.0
  1
正面パネル
  7
STYLE1
100
AcDbText
  0
TEXT
  5
172AC
330
747D
100
AcDbEntity
  8
文字
 62
     7
 48
50.0
100
AcDbText
 10
15022.63965474516
 20
8720.013745883729
 30
0.0
 40
100.0
  1
F12            0.8
  7
STYLE1
100
AcDbText
  0
TEXT
  5
172AD
330
747D
100
AcDbEntity
  8
文字
 62
     7
 48
50.0
100
AcDbText
 10
13583.11819016569
 20
8720.013745883733
 30
0.0
 40
100.0
  1
扉
  7
STYLE1
100
AcDbText
  0
LINE
  5
172AE
330
747D
100
AcDbEntity
  8
仕様書枠
 48
50.0
100
AcDbLine
 10
16307.19999999999
 20
8009.600000000007
 30
0.0
 11
13127.19999999999
 21
8009.600000000007
 31
0.0
  0
TEXT
  5
172AF
330
747D
100
AcDbEntity
  8
文字
 62
     7
 48
50.0
100
AcDbText
 10
13248.77747366447
 20
8720.013745883729
 30
0.0
 40
100.0
  1
15
  7
STYLE1
100
AcDbText
  0
TEXT
  5
172B0
330
747D
100
AcDbEntity
  8
文字
 62
     7
 48
50.0
100
AcDbText
 10
13583.11819016569
 20
9740.013745883729
 30
0.0
 40
100.0
  1
母屋中
  7
STYLE1
100
AcDbText
  0
TEXT
  5
172B1
330
747D
100
AcDbEntity
  8
文字
 62
     7
 48
50.0
100
AcDbText
 10
15022.63965474516
 20
8550.013745883729
 30
0.0
 40
100.0
  1
F12            0.6
  7
STYLE1
100
AcDbText
  0
TEXT
  5
172B2
330
747D
100
AcDbEntity
  8
文字
 62
     7
 48
50.0
100
AcDbText
 10
13583.11819016569
 20
8550.013745883733
 30
0.0
 40
100.0
  1
棚板
  7
STYLE1
100
AcDbText
  0
LINE
  5
172B3
330
747D
100
AcDbEntity
  8
部品1
100
AcDbLine
 10
11460.17649295498
 20
9932.939562807971
 30
0.0
 11
11460.17649295498
 21
9904.939562807971
 31
0.0
  0
LINE
  5
172B4
330
747D
100
AcDbEntity
  8
部品1
100
AcDbLine
 10
11460.17649295498
 20
9932.939562807995
 30
0.0
 11
11460.17649295498
 21
9904.939562807994
 31
0.0
  0
LINE
  5
172B5
330
747D
100
AcDbEntity
  8
部品1
100
AcDbLine
 10
11487.17649295498
 20
9877.939562807972
 30
0.0
 11
11515.17649295498
 21
9877.939562807972
 31
0.0
  0
LINE
  5
172B6
330
747D
100
AcDbEntity
  8
部品1
100
AcDbLine
 10
11487.17649295498
 20
9457.93956280797
 30
0.0
 11
11515.17649295498
 21
9457.93956280797
 31
0.0
  0
LINE
  5
172B7
330
747D
100
AcDbEntity
  8
部品1
100
AcDbLine
 10
11487.17649295498
 20
9037.93956280797
 30
0.0
 11
11515.17649295498
 21
9037.93956280797
 31
0.0
  0
DIMENSION
  5
172B8
330
747D
100
AcDbEntity
  8
寸法
100
AcDbDimension
  2
*D18
 10
12215.17649295497
 20
9877.939562807974
 30
0.0
 11
12215.17649295497
 21
10241.42484418221
 31
0.0
 70
   160
 71
     5
 42
54.99999999999636
  3
INABA_S40G
100
AcDbAlignedDimension
 13
11515.17649295498
 23
9932.93956280797
 33
0.0
 14
11515.17649295498
 24
9877.939562807974
 34
0.0
 50
90.0
100
AcDbRotatedDimension
1001
ACAD
1000
DSTYLE
1002
{
1002
}
  0
DIMENSION
  5
172B9
330
747D
100
AcDbEntity
  8
寸法
100
AcDbDimension
  2
*D19
 10
11915.17649295498
 20
9338.123333851237
 30
0.0
 11
11915.17649295498
 21
9563.123333851235
 31
0.0
 70
   160
 71
     5
 42
449.9999999999963
  3
INABA_S40G
100
AcDbAlignedDimension
 13
11486.67649295498
 23
9902.93956280797
 33
0.0
 14
11486.67649295498
 24
9452.939562807973
 34
0.0
 50
90.0
100
AcDbRotatedDimension
1001
ACAD
1000
DSTYLE
1002
{
1002
}
  0
LINE
  5
172BA
330
747D
100
AcDbEntity
  8
部品1
100
AcDbLine
 10
11486.67649295498
 20
9902.939562807972
 30
0.0
 11
11486.67649295498
 21
9452.939562807971
 31
0.0
  0
LINE
  5
172BB
330
747D
100
AcDbEntity
  8
部品1
100
AcDbLine
 10
11487.17649295498
 20
9904.939562807971
 30
0.0
 11
11487.17649295498
 21
9452.439562807848
 31
0.0
  0
LINE
  5
172BD
330
747D
100
AcDbEntity
  8
部品1
 48
50.0
100
AcDbLine
 10
11460.17649295498
 20
7722.939562807948
 30
0.0
 11
11460.17649295498
 21
7750.939562807949
 31
0.0
  0
LINE
  5
172BE
330
747D
100
AcDbEntity
  8
部品1
100
AcDbLine
 10
11487.17649295498
 20
7777.939562807957
 30
0.0
 11
11515.17649295498
 21
7777.939562807957
 31
0.0
  0
LINE
  5
172BF
330
747D
100
AcDbEntity
  8
部品1
100
AcDbLine
 10
11515.17649295496
 20
7777.939562807957
 30
0.0
 11
11515.17649295496
 21
7722.939562807957
 31
0.0
  0
LINE
  5
172C0
330
747D
100
AcDbEntity
  8
部品1
 48
50.0
100
AcDbLine
 10
11458.67649295498
 20
7779.439562807957
 30
0.0
 11
11487.17649295498
 21
7750.939562807964
 31
0.0
  0
LINE
  5
172C1
330
747D
100
AcDbEntity
  8
部品1
100
AcDbLine
 10
11515.17649295496
 20
7722.939562807957
 30
0.0
 11
11464.17649295496
 21
7722.939562807957
 31
0.0
  0
LINE
  5
172C2
330
747D
100
AcDbEntity
  8
部品1
100
AcDbLine
 10
11487.17649295496
 20
7777.939562807957
 30
0.0
 11
11515.17649295496
 21
7777.939562807957
 31
0.0
  0
LINE
  5
172C3
330
747D
100
AcDbEntity
  8
部品1
100
AcDbLine
 10
11515.17649295496
 20
7722.939562807957
 30
0.0
 11
11460.17649295498
 21
7722.939562807948
 31
0.0
  0
DIMENSION
  5
172C4
330
747D
100
AcDbEntity
  8
寸法
100
AcDbDimension
  2
*D20
 10
12215.17649295496
 20
7722.939562807958
 30
0.0
 11
12215.17649295496
 21
7414.454281433707
 31
0.0
 70
   160
 71
     5
 42
54.99999999999636
  3
INABA_S40G
100
AcDbAlignedDimension
 13
11515.17649295496
 23
7777.939562807954
 33
0.0
 14
11515.17649295496
 24
7722.939562807958
 34
0.0
 50
90.0
100
AcDbRotatedDimension
1001
ACAD
1000
DSTYLE
1002
{
1002
}
  0
LINE
  5
172C5
330
747D
100
AcDbEntity
  8
部品1
100
AcDbLine
 10
11487.17649295498
 20
9457.93956280797
 30
0.0
 11
11487.17649295496
 21
7750.939562807964
 31
0.0
  0
LINE
  5
172C6
330
747D
100
AcDbEntity
  8
部品1
100
AcDbLine
 10
11458.67649295498
 20
9452.939562807971
 30
0.0
 11
11458.67649295498
 21
7779.439562807957
 31
0.0
  0
LINE
  5
172C7
330
747D
100
AcDbEntity
  8
部品1
100
AcDbLine
 10
11515.17649295498
 20
9932.939562807971
 30
0.0
 11
11515.17649295496
 21
7722.939562807957
 31
0.0
  0
DIMENSION
  5
172C8
330
747D
100
AcDbEntity
  8
寸法
100
AcDbDimension
  2
*D21
 10
12215.17649295497
 20
7777.939562807954
 30
0.0
 11
12215.17649295497
 21
8827.939562807964
 31
0.0
 70
   160
  1
5X420=<>
 71
     5
 42
2100.000000000017
  3
INABA_S40G
100
AcDbAlignedDimension
 13
11515.17649295498
 23
9877.939562807974
 33
0.0
 14
11515.17649295496
 24
7777.939562807954
 34
0.0
 50
90.0
100
AcDbRotatedDimension
1001
ACAD
1000
DSTYLE
1002
{
1002
}
  0
DIMENSION
  5
172C9
330
747D
100
AcDbEntity
  8
寸法
100
AcDbDimension
  2
*D22
 10
12515.17649295499
 20
7722.939562807958
 30
0.0
 11
12515.17649295499
 21
8827.939562807964
 31
0.0
 70
   160
 71
     5
 42
2210.00000000001
  3
INABA_S40G
100
AcDbAlignedDimension
 13
11515.17649295498
 23
9932.93956280797
 33
0.0
 14
11515.17649295496
 24
7722.939562807958
 34
0.0
 50
90.0
100
AcDbRotatedDimension
1001
ACAD
1000
DSTYLE
1002
{
1002
}
  0
LINE
  5
172CA
330
747D
100
AcDbEntity
  8
部品1
100
AcDbLine
 10
11040.17649295495
 20
9932.93956280784
 30
0.0
 11
11040.17649295495
 21
9904.93956280784
 31
0.0
  0
LINE
  5
172CB
330
747D
100
AcDbEntity
  8
部品1
100
AcDbLine
 10
10620.17649295495
 20
9932.93956280784
 30
0.0
 11
10620.17649295495
 21
9904.93956280784
 31
0.0
  0
LINE
  5
172CC
330
747D
100
AcDbEntity
  8
部品1
100
AcDbLine
 10
10200.17649295495
 20
9932.93956280784
 30
0.0
 11
10200.17649295495
 21
9904.93956280784
 31
0.0
  0
LINE
  5
172CD
330
747D
100
AcDbEntity
  8
部品1
100
AcDbLine
 10
10229.17649295498
 20
9922.939562807979
 30
0.0
 11
10235.17649295498
 21
9922.939562807979
 31
0.0
  0
LINE
  5
172CE
330
747D
100
AcDbEntity
  8
部品1
100
AcDbLine
 10
10235.17649295498
 20
9922.939562807979
 30
0.0
 11
10235.17649295498
 21
9904.939562807978
 31
0.0
  0
LINE
  5
172CF
330
747D
100
AcDbEntity
  8
部品1
100
AcDbLine
 10
10165.17649295498
 20
9922.939562807979
 30
0.0
 11
10171.17649295498
 21
9922.939562807979
 31
0.0
  0
LINE
  5
172D0
330
747D
100
AcDbEntity
  8
部品1
100
AcDbLine
 10
10165.17649295498
 20
9922.939562807979
 30
0.0
 11
10165.17649295498
 21
9904.939562807978
 31
0.0
  0
LINE
  5
172D1
330
747D
100
AcDbEntity
  8
部品1
100
AcDbLine
 10
10187.67649295498
 20
9896.939562807972
 30
0.0
 11
10212.67649295498
 21
9896.939562807979
 31
0.0
  0
LINE
  5
172D2
330
747D
100
AcDbEntity
  8
部品1
100
AcDbLine
 10
10187.67649295498
 20
9452.939562807978
 30
0.0
 11
10212.67649295498
 21
9452.939562807978
 31
0.0
  0
LINE
  5
172D3
330
747D
100
AcDbEntity
  8
部品1
 48
50.0
100
AcDbLine
 10
10212.67649295498
 20
9904.939562807978
 30
0.0
 11
10212.67649295498
 21
9452.939562807978
 31
0.0
  0
LINE
  5
172D4
330
747D
100
AcDbEntity
  8
部品1
 48
50.0
100
AcDbLine
 10
10187.67649295498
 20
9904.939562807987
 30
0.0
 11
10187.67649295498
 21
9452.939562807978
 31
0.0
  0
LINE
  5
172D5
330
747D
100
AcDbEntity
  8
部品1
 48
50.0
100
AcDbLine
 10
10213.67649295498
 20
9902.939562807972
 30
0.0
 11
10213.67649295498
 21
9452.939562807978
 31
0.0
  0
LINE
  5
172D6
330
747D
100
AcDbEntity
  8
部品1
 48
50.0
100
AcDbLine
 10
10186.67649295498
 20
9902.939562807979
 30
0.0
 11
10186.67649295498
 21
9452.939562807978
 31
0.0
  0
LINE
  5
172D7
330
747D
100
AcDbEntity
  8
部品1
100
AcDbLine
 10
9780.17649295495
 20
9932.93956280784
 30
0.0
 11
9780.176492954954
 21
9904.93956280784
 31
0.0
  0
LINE
  5
172D8
330
747D
100
AcDbEntity
  8
部品1
100
AcDbLine
 10
9360.17649295495
 20
9932.93956280784
 30
0.0
 11
9360.176492954954
 21
9904.93956280784
 31
0.0
  0
LINE
  5
172D9
330
747D
100
AcDbEntity
  8
部品1
100
AcDbLine
 10
8940.17649295495
 20
9932.93956280784
 30
0.0
 11
8940.176492954954
 21
9904.93956280784
 31
0.0
  0
LINE
  5
172DA
330
747D
100
AcDbEntity
  8
部品1
100
AcDbLine
 10
8940.176492954988
 20
9932.939562807877
 30
0.0
 11
8940.176492954988
 21
9904.939562807877
 31
0.0
  0
LINE
  5
172DB
330
747D
100
AcDbEntity
  8
部品1
100
AcDbLine
 10
8913.176492954953
 20
9877.939562807847
 30
0.0
 11
8885.176492954952
 21
9877.939562807847
 31
0.0
  0
LINE
  5
172DC
330
747D
100
AcDbEntity
  8
部品1
100
AcDbLine
 10
8913.17649295496
 20
9457.939562807847
 30
0.0
 11
8885.176492954961
 21
9457.939562807847
 31
0.0
  0
LINE
  5
172DD
330
747D
100
AcDbEntity
  8
部品1
100
AcDbLine
 10
8913.17649295496
 20
9037.939562807848
 30
0.0
 11
8885.176492954961
 21
9037.939562807848
 31
0.0
  0
LINE
  5
172DE
330
747D
100
AcDbEntity
  8
部品1
100
AcDbLine
 10
8913.176492954976
 20
9452.439562807848
 30
0.0
 11
8913.176492954987
 21
9904.939562807877
 31
0.0
  0
LINE
  5
172DF
330
747D
100
AcDbEntity
  8
部品1
 48
50.0
100
AcDbLine
 10
8913.676492954918
 20
9902.939562807979
 30
0.0
 11
8913.676492954918
 21
9452.939562807978
 31
0.0
  0
LINE
  5
172E0
330
747D
100
AcDbEntity
  8
部品1
100
AcDbLine
 10
8913.676492954918
 20
9452.93956280792
 30
0.0
 11
10186.67649295498
 21
9452.939562807978
 31
0.0
  0
LINE
  5
172E1
330
747D
100
AcDbEntity
  8
部品1
100
AcDbLine
 10
8913.676492954918
 20
9902.939562807921
 30
0.0
 11
10186.67649295498
 21
9902.939562807979
 31
0.0
  0
LINE
  5
172E2
330
747D
100
AcDbEntity
  8
部品1
100
AcDbLine
 10
8913.176492954988
 20
9904.939562807987
 30
0.0
 11
10187.67649295498
 21
9904.939562807994
 31
0.0
  0
LINE
  5
172E3
330
747D
100
AcDbEntity
  8
細線
 48
50.0
100
AcDbLine
 10
10186.67649295498
 20
9902.939562807979
 30
0.0
 11
8913.676492954918
 21
9452.93956280792
 31
0.0
  0
LINE
  5
172E4
330
747D
100
AcDbEntity
  8
細線
 48
50.0
100
AcDbLine
 10
10186.67649295498
 20
9452.939562807978
 30
0.0
 11
8913.676492954916
 21
9902.939562807921
 31
0.0
  0
LINE
  5
172E5
330
747D
100
AcDbEntity
  8
破線
 48
10.0
100
AcDbLine
 10
11435.17649295498
 20
7802.939562807956
 30
0.0
 11
10640.67649295496
 21
7802.939562807782
 31
0.0
  0
LINE
  5
172E6
330
747D
100
AcDbEntity
  8
部品1
100
AcDbLine
 10
9360.176492954954
 20
7722.939562807964
 30
0.0
 11
9360.176492954954
 21
7750.939562807964
 31
0.0
  0
LINE
  5
172E7
330
747D
100
AcDbEntity
  8
部品1
 48
50.0
100
AcDbLine
 10
8941.676492954975
 20
7779.439562807934
 30
0.0
 11
8913.176492954976
 21
7750.939562807942
 31
0.0
  0
LINE
  5
172E8
330
747D
100
AcDbEntity
  8
部品1
100
AcDbLine
 10
8940.176492954954
 20
7722.939562807964
 30
0.0
 11
8940.176492954954
 21
7750.939562807964
 31
0.0
  0
LINE
  5
172E9
330
747D
100
AcDbEntity
  8
部品1
100
AcDbLine
 10
8913.17649295496
 20
7777.939562807796
 30
0.0
 11
8885.176492954977
 21
7777.939562807796
 31
0.0
  0
LINE
  5
172EA
330
747D
100
AcDbEntity
  8
部品1
100
AcDbLine
 10
8913.17649295496
 20
7777.939562807826
 30
0.0
 11
8885.176492954977
 21
7777.939562807826
 31
0.0
  0
LINE
  5
172EB
330
747D
100
AcDbEntity
  8
部品1
100
AcDbLine
 10
8913.176492954978
 20
7777.939562807841
 30
0.0
 11
8885.176492954977
 21
7777.939562807841
 31
0.0
  0
LINE
  5
172EC
330
747D
100
AcDbEntity
  8
部品1
100
AcDbLine
 10
8885.176492954977
 20
7777.939562807796
 30
0.0
 11
8885.176492954979
 21
7722.939562807797
 31
0.0
  0
LINE
  5
172ED
330
747D
100
AcDbEntity
  8
部品1
100
AcDbLine
 10
9360.176492954954
 20
7722.939562807834
 30
0.0
 11
8885.176492954979
 21
7722.939562807834
 31
0.0
  0
LINE
  5
172EE
330
747D
100
AcDbEntity
  8
破線
 48
10.0
100
AcDbLine
 10
9759.676492954966
 20
7802.939562807826
 30
0.0
 11
8965.176492954972
 21
7802.93956280784
 31
0.0
  0
LINE
  5
172EF
330
747D
100
AcDbEntity
  8
破線
 48
10.0
100
AcDbLine
 10
10590.67649295496
 20
7802.939562807876
 30
0.0
 11
9809.676492954961
 21
7802.939562807854
 31
0.0
  0
LINE
  5
172F0
330
747D
100
AcDbEntity
  8
破線
 48
10.0
100
AcDbLine
 10
10590.67649295496
 20
7779.439562807869
 30
0.0
 11
10590.67649295496
 21
9452.939562807978
 31
0.0
  0
LINE
  5
172F1
330
747D
100
AcDbEntity
  8
破線
 48
10.0
100
AcDbLine
 10
10640.67649295496
 20
7779.439562807876
 30
0.0
 11
10640.67649295496
 21
9452.939562807978
 31
0.0
  0
LINE
  5
172F2
330
747D
100
AcDbEntity
  8
部品1
100
AcDbLine
 10
8941.676492954963
 20
9452.93956280792
 30
0.0
 11
8941.676492954975
 21
7779.439562807934
 31
0.0
  0
LINE
  5
172F3
330
747D
100
AcDbEntity
  8
破線
 48
10.0
100
AcDbLine
 10
9809.676492954961
 20
7779.439562807876
 30
0.0
 11
9809.676492954961
 21
9452.939562807978
 31
0.0
  0
LINE
  5
172F4
330
747D
100
AcDbEntity
  8
破線
 48
10.0
100
AcDbLine
 10
9759.676492954966
 20
7779.439562807869
 30
0.0
 11
9759.676492954961
 21
9452.939562807978
 31
0.0
  0
LINE
  5
172F5
330
747D
100
AcDbEntity
  8
部品1
100
AcDbLine
 10
8885.176492954951
 20
9932.93956280784
 30
0.0
 11
8885.176492954979
 21
7722.939562807834
 31
0.0
  0
LINE
  5
172F6
330
747D
100
AcDbEntity
  8
部品1
100
AcDbLine
 10
8913.17649295496
 20
7750.93956280792
 30
0.0
 11
8913.176492954979
 21
9457.939562807847
 31
0.0
  0
LINE
  5
172F7
330
747D
100
AcDbEntity
  8
破線
 48
10.0
100
AcDbLine
 10
8965.176492954961
 20
9452.939562807971
 30
0.0
 11
8965.176492954975
 21
7802.93956280784
 31
0.0
  0
LINE
  5
172F8
330
747D
100
AcDbEntity
  8
破線
 48
10.0
100
AcDbLine
 10
11435.17649295498
 20
9452.939562807971
 30
0.0
 11
11435.17649295499
 21
7802.939562807956
 31
0.0
  0
LINE
  5
172F9
330
747D
100
AcDbEntity
  8
部品1
 48
50.0
100
AcDbLine
 10
8913.176492954979
 20
7750.939562807942
 30
0.0
 11
11487.176492955
 21
7750.939562807949
 31
0.0
  0
LINE
  5
172FA
330
747D
100
AcDbEntity
  8
部品1
100
AcDbLine
 10
11458.67649295497
 20
9037.939562807942
 30
0.0
 11
8941.67649295497
 21
9037.939562807848
 31
0.0
  0
LINE
  5
172FB
330
747D
100
AcDbEntity
  8
部品1
100
AcDbLine
 10
10212.67649295498
 20
9904.939562807987
 30
0.0
 11
11487.17649295498
 21
9904.939562807971
 31
0.0
  0
LINE
  5
172FC
330
747D
100
AcDbEntity
  8
細線
 48
50.0
100
AcDbLine
 10
11486.67649295498
 20
9452.939562807971
 30
0.0
 11
10213.67649295498
 21
9902.939562807972
 31
0.0
  0
LINE
  5
172FD
330
747D
100
AcDbEntity
  8
部品1
100
AcDbLine
 10
10213.67649295498
 20
9452.939562807978
 30
0.0
 11
11486.67649295498
 21
9452.939562807971
 31
0.0
  0
LINE
  5
172FE
330
747D
100
AcDbEntity
  8
部品1
100
AcDbLine
 10
10213.67649295498
 20
9902.939562807979
 30
0.0
 11
11486.67649295498
 21
9902.939562807972
 31
0.0
  0
LINE
  5
172FF
330
747D
100
AcDbEntity
  8
細線
 48
50.0
100
AcDbLine
 10
11486.67649295498
 20
9902.939562807972
 30
0.0
 11
10213.67649295498
 21
9452.939562807978
 31
0.0
  0
DIMENSION
  5
17300
330
747D
100
AcDbEntity
  8
寸法
100
AcDbDimension
  2
*D23
 10
11399.94256111898
 20
9132.976173263323
 30
0.0
 11
10833.064400269
 21
9132.976173263323
 31
0.0
 70
   160
 71
     5
 42
1273.000000000011
  3
INABA_S40G
100
AcDbAlignedDimension
 13
10212.67649295498
 23
9452.93956280798
 33
0.0
 14
11485.67649295499
 24
9452.939562807973
 34
0.0
100
AcDbRotatedDimension
1001
ACAD
1000
DSTYLE
1002
{
1002
}
  0
LINE
  5
17302
330
747D
100
AcDbEntity
  8
部品1
100
AcDbLine
 10
8885.176492954986
 20
9932.939562807877
 30
0.0
 11
11515.17649295498
 21
9932.939562807971
 31
0.0
  0
LINE
  5
17303
330
747D
100
AcDbEntity
  8
部品1
100
AcDbLine
 10
11458.67649295498
 20
7779.439562807957
 30
0.0
 11
8941.676492954879
 21
7779.439562807841
 31
0.0
  0
DIMENSION
  5
17304
330
747D
100
AcDbEntity
  8
寸法
100
AcDbDimension
  2
*D24
 10
11460.17649295498
 20
10232.93956280787
 30
0.0
 11
10200.17649295498
 21
10232.93956280787
 31
0.0
 70
   160
  1
6X420=<>
 71
     5
 42
2520.0
  3
INABA_S40G
100
AcDbAlignedDimension
 13
8940.176492954988
 23
9932.939562807874
 33
0.0
 14
11460.17649295498
 24
9932.93956280797
 34
0.0
100
AcDbRotatedDimension
1001
ACAD
1000
DSTYLE
1002
{
1002
}
  0
DIMENSION
  5
17305
330
747D
100
AcDbEntity
  8
寸法
100
AcDbDimension
  2
*D25
 10
11515.17649295498
 20
10232.93956280787
 30
0.0
 11
11823.66177432922
 21
10232.93956280787
 31
0.0
 70
   160
 71
     5
 42
55.0
  3
INABA_S40G
100
AcDbAlignedDimension
 13
11460.17649295498
 23
9932.93956280797
 33
0.0
 14
11515.17649295498
 24
9932.93956280797
 34
0.0
100
AcDbRotatedDimension
1001
ACAD
1000
DSTYLE
1002
{
1002
}
  0
DIMENSION
  5
17306
330
747D
100
AcDbEntity
  8
寸法
100
AcDbDimension
  2
*D26
 10
10099.94256111899
 20
9132.976173263323
 30
0.0
 11
9463.442561118952
 21
9132.976173263323
 31
0.0
 70
   160
 71
     5
 42
1273.000000000069
  3
INABA_S40G
100
AcDbAlignedDimension
 13
8912.676492954917
 23
9452.939562807921
 33
0.0
 14
10185.67649295498
 24
9452.939562807914
 34
0.0
100
AcDbRotatedDimension
1001
ACAD
1000
DSTYLE
1002
{
1002
}
  0
DIMENSION
  5
17307
330
747D
100
AcDbEntity
  8
寸法
100
AcDbDimension
  2
*D27
 10
8940.176492954988
 20
10232.93956280787
 30
0.0
 11
8576.691211580712
 21
10232.93956280787
 31
0.0
 70
   160
 71
     5
 42
55.00000000003637
  3
INABA_S40G
100
AcDbAlignedDimension
 13
8885.176492954951
 23
9932.939562807874
 33
0.0
 14
8940.176492954988
 24
9932.939562807874
 34
0.0
100
AcDbRotatedDimension
1001
ACAD
1000
DSTYLE
1002
{
1002
}
  0
LINE
  5
17308
330
747D
100
AcDbEntity
  8
部品1
 48
50.0
100
AcDbLine
 10
11460.17649295498
 20
4532.207038820219
 30
0.0
 11
11460.17649295498
 21
4537.207038820219
 31
0.0
  0
LINE
  5
17309
330
747D
100
AcDbEntity
  8
部品1
100
AcDbLine
 10
11487.17649295498
 20
2447.20703882024
 30
0.0
 11
11515.17649295497
 21
2447.20703882024
 31
0.0
  0
LINE
  5
1730A
330
747D
100
AcDbEntity
  8
破線
 48
5.0
100
AcDbLine
 10
11540.17649295497
 20
2142.207038820219
 30
0.0
 11
11520.17649295497
 21
2142.207038820219
 31
0.0
  0
LINE
  5
1730B
330
747D
100
AcDbEntity
  8
破線
 48
5.0
100
AcDbLine
 10
11615.17649295497
 20
2297.207038820219
 30
0.0
 11
11615.17649295497
 21
2097.207038820219
 31
0.0
  0
LINE
  5
1730C
330
747D
100
AcDbEntity
  8
破線
 48
5.0
100
AcDbLine
 10
11520.17649295497
 20
2297.207038820219
 30
0.0
 11
11520.17649295497
 21
2142.207038820219
 31
0.0
  0
LINE
  5
1730D
330
747D
100
AcDbEntity
  8
部品1
100
AcDbLine
 10
11520.17649295497
 20
2442.20703882022
 30
0.0
 11
11520.17649295497
 21
2297.207038820219
 31
0.0
  0
LINE
  5
1730E
330
747D
100
AcDbEntity
  8
部品1
100
AcDbLine
 10
11515.17649295498
 20
4590.707038820219
 30
0.0
 11
11515.17649295497
 21
2297.207038820219
 31
0.0
  0
LINE
  5
1730F
330
747D
100
AcDbEntity
  8
部品1
 48
50.0
100
AcDbLine
 10
9360.176492954977
 20
4532.207038820219
 30
0.0
 11
9360.176492954977
 21
4537.207038820219
 31
0.0
  0
LINE
  5
17310
330
747D
100
AcDbEntity
  8
破線
 48
5.0
100
AcDbLine
 10
11415.17649295497
 20
2297.207038820219
 30
0.0
 11
11415.17649295497
 21
2097.207038820219
 31
0.0
  0
LINE
  5
17311
330
747D
100
AcDbEntity
  8
部品1
100
AcDbLine
 10
11115.17649295497
 20
2397.207038820219
 30
0.0
 11
11115.17649295497
 21
2297.207038820219
 31
0.0
  0
LINE
  5
17312
330
747D
100
AcDbEntity
  8
部品1
 48
50.0
100
AcDbLine
 10
10715.17649295497
 20
2397.207038820219
 30
0.0
 11
10715.17649295497
 21
2297.207038820219
 31
0.0
  0
LINE
  5
17313
330
747D
100
AcDbEntity
  8
部品1
 48
50.0
100
AcDbLine
 10
10515.17649295497
 20
2397.207038820219
 30
0.0
 11
10515.17649295497
 21
2297.207038820219
 31
0.0
  0
LINE
  5
17314
330
747D
100
AcDbEntity
  8
部品1
 48
50.0
100
AcDbLine
 10
9885.176492954975
 20
2397.207038820219
 30
0.0
 11
9885.176492954975
 21
2297.207038820219
 31
0.0
  0
LINE
  5
17315
330
747D
100
AcDbEntity
  8
部品1
 48
50.0
100
AcDbLine
 10
9685.176492954976
 20
2397.207038820219
 30
0.0
 11
9685.176492954976
 21
2297.207038820219
 31
0.0
  0
LINE
  5
17316
330
747D
100
AcDbEntity
  8
部品1
100
AcDbLine
 10
8885.176492954975
 20
2447.20703882024
 30
0.0
 11
9333.176492954978
 21
2447.20703882024
 31
0.0
  0
LINE
  5
17317
330
747D
100
AcDbEntity
  8
部品1
100
AcDbLine
 10
9285.176492954976
 20
2397.207038820219
 30
0.0
 11
9285.176492954976
 21
2297.207038820219
 31
0.0
  0
LINE
  5
17318
330
747D
100
AcDbEntity
  8
破線
 48
5.0
100
AcDbLine
 10
8860.176492954975
 20
2142.207038820219
 30
0.0
 11
8880.176492954978
 21
2142.207038820219
 31
0.0
  0
LINE
  5
17319
330
747D
100
AcDbEntity
  8
破線
 48
5.0
100
AcDbLine
 10
8985.176492954975
 20
2297.207038820219
 30
0.0
 11
8985.176492954975
 21
2097.207038820219
 31
0.0
  0
LINE
  5
1731A
330
747D
100
AcDbEntity
  8
破線
 48
5.0
100
AcDbLine
 10
8880.176492954976
 20
2297.207038820219
 30
0.0
 11
8880.176492954976
 21
2142.207038820219
 31
0.0
  0
LINE
  5
1731B
330
747D
100
AcDbEntity
  8
部品1
100
AcDbLine
 10
8880.176492954976
 20
2442.207038820221
 30
0.0
 11
8880.176492954976
 21
2297.207038820219
 31
0.0
  0
LINE
  5
1731C
330
747D
100
AcDbEntity
  8
部品1
100
AcDbLine
 10
8885.176492954974
 20
4590.707038820219
 30
0.0
 11
8885.176492954975
 21
2297.207038820219
 31
0.0
  0
LINE
  5
1731D
330
747D
100
AcDbEntity
  8
部品1
 48
50.0
100
AcDbLine
 10
8940.176492954977
 20
2447.20703882024
 30
0.0
 11
8940.176492954977
 21
4537.207038820219
 31
0.0
  0
LINE
  5
1731E
330
747D
100
AcDbEntity
  8
部品1
100
AcDbLine
 10
8885.176492954975
 20
2397.207038820219
 30
0.0
 11
11515.17649295497
 21
2397.207038820219
 31
0.0
  0
LINE
  5
1731F
330
747D
100
AcDbEntity
  8
部品1
100
AcDbLine
 10
8885.176492954975
 20
4537.207038820219
 30
0.0
 11
11515.17649295497
 21
4537.207038820219
 31
0.0
  0
LINE
  5
17320
330
747D
100
AcDbEntity
  8
破線
 48
5.0
100
AcDbLine
 10
11615.17649295497
 20
2097.207038820219
 30
0.0
 11
11415.17649295497
 21
2097.207038820219
 31
0.0
  0
LINE
  5
17321
330
747D
100
AcDbEntity
  8
部品1
 48
50.0
100
AcDbLine
 10
8913.176492954978
 20
2397.207038820219
 30
0.0
 11
11487.17649295498
 21
2397.207038820219
 31
0.0
  0
LINE
  5
17322
330
747D
100
AcDbEntity
  8
部品1
 48
50.0
100
AcDbLine
 10
9333.176492954978
 20
2397.207038820219
 30
0.0
 11
11487.17649295498
 21
2397.207038820219
 31
0.0
  0
LINE
  5
17323
330
747D
100
AcDbEntity
  8
部品1
100
AcDbLine
 10
8885.176492954975
 20
4537.207038820219
 30
0.0
 11
11515.17649295497
 21
4537.207038820219
 31
0.0
  0
LINE
  5
17324
330
747D
100
AcDbEntity
  8
破線
 48
5.0
100
AcDbLine
 10
8785.176492954976
 20
2297.207038820219
 30
0.0
 11
8785.176492954976
 21
2097.207038820219
 31
0.0
  0
LINE
  5
17325
330
747D
100
AcDbEntity
  8
破線
 48
5.0
100
AcDbLine
 10
8785.176492954976
 20
2097.207038820219
 30
0.0
 11
8985.176492954977
 21
2097.207038820219
 31
0.0
  0
DIMENSION
  5
17326
330
747D
100
AcDbEntity
  8
寸法
 48
50.0
100
AcDbDimension
  2
*D28
 10
8785.176492954976
 20
1811.159709519841
 30
0.0
 11
8885.176492954975
 21
1811.159709519841
 31
0.0
 70
   160
 71
     5
 42
200.0000000000018
  3
INABA_S40G
100
AcDbAlignedDimension
 13
8985.176492954977
 23
2097.207038820219
 33
0.0
 14
8785.176492954976
 24
2097.207038820219
 34
0.0
100
AcDbRotatedDimension
  0
DIMENSION
  5
17327
330
747D
100
AcDbEntity
  8
寸法
 48
50.0
100
AcDbDimension
  2
*D29
 10
8551.016016538298
 20
2455.20703882022
 30
0.0
 11
8551.016016538298
 21
3473.015677189152
 31
0.0
 70
   160
  1
有効開口部高サ<>
 71
     5
 42
2025.0
  3
INABA_S40G
100
AcDbAlignedDimension
 13
9333.176492954978
 23
4480.207038820219
 33
0.0
 14
9333.176492954978
 24
2455.20703882022
 34
0.0
 50
90.0
100
AcDbRotatedDimension
  0
LINE
  5
17328
330
747D
100
AcDbEntity
  8
部品1
100
AcDbLine
 10
10581.91182606919
 20
1608.168775842809
 30
0.0
 11
9818.441159840757
 21
1608.168775842809
 31
0.0
  0
LINE
  5
17329
330
747D
100
AcDbEntity
  8
部品1
100
AcDbLine
 10
10581.91182606919
 20
1368.276454297276
 30
0.0
 11
10581.91182606919
 21
1608.168775842809
 31
0.0
  0
LINE
  5
1732A
330
747D
100
AcDbEntity
  8
部品1
100
AcDbLine
 10
9818.441159840757
 20
1368.276454297276
 30
0.0
 11
10581.91182606919
 21
1368.276454297276
 31
0.0
  0
LINE
  5
1732B
330
747D
100
AcDbEntity
  8
部品1
100
AcDbLine
 10
9818.441159840757
 20
1608.168775842809
 30
0.0
 11
9818.441159840757
 21
1368.276454297276
 31
0.0
  0
TEXT
  5
17331
330
747D
100
AcDbEntity
  8
部品1
100
AcDbText
 10
9908.966563578712
 20
1415.275246624285
 30
0.0
 40
135.0
  1
正面図
  7
STYLE2
100
AcDbText
  0
LINE
  5
17332
330
747D
100
AcDbEntity
  8
Ｇ．Ｌ
100
AcDbLine
 10
2587.097556130539
 20
2297.207038820219
 30
0.0
 11
12164.68904598382
 21
2297.207038820219
 31
0.0
  0
LINE
  5
17333
330
747D
100
AcDbEntity
  8
部品1
100
AcDbLine
 10
11458.67649295497
 20
8197.939562807942
 30
0.0
 11
8941.67649295497
 21
8197.939562807848
 31
0.0
  0
LINE
  5
17334
330
747D
100
AcDbEntity
  8
部品1
100
AcDbLine
 10
8913.17649295496
 20
8197.939562807848
 30
0.0
 11
8885.176492954961
 21
8197.939562807848
 31
0.0
  0
LINE
  5
17335
330
747D
100
AcDbEntity
  8
部品1
100
AcDbLine
 10
11487.17649295498
 20
8197.939562807972
 30
0.0
 11
11515.17649295498
 21
8197.939562807972
 31
0.0
  0
LINE
  5
17724
330
747D
100
AcDbEntity
  8
補助
  6
PHANTOM
 62
   230
 48
50.0
100
AcDbLine
 10
140.0
 20
0.0
 30
0.0
 11
139.9999999999995
 21
11409.6
 31
0.0
  0
LINE
  5
178CE
330
747D
100
AcDbEntity
  8
部品1
 48
50.0
100
AcDbLine
 10
9407.176492954977
 20
3528.707038820221
 30
0.0
 11
9460.176492954976
 21
3528.707038820221
 31
0.0
  0
LINE
  5
17B2E
330
747D
100
AcDbEntity
  8
寸法
 48
50.0
100
AcDbLine
 10
9795.379499236799
 20
7500.976314376696
 30
0.0
 11
9743.973491326695
 21
7500.976314376696
 31
0.0
  0
LINE
  5
17B2F
330
747D
100
AcDbEntity
  8
寸法
 48
50.0
100
AcDbLine
 10
9743.973491326695
 20
7500.976314376696
 30
0.0
 11
9743.973491326695
 21
7532.286473028863
 31
0.0
  0
LINE
  5
17B30
330
747D
100
AcDbEntity
  8
寸法
 48
50.0
100
AcDbLine
 10
9743.973491326695
 20
7532.286473028863
 30
0.0
 11
9714.212159335271
 21
7532.286473028863
 31
0.0
  0
LINE
  5
17B31
330
747D
100
AcDbEntity
  8
寸法
 48
50.0
100
AcDbLine
 10
9714.212159335271
 20
7532.286473028863
 30
0.0
 11
9769.676495281748
 21
7569.865923957472
 31
0.0
  0
LINE
  5
17B32
330
747D
100
AcDbEntity
  8
寸法
 48
50.0
100
AcDbLine
 10
9825.140831228223
 20
7532.286473028863
 30
0.0
 11
9769.676495281748
 21
7569.865923957472
 31
0.0
  0
LINE
  5
17B33
330
747D
100
AcDbEntity
  8
寸法
 48
50.0
100
AcDbLine
 10
9795.379499236799
 20
7532.286473028863
 30
0.0
 11
9825.140831228223
 21
7532.286473028863
 31
0.0
  0
LINE
  5
17B34
330
747D
100
AcDbEntity
  8
寸法
 48
50.0
100
AcDbLine
 10
9795.379499236799
 20
7500.976314376696
 30
0.0
 11
9795.379499236799
 21
7532.286473028863
 31
0.0
  0
LINE
  5
17B35
330
747D
100
AcDbEntity
  8
寸法
 48
50.0
100
AcDbLine
 10
9743.973491326695
 20
7500.976314376696
 30
0.0
 11
9795.379499236799
 21
7500.976314376696
 31
0.0
  0
LINE
  5
17B36
330
747D
100
AcDbEntity
  8
寸法
 48
50.0
100
AcDbLine
 10
10074.54503351365
 20
7558.121905131518
 30
0.0
 11
10074.54503351365
 21
7504.458270549729
 31
0.0
  0
LINE
  5
17B37
330
747D
100
AcDbEntity
  8
寸法
 48
50.0
100
AcDbLine
 10
10163.82925210908
 20
7534.198270862032
 30
0.0
 11
10074.54503351365
 21
7558.121905131518
 31
0.0
  0
LINE
  5
17B38
330
747D
100
AcDbEntity
  8
寸法
 48
50.0
100
AcDbLine
 10
9944.677311933354
 20
7534.198270862032
 30
0.0
 11
10163.82925210908
 21
7534.198270862032
 31
0.0
  0
LINE
  5
17B39
330
747D
100
AcDbEntity
  8
細線
 48
50.0
100
AcDbLine
 10
10821.17649295496
 20
7699.439677756558
 30
0.0
 11
11448.17649295495
 21
7699.439677756558
 31
0.0
  0
LINE
  5
17B3A
330
747D
100
AcDbEntity
  8
細線
 48
50.0
100
AcDbLine
 10
10167.17649760854
 20
7665.730909202483
 30
0.0
 11
11448.17649295495
 21
7665.730909202483
 31
0.0
  0
LINE
  5
17B3B
330
747D
100
AcDbEntity
  8
細線
 48
50.0
100
AcDbLine
 10
10126.17649760854
 20
7695.135817198736
 30
0.0
 11
9372.176492954954
 21
7695.135817198732
 31
0.0
  0
LINE
  5
17B3C
330
747D
100
AcDbEntity
  8
細線
100
AcDbLine
 10
11223.92648353849
 20
7718.939577721567
 30
0.0
 11
11226.2580230603
 21
7723.939580361528
 31
0.0
  0
LINE
  5
17B3D
330
747D
100
AcDbEntity
  8
細線
100
AcDbLine
 10
11293.92649295495
 20
7718.939562807832
 30
0.0
 11
11291.59494647876
 21
7723.939580361514
 31
0.0
  0
LINE
  5
17B3E
330
747D
100
AcDbEntity
  8
細線
100
AcDbLine
 10
11291.59494647876
 20
7723.939580361514
 30
0.0
 11
11226.25802306029
 21
7723.939580361499
 31
0.0
  0
LINE
  5
17B3F
330
747D
100
AcDbEntity
  8
細線
100
AcDbLine
 10
11151.59494647876
 20
7723.939580361514
 30
0.0
 11
11086.25802306029
 21
7723.939580361499
 31
0.0
  0
LINE
  5
17B40
330
747D
100
AcDbEntity
  8
細線
100
AcDbLine
 10
11153.92649295495
 20
7718.939562807832
 30
0.0
 11
11151.59494647876
 21
7723.939580361514
 31
0.0
  0
LINE
  5
17B41
330
747D
100
AcDbEntity
  8
細線
100
AcDbLine
 10
11083.92648353849
 20
7718.939577721567
 30
0.0
 11
11086.2580230603
 21
7723.939580361528
 31
0.0
  0
LINE
  5
17B42
330
747D
100
AcDbEntity
  8
細線
100
AcDbLine
 10
10943.92649295495
 20
7718.939562807832
 30
0.0
 11
10946.25803247676
 21
7723.939565447794
 31
0.0
  0
LINE
  5
17B43
330
747D
100
AcDbEntity
  8
細線
100
AcDbLine
 10
11013.92650237141
 20
7718.939547894099
 30
0.0
 11
11011.59495589522
 21
7723.939565447778
 31
0.0
  0
LINE
  5
17B44
330
747D
100
AcDbEntity
  8
細線
100
AcDbLine
 10
11011.59495589522
 20
7723.939565447778
 30
0.0
 11
10946.25803247675
 21
7723.939565447764
 31
0.0
  0
LINE
  5
17B45
330
747D
100
AcDbEntity
  8
細線
100
AcDbLine
 10
10716.34497714406
 20
7689.939602145161
 30
0.0
 11
10651.00805372558
 21
7689.939602145146
 31
0.0
  0
LINE
  5
17B46
330
747D
100
AcDbEntity
  8
細線
100
AcDbLine
 10
10718.67652362025
 20
7684.939584591481
 30
0.0
 11
10716.34497714406
 21
7689.939602145161
 31
0.0
  0
LINE
  5
17B47
330
747D
100
AcDbEntity
  8
細線
100
AcDbLine
 10
10648.67651420379
 20
7684.939599505215
 30
0.0
 11
10651.0080537256
 21
7689.939602145177
 31
0.0
  0
LINE
  5
17B48
330
747D
100
AcDbEntity
  8
細線
 48
50.0
100
AcDbLine
 10
10490.05987220297
 20
7703.210425960913
 30
0.0
 11
10495.81538978563
 21
7684.939574670427
 31
0.0
  0
LINE
  5
17B49
330
747D
100
AcDbEntity
  8
細線
 48
50.0
100
AcDbLine
 10
10479.13142372254
 20
7703.210425960913
 30
0.0
 11
10490.05987220297
 21
7703.210425960913
 31
0.0
  0
ARC
  5
17B4A
330
747D
100
AcDbEntity
  8
細線
 48
50.0
100
AcDbCircle
 10
10473.67706766521
 20
7704.710425960913
 30
0.0
 40
5.0
100
AcDbArc
 50
204.6243183521304
 51
335.3756816478695
  0
ARC
  5
17B4B
330
747D
100
AcDbEntity
  8
細線
 48
50.0
100
AcDbCircle
 10
10479.13142372254
 20
7702.210425960913
 30
0.0
 40
1.0
100
AcDbArc
 50
90.0
 51
155.3756816478695
  0
ARC
  5
17B4C
330
747D
100
AcDbEntity
  8
細線
 48
50.0
100
AcDbCircle
 10
10468.2227116079
 20
7702.210425960913
 30
0.0
 40
1.0
100
AcDbArc
 50
24.62431835213048
 51
90.0
  0
LINE
  5
17B4D
330
747D
100
AcDbEntity
  8
細線
 48
50.0
100
AcDbLine
 10
10457.29426312747
 20
7703.210425960913
 30
0.0
 11
10468.2227116079
 21
7703.210425960913
 31
0.0
  0
LINE
  5
17B4E
330
747D
100
AcDbEntity
  8
細線
 48
50.0
100
AcDbLine
 10
10451.5387455448
 20
7684.939574670419
 30
0.0
 11
10457.29426312747
 21
7703.210425960913
 31
0.0
  0
LINE
  5
17B4F
330
747D
100
AcDbEntity
  8
細線
100
AcDbLine
 10
10508.67651543483
 20
7684.939572036224
 30
0.0
 11
10511.00805495664
 21
7689.939574676185
 31
0.0
  0
LINE
  5
17B50
330
747D
100
AcDbEntity
  8
細線
100
AcDbLine
 10
10578.67652485129
 20
7684.93955712249
 30
0.0
 11
10576.3449783751
 21
7689.93957467617
 31
0.0
  0
LINE
  5
17B51
330
747D
100
AcDbEntity
  8
細線
100
AcDbLine
 10
10576.3449783751
 20
7689.93957467617
 30
0.0
 11
10511.00805495663
 21
7689.939574676156
 31
0.0
  0
LINE
  5
17B52
330
747D
100
AcDbEntity
  8
細線
100
AcDbLine
 10
10436.34495001058
 20
7689.93957467039
 30
0.0
 11
10371.00802659211
 21
7689.939574670376
 31
0.0
  0
LINE
  5
17B53
330
747D
100
AcDbEntity
  8
細線
100
AcDbLine
 10
10438.67649648677
 20
7684.93955711671
 30
0.0
 11
10436.34495001058
 21
7689.93957467039
 31
0.0
  0
LINE
  5
17B54
330
747D
100
AcDbEntity
  8
細線
100
AcDbLine
 10
10368.67648830135
 20
7684.939574670419
 30
0.0
 11
10371.00802659212
 21
7689.939574670404
 31
0.0
  0
LINE
  5
17B55
330
747D
100
AcDbEntity
  8
細線
100
AcDbLine
 10
10228.67652362025
 20
7684.93958285779
 30
0.0
 11
10231.00806191101
 21
7689.939582857775
 31
0.0
  0
LINE
  5
17B56
330
747D
100
AcDbEntity
  8
細線
100
AcDbLine
 10
10298.67653180566
 20
7684.939565304079
 30
0.0
 11
10296.34498532947
 21
7689.939582857757
 31
0.0
  0
LINE
  5
17B57
330
747D
100
AcDbEntity
  8
細線
100
AcDbLine
 10
10296.34498532947
 20
7689.939582857757
 30
0.0
 11
10231.008061911
 21
7689.939582857745
 31
0.0
  0
LINE
  5
17B58
330
747D
100
AcDbEntity
  8
細線
100
AcDbLine
 10
9857.176489423128
 20
7650.939754538502
 30
0.0
 11
9859.508027713895
 21
7655.939754538486
 31
0.0
  0
LINE
  5
17B59
330
747D
100
AcDbEntity
  8
細線
100
AcDbLine
 10
9927.176497608543
 20
7650.939736984788
 30
0.0
 11
9924.844951132357
 21
7655.939754538465
 31
0.0
  0
LINE
  5
17B5A
330
747D
100
AcDbEntity
  8
細線
100
AcDbLine
 10
9924.844951132357
 20
7655.939754538465
 30
0.0
 11
9859.508027713886
 21
7655.939754538458
 31
0.0
  0
LINE
  5
17B5B
330
747D
100
AcDbEntity
  8
細線
100
AcDbLine
 10
10064.84495113235
 20
7655.939754538465
 30
0.0
 11
9999.508027713885
 21
7655.939754538458
 31
0.0
  0
LINE
  5
17B5C
330
747D
100
AcDbEntity
  8
細線
100
AcDbLine
 10
10067.17649760854
 20
7650.939736984788
 30
0.0
 11
10064.84495113235
 21
7655.939754538465
 31
0.0
  0
LINE
  5
17B5D
330
747D
100
AcDbEntity
  8
細線
100
AcDbLine
 10
9997.176489423127
 20
7650.939754538502
 30
0.0
 11
9999.508027713895
 21
7655.939754538486
 31
0.0
  0
LINE
  5
17B5E
330
747D
100
AcDbEntity
  8
細線
100
AcDbLine
 10
9784.844951132356
 20
7655.939754538465
 30
0.0
 11
9719.508027713885
 21
7655.939754538454
 31
0.0
  0
LINE
  5
17B5F
330
747D
100
AcDbEntity
  8
細線
100
AcDbLine
 10
9787.176497608543
 20
7650.939736984788
 30
0.0
 11
9784.844951132356
 21
7655.939754538465
 31
0.0
  0
LINE
  5
17B60
330
747D
100
AcDbEntity
  8
細線
100
AcDbLine
 10
9717.176489423128
 20
7650.939754538498
 30
0.0
 11
9719.508027713896
 21
7655.939754538484
 31
0.0
  0
LINE
  5
17B61
330
747D
100
AcDbEntity
  8
細線
100
AcDbLine
 10
9577.176497608544
 20
7650.939754538502
 30
0.0
 11
9579.508035899312
 21
7655.939754538486
 31
0.0
  0
LINE
  5
17B62
330
747D
100
AcDbEntity
  8
細線
100
AcDbLine
 10
9647.176505793959
 20
7650.939736984788
 30
0.0
 11
9644.844959317772
 21
7655.939754538465
 31
0.0
  0
LINE
  5
17B63
330
747D
100
AcDbEntity
  8
細線
100
AcDbLine
 10
9644.844959317772
 20
7655.939754538465
 30
0.0
 11
9579.5080358993
 21
7655.939754538458
 31
0.0
  0
ARC
  5
17B64
330
747D
100
AcDbEntity
  8
部品1
 48
0.01
100
AcDbCircle
 10
9532.676386356207
 20
7649.938632353429
 30
0.0
 40
0.5
100
AcDbArc
 50
270.0
 51
0.0
  0
LINE
  5
17B65
330
747D
100
AcDbEntity
  8
部品1
 48
0.01
100
AcDbLine
 10
9533.176386356208
 20
7650.938632353429
 30
0.0
 11
9533.176386356208
 21
7649.938632353429
 31
0.0
  0
LINE
  5
17B66
330
747D
100
AcDbEntity
  8
部品1
 48
0.01
100
AcDbLine
 10
9533.176386356208
 20
7650.938632353429
 30
0.0
 11
9533.176386356208
 21
7649.938632353429
 31
0.0
  0
LINE
  5
17B67
330
747D
100
AcDbEntity
  8
部品1
 48
0.01
100
AcDbLine
 10
9532.676386356207
 20
7649.438632353429
 30
0.0
 11
9526.063880926143
 21
7649.438632353429
 31
0.0
  0
ARC
  5
17B68
330
747D
100
AcDbEntity
  8
部品1
100
AcDbCircle
 10
9526.132230478925
 20
7650.438632353429
 30
0.0
 40
1.0
100
AcDbArc
 50
160.5287793655778
 51
270.0
  0
ARC
  5
17B69
330
747D
100
AcDbEntity
  8
部品1
100
AcDbCircle
 10
9500.676386356209
 20
7659.438632353429
 30
0.0
 40
26.0
100
AcDbArc
 50
340.5287793655779
 51
0.0
  0
LINE
  5
17B6A
330
747D
100
AcDbEntity
  8
部品1
100
AcDbLine
 10
9526.676386356209
 20
7659.438632353429
 30
0.0
 11
9526.676386356209
 21
7664.438632353429
 31
0.0
  0
ARC
  5
17B6B
330
747D
100
AcDbEntity
  8
部品1
 48
0.01
100
AcDbCircle
 10
9524.676386356208
 20
7664.438632353429
 30
0.0
 40
2.0
100
AcDbArc
 50
0.0
 51
90.0
  0
ARC
  5
17B6C
330
747D
100
AcDbEntity
  8
部品1
100
AcDbCircle
 10
9523.067994731398
 20
7663.438632353429
 30
0.0
 40
3.0
100
AcDbArc
 50
90.0
 51
141.6069559807873
  0
LINE
  5
17B6D
330
747D
100
AcDbEntity
  8
部品1
 48
0.01
100
AcDbLine
 10
9524.676386356208
 20
7666.438632353429
 30
0.0
 11
9523.067994731398
 21
7666.438632353429
 31
0.0
  0
ARC
  5
17B6E
330
747D
100
AcDbEntity
  8
部品1
100
AcDbCircle
 10
9504.605672141938
 20
7662.738632353432
 30
0.0
 40
3.0
100
AcDbArc
 50
254.0576313943215
 51
270.0
  0
ARC
  5
17B6F
330
747D
100
AcDbEntity
  8
部品1
100
AcDbCircle
 10
9511.747100570479
 20
7662.738632353432
 30
0.0
 40
3.0
100
AcDbArc
 50
270.0
 51
285.9423686056786
  0
LINE
  5
17B70
330
747D
100
AcDbEntity
  8
部品1
100
AcDbLine
 10
9511.747100570479
 20
7659.738632353432
 30
0.0
 11
9504.605672141938
 21
7659.738632353432
 31
0.0
  0
ARC
  5
17B71
330
747D
100
AcDbEntity
  8
部品1
100
AcDbCircle
 10
9508.176386356209
 20
7675.238632353432
 30
0.0
 40
16.0
100
AcDbArc
 50
285.9423686056786
 51
321.6069559807873
  0
LINE
  5
17B72
330
747D
100
AcDbEntity
  8
部品1
 48
0.01
100
AcDbLine
 10
9491.676386356209
 20
7666.438632353429
 30
0.0
 11
9493.284777981019
 21
7666.438632353429
 31
0.0
  0
ARC
  5
17B73
330
747D
100
AcDbEntity
  8
部品1
100
AcDbCircle
 10
9493.284777981019
 20
7663.438632353429
 30
0.0
 40
3.0
100
AcDbArc
 50
38.39304401921267
 51
90.0
  0
ARC
  5
17B74
330
747D
100
AcDbEntity
  8
部品1
100
AcDbCircle
 10
9508.176386356209
 20
7675.238632353432
 30
0.0
 40
16.0
100
AcDbArc
 50
218.3930440192126
 51
254.0576313943215
  0
LINE
  5
17B75
330
747D
100
AcDbEntity
  8
部品1
100
AcDbLine
 10
9489.676386356208
 20
7659.438632353429
 30
0.0
 11
9489.676386356208
 21
7664.438632353429
 31
0.0
  0
ARC
  5
17B76
330
747D
100
AcDbEntity
  8
部品1
 48
0.01
100
AcDbCircle
 10
9491.676386356209
 20
7664.438632353429
 30
0.0
 40
2.0
100
AcDbArc
 50
90.0
 51
180.0
  0
ARC
  5
17B77
330
747D
100
AcDbEntity
  8
部品1
100
AcDbCircle
 10
9515.67638635621
 20
7659.438632353429
 30
0.0
 40
26.0
100
AcDbArc
 50
180.0
 51
199.4712206344221
  0
ARC
  5
17B78
330
747D
100
AcDbEntity
  8
部品1
 48
0.01
100
AcDbCircle
 10
9483.676386356208
 20
7649.938632353429
 30
0.0
 40
0.5
100
AcDbArc
 50
180.0
 51
270.0
  0
LINE
  5
17B79
330
747D
100
AcDbEntity
  8
部品1
 48
0.01
100
AcDbLine
 10
9483.676386356208
 20
7649.438632353429
 30
0.0
 11
9490.220542233492
 21
7649.438632353429
 31
0.0
  0
LINE
  5
17B7A
330
747D
100
AcDbEntity
  8
部品1
 48
0.01
100
AcDbLine
 10
9483.176386356209
 20
7650.938632353429
 30
0.0
 11
9483.176386356209
 21
7649.938632353429
 31
0.0
  0
ARC
  5
17B7B
330
747D
100
AcDbEntity
  8
部品1
100
AcDbCircle
 10
9490.220542233492
 20
7650.438632353429
 30
0.0
 40
1.0
100
AcDbArc
 50
270.0
 51
19.47122063442214
  0
LINE
  5
17B7C
330
747D
100
AcDbEntity
  8
細線
100
AcDbLine
 10
9528.676386356215
 20
7668.938632353432
 30
0.0
 11
9487.676386356216
 21
7668.938632353425
 31
0.0
  0
LINE
  5
17B7D
330
747D
100
AcDbEntity
  8
細線
100
AcDbLine
 10
9487.676386356216
 20
7668.938632353425
 30
0.0
 11
9487.676386356216
 21
7650.938632353407
 31
0.0
  0
LINE
  5
17B7E
330
747D
100
AcDbEntity
  8
細線
100
AcDbLine
 10
9528.676386356215
 20
7668.938632353432
 30
0.0
 11
9528.676386356215
 21
7650.938632353407
 31
0.0
  0
LINE
  5
17B7F
330
747D
100
AcDbEntity
  8
細線
100
AcDbLine
 10
9372.176492954954
 20
7654.939562807832
 30
0.0
 11
9372.176492954954
 21
7650.939562807881
 31
0.0
  0
DIMENSION
  5
17B80
330
747D
100
AcDbEntity
  8
寸法
 48
50.0
100
AcDbDimension
  2
*D30
 10
10638.17649295495
 20
6983.965607419493
 30
0.0
 11
10030.13618859752
 21
6983.965607419493
 31
0.0
 70
   160
  1
有効開口部間口\P<>
 71
     5
 42
1266.0
  3
INABA_S40
100
AcDbAlignedDimension
 13
9372.176492954954
 23
7645.939562807832
 33
0.0
 14
10638.17649295495
 24
7645.939562807832
 34
0.0
100
AcDbRotatedDimension
1001
ACAD
1000
DSTYLE
1002
{
1070
    41
1040
0.5
1070
    44
1040
1.0
1070
   147
1040
0.8
1070
   271
1070
     2
1070
   272
1070
     2
1070
   289
1070
     3
1070
   340
1005
F706
1070
   343
1005
16B75
1070
   344
1005
16B75
1002
}
  0
LINE
  5
17B81
330
747D
100
AcDbEntity
  8
部品1
100
AcDbLine
 10
11460.17649295495
 20
7722.939562807834
 30
0.0
 11
11487.17649295495
 21
7722.939562807834
 31
0.0
  0
LINE
  5
17B83
330
747D
100
AcDbEntity
  8
部品1
100
AcDbLine
 10
11487.17649295495
 20
7645.939562807832
 30
0.0
 11
11487.17649295495
 21
7722.939562807834
 31
0.0
  0
LINE
  5
17B84
330
747D
100
AcDbEntity
  8
部品1
100
AcDbLine
 10
11448.17649295495
 20
7718.939562807832
 30
0.0
 11
11460.17649295495
 21
7718.939562807832
 31
0.0
  0
LINE
  5
17B85
330
747D
100
AcDbEntity
  8
部品1
100
AcDbLine
 10
11457.17649295495
 20
7654.939562807832
 30
0.0
 11
11457.17649295495
 21
7645.939562807832
 31
0.0
  0
LINE
  5
17B86
330
747D
100
AcDbEntity
  8
部品1
100
AcDbLine
 10
11448.17649295495
 20
7654.939562807832
 30
0.0
 11
11457.17649295495
 21
7654.939562807832
 31
0.0
  0
LINE
  5
17B87
330
747D
100
AcDbEntity
  8
部品1
100
AcDbLine
 10
11448.17649295495
 20
7718.939562807832
 30
0.0
 11
11448.17649295495
 21
7654.939562807832
 31
0.0
  0
LINE
  5
17B88
330
747D
100
AcDbEntity
  8
部品1
100
AcDbLine
 10
11460.17649295495
 20
7749.939562807833
 30
0.0
 11
11460.17649295495
 21
7718.939562807832
 31
0.0
  0
LINE
  5
17B89
330
747D
100
AcDbEntity
  8
部品1
100
AcDbLine
 10
9372.176492954954
 20
7718.939562807832
 30
0.0
 11
9360.176492954954
 21
7718.939562807832
 31
0.0
  0
LINE
  5
17B8A
330
747D
100
AcDbEntity
  8
部品1
100
AcDbLine
 10
9333.176492954953
 20
7722.939562807834
 30
0.0
 11
9360.176492954954
 21
7722.939562807834
 31
0.0
  0
LINE
  5
17B8B
330
747D
100
AcDbEntity
  8
部品1
100
AcDbLine
 10
9363.176492954954
 20
7654.939562807832
 30
0.0
 11
9363.176492954954
 21
7645.939562807832
 31
0.0
  0
LINE
  5
17B8C
330
747D
100
AcDbEntity
  8
部品1
100
AcDbLine
 10
9372.176492954954
 20
7654.939562807832
 30
0.0
 11
9363.176492954954
 21
7654.939562807832
 31
0.0
  0
LINE
  5
17B8D
330
747D
100
AcDbEntity
  8
部品1
100
AcDbLine
 10
9363.176492954954
 20
7645.939562807832
 30
0.0
 11
9333.176492954953
 21
7645.939562807832
 31
0.0
  0
LINE
  5
17B8E
330
747D
100
AcDbEntity
  8
部品1
100
AcDbLine
 10
9333.176492954953
 20
7645.939562807832
 30
0.0
 11
9333.176492954953
 21
7722.939562807834
 31
0.0
  0
LINE
  5
17B8F
330
747D
100
AcDbEntity
  8
部品1
100
AcDbLine
 10
9372.176492954954
 20
7718.939562807832
 30
0.0
 11
9372.176492954954
 21
7654.939562807832
 31
0.0
  0
LINE
  5
17B90
330
747D
100
AcDbEntity
  8
部品1
100
AcDbLine
 10
9360.176492954954
 20
7749.939562807829
 30
0.0
 11
9360.176492954954
 21
7718.939562807832
 31
0.0
  0
LINE
  5
17B91
330
747D
100
AcDbEntity
  8
部品1
100
AcDbLine
 10
9360.176492954954
 20
7749.939562807829
 30
0.0
 11
11460.17649295495
 21
7749.939562807833
 31
0.0
  0
LINE
  5
17B92
330
747D
100
AcDbEntity
  8
部品1
100
AcDbLine
 10
11457.17649295495
 20
7645.939562807832
 30
0.0
 11
11487.17649295495
 21
7645.939562807832
 31
0.0
  0
LINE
  5
17B93
330
747D
100
AcDbEntity
  8
部品1
100
AcDbLine
 10
9363.176492954954
 20
7645.939562807832
 30
0.0
 11
11460.17649295495
 21
7645.939562807832
 31
0.0
  0
LINE
  5
17B94
330
747D
100
AcDbEntity
  8
細線
  6
Continuous
 62
     5
100
AcDbLine
 10
10739.17649295496
 20
7684.93956280783
 30
0.0
 11
10739.17649295496
 21
7684.93956280783
 31
0.0
  0
LINE
  5
17B95
330
747D
100
AcDbEntity
  8
細線
  6
Continuous
 62
     5
100
AcDbLine
 10
10731.67652827385
 20
7684.939572728886
 30
0.0
 11
10731.67652827385
 21
7684.939572728886
 31
0.0
  0
LINE
  5
17B96
330
747D
100
AcDbEntity
  8
細線
  6
Continuous
 62
     5
100
AcDbLine
 10
10725.67652827385
 20
7684.939572728886
 30
0.0
 11
10725.67652827385
 21
7684.939572728886
 31
0.0
  0
LINE
  5
17B97
330
747D
100
AcDbEntity
  8
細線
  6
Continuous
 62
     5
100
AcDbLine
 10
10793.17649295495
 20
7703.939562807829
 30
0.0
 11
10793.17649295495
 21
7703.939562807829
 31
0.0
  0
LINE
  5
17B98
330
747D
100
AcDbEntity
  8
細線
 48
50.0
100
AcDbLine
 10
9386.176497608547
 20
7671.539736984787
 30
0.0
 11
9386.176497608547
 21
7679.935887392426
 31
0.0
  0
LINE
  5
17B99
330
747D
100
AcDbEntity
  8
細線
 48
50.0
100
AcDbLine
 10
9386.176497608547
 20
7679.935887392426
 30
0.0
 11
9372.176492954954
 21
7679.935887392423
 31
0.0
  0
LINE
  5
17B9A
330
747D
100
AcDbEntity
  8
細線
 48
50.0
100
AcDbLine
 10
10137.17649760854
 20
7668.089736984787
 30
0.0
 11
10137.17649760854
 21
7672.939736984789
 31
0.0
  0
LINE
  5
17B9B
330
747D
100
AcDbEntity
  8
細線
 48
50.0
100
AcDbLine
 10
10137.17649760854
 20
7672.939736984789
 30
0.0
 11
10152.17649760854
 21
7672.939736984789
 31
0.0
  0
LINE
  5
17B9C
330
747D
100
AcDbEntity
  8
細線
 48
50.0
100
AcDbLine
 10
10152.17649760854
 20
7672.939736984789
 30
0.0
 11
10152.17649760854
 21
7679.939736984788
 31
0.0
  0
LINE
  5
17B9D
330
747D
100
AcDbEntity
  8
細線
 48
50.0
100
AcDbLine
 10
10152.17649760854
 20
7679.939736984788
 30
0.0
 11
10167.17649760854
 21
7679.939736984788
 31
0.0
  0
LINE
  5
17B9E
330
747D
100
AcDbEntity
  8
細線
 48
50.0
100
AcDbLine
 10
10167.17649760854
 20
7679.939736984788
 30
0.0
 11
10167.17649760854
 21
7650.939736984788
 31
0.0
  0
LINE
  5
17B9F
330
747D
100
AcDbEntity
  8
細線
 48
50.0
100
AcDbLine
 10
9363.176492954954
 20
7650.937071328256
 30
0.0
 11
9577.176497608544
 21
7650.939754538502
 31
0.0
  0
LINE
  5
17BA0
330
747D
100
AcDbEntity
  8
細線
 48
50.0
100
AcDbLine
 10
10067.17649760854
 20
7650.939736984788
 30
0.0
 11
10167.17649760854
 21
7650.939736984788
 31
0.0
  0
LINE
  5
17BA1
330
747D
100
AcDbEntity
  8
細線
 48
50.0
100
AcDbLine
 10
9787.176497608543
 20
7650.939736984788
 30
0.0
 11
9857.176497608543
 21
7650.939736984788
 31
0.0
  0
LINE
  5
17BA2
330
747D
100
AcDbEntity
  8
細線
 48
50.0
100
AcDbLine
 10
9800.038462621074
 20
7650.939736984788
 30
0.0
 11
9805.793980203739
 21
7669.210588275283
 31
0.0
  0
LINE
  5
17BA3
330
747D
100
AcDbEntity
  8
細線
 48
50.0
100
AcDbLine
 10
9805.793980203739
 20
7669.210588275283
 30
0.0
 11
9816.722428684174
 21
7669.210588275278
 31
0.0
  0
ARC
  5
17BA4
330
747D
100
AcDbEntity
  8
細線
 48
50.0
100
AcDbCircle
 10
9816.722428684174
 20
7668.210588275279
 30
0.0
 40
1.0
100
AcDbArc
 50
24.62431835213048
 51
90.0
  0
ARC
  5
17BA5
330
747D
100
AcDbEntity
  8
細線
 48
50.0
100
AcDbCircle
 10
9827.631140798807
 20
7668.210588275279
 30
0.0
 40
1.0
100
AcDbArc
 50
90.0
 51
155.3756816478695
  0
ARC
  5
17BA6
330
747D
100
AcDbEntity
  8
細線
 48
50.0
100
AcDbCircle
 10
9822.176784741488
 20
7670.710588275278
 30
0.0
 40
5.0
100
AcDbArc
 50
204.6243183521304
 51
335.3756816478695
  0
LINE
  5
17BA7
330
747D
100
AcDbEntity
  8
細線
 48
50.0
100
AcDbLine
 10
9827.631140798807
 20
7669.210588275278
 30
0.0
 11
9838.559589279242
 21
7669.210588275283
 31
0.0
  0
LINE
  5
17BA8
330
747D
100
AcDbEntity
  8
細線
 48
50.0
100
AcDbLine
 10
9838.559589279242
 20
7669.210588275283
 30
0.0
 11
9844.315106861909
 21
7650.939736984788
 31
0.0
  0
LINE
  5
17BA9
330
747D
100
AcDbEntity
  8
細線
 48
50.0
100
AcDbLine
 10
10137.17649760854
 20
7671.539736984787
 30
0.0
 11
9386.176497608547
 21
7671.539736984787
 31
0.0
  0
LINE
  5
17BAA
330
747D
100
AcDbEntity
  8
細線
 48
50.0
100
AcDbLine
 10
9997.176497608544
 20
7650.939736984788
 30
0.0
 11
9927.176497608543
 21
7650.939736984788
 31
0.0
  0
LINE
  5
17BAB
330
747D
100
AcDbEntity
  8
細線
100
AcDbLine
 10
9717.176497608544
 20
7650.939736984788
 30
0.0
 11
9647.176505793959
 21
7650.939736984788
 31
0.0
  0
LINE
  5
17BAC
330
747D
100
AcDbEntity
  8
細線
 48
50.0
100
AcDbLine
 10
10791.17648830137
 20
7705.539780842655
 30
0.0
 11
10156.17649760854
 21
7705.539780842652
 31
0.0
  0
LINE
  5
17BAD
330
747D
100
AcDbEntity
  8
細線
 48
50.0
100
AcDbLine
 10
10156.17649760854
 20
7702.435931250295
 30
0.0
 11
10156.17649760854
 21
7706.935931250296
 31
0.0
  0
LINE
  5
17BAE
330
747D
100
AcDbEntity
  8
細線
 48
50.0
100
AcDbLine
 10
10156.17649760854
 20
7706.935931250296
 30
0.0
 11
10141.17649760854
 21
7706.935931250296
 31
0.0
  0
LINE
  5
17BAF
330
747D
100
AcDbEntity
  8
細線
 48
50.0
100
AcDbLine
 10
10141.17649760854
 20
7706.935931250296
 30
0.0
 11
10141.17649760854
 21
7713.935931250294
 31
0.0
  0
LINE
  5
17BB0
330
747D
100
AcDbEntity
  8
細線
 48
50.0
100
AcDbLine
 10
10141.17649760854
 20
7713.935931250294
 30
0.0
 11
10126.17649760854
 21
7713.935931250292
 31
0.0
  0
LINE
  5
17BB1
330
747D
100
AcDbEntity
  8
細線
 48
50.0
100
AcDbLine
 10
10126.17649760854
 20
7713.935931250292
 30
0.0
 11
10126.17649760854
 21
7676.335703147181
 31
0.0
  0
LINE
  5
17BB2
330
747D
100
AcDbEntity
  8
細線
 48
50.0
100
AcDbLine
 10
10126.17649760854
 20
7676.335703147181
 30
0.0
 11
10146.17650490972
 21
7676.335744696721
 31
0.0
  0
LINE
  5
17BB3
330
747D
100
AcDbEntity
  8
細線
 48
50.0
100
AcDbLine
 10
10146.17646004077
 20
7684.939206332531
 30
0.0
 11
10146.17650490972
 21
7676.335744696721
 31
0.0
  0
LINE
  5
17BB4
330
747D
100
AcDbEntity
  8
細線
 48
50.0
100
AcDbLine
 10
10791.17648830137
 20
7702.089780842654
 30
0.0
 11
10791.17648830137
 21
7706.939780842652
 31
0.0
  0
LINE
  5
17BB5
330
747D
100
AcDbEntity
  8
細線
 48
50.0
100
AcDbLine
 10
10791.17648830137
 20
7706.939780842652
 30
0.0
 11
10806.17648830136
 21
7706.939780842652
 31
0.0
  0
LINE
  5
17BB6
330
747D
100
AcDbEntity
  8
細線
 48
50.0
100
AcDbLine
 10
10806.17648830136
 20
7706.939780842652
 30
0.0
 11
10806.17649993534
 21
7713.939780842697
 31
0.0
  0
LINE
  5
17BB7
330
747D
100
AcDbEntity
  8
細線
 48
50.0
100
AcDbLine
 10
10806.17649993534
 20
7713.939780842697
 30
0.0
 11
10821.17649810587
 21
7713.939780842697
 31
0.0
  0
LINE
  5
17BB8
330
747D
100
AcDbEntity
  8
細線
 48
50.0
100
AcDbLine
 10
10821.17649810587
 20
7713.939780842697
 30
0.0
 11
10821.17648780405
 21
7684.939574670423
 31
0.0
  0
LINE
  5
17BB9
330
747D
100
AcDbEntity
  8
細線
 48
50.0
100
AcDbLine
 10
10508.67651543483
 20
7684.93958285779
 30
0.0
 11
10438.67676751725
 21
7684.93957742045
 31
0.0
  0
LINE
  5
17BBA
330
747D
100
AcDbEntity
  8
細線
 48
50.0
100
AcDbLine
 10
10146.17646004077
 20
7684.939206332531
 30
0.0
 11
10157.40914939549
 21
7684.939389285677
 31
0.0
  0
ARC
  5
17BBB
330
747D
100
AcDbEntity
  8
細線
 48
50.0
100
AcDbCircle
 10
10163.99144170282
 20
7683.73955319929
 30
0.0
 40
1.8
100
AcDbArc
 50
270.0006665777295
 51
345.0005554812987
  0
LINE
  5
17BBC
330
747D
100
AcDbEntity
  8
細線
 48
50.0
100
AcDbLine
 10
10165.9778751489
 20
7684.198393656568
 30
0.0
 11
10165.7301127067
 21
7683.273695774461
 31
0.0
  0
LINE
  5
17BBD
330
747D
100
AcDbEntity
  8
細線
 48
50.0
100
AcDbLine
 10
10163.99146264398
 20
7681.93955319941
 30
0.0
 11
10160.36153522521
 21
7681.939510968931
 31
0.0
  0
ARC
  5
17BBE
330
747D
100
AcDbEntity
  8
細線
 48
50.0
100
AcDbCircle
 10
10160.36151428405
 20
7683.73951096881
 30
0.0
 40
1.8
100
AcDbArc
 50
195.0010443049394
 51
270.0006665777295
  0
LINE
  5
17BBF
330
747D
100
AcDbEntity
  8
細線
 48
50.0
100
AcDbLine
 10
10158.3750867918
 20
7684.198225936374
 30
0.0
 11
10158.62285628831
 21
7683.273604997792
 31
0.0
  0
ARC
  5
17BC0
330
747D
100
AcDbEntity
  8
細線
 48
50.0
100
AcDbCircle
 10
10157.40916568305
 20
7683.939389285811
 30
0.0
 40
1.0
100
AcDbArc
 50
15.00104430493943
 51
90.00093320877969
  0
LINE
  5
17BC1
330
747D
100
AcDbEntity
  8
細線
 48
50.0
100
AcDbLine
 10
10166.943796504
 20
7684.939583976081
 30
0.0
 11
10167.88555665491
 21
7684.939590549932
 31
0.0
  0
ARC
  5
17BC2
330
747D
100
AcDbEntity
  8
細線
 48
50.0
100
AcDbCircle
 10
10166.94380348439
 20
7683.939583976108
 30
0.0
 40
1.0
100
AcDbArc
 50
90.0003999466794
 51
165.0005554812987
  0
LINE
  5
17BC3
330
747D
100
AcDbEntity
  8
細線
 48
50.0
100
AcDbLine
 10
10718.67648830135
 20
7684.939574670423
 30
0.0
 11
10821.17648780405
 21
7684.939574670423
 31
0.0
  0
LINE
  5
17BC4
330
747D
100
AcDbEntity
  8
細線
 48
50.0
100
AcDbLine
 10
10228.67652362025
 20
7684.93958285779
 30
0.0
 11
10167.57646239333
 21
7684.939590549932
 31
0.0
  0
LINE
  5
17BC5
330
747D
100
AcDbEntity
  8
細線
 48
50.0
100
AcDbLine
 10
10648.67652362025
 20
7684.939619698872
 30
0.0
 11
10578.67651666586
 21
7684.939574676204
 31
0.0
  0
LINE
  5
17BC6
330
747D
100
AcDbEntity
  8
細線
 48
50.0
100
AcDbLine
 10
10368.67648830135
 20
7684.939574670419
 30
0.0
 11
10298.67647101348
 21
7684.939574670427
 31
0.0
  0
ARC
  5
17BC7
330
747D
100
AcDbEntity
  8
細線
 48
50.0
100
AcDbCircle
 10
10805.37649295496
 20
7718.139562807833
 30
0.0
 40
0.8
100
AcDbArc
 50
359.9997333689499
 51
89.99986668437072
  0
ARC
  5
17BC8
330
747D
100
AcDbEntity
  8
細線
 48
50.0
100
AcDbCircle
 10
10812.97649978006
 20
7718.139573976451
 30
0.0
 40
0.8
100
AcDbArc
 50
90.00014387753465
 51
179.9997333689498
  0
LINE
  5
17BC9
330
747D
100
AcDbEntity
  8
細線
 48
50.0
100
AcDbLine
 10
10805.3764948164
 20
7718.939562807832
 30
0.0
 11
10800.17649295495
 21
7718.939562807832
 31
0.0
  0
ARC
  5
17BCA
330
747D
100
AcDbEntity
  8
細線
 48
50.0
100
AcDbCircle
 10
10806.87649295495
 20
7716.639562807833
 30
0.0
 40
0.7
100
AcDbArc
 50
180.0
 51
270.0
  0
ARC
  5
17BCB
330
747D
100
AcDbEntity
  8
細線
 48
50.0
100
AcDbCircle
 10
10811.47649295495
 20
7716.639562807833
 30
0.0
 40
0.7
100
AcDbArc
 50
270.0
 51
0.0
  0
LINE
  5
17BCC
330
747D
100
AcDbEntity
  8
細線
 48
50.0
100
AcDbLine
 10
10812.17649295495
 20
7716.639562807833
 30
0.0
 11
10812.17649978007
 21
7718.139577699322
 31
0.0
  0
LINE
  5
17BCD
330
747D
100
AcDbEntity
  8
細線
 48
50.0
100
AcDbLine
 10
10806.87649295495
 20
7715.939562807832
 30
0.0
 11
10811.47649295495
 21
7715.939562807832
 31
0.0
  0
LINE
  5
17BCE
330
747D
100
AcDbEntity
  8
細線
 48
50.0
100
AcDbLine
 10
10806.17649295495
 20
7718.139562807833
 30
0.0
 11
10806.17649295495
 21
7716.639562807833
 31
0.0
  0
LINE
  5
17BCF
330
747D
100
AcDbEntity
  8
細線
 48
50.0
100
AcDbLine
 10
11431.77649295496
 20
7748.939562807833
 30
0.0
 11
10795.17649295495
 21
7748.93956280783
 31
0.0
  0
LINE
  5
17BD0
330
747D
100
AcDbEntity
  8
細線
 48
50.0
100
AcDbLine
 10
11457.67649295495
 20
7743.939562807837
 30
0.0
 11
11441.77649295496
 21
7743.939562807833
 31
0.0
  0
LINE
  5
17BD1
330
747D
100
AcDbEntity
  8
細線
 48
50.0
100
AcDbLine
 10
11441.77649295495
 20
7743.939562807833
 30
0.0
 11
11431.77649295496
 21
7748.939562807833
 31
0.0
  0
LINE
  5
17BD2
330
747D
100
AcDbEntity
  8
細線
100
AcDbLine
 10
11042.67649295495
 20
7718.939562807832
 30
0.0
 11
11042.67649295495
 21
7748.239562807832
 31
0.0
  0
LINE
  5
17BD3
330
747D
100
AcDbEntity
  8
細線
100
AcDbLine
 10
11042.67649295495
 20
7748.239562807832
 30
0.0
 11
11062.67649295495
 21
7748.239562807832
 31
0.0
  0
LINE
  5
17BD4
330
747D
100
AcDbEntity
  8
細線
100
AcDbLine
 10
11062.67649295495
 20
7718.939562807832
 30
0.0
 11
11062.67649295495
 21
7748.239562807832
 31
0.0
  0
LINE
  5
17BD5
330
747D
100
AcDbEntity
  8
細線
100
AcDbLine
 10
11223.92649295495
 20
7718.939562807832
 30
0.0
 11
11153.92649295495
 21
7718.939562807832
 31
0.0
  0
LINE
  5
17BD6
330
747D
100
AcDbEntity
  8
細線
 48
50.0
100
AcDbLine
 10
10943.92649295495
 20
7718.939562807832
 30
0.0
 11
10812.97227252779
 21
7718.939562807832
 31
0.0
  0
LINE
  5
17BD7
330
747D
100
AcDbEntity
  8
細線
100
AcDbLine
 10
11083.92649295495
 20
7718.939562807832
 30
0.0
 11
11013.92649295495
 21
7718.939562807832
 31
0.0
  0
LINE
  5
17BD8
330
747D
100
AcDbEntity
  8
細線
 48
50.0
100
AcDbLine
 10
10800.17649295495
 20
7710.939562807833
 30
0.0
 11
10800.17649295495
 21
7718.939562807832
 31
0.0
  0
LINE
  5
17BD9
330
747D
100
AcDbEntity
  8
細線
 48
50.0
100
AcDbLine
 10
10780.17649295495
 20
7710.939562807836
 30
0.0
 11
10800.17649295495
 21
7710.939562807833
 31
0.0
  0
LINE
  5
17BDA
330
747D
100
AcDbEntity
  8
細線
 48
50.0
100
AcDbLine
 10
10795.17649295495
 20
7748.939562807833
 30
0.0
 11
10795.17649295495
 21
7743.939562807833
 31
0.0
  0
LINE
  5
17BDB
330
747D
100
AcDbEntity
  8
細線
 48
50.0
100
AcDbLine
 10
10780.17649295495
 20
7748.93956280783
 30
0.0
 11
10795.17649295495
 21
7748.939562807833
 31
0.0
  0
LINE
  5
17BDC
330
747D
100
AcDbEntity
  8
細線
 48
50.0
100
AcDbLine
 10
10780.17649295495
 20
7710.939562807836
 30
0.0
 11
10780.17649295495
 21
7748.93956280783
 31
0.0
  0
LINE
  5
17BDD
330
747D
100
AcDbEntity
  8
細線
100
AcDbLine
 10
11448.17649295495
 20
7718.939562807832
 30
0.0
 11
11293.92649295495
 21
7718.939562807832
 31
0.0
  0
LINE
  5
17BDE
330
747D
100
AcDbEntity
  8
細線
 48
50.0
100
AcDbLine
 10
11457.67649295495
 20
7743.939562807837
 30
0.0
 11
11457.67649295495
 21
7718.939562807832
 31
0.0
  0
DIMENSION
  5
17E15
330
747D
100
AcDbEntity
  8
寸法
 48
50.0
100
AcDbDimension
  2
*D31
 10
11487.17649295495
 20
6708.084193418503
 30
0.0
 11
10411.9764642254
 21
6708.084193418503
 31
0.0
 70
   160
 71
     5
 42
2154.0
  3
INABA_S40G
100
AcDbAlignedDimension
 13
9333.176492954953
 23
7645.939562807829
 33
0.0
 14
11487.17649295495
 24
7645.939562807829
 34
0.0
100
AcDbRotatedDimension
1001
ACAD
1000
DSTYLE
1002
{
1070
   341
1005
0
1002
}
  0
DIMENSION
  5
17E16
330
747D
100
AcDbEntity
  8
寸法
100
AcDbDimension
  2
*D32
 10
8590.565247328262
 20
7647.939562807825
 30
0.0
 11
8590.565247328262
 21
7507.454281433587
 31
0.0
 70
   160
 71
     5
 42
75.0
  3
INABA_S40
100
AcDbAlignedDimension
 13
8885.176492954979
 23
7722.939562807825
 33
0.0
 14
9333.176492954953
 24
7647.939562807825
 34
0.0
 50
90.0
100
AcDbRotatedDimension
1001
ACAD
1000
DSTYLE
1002
{
1070
    41
1040
0.5
1070
    44
1040
1.0
1070
   147
1040
0.8
1070
   271
1070
     2
1070
   272
1070
     2
1070
   289
1070
     3
1070
   340
1005
F706
1070
   343
1005
16B75
1070
   344
1005
16B75
1002
}
  0
DIMENSION
  5
17F16
330
747D
100
AcDbEntity
  8
寸法
100
AcDbDimension
  2
*D33
 10
11515.17649295496
 20
6441.742605526823
 30
0.0
 11
10184.6158376575
 21
6441.742605526823
 31
0.0
 70
   160
 71
     5
 42
2629.999999999982
  3
INABA_S40G
100
AcDbAlignedDimension
 13
8885.176492954979
 23
7722.939562807792
 33
0.0
 14
11515.17649295496
 24
7722.939562807957
 34
0.0
100
AcDbRotatedDimension
1001
ACAD
1000
DSTYLE
1002
{
1002
}
  0
LINE
  5
17F1D
330
747D
100
AcDbEntity
  8
部品1
100
AcDbLine
 10
10581.91182606919
 20
6272.389145639866
 30
0.0
 11
9818.441159840757
 21
6272.389145639866
 31
0.0
  0
LINE
  5
17F1E
330
747D
100
AcDbEntity
  8
部品1
100
AcDbLine
 10
10581.91182606919
 20
6032.496824094335
 30
0.0
 11
10581.91182606919
 21
6272.389145639866
 31
0.0
  0
LINE
  5
17F1F
330
747D
100
AcDbEntity
  8
部品1
100
AcDbLine
 10
9818.441159840757
 20
6032.496824094335
 30
0.0
 11
10581.91182606919
 21
6032.496824094335
 31
0.0
  0
LINE
  5
17F20
330
747D
100
AcDbEntity
  8
部品1
100
AcDbLine
 10
9818.441159840757
 20
6272.389145639866
 30
0.0
 11
9818.441159840757
 21
6032.496824094335
 31
0.0
  0
TEXT
  5
17F21
330
747D
100
AcDbEntity
  8
部品1
100
AcDbText
 10
9908.360769669796
 20
6079.495616421343
 30
0.0
 40
135.0
  1
平面図
  7
STYLE2
100
AcDbText
  0
LWPOLYLINE
  5
1813B
330
747D
100
AcDbEntity
  8
部品1
 48
50.0
100
AcDbPolyline
 90
        4
 70
     1
 43
0.0
 10
9432.750459556318
 20
3443.457038820221
 10
9435.65045955632
 20
3443.457038820221
 10
9435.65045955632
 20
3452.957038820221
 10
9432.750459556318
 20
3452.957038820221
  0
CIRCLE
  5
1813C
330
747D
100
AcDbEntity
  8
部品1
 48
50.0
100
AcDbCircle
 10
9434.20045955632
 20
3448.207038820221
 30
0.0
 40
9.0
  0
ARC
  5
1813D
330
747D
100
AcDbEntity
  8
細線
 48
50.0
100
AcDbCircle
 10
9434.20045955632
 20
3448.207038820221
 30
0.0
 40
4.0
100
AcDbArc
 50
111.2538091853132
 51
248.7461908146868
  0
ARC
  5
1813E
330
747D
100
AcDbEntity
  8
細線
 48
50.0
100
AcDbCircle
 10
9434.20045955632
 20
3448.207038820221
 30
0.0
 40
17.5
100
AcDbArc
 50
306.4837370612677
 51
233.5162629387323
  0
LINE
  5
1813F
330
747D
100
AcDbEntity
  8
細線
 48
50.0
100
AcDbLine
 10
9444.200459556316
 20
3424.348078239339
 30
0.0
 11
9444.200459556318
 21
3433.33256403958
 31
0.0
  0
LINE
  5
18140
330
747D
100
AcDbEntity
  8
細線
 48
50.0
100
AcDbLine
 10
9424.20045955632
 20
3424.34807823934
 30
0.0
 11
9424.20045955632
 21
3433.332564039576
 31
0.0
  0
ARC
  5
18141
330
747D
100
AcDbEntity
  8
細線
 48
50.0
100
AcDbCircle
 10
9434.20045955632
 20
3448.207038820221
 30
0.0
 40
26.5
100
AcDbArc
 50
249.3326835063939
 51
290.6673164933835
  0
ARC
  5
18142
330
747D
100
AcDbEntity
  8
細線
 48
50.0
100
AcDbCircle
 10
9443.200459556313
 20
3424.348078239339
 30
0.0
 40
1.0
100
AcDbArc
 50
290.6673164936062
 51
359.9999999998958
  0
ARC
  5
18143
330
747D
100
AcDbEntity
  8
細線
 48
50.0
100
AcDbCircle
 10
9425.20045955632
 20
3424.34807823934
 30
0.0
 40
1.0
100
AcDbArc
 50
180.0
 51
249.3326835066164
  0
ARC
  5
18144
330
747D
100
AcDbEntity
  8
細線
 48
50.0
100
AcDbCircle
 10
9423.200459556319
 20
3433.332564039576
 30
0.0
 40
1.0
100
AcDbArc
 50
0.0
 51
53.51626293873231
  0
ARC
  5
18145
330
747D
100
AcDbEntity
  8
細線
 48
50.0
100
AcDbCircle
 10
9445.200459556323
 20
3433.33256403958
 30
0.0
 40
1.0
100
AcDbArc
 50
126.4837370615127
 51
180.0
  0
ARC
  5
18146
330
747D
100
AcDbEntity
  8
細線
 48
50.0
100
AcDbCircle
 10
9434.20045955632
 20
3448.207038820221
 30
0.0
 40
21.5
100
AcDbArc
 50
255.8014401250294
 51
284.1985598749706
  0
ARC
  5
18147
330
747D
100
AcDbEntity
  8
細線
 48
50.0
100
AcDbCircle
 10
9434.20045955632
 20
3448.207038820221
 30
0.0
 40
16.5
100
AcDbArc
 50
251.9694646069326
 51
288.0305353930674
  0
LINE
  5
18148
330
747D
100
AcDbEntity
  8
細線
 48
50.0
100
AcDbLine
 10
9439.700459556318
 20
3427.654666694414
 30
0.0
 11
9439.700459556318
 21
3432.232058381751
 31
0.0
  0
LINE
  5
18149
330
747D
100
AcDbEntity
  8
細線
 48
50.0
100
AcDbLine
 10
9428.700459556319
 20
3427.654666694414
 30
0.0
 11
9428.700459556319
 21
3432.23205838175
 31
0.0
  0
ARC
  5
1814A
330
747D
100
AcDbEntity
  8
細線
 48
50.0
100
AcDbCircle
 10
9429.000459556322
 20
3432.23205838175
 30
0.0
 40
0.3
100
AcDbArc
 50
71.96946460693259
 51
180.0
  0
ARC
  5
1814B
330
747D
100
AcDbEntity
  8
細線
 48
50.0
100
AcDbCircle
 10
9439.400459556321
 20
3432.232058381751
 30
0.0
 40
0.3
100
AcDbArc
 50
0.0
 51
108.0305353930674
  0
ARC
  5
1814C
330
747D
100
AcDbEntity
  8
細線
 48
50.0
100
AcDbCircle
 10
9439.400459556315
 20
3427.654666694414
 30
0.0
 40
0.3
100
AcDbArc
 50
284.1985598747622
 51
0.0000000001042204
  0
ARC
  5
1814D
330
747D
100
AcDbEntity
  8
細線
 48
50.0
100
AcDbCircle
 10
9429.000459556322
 20
3427.654666694414
 30
0.0
 40
0.3
100
AcDbArc
 50
180.0
 51
255.8014401248081
  0
CIRCLE
  5
1814E
330
747D
100
AcDbEntity
  8
細線
 48
50.0
100
AcDbCircle
 10
9434.20045955632
 20
3448.207038820221
 30
0.0
 40
12.0
  0
ARC
  5
1814F
330
747D
100
AcDbEntity
  8
部品1
 48
50.0
100
AcDbCircle
 10
9434.20045955632
 20
3498.207038820221
 30
0.0
 40
8.5
100
AcDbArc
 50
114.315739171091
 51
245.684260828909
  0
CIRCLE
  5
18150
330
747D
100
AcDbEntity
  8
細線
 48
50.0
100
AcDbCircle
 10
9434.20045955632
 20
3498.207038820221
 30
0.0
 40
4.5
  0
LWPOLYLINE
  5
18151
330
747D
100
AcDbEntity
  8
部品1
 48
50.0
100
AcDbPolyline
 90
        2
 70
     0
 43
0.0
 10
9430.700459556319
 20
3516.881888217204
 10
9430.700459556319
 20
3505.953005512636
  0
CIRCLE
  5
18152
330
747D
100
AcDbEntity
  8
部品1
 48
50.0
100
AcDbCircle
 10
9434.20045955632
 20
3498.207038820221
 30
0.0
 40
19.0
  0
LWPOLYLINE
  5
18153
330
747D
100
AcDbEntity
  8
部品1
 48
50.0
100
AcDbPolyline
 90
        2
 70
     0
 43
0.0
 10
9430.700459556319
 20
3490.461072127806
 10
9430.700459556319
 20
3479.532189423239
  0
LWPOLYLINE
  5
18154
330
747D
100
AcDbEntity
  8
部品1
 48
50.0
100
AcDbPolyline
 90
        2
 70
     0
 43
0.0
 10
9437.700459556319
 20
3505.953005512636
 10
9437.700459556319
 20
3516.881888217204
  0
ARC
  5
18155
330
747D
100
AcDbEntity
  8
部品1
 48
50.0
100
AcDbCircle
 10
9434.20045955632
 20
3498.207038820221
 30
0.0
 40
8.5
100
AcDbArc
 50
294.315739171091
 51
65.68426082890896
  0
LWPOLYLINE
  5
18156
330
747D
100
AcDbEntity
  8
部品1
 48
50.0
100
AcDbPolyline
 90
        2
 70
     0
 43
0.0
 10
9437.700459556319
 20
3479.532189423239
 10
9437.700459556319
 20
3490.461072127806
  0
ARC
  5
18157
330
747D
100
AcDbEntity
  8
細線
 48
50.0
100
AcDbCircle
 10
9434.20045955632
 20
3498.207038820221
 30
0.0
 40
16.5
100
AcDbArc
 50
332.0012352654438
 51
27.99876473455621
  0
ARC
  5
18158
330
747D
100
AcDbEntity
  8
細線
 48
50.0
100
AcDbCircle
 10
9434.20045955632
 20
3498.207038820221
 30
0.0
 40
14.0
100
AcDbArc
 50
326.4074436112986
 51
33.59255638870134
  0
LINE
  5
18159
330
747D
100
AcDbEntity
  8
細線
 48
50.0
100
AcDbLine
 10
9419.631657271988
 20
3505.953005512636
 30
0.0
 11
9422.53855576663
 21
3505.953005512636
 31
0.0
  0
LINE
  5
1815A
330
747D
100
AcDbEntity
  8
細線
 48
50.0
100
AcDbLine
 10
9419.631657271988
 20
3490.461072127806
 30
0.0
 11
9422.53855576663
 21
3490.461072127806
 31
0.0
  0
LINE
  5
1815B
330
747D
100
AcDbEntity
  8
細線
 48
50.0
100
AcDbLine
 10
9445.862363346007
 20
3505.953005512636
 30
0.0
 11
9448.769261840654
 21
3505.953005512636
 31
0.0
  0
LINE
  5
1815C
330
747D
100
AcDbEntity
  8
細線
 48
50.0
100
AcDbLine
 10
9445.862363346007
 20
3490.461072127806
 30
0.0
 11
9448.769261840654
 21
3490.461072127806
 31
0.0
  0
ARC
  5
1815D
330
747D
100
AcDbEntity
  8
細線
 48
50.0
100
AcDbCircle
 10
9434.20045955632
 20
3498.207038820221
 30
0.0
 40
14.0
100
AcDbArc
 50
146.4074436112986
 51
213.5925563887013
  0
ARC
  5
1815E
330
747D
100
AcDbEntity
  8
細線
 48
50.0
100
AcDbCircle
 10
9434.20045955632
 20
3498.207038820221
 30
0.0
 40
16.5
100
AcDbArc
 50
152.0012352654438
 51
207.9987647345562
  0
ARC
  5
1815F
330
747D
100
AcDbEntity
  8
部品1
 48
50.0
100
AcDbCircle
 10
9407.70045955632
 20
3523.707038820222
 30
0.0
 40
5.0
100
AcDbArc
 50
90.0
 51
180.0
  0
ARC
  5
18160
330
747D
100
AcDbEntity
  8
部品1
 48
50.0
100
AcDbCircle
 10
9407.70045955632
 20
3412.707038820221
 30
0.0
 40
5.0
100
AcDbArc
 50
180.0
 51
270.0
  0
ARC
  5
18161
330
747D
100
AcDbEntity
  8
部品1
 48
50.0
100
AcDbCircle
 10
9460.700459556319
 20
3412.707038820221
 30
0.0
 40
5.0
100
AcDbArc
 50
270.0
 51
0.0
  0
ARC
  5
18162
330
747D
100
AcDbEntity
  8
部品1
 48
50.0
100
AcDbCircle
 10
9460.700459556319
 20
3523.707038820222
 30
0.0
 40
5.0
100
AcDbArc
 50
0.0
 51
90.0
  0
LINE
  5
18164
330
747D
100
AcDbEntity
  8
部品1
 48
50.0
100
AcDbLine
 10
9402.700459556319
 20
3412.707038820221
 30
0.0
 11
9402.700459556319
 21
3523.707038820222
 31
0.0
  0
LINE
  5
18165
330
747D
100
AcDbEntity
  8
部品1
 48
50.0
100
AcDbLine
 10
9460.700459556319
 20
3407.707038820221
 30
0.0
 11
9407.70045955632
 21
3407.707038820221
 31
0.0
  0
LINE
  5
18166
330
747D
100
AcDbEntity
  8
部品1
 48
50.0
100
AcDbLine
 10
9465.70045955632
 20
3523.707038820222
 30
0.0
 11
9465.70045955632
 21
3412.707038820221
 31
0.0
  0
ENDSEC
  0
SECTION
  2
OBJECTS
  0
DICTIONARY
  5
7471
330
0
100
AcDbDictionary
281
     1
  3
ACAD_COLOR
350
16B6A
  3
ACAD_GROUP
350
7472
  3
ACAD_LAYOUT
350
16B6B
  3
ACAD_MATERIAL
350
16B69
  3
ACAD_MLINESTYLE
350
7473
  3
ACAD_PLOTSETTINGS
350
16B6C
  3
ACAD_PLOTSTYLENAME
350
16B67
  3
ACDBHEADERROUNDTRIPXREC
350
18185
  3
AcDbVariableDictionary
350
18181
  3
CONTENTDICTIONARY
350
E71C
  3
DRAWINGVARIABLESDICT
350
F3B9
  0
DICTIONARY
  5
16D04
330
7467
100
AcDbDictionary
280
     1
281
     1
  3
ACAD_LAYERSTATES
360
16D05
  0
DICTIONARY
  5
16B6A
102
{ACAD_REACTORS
330
7471
102
}
330
7471
100
AcDbDictionary
281
     1
  0
DICTIONARY
  5
7472
102
{ACAD_REACTORS
330
7471
102
}
330
7471
100
AcDbDictionary
281
     1
  0
DICTIONARY
  5
16B6B
102
{ACAD_REACTORS
330
7471
102
}
330
7471
100
AcDbDictionary
281
     1
  3
Model
350
16B6D
  3
レイアウト1
350
16B6E
  0
DICTIONARY
  5
16B69
102
{ACAD_REACTORS
330
7471
102
}
330
7471
100
AcDbDictionary
281
     1
  0
DICTIONARY
  5
7473
102
{ACAD_REACTORS
330
7471
102
}
330
7471
100
AcDbDictionary
281
     1
  3
STANDARD
350
7480
  0
DICTIONARY
  5
16B6C
102
{ACAD_REACTORS
330
7471
102
}
330
7471
100
AcDbDictionary
281
     1
  0
ACDBDICTIONARYWDFLT
  5
16B67
102
{ACAD_REACTORS
330
7471
102
}
330
7471
100
AcDbDictionary
281
     1
  3
Normal
350
16B68
100
AcDbDictionaryWithDefault
340
16B68
  0
DICTIONARY
  5
18185
102
{ACAD_REACTORS
330
7471
102
}
330
7471
100
AcDbDictionary
281
     1
  3
COLORDICT
350
18187
  3
MATERIALDICT
350
18186
  0
DICTIONARY
  5
18181
102
{ACAD_REACTORS
330
7471
102
}
330
7471
100
AcDbDictionary
281
     1
  3
DIMASSOC
350
18182
  3
PROJECTNAME
350
18183
  0
DICTIONARY
  5
E71C
102
{ACAD_REACTORS
330
7471
102
}
330
7471
100
AcDbDictionary
281
     1
  0
DICTIONARY
  5
F3B9
102
{ACAD_REACTORS
330
7471
102
}
330
7471
100
AcDbDictionary
281
     1
1001
DRAWINGVARIABLESXDATA
1000
POLARMODE
1000
1
  0
DICTIONARY
  5
16D05
102
{ACAD_REACTORS
330
16D04
102
}
330
16D04
100
AcDbDictionary
281
     1
  0
LAYOUT
  5
16B6D
102
{ACAD_XDICTIONARY
360
18188
102
}
102
{ACAD_REACTORS
330
16B6B
102
}
330
16B6B
100
AcDbPlotSettings
  1

  2
クセロPDF
  4
A3
  6

 40
3.174999952316284
 41
3.174999952316284
 42
3.17498779296875
 43
3.17498779296875
 44
419.9466552734374
 45
296.9259948730469
 46
0.0
 47
0.0
 48
3.619013395666115
 49
-4.192117100517862
140
820.022926294543
141
573.2392198881443
142
1.0
143
39.99735023620806
 70
 11952
 72
     1
 73
     0
 74
     2
  7
inaba.ctb
 75
     0
147
0.0250016562120842
148
25.79074261211281
149
125.8223078213959
100
AcDbLayout
  1
Model
 70
     1
 71
     0
 10
0.0
 20
0.0
 11
12.0
 21
9.0
 12
0.0
 22
0.0
 32
0.0
 14
0.0
 24
0.0
 34
0.0
 15
0.0
 25
0.0
 35
0.0
146
0.0
 13
0.0
 23
0.0
 33
0.0
 16
1.0
 26
0.0
 36
0.0
 17
0.0
 27
1.0
 37
0.0
 76
     0
330
747D
  0
LAYOUT
  5
16B6E
102
{ACAD_XDICTIONARY
360
1818A
102
}
102
{ACAD_REACTORS
330
16B6B
102
}
330
16B6B
100
AcDbPlotSettings
  1

  2
Microsoft Office Document Image Writer
  4

  6

 40
0.0
 41
0.0
 42
0.0
 43
0.0
 44
0.0
 45
0.0
 46
0.0
 47
0.0
 48
0.0
 49
0.0
140
0.0
141
0.0
142
1.0
143
1.0
 70
   688
 72
     0
 73
     0
 74
     5
  7

 75
    16
147
1.0
148
0.0
149
0.0
100
AcDbLayout
  1
レイアウト1
 70
     0
 71
     1
 10
0.0
 20
0.0
 11
420.0
 21
297.0
 12
0.0
 22
0.0
 32
0.0
 14
1.000000000000000E+20
 24
1.000000000000000E+20
 34
1.000000000000000E+20
 15
-1.000000000000000E+20
 25
-1.000000000000000E+20
 35
-1.000000000000000E+20
146
0.0
 13
0.0
 23
0.0
 33
0.0
 16
1.0
 26
0.0
 36
0.0
 17
0.0
 27
1.0
 37
0.0
 76
     0
330
747A
  0
MLINESTYLE
  5
7480
102
{ACAD_REACTORS
330
7473
102
}
330
7473
100
AcDbMlineStyle
  2
STANDARD
 70
     0
  3

 62
     0
 51
90.0
 52
90.0
 71
     2
 49
0.5
 62
   256
  6
BYLAYER
 49
-0.5
 62
   256
  6
BYLAYER
  0
ACDBPLACEHOLDER
  5
16B68
102
{ACAD_REACTORS
330
16B67
102
}
330
16B67
  0
XRECORD
  5
18187
102
{ACAD_REACTORS
330
18185
102
}
330
18185
100
AcDbXrecord
280
     1
340
16B6A
  0
XRECORD
  5
18186
102
{ACAD_REACTORS
330
18185
102
}
330
18185
100
AcDbXrecord
280
     1
340
16B69
  0
DICTIONARYVAR
  5
18182
102
{ACAD_REACTORS
330
18181
102
}
330
18181
100
DictionaryVariables
280
     0
  1
1
  0
DICTIONARYVAR
  5
18183
102
{ACAD_REACTORS
330
18181
102
}
330
18181
100
DictionaryVariables
280
     0
  1

  0
DICTIONARY
  5
18188
330
16B6D
100
AcDbDictionary
280
     1
281
     1
  3
ACAD_XREC_ROUNDTRIP
360
18189
  0
DICTIONARY
  5
1818A
330
16B6E
100
AcDbDictionary
280
     1
281
     1
  3
ACAD_XREC_ROUNDTRIP
360
1818B
  0
XRECORD
  5
18189
102
{ACAD_REACTORS
330
18188
102
}
330
18188
100
AcDbXrecord
280
     1
102
SHADEPLOT
 70
     0
102
SHADEPLOTRESLEVEL
 70
     2
102
SHADEPLOTCUSTOMDPI
 70
   150
  0
XRECORD
  5
1818B
102
{ACAD_REACTORS
330
1818A
102
}
330
1818A
100
AcDbXrecord
280
     1
102
SHADEPLOT
 70
     0
102
SHADEPLOTRESLEVEL
 70
     2
102
SHADEPLOTCUSTOMDPI
 70
   300
  0
ENDSEC
  0
EOF
