  0
SECTION
  2
HEADER
  9
$ACADVER
  1
AC1015
  9
$ACADMAINTVER
 70
    20
  9
$DWGCODEPAGE
  3
ANSI_932
  9
$INSBASE
 10
0.0
 20
0.0
 30
0.0
  9
$EXTMIN
 10
139.9999999999995
 20
-0.0000000000000909
 30
0.0
  9
$EXTMAX
 10
16307.2
 20
11409.6
 30
0.0
  9
$LIMMIN
 10
-25.79074261211281
 20
-125.8223078213959
  9
$LIMMAX
 10
16471.10331197129
 20
11496.44801950658
  9
$ORTHOMODE
 70
     0
  9
$REGENMODE
 70
     1
  9
$FILLMODE
 70
     1
  9
$QTEXTMODE
 70
     0
  9
$MIRRTEXT
 70
     1
  9
$LTSCALE
 40
20.0
  9
$ATTMODE
 70
     1
  9
$TEXTSIZE
 40
4.0
  9
$TRACEWID
 40
1.0
  9
$TEXTSTYLE
  7
STYLE1
  9
$CLAYER
  8
部品1
  9
$CELTYPE
  6
BYLAYER
  9
$CECOLOR
 62
   256
  9
$CELTSCALE
 40
50.0
  9
$DISPSILH
 70
     0
  9
$DIMSCALE
 40
40.0
  9
$DIMASZ
 40
2.5
  9
$DIMEXO
 40
0.5
  9
$DIMDLI
 40
7.0
  9
$DIMRND
 40
0.0
  9
$DIMDLE
 40
0.0
  9
$DIMEXE
 40
1.5
  9
$DIMTP
 40
0.0
  9
$DIMTM
 40
0.0
  9
$DIMTXT
 40
3.0
  9
$DIMCEN
 40
0.0
  9
$DIMTSZ
 40
0.0
  9
$DIMTOL
 70
     0
  9
$DIMLIM
 70
     0
  9
$DIMTIH
 70
     0
  9
$DIMTOH
 70
     0
  9
$DIMSE1
 70
     0
  9
$DIMSE2
 70
     0
  9
$DIMTAD
 70
     3
  9
$DIMZIN
 70
     8
  9
$DIMBLK
  1

  9
$DIMASO
 70
     1
  9
$DIMSHO
 70
     1
  9
$DIMPOST
  1

  9
$DIMAPOST
  1

  9
$DIMALT
 70
     0
  9
$DIMALTD
 70
     2
  9
$DIMALTF
 40
0.0394
  9
$DIMLFAC
 40
1.0
  9
$DIMTOFL
 70
     1
  9
$DIMTVP
 40
0.0
  9
$DIMTIX
 70
     1
  9
$DIMSOXD
 70
     0
  9
$DIMSAH
 70
     1
  9
$DIMBLK1
  1
DOTSMALL
  9
$DIMBLK2
  1
DOTSMALL
  9
$DIMSTYLE
  2
INABA_S40G
  9
$DIMCLRD
 70
     0
  9
$DIMCLRE
 70
     0
  9
$DIMCLRT
 70
     7
  9
$DIMTFAC
 40
1.0
  9
$DIMGAP
 40
1.0
  9
$DIMJUST
 70
     0
  9
$DIMSD1
 70
     0
  9
$DIMSD2
 70
     0
  9
$DIMTOLJ
 70
     1
  9
$DIMTZIN
 70
     0
  9
$DIMALTZ
 70
     0
  9
$DIMALTTZ
 70
     0
  9
$DIMUPT
 70
     0
  9
$DIMDEC
 70
     1
  9
$DIMTDEC
 70
     4
  9
$DIMALTU
 70
     2
  9
$DIMALTTD
 70
     2
  9
$DIMTXSTY
  7
STYLE1
  9
$DIMAUNIT
 70
     0
  9
$DIMADEC
 70
     0
  9
$DIMALTRND
 40
0.0
  9
$DIMAZIN
 70
     0
  9
$DIMDSEP
 70
    46
  9
$DIMATFIT
 70
     3
  9
$DIMFRAC
 70
     0
  9
$DIMLDRBLK
  1

  9
$DIMLUNIT
 70
     2
  9
$DIMLWD
 70
    -2
  9
$DIMLWE
 70
    -2
  9
$DIMTMOVE
 70
     0
  9
$LUNITS
 70
     2
  9
$LUPREC
 70
     1
  9
$SKETCHINC
 40
1.0
  9
$FILLETRAD
 40
3.0
  9
$AUNITS
 70
     0
  9
$AUPREC
 70
     0
  9
$MENU
  1
acad
  9
$ELEVATION
 40
0.0
  9
$PELEVATION
 40
0.0
  9
$THICKNESS
 40
0.0
  9
$LIMCHECK
 70
     0
  9
$CHAMFERA
 40
0.0
  9
$CHAMFERB
 40
0.0
  9
$CHAMFERC
 40
0.0
  9
$CHAMFERD
 40
0.0
  9
$SKPOLY
 70
     0
  9
$TDCREATE
 40
2451368.612993866
  9
$TDUCREATE
 40
2451368.237993866
  9
$TDUPDATE
 40
2455575.683172558
  9
$TDUUPDATE
 40
2455575.308172558
  9
$TDINDWG
 40
0.4958975116
  9
$TDUSRTIMER
 40
0.4958975116
  9
$USRTIMER
 70
     1
  9
$ANGBASE
 50
0.0
  9
$ANGDIR
 70
     0
  9
$PDMODE
 70
     3
  9
$PDSIZE
 40
2.0
  9
$PLINEWID
 40
0.0
  9
$SPLFRAME
 70
     0
  9
$SPLINETYPE
 70
     6
  9
$SPLINESEGS
 70
     8
  9
$HANDSEED
  5
19483
  9
$SURFTAB1
 70
     6
  9
$SURFTAB2
 70
     6
  9
$SURFTYPE
 70
     6
  9
$SURFU
 70
     6
  9
$SURFV
 70
     6
  9
$UCSBASE
  2

  9
$UCSNAME
  2

  9
$UCSORG
 10
0.0
 20
0.0
 30
0.0
  9
$UCSXDIR
 10
1.0
 20
0.0
 30
0.0
  9
$UCSYDIR
 10
0.0
 20
1.0
 30
0.0
  9
$UCSORTHOREF
  2

  9
$UCSORTHOVIEW
 70
     0
  9
$UCSORGTOP
 10
0.0
 20
0.0
 30
0.0
  9
$UCSORGBOTTOM
 10
0.0
 20
0.0
 30
0.0
  9
$UCSORGLEFT
 10
0.0
 20
0.0
 30
0.0
  9
$UCSORGRIGHT
 10
0.0
 20
0.0
 30
0.0
  9
$UCSORGFRONT
 10
0.0
 20
0.0
 30
0.0
  9
$UCSORGBACK
 10
0.0
 20
0.0
 30
0.0
  9
$PUCSBASE
  2

  9
$PUCSNAME
  2

  9
$PUCSORG
 10
0.0
 20
0.0
 30
0.0
  9
$PUCSXDIR
 10
1.0
 20
0.0
 30
0.0
  9
$PUCSYDIR
 10
0.0
 20
1.0
 30
0.0
  9
$PUCSORTHOREF
  2

  9
$PUCSORTHOVIEW
 70
     0
  9
$PUCSORGTOP
 10
0.0
 20
0.0
 30
0.0
  9
$PUCSORGBOTTOM
 10
0.0
 20
0.0
 30
0.0
  9
$PUCSORGLEFT
 10
0.0
 20
0.0
 30
0.0
  9
$PUCSORGRIGHT
 10
0.0
 20
0.0
 30
0.0
  9
$PUCSORGFRONT
 10
0.0
 20
0.0
 30
0.0
  9
$PUCSORGBACK
 10
0.0
 20
0.0
 30
0.0
  9
$USERI1
 70
     0
  9
$USERI2
 70
     0
  9
$USERI3
 70
     0
  9
$USERI4
 70
     0
  9
$USERI5
 70
     0
  9
$USERR1
 40
0.0
  9
$USERR2
 40
0.0
  9
$USERR3
 40
0.0
  9
$USERR4
 40
0.0
  9
$USERR5
 40
0.0
  9
$WORLDVIEW
 70
     1
  9
$SHADEDGE
 70
     3
  9
$SHADEDIF
 70
    70
  9
$TILEMODE
 70
     1
  9
$MAXACTVP
 70
    16
  9
$PINSBASE
 10
0.0
 20
0.0
 30
0.0
  9
$PLIMCHECK
 70
     0
  9
$PEXTMIN
 10
1.000000000000000E+20
 20
1.000000000000000E+20
 30
1.000000000000000E+20
  9
$PEXTMAX
 10
-1.000000000000000E+20
 20
-1.000000000000000E+20
 30
-1.000000000000000E+20
  9
$PLIMMIN
 10
0.0
 20
0.0
  9
$PLIMMAX
 10
420.0
 20
297.0
  9
$UNITMODE
 70
     0
  9
$VISRETAIN
 70
     0
  9
$PLINEGEN
 70
     0
  9
$PSLTSCALE
 70
     0
  9
$TREEDEPTH
 70
  3020
  9
$CMLSTYLE
  2
STANDARD
  9
$CMLJUST
 70
     0
  9
$CMLSCALE
 40
1.0
  9
$PROXYGRAPHICS
 70
     1
  9
$MEASUREMENT
 70
     1
  9
$CELWEIGHT
370
    -1
  9
$ENDCAPS
280
     0
  9
$JOINSTYLE
280
     0
  9
$LWDISPLAY
290
     0
  9
$INSUNITS
 70
     0
  9
$HYPERLINKBASE
  1

  9
$STYLESHEET
  1
inaba.ctb
  9
$XEDIT
290
     1
  9
$CEPSNTYPE
380
     0
  9
$PSTYLEMODE
290
     1
  9
$FINGERPRINTGUID
  2
{E4BF0BDD-D8DD-4C02-9806-F1B093A26AB8}
  9
$VERSIONGUID
  2
{EE930EB2-3C0D-4390-81C1-9C933CC9F14E}
  9
$EXTNAMES
290
     1
  9
$PSVPSCALE
 40
0.0
  9
$OLESTARTUP
290
     0
  0
ENDSEC
  0
SECTION
  2
CLASSES
  0
CLASS
  1
ACDBDICTIONARYWDFLT
  2
AcDbDictionaryWithDefault
  3
ObjectDBX Classes
 90
        0
280
     0
281
     0
  0
CLASS
  1
DICTIONARYVAR
  2
AcDbDictionaryVar
  3
ObjectDBX Classes
 90
        0
280
     0
281
     0
  0
CLASS
  1
ACDBPLACEHOLDER
  2
AcDbPlaceHolder
  3
ObjectDBX Classes
 90
        0
280
     0
281
     0
  0
CLASS
  1
LAYOUT
  2
AcDbLayout
  3
ObjectDBX Classes
 90
        0
280
     0
281
     0
  0
ENDSEC
  0
SECTION
  2
TABLES
  0
TABLE
  2
VPORT
  5
746D
330
0
100
AcDbSymbolTable
 70
     2
  0
VPORT
  5
1947B
330
746D
100
AcDbSymbolTableRecord
100
AcDbViewportTableRecord
  2
*Active
 70
     0
 10
0.0
 20
0.0
 11
1.0
 21
1.0
 12
8223.761025238504
 22
5704.608037261908
 13
0.0
 23
0.0
 14
10.0
 24
10.0
 15
10.0
 25
10.0
 16
0.0
 26
0.0
 36
1.0
 17
0.0
 27
0.0
 37
0.0
 40
11495.08541324274
 41
1.525925925925925
 42
50.0
 43
0.0
 44
0.0
 50
0.0
 51
0.0
 71
     0
 72
     0
 73
     1
 74
     0
 75
     0
 76
     0
 77
     0
 78
     0
281
     0
 65
     1
110
0.0
120
0.0
130
0.0
111
1.0
121
0.0
131
0.0
112
0.0
122
1.0
132
0.0
 79
     0
146
0.0
  0
ENDTAB
  0
TABLE
  2
LTYPE
  5
746A
330
0
100
AcDbSymbolTable
 70
     4
  0
LTYPE
  5
7477
330
746A
100
AcDbSymbolTableRecord
100
AcDbLinetypeTableRecord
  2
BYBLOCK
 70
     0
  3

 72
    65
 73
     0
 40
0.0
  0
LTYPE
  5
7478
330
746A
100
AcDbSymbolTableRecord
100
AcDbLinetypeTableRecord
  2
BYLAYER
 70
     0
  3

 72
    65
 73
     0
 40
0.0
  0
LTYPE
  5
7479
330
746A
100
AcDbSymbolTableRecord
100
AcDbLinetypeTableRecord
  2
CONTINUOUS
 70
     0
  3
Solid line
 72
    65
 73
     0
 40
0.0
  0
LTYPE
  5
7816
330
746A
100
AcDbSymbolTableRecord
100
AcDbLinetypeTableRecord
  2
CENTER
 70
     0
  3
____ _ ____ _ ____ _ ____ _ ____ _ ____ _ ____ 
 72
    65
 73
     4
 40
2.0
 49
1.25
 74
     0
 49
-0.25
 74
     0
 49
0.25
 74
     0
 49
-0.25
 74
     0
  0
LTYPE
  5
781A
330
746A
100
AcDbSymbolTableRecord
100
AcDbLinetypeTableRecord
  2
HIDDEN
 70
     0
  3
__ __ __ __ __ __ __ __ __ __ __ __ __ __ __ __
 72
    65
 73
     2
 40
0.375
 49
0.25
 74
     0
 49
-0.125
 74
     0
  0
LTYPE
  5
781B
330
746A
100
AcDbSymbolTableRecord
100
AcDbLinetypeTableRecord
  2
PHANTOM
 70
     0
  3
______  __  __  ______  __  __  ______  __  __ 
 72
    65
 73
     6
 40
2.5
 49
1.25
 74
     0
 49
-0.25
 74
     0
 49
0.25
 74
     0
 49
-0.25
 74
     0
 49
0.25
 74
     0
 49
-0.25
 74
     0
  0
ENDTAB
  0
TABLE
  2
LAYER
  5
7467
102
{ACAD_XDICTIONARY
360
179E1
102
}
330
0
100
AcDbSymbolTable
 70
    12
  0
LAYER
  5
7474
330
7467
100
AcDbSymbolTableRecord
100
AcDbLayerTableRecord
  2
0
 70
     0
 62
     7
  6
CONTINUOUS
370
    -3
390
17845
  0
LAYER
  5
DEB2
330
7467
100
AcDbSymbolTableRecord
100
AcDbLayerTableRecord
  2
センター
 70
     0
 62
     3
  6
CENTER
370
    -3
390
17845
  0
LAYER
  5
DEB3
330
7467
100
AcDbSymbolTableRecord
100
AcDbLayerTableRecord
  2
寸法
 70
     0
 62
     4
  6
CONTINUOUS
370
    -3
390
17845
  0
LAYER
  5
DEB4
330
7467
100
AcDbSymbolTableRecord
100
AcDbLayerTableRecord
  2
部品1
 70
     0
 62
     7
  6
CONTINUOUS
370
    -3
390
17845
  0
LAYER
  5
DEB5
330
7467
100
AcDbSymbolTableRecord
100
AcDbLayerTableRecord
  2
補助
 70
     0
 62
    -1
  6
CONTINUOUS
370
    -3
390
17845
  0
LAYER
  5
DEB6
330
7467
100
AcDbSymbolTableRecord
100
AcDbLayerTableRecord
  2
文字
 70
     0
 62
     7
  6
CONTINUOUS
370
    -3
390
17845
  0
LAYER
  5
F255
330
7467
100
AcDbSymbolTableRecord
100
AcDbLayerTableRecord
  2
DEFPOINTS
 70
     0
 62
     7
  6
CONTINUOUS
290
     0
370
    -3
390
17845
  0
LAYER
  5
10B54
330
7467
100
AcDbSymbolTableRecord
100
AcDbLayerTableRecord
  2
仕様書枠
 70
     0
 62
   230
  6
CONTINUOUS
370
    -3
390
17845
  0
LAYER
  5
11729
330
7467
100
AcDbSymbolTableRecord
100
AcDbLayerTableRecord
  2
Ｇ．Ｌ
 70
     0
 62
    30
  6
CONTINUOUS
370
    -3
390
17845
  0
LAYER
  5
1173F
330
7467
100
AcDbSymbolTableRecord
100
AcDbLayerTableRecord
  2
細線
 70
     0
 62
     5
  6
CONTINUOUS
370
    -3
390
17845
  0
LAYER
  5
12CC4
330
7467
100
AcDbSymbolTableRecord
100
AcDbLayerTableRecord
  2
想像線
 70
     0
 62
     6
  6
PHANTOM
370
    -3
390
17845
  0
LAYER
  5
142E2
330
7467
100
AcDbSymbolTableRecord
100
AcDbLayerTableRecord
  2
破線
 70
     0
 62
     2
  6
HIDDEN
370
    -3
390
17845
  0
ENDTAB
  0
TABLE
  2
STYLE
  5
7468
330
0
100
AcDbSymbolTable
 70
     4
  0
STYLE
  5
7475
330
7468
100
AcDbSymbolTableRecord
100
AcDbTextStyleTableRecord
  2
STANDARD
 70
     0
 40
0.0
 41
1.0
 50
0.0
 71
     0
 42
4.0
  3
txt
  4
C:\AutoCAD LT\bigfont.shx
  0
STYLE
  5
F706
330
7468
100
AcDbSymbolTableRecord
100
AcDbTextStyleTableRecord
  2
STYLE1
 70
     0
 40
0.0
 41
1.0
 50
0.0
 71
     0
 42
4.0
  3
isocp.shx
  4
bigfont.shx
  0
STYLE
  5
103BF
330
7468
100
AcDbSymbolTableRecord
100
AcDbTextStyleTableRecord
  2
STYLE2
 70
     0
 40
0.0
 41
1.0
 50
0.0
 71
     0
 42
100.0
  3
MS PGothic.ttf
  4

1001
ACAD
1000
MS PGothic
1071
    32818
  0
STYLE
  5
18535
330
7468
100
AcDbSymbolTableRecord
100
AcDbTextStyleTableRecord
  2
STYLE3
 70
     0
 40
0.0
 41
1.0
 50
0.0
 71
     0
 42
100.0
  3
DFPGothic-EB.ttf
  4

1001
ACAD
1000
DFPGothic-EB
1071
    32818
  0
ENDTAB
  0
TABLE
  2
VIEW
  5
746B
330
0
100
AcDbSymbolTable
 70
     0
  0
ENDTAB
  0
TABLE
  2
UCS
  5
746C
330
0
100
AcDbSymbolTable
 70
     0
  0
ENDTAB
  0
TABLE
  2
APPID
  5
746E
330
0
100
AcDbSymbolTable
 70
     6
  0
APPID
  5
7476
330
746E
100
AcDbSymbolTableRecord
100
AcDbRegAppTableRecord
  2
ACAD
 70
     0
  0
APPID
  5
DEA9
330
746E
100
AcDbSymbolTableRecord
100
AcDbRegAppTableRecord
  2
CONTENTBLOCKICON
 70
     0
  0
APPID
  5
DEAA
330
746E
100
AcDbSymbolTableRecord
100
AcDbRegAppTableRecord
  2
CONTENTBLOCKDESCRIPTION
 70
     0
  0
APPID
  5
E71D
330
746E
100
AcDbSymbolTableRecord
100
AcDbRegAppTableRecord
  2
CONTENTTABDATA
 70
     0
  0
APPID
  5
E71E
330
746E
100
AcDbSymbolTableRecord
100
AcDbRegAppTableRecord
  2
CONTENTCURRENTTAB
 70
     0
  0
APPID
  5
F3BA
330
746E
100
AcDbSymbolTableRecord
100
AcDbRegAppTableRecord
  2
DRAWINGVARIABLESXDATA
 70
     0
  0
ENDTAB
  0
TABLE
  2
DIMSTYLE
  5
746F
330
0
100
AcDbSymbolTable
 70
     5
100
AcDbDimStyleTable
 71
     0
  0
DIMSTYLE
105
7484
330
746F
100
AcDbSymbolTableRecord
100
AcDbDimStyleTableRecord
  2
JIS
 70
     0
 41
2.5
 42
1.0
 43
7.0
 44
1.0
 73
     0
 74
     0
 77
     1
 78
     8
140
2.5
141
0.0
143
0.0394
147
0.0
172
     1
174
     1
175
     1
340
7475
  0
DIMSTYLE
105
F71F
102
{ACAD_REACTORS
330
17D26
330
17D2A
330
17D2C
330
17D3F
330
17D7E
330
17D7F
330
17D80
330
17D81
330
17D85
330
17D86
330
17D87
330
17D88
330
17D9F
330
17DC7
330
17DC8
330
17DDC
330
17DE2
330
17E03
330
17E05
330
17E09
330
17E12
330
17E15
330
17E16
330
17F70
330
17F71
330
17F72
330
18003
330
18B8C
330
19105
330
19207
102
}
330
746F
100
AcDbSymbolTableRecord
100
AcDbDimStyleTableRecord
  2
INABA_S40G
 70
     0
 40
40.0
 41
2.5
 42
0.5
 43
7.0
 44
1.5
 73
     0
 74
     0
 77
     3
 78
     8
140
3.0
141
0.0
143
0.0394
147
1.0
172
     1
173
     1
174
     1
178
     7
271
     1
340
F706
341
F770
343
F770
344
F770
  0
DIMSTYLE
105
179E0
102
{ACAD_REACTORS
330
18E69
330
19106
102
}
330
746F
100
AcDbSymbolTableRecord
100
AcDbDimStyleTableRecord
  2
INABA_S40
 70
     0
 40
40.0
 41
2.5
 42
0.5
 43
7.0
 44
1.5
 73
     0
 74
     0
 77
     3
 78
     8
140
3.0
141
0.0
143
0.0394
147
1.0
172
     1
173
     1
174
     1
175
     1
178
     7
340
7475
  0
DIMSTYLE
105
18536
330
746F
100
AcDbSymbolTableRecord
100
AcDbDimStyleTableRecord
  2
INABA_S50G
 70
     0
 41
125.0
 42
25.0
 43
7.0
 44
75.0
 73
     0
 74
     0
 77
     3
 78
     8
140
150.0
141
0.0
143
0.0394
147
25.0
172
     1
173
     1
174
     1
175
     1
178
     7
271
     1
340
F706
341
F770
343
F770
344
F770
  0
DIMSTYLE
105
19401
330
746F
100
AcDbSymbolTableRecord
100
AcDbDimStyleTableRecord
  2
INABA_S20G
 70
     0
 40
20.0
 41
2.5
 42
0.5
 43
7.0
 44
1.5
 73
     0
 74
     0
 77
     3
 78
     8
140
3.0
141
0.0
143
0.0394
147
1.0
172
     1
173
     1
174
     1
178
     7
271
     1
340
F706
341
F770
343
F770
344
F770
  0
ENDTAB
  0
TABLE
  2
BLOCK_RECORD
  5
7466
330
0
100
AcDbSymbolTable
 70
    35
  0
BLOCK_RECORD
  5
747D
330
7466
100
AcDbSymbolTableRecord
100
AcDbBlockTableRecord
  2
*MODEL_SPACE
340
1784A
  0
BLOCK_RECORD
  5
747A
330
7466
100
AcDbSymbolTableRecord
100
AcDbBlockTableRecord
  2
*PAPER_SPACE
340
1784B
  0
BLOCK_RECORD
  5
F770
330
7466
100
AcDbSymbolTableRecord
100
AcDbBlockTableRecord
  2
_DOTSMALL
340
0
102
{BLKREFS
331
18628
331
18629
331
18633
331
18634
331
1863C
331
1863D
331
18645
331
18646
331
186D6
331
186D7
331
186DF
331
186E0
331
186E8
331
186E9
331
186F2
331
186F3
331
186FD
331
186FE
331
18706
331
18707
331
1870F
331
18710
331
1871A
331
1871B
331
18723
331
18724
331
1872D
331
1872E
331
18737
331
18738
331
18740
331
18741
331
18749
331
1874A
331
18D27
331
18D28
331
19373
331
19374
331
19387
331
19388
331
1939B
331
1939C
331
193A6
331
193A7
331
193AF
331
193B0
331
193BA
331
193BB
331
193C3
331
193C4
331
193CC
331
193CD
331
193D5
331
193D6
331
193E0
331
193E1
331
193E9
331
193EA
331
193F2
331
193F3
102
}
  0
BLOCK_RECORD
  5
17852
330
7466
100
AcDbSymbolTableRecord
100
AcDbBlockTableRecord
  2
_DOT
340
0
102
{BLKREFS
331
1937E
331
1937F
331
19390
331
19391
102
}
  0
BLOCK_RECORD
  5
1804B
330
7466
100
AcDbSymbolTableRecord
100
AcDbBlockTableRecord
  2
*D2
340
0
  0
BLOCK_RECORD
  5
18057
330
7466
100
AcDbSymbolTableRecord
100
AcDbBlockTableRecord
  2
*D3
340
0
  0
BLOCK_RECORD
  5
18063
330
7466
100
AcDbSymbolTableRecord
100
AcDbBlockTableRecord
  2
*D4
340
0
  0
BLOCK_RECORD
  5
18070
330
7466
100
AcDbSymbolTableRecord
100
AcDbBlockTableRecord
  2
*D5
340
0
  0
BLOCK_RECORD
  5
1807D
330
7466
100
AcDbSymbolTableRecord
100
AcDbBlockTableRecord
  2
*D6
340
0
  0
BLOCK_RECORD
  5
18089
330
7466
100
AcDbSymbolTableRecord
100
AcDbBlockTableRecord
  2
*D7
340
0
  0
BLOCK_RECORD
  5
18097
330
7466
100
AcDbSymbolTableRecord
100
AcDbBlockTableRecord
  2
*D8
340
0
  0
BLOCK_RECORD
  5
180A3
330
7466
100
AcDbSymbolTableRecord
100
AcDbBlockTableRecord
  2
*D9
340
0
  0
BLOCK_RECORD
  5
180AF
330
7466
100
AcDbSymbolTableRecord
100
AcDbBlockTableRecord
  2
*D10
340
0
  0
BLOCK_RECORD
  5
180BD
330
7466
100
AcDbSymbolTableRecord
100
AcDbBlockTableRecord
  2
*D11
340
0
  0
BLOCK_RECORD
  5
180CA
330
7466
100
AcDbSymbolTableRecord
100
AcDbBlockTableRecord
  2
*D12
340
0
  0
BLOCK_RECORD
  5
180D6
330
7466
100
AcDbSymbolTableRecord
100
AcDbBlockTableRecord
  2
*D13
340
0
  0
BLOCK_RECORD
  5
180E2
330
7466
100
AcDbSymbolTableRecord
100
AcDbBlockTableRecord
  2
*D14
340
0
  0
BLOCK_RECORD
  5
180FA
330
7466
100
AcDbSymbolTableRecord
100
AcDbBlockTableRecord
  2
*D15
340
0
  0
BLOCK_RECORD
  5
18106
330
7466
100
AcDbSymbolTableRecord
100
AcDbBlockTableRecord
  2
*D16
340
0
  0
BLOCK_RECORD
  5
1811E
330
7466
100
AcDbSymbolTableRecord
100
AcDbBlockTableRecord
  2
*D17
340
0
  0
BLOCK_RECORD
  5
1812C
330
7466
100
AcDbSymbolTableRecord
100
AcDbBlockTableRecord
  2
*D18
340
0
  0
BLOCK_RECORD
  5
18138
330
7466
100
AcDbSymbolTableRecord
100
AcDbBlockTableRecord
  2
*D19
340
0
  0
BLOCK_RECORD
  5
18144
330
7466
100
AcDbSymbolTableRecord
100
AcDbBlockTableRecord
  2
*D20
340
0
  0
BLOCK_RECORD
  5
18150
330
7466
100
AcDbSymbolTableRecord
100
AcDbBlockTableRecord
  2
*D21
340
0
  0
BLOCK_RECORD
  5
1815E
330
7466
100
AcDbSymbolTableRecord
100
AcDbBlockTableRecord
  2
*D22
340
0
  0
BLOCK_RECORD
  5
1816A
330
7466
100
AcDbSymbolTableRecord
100
AcDbBlockTableRecord
  2
*D23
340
0
  0
BLOCK_RECORD
  5
18178
330
7466
100
AcDbSymbolTableRecord
100
AcDbBlockTableRecord
  2
*D24
340
0
  0
BLOCK_RECORD
  5
181A0
330
7466
100
AcDbSymbolTableRecord
100
AcDbBlockTableRecord
  2
*D25
340
0
  0
BLOCK_RECORD
  5
181AC
330
7466
100
AcDbSymbolTableRecord
100
AcDbBlockTableRecord
  2
*D26
340
0
  0
BLOCK_RECORD
  5
181B8
330
7466
100
AcDbSymbolTableRecord
100
AcDbBlockTableRecord
  2
*D27
340
0
  0
BLOCK_RECORD
  5
181C6
330
7466
100
AcDbSymbolTableRecord
100
AcDbBlockTableRecord
  2
*D28
340
0
  0
BLOCK_RECORD
  5
18C5F
330
7466
100
AcDbSymbolTableRecord
100
AcDbBlockTableRecord
  2
*D29
340
0
  0
BLOCK_RECORD
  5
18ED4
330
7466
100
AcDbSymbolTableRecord
100
AcDbBlockTableRecord
  2
*D30
340
0
  0
BLOCK_RECORD
  5
19219
330
7466
100
AcDbSymbolTableRecord
100
AcDbBlockTableRecord
  2
*D31
340
0
  0
BLOCK_RECORD
  5
19225
330
7466
100
AcDbSymbolTableRecord
100
AcDbBlockTableRecord
  2
*D32
340
0
  0
BLOCK_RECORD
  5
192A7
330
7466
100
AcDbSymbolTableRecord
100
AcDbBlockTableRecord
  2
*D33
340
0
  0
BLOCK_RECORD
  5
19402
330
7466
100
AcDbSymbolTableRecord
100
AcDbBlockTableRecord
  2
A$C62984893
340
0
  0
ENDTAB
  0
ENDSEC
  0
SECTION
  2
BLOCKS
  0
BLOCK
  5
7489
330
747D
100
AcDbEntity
  8
0
100
AcDbBlockBegin
  2
*MODEL_SPACE
 70
     0
 10
0.0
 20
0.0
 30
0.0
  3
*MODEL_SPACE
  1

  0
ENDBLK
  5
748A
330
747D
100
AcDbEntity
  8
0
100
AcDbBlockEnd
  0
BLOCK
  5
7487
330
747A
100
AcDbEntity
 67
     1
  8
0
100
AcDbBlockBegin
  2
*PAPER_SPACE
 70
     0
 10
0.0
 20
0.0
 30
0.0
  3
*PAPER_SPACE
  1

  0
ENDBLK
  5
7488
330
747A
100
AcDbEntity
 67
     1
  8
0
100
AcDbBlockEnd
  0
BLOCK
  5
F771
330
F770
100
AcDbEntity
  8
0
 48
50.0
100
AcDbBlockBegin
  2
_DOTSMALL
 70
     0
 10
0.0
 20
0.0
 30
0.0
  3
_DOTSMALL
  1

  0
LWPOLYLINE
  5
F772
330
F770
100
AcDbEntity
  8
0
  6
ByBlock
 62
     0
 48
50.0
100
AcDbPolyline
 90
        2
 70
     1
 43
0.5
 10
-0.0625
 20
0.0
 42
1.0
 10
0.0625
 20
0.0
 42
1.0
  0
ENDBLK
  5
F776
330
F770
100
AcDbEntity
  8
0
 48
50.0
100
AcDbBlockEnd
  0
BLOCK
  5
17853
330
17852
100
AcDbEntity
  8
0
 48
50.0
100
AcDbBlockBegin
  2
_DOT
 70
     0
 10
0.0
 20
0.0
 30
0.0
  3
_DOT
  1

  0
LWPOLYLINE
  5
17854
330
17852
100
AcDbEntity
  8
0
  6
ByBlock
 62
     0
 48
50.0
100
AcDbPolyline
 90
        2
 70
     1
 43
0.5
 10
-0.25
 20
0.0
 42
1.0
 10
0.25
 20
0.0
 42
1.0
  0
LINE
  5
17855
330
17852
100
AcDbEntity
  8
0
  6
ByBlock
 62
     0
 48
50.0
100
AcDbLine
 10
-0.5
 20
0.0
 30
0.0
 11
-1.0
 21
0.0
 31
0.0
  0
ENDBLK
  5
17856
330
17852
100
AcDbEntity
  8
0
 48
50.0
100
AcDbBlockEnd
  0
BLOCK
  5
18055
330
1804B
100
AcDbEntity
  8
0
 48
50.0
100
AcDbBlockBegin
  2
*D2
 70
     1
 10
0.0
 20
0.0
 30
0.0
  3
*D2
  1

  0
LINE
  5
18746
330
1804B
100
AcDbEntity
  8
寸法
 62
     0
 48
50.0
370
    -2
100
AcDbLine
 10
4653.756799862691
 20
2191.644648948022
 30
0.0
 11
4653.756799862691
 21
1865.597319647648
 31
0.0
  0
LINE
  5
18747
330
1804B
100
AcDbEntity
  8
寸法
 62
     0
 48
50.0
370
    -2
100
AcDbLine
 10
4453.756799862694
 20
2191.644648948026
 30
0.0
 11
4453.756799862694
 21
1865.597319647648
 31
0.0
  0
LINE
  5
18748
330
1804B
100
AcDbEntity
  8
寸法
 62
     0
 48
50.0
370
    -2
100
AcDbLine
 10
4653.756799862691
 20
1925.597319647648
 30
0.0
 11
4453.756799862694
 21
1925.597319647648
 31
0.0
  0
INSERT
  5
18749
330
1804B
100
AcDbEntity
  8
寸法
 62
     0
 48
50.0
370
    -2
100
AcDbBlockReference
  2
_DOTSMALL
 10
4653.756799862691
 20
1925.597319647648
 30
0.0
 41
100.0
 42
100.0
 43
100.0
  0
INSERT
  5
1874A
330
1804B
100
AcDbEntity
  8
寸法
 62
     0
 48
50.0
370
    -2
100
AcDbBlockReference
  2
_DOTSMALL
 10
4453.756799862694
 20
1925.597319647648
 30
0.0
 41
100.0
 42
100.0
 43
100.0
 50
180.0
  0
MTEXT
  5
1874B
330
1804B
100
AcDbEntity
  8
寸法
 62
     7
 48
50.0
100
AcDbMText
 10
4553.756799862692
 20
2025.60913067127
 30
0.0
 40
120.0
 41
0.0
 71
     5
 72
     1
  1
\A1;200
  7
STYLE1
 73
     1
 44
1.0
1001
ACAD
1000
MTEXTBEGIN
1070
    73
1070
     1
1070
    44
1040
1.0
1070
    74
1070
     0
1000
MTEXTEND
  0
POINT
  5
1874C
330
1804B
100
AcDbEntity
  8
DEFPOINTS
 62
     0
 48
50.0
100
AcDbPoint
 10
4653.756799862691
 20
2211.644648948022
 30
0.0
  0
POINT
  5
1874D
330
1804B
100
AcDbEntity
  8
DEFPOINTS
 62
     0
 48
50.0
100
AcDbPoint
 10
4453.756799862694
 20
2211.644648948026
 30
0.0
  0
POINT
  5
1874E
330
1804B
100
AcDbEntity
  8
DEFPOINTS
 62
     0
 48
50.0
100
AcDbPoint
 10
4453.756799862694
 20
1925.597319647648
 30
0.0
  0
ENDBLK
  5
18056
330
1804B
100
AcDbEntity
  8
0
 48
50.0
100
AcDbBlockEnd
  0
BLOCK
  5
18061
330
18057
100
AcDbEntity
  8
0
 48
50.0
100
AcDbBlockBegin
  2
*D3
 70
     1
 10
0.0
 20
0.0
 30
0.0
  3
*D3
  1

  0
LINE
  5
1873D
330
18057
100
AcDbEntity
  8
寸法
 62
     0
 48
50.0
370
    -2
100
AcDbLine
 10
4433.756799862694
 20
2211.644648948026
 30
0.0
 11
4244.256796616058
 21
2211.644648948026
 31
0.0
  0
LINE
  5
1873E
330
18057
100
AcDbEntity
  8
寸法
 62
     0
 48
50.0
370
    -2
100
AcDbLine
 10
4408.756799862691
 20
2411.644648948026
 30
0.0
 11
4244.256796616058
 21
2411.644648948026
 31
0.0
  0
LINE
  5
1873F
330
18057
100
AcDbEntity
  8
寸法
 62
     0
 48
50.0
370
    -2
100
AcDbLine
 10
4304.256796616058
 20
2211.644648948026
 30
0.0
 11
4304.256796616058
 21
2411.644648948026
 31
0.0
  0
INSERT
  5
18740
330
18057
100
AcDbEntity
  8
寸法
 62
     0
 48
50.0
370
    -2
100
AcDbBlockReference
  2
_DOTSMALL
 10
4304.256796616058
 20
2211.644648948026
 30
0.0
 41
100.0
 42
100.0
 43
100.0
 50
270.0
  0
INSERT
  5
18741
330
18057
100
AcDbEntity
  8
寸法
 62
     0
 48
50.0
370
    -2
100
AcDbBlockReference
  2
_DOTSMALL
 10
4304.256796616058
 20
2411.644648948026
 30
0.0
 41
100.0
 42
100.0
 43
100.0
 50
90.0
  0
MTEXT
  5
18742
330
18057
100
AcDbEntity
  8
寸法
 62
     7
 48
50.0
100
AcDbMText
 10
4204.244985592435
 20
2311.644648948027
 30
0.0
 40
120.0
 41
0.0
 71
     5
 72
     1
  1
\A1;200
  7
STYLE1
 11
0.0000000000000001
 21
1.0
 31
0.0
 73
     1
 44
1.0
1001
ACAD
1000
MTEXTBEGIN
1070
    73
1070
     1
1070
    44
1040
1.0
1070
    74
1070
     0
1000
MTEXTEND
  0
POINT
  5
18743
330
18057
100
AcDbEntity
  8
DEFPOINTS
 62
     0
 48
50.0
100
AcDbPoint
 10
4453.756799862694
 20
2211.644648948026
 30
0.0
  0
POINT
  5
18744
330
18057
100
AcDbEntity
  8
DEFPOINTS
 62
     0
 48
50.0
100
AcDbPoint
 10
4428.756799862691
 20
2411.644648948026
 30
0.0
  0
POINT
  5
18745
330
18057
100
AcDbEntity
  8
DEFPOINTS
 62
     0
 48
50.0
100
AcDbPoint
 10
4304.256796616058
 20
2411.644648948026
 30
0.0
  0
ENDBLK
  5
18062
330
18057
100
AcDbEntity
  8
0
 48
50.0
100
AcDbBlockEnd
  0
BLOCK
  5
1806E
330
18063
100
AcDbEntity
  8
0
 48
50.0
100
AcDbBlockBegin
  2
*D4
 70
     1
 10
0.0
 20
0.0
 30
0.0
  3
*D4
  1

  0
LINE
  5
18733
330
18063
100
AcDbEntity
  8
寸法
 62
     0
 48
50.0
370
    -2
100
AcDbLine
 10
4465.661086153794
 20
4885.942356017688
 30
0.0
 11
3849.726647048523
 21
4903.656506292017
 31
0.0
  0
LINE
  5
18734
330
18063
100
AcDbEntity
  8
寸法
 62
     0
 48
50.0
370
    -2
100
AcDbLine
 10
4461.607630597167
 20
4745.000632251977
 30
0.0
 11
3845.673191491897
 21
4762.714782526307
 31
0.0
  0
LINE
  5
18735
330
18063
100
AcDbEntity
  8
寸法
 62
     0
 48
50.0
370
    -2
100
AcDbLine
 10
3905.648393094327
 20
4760.98990782136
 30
0.0
 11
3909.701848650954
 21
4901.93163158707
 31
0.0
  0
LINE
  5
18736
330
18063
100
AcDbEntity
  8
寸法
 62
     0
 48
50.0
370
    -2
100
AcDbLine
 10
3909.701848650954
 20
4901.93163158707
 30
0.0
 11
3920.051096880639
 21
5261.782841201655
 31
0.0
  0
INSERT
  5
18737
330
18063
100
AcDbEntity
  8
寸法
 62
     0
 48
50.0
370
    -2
100
AcDbBlockReference
  2
_DOTSMALL
 10
3905.648393094327
 20
4760.98990782136
 30
0.0
 41
100.0
 42
100.0
 43
100.0
 50
268.3526390256377
  0
INSERT
  5
18738
330
18063
100
AcDbEntity
  8
寸法
 62
     0
 48
50.0
370
    -2
100
AcDbBlockReference
  2
_DOTSMALL
 10
3909.701848650954
 20
4901.93163158707
 30
0.0
 41
100.0
 42
100.0
 43
100.0
 50
88.35263902563776
  0
MTEXT
  5
18739
330
18063
100
AcDbEntity
  8
寸法
 62
     7
 48
50.0
100
AcDbMText
 10
3816.355199015868
 20
5134.711362237967
 30
0.0
 40
120.0
 41
0.0
 71
     5
 72
     1
  1
\A1;141
  7
STYLE1
 11
0.0287479117491245
 21
0.9995866933738486
 31
0.0
 73
     1
 44
1.0
1001
ACAD
1000
MTEXTBEGIN
1070
    73
1070
     1
1070
    44
1040
1.0
1070
    74
1070
     0
1000
MTEXTEND
  0
POINT
  5
1873A
330
18063
100
AcDbEntity
  8
DEFPOINTS
 62
     0
 48
50.0
100
AcDbPoint
 10
4485.652820021271
 20
4885.367397782705
 30
0.0
  0
POINT
  5
1873B
330
18063
100
AcDbEntity
  8
DEFPOINTS
 62
     0
 48
50.0
100
AcDbPoint
 10
4481.599364464644
 20
4744.425674016994
 30
0.0
  0
POINT
  5
1873C
330
18063
100
AcDbEntity
  8
DEFPOINTS
 62
     0
 48
50.0
100
AcDbPoint
 10
3905.648393094327
 20
4760.98990782136
 30
0.0
  0
ENDBLK
  5
1806F
330
18063
100
AcDbEntity
  8
0
 48
50.0
100
AcDbBlockEnd
  0
BLOCK
  5
1807B
330
18070
100
AcDbEntity
  8
0
 48
50.0
100
AcDbBlockBegin
  2
*D5
 70
     1
 10
0.0
 20
0.0
 30
0.0
  3
*D5
  1

  0
LINE
  5
18729
330
18070
100
AcDbEntity
  8
寸法
 62
     0
 48
50.0
370
    -2
100
AcDbLine
 10
6316.256799862691
 20
4853.455328559678
 30
0.0
 11
6316.256799862691
 21
5345.30210252733
 31
0.0
  0
LINE
  5
1872A
330
18070
100
AcDbEntity
  8
寸法
 62
     0
 48
50.0
370
    -2
100
AcDbLine
 10
6396.25679986269
 20
4851.644648948026
 30
0.0
 11
6396.25679986269
 21
5345.30210252733
 31
0.0
  0
LINE
  5
1872B
330
18070
100
AcDbEntity
  8
寸法
 62
     0
 48
50.0
370
    -2
100
AcDbLine
 10
6316.256799862691
 20
5285.30210252733
 30
0.0
 11
6396.25679986269
 21
5285.30210252733
 31
0.0
  0
LINE
  5
1872C
330
18070
100
AcDbEntity
  8
寸法
 62
     0
 48
50.0
370
    -2
100
AcDbLine
 10
6396.25679986269
 20
5285.30210252733
 30
0.0
 11
6708.35128805167
 21
5285.30210252733
 31
0.0
  0
INSERT
  5
1872D
330
18070
100
AcDbEntity
  8
寸法
 62
     0
 48
50.0
370
    -2
100
AcDbBlockReference
  2
_DOTSMALL
 10
6316.256799862691
 20
5285.30210252733
 30
0.0
 41
100.0
 42
100.0
 43
100.0
 50
180.0
  0
INSERT
  5
1872E
330
18070
100
AcDbEntity
  8
寸法
 62
     0
 48
50.0
370
    -2
100
AcDbBlockReference
  2
_DOTSMALL
 10
6396.25679986269
 20
5285.30210252733
 30
0.0
 41
100.0
 42
100.0
 43
100.0
  0
MTEXT
  5
1872F
330
18070
100
AcDbEntity
  8
寸法
 62
     7
 48
50.0
100
AcDbMText
 10
6602.304043957182
 20
5385.302102527329
 30
0.0
 40
120.0
 41
0.0
 71
     5
 72
     1
  1
\A1;80
  7
STYLE1
 73
     1
 44
1.0
1001
ACAD
1000
MTEXTBEGIN
1070
    73
1070
     1
1070
    44
1040
1.0
1070
    74
1070
     0
1000
MTEXTEND
  0
POINT
  5
18730
330
18070
100
AcDbEntity
  8
DEFPOINTS
 62
     0
 48
50.0
100
AcDbPoint
 10
6316.256799862691
 20
4833.455328559677
 30
0.0
  0
POINT
  5
18731
330
18070
100
AcDbEntity
  8
DEFPOINTS
 62
     0
 48
50.0
100
AcDbPoint
 10
6396.25679986269
 20
4831.644648948025
 30
0.0
  0
POINT
  5
18732
330
18070
100
AcDbEntity
  8
DEFPOINTS
 62
     0
 48
50.0
100
AcDbPoint
 10
6396.25679986269
 20
5285.30210252733
 30
0.0
  0
ENDBLK
  5
1807C
330
18070
100
AcDbEntity
  8
0
 48
50.0
100
AcDbBlockEnd
  0
BLOCK
  5
18087
330
1807D
100
AcDbEntity
  8
0
 48
50.0
100
AcDbBlockBegin
  2
*D6
 70
     1
 10
0.0
 20
0.0
 30
0.0
  3
*D6
  1

  0
LINE
  5
18720
330
1807D
100
AcDbEntity
  8
寸法
 62
     0
 48
50.0
370
    -2
100
AcDbLine
 10
6396.25679986269
 20
4851.644648948026
 30
0.0
 11
6396.25679986269
 21
5562.263917905944
 31
0.0
  0
LINE
  5
18721
330
1807D
100
AcDbEntity
  8
寸法
 62
     0
 48
50.0
370
    -2
100
AcDbLine
 10
4466.256799862691
 20
4906.64464894803
 30
0.0
 11
4466.256799862691
 21
5562.263917905944
 31
0.0
  0
LINE
  5
18722
330
1807D
100
AcDbEntity
  8
寸法
 62
     0
 48
50.0
370
    -2
100
AcDbLine
 10
6396.25679986269
 20
5502.263917905945
 30
0.0
 11
4466.256799862691
 21
5502.263917905945
 31
0.0
  0
INSERT
  5
18723
330
1807D
100
AcDbEntity
  8
寸法
 62
     0
 48
50.0
370
    -2
100
AcDbBlockReference
  2
_DOTSMALL
 10
6396.25679986269
 20
5502.263917905945
 30
0.0
 41
100.0
 42
100.0
 43
100.0
  0
INSERT
  5
18724
330
1807D
100
AcDbEntity
  8
寸法
 62
     0
 48
50.0
370
    -2
100
AcDbBlockReference
  2
_DOTSMALL
 10
4466.256799862691
 20
5502.263917905945
 30
0.0
 41
100.0
 42
100.0
 43
100.0
 50
180.0
  0
MTEXT
  5
18725
330
1807D
100
AcDbEntity
  8
寸法
 62
     7
 48
50.0
100
AcDbMText
 10
5372.062551113661
 20
5602.263917905944
 30
0.0
 40
120.0
 41
0.0
 71
     5
 72
     1
  1
\A1;1930
  7
STYLE1
 73
     1
 44
1.0
1001
ACAD
1000
MTEXTBEGIN
1070
    73
1070
     1
1070
    44
1040
1.0
1070
    74
1070
     0
1000
MTEXTEND
  0
POINT
  5
18726
330
1807D
100
AcDbEntity
  8
DEFPOINTS
 62
     0
 48
50.0
100
AcDbPoint
 10
6396.25679986269
 20
4831.644648948025
 30
0.0
  0
POINT
  5
18727
330
1807D
100
AcDbEntity
  8
DEFPOINTS
 62
     0
 48
50.0
100
AcDbPoint
 10
4466.256799862691
 20
4886.644648948029
 30
0.0
  0
POINT
  5
18728
330
1807D
100
AcDbEntity
  8
DEFPOINTS
 62
     0
 48
50.0
100
AcDbPoint
 10
4466.256799862691
 20
5502.263917905945
 30
0.0
  0
ENDBLK
  5
18088
330
1807D
100
AcDbEntity
  8
0
 48
50.0
100
AcDbBlockEnd
  0
BLOCK
  5
18095
330
18089
100
AcDbEntity
  8
0
 48
50.0
100
AcDbBlockBegin
  2
*D7
 70
     1
 10
0.0
 20
0.0
 30
0.0
  3
*D7
  1

  0
LINE
  5
18715
330
18089
100
AcDbEntity
  8
寸法
 62
     0
 48
50.0
370
    -2
100
AcDbLine
 10
4526.256799862691
 20
4902.646267071002
 30
0.0
 11
4526.256799862691
 21
5345.30210252733
 31
0.0
  0
LINE
  5
18716
330
18089
100
AcDbEntity
  8
寸法
 62
     0
 48
50.0
370
    -2
100
AcDbLine
 10
4466.256799862691
 20
4906.64464894803
 30
0.0
 11
4466.256799862691
 21
5345.30210252733
 31
0.0
  0
LINE
  5
18717
330
18089
100
AcDbEntity
  8
寸法
 62
     0
 48
50.0
370
    -2
100
AcDbLine
 10
4526.256799862691
 20
5285.30210252733
 30
0.0
 11
4626.256799862691
 21
5285.30210252733
 31
0.0
  0
LINE
  5
18718
330
18089
100
AcDbEntity
  8
寸法
 62
     0
 48
50.0
370
    -2
100
AcDbLine
 10
4466.256799862691
 20
5285.30210252733
 30
0.0
 11
4046.98120931151
 21
5285.30210252733
 31
0.0
  0
LINE
  5
18719
330
18089
100
AcDbEntity
  8
寸法
 62
     0
 48
50.0
370
    -2
100
AcDbLine
 10
4526.256799862691
 20
5285.30210252733
 30
0.0
 11
4466.256799862691
 21
5285.30210252733
 31
0.0
  0
INSERT
  5
1871A
330
18089
100
AcDbEntity
  8
寸法
 62
     0
 48
50.0
370
    -2
100
AcDbBlockReference
  2
_DOTSMALL
 10
4526.256799862691
 20
5285.30210252733
 30
0.0
 41
100.0
 42
100.0
 43
100.0
 50
180.0
  0
INSERT
  5
1871B
330
18089
100
AcDbEntity
  8
寸法
 62
     0
 48
50.0
370
    -2
100
AcDbBlockReference
  2
_DOTSMALL
 10
4466.256799862691
 20
5285.30210252733
 30
0.0
 41
100.0
 42
100.0
 43
100.0
  0
MTEXT
  5
1871C
330
18089
100
AcDbEntity
  8
寸法
 62
     7
 48
50.0
100
AcDbMText
 10
4156.619004587101
 20
5385.302102527329
 30
0.0
 40
120.0
 41
0.0
 71
     5
 72
     1
  1
\A1;60
  7
STYLE1
 73
     1
 44
1.0
1001
ACAD
1000
MTEXTBEGIN
1070
    73
1070
     1
1070
    44
1040
1.0
1070
    74
1070
     0
1000
MTEXTEND
  0
POINT
  5
1871D
330
18089
100
AcDbEntity
  8
DEFPOINTS
 62
     0
 48
50.0
100
AcDbPoint
 10
4526.256799862691
 20
4882.646267071002
 30
0.0
  0
POINT
  5
1871E
330
18089
100
AcDbEntity
  8
DEFPOINTS
 62
     0
 48
50.0
100
AcDbPoint
 10
4466.256799862691
 20
4886.644648948029
 30
0.0
  0
POINT
  5
1871F
330
18089
100
AcDbEntity
  8
DEFPOINTS
 62
     0
 48
50.0
100
AcDbPoint
 10
4466.256799862691
 20
5285.30210252733
 30
0.0
  0
ENDBLK
  5
18096
330
18089
100
AcDbEntity
  8
0
 48
50.0
100
AcDbBlockEnd
  0
BLOCK
  5
180A1
330
18097
100
AcDbEntity
  8
0
 48
50.0
100
AcDbBlockBegin
  2
*D8
 70
     1
 10
0.0
 20
0.0
 30
0.0
  3
*D8
  1

  0
LINE
  5
1870C
330
18097
100
AcDbEntity
  8
寸法
 62
     0
 48
50.0
370
    -2
100
AcDbLine
 10
6316.256799862691
 20
4853.455328559678
 30
0.0
 11
6316.256799862691
 21
5345.7378182875
 31
0.0
  0
LINE
  5
1870D
330
18097
100
AcDbEntity
  8
寸法
 62
     0
 48
50.0
370
    -2
100
AcDbLine
 10
4526.256799862691
 20
4902.646267071002
 30
0.0
 11
4526.256799862691
 21
5345.7378182875
 31
0.0
  0
LINE
  5
1870E
330
18097
100
AcDbEntity
  8
寸法
 62
     0
 48
50.0
370
    -2
100
AcDbLine
 10
6316.256799862691
 20
5285.7378182875
 30
0.0
 11
4526.256799862691
 21
5285.7378182875
 31
0.0
  0
INSERT
  5
1870F
330
18097
100
AcDbEntity
  8
寸法
 62
     0
 48
50.0
370
    -2
100
AcDbBlockReference
  2
_DOTSMALL
 10
6316.256799862691
 20
5285.7378182875
 30
0.0
 41
100.0
 42
100.0
 43
100.0
  0
INSERT
  5
18710
330
18097
100
AcDbEntity
  8
寸法
 62
     0
 48
50.0
370
    -2
100
AcDbBlockReference
  2
_DOTSMALL
 10
4526.256799862691
 20
5285.7378182875
 30
0.0
 41
100.0
 42
100.0
 43
100.0
 50
180.0
  0
MTEXT
  5
18711
330
18097
100
AcDbEntity
  8
寸法
 62
     7
 48
50.0
100
AcDbMText
 10
5435.852448539172
 20
5385.7378182875
 30
0.0
 40
120.0
 41
0.0
 71
     5
 72
     1
  1
\A1;柱外寸法1790
  7
STYLE1
 73
     1
 44
1.0
1001
ACAD
1000
MTEXTBEGIN
1070
    73
1070
     1
1070
    44
1040
1.0
1070
    74
1070
     0
1000
MTEXTEND
  0
POINT
  5
18712
330
18097
100
AcDbEntity
  8
DEFPOINTS
 62
     0
 48
50.0
100
AcDbPoint
 10
6316.256799862691
 20
4833.455328559677
 30
0.0
  0
POINT
  5
18713
330
18097
100
AcDbEntity
  8
DEFPOINTS
 62
     0
 48
50.0
100
AcDbPoint
 10
4526.256799862691
 20
4882.646267071002
 30
0.0
  0
POINT
  5
18714
330
18097
100
AcDbEntity
  8
DEFPOINTS
 62
     0
 48
50.0
100
AcDbPoint
 10
4526.256799862691
 20
5285.7378182875
 30
0.0
  0
ENDBLK
  5
180A2
330
18097
100
AcDbEntity
  8
0
 48
50.0
100
AcDbBlockEnd
  0
BLOCK
  5
180AD
330
180A3
100
AcDbEntity
  8
0
 48
50.0
100
AcDbBlockBegin
  2
*D9
 70
     1
 10
0.0
 20
0.0
 30
0.0
  3
*D9
  1

  0
LINE
  5
18703
330
180A3
100
AcDbEntity
  8
寸法
 62
     0
 48
50.0
370
    -2
100
AcDbLine
 10
6413.256799862695
 20
2511.644648948026
 30
0.0
 11
6988.426895625121
 21
2511.644648948026
 31
0.0
  0
LINE
  5
18704
330
180A3
100
AcDbEntity
  8
寸法
 62
     0
 48
50.0
370
    -2
100
AcDbLine
 10
6416.256799862691
 20
4831.644648948025
 30
0.0
 11
6988.426895625121
 21
4831.644648948025
 31
0.0
  0
LINE
  5
18705
330
180A3
100
AcDbEntity
  8
寸法
 62
     0
 48
50.0
370
    -2
100
AcDbLine
 10
6928.426895625119
 20
2511.644648948026
 30
0.0
 11
6928.426895625119
 21
4831.644648948025
 31
0.0
  0
INSERT
  5
18706
330
180A3
100
AcDbEntity
  8
寸法
 62
     0
 48
50.0
370
    -2
100
AcDbBlockReference
  2
_DOTSMALL
 10
6928.426895625119
 20
2511.644648948026
 30
0.0
 41
100.0
 42
100.0
 43
100.0
 50
270.0
  0
INSERT
  5
18707
330
180A3
100
AcDbEntity
  8
寸法
 62
     0
 48
50.0
370
    -2
100
AcDbBlockReference
  2
_DOTSMALL
 10
6928.426895625119
 20
4831.644648948025
 30
0.0
 41
100.0
 42
100.0
 43
100.0
 50
90.0
  0
MTEXT
  5
18708
330
180A3
100
AcDbEntity
  8
寸法
 62
     7
 48
50.0
100
AcDbMText
 10
6828.415084601498
 20
3671.644648948027
 30
0.0
 40
120.0
 41
0.0
 71
     5
 72
     1
  1
\A1;2320
  7
STYLE1
 11
0.0000000000000001
 21
1.0
 31
0.0
 73
     1
 44
1.0
1001
ACAD
1000
MTEXTBEGIN
1070
    73
1070
     1
1070
    44
1040
1.0
1070
    74
1070
     0
1000
MTEXTEND
  0
POINT
  5
18709
330
180A3
100
AcDbEntity
  8
DEFPOINTS
 62
     0
 48
50.0
100
AcDbPoint
 10
6393.256799862695
 20
2511.644648948026
 30
0.0
  0
POINT
  5
1870A
330
180A3
100
AcDbEntity
  8
DEFPOINTS
 62
     0
 48
50.0
100
AcDbPoint
 10
6396.25679986269
 20
4831.644648948025
 30
0.0
  0
POINT
  5
1870B
330
180A3
100
AcDbEntity
  8
DEFPOINTS
 62
     0
 48
50.0
100
AcDbPoint
 10
6928.426895625119
 20
4831.644648948025
 30
0.0
  0
ENDBLK
  5
180AE
330
180A3
100
AcDbEntity
  8
0
 48
50.0
100
AcDbBlockEnd
  0
BLOCK
  5
180BB
330
180AF
100
AcDbEntity
  8
0
 48
50.0
100
AcDbBlockBegin
  2
*D10
 70
     1
 10
0.0
 20
0.0
 30
0.0
  3
*D10
  1

  0
LINE
  5
186F8
330
180AF
100
AcDbEntity
  8
寸法
 62
     0
 48
50.0
370
    -2
100
AcDbLine
 10
4506.256799862691
 20
2561.644648948026
 30
0.0
 11
3842.604090704394
 21
2561.644648948026
 31
0.0
  0
LINE
  5
186F9
330
180AF
100
AcDbEntity
  8
寸法
 62
     0
 48
50.0
370
    -2
100
AcDbLine
 10
4451.256799862691
 20
2511.644648948026
 30
0.0
 11
3842.604090704394
 21
2511.644648948026
 31
0.0
  0
LINE
  5
186FA
330
180AF
100
AcDbEntity
  8
寸法
 62
     0
 48
50.0
370
    -2
100
AcDbLine
 10
3902.604090704394
 20
2561.644648948026
 30
0.0
 11
3902.604090704394
 21
2661.644648948026
 31
0.0
  0
LINE
  5
186FB
330
180AF
100
AcDbEntity
  8
寸法
 62
     0
 48
50.0
370
    -2
100
AcDbLine
 10
3902.604090704394
 20
2511.644648948026
 30
0.0
 11
3902.604090704394
 21
2099.550160759046
 31
0.0
  0
LINE
  5
186FC
330
180AF
100
AcDbEntity
  8
寸法
 62
     0
 48
50.0
370
    -2
100
AcDbLine
 10
3902.604090704394
 20
2561.644648948026
 30
0.0
 11
3902.604090704394
 21
2511.644648948026
 31
0.0
  0
INSERT
  5
186FD
330
180AF
100
AcDbEntity
  8
寸法
 62
     0
 48
50.0
370
    -2
100
AcDbBlockReference
  2
_DOTSMALL
 10
3902.604090704394
 20
2561.644648948026
 30
0.0
 41
100.0
 42
100.0
 43
100.0
 50
270.0
  0
INSERT
  5
186FE
330
180AF
100
AcDbEntity
  8
寸法
 62
     0
 48
50.0
370
    -2
100
AcDbBlockReference
  2
_DOTSMALL
 10
3902.604090704394
 20
2511.644648948026
 30
0.0
 41
100.0
 42
100.0
 43
100.0
 50
90.0
  0
MTEXT
  5
186FF
330
180AF
100
AcDbEntity
  8
寸法
 62
     7
 48
50.0
100
AcDbMText
 10
3802.604090704394
 20
2205.597404853534
 30
0.0
 40
120.0
 41
0.0
 71
     5
 72
     1
  1
\A1;50
  7
STYLE1
 11
0.0000000000000001
 21
1.0
 31
0.0
 73
     1
 44
1.0
1001
ACAD
1000
MTEXTBEGIN
1070
    73
1070
     1
1070
    44
1040
1.0
1070
    74
1070
     0
1000
MTEXTEND
  0
POINT
  5
18700
330
180AF
100
AcDbEntity
  8
DEFPOINTS
 62
     0
 48
50.0
100
AcDbPoint
 10
4526.256799862691
 20
2561.644648948026
 30
0.0
  0
POINT
  5
18701
330
180AF
100
AcDbEntity
  8
DEFPOINTS
 62
     0
 48
50.0
100
AcDbPoint
 10
4471.256799862691
 20
2511.644648948026
 30
0.0
  0
POINT
  5
18702
330
180AF
100
AcDbEntity
  8
DEFPOINTS
 62
     0
 48
50.0
100
AcDbPoint
 10
3902.604090704394
 20
2511.644648948026
 30
0.0
  0
ENDBLK
  5
180BC
330
180AF
100
AcDbEntity
  8
0
 48
50.0
100
AcDbBlockEnd
  0
BLOCK
  5
180C8
330
180BD
100
AcDbEntity
  8
0
 48
50.0
100
AcDbBlockBegin
  2
*D11
 70
     1
 10
0.0
 20
0.0
 30
0.0
  3
*D11
  1

  0
LINE
  5
186EE
330
180BD
100
AcDbEntity
  8
寸法
 62
     0
 48
50.0
370
    -2
100
AcDbLine
 10
4451.256799862691
 20
2511.644648948026
 30
0.0
 11
3557.617417933333
 21
2511.644648948026
 31
0.0
  0
LINE
  5
186EF
330
180BD
100
AcDbEntity
  8
寸法
 62
     0
 48
50.0
370
    -2
100
AcDbLine
 10
3882.604090704393
 20
2411.644648948026
 30
0.0
 11
3557.617417933333
 21
2411.644648948026
 31
0.0
  0
LINE
  5
186F0
330
180BD
100
AcDbEntity
  8
寸法
 62
     0
 48
50.0
370
    -2
100
AcDbLine
 10
3617.617417933332
 20
2511.644648948026
 30
0.0
 11
3617.617417933332
 21
2411.644648948026
 31
0.0
  0
LINE
  5
186F1
330
180BD
100
AcDbEntity
  8
寸法
 62
     0
 48
50.0
370
    -2
100
AcDbLine
 10
3617.617417933332
 20
2411.644648948026
 30
0.0
 11
3617.617417933332
 21
2039.550160759045
 31
0.0
  0
INSERT
  5
186F2
330
180BD
100
AcDbEntity
  8
寸法
 62
     0
 48
50.0
370
    -2
100
AcDbBlockReference
  2
_DOTSMALL
 10
3617.617417933332
 20
2511.644648948026
 30
0.0
 41
100.0
 42
100.0
 43
100.0
 50
90.0
  0
INSERT
  5
186F3
330
180BD
100
AcDbEntity
  8
寸法
 62
     0
 48
50.0
370
    -2
100
AcDbBlockReference
  2
_DOTSMALL
 10
3617.617417933332
 20
2411.644648948026
 30
0.0
 41
100.0
 42
100.0
 43
100.0
 50
270.0
  0
MTEXT
  5
186F4
330
180BD
100
AcDbEntity
  8
寸法
 62
     7
 48
50.0
100
AcDbMText
 10
3517.617417933332
 20
2175.597404853535
 30
0.0
 40
120.0
 41
0.0
 71
     5
 72
     1
  1
\A1;100
  7
STYLE1
 11
0.0000000000000001
 21
1.0
 31
0.0
 73
     1
 44
1.0
1001
ACAD
1000
MTEXTBEGIN
1070
    73
1070
     1
1070
    44
1040
1.0
1070
    74
1070
     0
1000
MTEXTEND
  0
POINT
  5
186F5
330
180BD
100
AcDbEntity
  8
DEFPOINTS
 62
     0
 48
50.0
100
AcDbPoint
 10
4471.256799862691
 20
2511.644648948026
 30
0.0
  0
POINT
  5
186F6
330
180BD
100
AcDbEntity
  8
DEFPOINTS
 62
     0
 48
50.0
100
AcDbPoint
 10
3902.604090704393
 20
2411.644648948026
 30
0.0
  0
POINT
  5
186F7
330
180BD
100
AcDbEntity
  8
DEFPOINTS
 62
     0
 48
50.0
100
AcDbPoint
 10
3617.617417933332
 20
2411.644648948026
 30
0.0
  0
ENDBLK
  5
180C9
330
180BD
100
AcDbEntity
  8
0
 48
50.0
100
AcDbBlockEnd
  0
BLOCK
  5
180D4
330
180CA
100
AcDbEntity
  8
0
 48
50.0
100
AcDbBlockBegin
  2
*D12
 70
     1
 10
0.0
 20
0.0
 30
0.0
  3
*D12
  1

  0
LINE
  5
186E5
330
180CA
100
AcDbEntity
  8
寸法
 62
     0
 48
50.0
370
    -2
100
AcDbLine
 10
4506.256799862691
 20
2511.644648948026
 30
0.0
 11
3557.617417933333
 21
2511.644648948026
 31
0.0
  0
LINE
  5
186E6
330
180CA
100
AcDbEntity
  8
寸法
 62
     0
 48
50.0
370
    -2
100
AcDbLine
 10
4446.25679986269
 20
4886.644648948029
 30
0.0
 11
3557.617417933333
 21
4886.644648948029
 31
0.0
  0
LINE
  5
186E7
330
180CA
100
AcDbEntity
  8
寸法
 62
     0
 48
50.0
370
    -2
100
AcDbLine
 10
3617.617417933332
 20
2511.644648948026
 30
0.0
 11
3617.617417933333
 21
4886.644648948029
 31
0.0
  0
INSERT
  5
186E8
330
180CA
100
AcDbEntity
  8
寸法
 62
     0
 48
50.0
370
    -2
100
AcDbBlockReference
  2
_DOTSMALL
 10
3617.617417933332
 20
2511.644648948026
 30
0.0
 41
100.0
 42
100.0
 43
100.0
 50
270.0
  0
INSERT
  5
186E9
330
180CA
100
AcDbEntity
  8
寸法
 62
     0
 48
50.0
370
    -2
100
AcDbBlockReference
  2
_DOTSMALL
 10
3617.617417933333
 20
4886.644648948029
 30
0.0
 41
100.0
 42
100.0
 43
100.0
 50
90.0
  0
MTEXT
  5
186EA
330
180CA
100
AcDbEntity
  8
寸法
 62
     7
 48
50.0
100
AcDbMText
 10
3517.60560690971
 20
3671.644648948027
 30
0.0
 40
120.0
 41
0.0
 71
     5
 72
     1
  1
\A1;2375
  7
STYLE1
 11
0.0000000000000001
 21
1.0
 31
0.0
 73
     1
 44
1.0
1001
ACAD
1000
MTEXTBEGIN
1070
    73
1070
     1
1070
    44
1040
1.0
1070
    74
1070
     0
1000
MTEXTEND
  0
POINT
  5
186EB
330
180CA
100
AcDbEntity
  8
DEFPOINTS
 62
     0
 48
50.0
100
AcDbPoint
 10
4526.256799862691
 20
2511.644648948026
 30
0.0
  0
POINT
  5
186EC
330
180CA
100
AcDbEntity
  8
DEFPOINTS
 62
     0
 48
50.0
100
AcDbPoint
 10
4466.256799862691
 20
4886.644648948029
 30
0.0
  0
POINT
  5
186ED
330
180CA
100
AcDbEntity
  8
DEFPOINTS
 62
     0
 48
50.0
100
AcDbPoint
 10
3617.617417933333
 20
4886.644648948029
 30
0.0
  0
ENDBLK
  5
180D5
330
180CA
100
AcDbEntity
  8
0
 48
50.0
100
AcDbBlockEnd
  0
BLOCK
  5
180E0
330
180D6
100
AcDbEntity
  8
0
 48
50.0
100
AcDbBlockBegin
  2
*D13
 70
     1
 10
0.0
 20
0.0
 30
0.0
  3
*D13
  1

  0
LINE
  5
186DC
330
180D6
100
AcDbEntity
  8
寸法
 62
     0
 48
50.0
370
    -2
100
AcDbLine
 10
4506.256799862691
 20
4651.644648948026
 30
0.0
 11
3842.604090704396
 21
4651.644648948026
 31
0.0
  0
LINE
  5
186DD
330
180D6
100
AcDbEntity
  8
寸法
 62
     0
 48
50.0
370
    -2
100
AcDbLine
 10
4506.256799862691
 20
2561.644648948026
 30
0.0
 11
3842.604090704396
 21
2561.644648948026
 31
0.0
  0
LINE
  5
186DE
330
180D6
100
AcDbEntity
  8
寸法
 62
     0
 48
50.0
370
    -2
100
AcDbLine
 10
3902.604090704397
 20
4651.644648948026
 30
0.0
 11
3902.604090704396
 21
2561.644648948026
 31
0.0
  0
INSERT
  5
186DF
330
180D6
100
AcDbEntity
  8
寸法
 62
     0
 48
50.0
370
    -2
100
AcDbBlockReference
  2
_DOTSMALL
 10
3902.604090704397
 20
4651.644648948026
 30
0.0
 41
100.0
 42
100.0
 43
100.0
 50
90.0
  0
INSERT
  5
186E0
330
180D6
100
AcDbEntity
  8
寸法
 62
     0
 48
50.0
370
    -2
100
AcDbBlockReference
  2
_DOTSMALL
 10
3902.604090704396
 20
2561.644648948026
 30
0.0
 41
100.0
 42
100.0
 43
100.0
 50
270.0
  0
MTEXT
  5
186E1
330
180D6
100
AcDbEntity
  8
寸法
 62
     7
 48
50.0
100
AcDbMText
 10
3802.592279680773
 20
3671.644648948026
 30
0.0
 40
120.0
 41
0.0
 71
     5
 72
     1
  1
\A1;2090
  7
STYLE1
 11
0.0000000000000001
 21
1.0
 31
0.0
 73
     1
 44
1.0
1001
ACAD
1000
MTEXTBEGIN
1070
    73
1070
     1
1070
    44
1040
1.0
1070
    74
1070
     0
1000
MTEXTEND
  0
POINT
  5
186E2
330
180D6
100
AcDbEntity
  8
DEFPOINTS
 62
     0
 48
50.0
100
AcDbPoint
 10
4526.256799862691
 20
4651.644648948026
 30
0.0
  0
POINT
  5
186E3
330
180D6
100
AcDbEntity
  8
DEFPOINTS
 62
     0
 48
50.0
100
AcDbPoint
 10
4526.256799862691
 20
2561.644648948026
 30
0.0
  0
POINT
  5
186E4
330
180D6
100
AcDbEntity
  8
DEFPOINTS
 62
     0
 48
50.0
100
AcDbPoint
 10
3902.604090704396
 20
2561.644648948026
 30
0.0
  0
ENDBLK
  5
180E1
330
180D6
100
AcDbEntity
  8
0
 48
50.0
100
AcDbBlockEnd
  0
BLOCK
  5
180EC
330
180E2
100
AcDbEntity
  8
0
 48
50.0
100
AcDbBlockBegin
  2
*D14
 70
     1
 10
0.0
 20
0.0
 30
0.0
  3
*D14
  1

  0
LINE
  5
186D3
330
180E2
100
AcDbEntity
  8
寸法
 62
     0
 48
50.0
370
    -2
100
AcDbLine
 10
8870.717145960231
 20
4594.644648948025
 30
0.0
 11
8078.641823799198
 21
4594.644648948025
 31
0.0
  0
LINE
  5
186D4
330
180E2
100
AcDbEntity
  8
寸法
 62
     0
 48
50.0
370
    -2
100
AcDbLine
 10
8870.717145960231
 20
2569.644648948026
 30
0.0
 11
8078.641823799198
 21
2569.644648948026
 31
0.0
  0
LINE
  5
186D5
330
180E2
100
AcDbEntity
  8
寸法
 62
     0
 48
50.0
370
    -2
100
AcDbLine
 10
8138.641823799197
 20
4594.644648948025
 30
0.0
 11
8138.641823799197
 21
2569.644648948026
 31
0.0
  0
INSERT
  5
186D6
330
180E2
100
AcDbEntity
  8
寸法
 62
     0
 48
50.0
370
    -2
100
AcDbBlockReference
  2
_DOTSMALL
 10
8138.641823799197
 20
4594.644648948025
 30
0.0
 41
100.0
 42
100.0
 43
100.0
 50
90.0
  0
INSERT
  5
186D7
330
180E2
100
AcDbEntity
  8
寸法
 62
     0
 48
50.0
370
    -2
100
AcDbBlockReference
  2
_DOTSMALL
 10
8138.641823799197
 20
2569.644648948026
 30
0.0
 41
100.0
 42
100.0
 43
100.0
 50
270.0
  0
MTEXT
  5
186D8
330
180E2
100
AcDbEntity
  8
寸法
 62
     7
 48
50.0
100
AcDbMText
 10
8038.630012775575
 20
3623.792968106685
 30
0.0
 40
120.0
 41
0.0
 71
     5
 72
     1
  1
\A1;有効開口部高サ2025
  7
STYLE1
 11
0.0000000000000001
 21
1.0
 31
0.0
 73
     1
 44
1.0
1001
ACAD
1000
MTEXTBEGIN
1070
    73
1070
     1
1070
    44
1040
1.0
1070
    74
1070
     0
1000
MTEXTEND
  0
POINT
  5
186D9
330
180E2
100
AcDbEntity
  8
DEFPOINTS
 62
     0
 48
50.0
100
AcDbPoint
 10
8890.71714596023
 20
4594.644648948025
 30
0.0
  0
POINT
  5
186DA
330
180E2
100
AcDbEntity
  8
DEFPOINTS
 62
     0
 48
50.0
100
AcDbPoint
 10
8890.71714596023
 20
2569.644648948026
 30
0.0
  0
POINT
  5
186DB
330
180E2
100
AcDbEntity
  8
DEFPOINTS
 62
     0
 48
50.0
100
AcDbPoint
 10
8138.641823799197
 20
2569.644648948026
 30
0.0
  0
ENDBLK
  5
180ED
330
180E2
100
AcDbEntity
  8
0
 48
50.0
100
AcDbBlockEnd
  0
BLOCK
  5
18104
330
180FA
100
AcDbEntity
  8
0
 48
50.0
100
AcDbBlockBegin
  2
*D15
 70
     1
 10
0.0
 20
0.0
 30
0.0
  3
*D15
  1

  0
LINE
  5
193EF
330
180FA
100
AcDbEntity
  8
寸法
 62
     0
 48
50.0
370
    -2
100
AcDbLine
 10
8465.858162111539
 20
9201.515860842741
 30
0.0
 11
8384.210188095623
 21
8896.801473480286
 31
0.0
  0
LINE
  5
193F0
330
180FA
100
AcDbEntity
  8
寸法
 62
     0
 48
50.0
370
    -2
100
AcDbLine
 10
9948.85816211161
 20
9201.515860842734
 30
0.0
 11
9867.210188095697
 21
8896.801473480286
 31
0.0
  0
LINE
  5
193F1
330
180FA
100
AcDbEntity
  8
寸法
 62
     0
 48
50.0
370
    -2
100
AcDbLine
 10
8400.287139641491
 20
8956.801473480286
 30
0.0
 11
9883.287139641566
 21
8956.801473480286
 31
0.0
  0
INSERT
  5
193F2
330
180FA
100
AcDbEntity
  8
寸法
 62
     0
 48
50.0
370
    -2
100
AcDbBlockReference
  2
_DOTSMALL
 10
8400.287139641491
 20
8956.801473480286
 30
0.0
 41
100.0
 42
100.0
 43
100.0
 50
180.0
  0
INSERT
  5
193F3
330
180FA
100
AcDbEntity
  8
寸法
 62
     0
 48
50.0
370
    -2
100
AcDbBlockReference
  2
_DOTSMALL
 10
9883.287139641566
 20
8956.801473480286
 30
0.0
 41
100.0
 42
100.0
 43
100.0
  0
MTEXT
  5
193F4
330
180FA
100
AcDbEntity
  8
寸法
 62
     7
 48
50.0
100
AcDbMText
 10
9030.902696790951
 20
9056.801473480286
 30
0.0
 40
120.0
 41
0.0
 71
     5
 72
     1
  1
\A1;1483
  7
STYLE1
 73
     1
 44
1.0
1001
ACAD
1000
MTEXTBEGIN
1070
    73
1070
     1
1070
    44
1040
1.0
1070
    74
1070
     0
1000
MTEXTEND
  0
POINT
  5
193F5
330
180FA
100
AcDbEntity
  8
DEFPOINTS
 62
     0
 48
50.0
100
AcDbPoint
 10
8471.217145960162
 20
9221.515860842741
 30
0.0
  0
POINT
  5
193F6
330
180FA
100
AcDbEntity
  8
DEFPOINTS
 62
     0
 48
50.0
100
AcDbPoint
 10
9954.217145960233
 20
9221.515860842734
 30
0.0
  0
POINT
  5
193F7
330
180FA
100
AcDbEntity
  8
DEFPOINTS
 62
     0
 48
50.0
100
AcDbPoint
 10
9883.287139641566
 20
8956.801473480286
 30
0.0
  0
ENDBLK
  5
18105
330
180FA
100
AcDbEntity
  8
0
 48
50.0
100
AcDbBlockEnd
  0
BLOCK
  5
18110
330
18106
100
AcDbEntity
  8
0
 48
50.0
100
AcDbBlockBegin
  2
*D16
 70
     1
 10
0.0
 20
0.0
 30
0.0
  3
*D16
  1

  0
LINE
  5
193E6
330
18106
100
AcDbEntity
  8
寸法
 62
     0
 48
50.0
370
    -2
100
AcDbLine
 10
8497.717145960237
 20
9721.515860842629
 30
0.0
 11
8497.717145960237
 21
10261.51586084267
 31
0.0
  0
LINE
  5
193E7
330
18106
100
AcDbEntity
  8
寸法
 62
     0
 48
50.0
370
    -2
100
AcDbLine
 10
11437.71714596024
 20
9721.515860842723
 30
0.0
 11
11437.71714596024
 21
10261.51586084267
 31
0.0
  0
LINE
  5
193E8
330
18106
100
AcDbEntity
  8
寸法
 62
     0
 48
50.0
370
    -2
100
AcDbLine
 10
8497.717145960237
 20
10201.51586084267
 30
0.0
 11
11437.71714596024
 21
10201.51586084267
 31
0.0
  0
INSERT
  5
193E9
330
18106
100
AcDbEntity
  8
寸法
 62
     0
 48
50.0
370
    -2
100
AcDbBlockReference
  2
_DOTSMALL
 10
8497.717145960237
 20
10201.51586084267
 30
0.0
 41
100.0
 42
100.0
 43
100.0
 50
180.0
  0
INSERT
  5
193EA
330
18106
100
AcDbEntity
  8
寸法
 62
     0
 48
50.0
370
    -2
100
AcDbBlockReference
  2
_DOTSMALL
 10
11437.71714596024
 20
10201.51586084267
 30
0.0
 41
100.0
 42
100.0
 43
100.0
  0
MTEXT
  5
193EB
330
18106
100
AcDbEntity
  8
寸法
 62
     7
 48
50.0
100
AcDbMText
 10
9967.717145960238
 20
10301.52767186629
 30
0.0
 40
120.0
 41
0.0
 71
     5
 72
     1
  1
\A1;7X420=2940
  7
STYLE1
 73
     1
 44
1.0
1001
ACAD
1000
MTEXTBEGIN
1070
    73
1070
     1
1070
    44
1040
1.0
1070
    74
1070
     0
1000
MTEXTEND
  0
POINT
  5
193EC
330
18106
100
AcDbEntity
  8
DEFPOINTS
 62
     0
 48
50.0
100
AcDbPoint
 10
8497.717145960237
 20
9701.515860842629
 30
0.0
  0
POINT
  5
193ED
330
18106
100
AcDbEntity
  8
DEFPOINTS
 62
     0
 48
50.0
100
AcDbPoint
 10
11437.71714596024
 20
9701.515860842723
 30
0.0
  0
POINT
  5
193EE
330
18106
100
AcDbEntity
  8
DEFPOINTS
 62
     0
 48
50.0
100
AcDbPoint
 10
11437.71714596024
 20
10201.51586084267
 30
0.0
  0
ENDBLK
  5
18111
330
18106
100
AcDbEntity
  8
0
 48
50.0
100
AcDbBlockEnd
  0
BLOCK
  5
1812A
330
1811E
100
AcDbEntity
  8
0
 48
50.0
100
AcDbBlockBegin
  2
*D17
 70
     1
 10
0.0
 20
0.0
 30
0.0
  3
*D17
  1

  0
LINE
  5
193DB
330
1811E
100
AcDbEntity
  8
寸法
 62
     0
 48
50.0
370
    -2
100
AcDbLine
 10
8442.717145960205
 20
9721.515860842629
 30
0.0
 11
8442.717145960205
 21
10261.51586084263
 31
0.0
  0
LINE
  5
193DC
330
1811E
100
AcDbEntity
  8
寸法
 62
     0
 48
50.0
370
    -2
100
AcDbLine
 10
8497.717145960237
 20
9721.515860842629
 30
0.0
 11
8497.717145960237
 21
10261.51586084263
 31
0.0
  0
LINE
  5
193DD
330
1811E
100
AcDbEntity
  8
寸法
 62
     0
 48
50.0
370
    -2
100
AcDbLine
 10
8497.717145960237
 20
10201.51586084263
 30
0.0
 11
8597.717145960237
 21
10201.51586084263
 31
0.0
  0
LINE
  5
193DE
330
1811E
100
AcDbEntity
  8
寸法
 62
     0
 48
50.0
370
    -2
100
AcDbLine
 10
8442.717145960205
 20
10201.51586084263
 30
0.0
 11
8025.746583211725
 21
10201.51586084263
 31
0.0
  0
LINE
  5
193DF
330
1811E
100
AcDbEntity
  8
寸法
 62
     0
 48
50.0
370
    -2
100
AcDbLine
 10
8497.717145960237
 20
10201.51586084263
 30
0.0
 11
8442.717145960205
 21
10201.51586084263
 31
0.0
  0
INSERT
  5
193E0
330
1811E
100
AcDbEntity
  8
寸法
 62
     0
 48
50.0
370
    -2
100
AcDbBlockReference
  2
_DOTSMALL
 10
8497.717145960237
 20
10201.51586084263
 30
0.0
 41
100.0
 42
100.0
 43
100.0
 50
180.0
  0
INSERT
  5
193E1
330
1811E
100
AcDbEntity
  8
寸法
 62
     0
 48
50.0
370
    -2
100
AcDbBlockReference
  2
_DOTSMALL
 10
8442.717145960205
 20
10201.51586084263
 30
0.0
 41
100.0
 42
100.0
 43
100.0
  0
MTEXT
  5
193E2
330
1811E
100
AcDbEntity
  8
寸法
 62
     7
 48
50.0
100
AcDbMText
 10
8134.231864585965
 20
10301.51586084263
 30
0.0
 40
120.0
 41
0.0
 71
     5
 72
     1
  1
\A1;55
  7
STYLE1
 73
     1
 44
1.0
1001
ACAD
1000
MTEXTBEGIN
1070
    73
1070
     1
1070
    44
1040
1.0
1070
    74
1070
     0
1000
MTEXTEND
  0
POINT
  5
193E3
330
1811E
100
AcDbEntity
  8
DEFPOINTS
 62
     0
 48
50.0
100
AcDbPoint
 10
8442.717145960205
 20
9701.515860842629
 30
0.0
  0
POINT
  5
193E4
330
1811E
100
AcDbEntity
  8
DEFPOINTS
 62
     0
 48
50.0
100
AcDbPoint
 10
8497.717145960237
 20
9701.515860842629
 30
0.0
  0
POINT
  5
193E5
330
1811E
100
AcDbEntity
  8
DEFPOINTS
 62
     0
 48
50.0
100
AcDbPoint
 10
8497.717145960237
 20
10201.51586084263
 30
0.0
  0
ENDBLK
  5
1812B
330
1811E
100
AcDbEntity
  8
0
 48
50.0
100
AcDbBlockEnd
  0
BLOCK
  5
18136
330
1812C
100
AcDbEntity
  8
0
 48
50.0
100
AcDbBlockBegin
  2
*D18
 70
     1
 10
0.0
 20
0.0
 30
0.0
  3
*D18
  1

  0
LINE
  5
193D2
330
1812C
100
AcDbEntity
  8
寸法
 62
     0
 48
50.0
370
    -2
100
AcDbLine
 10
9975.858162111608
 20
9201.5158608428
 30
0.0
 11
9894.210188095678
 21
8896.801473480286
 31
0.0
  0
LINE
  5
193D3
330
1812C
100
AcDbEntity
  8
寸法
 62
     0
 48
50.0
370
    -2
100
AcDbLine
 10
11458.85816211162
 20
9201.515860842793
 30
0.0
 11
11377.21018809569
 21
8896.801473480286
 31
0.0
  0
LINE
  5
193D4
330
1812C
100
AcDbEntity
  8
寸法
 62
     0
 48
50.0
370
    -2
100
AcDbLine
 10
9910.287139641546
 20
8956.801473480286
 30
0.0
 11
11393.28713964156
 21
8956.801473480286
 31
0.0
  0
INSERT
  5
193D5
330
1812C
100
AcDbEntity
  8
寸法
 62
     0
 48
50.0
370
    -2
100
AcDbBlockReference
  2
_DOTSMALL
 10
9910.287139641546
 20
8956.801473480286
 30
0.0
 41
100.0
 42
100.0
 43
100.0
 50
180.0
  0
INSERT
  5
193D6
330
1812C
100
AcDbEntity
  8
寸法
 62
     0
 48
50.0
370
    -2
100
AcDbBlockReference
  2
_DOTSMALL
 10
11393.28713964156
 20
8956.801473480286
 30
0.0
 41
100.0
 42
100.0
 43
100.0
  0
MTEXT
  5
193D7
330
1812C
100
AcDbEntity
  8
寸法
 62
     7
 48
50.0
100
AcDbMText
 10
10492.78085695828
 20
9056.801473480286
 30
0.0
 40
120.0
 41
0.0
 71
     5
 72
     1
  1
\A1;1483
  7
STYLE1
 73
     1
 44
1.0
1001
ACAD
1000
MTEXTBEGIN
1070
    73
1070
     1
1070
    44
1040
1.0
1070
    74
1070
     0
1000
MTEXTEND
  0
POINT
  5
193D8
330
1812C
100
AcDbEntity
  8
DEFPOINTS
 62
     0
 48
50.0
100
AcDbPoint
 10
9981.217145960231
 20
9221.515860842799
 30
0.0
  0
POINT
  5
193D9
330
1812C
100
AcDbEntity
  8
DEFPOINTS
 62
     0
 48
50.0
100
AcDbPoint
 10
11464.21714596024
 20
9221.515860842792
 30
0.0
  0
POINT
  5
193DA
330
1812C
100
AcDbEntity
  8
DEFPOINTS
 62
     0
 48
50.0
100
AcDbPoint
 10
11393.28713964156
 20
8956.801473480286
 30
0.0
  0
ENDBLK
  5
18137
330
1812C
100
AcDbEntity
  8
0
 48
50.0
100
AcDbBlockEnd
  0
BLOCK
  5
18142
330
18138
100
AcDbEntity
  8
0
 48
50.0
100
AcDbBlockBegin
  2
*D19
 70
     1
 10
0.0
 20
0.0
 30
0.0
  3
*D19
  1

  0
LINE
  5
193C9
330
18138
100
AcDbEntity
  8
寸法
 62
     0
 48
50.0
370
    -2
100
AcDbLine
 10
11512.71714596024
 20
9701.515860842723
 30
0.0
 11
12552.71714596023
 21
9701.515860842722
 31
0.0
  0
LINE
  5
193CA
330
18138
100
AcDbEntity
  8
寸法
 62
     0
 48
50.0
370
    -2
100
AcDbLine
 10
11512.71714596021
 20
7911.515860842715
 30
0.0
 11
12552.71714596023
 21
7911.515860842715
 31
0.0
  0
LINE
  5
193CB
330
18138
100
AcDbEntity
  8
寸法
 62
     0
 48
50.0
370
    -2
100
AcDbLine
 10
12492.71714596023
 20
9701.515860842722
 30
0.0
 11
12492.71714596023
 21
7911.515860842715
 31
0.0
  0
INSERT
  5
193CC
330
18138
100
AcDbEntity
  8
寸法
 62
     0
 48
50.0
370
    -2
100
AcDbBlockReference
  2
_DOTSMALL
 10
12492.71714596023
 20
9701.515860842722
 30
0.0
 41
100.0
 42
100.0
 43
100.0
 50
90.0
  0
INSERT
  5
193CD
330
18138
100
AcDbEntity
  8
寸法
 62
     0
 48
50.0
370
    -2
100
AcDbBlockReference
  2
_DOTSMALL
 10
12492.71714596023
 20
7911.515860842715
 30
0.0
 41
100.0
 42
100.0
 43
100.0
 50
270.0
  0
MTEXT
  5
193CE
330
18138
100
AcDbEntity
  8
寸法
 62
     7
 48
50.0
100
AcDbMText
 10
12392.71714596023
 20
8806.51586084272
 30
0.0
 40
120.0
 41
0.0
 71
     5
 72
     1
  1
\A1;1790
  7
STYLE1
 11
0.0000000000000001
 21
1.0
 31
0.0
 73
     1
 44
1.0
1001
ACAD
1000
MTEXTBEGIN
1070
    73
1070
     1
1070
    44
1040
1.0
1070
    74
1070
     0
1000
MTEXTEND
  0
POINT
  5
193CF
330
18138
100
AcDbEntity
  8
DEFPOINTS
 62
     0
 48
50.0
100
AcDbPoint
 10
11492.71714596024
 20
9701.515860842723
 30
0.0
  0
POINT
  5
193D0
330
18138
100
AcDbEntity
  8
DEFPOINTS
 62
     0
 48
50.0
100
AcDbPoint
 10
11492.71714596021
 20
7911.515860842715
 30
0.0
  0
POINT
  5
193D1
330
18138
100
AcDbEntity
  8
DEFPOINTS
 62
     0
 48
50.0
100
AcDbPoint
 10
12492.71714596023
 20
7911.515860842715
 30
0.0
  0
ENDBLK
  5
18143
330
18138
100
AcDbEntity
  8
0
 48
50.0
100
AcDbBlockEnd
  0
BLOCK
  5
1814E
330
18144
100
AcDbEntity
  8
0
 48
50.0
100
AcDbBlockBegin
  2
*D20
 70
     1
 10
0.0
 20
0.0
 30
0.0
  3
*D20
  1

  0
LINE
  5
193C0
330
18144
100
AcDbEntity
  8
寸法
 62
     0
 48
50.0
370
    -2
100
AcDbLine
 10
11512.71714596024
 20
9646.515860842725
 30
0.0
 11
12252.71714596023
 21
9646.515860842725
 31
0.0
  0
LINE
  5
193C1
330
18144
100
AcDbEntity
  8
寸法
 62
     0
 48
50.0
370
    -2
100
AcDbLine
 10
11512.71714596021
 20
7966.515860842711
 30
0.0
 11
12252.71714596023
 21
7966.515860842711
 31
0.0
  0
LINE
  5
193C2
330
18144
100
AcDbEntity
  8
寸法
 62
     0
 48
50.0
370
    -2
100
AcDbLine
 10
12192.71714596023
 20
9646.515860842725
 30
0.0
 11
12192.71714596023
 21
7966.515860842711
 31
0.0
  0
INSERT
  5
193C3
330
18144
100
AcDbEntity
  8
寸法
 62
     0
 48
50.0
370
    -2
100
AcDbBlockReference
  2
_DOTSMALL
 10
12192.71714596023
 20
9646.515860842725
 30
0.0
 41
100.0
 42
100.0
 43
100.0
 50
90.0
  0
INSERT
  5
193C4
330
18144
100
AcDbEntity
  8
寸法
 62
     0
 48
50.0
370
    -2
100
AcDbBlockReference
  2
_DOTSMALL
 10
12192.71714596023
 20
7966.515860842711
 30
0.0
 41
100.0
 42
100.0
 43
100.0
 50
270.0
  0
MTEXT
  5
193C5
330
18144
100
AcDbEntity
  8
寸法
 62
     7
 48
50.0
100
AcDbMText
 10
12092.7053349366
 20
8806.51586084272
 30
0.0
 40
120.0
 41
0.0
 71
     5
 72
     1
  1
\A1;4X420=1680
  7
STYLE1
 11
0.0000000000000001
 21
1.0
 31
0.0
 73
     1
 44
1.0
1001
ACAD
1000
MTEXTBEGIN
1070
    73
1070
     1
1070
    44
1040
1.0
1070
    74
1070
     0
1000
MTEXTEND
  0
POINT
  5
193C6
330
18144
100
AcDbEntity
  8
DEFPOINTS
 62
     0
 48
50.0
100
AcDbPoint
 10
11492.71714596024
 20
9646.515860842725
 30
0.0
  0
POINT
  5
193C7
330
18144
100
AcDbEntity
  8
DEFPOINTS
 62
     0
 48
50.0
100
AcDbPoint
 10
11492.71714596021
 20
7966.515860842711
 30
0.0
  0
POINT
  5
193C8
330
18144
100
AcDbEntity
  8
DEFPOINTS
 62
     0
 48
50.0
100
AcDbPoint
 10
12192.71714596023
 20
7966.515860842711
 30
0.0
  0
ENDBLK
  5
1814F
330
18144
100
AcDbEntity
  8
0
 48
50.0
100
AcDbBlockEnd
  0
BLOCK
  5
1815C
330
18150
100
AcDbEntity
  8
0
 48
50.0
100
AcDbBlockBegin
  2
*D21
 70
     1
 10
0.0
 20
0.0
 30
0.0
  3
*D21
  1

  0
LINE
  5
193B5
330
18150
100
AcDbEntity
  8
寸法
 62
     0
 48
50.0
370
    -2
100
AcDbLine
 10
11512.71714596021
 20
7966.515860842711
 30
0.0
 11
12252.71714596021
 21
7966.515860842711
 31
0.0
  0
LINE
  5
193B6
330
18150
100
AcDbEntity
  8
寸法
 62
     0
 48
50.0
370
    -2
100
AcDbLine
 10
11512.71714596021
 20
7911.515860842715
 30
0.0
 11
12252.71714596021
 21
7911.515860842715
 31
0.0
  0
LINE
  5
193B7
330
18150
100
AcDbEntity
  8
寸法
 62
     0
 48
50.0
370
    -2
100
AcDbLine
 10
12192.71714596021
 20
7966.515860842711
 30
0.0
 11
12192.71714596021
 21
8066.515860842711
 31
0.0
  0
LINE
  5
193B8
330
18150
100
AcDbEntity
  8
寸法
 62
     0
 48
50.0
370
    -2
100
AcDbLine
 10
12192.71714596021
 20
7911.515860842715
 30
0.0
 11
12192.71714596021
 21
7494.545298094234
 31
0.0
  0
LINE
  5
193B9
330
18150
100
AcDbEntity
  8
寸法
 62
     0
 48
50.0
370
    -2
100
AcDbLine
 10
12192.71714596021
 20
7966.515860842711
 30
0.0
 11
12192.71714596021
 21
7911.515860842715
 31
0.0
  0
INSERT
  5
193BA
330
18150
100
AcDbEntity
  8
寸法
 62
     0
 48
50.0
370
    -2
100
AcDbBlockReference
  2
_DOTSMALL
 10
12192.71714596021
 20
7966.515860842711
 30
0.0
 41
100.0
 42
100.0
 43
100.0
 50
270.0
  0
INSERT
  5
193BB
330
18150
100
AcDbEntity
  8
寸法
 62
     0
 48
50.0
370
    -2
100
AcDbBlockReference
  2
_DOTSMALL
 10
12192.71714596021
 20
7911.515860842715
 30
0.0
 41
100.0
 42
100.0
 43
100.0
 50
90.0
  0
MTEXT
  5
193BC
330
18150
100
AcDbEntity
  8
寸法
 62
     7
 48
50.0
100
AcDbMText
 10
12092.71714596021
 20
7603.030579468475
 30
0.0
 40
120.0
 41
0.0
 71
     5
 72
     1
  1
\A1;55
  7
STYLE1
 11
0.0000000000000001
 21
1.0
 31
0.0
 73
     1
 44
1.0
1001
ACAD
1000
MTEXTBEGIN
1070
    73
1070
     1
1070
    44
1040
1.0
1070
    74
1070
     0
1000
MTEXTEND
  0
POINT
  5
193BD
330
18150
100
AcDbEntity
  8
DEFPOINTS
 62
     0
 48
50.0
100
AcDbPoint
 10
11492.71714596021
 20
7966.515860842711
 30
0.0
  0
POINT
  5
193BE
330
18150
100
AcDbEntity
  8
DEFPOINTS
 62
     0
 48
50.0
100
AcDbPoint
 10
11492.71714596021
 20
7911.515860842715
 30
0.0
  0
POINT
  5
193BF
330
18150
100
AcDbEntity
  8
DEFPOINTS
 62
     0
 48
50.0
100
AcDbPoint
 10
12192.71714596021
 20
7911.515860842715
 30
0.0
  0
ENDBLK
  5
1815D
330
18150
100
AcDbEntity
  8
0
 48
50.0
100
AcDbBlockEnd
  0
BLOCK
  5
18168
330
1815E
100
AcDbEntity
  8
0
 48
50.0
100
AcDbBlockBegin
  2
*D22
 70
     1
 10
0.0
 20
0.0
 30
0.0
  3
*D22
  1

  0
LINE
  5
193AC
330
1815E
100
AcDbEntity
  8
寸法
 62
     0
 48
50.0
370
    -2
100
AcDbLine
 10
11484.21714596024
 20
9666.156876994101
 30
0.0
 11
11952.71714596023
 21
9540.622680340121
 31
0.0
  0
LINE
  5
193AD
330
1815E
100
AcDbEntity
  8
寸法
 62
     0
 48
50.0
370
    -2
100
AcDbLine
 10
11484.21714596024
 20
9216.156876994103
 30
0.0
 11
11952.71714596023
 21
9090.622680340123
 31
0.0
  0
LINE
  5
193AE
330
1815E
100
AcDbEntity
  8
寸法
 62
     0
 48
50.0
370
    -2
100
AcDbLine
 10
11892.71714596023
 20
9556.699631885988
 30
0.0
 11
11892.71714596023
 21
9106.699631885991
 31
0.0
  0
INSERT
  5
193AF
330
1815E
100
AcDbEntity
  8
寸法
 62
     0
 48
50.0
370
    -2
100
AcDbBlockReference
  2
_DOTSMALL
 10
11892.71714596023
 20
9556.699631885988
 30
0.0
 41
100.0
 42
100.0
 43
100.0
 50
90.0
  0
INSERT
  5
193B0
330
1815E
100
AcDbEntity
  8
寸法
 62
     0
 48
50.0
370
    -2
100
AcDbBlockReference
  2
_DOTSMALL
 10
11892.71714596023
 20
9106.699631885991
 30
0.0
 41
100.0
 42
100.0
 43
100.0
 50
270.0
  0
MTEXT
  5
193B1
330
1815E
100
AcDbEntity
  8
寸法
 62
     7
 48
50.0
100
AcDbMText
 10
11792.71714596023
 20
9331.699631885989
 30
0.0
 40
120.0
 41
0.0
 71
     5
 72
     1
  1
\A1;450
  7
STYLE1
 11
0.0000000000000001
 21
1.0
 31
0.0
 73
     1
 44
1.0
1001
ACAD
1000
MTEXTBEGIN
1070
    73
1070
     1
1070
    44
1040
1.0
1070
    74
1070
     0
1000
MTEXTEND
  0
POINT
  5
193B2
330
1815E
100
AcDbEntity
  8
DEFPOINTS
 62
     0
 48
50.0
100
AcDbPoint
 10
11464.21714596024
 20
9671.515860842724
 30
0.0
  0
POINT
  5
193B3
330
1815E
100
AcDbEntity
  8
DEFPOINTS
 62
     0
 48
50.0
100
AcDbPoint
 10
11464.21714596024
 20
9221.515860842727
 30
0.0
  0
POINT
  5
193B4
330
1815E
100
AcDbEntity
  8
DEFPOINTS
 62
     0
 48
50.0
100
AcDbPoint
 10
11892.71714596023
 20
9106.699631885991
 30
0.0
  0
ENDBLK
  5
18169
330
1815E
100
AcDbEntity
  8
0
 48
50.0
100
AcDbBlockEnd
  0
BLOCK
  5
18176
330
1816A
100
AcDbEntity
  8
0
 48
50.0
100
AcDbBlockBegin
  2
*D23
 70
     1
 10
0.0
 20
0.0
 30
0.0
  3
*D23
  1

  0
LINE
  5
193A1
330
1816A
100
AcDbEntity
  8
寸法
 62
     0
 48
50.0
370
    -2
100
AcDbLine
 10
11437.71714596024
 20
9721.515860842723
 30
0.0
 11
11437.71714596024
 21
10261.51586084272
 31
0.0
  0
LINE
  5
193A2
330
1816A
100
AcDbEntity
  8
寸法
 62
     0
 48
50.0
370
    -2
100
AcDbLine
 10
11492.71714596024
 20
9721.515860842723
 30
0.0
 11
11492.71714596024
 21
10261.51586084272
 31
0.0
  0
LINE
  5
193A3
330
1816A
100
AcDbEntity
  8
寸法
 62
     0
 48
50.0
370
    -2
100
AcDbLine
 10
11437.71714596024
 20
10201.51586084272
 30
0.0
 11
11337.71714596024
 21
10201.51586084272
 31
0.0
  0
LINE
  5
193A4
330
1816A
100
AcDbEntity
  8
寸法
 62
     0
 48
50.0
370
    -2
100
AcDbLine
 10
11492.71714596024
 20
10201.51586084272
 30
0.0
 11
11909.68770870871
 21
10201.51586084272
 31
0.0
  0
LINE
  5
193A5
330
1816A
100
AcDbEntity
  8
寸法
 62
     0
 48
50.0
370
    -2
100
AcDbLine
 10
11437.71714596024
 20
10201.51586084272
 30
0.0
 11
11492.71714596024
 21
10201.51586084272
 31
0.0
  0
INSERT
  5
193A6
330
1816A
100
AcDbEntity
  8
寸法
 62
     0
 48
50.0
370
    -2
100
AcDbBlockReference
  2
_DOTSMALL
 10
11437.71714596024
 20
10201.51586084272
 30
0.0
 41
100.0
 42
100.0
 43
100.0
  0
INSERT
  5
193A7
330
1816A
100
AcDbEntity
  8
寸法
 62
     0
 48
50.0
370
    -2
100
AcDbBlockReference
  2
_DOTSMALL
 10
11492.71714596024
 20
10201.51586084272
 30
0.0
 41
100.0
 42
100.0
 43
100.0
 50
180.0
  0
MTEXT
  5
193A8
330
1816A
100
AcDbEntity
  8
寸法
 62
     7
 48
50.0
100
AcDbMText
 10
11801.20242733448
 20
10301.51586084272
 30
0.0
 40
120.0
 41
0.0
 71
     5
 72
     1
  1
\A1;55
  7
STYLE1
 73
     1
 44
1.0
1001
ACAD
1000
MTEXTBEGIN
1070
    73
1070
     1
1070
    44
1040
1.0
1070
    74
1070
     0
1000
MTEXTEND
  0
POINT
  5
193A9
330
1816A
100
AcDbEntity
  8
DEFPOINTS
 62
     0
 48
50.0
100
AcDbPoint
 10
11437.71714596024
 20
9701.515860842723
 30
0.0
  0
POINT
  5
193AA
330
1816A
100
AcDbEntity
  8
DEFPOINTS
 62
     0
 48
50.0
100
AcDbPoint
 10
11492.71714596024
 20
9701.515860842723
 30
0.0
  0
POINT
  5
193AB
330
1816A
100
AcDbEntity
  8
DEFPOINTS
 62
     0
 48
50.0
100
AcDbPoint
 10
11492.71714596024
 20
10201.51586084272
 30
0.0
  0
ENDBLK
  5
18177
330
1816A
100
AcDbEntity
  8
0
 48
50.0
100
AcDbBlockEnd
  0
BLOCK
  5
18184
330
18178
100
AcDbEntity
  8
0
 48
50.0
100
AcDbBlockBegin
  2
*D24
 70
     1
 10
0.0
 20
0.0
 30
0.0
  3
*D24
  1

  0
LINE
  5
19396
330
18178
100
AcDbEntity
  8
寸法
 62
     0
 48
50.0
370
    -2
100
AcDbLine
 10
11512.71714596024
 20
9701.515860842723
 30
0.0
 11
12252.71714596024
 21
9701.515860842723
 31
0.0
  0
LINE
  5
19397
330
18178
100
AcDbEntity
  8
寸法
 62
     0
 48
50.0
370
    -2
100
AcDbLine
 10
11512.71714596024
 20
9646.515860842725
 30
0.0
 11
12252.71714596024
 21
9646.515860842725
 31
0.0
  0
LINE
  5
19398
330
18178
100
AcDbEntity
  8
寸法
 62
     0
 48
50.0
370
    -2
100
AcDbLine
 10
12192.71714596024
 20
9646.515860842725
 30
0.0
 11
12192.71714596024
 21
9546.515860842726
 31
0.0
  0
LINE
  5
19399
330
18178
100
AcDbEntity
  8
寸法
 62
     0
 48
50.0
370
    -2
100
AcDbLine
 10
12192.71714596024
 20
9701.515860842723
 30
0.0
 11
12192.71714596024
 21
10118.4864235912
 31
0.0
  0
LINE
  5
1939A
330
18178
100
AcDbEntity
  8
寸法
 62
     0
 48
50.0
370
    -2
100
AcDbLine
 10
12192.71714596024
 20
9646.515860842725
 30
0.0
 11
12192.71714596024
 21
9701.515860842723
 31
0.0
  0
INSERT
  5
1939B
330
18178
100
AcDbEntity
  8
寸法
 62
     0
 48
50.0
370
    -2
100
AcDbBlockReference
  2
_DOTSMALL
 10
12192.71714596024
 20
9646.515860842725
 30
0.0
 41
100.0
 42
100.0
 43
100.0
 50
90.0
  0
INSERT
  5
1939C
330
18178
100
AcDbEntity
  8
寸法
 62
     0
 48
50.0
370
    -2
100
AcDbBlockReference
  2
_DOTSMALL
 10
12192.71714596024
 20
9701.515860842723
 30
0.0
 41
100.0
 42
100.0
 43
100.0
 50
270.0
  0
MTEXT
  5
1939D
330
18178
100
AcDbEntity
  8
寸法
 62
     7
 48
50.0
100
AcDbMText
 10
12092.71714596024
 20
10010.00114221696
 30
0.0
 40
120.0
 41
0.0
 71
     5
 72
     1
  1
\A1;55
  7
STYLE1
 11
0.0000000000000001
 21
1.0
 31
0.0
 73
     1
 44
1.0
1001
ACAD
1000
MTEXTBEGIN
1070
    73
1070
     1
1070
    44
1040
1.0
1070
    74
1070
     0
1000
MTEXTEND
  0
POINT
  5
1939E
330
18178
100
AcDbEntity
  8
DEFPOINTS
 62
     0
 48
50.0
100
AcDbPoint
 10
11492.71714596024
 20
9701.515860842723
 30
0.0
  0
POINT
  5
1939F
330
18178
100
AcDbEntity
  8
DEFPOINTS
 62
     0
 48
50.0
100
AcDbPoint
 10
11492.71714596024
 20
9646.515860842725
 30
0.0
  0
POINT
  5
193A0
330
18178
100
AcDbEntity
  8
DEFPOINTS
 62
     0
 48
50.0
100
AcDbPoint
 10
12192.71714596024
 20
9646.515860842725
 30
0.0
  0
ENDBLK
  5
18185
330
18178
100
AcDbEntity
  8
0
 48
50.0
100
AcDbBlockEnd
  0
BLOCK
  5
181AA
330
181A0
100
AcDbEntity
  8
0
 48
50.0
100
AcDbBlockBegin
  2
*D25
 70
     1
 10
0.0
 20
0.0
 30
0.0
  3
*D25
  1

  0
LINE
  5
18642
330
181A0
100
AcDbEntity
  8
寸法
 62
     0
 48
50.0
370
    -2
100
AcDbLine
 10
11492.71714596022
 20
4906.644648948031
 30
0.0
 11
11492.71714596022
 21
5345.737818287498
 31
0.0
  0
LINE
  5
18643
330
181A0
100
AcDbEntity
  8
寸法
 62
     0
 48
50.0
370
    -2
100
AcDbLine
 10
8442.71714596023
 20
4906.644648948032
 30
0.0
 11
8442.71714596023
 21
5345.737818287498
 31
0.0
  0
LINE
  5
18644
330
181A0
100
AcDbEntity
  8
寸法
 62
     0
 48
50.0
370
    -2
100
AcDbLine
 10
11492.71714596022
 20
5285.737818287498
 30
0.0
 11
8442.71714596023
 21
5285.737818287498
 31
0.0
  0
INSERT
  5
18645
330
181A0
100
AcDbEntity
  8
寸法
 62
     0
 48
50.0
370
    -2
100
AcDbBlockReference
  2
_DOTSMALL
 10
11492.71714596022
 20
5285.737818287498
 30
0.0
 41
100.0
 42
100.0
 43
100.0
  0
INSERT
  5
18646
330
181A0
100
AcDbEntity
  8
寸法
 62
     0
 48
50.0
370
    -2
100
AcDbBlockReference
  2
_DOTSMALL
 10
8442.71714596023
 20
5285.737818287498
 30
0.0
 41
100.0
 42
100.0
 43
100.0
 50
180.0
  0
MTEXT
  5
18647
330
181A0
100
AcDbEntity
  8
寸法
 62
     7
 48
50.0
100
AcDbMText
 10
9967.717145960229
 20
5385.737818287498
 30
0.0
 40
120.0
 41
0.0
 71
     5
 72
     1
  1
\A1;柱外寸法3050
  7
STYLE1
 73
     1
 44
1.0
1001
ACAD
1000
MTEXTBEGIN
1070
    73
1070
     1
1070
    44
1040
1.0
1070
    74
1070
     0
1000
MTEXTEND
  0
POINT
  5
18648
330
181A0
100
AcDbEntity
  8
DEFPOINTS
 62
     0
 48
50.0
100
AcDbPoint
 10
11492.71714596022
 20
4886.644648948031
 30
0.0
  0
POINT
  5
18649
330
181A0
100
AcDbEntity
  8
DEFPOINTS
 62
     0
 48
50.0
100
AcDbPoint
 10
8442.71714596023
 20
4886.644648948032
 30
0.0
  0
POINT
  5
1864A
330
181A0
100
AcDbEntity
  8
DEFPOINTS
 62
     0
 48
50.0
100
AcDbPoint
 10
8442.71714596023
 20
5285.737818287498
 30
0.0
  0
ENDBLK
  5
181AB
330
181A0
100
AcDbEntity
  8
0
 48
50.0
100
AcDbBlockEnd
  0
BLOCK
  5
181B6
330
181AC
100
AcDbEntity
  8
0
 48
50.0
100
AcDbBlockBegin
  2
*D26
 70
     1
 10
0.0
 20
0.0
 30
0.0
  3
*D26
  1

  0
LINE
  5
18639
330
181AC
100
AcDbEntity
  8
寸法
 62
     0
 48
50.0
370
    -2
100
AcDbLine
 10
8392.717145960231
 20
4906.644648948031
 30
0.0
 11
8392.717145960231
 21
5562.263917905944
 31
0.0
  0
LINE
  5
1863A
330
181AC
100
AcDbEntity
  8
寸法
 62
     0
 48
50.0
370
    -2
100
AcDbLine
 10
11542.71714596023
 20
4906.644648948028
 30
0.0
 11
11542.71714596023
 21
5562.263917905944
 31
0.0
  0
LINE
  5
1863B
330
181AC
100
AcDbEntity
  8
寸法
 62
     0
 48
50.0
370
    -2
100
AcDbLine
 10
8392.717145960231
 20
5502.263917905945
 30
0.0
 11
11542.71714596023
 21
5502.263917905945
 31
0.0
  0
INSERT
  5
1863C
330
181AC
100
AcDbEntity
  8
寸法
 62
     0
 48
50.0
370
    -2
100
AcDbBlockReference
  2
_DOTSMALL
 10
8392.717145960231
 20
5502.263917905945
 30
0.0
 41
100.0
 42
100.0
 43
100.0
 50
180.0
  0
INSERT
  5
1863D
330
181AC
100
AcDbEntity
  8
寸法
 62
     0
 48
50.0
370
    -2
100
AcDbBlockReference
  2
_DOTSMALL
 10
11542.71714596023
 20
5502.263917905945
 30
0.0
 41
100.0
 42
100.0
 43
100.0
  0
MTEXT
  5
1863E
330
181AC
100
AcDbEntity
  8
寸法
 62
     7
 48
50.0
100
AcDbMText
 10
9967.717145960229
 20
5602.263917905944
 30
0.0
 40
120.0
 41
0.0
 71
     5
 72
     1
  1
\A1;3150
  7
STYLE1
 73
     1
 44
1.0
1001
ACAD
1000
MTEXTBEGIN
1070
    73
1070
     1
1070
    44
1040
1.0
1070
    74
1070
     0
1000
MTEXTEND
  0
POINT
  5
1863F
330
181AC
100
AcDbEntity
  8
DEFPOINTS
 62
     0
 48
50.0
100
AcDbPoint
 10
8392.717145960231
 20
4886.644648948031
 30
0.0
  0
POINT
  5
18640
330
181AC
100
AcDbEntity
  8
DEFPOINTS
 62
     0
 48
50.0
100
AcDbPoint
 10
11542.71714596023
 20
4886.644648948029
 30
0.0
  0
POINT
  5
18641
330
181AC
100
AcDbEntity
  8
DEFPOINTS
 62
     0
 48
50.0
100
AcDbPoint
 10
11542.71714596023
 20
5502.263917905945
 30
0.0
  0
ENDBLK
  5
181B7
330
181AC
100
AcDbEntity
  8
0
 48
50.0
100
AcDbBlockEnd
  0
BLOCK
  5
181C4
330
181B8
100
AcDbEntity
  8
0
 48
50.0
100
AcDbBlockBegin
  2
*D27
 70
     1
 10
0.0
 20
0.0
 30
0.0
  3
*D27
  1

  0
LINE
  5
1862E
330
181B8
100
AcDbEntity
  8
寸法
 62
     0
 48
50.0
370
    -2
100
AcDbLine
 10
8442.71714596023
 20
4906.644648948032
 30
0.0
 11
8442.71714596023
 21
5345.737818287499
 31
0.0
  0
LINE
  5
1862F
330
181B8
100
AcDbEntity
  8
寸法
 62
     0
 48
50.0
370
    -2
100
AcDbLine
 10
8392.717145960231
 20
4906.644648948031
 30
0.0
 11
8392.717145960231
 21
5345.737818287499
 31
0.0
  0
LINE
  5
18630
330
181B8
100
AcDbEntity
  8
寸法
 62
     0
 48
50.0
370
    -2
100
AcDbLine
 10
8442.71714596023
 20
5285.737818287499
 30
0.0
 11
8542.71714596023
 21
5285.737818287499
 31
0.0
  0
LINE
  5
18631
330
181B8
100
AcDbEntity
  8
寸法
 62
     0
 48
50.0
370
    -2
100
AcDbLine
 10
8392.717145960231
 20
5285.737818287499
 30
0.0
 11
7973.184620491496
 21
5285.737818287499
 31
0.0
  0
LINE
  5
18632
330
181B8
100
AcDbEntity
  8
寸法
 62
     0
 48
50.0
370
    -2
100
AcDbLine
 10
8442.71714596023
 20
5285.737818287499
 30
0.0
 11
8392.717145960231
 21
5285.737818287499
 31
0.0
  0
INSERT
  5
18633
330
181B8
100
AcDbEntity
  8
寸法
 62
     0
 48
50.0
370
    -2
100
AcDbBlockReference
  2
_DOTSMALL
 10
8442.71714596023
 20
5285.737818287499
 30
0.0
 41
100.0
 42
100.0
 43
100.0
 50
180.0
  0
INSERT
  5
18634
330
181B8
100
AcDbEntity
  8
寸法
 62
     0
 48
50.0
370
    -2
100
AcDbBlockReference
  2
_DOTSMALL
 10
8392.717145960231
 20
5285.737818287499
 30
0.0
 41
100.0
 42
100.0
 43
100.0
  0
MTEXT
  5
18635
330
181B8
100
AcDbEntity
  8
寸法
 62
     7
 48
50.0
100
AcDbMText
 10
8079.231864585983
 20
5385.737818287498
 30
0.0
 40
120.0
 41
0.0
 71
     5
 72
     1
  1
\A1;50
  7
STYLE1
 73
     1
 44
1.0
1001
ACAD
1000
MTEXTBEGIN
1070
    73
1070
     1
1070
    44
1040
1.0
1070
    74
1070
     0
1000
MTEXTEND
  0
POINT
  5
18636
330
181B8
100
AcDbEntity
  8
DEFPOINTS
 62
     0
 48
50.0
100
AcDbPoint
 10
8442.71714596023
 20
4886.644648948032
 30
0.0
  0
POINT
  5
18637
330
181B8
100
AcDbEntity
  8
DEFPOINTS
 62
     0
 48
50.0
100
AcDbPoint
 10
8392.717145960231
 20
4886.644648948031
 30
0.0
  0
POINT
  5
18638
330
181B8
100
AcDbEntity
  8
DEFPOINTS
 62
     0
 48
50.0
100
AcDbPoint
 10
8392.717145960231
 20
5285.737818287499
 30
0.0
  0
ENDBLK
  5
181C5
330
181B8
100
AcDbEntity
  8
0
 48
50.0
100
AcDbBlockEnd
  0
BLOCK
  5
181D2
330
181C6
100
AcDbEntity
  8
0
 48
50.0
100
AcDbBlockBegin
  2
*D28
 70
     1
 10
0.0
 20
0.0
 30
0.0
  3
*D28
  1

  0
LINE
  5
18623
330
181C6
100
AcDbEntity
  8
寸法
 62
     0
 48
50.0
370
    -2
100
AcDbLine
 10
11542.71714596023
 20
4906.644648948028
 30
0.0
 11
11542.71714596023
 21
5345.737818287499
 31
0.0
  0
LINE
  5
18624
330
181C6
100
AcDbEntity
  8
寸法
 62
     0
 48
50.0
370
    -2
100
AcDbLine
 10
11492.71714596022
 20
4906.644648948031
 30
0.0
 11
11492.71714596022
 21
5345.737818287499
 31
0.0
  0
LINE
  5
18625
330
181C6
100
AcDbEntity
  8
寸法
 62
     0
 48
50.0
370
    -2
100
AcDbLine
 10
11492.71714596022
 20
5285.737818287499
 30
0.0
 11
11392.71714596022
 21
5285.737818287499
 31
0.0
  0
LINE
  5
18626
330
181C6
100
AcDbEntity
  8
寸法
 62
     0
 48
50.0
370
    -2
100
AcDbLine
 10
11542.71714596023
 20
5285.737818287499
 30
0.0
 11
11962.24967142895
 21
5285.737818287499
 31
0.0
  0
LINE
  5
18627
330
181C6
100
AcDbEntity
  8
寸法
 62
     0
 48
50.0
370
    -2
100
AcDbLine
 10
11492.71714596022
 20
5285.737818287499
 30
0.0
 11
11542.71714596023
 21
5285.737818287499
 31
0.0
  0
INSERT
  5
18628
330
181C6
100
AcDbEntity
  8
寸法
 62
     0
 48
50.0
370
    -2
100
AcDbBlockReference
  2
_DOTSMALL
 10
11492.71714596022
 20
5285.737818287499
 30
0.0
 41
100.0
 42
100.0
 43
100.0
  0
INSERT
  5
18629
330
181C6
100
AcDbEntity
  8
寸法
 62
     0
 48
50.0
370
    -2
100
AcDbBlockReference
  2
_DOTSMALL
 10
11542.71714596023
 20
5285.737818287499
 30
0.0
 41
100.0
 42
100.0
 43
100.0
 50
180.0
  0
MTEXT
  5
1862A
330
181C6
100
AcDbEntity
  8
寸法
 62
     7
 48
50.0
100
AcDbMText
 10
11856.20242733446
 20
5385.737818287498
 30
0.0
 40
120.0
 41
0.0
 71
     5
 72
     1
  1
\A1;50
  7
STYLE1
 73
     1
 44
1.0
1001
ACAD
1000
MTEXTBEGIN
1070
    73
1070
     1
1070
    44
1040
1.0
1070
    74
1070
     0
1000
MTEXTEND
  0
POINT
  5
1862B
330
181C6
100
AcDbEntity
  8
DEFPOINTS
 62
     0
 48
50.0
100
AcDbPoint
 10
11542.71714596023
 20
4886.644648948029
 30
0.0
  0
POINT
  5
1862C
330
181C6
100
AcDbEntity
  8
DEFPOINTS
 62
     0
 48
50.0
100
AcDbPoint
 10
11492.71714596022
 20
4886.644648948031
 30
0.0
  0
POINT
  5
1862D
330
181C6
100
AcDbEntity
  8
DEFPOINTS
 62
     0
 48
50.0
100
AcDbPoint
 10
11492.71714596022
 20
5285.737818287499
 30
0.0
  0
ENDBLK
  5
181D3
330
181C6
100
AcDbEntity
  8
0
 48
50.0
100
AcDbBlockEnd
  0
BLOCK
  5
18C69
330
18C5F
100
AcDbEntity
  8
0
 48
50.0
100
AcDbBlockBegin
  2
*D29
 70
     1
 10
0.0
 20
0.0
 30
0.0
  3
*D29
  1

  0
LINE
  5
18D24
330
18C5F
100
AcDbEntity
  8
寸法
 62
     0
 48
50.0
370
    -2
100
AcDbLine
 10
8542.71714596023
 20
2191.644648948026
 30
0.0
 11
8542.71714596023
 21
1865.597319647648
 31
0.0
  0
LINE
  5
18D25
330
18C5F
100
AcDbEntity
  8
寸法
 62
     0
 48
50.0
370
    -2
100
AcDbLine
 10
8342.717145960229
 20
2191.644648948026
 30
0.0
 11
8342.717145960229
 21
1865.597319647648
 31
0.0
  0
LINE
  5
18D26
330
18C5F
100
AcDbEntity
  8
寸法
 62
     0
 48
50.0
370
    -2
100
AcDbLine
 10
8542.71714596023
 20
1925.597319647648
 30
0.0
 11
8342.717145960229
 21
1925.597319647648
 31
0.0
  0
INSERT
  5
18D27
330
18C5F
100
AcDbEntity
  8
寸法
 62
     0
 48
50.0
370
    -2
100
AcDbBlockReference
  2
_DOTSMALL
 10
8542.71714596023
 20
1925.597319647648
 30
0.0
 41
100.0
 42
100.0
 43
100.0
  0
INSERT
  5
18D28
330
18C5F
100
AcDbEntity
  8
寸法
 62
     0
 48
50.0
370
    -2
100
AcDbBlockReference
  2
_DOTSMALL
 10
8342.717145960229
 20
1925.597319647648
 30
0.0
 41
100.0
 42
100.0
 43
100.0
 50
180.0
  0
MTEXT
  5
18D29
330
18C5F
100
AcDbEntity
  8
寸法
 62
     7
 48
50.0
100
AcDbMText
 10
8442.717145960228
 20
2025.60913067127
 30
0.0
 40
120.0
 41
0.0
 71
     5
 72
     1
  1
\A1;200
  7
STYLE1
 73
     1
 44
1.0
1001
ACAD
1000
MTEXTBEGIN
1070
    73
1070
     1
1070
    44
1040
1.0
1070
    74
1070
     0
1000
MTEXTEND
  0
POINT
  5
18D2A
330
18C5F
100
AcDbEntity
  8
DEFPOINTS
 62
     0
 48
50.0
100
AcDbPoint
 10
8542.71714596023
 20
2211.644648948026
 30
0.0
  0
POINT
  5
18D2B
330
18C5F
100
AcDbEntity
  8
DEFPOINTS
 62
     0
 48
50.0
100
AcDbPoint
 10
8342.717145960229
 20
2211.644648948026
 30
0.0
  0
POINT
  5
18D2C
330
18C5F
100
AcDbEntity
  8
DEFPOINTS
 62
     0
 48
50.0
100
AcDbPoint
 10
8342.717145960229
 20
1925.597319647648
 30
0.0
  0
ENDBLK
  5
18C6A
330
18C5F
100
AcDbEntity
  8
0
 48
50.0
100
AcDbBlockEnd
  0
BLOCK
  5
18EDE
330
18ED4
100
AcDbEntity
  8
0
 48
50.0
100
AcDbBlockBegin
  2
*D30
 70
     1
 10
0.0
 20
0.0
 30
0.0
  3
*D30
  1

  0
LINE
  5
1938D
330
18ED4
100
AcDbEntity
  8
寸法
 62
     0
 48
50.0
370
    -2
100
AcDbLine
 10
8929.717145960207
 20
7814.515860842584
 30
0.0
 11
8929.717145960207
 21
7156.681146384784
 31
0.0
  0
LINE
  5
1938E
330
18ED4
100
AcDbEntity
  8
寸法
 62
     0
 48
50.0
370
    -2
100
AcDbLine
 10
10195.71714596021
 20
7814.515860842584
 30
0.0
 11
10195.71714596021
 21
7156.681146384784
 31
0.0
  0
LINE
  5
1938F
330
18ED4
100
AcDbEntity
  8
寸法
 62
     0
 48
50.0
370
    -2
100
AcDbLine
 10
8949.717145960207
 20
7196.681146384785
 30
0.0
 11
10175.71714596021
 21
7196.681146384785
 31
0.0
  0
INSERT
  5
19390
330
18ED4
100
AcDbEntity
  8
寸法
 62
     0
 48
50.0
370
    -2
100
AcDbBlockReference
  2
_DOT
 10
8929.717145960207
 20
7196.681146384785
 30
0.0
 41
20.0
 42
20.0
 43
20.0
 50
180.0
  0
INSERT
  5
19391
330
18ED4
100
AcDbEntity
  8
寸法
 62
     0
 48
50.0
370
    -2
100
AcDbBlockReference
  2
_DOT
 10
10195.71714596021
 20
7196.681146384785
 30
0.0
 41
20.0
 42
20.0
 43
20.0
  0
MTEXT
  5
19392
330
18ED4
100
AcDbEntity
  8
寸法
 62
     7
 48
50.0
100
AcDbMText
 10
9567.931294128895
 20
7388.692957408406
 30
0.0
 40
120.0
 41
0.0
 71
     5
 72
     1
  1
\A1;有効開口部間口\P1266
  7
STYLE1
 73
     1
 44
1.0
1001
ACAD
1000
MTEXTBEGIN
1070
    73
1070
     1
1070
    44
1040
1.0
1070
    74
1070
     0
1000
MTEXTEND
  0
POINT
  5
19393
330
18ED4
100
AcDbEntity
  8
DEFPOINTS
 62
     0
 48
50.0
100
AcDbPoint
 10
8929.717145960207
 20
7834.515860842585
 30
0.0
  0
POINT
  5
19394
330
18ED4
100
AcDbEntity
  8
DEFPOINTS
 62
     0
 48
50.0
100
AcDbPoint
 10
10195.71714596021
 20
7834.515860842585
 30
0.0
  0
POINT
  5
19395
330
18ED4
100
AcDbEntity
  8
DEFPOINTS
 62
     0
 48
50.0
100
AcDbPoint
 10
10195.71714596021
 20
7196.681146384785
 30
0.0
  0
ENDBLK
  5
18EDF
330
18ED4
100
AcDbEntity
  8
0
 48
50.0
100
AcDbBlockEnd
  0
BLOCK
  5
19223
330
19219
100
AcDbEntity
  8
0
 48
50.0
100
AcDbBlockBegin
  2
*D31
 70
     1
 10
0.0
 20
0.0
 30
0.0
  3
*D31
  1

  0
LINE
  5
19384
330
19219
100
AcDbEntity
  8
寸法
 62
     0
 48
50.0
370
    -2
100
AcDbLine
 10
8890.717145960207
 20
7816.515860842547
 30
0.0
 11
8890.717145960207
 21
6814.172056603354
 31
0.0
  0
LINE
  5
19385
330
19219
100
AcDbEntity
  8
寸法
 62
     0
 48
50.0
370
    -2
100
AcDbLine
 10
11044.71714596021
 20
7816.515860842547
 30
0.0
 11
11044.71714596021
 21
6814.172056603354
 31
0.0
  0
LINE
  5
19386
330
19219
100
AcDbEntity
  8
寸法
 62
     0
 48
50.0
370
    -2
100
AcDbLine
 10
8890.717145960207
 20
6874.172056603353
 30
0.0
 11
11044.71714596021
 21
6874.172056603353
 31
0.0
  0
INSERT
  5
19387
330
19219
100
AcDbEntity
  8
寸法
 62
     0
 48
50.0
370
    -2
100
AcDbBlockReference
  2
_DOTSMALL
 10
8890.717145960207
 20
6874.172056603353
 30
0.0
 41
100.0
 42
100.0
 43
100.0
 50
180.0
  0
INSERT
  5
19388
330
19219
100
AcDbEntity
  8
寸法
 62
     0
 48
50.0
370
    -2
100
AcDbBlockReference
  2
_DOTSMALL
 10
11044.71714596021
 20
6874.172056603353
 30
0.0
 41
100.0
 42
100.0
 43
100.0
  0
MTEXT
  5
19389
330
19219
100
AcDbEntity
  8
寸法
 62
     7
 48
50.0
100
AcDbMText
 10
9945.853892156673
 20
6974.183867626975
 30
0.0
 40
120.0
 41
0.0
 71
     5
 72
     1
  1
\A1;2154
  7
STYLE1
 73
     1
 44
1.0
1001
ACAD
1000
MTEXTBEGIN
1070
    73
1070
     1
1070
    44
1040
1.0
1070
    74
1070
     0
1000
MTEXTEND
  0
POINT
  5
1938A
330
19219
100
AcDbEntity
  8
DEFPOINTS
 62
     0
 48
50.0
100
AcDbPoint
 10
8890.717145960207
 20
7836.515860842547
 30
0.0
  0
POINT
  5
1938B
330
19219
100
AcDbEntity
  8
DEFPOINTS
 62
     0
 48
50.0
100
AcDbPoint
 10
11044.71714596021
 20
7836.515860842547
 30
0.0
  0
POINT
  5
1938C
330
19219
100
AcDbEntity
  8
DEFPOINTS
 62
     0
 48
50.0
100
AcDbPoint
 10
11044.71714596021
 20
6874.172056603353
 30
0.0
  0
ENDBLK
  5
19224
330
19219
100
AcDbEntity
  8
0
 48
50.0
100
AcDbBlockEnd
  0
BLOCK
  5
19231
330
19225
100
AcDbEntity
  8
0
 48
50.0
100
AcDbBlockBegin
  2
*D32
 70
     1
 10
0.0
 20
0.0
 30
0.0
  3
*D32
  1

  0
LINE
  5
19379
330
19225
100
AcDbEntity
  8
寸法
 62
     0
 48
50.0
370
    -2
100
AcDbLine
 10
8422.717145960232
 20
7911.515860842547
 30
0.0
 11
8108.105900333516
 21
7911.515860842547
 31
0.0
  0
LINE
  5
1937A
330
19225
100
AcDbEntity
  8
寸法
 62
     0
 48
50.0
370
    -2
100
AcDbLine
 10
8870.717145960206
 20
7836.515860842547
 30
0.0
 11
8108.105900333516
 21
7836.515860842547
 31
0.0
  0
LINE
  5
1937B
330
19225
100
AcDbEntity
  8
寸法
 62
     0
 48
50.0
370
    -2
100
AcDbLine
 10
8148.105900333515
 20
7931.515860842548
 30
0.0
 11
8148.105900333515
 21
7951.515860842548
 31
0.0
  0
LINE
  5
1937C
330
19225
100
AcDbEntity
  8
寸法
 62
     0
 48
50.0
370
    -2
100
AcDbLine
 10
8148.105900333515
 20
7816.515860842547
 30
0.0
 11
8148.105900333515
 21
7595.545298094069
 31
0.0
  0
LINE
  5
1937D
330
19225
100
AcDbEntity
  8
寸法
 62
     0
 48
50.0
370
    -2
100
AcDbLine
 10
8148.105900333515
 20
7911.515860842547
 30
0.0
 11
8148.105900333515
 21
7836.515860842547
 31
0.0
  0
INSERT
  5
1937E
330
19225
100
AcDbEntity
  8
寸法
 62
     0
 48
50.0
370
    -2
100
AcDbBlockReference
  2
_DOT
 10
8148.105900333515
 20
7911.515860842547
 30
0.0
 41
20.0
 42
20.0
 43
20.0
 50
270.0
  0
INSERT
  5
1937F
330
19225
100
AcDbEntity
  8
寸法
 62
     0
 48
50.0
370
    -2
100
AcDbBlockReference
  2
_DOT
 10
8148.105900333515
 20
7836.515860842547
 30
0.0
 41
20.0
 42
20.0
 43
20.0
 50
90.0
  0
MTEXT
  5
19380
330
19225
100
AcDbEntity
  8
寸法
 62
     7
 48
50.0
100
AcDbMText
 10
8056.105900333514
 20
7696.03057946831
 30
0.0
 40
120.0
 41
0.0
 71
     5
 72
     1
  1
\A1;75
  7
STYLE1
 11
0.0000000000000001
 21
1.0
 31
0.0
 73
     1
 44
1.0
1001
ACAD
1000
MTEXTBEGIN
1070
    73
1070
     1
1070
    44
1040
1.0
1070
    74
1070
     0
1000
MTEXTEND
  0
POINT
  5
19381
330
19225
100
AcDbEntity
  8
DEFPOINTS
 62
     0
 48
50.0
100
AcDbPoint
 10
8442.717145960232
 20
7911.515860842547
 30
0.0
  0
POINT
  5
19382
330
19225
100
AcDbEntity
  8
DEFPOINTS
 62
     0
 48
50.0
100
AcDbPoint
 10
8890.717145960207
 20
7836.515860842547
 30
0.0
  0
POINT
  5
19383
330
19225
100
AcDbEntity
  8
DEFPOINTS
 62
     0
 48
50.0
100
AcDbPoint
 10
8148.105900333515
 20
7836.515860842547
 30
0.0
  0
ENDBLK
  5
19232
330
19225
100
AcDbEntity
  8
0
 48
50.0
100
AcDbBlockEnd
  0
BLOCK
  5
192B1
330
192A7
100
AcDbEntity
  8
0
 48
50.0
100
AcDbBlockBegin
  2
*D33
 70
     1
 10
0.0
 20
0.0
 30
0.0
  3
*D33
  1

  0
LINE
  5
19370
330
192A7
100
AcDbEntity
  8
寸法
 62
     0
 48
50.0
370
    -2
100
AcDbLine
 10
8442.717145960232
 20
7891.515860842551
 30
0.0
 11
8442.717145960232
 21
6556.058944480092
 31
0.0
  0
LINE
  5
19371
330
192A7
100
AcDbEntity
  8
寸法
 62
     0
 48
50.0
370
    -2
100
AcDbLine
 10
11492.71714596021
 20
7891.515860842715
 30
0.0
 11
11492.71714596021
 21
6556.058944480092
 31
0.0
  0
LINE
  5
19372
330
192A7
100
AcDbEntity
  8
寸法
 62
     0
 48
50.0
370
    -2
100
AcDbLine
 10
8442.717145960232
 20
6616.058944480093
 30
0.0
 11
11492.71714596021
 21
6616.058944480093
 31
0.0
  0
INSERT
  5
19373
330
192A7
100
AcDbEntity
  8
寸法
 62
     0
 48
50.0
370
    -2
100
AcDbBlockReference
  2
_DOTSMALL
 10
8442.717145960232
 20
6616.058944480093
 30
0.0
 41
100.0
 42
100.0
 43
100.0
 50
180.0
  0
INSERT
  5
19374
330
192A7
100
AcDbEntity
  8
寸法
 62
     0
 48
50.0
370
    -2
100
AcDbBlockReference
  2
_DOTSMALL
 10
11492.71714596021
 20
6616.058944480093
 30
0.0
 41
100.0
 42
100.0
 43
100.0
  0
MTEXT
  5
19375
330
192A7
100
AcDbEntity
  8
寸法
 62
     7
 48
50.0
100
AcDbMText
 10
9941.66281505768
 20
6716.058944480093
 30
0.0
 40
120.0
 41
0.0
 71
     5
 72
     1
  1
\A1;3050
  7
STYLE1
 73
     1
 44
1.0
1001
ACAD
1000
MTEXTBEGIN
1070
    73
1070
     1
1070
    44
1040
1.0
1070
    74
1070
     0
1000
MTEXTEND
  0
POINT
  5
19376
330
192A7
100
AcDbEntity
  8
DEFPOINTS
 62
     0
 48
50.0
100
AcDbPoint
 10
8442.717145960232
 20
7911.515860842552
 30
0.0
  0
POINT
  5
19377
330
192A7
100
AcDbEntity
  8
DEFPOINTS
 62
     0
 48
50.0
100
AcDbPoint
 10
11492.71714596021
 20
7911.515860842715
 30
0.0
  0
POINT
  5
19378
330
192A7
100
AcDbEntity
  8
DEFPOINTS
 62
     0
 48
50.0
100
AcDbPoint
 10
11492.71714596021
 20
6616.058944480093
 30
0.0
  0
ENDBLK
  5
192B2
330
192A7
100
AcDbEntity
  8
0
 48
50.0
100
AcDbBlockEnd
  0
BLOCK
  5
1942F
330
19402
100
AcDbEntity
  8
0
 48
50.0
100
AcDbBlockBegin
  2
A$C62984893
 70
     0
 10
0.0
 20
0.0
 30
0.0
  3
A$C62984893
  1

  0
LWPOLYLINE
  5
19403
330
19402
100
AcDbEntity
  8
部品1
 48
50.0
100
AcDbPolyline
 90
        4
 70
     1
 43
0.0
 10
-1.450000000000727
 20
-85.25
 10
1.450000000000727
 20
-85.25
 10
1.450000000000727
 20
-75.75
 10
-1.450000000000727
 20
-75.75
  0
CIRCLE
  5
19404
330
19402
100
AcDbEntity
  8
部品1
 48
50.0
100
AcDbCircle
 10
0.0
 20
-80.5
 30
0.0
 40
9.0
  0
ARC
  5
19405
330
19402
100
AcDbEntity
  8
細線
 48
50.0
100
AcDbCircle
 10
0.0
 20
-80.5
 30
0.0
 40
4.0
100
AcDbArc
 50
111.2538091853321
 51
248.7461908146679
  0
ARC
  5
19406
330
19402
100
AcDbEntity
  8
細線
 48
50.0
100
AcDbCircle
 10
0.0
 20
-80.5
 30
0.0
 40
17.5
100
AcDbArc
 50
306.4837370612677
 51
233.5162629387323
  0
LINE
  5
19407
330
19402
100
AcDbEntity
  8
細線
 48
50.0
100
AcDbLine
 10
9.999999999996362
 20
-104.3589605808829
 30
0.0
 11
10.0
 21
-95.37447478064132
 31
0.0
  0
LINE
  5
19408
330
19402
100
AcDbEntity
  8
細線
 48
50.0
100
AcDbLine
 10
-10.0
 20
-104.3589605808811
 30
0.0
 11
-10.0
 21
-95.37447478064496
 31
0.0
  0
ARC
  5
19409
330
19402
100
AcDbEntity
  8
細線
 48
50.0
100
AcDbCircle
 10
0.0
 20
-80.5
 30
0.0
 40
26.5
100
AcDbArc
 50
249.3326835063846
 51
290.6673164933835
  0
ARC
  5
1940A
330
19402
100
AcDbEntity
  8
細線
 48
50.0
100
AcDbCircle
 10
8.999999999992724
 20
-104.3589605808829
 30
0.0
 40
1.0
100
AcDbArc
 50
290.6673164936154
 51
359.9999999998958
  0
ARC
  5
1940B
330
19402
100
AcDbEntity
  8
細線
 48
50.0
100
AcDbCircle
 10
-9.0
 20
-104.3589605808811
 30
0.0
 40
1.0
100
AcDbArc
 50
180.0
 51
249.3326835066164
  0
ARC
  5
1940C
330
19402
100
AcDbEntity
  8
細線
 48
50.0
100
AcDbCircle
 10
-11.0
 20
-95.37447478064496
 30
0.0
 40
1.0
100
AcDbArc
 50
0.0
 51
53.51626293873231
  0
ARC
  5
1940D
330
19402
100
AcDbEntity
  8
細線
 48
50.0
100
AcDbCircle
 10
11.00000000000364
 20
-95.37447478064132
 30
0.0
 40
1.0
100
AcDbArc
 50
126.4837370614972
 51
180.0
  0
ARC
  5
1940E
330
19402
100
AcDbEntity
  8
細線
 48
50.0
100
AcDbCircle
 10
0.0
 20
-80.5
 30
0.0
 40
21.5
100
AcDbArc
 50
255.8014401250294
 51
284.1985598749706
  0
ARC
  5
1940F
330
19402
100
AcDbEntity
  8
細線
 48
50.0
100
AcDbCircle
 10
0.0
 20
-80.5
 30
0.0
 40
16.5
100
AcDbArc
 50
251.9694646069326
 51
288.0305353930674
  0
LINE
  5
19410
330
19402
100
AcDbEntity
  8
細線
 48
50.0
100
AcDbLine
 10
5.5
 20
-101.0523721258068
 30
0.0
 11
5.5
 21
-96.47498043847008
 31
0.0
  0
LINE
  5
19411
330
19402
100
AcDbEntity
  8
細線
 48
50.0
100
AcDbLine
 10
-5.5
 20
-101.0523721258068
 30
0.0
 11
-5.5
 21
-96.47498043847191
 31
0.0
  0
ARC
  5
19412
330
19402
100
AcDbEntity
  8
細線
 48
50.0
100
AcDbCircle
 10
-5.199999999997089
 20
-96.47498043847191
 30
0.0
 40
0.3
100
AcDbArc
 50
71.96946460693259
 51
180.0
  0
ARC
  5
19413
330
19402
100
AcDbEntity
  8
細線
 48
50.0
100
AcDbCircle
 10
5.200000000000727
 20
-96.47498043847008
 30
0.0
 40
0.3
100
AcDbArc
 50
0.0
 51
108.0305353930674
  0
ARC
  5
19414
330
19402
100
AcDbEntity
  8
細線
 48
50.0
100
AcDbCircle
 10
5.199999999997089
 20
-101.0523721258068
 30
0.0
 40
0.3
100
AcDbArc
 50
284.1985598747685
 51
0.0000000001042204
  0
ARC
  5
19415
330
19402
100
AcDbEntity
  8
細線
 48
50.0
100
AcDbCircle
 10
-5.199999999997089
 20
-101.0523721258068
 30
0.0
 40
0.3
100
AcDbArc
 50
180.0
 51
255.8014401248017
  0
CIRCLE
  5
19416
330
19402
100
AcDbEntity
  8
細線
 48
50.0
100
AcDbCircle
 10
0.0
 20
-80.5
 30
0.0
 40
12.0
  0
ARC
  5
19417
330
19402
100
AcDbEntity
  8
部品1
 48
50.0
100
AcDbCircle
 10
0.0
 20
-30.5
 30
0.0
 40
8.5
100
AcDbArc
 50
114.315739171091
 51
245.684260828909
  0
CIRCLE
  5
19418
330
19402
100
AcDbEntity
  8
細線
 48
50.0
100
AcDbCircle
 10
0.0
 20
-30.5
 30
0.0
 40
4.5
  0
LWPOLYLINE
  5
19419
330
19402
100
AcDbEntity
  8
部品1
 48
50.0
100
AcDbPolyline
 90
        2
 70
     0
 43
0.0
 10
-3.5
 20
-11.82515060301739
 10
-3.5
 20
-22.75403330758491
  0
CIRCLE
  5
1941A
330
19402
100
AcDbEntity
  8
部品1
 48
50.0
100
AcDbCircle
 10
0.0
 20
-30.5
 30
0.0
 40
19.0
  0
LWPOLYLINE
  5
1941B
330
19402
100
AcDbEntity
  8
部品1
 48
50.0
100
AcDbPolyline
 90
        2
 70
     0
 43
0.0
 10
-3.5
 20
-38.2459666924151
 10
-3.5
 20
-49.17484939698261
  0
LWPOLYLINE
  5
1941C
330
19402
100
AcDbEntity
  8
部品1
 48
50.0
100
AcDbPolyline
 90
        2
 70
     0
 43
0.0
 10
3.5
 20
-22.75403330758491
 10
3.5
 20
-11.82515060301739
  0
ARC
  5
1941D
330
19402
100
AcDbEntity
  8
部品1
 48
50.0
100
AcDbCircle
 10
0.0
 20
-30.5
 30
0.0
 40
8.5
100
AcDbArc
 50
294.315739171091
 51
65.68426082890896
  0
LWPOLYLINE
  5
1941E
330
19402
100
AcDbEntity
  8
部品1
 48
50.0
100
AcDbPolyline
 90
        2
 70
     0
 43
0.0
 10
3.5
 20
-49.17484939698261
 10
3.5
 20
-38.2459666924151
  0
ARC
  5
1941F
330
19402
100
AcDbEntity
  8
細線
 48
50.0
100
AcDbCircle
 10
0.0
 20
-30.5
 30
0.0
 40
16.5
100
AcDbArc
 50
332.0012352654438
 51
27.99876473455621
  0
ARC
  5
19420
330
19402
100
AcDbEntity
  8
細線
 48
50.0
100
AcDbCircle
 10
0.0
 20
-30.5
 30
0.0
 40
14.0
100
AcDbArc
 50
326.407443611277
 51
33.59255638872305
  0
LINE
  5
19421
330
19402
100
AcDbEntity
  8
細線
 48
50.0
100
AcDbLine
 10
-14.56880228433147
 20
-22.75403330758491
 30
0.0
 11
-11.66190378968895
 21
-22.75403330758491
 31
0.0
  0
LINE
  5
19422
330
19402
100
AcDbEntity
  8
細線
 48
50.0
100
AcDbLine
 10
-14.56880228433147
 20
-38.2459666924151
 30
0.0
 11
-11.66190378968895
 21
-38.2459666924151
 31
0.0
  0
LINE
  5
19423
330
19402
100
AcDbEntity
  8
細線
 48
50.0
100
AcDbLine
 10
11.66190378968895
 20
-22.75403330758491
 30
0.0
 11
14.5688022843351
 21
-22.75403330758491
 31
0.0
  0
LINE
  5
19424
330
19402
100
AcDbEntity
  8
細線
 48
50.0
100
AcDbLine
 10
11.66190378968895
 20
-38.2459666924151
 30
0.0
 11
14.5688022843351
 21
-38.2459666924151
 31
0.0
  0
ARC
  5
19425
330
19402
100
AcDbEntity
  8
細線
 48
50.0
100
AcDbCircle
 10
0.0
 20
-30.5
 30
0.0
 40
14.0
100
AcDbArc
 50
146.4074436112769
 51
213.592556388723
  0
ARC
  5
19426
330
19402
100
AcDbEntity
  8
細線
 48
50.0
100
AcDbCircle
 10
0.0
 20
-30.5
 30
0.0
 40
16.5
100
AcDbArc
 50
152.0012352654438
 51
207.9987647345562
  0
ARC
  5
19427
330
19402
100
AcDbEntity
  8
部品1
 48
50.0
100
AcDbCircle
 10
-26.5
 20
-5.0
 30
0.0
 40
5.0
100
AcDbArc
 50
90.0
 51
180.0
  0
ARC
  5
19428
330
19402
100
AcDbEntity
  8
部品1
 48
50.0
100
AcDbCircle
 10
-26.5
 20
-116.0
 30
0.0
 40
5.0
100
AcDbArc
 50
180.0
 51
270.0
  0
ARC
  5
19429
330
19402
100
AcDbEntity
  8
部品1
 48
50.0
100
AcDbCircle
 10
26.5
 20
-116.0
 30
0.0
 40
5.0
100
AcDbArc
 50
270.0
 51
0.0
  0
ARC
  5
1942A
330
19402
100
AcDbEntity
  8
部品1
 48
50.0
100
AcDbCircle
 10
26.5
 20
-5.0
 30
0.0
 40
5.0
100
AcDbArc
 50
0.0
 51
90.0
  0
LINE
  5
1942B
330
19402
100
AcDbEntity
  8
部品1
 48
50.0
100
AcDbLine
 10
-26.5
 20
0.0
 30
0.0
 11
26.5
 21
0.0
 31
0.0
  0
LINE
  5
1942C
330
19402
100
AcDbEntity
  8
部品1
 48
50.0
100
AcDbLine
 10
-31.5
 20
-116.0
 30
0.0
 11
-31.5
 21
-5.0
 31
0.0
  0
LINE
  5
1942D
330
19402
100
AcDbEntity
  8
部品1
 48
50.0
100
AcDbLine
 10
26.5
 20
-121.0
 30
0.0
 11
-26.5
 21
-121.0
 31
0.0
  0
LINE
  5
1942E
330
19402
100
AcDbEntity
  8
部品1
 48
50.0
100
AcDbLine
 10
31.5
 20
-5.0
 30
0.0
 11
31.5
 21
-116.0
 31
0.0
  0
ENDBLK
  5
19430
330
19402
100
AcDbEntity
  8
0
 48
50.0
100
AcDbBlockEnd
  0
ENDSEC
  0
SECTION
  2
ENTITIES
  0
LINE
  5
10B57
330
747D
100
AcDbEntity
  8
補助
  6
PHANTOM
 62
   230
 48
50.0
100
AcDbLine
 10
139.9999999999995
 20
11409.6
 30
0.0
 11
16307.2
 21
11409.6
 31
0.0
  0
LINE
  5
10B59
330
747D
100
AcDbEntity
  8
仕様書枠
  6
Continuous
 48
50.0
100
AcDbLine
 10
13107.2
 20
1200.0
 30
0.0
 11
13107.2
 21
-0.0000000000000729
 31
0.0
  0
LINE
  5
10B5C
330
747D
100
AcDbEntity
  8
仕様書枠
 48
50.0
100
AcDbLine
 10
16307.2
 20
1200.0
 30
0.0
 11
16307.2
 21
-0.0000000000000909
 31
0.0
  0
LINE
  5
10B5D
330
747D
100
AcDbEntity
  8
仕様書枠
 48
50.0
100
AcDbLine
 10
140.0
 20
0.0
 30
0.0
 11
16307.2
 21
-0.0000000000000909
 31
0.0
  0
LINE
  5
10B5E
330
747D
100
AcDbEntity
  8
補助
  6
PHANTOM
 62
   230
 48
50.0
100
AcDbLine
 10
16307.2
 20
11409.6
 30
0.0
 11
16307.2
 21
1200.0
 31
0.0
  0
LINE
  5
10B6C
330
747D
100
AcDbEntity
  8
仕様書枠
 48
50.0
100
AcDbLine
 10
13107.2
 20
1200.0
 30
0.0
 11
16307.2
 21
1200.0
 31
0.0
  0
LINE
  5
10B6D
330
747D
100
AcDbEntity
  8
補助
  6
PHANTOM
 62
   230
 48
50.0
100
AcDbLine
 10
13107.2
 20
11409.6
 30
0.0
 11
13107.2
 21
4800.0
 31
0.0
  0
LINE
  5
10B6F
330
747D
100
AcDbEntity
  8
補助
  6
PHANTOM
 62
   230
 48
50.0
100
AcDbLine
 10
13107.2
 20
4800.0
 30
0.0
 11
16307.2
 21
4800.0
 31
0.0
  0
LINE
  5
10B72
330
747D
100
AcDbEntity
  8
文字
 62
     7
 48
50.0
100
AcDbLine
 10
13187.2
 20
400.0
 30
0.0
 11
16227.2
 21
400.0
 31
0.0
  0
TEXT
  5
10B73
330
747D
100
AcDbEntity
  8
文字
 62
     7
 48
50.0
100
AcDbText
 10
13162.9790565769
 20
895.0906074299405
 30
0.0
 40
200.0
  1
外 形 図
  7
STYLE2
100
AcDbText
  0
TEXT
  5
10B74
330
747D
100
AcDbEntity
  8
文字
 62
     7
 48
50.0
100
AcDbText
 10
13201.43669998441
 20
477.2740661031255
 30
0.0
 40
160.0
  1
機種名
  7
STYLE2
100
AcDbText
  0
TEXT
  5
10B76
330
747D
100
AcDbEntity
  8
文字
 62
     7
 48
50.0
100
AcDbText
 10
13209.4053442172
 20
76.09434707649343
 30
0.0
 40
100.0
  1
○床面積 ： 5.63㎡(1.70坪) 　
  7
STYLE2
100
AcDbText
  0
TEXT
  5
10B79
330
747D
100
AcDbEntity
  8
文字
 62
     7
 48
50.0
100
AcDbText
 10
14524.131837222
 20
1031.557706291228
 30
0.0
 40
100.0
  1
NO.28      <縮尺> S=1/40
  7
STYLE2
100
AcDbText
  0
LINE
  5
10B7B
330
747D
100
AcDbEntity
  8
仕様書枠
 48
50.0
100
AcDbLine
 10
13107.2
 20
800.0
 30
0.0
 11
14251.2
 21
800.0
 31
0.0
  0
LINE
  5
10B88
330
747D
100
AcDbEntity
  8
仕様書枠
  6
Continuous
 48
50.0
100
AcDbLine
 10
14251.2
 20
1200.0
 30
0.0
 11
14251.2
 21
800.0
 31
0.0
  0
TEXT
  5
154D3
330
747D
100
AcDbEntity
  8
文字
 62
     7
 48
50.0
100
AcDbText
 10
14643.63059855437
 20
863.0097378581719
 30
0.0
 40
100.0
  1
～一般型・多雪地型～
  7
STYLE2
100
AcDbText
  0
LINE
  5
17D19
330
747D
100
AcDbEntity
  8
部品1
100
AcDbLine
 10
11464.71714596024
 20
8386.515860842726
 30
0.0
 11
11492.71714596024
 21
8386.515860842726
 31
0.0
  0
LINE
  5
17D1A
330
747D
100
AcDbEntity
  8
部品1
100
AcDbLine
 10
8470.717145960213
 20
8386.515860842598
 30
0.0
 11
8442.717145960212
 21
8386.515860842598
 31
0.0
  0
LINE
  5
17D1B
330
747D
100
AcDbEntity
  8
部品1
100
AcDbLine
 10
11436.21714596022
 20
8386.515860842697
 30
0.0
 11
8499.217145960223
 21
8386.515860842598
 31
0.0
  0
LINE
  5
17D1C
330
747D
100
AcDbEntity
  8
部品1
100
AcDbLine
 10
4726.256799862691
 20
2511.644648948026
 30
0.0
 11
4726.256799862691
 21
2411.644648948026
 31
0.0
  0
LINE
  5
17D1D
330
747D
100
AcDbEntity
  8
部品1
 48
50.0
100
AcDbLine
 10
5321.256799862691
 20
2511.644648948026
 30
0.0
 11
5321.256799862691
 21
2411.644648948026
 31
0.0
  0
LINE
  5
17D1E
330
747D
100
AcDbEntity
  8
部品1
 48
50.0
100
AcDbLine
 10
5521.25679986269
 20
2511.644648948026
 30
0.0
 11
5521.25679986269
 21
2411.644648948026
 31
0.0
  0
LINE
  5
17D1F
330
747D
100
AcDbEntity
  8
部品1
100
AcDbLine
 10
6116.256799862691
 20
2511.644648948026
 30
0.0
 11
6116.256799862691
 21
2411.644648948026
 31
0.0
  0
LINE
  5
17D20
330
747D
100
AcDbEntity
  8
部品1
 48
50.0
100
AcDbLine
 10
6393.256799862695
 20
2511.644648948026
 30
0.0
 11
6308.756799862694
 21
2511.644648948026
 31
0.0
  0
LINE
  5
17D21
330
747D
100
AcDbEntity
  8
部品1
 48
50.0
100
AcDbLine
 10
6393.256799862695
 20
4636.644648948026
 30
0.0
 11
6393.256799862695
 21
2411.644648948026
 31
0.0
  0
LINE
  5
17D22
330
747D
100
AcDbEntity
  8
部品1
 48
50.0
100
AcDbLine
 10
6316.256799862695
 20
4646.644648948026
 30
0.0
 11
6393.256799862695
 21
4636.644648948026
 31
0.0
  0
LINE
  5
17D23
330
747D
100
AcDbEntity
  8
破線
 48
5.0
100
AcDbLine
 10
6188.756799862698
 20
2411.644648948026
 30
0.0
 11
6188.756799862698
 21
2211.644648948026
 31
0.0
  0
LINE
  5
17D24
330
747D
100
AcDbEntity
  8
破線
 48
5.0
100
AcDbLine
 10
6388.756799862695
 20
2211.644648948024
 30
0.0
 11
6188.756799862698
 21
2211.644648948026
 31
0.0
  0
LINE
  5
17D25
330
747D
100
AcDbEntity
  8
破線
 48
5.0
100
AcDbLine
 10
6388.756799862698
 20
2411.644648948026
 30
0.0
 11
6388.756799862695
 21
2211.644648948024
 31
0.0
  0
DIMENSION
  5
17D26
330
747D
100
AcDbEntity
  8
寸法
 48
50.0
100
AcDbDimension
  2
*D2
 10
4453.756799862694
 20
1925.597319647648
 30
0.0
 11
4553.756799862692
 21
1925.597319647648
 31
0.0
 70
   160
 71
     5
 42
199.9999999999963
  3
INABA_S40G
100
AcDbAlignedDimension
 13
4653.756799862691
 23
2211.644648948022
 33
0.0
 14
4453.756799862694
 24
2211.644648948026
 34
0.0
100
AcDbRotatedDimension
  0
LINE
  5
17D27
330
747D
100
AcDbEntity
  8
破線
 48
5.0
100
AcDbLine
 10
4453.756799862691
 20
2411.644648948026
 30
0.0
 11
4453.756799862694
 21
2211.644648948024
 31
0.0
  0
LINE
  5
17D28
330
747D
100
AcDbEntity
  8
破線
 48
5.0
100
AcDbLine
 10
4653.756799862691
 20
2411.644648948026
 30
0.0
 11
4653.756799862691
 21
2211.644648948024
 31
0.0
  0
LINE
  5
17D29
330
747D
100
AcDbEntity
  8
破線
 48
5.0
100
AcDbLine
 10
4653.756799862691
 20
2211.644648948024
 30
0.0
 11
4453.756799862694
 21
2211.644648948024
 31
0.0
  0
DIMENSION
  5
17D2A
330
747D
100
AcDbEntity
  8
寸法
 48
50.0
100
AcDbDimension
  2
*D3
 10
4304.256796616058
 20
2411.644648948026
 30
0.0
 11
4304.256796616057
 21
2311.644648948027
 31
0.0
 70
   160
 71
     5
 42
200.0
  3
INABA_S40G
100
AcDbAlignedDimension
 13
4453.756799862694
 23
2211.644648948026
 33
0.0
 14
4428.756799862691
 24
2411.644648948026
 34
0.0
 50
90.0
100
AcDbRotatedDimension
1001
ACAD
1000
DSTYLE
1002
{
1070
   174
1070
     0
1070
   272
1070
     1
1070
   288
1070
     0
1070
   341
1005
0
1002
}
  0
LINE
  5
17D2B
330
747D
100
AcDbEntity
  8
部品1
 48
50.0
100
AcDbLine
 10
5271.25679986269
 20
5017.512788049305
 30
0.0
 11
5571.256799862691
 21
5001.312788049305
 31
0.0
  0
DIMENSION
  5
17D2C
330
747D
100
AcDbEntity
  8
寸法
 48
50.0
100
AcDbDimension
  2
*D4
 10
3905.648393094327
 20
4760.98990782136
 30
0.0
 11
3916.313868353252
 21
5131.836571063055
 31
0.0
 70
   161
 71
     5
 42
140.9999999999973
  3
INABA_S40G
100
AcDbAlignedDimension
 13
4485.652820021271
 23
4885.367397782705
 33
0.0
 14
4481.599364464644
 24
4744.425674016994
 34
0.0
1001
ACAD
1000
DSTYLE
1002
{
1070
   174
1070
     0
1070
   272
1070
     1
1070
   288
1070
     0
1070
   341
1005
0
1002
}
  0
LINE
  5
17D2D
330
747D
100
AcDbEntity
  8
細線
 48
50.0
100
AcDbLine
 10
6183.756799862699
 20
4651.644648948026
 30
0.0
 11
6183.756799862699
 21
2561.644648948026
 31
0.0
  0
LINE
  5
17D2E
330
747D
100
AcDbEntity
  8
細線
 48
50.0
100
AcDbLine
 10
6198.756799862699
 20
4651.644648948026
 30
0.0
 11
6198.756799862699
 21
2561.644648948026
 31
0.0
  0
LINE
  5
17D2F
330
747D
100
AcDbEntity
  8
細線
 48
50.0
100
AcDbLine
 10
6058.756799862698
 20
4651.644648948026
 30
0.0
 11
6058.756799862698
 21
2561.644648948026
 31
0.0
  0
LINE
  5
17D30
330
747D
100
AcDbEntity
  8
細線
 48
50.0
100
AcDbLine
 10
6043.756799862698
 20
4651.644648948026
 30
0.0
 11
6043.756799862698
 21
2561.644648948026
 31
0.0
  0
LINE
  5
17D31
330
747D
100
AcDbEntity
  8
細線
 48
50.0
100
AcDbLine
 10
5903.756799862698
 20
4651.644648948026
 30
0.0
 11
5903.756799862698
 21
2561.644648948026
 31
0.0
  0
LINE
  5
17D32
330
747D
100
AcDbEntity
  8
細線
 48
50.0
100
AcDbLine
 10
5918.756799862698
 20
4651.644648948026
 30
0.0
 11
5918.756799862698
 21
2561.644648948026
 31
0.0
  0
LINE
  5
17D33
330
747D
100
AcDbEntity
  8
部品1
100
AcDbLine
 10
5841.256799862691
 20
4651.644648948026
 30
0.0
 11
5841.256799862691
 21
2561.644648948026
 31
0.0
  0
LINE
  5
17D34
330
747D
100
AcDbEntity
  8
細線
 48
50.0
100
AcDbLine
 10
5498.756799862695
 20
4651.644648948026
 30
0.0
 11
5498.756799862695
 21
2561.644648948026
 31
0.0
  0
LINE
  5
17D35
330
747D
100
AcDbEntity
  8
細線
 48
50.0
100
AcDbLine
 10
5483.756799862694
 20
4651.644648948026
 30
0.0
 11
5483.756799862694
 21
2561.644648948026
 31
0.0
  0
LINE
  5
17D36
330
747D
100
AcDbEntity
  8
細線
 48
50.0
100
AcDbLine
 10
5623.756799862695
 20
4651.644648948026
 30
0.0
 11
5623.756799862695
 21
2561.644648948026
 31
0.0
  0
LINE
  5
17D37
330
747D
100
AcDbEntity
  8
細線
 48
50.0
100
AcDbLine
 10
5638.756799862695
 20
4651.644648948026
 30
0.0
 11
5638.756799862695
 21
2561.644648948026
 31
0.0
  0
LINE
  5
17D38
330
747D
100
AcDbEntity
  8
細線
 48
50.0
100
AcDbLine
 10
5778.756799862694
 20
4651.644648948026
 30
0.0
 11
5778.756799862694
 21
2561.644648948026
 31
0.0
  0
LINE
  5
17D39
330
747D
100
AcDbEntity
  8
細線
 48
50.0
100
AcDbLine
 10
5763.756799862695
 20
4651.644648948026
 30
0.0
 11
5763.756799862695
 21
2561.644648948026
 31
0.0
  0
LINE
  5
17D3A
330
747D
100
AcDbEntity
  8
部品1
100
AcDbLine
 10
5421.256799862691
 20
4651.644648948026
 30
0.0
 11
5421.256799862691
 21
2561.644648948026
 31
0.0
  0
TEXT
  5
17D3B
330
747D
100
AcDbEntity
  8
部品1
 48
50.0
100
AcDbText
 10
5748.34964715055
 20
4915.895551983457
 30
0.0
 40
120.0
  1
54
 50
90.0
  7
STYLE1
100
AcDbText
  0
TEXT
  5
17D3C
330
747D
100
AcDbEntity
  8
部品1
 48
50.0
100
AcDbText
 10
5259.524635086417
 20
5053.396810201739
 30
0.0
 40
120.0
  1
1000
  7
STYLE1
100
AcDbText
  0
LINE
  5
17D3D
330
747D
100
AcDbEntity
  8
部品1
 48
50.0
100
AcDbLine
 10
5571.256799862691
 20
5017.512788049305
 30
0.0
 11
5571.256799862691
 21
5001.312788049305
 31
0.0
  0
LINE
  5
17D3E
330
747D
100
AcDbEntity
  8
部品1
 48
50.0
100
AcDbLine
 10
5271.25679986269
 20
5017.512788049305
 30
0.0
 11
5571.256799862691
 21
5017.512788049305
 31
0.0
  0
DIMENSION
  5
17D3F
330
747D
100
AcDbEntity
  8
寸法
 48
50.0
100
AcDbDimension
  2
*D5
 10
6396.25679986269
 20
5285.30210252733
 30
0.0
 11
6602.304043957182
 21
5285.30210252733
 31
0.0
 70
   160
 71
     5
 42
80.0
  3
INABA_S40G
100
AcDbAlignedDimension
 13
6316.256799862691
 23
4833.455328559677
 33
0.0
 14
6396.25679986269
 24
4831.644648948025
 34
0.0
100
AcDbRotatedDimension
1001
ACAD
1000
DSTYLE
1002
{
1070
   174
1070
     0
1070
   272
1070
     1
1070
   288
1070
     0
1070
   341
1005
0
1002
}
  0
ARC
  5
17D40
330
747D
100
AcDbEntity
  8
部品1
100
AcDbCircle
 10
6381.88433567663
 20
4725.668406213819
 30
0.0
 40
0.7
100
AcDbArc
 50
275.0921697642102
 51
354.1866997667606
  0
ARC
  5
17D41
330
747D
100
AcDbEntity
  8
部品1
100
AcDbCircle
 10
6392.743681425949
 20
4802.711661031743
 30
0.0
 40
0.7
100
AcDbArc
 50
275.0921697642102
 51
354.1866997665532
  0
ARC
  5
17D42
330
747D
100
AcDbEntity
  8
部品1
100
AcDbCircle
 10
6393.072086668552
 20
4799.026264174652
 30
0.0
 40
3.0
100
AcDbArc
 50
95.0921697642102
 51
174.1866997665532
  0
ARC
  5
17D43
330
747D
100
AcDbEntity
  8
部品1
100
AcDbCircle
 10
6382.212740919225
 20
4721.983009356729
 30
0.0
 40
3.0
100
AcDbArc
 50
95.0921697642102
 51
174.1866997665532
  0
ARC
  5
17D44
330
747D
100
AcDbEntity
  8
部品1
 48
50.0
100
AcDbCircle
 10
6371.184605644121
 20
4712.392264752845
 30
0.0
 40
7.0
100
AcDbArc
 50
267.8377559869487
 51
354.1866997665532
  0
ARC
  5
17D45
330
747D
100
AcDbEntity
  8
部品1
 48
50.0
100
AcDbCircle
 10
6388.506702108636
 20
4823.294811895019
 30
0.0
 40
7.0
100
AcDbArc
 50
354.1866997665532
 51
87.03587545283093
  0
LINE
  5
17D46
330
747D
100
AcDbEntity
  8
部品1
 48
50.0
100
AcDbLine
 10
6379.228169248618
 20
4722.286871073629
 30
0.0
 11
6378.148606208878
 21
4711.683254080071
 31
0.0
  0
LINE
  5
17D47
330
747D
100
AcDbEntity
  8
部品1
 48
50.0
100
AcDbLine
 10
6390.08751499794
 20
4799.330125891557
 30
0.0
 11
6382.580735733103
 21
4725.597505146543
 31
0.0
  0
LINE
  5
17D48
330
747D
100
AcDbEntity
  8
部品1
 48
50.0
100
AcDbLine
 10
6395.470702673392
 20
4822.585801222246
 30
0.0
 11
6393.440081482422
 21
4802.640759964466
 31
0.0
  0
ARC
  5
17D49
330
747D
100
AcDbEntity
  8
部品1
100
AcDbCircle
 10
4472.293891734057
 20
4765.458807906929
 30
0.0
 40
0.7
100
AcDbArc
 50
181.0932240292114
 51
260.1877540314867
  0
ARC
  5
17D4A
330
747D
100
AcDbEntity
  8
部品1
100
AcDbCircle
 10
4467.521218136448
 20
4858.32458610705
 30
0.0
 40
0.7
100
AcDbArc
 50
181.0932240292114
 51
260.1877540314867
  0
ARC
  5
17D4B
330
747D
100
AcDbEntity
  8
部品1
100
AcDbCircle
 10
4466.890663733425
 20
4854.67871156965
 30
0.0
 40
3.0
100
AcDbArc
 50
1.093224029211435
 51
80.18775403169653
  0
ARC
  5
17D4C
330
747D
100
AcDbEntity
  8
部品1
100
AcDbCircle
 10
4471.663337331032
 20
4761.812933369532
 30
0.0
 40
3.0
100
AcDbArc
 50
1.093224029211435
 51
80.18775403148671
  0
ARC
  5
17D4D
330
747D
100
AcDbEntity
  8
部品1
 48
50.0
100
AcDbCircle
 10
4481.863469706233
 20
4751.420689987051
 30
0.0
 40
7.0
100
AcDbArc
 50
181.0932240292114
 51
267.8377559869487
  0
ARC
  5
17D4E
330
747D
100
AcDbEntity
  8
部品1
 48
50.0
100
AcDbCircle
 10
4473.439811604137
 20
4878.371749520145
 30
0.0
 40
7.0
100
AcDbArc
 50
87.03587545283093
 51
181.0932240292114
  0
LINE
  5
17D4F
330
747D
100
AcDbEntity
  8
部品1
 48
50.0
100
AcDbLine
 10
4474.662791257462
 20
4761.870170972717
 30
0.0
 11
4474.864743877893
 21
4751.287135579623
 31
0.0
  0
LINE
  5
17D50
330
747D
100
AcDbEntity
  8
細線
 48
50.0
100
AcDbLine
 10
4472.056698200791
 20
4764.800219091525
 30
0.0
 11
6382.060362631426
 21
4724.99090011703
 31
0.0
  0
LINE
  5
17D51
330
747D
100
AcDbEntity
  8
細線
 48
50.0
100
AcDbLine
 10
4467.296222963505
 20
4857.661730789387
 30
0.0
 11
6392.932207708673
 21
4802.03752614856
 31
0.0
  0
LINE
  5
17D52
330
747D
100
AcDbEntity
  8
部品1
 48
50.0
100
AcDbLine
 10
4469.890117659855
 20
4854.735949172835
 30
0.0
 11
4471.59401915122
 21
4765.445452466188
 31
0.0
  0
LINE
  5
17D53
330
747D
100
AcDbEntity
  8
部品1
 48
50.0
100
AcDbLine
 10
4466.441085775797
 20
4878.238195112717
 30
0.0
 11
4466.82134555361
 21
4858.311230666306
 31
0.0
  0
LINE
  5
17D54
330
747D
100
AcDbEntity
  8
細線
 48
50.0
100
AcDbLine
 10
6363.256799862691
 20
4831.611627983322
 30
0.0
 11
6358.509116974692
 21
4705.865855492578
 31
0.0
  0
LINE
  5
17D55
330
747D
100
AcDbEntity
  8
細線
 48
50.0
100
AcDbLine
 10
4499.256799862691
 20
4884.044325323429
 30
0.0
 11
4493.967698307184
 21
4743.958692696076
 31
0.0
  0
LINE
  5
17D56
330
747D
100
AcDbEntity
  8
部品1
100
AcDbLine
 10
4481.599364464644
 20
4744.425674016994
 30
0.0
 11
6370.920500402536
 21
4705.397248782788
 31
0.0
  0
LINE
  5
17D57
330
747D
100
AcDbEntity
  8
部品1
100
AcDbLine
 10
4473.801786219654
 20
4885.362384282292
 30
0.0
 11
6388.868676724152
 21
4830.285446657166
 31
0.0
  0
LINE
  5
17D58
330
747D
100
AcDbEntity
  8
細線
 48
50.0
100
AcDbLine
 10
4658.756799862691
 20
4651.644648948026
 30
0.0
 11
4658.756799862691
 21
2561.644648948026
 31
0.0
  0
LINE
  5
17D59
330
747D
100
AcDbEntity
  8
細線
 48
50.0
100
AcDbLine
 10
4643.756799862691
 20
4651.644648948026
 30
0.0
 11
4643.756799862691
 21
2561.644648948026
 31
0.0
  0
LINE
  5
17D5A
330
747D
100
AcDbEntity
  8
細線
 48
50.0
100
AcDbLine
 10
4783.756799862691
 20
4651.644648948026
 30
0.0
 11
4783.756799862691
 21
2561.644648948026
 31
0.0
  0
LINE
  5
17D5B
330
747D
100
AcDbEntity
  8
細線
 48
50.0
100
AcDbLine
 10
4798.75679986269
 20
4651.644648948026
 30
0.0
 11
4798.75679986269
 21
2561.644648948026
 31
0.0
  0
LINE
  5
17D5C
330
747D
100
AcDbEntity
  8
細線
 48
50.0
100
AcDbLine
 10
4938.756799862691
 20
4651.644648948026
 30
0.0
 11
4938.756799862691
 21
2561.644648948026
 31
0.0
  0
LINE
  5
17D5D
330
747D
100
AcDbEntity
  8
細線
 48
50.0
100
AcDbLine
 10
4923.75679986269
 20
4651.644648948026
 30
0.0
 11
4923.75679986269
 21
2561.644648948026
 31
0.0
  0
LINE
  5
17D5E
330
747D
100
AcDbEntity
  8
細線
 48
50.0
100
AcDbLine
 10
5343.756799862691
 20
4651.644648948026
 30
0.0
 11
5343.756799862691
 21
2561.644648948026
 31
0.0
  0
LINE
  5
17D5F
330
747D
100
AcDbEntity
  8
細線
 48
50.0
100
AcDbLine
 10
5358.756799862691
 20
4651.644648948026
 30
0.0
 11
5358.756799862691
 21
2561.644648948026
 31
0.0
  0
LINE
  5
17D60
330
747D
100
AcDbEntity
  8
細線
 48
50.0
100
AcDbLine
 10
5218.756799862691
 20
4651.644648948026
 30
0.0
 11
5218.756799862691
 21
2561.644648948026
 31
0.0
  0
LINE
  5
17D61
330
747D
100
AcDbEntity
  8
細線
 48
50.0
100
AcDbLine
 10
5203.756799862691
 20
4651.644648948026
 30
0.0
 11
5203.756799862691
 21
2561.644648948026
 31
0.0
  0
LINE
  5
17D62
330
747D
100
AcDbEntity
  8
細線
 48
50.0
100
AcDbLine
 10
5063.756799862691
 20
4651.644648948026
 30
0.0
 11
5063.756799862691
 21
2561.644648948026
 31
0.0
  0
LINE
  5
17D63
330
747D
100
AcDbEntity
  8
細線
 48
50.0
100
AcDbLine
 10
5078.756799862691
 20
4651.644648948026
 30
0.0
 11
5078.756799862691
 21
2561.644648948026
 31
0.0
  0
LINE
  5
17D64
330
747D
100
AcDbEntity
  8
部品1
100
AcDbLine
 10
4573.756799862691
 20
2511.644648948026
 30
0.0
 11
6268.756799862691
 21
2511.644648948026
 31
0.0
  0
LINE
  5
17D65
330
747D
100
AcDbEntity
  8
部品1
100
AcDbLine
 10
6308.756799862691
 20
2511.644648948026
 30
0.0
 11
6316.256799862695
 21
2511.644648948026
 31
0.0
  0
LINE
  5
17D66
330
747D
100
AcDbEntity
  8
破線
  6
HIDDEN
 48
5.0
100
AcDbLine
 10
4573.756799862691
 20
2411.644648948026
 30
0.0
 11
4573.756799862691
 21
2406.644648948026
 31
0.0
  0
LINE
  5
17D67
330
747D
100
AcDbEntity
  8
破線
  6
HIDDEN
 48
5.0
100
AcDbLine
 10
4533.756799862698
 20
2411.644648948026
 30
0.0
 11
4533.756799862698
 21
2406.644648948026
 31
0.0
  0
LINE
  5
17D68
330
747D
100
AcDbEntity
  8
破線
  6
HIDDEN
 48
5.0
100
AcDbLine
 10
6308.756799862691
 20
2411.644648948026
 30
0.0
 11
6308.756799862691
 21
2406.644648948026
 31
0.0
  0
LINE
  5
17D69
330
747D
100
AcDbEntity
  8
破線
  6
HIDDEN
 48
5.0
100
AcDbLine
 10
6268.756799862691
 20
2411.644648948026
 30
0.0
 11
6268.756799862691
 21
2406.644648948026
 31
0.0
  0
ARC
  5
17D6A
330
747D
100
AcDbEntity
  8
部品1
 48
50.0
100
AcDbCircle
 10
6303.756799862691
 20
2551.644648948026
 30
0.0
 40
5.0
100
AcDbArc
 50
0.0
 51
90.0
  0
ARC
  5
17D6B
330
747D
100
AcDbEntity
  8
部品1
 48
50.0
100
AcDbCircle
 10
6273.756799862691
 20
2551.644648948026
 30
0.0
 40
5.0
100
AcDbArc
 50
90.0
 51
180.0
  0
LINE
  5
17D6C
330
747D
100
AcDbEntity
  8
部品1
100
AcDbLine
 10
6303.756799862691
 20
2556.644648948026
 30
0.0
 11
6273.756799862691
 21
2556.644648948026
 31
0.0
  0
LINE
  5
17D6D
330
747D
100
AcDbEntity
  8
部品1
 48
50.0
100
AcDbLine
 10
6308.756799862691
 20
2551.644648948026
 30
0.0
 11
6308.756799862691
 21
2411.644648948026
 31
0.0
  0
LINE
  5
17D6E
330
747D
100
AcDbEntity
  8
部品1
 48
50.0
100
AcDbLine
 10
6268.756799862691
 20
2551.644648948026
 30
0.0
 11
6268.756799862691
 21
2411.644648948026
 31
0.0
  0
ARC
  5
17D6F
330
747D
100
AcDbEntity
  8
部品1
 48
50.0
100
AcDbCircle
 10
4568.756799862691
 20
2551.644648948026
 30
0.0
 40
5.0
100
AcDbArc
 50
0.0
 51
90.0
  0
ARC
  5
17D70
330
747D
100
AcDbEntity
  8
部品1
 48
50.0
100
AcDbCircle
 10
4538.756799862691
 20
2551.644648948026
 30
0.0
 40
5.0
100
AcDbArc
 50
90.0
 51
180.0
  0
LINE
  5
17D71
330
747D
100
AcDbEntity
  8
部品1
100
AcDbLine
 10
4538.756799862691
 20
2556.644648948026
 30
0.0
 11
4568.756799862691
 21
2556.644648948026
 31
0.0
  0
LINE
  5
17D72
330
747D
100
AcDbEntity
  8
部品1
 48
50.0
100
AcDbLine
 10
4573.756799862691
 20
2551.644648948026
 30
0.0
 11
4573.756799862691
 21
2411.644648948026
 31
0.0
  0
LINE
  5
17D73
330
747D
100
AcDbEntity
  8
部品1
 48
50.0
100
AcDbLine
 10
4533.756799862691
 20
2551.644648948026
 30
0.0
 11
4533.756799862691
 21
2411.644648948026
 31
0.0
  0
LINE
  5
17D74
330
747D
100
AcDbEntity
  8
破線
  6
HIDDEN
 48
5.0
100
AcDbLine
 10
4573.756799862691
 20
2406.644648948026
 30
0.0
 11
4588.756799862691
 21
2258.944648948025
 31
0.0
  0
LINE
  5
17D75
330
747D
100
AcDbEntity
  8
破線
  6
HIDDEN
 48
5.0
100
AcDbLine
 10
4533.756799862691
 20
2406.644648948026
 30
0.0
 11
4518.756799862691
 21
2258.944648948025
 31
0.0
  0
LINE
  5
17D76
330
747D
100
AcDbEntity
  8
破線
  6
HIDDEN
 48
5.0
100
AcDbLine
 10
4588.756799862691
 20
2258.944648948025
 30
0.0
 11
4588.756799862691
 21
2256.644648948026
 31
0.0
  0
LINE
  5
17D77
330
747D
100
AcDbEntity
  8
破線
  6
HIDDEN
 48
5.0
100
AcDbLine
 10
4518.756799862691
 20
2258.944648948025
 30
0.0
 11
4518.756799862691
 21
2256.644648948026
 31
0.0
  0
LINE
  5
17D78
330
747D
100
AcDbEntity
  8
破線
  6
HIDDEN
 48
5.0
100
AcDbLine
 10
4518.756799862691
 20
2256.644648948026
 30
0.0
 11
4588.756799862691
 21
2256.644648948026
 31
0.0
  0
LINE
  5
17D79
330
747D
100
AcDbEntity
  8
破線
  6
HIDDEN
 48
5.0
100
AcDbLine
 10
6323.756799862691
 20
2258.944648948025
 30
0.0
 11
6323.756799862691
 21
2256.644648948026
 31
0.0
  0
LINE
  5
17D7A
330
747D
100
AcDbEntity
  8
破線
  6
HIDDEN
 48
5.0
100
AcDbLine
 10
6308.756799862691
 20
2406.644648948026
 30
0.0
 11
6323.756799862691
 21
2258.944648948025
 31
0.0
  0
LINE
  5
17D7B
330
747D
100
AcDbEntity
  8
破線
  6
HIDDEN
 48
5.0
100
AcDbLine
 10
6253.756799862691
 20
2258.944648948025
 30
0.0
 11
6253.756799862691
 21
2256.644648948026
 31
0.0
  0
LINE
  5
17D7C
330
747D
100
AcDbEntity
  8
破線
  6
HIDDEN
 48
5.0
100
AcDbLine
 10
6268.756799862691
 20
2406.644648948026
 30
0.0
 11
6253.756799862691
 21
2258.944648948025
 31
0.0
  0
LINE
  5
17D7D
330
747D
100
AcDbEntity
  8
破線
  6
HIDDEN
 48
5.0
100
AcDbLine
 10
6323.756799862691
 20
2256.644648948026
 30
0.0
 11
6253.756799862691
 21
2256.644648948026
 31
0.0
  0
DIMENSION
  5
17D7E
330
747D
100
AcDbEntity
  8
寸法
 48
50.0
100
AcDbDimension
  2
*D6
 10
4466.256799862691
 20
5502.263917905945
 30
0.0
 11
5372.062551113661
 21
5502.263917905945
 31
0.0
 70
   160
 71
     5
 42
1930.0
  3
INABA_S40G
100
AcDbAlignedDimension
 13
6396.25679986269
 23
4831.644648948025
 33
0.0
 14
4466.256799862691
 24
4886.644648948029
 34
0.0
100
AcDbRotatedDimension
1001
ACAD
1000
DSTYLE
1002
{
1070
   174
1070
     0
1070
   272
1070
     1
1070
   288
1070
     0
1070
   341
1005
0
1002
}
  0
DIMENSION
  5
17D7F
330
747D
100
AcDbEntity
  8
寸法
 48
50.0
100
AcDbDimension
  2
*D7
 10
4466.256799862691
 20
5285.30210252733
 30
0.0
 11
4156.619004587101
 21
5285.30210252733
 31
0.0
 70
   160
 71
     5
 42
60.0
  3
INABA_S40G
100
AcDbAlignedDimension
 13
4526.256799862691
 23
4882.646267071002
 33
0.0
 14
4466.256799862691
 24
4886.644648948029
 34
0.0
100
AcDbRotatedDimension
1001
ACAD
1000
DSTYLE
1002
{
1070
   174
1070
     0
1070
   272
1070
     1
1070
   288
1070
     0
1070
   341
1005
0
1002
}
  0
DIMENSION
  5
17D80
330
747D
100
AcDbEntity
  8
寸法
 48
50.0
100
AcDbDimension
  2
*D8
 10
4526.256799862691
 20
5285.7378182875
 30
0.0
 11
5435.852448539172
 21
5285.7378182875
 31
0.0
 70
   160
  1
柱外寸法<>
 71
     5
 42
1790.0
  3
INABA_S40G
100
AcDbAlignedDimension
 13
6316.256799862691
 23
4833.455328559677
 33
0.0
 14
4526.256799862691
 24
4882.646267071002
 34
0.0
100
AcDbRotatedDimension
1001
ACAD
1000
DSTYLE
1002
{
1070
   174
1070
     0
1070
   272
1070
     1
1070
   288
1070
     0
1070
   341
1005
0
1002
}
  0
DIMENSION
  5
17D81
330
747D
100
AcDbEntity
  8
寸法
100
AcDbDimension
  2
*D9
 10
6928.426895625119
 20
4831.644648948025
 30
0.0
 11
6928.426895625119
 21
3671.644648948027
 31
0.0
 70
   160
 71
     5
 42
2320.000000000001
  3
INABA_S40G
100
AcDbAlignedDimension
 13
6393.256799862695
 23
2511.644648948026
 33
0.0
 14
6396.25679986269
 24
4831.644648948025
 34
0.0
 50
90.0
100
AcDbRotatedDimension
1001
ACAD
1000
DSTYLE
1002
{
1070
   174
1070
     0
1070
   272
1070
     1
1070
   288
1070
     0
1070
   341
1005
0
1002
}
  0
LINE
  5
17D82
330
747D
100
AcDbEntity
  8
部品1
100
AcDbLine
 10
6261.256799862695
 20
4651.644648948026
 30
0.0
 11
6261.256799862695
 21
2561.644648948026
 31
0.0
  0
LINE
  5
17D83
330
747D
100
AcDbEntity
  8
部品1
100
AcDbLine
 10
6316.256799862691
 20
4706.526457634033
 30
0.0
 11
6316.256799862695
 21
2411.644648948026
 31
0.0
  0
LINE
  5
17D84
330
747D
100
AcDbEntity
  8
部品1
100
AcDbLine
 10
5001.256799862691
 20
4651.644648948026
 30
0.0
 11
5001.256799862691
 21
2561.644648948026
 31
0.0
  0
DIMENSION
  5
17D85
330
747D
100
AcDbEntity
  8
寸法
100
AcDbDimension
  2
*D10
 10
3902.604090704394
 20
2511.644648948026
 30
0.0
 11
3902.604090704393
 21
2205.597404853534
 31
0.0
 70
   160
 71
     5
 42
50.0
  3
INABA_S40G
100
AcDbAlignedDimension
 13
4526.256799862691
 23
2561.644648948026
 33
0.0
 14
4471.256799862691
 24
2511.644648948026
 34
0.0
 50
90.0
100
AcDbRotatedDimension
1001
ACAD
1000
DSTYLE
1002
{
1070
   174
1070
     0
1070
   272
1070
     1
1070
   288
1070
     0
1070
   341
1005
0
1002
}
  0
DIMENSION
  5
17D86
330
747D
100
AcDbEntity
  8
寸法
100
AcDbDimension
  2
*D11
 10
3617.617417933332
 20
2411.644648948026
 30
0.0
 11
3617.617417933332
 21
2175.597404853535
 31
0.0
 70
   160
 71
     5
 42
100.0
  3
INABA_S40G
100
AcDbAlignedDimension
 13
4471.256799862691
 23
2511.644648948026
 33
0.0
 14
3902.604090704393
 24
2411.644648948026
 34
0.0
 50
90.0
100
AcDbRotatedDimension
1001
ACAD
1000
DSTYLE
1002
{
1070
   174
1070
     0
1070
   272
1070
     1
1070
   288
1070
     0
1070
   341
1005
0
1002
}
  0
DIMENSION
  5
17D87
330
747D
100
AcDbEntity
  8
寸法
100
AcDbDimension
  2
*D12
 10
3617.617417933333
 20
4886.644648948029
 30
0.0
 11
3617.617417933332
 21
3671.644648948027
 31
0.0
 70
   160
 71
     5
 42
2375.000000000003
  3
INABA_S40G
100
AcDbAlignedDimension
 13
4526.256799862691
 23
2511.644648948026
 33
0.0
 14
4466.256799862691
 24
4886.644648948029
 34
0.0
 50
90.0
100
AcDbRotatedDimension
1001
ACAD
1000
DSTYLE
1002
{
1070
   174
1070
     0
1070
   272
1070
     1
1070
   288
1070
     0
1070
   341
1005
0
1002
}
  0
DIMENSION
  5
17D88
330
747D
100
AcDbEntity
  8
寸法
100
AcDbDimension
  2
*D13
 10
3902.604090704396
 20
2561.644648948026
 30
0.0
 11
3902.604090704396
 21
3671.644648948026
 31
0.0
 70
   160
 71
     5
 42
2090.0
  3
INABA_S40G
100
AcDbAlignedDimension
 13
4526.256799862691
 23
4651.644648948026
 33
0.0
 14
4526.256799862691
 24
2561.644648948026
 34
0.0
 50
90.0
100
AcDbRotatedDimension
1001
ACAD
1000
DSTYLE
1002
{
1070
   174
1070
     0
1070
   272
1070
     1
1070
   288
1070
     0
1070
   341
1005
0
1002
}
  0
LINE
  5
17D89
330
747D
100
AcDbEntity
  8
部品1
100
AcDbLine
 10
4526.256799862691
 20
4743.503168390274
 30
0.0
 11
4526.256799862691
 21
2411.644648948026
 31
0.0
  0
LINE
  5
17D8A
330
747D
100
AcDbEntity
  8
部品1
100
AcDbLine
 10
4581.256799862691
 20
4651.644648948026
 30
0.0
 11
4581.256799862691
 21
2561.644648948026
 31
0.0
  0
LINE
  5
17D8B
330
747D
100
AcDbEntity
  8
部品1
100
AcDbLine
 10
4526.256799862691
 20
2511.644648948026
 30
0.0
 11
4533.756799862691
 21
2511.644648948026
 31
0.0
  0
LINE
  5
17D8C
330
747D
100
AcDbEntity
  8
部品1
100
AcDbLine
 10
4526.256799862691
 20
2561.644648948026
 30
0.0
 11
6316.256799862695
 21
2561.644648948026
 31
0.0
  0
LINE
  5
17D8D
330
747D
100
AcDbEntity
  8
部品1
100
AcDbLine
 10
4526.256799862691
 20
4651.644648948026
 30
0.0
 11
6316.256799862691
 21
4651.644648948026
 31
0.0
  0
LINE
  5
17D8E
330
747D
100
AcDbEntity
  8
部品1
100
AcDbLine
 10
5802.99213297691
 20
1722.606385970615
 30
0.0
 11
5039.521466748472
 21
1722.606385970615
 31
0.0
  0
LINE
  5
17D8F
330
747D
100
AcDbEntity
  8
部品1
100
AcDbLine
 10
5802.99213297691
 20
1482.714064425083
 30
0.0
 11
5802.99213297691
 21
1722.606385970615
 31
0.0
  0
LINE
  5
17D90
330
747D
100
AcDbEntity
  8
部品1
100
AcDbLine
 10
5039.521466748472
 20
1482.714064425083
 30
0.0
 11
5802.99213297691
 21
1482.714064425083
 31
0.0
  0
LINE
  5
17D91
330
747D
100
AcDbEntity
  8
部品1
100
AcDbLine
 10
5039.521466748472
 20
1722.606385970615
 30
0.0
 11
5039.521466748472
 21
1482.714064425083
 31
0.0
  0
TEXT
  5
17D92
330
747D
100
AcDbEntity
  8
部品1
100
AcDbText
 10
5128.96756817208
 20
1529.712856752092
 30
0.0
 40
135.0
  1
側面図
  7
STYLE2
100
AcDbText
  0
TEXT
  5
17D93
330
747D
100
AcDbEntity
  8
部品1
100
AcDbText
 10
2645.688758291519
 20
2447.751552553928
 30
0.0
 40
125.0
  1
▽G.L
  7
STYLE2
100
AcDbText
  0
LINE
  5
17D94
330
747D
100
AcDbEntity
  8
Ｇ．Ｌ
100
AcDbLine
 10
2578.432172259687
 20
2411.644648948026
 30
0.0
 11
12116.02969898907
 21
2411.644648948026
 31
0.0
  0
TEXT
  5
17D95
330
747D
100
AcDbEntity
  8
部品1
100
AcDbText
 10
9676.507216583965
 20
1529.712856752092
 30
0.0
 40
135.0
  1
正面図
  7
STYLE2
100
AcDbText
  0
LINE
  5
17D9B
330
747D
100
AcDbEntity
  8
部品1
100
AcDbLine
 10
9585.981812846011
 20
1722.606385970615
 30
0.0
 11
9585.981812846011
 21
1482.714064425083
 31
0.0
  0
LINE
  5
17D9C
330
747D
100
AcDbEntity
  8
部品1
100
AcDbLine
 10
9585.981812846011
 20
1482.714064425083
 30
0.0
 11
10349.45247907445
 21
1482.714064425083
 31
0.0
  0
LINE
  5
17D9D
330
747D
100
AcDbEntity
  8
部品1
100
AcDbLine
 10
10349.45247907445
 20
1482.714064425083
 30
0.0
 11
10349.45247907445
 21
1722.606385970615
 31
0.0
  0
LINE
  5
17D9E
330
747D
100
AcDbEntity
  8
部品1
100
AcDbLine
 10
10349.45247907445
 20
1722.606385970615
 30
0.0
 11
9585.981812846011
 21
1722.606385970615
 31
0.0
  0
DIMENSION
  5
17D9F
330
747D
100
AcDbEntity
  8
寸法
 48
50.0
100
AcDbDimension
  2
*D14
 10
8138.641823799197
 20
2569.644648948026
 30
0.0
 11
8138.641823799195
 21
3623.792968106685
 31
0.0
 70
   160
  1
有効開口部高サ<>
 71
     5
 42
2024.999999999999
  3
INABA_S40G
100
AcDbAlignedDimension
 13
8890.71714596023
 23
4594.644648948025
 33
0.0
 14
8890.71714596023
 24
2569.644648948026
 34
0.0
 50
90.0
100
AcDbRotatedDimension
  0
LINE
  5
17DA3
330
747D
100
AcDbEntity
  8
部品1
100
AcDbLine
 10
8442.717145960228
 20
4651.644648948026
 30
0.0
 11
11492.71714596023
 21
4651.644648948026
 31
0.0
  0
LINE
  5
17DA4
330
747D
100
AcDbEntity
  8
部品1
 48
50.0
100
AcDbLine
 10
8470.717145960231
 20
2511.644648948026
 30
0.0
 11
11044.71714596023
 21
2511.644648948026
 31
0.0
  0
LINE
  5
17DA5
330
747D
100
AcDbEntity
  8
部品1
100
AcDbLine
 10
8442.717145960228
 20
4651.644648948026
 30
0.0
 11
11492.71714596023
 21
4651.644648948026
 31
0.0
  0
LINE
  5
17DA6
330
747D
100
AcDbEntity
  8
部品1
100
AcDbLine
 10
8442.717145960228
 20
2511.644648948026
 30
0.0
 11
11492.71714596023
 21
2511.644648948026
 31
0.0
  0
LINE
  5
17DA7
330
747D
100
AcDbEntity
  8
部品1
 48
50.0
100
AcDbLine
 10
8497.71714596023
 20
2561.644648948046
 30
0.0
 11
8497.71714596023
 21
4651.644648948026
 31
0.0
  0
LINE
  5
17DA8
330
747D
100
AcDbEntity
  8
部品1
100
AcDbLine
 10
8442.717145960228
 20
4705.144648948026
 30
0.0
 11
8442.717145960228
 21
2411.644648948026
 31
0.0
  0
LINE
  5
17DA9
330
747D
100
AcDbEntity
  8
部品1
100
AcDbLine
 10
8437.717145960229
 20
2556.644648948028
 30
0.0
 11
8437.717145960229
 21
2411.644648948026
 31
0.0
  0
LINE
  5
17DAA
330
747D
100
AcDbEntity
  8
破線
 48
5.0
100
AcDbLine
 10
8437.717145960229
 20
2411.644648948026
 30
0.0
 11
8437.717145960229
 21
2256.644648948026
 31
0.0
  0
LINE
  5
17DAC
330
747D
100
AcDbEntity
  8
破線
 48
5.0
100
AcDbLine
 10
8417.71714596023
 20
2256.644648948026
 30
0.0
 11
8437.717145960231
 21
2256.644648948026
 31
0.0
  0
LINE
  5
17DAD
330
747D
100
AcDbEntity
  8
部品1
100
AcDbLine
 10
8842.717145960229
 20
2511.644648948026
 30
0.0
 11
8842.717145960229
 21
2411.644648948026
 31
0.0
  0
LINE
  5
17DAE
330
747D
100
AcDbEntity
  8
部品1
100
AcDbLine
 10
8442.717145960228
 20
2561.644648948046
 30
0.0
 11
8890.71714596023
 21
2561.644648948046
 31
0.0
  0
LINE
  5
17DAF
330
747D
100
AcDbEntity
  8
部品1
 48
50.0
100
AcDbLine
 10
9140.717145960229
 20
2511.644648948026
 30
0.0
 11
9140.717145960229
 21
2411.644648948026
 31
0.0
  0
LINE
  5
17DB0
330
747D
100
AcDbEntity
  8
部品1
 48
50.0
100
AcDbLine
 10
9340.717145960228
 20
2511.644648948026
 30
0.0
 11
9340.717145960228
 21
2411.644648948026
 31
0.0
  0
LINE
  5
17DB1
330
747D
100
AcDbEntity
  8
部品1
 48
50.0
100
AcDbLine
 10
9867.717145960229
 20
2511.644648948026
 30
0.0
 11
9867.717145960229
 21
2411.644648948026
 31
0.0
  0
LINE
  5
17DB2
330
747D
100
AcDbEntity
  8
部品1
 48
50.0
100
AcDbLine
 10
10067.71714596023
 20
2511.644648948026
 30
0.0
 11
10067.71714596023
 21
2411.644648948026
 31
0.0
  0
LINE
  5
17DB3
330
747D
100
AcDbEntity
  8
部品1
100
AcDbLine
 10
11092.71714596023
 20
2511.644648948026
 30
0.0
 11
11092.71714596023
 21
2411.644648948026
 31
0.0
  0
LINE
  5
17DB4
330
747D
100
AcDbEntity
  8
部品1
100
AcDbLine
 10
11492.71714596023
 20
4705.144648948026
 30
0.0
 11
11492.71714596023
 21
2411.644648948026
 31
0.0
  0
LINE
  5
17DB5
330
747D
100
AcDbEntity
  8
部品1
100
AcDbLine
 10
11497.71714596023
 20
2556.644648948026
 30
0.0
 11
11497.71714596023
 21
2411.644648948026
 31
0.0
  0
LINE
  5
17DB6
330
747D
100
AcDbEntity
  8
破線
 48
5.0
100
AcDbLine
 10
11497.71714596023
 20
2411.644648948026
 30
0.0
 11
11497.71714596023
 21
2256.644648948026
 31
0.0
  0
LINE
  5
17DB7
330
747D
100
AcDbEntity
  8
破線
 48
5.0
100
AcDbLine
 10
11517.71714596023
 20
2256.644648948026
 30
0.0
 11
11497.71714596022
 21
2256.644648948026
 31
0.0
  0
LINE
  5
17DB8
330
747D
100
AcDbEntity
  8
部品1
100
AcDbLine
 10
11044.71714596023
 20
2561.644648948046
 30
0.0
 11
11492.71714596023
 21
2561.644648948046
 31
0.0
  0
LINE
  5
17DB9
330
747D
100
AcDbEntity
  8
部品1
100
AcDbLine
 10
11437.71714596023
 20
4651.644648948026
 30
0.0
 11
11437.71714596023
 21
2561.644648948046
 31
0.0
  0
LINE
  5
17DBA
330
747D
100
AcDbEntity
  8
部品1
 48
50.0
100
AcDbLine
 10
10794.71714596023
 20
2511.644648948026
 30
0.0
 11
10794.71714596023
 21
2411.644648948026
 31
0.0
  0
LINE
  5
17DBB
330
747D
100
AcDbEntity
  8
部品1
 48
50.0
100
AcDbLine
 10
10594.71714596023
 20
2511.644648948026
 30
0.0
 11
10594.71714596023
 21
2411.644648948026
 31
0.0
  0
LINE
  5
17DBF
330
747D
100
AcDbEntity
  8
部品1
100
AcDbLine
 10
8470.717145960238
 20
9673.515860842629
 30
0.0
 11
9442.717145960237
 21
9673.515860842632
 31
0.0
  0
LINE
  5
17DC0
330
747D
100
AcDbEntity
  8
細線
 48
50.0
100
AcDbLine
 10
9954.217145960239
 20
9221.515860842734
 30
0.0
 11
8471.217145960169
 21
9671.515860842676
 31
0.0
  0
LINE
  5
17DC1
330
747D
100
AcDbEntity
  8
細線
 48
50.0
100
AcDbLine
 10
9954.217145960239
 20
9671.515860842731
 30
0.0
 11
8471.217145960169
 21
9221.515860842677
 31
0.0
  0
LINE
  5
17DC2
330
747D
100
AcDbEntity
  8
部品1
100
AcDbLine
 10
8497.717145960237
 20
9673.515860842746
 30
0.0
 11
9955.217145960238
 21
9673.515860842746
 31
0.0
  0
LINE
  5
17DC3
330
747D
100
AcDbEntity
  8
部品1
100
AcDbLine
 10
8471.217145960169
 20
9671.515860842676
 30
0.0
 11
9954.217145960239
 21
9671.515860842735
 31
0.0
  0
LINE
  5
17DC4
330
747D
100
AcDbEntity
  8
部品1
100
AcDbLine
 10
8471.217145960169
 20
9221.515860842677
 30
0.0
 11
9954.217145960239
 21
9221.515860842734
 31
0.0
  0
LINE
  5
17DC5
330
747D
100
AcDbEntity
  8
部品1
100
AcDbLine
 10
8917.717145960208
 20
7911.515860842584
 30
0.0
 11
8442.717145960232
 21
7911.515860842584
 31
0.0
  0
LINE
  5
17DC6
330
747D
100
AcDbEntity
  8
破線
 48
10.0
100
AcDbLine
 10
9215.217145960215
 20
7991.515860842584
 30
0.0
 11
8522.717145960225
 21
7991.515860842596
 31
0.0
  0
DIMENSION
  5
17DC7
330
747D
100
AcDbEntity
  8
寸法
100
AcDbDimension
  2
*D15
 10
9883.287139641566
 20
8956.801473480286
 30
0.0
 11
9030.902696790951
 21
8956.801473480286
 31
0.0
 70
   160
 71
     5
 42
1483.000000000071
  3
INABA_S40G
100
AcDbAlignedDimension
 13
8471.217145960162
 23
9221.515860842741
 33
0.0
 14
9954.217145960233
 24
9221.515860842734
 34
0.0
100
AcDbRotatedDimension
1001
ACAD
1000
DSTYLE
1002
{
1002
}
  0
DIMENSION
  5
17DC8
330
747D
100
AcDbEntity
  8
寸法
100
AcDbDimension
  2
*D16
 10
11437.71714596024
 20
10201.51586084267
 30
0.0
 11
9967.717145960238
 21
10201.51586084267
 31
0.0
 70
   160
  1
7X420=<>
 71
     5
 42
2940.000000000002
  3
INABA_S40G
100
AcDbAlignedDimension
 13
8497.717145960237
 23
9701.515860842629
 33
0.0
 14
11437.71714596024
 24
9701.515860842723
 34
0.0
100
AcDbRotatedDimension
1001
ACAD
1000
DSTYLE
1002
{
1002
}
  0
LINE
  5
17DC9
330
747D
100
AcDbEntity
  8
部品1
100
AcDbLine
 10
11436.21714596024
 20
7968.015860842716
 30
0.0
 11
8499.217145960132
 21
7968.015860842595
 31
0.0
  0
LINE
  5
17DCA
330
747D
100
AcDbEntity
  8
部品1
100
AcDbLine
 10
8442.717145960237
 20
9701.515860842629
 30
0.0
 11
11492.71714596024
 21
9701.515860842723
 31
0.0
  0
LINE
  5
17DCC
330
747D
100
AcDbEntity
  8
部品1
100
AcDbLine
 10
11436.21714596022
 20
8806.515860842697
 30
0.0
 11
8499.217145960223
 21
8806.515860842599
 31
0.0
  0
LINE
  5
17DCD
330
747D
100
AcDbEntity
  8
部品1
 48
50.0
100
AcDbLine
 10
8470.717145960234
 20
7939.515860842696
 30
0.0
 11
11464.71714596025
 21
7939.515860842701
 31
0.0
  0
LINE
  5
17DCE
330
747D
100
AcDbEntity
  8
破線
 48
10.0
100
AcDbLine
 10
8522.717145960214
 20
9221.515860842727
 30
0.0
 11
8522.717145960227
 21
7991.515860842596
 31
0.0
  0
LINE
  5
17DCF
330
747D
100
AcDbEntity
  8
部品1
100
AcDbLine
 10
8470.717145960213
 20
7939.515860842675
 30
0.0
 11
8470.717145960231
 21
9226.515860842599
 31
0.0
  0
LINE
  5
17DD0
330
747D
100
AcDbEntity
  8
部品1
100
AcDbLine
 10
8442.717145960205
 20
9701.515860842597
 30
0.0
 11
8442.717145960232
 21
7911.515860842584
 31
0.0
  0
LINE
  5
17DD1
330
747D
100
AcDbEntity
  8
部品1
100
AcDbLine
 10
8499.217145960216
 20
9221.515860842677
 30
0.0
 11
8499.217145960228
 21
7968.01586084269
 31
0.0
  0
LINE
  5
17DD2
330
747D
100
AcDbEntity
  8
部品1
100
AcDbLine
 10
8470.717145960231
 20
7966.5158608426
 30
0.0
 11
8442.71714596023
 21
7966.5158608426
 31
0.0
  0
LINE
  5
17DD3
330
747D
100
AcDbEntity
  8
部品1
100
AcDbLine
 10
8470.717145960213
 20
7966.515860842584
 30
0.0
 11
8442.71714596023
 21
7966.515860842584
 31
0.0
  0
LINE
  5
17DD4
330
747D
100
AcDbEntity
  8
部品1
100
AcDbLine
 10
8470.717145960213
 20
7966.515860842548
 30
0.0
 11
8442.71714596023
 21
7966.515860842548
 31
0.0
  0
LINE
  5
17DD5
330
747D
100
AcDbEntity
  8
部品1
100
AcDbLine
 10
8442.71714596023
 20
7966.515860842548
 30
0.0
 11
8442.717145960232
 21
7911.515860842552
 31
0.0
  0
LINE
  5
17DD6
330
747D
100
AcDbEntity
  8
部品1
 48
50.0
100
AcDbLine
 10
8499.217145960228
 20
7968.01586084269
 30
0.0
 11
8470.717145960231
 21
7939.515860842694
 31
0.0
  0
LINE
  5
17DD7
330
747D
100
AcDbEntity
  8
部品1
100
AcDbLine
 10
8497.717145960207
 20
7911.515860842715
 30
0.0
 11
8497.717145960207
 21
7939.515860842715
 31
0.0
  0
LINE
  5
17DD8
330
747D
100
AcDbEntity
  8
部品1
 48
50.0
100
AcDbLine
 10
8471.217145960169
 20
9671.515860842731
 30
0.0
 11
8471.217145960169
 21
9221.515860842734
 31
0.0
  0
LINE
  5
17DD9
330
747D
100
AcDbEntity
  8
部品1
100
AcDbLine
 10
8470.717145960231
 20
9221.0158608426
 30
0.0
 11
8470.717145960238
 21
9673.515860842629
 31
0.0
  0
LINE
  5
17DDA
330
747D
100
AcDbEntity
  8
部品1
100
AcDbLine
 10
8470.717145960213
 20
8806.515860842599
 30
0.0
 11
8442.717145960212
 21
8806.515860842599
 31
0.0
  0
LINE
  5
17DDB
330
747D
100
AcDbEntity
  8
部品1
100
AcDbLine
 10
8470.717145960213
 20
9226.515860842599
 30
0.0
 11
8442.717145960212
 21
9226.515860842599
 31
0.0
  0
DIMENSION
  5
17DDC
330
747D
100
AcDbEntity
  8
寸法
100
AcDbDimension
  2
*D17
 10
8497.717145960237
 20
10201.51586084263
 30
0.0
 11
8134.231864585965
 21
10201.51586084263
 31
0.0
 70
   160
 71
     5
 42
55.00000000003274
  3
INABA_S40G
100
AcDbAlignedDimension
 13
8442.717145960205
 23
9701.515860842629
 33
0.0
 14
8497.717145960237
 24
9701.515860842629
 34
0.0
100
AcDbRotatedDimension
1001
ACAD
1000
DSTYLE
1002
{
1002
}
  0
LINE
  5
17DDD
330
747D
100
AcDbEntity
  8
部品1
100
AcDbLine
 10
8470.717145960206
 20
9646.515860842599
 30
0.0
 11
8442.717145960205
 21
9646.515860842599
 31
0.0
  0
LINE
  5
17DDE
330
747D
100
AcDbEntity
  8
部品1
100
AcDbLine
 10
8497.717145960237
 20
9701.515860842629
 30
0.0
 11
8497.717145960237
 21
9673.515860842629
 31
0.0
  0
LINE
  5
17DDF
330
747D
100
AcDbEntity
  8
部品1
100
AcDbLine
 10
8497.717145960205
 20
9701.515860842597
 30
0.0
 11
8497.717145960205
 21
9673.515860842597
 31
0.0
  0
LINE
  5
17DE0
330
747D
100
AcDbEntity
  8
部品1
100
AcDbLine
 10
11492.71714596021
 20
7911.515860842715
 30
0.0
 11
11017.71714596024
 21
7911.515860842701
 31
0.0
  0
LINE
  5
17DE1
330
747D
100
AcDbEntity
  8
破線
 48
10.0
100
AcDbLine
 10
11412.71714596024
 20
7991.515860842712
 30
0.0
 11
10720.21714596021
 21
7991.515860842653
 31
0.0
  0
DIMENSION
  5
17DE2
330
747D
100
AcDbEntity
  8
寸法
100
AcDbDimension
  2
*D18
 10
11393.28713964156
 20
8956.801473480286
 30
0.0
 11
10492.78085695828
 21
8956.801473480286
 31
0.0
 70
   160
 71
     5
 42
1483.000000000013
  3
INABA_S40G
100
AcDbAlignedDimension
 13
9981.217145960231
 23
9221.515860842799
 33
0.0
 14
11464.21714596024
 24
9221.515860842792
 34
0.0
100
AcDbRotatedDimension
1001
ACAD
1000
DSTYLE
1002
{
1002
}
  0
LINE
  5
17DE3
330
747D
100
AcDbEntity
  8
細線
 48
50.0
100
AcDbLine
 10
11464.21714596024
 20
9671.515860842724
 30
0.0
 11
9981.217145960238
 21
9221.515860842734
 31
0.0
  0
LINE
  5
17DE4
330
747D
100
AcDbEntity
  8
部品1
100
AcDbLine
 10
9981.217145960238
 20
9671.515860842731
 30
0.0
 11
11464.21714596024
 21
9671.515860842724
 31
0.0
  0
LINE
  5
17DE5
330
747D
100
AcDbEntity
  8
部品1
100
AcDbLine
 10
9981.217145960238
 20
9221.515860842734
 30
0.0
 11
11464.21714596024
 21
9221.515860842727
 31
0.0
  0
LINE
  5
17DE6
330
747D
100
AcDbEntity
  8
細線
 48
50.0
100
AcDbLine
 10
11464.21714596024
 20
9221.515860842727
 30
0.0
 11
9981.217145960238
 21
9671.515860842726
 31
0.0
  0
LINE
  5
17DE7
330
747D
100
AcDbEntity
  8
部品1
100
AcDbLine
 10
9980.217145960239
 20
9673.515860842741
 30
0.0
 11
11464.71714596024
 21
9673.515860842723
 31
0.0
  0
LINE
  5
17DE8
330
747D
100
AcDbEntity
  8
破線
 48
10.0
100
AcDbLine
 10
9942.717145960216
 20
7968.015860842625
 30
0.0
 11
9942.717145960209
 21
9221.515860842734
 31
0.0
  0
LINE
  5
17DE9
330
747D
100
AcDbEntity
  8
破線
 48
10.0
100
AcDbLine
 10
9992.717145960215
 20
7968.015860842628
 30
0.0
 11
9992.717145960209
 21
9221.51586084273
 31
0.0
  0
LINE
  5
17DEA
330
747D
100
AcDbEntity
  8
破線
 48
10.0
100
AcDbLine
 10
9215.217145960215
 20
7968.015860842625
 30
0.0
 11
9215.217145960215
 21
9221.515860842734
 31
0.0
  0
LINE
  5
17DEB
330
747D
100
AcDbEntity
  8
破線
 48
10.0
100
AcDbLine
 10
9265.217145960214
 20
7968.015860842628
 30
0.0
 11
9265.217145960216
 21
9221.515860842734
 31
0.0
  0
LINE
  5
17DEC
330
747D
100
AcDbEntity
  8
破線
 48
10.0
100
AcDbLine
 10
10670.21714596021
 20
7968.015860842625
 30
0.0
 11
10670.21714596021
 21
9221.515860842734
 31
0.0
  0
LINE
  5
17DED
330
747D
100
AcDbEntity
  8
破線
 48
10.0
100
AcDbLine
 10
10720.21714596021
 20
7968.015860842628
 30
0.0
 11
10720.21714596021
 21
9221.515860842734
 31
0.0
  0
LINE
  5
17DEE
330
747D
100
AcDbEntity
  8
部品1
 48
50.0
100
AcDbLine
 10
9967.717145960239
 20
9221.515860842734
 30
0.0
 11
9967.717145960268
 21
7968.015860842614
 31
0.0
  0
LINE
  5
17DEF
330
747D
100
AcDbEntity
  8
破線
 48
10.0
100
AcDbLine
 10
9942.717145960216
 20
7991.515860842625
 30
0.0
 11
9265.217145960212
 21
7991.515860842603
 31
0.0
  0
LINE
  5
17DF0
330
747D
100
AcDbEntity
  8
部品1
100
AcDbLine
 10
8917.717145960207
 20
7911.515860842715
 30
0.0
 11
8917.717145960207
 21
7939.515860842715
 31
0.0
  0
LINE
  5
17DF1
330
747D
100
AcDbEntity
  8
破線
 48
10.0
100
AcDbLine
 10
10670.21714596021
 20
7991.515860842639
 30
0.0
 11
9992.717145960217
 21
7991.515860842628
 31
0.0
  0
LINE
  5
17DF2
330
747D
100
AcDbEntity
  8
部品1
100
AcDbLine
 10
11017.71714596024
 20
7911.515860842715
 30
0.0
 11
11017.71714596024
 21
7939.515860842715
 31
0.0
  0
LINE
  5
17DF3
330
747D
100
AcDbEntity
  8
部品1
100
AcDbLine
 10
8917.717145960205
 20
9701.515860842597
 30
0.0
 11
8917.717145960205
 21
9673.515860842597
 31
0.0
  0
LINE
  5
17DF4
330
747D
100
AcDbEntity
  8
部品1
100
AcDbLine
 10
9337.717145960205
 20
9701.515860842597
 30
0.0
 11
9337.717145960205
 21
9673.515860842597
 31
0.0
  0
LINE
  5
17DF5
330
747D
100
AcDbEntity
  8
部品1
100
AcDbLine
 10
9757.717145960207
 20
9701.515860842597
 30
0.0
 11
9757.717145960207
 21
9673.515860842597
 31
0.0
  0
LINE
  5
17DF6
330
747D
100
AcDbEntity
  8
部品1
 48
50.0
100
AcDbLine
 10
9954.217145960239
 20
9671.515860842731
 30
0.0
 11
9954.217145960239
 21
9221.515860842734
 31
0.0
  0
LINE
  5
17DF7
330
747D
100
AcDbEntity
  8
部品1
 48
50.0
100
AcDbLine
 10
9981.217145960238
 20
9671.515860842726
 30
0.0
 11
9981.217145960238
 21
9221.515860842734
 31
0.0
  0
LINE
  5
17DF8
330
747D
100
AcDbEntity
  8
部品1
 48
50.0
100
AcDbLine
 10
9955.217145960238
 20
9673.515860842737
 30
0.0
 11
9955.217145960238
 21
9221.515860842734
 31
0.0
  0
LINE
  5
17DF9
330
747D
100
AcDbEntity
  8
部品1
 48
50.0
100
AcDbLine
 10
9980.217145960239
 20
9673.515860842734
 30
0.0
 11
9980.217145960239
 21
9221.515860842734
 31
0.0
  0
LINE
  5
17DFA
330
747D
100
AcDbEntity
  8
部品1
100
AcDbLine
 10
9955.217145960238
 20
9221.515860842734
 30
0.0
 11
9980.217145960239
 21
9221.515860842734
 31
0.0
  0
LINE
  5
17DFB
330
747D
100
AcDbEntity
  8
部品1
100
AcDbLine
 10
9955.217145960238
 20
9665.515860842727
 30
0.0
 11
9980.217145960239
 21
9665.515860842731
 31
0.0
  0
LINE
  5
17DFC
330
747D
100
AcDbEntity
  8
部品1
100
AcDbLine
 10
9932.717145960239
 20
9691.515860842731
 30
0.0
 11
9932.717145960239
 21
9673.51586084273
 31
0.0
  0
LINE
  5
17DFD
330
747D
100
AcDbEntity
  8
部品1
100
AcDbLine
 10
9932.717145960239
 20
9691.515860842731
 30
0.0
 11
9938.717145960239
 21
9691.515860842731
 31
0.0
  0
LINE
  5
17DFE
330
747D
100
AcDbEntity
  8
部品1
100
AcDbLine
 10
10002.71714596024
 20
9691.515860842731
 30
0.0
 11
10002.71714596024
 21
9673.51586084273
 31
0.0
  0
LINE
  5
17DFF
330
747D
100
AcDbEntity
  8
部品1
100
AcDbLine
 10
9996.717145960239
 20
9691.515860842731
 30
0.0
 11
10002.71714596024
 21
9691.515860842731
 31
0.0
  0
LINE
  5
17E00
330
747D
100
AcDbEntity
  8
部品1
100
AcDbLine
 10
10177.7171459602
 20
9701.515860842597
 30
0.0
 11
10177.7171459602
 21
9673.515860842597
 31
0.0
  0
LINE
  5
17E01
330
747D
100
AcDbEntity
  8
部品1
100
AcDbLine
 10
10597.7171459602
 20
9701.515860842597
 30
0.0
 11
10597.7171459602
 21
9673.515860842597
 31
0.0
  0
LINE
  5
17E02
330
747D
100
AcDbEntity
  8
部品1
100
AcDbLine
 10
11017.7171459602
 20
9701.515860842597
 30
0.0
 11
11017.7171459602
 21
9673.515860842597
 31
0.0
  0
DIMENSION
  5
17E03
330
747D
100
AcDbEntity
  8
寸法
100
AcDbDimension
  2
*D19
 10
12492.71714596023
 20
7911.515860842715
 30
0.0
 11
12492.71714596023
 21
8806.51586084272
 31
0.0
 70
   160
 71
     5
 42
1790.000000000007
  3
INABA_S40G
100
AcDbAlignedDimension
 13
11492.71714596024
 23
9701.515860842723
 33
0.0
 14
11492.71714596021
 24
7911.515860842715
 34
0.0
 50
90.0
100
AcDbRotatedDimension
1001
ACAD
1000
DSTYLE
1002
{
1002
}
  0
LINE
  5
17E04
330
747D
100
AcDbEntity
  8
破線
 48
10.0
100
AcDbLine
 10
11412.71714596023
 20
9221.515860842727
 30
0.0
 11
11412.71714596024
 21
7991.515860842712
 31
0.0
  0
DIMENSION
  5
17E05
330
747D
100
AcDbEntity
  8
寸法
100
AcDbDimension
  2
*D20
 10
12192.71714596023
 20
7966.515860842711
 30
0.0
 11
12192.71714596023
 21
8806.51586084272
 31
0.0
 70
   160
  1
4X420=<>
 71
     5
 42
1680.000000000014
  3
INABA_S40G
100
AcDbAlignedDimension
 13
11492.71714596024
 23
9646.515860842725
 33
0.0
 14
11492.71714596021
 24
7966.515860842711
 34
0.0
 50
90.0
100
AcDbRotatedDimension
1001
ACAD
1000
DSTYLE
1002
{
1002
}
  0
LINE
  5
17E06
330
747D
100
AcDbEntity
  8
部品1
100
AcDbLine
 10
11492.71714596024
 20
9701.515860842723
 30
0.0
 11
11492.71714596021
 21
7911.515860842715
 31
0.0
  0
LINE
  5
17E07
330
747D
100
AcDbEntity
  8
部品1
100
AcDbLine
 10
11436.21714596023
 20
9221.515860842727
 30
0.0
 11
11436.21714596024
 21
7968.015860842716
 31
0.0
  0
LINE
  5
17E08
330
747D
100
AcDbEntity
  8
部品1
100
AcDbLine
 10
11464.71714596023
 20
9226.515860842727
 30
0.0
 11
11464.71714596021
 21
7939.515860842715
 31
0.0
  0
DIMENSION
  5
17E09
330
747D
100
AcDbEntity
  8
寸法
100
AcDbDimension
  2
*D21
 10
12192.71714596021
 20
7911.515860842715
 30
0.0
 11
12192.71714596021
 21
7603.030579468475
 31
0.0
 70
   160
 71
     5
 42
54.99999999999636
  3
INABA_S40G
100
AcDbAlignedDimension
 13
11492.71714596021
 23
7966.515860842711
 33
0.0
 14
11492.71714596021
 24
7911.515860842715
 34
0.0
 50
90.0
100
AcDbRotatedDimension
1001
ACAD
1000
DSTYLE
1002
{
1002
}
  0
LINE
  5
17E0A
330
747D
100
AcDbEntity
  8
部品1
100
AcDbLine
 10
11464.71714596021
 20
7966.515860842712
 30
0.0
 11
11492.71714596021
 21
7966.515860842712
 31
0.0
  0
LINE
  5
17E0B
330
747D
100
AcDbEntity
  8
部品1
100
AcDbLine
 10
11492.71714596021
 20
7911.515860842715
 30
0.0
 11
11441.71714596021
 21
7911.515860842715
 31
0.0
  0
LINE
  5
17E0C
330
747D
100
AcDbEntity
  8
部品1
 48
50.0
100
AcDbLine
 10
11436.21714596024
 20
7968.015860842716
 30
0.0
 11
11464.71714596024
 21
7939.515860842715
 31
0.0
  0
LINE
  5
17E0D
330
747D
100
AcDbEntity
  8
部品1
100
AcDbLine
 10
11492.71714596021
 20
7966.515860842712
 30
0.0
 11
11492.71714596021
 21
7911.515860842715
 31
0.0
  0
LINE
  5
17E0E
330
747D
100
AcDbEntity
  8
部品1
100
AcDbLine
 10
11464.71714596024
 20
7966.515860842712
 30
0.0
 11
11492.71714596024
 21
7966.515860842712
 31
0.0
  0
LINE
  5
17E0F
330
747D
100
AcDbEntity
  8
部品1
100
AcDbLine
 10
11437.71714596024
 20
7911.515860842715
 30
0.0
 11
11437.71714596024
 21
7939.515860842715
 31
0.0
  0
LINE
  5
17E10
330
747D
100
AcDbEntity
  8
部品1
100
AcDbLine
 10
11464.71714596024
 20
9673.515860842723
 30
0.0
 11
11464.71714596023
 21
9221.0158608426
 31
0.0
  0
LINE
  5
17E11
330
747D
100
AcDbEntity
  8
部品1
100
AcDbLine
 10
11464.21714596024
 20
9671.515860842724
 30
0.0
 11
11464.21714596024
 21
9221.515860842727
 31
0.0
  0
DIMENSION
  5
17E12
330
747D
100
AcDbEntity
  8
寸法
100
AcDbDimension
  2
*D22
 10
11892.71714596023
 20
9106.699631885991
 30
0.0
 11
11892.71714596023
 21
9331.699631885989
 31
0.0
 70
   160
 71
     5
 42
449.9999999999963
  3
INABA_S40G
100
AcDbAlignedDimension
 13
11464.21714596024
 23
9671.515860842724
 33
0.0
 14
11464.21714596024
 24
9221.515860842727
 34
0.0
 50
90.0
100
AcDbRotatedDimension
1001
ACAD
1000
DSTYLE
1002
{
1002
}
  0
LINE
  5
17E13
330
747D
100
AcDbEntity
  8
部品1
100
AcDbLine
 10
11464.71714596024
 20
8806.515860842727
 30
0.0
 11
11492.71714596024
 21
8806.515860842727
 31
0.0
  0
LINE
  5
17E14
330
747D
100
AcDbEntity
  8
部品1
100
AcDbLine
 10
11464.71714596024
 20
9226.515860842727
 30
0.0
 11
11492.71714596024
 21
9226.515860842727
 31
0.0
  0
DIMENSION
  5
17E15
330
747D
100
AcDbEntity
  8
寸法
100
AcDbDimension
  2
*D23
 10
11492.71714596024
 20
10201.51586084272
 30
0.0
 11
11801.20242733448
 21
10201.51586084272
 31
0.0
 70
   160
 71
     5
 42
55.0
  3
INABA_S40G
100
AcDbAlignedDimension
 13
11437.71714596024
 23
9701.515860842723
 33
0.0
 14
11492.71714596024
 24
9701.515860842723
 34
0.0
100
AcDbRotatedDimension
1001
ACAD
1000
DSTYLE
1002
{
1002
}
  0
DIMENSION
  5
17E16
330
747D
100
AcDbEntity
  8
寸法
100
AcDbDimension
  2
*D24
 10
12192.71714596024
 20
9646.515860842725
 30
0.0
 11
12192.71714596024
 21
10010.00114221696
 31
0.0
 70
   160
 71
     5
 42
54.99999999999636
  3
INABA_S40G
100
AcDbAlignedDimension
 13
11492.71714596024
 23
9701.515860842723
 33
0.0
 14
11492.71714596024
 24
9646.515860842725
 34
0.0
 50
90.0
100
AcDbRotatedDimension
1001
ACAD
1000
DSTYLE
1002
{
1002
}
  0
LINE
  5
17E17
330
747D
100
AcDbEntity
  8
部品1
100
AcDbLine
 10
11464.71714596024
 20
9646.515860842725
 30
0.0
 11
11492.71714596024
 21
9646.515860842725
 31
0.0
  0
LINE
  5
17E18
330
747D
100
AcDbEntity
  8
部品1
100
AcDbLine
 10
11437.71714596024
 20
9701.515860842745
 30
0.0
 11
11437.71714596024
 21
9673.515860842746
 31
0.0
  0
LINE
  5
17E19
330
747D
100
AcDbEntity
  8
部品1
100
AcDbLine
 10
11437.71714596024
 20
9701.515860842723
 30
0.0
 11
11437.71714596024
 21
9673.515860842723
 31
0.0
  0
MTEXT
  5
17E1B
330
747D
100
AcDbEntity
  8
寸法
 62
     7
 48
50.0
100
AcDbMText
 10
10737.81968305337
 20
9287.750679040033
 30
0.0
 40
96.0
 41
0.0
 71
     5
 72
     1
  1
棚 3段
  7
STYLE1
 73
     1
 44
1.0
1001
ACAD
1000
MTEXTBEGIN
1070
    73
1070
     1
1070
    44
1040
1.0
1070
    74
1070
     0
1000
MTEXTEND
  0
TEXT
  5
17E1C
330
747D
100
AcDbEntity
  8
文字
 62
     7
 48
50.0
100
AcDbText
 10
13209.4053442172
 20
243.236973410656
 30
0.0
 40
100.0
  1
○有効開口寸法 ： 1266×2025(mm)
  7
STYLE2
100
AcDbText
  0
TEXT
  5
17E1D
330
747D
100
AcDbEntity
  8
文字
 62
     7
 48
50.0
100
AcDbText
 10
14491.96323844892
 20
483.8967129911416
 30
0.0
 40
160.0
  1
ＮＸＮ－５５ＨＡ
  7
STYLE2
100
AcDbText
  0
TEXT
  5
17E1E
330
747D
100
AcDbEntity
  8
文字
 62
     7
 48
50.0
100
AcDbText
 10
14892.7563502105
 20
9740.013745883729
 30
0.0
 40
100.0
  1
F12  1.0(多雪地型2.3,1.6)
  7
STYLE1
100
AcDbText
  0
TEXT
  5
17E1F
330
747D
100
AcDbEntity
  8
文字
 62
     7
 48
50.0
100
AcDbText
 10
13248.77747366447
 20
8380.013745883733
 30
0.0
 40
100.0
  1
17
  7
STYLE1
100
AcDbText
  0
TEXT
  5
17E20
330
747D
100
AcDbEntity
  8
文字
 62
     7
 48
50.0
100
AcDbText
 10
13248.77747366447
 20
8550.013745883733
 30
0.0
 40
100.0
  1
16
  7
STYLE1
100
AcDbText
  0
TEXT
  5
17E21
330
747D
100
AcDbEntity
  8
文字
 62
     7
 48
50.0
100
AcDbText
 10
15022.63965474517
 20
9060.013745883729
 30
0.0
 40
100.0
  1
F12            1.0
  7
STYLE1
100
AcDbText
  0
TEXT
  5
17E22
330
747D
100
AcDbEntity
  8
文字
 62
     7
 48
50.0
100
AcDbText
 10
13583.11819016569
 20
9060.013745883736
 30
0.0
 40
100.0
  1
壁面扉枠左右
  7
STYLE1
100
AcDbText
  0
TEXT
  5
17E23
330
747D
100
AcDbEntity
  8
文字
 62
     7
 48
50.0
100
AcDbText
 10
15022.63965474517
 20
9230.013745883729
 30
0.0
 40
100.0
  1
F12            1.0
  7
STYLE1
100
AcDbText
  0
TEXT
  5
17E24
330
747D
100
AcDbEntity
  8
文字
 62
     7
 48
50.0
100
AcDbText
 10
15022.63965474515
 20
9400.013745883731
 30
0.0
 40
100.0
  1
F12            0.7
  7
STYLE1
100
AcDbText
  0
TEXT
  5
17E25
330
747D
100
AcDbEntity
  8
文字
 62
     7
 48
50.0
100
AcDbText
 10
13583.11819016569
 20
9230.013745883736
 30
0.0
 40
100.0
  1
壁面扉敷居
  7
STYLE1
100
AcDbText
  0
TEXT
  5
17E26
330
747D
100
AcDbEntity
  8
文字
 62
     7
 48
50.0
100
AcDbText
 10
13583.11819016569
 20
9400.013745883732
 30
0.0
 40
100.0
  1
壁面扉鴨居
  7
STYLE1
100
AcDbText
  0
LINE
  5
17E27
330
747D
100
AcDbEntity
  8
仕様書枠
 48
50.0
100
AcDbLine
 10
16307.19999999999
 20
8689.600000000007
 30
0.0
 11
13127.2
 21
8689.600000000011
 31
0.0
  0
LINE
  5
17E28
330
747D
100
AcDbEntity
  8
仕様書枠
 48
50.0
100
AcDbLine
 10
16307.19999999999
 20
8519.600000000009
 30
0.0
 11
13127.2
 21
8519.600000000009
 31
0.0
  0
TEXT
  5
17E29
330
747D
100
AcDbEntity
  8
文字
 62
     7
 48
50.0
100
AcDbText
 10
13583.11819016569
 20
8380.013745883733
 30
0.0
 40
100.0
  1
アンカープレート
  7
STYLE1
100
AcDbText
  0
TEXT
  5
17E2A
330
747D
100
AcDbEntity
  8
文字
 62
     7
 48
50.0
100
AcDbText
 10
15022.63965474515
 20
8380.013745883728
 30
0.0
 40
100.0
  1
F12            2.3
  7
STYLE1
100
AcDbText
  0
LINE
  5
17E2B
330
747D
100
AcDbEntity
  8
仕様書枠
 48
50.0
100
AcDbLine
 10
16307.2
 20
10049.6
 30
0.0
 11
13127.2
 21
10049.6
 31
0.0
  0
LINE
  5
17E2C
330
747D
100
AcDbEntity
  8
仕様書枠
 48
50.0
100
AcDbLine
 10
16307.2
 20
11409.6
 30
0.0
 11
13127.2
 21
11409.6
 31
0.0
  0
LINE
  5
17E2D
330
747D
100
AcDbEntity
  8
仕様書枠
 48
50.0
100
AcDbLine
 10
16307.19999999999
 20
8009.600000000007
 30
0.0
 11
16307.2
 21
11409.6
 31
0.0
  0
LINE
  5
17E2E
330
747D
100
AcDbEntity
  8
仕様書枠
 48
50.0
100
AcDbLine
 10
14785.2
 20
11409.6
 30
0.0
 11
14785.2
 21
8349.600000000007
 31
0.0
  0
LINE
  5
17E2F
330
747D
100
AcDbEntity
  8
仕様書枠
 48
50.0
100
AcDbLine
 10
13490.2
 20
11409.6
 30
0.0
 11
13490.20000000001
 21
8349.600000000009
 31
0.0
  0
LINE
  5
17E30
330
747D
100
AcDbEntity
  8
仕様書枠
 48
50.0
100
AcDbLine
 10
16307.2
 20
11239.6
 30
0.0
 11
13127.2
 21
11239.6
 31
0.0
  0
LINE
  5
17E31
330
747D
100
AcDbEntity
  8
仕様書枠
 48
50.0
100
AcDbLine
 10
16307.2
 20
10899.6
 30
0.0
 11
13127.2
 21
10899.6
 31
0.0
  0
LINE
  5
17E32
330
747D
100
AcDbEntity
  8
仕様書枠
 48
50.0
100
AcDbLine
 10
16307.2
 20
11069.6
 30
0.0
 11
13127.2
 21
11069.6
 31
0.0
  0
LINE
  5
17E33
330
747D
100
AcDbEntity
  8
仕様書枠
 48
50.0
100
AcDbLine
 10
16307.19999999999
 20
10559.6
 30
0.0
 11
13127.2
 21
10559.6
 31
0.0
  0
LINE
  5
17E34
330
747D
100
AcDbEntity
  8
仕様書枠
 48
50.0
100
AcDbLine
 10
16307.19999999999
 20
10389.6
 30
0.0
 11
13127.2
 21
10389.6
 31
0.0
  0
LINE
  5
17E35
330
747D
100
AcDbEntity
  8
仕様書枠
 48
50.0
100
AcDbLine
 10
16307.19999999999
 20
10729.6
 30
0.0
 11
13127.2
 21
10729.6
 31
0.0
  0
TEXT
  5
17E36
330
747D
100
AcDbEntity
  8
文字
 62
     7
 48
50.0
100
AcDbText
 10
13197.42518560407
 20
11270.01374588373
 30
0.0
 40
100.0
  1
品番
  7
STYLE1
100
AcDbText
  0
TEXT
  5
17E37
330
747D
100
AcDbEntity
  8
文字
 62
     7
 48
50.0
100
AcDbText
 10
13271.19032244792
 20
11100.01374588373
 30
0.0
 40
100.0
  1
1
  7
STYLE1
100
AcDbText
  0
TEXT
  5
17E38
330
747D
100
AcDbEntity
  8
文字
 62
     7
 48
50.0
100
AcDbText
 10
13271.19032244792
 20
10930.01374588373
 30
0.0
 40
100.0
  1
2
  7
STYLE1
100
AcDbText
  0
TEXT
  5
17E39
330
747D
100
AcDbEntity
  8
文字
 62
     7
 48
50.0
100
AcDbText
 10
13271.19032244792
 20
10590.01374588373
 30
0.0
 40
100.0
  1
4
  7
STYLE1
100
AcDbText
  0
TEXT
  5
17E3A
330
747D
100
AcDbEntity
  8
文字
 62
     7
 48
50.0
100
AcDbText
 10
13271.19032244792
 20
10760.01374588373
 30
0.0
 40
100.0
  1
3
  7
STYLE1
100
AcDbText
  0
TEXT
  5
17E3B
330
747D
100
AcDbEntity
  8
文字
 62
     7
 48
50.0
100
AcDbText
 10
13732.03840939434
 20
11270.01374588373
 30
0.0
 40
100.0
  1
部　　品　　名
  7
STYLE1
100
AcDbText
  0
TEXT
  5
17E3C
330
747D
100
AcDbEntity
  8
文字
 62
     7
 48
50.0
100
AcDbText
 10
14859.79774614482
 20
11270.01374588373
 30
0.0
 40
100.0
  1
材料（材質）　　単位mm
  7
STYLE1
100
AcDbText
  0
TEXT
  5
17E3D
330
747D
100
AcDbEntity
  8
文字
 62
     7
 48
50.0
100
AcDbText
 10
13583.11819016569
 20
11100.01374588373
 30
0.0
 40
100.0
  1
土台枠
  7
STYLE1
100
AcDbText
  0
TEXT
  5
17E3E
330
747D
100
AcDbEntity
  8
文字
 62
     7
 48
50.0
100
AcDbText
 10
13583.1181901657
 20
10760.01374588373
 30
0.0
 40
100.0
  1
柱
  7
STYLE1
100
AcDbText
  0
TEXT
  5
17E3F
330
747D
100
AcDbEntity
  8
文字
 62
     7
 48
50.0
100
AcDbText
 10
13583.11819016569
 20
10420.01374588373
 30
0.0
 40
100.0
  1
桁前後
  7
STYLE1
100
AcDbText
  0
TEXT
  5
17E40
330
747D
100
AcDbEntity
  8
文字
 62
     7
 48
50.0
100
AcDbText
 10
13271.19032244792
 20
10420.01374588373
 30
0.0
 40
100.0
  1
5
  7
STYLE1
100
AcDbText
  0
TEXT
  5
17E41
330
747D
100
AcDbEntity
  8
文字
 62
     7
 48
50.0
100
AcDbText
 10
13583.11819016569
 20
10250.01374588373
 30
0.0
 40
100.0
  1
妻板左右
  7
STYLE1
100
AcDbText
  0
TEXT
  5
17E42
330
747D
100
AcDbEntity
  8
文字
 62
     7
 48
50.0
100
AcDbText
 10
13248.77747366447
 20
9570.013745883731
 30
0.0
 40
100.0
  1
10
  7
STYLE1
100
AcDbText
  0
TEXT
  5
17E43
330
747D
100
AcDbEntity
  8
文字
 62
     7
 48
50.0
100
AcDbText
 10
13583.11819016568
 20
9570.013745883732
 30
0.0
 40
100.0
  1
壁パネル
  7
STYLE1
100
AcDbText
  0
TEXT
  5
17E44
330
747D
100
AcDbEntity
  8
文字
 62
     7
 48
50.0
100
AcDbText
 10
13583.11819016569
 20
9910.01374588373
 30
0.0
 40
100.0
  1
屋根パネル
  7
STYLE1
100
AcDbText
  0
TEXT
  5
17E45
330
747D
100
AcDbEntity
  8
文字
 62
     7
 48
50.0
100
AcDbText
 10
13583.11819016569
 20
10080.01374588373
 30
0.0
 40
100.0
  1
鼻隠シ前後
  7
STYLE1
100
AcDbText
  0
TEXT
  5
17E46
330
747D
100
AcDbEntity
  8
文字
 62
     7
 48
50.0
100
AcDbText
 10
13271.19032244792
 20
9910.013745883732
 30
0.0
 40
100.0
  1
8
  7
STYLE1
100
AcDbText
  0
TEXT
  5
17E47
330
747D
100
AcDbEntity
  8
文字
 62
     7
 48
50.0
100
AcDbText
 10
13271.19032244792
 20
9740.013745883732
 30
0.0
 40
100.0
  1
9
  7
STYLE1
100
AcDbText
  0
TEXT
  5
17E48
330
747D
100
AcDbEntity
  8
文字
 62
     7
 48
50.0
100
AcDbText
 10
13271.19032244792
 20
10080.01374588373
 30
0.0
 40
100.0
  1
7
  7
STYLE1
100
AcDbText
  0
TEXT
  5
17E49
330
747D
100
AcDbEntity
  8
文字
 62
     7
 48
50.0
100
AcDbText
 10
13271.19032244792
 20
10250.01374588373
 30
0.0
 40
100.0
  1
6
  7
STYLE1
100
AcDbText
  0
LINE
  5
17E4A
330
747D
100
AcDbEntity
  8
仕様書枠
 48
50.0
100
AcDbLine
 10
16307.19999999999
 20
9709.600000000001
 30
0.0
 11
13127.2
 21
9709.600000000005
 31
0.0
  0
LINE
  5
17E4B
330
747D
100
AcDbEntity
  8
仕様書枠
 48
50.0
100
AcDbLine
 10
16307.19999999999
 20
9369.600000000003
 30
0.0
 11
13127.2
 21
9369.600000000003
 31
0.0
  0
LINE
  5
17E4C
330
747D
100
AcDbEntity
  8
仕様書枠
 48
50.0
100
AcDbLine
 10
16307.19999999999
 20
9539.600000000003
 30
0.0
 11
13127.2
 21
9539.600000000005
 31
0.0
  0
LINE
  5
17E4D
330
747D
100
AcDbEntity
  8
仕様書枠
 48
50.0
100
AcDbLine
 10
16307.2
 20
10219.6
 30
0.0
 11
13127.2
 21
10219.6
 31
0.0
  0
LINE
  5
17E4E
330
747D
100
AcDbEntity
  8
仕様書枠
 48
50.0
100
AcDbLine
 10
16307.2
 20
9879.600000000003
 30
0.0
 11
13127.2
 21
9879.600000000005
 31
0.0
  0
TEXT
  5
17E4F
330
747D
100
AcDbEntity
  8
文字
 62
     7
 48
50.0
100
AcDbText
 10
13248.77747366447
 20
9400.013745883731
 30
0.0
 40
100.0
  1
11
  7
STYLE1
100
AcDbText
  0
LINE
  5
17E50
330
747D
100
AcDbEntity
  8
仕様書枠
 48
50.0
100
AcDbLine
 10
16307.19999999999
 20
9199.600000000001
 30
0.0
 11
13127.2
 21
9199.600000000003
 31
0.0
  0
LINE
  5
17E51
330
747D
100
AcDbEntity
  8
仕様書枠
 48
50.0
100
AcDbLine
 10
16307.19999999999
 20
8859.600000000005
 30
0.0
 11
13127.2
 21
8859.600000000005
 31
0.0
  0
TEXT
  5
17E52
330
747D
100
AcDbEntity
  8
文字
 62
     7
 48
50.0
100
AcDbText
 10
13248.77747366448
 20
9060.013745883731
 30
0.0
 40
100.0
  1
13
  7
STYLE1
100
AcDbText
  0
TEXT
  5
17E53
330
747D
100
AcDbEntity
  8
文字
 62
     7
 48
50.0
100
AcDbText
 10
13248.77747366448
 20
9230.013745883731
 30
0.0
 40
100.0
  1
12
  7
STYLE1
100
AcDbText
  0
TEXT
  5
17E54
330
747D
100
AcDbEntity
  8
文字
 62
     7
 48
50.0
100
AcDbText
 10
15022.63965474517
 20
11100.01374588373
 30
0.0
 40
100.0
  1
F12            1.2
  7
STYLE1
100
AcDbText
  0
TEXT
  5
17E55
330
747D
100
AcDbEntity
  8
文字
 62
     7
 48
50.0
100
AcDbText
 10
15022.63965474518
 20
10760.01374588373
 30
0.0
 40
100.0
  1
F12            1.0
  7
STYLE1
100
AcDbText
  0
TEXT
  5
17E56
330
747D
100
AcDbEntity
  8
文字
 62
     7
 48
50.0
100
AcDbText
 10
15022.63965474516
 20
10420.01374588373
 30
0.0
 40
100.0
  1
Y10            1.0
  7
STYLE1
100
AcDbText
  0
TEXT
  5
17E57
330
747D
100
AcDbEntity
  8
文字
 62
     7
 48
50.0
100
AcDbText
 10
15022.63965474516
 20
10250.01374588373
 30
0.0
 40
100.0
  1
Y10            0.7
  7
STYLE1
100
AcDbText
  0
TEXT
  5
17E58
330
747D
100
AcDbEntity
  8
文字
 62
     7
 48
50.0
100
AcDbText
 10
15022.63965474516
 20
10080.01374588373
 30
0.0
 40
100.0
  1
Y10            0.7
  7
STYLE1
100
AcDbText
  0
TEXT
  5
17E59
330
747D
100
AcDbEntity
  8
文字
 62
     7
 48
50.0
100
AcDbText
 10
15022.63965474517
 20
9910.01374588373
 30
0.0
 40
100.0
  1
Y10            0.5
  7
STYLE1
100
AcDbText
  0
TEXT
  5
17E5A
330
747D
100
AcDbEntity
  8
文字
 62
     7
 48
50.0
100
AcDbText
 10
15022.63965474515
 20
9570.013745883729
 30
0.0
 40
100.0
  1
F12            0.7
  7
STYLE1
100
AcDbText
  0
LINE
  5
17E5B
330
747D
100
AcDbEntity
  8
仕様書枠
 48
50.0
100
AcDbLine
 10
16307.19999999999
 20
8349.600000000007
 30
0.0
 11
13127.19999999999
 21
8349.600000000009
 31
0.0
  0
LINE
  5
17E5C
330
747D
100
AcDbEntity
  8
仕様書枠
 48
50.0
100
AcDbLine
 10
16307.19999999999
 20
8179.600000000007
 30
0.0
 11
13127.19999999999
 21
8179.600000000009
 31
0.0
  0
TEXT
  5
17E5D
330
747D
100
AcDbEntity
  8
文字
 62
     7
 48
50.0
100
AcDbText
 10
13229.83081656554
 20
8210.013745883737
 30
0.0
 40
100.0
  1
F12→溶融亜鉛めっき鋼板(JIS G 3302)
  7
STYLE1
100
AcDbText
  0
TEXT
  5
17E5E
330
747D
100
AcDbEntity
  8
文字
 62
     7
 48
50.0
100
AcDbText
 10
13229.83081656554
 20
8040.013745883737
 30
0.0
 40
100.0
  1
Y10→溶融亜鉛-5％アルミニウム合金めっき鋼板(JIS G 3317)
 41
0.9
  7
STYLE1
100
AcDbText
  0
LINE
  5
17E5F
330
747D
100
AcDbEntity
  8
仕様書枠
 48
50.0
100
AcDbLine
 10
13127.2
 20
11409.6
 30
0.0
 11
13127.19999999999
 21
8009.600000000011
 31
0.0
  0
LINE
  5
17E60
330
747D
100
AcDbEntity
  8
仕様書枠
 48
50.0
100
AcDbLine
 10
16307.19999999999
 20
9029.600000000003
 30
0.0
 11
13127.2
 21
9029.600000000007
 31
0.0
  0
TEXT
  5
17E61
330
747D
100
AcDbEntity
  8
文字
 62
     7
 48
50.0
100
AcDbText
 10
13583.1181901657
 20
10590.01374588373
 30
0.0
 40
100.0
  1
床パネル
 41
0.9
  7
STYLE1
100
AcDbText
  0
TEXT
  5
17E62
330
747D
100
AcDbEntity
  8
文字
 62
     7
 48
50.0
100
AcDbText
 10
13583.11819016569
 20
10930.01374588373
 30
0.0
 40
100.0
  1
根太
  7
STYLE1
100
AcDbText
  0
TEXT
  5
17E63
330
747D
100
AcDbEntity
  8
文字
 62
     7
 48
50.0
100
AcDbText
 10
13248.77747366448
 20
8890.013745883731
 30
0.0
 40
100.0
  1
14
  7
STYLE1
100
AcDbText
  0
TEXT
  5
17E64
330
747D
100
AcDbEntity
  8
文字
 62
     7
 48
50.0
100
AcDbText
 10
15022.63965474516
 20
10930.01374588373
 30
0.0
 40
100.0
  1
F12            1.2
  7
STYLE1
100
AcDbText
  0
TEXT
  5
17E65
330
747D
100
AcDbEntity
  8
文字
 62
     7
 48
50.0
100
AcDbText
 10
15022.63965474517
 20
10590.01374588373
 30
0.0
 40
100.0
  1
F12            1.0
  7
STYLE1
100
AcDbText
  0
TEXT
  5
17E66
330
747D
100
AcDbEntity
  8
文字
 62
     7
 48
50.0
100
AcDbText
 10
15022.63965474515
 20
8890.013745883731
 30
0.0
 40
100.0
  1
F12            0.7
  7
STYLE1
100
AcDbText
  0
TEXT
  5
17E67
330
747D
100
AcDbEntity
  8
文字
 62
     7
 48
50.0
100
AcDbText
 10
13583.11819016568
 20
8890.013745883734
 30
0.0
 40
100.0
  1
正面パネル
  7
STYLE1
100
AcDbText
  0
TEXT
  5
17E68
330
747D
100
AcDbEntity
  8
文字
 62
     7
 48
50.0
100
AcDbText
 10
15022.63965474516
 20
8720.013745883731
 30
0.0
 40
100.0
  1
F12            0.8
  7
STYLE1
100
AcDbText
  0
TEXT
  5
17E69
330
747D
100
AcDbEntity
  8
文字
 62
     7
 48
50.0
100
AcDbText
 10
13583.11819016569
 20
8720.013745883735
 30
0.0
 40
100.0
  1
扉
  7
STYLE1
100
AcDbText
  0
LINE
  5
17E6A
330
747D
100
AcDbEntity
  8
仕様書枠
 48
50.0
100
AcDbLine
 10
16307.19999999999
 20
8009.600000000007
 30
0.0
 11
13127.19999999999
 21
8009.600000000011
 31
0.0
  0
TEXT
  5
17E6B
330
747D
100
AcDbEntity
  8
文字
 62
     7
 48
50.0
100
AcDbText
 10
13248.77747366447
 20
8720.013745883733
 30
0.0
 40
100.0
  1
15
  7
STYLE1
100
AcDbText
  0
TEXT
  5
17E6C
330
747D
100
AcDbEntity
  8
文字
 62
     7
 48
50.0
100
AcDbText
 10
13583.11819016569
 20
9740.013745883731
 30
0.0
 40
100.0
  1
母屋中
  7
STYLE1
100
AcDbText
  0
TEXT
  5
17E6D
330
747D
100
AcDbEntity
  8
文字
 62
     7
 48
50.0
100
AcDbText
 10
15022.63965474516
 20
8550.013745883731
 30
0.0
 40
100.0
  1
F12            0.6
  7
STYLE1
100
AcDbText
  0
TEXT
  5
17E6E
330
747D
100
AcDbEntity
  8
文字
 62
     7
 48
50.0
100
AcDbText
 10
13583.11819016569
 20
8550.013745883735
 30
0.0
 40
100.0
  1
棚板
  7
STYLE1
100
AcDbText
  0
LINE
  5
17F3C
330
747D
100
AcDbEntity
  8
部品1
 48
50.0
100
AcDbLine
 10
11044.71714596023
 20
4646.644648948026
 30
0.0
 11
8890.71714596023
 21
4646.644648948026
 31
0.0
  0
LINE
  5
17F3D
330
747D
100
AcDbEntity
  8
細線
 48
50.0
100
AcDbLine
 10
11044.71714596023
 20
4636.644648948026
 30
0.0
 11
8890.71714596023
 21
4636.644648948026
 31
0.0
  0
LINE
  5
17F3E
330
747D
100
AcDbEntity
  8
細線
 48
50.0
100
AcDbLine
 10
11014.71714596023
 20
4594.644648948025
 30
0.0
 11
8920.71714596023
 21
4594.644648948025
 31
0.0
  0
LINE
  5
17F3F
330
747D
100
AcDbEntity
  8
細線
 48
50.0
100
AcDbLine
 10
11014.71714596023
 20
4604.144648948025
 30
0.0
 11
8920.71714596023
 21
4604.144648948025
 31
0.0
  0
LINE
  5
17F40
330
747D
100
AcDbEntity
  8
部品1
 48
50.0
100
AcDbLine
 10
8890.71714596023
 20
2511.644648948026
 30
0.0
 11
11044.71714596023
 21
2511.644648948026
 31
0.0
  0
LINE
  5
17F41
330
747D
100
AcDbEntity
  8
細線
 48
50.0
100
AcDbLine
 10
8920.71714596023
 20
2554.644648948026
 30
0.0
 11
11014.71714596023
 21
2554.644648948026
 31
0.0
  0
LINE
  5
17F42
330
747D
100
AcDbEntity
  8
細線
 48
50.0
100
AcDbLine
 10
8920.71714596023
 20
2558.644648948026
 30
0.0
 11
11014.71714596023
 21
2558.644648948026
 31
0.0
  0
LINE
  5
17F43
330
747D
100
AcDbEntity
  8
細線
 48
50.0
100
AcDbLine
 10
9724.717145960227
 20
2569.144648948026
 30
0.0
 11
10988.71714596023
 21
2569.144648948026
 31
0.0
  0
LINE
  5
17F44
330
747D
100
AcDbEntity
  8
部品1
 48
50.0
100
AcDbLine
 10
8920.71714596023
 20
2561.644648948026
 30
0.0
 11
8920.71714596023
 21
4594.644648948025
 31
0.0
  0
LINE
  5
17F45
330
747D
100
AcDbEntity
  8
細線
 48
50.0
100
AcDbLine
 10
8920.71714596023
 20
4604.144648948025
 30
0.0
 11
8920.71714596023
 21
2511.644648948026
 31
0.0
  0
LINE
  5
17F46
330
747D
100
AcDbEntity
  8
部品1
 48
50.0
100
AcDbLine
 10
8890.71714596023
 20
4646.644648948026
 30
0.0
 11
8890.71714596023
 21
2511.644648948026
 31
0.0
  0
LINE
  5
17F47
330
747D
100
AcDbEntity
  8
部品1
 48
50.0
100
AcDbLine
 10
9724.717145960227
 20
4594.644648972793
 30
0.0
 11
9724.717145960227
 21
2561.644648972793
 31
0.0
  0
LINE
  5
17F48
330
747D
100
AcDbEntity
  8
部品1
 48
50.0
100
AcDbLine
 10
8920.71714596023
 20
2561.644648948026
 30
0.0
 11
9724.717145960227
 21
2561.644648948022
 31
0.0
  0
LINE
  5
17F49
330
747D
100
AcDbEntity
  8
部品1
 48
50.0
100
AcDbLine
 10
8929.71714596023
 20
2561.644648948026
 30
0.0
 11
8929.71714596023
 21
2558.644648948026
 31
0.0
  0
LINE
  5
17F4A
330
747D
100
AcDbEntity
  8
部品1
 48
50.0
100
AcDbLine
 10
8917.71714596023
 20
4646.644648948026
 30
0.0
 11
8917.71714596023
 21
4651.644648948026
 31
0.0
  0
LINE
  5
17F4B
330
747D
100
AcDbEntity
  8
部品1
 48
50.0
100
AcDbLine
 10
8920.71714596023
 20
4602.644648948025
 30
0.0
 11
8890.71714596023
 21
4602.644648948025
 31
0.0
  0
LINE
  5
17F4C
330
747D
100
AcDbEntity
  8
部品1
 48
50.0
100
AcDbLine
 10
11005.71714596023
 20
2558.644648948026
 30
0.0
 11
11005.71714596023
 21
4594.644648948025
 31
0.0
  0
LINE
  5
17F4D
330
747D
100
AcDbEntity
  8
細線
 48
50.0
100
AcDbLine
 10
11014.71714596023
 20
2511.644648948026
 30
0.0
 11
11014.71714596023
 21
4604.144648948025
 31
0.0
  0
LINE
  5
17F4E
330
747D
100
AcDbEntity
  8
部品1
 48
50.0
100
AcDbLine
 10
11044.71714596023
 20
2511.644648948026
 30
0.0
 11
11044.71714596023
 21
4646.644648948026
 31
0.0
  0
LINE
  5
17F4F
330
747D
100
AcDbEntity
  8
部品1
 48
50.0
100
AcDbLine
 10
10378.71713626509
 20
4594.644648985172
 30
0.0
 11
10378.71713626509
 21
2569.144648985173
 31
0.0
  0
LINE
  5
17F50
330
747D
100
AcDbEntity
  8
細線
 48
50.0
100
AcDbLine
 10
10992.71714596023
 20
2558.644648948026
 30
0.0
 11
10988.71714596023
 21
2569.144648948026
 31
0.0
  0
LINE
  5
17F51
330
747D
100
AcDbEntity
  8
部品1
 48
50.0
100
AcDbLine
 10
11017.71714596023
 20
4646.644648948026
 30
0.0
 11
11017.71714596023
 21
4651.644648948026
 31
0.0
  0
LINE
  5
17F52
330
747D
100
AcDbEntity
  8
部品1
 48
50.0
100
AcDbLine
 10
11044.71714596023
 20
4602.644648948025
 30
0.0
 11
11014.71714596023
 21
4602.644648948025
 31
0.0
  0
LINE
  5
17F53
330
747D
100
AcDbEntity
  8
細線
100
AcDbLine
 10
10501.46714596023
 20
4594.644648948025
 30
0.0
 11
10501.46714596023
 21
2569.144648948044
 31
0.0
  0
LINE
  5
17F54
330
747D
100
AcDbEntity
  8
細線
100
AcDbLine
 10
9786.217155710472
 20
4594.644648948025
 30
0.0
 11
9786.217155710472
 21
2569.144648948037
 31
0.0
  0
LINE
  5
17F55
330
747D
100
AcDbEntity
  8
細線
100
AcDbLine
 10
9856.217155710472
 20
4594.644648948025
 30
0.0
 11
9856.217155710472
 21
2569.144648948037
 31
0.0
  0
LINE
  5
17F56
330
747D
100
AcDbEntity
  8
細線
100
AcDbLine
 10
9134.71714596023
 20
4594.644648948025
 30
0.0
 11
9134.717145960227
 21
2561.64464894803
 31
0.0
  0
LINE
  5
17F57
330
747D
100
AcDbEntity
  8
細線
100
AcDbLine
 10
9204.717145960231
 20
4594.644648948025
 30
0.0
 11
9204.717145960227
 21
2561.64464894803
 31
0.0
  0
LINE
  5
17F58
330
747D
100
AcDbEntity
  8
細線
100
AcDbLine
 10
10571.46714596023
 20
4594.644648948025
 30
0.0
 11
10571.46714596023
 21
2569.144648948044
 31
0.0
  0
LINE
  5
17F59
330
747D
100
AcDbEntity
  8
細線
100
AcDbLine
 10
10641.46714596023
 20
4594.644648948025
 30
0.0
 11
10641.46714596023
 21
2569.144648948044
 31
0.0
  0
LINE
  5
17F5A
330
747D
100
AcDbEntity
  8
細線
100
AcDbLine
 10
10711.46714596023
 20
4594.644648948025
 30
0.0
 11
10711.46714596023
 21
2569.144648948044
 31
0.0
  0
LINE
  5
17F5B
330
747D
100
AcDbEntity
  8
細線
100
AcDbLine
 10
10781.46714596023
 20
4594.644648948025
 30
0.0
 11
10781.46714596023
 21
2569.144648948044
 31
0.0
  0
LINE
  5
17F5C
330
747D
100
AcDbEntity
  8
細線
100
AcDbLine
 10
10851.46714596023
 20
4594.644648948025
 30
0.0
 11
10851.46714596023
 21
2569.144648948044
 31
0.0
  0
LINE
  5
17F5D
330
747D
100
AcDbEntity
  8
細線
100
AcDbLine
 10
9926.217155710473
 20
4594.644648948025
 30
0.0
 11
9926.217155710473
 21
2569.144648948037
 31
0.0
  0
LINE
  5
17F5E
330
747D
100
AcDbEntity
  8
細線
100
AcDbLine
 10
9996.217155710473
 20
4594.644648948025
 30
0.0
 11
9996.217155710473
 21
2569.144648948037
 31
0.0
  0
LINE
  5
17F5F
330
747D
100
AcDbEntity
  8
細線
100
AcDbLine
 10
10066.21715571047
 20
4594.644648948025
 30
0.0
 11
10066.21715571047
 21
2569.144648948037
 31
0.0
  0
LINE
  5
17F60
330
747D
100
AcDbEntity
  8
細線
100
AcDbLine
 10
10136.21715571047
 20
4594.644648948025
 30
0.0
 11
10136.21715571047
 21
2569.144648948037
 31
0.0
  0
LINE
  5
17F61
330
747D
100
AcDbEntity
  8
細線
100
AcDbLine
 10
10206.21715571047
 20
4594.644648948025
 30
0.0
 11
10206.21715571047
 21
2569.144648948037
 31
0.0
  0
LINE
  5
17F62
330
747D
100
AcDbEntity
  8
細線
100
AcDbLine
 10
10276.21715571047
 20
4594.644648948025
 30
0.0
 11
10276.21715571047
 21
2569.144648948037
 31
0.0
  0
LINE
  5
17F63
330
747D
100
AcDbEntity
  8
細線
100
AcDbLine
 10
9048.717145960226
 20
4594.644648948025
 30
0.0
 11
9048.71714596023
 21
2561.64464894803
 31
0.0
  0
LINE
  5
17F64
330
747D
100
AcDbEntity
  8
細線
100
AcDbLine
 10
9082.717145960227
 20
4594.644648948025
 30
0.0
 11
9082.717145960231
 21
2561.64464894803
 31
0.0
  0
LINE
  5
17F65
330
747D
100
AcDbEntity
  8
部品1
100
AcDbLine
 10
9040.717145960227
 20
4594.644648948025
 30
0.0
 11
9040.717145960231
 21
2561.64464894803
 31
0.0
  0
LINE
  5
17F66
330
747D
100
AcDbEntity
  8
部品1
100
AcDbLine
 10
9090.717145960226
 20
4594.644648948025
 30
0.0
 11
9090.717145960232
 21
2561.64464894803
 31
0.0
  0
LINE
  5
17F67
330
747D
100
AcDbEntity
  8
細線
100
AcDbLine
 10
9274.717145960231
 20
4594.644648948025
 30
0.0
 11
9274.717145960227
 21
2561.64464894803
 31
0.0
  0
LINE
  5
17F68
330
747D
100
AcDbEntity
  8
細線
100
AcDbLine
 10
9344.717145960229
 20
4594.644648948025
 30
0.0
 11
9344.717145960228
 21
2561.64464894803
 31
0.0
  0
LINE
  5
17F69
330
747D
100
AcDbEntity
  8
細線
100
AcDbLine
 10
9414.71714596023
 20
4594.644648948025
 30
0.0
 11
9414.717145960228
 21
2561.64464894803
 31
0.0
  0
LINE
  5
17F6A
330
747D
100
AcDbEntity
  8
細線
100
AcDbLine
 10
9484.71714596023
 20
4594.644648948025
 30
0.0
 11
9484.717145960226
 21
2561.64464894803
 31
0.0
  0
LINE
  5
17F6B
330
747D
100
AcDbEntity
  8
細線
100
AcDbLine
 10
9554.71714596023
 20
4594.644648948025
 30
0.0
 11
9554.717145960227
 21
2561.644648948033
 31
0.0
  0
LINE
  5
17F6C
330
747D
100
AcDbEntity
  8
細線
100
AcDbLine
 10
9624.717145960232
 20
4594.644648948025
 30
0.0
 11
9624.717145960227
 21
2561.644648948033
 31
0.0
  0
LINE
  5
17F6D
330
747D
100
AcDbEntity
  8
部品1
100
AcDbLine
 10
10378.71713626508
 20
4594.644648985177
 30
0.0
 11
10378.71713626509
 21
2569.144648985192
 31
0.0
  0
LINE
  5
17F6E
330
747D
100
AcDbEntity
  8
部品1
 48
50.0
100
AcDbLine
 10
9724.717145960227
 20
4594.644648972793
 30
0.0
 11
9724.717145960227
 21
2561.644648948022
 31
0.0
  0
MTEXT
  5
17F6F
330
747D
100
AcDbEntity
  8
寸法
 62
     7
 48
50.0
100
AcDbMText
 10
9227.819683053342
 20
9287.750679040009
 30
0.0
 40
96.0
 41
0.0
 71
     5
 72
     1
  1
棚 3段
  7
STYLE1
 73
     1
 44
1.0
1001
ACAD
1000
MTEXTBEGIN
1070
    73
1070
     1
1070
    44
1040
1.0
1070
    74
1070
     0
1000
MTEXTEND
  0
DIMENSION
  5
17F70
330
747D
100
AcDbEntity
  8
寸法
 48
50.0
100
AcDbDimension
  2
*D25
 10
8442.71714596023
 20
5285.737818287498
 30
0.0
 11
9967.717145960229
 21
5285.737818287498
 31
0.0
 70
   160
  1
柱外寸法<>
 71
     5
 42
3049.999999999997
  3
INABA_S40G
100
AcDbAlignedDimension
 13
11492.71714596022
 23
4886.644648948031
 33
0.0
 14
8442.71714596023
 24
4886.644648948032
 34
0.0
100
AcDbRotatedDimension
  0
DIMENSION
  5
17F71
330
747D
100
AcDbEntity
  8
寸法
 48
50.0
100
AcDbDimension
  2
*D26
 10
11542.71714596023
 20
5502.263917905945
 30
0.0
 11
9967.717145960229
 21
5502.263917905945
 31
0.0
 70
   160
 71
     5
 42
3149.999999999997
  3
INABA_S40G
100
AcDbAlignedDimension
 13
8392.717145960231
 23
4886.644648948031
 33
0.0
 14
11542.71714596023
 24
4886.644648948029
 34
0.0
100
AcDbRotatedDimension
  0
DIMENSION
  5
17F72
330
747D
100
AcDbEntity
  8
寸法
 48
50.0
100
AcDbDimension
  2
*D27
 10
8392.717145960231
 20
5285.737818287499
 30
0.0
 11
8079.231864585983
 21
5285.737818287499
 31
0.0
 70
   160
 71
     5
 42
50.0
  3
INABA_S40G
100
AcDbAlignedDimension
 13
8442.71714596023
 23
4886.644648948032
 33
0.0
 14
8392.717145960231
 24
4886.644648948031
 34
0.0
100
AcDbRotatedDimension
1001
ACAD
1000
DSTYLE
1002
{
1002
}
  0
LINE
  5
17F73
330
747D
100
AcDbEntity
  8
部品1
100
AcDbLine
 10
9605.717145960246
 20
4881.644648956495
 30
0.0
 11
9605.717145960248
 21
4784.233581447923
 31
0.0
  0
LINE
  5
17F74
330
747D
100
AcDbEntity
  8
部品1
100
AcDbLine
 10
9580.717145960246
 20
4881.644648956495
 30
0.0
 11
9580.717145960248
 21
4784.233581447923
 31
0.0
  0
LINE
  5
17F75
330
747D
100
AcDbEntity
  8
部品1
 48
50.0
100
AcDbLine
 10
9579.217145960239
 20
4881.644648956498
 30
0.0
 11
9607.217145960234
 21
4881.644648956498
 31
0.0
  0
LINE
  5
17F76
330
747D
100
AcDbEntity
  8
部品1
 48
50.0
100
AcDbLine
 10
9607.217145960238
 20
4881.644648956498
 30
0.0
 11
9617.717145960238
 21
4862.244648956497
 31
0.0
  0
LINE
  5
17F77
330
747D
100
AcDbEntity
  8
部品1
 48
50.0
100
AcDbLine
 10
9579.217145960239
 20
4881.644648956498
 30
0.0
 11
9568.717145960238
 21
4862.244648956497
 31
0.0
  0
LINE
  5
17F78
330
747D
100
AcDbEntity
  8
部品1
 48
50.0
100
AcDbLine
 10
9506.217145960238
 20
4881.644648956498
 30
0.0
 11
9534.217145960234
 21
4881.644648956498
 31
0.0
  0
LINE
  5
17F79
330
747D
100
AcDbEntity
  8
部品1
100
AcDbLine
 10
9507.717145960246
 20
4881.644648956495
 30
0.0
 11
9507.717145960246
 21
4784.233581447923
 31
0.0
  0
LINE
  5
17F7A
330
747D
100
AcDbEntity
  8
部品1
 48
50.0
100
AcDbLine
 10
9506.217145960238
 20
4881.644648956498
 30
0.0
 11
9495.717145960238
 21
4862.244648956497
 31
0.0
  0
LINE
  5
17F7B
330
747D
100
AcDbEntity
  8
部品1
100
AcDbLine
 10
9532.717145960246
 20
4881.644648956495
 30
0.0
 11
9532.717145960246
 21
4784.233581447923
 31
0.0
  0
LINE
  5
17F7C
330
747D
100
AcDbEntity
  8
部品1
 48
50.0
100
AcDbLine
 10
9534.217145960239
 20
4881.644648956498
 30
0.0
 11
9544.717145960238
 21
4862.244648956497
 31
0.0
  0
LINE
  5
17F7D
330
747D
100
AcDbEntity
  8
部品1
100
AcDbLine
 10
9346.717145960246
 20
4881.644648956488
 30
0.0
 11
9346.717145960246
 21
4784.233581447923
 31
0.0
  0
LINE
  5
17F7E
330
747D
100
AcDbEntity
  8
部品1
 48
50.0
100
AcDbLine
 10
9349.717145960239
 20
4881.644648956498
 30
0.0
 11
9352.217145960237
 21
4862.244648956497
 31
0.0
  0
LINE
  5
17F7F
330
747D
100
AcDbEntity
  8
部品1
100
AcDbLine
 10
9328.717145960245
 20
4881.644648956488
 30
0.0
 11
9328.717145960247
 21
4784.233581447923
 31
0.0
  0
LINE
  5
17F80
330
747D
100
AcDbEntity
  8
部品1
 48
50.0
100
AcDbLine
 10
9310.505805754051
 20
4872.244648956497
 30
0.0
 11
9309.217145960237
 21
4862.244648956497
 31
0.0
  0
LINE
  5
17F81
330
747D
100
AcDbEntity
  8
部品1
 48
50.0
100
AcDbLine
 10
9310.505805754051
 20
4872.244648956497
 30
0.0
 11
9324.50580575405
 21
4872.244648956497
 31
0.0
  0
LINE
  5
17F82
330
747D
100
AcDbEntity
  8
部品1
 48
50.0
100
AcDbLine
 10
9325.717145960238
 20
4881.644648956498
 30
0.0
 11
9324.50580575405
 21
4872.244648956497
 31
0.0
  0
LINE
  5
17F83
330
747D
100
AcDbEntity
  8
部品1
 48
50.0
100
AcDbLine
 10
9349.717145960239
 20
4881.644648956498
 30
0.0
 11
9325.717145960238
 21
4881.644648956498
 31
0.0
  0
LINE
  5
17F84
330
747D
100
AcDbEntity
  8
部品1
100
AcDbLine
 10
9495.717145960234
 20
4862.244648956494
 30
0.0
 11
9352.217145960235
 21
4862.244648956494
 31
0.0
  0
LINE
  5
17F85
330
747D
100
AcDbEntity
  8
部品1
100
AcDbLine
 10
9185.717145960245
 20
4881.644648956495
 30
0.0
 11
9185.717145960246
 21
4784.233581447923
 31
0.0
  0
LINE
  5
17F86
330
747D
100
AcDbEntity
  8
部品1
 48
50.0
100
AcDbLine
 10
9187.217145960238
 20
4881.644648956498
 30
0.0
 11
9197.717145960238
 21
4862.244648956497
 31
0.0
  0
LINE
  5
17F87
330
747D
100
AcDbEntity
  8
部品1
100
AcDbLine
 10
9087.717145960246
 20
4881.644648956495
 30
0.0
 11
9087.717145960246
 21
4784.233581447923
 31
0.0
  0
LINE
  5
17F88
330
747D
100
AcDbEntity
  8
部品1
100
AcDbLine
 10
9112.717145960244
 20
4881.644648956495
 30
0.0
 11
9112.717145960244
 21
4784.233581447923
 31
0.0
  0
LINE
  5
17F89
330
747D
100
AcDbEntity
  8
部品1
100
AcDbLine
 10
9160.717145960246
 20
4881.644648956495
 30
0.0
 11
9160.717145960246
 21
4784.233581447923
 31
0.0
  0
LINE
  5
17F8A
330
747D
100
AcDbEntity
  8
部品1
 48
50.0
100
AcDbLine
 10
9086.217145960238
 20
4881.644648956498
 30
0.0
 11
9075.717145960238
 21
4862.244648956497
 31
0.0
  0
LINE
  5
17F8B
330
747D
100
AcDbEntity
  8
部品1
100
AcDbLine
 10
9148.717145960233
 20
4862.244648956494
 30
0.0
 11
9124.717145960238
 21
4862.244648956494
 31
0.0
  0
LINE
  5
17F8C
330
747D
100
AcDbEntity
  8
部品1
 48
50.0
100
AcDbLine
 10
9114.217145960237
 20
4881.644648956498
 30
0.0
 11
9124.717145960238
 21
4862.244648956497
 31
0.0
  0
LINE
  5
17F8D
330
747D
100
AcDbEntity
  8
部品1
 48
50.0
100
AcDbLine
 10
9159.217145960239
 20
4881.644648956498
 30
0.0
 11
9148.717145960238
 21
4862.244648956497
 31
0.0
  0
LINE
  5
17F8E
330
747D
100
AcDbEntity
  8
部品1
 48
50.0
100
AcDbLine
 10
9086.217145960238
 20
4881.644648956498
 30
0.0
 11
9114.217145960234
 21
4881.644648956498
 31
0.0
  0
LINE
  5
17F8F
330
747D
100
AcDbEntity
  8
部品1
 48
50.0
100
AcDbLine
 10
9159.217145960239
 20
4881.644648956498
 30
0.0
 11
9187.217145960234
 21
4881.644648956498
 31
0.0
  0
LINE
  5
17F90
330
747D
100
AcDbEntity
  8
部品1
100
AcDbLine
 10
8926.717145960244
 20
4881.644648956488
 30
0.0
 11
8926.717145960246
 21
4784.233581447923
 31
0.0
  0
LINE
  5
17F91
330
747D
100
AcDbEntity
  8
部品1
100
AcDbLine
 10
8908.717145960245
 20
4881.644648956488
 30
0.0
 11
8908.717145960247
 21
4784.233581447923
 31
0.0
  0
LINE
  5
17F92
330
747D
100
AcDbEntity
  8
部品1
 48
50.0
100
AcDbLine
 10
8929.717145960237
 20
4881.644648956498
 30
0.0
 11
8905.717145960236
 21
4881.644648956498
 31
0.0
  0
LINE
  5
17F93
330
747D
100
AcDbEntity
  8
部品1
 48
50.0
100
AcDbLine
 10
8905.717145960236
 20
4881.644648956498
 30
0.0
 11
8904.50580575405
 21
4872.244648956497
 31
0.0
  0
LINE
  5
17F94
330
747D
100
AcDbEntity
  8
部品1
 48
50.0
100
AcDbLine
 10
8929.717145960237
 20
4881.644648956498
 30
0.0
 11
8932.217145960237
 21
4862.244648956497
 31
0.0
  0
LINE
  5
17F95
330
747D
100
AcDbEntity
  8
部品1
100
AcDbLine
 10
9075.717145960235
 20
4862.244648956494
 30
0.0
 11
8932.217145960235
 21
4862.244648956494
 31
0.0
  0
LINE
  5
17F96
330
747D
100
AcDbEntity
  8
部品1
100
AcDbLine
 10
9309.217145960237
 20
4862.244648956494
 30
0.0
 11
9197.717145960238
 21
4862.244648956494
 31
0.0
  0
LINE
  5
17F97
330
747D
100
AcDbEntity
  8
部品1
100
AcDbLine
 10
9568.717145960233
 20
4862.244648956494
 30
0.0
 11
9544.717145960238
 21
4862.244648956494
 31
0.0
  0
LINE
  5
17F98
330
747D
100
AcDbEntity
  8
部品1
100
AcDbLine
 10
8889.217145960238
 20
4862.244648956494
 30
0.0
 11
8777.717145960238
 21
4862.244648956494
 31
0.0
  0
LINE
  5
17F99
330
747D
100
AcDbEntity
  8
部品1
100
AcDbLine
 10
8740.717145960244
 20
4881.644648956495
 30
0.0
 11
8740.717145960244
 21
4784.233581447923
 31
0.0
  0
LINE
  5
17F9A
330
747D
100
AcDbEntity
  8
部品1
100
AcDbLine
 10
8765.717145960245
 20
4881.644648956495
 30
0.0
 11
8765.717145960245
 21
4784.233581447923
 31
0.0
  0
LINE
  5
17F9B
330
747D
100
AcDbEntity
  8
部品1
 48
50.0
100
AcDbLine
 10
8767.217145960238
 20
4881.644648956498
 30
0.0
 11
8777.717145960238
 21
4862.244648956497
 31
0.0
  0
LINE
  5
17F9C
330
747D
100
AcDbEntity
  8
部品1
 48
50.0
100
AcDbLine
 10
8739.217145960237
 20
4881.644648956498
 30
0.0
 11
8767.217145960234
 21
4881.644648956498
 31
0.0
  0
LINE
  5
17F9D
330
747D
100
AcDbEntity
  8
部品1
 48
50.0
100
AcDbLine
 10
8890.505805754051
 20
4872.244648956497
 30
0.0
 11
8889.217145960238
 21
4862.244648956497
 31
0.0
  0
LINE
  5
17F9E
330
747D
100
AcDbEntity
  8
部品1
100
AcDbLine
 10
8728.717145960235
 20
4862.244648956494
 30
0.0
 11
8704.717145960238
 21
4862.244648956497
 31
0.0
  0
LINE
  5
17F9F
330
747D
100
AcDbEntity
  8
部品1
100
AcDbLine
 10
8692.717145960244
 20
4881.644648956495
 30
0.0
 11
8692.717145960248
 21
4784.233581447923
 31
0.0
  0
LINE
  5
17FA0
330
747D
100
AcDbEntity
  8
部品1
 48
50.0
100
AcDbLine
 10
8694.217145960237
 20
4881.644648956498
 30
0.0
 11
8704.717145960238
 21
4862.244648956497
 31
0.0
  0
LINE
  5
17FA1
330
747D
100
AcDbEntity
  8
部品1
100
AcDbLine
 10
8667.717145960244
 20
4881.644648956495
 30
0.0
 11
8667.717145960244
 21
4784.233581447923
 31
0.0
  0
LINE
  5
17FA2
330
747D
100
AcDbEntity
  8
部品1
 48
50.0
100
AcDbLine
 10
8666.217145960237
 20
4881.644648956498
 30
0.0
 11
8655.717145960236
 21
4862.244648956497
 31
0.0
  0
LINE
  5
17FA3
330
747D
100
AcDbEntity
  8
部品1
 48
50.0
100
AcDbLine
 10
8666.217145960237
 20
4881.644648956498
 30
0.0
 11
8694.217145960235
 21
4881.644648956498
 31
0.0
  0
LINE
  5
17FA4
330
747D
100
AcDbEntity
  8
部品1
 48
50.0
100
AcDbLine
 10
8739.217145960237
 20
4881.644648956498
 30
0.0
 11
8728.717145960237
 21
4862.244648956497
 31
0.0
  0
LINE
  5
17FA5
330
747D
100
AcDbEntity
  8
部品1
100
AcDbLine
 10
8506.717145960244
 20
4881.644648956488
 30
0.0
 11
8506.717145960244
 21
4784.233581447923
 31
0.0
  0
LINE
  5
17FA6
330
747D
100
AcDbEntity
  8
部品1
100
AcDbLine
 10
8488.717145960245
 20
4881.644648956498
 30
0.0
 11
8488.717145960247
 21
4784.233581447923
 31
0.0
  0
LINE
  5
17FA7
330
747D
100
AcDbEntity
  8
部品1
 48
50.0
100
AcDbLine
 10
8509.717145960237
 20
4881.644648956498
 30
0.0
 11
8512.217145960239
 21
4862.244648956497
 31
0.0
  0
LINE
  5
17FA8
330
747D
100
AcDbEntity
  8
部品1
100
AcDbLine
 10
8469.217145960238
 20
4862.244648956497
 30
0.0
 11
8442.717145960237
 21
4862.244648956497
 31
0.0
  0
LINE
  5
17FA9
330
747D
100
AcDbEntity
  8
部品1
 48
50.0
100
AcDbLine
 10
8470.505805754049
 20
4872.244648956497
 30
0.0
 11
8484.50580575405
 21
4872.244648956497
 31
0.0
  0
LINE
  5
17FAA
330
747D
100
AcDbEntity
  8
部品1
 48
50.0
100
AcDbLine
 10
8470.505805754049
 20
4872.244648956497
 30
0.0
 11
8469.217145960238
 21
4862.244648956497
 31
0.0
  0
LINE
  5
17FAB
330
747D
100
AcDbEntity
  8
部品1
 48
50.0
100
AcDbLine
 10
8485.717145960238
 20
4881.644648956498
 30
0.0
 11
8484.50580575405
 21
4872.244648956497
 31
0.0
  0
LINE
  5
17FAC
330
747D
100
AcDbEntity
  8
部品1
 48
50.0
100
AcDbLine
 10
8509.717145960237
 20
4881.644648956498
 30
0.0
 11
8485.717145960238
 21
4881.644648956498
 31
0.0
  0
LINE
  5
17FAD
330
747D
100
AcDbEntity
  8
部品1
100
AcDbLine
 10
8655.717145960236
 20
4862.244648956494
 30
0.0
 11
8512.217145960239
 21
4862.244648956497
 31
0.0
  0
LINE
  5
17FAE
330
747D
100
AcDbEntity
  8
部品1
 48
50.0
100
AcDbLine
 10
8890.505805754051
 20
4872.244648956497
 30
0.0
 11
8904.50580575405
 21
4872.244648956497
 31
0.0
  0
LINE
  5
17FAF
330
747D
100
AcDbEntity
  8
部品1
100
AcDbLine
 10
11497.78748320096
 20
4886.644648956469
 30
0.0
 11
8417.149306341146
 21
4886.644648956498
 31
0.0
  0
LINE
  5
17FB0
330
747D
100
AcDbEntity
  8
部品1
100
AcDbLine
 10
9729.217145960234
 20
4862.24464895648
 30
0.0
 11
9617.717145960245
 21
4862.24464895648
 31
0.0
  0
LINE
  5
17FB1
330
747D
100
AcDbEntity
  8
部品1
 48
50.0
100
AcDbLine
 10
8437.646517967031
 20
4831.644648948025
 30
0.0
 11
8399.703189777449
 21
4831.644648948025
 31
0.0
  0
ARC
  5
17FB2
330
747D
100
AcDbEntity
  8
部品1
100
AcDbCircle
 10
8394.676288400525
 20
4804.314766268615
 30
0.0
 40
0.7
100
AcDbArc
 50
183.6186294801377
 51
262.7131594833544
  0
ARC
  5
17FB3
330
747D
100
AcDbEntity
  8
部品1
100
AcDbCircle
 10
8394.20699227533
 20
4800.644648948026
 30
0.0
 40
3.0
100
AcDbArc
 50
3.618629480137788
 51
90.0
  0
LINE
  5
17FB4
330
747D
100
AcDbEntity
  8
部品1
100
AcDbLine
 10
8397.201011054136
 20
4800.833994009138
 30
0.0
 11
8401.948104066297
 21
4725.770585754355
 31
0.0
  0
ARC
  5
17FB5
330
747D
100
AcDbEntity
  8
部品1
100
AcDbCircle
 10
8402.646708448017
 20
4725.814766268615
 30
0.0
 40
0.7
100
AcDbArc
 50
183.6186294801377
 51
262.7131594833544
  0
ARC
  5
17FB6
330
747D
100
AcDbEntity
  8
部品1
100
AcDbCircle
 10
8402.177412322823
 20
4722.144648948026
 30
0.0
 40
3.0
100
AcDbArc
 50
3.618629480137788
 51
90.0
  0
ARC
  5
17FB7
330
747D
100
AcDbEntity
  8
部品1
100
AcDbCircle
 10
8412.82980062342
 20
4712.144648948025
 30
0.0
 40
7.0
100
AcDbArc
 50
183.6186294801377
 51
270.0
  0
ARC
  5
17FB8
330
747D
100
AcDbEntity
  8
部品1
100
AcDbCircle
 10
8399.703189777449
 20
4824.644648948027
 30
0.0
 40
7.0
100
AcDbArc
 50
90.0
 51
183.6186294801377
  0
LINE
  5
17FB9
330
747D
100
AcDbEntity
  8
部品1
100
AcDbLine
 10
8405.843756806209
 20
4711.702843805436
 30
0.0
 11
8405.171431101628
 21
4722.333994009137
 31
0.0
  0
LINE
  5
17FBA
330
747D
100
AcDbEntity
  8
部品1
100
AcDbLine
 10
8393.977684018805
 20
4804.270585754355
 30
0.0
 11
8392.717145960238
 21
4824.202843805437
 31
0.0
  0
LINE
  5
17FBB
330
747D
100
AcDbEntity
  8
部品1
100
AcDbLine
 10
8437.646517967031
 20
4831.644648948025
 30
0.0
 11
8399.703189777449
 21
4831.644648948025
 31
0.0
  0
ARC
  5
17FBC
330
747D
100
AcDbEntity
  8
部品1
100
AcDbCircle
 10
8437.646517967031
 20
4826.644648948025
 30
0.0
 40
5.0
100
AcDbArc
 50
0.0
 51
90.0
  0
LINE
  5
17FBD
330
747D
100
AcDbEntity
  8
部品1
100
AcDbLine
 10
8442.646517967032
 20
4881.644648964925
 30
0.0
 11
8442.64651796703
 21
4784.240620275356
 31
0.0
  0
LINE
  5
17FBE
330
747D
100
AcDbEntity
  8
部品1
100
AcDbLine
 10
11522.60449129703
 20
4705.144648948026
 30
0.0
 11
8412.82980062342
 21
4705.144648948026
 31
0.0
  0
LINE
  5
17FBF
330
747D
100
AcDbEntity
  8
部品1
 48
50.0
100
AcDbLine
 10
8392.717145960238
 20
4824.202843805437
 30
0.0
 11
8392.717145960238
 21
4879.202843822335
 31
0.0
  0
ARC
  5
17FC0
330
747D
100
AcDbEntity
  8
部品1
100
AcDbCircle
 10
8437.646517967031
 20
4881.644648964925
 30
0.0
 40
5.0
100
AcDbArc
 50
0.0
 51
90.0
  0
LINE
  5
17FC1
330
747D
100
AcDbEntity
  8
部品1
100
AcDbLine
 10
8437.646517967031
 20
4886.644648964924
 30
0.0
 11
8399.703189777449
 21
4886.644648964924
 31
0.0
  0
ARC
  5
17FC2
330
747D
100
AcDbEntity
  8
部品1
100
AcDbCircle
 10
8399.703189777449
 20
4879.644648964924
 30
0.0
 40
7.0
100
AcDbArc
 50
90.0
 51
183.6186294801377
  0
LINE
  5
17FC3
330
747D
100
AcDbEntity
  8
細線
 48
50.0
100
AcDbLine
 10
11533.49550363329
 20
4725.917891511806
 30
0.0
 11
8402.600737592756
 21
4725.917891511811
 31
0.0
  0
LINE
  5
17FC4
330
747D
100
AcDbEntity
  8
細線
 48
50.0
100
AcDbLine
 10
8425.206056055955
 20
4831.644648948025
 30
0.0
 11
8425.206056055955
 21
4705.144648948026
 31
0.0
  0
LINE
  5
17FC5
330
747D
100
AcDbEntity
  8
細線
 48
50.0
100
AcDbLine
 10
8442.64651796703
 20
4803.616481695975
 30
0.0
 11
8394.583276683084
 21
4803.616481695982
 31
0.0
  0
LINE
  5
17FC6
330
747D
100
AcDbEntity
  8
部品1
100
AcDbLine
 10
9748.717145960233
 20
4881.644648956488
 30
0.0
 11
9748.717145960233
 21
4784.233581447923
 31
0.0
  0
LINE
  5
17FC7
330
747D
100
AcDbEntity
  8
部品1
100
AcDbLine
 10
9766.717145960233
 20
4881.644648956498
 30
0.0
 11
9766.717145960233
 21
4784.233581447923
 31
0.0
  0
LINE
  5
17FC8
330
747D
100
AcDbEntity
  8
部品1
 48
50.0
100
AcDbLine
 10
9745.71714596024
 20
4881.644648956498
 30
0.0
 11
9769.717145960241
 21
4881.644648956498
 31
0.0
  0
LINE
  5
17FC9
330
747D
100
AcDbEntity
  8
部品1
 48
50.0
100
AcDbLine
 10
9745.71714596024
 20
4881.644648956498
 30
0.0
 11
9744.505805754053
 21
4872.244648956497
 31
0.0
  0
LINE
  5
17FCA
330
747D
100
AcDbEntity
  8
部品1
 48
50.0
100
AcDbLine
 10
9730.505805754054
 20
4872.244648956497
 30
0.0
 11
9744.505805754053
 21
4872.244648956497
 31
0.0
  0
LINE
  5
17FCB
330
747D
100
AcDbEntity
  8
部品1
 48
50.0
100
AcDbLine
 10
9730.505805754054
 20
4872.244648956497
 30
0.0
 11
9729.217145960241
 21
4862.244648956497
 31
0.0
  0
LINE
  5
17FCC
330
747D
100
AcDbEntity
  8
部品1
 48
50.0
100
AcDbLine
 10
9769.717145960241
 20
4881.644648956498
 30
0.0
 11
9772.21714596024
 21
4862.244648956497
 31
0.0
  0
LINE
  5
17FCD
330
747D
100
AcDbEntity
  8
部品1
 48
50.0
100
AcDbLine
 10
8425.206056055957
 20
4784.233581447923
 30
0.0
 11
11510.2282358645
 21
4784.233581447923
 31
0.0
  0
LINE
  5
17FCE
330
747D
100
AcDbEntity
  8
部品1
100
AcDbLine
 10
9988.717145960237
 20
4862.244648956497
 30
0.0
 11
9964.717145960241
 21
4862.244648956497
 31
0.0
  0
LINE
  5
17FCF
330
747D
100
AcDbEntity
  8
部品1
 48
50.0
100
AcDbLine
 10
9954.217145960241
 20
4881.644648956502
 30
0.0
 11
9964.717145960241
 21
4862.244648956501
 31
0.0
  0
LINE
  5
17FD0
330
747D
100
AcDbEntity
  8
部品1
 48
50.0
100
AcDbLine
 10
9926.21714596024
 20
4881.644648956502
 30
0.0
 11
9915.71714596024
 21
4862.244648956501
 31
0.0
  0
LINE
  5
17FD1
330
747D
100
AcDbEntity
  8
部品1
 48
50.0
100
AcDbLine
 10
9926.21714596024
 20
4881.644648956502
 30
0.0
 11
9954.217145960235
 21
4881.644648956502
 31
0.0
  0
LINE
  5
17FD2
330
747D
100
AcDbEntity
  8
部品1
 48
50.0
100
AcDbLine
 10
9999.217145960241
 20
4881.644648956502
 30
0.0
 11
9988.71714596024
 21
4862.244648956501
 31
0.0
  0
LINE
  5
17FD3
330
747D
100
AcDbEntity
  8
部品1
 48
50.0
100
AcDbLine
 10
10027.21714596024
 20
4881.644648956502
 30
0.0
 11
10037.71714596024
 21
4862.244648956501
 31
0.0
  0
LINE
  5
17FD4
330
747D
100
AcDbEntity
  8
部品1
 48
50.0
100
AcDbLine
 10
9999.217145960241
 20
4881.644648956502
 30
0.0
 11
10027.21714596023
 21
4881.644648956502
 31
0.0
  0
LINE
  5
17FD5
330
747D
100
AcDbEntity
  8
部品1
100
AcDbLine
 10
10149.21714596023
 20
4862.244648956483
 30
0.0
 11
10037.71714596024
 21
4862.244648956483
 31
0.0
  0
LINE
  5
17FD6
330
747D
100
AcDbEntity
  8
部品1
100
AcDbLine
 10
9915.717145960236
 20
4862.244648956497
 30
0.0
 11
9772.217145960237
 21
4862.244648956497
 31
0.0
  0
LINE
  5
17FD7
330
747D
100
AcDbEntity
  8
部品1
100
AcDbLine
 10
9952.717145960248
 20
4881.644648956498
 30
0.0
 11
9952.717145960248
 21
4784.233581447927
 31
0.0
  0
LINE
  5
17FD8
330
747D
100
AcDbEntity
  8
部品1
100
AcDbLine
 10
9927.717145960247
 20
4881.644648956498
 30
0.0
 11
9927.717145960247
 21
4784.233581447927
 31
0.0
  0
LINE
  5
17FD9
330
747D
100
AcDbEntity
  8
部品1
100
AcDbLine
 10
10000.71714596024
 20
4881.644648956498
 30
0.0
 11
10000.71714596025
 21
4784.233581447927
 31
0.0
  0
LINE
  5
17FDA
330
747D
100
AcDbEntity
  8
部品1
100
AcDbLine
 10
10025.71714596024
 20
4881.644648956498
 30
0.0
 11
10025.71714596025
 21
4784.233581447927
 31
0.0
  0
LINE
  5
17FDB
330
747D
100
AcDbEntity
  8
部品1
100
AcDbLine
 10
10569.21714596024
 20
4862.244648956487
 30
0.0
 11
10457.71714596025
 21
4862.244648956487
 31
0.0
  0
LINE
  5
17FDC
330
747D
100
AcDbEntity
  8
部品1
100
AcDbLine
 10
10445.71714596025
 20
4881.644648956502
 30
0.0
 11
10445.71714596025
 21
4784.233581447931
 31
0.0
  0
LINE
  5
17FDD
330
747D
100
AcDbEntity
  8
部品1
100
AcDbLine
 10
10420.71714596025
 20
4881.644648956502
 30
0.0
 11
10420.71714596025
 21
4784.233581447931
 31
0.0
  0
LINE
  5
17FDE
330
747D
100
AcDbEntity
  8
部品1
100
AcDbLine
 10
10347.71714596025
 20
4881.644648956502
 30
0.0
 11
10347.71714596025
 21
4784.233581447931
 31
0.0
  0
LINE
  5
17FDF
330
747D
100
AcDbEntity
  8
部品1
100
AcDbLine
 10
10372.71714596025
 20
4881.644648956502
 30
0.0
 11
10372.71714596025
 21
4784.233581447931
 31
0.0
  0
LINE
  5
17FE0
330
747D
100
AcDbEntity
  8
部品1
 48
50.0
100
AcDbLine
 10
10419.21714596024
 20
4881.644648956505
 30
0.0
 11
10447.21714596024
 21
4881.644648956505
 31
0.0
  0
LINE
  5
17FE1
330
747D
100
AcDbEntity
  8
部品1
 48
50.0
100
AcDbLine
 10
10447.21714596024
 20
4881.644648956505
 30
0.0
 11
10457.71714596024
 21
4862.244648956504
 31
0.0
  0
LINE
  5
17FE2
330
747D
100
AcDbEntity
  8
部品1
 48
50.0
100
AcDbLine
 10
10419.21714596024
 20
4881.644648956505
 30
0.0
 11
10408.71714596024
 21
4862.244648956504
 31
0.0
  0
LINE
  5
17FE3
330
747D
100
AcDbEntity
  8
部品1
 48
50.0
100
AcDbLine
 10
10346.21714596024
 20
4881.644648956505
 30
0.0
 11
10374.21714596024
 21
4881.644648956505
 31
0.0
  0
LINE
  5
17FE4
330
747D
100
AcDbEntity
  8
部品1
 48
50.0
100
AcDbLine
 10
10346.21714596024
 20
4881.644648956505
 30
0.0
 11
10335.71714596024
 21
4862.244648956504
 31
0.0
  0
LINE
  5
17FE5
330
747D
100
AcDbEntity
  8
部品1
 48
50.0
100
AcDbLine
 10
10374.21714596024
 20
4881.644648956505
 30
0.0
 11
10384.71714596024
 21
4862.244648956504
 31
0.0
  0
LINE
  5
17FE6
330
747D
100
AcDbEntity
  8
部品1
100
AcDbLine
 10
10408.71714596024
 20
4862.244648956501
 30
0.0
 11
10384.71714596024
 21
4862.244648956501
 31
0.0
  0
LINE
  5
17FE7
330
747D
100
AcDbEntity
  8
部品1
100
AcDbLine
 10
10335.71714596024
 20
4862.244648956501
 30
0.0
 11
10192.21714596024
 21
4862.244648956501
 31
0.0
  0
LINE
  5
17FE8
330
747D
100
AcDbEntity
  8
部品1
 48
50.0
100
AcDbLine
 10
10189.71714596024
 20
4881.644648956502
 30
0.0
 11
10192.21714596024
 21
4862.244648956501
 31
0.0
  0
LINE
  5
17FE9
330
747D
100
AcDbEntity
  8
部品1
 48
50.0
100
AcDbLine
 10
10150.50580575405
 20
4872.244648956501
 30
0.0
 11
10149.21714596024
 21
4862.244648956501
 31
0.0
  0
LINE
  5
17FEA
330
747D
100
AcDbEntity
  8
部品1
 48
50.0
100
AcDbLine
 10
10150.50580575405
 20
4872.244648956501
 30
0.0
 11
10164.50580575405
 21
4872.244648956501
 31
0.0
  0
LINE
  5
17FEB
330
747D
100
AcDbEntity
  8
部品1
 48
50.0
100
AcDbLine
 10
10165.71714596024
 20
4881.644648956502
 30
0.0
 11
10164.50580575405
 21
4872.244648956501
 31
0.0
  0
LINE
  5
17FEC
330
747D
100
AcDbEntity
  8
部品1
 48
50.0
100
AcDbLine
 10
10165.71714596024
 20
4881.644648956502
 30
0.0
 11
10189.71714596024
 21
4881.644648956502
 31
0.0
  0
LINE
  5
17FED
330
747D
100
AcDbEntity
  8
部品1
100
AcDbLine
 10
10186.71714596023
 20
4881.644648956502
 30
0.0
 11
10186.71714596023
 21
4784.233581447927
 31
0.0
  0
LINE
  5
17FEE
330
747D
100
AcDbEntity
  8
部品1
100
AcDbLine
 10
10168.71714596023
 20
4881.644648956491
 30
0.0
 11
10168.71714596023
 21
4784.233581447927
 31
0.0
  0
LINE
  5
17FEF
330
747D
100
AcDbEntity
  8
部品1
100
AcDbLine
 10
10588.71714596021
 20
4881.644648956502
 30
0.0
 11
10588.71714596021
 21
4784.233581447938
 31
0.0
  0
LINE
  5
17FF0
330
747D
100
AcDbEntity
  8
部品1
100
AcDbLine
 10
10606.71714596021
 20
4881.644648956513
 30
0.0
 11
10606.71714596021
 21
4784.233581447938
 31
0.0
  0
LINE
  5
17FF1
330
747D
100
AcDbEntity
  8
部品1
 48
50.0
100
AcDbLine
 10
10585.71714596022
 20
4881.644648956513
 30
0.0
 11
10609.71714596022
 21
4881.644648956513
 31
0.0
  0
LINE
  5
17FF2
330
747D
100
AcDbEntity
  8
部品1
 48
50.0
100
AcDbLine
 10
10585.71714596022
 20
4881.644648956513
 30
0.0
 11
10584.50580575404
 21
4872.244648956512
 31
0.0
  0
LINE
  5
17FF3
330
747D
100
AcDbEntity
  8
部品1
 48
50.0
100
AcDbLine
 10
10570.50580575404
 20
4872.244648956512
 30
0.0
 11
10584.50580575404
 21
4872.244648956512
 31
0.0
  0
LINE
  5
17FF4
330
747D
100
AcDbEntity
  8
部品1
 48
50.0
100
AcDbLine
 10
10570.50580575404
 20
4872.244648956512
 30
0.0
 11
10569.21714596022
 21
4862.244648956512
 31
0.0
  0
LINE
  5
17FF5
330
747D
100
AcDbEntity
  8
部品1
 48
50.0
100
AcDbLine
 10
10609.71714596022
 20
4881.644648956513
 30
0.0
 11
10612.21714596022
 21
4862.244648956512
 31
0.0
  0
LINE
  5
17FF6
330
747D
100
AcDbEntity
  8
部品1
100
AcDbLine
 10
10755.71714596022
 20
4862.244648956512
 30
0.0
 11
10612.21714596022
 21
4862.244648956512
 31
0.0
  0
LINE
  5
17FF7
330
747D
100
AcDbEntity
  8
部品1
100
AcDbLine
 10
10828.71714596022
 20
4862.244648956512
 30
0.0
 11
10804.71714596022
 21
4862.244648956512
 31
0.0
  0
LINE
  5
17FF8
330
747D
100
AcDbEntity
  8
部品1
 48
50.0
100
AcDbLine
 10
10794.21714596022
 20
4881.644648956517
 30
0.0
 11
10804.71714596022
 21
4862.244648956515
 31
0.0
  0
LINE
  5
17FF9
330
747D
100
AcDbEntity
  8
部品1
 48
50.0
100
AcDbLine
 10
10766.21714596022
 20
4881.644648956517
 30
0.0
 11
10755.71714596022
 21
4862.244648956515
 31
0.0
  0
LINE
  5
17FFA
330
747D
100
AcDbEntity
  8
部品1
 48
50.0
100
AcDbLine
 10
10766.21714596022
 20
4881.644648956517
 30
0.0
 11
10794.21714596022
 21
4881.644648956517
 31
0.0
  0
LINE
  5
17FFB
330
747D
100
AcDbEntity
  8
部品1
 48
50.0
100
AcDbLine
 10
10839.21714596022
 20
4881.644648956517
 30
0.0
 11
10828.71714596022
 21
4862.244648956515
 31
0.0
  0
LINE
  5
17FFC
330
747D
100
AcDbEntity
  8
部品1
 48
50.0
100
AcDbLine
 10
10867.21714596022
 20
4881.644648956517
 30
0.0
 11
10877.71714596022
 21
4862.244648956515
 31
0.0
  0
LINE
  5
17FFD
330
747D
100
AcDbEntity
  8
部品1
 48
50.0
100
AcDbLine
 10
10839.21714596022
 20
4881.644648956517
 30
0.0
 11
10867.21714596022
 21
4881.644648956517
 31
0.0
  0
LINE
  5
17FFE
330
747D
100
AcDbEntity
  8
部品1
100
AcDbLine
 10
10792.71714596023
 20
4881.644648956513
 30
0.0
 11
10792.71714596023
 21
4784.233581447941
 31
0.0
  0
LINE
  5
17FFF
330
747D
100
AcDbEntity
  8
部品1
100
AcDbLine
 10
10767.71714596023
 20
4881.644648956513
 30
0.0
 11
10767.71714596023
 21
4784.233581447941
 31
0.0
  0
LINE
  5
18000
330
747D
100
AcDbEntity
  8
部品1
100
AcDbLine
 10
10840.71714596023
 20
4881.644648956513
 30
0.0
 11
10840.71714596023
 21
4784.233581447941
 31
0.0
  0
LINE
  5
18001
330
747D
100
AcDbEntity
  8
部品1
100
AcDbLine
 10
10865.71714596023
 20
4881.644648956513
 30
0.0
 11
10865.71714596023
 21
4784.233581447941
 31
0.0
  0
LINE
  5
18002
330
747D
100
AcDbEntity
  8
部品1
100
AcDbLine
 10
10989.21714596022
 20
4862.244648956497
 30
0.0
 11
10877.71714596023
 21
4862.244648956497
 31
0.0
  0
DIMENSION
  5
18003
330
747D
100
AcDbEntity
  8
寸法
 48
50.0
100
AcDbDimension
  2
*D28
 10
11492.71714596022
 20
5285.737818287499
 30
0.0
 11
11856.20242733446
 21
5285.737818287499
 31
0.0
 70
   160
 71
     5
 42
50.0
  3
INABA_S40G
100
AcDbAlignedDimension
 13
11542.71714596023
 23
4886.644648948029
 33
0.0
 14
11492.71714596022
 24
4886.644648948031
 34
0.0
100
AcDbRotatedDimension
  0
LINE
  5
18004
330
747D
100
AcDbEntity
  8
部品1
100
AcDbLine
 10
11428.71714596021
 20
4881.644648956488
 30
0.0
 11
11428.71714596021
 21
4784.233581447923
 31
0.0
  0
LINE
  5
18005
330
747D
100
AcDbEntity
  8
部品1
100
AcDbLine
 10
11446.71714596021
 20
4881.644648956498
 30
0.0
 11
11446.71714596021
 21
4784.233581447923
 31
0.0
  0
LINE
  5
18006
330
747D
100
AcDbEntity
  8
部品1
 48
50.0
100
AcDbLine
 10
11425.71714596022
 20
4881.644648956498
 30
0.0
 11
11449.71714596022
 21
4881.644648956498
 31
0.0
  0
LINE
  5
18007
330
747D
100
AcDbEntity
  8
部品1
 48
50.0
100
AcDbLine
 10
11497.78777395342
 20
4831.644648948025
 30
0.0
 11
11535.73110214301
 21
4831.644648948025
 31
0.0
  0
ARC
  5
18008
330
747D
100
AcDbEntity
  8
部品1
100
AcDbCircle
 10
11540.75800351993
 20
4804.314766268615
 30
0.0
 40
0.7
100
AcDbArc
 50
277.2868405166456
 51
356.3813705198622
  0
ARC
  5
18009
330
747D
100
AcDbEntity
  8
部品1
100
AcDbCircle
 10
11541.22729964512
 20
4800.644648948026
 30
0.0
 40
3.0
100
AcDbArc
 50
90.0
 51
176.3813705198622
  0
LINE
  5
1800A
330
747D
100
AcDbEntity
  8
部品1
100
AcDbLine
 10
11538.23328086632
 20
4800.833994009138
 30
0.0
 11
11533.48618785416
 21
4725.770585754355
 31
0.0
  0
ARC
  5
1800B
330
747D
100
AcDbEntity
  8
部品1
100
AcDbCircle
 10
11532.78758347244
 20
4725.814766268615
 30
0.0
 40
0.7
100
AcDbArc
 50
277.2868405166456
 51
356.3813705198622
  0
ARC
  5
1800C
330
747D
100
AcDbEntity
  8
部品1
100
AcDbCircle
 10
11533.25687959763
 20
4722.144648948026
 30
0.0
 40
3.0
100
AcDbArc
 50
90.0
 51
176.3813705198622
  0
ARC
  5
1800D
330
747D
100
AcDbEntity
  8
部品1
100
AcDbCircle
 10
11522.60449129703
 20
4712.144648948025
 30
0.0
 40
7.0
100
AcDbArc
 50
270.0
 51
356.3813705198622
  0
ARC
  5
1800E
330
747D
100
AcDbEntity
  8
部品1
100
AcDbCircle
 10
11535.73110214301
 20
4824.644648948027
 30
0.0
 40
7.0
100
AcDbArc
 50
356.3813705198622
 51
90.0
  0
LINE
  5
1800F
330
747D
100
AcDbEntity
  8
部品1
100
AcDbLine
 10
11529.59053511425
 20
4711.702843805436
 30
0.0
 11
11530.26286081883
 21
4722.333994009137
 31
0.0
  0
LINE
  5
18010
330
747D
100
AcDbEntity
  8
部品1
100
AcDbLine
 10
11541.45660790165
 20
4804.270585754355
 30
0.0
 11
11542.71714596021
 21
4824.202843805437
 31
0.0
  0
LINE
  5
18011
330
747D
100
AcDbEntity
  8
部品1
100
AcDbLine
 10
11497.78777395342
 20
4831.644648948025
 30
0.0
 11
11535.73110214301
 21
4831.644648948025
 31
0.0
  0
ARC
  5
18012
330
747D
100
AcDbEntity
  8
部品1
100
AcDbCircle
 10
11497.78777395342
 20
4826.644648948025
 30
0.0
 40
5.0
100
AcDbArc
 50
90.0
 51
180.0
  0
LINE
  5
18013
330
747D
100
AcDbEntity
  8
部品1
100
AcDbLine
 10
11492.78777395342
 20
4881.644648964925
 30
0.0
 11
11492.78777395342
 21
4784.233581447923
 31
0.0
  0
LINE
  5
18014
330
747D
100
AcDbEntity
  8
部品1
 48
50.0
100
AcDbLine
 10
11542.71714596021
 20
4824.202843805437
 30
0.0
 11
11542.71714596021
 21
4879.202843822335
 31
0.0
  0
ARC
  5
18015
330
747D
100
AcDbEntity
  8
部品1
100
AcDbCircle
 10
11497.78777395342
 20
4881.644648964925
 30
0.0
 40
5.0
100
AcDbArc
 50
90.0
 51
180.0
  0
LINE
  5
18016
330
747D
100
AcDbEntity
  8
部品1
100
AcDbLine
 10
11497.78777395342
 20
4886.644648964924
 30
0.0
 11
11535.73110214301
 21
4886.644648964924
 31
0.0
  0
ARC
  5
18017
330
747D
100
AcDbEntity
  8
部品1
100
AcDbCircle
 10
11535.73110214301
 20
4879.644648964924
 30
0.0
 40
7.0
100
AcDbArc
 50
356.3813705198622
 51
90.0
  0
LINE
  5
18018
330
747D
100
AcDbEntity
  8
細線
 48
50.0
100
AcDbLine
 10
11510.2282358645
 20
4831.644648948025
 30
0.0
 11
11510.2282358645
 21
4705.144648948026
 31
0.0
  0
LINE
  5
18019
330
747D
100
AcDbEntity
  8
細線
 48
50.0
100
AcDbLine
 10
11492.78777395342
 20
4803.616481695975
 30
0.0
 11
11540.85101523737
 21
4803.616481695982
 31
0.0
  0
LINE
  5
1801A
330
747D
100
AcDbEntity
  8
部品1
 48
50.0
100
AcDbLine
 10
11425.71714596022
 20
4881.644648956498
 30
0.0
 11
11424.50580575403
 21
4872.244648956497
 31
0.0
  0
LINE
  5
1801B
330
747D
100
AcDbEntity
  8
部品1
 48
50.0
100
AcDbLine
 10
11410.50580575403
 20
4872.244648956497
 30
0.0
 11
11424.50580575403
 21
4872.244648956497
 31
0.0
  0
LINE
  5
1801C
330
747D
100
AcDbEntity
  8
部品1
 48
50.0
100
AcDbLine
 10
11410.50580575403
 20
4872.244648956497
 30
0.0
 11
11409.21714596021
 21
4862.244648956497
 31
0.0
  0
LINE
  5
1801D
330
747D
100
AcDbEntity
  8
部品1
 48
50.0
100
AcDbLine
 10
11449.71714596022
 20
4881.644648956498
 30
0.0
 11
11452.21714596021
 21
4862.244648956497
 31
0.0
  0
LINE
  5
1801E
330
747D
100
AcDbEntity
  8
部品1
100
AcDbLine
 10
11492.78777395342
 20
4862.244648956494
 30
0.0
 11
11452.21714596021
 21
4862.244648956494
 31
0.0
  0
LINE
  5
1801F
330
747D
100
AcDbEntity
  8
部品1
100
AcDbLine
 10
11409.21714596021
 20
4862.244648956497
 30
0.0
 11
11297.71714596023
 21
4862.244648956497
 31
0.0
  0
LINE
  5
18020
330
747D
100
AcDbEntity
  8
部品1
100
AcDbLine
 10
11285.71714596023
 20
4881.644648956513
 30
0.0
 11
11285.71714596023
 21
4784.233581447941
 31
0.0
  0
LINE
  5
18021
330
747D
100
AcDbEntity
  8
部品1
100
AcDbLine
 10
11260.71714596023
 20
4881.644648956513
 30
0.0
 11
11260.71714596023
 21
4784.233581447941
 31
0.0
  0
LINE
  5
18022
330
747D
100
AcDbEntity
  8
部品1
100
AcDbLine
 10
11187.71714596023
 20
4881.644648956513
 30
0.0
 11
11187.71714596023
 21
4784.233581447941
 31
0.0
  0
LINE
  5
18023
330
747D
100
AcDbEntity
  8
部品1
100
AcDbLine
 10
11212.71714596023
 20
4881.644648956513
 30
0.0
 11
11212.71714596023
 21
4784.233581447941
 31
0.0
  0
LINE
  5
18024
330
747D
100
AcDbEntity
  8
部品1
 48
50.0
100
AcDbLine
 10
11259.21714596022
 20
4881.644648956517
 30
0.0
 11
11287.21714596021
 21
4881.644648956517
 31
0.0
  0
LINE
  5
18025
330
747D
100
AcDbEntity
  8
部品1
 48
50.0
100
AcDbLine
 10
11287.21714596022
 20
4881.644648956517
 30
0.0
 11
11297.71714596022
 21
4862.244648956515
 31
0.0
  0
LINE
  5
18026
330
747D
100
AcDbEntity
  8
部品1
 48
50.0
100
AcDbLine
 10
11259.21714596022
 20
4881.644648956517
 30
0.0
 11
11248.71714596022
 21
4862.244648956515
 31
0.0
  0
LINE
  5
18027
330
747D
100
AcDbEntity
  8
部品1
 48
50.0
100
AcDbLine
 10
11186.21714596022
 20
4881.644648956517
 30
0.0
 11
11214.21714596022
 21
4881.644648956517
 31
0.0
  0
LINE
  5
18028
330
747D
100
AcDbEntity
  8
部品1
 48
50.0
100
AcDbLine
 10
11186.21714596022
 20
4881.644648956517
 30
0.0
 11
11175.71714596022
 21
4862.244648956515
 31
0.0
  0
LINE
  5
18029
330
747D
100
AcDbEntity
  8
部品1
 48
50.0
100
AcDbLine
 10
11214.21714596022
 20
4881.644648956517
 30
0.0
 11
11224.71714596022
 21
4862.244648956515
 31
0.0
  0
LINE
  5
1802A
330
747D
100
AcDbEntity
  8
部品1
100
AcDbLine
 10
11248.71714596022
 20
4862.244648956512
 30
0.0
 11
11224.71714596022
 21
4862.244648956512
 31
0.0
  0
LINE
  5
1802B
330
747D
100
AcDbEntity
  8
部品1
100
AcDbLine
 10
11175.71714596022
 20
4862.244648956512
 30
0.0
 11
11032.21714596022
 21
4862.244648956512
 31
0.0
  0
LINE
  5
1802C
330
747D
100
AcDbEntity
  8
部品1
 48
50.0
100
AcDbLine
 10
11029.71714596022
 20
4881.644648956513
 30
0.0
 11
11032.21714596022
 21
4862.244648956512
 31
0.0
  0
LINE
  5
1802D
330
747D
100
AcDbEntity
  8
部品1
 48
50.0
100
AcDbLine
 10
10990.50580575403
 20
4872.244648956512
 30
0.0
 11
10989.21714596022
 21
4862.244648956512
 31
0.0
  0
LINE
  5
1802E
330
747D
100
AcDbEntity
  8
部品1
 48
50.0
100
AcDbLine
 10
10990.50580575403
 20
4872.244648956512
 30
0.0
 11
11004.50580575403
 21
4872.244648956512
 31
0.0
  0
LINE
  5
1802F
330
747D
100
AcDbEntity
  8
部品1
 48
50.0
100
AcDbLine
 10
11005.71714596022
 20
4881.644648956513
 30
0.0
 11
11004.50580575403
 21
4872.244648956512
 31
0.0
  0
LINE
  5
18030
330
747D
100
AcDbEntity
  8
部品1
 48
50.0
100
AcDbLine
 10
11005.71714596022
 20
4881.644648956513
 30
0.0
 11
11029.71714596022
 21
4881.644648956513
 31
0.0
  0
LINE
  5
18031
330
747D
100
AcDbEntity
  8
部品1
100
AcDbLine
 10
11026.71714596021
 20
4881.644648956513
 30
0.0
 11
11026.71714596021
 21
4784.233581447938
 31
0.0
  0
LINE
  5
18032
330
747D
100
AcDbEntity
  8
部品1
100
AcDbLine
 10
11008.71714596021
 20
4881.644648956502
 30
0.0
 11
11008.71714596021
 21
4784.233581447938
 31
0.0
  0
LINE
  5
18033
330
747D
100
AcDbEntity
  8
細線
 48
50.0
100
AcDbLine
 10
11360.21714596023
 20
4651.644648948026
 30
0.0
 11
11360.21714596023
 21
2561.644648948026
 31
0.0
  0
LINE
  5
18034
330
747D
100
AcDbEntity
  8
細線
 48
50.0
100
AcDbLine
 10
11375.21714596023
 20
4651.644648948026
 30
0.0
 11
11375.21714596023
 21
2561.644648948026
 31
0.0
  0
LINE
  5
18035
330
747D
100
AcDbEntity
  8
細線
 48
50.0
100
AcDbLine
 10
11235.21714596023
 20
4651.644648948026
 30
0.0
 11
11235.21714596023
 21
2561.644648948026
 31
0.0
  0
LINE
  5
18036
330
747D
100
AcDbEntity
  8
細線
 48
50.0
100
AcDbLine
 10
11220.21714596023
 20
4651.644648948026
 30
0.0
 11
11220.21714596023
 21
2561.644648948026
 31
0.0
  0
LINE
  5
18037
330
747D
100
AcDbEntity
  8
細線
 48
50.0
100
AcDbLine
 10
11080.21714596023
 20
4651.644648948026
 30
0.0
 11
11080.21714596023
 21
2561.644648948026
 31
0.0
  0
LINE
  5
18038
330
747D
100
AcDbEntity
  8
細線
 48
50.0
100
AcDbLine
 10
11095.21714596023
 20
4651.644648948026
 30
0.0
 11
11095.21714596023
 21
2561.644648948026
 31
0.0
  0
LINE
  5
18039
330
747D
100
AcDbEntity
  8
細線
 48
50.0
100
AcDbLine
 10
8840.217145960233
 20
4651.644648948026
 30
0.0
 11
8840.217145960233
 21
2561.644648948026
 31
0.0
  0
LINE
  5
1803A
330
747D
100
AcDbEntity
  8
細線
 48
50.0
100
AcDbLine
 10
8855.217145960232
 20
4651.644648948026
 30
0.0
 11
8855.217145960232
 21
2561.644648948026
 31
0.0
  0
LINE
  5
1803B
330
747D
100
AcDbEntity
  8
細線
 48
50.0
100
AcDbLine
 10
8715.217145960233
 20
4651.644648948026
 30
0.0
 11
8715.217145960233
 21
2561.644648948026
 31
0.0
  0
LINE
  5
1803C
330
747D
100
AcDbEntity
  8
細線
 48
50.0
100
AcDbLine
 10
8700.217145960232
 20
4651.644648948026
 30
0.0
 11
8700.217145960232
 21
2561.644648948026
 31
0.0
  0
LINE
  5
1803D
330
747D
100
AcDbEntity
  8
細線
 48
50.0
100
AcDbLine
 10
8560.217145960233
 20
4651.644648948026
 30
0.0
 11
8560.217145960233
 21
2561.644648948026
 31
0.0
  0
LINE
  5
1803E
330
747D
100
AcDbEntity
  8
細線
 48
50.0
100
AcDbLine
 10
8575.217145960232
 20
4651.644648948026
 30
0.0
 11
8575.217145960232
 21
2561.644648948026
 31
0.0
  0
LINE
  5
18300
330
747D
100
AcDbEntity
  8
補助
  6
PHANTOM
 62
   230
 48
50.0
100
AcDbLine
 10
140.0
 20
0.0
 30
0.0
 11
139.9999999999995
 21
11409.6
 31
0.0
  0
LINE
  5
185A8
330
747D
100
AcDbEntity
  8
部品1
 48
50.0
100
AcDbLine
 10
8964.71714596023
 20
3643.144648948028
 30
0.0
 11
9017.717145960231
 21
3643.144648948028
 31
0.0
  0
LINE
  5
18B7F
330
747D
100
AcDbEntity
  8
破線
 48
5.0
100
AcDbLine
 10
8542.71714596023
 20
2411.644648948026
 30
0.0
 11
8542.71714596023
 21
2211.644648948026
 31
0.0
  0
LINE
  5
18B8A
330
747D
100
AcDbEntity
  8
破線
 48
5.0
100
AcDbLine
 10
8342.717145960229
 20
2411.644648948026
 30
0.0
 11
8342.717145960229
 21
2211.644648948026
 31
0.0
  0
LINE
  5
18B8B
330
747D
100
AcDbEntity
  8
破線
 48
5.0
100
AcDbLine
 10
8342.717145960229
 20
2211.644648948026
 30
0.0
 11
8542.71714596023
 21
2211.644648948026
 31
0.0
  0
DIMENSION
  5
18B8C
330
747D
100
AcDbEntity
  8
寸法
 48
50.0
100
AcDbDimension
  2
*D29
 10
8342.717145960229
 20
1925.597319647648
 30
0.0
 11
8442.717145960228
 21
1925.597319647648
 31
0.0
 70
   160
 71
     5
 42
200.0000000000018
  3
INABA_S40G
100
AcDbAlignedDimension
 13
8542.71714596023
 23
2211.644648948026
 33
0.0
 14
8342.717145960229
 24
2211.644648948026
 34
0.0
100
AcDbRotatedDimension
  0
LINE
  5
18D2D
330
747D
100
AcDbEntity
  8
破線
 48
5.0
100
AcDbLine
 10
11602.71714596023
 20
2411.644648948026
 30
0.0
 11
11602.71714596023
 21
2211.644648948026
 31
0.0
  0
LINE
  5
18D2E
330
747D
100
AcDbEntity
  8
破線
 48
5.0
100
AcDbLine
 10
11402.71714596023
 20
2411.644648948026
 30
0.0
 11
11402.71714596023
 21
2211.644648948026
 31
0.0
  0
LINE
  5
18D2F
330
747D
100
AcDbEntity
  8
破線
 48
5.0
100
AcDbLine
 10
11402.71714596023
 20
2211.644648948026
 30
0.0
 11
11602.71714596023
 21
2211.644648948026
 31
0.0
  0
LINE
  5
18E17
330
747D
100
AcDbEntity
  8
寸法
 48
50.0
100
AcDbLine
 10
9352.920152242052
 20
7689.552612411448
 30
0.0
 11
9301.514144331948
 21
7689.552612411448
 31
0.0
  0
LINE
  5
18E18
330
747D
100
AcDbEntity
  8
寸法
 48
50.0
100
AcDbLine
 10
9301.514144331948
 20
7689.552612411448
 30
0.0
 11
9301.514144331948
 21
7720.862771063614
 31
0.0
  0
LINE
  5
18E19
330
747D
100
AcDbEntity
  8
寸法
 48
50.0
100
AcDbLine
 10
9301.514144331948
 20
7720.862771063614
 30
0.0
 11
9271.752812340524
 21
7720.862771063614
 31
0.0
  0
LINE
  5
18E1A
330
747D
100
AcDbEntity
  8
寸法
 48
50.0
100
AcDbLine
 10
9271.752812340524
 20
7720.862771063614
 30
0.0
 11
9327.217148287001
 21
7758.442221992223
 31
0.0
  0
LINE
  5
18E1B
330
747D
100
AcDbEntity
  8
寸法
 48
50.0
100
AcDbLine
 10
9382.681484233476
 20
7720.862771063614
 30
0.0
 11
9327.217148287001
 21
7758.442221992223
 31
0.0
  0
LINE
  5
18E1C
330
747D
100
AcDbEntity
  8
寸法
 48
50.0
100
AcDbLine
 10
9352.920152242052
 20
7720.862771063614
 30
0.0
 11
9382.681484233476
 21
7720.862771063614
 31
0.0
  0
LINE
  5
18E1D
330
747D
100
AcDbEntity
  8
寸法
 48
50.0
100
AcDbLine
 10
9352.920152242052
 20
7689.552612411448
 30
0.0
 11
9352.920152242052
 21
7720.862771063614
 31
0.0
  0
LINE
  5
18E1E
330
747D
100
AcDbEntity
  8
寸法
 48
50.0
100
AcDbLine
 10
9301.514144331948
 20
7689.552612411448
 30
0.0
 11
9352.920152242052
 21
7689.552612411448
 31
0.0
  0
LINE
  5
18E1F
330
747D
100
AcDbEntity
  8
寸法
 48
50.0
100
AcDbLine
 10
9632.085686518909
 20
7746.698203166271
 30
0.0
 11
9632.085686518909
 21
7693.034568584481
 31
0.0
  0
LINE
  5
18E20
330
747D
100
AcDbEntity
  8
寸法
 48
50.0
100
AcDbLine
 10
9721.369905114331
 20
7722.774568896785
 30
0.0
 11
9632.085686518909
 21
7746.698203166271
 31
0.0
  0
LINE
  5
18E21
330
747D
100
AcDbEntity
  8
寸法
 48
50.0
100
AcDbLine
 10
9502.217964938607
 20
7722.774568896785
 30
0.0
 11
9721.369905114331
 21
7722.774568896785
 31
0.0
  0
LINE
  5
18E22
330
747D
100
AcDbEntity
  8
細線
 48
50.0
100
AcDbLine
 10
10378.71714596021
 20
7888.015975791311
 30
0.0
 11
11005.7171459602
 21
7888.015975791311
 31
0.0
  0
LINE
  5
18E23
330
747D
100
AcDbEntity
  8
細線
 48
50.0
100
AcDbLine
 10
9724.717150613798
 20
7854.307207237233
 30
0.0
 11
11005.7171459602
 21
7854.307207237233
 31
0.0
  0
LINE
  5
18E24
330
747D
100
AcDbEntity
  8
細線
 48
50.0
100
AcDbLine
 10
9683.717150613802
 20
7883.712115233487
 30
0.0
 11
8929.717145960207
 21
7883.712115233485
 31
0.0
  0
LINE
  5
18E25
330
747D
100
AcDbEntity
  8
細線
100
AcDbLine
 10
10781.46713654375
 20
7907.515875756319
 30
0.0
 11
10783.79867606556
 21
7912.515878396281
 31
0.0
  0
LINE
  5
18E26
330
747D
100
AcDbEntity
  8
細線
100
AcDbLine
 10
10851.4671459602
 20
7907.515860842585
 30
0.0
 11
10849.13559948402
 21
7912.515878396265
 31
0.0
  0
LINE
  5
18E27
330
747D
100
AcDbEntity
  8
細線
100
AcDbLine
 10
10849.13559948402
 20
7912.515878396265
 30
0.0
 11
10783.79867606554
 21
7912.51587839625
 31
0.0
  0
LINE
  5
18E28
330
747D
100
AcDbEntity
  8
細線
100
AcDbLine
 10
10709.13559948402
 20
7912.515878396265
 30
0.0
 11
10643.79867606554
 21
7912.51587839625
 31
0.0
  0
LINE
  5
18E29
330
747D
100
AcDbEntity
  8
細線
100
AcDbLine
 10
10711.4671459602
 20
7907.515860842585
 30
0.0
 11
10709.13559948402
 21
7912.515878396265
 31
0.0
  0
LINE
  5
18E2A
330
747D
100
AcDbEntity
  8
細線
100
AcDbLine
 10
10641.46713654375
 20
7907.515875756319
 30
0.0
 11
10643.79867606556
 21
7912.515878396281
 31
0.0
  0
LINE
  5
18E2B
330
747D
100
AcDbEntity
  8
細線
100
AcDbLine
 10
10501.46714596021
 20
7907.515860842585
 30
0.0
 11
10503.79868548202
 21
7912.515863482545
 31
0.0
  0
LINE
  5
18E2C
330
747D
100
AcDbEntity
  8
細線
100
AcDbLine
 10
10571.46715537667
 20
7907.51584592885
 30
0.0
 11
10569.13560890047
 21
7912.515863482531
 31
0.0
  0
LINE
  5
18E2D
330
747D
100
AcDbEntity
  8
細線
100
AcDbLine
 10
10569.13560890048
 20
7912.515863482531
 30
0.0
 11
10503.798685482
 21
7912.515863482517
 31
0.0
  0
LINE
  5
18E2E
330
747D
100
AcDbEntity
  8
細線
100
AcDbLine
 10
10273.88563014931
 20
7878.515900179912
 30
0.0
 11
10208.54870673084
 21
7878.515900179898
 31
0.0
  0
LINE
  5
18E2F
330
747D
100
AcDbEntity
  8
細線
100
AcDbLine
 10
10276.2171766255
 20
7873.515882626232
 30
0.0
 11
10273.88563014931
 21
7878.515900179912
 31
0.0
  0
LINE
  5
18E30
330
747D
100
AcDbEntity
  8
細線
100
AcDbLine
 10
10206.21716720904
 20
7873.515897539967
 30
0.0
 11
10208.54870673085
 21
7878.515900179927
 31
0.0
  0
LINE
  5
18E31
330
747D
100
AcDbEntity
  8
細線
 48
50.0
100
AcDbLine
 10
10047.60052520822
 20
7891.786723995664
 30
0.0
 11
10053.35604279089
 21
7873.515872705178
 31
0.0
  0
LINE
  5
18E32
330
747D
100
AcDbEntity
  8
細線
 48
50.0
100
AcDbLine
 10
10036.67207672779
 20
7891.786723995664
 30
0.0
 11
10047.60052520822
 21
7891.786723995664
 31
0.0
  0
ARC
  5
18E33
330
747D
100
AcDbEntity
  8
細線
 48
50.0
100
AcDbCircle
 10
10031.21772067047
 20
7893.286723995664
 30
0.0
 40
5.0
100
AcDbArc
 50
204.6243183521304
 51
335.3756816478695
  0
ARC
  5
18E34
330
747D
100
AcDbEntity
  8
細線
 48
50.0
100
AcDbCircle
 10
10036.67207672779
 20
7890.786723995664
 30
0.0
 40
1.0
100
AcDbArc
 50
90.0
 51
155.3756816478695
  0
ARC
  5
18E35
330
747D
100
AcDbEntity
  8
細線
 48
50.0
100
AcDbCircle
 10
10025.76336461315
 20
7890.786723995664
 30
0.0
 40
1.0
100
AcDbArc
 50
24.62431835213048
 51
90.0
  0
LINE
  5
18E36
330
747D
100
AcDbEntity
  8
細線
 48
50.0
100
AcDbLine
 10
10014.83491613272
 20
7891.786723995664
 30
0.0
 11
10025.76336461315
 21
7891.786723995664
 31
0.0
  0
LINE
  5
18E37
330
747D
100
AcDbEntity
  8
細線
 48
50.0
100
AcDbLine
 10
10009.07939855005
 20
7873.515872705171
 30
0.0
 11
10014.83491613272
 21
7891.786723995664
 31
0.0
  0
LINE
  5
18E38
330
747D
100
AcDbEntity
  8
細線
100
AcDbLine
 10
10066.21716844008
 20
7873.515870070976
 30
0.0
 11
10068.54870796189
 21
7878.515872710936
 31
0.0
  0
LINE
  5
18E39
330
747D
100
AcDbEntity
  8
細線
100
AcDbLine
 10
10136.21717785654
 20
7873.515855157241
 30
0.0
 11
10133.88563138035
 21
7878.515872710922
 31
0.0
  0
LINE
  5
18E3A
330
747D
100
AcDbEntity
  8
細線
100
AcDbLine
 10
10133.88563138035
 20
7878.515872710922
 30
0.0
 11
10068.54870796188
 21
7878.515872710908
 31
0.0
  0
LINE
  5
18E3B
330
747D
100
AcDbEntity
  8
細線
100
AcDbLine
 10
9993.88560301584
 20
7878.515872705142
 30
0.0
 11
9928.548679597362
 21
7878.515872705128
 31
0.0
  0
LINE
  5
18E3C
330
747D
100
AcDbEntity
  8
細線
100
AcDbLine
 10
9996.217149492025
 20
7873.515855151461
 30
0.0
 11
9993.88560301584
 21
7878.515872705142
 31
0.0
  0
LINE
  5
18E3D
330
747D
100
AcDbEntity
  8
細線
100
AcDbLine
 10
9926.21714130661
 20
7873.515872705171
 30
0.0
 11
9928.548679597378
 21
7878.515872705157
 31
0.0
  0
LINE
  5
18E3E
330
747D
100
AcDbEntity
  8
細線
100
AcDbLine
 10
9786.217176625502
 20
7873.51588089254
 30
0.0
 11
9788.54871491627
 21
7878.515880892526
 31
0.0
  0
LINE
  5
18E3F
330
747D
100
AcDbEntity
  8
細線
100
AcDbLine
 10
9856.217184810917
 20
7873.51586333883
 30
0.0
 11
9853.88563833473
 21
7878.515880892507
 31
0.0
  0
LINE
  5
18E40
330
747D
100
AcDbEntity
  8
細線
100
AcDbLine
 10
9853.88563833473
 20
7878.515880892507
 30
0.0
 11
9788.548714916254
 21
7878.515880892497
 31
0.0
  0
LINE
  5
18E41
330
747D
100
AcDbEntity
  8
細線
100
AcDbLine
 10
9414.717142428381
 20
7839.516052573253
 30
0.0
 11
9417.048680719148
 21
7844.516052573239
 31
0.0
  0
LINE
  5
18E42
330
747D
100
AcDbEntity
  8
細線
100
AcDbLine
 10
9484.717150613796
 20
7839.516035019539
 30
0.0
 11
9482.38560413761
 21
7844.516052573218
 31
0.0
  0
LINE
  5
18E43
330
747D
100
AcDbEntity
  8
細線
100
AcDbLine
 10
9482.38560413761
 20
7844.516052573218
 30
0.0
 11
9417.048680719139
 21
7844.516052573211
 31
0.0
  0
LINE
  5
18E44
330
747D
100
AcDbEntity
  8
細線
100
AcDbLine
 10
9622.38560413761
 20
7844.516052573218
 30
0.0
 11
9557.048680719137
 21
7844.516052573211
 31
0.0
  0
LINE
  5
18E45
330
747D
100
AcDbEntity
  8
細線
100
AcDbLine
 10
9624.717150613797
 20
7839.516035019539
 30
0.0
 11
9622.38560413761
 21
7844.516052573218
 31
0.0
  0
LINE
  5
18E46
330
747D
100
AcDbEntity
  8
細線
100
AcDbLine
 10
9554.71714242838
 20
7839.516052573253
 30
0.0
 11
9557.048680719148
 21
7844.516052573239
 31
0.0
  0
LINE
  5
18E47
330
747D
100
AcDbEntity
  8
細線
100
AcDbLine
 10
9342.385604137609
 20
7844.516052573218
 30
0.0
 11
9277.048680719138
 21
7844.516052573206
 31
0.0
  0
LINE
  5
18E48
330
747D
100
AcDbEntity
  8
細線
100
AcDbLine
 10
9344.717150613796
 20
7839.516035019539
 30
0.0
 11
9342.385604137609
 21
7844.516052573218
 31
0.0
  0
LINE
  5
18E49
330
747D
100
AcDbEntity
  8
細線
100
AcDbLine
 10
9274.71714242838
 20
7839.516052573251
 30
0.0
 11
9277.048680719149
 21
7844.516052573236
 31
0.0
  0
LINE
  5
18E4A
330
747D
100
AcDbEntity
  8
細線
100
AcDbLine
 10
9134.717150613797
 20
7839.516052573253
 30
0.0
 11
9137.048688904563
 21
7844.516052573239
 31
0.0
  0
LINE
  5
18E4B
330
747D
100
AcDbEntity
  8
細線
100
AcDbLine
 10
9204.717158799212
 20
7839.516035019539
 30
0.0
 11
9202.385612323025
 21
7844.516052573218
 31
0.0
  0
LINE
  5
18E4C
330
747D
100
AcDbEntity
  8
細線
100
AcDbLine
 10
9202.385612323025
 20
7844.516052573218
 30
0.0
 11
9137.048688904554
 21
7844.516052573211
 31
0.0
  0
ARC
  5
18E4D
330
747D
100
AcDbEntity
  8
部品1
 48
0.01
100
AcDbCircle
 10
9090.21703936146
 20
7838.51493038818
 30
0.0
 40
0.5
100
AcDbArc
 50
270.0
 51
0.0
  0
LINE
  5
18E4E
330
747D
100
AcDbEntity
  8
部品1
 48
0.01
100
AcDbLine
 10
9090.717039361463
 20
7839.514930388181
 30
0.0
 11
9090.717039361463
 21
7838.51493038818
 31
0.0
  0
LINE
  5
18E4F
330
747D
100
AcDbEntity
  8
部品1
 48
0.01
100
AcDbLine
 10
9090.717039361463
 20
7839.514930388181
 30
0.0
 11
9090.717039361463
 21
7838.51493038818
 31
0.0
  0
LINE
  5
18E50
330
747D
100
AcDbEntity
  8
部品1
 48
0.01
100
AcDbLine
 10
9090.21703936146
 20
7838.01493038818
 30
0.0
 11
9083.604533931397
 21
7838.01493038818
 31
0.0
  0
ARC
  5
18E51
330
747D
100
AcDbEntity
  8
部品1
100
AcDbCircle
 10
9083.672883484178
 20
7839.014930388181
 30
0.0
 40
1.0
100
AcDbArc
 50
160.5287793655778
 51
270.0
  0
ARC
  5
18E52
330
747D
100
AcDbEntity
  8
部品1
100
AcDbCircle
 10
9058.217039361462
 20
7848.014930388181
 30
0.0
 40
26.0
100
AcDbArc
 50
340.5287793655779
 51
0.0
  0
LINE
  5
18E53
330
747D
100
AcDbEntity
  8
部品1
100
AcDbLine
 10
9084.217039361462
 20
7848.014930388181
 30
0.0
 11
9084.217039361462
 21
7853.014930388181
 31
0.0
  0
ARC
  5
18E54
330
747D
100
AcDbEntity
  8
部品1
 48
0.01
100
AcDbCircle
 10
9082.217039361461
 20
7853.014930388181
 30
0.0
 40
2.0
100
AcDbArc
 50
0.0
 51
90.0
  0
ARC
  5
18E55
330
747D
100
AcDbEntity
  8
部品1
100
AcDbCircle
 10
9080.608647736651
 20
7852.014930388181
 30
0.0
 40
3.0
100
AcDbArc
 50
90.0
 51
141.6069559807873
  0
LINE
  5
18E56
330
747D
100
AcDbEntity
  8
部品1
 48
0.01
100
AcDbLine
 10
9082.217039361461
 20
7855.014930388181
 30
0.0
 11
9080.608647736651
 21
7855.014930388181
 31
0.0
  0
ARC
  5
18E57
330
747D
100
AcDbEntity
  8
部品1
100
AcDbCircle
 10
9062.146325147191
 20
7851.314930388183
 30
0.0
 40
3.0
100
AcDbArc
 50
254.0576313943215
 51
270.0
  0
ARC
  5
18E58
330
747D
100
AcDbEntity
  8
部品1
100
AcDbCircle
 10
9069.287753575734
 20
7851.314930388183
 30
0.0
 40
3.0
100
AcDbArc
 50
270.0
 51
285.9423686056786
  0
LINE
  5
18E59
330
747D
100
AcDbEntity
  8
部品1
100
AcDbLine
 10
9069.287753575734
 20
7848.314930388184
 30
0.0
 11
9062.146325147191
 21
7848.314930388184
 31
0.0
  0
ARC
  5
18E5A
330
747D
100
AcDbEntity
  8
部品1
100
AcDbCircle
 10
9065.717039361462
 20
7863.814930388183
 30
0.0
 40
16.0
100
AcDbArc
 50
285.9423686056786
 51
321.6069559807873
  0
LINE
  5
18E5B
330
747D
100
AcDbEntity
  8
部品1
 48
0.01
100
AcDbLine
 10
9049.217039361462
 20
7855.014930388181
 30
0.0
 11
9050.825430986272
 21
7855.014930388181
 31
0.0
  0
ARC
  5
18E5C
330
747D
100
AcDbEntity
  8
部品1
100
AcDbCircle
 10
9050.825430986272
 20
7852.014930388181
 30
0.0
 40
3.0
100
AcDbArc
 50
38.39304401921267
 51
90.0
  0
ARC
  5
18E5D
330
747D
100
AcDbEntity
  8
部品1
100
AcDbCircle
 10
9065.717039361462
 20
7863.814930388183
 30
0.0
 40
16.0
100
AcDbArc
 50
218.3930440192126
 51
254.0576313943215
  0
LINE
  5
18E5E
330
747D
100
AcDbEntity
  8
部品1
100
AcDbLine
 10
9047.217039361461
 20
7848.014930388181
 30
0.0
 11
9047.217039361461
 21
7853.014930388181
 31
0.0
  0
ARC
  5
18E5F
330
747D
100
AcDbEntity
  8
部品1
 48
0.01
100
AcDbCircle
 10
9049.217039361462
 20
7853.014930388181
 30
0.0
 40
2.0
100
AcDbArc
 50
90.0
 51
180.0
  0
ARC
  5
18E60
330
747D
100
AcDbEntity
  8
部品1
100
AcDbCircle
 10
9073.217039361463
 20
7848.014930388181
 30
0.0
 40
26.0
100
AcDbArc
 50
180.0
 51
199.4712206344221
  0
ARC
  5
18E61
330
747D
100
AcDbEntity
  8
部品1
 48
0.01
100
AcDbCircle
 10
9041.217039361461
 20
7838.51493038818
 30
0.0
 40
0.5
100
AcDbArc
 50
180.0
 51
270.0
  0
LINE
  5
18E62
330
747D
100
AcDbEntity
  8
部品1
 48
0.01
100
AcDbLine
 10
9041.217039361461
 20
7838.01493038818
 30
0.0
 11
9047.761195238745
 21
7838.01493038818
 31
0.0
  0
LINE
  5
18E63
330
747D
100
AcDbEntity
  8
部品1
 48
0.01
100
AcDbLine
 10
9040.717039361462
 20
7839.514930388181
 30
0.0
 11
9040.717039361462
 21
7838.51493038818
 31
0.0
  0
ARC
  5
18E64
330
747D
100
AcDbEntity
  8
部品1
100
AcDbCircle
 10
9047.761195238745
 20
7839.014930388181
 30
0.0
 40
1.0
100
AcDbArc
 50
270.0
 51
19.47122063442214
  0
LINE
  5
18E65
330
747D
100
AcDbEntity
  8
細線
100
AcDbLine
 10
9086.21703936147
 20
7857.514930388184
 30
0.0
 11
9045.217039361469
 21
7857.514930388177
 31
0.0
  0
LINE
  5
18E66
330
747D
100
AcDbEntity
  8
細線
100
AcDbLine
 10
9045.217039361469
 20
7857.514930388177
 30
0.0
 11
9045.217039361469
 21
7839.514930388159
 31
0.0
  0
LINE
  5
18E67
330
747D
100
AcDbEntity
  8
細線
100
AcDbLine
 10
9086.21703936147
 20
7857.514930388184
 30
0.0
 11
9086.21703936147
 21
7839.514930388159
 31
0.0
  0
LINE
  5
18E68
330
747D
100
AcDbEntity
  8
細線
100
AcDbLine
 10
8929.717145960207
 20
7843.515860842585
 30
0.0
 11
8929.717145960207
 21
7839.515860842631
 31
0.0
  0
DIMENSION
  5
18E69
330
747D
100
AcDbEntity
  8
寸法
 48
50.0
100
AcDbDimension
  2
*D30
 10
10195.71714596021
 20
7196.681146384785
 30
0.0
 11
9567.931294128895
 21
7196.681146384785
 31
0.0
 70
   160
  1
有効開口部間口\P<>
 71
     5
 42
1266.0
  3
INABA_S40
100
AcDbAlignedDimension
 13
8929.717145960207
 23
7834.515860842585
 33
0.0
 14
10195.71714596021
 24
7834.515860842585
 34
0.0
100
AcDbRotatedDimension
1001
ACAD
1000
DSTYLE
1002
{
1070
    41
1040
0.5
1070
    44
1040
1.0
1070
   147
1040
0.8
1070
   271
1070
     2
1070
   272
1070
     2
1070
   289
1070
     3
1070
   340
1005
F706
1070
   343
1005
17852
1070
   344
1005
17852
1002
}
  0
LINE
  5
18E6A
330
747D
100
AcDbEntity
  8
部品1
100
AcDbLine
 10
11017.7171459602
 20
7911.515860842584
 30
0.0
 11
11044.71714596021
 21
7911.515860842584
 31
0.0
  0
LINE
  5
18E6C
330
747D
100
AcDbEntity
  8
部品1
100
AcDbLine
 10
11044.71714596021
 20
7834.515860842585
 30
0.0
 11
11044.71714596021
 21
7911.515860842584
 31
0.0
  0
LINE
  5
18E6D
330
747D
100
AcDbEntity
  8
部品1
100
AcDbLine
 10
11005.7171459602
 20
7907.515860842585
 30
0.0
 11
11017.7171459602
 21
7907.515860842585
 31
0.0
  0
LINE
  5
18E6E
330
747D
100
AcDbEntity
  8
部品1
100
AcDbLine
 10
11014.7171459602
 20
7843.515860842585
 30
0.0
 11
11014.7171459602
 21
7834.515860842585
 31
0.0
  0
LINE
  5
18E6F
330
747D
100
AcDbEntity
  8
部品1
100
AcDbLine
 10
11005.7171459602
 20
7843.515860842585
 30
0.0
 11
11014.7171459602
 21
7843.515860842585
 31
0.0
  0
LINE
  5
18E70
330
747D
100
AcDbEntity
  8
部品1
100
AcDbLine
 10
11005.7171459602
 20
7907.515860842585
 30
0.0
 11
11005.7171459602
 21
7843.515860842585
 31
0.0
  0
LINE
  5
18E71
330
747D
100
AcDbEntity
  8
部品1
100
AcDbLine
 10
11017.7171459602
 20
7938.515860842584
 30
0.0
 11
11017.7171459602
 21
7907.515860842585
 31
0.0
  0
LINE
  5
18E72
330
747D
100
AcDbEntity
  8
部品1
100
AcDbLine
 10
8929.717145960207
 20
7907.515860842585
 30
0.0
 11
8917.717145960207
 21
7907.515860842585
 31
0.0
  0
LINE
  5
18E73
330
747D
100
AcDbEntity
  8
部品1
100
AcDbLine
 10
8890.717145960207
 20
7911.515860842584
 30
0.0
 11
8917.717145960207
 21
7911.515860842584
 31
0.0
  0
LINE
  5
18E74
330
747D
100
AcDbEntity
  8
部品1
100
AcDbLine
 10
8920.717145960207
 20
7843.515860842585
 30
0.0
 11
8920.717145960207
 21
7834.515860842585
 31
0.0
  0
LINE
  5
18E75
330
747D
100
AcDbEntity
  8
部品1
100
AcDbLine
 10
8929.717145960207
 20
7843.515860842585
 30
0.0
 11
8920.717145960207
 21
7843.515860842585
 31
0.0
  0
LINE
  5
18E76
330
747D
100
AcDbEntity
  8
部品1
100
AcDbLine
 10
8920.717145960207
 20
7834.515860842585
 30
0.0
 11
8890.717145960207
 21
7834.515860842585
 31
0.0
  0
LINE
  5
18E77
330
747D
100
AcDbEntity
  8
部品1
100
AcDbLine
 10
8890.717145960207
 20
7834.515860842585
 30
0.0
 11
8890.717145960207
 21
7911.515860842584
 31
0.0
  0
LINE
  5
18E78
330
747D
100
AcDbEntity
  8
部品1
100
AcDbLine
 10
8929.717145960207
 20
7907.515860842585
 30
0.0
 11
8929.717145960207
 21
7843.515860842585
 31
0.0
  0
LINE
  5
18E79
330
747D
100
AcDbEntity
  8
部品1
100
AcDbLine
 10
8917.717145960207
 20
7938.515860842581
 30
0.0
 11
8917.717145960207
 21
7907.515860842585
 31
0.0
  0
LINE
  5
18E7A
330
747D
100
AcDbEntity
  8
部品1
100
AcDbLine
 10
8917.717145960207
 20
7938.515860842581
 30
0.0
 11
11017.7171459602
 21
7938.515860842584
 31
0.0
  0
LINE
  5
18E7B
330
747D
100
AcDbEntity
  8
部品1
100
AcDbLine
 10
11014.7171459602
 20
7834.515860842585
 30
0.0
 11
11044.71714596021
 21
7834.515860842585
 31
0.0
  0
LINE
  5
18E7C
330
747D
100
AcDbEntity
  8
部品1
100
AcDbLine
 10
8920.717145960207
 20
7834.515860842585
 30
0.0
 11
11017.7171459602
 21
7834.515860842585
 31
0.0
  0
LINE
  5
18E7D
330
747D
100
AcDbEntity
  8
細線
  6
Continuous
 62
     5
100
AcDbLine
 10
10296.71714596021
 20
7873.51586084258
 30
0.0
 11
10296.71714596021
 21
7873.51586084258
 31
0.0
  0
LINE
  5
18E7E
330
747D
100
AcDbEntity
  8
細線
  6
Continuous
 62
     5
100
AcDbLine
 10
10289.2171812791
 20
7873.515870763639
 30
0.0
 11
10289.2171812791
 21
7873.515870763639
 31
0.0
  0
LINE
  5
18E7F
330
747D
100
AcDbEntity
  8
細線
  6
Continuous
 62
     5
100
AcDbLine
 10
10283.2171812791
 20
7873.515870763639
 30
0.0
 11
10283.2171812791
 21
7873.515870763639
 31
0.0
  0
LINE
  5
18E80
330
747D
100
AcDbEntity
  8
細線
  6
Continuous
 62
     5
100
AcDbLine
 10
10350.71714596021
 20
7892.51586084258
 30
0.0
 11
10350.71714596021
 21
7892.51586084258
 31
0.0
  0
LINE
  5
18E81
330
747D
100
AcDbEntity
  8
細線
 48
50.0
100
AcDbLine
 10
8943.7171506138
 20
7860.116035019538
 30
0.0
 11
8943.7171506138
 21
7868.512185427178
 31
0.0
  0
LINE
  5
18E82
330
747D
100
AcDbEntity
  8
細線
 48
50.0
100
AcDbLine
 10
8943.7171506138
 20
7868.512185427178
 30
0.0
 11
8929.717145960207
 21
7868.512185427174
 31
0.0
  0
LINE
  5
18E83
330
747D
100
AcDbEntity
  8
細線
 48
50.0
100
AcDbLine
 10
9694.717150613797
 20
7856.666035019538
 30
0.0
 11
9694.717150613797
 21
7861.51603501954
 31
0.0
  0
LINE
  5
18E84
330
747D
100
AcDbEntity
  8
細線
 48
50.0
100
AcDbLine
 10
9694.717150613797
 20
7861.51603501954
 30
0.0
 11
9709.717150613798
 21
7861.51603501954
 31
0.0
  0
LINE
  5
18E85
330
747D
100
AcDbEntity
  8
細線
 48
50.0
100
AcDbLine
 10
9709.717150613798
 20
7861.51603501954
 30
0.0
 11
9709.717150613801
 21
7868.51603501954
 31
0.0
  0
LINE
  5
18E86
330
747D
100
AcDbEntity
  8
細線
 48
50.0
100
AcDbLine
 10
9709.717150613801
 20
7868.51603501954
 30
0.0
 11
9724.717150613798
 21
7868.51603501954
 31
0.0
  0
LINE
  5
18E87
330
747D
100
AcDbEntity
  8
細線
 48
50.0
100
AcDbLine
 10
9724.717150613798
 20
7868.51603501954
 30
0.0
 11
9724.717150613798
 21
7839.516035019539
 31
0.0
  0
LINE
  5
18E88
330
747D
100
AcDbEntity
  8
細線
 48
50.0
100
AcDbLine
 10
8920.717145960207
 20
7839.513369363008
 30
0.0
 11
9134.717150613797
 21
7839.516052573253
 31
0.0
  0
LINE
  5
18E89
330
747D
100
AcDbEntity
  8
細線
 48
50.0
100
AcDbLine
 10
9624.717150613797
 20
7839.516035019539
 30
0.0
 11
9724.717150613798
 21
7839.516035019539
 31
0.0
  0
LINE
  5
18E8A
330
747D
100
AcDbEntity
  8
細線
 48
50.0
100
AcDbLine
 10
9344.717150613796
 20
7839.516035019539
 30
0.0
 11
9414.717150613796
 21
7839.516035019539
 31
0.0
  0
LINE
  5
18E8B
330
747D
100
AcDbEntity
  8
細線
 48
50.0
100
AcDbLine
 10
9357.579115626327
 20
7839.516035019539
 30
0.0
 11
9363.334633208992
 21
7857.786886310034
 31
0.0
  0
LINE
  5
18E8C
330
747D
100
AcDbEntity
  8
細線
 48
50.0
100
AcDbLine
 10
9363.334633208992
 20
7857.786886310034
 30
0.0
 11
9374.263081689427
 21
7857.78688631003
 31
0.0
  0
ARC
  5
18E8D
330
747D
100
AcDbEntity
  8
細線
 48
50.0
100
AcDbCircle
 10
9374.263081689427
 20
7856.78688631003
 30
0.0
 40
1.0
100
AcDbArc
 50
24.62431835213048
 51
90.0
  0
ARC
  5
18E8E
330
747D
100
AcDbEntity
  8
細線
 48
50.0
100
AcDbCircle
 10
9385.17179380406
 20
7856.78688631003
 30
0.0
 40
1.0
100
AcDbArc
 50
90.0
 51
155.3756816478695
  0
ARC
  5
18E8F
330
747D
100
AcDbEntity
  8
細線
 48
50.0
100
AcDbCircle
 10
9379.717437746741
 20
7859.28688631003
 30
0.0
 40
5.0
100
AcDbArc
 50
204.6243183521304
 51
335.3756816478695
  0
LINE
  5
18E90
330
747D
100
AcDbEntity
  8
細線
 48
50.0
100
AcDbLine
 10
9385.17179380406
 20
7857.78688631003
 30
0.0
 11
9396.100242284495
 21
7857.786886310034
 31
0.0
  0
LINE
  5
18E91
330
747D
100
AcDbEntity
  8
細線
 48
50.0
100
AcDbLine
 10
9396.100242284495
 20
7857.786886310034
 30
0.0
 11
9401.855759867162
 21
7839.516035019539
 31
0.0
  0
LINE
  5
18E92
330
747D
100
AcDbEntity
  8
細線
 48
50.0
100
AcDbLine
 10
9694.717150613797
 20
7860.116035019538
 30
0.0
 11
8943.7171506138
 21
7860.116035019538
 31
0.0
  0
LINE
  5
18E93
330
747D
100
AcDbEntity
  8
細線
 48
50.0
100
AcDbLine
 10
9554.717150613797
 20
7839.516035019539
 30
0.0
 11
9484.717150613796
 21
7839.516035019539
 31
0.0
  0
LINE
  5
18E94
330
747D
100
AcDbEntity
  8
細線
100
AcDbLine
 10
9274.717150613797
 20
7839.516035019539
 30
0.0
 11
9204.717158799212
 21
7839.516035019539
 31
0.0
  0
LINE
  5
18E95
330
747D
100
AcDbEntity
  8
細線
 48
50.0
100
AcDbLine
 10
10348.71714130662
 20
7894.116078877407
 30
0.0
 11
9713.717150613797
 21
7894.116078877402
 31
0.0
  0
LINE
  5
18E96
330
747D
100
AcDbEntity
  8
細線
 48
50.0
100
AcDbLine
 10
9713.717150613797
 20
7891.012229285045
 30
0.0
 11
9713.717150613797
 21
7895.512229285046
 31
0.0
  0
LINE
  5
18E97
330
747D
100
AcDbEntity
  8
細線
 48
50.0
100
AcDbLine
 10
9713.717150613797
 20
7895.512229285046
 30
0.0
 11
9698.717150613797
 21
7895.512229285046
 31
0.0
  0
LINE
  5
18E98
330
747D
100
AcDbEntity
  8
細線
 48
50.0
100
AcDbLine
 10
9698.717150613797
 20
7895.512229285046
 30
0.0
 11
9698.717150613797
 21
7902.512229285047
 31
0.0
  0
LINE
  5
18E99
330
747D
100
AcDbEntity
  8
細線
 48
50.0
100
AcDbLine
 10
9698.717150613797
 20
7902.512229285047
 30
0.0
 11
9683.717150613802
 21
7902.512229285043
 31
0.0
  0
LINE
  5
18E9A
330
747D
100
AcDbEntity
  8
細線
 48
50.0
100
AcDbLine
 10
9683.717150613802
 20
7902.512229285043
 30
0.0
 11
9683.717150613802
 21
7864.912001181932
 31
0.0
  0
LINE
  5
18E9B
330
747D
100
AcDbEntity
  8
細線
 48
50.0
100
AcDbLine
 10
9683.717150613802
 20
7864.912001181932
 30
0.0
 11
9703.717157914972
 21
7864.912042731474
 31
0.0
  0
LINE
  5
18E9C
330
747D
100
AcDbEntity
  8
細線
 48
50.0
100
AcDbLine
 10
9703.717113046032
 20
7873.515504367282
 30
0.0
 11
9703.717157914972
 21
7864.912042731474
 31
0.0
  0
LINE
  5
18E9D
330
747D
100
AcDbEntity
  8
細線
 48
50.0
100
AcDbLine
 10
10348.71714130662
 20
7890.666078877406
 30
0.0
 11
10348.71714130662
 21
7895.516078877405
 31
0.0
  0
LINE
  5
18E9E
330
747D
100
AcDbEntity
  8
細線
 48
50.0
100
AcDbLine
 10
10348.71714130662
 20
7895.516078877405
 30
0.0
 11
10363.71714130662
 21
7895.516078877405
 31
0.0
  0
LINE
  5
18E9F
330
747D
100
AcDbEntity
  8
細線
 48
50.0
100
AcDbLine
 10
10363.71714130662
 20
7895.516078877405
 30
0.0
 11
10363.71715294059
 21
7902.516078877448
 31
0.0
  0
LINE
  5
18EA0
330
747D
100
AcDbEntity
  8
細線
 48
50.0
100
AcDbLine
 10
10363.71715294059
 20
7902.516078877448
 30
0.0
 11
10378.71715111112
 21
7902.516078877448
 31
0.0
  0
LINE
  5
18EA1
330
747D
100
AcDbEntity
  8
細線
 48
50.0
100
AcDbLine
 10
10378.71715111112
 20
7902.516078877448
 30
0.0
 11
10378.7171408093
 21
7873.515872705175
 31
0.0
  0
LINE
  5
18EA2
330
747D
100
AcDbEntity
  8
細線
 48
50.0
100
AcDbLine
 10
10066.21716844008
 20
7873.51588089254
 30
0.0
 11
9996.217420522503
 21
7873.515875455203
 31
0.0
  0
LINE
  5
18EA3
330
747D
100
AcDbEntity
  8
細線
 48
50.0
100
AcDbLine
 10
9703.717113046032
 20
7873.515504367282
 30
0.0
 11
9714.949802400742
 21
7873.515687320429
 31
0.0
  0
ARC
  5
18EA4
330
747D
100
AcDbEntity
  8
細線
 48
50.0
100
AcDbCircle
 10
9721.532094708077
 20
7872.315851234041
 30
0.0
 40
1.8
100
AcDbArc
 50
270.0006665777295
 51
345.0005554812987
  0
LINE
  5
18EA5
330
747D
100
AcDbEntity
  8
細線
 48
50.0
100
AcDbLine
 10
9723.518528154157
 20
7872.77469169132
 30
0.0
 11
9723.270765711959
 21
7871.849993809213
 31
0.0
  0
LINE
  5
18EA6
330
747D
100
AcDbEntity
  8
細線
 48
50.0
100
AcDbLine
 10
9721.532115649232
 20
7870.515851234163
 30
0.0
 11
9717.902188230462
 21
7870.515809003681
 31
0.0
  0
ARC
  5
18EA7
330
747D
100
AcDbEntity
  8
細線
 48
50.0
100
AcDbCircle
 10
9717.90216728931
 20
7872.315809003561
 30
0.0
 40
1.8
100
AcDbArc
 50
195.0010443049394
 51
270.0006665777295
  0
LINE
  5
18EA8
330
747D
100
AcDbEntity
  8
細線
 48
50.0
100
AcDbLine
 10
9715.915739797052
 20
7872.774523971125
 30
0.0
 11
9716.163509293565
 21
7871.849903032544
 31
0.0
  0
ARC
  5
18EA9
330
747D
100
AcDbEntity
  8
細線
 48
50.0
100
AcDbCircle
 10
9714.949818688303
 20
7872.515687320563
 30
0.0
 40
1.0
100
AcDbArc
 50
15.00104430493943
 51
90.00093320877969
  0
LINE
  5
18EAA
330
747D
100
AcDbEntity
  8
細線
 48
50.0
100
AcDbLine
 10
9724.48444950926
 20
7873.515882010834
 30
0.0
 11
9725.426209660163
 21
7873.515888584683
 31
0.0
  0
ARC
  5
18EAB
330
747D
100
AcDbEntity
  8
細線
 48
50.0
100
AcDbCircle
 10
9724.484456489646
 20
7872.515882010858
 30
0.0
 40
1.0
100
AcDbArc
 50
90.0003999466794
 51
165.0005554812987
  0
LINE
  5
18EAC
330
747D
100
AcDbEntity
  8
細線
 48
50.0
100
AcDbLine
 10
10276.21714130661
 20
7873.515872705175
 30
0.0
 11
10378.7171408093
 21
7873.515872705175
 31
0.0
  0
LINE
  5
18EAD
330
747D
100
AcDbEntity
  8
細線
 48
50.0
100
AcDbLine
 10
9786.217176625502
 20
7873.51588089254
 30
0.0
 11
9725.117115398582
 21
7873.515888584683
 31
0.0
  0
LINE
  5
18EAE
330
747D
100
AcDbEntity
  8
細線
 48
50.0
100
AcDbLine
 10
10206.2171766255
 20
7873.515917733624
 30
0.0
 11
10136.21716967111
 21
7873.515872710957
 31
0.0
  0
LINE
  5
18EAF
330
747D
100
AcDbEntity
  8
細線
 48
50.0
100
AcDbLine
 10
9926.21714130661
 20
7873.515872705171
 30
0.0
 11
9856.217124018735
 21
7873.515872705178
 31
0.0
  0
ARC
  5
18EB0
330
747D
100
AcDbEntity
  8
細線
 48
50.0
100
AcDbCircle
 10
10362.91714596022
 20
7906.715860842585
 30
0.0
 40
0.8
100
AcDbArc
 50
359.9997333689499
 51
89.99986668437072
  0
ARC
  5
18EB1
330
747D
100
AcDbEntity
  8
細線
 48
50.0
100
AcDbCircle
 10
10370.51715278531
 20
7906.715872011202
 30
0.0
 40
0.8
100
AcDbArc
 50
90.00014387753465
 51
179.9997333689498
  0
LINE
  5
18EB2
330
747D
100
AcDbEntity
  8
細線
 48
50.0
100
AcDbLine
 10
10362.91714782165
 20
7907.515860842585
 30
0.0
 11
10357.71714596021
 21
7907.515860842585
 31
0.0
  0
ARC
  5
18EB3
330
747D
100
AcDbEntity
  8
細線
 48
50.0
100
AcDbCircle
 10
10364.4171459602
 20
7905.215860842585
 30
0.0
 40
0.7
100
AcDbArc
 50
180.0
 51
270.0
  0
ARC
  5
18EB4
330
747D
100
AcDbEntity
  8
細線
 48
50.0
100
AcDbCircle
 10
10369.01714596021
 20
7905.215860842585
 30
0.0
 40
0.7
100
AcDbArc
 50
270.0
 51
0.0
  0
LINE
  5
18EB5
330
747D
100
AcDbEntity
  8
細線
 48
50.0
100
AcDbLine
 10
10369.7171459602
 20
7905.215860842585
 30
0.0
 11
10369.71715278532
 21
7906.715875734073
 31
0.0
  0
LINE
  5
18EB6
330
747D
100
AcDbEntity
  8
細線
 48
50.0
100
AcDbLine
 10
10364.4171459602
 20
7904.515860842585
 30
0.0
 11
10369.01714596021
 21
7904.515860842585
 31
0.0
  0
LINE
  5
18EB7
330
747D
100
AcDbEntity
  8
細線
 48
50.0
100
AcDbLine
 10
10363.7171459602
 20
7906.715860842585
 30
0.0
 11
10363.7171459602
 21
7905.215860842585
 31
0.0
  0
LINE
  5
18EB8
330
747D
100
AcDbEntity
  8
細線
 48
50.0
100
AcDbLine
 10
10989.31714596021
 20
7937.515860842585
 30
0.0
 11
10352.7171459602
 21
7937.51586084258
 31
0.0
  0
LINE
  5
18EB9
330
747D
100
AcDbEntity
  8
細線
 48
50.0
100
AcDbLine
 10
11015.2171459602
 20
7932.515860842588
 30
0.0
 11
10999.31714596021
 21
7932.515860842585
 31
0.0
  0
LINE
  5
18EBA
330
747D
100
AcDbEntity
  8
細線
 48
50.0
100
AcDbLine
 10
10999.31714596021
 20
7932.515860842585
 30
0.0
 11
10989.31714596021
 21
7937.515860842585
 31
0.0
  0
LINE
  5
18EBB
330
747D
100
AcDbEntity
  8
細線
100
AcDbLine
 10
10600.2171459602
 20
7907.515860842585
 30
0.0
 11
10600.2171459602
 21
7936.815860842584
 31
0.0
  0
LINE
  5
18EBC
330
747D
100
AcDbEntity
  8
細線
100
AcDbLine
 10
10600.2171459602
 20
7936.815860842584
 30
0.0
 11
10620.2171459602
 21
7936.815860842584
 31
0.0
  0
LINE
  5
18EBD
330
747D
100
AcDbEntity
  8
細線
100
AcDbLine
 10
10620.2171459602
 20
7907.515860842585
 30
0.0
 11
10620.2171459602
 21
7936.815860842584
 31
0.0
  0
LINE
  5
18EBE
330
747D
100
AcDbEntity
  8
細線
100
AcDbLine
 10
10781.4671459602
 20
7907.515860842585
 30
0.0
 11
10711.4671459602
 21
7907.515860842585
 31
0.0
  0
LINE
  5
18EBF
330
747D
100
AcDbEntity
  8
細線
 48
50.0
100
AcDbLine
 10
10501.46714596021
 20
7907.515860842585
 30
0.0
 11
10370.51292553305
 21
7907.515860842585
 31
0.0
  0
LINE
  5
18EC0
330
747D
100
AcDbEntity
  8
細線
100
AcDbLine
 10
10641.46714596021
 20
7907.515860842585
 30
0.0
 11
10571.4671459602
 21
7907.515860842585
 31
0.0
  0
LINE
  5
18EC1
330
747D
100
AcDbEntity
  8
細線
 48
50.0
100
AcDbLine
 10
10357.71714596021
 20
7899.515860842585
 30
0.0
 11
10357.71714596021
 21
7907.515860842585
 31
0.0
  0
LINE
  5
18EC2
330
747D
100
AcDbEntity
  8
細線
 48
50.0
100
AcDbLine
 10
10337.71714596021
 20
7899.515860842588
 30
0.0
 11
10357.71714596021
 21
7899.515860842585
 31
0.0
  0
LINE
  5
18EC3
330
747D
100
AcDbEntity
  8
細線
 48
50.0
100
AcDbLine
 10
10352.7171459602
 20
7937.515860842585
 30
0.0
 11
10352.7171459602
 21
7932.515860842585
 31
0.0
  0
LINE
  5
18EC4
330
747D
100
AcDbEntity
  8
細線
 48
50.0
100
AcDbLine
 10
10337.71714596021
 20
7937.51586084258
 30
0.0
 11
10352.7171459602
 21
7937.515860842585
 31
0.0
  0
LINE
  5
18EC5
330
747D
100
AcDbEntity
  8
細線
 48
50.0
100
AcDbLine
 10
10337.71714596021
 20
7899.515860842588
 30
0.0
 11
10337.71714596021
 21
7937.51586084258
 31
0.0
  0
LINE
  5
18EC6
330
747D
100
AcDbEntity
  8
細線
100
AcDbLine
 10
11005.7171459602
 20
7907.515860842585
 30
0.0
 11
10851.4671459602
 21
7907.515860842585
 31
0.0
  0
LINE
  5
18EC7
330
747D
100
AcDbEntity
  8
細線
 48
50.0
100
AcDbLine
 10
11015.2171459602
 20
7932.515860842588
 30
0.0
 11
11015.2171459602
 21
7907.515860842585
 31
0.0
  0
DIMENSION
  5
19105
330
747D
100
AcDbEntity
  8
寸法
 48
50.0
100
AcDbDimension
  2
*D31
 10
11044.71714596021
 20
6874.172056603353
 30
0.0
 11
9945.853892156673
 21
6874.172056603353
 31
0.0
 70
   160
 71
     5
 42
2154.0
  3
INABA_S40G
100
AcDbAlignedDimension
 13
8890.717145960207
 23
7836.515860842547
 33
0.0
 14
11044.71714596021
 24
7836.515860842547
 34
0.0
100
AcDbRotatedDimension
1001
ACAD
1000
DSTYLE
1002
{
1070
   341
1005
0
1002
}
  0
DIMENSION
  5
19106
330
747D
100
AcDbEntity
  8
寸法
100
AcDbDimension
  2
*D32
 10
8148.105900333515
 20
7836.515860842547
 30
0.0
 11
8148.105900333515
 21
7696.03057946831
 31
0.0
 70
   160
 71
     5
 42
75.0
  3
INABA_S40
100
AcDbAlignedDimension
 13
8442.717145960232
 23
7911.515860842547
 33
0.0
 14
8890.717145960207
 24
7836.515860842547
 34
0.0
 50
90.0
100
AcDbRotatedDimension
1001
ACAD
1000
DSTYLE
1002
{
1070
    41
1040
0.5
1070
    44
1040
1.0
1070
   147
1040
0.8
1070
   271
1070
     2
1070
   272
1070
     2
1070
   289
1070
     3
1070
   340
1005
F706
1070
   343
1005
17852
1070
   344
1005
17852
1002
}
  0
DIMENSION
  5
19207
330
747D
100
AcDbEntity
  8
寸法
100
AcDbDimension
  2
*D33
 10
11492.71714596021
 20
6616.058944480093
 30
0.0
 11
9941.66281505768
 21
6616.058944480093
 31
0.0
 70
   160
 71
     5
 42
3049.999999999982
  3
INABA_S40G
100
AcDbAlignedDimension
 13
8442.717145960232
 23
7911.515860842552
 33
0.0
 14
11492.71714596021
 24
7911.515860842715
 34
0.0
100
AcDbRotatedDimension
1001
ACAD
1000
DSTYLE
1002
{
1002
}
  0
LINE
  5
19214
330
747D
100
AcDbEntity
  8
部品1
100
AcDbLine
 10
10349.45247907445
 20
6376.632460701004
 30
0.0
 11
9585.981812846011
 21
6376.632460701004
 31
0.0
  0
LINE
  5
19215
330
747D
100
AcDbEntity
  8
部品1
100
AcDbLine
 10
10349.45247907445
 20
6136.740139155471
 30
0.0
 11
10349.45247907445
 21
6376.632460701004
 31
0.0
  0
LINE
  5
19216
330
747D
100
AcDbEntity
  8
部品1
100
AcDbLine
 10
9585.981812846011
 20
6136.740139155471
 30
0.0
 11
10349.45247907445
 21
6136.740139155471
 31
0.0
  0
LINE
  5
19217
330
747D
100
AcDbEntity
  8
部品1
100
AcDbLine
 10
9585.981812846011
 20
6376.632460701004
 30
0.0
 11
9585.981812846011
 21
6136.740139155471
 31
0.0
  0
TEXT
  5
19218
330
747D
100
AcDbEntity
  8
部品1
100
AcDbText
 10
9675.901422675048
 20
6183.73893148248
 30
0.0
 40
135.0
  1
平面図
  7
STYLE2
100
AcDbText
  0
LWPOLYLINE
  5
19432
330
747D
100
AcDbEntity
  8
部品1
 48
50.0
100
AcDbPolyline
 90
        4
 70
     1
 43
0.0
 10
8989.767145960229
 20
3557.894648948028
 10
8992.667145960231
 20
3557.894648948028
 10
8992.667145960231
 20
3567.394648948028
 10
8989.767145960229
 20
3567.394648948028
  0
CIRCLE
  5
19433
330
747D
100
AcDbEntity
  8
部品1
 48
50.0
100
AcDbCircle
 10
8991.217145960231
 20
3562.644648948028
 30
0.0
 40
9.0
  0
ARC
  5
19434
330
747D
100
AcDbEntity
  8
細線
 48
50.0
100
AcDbCircle
 10
8991.217145960231
 20
3562.644648948028
 30
0.0
 40
4.0
100
AcDbArc
 50
111.2538091853132
 51
248.7461908146868
  0
ARC
  5
19435
330
747D
100
AcDbEntity
  8
細線
 48
50.0
100
AcDbCircle
 10
8991.217145960231
 20
3562.644648948028
 30
0.0
 40
17.5
100
AcDbArc
 50
306.4837370612677
 51
233.5162629387323
  0
LINE
  5
19436
330
747D
100
AcDbEntity
  8
細線
 48
50.0
100
AcDbLine
 10
9001.217145960227
 20
3538.785688367145
 30
0.0
 11
9001.217145960231
 21
3547.770174167386
 31
0.0
  0
LINE
  5
19437
330
747D
100
AcDbEntity
  8
細線
 48
50.0
100
AcDbLine
 10
8981.217145960231
 20
3538.785688367147
 30
0.0
 11
8981.217145960231
 21
3547.770174167383
 31
0.0
  0
ARC
  5
19438
330
747D
100
AcDbEntity
  8
細線
 48
50.0
100
AcDbCircle
 10
8991.217145960231
 20
3562.644648948028
 30
0.0
 40
26.5
100
AcDbArc
 50
249.3326835063939
 51
290.6673164933835
  0
ARC
  5
19439
330
747D
100
AcDbEntity
  8
細線
 48
50.0
100
AcDbCircle
 10
9000.217145960224
 20
3538.785688367145
 30
0.0
 40
1.0
100
AcDbArc
 50
290.6673164936062
 51
359.9999999998958
  0
ARC
  5
1943A
330
747D
100
AcDbEntity
  8
細線
 48
50.0
100
AcDbCircle
 10
8982.21714596023
 20
3538.785688367147
 30
0.0
 40
1.0
100
AcDbArc
 50
180.0
 51
249.3326835066164
  0
ARC
  5
1943B
330
747D
100
AcDbEntity
  8
細線
 48
50.0
100
AcDbCircle
 10
8980.21714596023
 20
3547.770174167383
 30
0.0
 40
1.0
100
AcDbArc
 50
0.0
 51
53.51626293873231
  0
ARC
  5
1943C
330
747D
100
AcDbEntity
  8
細線
 48
50.0
100
AcDbCircle
 10
9002.217145960235
 20
3547.770174167386
 30
0.0
 40
1.0
100
AcDbArc
 50
126.4837370615127
 51
180.0
  0
ARC
  5
1943D
330
747D
100
AcDbEntity
  8
細線
 48
50.0
100
AcDbCircle
 10
8991.217145960231
 20
3562.644648948028
 30
0.0
 40
21.5
100
AcDbArc
 50
255.8014401250294
 51
284.1985598749706
  0
ARC
  5
1943E
330
747D
100
AcDbEntity
  8
細線
 48
50.0
100
AcDbCircle
 10
8991.217145960231
 20
3562.644648948028
 30
0.0
 40
16.5
100
AcDbArc
 50
251.9694646069326
 51
288.0305353930674
  0
LINE
  5
1943F
330
747D
100
AcDbEntity
  8
細線
 48
50.0
100
AcDbLine
 10
8996.71714596023
 20
3542.092276822221
 30
0.0
 11
8996.71714596023
 21
3546.669668509558
 31
0.0
  0
LINE
  5
19440
330
747D
100
AcDbEntity
  8
細線
 48
50.0
100
AcDbLine
 10
8985.717145960231
 20
3542.092276822221
 30
0.0
 11
8985.717145960231
 21
3546.669668509556
 31
0.0
  0
ARC
  5
19441
330
747D
100
AcDbEntity
  8
細線
 48
50.0
100
AcDbCircle
 10
8986.017145960234
 20
3546.669668509556
 30
0.0
 40
0.3
100
AcDbArc
 50
71.96946460693259
 51
180.0
  0
ARC
  5
19442
330
747D
100
AcDbEntity
  8
細線
 48
50.0
100
AcDbCircle
 10
8996.417145960231
 20
3546.669668509558
 30
0.0
 40
0.3
100
AcDbArc
 50
0.0
 51
108.0305353930674
  0
ARC
  5
19443
330
747D
100
AcDbEntity
  8
細線
 48
50.0
100
AcDbCircle
 10
8996.417145960228
 20
3542.092276822221
 30
0.0
 40
0.3
100
AcDbArc
 50
284.1985598747622
 51
0.0000000001042204
  0
ARC
  5
19444
330
747D
100
AcDbEntity
  8
細線
 48
50.0
100
AcDbCircle
 10
8986.017145960234
 20
3542.092276822221
 30
0.0
 40
0.3
100
AcDbArc
 50
180.0
 51
255.8014401248081
  0
CIRCLE
  5
19445
330
747D
100
AcDbEntity
  8
細線
 48
50.0
100
AcDbCircle
 10
8991.217145960231
 20
3562.644648948028
 30
0.0
 40
12.0
  0
ARC
  5
19446
330
747D
100
AcDbEntity
  8
部品1
 48
50.0
100
AcDbCircle
 10
8991.217145960231
 20
3612.644648948028
 30
0.0
 40
8.5
100
AcDbArc
 50
114.315739171091
 51
245.684260828909
  0
CIRCLE
  5
19447
330
747D
100
AcDbEntity
  8
細線
 48
50.0
100
AcDbCircle
 10
8991.217145960231
 20
3612.644648948028
 30
0.0
 40
4.5
  0
LWPOLYLINE
  5
19448
330
747D
100
AcDbEntity
  8
部品1
 48
50.0
100
AcDbPolyline
 90
        2
 70
     0
 43
0.0
 10
8987.71714596023
 20
3631.31949834501
 10
8987.71714596023
 20
3620.390615640443
  0
CIRCLE
  5
19449
330
747D
100
AcDbEntity
  8
部品1
 48
50.0
100
AcDbCircle
 10
8991.217145960231
 20
3612.644648948028
 30
0.0
 40
19.0
  0
LWPOLYLINE
  5
1944A
330
747D
100
AcDbEntity
  8
部品1
 48
50.0
100
AcDbPolyline
 90
        2
 70
     0
 43
0.0
 10
8987.71714596023
 20
3604.898682255612
 10
8987.71714596023
 20
3593.969799551045
  0
LWPOLYLINE
  5
1944B
330
747D
100
AcDbEntity
  8
部品1
 48
50.0
100
AcDbPolyline
 90
        2
 70
     0
 43
0.0
 10
8994.71714596023
 20
3620.390615640443
 10
8994.71714596023
 20
3631.31949834501
  0
ARC
  5
1944C
330
747D
100
AcDbEntity
  8
部品1
 48
50.0
100
AcDbCircle
 10
8991.217145960231
 20
3612.644648948028
 30
0.0
 40
8.5
100
AcDbArc
 50
294.315739171091
 51
65.68426082890896
  0
LWPOLYLINE
  5
1944D
330
747D
100
AcDbEntity
  8
部品1
 48
50.0
100
AcDbPolyline
 90
        2
 70
     0
 43
0.0
 10
8994.71714596023
 20
3593.969799551045
 10
8994.71714596023
 20
3604.898682255612
  0
ARC
  5
1944E
330
747D
100
AcDbEntity
  8
細線
 48
50.0
100
AcDbCircle
 10
8991.217145960231
 20
3612.644648948028
 30
0.0
 40
16.5
100
AcDbArc
 50
332.0012352654438
 51
27.99876473455621
  0
ARC
  5
1944F
330
747D
100
AcDbEntity
  8
細線
 48
50.0
100
AcDbCircle
 10
8991.217145960231
 20
3612.644648948028
 30
0.0
 40
14.0
100
AcDbArc
 50
326.4074436112986
 51
33.59255638870134
  0
LINE
  5
19450
330
747D
100
AcDbEntity
  8
細線
 48
50.0
100
AcDbLine
 10
8976.648343675899
 20
3620.390615640443
 30
0.0
 11
8979.555242170542
 21
3620.390615640443
 31
0.0
  0
LINE
  5
19451
330
747D
100
AcDbEntity
  8
細線
 48
50.0
100
AcDbLine
 10
8976.648343675899
 20
3604.898682255612
 30
0.0
 11
8979.555242170542
 21
3604.898682255612
 31
0.0
  0
LINE
  5
19452
330
747D
100
AcDbEntity
  8
細線
 48
50.0
100
AcDbLine
 10
9002.879049749919
 20
3620.390615640443
 30
0.0
 11
9005.785948244566
 21
3620.390615640443
 31
0.0
  0
LINE
  5
19453
330
747D
100
AcDbEntity
  8
細線
 48
50.0
100
AcDbLine
 10
9002.879049749919
 20
3604.898682255612
 30
0.0
 11
9005.785948244566
 21
3604.898682255612
 31
0.0
  0
ARC
  5
19454
330
747D
100
AcDbEntity
  8
細線
 48
50.0
100
AcDbCircle
 10
8991.217145960231
 20
3612.644648948028
 30
0.0
 40
14.0
100
AcDbArc
 50
146.4074436112986
 51
213.5925563887013
  0
ARC
  5
19455
330
747D
100
AcDbEntity
  8
細線
 48
50.0
100
AcDbCircle
 10
8991.217145960231
 20
3612.644648948028
 30
0.0
 40
16.5
100
AcDbArc
 50
152.0012352654438
 51
207.9987647345562
  0
ARC
  5
19456
330
747D
100
AcDbEntity
  8
部品1
 48
50.0
100
AcDbCircle
 10
8964.71714596023
 20
3638.144648948028
 30
0.0
 40
5.0
100
AcDbArc
 50
90.0
 51
180.0
  0
ARC
  5
19457
330
747D
100
AcDbEntity
  8
部品1
 48
50.0
100
AcDbCircle
 10
8964.71714596023
 20
3527.144648948028
 30
0.0
 40
5.0
100
AcDbArc
 50
180.0
 51
270.0
  0
ARC
  5
19458
330
747D
100
AcDbEntity
  8
部品1
 48
50.0
100
AcDbCircle
 10
9017.717145960231
 20
3527.144648948028
 30
0.0
 40
5.0
100
AcDbArc
 50
270.0
 51
0.0
  0
ARC
  5
19459
330
747D
100
AcDbEntity
  8
部品1
 48
50.0
100
AcDbCircle
 10
9017.717145960231
 20
3638.144648948028
 30
0.0
 40
5.0
100
AcDbArc
 50
0.0
 51
90.0
  0
LINE
  5
1945B
330
747D
100
AcDbEntity
  8
部品1
 48
50.0
100
AcDbLine
 10
8959.717145960231
 20
3527.144648948028
 30
0.0
 11
8959.717145960231
 21
3638.144648948028
 31
0.0
  0
LINE
  5
1945C
330
747D
100
AcDbEntity
  8
部品1
 48
50.0
100
AcDbLine
 10
9017.717145960231
 20
3522.144648948028
 30
0.0
 11
8964.71714596023
 21
3522.144648948028
 31
0.0
  0
LINE
  5
1945D
330
747D
100
AcDbEntity
  8
部品1
 48
50.0
100
AcDbLine
 10
9022.71714596023
 20
3638.144648948028
 30
0.0
 11
9022.71714596023
 21
3527.144648948028
 31
0.0
  0
ENDSEC
  0
SECTION
  2
OBJECTS
  0
DICTIONARY
  5
7471
330
0
100
AcDbDictionary
281
     1
  3
ACAD_COLOR
350
17847
  3
ACAD_GROUP
350
7472
  3
ACAD_LAYOUT
350
17848
  3
ACAD_MATERIAL
350
17846
  3
ACAD_MLINESTYLE
350
7473
  3
ACAD_PLOTSETTINGS
350
17849
  3
ACAD_PLOTSTYLENAME
350
17844
  3
ACDBHEADERROUNDTRIPXREC
350
1947C
  3
AcDbVariableDictionary
350
19478
  3
CONTENTDICTIONARY
350
E71C
  3
DRAWINGVARIABLESDICT
350
F3B9
  0
DICTIONARY
  5
179E1
330
7467
100
AcDbDictionary
280
     1
281
     1
  3
ACAD_LAYERSTATES
360
179E2
  0
DICTIONARY
  5
17847
102
{ACAD_REACTORS
330
7471
102
}
330
7471
100
AcDbDictionary
281
     1
  0
DICTIONARY
  5
7472
102
{ACAD_REACTORS
330
7471
102
}
330
7471
100
AcDbDictionary
281
     1
  0
DICTIONARY
  5
17848
102
{ACAD_REACTORS
330
7471
102
}
330
7471
100
AcDbDictionary
281
     1
  3
Model
350
1784A
  3
レイアウト1
350
1784B
  0
DICTIONARY
  5
17846
102
{ACAD_REACTORS
330
7471
102
}
330
7471
100
AcDbDictionary
281
     1
  0
DICTIONARY
  5
7473
102
{ACAD_REACTORS
330
7471
102
}
330
7471
100
AcDbDictionary
281
     1
  3
STANDARD
350
7480
  0
DICTIONARY
  5
17849
102
{ACAD_REACTORS
330
7471
102
}
330
7471
100
AcDbDictionary
281
     1
  0
ACDBDICTIONARYWDFLT
  5
17844
102
{ACAD_REACTORS
330
7471
102
}
330
7471
100
AcDbDictionary
281
     1
  3
Normal
350
17845
100
AcDbDictionaryWithDefault
340
17845
  0
DICTIONARY
  5
1947C
102
{ACAD_REACTORS
330
7471
102
}
330
7471
100
AcDbDictionary
281
     1
  3
COLORDICT
350
1947E
  3
MATERIALDICT
350
1947D
  0
DICTIONARY
  5
19478
102
{ACAD_REACTORS
330
7471
102
}
330
7471
100
AcDbDictionary
281
     1
  3
DIMASSOC
350
19479
  3
PROJECTNAME
350
1947A
  0
DICTIONARY
  5
E71C
102
{ACAD_REACTORS
330
7471
102
}
330
7471
100
AcDbDictionary
281
     1
  0
DICTIONARY
  5
F3B9
102
{ACAD_REACTORS
330
7471
102
}
330
7471
100
AcDbDictionary
281
     1
1001
DRAWINGVARIABLESXDATA
1000
POLARMODE
1000
1
  0
DICTIONARY
  5
179E2
102
{ACAD_REACTORS
330
179E1
102
}
330
179E1
100
AcDbDictionary
281
     1
  0
LAYOUT
  5
1784A
102
{ACAD_XDICTIONARY
360
1947F
102
}
102
{ACAD_REACTORS
330
17848
102
}
330
17848
100
AcDbPlotSettings
  1

  2
クセロPDF
  4
A3
  6

 40
3.174999952316284
 41
3.174999952316284
 42
3.17498779296875
 43
3.17498779296875
 44
419.9466552734374
 45
296.9259948730469
 46
0.0
 47
0.0
 48
3.619013395666115
 49
-4.192117100517862
140
820.022926294543
141
573.2392198881443
142
1.0
143
39.99735023620806
 70
 11952
 72
     1
 73
     0
 74
     2
  7
inaba.ctb
 75
     0
147
0.0250016562120842
148
25.79074261211281
149
125.8223078213959
100
AcDbLayout
  1
Model
 70
     1
 71
     0
 10
0.0
 20
0.0
 11
12.0
 21
9.0
 12
0.0
 22
0.0
 32
0.0
 14
0.0
 24
0.0
 34
0.0
 15
0.0
 25
0.0
 35
0.0
146
0.0
 13
0.0
 23
0.0
 33
0.0
 16
1.0
 26
0.0
 36
0.0
 17
0.0
 27
1.0
 37
0.0
 76
     0
330
747D
  0
LAYOUT
  5
1784B
102
{ACAD_XDICTIONARY
360
19481
102
}
102
{ACAD_REACTORS
330
17848
102
}
330
17848
100
AcDbPlotSettings
  1

  2
Microsoft Office Document Image Writer
  4

  6

 40
0.0
 41
0.0
 42
0.0
 43
0.0
 44
0.0
 45
0.0
 46
0.0
 47
0.0
 48
0.0
 49
0.0
140
0.0
141
0.0
142
1.0
143
1.0
 70
   688
 72
     0
 73
     0
 74
     5
  7

 75
    16
147
1.0
148
0.0
149
0.0
100
AcDbLayout
  1
レイアウト1
 70
     0
 71
     1
 10
0.0
 20
0.0
 11
420.0
 21
297.0
 12
0.0
 22
0.0
 32
0.0
 14
1.000000000000000E+20
 24
1.000000000000000E+20
 34
1.000000000000000E+20
 15
-1.000000000000000E+20
 25
-1.000000000000000E+20
 35
-1.000000000000000E+20
146
0.0
 13
0.0
 23
0.0
 33
0.0
 16
1.0
 26
0.0
 36
0.0
 17
0.0
 27
1.0
 37
0.0
 76
     0
330
747A
  0
MLINESTYLE
  5
7480
102
{ACAD_REACTORS
330
7473
102
}
330
7473
100
AcDbMlineStyle
  2
STANDARD
 70
     0
  3

 62
     0
 51
90.0
 52
90.0
 71
     2
 49
0.5
 62
   256
  6
BYLAYER
 49
-0.5
 62
   256
  6
BYLAYER
  0
ACDBPLACEHOLDER
  5
17845
102
{ACAD_REACTORS
330
17844
102
}
330
17844
  0
XRECORD
  5
1947E
102
{ACAD_REACTORS
330
1947C
102
}
330
1947C
100
AcDbXrecord
280
     1
340
17847
  0
XRECORD
  5
1947D
102
{ACAD_REACTORS
330
1947C
102
}
330
1947C
100
AcDbXrecord
280
     1
340
17846
  0
DICTIONARYVAR
  5
19479
102
{ACAD_REACTORS
330
19478
102
}
330
19478
100
DictionaryVariables
280
     0
  1
1
  0
DICTIONARYVAR
  5
1947A
102
{ACAD_REACTORS
330
19478
102
}
330
19478
100
DictionaryVariables
280
     0
  1

  0
DICTIONARY
  5
1947F
330
1784A
100
AcDbDictionary
280
     1
281
     1
  3
ACAD_XREC_ROUNDTRIP
360
19480
  0
DICTIONARY
  5
19481
330
1784B
100
AcDbDictionary
280
     1
281
     1
  3
ACAD_XREC_ROUNDTRIP
360
19482
  0
XRECORD
  5
19480
102
{ACAD_REACTORS
330
1947F
102
}
330
1947F
100
AcDbXrecord
280
     1
102
SHADEPLOT
 70
     0
102
SHADEPLOTRESLEVEL
 70
     2
102
SHADEPLOTCUSTOMDPI
 70
   150
  0
XRECORD
  5
19482
102
{ACAD_REACTORS
330
19481
102
}
330
19481
100
AcDbXrecord
280
     1
102
SHADEPLOT
 70
     0
102
SHADEPLOTRESLEVEL
 70
     2
102
SHADEPLOTCUSTOMDPI
 70
   300
  0
ENDSEC
  0
EOF
