  0
SECTION
  2
HEADER
  9
$ACADVER
  1
AC1015
  9
$ACADMAINTVER
 70
    20
  9
$DWGCODEPAGE
  3
ANSI_932
  9
$INSBASE
 10
0.0
 20
0.0
 30
0.0
  9
$EXTMIN
 10
139.9999999999995
 20
-0.0000000000000909
 30
0.0
  9
$EXTMAX
 10
16307.2
 20
11409.6
 30
0.0
  9
$LIMMIN
 10
0.0
 20
0.0
  9
$LIMMAX
 10
16800.0
 20
11880.0
  9
$ORTHOMODE
 70
     0
  9
$REGENMODE
 70
     1
  9
$FILLMODE
 70
     1
  9
$QTEXTMODE
 70
     0
  9
$MIRRTEXT
 70
     1
  9
$LTSCALE
 40
20.0
  9
$ATTMODE
 70
     1
  9
$TEXTSIZE
 40
100.0
  9
$TRACEWID
 40
1.0
  9
$TEXTSTYLE
  7
STYLE2
  9
$CLAYER
  8
寸法
  9
$CELTYPE
  6
BYLAYER
  9
$CECOLOR
 62
   256
  9
$CELTSCALE
 40
50.0
  9
$DISPSILH
 70
     0
  9
$DIMSCALE
 40
40.0
  9
$DIMASZ
 40
2.5
  9
$DIMEXO
 40
0.5
  9
$DIMDLI
 40
7.0
  9
$DIMRND
 40
0.0
  9
$DIMDLE
 40
0.0
  9
$DIMEXE
 40
1.5
  9
$DIMTP
 40
0.0
  9
$DIMTM
 40
0.0
  9
$DIMTXT
 40
3.0
  9
$DIMCEN
 40
0.0
  9
$DIMTSZ
 40
0.0
  9
$DIMTOL
 70
     0
  9
$DIMLIM
 70
     0
  9
$DIMTIH
 70
     0
  9
$DIMTOH
 70
     0
  9
$DIMSE1
 70
     0
  9
$DIMSE2
 70
     0
  9
$DIMTAD
 70
     3
  9
$DIMZIN
 70
     8
  9
$DIMBLK
  1

  9
$DIMASO
 70
     1
  9
$DIMSHO
 70
     1
  9
$DIMPOST
  1

  9
$DIMAPOST
  1

  9
$DIMALT
 70
     0
  9
$DIMALTD
 70
     2
  9
$DIMALTF
 40
0.0394
  9
$DIMLFAC
 40
1.0
  9
$DIMTOFL
 70
     1
  9
$DIMTVP
 40
0.0
  9
$DIMTIX
 70
     0
  9
$DIMSOXD
 70
     0
  9
$DIMSAH
 70
     1
  9
$DIMBLK1
  1
DOTSMALL
  9
$DIMBLK2
  1
DOTSMALL
  9
$DIMSTYLE
  2
INABA_S40G
  9
$DIMCLRD
 70
     0
  9
$DIMCLRE
 70
     0
  9
$DIMCLRT
 70
     7
  9
$DIMTFAC
 40
1.0
  9
$DIMGAP
 40
1.0
  9
$DIMJUST
 70
     0
  9
$DIMSD1
 70
     0
  9
$DIMSD2
 70
     0
  9
$DIMTOLJ
 70
     1
  9
$DIMTZIN
 70
     0
  9
$DIMALTZ
 70
     0
  9
$DIMALTTZ
 70
     0
  9
$DIMUPT
 70
     0
  9
$DIMDEC
 70
     1
  9
$DIMTDEC
 70
     1
  9
$DIMALTU
 70
     2
  9
$DIMALTTD
 70
     2
  9
$DIMTXSTY
  7
STYLE1
  9
$DIMAUNIT
 70
     0
  9
$DIMADEC
 70
     0
  9
$DIMALTRND
 40
0.0
  9
$DIMAZIN
 70
     0
  9
$DIMDSEP
 70
    46
  9
$DIMATFIT
 70
     3
  9
$DIMFRAC
 70
     0
  9
$DIMLDRBLK
  1

  9
$DIMLUNIT
 70
     2
  9
$DIMLWD
 70
    -2
  9
$DIMLWE
 70
    -2
  9
$DIMTMOVE
 70
     0
  9
$LUNITS
 70
     2
  9
$LUPREC
 70
     1
  9
$SKETCHINC
 40
1.0
  9
$FILLETRAD
 40
7.0
  9
$AUNITS
 70
     0
  9
$AUPREC
 70
     0
  9
$MENU
  1
acad
  9
$ELEVATION
 40
0.0
  9
$PELEVATION
 40
0.0
  9
$THICKNESS
 40
0.0
  9
$LIMCHECK
 70
     0
  9
$CHAMFERA
 40
3.0
  9
$CHAMFERB
 40
3.0
  9
$CHAMFERC
 40
0.0
  9
$CHAMFERD
 40
0.0
  9
$SKPOLY
 70
     0
  9
$TDCREATE
 40
2451368.612993866
  9
$TDUCREATE
 40
2451368.237993866
  9
$TDUPDATE
 40
2455575.686884942
  9
$TDUUPDATE
 40
2455575.311884942
  9
$TDINDWG
 40
1.4989122917
  9
$TDUSRTIMER
 40
1.4989122917
  9
$USRTIMER
 70
     1
  9
$ANGBASE
 50
0.0
  9
$ANGDIR
 70
     0
  9
$PDMODE
 70
     3
  9
$PDSIZE
 40
2.0
  9
$PLINEWID
 40
0.0
  9
$SPLFRAME
 70
     0
  9
$SPLINETYPE
 70
     6
  9
$SPLINESEGS
 70
     8
  9
$HANDSEED
  5
2B82B
  9
$SURFTAB1
 70
     6
  9
$SURFTAB2
 70
     6
  9
$SURFTYPE
 70
     6
  9
$SURFU
 70
     6
  9
$SURFV
 70
     6
  9
$UCSBASE
  2

  9
$UCSNAME
  2

  9
$UCSORG
 10
0.0
 20
0.0
 30
0.0
  9
$UCSXDIR
 10
1.0
 20
0.0
 30
0.0
  9
$UCSYDIR
 10
0.0
 20
1.0
 30
0.0
  9
$UCSORTHOREF
  2

  9
$UCSORTHOVIEW
 70
     0
  9
$UCSORGTOP
 10
0.0
 20
0.0
 30
0.0
  9
$UCSORGBOTTOM
 10
0.0
 20
0.0
 30
0.0
  9
$UCSORGLEFT
 10
0.0
 20
0.0
 30
0.0
  9
$UCSORGRIGHT
 10
0.0
 20
0.0
 30
0.0
  9
$UCSORGFRONT
 10
0.0
 20
0.0
 30
0.0
  9
$UCSORGBACK
 10
0.0
 20
0.0
 30
0.0
  9
$PUCSBASE
  2

  9
$PUCSNAME
  2

  9
$PUCSORG
 10
0.0
 20
0.0
 30
0.0
  9
$PUCSXDIR
 10
1.0
 20
0.0
 30
0.0
  9
$PUCSYDIR
 10
0.0
 20
1.0
 30
0.0
  9
$PUCSORTHOREF
  2

  9
$PUCSORTHOVIEW
 70
     0
  9
$PUCSORGTOP
 10
0.0
 20
0.0
 30
0.0
  9
$PUCSORGBOTTOM
 10
0.0
 20
0.0
 30
0.0
  9
$PUCSORGLEFT
 10
0.0
 20
0.0
 30
0.0
  9
$PUCSORGRIGHT
 10
0.0
 20
0.0
 30
0.0
  9
$PUCSORGFRONT
 10
0.0
 20
0.0
 30
0.0
  9
$PUCSORGBACK
 10
0.0
 20
0.0
 30
0.0
  9
$USERI1
 70
     0
  9
$USERI2
 70
     0
  9
$USERI3
 70
     0
  9
$USERI4
 70
     0
  9
$USERI5
 70
     0
  9
$USERR1
 40
0.0
  9
$USERR2
 40
0.0
  9
$USERR3
 40
0.0
  9
$USERR4
 40
0.0
  9
$USERR5
 40
0.0
  9
$WORLDVIEW
 70
     1
  9
$SHADEDGE
 70
     3
  9
$SHADEDIF
 70
    70
  9
$TILEMODE
 70
     1
  9
$MAXACTVP
 70
    16
  9
$PINSBASE
 10
0.0
 20
0.0
 30
0.0
  9
$PLIMCHECK
 70
     0
  9
$PEXTMIN
 10
1.000000000000000E+20
 20
1.000000000000000E+20
 30
1.000000000000000E+20
  9
$PEXTMAX
 10
-1.000000000000000E+20
 20
-1.000000000000000E+20
 30
-1.000000000000000E+20
  9
$PLIMMIN
 10
0.0
 20
0.0
  9
$PLIMMAX
 10
420.0
 20
297.0
  9
$UNITMODE
 70
     0
  9
$VISRETAIN
 70
     0
  9
$PLINEGEN
 70
     0
  9
$PSLTSCALE
 70
     0
  9
$TREEDEPTH
 70
  3020
  9
$CMLSTYLE
  2
STANDARD
  9
$CMLJUST
 70
     0
  9
$CMLSCALE
 40
1.0
  9
$PROXYGRAPHICS
 70
     1
  9
$MEASUREMENT
 70
     1
  9
$CELWEIGHT
370
    -1
  9
$ENDCAPS
280
     0
  9
$JOINSTYLE
280
     0
  9
$LWDISPLAY
290
     0
  9
$INSUNITS
 70
     0
  9
$HYPERLINKBASE
  1

  9
$STYLESHEET
  1
inaba.ctb
  9
$XEDIT
290
     1
  9
$CEPSNTYPE
380
     0
  9
$PSTYLEMODE
290
     1
  9
$FINGERPRINTGUID
  2
{3B57B35E-7D77-4BBF-81B7-6C583B9EB24C}
  9
$VERSIONGUID
  2
{53753593-F924-4B79-BEA6-EB5EA3742C7E}
  9
$EXTNAMES
290
     1
  9
$PSVPSCALE
 40
0.0
  9
$OLESTARTUP
290
     0
  0
ENDSEC
  0
SECTION
  2
CLASSES
  0
CLASS
  1
ACDBDICTIONARYWDFLT
  2
AcDbDictionaryWithDefault
  3
ObjectDBX Classes
 90
        0
280
     0
281
     0
  0
CLASS
  1
DICTIONARYVAR
  2
AcDbDictionaryVar
  3
ObjectDBX Classes
 90
        0
280
     0
281
     0
  0
CLASS
  1
ACDBPLACEHOLDER
  2
AcDbPlaceHolder
  3
ObjectDBX Classes
 90
        0
280
     0
281
     0
  0
CLASS
  1
LAYOUT
  2
AcDbLayout
  3
ObjectDBX Classes
 90
        0
280
     0
281
     0
  0
ENDSEC
  0
SECTION
  2
TABLES
  0
TABLE
  2
VPORT
  5
746D
330
0
100
AcDbSymbolTable
 70
     2
  0
VPORT
  5
2B823
330
746D
100
AcDbSymbolTableRecord
100
AcDbViewportTableRecord
  2
*Active
 70
     0
 10
0.0
 20
0.0
 11
1.0
 21
1.0
 12
8223.761025238502
 22
11204.52267410558
 13
0.0
 23
0.0
 14
10.0
 24
10.0
 15
10.0
 25
10.0
 16
0.0
 26
0.0
 36
1.0
 17
0.0
 27
0.0
 37
0.0
 40
22517.60990190111
 41
0.8677966101694915
 42
50.0
 43
0.0
 44
0.0
 50
0.0
 51
0.0
 71
     0
 72
     0
 73
     1
 74
     0
 75
     0
 76
     0
 77
     0
 78
     0
281
     0
 65
     1
110
0.0
120
0.0
130
0.0
111
1.0
121
0.0
131
0.0
112
0.0
122
1.0
132
0.0
 79
     0
146
0.0
  0
ENDTAB
  0
TABLE
  2
LTYPE
  5
746A
330
0
100
AcDbSymbolTable
 70
     3
  0
LTYPE
  5
7477
330
746A
100
AcDbSymbolTableRecord
100
AcDbLinetypeTableRecord
  2
BYBLOCK
 70
     0
  3

 72
    65
 73
     0
 40
0.0
  0
LTYPE
  5
7478
330
746A
100
AcDbSymbolTableRecord
100
AcDbLinetypeTableRecord
  2
BYLAYER
 70
     0
  3

 72
    65
 73
     0
 40
0.0
  0
LTYPE
  5
7479
330
746A
100
AcDbSymbolTableRecord
100
AcDbLinetypeTableRecord
  2
CONTINUOUS
 70
     0
  3
Solid line
 72
    65
 73
     0
 40
0.0
  0
LTYPE
  5
781A
330
746A
100
AcDbSymbolTableRecord
100
AcDbLinetypeTableRecord
  2
HIDDEN
 70
     0
  3
__ __ __ __ __ __ __ __ __ __ __ __ __ __ __ __
 72
    65
 73
     2
 40
0.375
 49
0.25
 74
     0
 49
-0.125
 74
     0
  0
LTYPE
  5
781B
330
746A
100
AcDbSymbolTableRecord
100
AcDbLinetypeTableRecord
  2
PHANTOM
 70
     0
  3
______  __  __  ______  __  __  ______  __  __ 
 72
    65
 73
     6
 40
2.5
 49
1.25
 74
     0
 49
-0.25
 74
     0
 49
0.25
 74
     0
 49
-0.25
 74
     0
 49
0.25
 74
     0
 49
-0.25
 74
     0
  0
ENDTAB
  0
TABLE
  2
LAYER
  5
7467
102
{ACAD_XDICTIONARY
360
1FFA9
102
}
330
0
100
AcDbSymbolTable
 70
    10
  0
LAYER
  5
7474
330
7467
100
AcDbSymbolTableRecord
100
AcDbLayerTableRecord
  2
0
 70
     0
 62
     7
  6
CONTINUOUS
370
    -3
390
159AE
  0
LAYER
  5
DEB3
330
7467
100
AcDbSymbolTableRecord
100
AcDbLayerTableRecord
  2
寸法
 70
     0
 62
     4
  6
CONTINUOUS
370
    -3
390
159AE
  0
LAYER
  5
DEB4
330
7467
100
AcDbSymbolTableRecord
100
AcDbLayerTableRecord
  2
部品1
 70
     0
 62
     7
  6
CONTINUOUS
370
    -3
390
159AE
  0
LAYER
  5
DEB5
330
7467
100
AcDbSymbolTableRecord
100
AcDbLayerTableRecord
  2
補助
 70
     0
 62
    -1
  6
CONTINUOUS
370
    -3
390
159AE
  0
LAYER
  5
DEB6
330
7467
100
AcDbSymbolTableRecord
100
AcDbLayerTableRecord
  2
文字
 70
     0
 62
     7
  6
CONTINUOUS
370
    -3
390
159AE
  0
LAYER
  5
F255
330
7467
100
AcDbSymbolTableRecord
100
AcDbLayerTableRecord
  2
DEFPOINTS
 70
     0
 62
     7
  6
CONTINUOUS
290
     0
370
    -3
390
159AE
  0
LAYER
  5
10B54
330
7467
100
AcDbSymbolTableRecord
100
AcDbLayerTableRecord
  2
仕様書枠
 70
     0
 62
   230
  6
CONTINUOUS
370
    -3
390
159AE
  0
LAYER
  5
11729
330
7467
100
AcDbSymbolTableRecord
100
AcDbLayerTableRecord
  2
Ｇ．Ｌ
 70
     0
 62
    30
  6
CONTINUOUS
370
    -3
390
159AE
  0
LAYER
  5
1173F
330
7467
100
AcDbSymbolTableRecord
100
AcDbLayerTableRecord
  2
細線
 70
     0
 62
     5
  6
CONTINUOUS
370
    -3
390
159AE
  0
LAYER
  5
142E2
330
7467
100
AcDbSymbolTableRecord
100
AcDbLayerTableRecord
  2
破線
 70
     0
 62
     2
  6
HIDDEN
370
    -3
390
159AE
  0
ENDTAB
  0
TABLE
  2
STYLE
  5
7468
330
0
100
AcDbSymbolTable
 70
     4
  0
STYLE
  5
7475
330
7468
100
AcDbSymbolTableRecord
100
AcDbTextStyleTableRecord
  2
STANDARD
 70
     0
 40
0.0
 41
1.0
 50
0.0
 71
     0
 42
4.0
  3
txt
  4
C:\AutoCAD LT\bigfont.shx
  0
STYLE
  5
F706
330
7468
100
AcDbSymbolTableRecord
100
AcDbTextStyleTableRecord
  2
STYLE1
 70
     0
 40
0.0
 41
1.0
 50
0.0
 71
     0
 42
100.0
  3
isocp.shx
  4
bigfont.shx
  0
STYLE
  5
103BF
330
7468
100
AcDbSymbolTableRecord
100
AcDbTextStyleTableRecord
  2
STYLE2
 70
     0
 40
0.0
 41
1.0
 50
0.0
 71
     0
 42
100.0
  3
MS PGothic.ttf
  4

1001
ACAD
1000
MS PGothic
1071
    32818
  0
STYLE
  5
2B7BA
330
7468
100
AcDbSymbolTableRecord
100
AcDbTextStyleTableRecord
  2
STYLE3
 70
     0
 40
0.0
 41
1.0
 50
0.0
 71
     0
 42
100.0
  3

  4

1001
ACAD
1000
DFPGothic-EB
1071
    32818
  0
ENDTAB
  0
TABLE
  2
VIEW
  5
746B
330
0
100
AcDbSymbolTable
 70
     0
  0
ENDTAB
  0
TABLE
  2
UCS
  5
746C
330
0
100
AcDbSymbolTable
 70
     0
  0
ENDTAB
  0
TABLE
  2
APPID
  5
746E
330
0
100
AcDbSymbolTable
 70
     6
  0
APPID
  5
7476
330
746E
100
AcDbSymbolTableRecord
100
AcDbRegAppTableRecord
  2
ACAD
 70
     0
  0
APPID
  5
DEA9
330
746E
100
AcDbSymbolTableRecord
100
AcDbRegAppTableRecord
  2
CONTENTBLOCKICON
 70
     0
  0
APPID
  5
DEAA
330
746E
100
AcDbSymbolTableRecord
100
AcDbRegAppTableRecord
  2
CONTENTBLOCKDESCRIPTION
 70
     0
  0
APPID
  5
E71D
330
746E
100
AcDbSymbolTableRecord
100
AcDbRegAppTableRecord
  2
CONTENTTABDATA
 70
     0
  0
APPID
  5
E71E
330
746E
100
AcDbSymbolTableRecord
100
AcDbRegAppTableRecord
  2
CONTENTCURRENTTAB
 70
     0
  0
APPID
  5
F3BA
330
746E
100
AcDbSymbolTableRecord
100
AcDbRegAppTableRecord
  2
DRAWINGVARIABLESXDATA
 70
     0
  0
ENDTAB
  0
TABLE
  2
DIMSTYLE
  5
746F
330
0
100
AcDbSymbolTable
 70
     2
100
AcDbDimStyleTable
 71
     1
340
F71F
  0
DIMSTYLE
105
F71F
102
{ACAD_REACTORS
330
20CC4
330
20CCC
330
20CCD
330
20CD4
330
26FDC
330
26FDB
330
26FDA
330
26FD9
330
26FD8
330
26FBC
330
26FBA
330
26FA1
330
26F9F
330
26F86
330
285A3
330
285E3
330
2A481
330
2A482
330
2A483
330
2A48A
330
2A48B
330
2A494
330
2A498
330
2A42B
330
2A440
330
2AA87
330
2B1DC
330
2B374
330
2B373
330
2B372
102
}
330
746F
100
AcDbSymbolTableRecord
100
AcDbDimStyleTableRecord
  2
INABA_S40G
 70
     0
 40
40.0
 41
2.5
 42
0.5
 43
7.0
 44
1.5
 73
     0
 74
     0
 77
     3
 78
     8
140
3.0
141
0.0
143
0.0394
147
1.0
172
     1
173
     1
174
     1
178
     7
271
     1
288
     1
340
F706
341
F770
343
F770
344
F770
  0
DIMSTYLE
105
2B7BB
330
746F
100
AcDbSymbolTableRecord
100
AcDbDimStyleTableRecord
  2
INABA_S20G
 70
     0
 40
20.0
 41
2.5
 42
0.5
 43
7.0
 44
1.5
 73
     0
 74
     0
 77
     3
 78
     8
140
3.0
141
0.0
143
0.0394
147
1.0
172
     1
173
     1
174
     1
178
     7
271
     1
340
F706
341
F770
343
F770
344
F770
  0
ENDTAB
  0
TABLE
  2
BLOCK_RECORD
  5
7466
330
0
100
AcDbSymbolTable
 70
    31
  0
BLOCK_RECORD
  5
747D
330
7466
100
AcDbSymbolTableRecord
100
AcDbBlockTableRecord
  2
*MODEL_SPACE
340
159B3
  0
BLOCK_RECORD
  5
747A
330
7466
100
AcDbSymbolTableRecord
100
AcDbBlockTableRecord
  2
*PAPER_SPACE
340
159B4
  0
BLOCK_RECORD
  5
F770
330
7466
100
AcDbSymbolTableRecord
100
AcDbBlockTableRecord
  2
_DOTSMALL
340
0
102
{BLKREFS
331
2ADAB
331
2ADAC
331
2ADB4
331
2ADB5
331
2ADD9
331
2ADDA
331
2ADE4
331
2ADE5
331
2AFD7
331
2AFD8
331
2AFEE
331
2AFEF
331
2AFF9
331
2AFFA
331
2B002
331
2B003
331
2B00C
331
2B00D
331
2B016
331
2B017
331
2B01F
331
2B020
331
2B028
331
2B029
331
2B031
331
2B032
331
2B03A
331
2B03B
331
2B045
331
2B046
331
2B050
331
2B051
331
2B05B
331
2B05C
331
2B066
331
2B067
331
2B06F
331
2B070
331
2B078
331
2B079
331
2B081
331
2B082
331
2B08A
331
2B08B
331
2B093
331
2B094
331
2B09E
331
2B09F
331
2B0A9
331
2B0AA
331
2B0B2
331
2B0B3
331
2B39C
331
2B39D
331
2B3A5
331
2B3A6
331
2B3AE
331
2B3AF
331
2B3B7
331
2B3B8
102
}
  0
BLOCK_RECORD
  5
20D09
330
7466
100
AcDbSymbolTableRecord
100
AcDbBlockTableRecord
  2
*D1
340
0
  0
BLOCK_RECORD
  5
20D15
330
7466
100
AcDbSymbolTableRecord
100
AcDbBlockTableRecord
  2
*D2
340
0
  0
BLOCK_RECORD
  5
20D23
330
7466
100
AcDbSymbolTableRecord
100
AcDbBlockTableRecord
  2
*D3
340
0
  0
BLOCK_RECORD
  5
20D31
330
7466
100
AcDbSymbolTableRecord
100
AcDbBlockTableRecord
  2
*D4
340
0
  0
BLOCK_RECORD
  5
27032
330
7466
100
AcDbSymbolTableRecord
100
AcDbBlockTableRecord
  2
*D5
340
0
  0
BLOCK_RECORD
  5
2703E
330
7466
100
AcDbSymbolTableRecord
100
AcDbBlockTableRecord
  2
*D6
340
0
  0
BLOCK_RECORD
  5
2704A
330
7466
100
AcDbSymbolTableRecord
100
AcDbBlockTableRecord
  2
*D7
340
0
  0
BLOCK_RECORD
  5
27058
330
7466
100
AcDbSymbolTableRecord
100
AcDbBlockTableRecord
  2
*D8
340
0
  0
BLOCK_RECORD
  5
27066
330
7466
100
AcDbSymbolTableRecord
100
AcDbBlockTableRecord
  2
*D9
340
0
  0
BLOCK_RECORD
  5
27074
330
7466
100
AcDbSymbolTableRecord
100
AcDbBlockTableRecord
  2
*D10
340
0
  0
BLOCK_RECORD
  5
27082
330
7466
100
AcDbSymbolTableRecord
100
AcDbBlockTableRecord
  2
*D11
340
0
  0
BLOCK_RECORD
  5
2708E
330
7466
100
AcDbSymbolTableRecord
100
AcDbBlockTableRecord
  2
*D12
340
0
  0
BLOCK_RECORD
  5
2709A
330
7466
100
AcDbSymbolTableRecord
100
AcDbBlockTableRecord
  2
*D13
340
0
  0
BLOCK_RECORD
  5
270A6
330
7466
100
AcDbSymbolTableRecord
100
AcDbBlockTableRecord
  2
*D14
340
0
  0
BLOCK_RECORD
  5
285B2
330
7466
100
AcDbSymbolTableRecord
100
AcDbBlockTableRecord
  2
*D15
340
0
  0
BLOCK_RECORD
  5
285E4
330
7466
100
AcDbSymbolTableRecord
100
AcDbBlockTableRecord
  2
*D16
340
0
  0
BLOCK_RECORD
  5
2A49D
330
7466
100
AcDbSymbolTableRecord
100
AcDbBlockTableRecord
  2
*D17
340
0
  0
BLOCK_RECORD
  5
2A4A9
330
7466
100
AcDbSymbolTableRecord
100
AcDbBlockTableRecord
  2
*D18
340
0
  0
BLOCK_RECORD
  5
2A4B7
330
7466
100
AcDbSymbolTableRecord
100
AcDbBlockTableRecord
  2
*D19
340
0
  0
BLOCK_RECORD
  5
2A4CF
330
7466
100
AcDbSymbolTableRecord
100
AcDbBlockTableRecord
  2
*D20
340
0
  0
BLOCK_RECORD
  5
2A4DD
330
7466
100
AcDbSymbolTableRecord
100
AcDbBlockTableRecord
  2
*D21
340
0
  0
BLOCK_RECORD
  5
2A50E
330
7466
100
AcDbSymbolTableRecord
100
AcDbBlockTableRecord
  2
*D22
340
0
  0
BLOCK_RECORD
  5
2A51A
330
7466
100
AcDbSymbolTableRecord
100
AcDbBlockTableRecord
  2
*D23
340
0
  0
BLOCK_RECORD
  5
2A526
330
7466
100
AcDbSymbolTableRecord
100
AcDbBlockTableRecord
  2
*D24
340
0
  0
BLOCK_RECORD
  5
2A533
330
7466
100
AcDbSymbolTableRecord
100
AcDbBlockTableRecord
  2
*D25
340
0
  0
BLOCK_RECORD
  5
2ABB0
330
7466
100
AcDbSymbolTableRecord
100
AcDbBlockTableRecord
  2
*D26
340
0
  0
BLOCK_RECORD
  5
2B283
330
7466
100
AcDbSymbolTableRecord
100
AcDbBlockTableRecord
  2
*D27
340
0
  0
BLOCK_RECORD
  5
2B375
330
7466
100
AcDbSymbolTableRecord
100
AcDbBlockTableRecord
  2
*D28
340
0
  0
BLOCK_RECORD
  5
2B381
330
7466
100
AcDbSymbolTableRecord
100
AcDbBlockTableRecord
  2
*D29
340
0
  0
BLOCK_RECORD
  5
2B38D
330
7466
100
AcDbSymbolTableRecord
100
AcDbBlockTableRecord
  2
*D30
340
0
  0
ENDTAB
  0
ENDSEC
  0
SECTION
  2
BLOCKS
  0
BLOCK
  5
7489
330
747D
100
AcDbEntity
  8
0
100
AcDbBlockBegin
  2
*MODEL_SPACE
 70
     0
 10
0.0
 20
0.0
 30
0.0
  3
*MODEL_SPACE
  1

  0
ENDBLK
  5
748A
330
747D
100
AcDbEntity
  8
0
100
AcDbBlockEnd
  0
BLOCK
  5
7487
330
747A
100
AcDbEntity
 67
     1
  8
0
100
AcDbBlockBegin
  2
*PAPER_SPACE
 70
     0
 10
0.0
 20
0.0
 30
0.0
  3
*PAPER_SPACE
  1

  0
ENDBLK
  5
7488
330
747A
100
AcDbEntity
 67
     1
  8
0
100
AcDbBlockEnd
  0
BLOCK
  5
F771
330
F770
100
AcDbEntity
  8
0
 48
50.0
100
AcDbBlockBegin
  2
_DOTSMALL
 70
     0
 10
0.0
 20
0.0
 30
0.0
  3
_DOTSMALL
  1

  0
LWPOLYLINE
  5
F772
330
F770
100
AcDbEntity
  8
0
  6
ByBlock
 62
     0
 48
50.0
100
AcDbPolyline
 90
        2
 70
     1
 43
0.5
 10
-0.0625
 20
0.0
 42
1.0
 10
0.0625
 20
0.0
 42
1.0
  0
ENDBLK
  5
F776
330
F770
100
AcDbEntity
  8
0
 48
50.0
100
AcDbBlockEnd
  0
BLOCK
  5
20D13
330
20D09
100
AcDbEntity
  8
0
 48
50.0
100
AcDbBlockBegin
  2
*D1
 70
     1
 10
0.0
 20
0.0
 30
0.0
  3
*D1
  1

  0
LINE
  5
2B0AF
330
20D09
100
AcDbEntity
  8
寸法
 62
     0
 48
50.0
370
    -2
100
AcDbLine
 10
7469.896575107009
 20
5495.000000000005
 30
0.0
 11
7469.896575107009
 21
5747.541585258246
 31
0.0
  0
LINE
  5
2B0B0
330
20D09
100
AcDbEntity
  8
寸法
 62
     0
 48
50.0
370
    -2
100
AcDbLine
 10
4419.896575106995
 20
5495.000000000008
 30
0.0
 11
4419.896575106995
 21
5747.541585258246
 31
0.0
  0
LINE
  5
2B0B1
330
20D09
100
AcDbEntity
  8
寸法
 62
     0
 48
50.0
370
    -2
100
AcDbLine
 10
7469.896575107009
 20
5687.541585258245
 30
0.0
 11
4419.896575106995
 21
5687.541585258245
 31
0.0
  0
INSERT
  5
2B0B2
330
20D09
100
AcDbEntity
  8
寸法
 62
     0
 48
50.0
370
    -2
100
AcDbBlockReference
  2
_DOTSMALL
 10
7469.896575107009
 20
5687.541585258245
 30
0.0
 41
100.0
 42
100.0
 43
100.0
  0
INSERT
  5
2B0B3
330
20D09
100
AcDbEntity
  8
寸法
 62
     0
 48
50.0
370
    -2
100
AcDbBlockReference
  2
_DOTSMALL
 10
4419.896575106995
 20
5687.541585258245
 30
0.0
 41
100.0
 42
100.0
 43
100.0
 50
180.0
  0
MTEXT
  5
2B0B4
330
20D09
100
AcDbEntity
  8
寸法
 62
     7
 48
50.0
100
AcDbMText
 10
5940.683894633504
 20
5787.541585258246
 30
0.0
 40
120.0
 41
0.0
 71
     5
 72
     1
  1
\A1;柱外寸法3050
  7
STYLE1
 73
     1
 44
1.0
1001
ACAD
1000
MTEXTBEGIN
1070
    73
1070
     1
1070
    44
1040
1.0
1070
    74
1070
     0
1000
MTEXTEND
  0
POINT
  5
2B0B5
330
20D09
100
AcDbEntity
  8
DEFPOINTS
 62
     0
 48
50.0
100
AcDbPoint
 10
7469.896575107009
 20
5475.000000000005
 30
0.0
  0
POINT
  5
2B0B6
330
20D09
100
AcDbEntity
  8
DEFPOINTS
 62
     0
 48
50.0
100
AcDbPoint
 10
4419.896575106995
 20
5475.000000000008
 30
0.0
  0
POINT
  5
2B0B7
330
20D09
100
AcDbEntity
  8
DEFPOINTS
 62
     0
 48
50.0
100
AcDbPoint
 10
4419.896575106995
 20
5687.541585258245
 30
0.0
  0
ENDBLK
  5
20D14
330
20D09
100
AcDbEntity
  8
0
 48
50.0
100
AcDbBlockEnd
  0
BLOCK
  5
20D21
330
20D15
100
AcDbEntity
  8
0
 48
50.0
100
AcDbBlockBegin
  2
*D2
 70
     1
 10
0.0
 20
0.0
 30
0.0
  3
*D2
  1

  0
LINE
  5
2B0A4
330
20D15
100
AcDbEntity
  8
寸法
 62
     0
 48
50.0
370
    -2
100
AcDbLine
 10
4419.896575106995
 20
5495.000000000008
 30
0.0
 11
4419.896575106995
 21
5747.541585258246
 31
0.0
  0
LINE
  5
2B0A5
330
20D15
100
AcDbEntity
  8
寸法
 62
     0
 48
50.0
370
    -2
100
AcDbLine
 10
4369.896575106994
 20
5495.000000000007
 30
0.0
 11
4369.896575106994
 21
5747.541585258246
 31
0.0
  0
LINE
  5
2B0A6
330
20D15
100
AcDbEntity
  8
寸法
 62
     0
 48
50.0
370
    -2
100
AcDbLine
 10
4419.896575106995
 20
5687.541585258245
 30
0.0
 11
4519.896575106995
 21
5687.541585258245
 31
0.0
  0
LINE
  5
2B0A7
330
20D15
100
AcDbEntity
  8
寸法
 62
     0
 48
50.0
370
    -2
100
AcDbLine
 10
4369.896575106994
 20
5687.541585258245
 30
0.0
 11
3950.364049638259
 21
5687.541585258245
 31
0.0
  0
LINE
  5
2B0A8
330
20D15
100
AcDbEntity
  8
寸法
 62
     0
 48
50.0
370
    -2
100
AcDbLine
 10
4419.896575106995
 20
5687.541585258245
 30
0.0
 11
4369.896575106994
 21
5687.541585258245
 31
0.0
  0
INSERT
  5
2B0A9
330
20D15
100
AcDbEntity
  8
寸法
 62
     0
 48
50.0
370
    -2
100
AcDbBlockReference
  2
_DOTSMALL
 10
4419.896575106995
 20
5687.541585258245
 30
0.0
 41
100.0
 42
100.0
 43
100.0
 50
180.0
  0
INSERT
  5
2B0AA
330
20D15
100
AcDbEntity
  8
寸法
 62
     0
 48
50.0
370
    -2
100
AcDbBlockReference
  2
_DOTSMALL
 10
4369.896575106994
 20
5687.541585258245
 30
0.0
 41
100.0
 42
100.0
 43
100.0
  0
MTEXT
  5
2B0AB
330
20D15
100
AcDbEntity
  8
寸法
 62
     7
 48
50.0
100
AcDbMText
 10
4056.411293732747
 20
5787.541585258246
 30
0.0
 40
120.0
 41
0.0
 71
     5
 72
     1
  1
\A1;50
  7
STYLE1
 73
     1
 44
1.0
1001
ACAD
1000
MTEXTBEGIN
1070
    73
1070
     1
1070
    44
1040
1.0
1070
    74
1070
     0
1000
MTEXTEND
  0
POINT
  5
2B0AC
330
20D15
100
AcDbEntity
  8
DEFPOINTS
 62
     0
 48
50.0
100
AcDbPoint
 10
4419.896575106995
 20
5475.000000000008
 30
0.0
  0
POINT
  5
2B0AD
330
20D15
100
AcDbEntity
  8
DEFPOINTS
 62
     0
 48
50.0
100
AcDbPoint
 10
4369.896575106994
 20
5475.000000000006
 30
0.0
  0
POINT
  5
2B0AE
330
20D15
100
AcDbEntity
  8
DEFPOINTS
 62
     0
 48
50.0
100
AcDbPoint
 10
4369.896575106994
 20
5687.541585258245
 30
0.0
  0
ENDBLK
  5
20D22
330
20D15
100
AcDbEntity
  8
0
 48
50.0
100
AcDbBlockEnd
  0
BLOCK
  5
20D2F
330
20D23
100
AcDbEntity
  8
0
 48
50.0
100
AcDbBlockBegin
  2
*D3
 70
     1
 10
0.0
 20
0.0
 30
0.0
  3
*D3
  1

  0
LINE
  5
2B099
330
20D23
100
AcDbEntity
  8
寸法
 62
     0
 48
50.0
370
    -2
100
AcDbLine
 10
7519.896575107009
 20
5495.000000000004
 30
0.0
 11
7519.896575107009
 21
5747.541585258244
 31
0.0
  0
LINE
  5
2B09A
330
20D23
100
AcDbEntity
  8
寸法
 62
     0
 48
50.0
370
    -2
100
AcDbLine
 10
7469.896575107009
 20
5495.000000000005
 30
0.0
 11
7469.896575107009
 21
5747.541585258244
 31
0.0
  0
LINE
  5
2B09B
330
20D23
100
AcDbEntity
  8
寸法
 62
     0
 48
50.0
370
    -2
100
AcDbLine
 10
7469.896575107009
 20
5687.541585258244
 30
0.0
 11
7369.896575107009
 21
5687.541585258244
 31
0.0
  0
LINE
  5
2B09C
330
20D23
100
AcDbEntity
  8
寸法
 62
     0
 48
50.0
370
    -2
100
AcDbLine
 10
7519.896575107009
 20
5687.541585258244
 30
0.0
 11
7939.429100575734
 21
5687.541585258244
 31
0.0
  0
LINE
  5
2B09D
330
20D23
100
AcDbEntity
  8
寸法
 62
     0
 48
50.0
370
    -2
100
AcDbLine
 10
7469.896575107009
 20
5687.541585258244
 30
0.0
 11
7519.896575107009
 21
5687.541585258244
 31
0.0
  0
INSERT
  5
2B09E
330
20D23
100
AcDbEntity
  8
寸法
 62
     0
 48
50.0
370
    -2
100
AcDbBlockReference
  2
_DOTSMALL
 10
7469.896575107009
 20
5687.541585258244
 30
0.0
 41
100.0
 42
100.0
 43
100.0
  0
INSERT
  5
2B09F
330
20D23
100
AcDbEntity
  8
寸法
 62
     0
 48
50.0
370
    -2
100
AcDbBlockReference
  2
_DOTSMALL
 10
7519.896575107009
 20
5687.541585258244
 30
0.0
 41
100.0
 42
100.0
 43
100.0
 50
180.0
  0
MTEXT
  5
2B0A0
330
20D23
100
AcDbEntity
  8
寸法
 62
     7
 48
50.0
100
AcDbMText
 10
7833.381856481246
 20
5787.541585258245
 30
0.0
 40
120.0
 41
0.0
 71
     5
 72
     1
  1
\A1;50
  7
STYLE1
 73
     1
 44
1.0
1001
ACAD
1000
MTEXTBEGIN
1070
    73
1070
     1
1070
    44
1040
1.0
1070
    74
1070
     0
1000
MTEXTEND
  0
POINT
  5
2B0A1
330
20D23
100
AcDbEntity
  8
DEFPOINTS
 62
     0
 48
50.0
100
AcDbPoint
 10
7519.896575107009
 20
5475.000000000004
 30
0.0
  0
POINT
  5
2B0A2
330
20D23
100
AcDbEntity
  8
DEFPOINTS
 62
     0
 48
50.0
100
AcDbPoint
 10
7469.896575107009
 20
5475.000000000005
 30
0.0
  0
POINT
  5
2B0A3
330
20D23
100
AcDbEntity
  8
DEFPOINTS
 62
     0
 48
50.0
100
AcDbPoint
 10
7469.896575107009
 20
5687.541585258244
 30
0.0
  0
ENDBLK
  5
20D30
330
20D23
100
AcDbEntity
  8
0
 48
50.0
100
AcDbBlockEnd
  0
BLOCK
  5
20D3B
330
20D31
100
AcDbEntity
  8
0
 48
50.0
100
AcDbBlockBegin
  2
*D4
 70
     1
 10
0.0
 20
0.0
 30
0.0
  3
*D4
  1

  0
LINE
  5
2B090
330
20D31
100
AcDbEntity
  8
寸法
 62
     0
 48
50.0
370
    -2
100
AcDbLine
 10
4369.896575106994
 20
5495.000000000007
 30
0.0
 11
4369.896575106994
 21
5968.446885731996
 31
0.0
  0
LINE
  5
2B091
330
20D31
100
AcDbEntity
  8
寸法
 62
     0
 48
50.0
370
    -2
100
AcDbLine
 10
7519.896575107009
 20
5495.000000000004
 30
0.0
 11
7519.896575107009
 21
5968.446885731996
 31
0.0
  0
LINE
  5
2B092
330
20D31
100
AcDbEntity
  8
寸法
 62
     0
 48
50.0
370
    -2
100
AcDbLine
 10
4369.896575106994
 20
5908.446885731995
 30
0.0
 11
7519.896575107009
 21
5908.446885731995
 31
0.0
  0
INSERT
  5
2B093
330
20D31
100
AcDbEntity
  8
寸法
 62
     0
 48
50.0
370
    -2
100
AcDbBlockReference
  2
_DOTSMALL
 10
4369.896575106994
 20
5908.446885731995
 30
0.0
 41
100.0
 42
100.0
 43
100.0
 50
180.0
  0
INSERT
  5
2B094
330
20D31
100
AcDbEntity
  8
寸法
 62
     0
 48
50.0
370
    -2
100
AcDbBlockReference
  2
_DOTSMALL
 10
7519.896575107009
 20
5908.446885731995
 30
0.0
 41
100.0
 42
100.0
 43
100.0
  0
MTEXT
  5
2B095
330
20D31
100
AcDbEntity
  8
寸法
 62
     7
 48
50.0
100
AcDbMText
 10
5944.429791024755
 20
6008.446885731995
 30
0.0
 40
120.0
 41
0.0
 71
     5
 72
     1
  1
\A1;3150
  7
STYLE1
 73
     1
 44
1.0
1001
ACAD
1000
MTEXTBEGIN
1070
    73
1070
     1
1070
    44
1040
1.0
1070
    74
1070
     0
1000
MTEXTEND
  0
POINT
  5
2B096
330
20D31
100
AcDbEntity
  8
DEFPOINTS
 62
     0
 48
50.0
100
AcDbPoint
 10
4369.896575106994
 20
5475.000000000006
 30
0.0
  0
POINT
  5
2B097
330
20D31
100
AcDbEntity
  8
DEFPOINTS
 62
     0
 48
50.0
100
AcDbPoint
 10
7519.896575107009
 20
5475.000000000004
 30
0.0
  0
POINT
  5
2B098
330
20D31
100
AcDbEntity
  8
DEFPOINTS
 62
     0
 48
50.0
100
AcDbPoint
 10
7519.896575107009
 20
5908.446885731995
 30
0.0
  0
ENDBLK
  5
20D3C
330
20D31
100
AcDbEntity
  8
0
 48
50.0
100
AcDbBlockEnd
  0
BLOCK
  5
2703C
330
27032
100
AcDbEntity
  8
0
 48
50.0
100
AcDbBlockBegin
  2
*D5
 70
     1
 10
0.0
 20
0.0
 30
0.0
  3
*D5
  1

  0
LINE
  5
2B02E
330
27032
100
AcDbEntity
  8
寸法
 62
     0
 48
50.0
370
    -2
100
AcDbLine
 10
7489.896575107062
 20
9857.277214943504
 30
0.0
 11
8520.846303484956
 21
9857.277214943504
 31
0.0
  0
LINE
  5
2B02F
330
27032
100
AcDbEntity
  8
寸法
 62
     0
 48
50.0
370
    -2
100
AcDbLine
 10
7489.896575106977
 20
8067.277214943482
 30
0.0
 11
8520.846303484956
 21
8067.277214943482
 31
0.0
  0
LINE
  5
2B030
330
27032
100
AcDbEntity
  8
寸法
 62
     0
 48
50.0
370
    -2
100
AcDbLine
 10
8460.846303484958
 20
9857.277214943504
 30
0.0
 11
8460.846303484958
 21
8067.277214943482
 31
0.0
  0
INSERT
  5
2B031
330
27032
100
AcDbEntity
  8
寸法
 62
     0
 48
50.0
370
    -2
100
AcDbBlockReference
  2
_DOTSMALL
 10
8460.846303484958
 20
9857.277214943504
 30
0.0
 41
100.0
 42
100.0
 43
100.0
 50
90.0
  0
INSERT
  5
2B032
330
27032
100
AcDbEntity
  8
寸法
 62
     0
 48
50.0
370
    -2
100
AcDbBlockReference
  2
_DOTSMALL
 10
8460.846303484958
 20
8067.277214943482
 30
0.0
 41
100.0
 42
100.0
 43
100.0
 50
270.0
  0
MTEXT
  5
2B033
330
27032
100
AcDbEntity
  8
寸法
 62
     7
 48
50.0
100
AcDbMText
 10
8360.846303484956
 20
8918.797169492099
 30
0.0
 40
120.0
 41
0.0
 71
     5
 72
     1
  1
\A1;1790
  7
STYLE1
 11
0.0000000000000001
 21
1.0
 31
0.0
 73
     1
 44
1.0
1001
ACAD
1000
MTEXTBEGIN
1070
    73
1070
     1
1070
    44
1040
1.0
1070
    74
1070
     0
1000
MTEXTEND
  0
POINT
  5
2B034
330
27032
100
AcDbEntity
  8
DEFPOINTS
 62
     0
 48
50.0
100
AcDbPoint
 10
7469.896575107061
 20
9857.277214943504
 30
0.0
  0
POINT
  5
2B035
330
27032
100
AcDbEntity
  8
DEFPOINTS
 62
     0
 48
50.0
100
AcDbPoint
 10
7469.896575106976
 20
8067.277214943482
 30
0.0
  0
POINT
  5
2B036
330
27032
100
AcDbEntity
  8
DEFPOINTS
 62
     0
 48
50.0
100
AcDbPoint
 10
8460.846303484958
 20
8067.277214943482
 30
0.0
  0
ENDBLK
  5
2703D
330
27032
100
AcDbEntity
  8
0
 48
50.0
100
AcDbBlockEnd
  0
BLOCK
  5
27048
330
2703E
100
AcDbEntity
  8
0
 48
50.0
100
AcDbBlockBegin
  2
*D6
 70
     1
 10
0.0
 20
0.0
 30
0.0
  3
*D6
  1

  0
LINE
  5
2B037
330
2703E
100
AcDbEntity
  8
寸法
 62
     0
 48
50.0
370
    -2
100
AcDbLine
 10
4474.896575107062
 20
9877.277214943525
 30
0.0
 11
4474.896575107062
 21
10197.90424805226
 31
0.0
  0
LINE
  5
2B038
330
2703E
100
AcDbEntity
  8
寸法
 62
     0
 48
50.0
370
    -2
100
AcDbLine
 10
7414.896575107062
 20
9877.277214943504
 30
0.0
 11
7414.896575107062
 21
10197.90424805226
 31
0.0
  0
LINE
  5
2B039
330
2703E
100
AcDbEntity
  8
寸法
 62
     0
 48
50.0
370
    -2
100
AcDbLine
 10
4474.896575107062
 20
10137.90424805226
 30
0.0
 11
7414.896575107062
 21
10137.90424805226
 31
0.0
  0
INSERT
  5
2B03A
330
2703E
100
AcDbEntity
  8
寸法
 62
     0
 48
50.0
370
    -2
100
AcDbBlockReference
  2
_DOTSMALL
 10
4474.896575107062
 20
10137.90424805226
 30
0.0
 41
100.0
 42
100.0
 43
100.0
 50
180.0
  0
INSERT
  5
2B03B
330
2703E
100
AcDbEntity
  8
寸法
 62
     0
 48
50.0
370
    -2
100
AcDbBlockReference
  2
_DOTSMALL
 10
7414.896575107062
 20
10137.90424805226
 30
0.0
 41
100.0
 42
100.0
 43
100.0
  0
MTEXT
  5
2B03C
330
2703E
100
AcDbEntity
  8
寸法
 62
     7
 48
50.0
100
AcDbMText
 10
5899.035897556311
 20
10237.91605907588
 30
0.0
 40
120.0
 41
0.0
 71
     5
 72
     1
  1
\A1;7X420=2940
  7
STYLE1
 73
     1
 44
1.0
1001
ACAD
1000
MTEXTBEGIN
1070
    73
1070
     1
1070
    44
1040
1.0
1070
    74
1070
     0
1000
MTEXTEND
  0
POINT
  5
2B03D
330
2703E
100
AcDbEntity
  8
DEFPOINTS
 62
     0
 48
50.0
100
AcDbPoint
 10
4474.896575107062
 20
9857.277214943527
 30
0.0
  0
POINT
  5
2B03E
330
2703E
100
AcDbEntity
  8
DEFPOINTS
 62
     0
 48
50.0
100
AcDbPoint
 10
7414.896575107062
 20
9857.277214943504
 30
0.0
  0
POINT
  5
2B03F
330
2703E
100
AcDbEntity
  8
DEFPOINTS
 62
     0
 48
50.0
100
AcDbPoint
 10
7414.896575107062
 20
10137.90424805226
 30
0.0
  0
ENDBLK
  5
27049
330
2703E
100
AcDbEntity
  8
0
 48
50.0
100
AcDbBlockEnd
  0
BLOCK
  5
27056
330
2704A
100
AcDbEntity
  8
0
 48
50.0
100
AcDbBlockBegin
  2
*D7
 70
     1
 10
0.0
 20
0.0
 30
0.0
  3
*D7
  1

  0
LINE
  5
2B040
330
2704A
100
AcDbEntity
  8
寸法
 62
     0
 48
50.0
370
    -2
100
AcDbLine
 10
7414.896575107062
 20
9877.277214943504
 30
0.0
 11
7414.896575107062
 21
10197.90424805226
 31
0.0
  0
LINE
  5
2B041
330
2704A
100
AcDbEntity
  8
寸法
 62
     0
 48
50.0
370
    -2
100
AcDbLine
 10
7469.896575107061
 20
9877.277214943504
 30
0.0
 11
7469.896575107061
 21
10197.90424805226
 31
0.0
  0
LINE
  5
2B042
330
2704A
100
AcDbEntity
  8
寸法
 62
     0
 48
50.0
370
    -2
100
AcDbLine
 10
7414.896575107062
 20
10137.90424805226
 30
0.0
 11
7314.896575107062
 21
10137.90424805226
 31
0.0
  0
LINE
  5
2B043
330
2704A
100
AcDbEntity
  8
寸法
 62
     0
 48
50.0
370
    -2
100
AcDbLine
 10
7469.896575107061
 20
10137.90424805226
 30
0.0
 11
7886.86713785554
 21
10137.90424805226
 31
0.0
  0
LINE
  5
2B044
330
2704A
100
AcDbEntity
  8
寸法
 62
     0
 48
50.0
370
    -2
100
AcDbLine
 10
7414.896575107062
 20
10137.90424805226
 30
0.0
 11
7469.896575107061
 21
10137.90424805226
 31
0.0
  0
INSERT
  5
2B045
330
2704A
100
AcDbEntity
  8
寸法
 62
     0
 48
50.0
370
    -2
100
AcDbBlockReference
  2
_DOTSMALL
 10
7414.896575107062
 20
10137.90424805226
 30
0.0
 41
100.0
 42
100.0
 43
100.0
  0
INSERT
  5
2B046
330
2704A
100
AcDbEntity
  8
寸法
 62
     0
 48
50.0
370
    -2
100
AcDbBlockReference
  2
_DOTSMALL
 10
7469.896575107061
 20
10137.90424805226
 30
0.0
 41
100.0
 42
100.0
 43
100.0
 50
180.0
  0
MTEXT
  5
2B047
330
2704A
100
AcDbEntity
  8
寸法
 62
     7
 48
50.0
100
AcDbMText
 10
7778.381856481302
 20
10237.90424805226
 30
0.0
 40
120.0
 41
0.0
 71
     5
 72
     1
  1
\A1;55
  7
STYLE1
 73
     1
 44
1.0
1001
ACAD
1000
MTEXTBEGIN
1070
    73
1070
     1
1070
    44
1040
1.0
1070
    74
1070
     0
1000
MTEXTEND
  0
POINT
  5
2B048
330
2704A
100
AcDbEntity
  8
DEFPOINTS
 62
     0
 48
50.0
100
AcDbPoint
 10
7414.896575107062
 20
9857.277214943504
 30
0.0
  0
POINT
  5
2B049
330
2704A
100
AcDbEntity
  8
DEFPOINTS
 62
     0
 48
50.0
100
AcDbPoint
 10
7469.896575107061
 20
9857.277214943504
 30
0.0
  0
POINT
  5
2B04A
330
2704A
100
AcDbEntity
  8
DEFPOINTS
 62
     0
 48
50.0
100
AcDbPoint
 10
7469.896575107061
 20
10137.90424805226
 30
0.0
  0
ENDBLK
  5
27057
330
2704A
100
AcDbEntity
  8
0
 48
50.0
100
AcDbBlockEnd
  0
BLOCK
  5
27064
330
27058
100
AcDbEntity
  8
0
 48
50.0
100
AcDbBlockBegin
  2
*D8
 70
     1
 10
0.0
 20
0.0
 30
0.0
  3
*D8
  1

  0
LINE
  5
2B04B
330
27058
100
AcDbEntity
  8
寸法
 62
     0
 48
50.0
370
    -2
100
AcDbLine
 10
7489.896575107062
 20
9857.277214943504
 30
0.0
 11
8177.322920841472
 21
9857.277214943504
 31
0.0
  0
LINE
  5
2B04C
330
27058
100
AcDbEntity
  8
寸法
 62
     0
 48
50.0
370
    -2
100
AcDbLine
 10
7489.896575107062
 20
9802.277214943508
 30
0.0
 11
8177.322920841472
 21
9802.277214943508
 31
0.0
  0
LINE
  5
2B04D
330
27058
100
AcDbEntity
  8
寸法
 62
     0
 48
50.0
370
    -2
100
AcDbLine
 10
8117.322920841472
 20
9802.277214943508
 30
0.0
 11
8117.322920841472
 21
9702.277214943508
 31
0.0
  0
LINE
  5
2B04E
330
27058
100
AcDbEntity
  8
寸法
 62
     0
 48
50.0
370
    -2
100
AcDbLine
 10
8117.322920841472
 20
9857.277214943504
 30
0.0
 11
8117.322920841473
 21
10274.24777769198
 31
0.0
  0
LINE
  5
2B04F
330
27058
100
AcDbEntity
  8
寸法
 62
     0
 48
50.0
370
    -2
100
AcDbLine
 10
8117.322920841472
 20
9802.277214943508
 30
0.0
 11
8117.322920841472
 21
9857.277214943504
 31
0.0
  0
INSERT
  5
2B050
330
27058
100
AcDbEntity
  8
寸法
 62
     0
 48
50.0
370
    -2
100
AcDbBlockReference
  2
_DOTSMALL
 10
8117.322920841472
 20
9802.277214943508
 30
0.0
 41
100.0
 42
100.0
 43
100.0
 50
90.0
  0
INSERT
  5
2B051
330
27058
100
AcDbEntity
  8
寸法
 62
     0
 48
50.0
370
    -2
100
AcDbBlockReference
  2
_DOTSMALL
 10
8117.322920841472
 20
9857.277214943504
 30
0.0
 41
100.0
 42
100.0
 43
100.0
 50
270.0
  0
MTEXT
  5
2B052
330
27058
100
AcDbEntity
  8
寸法
 62
     7
 48
50.0
100
AcDbMText
 10
8017.32292084147
 20
10165.76249631774
 30
0.0
 40
120.0
 41
0.0
 71
     5
 72
     1
  1
\A1;55
  7
STYLE1
 11
0.0000000000000001
 21
1.0
 31
0.0
 73
     1
 44
1.0
1001
ACAD
1000
MTEXTBEGIN
1070
    73
1070
     1
1070
    44
1040
1.0
1070
    74
1070
     0
1000
MTEXTEND
  0
POINT
  5
2B053
330
27058
100
AcDbEntity
  8
DEFPOINTS
 62
     0
 48
50.0
100
AcDbPoint
 10
7469.896575107061
 20
9857.277214943504
 30
0.0
  0
POINT
  5
2B054
330
27058
100
AcDbEntity
  8
DEFPOINTS
 62
     0
 48
50.0
100
AcDbPoint
 10
7469.896575107061
 20
9802.277214943508
 30
0.0
  0
POINT
  5
2B055
330
27058
100
AcDbEntity
  8
DEFPOINTS
 62
     0
 48
50.0
100
AcDbPoint
 10
8117.322920841472
 20
9802.277214943508
 30
0.0
  0
ENDBLK
  5
27065
330
27058
100
AcDbEntity
  8
0
 48
50.0
100
AcDbBlockEnd
  0
BLOCK
  5
27072
330
27066
100
AcDbEntity
  8
0
 48
50.0
100
AcDbBlockBegin
  2
*D9
 70
     1
 10
0.0
 20
0.0
 30
0.0
  3
*D9
  1

  0
LINE
  5
2B056
330
27066
100
AcDbEntity
  8
寸法
 62
     0
 48
50.0
370
    -2
100
AcDbLine
 10
4419.896575107025
 20
9877.277214943525
 30
0.0
 11
4419.896575107025
 21
10197.90424805226
 31
0.0
  0
LINE
  5
2B057
330
27066
100
AcDbEntity
  8
寸法
 62
     0
 48
50.0
370
    -2
100
AcDbLine
 10
4474.896575107062
 20
9877.277214943525
 30
0.0
 11
4474.896575107062
 21
10197.90424805226
 31
0.0
  0
LINE
  5
2B058
330
27066
100
AcDbEntity
  8
寸法
 62
     0
 48
50.0
370
    -2
100
AcDbLine
 10
4474.896575107062
 20
10137.90424805226
 30
0.0
 11
4574.896575107062
 21
10137.90424805226
 31
0.0
  0
LINE
  5
2B059
330
27066
100
AcDbEntity
  8
寸法
 62
     0
 48
50.0
370
    -2
100
AcDbLine
 10
4419.896575107025
 20
10137.90424805226
 30
0.0
 11
4002.926012358547
 21
10137.90424805226
 31
0.0
  0
LINE
  5
2B05A
330
27066
100
AcDbEntity
  8
寸法
 62
     0
 48
50.0
370
    -2
100
AcDbLine
 10
4474.896575107062
 20
10137.90424805226
 30
0.0
 11
4419.896575107025
 21
10137.90424805226
 31
0.0
  0
INSERT
  5
2B05B
330
27066
100
AcDbEntity
  8
寸法
 62
     0
 48
50.0
370
    -2
100
AcDbBlockReference
  2
_DOTSMALL
 10
4474.896575107062
 20
10137.90424805226
 30
0.0
 41
100.0
 42
100.0
 43
100.0
 50
180.0
  0
INSERT
  5
2B05C
330
27066
100
AcDbEntity
  8
寸法
 62
     0
 48
50.0
370
    -2
100
AcDbBlockReference
  2
_DOTSMALL
 10
4419.896575107025
 20
10137.90424805226
 30
0.0
 41
100.0
 42
100.0
 43
100.0
  0
MTEXT
  5
2B05D
330
27066
100
AcDbEntity
  8
寸法
 62
     7
 48
50.0
100
AcDbMText
 10
4111.411293732786
 20
10237.90424805226
 30
0.0
 40
120.0
 41
0.0
 71
     5
 72
     1
  1
\A1;55
  7
STYLE1
 73
     1
 44
1.0
1001
ACAD
1000
MTEXTBEGIN
1070
    73
1070
     1
1070
    44
1040
1.0
1070
    74
1070
     0
1000
MTEXTEND
  0
POINT
  5
2B05E
330
27066
100
AcDbEntity
  8
DEFPOINTS
 62
     0
 48
50.0
100
AcDbPoint
 10
4419.896575107025
 20
9857.277214943527
 30
0.0
  0
POINT
  5
2B05F
330
27066
100
AcDbEntity
  8
DEFPOINTS
 62
     0
 48
50.0
100
AcDbPoint
 10
4474.896575107062
 20
9857.277214943527
 30
0.0
  0
POINT
  5
2B060
330
27066
100
AcDbEntity
  8
DEFPOINTS
 62
     0
 48
50.0
100
AcDbPoint
 10
4474.896575107062
 20
10137.90424805226
 30
0.0
  0
ENDBLK
  5
27073
330
27066
100
AcDbEntity
  8
0
 48
50.0
100
AcDbBlockEnd
  0
BLOCK
  5
27080
330
27074
100
AcDbEntity
  8
0
 48
50.0
100
AcDbBlockBegin
  2
*D10
 70
     1
 10
0.0
 20
0.0
 30
0.0
  3
*D10
  1

  0
LINE
  5
2B061
330
27074
100
AcDbEntity
  8
寸法
 62
     0
 48
50.0
370
    -2
100
AcDbLine
 10
7489.896575106977
 20
8122.277214943478
 30
0.0
 11
8177.322920841387
 21
8122.277214943478
 31
0.0
  0
LINE
  5
2B062
330
27074
100
AcDbEntity
  8
寸法
 62
     0
 48
50.0
370
    -2
100
AcDbLine
 10
7489.896575106977
 20
8067.277214943482
 30
0.0
 11
8177.322920841387
 21
8067.277214943482
 31
0.0
  0
LINE
  5
2B063
330
27074
100
AcDbEntity
  8
寸法
 62
     0
 48
50.0
370
    -2
100
AcDbLine
 10
8117.322920841386
 20
8122.277214943478
 30
0.0
 11
8117.322920841386
 21
8222.277214943479
 31
0.0
  0
LINE
  5
2B064
330
27074
100
AcDbEntity
  8
寸法
 62
     0
 48
50.0
370
    -2
100
AcDbLine
 10
8117.322920841386
 20
8067.277214943482
 30
0.0
 11
8117.322920841386
 21
7580.93046666438
 31
0.0
  0
LINE
  5
2B065
330
27074
100
AcDbEntity
  8
寸法
 62
     0
 48
50.0
370
    -2
100
AcDbLine
 10
8117.322920841386
 20
8122.277214943478
 30
0.0
 11
8117.322920841386
 21
8067.277214943482
 31
0.0
  0
INSERT
  5
2B066
330
27074
100
AcDbEntity
  8
寸法
 62
     0
 48
50.0
370
    -2
100
AcDbBlockReference
  2
_DOTSMALL
 10
8117.322920841386
 20
8122.277214943478
 30
0.0
 41
100.0
 42
100.0
 43
100.0
 50
270.0
  0
INSERT
  5
2B067
330
27074
100
AcDbEntity
  8
寸法
 62
     0
 48
50.0
370
    -2
100
AcDbBlockReference
  2
_DOTSMALL
 10
8117.322920841386
 20
8067.277214943482
 30
0.0
 41
100.0
 42
100.0
 43
100.0
 50
90.0
  0
MTEXT
  5
2B068
330
27074
100
AcDbEntity
  8
寸法
 62
     7
 48
50.0
100
AcDbMText
 10
8017.322920841385
 20
7689.415748038619
 30
0.0
 40
120.0
 41
0.0
 71
     5
 72
     1
  1
\A1;55
  7
STYLE1
 11
0.0000000000000001
 21
1.0
 31
0.0
 73
     1
 44
1.0
1001
ACAD
1000
MTEXTBEGIN
1070
    73
1070
     1
1070
    44
1040
1.0
1070
    74
1070
     0
1000
MTEXTEND
  0
POINT
  5
2B069
330
27074
100
AcDbEntity
  8
DEFPOINTS
 62
     0
 48
50.0
100
AcDbPoint
 10
7469.896575106976
 20
8122.277214943478
 30
0.0
  0
POINT
  5
2B06A
330
27074
100
AcDbEntity
  8
DEFPOINTS
 62
     0
 48
50.0
100
AcDbPoint
 10
7469.896575106976
 20
8067.277214943482
 30
0.0
  0
POINT
  5
2B06B
330
27074
100
AcDbEntity
  8
DEFPOINTS
 62
     0
 48
50.0
100
AcDbPoint
 10
8117.322920841386
 20
8067.277214943482
 30
0.0
  0
ENDBLK
  5
27081
330
27074
100
AcDbEntity
  8
0
 48
50.0
100
AcDbBlockEnd
  0
BLOCK
  5
2708C
330
27082
100
AcDbEntity
  8
0
 48
50.0
100
AcDbBlockBegin
  2
*D11
 70
     1
 10
0.0
 20
0.0
 30
0.0
  3
*D11
  1

  0
LINE
  5
2B06C
330
27082
100
AcDbEntity
  8
寸法
 62
     0
 48
50.0
370
    -2
100
AcDbLine
 10
5953.037591258439
 20
9357.277214943556
 30
0.0
 11
5884.819329746872
 21
9102.683196978366
 31
0.0
  0
LINE
  5
2B06D
330
27082
100
AcDbEntity
  8
寸法
 62
     0
 48
50.0
370
    -2
100
AcDbLine
 10
7436.03759125845
 20
9357.277214943508
 30
0.0
 11
7367.819329746897
 21
9102.683196978366
 31
0.0
  0
LINE
  5
2B06E
330
27082
100
AcDbEntity
  8
寸法
 62
     0
 48
50.0
370
    -2
100
AcDbLine
 10
5900.896281292739
 20
9162.683196978367
 30
0.0
 11
7383.896281292763
 21
9162.683196978367
 31
0.0
  0
INSERT
  5
2B06F
330
27082
100
AcDbEntity
  8
寸法
 62
     0
 48
50.0
370
    -2
100
AcDbBlockReference
  2
_DOTSMALL
 10
5900.896281292739
 20
9162.683196978367
 30
0.0
 41
100.0
 42
100.0
 43
100.0
 50
180.0
  0
INSERT
  5
2B070
330
27082
100
AcDbEntity
  8
寸法
 62
     0
 48
50.0
370
    -2
100
AcDbBlockReference
  2
_DOTSMALL
 10
7383.896281292763
 20
9162.683196978367
 30
0.0
 41
100.0
 42
100.0
 43
100.0
  0
MTEXT
  5
2B071
330
27082
100
AcDbEntity
  8
寸法
 62
     7
 48
50.0
100
AcDbMText
 10
6479.920619403102
 20
9262.683196978366
 30
0.0
 40
120.0
 41
0.0
 71
     5
 72
     1
  1
\A1;1483
  7
STYLE1
 73
     1
 44
1.0
1001
ACAD
1000
MTEXTBEGIN
1070
    73
1070
     1
1070
    44
1040
1.0
1070
    74
1070
     0
1000
MTEXTEND
  0
POINT
  5
2B072
330
27082
100
AcDbEntity
  8
DEFPOINTS
 62
     0
 48
50.0
100
AcDbPoint
 10
5958.396575107062
 20
9377.277214943555
 30
0.0
  0
POINT
  5
2B073
330
27082
100
AcDbEntity
  8
DEFPOINTS
 62
     0
 48
50.0
100
AcDbPoint
 10
7441.396575107074
 20
9377.277214943509
 30
0.0
  0
POINT
  5
2B074
330
27082
100
AcDbEntity
  8
DEFPOINTS
 62
     0
 48
50.0
100
AcDbPoint
 10
7383.896281292763
 20
9162.683196978367
 30
0.0
  0
ENDBLK
  5
2708D
330
27082
100
AcDbEntity
  8
0
 48
50.0
100
AcDbBlockEnd
  0
BLOCK
  5
27098
330
2708E
100
AcDbEntity
  8
0
 48
50.0
100
AcDbBlockBegin
  2
*D12
 70
     1
 10
0.0
 20
0.0
 30
0.0
  3
*D12
  1

  0
LINE
  5
2B075
330
2708E
100
AcDbEntity
  8
寸法
 62
     0
 48
50.0
370
    -2
100
AcDbLine
 10
7461.396575107063
 20
9821.918231094883
 30
0.0
 11
7856.754300969086
 21
9715.982447728748
 31
0.0
  0
LINE
  5
2B076
330
2708E
100
AcDbEntity
  8
寸法
 62
     0
 48
50.0
370
    -2
100
AcDbLine
 10
7461.396575107063
 20
9371.918231094886
 30
0.0
 11
7856.754300969086
 21
9265.982447728751
 31
0.0
  0
LINE
  5
2B077
330
2708E
100
AcDbEntity
  8
寸法
 62
     0
 48
50.0
370
    -2
100
AcDbLine
 10
7796.754300969086
 20
9732.059399274614
 30
0.0
 11
7796.754300969086
 21
9282.059399274618
 31
0.0
  0
INSERT
  5
2B078
330
2708E
100
AcDbEntity
  8
寸法
 62
     0
 48
50.0
370
    -2
100
AcDbBlockReference
  2
_DOTSMALL
 10
7796.754300969086
 20
9732.059399274614
 30
0.0
 41
100.0
 42
100.0
 43
100.0
 50
90.0
  0
INSERT
  5
2B079
330
2708E
100
AcDbEntity
  8
寸法
 62
     0
 48
50.0
370
    -2
100
AcDbBlockReference
  2
_DOTSMALL
 10
7796.754300969086
 20
9282.059399274618
 30
0.0
 41
100.0
 42
100.0
 43
100.0
 50
270.0
  0
MTEXT
  5
2B07A
330
2708E
100
AcDbEntity
  8
寸法
 62
     7
 48
50.0
100
AcDbMText
 10
7696.754300969086
 20
9507.059399274618
 30
0.0
 40
120.0
 41
0.0
 71
     5
 72
     1
  1
\A1;450
  7
STYLE1
 11
0.0000000000000001
 21
1.0
 31
0.0
 73
     1
 44
1.0
1001
ACAD
1000
MTEXTBEGIN
1070
    73
1070
     1
1070
    44
1040
1.0
1070
    74
1070
     0
1000
MTEXTEND
  0
POINT
  5
2B07B
330
2708E
100
AcDbEntity
  8
DEFPOINTS
 62
     0
 48
50.0
100
AcDbPoint
 10
7441.396575107062
 20
9827.277214943505
 30
0.0
  0
POINT
  5
2B07C
330
2708E
100
AcDbEntity
  8
DEFPOINTS
 62
     0
 48
50.0
100
AcDbPoint
 10
7441.396575107062
 20
9377.277214943509
 30
0.0
  0
POINT
  5
2B07D
330
2708E
100
AcDbEntity
  8
DEFPOINTS
 62
     0
 48
50.0
100
AcDbPoint
 10
7796.754300969086
 20
9282.059399274618
 30
0.0
  0
ENDBLK
  5
27099
330
2708E
100
AcDbEntity
  8
0
 48
50.0
100
AcDbBlockEnd
  0
BLOCK
  5
270A4
330
2709A
100
AcDbEntity
  8
0
 48
50.0
100
AcDbBlockBegin
  2
*D13
 70
     1
 10
0.0
 20
0.0
 30
0.0
  3
*D13
  1

  0
LINE
  5
2B07E
330
2709A
100
AcDbEntity
  8
寸法
 62
     0
 48
50.0
370
    -2
100
AcDbLine
 10
7489.896575107062
 20
9802.277214943508
 30
0.0
 11
8177.322920841389
 21
9802.277214943508
 31
0.0
  0
LINE
  5
2B07F
330
2709A
100
AcDbEntity
  8
寸法
 62
     0
 48
50.0
370
    -2
100
AcDbLine
 10
7489.896575106977
 20
8122.277214943478
 30
0.0
 11
8177.322920841389
 21
8122.277214943478
 31
0.0
  0
LINE
  5
2B080
330
2709A
100
AcDbEntity
  8
寸法
 62
     0
 48
50.0
370
    -2
100
AcDbLine
 10
8117.322920841386
 20
9802.277214943508
 30
0.0
 11
8117.322920841386
 21
8122.277214943478
 31
0.0
  0
INSERT
  5
2B081
330
2709A
100
AcDbEntity
  8
寸法
 62
     0
 48
50.0
370
    -2
100
AcDbBlockReference
  2
_DOTSMALL
 10
8117.322920841386
 20
9802.277214943508
 30
0.0
 41
100.0
 42
100.0
 43
100.0
 50
90.0
  0
INSERT
  5
2B082
330
2709A
100
AcDbEntity
  8
寸法
 62
     0
 48
50.0
370
    -2
100
AcDbBlockReference
  2
_DOTSMALL
 10
8117.322920841386
 20
8122.277214943478
 30
0.0
 41
100.0
 42
100.0
 43
100.0
 50
270.0
  0
MTEXT
  5
2B083
330
2709A
100
AcDbEntity
  8
寸法
 62
     7
 48
50.0
100
AcDbMText
 10
8017.311109817766
 20
8952.478686047021
 30
0.0
 40
120.0
 41
0.0
 71
     5
 72
     1
  1
\A1;4X420=1680
  7
STYLE1
 11
0.0000000000000001
 21
1.0
 31
0.0
 73
     1
 44
1.0
1001
ACAD
1000
MTEXTBEGIN
1070
    73
1070
     1
1070
    44
1040
1.0
1070
    74
1070
     0
1000
MTEXTEND
  0
POINT
  5
2B084
330
2709A
100
AcDbEntity
  8
DEFPOINTS
 62
     0
 48
50.0
100
AcDbPoint
 10
7469.896575107061
 20
9802.277214943508
 30
0.0
  0
POINT
  5
2B085
330
2709A
100
AcDbEntity
  8
DEFPOINTS
 62
     0
 48
50.0
100
AcDbPoint
 10
7469.896575106976
 20
8122.277214943478
 30
0.0
  0
POINT
  5
2B086
330
2709A
100
AcDbEntity
  8
DEFPOINTS
 62
     0
 48
50.0
100
AcDbPoint
 10
8117.322920841386
 20
8122.277214943478
 30
0.0
  0
ENDBLK
  5
270A5
330
2709A
100
AcDbEntity
  8
0
 48
50.0
100
AcDbBlockEnd
  0
BLOCK
  5
270B0
330
270A6
100
AcDbEntity
  8
0
 48
50.0
100
AcDbBlockBegin
  2
*D14
 70
     1
 10
0.0
 20
0.0
 30
0.0
  3
*D14
  1

  0
LINE
  5
2B087
330
270A6
100
AcDbEntity
  8
寸法
 62
     0
 48
50.0
370
    -2
100
AcDbLine
 10
4443.037591258439
 20
9357.277214943289
 30
0.0
 11
4375.177293111536
 21
9104.019134442278
 31
0.0
  0
LINE
  5
2B088
330
270A6
100
AcDbEntity
  8
寸法
 62
     0
 48
50.0
370
    -2
100
AcDbLine
 10
5926.037591258439
 20
9357.277214943556
 30
0.0
 11
5858.177293111466
 21
9104.019134442278
 31
0.0
  0
LINE
  5
2B089
330
270A6
100
AcDbEntity
  8
寸法
 62
     0
 48
50.0
370
    -2
100
AcDbLine
 10
4391.254244657404
 20
9164.019134442279
 30
0.0
 11
5874.254244657334
 21
9164.019134442279
 31
0.0
  0
INSERT
  5
2B08A
330
270A6
100
AcDbEntity
  8
寸法
 62
     0
 48
50.0
370
    -2
100
AcDbBlockReference
  2
_DOTSMALL
 10
4391.254244657404
 20
9164.019134442279
 30
0.0
 41
100.0
 42
100.0
 43
100.0
 50
180.0
  0
INSERT
  5
2B08B
330
270A6
100
AcDbEntity
  8
寸法
 62
     0
 48
50.0
370
    -2
100
AcDbBlockReference
  2
_DOTSMALL
 10
5874.254244657334
 20
9164.019134442279
 30
0.0
 41
100.0
 42
100.0
 43
100.0
  0
MTEXT
  5
2B08C
330
270A6
100
AcDbEntity
  8
寸法
 62
     7
 48
50.0
100
AcDbMText
 10
5012.644825345227
 20
9264.019134442278
 30
0.0
 40
120.0
 41
0.0
 71
     5
 72
     1
  1
\A1;1483
  7
STYLE1
 73
     1
 44
1.0
1001
ACAD
1000
MTEXTBEGIN
1070
    73
1070
     1
1070
    44
1040
1.0
1070
    74
1070
     0
1000
MTEXTEND
  0
POINT
  5
2B08D
330
270A6
100
AcDbEntity
  8
DEFPOINTS
 62
     0
 48
50.0
100
AcDbPoint
 10
4448.396575107062
 20
9377.277214943289
 30
0.0
  0
POINT
  5
2B08E
330
270A6
100
AcDbEntity
  8
DEFPOINTS
 62
     0
 48
50.0
100
AcDbPoint
 10
5931.396575107061
 20
9377.277214943555
 30
0.0
  0
POINT
  5
2B08F
330
270A6
100
AcDbEntity
  8
DEFPOINTS
 62
     0
 48
50.0
100
AcDbPoint
 10
5874.254244657334
 20
9164.019134442279
 30
0.0
  0
ENDBLK
  5
270B1
330
270A6
100
AcDbEntity
  8
0
 48
50.0
100
AcDbBlockEnd
  0
BLOCK
  5
285BC
330
285B2
100
AcDbEntity
  8
0
 48
50.0
100
AcDbBlockBegin
  2
*D15
 70
     1
 10
0.0
 20
0.0
 30
0.0
  3
*D15
  1

  0
LINE
  5
2B025
330
285B2
100
AcDbEntity
  8
寸法
 62
     0
 48
50.0
370
    -2
100
AcDbLine
 10
6554.396608092028
 20
8047.277214943449
 30
0.0
 11
6554.396608092028
 21
7452.579643168752
 31
0.0
  0
LINE
  5
2B026
330
285B2
100
AcDbEntity
  8
寸法
 62
     0
 48
50.0
370
    -2
100
AcDbLine
 10
5247.396608092028
 20
8047.277214943338
 30
0.0
 11
5247.396608092028
 21
7452.579643168752
 31
0.0
  0
LINE
  5
2B027
330
285B2
100
AcDbEntity
  8
寸法
 62
     0
 48
50.0
370
    -2
100
AcDbLine
 10
6554.396608092028
 20
7512.579643168752
 30
0.0
 11
5247.396608092028
 21
7512.579643168752
 31
0.0
  0
INSERT
  5
2B028
330
285B2
100
AcDbEntity
  8
寸法
 62
     0
 48
50.0
370
    -2
100
AcDbBlockReference
  2
_DOTSMALL
 10
6554.396608092028
 20
7512.579643168752
 30
0.0
 41
100.0
 42
100.0
 43
100.0
  0
INSERT
  5
2B029
330
285B2
100
AcDbEntity
  8
寸法
 62
     0
 48
50.0
370
    -2
100
AcDbBlockReference
  2
_DOTSMALL
 10
5247.396608092028
 20
7512.579643168752
 30
0.0
 41
100.0
 42
100.0
 43
100.0
 50
180.0
  0
MTEXT
  5
2B02A
330
285B2
100
AcDbEntity
  8
寸法
 62
     7
 48
50.0
100
AcDbMText
 10
5923.898055825319
 20
7712.579643168751
 30
0.0
 40
120.0
 41
0.0
 71
     5
 72
     1
  1
\A1;有効開口部間口\P1307
  7
STYLE1
 73
     1
 44
1.0
1001
ACAD
1000
MTEXTBEGIN
1070
    73
1070
     1
1070
    44
1040
1.0
1070
    74
1070
     0
1000
MTEXTEND
  0
POINT
  5
2B02B
330
285B2
100
AcDbEntity
  8
DEFPOINTS
 62
     0
 48
50.0
100
AcDbPoint
 10
6554.396608092028
 20
8067.27721494345
 30
0.0
  0
POINT
  5
2B02C
330
285B2
100
AcDbEntity
  8
DEFPOINTS
 62
     0
 48
50.0
100
AcDbPoint
 10
5247.396608092028
 20
8067.277214943338
 30
0.0
  0
POINT
  5
2B02D
330
285B2
100
AcDbEntity
  8
DEFPOINTS
 62
     0
 48
50.0
100
AcDbPoint
 10
5247.396608092028
 20
7512.579643168752
 30
0.0
  0
ENDBLK
  5
285BD
330
285B2
100
AcDbEntity
  8
0
 48
50.0
100
AcDbBlockEnd
  0
BLOCK
  5
285EE
330
285E4
100
AcDbEntity
  8
0
 48
50.0
100
AcDbBlockBegin
  2
*D16
 70
     1
 10
0.0
 20
0.0
 30
0.0
  3
*D16
  1

  0
LINE
  5
2B01C
330
285E4
100
AcDbEntity
  8
寸法
 62
     0
 48
50.0
370
    -2
100
AcDbLine
 10
4419.896575106995
 20
8047.277214943468
 30
0.0
 11
4419.896575106995
 21
7218.771106386509
 31
0.0
  0
LINE
  5
2B01D
330
285E4
100
AcDbEntity
  8
寸法
 62
     0
 48
50.0
370
    -2
100
AcDbLine
 10
7469.896575106976
 20
8047.277214943482
 30
0.0
 11
7469.896575106976
 21
7218.771106386509
 31
0.0
  0
LINE
  5
2B01E
330
285E4
100
AcDbEntity
  8
寸法
 62
     0
 48
50.0
370
    -2
100
AcDbLine
 10
4419.896575106995
 20
7278.771106386511
 30
0.0
 11
7469.896575106976
 21
7278.771106386511
 31
0.0
  0
INSERT
  5
2B01F
330
285E4
100
AcDbEntity
  8
寸法
 62
     0
 48
50.0
370
    -2
100
AcDbBlockReference
  2
_DOTSMALL
 10
4419.896575106995
 20
7278.771106386511
 30
0.0
 41
100.0
 42
100.0
 43
100.0
 50
180.0
  0
INSERT
  5
2B020
330
285E4
100
AcDbEntity
  8
寸法
 62
     0
 48
50.0
370
    -2
100
AcDbBlockReference
  2
_DOTSMALL
 10
7469.896575106976
 20
7278.771106386511
 30
0.0
 41
100.0
 42
100.0
 43
100.0
  0
MTEXT
  5
2B021
330
285E4
100
AcDbEntity
  8
寸法
 62
     7
 48
50.0
100
AcDbMText
 10
5982.237605261918
 20
7378.77110638651
 30
0.0
 40
120.0
 41
0.0
 71
     5
 72
     1
  1
\A1;3050
  7
STYLE1
 73
     1
 44
1.0
1001
ACAD
1000
MTEXTBEGIN
1070
    73
1070
     1
1070
    44
1040
1.0
1070
    74
1070
     0
1000
MTEXTEND
  0
POINT
  5
2B022
330
285E4
100
AcDbEntity
  8
DEFPOINTS
 62
     0
 48
50.0
100
AcDbPoint
 10
4419.896575106995
 20
8067.277214943468
 30
0.0
  0
POINT
  5
2B023
330
285E4
100
AcDbEntity
  8
DEFPOINTS
 62
     0
 48
50.0
100
AcDbPoint
 10
7469.896575106976
 20
8067.277214943482
 30
0.0
  0
POINT
  5
2B024
330
285E4
100
AcDbEntity
  8
DEFPOINTS
 62
     0
 48
50.0
100
AcDbPoint
 10
7469.896575106976
 20
7278.771106386511
 30
0.0
  0
ENDBLK
  5
285EF
330
285E4
100
AcDbEntity
  8
0
 48
50.0
100
AcDbBlockEnd
  0
BLOCK
  5
2A4A7
330
2A49D
100
AcDbEntity
  8
0
 48
50.0
100
AcDbBlockBegin
  2
*D17
 70
     1
 10
0.0
 20
0.0
 30
0.0
  3
*D17
  1

  0
LINE
  5
2AFFF
330
2A49D
100
AcDbEntity
  8
寸法
 62
     0
 48
50.0
370
    -2
100
AcDbLine
 10
11424.72844517243
 20
5440.000000000001
 30
0.0
 11
11424.72844517243
 21
6150.619268957918
 31
0.0
  0
LINE
  5
2B000
330
2A49D
100
AcDbEntity
  8
寸法
 62
     0
 48
50.0
370
    -2
100
AcDbLine
 10
9494.728445172436
 20
5495.000000000004
 30
0.0
 11
9494.728445172436
 21
6150.619268957918
 31
0.0
  0
LINE
  5
2B001
330
2A49D
100
AcDbEntity
  8
寸法
 62
     0
 48
50.0
370
    -2
100
AcDbLine
 10
11424.72844517243
 20
6090.619268957919
 30
0.0
 11
9494.728445172436
 21
6090.619268957919
 31
0.0
  0
INSERT
  5
2B002
330
2A49D
100
AcDbEntity
  8
寸法
 62
     0
 48
50.0
370
    -2
100
AcDbBlockReference
  2
_DOTSMALL
 10
11424.72844517243
 20
6090.619268957919
 30
0.0
 41
100.0
 42
100.0
 43
100.0
  0
INSERT
  5
2B003
330
2A49D
100
AcDbEntity
  8
寸法
 62
     0
 48
50.0
370
    -2
100
AcDbBlockReference
  2
_DOTSMALL
 10
9494.728445172436
 20
6090.619268957919
 30
0.0
 41
100.0
 42
100.0
 43
100.0
 50
180.0
  0
MTEXT
  5
2B004
330
2A49D
100
AcDbEntity
  8
寸法
 62
     7
 48
50.0
100
AcDbMText
 10
10400.5341964234
 20
6190.619268957918
 30
0.0
 40
120.0
 41
0.0
 71
     5
 72
     1
  1
\A1;1930
  7
STYLE1
 73
     1
 44
1.0
1001
ACAD
1000
MTEXTBEGIN
1070
    73
1070
     1
1070
    44
1040
1.0
1070
    74
1070
     0
1000
MTEXTEND
  0
POINT
  5
2B005
330
2A49D
100
AcDbEntity
  8
DEFPOINTS
 62
     0
 48
50.0
100
AcDbPoint
 10
11424.72844517243
 20
5420.000000000001
 30
0.0
  0
POINT
  5
2B006
330
2A49D
100
AcDbEntity
  8
DEFPOINTS
 62
     0
 48
50.0
100
AcDbPoint
 10
9494.728445172436
 20
5475.000000000004
 30
0.0
  0
POINT
  5
2B007
330
2A49D
100
AcDbEntity
  8
DEFPOINTS
 62
     0
 48
50.0
100
AcDbPoint
 10
9494.728445172436
 20
6090.619268957919
 30
0.0
  0
ENDBLK
  5
2A4A8
330
2A49D
100
AcDbEntity
  8
0
 48
50.0
100
AcDbBlockEnd
  0
BLOCK
  5
2A4B5
330
2A4A9
100
AcDbEntity
  8
0
 48
50.0
100
AcDbBlockBegin
  2
*D18
 70
     1
 10
0.0
 20
0.0
 30
0.0
  3
*D18
  1

  0
LINE
  5
2AFF4
330
2A4A9
100
AcDbEntity
  8
寸法
 62
     0
 48
50.0
370
    -2
100
AcDbLine
 10
9554.728445172434
 20
5491.001618122976
 30
0.0
 11
9554.728445172434
 21
5933.657453579304
 31
0.0
  0
LINE
  5
2AFF5
330
2A4A9
100
AcDbEntity
  8
寸法
 62
     0
 48
50.0
370
    -2
100
AcDbLine
 10
9494.728445172436
 20
5495.000000000004
 30
0.0
 11
9494.728445172436
 21
5933.657453579304
 31
0.0
  0
LINE
  5
2AFF6
330
2A4A9
100
AcDbEntity
  8
寸法
 62
     0
 48
50.0
370
    -2
100
AcDbLine
 10
9554.728445172434
 20
5873.657453579305
 30
0.0
 11
9654.728445172436
 21
5873.657453579305
 31
0.0
  0
LINE
  5
2AFF7
330
2A4A9
100
AcDbEntity
  8
寸法
 62
     0
 48
50.0
370
    -2
100
AcDbLine
 10
9494.728445172436
 20
5873.657453579305
 30
0.0
 11
9075.452854621255
 21
5873.657453579305
 31
0.0
  0
LINE
  5
2AFF8
330
2A4A9
100
AcDbEntity
  8
寸法
 62
     0
 48
50.0
370
    -2
100
AcDbLine
 10
9554.728445172434
 20
5873.657453579305
 30
0.0
 11
9494.728445172436
 21
5873.657453579305
 31
0.0
  0
INSERT
  5
2AFF9
330
2A4A9
100
AcDbEntity
  8
寸法
 62
     0
 48
50.0
370
    -2
100
AcDbBlockReference
  2
_DOTSMALL
 10
9554.728445172434
 20
5873.657453579305
 30
0.0
 41
100.0
 42
100.0
 43
100.0
 50
180.0
  0
INSERT
  5
2AFFA
330
2A4A9
100
AcDbEntity
  8
寸法
 62
     0
 48
50.0
370
    -2
100
AcDbBlockReference
  2
_DOTSMALL
 10
9494.728445172436
 20
5873.657453579305
 30
0.0
 41
100.0
 42
100.0
 43
100.0
  0
MTEXT
  5
2AFFB
330
2A4A9
100
AcDbEntity
  8
寸法
 62
     7
 48
50.0
100
AcDbMText
 10
9185.090649896846
 20
5973.657453579304
 30
0.0
 40
120.0
 41
0.0
 71
     5
 72
     1
  1
\A1;60
  7
STYLE1
 73
     1
 44
1.0
1001
ACAD
1000
MTEXTBEGIN
1070
    73
1070
     1
1070
    44
1040
1.0
1070
    74
1070
     0
1000
MTEXTEND
  0
POINT
  5
2AFFC
330
2A4A9
100
AcDbEntity
  8
DEFPOINTS
 62
     0
 48
50.0
100
AcDbPoint
 10
9554.728445172434
 20
5471.001618122977
 30
0.0
  0
POINT
  5
2AFFD
330
2A4A9
100
AcDbEntity
  8
DEFPOINTS
 62
     0
 48
50.0
100
AcDbPoint
 10
9494.728445172436
 20
5475.000000000004
 30
0.0
  0
POINT
  5
2AFFE
330
2A4A9
100
AcDbEntity
  8
DEFPOINTS
 62
     0
 48
50.0
100
AcDbPoint
 10
9494.728445172436
 20
5873.657453579305
 30
0.0
  0
ENDBLK
  5
2A4B6
330
2A4A9
100
AcDbEntity
  8
0
 48
50.0
100
AcDbBlockEnd
  0
BLOCK
  5
2A4C1
330
2A4B7
100
AcDbEntity
  8
0
 48
50.0
100
AcDbBlockBegin
  2
*D19
 70
     1
 10
0.0
 20
0.0
 30
0.0
  3
*D19
  1

  0
LINE
  5
2AFEB
330
2A4B7
100
AcDbEntity
  8
寸法
 62
     0
 48
50.0
370
    -2
100
AcDbLine
 10
11344.72844517243
 20
5441.810679611654
 30
0.0
 11
11344.72844517243
 21
5934.093169339473
 31
0.0
  0
LINE
  5
2AFEC
330
2A4B7
100
AcDbEntity
  8
寸法
 62
     0
 48
50.0
370
    -2
100
AcDbLine
 10
9554.728445172434
 20
5491.001618122976
 30
0.0
 11
9554.728445172434
 21
5934.093169339473
 31
0.0
  0
LINE
  5
2AFED
330
2A4B7
100
AcDbEntity
  8
寸法
 62
     0
 48
50.0
370
    -2
100
AcDbLine
 10
11344.72844517243
 20
5874.093169339474
 30
0.0
 11
9554.728445172434
 21
5874.093169339474
 31
0.0
  0
INSERT
  5
2AFEE
330
2A4B7
100
AcDbEntity
  8
寸法
 62
     0
 48
50.0
370
    -2
100
AcDbBlockReference
  2
_DOTSMALL
 10
11344.72844517243
 20
5874.093169339474
 30
0.0
 41
100.0
 42
100.0
 43
100.0
  0
INSERT
  5
2AFEF
330
2A4B7
100
AcDbEntity
  8
寸法
 62
     0
 48
50.0
370
    -2
100
AcDbBlockReference
  2
_DOTSMALL
 10
9554.728445172434
 20
5874.093169339474
 30
0.0
 41
100.0
 42
100.0
 43
100.0
 50
180.0
  0
MTEXT
  5
2AFF0
330
2A4B7
100
AcDbEntity
  8
寸法
 62
     7
 48
50.0
100
AcDbMText
 10
10464.32409384891
 20
5974.093169339473
 30
0.0
 40
120.0
 41
0.0
 71
     5
 72
     1
  1
\A1;柱外寸法1790
  7
STYLE1
 73
     1
 44
1.0
1001
ACAD
1000
MTEXTBEGIN
1070
    73
1070
     1
1070
    44
1040
1.0
1070
    74
1070
     0
1000
MTEXTEND
  0
POINT
  5
2AFF1
330
2A4B7
100
AcDbEntity
  8
DEFPOINTS
 62
     0
 48
50.0
100
AcDbPoint
 10
11344.72844517243
 20
5421.810679611653
 30
0.0
  0
POINT
  5
2AFF2
330
2A4B7
100
AcDbEntity
  8
DEFPOINTS
 62
     0
 48
50.0
100
AcDbPoint
 10
9554.728445172434
 20
5471.001618122977
 30
0.0
  0
POINT
  5
2AFF3
330
2A4B7
100
AcDbEntity
  8
DEFPOINTS
 62
     0
 48
50.0
100
AcDbPoint
 10
9554.728445172434
 20
5874.093169339474
 30
0.0
  0
ENDBLK
  5
2A4C2
330
2A4B7
100
AcDbEntity
  8
0
 48
50.0
100
AcDbBlockEnd
  0
BLOCK
  5
2A4DB
330
2A4CF
100
AcDbEntity
  8
0
 48
50.0
100
AcDbBlockBegin
  2
*D20
 70
     1
 10
0.0
 20
0.0
 30
0.0
  3
*D20
  1

  0
LINE
  5
2ADDF
330
2A4CF
100
AcDbEntity
  8
寸法
 62
     0
 48
50.0
370
    -2
100
AcDbLine
 10
9534.728445172433
 20
3150.0
 30
0.0
 11
8650.978315989174
 21
3150.0
 31
0.0
  0
LINE
  5
2ADE0
330
2A4CF
100
AcDbEntity
  8
寸法
 62
     0
 48
50.0
370
    -2
100
AcDbLine
 10
9479.728445172433
 20
3100.0
 30
0.0
 11
8650.978315989174
 21
3100.0
 31
0.0
  0
LINE
  5
2ADE1
330
2A4CF
100
AcDbEntity
  8
寸法
 62
     0
 48
50.0
370
    -2
100
AcDbLine
 10
8710.978315989175
 20
3150.0
 30
0.0
 11
8710.978315989175
 21
3250.000000000001
 31
0.0
  0
LINE
  5
2ADE2
330
2A4CF
100
AcDbEntity
  8
寸法
 62
     0
 48
50.0
370
    -2
100
AcDbLine
 10
8710.978315989175
 20
3100.0
 30
0.0
 11
8710.978315989175
 21
2687.90551181102
 31
0.0
  0
LINE
  5
2ADE3
330
2A4CF
100
AcDbEntity
  8
寸法
 62
     0
 48
50.0
370
    -2
100
AcDbLine
 10
8710.978315989175
 20
3150.0
 30
0.0
 11
8710.978315989175
 21
3100.0
 31
0.0
  0
INSERT
  5
2ADE4
330
2A4CF
100
AcDbEntity
  8
寸法
 62
     0
 48
50.0
370
    -2
100
AcDbBlockReference
  2
_DOTSMALL
 10
8710.978315989175
 20
3150.0
 30
0.0
 41
100.0
 42
100.0
 43
100.0
 50
270.0
  0
INSERT
  5
2ADE5
330
2A4CF
100
AcDbEntity
  8
寸法
 62
     0
 48
50.0
370
    -2
100
AcDbBlockReference
  2
_DOTSMALL
 10
8710.978315989175
 20
3100.0
 30
0.0
 41
100.0
 42
100.0
 43
100.0
 50
90.0
  0
MTEXT
  5
2ADE6
330
2A4CF
100
AcDbEntity
  8
寸法
 62
     7
 48
50.0
100
AcDbMText
 10
8610.978315989175
 20
2793.95275590551
 30
0.0
 40
120.0
 41
0.0
 71
     5
 72
     1
  1
\A1;50
  7
STYLE1
 11
0.0000000000000001
 21
1.0
 31
0.0
 73
     1
 44
1.0
1001
ACAD
1000
MTEXTBEGIN
1070
    73
1070
     1
1070
    44
1040
1.0
1070
    74
1070
     0
1000
MTEXTEND
  0
POINT
  5
2ADE7
330
2A4CF
100
AcDbEntity
  8
DEFPOINTS
 62
     0
 48
50.0
100
AcDbPoint
 10
9554.728445172434
 20
3150.0
 30
0.0
  0
POINT
  5
2ADE8
330
2A4CF
100
AcDbEntity
  8
DEFPOINTS
 62
     0
 48
50.0
100
AcDbPoint
 10
9499.728445172435
 20
3100.0
 30
0.0
  0
POINT
  5
2ADE9
330
2A4CF
100
AcDbEntity
  8
DEFPOINTS
 62
     0
 48
50.0
100
AcDbPoint
 10
8710.978315989175
 20
3100.0
 30
0.0
  0
ENDBLK
  5
2A4DC
330
2A4CF
100
AcDbEntity
  8
0
 48
50.0
100
AcDbBlockEnd
  0
BLOCK
  5
2A4E8
330
2A4DD
100
AcDbEntity
  8
0
 48
50.0
100
AcDbBlockBegin
  2
*D21
 70
     1
 10
0.0
 20
0.0
 30
0.0
  3
*D21
  1

  0
LINE
  5
2ADD5
330
2A4DD
100
AcDbEntity
  8
寸法
 62
     0
 48
50.0
370
    -2
100
AcDbLine
 10
9479.728445172433
 20
3100.0
 30
0.0
 11
8350.978315989173
 21
3100.0
 31
0.0
  0
LINE
  5
2ADD6
330
2A4DD
100
AcDbEntity
  8
寸法
 62
     0
 48
50.0
370
    -2
100
AcDbLine
 10
8478.227369277302
 20
3000.0
 30
0.0
 11
8350.978315989173
 21
3000.0
 31
0.0
  0
LINE
  5
2ADD7
330
2A4DD
100
AcDbEntity
  8
寸法
 62
     0
 48
50.0
370
    -2
100
AcDbLine
 10
8410.978315989174
 20
3100.0
 30
0.0
 11
8410.978315989174
 21
3000.0
 31
0.0
  0
LINE
  5
2ADD8
330
2A4DD
100
AcDbEntity
  8
寸法
 62
     0
 48
50.0
370
    -2
100
AcDbLine
 10
8410.978315989174
 20
3000.0
 30
0.0
 11
8410.978315989174
 21
2627.90551181102
 31
0.0
  0
INSERT
  5
2ADD9
330
2A4DD
100
AcDbEntity
  8
寸法
 62
     0
 48
50.0
370
    -2
100
AcDbBlockReference
  2
_DOTSMALL
 10
8410.978315989174
 20
3100.0
 30
0.0
 41
100.0
 42
100.0
 43
100.0
 50
90.0
  0
INSERT
  5
2ADDA
330
2A4DD
100
AcDbEntity
  8
寸法
 62
     0
 48
50.0
370
    -2
100
AcDbBlockReference
  2
_DOTSMALL
 10
8410.978315989174
 20
3000.0
 30
0.0
 41
100.0
 42
100.0
 43
100.0
 50
270.0
  0
MTEXT
  5
2ADDB
330
2A4DD
100
AcDbEntity
  8
寸法
 62
     7
 48
50.0
100
AcDbMText
 10
8310.978315989174
 20
2763.95275590551
 30
0.0
 40
120.0
 41
0.0
 71
     5
 72
     1
  1
\A1;100
  7
STYLE1
 11
0.0000000000000001
 21
1.0
 31
0.0
 73
     1
 44
1.0
1001
ACAD
1000
MTEXTBEGIN
1070
    73
1070
     1
1070
    44
1040
1.0
1070
    74
1070
     0
1000
MTEXTEND
  0
POINT
  5
2ADDC
330
2A4DD
100
AcDbEntity
  8
DEFPOINTS
 62
     0
 48
50.0
100
AcDbPoint
 10
9499.728445172435
 20
3100.0
 30
0.0
  0
POINT
  5
2ADDD
330
2A4DD
100
AcDbEntity
  8
DEFPOINTS
 62
     0
 48
50.0
100
AcDbPoint
 10
8498.227369277302
 20
3000.0
 30
0.0
  0
POINT
  5
2ADDE
330
2A4DD
100
AcDbEntity
  8
DEFPOINTS
 62
     0
 48
50.0
100
AcDbPoint
 10
8410.978315989174
 20
3000.0
 30
0.0
  0
ENDBLK
  5
2A4E9
330
2A4DD
100
AcDbEntity
  8
0
 48
50.0
100
AcDbBlockEnd
  0
BLOCK
  5
2A518
330
2A50E
100
AcDbEntity
  8
0
 48
50.0
100
AcDbBlockBegin
  2
*D22
 70
     1
 10
0.0
 20
0.0
 30
0.0
  3
*D22
  1

  0
LINE
  5
2ADB1
330
2A50E
100
AcDbEntity
  8
寸法
 62
     0
 48
50.0
370
    -2
100
AcDbLine
 10
9462.228445172437
 20
2799.999999999998
 30
0.0
 11
9272.728441925799
 21
2799.999999999998
 31
0.0
  0
LINE
  5
2ADB2
330
2A50E
100
AcDbEntity
  8
寸法
 62
     0
 48
50.0
370
    -2
100
AcDbLine
 10
9437.228445172435
 20
3000.0
 30
0.0
 11
9272.728441925799
 21
3000.0
 31
0.0
  0
LINE
  5
2ADB3
330
2A50E
100
AcDbEntity
  8
寸法
 62
     0
 48
50.0
370
    -2
100
AcDbLine
 10
9332.7284419258
 20
2799.999999999998
 30
0.0
 11
9332.7284419258
 21
3000.0
 31
0.0
  0
INSERT
  5
2ADB4
330
2A50E
100
AcDbEntity
  8
寸法
 62
     0
 48
50.0
370
    -2
100
AcDbBlockReference
  2
_DOTSMALL
 10
9332.7284419258
 20
2799.999999999998
 30
0.0
 41
100.0
 42
100.0
 43
100.0
 50
270.0
  0
INSERT
  5
2ADB5
330
2A50E
100
AcDbEntity
  8
寸法
 62
     0
 48
50.0
370
    -2
100
AcDbBlockReference
  2
_DOTSMALL
 10
9332.7284419258
 20
3000.0
 30
0.0
 41
100.0
 42
100.0
 43
100.0
 50
90.0
  0
MTEXT
  5
2ADB6
330
2A50E
100
AcDbEntity
  8
寸法
 62
     7
 48
50.0
100
AcDbMText
 10
9232.716630902178
 20
2900.000000000001
 30
0.0
 40
120.0
 41
0.0
 71
     5
 72
     1
  1
\A1;200
  7
STYLE1
 11
0.0000000000000001
 21
1.0
 31
0.0
 73
     1
 44
1.0
1001
ACAD
1000
MTEXTBEGIN
1070
    73
1070
     1
1070
    44
1040
1.0
1070
    74
1070
     0
1000
MTEXTEND
  0
POINT
  5
2ADB7
330
2A50E
100
AcDbEntity
  8
DEFPOINTS
 62
     0
 48
50.0
100
AcDbPoint
 10
9482.228445172436
 20
2799.999999999998
 30
0.0
  0
POINT
  5
2ADB8
330
2A50E
100
AcDbEntity
  8
DEFPOINTS
 62
     0
 48
50.0
100
AcDbPoint
 10
9457.228445172436
 20
3000.0
 30
0.0
  0
POINT
  5
2ADB9
330
2A50E
100
AcDbEntity
  8
DEFPOINTS
 62
     0
 48
50.0
100
AcDbPoint
 10
9332.7284419258
 20
3000.0
 30
0.0
  0
ENDBLK
  5
2A519
330
2A50E
100
AcDbEntity
  8
0
 48
50.0
100
AcDbBlockEnd
  0
BLOCK
  5
2A524
330
2A51A
100
AcDbEntity
  8
0
 48
50.0
100
AcDbBlockBegin
  2
*D23
 70
     1
 10
0.0
 20
0.0
 30
0.0
  3
*D23
  1

  0
LINE
  5
2ADA8
330
2A51A
100
AcDbEntity
  8
寸法
 62
     0
 48
50.0
370
    -2
100
AcDbLine
 10
9682.228445172434
 20
2779.999999999998
 30
0.0
 11
9682.228445172434
 21
2453.952670699621
 31
0.0
  0
LINE
  5
2ADA9
330
2A51A
100
AcDbEntity
  8
寸法
 62
     0
 48
50.0
370
    -2
100
AcDbLine
 10
9482.228445172436
 20
2779.999999999998
 30
0.0
 11
9482.228445172436
 21
2453.952670699621
 31
0.0
  0
LINE
  5
2ADAA
330
2A51A
100
AcDbEntity
  8
寸法
 62
     0
 48
50.0
370
    -2
100
AcDbLine
 10
9682.228445172434
 20
2513.952670699621
 30
0.0
 11
9482.228445172436
 21
2513.952670699621
 31
0.0
  0
INSERT
  5
2ADAB
330
2A51A
100
AcDbEntity
  8
寸法
 62
     0
 48
50.0
370
    -2
100
AcDbBlockReference
  2
_DOTSMALL
 10
9682.228445172434
 20
2513.952670699621
 30
0.0
 41
100.0
 42
100.0
 43
100.0
  0
INSERT
  5
2ADAC
330
2A51A
100
AcDbEntity
  8
寸法
 62
     0
 48
50.0
370
    -2
100
AcDbBlockReference
  2
_DOTSMALL
 10
9482.228445172436
 20
2513.952670699621
 30
0.0
 41
100.0
 42
100.0
 43
100.0
 50
180.0
  0
MTEXT
  5
2ADAD
330
2A51A
100
AcDbEntity
  8
寸法
 62
     7
 48
50.0
100
AcDbMText
 10
9582.228445172436
 20
2613.964481723244
 30
0.0
 40
120.0
 41
0.0
 71
     5
 72
     1
  1
\A1;200
  7
STYLE1
 73
     1
 44
1.0
1001
ACAD
1000
MTEXTBEGIN
1070
    73
1070
     1
1070
    44
1040
1.0
1070
    74
1070
     0
1000
MTEXTEND
  0
POINT
  5
2ADAE
330
2A51A
100
AcDbEntity
  8
DEFPOINTS
 62
     0
 48
50.0
100
AcDbPoint
 10
9682.228445172434
 20
2799.999999999998
 30
0.0
  0
POINT
  5
2ADAF
330
2A51A
100
AcDbEntity
  8
DEFPOINTS
 62
     0
 48
50.0
100
AcDbPoint
 10
9482.228445172436
 20
2799.999999999998
 30
0.0
  0
POINT
  5
2ADB0
330
2A51A
100
AcDbEntity
  8
DEFPOINTS
 62
     0
 48
50.0
100
AcDbPoint
 10
9482.228445172436
 20
2513.952670699621
 30
0.0
  0
ENDBLK
  5
2A525
330
2A51A
100
AcDbEntity
  8
0
 48
50.0
100
AcDbBlockEnd
  0
BLOCK
  5
2A531
330
2A526
100
AcDbEntity
  8
0
 48
50.0
100
AcDbBlockBegin
  2
*D24
 70
     1
 10
0.0
 20
0.0
 30
0.0
  3
*D24
  1

  0
LINE
  5
2B012
330
2A526
100
AcDbEntity
  8
寸法
 62
     0
 48
50.0
370
    -2
100
AcDbLine
 10
9494.132731463535
 20
5474.297707069661
 30
0.0
 11
8878.198292358275
 21
5492.011857343982
 31
0.0
  0
LINE
  5
2B013
330
2A526
100
AcDbEntity
  8
寸法
 62
     0
 48
50.0
370
    -2
100
AcDbLine
 10
9490.079275906911
 20
5333.355983303948
 30
0.0
 11
8874.144836801651
 21
5351.070133578269
 31
0.0
  0
LINE
  5
2B014
330
2A526
100
AcDbEntity
  8
寸法
 62
     0
 48
50.0
370
    -2
100
AcDbLine
 10
8934.120038404079
 20
5349.345258873323
 30
0.0
 11
8938.173493960706
 21
5490.286982639035
 31
0.0
  0
LINE
  5
2B015
330
2A526
100
AcDbEntity
  8
寸法
 62
     0
 48
50.0
370
    -2
100
AcDbLine
 10
8938.173493960706
 20
5490.286982639035
 30
0.0
 11
8948.522742190384
 21
5850.138192253622
 31
0.0
  0
INSERT
  5
2B016
330
2A526
100
AcDbEntity
  8
寸法
 62
     0
 48
50.0
370
    -2
100
AcDbBlockReference
  2
_DOTSMALL
 10
8934.120038404079
 20
5349.345258873323
 30
0.0
 41
100.0
 42
100.0
 43
100.0
 50
268.3526390256385
  0
INSERT
  5
2B017
330
2A526
100
AcDbEntity
  8
寸法
 62
     0
 48
50.0
370
    -2
100
AcDbBlockReference
  2
_DOTSMALL
 10
8938.173493960706
 20
5490.286982639035
 30
0.0
 41
100.0
 42
100.0
 43
100.0
 50
88.35263902563855
  0
MTEXT
  5
2B018
330
2A526
100
AcDbEntity
  8
寸法
 62
     7
 48
50.0
100
AcDbMText
 10
8844.826844325616
 20
5723.066713289933
 30
0.0
 40
120.0
 41
0.0
 71
     5
 72
     1
  1
\A1;141
  7
STYLE1
 11
0.0287479117491103
 21
0.999586693373849
 31
0.0
 73
     1
 44
1.0
1001
ACAD
1000
MTEXTBEGIN
1070
    73
1070
     1
1070
    44
1040
1.0
1070
    74
1070
     0
1000
MTEXTEND
  0
POINT
  5
2B019
330
2A526
100
AcDbEntity
  8
DEFPOINTS
 62
     0
 48
50.0
100
AcDbPoint
 10
9514.124465331011
 20
5473.722748834679
 30
0.0
  0
POINT
  5
2B01A
330
2A526
100
AcDbEntity
  8
DEFPOINTS
 62
     0
 48
50.0
100
AcDbPoint
 10
9510.071009774387
 20
5332.781025068967
 30
0.0
  0
POINT
  5
2B01B
330
2A526
100
AcDbEntity
  8
DEFPOINTS
 62
     0
 48
50.0
100
AcDbPoint
 10
8934.120038404079
 20
5349.345258873323
 30
0.0
  0
ENDBLK
  5
2A532
330
2A526
100
AcDbEntity
  8
0
 48
50.0
100
AcDbBlockEnd
  0
BLOCK
  5
2A53E
330
2A533
100
AcDbEntity
  8
0
 48
50.0
100
AcDbBlockBegin
  2
*D25
 70
     1
 10
0.0
 20
0.0
 30
0.0
  3
*D25
  1

  0
LINE
  5
2B008
330
2A533
100
AcDbEntity
  8
寸法
 62
     0
 48
50.0
370
    -2
100
AcDbLine
 10
11344.72844517243
 20
5441.810679611654
 30
0.0
 11
11344.72844517243
 21
5933.657453579304
 31
0.0
  0
LINE
  5
2B009
330
2A533
100
AcDbEntity
  8
寸法
 62
     0
 48
50.0
370
    -2
100
AcDbLine
 10
11424.72844517243
 20
5440.000000000001
 30
0.0
 11
11424.72844517243
 21
5933.657453579304
 31
0.0
  0
LINE
  5
2B00A
330
2A533
100
AcDbEntity
  8
寸法
 62
     0
 48
50.0
370
    -2
100
AcDbLine
 10
11344.72844517243
 20
5873.657453579305
 30
0.0
 11
11424.72844517243
 21
5873.657453579305
 31
0.0
  0
LINE
  5
2B00B
330
2A533
100
AcDbEntity
  8
寸法
 62
     0
 48
50.0
370
    -2
100
AcDbLine
 10
11424.72844517243
 20
5873.657453579305
 30
0.0
 11
11736.82293336141
 21
5873.657453579305
 31
0.0
  0
INSERT
  5
2B00C
330
2A533
100
AcDbEntity
  8
寸法
 62
     0
 48
50.0
370
    -2
100
AcDbBlockReference
  2
_DOTSMALL
 10
11344.72844517243
 20
5873.657453579305
 30
0.0
 41
100.0
 42
100.0
 43
100.0
 50
180.0
  0
INSERT
  5
2B00D
330
2A533
100
AcDbEntity
  8
寸法
 62
     0
 48
50.0
370
    -2
100
AcDbBlockReference
  2
_DOTSMALL
 10
11424.72844517243
 20
5873.657453579305
 30
0.0
 41
100.0
 42
100.0
 43
100.0
  0
MTEXT
  5
2B00E
330
2A533
100
AcDbEntity
  8
寸法
 62
     7
 48
50.0
100
AcDbMText
 10
11630.77568926692
 20
5973.657453579304
 30
0.0
 40
120.0
 41
0.0
 71
     5
 72
     1
  1
\A1;80
  7
STYLE1
 73
     1
 44
1.0
1001
ACAD
1000
MTEXTBEGIN
1070
    73
1070
     1
1070
    44
1040
1.0
1070
    74
1070
     0
1000
MTEXTEND
  0
POINT
  5
2B00F
330
2A533
100
AcDbEntity
  8
DEFPOINTS
 62
     0
 48
50.0
100
AcDbPoint
 10
11344.72844517243
 20
5421.810679611653
 30
0.0
  0
POINT
  5
2B010
330
2A533
100
AcDbEntity
  8
DEFPOINTS
 62
     0
 48
50.0
100
AcDbPoint
 10
11424.72844517243
 20
5420.000000000001
 30
0.0
  0
POINT
  5
2B011
330
2A533
100
AcDbEntity
  8
DEFPOINTS
 62
     0
 48
50.0
100
AcDbPoint
 10
11424.72844517243
 20
5873.657453579305
 30
0.0
  0
ENDBLK
  5
2A53F
330
2A533
100
AcDbEntity
  8
0
 48
50.0
100
AcDbBlockEnd
  0
BLOCK
  5
2ABBA
330
2ABB0
100
AcDbEntity
  8
0
 48
50.0
100
AcDbBlockBegin
  2
*D26
 70
     1
 10
0.0
 20
0.0
 30
0.0
  3
*D26
  1

  0
LINE
  5
2AFD4
330
2ABB0
100
AcDbEntity
  8
寸法
 62
     0
 48
50.0
370
    -2
100
AcDbLine
 10
7569.896575107006
 20
2779.999999999999
 30
0.0
 11
7569.896575107006
 21
2453.952670699622
 31
0.0
  0
LINE
  5
2AFD5
330
2ABB0
100
AcDbEntity
  8
寸法
 62
     0
 48
50.0
370
    -2
100
AcDbLine
 10
7369.896575107005
 20
2779.999999999999
 30
0.0
 11
7369.896575107005
 21
2453.952670699622
 31
0.0
  0
LINE
  5
2AFD6
330
2ABB0
100
AcDbEntity
  8
寸法
 62
     0
 48
50.0
370
    -2
100
AcDbLine
 10
7569.896575107006
 20
2513.952670699622
 30
0.0
 11
7369.896575107005
 21
2513.952670699622
 31
0.0
  0
INSERT
  5
2AFD7
330
2ABB0
100
AcDbEntity
  8
寸法
 62
     0
 48
50.0
370
    -2
100
AcDbBlockReference
  2
_DOTSMALL
 10
7569.896575107006
 20
2513.952670699622
 30
0.0
 41
100.0
 42
100.0
 43
100.0
  0
INSERT
  5
2AFD8
330
2ABB0
100
AcDbEntity
  8
寸法
 62
     0
 48
50.0
370
    -2
100
AcDbBlockReference
  2
_DOTSMALL
 10
7369.896575107005
 20
2513.952670699622
 30
0.0
 41
100.0
 42
100.0
 43
100.0
 50
180.0
  0
MTEXT
  5
2AFD9
330
2ABB0
100
AcDbEntity
  8
寸法
 62
     7
 48
50.0
100
AcDbMText
 10
7469.896575107006
 20
2613.964481723245
 30
0.0
 40
120.0
 41
0.0
 71
     5
 72
     1
  1
\A1;200
  7
STYLE1
 73
     1
 44
1.0
1001
ACAD
1000
MTEXTBEGIN
1070
    73
1070
     1
1070
    44
1040
1.0
1070
    74
1070
     0
1000
MTEXTEND
  0
POINT
  5
2AFDA
330
2ABB0
100
AcDbEntity
  8
DEFPOINTS
 62
     0
 48
50.0
100
AcDbPoint
 10
7569.896575107006
 20
2799.999999999999
 30
0.0
  0
POINT
  5
2AFDB
330
2ABB0
100
AcDbEntity
  8
DEFPOINTS
 62
     0
 48
50.0
100
AcDbPoint
 10
7369.896575107005
 20
2799.999999999999
 30
0.0
  0
POINT
  5
2AFDC
330
2ABB0
100
AcDbEntity
  8
DEFPOINTS
 62
     0
 48
50.0
100
AcDbPoint
 10
7369.896575107005
 20
2513.952670699622
 30
0.0
  0
ENDBLK
  5
2ABBB
330
2ABB0
100
AcDbEntity
  8
0
 48
50.0
100
AcDbBlockEnd
  0
BLOCK
  5
2B28D
330
2B283
100
AcDbEntity
  8
0
 48
50.0
100
AcDbBlockBegin
  2
*D27
 70
     1
 10
0.0
 20
0.0
 30
0.0
  3
*D27
  1

  0
LINE
  5
2B3B4
330
2B283
100
AcDbEntity
  8
寸法
 62
     0
 48
50.0
370
    -2
100
AcDbLine
 10
11364.72844517244
 20
3100.0
 30
0.0
 11
12109.65560314456
 21
3100.0
 31
0.0
  0
LINE
  5
2B3B5
330
2B283
100
AcDbEntity
  8
寸法
 62
     0
 48
50.0
370
    -2
100
AcDbLine
 10
11444.72844517243
 20
5420.0
 30
0.0
 11
12109.65560314456
 21
5420.0
 31
0.0
  0
LINE
  5
2B3B6
330
2B283
100
AcDbEntity
  8
寸法
 62
     0
 48
50.0
370
    -2
100
AcDbLine
 10
12049.65560314456
 20
3100.0
 30
0.0
 11
12049.65560314456
 21
5420.0
 31
0.0
  0
INSERT
  5
2B3B7
330
2B283
100
AcDbEntity
  8
寸法
 62
     0
 48
50.0
370
    -2
100
AcDbBlockReference
  2
_DOTSMALL
 10
12049.65560314456
 20
3100.0
 30
0.0
 41
100.0
 42
100.0
 43
100.0
 50
270.0
  0
INSERT
  5
2B3B8
330
2B283
100
AcDbEntity
  8
寸法
 62
     0
 48
50.0
370
    -2
100
AcDbBlockReference
  2
_DOTSMALL
 10
12049.65560314456
 20
5420.0
 30
0.0
 41
100.0
 42
100.0
 43
100.0
 50
90.0
  0
MTEXT
  5
2B3B9
330
2B283
100
AcDbEntity
  8
寸法
 62
     7
 48
50.0
100
AcDbMText
 10
11949.64379212094
 20
4260.000000000001
 30
0.0
 40
120.0
 41
0.0
 71
     5
 72
     1
  1
\A1;2320
  7
STYLE1
 11
0.0000000000000001
 21
1.0
 31
0.0
 73
     1
 44
1.0
1001
ACAD
1000
MTEXTBEGIN
1070
    73
1070
     1
1070
    44
1040
1.0
1070
    74
1070
     0
1000
MTEXTEND
  0
POINT
  5
2B3BA
330
2B283
100
AcDbEntity
  8
DEFPOINTS
 62
     0
 48
50.0
100
AcDbPoint
 10
11344.72844517244
 20
3100.0
 30
0.0
  0
POINT
  5
2B3BB
330
2B283
100
AcDbEntity
  8
DEFPOINTS
 62
     0
 48
50.0
100
AcDbPoint
 10
11424.72844517243
 20
5420.0
 30
0.0
  0
POINT
  5
2B3BC
330
2B283
100
AcDbEntity
  8
DEFPOINTS
 62
     0
 48
50.0
100
AcDbPoint
 10
12049.65560314456
 20
5420.0
 30
0.0
  0
ENDBLK
  5
2B28E
330
2B283
100
AcDbEntity
  8
0
 48
50.0
100
AcDbBlockEnd
  0
BLOCK
  5
2B37F
330
2B375
100
AcDbEntity
  8
0
 48
50.0
100
AcDbBlockBegin
  2
*D28
 70
     1
 10
0.0
 20
0.0
 30
0.0
  3
*D28
  1

  0
LINE
  5
2B399
330
2B375
100
AcDbEntity
  8
寸法
 62
     0
 48
50.0
370
    -2
100
AcDbLine
 10
9534.728445172438
 20
5232.0
 30
0.0
 11
8949.819803775183
 21
5232.0
 31
0.0
  0
LINE
  5
2B39A
330
2B375
100
AcDbEntity
  8
寸法
 62
     0
 48
50.0
370
    -2
100
AcDbLine
 10
9534.728445172435
 20
3162.0
 30
0.0
 11
8949.819803775181
 21
3162.000000000001
 31
0.0
  0
LINE
  5
2B39B
330
2B375
100
AcDbEntity
  8
寸法
 62
     0
 48
50.0
370
    -2
100
AcDbLine
 10
9009.819803775183
 20
5232.0
 30
0.0
 11
9009.819803775181
 21
3162.000000000001
 31
0.0
  0
INSERT
  5
2B39C
330
2B375
100
AcDbEntity
  8
寸法
 62
     0
 48
50.0
370
    -2
100
AcDbBlockReference
  2
_DOTSMALL
 10
9009.819803775183
 20
5232.0
 30
0.0
 41
100.0
 42
100.0
 43
100.0
 50
90.0
  0
INSERT
  5
2B39D
330
2B375
100
AcDbEntity
  8
寸法
 62
     0
 48
50.0
370
    -2
100
AcDbBlockReference
  2
_DOTSMALL
 10
9009.819803775181
 20
3162.000000000001
 30
0.0
 41
100.0
 42
100.0
 43
100.0
 50
270.0
  0
MTEXT
  5
2B39E
330
2B375
100
AcDbEntity
  8
寸法
 62
     7
 48
50.0
100
AcDbMText
 10
8909.807992751559
 20
4197.000000000001
 30
0.0
 40
120.0
 41
0.0
 71
     5
 72
     1
  1
\A1;有効開口部高サ2070
  7
STYLE1
 11
0.0000000000000001
 21
1.0
 31
0.0
 73
     1
 44
1.0
1001
ACAD
1000
MTEXTBEGIN
1070
    73
1070
     1
1070
    44
1040
1.0
1070
    74
1070
     0
1000
MTEXTEND
  0
POINT
  5
2B39F
330
2B375
100
AcDbEntity
  8
DEFPOINTS
 62
     0
 48
50.0
100
AcDbPoint
 10
9554.72844517244
 20
5232.0
 30
0.0
  0
POINT
  5
2B3A0
330
2B375
100
AcDbEntity
  8
DEFPOINTS
 62
     0
 48
50.0
100
AcDbPoint
 10
9554.728445172434
 20
3162.0
 30
0.0
  0
POINT
  5
2B3A1
330
2B375
100
AcDbEntity
  8
DEFPOINTS
 62
     0
 48
50.0
100
AcDbPoint
 10
9009.819803775181
 20
3162.000000000001
 30
0.0
  0
ENDBLK
  5
2B380
330
2B375
100
AcDbEntity
  8
0
 48
50.0
100
AcDbBlockEnd
  0
BLOCK
  5
2B38B
330
2B381
100
AcDbEntity
  8
0
 48
50.0
100
AcDbBlockBegin
  2
*D29
 70
     1
 10
0.0
 20
0.0
 30
0.0
  3
*D29
  1

  0
LINE
  5
2B3A2
330
2B381
100
AcDbEntity
  8
寸法
 62
     0
 48
50.0
370
    -2
100
AcDbLine
 10
9534.728445172435
 20
5240.000000000001
 30
0.0
 11
8650.978315989178
 21
5240.000000000001
 31
0.0
  0
LINE
  5
2B3A3
330
2B381
100
AcDbEntity
  8
寸法
 62
     0
 48
50.0
370
    -2
100
AcDbLine
 10
9534.728445172435
 20
3150.0
 30
0.0
 11
8650.978315989176
 21
3150.0
 31
0.0
  0
LINE
  5
2B3A4
330
2B381
100
AcDbEntity
  8
寸法
 62
     0
 48
50.0
370
    -2
100
AcDbLine
 10
8710.978315989178
 20
5240.000000000001
 30
0.0
 11
8710.978315989176
 21
3150.0
 31
0.0
  0
INSERT
  5
2B3A5
330
2B381
100
AcDbEntity
  8
寸法
 62
     0
 48
50.0
370
    -2
100
AcDbBlockReference
  2
_DOTSMALL
 10
8710.978315989178
 20
5240.000000000001
 30
0.0
 41
100.0
 42
100.0
 43
100.0
 50
90.0
  0
INSERT
  5
2B3A6
330
2B381
100
AcDbEntity
  8
寸法
 62
     0
 48
50.0
370
    -2
100
AcDbBlockReference
  2
_DOTSMALL
 10
8710.978315989176
 20
3150.0
 30
0.0
 41
100.0
 42
100.0
 43
100.0
 50
270.0
  0
MTEXT
  5
2B3A7
330
2B381
100
AcDbEntity
  8
寸法
 62
     7
 48
50.0
100
AcDbMText
 10
8610.966504965555
 20
4195.000000000002
 30
0.0
 40
120.0
 41
0.0
 71
     5
 72
     1
  1
\A1;2090
  7
STYLE1
 11
0.0000000000000001
 21
1.0
 31
0.0
 73
     1
 44
1.0
1001
ACAD
1000
MTEXTBEGIN
1070
    73
1070
     1
1070
    44
1040
1.0
1070
    74
1070
     0
1000
MTEXTEND
  0
POINT
  5
2B3A8
330
2B381
100
AcDbEntity
  8
DEFPOINTS
 62
     0
 48
50.0
100
AcDbPoint
 10
9554.728445172434
 20
5240.000000000001
 30
0.0
  0
POINT
  5
2B3A9
330
2B381
100
AcDbEntity
  8
DEFPOINTS
 62
     0
 48
50.0
100
AcDbPoint
 10
9554.728445172434
 20
3150.0
 30
0.0
  0
POINT
  5
2B3AA
330
2B381
100
AcDbEntity
  8
DEFPOINTS
 62
     0
 48
50.0
100
AcDbPoint
 10
8710.978315989176
 20
3150.0
 30
0.0
  0
ENDBLK
  5
2B38C
330
2B381
100
AcDbEntity
  8
0
 48
50.0
100
AcDbBlockEnd
  0
BLOCK
  5
2B397
330
2B38D
100
AcDbEntity
  8
0
 48
50.0
100
AcDbBlockBegin
  2
*D30
 70
     1
 10
0.0
 20
0.0
 30
0.0
  3
*D30
  1

  0
LINE
  5
2B3AB
330
2B38D
100
AcDbEntity
  8
寸法
 62
     0
 48
50.0
370
    -2
100
AcDbLine
 10
9534.728445172435
 20
3100.0
 30
0.0
 11
8350.978315989173
 21
3100.0
 31
0.0
  0
LINE
  5
2B3AC
330
2B38D
100
AcDbEntity
  8
寸法
 62
     0
 48
50.0
370
    -2
100
AcDbLine
 10
9474.728445172436
 20
5475.000000000004
 30
0.0
 11
8350.978315989175
 21
5475.000000000004
 31
0.0
  0
LINE
  5
2B3AD
330
2B38D
100
AcDbEntity
  8
寸法
 62
     0
 48
50.0
370
    -2
100
AcDbLine
 10
8410.978315989174
 20
3100.0
 30
0.0
 11
8410.978315989176
 21
5475.000000000004
 31
0.0
  0
INSERT
  5
2B3AE
330
2B38D
100
AcDbEntity
  8
寸法
 62
     0
 48
50.0
370
    -2
100
AcDbBlockReference
  2
_DOTSMALL
 10
8410.978315989174
 20
3100.0
 30
0.0
 41
100.0
 42
100.0
 43
100.0
 50
270.0
  0
INSERT
  5
2B3AF
330
2B38D
100
AcDbEntity
  8
寸法
 62
     0
 48
50.0
370
    -2
100
AcDbBlockReference
  2
_DOTSMALL
 10
8410.978315989176
 20
5475.000000000004
 30
0.0
 41
100.0
 42
100.0
 43
100.0
 50
90.0
  0
MTEXT
  5
2B3B0
330
2B38D
100
AcDbEntity
  8
寸法
 62
     7
 48
50.0
100
AcDbMText
 10
8310.966504965552
 20
4287.500000000004
 30
0.0
 40
120.0
 41
0.0
 71
     5
 72
     1
  1
\A1;2375
  7
STYLE1
 11
0.0000000000000001
 21
1.0
 31
0.0
 73
     1
 44
1.0
1001
ACAD
1000
MTEXTBEGIN
1070
    73
1070
     1
1070
    44
1040
1.0
1070
    74
1070
     0
1000
MTEXTEND
  0
POINT
  5
2B3B1
330
2B38D
100
AcDbEntity
  8
DEFPOINTS
 62
     0
 48
50.0
100
AcDbPoint
 10
9554.728445172434
 20
3100.0
 30
0.0
  0
POINT
  5
2B3B2
330
2B38D
100
AcDbEntity
  8
DEFPOINTS
 62
     0
 48
50.0
100
AcDbPoint
 10
9494.728445172437
 20
5475.000000000004
 30
0.0
  0
POINT
  5
2B3B3
330
2B38D
100
AcDbEntity
  8
DEFPOINTS
 62
     0
 48
50.0
100
AcDbPoint
 10
8410.978315989176
 20
5475.000000000004
 30
0.0
  0
ENDBLK
  5
2B398
330
2B38D
100
AcDbEntity
  8
0
 48
50.0
100
AcDbBlockEnd
  0
ENDSEC
  0
SECTION
  2
ENTITIES
  0
LINE
  5
10B57
330
747D
100
AcDbEntity
  8
補助
  6
PHANTOM
 62
   230
 48
50.0
100
AcDbLine
 10
139.9999999999995
 20
11409.6
 30
0.0
 11
16307.2
 21
11409.6
 31
0.0
  0
LINE
  5
10B59
330
747D
100
AcDbEntity
  8
仕様書枠
  6
Continuous
 48
50.0
100
AcDbLine
 10
13107.2
 20
1200.0
 30
0.0
 11
13107.2
 21
-0.0000000000000729
 31
0.0
  0
LINE
  5
10B5C
330
747D
100
AcDbEntity
  8
仕様書枠
 48
50.0
100
AcDbLine
 10
16307.2
 20
1200.0
 30
0.0
 11
16307.2
 21
-0.0000000000000909
 31
0.0
  0
LINE
  5
10B5D
330
747D
100
AcDbEntity
  8
仕様書枠
 48
50.0
100
AcDbLine
 10
140.0
 20
0.0
 30
0.0
 11
16307.2
 21
-0.0000000000000909
 31
0.0
  0
LINE
  5
10B5E
330
747D
100
AcDbEntity
  8
補助
  6
PHANTOM
 62
   230
 48
50.0
100
AcDbLine
 10
16307.2
 20
11409.6
 30
0.0
 11
16307.2
 21
1200.0
 31
0.0
  0
LINE
  5
10B6C
330
747D
100
AcDbEntity
  8
仕様書枠
 48
50.0
100
AcDbLine
 10
13107.2
 20
1200.0
 30
0.0
 11
16307.2
 21
1200.0
 31
0.0
  0
LINE
  5
10B6D
330
747D
100
AcDbEntity
  8
補助
  6
PHANTOM
 62
   230
 48
50.0
100
AcDbLine
 10
13107.2
 20
11409.6
 30
0.0
 11
13107.2
 21
4800.0
 31
0.0
  0
LINE
  5
10B6F
330
747D
100
AcDbEntity
  8
補助
  6
PHANTOM
 62
   230
 48
50.0
100
AcDbLine
 10
13107.2
 20
4800.0
 30
0.0
 11
16307.2
 21
4800.0
 31
0.0
  0
LINE
  5
10B72
330
747D
100
AcDbEntity
  8
文字
 62
     7
 48
50.0
100
AcDbLine
 10
13187.2
 20
400.0
 30
0.0
 11
16227.2
 21
400.0
 31
0.0
  0
TEXT
  5
10B73
330
747D
100
AcDbEntity
  8
文字
 62
     7
 48
50.0
100
AcDbText
 10
13162.9790565769
 20
895.0906074299405
 30
0.0
 40
200.0
  1
外 形 図
  7
STYLE2
100
AcDbText
  0
TEXT
  5
10B74
330
747D
100
AcDbEntity
  8
文字
 62
     7
 48
50.0
100
AcDbText
 10
13201.43669998441
 20
477.2740661031255
 30
0.0
 40
160.0
  1
機種名
  7
STYLE2
100
AcDbText
  0
TEXT
  5
10B75
330
747D
100
AcDbEntity
  8
文字
 62
     7
 48
50.0
100
AcDbText
 10
13209.4053442172
 20
228.5435242569016
 30
0.0
 40
100.0
  1
○有効開口寸法 ： 1307×2070(mm)
  7
STYLE2
100
AcDbText
  0
TEXT
  5
10B79
330
747D
100
AcDbEntity
  8
文字
 62
     7
 48
50.0
100
AcDbText
 10
14524.131837222
 20
1031.557706291228
 30
0.0
 40
100.0
  1
NO.34      <縮尺> S=1/40
  7
STYLE2
100
AcDbText
  0
LINE
  5
10B7B
330
747D
100
AcDbEntity
  8
仕様書枠
 48
50.0
100
AcDbLine
 10
13107.2
 20
800.0
 30
0.0
 11
14251.2
 21
800.0
 31
0.0
  0
LINE
  5
10B88
330
747D
100
AcDbEntity
  8
仕様書枠
  6
Continuous
 48
50.0
100
AcDbLine
 10
14251.2
 20
1200.0
 30
0.0
 11
14251.2
 21
800.0
 31
0.0
  0
LINE
  5
12765
330
747D
100
AcDbEntity
  8
Ｇ．Ｌ
100
AcDbLine
 10
3641.448298600328
 20
3000.0
 30
0.0
 11
12003.43535938966
 21
3000.0
 31
0.0
  0
LWPOLYLINE
  5
14534
330
747D
100
AcDbEntity
  8
部品1
100
AcDbPolyline
 90
        4
 70
     1
 43
0.0
 10
5563.161241992783
 20
7107.920110457614
 10
5563.161241992783
 20
6868.027788912081
 10
6326.631908221221
 20
6868.027788912081
 10
6326.631908221221
 20
7107.920110457614
  0
TEXT
  5
14535
330
747D
100
AcDbEntity
  8
部品1
100
AcDbText
 10
5653.08085182182
 20
6915.026581239091
 30
0.0
 40
135.0
  1
平面図
  7
STYLE2
100
AcDbText
  0
TEXT
  5
149A1
330
747D
100
AcDbEntity
  8
部品1
100
AcDbText
 10
5653.686645730738
 20
1927.790927806517
 30
0.0
 40
135.0
  1
正面図
  7
STYLE2
100
AcDbText
  0
LWPOLYLINE
  5
149A2
330
747D
100
AcDbEntity
  8
部品1
100
AcDbPolyline
 90
        4
 70
     1
 43
0.0
 10
5563.161241992783
 20
2120.684457025041
 10
5563.161241992783
 20
1880.792135479508
 10
6326.631908221221
 20
1880.792135479508
 10
6326.631908221221
 20
2120.684457025041
  0
TEXT
  5
15A76
330
747D
100
AcDbEntity
  8
文字
 62
     7
 48
50.0
100
AcDbText
 10
14505.34213575793
 20
483.8967129911411
 30
0.0
 40
160.0
  1
ＮＸＮ－５５Ｈ
  7
STYLE2
100
AcDbText
  0
LINE
  5
20C57
330
747D
100
AcDbEntity
  8
細線
100
AcDbLine
 10
6254.396575106985
 20
5232.000000000001
 30
0.0
 11
6254.396575106985
 21
3149.000000000005
 31
0.0
  0
LINE
  5
20C58
330
747D
100
AcDbEntity
  8
細線
100
AcDbLine
 10
6324.396575106986
 20
5232.000000000001
 30
0.0
 11
6324.396575106986
 21
3149.000000000005
 31
0.0
  0
LINE
  5
20C59
330
747D
100
AcDbEntity
  8
部品1
100
AcDbLine
 10
4370.316236122326
 20
5467.603474604765
 30
0.0
 11
4371.449633454673
 21
5447.627346622166
 31
0.0
  0
LINE
  5
20C5A
330
747D
100
AcDbEntity
  8
部品1
100
AcDbLine
 10
4382.88665377625
 20
5351.969939455107
 30
0.0
 11
4383.531559583359
 21
5340.603474604767
 31
0.0
  0
LINE
  5
20C5B
330
747D
100
AcDbEntity
  8
部品1
100
AcDbLine
 10
4374.650623251403
 20
5444.169939455107
 30
0.0
 11
4379.685663979514
 21
5355.427346622165
 31
0.0
  0
ARC
  5
20C5C
330
747D
100
AcDbEntity
  8
部品1
 48
50.0
100
AcDbCircle
 10
4371.655440355219
 20
5444.000000000006
 30
0.0
 40
3.0
100
AcDbArc
 50
3.24734279033473
 51
82.34187279258314
  0
ARC
  5
20C5D
330
747D
100
AcDbEntity
  8
部品1
 48
50.0
100
AcDbCircle
 10
4379.891470880061
 20
5351.800000000004
 30
0.0
 40
3.0
100
AcDbArc
 50
3.24734279033473
 51
82.3418727926348
  0
ARC
  5
20C5E
330
747D
100
AcDbEntity
  8
部品1
 48
50.0
100
AcDbCircle
 10
4380.384539988622
 20
5355.466999161688
 30
0.0
 40
0.7
100
AcDbArc
 50
183.2473427902827
 51
262.3418727926349
  0
ARC
  5
20C5F
330
747D
100
AcDbEntity
  8
部品1
 48
50.0
100
AcDbCircle
 10
4372.148509463782
 20
5447.666999161691
 30
0.0
 40
0.7
100
AcDbArc
 50
183.2473427903867
 51
262.3418727926349
  0
ARC
  5
20C60
330
747D
100
AcDbEntity
  8
部品1
100
AcDbCircle
 10
4390.520319674457
 20
5341.000000000007
 30
0.0
 40
7.0
100
AcDbArc
 50
183.2473427903347
 51
270.0
  0
ARC
  5
20C61
330
747D
100
AcDbEntity
  8
部品1
100
AcDbCircle
 10
4377.304996213426
 20
5468.000000000005
 30
0.0
 40
7.0
100
AcDbArc
 50
90.0
 51
183.2473427903347
  0
ARC
  5
20C62
330
747D
100
AcDbEntity
  8
部品1
100
AcDbCircle
 10
7512.488154000576
 20
5468.000000000003
 30
0.0
 40
7.0
100
AcDbArc
 50
356.7526572096653
 51
90.0
  0
ARC
  5
20C63
330
747D
100
AcDbEntity
  8
部品1
100
AcDbCircle
 10
7499.272830539542
 20
5341.000000000005
 30
0.0
 40
7.0
100
AcDbArc
 50
270.0
 51
356.7526572096653
  0
ARC
  5
20C64
330
747D
100
AcDbEntity
  8
部品1
 48
50.0
100
AcDbCircle
 10
7517.644640750221
 20
5447.666999161691
 30
0.0
 40
0.7
100
AcDbArc
 50
277.6581272073652
 51
356.7526572096132
  0
ARC
  5
20C65
330
747D
100
AcDbEntity
  8
部品1
 48
50.0
100
AcDbCircle
 10
7509.408610225378
 20
5355.466999161687
 30
0.0
 40
0.7
100
AcDbArc
 50
277.6581272073652
 51
356.7526572097173
  0
ARC
  5
20C66
330
747D
100
AcDbEntity
  8
部品1
 48
50.0
100
AcDbCircle
 10
7509.901679333939
 20
5351.800000000003
 30
0.0
 40
3.0
100
AcDbArc
 50
97.65812720736519
 51
176.7526572096653
  0
ARC
  5
20C67
330
747D
100
AcDbEntity
  8
部品1
 48
50.0
100
AcDbCircle
 10
7518.137709858783
 20
5444.000000000006
 30
0.0
 40
3.0
100
AcDbArc
 50
97.65812720741685
 51
176.7526572096653
  0
LINE
  5
20C68
330
747D
100
AcDbEntity
  8
部品1
100
AcDbLine
 10
7515.142526962597
 20
5444.169939455107
 30
0.0
 11
7510.107486234486
 21
5355.427346622164
 31
0.0
  0
LINE
  5
20C69
330
747D
100
AcDbEntity
  8
部品1
100
AcDbLine
 10
7506.906496437753
 20
5351.969939455106
 30
0.0
 11
7506.26159063064
 21
5340.603474604766
 31
0.0
  0
LINE
  5
20C6A
330
747D
100
AcDbEntity
  8
細線
 48
50.0
100
AcDbLine
 10
4402.896575106995
 20
5475.000000000004
 30
0.0
 11
4402.896575106995
 21
5334.000000000004
 31
0.0
  0
LINE
  5
20C6B
330
747D
100
AcDbEntity
  8
細線
 48
50.0
100
AcDbLine
 10
7486.896575107009
 20
5475.000000000004
 30
0.0
 11
7486.896575107009
 21
5334.000000000004
 31
0.0
  0
LINE
  5
20C6C
330
747D
100
AcDbEntity
  8
部品1
100
AcDbLine
 10
7519.476914091675
 20
5467.603474604764
 30
0.0
 11
7518.34351675933
 21
5447.627346622165
 31
0.0
  0
LINE
  5
20C6D
330
747D
100
AcDbEntity
  8
細線
 48
50.0
100
AcDbLine
 10
7509.501893570249
 20
5354.773242563471
 30
0.0
 11
4380.291256643425
 21
5354.77324256384
 31
0.0
  0
LINE
  5
20C6E
330
747D
100
AcDbEntity
  8
細線
 48
50.0
100
AcDbLine
 10
7517.737924095093
 20
5446.973242563473
 30
0.0
 11
4372.055226118594
 21
5446.973242563842
 31
0.0
  0
LINE
  5
20C6F
330
747D
100
AcDbEntity
  8
部品1
 48
50.0
100
AcDbLine
 10
7499.272830539542
 20
5334.000000000005
 30
0.0
 11
4390.520319674457
 21
5334.000000000005
 31
0.0
  0
LINE
  5
20C70
330
747D
100
AcDbEntity
  8
部品1
 48
50.0
100
AcDbLine
 10
7512.488154000576
 20
5475.000000000004
 30
0.0
 11
4377.304996213426
 21
5475.000000000004
 31
0.0
  0
ARC
  5
20C71
330
747D
100
AcDbEntity
  8
部品1
 48
0.01
100
AcDbCircle
 10
5417.896575107
 20
5272.5
 30
0.0
 40
2.0
100
AcDbArc
 50
270.0
 51
0.0
  0
ARC
  5
20C72
330
747D
100
AcDbEntity
  8
部品1
 48
0.01
100
AcDbCircle
 10
5417.896575107003
 20
5304.0
 30
0.0
 40
2.0
100
AcDbArc
 50
0.0
 51
90.0
  0
ARC
  5
20C73
330
747D
100
AcDbEntity
  8
部品1
 48
0.01
100
AcDbCircle
 10
5241.896575107002
 20
5272.5
 30
0.0
 40
2.0
100
AcDbArc
 50
180.0
 51
270.0
  0
ARC
  5
20C74
330
747D
100
AcDbEntity
  8
部品1
 48
0.01
100
AcDbCircle
 10
5241.896575107002
 20
5304.0
 30
0.0
 40
2.0
100
AcDbArc
 50
90.0
 51
180.0
  0
LINE
  5
20C75
330
747D
100
AcDbEntity
  8
細線
100
AcDbLine
 10
5329.896575107
 20
5276.5
 30
0.0
 11
5403.896575107003
 21
5276.5
 31
0.0
  0
LINE
  5
20C76
330
747D
100
AcDbEntity
  8
細線
100
AcDbLine
 10
5329.896575107003
 20
5299.5
 30
0.0
 11
5255.896575107002
 21
5299.5
 31
0.0
  0
LINE
  5
20C77
330
747D
100
AcDbEntity
  8
細線
100
AcDbLine
 10
5255.896575107002
 20
5276.5
 30
0.0
 11
5329.896575107003
 21
5276.5
 31
0.0
  0
LINE
  5
20C78
330
747D
100
AcDbEntity
  8
細線
100
AcDbLine
 10
5403.896575107003
 20
5299.5
 30
0.0
 11
5329.896575107003
 21
5299.5
 31
0.0
  0
LINE
  5
20C79
330
747D
100
AcDbEntity
  8
細線
100
AcDbLine
 10
5403.896575107003
 20
5276.5
 30
0.0
 11
5403.896575107003
 21
5299.5
 31
0.0
  0
LINE
  5
20C7A
330
747D
100
AcDbEntity
  8
細線
100
AcDbLine
 10
5255.896575107002
 20
5299.5
 30
0.0
 11
5255.896575107002
 21
5276.5
 31
0.0
  0
LINE
  5
20C7B
330
747D
100
AcDbEntity
  8
部品1
 48
0.01
100
AcDbLine
 10
5419.896575107001
 20
5272.5
 30
0.0
 11
5419.896575107003
 21
5304.0
 31
0.0
  0
LINE
  5
20C7C
330
747D
100
AcDbEntity
  8
部品1
 48
0.01
100
AcDbLine
 10
5241.896575107002
 20
5270.5
 30
0.0
 11
5417.896575107
 21
5270.5
 31
0.0
  0
LINE
  5
20C7D
330
747D
100
AcDbEntity
  8
部品1
 48
0.01
100
AcDbLine
 10
5239.896575107003
 20
5304.0
 30
0.0
 11
5239.896575107003
 21
5272.5
 31
0.0
  0
LINE
  5
20C7E
330
747D
100
AcDbEntity
  8
部品1
 48
0.01
100
AcDbLine
 10
5417.896575107003
 20
5306.0
 30
0.0
 11
5241.896575107002
 21
5306.0
 31
0.0
  0
LINE
  5
20C7F
330
747D
100
AcDbEntity
  8
細線
100
AcDbLine
 10
5255.896575107002
 20
5293.5
 30
0.0
 11
5329.896575107003
 21
5293.5
 31
0.0
  0
LINE
  5
20C80
330
747D
100
AcDbEntity
  8
細線
100
AcDbLine
 10
5255.896575107002
 20
5287.5
 30
0.0
 11
5329.896575107003
 21
5287.5
 31
0.0
  0
LINE
  5
20C81
330
747D
100
AcDbEntity
  8
細線
100
AcDbLine
 10
5255.896575107001
 20
5281.5
 30
0.0
 11
5329.896575107003
 21
5281.5
 31
0.0
  0
LINE
  5
20C82
330
747D
100
AcDbEntity
  8
細線
100
AcDbLine
 10
5255.896575107002
 20
5293.5
 30
0.0
 11
5324.896575107003
 21
5293.5
 31
0.0
  0
LINE
  5
20C83
330
747D
100
AcDbEntity
  8
細線
100
AcDbLine
 10
5403.896575107001
 20
5293.5
 30
0.0
 11
5329.896575107003
 21
5293.5
 31
0.0
  0
LINE
  5
20C84
330
747D
100
AcDbEntity
  8
細線
100
AcDbLine
 10
5403.896575107001
 20
5281.5
 30
0.0
 11
5329.896575107003
 21
5281.5
 31
0.0
  0
LINE
  5
20C85
330
747D
100
AcDbEntity
  8
細線
100
AcDbLine
 10
5403.896575107001
 20
5287.5
 30
0.0
 11
5329.896575107003
 21
5287.5
 31
0.0
  0
LINE
  5
20C86
330
747D
100
AcDbEntity
  8
細線
100
AcDbLine
 10
5329.896575107003
 20
5299.5
 30
0.0
 11
5329.896575107
 21
5276.5
 31
0.0
  0
LINE
  5
20C87
330
747D
100
AcDbEntity
  8
細線
100
AcDbLine
 10
6559.896575107003
 20
5299.5
 30
0.0
 11
6559.896575107003
 21
5276.5
 31
0.0
  0
LINE
  5
20C88
330
747D
100
AcDbEntity
  8
細線
100
AcDbLine
 10
6485.896575107003
 20
5287.5
 30
0.0
 11
6559.896575107003
 21
5287.5
 31
0.0
  0
LINE
  5
20C89
330
747D
100
AcDbEntity
  8
細線
100
AcDbLine
 10
6485.896575107003
 20
5281.5
 30
0.0
 11
6559.896575107003
 21
5281.5
 31
0.0
  0
LINE
  5
20C8A
330
747D
100
AcDbEntity
  8
細線
100
AcDbLine
 10
6485.896575107003
 20
5293.5
 30
0.0
 11
6559.896575107003
 21
5293.5
 31
0.0
  0
LINE
  5
20C8B
330
747D
100
AcDbEntity
  8
細線
100
AcDbLine
 10
6633.896575107003
 20
5293.5
 30
0.0
 11
6564.896575107002
 21
5293.5
 31
0.0
  0
LINE
  5
20C8C
330
747D
100
AcDbEntity
  8
細線
100
AcDbLine
 10
6633.896575107003
 20
5281.5
 30
0.0
 11
6559.896575107003
 21
5281.5
 31
0.0
  0
LINE
  5
20C8D
330
747D
100
AcDbEntity
  8
細線
100
AcDbLine
 10
6633.896575107003
 20
5287.5
 30
0.0
 11
6559.896575107003
 21
5287.5
 31
0.0
  0
LINE
  5
20C8E
330
747D
100
AcDbEntity
  8
細線
100
AcDbLine
 10
6633.896575107003
 20
5293.5
 30
0.0
 11
6559.896575107003
 21
5293.5
 31
0.0
  0
LINE
  5
20C8F
330
747D
100
AcDbEntity
  8
部品1
 48
0.01
100
AcDbLine
 10
6471.896575107003
 20
5306.0
 30
0.0
 11
6647.896575107004
 21
5306.0
 31
0.0
  0
LINE
  5
20C90
330
747D
100
AcDbEntity
  8
部品1
 48
0.01
100
AcDbLine
 10
6649.896575107003
 20
5304.0
 30
0.0
 11
6649.896575107003
 21
5272.5
 31
0.0
  0
LINE
  5
20C91
330
747D
100
AcDbEntity
  8
部品1
 48
0.01
100
AcDbLine
 10
6647.896575107004
 20
5270.5
 30
0.0
 11
6471.896575107003
 21
5270.5
 31
0.0
  0
LINE
  5
20C92
330
747D
100
AcDbEntity
  8
部品1
 48
0.01
100
AcDbLine
 10
6469.896575107004
 20
5272.5
 30
0.0
 11
6469.896575107004
 21
5304.0
 31
0.0
  0
LINE
  5
20C93
330
747D
100
AcDbEntity
  8
細線
100
AcDbLine
 10
6633.896575107003
 20
5299.5
 30
0.0
 11
6633.896575107003
 21
5276.5
 31
0.0
  0
LINE
  5
20C94
330
747D
100
AcDbEntity
  8
細線
100
AcDbLine
 10
6485.896575107003
 20
5276.5
 30
0.0
 11
6485.896575107003
 21
5299.5
 31
0.0
  0
LINE
  5
20C95
330
747D
100
AcDbEntity
  8
細線
100
AcDbLine
 10
6485.896575107003
 20
5299.5
 30
0.0
 11
6559.896575107003
 21
5299.5
 31
0.0
  0
LINE
  5
20C96
330
747D
100
AcDbEntity
  8
細線
100
AcDbLine
 10
6633.896575107003
 20
5276.5
 30
0.0
 11
6559.896575107003
 21
5276.5
 31
0.0
  0
LINE
  5
20C97
330
747D
100
AcDbEntity
  8
細線
100
AcDbLine
 10
6559.896575107003
 20
5299.5
 30
0.0
 11
6633.896575107003
 21
5299.5
 31
0.0
  0
LINE
  5
20C98
330
747D
100
AcDbEntity
  8
細線
100
AcDbLine
 10
6559.896575107003
 20
5276.5
 30
0.0
 11
6485.896575107003
 21
5276.5
 31
0.0
  0
ARC
  5
20C99
330
747D
100
AcDbEntity
  8
部品1
 48
0.01
100
AcDbCircle
 10
6647.896575107004
 20
5304.0
 30
0.0
 40
2.0
100
AcDbArc
 50
0.0
 51
90.0
  0
ARC
  5
20C9A
330
747D
100
AcDbEntity
  8
部品1
 48
0.01
100
AcDbCircle
 10
6647.896575107004
 20
5272.5
 30
0.0
 40
2.0
100
AcDbArc
 50
270.0
 51
0.0
  0
ARC
  5
20C9B
330
747D
100
AcDbEntity
  8
部品1
 48
0.01
100
AcDbCircle
 10
6471.896575107003
 20
5304.0
 30
0.0
 40
2.0
100
AcDbArc
 50
90.0
 51
180.0
  0
ARC
  5
20C9C
330
747D
100
AcDbEntity
  8
部品1
 48
0.01
100
AcDbCircle
 10
6471.896575107003
 20
5272.5
 30
0.0
 40
2.0
100
AcDbArc
 50
180.0
 51
270.0
  0
LINE
  5
20CB6
330
747D
100
AcDbEntity
  8
部品1
 48
50.0
100
AcDbLine
 10
5979.896575106999
 20
4255.500000000011
 30
0.0
 11
6032.896575106999
 21
4255.500000000012
 31
0.0
  0
LINE
  5
20CBA
330
747D
100
AcDbEntity
  8
細線
100
AcDbLine
 10
6063.896575106997
 20
5232.000000000001
 30
0.0
 11
6063.896575106999
 21
3149.000000000006
 31
0.0
  0
LINE
  5
20CBB
330
747D
100
AcDbEntity
  8
細線
100
AcDbLine
 10
6097.896575106997
 20
5232.000000000002
 30
0.0
 11
6097.896575106999
 21
3149.000000000008
 31
0.0
  0
LINE
  5
20CBC
330
747D
100
AcDbEntity
  8
部品1
100
AcDbLine
 10
6055.896575106996
 20
5232.000000000001
 30
0.0
 11
6055.896575106999
 21
3149.000000000006
 31
0.0
  0
LINE
  5
20CBD
330
747D
100
AcDbEntity
  8
部品1
100
AcDbLine
 10
6105.896575106998
 20
5232.000000000002
 30
0.0
 11
6105.896575106999
 21
3149.000000000008
 31
0.0
  0
LINE
  5
20CBE
330
747D
100
AcDbEntity
  8
細線
100
AcDbLine
 10
6394.396575106987
 20
5232.000000000001
 30
0.0
 11
6394.396575106985
 21
3149.000000000005
 31
0.0
  0
LINE
  5
20CBF
330
747D
100
AcDbEntity
  8
細線
100
AcDbLine
 10
6464.396575106984
 20
5232.000000000001
 30
0.0
 11
6464.396575106985
 21
3149.000000000007
 31
0.0
  0
LINE
  5
20CC0
330
747D
100
AcDbEntity
  8
細線
100
AcDbLine
 10
6534.396575106986
 20
5232.000000000001
 30
0.0
 11
6534.396575106986
 21
3149.000000000007
 31
0.0
  0
LINE
  5
20CC1
330
747D
100
AcDbEntity
  8
細線
100
AcDbLine
 10
6604.396575106986
 20
5232.000000000001
 30
0.0
 11
6604.396575106986
 21
3149.000000000008
 31
0.0
  0
LINE
  5
20CC2
330
747D
100
AcDbEntity
  8
細線
100
AcDbLine
 10
4479.896575106994
 20
5232.000000000003
 30
0.0
 11
7409.896575107009
 21
5232.0
 31
0.0
  0
LINE
  5
20CC3
330
747D
100
AcDbEntity
  8
部品1
100
AcDbLine
 10
4419.896575106995
 20
3141.999999999996
 30
0.0
 11
7469.896575107007
 21
3142.000000000024
 31
0.0
  0
DIMENSION
  5
20CC4
330
747D
100
AcDbEntity
  8
寸法
 48
50.0
100
AcDbDimension
  2
*D1
 10
4419.896575106995
 20
5687.541585258245
 30
0.0
 11
5940.683894633504
 21
5687.541585258245
 31
0.0
 70
   160
  1
柱外寸法<>
 71
     5
 42
3050.000000000015
  3
INABA_S40G
100
AcDbAlignedDimension
 13
7469.896575107009
 23
5475.000000000005
 33
0.0
 14
4419.896575106995
 24
5475.000000000008
 34
0.0
100
AcDbRotatedDimension
  0
LINE
  5
20CC5
330
747D
100
AcDbEntity
  8
破線
 48
5.0
100
AcDbLine
 10
4414.896575106994
 20
3000.000000000001
 30
0.0
 11
4414.896575106994
 21
2845.000000000001
 31
0.0
  0
LINE
  5
20CC6
330
747D
100
AcDbEntity
  8
破線
 48
5.0
100
AcDbLine
 10
7474.896575107009
 20
3000.0
 30
0.0
 11
7474.896575107009
 21
2845.0
 31
0.0
  0
LINE
  5
20CC7
330
747D
100
AcDbEntity
  8
破線
 48
5.0
100
AcDbLine
 10
4394.896575106995
 20
2845.000000000001
 30
0.0
 11
4414.896575106994
 21
2845.000000000001
 31
0.0
  0
LINE
  5
20CC8
330
747D
100
AcDbEntity
  8
部品1
100
AcDbLine
 10
4414.896575106994
 20
3145.000000000003
 30
0.0
 11
4414.896575106994
 21
3000.000000000001
 31
0.0
  0
LINE
  5
20CC9
330
747D
100
AcDbEntity
  8
破線
 48
5.0
100
AcDbLine
 10
7494.896575107009
 20
2845.0
 30
0.0
 11
7474.896575107006
 21
2845.0
 31
0.0
  0
LINE
  5
20CCA
330
747D
100
AcDbEntity
  8
部品1
100
AcDbLine
 10
7474.896575107009
 20
3145.0
 30
0.0
 11
7474.896575107009
 21
3000.0
 31
0.0
  0
LINE
  5
20CCB
330
747D
100
AcDbEntity
  8
部品1
100
AcDbLine
 10
6704.396575106985
 20
3156.500000000017
 30
0.0
 11
7409.896575107009
 21
3156.500000000026
 31
0.0
  0
DIMENSION
  5
20CCC
330
747D
100
AcDbEntity
  8
寸法
 48
50.0
100
AcDbDimension
  2
*D2
 10
4369.896575106994
 20
5687.541585258245
 30
0.0
 11
4056.411293732747
 21
5687.541585258245
 31
0.0
 70
   160
 71
     5
 42
50.0
  3
INABA_S40G
100
AcDbAlignedDimension
 13
4419.896575106995
 23
5475.000000000008
 33
0.0
 14
4369.896575106994
 24
5475.000000000006
 34
0.0
100
AcDbRotatedDimension
1001
ACAD
1000
DSTYLE
1002
{
1002
}
  0
DIMENSION
  5
20CCD
330
747D
100
AcDbEntity
  8
寸法
 48
50.0
100
AcDbDimension
  2
*D3
 10
7469.896575107009
 20
5687.541585258244
 30
0.0
 11
7833.381856481246
 21
5687.541585258244
 31
0.0
 70
   160
 71
     5
 42
50.0
  3
INABA_S40G
100
AcDbAlignedDimension
 13
7519.896575107009
 23
5475.000000000004
 33
0.0
 14
7469.896575107009
 24
5475.000000000005
 34
0.0
100
AcDbRotatedDimension
  0
LINE
  5
20CCE
330
747D
100
AcDbEntity
  8
部品1
100
AcDbLine
 10
4819.896575106994
 20
3100.000000000001
 30
0.0
 11
4819.896575106994
 21
3000.000000000001
 31
0.0
  0
LINE
  5
20CCF
330
747D
100
AcDbEntity
  8
部品1
100
AcDbLine
 10
7069.896575107009
 20
3100.0
 30
0.0
 11
7069.896575107009
 21
3000.0
 31
0.0
  0
LINE
  5
20CD0
330
747D
100
AcDbEntity
  8
部品1
100
AcDbLine
 10
7469.896575107007
 20
5334.000000000005
 30
0.0
 11
7469.896575107009
 21
3000.0
 31
0.0
  0
LINE
  5
20CD1
330
747D
100
AcDbEntity
  8
部品1
100
AcDbLine
 10
4479.896575106994
 20
5240.0
 30
0.0
 11
4479.896575106994
 21
3142.000000000005
 31
0.0
  0
LINE
  5
20CD2
330
747D
100
AcDbEntity
  8
部品1
100
AcDbLine
 10
7409.896575107009
 20
5240.000000000002
 30
0.0
 11
7409.896575107009
 21
3142.00000000002
 31
0.0
  0
LINE
  5
20CD3
330
747D
100
AcDbEntity
  8
部品1
100
AcDbLine
 10
4419.896575106993
 20
5334.000000000005
 30
0.0
 11
4419.896575106995
 21
3000.000000000001
 31
0.0
  0
DIMENSION
  5
20CD4
330
747D
100
AcDbEntity
  8
寸法
 48
50.0
100
AcDbDimension
  2
*D4
 10
7519.896575107009
 20
5908.446885731995
 30
0.0
 11
5944.429791024755
 21
5908.446885731995
 31
0.0
 70
   160
 71
     5
 42
3150.000000000015
  3
INABA_S40G
100
AcDbAlignedDimension
 13
4369.896575106994
 23
5475.000000000006
 33
0.0
 14
7519.896575107009
 24
5475.000000000004
 34
0.0
100
AcDbRotatedDimension
  0
LINE
  5
20CD5
330
747D
100
AcDbEntity
  8
部品1
100
AcDbLine
 10
5185.396575106985
 20
3148.999999999992
 30
0.0
 11
6704.396575106985
 21
3149.000000000008
 31
0.0
  0
LINE
  5
20CD6
330
747D
100
AcDbEntity
  8
部品1
100
AcDbLine
 10
4419.896575106995
 20
5240.0
 30
0.0
 11
7469.896575107007
 21
5240.000000000001
 31
0.0
  0
LINE
  5
20CD7
330
747D
100
AcDbEntity
  8
部品1
100
AcDbLine
 10
4419.896575106995
 20
3100.0
 30
0.0
 11
7469.896575107007
 21
3100.0
 31
0.0
  0
TEXT
  5
20CD8
330
747D
100
AcDbEntity
  8
部品1
100
AcDbText
 10
3759.545247166588
 20
3013.953728039226
 30
0.0
 40
125.0
  1
▽G.L
  7
STYLE2
100
AcDbText
  0
LINE
  5
20CDE
330
747D
100
AcDbEntity
  8
部品1
 48
50.0
100
AcDbLine
 10
5944.896575107
 20
5232.000000000002
 30
0.0
 11
5944.896575106999
 21
3142.000000000011
 31
0.0
  0
LINE
  5
20CDF
330
747D
100
AcDbEntity
  8
部品1
 48
50.0
100
AcDbLine
 10
6704.396575106983
 20
5232.000000000001
 30
0.0
 11
6704.396575106986
 21
3149.000000000008
 31
0.0
  0
LINE
  5
20CE0
330
747D
100
AcDbEntity
  8
部品1
 48
50.0
100
AcDbLine
 10
5185.396575106987
 20
5232.000000000002
 30
0.0
 11
5185.396575106985
 21
3148.999999999993
 31
0.0
  0
LINE
  5
20CE1
330
747D
100
AcDbEntity
  8
部品1
100
AcDbLine
 10
5833.896575107001
 20
5232.000000000002
 30
0.0
 11
5833.896575107003
 21
3149.000000000006
 31
0.0
  0
LINE
  5
20CE2
330
747D
100
AcDbEntity
  8
部品1
100
AcDbLine
 10
5783.896575107001
 20
5232.000000000001
 30
0.0
 11
5783.896575107003
 21
3149.000000000004
 31
0.0
  0
LINE
  5
20CE3
330
747D
100
AcDbEntity
  8
細線
100
AcDbLine
 10
5825.896575107001
 20
5232.000000000002
 30
0.0
 11
5825.896575107003
 21
3149.000000000006
 31
0.0
  0
LINE
  5
20CE4
330
747D
100
AcDbEntity
  8
細線
100
AcDbLine
 10
5791.896575107001
 20
5232.000000000001
 30
0.0
 11
5791.896575107003
 21
3149.000000000004
 31
0.0
  0
LINE
  5
20CE5
330
747D
100
AcDbEntity
  8
細線
100
AcDbLine
 10
5285.396575106984
 20
5232.000000000002
 30
0.0
 11
5285.396575106986
 21
3149.000000000008
 31
0.0
  0
LINE
  5
20CE6
330
747D
100
AcDbEntity
  8
細線
100
AcDbLine
 10
5355.396575106986
 20
5232.000000000003
 30
0.0
 11
5355.396575106985
 21
3149.000000000004
 31
0.0
  0
LINE
  5
20CE7
330
747D
100
AcDbEntity
  8
細線
100
AcDbLine
 10
5425.396575106987
 20
5232.000000000003
 30
0.0
 11
5425.396575106986
 21
3149.000000000004
 31
0.0
  0
LINE
  5
20CE8
330
747D
100
AcDbEntity
  8
細線
100
AcDbLine
 10
5495.396575106986
 20
5232.000000000002
 30
0.0
 11
5495.396575106986
 21
3149.000000000003
 31
0.0
  0
LINE
  5
20CE9
330
747D
100
AcDbEntity
  8
細線
100
AcDbLine
 10
5565.396575106986
 20
5232.000000000002
 30
0.0
 11
5565.396575106985
 21
3149.000000000003
 31
0.0
  0
LINE
  5
20CEA
330
747D
100
AcDbEntity
  8
細線
100
AcDbLine
 10
5635.396575106986
 20
5232.000000000002
 30
0.0
 11
5635.396575106986
 21
3149.000000000003
 31
0.0
  0
LINE
  5
20CEB
330
747D
100
AcDbEntity
  8
部品1
100
AcDbLine
 10
4479.896575106994
 20
3156.500000000016
 30
0.0
 11
5185.396575106986
 21
3156.500000000023
 31
0.0
  0
LINE
  5
20CEC
330
747D
100
AcDbEntity
  8
細線
100
AcDbLine
 10
6726.404881756053
 20
5232.000000000001
 30
0.0
 11
6726.404881756055
 21
3156.500000000021
 31
0.0
  0
LINE
  5
20CED
330
747D
100
AcDbEntity
  8
細線
100
AcDbLine
 10
6796.404881756053
 20
5232.0
 30
0.0
 11
6796.404881756053
 21
3156.500000000021
 31
0.0
  0
LINE
  5
20CEE
330
747D
100
AcDbEntity
  8
細線
100
AcDbLine
 10
6866.404881756054
 20
5232.0
 30
0.0
 11
6866.404881756054
 21
3156.500000000021
 31
0.0
  0
LINE
  5
20CEF
330
747D
100
AcDbEntity
  8
細線
100
AcDbLine
 10
6936.404881756054
 20
5232.0
 30
0.0
 11
6936.404881756054
 21
3156.500000000021
 31
0.0
  0
LINE
  5
20CF0
330
747D
100
AcDbEntity
  8
細線
100
AcDbLine
 10
7006.404881756053
 20
5232.0
 30
0.0
 11
7006.404881756054
 21
3156.500000000021
 31
0.0
  0
LINE
  5
20CF1
330
747D
100
AcDbEntity
  8
細線
100
AcDbLine
 10
7076.404881756054
 20
5232.0
 30
0.0
 11
7076.404881756054
 21
3156.500000000021
 31
0.0
  0
LINE
  5
20CF2
330
747D
100
AcDbEntity
  8
細線
100
AcDbLine
 10
7146.404881756052
 20
5232.0
 30
0.0
 11
7146.404881756054
 21
3156.500000000021
 31
0.0
  0
LINE
  5
20CF3
330
747D
100
AcDbEntity
  8
細線
100
AcDbLine
 10
7216.404881756054
 20
5232.0
 30
0.0
 11
7216.404881756054
 21
3156.500000000021
 31
0.0
  0
LINE
  5
20CF5
330
747D
100
AcDbEntity
  8
細線
100
AcDbLine
 10
4743.388268458031
 20
5232.000000000003
 30
0.0
 11
4743.38826845803
 21
3156.500000000012
 31
0.0
  0
LINE
  5
20CF6
330
747D
100
AcDbEntity
  8
細線
100
AcDbLine
 10
4813.388268458031
 20
5232.000000000003
 30
0.0
 11
4813.38826845803
 21
3156.500000000012
 31
0.0
  0
LINE
  5
20CF7
330
747D
100
AcDbEntity
  8
細線
100
AcDbLine
 10
4883.38826845803
 20
5232.000000000003
 30
0.0
 11
4883.38826845803
 21
3156.500000000012
 31
0.0
  0
LINE
  5
20CF8
330
747D
100
AcDbEntity
  8
細線
100
AcDbLine
 10
4953.388268458031
 20
5232.000000000003
 30
0.0
 11
4953.388268458031
 21
3156.500000000012
 31
0.0
  0
LINE
  5
20CF9
330
747D
100
AcDbEntity
  8
細線
100
AcDbLine
 10
5023.38826845803
 20
5232.000000000002
 30
0.0
 11
5023.38826845803
 21
3156.500000000012
 31
0.0
  0
LINE
  5
20CFA
330
747D
100
AcDbEntity
  8
細線
100
AcDbLine
 10
5093.38826845803
 20
5232.000000000002
 30
0.0
 11
5093.38826845803
 21
3156.500000000012
 31
0.0
  0
LINE
  5
20CFB
330
747D
100
AcDbEntity
  8
細線
100
AcDbLine
 10
5163.388268458032
 20
5232.000000000002
 30
0.0
 11
5163.388268458031
 21
3156.500000000012
 31
0.0
  0
MTEXT
  5
26F2A
330
747D
100
AcDbEntity
  8
寸法
 62
     7
 48
50.0
100
AcDbMText
 10
6713.659057681718
 20
9453.916745723057
 30
0.0
 40
96.0
 41
0.0
 71
     5
 72
     1
  1
棚 3段
  7
STYLE1
 73
     1
 44
1.0
1001
ACAD
1000
MTEXTBEGIN
1070
    73
1070
     1
1070
    44
1040
1.0
1070
    74
1070
     0
1000
MTEXTEND
  0
MTEXT
  5
26F2B
330
747D
100
AcDbEntity
  8
寸法
 62
     7
 48
50.0
100
AcDbMText
 10
5198.171403114868
 20
9453.916745722896
 30
0.0
 40
96.0
 41
0.0
 71
     5
 72
     1
  1
棚 3段
  7
STYLE1
 73
     1
 44
1.0
1001
ACAD
1000
MTEXTBEGIN
1070
    73
1070
     1
1070
    44
1040
1.0
1070
    74
1070
     0
1000
MTEXTEND
  0
LINE
  5
26F2C
330
747D
100
AcDbEntity
  8
細線
100
AcDbLine
 10
5215.384268457933
 20
8093.277214943439
 30
0.0
 11
5215.384268457933
 21
8088.277214943436
 31
0.0
  0
LINE
  5
26F2D
330
747D
100
AcDbEntity
  8
細線
100
AcDbLine
 10
5914.884268457918
 20
8093.277214943347
 30
0.0
 11
5914.884268457918
 21
8089.277214943349
 31
0.0
  0
LINE
  5
26F2E
330
747D
100
AcDbEntity
  8
細線
100
AcDbLine
 10
5935.884268457916
 20
8074.777214943347
 30
0.0
 11
5935.884268457916
 21
8070.277214943351
 31
0.0
  0
LINE
  5
26F2F
330
747D
100
AcDbEntity
  8
細線
100
AcDbLine
 10
5944.884268457917
 20
8074.777214943347
 30
0.0
 11
5935.884268457916
 21
8074.777214943347
 31
0.0
  0
LINE
  5
26F35
330
747D
100
AcDbEntity
  8
細線
100
AcDbLine
 10
5200.384268457916
 20
8093.277214943345
 30
0.0
 11
5200.384268457914
 21
8100.277214943345
 31
0.0
  0
LINE
  5
26F36
330
747D
100
AcDbEntity
  8
細線
100
AcDbLine
 10
5185.384268457911
 20
8100.277214943348
 30
0.0
 11
5200.384268457914
 21
8100.277214943345
 31
0.0
  0
LINE
  5
26F37
330
747D
100
AcDbEntity
  8
細線
100
AcDbLine
 10
5185.384268457918
 20
8070.277214943349
 30
0.0
 11
5185.384268457911
 21
8100.277214943348
 31
0.0
  0
ARC
  5
26F38
330
747D
100
AcDbEntity
  8
細線
100
AcDbCircle
 10
5530.384261958019
 20
8095.77721494333
 30
0.0
 40
6.0
100
AcDbArc
 50
204.6243183521779
 51
335.3756816478222
  0
LINE
  5
26F39
330
747D
100
AcDbEntity
  8
細線
100
AcDbLine
 10
4533.384268457922
 20
8106.277214943617
 30
0.0
 11
4535.715806748689
 21
8111.277214943603
 31
0.0
  0
LINE
  5
26F3A
330
747D
100
AcDbEntity
  8
細線
100
AcDbLine
 10
4535.715806748689
 20
8111.277214943603
 30
0.0
 11
4601.052730167164
 21
8111.277214943591
 31
0.0
  0
LINE
  5
26F3B
330
747D
100
AcDbEntity
  8
細線
100
AcDbLine
 10
4603.384268457918
 20
8106.277214943636
 30
0.0
 11
4601.05273016715
 21
8111.277214943621
 31
0.0
  0
LINE
  5
26F3C
330
747D
100
AcDbEntity
  8
細線
100
AcDbLine
 10
4603.384268457931
 20
8106.277214943606
 30
0.0
 11
4673.384268457929
 21
8106.277214943606
 31
0.0
  0
LINE
  5
26F3D
330
747D
100
AcDbEntity
  8
細線
100
AcDbLine
 10
5185.384268457918
 20
8070.277214943422
 30
0.0
 11
5285.384268457941
 21
8070.277214943407
 31
0.0
  0
LINE
  5
26F3E
330
747D
100
AcDbEntity
  8
細線
100
AcDbLine
 10
5023.384268457915
 20
8106.277214943586
 30
0.0
 11
5093.388268457919
 21
8106.27721494359
 31
0.0
  0
LINE
  5
26F3F
330
747D
100
AcDbEntity
  8
細線
100
AcDbLine
 10
4883.384268457926
 20
8106.277214943585
 30
0.0
 11
4953.384268457937
 21
8106.277214943585
 31
0.0
  0
LINE
  5
26F40
330
747D
100
AcDbEntity
  8
細線
100
AcDbLine
 10
4743.384268457933
 20
8106.277214943585
 30
0.0
 11
4813.384268457934
 21
8106.277214943585
 31
0.0
  0
LINE
  5
26F41
330
747D
100
AcDbEntity
  8
細線
100
AcDbLine
 10
5023.384268457915
 20
8106.277214943586
 30
0.0
 11
5021.052730167152
 21
8111.277214943561
 31
0.0
  0
LINE
  5
26F42
330
747D
100
AcDbEntity
  8
細線
100
AcDbLine
 10
4953.384268457926
 20
8106.277214943558
 30
0.0
 11
4955.715806748694
 21
8111.277214943543
 31
0.0
  0
LINE
  5
26F43
330
747D
100
AcDbEntity
  8
細線
100
AcDbLine
 10
4955.715806748694
 20
8111.277214943543
 30
0.0
 11
5021.052730167165
 21
8111.277214943532
 31
0.0
  0
LINE
  5
26F44
330
747D
100
AcDbEntity
  8
細線
100
AcDbLine
 10
4883.384268457922
 20
8106.277214943595
 30
0.0
 11
4881.052730167155
 21
8111.277214943582
 31
0.0
  0
LINE
  5
26F45
330
747D
100
AcDbEntity
  8
細線
100
AcDbLine
 10
4813.384268457926
 20
8106.277214943578
 30
0.0
 11
4815.715806748693
 21
8111.277214943562
 31
0.0
  0
LINE
  5
26F46
330
747D
100
AcDbEntity
  8
細線
100
AcDbLine
 10
4815.715806748693
 20
8111.277214943562
 30
0.0
 11
4881.052730167168
 21
8111.277214943552
 31
0.0
  0
LINE
  5
26F47
330
747D
100
AcDbEntity
  8
細線
100
AcDbLine
 10
4743.384268457918
 20
8106.277214943615
 30
0.0
 11
4741.05273016715
 21
8111.277214943601
 31
0.0
  0
LINE
  5
26F48
330
747D
100
AcDbEntity
  8
細線
100
AcDbLine
 10
4675.715806748692
 20
8111.277214943582
 30
0.0
 11
4741.052730167165
 21
8111.277214943571
 31
0.0
  0
LINE
  5
26F49
330
747D
100
AcDbEntity
  8
細線
100
AcDbLine
 10
4673.384268457925
 20
8106.277214943597
 30
0.0
 11
4675.715806748693
 21
8111.277214943582
 31
0.0
  0
ARC
  5
26F4A
330
747D
100
AcDbEntity
  8
部品1
 48
0.01
100
AcDbCircle
 10
5784.384268457924
 20
8069.277214943371
 30
0.0
 40
0.5
100
AcDbArc
 50
180.0
 51
270.0
  0
LINE
  5
26F4B
330
747D
100
AcDbEntity
  8
部品1
 48
0.01
100
AcDbLine
 10
5783.884268457924
 20
8070.277214943372
 30
0.0
 11
5783.884268457924
 21
8069.277214943371
 31
0.0
  0
LINE
  5
26F4C
330
747D
100
AcDbEntity
  8
部品1
 48
0.01
100
AcDbLine
 10
5783.884268457924
 20
8070.277214943372
 30
0.0
 11
5783.884268457924
 21
8069.277214943371
 31
0.0
  0
LINE
  5
26F4D
330
747D
100
AcDbEntity
  8
部品1
 48
0.01
100
AcDbLine
 10
5784.384268457924
 20
8068.777214943372
 30
0.0
 11
5790.996773887987
 21
8068.777214943372
 31
0.0
  0
ARC
  5
26F4E
330
747D
100
AcDbEntity
  8
部品1
100
AcDbCircle
 10
5790.928424335207
 20
8069.777214943371
 30
0.0
 40
1.0
100
AcDbArc
 50
270.0
 51
19.47122063447127
  0
ARC
  5
26F4F
330
747D
100
AcDbEntity
  8
部品1
100
AcDbCircle
 10
5816.384268457924
 20
8078.777214943372
 30
0.0
 40
26.0
100
AcDbArc
 50
180.0
 51
199.4712206344713
  0
LINE
  5
26F50
330
747D
100
AcDbEntity
  8
部品1
100
AcDbLine
 10
5790.384268457923
 20
8078.777214943372
 30
0.0
 11
5790.384268457923
 21
8083.777214943372
 31
0.0
  0
ARC
  5
26F51
330
747D
100
AcDbEntity
  8
部品1
 48
0.01
100
AcDbCircle
 10
5792.384268457924
 20
8083.777214943372
 30
0.0
 40
2.0
100
AcDbArc
 50
90.0
 51
180.0
  0
ARC
  5
26F52
330
747D
100
AcDbEntity
  8
部品1
100
AcDbCircle
 10
5793.992660082736
 20
8082.777214943371
 30
0.0
 40
3.0
100
AcDbArc
 50
38.39304401921268
 51
90.0
  0
LINE
  5
26F53
330
747D
100
AcDbEntity
  8
部品1
 48
0.01
100
AcDbLine
 10
5792.384268457924
 20
8085.777214943371
 30
0.0
 11
5793.992660082736
 21
8085.777214943371
 31
0.0
  0
ARC
  5
26F54
330
747D
100
AcDbEntity
  8
部品1
100
AcDbCircle
 10
5812.454982672195
 20
8082.077214943371
 30
0.0
 40
3.0
100
AcDbArc
 50
270.0
 51
285.9423686056284
  0
ARC
  5
26F55
330
747D
100
AcDbEntity
  8
部品1
100
AcDbCircle
 10
5805.313554243653
 20
8082.077214943371
 30
0.0
 40
3.0
100
AcDbArc
 50
254.0576313943716
 51
270.0
  0
LINE
  5
26F56
330
747D
100
AcDbEntity
  8
部品1
100
AcDbLine
 10
5805.313554243653
 20
8079.077214943371
 30
0.0
 11
5812.454982672195
 21
8079.077214943371
 31
0.0
  0
ARC
  5
26F57
330
747D
100
AcDbEntity
  8
部品1
100
AcDbCircle
 10
5808.884268457924
 20
8094.57721494337
 30
0.0
 40
16.0
100
AcDbArc
 50
218.3930440192126
 51
254.0576313943716
  0
LINE
  5
26F58
330
747D
100
AcDbEntity
  8
部品1
 48
0.01
100
AcDbLine
 10
5825.384268457924
 20
8085.777214943371
 30
0.0
 11
5823.775876833113
 21
8085.777214943371
 31
0.0
  0
ARC
  5
26F59
330
747D
100
AcDbEntity
  8
部品1
100
AcDbCircle
 10
5823.775876833113
 20
8082.777214943371
 30
0.0
 40
3.0
100
AcDbArc
 50
90.0
 51
141.6069559807873
  0
ARC
  5
26F5A
330
747D
100
AcDbEntity
  8
部品1
100
AcDbCircle
 10
5808.884268457924
 20
8094.57721494337
 30
0.0
 40
16.0
100
AcDbArc
 50
285.9423686056284
 51
321.6069559807873
  0
LINE
  5
26F5B
330
747D
100
AcDbEntity
  8
部品1
100
AcDbLine
 10
5827.384268457924
 20
8078.777214943372
 30
0.0
 11
5827.384268457924
 21
8083.777214943372
 31
0.0
  0
ARC
  5
26F5C
330
747D
100
AcDbEntity
  8
部品1
 48
0.01
100
AcDbCircle
 10
5825.384268457924
 20
8083.777214943372
 30
0.0
 40
2.0
100
AcDbArc
 50
0.000000000000007
 51
90.0
  0
ARC
  5
26F5D
330
747D
100
AcDbEntity
  8
部品1
100
AcDbCircle
 10
5801.384268457923
 20
8078.777214943372
 30
0.0
 40
26.0
100
AcDbArc
 50
340.5287793655288
 51
0.000000000000007
  0
ARC
  5
26F5E
330
747D
100
AcDbEntity
  8
部品1
 48
0.01
100
AcDbCircle
 10
5833.384268457924
 20
8069.277214943371
 30
0.0
 40
0.5
100
AcDbArc
 50
270.0
 51
0.000000000000007
  0
LINE
  5
26F5F
330
747D
100
AcDbEntity
  8
部品1
 48
0.01
100
AcDbLine
 10
5833.384268457924
 20
8068.777214943372
 30
0.0
 11
5826.84011258064
 21
8068.777214943372
 31
0.0
  0
LINE
  5
26F60
330
747D
100
AcDbEntity
  8
部品1
 48
0.01
100
AcDbLine
 10
5833.884268457924
 20
8070.277214943372
 30
0.0
 11
5833.884268457924
 21
8069.277214943371
 31
0.0
  0
ARC
  5
26F61
330
747D
100
AcDbEntity
  8
部品1
100
AcDbCircle
 10
5826.84011258064
 20
8069.777214943371
 30
0.0
 40
1.0
100
AcDbArc
 50
160.5287793655287
 51
270.0
  0
LINE
  5
26F62
330
747D
100
AcDbEntity
  8
細線
100
AcDbLine
 10
5788.384268457917
 20
8088.277214943373
 30
0.0
 11
5829.384268457917
 21
8088.277214943367
 31
0.0
  0
LINE
  5
26F63
330
747D
100
AcDbEntity
  8
細線
100
AcDbLine
 10
5829.384268457917
 20
8088.277214943367
 30
0.0
 11
5829.384268457917
 21
8070.277214943351
 31
0.0
  0
LINE
  5
26F64
330
747D
100
AcDbEntity
  8
細線
100
AcDbLine
 10
5788.384268457917
 20
8088.277214943373
 30
0.0
 11
5788.384268457917
 21
8070.277214943351
 31
0.0
  0
LINE
  5
26F65
330
747D
100
AcDbEntity
  8
細線
100
AcDbLine
 10
5635.384268457918
 20
8070.277214943349
 30
0.0
 11
5633.05273016715
 21
8075.277214943334
 31
0.0
  0
LINE
  5
26F66
330
747D
100
AcDbEntity
  8
細線
100
AcDbLine
 10
5565.384268457923
 20
8070.277214943329
 30
0.0
 11
5567.71580674869
 21
8075.277214943316
 31
0.0
  0
LINE
  5
26F67
330
747D
100
AcDbEntity
  8
細線
100
AcDbLine
 10
5567.71580674869
 20
8075.277214943316
 30
0.0
 11
5633.052730167165
 21
8075.277214943305
 31
0.0
  0
LINE
  5
26F68
330
747D
100
AcDbEntity
  8
細線
100
AcDbLine
 10
5495.384268457919
 20
8070.277214943368
 30
0.0
 11
5493.052730167152
 21
8075.277214943353
 31
0.0
  0
LINE
  5
26F69
330
747D
100
AcDbEntity
  8
細線
100
AcDbLine
 10
5425.384268457925
 20
8070.277214943351
 30
0.0
 11
5427.715806748693
 21
8075.277214943335
 31
0.0
  0
LINE
  5
26F6A
330
747D
100
AcDbEntity
  8
細線
100
AcDbLine
 10
5427.715806748691
 20
8075.277214943335
 30
0.0
 11
5493.052730167164
 21
8075.277214943325
 31
0.0
  0
LINE
  5
26F6B
330
747D
100
AcDbEntity
  8
細線
100
AcDbLine
 10
5355.384268457918
 20
8070.277214943388
 30
0.0
 11
5353.052730167149
 21
8075.277214943374
 31
0.0
  0
LINE
  5
26F6C
330
747D
100
AcDbEntity
  8
細線
100
AcDbLine
 10
5635.384268457918
 20
8070.277214943395
 30
0.0
 11
5935.884268457916
 21
8070.277214943351
 31
0.0
  0
LINE
  5
26F6D
330
747D
100
AcDbEntity
  8
細線
100
AcDbLine
 10
5495.384268457918
 20
8070.277214943327
 30
0.0
 11
5565.384268457918
 21
8070.277214943315
 31
0.0
  0
LINE
  5
26F6E
330
747D
100
AcDbEntity
  8
細線
100
AcDbLine
 10
5355.384268457918
 20
8070.277214943345
 30
0.0
 11
5425.384268457918
 21
8070.277214943336
 31
0.0
  0
LINE
  5
26F6F
330
747D
100
AcDbEntity
  8
細線
100
AcDbLine
 10
5287.715806748689
 20
8075.277214943355
 30
0.0
 11
5353.052730167163
 21
8075.277214943346
 31
0.0
  0
LINE
  5
26F70
330
747D
100
AcDbEntity
  8
細線
100
AcDbLine
 10
5285.384268457941
 20
8070.277214943407
 30
0.0
 11
5287.715806748691
 21
8075.277214943355
 31
0.0
  0
LINE
  5
26F71
330
747D
100
AcDbEntity
  8
細線
100
AcDbLine
 10
5944.884268457919
 20
8100.277214943348
 30
0.0
 11
5944.884268457917
 21
8074.777214943347
 31
0.0
  0
LINE
  5
26F72
330
747D
100
AcDbEntity
  8
細線
100
AcDbLine
 10
5500.384268457992
 20
8070.277214943429
 30
0.0
 11
5507.884268457988
 21
8093.277214943357
 31
0.0
  0
LINE
  5
26F73
330
747D
100
AcDbEntity
  8
細線
100
AcDbLine
 10
5560.384268457992
 20
8070.277214943438
 30
0.0
 11
5552.884268457987
 21
8093.277214943357
 31
0.0
  0
LINE
  5
26F74
330
747D
100
AcDbEntity
  8
細線
100
AcDbLine
 10
4917.884268457915
 20
8134.277214943585
 30
0.0
 11
4932.884268457917
 21
8106.277214943586
 31
0.0
  0
LINE
  5
26F75
330
747D
100
AcDbEntity
  8
細線
100
AcDbLine
 10
4902.884268457915
 20
8134.277214943585
 30
0.0
 11
4902.884268457917
 21
8106.277214943586
 31
0.0
  0
LINE
  5
26F77
330
747D
100
AcDbEntity
  8
細線
100
AcDbLine
 10
4479.896542121972
 20
8102.277214943596
 30
0.0
 11
4479.896542121972
 21
8106.277214943586
 31
0.0
  0
LINE
  5
26F7B
330
747D
100
AcDbEntity
  8
細線
100
AcDbLine
 10
4447.896575106993
 20
8134.277214943578
 30
0.0
 11
5226.384268457917
 21
8134.277214943592
 31
0.0
  0
LINE
  5
26F7C
330
747D
100
AcDbEntity
  8
細線
 48
50.0
100
AcDbLine
 10
4479.896575106992
 20
8083.277214943358
 30
0.0
 11
5080.384268457913
 21
8083.277214943358
 31
0.0
  0
LINE
  5
26F7D
330
747D
100
AcDbEntity
  8
細線
100
AcDbLine
 10
4479.896542121972
 20
8106.277214943585
 30
0.0
 11
4533.384268457915
 21
8106.277214943586
 31
0.0
  0
LINE
  5
26F7E
330
747D
100
AcDbEntity
  8
細線
100
AcDbLine
 10
5929.884268457918
 20
8100.277214943348
 30
0.0
 11
5944.884268457919
 21
8100.277214943348
 31
0.0
  0
LINE
  5
26F7F
330
747D
100
AcDbEntity
  8
細線
100
AcDbLine
 10
5929.884268457918
 20
8100.277214943348
 30
0.0
 11
5929.884268457918
 21
8093.277214943347
 31
0.0
  0
LINE
  5
26F80
330
747D
100
AcDbEntity
  8
細線
100
AcDbLine
 10
5200.384268457916
 20
8093.277214943459
 30
0.0
 11
5929.884268457918
 21
8093.277214943347
 31
0.0
  0
LINE
  5
26F81
330
747D
100
AcDbEntity
  8
細線
 48
50.0
100
AcDbLine
 10
5004.896542121972
 20
8083.277214943548
 30
0.0
 11
5185.384268457914
 21
8083.277214943548
 31
0.0
  0
LINE
  5
26F82
330
747D
100
AcDbEntity
  8
細線
100
AcDbLine
 10
5211.384268457917
 20
8134.277214943351
 30
0.0
 11
5211.384268457917
 21
8128.920243541315
 31
0.0
  0
LINE
  5
26F83
330
747D
100
AcDbEntity
  8
細線
100
AcDbLine
 10
4447.896575106993
 20
8134.277214943583
 30
0.0
 11
4447.896575106993
 21
8102.277214943594
 31
0.0
  0
LINE
  5
26F84
330
747D
100
AcDbEntity
  8
細線
100
AcDbLine
 10
7441.896575106979
 20
8134.277214943466
 30
0.0
 11
7441.896575106979
 21
8102.277214943477
 31
0.0
  0
DIMENSION
  5
26F86
330
747D
100
AcDbEntity
  8
寸法
100
AcDbDimension
  2
*D14
 10
5874.254244657334
 20
9164.019134442279
 30
0.0
 11
5012.644825345227
 21
9164.019134442279
 31
0.0
 70
   160
 71
     5
 42
1483.0
  3
INABA_S40G
100
AcDbAlignedDimension
 13
4448.396575107062
 23
9377.277214943289
 33
0.0
 14
5931.396575107061
 24
9377.277214943555
 34
0.0
100
AcDbRotatedDimension
1001
ACAD
1000
DSTYLE
1002
{
1002
}
  0
LINE
  5
26F87
330
747D
100
AcDbEntity
  8
部品1
100
AcDbLine
 10
4479.896575106974
 20
8067.277214943596
 30
0.0
 11
4479.896575106974
 21
8102.277214943596
 31
0.0
  0
LINE
  5
26F88
330
747D
100
AcDbEntity
  8
部品1
100
AcDbLine
 10
4447.896575106972
 20
8102.277214943596
 30
0.0
 11
4479.896575106974
 21
8102.277214943596
 31
0.0
  0
LINE
  5
26F89
330
747D
100
AcDbEntity
  8
部品1
100
AcDbLine
 10
7441.89657510698
 20
8102.277214943478
 30
0.0
 11
7409.896575106976
 21
8102.277214943478
 31
0.0
  0
LINE
  5
26F8A
330
747D
100
AcDbEntity
  8
破線
 48
10.0
100
AcDbLine
 10
5192.396575106958
 20
8221.277214943462
 30
0.0
 11
4499.896575106991
 21
8221.277214943443
 31
0.0
  0
LINE
  5
26F8D
330
747D
100
AcDbEntity
  8
部品1
100
AcDbLine
 10
6574.896575107061
 20
9857.277214943527
 30
0.0
 11
6574.896575107061
 21
9829.277214943527
 31
0.0
  0
LINE
  5
26F8E
330
747D
100
AcDbEntity
  8
部品1
100
AcDbLine
 10
4894.896575107061
 20
9857.277214943295
 30
0.0
 11
4894.896575107061
 21
9829.277214943294
 31
0.0
  0
LINE
  5
26F8F
330
747D
100
AcDbEntity
  8
部品1
100
AcDbLine
 10
4894.896575107061
 20
9857.277214943295
 30
0.0
 11
4894.896575107061
 21
9829.277214943294
 31
0.0
  0
LINE
  5
26F90
330
747D
100
AcDbEntity
  8
部品1
100
AcDbLine
 10
4894.896575107061
 20
9857.27721494341
 30
0.0
 11
4894.896575107061
 21
9829.27721494341
 31
0.0
  0
LINE
  5
26F94
330
747D
100
AcDbEntity
  8
部品1
100
AcDbLine
 10
7414.896575107062
 20
9857.277214943504
 30
0.0
 11
7414.896575107062
 21
9829.277214943504
 31
0.0
  0
LINE
  5
26F95
330
747D
100
AcDbEntity
  8
部品1
100
AcDbLine
 10
7414.896575107062
 20
9857.277214943527
 30
0.0
 11
7414.896575107062
 21
9829.277214943527
 31
0.0
  0
LINE
  5
26F96
330
747D
100
AcDbEntity
  8
部品1
100
AcDbLine
 10
7441.896575107062
 20
9802.277214943508
 30
0.0
 11
7469.896575107061
 21
9802.277214943508
 31
0.0
  0
LINE
  5
26F97
330
747D
100
AcDbEntity
  8
部品1
100
AcDbLine
 10
7441.896575107062
 20
9382.277214943508
 30
0.0
 11
7469.896575107061
 21
9382.277214943508
 31
0.0
  0
LINE
  5
26F98
330
747D
100
AcDbEntity
  8
部品1
100
AcDbLine
 10
7441.396575107062
 20
9827.277214943505
 30
0.0
 11
7441.396575107062
 21
9377.277214943509
 31
0.0
  0
LINE
  5
26F99
330
747D
100
AcDbEntity
  8
部品1
100
AcDbLine
 10
7469.896575106978
 20
8122.277214943478
 30
0.0
 11
7469.896575106976
 21
8067.277214943482
 31
0.0
  0
LINE
  5
26F9A
330
747D
100
AcDbEntity
  8
部品1
 48
50.0
100
AcDbLine
 10
7413.396575106979
 20
8197.777214943652
 30
0.0
 11
7441.896575106977
 21
8169.277214943654
 31
0.0
  0
LINE
  5
26F9B
330
747D
100
AcDbEntity
  8
部品1
100
AcDbLine
 10
7409.896575106976
 20
8067.277214943478
 30
0.0
 11
7409.896575106976
 21
8102.27721494348
 31
0.0
  0
LINE
  5
26F9C
330
747D
100
AcDbEntity
  8
部品1
100
AcDbLine
 10
7469.896575106976
 20
8067.277214943482
 30
0.0
 11
7418.896575106976
 21
8067.277214943482
 31
0.0
  0
LINE
  5
26F9D
330
747D
100
AcDbEntity
  8
部品1
100
AcDbLine
 10
7441.896575106977
 20
8122.277214943478
 30
0.0
 11
7469.896575106976
 21
8122.277214943478
 31
0.0
  0
LINE
  5
26F9E
330
747D
100
AcDbEntity
  8
部品1
100
AcDbLine
 10
7469.896575107025
 20
9857.277214943504
 30
0.0
 11
7469.896575106976
 21
8067.277214943482
 31
0.0
  0
DIMENSION
  5
26F9F
330
747D
100
AcDbEntity
  8
寸法
100
AcDbDimension
  2
*D13
 10
8117.322920841386
 20
8122.277214943478
 30
0.0
 11
8117.322920841386
 21
8952.478686047021
 31
0.0
 70
   160
  1
4X420=<>
 71
     5
 42
1680.000000000029
  3
INABA_S40G
100
AcDbAlignedDimension
 13
7469.896575107061
 23
9802.277214943508
 33
0.0
 14
7469.896575106976
 24
8122.277214943478
 34
0.0
 50
90.0
100
AcDbRotatedDimension
1001
ACAD
1000
DSTYLE
1002
{
1002
}
  0
LINE
  5
26FA0
330
747D
100
AcDbEntity
  8
部品1
100
AcDbLine
 10
7441.89657510702
 20
9829.277214943504
 30
0.0
 11
7441.89657510698
 21
8122.277214943494
 31
0.0
  0
DIMENSION
  5
26FA1
330
747D
100
AcDbEntity
  8
寸法
100
AcDbDimension
  2
*D12
 10
7796.754300969086
 20
9282.059399274618
 30
0.0
 11
7696.754300969086
 21
9507.059399274618
 31
0.0
 70
    32
 71
     5
 42
449.9999999999963
  3
INABA_S40G
100
AcDbAlignedDimension
 13
7441.396575107062
 23
9827.277214943505
 33
0.0
 14
7441.396575107062
 24
9377.277214943509
 34
0.0
 50
90.0
100
AcDbRotatedDimension
1001
ACAD
1000
DSTYLE
1002
{
1002
}
  0
LINE
  5
26FA2
330
747D
100
AcDbEntity
  8
部品1
100
AcDbLine
 10
7413.396575107023
 20
9377.277214943509
 30
0.0
 11
7413.396575106983
 21
8197.77721494365
 31
0.0
  0
LINE
  5
26FA3
330
747D
100
AcDbEntity
  8
破線
 48
10.0
100
AcDbLine
 10
7389.896575107023
 20
9377.277214943509
 30
0.0
 11
7389.896575106982
 21
8197.777214943652
 31
0.0
  0
LINE
  5
26FA4
330
747D
100
AcDbEntity
  8
部品1
100
AcDbLine
 10
6994.896575107062
 20
9857.277214943527
 30
0.0
 11
6994.896575107062
 21
9829.277214943527
 31
0.0
  0
LINE
  5
26FB0
330
747D
100
AcDbEntity
  8
部品1
100
AcDbLine
 10
5314.896575107062
 20
9857.27721494341
 30
0.0
 11
5314.896575107062
 21
9829.27721494341
 31
0.0
  0
LINE
  5
26FB1
330
747D
100
AcDbEntity
  8
部品1
100
AcDbLine
 10
5314.896575107062
 20
9857.277214943295
 30
0.0
 11
5314.896575107062
 21
9829.277214943294
 31
0.0
  0
LINE
  5
26FB2
330
747D
100
AcDbEntity
  8
部品1
100
AcDbLine
 10
5314.896575107062
 20
9857.277214943295
 30
0.0
 11
5314.896575107062
 21
9829.277214943294
 31
0.0
  0
LINE
  5
26FB5
330
747D
100
AcDbEntity
  8
部品1
100
AcDbLine
 10
5957.396575107061
 20
9829.277214943523
 30
0.0
 11
7441.896575107062
 21
9829.277214943504
 31
0.0
  0
LINE
  5
26FB6
330
747D
100
AcDbEntity
  8
細線
 48
50.0
100
AcDbLine
 10
7441.396575107062
 20
9377.277214943509
 30
0.0
 11
5958.396575107062
 21
9827.277214943549
 31
0.0
  0
LINE
  5
26FB7
330
747D
100
AcDbEntity
  8
部品1
100
AcDbLine
 10
5958.396575107062
 20
9377.277214943516
 30
0.0
 11
7441.396575107062
 21
9377.277214943509
 31
0.0
  0
LINE
  5
26FB8
330
747D
100
AcDbEntity
  8
部品1
100
AcDbLine
 10
5958.396575107062
 20
9827.277214943515
 30
0.0
 11
7441.396575107062
 21
9827.277214943505
 31
0.0
  0
LINE
  5
26FB9
330
747D
100
AcDbEntity
  8
細線
 48
50.0
100
AcDbLine
 10
7441.396575107062
 20
9827.277214943505
 30
0.0
 11
5958.396575107062
 21
9377.277214943555
 31
0.0
  0
DIMENSION
  5
26FBA
330
747D
100
AcDbEntity
  8
寸法
100
AcDbDimension
  2
*D11
 10
7383.896281292763
 20
9162.683196978367
 30
0.0
 11
6479.920619403102
 21
9162.683196978367
 31
0.0
 70
   160
 71
     5
 42
1483.000000000011
  3
INABA_S40G
100
AcDbAlignedDimension
 13
5958.396575107062
 23
9377.277214943555
 33
0.0
 14
7441.396575107074
 24
9377.277214943509
 34
0.0
100
AcDbRotatedDimension
1001
ACAD
1000
DSTYLE
1002
{
1002
}
  0
LINE
  5
26FBB
330
747D
100
AcDbEntity
  8
破線
 48
10.0
100
AcDbLine
 10
7389.89657510698
 20
8221.277214943652
 30
0.0
 11
6697.396575106956
 21
8221.27721494362
 31
0.0
  0
DIMENSION
  5
26FBC
330
747D
100
AcDbEntity
  8
寸法
100
AcDbDimension
  2
*D10
 10
8117.322920841386
 20
8067.277214943482
 30
0.0
 11
8117.322920841386
 21
7689.415748038619
 31
0.0
 70
   160
 71
     5
 42
54.99999999999636
  3
INABA_S40G
100
AcDbAlignedDimension
 13
7469.896575106976
 23
8122.277214943478
 33
0.0
 14
7469.896575106976
 24
8067.277214943482
 34
0.0
 50
90.0
100
AcDbRotatedDimension
1001
ACAD
1000
DSTYLE
1002
{
1002
}
  0
LINE
  5
26FBD
330
747D
100
AcDbEntity
  8
部品1
100
AcDbLine
 10
4474.896575107026
 20
9857.277214943493
 30
0.0
 11
4474.896575107029
 21
9829.277214943495
 31
0.0
  0
LINE
  5
26FBE
330
747D
100
AcDbEntity
  8
部品1
100
AcDbLine
 10
4474.896575107062
 20
9857.277214943527
 30
0.0
 11
4474.896575107062
 21
9829.277214943527
 31
0.0
  0
LINE
  5
26FBF
330
747D
100
AcDbEntity
  8
部品1
100
AcDbLine
 10
4447.896575107029
 20
9802.277214943497
 30
0.0
 11
4419.896575107029
 21
9802.277214943497
 31
0.0
  0
LINE
  5
26FC0
330
747D
100
AcDbEntity
  8
部品1
100
AcDbLine
 10
4447.896575107036
 20
9382.277214943497
 30
0.0
 11
4419.896575107037
 21
9382.277214943497
 31
0.0
  0
LINE
  5
26FC1
330
747D
100
AcDbEntity
  8
部品1
 48
50.0
100
AcDbLine
 10
4448.39657510706
 20
9827.277214943293
 30
0.0
 11
4448.396575107062
 21
9377.277214943523
 31
0.0
  0
LINE
  5
26FC2
330
747D
100
AcDbEntity
  8
部品1
 48
50.0
100
AcDbLine
 10
4476.396575106991
 20
8197.777214943767
 30
0.0
 11
4447.896575106993
 21
8169.277214943772
 31
0.0
  0
LINE
  5
26FC3
330
747D
100
AcDbEntity
  8
部品1
100
AcDbLine
 10
4479.896575106974
 20
8067.277214943468
 30
0.0
 11
4419.896575106995
 21
8067.277214943468
 31
0.0
  0
LINE
  5
26FC4
330
747D
100
AcDbEntity
  8
部品1
100
AcDbLine
 10
4447.896575106976
 20
8122.277214943432
 30
0.0
 11
4419.896575106992
 21
8122.277214943432
 31
0.0
  0
LINE
  5
26FC5
330
747D
100
AcDbEntity
  8
部品1
100
AcDbLine
 10
4447.896575106976
 20
8122.277214943467
 30
0.0
 11
4419.896575106992
 21
8122.277214943467
 31
0.0
  0
LINE
  5
26FC6
330
747D
100
AcDbEntity
  8
部品1
100
AcDbLine
 10
4447.896575106993
 20
8122.277214943482
 30
0.0
 11
4419.896575106992
 21
8122.277214943482
 31
0.0
  0
LINE
  5
26FC7
330
747D
100
AcDbEntity
  8
部品1
100
AcDbLine
 10
4419.896575106992
 20
8122.277214943432
 30
0.0
 11
4419.896575106995
 21
8067.277214943436
 31
0.0
  0
LINE
  5
26FC8
330
747D
100
AcDbEntity
  8
部品1
100
AcDbLine
 10
4479.896575106993
 20
8074.277214943469
 30
0.0
 11
4479.89657510699
 21
8102.277214943596
 31
0.0
  0
LINE
  5
26FC9
330
747D
100
AcDbEntity
  8
部品1
100
AcDbLine
 10
4419.896575106939
 20
9857.277214943398
 30
0.0
 11
4419.896575106995
 21
8067.277214943468
 31
0.0
  0
LINE
  5
26FCA
330
747D
100
AcDbEntity
  8
部品1
100
AcDbLine
 10
4447.896575106976
 20
8122.277214943464
 30
0.0
 11
4447.896575107027
 21
9829.27721494341
 31
0.0
  0
LINE
  5
26FCB
330
747D
100
AcDbEntity
  8
部品1
100
AcDbLine
 10
4476.396575106952
 20
9377.277214943376
 30
0.0
 11
4476.39657510699
 21
8197.777214943542
 31
0.0
  0
LINE
  5
26FCC
330
747D
100
AcDbEntity
  8
破線
 48
10.0
100
AcDbLine
 10
4499.896575106941
 20
9377.277214943379
 30
0.0
 11
4499.896575106991
 21
8197.777214943542
 31
0.0
  0
LINE
  5
26FCD
330
747D
100
AcDbEntity
  8
部品1
100
AcDbLine
 10
4474.896575107062
 20
9829.27721494341
 30
0.0
 11
5722.396575107058
 21
9829.27721494341
 31
0.0
  0
LINE
  5
26FCE
330
747D
100
AcDbEntity
  8
部品1
100
AcDbLine
 10
7469.896575106976
 20
8067.277214943482
 30
0.0
 11
4479.896575106974
 21
8067.277214943375
 31
0.0
  0
LINE
  5
26FCF
330
747D
100
AcDbEntity
  8
部品1
100
AcDbLine
 10
4447.896575107062
 20
9829.27721494341
 30
0.0
 11
5932.39657510706
 21
9829.277214943413
 31
0.0
  0
LINE
  5
26FD0
330
747D
100
AcDbEntity
  8
部品1
100
AcDbLine
 10
4419.896575107025
 20
9857.277214943394
 30
0.0
 11
7469.896575107061
 21
9857.277214943504
 31
0.0
  0
LINE
  5
26FD1
330
747D
100
AcDbEntity
  8
部品1
100
AcDbLine
 10
4448.396575107062
 20
9377.277214943374
 30
0.0
 11
5931.396575107061
 21
9377.277214943497
 31
0.0
  0
LINE
  5
26FD2
330
747D
100
AcDbEntity
  8
細線
 48
50.0
100
AcDbLine
 10
5931.396575107061
 20
9827.277214943551
 30
0.0
 11
4448.396575107062
 21
9377.277214943294
 31
0.0
  0
LINE
  5
26FD3
330
747D
100
AcDbEntity
  8
部品1
100
AcDbLine
 10
4448.39657510706
 20
9827.277214943293
 30
0.0
 11
5931.396575107061
 21
9827.277214943418
 31
0.0
  0
LINE
  5
26FD4
330
747D
100
AcDbEntity
  8
細線
 48
50.0
100
AcDbLine
 10
5931.396575107061
 20
9377.277214943555
 30
0.0
 11
4448.39657510706
 21
9827.277214943293
 31
0.0
  0
LINE
  5
26FD5
330
747D
100
AcDbEntity
  8
部品1
100
AcDbLine
 10
7441.896575106977
 20
8169.277214943654
 30
0.0
 11
4447.896575106977
 21
8169.277214943537
 31
0.0
  0
LINE
  5
26FD6
330
747D
100
AcDbEntity
  8
破線
 48
10.0
100
AcDbLine
 10
6647.396575106959
 20
8221.277214943615
 30
0.0
 11
5969.896575106973
 21
8221.277214943592
 31
0.0
  0
LINE
  5
26FD7
330
747D
100
AcDbEntity
  8
部品1
100
AcDbLine
 10
7413.396575106979
 20
8197.777214943652
 30
0.0
 11
4476.396575106991
 21
8197.777214943542
 31
0.0
  0
DIMENSION
  5
26FD8
330
747D
100
AcDbEntity
  8
寸法
100
AcDbDimension
  2
*D9
 10
4474.896575107062
 20
10137.90424805226
 30
0.0
 11
4111.411293732786
 21
10137.90424805226
 31
0.0
 70
   160
 71
     5
 42
55.00000000003637
  3
INABA_S40G
100
AcDbAlignedDimension
 13
4419.896575107025
 23
9857.277214943527
 33
0.0
 14
4474.896575107062
 24
9857.277214943527
 34
0.0
100
AcDbRotatedDimension
1001
ACAD
1000
DSTYLE
1002
{
1002
}
  0
DIMENSION
  5
26FD9
330
747D
100
AcDbEntity
  8
寸法
100
AcDbDimension
  2
*D8
 10
8117.322920841472
 20
9802.277214943508
 30
0.0
 11
8117.322920841472
 21
10165.76249631774
 31
0.0
 70
   160
 71
     5
 42
54.99999999999636
  3
INABA_S40G
100
AcDbAlignedDimension
 13
7469.896575107061
 23
9857.277214943504
 33
0.0
 14
7469.896575107061
 24
9802.277214943508
 34
0.0
 50
90.0
100
AcDbRotatedDimension
1001
ACAD
1000
DSTYLE
1002
{
1002
}
  0
DIMENSION
  5
26FDA
330
747D
100
AcDbEntity
  8
寸法
100
AcDbDimension
  2
*D7
 10
7469.896575107061
 20
10137.90424805226
 30
0.0
 11
7778.381856481302
 21
10137.90424805226
 31
0.0
 70
   160
 71
     5
 42
55.0
  3
INABA_S40G
100
AcDbAlignedDimension
 13
7414.896575107062
 23
9857.277214943504
 33
0.0
 14
7469.896575107061
 24
9857.277214943504
 34
0.0
100
AcDbRotatedDimension
1001
ACAD
1000
DSTYLE
1002
{
1002
}
  0
DIMENSION
  5
26FDB
330
747D
100
AcDbEntity
  8
寸法
100
AcDbDimension
  2
*D6
 10
7414.896575107062
 20
10137.90424805226
 30
0.0
 11
5899.035897556311
 21
10137.90424805226
 31
0.0
 70
   160
  1
7X420=<>
 71
     5
 42
2940.0
  3
INABA_S40G
100
AcDbAlignedDimension
 13
4474.896575107062
 23
9857.277214943527
 33
0.0
 14
7414.896575107062
 24
9857.277214943504
 34
0.0
100
AcDbRotatedDimension
1001
ACAD
1000
DSTYLE
1002
{
1002
}
  0
DIMENSION
  5
26FDC
330
747D
100
AcDbEntity
  8
寸法
100
AcDbDimension
  2
*D5
 10
8460.846303484958
 20
8067.277214943482
 30
0.0
 11
8460.846303484956
 21
8918.797169492099
 31
0.0
 70
   160
 71
     5
 42
1790.000000000022
  3
INABA_S40G
100
AcDbAlignedDimension
 13
7469.896575107061
 23
9857.277214943504
 33
0.0
 14
7469.896575106976
 24
8067.277214943482
 34
0.0
 50
90.0
100
AcDbRotatedDimension
1001
ACAD
1000
DSTYLE
1002
{
1002
}
  0
LINE
  5
26FDE
330
747D
100
AcDbEntity
  8
細線
100
AcDbLine
 10
6689.408881756057
 20
8093.277214943459
 30
0.0
 11
5959.908881756053
 21
8093.277214943347
 31
0.0
  0
LINE
  5
26FDF
330
747D
100
AcDbEntity
  8
部品1
100
AcDbLine
 10
6460.408881756062
 20
8067.277214943201
 30
0.0
 11
6409.408881756061
 21
8067.277214943201
 31
0.0
  0
LINE
  5
26FE0
330
747D
100
AcDbEntity
  8
細線
100
AcDbLine
 10
5959.908881756053
 20
8100.277214943348
 30
0.0
 11
5959.908881756053
 21
8093.277214943347
 31
0.0
  0
LINE
  5
26FE1
330
747D
100
AcDbEntity
  8
細線
100
AcDbLine
 10
5959.908881756053
 20
8100.277214943348
 30
0.0
 11
5944.908881756053
 21
8100.277214943348
 31
0.0
  0
LINE
  5
26FE2
330
747D
100
AcDbEntity
  8
細線
100
AcDbLine
 10
7409.896608091999
 20
8106.277214943467
 30
0.0
 11
7356.408881756054
 21
8106.277214943473
 31
0.0
  0
LINE
  5
26FE3
330
747D
100
AcDbEntity
  8
細線
 48
50.0
100
AcDbLine
 10
7409.896575106976
 20
8083.277214943326
 30
0.0
 11
6704.408881756056
 21
8083.277214943327
 31
0.0
  0
LINE
  5
26FE4
330
747D
100
AcDbEntity
  8
細線
100
AcDbLine
 10
7441.896575106979
 20
8134.277214943463
 30
0.0
 11
6663.408881756055
 21
8134.277214943475
 31
0.0
  0
LINE
  5
26FE8
330
747D
100
AcDbEntity
  8
細線
100
AcDbLine
 10
7409.896608091997
 20
8102.277214943478
 30
0.0
 11
7409.896608091999
 21
8106.277214943469
 31
0.0
  0
LINE
  5
26FEA
330
747D
100
AcDbEntity
  8
細線
100
AcDbLine
 10
6986.908881756057
 20
8134.277214943468
 30
0.0
 11
6986.908881756054
 21
8106.277214943473
 31
0.0
  0
LINE
  5
26FEB
330
747D
100
AcDbEntity
  8
細線
100
AcDbLine
 10
6971.908881756056
 20
8134.277214943468
 30
0.0
 11
6956.908881756054
 21
8106.277214943473
 31
0.0
  0
LINE
  5
26FEC
330
747D
100
AcDbEntity
  8
細線
100
AcDbLine
 10
6329.408881755981
 20
8070.277214943413
 30
0.0
 11
6336.908881755986
 21
8093.277214943331
 31
0.0
  0
LINE
  5
26FED
330
747D
100
AcDbEntity
  8
細線
100
AcDbLine
 10
6389.40888175598
 20
8070.2772149434
 30
0.0
 11
6381.908881755986
 21
8093.277214943331
 31
0.0
  0
LINE
  5
26FEE
330
747D
100
AcDbEntity
  8
細線
100
AcDbLine
 10
5944.908881756053
 20
8100.277214943348
 30
0.0
 11
5944.908881756053
 21
8070.277214943351
 31
0.0
  0
LINE
  5
26FEF
330
747D
100
AcDbEntity
  8
細線
100
AcDbLine
 10
6604.408881756032
 20
8070.277214943383
 30
0.0
 11
6602.077343465282
 21
8075.27721494333
 31
0.0
  0
LINE
  5
26FF0
330
747D
100
AcDbEntity
  8
細線
100
AcDbLine
 10
6602.077343465282
 20
8075.27721494333
 30
0.0
 11
6536.740420046808
 21
8075.277214943318
 31
0.0
  0
LINE
  5
26FF1
330
747D
100
AcDbEntity
  8
細線
100
AcDbLine
 10
6534.408881756053
 20
8070.277214943319
 30
0.0
 11
6464.408881756053
 21
8070.27721494331
 31
0.0
  0
LINE
  5
26FF2
330
747D
100
AcDbEntity
  8
細線
100
AcDbLine
 10
6394.408881756056
 20
8070.277214943301
 30
0.0
 11
6324.408881756055
 21
8070.27721494329
 31
0.0
  0
LINE
  5
26FF3
330
747D
100
AcDbEntity
  8
細線
100
AcDbLine
 10
6254.408881756053
 20
8070.277214943395
 30
0.0
 11
5935.896575107003
 21
8070.277214943347
 31
0.0
  0
LINE
  5
26FF4
330
747D
100
AcDbEntity
  8
細線
100
AcDbLine
 10
6534.408881756054
 20
8070.277214943363
 30
0.0
 11
6536.740420046823
 21
8075.277214943348
 31
0.0
  0
LINE
  5
26FF5
330
747D
100
AcDbEntity
  8
細線
100
AcDbLine
 10
6462.07734346528
 20
8075.27721494331
 30
0.0
 11
6396.740420046807
 21
8075.277214943298
 31
0.0
  0
LINE
  5
26FF6
330
747D
100
AcDbEntity
  8
細線
100
AcDbLine
 10
6464.408881756047
 20
8070.277214943324
 30
0.0
 11
6462.07734346528
 21
8075.27721494331
 31
0.0
  0
LINE
  5
26FF7
330
747D
100
AcDbEntity
  8
細線
100
AcDbLine
 10
6394.408881756053
 20
8070.277214943343
 30
0.0
 11
6396.740420046821
 21
8075.277214943328
 31
0.0
  0
LINE
  5
26FF8
330
747D
100
AcDbEntity
  8
細線
100
AcDbLine
 10
6322.077343465282
 20
8075.277214943289
 30
0.0
 11
6256.740420046808
 21
8075.277214943278
 31
0.0
  0
LINE
  5
26FF9
330
747D
100
AcDbEntity
  8
細線
100
AcDbLine
 10
6324.408881756048
 20
8070.277214943304
 30
0.0
 11
6322.077343465281
 21
8075.277214943289
 31
0.0
  0
LINE
  5
26FFA
330
747D
100
AcDbEntity
  8
細線
100
AcDbLine
 10
6254.408881756053
 20
8070.277214943322
 30
0.0
 11
6256.740420046821
 21
8075.277214943309
 31
0.0
  0
LINE
  5
26FFB
330
747D
100
AcDbEntity
  8
細線
100
AcDbLine
 10
6101.408881756054
 20
8088.277214943373
 30
0.0
 11
6101.408881756054
 21
8070.277214943351
 31
0.0
  0
LINE
  5
26FFC
330
747D
100
AcDbEntity
  8
細線
100
AcDbLine
 10
6060.408881756053
 20
8088.277214943367
 30
0.0
 11
6060.408881756053
 21
8070.277214943351
 31
0.0
  0
LINE
  5
26FFD
330
747D
100
AcDbEntity
  8
細線
100
AcDbLine
 10
6101.408881756054
 20
8088.277214943373
 30
0.0
 11
6060.408881756053
 21
8088.277214943367
 31
0.0
  0
ARC
  5
26FFE
330
747D
100
AcDbEntity
  8
部品1
100
AcDbCircle
 10
6062.953037633331
 20
8069.777214943371
 30
0.0
 40
1.0
100
AcDbArc
 50
270.0
 51
19.47122063447127
  0
LINE
  5
26FFF
330
747D
100
AcDbEntity
  8
部品1
 48
0.01
100
AcDbLine
 10
6055.908881756048
 20
8070.277214943372
 30
0.0
 11
6055.908881756048
 21
8069.277214943371
 31
0.0
  0
LINE
  5
27000
330
747D
100
AcDbEntity
  8
部品1
 48
0.01
100
AcDbLine
 10
6056.408881756048
 20
8068.777214943372
 30
0.0
 11
6062.953037633331
 21
8068.777214943372
 31
0.0
  0
ARC
  5
27001
330
747D
100
AcDbEntity
  8
部品1
 48
0.01
100
AcDbCircle
 10
6056.408881756048
 20
8069.277214943371
 30
0.0
 40
0.5
100
AcDbArc
 50
180.0
 51
270.0
  0
ARC
  5
27002
330
747D
100
AcDbEntity
  8
部品1
100
AcDbCircle
 10
6088.408881756048
 20
8078.777214943372
 30
0.0
 40
26.0
100
AcDbArc
 50
180.0
 51
199.4712206344713
  0
ARC
  5
27003
330
747D
100
AcDbEntity
  8
部品1
 48
0.01
100
AcDbCircle
 10
6064.408881756047
 20
8083.777214943372
 30
0.0
 40
2.0
100
AcDbArc
 50
90.0
 51
180.0
  0
LINE
  5
27004
330
747D
100
AcDbEntity
  8
部品1
100
AcDbLine
 10
6062.408881756048
 20
8078.777214943372
 30
0.0
 11
6062.408881756048
 21
8083.777214943372
 31
0.0
  0
ARC
  5
27005
330
747D
100
AcDbEntity
  8
部品1
100
AcDbCircle
 10
6080.908881756048
 20
8094.57721494337
 30
0.0
 40
16.0
100
AcDbArc
 50
218.3930440192126
 51
254.0576313943716
  0
ARC
  5
27006
330
747D
100
AcDbEntity
  8
部品1
100
AcDbCircle
 10
6066.017273380859
 20
8082.777214943371
 30
0.0
 40
3.0
100
AcDbArc
 50
38.39304401921267
 51
90.0
  0
LINE
  5
27007
330
747D
100
AcDbEntity
  8
部品1
 48
0.01
100
AcDbLine
 10
6064.408881756047
 20
8085.777214943371
 30
0.0
 11
6066.017273380859
 21
8085.777214943371
 31
0.0
  0
ARC
  5
27008
330
747D
100
AcDbEntity
  8
部品1
100
AcDbCircle
 10
6080.908881756048
 20
8094.57721494337
 30
0.0
 40
16.0
100
AcDbArc
 50
285.9423686056284
 51
321.6069559807873
  0
LINE
  5
27009
330
747D
100
AcDbEntity
  8
部品1
100
AcDbLine
 10
6084.479595970319
 20
8079.077214943371
 30
0.0
 11
6077.338167541775
 21
8079.077214943371
 31
0.0
  0
ARC
  5
2700A
330
747D
100
AcDbEntity
  8
部品1
100
AcDbCircle
 10
6084.479595970319
 20
8082.077214943371
 30
0.0
 40
3.0
100
AcDbArc
 50
270.0
 51
285.9423686056284
  0
ARC
  5
2700B
330
747D
100
AcDbEntity
  8
部品1
100
AcDbCircle
 10
6077.338167541775
 20
8082.077214943371
 30
0.0
 40
3.0
100
AcDbArc
 50
254.0576313943716
 51
270.0
  0
LINE
  5
2700C
330
747D
100
AcDbEntity
  8
部品1
 48
0.01
100
AcDbLine
 10
6097.408881756048
 20
8085.777214943371
 30
0.0
 11
6095.800490131236
 21
8085.777214943371
 31
0.0
  0
ARC
  5
2700D
330
747D
100
AcDbEntity
  8
部品1
100
AcDbCircle
 10
6095.800490131236
 20
8082.777214943371
 30
0.0
 40
3.0
100
AcDbArc
 50
90.0
 51
141.6069559807873
  0
ARC
  5
2700E
330
747D
100
AcDbEntity
  8
部品1
 48
0.01
100
AcDbCircle
 10
6097.408881756048
 20
8083.777214943372
 30
0.0
 40
2.0
100
AcDbArc
 50
0.0
 51
90.0
  0
LINE
  5
2700F
330
747D
100
AcDbEntity
  8
部品1
100
AcDbLine
 10
6099.408881756048
 20
8078.777214943372
 30
0.0
 11
6099.408881756048
 21
8083.777214943372
 31
0.0
  0
ARC
  5
27010
330
747D
100
AcDbEntity
  8
部品1
100
AcDbCircle
 10
6073.408881756048
 20
8078.777214943372
 30
0.0
 40
26.0
100
AcDbArc
 50
340.5287793655287
 51
0.0
  0
ARC
  5
27011
330
747D
100
AcDbEntity
  8
部品1
100
AcDbCircle
 10
6098.864725878762
 20
8069.777214943371
 30
0.0
 40
1.0
100
AcDbArc
 50
160.5287793655287
 51
270.0
  0
LINE
  5
27012
330
747D
100
AcDbEntity
  8
部品1
 48
0.01
100
AcDbLine
 10
6105.408881756048
 20
8068.777214943372
 30
0.0
 11
6098.796376325985
 21
8068.777214943372
 31
0.0
  0
LINE
  5
27013
330
747D
100
AcDbEntity
  8
部品1
 48
0.01
100
AcDbLine
 10
6105.908881756048
 20
8070.277214943372
 30
0.0
 11
6105.908881756048
 21
8069.277214943371
 31
0.0
  0
LINE
  5
27014
330
747D
100
AcDbEntity
  8
部品1
 48
0.01
100
AcDbLine
 10
6105.908881756048
 20
8070.277214943372
 30
0.0
 11
6105.908881756048
 21
8069.277214943371
 31
0.0
  0
ARC
  5
27015
330
747D
100
AcDbEntity
  8
部品1
 48
0.01
100
AcDbCircle
 10
6105.408881756048
 20
8069.277214943371
 30
0.0
 40
0.5
100
AcDbArc
 50
270.0
 51
0.0
  0
LINE
  5
27016
330
747D
100
AcDbEntity
  8
細線
100
AcDbLine
 10
7216.408881756045
 20
8106.27721494348
 30
0.0
 11
7214.077343465278
 21
8111.277214943466
 31
0.0
  0
LINE
  5
27017
330
747D
100
AcDbEntity
  8
細線
100
AcDbLine
 10
7214.07734346528
 20
8111.277214943466
 30
0.0
 11
7148.740420046805
 21
8111.277214943454
 31
0.0
  0
LINE
  5
27018
330
747D
100
AcDbEntity
  8
細線
100
AcDbLine
 10
7146.408881756052
 20
8106.277214943499
 30
0.0
 11
7148.740420046819
 21
8111.277214943484
 31
0.0
  0
LINE
  5
27019
330
747D
100
AcDbEntity
  8
細線
100
AcDbLine
 10
7074.077343465278
 20
8111.277214943447
 30
0.0
 11
7008.740420046804
 21
8111.277214943434
 31
0.0
  0
LINE
  5
2701A
330
747D
100
AcDbEntity
  8
細線
100
AcDbLine
 10
7076.408881756044
 20
8106.27721494346
 30
0.0
 11
7074.077343465276
 21
8111.277214943447
 31
0.0
  0
LINE
  5
2701B
330
747D
100
AcDbEntity
  8
細線
100
AcDbLine
 10
7006.40888175605
 20
8106.27721494348
 30
0.0
 11
7008.740420046817
 21
8111.277214943465
 31
0.0
  0
LINE
  5
2701C
330
747D
100
AcDbEntity
  8
細線
100
AcDbLine
 10
6934.077343465279
 20
8111.277214943426
 30
0.0
 11
6868.740420046805
 21
8111.277214943415
 31
0.0
  0
LINE
  5
2701D
330
747D
100
AcDbEntity
  8
細線
100
AcDbLine
 10
6936.408881756046
 20
8106.277214943441
 30
0.0
 11
6934.077343465277
 21
8111.277214943426
 31
0.0
  0
LINE
  5
2701E
330
747D
100
AcDbEntity
  8
細線
100
AcDbLine
 10
6866.408881756055
 20
8106.277214943473
 30
0.0
 11
6868.740420046818
 21
8111.277214943445
 31
0.0
  0
LINE
  5
2701F
330
747D
100
AcDbEntity
  8
細線
100
AcDbLine
 10
7146.408881756038
 20
8106.277214943467
 30
0.0
 11
7076.408881756039
 21
8106.277214943467
 31
0.0
  0
LINE
  5
27020
330
747D
100
AcDbEntity
  8
細線
100
AcDbLine
 10
7006.408881756044
 20
8106.277214943467
 30
0.0
 11
6936.408881756033
 21
8106.277214943467
 31
0.0
  0
LINE
  5
27021
330
747D
100
AcDbEntity
  8
細線
100
AcDbLine
 10
6866.408881756055
 20
8106.277214943473
 30
0.0
 11
6796.404881756053
 21
8106.277214943473
 31
0.0
  0
LINE
  5
27022
330
747D
100
AcDbEntity
  8
細線
100
AcDbLine
 10
6704.408881756053
 20
8070.277214943395
 30
0.0
 11
6604.408881756032
 21
8070.277214943383
 31
0.0
  0
LINE
  5
27023
330
747D
100
AcDbEntity
  8
細線
100
AcDbLine
 10
7286.40888175604
 20
8106.277214943489
 30
0.0
 11
7216.408881756041
 21
8106.277214943489
 31
0.0
  0
LINE
  5
27024
330
747D
100
AcDbEntity
  8
細線
100
AcDbLine
 10
7286.408881756052
 20
8106.277214943519
 30
0.0
 11
7288.740420046821
 21
8111.277214943504
 31
0.0
  0
LINE
  5
27025
330
747D
100
AcDbEntity
  8
細線
100
AcDbLine
 10
7354.077343465281
 20
8111.277214943486
 30
0.0
 11
7288.740420046806
 21
8111.277214943475
 31
0.0
  0
LINE
  5
27026
330
747D
100
AcDbEntity
  8
細線
100
AcDbLine
 10
7356.408881756047
 20
8106.277214943501
 30
0.0
 11
7354.077343465281
 21
8111.277214943486
 31
0.0
  0
ARC
  5
27027
330
747D
100
AcDbEntity
  8
細線
100
AcDbCircle
 10
6359.408888255956
 20
8095.777214943302
 30
0.0
 40
6.0
100
AcDbArc
 50
204.6243183521779
 51
335.3756816478222
  0
LINE
  5
27028
330
747D
100
AcDbEntity
  8
細線
100
AcDbLine
 10
6704.408881756053
 20
8070.277214943322
 30
0.0
 11
6704.408881756062
 21
8100.277214943323
 31
0.0
  0
LINE
  5
27029
330
747D
100
AcDbEntity
  8
細線
100
AcDbLine
 10
6704.40888175606
 20
8100.277214943323
 30
0.0
 11
6689.408881756058
 21
8100.277214943318
 31
0.0
  0
LINE
  5
2702A
330
747D
100
AcDbEntity
  8
細線
100
AcDbLine
 10
6689.408881756057
 20
8093.277214943318
 30
0.0
 11
6689.408881756058
 21
8100.277214943318
 31
0.0
  0
LINE
  5
273BC
330
747D
100
AcDbEntity
  8
部品1
100
AcDbLine
 10
6154.896575107062
 20
9857.277214943566
 30
0.0
 11
6154.896575107062
 21
9829.277214943566
 31
0.0
  0
LINE
  5
273F8
330
747D
100
AcDbEntity
  8
部品1
 48
50.0
100
AcDbLine
 10
5931.396575107061
 20
9827.277214943551
 30
0.0
 11
5931.396575107061
 21
9377.277214943555
 31
0.0
  0
LINE
  5
273F9
330
747D
100
AcDbEntity
  8
部品1
 48
50.0
100
AcDbLine
 10
5958.396575107062
 20
9827.277214943549
 30
0.0
 11
5958.396575107062
 21
9377.277214943555
 31
0.0
  0
LINE
  5
273FA
330
747D
100
AcDbEntity
  8
部品1
 48
50.0
100
AcDbLine
 10
5932.39657510706
 20
9829.277214943569
 30
0.0
 11
5932.396575107062
 21
9377.277214943555
 31
0.0
  0
LINE
  5
273FB
330
747D
100
AcDbEntity
  8
部品1
 48
50.0
100
AcDbLine
 10
5957.396575107061
 20
9829.277214943555
 30
0.0
 11
5957.396575107061
 21
9377.277214943555
 31
0.0
  0
LINE
  5
273FC
330
747D
100
AcDbEntity
  8
部品1
100
AcDbLine
 10
5932.396575107062
 20
9377.277214943555
 30
0.0
 11
5957.396575107061
 21
9377.277214943555
 31
0.0
  0
LINE
  5
273FD
330
747D
100
AcDbEntity
  8
部品1
100
AcDbLine
 10
5909.896575107062
 20
9847.277214943552
 30
0.0
 11
5909.896575107062
 21
9829.277214943552
 31
0.0
  0
LINE
  5
273FE
330
747D
100
AcDbEntity
  8
部品1
100
AcDbLine
 10
5909.896575107062
 20
9847.277214943552
 30
0.0
 11
5915.896575107062
 21
9847.277214943552
 31
0.0
  0
LINE
  5
273FF
330
747D
100
AcDbEntity
  8
部品1
100
AcDbLine
 10
5979.896575107062
 20
9847.277214943552
 30
0.0
 11
5979.896575107062
 21
9829.277214943552
 31
0.0
  0
LINE
  5
27400
330
747D
100
AcDbEntity
  8
部品1
100
AcDbLine
 10
5973.896575107062
 20
9847.277214943552
 30
0.0
 11
5979.896575107062
 21
9847.277214943552
 31
0.0
  0
LINE
  5
27401
330
747D
100
AcDbEntity
  8
部品1
100
AcDbLine
 10
5932.396575107062
 20
9821.277214943549
 30
0.0
 11
5957.396575107061
 21
9821.277214943552
 31
0.0
  0
LINE
  5
27406
330
747D
100
AcDbEntity
  8
部品1
100
AcDbLine
 10
5734.896575107062
 20
9857.277214943605
 30
0.0
 11
5734.896575107062
 21
9829.277214943605
 31
0.0
  0
LINE
  5
275AD
330
747D
100
AcDbEntity
  8
細線
100
AcDbLine
 10
5194.384268457916
 20
8105.57721494335
 30
0.0
 11
5194.384268457916
 21
8106.27721494335
 31
0.0
  0
ARC
  5
275AE
330
747D
100
AcDbEntity
  8
細線
100
AcDbCircle
 10
5196.384268457918
 20
8105.57721494335
 30
0.0
 40
2.0
100
AcDbArc
 50
180.0
 51
270.0
  0
LINE
  5
275AF
330
747D
100
AcDbEntity
  8
細線
100
AcDbLine
 10
5198.384268457916
 20
8103.577214943349
 30
0.0
 11
5196.384268457916
 21
8103.577214943349
 31
0.0
  0
LINE
  5
275B0
330
747D
100
AcDbEntity
  8
細線
100
AcDbLine
 10
5200.384268457916
 20
8105.57721494335
 30
0.0
 11
5200.384268457916
 21
8106.27721494335
 31
0.0
  0
ARC
  5
275B1
330
747D
100
AcDbEntity
  8
細線
100
AcDbCircle
 10
5198.384268457918
 20
8105.57721494335
 30
0.0
 40
2.0
100
AcDbArc
 50
270.0
 51
0.000000000000007
  0
LINE
  5
275B2
330
747D
100
AcDbEntity
  8
細線
100
AcDbLine
 10
5200.384268457916
 20
8106.27721494335
 30
0.0
 11
5206.384268457918
 21
8106.27721494335
 31
0.0
  0
LINE
  5
275B3
330
747D
100
AcDbEntity
  8
細線
100
AcDbLine
 10
5226.384268457917
 20
8098.277214943349
 30
0.0
 11
5226.384268457917
 21
8134.277214943356
 31
0.0
  0
LINE
  5
275B4
330
747D
100
AcDbEntity
  8
細線
100
AcDbLine
 10
5206.384268457918
 20
8098.277214943349
 30
0.0
 11
5226.384268457917
 21
8098.277214943349
 31
0.0
  0
LINE
  5
275B5
330
747D
100
AcDbEntity
  8
細線
100
AcDbLine
 10
5206.384268457918
 20
8098.277214943349
 30
0.0
 11
5206.384268457918
 21
8106.27721494335
 31
0.0
  0
LINE
  5
27944
330
747D
100
AcDbEntity
  8
細線
100
AcDbLine
 10
5163.388268458032
 20
8106.277214943355
 30
0.0
 11
5194.384268457916
 21
8106.277214943355
 31
0.0
  0
LINE
  5
27945
330
747D
100
AcDbEntity
  8
細線
100
AcDbLine
 10
5093.388268457919
 20
8106.27721494359
 30
0.0
 11
5095.719806748686
 21
8111.277214943575
 31
0.0
  0
LINE
  5
27946
330
747D
100
AcDbEntity
  8
細線
100
AcDbLine
 10
5163.388268457907
 20
8106.277214943622
 30
0.0
 11
5161.056730167145
 21
8111.277214943594
 31
0.0
  0
LINE
  5
27947
330
747D
100
AcDbEntity
  8
細線
100
AcDbLine
 10
5095.719806748686
 20
8111.277214943575
 30
0.0
 11
5161.056730167158
 21
8111.277214943564
 31
0.0
  0
LINE
  5
27AEE
330
747D
100
AcDbEntity
  8
細線
100
AcDbLine
 10
6683.408881756055
 20
8098.277214943324
 30
0.0
 11
6663.408881756055
 21
8098.277214943324
 31
0.0
  0
LINE
  5
27AEF
330
747D
100
AcDbEntity
  8
細線
100
AcDbLine
 10
6663.408881756055
 20
8098.277214943324
 30
0.0
 11
6663.408881756055
 21
8134.277214943329
 31
0.0
  0
LINE
  5
27AF0
330
747D
100
AcDbEntity
  8
細線
100
AcDbLine
 10
6683.408881756055
 20
8098.277214943324
 30
0.0
 11
6683.408881756055
 21
8106.277214943323
 31
0.0
  0
LINE
  5
27AF1
330
747D
100
AcDbEntity
  8
細線
100
AcDbLine
 10
6689.408881756055
 20
8106.277214943323
 30
0.0
 11
6683.408881756055
 21
8106.277214943323
 31
0.0
  0
ARC
  5
27AF2
330
747D
100
AcDbEntity
  8
細線
100
AcDbCircle
 10
6691.408881756055
 20
8105.577214943323
 30
0.0
 40
2.0
100
AcDbArc
 50
180.0
 51
270.0
  0
LINE
  5
27AF3
330
747D
100
AcDbEntity
  8
細線
100
AcDbLine
 10
6689.408881756055
 20
8105.577214943323
 30
0.0
 11
6689.408881756055
 21
8106.277214943323
 31
0.0
  0
LINE
  5
27AF4
330
747D
100
AcDbEntity
  8
細線
100
AcDbLine
 10
6691.408881756055
 20
8103.577214943323
 30
0.0
 11
6693.408881756055
 21
8103.577214943323
 31
0.0
  0
ARC
  5
27AF5
330
747D
100
AcDbEntity
  8
細線
100
AcDbCircle
 10
6693.408881756055
 20
8105.577214943323
 30
0.0
 40
2.0
100
AcDbArc
 50
270.0
 51
0.0
  0
LINE
  5
27AF6
330
747D
100
AcDbEntity
  8
細線
100
AcDbLine
 10
6695.408881756055
 20
8105.577214943323
 30
0.0
 11
6695.408881756055
 21
8106.277214943323
 31
0.0
  0
LINE
  5
27AF7
330
747D
100
AcDbEntity
  8
細線
100
AcDbLine
 10
6678.408881756055
 20
8134.277214943324
 30
0.0
 11
6678.408881756055
 21
8128.920243541291
 31
0.0
  0
LINE
  5
27B70
330
747D
100
AcDbEntity
  8
細線
100
AcDbLine
 10
6726.404881756055
 20
8106.277214943473
 30
0.0
 11
6728.736420046818
 21
8111.277214943445
 31
0.0
  0
LINE
  5
27B71
330
747D
100
AcDbEntity
  8
細線
100
AcDbLine
 10
6796.404881756044
 20
8106.277214943441
 30
0.0
 11
6794.073343465277
 21
8111.277214943426
 31
0.0
  0
LINE
  5
27B72
330
747D
100
AcDbEntity
  8
細線
100
AcDbLine
 10
6794.073343465277
 20
8111.277214943426
 30
0.0
 11
6728.736420046804
 21
8111.277214943415
 31
0.0
  0
LINE
  5
27B73
330
747D
100
AcDbEntity
  8
細線
100
AcDbLine
 10
6726.404881756055
 20
8106.277214943473
 30
0.0
 11
6695.408881756055
 21
8106.277214943323
 31
0.0
  0
DIMENSION
  5
285A3
330
747D
100
AcDbEntity
  8
寸法
100
AcDbDimension
  2
*D15
 10
5247.396608092028
 20
7512.579643168752
 30
0.0
 11
5923.898055825319
 21
7512.579643168752
 31
0.0
 70
   160
  1
有効開口部間口\P<>
 71
     5
 42
1307.0
  3
INABA_S40G
100
AcDbAlignedDimension
 13
6554.396608092028
 23
8067.27721494345
 33
0.0
 14
5247.396608092028
 24
8067.277214943338
 34
0.0
100
AcDbRotatedDimension
1001
ACAD
1000
DSTYLE
1002
{
1002
}
  0
LINE
  5
285A4
330
747D
100
AcDbEntity
  8
寸法
 48
50.0
100
AcDbLine
 10
5627.812080714773
 20
7997.604812556859
 30
0.0
 11
5717.096299310194
 21
8021.528446826348
 31
0.0
  0
LINE
  5
285A5
330
747D
100
AcDbEntity
  8
寸法
 48
50.0
100
AcDbLine
 10
5717.096299310194
 20
8021.528446826348
 30
0.0
 11
5717.096299310194
 21
7967.864812244555
 31
0.0
  0
LINE
  5
285A6
330
747D
100
AcDbEntity
  8
寸法
 48
50.0
100
AcDbLine
 10
5846.964020890498
 20
7997.604812556859
 30
0.0
 11
5627.812080714773
 21
7997.604812556859
 31
0.0
  0
LINE
  5
285A7
330
747D
100
AcDbEntity
  8
寸法
 48
50.0
100
AcDbLine
 10
6174.164709243241
 20
8021.528446826348
 30
0.0
 11
6174.164709243241
 21
7967.864812244555
 31
0.0
  0
LINE
  5
285A8
330
747D
100
AcDbEntity
  8
寸法
 48
50.0
100
AcDbLine
 10
6263.448927838662
 20
7997.604812556859
 30
0.0
 11
6174.164709243241
 21
8021.528446826348
 31
0.0
  0
LINE
  5
285A9
330
747D
100
AcDbEntity
  8
寸法
 48
50.0
100
AcDbLine
 10
5919.927500321666
 20
7964.382856071523
 30
0.0
 11
5971.333508231769
 21
7964.382856071523
 31
0.0
  0
LINE
  5
285AA
330
747D
100
AcDbEntity
  8
寸法
 48
50.0
100
AcDbLine
 10
5971.333508231769
 20
7964.382856071523
 30
0.0
 11
5971.333508231769
 21
7995.693014723689
 31
0.0
  0
LINE
  5
285AB
330
747D
100
AcDbEntity
  8
寸法
 48
50.0
100
AcDbLine
 10
5971.333508231769
 20
7995.693014723689
 30
0.0
 11
6001.094840223192
 21
7995.693014723689
 31
0.0
  0
LINE
  5
285AC
330
747D
100
AcDbEntity
  8
寸法
 48
50.0
100
AcDbLine
 10
6001.094840223192
 20
7995.693014723689
 30
0.0
 11
5945.630504276717
 21
8033.272465652302
 31
0.0
  0
LINE
  5
285AD
330
747D
100
AcDbEntity
  8
寸法
 48
50.0
100
AcDbLine
 10
5919.927500321666
 20
7964.382856071523
 30
0.0
 11
5919.927500321666
 21
7995.693014723689
 31
0.0
  0
LINE
  5
285AE
330
747D
100
AcDbEntity
  8
寸法
 48
50.0
100
AcDbLine
 10
5971.333508231769
 20
7964.382856071523
 30
0.0
 11
5919.927500321666
 21
7964.382856071523
 31
0.0
  0
LINE
  5
285AF
330
747D
100
AcDbEntity
  8
寸法
 48
50.0
100
AcDbLine
 10
5890.166168330242
 20
7995.693014723689
 30
0.0
 11
5945.630504276717
 21
8033.272465652302
 31
0.0
  0
LINE
  5
285B0
330
747D
100
AcDbEntity
  8
寸法
 48
50.0
100
AcDbLine
 10
5919.927500321666
 20
7995.693014723689
 30
0.0
 11
5890.166168330242
 21
7995.693014723689
 31
0.0
  0
LINE
  5
285B1
330
747D
100
AcDbEntity
  8
寸法
 48
50.0
100
AcDbLine
 10
6044.296987662937
 20
7997.604812556859
 30
0.0
 11
6263.448927838662
 21
7997.604812556859
 31
0.0
  0
DIMENSION
  5
285E3
330
747D
100
AcDbEntity
  8
寸法
100
AcDbDimension
  2
*D16
 10
7469.896575106976
 20
7278.771106386511
 30
0.0
 11
5982.237605261918
 21
7278.771106386511
 31
0.0
 70
   160
 71
     5
 42
3049.999999999982
  3
INABA_S40G
100
AcDbAlignedDimension
 13
4419.896575106995
 23
8067.277214943468
 33
0.0
 14
7469.896575106976
 24
8067.277214943482
 34
0.0
100
AcDbRotatedDimension
1001
ACAD
1000
DSTYLE
1002
{
1002
}
  0
LINE
  5
289C7
330
747D
100
AcDbEntity
  8
細線
100
AcDbLine
 10
4673.388268458031
 20
5232.000000000003
 30
0.0
 11
4673.38826845803
 21
3156.500000000012
 31
0.0
  0
LINE
  5
289C8
330
747D
100
AcDbEntity
  8
細線
100
AcDbLine
 10
4603.38826845803
 20
5232.000000000003
 30
0.0
 11
4603.38826845803
 21
3156.500000000012
 31
0.0
  0
LINE
  5
289C9
330
747D
100
AcDbEntity
  8
細線
100
AcDbLine
 10
4533.38826845803
 20
5232.000000000003
 30
0.0
 11
4533.38826845803
 21
3156.500000000012
 31
0.0
  0
LINE
  5
289CD
330
747D
100
AcDbEntity
  8
細線
100
AcDbLine
 10
7286.404881756053
 20
5232.0
 30
0.0
 11
7286.404881756054
 21
3156.500000000021
 31
0.0
  0
LINE
  5
289CE
330
747D
100
AcDbEntity
  8
細線
100
AcDbLine
 10
7356.404881756053
 20
5232.0
 30
0.0
 11
7356.404881756055
 21
3156.500000000021
 31
0.0
  0
LINE
  5
291EE
330
747D
100
AcDbEntity
  8
部品1
 48
50.0
100
AcDbLine
 10
5944.896575106978
 20
9377.277214943555
 30
0.0
 11
5944.896575107012
 21
8197.777214943597
 31
0.0
  0
LINE
  5
291EF
330
747D
100
AcDbEntity
  8
破線
 48
10.0
100
AcDbLine
 10
5919.896575106975
 20
8197.777214943595
 30
0.0
 11
5919.896575106978
 21
9377.277214943498
 31
0.0
  0
LINE
  5
291F0
330
747D
100
AcDbEntity
  8
破線
 48
10.0
100
AcDbLine
 10
5969.896575106975
 20
8197.777214943597
 30
0.0
 11
5969.896575106979
 21
9377.277214943516
 31
0.0
  0
LINE
  5
291F1
330
747D
100
AcDbEntity
  8
破線
 48
10.0
100
AcDbLine
 10
6647.396575106959
 20
8197.777214943622
 30
0.0
 11
6647.396575106959
 21
9377.277214943513
 31
0.0
  0
LINE
  5
291F2
330
747D
100
AcDbEntity
  8
破線
 48
10.0
100
AcDbLine
 10
6697.396575106956
 20
8197.777214943625
 30
0.0
 11
6697.396575106958
 21
9377.277214943511
 31
0.0
  0
LINE
  5
291F3
330
747D
100
AcDbEntity
  8
破線
 48
10.0
100
AcDbLine
 10
5192.396575106959
 20
8197.777214943569
 30
0.0
 11
5192.396575106958
 21
9377.277214943434
 31
0.0
  0
LINE
  5
291F4
330
747D
100
AcDbEntity
  8
破線
 48
10.0
100
AcDbLine
 10
5242.396575106955
 20
8197.777214943572
 30
0.0
 11
5242.396575106963
 21
9377.27721494344
 31
0.0
  0
LINE
  5
291F5
330
747D
100
AcDbEntity
  8
破線
 48
10.0
100
AcDbLine
 10
5919.896575106941
 20
8221.277214943619
 30
0.0
 11
5242.396575106957
 21
8221.277214943595
 31
0.0
  0
LINE
  5
292D8
330
747D
100
AcDbEntity
  8
部品1
 48
50.0
100
AcDbLine
 10
6571.896575106983
 20
3100.0
 30
0.0
 11
6571.896575106983
 21
3000.0
 31
0.0
  0
LINE
  5
292D9
330
747D
100
AcDbEntity
  8
部品1
 48
50.0
100
AcDbLine
 10
6771.896575106983
 20
3100.0
 30
0.0
 11
6771.896575106983
 21
3000.0
 31
0.0
  0
LINE
  5
292DA
330
747D
100
AcDbEntity
  8
部品1
 48
50.0
100
AcDbLine
 10
5317.896575106982
 20
3100.0
 30
0.0
 11
5317.896575106982
 21
3000.0
 31
0.0
  0
LINE
  5
292DB
330
747D
100
AcDbEntity
  8
部品1
 48
50.0
100
AcDbLine
 10
5117.896575106982
 20
3100.0
 30
0.0
 11
5117.896575106982
 21
3000.0
 31
0.0
  0
LINE
  5
292DC
330
747D
100
AcDbEntity
  8
部品1
 48
50.0
100
AcDbLine
 10
5844.896575106982
 20
3100.0
 30
0.0
 11
5844.896575106982
 21
3000.0
 31
0.0
  0
LINE
  5
292DD
330
747D
100
AcDbEntity
  8
部品1
 48
50.0
100
AcDbLine
 10
6044.896575106982
 20
3100.0
 30
0.0
 11
6044.896575106982
 21
3000.0
 31
0.0
  0
TEXT
  5
29DF7
330
747D
100
AcDbEntity
  8
文字
 62
     7
 48
50.0
100
AcDbText
 10
13583.11819016568
 20
8720.013745883729
 30
0.0
 40
100.0
  1
アンカープレート
  7
STYLE1
100
AcDbText
  0
TEXT
  5
29DF8
330
747D
100
AcDbEntity
  8
文字
 62
     7
 48
50.0
100
AcDbText
 10
15022.63965474515
 20
8720.013745883724
 30
0.0
 40
100.0
  1
F12            2.3
  7
STYLE1
100
AcDbText
  0
LINE
  5
29DF9
330
747D
100
AcDbEntity
  8
仕様書枠
 48
50.0
100
AcDbLine
 10
16307.2
 20
10049.6
 30
0.0
 11
13127.2
 21
10049.6
 31
0.0
  0
LINE
  5
29DFA
330
747D
100
AcDbEntity
  8
仕様書枠
 48
50.0
100
AcDbLine
 10
16307.2
 20
11409.6
 30
0.0
 11
13127.2
 21
11409.6
 31
0.0
  0
LINE
  5
29DFB
330
747D
100
AcDbEntity
  8
仕様書枠
 48
50.0
100
AcDbLine
 10
16307.19999999999
 20
8349.600000000004
 30
0.0
 11
16307.2
 21
11409.6
 31
0.0
  0
LINE
  5
29DFC
330
747D
100
AcDbEntity
  8
仕様書枠
 48
50.0
100
AcDbLine
 10
14785.2
 20
11409.6
 30
0.0
 11
14785.2
 21
8689.600000000007
 31
0.0
  0
LINE
  5
29DFD
330
747D
100
AcDbEntity
  8
仕様書枠
 48
50.0
100
AcDbLine
 10
13490.2
 20
11409.6
 30
0.0
 11
13490.20000000001
 21
8689.600000000005
 31
0.0
  0
LINE
  5
29DFE
330
747D
100
AcDbEntity
  8
仕様書枠
 48
50.0
100
AcDbLine
 10
16307.2
 20
11239.6
 30
0.0
 11
13127.2
 21
11239.6
 31
0.0
  0
LINE
  5
29DFF
330
747D
100
AcDbEntity
  8
仕様書枠
 48
50.0
100
AcDbLine
 10
16307.2
 20
10899.6
 30
0.0
 11
13127.2
 21
10899.6
 31
0.0
  0
LINE
  5
29E00
330
747D
100
AcDbEntity
  8
仕様書枠
 48
50.0
100
AcDbLine
 10
16307.2
 20
11069.6
 30
0.0
 11
13127.2
 21
11069.6
 31
0.0
  0
LINE
  5
29E01
330
747D
100
AcDbEntity
  8
仕様書枠
 48
50.0
100
AcDbLine
 10
16307.19999999999
 20
10559.6
 30
0.0
 11
13127.2
 21
10559.6
 31
0.0
  0
LINE
  5
29E02
330
747D
100
AcDbEntity
  8
仕様書枠
 48
50.0
100
AcDbLine
 10
16307.19999999999
 20
10389.6
 30
0.0
 11
13127.2
 21
10389.6
 31
0.0
  0
LINE
  5
29E03
330
747D
100
AcDbEntity
  8
仕様書枠
 48
50.0
100
AcDbLine
 10
16307.19999999999
 20
10729.6
 30
0.0
 11
13127.2
 21
10729.6
 31
0.0
  0
TEXT
  5
29E04
330
747D
100
AcDbEntity
  8
文字
 62
     7
 48
50.0
100
AcDbText
 10
13197.42518560407
 20
11270.01374588373
 30
0.0
 40
100.0
  1
品番
  7
STYLE1
100
AcDbText
  0
TEXT
  5
29E05
330
747D
100
AcDbEntity
  8
文字
 62
     7
 48
50.0
100
AcDbText
 10
13271.19032244792
 20
11100.01374588373
 30
0.0
 40
100.0
  1
1
  7
STYLE1
100
AcDbText
  0
TEXT
  5
29E06
330
747D
100
AcDbEntity
  8
文字
 62
     7
 48
50.0
100
AcDbText
 10
13271.19032244792
 20
10930.01374588373
 30
0.0
 40
100.0
  1
2
  7
STYLE1
100
AcDbText
  0
TEXT
  5
29E07
330
747D
100
AcDbEntity
  8
文字
 62
     7
 48
50.0
100
AcDbText
 10
13271.19032244792
 20
10590.01374588373
 30
0.0
 40
100.0
  1
4
  7
STYLE1
100
AcDbText
  0
TEXT
  5
29E08
330
747D
100
AcDbEntity
  8
文字
 62
     7
 48
50.0
100
AcDbText
 10
13271.19032244792
 20
10760.01374588373
 30
0.0
 40
100.0
  1
3
  7
STYLE1
100
AcDbText
  0
TEXT
  5
29E09
330
747D
100
AcDbEntity
  8
文字
 62
     7
 48
50.0
100
AcDbText
 10
13732.03840939434
 20
11270.01374588373
 30
0.0
 40
100.0
  1
部　　品　　名
  7
STYLE1
100
AcDbText
  0
TEXT
  5
29E0A
330
747D
100
AcDbEntity
  8
文字
 62
     7
 48
50.0
100
AcDbText
 10
14859.79774614482
 20
11270.01374588373
 30
0.0
 40
100.0
  1
材料（材質）　　単位mm
  7
STYLE1
100
AcDbText
  0
TEXT
  5
29E0B
330
747D
100
AcDbEntity
  8
文字
 62
     7
 48
50.0
100
AcDbText
 10
13583.11819016569
 20
11100.01374588373
 30
0.0
 40
100.0
  1
土台枠
  7
STYLE1
100
AcDbText
  0
TEXT
  5
29E0C
330
747D
100
AcDbEntity
  8
文字
 62
     7
 48
50.0
100
AcDbText
 10
13583.1181901657
 20
10760.01374588373
 30
0.0
 40
100.0
  1
柱
  7
STYLE1
100
AcDbText
  0
TEXT
  5
29E0D
330
747D
100
AcDbEntity
  8
文字
 62
     7
 48
50.0
100
AcDbText
 10
13583.1181901657
 20
10420.01374588373
 30
0.0
 40
100.0
  1
鴨居
  7
STYLE1
100
AcDbText
  0
TEXT
  5
29E0E
330
747D
100
AcDbEntity
  8
文字
 62
     7
 48
50.0
100
AcDbText
 10
13583.1181901657
 20
10250.01374588373
 30
0.0
 40
100.0
  1
桁後
  7
STYLE1
100
AcDbText
  0
TEXT
  5
29E0F
330
747D
100
AcDbEntity
  8
文字
 62
     7
 48
50.0
100
AcDbText
 10
13271.19032244792
 20
10420.01374588373
 30
0.0
 40
100.0
  1
5
  7
STYLE1
100
AcDbText
  0
TEXT
  5
29E10
330
747D
100
AcDbEntity
  8
文字
 62
     7
 48
50.0
100
AcDbText
 10
13583.1181901657
 20
10080.01374588373
 30
0.0
 40
100.0
  1
妻板左右
  7
STYLE1
100
AcDbText
  0
TEXT
  5
29E11
330
747D
100
AcDbEntity
  8
文字
 62
     7
 48
50.0
100
AcDbText
 10
13248.77747366447
 20
9570.013745883729
 30
0.0
 40
100.0
  1
10
  7
STYLE1
100
AcDbText
  0
TEXT
  5
29E12
330
747D
100
AcDbEntity
  8
文字
 62
     7
 48
50.0
100
AcDbText
 10
13583.11819016568
 20
9400.013745883731
 30
0.0
 40
100.0
  1
壁パネル
  7
STYLE1
100
AcDbText
  0
TEXT
  5
29E13
330
747D
100
AcDbEntity
  8
文字
 62
     7
 48
50.0
100
AcDbText
 10
13583.11819016569
 20
9740.013745883729
 30
0.0
 40
100.0
  1
屋根パネル
  7
STYLE1
100
AcDbText
  0
TEXT
  5
29E14
330
747D
100
AcDbEntity
  8
文字
 62
     7
 48
50.0
100
AcDbText
 10
13583.1181901657
 20
9910.01374588373
 30
0.0
 40
100.0
  1
鼻隠シ前後
  7
STYLE1
100
AcDbText
  0
TEXT
  5
29E15
330
747D
100
AcDbEntity
  8
文字
 62
     7
 48
50.0
100
AcDbText
 10
13271.19032244792
 20
9910.01374588373
 30
0.0
 40
100.0
  1
8
  7
STYLE1
100
AcDbText
  0
TEXT
  5
29E16
330
747D
100
AcDbEntity
  8
文字
 62
     7
 48
50.0
100
AcDbText
 10
13271.19032244792
 20
9740.013745883731
 30
0.0
 40
100.0
  1
9
  7
STYLE1
100
AcDbText
  0
TEXT
  5
29E17
330
747D
100
AcDbEntity
  8
文字
 62
     7
 48
50.0
100
AcDbText
 10
13271.19032244792
 20
10080.01374588373
 30
0.0
 40
100.0
  1
7
  7
STYLE1
100
AcDbText
  0
TEXT
  5
29E18
330
747D
100
AcDbEntity
  8
文字
 62
     7
 48
50.0
100
AcDbText
 10
13271.19032244792
 20
10250.01374588373
 30
0.0
 40
100.0
  1
6
  7
STYLE1
100
AcDbText
  0
LINE
  5
29E19
330
747D
100
AcDbEntity
  8
仕様書枠
 48
50.0
100
AcDbLine
 10
16307.19999999999
 20
9709.600000000001
 30
0.0
 11
13127.2
 21
9709.600000000001
 31
0.0
  0
LINE
  5
29E1A
330
747D
100
AcDbEntity
  8
仕様書枠
 48
50.0
100
AcDbLine
 10
16307.19999999999
 20
9369.600000000001
 30
0.0
 11
13127.2
 21
9369.600000000003
 31
0.0
  0
LINE
  5
29E1B
330
747D
100
AcDbEntity
  8
仕様書枠
 48
50.0
100
AcDbLine
 10
16307.19999999999
 20
9539.6
 30
0.0
 11
13127.2
 21
9539.600000000003
 31
0.0
  0
LINE
  5
29E1C
330
747D
100
AcDbEntity
  8
仕様書枠
 48
50.0
100
AcDbLine
 10
16307.2
 20
10219.6
 30
0.0
 11
13127.2
 21
10219.6
 31
0.0
  0
LINE
  5
29E1D
330
747D
100
AcDbEntity
  8
仕様書枠
 48
50.0
100
AcDbLine
 10
16307.2
 20
9879.600000000001
 30
0.0
 11
13127.2
 21
9879.600000000003
 31
0.0
  0
TEXT
  5
29E1E
330
747D
100
AcDbEntity
  8
文字
 62
     7
 48
50.0
100
AcDbText
 10
13248.77747366447
 20
9400.013745883729
 30
0.0
 40
100.0
  1
11
  7
STYLE1
100
AcDbText
  0
LINE
  5
29E1F
330
747D
100
AcDbEntity
  8
仕様書枠
 48
50.0
100
AcDbLine
 10
16307.19999999999
 20
9199.600000000001
 30
0.0
 11
13127.2
 21
9199.600000000001
 31
0.0
  0
LINE
  5
29E20
330
747D
100
AcDbEntity
  8
仕様書枠
 48
50.0
100
AcDbLine
 10
16307.19999999999
 20
8859.600000000002
 30
0.0
 11
13127.2
 21
8859.600000000005
 31
0.0
  0
TEXT
  5
29E21
330
747D
100
AcDbEntity
  8
文字
 62
     7
 48
50.0
100
AcDbText
 10
13248.77747366447
 20
9060.013745883731
 30
0.0
 40
100.0
  1
13
  7
STYLE1
100
AcDbText
  0
TEXT
  5
29E22
330
747D
100
AcDbEntity
  8
文字
 62
     7
 48
50.0
100
AcDbText
 10
13248.77747366447
 20
9230.013745883731
 30
0.0
 40
100.0
  1
12
  7
STYLE1
100
AcDbText
  0
TEXT
  5
29E23
330
747D
100
AcDbEntity
  8
文字
 62
     7
 48
50.0
100
AcDbText
 10
15022.63965474517
 20
11100.01374588373
 30
0.0
 40
100.0
  1
F12            1.2
  7
STYLE1
100
AcDbText
  0
TEXT
  5
29E24
330
747D
100
AcDbEntity
  8
文字
 62
     7
 48
50.0
100
AcDbText
 10
15022.63965474518
 20
10760.01374588372
 30
0.0
 40
100.0
  1
F12            1.0
  7
STYLE1
100
AcDbText
  0
TEXT
  5
29E25
330
747D
100
AcDbEntity
  8
文字
 62
     7
 48
50.0
100
AcDbText
 10
15022.63965474517
 20
10420.01374588372
 30
0.0
 40
100.0
  1
Y10            1.0
  7
STYLE1
100
AcDbText
  0
TEXT
  5
29E26
330
747D
100
AcDbEntity
  8
文字
 62
     7
 48
50.0
100
AcDbText
 10
15022.63965474517
 20
10250.01374588373
 30
0.0
 40
100.0
  1
Y10            1.0
  7
STYLE1
100
AcDbText
  0
TEXT
  5
29E27
330
747D
100
AcDbEntity
  8
文字
 62
     7
 48
50.0
100
AcDbText
 10
15022.63965474517
 20
10080.01374588372
 30
0.0
 40
100.0
  1
Y10            0.7
  7
STYLE1
100
AcDbText
  0
TEXT
  5
29E28
330
747D
100
AcDbEntity
  8
文字
 62
     7
 48
50.0
100
AcDbText
 10
15022.63965474517
 20
9910.013745883727
 30
0.0
 40
100.0
  1
Y10            0.7
  7
STYLE1
100
AcDbText
  0
TEXT
  5
29E29
330
747D
100
AcDbEntity
  8
文字
 62
     7
 48
50.0
100
AcDbText
 10
15022.63965474517
 20
9740.013745883729
 30
0.0
 40
100.0
  1
Y10            0.5
  7
STYLE1
100
AcDbText
  0
TEXT
  5
29E2A
330
747D
100
AcDbEntity
  8
文字
 62
     7
 48
50.0
100
AcDbText
 10
15022.63965474515
 20
9400.013745883727
 30
0.0
 40
100.0
  1
F12            0.7
  7
STYLE1
100
AcDbText
  0
LINE
  5
29E2B
330
747D
100
AcDbEntity
  8
仕様書枠
 48
50.0
100
AcDbLine
 10
16307.19999999998
 20
8689.600000000003
 30
0.0
 11
13127.19999999999
 21
8689.600000000005
 31
0.0
  0
LINE
  5
29E2C
330
747D
100
AcDbEntity
  8
仕様書枠
 48
50.0
100
AcDbLine
 10
16307.19999999998
 20
8519.600000000004
 30
0.0
 11
13127.19999999999
 21
8519.600000000005
 31
0.0
  0
TEXT
  5
29E2D
330
747D
100
AcDbEntity
  8
文字
 62
     7
 48
50.0
100
AcDbText
 10
13229.83081656553
 20
8550.013745883733
 30
0.0
 40
100.0
  1
F12→溶融亜鉛めっき鋼板(JIS G 3302)
  7
STYLE1
100
AcDbText
  0
TEXT
  5
29E2E
330
747D
100
AcDbEntity
  8
文字
 62
     7
 48
50.0
100
AcDbText
 10
13229.83081656553
 20
8380.013745883733
 30
0.0
 40
100.0
  1
Y10→溶融亜鉛-5％アルミニウム合金めっき鋼板(JIS G 3317)
 41
0.9
  7
STYLE1
100
AcDbText
  0
LINE
  5
29E2F
330
747D
100
AcDbEntity
  8
仕様書枠
 48
50.0
100
AcDbLine
 10
13127.2
 20
11409.6
 30
0.0
 11
13127.19999999999
 21
8349.600000000004
 31
0.0
  0
LINE
  5
29E30
330
747D
100
AcDbEntity
  8
仕様書枠
 48
50.0
100
AcDbLine
 10
16307.19999999999
 20
9029.600000000002
 30
0.0
 11
13127.2
 21
9029.600000000003
 31
0.0
  0
TEXT
  5
29E31
330
747D
100
AcDbEntity
  8
文字
 62
     7
 48
50.0
100
AcDbText
 10
13583.1181901657
 20
10590.01374588373
 30
0.0
 40
100.0
  1
床パネル
 41
0.9
  7
STYLE1
100
AcDbText
  0
TEXT
  5
29E32
330
747D
100
AcDbEntity
  8
文字
 62
     7
 48
50.0
100
AcDbText
 10
13583.11819016569
 20
10930.01374588373
 30
0.0
 40
100.0
  1
根太
  7
STYLE1
100
AcDbText
  0
TEXT
  5
29E33
330
747D
100
AcDbEntity
  8
文字
 62
     7
 48
50.0
100
AcDbText
 10
13248.77747366447
 20
8890.013745883731
 30
0.0
 40
100.0
  1
14
  7
STYLE1
100
AcDbText
  0
TEXT
  5
29E34
330
747D
100
AcDbEntity
  8
文字
 62
     7
 48
50.0
100
AcDbText
 10
15022.63965474516
 20
10930.01374588372
 30
0.0
 40
100.0
  1
F12            1.2
  7
STYLE1
100
AcDbText
  0
TEXT
  5
29E35
330
747D
100
AcDbEntity
  8
文字
 62
     7
 48
50.0
100
AcDbText
 10
15022.63965474517
 20
10590.01374588373
 30
0.0
 40
100.0
  1
F12            1.0
  7
STYLE1
100
AcDbText
  0
TEXT
  5
29E36
330
747D
100
AcDbEntity
  8
文字
 62
     7
 48
50.0
100
AcDbText
 10
15022.63965474515
 20
9230.013745883727
 30
0.0
 40
100.0
  1
F12            0.7
  7
STYLE1
100
AcDbText
  0
TEXT
  5
29E37
330
747D
100
AcDbEntity
  8
文字
 62
     7
 48
50.0
100
AcDbText
 10
13583.11819016568
 20
9230.013745883731
 30
0.0
 40
100.0
  1
正面パネル
  7
STYLE1
100
AcDbText
  0
TEXT
  5
29E38
330
747D
100
AcDbEntity
  8
文字
 62
     7
 48
50.0
100
AcDbText
 10
15022.63965474515
 20
9060.013745883727
 30
0.0
 40
100.0
  1
F12            0.8
  7
STYLE1
100
AcDbText
  0
TEXT
  5
29E39
330
747D
100
AcDbEntity
  8
文字
 62
     7
 48
50.0
100
AcDbText
 10
13583.11819016568
 20
9060.013745883731
 30
0.0
 40
100.0
  1
扉
  7
STYLE1
100
AcDbText
  0
TEXT
  5
29E3A
330
747D
100
AcDbEntity
  8
文字
 62
     7
 48
50.0
100
AcDbText
 10
15022.63965474515
 20
8890.013745883729
 30
0.0
 40
100.0
  1
F12            0.6
  7
STYLE1
100
AcDbText
  0
TEXT
  5
29E3B
330
747D
100
AcDbEntity
  8
文字
 62
     7
 48
50.0
100
AcDbText
 10
13583.11819016568
 20
8890.013745883733
 30
0.0
 40
100.0
  1
棚板
  7
STYLE1
100
AcDbText
  0
LINE
  5
29E3C
330
747D
100
AcDbEntity
  8
仕様書枠
 48
50.0
100
AcDbLine
 10
16307.19999999998
 20
8349.600000000004
 30
0.0
 11
13127.19999999999
 21
8349.600000000007
 31
0.0
  0
TEXT
  5
29E3D
330
747D
100
AcDbEntity
  8
文字
 62
     7
 48
50.0
100
AcDbText
 10
13248.77747366447
 20
8720.013745883733
 30
0.0
 40
100.0
  1
15
  7
STYLE1
100
AcDbText
  0
TEXT
  5
29E3E
330
747D
100
AcDbEntity
  8
文字
 62
     7
 48
50.0
100
AcDbText
 10
13583.11819016569
 20
9570.013745883729
 30
0.0
 40
100.0
  1
母屋中
  7
STYLE1
100
AcDbText
  0
TEXT
  5
29E3F
330
747D
100
AcDbEntity
  8
文字
 62
     7
 48
50.0
100
AcDbText
 10
14851.5758597078
 20
9570.013745883727
 30
0.0
 40
100.0
  1
F12　1.0(多雪地型2.3+1.6)
  7
STYLE1
100
AcDbText
  0
TEXT
  5
29E55
330
747D
100
AcDbEntity
  8
文字
 62
     7
 48
50.0
100
AcDbText
 10
14628.21769513769
 20
860.2518238537575
 30
0.0
 40
100.0
  1
～一般型・多雪地型～
  7
STYLE2
100
AcDbText
  0
LINE
  5
29EF5
330
747D
100
AcDbEntity
  8
部品1
100
AcDbLine
 10
7441.896575107026
 20
8542.277214943508
 30
0.0
 11
7469.896575107026
 21
8542.277214943508
 31
0.0
  0
LINE
  5
29EF6
330
747D
100
AcDbEntity
  8
部品1
100
AcDbLine
 10
4447.896575107
 20
8542.277214943498
 30
0.0
 11
4419.896575106999
 21
8542.277214943498
 31
0.0
  0
LINE
  5
29EF7
330
747D
100
AcDbEntity
  8
部品1
100
AcDbLine
 10
7413.396575107011
 20
8542.27721494348
 30
0.0
 11
4476.39657510701
 21
8542.27721494338
 31
0.0
  0
LINE
  5
2A42A
330
747D
100
AcDbEntity
  8
部品1
 48
50.0
100
AcDbLine
 10
10299.72844517243
 20
5605.868139101279
 30
0.0
 11
10599.72844517243
 21
5589.668139101281
 31
0.0
  0
DIMENSION
  5
2A42B
330
747D
100
AcDbEntity
  8
寸法
 48
50.0
100
AcDbDimension
  2
*D24
 10
8934.120038404079
 20
5349.345258873323
 30
0.0
 11
8944.785513663003
 21
5720.191922115023
 31
0.0
 70
   161
 71
     5
 42
141.0
  3
INABA_S40G
100
AcDbAlignedDimension
 13
9514.124465331013
 23
5473.72274883468
 33
0.0
 14
9510.071009774389
 24
5332.781025068968
 34
0.0
1001
ACAD
1000
DSTYLE
1002
{
1070
   174
1070
     0
1070
   272
1070
     1
1070
   288
1070
     0
1070
   341
1005
0
1002
}
  0
LINE
  5
2A42C
330
747D
100
AcDbEntity
  8
部品1
 48
50.0
100
AcDbLine
 10
10349.72844517243
 20
3100.0
 30
0.0
 11
10349.72844517243
 21
3000.0
 31
0.0
  0
LINE
  5
2A42D
330
747D
100
AcDbEntity
  8
部品1
 48
50.0
100
AcDbLine
 10
10549.72844517243
 20
3100.0
 30
0.0
 11
10549.72844517243
 21
3000.0
 31
0.0
  0
LINE
  5
2A42E
330
747D
100
AcDbEntity
  8
細線
 48
50.0
100
AcDbLine
 10
11212.22844517244
 20
5240.0
 30
0.0
 11
11212.22844517244
 21
3150.0
 31
0.0
  0
LINE
  5
2A42F
330
747D
100
AcDbEntity
  8
細線
 48
50.0
100
AcDbLine
 10
11227.22844517244
 20
5240.0
 30
0.0
 11
11227.22844517244
 21
3150.0
 31
0.0
  0
LINE
  5
2A430
330
747D
100
AcDbEntity
  8
細線
 48
50.0
100
AcDbLine
 10
11087.22844517244
 20
5240.0
 30
0.0
 11
11087.22844517244
 21
3150.0
 31
0.0
  0
LINE
  5
2A431
330
747D
100
AcDbEntity
  8
細線
 48
50.0
100
AcDbLine
 10
11072.22844517244
 20
5240.0
 30
0.0
 11
11072.22844517244
 21
3150.0
 31
0.0
  0
LINE
  5
2A432
330
747D
100
AcDbEntity
  8
細線
 48
50.0
100
AcDbLine
 10
10932.22844517244
 20
5240.0
 30
0.0
 11
10932.22844517244
 21
3150.0
 31
0.0
  0
LINE
  5
2A433
330
747D
100
AcDbEntity
  8
細線
 48
50.0
100
AcDbLine
 10
10947.22844517244
 20
5240.0
 30
0.0
 11
10947.22844517244
 21
3150.0
 31
0.0
  0
LINE
  5
2A434
330
747D
100
AcDbEntity
  8
部品1
100
AcDbLine
 10
10869.72844517243
 20
5240.0
 30
0.0
 11
10869.72844517243
 21
3150.0
 31
0.0
  0
LINE
  5
2A435
330
747D
100
AcDbEntity
  8
細線
 48
50.0
100
AcDbLine
 10
10527.22844517243
 20
5240.0
 30
0.0
 11
10527.22844517244
 21
3150.0
 31
0.0
  0
LINE
  5
2A436
330
747D
100
AcDbEntity
  8
細線
 48
50.0
100
AcDbLine
 10
10512.22844517243
 20
5240.0
 30
0.0
 11
10512.22844517244
 21
3150.0
 31
0.0
  0
LINE
  5
2A437
330
747D
100
AcDbEntity
  8
細線
 48
50.0
100
AcDbLine
 10
10652.22844517243
 20
5240.0
 30
0.0
 11
10652.22844517244
 21
3150.0
 31
0.0
  0
LINE
  5
2A438
330
747D
100
AcDbEntity
  8
細線
 48
50.0
100
AcDbLine
 10
10667.22844517243
 20
5240.0
 30
0.0
 11
10667.22844517244
 21
3150.0
 31
0.0
  0
LINE
  5
2A439
330
747D
100
AcDbEntity
  8
細線
 48
50.0
100
AcDbLine
 10
10807.22844517243
 20
5240.0
 30
0.0
 11
10807.22844517244
 21
3150.0
 31
0.0
  0
LINE
  5
2A43A
330
747D
100
AcDbEntity
  8
細線
 48
50.0
100
AcDbLine
 10
10792.22844517243
 20
5240.0
 30
0.0
 11
10792.22844517244
 21
3150.0
 31
0.0
  0
LINE
  5
2A43B
330
747D
100
AcDbEntity
  8
部品1
100
AcDbLine
 10
10449.72844517243
 20
5240.0
 30
0.0
 11
10449.72844517243
 21
3150.0
 31
0.0
  0
TEXT
  5
2A43C
330
747D
100
AcDbEntity
  8
部品1
 48
50.0
100
AcDbText
 10
10776.82129246029
 20
5504.25090303543
 30
0.0
 40
120.0
  1
54
 50
90.0
  7
STYLE1
100
AcDbText
  0
TEXT
  5
2A43D
330
747D
100
AcDbEntity
  8
部品1
 48
50.0
100
AcDbText
 10
10287.99628039616
 20
5641.752161253712
 30
0.0
 40
120.0
  1
1000
  7
STYLE1
100
AcDbText
  0
LINE
  5
2A43E
330
747D
100
AcDbEntity
  8
部品1
 48
50.0
100
AcDbLine
 10
10599.72844517243
 20
5605.868139101279
 30
0.0
 11
10599.72844517243
 21
5589.668139101281
 31
0.0
  0
LINE
  5
2A43F
330
747D
100
AcDbEntity
  8
部品1
 48
50.0
100
AcDbLine
 10
10299.72844517243
 20
5605.868139101279
 30
0.0
 11
10599.72844517243
 21
5605.868139101279
 31
0.0
  0
DIMENSION
  5
2A440
330
747D
100
AcDbEntity
  8
寸法
 48
50.0
100
AcDbDimension
  2
*D25
 10
11424.72844517243
 20
5873.657453579305
 30
0.0
 11
11630.77568926692
 21
5873.657453579305
 31
0.0
 70
   160
 71
     5
 42
80.0
  3
INABA_S40G
100
AcDbAlignedDimension
 13
11344.72844517243
 23
5421.810679611653
 33
0.0
 14
11424.72844517243
 24
5420.000000000001
 34
0.0
100
AcDbRotatedDimension
1001
ACAD
1000
DSTYLE
1002
{
1070
   174
1070
     0
1070
   272
1070
     1
1070
   288
1070
     0
1070
   341
1005
0
1002
}
  0
ARC
  5
2A441
330
747D
100
AcDbEntity
  8
部品1
100
AcDbCircle
 10
11410.35598098637
 20
5314.023757265792
 30
0.0
 40
0.7
100
AcDbArc
 50
275.0921697642079
 51
354.1866997667061
  0
ARC
  5
2A442
330
747D
100
AcDbEntity
  8
部品1
100
AcDbCircle
 10
11421.21532673569
 20
5391.067012083716
 30
0.0
 40
0.7
100
AcDbArc
 50
275.0921697642079
 51
354.1866997665479
  0
ARC
  5
2A443
330
747D
100
AcDbEntity
  8
部品1
100
AcDbCircle
 10
11421.54373197829
 20
5387.381615226626
 30
0.0
 40
3.0
100
AcDbArc
 50
95.09216976442012
 51
174.1866997665479
  0
ARC
  5
2A444
330
747D
100
AcDbEntity
  8
部品1
100
AcDbCircle
 10
11410.68438622897
 20
5310.338360408702
 30
0.0
 40
3.0
100
AcDbArc
 50
95.09216976420788
 51
174.1866997665479
  0
ARC
  5
2A445
330
747D
100
AcDbEntity
  8
部品1
 48
50.0
100
AcDbCircle
 10
11399.65625095386
 20
5300.74761580482
 30
0.0
 40
7.0
100
AcDbArc
 50
267.8377559871574
 51
354.1866997665479
  0
ARC
  5
2A446
330
747D
100
AcDbEntity
  8
部品1
 48
50.0
100
AcDbCircle
 10
11416.97834741838
 20
5411.650162946993
 30
0.0
 40
7.0
100
AcDbArc
 50
354.1866997665479
 51
87.03587545304044
  0
LINE
  5
2A447
330
747D
100
AcDbEntity
  8
部品1
 48
50.0
100
AcDbLine
 10
11407.69981455836
 20
5310.642222125605
 30
0.0
 11
11406.62025151862
 21
5300.038605132047
 31
0.0
  0
LINE
  5
2A448
330
747D
100
AcDbEntity
  8
部品1
 48
50.0
100
AcDbLine
 10
11418.55916030768
 20
5387.68547694353
 30
0.0
 11
11411.05238104284
 21
5313.952856198517
 31
0.0
  0
LINE
  5
2A449
330
747D
100
AcDbEntity
  8
部品1
 48
50.0
100
AcDbLine
 10
11423.94234798313
 20
5410.941152274219
 30
0.0
 11
11421.91172679216
 21
5390.996111016439
 31
0.0
  0
ARC
  5
2A44A
330
747D
100
AcDbEntity
  8
部品1
100
AcDbCircle
 10
9500.765537043799
 20
5353.814158958904
 30
0.0
 40
0.7
100
AcDbArc
 50
181.0932240292109
 51
260.1877540314845
  0
ARC
  5
2A44B
330
747D
100
AcDbEntity
  8
部品1
100
AcDbCircle
 10
9495.99286344619
 20
5446.679937159023
 30
0.0
 40
0.7
100
AcDbArc
 50
181.0932240292109
 51
260.1877540314845
  0
ARC
  5
2A44C
330
747D
100
AcDbEntity
  8
部品1
100
AcDbCircle
 10
9495.362309043169
 20
5443.034062621626
 30
0.0
 40
3.0
100
AcDbArc
 50
1.093224029263039
 51
80.18775403148449
  0
ARC
  5
2A44D
330
747D
100
AcDbEntity
  8
部品1
100
AcDbCircle
 10
9500.134982640773
 20
5350.168284421506
 30
0.0
 40
3.0
100
AcDbArc
 50
1.093224029263039
 51
80.18775403148449
  0
ARC
  5
2A44E
330
747D
100
AcDbEntity
  8
部品1
 48
50.0
100
AcDbCircle
 10
9510.335115015976
 20
5339.776041039026
 30
0.0
 40
7.0
100
AcDbArc
 50
181.093224029263
 51
267.8377559871574
  0
ARC
  5
2A44F
330
747D
100
AcDbEntity
  8
部品1
 48
50.0
100
AcDbCircle
 10
9501.91145691388
 20
5466.72710057212
 30
0.0
 40
7.0
100
AcDbArc
 50
87.03587545304044
 51
181.093224029263
  0
LINE
  5
2A450
330
747D
100
AcDbEntity
  8
部品1
 48
50.0
100
AcDbLine
 10
9503.134436567206
 20
5350.22552202469
 30
0.0
 11
9503.336389187637
 21
5339.642486631597
 31
0.0
  0
LINE
  5
2A451
330
747D
100
AcDbEntity
  8
細線
 48
50.0
100
AcDbLine
 10
9500.528343510534
 20
5353.155570143498
 30
0.0
 11
11410.53200794117
 21
5313.346251169004
 31
0.0
  0
LINE
  5
2A452
330
747D
100
AcDbEntity
  8
細線
 48
50.0
100
AcDbLine
 10
9495.767868273247
 20
5446.017081841361
 30
0.0
 11
11421.40385301841
 21
5390.392877200533
 31
0.0
  0
LINE
  5
2A453
330
747D
100
AcDbEntity
  8
部品1
 48
50.0
100
AcDbLine
 10
9498.361762969599
 20
5443.091300224809
 30
0.0
 11
9500.065664460965
 21
5353.800803518161
 31
0.0
  0
LINE
  5
2A454
330
747D
100
AcDbEntity
  8
部品1
 48
50.0
100
AcDbLine
 10
9494.912731085541
 20
5466.593546164693
 30
0.0
 11
9495.292990863354
 21
5446.666581718281
 31
0.0
  0
LINE
  5
2A455
330
747D
100
AcDbEntity
  8
細線
 48
50.0
100
AcDbLine
 10
11391.72844517243
 20
5419.966979035296
 30
0.0
 11
11386.98076228443
 21
5294.221206544552
 31
0.0
  0
LINE
  5
2A456
330
747D
100
AcDbEntity
  8
細線
 48
50.0
100
AcDbLine
 10
9527.728445172435
 20
5472.399676375405
 30
0.0
 11
9522.439343616925
 21
5332.31404374805
 31
0.0
  0
LINE
  5
2A457
330
747D
100
AcDbEntity
  8
部品1
100
AcDbLine
 10
9510.071009774389
 20
5332.781025068968
 30
0.0
 11
11399.39214571228
 21
5293.752599834761
 31
0.0
  0
LINE
  5
2A458
330
747D
100
AcDbEntity
  8
部品1
100
AcDbLine
 10
9502.273431529395
 20
5473.717735334266
 30
0.0
 11
11417.34032203389
 21
5418.640797709139
 31
0.0
  0
LINE
  5
2A459
330
747D
100
AcDbEntity
  8
細線
 48
50.0
100
AcDbLine
 10
9687.228445172433
 20
5240.0
 30
0.0
 11
9687.228445172435
 21
3150.0
 31
0.0
  0
LINE
  5
2A45A
330
747D
100
AcDbEntity
  8
細線
 48
50.0
100
AcDbLine
 10
9672.228445172432
 20
5240.0
 30
0.0
 11
9672.228445172434
 21
3150.0
 31
0.0
  0
LINE
  5
2A45B
330
747D
100
AcDbEntity
  8
細線
 48
50.0
100
AcDbLine
 10
9812.228445172433
 20
5240.0
 30
0.0
 11
9812.228445172435
 21
3150.0
 31
0.0
  0
LINE
  5
2A45C
330
747D
100
AcDbEntity
  8
細線
 48
50.0
100
AcDbLine
 10
9827.228445172432
 20
5240.0
 30
0.0
 11
9827.228445172433
 21
3150.0
 31
0.0
  0
LINE
  5
2A45D
330
747D
100
AcDbEntity
  8
細線
 48
50.0
100
AcDbLine
 10
9967.228445172432
 20
5240.0
 30
0.0
 11
9967.228445172434
 21
3150.0
 31
0.0
  0
LINE
  5
2A45E
330
747D
100
AcDbEntity
  8
細線
 48
50.0
100
AcDbLine
 10
9952.228445172432
 20
5240.0
 30
0.0
 11
9952.228445172433
 21
3150.0
 31
0.0
  0
LINE
  5
2A45F
330
747D
100
AcDbEntity
  8
細線
 48
50.0
100
AcDbLine
 10
10372.22844517243
 20
5240.0
 30
0.0
 11
10372.22844517243
 21
3150.0
 31
0.0
  0
LINE
  5
2A460
330
747D
100
AcDbEntity
  8
細線
 48
50.0
100
AcDbLine
 10
10387.22844517243
 20
5240.0
 30
0.0
 11
10387.22844517243
 21
3150.0
 31
0.0
  0
LINE
  5
2A461
330
747D
100
AcDbEntity
  8
細線
 48
50.0
100
AcDbLine
 10
10247.22844517243
 20
5240.0
 30
0.0
 11
10247.22844517243
 21
3150.0
 31
0.0
  0
LINE
  5
2A462
330
747D
100
AcDbEntity
  8
細線
 48
50.0
100
AcDbLine
 10
10232.22844517243
 20
5240.0
 30
0.0
 11
10232.22844517243
 21
3150.0
 31
0.0
  0
LINE
  5
2A463
330
747D
100
AcDbEntity
  8
細線
 48
50.0
100
AcDbLine
 10
10092.22844517243
 20
5240.0
 30
0.0
 11
10092.22844517243
 21
3150.0
 31
0.0
  0
LINE
  5
2A464
330
747D
100
AcDbEntity
  8
細線
 48
50.0
100
AcDbLine
 10
10107.22844517243
 20
5240.0
 30
0.0
 11
10107.22844517243
 21
3150.0
 31
0.0
  0
LWPOLYLINE
  5
2A465
330
747D
100
AcDbEntity
  8
部品1
100
AcDbPolyline
 90
        4
 70
     1
 43
0.0
 10
10077.99311205821
 20
2120.684457025041
 10
10077.99311205821
 20
1880.792135479508
 10
10841.46377828665
 20
1880.792135479508
 10
10841.46377828665
 20
2120.684457025041
  0
TEXT
  5
2A466
330
747D
100
AcDbEntity
  8
部品1
100
AcDbText
 10
10167.43921348182
 20
1927.790927806517
 30
0.0
 40
135.0
  1
側面図
  7
STYLE2
100
AcDbText
  0
LINE
  5
2A467
330
747D
100
AcDbEntity
  8
部品1
100
AcDbLine
 10
9602.228445172436
 20
3100.0
 30
0.0
 11
11297.22844517243
 21
3100.0
 31
0.0
  0
LINE
  5
2A468
330
747D
100
AcDbEntity
  8
部品1
100
AcDbLine
 10
11337.22844517243
 20
3100.0
 30
0.0
 11
11344.72844517244
 21
3100.0
 31
0.0
  0
LINE
  5
2A469
330
747D
100
AcDbEntity
  8
破線
  6
HIDDEN
 48
5.0
100
AcDbLine
 10
9602.228445172436
 20
3000.0
 30
0.0
 11
9602.228445172436
 21
2995.0
 31
0.0
  0
LINE
  5
2A46A
330
747D
100
AcDbEntity
  8
破線
  6
HIDDEN
 48
5.0
100
AcDbLine
 10
9562.22844517244
 20
3000.0
 30
0.0
 11
9562.22844517244
 21
2995.0
 31
0.0
  0
LINE
  5
2A46B
330
747D
100
AcDbEntity
  8
破線
  6
HIDDEN
 48
5.0
100
AcDbLine
 10
11337.22844517243
 20
3000.0
 30
0.0
 11
11337.22844517243
 21
2995.0
 31
0.0
  0
LINE
  5
2A46C
330
747D
100
AcDbEntity
  8
破線
  6
HIDDEN
 48
5.0
100
AcDbLine
 10
11297.22844517243
 20
3000.0
 30
0.0
 11
11297.22844517243
 21
2995.0
 31
0.0
  0
ARC
  5
2A46D
330
747D
100
AcDbEntity
  8
部品1
 48
50.0
100
AcDbCircle
 10
11332.22844517243
 20
3140.0
 30
0.0
 40
5.0
100
AcDbArc
 50
0.0
 51
90.0
  0
ARC
  5
2A46E
330
747D
100
AcDbEntity
  8
部品1
 48
50.0
100
AcDbCircle
 10
11302.22844517243
 20
3140.0
 30
0.0
 40
5.0
100
AcDbArc
 50
90.0
 51
180.0
  0
LINE
  5
2A46F
330
747D
100
AcDbEntity
  8
部品1
100
AcDbLine
 10
11332.22844517243
 20
3145.0
 30
0.0
 11
11302.22844517243
 21
3145.0
 31
0.0
  0
LINE
  5
2A470
330
747D
100
AcDbEntity
  8
部品1
 48
50.0
100
AcDbLine
 10
11337.22844517243
 20
3140.0
 30
0.0
 11
11337.22844517243
 21
3000.0
 31
0.0
  0
LINE
  5
2A471
330
747D
100
AcDbEntity
  8
部品1
 48
50.0
100
AcDbLine
 10
11297.22844517243
 20
3140.0
 30
0.0
 11
11297.22844517243
 21
3000.0
 31
0.0
  0
ARC
  5
2A472
330
747D
100
AcDbEntity
  8
部品1
 48
50.0
100
AcDbCircle
 10
9597.228445172437
 20
3140.0
 30
0.0
 40
5.0
100
AcDbArc
 50
0.0
 51
90.0
  0
ARC
  5
2A473
330
747D
100
AcDbEntity
  8
部品1
 48
50.0
100
AcDbCircle
 10
9567.228445172432
 20
3140.0
 30
0.0
 40
5.0
100
AcDbArc
 50
90.0
 51
180.0
  0
LINE
  5
2A474
330
747D
100
AcDbEntity
  8
部品1
100
AcDbLine
 10
9567.228445172432
 20
3145.0
 30
0.0
 11
9597.228445172437
 21
3145.0
 31
0.0
  0
LINE
  5
2A475
330
747D
100
AcDbEntity
  8
部品1
 48
50.0
100
AcDbLine
 10
9602.228445172436
 20
3140.0
 30
0.0
 11
9602.228445172432
 21
3000.0
 31
0.0
  0
LINE
  5
2A476
330
747D
100
AcDbEntity
  8
部品1
 48
50.0
100
AcDbLine
 10
9562.228445172433
 20
3140.0
 30
0.0
 11
9562.228445172435
 21
3000.0
 31
0.0
  0
LINE
  5
2A477
330
747D
100
AcDbEntity
  8
破線
  6
HIDDEN
 48
5.0
100
AcDbLine
 10
9602.228445172436
 20
2995.0
 30
0.0
 11
9617.228445172436
 21
2847.299999999999
 31
0.0
  0
LINE
  5
2A478
330
747D
100
AcDbEntity
  8
破線
  6
HIDDEN
 48
5.0
100
AcDbLine
 10
9562.228445172435
 20
2995.0
 30
0.0
 11
9547.228445172432
 21
2847.299999999999
 31
0.0
  0
LINE
  5
2A479
330
747D
100
AcDbEntity
  8
破線
  6
HIDDEN
 48
5.0
100
AcDbLine
 10
9617.228445172436
 20
2847.299999999999
 30
0.0
 11
9617.228445172433
 21
2845.0
 31
0.0
  0
LINE
  5
2A47A
330
747D
100
AcDbEntity
  8
破線
  6
HIDDEN
 48
5.0
100
AcDbLine
 10
9547.228445172432
 20
2847.299999999999
 30
0.0
 11
9547.228445172432
 21
2845.0
 31
0.0
  0
LINE
  5
2A47B
330
747D
100
AcDbEntity
  8
破線
  6
HIDDEN
 48
5.0
100
AcDbLine
 10
9547.228445172432
 20
2845.0
 30
0.0
 11
9617.228445172433
 21
2845.0
 31
0.0
  0
LINE
  5
2A47C
330
747D
100
AcDbEntity
  8
破線
  6
HIDDEN
 48
5.0
100
AcDbLine
 10
11352.22844517243
 20
2847.3
 30
0.0
 11
11352.22844517243
 21
2845.0
 31
0.0
  0
LINE
  5
2A47D
330
747D
100
AcDbEntity
  8
破線
  6
HIDDEN
 48
5.0
100
AcDbLine
 10
11337.22844517243
 20
2995.0
 30
0.0
 11
11352.22844517243
 21
2847.3
 31
0.0
  0
LINE
  5
2A47E
330
747D
100
AcDbEntity
  8
破線
  6
HIDDEN
 48
5.0
100
AcDbLine
 10
11282.22844517243
 20
2847.3
 30
0.0
 11
11282.22844517243
 21
2845.0
 31
0.0
  0
LINE
  5
2A47F
330
747D
100
AcDbEntity
  8
破線
  6
HIDDEN
 48
5.0
100
AcDbLine
 10
11297.22844517243
 20
2995.0
 30
0.0
 11
11282.22844517243
 21
2847.3
 31
0.0
  0
LINE
  5
2A480
330
747D
100
AcDbEntity
  8
破線
  6
HIDDEN
 48
5.0
100
AcDbLine
 10
11352.22844517243
 20
2845.0
 30
0.0
 11
11282.22844517243
 21
2845.0
 31
0.0
  0
DIMENSION
  5
2A481
330
747D
100
AcDbEntity
  8
寸法
 48
50.0
100
AcDbDimension
  2
*D17
 10
9494.728445172436
 20
6090.619268957919
 30
0.0
 11
10400.5341964234
 21
6090.619268957919
 31
0.0
 70
   160
 71
     5
 42
1930.0
  3
INABA_S40G
100
AcDbAlignedDimension
 13
11424.72844517243
 23
5420.000000000001
 33
0.0
 14
9494.728445172436
 24
5475.000000000004
 34
0.0
100
AcDbRotatedDimension
1001
ACAD
1000
DSTYLE
1002
{
1070
   174
1070
     0
1070
   272
1070
     1
1070
   288
1070
     0
1070
   341
1005
0
1002
}
  0
DIMENSION
  5
2A482
330
747D
100
AcDbEntity
  8
寸法
 48
50.0
100
AcDbDimension
  2
*D18
 10
9494.728445172436
 20
5873.657453579305
 30
0.0
 11
9185.090649896846
 21
5873.657453579305
 31
0.0
 70
   160
 71
     5
 42
60.0
  3
INABA_S40G
100
AcDbAlignedDimension
 13
9554.728445172434
 23
5471.001618122977
 33
0.0
 14
9494.728445172436
 24
5475.000000000004
 34
0.0
100
AcDbRotatedDimension
1001
ACAD
1000
DSTYLE
1002
{
1070
   174
1070
     0
1070
   272
1070
     1
1070
   288
1070
     0
1070
   341
1005
0
1002
}
  0
DIMENSION
  5
2A483
330
747D
100
AcDbEntity
  8
寸法
 48
50.0
100
AcDbDimension
  2
*D19
 10
9554.728445172434
 20
5874.093169339474
 30
0.0
 11
10464.32409384891
 21
5874.093169339474
 31
0.0
 70
   160
  1
柱外寸法<>
 71
     5
 42
1790.0
  3
INABA_S40G
100
AcDbAlignedDimension
 13
11344.72844517243
 23
5421.810679611653
 33
0.0
 14
9554.728445172434
 24
5471.001618122977
 34
0.0
100
AcDbRotatedDimension
1001
ACAD
1000
DSTYLE
1002
{
1070
   174
1070
     0
1070
   272
1070
     1
1070
   288
1070
     0
1070
   341
1005
0
1002
}
  0
LINE
  5
2A484
330
747D
100
AcDbEntity
  8
部品1
100
AcDbLine
 10
11144.72844517244
 20
3100.0
 30
0.0
 11
11144.72844517244
 21
3000.0
 31
0.0
  0
LINE
  5
2A485
330
747D
100
AcDbEntity
  8
部品1
100
AcDbLine
 10
9754.728445172434
 20
3100.0
 30
0.0
 11
9754.728445172434
 21
3000.0
 31
0.0
  0
LINE
  5
2A487
330
747D
100
AcDbEntity
  8
部品1
100
AcDbLine
 10
11289.72844517243
 20
5240.0
 30
0.0
 11
11289.72844517244
 21
3150.0
 31
0.0
  0
LINE
  5
2A488
330
747D
100
AcDbEntity
  8
部品1
100
AcDbLine
 10
11344.72844517243
 20
5294.881808686007
 30
0.0
 11
11344.72844517244
 21
3000.0
 31
0.0
  0
LINE
  5
2A489
330
747D
100
AcDbEntity
  8
部品1
100
AcDbLine
 10
10029.72844517243
 20
5240.0
 30
0.0
 11
10029.72844517243
 21
3150.0
 31
0.0
  0
DIMENSION
  5
2A48A
330
747D
100
AcDbEntity
  8
寸法
100
AcDbDimension
  2
*D20
 10
8710.978315989175
 20
3100.0
 30
0.0
 11
8710.978315989175
 21
2793.95275590551
 31
0.0
 70
   160
 71
     5
 42
50.0
  3
INABA_S40G
100
AcDbAlignedDimension
 13
9554.728445172434
 23
3150.0
 33
0.0
 14
9499.728445172435
 24
3100.0
 34
0.0
 50
90.0
100
AcDbRotatedDimension
1001
ACAD
1000
DSTYLE
1002
{
1070
   174
1070
     0
1070
   272
1070
     1
1070
   288
1070
     0
1070
   341
1005
0
1002
}
  0
DIMENSION
  5
2A48B
330
747D
100
AcDbEntity
  8
寸法
100
AcDbDimension
  2
*D21
 10
8410.978315989174
 20
3000.0
 30
0.0
 11
8410.978315989174
 21
2763.95275590551
 31
0.0
 70
   160
 71
     5
 42
100.0000000000004
  3
INABA_S40G
100
AcDbAlignedDimension
 13
9499.728445172435
 23
3100.0
 33
0.0
 14
8498.227369277302
 24
3000.0
 34
0.0
 50
90.0
100
AcDbRotatedDimension
1001
ACAD
1000
DSTYLE
1002
{
1070
   174
1070
     0
1070
   272
1070
     1
1070
   288
1070
     0
1070
   341
1005
0
1002
}
  0
LINE
  5
2A48F
330
747D
100
AcDbEntity
  8
部品1
100
AcDbLine
 10
9554.728445172438
 20
5331.858519442246
 30
0.0
 11
9554.728445172434
 21
3000.0
 31
0.0
  0
LINE
  5
2A490
330
747D
100
AcDbEntity
  8
部品1
100
AcDbLine
 10
9609.728445172432
 20
5240.0
 30
0.0
 11
9609.728445172434
 21
3150.0
 31
0.0
  0
LINE
  5
2A491
330
747D
100
AcDbEntity
  8
部品1
100
AcDbLine
 10
9554.728445172434
 20
3100.0
 30
0.0
 11
9562.228445172435
 21
3100.0
 31
0.0
  0
LINE
  5
2A492
330
747D
100
AcDbEntity
  8
部品1
100
AcDbLine
 10
9554.728445172434
 20
3150.0
 30
0.0
 11
11344.72844517244
 21
3150.0
 31
0.0
  0
LINE
  5
2A493
330
747D
100
AcDbEntity
  8
部品1
100
AcDbLine
 10
9554.728445172434
 20
5240.0
 30
0.0
 11
11344.72844517243
 21
5240.0
 31
0.0
  0
DIMENSION
  5
2A494
330
747D
100
AcDbEntity
  8
寸法
 48
50.0
100
AcDbDimension
  2
*D22
 10
9332.7284419258
 20
3000.0
 30
0.0
 11
9332.7284419258
 21
2900.000000000001
 31
0.0
 70
   160
 71
     5
 42
200.0000000000018
  3
INABA_S40G
100
AcDbAlignedDimension
 13
9482.228445172436
 23
2799.999999999998
 33
0.0
 14
9457.228445172436
 24
3000.0
 34
0.0
 50
90.0
100
AcDbRotatedDimension
1001
ACAD
1000
DSTYLE
1002
{
1070
   174
1070
     0
1070
   272
1070
     1
1070
   288
1070
     0
1070
   341
1005
0
1002
}
  0
LINE
  5
2A495
330
747D
100
AcDbEntity
  8
破線
 48
5.0
100
AcDbLine
 10
9682.228445172434
 20
2799.999999999998
 30
0.0
 11
9482.228445172436
 21
2799.999999999998
 31
0.0
  0
LINE
  5
2A496
330
747D
100
AcDbEntity
  8
破線
 48
5.0
100
AcDbLine
 10
9682.228445172436
 20
3000.0
 30
0.0
 11
9682.228445172434
 21
2799.999999999998
 31
0.0
  0
LINE
  5
2A497
330
747D
100
AcDbEntity
  8
破線
 48
5.0
100
AcDbLine
 10
9482.228445172436
 20
3000.0
 30
0.0
 11
9482.228445172436
 21
2799.999999999998
 31
0.0
  0
DIMENSION
  5
2A498
330
747D
100
AcDbEntity
  8
寸法
 48
50.0
100
AcDbDimension
  2
*D23
 10
9482.228445172436
 20
2513.952670699621
 30
0.0
 11
9582.228445172436
 21
2513.952670699621
 31
0.0
 70
   160
 71
     5
 42
199.9999999999963
  3
INABA_S40G
100
AcDbAlignedDimension
 13
9682.228445172434
 23
2799.999999999998
 33
0.0
 14
9482.228445172436
 24
2799.999999999998
 34
0.0
100
AcDbRotatedDimension
  0
LINE
  5
2A499
330
747D
100
AcDbEntity
  8
破線
 48
5.0
100
AcDbLine
 10
11417.22844517244
 20
3000.0
 30
0.0
 11
11417.22844517244
 21
2799.999999999998
 31
0.0
  0
LINE
  5
2A49A
330
747D
100
AcDbEntity
  8
破線
 48
5.0
100
AcDbLine
 10
11417.22844517244
 20
2799.999999999998
 30
0.0
 11
11217.22844517244
 21
2799.999999999999
 31
0.0
  0
LINE
  5
2A49B
330
747D
100
AcDbEntity
  8
破線
 48
5.0
100
AcDbLine
 10
11217.22844517244
 20
3000.0
 30
0.0
 11
11217.22844517244
 21
2799.999999999999
 31
0.0
  0
TEXT
  5
2A923
330
747D
100
AcDbEntity
  8
文字
 62
     7
 48
50.0
100
AcDbText
 10
13209.4053442172
 20
51.51601452553859
 30
0.0
 40
100.0
  1
○床面積 ： 5.46㎡(1.65坪) 　
  7
STYLE2
100
AcDbText
  0
DIMENSION
  5
2AA87
330
747D
100
AcDbEntity
  8
寸法
 48
50.0
100
AcDbDimension
  2
*D26
 10
7369.896575107005
 20
2513.952670699622
 30
0.0
 11
7469.896575107006
 21
2513.952670699622
 31
0.0
 70
   160
 71
     5
 42
200.0000000000018
  3
INABA_S40G
100
AcDbAlignedDimension
 13
7569.896575107006
 23
2799.999999999999
 33
0.0
 14
7369.896575107005
 24
2799.999999999999
 34
0.0
100
AcDbRotatedDimension
  0
LINE
  5
2AA90
330
747D
100
AcDbEntity
  8
破線
 48
5.0
100
AcDbLine
 10
7569.896575107006
 20
3000.0
 30
0.0
 11
7569.896575107006
 21
2799.999999999999
 31
0.0
  0
LINE
  5
2AA91
330
747D
100
AcDbEntity
  8
破線
 48
5.0
100
AcDbLine
 10
7369.896575107006
 20
3000.0
 30
0.0
 11
7369.896575107006
 21
2799.999999999999
 31
0.0
  0
LINE
  5
2AA92
330
747D
100
AcDbEntity
  8
破線
 48
5.0
100
AcDbLine
 10
7569.896575107006
 20
2799.999999999999
 30
0.0
 11
7369.896575107005
 21
2799.999999999999
 31
0.0
  0
LINE
  5
2AFD1
330
747D
100
AcDbEntity
  8
部品1
100
AcDbLine
 10
7413.396575107059
 20
8962.27721494351
 30
0.0
 11
4476.396575107059
 21
8962.27721494341
 31
0.0
  0
LINE
  5
2AFD2
330
747D
100
AcDbEntity
  8
部品1
100
AcDbLine
 10
4447.896575107049
 20
8962.277214943526
 30
0.0
 11
4419.896575107048
 21
8962.277214943526
 31
0.0
  0
LINE
  5
2AFD3
330
747D
100
AcDbEntity
  8
部品1
100
AcDbLine
 10
7441.896575107074
 20
8962.277214943537
 30
0.0
 11
7469.896575107075
 21
8962.277214943537
 31
0.0
  0
LINE
  5
2AFDD
330
747D
100
AcDbEntity
  8
破線
 48
5.0
100
AcDbLine
 10
4319.896575106995
 20
2800.0
 30
0.0
 11
4519.896575106995
 21
2800.0
 31
0.0
  0
LINE
  5
2AFDE
330
747D
100
AcDbEntity
  8
破線
 48
5.0
100
AcDbLine
 10
4319.896575106995
 20
3000.000000000001
 30
0.0
 11
4319.896575106995
 21
2800.0
 31
0.0
  0
LINE
  5
2AFDF
330
747D
100
AcDbEntity
  8
破線
 48
5.0
100
AcDbLine
 10
4519.896575106995
 20
3000.000000000001
 30
0.0
 11
4519.896575106995
 21
2800.0
 31
0.0
  0
DIMENSION
  5
2B1DC
330
747D
100
AcDbEntity
  8
寸法
100
AcDbDimension
  2
*D27
 10
12049.65560314456
 20
5420.0
 30
0.0
 11
11949.64379212094
 21
4260.000000000001
 31
0.0
 70
    32
 71
     5
 42
2320.0
  3
INABA_S40G
100
AcDbAlignedDimension
 13
11344.72844517244
 23
3100.0
 33
0.0
 14
11424.72844517243
 24
5420.0
 34
0.0
 50
90.0
100
AcDbRotatedDimension
1001
ACAD
1000
DSTYLE
1002
{
1070
   174
1070
     0
1070
   272
1070
     1
1070
   288
1070
     0
1070
   341
1005
0
1002
}
  0
DIMENSION
  5
2B372
330
747D
100
AcDbEntity
  8
寸法
100
AcDbDimension
  2
*D30
 10
8410.978315989176
 20
5475.000000000004
 30
0.0
 11
8310.966504965552
 21
4287.500000000004
 31
0.0
 70
    32
 71
     5
 42
2375.000000000004
  3
INABA_S40G
100
AcDbAlignedDimension
 13
9554.728445172434
 23
3100.0
 33
0.0
 14
9494.728445172437
 24
5475.000000000004
 34
0.0
 50
90.0
100
AcDbRotatedDimension
1001
ACAD
1000
DSTYLE
1002
{
1070
   174
1070
     0
1070
   272
1070
     1
1070
   288
1070
     0
1070
   341
1005
0
1002
}
  0
DIMENSION
  5
2B373
330
747D
100
AcDbEntity
  8
寸法
100
AcDbDimension
  2
*D29
 10
8710.978315989176
 20
3150.0
 30
0.0
 11
8610.966504965555
 21
4195.000000000002
 31
0.0
 70
    32
 71
     5
 42
2090.000000000001
  3
INABA_S40G
100
AcDbAlignedDimension
 13
9554.728445172434
 23
5240.000000000001
 33
0.0
 14
9554.728445172434
 24
3150.0
 34
0.0
 50
90.0
100
AcDbRotatedDimension
1001
ACAD
1000
DSTYLE
1002
{
1070
   174
1070
     0
1070
   272
1070
     1
1070
   288
1070
     0
1070
   341
1005
0
1002
}
  0
DIMENSION
  5
2B374
330
747D
100
AcDbEntity
  8
寸法
100
AcDbDimension
  2
*D28
 10
9009.819803775181
 20
3162.000000000001
 30
0.0
 11
8909.807992751559
 21
4197.000000000001
 31
0.0
 70
    32
  1
有効開口部高サ<>
 71
     5
 42
2070.0
  3
INABA_S40G
100
AcDbAlignedDimension
 13
9554.72844517244
 23
5232.0
 33
0.0
 14
9554.728445172434
 24
3162.0
 34
0.0
 50
90.0
100
AcDbRotatedDimension
1001
ACAD
1000
DSTYLE
1002
{
1070
   174
1070
     0
1070
   272
1070
     1
1070
   288
1070
     0
1070
   341
1005
0
1002
}
  0
LWPOLYLINE
  5
2B7EB
330
747D
100
AcDbEntity
  8
部品1
 48
50.0
100
AcDbPolyline
 90
        4
 70
     1
 43
0.0
 10
6004.946575106998
 20
4170.250000000012
 10
6007.846575107
 20
4170.250000000012
 10
6007.846575107
 20
4179.750000000011
 10
6004.946575106998
 20
4179.750000000011
  0
CIRCLE
  5
2B7EC
330
747D
100
AcDbEntity
  8
部品1
 48
50.0
100
AcDbCircle
 10
6006.396575106999
 20
4175.000000000012
 30
0.0
 40
9.0
  0
ARC
  5
2B7ED
330
747D
100
AcDbEntity
  8
細線
 48
50.0
100
AcDbCircle
 10
6006.396575106999
 20
4175.000000000012
 30
0.0
 40
4.0
100
AcDbArc
 50
111.2538091853132
 51
248.7461908146868
  0
ARC
  5
2B7EE
330
747D
100
AcDbEntity
  8
細線
 48
50.0
100
AcDbCircle
 10
6006.396575106999
 20
4175.000000000012
 30
0.0
 40
17.5
100
AcDbArc
 50
306.4837370612677
 51
233.5162629387323
  0
LINE
  5
2B7EF
330
747D
100
AcDbEntity
  8
細線
 48
50.0
100
AcDbLine
 10
6016.396575106995
 20
4151.141039419129
 30
0.0
 11
6016.396575106999
 21
4160.12552521937
 31
0.0
  0
LINE
  5
2B7F0
330
747D
100
AcDbEntity
  8
細線
 48
50.0
100
AcDbLine
 10
5996.396575106999
 20
4151.141039419131
 30
0.0
 11
5996.396575106999
 21
4160.125525219366
 31
0.0
  0
ARC
  5
2B7F1
330
747D
100
AcDbEntity
  8
細線
 48
50.0
100
AcDbCircle
 10
6006.396575106999
 20
4175.000000000012
 30
0.0
 40
26.5
100
AcDbArc
 50
249.332683506403
 51
290.6673164933835
  0
ARC
  5
2B7F2
330
747D
100
AcDbEntity
  8
細線
 48
50.0
100
AcDbCircle
 10
6015.396575106992
 20
4151.141039419129
 30
0.0
 40
1.0
100
AcDbArc
 50
290.667316493597
 51
359.9999999998958
  0
ARC
  5
2B7F3
330
747D
100
AcDbEntity
  8
細線
 48
50.0
100
AcDbCircle
 10
5997.396575106999
 20
4151.141039419131
 30
0.0
 40
1.0
100
AcDbArc
 50
180.0
 51
249.3326835066164
  0
ARC
  5
2B7F4
330
747D
100
AcDbEntity
  8
細線
 48
50.0
100
AcDbCircle
 10
5995.396575106999
 20
4160.125525219366
 30
0.0
 40
1.0
100
AcDbArc
 50
0.0
 51
53.51626293873231
  0
ARC
  5
2B7F5
330
747D
100
AcDbEntity
  8
細線
 48
50.0
100
AcDbCircle
 10
6017.396575107003
 20
4160.12552521937
 30
0.0
 40
1.0
100
AcDbArc
 50
126.4837370615282
 51
180.0
  0
ARC
  5
2B7F6
330
747D
100
AcDbEntity
  8
細線
 48
50.0
100
AcDbCircle
 10
6006.396575106999
 20
4175.000000000012
 30
0.0
 40
21.5
100
AcDbArc
 50
255.8014401250294
 51
284.1985598749706
  0
ARC
  5
2B7F7
330
747D
100
AcDbEntity
  8
細線
 48
50.0
100
AcDbCircle
 10
6006.396575106999
 20
4175.000000000012
 30
0.0
 40
16.5
100
AcDbArc
 50
251.9694646069326
 51
288.0305353930674
  0
LINE
  5
2B7F8
330
747D
100
AcDbEntity
  8
細線
 48
50.0
100
AcDbLine
 10
6011.896575106999
 20
4154.447627874205
 30
0.0
 11
6011.896575106999
 21
4159.025019561542
 31
0.0
  0
LINE
  5
2B7F9
330
747D
100
AcDbEntity
  8
細線
 48
50.0
100
AcDbLine
 10
6000.896575106999
 20
4154.447627874205
 30
0.0
 11
6000.896575106999
 21
4159.025019561539
 31
0.0
  0
ARC
  5
2B7FA
330
747D
100
AcDbEntity
  8
細線
 48
50.0
100
AcDbCircle
 10
6001.196575107002
 20
4159.025019561539
 30
0.0
 40
0.3
100
AcDbArc
 50
71.96946460693259
 51
180.0
  0
ARC
  5
2B7FB
330
747D
100
AcDbEntity
  8
細線
 48
50.0
100
AcDbCircle
 10
6011.596575107
 20
4159.025019561542
 30
0.0
 40
0.3
100
AcDbArc
 50
0.0
 51
108.0305353930674
  0
ARC
  5
2B7FC
330
747D
100
AcDbEntity
  8
細線
 48
50.0
100
AcDbCircle
 10
6011.596575106996
 20
4154.447627874205
 30
0.0
 40
0.3
100
AcDbArc
 50
284.1985598747557
 51
0.0000000001042204
  0
ARC
  5
2B7FD
330
747D
100
AcDbEntity
  8
細線
 48
50.0
100
AcDbCircle
 10
6001.196575107002
 20
4154.447627874205
 30
0.0
 40
0.3
100
AcDbArc
 50
180.0
 51
255.8014401248145
  0
CIRCLE
  5
2B7FE
330
747D
100
AcDbEntity
  8
細線
 48
50.0
100
AcDbCircle
 10
6006.396575106999
 20
4175.000000000012
 30
0.0
 40
12.0
  0
ARC
  5
2B7FF
330
747D
100
AcDbEntity
  8
部品1
 48
50.0
100
AcDbCircle
 10
6006.396575106999
 20
4225.000000000012
 30
0.0
 40
8.5
100
AcDbArc
 50
114.315739171091
 51
245.684260828909
  0
CIRCLE
  5
2B800
330
747D
100
AcDbEntity
  8
細線
 48
50.0
100
AcDbCircle
 10
6006.396575106999
 20
4225.000000000012
 30
0.0
 40
4.5
  0
LWPOLYLINE
  5
2B801
330
747D
100
AcDbEntity
  8
部品1
 48
50.0
100
AcDbPolyline
 90
        2
 70
     0
 43
0.0
 10
6002.896575106999
 20
4243.674849396994
 10
6002.896575106999
 20
4232.745966692426
  0
CIRCLE
  5
2B802
330
747D
100
AcDbEntity
  8
部品1
 48
50.0
100
AcDbCircle
 10
6006.396575106999
 20
4225.000000000012
 30
0.0
 40
19.0
  0
LWPOLYLINE
  5
2B803
330
747D
100
AcDbEntity
  8
部品1
 48
50.0
100
AcDbPolyline
 90
        2
 70
     0
 43
0.0
 10
6002.896575106999
 20
4217.254033307596
 10
6002.896575106999
 20
4206.325150603029
  0
LWPOLYLINE
  5
2B804
330
747D
100
AcDbEntity
  8
部品1
 48
50.0
100
AcDbPolyline
 90
        2
 70
     0
 43
0.0
 10
6009.896575106999
 20
4232.745966692426
 10
6009.896575106999
 20
4243.674849396994
  0
ARC
  5
2B805
330
747D
100
AcDbEntity
  8
部品1
 48
50.0
100
AcDbCircle
 10
6006.396575106999
 20
4225.000000000012
 30
0.0
 40
8.5
100
AcDbArc
 50
294.315739171091
 51
65.68426082890896
  0
LWPOLYLINE
  5
2B806
330
747D
100
AcDbEntity
  8
部品1
 48
50.0
100
AcDbPolyline
 90
        2
 70
     0
 43
0.0
 10
6009.896575106999
 20
4206.325150603029
 10
6009.896575106999
 20
4217.254033307596
  0
ARC
  5
2B807
330
747D
100
AcDbEntity
  8
細線
 48
50.0
100
AcDbCircle
 10
6006.396575106999
 20
4225.000000000012
 30
0.0
 40
16.5
100
AcDbArc
 50
332.0012352654438
 51
27.99876473455621
  0
ARC
  5
2B808
330
747D
100
AcDbEntity
  8
細線
 48
50.0
100
AcDbCircle
 10
6006.396575106999
 20
4225.000000000012
 30
0.0
 40
14.0
100
AcDbArc
 50
326.407443611277
 51
33.59255638872305
  0
LINE
  5
2B809
330
747D
100
AcDbEntity
  8
細線
 48
50.0
100
AcDbLine
 10
5991.827772822667
 20
4232.745966692426
 30
0.0
 11
5994.73467131731
 21
4232.745966692426
 31
0.0
  0
LINE
  5
2B80A
330
747D
100
AcDbEntity
  8
細線
 48
50.0
100
AcDbLine
 10
5991.827772822667
 20
4217.254033307596
 30
0.0
 11
5994.73467131731
 21
4217.254033307596
 31
0.0
  0
LINE
  5
2B80B
330
747D
100
AcDbEntity
  8
細線
 48
50.0
100
AcDbLine
 10
6018.058478896688
 20
4232.745966692426
 30
0.0
 11
6020.965377391334
 21
4232.745966692426
 31
0.0
  0
LINE
  5
2B80C
330
747D
100
AcDbEntity
  8
細線
 48
50.0
100
AcDbLine
 10
6018.058478896688
 20
4217.254033307596
 30
0.0
 11
6020.965377391334
 21
4217.254033307596
 31
0.0
  0
ARC
  5
2B80D
330
747D
100
AcDbEntity
  8
細線
 48
50.0
100
AcDbCircle
 10
6006.396575106999
 20
4225.000000000012
 30
0.0
 40
14.0
100
AcDbArc
 50
146.4074436112769
 51
213.592556388723
  0
ARC
  5
2B80E
330
747D
100
AcDbEntity
  8
細線
 48
50.0
100
AcDbCircle
 10
6006.396575106999
 20
4225.000000000012
 30
0.0
 40
16.5
100
AcDbArc
 50
152.0012352654438
 51
207.9987647345562
  0
ARC
  5
2B80F
330
747D
100
AcDbEntity
  8
部品1
 48
50.0
100
AcDbCircle
 10
5979.896575106999
 20
4250.500000000012
 30
0.0
 40
5.0
100
AcDbArc
 50
90.0
 51
180.0
  0
ARC
  5
2B810
330
747D
100
AcDbEntity
  8
部品1
 48
50.0
100
AcDbCircle
 10
5979.896575106999
 20
4139.500000000011
 30
0.0
 40
5.0
100
AcDbArc
 50
180.0
 51
270.0
  0
ARC
  5
2B811
330
747D
100
AcDbEntity
  8
部品1
 48
50.0
100
AcDbCircle
 10
6032.896575106999
 20
4139.500000000011
 30
0.0
 40
5.0
100
AcDbArc
 50
270.0
 51
0.0
  0
ARC
  5
2B812
330
747D
100
AcDbEntity
  8
部品1
 48
50.0
100
AcDbCircle
 10
6032.896575106999
 20
4250.500000000012
 30
0.0
 40
5.0
100
AcDbArc
 50
0.0
 51
90.0
  0
LINE
  5
2B813
330
747D
100
AcDbEntity
  8
部品1
 48
50.0
100
AcDbLine
 10
5974.896575106999
 20
4139.500000000011
 30
0.0
 11
5974.896575106999
 21
4250.500000000012
 31
0.0
  0
LINE
  5
2B814
330
747D
100
AcDbEntity
  8
部品1
 48
50.0
100
AcDbLine
 10
6032.896575106999
 20
4134.500000000012
 30
0.0
 11
5979.896575106999
 21
4134.500000000012
 31
0.0
  0
LINE
  5
2B815
330
747D
100
AcDbEntity
  8
部品1
 48
50.0
100
AcDbLine
 10
6037.896575106999
 20
4250.500000000012
 30
0.0
 11
6037.896575106999
 21
4139.500000000011
 31
0.0
  0
ENDSEC
  0
SECTION
  2
OBJECTS
  0
DICTIONARY
  5
7471
330
0
100
AcDbDictionary
281
     1
  3
ACAD_COLOR
350
159B0
  3
ACAD_GROUP
350
7472
  3
ACAD_LAYOUT
350
159B1
  3
ACAD_MATERIAL
350
159AF
  3
ACAD_MLINESTYLE
350
7473
  3
ACAD_PLOTSETTINGS
350
159B2
  3
ACAD_PLOTSTYLENAME
350
159AD
  3
ACDBHEADERROUNDTRIPXREC
350
2B824
  3
AcDbVariableDictionary
350
2B820
  3
CONTENTDICTIONARY
350
E71C
  3
DRAWINGVARIABLESDICT
350
F3B9
  0
DICTIONARY
  5
1FFA9
330
7467
100
AcDbDictionary
280
     1
281
     1
  3
ACAD_LAYERSTATES
360
1FFAA
  0
DICTIONARY
  5
159B0
102
{ACAD_REACTORS
330
7471
102
}
330
7471
100
AcDbDictionary
281
     1
  0
DICTIONARY
  5
7472
102
{ACAD_REACTORS
330
7471
102
}
330
7471
100
AcDbDictionary
281
     1
  0
DICTIONARY
  5
159B1
102
{ACAD_REACTORS
330
7471
102
}
330
7471
100
AcDbDictionary
281
     1
  3
Model
350
159B3
  3
レイアウト1
350
159B4
  0
DICTIONARY
  5
159AF
102
{ACAD_REACTORS
330
7471
102
}
330
7471
100
AcDbDictionary
281
     1
  0
DICTIONARY
  5
7473
102
{ACAD_REACTORS
330
7471
102
}
330
7471
100
AcDbDictionary
281
     1
  3
STANDARD
350
7480
  0
DICTIONARY
  5
159B2
102
{ACAD_REACTORS
330
7471
102
}
330
7471
100
AcDbDictionary
281
     1
  0
ACDBDICTIONARYWDFLT
  5
159AD
102
{ACAD_REACTORS
330
7471
102
}
330
7471
100
AcDbDictionary
281
     1
  3
Normal
350
159AE
100
AcDbDictionaryWithDefault
340
159AE
  0
DICTIONARY
  5
2B824
102
{ACAD_REACTORS
330
7471
102
}
330
7471
100
AcDbDictionary
281
     1
  3
COLORDICT
350
2B826
  3
MATERIALDICT
350
2B825
  0
DICTIONARY
  5
2B820
102
{ACAD_REACTORS
330
7471
102
}
330
7471
100
AcDbDictionary
281
     1
  3
DIMASSOC
350
2B821
  3
PROJECTNAME
350
2B822
  0
DICTIONARY
  5
E71C
102
{ACAD_REACTORS
330
7471
102
}
330
7471
100
AcDbDictionary
281
     1
  0
DICTIONARY
  5
F3B9
102
{ACAD_REACTORS
330
7471
102
}
330
7471
100
AcDbDictionary
281
     1
1001
DRAWINGVARIABLESXDATA
1000
POLARMODE
1000
1
  0
DICTIONARY
  5
1FFAA
102
{ACAD_REACTORS
330
1FFA9
102
}
330
1FFA9
100
AcDbDictionary
281
     1
  0
LAYOUT
  5
159B3
102
{ACAD_XDICTIONARY
360
2B827
102
}
102
{ACAD_REACTORS
330
159B1
102
}
330
159B1
100
AcDbPlotSettings
  1

  2
none_device
  4
Letter_(8.50_x_11.00_Inches)
  6

 40
6.349999904632568
 41
6.349999904632568
 42
6.350006103515625
 43
6.350006103515625
 44
215.8999938964844
 45
279.3999938964844
 46
0.0
 47
0.0
 48
0.0
 49
0.0
140
0.0
141
0.0
142
1.0
143
1.0
 70
 11952
 72
     1
 73
     1
 74
     0
  7

 75
     0
147
1.0
148
-4149.571981164617
149
65.56433826894044
100
AcDbLayout
  1
Model
 70
     1
 71
     0
 10
0.0
 20
0.0
 11
12.0
 21
9.0
 12
0.0
 22
0.0
 32
0.0
 14
0.0
 24
0.0
 34
0.0
 15
0.0
 25
0.0
 35
0.0
146
0.0
 13
0.0
 23
0.0
 33
0.0
 16
1.0
 26
0.0
 36
0.0
 17
0.0
 27
1.0
 37
0.0
 76
     0
330
747D
  0
LAYOUT
  5
159B4
102
{ACAD_XDICTIONARY
360
2B829
102
}
102
{ACAD_REACTORS
330
159B1
102
}
330
159B1
100
AcDbPlotSettings
  1

  2
自動 EPSON LP-8400FX (TATENO 上)
  4

  6

 40
0.0
 41
0.0
 42
0.0
 43
0.0
 44
0.0
 45
0.0
 46
0.0
 47
0.0
 48
0.0
 49
0.0
140
0.0
141
0.0
142
1.0
143
1.0
 70
   688
 72
     0
 73
     0
 74
     5
  7
inaba.ctb
 75
    16
147
1.0
148
0.0
149
0.0
100
AcDbLayout
  1
レイアウト1
 70
     0
 71
     1
 10
0.0
 20
0.0
 11
420.0
 21
297.0
 12
0.0
 22
0.0
 32
0.0
 14
1.000000000000000E+20
 24
1.000000000000000E+20
 34
1.000000000000000E+20
 15
-1.000000000000000E+20
 25
-1.000000000000000E+20
 35
-1.000000000000000E+20
146
0.0
 13
0.0
 23
0.0
 33
0.0
 16
1.0
 26
0.0
 36
0.0
 17
0.0
 27
1.0
 37
0.0
 76
     0
330
747A
  0
MLINESTYLE
  5
7480
102
{ACAD_REACTORS
330
7473
102
}
330
7473
100
AcDbMlineStyle
  2
STANDARD
 70
     0
  3

 62
     0
 51
90.0
 52
90.0
 71
     2
 49
0.5
 62
   256
  6
BYLAYER
 49
-0.5
 62
   256
  6
BYLAYER
  0
ACDBPLACEHOLDER
  5
159AE
102
{ACAD_REACTORS
330
159AD
102
}
330
159AD
  0
XRECORD
  5
2B826
102
{ACAD_REACTORS
330
2B824
102
}
330
2B824
100
AcDbXrecord
280
     1
340
159B0
  0
XRECORD
  5
2B825
102
{ACAD_REACTORS
330
2B824
102
}
330
2B824
100
AcDbXrecord
280
     1
340
159AF
  0
DICTIONARYVAR
  5
2B821
102
{ACAD_REACTORS
330
2B820
102
}
330
2B820
100
DictionaryVariables
280
     0
  1
1
  0
DICTIONARYVAR
  5
2B822
102
{ACAD_REACTORS
330
2B820
102
}
330
2B820
100
DictionaryVariables
280
     0
  1

  0
DICTIONARY
  5
2B827
330
159B3
100
AcDbDictionary
280
     1
281
     1
  3
ACAD_XREC_ROUNDTRIP
360
2B828
  0
DICTIONARY
  5
2B829
330
159B4
100
AcDbDictionary
280
     1
281
     1
  3
ACAD_XREC_ROUNDTRIP
360
2B82A
  0
XRECORD
  5
2B828
102
{ACAD_REACTORS
330
2B827
102
}
330
2B827
100
AcDbXrecord
280
     1
102
SHADEPLOT
 70
     0
102
SHADEPLOTRESLEVEL
 70
     2
102
SHADEPLOTCUSTOMDPI
 70
   300
  0
XRECORD
  5
2B82A
102
{ACAD_REACTORS
330
2B829
102
}
330
2B829
100
AcDbXrecord
280
     1
102
SHADEPLOT
 70
     0
102
SHADEPLOTRESLEVEL
 70
     2
102
SHADEPLOTCUSTOMDPI
 70
   300
  0
ENDSEC
  0
EOF
