  0
SECTION
  2
HEADER
  9
$ACADVER
  1
AC1015
  9
$ACADMAINTVER
 70
    20
  9
$DWGCODEPAGE
  3
ANSI_932
  9
$INSBASE
 10
0.0
 20
0.0
 30
0.0
  9
$EXTMIN
 10
139.9999999999995
 20
-0.0000000000000909
 30
0.0
  9
$EXTMAX
 10
16307.2
 20
11409.6
 30
0.0
  9
$LIMMIN
 10
0.0
 20
0.0
  9
$LIMMAX
 10
16800.0
 20
11880.0
  9
$ORTHOMODE
 70
     0
  9
$REGENMODE
 70
     1
  9
$FILLMODE
 70
     1
  9
$QTEXTMODE
 70
     0
  9
$MIRRTEXT
 70
     1
  9
$LTSCALE
 40
20.0
  9
$ATTMODE
 70
     1
  9
$TEXTSIZE
 40
4.0
  9
$TRACEWID
 40
1.0
  9
$TEXTSTYLE
  7
STYLE1
  9
$CLAYER
  8
部品1
  9
$CELTYPE
  6
BYLAYER
  9
$CECOLOR
 62
   256
  9
$CELTSCALE
 40
50.0
  9
$DISPSILH
 70
     0
  9
$DIMSCALE
 40
40.0
  9
$DIMASZ
 40
2.5
  9
$DIMEXO
 40
0.5
  9
$DIMDLI
 40
7.0
  9
$DIMRND
 40
0.0
  9
$DIMDLE
 40
0.0
  9
$DIMEXE
 40
1.5
  9
$DIMTP
 40
0.0
  9
$DIMTM
 40
0.0
  9
$DIMTXT
 40
3.0
  9
$DIMCEN
 40
0.0
  9
$DIMTSZ
 40
0.0
  9
$DIMTOL
 70
     0
  9
$DIMLIM
 70
     0
  9
$DIMTIH
 70
     0
  9
$DIMTOH
 70
     0
  9
$DIMSE1
 70
     0
  9
$DIMSE2
 70
     0
  9
$DIMTAD
 70
     3
  9
$DIMZIN
 70
     8
  9
$DIMBLK
  1

  9
$DIMASO
 70
     1
  9
$DIMSHO
 70
     1
  9
$DIMPOST
  1

  9
$DIMAPOST
  1

  9
$DIMALT
 70
     0
  9
$DIMALTD
 70
     2
  9
$DIMALTF
 40
0.0394
  9
$DIMLFAC
 40
1.0
  9
$DIMTOFL
 70
     1
  9
$DIMTVP
 40
0.0
  9
$DIMTIX
 70
     1
  9
$DIMSOXD
 70
     0
  9
$DIMSAH
 70
     1
  9
$DIMBLK1
  1
DOTSMALL
  9
$DIMBLK2
  1
DOTSMALL
  9
$DIMSTYLE
  2
INABA_S40G
  9
$DIMCLRD
 70
     0
  9
$DIMCLRE
 70
     0
  9
$DIMCLRT
 70
     7
  9
$DIMTFAC
 40
1.0
  9
$DIMGAP
 40
1.0
  9
$DIMJUST
 70
     0
  9
$DIMSD1
 70
     0
  9
$DIMSD2
 70
     0
  9
$DIMTOLJ
 70
     1
  9
$DIMTZIN
 70
     0
  9
$DIMALTZ
 70
     0
  9
$DIMALTTZ
 70
     0
  9
$DIMUPT
 70
     0
  9
$DIMDEC
 70
     1
  9
$DIMTDEC
 70
     4
  9
$DIMALTU
 70
     2
  9
$DIMALTTD
 70
     2
  9
$DIMTXSTY
  7
STYLE1
  9
$DIMAUNIT
 70
     0
  9
$DIMADEC
 70
     0
  9
$DIMALTRND
 40
0.0
  9
$DIMAZIN
 70
     0
  9
$DIMDSEP
 70
    46
  9
$DIMATFIT
 70
     3
  9
$DIMFRAC
 70
     0
  9
$DIMLDRBLK
  1

  9
$DIMLUNIT
 70
     2
  9
$DIMLWD
 70
    -2
  9
$DIMLWE
 70
    -2
  9
$DIMTMOVE
 70
     0
  9
$LUNITS
 70
     2
  9
$LUPREC
 70
     1
  9
$SKETCHINC
 40
1.0
  9
$FILLETRAD
 40
3.0
  9
$AUNITS
 70
     0
  9
$AUPREC
 70
     0
  9
$MENU
  1
acad
  9
$ELEVATION
 40
0.0
  9
$PELEVATION
 40
0.0
  9
$THICKNESS
 40
0.0
  9
$LIMCHECK
 70
     0
  9
$CHAMFERA
 40
0.0
  9
$CHAMFERB
 40
0.0
  9
$CHAMFERC
 40
0.0
  9
$CHAMFERD
 40
0.0
  9
$SKPOLY
 70
     0
  9
$TDCREATE
 40
2451368.612993866
  9
$TDUCREATE
 40
2451368.237993866
  9
$TDUPDATE
 40
2455575.686237697
  9
$TDUUPDATE
 40
2455575.311237697
  9
$TDINDWG
 40
0.6020573148
  9
$TDUSRTIMER
 40
0.6020573148
  9
$USRTIMER
 70
     1
  9
$ANGBASE
 50
0.0
  9
$ANGDIR
 70
     0
  9
$PDMODE
 70
     3
  9
$PDSIZE
 40
2.0
  9
$PLINEWID
 40
0.0
  9
$SPLFRAME
 70
     0
  9
$SPLINETYPE
 70
     6
  9
$SPLINESEGS
 70
     8
  9
$HANDSEED
  5
18584
  9
$SURFTAB1
 70
     6
  9
$SURFTAB2
 70
     6
  9
$SURFTYPE
 70
     6
  9
$SURFU
 70
     6
  9
$SURFV
 70
     6
  9
$UCSBASE
  2

  9
$UCSNAME
  2

  9
$UCSORG
 10
0.0
 20
0.0
 30
0.0
  9
$UCSXDIR
 10
1.0
 20
0.0
 30
0.0
  9
$UCSYDIR
 10
0.0
 20
1.0
 30
0.0
  9
$UCSORTHOREF
  2

  9
$UCSORTHOVIEW
 70
     0
  9
$UCSORGTOP
 10
0.0
 20
0.0
 30
0.0
  9
$UCSORGBOTTOM
 10
0.0
 20
0.0
 30
0.0
  9
$UCSORGLEFT
 10
0.0
 20
0.0
 30
0.0
  9
$UCSORGRIGHT
 10
0.0
 20
0.0
 30
0.0
  9
$UCSORGFRONT
 10
0.0
 20
0.0
 30
0.0
  9
$UCSORGBACK
 10
0.0
 20
0.0
 30
0.0
  9
$PUCSBASE
  2

  9
$PUCSNAME
  2

  9
$PUCSORG
 10
0.0
 20
0.0
 30
0.0
  9
$PUCSXDIR
 10
1.0
 20
0.0
 30
0.0
  9
$PUCSYDIR
 10
0.0
 20
1.0
 30
0.0
  9
$PUCSORTHOREF
  2

  9
$PUCSORTHOVIEW
 70
     0
  9
$PUCSORGTOP
 10
0.0
 20
0.0
 30
0.0
  9
$PUCSORGBOTTOM
 10
0.0
 20
0.0
 30
0.0
  9
$PUCSORGLEFT
 10
0.0
 20
0.0
 30
0.0
  9
$PUCSORGRIGHT
 10
0.0
 20
0.0
 30
0.0
  9
$PUCSORGFRONT
 10
0.0
 20
0.0
 30
0.0
  9
$PUCSORGBACK
 10
0.0
 20
0.0
 30
0.0
  9
$USERI1
 70
     0
  9
$USERI2
 70
     0
  9
$USERI3
 70
     0
  9
$USERI4
 70
     0
  9
$USERI5
 70
     0
  9
$USERR1
 40
0.0
  9
$USERR2
 40
0.0
  9
$USERR3
 40
0.0
  9
$USERR4
 40
0.0
  9
$USERR5
 40
0.0
  9
$WORLDVIEW
 70
     1
  9
$SHADEDGE
 70
     3
  9
$SHADEDIF
 70
    70
  9
$TILEMODE
 70
     1
  9
$MAXACTVP
 70
    16
  9
$PINSBASE
 10
0.0
 20
0.0
 30
0.0
  9
$PLIMCHECK
 70
     0
  9
$PEXTMIN
 10
1.000000000000000E+20
 20
1.000000000000000E+20
 30
1.000000000000000E+20
  9
$PEXTMAX
 10
-1.000000000000000E+20
 20
-1.000000000000000E+20
 30
-1.000000000000000E+20
  9
$PLIMMIN
 10
0.0
 20
0.0
  9
$PLIMMAX
 10
420.0
 20
297.0
  9
$UNITMODE
 70
     0
  9
$VISRETAIN
 70
     0
  9
$PLINEGEN
 70
     0
  9
$PSLTSCALE
 70
     0
  9
$TREEDEPTH
 70
  3020
  9
$CMLSTYLE
  2
STANDARD
  9
$CMLJUST
 70
     0
  9
$CMLSCALE
 40
1.0
  9
$PROXYGRAPHICS
 70
     1
  9
$MEASUREMENT
 70
     1
  9
$CELWEIGHT
370
    -1
  9
$ENDCAPS
280
     0
  9
$JOINSTYLE
280
     0
  9
$LWDISPLAY
290
     0
  9
$INSUNITS
 70
     0
  9
$HYPERLINKBASE
  1

  9
$STYLESHEET
  1

  9
$XEDIT
290
     1
  9
$CEPSNTYPE
380
     0
  9
$PSTYLEMODE
290
     1
  9
$FINGERPRINTGUID
  2
{FACED41A-2882-4564-85E7-94649C4BC0A9}
  9
$VERSIONGUID
  2
{6D573A8A-FFB4-4383-B9F3-2F0F5C38D2CC}
  9
$EXTNAMES
290
     1
  9
$PSVPSCALE
 40
0.0
  9
$OLESTARTUP
290
     0
  0
ENDSEC
  0
SECTION
  2
CLASSES
  0
CLASS
  1
ACDBDICTIONARYWDFLT
  2
AcDbDictionaryWithDefault
  3
ObjectDBX Classes
 90
        0
280
     0
281
     0
  0
CLASS
  1
DICTIONARYVAR
  2
AcDbDictionaryVar
  3
ObjectDBX Classes
 90
        0
280
     0
281
     0
  0
CLASS
  1
ACDBPLACEHOLDER
  2
AcDbPlaceHolder
  3
ObjectDBX Classes
 90
        0
280
     0
281
     0
  0
CLASS
  1
LAYOUT
  2
AcDbLayout
  3
ObjectDBX Classes
 90
        0
280
     0
281
     0
  0
ENDSEC
  0
SECTION
  2
TABLES
  0
TABLE
  2
VPORT
  5
746D
330
0
100
AcDbSymbolTable
 70
     2
  0
VPORT
  5
1857C
330
746D
100
AcDbSymbolTableRecord
100
AcDbViewportTableRecord
  2
*Active
 70
     0
 10
0.0
 20
0.0
 11
1.0
 21
1.0
 12
8223.761025238502
 22
6348.703162895247
 13
0.0
 23
0.0
 14
10.0
 24
10.0
 15
10.0
 25
10.0
 16
0.0
 26
0.0
 36
1.0
 17
0.0
 27
0.0
 37
0.0
 40
12805.60689082044
 41
1.525925925925925
 42
50.0
 43
0.0
 44
0.0
 50
0.0
 51
0.0
 71
     0
 72
     0
 73
     1
 74
     0
 75
     0
 76
     0
 77
     0
 78
     0
281
     0
 65
     1
110
0.0
120
0.0
130
0.0
111
1.0
121
0.0
131
0.0
112
0.0
122
1.0
132
0.0
 79
     0
146
0.0
  0
ENDTAB
  0
TABLE
  2
LTYPE
  5
746A
330
0
100
AcDbSymbolTable
 70
     4
  0
LTYPE
  5
7477
330
746A
100
AcDbSymbolTableRecord
100
AcDbLinetypeTableRecord
  2
BYBLOCK
 70
     0
  3

 72
    65
 73
     0
 40
0.0
  0
LTYPE
  5
7478
330
746A
100
AcDbSymbolTableRecord
100
AcDbLinetypeTableRecord
  2
BYLAYER
 70
     0
  3

 72
    65
 73
     0
 40
0.0
  0
LTYPE
  5
7479
330
746A
100
AcDbSymbolTableRecord
100
AcDbLinetypeTableRecord
  2
CONTINUOUS
 70
     0
  3
Solid line
 72
    65
 73
     0
 40
0.0
  0
LTYPE
  5
7816
330
746A
100
AcDbSymbolTableRecord
100
AcDbLinetypeTableRecord
  2
CENTER
 70
     0
  3
____ _ ____ _ ____ _ ____ _ ____ _ ____ _ ____ 
 72
    65
 73
     4
 40
2.0
 49
1.25
 74
     0
 49
-0.25
 74
     0
 49
0.25
 74
     0
 49
-0.25
 74
     0
  0
LTYPE
  5
781A
330
746A
100
AcDbSymbolTableRecord
100
AcDbLinetypeTableRecord
  2
HIDDEN
 70
     0
  3
__ __ __ __ __ __ __ __ __ __ __ __ __ __ __ __
 72
    65
 73
     2
 40
0.375
 49
0.25
 74
     0
 49
-0.125
 74
     0
  0
LTYPE
  5
781B
330
746A
100
AcDbSymbolTableRecord
100
AcDbLinetypeTableRecord
  2
PHANTOM
 70
     0
  3
______  __  __  ______  __  __  ______  __  __ 
 72
    65
 73
     6
 40
2.5
 49
1.25
 74
     0
 49
-0.25
 74
     0
 49
0.25
 74
     0
 49
-0.25
 74
     0
 49
0.25
 74
     0
 49
-0.25
 74
     0
  0
ENDTAB
  0
TABLE
  2
LAYER
  5
7467
102
{ACAD_XDICTIONARY
360
16EC4
102
}
330
0
100
AcDbSymbolTable
 70
    12
  0
LAYER
  5
7474
330
7467
100
AcDbSymbolTableRecord
100
AcDbLayerTableRecord
  2
0
 70
     0
 62
     7
  6
CONTINUOUS
370
    -3
390
16D28
  0
LAYER
  5
DEB2
330
7467
100
AcDbSymbolTableRecord
100
AcDbLayerTableRecord
  2
センター
 70
     0
 62
     3
  6
CENTER
370
    -3
390
16D28
  0
LAYER
  5
DEB3
330
7467
100
AcDbSymbolTableRecord
100
AcDbLayerTableRecord
  2
寸法
 70
     0
 62
     4
  6
CONTINUOUS
370
    -3
390
16D28
  0
LAYER
  5
DEB4
330
7467
100
AcDbSymbolTableRecord
100
AcDbLayerTableRecord
  2
部品1
 70
     0
 62
     7
  6
CONTINUOUS
370
    -3
390
16D28
  0
LAYER
  5
DEB5
330
7467
100
AcDbSymbolTableRecord
100
AcDbLayerTableRecord
  2
補助
 70
     0
 62
    -1
  6
CONTINUOUS
370
    -3
390
16D28
  0
LAYER
  5
DEB6
330
7467
100
AcDbSymbolTableRecord
100
AcDbLayerTableRecord
  2
文字
 70
     0
 62
     7
  6
CONTINUOUS
370
    -3
390
16D28
  0
LAYER
  5
F255
330
7467
100
AcDbSymbolTableRecord
100
AcDbLayerTableRecord
  2
DEFPOINTS
 70
     0
 62
     7
  6
CONTINUOUS
290
     0
370
    -3
390
16D28
  0
LAYER
  5
10B54
330
7467
100
AcDbSymbolTableRecord
100
AcDbLayerTableRecord
  2
仕様書枠
 70
     0
 62
   230
  6
CONTINUOUS
370
    -3
390
16D28
  0
LAYER
  5
11729
330
7467
100
AcDbSymbolTableRecord
100
AcDbLayerTableRecord
  2
Ｇ．Ｌ
 70
     0
 62
    30
  6
CONTINUOUS
370
    -3
390
16D28
  0
LAYER
  5
1173F
330
7467
100
AcDbSymbolTableRecord
100
AcDbLayerTableRecord
  2
細線
 70
     0
 62
     5
  6
CONTINUOUS
370
    -3
390
16D28
  0
LAYER
  5
12CC4
330
7467
100
AcDbSymbolTableRecord
100
AcDbLayerTableRecord
  2
想像線
 70
     0
 62
     6
  6
PHANTOM
370
    -3
390
16D28
  0
LAYER
  5
142E2
330
7467
100
AcDbSymbolTableRecord
100
AcDbLayerTableRecord
  2
破線
 70
     0
 62
     2
  6
HIDDEN
370
    -3
390
16D28
  0
ENDTAB
  0
TABLE
  2
STYLE
  5
7468
330
0
100
AcDbSymbolTable
 70
     4
  0
STYLE
  5
7475
330
7468
100
AcDbSymbolTableRecord
100
AcDbTextStyleTableRecord
  2
STANDARD
 70
     0
 40
0.0
 41
1.0
 50
0.0
 71
     0
 42
4.0
  3
txt
  4
C:\AutoCAD LT\bigfont.shx
  0
STYLE
  5
F706
330
7468
100
AcDbSymbolTableRecord
100
AcDbTextStyleTableRecord
  2
STYLE1
 70
     0
 40
0.0
 41
1.0
 50
0.0
 71
     0
 42
4.0
  3
isocp.shx
  4
bigfont.shx
  0
STYLE
  5
103BF
330
7468
100
AcDbSymbolTableRecord
100
AcDbTextStyleTableRecord
  2
STYLE2
 70
     0
 40
0.0
 41
1.0
 50
0.0
 71
     0
 42
100.0
  3
MS PGothic.ttf
  4

1001
ACAD
1000
MS PGothic
1071
    32818
  0
STYLE
  5
17ED6
330
7468
100
AcDbSymbolTableRecord
100
AcDbTextStyleTableRecord
  2
STYLE3
 70
     0
 40
0.0
 41
1.0
 50
0.0
 71
     0
 42
100.0
  3

  4

1001
ACAD
1000
DFPGothic-EB
1071
    32818
  0
ENDTAB
  0
TABLE
  2
VIEW
  5
746B
330
0
100
AcDbSymbolTable
 70
     0
  0
ENDTAB
  0
TABLE
  2
UCS
  5
746C
330
0
100
AcDbSymbolTable
 70
     0
  0
ENDTAB
  0
TABLE
  2
APPID
  5
746E
330
0
100
AcDbSymbolTable
 70
     6
  0
APPID
  5
7476
330
746E
100
AcDbSymbolTableRecord
100
AcDbRegAppTableRecord
  2
ACAD
 70
     0
  0
APPID
  5
DEA9
330
746E
100
AcDbSymbolTableRecord
100
AcDbRegAppTableRecord
  2
CONTENTBLOCKICON
 70
     0
  0
APPID
  5
DEAA
330
746E
100
AcDbSymbolTableRecord
100
AcDbRegAppTableRecord
  2
CONTENTBLOCKDESCRIPTION
 70
     0
  0
APPID
  5
E71D
330
746E
100
AcDbSymbolTableRecord
100
AcDbRegAppTableRecord
  2
CONTENTTABDATA
 70
     0
  0
APPID
  5
E71E
330
746E
100
AcDbSymbolTableRecord
100
AcDbRegAppTableRecord
  2
CONTENTCURRENTTAB
 70
     0
  0
APPID
  5
F3BA
330
746E
100
AcDbSymbolTableRecord
100
AcDbRegAppTableRecord
  2
DRAWINGVARIABLESXDATA
 70
     0
  0
ENDTAB
  0
TABLE
  2
DIMSTYLE
  5
746F
330
0
100
AcDbSymbolTable
 70
     5
100
AcDbDimStyleTable
 71
     0
  0
DIMSTYLE
105
7484
330
746F
100
AcDbSymbolTableRecord
100
AcDbDimStyleTableRecord
  2
JIS
 70
     0
 41
2.5
 42
1.0
 43
7.0
 44
1.0
 73
     0
 74
     0
 77
     1
 78
     8
140
2.5
141
0.0
143
0.0394
147
0.0
172
     1
174
     1
175
     1
340
7475
  0
DIMSTYLE
105
F71F
102
{ACAD_REACTORS
330
17169
330
1716A
330
1716B
330
1716C
330
1718A
330
1718B
330
1718C
330
1718D
330
1718E
330
1718F
330
1719B
330
171BA
330
171BB
330
171BC
330
171BD
330
171C1
330
171F8
330
171F9
330
171FD
330
17208
330
17209
330
173FB
330
17AB0
330
17AB4
330
17ABF
330
17AC0
330
17AC1
330
17AFC
330
184C4
330
184BE
102
}
330
746F
100
AcDbSymbolTableRecord
100
AcDbDimStyleTableRecord
  2
INABA_S40G
 70
     0
 40
40.0
 41
2.5
 42
0.5
 43
7.0
 44
1.5
 73
     0
 74
     0
 77
     3
 78
     8
140
3.0
141
0.0
143
0.0394
147
1.0
172
     1
173
     1
174
     1
178
     7
271
     1
340
F706
341
F770
343
F770
344
F770
  0
DIMSTYLE
105
16EC3
102
{ACAD_REACTORS
330
17FE2
330
184C5
102
}
330
746F
100
AcDbSymbolTableRecord
100
AcDbDimStyleTableRecord
  2
INABA_S40
 70
     0
 40
40.0
 41
2.5
 42
0.5
 43
7.0
 44
1.5
 73
     0
 74
     0
 77
     3
 78
     8
140
3.0
141
0.0
143
0.0394
147
1.0
172
     1
173
     1
174
     1
175
     1
178
     7
340
7475
  0
DIMSTYLE
105
17ED7
330
746F
100
AcDbSymbolTableRecord
100
AcDbDimStyleTableRecord
  2
INABA_S50G
 70
     0
 41
125.0
 42
25.0
 43
7.0
 44
75.0
 73
     0
 74
     0
 77
     3
 78
     8
140
150.0
141
0.0
143
0.0394
147
25.0
172
     1
173
     1
174
     1
175
     1
178
     7
271
     1
340
F706
341
F770
343
F770
344
F770
  0
DIMSTYLE
105
18512
330
746F
100
AcDbSymbolTableRecord
100
AcDbDimStyleTableRecord
  2
INABA_S20G
 70
     0
 40
20.0
 41
2.5
 42
0.5
 43
7.0
 44
1.5
 73
     0
 74
     0
 77
     3
 78
     8
140
3.0
141
0.0
143
0.0394
147
1.0
172
     1
173
     1
174
     1
178
     7
271
     1
340
F706
341
F770
343
F770
344
F770
  0
ENDTAB
  0
TABLE
  2
BLOCK_RECORD
  5
7466
330
0
100
AcDbSymbolTable
 70
    34
  0
BLOCK_RECORD
  5
747D
330
7466
100
AcDbSymbolTableRecord
100
AcDbBlockTableRecord
  2
*MODEL_SPACE
340
16D2D
  0
BLOCK_RECORD
  5
747A
330
7466
100
AcDbSymbolTableRecord
100
AcDbBlockTableRecord
  2
*PAPER_SPACE
340
16D2E
  0
BLOCK_RECORD
  5
F770
330
7466
100
AcDbSymbolTableRecord
100
AcDbBlockTableRecord
  2
_DOTSMALL
340
0
102
{BLKREFS
331
17D6D
331
17D6E
331
17D78
331
17D79
331
17D81
331
17D82
331
17D8A
331
17D8B
331
17D93
331
17D94
331
17D9C
331
17D9D
331
17DA5
331
17DA6
331
17DC4
331
17DC5
331
17DCD
331
17DCE
331
17DD8
331
17DD9
331
17DEA
331
17DEB
331
17DF3
331
17DF4
331
17E05
331
17E06
331
17E10
331
17E11
331
17E19
331
17E1A
331
17E24
331
17E25
331
17E2D
331
17E2E
331
17E36
331
17E37
331
17E40
331
17E41
331
17E49
331
17E4A
331
17E52
331
17E53
331
17E5D
331
17E5E
331
17E67
331
17E68
331
17E71
331
17E72
331
17E7A
331
17E7B
331
17E83
331
17E84
331
17E8E
331
17E8F
331
17EA1
331
17EA2
331
184EF
331
184F0
331
18503
331
18504
102
}
  0
BLOCK_RECORD
  5
16D35
330
7466
100
AcDbSymbolTableRecord
100
AcDbBlockTableRecord
  2
_DOT
340
0
102
{BLKREFS
331
180A4
331
180A5
331
184FA
331
184FB
102
}
  0
BLOCK_RECORD
  5
17408
330
7466
100
AcDbSymbolTableRecord
100
AcDbBlockTableRecord
  2
*D2
340
0
  0
BLOCK_RECORD
  5
17416
330
7466
100
AcDbSymbolTableRecord
100
AcDbBlockTableRecord
  2
*D3
340
0
  0
BLOCK_RECORD
  5
17422
330
7466
100
AcDbSymbolTableRecord
100
AcDbBlockTableRecord
  2
*D4
340
0
  0
BLOCK_RECORD
  5
1742E
330
7466
100
AcDbSymbolTableRecord
100
AcDbBlockTableRecord
  2
*D5
340
0
  0
BLOCK_RECORD
  5
1743B
330
7466
100
AcDbSymbolTableRecord
100
AcDbBlockTableRecord
  2
*D6
340
0
  0
BLOCK_RECORD
  5
17448
330
7466
100
AcDbSymbolTableRecord
100
AcDbBlockTableRecord
  2
*D7
340
0
  0
BLOCK_RECORD
  5
17456
330
7466
100
AcDbSymbolTableRecord
100
AcDbBlockTableRecord
  2
*D8
340
0
  0
BLOCK_RECORD
  5
17462
330
7466
100
AcDbSymbolTableRecord
100
AcDbBlockTableRecord
  2
*D9
340
0
  0
BLOCK_RECORD
  5
1746E
330
7466
100
AcDbSymbolTableRecord
100
AcDbBlockTableRecord
  2
*D10
340
0
  0
BLOCK_RECORD
  5
1747B
330
7466
100
AcDbSymbolTableRecord
100
AcDbBlockTableRecord
  2
*D11
340
0
  0
BLOCK_RECORD
  5
17487
330
7466
100
AcDbSymbolTableRecord
100
AcDbBlockTableRecord
  2
*D12
340
0
  0
BLOCK_RECORD
  5
17493
330
7466
100
AcDbSymbolTableRecord
100
AcDbBlockTableRecord
  2
*D13
340
0
  0
BLOCK_RECORD
  5
174A1
330
7466
100
AcDbSymbolTableRecord
100
AcDbBlockTableRecord
  2
*D14
340
0
  0
BLOCK_RECORD
  5
174AD
330
7466
100
AcDbSymbolTableRecord
100
AcDbBlockTableRecord
  2
*D15
340
0
  0
BLOCK_RECORD
  5
174BB
330
7466
100
AcDbSymbolTableRecord
100
AcDbBlockTableRecord
  2
*D16
340
0
  0
BLOCK_RECORD
  5
174D3
330
7466
100
AcDbSymbolTableRecord
100
AcDbBlockTableRecord
  2
*D17
340
0
  0
BLOCK_RECORD
  5
174DF
330
7466
100
AcDbSymbolTableRecord
100
AcDbBlockTableRecord
  2
*D18
340
0
  0
BLOCK_RECORD
  5
174EB
330
7466
100
AcDbSymbolTableRecord
100
AcDbBlockTableRecord
  2
*D19
340
0
  0
BLOCK_RECORD
  5
174F7
330
7466
100
AcDbSymbolTableRecord
100
AcDbBlockTableRecord
  2
*D20
340
0
  0
BLOCK_RECORD
  5
17505
330
7466
100
AcDbSymbolTableRecord
100
AcDbBlockTableRecord
  2
*D21
340
0
  0
BLOCK_RECORD
  5
17511
330
7466
100
AcDbSymbolTableRecord
100
AcDbBlockTableRecord
  2
*D22
340
0
  0
BLOCK_RECORD
  5
17585
330
7466
100
AcDbSymbolTableRecord
100
AcDbBlockTableRecord
  2
*D23
340
0
  0
BLOCK_RECORD
  5
17B9E
330
7466
100
AcDbSymbolTableRecord
100
AcDbBlockTableRecord
  2
*D24
340
0
  0
BLOCK_RECORD
  5
17BAA
330
7466
100
AcDbSymbolTableRecord
100
AcDbBlockTableRecord
  2
*D25
340
0
  0
BLOCK_RECORD
  5
17BB6
330
7466
100
AcDbSymbolTableRecord
100
AcDbBlockTableRecord
  2
*D26
340
0
  0
BLOCK_RECORD
  5
17BC2
330
7466
100
AcDbSymbolTableRecord
100
AcDbBlockTableRecord
  2
*D27
340
0
  0
BLOCK_RECORD
  5
17BCE
330
7466
100
AcDbSymbolTableRecord
100
AcDbBlockTableRecord
  2
*D28
340
0
  0
BLOCK_RECORD
  5
17BDC
330
7466
100
AcDbSymbolTableRecord
100
AcDbBlockTableRecord
  2
*D29
340
0
  0
BLOCK_RECORD
  5
1804D
330
7466
100
AcDbSymbolTableRecord
100
AcDbBlockTableRecord
  2
*D30
340
0
  0
BLOCK_RECORD
  5
184C6
330
7466
100
AcDbSymbolTableRecord
100
AcDbBlockTableRecord
  2
*D31
340
0
  0
BLOCK_RECORD
  5
184D2
330
7466
100
AcDbSymbolTableRecord
100
AcDbBlockTableRecord
  2
*D32
340
0
  0
BLOCK_RECORD
  5
184E0
330
7466
100
AcDbSymbolTableRecord
100
AcDbBlockTableRecord
  2
*D33
340
0
  0
ENDTAB
  0
ENDSEC
  0
SECTION
  2
BLOCKS
  0
BLOCK
  5
7489
330
747D
100
AcDbEntity
  8
0
100
AcDbBlockBegin
  2
*MODEL_SPACE
 70
     0
 10
0.0
 20
0.0
 30
0.0
  3
*MODEL_SPACE
  1

  0
ENDBLK
  5
748A
330
747D
100
AcDbEntity
  8
0
100
AcDbBlockEnd
  0
BLOCK
  5
7487
330
747A
100
AcDbEntity
 67
     1
  8
0
100
AcDbBlockBegin
  2
*PAPER_SPACE
 70
     0
 10
0.0
 20
0.0
 30
0.0
  3
*PAPER_SPACE
  1

  0
ENDBLK
  5
7488
330
747A
100
AcDbEntity
 67
     1
  8
0
100
AcDbBlockEnd
  0
BLOCK
  5
F771
330
F770
100
AcDbEntity
  8
0
 48
50.0
100
AcDbBlockBegin
  2
_DOTSMALL
 70
     0
 10
0.0
 20
0.0
 30
0.0
  3
_DOTSMALL
  1

  0
LWPOLYLINE
  5
F772
330
F770
100
AcDbEntity
  8
0
  6
ByBlock
 62
     0
 48
50.0
100
AcDbPolyline
 90
        2
 70
     1
 43
0.5
 10
-0.0625
 20
0.0
 42
1.0
 10
0.0625
 20
0.0
 42
1.0
  0
ENDBLK
  5
F776
330
F770
100
AcDbEntity
  8
0
 48
50.0
100
AcDbBlockEnd
  0
BLOCK
  5
16D36
330
16D35
100
AcDbEntity
  8
0
 48
50.0
100
AcDbBlockBegin
  2
_DOT
 70
     0
 10
0.0
 20
0.0
 30
0.0
  3
_DOT
  1

  0
LWPOLYLINE
  5
16D37
330
16D35
100
AcDbEntity
  8
0
  6
ByBlock
 62
     0
 48
50.0
100
AcDbPolyline
 90
        2
 70
     1
 43
0.5
 10
-0.25
 20
0.0
 42
1.0
 10
0.25
 20
0.0
 42
1.0
  0
LINE
  5
16D38
330
16D35
100
AcDbEntity
  8
0
  6
ByBlock
 62
     0
 48
50.0
100
AcDbLine
 10
-0.5
 20
0.0
 30
0.0
 11
-1.0
 21
0.0
 31
0.0
  0
ENDBLK
  5
16D39
330
16D35
100
AcDbEntity
  8
0
 48
50.0
100
AcDbBlockEnd
  0
BLOCK
  5
17414
330
17408
100
AcDbEntity
  8
0
 48
50.0
100
AcDbBlockBegin
  2
*D2
 70
     1
 10
0.0
 20
0.0
 30
0.0
  3
*D2
  1

  0
LINE
  5
17E89
330
17408
100
AcDbEntity
  8
寸法
 62
     0
 48
50.0
370
    -2
100
AcDbLine
 10
8197.887681467634
 20
4692.210437973375
 30
0.0
 11
8197.887681467634
 21
5134.866273429703
 31
0.0
  0
LINE
  5
17E8A
330
17408
100
AcDbEntity
  8
寸法
 62
     0
 48
50.0
370
    -2
100
AcDbLine
 10
8137.887681467633
 20
4696.208819850403
 30
0.0
 11
8137.887681467633
 21
5134.866273429703
 31
0.0
  0
LINE
  5
17E8B
330
17408
100
AcDbEntity
  8
寸法
 62
     0
 48
50.0
370
    -2
100
AcDbLine
 10
8197.887681467634
 20
5074.866273429703
 30
0.0
 11
8297.887681467633
 21
5074.866273429703
 31
0.0
  0
LINE
  5
17E8C
330
17408
100
AcDbEntity
  8
寸法
 62
     0
 48
50.0
370
    -2
100
AcDbLine
 10
8137.887681467633
 20
5074.866273429703
 30
0.0
 11
7718.612090916451
 21
5074.866273429703
 31
0.0
  0
LINE
  5
17E8D
330
17408
100
AcDbEntity
  8
寸法
 62
     0
 48
50.0
370
    -2
100
AcDbLine
 10
8197.887681467634
 20
5074.866273429703
 30
0.0
 11
8137.887681467633
 21
5074.866273429703
 31
0.0
  0
INSERT
  5
17E8E
330
17408
100
AcDbEntity
  8
寸法
 62
     0
 48
50.0
370
    -2
100
AcDbBlockReference
  2
_DOTSMALL
 10
8197.887681467634
 20
5074.866273429703
 30
0.0
 41
100.0
 42
100.0
 43
100.0
 50
180.0
  0
INSERT
  5
17E8F
330
17408
100
AcDbEntity
  8
寸法
 62
     0
 48
50.0
370
    -2
100
AcDbBlockReference
  2
_DOTSMALL
 10
8137.887681467633
 20
5074.866273429703
 30
0.0
 41
100.0
 42
100.0
 43
100.0
  0
MTEXT
  5
17E90
330
17408
100
AcDbEntity
  8
寸法
 62
     7
 48
50.0
100
AcDbMText
 10
7828.249886192043
 20
5174.866273429703
 30
0.0
 40
120.0
 41
0.0
 71
     5
 72
     1
  1
\A1;60
  7
STYLE1
 73
     1
 44
1.0
1001
ACAD
1000
MTEXTBEGIN
1070
    73
1070
     1
1070
    44
1040
1.0
1070
    74
1070
     0
1000
MTEXTEND
  0
POINT
  5
17E91
330
17408
100
AcDbEntity
  8
DEFPOINTS
 62
     0
 48
50.0
100
AcDbPoint
 10
8197.887681467634
 20
4672.210437973375
 30
0.0
  0
POINT
  5
17E92
330
17408
100
AcDbEntity
  8
DEFPOINTS
 62
     0
 48
50.0
100
AcDbPoint
 10
8137.887681467633
 20
4676.208819850404
 30
0.0
  0
POINT
  5
17E93
330
17408
100
AcDbEntity
  8
DEFPOINTS
 62
     0
 48
50.0
100
AcDbPoint
 10
8137.887681467633
 20
5074.866273429703
 30
0.0
  0
ENDBLK
  5
17415
330
17408
100
AcDbEntity
  8
0
 48
50.0
100
AcDbBlockEnd
  0
BLOCK
  5
17420
330
17416
100
AcDbEntity
  8
0
 48
50.0
100
AcDbBlockBegin
  2
*D3
 70
     1
 10
0.0
 20
0.0
 30
0.0
  3
*D3
  1

  0
LINE
  5
17E80
330
17416
100
AcDbEntity
  8
寸法
 62
     0
 48
50.0
370
    -2
100
AcDbLine
 10
10827.88768146763
 20
4643.019499462053
 30
0.0
 11
10827.88768146763
 21
5134.866273429704
 31
0.0
  0
LINE
  5
17E81
330
17416
100
AcDbEntity
  8
寸法
 62
     0
 48
50.0
370
    -2
100
AcDbLine
 10
8197.887681467634
 20
4692.210437973375
 30
0.0
 11
8197.887681467634
 21
5134.866273429704
 31
0.0
  0
LINE
  5
17E82
330
17416
100
AcDbEntity
  8
寸法
 62
     0
 48
50.0
370
    -2
100
AcDbLine
 10
10827.88768146763
 20
5074.866273429704
 30
0.0
 11
8197.887681467634
 21
5074.866273429704
 31
0.0
  0
INSERT
  5
17E83
330
17416
100
AcDbEntity
  8
寸法
 62
     0
 48
50.0
370
    -2
100
AcDbBlockReference
  2
_DOTSMALL
 10
10827.88768146763
 20
5074.866273429704
 30
0.0
 41
100.0
 42
100.0
 43
100.0
  0
INSERT
  5
17E84
330
17416
100
AcDbEntity
  8
寸法
 62
     0
 48
50.0
370
    -2
100
AcDbBlockReference
  2
_DOTSMALL
 10
8197.887681467634
 20
5074.866273429704
 30
0.0
 41
100.0
 42
100.0
 43
100.0
 50
180.0
  0
MTEXT
  5
17E85
330
17416
100
AcDbEntity
  8
寸法
 62
     7
 48
50.0
100
AcDbMText
 10
9552.657872496828
 20
5174.878084453325
 30
0.0
 40
120.0
 41
0.0
 71
     5
 72
     1
  1
\A1;柱外寸法2630
  7
STYLE1
 73
     1
 44
1.0
1001
ACAD
1000
MTEXTBEGIN
1070
    73
1070
     1
1070
    44
1040
1.0
1070
    74
1070
     0
1000
MTEXTEND
  0
POINT
  5
17E86
330
17416
100
AcDbEntity
  8
DEFPOINTS
 62
     0
 48
50.0
100
AcDbPoint
 10
10827.88768146763
 20
4623.019499462053
 30
0.0
  0
POINT
  5
17E87
330
17416
100
AcDbEntity
  8
DEFPOINTS
 62
     0
 48
50.0
100
AcDbPoint
 10
8197.887681467634
 20
4672.210437973375
 30
0.0
  0
POINT
  5
17E88
330
17416
100
AcDbEntity
  8
DEFPOINTS
 62
     0
 48
50.0
100
AcDbPoint
 10
8197.887681467634
 20
5074.866273429704
 30
0.0
  0
ENDBLK
  5
17421
330
17416
100
AcDbEntity
  8
0
 48
50.0
100
AcDbBlockEnd
  0
BLOCK
  5
1742C
330
17422
100
AcDbEntity
  8
0
 48
50.0
100
AcDbBlockBegin
  2
*D4
 70
     1
 10
0.0
 20
0.0
 30
0.0
  3
*D4
  1

  0
LINE
  5
17E77
330
17422
100
AcDbEntity
  8
寸法
 62
     0
 48
50.0
370
    -2
100
AcDbLine
 10
10907.88768146763
 20
4641.2088198504
 30
0.0
 11
10907.88768146763
 21
5355.076960161321
 31
0.0
  0
LINE
  5
17E78
330
17422
100
AcDbEntity
  8
寸法
 62
     0
 48
50.0
370
    -2
100
AcDbLine
 10
8137.887681467633
 20
4696.208819850403
 30
0.0
 11
8137.887681467633
 21
5355.076960161321
 31
0.0
  0
LINE
  5
17E79
330
17422
100
AcDbEntity
  8
寸法
 62
     0
 48
50.0
370
    -2
100
AcDbLine
 10
10907.88768146763
 20
5295.076960161321
 30
0.0
 11
8137.887681467633
 21
5295.076960161321
 31
0.0
  0
INSERT
  5
17E7A
330
17422
100
AcDbEntity
  8
寸法
 62
     0
 48
50.0
370
    -2
100
AcDbBlockReference
  2
_DOTSMALL
 10
10907.88768146763
 20
5295.076960161321
 30
0.0
 41
100.0
 42
100.0
 43
100.0
  0
INSERT
  5
17E7B
330
17422
100
AcDbEntity
  8
寸法
 62
     0
 48
50.0
370
    -2
100
AcDbBlockReference
  2
_DOTSMALL
 10
8137.887681467633
 20
5295.076960161321
 30
0.0
 41
100.0
 42
100.0
 43
100.0
 50
180.0
  0
MTEXT
  5
17E7C
330
17422
100
AcDbEntity
  8
寸法
 62
     7
 48
50.0
100
AcDbMText
 10
9541.246606355009
 20
5395.088771184942
 30
0.0
 40
120.0
 41
0.0
 71
     5
 72
     1
  1
\A1;2770
  7
STYLE1
 73
     1
 44
1.0
1001
ACAD
1000
MTEXTBEGIN
1070
    73
1070
     1
1070
    44
1040
1.0
1070
    74
1070
     0
1000
MTEXTEND
  0
POINT
  5
17E7D
330
17422
100
AcDbEntity
  8
DEFPOINTS
 62
     0
 48
50.0
100
AcDbPoint
 10
10907.88768146763
 20
4621.208819850401
 30
0.0
  0
POINT
  5
17E7E
330
17422
100
AcDbEntity
  8
DEFPOINTS
 62
     0
 48
50.0
100
AcDbPoint
 10
8137.887681467633
 20
4676.208819850404
 30
0.0
  0
POINT
  5
17E7F
330
17422
100
AcDbEntity
  8
DEFPOINTS
 62
     0
 48
50.0
100
AcDbPoint
 10
8137.887681467633
 20
5295.076960161321
 30
0.0
  0
ENDBLK
  5
1742D
330
17422
100
AcDbEntity
  8
0
 48
50.0
100
AcDbBlockEnd
  0
BLOCK
  5
17439
330
1742E
100
AcDbEntity
  8
0
 48
50.0
100
AcDbBlockBegin
  2
*D5
 70
     1
 10
0.0
 20
0.0
 30
0.0
  3
*D5
  1

  0
LINE
  5
17E6D
330
1742E
100
AcDbEntity
  8
寸法
 62
     0
 48
50.0
370
    -2
100
AcDbLine
 10
10827.88768146763
 20
4643.019499462053
 30
0.0
 11
10827.88768146763
 21
5134.866273429704
 31
0.0
  0
LINE
  5
17E6E
330
1742E
100
AcDbEntity
  8
寸法
 62
     0
 48
50.0
370
    -2
100
AcDbLine
 10
10907.88768146763
 20
4641.2088198504
 30
0.0
 11
10907.88768146763
 21
5134.866273429704
 31
0.0
  0
LINE
  5
17E6F
330
1742E
100
AcDbEntity
  8
寸法
 62
     0
 48
50.0
370
    -2
100
AcDbLine
 10
10827.88768146763
 20
5074.866273429704
 30
0.0
 11
10907.88768146763
 21
5074.866273429704
 31
0.0
  0
LINE
  5
17E70
330
1742E
100
AcDbEntity
  8
寸法
 62
     0
 48
50.0
370
    -2
100
AcDbLine
 10
10907.88768146763
 20
5074.866273429704
 30
0.0
 11
11219.98216965661
 21
5074.866273429704
 31
0.0
  0
INSERT
  5
17E71
330
1742E
100
AcDbEntity
  8
寸法
 62
     0
 48
50.0
370
    -2
100
AcDbBlockReference
  2
_DOTSMALL
 10
10827.88768146763
 20
5074.866273429704
 30
0.0
 41
100.0
 42
100.0
 43
100.0
 50
180.0
  0
INSERT
  5
17E72
330
1742E
100
AcDbEntity
  8
寸法
 62
     0
 48
50.0
370
    -2
100
AcDbBlockReference
  2
_DOTSMALL
 10
10907.88768146763
 20
5074.866273429704
 30
0.0
 41
100.0
 42
100.0
 43
100.0
  0
MTEXT
  5
17E73
330
1742E
100
AcDbEntity
  8
寸法
 62
     7
 48
50.0
100
AcDbMText
 10
11113.93492556212
 20
5174.866273429704
 30
0.0
 40
120.0
 41
0.0
 71
     5
 72
     1
  1
\A1;80
  7
STYLE1
 73
     1
 44
1.0
1001
ACAD
1000
MTEXTBEGIN
1070
    73
1070
     1
1070
    44
1040
1.0
1070
    74
1070
     0
1000
MTEXTEND
  0
POINT
  5
17E74
330
1742E
100
AcDbEntity
  8
DEFPOINTS
 62
     0
 48
50.0
100
AcDbPoint
 10
10827.88768146763
 20
4623.019499462053
 30
0.0
  0
POINT
  5
17E75
330
1742E
100
AcDbEntity
  8
DEFPOINTS
 62
     0
 48
50.0
100
AcDbPoint
 10
10907.88768146763
 20
4621.208819850401
 30
0.0
  0
POINT
  5
17E76
330
1742E
100
AcDbEntity
  8
DEFPOINTS
 62
     0
 48
50.0
100
AcDbPoint
 10
10907.88768146763
 20
5074.866273429704
 30
0.0
  0
ENDBLK
  5
1743A
330
1742E
100
AcDbEntity
  8
0
 48
50.0
100
AcDbBlockEnd
  0
BLOCK
  5
17446
330
1743B
100
AcDbEntity
  8
0
 48
50.0
100
AcDbBlockBegin
  2
*D6
 70
     1
 10
0.0
 20
0.0
 30
0.0
  3
*D6
  1

  0
LINE
  5
17E63
330
1743B
100
AcDbEntity
  8
寸法
 62
     0
 48
50.0
370
    -2
100
AcDbLine
 10
8122.887681467629
 20
2601.208819850399
 30
0.0
 11
7229.248299538271
 21
2601.208819850399
 31
0.0
  0
LINE
  5
17E64
330
1743B
100
AcDbEntity
  8
寸法
 62
     0
 48
50.0
370
    -2
100
AcDbLine
 10
7554.234972309332
 20
2501.208819850399
 30
0.0
 11
7229.248299538271
 21
2501.208819850399
 31
0.0
  0
LINE
  5
17E65
330
1743B
100
AcDbEntity
  8
寸法
 62
     0
 48
50.0
370
    -2
100
AcDbLine
 10
7289.248299538272
 20
2601.208819850399
 30
0.0
 11
7289.248299538272
 21
2501.208819850399
 31
0.0
  0
LINE
  5
17E66
330
1743B
100
AcDbEntity
  8
寸法
 62
     0
 48
50.0
370
    -2
100
AcDbLine
 10
7289.248299538272
 20
2501.208819850399
 30
0.0
 11
7289.248299538272
 21
2129.114331661419
 31
0.0
  0
INSERT
  5
17E67
330
1743B
100
AcDbEntity
  8
寸法
 62
     0
 48
50.0
370
    -2
100
AcDbBlockReference
  2
_DOTSMALL
 10
7289.248299538272
 20
2601.208819850399
 30
0.0
 41
100.0
 42
100.0
 43
100.0
 50
90.0
  0
INSERT
  5
17E68
330
1743B
100
AcDbEntity
  8
寸法
 62
     0
 48
50.0
370
    -2
100
AcDbBlockReference
  2
_DOTSMALL
 10
7289.248299538272
 20
2501.208819850399
 30
0.0
 41
100.0
 42
100.0
 43
100.0
 50
270.0
  0
MTEXT
  5
17E69
330
1743B
100
AcDbEntity
  8
寸法
 62
     7
 48
50.0
100
AcDbMText
 10
7189.24829953827
 20
2265.161575755909
 30
0.0
 40
120.0
 41
0.0
 71
     5
 72
     1
  1
\A1;100
  7
STYLE1
 11
0.0000000000000001
 21
1.0
 31
0.0
 73
     1
 44
1.0
1001
ACAD
1000
MTEXTBEGIN
1070
    73
1070
     1
1070
    44
1040
1.0
1070
    74
1070
     0
1000
MTEXTEND
  0
POINT
  5
17E6A
330
1743B
100
AcDbEntity
  8
DEFPOINTS
 62
     0
 48
50.0
100
AcDbPoint
 10
8142.88768146763
 20
2601.208819850399
 30
0.0
  0
POINT
  5
17E6B
330
1743B
100
AcDbEntity
  8
DEFPOINTS
 62
     0
 48
50.0
100
AcDbPoint
 10
7574.234972309333
 20
2501.208819850399
 30
0.0
  0
POINT
  5
17E6C
330
1743B
100
AcDbEntity
  8
DEFPOINTS
 62
     0
 48
50.0
100
AcDbPoint
 10
7289.248299538272
 20
2501.208819850399
 30
0.0
  0
ENDBLK
  5
17447
330
1743B
100
AcDbEntity
  8
0
 48
50.0
100
AcDbBlockEnd
  0
BLOCK
  5
17454
330
17448
100
AcDbEntity
  8
0
 48
50.0
100
AcDbBlockBegin
  2
*D7
 70
     1
 10
0.0
 20
0.0
 30
0.0
  3
*D7
  1

  0
LINE
  5
17E58
330
17448
100
AcDbEntity
  8
寸法
 62
     0
 48
50.0
370
    -2
100
AcDbLine
 10
8177.88768146763
 20
2651.208819850399
 30
0.0
 11
7514.234972309333
 21
2651.208819850399
 31
0.0
  0
LINE
  5
17E59
330
17448
100
AcDbEntity
  8
寸法
 62
     0
 48
50.0
370
    -2
100
AcDbLine
 10
8122.887681467629
 20
2601.208819850399
 30
0.0
 11
7514.234972309333
 21
2601.208819850399
 31
0.0
  0
LINE
  5
17E5A
330
17448
100
AcDbEntity
  8
寸法
 62
     0
 48
50.0
370
    -2
100
AcDbLine
 10
7574.234972309333
 20
2651.208819850399
 30
0.0
 11
7574.234972309333
 21
2751.208819850399
 31
0.0
  0
LINE
  5
17E5B
330
17448
100
AcDbEntity
  8
寸法
 62
     0
 48
50.0
370
    -2
100
AcDbLine
 10
7574.234972309333
 20
2601.208819850399
 30
0.0
 11
7574.234972309333
 21
2189.114331661419
 31
0.0
  0
LINE
  5
17E5C
330
17448
100
AcDbEntity
  8
寸法
 62
     0
 48
50.0
370
    -2
100
AcDbLine
 10
7574.234972309333
 20
2651.208819850399
 30
0.0
 11
7574.234972309333
 21
2601.208819850399
 31
0.0
  0
INSERT
  5
17E5D
330
17448
100
AcDbEntity
  8
寸法
 62
     0
 48
50.0
370
    -2
100
AcDbBlockReference
  2
_DOTSMALL
 10
7574.234972309333
 20
2651.208819850399
 30
0.0
 41
100.0
 42
100.0
 43
100.0
 50
270.0
  0
INSERT
  5
17E5E
330
17448
100
AcDbEntity
  8
寸法
 62
     0
 48
50.0
370
    -2
100
AcDbBlockReference
  2
_DOTSMALL
 10
7574.234972309333
 20
2601.208819850399
 30
0.0
 41
100.0
 42
100.0
 43
100.0
 50
90.0
  0
MTEXT
  5
17E5F
330
17448
100
AcDbEntity
  8
寸法
 62
     7
 48
50.0
100
AcDbMText
 10
7474.234972309332
 20
2295.161575755908
 30
0.0
 40
120.0
 41
0.0
 71
     5
 72
     1
  1
\A1;50
  7
STYLE1
 11
0.0000000000000001
 21
1.0
 31
0.0
 73
     1
 44
1.0
1001
ACAD
1000
MTEXTBEGIN
1070
    73
1070
     1
1070
    44
1040
1.0
1070
    74
1070
     0
1000
MTEXTEND
  0
POINT
  5
17E60
330
17448
100
AcDbEntity
  8
DEFPOINTS
 62
     0
 48
50.0
100
AcDbPoint
 10
8197.88768146763
 20
2651.208819850399
 30
0.0
  0
POINT
  5
17E61
330
17448
100
AcDbEntity
  8
DEFPOINTS
 62
     0
 48
50.0
100
AcDbPoint
 10
8142.88768146763
 20
2601.208819850399
 30
0.0
  0
POINT
  5
17E62
330
17448
100
AcDbEntity
  8
DEFPOINTS
 62
     0
 48
50.0
100
AcDbPoint
 10
7574.234972309333
 20
2601.208819850399
 30
0.0
  0
ENDBLK
  5
17455
330
17448
100
AcDbEntity
  8
0
 48
50.0
100
AcDbBlockEnd
  0
BLOCK
  5
17460
330
17456
100
AcDbEntity
  8
0
 48
50.0
100
AcDbBlockBegin
  2
*D8
 70
     1
 10
0.0
 20
0.0
 30
0.0
  3
*D8
  1

  0
LINE
  5
17E4F
330
17456
100
AcDbEntity
  8
寸法
 62
     0
 48
50.0
370
    -2
100
AcDbLine
 10
8177.887681467629
 20
4441.208819850398
 30
0.0
 11
7514.234972309333
 21
4441.208819850398
 31
0.0
  0
LINE
  5
17E50
330
17456
100
AcDbEntity
  8
寸法
 62
     0
 48
50.0
370
    -2
100
AcDbLine
 10
8177.88768146763
 20
2651.208819850399
 30
0.0
 11
7514.234972309333
 21
2651.208819850399
 31
0.0
  0
LINE
  5
17E51
330
17456
100
AcDbEntity
  8
寸法
 62
     0
 48
50.0
370
    -2
100
AcDbLine
 10
7574.234972309333
 20
4441.208819850398
 30
0.0
 11
7574.234972309333
 21
2651.208819850399
 31
0.0
  0
INSERT
  5
17E52
330
17456
100
AcDbEntity
  8
寸法
 62
     0
 48
50.0
370
    -2
100
AcDbBlockReference
  2
_DOTSMALL
 10
7574.234972309333
 20
4441.208819850398
 30
0.0
 41
100.0
 42
100.0
 43
100.0
 50
90.0
  0
INSERT
  5
17E53
330
17456
100
AcDbEntity
  8
寸法
 62
     0
 48
50.0
370
    -2
100
AcDbBlockReference
  2
_DOTSMALL
 10
7574.234972309333
 20
2651.208819850399
 30
0.0
 41
100.0
 42
100.0
 43
100.0
 50
270.0
  0
MTEXT
  5
17E54
330
17456
100
AcDbEntity
  8
寸法
 62
     7
 48
50.0
100
AcDbMText
 10
7474.234972309332
 20
3541.663118392357
 30
0.0
 40
120.0
 41
0.0
 71
     5
 72
     1
  1
\A1;1790
  7
STYLE1
 11
0.0000000000000001
 21
1.0
 31
0.0
 73
     1
 44
1.0
1001
ACAD
1000
MTEXTBEGIN
1070
    73
1070
     1
1070
    44
1040
1.0
1070
    74
1070
     0
1000
MTEXTEND
  0
POINT
  5
17E55
330
17456
100
AcDbEntity
  8
DEFPOINTS
 62
     0
 48
50.0
100
AcDbPoint
 10
8197.88768146763
 20
4441.208819850398
 30
0.0
  0
POINT
  5
17E56
330
17456
100
AcDbEntity
  8
DEFPOINTS
 62
     0
 48
50.0
100
AcDbPoint
 10
8197.88768146763
 20
2651.208819850399
 30
0.0
  0
POINT
  5
17E57
330
17456
100
AcDbEntity
  8
DEFPOINTS
 62
     0
 48
50.0
100
AcDbPoint
 10
7574.234972309333
 20
2651.208819850399
 30
0.0
  0
ENDBLK
  5
17461
330
17456
100
AcDbEntity
  8
0
 48
50.0
100
AcDbBlockEnd
  0
BLOCK
  5
1746C
330
17462
100
AcDbEntity
  8
0
 48
50.0
100
AcDbBlockBegin
  2
*D9
 70
     1
 10
0.0
 20
0.0
 30
0.0
  3
*D9
  1

  0
LINE
  5
17E46
330
17462
100
AcDbEntity
  8
寸法
 62
     0
 48
50.0
370
    -2
100
AcDbLine
 10
8177.88768146763
 20
2601.208819850399
 30
0.0
 11
7229.248299538271
 21
2601.208819850399
 31
0.0
  0
LINE
  5
17E47
330
17462
100
AcDbEntity
  8
寸法
 62
     0
 48
50.0
370
    -2
100
AcDbLine
 10
8117.88768146763
 20
4676.208819850404
 30
0.0
 11
7229.248299538271
 21
4676.208819850404
 31
0.0
  0
LINE
  5
17E48
330
17462
100
AcDbEntity
  8
寸法
 62
     0
 48
50.0
370
    -2
100
AcDbLine
 10
7289.248299538272
 20
2601.208819850399
 30
0.0
 11
7289.248299538272
 21
4676.208819850404
 31
0.0
  0
INSERT
  5
17E49
330
17462
100
AcDbEntity
  8
寸法
 62
     0
 48
50.0
370
    -2
100
AcDbBlockReference
  2
_DOTSMALL
 10
7289.248299538272
 20
2601.208819850399
 30
0.0
 41
100.0
 42
100.0
 43
100.0
 50
270.0
  0
INSERT
  5
17E4A
330
17462
100
AcDbEntity
  8
寸法
 62
     0
 48
50.0
370
    -2
100
AcDbBlockReference
  2
_DOTSMALL
 10
7289.248299538272
 20
4676.208819850404
 30
0.0
 41
100.0
 42
100.0
 43
100.0
 50
90.0
  0
MTEXT
  5
17E4B
330
17462
100
AcDbEntity
  8
寸法
 62
     7
 48
50.0
100
AcDbMText
 10
7189.236488514649
 20
3595.414697343509
 30
0.0
 40
120.0
 41
0.0
 71
     5
 72
     1
  1
\A1;2075
  7
STYLE1
 11
0.0000000000000001
 21
1.0
 31
0.0
 73
     1
 44
1.0
1001
ACAD
1000
MTEXTBEGIN
1070
    73
1070
     1
1070
    44
1040
1.0
1070
    74
1070
     0
1000
MTEXTEND
  0
POINT
  5
17E4C
330
17462
100
AcDbEntity
  8
DEFPOINTS
 62
     0
 48
50.0
100
AcDbPoint
 10
8197.88768146763
 20
2601.208819850399
 30
0.0
  0
POINT
  5
17E4D
330
17462
100
AcDbEntity
  8
DEFPOINTS
 62
     0
 48
50.0
100
AcDbPoint
 10
8137.887681467629
 20
4676.208819850404
 30
0.0
  0
POINT
  5
17E4E
330
17462
100
AcDbEntity
  8
DEFPOINTS
 62
     0
 48
50.0
100
AcDbPoint
 10
7289.248299538272
 20
4676.208819850404
 30
0.0
  0
ENDBLK
  5
1746D
330
17462
100
AcDbEntity
  8
0
 48
50.0
100
AcDbBlockEnd
  0
BLOCK
  5
17479
330
1746E
100
AcDbEntity
  8
0
 48
50.0
100
AcDbBlockBegin
  2
*D10
 70
     1
 10
0.0
 20
0.0
 30
0.0
  3
*D10
  1

  0
LINE
  5
17E3C
330
1746E
100
AcDbEntity
  8
寸法
 62
     0
 48
50.0
370
    -2
100
AcDbLine
 10
8137.291967758731
 20
4675.506526920061
 30
0.0
 11
7521.357528653455
 21
4693.22067719439
 31
0.0
  0
LINE
  5
17E3D
330
1746E
100
AcDbEntity
  8
寸法
 62
     0
 48
50.0
370
    -2
100
AcDbLine
 10
8133.238512202103
 20
4534.564803154346
 30
0.0
 11
7517.304073096828
 21
4552.278953428674
 31
0.0
  0
LINE
  5
17E3E
330
1746E
100
AcDbEntity
  8
寸法
 62
     0
 48
50.0
370
    -2
100
AcDbLine
 10
7577.279274699259
 20
4550.554078723727
 30
0.0
 11
7581.332730255886
 21
4691.495802489442
 31
0.0
  0
LINE
  5
17E3F
330
1746E
100
AcDbEntity
  8
寸法
 62
     0
 48
50.0
370
    -2
100
AcDbLine
 10
7581.332730255886
 20
4691.495802489442
 30
0.0
 11
7591.681978485571
 21
5051.34701210403
 31
0.0
  0
INSERT
  5
17E40
330
1746E
100
AcDbEntity
  8
寸法
 62
     0
 48
50.0
370
    -2
100
AcDbBlockReference
  2
_DOTSMALL
 10
7577.279274699259
 20
4550.554078723727
 30
0.0
 41
100.0
 42
100.0
 43
100.0
 50
268.3526390256379
  0
INSERT
  5
17E41
330
1746E
100
AcDbEntity
  8
寸法
 62
     0
 48
50.0
370
    -2
100
AcDbBlockReference
  2
_DOTSMALL
 10
7581.332730255886
 20
4691.495802489442
 30
0.0
 41
100.0
 42
100.0
 43
100.0
 50
88.35263902563784
  0
MTEXT
  5
17E42
330
1746E
100
AcDbEntity
  8
寸法
 62
     7
 48
50.0
100
AcDbMText
 10
7487.9860806208
 20
4924.275533140344
 30
0.0
 40
120.0
 41
0.0
 71
     5
 72
     1
  1
\A1;141
  7
STYLE1
 11
0.0287479117491228
 21
0.9995866933738486
 31
0.0
 73
     1
 44
1.0
1001
ACAD
1000
MTEXTBEGIN
1070
    73
1070
     1
1070
    44
1040
1.0
1070
    74
1070
     0
1000
MTEXTEND
  0
POINT
  5
17E43
330
1746E
100
AcDbEntity
  8
DEFPOINTS
 62
     0
 48
50.0
100
AcDbPoint
 10
8157.283701626207
 20
4674.931568685078
 30
0.0
  0
POINT
  5
17E44
330
1746E
100
AcDbEntity
  8
DEFPOINTS
 62
     0
 48
50.0
100
AcDbPoint
 10
8153.230246069581
 20
4533.989844919363
 30
0.0
  0
POINT
  5
17E45
330
1746E
100
AcDbEntity
  8
DEFPOINTS
 62
     0
 48
50.0
100
AcDbPoint
 10
7577.279274699259
 20
4550.554078723727
 30
0.0
  0
ENDBLK
  5
1747A
330
1746E
100
AcDbEntity
  8
0
 48
50.0
100
AcDbBlockEnd
  0
BLOCK
  5
17485
330
1747B
100
AcDbEntity
  8
0
 48
50.0
100
AcDbBlockBegin
  2
*D11
 70
     1
 10
0.0
 20
0.0
 30
0.0
  3
*D11
  1

  0
LINE
  5
17E33
330
1747B
100
AcDbEntity
  8
寸法
 62
     0
 48
50.0
370
    -2
100
AcDbLine
 10
8625.887681467631
 20
4384.208819850399
 30
0.0
 11
7844.662874996616
 21
4384.208819850399
 31
0.0
  0
LINE
  5
17E34
330
1747B
100
AcDbEntity
  8
寸法
 62
     0
 48
50.0
370
    -2
100
AcDbLine
 10
8625.887681467631
 20
2659.208819850398
 30
0.0
 11
7844.662874996616
 21
2659.208819850398
 31
0.0
  0
LINE
  5
17E35
330
1747B
100
AcDbEntity
  8
寸法
 62
     0
 48
50.0
370
    -2
100
AcDbLine
 10
7904.662874996616
 20
4384.208819850399
 30
0.0
 11
7904.662874996616
 21
2659.208819850398
 31
0.0
  0
INSERT
  5
17E36
330
1747B
100
AcDbEntity
  8
寸法
 62
     0
 48
50.0
370
    -2
100
AcDbBlockReference
  2
_DOTSMALL
 10
7904.662874996616
 20
4384.208819850399
 30
0.0
 41
100.0
 42
100.0
 43
100.0
 50
90.0
  0
INSERT
  5
17E37
330
1747B
100
AcDbEntity
  8
寸法
 62
     0
 48
50.0
370
    -2
100
AcDbBlockReference
  2
_DOTSMALL
 10
7904.662874996616
 20
2659.208819850398
 30
0.0
 41
100.0
 42
100.0
 43
100.0
 50
270.0
  0
MTEXT
  5
17E38
330
1747B
100
AcDbEntity
  8
寸法
 62
     7
 48
50.0
100
AcDbMText
 10
7804.651063972993
 20
3561.13744005936
 30
0.0
 40
120.0
 41
0.0
 71
     5
 72
     1
  1
\A1;有効開口部高サ1725
  7
STYLE1
 11
0.0000000000000001
 21
1.0
 31
0.0
 73
     1
 44
1.0
1001
ACAD
1000
MTEXTBEGIN
1070
    73
1070
     1
1070
    44
1040
1.0
1070
    74
1070
     0
1000
MTEXTEND
  0
POINT
  5
17E39
330
1747B
100
AcDbEntity
  8
DEFPOINTS
 62
     0
 48
50.0
100
AcDbPoint
 10
8645.887681467632
 20
4384.208819850399
 30
0.0
  0
POINT
  5
17E3A
330
1747B
100
AcDbEntity
  8
DEFPOINTS
 62
     0
 48
50.0
100
AcDbPoint
 10
8645.887681467632
 20
2659.208819850398
 30
0.0
  0
POINT
  5
17E3B
330
1747B
100
AcDbEntity
  8
DEFPOINTS
 62
     0
 48
50.0
100
AcDbPoint
 10
7904.662874996616
 20
2659.208819850398
 30
0.0
  0
ENDBLK
  5
17486
330
1747B
100
AcDbEntity
  8
0
 48
50.0
100
AcDbBlockEnd
  0
BLOCK
  5
17491
330
17487
100
AcDbEntity
  8
0
 48
50.0
100
AcDbBlockBegin
  2
*D12
 70
     1
 10
0.0
 20
0.0
 30
0.0
  3
*D12
  1

  0
LINE
  5
17E2A
330
17487
100
AcDbEntity
  8
寸法
 62
     0
 48
50.0
370
    -2
100
AcDbLine
 10
8297.887681467631
 20
2281.208819850399
 30
0.0
 11
8297.887681467631
 21
1955.161490550021
 31
0.0
  0
LINE
  5
17E2B
330
17487
100
AcDbEntity
  8
寸法
 62
     0
 48
50.0
370
    -2
100
AcDbLine
 10
8097.88768146763
 20
2281.208819850399
 30
0.0
 11
8097.88768146763
 21
1955.161490550021
 31
0.0
  0
LINE
  5
17E2C
330
17487
100
AcDbEntity
  8
寸法
 62
     0
 48
50.0
370
    -2
100
AcDbLine
 10
8297.887681467631
 20
2015.161490550021
 30
0.0
 11
8097.88768146763
 21
2015.161490550021
 31
0.0
  0
INSERT
  5
17E2D
330
17487
100
AcDbEntity
  8
寸法
 62
     0
 48
50.0
370
    -2
100
AcDbBlockReference
  2
_DOTSMALL
 10
8297.887681467631
 20
2015.161490550021
 30
0.0
 41
100.0
 42
100.0
 43
100.0
  0
INSERT
  5
17E2E
330
17487
100
AcDbEntity
  8
寸法
 62
     0
 48
50.0
370
    -2
100
AcDbBlockReference
  2
_DOTSMALL
 10
8097.88768146763
 20
2015.161490550021
 30
0.0
 41
100.0
 42
100.0
 43
100.0
 50
180.0
  0
MTEXT
  5
17E2F
330
17487
100
AcDbEntity
  8
寸法
 62
     7
 48
50.0
100
AcDbMText
 10
8197.88768146763
 20
2115.173301573643
 30
0.0
 40
120.0
 41
0.0
 71
     5
 72
     1
  1
\A1;200
  7
STYLE1
 73
     1
 44
1.0
1001
ACAD
1000
MTEXTBEGIN
1070
    73
1070
     1
1070
    44
1040
1.0
1070
    74
1070
     0
1000
MTEXTEND
  0
POINT
  5
17E30
330
17487
100
AcDbEntity
  8
DEFPOINTS
 62
     0
 48
50.0
100
AcDbPoint
 10
8297.887681467631
 20
2301.208819850399
 30
0.0
  0
POINT
  5
17E31
330
17487
100
AcDbEntity
  8
DEFPOINTS
 62
     0
 48
50.0
100
AcDbPoint
 10
8097.88768146763
 20
2301.208819850399
 30
0.0
  0
POINT
  5
17E32
330
17487
100
AcDbEntity
  8
DEFPOINTS
 62
     0
 48
50.0
100
AcDbPoint
 10
8097.88768146763
 20
2015.161490550021
 30
0.0
  0
ENDBLK
  5
17492
330
17487
100
AcDbEntity
  8
0
 48
50.0
100
AcDbBlockEnd
  0
BLOCK
  5
1749F
330
17493
100
AcDbEntity
  8
0
 48
50.0
100
AcDbBlockBegin
  2
*D13
 70
     1
 10
0.0
 20
0.0
 30
0.0
  3
*D13
  1

  0
LINE
  5
17E1F
330
17493
100
AcDbEntity
  8
寸法
 62
     0
 48
50.0
370
    -2
100
AcDbLine
 10
8197.887681467603
 20
9149.400123615469
 30
0.0
 11
8197.887681467603
 21
9489.400123615469
 31
0.0
  0
LINE
  5
17E20
330
17493
100
AcDbEntity
  8
寸法
 62
     0
 48
50.0
370
    -2
100
AcDbLine
 10
8252.88768146764
 20
9149.400123615469
 30
0.0
 11
8252.88768146764
 21
9489.400123615469
 31
0.0
  0
LINE
  5
17E21
330
17493
100
AcDbEntity
  8
寸法
 62
     0
 48
50.0
370
    -2
100
AcDbLine
 10
8252.88768146764
 20
9429.40012361547
 30
0.0
 11
8352.88768146764
 21
9429.40012361547
 31
0.0
  0
LINE
  5
17E22
330
17493
100
AcDbEntity
  8
寸法
 62
     0
 48
50.0
370
    -2
100
AcDbLine
 10
8197.887681467603
 20
9429.40012361547
 30
0.0
 11
7780.917118719127
 21
9429.40012361547
 31
0.0
  0
LINE
  5
17E23
330
17493
100
AcDbEntity
  8
寸法
 62
     0
 48
50.0
370
    -2
100
AcDbLine
 10
8252.88768146764
 20
9429.40012361547
 30
0.0
 11
8197.887681467603
 21
9429.40012361547
 31
0.0
  0
INSERT
  5
17E24
330
17493
100
AcDbEntity
  8
寸法
 62
     0
 48
50.0
370
    -2
100
AcDbBlockReference
  2
_DOTSMALL
 10
8252.88768146764
 20
9429.40012361547
 30
0.0
 41
100.0
 42
100.0
 43
100.0
 50
180.0
  0
INSERT
  5
17E25
330
17493
100
AcDbEntity
  8
寸法
 62
     0
 48
50.0
370
    -2
100
AcDbBlockReference
  2
_DOTSMALL
 10
8197.887681467603
 20
9429.40012361547
 30
0.0
 41
100.0
 42
100.0
 43
100.0
  0
MTEXT
  5
17E26
330
17493
100
AcDbEntity
  8
寸法
 62
     7
 48
50.0
100
AcDbMText
 10
7889.402400093366
 20
9529.40012361547
 30
0.0
 40
120.0
 41
0.0
 71
     5
 72
     1
  1
\A1;55
  7
STYLE1
 73
     1
 44
1.0
1001
ACAD
1000
MTEXTBEGIN
1070
    73
1070
     1
1070
    44
1040
1.0
1070
    74
1070
     0
1000
MTEXTEND
  0
POINT
  5
17E27
330
17493
100
AcDbEntity
  8
DEFPOINTS
 62
     0
 48
50.0
100
AcDbPoint
 10
8197.887681467603
 20
9129.40012361547
 30
0.0
  0
POINT
  5
17E28
330
17493
100
AcDbEntity
  8
DEFPOINTS
 62
     0
 48
50.0
100
AcDbPoint
 10
8252.88768146764
 20
9129.40012361547
 30
0.0
  0
POINT
  5
17E29
330
17493
100
AcDbEntity
  8
DEFPOINTS
 62
     0
 48
50.0
100
AcDbPoint
 10
8252.88768146764
 20
9429.40012361547
 30
0.0
  0
ENDBLK
  5
174A0
330
17493
100
AcDbEntity
  8
0
 48
50.0
100
AcDbBlockEnd
  0
BLOCK
  5
174AB
330
174A1
100
AcDbEntity
  8
0
 48
50.0
100
AcDbBlockBegin
  2
*D14
 70
     1
 10
0.0
 20
0.0
 30
0.0
  3
*D14
  1

  0
LINE
  5
17E16
330
174A1
100
AcDbEntity
  8
寸法
 62
     0
 48
50.0
370
    -2
100
AcDbLine
 10
8220.028697618948
 20
8629.400123615516
 30
0.0
 11
8123.576798085704
 21
8269.436734070916
 31
0.0
  0
LINE
  5
17E17
330
174A1
100
AcDbEntity
  8
寸法
 62
     0
 48
50.0
370
    -2
100
AcDbLine
 10
9493.028697619019
 20
8629.400123615509
 30
0.0
 11
9396.576798085774
 21
8269.436734070916
 31
0.0
  0
LINE
  5
17E18
330
174A1
100
AcDbEntity
  8
寸法
 62
     0
 48
50.0
370
    -2
100
AcDbLine
 10
8139.65374963157
 20
8329.436734070915
 30
0.0
 11
9412.653749631642
 21
8329.436734070915
 31
0.0
  0
INSERT
  5
17E19
330
174A1
100
AcDbEntity
  8
寸法
 62
     0
 48
50.0
370
    -2
100
AcDbBlockReference
  2
_DOTSMALL
 10
8139.65374963157
 20
8329.436734070915
 30
0.0
 41
100.0
 42
100.0
 43
100.0
 50
180.0
  0
INSERT
  5
17E1A
330
174A1
100
AcDbEntity
  8
寸法
 62
     0
 48
50.0
370
    -2
100
AcDbBlockReference
  2
_DOTSMALL
 10
9412.653749631642
 20
8329.436734070915
 30
0.0
 41
100.0
 42
100.0
 43
100.0
  0
MTEXT
  5
17E1B
330
174A1
100
AcDbEntity
  8
寸法
 62
     7
 48
50.0
100
AcDbMText
 10
8776.153749631607
 20
8429.448545094537
 30
0.0
 40
120.0
 41
0.0
 71
     5
 72
     1
  1
\A1;1273
  7
STYLE1
 73
     1
 44
1.0
1001
ACAD
1000
MTEXTBEGIN
1070
    73
1070
     1
1070
    44
1040
1.0
1070
    74
1070
     0
1000
MTEXTEND
  0
POINT
  5
17E1C
330
174A1
100
AcDbEntity
  8
DEFPOINTS
 62
     0
 48
50.0
100
AcDbPoint
 10
8225.387681467571
 20
8649.400123615517
 30
0.0
  0
POINT
  5
17E1D
330
174A1
100
AcDbEntity
  8
DEFPOINTS
 62
     0
 48
50.0
100
AcDbPoint
 10
9498.38768146764
 20
8649.400123615508
 30
0.0
  0
POINT
  5
17E1E
330
174A1
100
AcDbEntity
  8
DEFPOINTS
 62
     0
 48
50.0
100
AcDbPoint
 10
9412.653749631642
 20
8329.436734070915
 30
0.0
  0
ENDBLK
  5
174AC
330
174A1
100
AcDbEntity
  8
0
 48
50.0
100
AcDbBlockEnd
  0
BLOCK
  5
174B9
330
174AD
100
AcDbEntity
  8
0
 48
50.0
100
AcDbBlockBegin
  2
*D15
 70
     1
 10
0.0
 20
0.0
 30
0.0
  3
*D15
  1

  0
LINE
  5
17E0B
330
174AD
100
AcDbEntity
  8
寸法
 62
     0
 48
50.0
370
    -2
100
AcDbLine
 10
10772.88768146764
 20
9149.400123615563
 30
0.0
 11
10772.88768146764
 21
9489.400123615469
 31
0.0
  0
LINE
  5
17E0C
330
174AD
100
AcDbEntity
  8
寸法
 62
     0
 48
50.0
370
    -2
100
AcDbLine
 10
10827.88768146764
 20
9149.400123615563
 30
0.0
 11
10827.88768146764
 21
9489.400123615469
 31
0.0
  0
LINE
  5
17E0D
330
174AD
100
AcDbEntity
  8
寸法
 62
     0
 48
50.0
370
    -2
100
AcDbLine
 10
10772.88768146764
 20
9429.40012361547
 30
0.0
 11
10672.88768146764
 21
9429.40012361547
 31
0.0
  0
LINE
  5
17E0E
330
174AD
100
AcDbEntity
  8
寸法
 62
     0
 48
50.0
370
    -2
100
AcDbLine
 10
10827.88768146764
 20
9429.40012361547
 30
0.0
 11
11244.85824421612
 21
9429.40012361547
 31
0.0
  0
LINE
  5
17E0F
330
174AD
100
AcDbEntity
  8
寸法
 62
     0
 48
50.0
370
    -2
100
AcDbLine
 10
10772.88768146764
 20
9429.40012361547
 30
0.0
 11
10827.88768146764
 21
9429.40012361547
 31
0.0
  0
INSERT
  5
17E10
330
174AD
100
AcDbEntity
  8
寸法
 62
     0
 48
50.0
370
    -2
100
AcDbBlockReference
  2
_DOTSMALL
 10
10772.88768146764
 20
9429.40012361547
 30
0.0
 41
100.0
 42
100.0
 43
100.0
  0
INSERT
  5
17E11
330
174AD
100
AcDbEntity
  8
寸法
 62
     0
 48
50.0
370
    -2
100
AcDbBlockReference
  2
_DOTSMALL
 10
10827.88768146764
 20
9429.40012361547
 30
0.0
 41
100.0
 42
100.0
 43
100.0
 50
180.0
  0
MTEXT
  5
17E12
330
174AD
100
AcDbEntity
  8
寸法
 62
     7
 48
50.0
100
AcDbMText
 10
11136.37296284188
 20
9529.40012361547
 30
0.0
 40
120.0
 41
0.0
 71
     5
 72
     1
  1
\A1;55
  7
STYLE1
 73
     1
 44
1.0
1001
ACAD
1000
MTEXTBEGIN
1070
    73
1070
     1
1070
    44
1040
1.0
1070
    74
1070
     0
1000
MTEXTEND
  0
POINT
  5
17E13
330
174AD
100
AcDbEntity
  8
DEFPOINTS
 62
     0
 48
50.0
100
AcDbPoint
 10
10772.88768146764
 20
9129.400123615564
 30
0.0
  0
POINT
  5
17E14
330
174AD
100
AcDbEntity
  8
DEFPOINTS
 62
     0
 48
50.0
100
AcDbPoint
 10
10827.88768146764
 20
9129.400123615564
 30
0.0
  0
POINT
  5
17E15
330
174AD
100
AcDbEntity
  8
DEFPOINTS
 62
     0
 48
50.0
100
AcDbPoint
 10
10827.88768146764
 20
9429.40012361547
 30
0.0
  0
ENDBLK
  5
174BA
330
174AD
100
AcDbEntity
  8
0
 48
50.0
100
AcDbBlockEnd
  0
BLOCK
  5
174C5
330
174BB
100
AcDbEntity
  8
0
 48
50.0
100
AcDbBlockBegin
  2
*D16
 70
     1
 10
0.0
 20
0.0
 30
0.0
  3
*D16
  1

  0
LINE
  5
17E02
330
174BB
100
AcDbEntity
  8
寸法
 62
     0
 48
50.0
370
    -2
100
AcDbLine
 10
8252.88768146764
 20
9149.400123615469
 30
0.0
 11
8252.88768146764
 21
9489.400123615469
 31
0.0
  0
LINE
  5
17E03
330
174BB
100
AcDbEntity
  8
寸法
 62
     0
 48
50.0
370
    -2
100
AcDbLine
 10
10772.88768146764
 20
9149.400123615563
 30
0.0
 11
10772.88768146764
 21
9489.400123615469
 31
0.0
  0
LINE
  5
17E04
330
174BB
100
AcDbEntity
  8
寸法
 62
     0
 48
50.0
370
    -2
100
AcDbLine
 10
8252.88768146764
 20
9429.40012361547
 30
0.0
 11
10772.88768146764
 21
9429.40012361547
 31
0.0
  0
INSERT
  5
17E05
330
174BB
100
AcDbEntity
  8
寸法
 62
     0
 48
50.0
370
    -2
100
AcDbBlockReference
  2
_DOTSMALL
 10
8252.88768146764
 20
9429.40012361547
 30
0.0
 41
100.0
 42
100.0
 43
100.0
 50
180.0
  0
INSERT
  5
17E06
330
174BB
100
AcDbEntity
  8
寸法
 62
     0
 48
50.0
370
    -2
100
AcDbBlockReference
  2
_DOTSMALL
 10
10772.88768146764
 20
9429.40012361547
 30
0.0
 41
100.0
 42
100.0
 43
100.0
  0
MTEXT
  5
17E07
330
174BB
100
AcDbEntity
  8
寸法
 62
     7
 48
50.0
100
AcDbMText
 10
9512.887681467637
 20
9529.411934639091
 30
0.0
 40
120.0
 41
0.0
 71
     5
 72
     1
  1
\A1;6X420=2520
  7
STYLE1
 73
     1
 44
1.0
1001
ACAD
1000
MTEXTBEGIN
1070
    73
1070
     1
1070
    44
1040
1.0
1070
    74
1070
     0
1000
MTEXTEND
  0
POINT
  5
17E08
330
174BB
100
AcDbEntity
  8
DEFPOINTS
 62
     0
 48
50.0
100
AcDbPoint
 10
8252.88768146764
 20
9129.40012361547
 30
0.0
  0
POINT
  5
17E09
330
174BB
100
AcDbEntity
  8
DEFPOINTS
 62
     0
 48
50.0
100
AcDbPoint
 10
10772.88768146764
 20
9129.400123615564
 30
0.0
  0
POINT
  5
17E0A
330
174BB
100
AcDbEntity
  8
DEFPOINTS
 62
     0
 48
50.0
100
AcDbPoint
 10
10772.88768146764
 20
9429.40012361547
 30
0.0
  0
ENDBLK
  5
174C6
330
174BB
100
AcDbEntity
  8
0
 48
50.0
100
AcDbBlockEnd
  0
BLOCK
  5
174DD
330
174D3
100
AcDbEntity
  8
0
 48
50.0
100
AcDbBlockBegin
  2
*D17
 70
     1
 10
0.0
 20
0.0
 30
0.0
  3
*D17
  1

  0
LINE
  5
17DF0
330
174D3
100
AcDbEntity
  8
寸法
 62
     0
 48
50.0
370
    -2
100
AcDbLine
 10
9520.028697619018
 20
8629.400123615575
 30
0.0
 11
9423.576798085756
 21
8269.436734070916
 31
0.0
  0
LINE
  5
17DF1
330
174D3
100
AcDbEntity
  8
寸法
 62
     0
 48
50.0
370
    -2
100
AcDbLine
 10
10793.02869761903
 20
8629.400123615567
 30
0.0
 11
10696.57679808577
 21
8269.436734070916
 31
0.0
  0
LINE
  5
17DF2
330
174D3
100
AcDbEntity
  8
寸法
 62
     0
 48
50.0
370
    -2
100
AcDbLine
 10
9439.653749631622
 20
8329.436734070915
 30
0.0
 11
10712.65374963163
 21
8329.436734070915
 31
0.0
  0
INSERT
  5
17DF3
330
174D3
100
AcDbEntity
  8
寸法
 62
     0
 48
50.0
370
    -2
100
AcDbBlockReference
  2
_DOTSMALL
 10
9439.653749631622
 20
8329.436734070915
 30
0.0
 41
100.0
 42
100.0
 43
100.0
 50
180.0
  0
INSERT
  5
17DF4
330
174D3
100
AcDbEntity
  8
寸法
 62
     0
 48
50.0
370
    -2
100
AcDbBlockReference
  2
_DOTSMALL
 10
10712.65374963163
 20
8329.436734070915
 30
0.0
 41
100.0
 42
100.0
 43
100.0
  0
MTEXT
  5
17DF5
330
174D3
100
AcDbEntity
  8
寸法
 62
     7
 48
50.0
100
AcDbMText
 10
10145.77558878165
 20
8429.448545094537
 30
0.0
 40
120.0
 41
0.0
 71
     5
 72
     1
  1
\A1;1273
  7
STYLE1
 73
     1
 44
1.0
1001
ACAD
1000
MTEXTBEGIN
1070
    73
1070
     1
1070
    44
1040
1.0
1070
    74
1070
     0
1000
MTEXTEND
  0
POINT
  5
17DF6
330
174D3
100
AcDbEntity
  8
DEFPOINTS
 62
     0
 48
50.0
100
AcDbPoint
 10
9525.387681467639
 20
8649.400123615576
 30
0.0
  0
POINT
  5
17DF7
330
174D3
100
AcDbEntity
  8
DEFPOINTS
 62
     0
 48
50.0
100
AcDbPoint
 10
10798.38768146765
 20
8649.400123615567
 30
0.0
  0
POINT
  5
17DF8
330
174D3
100
AcDbEntity
  8
DEFPOINTS
 62
     0
 48
50.0
100
AcDbPoint
 10
10712.65374963163
 20
8329.436734070915
 30
0.0
  0
ENDBLK
  5
174DE
330
174D3
100
AcDbEntity
  8
0
 48
50.0
100
AcDbBlockEnd
  0
BLOCK
  5
174E9
330
174DF
100
AcDbEntity
  8
0
 48
50.0
100
AcDbBlockBegin
  2
*D18
 70
     1
 10
0.0
 20
0.0
 30
0.0
  3
*D18
  1

  0
LINE
  5
17DE7
330
174DF
100
AcDbEntity
  8
寸法
 62
     0
 48
50.0
370
    -2
100
AcDbLine
 10
10847.88768146764
 20
9129.400123615564
 30
0.0
 11
11887.88768146764
 21
9129.400123615564
 31
0.0
  0
LINE
  5
17DE8
330
174DF
100
AcDbEntity
  8
寸法
 62
     0
 48
50.0
370
    -2
100
AcDbLine
 10
10847.88768146761
 20
7339.400123615553
 30
0.0
 11
11887.88768146764
 21
7339.400123615553
 31
0.0
  0
LINE
  5
17DE9
330
174DF
100
AcDbEntity
  8
寸法
 62
     0
 48
50.0
370
    -2
100
AcDbLine
 10
11827.88768146764
 20
9129.400123615564
 30
0.0
 11
11827.88768146764
 21
7339.400123615553
 31
0.0
  0
INSERT
  5
17DEA
330
174DF
100
AcDbEntity
  8
寸法
 62
     0
 48
50.0
370
    -2
100
AcDbBlockReference
  2
_DOTSMALL
 10
11827.88768146764
 20
9129.400123615564
 30
0.0
 41
100.0
 42
100.0
 43
100.0
 50
90.0
  0
INSERT
  5
17DEB
330
174DF
100
AcDbEntity
  8
寸法
 62
     0
 48
50.0
370
    -2
100
AcDbBlockReference
  2
_DOTSMALL
 10
11827.88768146764
 20
7339.400123615553
 30
0.0
 41
100.0
 42
100.0
 43
100.0
 50
270.0
  0
MTEXT
  5
17DEC
330
174DF
100
AcDbEntity
  8
寸法
 62
     7
 48
50.0
100
AcDbMText
 10
11727.88768146764
 20
8234.400123615557
 30
0.0
 40
120.0
 41
0.0
 71
     5
 72
     1
  1
\A1;1790
  7
STYLE1
 11
0.0000000000000001
 21
1.0
 31
0.0
 73
     1
 44
1.0
1001
ACAD
1000
MTEXTBEGIN
1070
    73
1070
     1
1070
    44
1040
1.0
1070
    74
1070
     0
1000
MTEXTEND
  0
POINT
  5
17DED
330
174DF
100
AcDbEntity
  8
DEFPOINTS
 62
     0
 48
50.0
100
AcDbPoint
 10
10827.88768146764
 20
9129.400123615564
 30
0.0
  0
POINT
  5
17DEE
330
174DF
100
AcDbEntity
  8
DEFPOINTS
 62
     0
 48
50.0
100
AcDbPoint
 10
10827.88768146761
 20
7339.400123615553
 30
0.0
  0
POINT
  5
17DEF
330
174DF
100
AcDbEntity
  8
DEFPOINTS
 62
     0
 48
50.0
100
AcDbPoint
 10
11827.88768146764
 20
7339.400123615553
 30
0.0
  0
ENDBLK
  5
174EA
330
174DF
100
AcDbEntity
  8
0
 48
50.0
100
AcDbBlockEnd
  0
BLOCK
  5
174F5
330
174EB
100
AcDbEntity
  8
0
 48
50.0
100
AcDbBlockBegin
  2
*D19
 70
     1
 10
0.0
 20
0.0
 30
0.0
  3
*D19
  1

  0
LINE
  5
17E9E
330
174EB
100
AcDbEntity
  8
寸法
 62
     0
 48
50.0
370
    -2
100
AcDbLine
 10
10847.88768146764
 20
9074.400123615566
 30
0.0
 11
11587.88768146763
 21
9074.400123615566
 31
0.0
  0
LINE
  5
17E9F
330
174EB
100
AcDbEntity
  8
寸法
 62
     0
 48
50.0
370
    -2
100
AcDbLine
 10
10847.88768146761
 20
7394.400123615548
 30
0.0
 11
11587.88768146763
 21
7394.400123615548
 31
0.0
  0
LINE
  5
17EA0
330
174EB
100
AcDbEntity
  8
寸法
 62
     0
 48
50.0
370
    -2
100
AcDbLine
 10
11527.88768146763
 20
9074.400123615566
 30
0.0
 11
11527.88768146763
 21
7394.400123615548
 31
0.0
  0
INSERT
  5
17EA1
330
174EB
100
AcDbEntity
  8
寸法
 62
     0
 48
50.0
370
    -2
100
AcDbBlockReference
  2
_DOTSMALL
 10
11527.88768146763
 20
9074.400123615566
 30
0.0
 41
100.0
 42
100.0
 43
100.0
 50
90.0
  0
INSERT
  5
17EA2
330
174EB
100
AcDbEntity
  8
寸法
 62
     0
 48
50.0
370
    -2
100
AcDbBlockReference
  2
_DOTSMALL
 10
11527.88768146763
 20
7394.400123615548
 30
0.0
 41
100.0
 42
100.0
 43
100.0
 50
270.0
  0
MTEXT
  5
17EA3
330
174EB
100
AcDbEntity
  8
寸法
 62
     7
 48
50.0
100
AcDbMText
 10
11427.87587044401
 20
8234.400123615557
 30
0.0
 40
120.0
 41
0.0
 71
     5
 72
     1
  1
\A1;4X420=1680
  7
STYLE1
 11
0.0000000000000001
 21
1.0
 31
0.0
 73
     1
 44
1.0
1001
ACAD
1000
MTEXTBEGIN
1070
    73
1070
     1
1070
    44
1040
1.0
1070
    74
1070
     0
1000
MTEXTEND
  0
POINT
  5
17EA4
330
174EB
100
AcDbEntity
  8
DEFPOINTS
 62
     0
 48
50.0
100
AcDbPoint
 10
10827.88768146764
 20
9074.400123615566
 30
0.0
  0
POINT
  5
17EA5
330
174EB
100
AcDbEntity
  8
DEFPOINTS
 62
     0
 48
50.0
100
AcDbPoint
 10
10827.88768146761
 20
7394.400123615548
 30
0.0
  0
POINT
  5
17EA6
330
174EB
100
AcDbEntity
  8
DEFPOINTS
 62
     0
 48
50.0
100
AcDbPoint
 10
11527.88768146763
 20
7394.400123615548
 30
0.0
  0
ENDBLK
  5
174F6
330
174EB
100
AcDbEntity
  8
0
 48
50.0
100
AcDbBlockEnd
  0
BLOCK
  5
17503
330
174F7
100
AcDbEntity
  8
0
 48
50.0
100
AcDbBlockBegin
  2
*D20
 70
     1
 10
0.0
 20
0.0
 30
0.0
  3
*D20
  1

  0
LINE
  5
17DD3
330
174F7
100
AcDbEntity
  8
寸法
 62
     0
 48
50.0
370
    -2
100
AcDbLine
 10
10847.88768146761
 20
7394.400123615548
 30
0.0
 11
11587.88768146761
 21
7394.400123615548
 31
0.0
  0
LINE
  5
17DD4
330
174F7
100
AcDbEntity
  8
寸法
 62
     0
 48
50.0
370
    -2
100
AcDbLine
 10
10847.88768146761
 20
7339.400123615553
 30
0.0
 11
11587.88768146761
 21
7339.400123615553
 31
0.0
  0
LINE
  5
17DD5
330
174F7
100
AcDbEntity
  8
寸法
 62
     0
 48
50.0
370
    -2
100
AcDbLine
 10
11527.88768146761
 20
7394.400123615548
 30
0.0
 11
11527.88768146761
 21
7494.400123615548
 31
0.0
  0
LINE
  5
17DD6
330
174F7
100
AcDbEntity
  8
寸法
 62
     0
 48
50.0
370
    -2
100
AcDbLine
 10
11527.88768146761
 20
7339.400123615553
 30
0.0
 11
11527.88768146761
 21
6922.429560867062
 31
0.0
  0
LINE
  5
17DD7
330
174F7
100
AcDbEntity
  8
寸法
 62
     0
 48
50.0
370
    -2
100
AcDbLine
 10
11527.88768146761
 20
7394.400123615548
 30
0.0
 11
11527.88768146761
 21
7339.400123615553
 31
0.0
  0
INSERT
  5
17DD8
330
174F7
100
AcDbEntity
  8
寸法
 62
     0
 48
50.0
370
    -2
100
AcDbBlockReference
  2
_DOTSMALL
 10
11527.88768146761
 20
7394.400123615548
 30
0.0
 41
100.0
 42
100.0
 43
100.0
 50
270.0
  0
INSERT
  5
17DD9
330
174F7
100
AcDbEntity
  8
寸法
 62
     0
 48
50.0
370
    -2
100
AcDbBlockReference
  2
_DOTSMALL
 10
11527.88768146761
 20
7339.400123615553
 30
0.0
 41
100.0
 42
100.0
 43
100.0
 50
90.0
  0
MTEXT
  5
17DDA
330
174F7
100
AcDbEntity
  8
寸法
 62
     7
 48
50.0
100
AcDbMText
 10
11427.88768146761
 20
7030.914842241303
 30
0.0
 40
120.0
 41
0.0
 71
     5
 72
     1
  1
\A1;55
  7
STYLE1
 11
0.0000000000000001
 21
1.0
 31
0.0
 73
     1
 44
1.0
1001
ACAD
1000
MTEXTBEGIN
1070
    73
1070
     1
1070
    44
1040
1.0
1070
    74
1070
     0
1000
MTEXTEND
  0
POINT
  5
17DDB
330
174F7
100
AcDbEntity
  8
DEFPOINTS
 62
     0
 48
50.0
100
AcDbPoint
 10
10827.88768146761
 20
7394.400123615548
 30
0.0
  0
POINT
  5
17DDC
330
174F7
100
AcDbEntity
  8
DEFPOINTS
 62
     0
 48
50.0
100
AcDbPoint
 10
10827.88768146761
 20
7339.400123615553
 30
0.0
  0
POINT
  5
17DDD
330
174F7
100
AcDbEntity
  8
DEFPOINTS
 62
     0
 48
50.0
100
AcDbPoint
 10
11527.88768146761
 20
7339.400123615553
 30
0.0
  0
ENDBLK
  5
17504
330
174F7
100
AcDbEntity
  8
0
 48
50.0
100
AcDbBlockEnd
  0
BLOCK
  5
1750F
330
17505
100
AcDbEntity
  8
0
 48
50.0
100
AcDbBlockBegin
  2
*D21
 70
     1
 10
0.0
 20
0.0
 30
0.0
  3
*D21
  1

  0
LINE
  5
17DCA
330
17505
100
AcDbEntity
  8
寸法
 62
     0
 48
50.0
370
    -2
100
AcDbLine
 10
10819.38768146764
 20
9094.041139766941
 30
0.0
 11
11287.88768146763
 21
8968.506943112961
 31
0.0
  0
LINE
  5
17DCB
330
17505
100
AcDbEntity
  8
寸法
 62
     0
 48
50.0
370
    -2
100
AcDbLine
 10
10819.38768146764
 20
8644.041139766946
 30
0.0
 11
11287.88768146763
 21
8518.506943112965
 31
0.0
  0
LINE
  5
17DCC
330
17505
100
AcDbEntity
  8
寸法
 62
     0
 48
50.0
370
    -2
100
AcDbLine
 10
11227.88768146763
 20
8984.583894658829
 30
0.0
 11
11227.88768146763
 21
8534.583894658831
 31
0.0
  0
INSERT
  5
17DCD
330
17505
100
AcDbEntity
  8
寸法
 62
     0
 48
50.0
370
    -2
100
AcDbBlockReference
  2
_DOTSMALL
 10
11227.88768146763
 20
8984.583894658829
 30
0.0
 41
100.0
 42
100.0
 43
100.0
 50
90.0
  0
INSERT
  5
17DCE
330
17505
100
AcDbEntity
  8
寸法
 62
     0
 48
50.0
370
    -2
100
AcDbBlockReference
  2
_DOTSMALL
 10
11227.88768146763
 20
8534.583894658831
 30
0.0
 41
100.0
 42
100.0
 43
100.0
 50
270.0
  0
MTEXT
  5
17DCF
330
17505
100
AcDbEntity
  8
寸法
 62
     7
 48
50.0
100
AcDbMText
 10
11127.88768146763
 20
8759.583894658829
 30
0.0
 40
120.0
 41
0.0
 71
     5
 72
     1
  1
\A1;450
  7
STYLE1
 11
0.0000000000000001
 21
1.0
 31
0.0
 73
     1
 44
1.0
1001
ACAD
1000
MTEXTBEGIN
1070
    73
1070
     1
1070
    44
1040
1.0
1070
    74
1070
     0
1000
MTEXTEND
  0
POINT
  5
17DD0
330
17505
100
AcDbEntity
  8
DEFPOINTS
 62
     0
 48
50.0
100
AcDbPoint
 10
10799.38768146764
 20
9099.400123615565
 30
0.0
  0
POINT
  5
17DD1
330
17505
100
AcDbEntity
  8
DEFPOINTS
 62
     0
 48
50.0
100
AcDbPoint
 10
10799.38768146764
 20
8649.400123615567
 30
0.0
  0
POINT
  5
17DD2
330
17505
100
AcDbEntity
  8
DEFPOINTS
 62
     0
 48
50.0
100
AcDbPoint
 10
11227.88768146763
 20
8534.583894658831
 30
0.0
  0
ENDBLK
  5
17510
330
17505
100
AcDbEntity
  8
0
 48
50.0
100
AcDbBlockEnd
  0
BLOCK
  5
1751D
330
17511
100
AcDbEntity
  8
0
 48
50.0
100
AcDbBlockBegin
  2
*D22
 70
     1
 10
0.0
 20
0.0
 30
0.0
  3
*D22
  1

  0
LINE
  5
17DBF
330
17511
100
AcDbEntity
  8
寸法
 62
     0
 48
50.0
370
    -2
100
AcDbLine
 10
10847.88768146764
 20
9129.400123615564
 30
0.0
 11
11587.88768146763
 21
9129.400123615564
 31
0.0
  0
LINE
  5
17DC0
330
17511
100
AcDbEntity
  8
寸法
 62
     0
 48
50.0
370
    -2
100
AcDbLine
 10
10847.88768146764
 20
9074.400123615566
 30
0.0
 11
11587.88768146763
 21
9074.400123615566
 31
0.0
  0
LINE
  5
17DC1
330
17511
100
AcDbEntity
  8
寸法
 62
     0
 48
50.0
370
    -2
100
AcDbLine
 10
11527.88768146763
 20
9074.400123615566
 30
0.0
 11
11527.88768146763
 21
8974.400123615566
 31
0.0
  0
LINE
  5
17DC2
330
17511
100
AcDbEntity
  8
寸法
 62
     0
 48
50.0
370
    -2
100
AcDbLine
 10
11527.88768146763
 20
9129.400123615564
 30
0.0
 11
11527.88768146763
 21
9546.37068636404
 31
0.0
  0
LINE
  5
17DC3
330
17511
100
AcDbEntity
  8
寸法
 62
     0
 48
50.0
370
    -2
100
AcDbLine
 10
11527.88768146763
 20
9074.400123615566
 30
0.0
 11
11527.88768146763
 21
9129.400123615564
 31
0.0
  0
INSERT
  5
17DC4
330
17511
100
AcDbEntity
  8
寸法
 62
     0
 48
50.0
370
    -2
100
AcDbBlockReference
  2
_DOTSMALL
 10
11527.88768146763
 20
9074.400123615566
 30
0.0
 41
100.0
 42
100.0
 43
100.0
 50
90.0
  0
INSERT
  5
17DC5
330
17511
100
AcDbEntity
  8
寸法
 62
     0
 48
50.0
370
    -2
100
AcDbBlockReference
  2
_DOTSMALL
 10
11527.88768146763
 20
9129.400123615564
 30
0.0
 41
100.0
 42
100.0
 43
100.0
 50
270.0
  0
MTEXT
  5
17DC6
330
17511
100
AcDbEntity
  8
寸法
 62
     7
 48
50.0
100
AcDbMText
 10
11427.88768146763
 20
9437.885404989804
 30
0.0
 40
120.0
 41
0.0
 71
     5
 72
     1
  1
\A1;55
  7
STYLE1
 11
0.0000000000000001
 21
1.0
 31
0.0
 73
     1
 44
1.0
1001
ACAD
1000
MTEXTBEGIN
1070
    73
1070
     1
1070
    44
1040
1.0
1070
    74
1070
     0
1000
MTEXTEND
  0
POINT
  5
17DC7
330
17511
100
AcDbEntity
  8
DEFPOINTS
 62
     0
 48
50.0
100
AcDbPoint
 10
10827.88768146764
 20
9129.400123615564
 30
0.0
  0
POINT
  5
17DC8
330
17511
100
AcDbEntity
  8
DEFPOINTS
 62
     0
 48
50.0
100
AcDbPoint
 10
10827.88768146764
 20
9074.400123615566
 30
0.0
  0
POINT
  5
17DC9
330
17511
100
AcDbEntity
  8
DEFPOINTS
 62
     0
 48
50.0
100
AcDbPoint
 10
11527.88768146763
 20
9074.400123615566
 30
0.0
  0
ENDBLK
  5
1751E
330
17511
100
AcDbEntity
  8
0
 48
50.0
100
AcDbBlockEnd
  0
BLOCK
  5
1758F
330
17585
100
AcDbEntity
  8
0
 48
50.0
100
AcDbBlockBegin
  2
*D23
 70
     1
 10
0.0
 20
0.0
 30
0.0
  3
*D23
  1

  0
LINE
  5
17DA2
330
17585
100
AcDbEntity
  8
寸法
 62
     0
 48
50.0
370
    -2
100
AcDbLine
 10
10847.88768146763
 20
2601.208819850399
 30
0.0
 11
11423.05777723005
 21
2601.208819850399
 31
0.0
  0
LINE
  5
17DA3
330
17585
100
AcDbEntity
  8
寸法
 62
     0
 48
50.0
370
    -2
100
AcDbLine
 10
10927.88768146761
 20
4621.208819850401
 30
0.0
 11
11423.05777723005
 21
4621.208819850401
 31
0.0
  0
LINE
  5
17DA4
330
17585
100
AcDbEntity
  8
寸法
 62
     0
 48
50.0
370
    -2
100
AcDbLine
 10
11363.05777723005
 20
2601.208819850399
 30
0.0
 11
11363.05777723005
 21
4621.208819850401
 31
0.0
  0
INSERT
  5
17DA5
330
17585
100
AcDbEntity
  8
寸法
 62
     0
 48
50.0
370
    -2
100
AcDbBlockReference
  2
_DOTSMALL
 10
11363.05777723005
 20
2601.208819850399
 30
0.0
 41
100.0
 42
100.0
 43
100.0
 50
270.0
  0
INSERT
  5
17DA6
330
17585
100
AcDbEntity
  8
寸法
 62
     0
 48
50.0
370
    -2
100
AcDbBlockReference
  2
_DOTSMALL
 10
11363.05777723005
 20
4621.208819850401
 30
0.0
 41
100.0
 42
100.0
 43
100.0
 50
90.0
  0
MTEXT
  5
17DA7
330
17585
100
AcDbEntity
  8
寸法
 62
     7
 48
50.0
100
AcDbMText
 10
11263.04596620643
 20
3583.465147280087
 30
0.0
 40
120.0
 41
0.0
 71
     5
 72
     1
  1
\A1;2020
  7
STYLE1
 11
0.0000000000000001
 21
1.0
 31
0.0
 73
     1
 44
1.0
1001
ACAD
1000
MTEXTBEGIN
1070
    73
1070
     1
1070
    44
1040
1.0
1070
    74
1070
     0
1000
MTEXTEND
  0
POINT
  5
17DA8
330
17585
100
AcDbEntity
  8
DEFPOINTS
 62
     0
 48
50.0
100
AcDbPoint
 10
10827.88768146763
 20
2601.208819850399
 30
0.0
  0
POINT
  5
17DA9
330
17585
100
AcDbEntity
  8
DEFPOINTS
 62
     0
 48
50.0
100
AcDbPoint
 10
10907.88768146761
 20
4621.208819850401
 30
0.0
  0
POINT
  5
17DAA
330
17585
100
AcDbEntity
  8
DEFPOINTS
 62
     0
 48
50.0
100
AcDbPoint
 10
11363.05777723005
 20
4621.208819850401
 30
0.0
  0
ENDBLK
  5
17590
330
17585
100
AcDbEntity
  8
0
 48
50.0
100
AcDbBlockEnd
  0
BLOCK
  5
17BA8
330
17B9E
100
AcDbEntity
  8
0
 48
50.0
100
AcDbBlockBegin
  2
*D24
 70
     1
 10
0.0
 20
0.0
 30
0.0
  3
*D24
  1

  0
LINE
  5
17D99
330
17B9E
100
AcDbEntity
  8
寸法
 62
     0
 48
50.0
370
    -2
100
AcDbLine
 10
4188.927335370095
 20
2301.208819850399
 30
0.0
 11
3999.427332123458
 21
2301.208819850399
 31
0.0
  0
LINE
  5
17D9A
330
17B9E
100
AcDbEntity
  8
寸法
 62
     0
 48
50.0
370
    -2
100
AcDbLine
 10
4163.927335370092
 20
2501.208819850399
 30
0.0
 11
3999.427332123458
 21
2501.208819850399
 31
0.0
  0
LINE
  5
17D9B
330
17B9E
100
AcDbEntity
  8
寸法
 62
     0
 48
50.0
370
    -2
100
AcDbLine
 10
4059.427332123457
 20
2301.208819850399
 30
0.0
 11
4059.427332123457
 21
2501.208819850399
 31
0.0
  0
INSERT
  5
17D9C
330
17B9E
100
AcDbEntity
  8
寸法
 62
     0
 48
50.0
370
    -2
100
AcDbBlockReference
  2
_DOTSMALL
 10
4059.427332123457
 20
2301.208819850399
 30
0.0
 41
100.0
 42
100.0
 43
100.0
 50
270.0
  0
INSERT
  5
17D9D
330
17B9E
100
AcDbEntity
  8
寸法
 62
     0
 48
50.0
370
    -2
100
AcDbBlockReference
  2
_DOTSMALL
 10
4059.427332123457
 20
2501.208819850399
 30
0.0
 41
100.0
 42
100.0
 43
100.0
 50
90.0
  0
MTEXT
  5
17D9E
330
17B9E
100
AcDbEntity
  8
寸法
 62
     7
 48
50.0
100
AcDbMText
 10
3959.415521099836
 20
2401.2088198504
 30
0.0
 40
120.0
 41
0.0
 71
     5
 72
     1
  1
\A1;200
  7
STYLE1
 11
0.0000000000000001
 21
1.0
 31
0.0
 73
     1
 44
1.0
1001
ACAD
1000
MTEXTBEGIN
1070
    73
1070
     1
1070
    44
1040
1.0
1070
    74
1070
     0
1000
MTEXTEND
  0
POINT
  5
17D9F
330
17B9E
100
AcDbEntity
  8
DEFPOINTS
 62
     0
 48
50.0
100
AcDbPoint
 10
4208.927335370095
 20
2301.208819850399
 30
0.0
  0
POINT
  5
17DA0
330
17B9E
100
AcDbEntity
  8
DEFPOINTS
 62
     0
 48
50.0
100
AcDbPoint
 10
4183.927335370092
 20
2501.208819850399
 30
0.0
  0
POINT
  5
17DA1
330
17B9E
100
AcDbEntity
  8
DEFPOINTS
 62
     0
 48
50.0
100
AcDbPoint
 10
4059.427332123457
 20
2501.208819850399
 30
0.0
  0
ENDBLK
  5
17BA9
330
17B9E
100
AcDbEntity
  8
0
 48
50.0
100
AcDbBlockEnd
  0
BLOCK
  5
17BB4
330
17BAA
100
AcDbEntity
  8
0
 48
50.0
100
AcDbBlockBegin
  2
*D25
 70
     1
 10
0.0
 20
0.0
 30
0.0
  3
*D25
  1

  0
LINE
  5
17D90
330
17BAA
100
AcDbEntity
  8
寸法
 62
     0
 48
50.0
370
    -2
100
AcDbLine
 10
4408.927335370091
 20
2281.208819850397
 30
0.0
 11
4408.927335370091
 21
1955.161490550021
 31
0.0
  0
LINE
  5
17D91
330
17BAA
100
AcDbEntity
  8
寸法
 62
     0
 48
50.0
370
    -2
100
AcDbLine
 10
4208.927335370095
 20
2281.208819850399
 30
0.0
 11
4208.927335370095
 21
1955.161490550021
 31
0.0
  0
LINE
  5
17D92
330
17BAA
100
AcDbEntity
  8
寸法
 62
     0
 48
50.0
370
    -2
100
AcDbLine
 10
4408.927335370091
 20
2015.161490550021
 30
0.0
 11
4208.927335370095
 21
2015.161490550021
 31
0.0
  0
INSERT
  5
17D93
330
17BAA
100
AcDbEntity
  8
寸法
 62
     0
 48
50.0
370
    -2
100
AcDbBlockReference
  2
_DOTSMALL
 10
4408.927335370091
 20
2015.161490550021
 30
0.0
 41
100.0
 42
100.0
 43
100.0
  0
INSERT
  5
17D94
330
17BAA
100
AcDbEntity
  8
寸法
 62
     0
 48
50.0
370
    -2
100
AcDbBlockReference
  2
_DOTSMALL
 10
4208.927335370095
 20
2015.161490550021
 30
0.0
 41
100.0
 42
100.0
 43
100.0
 50
180.0
  0
MTEXT
  5
17D95
330
17BAA
100
AcDbEntity
  8
寸法
 62
     7
 48
50.0
100
AcDbMText
 10
4308.927335370094
 20
2115.173301573643
 30
0.0
 40
120.0
 41
0.0
 71
     5
 72
     1
  1
\A1;200
  7
STYLE1
 73
     1
 44
1.0
1001
ACAD
1000
MTEXTBEGIN
1070
    73
1070
     1
1070
    44
1040
1.0
1070
    74
1070
     0
1000
MTEXTEND
  0
POINT
  5
17D96
330
17BAA
100
AcDbEntity
  8
DEFPOINTS
 62
     0
 48
50.0
100
AcDbPoint
 10
4408.927335370091
 20
2301.208819850397
 30
0.0
  0
POINT
  5
17D97
330
17BAA
100
AcDbEntity
  8
DEFPOINTS
 62
     0
 48
50.0
100
AcDbPoint
 10
4208.927335370095
 20
2301.208819850399
 30
0.0
  0
POINT
  5
17D98
330
17BAA
100
AcDbEntity
  8
DEFPOINTS
 62
     0
 48
50.0
100
AcDbPoint
 10
4208.927335370095
 20
2015.161490550021
 30
0.0
  0
ENDBLK
  5
17BB5
330
17BAA
100
AcDbEntity
  8
0
 48
50.0
100
AcDbBlockEnd
  0
BLOCK
  5
17BC0
330
17BB6
100
AcDbEntity
  8
0
 48
50.0
100
AcDbBlockBegin
  2
*D26
 70
     1
 10
0.0
 20
0.0
 30
0.0
  3
*D26
  1

  0
LINE
  5
17D87
330
17BB6
100
AcDbEntity
  8
寸法
 62
     0
 48
50.0
370
    -2
100
AcDbLine
 10
6071.427335370088
 20
4696.208819850403
 30
0.0
 11
6071.427335370088
 21
5140.829079277672
 31
0.0
  0
LINE
  5
17D88
330
17BB6
100
AcDbEntity
  8
寸法
 62
     0
 48
50.0
370
    -2
100
AcDbLine
 10
4281.427335370099
 20
4696.208819850406
 30
0.0
 11
4281.427335370099
 21
5140.829079277672
 31
0.0
  0
LINE
  5
17D89
330
17BB6
100
AcDbEntity
  8
寸法
 62
     0
 48
50.0
370
    -2
100
AcDbLine
 10
6071.427335370088
 20
5080.829079277672
 30
0.0
 11
4281.427335370099
 21
5080.829079277672
 31
0.0
  0
INSERT
  5
17D8A
330
17BB6
100
AcDbEntity
  8
寸法
 62
     0
 48
50.0
370
    -2
100
AcDbBlockReference
  2
_DOTSMALL
 10
6071.427335370088
 20
5080.829079277672
 30
0.0
 41
100.0
 42
100.0
 43
100.0
  0
INSERT
  5
17D8B
330
17BB6
100
AcDbEntity
  8
寸法
 62
     0
 48
50.0
370
    -2
100
AcDbBlockReference
  2
_DOTSMALL
 10
4281.427335370099
 20
5080.829079277672
 30
0.0
 41
100.0
 42
100.0
 43
100.0
 50
180.0
  0
MTEXT
  5
17D8C
330
17BB6
100
AcDbEntity
  8
寸法
 62
     7
 48
50.0
100
AcDbMText
 10
5176.427335370092
 20
5180.829079277671
 30
0.0
 40
120.0
 41
0.0
 71
     5
 72
     1
  1
\A1;柱外寸法1790
  7
STYLE1
 73
     1
 44
1.0
1001
ACAD
1000
MTEXTBEGIN
1070
    73
1070
     1
1070
    44
1040
1.0
1070
    74
1070
     0
1000
MTEXTEND
  0
POINT
  5
17D8D
330
17BB6
100
AcDbEntity
  8
DEFPOINTS
 62
     0
 48
50.0
100
AcDbPoint
 10
6071.427335370088
 20
4676.208819850404
 30
0.0
  0
POINT
  5
17D8E
330
17BB6
100
AcDbEntity
  8
DEFPOINTS
 62
     0
 48
50.0
100
AcDbPoint
 10
4281.427335370099
 20
4676.208819850406
 30
0.0
  0
POINT
  5
17D8F
330
17BB6
100
AcDbEntity
  8
DEFPOINTS
 62
     0
 48
50.0
100
AcDbPoint
 10
4281.427335370099
 20
5080.829079277672
 30
0.0
  0
ENDBLK
  5
17BC1
330
17BB6
100
AcDbEntity
  8
0
 48
50.0
100
AcDbBlockEnd
  0
BLOCK
  5
17BCC
330
17BC2
100
AcDbEntity
  8
0
 48
50.0
100
AcDbBlockBegin
  2
*D27
 70
     1
 10
0.0
 20
0.0
 30
0.0
  3
*D27
  1

  0
LINE
  5
17D7E
330
17BC2
100
AcDbEntity
  8
寸法
 62
     0
 48
50.0
370
    -2
100
AcDbLine
 10
4231.427335370098
 20
4696.208819850403
 30
0.0
 11
4231.427335370098
 21
5350.422953699123
 31
0.0
  0
LINE
  5
17D7F
330
17BC2
100
AcDbEntity
  8
寸法
 62
     0
 48
50.0
370
    -2
100
AcDbLine
 10
6121.427335370088
 20
4696.208819850403
 30
0.0
 11
6121.427335370088
 21
5350.422953699123
 31
0.0
  0
LINE
  5
17D80
330
17BC2
100
AcDbEntity
  8
寸法
 62
     0
 48
50.0
370
    -2
100
AcDbLine
 10
4231.427335370098
 20
5290.422953699122
 30
0.0
 11
6121.427335370088
 21
5290.422953699122
 31
0.0
  0
INSERT
  5
17D81
330
17BC2
100
AcDbEntity
  8
寸法
 62
     0
 48
50.0
370
    -2
100
AcDbBlockReference
  2
_DOTSMALL
 10
4231.427335370098
 20
5290.422953699122
 30
0.0
 41
100.0
 42
100.0
 43
100.0
 50
180.0
  0
INSERT
  5
17D82
330
17BC2
100
AcDbEntity
  8
寸法
 62
     0
 48
50.0
370
    -2
100
AcDbBlockReference
  2
_DOTSMALL
 10
6121.427335370088
 20
5290.422953699122
 30
0.0
 41
100.0
 42
100.0
 43
100.0
  0
MTEXT
  5
17D83
330
17BC2
100
AcDbEntity
  8
寸法
 62
     7
 48
50.0
100
AcDbMText
 10
5176.427335370092
 20
5390.422953699122
 30
0.0
 40
120.0
 41
0.0
 71
     5
 72
     1
  1
\A1;1890
  7
STYLE1
 73
     1
 44
1.0
1001
ACAD
1000
MTEXTBEGIN
1070
    73
1070
     1
1070
    44
1040
1.0
1070
    74
1070
     0
1000
MTEXTEND
  0
POINT
  5
17D84
330
17BC2
100
AcDbEntity
  8
DEFPOINTS
 62
     0
 48
50.0
100
AcDbPoint
 10
4231.427335370098
 20
4676.208819850404
 30
0.0
  0
POINT
  5
17D85
330
17BC2
100
AcDbEntity
  8
DEFPOINTS
 62
     0
 48
50.0
100
AcDbPoint
 10
6121.427335370088
 20
4676.208819850402
 30
0.0
  0
POINT
  5
17D86
330
17BC2
100
AcDbEntity
  8
DEFPOINTS
 62
     0
 48
50.0
100
AcDbPoint
 10
6121.427335370088
 20
5290.422953699122
 30
0.0
  0
ENDBLK
  5
17BCD
330
17BC2
100
AcDbEntity
  8
0
 48
50.0
100
AcDbBlockEnd
  0
BLOCK
  5
17BDA
330
17BCE
100
AcDbEntity
  8
0
 48
50.0
100
AcDbBlockBegin
  2
*D28
 70
     1
 10
0.0
 20
0.0
 30
0.0
  3
*D28
  1

  0
LINE
  5
17D73
330
17BCE
100
AcDbEntity
  8
寸法
 62
     0
 48
50.0
370
    -2
100
AcDbLine
 10
4281.427335370099
 20
4696.208819850406
 30
0.0
 11
4281.427335370099
 21
5140.829079277672
 31
0.0
  0
LINE
  5
17D74
330
17BCE
100
AcDbEntity
  8
寸法
 62
     0
 48
50.0
370
    -2
100
AcDbLine
 10
4231.427335370098
 20
4696.208819850403
 30
0.0
 11
4231.427335370098
 21
5140.829079277672
 31
0.0
  0
LINE
  5
17D75
330
17BCE
100
AcDbEntity
  8
寸法
 62
     0
 48
50.0
370
    -2
100
AcDbLine
 10
4281.427335370099
 20
5080.829079277672
 30
0.0
 11
4381.427335370099
 21
5080.829079277672
 31
0.0
  0
LINE
  5
17D76
330
17BCE
100
AcDbEntity
  8
寸法
 62
     0
 48
50.0
370
    -2
100
AcDbLine
 10
4231.427335370098
 20
5080.829079277672
 30
0.0
 11
3811.894809901364
 21
5080.829079277672
 31
0.0
  0
LINE
  5
17D77
330
17BCE
100
AcDbEntity
  8
寸法
 62
     0
 48
50.0
370
    -2
100
AcDbLine
 10
4281.427335370099
 20
5080.829079277672
 30
0.0
 11
4231.427335370098
 21
5080.829079277672
 31
0.0
  0
INSERT
  5
17D78
330
17BCE
100
AcDbEntity
  8
寸法
 62
     0
 48
50.0
370
    -2
100
AcDbBlockReference
  2
_DOTSMALL
 10
4281.427335370099
 20
5080.829079277672
 30
0.0
 41
100.0
 42
100.0
 43
100.0
 50
180.0
  0
INSERT
  5
17D79
330
17BCE
100
AcDbEntity
  8
寸法
 62
     0
 48
50.0
370
    -2
100
AcDbBlockReference
  2
_DOTSMALL
 10
4231.427335370098
 20
5080.829079277672
 30
0.0
 41
100.0
 42
100.0
 43
100.0
  0
MTEXT
  5
17D7A
330
17BCE
100
AcDbEntity
  8
寸法
 62
     7
 48
50.0
100
AcDbMText
 10
3917.942053995852
 20
5180.829079277671
 30
0.0
 40
120.0
 41
0.0
 71
     5
 72
     1
  1
\A1;50
  7
STYLE1
 73
     1
 44
1.0
1001
ACAD
1000
MTEXTBEGIN
1070
    73
1070
     1
1070
    44
1040
1.0
1070
    74
1070
     0
1000
MTEXTEND
  0
POINT
  5
17D7B
330
17BCE
100
AcDbEntity
  8
DEFPOINTS
 62
     0
 48
50.0
100
AcDbPoint
 10
4281.427335370099
 20
4676.208819850406
 30
0.0
  0
POINT
  5
17D7C
330
17BCE
100
AcDbEntity
  8
DEFPOINTS
 62
     0
 48
50.0
100
AcDbPoint
 10
4231.427335370098
 20
4676.208819850404
 30
0.0
  0
POINT
  5
17D7D
330
17BCE
100
AcDbEntity
  8
DEFPOINTS
 62
     0
 48
50.0
100
AcDbPoint
 10
4231.427335370098
 20
5080.829079277672
 30
0.0
  0
ENDBLK
  5
17BDB
330
17BCE
100
AcDbEntity
  8
0
 48
50.0
100
AcDbBlockEnd
  0
BLOCK
  5
17BE8
330
17BDC
100
AcDbEntity
  8
0
 48
50.0
100
AcDbBlockBegin
  2
*D29
 70
     1
 10
0.0
 20
0.0
 30
0.0
  3
*D29
  1

  0
LINE
  5
17D68
330
17BDC
100
AcDbEntity
  8
寸法
 62
     0
 48
50.0
370
    -2
100
AcDbLine
 10
6121.427335370088
 20
4696.208819850403
 30
0.0
 11
6121.427335370088
 21
5140.829079277672
 31
0.0
  0
LINE
  5
17D69
330
17BDC
100
AcDbEntity
  8
寸法
 62
     0
 48
50.0
370
    -2
100
AcDbLine
 10
6071.427335370088
 20
4696.208819850403
 30
0.0
 11
6071.427335370088
 21
5140.829079277672
 31
0.0
  0
LINE
  5
17D6A
330
17BDC
100
AcDbEntity
  8
寸法
 62
     0
 48
50.0
370
    -2
100
AcDbLine
 10
6071.427335370088
 20
5080.829079277672
 30
0.0
 11
5971.427335370088
 21
5080.829079277672
 31
0.0
  0
LINE
  5
17D6B
330
17BDC
100
AcDbEntity
  8
寸法
 62
     0
 48
50.0
370
    -2
100
AcDbLine
 10
6121.427335370088
 20
5080.829079277672
 30
0.0
 11
6540.959860838812
 21
5080.829079277672
 31
0.0
  0
LINE
  5
17D6C
330
17BDC
100
AcDbEntity
  8
寸法
 62
     0
 48
50.0
370
    -2
100
AcDbLine
 10
6071.427335370088
 20
5080.829079277672
 30
0.0
 11
6121.427335370088
 21
5080.829079277672
 31
0.0
  0
INSERT
  5
17D6D
330
17BDC
100
AcDbEntity
  8
寸法
 62
     0
 48
50.0
370
    -2
100
AcDbBlockReference
  2
_DOTSMALL
 10
6071.427335370088
 20
5080.829079277672
 30
0.0
 41
100.0
 42
100.0
 43
100.0
  0
INSERT
  5
17D6E
330
17BDC
100
AcDbEntity
  8
寸法
 62
     0
 48
50.0
370
    -2
100
AcDbBlockReference
  2
_DOTSMALL
 10
6121.427335370088
 20
5080.829079277672
 30
0.0
 41
100.0
 42
100.0
 43
100.0
 50
180.0
  0
MTEXT
  5
17D6F
330
17BDC
100
AcDbEntity
  8
寸法
 62
     7
 48
50.0
100
AcDbMText
 10
6434.912616744324
 20
5180.829079277671
 30
0.0
 40
120.0
 41
0.0
 71
     5
 72
     1
  1
\A1;50
  7
STYLE1
 73
     1
 44
1.0
1001
ACAD
1000
MTEXTBEGIN
1070
    73
1070
     1
1070
    44
1040
1.0
1070
    74
1070
     0
1000
MTEXTEND
  0
POINT
  5
17D70
330
17BDC
100
AcDbEntity
  8
DEFPOINTS
 62
     0
 48
50.0
100
AcDbPoint
 10
6121.427335370088
 20
4676.208819850402
 30
0.0
  0
POINT
  5
17D71
330
17BDC
100
AcDbEntity
  8
DEFPOINTS
 62
     0
 48
50.0
100
AcDbPoint
 10
6071.427335370088
 20
4676.208819850404
 30
0.0
  0
POINT
  5
17D72
330
17BDC
100
AcDbEntity
  8
DEFPOINTS
 62
     0
 48
50.0
100
AcDbPoint
 10
6071.427335370088
 20
5080.829079277672
 30
0.0
  0
ENDBLK
  5
17BE9
330
17BDC
100
AcDbEntity
  8
0
 48
50.0
100
AcDbBlockEnd
  0
BLOCK
  5
18057
330
1804D
100
AcDbEntity
  8
0
 48
50.0
100
AcDbBlockBegin
  2
*D30
 70
     1
 10
0.0
 20
0.0
 30
0.0
  3
*D30
  1

  0
LINE
  5
180A1
330
1804D
100
AcDbEntity
  8
寸法
 62
     0
 48
50.0
370
    -2
100
AcDbLine
 10
8684.887681467607
 20
7242.400123615424
 30
0.0
 11
8684.887681467607
 21
6583.917078342529
 31
0.0
  0
LINE
  5
180A2
330
1804D
100
AcDbEntity
  8
寸法
 62
     0
 48
50.0
370
    -2
100
AcDbLine
 10
9950.887681467609
 20
7242.400123615424
 30
0.0
 11
9950.887681467609
 21
6583.917078342529
 31
0.0
  0
LINE
  5
180A3
330
1804D
100
AcDbEntity
  8
寸法
 62
     0
 48
50.0
370
    -2
100
AcDbLine
 10
8704.887681467608
 20
6623.917078342529
 30
0.0
 11
9930.887681467609
 21
6623.917078342529
 31
0.0
  0
INSERT
  5
180A4
330
1804D
100
AcDbEntity
  8
寸法
 62
     0
 48
50.0
370
    -2
100
AcDbBlockReference
  2
_DOT
 10
8684.887681467607
 20
6623.917078342529
 30
0.0
 41
20.0
 42
20.0
 43
20.0
 50
180.0
  0
INSERT
  5
180A5
330
1804D
100
AcDbEntity
  8
寸法
 62
     0
 48
50.0
370
    -2
100
AcDbBlockReference
  2
_DOT
 10
9950.887681467609
 20
6623.917078342529
 30
0.0
 41
20.0
 42
20.0
 43
20.0
  0
MTEXT
  5
180A6
330
1804D
100
AcDbEntity
  8
寸法
 62
     7
 48
50.0
100
AcDbMText
 10
9338.598489593074
 20
6815.928889366151
 30
0.0
 40
120.0
 41
0.0
 71
     5
 72
     1
  1
\A1;有効開口部間口\P1266
  7
STYLE1
 73
     1
 44
1.0
1001
ACAD
1000
MTEXTBEGIN
1070
    73
1070
     1
1070
    44
1040
1.0
1070
    74
1070
     0
1000
MTEXTEND
  0
POINT
  5
180A7
330
1804D
100
AcDbEntity
  8
DEFPOINTS
 62
     0
 48
50.0
100
AcDbPoint
 10
8684.887681467607
 20
7262.400123615424
 30
0.0
  0
POINT
  5
180A8
330
1804D
100
AcDbEntity
  8
DEFPOINTS
 62
     0
 48
50.0
100
AcDbPoint
 10
9950.887681467609
 20
7262.400123615424
 30
0.0
  0
POINT
  5
180A9
330
1804D
100
AcDbEntity
  8
DEFPOINTS
 62
     0
 48
50.0
100
AcDbPoint
 10
9950.887681467609
 20
6623.917078342529
 30
0.0
  0
ENDBLK
  5
18058
330
1804D
100
AcDbEntity
  8
0
 48
50.0
100
AcDbBlockEnd
  0
BLOCK
  5
184D0
330
184C6
100
AcDbEntity
  8
0
 48
50.0
100
AcDbBlockBegin
  2
*D31
 70
     1
 10
0.0
 20
0.0
 30
0.0
  3
*D31
  1

  0
LINE
  5
184EC
330
184C6
100
AcDbEntity
  8
寸法
 62
     0
 48
50.0
370
    -2
100
AcDbLine
 10
8645.887681467607
 20
7242.400123615424
 30
0.0
 11
8645.887681467607
 21
6282.270408187657
 31
0.0
  0
LINE
  5
184ED
330
184C6
100
AcDbEntity
  8
寸法
 62
     0
 48
50.0
370
    -2
100
AcDbLine
 10
10799.88768146761
 20
7242.400123615424
 30
0.0
 11
10799.88768146761
 21
6282.270408187657
 31
0.0
  0
LINE
  5
184EE
330
184C6
100
AcDbEntity
  8
寸法
 62
     0
 48
50.0
370
    -2
100
AcDbLine
 10
8645.887681467607
 20
6342.270408187657
 30
0.0
 11
10799.88768146761
 21
6342.270408187657
 31
0.0
  0
INSERT
  5
184EF
330
184C6
100
AcDbEntity
  8
寸法
 62
     0
 48
50.0
370
    -2
100
AcDbBlockReference
  2
_DOTSMALL
 10
8645.887681467607
 20
6342.270408187657
 30
0.0
 41
100.0
 42
100.0
 43
100.0
 50
180.0
  0
INSERT
  5
184F0
330
184C6
100
AcDbEntity
  8
寸法
 62
     0
 48
50.0
370
    -2
100
AcDbBlockReference
  2
_DOTSMALL
 10
10799.88768146761
 20
6342.270408187657
 30
0.0
 41
100.0
 42
100.0
 43
100.0
  0
MTEXT
  5
184F1
330
184C6
100
AcDbEntity
  8
寸法
 62
     7
 48
50.0
100
AcDbMText
 10
9745.020438214922
 20
6442.282219211278
 30
0.0
 40
120.0
 41
0.0
 71
     5
 72
     1
  1
\A1;2154
  7
STYLE1
 73
     1
 44
1.0
1001
ACAD
1000
MTEXTBEGIN
1070
    73
1070
     1
1070
    44
1040
1.0
1070
    74
1070
     0
1000
MTEXTEND
  0
POINT
  5
184F2
330
184C6
100
AcDbEntity
  8
DEFPOINTS
 62
     0
 48
50.0
100
AcDbPoint
 10
8645.887681467607
 20
7262.400123615424
 30
0.0
  0
POINT
  5
184F3
330
184C6
100
AcDbEntity
  8
DEFPOINTS
 62
     0
 48
50.0
100
AcDbPoint
 10
10799.88768146761
 20
7262.400123615424
 30
0.0
  0
POINT
  5
184F4
330
184C6
100
AcDbEntity
  8
DEFPOINTS
 62
     0
 48
50.0
100
AcDbPoint
 10
10799.88768146761
 20
6342.270408187657
 30
0.0
  0
ENDBLK
  5
184D1
330
184C6
100
AcDbEntity
  8
0
 48
50.0
100
AcDbBlockEnd
  0
BLOCK
  5
184DE
330
184D2
100
AcDbEntity
  8
0
 48
50.0
100
AcDbBlockBegin
  2
*D32
 70
     1
 10
0.0
 20
0.0
 30
0.0
  3
*D32
  1

  0
LINE
  5
184F5
330
184D2
100
AcDbEntity
  8
寸法
 62
     0
 48
50.0
370
    -2
100
AcDbLine
 10
8177.887681467634
 20
7339.400123615391
 30
0.0
 11
7863.276435840917
 21
7339.400123615391
 31
0.0
  0
LINE
  5
184F6
330
184D2
100
AcDbEntity
  8
寸法
 62
     0
 48
50.0
370
    -2
100
AcDbLine
 10
8625.887681467608
 20
7264.400123615391
 30
0.0
 11
7863.276435840917
 21
7264.400123615391
 31
0.0
  0
LINE
  5
184F7
330
184D2
100
AcDbEntity
  8
寸法
 62
     0
 48
50.0
370
    -2
100
AcDbLine
 10
7903.276435840917
 20
7359.400123615391
 30
0.0
 11
7903.276435840917
 21
7379.40012361539
 31
0.0
  0
LINE
  5
184F8
330
184D2
100
AcDbEntity
  8
寸法
 62
     0
 48
50.0
370
    -2
100
AcDbLine
 10
7903.276435840917
 20
7244.400123615391
 30
0.0
 11
7903.276435840917
 21
7023.429560866913
 31
0.0
  0
LINE
  5
184F9
330
184D2
100
AcDbEntity
  8
寸法
 62
     0
 48
50.0
370
    -2
100
AcDbLine
 10
7903.276435840917
 20
7339.400123615391
 30
0.0
 11
7903.276435840917
 21
7264.400123615391
 31
0.0
  0
INSERT
  5
184FA
330
184D2
100
AcDbEntity
  8
寸法
 62
     0
 48
50.0
370
    -2
100
AcDbBlockReference
  2
_DOT
 10
7903.276435840917
 20
7339.400123615391
 30
0.0
 41
20.0
 42
20.0
 43
20.0
 50
270.0
  0
INSERT
  5
184FB
330
184D2
100
AcDbEntity
  8
寸法
 62
     0
 48
50.0
370
    -2
100
AcDbBlockReference
  2
_DOT
 10
7903.276435840917
 20
7264.400123615391
 30
0.0
 41
20.0
 42
20.0
 43
20.0
 50
90.0
  0
MTEXT
  5
184FC
330
184D2
100
AcDbEntity
  8
寸法
 62
     7
 48
50.0
100
AcDbMText
 10
7811.276435840915
 20
7123.914842241153
 30
0.0
 40
120.0
 41
0.0
 71
     5
 72
     1
  1
\A1;75
  7
STYLE1
 11
0.0000000000000001
 21
1.0
 31
0.0
 73
     1
 44
1.0
1001
ACAD
1000
MTEXTBEGIN
1070
    73
1070
     1
1070
    44
1040
1.0
1070
    74
1070
     0
1000
MTEXTEND
  0
POINT
  5
184FD
330
184D2
100
AcDbEntity
  8
DEFPOINTS
 62
     0
 48
50.0
100
AcDbPoint
 10
8197.887681467634
 20
7339.400123615391
 30
0.0
  0
POINT
  5
184FE
330
184D2
100
AcDbEntity
  8
DEFPOINTS
 62
     0
 48
50.0
100
AcDbPoint
 10
8645.887681467607
 20
7264.400123615391
 30
0.0
  0
POINT
  5
184FF
330
184D2
100
AcDbEntity
  8
DEFPOINTS
 62
     0
 48
50.0
100
AcDbPoint
 10
7903.276435840917
 20
7264.400123615391
 30
0.0
  0
ENDBLK
  5
184DF
330
184D2
100
AcDbEntity
  8
0
 48
50.0
100
AcDbBlockEnd
  0
BLOCK
  5
184EA
330
184E0
100
AcDbEntity
  8
0
 48
50.0
100
AcDbBlockBegin
  2
*D33
 70
     1
 10
0.0
 20
0.0
 30
0.0
  3
*D33
  1

  0
LINE
  5
18500
330
184E0
100
AcDbEntity
  8
寸法
 62
     0
 48
50.0
370
    -2
100
AcDbLine
 10
8197.887681467634
 20
7319.400123615391
 30
0.0
 11
8197.887681467634
 21
6023.012606552645
 31
0.0
  0
LINE
  5
18501
330
184E0
100
AcDbEntity
  8
寸法
 62
     0
 48
50.0
370
    -2
100
AcDbLine
 10
10827.88768146761
 20
7319.400123615555
 30
0.0
 11
10827.88768146761
 21
6023.012606552645
 31
0.0
  0
LINE
  5
18502
330
184E0
100
AcDbEntity
  8
寸法
 62
     0
 48
50.0
370
    -2
100
AcDbLine
 10
8197.887681467634
 20
6083.012606552645
 30
0.0
 11
10827.88768146761
 21
6083.012606552645
 31
0.0
  0
INSERT
  5
18503
330
184E0
100
AcDbEntity
  8
寸法
 62
     0
 48
50.0
370
    -2
100
AcDbBlockReference
  2
_DOTSMALL
 10
8197.887681467634
 20
6083.012606552645
 30
0.0
 41
100.0
 42
100.0
 43
100.0
 50
180.0
  0
INSERT
  5
18504
330
184E0
100
AcDbEntity
  8
寸法
 62
     0
 48
50.0
370
    -2
100
AcDbBlockReference
  2
_DOTSMALL
 10
10827.88768146761
 20
6083.012606552645
 30
0.0
 41
100.0
 42
100.0
 43
100.0
  0
MTEXT
  5
18505
330
184E0
100
AcDbEntity
  8
寸法
 62
     7
 48
50.0
100
AcDbMText
 10
9530.689470103782
 20
6183.024417576266
 30
0.0
 40
120.0
 41
0.0
 71
     5
 72
     1
  1
\A1;2630
  7
STYLE1
 73
     1
 44
1.0
1001
ACAD
1000
MTEXTBEGIN
1070
    73
1070
     1
1070
    44
1040
1.0
1070
    74
1070
     0
1000
MTEXTEND
  0
POINT
  5
18506
330
184E0
100
AcDbEntity
  8
DEFPOINTS
 62
     0
 48
50.0
100
AcDbPoint
 10
8197.887681467634
 20
7339.400123615391
 30
0.0
  0
POINT
  5
18507
330
184E0
100
AcDbEntity
  8
DEFPOINTS
 62
     0
 48
50.0
100
AcDbPoint
 10
10827.88768146761
 20
7339.400123615554
 30
0.0
  0
POINT
  5
18508
330
184E0
100
AcDbEntity
  8
DEFPOINTS
 62
     0
 48
50.0
100
AcDbPoint
 10
10827.88768146761
 20
6083.012606552645
 30
0.0
  0
ENDBLK
  5
184EB
330
184E0
100
AcDbEntity
  8
0
 48
50.0
100
AcDbBlockEnd
  0
ENDSEC
  0
SECTION
  2
ENTITIES
  0
LINE
  5
10B57
330
747D
100
AcDbEntity
  8
補助
  6
PHANTOM
 62
   230
 48
50.0
100
AcDbLine
 10
139.9999999999995
 20
11409.6
 30
0.0
 11
16307.2
 21
11409.6
 31
0.0
  0
LINE
  5
10B59
330
747D
100
AcDbEntity
  8
仕様書枠
  6
Continuous
 48
50.0
100
AcDbLine
 10
13107.2
 20
1200.0
 30
0.0
 11
13107.2
 21
-0.0000000000000729
 31
0.0
  0
LINE
  5
10B5C
330
747D
100
AcDbEntity
  8
仕様書枠
 48
50.0
100
AcDbLine
 10
16307.2
 20
1200.0
 30
0.0
 11
16307.2
 21
-0.0000000000000909
 31
0.0
  0
LINE
  5
10B5D
330
747D
100
AcDbEntity
  8
仕様書枠
 48
50.0
100
AcDbLine
 10
140.0
 20
0.0
 30
0.0
 11
16307.2
 21
-0.0000000000000909
 31
0.0
  0
LINE
  5
10B5E
330
747D
100
AcDbEntity
  8
補助
  6
PHANTOM
 62
   230
 48
50.0
100
AcDbLine
 10
16307.2
 20
11409.6
 30
0.0
 11
16307.2
 21
1200.0
 31
0.0
  0
LINE
  5
10B6C
330
747D
100
AcDbEntity
  8
仕様書枠
 48
50.0
100
AcDbLine
 10
13107.2
 20
1200.0
 30
0.0
 11
16307.2
 21
1200.0
 31
0.0
  0
LINE
  5
10B6D
330
747D
100
AcDbEntity
  8
補助
  6
PHANTOM
 62
   230
 48
50.0
100
AcDbLine
 10
13107.2
 20
11409.6
 30
0.0
 11
13107.2
 21
4800.0
 31
0.0
  0
LINE
  5
10B6F
330
747D
100
AcDbEntity
  8
補助
  6
PHANTOM
 62
   230
 48
50.0
100
AcDbLine
 10
13107.2
 20
4800.0
 30
0.0
 11
16307.2
 21
4800.0
 31
0.0
  0
LINE
  5
10B72
330
747D
100
AcDbEntity
  8
文字
 62
     7
 48
50.0
100
AcDbLine
 10
13187.2
 20
400.0
 30
0.0
 11
16227.2
 21
400.0
 31
0.0
  0
TEXT
  5
10B73
330
747D
100
AcDbEntity
  8
文字
 62
     7
 48
50.0
100
AcDbText
 10
13162.9790565769
 20
895.0906074299405
 30
0.0
 40
200.0
  1
外 形 図
  7
STYLE2
100
AcDbText
  0
TEXT
  5
10B74
330
747D
100
AcDbEntity
  8
文字
 62
     7
 48
50.0
100
AcDbText
 10
13201.43669998441
 20
477.2740661031255
 30
0.0
 40
160.0
  1
機種名
  7
STYLE2
100
AcDbText
  0
TEXT
  5
10B76
330
747D
100
AcDbEntity
  8
文字
 62
     7
 48
50.0
100
AcDbText
 10
13209.4053442172
 20
76.09434707649343
 30
0.0
 40
100.0
  1
○床面積 ： 4.87㎡(1.48坪) 　
  7
STYLE2
100
AcDbText
  0
TEXT
  5
10B79
330
747D
100
AcDbEntity
  8
文字
 62
     7
 48
50.0
100
AcDbText
 10
14524.131837222
 20
1031.557706291228
 30
0.0
 40
100.0
  1
NO.20     <縮尺> S=1/40
  7
STYLE2
100
AcDbText
  0
LINE
  5
10B7B
330
747D
100
AcDbEntity
  8
仕様書枠
 48
50.0
100
AcDbLine
 10
13107.2
 20
800.0
 30
0.0
 11
14251.2
 21
800.0
 31
0.0
  0
LINE
  5
10B88
330
747D
100
AcDbEntity
  8
仕様書枠
  6
Continuous
 48
50.0
100
AcDbLine
 10
14251.2
 20
1200.0
 30
0.0
 11
14251.2
 21
800.0
 31
0.0
  0
TEXT
  5
15729
330
747D
100
AcDbEntity
  8
文字
 62
     7
 48
50.0
100
AcDbText
 10
14623.97014062392
 20
869.7247441969318
 30
0.0
 40
100.0
  1
～一般型・多雪地型～
  7
STYLE2
100
AcDbText
  0
DIMENSION
  5
17169
330
747D
100
AcDbEntity
  8
寸法
 48
50.0
100
AcDbDimension
  2
*D2
 10
8137.887681467633
 20
5074.866273429703
 30
0.0
 11
7828.249886192043
 21
5074.866273429703
 31
0.0
 70
   160
 71
     5
 42
60.0
  3
INABA_S40G
100
AcDbAlignedDimension
 13
8197.887681467634
 23
4672.210437973375
 33
0.0
 14
8137.887681467633
 24
4676.208819850404
 34
0.0
100
AcDbRotatedDimension
1001
ACAD
1000
DSTYLE
1002
{
1070
   174
1070
     0
1070
   272
1070
     1
1070
   288
1070
     0
1070
   341
1005
0
1002
}
  0
DIMENSION
  5
1716A
330
747D
100
AcDbEntity
  8
寸法
 48
50.0
100
AcDbDimension
  2
*D3
 10
8197.887681467634
 20
5074.866273429704
 30
0.0
 11
9552.657872496828
 21
5074.866273429704
 31
0.0
 70
   160
  1
柱外寸法<>
 71
     5
 42
2630.0
  3
INABA_S40G
100
AcDbAlignedDimension
 13
10827.88768146763
 23
4623.019499462053
 33
0.0
 14
8197.887681467634
 24
4672.210437973375
 34
0.0
100
AcDbRotatedDimension
1001
ACAD
1000
DSTYLE
1002
{
1070
   174
1070
     0
1070
   272
1070
     1
1070
   288
1070
     0
1070
   341
1005
0
1002
}
  0
DIMENSION
  5
1716B
330
747D
100
AcDbEntity
  8
寸法
 48
50.0
100
AcDbDimension
  2
*D4
 10
8137.887681467633
 20
5295.076960161321
 30
0.0
 11
9541.246606355009
 21
5295.076960161321
 31
0.0
 70
   160
 71
     5
 42
2770.0
  3
INABA_S40G
100
AcDbAlignedDimension
 13
10907.88768146763
 23
4621.208819850401
 33
0.0
 14
8137.887681467633
 24
4676.208819850404
 34
0.0
100
AcDbRotatedDimension
1001
ACAD
1000
DSTYLE
1002
{
1070
   174
1070
     0
1070
   272
1070
     1
1070
   288
1070
     0
1070
   341
1005
0
1002
}
  0
DIMENSION
  5
1716C
330
747D
100
AcDbEntity
  8
寸法
 48
50.0
100
AcDbDimension
  2
*D5
 10
10907.88768146763
 20
5074.866273429704
 30
0.0
 11
11113.93492556212
 21
5074.866273429704
 31
0.0
 70
   160
 71
     5
 42
80.0
  3
INABA_S40G
100
AcDbAlignedDimension
 13
10827.88768146763
 23
4623.019499462053
 33
0.0
 14
10907.88768146763
 24
4621.208819850401
 34
0.0
100
AcDbRotatedDimension
1001
ACAD
1000
DSTYLE
1002
{
1070
   174
1070
     0
1070
   272
1070
     1
1070
   288
1070
     0
1070
   341
1005
0
1002
}
  0
ARC
  5
1716D
330
747D
100
AcDbEntity
  8
部品1
100
AcDbCircle
 10
10893.51521728157
 20
4515.232577116193
 30
0.0
 40
0.7
100
AcDbArc
 50
275.0921697642102
 51
354.1866997667606
  0
ARC
  5
1716E
330
747D
100
AcDbEntity
  8
部品1
100
AcDbCircle
 10
10904.37456303089
 20
4592.275831934116
 30
0.0
 40
0.7
100
AcDbArc
 50
275.0921697642102
 51
354.1866997665532
  0
ARC
  5
1716F
330
747D
100
AcDbEntity
  8
部品1
100
AcDbCircle
 10
10904.7029682735
 20
4588.590435077026
 30
0.0
 40
3.0
100
AcDbArc
 50
95.0921697642102
 51
174.1866997665532
  0
ARC
  5
17170
330
747D
100
AcDbEntity
  8
部品1
100
AcDbCircle
 10
10893.84362252417
 20
4511.547180259102
 30
0.0
 40
3.0
100
AcDbArc
 50
95.0921697642102
 51
174.1866997665532
  0
ARC
  5
17171
330
747D
100
AcDbEntity
  8
部品1
 48
50.0
100
AcDbCircle
 10
10882.81548724906
 20
4501.95643565522
 30
0.0
 40
7.0
100
AcDbArc
 50
267.8377559869487
 51
354.1866997665532
  0
ARC
  5
17172
330
747D
100
AcDbEntity
  8
部品1
 48
50.0
100
AcDbCircle
 10
10900.13758371358
 20
4612.858982797393
 30
0.0
 40
7.0
100
AcDbArc
 50
354.1866997665532
 51
87.03587545283093
  0
LINE
  5
17173
330
747D
100
AcDbEntity
  8
部品1
 48
50.0
100
AcDbLine
 10
10890.85905085356
 20
4511.851041976004
 30
0.0
 11
10889.77948781382
 21
4501.247424982446
 31
0.0
  0
LINE
  5
17174
330
747D
100
AcDbEntity
  8
部品1
 48
50.0
100
AcDbLine
 10
10901.71839660288
 20
4588.894296793929
 30
0.0
 11
10894.21161733805
 21
4515.161676048918
 31
0.0
  0
LINE
  5
17175
330
747D
100
AcDbEntity
  8
部品1
 48
50.0
100
AcDbLine
 10
10907.10158427834
 20
4612.149972124618
 30
0.0
 11
10905.07096308737
 21
4592.204930866837
 31
0.0
  0
LINE
  5
17176
330
747D
100
AcDbEntity
  8
細線
 48
50.0
100
AcDbLine
 10
10874.85696466132
 20
4620.362242329867
 30
0.0
 11
10870.13999857963
 21
4495.430026394951
 31
0.0
  0
ARC
  5
17177
330
747D
100
AcDbEntity
  8
部品1
100
AcDbCircle
 10
8143.924773339
 20
4555.022978809303
 30
0.0
 40
0.7
100
AcDbArc
 50
181.0932240292114
 51
260.1877540314867
  0
ARC
  5
17178
330
747D
100
AcDbEntity
  8
部品1
100
AcDbCircle
 10
8139.152099741391
 20
4647.888757009421
 30
0.0
 40
0.7
100
AcDbArc
 50
181.0932240292114
 51
260.1877540314867
  0
ARC
  5
17179
330
747D
100
AcDbEntity
  8
部品1
100
AcDbCircle
 10
8138.521545338369
 20
4644.242882472024
 30
0.0
 40
3.0
100
AcDbArc
 50
1.093224029315636
 51
80.18775403169653
  0
ARC
  5
1717A
330
747D
100
AcDbEntity
  8
部品1
100
AcDbCircle
 10
8143.294218935976
 20
4551.377104271906
 30
0.0
 40
3.0
100
AcDbArc
 50
1.093224029315636
 51
80.18775403169653
  0
ARC
  5
1717B
330
747D
100
AcDbEntity
  8
部品1
 48
50.0
100
AcDbCircle
 10
8153.494351311175
 20
4540.984860889424
 30
0.0
 40
7.0
100
AcDbArc
 50
181.0932240293156
 51
267.8377559869487
  0
ARC
  5
1717C
330
747D
100
AcDbEntity
  8
部品1
 48
50.0
100
AcDbCircle
 10
8145.070693209079
 20
4667.93592042252
 30
0.0
 40
7.0
100
AcDbArc
 50
87.03587545283093
 51
181.0932240293156
  0
LINE
  5
1717D
330
747D
100
AcDbEntity
  8
部品1
 48
50.0
100
AcDbLine
 10
8146.293672862404
 20
4551.434341875089
 30
0.0
 11
8146.495625482836
 21
4540.851306481996
 31
0.0
  0
LINE
  5
1717E
330
747D
100
AcDbEntity
  8
部品1
 48
50.0
100
AcDbLine
 10
8141.520999264796
 20
4644.300120075207
 30
0.0
 11
8143.224900756163
 21
4555.00962336856
 31
0.0
  0
LINE
  5
1717F
330
747D
100
AcDbEntity
  8
部品1
 48
50.0
100
AcDbLine
 10
8138.07196738074
 20
4667.802366015092
 30
0.0
 11
8138.452227158552
 21
4647.875401568681
 31
0.0
  0
LINE
  5
17180
330
747D
100
AcDbEntity
  8
細線
 48
50.0
100
AcDbLine
 10
8170.887681467633
 20
4673.608496225805
 30
0.0
 11
8165.598579912126
 21
4533.522863598449
 31
0.0
  0
LINE
  5
17181
330
747D
100
AcDbEntity
  8
細線
 48
50.0
100
AcDbLine
 10
8143.687579805733
 20
4554.364389993896
 30
0.0
 11
10893.69124423637
 21
4514.555071019404
 31
0.0
  0
LINE
  5
17182
330
747D
100
AcDbEntity
  8
細線
 48
50.0
100
AcDbLine
 10
8138.927104568448
 20
4647.225901691761
 30
0.0
 11
10904.56308931362
 21
4591.601697050932
 31
0.0
  0
LINE
  5
17183
330
747D
100
AcDbEntity
  8
部品1
100
AcDbLine
 10
8153.230246069586
 20
4533.989844919366
 30
0.0
 11
10882.55138200748
 21
4494.96141968516
 31
0.0
  0
LINE
  5
17184
330
747D
100
AcDbEntity
  8
部品1
100
AcDbLine
 10
8145.432667824596
 20
4674.926555184665
 30
0.0
 11
10900.4995583291
 21
4619.849617559537
 31
0.0
  0
LINE
  5
17185
330
747D
100
AcDbEntity
  8
部品1
100
AcDbLine
 10
9373.112811896874
 20
4801.413207813418
 30
0.0
 11
9698.56782553991
 21
4783.895148854555
 31
0.0
  0
LINE
  5
17186
330
747D
100
AcDbEntity
  8
部品1
 48
50.0
100
AcDbLine
 10
9398.567825539911
 20
4800.095148854556
 30
0.0
 11
9698.56782553991
 21
4800.095148854556
 31
0.0
  0
LINE
  5
17187
330
747D
100
AcDbEntity
  8
部品1
 48
50.0
100
AcDbLine
 10
9698.56782553991
 20
4800.095148854556
 30
0.0
 11
9698.56782553991
 21
4783.895148854555
 31
0.0
  0
TEXT
  5
17188
330
747D
100
AcDbEntity
  8
部品1
 48
50.0
100
AcDbText
 10
9386.835660763638
 20
4835.979171006989
 30
0.0
 40
120.0
  1
1000
  7
STYLE1
100
AcDbText
  0
TEXT
  5
17189
330
747D
100
AcDbEntity
  8
部品1
 48
50.0
100
AcDbText
 10
9864.468683428729
 20
4698.477912788706
 30
0.0
 40
120.0
  1
37
 50
90.0
  7
STYLE1
100
AcDbText
  0
DIMENSION
  5
1718A
330
747D
100
AcDbEntity
  8
寸法
100
AcDbDimension
  2
*D6
 10
7289.248299538272
 20
2501.208819850399
 30
0.0
 11
7289.248299538271
 21
2265.161575755909
 31
0.0
 70
   160
 71
     5
 42
100.0
  3
INABA_S40G
100
AcDbAlignedDimension
 13
8142.88768146763
 23
2601.208819850399
 33
0.0
 14
7574.234972309333
 24
2501.208819850399
 34
0.0
 50
90.0
100
AcDbRotatedDimension
1001
ACAD
1000
DSTYLE
1002
{
1070
   174
1070
     0
1070
   272
1070
     1
1070
   288
1070
     0
1070
   341
1005
0
1002
}
  0
DIMENSION
  5
1718B
330
747D
100
AcDbEntity
  8
寸法
100
AcDbDimension
  2
*D7
 10
7574.234972309333
 20
2601.208819850399
 30
0.0
 11
7574.234972309333
 21
2295.161575755908
 31
0.0
 70
   160
 71
     5
 42
50.0
  3
INABA_S40G
100
AcDbAlignedDimension
 13
8197.88768146763
 23
2651.208819850399
 33
0.0
 14
8142.88768146763
 24
2601.208819850399
 34
0.0
 50
90.0
100
AcDbRotatedDimension
1001
ACAD
1000
DSTYLE
1002
{
1070
   174
1070
     0
1070
   272
1070
     1
1070
   288
1070
     0
1070
   341
1005
0
1002
}
  0
DIMENSION
  5
1718C
330
747D
100
AcDbEntity
  8
寸法
100
AcDbDimension
  2
*D8
 10
7574.234972309333
 20
2651.208819850399
 30
0.0
 11
7574.234972309333
 21
3541.663118392357
 31
0.0
 70
   160
 71
     5
 42
1790.0
  3
INABA_S40G
100
AcDbAlignedDimension
 13
8197.88768146763
 23
4441.208819850398
 33
0.0
 14
8197.88768146763
 24
2651.208819850399
 34
0.0
 50
90.0
100
AcDbRotatedDimension
1001
ACAD
1000
DSTYLE
1002
{
1070
   174
1070
     0
1070
   272
1070
     1
1070
   288
1070
     0
1070
   341
1005
0
1002
}
  0
DIMENSION
  5
1718D
330
747D
100
AcDbEntity
  8
寸法
100
AcDbDimension
  2
*D9
 10
7289.248299538272
 20
4676.208819850404
 30
0.0
 11
7289.248299538271
 21
3595.414697343509
 31
0.0
 70
   160
 71
     5
 42
2075.000000000005
  3
INABA_S40G
100
AcDbAlignedDimension
 13
8197.88768146763
 23
2601.208819850399
 33
0.0
 14
8137.887681467629
 24
4676.208819850404
 34
0.0
 50
90.0
100
AcDbRotatedDimension
1001
ACAD
1000
DSTYLE
1002
{
1070
   174
1070
     0
1070
   272
1070
     1
1070
   288
1070
     0
1070
   341
1005
0
1002
}
  0
DIMENSION
  5
1718E
330
747D
100
AcDbEntity
  8
寸法
 48
50.0
100
AcDbDimension
  2
*D10
 10
7577.279274699259
 20
4550.554078723727
 30
0.0
 11
7587.944749958184
 21
4921.400741965431
 31
0.0
 70
   161
 71
     5
 42
141.0000000000027
  3
INABA_S40G
100
AcDbAlignedDimension
 13
8157.28370162621
 23
4674.931568685078
 33
0.0
 14
8153.230246069583
 24
4533.989844919363
 34
0.0
1001
ACAD
1000
DSTYLE
1002
{
1070
   174
1070
     0
1070
   272
1070
     1
1070
   288
1070
     0
1070
   341
1005
0
1002
}
  0
DIMENSION
  5
1718F
330
747D
100
AcDbEntity
  8
寸法
 48
50.0
100
AcDbDimension
  2
*D11
 10
7904.662874996616
 20
2659.208819850398
 30
0.0
 11
7904.662874996614
 21
3561.13744005936
 31
0.0
 70
   160
  1
有効開口部高サ<>
 71
     5
 42
1725.000000000001
  3
INABA_S40G
100
AcDbAlignedDimension
 13
8645.887681467632
 23
4384.208819850399
 33
0.0
 14
8645.887681467632
 24
2659.208819850398
 34
0.0
 50
90.0
100
AcDbRotatedDimension
  0
LINE
  5
17190
330
747D
100
AcDbEntity
  8
Ｇ．Ｌ
100
AcDbLine
 10
3070.473751729733
 20
2501.208819850399
 30
0.0
 11
11477.40023449647
 21
2501.208819850399
 31
0.0
  0
TEXT
  5
17191
330
747D
100
AcDbEntity
  8
部品1
100
AcDbText
 10
9221.677752091364
 20
1428.999747656915
 30
0.0
 40
135.0
  1
正面図
  7
STYLE2
100
AcDbText
  0
LINE
  5
17197
330
747D
100
AcDbEntity
  8
部品1
100
AcDbLine
 10
9131.152348353412
 20
1621.893276875438
 30
0.0
 11
9131.152348353412
 21
1382.000955329906
 31
0.0
  0
LINE
  5
17198
330
747D
100
AcDbEntity
  8
部品1
100
AcDbLine
 10
9131.152348353412
 20
1382.000955329906
 30
0.0
 11
9894.623014581849
 21
1382.000955329906
 31
0.0
  0
LINE
  5
17199
330
747D
100
AcDbEntity
  8
部品1
100
AcDbLine
 10
9894.623014581849
 20
1382.000955329906
 30
0.0
 11
9894.623014581849
 21
1621.893276875438
 31
0.0
  0
LINE
  5
1719A
330
747D
100
AcDbEntity
  8
部品1
100
AcDbLine
 10
9894.623014581849
 20
1621.893276875438
 30
0.0
 11
9131.152348353412
 21
1621.893276875438
 31
0.0
  0
DIMENSION
  5
1719B
330
747D
100
AcDbEntity
  8
寸法
 48
50.0
100
AcDbDimension
  2
*D12
 10
8097.88768146763
 20
2015.161490550021
 30
0.0
 11
8197.88768146763
 21
2015.161490550021
 31
0.0
 70
   160
 71
     5
 42
200.0000000000018
  3
INABA_S40G
100
AcDbAlignedDimension
 13
8297.887681467631
 23
2301.208819850399
 33
0.0
 14
8097.88768146763
 24
2301.208819850399
 34
0.0
100
AcDbRotatedDimension
  0
LINE
  5
1719C
330
747D
100
AcDbEntity
  8
破線
 48
5.0
100
AcDbLine
 10
8097.88768146763
 20
2301.208819850399
 30
0.0
 11
8297.887681467631
 21
2301.208819850399
 31
0.0
  0
LINE
  5
1719D
330
747D
100
AcDbEntity
  8
破線
 48
5.0
100
AcDbLine
 10
8097.88768146763
 20
2501.208819850399
 30
0.0
 11
8097.88768146763
 21
2301.208819850399
 31
0.0
  0
LINE
  5
1719E
330
747D
100
AcDbEntity
  8
部品1
100
AcDbLine
 10
8197.88768146763
 20
4441.208819850398
 30
0.0
 11
10827.88768146763
 21
4441.208819850398
 31
0.0
  0
LINE
  5
1719F
330
747D
100
AcDbEntity
  8
部品1
 48
50.0
100
AcDbLine
 10
8645.887681467632
 20
2601.208819850399
 30
0.0
 11
10799.88768146763
 21
2601.208819850399
 31
0.0
  0
LINE
  5
171A0
330
747D
100
AcDbEntity
  8
部品1
 48
50.0
100
AcDbLine
 10
8225.88768146763
 20
2601.208819850399
 30
0.0
 11
10799.88768146763
 21
2601.208819850399
 31
0.0
  0
LINE
  5
171A1
330
747D
100
AcDbEntity
  8
破線
 48
5.0
100
AcDbLine
 10
10927.88768146763
 20
2301.208819850399
 30
0.0
 11
10727.88768146763
 21
2301.208819850399
 31
0.0
  0
LINE
  5
171A2
330
747D
100
AcDbEntity
  8
部品1
100
AcDbLine
 10
8197.88768146763
 20
4441.208819850398
 30
0.0
 11
10827.88768146763
 21
4441.208819850398
 31
0.0
  0
LINE
  5
171A3
330
747D
100
AcDbEntity
  8
部品1
100
AcDbLine
 10
8197.88768146763
 20
2601.208819850399
 30
0.0
 11
10827.88768146763
 21
2601.208819850399
 31
0.0
  0
LINE
  5
171A4
330
747D
100
AcDbEntity
  8
部品1
 48
50.0
100
AcDbLine
 10
8252.887681467631
 20
2651.208819850419
 30
0.0
 11
8252.887681467631
 21
4441.208819850398
 31
0.0
  0
LINE
  5
171A5
330
747D
100
AcDbEntity
  8
部品1
100
AcDbLine
 10
8197.88768146763
 20
4533.351257779277
 30
0.0
 11
8197.88768146763
 21
2501.208819850399
 31
0.0
  0
LINE
  5
171A6
330
747D
100
AcDbEntity
  8
部品1
100
AcDbLine
 10
8192.887681467629
 20
2646.208819850401
 30
0.0
 11
8192.887681467629
 21
2501.208819850399
 31
0.0
  0
LINE
  5
171A7
330
747D
100
AcDbEntity
  8
破線
 48
5.0
100
AcDbLine
 10
8192.887681467629
 20
2501.208819850399
 30
0.0
 11
8192.887681467629
 21
2346.208819850399
 31
0.0
  0
LINE
  5
171A8
330
747D
100
AcDbEntity
  8
破線
 48
5.0
100
AcDbLine
 10
8297.88768146763
 20
2501.208819850399
 30
0.0
 11
8297.88768146763
 21
2301.208819850399
 31
0.0
  0
LINE
  5
171A9
330
747D
100
AcDbEntity
  8
破線
 48
5.0
100
AcDbLine
 10
8172.88768146763
 20
2346.208819850399
 30
0.0
 11
8192.887681467631
 21
2346.208819850399
 31
0.0
  0
LINE
  5
171AA
330
747D
100
AcDbEntity
  8
部品1
100
AcDbLine
 10
8597.88768146763
 20
2601.208819850399
 30
0.0
 11
8597.88768146763
 21
2501.208819850399
 31
0.0
  0
LINE
  5
171AB
330
747D
100
AcDbEntity
  8
部品1
100
AcDbLine
 10
8197.88768146763
 20
2651.208819850419
 30
0.0
 11
8645.887681467632
 21
2651.208819850419
 31
0.0
  0
LINE
  5
171AC
330
747D
100
AcDbEntity
  8
部品1
 48
50.0
100
AcDbLine
 10
8997.887681467629
 20
2601.208819850399
 30
0.0
 11
8997.887681467629
 21
2501.208819850399
 31
0.0
  0
LINE
  5
171AD
330
747D
100
AcDbEntity
  8
部品1
 48
50.0
100
AcDbLine
 10
9197.88768146763
 20
2601.208819850399
 30
0.0
 11
9197.88768146763
 21
2501.208819850399
 31
0.0
  0
LINE
  5
171AE
330
747D
100
AcDbEntity
  8
部品1
 48
50.0
100
AcDbLine
 10
9827.887681467629
 20
2601.208819850399
 30
0.0
 11
9827.887681467629
 21
2501.208819850399
 31
0.0
  0
LINE
  5
171AF
330
747D
100
AcDbEntity
  8
部品1
 48
50.0
100
AcDbLine
 10
10027.88768146763
 20
2601.208819850399
 30
0.0
 11
10027.88768146763
 21
2501.208819850399
 31
0.0
  0
LINE
  5
171B0
330
747D
100
AcDbEntity
  8
部品1
100
AcDbLine
 10
10427.88768146763
 20
2601.208819850399
 30
0.0
 11
10427.88768146763
 21
2501.208819850399
 31
0.0
  0
LINE
  5
171B1
330
747D
100
AcDbEntity
  8
破線
 48
5.0
100
AcDbLine
 10
10727.88768146763
 20
2501.208819850399
 30
0.0
 11
10727.88768146763
 21
2301.208819850399
 31
0.0
  0
LINE
  5
171B2
330
747D
100
AcDbEntity
  8
部品1
 48
50.0
100
AcDbLine
 10
8672.887681467631
 20
4436.208819850397
 30
0.0
 11
8672.887681467631
 21
4441.208819850398
 31
0.0
  0
LINE
  5
171B3
330
747D
100
AcDbEntity
  8
部品1
100
AcDbLine
 10
10827.88768146763
 20
4495.743093238138
 30
0.0
 11
10827.88768146763
 21
2501.208819850399
 31
0.0
  0
LINE
  5
171B4
330
747D
100
AcDbEntity
  8
部品1
100
AcDbLine
 10
10832.88768146763
 20
2646.208819850399
 30
0.0
 11
10832.88768146763
 21
2501.208819850399
 31
0.0
  0
LINE
  5
171B5
330
747D
100
AcDbEntity
  8
破線
 48
5.0
100
AcDbLine
 10
10832.88768146763
 20
2501.208819850399
 30
0.0
 11
10832.88768146763
 21
2346.208819850399
 31
0.0
  0
LINE
  5
171B6
330
747D
100
AcDbEntity
  8
破線
 48
5.0
100
AcDbLine
 10
10927.88768146763
 20
2501.208819850399
 30
0.0
 11
10927.88768146763
 21
2301.208819850399
 31
0.0
  0
LINE
  5
171B7
330
747D
100
AcDbEntity
  8
破線
 48
5.0
100
AcDbLine
 10
10852.88768146763
 20
2346.208819850399
 30
0.0
 11
10832.88768146763
 21
2346.208819850399
 31
0.0
  0
LINE
  5
171B8
330
747D
100
AcDbEntity
  8
部品1
100
AcDbLine
 10
10799.88768146763
 20
2651.208819850419
 30
0.0
 11
10827.88768146763
 21
2651.208819850419
 31
0.0
  0
LINE
  5
171B9
330
747D
100
AcDbEntity
  8
部品1
 48
50.0
100
AcDbLine
 10
10772.88768146763
 20
4436.208819850397
 30
0.0
 11
10772.88768146763
 21
4441.208819850398
 31
0.0
  0
DIMENSION
  5
171BA
330
747D
100
AcDbEntity
  8
寸法
100
AcDbDimension
  2
*D13
 10
8252.88768146764
 20
9429.40012361547
 30
0.0
 11
7889.402400093366
 21
9429.40012361547
 31
0.0
 70
   160
 71
     5
 42
55.00000000003637
  3
INABA_S40G
100
AcDbAlignedDimension
 13
8197.887681467603
 23
9129.40012361547
 33
0.0
 14
8252.88768146764
 24
9129.40012361547
 34
0.0
100
AcDbRotatedDimension
1001
ACAD
1000
DSTYLE
1002
{
1002
}
  0
DIMENSION
  5
171BB
330
747D
100
AcDbEntity
  8
寸法
100
AcDbDimension
  2
*D14
 10
9412.653749631642
 20
8329.436734070915
 30
0.0
 11
8776.153749631607
 21
8329.436734070915
 31
0.0
 70
   160
 71
     5
 42
1273.000000000069
  3
INABA_S40G
100
AcDbAlignedDimension
 13
8225.387681467571
 23
8649.400123615517
 33
0.0
 14
9498.38768146764
 24
8649.400123615508
 34
0.0
100
AcDbRotatedDimension
1001
ACAD
1000
DSTYLE
1002
{
1002
}
  0
DIMENSION
  5
171BC
330
747D
100
AcDbEntity
  8
寸法
100
AcDbDimension
  2
*D15
 10
10827.88768146764
 20
9429.40012361547
 30
0.0
 11
11136.37296284188
 21
9429.40012361547
 31
0.0
 70
   160
 71
     5
 42
55.0
  3
INABA_S40G
100
AcDbAlignedDimension
 13
10772.88768146764
 23
9129.400123615564
 33
0.0
 14
10827.88768146764
 24
9129.400123615564
 34
0.0
100
AcDbRotatedDimension
1001
ACAD
1000
DSTYLE
1002
{
1002
}
  0
DIMENSION
  5
171BD
330
747D
100
AcDbEntity
  8
寸法
100
AcDbDimension
  2
*D16
 10
10772.88768146764
 20
9429.40012361547
 30
0.0
 11
9512.887681467637
 21
9429.40012361547
 31
0.0
 70
   160
  1
6X420=<>
 71
     5
 42
2520.0
  3
INABA_S40G
100
AcDbAlignedDimension
 13
8252.88768146764
 23
9129.40012361547
 33
0.0
 14
10772.88768146764
 24
9129.400123615564
 34
0.0
100
AcDbRotatedDimension
1001
ACAD
1000
DSTYLE
1002
{
1002
}
  0
LINE
  5
171BE
330
747D
100
AcDbEntity
  8
部品1
100
AcDbLine
 10
10771.38768146764
 20
7395.900123615554
 30
0.0
 11
8254.387681467532
 21
7395.900123615435
 31
0.0
  0
LINE
  5
171BF
330
747D
100
AcDbEntity
  8
部品1
100
AcDbLine
 10
8197.887681467641
 20
9129.40012361547
 30
0.0
 11
10827.88768146764
 21
9129.400123615564
 31
0.0
  0
DIMENSION
  5
171C1
330
747D
100
AcDbEntity
  8
寸法
100
AcDbDimension
  2
*D17
 10
10712.65374963163
 20
8329.436734070915
 30
0.0
 11
10145.77558878165
 21
8329.436734070915
 31
0.0
 70
   160
 71
     5
 42
1273.000000000011
  3
INABA_S40G
100
AcDbAlignedDimension
 13
9525.387681467639
 23
8649.400123615576
 33
0.0
 14
10798.38768146765
 24
8649.400123615567
 34
0.0
100
AcDbRotatedDimension
1001
ACAD
1000
DSTYLE
1002
{
1002
}
  0
LINE
  5
171C2
330
747D
100
AcDbEntity
  8
細線
 48
50.0
100
AcDbLine
 10
10799.38768146764
 20
9099.400123615565
 30
0.0
 11
9526.387681467639
 21
8649.400123615576
 31
0.0
  0
LINE
  5
171C3
330
747D
100
AcDbEntity
  8
部品1
100
AcDbLine
 10
9526.387681467641
 20
9099.400123615572
 30
0.0
 11
10799.38768146764
 21
9099.400123615565
 31
0.0
  0
LINE
  5
171C4
330
747D
100
AcDbEntity
  8
部品1
100
AcDbLine
 10
9526.387681467639
 20
8649.400123615576
 30
0.0
 11
10799.38768146764
 21
8649.400123615567
 31
0.0
  0
LINE
  5
171C5
330
747D
100
AcDbEntity
  8
細線
 48
50.0
100
AcDbLine
 10
10799.38768146764
 20
8649.400123615567
 30
0.0
 11
9526.387681467641
 21
9099.400123615566
 31
0.0
  0
LINE
  5
171C6
330
747D
100
AcDbEntity
  8
部品1
100
AcDbLine
 10
9525.387681467639
 20
9101.400123615581
 30
0.0
 11
10799.88768146764
 21
9101.400123615563
 31
0.0
  0
LINE
  5
171C7
330
747D
100
AcDbEntity
  8
部品1
100
AcDbLine
 10
10771.38768146762
 20
8234.400123615541
 30
0.0
 11
8254.387681467624
 21
8234.400123615438
 31
0.0
  0
LINE
  5
171C8
330
747D
100
AcDbEntity
  8
部品1
 48
50.0
100
AcDbLine
 10
8225.887681467632
 20
7367.400123615536
 30
0.0
 11
10799.88768146765
 21
7367.40012361554
 31
0.0
  0
LINE
  5
171C9
330
747D
100
AcDbEntity
  8
破線
 48
10.0
100
AcDbLine
 10
10747.88768146763
 20
8649.400123615567
 30
0.0
 11
10747.88768146764
 21
7419.400123615552
 31
0.0
  0
LINE
  5
171CA
330
747D
100
AcDbEntity
  8
破線
 48
10.0
100
AcDbLine
 10
8277.887681467616
 20
8649.400123615567
 30
0.0
 11
8277.88768146763
 21
7419.400123615435
 31
0.0
  0
LINE
  5
171CB
330
747D
100
AcDbEntity
  8
部品1
100
AcDbLine
 10
8225.887681467616
 20
7367.400123615515
 30
0.0
 11
8225.887681467632
 21
8654.40012361544
 31
0.0
  0
LINE
  5
171CC
330
747D
100
AcDbEntity
  8
部品1
100
AcDbLine
 10
8197.887681467603
 20
9129.400123615436
 30
0.0
 11
8197.887681467634
 21
7339.400123615424
 31
0.0
  0
LINE
  5
171CD
330
747D
100
AcDbEntity
  8
破線
 48
10.0
100
AcDbLine
 10
9072.387681467619
 20
7395.900123615463
 30
0.0
 11
9072.387681467615
 21
8649.400123615576
 31
0.0
  0
LINE
  5
171CE
330
747D
100
AcDbEntity
  8
破線
 48
10.0
100
AcDbLine
 10
9122.387681467614
 20
7395.900123615468
 30
0.0
 11
9122.387681467614
 21
8649.400123615576
 31
0.0
  0
LINE
  5
171CF
330
747D
100
AcDbEntity
  8
部品1
100
AcDbLine
 10
8254.387681467617
 20
8649.400123615517
 30
0.0
 11
8254.38768146763
 21
7395.900123615529
 31
0.0
  0
LINE
  5
171D0
330
747D
100
AcDbEntity
  8
破線
 48
10.0
100
AcDbLine
 10
9953.387681467615
 20
7395.900123615468
 30
0.0
 11
9953.387681467615
 21
8649.400123615576
 31
0.0
  0
LINE
  5
171D1
330
747D
100
AcDbEntity
  8
破線
 48
10.0
100
AcDbLine
 10
9903.38768146762
 20
7395.900123615463
 30
0.0
 11
9903.387681467615
 21
8649.400123615576
 31
0.0
  0
LINE
  5
171D2
330
747D
100
AcDbEntity
  8
破線
 48
10.0
100
AcDbLine
 10
9903.38768146762
 20
7419.400123615471
 30
0.0
 11
9122.387681467614
 21
7419.400123615445
 31
0.0
  0
LINE
  5
171D3
330
747D
100
AcDbEntity
  8
破線
 48
10.0
100
AcDbLine
 10
9072.387681467619
 20
7419.400123615421
 30
0.0
 11
8277.887681467626
 21
7419.400123615435
 31
0.0
  0
LINE
  5
171D4
330
747D
100
AcDbEntity
  8
部品1
100
AcDbLine
 10
8672.887681467608
 20
7339.400123615424
 30
0.0
 11
8197.887681467634
 21
7339.400123615424
 31
0.0
  0
LINE
  5
171D5
330
747D
100
AcDbEntity
  8
部品1
100
AcDbLine
 10
8197.887681467632
 20
7394.400123615388
 30
0.0
 11
8197.887681467634
 21
7339.400123615391
 31
0.0
  0
LINE
  5
171D6
330
747D
100
AcDbEntity
  8
部品1
100
AcDbLine
 10
8225.88768146763
 20
7394.400123615437
 30
0.0
 11
8197.887681467632
 21
7394.400123615437
 31
0.0
  0
LINE
  5
171D7
330
747D
100
AcDbEntity
  8
部品1
100
AcDbLine
 10
8225.887681467616
 20
7394.400123615423
 30
0.0
 11
8197.887681467632
 21
7394.400123615423
 31
0.0
  0
LINE
  5
171D8
330
747D
100
AcDbEntity
  8
部品1
100
AcDbLine
 10
8225.887681467616
 20
7394.400123615388
 30
0.0
 11
8197.887681467632
 21
7394.400123615388
 31
0.0
  0
LINE
  5
171D9
330
747D
100
AcDbEntity
  8
部品1
100
AcDbLine
 10
8252.887681467608
 20
7339.400123615554
 30
0.0
 11
8252.887681467608
 21
7367.400123615555
 31
0.0
  0
LINE
  5
171DA
330
747D
100
AcDbEntity
  8
部品1
 48
50.0
100
AcDbLine
 10
8254.38768146763
 20
7395.900123615533
 30
0.0
 11
8225.88768146763
 21
7367.400123615533
 31
0.0
  0
LINE
  5
171DB
330
747D
100
AcDbEntity
  8
部品1
100
AcDbLine
 10
8672.887681467608
 20
7339.400123615554
 30
0.0
 11
8672.887681467608
 21
7367.400123615555
 31
0.0
  0
LINE
  5
171DC
330
747D
100
AcDbEntity
  8
破線
 48
10.0
100
AcDbLine
 10
10747.88768146764
 20
7419.400123615554
 30
0.0
 11
9953.387681467615
 21
7419.400123615377
 31
0.0
  0
LINE
  5
171DD
330
747D
100
AcDbEntity
  8
細線
 48
50.0
100
AcDbLine
 10
9499.387681467638
 20
8649.400123615576
 30
0.0
 11
8226.387681467569
 21
9099.400123615517
 31
0.0
  0
LINE
  5
171DE
330
747D
100
AcDbEntity
  8
細線
 48
50.0
100
AcDbLine
 10
9499.387681467641
 20
9099.400123615572
 30
0.0
 11
8226.387681467571
 21
8649.400123615517
 31
0.0
  0
LINE
  5
171DF
330
747D
100
AcDbEntity
  8
部品1
100
AcDbLine
 10
8225.887681467643
 20
9101.400123615581
 30
0.0
 11
9500.387681467637
 21
9101.400123615587
 31
0.0
  0
LINE
  5
171E0
330
747D
100
AcDbEntity
  8
部品1
100
AcDbLine
 10
8226.387681467571
 20
9099.400123615517
 30
0.0
 11
9499.387681467641
 21
9099.400123615575
 31
0.0
  0
LINE
  5
171E1
330
747D
100
AcDbEntity
  8
部品1
100
AcDbLine
 10
8226.387681467571
 20
8649.400123615517
 30
0.0
 11
9499.387681467638
 21
8649.400123615576
 31
0.0
  0
LINE
  5
171E2
330
747D
100
AcDbEntity
  8
部品1
 48
50.0
100
AcDbLine
 10
8226.387681467571
 20
9099.400123615572
 30
0.0
 11
8226.387681467571
 21
8649.400123615576
 31
0.0
  0
LINE
  5
171E3
330
747D
100
AcDbEntity
  8
部品1
100
AcDbLine
 10
8225.88768146763
 20
8648.90012361544
 30
0.0
 11
8225.887681467641
 21
9101.400123615469
 31
0.0
  0
LINE
  5
171E4
330
747D
100
AcDbEntity
  8
部品1
100
AcDbLine
 10
8225.887681467616
 20
8234.400123615438
 30
0.0
 11
8197.887681467616
 21
8234.400123615438
 31
0.0
  0
LINE
  5
171E5
330
747D
100
AcDbEntity
  8
部品1
100
AcDbLine
 10
8225.887681467616
 20
8654.40012361544
 30
0.0
 11
8197.887681467616
 21
8654.40012361544
 31
0.0
  0
LINE
  5
171E6
330
747D
100
AcDbEntity
  8
部品1
100
AcDbLine
 10
8225.887681467609
 20
9074.40012361544
 30
0.0
 11
8197.887681467609
 21
9074.40012361544
 31
0.0
  0
LINE
  5
171E7
330
747D
100
AcDbEntity
  8
部品1
100
AcDbLine
 10
8252.88768146764
 20
9129.40012361547
 30
0.0
 11
8252.88768146764
 21
9101.400123615469
 31
0.0
  0
LINE
  5
171E8
330
747D
100
AcDbEntity
  8
部品1
100
AcDbLine
 10
8252.887681467603
 20
9129.400123615436
 30
0.0
 11
8252.887681467608
 21
9101.400123615437
 31
0.0
  0
LINE
  5
171E9
330
747D
100
AcDbEntity
  8
部品1
100
AcDbLine
 10
8672.887681467605
 20
9129.400123615436
 30
0.0
 11
8672.887681467608
 21
9101.400123615437
 31
0.0
  0
LINE
  5
171EA
330
747D
100
AcDbEntity
  8
部品1
100
AcDbLine
 10
9092.887681467605
 20
9129.400123615436
 30
0.0
 11
9092.887681467606
 21
9101.400123615437
 31
0.0
  0
LINE
  5
171EB
330
747D
100
AcDbEntity
  8
部品1
 48
50.0
100
AcDbLine
 10
9499.387681467641
 20
9099.400123615572
 30
0.0
 11
9499.387681467641
 21
8649.400123615576
 31
0.0
  0
LINE
  5
171EC
330
747D
100
AcDbEntity
  8
部品1
 48
50.0
100
AcDbLine
 10
9526.387681467641
 20
9099.400123615566
 30
0.0
 11
9526.387681467641
 21
8649.400123615576
 31
0.0
  0
LINE
  5
171ED
330
747D
100
AcDbEntity
  8
部品1
 48
50.0
100
AcDbLine
 10
9500.387681467639
 20
9101.400123615578
 30
0.0
 11
9500.387681467641
 21
8649.400123615576
 31
0.0
  0
LINE
  5
171EE
330
747D
100
AcDbEntity
  8
部品1
 48
50.0
100
AcDbLine
 10
9525.387681467639
 20
9101.400123615574
 30
0.0
 11
9525.387681467639
 21
8649.400123615576
 31
0.0
  0
LINE
  5
171EF
330
747D
100
AcDbEntity
  8
部品1
100
AcDbLine
 10
9500.387681467641
 20
8649.400123615576
 30
0.0
 11
9525.387681467639
 21
8649.400123615576
 31
0.0
  0
LINE
  5
171F0
330
747D
100
AcDbEntity
  8
部品1
100
AcDbLine
 10
9500.387681467641
 20
9093.400123615568
 30
0.0
 11
9525.387681467639
 21
9093.400123615571
 31
0.0
  0
LINE
  5
171F1
330
747D
100
AcDbEntity
  8
部品1
100
AcDbLine
 10
9477.88768146764
 20
9119.400123615571
 30
0.0
 11
9477.88768146764
 21
9101.400123615571
 31
0.0
  0
LINE
  5
171F2
330
747D
100
AcDbEntity
  8
部品1
100
AcDbLine
 10
9477.88768146764
 20
9119.400123615571
 30
0.0
 11
9483.88768146764
 21
9119.400123615571
 31
0.0
  0
LINE
  5
171F3
330
747D
100
AcDbEntity
  8
部品1
100
AcDbLine
 10
9547.88768146764
 20
9119.400123615571
 30
0.0
 11
9547.88768146764
 21
9101.400123615571
 31
0.0
  0
LINE
  5
171F4
330
747D
100
AcDbEntity
  8
部品1
100
AcDbLine
 10
9541.88768146764
 20
9119.400123615571
 30
0.0
 11
9547.88768146764
 21
9119.400123615571
 31
0.0
  0
LINE
  5
171F5
330
747D
100
AcDbEntity
  8
部品1
100
AcDbLine
 10
9512.887681467605
 20
9129.400123615436
 30
0.0
 11
9512.887681467608
 21
9101.400123615437
 31
0.0
  0
LINE
  5
171F6
330
747D
100
AcDbEntity
  8
部品1
100
AcDbLine
 10
9932.887681467605
 20
9129.400123615436
 30
0.0
 11
9932.887681467608
 21
9101.400123615437
 31
0.0
  0
LINE
  5
171F7
330
747D
100
AcDbEntity
  8
部品1
100
AcDbLine
 10
10352.8876814676
 20
9129.400123615436
 30
0.0
 11
10352.88768146761
 21
9101.400123615437
 31
0.0
  0
DIMENSION
  5
171F8
330
747D
100
AcDbEntity
  8
寸法
100
AcDbDimension
  2
*D18
 10
11827.88768146764
 20
7339.400123615553
 30
0.0
 11
11827.88768146764
 21
8234.400123615557
 31
0.0
 70
   160
 71
     5
 42
1790.00000000001
  3
INABA_S40G
100
AcDbAlignedDimension
 13
10827.88768146764
 23
9129.400123615564
 33
0.0
 14
10827.88768146761
 24
7339.400123615553
 34
0.0
 50
90.0
100
AcDbRotatedDimension
1001
ACAD
1000
DSTYLE
1002
{
1002
}
  0
DIMENSION
  5
171F9
330
747D
100
AcDbEntity
  8
寸法
100
AcDbDimension
  2
*D19
 10
11527.88768146763
 20
7394.400123615548
 30
0.0
 11
11527.88768146763
 21
8234.400123615557
 31
0.0
 70
   160
  1
4X420=<>
 71
     5
 42
1680.000000000017
  3
INABA_S40G
100
AcDbAlignedDimension
 13
10827.88768146764
 23
9074.400123615566
 33
0.0
 14
10827.88768146761
 24
7394.400123615548
 34
0.0
 50
90.0
100
AcDbRotatedDimension
1001
ACAD
1000
DSTYLE
1002
{
1002
}
  0
LINE
  5
171FA
330
747D
100
AcDbEntity
  8
部品1
100
AcDbLine
 10
10827.88768146764
 20
9129.400123615564
 30
0.0
 11
10827.88768146761
 21
7339.400123615554
 31
0.0
  0
LINE
  5
171FB
330
747D
100
AcDbEntity
  8
部品1
100
AcDbLine
 10
10771.38768146763
 20
8649.400123615563
 30
0.0
 11
10771.38768146764
 21
7395.900123615554
 31
0.0
  0
LINE
  5
171FC
330
747D
100
AcDbEntity
  8
部品1
100
AcDbLine
 10
10799.88768146763
 20
8654.400123615568
 30
0.0
 11
10799.88768146762
 21
7367.400123615555
 31
0.0
  0
DIMENSION
  5
171FD
330
747D
100
AcDbEntity
  8
寸法
100
AcDbDimension
  2
*D20
 10
11527.88768146761
 20
7339.400123615553
 30
0.0
 11
11527.88768146761
 21
7030.914842241303
 31
0.0
 70
   160
 71
     5
 42
54.99999999999636
  3
INABA_S40G
100
AcDbAlignedDimension
 13
10827.88768146761
 23
7394.400123615548
 33
0.0
 14
10827.88768146761
 24
7339.400123615553
 34
0.0
 50
90.0
100
AcDbRotatedDimension
1001
ACAD
1000
DSTYLE
1002
{
1002
}
  0
LINE
  5
171FE
330
747D
100
AcDbEntity
  8
部品1
100
AcDbLine
 10
10827.88768146761
 20
7339.400123615554
 30
0.0
 11
10772.88768146764
 21
7339.40012361554
 31
0.0
  0
LINE
  5
171FF
330
747D
100
AcDbEntity
  8
部品1
100
AcDbLine
 10
10799.88768146762
 20
7394.400123615551
 30
0.0
 11
10827.88768146761
 21
7394.400123615551
 31
0.0
  0
LINE
  5
17200
330
747D
100
AcDbEntity
  8
部品1
100
AcDbLine
 10
10827.88768146761
 20
7339.400123615554
 30
0.0
 11
10776.88768146761
 21
7339.400123615554
 31
0.0
  0
LINE
  5
17201
330
747D
100
AcDbEntity
  8
部品1
 48
50.0
100
AcDbLine
 10
10771.38768146764
 20
7395.900123615554
 30
0.0
 11
10799.88768146764
 21
7367.400123615555
 31
0.0
  0
LINE
  5
17202
330
747D
100
AcDbEntity
  8
部品1
100
AcDbLine
 10
10827.88768146762
 20
7394.400123615551
 30
0.0
 11
10827.88768146761
 21
7339.400123615554
 31
0.0
  0
LINE
  5
17203
330
747D
100
AcDbEntity
  8
部品1
100
AcDbLine
 10
10799.88768146764
 20
7394.400123615551
 30
0.0
 11
10827.88768146764
 21
7394.400123615551
 31
0.0
  0
LINE
  5
17204
330
747D
100
AcDbEntity
  8
部品1
 48
50.0
100
AcDbLine
 10
10772.88768146764
 20
7339.40012361554
 30
0.0
 11
10772.88768146764
 21
7367.40012361554
 31
0.0
  0
LINE
  5
17206
330
747D
100
AcDbEntity
  8
部品1
100
AcDbLine
 10
10799.88768146764
 20
9101.400123615563
 30
0.0
 11
10799.88768146763
 21
8648.90012361544
 31
0.0
  0
LINE
  5
17207
330
747D
100
AcDbEntity
  8
部品1
100
AcDbLine
 10
10799.38768146764
 20
9099.400123615565
 30
0.0
 11
10799.38768146764
 21
8649.400123615567
 31
0.0
  0
DIMENSION
  5
17208
330
747D
100
AcDbEntity
  8
寸法
100
AcDbDimension
  2
*D21
 10
11227.88768146763
 20
8534.583894658831
 30
0.0
 11
11227.88768146763
 21
8759.583894658829
 31
0.0
 70
   160
 71
     5
 42
449.9999999999963
  3
INABA_S40G
100
AcDbAlignedDimension
 13
10799.38768146764
 23
9099.400123615565
 33
0.0
 14
10799.38768146764
 24
8649.400123615567
 34
0.0
 50
90.0
100
AcDbRotatedDimension
1001
ACAD
1000
DSTYLE
1002
{
1002
}
  0
DIMENSION
  5
17209
330
747D
100
AcDbEntity
  8
寸法
100
AcDbDimension
  2
*D22
 10
11527.88768146763
 20
9074.400123615566
 30
0.0
 11
11527.88768146763
 21
9437.885404989804
 31
0.0
 70
   160
 71
     5
 42
54.99999999999636
  3
INABA_S40G
100
AcDbAlignedDimension
 13
10827.88768146764
 23
9129.400123615564
 33
0.0
 14
10827.88768146764
 24
9074.400123615566
 34
0.0
 50
90.0
100
AcDbRotatedDimension
1001
ACAD
1000
DSTYLE
1002
{
1002
}
  0
LINE
  5
1720A
330
747D
100
AcDbEntity
  8
部品1
100
AcDbLine
 10
10799.88768146764
 20
8234.400123615566
 30
0.0
 11
10827.88768146764
 21
8234.400123615566
 31
0.0
  0
LINE
  5
1720B
330
747D
100
AcDbEntity
  8
部品1
100
AcDbLine
 10
10799.88768146764
 20
8654.400123615568
 30
0.0
 11
10827.88768146764
 21
8654.400123615568
 31
0.0
  0
LINE
  5
1720C
330
747D
100
AcDbEntity
  8
部品1
100
AcDbLine
 10
10799.88768146764
 20
9074.400123615566
 30
0.0
 11
10827.88768146764
 21
9074.400123615566
 31
0.0
  0
LINE
  5
1720D
330
747D
100
AcDbEntity
  8
部品1
100
AcDbLine
 10
10772.88768146764
 20
9129.400123615585
 30
0.0
 11
10772.88768146764
 21
9101.400123615587
 31
0.0
  0
LINE
  5
1720E
330
747D
100
AcDbEntity
  8
部品1
100
AcDbLine
 10
10772.88768146764
 20
9129.400123615564
 30
0.0
 11
10772.88768146764
 21
9101.400123615563
 31
0.0
  0
MTEXT
  5
1720F
330
747D
100
AcDbEntity
  8
寸法
 62
     7
 48
50.0
100
AcDbMText
 10
8877.990218560745
 20
8715.634941812849
 30
0.0
 40
96.0
 41
0.0
 71
     5
 72
     1
  1
棚 2段
  7
STYLE1
 73
     1
 44
1.0
1001
ACAD
1000
MTEXTBEGIN
1070
    73
1070
     1
1070
    44
1040
1.0
1070
    74
1070
     0
1000
MTEXTEND
  0
MTEXT
  5
17210
330
747D
100
AcDbEntity
  8
寸法
 62
     7
 48
50.0
100
AcDbMText
 10
10177.99021856078
 20
8715.634941812874
 30
0.0
 40
96.0
 41
0.0
 71
     5
 72
     1
  1
棚 2段
  7
STYLE1
 73
     1
 44
1.0
1001
ACAD
1000
MTEXTBEGIN
1070
    73
1070
     1
1070
    44
1040
1.0
1070
    74
1070
     0
1000
MTEXTEND
  0
LINE
  5
17214
330
747D
100
AcDbEntity
  8
部品1
 48
50.0
100
AcDbLine
 10
8719.88768146763
 20
3582.708819850399
 30
0.0
 11
8772.887681467631
 21
3582.708819850399
 31
0.0
  0
LINE
  5
1722E
330
747D
100
AcDbEntity
  8
部品1
 48
50.0
100
AcDbLine
 10
10799.88768146763
 20
4436.208819850398
 30
0.0
 11
8645.887681467632
 21
4436.208819850398
 31
0.0
  0
LINE
  5
1722F
330
747D
100
AcDbEntity
  8
細線
 48
50.0
100
AcDbLine
 10
10799.88768146763
 20
4426.208819850399
 30
0.0
 11
8645.887681467632
 21
4426.208819850399
 31
0.0
  0
LINE
  5
17230
330
747D
100
AcDbEntity
  8
細線
 48
50.0
100
AcDbLine
 10
10769.88768146763
 20
4384.208819850399
 30
0.0
 11
8675.887681467632
 21
4384.208819850399
 31
0.0
  0
LINE
  5
17231
330
747D
100
AcDbEntity
  8
細線
 48
50.0
100
AcDbLine
 10
10769.88768146763
 20
4393.708819850399
 30
0.0
 11
8675.887681467632
 21
4393.708819850399
 31
0.0
  0
LINE
  5
17232
330
747D
100
AcDbEntity
  8
部品1
 48
50.0
100
AcDbLine
 10
8645.887681467632
 20
2601.208819850399
 30
0.0
 11
10799.88768146763
 21
2601.208819850399
 31
0.0
  0
LINE
  5
17233
330
747D
100
AcDbEntity
  8
細線
 48
50.0
100
AcDbLine
 10
8675.887681467632
 20
2644.208819850399
 30
0.0
 11
10769.88768146763
 21
2644.208819850399
 31
0.0
  0
LINE
  5
17234
330
747D
100
AcDbEntity
  8
細線
 48
50.0
100
AcDbLine
 10
8675.887681467632
 20
2648.208819850399
 30
0.0
 11
10769.88768146763
 21
2648.208819850399
 31
0.0
  0
LINE
  5
17235
330
747D
100
AcDbEntity
  8
細線
 48
50.0
100
AcDbLine
 10
9479.887681467628
 20
2658.708819850399
 30
0.0
 11
10743.88768146763
 21
2658.708819850399
 31
0.0
  0
LINE
  5
17236
330
747D
100
AcDbEntity
  8
部品1
 48
50.0
100
AcDbLine
 10
8675.887681467632
 20
2651.208819850399
 30
0.0
 11
8675.887681467632
 21
4384.208819850399
 31
0.0
  0
LINE
  5
17237
330
747D
100
AcDbEntity
  8
細線
 48
50.0
100
AcDbLine
 10
8675.887681467632
 20
4393.708819850399
 30
0.0
 11
8675.887681467632
 21
2601.208819850399
 31
0.0
  0
LINE
  5
17238
330
747D
100
AcDbEntity
  8
部品1
 48
50.0
100
AcDbLine
 10
8645.887681467632
 20
4436.208819850398
 30
0.0
 11
8645.887681467632
 21
2601.208819850399
 31
0.0
  0
LINE
  5
17239
330
747D
100
AcDbEntity
  8
部品1
 48
50.0
100
AcDbLine
 10
9479.887681467628
 20
4384.208819875166
 30
0.0
 11
9479.887681467628
 21
2651.208819875166
 31
0.0
  0
LINE
  5
1723A
330
747D
100
AcDbEntity
  8
部品1
 48
50.0
100
AcDbLine
 10
8675.887681467632
 20
2651.208819850399
 30
0.0
 11
9479.887681467628
 21
2651.208819850396
 31
0.0
  0
LINE
  5
1723B
330
747D
100
AcDbEntity
  8
部品1
 48
50.0
100
AcDbLine
 10
8684.887681467632
 20
2651.208819850399
 30
0.0
 11
8684.887681467632
 21
2648.208819850399
 31
0.0
  0
LINE
  5
1723C
330
747D
100
AcDbEntity
  8
部品1
 48
50.0
100
AcDbLine
 10
8675.887681467632
 20
4392.208819850399
 30
0.0
 11
8645.887681467632
 21
4392.208819850399
 31
0.0
  0
LINE
  5
1723D
330
747D
100
AcDbEntity
  8
部品1
 48
50.0
100
AcDbLine
 10
10760.88768146763
 20
2648.208819850399
 30
0.0
 11
10760.88768146763
 21
4384.208819850399
 31
0.0
  0
LINE
  5
1723E
330
747D
100
AcDbEntity
  8
細線
 48
50.0
100
AcDbLine
 10
10769.88768146763
 20
2601.208819850399
 30
0.0
 11
10769.88768146763
 21
4393.708819850399
 31
0.0
  0
LINE
  5
1723F
330
747D
100
AcDbEntity
  8
部品1
 48
50.0
100
AcDbLine
 10
10799.88768146763
 20
2601.208819850399
 30
0.0
 11
10799.88768146763
 21
4436.208819850398
 31
0.0
  0
LINE
  5
17240
330
747D
100
AcDbEntity
  8
部品1
 48
50.0
100
AcDbLine
 10
10133.88767177249
 20
4384.208819887546
 30
0.0
 11
10133.88767177249
 21
2658.708819887547
 31
0.0
  0
LINE
  5
17241
330
747D
100
AcDbEntity
  8
細線
 48
50.0
100
AcDbLine
 10
10747.88768146763
 20
2648.208819850399
 30
0.0
 11
10743.88768146763
 21
2658.708819850399
 31
0.0
  0
LINE
  5
17242
330
747D
100
AcDbEntity
  8
部品1
 48
50.0
100
AcDbLine
 10
10799.88768146763
 20
4392.208819850399
 30
0.0
 11
10769.88768146763
 21
4392.208819850399
 31
0.0
  0
LINE
  5
17243
330
747D
100
AcDbEntity
  8
細線
100
AcDbLine
 10
10256.63768146763
 20
4384.208819850399
 30
0.0
 11
10256.63768146763
 21
2658.708819850418
 31
0.0
  0
LINE
  5
17244
330
747D
100
AcDbEntity
  8
細線
100
AcDbLine
 10
9541.387691217876
 20
4384.208819850399
 30
0.0
 11
9541.387691217876
 21
2658.70881985041
 31
0.0
  0
LINE
  5
17245
330
747D
100
AcDbEntity
  8
細線
100
AcDbLine
 10
9611.387691217876
 20
4384.208819850399
 30
0.0
 11
9611.387691217876
 21
2658.70881985041
 31
0.0
  0
LINE
  5
17246
330
747D
100
AcDbEntity
  8
細線
100
AcDbLine
 10
8889.887681467632
 20
4384.208819850399
 30
0.0
 11
8889.887681467628
 21
2651.208819850403
 31
0.0
  0
LINE
  5
17247
330
747D
100
AcDbEntity
  8
細線
100
AcDbLine
 10
8959.887681467632
 20
4384.208819850399
 30
0.0
 11
8959.887681467627
 21
2651.208819850403
 31
0.0
  0
LINE
  5
17248
330
747D
100
AcDbEntity
  8
細線
100
AcDbLine
 10
10326.63768146763
 20
4384.208819850399
 30
0.0
 11
10326.63768146763
 21
2658.708819850418
 31
0.0
  0
LINE
  5
17249
330
747D
100
AcDbEntity
  8
細線
100
AcDbLine
 10
10396.63768146763
 20
4384.208819850399
 30
0.0
 11
10396.63768146763
 21
2658.708819850418
 31
0.0
  0
LINE
  5
1724A
330
747D
100
AcDbEntity
  8
細線
100
AcDbLine
 10
10466.63768146763
 20
4384.208819850399
 30
0.0
 11
10466.63768146763
 21
2658.708819850418
 31
0.0
  0
LINE
  5
1724B
330
747D
100
AcDbEntity
  8
細線
100
AcDbLine
 10
10536.63768146763
 20
4384.208819850399
 30
0.0
 11
10536.63768146763
 21
2658.708819850418
 31
0.0
  0
LINE
  5
1724C
330
747D
100
AcDbEntity
  8
細線
100
AcDbLine
 10
10606.63768146763
 20
4384.208819850399
 30
0.0
 11
10606.63768146763
 21
2658.708819850418
 31
0.0
  0
LINE
  5
1724D
330
747D
100
AcDbEntity
  8
細線
100
AcDbLine
 10
9681.387691217876
 20
4384.208819850399
 30
0.0
 11
9681.387691217876
 21
2658.70881985041
 31
0.0
  0
LINE
  5
1724E
330
747D
100
AcDbEntity
  8
細線
100
AcDbLine
 10
9751.387691217875
 20
4384.208819850399
 30
0.0
 11
9751.387691217875
 21
2658.70881985041
 31
0.0
  0
LINE
  5
1724F
330
747D
100
AcDbEntity
  8
細線
100
AcDbLine
 10
9821.387691217875
 20
4384.208819850399
 30
0.0
 11
9821.387691217875
 21
2658.70881985041
 31
0.0
  0
LINE
  5
17250
330
747D
100
AcDbEntity
  8
細線
100
AcDbLine
 10
9891.387691217875
 20
4384.208819850399
 30
0.0
 11
9891.387691217875
 21
2658.70881985041
 31
0.0
  0
LINE
  5
17251
330
747D
100
AcDbEntity
  8
細線
100
AcDbLine
 10
9961.387691217876
 20
4384.208819850399
 30
0.0
 11
9961.387691217876
 21
2658.70881985041
 31
0.0
  0
LINE
  5
17252
330
747D
100
AcDbEntity
  8
細線
100
AcDbLine
 10
10031.38769121787
 20
4384.208819850399
 30
0.0
 11
10031.38769121787
 21
2658.70881985041
 31
0.0
  0
LINE
  5
17253
330
747D
100
AcDbEntity
  8
細線
100
AcDbLine
 10
8803.887681467628
 20
4384.208819850399
 30
0.0
 11
8803.887681467632
 21
2651.208819850403
 31
0.0
  0
LINE
  5
17254
330
747D
100
AcDbEntity
  8
細線
100
AcDbLine
 10
8837.887681467627
 20
4384.208819850399
 30
0.0
 11
8837.887681467632
 21
2651.208819850403
 31
0.0
  0
LINE
  5
17255
330
747D
100
AcDbEntity
  8
部品1
100
AcDbLine
 10
8795.887681467627
 20
4384.208819850399
 30
0.0
 11
8795.887681467631
 21
2651.208819850403
 31
0.0
  0
LINE
  5
17256
330
747D
100
AcDbEntity
  8
部品1
100
AcDbLine
 10
8845.887681467628
 20
4384.208819850399
 30
0.0
 11
8845.887681467631
 21
2651.208819850403
 31
0.0
  0
LINE
  5
17257
330
747D
100
AcDbEntity
  8
細線
100
AcDbLine
 10
9029.887681467632
 20
4384.208819850399
 30
0.0
 11
9029.887681467627
 21
2651.208819850403
 31
0.0
  0
LINE
  5
17258
330
747D
100
AcDbEntity
  8
細線
100
AcDbLine
 10
9099.887681467633
 20
4384.208819850399
 30
0.0
 11
9099.887681467627
 21
2651.208819850403
 31
0.0
  0
LINE
  5
17259
330
747D
100
AcDbEntity
  8
細線
100
AcDbLine
 10
9169.887681467631
 20
4384.208819850399
 30
0.0
 11
9169.887681467628
 21
2651.208819850403
 31
0.0
  0
LINE
  5
1725A
330
747D
100
AcDbEntity
  8
細線
100
AcDbLine
 10
9239.887681467632
 20
4384.208819850399
 30
0.0
 11
9239.887681467628
 21
2651.208819850403
 31
0.0
  0
LINE
  5
1725B
330
747D
100
AcDbEntity
  8
細線
100
AcDbLine
 10
9309.887681467632
 20
4384.208819850399
 30
0.0
 11
9309.887681467627
 21
2651.208819850407
 31
0.0
  0
LINE
  5
1725C
330
747D
100
AcDbEntity
  8
細線
100
AcDbLine
 10
9379.887681467632
 20
4384.208819850399
 30
0.0
 11
9379.887681467627
 21
2651.208819850407
 31
0.0
  0
LINE
  5
1725D
330
747D
100
AcDbEntity
  8
部品1
100
AcDbLine
 10
10133.88767177248
 20
4384.208819887549
 30
0.0
 11
10133.88767177249
 21
2658.708819887565
 31
0.0
  0
LINE
  5
1725E
330
747D
100
AcDbEntity
  8
部品1
 48
50.0
100
AcDbLine
 10
9479.887681467628
 20
4384.208819875166
 30
0.0
 11
9479.887681467628
 21
2651.208819850396
 31
0.0
  0
LINE
  5
1730F
330
747D
100
AcDbEntity
  8
細線
 48
50.0
100
AcDbLine
 10
8330.387681467632
 20
4441.208819850398
 30
0.0
 11
8330.387681467632
 21
2651.208819850399
 31
0.0
  0
LINE
  5
17310
330
747D
100
AcDbEntity
  8
細線
 48
50.0
100
AcDbLine
 10
8315.387681467631
 20
4441.208819850398
 30
0.0
 11
8315.387681467631
 21
2651.208819850399
 31
0.0
  0
LINE
  5
17311
330
747D
100
AcDbEntity
  8
細線
 48
50.0
100
AcDbLine
 10
8455.387681467632
 20
4441.208819850398
 30
0.0
 11
8455.387681467632
 21
2651.208819850399
 31
0.0
  0
LINE
  5
17312
330
747D
100
AcDbEntity
  8
細線
 48
50.0
100
AcDbLine
 10
8470.387681467633
 20
4441.208819850398
 30
0.0
 11
8470.387681467633
 21
2651.208819850399
 31
0.0
  0
LINE
  5
17313
330
747D
100
AcDbEntity
  8
細線
 48
50.0
100
AcDbLine
 10
8610.387681467631
 20
4441.208819850398
 30
0.0
 11
8610.387681467631
 21
2651.208819850399
 31
0.0
  0
LINE
  5
17314
330
747D
100
AcDbEntity
  8
細線
 48
50.0
100
AcDbLine
 10
8595.387681467633
 20
4441.208819850398
 30
0.0
 11
8595.387681467633
 21
2651.208819850399
 31
0.0
  0
TEXT
  5
1731B
330
747D
100
AcDbEntity
  8
文字
 62
     7
 48
50.0
100
AcDbText
 10
14491.96323844892
 20
483.8967129911416
 30
0.0
 40
160.0
  1
ＮＸＮ－５０ＳＢ
  7
STYLE2
100
AcDbText
  0
TEXT
  5
1731C
330
747D
100
AcDbEntity
  8
文字
 62
     7
 48
50.0
100
AcDbText
 10
13209.4053442172
 20
228.5435242569015
 30
0.0
 40
100.0
  1
○有効開口寸法 ： 1266×1725(mm)
  7
STYLE2
100
AcDbText
  0
TEXT
  5
17366
330
747D
100
AcDbEntity
  8
文字
 62
     7
 48
50.0
100
AcDbText
 10
13248.77747366447
 20
8380.013745883728
 30
0.0
 40
100.0
  1
17
  7
STYLE1
100
AcDbText
  0
TEXT
  5
17367
330
747D
100
AcDbEntity
  8
文字
 62
     7
 48
50.0
100
AcDbText
 10
13248.77747366447
 20
8550.013745883729
 30
0.0
 40
100.0
  1
16
  7
STYLE1
100
AcDbText
  0
TEXT
  5
17368
330
747D
100
AcDbEntity
  8
文字
 62
     7
 48
50.0
100
AcDbText
 10
15022.63965474517
 20
9060.013745883729
 30
0.0
 40
100.0
  1
F12            1.0
  7
STYLE1
100
AcDbText
  0
TEXT
  5
17369
330
747D
100
AcDbEntity
  8
文字
 62
     7
 48
50.0
100
AcDbText
 10
13583.11819016569
 20
9060.013745883736
 30
0.0
 40
100.0
  1
壁面扉枠左右
  7
STYLE1
100
AcDbText
  0
TEXT
  5
1736A
330
747D
100
AcDbEntity
  8
文字
 62
     7
 48
50.0
100
AcDbText
 10
15022.63965474517
 20
9230.013745883729
 30
0.0
 40
100.0
  1
F12            1.0
  7
STYLE1
100
AcDbText
  0
TEXT
  5
1736B
330
747D
100
AcDbEntity
  8
文字
 62
     7
 48
50.0
100
AcDbText
 10
15022.63965474515
 20
9400.013745883729
 30
0.0
 40
100.0
  1
F12            0.7
  7
STYLE1
100
AcDbText
  0
TEXT
  5
1736C
330
747D
100
AcDbEntity
  8
文字
 62
     7
 48
50.0
100
AcDbText
 10
13583.11819016569
 20
9230.013745883736
 30
0.0
 40
100.0
  1
壁面扉敷居
  7
STYLE1
100
AcDbText
  0
TEXT
  5
1736D
330
747D
100
AcDbEntity
  8
文字
 62
     7
 48
50.0
100
AcDbText
 10
13583.11819016569
 20
9400.013745883729
 30
0.0
 40
100.0
  1
壁面扉鴨居
  7
STYLE1
100
AcDbText
  0
LINE
  5
1736E
330
747D
100
AcDbEntity
  8
仕様書枠
 48
50.0
100
AcDbLine
 10
16307.19999999999
 20
8689.600000000007
 30
0.0
 11
13127.2
 21
8689.600000000007
 31
0.0
  0
LINE
  5
1736F
330
747D
100
AcDbEntity
  8
仕様書枠
 48
50.0
100
AcDbLine
 10
16307.19999999999
 20
8519.600000000009
 30
0.0
 11
13127.2
 21
8519.600000000009
 31
0.0
  0
TEXT
  5
17370
330
747D
100
AcDbEntity
  8
文字
 62
     7
 48
50.0
100
AcDbText
 10
13583.11819016569
 20
8380.013745883728
 30
0.0
 40
100.0
  1
アンカープレート
  7
STYLE1
100
AcDbText
  0
TEXT
  5
17371
330
747D
100
AcDbEntity
  8
文字
 62
     7
 48
50.0
100
AcDbText
 10
15022.63965474515
 20
8380.013745883726
 30
0.0
 40
100.0
  1
F12            2.3
  7
STYLE1
100
AcDbText
  0
LINE
  5
17372
330
747D
100
AcDbEntity
  8
仕様書枠
 48
50.0
100
AcDbLine
 10
16307.2
 20
10049.6
 30
0.0
 11
13127.2
 21
10049.6
 31
0.0
  0
LINE
  5
17373
330
747D
100
AcDbEntity
  8
仕様書枠
 48
50.0
100
AcDbLine
 10
16307.2
 20
11409.6
 30
0.0
 11
13127.2
 21
11409.6
 31
0.0
  0
LINE
  5
17374
330
747D
100
AcDbEntity
  8
仕様書枠
 48
50.0
100
AcDbLine
 10
16307.19999999999
 20
8009.600000000007
 30
0.0
 11
16307.2
 21
11409.6
 31
0.0
  0
LINE
  5
17375
330
747D
100
AcDbEntity
  8
仕様書枠
 48
50.0
100
AcDbLine
 10
14785.2
 20
11409.6
 30
0.0
 11
14785.2
 21
8349.600000000007
 31
0.0
  0
LINE
  5
17376
330
747D
100
AcDbEntity
  8
仕様書枠
 48
50.0
100
AcDbLine
 10
13490.2
 20
11409.6
 30
0.0
 11
13490.20000000001
 21
8349.600000000007
 31
0.0
  0
LINE
  5
17377
330
747D
100
AcDbEntity
  8
仕様書枠
 48
50.0
100
AcDbLine
 10
16307.2
 20
11239.6
 30
0.0
 11
13127.2
 21
11239.6
 31
0.0
  0
LINE
  5
17378
330
747D
100
AcDbEntity
  8
仕様書枠
 48
50.0
100
AcDbLine
 10
16307.2
 20
10899.6
 30
0.0
 11
13127.2
 21
10899.6
 31
0.0
  0
LINE
  5
17379
330
747D
100
AcDbEntity
  8
仕様書枠
 48
50.0
100
AcDbLine
 10
16307.2
 20
11069.6
 30
0.0
 11
13127.2
 21
11069.6
 31
0.0
  0
LINE
  5
1737A
330
747D
100
AcDbEntity
  8
仕様書枠
 48
50.0
100
AcDbLine
 10
16307.19999999999
 20
10559.6
 30
0.0
 11
13127.2
 21
10559.6
 31
0.0
  0
LINE
  5
1737B
330
747D
100
AcDbEntity
  8
仕様書枠
 48
50.0
100
AcDbLine
 10
16307.19999999999
 20
10389.6
 30
0.0
 11
13127.2
 21
10389.6
 31
0.0
  0
LINE
  5
1737C
330
747D
100
AcDbEntity
  8
仕様書枠
 48
50.0
100
AcDbLine
 10
16307.19999999999
 20
10729.6
 30
0.0
 11
13127.2
 21
10729.6
 31
0.0
  0
TEXT
  5
1737D
330
747D
100
AcDbEntity
  8
文字
 62
     7
 48
50.0
100
AcDbText
 10
13197.42518560407
 20
11270.01374588373
 30
0.0
 40
100.0
  1
品番
  7
STYLE1
100
AcDbText
  0
TEXT
  5
1737E
330
747D
100
AcDbEntity
  8
文字
 62
     7
 48
50.0
100
AcDbText
 10
13271.19032244792
 20
11100.01374588373
 30
0.0
 40
100.0
  1
1
  7
STYLE1
100
AcDbText
  0
TEXT
  5
1737F
330
747D
100
AcDbEntity
  8
文字
 62
     7
 48
50.0
100
AcDbText
 10
13271.19032244792
 20
10930.01374588373
 30
0.0
 40
100.0
  1
2
  7
STYLE1
100
AcDbText
  0
TEXT
  5
17380
330
747D
100
AcDbEntity
  8
文字
 62
     7
 48
50.0
100
AcDbText
 10
13271.19032244792
 20
10590.01374588373
 30
0.0
 40
100.0
  1
4
  7
STYLE1
100
AcDbText
  0
TEXT
  5
17381
330
747D
100
AcDbEntity
  8
文字
 62
     7
 48
50.0
100
AcDbText
 10
13271.19032244792
 20
10760.01374588373
 30
0.0
 40
100.0
  1
3
  7
STYLE1
100
AcDbText
  0
TEXT
  5
17382
330
747D
100
AcDbEntity
  8
文字
 62
     7
 48
50.0
100
AcDbText
 10
13732.03840939434
 20
11270.01374588373
 30
0.0
 40
100.0
  1
部　　品　　名
  7
STYLE1
100
AcDbText
  0
TEXT
  5
17383
330
747D
100
AcDbEntity
  8
文字
 62
     7
 48
50.0
100
AcDbText
 10
14859.79774614482
 20
11270.01374588373
 30
0.0
 40
100.0
  1
材料（材質）　　単位mm
  7
STYLE1
100
AcDbText
  0
TEXT
  5
17384
330
747D
100
AcDbEntity
  8
文字
 62
     7
 48
50.0
100
AcDbText
 10
13583.11819016569
 20
11100.01374588373
 30
0.0
 40
100.0
  1
土台枠
  7
STYLE1
100
AcDbText
  0
TEXT
  5
17385
330
747D
100
AcDbEntity
  8
文字
 62
     7
 48
50.0
100
AcDbText
 10
13583.1181901657
 20
10760.01374588373
 30
0.0
 40
100.0
  1
柱
  7
STYLE1
100
AcDbText
  0
TEXT
  5
17386
330
747D
100
AcDbEntity
  8
文字
 62
     7
 48
50.0
100
AcDbText
 10
13583.11819016569
 20
10420.01374588373
 30
0.0
 40
100.0
  1
桁前後
  7
STYLE1
100
AcDbText
  0
TEXT
  5
17387
330
747D
100
AcDbEntity
  8
文字
 62
     7
 48
50.0
100
AcDbText
 10
13271.19032244792
 20
10420.01374588373
 30
0.0
 40
100.0
  1
5
  7
STYLE1
100
AcDbText
  0
TEXT
  5
17388
330
747D
100
AcDbEntity
  8
文字
 62
     7
 48
50.0
100
AcDbText
 10
13583.11819016569
 20
10250.01374588373
 30
0.0
 40
100.0
  1
妻板左右
  7
STYLE1
100
AcDbText
  0
TEXT
  5
17389
330
747D
100
AcDbEntity
  8
文字
 62
     7
 48
50.0
100
AcDbText
 10
13248.77747366447
 20
9570.013745883729
 30
0.0
 40
100.0
  1
10
  7
STYLE1
100
AcDbText
  0
TEXT
  5
1738A
330
747D
100
AcDbEntity
  8
文字
 62
     7
 48
50.0
100
AcDbText
 10
13583.11819016568
 20
9570.013745883729
 30
0.0
 40
100.0
  1
壁パネル
  7
STYLE1
100
AcDbText
  0
TEXT
  5
1738B
330
747D
100
AcDbEntity
  8
文字
 62
     7
 48
50.0
100
AcDbText
 10
13583.11819016569
 20
9910.01374588373
 30
0.0
 40
100.0
  1
屋根パネル
  7
STYLE1
100
AcDbText
  0
TEXT
  5
1738C
330
747D
100
AcDbEntity
  8
文字
 62
     7
 48
50.0
100
AcDbText
 10
13583.11819016569
 20
10080.01374588373
 30
0.0
 40
100.0
  1
鼻隠シ前後
  7
STYLE1
100
AcDbText
  0
TEXT
  5
1738D
330
747D
100
AcDbEntity
  8
文字
 62
     7
 48
50.0
100
AcDbText
 10
13271.19032244792
 20
9910.01374588373
 30
0.0
 40
100.0
  1
8
  7
STYLE1
100
AcDbText
  0
TEXT
  5
1738E
330
747D
100
AcDbEntity
  8
文字
 62
     7
 48
50.0
100
AcDbText
 10
13271.19032244792
 20
9740.013745883729
 30
0.0
 40
100.0
  1
9
  7
STYLE1
100
AcDbText
  0
TEXT
  5
1738F
330
747D
100
AcDbEntity
  8
文字
 62
     7
 48
50.0
100
AcDbText
 10
13271.19032244792
 20
10080.01374588373
 30
0.0
 40
100.0
  1
7
  7
STYLE1
100
AcDbText
  0
TEXT
  5
17390
330
747D
100
AcDbEntity
  8
文字
 62
     7
 48
50.0
100
AcDbText
 10
13271.19032244792
 20
10250.01374588373
 30
0.0
 40
100.0
  1
6
  7
STYLE1
100
AcDbText
  0
LINE
  5
17391
330
747D
100
AcDbEntity
  8
仕様書枠
 48
50.0
100
AcDbLine
 10
16307.19999999999
 20
9709.600000000001
 30
0.0
 11
13127.2
 21
9709.600000000001
 31
0.0
  0
LINE
  5
17392
330
747D
100
AcDbEntity
  8
仕様書枠
 48
50.0
100
AcDbLine
 10
16307.19999999999
 20
9369.600000000001
 30
0.0
 11
13127.2
 21
9369.600000000001
 31
0.0
  0
LINE
  5
17393
330
747D
100
AcDbEntity
  8
仕様書枠
 48
50.0
100
AcDbLine
 10
16307.19999999999
 20
9539.6
 30
0.0
 11
13127.2
 21
9539.6
 31
0.0
  0
LINE
  5
17394
330
747D
100
AcDbEntity
  8
仕様書枠
 48
50.0
100
AcDbLine
 10
16307.2
 20
10219.6
 30
0.0
 11
13127.2
 21
10219.6
 31
0.0
  0
LINE
  5
17395
330
747D
100
AcDbEntity
  8
仕様書枠
 48
50.0
100
AcDbLine
 10
16307.2
 20
9879.600000000001
 30
0.0
 11
13127.2
 21
9879.600000000001
 31
0.0
  0
TEXT
  5
17396
330
747D
100
AcDbEntity
  8
文字
 62
     7
 48
50.0
100
AcDbText
 10
13248.77747366447
 20
9400.013745883729
 30
0.0
 40
100.0
  1
11
  7
STYLE1
100
AcDbText
  0
LINE
  5
17397
330
747D
100
AcDbEntity
  8
仕様書枠
 48
50.0
100
AcDbLine
 10
16307.19999999999
 20
9199.600000000001
 30
0.0
 11
13127.2
 21
9199.600000000001
 31
0.0
  0
LINE
  5
17398
330
747D
100
AcDbEntity
  8
仕様書枠
 48
50.0
100
AcDbLine
 10
16307.19999999999
 20
8859.6
 30
0.0
 11
13127.2
 21
8859.600000000005
 31
0.0
  0
TEXT
  5
17399
330
747D
100
AcDbEntity
  8
文字
 62
     7
 48
50.0
100
AcDbText
 10
13248.77747366448
 20
9060.013745883729
 30
0.0
 40
100.0
  1
13
  7
STYLE1
100
AcDbText
  0
TEXT
  5
1739A
330
747D
100
AcDbEntity
  8
文字
 62
     7
 48
50.0
100
AcDbText
 10
13248.77747366448
 20
9230.013745883729
 30
0.0
 40
100.0
  1
12
  7
STYLE1
100
AcDbText
  0
TEXT
  5
1739B
330
747D
100
AcDbEntity
  8
文字
 62
     7
 48
50.0
100
AcDbText
 10
15022.63965474517
 20
11100.01374588373
 30
0.0
 40
100.0
  1
F12            1.2
  7
STYLE1
100
AcDbText
  0
TEXT
  5
1739C
330
747D
100
AcDbEntity
  8
文字
 62
     7
 48
50.0
100
AcDbText
 10
15022.63965474518
 20
10760.01374588373
 30
0.0
 40
100.0
  1
F12            1.0
  7
STYLE1
100
AcDbText
  0
TEXT
  5
1739D
330
747D
100
AcDbEntity
  8
文字
 62
     7
 48
50.0
100
AcDbText
 10
15022.63965474516
 20
10420.01374588373
 30
0.0
 40
100.0
  1
Y10            1.0
  7
STYLE1
100
AcDbText
  0
TEXT
  5
1739E
330
747D
100
AcDbEntity
  8
文字
 62
     7
 48
50.0
100
AcDbText
 10
15022.63965474516
 20
10250.01374588373
 30
0.0
 40
100.0
  1
Y10            0.7
  7
STYLE1
100
AcDbText
  0
TEXT
  5
1739F
330
747D
100
AcDbEntity
  8
文字
 62
     7
 48
50.0
100
AcDbText
 10
15022.63965474516
 20
10080.01374588373
 30
0.0
 40
100.0
  1
Y10            0.7
  7
STYLE1
100
AcDbText
  0
TEXT
  5
173A0
330
747D
100
AcDbEntity
  8
文字
 62
     7
 48
50.0
100
AcDbText
 10
15022.63965474517
 20
9910.01374588373
 30
0.0
 40
100.0
  1
Y10            0.5
  7
STYLE1
100
AcDbText
  0
TEXT
  5
173A1
330
747D
100
AcDbEntity
  8
文字
 62
     7
 48
50.0
100
AcDbText
 10
15022.63965474515
 20
9570.013745883729
 30
0.0
 40
100.0
  1
F12            0.6
  7
STYLE1
100
AcDbText
  0
LINE
  5
173A2
330
747D
100
AcDbEntity
  8
仕様書枠
 48
50.0
100
AcDbLine
 10
16307.19999999999
 20
8349.600000000007
 30
0.0
 11
13127.19999999999
 21
8349.600000000007
 31
0.0
  0
LINE
  5
173A3
330
747D
100
AcDbEntity
  8
仕様書枠
 48
50.0
100
AcDbLine
 10
16307.19999999999
 20
8179.600000000007
 30
0.0
 11
13127.19999999999
 21
8179.600000000007
 31
0.0
  0
TEXT
  5
173A4
330
747D
100
AcDbEntity
  8
文字
 62
     7
 48
50.0
100
AcDbText
 10
13229.83081656554
 20
8210.013745883737
 30
0.0
 40
100.0
  1
F12→溶融亜鉛めっき鋼板(JIS G 3302)
  7
STYLE1
100
AcDbText
  0
TEXT
  5
173A5
330
747D
100
AcDbEntity
  8
文字
 62
     7
 48
50.0
100
AcDbText
 10
13229.83081656554
 20
8040.013745883737
 30
0.0
 40
100.0
  1
Y10→溶融亜鉛-5％アルミニウム合金めっき鋼板(JIS G 3317)
 41
0.9
  7
STYLE1
100
AcDbText
  0
LINE
  5
173A6
330
747D
100
AcDbEntity
  8
仕様書枠
 48
50.0
100
AcDbLine
 10
13127.2
 20
11409.6
 30
0.0
 11
13127.19999999999
 21
8009.600000000007
 31
0.0
  0
LINE
  5
173A7
330
747D
100
AcDbEntity
  8
仕様書枠
 48
50.0
100
AcDbLine
 10
16307.19999999999
 20
9029.6
 30
0.0
 11
13127.2
 21
9029.600000000003
 31
0.0
  0
TEXT
  5
173A8
330
747D
100
AcDbEntity
  8
文字
 62
     7
 48
50.0
100
AcDbText
 10
13583.1181901657
 20
10590.01374588373
 30
0.0
 40
100.0
  1
床パネル
 41
0.9
  7
STYLE1
100
AcDbText
  0
TEXT
  5
173A9
330
747D
100
AcDbEntity
  8
文字
 62
     7
 48
50.0
100
AcDbText
 10
13583.11819016569
 20
10930.01374588373
 30
0.0
 40
100.0
  1
根太
  7
STYLE1
100
AcDbText
  0
TEXT
  5
173AA
330
747D
100
AcDbEntity
  8
文字
 62
     7
 48
50.0
100
AcDbText
 10
13248.77747366448
 20
8890.013745883729
 30
0.0
 40
100.0
  1
14
  7
STYLE1
100
AcDbText
  0
TEXT
  5
173AB
330
747D
100
AcDbEntity
  8
文字
 62
     7
 48
50.0
100
AcDbText
 10
15022.63965474516
 20
10930.01374588373
 30
0.0
 40
100.0
  1
F12            1.2
  7
STYLE1
100
AcDbText
  0
TEXT
  5
173AC
330
747D
100
AcDbEntity
  8
文字
 62
     7
 48
50.0
100
AcDbText
 10
15022.63965474517
 20
10590.01374588373
 30
0.0
 40
100.0
  1
F12            1.0
  7
STYLE1
100
AcDbText
  0
TEXT
  5
173AD
330
747D
100
AcDbEntity
  8
文字
 62
     7
 48
50.0
100
AcDbText
 10
15022.63965474515
 20
8890.013745883729
 30
0.0
 40
100.0
  1
F12            0.7
  7
STYLE1
100
AcDbText
  0
TEXT
  5
173AE
330
747D
100
AcDbEntity
  8
文字
 62
     7
 48
50.0
100
AcDbText
 10
13583.11819016568
 20
8890.013745883733
 30
0.0
 40
100.0
  1
正面パネル
  7
STYLE1
100
AcDbText
  0
TEXT
  5
173AF
330
747D
100
AcDbEntity
  8
文字
 62
     7
 48
50.0
100
AcDbText
 10
15022.63965474516
 20
8720.013745883729
 30
0.0
 40
100.0
  1
F12            0.8
  7
STYLE1
100
AcDbText
  0
TEXT
  5
173B0
330
747D
100
AcDbEntity
  8
文字
 62
     7
 48
50.0
100
AcDbText
 10
13583.11819016569
 20
8720.013745883733
 30
0.0
 40
100.0
  1
扉
  7
STYLE1
100
AcDbText
  0
LINE
  5
173B1
330
747D
100
AcDbEntity
  8
仕様書枠
 48
50.0
100
AcDbLine
 10
16307.19999999999
 20
8009.600000000007
 30
0.0
 11
13127.19999999999
 21
8009.600000000007
 31
0.0
  0
TEXT
  5
173B2
330
747D
100
AcDbEntity
  8
文字
 62
     7
 48
50.0
100
AcDbText
 10
13248.77747366447
 20
8720.013745883729
 30
0.0
 40
100.0
  1
15
  7
STYLE1
100
AcDbText
  0
TEXT
  5
173B3
330
747D
100
AcDbEntity
  8
文字
 62
     7
 48
50.0
100
AcDbText
 10
13583.11819016569
 20
9740.013745883729
 30
0.0
 40
100.0
  1
母屋中
  7
STYLE1
100
AcDbText
  0
TEXT
  5
173B4
330
747D
100
AcDbEntity
  8
文字
 62
     7
 48
50.0
100
AcDbText
 10
15022.63965474515
 20
9740.013745883725
 30
0.0
 40
100.0
  1
F12            1.0
  7
STYLE1
100
AcDbText
  0
TEXT
  5
173B5
330
747D
100
AcDbEntity
  8
文字
 62
     7
 48
50.0
100
AcDbText
 10
15022.63965474516
 20
8550.013745883729
 30
0.0
 40
100.0
  1
F12            0.6
  7
STYLE1
100
AcDbText
  0
TEXT
  5
173B6
330
747D
100
AcDbEntity
  8
文字
 62
     7
 48
50.0
100
AcDbText
 10
13583.11819016569
 20
8550.013745883733
 30
0.0
 40
100.0
  1
棚板
  7
STYLE1
100
AcDbText
  0
DIMENSION
  5
173FB
330
747D
100
AcDbEntity
  8
寸法
100
AcDbDimension
  2
*D23
 10
11363.05777723005
 20
4621.208819850401
 30
0.0
 11
11363.05777723005
 21
3583.465147280087
 31
0.0
 70
   160
 71
     5
 42
2020.000000000003
  3
INABA_S40G
100
AcDbAlignedDimension
 13
10827.88768146763
 23
2601.208819850399
 33
0.0
 14
10907.88768146761
 24
4621.208819850401
 34
0.0
 50
90.0
100
AcDbRotatedDimension
1001
ACAD
1000
DSTYLE
1002
{
1070
   174
1070
     0
1070
   272
1070
     1
1070
   288
1070
     0
1070
   341
1005
0
1002
}
  0
LINE
  5
176BD
330
747D
100
AcDbEntity
  8
補助
  6
PHANTOM
 62
   230
 48
50.0
100
AcDbLine
 10
140.0
 20
0.0
 30
0.0
 11
140.0
 21
11409.6
 31
0.0
  0
LINE
  5
17841
330
747D
100
AcDbEntity
  8
部品1
100
AcDbLine
 10
10799.88768146764
 20
7814.400123615566
 30
0.0
 11
10827.88768146764
 21
7814.400123615566
 31
0.0
  0
LINE
  5
17842
330
747D
100
AcDbEntity
  8
部品1
100
AcDbLine
 10
8225.887681467616
 20
7814.400123615438
 30
0.0
 11
8197.887681467616
 21
7814.400123615438
 31
0.0
  0
LINE
  5
17843
330
747D
100
AcDbEntity
  8
部品1
100
AcDbLine
 10
10771.38768146762
 20
7814.40012361554
 30
0.0
 11
8254.387681467624
 21
7814.400123615438
 31
0.0
  0
TEXT
  5
17A6E
330
747D
100
AcDbEntity
  8
部品1
100
AcDbText
 10
3266.928055328896
 20
2537.315723456301
 30
0.0
 40
125.0
  1
▽G.L
  7
STYLE2
100
AcDbText
  0
TEXT
  5
17A6F
330
747D
100
AcDbEntity
  8
部品1
100
AcDbText
 10
4884.138103679481
 20
1619.277027654466
 30
0.0
 40
135.0
  1
側面図
  7
STYLE2
100
AcDbText
  0
LINE
  5
17A70
330
747D
100
AcDbEntity
  8
部品1
100
AcDbLine
 10
4794.692002255874
 20
1812.17055687299
 30
0.0
 11
4794.692002255874
 21
1572.278235327458
 31
0.0
  0
LINE
  5
17A71
330
747D
100
AcDbEntity
  8
部品1
100
AcDbLine
 10
4794.692002255874
 20
1572.278235327458
 30
0.0
 11
5558.16266848431
 21
1572.278235327458
 31
0.0
  0
LINE
  5
17A72
330
747D
100
AcDbEntity
  8
部品1
100
AcDbLine
 10
5558.16266848431
 20
1572.278235327458
 30
0.0
 11
5558.16266848431
 21
1812.17055687299
 31
0.0
  0
LINE
  5
17A73
330
747D
100
AcDbEntity
  8
部品1
100
AcDbLine
 10
5558.16266848431
 20
1812.17055687299
 30
0.0
 11
4794.692002255874
 21
1812.17055687299
 31
0.0
  0
LINE
  5
17A74
330
747D
100
AcDbEntity
  8
部品1
100
AcDbLine
 10
4281.427335370092
 20
4441.208819850398
 30
0.0
 11
6071.427335370092
 21
4441.208819850398
 31
0.0
  0
LINE
  5
17A75
330
747D
100
AcDbEntity
  8
部品1
100
AcDbLine
 10
4281.427335370092
 20
2651.208819850399
 30
0.0
 11
6071.427335370096
 21
2651.208819850399
 31
0.0
  0
LINE
  5
17A76
330
747D
100
AcDbEntity
  8
部品1
100
AcDbLine
 10
4281.427335370092
 20
2601.208819850399
 30
0.0
 11
4288.927335370092
 21
2601.208819850399
 31
0.0
  0
LINE
  5
17A77
330
747D
100
AcDbEntity
  8
部品1
100
AcDbLine
 10
4336.427335370092
 20
4441.208819850398
 30
0.0
 11
4336.427335370092
 21
2651.208819850399
 31
0.0
  0
LINE
  5
17A78
330
747D
100
AcDbEntity
  8
部品1
100
AcDbLine
 10
4281.427335370092
 20
4535.208819850402
 30
0.0
 11
4281.427335370092
 21
2501.208819850399
 31
0.0
  0
LINE
  5
17A79
330
747D
100
AcDbEntity
  8
部品1
100
AcDbLine
 10
4756.427335370092
 20
4441.208819850398
 30
0.0
 11
4756.427335370092
 21
2651.208819850399
 31
0.0
  0
LINE
  5
17A7A
330
747D
100
AcDbEntity
  8
部品1
100
AcDbLine
 10
6071.427335370092
 20
4535.208819850406
 30
0.0
 11
6071.427335370096
 21
2501.208819850399
 31
0.0
  0
LINE
  5
17A7B
330
747D
100
AcDbEntity
  8
部品1
100
AcDbLine
 10
6016.427335370096
 20
4441.208819850398
 30
0.0
 11
6016.427335370096
 21
2651.208819850399
 31
0.0
  0
LINE
  5
17A7C
330
747D
100
AcDbEntity
  8
破線
  6
HIDDEN
 48
5.0
100
AcDbLine
 10
6078.927335370092
 20
2346.208819850399
 30
0.0
 11
6008.927335370092
 21
2346.208819850399
 31
0.0
  0
LINE
  5
17A7D
330
747D
100
AcDbEntity
  8
破線
  6
HIDDEN
 48
5.0
100
AcDbLine
 10
6023.927335370093
 20
2496.208819850399
 30
0.0
 11
6008.927335370092
 21
2348.508819850398
 31
0.0
  0
LINE
  5
17A7E
330
747D
100
AcDbEntity
  8
破線
  6
HIDDEN
 48
5.0
100
AcDbLine
 10
6008.927335370092
 20
2348.508819850398
 30
0.0
 11
6008.927335370092
 21
2346.208819850399
 31
0.0
  0
LINE
  5
17A7F
330
747D
100
AcDbEntity
  8
破線
  6
HIDDEN
 48
5.0
100
AcDbLine
 10
6063.927335370092
 20
2496.208819850399
 30
0.0
 11
6078.927335370092
 21
2348.508819850398
 31
0.0
  0
LINE
  5
17A80
330
747D
100
AcDbEntity
  8
破線
  6
HIDDEN
 48
5.0
100
AcDbLine
 10
6078.927335370092
 20
2348.508819850398
 30
0.0
 11
6078.927335370092
 21
2346.208819850399
 31
0.0
  0
LINE
  5
17A81
330
747D
100
AcDbEntity
  8
破線
  6
HIDDEN
 48
5.0
100
AcDbLine
 10
4273.927335370092
 20
2346.208819850399
 30
0.0
 11
4343.927335370092
 21
2346.208819850399
 31
0.0
  0
LINE
  5
17A82
330
747D
100
AcDbEntity
  8
破線
  6
HIDDEN
 48
5.0
100
AcDbLine
 10
4273.927335370092
 20
2348.508819850398
 30
0.0
 11
4273.927335370092
 21
2346.208819850399
 31
0.0
  0
LINE
  5
17A83
330
747D
100
AcDbEntity
  8
破線
  6
HIDDEN
 48
5.0
100
AcDbLine
 10
4343.927335370092
 20
2348.508819850398
 30
0.0
 11
4343.927335370092
 21
2346.208819850399
 31
0.0
  0
LINE
  5
17A84
330
747D
100
AcDbEntity
  8
破線
  6
HIDDEN
 48
5.0
100
AcDbLine
 10
4288.927335370092
 20
2496.208819850399
 30
0.0
 11
4273.927335370092
 21
2348.508819850398
 31
0.0
  0
LINE
  5
17A85
330
747D
100
AcDbEntity
  8
破線
  6
HIDDEN
 48
5.0
100
AcDbLine
 10
4328.927335370091
 20
2496.208819850399
 30
0.0
 11
4343.927335370092
 21
2348.508819850398
 31
0.0
  0
LINE
  5
17A86
330
747D
100
AcDbEntity
  8
部品1
 48
50.0
100
AcDbLine
 10
4288.927335370092
 20
2641.208819850399
 30
0.0
 11
4288.927335370092
 21
2501.208819850399
 31
0.0
  0
LINE
  5
17A87
330
747D
100
AcDbEntity
  8
部品1
 48
50.0
100
AcDbLine
 10
4328.927335370091
 20
2641.208819850399
 30
0.0
 11
4328.927335370091
 21
2501.208819850399
 31
0.0
  0
LINE
  5
17A88
330
747D
100
AcDbEntity
  8
部品1
100
AcDbLine
 10
4293.927335370091
 20
2646.208819850399
 30
0.0
 11
4323.927335370091
 21
2646.208819850399
 31
0.0
  0
ARC
  5
17A89
330
747D
100
AcDbEntity
  8
部品1
 48
50.0
100
AcDbCircle
 10
4293.927335370091
 20
2641.208819850399
 30
0.0
 40
5.0
100
AcDbArc
 50
90.0
 51
180.0
  0
ARC
  5
17A8A
330
747D
100
AcDbEntity
  8
部品1
 48
50.0
100
AcDbCircle
 10
4323.927335370091
 20
2641.208819850399
 30
0.0
 40
5.0
100
AcDbArc
 50
0.0
 51
90.0
  0
LINE
  5
17A8B
330
747D
100
AcDbEntity
  8
部品1
 48
50.0
100
AcDbLine
 10
6023.927335370093
 20
2641.208819850399
 30
0.0
 11
6023.927335370093
 21
2501.208819850399
 31
0.0
  0
LINE
  5
17A8C
330
747D
100
AcDbEntity
  8
部品1
 48
50.0
100
AcDbLine
 10
6063.927335370092
 20
2641.208819850399
 30
0.0
 11
6063.927335370092
 21
2501.208819850399
 31
0.0
  0
LINE
  5
17A8D
330
747D
100
AcDbEntity
  8
部品1
100
AcDbLine
 10
6058.927335370092
 20
2646.208819850399
 30
0.0
 11
6028.927335370092
 21
2646.208819850399
 31
0.0
  0
ARC
  5
17A8E
330
747D
100
AcDbEntity
  8
部品1
 48
50.0
100
AcDbCircle
 10
6028.927335370092
 20
2641.208819850399
 30
0.0
 40
5.0
100
AcDbArc
 50
90.0
 51
180.0
  0
ARC
  5
17A8F
330
747D
100
AcDbEntity
  8
部品1
 48
50.0
100
AcDbCircle
 10
6058.927335370092
 20
2641.208819850399
 30
0.0
 40
5.0
100
AcDbArc
 50
0.0
 51
90.0
  0
LINE
  5
17A90
330
747D
100
AcDbEntity
  8
破線
  6
HIDDEN
 48
5.0
100
AcDbLine
 10
6023.927335370093
 20
2501.208819850399
 30
0.0
 11
6023.927335370093
 21
2496.208819850399
 31
0.0
  0
LINE
  5
17A91
330
747D
100
AcDbEntity
  8
破線
  6
HIDDEN
 48
5.0
100
AcDbLine
 10
6063.927335370092
 20
2501.208819850399
 30
0.0
 11
6063.927335370092
 21
2496.208819850399
 31
0.0
  0
LINE
  5
17A92
330
747D
100
AcDbEntity
  8
破線
  6
HIDDEN
 48
5.0
100
AcDbLine
 10
4288.927335370099
 20
2501.208819850399
 30
0.0
 11
4288.927335370099
 21
2496.208819850399
 31
0.0
  0
LINE
  5
17A93
330
747D
100
AcDbEntity
  8
破線
  6
HIDDEN
 48
5.0
100
AcDbLine
 10
4328.927335370091
 20
2501.208819850399
 30
0.0
 11
4328.927335370091
 21
2496.208819850399
 31
0.0
  0
LINE
  5
17A94
330
747D
100
AcDbEntity
  8
部品1
100
AcDbLine
 10
6063.927335370092
 20
2601.208819850399
 30
0.0
 11
6071.427335370096
 21
2601.208819850399
 31
0.0
  0
LINE
  5
17A95
330
747D
100
AcDbEntity
  8
部品1
100
AcDbLine
 10
4328.927335370091
 20
2601.208819850399
 30
0.0
 11
6023.927335370093
 21
2601.208819850399
 31
0.0
  0
LINE
  5
17A96
330
747D
100
AcDbEntity
  8
細線
 48
50.0
100
AcDbLine
 10
4833.927335370091
 20
4441.208819850398
 30
0.0
 11
4833.927335370091
 21
2651.208819850399
 31
0.0
  0
LINE
  5
17A97
330
747D
100
AcDbEntity
  8
細線
 48
50.0
100
AcDbLine
 10
4818.927335370092
 20
4441.208819850398
 30
0.0
 11
4818.927335370092
 21
2651.208819850399
 31
0.0
  0
LINE
  5
17A98
330
747D
100
AcDbEntity
  8
細線
 48
50.0
100
AcDbLine
 10
4958.927335370091
 20
4441.208819850398
 30
0.0
 11
4958.927335370091
 21
2651.208819850399
 31
0.0
  0
LINE
  5
17A99
330
747D
100
AcDbEntity
  8
細線
 48
50.0
100
AcDbLine
 10
4973.927335370092
 20
4441.208819850398
 30
0.0
 11
4973.927335370092
 21
2651.208819850399
 31
0.0
  0
LINE
  5
17A9A
330
747D
100
AcDbEntity
  8
細線
 48
50.0
100
AcDbLine
 10
5113.927335370092
 20
4441.208819850398
 30
0.0
 11
5113.927335370092
 21
2651.208819850399
 31
0.0
  0
LINE
  5
17A9B
330
747D
100
AcDbEntity
  8
細線
 48
50.0
100
AcDbLine
 10
5098.927335370092
 20
4441.208819850398
 30
0.0
 11
5098.927335370092
 21
2651.208819850399
 31
0.0
  0
LINE
  5
17A9C
330
747D
100
AcDbEntity
  8
細線
 48
50.0
100
AcDbLine
 10
4678.927335370092
 20
4441.208819850398
 30
0.0
 11
4678.927335370092
 21
2651.208819850399
 31
0.0
  0
LINE
  5
17A9D
330
747D
100
AcDbEntity
  8
細線
 48
50.0
100
AcDbLine
 10
4693.927335370092
 20
4441.208819850398
 30
0.0
 11
4693.927335370092
 21
2651.208819850399
 31
0.0
  0
LINE
  5
17A9E
330
747D
100
AcDbEntity
  8
細線
 48
50.0
100
AcDbLine
 10
4553.927335370092
 20
4441.208819850398
 30
0.0
 11
4553.927335370092
 21
2651.208819850399
 31
0.0
  0
LINE
  5
17A9F
330
747D
100
AcDbEntity
  8
細線
 48
50.0
100
AcDbLine
 10
4538.927335370092
 20
4441.208819850398
 30
0.0
 11
4538.927335370092
 21
2651.208819850399
 31
0.0
  0
LINE
  5
17AA0
330
747D
100
AcDbEntity
  8
細線
 48
50.0
100
AcDbLine
 10
4398.927335370092
 20
4441.208819850398
 30
0.0
 11
4398.927335370092
 21
2651.208819850399
 31
0.0
  0
LINE
  5
17AA1
330
747D
100
AcDbEntity
  8
細線
 48
50.0
100
AcDbLine
 10
4413.927335370092
 20
4441.208819850398
 30
0.0
 11
4413.927335370092
 21
2651.208819850399
 31
0.0
  0
LINE
  5
17AA2
330
747D
100
AcDbEntity
  8
部品1
100
AcDbLine
 10
5176.427335370092
 20
4441.208819850398
 30
0.0
 11
5176.427335370092
 21
2651.208819850399
 31
0.0
  0
LINE
  5
17AA3
330
747D
100
AcDbEntity
  8
細線
 48
50.0
100
AcDbLine
 10
5518.927335370095
 20
4441.208819850398
 30
0.0
 11
5518.927335370095
 21
2651.208819850399
 31
0.0
  0
LINE
  5
17AA4
330
747D
100
AcDbEntity
  8
細線
 48
50.0
100
AcDbLine
 10
5533.927335370095
 20
4441.208819850398
 30
0.0
 11
5533.927335370095
 21
2651.208819850399
 31
0.0
  0
LINE
  5
17AA5
330
747D
100
AcDbEntity
  8
細線
 48
50.0
100
AcDbLine
 10
5393.927335370095
 20
4441.208819850398
 30
0.0
 11
5393.927335370095
 21
2651.208819850399
 31
0.0
  0
LINE
  5
17AA6
330
747D
100
AcDbEntity
  8
細線
 48
50.0
100
AcDbLine
 10
5378.927335370096
 20
4441.208819850398
 30
0.0
 11
5378.927335370096
 21
2651.208819850399
 31
0.0
  0
LINE
  5
17AA7
330
747D
100
AcDbEntity
  8
細線
 48
50.0
100
AcDbLine
 10
5238.927335370096
 20
4441.208819850398
 30
0.0
 11
5238.927335370096
 21
2651.208819850399
 31
0.0
  0
LINE
  5
17AA8
330
747D
100
AcDbEntity
  8
細線
 48
50.0
100
AcDbLine
 10
5253.927335370096
 20
4441.208819850398
 30
0.0
 11
5253.927335370096
 21
2651.208819850399
 31
0.0
  0
LINE
  5
17AA9
330
747D
100
AcDbEntity
  8
部品1
100
AcDbLine
 10
5596.427335370091
 20
4441.208819850398
 30
0.0
 11
5596.427335370091
 21
2651.208819850399
 31
0.0
  0
LINE
  5
17AAA
330
747D
100
AcDbEntity
  8
細線
 48
50.0
100
AcDbLine
 10
5673.927335370099
 20
4441.208819850398
 30
0.0
 11
5673.927335370099
 21
2651.208819850399
 31
0.0
  0
LINE
  5
17AAB
330
747D
100
AcDbEntity
  8
細線
 48
50.0
100
AcDbLine
 10
5658.927335370099
 20
4441.208819850398
 30
0.0
 11
5658.927335370099
 21
2651.208819850399
 31
0.0
  0
LINE
  5
17AAC
330
747D
100
AcDbEntity
  8
細線
 48
50.0
100
AcDbLine
 10
5798.927335370099
 20
4441.208819850398
 30
0.0
 11
5798.927335370099
 21
2651.208819850399
 31
0.0
  0
LINE
  5
17AAD
330
747D
100
AcDbEntity
  8
細線
 48
50.0
100
AcDbLine
 10
5813.927335370099
 20
4441.208819850398
 30
0.0
 11
5813.927335370099
 21
2651.208819850399
 31
0.0
  0
LINE
  5
17AAE
330
747D
100
AcDbEntity
  8
細線
 48
50.0
100
AcDbLine
 10
5953.927335370099
 20
4441.208819850398
 30
0.0
 11
5953.927335370099
 21
2651.208819850399
 31
0.0
  0
LINE
  5
17AAF
330
747D
100
AcDbEntity
  8
細線
 48
50.0
100
AcDbLine
 10
5938.927335370099
 20
4441.208819850398
 30
0.0
 11
5938.927335370099
 21
2651.208819850399
 31
0.0
  0
DIMENSION
  5
17AB0
330
747D
100
AcDbEntity
  8
寸法
 48
50.0
100
AcDbDimension
  2
*D24
 10
4059.427332123457
 20
2501.208819850399
 30
0.0
 11
4059.427332123457
 21
2401.2088198504
 31
0.0
 70
   160
 71
     5
 42
200.0
  3
INABA_S40G
100
AcDbAlignedDimension
 13
4208.927335370095
 23
2301.208819850399
 33
0.0
 14
4183.927335370092
 24
2501.208819850399
 34
0.0
 50
90.0
100
AcDbRotatedDimension
1001
ACAD
1000
DSTYLE
1002
{
1070
   174
1070
     0
1070
   272
1070
     1
1070
   288
1070
     0
1070
   341
1005
0
1002
}
  0
LINE
  5
17AB1
330
747D
100
AcDbEntity
  8
破線
 48
5.0
100
AcDbLine
 10
4408.927335370091
 20
2301.208819850399
 30
0.0
 11
4208.927335370095
 21
2301.208819850399
 31
0.0
  0
LINE
  5
17AB2
330
747D
100
AcDbEntity
  8
破線
 48
5.0
100
AcDbLine
 10
4408.927335370091
 20
2501.208819850399
 30
0.0
 11
4408.927335370091
 21
2301.208819850399
 31
0.0
  0
LINE
  5
17AB3
330
747D
100
AcDbEntity
  8
破線
 48
5.0
100
AcDbLine
 10
4208.927335370091
 20
2501.208819850399
 30
0.0
 11
4208.927335370095
 21
2301.208819850399
 31
0.0
  0
DIMENSION
  5
17AB4
330
747D
100
AcDbEntity
  8
寸法
 48
50.0
100
AcDbDimension
  2
*D25
 10
4208.927335370095
 20
2015.161490550021
 30
0.0
 11
4308.927335370094
 21
2015.161490550021
 31
0.0
 70
   160
 71
     5
 42
199.9999999999963
  3
INABA_S40G
100
AcDbAlignedDimension
 13
4408.927335370091
 23
2301.208819850397
 33
0.0
 14
4208.927335370095
 24
2301.208819850399
 34
0.0
100
AcDbRotatedDimension
  0
LINE
  5
17AB5
330
747D
100
AcDbEntity
  8
破線
 48
5.0
100
AcDbLine
 10
6143.927335370099
 20
2501.208819850399
 30
0.0
 11
6143.927335370095
 21
2301.208819850399
 31
0.0
  0
LINE
  5
17AB6
330
747D
100
AcDbEntity
  8
破線
 48
5.0
100
AcDbLine
 10
6143.927335370095
 20
2301.208819850399
 30
0.0
 11
5943.927335370099
 21
2301.208819850399
 31
0.0
  0
LINE
  5
17AB7
330
747D
100
AcDbEntity
  8
破線
 48
5.0
100
AcDbLine
 10
5943.927335370099
 20
2501.208819850399
 30
0.0
 11
5943.927335370099
 21
2301.208819850399
 31
0.0
  0
LINE
  5
17AB8
330
747D
100
AcDbEntity
  8
部品1
 48
50.0
100
AcDbLine
 10
6071.427335370096
 20
4436.2088198504
 30
0.0
 11
6148.427335370096
 21
4426.2088198504
 31
0.0
  0
LINE
  5
17AB9
330
747D
100
AcDbEntity
  8
部品1
 48
50.0
100
AcDbLine
 10
6148.427335370096
 20
4426.2088198504
 30
0.0
 11
6148.427335370096
 21
2501.208819850399
 31
0.0
  0
LINE
  5
17ABA
330
747D
100
AcDbEntity
  8
部品1
 48
50.0
100
AcDbLine
 10
6148.427335370096
 20
2601.208819850399
 30
0.0
 11
6063.927335370095
 21
2601.208819850399
 31
0.0
  0
LINE
  5
17ABB
330
747D
100
AcDbEntity
  8
部品1
100
AcDbLine
 10
5871.427335370092
 20
2601.208819850399
 30
0.0
 11
5871.427335370092
 21
2501.208819850399
 31
0.0
  0
LINE
  5
17ABC
330
747D
100
AcDbEntity
  8
部品1
 48
50.0
100
AcDbLine
 10
5276.427335370092
 20
2601.208819850399
 30
0.0
 11
5276.427335370092
 21
2501.208819850399
 31
0.0
  0
LINE
  5
17ABD
330
747D
100
AcDbEntity
  8
部品1
 48
50.0
100
AcDbLine
 10
5076.427335370092
 20
2601.208819850399
 30
0.0
 11
5076.427335370092
 21
2501.208819850399
 31
0.0
  0
LINE
  5
17ABE
330
747D
100
AcDbEntity
  8
部品1
100
AcDbLine
 10
4481.427335370091
 20
2601.208819850399
 30
0.0
 11
4481.427335370091
 21
2501.208819850399
 31
0.0
  0
DIMENSION
  5
17ABF
330
747D
100
AcDbEntity
  8
寸法
 48
50.0
100
AcDbDimension
  2
*D26
 10
4281.427335370099
 20
5080.829079277672
 30
0.0
 11
5176.427335370092
 21
5080.829079277672
 31
0.0
 70
   160
  1
柱外寸法<>
 71
     5
 42
1789.999999999989
  3
INABA_S40G
100
AcDbAlignedDimension
 13
6071.427335370088
 23
4676.208819850404
 33
0.0
 14
4281.427335370099
 24
4676.208819850406
 34
0.0
100
AcDbRotatedDimension
  0
DIMENSION
  5
17AC0
330
747D
100
AcDbEntity
  8
寸法
 48
50.0
100
AcDbDimension
  2
*D27
 10
6121.427335370088
 20
5290.422953699122
 30
0.0
 11
5176.427335370092
 21
5290.422953699122
 31
0.0
 70
   160
 71
     5
 42
1889.999999999989
  3
INABA_S40G
100
AcDbAlignedDimension
 13
4231.427335370098
 23
4676.208819850404
 33
0.0
 14
6121.427335370088
 24
4676.208819850402
 34
0.0
100
AcDbRotatedDimension
  0
DIMENSION
  5
17AC1
330
747D
100
AcDbEntity
  8
寸法
 48
50.0
100
AcDbDimension
  2
*D28
 10
4231.427335370098
 20
5080.829079277672
 30
0.0
 11
3917.942053995852
 21
5080.829079277672
 31
0.0
 70
   160
 71
     5
 42
50.0
  3
INABA_S40G
100
AcDbAlignedDimension
 13
4281.427335370099
 23
4676.208819850406
 33
0.0
 14
4231.427335370098
 24
4676.208819850404
 34
0.0
100
AcDbRotatedDimension
1001
ACAD
1000
DSTYLE
1002
{
1002
}
  0
LINE
  5
17AC2
330
747D
100
AcDbEntity
  8
細線
 48
50.0
100
AcDbLine
 10
4264.4273353701
 20
4676.208819850402
 30
0.0
 11
4264.4273353701
 21
4535.208819850402
 31
0.0
  0
ARC
  5
17AC3
330
747D
100
AcDbEntity
  8
部品1
100
AcDbCircle
 10
4238.835756476524
 20
4669.208819850402
 30
0.0
 40
7.0
100
AcDbArc
 50
90.0
 51
183.2473427903317
  0
ARC
  5
17AC4
330
747D
100
AcDbEntity
  8
部品1
100
AcDbCircle
 10
4252.051079937563
 20
4542.208819850406
 30
0.0
 40
7.0
100
AcDbArc
 50
183.2473427903317
 51
270.0
  0
ARC
  5
17AC5
330
747D
100
AcDbEntity
  8
部品1
 48
50.0
100
AcDbCircle
 10
4233.679269726883
 20
4648.875819012089
 30
0.0
 40
0.7
100
AcDbArc
 50
183.2473427903838
 51
262.3418727926349
  0
ARC
  5
17AC6
330
747D
100
AcDbEntity
  8
部品1
 48
50.0
100
AcDbCircle
 10
4241.915300251727
 20
4556.675819012085
 30
0.0
 40
0.7
100
AcDbArc
 50
183.2473427903317
 51
262.3418727926349
  0
ARC
  5
17AC7
330
747D
100
AcDbEntity
  8
部品1
 48
50.0
100
AcDbCircle
 10
4241.422231143165
 20
4553.008819850401
 30
0.0
 40
3.0
100
AcDbArc
 50
3.247342790331777
 51
82.3418727926348
  0
ARC
  5
17AC8
330
747D
100
AcDbEntity
  8
部品1
 48
50.0
100
AcDbCircle
 10
4233.186200618322
 20
4645.208819850406
 30
0.0
 40
3.0
100
AcDbArc
 50
3.247342790331777
 51
82.3418727926348
  0
LINE
  5
17AC9
330
747D
100
AcDbEntity
  8
部品1
100
AcDbLine
 10
4236.181383514508
 20
4645.378759305506
 30
0.0
 11
4241.216424242614
 21
4556.636166472562
 31
0.0
  0
LINE
  5
17ACA
330
747D
100
AcDbEntity
  8
部品1
100
AcDbLine
 10
4244.417414039351
 20
4553.178759305505
 30
0.0
 11
4245.06231984646
 21
4541.812294455165
 31
0.0
  0
LINE
  5
17ACB
330
747D
100
AcDbEntity
  8
部品1
100
AcDbLine
 10
4231.84699638543
 20
4668.812294455165
 30
0.0
 11
4232.980393717778
 21
4648.836166472563
 31
0.0
  0
LINE
  5
17ACC
330
747D
100
AcDbEntity
  8
部品1
 48
50.0
100
AcDbLine
 10
6114.018914263656
 20
4676.208819850402
 30
0.0
 11
4238.835756476524
 21
4676.208819850406
 31
0.0
  0
LINE
  5
17ACD
330
747D
100
AcDbEntity
  8
部品1
 48
50.0
100
AcDbLine
 10
6100.803590802621
 20
4535.208819850406
 30
0.0
 11
4252.051079937563
 21
4535.208819850402
 31
0.0
  0
LINE
  5
17ACE
330
747D
100
AcDbEntity
  8
細線
 48
50.0
100
AcDbLine
 10
6119.387797148653
 20
4648.208819850404
 30
0.0
 11
4233.466873591533
 21
4648.208819850402
 31
0.0
  0
LINE
  5
17ACF
330
747D
100
AcDbEntity
  8
細線
 48
50.0
100
AcDbLine
 10
6111.151766623807
 20
4556.008819850402
 30
0.0
 11
4241.702904116362
 21
4556.008819850405
 31
0.0
  0
LINE
  5
17AD0
330
747D
100
AcDbEntity
  8
細線
100
AcDbLine
 10
4771.427335370091
 20
4500.708819850398
 30
0.0
 11
4771.427335370088
 21
4477.708819850398
 31
0.0
  0
LINE
  5
17AD1
330
747D
100
AcDbEntity
  8
細線
100
AcDbLine
 10
4845.427335370088
 20
4488.708819850399
 30
0.0
 11
4771.427335370091
 21
4488.708819850399
 31
0.0
  0
LINE
  5
17AD2
330
747D
100
AcDbEntity
  8
細線
100
AcDbLine
 10
4845.427335370088
 20
4482.708819850398
 30
0.0
 11
4771.427335370091
 21
4482.708819850398
 31
0.0
  0
LINE
  5
17AD3
330
747D
100
AcDbEntity
  8
細線
100
AcDbLine
 10
4845.427335370088
 20
4494.708819850399
 30
0.0
 11
4771.427335370091
 21
4494.708819850399
 31
0.0
  0
LINE
  5
17AD4
330
747D
100
AcDbEntity
  8
細線
100
AcDbLine
 10
4697.427335370092
 20
4494.708819850399
 30
0.0
 11
4766.427335370091
 21
4494.708819850399
 31
0.0
  0
LINE
  5
17AD5
330
747D
100
AcDbEntity
  8
細線
100
AcDbLine
 10
4697.427335370088
 20
4482.708819850398
 30
0.0
 11
4771.427335370091
 21
4482.708819850398
 31
0.0
  0
LINE
  5
17AD6
330
747D
100
AcDbEntity
  8
細線
100
AcDbLine
 10
4697.427335370092
 20
4488.708819850399
 30
0.0
 11
4771.427335370091
 21
4488.708819850399
 31
0.0
  0
LINE
  5
17AD7
330
747D
100
AcDbEntity
  8
細線
100
AcDbLine
 10
4697.427335370092
 20
4494.708819850399
 30
0.0
 11
4771.427335370091
 21
4494.708819850399
 31
0.0
  0
LINE
  5
17AD8
330
747D
100
AcDbEntity
  8
部品1
 48
0.01
100
AcDbLine
 10
4859.427335370092
 20
4507.208819850399
 30
0.0
 11
4683.427335370092
 21
4507.208819850399
 31
0.0
  0
LINE
  5
17AD9
330
747D
100
AcDbEntity
  8
部品1
 48
0.01
100
AcDbLine
 10
4681.427335370091
 20
4505.208819850398
 30
0.0
 11
4681.427335370091
 21
4473.708819850399
 31
0.0
  0
LINE
  5
17ADA
330
747D
100
AcDbEntity
  8
部品1
 48
0.01
100
AcDbLine
 10
4683.427335370092
 20
4471.708819850398
 30
0.0
 11
4859.427335370089
 21
4471.708819850398
 31
0.0
  0
LINE
  5
17ADB
330
747D
100
AcDbEntity
  8
部品1
 48
0.01
100
AcDbLine
 10
4861.427335370088
 20
4473.708819850399
 30
0.0
 11
4861.427335370092
 21
4505.208819850398
 31
0.0
  0
LINE
  5
17ADC
330
747D
100
AcDbEntity
  8
細線
100
AcDbLine
 10
4697.427335370092
 20
4500.708819850398
 30
0.0
 11
4697.427335370092
 21
4477.708819850398
 31
0.0
  0
LINE
  5
17ADD
330
747D
100
AcDbEntity
  8
細線
100
AcDbLine
 10
4845.427335370092
 20
4477.708819850398
 30
0.0
 11
4845.427335370092
 21
4500.708819850398
 31
0.0
  0
LINE
  5
17ADE
330
747D
100
AcDbEntity
  8
細線
100
AcDbLine
 10
4845.427335370092
 20
4500.708819850398
 30
0.0
 11
4771.427335370091
 21
4500.708819850398
 31
0.0
  0
LINE
  5
17ADF
330
747D
100
AcDbEntity
  8
細線
100
AcDbLine
 10
4697.427335370092
 20
4477.708819850398
 30
0.0
 11
4771.427335370091
 21
4477.708819850398
 31
0.0
  0
LINE
  5
17AE0
330
747D
100
AcDbEntity
  8
細線
100
AcDbLine
 10
4771.427335370091
 20
4500.708819850398
 30
0.0
 11
4697.427335370092
 21
4500.708819850398
 31
0.0
  0
LINE
  5
17AE1
330
747D
100
AcDbEntity
  8
細線
100
AcDbLine
 10
4771.427335370088
 20
4477.708819850398
 30
0.0
 11
4845.427335370092
 21
4477.708819850398
 31
0.0
  0
ARC
  5
17AE2
330
747D
100
AcDbEntity
  8
部品1
 48
0.01
100
AcDbCircle
 10
4683.427335370092
 20
4505.208819850398
 30
0.0
 40
2.0
100
AcDbArc
 50
90.0
 51
180.0
  0
ARC
  5
17AE3
330
747D
100
AcDbEntity
  8
部品1
 48
0.01
100
AcDbCircle
 10
4683.427335370092
 20
4473.708819850399
 30
0.0
 40
2.0
100
AcDbArc
 50
180.0
 51
270.0
  0
ARC
  5
17AE4
330
747D
100
AcDbEntity
  8
部品1
 48
0.01
100
AcDbCircle
 10
4859.427335370092
 20
4505.208819850398
 30
0.0
 40
2.0
100
AcDbArc
 50
0.0
 51
90.0
  0
ARC
  5
17AE5
330
747D
100
AcDbEntity
  8
部品1
 48
0.01
100
AcDbCircle
 10
4859.427335370089
 20
4473.708819850399
 30
0.0
 40
2.0
100
AcDbArc
 50
270.0
 51
0.0
  0
ARC
  5
17AE6
330
747D
100
AcDbEntity
  8
部品1
 48
0.01
100
AcDbCircle
 10
5493.427335370092
 20
4505.208819850398
 30
0.0
 40
2.0
100
AcDbArc
 50
90.0
 51
180.0
  0
ARC
  5
17AE7
330
747D
100
AcDbEntity
  8
部品1
 48
0.01
100
AcDbCircle
 10
5669.427335370092
 20
4505.208819850398
 30
0.0
 40
2.0
100
AcDbArc
 50
0.0
 51
90.0
  0
LINE
  5
17AE8
330
747D
100
AcDbEntity
  8
細線
100
AcDbLine
 10
5581.427335370092
 20
4477.708819850398
 30
0.0
 11
5507.427335370092
 21
4477.708819850398
 31
0.0
  0
LINE
  5
17AE9
330
747D
100
AcDbEntity
  8
細線
100
AcDbLine
 10
5581.427335370092
 20
4500.708819850398
 30
0.0
 11
5655.427335370092
 21
4500.708819850398
 31
0.0
  0
LINE
  5
17AEA
330
747D
100
AcDbEntity
  8
細線
100
AcDbLine
 10
5655.427335370092
 20
4477.708819850398
 30
0.0
 11
5581.427335370092
 21
4477.708819850398
 31
0.0
  0
LINE
  5
17AEB
330
747D
100
AcDbEntity
  8
細線
100
AcDbLine
 10
5507.427335370092
 20
4500.708819850398
 30
0.0
 11
5581.427335370092
 21
4500.708819850398
 31
0.0
  0
LINE
  5
17AEC
330
747D
100
AcDbEntity
  8
細線
100
AcDbLine
 10
5507.427335370092
 20
4477.708819850398
 30
0.0
 11
5507.427335370092
 21
4500.708819850398
 31
0.0
  0
LINE
  5
17AED
330
747D
100
AcDbEntity
  8
細線
100
AcDbLine
 10
5655.427335370092
 20
4500.708819850398
 30
0.0
 11
5655.427335370092
 21
4477.708819850398
 31
0.0
  0
LINE
  5
17AEE
330
747D
100
AcDbEntity
  8
部品1
 48
0.01
100
AcDbLine
 10
5493.427335370092
 20
4507.208819850399
 30
0.0
 11
5669.427335370092
 21
4507.208819850399
 31
0.0
  0
LINE
  5
17AEF
330
747D
100
AcDbEntity
  8
細線
100
AcDbLine
 10
5655.427335370092
 20
4494.708819850399
 30
0.0
 11
5581.427335370092
 21
4494.708819850399
 31
0.0
  0
LINE
  5
17AF0
330
747D
100
AcDbEntity
  8
細線
100
AcDbLine
 10
5655.427335370092
 20
4488.708819850399
 30
0.0
 11
5581.427335370092
 21
4488.708819850399
 31
0.0
  0
LINE
  5
17AF1
330
747D
100
AcDbEntity
  8
細線
100
AcDbLine
 10
5655.427335370092
 20
4482.708819850398
 30
0.0
 11
5581.427335370092
 21
4482.708819850398
 31
0.0
  0
LINE
  5
17AF2
330
747D
100
AcDbEntity
  8
細線
100
AcDbLine
 10
5655.427335370092
 20
4494.708819850399
 30
0.0
 11
5586.427335370093
 21
4494.708819850399
 31
0.0
  0
LINE
  5
17AF3
330
747D
100
AcDbEntity
  8
細線
100
AcDbLine
 10
5507.427335370092
 20
4494.708819850399
 30
0.0
 11
5581.427335370092
 21
4494.708819850399
 31
0.0
  0
LINE
  5
17AF4
330
747D
100
AcDbEntity
  8
細線
100
AcDbLine
 10
5507.427335370092
 20
4482.708819850398
 30
0.0
 11
5581.427335370092
 21
4482.708819850398
 31
0.0
  0
LINE
  5
17AF5
330
747D
100
AcDbEntity
  8
細線
100
AcDbLine
 10
5507.427335370092
 20
4488.708819850399
 30
0.0
 11
5581.427335370092
 21
4488.708819850399
 31
0.0
  0
LINE
  5
17AF6
330
747D
100
AcDbEntity
  8
細線
100
AcDbLine
 10
5581.427335370092
 20
4500.708819850398
 30
0.0
 11
5581.427335370092
 21
4477.708819850398
 31
0.0
  0
ARC
  5
17AF7
330
747D
100
AcDbEntity
  8
部品1
 48
0.01
100
AcDbCircle
 10
5493.427335370092
 20
4473.708819850399
 30
0.0
 40
2.0
100
AcDbArc
 50
180.0
 51
270.0
  0
ARC
  5
17AF8
330
747D
100
AcDbEntity
  8
部品1
 48
0.01
100
AcDbCircle
 10
5669.427335370092
 20
4473.708819850399
 30
0.0
 40
2.0
100
AcDbArc
 50
270.0
 51
0.0
  0
LINE
  5
17AF9
330
747D
100
AcDbEntity
  8
部品1
 48
0.01
100
AcDbLine
 10
5491.427335370092
 20
4473.708819850399
 30
0.0
 11
5491.427335370092
 21
4505.208819850398
 31
0.0
  0
LINE
  5
17AFA
330
747D
100
AcDbEntity
  8
部品1
 48
0.01
100
AcDbLine
 10
5669.427335370092
 20
4471.708819850398
 30
0.0
 11
5493.427335370092
 21
4471.708819850398
 31
0.0
  0
LINE
  5
17AFB
330
747D
100
AcDbEntity
  8
部品1
 48
0.01
100
AcDbLine
 10
5671.427335370092
 20
4505.208819850398
 30
0.0
 11
5671.427335370092
 21
4473.708819850399
 31
0.0
  0
DIMENSION
  5
17AFC
330
747D
100
AcDbEntity
  8
寸法
 48
50.0
100
AcDbDimension
  2
*D29
 10
6071.427335370088
 20
5080.829079277672
 30
0.0
 11
6434.912616744324
 21
5080.829079277672
 31
0.0
 70
   160
 71
     5
 42
50.0
  3
INABA_S40G
100
AcDbAlignedDimension
 13
6121.427335370088
 23
4676.208819850402
 33
0.0
 14
6071.427335370088
 24
4676.208819850404
 34
0.0
100
AcDbRotatedDimension
  0
LINE
  5
17AFD
330
747D
100
AcDbEntity
  8
部品1
100
AcDbLine
 10
6121.007674354754
 20
4668.812294455165
 30
0.0
 11
6119.874277022409
 21
4648.836166472563
 31
0.0
  0
LINE
  5
17AFE
330
747D
100
AcDbEntity
  8
細線
 48
50.0
100
AcDbLine
 10
6088.427335370088
 20
4676.208819850402
 30
0.0
 11
6088.427335370088
 21
4535.208819850402
 31
0.0
  0
LINE
  5
17AFF
330
747D
100
AcDbEntity
  8
部品1
100
AcDbLine
 10
6108.437256700832
 20
4553.178759305505
 30
0.0
 11
6107.792350893721
 21
4541.812294455165
 31
0.0
  0
LINE
  5
17B00
330
747D
100
AcDbEntity
  8
部品1
100
AcDbLine
 10
6116.673287225676
 20
4645.378759305506
 30
0.0
 11
6111.638246497565
 21
4556.636166472562
 31
0.0
  0
ARC
  5
17B01
330
747D
100
AcDbEntity
  8
部品1
 48
50.0
100
AcDbCircle
 10
6119.668470121862
 20
4645.208819850406
 30
0.0
 40
3.0
100
AcDbArc
 50
97.65812720736519
 51
176.7526572096682
  0
ARC
  5
17B02
330
747D
100
AcDbEntity
  8
部品1
 48
50.0
100
AcDbCircle
 10
6111.432439597018
 20
4553.008819850401
 30
0.0
 40
3.0
100
AcDbArc
 50
97.65812720736519
 51
176.7526572096682
  0
ARC
  5
17B03
330
747D
100
AcDbEntity
  8
部品1
 48
50.0
100
AcDbCircle
 10
6110.939370488456
 20
4556.675819012085
 30
0.0
 40
0.7
100
AcDbArc
 50
277.6581272073652
 51
356.7526572096682
  0
ARC
  5
17B04
330
747D
100
AcDbEntity
  8
部品1
 48
50.0
100
AcDbCircle
 10
6119.175401013301
 20
4648.875819012089
 30
0.0
 40
0.7
100
AcDbArc
 50
277.6581272073652
 51
356.7526572096162
  0
ARC
  5
17B05
330
747D
100
AcDbEntity
  8
部品1
100
AcDbCircle
 10
6100.803590802621
 20
4542.208819850406
 30
0.0
 40
7.0
100
AcDbArc
 50
270.0
 51
356.7526572096682
  0
ARC
  5
17B06
330
747D
100
AcDbEntity
  8
部品1
100
AcDbCircle
 10
6114.018914263656
 20
4669.208819850402
 30
0.0
 40
7.0
100
AcDbArc
 50
356.7526572096682
 51
90.0
  0
LINE
  5
17F90
330
747D
100
AcDbEntity
  8
寸法
 48
50.0
100
AcDbLine
 10
9108.090687749452
 20
7117.436875184286
 30
0.0
 11
9056.684679839348
 21
7117.436875184286
 31
0.0
  0
LINE
  5
17F91
330
747D
100
AcDbEntity
  8
寸法
 48
50.0
100
AcDbLine
 10
9056.684679839348
 20
7117.436875184286
 30
0.0
 11
9056.684679839348
 21
7148.747033836453
 31
0.0
  0
LINE
  5
17F92
330
747D
100
AcDbEntity
  8
寸法
 48
50.0
100
AcDbLine
 10
9056.684679839348
 20
7148.747033836453
 30
0.0
 11
9026.923347847924
 21
7148.747033836453
 31
0.0
  0
LINE
  5
17F93
330
747D
100
AcDbEntity
  8
寸法
 48
50.0
100
AcDbLine
 10
9026.923347847924
 20
7148.747033836453
 30
0.0
 11
9082.387683794401
 21
7186.326484765062
 31
0.0
  0
LINE
  5
17F94
330
747D
100
AcDbEntity
  8
寸法
 48
50.0
100
AcDbLine
 10
9137.852019740876
 20
7148.747033836453
 30
0.0
 11
9082.387683794401
 21
7186.326484765062
 31
0.0
  0
LINE
  5
17F95
330
747D
100
AcDbEntity
  8
寸法
 48
50.0
100
AcDbLine
 10
9108.090687749452
 20
7148.747033836453
 30
0.0
 11
9137.852019740876
 21
7148.747033836453
 31
0.0
  0
LINE
  5
17F96
330
747D
100
AcDbEntity
  8
寸法
 48
50.0
100
AcDbLine
 10
9108.090687749452
 20
7117.436875184286
 30
0.0
 11
9108.090687749452
 21
7148.747033836453
 31
0.0
  0
LINE
  5
17F97
330
747D
100
AcDbEntity
  8
寸法
 48
50.0
100
AcDbLine
 10
9056.684679839348
 20
7117.436875184286
 30
0.0
 11
9108.090687749452
 21
7117.436875184286
 31
0.0
  0
LINE
  5
17F98
330
747D
100
AcDbEntity
  8
寸法
 48
50.0
100
AcDbLine
 10
9387.25622202631
 20
7174.582465939109
 30
0.0
 11
9387.25622202631
 21
7120.918831357319
 31
0.0
  0
LINE
  5
17F99
330
747D
100
AcDbEntity
  8
寸法
 48
50.0
100
AcDbLine
 10
9476.540440621731
 20
7150.658831669623
 30
0.0
 11
9387.25622202631
 21
7174.582465939109
 31
0.0
  0
LINE
  5
17F9A
330
747D
100
AcDbEntity
  8
寸法
 48
50.0
100
AcDbLine
 10
9257.388500446007
 20
7150.658831669623
 30
0.0
 11
9476.540440621731
 21
7150.658831669623
 31
0.0
  0
LINE
  5
17F9B
330
747D
100
AcDbEntity
  8
細線
 48
50.0
100
AcDbLine
 10
10133.88768146761
 20
7315.900238564148
 30
0.0
 11
10760.88768146761
 21
7315.900238564148
 31
0.0
  0
LINE
  5
17F9C
330
747D
100
AcDbEntity
  8
細線
 48
50.0
100
AcDbLine
 10
9479.887686121198
 20
7282.191470010073
 30
0.0
 11
10760.88768146761
 21
7282.191470010073
 31
0.0
  0
LINE
  5
17F9D
330
747D
100
AcDbEntity
  8
細線
 48
50.0
100
AcDbLine
 10
9438.887686121201
 20
7311.596378006327
 30
0.0
 11
8684.887681467607
 21
7311.596378006322
 31
0.0
  0
LINE
  5
17F9E
330
747D
100
AcDbEntity
  8
細線
100
AcDbLine
 10
10536.63767205115
 20
7335.400138529158
 30
0.0
 11
10538.96921157296
 21
7340.400141169118
 31
0.0
  0
LINE
  5
17F9F
330
747D
100
AcDbEntity
  8
細線
100
AcDbLine
 10
10606.6376814676
 20
7335.400123615423
 30
0.0
 11
10604.30613499142
 21
7340.400141169104
 31
0.0
  0
LINE
  5
17FA0
330
747D
100
AcDbEntity
  8
細線
100
AcDbLine
 10
10604.30613499142
 20
7340.400141169104
 30
0.0
 11
10538.96921157294
 21
7340.40014116909
 31
0.0
  0
LINE
  5
17FA1
330
747D
100
AcDbEntity
  8
細線
100
AcDbLine
 10
10464.30613499142
 20
7340.400141169104
 30
0.0
 11
10398.96921157294
 21
7340.40014116909
 31
0.0
  0
LINE
  5
17FA2
330
747D
100
AcDbEntity
  8
細線
100
AcDbLine
 10
10466.6376814676
 20
7335.400123615423
 30
0.0
 11
10464.30613499142
 21
7340.400141169104
 31
0.0
  0
LINE
  5
17FA3
330
747D
100
AcDbEntity
  8
細線
100
AcDbLine
 10
10396.63767205115
 20
7335.400138529158
 30
0.0
 11
10398.96921157296
 21
7340.400141169118
 31
0.0
  0
LINE
  5
17FA4
330
747D
100
AcDbEntity
  8
細線
100
AcDbLine
 10
10256.63768146761
 20
7335.400123615423
 30
0.0
 11
10258.96922098942
 21
7340.400126255385
 31
0.0
  0
LINE
  5
17FA5
330
747D
100
AcDbEntity
  8
細線
100
AcDbLine
 10
10326.63769088407
 20
7335.40010870169
 30
0.0
 11
10324.30614440787
 21
7340.400126255371
 31
0.0
  0
LINE
  5
17FA6
330
747D
100
AcDbEntity
  8
細線
100
AcDbLine
 10
10324.30614440788
 20
7340.400126255371
 30
0.0
 11
10258.9692209894
 21
7340.400126255357
 31
0.0
  0
LINE
  5
17FA7
330
747D
100
AcDbEntity
  8
細線
100
AcDbLine
 10
10029.05616565671
 20
7306.400162952752
 30
0.0
 11
9963.719242238241
 21
7306.400162952738
 31
0.0
  0
LINE
  5
17FA8
330
747D
100
AcDbEntity
  8
細線
100
AcDbLine
 10
10031.3877121329
 20
7301.400145399071
 30
0.0
 11
10029.05616565671
 21
7306.400162952752
 31
0.0
  0
LINE
  5
17FA9
330
747D
100
AcDbEntity
  8
細線
100
AcDbLine
 10
9961.387702716445
 20
7301.400160312805
 30
0.0
 11
9963.719242238255
 21
7306.400162952766
 31
0.0
  0
LINE
  5
17FAA
330
747D
100
AcDbEntity
  8
細線
 48
50.0
100
AcDbLine
 10
9802.771060715622
 20
7319.670986768504
 30
0.0
 11
9808.526578298291
 21
7301.400135478018
 31
0.0
  0
LINE
  5
17FAB
330
747D
100
AcDbEntity
  8
細線
 48
50.0
100
AcDbLine
 10
9791.842612235193
 20
7319.670986768504
 30
0.0
 11
9802.771060715622
 21
7319.670986768504
 31
0.0
  0
ARC
  5
17FAC
330
747D
100
AcDbEntity
  8
細線
 48
50.0
100
AcDbCircle
 10
9786.388256177872
 20
7321.170986768504
 30
0.0
 40
5.0
100
AcDbArc
 50
204.6243183521304
 51
335.3756816478695
  0
ARC
  5
17FAD
330
747D
100
AcDbEntity
  8
細線
 48
50.0
100
AcDbCircle
 10
9791.842612235193
 20
7318.670986768504
 30
0.0
 40
1.0
100
AcDbArc
 50
90.0
 51
155.3756816478695
  0
ARC
  5
17FAE
330
747D
100
AcDbEntity
  8
細線
 48
50.0
100
AcDbCircle
 10
9780.933900120556
 20
7318.670986768504
 30
0.0
 40
1.0
100
AcDbArc
 50
24.62431835213048
 51
90.0
  0
LINE
  5
17FAF
330
747D
100
AcDbEntity
  8
細線
 48
50.0
100
AcDbLine
 10
9770.005451640123
 20
7319.670986768504
 30
0.0
 11
9780.933900120556
 21
7319.670986768504
 31
0.0
  0
LINE
  5
17FB0
330
747D
100
AcDbEntity
  8
細線
 48
50.0
100
AcDbLine
 10
9764.249934057454
 20
7301.400135478011
 30
0.0
 11
9770.005451640123
 21
7319.670986768504
 31
0.0
  0
LINE
  5
17FB1
330
747D
100
AcDbEntity
  8
細線
100
AcDbLine
 10
9821.387703947486
 20
7301.400132843814
 30
0.0
 11
9823.719243469298
 21
7306.400135483776
 31
0.0
  0
LINE
  5
17FB2
330
747D
100
AcDbEntity
  8
細線
100
AcDbLine
 10
9891.387713363947
 20
7301.40011793008
 30
0.0
 11
9889.056166887757
 21
7306.400135483761
 31
0.0
  0
LINE
  5
17FB3
330
747D
100
AcDbEntity
  8
細線
100
AcDbLine
 10
9889.056166887757
 20
7306.400135483761
 30
0.0
 11
9823.719243469284
 21
7306.400135483747
 31
0.0
  0
LINE
  5
17FB4
330
747D
100
AcDbEntity
  8
細線
100
AcDbLine
 10
9749.05613852324
 20
7306.400135477982
 30
0.0
 11
9683.719215104765
 21
7306.400135477966
 31
0.0
  0
LINE
  5
17FB5
330
747D
100
AcDbEntity
  8
細線
100
AcDbLine
 10
9751.387684999428
 20
7301.400117924301
 30
0.0
 11
9749.05613852324
 21
7306.400135477982
 31
0.0
  0
LINE
  5
17FB6
330
747D
100
AcDbEntity
  8
細線
100
AcDbLine
 10
9681.387676814011
 20
7301.400135478011
 30
0.0
 11
9683.71921510478
 21
7306.400135477996
 31
0.0
  0
LINE
  5
17FB7
330
747D
100
AcDbEntity
  8
細線
100
AcDbLine
 10
9541.387712132902
 20
7301.40014366538
 30
0.0
 11
9543.71925042367
 21
7306.400143665365
 31
0.0
  0
LINE
  5
17FB8
330
747D
100
AcDbEntity
  8
細線
100
AcDbLine
 10
9611.387720318319
 20
7301.40012611167
 30
0.0
 11
9609.056173842132
 21
7306.400143665347
 31
0.0
  0
LINE
  5
17FB9
330
747D
100
AcDbEntity
  8
細線
100
AcDbLine
 10
9609.056173842132
 20
7306.400143665347
 30
0.0
 11
9543.719250423656
 21
7306.400143665335
 31
0.0
  0
LINE
  5
17FBA
330
747D
100
AcDbEntity
  8
細線
100
AcDbLine
 10
9169.887677935781
 20
7267.400315346093
 30
0.0
 11
9172.219216226549
 21
7272.400315346079
 31
0.0
  0
LINE
  5
17FBB
330
747D
100
AcDbEntity
  8
細線
100
AcDbLine
 10
9239.887686121198
 20
7267.400297792379
 30
0.0
 11
9237.556139645011
 21
7272.400315346056
 31
0.0
  0
LINE
  5
17FBC
330
747D
100
AcDbEntity
  8
細線
100
AcDbLine
 10
9237.556139645011
 20
7272.400315346056
 30
0.0
 11
9172.219216226539
 21
7272.400315346049
 31
0.0
  0
LINE
  5
17FBD
330
747D
100
AcDbEntity
  8
細線
100
AcDbLine
 10
9377.55613964501
 20
7272.400315346056
 30
0.0
 11
9312.219216226537
 21
7272.400315346049
 31
0.0
  0
LINE
  5
17FBE
330
747D
100
AcDbEntity
  8
細線
100
AcDbLine
 10
9379.887686121199
 20
7267.400297792379
 30
0.0
 11
9377.55613964501
 21
7272.400315346056
 31
0.0
  0
LINE
  5
17FBF
330
747D
100
AcDbEntity
  8
細線
100
AcDbLine
 10
9309.887677935781
 20
7267.400315346093
 30
0.0
 11
9312.21921622655
 21
7272.400315346079
 31
0.0
  0
LINE
  5
17FC0
330
747D
100
AcDbEntity
  8
細線
100
AcDbLine
 10
9097.556139645011
 20
7272.400315346056
 30
0.0
 11
9032.219216226538
 21
7272.400315346046
 31
0.0
  0
LINE
  5
17FC1
330
747D
100
AcDbEntity
  8
細線
100
AcDbLine
 10
9099.887686121197
 20
7267.400297792379
 30
0.0
 11
9097.556139645011
 21
7272.400315346056
 31
0.0
  0
LINE
  5
17FC2
330
747D
100
AcDbEntity
  8
細線
100
AcDbLine
 10
9029.88767793578
 20
7267.400315346089
 30
0.0
 11
9032.219216226549
 21
7272.400315346074
 31
0.0
  0
LINE
  5
17FC3
330
747D
100
AcDbEntity
  8
細線
100
AcDbLine
 10
8889.887686121197
 20
7267.400315346093
 30
0.0
 11
8892.219224411965
 21
7272.400315346079
 31
0.0
  0
LINE
  5
17FC4
330
747D
100
AcDbEntity
  8
細線
100
AcDbLine
 10
8959.887694306614
 20
7267.400297792379
 30
0.0
 11
8957.556147830427
 21
7272.400315346056
 31
0.0
  0
LINE
  5
17FC5
330
747D
100
AcDbEntity
  8
細線
100
AcDbLine
 10
8957.556147830427
 20
7272.400315346056
 30
0.0
 11
8892.219224411954
 21
7272.400315346049
 31
0.0
  0
ARC
  5
17FC6
330
747D
100
AcDbEntity
  8
部品1
 48
0.01
100
AcDbCircle
 10
8845.387574868864
 20
7266.39919316102
 30
0.0
 40
0.5
100
AcDbArc
 50
270.0
 51
0.0
  0
LINE
  5
17FC7
330
747D
100
AcDbEntity
  8
部品1
 48
0.01
100
AcDbLine
 10
8845.887574868863
 20
7267.39919316102
 30
0.0
 11
8845.887574868863
 21
7266.39919316102
 31
0.0
  0
LINE
  5
17FC8
330
747D
100
AcDbEntity
  8
部品1
 48
0.01
100
AcDbLine
 10
8845.887574868863
 20
7267.39919316102
 30
0.0
 11
8845.887574868863
 21
7266.39919316102
 31
0.0
  0
LINE
  5
17FC9
330
747D
100
AcDbEntity
  8
部品1
 48
0.01
100
AcDbLine
 10
8845.387574868864
 20
7265.89919316102
 30
0.0
 11
8838.775069438797
 21
7265.89919316102
 31
0.0
  0
ARC
  5
17FCA
330
747D
100
AcDbEntity
  8
部品1
100
AcDbCircle
 10
8838.843418991578
 20
7266.89919316102
 30
0.0
 40
1.0
100
AcDbArc
 50
160.5287793655778
 51
270.0
  0
ARC
  5
17FCB
330
747D
100
AcDbEntity
  8
部品1
100
AcDbCircle
 10
8813.387574868862
 20
7275.89919316102
 30
0.0
 40
26.0
100
AcDbArc
 50
340.5287793655779
 51
0.0
  0
LINE
  5
17FCC
330
747D
100
AcDbEntity
  8
部品1
100
AcDbLine
 10
8839.387574868863
 20
7275.89919316102
 30
0.0
 11
8839.387574868863
 21
7280.899193161019
 31
0.0
  0
ARC
  5
17FCD
330
747D
100
AcDbEntity
  8
部品1
 48
0.01
100
AcDbCircle
 10
8837.387574868863
 20
7280.899193161019
 30
0.0
 40
2.0
100
AcDbArc
 50
0.0
 51
90.0
  0
ARC
  5
17FCE
330
747D
100
AcDbEntity
  8
部品1
100
AcDbCircle
 10
8835.779183244053
 20
7279.89919316102
 30
0.0
 40
3.0
100
AcDbArc
 50
90.0
 51
141.6069559807873
  0
LINE
  5
17FCF
330
747D
100
AcDbEntity
  8
部品1
 48
0.01
100
AcDbLine
 10
8837.387574868863
 20
7282.89919316102
 30
0.0
 11
8835.779183244053
 21
7282.89919316102
 31
0.0
  0
ARC
  5
17FD0
330
747D
100
AcDbEntity
  8
部品1
100
AcDbCircle
 10
8817.316860654591
 20
7279.199193161023
 30
0.0
 40
3.0
100
AcDbArc
 50
254.0576313943215
 51
270.0
  0
ARC
  5
17FD1
330
747D
100
AcDbEntity
  8
部品1
100
AcDbCircle
 10
8824.458289083134
 20
7279.199193161023
 30
0.0
 40
3.0
100
AcDbArc
 50
270.0
 51
285.9423686056786
  0
LINE
  5
17FD2
330
747D
100
AcDbEntity
  8
部品1
100
AcDbLine
 10
8824.458289083134
 20
7276.199193161023
 30
0.0
 11
8817.316860654591
 21
7276.199193161023
 31
0.0
  0
ARC
  5
17FD3
330
747D
100
AcDbEntity
  8
部品1
100
AcDbCircle
 10
8820.887574868862
 20
7291.699193161022
 30
0.0
 40
16.0
100
AcDbArc
 50
285.9423686056786
 51
321.6069559807873
  0
LINE
  5
17FD4
330
747D
100
AcDbEntity
  8
部品1
 48
0.01
100
AcDbLine
 10
8804.387574868862
 20
7282.89919316102
 30
0.0
 11
8805.995966493673
 21
7282.89919316102
 31
0.0
  0
ARC
  5
17FD5
330
747D
100
AcDbEntity
  8
部品1
100
AcDbCircle
 10
8805.995966493673
 20
7279.89919316102
 30
0.0
 40
3.0
100
AcDbArc
 50
38.39304401921267
 51
90.0
  0
ARC
  5
17FD6
330
747D
100
AcDbEntity
  8
部品1
100
AcDbCircle
 10
8820.887574868862
 20
7291.699193161022
 30
0.0
 40
16.0
100
AcDbArc
 50
218.3930440192126
 51
254.0576313943215
  0
LINE
  5
17FD7
330
747D
100
AcDbEntity
  8
部品1
100
AcDbLine
 10
8802.387574868863
 20
7275.89919316102
 30
0.0
 11
8802.387574868863
 21
7280.899193161019
 31
0.0
  0
ARC
  5
17FD8
330
747D
100
AcDbEntity
  8
部品1
 48
0.01
100
AcDbCircle
 10
8804.387574868862
 20
7280.899193161019
 30
0.0
 40
2.0
100
AcDbArc
 50
90.0
 51
180.0
  0
ARC
  5
17FD9
330
747D
100
AcDbEntity
  8
部品1
100
AcDbCircle
 10
8828.387574868862
 20
7275.89919316102
 30
0.0
 40
26.0
100
AcDbArc
 50
180.0
 51
199.4712206344221
  0
ARC
  5
17FDA
330
747D
100
AcDbEntity
  8
部品1
 48
0.01
100
AcDbCircle
 10
8796.387574868862
 20
7266.39919316102
 30
0.0
 40
0.5
100
AcDbArc
 50
180.0
 51
270.0
  0
LINE
  5
17FDB
330
747D
100
AcDbEntity
  8
部品1
 48
0.01
100
AcDbLine
 10
8796.387574868862
 20
7265.89919316102
 30
0.0
 11
8802.931730746147
 21
7265.89919316102
 31
0.0
  0
LINE
  5
17FDC
330
747D
100
AcDbEntity
  8
部品1
 48
0.01
100
AcDbLine
 10
8795.887574868862
 20
7267.39919316102
 30
0.0
 11
8795.887574868862
 21
7266.39919316102
 31
0.0
  0
ARC
  5
17FDD
330
747D
100
AcDbEntity
  8
部品1
100
AcDbCircle
 10
8802.931730746147
 20
7266.89919316102
 30
0.0
 40
1.0
100
AcDbArc
 50
270.0
 51
19.47122063442214
  0
LINE
  5
17FDE
330
747D
100
AcDbEntity
  8
細線
100
AcDbLine
 10
8841.387574868869
 20
7285.399193161024
 30
0.0
 11
8800.387574868869
 21
7285.399193161016
 31
0.0
  0
LINE
  5
17FDF
330
747D
100
AcDbEntity
  8
細線
100
AcDbLine
 10
8800.387574868869
 20
7285.399193161016
 30
0.0
 11
8800.387574868869
 21
7267.399193160997
 31
0.0
  0
LINE
  5
17FE0
330
747D
100
AcDbEntity
  8
細線
100
AcDbLine
 10
8841.387574868869
 20
7285.399193161024
 30
0.0
 11
8841.387574868869
 21
7267.399193160997
 31
0.0
  0
LINE
  5
17FE1
330
747D
100
AcDbEntity
  8
細線
100
AcDbLine
 10
8684.887681467607
 20
7271.400123615423
 30
0.0
 11
8684.887681467607
 21
7267.400123615471
 31
0.0
  0
DIMENSION
  5
17FE2
330
747D
100
AcDbEntity
  8
寸法
 48
50.0
100
AcDbDimension
  2
*D30
 10
9950.887681467609
 20
6623.917078342529
 30
0.0
 11
9338.598489593074
 21
6623.917078342529
 31
0.0
 70
   160
  1
有効開口部間口\P<>
 71
     5
 42
1266.0
  3
INABA_S40
100
AcDbAlignedDimension
 13
8684.887681467607
 23
7262.400123615424
 33
0.0
 14
9950.887681467609
 24
7262.400123615424
 34
0.0
100
AcDbRotatedDimension
1001
ACAD
1000
DSTYLE
1002
{
1070
    41
1040
0.5
1070
    44
1040
1.0
1070
   147
1040
0.8
1070
   271
1070
     2
1070
   272
1070
     2
1070
   289
1070
     3
1070
   340
1005
F706
1070
   343
1005
16D35
1070
   344
1005
16D35
1002
}
  0
LINE
  5
17FE3
330
747D
100
AcDbEntity
  8
部品1
100
AcDbLine
 10
10772.88768146761
 20
7339.400123615424
 30
0.0
 11
10799.88768146761
 21
7339.400123615424
 31
0.0
  0
LINE
  5
17FE5
330
747D
100
AcDbEntity
  8
部品1
100
AcDbLine
 10
10799.88768146761
 20
7262.400123615424
 30
0.0
 11
10799.88768146761
 21
7339.400123615424
 31
0.0
  0
LINE
  5
17FE6
330
747D
100
AcDbEntity
  8
部品1
100
AcDbLine
 10
10760.88768146761
 20
7335.400123615423
 30
0.0
 11
10772.88768146761
 21
7335.400123615423
 31
0.0
  0
LINE
  5
17FE7
330
747D
100
AcDbEntity
  8
部品1
100
AcDbLine
 10
10769.88768146761
 20
7271.400123615423
 30
0.0
 11
10769.88768146761
 21
7262.400123615424
 31
0.0
  0
LINE
  5
17FE8
330
747D
100
AcDbEntity
  8
部品1
100
AcDbLine
 10
10760.88768146761
 20
7271.400123615423
 30
0.0
 11
10769.88768146761
 21
7271.400123615423
 31
0.0
  0
LINE
  5
17FE9
330
747D
100
AcDbEntity
  8
部品1
100
AcDbLine
 10
10760.88768146761
 20
7335.400123615423
 30
0.0
 11
10760.88768146761
 21
7271.400123615423
 31
0.0
  0
LINE
  5
17FEA
330
747D
100
AcDbEntity
  8
部品1
100
AcDbLine
 10
10772.88768146761
 20
7366.400123615424
 30
0.0
 11
10772.88768146761
 21
7335.400123615423
 31
0.0
  0
LINE
  5
17FEB
330
747D
100
AcDbEntity
  8
部品1
100
AcDbLine
 10
8684.887681467607
 20
7335.400123615423
 30
0.0
 11
8672.887681467608
 21
7335.400123615423
 31
0.0
  0
LINE
  5
17FEC
330
747D
100
AcDbEntity
  8
部品1
100
AcDbLine
 10
8645.887681467607
 20
7339.400123615424
 30
0.0
 11
8672.887681467608
 21
7339.400123615424
 31
0.0
  0
LINE
  5
17FED
330
747D
100
AcDbEntity
  8
部品1
100
AcDbLine
 10
8675.887681467608
 20
7271.400123615423
 30
0.0
 11
8675.887681467608
 21
7262.400123615424
 31
0.0
  0
LINE
  5
17FEE
330
747D
100
AcDbEntity
  8
部品1
100
AcDbLine
 10
8684.887681467607
 20
7271.400123615423
 30
0.0
 11
8675.887681467608
 21
7271.400123615423
 31
0.0
  0
LINE
  5
17FEF
330
747D
100
AcDbEntity
  8
部品1
100
AcDbLine
 10
8675.887681467608
 20
7262.400123615424
 30
0.0
 11
8645.887681467607
 21
7262.400123615424
 31
0.0
  0
LINE
  5
17FF0
330
747D
100
AcDbEntity
  8
部品1
100
AcDbLine
 10
8645.887681467607
 20
7262.400123615424
 30
0.0
 11
8645.887681467607
 21
7339.400123615424
 31
0.0
  0
LINE
  5
17FF1
330
747D
100
AcDbEntity
  8
部品1
100
AcDbLine
 10
8684.887681467607
 20
7335.400123615423
 30
0.0
 11
8684.887681467607
 21
7271.400123615423
 31
0.0
  0
LINE
  5
17FF2
330
747D
100
AcDbEntity
  8
部品1
100
AcDbLine
 10
8672.887681467608
 20
7366.40012361542
 30
0.0
 11
8672.887681467608
 21
7335.400123615423
 31
0.0
  0
LINE
  5
17FF3
330
747D
100
AcDbEntity
  8
部品1
100
AcDbLine
 10
8672.887681467608
 20
7366.40012361542
 30
0.0
 11
10772.88768146761
 21
7366.400123615424
 31
0.0
  0
LINE
  5
17FF4
330
747D
100
AcDbEntity
  8
部品1
100
AcDbLine
 10
10769.88768146761
 20
7262.400123615424
 30
0.0
 11
10799.88768146761
 21
7262.400123615424
 31
0.0
  0
LINE
  5
17FF5
330
747D
100
AcDbEntity
  8
部品1
100
AcDbLine
 10
8675.887681467608
 20
7262.400123615424
 30
0.0
 11
10772.88768146761
 21
7262.400123615424
 31
0.0
  0
LINE
  5
17FF6
330
747D
100
AcDbEntity
  8
細線
  6
Continuous
 62
     5
100
AcDbLine
 10
10051.88768146761
 20
7301.40012361542
 30
0.0
 11
10051.88768146761
 21
7301.40012361542
 31
0.0
  0
LINE
  5
17FF7
330
747D
100
AcDbEntity
  8
細線
  6
Continuous
 62
     5
100
AcDbLine
 10
10044.3877167865
 20
7301.400133536478
 30
0.0
 11
10044.3877167865
 21
7301.400133536478
 31
0.0
  0
LINE
  5
17FF8
330
747D
100
AcDbEntity
  8
細線
  6
Continuous
 62
     5
100
AcDbLine
 10
10038.3877167865
 20
7301.400133536478
 30
0.0
 11
10038.3877167865
 21
7301.400133536478
 31
0.0
  0
LINE
  5
17FF9
330
747D
100
AcDbEntity
  8
細線
  6
Continuous
 62
     5
100
AcDbLine
 10
10105.88768146761
 20
7320.40012361542
 30
0.0
 11
10105.88768146761
 21
7320.40012361542
 31
0.0
  0
LINE
  5
17FFA
330
747D
100
AcDbEntity
  8
細線
 48
50.0
100
AcDbLine
 10
8698.887686121201
 20
7288.000297792378
 30
0.0
 11
8698.887686121201
 21
7296.396448200018
 31
0.0
  0
LINE
  5
17FFB
330
747D
100
AcDbEntity
  8
細線
 48
50.0
100
AcDbLine
 10
8698.887686121201
 20
7296.396448200018
 30
0.0
 11
8684.887681467607
 21
7296.396448200013
 31
0.0
  0
LINE
  5
17FFC
330
747D
100
AcDbEntity
  8
細線
 48
50.0
100
AcDbLine
 10
9449.887686121199
 20
7284.550297792377
 30
0.0
 11
9449.887686121199
 21
7289.400297792379
 31
0.0
  0
LINE
  5
17FFD
330
747D
100
AcDbEntity
  8
細線
 48
50.0
100
AcDbLine
 10
9449.887686121199
 20
7289.400297792379
 30
0.0
 11
9464.887686121198
 21
7289.400297792379
 31
0.0
  0
LINE
  5
17FFE
330
747D
100
AcDbEntity
  8
細線
 48
50.0
100
AcDbLine
 10
9464.887686121198
 20
7289.400297792379
 30
0.0
 11
9464.887686121201
 21
7296.40029779238
 31
0.0
  0
LINE
  5
17FFF
330
747D
100
AcDbEntity
  8
細線
 48
50.0
100
AcDbLine
 10
9464.887686121201
 20
7296.40029779238
 30
0.0
 11
9479.887686121198
 21
7296.40029779238
 31
0.0
  0
LINE
  5
18000
330
747D
100
AcDbEntity
  8
細線
 48
50.0
100
AcDbLine
 10
9479.887686121198
 20
7296.40029779238
 30
0.0
 11
9479.887686121198
 21
7267.400297792379
 31
0.0
  0
LINE
  5
18001
330
747D
100
AcDbEntity
  8
細線
 48
50.0
100
AcDbLine
 10
8675.887681467608
 20
7267.397632135848
 30
0.0
 11
8889.887686121197
 21
7267.400315346093
 31
0.0
  0
LINE
  5
18002
330
747D
100
AcDbEntity
  8
細線
 48
50.0
100
AcDbLine
 10
9379.887686121199
 20
7267.400297792379
 30
0.0
 11
9479.887686121198
 21
7267.400297792379
 31
0.0
  0
LINE
  5
18003
330
747D
100
AcDbEntity
  8
細線
 48
50.0
100
AcDbLine
 10
9099.887686121197
 20
7267.400297792379
 30
0.0
 11
9169.887686121198
 21
7267.400297792379
 31
0.0
  0
LINE
  5
18004
330
747D
100
AcDbEntity
  8
細線
 48
50.0
100
AcDbLine
 10
9112.749651133727
 20
7267.400297792379
 30
0.0
 11
9118.505168716394
 21
7285.671149082872
 31
0.0
  0
LINE
  5
18005
330
747D
100
AcDbEntity
  8
細線
 48
50.0
100
AcDbLine
 10
9118.505168716394
 20
7285.671149082872
 30
0.0
 11
9129.433617196829
 21
7285.67114908287
 31
0.0
  0
ARC
  5
18006
330
747D
100
AcDbEntity
  8
細線
 48
50.0
100
AcDbCircle
 10
9129.433617196829
 20
7284.671149082869
 30
0.0
 40
1.0
100
AcDbArc
 50
24.62431835213048
 51
90.0
  0
ARC
  5
18007
330
747D
100
AcDbEntity
  8
細線
 48
50.0
100
AcDbCircle
 10
9140.342329311462
 20
7284.671149082869
 30
0.0
 40
1.0
100
AcDbArc
 50
90.0
 51
155.3756816478695
  0
ARC
  5
18008
330
747D
100
AcDbEntity
  8
細線
 48
50.0
100
AcDbCircle
 10
9134.887973254143
 20
7287.17114908287
 30
0.0
 40
5.0
100
AcDbArc
 50
204.6243183521304
 51
335.3756816478695
  0
LINE
  5
18009
330
747D
100
AcDbEntity
  8
細線
 48
50.0
100
AcDbLine
 10
9140.342329311462
 20
7285.67114908287
 30
0.0
 11
9151.270777791895
 21
7285.671149082872
 31
0.0
  0
LINE
  5
1800A
330
747D
100
AcDbEntity
  8
細線
 48
50.0
100
AcDbLine
 10
9151.270777791895
 20
7285.671149082872
 30
0.0
 11
9157.026295374562
 21
7267.400297792379
 31
0.0
  0
LINE
  5
1800B
330
747D
100
AcDbEntity
  8
細線
 48
50.0
100
AcDbLine
 10
9449.887686121199
 20
7288.000297792378
 30
0.0
 11
8698.887686121201
 21
7288.000297792378
 31
0.0
  0
LINE
  5
1800C
330
747D
100
AcDbEntity
  8
細線
 48
50.0
100
AcDbLine
 10
9309.887686121198
 20
7267.400297792379
 30
0.0
 11
9239.887686121198
 21
7267.400297792379
 31
0.0
  0
LINE
  5
1800D
330
747D
100
AcDbEntity
  8
細線
100
AcDbLine
 10
9029.887686121197
 20
7267.400297792379
 30
0.0
 11
8959.887694306614
 21
7267.400297792379
 31
0.0
  0
LINE
  5
1800E
330
747D
100
AcDbEntity
  8
細線
 48
50.0
100
AcDbLine
 10
10103.88767681402
 20
7322.000341650246
 30
0.0
 11
9468.887686121197
 21
7322.000341650242
 31
0.0
  0
LINE
  5
1800F
330
747D
100
AcDbEntity
  8
細線
 48
50.0
100
AcDbLine
 10
9468.887686121197
 20
7318.896492057885
 30
0.0
 11
9468.887686121197
 21
7323.396492057885
 31
0.0
  0
LINE
  5
18010
330
747D
100
AcDbEntity
  8
細線
 48
50.0
100
AcDbLine
 10
9468.887686121197
 20
7323.396492057885
 30
0.0
 11
9453.887686121197
 21
7323.396492057885
 31
0.0
  0
LINE
  5
18011
330
747D
100
AcDbEntity
  8
細線
 48
50.0
100
AcDbLine
 10
9453.887686121197
 20
7323.396492057885
 30
0.0
 11
9453.887686121197
 21
7330.396492057886
 31
0.0
  0
LINE
  5
18012
330
747D
100
AcDbEntity
  8
細線
 48
50.0
100
AcDbLine
 10
9453.887686121197
 20
7330.396492057886
 30
0.0
 11
9438.887686121201
 21
7330.396492057882
 31
0.0
  0
LINE
  5
18013
330
747D
100
AcDbEntity
  8
細線
 48
50.0
100
AcDbLine
 10
9438.887686121201
 20
7330.396492057882
 30
0.0
 11
9438.887686121201
 21
7292.796263954771
 31
0.0
  0
LINE
  5
18014
330
747D
100
AcDbEntity
  8
細線
 48
50.0
100
AcDbLine
 10
9438.887686121201
 20
7292.796263954771
 30
0.0
 11
9458.887693422374
 21
7292.796305504314
 31
0.0
  0
LINE
  5
18015
330
747D
100
AcDbEntity
  8
細線
 48
50.0
100
AcDbLine
 10
9458.887648553432
 20
7301.399767140122
 30
0.0
 11
9458.887693422374
 21
7292.796305504314
 31
0.0
  0
LINE
  5
18016
330
747D
100
AcDbEntity
  8
細線
 48
50.0
100
AcDbLine
 10
10103.88767681402
 20
7318.550341650245
 30
0.0
 11
10103.88767681402
 21
7323.400341650243
 31
0.0
  0
LINE
  5
18017
330
747D
100
AcDbEntity
  8
細線
 48
50.0
100
AcDbLine
 10
10103.88767681402
 20
7323.400341650243
 30
0.0
 11
10118.88767681402
 21
7323.400341650243
 31
0.0
  0
LINE
  5
18018
330
747D
100
AcDbEntity
  8
細線
 48
50.0
100
AcDbLine
 10
10118.88767681402
 20
7323.400341650243
 30
0.0
 11
10118.88768844799
 21
7330.400341650288
 31
0.0
  0
LINE
  5
18019
330
747D
100
AcDbEntity
  8
細線
 48
50.0
100
AcDbLine
 10
10118.88768844799
 20
7330.400341650288
 30
0.0
 11
10133.88768661852
 21
7330.400341650288
 31
0.0
  0
LINE
  5
1801A
330
747D
100
AcDbEntity
  8
細線
 48
50.0
100
AcDbLine
 10
10133.88768661852
 20
7330.400341650288
 30
0.0
 11
10133.8876763167
 21
7301.400135478013
 31
0.0
  0
LINE
  5
1801B
330
747D
100
AcDbEntity
  8
細線
 48
50.0
100
AcDbLine
 10
9821.387703947486
 20
7301.40014366538
 30
0.0
 11
9751.387956029903
 21
7301.400138228043
 31
0.0
  0
LINE
  5
1801C
330
747D
100
AcDbEntity
  8
細線
 48
50.0
100
AcDbLine
 10
9458.887648553432
 20
7301.399767140122
 30
0.0
 11
9470.120337908142
 21
7301.399950093268
 31
0.0
  0
ARC
  5
1801D
330
747D
100
AcDbEntity
  8
細線
 48
50.0
100
AcDbCircle
 10
9476.702630215477
 20
7300.200114006881
 30
0.0
 40
1.8
100
AcDbArc
 50
270.0006665777295
 51
345.0005554812987
  0
LINE
  5
1801E
330
747D
100
AcDbEntity
  8
細線
 48
50.0
100
AcDbLine
 10
9478.689063661557
 20
7300.65895446416
 30
0.0
 11
9478.441301219358
 21
7299.734256582053
 31
0.0
  0
LINE
  5
1801F
330
747D
100
AcDbEntity
  8
細線
 48
50.0
100
AcDbLine
 10
9476.702651156633
 20
7298.400114007002
 30
0.0
 11
9473.072723737862
 21
7298.400071776521
 31
0.0
  0
ARC
  5
18020
330
747D
100
AcDbEntity
  8
細線
 48
50.0
100
AcDbCircle
 10
9473.072702796711
 20
7300.200071776401
 30
0.0
 40
1.8
100
AcDbArc
 50
195.0010443049394
 51
270.0006665777295
  0
LINE
  5
18021
330
747D
100
AcDbEntity
  8
細線
 48
50.0
100
AcDbLine
 10
9471.086275304454
 20
7300.658786743965
 30
0.0
 11
9471.334044800967
 21
7299.734165805382
 31
0.0
  0
ARC
  5
18022
330
747D
100
AcDbEntity
  8
細線
 48
50.0
100
AcDbCircle
 10
9470.120354195705
 20
7300.399950093403
 30
0.0
 40
1.0
100
AcDbArc
 50
15.00104430493943
 51
90.00093320877969
  0
LINE
  5
18023
330
747D
100
AcDbEntity
  8
細線
 48
50.0
100
AcDbLine
 10
9479.65498501666
 20
7301.400144783674
 30
0.0
 11
9480.596745167565
 21
7301.400151357523
 31
0.0
  0
ARC
  5
18024
330
747D
100
AcDbEntity
  8
細線
 48
50.0
100
AcDbCircle
 10
9479.654991997046
 20
7300.400144783698
 30
0.0
 40
1.0
100
AcDbArc
 50
90.0003999466794
 51
165.0005554812987
  0
LINE
  5
18025
330
747D
100
AcDbEntity
  8
細線
 48
50.0
100
AcDbLine
 10
10031.38767681401
 20
7301.400135478013
 30
0.0
 11
10133.8876763167
 21
7301.400135478013
 31
0.0
  0
LINE
  5
18026
330
747D
100
AcDbEntity
  8
細線
 48
50.0
100
AcDbLine
 10
9541.387712132902
 20
7301.40014366538
 30
0.0
 11
9480.287650905983
 21
7301.400151357523
 31
0.0
  0
LINE
  5
18027
330
747D
100
AcDbEntity
  8
細線
 48
50.0
100
AcDbLine
 10
9961.387712132903
 20
7301.400180506462
 30
0.0
 11
9891.387705178516
 21
7301.400135483794
 31
0.0
  0
LINE
  5
18028
330
747D
100
AcDbEntity
  8
細線
 48
50.0
100
AcDbLine
 10
9681.387676814011
 20
7301.400135478011
 30
0.0
 11
9611.387659526137
 21
7301.400135478018
 31
0.0
  0
ARC
  5
18029
330
747D
100
AcDbEntity
  8
細線
 48
50.0
100
AcDbCircle
 10
10118.08768146762
 20
7334.600123615425
 30
0.0
 40
0.8
100
AcDbArc
 50
359.9997333689499
 51
89.99986668437072
  0
ARC
  5
1802A
330
747D
100
AcDbEntity
  8
細線
 48
50.0
100
AcDbCircle
 10
10125.68768829271
 20
7334.600134784041
 30
0.0
 40
0.8
100
AcDbArc
 50
90.00014387753465
 51
179.9997333689498
  0
LINE
  5
1802B
330
747D
100
AcDbEntity
  8
細線
 48
50.0
100
AcDbLine
 10
10118.08768332905
 20
7335.400123615423
 30
0.0
 11
10112.88768146761
 21
7335.400123615423
 31
0.0
  0
ARC
  5
1802C
330
747D
100
AcDbEntity
  8
細線
 48
50.0
100
AcDbCircle
 10
10119.58768146761
 20
7333.100123615425
 30
0.0
 40
0.7
100
AcDbArc
 50
180.0
 51
270.0
  0
ARC
  5
1802D
330
747D
100
AcDbEntity
  8
細線
 48
50.0
100
AcDbCircle
 10
10124.18768146761
 20
7333.100123615425
 30
0.0
 40
0.7
100
AcDbArc
 50
270.0
 51
0.0
  0
LINE
  5
1802E
330
747D
100
AcDbEntity
  8
細線
 48
50.0
100
AcDbLine
 10
10124.88768146761
 20
7333.100123615425
 30
0.0
 11
10124.88768829272
 21
7334.600138506913
 31
0.0
  0
LINE
  5
1802F
330
747D
100
AcDbEntity
  8
細線
 48
50.0
100
AcDbLine
 10
10119.58768146761
 20
7332.400123615423
 30
0.0
 11
10124.18768146761
 21
7332.400123615423
 31
0.0
  0
LINE
  5
18030
330
747D
100
AcDbEntity
  8
細線
 48
50.0
100
AcDbLine
 10
10118.8876814676
 20
7334.600123615425
 30
0.0
 11
10118.8876814676
 21
7333.100123615425
 31
0.0
  0
LINE
  5
18031
330
747D
100
AcDbEntity
  8
細線
 48
50.0
100
AcDbLine
 10
10744.48768146761
 20
7365.400123615424
 30
0.0
 11
10107.88768146761
 21
7365.40012361542
 31
0.0
  0
LINE
  5
18032
330
747D
100
AcDbEntity
  8
細線
 48
50.0
100
AcDbLine
 10
10770.38768146761
 20
7360.400123615427
 30
0.0
 11
10754.48768146761
 21
7360.400123615423
 31
0.0
  0
LINE
  5
18033
330
747D
100
AcDbEntity
  8
細線
 48
50.0
100
AcDbLine
 10
10754.48768146761
 20
7360.400123615423
 30
0.0
 11
10744.48768146761
 21
7365.400123615424
 31
0.0
  0
LINE
  5
18034
330
747D
100
AcDbEntity
  8
細線
100
AcDbLine
 10
10355.38768146761
 20
7335.400123615423
 30
0.0
 11
10355.38768146761
 21
7364.700123615422
 31
0.0
  0
LINE
  5
18035
330
747D
100
AcDbEntity
  8
細線
100
AcDbLine
 10
10355.38768146761
 20
7364.700123615422
 30
0.0
 11
10375.38768146761
 21
7364.700123615422
 31
0.0
  0
LINE
  5
18036
330
747D
100
AcDbEntity
  8
細線
100
AcDbLine
 10
10375.38768146761
 20
7335.400123615423
 30
0.0
 11
10375.38768146761
 21
7364.700123615422
 31
0.0
  0
LINE
  5
18037
330
747D
100
AcDbEntity
  8
細線
100
AcDbLine
 10
10536.63768146761
 20
7335.400123615423
 30
0.0
 11
10466.6376814676
 21
7335.400123615423
 31
0.0
  0
LINE
  5
18038
330
747D
100
AcDbEntity
  8
細線
 48
50.0
100
AcDbLine
 10
10256.63768146761
 20
7335.400123615423
 30
0.0
 11
10125.68346104045
 21
7335.400123615423
 31
0.0
  0
LINE
  5
18039
330
747D
100
AcDbEntity
  8
細線
100
AcDbLine
 10
10396.63768146761
 20
7335.400123615423
 30
0.0
 11
10326.6376814676
 21
7335.400123615423
 31
0.0
  0
LINE
  5
1803A
330
747D
100
AcDbEntity
  8
細線
 48
50.0
100
AcDbLine
 10
10112.88768146761
 20
7327.400123615423
 30
0.0
 11
10112.88768146761
 21
7335.400123615423
 31
0.0
  0
LINE
  5
1803B
330
747D
100
AcDbEntity
  8
細線
 48
50.0
100
AcDbLine
 10
10092.88768146761
 20
7327.400123615428
 30
0.0
 11
10112.88768146761
 21
7327.400123615423
 31
0.0
  0
LINE
  5
1803C
330
747D
100
AcDbEntity
  8
細線
 48
50.0
100
AcDbLine
 10
10107.88768146761
 20
7365.400123615424
 30
0.0
 11
10107.88768146761
 21
7360.400123615423
 31
0.0
  0
LINE
  5
1803D
330
747D
100
AcDbEntity
  8
細線
 48
50.0
100
AcDbLine
 10
10092.88768146761
 20
7365.40012361542
 30
0.0
 11
10107.88768146761
 21
7365.400123615424
 31
0.0
  0
LINE
  5
1803E
330
747D
100
AcDbEntity
  8
細線
 48
50.0
100
AcDbLine
 10
10092.88768146761
 20
7327.400123615428
 30
0.0
 11
10092.88768146761
 21
7365.40012361542
 31
0.0
  0
LINE
  5
1803F
330
747D
100
AcDbEntity
  8
細線
100
AcDbLine
 10
10760.88768146761
 20
7335.400123615423
 30
0.0
 11
10606.6376814676
 21
7335.400123615423
 31
0.0
  0
LINE
  5
18040
330
747D
100
AcDbEntity
  8
細線
 48
50.0
100
AcDbLine
 10
10770.38768146761
 20
7360.400123615427
 30
0.0
 11
10770.38768146761
 21
7335.400123615423
 31
0.0
  0
DIMENSION
  5
184BE
330
747D
100
AcDbEntity
  8
寸法
100
AcDbDimension
  2
*D33
 10
10827.88768146761
 20
6083.012606552645
 30
0.0
 11
9530.689470103782
 21
6083.012606552645
 31
0.0
 70
   160
 71
     5
 42
2629.999999999982
  3
INABA_S40G
100
AcDbAlignedDimension
 13
8197.887681467634
 23
7339.400123615391
 33
0.0
 14
10827.88768146761
 24
7339.400123615554
 34
0.0
100
AcDbRotatedDimension
1001
ACAD
1000
DSTYLE
1002
{
1002
}
  0
LINE
  5
184BF
330
747D
100
AcDbEntity
  8
部品1
100
AcDbLine
 10
9894.623014581849
 20
5891.663454622474
 30
0.0
 11
9131.152348353412
 21
5891.663454622474
 31
0.0
  0
LINE
  5
184C0
330
747D
100
AcDbEntity
  8
部品1
100
AcDbLine
 10
9894.623014581849
 20
5651.771133076941
 30
0.0
 11
9894.623014581849
 21
5891.663454622474
 31
0.0
  0
LINE
  5
184C1
330
747D
100
AcDbEntity
  8
部品1
100
AcDbLine
 10
9131.152348353412
 20
5651.771133076941
 30
0.0
 11
9894.623014581849
 21
5651.771133076941
 31
0.0
  0
LINE
  5
184C2
330
747D
100
AcDbEntity
  8
部品1
100
AcDbLine
 10
9131.152348353412
 20
5891.663454622474
 30
0.0
 11
9131.152348353412
 21
5651.771133076941
 31
0.0
  0
TEXT
  5
184C3
330
747D
100
AcDbEntity
  8
部品1
100
AcDbText
 10
9221.071958182449
 20
5698.76992540395
 30
0.0
 40
135.0
  1
平面図
  7
STYLE2
100
AcDbText
  0
DIMENSION
  5
184C4
330
747D
100
AcDbEntity
  8
寸法
 48
50.0
100
AcDbDimension
  2
*D31
 10
10799.88768146761
 20
6342.270408187657
 30
0.0
 11
9745.020438214922
 21
6342.270408187657
 31
0.0
 70
   160
 71
     5
 42
2154.0
  3
INABA_S40G
100
AcDbAlignedDimension
 13
8645.887681467607
 23
7262.400123615424
 33
0.0
 14
10799.88768146761
 24
7262.400123615424
 34
0.0
100
AcDbRotatedDimension
1001
ACAD
1000
DSTYLE
1002
{
1070
   341
1005
0
1002
}
  0
DIMENSION
  5
184C5
330
747D
100
AcDbEntity
  8
寸法
100
AcDbDimension
  2
*D32
 10
7903.276435840917
 20
7264.400123615391
 30
0.0
 11
7903.276435840915
 21
7123.914842241153
 31
0.0
 70
   160
 71
     5
 42
75.0
  3
INABA_S40
100
AcDbAlignedDimension
 13
8197.887681467634
 23
7339.400123615391
 33
0.0
 14
8645.887681467607
 24
7264.400123615391
 34
0.0
 50
90.0
100
AcDbRotatedDimension
1001
ACAD
1000
DSTYLE
1002
{
1070
    41
1040
0.5
1070
    44
1040
1.0
1070
   147
1040
0.8
1070
   271
1070
     2
1070
   272
1070
     2
1070
   289
1070
     3
1070
   340
1005
F706
1070
   343
1005
16D35
1070
   344
1005
16D35
1002
}
  0
LWPOLYLINE
  5
18543
330
747D
100
AcDbEntity
  8
部品1
 48
50.0
100
AcDbPolyline
 90
        4
 70
     1
 43
0.0
 10
8744.93768146763
 20
3497.458819850399
 10
8747.837681467633
 20
3497.458819850399
 10
8747.837681467633
 20
3506.958819850399
 10
8744.93768146763
 20
3506.958819850399
  0
CIRCLE
  5
18544
330
747D
100
AcDbEntity
  8
部品1
 48
50.0
100
AcDbCircle
 10
8746.387681467631
 20
3502.208819850399
 30
0.0
 40
9.0
  0
ARC
  5
18545
330
747D
100
AcDbEntity
  8
細線
 48
50.0
100
AcDbCircle
 10
8746.387681467631
 20
3502.208819850399
 30
0.0
 40
4.0
100
AcDbArc
 50
111.2538091853132
 51
248.7461908146868
  0
ARC
  5
18546
330
747D
100
AcDbEntity
  8
細線
 48
50.0
100
AcDbCircle
 10
8746.387681467631
 20
3502.208819850399
 30
0.0
 40
17.5
100
AcDbArc
 50
306.4837370612677
 51
233.5162629387323
  0
LINE
  5
18547
330
747D
100
AcDbEntity
  8
細線
 48
50.0
100
AcDbLine
 10
8756.387681467627
 20
3478.349859269516
 30
0.0
 11
8756.387681467632
 21
3487.334345069758
 31
0.0
  0
LINE
  5
18548
330
747D
100
AcDbEntity
  8
細線
 48
50.0
100
AcDbLine
 10
8736.387681467631
 20
3478.349859269518
 30
0.0
 11
8736.387681467631
 21
3487.334345069754
 31
0.0
  0
ARC
  5
18549
330
747D
100
AcDbEntity
  8
細線
 48
50.0
100
AcDbCircle
 10
8746.387681467631
 20
3502.208819850399
 30
0.0
 40
26.5
100
AcDbArc
 50
249.3326835063939
 51
290.6673164933835
  0
ARC
  5
1854A
330
747D
100
AcDbEntity
  8
細線
 48
50.0
100
AcDbCircle
 10
8755.387681467624
 20
3478.349859269516
 30
0.0
 40
1.0
100
AcDbArc
 50
290.6673164936062
 51
359.9999999998958
  0
ARC
  5
1854B
330
747D
100
AcDbEntity
  8
細線
 48
50.0
100
AcDbCircle
 10
8737.387681467632
 20
3478.349859269518
 30
0.0
 40
1.0
100
AcDbArc
 50
180.0
 51
249.3326835066164
  0
ARC
  5
1854C
330
747D
100
AcDbEntity
  8
細線
 48
50.0
100
AcDbCircle
 10
8735.387681467631
 20
3487.334345069754
 30
0.0
 40
1.0
100
AcDbArc
 50
0.0
 51
53.51626293873231
  0
ARC
  5
1854D
330
747D
100
AcDbEntity
  8
細線
 48
50.0
100
AcDbCircle
 10
8757.387681467635
 20
3487.334345069758
 30
0.0
 40
1.0
100
AcDbArc
 50
126.4837370615127
 51
180.0
  0
ARC
  5
1854E
330
747D
100
AcDbEntity
  8
細線
 48
50.0
100
AcDbCircle
 10
8746.387681467631
 20
3502.208819850399
 30
0.0
 40
21.5
100
AcDbArc
 50
255.8014401250294
 51
284.1985598749706
  0
ARC
  5
1854F
330
747D
100
AcDbEntity
  8
細線
 48
50.0
100
AcDbCircle
 10
8746.387681467631
 20
3502.208819850399
 30
0.0
 40
16.5
100
AcDbArc
 50
251.9694646069326
 51
288.0305353930674
  0
LINE
  5
18550
330
747D
100
AcDbEntity
  8
細線
 48
50.0
100
AcDbLine
 10
8751.887681467632
 20
3481.656447724592
 30
0.0
 11
8751.887681467632
 21
3486.233839411929
 31
0.0
  0
LINE
  5
18551
330
747D
100
AcDbEntity
  8
細線
 48
50.0
100
AcDbLine
 10
8740.887681467631
 20
3481.656447724592
 30
0.0
 11
8740.887681467631
 21
3486.233839411927
 31
0.0
  0
ARC
  5
18552
330
747D
100
AcDbEntity
  8
細線
 48
50.0
100
AcDbCircle
 10
8741.187681467634
 20
3486.233839411927
 30
0.0
 40
0.3
100
AcDbArc
 50
71.96946460693259
 51
180.0
  0
ARC
  5
18553
330
747D
100
AcDbEntity
  8
細線
 48
50.0
100
AcDbCircle
 10
8751.587681467631
 20
3486.233839411929
 30
0.0
 40
0.3
100
AcDbArc
 50
0.0
 51
108.0305353930674
  0
ARC
  5
18554
330
747D
100
AcDbEntity
  8
細線
 48
50.0
100
AcDbCircle
 10
8751.587681467629
 20
3481.656447724592
 30
0.0
 40
0.3
100
AcDbArc
 50
284.1985598747622
 51
0.0000000001042204
  0
ARC
  5
18555
330
747D
100
AcDbEntity
  8
細線
 48
50.0
100
AcDbCircle
 10
8741.187681467634
 20
3481.656447724592
 30
0.0
 40
0.3
100
AcDbArc
 50
180.0
 51
255.8014401248081
  0
CIRCLE
  5
18556
330
747D
100
AcDbEntity
  8
細線
 48
50.0
100
AcDbCircle
 10
8746.387681467631
 20
3502.208819850399
 30
0.0
 40
12.0
  0
ARC
  5
18557
330
747D
100
AcDbEntity
  8
部品1
 48
50.0
100
AcDbCircle
 10
8746.387681467631
 20
3552.208819850399
 30
0.0
 40
8.5
100
AcDbArc
 50
114.315739171091
 51
245.684260828909
  0
CIRCLE
  5
18558
330
747D
100
AcDbEntity
  8
細線
 48
50.0
100
AcDbCircle
 10
8746.387681467631
 20
3552.208819850399
 30
0.0
 40
4.5
  0
LWPOLYLINE
  5
18559
330
747D
100
AcDbEntity
  8
部品1
 48
50.0
100
AcDbPolyline
 90
        2
 70
     0
 43
0.0
 10
8742.887681467632
 20
3570.883669247382
 10
8742.887681467632
 20
3559.954786542814
  0
CIRCLE
  5
1855A
330
747D
100
AcDbEntity
  8
部品1
 48
50.0
100
AcDbCircle
 10
8746.387681467631
 20
3552.208819850399
 30
0.0
 40
19.0
  0
LWPOLYLINE
  5
1855B
330
747D
100
AcDbEntity
  8
部品1
 48
50.0
100
AcDbPolyline
 90
        2
 70
     0
 43
0.0
 10
8742.887681467632
 20
3544.462853157984
 10
8742.887681467632
 20
3533.533970453416
  0
LWPOLYLINE
  5
1855C
330
747D
100
AcDbEntity
  8
部品1
 48
50.0
100
AcDbPolyline
 90
        2
 70
     0
 43
0.0
 10
8749.887681467631
 20
3559.954786542814
 10
8749.887681467631
 20
3570.883669247382
  0
ARC
  5
1855D
330
747D
100
AcDbEntity
  8
部品1
 48
50.0
100
AcDbCircle
 10
8746.387681467631
 20
3552.208819850399
 30
0.0
 40
8.5
100
AcDbArc
 50
294.315739171091
 51
65.68426082890896
  0
LWPOLYLINE
  5
1855E
330
747D
100
AcDbEntity
  8
部品1
 48
50.0
100
AcDbPolyline
 90
        2
 70
     0
 43
0.0
 10
8749.887681467631
 20
3533.533970453416
 10
8749.887681467631
 20
3544.462853157984
  0
ARC
  5
1855F
330
747D
100
AcDbEntity
  8
細線
 48
50.0
100
AcDbCircle
 10
8746.387681467631
 20
3552.208819850399
 30
0.0
 40
16.5
100
AcDbArc
 50
332.0012352654438
 51
27.99876473455621
  0
ARC
  5
18560
330
747D
100
AcDbEntity
  8
細線
 48
50.0
100
AcDbCircle
 10
8746.387681467631
 20
3552.208819850399
 30
0.0
 40
14.0
100
AcDbArc
 50
326.4074436112986
 51
33.59255638870134
  0
LINE
  5
18561
330
747D
100
AcDbEntity
  8
細線
 48
50.0
100
AcDbLine
 10
8731.818879183299
 20
3559.954786542814
 30
0.0
 11
8734.725777677942
 21
3559.954786542814
 31
0.0
  0
LINE
  5
18562
330
747D
100
AcDbEntity
  8
細線
 48
50.0
100
AcDbLine
 10
8731.818879183299
 20
3544.462853157984
 30
0.0
 11
8734.725777677942
 21
3544.462853157984
 31
0.0
  0
LINE
  5
18563
330
747D
100
AcDbEntity
  8
細線
 48
50.0
100
AcDbLine
 10
8758.049585257321
 20
3559.954786542814
 30
0.0
 11
8760.956483751966
 21
3559.954786542814
 31
0.0
  0
LINE
  5
18564
330
747D
100
AcDbEntity
  8
細線
 48
50.0
100
AcDbLine
 10
8758.049585257321
 20
3544.462853157984
 30
0.0
 11
8760.956483751966
 21
3544.462853157984
 31
0.0
  0
ARC
  5
18565
330
747D
100
AcDbEntity
  8
細線
 48
50.0
100
AcDbCircle
 10
8746.387681467631
 20
3552.208819850399
 30
0.0
 40
14.0
100
AcDbArc
 50
146.4074436112986
 51
213.5925563887013
  0
ARC
  5
18566
330
747D
100
AcDbEntity
  8
細線
 48
50.0
100
AcDbCircle
 10
8746.387681467631
 20
3552.208819850399
 30
0.0
 40
16.5
100
AcDbArc
 50
152.0012352654438
 51
207.9987647345562
  0
ARC
  5
18567
330
747D
100
AcDbEntity
  8
部品1
 48
50.0
100
AcDbCircle
 10
8719.88768146763
 20
3577.708819850399
 30
0.0
 40
5.0
100
AcDbArc
 50
90.0
 51
180.0
  0
ARC
  5
18568
330
747D
100
AcDbEntity
  8
部品1
 48
50.0
100
AcDbCircle
 10
8719.88768146763
 20
3466.708819850399
 30
0.0
 40
5.0
100
AcDbArc
 50
180.0
 51
270.0
  0
ARC
  5
18569
330
747D
100
AcDbEntity
  8
部品1
 48
50.0
100
AcDbCircle
 10
8772.887681467631
 20
3466.708819850399
 30
0.0
 40
5.0
100
AcDbArc
 50
270.0
 51
0.0
  0
ARC
  5
1856A
330
747D
100
AcDbEntity
  8
部品1
 48
50.0
100
AcDbCircle
 10
8772.887681467631
 20
3577.708819850399
 30
0.0
 40
5.0
100
AcDbArc
 50
0.0
 51
90.0
  0
LINE
  5
1856C
330
747D
100
AcDbEntity
  8
部品1
 48
50.0
100
AcDbLine
 10
8714.887681467631
 20
3466.708819850399
 30
0.0
 11
8714.887681467631
 21
3577.708819850399
 31
0.0
  0
LINE
  5
1856D
330
747D
100
AcDbEntity
  8
部品1
 48
50.0
100
AcDbLine
 10
8772.887681467631
 20
3461.708819850399
 30
0.0
 11
8719.88768146763
 21
3461.708819850399
 31
0.0
  0
LINE
  5
1856E
330
747D
100
AcDbEntity
  8
部品1
 48
50.0
100
AcDbLine
 10
8777.88768146763
 20
3577.708819850399
 30
0.0
 11
8777.88768146763
 21
3466.708819850399
 31
0.0
  0
ENDSEC
  0
SECTION
  2
OBJECTS
  0
DICTIONARY
  5
7471
330
0
100
AcDbDictionary
281
     1
  3
ACAD_COLOR
350
16D2A
  3
ACAD_GROUP
350
7472
  3
ACAD_LAYOUT
350
16D2B
  3
ACAD_MATERIAL
350
16D29
  3
ACAD_MLINESTYLE
350
7473
  3
ACAD_PLOTSETTINGS
350
16D2C
  3
ACAD_PLOTSTYLENAME
350
16D27
  3
ACDBHEADERROUNDTRIPXREC
350
1857D
  3
AcDbVariableDictionary
350
18579
  3
CONTENTDICTIONARY
350
E71C
  3
DRAWINGVARIABLESDICT
350
F3B9
  0
DICTIONARY
  5
16EC4
330
7467
100
AcDbDictionary
280
     1
281
     1
  3
ACAD_LAYERSTATES
360
16EC5
  0
DICTIONARY
  5
16D2A
102
{ACAD_REACTORS
330
7471
102
}
330
7471
100
AcDbDictionary
281
     1
  0
DICTIONARY
  5
7472
102
{ACAD_REACTORS
330
7471
102
}
330
7471
100
AcDbDictionary
281
     1
  0
DICTIONARY
  5
16D2B
102
{ACAD_REACTORS
330
7471
102
}
330
7471
100
AcDbDictionary
281
     1
  3
Model
350
16D2D
  3
レイアウト1
350
16D2E
  0
DICTIONARY
  5
16D29
102
{ACAD_REACTORS
330
7471
102
}
330
7471
100
AcDbDictionary
281
     1
  0
DICTIONARY
  5
7473
102
{ACAD_REACTORS
330
7471
102
}
330
7471
100
AcDbDictionary
281
     1
  3
STANDARD
350
7480
  0
DICTIONARY
  5
16D2C
102
{ACAD_REACTORS
330
7471
102
}
330
7471
100
AcDbDictionary
281
     1
  0
ACDBDICTIONARYWDFLT
  5
16D27
102
{ACAD_REACTORS
330
7471
102
}
330
7471
100
AcDbDictionary
281
     1
  3
Normal
350
16D28
100
AcDbDictionaryWithDefault
340
16D28
  0
DICTIONARY
  5
1857D
102
{ACAD_REACTORS
330
7471
102
}
330
7471
100
AcDbDictionary
281
     1
  3
COLORDICT
350
1857F
  3
MATERIALDICT
350
1857E
  0
DICTIONARY
  5
18579
102
{ACAD_REACTORS
330
7471
102
}
330
7471
100
AcDbDictionary
281
     1
  3
DIMASSOC
350
1857A
  3
PROJECTNAME
350
1857B
  0
DICTIONARY
  5
E71C
102
{ACAD_REACTORS
330
7471
102
}
330
7471
100
AcDbDictionary
281
     1
  0
DICTIONARY
  5
F3B9
102
{ACAD_REACTORS
330
7471
102
}
330
7471
100
AcDbDictionary
281
     1
1001
DRAWINGVARIABLESXDATA
1000
POLARMODE
1000
1
  0
DICTIONARY
  5
16EC5
102
{ACAD_REACTORS
330
16EC4
102
}
330
16EC4
100
AcDbDictionary
281
     1
  0
LAYOUT
  5
16D2D
102
{ACAD_XDICTIONARY
360
18580
102
}
102
{ACAD_REACTORS
330
16D2B
102
}
330
16D2B
100
AcDbPlotSettings
  1

  2
Microsoft Office Document Image Writer
  4

  6

 40
0.0
 41
0.0
 42
0.0
 43
0.0
 44
0.0
 45
0.0
 46
0.0
 47
0.0
 48
0.0
 49
0.0
140
0.0
141
0.0
142
1.0
143
1.0
 70
  1712
 72
     0
 73
     0
 74
     0
  7

 75
     0
147
1.0
148
0.0
149
0.0
100
AcDbLayout
  1
Model
 70
     1
 71
     0
 10
0.0
 20
0.0
 11
12.0
 21
9.0
 12
0.0
 22
0.0
 32
0.0
 14
0.0
 24
0.0
 34
0.0
 15
0.0
 25
0.0
 35
0.0
146
0.0
 13
0.0
 23
0.0
 33
0.0
 16
1.0
 26
0.0
 36
0.0
 17
0.0
 27
1.0
 37
0.0
 76
     0
330
747D
  0
LAYOUT
  5
16D2E
102
{ACAD_XDICTIONARY
360
18582
102
}
102
{ACAD_REACTORS
330
16D2B
102
}
330
16D2B
100
AcDbPlotSettings
  1

  2
Microsoft Office Document Image Writer
  4

  6

 40
0.0
 41
0.0
 42
0.0
 43
0.0
 44
0.0
 45
0.0
 46
0.0
 47
0.0
 48
0.0
 49
0.0
140
0.0
141
0.0
142
1.0
143
1.0
 70
   688
 72
     0
 73
     0
 74
     5
  7

 75
    16
147
1.0
148
0.0
149
0.0
100
AcDbLayout
  1
レイアウト1
 70
     0
 71
     1
 10
0.0
 20
0.0
 11
420.0
 21
297.0
 12
0.0
 22
0.0
 32
0.0
 14
1.000000000000000E+20
 24
1.000000000000000E+20
 34
1.000000000000000E+20
 15
-1.000000000000000E+20
 25
-1.000000000000000E+20
 35
-1.000000000000000E+20
146
0.0
 13
0.0
 23
0.0
 33
0.0
 16
1.0
 26
0.0
 36
0.0
 17
0.0
 27
1.0
 37
0.0
 76
     0
330
747A
  0
MLINESTYLE
  5
7480
102
{ACAD_REACTORS
330
7473
102
}
330
7473
100
AcDbMlineStyle
  2
STANDARD
 70
     0
  3

 62
     0
 51
90.0
 52
90.0
 71
     2
 49
0.5
 62
   256
  6
BYLAYER
 49
-0.5
 62
   256
  6
BYLAYER
  0
ACDBPLACEHOLDER
  5
16D28
102
{ACAD_REACTORS
330
16D27
102
}
330
16D27
  0
XRECORD
  5
1857F
102
{ACAD_REACTORS
330
1857D
102
}
330
1857D
100
AcDbXrecord
280
     1
340
16D2A
  0
XRECORD
  5
1857E
102
{ACAD_REACTORS
330
1857D
102
}
330
1857D
100
AcDbXrecord
280
     1
340
16D29
  0
DICTIONARYVAR
  5
1857A
102
{ACAD_REACTORS
330
18579
102
}
330
18579
100
DictionaryVariables
280
     0
  1
1
  0
DICTIONARYVAR
  5
1857B
102
{ACAD_REACTORS
330
18579
102
}
330
18579
100
DictionaryVariables
280
     0
  1

  0
DICTIONARY
  5
18580
330
16D2D
100
AcDbDictionary
280
     1
281
     1
  3
ACAD_XREC_ROUNDTRIP
360
18581
  0
DICTIONARY
  5
18582
330
16D2E
100
AcDbDictionary
280
     1
281
     1
  3
ACAD_XREC_ROUNDTRIP
360
18583
  0
XRECORD
  5
18581
102
{ACAD_REACTORS
330
18580
102
}
330
18580
100
AcDbXrecord
280
     1
102
SHADEPLOT
 70
     0
102
SHADEPLOTRESLEVEL
 70
     2
102
SHADEPLOTCUSTOMDPI
 70
   300
  0
XRECORD
  5
18583
102
{ACAD_REACTORS
330
18582
102
}
330
18582
100
AcDbXrecord
280
     1
102
SHADEPLOT
 70
     0
102
SHADEPLOTRESLEVEL
 70
     2
102
SHADEPLOTCUSTOMDPI
 70
   300
  0
ENDSEC
  0
EOF
