  0
SECTION
  2
HEADER
  9
$ACADVER
  1
AC1015
  9
$ACADMAINTVER
 70
    20
  9
$DWGCODEPAGE
  3
ANSI_932
  9
$INSBASE
 10
0.0
 20
0.0
 30
0.0
  9
$EXTMIN
 10
139.9999999999995
 20
-0.0000000000000909
 30
0.0
  9
$EXTMAX
 10
16307.2
 20
11409.6
 30
0.0
  9
$LIMMIN
 10
0.0
 20
0.0
  9
$LIMMAX
 10
16800.0
 20
11880.0
  9
$ORTHOMODE
 70
     0
  9
$REGENMODE
 70
     1
  9
$FILLMODE
 70
     1
  9
$QTEXTMODE
 70
     0
  9
$MIRRTEXT
 70
     1
  9
$LTSCALE
 40
20.0
  9
$ATTMODE
 70
     1
  9
$TEXTSIZE
 40
4.0
  9
$TRACEWID
 40
1.0
  9
$TEXTSTYLE
  7
STYLE1
  9
$CLAYER
  8
部品1
  9
$CELTYPE
  6
BYLAYER
  9
$CECOLOR
 62
   256
  9
$CELTSCALE
 40
50.0
  9
$DISPSILH
 70
     0
  9
$DIMSCALE
 40
40.0
  9
$DIMASZ
 40
2.5
  9
$DIMEXO
 40
0.5
  9
$DIMDLI
 40
7.0
  9
$DIMRND
 40
0.0
  9
$DIMDLE
 40
0.0
  9
$DIMEXE
 40
1.5
  9
$DIMTP
 40
0.0
  9
$DIMTM
 40
0.0
  9
$DIMTXT
 40
3.0
  9
$DIMCEN
 40
0.0
  9
$DIMTSZ
 40
0.0
  9
$DIMTOL
 70
     0
  9
$DIMLIM
 70
     0
  9
$DIMTIH
 70
     0
  9
$DIMTOH
 70
     0
  9
$DIMSE1
 70
     0
  9
$DIMSE2
 70
     0
  9
$DIMTAD
 70
     3
  9
$DIMZIN
 70
     8
  9
$DIMBLK
  1

  9
$DIMASO
 70
     1
  9
$DIMSHO
 70
     1
  9
$DIMPOST
  1

  9
$DIMAPOST
  1

  9
$DIMALT
 70
     0
  9
$DIMALTD
 70
     2
  9
$DIMALTF
 40
0.0394
  9
$DIMLFAC
 40
1.0
  9
$DIMTOFL
 70
     1
  9
$DIMTVP
 40
0.0
  9
$DIMTIX
 70
     1
  9
$DIMSOXD
 70
     0
  9
$DIMSAH
 70
     1
  9
$DIMBLK1
  1
DOTSMALL
  9
$DIMBLK2
  1
DOTSMALL
  9
$DIMSTYLE
  2
INABA_S40G
  9
$DIMCLRD
 70
     0
  9
$DIMCLRE
 70
     0
  9
$DIMCLRT
 70
     7
  9
$DIMTFAC
 40
1.0
  9
$DIMGAP
 40
1.0
  9
$DIMJUST
 70
     0
  9
$DIMSD1
 70
     0
  9
$DIMSD2
 70
     0
  9
$DIMTOLJ
 70
     1
  9
$DIMTZIN
 70
     0
  9
$DIMALTZ
 70
     0
  9
$DIMALTTZ
 70
     0
  9
$DIMUPT
 70
     0
  9
$DIMDEC
 70
     1
  9
$DIMTDEC
 70
     4
  9
$DIMALTU
 70
     2
  9
$DIMALTTD
 70
     2
  9
$DIMTXSTY
  7
STYLE1
  9
$DIMAUNIT
 70
     0
  9
$DIMADEC
 70
     0
  9
$DIMALTRND
 40
0.0
  9
$DIMAZIN
 70
     0
  9
$DIMDSEP
 70
    46
  9
$DIMATFIT
 70
     3
  9
$DIMFRAC
 70
     0
  9
$DIMLDRBLK
  1

  9
$DIMLUNIT
 70
     2
  9
$DIMLWD
 70
    -2
  9
$DIMLWE
 70
    -2
  9
$DIMTMOVE
 70
     0
  9
$LUNITS
 70
     2
  9
$LUPREC
 70
     1
  9
$SKETCHINC
 40
1.0
  9
$FILLETRAD
 40
3.0
  9
$AUNITS
 70
     0
  9
$AUPREC
 70
     0
  9
$MENU
  1
acad
  9
$ELEVATION
 40
0.0
  9
$PELEVATION
 40
0.0
  9
$THICKNESS
 40
0.0
  9
$LIMCHECK
 70
     0
  9
$CHAMFERA
 40
0.0
  9
$CHAMFERB
 40
0.0
  9
$CHAMFERC
 40
0.0
  9
$CHAMFERD
 40
0.0
  9
$SKPOLY
 70
     0
  9
$TDCREATE
 40
2451368.612993866
  9
$TDUCREATE
 40
2451368.237993866
  9
$TDUPDATE
 40
2455575.685930984
  9
$TDUUPDATE
 40
2455575.310930984
  9
$TDINDWG
 40
0.6380691667
  9
$TDUSRTIMER
 40
0.6380691667
  9
$USRTIMER
 70
     1
  9
$ANGBASE
 50
0.0
  9
$ANGDIR
 70
     0
  9
$PDMODE
 70
     3
  9
$PDSIZE
 40
2.0
  9
$PLINEWID
 40
0.0
  9
$SPLFRAME
 70
     0
  9
$SPLINETYPE
 70
     6
  9
$SPLINESEGS
 70
     8
  9
$HANDSEED
  5
18DA8
  9
$SURFTAB1
 70
     6
  9
$SURFTAB2
 70
     6
  9
$SURFTYPE
 70
     6
  9
$SURFU
 70
     6
  9
$SURFV
 70
     6
  9
$UCSBASE
  2

  9
$UCSNAME
  2

  9
$UCSORG
 10
0.0
 20
0.0
 30
0.0
  9
$UCSXDIR
 10
1.0
 20
0.0
 30
0.0
  9
$UCSYDIR
 10
0.0
 20
1.0
 30
0.0
  9
$UCSORTHOREF
  2

  9
$UCSORTHOVIEW
 70
     0
  9
$UCSORGTOP
 10
0.0
 20
0.0
 30
0.0
  9
$UCSORGBOTTOM
 10
0.0
 20
0.0
 30
0.0
  9
$UCSORGLEFT
 10
0.0
 20
0.0
 30
0.0
  9
$UCSORGRIGHT
 10
0.0
 20
0.0
 30
0.0
  9
$UCSORGFRONT
 10
0.0
 20
0.0
 30
0.0
  9
$UCSORGBACK
 10
0.0
 20
0.0
 30
0.0
  9
$PUCSBASE
  2

  9
$PUCSNAME
  2

  9
$PUCSORG
 10
0.0
 20
0.0
 30
0.0
  9
$PUCSXDIR
 10
1.0
 20
0.0
 30
0.0
  9
$PUCSYDIR
 10
0.0
 20
1.0
 30
0.0
  9
$PUCSORTHOREF
  2

  9
$PUCSORTHOVIEW
 70
     0
  9
$PUCSORGTOP
 10
0.0
 20
0.0
 30
0.0
  9
$PUCSORGBOTTOM
 10
0.0
 20
0.0
 30
0.0
  9
$PUCSORGLEFT
 10
0.0
 20
0.0
 30
0.0
  9
$PUCSORGRIGHT
 10
0.0
 20
0.0
 30
0.0
  9
$PUCSORGFRONT
 10
0.0
 20
0.0
 30
0.0
  9
$PUCSORGBACK
 10
0.0
 20
0.0
 30
0.0
  9
$USERI1
 70
     0
  9
$USERI2
 70
     0
  9
$USERI3
 70
     0
  9
$USERI4
 70
     0
  9
$USERI5
 70
     0
  9
$USERR1
 40
0.0
  9
$USERR2
 40
0.0
  9
$USERR3
 40
0.0
  9
$USERR4
 40
0.0
  9
$USERR5
 40
0.0
  9
$WORLDVIEW
 70
     1
  9
$SHADEDGE
 70
     3
  9
$SHADEDIF
 70
    70
  9
$TILEMODE
 70
     1
  9
$MAXACTVP
 70
    16
  9
$PINSBASE
 10
0.0
 20
0.0
 30
0.0
  9
$PLIMCHECK
 70
     0
  9
$PEXTMIN
 10
1.000000000000000E+20
 20
1.000000000000000E+20
 30
1.000000000000000E+20
  9
$PEXTMAX
 10
-1.000000000000000E+20
 20
-1.000000000000000E+20
 30
-1.000000000000000E+20
  9
$PLIMMIN
 10
0.0
 20
0.0
  9
$PLIMMAX
 10
420.0
 20
297.0
  9
$UNITMODE
 70
     0
  9
$VISRETAIN
 70
     0
  9
$PLINEGEN
 70
     0
  9
$PSLTSCALE
 70
     0
  9
$TREEDEPTH
 70
  3020
  9
$CMLSTYLE
  2
STANDARD
  9
$CMLJUST
 70
     0
  9
$CMLSCALE
 40
1.0
  9
$PROXYGRAPHICS
 70
     1
  9
$MEASUREMENT
 70
     1
  9
$CELWEIGHT
370
    -1
  9
$ENDCAPS
280
     0
  9
$JOINSTYLE
280
     0
  9
$LWDISPLAY
290
     0
  9
$INSUNITS
 70
     0
  9
$HYPERLINKBASE
  1

  9
$STYLESHEET
  1

  9
$XEDIT
290
     1
  9
$CEPSNTYPE
380
     0
  9
$PSTYLEMODE
290
     1
  9
$FINGERPRINTGUID
  2
{50E3DE9D-5577-45FF-AEC9-A5CEE8843FD3}
  9
$VERSIONGUID
  2
{B4C36249-BD7C-48E6-8B1D-D9B48554D055}
  9
$EXTNAMES
290
     1
  9
$PSVPSCALE
 40
0.0
  9
$OLESTARTUP
290
     0
  0
ENDSEC
  0
SECTION
  2
CLASSES
  0
CLASS
  1
ACDBDICTIONARYWDFLT
  2
AcDbDictionaryWithDefault
  3
ObjectDBX Classes
 90
        0
280
     0
281
     0
  0
CLASS
  1
DICTIONARYVAR
  2
AcDbDictionaryVar
  3
ObjectDBX Classes
 90
        0
280
     0
281
     0
  0
CLASS
  1
ACDBPLACEHOLDER
  2
AcDbPlaceHolder
  3
ObjectDBX Classes
 90
        0
280
     0
281
     0
  0
CLASS
  1
LAYOUT
  2
AcDbLayout
  3
ObjectDBX Classes
 90
        0
280
     0
281
     0
  0
ENDSEC
  0
SECTION
  2
TABLES
  0
TABLE
  2
VPORT
  5
746D
330
0
100
AcDbSymbolTable
 70
     2
  0
VPORT
  5
18DA0
330
746D
100
AcDbSymbolTableRecord
100
AcDbViewportTableRecord
  2
*Active
 70
     0
 10
0.0
 20
0.0
 11
1.0
 21
1.0
 12
8223.761025238502
 22
6348.703162895247
 13
0.0
 23
0.0
 14
10.0
 24
10.0
 15
10.0
 25
10.0
 16
0.0
 26
0.0
 36
1.0
 17
0.0
 27
0.0
 37
0.0
 40
12805.60689082044
 41
1.525925925925925
 42
50.0
 43
0.0
 44
0.0
 50
0.0
 51
0.0
 71
     0
 72
     0
 73
     1
 74
     0
 75
     0
 76
     0
 77
     0
 78
     0
281
     0
 65
     1
110
0.0
120
0.0
130
0.0
111
1.0
121
0.0
131
0.0
112
0.0
122
1.0
132
0.0
 79
     0
146
0.0
  0
ENDTAB
  0
TABLE
  2
LTYPE
  5
746A
330
0
100
AcDbSymbolTable
 70
     4
  0
LTYPE
  5
7477
330
746A
100
AcDbSymbolTableRecord
100
AcDbLinetypeTableRecord
  2
BYBLOCK
 70
     0
  3

 72
    65
 73
     0
 40
0.0
  0
LTYPE
  5
7478
330
746A
100
AcDbSymbolTableRecord
100
AcDbLinetypeTableRecord
  2
BYLAYER
 70
     0
  3

 72
    65
 73
     0
 40
0.0
  0
LTYPE
  5
7479
330
746A
100
AcDbSymbolTableRecord
100
AcDbLinetypeTableRecord
  2
CONTINUOUS
 70
     0
  3
Solid line
 72
    65
 73
     0
 40
0.0
  0
LTYPE
  5
7816
330
746A
100
AcDbSymbolTableRecord
100
AcDbLinetypeTableRecord
  2
CENTER
 70
     0
  3
____ _ ____ _ ____ _ ____ _ ____ _ ____ _ ____ 
 72
    65
 73
     4
 40
2.0
 49
1.25
 74
     0
 49
-0.25
 74
     0
 49
0.25
 74
     0
 49
-0.25
 74
     0
  0
LTYPE
  5
781A
330
746A
100
AcDbSymbolTableRecord
100
AcDbLinetypeTableRecord
  2
HIDDEN
 70
     0
  3
__ __ __ __ __ __ __ __ __ __ __ __ __ __ __ __
 72
    65
 73
     2
 40
0.375
 49
0.25
 74
     0
 49
-0.125
 74
     0
  0
LTYPE
  5
781B
330
746A
100
AcDbSymbolTableRecord
100
AcDbLinetypeTableRecord
  2
PHANTOM
 70
     0
  3
______  __  __  ______  __  __  ______  __  __ 
 72
    65
 73
     6
 40
2.5
 49
1.25
 74
     0
 49
-0.25
 74
     0
 49
0.25
 74
     0
 49
-0.25
 74
     0
 49
0.25
 74
     0
 49
-0.25
 74
     0
  0
ENDTAB
  0
TABLE
  2
LAYER
  5
7467
102
{ACAD_XDICTIONARY
360
17734
102
}
330
0
100
AcDbSymbolTable
 70
    12
  0
LAYER
  5
7474
330
7467
100
AcDbSymbolTableRecord
100
AcDbLayerTableRecord
  2
0
 70
     0
 62
     7
  6
CONTINUOUS
370
    -3
390
175B0
  0
LAYER
  5
DEB2
330
7467
100
AcDbSymbolTableRecord
100
AcDbLayerTableRecord
  2
センター
 70
     0
 62
     3
  6
CENTER
370
    -3
390
175B0
  0
LAYER
  5
DEB3
330
7467
100
AcDbSymbolTableRecord
100
AcDbLayerTableRecord
  2
寸法
 70
     0
 62
     4
  6
CONTINUOUS
370
    -3
390
175B0
  0
LAYER
  5
DEB4
330
7467
100
AcDbSymbolTableRecord
100
AcDbLayerTableRecord
  2
部品1
 70
     0
 62
     7
  6
CONTINUOUS
370
    -3
390
175B0
  0
LAYER
  5
DEB5
330
7467
100
AcDbSymbolTableRecord
100
AcDbLayerTableRecord
  2
補助
 70
     0
 62
    -1
  6
CONTINUOUS
370
    -3
390
175B0
  0
LAYER
  5
DEB6
330
7467
100
AcDbSymbolTableRecord
100
AcDbLayerTableRecord
  2
文字
 70
     0
 62
     7
  6
CONTINUOUS
370
    -3
390
175B0
  0
LAYER
  5
F255
330
7467
100
AcDbSymbolTableRecord
100
AcDbLayerTableRecord
  2
DEFPOINTS
 70
     0
 62
     7
  6
CONTINUOUS
290
     0
370
    -3
390
175B0
  0
LAYER
  5
10B54
330
7467
100
AcDbSymbolTableRecord
100
AcDbLayerTableRecord
  2
仕様書枠
 70
     0
 62
   230
  6
CONTINUOUS
370
    -3
390
175B0
  0
LAYER
  5
11729
330
7467
100
AcDbSymbolTableRecord
100
AcDbLayerTableRecord
  2
Ｇ．Ｌ
 70
     0
 62
    30
  6
CONTINUOUS
370
    -3
390
175B0
  0
LAYER
  5
1173F
330
7467
100
AcDbSymbolTableRecord
100
AcDbLayerTableRecord
  2
細線
 70
     0
 62
     5
  6
CONTINUOUS
370
    -3
390
175B0
  0
LAYER
  5
12CC4
330
7467
100
AcDbSymbolTableRecord
100
AcDbLayerTableRecord
  2
想像線
 70
     0
 62
     6
  6
PHANTOM
370
    -3
390
175B0
  0
LAYER
  5
142E2
330
7467
100
AcDbSymbolTableRecord
100
AcDbLayerTableRecord
  2
破線
 70
     0
 62
     2
  6
HIDDEN
370
    -3
390
175B0
  0
ENDTAB
  0
TABLE
  2
STYLE
  5
7468
330
0
100
AcDbSymbolTable
 70
     4
  0
STYLE
  5
7475
330
7468
100
AcDbSymbolTableRecord
100
AcDbTextStyleTableRecord
  2
STANDARD
 70
     0
 40
0.0
 41
1.0
 50
0.0
 71
     0
 42
4.0
  3
txt
  4
C:\AutoCAD LT\bigfont.shx
  0
STYLE
  5
F706
330
7468
100
AcDbSymbolTableRecord
100
AcDbTextStyleTableRecord
  2
STYLE1
 70
     0
 40
0.0
 41
1.0
 50
0.0
 71
     0
 42
4.0
  3
isocp.shx
  4
bigfont.shx
  0
STYLE
  5
103BF
330
7468
100
AcDbSymbolTableRecord
100
AcDbTextStyleTableRecord
  2
STYLE2
 70
     0
 40
0.0
 41
1.0
 50
0.0
 71
     0
 42
100.0
  3
MS PGothic.ttf
  4

1001
ACAD
1000
MS PGothic
1071
    32818
  0
STYLE
  5
17354
330
7468
100
AcDbSymbolTableRecord
100
AcDbTextStyleTableRecord
  2
STYLE3
 70
     0
 40
0.0
 41
1.0
 50
0.0
 71
     0
 42
100.0
  3

  4

1001
ACAD
1000
DFPGothic-EB
1071
    32818
  0
ENDTAB
  0
TABLE
  2
VIEW
  5
746B
330
0
100
AcDbSymbolTable
 70
     0
  0
ENDTAB
  0
TABLE
  2
UCS
  5
746C
330
0
100
AcDbSymbolTable
 70
     0
  0
ENDTAB
  0
TABLE
  2
APPID
  5
746E
330
0
100
AcDbSymbolTable
 70
     6
  0
APPID
  5
7476
330
746E
100
AcDbSymbolTableRecord
100
AcDbRegAppTableRecord
  2
ACAD
 70
     0
  0
APPID
  5
DEA9
330
746E
100
AcDbSymbolTableRecord
100
AcDbRegAppTableRecord
  2
CONTENTBLOCKICON
 70
     0
  0
APPID
  5
DEAA
330
746E
100
AcDbSymbolTableRecord
100
AcDbRegAppTableRecord
  2
CONTENTBLOCKDESCRIPTION
 70
     0
  0
APPID
  5
E71D
330
746E
100
AcDbSymbolTableRecord
100
AcDbRegAppTableRecord
  2
CONTENTTABDATA
 70
     0
  0
APPID
  5
E71E
330
746E
100
AcDbSymbolTableRecord
100
AcDbRegAppTableRecord
  2
CONTENTCURRENTTAB
 70
     0
  0
APPID
  5
F3BA
330
746E
100
AcDbSymbolTableRecord
100
AcDbRegAppTableRecord
  2
DRAWINGVARIABLESXDATA
 70
     0
  0
ENDTAB
  0
TABLE
  2
DIMSTYLE
  5
746F
330
0
100
AcDbSymbolTable
 70
     5
100
AcDbDimStyleTable
 71
     0
  0
DIMSTYLE
105
7484
330
746F
100
AcDbSymbolTableRecord
100
AcDbDimStyleTableRecord
  2
JIS
 70
     0
 41
2.5
 42
1.0
 43
7.0
 44
1.0
 73
     0
 74
     0
 77
     1
 78
     8
140
2.5
141
0.0
143
0.0394
147
0.0
172
     1
174
     1
175
     1
340
7475
  0
DIMSTYLE
105
F71F
102
{ACAD_REACTORS
330
17B68
330
17B6D
330
17B74
330
17B75
330
17B76
330
17B83
330
17B85
330
179DD
330
179DE
330
17A85
330
17A86
330
17A87
330
17A88
330
17A89
330
17AA7
330
17AA8
330
17AA9
330
17AAA
330
17AC1
330
17B1E
330
18102
330
18106
330
181CB
330
181CC
330
181CD
330
18208
330
1856B
330
18A59
330
18A60
102
}
330
746F
100
AcDbSymbolTableRecord
100
AcDbDimStyleTableRecord
  2
INABA_S40G
 70
     0
 40
40.0
 41
2.5
 42
0.5
 43
7.0
 44
1.5
 73
     0
 74
     0
 77
     3
 78
     8
140
3.0
141
0.0
143
0.0394
147
1.0
172
     1
173
     1
174
     1
178
     7
271
     1
340
F706
341
F770
343
F770
344
F770
  0
DIMSTYLE
105
17355
330
746F
100
AcDbSymbolTableRecord
100
AcDbDimStyleTableRecord
  2
INABA_S50G
 70
     0
 41
125.0
 42
25.0
 43
7.0
 44
75.0
 73
     0
 74
     0
 77
     3
 78
     8
140
150.0
141
0.0
143
0.0394
147
25.0
172
     1
173
     1
174
     1
175
     1
178
     7
271
     1
340
F706
341
F770
343
F770
344
F770
  0
DIMSTYLE
105
17733
102
{ACAD_REACTORS
330
18803
330
18A5F
102
}
330
746F
100
AcDbSymbolTableRecord
100
AcDbDimStyleTableRecord
  2
INABA_S40
 70
     0
 40
40.0
 41
2.5
 42
0.5
 43
7.0
 44
1.5
 73
     0
 74
     0
 77
     3
 78
     8
140
3.0
141
0.0
143
0.0394
147
1.0
172
     1
173
     1
174
     1
175
     1
178
     7
340
7475
  0
DIMSTYLE
105
18D36
330
746F
100
AcDbSymbolTableRecord
100
AcDbDimStyleTableRecord
  2
INABA_S20G
 70
     0
 40
20.0
 41
2.5
 42
0.5
 43
7.0
 44
1.5
 73
     0
 74
     0
 77
     3
 78
     8
140
3.0
141
0.0
143
0.0394
147
1.0
172
     1
173
     1
174
     1
178
     7
271
     1
340
F706
341
F770
343
F770
344
F770
  0
ENDTAB
  0
TABLE
  2
BLOCK_RECORD
  5
7466
330
0
100
AcDbSymbolTable
 70
    33
  0
BLOCK_RECORD
  5
747D
330
7466
100
AcDbSymbolTableRecord
100
AcDbBlockTableRecord
  2
*MODEL_SPACE
340
175B5
  0
BLOCK_RECORD
  5
747A
330
7466
100
AcDbSymbolTableRecord
100
AcDbBlockTableRecord
  2
*PAPER_SPACE
340
175B6
  0
BLOCK_RECORD
  5
F770
330
7466
100
AcDbSymbolTableRecord
100
AcDbBlockTableRecord
  2
_DOTSMALL
340
0
102
{BLKREFS
331
185BF
331
185C0
331
185C8
331
185C9
331
185D3
331
185D4
331
185DC
331
185DD
331
185E5
331
185E6
331
185EE
331
185EF
331
1865B
331
1865C
331
18664
331
18665
331
1866D
331
1866E
331
18678
331
18679
331
18681
331
18682
331
1868B
331
1868C
331
18694
331
18695
331
1869D
331
1869E
331
186A8
331
186A9
331
186B2
331
186B3
331
186BB
331
186BC
331
18CA8
331
18CA9
331
18CBC
331
18CBD
331
18CCE
331
18CCF
331
18CD7
331
18CD8
331
18CE2
331
18CE3
331
18CEB
331
18CEC
331
18CF6
331
18CF7
331
18D01
331
18D02
331
18D0A
331
18D0B
331
18D15
331
18D16
331
18D1E
331
18D1F
331
18D27
331
18D28
102
}
  0
BLOCK_RECORD
  5
175BE
330
7466
100
AcDbSymbolTableRecord
100
AcDbBlockTableRecord
  2
_DOT
340
0
102
{BLKREFS
331
18CB3
331
18CB4
331
18CC5
331
18CC6
102
}
  0
BLOCK_RECORD
  5
17C4A
330
7466
100
AcDbSymbolTableRecord
100
AcDbBlockTableRecord
  2
*D2
340
0
  0
BLOCK_RECORD
  5
17C58
330
7466
100
AcDbSymbolTableRecord
100
AcDbBlockTableRecord
  2
*D3
340
0
  0
BLOCK_RECORD
  5
17C64
330
7466
100
AcDbSymbolTableRecord
100
AcDbBlockTableRecord
  2
*D4
340
0
  0
BLOCK_RECORD
  5
17C72
330
7466
100
AcDbSymbolTableRecord
100
AcDbBlockTableRecord
  2
*D5
340
0
  0
BLOCK_RECORD
  5
17C80
330
7466
100
AcDbSymbolTableRecord
100
AcDbBlockTableRecord
  2
*D6
340
0
  0
BLOCK_RECORD
  5
17C98
330
7466
100
AcDbSymbolTableRecord
100
AcDbBlockTableRecord
  2
*D7
340
0
  0
BLOCK_RECORD
  5
17CA6
330
7466
100
AcDbSymbolTableRecord
100
AcDbBlockTableRecord
  2
*D8
340
0
  0
BLOCK_RECORD
  5
17CCC
330
7466
100
AcDbSymbolTableRecord
100
AcDbBlockTableRecord
  2
*D9
340
0
  0
BLOCK_RECORD
  5
17CD8
330
7466
100
AcDbSymbolTableRecord
100
AcDbBlockTableRecord
  2
*D10
340
0
  0
BLOCK_RECORD
  5
17D30
330
7466
100
AcDbSymbolTableRecord
100
AcDbBlockTableRecord
  2
*D11
340
0
  0
BLOCK_RECORD
  5
17D3C
330
7466
100
AcDbSymbolTableRecord
100
AcDbBlockTableRecord
  2
*D12
340
0
  0
BLOCK_RECORD
  5
17D49
330
7466
100
AcDbSymbolTableRecord
100
AcDbBlockTableRecord
  2
*D13
340
0
  0
BLOCK_RECORD
  5
17D57
330
7466
100
AcDbSymbolTableRecord
100
AcDbBlockTableRecord
  2
*D14
340
0
  0
BLOCK_RECORD
  5
17D63
330
7466
100
AcDbSymbolTableRecord
100
AcDbBlockTableRecord
  2
*D15
340
0
  0
BLOCK_RECORD
  5
17D6F
330
7466
100
AcDbSymbolTableRecord
100
AcDbBlockTableRecord
  2
*D16
340
0
  0
BLOCK_RECORD
  5
17D7C
330
7466
100
AcDbSymbolTableRecord
100
AcDbBlockTableRecord
  2
*D17
340
0
  0
BLOCK_RECORD
  5
17D88
330
7466
100
AcDbSymbolTableRecord
100
AcDbBlockTableRecord
  2
*D18
340
0
  0
BLOCK_RECORD
  5
17D96
330
7466
100
AcDbSymbolTableRecord
100
AcDbBlockTableRecord
  2
*D19
340
0
  0
BLOCK_RECORD
  5
17DA2
330
7466
100
AcDbSymbolTableRecord
100
AcDbBlockTableRecord
  2
*D20
340
0
  0
BLOCK_RECORD
  5
17DAE
330
7466
100
AcDbSymbolTableRecord
100
AcDbBlockTableRecord
  2
*D21
340
0
  0
BLOCK_RECORD
  5
18213
330
7466
100
AcDbSymbolTableRecord
100
AcDbBlockTableRecord
  2
*D22
340
0
  0
BLOCK_RECORD
  5
1821F
330
7466
100
AcDbSymbolTableRecord
100
AcDbBlockTableRecord
  2
*D23
340
0
  0
BLOCK_RECORD
  5
182B5
330
7466
100
AcDbSymbolTableRecord
100
AcDbBlockTableRecord
  2
*D24
340
0
  0
BLOCK_RECORD
  5
182C1
330
7466
100
AcDbSymbolTableRecord
100
AcDbBlockTableRecord
  2
*D25
340
0
  0
BLOCK_RECORD
  5
182CF
330
7466
100
AcDbSymbolTableRecord
100
AcDbBlockTableRecord
  2
*D26
340
0
  0
BLOCK_RECORD
  5
182DB
330
7466
100
AcDbSymbolTableRecord
100
AcDbBlockTableRecord
  2
*D27
340
0
  0
BLOCK_RECORD
  5
1856C
330
7466
100
AcDbSymbolTableRecord
100
AcDbBlockTableRecord
  2
*D28
340
0
  0
BLOCK_RECORD
  5
18867
330
7466
100
AcDbSymbolTableRecord
100
AcDbBlockTableRecord
  2
*D29
340
0
  0
BLOCK_RECORD
  5
18B4E
330
7466
100
AcDbSymbolTableRecord
100
AcDbBlockTableRecord
  2
*D30
340
0
  0
BLOCK_RECORD
  5
18B5A
330
7466
100
AcDbSymbolTableRecord
100
AcDbBlockTableRecord
  2
*D31
340
0
  0
BLOCK_RECORD
  5
18B68
330
7466
100
AcDbSymbolTableRecord
100
AcDbBlockTableRecord
  2
*D32
340
0
  0
ENDTAB
  0
ENDSEC
  0
SECTION
  2
BLOCKS
  0
BLOCK
  5
7489
330
747D
100
AcDbEntity
  8
0
100
AcDbBlockBegin
  2
*MODEL_SPACE
 70
     0
 10
0.0
 20
0.0
 30
0.0
  3
*MODEL_SPACE
  1

  0
ENDBLK
  5
748A
330
747D
100
AcDbEntity
  8
0
100
AcDbBlockEnd
  0
BLOCK
  5
7487
330
747A
100
AcDbEntity
 67
     1
  8
0
100
AcDbBlockBegin
  2
*PAPER_SPACE
 70
     0
 10
0.0
 20
0.0
 30
0.0
  3
*PAPER_SPACE
  1

  0
ENDBLK
  5
7488
330
747A
100
AcDbEntity
 67
     1
  8
0
100
AcDbBlockEnd
  0
BLOCK
  5
F771
330
F770
100
AcDbEntity
  8
0
 48
50.0
100
AcDbBlockBegin
  2
_DOTSMALL
 70
     0
 10
0.0
 20
0.0
 30
0.0
  3
_DOTSMALL
  1

  0
LWPOLYLINE
  5
F772
330
F770
100
AcDbEntity
  8
0
  6
ByBlock
 62
     0
 48
50.0
100
AcDbPolyline
 90
        2
 70
     1
 43
0.5
 10
-0.0625
 20
0.0
 42
1.0
 10
0.0625
 20
0.0
 42
1.0
  0
ENDBLK
  5
F776
330
F770
100
AcDbEntity
  8
0
 48
50.0
100
AcDbBlockEnd
  0
BLOCK
  5
175BF
330
175BE
100
AcDbEntity
  8
0
 48
50.0
100
AcDbBlockBegin
  2
_DOT
 70
     0
 10
0.0
 20
0.0
 30
0.0
  3
_DOT
  1

  0
LWPOLYLINE
  5
175C0
330
175BE
100
AcDbEntity
  8
0
  6
ByBlock
 62
     0
 48
50.0
100
AcDbPolyline
 90
        2
 70
     1
 43
0.5
 10
-0.25
 20
0.0
 42
1.0
 10
0.25
 20
0.0
 42
1.0
  0
LINE
  5
175C1
330
175BE
100
AcDbEntity
  8
0
  6
ByBlock
 62
     0
 48
50.0
100
AcDbLine
 10
-0.5
 20
0.0
 30
0.0
 11
-1.0
 21
0.0
 31
0.0
  0
ENDBLK
  5
175C2
330
175BE
100
AcDbEntity
  8
0
 48
50.0
100
AcDbBlockEnd
  0
BLOCK
  5
17C56
330
17C4A
100
AcDbEntity
  8
0
 48
50.0
100
AcDbBlockBegin
  2
*D2
 70
     1
 10
0.0
 20
0.0
 30
0.0
  3
*D2
  1

  0
LINE
  5
18D10
330
17C4A
100
AcDbEntity
  8
寸法
 62
     0
 48
50.0
370
    -2
100
AcDbLine
 10
8852.058007603831
 20
9597.511421506288
 30
0.0
 11
8852.058007603831
 21
10234.31844831449
 31
0.0
  0
LINE
  5
18D11
330
17C4A
100
AcDbEntity
  8
寸法
 62
     0
 48
50.0
370
    -2
100
AcDbLine
 10
8907.058007603868
 20
9597.511421506288
 30
0.0
 11
8907.058007603868
 21
10234.31844831449
 31
0.0
  0
LINE
  5
18D12
330
17C4A
100
AcDbEntity
  8
寸法
 62
     0
 48
50.0
370
    -2
100
AcDbLine
 10
8907.058007603868
 20
10174.31844831449
 30
0.0
 11
9007.058007603868
 21
10174.31844831449
 31
0.0
  0
LINE
  5
18D13
330
17C4A
100
AcDbEntity
  8
寸法
 62
     0
 48
50.0
370
    -2
100
AcDbLine
 10
8852.058007603831
 20
10174.31844831449
 30
0.0
 11
8435.087444855353
 21
10174.31844831449
 31
0.0
  0
LINE
  5
18D14
330
17C4A
100
AcDbEntity
  8
寸法
 62
     0
 48
50.0
370
    -2
100
AcDbLine
 10
8907.058007603868
 20
10174.31844831449
 30
0.0
 11
8852.058007603831
 21
10174.31844831449
 31
0.0
  0
INSERT
  5
18D15
330
17C4A
100
AcDbEntity
  8
寸法
 62
     0
 48
50.0
370
    -2
100
AcDbBlockReference
  2
_DOTSMALL
 10
8907.058007603868
 20
10174.31844831449
 30
0.0
 41
100.0
 42
100.0
 43
100.0
 50
180.0
  0
INSERT
  5
18D16
330
17C4A
100
AcDbEntity
  8
寸法
 62
     0
 48
50.0
370
    -2
100
AcDbBlockReference
  2
_DOTSMALL
 10
8852.058007603831
 20
10174.31844831449
 30
0.0
 41
100.0
 42
100.0
 43
100.0
  0
MTEXT
  5
18D17
330
17C4A
100
AcDbEntity
  8
寸法
 62
     7
 48
50.0
100
AcDbMText
 10
8543.572726229591
 20
10274.31844831449
 30
0.0
 40
120.0
 41
0.0
 71
     5
 72
     1
  1
\A1;55
  7
STYLE1
 73
     1
 44
1.0
1001
ACAD
1000
MTEXTBEGIN
1070
    73
1070
     1
1070
    44
1040
1.0
1070
    74
1070
     0
1000
MTEXTEND
  0
POINT
  5
18D18
330
17C4A
100
AcDbEntity
  8
DEFPOINTS
 62
     0
 48
50.0
100
AcDbPoint
 10
8852.058007603831
 20
9577.511421506288
 30
0.0
  0
POINT
  5
18D19
330
17C4A
100
AcDbEntity
  8
DEFPOINTS
 62
     0
 48
50.0
100
AcDbPoint
 10
8907.058007603868
 20
9577.511421506288
 30
0.0
  0
POINT
  5
18D1A
330
17C4A
100
AcDbEntity
  8
DEFPOINTS
 62
     0
 48
50.0
100
AcDbPoint
 10
8907.058007603868
 20
10174.31844831449
 30
0.0
  0
ENDBLK
  5
17C57
330
17C4A
100
AcDbEntity
  8
0
 48
50.0
100
AcDbBlockEnd
  0
BLOCK
  5
17C62
330
17C58
100
AcDbEntity
  8
0
 48
50.0
100
AcDbBlockBegin
  2
*D3
 70
     1
 10
0.0
 20
0.0
 30
0.0
  3
*D3
  1

  0
LINE
  5
18D07
330
17C58
100
AcDbEntity
  8
寸法
 62
     0
 48
50.0
370
    -2
100
AcDbLine
 10
10662.05800760386
 20
9577.511421506383
 30
0.0
 11
11714.59129507792
 21
9577.511421506383
 31
0.0
  0
LINE
  5
18D08
330
17C58
100
AcDbEntity
  8
寸法
 62
     0
 48
50.0
370
    -2
100
AcDbLine
 10
10662.05800760384
 20
6947.511421506373
 30
0.0
 11
11714.59129507792
 21
6947.511421506373
 31
0.0
  0
LINE
  5
18D09
330
17C58
100
AcDbEntity
  8
寸法
 62
     0
 48
50.0
370
    -2
100
AcDbLine
 10
11654.59129507792
 20
9577.511421506383
 30
0.0
 11
11654.59129507792
 21
6947.511421506373
 31
0.0
  0
INSERT
  5
18D0A
330
17C58
100
AcDbEntity
  8
寸法
 62
     0
 48
50.0
370
    -2
100
AcDbBlockReference
  2
_DOTSMALL
 10
11654.59129507792
 20
9577.511421506383
 30
0.0
 41
100.0
 42
100.0
 43
100.0
 50
90.0
  0
INSERT
  5
18D0B
330
17C58
100
AcDbEntity
  8
寸法
 62
     0
 48
50.0
370
    -2
100
AcDbBlockReference
  2
_DOTSMALL
 10
11654.59129507792
 20
6947.511421506373
 30
0.0
 41
100.0
 42
100.0
 43
100.0
 50
270.0
  0
MTEXT
  5
18D0C
330
17C58
100
AcDbEntity
  8
寸法
 62
     7
 48
50.0
100
AcDbMText
 10
11554.57948405429
 20
8262.511421506378
 30
0.0
 40
120.0
 41
0.0
 71
     5
 72
     1
  1
\A1;2630
  7
STYLE1
 11
0.0000000000000001
 21
1.0
 31
0.0
 73
     1
 44
1.0
1001
ACAD
1000
MTEXTBEGIN
1070
    73
1070
     1
1070
    44
1040
1.0
1070
    74
1070
     0
1000
MTEXTEND
  0
POINT
  5
18D0D
330
17C58
100
AcDbEntity
  8
DEFPOINTS
 62
     0
 48
50.0
100
AcDbPoint
 10
10642.05800760386
 20
9577.511421506383
 30
0.0
  0
POINT
  5
18D0E
330
17C58
100
AcDbEntity
  8
DEFPOINTS
 62
     0
 48
50.0
100
AcDbPoint
 10
10642.05800760384
 20
6947.511421506373
 30
0.0
  0
POINT
  5
18D0F
330
17C58
100
AcDbEntity
  8
DEFPOINTS
 62
     0
 48
50.0
100
AcDbPoint
 10
11654.59129507792
 20
6947.511421506373
 30
0.0
  0
ENDBLK
  5
17C63
330
17C58
100
AcDbEntity
  8
0
 48
50.0
100
AcDbBlockEnd
  0
BLOCK
  5
17C70
330
17C64
100
AcDbEntity
  8
0
 48
50.0
100
AcDbBlockBegin
  2
*D4
 70
     1
 10
0.0
 20
0.0
 30
0.0
  3
*D4
  1

  0
LINE
  5
18CFC
330
17C64
100
AcDbEntity
  8
寸法
 62
     0
 48
50.0
370
    -2
100
AcDbLine
 10
10662.05800760386
 20
9577.511421506383
 30
0.0
 11
11349.48435333828
 21
9577.511421506383
 31
0.0
  0
LINE
  5
18CFD
330
17C64
100
AcDbEntity
  8
寸法
 62
     0
 48
50.0
370
    -2
100
AcDbLine
 10
10662.05800760386
 20
9522.511421506385
 30
0.0
 11
11349.48435333828
 21
9522.511421506385
 31
0.0
  0
LINE
  5
18CFE
330
17C64
100
AcDbEntity
  8
寸法
 62
     0
 48
50.0
370
    -2
100
AcDbLine
 10
11289.48435333828
 20
9522.511421506385
 30
0.0
 11
11289.48435333828
 21
9422.511421506385
 31
0.0
  0
LINE
  5
18CFF
330
17C64
100
AcDbEntity
  8
寸法
 62
     0
 48
50.0
370
    -2
100
AcDbLine
 10
11289.48435333828
 20
9577.511421506383
 30
0.0
 11
11289.48435333828
 21
9994.481984254859
 31
0.0
  0
LINE
  5
18D00
330
17C64
100
AcDbEntity
  8
寸法
 62
     0
 48
50.0
370
    -2
100
AcDbLine
 10
11289.48435333828
 20
9522.511421506385
 30
0.0
 11
11289.48435333828
 21
9577.511421506383
 31
0.0
  0
INSERT
  5
18D01
330
17C64
100
AcDbEntity
  8
寸法
 62
     0
 48
50.0
370
    -2
100
AcDbBlockReference
  2
_DOTSMALL
 10
11289.48435333828
 20
9522.511421506385
 30
0.0
 41
100.0
 42
100.0
 43
100.0
 50
90.0
  0
INSERT
  5
18D02
330
17C64
100
AcDbEntity
  8
寸法
 62
     0
 48
50.0
370
    -2
100
AcDbBlockReference
  2
_DOTSMALL
 10
11289.48435333828
 20
9577.511421506383
 30
0.0
 41
100.0
 42
100.0
 43
100.0
 50
270.0
  0
MTEXT
  5
18D03
330
17C64
100
AcDbEntity
  8
寸法
 62
     7
 48
50.0
100
AcDbMText
 10
11189.48435333827
 20
9885.996702880623
 30
0.0
 40
120.0
 41
0.0
 71
     5
 72
     1
  1
\A1;55
  7
STYLE1
 11
0.0000000000000001
 21
1.0
 31
0.0
 73
     1
 44
1.0
1001
ACAD
1000
MTEXTBEGIN
1070
    73
1070
     1
1070
    44
1040
1.0
1070
    74
1070
     0
1000
MTEXTEND
  0
POINT
  5
18D04
330
17C64
100
AcDbEntity
  8
DEFPOINTS
 62
     0
 48
50.0
100
AcDbPoint
 10
10642.05800760386
 20
9577.511421506383
 30
0.0
  0
POINT
  5
18D05
330
17C64
100
AcDbEntity
  8
DEFPOINTS
 62
     0
 48
50.0
100
AcDbPoint
 10
10642.05800760386
 20
9522.511421506385
 30
0.0
  0
POINT
  5
18D06
330
17C64
100
AcDbEntity
  8
DEFPOINTS
 62
     0
 48
50.0
100
AcDbPoint
 10
11289.48435333828
 20
9522.511421506385
 30
0.0
  0
ENDBLK
  5
17C71
330
17C64
100
AcDbEntity
  8
0
 48
50.0
100
AcDbBlockEnd
  0
BLOCK
  5
17C7E
330
17C72
100
AcDbEntity
  8
0
 48
50.0
100
AcDbBlockBegin
  2
*D5
 70
     1
 10
0.0
 20
0.0
 30
0.0
  3
*D5
  1

  0
LINE
  5
18CF1
330
17C72
100
AcDbEntity
  8
寸法
 62
     0
 48
50.0
370
    -2
100
AcDbLine
 10
10662.05800760384
 20
7002.511421506369
 30
0.0
 11
11349.48435333825
 21
7002.511421506369
 31
0.0
  0
LINE
  5
18CF2
330
17C72
100
AcDbEntity
  8
寸法
 62
     0
 48
50.0
370
    -2
100
AcDbLine
 10
10662.05800760384
 20
6947.511421506373
 30
0.0
 11
11349.48435333825
 21
6947.511421506373
 31
0.0
  0
LINE
  5
18CF3
330
17C72
100
AcDbEntity
  8
寸法
 62
     0
 48
50.0
370
    -2
100
AcDbLine
 10
11289.48435333825
 20
7002.511421506369
 30
0.0
 11
11289.48435333825
 21
7102.51142150637
 31
0.0
  0
LINE
  5
18CF4
330
17C72
100
AcDbEntity
  8
寸法
 62
     0
 48
50.0
370
    -2
100
AcDbLine
 10
11289.48435333825
 20
6947.511421506373
 30
0.0
 11
11289.48435333825
 21
6461.164673227272
 31
0.0
  0
LINE
  5
18CF5
330
17C72
100
AcDbEntity
  8
寸法
 62
     0
 48
50.0
370
    -2
100
AcDbLine
 10
11289.48435333825
 20
7002.511421506369
 30
0.0
 11
11289.48435333825
 21
6947.511421506373
 31
0.0
  0
INSERT
  5
18CF6
330
17C72
100
AcDbEntity
  8
寸法
 62
     0
 48
50.0
370
    -2
100
AcDbBlockReference
  2
_DOTSMALL
 10
11289.48435333825
 20
7002.511421506369
 30
0.0
 41
100.0
 42
100.0
 43
100.0
 50
270.0
  0
INSERT
  5
18CF7
330
17C72
100
AcDbEntity
  8
寸法
 62
     0
 48
50.0
370
    -2
100
AcDbBlockReference
  2
_DOTSMALL
 10
11289.48435333825
 20
6947.511421506373
 30
0.0
 41
100.0
 42
100.0
 43
100.0
 50
90.0
  0
MTEXT
  5
18CF8
330
17C72
100
AcDbEntity
  8
寸法
 62
     7
 48
50.0
100
AcDbMText
 10
11189.48435333825
 20
6569.649954601512
 30
0.0
 40
120.0
 41
0.0
 71
     5
 72
     1
  1
\A1;55
  7
STYLE1
 11
0.0000000000000001
 21
1.0
 31
0.0
 73
     1
 44
1.0
1001
ACAD
1000
MTEXTBEGIN
1070
    73
1070
     1
1070
    44
1040
1.0
1070
    74
1070
     0
1000
MTEXTEND
  0
POINT
  5
18CF9
330
17C72
100
AcDbEntity
  8
DEFPOINTS
 62
     0
 48
50.0
100
AcDbPoint
 10
10642.05800760384
 20
7002.511421506369
 30
0.0
  0
POINT
  5
18CFA
330
17C72
100
AcDbEntity
  8
DEFPOINTS
 62
     0
 48
50.0
100
AcDbPoint
 10
10642.05800760384
 20
6947.511421506373
 30
0.0
  0
POINT
  5
18CFB
330
17C72
100
AcDbEntity
  8
DEFPOINTS
 62
     0
 48
50.0
100
AcDbPoint
 10
11289.48435333825
 20
6947.511421506373
 30
0.0
  0
ENDBLK
  5
17C7F
330
17C72
100
AcDbEntity
  8
0
 48
50.0
100
AcDbBlockEnd
  0
BLOCK
  5
17C8A
330
17C80
100
AcDbEntity
  8
0
 48
50.0
100
AcDbBlockBegin
  2
*D6
 70
     1
 10
0.0
 20
0.0
 30
0.0
  3
*D6
  1

  0
LINE
  5
18CE8
330
17C80
100
AcDbEntity
  8
寸法
 62
     0
 48
50.0
370
    -2
100
AcDbLine
 10
10662.05800760386
 20
9522.511421506385
 30
0.0
 11
11349.48435333828
 21
9522.511421506385
 31
0.0
  0
LINE
  5
18CE9
330
17C80
100
AcDbEntity
  8
寸法
 62
     0
 48
50.0
370
    -2
100
AcDbLine
 10
10662.05800760384
 20
7002.511421506369
 30
0.0
 11
11349.48435333828
 21
7002.511421506369
 31
0.0
  0
LINE
  5
18CEA
330
17C80
100
AcDbEntity
  8
寸法
 62
     0
 48
50.0
370
    -2
100
AcDbLine
 10
11289.48435333828
 20
9522.511421506385
 30
0.0
 11
11289.48435333828
 21
7002.511421506369
 31
0.0
  0
INSERT
  5
18CEB
330
17C80
100
AcDbEntity
  8
寸法
 62
     0
 48
50.0
370
    -2
100
AcDbBlockReference
  2
_DOTSMALL
 10
11289.48435333828
 20
9522.511421506385
 30
0.0
 41
100.0
 42
100.0
 43
100.0
 50
90.0
  0
INSERT
  5
18CEC
330
17C80
100
AcDbEntity
  8
寸法
 62
     0
 48
50.0
370
    -2
100
AcDbBlockReference
  2
_DOTSMALL
 10
11289.48435333828
 20
7002.511421506369
 30
0.0
 41
100.0
 42
100.0
 43
100.0
 50
270.0
  0
MTEXT
  5
18CED
330
17C80
100
AcDbEntity
  8
寸法
 62
     7
 48
50.0
100
AcDbMText
 10
11189.47254231466
 20
8262.511421506379
 30
0.0
 40
120.0
 41
0.0
 71
     5
 72
     1
  1
\A1;6X420=2520
  7
STYLE1
 11
0.0000000000000001
 21
1.0
 31
0.0
 73
     1
 44
1.0
1001
ACAD
1000
MTEXTBEGIN
1070
    73
1070
     1
1070
    44
1040
1.0
1070
    74
1070
     0
1000
MTEXTEND
  0
POINT
  5
18CEE
330
17C80
100
AcDbEntity
  8
DEFPOINTS
 62
     0
 48
50.0
100
AcDbPoint
 10
10642.05800760386
 20
9522.511421506385
 30
0.0
  0
POINT
  5
18CEF
330
17C80
100
AcDbEntity
  8
DEFPOINTS
 62
     0
 48
50.0
100
AcDbPoint
 10
10642.05800760384
 20
7002.511421506369
 30
0.0
  0
POINT
  5
18CF0
330
17C80
100
AcDbEntity
  8
DEFPOINTS
 62
     0
 48
50.0
100
AcDbPoint
 10
11289.48435333828
 20
7002.511421506369
 30
0.0
  0
ENDBLK
  5
17C8B
330
17C80
100
AcDbEntity
  8
0
 48
50.0
100
AcDbBlockEnd
  0
BLOCK
  5
17CA4
330
17C98
100
AcDbEntity
  8
0
 48
50.0
100
AcDbBlockBegin
  2
*D7
 70
     1
 10
0.0
 20
0.0
 30
0.0
  3
*D7
  1

  0
LINE
  5
18CDD
330
17C98
100
AcDbEntity
  8
寸法
 62
     0
 48
50.0
370
    -2
100
AcDbLine
 10
10587.05800760387
 20
9597.511421506382
 30
0.0
 11
10587.05800760387
 21
10234.31844831459
 31
0.0
  0
LINE
  5
18CDE
330
17C98
100
AcDbEntity
  8
寸法
 62
     0
 48
50.0
370
    -2
100
AcDbLine
 10
10642.05800760386
 20
9597.511421506382
 30
0.0
 11
10642.05800760386
 21
10234.31844831459
 31
0.0
  0
LINE
  5
18CDF
330
17C98
100
AcDbEntity
  8
寸法
 62
     0
 48
50.0
370
    -2
100
AcDbLine
 10
10587.05800760387
 20
10174.31844831459
 30
0.0
 11
10487.05800760387
 21
10174.31844831459
 31
0.0
  0
LINE
  5
18CE0
330
17C98
100
AcDbEntity
  8
寸法
 62
     0
 48
50.0
370
    -2
100
AcDbLine
 10
10642.05800760386
 20
10174.31844831459
 30
0.0
 11
11059.02857035234
 21
10174.31844831459
 31
0.0
  0
LINE
  5
18CE1
330
17C98
100
AcDbEntity
  8
寸法
 62
     0
 48
50.0
370
    -2
100
AcDbLine
 10
10587.05800760387
 20
10174.31844831459
 30
0.0
 11
10642.05800760386
 21
10174.31844831459
 31
0.0
  0
INSERT
  5
18CE2
330
17C98
100
AcDbEntity
  8
寸法
 62
     0
 48
50.0
370
    -2
100
AcDbBlockReference
  2
_DOTSMALL
 10
10587.05800760387
 20
10174.31844831459
 30
0.0
 41
100.0
 42
100.0
 43
100.0
  0
INSERT
  5
18CE3
330
17C98
100
AcDbEntity
  8
寸法
 62
     0
 48
50.0
370
    -2
100
AcDbBlockReference
  2
_DOTSMALL
 10
10642.05800760386
 20
10174.31844831459
 30
0.0
 41
100.0
 42
100.0
 43
100.0
 50
180.0
  0
MTEXT
  5
18CE4
330
17C98
100
AcDbEntity
  8
寸法
 62
     7
 48
50.0
100
AcDbMText
 10
10950.5432889781
 20
10274.31844831459
 30
0.0
 40
120.0
 41
0.0
 71
     5
 72
     1
  1
\A1;55
  7
STYLE1
 73
     1
 44
1.0
1001
ACAD
1000
MTEXTBEGIN
1070
    73
1070
     1
1070
    44
1040
1.0
1070
    74
1070
     0
1000
MTEXTEND
  0
POINT
  5
18CE5
330
17C98
100
AcDbEntity
  8
DEFPOINTS
 62
     0
 48
50.0
100
AcDbPoint
 10
10587.05800760387
 20
9577.511421506383
 30
0.0
  0
POINT
  5
18CE6
330
17C98
100
AcDbEntity
  8
DEFPOINTS
 62
     0
 48
50.0
100
AcDbPoint
 10
10642.05800760386
 20
9577.511421506383
 30
0.0
  0
POINT
  5
18CE7
330
17C98
100
AcDbEntity
  8
DEFPOINTS
 62
     0
 48
50.0
100
AcDbPoint
 10
10642.05800760386
 20
10174.31844831459
 30
0.0
  0
ENDBLK
  5
17CA5
330
17C98
100
AcDbEntity
  8
0
 48
50.0
100
AcDbBlockEnd
  0
BLOCK
  5
17CB0
330
17CA6
100
AcDbEntity
  8
0
 48
50.0
100
AcDbBlockBegin
  2
*D8
 70
     1
 10
0.0
 20
0.0
 30
0.0
  3
*D8
  1

  0
LINE
  5
18CD4
330
17CA6
100
AcDbEntity
  8
寸法
 62
     0
 48
50.0
370
    -2
100
AcDbLine
 10
8907.058007603868
 20
9597.511421506288
 30
0.0
 11
8907.058007603868
 21
10234.31844831461
 31
0.0
  0
LINE
  5
18CD5
330
17CA6
100
AcDbEntity
  8
寸法
 62
     0
 48
50.0
370
    -2
100
AcDbLine
 10
10587.05800760387
 20
9597.511421506382
 30
0.0
 11
10587.05800760387
 21
10234.31844831461
 31
0.0
  0
LINE
  5
18CD6
330
17CA6
100
AcDbEntity
  8
寸法
 62
     0
 48
50.0
370
    -2
100
AcDbLine
 10
8907.058007603868
 20
10174.31844831461
 30
0.0
 11
10587.05800760387
 21
10174.31844831461
 31
0.0
  0
INSERT
  5
18CD7
330
17CA6
100
AcDbEntity
  8
寸法
 62
     0
 48
50.0
370
    -2
100
AcDbBlockReference
  2
_DOTSMALL
 10
8907.058007603868
 20
10174.31844831461
 30
0.0
 41
100.0
 42
100.0
 43
100.0
 50
180.0
  0
INSERT
  5
18CD8
330
17CA6
100
AcDbEntity
  8
寸法
 62
     0
 48
50.0
370
    -2
100
AcDbBlockReference
  2
_DOTSMALL
 10
10587.05800760387
 20
10174.31844831461
 30
0.0
 41
100.0
 42
100.0
 43
100.0
  0
MTEXT
  5
18CD9
330
17CA6
100
AcDbEntity
  8
寸法
 62
     7
 48
50.0
100
AcDbMText
 10
9747.058007603866
 20
10274.33025933823
 30
0.0
 40
120.0
 41
0.0
 71
     5
 72
     1
  1
\A1;4X420=1680
  7
STYLE1
 73
     1
 44
1.0
1001
ACAD
1000
MTEXTBEGIN
1070
    73
1070
     1
1070
    44
1040
1.0
1070
    74
1070
     0
1000
MTEXTEND
  0
POINT
  5
18CDA
330
17CA6
100
AcDbEntity
  8
DEFPOINTS
 62
     0
 48
50.0
100
AcDbPoint
 10
8907.058007603868
 20
9577.511421506288
 30
0.0
  0
POINT
  5
18CDB
330
17CA6
100
AcDbEntity
  8
DEFPOINTS
 62
     0
 48
50.0
100
AcDbPoint
 10
10587.05800760387
 20
9577.511421506383
 30
0.0
  0
POINT
  5
18CDC
330
17CA6
100
AcDbEntity
  8
DEFPOINTS
 62
     0
 48
50.0
100
AcDbPoint
 10
10587.05800760387
 20
10174.31844831461
 30
0.0
  0
ENDBLK
  5
17CB1
330
17CA6
100
AcDbEntity
  8
0
 48
50.0
100
AcDbBlockEnd
  0
BLOCK
  5
17CD6
330
17CCC
100
AcDbEntity
  8
0
 48
50.0
100
AcDbBlockBegin
  2
*D9
 70
     1
 10
0.0
 20
0.0
 30
0.0
  3
*D9
  1

  0
LINE
  5
18D24
330
17CCC
100
AcDbEntity
  8
寸法
 62
     0
 48
50.0
370
    -2
100
AcDbLine
 10
10142.05800760393
 20
9554.370405355049
 30
0.0
 11
9899.416406190686
 21
9619.386026503923
 31
0.0
  0
LINE
  5
18D25
330
17CCC
100
AcDbEntity
  8
寸法
 62
     0
 48
50.0
370
    -2
100
AcDbLine
 10
10142.05800760392
 20
8281.37040535498
 30
0.0
 11
9899.416406190686
 21
8346.386026503852
 31
0.0
  0
LINE
  5
18D26
330
17CCC
100
AcDbEntity
  8
寸法
 62
     0
 48
50.0
370
    -2
100
AcDbLine
 10
9959.416406190685
 20
9603.309074958055
 30
0.0
 11
9959.416406190685
 21
8330.309074957982
 31
0.0
  0
INSERT
  5
18D27
330
17CCC
100
AcDbEntity
  8
寸法
 62
     0
 48
50.0
370
    -2
100
AcDbBlockReference
  2
_DOTSMALL
 10
9959.416406190685
 20
9603.309074958055
 30
0.0
 41
100.0
 42
100.0
 43
100.0
 50
90.0
  0
INSERT
  5
18D28
330
17CCC
100
AcDbEntity
  8
寸法
 62
     0
 48
50.0
370
    -2
100
AcDbBlockReference
  2
_DOTSMALL
 10
9959.416406190685
 20
8330.309074957982
 30
0.0
 41
100.0
 42
100.0
 43
100.0
 50
270.0
  0
MTEXT
  5
18D29
330
17CCC
100
AcDbEntity
  8
寸法
 62
     7
 48
50.0
100
AcDbMText
 10
9859.404595167063
 20
8923.360630915636
 30
0.0
 40
120.0
 41
0.0
 71
     5
 72
     1
  1
\A1;1273
  7
STYLE1
 11
0.0000000000000001
 21
1.0
 31
0.0
 73
     1
 44
1.0
1001
ACAD
1000
MTEXTBEGIN
1070
    73
1070
     1
1070
    44
1040
1.0
1070
    74
1070
     0
1000
MTEXTEND
  0
POINT
  5
18D2A
330
17CCC
100
AcDbEntity
  8
DEFPOINTS
 62
     0
 48
50.0
100
AcDbPoint
 10
10162.05800760393
 20
9549.011421506426
 30
0.0
  0
POINT
  5
18D2B
330
17CCC
100
AcDbEntity
  8
DEFPOINTS
 62
     0
 48
50.0
100
AcDbPoint
 10
10162.05800760392
 20
8276.011421506357
 30
0.0
  0
POINT
  5
18D2C
330
17CCC
100
AcDbEntity
  8
DEFPOINTS
 62
     0
 48
50.0
100
AcDbPoint
 10
9959.416406190685
 20
8330.309074957982
 30
0.0
  0
ENDBLK
  5
17CD7
330
17CCC
100
AcDbEntity
  8
0
 48
50.0
100
AcDbBlockEnd
  0
BLOCK
  5
17CE2
330
17CD8
100
AcDbEntity
  8
0
 48
50.0
100
AcDbBlockBegin
  2
*D10
 70
     1
 10
0.0
 20
0.0
 30
0.0
  3
*D10
  1

  0
LINE
  5
18D1B
330
17CD8
100
AcDbEntity
  8
寸法
 62
     0
 48
50.0
370
    -2
100
AcDbLine
 10
10142.05800760398
 20
8254.370405354979
 30
0.0
 11
9899.416406190688
 21
8319.386026503869
 31
0.0
  0
LINE
  5
18D1C
330
17CD8
100
AcDbEntity
  8
寸法
 62
     0
 48
50.0
370
    -2
100
AcDbLine
 10
10142.05800760398
 20
6981.370405354969
 30
0.0
 11
9899.416406190688
 21
7046.386026503855
 31
0.0
  0
LINE
  5
18D1D
330
17CD8
100
AcDbEntity
  8
寸法
 62
     0
 48
50.0
370
    -2
100
AcDbLine
 10
9959.416406190687
 20
8303.309074958001
 30
0.0
 11
9959.416406190687
 21
7030.309074957987
 31
0.0
  0
INSERT
  5
18D1E
330
17CD8
100
AcDbEntity
  8
寸法
 62
     0
 48
50.0
370
    -2
100
AcDbBlockReference
  2
_DOTSMALL
 10
9959.416406190687
 20
8303.309074958001
 30
0.0
 41
100.0
 42
100.0
 43
100.0
 50
90.0
  0
INSERT
  5
18D1F
330
17CD8
100
AcDbEntity
  8
寸法
 62
     0
 48
50.0
370
    -2
100
AcDbBlockReference
  2
_DOTSMALL
 10
9959.416406190687
 20
7030.309074957987
 30
0.0
 41
100.0
 42
100.0
 43
100.0
 50
270.0
  0
MTEXT
  5
18D20
330
17CD8
100
AcDbEntity
  8
寸法
 62
     7
 48
50.0
100
AcDbMText
 10
9859.404595167063
 20
7611.278873700901
 30
0.0
 40
120.0
 41
0.0
 71
     5
 72
     1
  1
\A1;1273
  7
STYLE1
 11
0.0000000000000001
 21
1.0
 31
0.0
 73
     1
 44
1.0
1001
ACAD
1000
MTEXTBEGIN
1070
    73
1070
     1
1070
    44
1040
1.0
1070
    74
1070
     0
1000
MTEXTEND
  0
POINT
  5
18D21
330
17CD8
100
AcDbEntity
  8
DEFPOINTS
 62
     0
 48
50.0
100
AcDbPoint
 10
10162.05800760398
 20
8249.011421506358
 30
0.0
  0
POINT
  5
18D22
330
17CD8
100
AcDbEntity
  8
DEFPOINTS
 62
     0
 48
50.0
100
AcDbPoint
 10
10162.05800760398
 20
6976.011421506346
 30
0.0
  0
POINT
  5
18D23
330
17CD8
100
AcDbEntity
  8
DEFPOINTS
 62
     0
 48
50.0
100
AcDbPoint
 10
9959.416406190687
 20
7030.309074957987
 30
0.0
  0
ENDBLK
  5
17CE3
330
17CD8
100
AcDbEntity
  8
0
 48
50.0
100
AcDbBlockEnd
  0
BLOCK
  5
17D3A
330
17D30
100
AcDbEntity
  8
0
 48
50.0
100
AcDbBlockBegin
  2
*D11
 70
     1
 10
0.0
 20
0.0
 30
0.0
  3
*D11
  1

  0
LINE
  5
186B8
330
17D30
100
AcDbEntity
  8
寸法
 62
     0
 48
50.0
370
    -2
100
AcDbLine
 10
10662.05800760384
 20
2039.988104552487
 30
0.0
 11
11237.22810336626
 21
2039.988104552487
 31
0.0
  0
LINE
  5
186B9
330
17D30
100
AcDbEntity
  8
寸法
 62
     0
 48
50.0
370
    -2
100
AcDbLine
 10
10742.05800760382
 20
4059.988104552489
 30
0.0
 11
11237.22810336626
 21
4059.988104552489
 31
0.0
  0
LINE
  5
186BA
330
17D30
100
AcDbEntity
  8
寸法
 62
     0
 48
50.0
370
    -2
100
AcDbLine
 10
11177.22810336626
 20
2039.988104552487
 30
0.0
 11
11177.22810336626
 21
4059.988104552489
 31
0.0
  0
INSERT
  5
186BB
330
17D30
100
AcDbEntity
  8
寸法
 62
     0
 48
50.0
370
    -2
100
AcDbBlockReference
  2
_DOTSMALL
 10
11177.22810336626
 20
2039.988104552487
 30
0.0
 41
100.0
 42
100.0
 43
100.0
 50
270.0
  0
INSERT
  5
186BC
330
17D30
100
AcDbEntity
  8
寸法
 62
     0
 48
50.0
370
    -2
100
AcDbBlockReference
  2
_DOTSMALL
 10
11177.22810336626
 20
4059.988104552489
 30
0.0
 41
100.0
 42
100.0
 43
100.0
 50
90.0
  0
MTEXT
  5
186BD
330
17D30
100
AcDbEntity
  8
寸法
 62
     7
 48
50.0
100
AcDbMText
 10
11077.21629234264
 20
3022.244431982176
 30
0.0
 40
120.0
 41
0.0
 71
     5
 72
     1
  1
\A1;2020
  7
STYLE1
 11
0.0000000000000001
 21
1.0
 31
0.0
 73
     1
 44
1.0
1001
ACAD
1000
MTEXTBEGIN
1070
    73
1070
     1
1070
    44
1040
1.0
1070
    74
1070
     0
1000
MTEXTEND
  0
POINT
  5
186BE
330
17D30
100
AcDbEntity
  8
DEFPOINTS
 62
     0
 48
50.0
100
AcDbPoint
 10
10642.05800760384
 20
2039.988104552487
 30
0.0
  0
POINT
  5
186BF
330
17D30
100
AcDbEntity
  8
DEFPOINTS
 62
     0
 48
50.0
100
AcDbPoint
 10
10722.05800760382
 20
4059.988104552489
 30
0.0
  0
POINT
  5
186C0
330
17D30
100
AcDbEntity
  8
DEFPOINTS
 62
     0
 48
50.0
100
AcDbPoint
 10
11177.22810336626
 20
4059.988104552489
 30
0.0
  0
ENDBLK
  5
17D3B
330
17D30
100
AcDbEntity
  8
0
 48
50.0
100
AcDbBlockEnd
  0
BLOCK
  5
17D47
330
17D3C
100
AcDbEntity
  8
0
 48
50.0
100
AcDbBlockBegin
  2
*D12
 70
     1
 10
0.0
 20
0.0
 30
0.0
  3
*D12
  1

  0
LINE
  5
186AE
330
17D3C
100
AcDbEntity
  8
寸法
 62
     0
 48
50.0
370
    -2
100
AcDbLine
 10
8777.058007603843
 20
2039.988104552487
 30
0.0
 11
7883.418625674483
 21
2039.988104552488
 31
0.0
  0
LINE
  5
186AF
330
17D3C
100
AcDbEntity
  8
寸法
 62
     0
 48
50.0
370
    -2
100
AcDbLine
 10
8208.405298445546
 20
1939.988104552487
 30
0.0
 11
7883.418625674483
 21
1939.988104552487
 31
0.0
  0
LINE
  5
186B0
330
17D3C
100
AcDbEntity
  8
寸法
 62
     0
 48
50.0
370
    -2
100
AcDbLine
 10
7943.418625674484
 20
2039.988104552488
 30
0.0
 11
7943.418625674484
 21
1939.988104552487
 31
0.0
  0
LINE
  5
186B1
330
17D3C
100
AcDbEntity
  8
寸法
 62
     0
 48
50.0
370
    -2
100
AcDbLine
 10
7943.418625674484
 20
1939.988104552487
 30
0.0
 11
7943.418625674484
 21
1567.893616363507
 31
0.0
  0
INSERT
  5
186B2
330
17D3C
100
AcDbEntity
  8
寸法
 62
     0
 48
50.0
370
    -2
100
AcDbBlockReference
  2
_DOTSMALL
 10
7943.418625674484
 20
2039.988104552488
 30
0.0
 41
100.0
 42
100.0
 43
100.0
 50
90.0
  0
INSERT
  5
186B3
330
17D3C
100
AcDbEntity
  8
寸法
 62
     0
 48
50.0
370
    -2
100
AcDbBlockReference
  2
_DOTSMALL
 10
7943.418625674484
 20
1939.988104552487
 30
0.0
 41
100.0
 42
100.0
 43
100.0
 50
270.0
  0
MTEXT
  5
186B4
330
17D3C
100
AcDbEntity
  8
寸法
 62
     7
 48
50.0
100
AcDbMText
 10
7843.418625674484
 20
1703.940860457997
 30
0.0
 40
120.0
 41
0.0
 71
     5
 72
     1
  1
\A1;100
  7
STYLE1
 11
0.0000000000000001
 21
1.0
 31
0.0
 73
     1
 44
1.0
1001
ACAD
1000
MTEXTBEGIN
1070
    73
1070
     1
1070
    44
1040
1.0
1070
    74
1070
     0
1000
MTEXTEND
  0
POINT
  5
186B5
330
17D3C
100
AcDbEntity
  8
DEFPOINTS
 62
     0
 48
50.0
100
AcDbPoint
 10
8797.058007603842
 20
2039.988104552487
 30
0.0
  0
POINT
  5
186B6
330
17D3C
100
AcDbEntity
  8
DEFPOINTS
 62
     0
 48
50.0
100
AcDbPoint
 10
8228.405298445544
 20
1939.988104552487
 30
0.0
  0
POINT
  5
186B7
330
17D3C
100
AcDbEntity
  8
DEFPOINTS
 62
     0
 48
50.0
100
AcDbPoint
 10
7943.418625674484
 20
1939.988104552487
 30
0.0
  0
ENDBLK
  5
17D48
330
17D3C
100
AcDbEntity
  8
0
 48
50.0
100
AcDbBlockEnd
  0
BLOCK
  5
17D55
330
17D49
100
AcDbEntity
  8
0
 48
50.0
100
AcDbBlockBegin
  2
*D13
 70
     1
 10
0.0
 20
0.0
 30
0.0
  3
*D13
  1

  0
LINE
  5
186A3
330
17D49
100
AcDbEntity
  8
寸法
 62
     0
 48
50.0
370
    -2
100
AcDbLine
 10
8832.058007603842
 20
2089.988104552487
 30
0.0
 11
8168.405298445547
 21
2089.988104552487
 31
0.0
  0
LINE
  5
186A4
330
17D49
100
AcDbEntity
  8
寸法
 62
     0
 48
50.0
370
    -2
100
AcDbLine
 10
8777.058007603843
 20
2039.988104552487
 30
0.0
 11
8168.405298445545
 21
2039.988104552488
 31
0.0
  0
LINE
  5
186A5
330
17D49
100
AcDbEntity
  8
寸法
 62
     0
 48
50.0
370
    -2
100
AcDbLine
 10
8228.405298445544
 20
2089.988104552487
 30
0.0
 11
8228.405298445544
 21
2189.988104552487
 31
0.0
  0
LINE
  5
186A6
330
17D49
100
AcDbEntity
  8
寸法
 62
     0
 48
50.0
370
    -2
100
AcDbLine
 10
8228.405298445544
 20
2039.988104552488
 30
0.0
 11
8228.405298445544
 21
1627.893616363507
 31
0.0
  0
LINE
  5
186A7
330
17D49
100
AcDbEntity
  8
寸法
 62
     0
 48
50.0
370
    -2
100
AcDbLine
 10
8228.405298445544
 20
2089.988104552487
 30
0.0
 11
8228.405298445544
 21
2039.988104552488
 31
0.0
  0
INSERT
  5
186A8
330
17D49
100
AcDbEntity
  8
寸法
 62
     0
 48
50.0
370
    -2
100
AcDbBlockReference
  2
_DOTSMALL
 10
8228.405298445544
 20
2089.988104552487
 30
0.0
 41
100.0
 42
100.0
 43
100.0
 50
270.0
  0
INSERT
  5
186A9
330
17D49
100
AcDbEntity
  8
寸法
 62
     0
 48
50.0
370
    -2
100
AcDbBlockReference
  2
_DOTSMALL
 10
8228.405298445544
 20
2039.988104552488
 30
0.0
 41
100.0
 42
100.0
 43
100.0
 50
90.0
  0
MTEXT
  5
186AA
330
17D49
100
AcDbEntity
  8
寸法
 62
     7
 48
50.0
100
AcDbMText
 10
8128.405298445544
 20
1733.940860457997
 30
0.0
 40
120.0
 41
0.0
 71
     5
 72
     1
  1
\A1;50
  7
STYLE1
 11
0.0000000000000001
 21
1.0
 31
0.0
 73
     1
 44
1.0
1001
ACAD
1000
MTEXTBEGIN
1070
    73
1070
     1
1070
    44
1040
1.0
1070
    74
1070
     0
1000
MTEXTEND
  0
POINT
  5
186AB
330
17D49
100
AcDbEntity
  8
DEFPOINTS
 62
     0
 48
50.0
100
AcDbPoint
 10
8852.058007603842
 20
2089.988104552487
 30
0.0
  0
POINT
  5
186AC
330
17D49
100
AcDbEntity
  8
DEFPOINTS
 62
     0
 48
50.0
100
AcDbPoint
 10
8797.058007603842
 20
2039.988104552487
 30
0.0
  0
POINT
  5
186AD
330
17D49
100
AcDbEntity
  8
DEFPOINTS
 62
     0
 48
50.0
100
AcDbPoint
 10
8228.405298445544
 20
2039.988104552488
 30
0.0
  0
ENDBLK
  5
17D56
330
17D49
100
AcDbEntity
  8
0
 48
50.0
100
AcDbBlockEnd
  0
BLOCK
  5
17D61
330
17D57
100
AcDbEntity
  8
0
 48
50.0
100
AcDbBlockBegin
  2
*D14
 70
     1
 10
0.0
 20
0.0
 30
0.0
  3
*D14
  1

  0
LINE
  5
1869A
330
17D57
100
AcDbEntity
  8
寸法
 62
     0
 48
50.0
370
    -2
100
AcDbLine
 10
8832.058007603842
 20
3879.988104552487
 30
0.0
 11
8168.405298445547
 21
3879.988104552487
 31
0.0
  0
LINE
  5
1869B
330
17D57
100
AcDbEntity
  8
寸法
 62
     0
 48
50.0
370
    -2
100
AcDbLine
 10
8832.058007603842
 20
2089.988104552487
 30
0.0
 11
8168.405298445547
 21
2089.988104552487
 31
0.0
  0
LINE
  5
1869C
330
17D57
100
AcDbEntity
  8
寸法
 62
     0
 48
50.0
370
    -2
100
AcDbLine
 10
8228.405298445544
 20
3879.988104552487
 30
0.0
 11
8228.405298445544
 21
2089.988104552487
 31
0.0
  0
INSERT
  5
1869D
330
17D57
100
AcDbEntity
  8
寸法
 62
     0
 48
50.0
370
    -2
100
AcDbBlockReference
  2
_DOTSMALL
 10
8228.405298445544
 20
3879.988104552487
 30
0.0
 41
100.0
 42
100.0
 43
100.0
 50
90.0
  0
INSERT
  5
1869E
330
17D57
100
AcDbEntity
  8
寸法
 62
     0
 48
50.0
370
    -2
100
AcDbBlockReference
  2
_DOTSMALL
 10
8228.405298445544
 20
2089.988104552487
 30
0.0
 41
100.0
 42
100.0
 43
100.0
 50
270.0
  0
MTEXT
  5
1869F
330
17D57
100
AcDbEntity
  8
寸法
 62
     7
 48
50.0
100
AcDbMText
 10
8128.405298445544
 20
2980.442403094445
 30
0.0
 40
120.0
 41
0.0
 71
     5
 72
     1
  1
\A1;1790
  7
STYLE1
 11
0.0000000000000001
 21
1.0
 31
0.0
 73
     1
 44
1.0
1001
ACAD
1000
MTEXTBEGIN
1070
    73
1070
     1
1070
    44
1040
1.0
1070
    74
1070
     0
1000
MTEXTEND
  0
POINT
  5
186A0
330
17D57
100
AcDbEntity
  8
DEFPOINTS
 62
     0
 48
50.0
100
AcDbPoint
 10
8852.058007603842
 20
3879.988104552487
 30
0.0
  0
POINT
  5
186A1
330
17D57
100
AcDbEntity
  8
DEFPOINTS
 62
     0
 48
50.0
100
AcDbPoint
 10
8852.058007603842
 20
2089.988104552487
 30
0.0
  0
POINT
  5
186A2
330
17D57
100
AcDbEntity
  8
DEFPOINTS
 62
     0
 48
50.0
100
AcDbPoint
 10
8228.405298445544
 20
2089.988104552487
 30
0.0
  0
ENDBLK
  5
17D62
330
17D57
100
AcDbEntity
  8
0
 48
50.0
100
AcDbBlockEnd
  0
BLOCK
  5
17D6D
330
17D63
100
AcDbEntity
  8
0
 48
50.0
100
AcDbBlockBegin
  2
*D15
 70
     1
 10
0.0
 20
0.0
 30
0.0
  3
*D15
  1

  0
LINE
  5
18691
330
17D63
100
AcDbEntity
  8
寸法
 62
     0
 48
50.0
370
    -2
100
AcDbLine
 10
8832.058007603842
 20
2039.988104552487
 30
0.0
 11
7883.418625674483
 21
2039.988104552488
 31
0.0
  0
LINE
  5
18692
330
17D63
100
AcDbEntity
  8
寸法
 62
     0
 48
50.0
370
    -2
100
AcDbLine
 10
8772.058007603844
 20
4114.988104552491
 30
0.0
 11
7883.418625674484
 21
4114.988104552491
 31
0.0
  0
LINE
  5
18693
330
17D63
100
AcDbEntity
  8
寸法
 62
     0
 48
50.0
370
    -2
100
AcDbLine
 10
7943.418625674484
 20
2039.988104552488
 30
0.0
 11
7943.418625674484
 21
4114.988104552491
 31
0.0
  0
INSERT
  5
18694
330
17D63
100
AcDbEntity
  8
寸法
 62
     0
 48
50.0
370
    -2
100
AcDbBlockReference
  2
_DOTSMALL
 10
7943.418625674484
 20
2039.988104552488
 30
0.0
 41
100.0
 42
100.0
 43
100.0
 50
270.0
  0
INSERT
  5
18695
330
17D63
100
AcDbEntity
  8
寸法
 62
     0
 48
50.0
370
    -2
100
AcDbBlockReference
  2
_DOTSMALL
 10
7943.418625674484
 20
4114.988104552491
 30
0.0
 41
100.0
 42
100.0
 43
100.0
 50
90.0
  0
MTEXT
  5
18696
330
17D63
100
AcDbEntity
  8
寸法
 62
     7
 48
50.0
100
AcDbMText
 10
7843.406814650862
 20
3034.193982045597
 30
0.0
 40
120.0
 41
0.0
 71
     5
 72
     1
  1
\A1;2075
  7
STYLE1
 11
0.0000000000000001
 21
1.0
 31
0.0
 73
     1
 44
1.0
1001
ACAD
1000
MTEXTBEGIN
1070
    73
1070
     1
1070
    44
1040
1.0
1070
    74
1070
     0
1000
MTEXTEND
  0
POINT
  5
18697
330
17D63
100
AcDbEntity
  8
DEFPOINTS
 62
     0
 48
50.0
100
AcDbPoint
 10
8852.058007603842
 20
2039.988104552487
 30
0.0
  0
POINT
  5
18698
330
17D63
100
AcDbEntity
  8
DEFPOINTS
 62
     0
 48
50.0
100
AcDbPoint
 10
8792.058007603841
 20
4114.988104552491
 30
0.0
  0
POINT
  5
18699
330
17D63
100
AcDbEntity
  8
DEFPOINTS
 62
     0
 48
50.0
100
AcDbPoint
 10
7943.418625674484
 20
4114.988104552491
 30
0.0
  0
ENDBLK
  5
17D6E
330
17D63
100
AcDbEntity
  8
0
 48
50.0
100
AcDbBlockEnd
  0
BLOCK
  5
17D7A
330
17D6F
100
AcDbEntity
  8
0
 48
50.0
100
AcDbBlockBegin
  2
*D16
 70
     1
 10
0.0
 20
0.0
 30
0.0
  3
*D16
  1

  0
LINE
  5
18687
330
17D6F
100
AcDbEntity
  8
寸法
 62
     0
 48
50.0
370
    -2
100
AcDbLine
 10
10642.05800760384
 20
4081.79878416414
 30
0.0
 11
10642.05800760384
 21
4574.08127389196
 31
0.0
  0
LINE
  5
18688
330
17D6F
100
AcDbEntity
  8
寸法
 62
     0
 48
50.0
370
    -2
100
AcDbLine
 10
10722.05800760384
 20
4079.988104552488
 30
0.0
 11
10722.05800760384
 21
4574.08127389196
 31
0.0
  0
LINE
  5
18689
330
17D6F
100
AcDbEntity
  8
寸法
 62
     0
 48
50.0
370
    -2
100
AcDbLine
 10
10642.05800760384
 20
4514.08127389196
 30
0.0
 11
10722.05800760384
 21
4514.08127389196
 31
0.0
  0
LINE
  5
1868A
330
17D6F
100
AcDbEntity
  8
寸法
 62
     0
 48
50.0
370
    -2
100
AcDbLine
 10
10722.05800760384
 20
4514.08127389196
 30
0.0
 11
11034.15249579282
 21
4514.08127389196
 31
0.0
  0
INSERT
  5
1868B
330
17D6F
100
AcDbEntity
  8
寸法
 62
     0
 48
50.0
370
    -2
100
AcDbBlockReference
  2
_DOTSMALL
 10
10642.05800760384
 20
4514.08127389196
 30
0.0
 41
100.0
 42
100.0
 43
100.0
 50
180.0
  0
INSERT
  5
1868C
330
17D6F
100
AcDbEntity
  8
寸法
 62
     0
 48
50.0
370
    -2
100
AcDbBlockReference
  2
_DOTSMALL
 10
10722.05800760384
 20
4514.08127389196
 30
0.0
 41
100.0
 42
100.0
 43
100.0
  0
MTEXT
  5
1868D
330
17D6F
100
AcDbEntity
  8
寸法
 62
     7
 48
50.0
100
AcDbMText
 10
10928.10525169833
 20
4614.081273891961
 30
0.0
 40
120.0
 41
0.0
 71
     5
 72
     1
  1
\A1;80
  7
STYLE1
 73
     1
 44
1.0
1001
ACAD
1000
MTEXTBEGIN
1070
    73
1070
     1
1070
    44
1040
1.0
1070
    74
1070
     0
1000
MTEXTEND
  0
POINT
  5
1868E
330
17D6F
100
AcDbEntity
  8
DEFPOINTS
 62
     0
 48
50.0
100
AcDbPoint
 10
10642.05800760384
 20
4061.798784164141
 30
0.0
  0
POINT
  5
1868F
330
17D6F
100
AcDbEntity
  8
DEFPOINTS
 62
     0
 48
50.0
100
AcDbPoint
 10
10722.05800760384
 20
4059.988104552488
 30
0.0
  0
POINT
  5
18690
330
17D6F
100
AcDbEntity
  8
DEFPOINTS
 62
     0
 48
50.0
100
AcDbPoint
 10
10722.05800760384
 20
4514.08127389196
 30
0.0
  0
ENDBLK
  5
17D7B
330
17D6F
100
AcDbEntity
  8
0
 48
50.0
100
AcDbBlockEnd
  0
BLOCK
  5
17D86
330
17D7C
100
AcDbEntity
  8
0
 48
50.0
100
AcDbBlockBegin
  2
*D17
 70
     1
 10
0.0
 20
0.0
 30
0.0
  3
*D17
  1

  0
LINE
  5
1867E
330
17D7C
100
AcDbEntity
  8
寸法
 62
     0
 48
50.0
370
    -2
100
AcDbLine
 10
10722.05800760384
 20
4079.988104552488
 30
0.0
 11
10722.05800760384
 21
4790.607373510406
 31
0.0
  0
LINE
  5
1867F
330
17D7C
100
AcDbEntity
  8
寸法
 62
     0
 48
50.0
370
    -2
100
AcDbLine
 10
8792.058007603847
 20
4134.988104552491
 30
0.0
 11
8792.058007603847
 21
4790.607373510406
 31
0.0
  0
LINE
  5
18680
330
17D7C
100
AcDbEntity
  8
寸法
 62
     0
 48
50.0
370
    -2
100
AcDbLine
 10
10722.05800760384
 20
4730.607373510405
 30
0.0
 11
8792.058007603847
 21
4730.607373510405
 31
0.0
  0
INSERT
  5
18681
330
17D7C
100
AcDbEntity
  8
寸法
 62
     0
 48
50.0
370
    -2
100
AcDbBlockReference
  2
_DOTSMALL
 10
10722.05800760384
 20
4730.607373510405
 30
0.0
 41
100.0
 42
100.0
 43
100.0
  0
INSERT
  5
18682
330
17D7C
100
AcDbEntity
  8
寸法
 62
     0
 48
50.0
370
    -2
100
AcDbBlockReference
  2
_DOTSMALL
 10
8792.058007603847
 20
4730.607373510405
 30
0.0
 41
100.0
 42
100.0
 43
100.0
 50
180.0
  0
MTEXT
  5
18683
330
17D7C
100
AcDbEntity
  8
寸法
 62
     7
 48
50.0
100
AcDbMText
 10
9697.863758854815
 20
4830.607373510406
 30
0.0
 40
120.0
 41
0.0
 71
     5
 72
     1
  1
\A1;1930
  7
STYLE1
 73
     1
 44
1.0
1001
ACAD
1000
MTEXTBEGIN
1070
    73
1070
     1
1070
    44
1040
1.0
1070
    74
1070
     0
1000
MTEXTEND
  0
POINT
  5
18684
330
17D7C
100
AcDbEntity
  8
DEFPOINTS
 62
     0
 48
50.0
100
AcDbPoint
 10
10722.05800760384
 20
4059.988104552488
 30
0.0
  0
POINT
  5
18685
330
17D7C
100
AcDbEntity
  8
DEFPOINTS
 62
     0
 48
50.0
100
AcDbPoint
 10
8792.058007603847
 20
4114.988104552491
 30
0.0
  0
POINT
  5
18686
330
17D7C
100
AcDbEntity
  8
DEFPOINTS
 62
     0
 48
50.0
100
AcDbPoint
 10
8792.058007603847
 20
4730.607373510405
 30
0.0
  0
ENDBLK
  5
17D87
330
17D7C
100
AcDbEntity
  8
0
 48
50.0
100
AcDbBlockEnd
  0
BLOCK
  5
17D94
330
17D88
100
AcDbEntity
  8
0
 48
50.0
100
AcDbBlockBegin
  2
*D18
 70
     1
 10
0.0
 20
0.0
 30
0.0
  3
*D18
  1

  0
LINE
  5
18673
330
17D88
100
AcDbEntity
  8
寸法
 62
     0
 48
50.0
370
    -2
100
AcDbLine
 10
8852.058007603845
 20
4130.989722675463
 30
0.0
 11
8852.058007603845
 21
4574.08127389196
 31
0.0
  0
LINE
  5
18674
330
17D88
100
AcDbEntity
  8
寸法
 62
     0
 48
50.0
370
    -2
100
AcDbLine
 10
8792.058007603847
 20
4134.988104552491
 30
0.0
 11
8792.058007603847
 21
4574.08127389196
 31
0.0
  0
LINE
  5
18675
330
17D88
100
AcDbEntity
  8
寸法
 62
     0
 48
50.0
370
    -2
100
AcDbLine
 10
8852.058007603845
 20
4514.08127389196
 30
0.0
 11
8952.058007603845
 21
4514.08127389196
 31
0.0
  0
LINE
  5
18676
330
17D88
100
AcDbEntity
  8
寸法
 62
     0
 48
50.0
370
    -2
100
AcDbLine
 10
8792.058007603847
 20
4514.08127389196
 30
0.0
 11
8372.782417052667
 21
4514.08127389196
 31
0.0
  0
LINE
  5
18677
330
17D88
100
AcDbEntity
  8
寸法
 62
     0
 48
50.0
370
    -2
100
AcDbLine
 10
8852.058007603845
 20
4514.08127389196
 30
0.0
 11
8792.058007603847
 21
4514.08127389196
 31
0.0
  0
INSERT
  5
18678
330
17D88
100
AcDbEntity
  8
寸法
 62
     0
 48
50.0
370
    -2
100
AcDbBlockReference
  2
_DOTSMALL
 10
8852.058007603845
 20
4514.08127389196
 30
0.0
 41
100.0
 42
100.0
 43
100.0
 50
180.0
  0
INSERT
  5
18679
330
17D88
100
AcDbEntity
  8
寸法
 62
     0
 48
50.0
370
    -2
100
AcDbBlockReference
  2
_DOTSMALL
 10
8792.058007603847
 20
4514.08127389196
 30
0.0
 41
100.0
 42
100.0
 43
100.0
  0
MTEXT
  5
1867A
330
17D88
100
AcDbEntity
  8
寸法
 62
     7
 48
50.0
100
AcDbMText
 10
8482.420212328255
 20
4614.081273891961
 30
0.0
 40
120.0
 41
0.0
 71
     5
 72
     1
  1
\A1;60
  7
STYLE1
 73
     1
 44
1.0
1001
ACAD
1000
MTEXTBEGIN
1070
    73
1070
     1
1070
    44
1040
1.0
1070
    74
1070
     0
1000
MTEXTEND
  0
POINT
  5
1867B
330
17D88
100
AcDbEntity
  8
DEFPOINTS
 62
     0
 48
50.0
100
AcDbPoint
 10
8852.058007603845
 20
4110.989722675464
 30
0.0
  0
POINT
  5
1867C
330
17D88
100
AcDbEntity
  8
DEFPOINTS
 62
     0
 48
50.0
100
AcDbPoint
 10
8792.058007603847
 20
4114.988104552491
 30
0.0
  0
POINT
  5
1867D
330
17D88
100
AcDbEntity
  8
DEFPOINTS
 62
     0
 48
50.0
100
AcDbPoint
 10
8792.058007603847
 20
4514.08127389196
 30
0.0
  0
ENDBLK
  5
17D95
330
17D88
100
AcDbEntity
  8
0
 48
50.0
100
AcDbBlockEnd
  0
BLOCK
  5
17DA0
330
17D96
100
AcDbEntity
  8
0
 48
50.0
100
AcDbBlockBegin
  2
*D19
 70
     1
 10
0.0
 20
0.0
 30
0.0
  3
*D19
  1

  0
LINE
  5
1866A
330
17D96
100
AcDbEntity
  8
寸法
 62
     0
 48
50.0
370
    -2
100
AcDbLine
 10
10642.05800760384
 20
4081.79878416414
 30
0.0
 11
10642.05800760384
 21
4574.08127389196
 31
0.0
  0
LINE
  5
1866B
330
17D96
100
AcDbEntity
  8
寸法
 62
     0
 48
50.0
370
    -2
100
AcDbLine
 10
8852.058007603845
 20
4130.989722675463
 30
0.0
 11
8852.058007603845
 21
4574.08127389196
 31
0.0
  0
LINE
  5
1866C
330
17D96
100
AcDbEntity
  8
寸法
 62
     0
 48
50.0
370
    -2
100
AcDbLine
 10
10642.05800760384
 20
4514.08127389196
 30
0.0
 11
8852.058007603845
 21
4514.08127389196
 31
0.0
  0
INSERT
  5
1866D
330
17D96
100
AcDbEntity
  8
寸法
 62
     0
 48
50.0
370
    -2
100
AcDbBlockReference
  2
_DOTSMALL
 10
10642.05800760384
 20
4514.08127389196
 30
0.0
 41
100.0
 42
100.0
 43
100.0
  0
INSERT
  5
1866E
330
17D96
100
AcDbEntity
  8
寸法
 62
     0
 48
50.0
370
    -2
100
AcDbBlockReference
  2
_DOTSMALL
 10
8852.058007603845
 20
4514.08127389196
 30
0.0
 41
100.0
 42
100.0
 43
100.0
 50
180.0
  0
MTEXT
  5
1866F
330
17D96
100
AcDbEntity
  8
寸法
 62
     7
 48
50.0
100
AcDbMText
 10
9761.653656280325
 20
4614.081273891961
 30
0.0
 40
120.0
 41
0.0
 71
     5
 72
     1
  1
\A1;柱外寸法1790
  7
STYLE1
 73
     1
 44
1.0
1001
ACAD
1000
MTEXTBEGIN
1070
    73
1070
     1
1070
    44
1040
1.0
1070
    74
1070
     0
1000
MTEXTEND
  0
POINT
  5
18670
330
17D96
100
AcDbEntity
  8
DEFPOINTS
 62
     0
 48
50.0
100
AcDbPoint
 10
10642.05800760384
 20
4061.798784164141
 30
0.0
  0
POINT
  5
18671
330
17D96
100
AcDbEntity
  8
DEFPOINTS
 62
     0
 48
50.0
100
AcDbPoint
 10
8852.058007603845
 20
4110.989722675464
 30
0.0
  0
POINT
  5
18672
330
17D96
100
AcDbEntity
  8
DEFPOINTS
 62
     0
 48
50.0
100
AcDbPoint
 10
8852.058007603845
 20
4514.08127389196
 30
0.0
  0
ENDBLK
  5
17DA1
330
17D96
100
AcDbEntity
  8
0
 48
50.0
100
AcDbBlockEnd
  0
BLOCK
  5
17DAC
330
17DA2
100
AcDbEntity
  8
0
 48
50.0
100
AcDbBlockBegin
  2
*D20
 70
     1
 10
0.0
 20
0.0
 30
0.0
  3
*D20
  1

  0
LINE
  5
18661
330
17DA2
100
AcDbEntity
  8
寸法
 62
     0
 48
50.0
370
    -2
100
AcDbLine
 10
8952.058007603843
 20
1719.988104552485
 30
0.0
 11
8952.058007603843
 21
1393.940775252109
 31
0.0
  0
LINE
  5
18662
330
17DA2
100
AcDbEntity
  8
寸法
 62
     0
 48
50.0
370
    -2
100
AcDbLine
 10
8752.058007603842
 20
1719.988104552485
 30
0.0
 11
8752.058007603842
 21
1393.940775252109
 31
0.0
  0
LINE
  5
18663
330
17DA2
100
AcDbEntity
  8
寸法
 62
     0
 48
50.0
370
    -2
100
AcDbLine
 10
8952.058007603843
 20
1453.940775252109
 30
0.0
 11
8752.058007603842
 21
1453.940775252109
 31
0.0
  0
INSERT
  5
18664
330
17DA2
100
AcDbEntity
  8
寸法
 62
     0
 48
50.0
370
    -2
100
AcDbBlockReference
  2
_DOTSMALL
 10
8952.058007603843
 20
1453.940775252109
 30
0.0
 41
100.0
 42
100.0
 43
100.0
  0
INSERT
  5
18665
330
17DA2
100
AcDbEntity
  8
寸法
 62
     0
 48
50.0
370
    -2
100
AcDbBlockReference
  2
_DOTSMALL
 10
8752.058007603842
 20
1453.940775252109
 30
0.0
 41
100.0
 42
100.0
 43
100.0
 50
180.0
  0
MTEXT
  5
18666
330
17DA2
100
AcDbEntity
  8
寸法
 62
     7
 48
50.0
100
AcDbMText
 10
8852.058007603842
 20
1553.952586275731
 30
0.0
 40
120.0
 41
0.0
 71
     5
 72
     1
  1
\A1;200
  7
STYLE1
 73
     1
 44
1.0
1001
ACAD
1000
MTEXTBEGIN
1070
    73
1070
     1
1070
    44
1040
1.0
1070
    74
1070
     0
1000
MTEXTEND
  0
POINT
  5
18667
330
17DA2
100
AcDbEntity
  8
DEFPOINTS
 62
     0
 48
50.0
100
AcDbPoint
 10
8952.058007603843
 20
1739.988104552485
 30
0.0
  0
POINT
  5
18668
330
17DA2
100
AcDbEntity
  8
DEFPOINTS
 62
     0
 48
50.0
100
AcDbPoint
 10
8752.058007603842
 20
1739.988104552485
 30
0.0
  0
POINT
  5
18669
330
17DA2
100
AcDbEntity
  8
DEFPOINTS
 62
     0
 48
50.0
100
AcDbPoint
 10
8752.058007603842
 20
1453.940775252109
 30
0.0
  0
ENDBLK
  5
17DAD
330
17DA2
100
AcDbEntity
  8
0
 48
50.0
100
AcDbBlockEnd
  0
BLOCK
  5
17DB8
330
17DAE
100
AcDbEntity
  8
0
 48
50.0
100
AcDbBlockBegin
  2
*D21
 70
     1
 10
0.0
 20
0.0
 30
0.0
  3
*D21
  1

  0
LINE
  5
18658
330
17DAE
100
AcDbEntity
  8
寸法
 62
     0
 48
50.0
370
    -2
100
AcDbLine
 10
8860.058007603859
 20
3822.988104552487
 30
0.0
 11
8520.851978391707
 21
3822.988104552487
 31
0.0
  0
LINE
  5
18659
330
17DAE
100
AcDbEntity
  8
寸法
 62
     0
 48
50.0
370
    -2
100
AcDbLine
 10
8860.058007603859
 20
2097.988104552487
 30
0.0
 11
8520.851978391707
 21
2097.988104552487
 31
0.0
  0
LINE
  5
1865A
330
17DAE
100
AcDbEntity
  8
寸法
 62
     0
 48
50.0
370
    -2
100
AcDbLine
 10
8580.851978391708
 20
3822.988104552487
 30
0.0
 11
8580.851978391708
 21
2097.988104552487
 31
0.0
  0
INSERT
  5
1865B
330
17DAE
100
AcDbEntity
  8
寸法
 62
     0
 48
50.0
370
    -2
100
AcDbBlockReference
  2
_DOTSMALL
 10
8580.851978391708
 20
3822.988104552487
 30
0.0
 41
100.0
 42
100.0
 43
100.0
 50
90.0
  0
INSERT
  5
1865C
330
17DAE
100
AcDbEntity
  8
寸法
 62
     0
 48
50.0
370
    -2
100
AcDbBlockReference
  2
_DOTSMALL
 10
8580.851978391708
 20
2097.988104552487
 30
0.0
 41
100.0
 42
100.0
 43
100.0
 50
270.0
  0
MTEXT
  5
1865D
330
17DAE
100
AcDbEntity
  8
寸法
 62
     7
 48
50.0
100
AcDbMText
 10
8480.840167368086
 20
2951.621123570012
 30
0.0
 40
120.0
 41
0.0
 71
     5
 72
     1
  1
\A1;有効開口部高サ1725
  7
STYLE1
 11
0.0000000000000001
 21
1.0
 31
0.0
 73
     1
 44
1.0
1001
ACAD
1000
MTEXTBEGIN
1070
    73
1070
     1
1070
    44
1040
1.0
1070
    74
1070
     0
1000
MTEXTEND
  0
POINT
  5
1865E
330
17DAE
100
AcDbEntity
  8
DEFPOINTS
 62
     0
 48
50.0
100
AcDbPoint
 10
8880.058007603858
 20
3822.988104552487
 30
0.0
  0
POINT
  5
1865F
330
17DAE
100
AcDbEntity
  8
DEFPOINTS
 62
     0
 48
50.0
100
AcDbPoint
 10
8880.058007603858
 20
2097.988104552487
 30
0.0
  0
POINT
  5
18660
330
17DAE
100
AcDbEntity
  8
DEFPOINTS
 62
     0
 48
50.0
100
AcDbPoint
 10
8580.851978391708
 20
2097.988104552487
 30
0.0
  0
ENDBLK
  5
17DB9
330
17DAE
100
AcDbEntity
  8
0
 48
50.0
100
AcDbBlockEnd
  0
BLOCK
  5
1821D
330
18213
100
AcDbEntity
  8
0
 48
50.0
100
AcDbBlockBegin
  2
*D22
 70
     1
 10
0.0
 20
0.0
 30
0.0
  3
*D22
  1

  0
LINE
  5
185EB
330
18213
100
AcDbEntity
  8
寸法
 62
     0
 48
50.0
370
    -2
100
AcDbLine
 10
4047.460978266594
 20
1739.988104552484
 30
0.0
 11
3857.96097501996
 21
1739.988104552484
 31
0.0
  0
LINE
  5
185EC
330
18213
100
AcDbEntity
  8
寸法
 62
     0
 48
50.0
370
    -2
100
AcDbLine
 10
4022.460978266593
 20
1939.988104552484
 30
0.0
 11
3857.96097501996
 21
1939.988104552484
 31
0.0
  0
LINE
  5
185ED
330
18213
100
AcDbEntity
  8
寸法
 62
     0
 48
50.0
370
    -2
100
AcDbLine
 10
3917.960975019961
 20
1739.988104552484
 30
0.0
 11
3917.960975019961
 21
1939.988104552484
 31
0.0
  0
INSERT
  5
185EE
330
18213
100
AcDbEntity
  8
寸法
 62
     0
 48
50.0
370
    -2
100
AcDbBlockReference
  2
_DOTSMALL
 10
3917.960975019961
 20
1739.988104552484
 30
0.0
 41
100.0
 42
100.0
 43
100.0
 50
270.0
  0
INSERT
  5
185EF
330
18213
100
AcDbEntity
  8
寸法
 62
     0
 48
50.0
370
    -2
100
AcDbBlockReference
  2
_DOTSMALL
 10
3917.960975019961
 20
1939.988104552484
 30
0.0
 41
100.0
 42
100.0
 43
100.0
 50
90.0
  0
MTEXT
  5
185F0
330
18213
100
AcDbEntity
  8
寸法
 62
     7
 48
50.0
100
AcDbMText
 10
3817.949163996337
 20
1839.988104552485
 30
0.0
 40
120.0
 41
0.0
 71
     5
 72
     1
  1
\A1;200
  7
STYLE1
 11
0.0000000000000001
 21
1.0
 31
0.0
 73
     1
 44
1.0
1001
ACAD
1000
MTEXTBEGIN
1070
    73
1070
     1
1070
    44
1040
1.0
1070
    74
1070
     0
1000
MTEXTEND
  0
POINT
  5
185F1
330
18213
100
AcDbEntity
  8
DEFPOINTS
 62
     0
 48
50.0
100
AcDbPoint
 10
4067.460978266594
 20
1739.988104552484
 30
0.0
  0
POINT
  5
185F2
330
18213
100
AcDbEntity
  8
DEFPOINTS
 62
     0
 48
50.0
100
AcDbPoint
 10
4042.460978266594
 20
1939.988104552484
 30
0.0
  0
POINT
  5
185F3
330
18213
100
AcDbEntity
  8
DEFPOINTS
 62
     0
 48
50.0
100
AcDbPoint
 10
3917.960975019961
 20
1939.988104552484
 30
0.0
  0
ENDBLK
  5
1821E
330
18213
100
AcDbEntity
  8
0
 48
50.0
100
AcDbBlockEnd
  0
BLOCK
  5
18229
330
1821F
100
AcDbEntity
  8
0
 48
50.0
100
AcDbBlockBegin
  2
*D23
 70
     1
 10
0.0
 20
0.0
 30
0.0
  3
*D23
  1

  0
LINE
  5
185E2
330
1821F
100
AcDbEntity
  8
寸法
 62
     0
 48
50.0
370
    -2
100
AcDbLine
 10
4267.460978266593
 20
1719.988104552482
 30
0.0
 11
4267.460978266593
 21
1393.940775252106
 31
0.0
  0
LINE
  5
185E3
330
1821F
100
AcDbEntity
  8
寸法
 62
     0
 48
50.0
370
    -2
100
AcDbLine
 10
4067.460978266594
 20
1719.988104552484
 30
0.0
 11
4067.460978266594
 21
1393.940775252106
 31
0.0
  0
LINE
  5
185E4
330
1821F
100
AcDbEntity
  8
寸法
 62
     0
 48
50.0
370
    -2
100
AcDbLine
 10
4267.460978266593
 20
1453.940775252106
 30
0.0
 11
4067.460978266594
 21
1453.940775252106
 31
0.0
  0
INSERT
  5
185E5
330
1821F
100
AcDbEntity
  8
寸法
 62
     0
 48
50.0
370
    -2
100
AcDbBlockReference
  2
_DOTSMALL
 10
4267.460978266593
 20
1453.940775252106
 30
0.0
 41
100.0
 42
100.0
 43
100.0
  0
INSERT
  5
185E6
330
1821F
100
AcDbEntity
  8
寸法
 62
     0
 48
50.0
370
    -2
100
AcDbBlockReference
  2
_DOTSMALL
 10
4067.460978266594
 20
1453.940775252106
 30
0.0
 41
100.0
 42
100.0
 43
100.0
 50
180.0
  0
MTEXT
  5
185E7
330
1821F
100
AcDbEntity
  8
寸法
 62
     7
 48
50.0
100
AcDbMText
 10
4167.460978266594
 20
1553.952586275729
 30
0.0
 40
120.0
 41
0.0
 71
     5
 72
     1
  1
\A1;200
  7
STYLE1
 73
     1
 44
1.0
1001
ACAD
1000
MTEXTBEGIN
1070
    73
1070
     1
1070
    44
1040
1.0
1070
    74
1070
     0
1000
MTEXTEND
  0
POINT
  5
185E8
330
1821F
100
AcDbEntity
  8
DEFPOINTS
 62
     0
 48
50.0
100
AcDbPoint
 10
4267.460978266593
 20
1739.988104552482
 30
0.0
  0
POINT
  5
185E9
330
1821F
100
AcDbEntity
  8
DEFPOINTS
 62
     0
 48
50.0
100
AcDbPoint
 10
4067.460978266594
 20
1739.988104552484
 30
0.0
  0
POINT
  5
185EA
330
1821F
100
AcDbEntity
  8
DEFPOINTS
 62
     0
 48
50.0
100
AcDbPoint
 10
4067.460978266594
 20
1453.940775252106
 30
0.0
  0
ENDBLK
  5
1822A
330
1821F
100
AcDbEntity
  8
0
 48
50.0
100
AcDbBlockEnd
  0
BLOCK
  5
182BF
330
182B5
100
AcDbEntity
  8
0
 48
50.0
100
AcDbBlockBegin
  2
*D24
 70
     1
 10
0.0
 20
0.0
 30
0.0
  3
*D24
  1

  0
LINE
  5
185D9
330
182B5
100
AcDbEntity
  8
寸法
 62
     0
 48
50.0
370
    -2
100
AcDbLine
 10
4089.960978266594
 20
4134.988104552489
 30
0.0
 11
4089.960978266594
 21
4789.202238401208
 31
0.0
  0
LINE
  5
185DA
330
182B5
100
AcDbEntity
  8
寸法
 62
     0
 48
50.0
370
    -2
100
AcDbLine
 10
6819.960978266596
 20
4134.988104552487
 30
0.0
 11
6819.960978266596
 21
4789.202238401208
 31
0.0
  0
LINE
  5
185DB
330
182B5
100
AcDbEntity
  8
寸法
 62
     0
 48
50.0
370
    -2
100
AcDbLine
 10
4089.960978266594
 20
4729.202238401209
 30
0.0
 11
6819.960978266596
 21
4729.202238401209
 31
0.0
  0
INSERT
  5
185DC
330
182B5
100
AcDbEntity
  8
寸法
 62
     0
 48
50.0
370
    -2
100
AcDbBlockReference
  2
_DOTSMALL
 10
4089.960978266594
 20
4729.202238401209
 30
0.0
 41
100.0
 42
100.0
 43
100.0
 50
180.0
  0
INSERT
  5
185DD
330
182B5
100
AcDbEntity
  8
寸法
 62
     0
 48
50.0
370
    -2
100
AcDbBlockReference
  2
_DOTSMALL
 10
6819.960978266596
 20
4729.202238401209
 30
0.0
 41
100.0
 42
100.0
 43
100.0
  0
MTEXT
  5
185DE
330
182B5
100
AcDbEntity
  8
寸法
 62
     7
 48
50.0
100
AcDbMText
 10
5454.960978266594
 20
4829.21404942483
 30
0.0
 40
120.0
 41
0.0
 71
     5
 72
     1
  1
\A1;2730
  7
STYLE1
 73
     1
 44
1.0
1001
ACAD
1000
MTEXTBEGIN
1070
    73
1070
     1
1070
    44
1040
1.0
1070
    74
1070
     0
1000
MTEXTEND
  0
POINT
  5
185DF
330
182B5
100
AcDbEntity
  8
DEFPOINTS
 62
     0
 48
50.0
100
AcDbPoint
 10
4089.960978266594
 20
4114.988104552489
 30
0.0
  0
POINT
  5
185E0
330
182B5
100
AcDbEntity
  8
DEFPOINTS
 62
     0
 48
50.0
100
AcDbPoint
 10
6819.960978266596
 20
4114.988104552486
 30
0.0
  0
POINT
  5
185E1
330
182B5
100
AcDbEntity
  8
DEFPOINTS
 62
     0
 48
50.0
100
AcDbPoint
 10
6819.960978266596
 20
4729.202238401209
 30
0.0
  0
ENDBLK
  5
182C0
330
182B5
100
AcDbEntity
  8
0
 48
50.0
100
AcDbBlockEnd
  0
BLOCK
  5
182CD
330
182C1
100
AcDbEntity
  8
0
 48
50.0
100
AcDbBlockBegin
  2
*D25
 70
     1
 10
0.0
 20
0.0
 30
0.0
  3
*D25
  1

  0
LINE
  5
185CE
330
182C1
100
AcDbEntity
  8
寸法
 62
     0
 48
50.0
370
    -2
100
AcDbLine
 10
4139.960978266594
 20
4134.98810455249
 30
0.0
 11
4139.960978266594
 21
4579.608363979757
 31
0.0
  0
LINE
  5
185CF
330
182C1
100
AcDbEntity
  8
寸法
 62
     0
 48
50.0
370
    -2
100
AcDbLine
 10
4089.960978266594
 20
4134.988104552489
 30
0.0
 11
4089.960978266594
 21
4579.608363979757
 31
0.0
  0
LINE
  5
185D0
330
182C1
100
AcDbEntity
  8
寸法
 62
     0
 48
50.0
370
    -2
100
AcDbLine
 10
4139.960978266594
 20
4519.608363979758
 30
0.0
 11
4239.960978266593
 21
4519.608363979758
 31
0.0
  0
LINE
  5
185D1
330
182C1
100
AcDbEntity
  8
寸法
 62
     0
 48
50.0
370
    -2
100
AcDbLine
 10
4089.960978266594
 20
4519.608363979758
 30
0.0
 11
3670.428452797859
 21
4519.608363979758
 31
0.0
  0
LINE
  5
185D2
330
182C1
100
AcDbEntity
  8
寸法
 62
     0
 48
50.0
370
    -2
100
AcDbLine
 10
4139.960978266594
 20
4519.608363979758
 30
0.0
 11
4089.960978266594
 21
4519.608363979758
 31
0.0
  0
INSERT
  5
185D3
330
182C1
100
AcDbEntity
  8
寸法
 62
     0
 48
50.0
370
    -2
100
AcDbBlockReference
  2
_DOTSMALL
 10
4139.960978266594
 20
4519.608363979758
 30
0.0
 41
100.0
 42
100.0
 43
100.0
 50
180.0
  0
INSERT
  5
185D4
330
182C1
100
AcDbEntity
  8
寸法
 62
     0
 48
50.0
370
    -2
100
AcDbBlockReference
  2
_DOTSMALL
 10
4089.960978266594
 20
4519.608363979758
 30
0.0
 41
100.0
 42
100.0
 43
100.0
  0
MTEXT
  5
185D5
330
182C1
100
AcDbEntity
  8
寸法
 62
     7
 48
50.0
100
AcDbMText
 10
3776.475696892346
 20
4619.608363979757
 30
0.0
 40
120.0
 41
0.0
 71
     5
 72
     1
  1
\A1;50
  7
STYLE1
 73
     1
 44
1.0
1001
ACAD
1000
MTEXTBEGIN
1070
    73
1070
     1
1070
    44
1040
1.0
1070
    74
1070
     0
1000
MTEXTEND
  0
POINT
  5
185D6
330
182C1
100
AcDbEntity
  8
DEFPOINTS
 62
     0
 48
50.0
100
AcDbPoint
 10
4139.960978266594
 20
4114.98810455249
 30
0.0
  0
POINT
  5
185D7
330
182C1
100
AcDbEntity
  8
DEFPOINTS
 62
     0
 48
50.0
100
AcDbPoint
 10
4089.960978266594
 20
4114.988104552489
 30
0.0
  0
POINT
  5
185D8
330
182C1
100
AcDbEntity
  8
DEFPOINTS
 62
     0
 48
50.0
100
AcDbPoint
 10
4089.960978266594
 20
4519.608363979758
 30
0.0
  0
ENDBLK
  5
182CE
330
182C1
100
AcDbEntity
  8
0
 48
50.0
100
AcDbBlockEnd
  0
BLOCK
  5
182D9
330
182CF
100
AcDbEntity
  8
0
 48
50.0
100
AcDbBlockBegin
  2
*D26
 70
     1
 10
0.0
 20
0.0
 30
0.0
  3
*D26
  1

  0
LINE
  5
185C5
330
182CF
100
AcDbEntity
  8
寸法
 62
     0
 48
50.0
370
    -2
100
AcDbLine
 10
6769.960978266595
 20
4134.988104552489
 30
0.0
 11
6769.960978266595
 21
4579.608363979757
 31
0.0
  0
LINE
  5
185C6
330
182CF
100
AcDbEntity
  8
寸法
 62
     0
 48
50.0
370
    -2
100
AcDbLine
 10
4139.960978266594
 20
4134.98810455249
 30
0.0
 11
4139.960978266594
 21
4579.608363979757
 31
0.0
  0
LINE
  5
185C7
330
182CF
100
AcDbEntity
  8
寸法
 62
     0
 48
50.0
370
    -2
100
AcDbLine
 10
6769.960978266595
 20
4519.608363979758
 30
0.0
 11
4139.960978266594
 21
4519.608363979758
 31
0.0
  0
INSERT
  5
185C8
330
182CF
100
AcDbEntity
  8
寸法
 62
     0
 48
50.0
370
    -2
100
AcDbBlockReference
  2
_DOTSMALL
 10
6769.960978266595
 20
4519.608363979758
 30
0.0
 41
100.0
 42
100.0
 43
100.0
  0
INSERT
  5
185C9
330
182CF
100
AcDbEntity
  8
寸法
 62
     0
 48
50.0
370
    -2
100
AcDbBlockReference
  2
_DOTSMALL
 10
4139.960978266594
 20
4519.608363979758
 30
0.0
 41
100.0
 42
100.0
 43
100.0
 50
180.0
  0
MTEXT
  5
185CA
330
182CF
100
AcDbEntity
  8
寸法
 62
     7
 48
50.0
100
AcDbMText
 10
5454.960978266594
 20
4619.62017500338
 30
0.0
 40
120.0
 41
0.0
 71
     5
 72
     1
  1
\A1;柱外寸法2630
  7
STYLE1
 73
     1
 44
1.0
1001
ACAD
1000
MTEXTBEGIN
1070
    73
1070
     1
1070
    44
1040
1.0
1070
    74
1070
     0
1000
MTEXTEND
  0
POINT
  5
185CB
330
182CF
100
AcDbEntity
  8
DEFPOINTS
 62
     0
 48
50.0
100
AcDbPoint
 10
6769.960978266595
 20
4114.988104552489
 30
0.0
  0
POINT
  5
185CC
330
182CF
100
AcDbEntity
  8
DEFPOINTS
 62
     0
 48
50.0
100
AcDbPoint
 10
4139.960978266594
 20
4114.98810455249
 30
0.0
  0
POINT
  5
185CD
330
182CF
100
AcDbEntity
  8
DEFPOINTS
 62
     0
 48
50.0
100
AcDbPoint
 10
4139.960978266594
 20
4519.608363979758
 30
0.0
  0
ENDBLK
  5
182DA
330
182CF
100
AcDbEntity
  8
0
 48
50.0
100
AcDbBlockEnd
  0
BLOCK
  5
182E7
330
182DB
100
AcDbEntity
  8
0
 48
50.0
100
AcDbBlockBegin
  2
*D27
 70
     1
 10
0.0
 20
0.0
 30
0.0
  3
*D27
  1

  0
LINE
  5
185BA
330
182DB
100
AcDbEntity
  8
寸法
 62
     0
 48
50.0
370
    -2
100
AcDbLine
 10
6819.960978266596
 20
4134.988104552487
 30
0.0
 11
6819.960978266596
 21
4579.608363979757
 31
0.0
  0
LINE
  5
185BB
330
182DB
100
AcDbEntity
  8
寸法
 62
     0
 48
50.0
370
    -2
100
AcDbLine
 10
6769.960978266595
 20
4134.988104552489
 30
0.0
 11
6769.960978266595
 21
4579.608363979757
 31
0.0
  0
LINE
  5
185BC
330
182DB
100
AcDbEntity
  8
寸法
 62
     0
 48
50.0
370
    -2
100
AcDbLine
 10
6769.960978266595
 20
4519.608363979758
 30
0.0
 11
6669.960978266596
 21
4519.608363979758
 31
0.0
  0
LINE
  5
185BD
330
182DB
100
AcDbEntity
  8
寸法
 62
     0
 48
50.0
370
    -2
100
AcDbLine
 10
6819.960978266596
 20
4519.608363979758
 30
0.0
 11
7239.493503735324
 21
4519.608363979758
 31
0.0
  0
LINE
  5
185BE
330
182DB
100
AcDbEntity
  8
寸法
 62
     0
 48
50.0
370
    -2
100
AcDbLine
 10
6769.960978266595
 20
4519.608363979758
 30
0.0
 11
6819.960978266596
 21
4519.608363979758
 31
0.0
  0
INSERT
  5
185BF
330
182DB
100
AcDbEntity
  8
寸法
 62
     0
 48
50.0
370
    -2
100
AcDbBlockReference
  2
_DOTSMALL
 10
6769.960978266595
 20
4519.608363979758
 30
0.0
 41
100.0
 42
100.0
 43
100.0
  0
INSERT
  5
185C0
330
182DB
100
AcDbEntity
  8
寸法
 62
     0
 48
50.0
370
    -2
100
AcDbBlockReference
  2
_DOTSMALL
 10
6819.960978266596
 20
4519.608363979758
 30
0.0
 41
100.0
 42
100.0
 43
100.0
 50
180.0
  0
MTEXT
  5
185C1
330
182DB
100
AcDbEntity
  8
寸法
 62
     7
 48
50.0
100
AcDbMText
 10
7133.446259640836
 20
4619.608363979757
 30
0.0
 40
120.0
 41
0.0
 71
     5
 72
     1
  1
\A1;50
  7
STYLE1
 73
     1
 44
1.0
1001
ACAD
1000
MTEXTBEGIN
1070
    73
1070
     1
1070
    44
1040
1.0
1070
    74
1070
     0
1000
MTEXTEND
  0
POINT
  5
185C2
330
182DB
100
AcDbEntity
  8
DEFPOINTS
 62
     0
 48
50.0
100
AcDbPoint
 10
6819.960978266596
 20
4114.988104552486
 30
0.0
  0
POINT
  5
185C3
330
182DB
100
AcDbEntity
  8
DEFPOINTS
 62
     0
 48
50.0
100
AcDbPoint
 10
6769.960978266595
 20
4114.988104552489
 30
0.0
  0
POINT
  5
185C4
330
182DB
100
AcDbEntity
  8
DEFPOINTS
 62
     0
 48
50.0
100
AcDbPoint
 10
6769.960978266595
 20
4519.608363979758
 30
0.0
  0
ENDBLK
  5
182E8
330
182DB
100
AcDbEntity
  8
0
 48
50.0
100
AcDbBlockEnd
  0
BLOCK
  5
18576
330
1856C
100
AcDbEntity
  8
0
 48
50.0
100
AcDbBlockBegin
  2
*D28
 70
     1
 10
0.0
 20
0.0
 30
0.0
  3
*D28
  1

  0
LINE
  5
18CCB
330
1856C
100
AcDbEntity
  8
寸法
 62
     0
 48
50.0
370
    -2
100
AcDbLine
 10
10606.69902375517
 20
9569.011421506429
 30
0.0
 11
10519.34311607822
 21
9895.028107298101
 31
0.0
  0
LINE
  5
18CCC
330
1856C
100
AcDbEntity
  8
寸法
 62
     0
 48
50.0
370
    -2
100
AcDbLine
 10
10156.69902375517
 20
9569.011421506429
 30
0.0
 11
10069.34311607822
 21
9895.028107298101
 31
0.0
  0
LINE
  5
18CCD
330
1856C
100
AcDbEntity
  8
寸法
 62
     0
 48
50.0
370
    -2
100
AcDbLine
 10
10535.42006762409
 20
9835.0281072981
 30
0.0
 11
10085.42006762409
 21
9835.0281072981
 31
0.0
  0
INSERT
  5
18CCE
330
1856C
100
AcDbEntity
  8
寸法
 62
     0
 48
50.0
370
    -2
100
AcDbBlockReference
  2
_DOTSMALL
 10
10535.42006762409
 20
9835.0281072981
 30
0.0
 41
100.0
 42
100.0
 43
100.0
  0
INSERT
  5
18CCF
330
1856C
100
AcDbEntity
  8
寸法
 62
     0
 48
50.0
370
    -2
100
AcDbBlockReference
  2
_DOTSMALL
 10
10085.42006762409
 20
9835.0281072981
 30
0.0
 41
100.0
 42
100.0
 43
100.0
 50
180.0
  0
MTEXT
  5
18CD0
330
1856C
100
AcDbEntity
  8
寸法
 62
     7
 48
50.0
100
AcDbMText
 10
10310.42006762409
 20
9935.028107298101
 30
0.0
 40
120.0
 41
0.0
 71
     5
 72
     1
  1
\A1;450
  7
STYLE1
 73
     1
 44
1.0
1001
ACAD
1000
MTEXTBEGIN
1070
    73
1070
     1
1070
    44
1040
1.0
1070
    74
1070
     0
1000
MTEXTEND
  0
POINT
  5
18CD1
330
1856C
100
AcDbEntity
  8
DEFPOINTS
 62
     0
 48
50.0
100
AcDbPoint
 10
10612.05800760379
 20
9549.011421506429
 30
0.0
  0
POINT
  5
18CD2
330
1856C
100
AcDbEntity
  8
DEFPOINTS
 62
     0
 48
50.0
100
AcDbPoint
 10
10162.0580076038
 20
9549.011421506429
 30
0.0
  0
POINT
  5
18CD3
330
1856C
100
AcDbEntity
  8
DEFPOINTS
 62
     0
 48
50.0
100
AcDbPoint
 10
10085.42006762409
 20
9835.0281072981
 30
0.0
  0
ENDBLK
  5
18577
330
1856C
100
AcDbEntity
  8
0
 48
50.0
100
AcDbBlockEnd
  0
BLOCK
  5
18871
330
18867
100
AcDbEntity
  8
0
 48
50.0
100
AcDbBlockBegin
  2
*D29
 70
     1
 10
0.0
 20
0.0
 30
0.0
  3
*D29
  1

  0
LINE
  5
18CC2
330
18867
100
AcDbEntity
  8
寸法
 62
     0
 48
50.0
370
    -2
100
AcDbLine
 10
8919.058007603831
 20
6850.511421506215
 30
0.0
 11
8919.058007603831
 21
6205.436403457991
 31
0.0
  0
LINE
  5
18CC3
330
18867
100
AcDbEntity
  8
寸法
 62
     0
 48
50.0
370
    -2
100
AcDbLine
 10
9869.058007603833
 20
6850.511421506215
 30
0.0
 11
9869.058007603833
 21
6205.436403457991
 31
0.0
  0
LINE
  5
18CC4
330
18867
100
AcDbEntity
  8
寸法
 62
     0
 48
50.0
370
    -2
100
AcDbLine
 10
8939.058007603831
 20
6245.43640345799
 30
0.0
 11
9849.058007603831
 21
6245.43640345799
 31
0.0
  0
INSERT
  5
18CC5
330
18867
100
AcDbEntity
  8
寸法
 62
     0
 48
50.0
370
    -2
100
AcDbBlockReference
  2
_DOT
 10
8919.058007603831
 20
6245.43640345799
 30
0.0
 41
20.0
 42
20.0
 43
20.0
 50
180.0
  0
INSERT
  5
18CC6
330
18867
100
AcDbEntity
  8
寸法
 62
     0
 48
50.0
370
    -2
100
AcDbBlockReference
  2
_DOT
 10
9869.058007603833
 20
6245.43640345799
 30
0.0
 41
20.0
 42
20.0
 43
20.0
  0
MTEXT
  5
18CC7
330
18867
100
AcDbEntity
  8
寸法
 62
     7
 48
50.0
100
AcDbMText
 10
9394.058007603831
 20
6437.43640345799
 30
0.0
 40
120.0
 41
0.0
 71
     5
 72
     1
  1
\A1;有効開口部間口\P950
  7
STYLE1
 73
     1
 44
1.0
1001
ACAD
1000
MTEXTBEGIN
1070
    73
1070
     1
1070
    44
1040
1.0
1070
    74
1070
     0
1000
MTEXTEND
  0
POINT
  5
18CC8
330
18867
100
AcDbEntity
  8
DEFPOINTS
 62
     0
 48
50.0
100
AcDbPoint
 10
8919.058007603831
 20
6870.511421506215
 30
0.0
  0
POINT
  5
18CC9
330
18867
100
AcDbEntity
  8
DEFPOINTS
 62
     0
 48
50.0
100
AcDbPoint
 10
9869.058007603833
 20
6870.511421506215
 30
0.0
  0
POINT
  5
18CCA
330
18867
100
AcDbEntity
  8
DEFPOINTS
 62
     0
 48
50.0
100
AcDbPoint
 10
9869.058007603833
 20
6245.43640345799
 30
0.0
  0
ENDBLK
  5
18872
330
18867
100
AcDbEntity
  8
0
 48
50.0
100
AcDbBlockEnd
  0
BLOCK
  5
18B58
330
18B4E
100
AcDbEntity
  8
0
 48
50.0
100
AcDbBlockBegin
  2
*D30
 70
     1
 10
0.0
 20
0.0
 30
0.0
  3
*D30
  1

  0
LINE
  5
18CB9
330
18B4E
100
AcDbEntity
  8
寸法
 62
     0
 48
50.0
370
    -2
100
AcDbLine
 10
8852.058007603861
 20
6927.511421506244
 30
0.0
 11
8852.058007603861
 21
5695.683630761341
 31
0.0
  0
LINE
  5
18CBA
330
18B4E
100
AcDbEntity
  8
寸法
 62
     0
 48
50.0
370
    -2
100
AcDbLine
 10
10642.05800760384
 20
6927.511421506373
 30
0.0
 11
10642.05800760384
 21
5695.683630761341
 31
0.0
  0
LINE
  5
18CBB
330
18B4E
100
AcDbEntity
  8
寸法
 62
     0
 48
50.0
370
    -2
100
AcDbLine
 10
8852.058007603861
 20
5755.683630761342
 30
0.0
 11
10642.05800760384
 21
5755.683630761342
 31
0.0
  0
INSERT
  5
18CBC
330
18B4E
100
AcDbEntity
  8
寸法
 62
     0
 48
50.0
370
    -2
100
AcDbBlockReference
  2
_DOTSMALL
 10
8852.058007603861
 20
5755.683630761342
 30
0.0
 41
100.0
 42
100.0
 43
100.0
 50
180.0
  0
INSERT
  5
18CBD
330
18B4E
100
AcDbEntity
  8
寸法
 62
     0
 48
50.0
370
    -2
100
AcDbBlockReference
  2
_DOTSMALL
 10
10642.05800760384
 20
5755.683630761342
 30
0.0
 41
100.0
 42
100.0
 43
100.0
  0
MTEXT
  5
18CBE
330
18B4E
100
AcDbEntity
  8
寸法
 62
     7
 48
50.0
100
AcDbMText
 10
9735.204757935214
 20
5855.683630761341
 30
0.0
 40
120.0
 41
0.0
 71
     5
 72
     1
  1
\A1;1790
  7
STYLE1
 73
     1
 44
1.0
1001
ACAD
1000
MTEXTBEGIN
1070
    73
1070
     1
1070
    44
1040
1.0
1070
    74
1070
     0
1000
MTEXTEND
  0
POINT
  5
18CBF
330
18B4E
100
AcDbEntity
  8
DEFPOINTS
 62
     0
 48
50.0
100
AcDbPoint
 10
8852.058007603861
 20
6947.511421506245
 30
0.0
  0
POINT
  5
18CC0
330
18B4E
100
AcDbEntity
  8
DEFPOINTS
 62
     0
 48
50.0
100
AcDbPoint
 10
10642.05800760384
 20
6947.511421506373
 30
0.0
  0
POINT
  5
18CC1
330
18B4E
100
AcDbEntity
  8
DEFPOINTS
 62
     0
 48
50.0
100
AcDbPoint
 10
10642.05800760384
 20
5755.683630761342
 30
0.0
  0
ENDBLK
  5
18B59
330
18B4E
100
AcDbEntity
  8
0
 48
50.0
100
AcDbBlockEnd
  0
BLOCK
  5
18B66
330
18B5A
100
AcDbEntity
  8
0
 48
50.0
100
AcDbBlockBegin
  2
*D31
 70
     1
 10
0.0
 20
0.0
 30
0.0
  3
*D31
  1

  0
LINE
  5
18CAE
330
18B5A
100
AcDbEntity
  8
寸法
 62
     0
 48
50.0
370
    -2
100
AcDbLine
 10
8832.05800760386
 20
6947.511421506245
 30
0.0
 11
8517.446761977145
 21
6947.511421506245
 31
0.0
  0
LINE
  5
18CAF
330
18B5A
100
AcDbEntity
  8
寸法
 62
     0
 48
50.0
370
    -2
100
AcDbLine
 10
8860.058007603837
 20
6872.511421506245
 30
0.0
 11
8517.446761977145
 21
6872.511421506245
 31
0.0
  0
LINE
  5
18CB0
330
18B5A
100
AcDbEntity
  8
寸法
 62
     0
 48
50.0
370
    -2
100
AcDbLine
 10
8557.446761977145
 20
6967.511421506244
 30
0.0
 11
8557.446761977145
 21
6987.511421506244
 31
0.0
  0
LINE
  5
18CB1
330
18B5A
100
AcDbEntity
  8
寸法
 62
     0
 48
50.0
370
    -2
100
AcDbLine
 10
8557.446761977145
 20
6852.511421506244
 30
0.0
 11
8557.446761977145
 21
6631.540858757766
 31
0.0
  0
LINE
  5
18CB2
330
18B5A
100
AcDbEntity
  8
寸法
 62
     0
 48
50.0
370
    -2
100
AcDbLine
 10
8557.446761977145
 20
6947.511421506245
 30
0.0
 11
8557.446761977145
 21
6872.511421506245
 31
0.0
  0
INSERT
  5
18CB3
330
18B5A
100
AcDbEntity
  8
寸法
 62
     0
 48
50.0
370
    -2
100
AcDbBlockReference
  2
_DOT
 10
8557.446761977145
 20
6947.511421506245
 30
0.0
 41
20.0
 42
20.0
 43
20.0
 50
270.0
  0
INSERT
  5
18CB4
330
18B5A
100
AcDbEntity
  8
寸法
 62
     0
 48
50.0
370
    -2
100
AcDbBlockReference
  2
_DOT
 10
8557.446761977145
 20
6872.511421506245
 30
0.0
 41
20.0
 42
20.0
 43
20.0
 50
90.0
  0
MTEXT
  5
18CB5
330
18B5A
100
AcDbEntity
  8
寸法
 62
     7
 48
50.0
100
AcDbMText
 10
8465.446761977142
 20
6732.026140132005
 30
0.0
 40
120.0
 41
0.0
 71
     5
 72
     1
  1
\A1;75
  7
STYLE1
 11
0.0000000000000001
 21
1.0
 31
0.0
 73
     1
 44
1.0
1001
ACAD
1000
MTEXTBEGIN
1070
    73
1070
     1
1070
    44
1040
1.0
1070
    74
1070
     0
1000
MTEXTEND
  0
POINT
  5
18CB6
330
18B5A
100
AcDbEntity
  8
DEFPOINTS
 62
     0
 48
50.0
100
AcDbPoint
 10
8852.058007603861
 20
6947.511421506245
 30
0.0
  0
POINT
  5
18CB7
330
18B5A
100
AcDbEntity
  8
DEFPOINTS
 62
     0
 48
50.0
100
AcDbPoint
 10
8880.058007603839
 20
6872.511421506245
 30
0.0
  0
POINT
  5
18CB8
330
18B5A
100
AcDbEntity
  8
DEFPOINTS
 62
     0
 48
50.0
100
AcDbPoint
 10
8557.446761977145
 20
6872.511421506245
 30
0.0
  0
ENDBLK
  5
18B67
330
18B5A
100
AcDbEntity
  8
0
 48
50.0
100
AcDbBlockEnd
  0
BLOCK
  5
18B72
330
18B68
100
AcDbEntity
  8
0
 48
50.0
100
AcDbBlockBegin
  2
*D32
 70
     1
 10
0.0
 20
0.0
 30
0.0
  3
*D32
  1

  0
LINE
  5
18CA5
330
18B68
100
AcDbEntity
  8
寸法
 62
     0
 48
50.0
370
    -2
100
AcDbLine
 10
8880.058007603832
 20
6850.511421506249
 30
0.0
 11
8880.058007603832
 21
5935.441151655468
 31
0.0
  0
LINE
  5
18CA6
330
18B68
100
AcDbEntity
  8
寸法
 62
     0
 48
50.0
370
    -2
100
AcDbLine
 10
10614.05800760383
 20
6850.511421506247
 30
0.0
 11
10614.05800760383
 21
5935.441151655468
 31
0.0
  0
LINE
  5
18CA7
330
18B68
100
AcDbEntity
  8
寸法
 62
     0
 48
50.0
370
    -2
100
AcDbLine
 10
8880.058007603832
 20
5995.441151655469
 30
0.0
 11
10614.05800760383
 21
5995.441151655469
 31
0.0
  0
INSERT
  5
18CA8
330
18B68
100
AcDbEntity
  8
寸法
 62
     0
 48
50.0
370
    -2
100
AcDbBlockReference
  2
_DOTSMALL
 10
8880.058007603832
 20
5995.441151655469
 30
0.0
 41
100.0
 42
100.0
 43
100.0
 50
180.0
  0
INSERT
  5
18CA9
330
18B68
100
AcDbEntity
  8
寸法
 62
     0
 48
50.0
370
    -2
100
AcDbBlockReference
  2
_DOTSMALL
 10
10614.05800760383
 20
5995.441151655469
 30
0.0
 41
100.0
 42
100.0
 43
100.0
  0
MTEXT
  5
18CAA
330
18B68
100
AcDbEntity
  8
寸法
 62
     7
 48
50.0
100
AcDbMText
 10
9737.639751555654
 20
6095.441151655468
 30
0.0
 40
120.0
 41
0.0
 71
     5
 72
     1
  1
\A1;1734
  7
STYLE1
 73
     1
 44
1.0
1001
ACAD
1000
MTEXTBEGIN
1070
    73
1070
     1
1070
    44
1040
1.0
1070
    74
1070
     0
1000
MTEXTEND
  0
POINT
  5
18CAB
330
18B68
100
AcDbEntity
  8
DEFPOINTS
 62
     0
 48
50.0
100
AcDbPoint
 10
8880.058007603832
 20
6870.511421506249
 30
0.0
  0
POINT
  5
18CAC
330
18B68
100
AcDbEntity
  8
DEFPOINTS
 62
     0
 48
50.0
100
AcDbPoint
 10
10614.05800760383
 20
6870.511421506248
 30
0.0
  0
POINT
  5
18CAD
330
18B68
100
AcDbEntity
  8
DEFPOINTS
 62
     0
 48
50.0
100
AcDbPoint
 10
10614.05800760383
 20
5995.441151655469
 30
0.0
  0
ENDBLK
  5
18B73
330
18B68
100
AcDbEntity
  8
0
 48
50.0
100
AcDbBlockEnd
  0
ENDSEC
  0
SECTION
  2
ENTITIES
  0
LINE
  5
10B57
330
747D
100
AcDbEntity
  8
補助
  6
PHANTOM
 62
   230
 48
50.0
100
AcDbLine
 10
139.9999999999995
 20
11409.6
 30
0.0
 11
16307.2
 21
11409.6
 31
0.0
  0
LINE
  5
10B59
330
747D
100
AcDbEntity
  8
仕様書枠
  6
Continuous
 48
50.0
100
AcDbLine
 10
13107.2
 20
1200.0
 30
0.0
 11
13107.2
 21
-0.0000000000000729
 31
0.0
  0
LINE
  5
10B5C
330
747D
100
AcDbEntity
  8
仕様書枠
 48
50.0
100
AcDbLine
 10
16307.2
 20
1200.0
 30
0.0
 11
16307.2
 21
-0.0000000000000909
 31
0.0
  0
LINE
  5
10B5D
330
747D
100
AcDbEntity
  8
仕様書枠
 48
50.0
100
AcDbLine
 10
140.0
 20
0.0
 30
0.0
 11
16307.2
 21
-0.0000000000000909
 31
0.0
  0
LINE
  5
10B5E
330
747D
100
AcDbEntity
  8
補助
  6
PHANTOM
 62
   230
 48
50.0
100
AcDbLine
 10
16307.2
 20
11409.6
 30
0.0
 11
16307.2
 21
1200.0
 31
0.0
  0
LINE
  5
10B6C
330
747D
100
AcDbEntity
  8
仕様書枠
 48
50.0
100
AcDbLine
 10
13107.2
 20
1200.0
 30
0.0
 11
16307.2
 21
1200.0
 31
0.0
  0
LINE
  5
10B6D
330
747D
100
AcDbEntity
  8
補助
  6
PHANTOM
 62
   230
 48
50.0
100
AcDbLine
 10
13107.2
 20
11409.6
 30
0.0
 11
13107.2
 21
4800.0
 31
0.0
  0
LINE
  5
10B6F
330
747D
100
AcDbEntity
  8
補助
  6
PHANTOM
 62
   230
 48
50.0
100
AcDbLine
 10
13107.2
 20
4800.0
 30
0.0
 11
16307.2
 21
4800.0
 31
0.0
  0
LINE
  5
10B72
330
747D
100
AcDbEntity
  8
文字
 62
     7
 48
50.0
100
AcDbLine
 10
13187.2
 20
400.0
 30
0.0
 11
16227.2
 21
400.0
 31
0.0
  0
TEXT
  5
10B73
330
747D
100
AcDbEntity
  8
文字
 62
     7
 48
50.0
100
AcDbText
 10
13162.9790565769
 20
895.0906074299405
 30
0.0
 40
200.0
  1
外 形 図
  7
STYLE2
100
AcDbText
  0
TEXT
  5
10B74
330
747D
100
AcDbEntity
  8
文字
 62
     7
 48
50.0
100
AcDbText
 10
13201.43669998441
 20
477.2740661031255
 30
0.0
 40
160.0
  1
機種名
  7
STYLE2
100
AcDbText
  0
TEXT
  5
10B76
330
747D
100
AcDbEntity
  8
文字
 62
     7
 48
50.0
100
AcDbText
 10
13209.4053442172
 20
76.09434707649343
 30
0.0
 40
100.0
  1
○床面積 ： 4.84㎡(1.47坪) 　
  7
STYLE2
100
AcDbText
  0
TEXT
  5
10B79
330
747D
100
AcDbEntity
  8
文字
 62
     7
 48
50.0
100
AcDbText
 10
14524.131837222
 20
1031.557706291228
 30
0.0
 40
100.0
  1
NO.10     <縮尺> S=1/40
  7
STYLE2
100
AcDbText
  0
LINE
  5
10B7B
330
747D
100
AcDbEntity
  8
仕様書枠
 48
50.0
100
AcDbLine
 10
13107.2
 20
800.0
 30
0.0
 11
14251.2
 21
800.0
 31
0.0
  0
LINE
  5
10B88
330
747D
100
AcDbEntity
  8
仕様書枠
  6
Continuous
 48
50.0
100
AcDbLine
 10
14251.2
 20
1200.0
 30
0.0
 11
14251.2
 21
800.0
 31
0.0
  0
TEXT
  5
15729
330
747D
100
AcDbEntity
  8
文字
 62
     7
 48
50.0
100
AcDbText
 10
14623.97014062392
 20
869.7247441969318
 30
0.0
 40
100.0
  1
～一般型・多雪地型～
  7
STYLE2
100
AcDbText
  0
MTEXT
  5
179C2
330
747D
100
AcDbEntity
  8
寸法
 62
     7
 48
50.0
100
AcDbMText
 10
10229.01835903554
 20
8916.769910597141
 30
0.0
 40
96.0
 41
0.0
 71
     5
 72
     1
  1
棚 2段
  7
STYLE1
 11
0.0000000000000003
 21
1.0
 31
0.0
 73
     1
 44
1.0
1001
ACAD
1000
MTEXTBEGIN
1070
    73
1070
     1
1070
    44
1040
1.0
1070
    74
1070
     0
1000
MTEXTEND
  0
LINE
  5
179C4
330
747D
100
AcDbEntity
  8
部品1
100
AcDbLine
 10
10614.05800760385
 20
8250.011421506348
 30
0.0
 11
10614.05800760384
 21
6975.51142150637
 31
0.0
  0
LINE
  5
179C5
330
747D
100
AcDbEntity
  8
部品1
 48
50.0
100
AcDbLine
 10
8908.558007603836
 20
9521.011421506473
 30
0.0
 11
8880.058007603869
 21
9549.511421506288
 31
0.0
  0
LINE
  5
179C6
330
747D
100
AcDbEntity
  8
部品1
 48
50.0
100
AcDbLine
 10
10162.05800760386
 20
9521.011421506408
 30
0.0
 11
8908.558007603851
 21
9521.011421506473
 31
0.0
  0
LINE
  5
179C7
330
747D
100
AcDbEntity
  8
破線
 48
10.0
100
AcDbLine
 10
8932.058007603831
 20
9497.511421506493
 30
0.0
 11
10162.05800760386
 21
9497.51142150648
 31
0.0
  0
LINE
  5
179C9
330
747D
100
AcDbEntity
  8
部品1
 48
50.0
100
AcDbLine
 10
10612.05800760391
 20
9549.011421506419
 30
0.0
 11
10162.05800760392
 21
9549.011421506419
 31
0.0
  0
LINE
  5
179CA
330
747D
100
AcDbEntity
  8
部品1
100
AcDbLine
 10
10162.05800760386
 20
9549.011421506419
 30
0.0
 11
10162.05800760392
 21
8276.01142150635
 31
0.0
  0
LINE
  5
179CB
330
747D
100
AcDbEntity
  8
細線
 48
50.0
100
AcDbLine
 10
10162.05800760392
 20
8276.01142150635
 30
0.0
 11
10612.05800760386
 21
9549.011421506419
 31
0.0
  0
LINE
  5
179CC
330
747D
100
AcDbEntity
  8
部品1
100
AcDbLine
 10
10632.05800760391
 20
8227.511421506349
 30
0.0
 11
10614.05800760391
 21
8227.511421506349
 31
0.0
  0
LINE
  5
179CD
330
747D
100
AcDbEntity
  8
部品1
100
AcDbLine
 10
10632.05800760391
 20
8233.511421506349
 30
0.0
 11
10632.05800760391
 21
8227.511421506349
 31
0.0
  0
LINE
  5
179CE
330
747D
100
AcDbEntity
  8
部品1
100
AcDbLine
 10
10612.05800760386
 20
9549.011421506419
 30
0.0
 11
10612.05800760392
 21
8276.01142150635
 31
0.0
  0
LINE
  5
179CF
330
747D
100
AcDbEntity
  8
細線
 48
50.0
100
AcDbLine
 10
10612.05800760391
 20
8276.01142150635
 30
0.0
 11
10162.05800760386
 21
9549.011421506419
 31
0.0
  0
LINE
  5
179D0
330
747D
100
AcDbEntity
  8
部品1
100
AcDbLine
 10
10632.05800760391
 20
8297.511421506349
 30
0.0
 11
10614.05800760391
 21
8297.511421506349
 31
0.0
  0
LINE
  5
179D1
330
747D
100
AcDbEntity
  8
部品1
100
AcDbLine
 10
10632.05800760391
 20
8297.511421506349
 30
0.0
 11
10632.05800760391
 21
8291.511421506349
 31
0.0
  0
LINE
  5
179D2
330
747D
100
AcDbEntity
  8
部品1
100
AcDbLine
 10
10606.05800760391
 20
8275.011421506349
 30
0.0
 11
10606.05800760392
 21
8250.011421506348
 31
0.0
  0
LINE
  5
179D3
330
747D
100
AcDbEntity
  8
部品1
100
AcDbLine
 10
10612.05800760391
 20
8249.011421506351
 30
0.0
 11
10612.05800760391
 21
6976.011421506349
 31
0.0
  0
LINE
  5
179D4
330
747D
100
AcDbEntity
  8
部品1
100
AcDbLine
 10
10612.05800760391
 20
6976.011421506349
 30
0.0
 11
10162.05800760391
 21
6976.011421506349
 31
0.0
  0
LINE
  5
179D5
330
747D
100
AcDbEntity
  8
部品1
100
AcDbLine
 10
10162.05800760392
 20
8249.011421506351
 30
0.0
 11
10162.05800760391
 21
6976.011421506349
 31
0.0
  0
LINE
  5
179D6
330
747D
100
AcDbEntity
  8
細線
 48
50.0
100
AcDbLine
 10
10612.05800760391
 20
6976.011421506349
 30
0.0
 11
10162.05800760392
 21
8249.011421506351
 31
0.0
  0
LINE
  5
179D7
330
747D
100
AcDbEntity
  8
細線
 48
50.0
100
AcDbLine
 10
10162.05800760391
 20
6976.011421506349
 30
0.0
 11
10612.05800760391
 21
8249.011421506351
 31
0.0
  0
LINE
  5
179D8
330
747D
100
AcDbEntity
  8
部品1
 48
50.0
100
AcDbLine
 10
10612.05800760391
 20
8276.01142150635
 30
0.0
 11
10162.05800760392
 21
8276.01142150635
 31
0.0
  0
LINE
  5
179D9
330
747D
100
AcDbEntity
  8
部品1
 48
50.0
100
AcDbLine
 10
10612.05800760391
 20
8249.011421506351
 30
0.0
 11
10162.05800760392
 21
8249.011421506351
 31
0.0
  0
LINE
  5
179DA
330
747D
100
AcDbEntity
  8
部品1
 48
50.0
100
AcDbLine
 10
10614.05800760392
 20
8275.011421506349
 30
0.0
 11
10162.05800760392
 21
8275.011421506349
 31
0.0
  0
LINE
  5
179DB
330
747D
100
AcDbEntity
  8
部品1
 48
50.0
100
AcDbLine
 10
10614.05800760392
 20
8250.011421506348
 30
0.0
 11
10162.05800760392
 21
8250.011421506348
 31
0.0
  0
LINE
  5
179DC
330
747D
100
AcDbEntity
  8
部品1
100
AcDbLine
 10
10162.05800760392
 20
8275.011421506349
 30
0.0
 11
10162.05800760392
 21
8250.011421506348
 31
0.0
  0
DIMENSION
  5
179DD
330
747D
100
AcDbEntity
  8
寸法
100
AcDbDimension
  2
*D9
 10
9959.416406190685
 20
8330.309074957982
 30
0.0
 11
9959.416406190683
 21
8923.360630915636
 31
0.0
 70
   160
 71
     5
 42
1273.000000000069
  3
INABA_S40G
100
AcDbAlignedDimension
 13
10162.05800760393
 23
9549.011421506426
 33
0.0
 14
10162.05800760392
 24
8276.011421506357
 34
0.0
 50
270.0
100
AcDbRotatedDimension
1001
ACAD
1000
DSTYLE
1002
{
1002
}
  0
DIMENSION
  5
179DE
330
747D
100
AcDbEntity
  8
寸法
100
AcDbDimension
  2
*D10
 10
9959.416406190687
 20
7030.309074957987
 30
0.0
 11
9959.416406190685
 21
7611.278873700901
 31
0.0
 70
   160
 71
     5
 42
1273.000000000011
  3
INABA_S40G
100
AcDbAlignedDimension
 13
10162.05800760398
 23
8249.011421506358
 33
0.0
 14
10162.05800760398
 24
6976.011421506346
 34
0.0
 50
270.0
100
AcDbRotatedDimension
1001
ACAD
1000
DSTYLE
1002
{
1002
}
  0
LINE
  5
179DF
330
747D
100
AcDbEntity
  8
部品1
100
AcDbLine
 10
9747.058007603868
 20
9577.511421506381
 30
0.0
 11
9747.058007603868
 21
9549.51142150638
 31
0.0
  0
LINE
  5
179E0
330
747D
100
AcDbEntity
  8
部品1
100
AcDbLine
 10
8880.058007603846
 20
8262.511421506257
 30
0.0
 11
8852.058007603845
 21
8262.511421506257
 31
0.0
  0
LINE
  5
179E1
330
747D
100
AcDbEntity
  8
部品1
100
AcDbLine
 10
10614.05800760387
 20
8262.511421506387
 30
0.0
 11
10642.05800760387
 21
8262.511421506387
 31
0.0
  0
DIMENSION
  5
17A85
330
747D
100
AcDbEntity
  8
寸法
100
AcDbDimension
  2
*D11
 10
11177.22810336626
 20
4059.988104552489
 30
0.0
 11
11177.22810336626
 21
3022.244431982175
 31
0.0
 70
   160
 71
     5
 42
2020.000000000002
  3
INABA_S40G
100
AcDbAlignedDimension
 13
10642.05800760384
 23
2039.988104552487
 33
0.0
 14
10722.05800760382
 24
4059.988104552489
 34
0.0
 50
90.0
100
AcDbRotatedDimension
1001
ACAD
1000
DSTYLE
1002
{
1070
   174
1070
     0
1070
   272
1070
     1
1070
   288
1070
     0
1070
   341
1005
0
1002
}
  0
DIMENSION
  5
17A86
330
747D
100
AcDbEntity
  8
寸法
100
AcDbDimension
  2
*D12
 10
7943.418625674484
 20
1939.988104552487
 30
0.0
 11
7943.418625674484
 21
1703.940860457997
 31
0.0
 70
   160
 71
     5
 42
100.0000000000002
  3
INABA_S40G
100
AcDbAlignedDimension
 13
8797.058007603842
 23
2039.988104552487
 33
0.0
 14
8228.405298445544
 24
1939.988104552487
 34
0.0
 50
90.0
100
AcDbRotatedDimension
1001
ACAD
1000
DSTYLE
1002
{
1070
   174
1070
     0
1070
   272
1070
     1
1070
   288
1070
     0
1070
   341
1005
0
1002
}
  0
DIMENSION
  5
17A87
330
747D
100
AcDbEntity
  8
寸法
100
AcDbDimension
  2
*D13
 10
8228.405298445544
 20
2039.988104552488
 30
0.0
 11
8228.405298445544
 21
1733.940860457997
 31
0.0
 70
   160
 71
     5
 42
49.99999999999977
  3
INABA_S40G
100
AcDbAlignedDimension
 13
8852.058007603842
 23
2089.988104552487
 33
0.0
 14
8797.058007603842
 24
2039.988104552487
 34
0.0
 50
90.0
100
AcDbRotatedDimension
1001
ACAD
1000
DSTYLE
1002
{
1070
   174
1070
     0
1070
   272
1070
     1
1070
   288
1070
     0
1070
   341
1005
0
1002
}
  0
DIMENSION
  5
17A88
330
747D
100
AcDbEntity
  8
寸法
100
AcDbDimension
  2
*D14
 10
8228.405298445544
 20
2089.988104552487
 30
0.0
 11
8228.405298445544
 21
2980.442403094445
 31
0.0
 70
   160
 71
     5
 42
1790.0
  3
INABA_S40G
100
AcDbAlignedDimension
 13
8852.058007603842
 23
3879.988104552487
 33
0.0
 14
8852.058007603842
 24
2089.988104552487
 34
0.0
 50
90.0
100
AcDbRotatedDimension
1001
ACAD
1000
DSTYLE
1002
{
1070
   174
1070
     0
1070
   272
1070
     1
1070
   288
1070
     0
1070
   341
1005
0
1002
}
  0
DIMENSION
  5
17A89
330
747D
100
AcDbEntity
  8
寸法
100
AcDbDimension
  2
*D15
 10
7943.418625674484
 20
4114.988104552491
 30
0.0
 11
7943.418625674484
 21
3034.193982045597
 31
0.0
 70
   160
 71
     5
 42
2075.000000000005
  3
INABA_S40G
100
AcDbAlignedDimension
 13
8852.058007603842
 23
2039.988104552487
 33
0.0
 14
8792.058007603841
 24
4114.988104552491
 34
0.0
 50
90.0
100
AcDbRotatedDimension
1001
ACAD
1000
DSTYLE
1002
{
1070
   174
1070
     0
1070
   272
1070
     1
1070
   288
1070
     0
1070
   341
1005
0
1002
}
  0
ARC
  5
17A8A
330
747D
100
AcDbEntity
  8
部品1
100
AcDbCircle
 10
10707.68554341778
 20
3954.011861818279
 30
0.0
 40
0.7
100
AcDbArc
 50
275.0921697642102
 51
354.1866997667087
  0
ARC
  5
17A8B
330
747D
100
AcDbEntity
  8
部品1
100
AcDbCircle
 10
10718.5448891671
 20
4031.055116636202
 30
0.0
 40
0.7
100
AcDbArc
 50
275.0921697642102
 51
354.1866997665662
  0
ARC
  5
17A8C
330
747D
100
AcDbEntity
  8
部品1
100
AcDbCircle
 10
10718.8732944097
 20
4027.369719779113
 30
0.0
 40
3.0
100
AcDbArc
 50
95.09216976441896
 51
174.1866997665661
  0
ARC
  5
17A8D
330
747D
100
AcDbEntity
  8
部品1
100
AcDbCircle
 10
10708.01394866038
 20
3950.326464961189
 30
0.0
 40
3.0
100
AcDbArc
 50
95.0921697642102
 51
174.1866997665661
  0
ARC
  5
17A8E
330
747D
100
AcDbEntity
  8
部品1
 48
50.0
100
AcDbCircle
 10
10696.98581338527
 20
3940.735720357309
 30
0.0
 40
7.0
100
AcDbArc
 50
267.8377559869487
 51
354.1866997665662
  0
ARC
  5
17A8F
330
747D
100
AcDbEntity
  8
部品1
 48
50.0
100
AcDbCircle
 10
10714.30790984979
 20
4051.638267499479
 30
0.0
 40
7.0
100
AcDbArc
 50
354.1866997665143
 51
87.03587545303976
  0
LINE
  5
17A90
330
747D
100
AcDbEntity
  8
部品1
 48
50.0
100
AcDbLine
 10
10705.02937698977
 20
3950.630326678093
 30
0.0
 11
10703.94981395003
 21
3940.026709684535
 31
0.0
  0
LINE
  5
17A91
330
747D
100
AcDbEntity
  8
部品1
 48
50.0
100
AcDbLine
 10
10715.88872273909
 20
4027.673581496015
 30
0.0
 11
10708.38194347425
 21
3953.940960751005
 31
0.0
  0
LINE
  5
17A92
330
747D
100
AcDbEntity
  8
部品1
 48
50.0
100
AcDbLine
 10
10721.27191041454
 20
4050.929256826704
 30
0.0
 11
10719.24128922357
 21
4030.984215568926
 31
0.0
  0
LINE
  5
17A93
330
747D
100
AcDbEntity
  8
細線
 48
50.0
100
AcDbLine
 10
10689.05800760384
 20
4059.955083587783
 30
0.0
 11
10684.31032471584
 21
3934.209311097038
 31
0.0
  0
ARC
  5
17A94
330
747D
100
AcDbEntity
  8
部品1
100
AcDbCircle
 10
8798.09509947521
 20
3993.802263511393
 30
0.0
 40
0.7
100
AcDbArc
 50
181.0932240292114
 51
260.1877540314867
  0
ARC
  5
17A95
330
747D
100
AcDbEntity
  8
部品1
100
AcDbCircle
 10
8793.322425877601
 20
4086.66804171151
 30
0.0
 40
0.7
100
AcDbArc
 50
181.0932240292114
 51
260.1877540314867
  0
ARC
  5
17A96
330
747D
100
AcDbEntity
  8
部品1
100
AcDbCircle
 10
8792.691871474579
 20
4083.022167174113
 30
0.0
 40
3.0
100
AcDbArc
 50
1.093224029263536
 51
80.18775403148671
  0
ARC
  5
17A97
330
747D
100
AcDbEntity
  8
部品1
100
AcDbCircle
 10
8797.464545072184
 20
3990.156388973994
 30
0.0
 40
3.0
100
AcDbArc
 50
1.093224029315636
 51
80.18775403148671
  0
ARC
  5
17A98
330
747D
100
AcDbEntity
  8
部品1
 48
50.0
100
AcDbCircle
 10
8807.664677447387
 20
3979.764145591513
 30
0.0
 40
7.0
100
AcDbArc
 50
181.0932240293156
 51
267.8377559869487
  0
ARC
  5
17A99
330
747D
100
AcDbEntity
  8
部品1
 48
50.0
100
AcDbCircle
 10
8799.241019345291
 20
4106.715205124608
 30
0.0
 40
7.0
100
AcDbArc
 50
87.03587545303976
 51
181.0932240292635
  0
LINE
  5
17A9A
330
747D
100
AcDbEntity
  8
部品1
 48
50.0
100
AcDbLine
 10
8800.463998998615
 20
3990.213626577178
 30
0.0
 11
8800.665951619048
 21
3979.630591184085
 31
0.0
  0
LINE
  5
17A9B
330
747D
100
AcDbEntity
  8
部品1
 48
50.0
100
AcDbLine
 10
8795.691325401008
 20
4083.079404777296
 30
0.0
 11
8797.395226892374
 21
3993.788908070648
 31
0.0
  0
LINE
  5
17A9C
330
747D
100
AcDbEntity
  8
部品1
 48
50.0
100
AcDbLine
 10
8792.242293516952
 20
4106.58165071718
 30
0.0
 11
8792.622553294766
 21
4086.654686270769
 31
0.0
  0
LINE
  5
17A9D
330
747D
100
AcDbEntity
  8
細線
 48
50.0
100
AcDbLine
 10
8825.058007603846
 20
4112.387780927893
 30
0.0
 11
8819.768906048336
 21
3972.302148300538
 31
0.0
  0
LINE
  5
17A9E
330
747D
100
AcDbEntity
  8
細線
 48
50.0
100
AcDbLine
 10
8797.857905941944
 20
3993.143674695985
 30
0.0
 11
10707.86157037258
 21
3953.334355721492
 31
0.0
  0
LINE
  5
17A9F
330
747D
100
AcDbEntity
  8
細線
 48
50.0
100
AcDbLine
 10
8793.097430704658
 20
4086.00518639385
 30
0.0
 11
10718.73341544982
 21
4030.38098175302
 31
0.0
  0
LINE
  5
17AA0
330
747D
100
AcDbEntity
  8
部品1
100
AcDbLine
 10
8807.400572205798
 20
3972.769129621454
 30
0.0
 11
10696.72170814369
 21
3933.740704387248
 31
0.0
  0
LINE
  5
17AA1
330
747D
100
AcDbEntity
  8
部品1
100
AcDbLine
 10
8799.602993960808
 20
4113.705839886754
 30
0.0
 11
10714.66988446531
 21
4058.628902261625
 31
0.0
  0
LINE
  5
17AA2
330
747D
100
AcDbEntity
  8
部品1
 48
50.0
100
AcDbLine
 10
9597.058007603845
 20
4245.856243653767
 30
0.0
 11
9897.058007603845
 21
4229.656243653767
 31
0.0
  0
TEXT
  5
17AA3
330
747D
100
AcDbEntity
  8
部品1
 48
50.0
100
AcDbText
 10
10074.1508548917
 20
4144.239007587917
 30
0.0
 40
120.0
  1
54
 50
90.0
  7
STYLE1
100
AcDbText
  0
LINE
  5
17AA4
330
747D
100
AcDbEntity
  8
部品1
 48
50.0
100
AcDbLine
 10
9897.058007603845
 20
4245.856243653767
 30
0.0
 11
9897.058007603845
 21
4229.656243653767
 31
0.0
  0
LINE
  5
17AA5
330
747D
100
AcDbEntity
  8
部品1
 48
50.0
100
AcDbLine
 10
9597.058007603845
 20
4245.856243653767
 30
0.0
 11
9897.058007603845
 21
4245.856243653767
 31
0.0
  0
TEXT
  5
17AA6
330
747D
100
AcDbEntity
  8
部品1
 48
50.0
100
AcDbText
 10
9585.32584282757
 20
4281.7402658062
 30
0.0
 40
120.0
  1
1000
  7
STYLE1
100
AcDbText
  0
DIMENSION
  5
17AA7
330
747D
100
AcDbEntity
  8
寸法
 48
50.0
100
AcDbDimension
  2
*D16
 10
10722.05800760384
 20
4514.08127389196
 30
0.0
 11
10928.10525169833
 21
4514.08127389196
 31
0.0
 70
   160
 71
     5
 42
80.0
  3
INABA_S40G
100
AcDbAlignedDimension
 13
10642.05800760384
 23
4061.798784164141
 33
0.0
 14
10722.05800760384
 24
4059.988104552488
 34
0.0
100
AcDbRotatedDimension
1001
ACAD
1000
DSTYLE
1002
{
1070
   174
1070
     0
1070
   272
1070
     1
1070
   288
1070
     0
1070
   341
1005
0
1002
}
  0
DIMENSION
  5
17AA8
330
747D
100
AcDbEntity
  8
寸法
 48
50.0
100
AcDbDimension
  2
*D17
 10
8792.058007603847
 20
4730.607373510405
 30
0.0
 11
9697.863758854815
 21
4730.607373510405
 31
0.0
 70
   160
 71
     5
 42
1930.0
  3
INABA_S40G
100
AcDbAlignedDimension
 13
10722.05800760384
 23
4059.988104552488
 33
0.0
 14
8792.058007603847
 24
4114.988104552491
 34
0.0
100
AcDbRotatedDimension
1001
ACAD
1000
DSTYLE
1002
{
1070
   174
1070
     0
1070
   272
1070
     1
1070
   288
1070
     0
1070
   341
1005
0
1002
}
  0
DIMENSION
  5
17AA9
330
747D
100
AcDbEntity
  8
寸法
 48
50.0
100
AcDbDimension
  2
*D18
 10
8792.058007603847
 20
4514.08127389196
 30
0.0
 11
8482.420212328255
 21
4514.08127389196
 31
0.0
 70
   160
 71
     5
 42
60.0
  3
INABA_S40G
100
AcDbAlignedDimension
 13
8852.058007603845
 23
4110.989722675464
 33
0.0
 14
8792.058007603847
 24
4114.988104552491
 34
0.0
100
AcDbRotatedDimension
1001
ACAD
1000
DSTYLE
1002
{
1070
   174
1070
     0
1070
   272
1070
     1
1070
   288
1070
     0
1070
   341
1005
0
1002
}
  0
DIMENSION
  5
17AAA
330
747D
100
AcDbEntity
  8
寸法
 48
50.0
100
AcDbDimension
  2
*D19
 10
8852.058007603845
 20
4514.08127389196
 30
0.0
 11
9761.653656280325
 21
4514.08127389196
 31
0.0
 70
   160
  1
柱外寸法<>
 71
     5
 42
1790.0
  3
INABA_S40G
100
AcDbAlignedDimension
 13
10642.05800760384
 23
4061.798784164141
 33
0.0
 14
8852.058007603845
 24
4110.989722675464
 34
0.0
100
AcDbRotatedDimension
1001
ACAD
1000
DSTYLE
1002
{
1070
   174
1070
     0
1070
   272
1070
     1
1070
   288
1070
     0
1070
   341
1005
0
1002
}
  0
TEXT
  5
17AAB
330
747D
100
AcDbEntity
  8
文字
 62
     7
 48
50.0
100
AcDbText
 10
13209.4053442172
 20
228.5435242569015
 30
0.0
 40
100.0
  1
○有効開口寸法 ： 950×1725(mm)
  7
STYLE2
100
AcDbText
  0
LINE
  5
17AAC
330
747D
100
AcDbEntity
  8
Ｇ．Ｌ
100
AcDbLine
 10
2870.159709485721
 20
1939.988104552487
 30
0.0
 11
11276.0795813726
 21
1939.988104552487
 31
0.0
  0
LINE
  5
17AAD
330
747D
100
AcDbEntity
  8
部品1
100
AcDbLine
 10
8852.058007603842
 20
2039.988104552487
 30
0.0
 11
10642.05800760384
 21
2039.988104552487
 31
0.0
  0
LINE
  5
17AAE
330
747D
100
AcDbEntity
  8
部品1
100
AcDbLine
 10
8852.058007603842
 20
3879.988104552487
 30
0.0
 11
10642.05800760384
 21
3879.988104552487
 31
0.0
  0
LINE
  5
17AAF
330
747D
100
AcDbEntity
  8
部品1
100
AcDbLine
 10
8852.058007603842
 20
3971.846623994734
 30
0.0
 11
8852.058007603842
 21
1939.988104552487
 31
0.0
  0
LINE
  5
17AB0
330
747D
100
AcDbEntity
  8
部品1
100
AcDbLine
 10
10642.05800760384
 20
3934.869913238494
 30
0.0
 11
10642.05800760384
 21
1939.988104552487
 31
0.0
  0
LINE
  5
17AB1
330
747D
100
AcDbEntity
  8
部品1
100
AcDbLine
 10
10442.05800760384
 20
2039.988104552487
 30
0.0
 11
10442.05800760384
 21
1939.988104552487
 31
0.0
  0
LINE
  5
17AB2
330
747D
100
AcDbEntity
  8
部品1
100
AcDbLine
 10
9052.058007603843
 20
2039.988104552487
 30
0.0
 11
9052.058007603843
 21
1939.988104552487
 31
0.0
  0
LINE
  5
17AB3
330
747D
100
AcDbEntity
  8
部品1
 48
50.0
100
AcDbLine
 10
9447.058007603843
 20
2039.988104552487
 30
0.0
 11
9447.058007603843
 21
1939.988104552487
 31
0.0
  0
LINE
  5
17AB4
330
747D
100
AcDbEntity
  8
部品1
 48
50.0
100
AcDbLine
 10
9847.058007603843
 20
2039.988104552487
 30
0.0
 11
9847.058007603843
 21
1939.988104552487
 31
0.0
  0
LINE
  5
17AB5
330
747D
100
AcDbEntity
  8
部品1
100
AcDbLine
 10
10647.05800760384
 20
2084.988104552489
 30
0.0
 11
10647.05800760384
 21
1939.988104552487
 31
0.0
  0
LINE
  5
17AB6
330
747D
100
AcDbEntity
  8
破線
 48
5.0
100
AcDbLine
 10
10742.05800760384
 20
1739.988104552485
 30
0.0
 11
10542.05800760384
 21
1739.988104552485
 31
0.0
  0
LINE
  5
17AB7
330
747D
100
AcDbEntity
  8
破線
 48
5.0
100
AcDbLine
 10
10542.05800760384
 20
1939.988104552487
 30
0.0
 11
10542.05800760384
 21
1739.988104552485
 31
0.0
  0
LINE
  5
17AB8
330
747D
100
AcDbEntity
  8
破線
 48
5.0
100
AcDbLine
 10
10742.05800760384
 20
1939.988104552487
 30
0.0
 11
10742.05800760384
 21
1739.988104552485
 31
0.0
  0
LINE
  5
17AB9
330
747D
100
AcDbEntity
  8
破線
 48
5.0
100
AcDbLine
 10
10667.05800760384
 20
1784.988104552487
 30
0.0
 11
10647.05800760384
 21
1784.988104552487
 31
0.0
  0
LINE
  5
17ABA
330
747D
100
AcDbEntity
  8
部品1
100
AcDbLine
 10
8847.058007603843
 20
2084.988104552489
 30
0.0
 11
8847.058007603843
 21
1939.988104552487
 31
0.0
  0
LINE
  5
17ABB
330
747D
100
AcDbEntity
  8
破線
 48
5.0
100
AcDbLine
 10
8752.058007603842
 20
1739.988104552487
 30
0.0
 11
8952.058007603843
 21
1739.988104552487
 31
0.0
  0
LINE
  5
17ABC
330
747D
100
AcDbEntity
  8
破線
 48
5.0
100
AcDbLine
 10
8752.058007603842
 20
1939.988104552488
 30
0.0
 11
8752.058007603842
 21
1739.988104552487
 31
0.0
  0
LINE
  5
17ABD
330
747D
100
AcDbEntity
  8
破線
 48
5.0
100
AcDbLine
 10
8827.058007603843
 20
1784.988104552489
 30
0.0
 11
8847.058007603845
 21
1784.988104552489
 31
0.0
  0
LINE
  5
17ABE
330
747D
100
AcDbEntity
  8
破線
 48
5.0
100
AcDbLine
 10
8952.058007603843
 20
1939.988104552488
 30
0.0
 11
8952.058007603843
 21
1739.988104552487
 31
0.0
  0
LINE
  5
17ABF
330
747D
100
AcDbEntity
  8
破線
 48
5.0
100
AcDbLine
 10
10647.05800760384
 20
1939.988104552487
 30
0.0
 11
10647.05800760384
 21
1784.988104552487
 31
0.0
  0
LINE
  5
17AC0
330
747D
100
AcDbEntity
  8
破線
 48
5.0
100
AcDbLine
 10
8847.058007603843
 20
1939.988104552487
 30
0.0
 11
8847.058007603843
 21
1784.988104552489
 31
0.0
  0
DIMENSION
  5
17AC1
330
747D
100
AcDbEntity
  8
寸法
 48
50.0
100
AcDbDimension
  2
*D20
 10
8752.058007603842
 20
1453.940775252109
 30
0.0
 11
8852.058007603842
 21
1453.940775252109
 31
0.0
 70
   160
 71
     5
 42
200.0000000000018
  3
INABA_S40G
100
AcDbAlignedDimension
 13
8952.058007603843
 23
1739.988104552485
 33
0.0
 14
8752.058007603842
 24
1739.988104552485
 34
0.0
100
AcDbRotatedDimension
  0
TEXT
  5
17AC2
330
747D
100
AcDbEntity
  8
部品1
100
AcDbText
 10
9455.848078227576
 20
1058.056312356554
 30
0.0
 40
135.0
  1
正面図
  7
STYLE2
100
AcDbText
  0
LINE
  5
17AC3
330
747D
100
AcDbEntity
  8
部品1
100
AcDbLine
 10
8852.058007603842
 20
2089.988104552491
 30
0.0
 11
8880.058007603842
 21
2089.988104552491
 31
0.0
  0
LINE
  5
17AC4
330
747D
100
AcDbEntity
  8
部品1
100
AcDbLine
 10
10587.05800760384
 20
3879.988104552487
 30
0.0
 11
10587.05800760384
 21
3874.988104552488
 31
0.0
  0
LINE
  5
17AC5
330
747D
100
AcDbEntity
  8
部品1
100
AcDbLine
 10
8907.058007603842
 20
3879.988104552482
 30
0.0
 11
8907.058007603842
 21
3874.988104552488
 31
0.0
  0
LINE
  5
17AC6
330
747D
100
AcDbEntity
  8
部品1
 48
50.0
100
AcDbLine
 10
8880.058007603842
 20
2039.988104552486
 30
0.0
 11
10614.05800760384
 21
2039.988104552486
 31
0.0
  0
LINE
  5
17AC7
330
747D
100
AcDbEntity
  8
部品1
100
AcDbLine
 10
10614.05800760384
 20
2089.988104552507
 30
0.0
 11
10642.05800760384
 21
2089.988104552507
 31
0.0
  0
LINE
  5
17AC8
330
747D
100
AcDbEntity
  8
部品1
100
AcDbLine
 10
9365.322674489622
 20
1250.949841575077
 30
0.0
 11
9365.322674489622
 21
1011.057520029545
 31
0.0
  0
LINE
  5
17AC9
330
747D
100
AcDbEntity
  8
部品1
100
AcDbLine
 10
9365.322674489622
 20
1011.057520029545
 30
0.0
 11
10128.79334071806
 21
1011.057520029545
 31
0.0
  0
LINE
  5
17ACA
330
747D
100
AcDbEntity
  8
部品1
100
AcDbLine
 10
10128.79334071806
 20
1011.057520029545
 30
0.0
 11
10128.79334071806
 21
1250.949841575077
 31
0.0
  0
LINE
  5
17ACB
330
747D
100
AcDbEntity
  8
部品1
100
AcDbLine
 10
10128.79334071806
 20
1250.949841575077
 30
0.0
 11
9365.322674489622
 21
1250.949841575077
 31
0.0
  0
TEXT
  5
17ACC
330
747D
100
AcDbEntity
  8
文字
 62
     7
 48
50.0
100
AcDbText
 10
13248.77747366447
 20
8380.013745883728
 30
0.0
 40
100.0
  1
17
  7
STYLE1
100
AcDbText
  0
TEXT
  5
17ACD
330
747D
100
AcDbEntity
  8
文字
 62
     7
 48
50.0
100
AcDbText
 10
13248.77747366447
 20
8550.013745883729
 30
0.0
 40
100.0
  1
16
  7
STYLE1
100
AcDbText
  0
TEXT
  5
17ACE
330
747D
100
AcDbEntity
  8
文字
 62
     7
 48
50.0
100
AcDbText
 10
15022.63965474517
 20
9060.013745883725
 30
0.0
 40
100.0
  1
F12            1.0
  7
STYLE1
100
AcDbText
  0
TEXT
  5
17ACF
330
747D
100
AcDbEntity
  8
文字
 62
     7
 48
50.0
100
AcDbText
 10
13583.11819016569
 20
9060.013745883733
 30
0.0
 40
100.0
  1
壁面扉枠左右
  7
STYLE1
100
AcDbText
  0
TEXT
  5
17AD0
330
747D
100
AcDbEntity
  8
文字
 62
     7
 48
50.0
100
AcDbText
 10
15022.63965474517
 20
9230.013745883725
 30
0.0
 40
100.0
  1
F12            1.0
  7
STYLE1
100
AcDbText
  0
TEXT
  5
17AD1
330
747D
100
AcDbEntity
  8
文字
 62
     7
 48
50.0
100
AcDbText
 10
15022.63965474515
 20
9400.013745883727
 30
0.0
 40
100.0
  1
F12            0.7
  7
STYLE1
100
AcDbText
  0
TEXT
  5
17AD2
330
747D
100
AcDbEntity
  8
文字
 62
     7
 48
50.0
100
AcDbText
 10
13583.11819016569
 20
9230.013745883733
 30
0.0
 40
100.0
  1
壁面扉敷居
  7
STYLE1
100
AcDbText
  0
TEXT
  5
17AD3
330
747D
100
AcDbEntity
  8
文字
 62
     7
 48
50.0
100
AcDbText
 10
13583.11819016569
 20
9400.013745883729
 30
0.0
 40
100.0
  1
壁面扉鴨居
  7
STYLE1
100
AcDbText
  0
LINE
  5
17AD4
330
747D
100
AcDbEntity
  8
仕様書枠
 48
50.0
100
AcDbLine
 10
16307.19999999999
 20
8689.600000000003
 30
0.0
 11
13127.2
 21
8689.600000000005
 31
0.0
  0
LINE
  5
17AD5
330
747D
100
AcDbEntity
  8
仕様書枠
 48
50.0
100
AcDbLine
 10
16307.19999999999
 20
8519.600000000004
 30
0.0
 11
13127.2
 21
8519.600000000005
 31
0.0
  0
TEXT
  5
17AD6
330
747D
100
AcDbEntity
  8
文字
 62
     7
 48
50.0
100
AcDbText
 10
13583.11819016569
 20
8380.013745883728
 30
0.0
 40
100.0
  1
アンカープレート
  7
STYLE1
100
AcDbText
  0
TEXT
  5
17AD7
330
747D
100
AcDbEntity
  8
文字
 62
     7
 48
50.0
100
AcDbText
 10
15022.63965474515
 20
8380.013745883724
 30
0.0
 40
100.0
  1
F12            2.3
  7
STYLE1
100
AcDbText
  0
LINE
  5
17AD8
330
747D
100
AcDbEntity
  8
仕様書枠
 48
50.0
100
AcDbLine
 10
16307.2
 20
10049.6
 30
0.0
 11
13127.2
 21
10049.6
 31
0.0
  0
LINE
  5
17AD9
330
747D
100
AcDbEntity
  8
仕様書枠
 48
50.0
100
AcDbLine
 10
16307.2
 20
11409.59999999999
 30
0.0
 11
13127.2
 21
11409.6
 31
0.0
  0
LINE
  5
17ADA
330
747D
100
AcDbEntity
  8
仕様書枠
 48
50.0
100
AcDbLine
 10
16307.19999999999
 20
8009.600000000004
 30
0.0
 11
16307.2
 21
11409.6
 31
0.0
  0
LINE
  5
17ADB
330
747D
100
AcDbEntity
  8
仕様書枠
 48
50.0
100
AcDbLine
 10
14785.2
 20
11409.59999999999
 30
0.0
 11
14785.2
 21
8349.600000000004
 31
0.0
  0
LINE
  5
17ADC
330
747D
100
AcDbEntity
  8
仕様書枠
 48
50.0
100
AcDbLine
 10
13490.2
 20
11409.59999999999
 30
0.0
 11
13490.20000000001
 21
8349.600000000007
 31
0.0
  0
LINE
  5
17ADD
330
747D
100
AcDbEntity
  8
仕様書枠
 48
50.0
100
AcDbLine
 10
16307.2
 20
11239.59999999999
 30
0.0
 11
13127.2
 21
11239.6
 31
0.0
  0
LINE
  5
17ADE
330
747D
100
AcDbEntity
  8
仕様書枠
 48
50.0
100
AcDbLine
 10
16307.2
 20
10899.6
 30
0.0
 11
13127.2
 21
10899.6
 31
0.0
  0
LINE
  5
17ADF
330
747D
100
AcDbEntity
  8
仕様書枠
 48
50.0
100
AcDbLine
 10
16307.2
 20
11069.59999999999
 30
0.0
 11
13127.2
 21
11069.6
 31
0.0
  0
LINE
  5
17AE0
330
747D
100
AcDbEntity
  8
仕様書枠
 48
50.0
100
AcDbLine
 10
16307.19999999999
 20
10559.6
 30
0.0
 11
13127.2
 21
10559.6
 31
0.0
  0
LINE
  5
17AE1
330
747D
100
AcDbEntity
  8
仕様書枠
 48
50.0
100
AcDbLine
 10
16307.19999999999
 20
10389.6
 30
0.0
 11
13127.2
 21
10389.6
 31
0.0
  0
LINE
  5
17AE2
330
747D
100
AcDbEntity
  8
仕様書枠
 48
50.0
100
AcDbLine
 10
16307.19999999999
 20
10729.59999999999
 30
0.0
 11
13127.2
 21
10729.6
 31
0.0
  0
TEXT
  5
17AE3
330
747D
100
AcDbEntity
  8
文字
 62
     7
 48
50.0
100
AcDbText
 10
13197.42518560407
 20
11270.01374588372
 30
0.0
 40
100.0
  1
品番
  7
STYLE1
100
AcDbText
  0
TEXT
  5
17AE4
330
747D
100
AcDbEntity
  8
文字
 62
     7
 48
50.0
100
AcDbText
 10
13271.19032244792
 20
11100.01374588373
 30
0.0
 40
100.0
  1
1
  7
STYLE1
100
AcDbText
  0
TEXT
  5
17AE5
330
747D
100
AcDbEntity
  8
文字
 62
     7
 48
50.0
100
AcDbText
 10
13271.19032244792
 20
10930.01374588373
 30
0.0
 40
100.0
  1
2
  7
STYLE1
100
AcDbText
  0
TEXT
  5
17AE6
330
747D
100
AcDbEntity
  8
文字
 62
     7
 48
50.0
100
AcDbText
 10
13271.19032244792
 20
10590.01374588373
 30
0.0
 40
100.0
  1
4
  7
STYLE1
100
AcDbText
  0
TEXT
  5
17AE7
330
747D
100
AcDbEntity
  8
文字
 62
     7
 48
50.0
100
AcDbText
 10
13271.19032244792
 20
10760.01374588373
 30
0.0
 40
100.0
  1
3
  7
STYLE1
100
AcDbText
  0
TEXT
  5
17AE8
330
747D
100
AcDbEntity
  8
文字
 62
     7
 48
50.0
100
AcDbText
 10
13732.03840939434
 20
11270.01374588372
 30
0.0
 40
100.0
  1
部　　品　　名
  7
STYLE1
100
AcDbText
  0
TEXT
  5
17AE9
330
747D
100
AcDbEntity
  8
文字
 62
     7
 48
50.0
100
AcDbText
 10
14859.79774614482
 20
11270.01374588372
 30
0.0
 40
100.0
  1
材料（材質）　　単位mm
  7
STYLE1
100
AcDbText
  0
TEXT
  5
17AEA
330
747D
100
AcDbEntity
  8
文字
 62
     7
 48
50.0
100
AcDbText
 10
13583.11819016569
 20
11100.01374588372
 30
0.0
 40
100.0
  1
土台枠
  7
STYLE1
100
AcDbText
  0
TEXT
  5
17AEB
330
747D
100
AcDbEntity
  8
文字
 62
     7
 48
50.0
100
AcDbText
 10
13583.1181901657
 20
10760.01374588372
 30
0.0
 40
100.0
  1
柱
  7
STYLE1
100
AcDbText
  0
TEXT
  5
17AEC
330
747D
100
AcDbEntity
  8
文字
 62
     7
 48
50.0
100
AcDbText
 10
13583.11819016569
 20
10420.01374588373
 30
0.0
 40
100.0
  1
桁前後
  7
STYLE1
100
AcDbText
  0
TEXT
  5
17AED
330
747D
100
AcDbEntity
  8
文字
 62
     7
 48
50.0
100
AcDbText
 10
13271.19032244792
 20
10420.01374588372
 30
0.0
 40
100.0
  1
5
  7
STYLE1
100
AcDbText
  0
TEXT
  5
17AEE
330
747D
100
AcDbEntity
  8
文字
 62
     7
 48
50.0
100
AcDbText
 10
13583.11819016569
 20
10250.01374588373
 30
0.0
 40
100.0
  1
妻板左右
  7
STYLE1
100
AcDbText
  0
TEXT
  5
17AEF
330
747D
100
AcDbEntity
  8
文字
 62
     7
 48
50.0
100
AcDbText
 10
13248.77747366447
 20
9570.013745883727
 30
0.0
 40
100.0
  1
10
  7
STYLE1
100
AcDbText
  0
TEXT
  5
17AF0
330
747D
100
AcDbEntity
  8
文字
 62
     7
 48
50.0
100
AcDbText
 10
13583.11819016568
 20
9570.013745883729
 30
0.0
 40
100.0
  1
壁パネル
  7
STYLE1
100
AcDbText
  0
TEXT
  5
17AF1
330
747D
100
AcDbEntity
  8
文字
 62
     7
 48
50.0
100
AcDbText
 10
13583.11819016569
 20
9910.013745883727
 30
0.0
 40
100.0
  1
屋根パネル
  7
STYLE1
100
AcDbText
  0
TEXT
  5
17AF2
330
747D
100
AcDbEntity
  8
文字
 62
     7
 48
50.0
100
AcDbText
 10
13583.11819016569
 20
10080.01374588372
 30
0.0
 40
100.0
  1
鼻隠シ前後
  7
STYLE1
100
AcDbText
  0
TEXT
  5
17AF3
330
747D
100
AcDbEntity
  8
文字
 62
     7
 48
50.0
100
AcDbText
 10
13271.19032244792
 20
9910.01374588373
 30
0.0
 40
100.0
  1
8
  7
STYLE1
100
AcDbText
  0
TEXT
  5
17AF4
330
747D
100
AcDbEntity
  8
文字
 62
     7
 48
50.0
100
AcDbText
 10
13271.19032244792
 20
9740.013745883729
 30
0.0
 40
100.0
  1
9
  7
STYLE1
100
AcDbText
  0
TEXT
  5
17AF5
330
747D
100
AcDbEntity
  8
文字
 62
     7
 48
50.0
100
AcDbText
 10
13271.19032244792
 20
10080.01374588373
 30
0.0
 40
100.0
  1
7
  7
STYLE1
100
AcDbText
  0
TEXT
  5
17AF6
330
747D
100
AcDbEntity
  8
文字
 62
     7
 48
50.0
100
AcDbText
 10
13271.19032244792
 20
10250.01374588373
 30
0.0
 40
100.0
  1
6
  7
STYLE1
100
AcDbText
  0
LINE
  5
17AF7
330
747D
100
AcDbEntity
  8
仕様書枠
 48
50.0
100
AcDbLine
 10
16307.19999999999
 20
9709.6
 30
0.0
 11
13127.2
 21
9709.600000000001
 31
0.0
  0
LINE
  5
17AF8
330
747D
100
AcDbEntity
  8
仕様書枠
 48
50.0
100
AcDbLine
 10
16307.19999999999
 20
9369.599999999998
 30
0.0
 11
13127.2
 21
9369.600000000001
 31
0.0
  0
LINE
  5
17AF9
330
747D
100
AcDbEntity
  8
仕様書枠
 48
50.0
100
AcDbLine
 10
16307.19999999999
 20
9539.599999999998
 30
0.0
 11
13127.2
 21
9539.6
 31
0.0
  0
LINE
  5
17AFA
330
747D
100
AcDbEntity
  8
仕様書枠
 48
50.0
100
AcDbLine
 10
16307.2
 20
10219.6
 30
0.0
 11
13127.2
 21
10219.6
 31
0.0
  0
LINE
  5
17AFB
330
747D
100
AcDbEntity
  8
仕様書枠
 48
50.0
100
AcDbLine
 10
16307.2
 20
9879.599999999999
 30
0.0
 11
13127.2
 21
9879.600000000001
 31
0.0
  0
TEXT
  5
17AFC
330
747D
100
AcDbEntity
  8
文字
 62
     7
 48
50.0
100
AcDbText
 10
13248.77747366447
 20
9400.013745883727
 30
0.0
 40
100.0
  1
11
  7
STYLE1
100
AcDbText
  0
LINE
  5
17AFD
330
747D
100
AcDbEntity
  8
仕様書枠
 48
50.0
100
AcDbLine
 10
16307.19999999999
 20
9199.599999999998
 30
0.0
 11
13127.2
 21
9199.600000000001
 31
0.0
  0
LINE
  5
17AFE
330
747D
100
AcDbEntity
  8
仕様書枠
 48
50.0
100
AcDbLine
 10
16307.19999999999
 20
8859.6
 30
0.0
 11
13127.2
 21
8859.600000000002
 31
0.0
  0
TEXT
  5
17AFF
330
747D
100
AcDbEntity
  8
文字
 62
     7
 48
50.0
100
AcDbText
 10
13248.77747366448
 20
9060.013745883727
 30
0.0
 40
100.0
  1
13
  7
STYLE1
100
AcDbText
  0
TEXT
  5
17B00
330
747D
100
AcDbEntity
  8
文字
 62
     7
 48
50.0
100
AcDbText
 10
13248.77747366448
 20
9230.013745883727
 30
0.0
 40
100.0
  1
12
  7
STYLE1
100
AcDbText
  0
TEXT
  5
17B01
330
747D
100
AcDbEntity
  8
文字
 62
     7
 48
50.0
100
AcDbText
 10
15022.63965474517
 20
11100.01374588372
 30
0.0
 40
100.0
  1
F12            1.2
  7
STYLE1
100
AcDbText
  0
TEXT
  5
17B02
330
747D
100
AcDbEntity
  8
文字
 62
     7
 48
50.0
100
AcDbText
 10
15022.63965474518
 20
10760.01374588372
 30
0.0
 40
100.0
  1
F12            1.0
  7
STYLE1
100
AcDbText
  0
TEXT
  5
17B03
330
747D
100
AcDbEntity
  8
文字
 62
     7
 48
50.0
100
AcDbText
 10
15022.63965474516
 20
10420.01374588372
 30
0.0
 40
100.0
  1
Y10            1.0
  7
STYLE1
100
AcDbText
  0
TEXT
  5
17B04
330
747D
100
AcDbEntity
  8
文字
 62
     7
 48
50.0
100
AcDbText
 10
15022.63965474516
 20
10250.01374588372
 30
0.0
 40
100.0
  1
Y10            0.7
  7
STYLE1
100
AcDbText
  0
TEXT
  5
17B05
330
747D
100
AcDbEntity
  8
文字
 62
     7
 48
50.0
100
AcDbText
 10
15022.63965474516
 20
10080.01374588372
 30
0.0
 40
100.0
  1
Y10            0.7
  7
STYLE1
100
AcDbText
  0
TEXT
  5
17B06
330
747D
100
AcDbEntity
  8
文字
 62
     7
 48
50.0
100
AcDbText
 10
15022.63965474517
 20
9910.013745883725
 30
0.0
 40
100.0
  1
Y10            0.5
  7
STYLE1
100
AcDbText
  0
TEXT
  5
17B07
330
747D
100
AcDbEntity
  8
文字
 62
     7
 48
50.0
100
AcDbText
 10
15022.63965474515
 20
9570.013745883725
 30
0.0
 40
100.0
  1
F12            0.6
  7
STYLE1
100
AcDbText
  0
LINE
  5
17B08
330
747D
100
AcDbEntity
  8
仕様書枠
 48
50.0
100
AcDbLine
 10
16307.19999999999
 20
8349.600000000004
 30
0.0
 11
13127.19999999999
 21
8349.600000000007
 31
0.0
  0
LINE
  5
17B09
330
747D
100
AcDbEntity
  8
仕様書枠
 48
50.0
100
AcDbLine
 10
16307.19999999999
 20
8179.600000000004
 30
0.0
 11
13127.19999999999
 21
8179.600000000005
 31
0.0
  0
TEXT
  5
17B0A
330
747D
100
AcDbEntity
  8
文字
 62
     7
 48
50.0
100
AcDbText
 10
13229.83081656554
 20
8210.013745883733
 30
0.0
 40
100.0
  1
F12→溶融亜鉛めっき鋼板(JIS G 3302)
  7
STYLE1
100
AcDbText
  0
TEXT
  5
17B0B
330
747D
100
AcDbEntity
  8
文字
 62
     7
 48
50.0
100
AcDbText
 10
13229.83081656554
 20
8040.013745883731
 30
0.0
 40
100.0
  1
Y10→溶融亜鉛-5％アルミニウム合金めっき鋼板(JIS G 3317)
 41
0.9
  7
STYLE1
100
AcDbText
  0
LINE
  5
17B0C
330
747D
100
AcDbEntity
  8
仕様書枠
 48
50.0
100
AcDbLine
 10
13127.2
 20
11409.6
 30
0.0
 11
13127.19999999999
 21
8009.600000000006
 31
0.0
  0
LINE
  5
17B0D
330
747D
100
AcDbEntity
  8
仕様書枠
 48
50.0
100
AcDbLine
 10
16307.19999999999
 20
9029.6
 30
0.0
 11
13127.2
 21
9029.600000000002
 31
0.0
  0
TEXT
  5
17B0E
330
747D
100
AcDbEntity
  8
文字
 62
     7
 48
50.0
100
AcDbText
 10
13583.1181901657
 20
10590.01374588372
 30
0.0
 40
100.0
  1
床パネル
 41
0.9
  7
STYLE1
100
AcDbText
  0
TEXT
  5
17B0F
330
747D
100
AcDbEntity
  8
文字
 62
     7
 48
50.0
100
AcDbText
 10
13583.11819016569
 20
10930.01374588372
 30
0.0
 40
100.0
  1
根太
  7
STYLE1
100
AcDbText
  0
TEXT
  5
17B10
330
747D
100
AcDbEntity
  8
文字
 62
     7
 48
50.0
100
AcDbText
 10
13248.77747366448
 20
8890.013745883727
 30
0.0
 40
100.0
  1
14
  7
STYLE1
100
AcDbText
  0
TEXT
  5
17B11
330
747D
100
AcDbEntity
  8
文字
 62
     7
 48
50.0
100
AcDbText
 10
15022.63965474516
 20
10930.01374588372
 30
0.0
 40
100.0
  1
F12            1.2
  7
STYLE1
100
AcDbText
  0
TEXT
  5
17B12
330
747D
100
AcDbEntity
  8
文字
 62
     7
 48
50.0
100
AcDbText
 10
15022.63965474517
 20
10590.01374588372
 30
0.0
 40
100.0
  1
F12            1.0
  7
STYLE1
100
AcDbText
  0
TEXT
  5
17B13
330
747D
100
AcDbEntity
  8
文字
 62
     7
 48
50.0
100
AcDbText
 10
15022.63965474515
 20
8890.013745883727
 30
0.0
 40
100.0
  1
F12            0.7
  7
STYLE1
100
AcDbText
  0
TEXT
  5
17B14
330
747D
100
AcDbEntity
  8
文字
 62
     7
 48
50.0
100
AcDbText
 10
13583.11819016568
 20
8890.013745883731
 30
0.0
 40
100.0
  1
正面パネル
  7
STYLE1
100
AcDbText
  0
TEXT
  5
17B15
330
747D
100
AcDbEntity
  8
文字
 62
     7
 48
50.0
100
AcDbText
 10
15022.63965474516
 20
8720.013745883727
 30
0.0
 40
100.0
  1
F12            0.8
  7
STYLE1
100
AcDbText
  0
TEXT
  5
17B16
330
747D
100
AcDbEntity
  8
文字
 62
     7
 48
50.0
100
AcDbText
 10
13583.11819016569
 20
8720.013745883731
 30
0.0
 40
100.0
  1
扉
  7
STYLE1
100
AcDbText
  0
LINE
  5
17B17
330
747D
100
AcDbEntity
  8
仕様書枠
 48
50.0
100
AcDbLine
 10
16307.19999999999
 20
8009.600000000004
 30
0.0
 11
13127.19999999999
 21
8009.600000000006
 31
0.0
  0
TEXT
  5
17B18
330
747D
100
AcDbEntity
  8
文字
 62
     7
 48
50.0
100
AcDbText
 10
13248.77747366447
 20
8720.013745883729
 30
0.0
 40
100.0
  1
15
  7
STYLE1
100
AcDbText
  0
TEXT
  5
17B19
330
747D
100
AcDbEntity
  8
文字
 62
     7
 48
50.0
100
AcDbText
 10
13583.11819016569
 20
9740.013745883729
 30
0.0
 40
100.0
  1
母屋中
  7
STYLE1
100
AcDbText
  0
TEXT
  5
17B1A
330
747D
100
AcDbEntity
  8
文字
 62
     7
 48
50.0
100
AcDbText
 10
15022.63965474515
 20
9740.013745883723
 30
0.0
 40
100.0
  1
F12            1.0
  7
STYLE1
100
AcDbText
  0
TEXT
  5
17B1B
330
747D
100
AcDbEntity
  8
文字
 62
     7
 48
50.0
100
AcDbText
 10
15022.63965474516
 20
8550.013745883727
 30
0.0
 40
100.0
  1
F12            0.6
  7
STYLE1
100
AcDbText
  0
TEXT
  5
17B1C
330
747D
100
AcDbEntity
  8
文字
 62
     7
 48
50.0
100
AcDbText
 10
13583.11819016569
 20
8550.013745883731
 30
0.0
 40
100.0
  1
棚板
  7
STYLE1
100
AcDbText
  0
TEXT
  5
17B1D
330
747D
100
AcDbEntity
  8
文字
 62
     7
 48
50.0
100
AcDbText
 10
14491.96323844892
 20
483.8967129911416
 30
0.0
 40
160.0
  1
ＮＸＮ－５０ＣＳＢ
  7
STYLE2
100
AcDbText
  0
DIMENSION
  5
17B1E
330
747D
100
AcDbEntity
  8
寸法
 48
50.0
100
AcDbDimension
  2
*D21
 10
8580.851978391708
 20
2097.988104552487
 30
0.0
 11
8580.851978391708
 21
2951.621123570012
 31
0.0
 70
   160
  1
有効開口部高サ<>
 71
     5
 42
1725.0
  3
INABA_S40G
100
AcDbAlignedDimension
 13
8880.058007603858
 23
3822.988104552487
 33
0.0
 14
8880.058007603858
 24
2097.988104552487
 34
0.0
 50
90.0
100
AcDbRotatedDimension
1001
ACAD
1000
DSTYLE
1002
{
1070
   341
1005
0
1002
}
  0
LINE
  5
17B38
330
747D
100
AcDbEntity
  8
部品1
 48
50.0
100
AcDbLine
 10
8954.05800760384
 20
3021.488104552487
 30
0.0
 11
9007.058007603841
 21
3021.488104552487
 31
0.0
  0
LINE
  5
17B3C
330
747D
100
AcDbEntity
  8
部品1
 48
50.0
100
AcDbLine
 10
10614.05800760384
 20
3830.988104552488
 30
0.0
 11
10584.05800760384
 21
3830.988104552488
 31
0.0
  0
LINE
  5
17B3D
330
747D
100
AcDbEntity
  8
部品1
 48
50.0
100
AcDbLine
 10
8910.058007603842
 20
3830.988104552488
 30
0.0
 11
8880.058007603841
 21
3830.988104552488
 31
0.0
  0
LINE
  5
17B3E
330
747D
100
AcDbEntity
  8
細線
 48
50.0
100
AcDbLine
 10
10584.05800760384
 20
3832.488104552487
 30
0.0
 11
8910.058007603842
 21
3832.488104552487
 31
0.0
  0
LINE
  5
17B3F
330
747D
100
AcDbEntity
  8
細線
 48
50.0
100
AcDbLine
 10
10584.05800760384
 20
3822.988104552487
 30
0.0
 11
8910.058007603842
 21
3822.988104552487
 31
0.0
  0
LINE
  5
17B40
330
747D
100
AcDbEntity
  8
細線
 48
50.0
100
AcDbLine
 10
10614.05800760384
 20
3864.988104552487
 30
0.0
 11
8880.058007603841
 21
3864.988104552487
 31
0.0
  0
LINE
  5
17B41
330
747D
100
AcDbEntity
  8
部品1
 48
50.0
100
AcDbLine
 10
10614.05800760384
 20
3874.988104552488
 30
0.0
 11
8880.058007603841
 21
3874.988104552488
 31
0.0
  0
LINE
  5
17B42
330
747D
100
AcDbEntity
  8
細線
 48
50.0
100
AcDbLine
 10
10562.05800760384
 20
2086.988104552487
 30
0.0
 11
10558.05800760384
 21
2097.488104552487
 31
0.0
  0
LINE
  5
17B43
330
747D
100
AcDbEntity
  8
部品1
 48
50.0
100
AcDbLine
 10
8919.058007603842
 20
2089.988104552487
 30
0.0
 11
8919.058007603842
 21
2086.988104552487
 31
0.0
  0
LINE
  5
17B44
330
747D
100
AcDbEntity
  8
部品1
 48
50.0
100
AcDbLine
 10
8910.058007603842
 20
2089.988104552487
 30
0.0
 11
9548.558007603846
 21
2089.988104552487
 31
0.0
  0
LINE
  5
17B45
330
747D
100
AcDbEntity
  8
部品1
 48
50.0
100
AcDbLine
 10
8880.058007603841
 20
2039.988104552487
 30
0.0
 11
10614.05800760384
 21
2039.988104552487
 31
0.0
  0
LINE
  5
17B46
330
747D
100
AcDbEntity
  8
細線
 48
50.0
100
AcDbLine
 10
8910.058007603842
 20
2082.988104552487
 30
0.0
 11
10584.05800760384
 21
2082.988104552487
 31
0.0
  0
LINE
  5
17B47
330
747D
100
AcDbEntity
  8
細線
 48
50.0
100
AcDbLine
 10
8910.058007603842
 20
2086.988104552487
 30
0.0
 11
10584.05800760384
 21
2086.988104552487
 31
0.0
  0
LINE
  5
17B48
330
747D
100
AcDbEntity
  8
細線
 48
50.0
100
AcDbLine
 10
9548.558007603846
 20
2097.488104552487
 30
0.0
 11
10558.05800760384
 21
2097.488104552487
 31
0.0
  0
LINE
  5
17B49
330
747D
100
AcDbEntity
  8
部品1
 48
50.0
100
AcDbLine
 10
10614.05800760384
 20
2039.988104552487
 30
0.0
 11
10614.05800760384
 21
3874.988104552488
 31
0.0
  0
LINE
  5
17B4A
330
747D
100
AcDbEntity
  8
細線
 48
50.0
100
AcDbLine
 10
10584.05800760384
 20
2039.988104552487
 30
0.0
 11
10584.05800760384
 21
3832.488104552487
 31
0.0
  0
LINE
  5
17B4B
330
747D
100
AcDbEntity
  8
部品1
 48
50.0
100
AcDbLine
 10
10575.05800760384
 20
2086.988104552487
 30
0.0
 11
10575.05800760384
 21
3822.988104552487
 31
0.0
  0
LINE
  5
17B4C
330
747D
100
AcDbEntity
  8
部品1
 48
50.0
100
AcDbLine
 10
8910.058007603842
 20
2089.988104552487
 30
0.0
 11
8910.058007603844
 21
3822.988104552487
 31
0.0
  0
LINE
  5
17B4D
330
747D
100
AcDbEntity
  8
細線
 48
50.0
100
AcDbLine
 10
8910.058007603844
 20
3832.488104552487
 30
0.0
 11
8910.058007603842
 21
2039.988104552487
 31
0.0
  0
LINE
  5
17B4E
330
747D
100
AcDbEntity
  8
部品1
 48
50.0
100
AcDbLine
 10
8880.058007603841
 20
3874.988104552488
 30
0.0
 11
8880.058007603841
 21
2039.988104552487
 31
0.0
  0
LINE
  5
17B4F
330
747D
100
AcDbEntity
  8
部品1
 48
50.0
100
AcDbLine
 10
9548.558007603849
 20
3822.988104552487
 30
0.0
 11
9548.558007603846
 21
2089.988104552487
 31
0.0
  0
LINE
  5
17B50
330
747D
100
AcDbEntity
  8
部品1
 48
50.0
100
AcDbLine
 10
10040.55800760384
 20
3822.988104552487
 30
0.0
 11
10040.55800760384
 21
2097.488104552487
 31
0.0
  0
LINE
  5
17B51
330
747D
100
AcDbEntity
  8
細線
100
AcDbLine
 10
9430.057999418426
 20
3822.98810455248
 30
0.0
 11
9430.057999418426
 21
2089.988104552483
 31
0.0
  0
LINE
  5
17B52
330
747D
100
AcDbEntity
  8
細線
100
AcDbLine
 10
9360.057999418426
 20
3822.98810455248
 30
0.0
 11
9360.057999418426
 21
2089.988104552483
 31
0.0
  0
LINE
  5
17B53
330
747D
100
AcDbEntity
  8
細線
100
AcDbLine
 10
9290.057999418428
 20
3822.98810455248
 30
0.0
 11
9290.057999418428
 21
2089.988104552483
 31
0.0
  0
LINE
  5
17B54
330
747D
100
AcDbEntity
  8
部品1
100
AcDbLine
 10
9080.058007603843
 20
3822.98810455248
 30
0.0
 11
9080.058007603843
 21
2089.988104552487
 31
0.0
  0
LINE
  5
17B55
330
747D
100
AcDbEntity
  8
部品1
100
AcDbLine
 10
9030.058007603845
 20
3822.98810455248
 30
0.0
 11
9030.058007603845
 21
2089.988104552487
 31
0.0
  0
LINE
  5
17B56
330
747D
100
AcDbEntity
  8
細線
100
AcDbLine
 10
9072.058007603844
 20
3822.98810455248
 30
0.0
 11
9072.058007603844
 21
2089.988104552487
 31
0.0
  0
LINE
  5
17B57
330
747D
100
AcDbEntity
  8
細線
100
AcDbLine
 10
9038.058007603844
 20
3822.98810455248
 30
0.0
 11
9038.058007603844
 21
2089.988104552487
 31
0.0
  0
LINE
  5
17B58
330
747D
100
AcDbEntity
  8
細線
100
AcDbLine
 10
9949.058007603843
 20
3822.98810455248
 30
0.0
 11
9949.058007603845
 21
2097.488104552494
 31
0.0
  0
LINE
  5
17B59
330
747D
100
AcDbEntity
  8
細線
100
AcDbLine
 10
9879.058007603843
 20
3822.98810455248
 30
0.0
 11
9879.058007603845
 21
2097.488104552494
 31
0.0
  0
LINE
  5
17B5A
330
747D
100
AcDbEntity
  8
細線
100
AcDbLine
 10
9809.058007603843
 20
3822.98810455248
 30
0.0
 11
9809.058007603844
 21
2097.488104552494
 31
0.0
  0
LINE
  5
17B5B
330
747D
100
AcDbEntity
  8
細線
100
AcDbLine
 10
9739.058007603842
 20
3822.98810455248
 30
0.0
 11
9739.058007603844
 21
2097.488104552494
 31
0.0
  0
LINE
  5
17B5C
330
747D
100
AcDbEntity
  8
細線
100
AcDbLine
 10
10467.05800760384
 20
3822.988104552469
 30
0.0
 11
10467.05800760384
 21
2097.488104552487
 31
0.0
  0
LINE
  5
17B5D
330
747D
100
AcDbEntity
  8
細線
100
AcDbLine
 10
10397.05800760384
 20
3822.988104552469
 30
0.0
 11
10397.05800760384
 21
2097.488104552487
 31
0.0
  0
LINE
  5
17B5E
330
747D
100
AcDbEntity
  8
細線
100
AcDbLine
 10
10327.05800760384
 20
3822.988104552469
 30
0.0
 11
10327.05800760384
 21
2097.488104552487
 31
0.0
  0
LINE
  5
17B5F
330
747D
100
AcDbEntity
  8
細線
100
AcDbLine
 10
9220.057999418427
 20
3822.98810455248
 30
0.0
 11
9220.057999418427
 21
2089.988104552483
 31
0.0
  0
LINE
  5
17B60
330
747D
100
AcDbEntity
  8
細線
100
AcDbLine
 10
9669.058007603844
 20
3822.98810455248
 30
0.0
 11
9669.058007603844
 21
2097.488104552494
 31
0.0
  0
LINE
  5
17B61
330
747D
100
AcDbEntity
  8
細線
100
AcDbLine
 10
9599.058007603842
 20
3822.98810455248
 30
0.0
 11
9599.058007603844
 21
2097.488104552494
 31
0.0
  0
LINE
  5
17B62
330
747D
100
AcDbEntity
  8
細線
100
AcDbLine
 10
10257.05800760384
 20
3822.988104552469
 30
0.0
 11
10257.05800760384
 21
2097.488104552487
 31
0.0
  0
LINE
  5
17B63
330
747D
100
AcDbEntity
  8
細線
100
AcDbLine
 10
10117.05804292273
 20
3822.988104552469
 30
0.0
 11
10117.05804292273
 21
2097.488104552487
 31
0.0
  0
LINE
  5
17B64
330
747D
100
AcDbEntity
  8
細線
100
AcDbLine
 10
10187.05804292274
 20
3822.988104552469
 30
0.0
 11
10187.05804292274
 21
2097.488104552487
 31
0.0
  0
LINE
  5
17B66
330
747D
100
AcDbEntity
  8
部品1
100
AcDbLine
 10
10614.05800760387
 20
7422.511421506385
 30
0.0
 11
10642.05800760387
 21
7422.511421506385
 31
0.0
  0
LINE
  5
17B67
330
747D
100
AcDbEntity
  8
部品1
100
AcDbLine
 10
8880.058007603846
 20
7422.511421506257
 30
0.0
 11
8852.058007603845
 21
7422.511421506257
 31
0.0
  0
DIMENSION
  5
17B68
330
747D
100
AcDbEntity
  8
寸法
100
AcDbDimension
  2
*D2
 10
8907.058007603868
 20
10174.31844831449
 30
0.0
 11
8543.572726229591
 21
10174.31844831449
 31
0.0
 70
   160
 71
     5
 42
55.00000000003637
  3
INABA_S40G
100
AcDbAlignedDimension
 13
8852.058007603831
 23
9577.511421506288
 33
0.0
 14
8907.058007603868
 24
9577.511421506288
 34
0.0
100
AcDbRotatedDimension
1001
ACAD
1000
DSTYLE
1002
{
1002
}
  0
LINE
  5
17B69
330
747D
100
AcDbEntity
  8
部品1
100
AcDbLine
 10
8907.058007603831
 20
9577.511421506256
 30
0.0
 11
8907.058007603835
 21
9549.511421506256
 31
0.0
  0
LINE
  5
17B6A
330
747D
100
AcDbEntity
  8
部品1
100
AcDbLine
 10
8852.058007603831
 20
9577.511421506256
 30
0.0
 11
8852.058007603861
 21
6947.511421506245
 31
0.0
  0
LINE
  5
17B6B
330
747D
100
AcDbEntity
  8
部品1
100
AcDbLine
 10
10587.05800760387
 20
9577.511421506383
 30
0.0
 11
10587.05800760387
 21
9549.511421506382
 31
0.0
  0
LINE
  5
17B6C
330
747D
100
AcDbEntity
  8
部品1
100
AcDbLine
 10
10587.05800760387
 20
9577.511421506402
 30
0.0
 11
10587.05800760387
 21
9549.511421506402
 31
0.0
  0
DIMENSION
  5
17B6D
330
747D
100
AcDbEntity
  8
寸法
100
AcDbDimension
  2
*D3
 10
11654.59129507792
 20
6947.511421506373
 30
0.0
 11
11654.59129507792
 21
8262.511421506378
 31
0.0
 70
   160
 71
     5
 42
2630.000000000008
  3
INABA_S40G
100
AcDbAlignedDimension
 13
10642.05800760386
 23
9577.511421506383
 33
0.0
 14
10642.05800760384
 24
6947.511421506373
 34
0.0
 50
90.0
100
AcDbRotatedDimension
1001
ACAD
1000
DSTYLE
1002
{
1002
}
  0
LINE
  5
17B6E
330
747D
100
AcDbEntity
  8
部品1
100
AcDbLine
 10
10642.05800760386
 20
9577.511421506383
 30
0.0
 11
10642.05800760384
 21
6947.511421506373
 31
0.0
  0
LINE
  5
17B6F
330
747D
100
AcDbEntity
  8
部品1
100
AcDbLine
 10
10167.05800760387
 20
9577.511421506402
 30
0.0
 11
10167.05800760387
 21
9549.511421506402
 31
0.0
  0
LINE
  5
17B70
330
747D
100
AcDbEntity
  8
部品1
100
AcDbLine
 10
9327.058007603868
 20
9577.511421506402
 30
0.0
 11
9327.058007603868
 21
9549.511421506402
 31
0.0
  0
LINE
  5
17B71
330
747D
100
AcDbEntity
  8
部品1
100
AcDbLine
 10
9327.058007603868
 20
9577.511421506285
 30
0.0
 11
9327.058007603868
 21
9549.511421506286
 31
0.0
  0
LINE
  5
17B72
330
747D
100
AcDbEntity
  8
部品1
100
AcDbLine
 10
9327.058007603868
 20
9577.511421506288
 30
0.0
 11
9327.058007603868
 21
9549.511421506288
 31
0.0
  0
LINE
  5
17B73
330
747D
100
AcDbEntity
  8
部品1
100
AcDbLine
 10
8907.058007603868
 20
9577.511421506288
 30
0.0
 11
8907.058007603868
 21
9549.511421506288
 31
0.0
  0
DIMENSION
  5
17B74
330
747D
100
AcDbEntity
  8
寸法
100
AcDbDimension
  2
*D4
 10
11289.48435333828
 20
9522.511421506385
 30
0.0
 11
11289.48435333827
 21
9885.996702880623
 31
0.0
 70
   160
 71
     5
 42
54.99999999999636
  3
INABA_S40G
100
AcDbAlignedDimension
 13
10642.05800760386
 23
9577.511421506383
 33
0.0
 14
10642.05800760386
 24
9522.511421506385
 34
0.0
 50
90.0
100
AcDbRotatedDimension
1001
ACAD
1000
DSTYLE
1002
{
1002
}
  0
DIMENSION
  5
17B75
330
747D
100
AcDbEntity
  8
寸法
100
AcDbDimension
  2
*D5
 10
11289.48435333825
 20
6947.511421506373
 30
0.0
 11
11289.48435333825
 21
6569.649954601512
 31
0.0
 70
   160
 71
     5
 42
54.99999999999636
  3
INABA_S40G
100
AcDbAlignedDimension
 13
10642.05800760384
 23
7002.511421506369
 33
0.0
 14
10642.05800760384
 24
6947.511421506373
 34
0.0
 50
90.0
100
AcDbRotatedDimension
1001
ACAD
1000
DSTYLE
1002
{
1002
}
  0
DIMENSION
  5
17B76
330
747D
100
AcDbEntity
  8
寸法
100
AcDbDimension
  2
*D6
 10
11289.48435333828
 20
7002.511421506369
 30
0.0
 11
11289.48435333828
 21
8262.511421506379
 31
0.0
 70
   160
  1
6X420=<>
 71
     5
 42
2520.000000000016
  3
INABA_S40G
100
AcDbAlignedDimension
 13
10642.05800760386
 23
9522.511421506385
 33
0.0
 14
10642.05800760384
 24
7002.511421506369
 34
0.0
 50
90.0
100
AcDbRotatedDimension
1001
ACAD
1000
DSTYLE
1002
{
1002
}
  0
LINE
  5
17B79
330
747D
100
AcDbEntity
  8
部品1
100
AcDbLine
 10
8880.058007603869
 20
9549.511421506405
 30
0.0
 11
9747.058007603868
 21
9549.511421506402
 31
0.0
  0
LINE
  5
17B7A
330
747D
100
AcDbEntity
  8
部品1
100
AcDbLine
 10
8880.058007603839
 20
6975.511421506211
 30
0.0
 11
8880.058007603869
 21
9549.511421506288
 31
0.0
  0
LINE
  5
17B7B
330
747D
100
AcDbEntity
  8
部品1
100
AcDbLine
 10
8880.058007603846
 20
8682.511421506257
 30
0.0
 11
8852.058007603845
 21
8682.511421506257
 31
0.0
  0
LINE
  5
17B7C
330
747D
100
AcDbEntity
  8
部品1
100
AcDbLine
 10
8880.058007603842
 20
9102.511421506257
 30
0.0
 11
8852.058007603842
 21
9102.511421506257
 31
0.0
  0
LINE
  5
17B7D
330
747D
100
AcDbEntity
  8
部品1
100
AcDbLine
 10
8880.058007603835
 20
9522.511421506258
 30
0.0
 11
8852.058007603835
 21
9522.511421506258
 31
0.0
  0
LINE
  5
17B7E
330
747D
100
AcDbEntity
  8
部品1
100
AcDbLine
 10
10614.05800760387
 20
9549.511421506382
 30
0.0
 11
10614.05800760385
 21
8275.011421506347
 31
0.0
  0
LINE
  5
17B7F
330
747D
100
AcDbEntity
  8
部品1
100
AcDbLine
 10
10614.05800760387
 20
8682.511421506386
 30
0.0
 11
10642.05800760387
 21
8682.511421506386
 31
0.0
  0
LINE
  5
17B80
330
747D
100
AcDbEntity
  8
部品1
100
AcDbLine
 10
9747.058007603868
 20
9549.5114215064
 30
0.0
 11
10614.05800760387
 21
9549.511421506382
 31
0.0
  0
LINE
  5
17B81
330
747D
100
AcDbEntity
  8
部品1
100
AcDbLine
 10
10614.05800760387
 20
9102.511421506386
 30
0.0
 11
10642.05800760386
 21
9102.511421506386
 31
0.0
  0
LINE
  5
17B82
330
747D
100
AcDbEntity
  8
部品1
100
AcDbLine
 10
10614.05800760387
 20
9522.511421506385
 30
0.0
 11
10642.05800760386
 21
9522.511421506385
 31
0.0
  0
DIMENSION
  5
17B83
330
747D
100
AcDbEntity
  8
寸法
100
AcDbDimension
  2
*D7
 10
10642.05800760386
 20
10174.31844831459
 30
0.0
 11
10950.5432889781
 21
10174.31844831459
 31
0.0
 70
   160
 71
     5
 42
55.0
  3
INABA_S40G
100
AcDbAlignedDimension
 13
10587.05800760387
 23
9577.511421506383
 33
0.0
 14
10642.05800760386
 24
9577.511421506383
 34
0.0
100
AcDbRotatedDimension
1001
ACAD
1000
DSTYLE
1002
{
1002
}
  0
LINE
  5
17B84
330
747D
100
AcDbEntity
  8
部品1
100
AcDbLine
 10
8852.058007603869
 20
9577.511421506288
 30
0.0
 11
10642.05800760386
 21
9577.511421506383
 31
0.0
  0
DIMENSION
  5
17B85
330
747D
100
AcDbEntity
  8
寸法
100
AcDbDimension
  2
*D8
 10
10587.05800760387
 20
10174.31844831461
 30
0.0
 11
9747.058007603866
 21
10174.31844831461
 31
0.0
 70
   160
  1
4X420=<>
 71
     5
 42
1680.0
  3
INABA_S40G
100
AcDbAlignedDimension
 13
8907.058007603868
 23
9577.511421506288
 33
0.0
 14
10587.05800760387
 24
9577.511421506383
 34
0.0
100
AcDbRotatedDimension
1001
ACAD
1000
DSTYLE
1002
{
1002
}
  0
LINE
  5
17B89
330
747D
100
AcDbEntity
  8
部品1
100
AcDbLine
 10
10162.05800760391
 20
7004.011421506344
 30
0.0
 11
8908.558007603758
 21
7004.011421506273
 31
0.0
  0
LINE
  5
17B8B
330
747D
100
AcDbEntity
  8
破線
 48
10.0
100
AcDbLine
 10
10162.05800760391
 20
7027.511421506344
 30
0.0
 11
8932.058007603849
 21
7027.511421506272
 31
0.0
  0
LINE
  5
17B8C
330
747D
100
AcDbEntity
  8
部品1
 48
50.0
100
AcDbLine
 10
10612.05800760391
 20
6977.511421506298
 30
0.0
 11
10614.05800760384
 21
6975.51142150637
 31
0.0
  0
LINE
  5
17B8D
330
747D
100
AcDbEntity
  8
部品1
100
AcDbLine
 10
8908.558007603842
 20
9521.011421506473
 30
0.0
 11
8908.558007603856
 21
7004.011421506371
 31
0.0
  0
LINE
  5
17B8E
330
747D
100
AcDbEntity
  8
破線
 48
10.0
100
AcDbLine
 10
8932.058007603837
 20
9497.511421506493
 30
0.0
 11
8932.058007603842
 21
8703.011421506301
 31
0.0
  0
LINE
  5
17B8F
330
747D
100
AcDbEntity
  8
部品1
 48
50.0
100
AcDbLine
 10
8908.558007603854
 20
7004.011421506368
 30
0.0
 11
8880.058007603853
 21
6975.51142150637
 31
0.0
  0
LINE
  5
17B90
330
747D
100
AcDbEntity
  8
部品1
100
AcDbLine
 10
10614.05800760387
 20
7002.511421506113
 30
0.0
 11
10642.05800760386
 21
7002.511421506113
 31
0.0
  0
LINE
  5
17B91
330
747D
100
AcDbEntity
  8
部品1
100
AcDbLine
 10
8880.058007603835
 20
7002.51142150624
 30
0.0
 11
8852.058007603835
 21
7002.51142150624
 31
0.0
  0
LINE
  5
17B92
330
747D
100
AcDbEntity
  8
部品1
 48
50.0
100
AcDbLine
 10
8852.058007603861
 20
6947.511421506209
 30
0.0
 11
8907.058007603831
 21
6947.511421506215
 31
0.0
  0
LINE
  5
17B93
330
747D
100
AcDbEntity
  8
部品1
 48
50.0
100
AcDbLine
 10
8880.058007603839
 20
6975.511421506211
 30
0.0
 11
10614.05800760384
 21
6975.51142150637
 31
0.0
  0
LINE
  5
17B94
330
747D
100
AcDbEntity
  8
部品1
 48
50.0
100
AcDbLine
 10
10587.05800760387
 20
6947.511421506368
 30
0.0
 11
10642.05800760384
 21
6947.511421506373
 31
0.0
  0
LINE
  5
17B95
330
747D
100
AcDbEntity
  8
部品1
 48
50.0
100
AcDbLine
 10
8907.058007603831
 20
6947.511421506215
 30
0.0
 11
8907.058007603835
 21
6975.511421506211
 31
0.0
  0
LINE
  5
17B96
330
747D
100
AcDbEntity
  8
部品1
 48
50.0
100
AcDbLine
 10
10587.05800760383
 20
6947.511421506368
 30
0.0
 11
10587.05800760383
 21
6975.511421506368
 31
0.0
  0
TEXT
  5
180E0
330
747D
100
AcDbEntity
  8
部品1
100
AcDbText
 10
3084.056862181635
 20
1976.095008158388
 30
0.0
 40
125.0
  1
▽G.L
  7
STYLE2
100
AcDbText
  0
TEXT
  5
180E1
330
747D
100
AcDbEntity
  8
部品1
100
AcDbText
 10
5172.671746575979
 20
1092.26797188948
 30
0.0
 40
135.0
  1
側面図
  7
STYLE2
100
AcDbText
  0
LINE
  5
180E2
330
747D
100
AcDbEntity
  8
部品1
100
AcDbLine
 10
5083.225645152372
 20
1285.161501108005
 30
0.0
 11
5083.225645152372
 21
1045.269179562472
 31
0.0
  0
LINE
  5
180E3
330
747D
100
AcDbEntity
  8
部品1
100
AcDbLine
 10
5083.225645152372
 20
1045.269179562472
 30
0.0
 11
5846.696311380816
 21
1045.269179562472
 31
0.0
  0
LINE
  5
180E4
330
747D
100
AcDbEntity
  8
部品1
100
AcDbLine
 10
5846.696311380816
 20
1045.269179562472
 30
0.0
 11
5846.696311380816
 21
1285.161501108005
 31
0.0
  0
LINE
  5
180E5
330
747D
100
AcDbEntity
  8
部品1
100
AcDbLine
 10
5846.696311380816
 20
1285.161501108005
 30
0.0
 11
5083.225645152372
 21
1285.161501108005
 31
0.0
  0
LINE
  5
180E6
330
747D
100
AcDbEntity
  8
部品1
100
AcDbLine
 10
6762.460978266595
 20
2039.988104552486
 30
0.0
 11
6769.960978266595
 21
2039.988104552486
 31
0.0
  0
LINE
  5
180E7
330
747D
100
AcDbEntity
  8
部品1
100
AcDbLine
 10
4139.960978266594
 20
2039.988104552486
 30
0.0
 11
4147.460978266593
 21
2039.988104552486
 31
0.0
  0
LINE
  5
180E8
330
747D
100
AcDbEntity
  8
部品1
100
AcDbLine
 10
4139.960978266594
 20
2039.988104552486
 30
0.0
 11
4147.460978266593
 21
2039.988104552486
 31
0.0
  0
LINE
  5
180E9
330
747D
100
AcDbEntity
  8
破線
  6
HIDDEN
 48
5.0
100
AcDbLine
 10
6777.460978266596
 20
1784.988104552486
 30
0.0
 11
6707.460978266595
 21
1784.988104552486
 31
0.0
  0
LINE
  5
180EA
330
747D
100
AcDbEntity
  8
破線
  6
HIDDEN
 48
5.0
100
AcDbLine
 10
6722.460978266596
 20
1934.988104552486
 30
0.0
 11
6707.460978266595
 21
1787.288104552485
 31
0.0
  0
LINE
  5
180EB
330
747D
100
AcDbEntity
  8
破線
  6
HIDDEN
 48
5.0
100
AcDbLine
 10
6707.460978266595
 20
1787.288104552485
 30
0.0
 11
6707.460978266595
 21
1784.988104552486
 31
0.0
  0
LINE
  5
180EC
330
747D
100
AcDbEntity
  8
破線
  6
HIDDEN
 48
5.0
100
AcDbLine
 10
6762.460978266595
 20
1934.988104552486
 30
0.0
 11
6777.460978266596
 21
1787.288104552485
 31
0.0
  0
LINE
  5
180ED
330
747D
100
AcDbEntity
  8
破線
  6
HIDDEN
 48
5.0
100
AcDbLine
 10
6777.460978266596
 20
1787.288104552485
 30
0.0
 11
6777.460978266596
 21
1784.988104552486
 31
0.0
  0
LINE
  5
180EE
330
747D
100
AcDbEntity
  8
破線
  6
HIDDEN
 48
5.0
100
AcDbLine
 10
4132.460978266593
 20
1784.988104552486
 30
0.0
 11
4202.460978266594
 21
1784.988104552486
 31
0.0
  0
LINE
  5
180EF
330
747D
100
AcDbEntity
  8
破線
  6
HIDDEN
 48
5.0
100
AcDbLine
 10
4132.460978266593
 20
1787.288104552485
 30
0.0
 11
4132.460978266593
 21
1784.988104552486
 31
0.0
  0
LINE
  5
180F0
330
747D
100
AcDbEntity
  8
破線
  6
HIDDEN
 48
5.0
100
AcDbLine
 10
4202.460978266594
 20
1787.288104552485
 30
0.0
 11
4202.460978266594
 21
1784.988104552486
 31
0.0
  0
LINE
  5
180F1
330
747D
100
AcDbEntity
  8
破線
  6
HIDDEN
 48
5.0
100
AcDbLine
 10
4147.460978266593
 20
1934.988104552486
 30
0.0
 11
4132.460978266593
 21
1787.288104552485
 31
0.0
  0
LINE
  5
180F2
330
747D
100
AcDbEntity
  8
破線
  6
HIDDEN
 48
5.0
100
AcDbLine
 10
4187.460978266594
 20
1934.988104552486
 30
0.0
 11
4202.460978266594
 21
1787.288104552485
 31
0.0
  0
LINE
  5
180F3
330
747D
100
AcDbEntity
  8
部品1
 48
50.0
100
AcDbLine
 10
4147.460978266593
 20
2079.988104552486
 30
0.0
 11
4147.460978266593
 21
1939.988104552486
 31
0.0
  0
LINE
  5
180F4
330
747D
100
AcDbEntity
  8
部品1
 48
50.0
100
AcDbLine
 10
4187.460978266594
 20
2079.988104552486
 30
0.0
 11
4187.460978266594
 21
1939.988104552486
 31
0.0
  0
LINE
  5
180F5
330
747D
100
AcDbEntity
  8
部品1
100
AcDbLine
 10
4152.460978266594
 20
2084.988104552486
 30
0.0
 11
4182.460978266593
 21
2084.988104552486
 31
0.0
  0
ARC
  5
180F6
330
747D
100
AcDbEntity
  8
部品1
 48
50.0
100
AcDbCircle
 10
4152.460978266594
 20
2079.988104552486
 30
0.0
 40
5.0
100
AcDbArc
 50
90.0
 51
180.0
  0
ARC
  5
180F7
330
747D
100
AcDbEntity
  8
部品1
 48
50.0
100
AcDbCircle
 10
4182.460978266593
 20
2079.988104552486
 30
0.0
 40
5.0
100
AcDbArc
 50
0.0
 51
90.0
  0
LINE
  5
180F8
330
747D
100
AcDbEntity
  8
部品1
 48
50.0
100
AcDbLine
 10
6722.460978266596
 20
2079.988104552486
 30
0.0
 11
6722.460978266596
 21
1939.988104552486
 31
0.0
  0
LINE
  5
180F9
330
747D
100
AcDbEntity
  8
部品1
 48
50.0
100
AcDbLine
 10
6762.460978266595
 20
2079.988104552486
 30
0.0
 11
6762.460978266595
 21
1939.988104552486
 31
0.0
  0
LINE
  5
180FA
330
747D
100
AcDbEntity
  8
部品1
100
AcDbLine
 10
6757.460978266596
 20
2084.988104552486
 30
0.0
 11
6727.460978266596
 21
2084.988104552486
 31
0.0
  0
ARC
  5
180FB
330
747D
100
AcDbEntity
  8
部品1
 48
50.0
100
AcDbCircle
 10
6727.460978266596
 20
2079.988104552486
 30
0.0
 40
5.0
100
AcDbArc
 50
90.0
 51
180.0
  0
ARC
  5
180FC
330
747D
100
AcDbEntity
  8
部品1
 48
50.0
100
AcDbCircle
 10
6757.460978266596
 20
2079.988104552486
 30
0.0
 40
5.0
100
AcDbArc
 50
0.0
 51
90.0
  0
LINE
  5
180FD
330
747D
100
AcDbEntity
  8
破線
  6
HIDDEN
 48
5.0
100
AcDbLine
 10
6722.460978266596
 20
1939.988104552486
 30
0.0
 11
6722.460978266596
 21
1934.988104552486
 31
0.0
  0
LINE
  5
180FE
330
747D
100
AcDbEntity
  8
破線
  6
HIDDEN
 48
5.0
100
AcDbLine
 10
6762.460978266595
 20
1939.988104552486
 30
0.0
 11
6762.460978266595
 21
1934.988104552486
 31
0.0
  0
LINE
  5
180FF
330
747D
100
AcDbEntity
  8
破線
  6
HIDDEN
 48
5.0
100
AcDbLine
 10
4147.460978266601
 20
1939.988104552486
 30
0.0
 11
4147.460978266601
 21
1934.988104552486
 31
0.0
  0
LINE
  5
18100
330
747D
100
AcDbEntity
  8
破線
  6
HIDDEN
 48
5.0
100
AcDbLine
 10
4187.460978266594
 20
1939.988104552486
 30
0.0
 11
4187.460978266594
 21
1934.988104552486
 31
0.0
  0
LINE
  5
18101
330
747D
100
AcDbEntity
  8
部品1
100
AcDbLine
 10
6762.460978266595
 20
2039.988104552486
 30
0.0
 11
6769.960978266595
 21
2039.988104552486
 31
0.0
  0
DIMENSION
  5
18102
330
747D
100
AcDbEntity
  8
寸法
 48
50.0
100
AcDbDimension
  2
*D22
 10
3917.960975019961
 20
1939.988104552484
 30
0.0
 11
3917.96097501996
 21
1839.988104552485
 31
0.0
 70
   160
 71
     5
 42
200.0
  3
INABA_S40G
100
AcDbAlignedDimension
 13
4067.460978266594
 23
1739.988104552484
 33
0.0
 14
4042.460978266594
 24
1939.988104552484
 34
0.0
 50
90.0
100
AcDbRotatedDimension
1001
ACAD
1000
DSTYLE
1002
{
1070
   174
1070
     0
1070
   272
1070
     1
1070
   288
1070
     0
1070
   341
1005
0
1002
}
  0
LINE
  5
18103
330
747D
100
AcDbEntity
  8
破線
 48
5.0
100
AcDbLine
 10
4267.460978266593
 20
1739.988104552482
 30
0.0
 11
4067.460978266594
 21
1739.988104552482
 31
0.0
  0
LINE
  5
18104
330
747D
100
AcDbEntity
  8
破線
 48
5.0
100
AcDbLine
 10
4267.460978266593
 20
1939.988104552486
 30
0.0
 11
4267.460978266593
 21
1739.988104552482
 31
0.0
  0
LINE
  5
18105
330
747D
100
AcDbEntity
  8
破線
 48
5.0
100
AcDbLine
 10
4067.460978266594
 20
1939.988104552486
 30
0.0
 11
4067.460978266594
 21
1739.988104552482
 31
0.0
  0
DIMENSION
  5
18106
330
747D
100
AcDbEntity
  8
寸法
 48
50.0
100
AcDbDimension
  2
*D23
 10
4067.460978266594
 20
1453.940775252106
 30
0.0
 11
4167.460978266594
 21
1453.940775252106
 31
0.0
 70
   160
 71
     5
 42
200.0
  3
INABA_S40G
100
AcDbAlignedDimension
 13
4267.460978266593
 23
1739.988104552482
 33
0.0
 14
4067.460978266594
 24
1739.988104552484
 34
0.0
100
AcDbRotatedDimension
  0
LINE
  5
18107
330
747D
100
AcDbEntity
  8
破線
 48
5.0
100
AcDbLine
 10
6842.460978266602
 20
1939.988104552486
 30
0.0
 11
6842.460978266595
 21
1739.988104552482
 31
0.0
  0
LINE
  5
18108
330
747D
100
AcDbEntity
  8
破線
 48
5.0
100
AcDbLine
 10
6842.460978266595
 20
1739.988104552482
 30
0.0
 11
6642.460978266601
 21
1739.988104552486
 31
0.0
  0
LINE
  5
18109
330
747D
100
AcDbEntity
  8
破線
 48
5.0
100
AcDbLine
 10
6642.460978266601
 20
1939.988104552486
 30
0.0
 11
6642.460978266601
 21
1739.988104552486
 31
0.0
  0
LINE
  5
1810A
330
747D
100
AcDbEntity
  8
部品1
 48
50.0
100
AcDbLine
 10
6769.960978266595
 20
3874.988104552485
 30
0.0
 11
6846.960978266595
 21
3864.988104552486
 31
0.0
  0
LINE
  5
1810B
330
747D
100
AcDbEntity
  8
部品1
 48
50.0
100
AcDbLine
 10
6846.960978266595
 20
3864.988104552486
 30
0.0
 11
6846.960978266595
 21
1939.988104552486
 31
0.0
  0
LINE
  5
1810C
330
747D
100
AcDbEntity
  8
部品1
 48
50.0
100
AcDbLine
 10
6846.960978266595
 20
2039.988104552486
 30
0.0
 11
6762.460978266595
 21
2039.988104552486
 31
0.0
  0
LINE
  5
1810D
330
747D
100
AcDbEntity
  8
部品1
100
AcDbLine
 10
6569.960978266594
 20
2039.988104552486
 30
0.0
 11
6569.960978266594
 21
1939.988104552486
 31
0.0
  0
LINE
  5
1810E
330
747D
100
AcDbEntity
  8
部品1
100
AcDbLine
 10
4339.960978266594
 20
2039.988104552486
 30
0.0
 11
4339.960978266594
 21
1939.988104552486
 31
0.0
  0
LINE
  5
1810F
330
747D
100
AcDbEntity
  8
細線
 48
50.0
100
AcDbLine
 10
6637.460978266601
 20
3879.988104552487
 30
0.0
 11
6637.460978266601
 21
2089.988104552487
 31
0.0
  0
LINE
  5
18110
330
747D
100
AcDbEntity
  8
細線
 48
50.0
100
AcDbLine
 10
6652.460978266602
 20
3879.988104552487
 30
0.0
 11
6652.460978266602
 21
2089.988104552487
 31
0.0
  0
LINE
  5
18111
330
747D
100
AcDbEntity
  8
細線
 48
50.0
100
AcDbLine
 10
6512.460978266601
 20
3879.988104552487
 30
0.0
 11
6512.460978266601
 21
2089.988104552487
 31
0.0
  0
LINE
  5
18112
330
747D
100
AcDbEntity
  8
細線
 48
50.0
100
AcDbLine
 10
6497.460978266601
 20
3879.988104552487
 30
0.0
 11
6497.460978266601
 21
2089.988104552487
 31
0.0
  0
LINE
  5
18113
330
747D
100
AcDbEntity
  8
細線
 48
50.0
100
AcDbLine
 10
6357.460978266601
 20
3879.988104552487
 30
0.0
 11
6357.460978266601
 21
2089.988104552487
 31
0.0
  0
LINE
  5
18114
330
747D
100
AcDbEntity
  8
細線
 48
50.0
100
AcDbLine
 10
6372.460978266602
 20
3879.988104552487
 30
0.0
 11
6372.460978266602
 21
2089.988104552487
 31
0.0
  0
LINE
  5
18115
330
747D
100
AcDbEntity
  8
部品1
100
AcDbLine
 10
5454.960978266594
 20
3879.988104552486
 30
0.0
 11
5454.960978266594
 21
2089.988104552486
 31
0.0
  0
LINE
  5
18116
330
747D
100
AcDbEntity
  8
細線
 48
50.0
100
AcDbLine
 10
5112.460978266594
 20
3879.988104552486
 30
0.0
 11
5112.460978266594
 21
2089.988104552486
 31
0.0
  0
LINE
  5
18117
330
747D
100
AcDbEntity
  8
細線
 48
50.0
100
AcDbLine
 10
5097.460978266593
 20
3879.988104552486
 30
0.0
 11
5097.460978266593
 21
2089.988104552486
 31
0.0
  0
LINE
  5
18118
330
747D
100
AcDbEntity
  8
細線
 48
50.0
100
AcDbLine
 10
5237.460978266594
 20
3879.988104552486
 30
0.0
 11
5237.460978266594
 21
2089.988104552486
 31
0.0
  0
LINE
  5
18119
330
747D
100
AcDbEntity
  8
細線
 48
50.0
100
AcDbLine
 10
5252.460978266594
 20
3879.988104552486
 30
0.0
 11
5252.460978266594
 21
2089.988104552486
 31
0.0
  0
LINE
  5
1811A
330
747D
100
AcDbEntity
  8
細線
 48
50.0
100
AcDbLine
 10
5392.460978266594
 20
3879.988104552486
 30
0.0
 11
5392.460978266594
 21
2089.988104552486
 31
0.0
  0
LINE
  5
1811B
330
747D
100
AcDbEntity
  8
細線
 48
50.0
100
AcDbLine
 10
5377.460978266594
 20
3879.988104552486
 30
0.0
 11
5377.460978266594
 21
2089.988104552486
 31
0.0
  0
LINE
  5
1811C
330
747D
100
AcDbEntity
  8
部品1
100
AcDbLine
 10
5034.960978266593
 20
3879.988104552486
 30
0.0
 11
5034.960978266593
 21
2089.988104552486
 31
0.0
  0
LINE
  5
1811D
330
747D
100
AcDbEntity
  8
細線
 48
50.0
100
AcDbLine
 10
4272.460978266593
 20
3879.988104552486
 30
0.0
 11
4272.460978266593
 21
2089.988104552486
 31
0.0
  0
LINE
  5
1811E
330
747D
100
AcDbEntity
  8
細線
 48
50.0
100
AcDbLine
 10
4257.460978266593
 20
3879.988104552486
 30
0.0
 11
4257.460978266593
 21
2089.988104552486
 31
0.0
  0
LINE
  5
1811F
330
747D
100
AcDbEntity
  8
細線
 48
50.0
100
AcDbLine
 10
4397.460978266593
 20
3879.988104552486
 30
0.0
 11
4397.460978266593
 21
2089.988104552486
 31
0.0
  0
LINE
  5
18120
330
747D
100
AcDbEntity
  8
細線
 48
50.0
100
AcDbLine
 10
4412.460978266594
 20
3879.988104552486
 30
0.0
 11
4412.460978266594
 21
2089.988104552486
 31
0.0
  0
LINE
  5
18121
330
747D
100
AcDbEntity
  8
細線
 48
50.0
100
AcDbLine
 10
4552.460978266593
 20
3879.988104552486
 30
0.0
 11
4552.460978266593
 21
2089.988104552486
 31
0.0
  0
LINE
  5
18122
330
747D
100
AcDbEntity
  8
細線
 48
50.0
100
AcDbLine
 10
4537.460978266594
 20
3879.988104552486
 30
0.0
 11
4537.460978266594
 21
2089.988104552486
 31
0.0
  0
LINE
  5
18123
330
747D
100
AcDbEntity
  8
細線
 48
50.0
100
AcDbLine
 10
4957.460978266594
 20
3879.988104552486
 30
0.0
 11
4957.460978266594
 21
2089.988104552486
 31
0.0
  0
LINE
  5
18124
330
747D
100
AcDbEntity
  8
細線
 48
50.0
100
AcDbLine
 10
4972.460978266593
 20
3879.988104552486
 30
0.0
 11
4972.460978266593
 21
2089.988104552486
 31
0.0
  0
LINE
  5
18125
330
747D
100
AcDbEntity
  8
細線
 48
50.0
100
AcDbLine
 10
4832.460978266594
 20
3879.988104552486
 30
0.0
 11
4832.460978266594
 21
2089.988104552486
 31
0.0
  0
LINE
  5
18126
330
747D
100
AcDbEntity
  8
細線
 48
50.0
100
AcDbLine
 10
4817.460978266594
 20
3879.988104552486
 30
0.0
 11
4817.460978266594
 21
2089.988104552486
 31
0.0
  0
LINE
  5
18127
330
747D
100
AcDbEntity
  8
細線
 48
50.0
100
AcDbLine
 10
4677.460978266593
 20
3879.988104552486
 30
0.0
 11
4677.460978266593
 21
2089.988104552486
 31
0.0
  0
LINE
  5
18128
330
747D
100
AcDbEntity
  8
細線
 48
50.0
100
AcDbLine
 10
4692.460978266594
 20
3879.988104552486
 30
0.0
 11
4692.460978266594
 21
2089.988104552486
 31
0.0
  0
LINE
  5
18129
330
747D
100
AcDbEntity
  8
部品1
100
AcDbLine
 10
4139.960978266594
 20
2039.988104552486
 30
0.0
 11
4147.460978266593
 21
2039.988104552486
 31
0.0
  0
LINE
  5
1812A
330
747D
100
AcDbEntity
  8
部品1
100
AcDbLine
 10
6714.960978266596
 20
3879.988104552487
 30
0.0
 11
6714.960978266596
 21
2089.988104552487
 31
0.0
  0
LINE
  5
1812B
330
747D
100
AcDbEntity
  8
部品1
100
AcDbLine
 10
6769.960978266592
 20
3973.988104552491
 30
0.0
 11
6769.960978266595
 21
1939.988104552487
 31
0.0
  0
LINE
  5
1812C
330
747D
100
AcDbEntity
  8
部品1
100
AcDbLine
 10
4614.960978266593
 20
3879.988104552486
 30
0.0
 11
4614.960978266593
 21
2089.988104552486
 31
0.0
  0
LINE
  5
1812D
330
747D
100
AcDbEntity
  8
部品1
100
AcDbLine
 10
4139.960978266594
 20
3973.988104552489
 30
0.0
 11
4139.960978266594
 21
1939.988104552486
 31
0.0
  0
LINE
  5
1812E
330
747D
100
AcDbEntity
  8
部品1
100
AcDbLine
 10
4194.960978266593
 20
3879.988104552486
 30
0.0
 11
4194.960978266593
 21
2089.988104552486
 31
0.0
  0
LINE
  5
1812F
330
747D
100
AcDbEntity
  8
部品1
100
AcDbLine
 10
4139.960978266594
 20
2089.988104552486
 30
0.0
 11
6769.960978266595
 21
2089.988104552487
 31
0.0
  0
LINE
  5
18130
330
747D
100
AcDbEntity
  8
部品1
100
AcDbLine
 10
4139.960978266594
 20
3879.988104552486
 30
0.0
 11
6769.960978266595
 21
3879.988104552486
 31
0.0
  0
LINE
  5
18131
330
747D
100
AcDbEntity
  8
部品1
100
AcDbLine
 10
6294.960978266594
 20
3879.988104552487
 30
0.0
 11
6294.960978266594
 21
2089.988104552487
 31
0.0
  0
LINE
  5
18132
330
747D
100
AcDbEntity
  8
細線
 48
50.0
100
AcDbLine
 10
5797.460978266594
 20
3879.988104552486
 30
0.0
 11
5797.460978266594
 21
2089.988104552486
 31
0.0
  0
LINE
  5
18133
330
747D
100
AcDbEntity
  8
細線
 48
50.0
100
AcDbLine
 10
5812.460978266594
 20
3879.988104552486
 30
0.0
 11
5812.460978266594
 21
2089.988104552486
 31
0.0
  0
LINE
  5
18134
330
747D
100
AcDbEntity
  8
細線
 48
50.0
100
AcDbLine
 10
5672.460978266594
 20
3879.988104552486
 30
0.0
 11
5672.460978266594
 21
2089.988104552486
 31
0.0
  0
LINE
  5
18135
330
747D
100
AcDbEntity
  8
細線
 48
50.0
100
AcDbLine
 10
5657.460978266594
 20
3879.988104552486
 30
0.0
 11
5657.460978266594
 21
2089.988104552486
 31
0.0
  0
LINE
  5
18136
330
747D
100
AcDbEntity
  8
細線
 48
50.0
100
AcDbLine
 10
5517.460978266594
 20
3879.988104552486
 30
0.0
 11
5517.460978266594
 21
2089.988104552486
 31
0.0
  0
LINE
  5
18137
330
747D
100
AcDbEntity
  8
細線
 48
50.0
100
AcDbLine
 10
5532.460978266594
 20
3879.988104552486
 30
0.0
 11
5532.460978266594
 21
2089.988104552486
 31
0.0
  0
LINE
  5
18138
330
747D
100
AcDbEntity
  8
部品1
100
AcDbLine
 10
5874.960978266586
 20
3879.988104552489
 30
0.0
 11
5874.960978266586
 21
2089.988104552488
 31
0.0
  0
LINE
  5
18139
330
747D
100
AcDbEntity
  8
細線
 48
50.0
100
AcDbLine
 10
5952.460978266594
 20
3879.988104552489
 30
0.0
 11
5952.460978266594
 21
2089.988104552488
 31
0.0
  0
LINE
  5
1813A
330
747D
100
AcDbEntity
  8
細線
 48
50.0
100
AcDbLine
 10
5937.460978266594
 20
3879.988104552489
 30
0.0
 11
5937.460978266594
 21
2089.988104552488
 31
0.0
  0
LINE
  5
1813B
330
747D
100
AcDbEntity
  8
細線
 48
50.0
100
AcDbLine
 10
6077.460978266594
 20
3879.988104552489
 30
0.0
 11
6077.460978266594
 21
2089.988104552488
 31
0.0
  0
LINE
  5
1813C
330
747D
100
AcDbEntity
  8
細線
 48
50.0
100
AcDbLine
 10
6092.460978266593
 20
3879.988104552489
 30
0.0
 11
6092.460978266593
 21
2089.988104552488
 31
0.0
  0
LINE
  5
1813D
330
747D
100
AcDbEntity
  8
細線
 48
50.0
100
AcDbLine
 10
6232.460978266594
 20
3879.988104552489
 30
0.0
 11
6232.460978266594
 21
2089.988104552488
 31
0.0
  0
LINE
  5
1813E
330
747D
100
AcDbEntity
  8
細線
 48
50.0
100
AcDbLine
 10
6217.460978266593
 20
3879.988104552489
 30
0.0
 11
6217.460978266593
 21
2089.988104552488
 31
0.0
  0
LINE
  5
1813F
330
747D
100
AcDbEntity
  8
部品1
100
AcDbLine
 10
6762.460978266595
 20
2039.988104552486
 30
0.0
 11
6769.960978266595
 21
2039.988104552486
 31
0.0
  0
LINE
  5
18140
330
747D
100
AcDbEntity
  8
部品1
100
AcDbLine
 10
4187.460978266594
 20
2039.988104552486
 30
0.0
 11
6722.460978266596
 21
2039.988104552486
 31
0.0
  0
LINE
  5
18141
330
747D
100
AcDbEntity
  8
部品1
 48
50.0
100
AcDbLine
 10
5969.960978266594
 20
2039.988104552486
 30
0.0
 11
5969.960978266594
 21
1939.988104552486
 31
0.0
  0
LINE
  5
18142
330
747D
100
AcDbEntity
  8
部品1
 48
50.0
100
AcDbLine
 10
5769.960978266594
 20
2039.988104552486
 30
0.0
 11
5769.960978266594
 21
1939.988104552486
 31
0.0
  0
LINE
  5
18143
330
747D
100
AcDbEntity
  8
部品1
 48
50.0
100
AcDbLine
 10
5139.960978266594
 20
2039.988104552486
 30
0.0
 11
5139.960978266594
 21
1939.988104552486
 31
0.0
  0
LINE
  5
18144
330
747D
100
AcDbEntity
  8
部品1
 48
50.0
100
AcDbLine
 10
4939.960978266594
 20
2039.988104552486
 30
0.0
 11
4939.960978266594
 21
1939.988104552486
 31
0.0
  0
DIMENSION
  5
181CB
330
747D
100
AcDbEntity
  8
寸法
 48
50.0
100
AcDbDimension
  2
*D24
 10
6819.960978266596
 20
4729.202238401209
 30
0.0
 11
5454.960978266594
 21
4729.202238401209
 31
0.0
 70
   160
 71
     5
 42
2730.000000000002
  3
INABA_S40G
100
AcDbAlignedDimension
 13
4089.960978266594
 23
4114.988104552489
 33
0.0
 14
6819.960978266596
 24
4114.988104552486
 34
0.0
100
AcDbRotatedDimension
  0
DIMENSION
  5
181CC
330
747D
100
AcDbEntity
  8
寸法
 48
50.0
100
AcDbDimension
  2
*D25
 10
4089.960978266594
 20
4519.608363979758
 30
0.0
 11
3776.475696892346
 21
4519.608363979758
 31
0.0
 70
   160
 71
     5
 42
50.0
  3
INABA_S40G
100
AcDbAlignedDimension
 13
4139.960978266594
 23
4114.98810455249
 33
0.0
 14
4089.960978266594
 24
4114.988104552489
 34
0.0
100
AcDbRotatedDimension
1001
ACAD
1000
DSTYLE
1002
{
1002
}
  0
DIMENSION
  5
181CD
330
747D
100
AcDbEntity
  8
寸法
 48
50.0
100
AcDbDimension
  2
*D26
 10
4139.960978266594
 20
4519.608363979758
 30
0.0
 11
5454.960978266594
 21
4519.608363979758
 31
0.0
 70
   160
  1
柱外寸法<>
 71
     5
 42
2630.000000000002
  3
INABA_S40G
100
AcDbAlignedDimension
 13
6769.960978266595
 23
4114.988104552489
 33
0.0
 14
4139.960978266594
 24
4114.98810455249
 34
0.0
100
AcDbRotatedDimension
  0
LINE
  5
181CE
330
747D
100
AcDbEntity
  8
部品1
 48
50.0
100
AcDbLine
 10
6812.552557160159
 20
4114.988104552489
 30
0.0
 11
4097.369399373026
 21
4114.98810455249
 31
0.0
  0
LINE
  5
181CF
330
747D
100
AcDbEntity
  8
部品1
 48
50.0
100
AcDbLine
 10
6799.337233699128
 20
3973.988104552491
 30
0.0
 11
4110.584722834057
 21
3973.988104552489
 31
0.0
  0
LINE
  5
181D0
330
747D
100
AcDbEntity
  8
細線
 48
50.0
100
AcDbLine
 10
6817.921440045158
 20
4086.988104552489
 30
0.0
 11
4092.000516488035
 21
4086.988104552487
 31
0.0
  0
LINE
  5
181D1
330
747D
100
AcDbEntity
  8
細線
 48
50.0
100
AcDbLine
 10
6809.685409520307
 20
3994.788104552485
 30
0.0
 11
4100.236547012864
 21
3994.78810455249
 31
0.0
  0
LINE
  5
181D2
330
747D
100
AcDbEntity
  8
細線
 48
50.0
100
AcDbLine
 10
4122.960978266593
 20
4114.988104552489
 30
0.0
 11
4122.960978266593
 21
3973.988104552489
 31
0.0
  0
ARC
  5
181D3
330
747D
100
AcDbEntity
  8
部品1
100
AcDbCircle
 10
4097.369399373026
 20
4107.988104552489
 30
0.0
 40
7.0
100
AcDbArc
 50
90.0
 51
183.2473427903377
  0
ARC
  5
181D4
330
747D
100
AcDbEntity
  8
部品1
100
AcDbCircle
 10
4110.584722834057
 20
3980.988104552491
 30
0.0
 40
7.0
100
AcDbArc
 50
183.2473427903377
 51
270.0
  0
ARC
  5
181D5
330
747D
100
AcDbEntity
  8
部品1
 48
50.0
100
AcDbCircle
 10
4092.212912623384
 20
4087.655103714174
 30
0.0
 40
0.7
100
AcDbArc
 50
183.2473427903897
 51
262.3418727926349
  0
ARC
  5
181D6
330
747D
100
AcDbEntity
  8
部品1
 48
50.0
100
AcDbCircle
 10
4100.448943148221
 20
3995.455103714172
 30
0.0
 40
0.7
100
AcDbArc
 50
183.2473427903377
 51
262.3418727926349
  0
ARC
  5
181D7
330
747D
100
AcDbEntity
  8
部品1
 48
50.0
100
AcDbCircle
 10
4099.95587403966
 20
3991.788104552487
 30
0.0
 40
3.0
100
AcDbArc
 50
3.247342790337682
 51
82.3418727926348
  0
ARC
  5
181D8
330
747D
100
AcDbEntity
  8
部品1
 48
50.0
100
AcDbCircle
 10
4091.719843514816
 20
4083.988104552491
 30
0.0
 40
3.0
100
AcDbArc
 50
3.247342790337682
 51
82.3418727926348
  0
LINE
  5
181D9
330
747D
100
AcDbEntity
  8
部品1
100
AcDbLine
 10
4094.715026411002
 20
4084.158044007592
 30
0.0
 11
4099.750067139117
 21
3995.415451174647
 31
0.0
  0
LINE
  5
181DA
330
747D
100
AcDbEntity
  8
部品1
100
AcDbLine
 10
4102.951056935853
 20
3991.95804400759
 30
0.0
 11
4103.595962742962
 21
3980.59157915725
 31
0.0
  0
LINE
  5
181DB
330
747D
100
AcDbEntity
  8
部品1
100
AcDbLine
 10
4090.380639281923
 20
4107.59157915725
 30
0.0
 11
4091.514036614273
 21
4087.61545117465
 31
0.0
  0
ARC
  5
181DC
330
747D
100
AcDbEntity
  8
部品1
 48
0.01
100
AcDbCircle
 10
5981.960978266594
 20
3943.988104552486
 30
0.0
 40
2.0
100
AcDbArc
 50
90.0
 51
180.0
  0
ARC
  5
181DD
330
747D
100
AcDbEntity
  8
部品1
 48
0.01
100
AcDbCircle
 10
6157.960978266594
 20
3943.988104552486
 30
0.0
 40
2.0
100
AcDbArc
 50
0.0
 51
90.0
  0
LINE
  5
181DE
330
747D
100
AcDbEntity
  8
細線
100
AcDbLine
 10
6069.960978266593
 20
3916.488104552485
 30
0.0
 11
5995.960978266595
 21
3916.488104552485
 31
0.0
  0
LINE
  5
181DF
330
747D
100
AcDbEntity
  8
細線
100
AcDbLine
 10
6069.960978266593
 20
3939.488104552486
 30
0.0
 11
6143.960978266594
 21
3939.488104552486
 31
0.0
  0
LINE
  5
181E0
330
747D
100
AcDbEntity
  8
細線
100
AcDbLine
 10
6143.960978266594
 20
3916.488104552485
 30
0.0
 11
6069.960978266593
 21
3916.488104552485
 31
0.0
  0
LINE
  5
181E1
330
747D
100
AcDbEntity
  8
細線
100
AcDbLine
 10
5995.960978266595
 20
3939.488104552486
 30
0.0
 11
6069.960978266593
 21
3939.488104552486
 31
0.0
  0
LINE
  5
181E2
330
747D
100
AcDbEntity
  8
細線
100
AcDbLine
 10
5995.960978266595
 20
3916.488104552485
 30
0.0
 11
5995.960978266595
 21
3939.488104552486
 31
0.0
  0
LINE
  5
181E3
330
747D
100
AcDbEntity
  8
細線
100
AcDbLine
 10
6143.960978266594
 20
3939.488104552486
 30
0.0
 11
6143.960978266594
 21
3916.488104552485
 31
0.0
  0
LINE
  5
181E4
330
747D
100
AcDbEntity
  8
部品1
 48
0.01
100
AcDbLine
 10
5981.960978266594
 20
3945.988104552485
 30
0.0
 11
6157.960978266594
 21
3945.988104552485
 31
0.0
  0
LINE
  5
181E5
330
747D
100
AcDbEntity
  8
細線
100
AcDbLine
 10
6143.960978266594
 20
3933.488104552485
 30
0.0
 11
6069.960978266593
 21
3933.488104552485
 31
0.0
  0
LINE
  5
181E6
330
747D
100
AcDbEntity
  8
細線
100
AcDbLine
 10
6143.960978266594
 20
3927.488104552486
 30
0.0
 11
6069.960978266593
 21
3927.488104552486
 31
0.0
  0
LINE
  5
181E7
330
747D
100
AcDbEntity
  8
細線
100
AcDbLine
 10
6143.960978266594
 20
3921.488104552486
 30
0.0
 11
6069.960978266593
 21
3921.488104552486
 31
0.0
  0
LINE
  5
181E8
330
747D
100
AcDbEntity
  8
細線
100
AcDbLine
 10
6143.960978266594
 20
3933.488104552485
 30
0.0
 11
6074.960978266594
 21
3933.488104552485
 31
0.0
  0
LINE
  5
181E9
330
747D
100
AcDbEntity
  8
細線
100
AcDbLine
 10
5995.960978266595
 20
3933.488104552484
 30
0.0
 11
6069.960978266593
 21
3933.488104552485
 31
0.0
  0
LINE
  5
181EA
330
747D
100
AcDbEntity
  8
細線
100
AcDbLine
 10
5995.960978266595
 20
3921.488104552484
 30
0.0
 11
6069.960978266593
 21
3921.488104552486
 31
0.0
  0
LINE
  5
181EB
330
747D
100
AcDbEntity
  8
細線
100
AcDbLine
 10
5995.960978266595
 20
3927.488104552486
 30
0.0
 11
6069.960978266593
 21
3927.488104552486
 31
0.0
  0
LINE
  5
181EC
330
747D
100
AcDbEntity
  8
細線
100
AcDbLine
 10
6069.960978266593
 20
3939.488104552486
 30
0.0
 11
6069.960978266593
 21
3916.488104552485
 31
0.0
  0
ARC
  5
181ED
330
747D
100
AcDbEntity
  8
部品1
 48
0.01
100
AcDbCircle
 10
5981.960978266594
 20
3912.488104552485
 30
0.0
 40
2.0
100
AcDbArc
 50
180.0
 51
270.0
  0
ARC
  5
181EE
330
747D
100
AcDbEntity
  8
部品1
 48
0.01
100
AcDbCircle
 10
6157.960978266594
 20
3912.488104552485
 30
0.0
 40
2.0
100
AcDbArc
 50
270.0
 51
0.0
  0
LINE
  5
181EF
330
747D
100
AcDbEntity
  8
部品1
 48
0.01
100
AcDbLine
 10
5979.960978266594
 20
3912.488104552485
 30
0.0
 11
5979.960978266594
 21
3943.988104552486
 31
0.0
  0
LINE
  5
181F0
330
747D
100
AcDbEntity
  8
部品1
 48
0.01
100
AcDbLine
 10
6157.960978266594
 20
3910.488104552486
 30
0.0
 11
5981.960978266594
 21
3910.488104552486
 31
0.0
  0
LINE
  5
181F1
330
747D
100
AcDbEntity
  8
部品1
 48
0.01
100
AcDbLine
 10
6159.960978266594
 20
3943.988104552486
 30
0.0
 11
6159.960978266594
 21
3912.488104552485
 31
0.0
  0
LINE
  5
181F2
330
747D
100
AcDbEntity
  8
細線
100
AcDbLine
 10
4839.960978266594
 20
3939.488104552486
 30
0.0
 11
4839.960978266594
 21
3916.488104552485
 31
0.0
  0
LINE
  5
181F3
330
747D
100
AcDbEntity
  8
細線
100
AcDbLine
 10
4913.960978266594
 20
3927.488104552486
 30
0.0
 11
4839.960978266594
 21
3927.488104552486
 31
0.0
  0
LINE
  5
181F4
330
747D
100
AcDbEntity
  8
細線
100
AcDbLine
 10
4913.960978266594
 20
3921.488104552484
 30
0.0
 11
4839.960978266594
 21
3921.488104552486
 31
0.0
  0
LINE
  5
181F5
330
747D
100
AcDbEntity
  8
細線
100
AcDbLine
 10
4913.960978266594
 20
3933.488104552484
 30
0.0
 11
4839.960978266594
 21
3933.488104552485
 31
0.0
  0
LINE
  5
181F6
330
747D
100
AcDbEntity
  8
細線
100
AcDbLine
 10
4765.960978266593
 20
3933.488104552485
 30
0.0
 11
4834.960978266593
 21
3933.488104552485
 31
0.0
  0
LINE
  5
181F7
330
747D
100
AcDbEntity
  8
細線
100
AcDbLine
 10
4765.960978266593
 20
3921.488104552486
 30
0.0
 11
4839.960978266594
 21
3921.488104552486
 31
0.0
  0
LINE
  5
181F8
330
747D
100
AcDbEntity
  8
細線
100
AcDbLine
 10
4765.960978266593
 20
3927.488104552486
 30
0.0
 11
4839.960978266594
 21
3927.488104552486
 31
0.0
  0
LINE
  5
181F9
330
747D
100
AcDbEntity
  8
細線
100
AcDbLine
 10
4765.960978266593
 20
3933.488104552485
 30
0.0
 11
4839.960978266594
 21
3933.488104552485
 31
0.0
  0
LINE
  5
181FA
330
747D
100
AcDbEntity
  8
部品1
 48
0.01
100
AcDbLine
 10
4927.960978266594
 20
3945.988104552485
 30
0.0
 11
4751.960978266594
 21
3945.988104552485
 31
0.0
  0
LINE
  5
181FB
330
747D
100
AcDbEntity
  8
部品1
 48
0.01
100
AcDbLine
 10
4749.960978266594
 20
3943.988104552486
 30
0.0
 11
4749.960978266594
 21
3912.488104552485
 31
0.0
  0
LINE
  5
181FC
330
747D
100
AcDbEntity
  8
部品1
 48
0.01
100
AcDbLine
 10
4751.960978266594
 20
3910.488104552486
 30
0.0
 11
4927.960978266594
 21
3910.488104552486
 31
0.0
  0
LINE
  5
181FD
330
747D
100
AcDbEntity
  8
部品1
 48
0.01
100
AcDbLine
 10
4929.960978266594
 20
3912.488104552485
 30
0.0
 11
4929.960978266594
 21
3943.988104552486
 31
0.0
  0
LINE
  5
181FE
330
747D
100
AcDbEntity
  8
細線
100
AcDbLine
 10
4765.960978266593
 20
3939.488104552486
 30
0.0
 11
4765.960978266593
 21
3916.488104552485
 31
0.0
  0
LINE
  5
181FF
330
747D
100
AcDbEntity
  8
細線
100
AcDbLine
 10
4913.960978266594
 20
3916.488104552485
 30
0.0
 11
4913.960978266594
 21
3939.488104552486
 31
0.0
  0
LINE
  5
18200
330
747D
100
AcDbEntity
  8
細線
100
AcDbLine
 10
4913.960978266594
 20
3939.488104552486
 30
0.0
 11
4839.960978266594
 21
3939.488104552486
 31
0.0
  0
LINE
  5
18201
330
747D
100
AcDbEntity
  8
細線
100
AcDbLine
 10
4765.960978266593
 20
3916.488104552485
 30
0.0
 11
4839.960978266594
 21
3916.488104552485
 31
0.0
  0
LINE
  5
18202
330
747D
100
AcDbEntity
  8
細線
100
AcDbLine
 10
4839.960978266594
 20
3939.488104552486
 30
0.0
 11
4765.960978266593
 21
3939.488104552486
 31
0.0
  0
LINE
  5
18203
330
747D
100
AcDbEntity
  8
細線
100
AcDbLine
 10
4839.960978266594
 20
3916.488104552485
 30
0.0
 11
4913.960978266594
 21
3916.488104552485
 31
0.0
  0
ARC
  5
18204
330
747D
100
AcDbEntity
  8
部品1
 48
0.01
100
AcDbCircle
 10
4751.960978266594
 20
3943.988104552486
 30
0.0
 40
2.0
100
AcDbArc
 50
90.0
 51
180.0
  0
ARC
  5
18205
330
747D
100
AcDbEntity
  8
部品1
 48
0.01
100
AcDbCircle
 10
4751.960978266594
 20
3912.488104552485
 30
0.0
 40
2.0
100
AcDbArc
 50
180.0
 51
270.0
  0
ARC
  5
18206
330
747D
100
AcDbEntity
  8
部品1
 48
0.01
100
AcDbCircle
 10
4927.960978266594
 20
3943.988104552486
 30
0.0
 40
2.0
100
AcDbArc
 50
0.0
 51
90.0
  0
ARC
  5
18207
330
747D
100
AcDbEntity
  8
部品1
 48
0.01
100
AcDbCircle
 10
4927.960978266594
 20
3912.488104552485
 30
0.0
 40
2.0
100
AcDbArc
 50
270.0
 51
0.0
  0
DIMENSION
  5
18208
330
747D
100
AcDbEntity
  8
寸法
 48
50.0
100
AcDbDimension
  2
*D27
 10
6769.960978266595
 20
4519.608363979758
 30
0.0
 11
7133.446259640836
 21
4519.608363979758
 31
0.0
 70
   160
 71
     5
 42
50.0
  3
INABA_S40G
100
AcDbAlignedDimension
 13
6819.960978266596
 23
4114.988104552486
 33
0.0
 14
6769.960978266595
 24
4114.988104552489
 34
0.0
100
AcDbRotatedDimension
  0
LINE
  5
18209
330
747D
100
AcDbEntity
  8
部品1
100
AcDbLine
 10
6819.541317251261
 20
4107.59157915725
 30
0.0
 11
6818.407919918913
 21
4087.61545117465
 31
0.0
  0
LINE
  5
1820A
330
747D
100
AcDbEntity
  8
細線
 48
50.0
100
AcDbLine
 10
6786.960978266591
 20
4114.988104552489
 30
0.0
 11
6786.960978266591
 21
3973.988104552489
 31
0.0
  0
LINE
  5
1820B
330
747D
100
AcDbEntity
  8
部品1
100
AcDbLine
 10
6806.97089959734
 20
3991.95804400759
 30
0.0
 11
6806.325993790224
 21
3980.59157915725
 31
0.0
  0
LINE
  5
1820C
330
747D
100
AcDbEntity
  8
部品1
100
AcDbLine
 10
6815.206930122184
 20
4084.158044007592
 30
0.0
 11
6810.171889394069
 21
3995.415451174647
 31
0.0
  0
ARC
  5
1820D
330
747D
100
AcDbEntity
  8
部品1
 48
50.0
100
AcDbCircle
 10
6818.20211301837
 20
4083.988104552491
 30
0.0
 40
3.0
100
AcDbArc
 50
97.65812720736519
 51
176.7526572096623
  0
ARC
  5
1820E
330
747D
100
AcDbEntity
  8
部品1
 48
50.0
100
AcDbCircle
 10
6809.966082493525
 20
3991.788104552487
 30
0.0
 40
3.0
100
AcDbArc
 50
97.65812720736519
 51
176.7526572096623
  0
ARC
  5
1820F
330
747D
100
AcDbEntity
  8
部品1
 48
50.0
100
AcDbCircle
 10
6809.473013384965
 20
3995.455103714172
 30
0.0
 40
0.7
100
AcDbArc
 50
277.6581272073652
 51
356.7526572096623
  0
ARC
  5
18210
330
747D
100
AcDbEntity
  8
部品1
 48
50.0
100
AcDbCircle
 10
6817.709043909808
 20
4087.655103714174
 30
0.0
 40
0.7
100
AcDbArc
 50
277.6581272073652
 51
356.7526572096103
  0
ARC
  5
18211
330
747D
100
AcDbEntity
  8
部品1
100
AcDbCircle
 10
6799.337233699128
 20
3980.988104552491
 30
0.0
 40
7.0
100
AcDbArc
 50
270.0
 51
356.7526572096623
  0
ARC
  5
18212
330
747D
100
AcDbEntity
  8
部品1
100
AcDbCircle
 10
6812.552557160159
 20
4107.988104552489
 30
0.0
 40
7.0
100
AcDbArc
 50
356.7526572096623
 51
90.0
  0
LINE
  5
184DF
330
747D
100
AcDbEntity
  8
補助
  6
PHANTOM
 62
   230
 48
50.0
100
AcDbLine
 10
140.0
 20
0.0
 30
0.0
 11
139.9999999999995
 21
11409.6
 31
0.0
  0
MTEXT
  5
1854B
330
747D
100
AcDbEntity
  8
寸法
 62
     7
 48
50.0
100
AcDbMText
 10
10229.01835903556
 20
7616.769910597108
 30
0.0
 40
96.0
 41
0.0
 71
     5
 72
     1
  1
棚 2段
  7
STYLE1
 11
0.0000000000000003
 21
1.0
 31
0.0
 73
     1
 44
1.0
1001
ACAD
1000
MTEXTBEGIN
1070
    73
1070
     1
1070
    44
1040
1.0
1070
    74
1070
     0
1000
MTEXTEND
  0
DIMENSION
  5
1856B
330
747D
100
AcDbEntity
  8
寸法
100
AcDbDimension
  2
*D28
 10
10085.42006762409
 20
9835.0281072981
 30
0.0
 11
10310.42006762409
 21
9835.0281072981
 31
0.0
 70
   160
 71
     5
 42
449.9999999999963
  3
INABA_S40G
100
AcDbAlignedDimension
 13
10612.05800760379
 23
9549.011421506429
 33
0.0
 14
10162.0580076038
 24
9549.011421506429
 34
0.0
100
AcDbRotatedDimension
1001
ACAD
1000
DSTYLE
1002
{
1002
}
  0
LINE
  5
18582
330
747D
100
AcDbEntity
  8
部品1
100
AcDbLine
 10
8880.05800760385
 20
7842.511421506256
 30
0.0
 11
8852.058007603849
 21
7842.511421506256
 31
0.0
  0
LINE
  5
18583
330
747D
100
AcDbEntity
  8
部品1
100
AcDbLine
 10
9747.058007604016
 20
7004.011421506295
 30
0.0
 11
9747.058007603916
 21
9521.011421506297
 31
0.0
  0
LINE
  5
18584
330
747D
100
AcDbEntity
  8
部品1
100
AcDbLine
 10
9327.058007604014
 20
7004.011421506295
 30
0.0
 11
9327.058007603914
 21
9521.011421506297
 31
0.0
  0
LINE
  5
18585
330
747D
100
AcDbEntity
  8
破線
 48
10.0
100
AcDbLine
 10
8908.558007603941
 20
8703.011421506301
 30
0.0
 11
10162.05800760405
 21
8703.011421506307
 31
0.0
  0
LINE
  5
18586
330
747D
100
AcDbEntity
  8
破線
 48
10.0
100
AcDbLine
 10
8908.558007603945
 20
8653.011421506306
 30
0.0
 11
10162.05800760405
 21
8653.011421506306
 31
0.0
  0
LINE
  5
18587
330
747D
100
AcDbEntity
  8
破線
 48
10.0
100
AcDbLine
 10
8908.558007603945
 20
7822.011421506307
 30
0.0
 11
10162.05800760405
 21
7822.011421506307
 31
0.0
  0
LINE
  5
18588
330
747D
100
AcDbEntity
  8
破線
 48
10.0
100
AcDbLine
 10
8908.558007603941
 20
7872.011421506302
 30
0.0
 11
10162.05800760405
 21
7872.011421506306
 31
0.0
  0
LINE
  5
18589
330
747D
100
AcDbEntity
  8
破線
 48
10.0
100
AcDbLine
 10
8932.058007603844
 20
8653.011421506306
 30
0.0
 11
8932.058007603849
 21
7872.011421506304
 31
0.0
  0
LINE
  5
1858A
330
747D
100
AcDbEntity
  8
破線
 48
10.0
100
AcDbLine
 10
8932.058007603849
 20
7822.011421506307
 30
0.0
 11
8932.058007603856
 21
7027.511421506273
 31
0.0
  0
LINE
  5
185B0
330
747D
100
AcDbEntity
  8
部品1
100
AcDbLine
 10
10614.05800760387
 20
7842.511421506386
 30
0.0
 11
10642.05800760387
 21
7842.511421506386
 31
0.0
  0
LINE
  5
187AB
330
747D
100
AcDbEntity
  8
細線
 48
50.0
100
AcDbLine
 10
9430.058007603831
 20
6875.51159568317
 30
0.0
 11
9548.55800760383
 21
6875.51159568317
 31
0.0
  0
LINE
  5
187AC
330
747D
100
AcDbEntity
  8
細線
 48
50.0
100
AcDbLine
 10
9518.558007603834
 20
6892.661595683169
 30
0.0
 11
9518.558007603834
 21
6897.511595683171
 31
0.0
  0
LINE
  5
187AD
330
747D
100
AcDbEntity
  8
細線
 48
50.0
100
AcDbLine
 10
9518.558007603834
 20
6897.511595683171
 30
0.0
 11
9533.558007603835
 21
6897.511595683171
 31
0.0
  0
LINE
  5
187AE
330
747D
100
AcDbEntity
  8
細線
 48
50.0
100
AcDbLine
 10
9533.558007603835
 20
6897.511595683171
 30
0.0
 11
9533.558007603835
 21
6904.511595683172
 31
0.0
  0
LINE
  5
187AF
330
747D
100
AcDbEntity
  8
細線
 48
50.0
100
AcDbLine
 10
9533.558007603835
 20
6904.511595683172
 30
0.0
 11
9548.558007603833
 21
6904.511595683172
 31
0.0
  0
LINE
  5
187B0
330
747D
100
AcDbEntity
  8
細線
 48
50.0
100
AcDbLine
 10
9548.558007603833
 20
6904.511595683172
 30
0.0
 11
9548.558007603833
 21
6875.511595683171
 31
0.0
  0
LINE
  5
187B1
330
747D
100
AcDbEntity
  8
細線
 48
50.0
100
AcDbLine
 10
9537.558007603832
 20
6927.007789948678
 30
0.0
 11
9537.558007603832
 21
6931.507789948678
 31
0.0
  0
LINE
  5
187B2
330
747D
100
AcDbEntity
  8
細線
 48
50.0
100
AcDbLine
 10
9537.558007603832
 20
6931.507789948678
 30
0.0
 11
9522.558007603832
 21
6931.507789948678
 31
0.0
  0
LINE
  5
187B3
330
747D
100
AcDbEntity
  8
細線
 48
50.0
100
AcDbLine
 10
9522.558007603832
 20
6931.507789948678
 30
0.0
 11
9522.558007603832
 21
6938.507789948677
 31
0.0
  0
LINE
  5
187B4
330
747D
100
AcDbEntity
  8
細線
 48
50.0
100
AcDbLine
 10
9522.558007603832
 20
6938.507789948677
 30
0.0
 11
9507.558007603835
 21
6938.507789948674
 31
0.0
  0
LINE
  5
187B5
330
747D
100
AcDbEntity
  8
細線
 48
50.0
100
AcDbLine
 10
9507.558007603835
 20
6938.507789948674
 30
0.0
 11
9507.558007603835
 21
6900.907561845563
 31
0.0
  0
LINE
  5
187B6
330
747D
100
AcDbEntity
  8
細線
 48
50.0
100
AcDbLine
 10
9507.558007603835
 20
6900.907561845563
 30
0.0
 11
9527.558014905009
 21
6900.907603395104
 31
0.0
  0
LINE
  5
187B7
330
747D
100
AcDbEntity
  8
細線
 48
50.0
100
AcDbLine
 10
9527.557970036069
 20
6909.511065030914
 30
0.0
 11
9527.558014905009
 21
6900.907603395104
 31
0.0
  0
LINE
  5
187B8
330
747D
100
AcDbEntity
  8
細線
 48
50.0
100
AcDbLine
 10
9527.557970036069
 20
6909.511065030914
 30
0.0
 11
9538.790659390777
 21
6909.511247984061
 31
0.0
  0
ARC
  5
187B9
330
747D
100
AcDbEntity
  8
細線
 48
50.0
100
AcDbCircle
 10
9545.372951698112
 20
6908.311411897672
 30
0.0
 40
1.8
100
AcDbArc
 50
270.0006665777295
 51
345.0005554812987
  0
LINE
  5
187BA
330
747D
100
AcDbEntity
  8
細線
 48
50.0
100
AcDbLine
 10
9547.359385144194
 20
6908.770252354951
 30
0.0
 11
9547.111622701994
 21
6907.845554472846
 31
0.0
  0
LINE
  5
187BB
330
747D
100
AcDbEntity
  8
細線
 48
50.0
100
AcDbLine
 10
9545.372972639269
 20
6906.511411897793
 30
0.0
 11
9541.743045220501
 21
6906.511369667313
 31
0.0
  0
ARC
  5
187BC
330
747D
100
AcDbEntity
  8
細線
 48
50.0
100
AcDbCircle
 10
9541.743024279346
 20
6908.311369667193
 30
0.0
 40
1.8
100
AcDbArc
 50
195.0010443049394
 51
270.0006665777295
  0
LINE
  5
187BD
330
747D
100
AcDbEntity
  8
細線
 48
50.0
100
AcDbLine
 10
9539.756596787089
 20
6908.770084634757
 30
0.0
 11
9540.004366283602
 21
6907.845463696175
 31
0.0
  0
ARC
  5
187BE
330
747D
100
AcDbEntity
  8
細線
 48
50.0
100
AcDbCircle
 10
9538.79067567834
 20
6908.511247984195
 30
0.0
 40
1.0
100
AcDbArc
 50
15.00104430493943
 51
90.00093320877969
  0
LINE
  5
187BF
330
747D
100
AcDbEntity
  8
細線
 48
50.0
100
AcDbLine
 10
9548.325306499297
 20
6909.511442674464
 30
0.0
 11
9549.267066650202
 21
6909.511449248315
 31
0.0
  0
ARC
  5
187C0
330
747D
100
AcDbEntity
  8
細線
 48
50.0
100
AcDbCircle
 10
9548.325313479681
 20
6908.511442674491
 30
0.0
 40
1.0
100
AcDbArc
 50
90.0003999466794
 51
165.0005554812987
  0
LINE
  5
187C1
330
747D
100
AcDbEntity
  8
細線
 48
50.0
100
AcDbLine
 10
10584.55800760383
 20
6968.51142150622
 30
0.0
 11
10584.55800760383
 21
6943.511421506215
 31
0.0
  0
LINE
  5
187C2
330
747D
100
AcDbEntity
  8
細線
100
AcDbLine
 10
10575.05800760383
 20
6943.511421506215
 30
0.0
 11
10467.05800760383
 21
6943.511421506215
 31
0.0
  0
LINE
  5
187C3
330
747D
100
AcDbEntity
  8
細線
 48
50.0
100
AcDbLine
 10
9999.558012754739
 20
6935.511421506219
 30
0.0
 11
9999.558012754739
 21
6973.511421506211
 31
0.0
  0
LINE
  5
187C4
330
747D
100
AcDbEntity
  8
細線
 48
50.0
100
AcDbLine
 10
9999.558012754739
 20
6973.511421506211
 30
0.0
 11
10014.55801275474
 21
6973.511421506215
 31
0.0
  0
LINE
  5
187C5
330
747D
100
AcDbEntity
  8
細線
 48
50.0
100
AcDbLine
 10
10014.55801275474
 20
6973.511421506215
 30
0.0
 11
10014.55801275474
 21
6968.511421506216
 31
0.0
  0
LINE
  5
187C6
330
747D
100
AcDbEntity
  8
細線
 48
50.0
100
AcDbLine
 10
9999.558012754739
 20
6935.511421506219
 30
0.0
 11
10019.55801275474
 21
6935.511421506214
 31
0.0
  0
LINE
  5
187C7
330
747D
100
AcDbEntity
  8
細線
 48
50.0
100
AcDbLine
 10
10019.55801275474
 20
6935.511421506214
 30
0.0
 11
10019.55801275474
 21
6943.511421506215
 31
0.0
  0
LINE
  5
187C8
330
747D
100
AcDbEntity
  8
細線
100
AcDbLine
 10
10257.05800760383
 20
6943.511421506215
 30
0.0
 11
10187.05800760383
 21
6943.511421506215
 31
0.0
  0
LINE
  5
187C9
330
747D
100
AcDbEntity
  8
細線
 48
50.0
100
AcDbLine
 10
10117.05800760383
 20
6943.511421506214
 30
0.0
 11
10032.35379232758
 21
6943.511421506215
 31
0.0
  0
LINE
  5
187CA
330
747D
100
AcDbEntity
  8
細線
100
AcDbLine
 10
10397.05800760383
 20
6943.511421506215
 30
0.0
 11
10327.05800760383
 21
6943.511421506215
 31
0.0
  0
LINE
  5
187CB
330
747D
100
AcDbEntity
  8
細線
100
AcDbLine
 10
10225.05800760383
 20
6943.511421506214
 30
0.0
 11
10225.05800760383
 21
6972.811421506214
 31
0.0
  0
LINE
  5
187CC
330
747D
100
AcDbEntity
  8
細線
100
AcDbLine
 10
10205.05800760383
 20
6972.811421506214
 30
0.0
 11
10225.05800760383
 21
6972.811421506214
 31
0.0
  0
LINE
  5
187CD
330
747D
100
AcDbEntity
  8
細線
100
AcDbLine
 10
10205.05800760383
 20
6943.511421506214
 30
0.0
 11
10205.05800760383
 21
6972.811421506214
 31
0.0
  0
LINE
  5
187CE
330
747D
100
AcDbEntity
  8
細線
 48
50.0
100
AcDbLine
 10
10568.65800760383
 20
6968.511421506216
 30
0.0
 11
10558.65800760383
 21
6973.511421506215
 31
0.0
  0
LINE
  5
187CF
330
747D
100
AcDbEntity
  8
細線
 48
50.0
100
AcDbLine
 10
10584.55800760383
 20
6968.51142150622
 30
0.0
 11
10568.65800760383
 21
6968.511421506216
 31
0.0
  0
LINE
  5
187D0
330
747D
100
AcDbEntity
  8
細線
 48
50.0
100
AcDbLine
 10
10558.65800760384
 20
6973.511421506213
 30
0.0
 11
10014.55801275474
 21
6973.511421506211
 31
0.0
  0
LINE
  5
187D1
330
747D
100
AcDbEntity
  8
細線
 48
50.0
100
AcDbLine
 10
10025.55801275474
 20
6942.711421506216
 30
0.0
 11
10025.55801275474
 21
6941.211421506216
 31
0.0
  0
LINE
  5
187D2
330
747D
100
AcDbEntity
  8
細線
 48
50.0
100
AcDbLine
 10
10026.25801275474
 20
6940.511421506215
 30
0.0
 11
10030.85801275474
 21
6940.511421506215
 31
0.0
  0
LINE
  5
187D3
330
747D
100
AcDbEntity
  8
細線
 48
50.0
100
AcDbLine
 10
10031.55801275474
 20
6941.211421506216
 30
0.0
 11
10031.55801957985
 21
6942.711436397704
 31
0.0
  0
ARC
  5
187D4
330
747D
100
AcDbEntity
  8
細線
 48
50.0
100
AcDbCircle
 10
10030.85801275474
 20
6941.211421506216
 30
0.0
 40
0.7
100
AcDbArc
 50
270.0
 51
0.0
  0
ARC
  5
187D5
330
747D
100
AcDbEntity
  8
細線
 48
50.0
100
AcDbCircle
 10
10026.25801275474
 20
6941.211421506216
 30
0.0
 40
0.7
100
AcDbArc
 50
180.0
 51
270.0
  0
LINE
  5
187D6
330
747D
100
AcDbEntity
  8
細線
 48
50.0
100
AcDbLine
 10
10024.75801461618
 20
6943.511421506215
 30
0.0
 11
10019.55801275474
 21
6943.511421506215
 31
0.0
  0
ARC
  5
187D7
330
747D
100
AcDbEntity
  8
細線
 48
50.0
100
AcDbCircle
 10
10032.35801957984
 20
6942.711432674832
 30
0.0
 40
0.8
100
AcDbArc
 50
90.00014387753465
 51
179.9997333689498
  0
ARC
  5
187D8
330
747D
100
AcDbEntity
  8
細線
 48
50.0
100
AcDbCircle
 10
10024.75801275475
 20
6942.711421506216
 30
0.0
 40
0.8
100
AcDbArc
 50
359.9997333689499
 51
89.99986668437072
  0
LINE
  5
187D9
330
747D
100
AcDbEntity
  8
細線
 48
50.0
100
AcDbLine
 10
9739.057972284939
 20
6909.511433368802
 30
0.0
 11
9669.057954997063
 21
6909.511433368809
 31
0.0
  0
LINE
  5
187DA
330
747D
100
AcDbEntity
  8
細線
 48
50.0
100
AcDbLine
 10
9599.058007603831
 20
6909.511441556171
 30
0.0
 11
9549.267066650202
 21
6909.511449248315
 31
0.0
  0
LINE
  5
187DB
330
747D
100
AcDbEntity
  8
細線
 48
50.0
100
AcDbLine
 10
9949.05799936707
 20
6909.511433368805
 30
0.0
 11
10040.55800760383
 21
6909.511433368805
 31
0.0
  0
LINE
  5
187DC
330
747D
100
AcDbEntity
  8
細線
 48
50.0
100
AcDbLine
 10
9879.058007603831
 20
6909.511430618799
 30
0.0
 11
9809.058251500831
 21
6909.511436118833
 31
0.0
  0
LINE
  5
187DD
330
747D
100
AcDbEntity
  8
細線
 48
50.0
100
AcDbLine
 10
10040.55801790565
 20
6938.511639541079
 30
0.0
 11
10040.55800760383
 21
6909.511433368805
 31
0.0
  0
LINE
  5
187DE
330
747D
100
AcDbEntity
  8
細線
 48
50.0
100
AcDbLine
 10
10025.55801973512
 20
6938.511639541079
 30
0.0
 11
10040.55801790565
 21
6938.511639541079
 31
0.0
  0
LINE
  5
187DF
330
747D
100
AcDbEntity
  8
細線
 48
50.0
100
AcDbLine
 10
10025.55800810115
 20
6931.511639541035
 30
0.0
 11
10025.55801973512
 21
6938.511639541079
 31
0.0
  0
LINE
  5
187E0
330
747D
100
AcDbEntity
  8
細線
 48
50.0
100
AcDbLine
 10
10010.55800810115
 20
6931.511639541035
 30
0.0
 11
10025.55800810115
 21
6931.511639541035
 31
0.0
  0
LINE
  5
187E1
330
747D
100
AcDbEntity
  8
細線
 48
50.0
100
AcDbLine
 10
10010.55800810115
 20
6926.661639541037
 30
0.0
 11
10010.55800810115
 21
6931.511639541035
 31
0.0
  0
LINE
  5
187E2
330
747D
100
AcDbEntity
  8
細線
 48
50.0
100
AcDbLine
 10
10010.55800810115
 20
6930.111639541038
 30
0.0
 11
9537.558007603832
 21
6930.111639541033
 31
0.0
  0
LINE
  5
187E3
330
747D
100
AcDbEntity
  8
細線
 48
50.0
100
AcDbLine
 10
9518.558007603834
 20
6896.111595683169
 30
0.0
 11
8933.058012257424
 21
6896.111595683169
 31
0.0
  0
LINE
  5
187E4
330
747D
100
AcDbEntity
  8
細線
 48
50.0
100
AcDbLine
 10
9341.441099274526
 20
6893.782446973664
 30
0.0
 11
9347.196616857194
 21
6875.51159568317
 31
0.0
  0
LINE
  5
187E5
330
747D
100
AcDbEntity
  8
細線
 48
50.0
100
AcDbLine
 10
9330.512650794092
 20
6893.782446973659
 30
0.0
 11
9341.441099274526
 21
6893.782446973664
 31
0.0
  0
ARC
  5
187E6
330
747D
100
AcDbEntity
  8
細線
 48
50.0
100
AcDbCircle
 10
9325.058294736775
 20
6895.282446973659
 30
0.0
 40
5.0
100
AcDbArc
 50
204.6243183521304
 51
335.3756816478695
  0
ARC
  5
187E7
330
747D
100
AcDbEntity
  8
細線
 48
50.0
100
AcDbCircle
 10
9330.512650794092
 20
6892.782446973659
 30
0.0
 40
1.0
100
AcDbArc
 50
90.0
 51
155.3756816478695
  0
ARC
  5
187E8
330
747D
100
AcDbEntity
  8
細線
 48
50.0
100
AcDbCircle
 10
9319.603938679458
 20
6892.782446973659
 30
0.0
 40
1.0
100
AcDbArc
 50
24.62431835213048
 51
90.0
  0
LINE
  5
187E9
330
747D
100
AcDbEntity
  8
細線
 48
50.0
100
AcDbLine
 10
9308.675490199027
 20
6893.782446973664
 30
0.0
 11
9319.603938679458
 21
6893.782446973659
 31
0.0
  0
LINE
  5
187EA
330
747D
100
AcDbEntity
  8
細線
 48
50.0
100
AcDbLine
 10
9302.919972616356
 20
6875.51159568317
 30
0.0
 11
9308.675490199027
 21
6893.782446973664
 31
0.0
  0
LINE
  5
187EB
330
747D
100
AcDbEntity
  8
細線
 48
50.0
100
AcDbLine
 10
9290.05800760383
 20
6875.51159568317
 30
0.0
 11
9360.05800760383
 21
6875.51159568317
 31
0.0
  0
LINE
  5
187EC
330
747D
100
AcDbEntity
  8
細線
 48
50.0
100
AcDbLine
 10
8910.058007603831
 20
6875.508930026639
 30
0.0
 11
9220.05856070826
 21
6875.512816926836
 31
0.0
  0
LINE
  5
187ED
330
747D
100
AcDbEntity
  8
細線
 48
50.0
100
AcDbLine
 10
8933.058012257424
 20
6904.507746090809
 30
0.0
 11
8919.058007603831
 21
6904.507746090804
 31
0.0
  0
LINE
  5
187EE
330
747D
100
AcDbEntity
  8
細線
 48
50.0
100
AcDbLine
 10
8933.058012257424
 20
6896.111595683169
 30
0.0
 11
8933.058012257424
 21
6904.507746090809
 31
0.0
  0
LINE
  5
187EF
330
747D
100
AcDbEntity
  8
細線
  6
Continuous
 62
     5
100
AcDbLine
 10
10012.55801275474
 20
6928.511421506211
 30
0.0
 11
10012.55801275474
 21
6928.511421506211
 31
0.0
  0
LINE
  5
187F0
330
747D
100
AcDbEntity
  8
部品1
100
AcDbLine
 10
8910.058007603831
 20
6870.511421506215
 30
0.0
 11
10614.05800760383
 21
6870.511421506214
 31
0.0
  0
LINE
  5
187F1
330
747D
100
AcDbEntity
  8
部品1
100
AcDbLine
 10
10584.05800760383
 20
6870.511421506215
 30
0.0
 11
10614.05800760383
 21
6870.511421506215
 31
0.0
  0
LINE
  5
187F2
330
747D
100
AcDbEntity
  8
部品1
100
AcDbLine
 10
8907.058007603831
 20
6974.511421506211
 30
0.0
 11
10587.05800760383
 21
6974.511421506214
 31
0.0
  0
LINE
  5
187F3
330
747D
100
AcDbEntity
  8
部品1
100
AcDbLine
 10
8907.058007603831
 20
6974.511421506211
 30
0.0
 11
8907.058007603831
 21
6943.511421506215
 31
0.0
  0
LINE
  5
187F4
330
747D
100
AcDbEntity
  8
部品1
100
AcDbLine
 10
8919.058007603831
 20
6943.511421506215
 30
0.0
 11
8919.058007603831
 21
6879.511421506215
 31
0.0
  0
LINE
  5
187F5
330
747D
100
AcDbEntity
  8
部品1
100
AcDbLine
 10
8880.058007603832
 20
6870.511421506215
 30
0.0
 11
8880.058007603832
 21
6947.511421506215
 31
0.0
  0
LINE
  5
187F6
330
747D
100
AcDbEntity
  8
部品1
100
AcDbLine
 10
8910.058007603831
 20
6870.511421506215
 30
0.0
 11
8880.058007603832
 21
6870.511421506215
 31
0.0
  0
LINE
  5
187F7
330
747D
100
AcDbEntity
  8
部品1
100
AcDbLine
 10
8919.058007603831
 20
6879.511421506215
 30
0.0
 11
8910.058007603831
 21
6879.511421506215
 31
0.0
  0
LINE
  5
187F8
330
747D
100
AcDbEntity
  8
部品1
100
AcDbLine
 10
8910.058007603831
 20
6879.511421506215
 30
0.0
 11
8910.058007603831
 21
6870.511421506215
 31
0.0
  0
LINE
  5
187F9
330
747D
100
AcDbEntity
  8
部品1
100
AcDbLine
 10
8880.058007603832
 20
6947.511421506215
 30
0.0
 11
8907.058007603831
 21
6947.511421506215
 31
0.0
  0
LINE
  5
187FA
330
747D
100
AcDbEntity
  8
部品1
100
AcDbLine
 10
8919.058007603831
 20
6943.511421506215
 30
0.0
 11
8907.058007603831
 21
6943.511421506215
 31
0.0
  0
LINE
  5
187FB
330
747D
100
AcDbEntity
  8
部品1
100
AcDbLine
 10
10587.05800760383
 20
6974.511421506216
 30
0.0
 11
10587.05800760383
 21
6943.511421506215
 31
0.0
  0
LINE
  5
187FC
330
747D
100
AcDbEntity
  8
部品1
100
AcDbLine
 10
10575.05800760383
 20
6943.511421506215
 30
0.0
 11
10575.05800760383
 21
6879.511421506215
 31
0.0
  0
LINE
  5
187FD
330
747D
100
AcDbEntity
  8
部品1
100
AcDbLine
 10
10575.05800760383
 20
6879.511421506215
 30
0.0
 11
10584.05800760383
 21
6879.511421506215
 31
0.0
  0
LINE
  5
187FE
330
747D
100
AcDbEntity
  8
部品1
100
AcDbLine
 10
10584.05800760383
 20
6879.511421506215
 30
0.0
 11
10584.05800760383
 21
6870.511421506215
 31
0.0
  0
LINE
  5
187FF
330
747D
100
AcDbEntity
  8
部品1
100
AcDbLine
 10
10575.05800760383
 20
6943.511421506215
 30
0.0
 11
10587.05800760383
 21
6943.511421506215
 31
0.0
  0
LINE
  5
18800
330
747D
100
AcDbEntity
  8
部品1
100
AcDbLine
 10
10614.05800760383
 20
6870.511421506215
 30
0.0
 11
10614.05800760383
 21
6947.511421506217
 31
0.0
  0
LINE
  5
18802
330
747D
100
AcDbEntity
  8
部品1
100
AcDbLine
 10
10587.05800760383
 20
6947.511421506217
 30
0.0
 11
10614.05800760383
 21
6947.511421506217
 31
0.0
  0
DIMENSION
  5
18803
330
747D
100
AcDbEntity
  8
寸法
 48
50.0
100
AcDbDimension
  2
*D29
 10
9869.058007603833
 20
6245.43640345799
 30
0.0
 11
9394.058007603831
 21
6245.43640345799
 31
0.0
 70
   160
  1
有効開口部間口\P<>
 71
     5
 42
950.0
  3
INABA_S40
100
AcDbAlignedDimension
 13
8919.058007603831
 23
6870.511421506215
 33
0.0
 14
9869.058007603833
 24
6870.511421506215
 34
0.0
100
AcDbRotatedDimension
1001
ACAD
1000
DSTYLE
1002
{
1070
    41
1040
0.5
1070
    44
1040
1.0
1070
   147
1040
0.8
1070
   271
1070
     2
1070
   272
1070
     2
1070
   289
1070
     3
1070
   340
1005
F706
1070
   343
1005
175BE
1070
   344
1005
175BE
1002
}
  0
LINE
  5
18804
330
747D
100
AcDbEntity
  8
細線
100
AcDbLine
 10
8919.058007603831
 20
6879.511421506215
 30
0.0
 11
8919.058007603831
 21
6875.511421506262
 31
0.0
  0
LINE
  5
18805
330
747D
100
AcDbEntity
  8
細線
100
AcDbLine
 10
9075.557901005094
 20
6893.510491051815
 30
0.0
 11
9075.557901005094
 21
6875.51049105179
 31
0.0
  0
LINE
  5
18806
330
747D
100
AcDbEntity
  8
細線
100
AcDbLine
 10
9034.557901005094
 20
6893.510491051808
 30
0.0
 11
9034.557901005094
 21
6875.51049105179
 31
0.0
  0
LINE
  5
18807
330
747D
100
AcDbEntity
  8
細線
100
AcDbLine
 10
9075.557901005094
 20
6893.510491051815
 30
0.0
 11
9034.557901005094
 21
6893.510491051808
 31
0.0
  0
ARC
  5
18808
330
747D
100
AcDbEntity
  8
部品1
100
AcDbCircle
 10
9037.102056882369
 20
6875.010491051812
 30
0.0
 40
1.0
100
AcDbArc
 50
270.0
 51
19.47122063442214
  0
LINE
  5
18809
330
747D
100
AcDbEntity
  8
部品1
 48
0.01
100
AcDbLine
 10
9030.057901005086
 20
6875.510491051811
 30
0.0
 11
9030.057901005086
 21
6874.510491051811
 31
0.0
  0
LINE
  5
1880A
330
747D
100
AcDbEntity
  8
部品1
 48
0.01
100
AcDbLine
 10
9030.557901005087
 20
6874.010491051811
 30
0.0
 11
9037.102056882369
 21
6874.010491051811
 31
0.0
  0
ARC
  5
1880B
330
747D
100
AcDbEntity
  8
部品1
 48
0.01
100
AcDbCircle
 10
9030.557901005087
 20
6874.510491051811
 30
0.0
 40
0.5
100
AcDbArc
 50
180.0
 51
270.0
  0
ARC
  5
1880C
330
747D
100
AcDbEntity
  8
部品1
100
AcDbCircle
 10
9062.557901005085
 20
6884.01049105181
 30
0.0
 40
26.0
100
AcDbArc
 50
180.0
 51
199.4712206344221
  0
ARC
  5
1880D
330
747D
100
AcDbEntity
  8
部品1
 48
0.01
100
AcDbCircle
 10
9038.557901005086
 20
6889.010491051812
 30
0.0
 40
2.0
100
AcDbArc
 50
90.0
 51
180.0
  0
LINE
  5
1880E
330
747D
100
AcDbEntity
  8
部品1
100
AcDbLine
 10
9036.557901005087
 20
6884.01049105181
 30
0.0
 11
9036.557901005087
 21
6889.010491051812
 31
0.0
  0
ARC
  5
1880F
330
747D
100
AcDbEntity
  8
部品1
100
AcDbCircle
 10
9055.057901005087
 20
6899.810491051813
 30
0.0
 40
16.0
100
AcDbArc
 50
218.3930440192126
 51
254.0576313943215
  0
ARC
  5
18810
330
747D
100
AcDbEntity
  8
部品1
100
AcDbCircle
 10
9040.166292629898
 20
6888.010491051812
 30
0.0
 40
3.0
100
AcDbArc
 50
38.39304401921267
 51
90.0
  0
LINE
  5
18811
330
747D
100
AcDbEntity
  8
部品1
 48
0.01
100
AcDbLine
 10
9038.557901005086
 20
6891.010491051812
 30
0.0
 11
9040.166292629898
 21
6891.010491051812
 31
0.0
  0
ARC
  5
18812
330
747D
100
AcDbEntity
  8
部品1
100
AcDbCircle
 10
9055.057901005087
 20
6899.810491051813
 30
0.0
 40
16.0
100
AcDbArc
 50
285.9423686056786
 51
321.6069559807873
  0
LINE
  5
18813
330
747D
100
AcDbEntity
  8
部品1
100
AcDbLine
 10
9058.628615219356
 20
6884.310491051813
 30
0.0
 11
9051.487186790815
 21
6884.310491051813
 31
0.0
  0
ARC
  5
18814
330
747D
100
AcDbEntity
  8
部品1
100
AcDbCircle
 10
9058.628615219356
 20
6887.310491051813
 30
0.0
 40
3.0
100
AcDbArc
 50
270.0
 51
285.9423686056786
  0
ARC
  5
18815
330
747D
100
AcDbEntity
  8
部品1
100
AcDbCircle
 10
9051.487186790815
 20
6887.310491051813
 30
0.0
 40
3.0
100
AcDbArc
 50
254.0576313943215
 51
270.0
  0
LINE
  5
18816
330
747D
100
AcDbEntity
  8
部品1
 48
0.01
100
AcDbLine
 10
9071.557901005085
 20
6891.010491051812
 30
0.0
 11
9069.949509380274
 21
6891.010491051812
 31
0.0
  0
ARC
  5
18817
330
747D
100
AcDbEntity
  8
部品1
100
AcDbCircle
 10
9069.949509380274
 20
6888.010491051812
 30
0.0
 40
3.0
100
AcDbArc
 50
90.0
 51
141.6069559807873
  0
ARC
  5
18818
330
747D
100
AcDbEntity
  8
部品1
 48
0.01
100
AcDbCircle
 10
9071.557901005085
 20
6889.010491051812
 30
0.0
 40
2.0
100
AcDbArc
 50
0.0
 51
90.0
  0
LINE
  5
18819
330
747D
100
AcDbEntity
  8
部品1
100
AcDbLine
 10
9073.557901005086
 20
6884.01049105181
 30
0.0
 11
9073.557901005086
 21
6889.010491051812
 31
0.0
  0
ARC
  5
1881A
330
747D
100
AcDbEntity
  8
部品1
100
AcDbCircle
 10
9047.557901005086
 20
6884.01049105181
 30
0.0
 40
26.0
100
AcDbArc
 50
340.5287793655779
 51
0.0
  0
ARC
  5
1881B
330
747D
100
AcDbEntity
  8
部品1
100
AcDbCircle
 10
9073.013745127802
 20
6875.010491051812
 30
0.0
 40
1.0
100
AcDbArc
 50
160.5287793655778
 51
270.0
  0
LINE
  5
1881C
330
747D
100
AcDbEntity
  8
部品1
 48
0.01
100
AcDbLine
 10
9079.557901005086
 20
6874.010491051811
 30
0.0
 11
9072.945395575024
 21
6874.010491051811
 31
0.0
  0
LINE
  5
1881D
330
747D
100
AcDbEntity
  8
部品1
 48
0.01
100
AcDbLine
 10
9080.057901005087
 20
6875.510491051811
 30
0.0
 11
9080.057901005087
 21
6874.510491051811
 31
0.0
  0
LINE
  5
1881E
330
747D
100
AcDbEntity
  8
部品1
 48
0.01
100
AcDbLine
 10
9080.057901005087
 20
6875.510491051811
 30
0.0
 11
9080.057901005087
 21
6874.510491051811
 31
0.0
  0
ARC
  5
1881F
330
747D
100
AcDbEntity
  8
部品1
 48
0.01
100
AcDbCircle
 10
9079.557901005086
 20
6874.510491051811
 30
0.0
 40
0.5
100
AcDbArc
 50
270.0
 51
0.0
  0
LINE
  5
18820
330
747D
100
AcDbEntity
  8
細線
100
AcDbLine
 10
9220.057999418413
 20
6875.51161323688
 30
0.0
 11
9222.389537709181
 21
6880.511613236865
 31
0.0
  0
LINE
  5
18821
330
747D
100
AcDbEntity
  8
細線
100
AcDbLine
 10
9290.05800760383
 20
6875.51159568317
 30
0.0
 11
9287.726461127643
 21
6880.511613236847
 31
0.0
  0
LINE
  5
18822
330
747D
100
AcDbEntity
  8
細線
100
AcDbLine
 10
9287.726461127643
 20
6880.511613236847
 30
0.0
 11
9222.389537709169
 21
6880.511613236835
 31
0.0
  0
LINE
  5
18823
330
747D
100
AcDbEntity
  8
細線
100
AcDbLine
 10
9427.726461127642
 20
6880.511613236847
 30
0.0
 11
9362.389537709168
 21
6880.51161323684
 31
0.0
  0
LINE
  5
18824
330
747D
100
AcDbEntity
  8
細線
100
AcDbLine
 10
9430.058007603831
 20
6875.51159568317
 30
0.0
 11
9427.726461127642
 21
6880.511613236847
 31
0.0
  0
LINE
  5
18825
330
747D
100
AcDbEntity
  8
細線
100
AcDbLine
 10
9360.057999418414
 20
6875.511613236882
 30
0.0
 11
9362.389537709182
 21
6880.511613236868
 31
0.0
  0
LINE
  5
18826
330
747D
100
AcDbEntity
  8
細線
100
AcDbLine
 10
9666.72646931306
 20
6914.511441556138
 30
0.0
 11
9601.389545894585
 21
6914.511441556128
 31
0.0
  0
LINE
  5
18827
330
747D
100
AcDbEntity
  8
細線
100
AcDbLine
 10
9669.058015789246
 20
6909.511424002461
 30
0.0
 11
9666.72646931306
 21
6914.511441556138
 31
0.0
  0
LINE
  5
18828
330
747D
100
AcDbEntity
  8
細線
100
AcDbLine
 10
9599.058007603831
 20
6909.511441556171
 30
0.0
 11
9601.389545894599
 21
6914.511441556157
 31
0.0
  0
LINE
  5
18829
330
747D
100
AcDbEntity
  8
細線
100
AcDbLine
 10
9739.057972284939
 20
6909.511433368802
 30
0.0
 11
9741.389510575707
 21
6914.511433368787
 31
0.0
  0
LINE
  5
1882A
330
747D
100
AcDbEntity
  8
細線
100
AcDbLine
 10
9809.057980470354
 20
6909.511415815092
 30
0.0
 11
9806.726433994164
 21
6914.511433368772
 31
0.0
  0
LINE
  5
1882B
330
747D
100
AcDbEntity
  8
細線
100
AcDbLine
 10
9806.726433994167
 20
6914.511433368772
 30
0.0
 11
9741.389510575691
 21
6914.511433368758
 31
0.0
  0
LINE
  5
1882C
330
747D
100
AcDbEntity
  8
細線
100
AcDbLine
 10
9946.726470544101
 20
6914.511413065032
 30
0.0
 11
9881.389547125628
 21
6914.511413065017
 31
0.0
  0
LINE
  5
1882D
330
747D
100
AcDbEntity
  8
細線
100
AcDbLine
 10
9949.058017020291
 20
6909.51139551135
 30
0.0
 11
9946.726470544101
 21
6914.511413065032
 31
0.0
  0
LINE
  5
1882E
330
747D
100
AcDbEntity
  8
細線
100
AcDbLine
 10
9879.058007603831
 20
6909.511410425084
 30
0.0
 11
9881.389547125642
 21
6914.511413065046
 31
0.0
  0
LINE
  5
1882F
330
747D
100
AcDbEntity
  8
細線
 48
50.0
100
AcDbLine
 10
9821.920229528382
 20
6909.511433368802
 30
0.0
 11
9827.675747111049
 21
6927.782284659295
 31
0.0
  0
LINE
  5
18830
330
747D
100
AcDbEntity
  8
細線
 48
50.0
100
AcDbLine
 10
9827.675747111049
 20
6927.782284659295
 30
0.0
 11
9838.60419559148
 21
6927.782284659295
 31
0.0
  0
ARC
  5
18831
330
747D
100
AcDbEntity
  8
細線
 48
50.0
100
AcDbCircle
 10
9838.60419559148
 20
6926.782284659295
 30
0.0
 40
1.0
100
AcDbArc
 50
24.62431835213048
 51
90.0
  0
ARC
  5
18832
330
747D
100
AcDbEntity
  8
細線
 48
50.0
100
AcDbCircle
 10
9849.512907706118
 20
6926.782284659295
 30
0.0
 40
1.0
100
AcDbArc
 50
90.0
 51
155.3756816478695
  0
ARC
  5
18833
330
747D
100
AcDbEntity
  8
細線
 48
50.0
100
AcDbCircle
 10
9844.058551648799
 20
6929.282284659295
 30
0.0
 40
5.0
100
AcDbArc
 50
204.6243183521304
 51
335.3756816478695
  0
LINE
  5
18834
330
747D
100
AcDbEntity
  8
細線
 48
50.0
100
AcDbLine
 10
9849.512907706118
 20
6927.782284659295
 30
0.0
 11
9860.441356186548
 21
6927.782284659295
 31
0.0
  0
LINE
  5
18835
330
747D
100
AcDbEntity
  8
細線
 48
50.0
100
AcDbLine
 10
9860.441356186548
 20
6927.782284659295
 30
0.0
 11
9866.196873769219
 21
6909.511433368809
 31
0.0
  0
LINE
  5
18836
330
747D
100
AcDbEntity
  8
細線
100
AcDbLine
 10
10184.7264705441
 20
6948.511424146161
 30
0.0
 11
10119.38954712563
 21
6948.511424146147
 31
0.0
  0
LINE
  5
18837
330
747D
100
AcDbEntity
  8
細線
100
AcDbLine
 10
10187.05801702029
 20
6943.511406592481
 30
0.0
 11
10184.7264705441
 21
6948.511424146161
 31
0.0
  0
LINE
  5
18838
330
747D
100
AcDbEntity
  8
細線
100
AcDbLine
 10
10117.05800760383
 20
6943.511421506215
 30
0.0
 11
10119.38954712564
 21
6948.511424146175
 31
0.0
  0
LINE
  5
18839
330
747D
100
AcDbEntity
  8
細線
100
AcDbLine
 10
10257.05799818737
 20
6943.511436419949
 30
0.0
 11
10259.38953770918
 21
6948.51143905991
 31
0.0
  0
LINE
  5
1883A
330
747D
100
AcDbEntity
  8
細線
100
AcDbLine
 10
10327.05800760383
 20
6943.511421506215
 30
0.0
 11
10324.72646112764
 21
6948.511439059895
 31
0.0
  0
LINE
  5
1883B
330
747D
100
AcDbEntity
  8
細線
100
AcDbLine
 10
10324.72646112764
 20
6948.511439059895
 30
0.0
 11
10259.38953770917
 21
6948.511439059881
 31
0.0
  0
LINE
  5
1883C
330
747D
100
AcDbEntity
  8
細線
100
AcDbLine
 10
10464.72646112764
 20
6948.511439059895
 30
0.0
 11
10399.38953770917
 21
6948.511439059881
 31
0.0
  0
LINE
  5
1883D
330
747D
100
AcDbEntity
  8
細線
100
AcDbLine
 10
10467.05800760383
 20
6943.511421506215
 30
0.0
 11
10464.72646112764
 21
6948.511439059895
 31
0.0
  0
LINE
  5
1883E
330
747D
100
AcDbEntity
  8
細線
100
AcDbLine
 10
10397.05799818737
 20
6943.511436419949
 30
0.0
 11
10399.38953770918
 21
6948.51143905991
 31
0.0
  0
LINE
  5
1883F
330
747D
100
AcDbEntity
  8
細線
 48
50.0
100
AcDbLine
 10
9507.558007603835
 20
6919.707675897118
 30
0.0
 11
8919.058007603831
 21
6919.707675897114
 31
0.0
  0
LINE
  5
18840
330
747D
100
AcDbEntity
  8
細線
 48
50.0
100
AcDbLine
 10
9548.558007603833
 20
6890.302767900866
 30
0.0
 11
10575.05800760383
 21
6890.302767900864
 31
0.0
  0
LINE
  5
18841
330
747D
100
AcDbEntity
  8
細線
 48
50.0
100
AcDbLine
 10
10040.55801275474
 20
6924.01153645494
 30
0.0
 11
10575.05800760383
 21
6924.011536454941
 31
0.0
  0
LINE
  5
18842
330
747D
100
AcDbEntity
  8
寸法
 48
50.0
100
AcDbLine
 10
9491.558826582229
 20
6758.770129560415
 30
0.0
 11
9710.710766757953
 21
6758.770129560415
 31
0.0
  0
LINE
  5
18843
330
747D
100
AcDbEntity
  8
寸法
 48
50.0
100
AcDbLine
 10
9710.710766757953
 20
6758.770129560415
 30
0.0
 11
9621.426548162531
 21
6782.6937638299
 31
0.0
  0
LINE
  5
18844
330
747D
100
AcDbEntity
  8
寸法
 48
50.0
100
AcDbLine
 10
9621.426548162531
 20
6782.6937638299
 30
0.0
 11
9621.426548162531
 21
6729.03012924811
 31
0.0
  0
LINE
  5
18845
330
747D
100
AcDbEntity
  8
寸法
 48
50.0
100
AcDbLine
 10
9290.855005975572
 20
6725.548173075079
 30
0.0
 11
9342.261013885677
 21
6725.548173075079
 31
0.0
  0
LINE
  5
18846
330
747D
100
AcDbEntity
  8
寸法
 48
50.0
100
AcDbLine
 10
9342.261013885677
 20
6725.548173075079
 30
0.0
 11
9342.261013885677
 21
6756.858331727244
 31
0.0
  0
LINE
  5
18847
330
747D
100
AcDbEntity
  8
寸法
 48
50.0
100
AcDbLine
 10
9342.261013885677
 20
6756.858331727244
 30
0.0
 11
9372.0223458771
 21
6756.858331727244
 31
0.0
  0
LINE
  5
18848
330
747D
100
AcDbEntity
  8
寸法
 48
50.0
100
AcDbLine
 10
9372.0223458771
 20
6756.858331727244
 30
0.0
 11
9316.558009930623
 21
6794.437782655854
 31
0.0
  0
LINE
  5
18849
330
747D
100
AcDbEntity
  8
寸法
 48
50.0
100
AcDbLine
 10
9261.093673984149
 20
6756.858331727244
 30
0.0
 11
9316.558009930623
 21
6794.437782655854
 31
0.0
  0
LINE
  5
1884A
330
747D
100
AcDbEntity
  8
寸法
 48
50.0
100
AcDbLine
 10
9290.855005975572
 20
6756.858331727244
 30
0.0
 11
9261.093673984149
 21
6756.858331727244
 31
0.0
  0
LINE
  5
1884B
330
747D
100
AcDbEntity
  8
寸法
 48
50.0
100
AcDbLine
 10
9290.855005975572
 20
6725.548173075079
 30
0.0
 11
9290.855005975572
 21
6756.858331727244
 31
0.0
  0
LINE
  5
1884C
330
747D
100
AcDbEntity
  8
寸法
 48
50.0
100
AcDbLine
 10
9342.261013885677
 20
6725.548173075079
 30
0.0
 11
9290.855005975572
 21
6725.548173075079
 31
0.0
  0
DIMENSION
  5
18A59
330
747D
100
AcDbEntity
  8
寸法
100
AcDbDimension
  2
*D30
 10
10642.05800760384
 20
5755.683630761342
 30
0.0
 11
9735.204757935214
 21
5755.683630761342
 31
0.0
 70
   160
 71
     5
 42
1789.999999999982
  3
INABA_S40G
100
AcDbAlignedDimension
 13
8852.058007603861
 23
6947.511421506245
 33
0.0
 14
10642.05800760384
 24
6947.511421506373
 34
0.0
100
AcDbRotatedDimension
1001
ACAD
1000
DSTYLE
1002
{
1002
}
  0
TEXT
  5
18A5A
330
747D
100
AcDbEntity
  8
部品1
100
AcDbText
 10
9455.242284318677
 20
5283.541757900454
 30
0.0
 40
135.0
  1
平面図
  7
STYLE2
100
AcDbText
  0
LINE
  5
18A5B
330
747D
100
AcDbEntity
  8
部品1
100
AcDbLine
 10
9365.32267448964
 20
5476.435287118977
 30
0.0
 11
9365.32267448964
 21
5236.542965573445
 31
0.0
  0
LINE
  5
18A5C
330
747D
100
AcDbEntity
  8
部品1
100
AcDbLine
 10
9365.32267448964
 20
5236.542965573445
 30
0.0
 11
10128.79334071808
 21
5236.542965573445
 31
0.0
  0
LINE
  5
18A5D
330
747D
100
AcDbEntity
  8
部品1
100
AcDbLine
 10
10128.79334071808
 20
5236.542965573445
 30
0.0
 11
10128.79334071808
 21
5476.435287118977
 31
0.0
  0
LINE
  5
18A5E
330
747D
100
AcDbEntity
  8
部品1
100
AcDbLine
 10
10128.79334071808
 20
5476.435287118977
 30
0.0
 11
9365.32267448964
 21
5476.435287118977
 31
0.0
  0
DIMENSION
  5
18A5F
330
747D
100
AcDbEntity
  8
寸法
100
AcDbDimension
  2
*D31
 10
8557.446761977145
 20
6872.511421506245
 30
0.0
 11
8557.446761977143
 21
6732.026140132005
 31
0.0
 70
   160
 71
     5
 42
75.0
  3
INABA_S40
100
AcDbAlignedDimension
 13
8852.058007603861
 23
6947.511421506245
 33
0.0
 14
8880.058007603839
 24
6872.511421506245
 34
0.0
 50
90.0
100
AcDbRotatedDimension
1001
ACAD
1000
DSTYLE
1002
{
1070
    41
1040
0.5
1070
    44
1040
1.0
1070
   147
1040
0.8
1070
   271
1070
     2
1070
   272
1070
     2
1070
   289
1070
     3
1070
   340
1005
F706
1070
   343
1005
175BE
1070
   344
1005
175BE
1002
}
  0
DIMENSION
  5
18A60
330
747D
100
AcDbEntity
  8
寸法
 48
50.0
100
AcDbDimension
  2
*D32
 10
10614.05800760383
 20
5995.441151655469
 30
0.0
 11
9737.639751555654
 21
5995.441151655469
 31
0.0
 70
   160
 71
     5
 42
1734.0
  3
INABA_S40G
100
AcDbAlignedDimension
 13
8880.058007603832
 23
6870.511421506249
 33
0.0
 14
10614.05800760383
 24
6870.511421506248
 34
0.0
100
AcDbRotatedDimension
1001
ACAD
1000
DSTYLE
1002
{
1070
   341
1005
0
1002
}
  0
LWPOLYLINE
  5
18D67
330
747D
100
AcDbEntity
  8
部品1
 48
50.0
100
AcDbPolyline
 90
        4
 70
     1
 43
0.0
 10
8979.108007603839
 20
2936.238104552487
 10
8982.008007603841
 20
2936.238104552487
 10
8982.008007603841
 20
2945.738104552487
 10
8979.108007603839
 20
2945.738104552487
  0
CIRCLE
  5
18D68
330
747D
100
AcDbEntity
  8
部品1
 48
50.0
100
AcDbCircle
 10
8980.558007603841
 20
2940.988104552488
 30
0.0
 40
9.0
  0
ARC
  5
18D69
330
747D
100
AcDbEntity
  8
細線
 48
50.0
100
AcDbCircle
 10
8980.558007603841
 20
2940.988104552488
 30
0.0
 40
4.0
100
AcDbArc
 50
111.2538091853132
 51
248.7461908146868
  0
ARC
  5
18D6A
330
747D
100
AcDbEntity
  8
細線
 48
50.0
100
AcDbCircle
 10
8980.558007603841
 20
2940.988104552488
 30
0.0
 40
17.5
100
AcDbArc
 50
306.4837370612677
 51
233.5162629387323
  0
LINE
  5
18D6B
330
747D
100
AcDbEntity
  8
細線
 48
50.0
100
AcDbLine
 10
8990.558007603837
 20
2917.129143971605
 30
0.0
 11
8990.558007603841
 21
2926.113629771846
 31
0.0
  0
LINE
  5
18D6C
330
747D
100
AcDbEntity
  8
細線
 48
50.0
100
AcDbLine
 10
8970.558007603839
 20
2917.129143971606
 30
0.0
 11
8970.558007603839
 21
2926.113629771842
 31
0.0
  0
ARC
  5
18D6D
330
747D
100
AcDbEntity
  8
細線
 48
50.0
100
AcDbCircle
 10
8980.558007603841
 20
2940.988104552488
 30
0.0
 40
26.5
100
AcDbArc
 50
249.3326835063939
 51
290.6673164933835
  0
ARC
  5
18D6E
330
747D
100
AcDbEntity
  8
細線
 48
50.0
100
AcDbCircle
 10
8989.558007603832
 20
2917.129143971605
 30
0.0
 40
1.0
100
AcDbArc
 50
290.6673164936062
 51
359.9999999998958
  0
ARC
  5
18D6F
330
747D
100
AcDbEntity
  8
細線
 48
50.0
100
AcDbCircle
 10
8971.558007603841
 20
2917.129143971606
 30
0.0
 40
1.0
100
AcDbArc
 50
180.0
 51
249.3326835066164
  0
ARC
  5
18D70
330
747D
100
AcDbEntity
  8
細線
 48
50.0
100
AcDbCircle
 10
8969.558007603842
 20
2926.113629771842
 30
0.0
 40
1.0
100
AcDbArc
 50
0.0
 51
53.51626293873231
  0
ARC
  5
18D71
330
747D
100
AcDbEntity
  8
細線
 48
50.0
100
AcDbCircle
 10
8991.558007603844
 20
2926.113629771846
 30
0.0
 40
1.0
100
AcDbArc
 50
126.4837370615127
 51
180.0
  0
ARC
  5
18D72
330
747D
100
AcDbEntity
  8
細線
 48
50.0
100
AcDbCircle
 10
8980.558007603841
 20
2940.988104552488
 30
0.0
 40
21.5
100
AcDbArc
 50
255.8014401250294
 51
284.1985598749706
  0
ARC
  5
18D73
330
747D
100
AcDbEntity
  8
細線
 48
50.0
100
AcDbCircle
 10
8980.558007603841
 20
2940.988104552488
 30
0.0
 40
16.5
100
AcDbArc
 50
251.9694646069326
 51
288.0305353930674
  0
LINE
  5
18D74
330
747D
100
AcDbEntity
  8
細線
 48
50.0
100
AcDbLine
 10
8986.05800760384
 20
2920.43573242668
 30
0.0
 11
8986.05800760384
 21
2925.013124114017
 31
0.0
  0
LINE
  5
18D75
330
747D
100
AcDbEntity
  8
細線
 48
50.0
100
AcDbLine
 10
8975.058007603839
 20
2920.43573242668
 30
0.0
 11
8975.058007603839
 21
2925.013124114015
 31
0.0
  0
ARC
  5
18D76
330
747D
100
AcDbEntity
  8
細線
 48
50.0
100
AcDbCircle
 10
8975.358007603842
 20
2925.013124114015
 30
0.0
 40
0.3
100
AcDbArc
 50
71.96946460693259
 51
180.0
  0
ARC
  5
18D77
330
747D
100
AcDbEntity
  8
細線
 48
50.0
100
AcDbCircle
 10
8985.758007603841
 20
2925.013124114017
 30
0.0
 40
0.3
100
AcDbArc
 50
0.0
 51
108.0305353930674
  0
ARC
  5
18D78
330
747D
100
AcDbEntity
  8
細線
 48
50.0
100
AcDbCircle
 10
8985.758007603838
 20
2920.43573242668
 30
0.0
 40
0.3
100
AcDbArc
 50
284.1985598747622
 51
0.0000000001042204
  0
ARC
  5
18D79
330
747D
100
AcDbEntity
  8
細線
 48
50.0
100
AcDbCircle
 10
8975.358007603842
 20
2920.43573242668
 30
0.0
 40
0.3
100
AcDbArc
 50
180.0
 51
255.8014401248081
  0
CIRCLE
  5
18D7A
330
747D
100
AcDbEntity
  8
細線
 48
50.0
100
AcDbCircle
 10
8980.558007603841
 20
2940.988104552488
 30
0.0
 40
12.0
  0
ARC
  5
18D7B
330
747D
100
AcDbEntity
  8
部品1
 48
50.0
100
AcDbCircle
 10
8980.558007603841
 20
2990.988104552487
 30
0.0
 40
8.5
100
AcDbArc
 50
114.315739171091
 51
245.684260828909
  0
CIRCLE
  5
18D7C
330
747D
100
AcDbEntity
  8
細線
 48
50.0
100
AcDbCircle
 10
8980.558007603841
 20
2990.988104552487
 30
0.0
 40
4.5
  0
LWPOLYLINE
  5
18D7D
330
747D
100
AcDbEntity
  8
部品1
 48
50.0
100
AcDbPolyline
 90
        2
 70
     0
 43
0.0
 10
8977.05800760384
 20
3009.66295394947
 10
8977.05800760384
 20
2998.734071244902
  0
CIRCLE
  5
18D7E
330
747D
100
AcDbEntity
  8
部品1
 48
50.0
100
AcDbCircle
 10
8980.558007603841
 20
2990.988104552487
 30
0.0
 40
19.0
  0
LWPOLYLINE
  5
18D7F
330
747D
100
AcDbEntity
  8
部品1
 48
50.0
100
AcDbPolyline
 90
        2
 70
     0
 43
0.0
 10
8977.05800760384
 20
2983.242137860072
 10
8977.05800760384
 20
2972.313255155505
  0
LWPOLYLINE
  5
18D80
330
747D
100
AcDbEntity
  8
部品1
 48
50.0
100
AcDbPolyline
 90
        2
 70
     0
 43
0.0
 10
8984.05800760384
 20
2998.734071244902
 10
8984.05800760384
 20
3009.66295394947
  0
ARC
  5
18D81
330
747D
100
AcDbEntity
  8
部品1
 48
50.0
100
AcDbCircle
 10
8980.558007603841
 20
2990.988104552487
 30
0.0
 40
8.5
100
AcDbArc
 50
294.315739171091
 51
65.68426082890896
  0
LWPOLYLINE
  5
18D82
330
747D
100
AcDbEntity
  8
部品1
 48
50.0
100
AcDbPolyline
 90
        2
 70
     0
 43
0.0
 10
8984.05800760384
 20
2972.313255155505
 10
8984.05800760384
 20
2983.242137860072
  0
ARC
  5
18D83
330
747D
100
AcDbEntity
  8
細線
 48
50.0
100
AcDbCircle
 10
8980.558007603841
 20
2990.988104552487
 30
0.0
 40
16.5
100
AcDbArc
 50
332.0012352654438
 51
27.99876473455621
  0
ARC
  5
18D84
330
747D
100
AcDbEntity
  8
細線
 48
50.0
100
AcDbCircle
 10
8980.558007603841
 20
2990.988104552487
 30
0.0
 40
14.0
100
AcDbArc
 50
326.4074436112986
 51
33.59255638870134
  0
LINE
  5
18D85
330
747D
100
AcDbEntity
  8
細線
 48
50.0
100
AcDbLine
 10
8965.989205319509
 20
2998.734071244902
 30
0.0
 11
8968.896103814151
 21
2998.734071244902
 31
0.0
  0
LINE
  5
18D86
330
747D
100
AcDbEntity
  8
細線
 48
50.0
100
AcDbLine
 10
8965.989205319509
 20
2983.242137860072
 30
0.0
 11
8968.896103814151
 21
2983.242137860072
 31
0.0
  0
LINE
  5
18D87
330
747D
100
AcDbEntity
  8
細線
 48
50.0
100
AcDbLine
 10
8992.219911393529
 20
2998.734071244902
 30
0.0
 11
8995.126809888175
 21
2998.734071244902
 31
0.0
  0
LINE
  5
18D88
330
747D
100
AcDbEntity
  8
細線
 48
50.0
100
AcDbLine
 10
8992.219911393529
 20
2983.242137860072
 30
0.0
 11
8995.126809888175
 21
2983.242137860072
 31
0.0
  0
ARC
  5
18D89
330
747D
100
AcDbEntity
  8
細線
 48
50.0
100
AcDbCircle
 10
8980.558007603841
 20
2990.988104552487
 30
0.0
 40
14.0
100
AcDbArc
 50
146.4074436112986
 51
213.5925563887013
  0
ARC
  5
18D8A
330
747D
100
AcDbEntity
  8
細線
 48
50.0
100
AcDbCircle
 10
8980.558007603841
 20
2990.988104552487
 30
0.0
 40
16.5
100
AcDbArc
 50
152.0012352654438
 51
207.9987647345562
  0
ARC
  5
18D8B
330
747D
100
AcDbEntity
  8
部品1
 48
50.0
100
AcDbCircle
 10
8954.05800760384
 20
3016.488104552487
 30
0.0
 40
5.0
100
AcDbArc
 50
90.0
 51
180.0
  0
ARC
  5
18D8C
330
747D
100
AcDbEntity
  8
部品1
 48
50.0
100
AcDbCircle
 10
8954.05800760384
 20
2905.488104552487
 30
0.0
 40
5.0
100
AcDbArc
 50
180.0
 51
270.0
  0
ARC
  5
18D8D
330
747D
100
AcDbEntity
  8
部品1
 48
50.0
100
AcDbCircle
 10
9007.058007603841
 20
2905.488104552487
 30
0.0
 40
5.0
100
AcDbArc
 50
270.0
 51
0.0
  0
ARC
  5
18D8E
330
747D
100
AcDbEntity
  8
部品1
 48
50.0
100
AcDbCircle
 10
9007.058007603841
 20
3016.488104552487
 30
0.0
 40
5.0
100
AcDbArc
 50
0.0
 51
90.0
  0
LINE
  5
18D90
330
747D
100
AcDbEntity
  8
部品1
 48
50.0
100
AcDbLine
 10
8949.058007603841
 20
2905.488104552487
 30
0.0
 11
8949.058007603841
 21
3016.488104552487
 31
0.0
  0
LINE
  5
18D91
330
747D
100
AcDbEntity
  8
部品1
 48
50.0
100
AcDbLine
 10
9007.058007603841
 20
2900.488104552487
 30
0.0
 11
8954.05800760384
 21
2900.488104552487
 31
0.0
  0
LINE
  5
18D92
330
747D
100
AcDbEntity
  8
部品1
 48
50.0
100
AcDbLine
 10
9012.05800760384
 20
3016.488104552487
 30
0.0
 11
9012.05800760384
 21
2905.488104552487
 31
0.0
  0
ENDSEC
  0
SECTION
  2
OBJECTS
  0
DICTIONARY
  5
7471
330
0
100
AcDbDictionary
281
     1
  3
ACAD_COLOR
350
175B2
  3
ACAD_GROUP
350
7472
  3
ACAD_LAYOUT
350
175B3
  3
ACAD_MATERIAL
350
175B1
  3
ACAD_MLINESTYLE
350
7473
  3
ACAD_PLOTSETTINGS
350
175B4
  3
ACAD_PLOTSTYLENAME
350
175AF
  3
ACDBHEADERROUNDTRIPXREC
350
18DA1
  3
AcDbVariableDictionary
350
18D9D
  3
CONTENTDICTIONARY
350
E71C
  3
DRAWINGVARIABLESDICT
350
F3B9
  0
DICTIONARY
  5
17734
330
7467
100
AcDbDictionary
280
     1
281
     1
  3
ACAD_LAYERSTATES
360
17735
  0
DICTIONARY
  5
175B2
102
{ACAD_REACTORS
330
7471
102
}
330
7471
100
AcDbDictionary
281
     1
  0
DICTIONARY
  5
7472
102
{ACAD_REACTORS
330
7471
102
}
330
7471
100
AcDbDictionary
281
     1
  0
DICTIONARY
  5
175B3
102
{ACAD_REACTORS
330
7471
102
}
330
7471
100
AcDbDictionary
281
     1
  3
Model
350
175B5
  3
レイアウト1
350
175B6
  0
DICTIONARY
  5
175B1
102
{ACAD_REACTORS
330
7471
102
}
330
7471
100
AcDbDictionary
281
     1
  0
DICTIONARY
  5
7473
102
{ACAD_REACTORS
330
7471
102
}
330
7471
100
AcDbDictionary
281
     1
  3
STANDARD
350
7480
  0
DICTIONARY
  5
175B4
102
{ACAD_REACTORS
330
7471
102
}
330
7471
100
AcDbDictionary
281
     1
  0
ACDBDICTIONARYWDFLT
  5
175AF
102
{ACAD_REACTORS
330
7471
102
}
330
7471
100
AcDbDictionary
281
     1
  3
Normal
350
175B0
100
AcDbDictionaryWithDefault
340
175B0
  0
DICTIONARY
  5
18DA1
102
{ACAD_REACTORS
330
7471
102
}
330
7471
100
AcDbDictionary
281
     1
  3
COLORDICT
350
18DA3
  3
MATERIALDICT
350
18DA2
  0
DICTIONARY
  5
18D9D
102
{ACAD_REACTORS
330
7471
102
}
330
7471
100
AcDbDictionary
281
     1
  3
DIMASSOC
350
18D9E
  3
PROJECTNAME
350
18D9F
  0
DICTIONARY
  5
E71C
102
{ACAD_REACTORS
330
7471
102
}
330
7471
100
AcDbDictionary
281
     1
  0
DICTIONARY
  5
F3B9
102
{ACAD_REACTORS
330
7471
102
}
330
7471
100
AcDbDictionary
281
     1
1001
DRAWINGVARIABLESXDATA
1000
POLARMODE
1000
1
  0
DICTIONARY
  5
17735
102
{ACAD_REACTORS
330
17734
102
}
330
17734
100
AcDbDictionary
281
     1
  0
LAYOUT
  5
175B5
102
{ACAD_XDICTIONARY
360
18DA4
102
}
102
{ACAD_REACTORS
330
175B3
102
}
330
175B3
100
AcDbPlotSettings
  1

  2
Microsoft Office Document Image Writer
  4

  6

 40
0.0
 41
0.0
 42
0.0
 43
0.0
 44
0.0
 45
0.0
 46
0.0
 47
0.0
 48
0.0
 49
0.0
140
0.0
141
0.0
142
1.0
143
1.0
 70
  1712
 72
     0
 73
     0
 74
     0
  7

 75
     0
147
1.0
148
0.0
149
0.0
100
AcDbLayout
  1
Model
 70
     1
 71
     0
 10
0.0
 20
0.0
 11
12.0
 21
9.0
 12
0.0
 22
0.0
 32
0.0
 14
0.0
 24
0.0
 34
0.0
 15
0.0
 25
0.0
 35
0.0
146
0.0
 13
0.0
 23
0.0
 33
0.0
 16
1.0
 26
0.0
 36
0.0
 17
0.0
 27
1.0
 37
0.0
 76
     0
330
747D
  0
LAYOUT
  5
175B6
102
{ACAD_XDICTIONARY
360
18DA6
102
}
102
{ACAD_REACTORS
330
175B3
102
}
330
175B3
100
AcDbPlotSettings
  1

  2
Microsoft Office Document Image Writer
  4

  6

 40
0.0
 41
0.0
 42
0.0
 43
0.0
 44
0.0
 45
0.0
 46
0.0
 47
0.0
 48
0.0
 49
0.0
140
0.0
141
0.0
142
1.0
143
1.0
 70
   688
 72
     0
 73
     0
 74
     5
  7

 75
    16
147
1.0
148
0.0
149
0.0
100
AcDbLayout
  1
レイアウト1
 70
     0
 71
     1
 10
0.0
 20
0.0
 11
420.0
 21
297.0
 12
0.0
 22
0.0
 32
0.0
 14
1.000000000000000E+20
 24
1.000000000000000E+20
 34
1.000000000000000E+20
 15
-1.000000000000000E+20
 25
-1.000000000000000E+20
 35
-1.000000000000000E+20
146
0.0
 13
0.0
 23
0.0
 33
0.0
 16
1.0
 26
0.0
 36
0.0
 17
0.0
 27
1.0
 37
0.0
 76
     0
330
747A
  0
MLINESTYLE
  5
7480
102
{ACAD_REACTORS
330
7473
102
}
330
7473
100
AcDbMlineStyle
  2
STANDARD
 70
     0
  3

 62
     0
 51
90.0
 52
90.0
 71
     2
 49
0.5
 62
   256
  6
BYLAYER
 49
-0.5
 62
   256
  6
BYLAYER
  0
ACDBPLACEHOLDER
  5
175B0
102
{ACAD_REACTORS
330
175AF
102
}
330
175AF
  0
XRECORD
  5
18DA3
102
{ACAD_REACTORS
330
18DA1
102
}
330
18DA1
100
AcDbXrecord
280
     1
340
175B2
  0
XRECORD
  5
18DA2
102
{ACAD_REACTORS
330
18DA1
102
}
330
18DA1
100
AcDbXrecord
280
     1
340
175B1
  0
DICTIONARYVAR
  5
18D9E
102
{ACAD_REACTORS
330
18D9D
102
}
330
18D9D
100
DictionaryVariables
280
     0
  1
1
  0
DICTIONARYVAR
  5
18D9F
102
{ACAD_REACTORS
330
18D9D
102
}
330
18D9D
100
DictionaryVariables
280
     0
  1

  0
DICTIONARY
  5
18DA4
330
175B5
100
AcDbDictionary
280
     1
281
     1
  3
ACAD_XREC_ROUNDTRIP
360
18DA5
  0
DICTIONARY
  5
18DA6
330
175B6
100
AcDbDictionary
280
     1
281
     1
  3
ACAD_XREC_ROUNDTRIP
360
18DA7
  0
XRECORD
  5
18DA5
102
{ACAD_REACTORS
330
18DA4
102
}
330
18DA4
100
AcDbXrecord
280
     1
102
SHADEPLOT
 70
     0
102
SHADEPLOTRESLEVEL
 70
     2
102
SHADEPLOTCUSTOMDPI
 70
   300
  0
XRECORD
  5
18DA7
102
{ACAD_REACTORS
330
18DA6
102
}
330
18DA6
100
AcDbXrecord
280
     1
102
SHADEPLOT
 70
     0
102
SHADEPLOTRESLEVEL
 70
     2
102
SHADEPLOTCUSTOMDPI
 70
   300
  0
ENDSEC
  0
EOF
