  0
SECTION
  2
HEADER
  9
$ACADVER
  1
AC1015
  9
$ACADMAINTVER
 70
    20
  9
$DWGCODEPAGE
  3
ANSI_932
  9
$INSBASE
 10
0.0
 20
0.0
 30
0.0
  9
$EXTMIN
 10
139.9999999999995
 20
-0.0000000000000909
 30
0.0
  9
$EXTMAX
 10
16307.2
 20
11409.6
 30
0.0
  9
$LIMMIN
 10
-25.79074261211281
 20
-125.8223078213959
  9
$LIMMAX
 10
16471.10331197129
 20
11496.44801950658
  9
$ORTHOMODE
 70
     0
  9
$REGENMODE
 70
     1
  9
$FILLMODE
 70
     1
  9
$QTEXTMODE
 70
     0
  9
$MIRRTEXT
 70
     1
  9
$LTSCALE
 40
20.0
  9
$ATTMODE
 70
     1
  9
$TEXTSIZE
 40
4.0
  9
$TRACEWID
 40
1.0
  9
$TEXTSTYLE
  7
STYLE1
  9
$CLAYER
  8
部品1
  9
$CELTYPE
  6
BYLAYER
  9
$CECOLOR
 62
   256
  9
$CELTSCALE
 40
50.0
  9
$DISPSILH
 70
     0
  9
$DIMSCALE
 40
40.0
  9
$DIMASZ
 40
2.5
  9
$DIMEXO
 40
0.5
  9
$DIMDLI
 40
7.0
  9
$DIMRND
 40
0.0
  9
$DIMDLE
 40
0.0
  9
$DIMEXE
 40
1.5
  9
$DIMTP
 40
0.0
  9
$DIMTM
 40
0.0
  9
$DIMTXT
 40
3.0
  9
$DIMCEN
 40
0.0
  9
$DIMTSZ
 40
0.0
  9
$DIMTOL
 70
     0
  9
$DIMLIM
 70
     0
  9
$DIMTIH
 70
     0
  9
$DIMTOH
 70
     0
  9
$DIMSE1
 70
     0
  9
$DIMSE2
 70
     0
  9
$DIMTAD
 70
     3
  9
$DIMZIN
 70
     8
  9
$DIMBLK
  1

  9
$DIMASO
 70
     1
  9
$DIMSHO
 70
     1
  9
$DIMPOST
  1

  9
$DIMAPOST
  1

  9
$DIMALT
 70
     0
  9
$DIMALTD
 70
     2
  9
$DIMALTF
 40
0.0394
  9
$DIMLFAC
 40
1.0
  9
$DIMTOFL
 70
     1
  9
$DIMTVP
 40
0.0
  9
$DIMTIX
 70
     1
  9
$DIMSOXD
 70
     0
  9
$DIMSAH
 70
     1
  9
$DIMBLK1
  1
DOTSMALL
  9
$DIMBLK2
  1
DOTSMALL
  9
$DIMSTYLE
  2
INABA_S40G
  9
$DIMCLRD
 70
     0
  9
$DIMCLRE
 70
     0
  9
$DIMCLRT
 70
     7
  9
$DIMTFAC
 40
1.0
  9
$DIMGAP
 40
1.0
  9
$DIMJUST
 70
     0
  9
$DIMSD1
 70
     0
  9
$DIMSD2
 70
     0
  9
$DIMTOLJ
 70
     1
  9
$DIMTZIN
 70
     0
  9
$DIMALTZ
 70
     0
  9
$DIMALTTZ
 70
     0
  9
$DIMUPT
 70
     1
  9
$DIMDEC
 70
     1
  9
$DIMTDEC
 70
     4
  9
$DIMALTU
 70
     2
  9
$DIMALTTD
 70
     2
  9
$DIMTXSTY
  7
STYLE1
  9
$DIMAUNIT
 70
     0
  9
$DIMADEC
 70
     0
  9
$DIMALTRND
 40
0.0
  9
$DIMAZIN
 70
     0
  9
$DIMDSEP
 70
    46
  9
$DIMATFIT
 70
     3
  9
$DIMFRAC
 70
     0
  9
$DIMLDRBLK
  1

  9
$DIMLUNIT
 70
     2
  9
$DIMLWD
 70
    -2
  9
$DIMLWE
 70
    -2
  9
$DIMTMOVE
 70
     0
  9
$LUNITS
 70
     2
  9
$LUPREC
 70
     1
  9
$SKETCHINC
 40
1.0
  9
$FILLETRAD
 40
3.0
  9
$AUNITS
 70
     0
  9
$AUPREC
 70
     0
  9
$MENU
  1
acad
  9
$ELEVATION
 40
0.0
  9
$PELEVATION
 40
0.0
  9
$THICKNESS
 40
0.0
  9
$LIMCHECK
 70
     0
  9
$CHAMFERA
 40
0.0
  9
$CHAMFERB
 40
0.0
  9
$CHAMFERC
 40
0.0
  9
$CHAMFERD
 40
0.0
  9
$SKPOLY
 70
     0
  9
$TDCREATE
 40
2451368.612993866
  9
$TDUCREATE
 40
2451368.237993866
  9
$TDUPDATE
 40
2455575.682627488
  9
$TDUUPDATE
 40
2455575.307627488
  9
$TDINDWG
 40
0.6166821296
  9
$TDUSRTIMER
 40
0.6166821296
  9
$USRTIMER
 70
     1
  9
$ANGBASE
 50
0.0
  9
$ANGDIR
 70
     0
  9
$PDMODE
 70
     3
  9
$PDSIZE
 40
2.0
  9
$PLINEWID
 40
0.0
  9
$SPLFRAME
 70
     0
  9
$SPLINETYPE
 70
     6
  9
$SPLINESEGS
 70
     8
  9
$HANDSEED
  5
18A3F
  9
$SURFTAB1
 70
     6
  9
$SURFTAB2
 70
     6
  9
$SURFTYPE
 70
     6
  9
$SURFU
 70
     6
  9
$SURFV
 70
     6
  9
$UCSBASE
  2

  9
$UCSNAME
  2

  9
$UCSORG
 10
0.0
 20
0.0
 30
0.0
  9
$UCSXDIR
 10
1.0
 20
0.0
 30
0.0
  9
$UCSYDIR
 10
0.0
 20
1.0
 30
0.0
  9
$UCSORTHOREF
  2

  9
$UCSORTHOVIEW
 70
     0
  9
$UCSORGTOP
 10
0.0
 20
0.0
 30
0.0
  9
$UCSORGBOTTOM
 10
0.0
 20
0.0
 30
0.0
  9
$UCSORGLEFT
 10
0.0
 20
0.0
 30
0.0
  9
$UCSORGRIGHT
 10
0.0
 20
0.0
 30
0.0
  9
$UCSORGFRONT
 10
0.0
 20
0.0
 30
0.0
  9
$UCSORGBACK
 10
0.0
 20
0.0
 30
0.0
  9
$PUCSBASE
  2

  9
$PUCSNAME
  2

  9
$PUCSORG
 10
0.0
 20
0.0
 30
0.0
  9
$PUCSXDIR
 10
1.0
 20
0.0
 30
0.0
  9
$PUCSYDIR
 10
0.0
 20
1.0
 30
0.0
  9
$PUCSORTHOREF
  2

  9
$PUCSORTHOVIEW
 70
     0
  9
$PUCSORGTOP
 10
0.0
 20
0.0
 30
0.0
  9
$PUCSORGBOTTOM
 10
0.0
 20
0.0
 30
0.0
  9
$PUCSORGLEFT
 10
0.0
 20
0.0
 30
0.0
  9
$PUCSORGRIGHT
 10
0.0
 20
0.0
 30
0.0
  9
$PUCSORGFRONT
 10
0.0
 20
0.0
 30
0.0
  9
$PUCSORGBACK
 10
0.0
 20
0.0
 30
0.0
  9
$USERI1
 70
     0
  9
$USERI2
 70
     0
  9
$USERI3
 70
     0
  9
$USERI4
 70
     0
  9
$USERI5
 70
     0
  9
$USERR1
 40
0.0
  9
$USERR2
 40
0.0
  9
$USERR3
 40
0.0
  9
$USERR4
 40
0.0
  9
$USERR5
 40
0.0
  9
$WORLDVIEW
 70
     1
  9
$SHADEDGE
 70
     3
  9
$SHADEDIF
 70
    70
  9
$TILEMODE
 70
     1
  9
$MAXACTVP
 70
    16
  9
$PINSBASE
 10
0.0
 20
0.0
 30
0.0
  9
$PLIMCHECK
 70
     0
  9
$PEXTMIN
 10
1.000000000000000E+20
 20
1.000000000000000E+20
 30
1.000000000000000E+20
  9
$PEXTMAX
 10
-1.000000000000000E+20
 20
-1.000000000000000E+20
 30
-1.000000000000000E+20
  9
$PLIMMIN
 10
0.0
 20
0.0
  9
$PLIMMAX
 10
420.0
 20
297.0
  9
$UNITMODE
 70
     0
  9
$VISRETAIN
 70
     0
  9
$PLINEGEN
 70
     0
  9
$PSLTSCALE
 70
     0
  9
$TREEDEPTH
 70
  3020
  9
$CMLSTYLE
  2
STANDARD
  9
$CMLJUST
 70
     0
  9
$CMLSCALE
 40
1.0
  9
$PROXYGRAPHICS
 70
     1
  9
$MEASUREMENT
 70
     1
  9
$CELWEIGHT
370
    -1
  9
$ENDCAPS
280
     0
  9
$JOINSTYLE
280
     0
  9
$LWDISPLAY
290
     0
  9
$INSUNITS
 70
     0
  9
$HYPERLINKBASE
  1

  9
$STYLESHEET
  1
inaba.ctb
  9
$XEDIT
290
     1
  9
$CEPSNTYPE
380
     0
  9
$PSTYLEMODE
290
     1
  9
$FINGERPRINTGUID
  2
{94800E3E-B410-4C4C-8D5F-81D913DABB7A}
  9
$VERSIONGUID
  2
{55B45CED-CA1A-4544-BBD0-8621E6D7F0DD}
  9
$EXTNAMES
290
     1
  9
$PSVPSCALE
 40
0.0
  9
$OLESTARTUP
290
     0
  0
ENDSEC
  0
SECTION
  2
CLASSES
  0
CLASS
  1
ACDBDICTIONARYWDFLT
  2
AcDbDictionaryWithDefault
  3
ObjectDBX Classes
 90
        0
280
     0
281
     0
  0
CLASS
  1
DICTIONARYVAR
  2
AcDbDictionaryVar
  3
ObjectDBX Classes
 90
        0
280
     0
281
     0
  0
CLASS
  1
ACDBPLACEHOLDER
  2
AcDbPlaceHolder
  3
ObjectDBX Classes
 90
        0
280
     0
281
     0
  0
CLASS
  1
LAYOUT
  2
AcDbLayout
  3
ObjectDBX Classes
 90
        0
280
     0
281
     0
  0
ENDSEC
  0
SECTION
  2
TABLES
  0
TABLE
  2
VPORT
  5
746D
330
0
100
AcDbSymbolTable
 70
     2
  0
VPORT
  5
18A37
330
746D
100
AcDbSymbolTableRecord
100
AcDbViewportTableRecord
  2
*Active
 70
     0
 10
0.0
 20
0.0
 11
1.0
 21
1.0
 12
8223.761025238504
 22
5704.608037261908
 13
0.0
 23
0.0
 14
10.0
 24
10.0
 15
10.0
 25
10.0
 16
0.0
 26
0.0
 36
1.0
 17
0.0
 27
0.0
 37
0.0
 40
11495.08541324274
 41
1.525925925925925
 42
50.0
 43
0.0
 44
0.0
 50
0.0
 51
0.0
 71
     0
 72
     0
 73
     1
 74
     0
 75
     0
 76
     0
 77
     0
 78
     0
281
     0
 65
     1
110
0.0
120
0.0
130
0.0
111
1.0
121
0.0
131
0.0
112
0.0
122
1.0
132
0.0
 79
     0
146
0.0
  0
ENDTAB
  0
TABLE
  2
LTYPE
  5
746A
330
0
100
AcDbSymbolTable
 70
     4
  0
LTYPE
  5
7477
330
746A
100
AcDbSymbolTableRecord
100
AcDbLinetypeTableRecord
  2
BYBLOCK
 70
     0
  3

 72
    65
 73
     0
 40
0.0
  0
LTYPE
  5
7478
330
746A
100
AcDbSymbolTableRecord
100
AcDbLinetypeTableRecord
  2
BYLAYER
 70
     0
  3

 72
    65
 73
     0
 40
0.0
  0
LTYPE
  5
7479
330
746A
100
AcDbSymbolTableRecord
100
AcDbLinetypeTableRecord
  2
CONTINUOUS
 70
     0
  3
Solid line
 72
    65
 73
     0
 40
0.0
  0
LTYPE
  5
7816
330
746A
100
AcDbSymbolTableRecord
100
AcDbLinetypeTableRecord
  2
CENTER
 70
     0
  3
____ _ ____ _ ____ _ ____ _ ____ _ ____ _ ____ 
 72
    65
 73
     4
 40
2.0
 49
1.25
 74
     0
 49
-0.25
 74
     0
 49
0.25
 74
     0
 49
-0.25
 74
     0
  0
LTYPE
  5
781A
330
746A
100
AcDbSymbolTableRecord
100
AcDbLinetypeTableRecord
  2
HIDDEN
 70
     0
  3
__ __ __ __ __ __ __ __ __ __ __ __ __ __ __ __
 72
    65
 73
     2
 40
0.375
 49
0.25
 74
     0
 49
-0.125
 74
     0
  0
LTYPE
  5
781B
330
746A
100
AcDbSymbolTableRecord
100
AcDbLinetypeTableRecord
  2
PHANTOM
 70
     0
  3
______  __  __  ______  __  __  ______  __  __ 
 72
    65
 73
     6
 40
2.5
 49
1.25
 74
     0
 49
-0.25
 74
     0
 49
0.25
 74
     0
 49
-0.25
 74
     0
 49
0.25
 74
     0
 49
-0.25
 74
     0
  0
ENDTAB
  0
TABLE
  2
LAYER
  5
7467
102
{ACAD_XDICTIONARY
360
1675F
102
}
330
0
100
AcDbSymbolTable
 70
    12
  0
LAYER
  5
7474
330
7467
100
AcDbSymbolTableRecord
100
AcDbLayerTableRecord
  2
0
 70
     0
 62
     7
  6
CONTINUOUS
370
    -3
390
165CF
  0
LAYER
  5
DEB2
330
7467
100
AcDbSymbolTableRecord
100
AcDbLayerTableRecord
  2
センター
 70
     0
 62
     3
  6
CENTER
370
    -3
390
165CF
  0
LAYER
  5
DEB3
330
7467
100
AcDbSymbolTableRecord
100
AcDbLayerTableRecord
  2
寸法
 70
     0
 62
     4
  6
CONTINUOUS
370
    -3
390
165CF
  0
LAYER
  5
DEB4
330
7467
100
AcDbSymbolTableRecord
100
AcDbLayerTableRecord
  2
部品1
 70
     0
 62
     7
  6
CONTINUOUS
370
    -3
390
165CF
  0
LAYER
  5
DEB5
330
7467
100
AcDbSymbolTableRecord
100
AcDbLayerTableRecord
  2
補助
 70
     0
 62
    -1
  6
CONTINUOUS
370
    -3
390
165CF
  0
LAYER
  5
DEB6
330
7467
100
AcDbSymbolTableRecord
100
AcDbLayerTableRecord
  2
文字
 70
     0
 62
     7
  6
CONTINUOUS
370
    -3
390
165CF
  0
LAYER
  5
F255
330
7467
100
AcDbSymbolTableRecord
100
AcDbLayerTableRecord
  2
DEFPOINTS
 70
     0
 62
     7
  6
CONTINUOUS
290
     0
370
    -3
390
165CF
  0
LAYER
  5
10B54
330
7467
100
AcDbSymbolTableRecord
100
AcDbLayerTableRecord
  2
仕様書枠
 70
     0
 62
   230
  6
CONTINUOUS
370
    -3
390
165CF
  0
LAYER
  5
11729
330
7467
100
AcDbSymbolTableRecord
100
AcDbLayerTableRecord
  2
Ｇ．Ｌ
 70
     0
 62
    30
  6
CONTINUOUS
370
    -3
390
165CF
  0
LAYER
  5
1173F
330
7467
100
AcDbSymbolTableRecord
100
AcDbLayerTableRecord
  2
細線
 70
     0
 62
     5
  6
CONTINUOUS
370
    -3
390
165CF
  0
LAYER
  5
12CC4
330
7467
100
AcDbSymbolTableRecord
100
AcDbLayerTableRecord
  2
想像線
 70
     0
 62
     6
  6
PHANTOM
370
    -3
390
165CF
  0
LAYER
  5
142E2
330
7467
100
AcDbSymbolTableRecord
100
AcDbLayerTableRecord
  2
破線
 70
     0
 62
     2
  6
HIDDEN
370
    -3
390
165CF
  0
ENDTAB
  0
TABLE
  2
STYLE
  5
7468
330
0
100
AcDbSymbolTable
 70
     4
  0
STYLE
  5
7475
330
7468
100
AcDbSymbolTableRecord
100
AcDbTextStyleTableRecord
  2
STANDARD
 70
     0
 40
0.0
 41
1.0
 50
0.0
 71
     0
 42
4.0
  3
txt
  4
C:\AutoCAD LT\bigfont.shx
  0
STYLE
  5
F706
330
7468
100
AcDbSymbolTableRecord
100
AcDbTextStyleTableRecord
  2
STYLE1
 70
     0
 40
0.0
 41
1.0
 50
0.0
 71
     0
 42
4.0
  3
isocp.shx
  4
bigfont.shx
  0
STYLE
  5
103BF
330
7468
100
AcDbSymbolTableRecord
100
AcDbTextStyleTableRecord
  2
STYLE2
 70
     0
 40
0.0
 41
1.0
 50
0.0
 71
     0
 42
100.0
  3
MS PGothic.ttf
  4

1001
ACAD
1000
MS PGothic
1071
    32818
  0
STYLE
  5
183F9
330
7468
100
AcDbSymbolTableRecord
100
AcDbTextStyleTableRecord
  2
STYLE3
 70
     0
 40
0.0
 41
1.0
 50
0.0
 71
     0
 42
100.0
  3
DFPGothic-EB.ttf
  4

1001
ACAD
1000
DFPGothic-EB
1071
    32818
  0
ENDTAB
  0
TABLE
  2
VIEW
  5
746B
330
0
100
AcDbSymbolTable
 70
     0
  0
ENDTAB
  0
TABLE
  2
UCS
  5
746C
330
0
100
AcDbSymbolTable
 70
     0
  0
ENDTAB
  0
TABLE
  2
APPID
  5
746E
330
0
100
AcDbSymbolTable
 70
     6
  0
APPID
  5
7476
330
746E
100
AcDbSymbolTableRecord
100
AcDbRegAppTableRecord
  2
ACAD
 70
     0
  0
APPID
  5
DEA9
330
746E
100
AcDbSymbolTableRecord
100
AcDbRegAppTableRecord
  2
CONTENTBLOCKICON
 70
     0
  0
APPID
  5
DEAA
330
746E
100
AcDbSymbolTableRecord
100
AcDbRegAppTableRecord
  2
CONTENTBLOCKDESCRIPTION
 70
     0
  0
APPID
  5
E71D
330
746E
100
AcDbSymbolTableRecord
100
AcDbRegAppTableRecord
  2
CONTENTTABDATA
 70
     0
  0
APPID
  5
E71E
330
746E
100
AcDbSymbolTableRecord
100
AcDbRegAppTableRecord
  2
CONTENTCURRENTTAB
 70
     0
  0
APPID
  5
F3BA
330
746E
100
AcDbSymbolTableRecord
100
AcDbRegAppTableRecord
  2
DRAWINGVARIABLESXDATA
 70
     0
  0
ENDTAB
  0
TABLE
  2
DIMSTYLE
  5
746F
330
0
100
AcDbSymbolTable
 70
     5
100
AcDbDimStyleTable
 71
     0
  0
DIMSTYLE
105
7484
330
746F
100
AcDbSymbolTableRecord
100
AcDbDimStyleTableRecord
  2
JIS
 70
     0
 41
2.5
 42
1.0
 43
7.0
 44
1.0
 73
     0
 74
     0
 77
     1
 78
     8
140
2.5
141
0.0
143
0.0394
147
0.0
172
     1
174
     1
175
     1
340
7475
  0
DIMSTYLE
105
F71F
102
{ACAD_REACTORS
330
16541
330
16542
330
16543
330
16544
330
16545
330
16546
330
1654E
330
1654F
330
16588
330
16597
330
165A9
330
165B6
330
16BBE
330
16BBF
330
16C1B
330
16C1C
330
16C1D
330
16C7A
330
16C92
330
16C93
330
16CC8
330
16CCA
330
16CD6
330
16CD7
330
16CD8
330
16CE0
330
16CE5
330
17493
330
17494
330
17495
330
17496
330
174A4
330
174BB
330
174BF
330
174C0
330
174DA
330
174DB
330
174DC
330
174DD
330
179B1
330
1874F
330
1882F
102
}
330
746F
100
AcDbSymbolTableRecord
100
AcDbDimStyleTableRecord
  2
INABA_S40G
 70
     0
 40
40.0
 41
2.5
 42
0.5
 43
7.0
 44
1.5
 73
     0
 74
     0
 77
     3
 78
     8
140
3.0
141
0.0
143
0.0394
147
1.0
172
     1
173
     1
174
     1
178
     7
271
     1
288
     1
340
F706
341
F770
343
F770
344
F770
  0
DIMSTYLE
105
1675E
102
{ACAD_REACTORS
330
184FC
330
18750
102
}
330
746F
100
AcDbSymbolTableRecord
100
AcDbDimStyleTableRecord
  2
INABA_S40
 70
     0
 40
40.0
 41
2.5
 42
0.5
 43
7.0
 44
1.5
 73
     0
 74
     0
 77
     3
 78
     8
140
3.0
141
0.0
143
0.0394
147
1.0
172
     1
173
     1
174
     1
175
     1
178
     7
340
7475
  0
DIMSTYLE
105
183FA
330
746F
100
AcDbSymbolTableRecord
100
AcDbDimStyleTableRecord
  2
INABA_S50G
 70
     0
 41
125.0
 42
25.0
 43
7.0
 44
75.0
 73
     0
 74
     0
 77
     3
 78
     8
140
150.0
141
0.0
143
0.0394
147
25.0
172
     1
173
     1
174
     1
175
     1
178
     7
271
     1
340
F706
341
F770
343
F770
344
F770
  0
DIMSTYLE
105
189BD
330
746F
100
AcDbSymbolTableRecord
100
AcDbDimStyleTableRecord
  2
INABA_S20G
 70
     0
 40
20.0
 41
2.5
 42
0.5
 43
7.0
 44
1.5
 73
     0
 74
     0
 77
     3
 78
     8
140
3.0
141
0.0
143
0.0394
147
1.0
172
     1
173
     1
174
     1
178
     7
271
     1
340
F706
341
F770
343
F770
344
F770
  0
ENDTAB
  0
TABLE
  2
BLOCK_RECORD
  5
7466
330
0
100
AcDbSymbolTable
 70
    47
  0
BLOCK_RECORD
  5
747D
330
7466
100
AcDbSymbolTableRecord
100
AcDbBlockTableRecord
  2
*MODEL_SPACE
340
165D4
  0
BLOCK_RECORD
  5
747A
330
7466
100
AcDbSymbolTableRecord
100
AcDbBlockTableRecord
  2
*PAPER_SPACE
340
165D5
  0
BLOCK_RECORD
  5
F770
330
7466
100
AcDbSymbolTableRecord
100
AcDbBlockTableRecord
  2
_DOTSMALL
340
0
102
{BLKREFS
331
164AE
331
164AF
331
164BC
331
164BD
331
164C9
331
164CA
331
164D5
331
164D6
331
164E1
331
164E2
331
164ED
331
164EE
331
164F9
331
164FA
331
16506
331
16507
331
16513
331
16514
331
1651F
331
16520
331
1652B
331
1652C
331
16538
331
16539
331
176F3
331
176F4
331
176FC
331
176FD
331
17706
331
17707
331
17711
331
17712
331
1771B
331
1771C
331
17724
331
17725
331
1772D
331
1772E
331
17737
331
17738
331
17740
331
17741
331
1774B
331
1774C
331
17754
331
17755
331
1775D
331
1775E
331
1777C
331
1777D
331
17787
331
17788
331
17790
331
17791
331
177BF
331
177C0
331
177C8
331
177C9
331
177D1
331
177D2
331
177DC
331
177DD
331
177E5
331
177E6
331
177EE
331
177EF
331
177F9
331
177FA
331
17BB9
331
17BBA
331
1838F
331
18390
331
183A5
331
183A6
331
183B0
331
183B1
331
183B9
331
183BA
331
1897E
331
1897F
331
18987
331
18988
331
189AE
331
189AF
102
}
  0
BLOCK_RECORD
  5
164AA
330
7466
100
AcDbSymbolTableRecord
100
AcDbBlockTableRecord
  2
*D1
340
0
  0
BLOCK_RECORD
  5
164B6
330
7466
100
AcDbSymbolTableRecord
100
AcDbBlockTableRecord
  2
*D2
340
0
  0
BLOCK_RECORD
  5
164C4
330
7466
100
AcDbSymbolTableRecord
100
AcDbBlockTableRecord
  2
*D3
340
0
  0
BLOCK_RECORD
  5
164D1
330
7466
100
AcDbSymbolTableRecord
100
AcDbBlockTableRecord
  2
*D4
340
0
  0
BLOCK_RECORD
  5
164DD
330
7466
100
AcDbSymbolTableRecord
100
AcDbBlockTableRecord
  2
*D5
340
0
  0
BLOCK_RECORD
  5
164E9
330
7466
100
AcDbSymbolTableRecord
100
AcDbBlockTableRecord
  2
*D6
340
0
  0
BLOCK_RECORD
  5
164F5
330
7466
100
AcDbSymbolTableRecord
100
AcDbBlockTableRecord
  2
*D7
340
0
  0
BLOCK_RECORD
  5
16501
330
7466
100
AcDbSymbolTableRecord
100
AcDbBlockTableRecord
  2
*D8
340
0
  0
BLOCK_RECORD
  5
1650E
330
7466
100
AcDbSymbolTableRecord
100
AcDbBlockTableRecord
  2
*D9
340
0
  0
BLOCK_RECORD
  5
1651B
330
7466
100
AcDbSymbolTableRecord
100
AcDbBlockTableRecord
  2
*D10
340
0
  0
BLOCK_RECORD
  5
16527
330
7466
100
AcDbSymbolTableRecord
100
AcDbBlockTableRecord
  2
*D11
340
0
  0
BLOCK_RECORD
  5
16533
330
7466
100
AcDbSymbolTableRecord
100
AcDbBlockTableRecord
  2
*D12
340
0
  0
BLOCK_RECORD
  5
16540
330
7466
100
AcDbSymbolTableRecord
100
AcDbBlockTableRecord
  2
A$C1E3A1415
340
0
  0
BLOCK_RECORD
  5
1665C
330
7466
100
AcDbSymbolTableRecord
100
AcDbBlockTableRecord
  2
_DOT
340
0
102
{BLKREFS
331
1858C
331
1858D
331
18992
331
18993
102
}
  0
BLOCK_RECORD
  5
16DA2
330
7466
100
AcDbSymbolTableRecord
100
AcDbBlockTableRecord
  2
*D15
340
0
  0
BLOCK_RECORD
  5
16DB0
330
7466
100
AcDbSymbolTableRecord
100
AcDbBlockTableRecord
  2
*D16
340
0
  0
BLOCK_RECORD
  5
16DBC
330
7466
100
AcDbSymbolTableRecord
100
AcDbBlockTableRecord
  2
*D17
340
0
  0
BLOCK_RECORD
  5
16DC8
330
7466
100
AcDbSymbolTableRecord
100
AcDbBlockTableRecord
  2
*D18
340
0
  0
BLOCK_RECORD
  5
16DD6
330
7466
100
AcDbSymbolTableRecord
100
AcDbBlockTableRecord
  2
*D19
340
0
  0
BLOCK_RECORD
  5
16DE2
330
7466
100
AcDbSymbolTableRecord
100
AcDbBlockTableRecord
  2
*D20
340
0
  0
BLOCK_RECORD
  5
16DEE
330
7466
100
AcDbSymbolTableRecord
100
AcDbBlockTableRecord
  2
*D21
340
0
  0
BLOCK_RECORD
  5
16DFA
330
7466
100
AcDbSymbolTableRecord
100
AcDbBlockTableRecord
  2
*D22
340
0
  0
BLOCK_RECORD
  5
16E06
330
7466
100
AcDbSymbolTableRecord
100
AcDbBlockTableRecord
  2
*D23
340
0
  0
BLOCK_RECORD
  5
16E12
330
7466
100
AcDbSymbolTableRecord
100
AcDbBlockTableRecord
  2
*D24
340
0
  0
BLOCK_RECORD
  5
16E2C
330
7466
100
AcDbSymbolTableRecord
100
AcDbBlockTableRecord
  2
*D25
340
0
  0
BLOCK_RECORD
  5
16E38
330
7466
100
AcDbSymbolTableRecord
100
AcDbBlockTableRecord
  2
*D26
340
0
  0
BLOCK_RECORD
  5
16E46
330
7466
100
AcDbSymbolTableRecord
100
AcDbBlockTableRecord
  2
*D27
340
0
  0
BLOCK_RECORD
  5
16E54
330
7466
100
AcDbSymbolTableRecord
100
AcDbBlockTableRecord
  2
*D28
340
0
  0
BLOCK_RECORD
  5
16E60
330
7466
100
AcDbSymbolTableRecord
100
AcDbBlockTableRecord
  2
*D29
340
0
  0
BLOCK_RECORD
  5
17539
330
7466
100
AcDbSymbolTableRecord
100
AcDbBlockTableRecord
  2
*D30
340
0
  0
BLOCK_RECORD
  5
17545
330
7466
100
AcDbSymbolTableRecord
100
AcDbBlockTableRecord
  2
*D31
340
0
  0
BLOCK_RECORD
  5
17551
330
7466
100
AcDbSymbolTableRecord
100
AcDbBlockTableRecord
  2
*D32
340
0
  0
BLOCK_RECORD
  5
1755F
330
7466
100
AcDbSymbolTableRecord
100
AcDbBlockTableRecord
  2
*D33
340
0
  0
BLOCK_RECORD
  5
1756B
330
7466
100
AcDbSymbolTableRecord
100
AcDbBlockTableRecord
  2
*D34
340
0
  0
BLOCK_RECORD
  5
17578
330
7466
100
AcDbSymbolTableRecord
100
AcDbBlockTableRecord
  2
*D35
340
0
  0
BLOCK_RECORD
  5
17584
330
7466
100
AcDbSymbolTableRecord
100
AcDbBlockTableRecord
  2
*D36
340
0
  0
BLOCK_RECORD
  5
17590
330
7466
100
AcDbSymbolTableRecord
100
AcDbBlockTableRecord
  2
*D37
340
0
  0
BLOCK_RECORD
  5
1759D
330
7466
100
AcDbSymbolTableRecord
100
AcDbBlockTableRecord
  2
*D38
340
0
  0
BLOCK_RECORD
  5
175AB
330
7466
100
AcDbSymbolTableRecord
100
AcDbBlockTableRecord
  2
*D39
340
0
  0
BLOCK_RECORD
  5
175B8
330
7466
100
AcDbSymbolTableRecord
100
AcDbBlockTableRecord
  2
*D40
340
0
  0
BLOCK_RECORD
  5
175C4
330
7466
100
AcDbSymbolTableRecord
100
AcDbBlockTableRecord
  2
*D41
340
0
  0
BLOCK_RECORD
  5
17AA6
330
7466
100
AcDbSymbolTableRecord
100
AcDbBlockTableRecord
  2
*D42
340
0
  0
BLOCK_RECORD
  5
18560
330
7466
100
AcDbSymbolTableRecord
100
AcDbBlockTableRecord
  2
*D43
340
0
  0
BLOCK_RECORD
  5
18841
330
7466
100
AcDbSymbolTableRecord
100
AcDbBlockTableRecord
  2
*D44
340
0
  0
BLOCK_RECORD
  5
1884D
330
7466
100
AcDbSymbolTableRecord
100
AcDbBlockTableRecord
  2
*D45
340
0
  0
BLOCK_RECORD
  5
18899
330
7466
100
AcDbSymbolTableRecord
100
AcDbBlockTableRecord
  2
*D46
340
0
  0
ENDTAB
  0
ENDSEC
  0
SECTION
  2
BLOCKS
  0
BLOCK
  5
7489
330
747D
100
AcDbEntity
  8
0
100
AcDbBlockBegin
  2
*MODEL_SPACE
 70
     0
 10
0.0
 20
0.0
 30
0.0
  3
*MODEL_SPACE
  1

  0
ENDBLK
  5
748A
330
747D
100
AcDbEntity
  8
0
100
AcDbBlockEnd
  0
BLOCK
  5
7487
330
747A
100
AcDbEntity
 67
     1
  8
0
100
AcDbBlockBegin
  2
*PAPER_SPACE
 70
     0
 10
0.0
 20
0.0
 30
0.0
  3
*PAPER_SPACE
  1

  0
ENDBLK
  5
7488
330
747A
100
AcDbEntity
 67
     1
  8
0
100
AcDbBlockEnd
  0
BLOCK
  5
F771
330
F770
100
AcDbEntity
  8
0
 48
50.0
100
AcDbBlockBegin
  2
_DOTSMALL
 70
     0
 10
0.0
 20
0.0
 30
0.0
  3
_DOTSMALL
  1

  0
LWPOLYLINE
  5
F772
330
F770
100
AcDbEntity
  8
0
  6
ByBlock
 62
     0
 48
50.0
100
AcDbPolyline
 90
        2
 70
     1
 43
0.5
 10
-0.0625
 20
0.0
 42
1.0
 10
0.0625
 20
0.0
 42
1.0
  0
ENDBLK
  5
F776
330
F770
100
AcDbEntity
  8
0
 48
50.0
100
AcDbBlockEnd
  0
BLOCK
  5
164B4
330
164AA
100
AcDbEntity
  8
0
 48
50.0
100
AcDbBlockBegin
  2
*D1
 70
     1
 10
0.0
 20
0.0
 30
0.0
  3
*D1
  1

  0
LINE
  5
164AB
330
164AA
100
AcDbEntity
  8
0
  6
ByBlock
 62
     0
 48
50.0
100
AcDbLine
 10
6651.999593711264
 20
-3666.848014713316
 30
0.0
 11
6651.999593711264
 21
-3992.895344013693
 31
0.0
  0
LINE
  5
164AC
330
164AA
100
AcDbEntity
  8
0
  6
ByBlock
 62
     0
 48
50.0
100
AcDbLine
 10
6451.999593711263
 20
-3666.848014713317
 30
0.0
 11
6451.999593711263
 21
-3992.895344013693
 31
0.0
  0
LINE
  5
164AD
330
164AA
100
AcDbEntity
  8
0
  6
ByBlock
 62
     0
 48
50.0
100
AcDbLine
 10
6651.999593711264
 20
-3932.895344013693
 30
0.0
 11
6451.999593711263
 21
-3932.895344013693
 31
0.0
  0
INSERT
  5
164AE
330
164AA
100
AcDbEntity
  8
0
  6
ByBlock
 62
     0
 48
50.0
100
AcDbBlockReference
  2
_DOTSMALL
 10
6651.999593711264
 20
-3932.895344013693
 30
0.0
 41
100.0
 42
100.0
 43
100.0
  0
INSERT
  5
164AF
330
164AA
100
AcDbEntity
  8
0
  6
ByBlock
 62
     0
 48
50.0
100
AcDbBlockReference
  2
_DOTSMALL
 10
6451.999593711263
 20
-3932.895344013693
 30
0.0
 41
100.0
 42
100.0
 43
100.0
 50
180.0
  0
MTEXT
  5
164B0
330
164AA
100
AcDbEntity
  8
0
  6
ByBlock
 62
     7
 48
50.0
100
AcDbMText
 10
6551.999593711264
 20
-3832.88353299007
 30
0.0
 40
120.0
 41
0.0
 71
     5
 72
     1
  1
\A1;200
  7
STYLE1
 73
     1
 44
1.0
1001
ACAD
1000
MTEXTBEGIN
1070
    73
1070
     1
1070
    44
1040
1.0
1070
    74
1070
     0
1000
MTEXTEND
  0
POINT
  5
164B1
330
164AA
100
AcDbEntity
  8
DEFPOINTS
  6
ByBlock
 62
     0
 48
50.0
100
AcDbPoint
 10
6651.999593711264
 20
-3646.848014713316
 30
0.0
  0
POINT
  5
164B2
330
164AA
100
AcDbEntity
  8
DEFPOINTS
  6
ByBlock
 62
     0
 48
50.0
100
AcDbPoint
 10
6451.999593711263
 20
-3646.848014713317
 30
0.0
  0
POINT
  5
164B3
330
164AA
100
AcDbEntity
  8
DEFPOINTS
  6
ByBlock
 62
     0
 48
50.0
100
AcDbPoint
 10
6451.999593711263
 20
-3932.895344013693
 30
0.0
  0
ENDBLK
  5
164B5
330
164AA
100
AcDbEntity
  8
0
 48
50.0
100
AcDbBlockEnd
  0
BLOCK
  5
164C2
330
164B6
100
AcDbEntity
  8
0
 48
50.0
100
AcDbBlockBegin
  2
*D2
 70
     1
 10
0.0
 20
0.0
 30
0.0
  3
*D2
  1

  0
LINE
  5
164B7
330
164B6
100
AcDbEntity
  8
0
  6
ByBlock
 62
     0
 48
50.0
100
AcDbLine
 10
3929.499593711265
 20
-3296.848014713315
 30
0.0
 11
3254.932100245689
 21
-3296.848014713315
 31
0.0
  0
LINE
  5
164B8
330
164B6
100
AcDbEntity
  8
0
  6
ByBlock
 62
     0
 48
50.0
100
AcDbLine
 10
3874.499593711265
 20
-3346.848014713315
 30
0.0
 11
3254.932100245689
 21
-3346.848014713315
 31
0.0
  0
LINE
  5
164B9
330
164B6
100
AcDbEntity
  8
0
  6
ByBlock
 62
     0
 48
50.0
100
AcDbLine
 10
3314.932100245689
 20
-3296.848014713315
 30
0.0
 11
3314.932100245689
 21
-3196.848014713315
 31
0.0
  0
LINE
  5
164BA
330
164B6
100
AcDbEntity
  8
0
  6
ByBlock
 62
     0
 48
50.0
100
AcDbLine
 10
3314.932100245689
 20
-3346.848014713315
 30
0.0
 11
3314.932100245688
 21
-3836.645258807804
 31
0.0
  0
LINE
  5
164BB
330
164B6
100
AcDbEntity
  8
0
  6
ByBlock
 62
     0
 48
50.0
100
AcDbLine
 10
3314.932100245689
 20
-3296.848014713315
 30
0.0
 11
3314.932100245689
 21
-3346.848014713315
 31
0.0
  0
INSERT
  5
164BC
330
164B6
100
AcDbEntity
  8
0
  6
ByBlock
 62
     0
 48
50.0
100
AcDbBlockReference
  2
_DOTSMALL
 10
3314.932100245689
 20
-3296.848014713315
 30
0.0
 41
100.0
 42
100.0
 43
100.0
 50
270.0
  0
INSERT
  5
164BD
330
164B6
100
AcDbEntity
  8
0
  6
ByBlock
 62
     0
 48
50.0
100
AcDbBlockReference
  2
_DOTSMALL
 10
3314.932100245689
 20
-3346.848014713315
 30
0.0
 41
100.0
 42
100.0
 43
100.0
 50
90.0
  0
MTEXT
  5
164BE
330
164B6
100
AcDbEntity
  8
0
  6
ByBlock
 62
     7
 48
50.0
100
AcDbMText
 10
3214.932100245688
 20
-3730.598014713315
 30
0.0
 40
120.0
 41
0.0
 71
     5
 72
     1
  1
\A1;50
  7
STYLE1
 11
0.0000000000000001
 21
1.0
 31
0.0
 73
     1
 44
1.0
1001
ACAD
1000
MTEXTBEGIN
1070
    73
1070
     1
1070
    44
1040
1.0
1070
    74
1070
     0
1000
MTEXTEND
  0
POINT
  5
164BF
330
164B6
100
AcDbEntity
  8
DEFPOINTS
  6
ByBlock
 62
     0
 48
50.0
100
AcDbPoint
 10
3949.499593711265
 20
-3296.848014713315
 30
0.0
  0
POINT
  5
164C0
330
164B6
100
AcDbEntity
  8
DEFPOINTS
  6
ByBlock
 62
     0
 48
50.0
100
AcDbPoint
 10
3894.499593711265
 20
-3346.848014713315
 30
0.0
  0
POINT
  5
164C1
330
164B6
100
AcDbEntity
  8
DEFPOINTS
  6
ByBlock
 62
     0
 48
50.0
100
AcDbPoint
 10
3314.932100245689
 20
-3346.848014713315
 30
0.0
  0
ENDBLK
  5
164C3
330
164B6
100
AcDbEntity
  8
0
 48
50.0
100
AcDbBlockEnd
  0
BLOCK
  5
164CF
330
164C4
100
AcDbEntity
  8
0
 48
50.0
100
AcDbBlockBegin
  2
*D3
 70
     1
 10
0.0
 20
0.0
 30
0.0
  3
*D3
  1

  0
LINE
  5
164C5
330
164C4
100
AcDbEntity
  8
0
  6
ByBlock
 62
     0
 48
50.0
100
AcDbLine
 10
3874.499593711265
 20
-3346.848014713315
 30
0.0
 11
2954.932100245688
 21
-3346.848014713315
 31
0.0
  0
LINE
  5
164C6
330
164C4
100
AcDbEntity
  8
0
  6
ByBlock
 62
     0
 48
50.0
100
AcDbLine
 10
3082.181153533816
 20
-3446.848014713315
 30
0.0
 11
2954.932100245688
 21
-3446.848014713315
 31
0.0
  0
LINE
  5
164C7
330
164C4
100
AcDbEntity
  8
0
  6
ByBlock
 62
     0
 48
50.0
100
AcDbLine
 10
3014.932100245689
 20
-3346.848014713315
 30
0.0
 11
3014.932100245689
 21
-3446.848014713315
 31
0.0
  0
LINE
  5
164C8
330
164C4
100
AcDbEntity
  8
0
  6
ByBlock
 62
     0
 48
50.0
100
AcDbLine
 10
3014.932100245689
 20
-3446.848014713315
 30
0.0
 11
3014.932100245689
 21
-3997.895258807803
 31
0.0
  0
INSERT
  5
164C9
330
164C4
100
AcDbEntity
  8
0
  6
ByBlock
 62
     0
 48
50.0
100
AcDbBlockReference
  2
_DOTSMALL
 10
3014.932100245689
 20
-3346.848014713315
 30
0.0
 41
100.0
 42
100.0
 43
100.0
 50
90.0
  0
INSERT
  5
164CA
330
164C4
100
AcDbEntity
  8
0
  6
ByBlock
 62
     0
 48
50.0
100
AcDbBlockReference
  2
_DOTSMALL
 10
3014.932100245689
 20
-3446.848014713315
 30
0.0
 41
100.0
 42
100.0
 43
100.0
 50
270.0
  0
MTEXT
  5
164CB
330
164C4
100
AcDbEntity
  8
0
  6
ByBlock
 62
     7
 48
50.0
100
AcDbMText
 10
2914.932100245689
 20
-3861.848014713315
 30
0.0
 40
120.0
 41
0.0
 71
     5
 72
     1
  1
\A1;100
  7
STYLE1
 11
0.0000000000000001
 21
1.0
 31
0.0
 73
     1
 44
1.0
1001
ACAD
1000
MTEXTBEGIN
1070
    73
1070
     1
1070
    44
1040
1.0
1070
    74
1070
     0
1000
MTEXTEND
  0
POINT
  5
164CC
330
164C4
100
AcDbEntity
  8
DEFPOINTS
  6
ByBlock
 62
     0
 48
50.0
100
AcDbPoint
 10
3894.499593711265
 20
-3346.848014713315
 30
0.0
  0
POINT
  5
164CD
330
164C4
100
AcDbEntity
  8
DEFPOINTS
  6
ByBlock
 62
     0
 48
50.0
100
AcDbPoint
 10
3102.181153533816
 20
-3446.848014713315
 30
0.0
  0
POINT
  5
164CE
330
164C4
100
AcDbEntity
  8
DEFPOINTS
  6
ByBlock
 62
     0
 48
50.0
100
AcDbPoint
 10
3014.932100245689
 20
-3446.848014713315
 30
0.0
  0
ENDBLK
  5
164D0
330
164C4
100
AcDbEntity
  8
0
 48
50.0
100
AcDbBlockEnd
  0
BLOCK
  5
164DB
330
164D1
100
AcDbEntity
  8
0
 48
50.0
100
AcDbBlockBegin
  2
*D4
 70
     1
 10
0.0
 20
0.0
 30
0.0
  3
*D4
  1

  0
LINE
  5
164D2
330
164D1
100
AcDbEntity
  8
0
  6
ByBlock
 62
     0
 48
50.0
100
AcDbLine
 10
6674.499593711264
 20
-1306.848014713315
 30
0.0
 11
6674.499593711264
 21
-643.7276571074862
 31
0.0
  0
LINE
  5
164D3
330
164D1
100
AcDbEntity
  8
0
  6
ByBlock
 62
     0
 48
50.0
100
AcDbLine
 10
3814.499593711265
 20
-1246.848014713311
 30
0.0
 11
3814.499593711265
 21
-643.7276571074862
 31
0.0
  0
LINE
  5
164D4
330
164D1
100
AcDbEntity
  8
0
  6
ByBlock
 62
     0
 48
50.0
100
AcDbLine
 10
6674.499593711264
 20
-703.7276571074862
 30
0.0
 11
3814.499593711265
 21
-703.7276571074862
 31
0.0
  0
INSERT
  5
164D5
330
164D1
100
AcDbEntity
  8
0
  6
ByBlock
 62
     0
 48
50.0
100
AcDbBlockReference
  2
_DOTSMALL
 10
6674.499593711264
 20
-703.7276571074862
 30
0.0
 41
100.0
 42
100.0
 43
100.0
  0
INSERT
  5
164D6
330
164D1
100
AcDbEntity
  8
0
  6
ByBlock
 62
     0
 48
50.0
100
AcDbBlockReference
  2
_DOTSMALL
 10
3814.499593711265
 20
-703.7276571074862
 30
0.0
 41
100.0
 42
100.0
 43
100.0
 50
180.0
  0
MTEXT
  5
164D7
330
164D1
100
AcDbEntity
  8
0
  6
ByBlock
 62
     7
 48
50.0
100
AcDbMText
 10
5258.410431769548
 20
-603.7158460838642
 30
0.0
 40
120.0
 41
0.0
 71
     5
 72
     1
  1
\A1;2860
  7
STYLE1
 73
     1
 44
1.0
1001
ACAD
1000
MTEXTBEGIN
1070
    73
1070
     1
1070
    44
1040
1.0
1070
    74
1070
     0
1000
MTEXTEND
  0
POINT
  5
164D8
330
164D1
100
AcDbEntity
  8
DEFPOINTS
  6
ByBlock
 62
     0
 48
50.0
100
AcDbPoint
 10
6674.499593711264
 20
-1326.848014713315
 30
0.0
  0
POINT
  5
164D9
330
164D1
100
AcDbEntity
  8
DEFPOINTS
  6
ByBlock
 62
     0
 48
50.0
100
AcDbPoint
 10
3814.499593711265
 20
-1266.848014713311
 30
0.0
  0
POINT
  5
164DA
330
164D1
100
AcDbEntity
  8
DEFPOINTS
  6
ByBlock
 62
     0
 48
50.0
100
AcDbPoint
 10
3814.499593711265
 20
-703.7276571074862
 30
0.0
  0
ENDBLK
  5
164DC
330
164D1
100
AcDbEntity
  8
0
 48
50.0
100
AcDbBlockEnd
  0
BLOCK
  5
164E7
330
164DD
100
AcDbEntity
  8
0
 48
50.0
100
AcDbBlockBegin
  2
*D5
 70
     1
 10
0.0
 20
0.0
 30
0.0
  3
*D5
  1

  0
LINE
  5
164DE
330
164DD
100
AcDbEntity
  8
0
  6
ByBlock
 62
     0
 48
50.0
100
AcDbLine
 10
6579.499593711265
 20
-1303.285514713313
 30
0.0
 11
6579.499593711265
 21
-910.5229948866718
 31
0.0
  0
LINE
  5
164DF
330
164DD
100
AcDbEntity
  8
0
  6
ByBlock
 62
     0
 48
50.0
100
AcDbLine
 10
3949.499593711265
 20
-1251.910514713317
 30
0.0
 11
3949.499593711265
 21
-910.5229948866718
 31
0.0
  0
LINE
  5
164E0
330
164DD
100
AcDbEntity
  8
0
  6
ByBlock
 62
     0
 48
50.0
100
AcDbLine
 10
6579.499593711265
 20
-970.5229948866717
 30
0.0
 11
3949.499593711265
 21
-970.5229948866717
 31
0.0
  0
INSERT
  5
164E1
330
164DD
100
AcDbEntity
  8
0
  6
ByBlock
 62
     0
 48
50.0
100
AcDbBlockReference
  2
_DOTSMALL
 10
6579.499593711265
 20
-970.5229948866717
 30
0.0
 41
100.0
 42
100.0
 43
100.0
  0
INSERT
  5
164E2
330
164DD
100
AcDbEntity
  8
0
  6
ByBlock
 62
     0
 48
50.0
100
AcDbBlockReference
  2
_DOTSMALL
 10
3949.499593711265
 20
-970.5229948866717
 30
0.0
 41
100.0
 42
100.0
 43
100.0
 50
180.0
  0
MTEXT
  5
164E3
330
164DD
100
AcDbEntity
  8
0
  6
ByBlock
 62
     7
 48
50.0
100
AcDbMText
 10
5275.64397534748
 20
-870.5111838630497
 30
0.0
 40
120.0
 41
0.0
 71
     5
 72
     1
  1
\A1;柱外寸法2630
  7
STYLE1
 73
     1
 44
1.0
1001
ACAD
1000
MTEXTBEGIN
1070
    73
1070
     1
1070
    44
1040
1.0
1070
    74
1070
     0
1000
MTEXTEND
  0
POINT
  5
164E4
330
164DD
100
AcDbEntity
  8
DEFPOINTS
  6
ByBlock
 62
     0
 48
50.0
100
AcDbPoint
 10
6579.499593711265
 20
-1323.285514713313
 30
0.0
  0
POINT
  5
164E5
330
164DD
100
AcDbEntity
  8
DEFPOINTS
  6
ByBlock
 62
     0
 48
50.0
100
AcDbPoint
 10
3949.499593711265
 20
-1271.910514713317
 30
0.0
  0
POINT
  5
164E6
330
164DD
100
AcDbEntity
  8
DEFPOINTS
  6
ByBlock
 62
     0
 48
50.0
100
AcDbPoint
 10
3949.499593711265
 20
-970.5229948866717
 30
0.0
  0
ENDBLK
  5
164E8
330
164DD
100
AcDbEntity
  8
0
 48
50.0
100
AcDbBlockEnd
  0
BLOCK
  5
164F3
330
164E9
100
AcDbEntity
  8
0
 48
50.0
100
AcDbBlockBegin
  2
*D6
 70
     1
 10
0.0
 20
0.0
 30
0.0
  3
*D6
  1

  0
LINE
  5
164EA
330
164E9
100
AcDbEntity
  8
0
  6
ByBlock
 62
     0
 48
50.0
100
AcDbLine
 10
3929.499593711265
 20
-3346.848014713315
 30
0.0
 11
2954.932100245688
 21
-3346.848014713315
 31
0.0
  0
LINE
  5
164EB
330
164E9
100
AcDbEntity
  8
0
  6
ByBlock
 62
     0
 48
50.0
100
AcDbLine
 10
3794.499593711265
 20
-1266.848014713311
 30
0.0
 11
2954.932100245688
 21
-1266.848014713311
 31
0.0
  0
LINE
  5
164EC
330
164E9
100
AcDbEntity
  8
0
  6
ByBlock
 62
     0
 48
50.0
100
AcDbLine
 10
3014.932100245689
 20
-3346.848014713315
 30
0.0
 11
3014.932100245689
 21
-1266.848014713311
 31
0.0
  0
INSERT
  5
164ED
330
164E9
100
AcDbEntity
  8
0
  6
ByBlock
 62
     0
 48
50.0
100
AcDbBlockReference
  2
_DOTSMALL
 10
3014.932100245689
 20
-3346.848014713315
 30
0.0
 41
100.0
 42
100.0
 43
100.0
 50
270.0
  0
INSERT
  5
164EE
330
164E9
100
AcDbEntity
  8
0
  6
ByBlock
 62
     0
 48
50.0
100
AcDbBlockReference
  2
_DOTSMALL
 10
3014.932100245689
 20
-1266.848014713311
 30
0.0
 41
100.0
 42
100.0
 43
100.0
 50
90.0
  0
MTEXT
  5
164EF
330
164E9
100
AcDbEntity
  8
0
  6
ByBlock
 62
     7
 48
50.0
100
AcDbMText
 10
2914.920289222066
 20
-2306.848014713313
 30
0.0
 40
120.0
 41
0.0
 71
     5
 72
     1
  1
\A1;2080
  7
STYLE1
 11
0.0000000000000001
 21
1.0
 31
0.0
 73
     1
 44
1.0
1001
ACAD
1000
MTEXTBEGIN
1070
    73
1070
     1
1070
    44
1040
1.0
1070
    74
1070
     0
1000
MTEXTEND
  0
POINT
  5
164F0
330
164E9
100
AcDbEntity
  8
DEFPOINTS
  6
ByBlock
 62
     0
 48
50.0
100
AcDbPoint
 10
3949.499593711265
 20
-3346.848014713315
 30
0.0
  0
POINT
  5
164F1
330
164E9
100
AcDbEntity
  8
DEFPOINTS
  6
ByBlock
 62
     0
 48
50.0
100
AcDbPoint
 10
3814.499593711265
 20
-1266.848014713311
 30
0.0
  0
POINT
  5
164F2
330
164E9
100
AcDbEntity
  8
DEFPOINTS
  6
ByBlock
 62
     0
 48
50.0
100
AcDbPoint
 10
3014.932100245689
 20
-1266.848014713311
 30
0.0
  0
ENDBLK
  5
164F4
330
164E9
100
AcDbEntity
  8
0
 48
50.0
100
AcDbBlockEnd
  0
BLOCK
  5
164FF
330
164F5
100
AcDbEntity
  8
0
 48
50.0
100
AcDbBlockBegin
  2
*D7
 70
     1
 10
0.0
 20
0.0
 30
0.0
  3
*D7
  1

  0
LINE
  5
164F6
330
164F5
100
AcDbEntity
  8
0
  6
ByBlock
 62
     0
 48
50.0
100
AcDbLine
 10
3929.499593711265
 20
-1506.848014713315
 30
0.0
 11
3254.932100245689
 21
-1506.848014713315
 31
0.0
  0
LINE
  5
164F7
330
164F5
100
AcDbEntity
  8
0
  6
ByBlock
 62
     0
 48
50.0
100
AcDbLine
 10
3929.499593711265
 20
-3296.848014713315
 30
0.0
 11
3254.932100245689
 21
-3296.848014713315
 31
0.0
  0
LINE
  5
164F8
330
164F5
100
AcDbEntity
  8
0
  6
ByBlock
 62
     0
 48
50.0
100
AcDbLine
 10
3314.932100245688
 20
-1506.848014713315
 30
0.0
 11
3314.932100245688
 21
-3296.848014713315
 31
0.0
  0
INSERT
  5
164F9
330
164F5
100
AcDbEntity
  8
0
  6
ByBlock
 62
     0
 48
50.0
100
AcDbBlockReference
  2
_DOTSMALL
 10
3314.932100245688
 20
-1506.848014713315
 30
0.0
 41
100.0
 42
100.0
 43
100.0
 50
90.0
  0
INSERT
  5
164FA
330
164F5
100
AcDbEntity
  8
0
  6
ByBlock
 62
     0
 48
50.0
100
AcDbBlockReference
  2
_DOTSMALL
 10
3314.932100245688
 20
-3296.848014713315
 30
0.0
 41
100.0
 42
100.0
 43
100.0
 50
270.0
  0
MTEXT
  5
164FB
330
164F5
100
AcDbEntity
  8
0
  6
ByBlock
 62
     7
 48
50.0
100
AcDbMText
 10
3214.932100245688
 20
-2401.848014713315
 30
0.0
 40
120.0
 41
0.0
 71
     5
 72
     1
  1
\A1;1790
  7
STYLE1
 11
0.0000000000000001
 21
1.0
 31
0.0
 73
     1
 44
1.0
1001
ACAD
1000
MTEXTBEGIN
1070
    73
1070
     1
1070
    44
1040
1.0
1070
    74
1070
     0
1000
MTEXTEND
  0
POINT
  5
164FC
330
164F5
100
AcDbEntity
  8
DEFPOINTS
  6
ByBlock
 62
     0
 48
50.0
100
AcDbPoint
 10
3949.499593711265
 20
-1506.848014713315
 30
0.0
  0
POINT
  5
164FD
330
164F5
100
AcDbEntity
  8
DEFPOINTS
  6
ByBlock
 62
     0
 48
50.0
100
AcDbPoint
 10
3949.499593711265
 20
-3296.848014713315
 30
0.0
  0
POINT
  5
164FE
330
164F5
100
AcDbEntity
  8
DEFPOINTS
  6
ByBlock
 62
     0
 48
50.0
100
AcDbPoint
 10
3314.932100245688
 20
-3296.848014713315
 30
0.0
  0
ENDBLK
  5
16500
330
164F5
100
AcDbEntity
  8
0
 48
50.0
100
AcDbBlockEnd
  0
BLOCK
  5
1650C
330
16501
100
AcDbEntity
  8
0
 48
50.0
100
AcDbBlockBegin
  2
*D8
 70
     1
 10
0.0
 20
0.0
 30
0.0
  3
*D8
  1

  0
LINE
  5
16502
330
16501
100
AcDbEntity
  8
0
  6
ByBlock
 62
     0
 48
50.0
100
AcDbLine
 10
3949.499593711265
 20
-1251.910514713317
 30
0.0
 11
3949.499593711265
 21
-910.5229948866718
 31
0.0
  0
LINE
  5
16503
330
16501
100
AcDbEntity
  8
0
  6
ByBlock
 62
     0
 48
50.0
100
AcDbLine
 10
3814.499593711265
 20
-1246.848014713311
 30
0.0
 11
3814.499593711265
 21
-910.5229948866718
 31
0.0
  0
LINE
  5
16504
330
16501
100
AcDbEntity
  8
0
  6
ByBlock
 62
     0
 48
50.0
100
AcDbLine
 10
3949.499593711265
 20
-970.5229948866717
 30
0.0
 11
3814.499593711265
 21
-970.5229948866717
 31
0.0
  0
LINE
  5
16505
330
16501
100
AcDbEntity
  8
0
  6
ByBlock
 62
     0
 48
50.0
100
AcDbLine
 10
3814.499593711265
 20
-970.5229948866717
 30
0.0
 11
3437.529030962786
 21
-970.5229948866717
 31
0.0
  0
INSERT
  5
16506
330
16501
100
AcDbEntity
  8
0
  6
ByBlock
 62
     0
 48
50.0
100
AcDbBlockReference
  2
_DOTSMALL
 10
3949.499593711265
 20
-970.5229948866717
 30
0.0
 41
100.0
 42
100.0
 43
100.0
  0
INSERT
  5
16507
330
16501
100
AcDbEntity
  8
0
  6
ByBlock
 62
     0
 48
50.0
100
AcDbBlockReference
  2
_DOTSMALL
 10
3814.499593711265
 20
-970.5229948866717
 30
0.0
 41
100.0
 42
100.0
 43
100.0
 50
180.0
  0
MTEXT
  5
16508
330
16501
100
AcDbEntity
  8
0
  6
ByBlock
 62
     7
 48
50.0
100
AcDbMText
 10
3576.014312337025
 20
-870.5229948866717
 30
0.0
 40
120.0
 41
0.0
 71
     5
 72
     1
  1
\A1;135
  7
STYLE1
 73
     1
 44
1.0
1001
ACAD
1000
MTEXTBEGIN
1070
    73
1070
     1
1070
    44
1040
1.0
1070
    74
1070
     0
1000
MTEXTEND
  0
POINT
  5
16509
330
16501
100
AcDbEntity
  8
DEFPOINTS
  6
ByBlock
 62
     0
 48
50.0
100
AcDbPoint
 10
3949.499593711265
 20
-1271.910514713317
 30
0.0
  0
POINT
  5
1650A
330
16501
100
AcDbEntity
  8
DEFPOINTS
  6
ByBlock
 62
     0
 48
50.0
100
AcDbPoint
 10
3814.499593711265
 20
-1266.848014713311
 30
0.0
  0
POINT
  5
1650B
330
16501
100
AcDbEntity
  8
DEFPOINTS
  6
ByBlock
 62
     0
 48
50.0
100
AcDbPoint
 10
3814.499593711265
 20
-970.5229948866717
 30
0.0
  0
ENDBLK
  5
1650D
330
16501
100
AcDbEntity
  8
0
 48
50.0
100
AcDbBlockEnd
  0
BLOCK
  5
16519
330
1650E
100
AcDbEntity
  8
0
 48
50.0
100
AcDbBlockBegin
  2
*D9
 70
     1
 10
0.0
 20
0.0
 30
0.0
  3
*D9
  1

  0
LINE
  5
1650F
330
1650E
100
AcDbEntity
  8
0
  6
ByBlock
 62
     0
 48
50.0
100
AcDbLine
 10
3806.788288037406
 20
-1399.670781401514
 30
0.0
 11
3255.896812123574
 21
-1381.768744481764
 31
0.0
  0
LINE
  5
16510
330
1650E
100
AcDbEntity
  8
0
  6
ByBlock
 62
     0
 48
50.0
100
AcDbLine
 10
3810.523412217103
 20
-1284.73145459227
 30
0.0
 11
3259.631936303263
 21
-1266.829417672519
 31
0.0
  0
LINE
  5
16511
330
1650E
100
AcDbEntity
  8
0
  6
ByBlock
 62
     0
 48
50.0
100
AcDbLine
 10
3315.865156545789
 20
-1383.717504923341
 30
0.0
 11
3319.600280725478
 21
-1268.778178114096
 31
0.0
  0
LINE
  5
16512
330
1650E
100
AcDbEntity
  8
0
  6
ByBlock
 62
     0
 48
50.0
100
AcDbLine
 10
3319.600280725478
 20
-1268.778178114096
 30
0.0
 11
3331.064531887568
 21
-915.9938401507016
 31
0.0
  0
INSERT
  5
16513
330
1650E
100
AcDbEntity
  8
0
  6
ByBlock
 62
     0
 48
50.0
100
AcDbBlockReference
  2
_DOTSMALL
 10
3315.865156545789
 20
-1383.717504923341
 30
0.0
 41
100.0
 42
100.0
 43
100.0
 50
268.1387435168043
  0
INSERT
  5
16514
330
1650E
100
AcDbEntity
  8
0
  6
ByBlock
 62
     0
 48
50.0
100
AcDbBlockReference
  2
_DOTSMALL
 10
3319.600280725478
 20
-1268.778178114096
 30
0.0
 41
100.0
 42
100.0
 43
100.0
 50
88.1387435168043
  0
MTEXT
  5
16515
330
1650E
100
AcDbEntity
  8
0
  6
ByBlock
 62
     7
 48
50.0
100
AcDbMText
 10
3227.00913263748
 20
-1039.164454711258
 30
0.0
 40
120.0
 41
0.0
 71
     5
 72
     1
  1
\A1;115
  7
STYLE1
 11
0.0324793406929488
 21
0.9994724070369082
 31
0.0
 73
     1
 44
1.0
1001
ACAD
1000
MTEXTBEGIN
1070
    73
1070
     1
1070
    44
1040
1.0
1070
    74
1070
     0
1000
MTEXTEND
  0
POINT
  5
16516
330
1650E
100
AcDbEntity
  8
DEFPOINTS
  6
ByBlock
 62
     0
 48
50.0
100
AcDbPoint
 10
3826.777736178144
 20
-1400.320368215373
 30
0.0
 50
1.861256483195684
  0
POINT
  5
16517
330
1650E
100
AcDbEntity
  8
DEFPOINTS
  6
ByBlock
 62
     0
 48
50.0
100
AcDbPoint
 10
3830.512860357841
 20
-1285.381041406129
 30
0.0
 50
1.861256483195684
  0
POINT
  5
16518
330
1650E
100
AcDbEntity
  8
DEFPOINTS
  6
ByBlock
 62
     0
 48
50.0
100
AcDbPoint
 10
3319.600280725478
 20
-1268.778178114096
 30
0.0
 50
1.861256483195684
  0
ENDBLK
  5
1651A
330
1650E
100
AcDbEntity
  8
0
 48
50.0
100
AcDbBlockEnd
  0
BLOCK
  5
16525
330
1651B
100
AcDbEntity
  8
0
 48
50.0
100
AcDbBlockBegin
  2
*D10
 70
     1
 10
0.0
 20
0.0
 30
0.0
  3
*D10
  1

  0
LINE
  5
1651C
330
1651B
100
AcDbEntity
  8
0
  6
ByBlock
 62
     0
 48
50.0
100
AcDbLine
 10
6599.499593711264
 20
-3346.848014713315
 30
0.0
 11
7344.426751683389
 21
-3346.848014713315
 31
0.0
  0
LINE
  5
1651D
330
1651B
100
AcDbEntity
  8
0
  6
ByBlock
 62
     0
 48
50.0
100
AcDbLine
 10
6694.499593711265
 20
-1326.848014713315
 30
0.0
 11
7344.426751683389
 21
-1326.848014713315
 31
0.0
  0
LINE
  5
1651E
330
1651B
100
AcDbEntity
  8
0
  6
ByBlock
 62
     0
 48
50.0
100
AcDbLine
 10
7284.42675168339
 20
-3346.848014713315
 30
0.0
 11
7284.42675168339
 21
-1326.848014713315
 31
0.0
  0
INSERT
  5
1651F
330
1651B
100
AcDbEntity
  8
0
  6
ByBlock
 62
     0
 48
50.0
100
AcDbBlockReference
  2
_DOTSMALL
 10
7284.42675168339
 20
-3346.848014713315
 30
0.0
 41
100.0
 42
100.0
 43
100.0
 50
270.0
  0
INSERT
  5
16520
330
1651B
100
AcDbEntity
  8
0
  6
ByBlock
 62
     0
 48
50.0
100
AcDbBlockReference
  2
_DOTSMALL
 10
7284.42675168339
 20
-1326.848014713315
 30
0.0
 41
100.0
 42
100.0
 43
100.0
 50
90.0
  0
MTEXT
  5
16521
330
1651B
100
AcDbEntity
  8
0
  6
ByBlock
 62
     7
 48
50.0
100
AcDbMText
 10
7184.414940659768
 20
-2341.848014713315
 30
0.0
 40
120.0
 41
0.0
 71
     5
 72
     1
  1
\A1;2020
  7
STYLE1
 11
0.0000000000000001
 21
1.0
 31
0.0
 73
     1
 44
1.0
1001
ACAD
1000
MTEXTBEGIN
1070
    73
1070
     1
1070
    44
1040
1.0
1070
    74
1070
     0
1000
MTEXTEND
  0
POINT
  5
16522
330
1651B
100
AcDbEntity
  8
DEFPOINTS
  6
ByBlock
 62
     0
 48
50.0
100
AcDbPoint
 10
6579.499593711265
 20
-3346.848014713315
 30
0.0
  0
POINT
  5
16523
330
1651B
100
AcDbEntity
  8
DEFPOINTS
  6
ByBlock
 62
     0
 48
50.0
100
AcDbPoint
 10
6674.499593711264
 20
-1326.848014713315
 30
0.0
  0
POINT
  5
16524
330
1651B
100
AcDbEntity
  8
DEFPOINTS
  6
ByBlock
 62
     0
 48
50.0
100
AcDbPoint
 10
7284.42675168339
 20
-1326.848014713315
 30
0.0
  0
ENDBLK
  5
16526
330
1651B
100
AcDbEntity
  8
0
 48
50.0
100
AcDbBlockEnd
  0
BLOCK
  5
16531
330
16527
100
AcDbEntity
  8
0
 48
50.0
100
AcDbBlockBegin
  2
*D11
 70
     1
 10
0.0
 20
0.0
 30
0.0
  3
*D11
  1

  0
LINE
  5
16528
330
16527
100
AcDbEntity
  8
0
  6
ByBlock
 62
     0
 48
50.0
100
AcDbLine
 10
6671.999593711264
 20
-3646.848014713316
 30
0.0
 11
7100.189872880648
 21
-3646.848014713316
 31
0.0
  0
LINE
  5
16529
330
16527
100
AcDbEntity
  8
0
  6
ByBlock
 62
     0
 48
50.0
100
AcDbLine
 10
6671.999593711264
 20
-3446.848014713316
 30
0.0
 11
7100.189872880648
 21
-3446.848014713316
 31
0.0
  0
LINE
  5
1652A
330
16527
100
AcDbEntity
  8
0
  6
ByBlock
 62
     0
 48
50.0
100
AcDbLine
 10
7040.189872880649
 20
-3646.848014713316
 30
0.0
 11
7040.189872880649
 21
-3446.848014713316
 31
0.0
  0
INSERT
  5
1652B
330
16527
100
AcDbEntity
  8
0
  6
ByBlock
 62
     0
 48
50.0
100
AcDbBlockReference
  2
_DOTSMALL
 10
7040.189872880649
 20
-3646.848014713316
 30
0.0
 41
100.0
 42
100.0
 43
100.0
 50
270.0
  0
INSERT
  5
1652C
330
16527
100
AcDbEntity
  8
0
  6
ByBlock
 62
     0
 48
50.0
100
AcDbBlockReference
  2
_DOTSMALL
 10
7040.189872880649
 20
-3446.848014713316
 30
0.0
 41
100.0
 42
100.0
 43
100.0
 50
90.0
  0
MTEXT
  5
1652D
330
16527
100
AcDbEntity
  8
0
  6
ByBlock
 62
     7
 48
50.0
100
AcDbMText
 10
6940.178061857027
 20
-3546.848014713316
 30
0.0
 40
120.0
 41
0.0
 71
     5
 72
     1
  1
\A1;200
  7
STYLE1
 11
0.0000000000000001
 21
1.0
 31
0.0
 73
     1
 44
1.0
1001
ACAD
1000
MTEXTBEGIN
1070
    73
1070
     1
1070
    44
1040
1.0
1070
    74
1070
     0
1000
MTEXTEND
  0
POINT
  5
1652E
330
16527
100
AcDbEntity
  8
DEFPOINTS
  6
ByBlock
 62
     0
 48
50.0
100
AcDbPoint
 10
6651.999593711264
 20
-3646.848014713316
 30
0.0
  0
POINT
  5
1652F
330
16527
100
AcDbEntity
  8
DEFPOINTS
  6
ByBlock
 62
     0
 48
50.0
100
AcDbPoint
 10
6651.999593711264
 20
-3446.848014713316
 30
0.0
  0
POINT
  5
16530
330
16527
100
AcDbEntity
  8
DEFPOINTS
  6
ByBlock
 62
     0
 48
50.0
100
AcDbPoint
 10
7040.189872880649
 20
-3446.848014713316
 30
0.0
  0
ENDBLK
  5
16532
330
16527
100
AcDbEntity
  8
0
 48
50.0
100
AcDbBlockEnd
  0
BLOCK
  5
1653E
330
16533
100
AcDbEntity
  8
0
 48
50.0
100
AcDbBlockBegin
  2
*D12
 70
     1
 10
0.0
 20
0.0
 30
0.0
  3
*D12
  1

  0
LINE
  5
16534
330
16533
100
AcDbEntity
  8
0
  6
ByBlock
 62
     0
 48
50.0
100
AcDbLine
 10
6579.499593711265
 20
-1303.285514713313
 30
0.0
 11
6579.499593711265
 21
-910.5229948866718
 31
0.0
  0
LINE
  5
16535
330
16533
100
AcDbEntity
  8
0
  6
ByBlock
 62
     0
 48
50.0
100
AcDbLine
 10
6674.499593711264
 20
-1306.848014713315
 30
0.0
 11
6674.499593711264
 21
-910.5229948866718
 31
0.0
  0
LINE
  5
16536
330
16533
100
AcDbEntity
  8
0
  6
ByBlock
 62
     0
 48
50.0
100
AcDbLine
 10
6579.499593711265
 20
-970.5229948866717
 30
0.0
 11
6674.499593711264
 21
-970.5229948866717
 31
0.0
  0
LINE
  5
16537
330
16533
100
AcDbEntity
  8
0
  6
ByBlock
 62
     0
 48
50.0
100
AcDbLine
 10
6674.499593711264
 20
-970.5229948866717
 30
0.0
 11
6996.440719208219
 21
-970.5229948866717
 31
0.0
  0
INSERT
  5
16538
330
16533
100
AcDbEntity
  8
0
  6
ByBlock
 62
     0
 48
50.0
100
AcDbBlockReference
  2
_DOTSMALL
 10
6579.499593711265
 20
-970.5229948866717
 30
0.0
 41
100.0
 42
100.0
 43
100.0
 50
180.0
  0
INSERT
  5
16539
330
16533
100
AcDbEntity
  8
0
  6
ByBlock
 62
     0
 48
50.0
100
AcDbBlockReference
  2
_DOTSMALL
 10
6674.499593711264
 20
-970.5229948866717
 30
0.0
 41
100.0
 42
100.0
 43
100.0
  0
MTEXT
  5
1653A
330
16533
100
AcDbEntity
  8
0
  6
ByBlock
 62
     7
 48
50.0
100
AcDbMText
 10
6885.470156459742
 20
-870.5229948866717
 30
0.0
 40
120.0
 41
0.0
 71
     5
 72
     1
  1
\A1;95
  7
STYLE1
 73
     1
 44
1.0
1001
ACAD
1000
MTEXTBEGIN
1070
    73
1070
     1
1070
    44
1040
1.0
1070
    74
1070
     0
1000
MTEXTEND
  0
POINT
  5
1653B
330
16533
100
AcDbEntity
  8
DEFPOINTS
  6
ByBlock
 62
     0
 48
50.0
100
AcDbPoint
 10
6579.499593711265
 20
-1323.285514713313
 30
0.0
  0
POINT
  5
1653C
330
16533
100
AcDbEntity
  8
DEFPOINTS
  6
ByBlock
 62
     0
 48
50.0
100
AcDbPoint
 10
6674.499593711264
 20
-1326.848014713315
 30
0.0
  0
POINT
  5
1653D
330
16533
100
AcDbEntity
  8
DEFPOINTS
  6
ByBlock
 62
     0
 48
50.0
100
AcDbPoint
 10
6674.499593711264
 20
-970.5229948866717
 30
0.0
  0
ENDBLK
  5
1653F
330
16533
100
AcDbEntity
  8
0
 48
50.0
100
AcDbBlockEnd
  0
BLOCK
  5
165C2
330
16540
100
AcDbEntity
  8
0
 48
50.0
100
AcDbBlockBegin
  2
A$C1E3A1415
 70
     0
 10
0.0
 20
0.0
 30
0.0
  3
A$C1E3A1415
  1

  0
DIMENSION
  5
16541
330
16540
100
AcDbEntity
  8
寸法
 48
50.0
100
AcDbDimension
  2
*D9
 10
458.7272337540534
 20
3297.277707758674
 30
0.0
 11
466.0833263697454
 21
3523.643497092218
 31
0.0
 12
-2860.873046971425
 22
4566.05588587277
 32
0.0
 70
   128
 71
     5
 42
-1.0
 51
1.861256483195684
  3
INABA_S40G
100
AcDbAlignedDimension
 13
965.9046892067189
 23
3165.735517657397
 33
0.0
 14
969.6398133864159
 24
3280.674844466641
 34
0.0
 50
88.1387435168043
100
AcDbRotatedDimension
  0
DIMENSION
  5
16542
330
16540
100
AcDbEntity
  8
寸法
100
AcDbDimension
  2
*D7
 10
454.0590532742635
 20
1269.207871159455
 30
0.0
 11
354.0590532742635
 21
2164.207871159455
 31
0.0
 12
-2860.873046971425
 22
4566.05588587277
 32
0.0
 71
     5
 42
-1.0
  3
INABA_S40G
100
AcDbAlignedDimension
 13
1088.62654673984
 23
3059.207871159455
 33
0.0
 14
1088.62654673984
 24
1269.207871159455
 34
0.0
 50
90.0
100
AcDbRotatedDimension
1001
ACAD
1000
DSTYLE
1002
{
1002
}
  0
DIMENSION
  5
16543
330
16540
100
AcDbEntity
  8
寸法
100
AcDbDimension
  2
*D6
 10
154.0590532742635
 20
3299.207871159459
 30
0.0
 11
54.04724225064137
 21
2259.207871159457
 31
0.0
 12
-2860.873046971425
 22
4566.05588587277
 32
0.0
 71
     5
 42
-1.0
  3
INABA_S40G
100
AcDbAlignedDimension
 13
1088.62654673984
 23
1219.207871159455
 33
0.0
 14
953.6265467398397
 24
3299.207871159459
 34
0.0
 50
90.0
100
AcDbRotatedDimension
1001
ACAD
1000
DSTYLE
1002
{
1002
}
  0
DIMENSION
  5
16544
330
16540
100
AcDbEntity
  8
寸法
100
AcDbDimension
  2
*D3
 10
154.059053274264
 20
1119.207871159455
 30
0.0
 11
154.0590532742635
 21
704.2078711594549
 31
0.0
 12
-2860.873046971425
 22
4566.05588587277
 32
0.0
 70
   128
 71
     5
 42
-1.0
  3
INABA_S40G
100
AcDbAlignedDimension
 13
1033.62654673984
 23
1219.207871159455
 33
0.0
 14
241.308106562391
 24
1119.207871159455
 34
0.0
 50
90.0
100
AcDbRotatedDimension
1001
ACAD
1000
DSTYLE
1002
{
1002
}
  0
DIMENSION
  5
16545
330
16540
100
AcDbEntity
  8
寸法
100
AcDbDimension
  2
*D2
 10
454.059053274264
 20
1219.207871159455
 30
0.0
 11
454.0590532742635
 21
835.457871159455
 31
0.0
 12
-2860.873046971425
 22
4566.05588587277
 32
0.0
 70
   128
 71
     5
 42
-1.0
  3
INABA_S40G
100
AcDbAlignedDimension
 13
1088.62654673984
 23
1269.207871159455
 33
0.0
 14
1033.62654673984
 24
1219.207871159455
 34
0.0
 50
90.0
100
AcDbRotatedDimension
1001
ACAD
1000
DSTYLE
1002
{
1002
}
  0
DIMENSION
  5
16546
330
16540
100
AcDbEntity
  8
寸法
 48
50.0
100
AcDbDimension
  2
*D1
 10
3591.12654673984
 20
633.160541859077
 30
0.0
 11
3691.12654673984
 21
633.160541859077
 31
0.0
 12
-2860.873046971425
 22
4566.05588587277
 32
0.0
 70
   128
 71
     5
 42
-1.0
  3
INABA_S40G
100
AcDbAlignedDimension
 13
3791.12654673984
 23
919.207871159454
 33
0.0
 14
3591.12654673984
 24
919.2078711594531
 34
0.0
100
AcDbRotatedDimension
  0
LINE
  5
16547
330
16540
100
AcDbEntity
  8
部品1
100
AcDbLine
 10
2785.36187985406
 20
239.8923281844954
 30
0.0
 11
2021.89121362562
 21
239.8923281844954
 31
0.0
  0
LINE
  5
16548
330
16540
100
AcDbEntity
  8
部品1
100
AcDbLine
 10
2021.89121362562
 20
0.0000066389629865
 30
0.0
 11
2785.36187985406
 21
0.0000066389629865
 31
0.0
  0
TEXT
  5
16549
330
16540
100
AcDbEntity
  8
部品1
100
AcDbText
 10
2111.337315049228
 20
46.99879896597122
 30
0.0
 40
135.0
  1
側面図
  7
STYLE2
100
AcDbText
  0
LINE
  5
1654A
330
16540
100
AcDbEntity
  8
部品1
100
AcDbLine
 10
2021.89121362562
 20
239.8923281844954
 30
0.0
 11
2021.89121362562
 21
0.0000066389629865
 31
0.0
  0
LINE
  5
1654B
330
16540
100
AcDbEntity
  8
部品1
100
AcDbLine
 10
2785.36187985406
 20
0.0000066389629865
 30
0.0
 11
2785.36187985406
 21
239.8923281844954
 31
0.0
  0
LINE
  5
1654C
330
16540
100
AcDbEntity
  8
細線
 48
50.0
100
AcDbLine
 10
3798.62962480296
 20
3229.688189637562
 30
0.0
 11
969.6398133864159
 21
3280.674844466643
 31
0.0
  0
LINE
  5
1654D
330
16540
100
AcDbEntity
  8
部品1
 48
50.0
100
AcDbLine
 10
983.185534393352
 20
3298.099409122448
 30
0.0
 11
3788.33751884954
 21
3240.156209705343
 31
0.0
  0
DIMENSION
  5
1654E
330
16540
100
AcDbEntity
  8
寸法
 48
50.0
100
AcDbDimension
  2
*D5
 10
1088.62654673984
 20
3595.532890986098
 30
0.0
 11
2414.770928376055
 21
3595.532890986098
 31
0.0
 12
-2860.873046971425
 22
4566.05588587277
 32
0.0
 70
   128
  1
柱外寸法<>
 71
     5
 42
-1.0
  3
INABA_S40G
100
AcDbAlignedDimension
 13
3718.62654673984
 23
3242.770371159457
 33
0.0
 14
1088.62654673984
 24
3294.145371159454
 34
0.0
100
AcDbRotatedDimension
  0
DIMENSION
  5
1654F
330
16540
100
AcDbEntity
  8
寸法
 48
50.0
100
AcDbDimension
  2
*D4
 10
953.6265467398397
 20
3862.328228765284
 30
0.0
 11
2397.537384798124
 21
3862.328228765284
 31
0.0
 12
-2860.873046971425
 22
4566.05588587277
 32
0.0
 70
   128
 71
     5
 42
-1.0
  3
INABA_S40G
100
AcDbAlignedDimension
 13
3813.62654673984
 23
3239.207871159455
 33
0.0
 14
953.6265467398397
 24
3299.207871159459
 34
0.0
100
AcDbRotatedDimension
  0
LINE
  5
16550
330
16540
100
AcDbEntity
  8
部品1
100
AcDbLine
 10
1088.62654673984
 20
3059.207871159455
 30
0.0
 11
3718.62654673984
 21
3059.207871159455
 31
0.0
  0
LINE
  5
16551
330
16540
100
AcDbEntity
  8
部品1
100
AcDbLine
 10
1088.62654673984
 20
1269.207871159455
 30
0.0
 11
3718.62654673984
 21
1269.207871159455
 31
0.0
  0
LINE
  5
16552
330
16540
100
AcDbEntity
  8
細線
 48
50.0
100
AcDbLine
 10
3804.185812847742
 20
3134.457485263603
 30
0.0
 11
957.2705713078676
 21
3186.02665357474
 31
0.0
  0
LINE
  5
16553
330
16540
100
AcDbEntity
  8
部品1
 48
50.0
100
AcDbLine
 10
3785.701703868267
 20
3115.047596415783
 30
0.0
 11
974.4041100809182
 21
3165.459316349265
 31
0.0
  0
LINE
  5
16554
330
16540
100
AcDbEntity
  8
部品1
100
AcDbLine
 10
1136.12654673984
 20
1219.207871159455
 30
0.0
 11
3671.126546739837
 21
1219.207871159455
 31
0.0
  0
LINE
  5
16555
330
16540
100
AcDbEntity
  8
部品1
100
AcDbLine
 10
2823.62654673984
 20
3059.207871159455
 30
0.0
 11
2823.62654673984
 21
1269.207871159455
 31
0.0
  0
LINE
  5
16556
330
16540
100
AcDbEntity
  8
細線
100
AcDbLine
 10
2657.62654673984
 20
3059.207871159455
 30
0.0
 11
2657.62654673984
 21
1269.207871159455
 31
0.0
  0
LINE
  5
16557
330
16540
100
AcDbEntity
  8
細線
100
AcDbLine
 10
2637.62654673984
 20
3059.207871159455
 30
0.0
 11
2637.62654673984
 21
1269.207871159455
 31
0.0
  0
LINE
  5
16558
330
16540
100
AcDbEntity
  8
細線
100
AcDbLine
 10
2621.62654673984
 20
3059.207871159455
 30
0.0
 11
2621.62654673984
 21
1269.207871159455
 31
0.0
  0
LINE
  5
16559
330
16540
100
AcDbEntity
  8
細線
100
AcDbLine
 10
2569.62654673984
 20
3059.207871159455
 30
0.0
 11
2569.62654673984
 21
1269.207871159455
 31
0.0
  0
LINE
  5
1655A
330
16540
100
AcDbEntity
  8
細線
100
AcDbLine
 10
2589.62654673984
 20
3059.207871159455
 30
0.0
 11
2589.62654673984
 21
1269.207871159455
 31
0.0
  0
LINE
  5
1655B
330
16540
100
AcDbEntity
  8
細線
100
AcDbLine
 10
2605.62654673984
 20
3059.207871159455
 30
0.0
 11
2605.62654673984
 21
1269.207871159455
 31
0.0
  0
LINE
  5
1655C
330
16540
100
AcDbEntity
  8
部品1
100
AcDbLine
 10
1143.62654673984
 20
3059.207871159455
 30
0.0
 11
1143.62654673984
 21
1269.207871159455
 31
0.0
  0
LINE
  5
1655D
330
16540
100
AcDbEntity
  8
細線
100
AcDbLine
 10
1345.62654673984
 20
3059.207871159455
 30
0.0
 11
1345.62654673984
 21
1269.207871159455
 31
0.0
  0
LINE
  5
1655E
330
16540
100
AcDbEntity
  8
細線
100
AcDbLine
 10
1329.62654673984
 20
3059.207871159455
 30
0.0
 11
1329.62654673984
 21
1269.207871159455
 31
0.0
  0
LINE
  5
1655F
330
16540
100
AcDbEntity
  8
細線
100
AcDbLine
 10
1309.62654673984
 20
3059.207871159455
 30
0.0
 11
1309.62654673984
 21
1269.207871159455
 31
0.0
  0
LINE
  5
16560
330
16540
100
AcDbEntity
  8
部品1
100
AcDbLine
 10
1088.626546739839
 20
3163.411098650899
 30
0.0
 11
1088.62654673984
 21
1119.207871159455
 31
0.0
  0
LINE
  5
16561
330
16540
100
AcDbEntity
  8
細線
100
AcDbLine
 10
1361.62654673984
 20
3059.207871159455
 30
0.0
 11
1361.62654673984
 21
1269.207871159455
 31
0.0
  0
LINE
  5
16562
330
16540
100
AcDbEntity
  8
細線
100
AcDbLine
 10
1377.62654673984
 20
3059.207871159455
 30
0.0
 11
1377.62654673984
 21
1269.207871159455
 31
0.0
  0
LINE
  5
16563
330
16540
100
AcDbEntity
  8
細線
100
AcDbLine
 10
1397.62654673984
 20
3059.207871159455
 30
0.0
 11
1397.62654673984
 21
1269.207871159455
 31
0.0
  0
LINE
  5
16564
330
16540
100
AcDbEntity
  8
部品1
100
AcDbLine
 10
2403.62654673984
 20
3059.207871159455
 30
0.0
 11
2403.62654673984
 21
1269.207871159455
 31
0.0
  0
LINE
  5
16565
330
16540
100
AcDbEntity
  8
部品1
100
AcDbLine
 10
1563.62654673984
 20
3059.207871159455
 30
0.0
 11
1563.62654673984
 21
1269.207871159455
 31
0.0
  0
LINE
  5
16566
330
16540
100
AcDbEntity
  8
部品1
100
AcDbLine
 10
1983.62654673984
 20
3059.207871159455
 30
0.0
 11
1983.62654673984
 21
1269.207871159455
 31
0.0
  0
LINE
  5
16567
330
16540
100
AcDbEntity
  8
細線
100
AcDbLine
 10
1817.626546739839
 20
3059.207871159455
 30
0.0
 11
1817.626546739839
 21
1269.207871159455
 31
0.0
  0
LINE
  5
16568
330
16540
100
AcDbEntity
  8
細線
100
AcDbLine
 10
1797.62654673984
 20
3059.207871159455
 30
0.0
 11
1797.62654673984
 21
1269.207871159455
 31
0.0
  0
LINE
  5
16569
330
16540
100
AcDbEntity
  8
細線
100
AcDbLine
 10
1781.62654673984
 20
3059.207871159455
 30
0.0
 11
1781.62654673984
 21
1269.207871159455
 31
0.0
  0
LINE
  5
1656A
330
16540
100
AcDbEntity
  8
細線
100
AcDbLine
 10
1729.62654673984
 20
3059.207871159455
 30
0.0
 11
1729.62654673984
 21
1269.207871159455
 31
0.0
  0
LINE
  5
1656B
330
16540
100
AcDbEntity
  8
細線
100
AcDbLine
 10
1749.62654673984
 20
3059.207871159455
 30
0.0
 11
1749.62654673984
 21
1269.207871159455
 31
0.0
  0
LINE
  5
1656C
330
16540
100
AcDbEntity
  8
細線
100
AcDbLine
 10
1765.62654673984
 20
3059.207871159455
 30
0.0
 11
1765.62654673984
 21
1269.207871159455
 31
0.0
  0
LINE
  5
1656D
330
16540
100
AcDbEntity
  8
細線
100
AcDbLine
 10
2237.62654673984
 20
3059.207871159455
 30
0.0
 11
2237.62654673984
 21
1269.207871159455
 31
0.0
  0
LINE
  5
1656E
330
16540
100
AcDbEntity
  8
細線
100
AcDbLine
 10
2217.62654673984
 20
3059.207871159455
 30
0.0
 11
2217.62654673984
 21
1269.207871159455
 31
0.0
  0
LINE
  5
1656F
330
16540
100
AcDbEntity
  8
細線
100
AcDbLine
 10
2201.62654673984
 20
3059.207871159455
 30
0.0
 11
2201.62654673984
 21
1269.207871159455
 31
0.0
  0
LINE
  5
16570
330
16540
100
AcDbEntity
  8
細線
100
AcDbLine
 10
2149.62654673984
 20
3059.207871159455
 30
0.0
 11
2149.62654673984
 21
1269.207871159455
 31
0.0
  0
LINE
  5
16571
330
16540
100
AcDbEntity
  8
細線
100
AcDbLine
 10
2169.62654673984
 20
3059.207871159455
 30
0.0
 11
2169.62654673984
 21
1269.207871159455
 31
0.0
  0
LINE
  5
16572
330
16540
100
AcDbEntity
  8
細線
100
AcDbLine
 10
2185.62654673984
 20
3059.207871159455
 30
0.0
 11
2185.62654673984
 21
1269.207871159455
 31
0.0
  0
LINE
  5
16573
330
16540
100
AcDbEntity
  8
破線
  6
HIDDEN
 48
5.0
100
AcDbLine
 10
1016.126546739839
 20
919.207871159454
 30
0.0
 11
1216.12654673984
 21
919.2078711594531
 31
0.0
  0
LINE
  5
16574
330
16540
100
AcDbEntity
  8
破線
  6
HIDDEN
 48
5.0
100
AcDbLine
 10
1016.126546739839
 20
1119.207871159454
 30
0.0
 11
1016.126546739839
 21
919.207871159454
 31
0.0
  0
LINE
  5
16575
330
16540
100
AcDbEntity
  8
部品1
 48
50.0
100
AcDbLine
 10
1096.12654673984
 20
1259.207871159455
 30
0.0
 11
1096.12654673984
 21
1119.207871159454
 31
0.0
  0
LINE
  5
16576
330
16540
100
AcDbEntity
  8
部品1
 48
50.0
100
AcDbLine
 10
1136.12654673984
 20
1259.207871159454
 30
0.0
 11
1136.12654673984
 21
1119.207871159454
 31
0.0
  0
LINE
  5
16577
330
16540
100
AcDbEntity
  8
破線
  6
HIDDEN
 48
5.0
100
AcDbLine
 10
1216.12654673984
 20
1119.207871159454
 30
0.0
 11
1216.12654673984
 21
919.2078711594531
 31
0.0
  0
LINE
  5
16578
330
16540
100
AcDbEntity
  8
破線
  6
HIDDEN
 48
5.0
100
AcDbLine
 10
1096.12654673984
 20
1114.207871159455
 30
0.0
 11
1081.12654673984
 21
966.5078711594542
 31
0.0
  0
LINE
  5
16579
330
16540
100
AcDbEntity
  8
破線
  6
HIDDEN
 48
5.0
100
AcDbLine
 10
1136.12654673984
 20
1114.207871159454
 30
0.0
 11
1151.12654673984
 21
966.5078711594542
 31
0.0
  0
LINE
  5
1657A
330
16540
100
AcDbEntity
  8
破線
  6
HIDDEN
 48
5.0
100
AcDbLine
 10
1081.12654673984
 20
964.2078711594541
 30
0.0
 11
1151.12654673984
 21
964.2078711594541
 31
0.0
  0
LINE
  5
1657B
330
16540
100
AcDbEntity
  8
破線
  6
HIDDEN
 48
5.0
100
AcDbLine
 10
1081.12654673984
 20
966.5078711594542
 30
0.0
 11
1081.12654673984
 21
964.2078711594541
 31
0.0
  0
LINE
  5
1657C
330
16540
100
AcDbEntity
  8
破線
  6
HIDDEN
 48
5.0
100
AcDbLine
 10
1151.12654673984
 20
966.5078711594542
 30
0.0
 11
1151.12654673984
 21
964.2078711594541
 31
0.0
  0
LINE
  5
1657D
330
16540
100
AcDbEntity
  8
破線
  6
HIDDEN
 48
5.0
100
AcDbLine
 10
1096.126546739847
 20
1119.207871159454
 30
0.0
 11
1096.126546739847
 21
1114.207871159455
 31
0.0
  0
LINE
  5
1657E
330
16540
100
AcDbEntity
  8
部品1
100
AcDbLine
 10
1088.62654673984
 20
1219.207871159455
 30
0.0
 11
1096.12654673984
 21
1219.207871159454
 31
0.0
  0
LINE
  5
1657F
330
16540
100
AcDbEntity
  8
破線
  6
HIDDEN
 48
5.0
100
AcDbLine
 10
1136.12654673984
 20
1119.207871159454
 30
0.0
 11
1136.12654673984
 21
1114.207871159454
 31
0.0
  0
LINE
  5
16580
330
16540
100
AcDbEntity
  8
部品1
100
AcDbLine
 10
1288.62654673984
 20
1219.207871159455
 30
0.0
 11
1288.62654673984
 21
1119.207871159455
 31
0.0
  0
LINE
  5
16581
330
16540
100
AcDbEntity
  8
部品1
100
AcDbLine
 10
1101.12654673984
 20
1264.207871159455
 30
0.0
 11
1131.12654673984
 21
1264.207871159454
 31
0.0
  0
ARC
  5
16582
330
16540
100
AcDbEntity
  8
部品1
 48
50.0
100
AcDbCircle
 10
1101.12654673984
 20
1259.207871159455
 30
0.0
 40
5.0
100
AcDbArc
 50
89.99999999999934
 51
180.0000000000013
  0
ARC
  5
16583
330
16540
100
AcDbEntity
  8
部品1
 48
50.0
100
AcDbCircle
 10
1131.12654673984
 20
1259.207871159454
 30
0.0
 40
5.0
100
AcDbArc
 50
359.9999999999986
 51
89.99999999999927
  0
LINE
  5
16584
330
16540
100
AcDbEntity
  8
部品1
 48
50.0
100
AcDbLine
 10
1898.62654673984
 20
1219.207871159455
 30
0.0
 11
1898.62654673984
 21
1119.207871159455
 31
0.0
  0
LINE
  5
16585
330
16540
100
AcDbEntity
  8
部品1
 48
50.0
100
AcDbLine
 10
2098.62654673984
 20
1219.207871159455
 30
0.0
 11
2098.62654673984
 21
1119.207871159455
 31
0.0
  0
LINE
  5
16586
330
16540
100
AcDbEntity
  8
部品1
 48
50.0
100
AcDbLine
 10
2708.62654673984
 20
1219.207871159455
 30
0.0
 11
2708.62654673984
 21
1119.207871159455
 31
0.0
  0
LINE
  5
16587
330
16540
100
AcDbEntity
  8
部品1
 48
50.0
100
AcDbLine
 10
2908.62654673984
 20
1219.207871159455
 30
0.0
 11
2908.62654673984
 21
1119.207871159455
 31
0.0
  0
DIMENSION
  5
16588
330
16540
100
AcDbEntity
  8
寸法
 48
50.0
100
AcDbDimension
  2
*D8
 10
953.6265467398397
 20
3595.532890986098
 30
0.0
 11
715.1412653655998
 21
3595.532890986098
 31
0.0
 12
-2860.873046971425
 22
4566.05588587277
 32
0.0
 70
   128
 71
     5
 42
-1.0
  3
INABA_S40G
100
AcDbAlignedDimension
 13
1088.62654673984
 23
3294.145371159454
 33
0.0
 14
953.6265467398397
 24
3299.207871159459
 34
0.0
100
AcDbRotatedDimension
  0
LINE
  5
16589
330
16540
100
AcDbEntity
  8
細線
 48
50.0
100
AcDbLine
 10
992.2260600702129
 20
3297.760389409563
 30
0.0
 11
987.9124750284526
 21
3165.02034196213
 31
0.0
  0
LINE
  5
1658A
330
16540
100
AcDbEntity
  8
部品1
100
AcDbLine
 10
953.6349183781339
 20
3264.972834873878
 30
0.0
 11
956.1926097460737
 21
3187.183907704341
 31
0.0
  0
ARC
  5
1658B
330
16540
100
AcDbEntity
  8
部品1
100
AcDbCircle
 10
974.9075398616614
 20
3180.951138658337
 30
0.0
 40
15.5
100
AcDbArc
 50
181.883200488318
 51
268.1387435168037
  0
ARC
  5
1658C
330
16540
100
AcDbEntity
  8
部品1
100
AcDbCircle
 10
956.8117337456488
 20
3183.569120646884
 30
0.0
 40
2.5
100
AcDbArc
 50
1.883200488304429
 51
80.9777304905255
  0
ARC
  5
1658D
330
16540
100
AcDbEntity
  8
部品1
100
AcDbCircle
 10
957.3919616192387
 20
3187.223342261992
 30
0.0
 40
1.199999999999999
100
AcDbArc
 50
181.8832004883104
 51
260.9777304905277
  0
LINE
  5
1658E
330
16540
100
AcDbEntity
  8
部品1
100
AcDbLine
 10
959.3103834814055
 20
3183.651275975324
 30
0.0
 11
959.4159114999555
 21
3180.441775622003
 31
0.0
  0
ARC
  5
1658F
330
16540
100
AcDbEntity
  8
部品1
100
AcDbCircle
 10
969.1363836056762
 20
3265.183022157571
 30
0.0
 40
15.5
100
AcDbArc
 50
88.13874351680366
 51
181.8832004883104
  0
LINE
  5
16590
330
16540
100
AcDbEntity
  8
部品1
100
AcDbLine
 10
973.1984987418499
 20
3281.479983022213
 30
0.0
 11
979.8719531173038
 21
3296.058638175528
 31
0.0
  0
ARC
  5
16591
330
16540
100
AcDbEntity
  8
部品1
100
AcDbCircle
 10
983.0543765812899
 20
3294.601867467465
 30
0.0
 40
3.5
100
AcDbArc
 50
87.85241457170149
 51
155.4038180356322
  0
ARC
  5
16592
330
16540
100
AcDbEntity
  8
部品1
 48
50.0
100
AcDbCircle
 10
971.8346029715675
 20
3282.104313325668
 30
0.0
 40
1.5
100
AcDbArc
 50
268.1387435168036
 51
335.4038180356324
  0
LINE
  5
16593
330
16540
100
AcDbEntity
  8
部品1
 48
50.0
100
AcDbLine
 10
3795.62654673984
 20
3044.207871159455
 30
0.0
 11
3795.62654673984
 21
1119.207871159454
 31
0.0
  0
LINE
  5
16594
330
16540
100
AcDbEntity
  8
部品1
100
AcDbLine
 10
3243.62654673984
 20
3059.207871159455
 30
0.0
 11
3243.62654673984
 21
1269.207871159455
 31
0.0
  0
LINE
  5
16595
330
16540
100
AcDbEntity
  8
部品1
100
AcDbLine
 10
3718.62654673984
 20
3116.250376954964
 30
0.0
 11
3718.62654673984
 21
1119.207871159455
 31
0.0
  0
LINE
  5
16596
330
16540
100
AcDbEntity
  8
部品1
100
AcDbLine
 10
3663.62654673984
 20
3059.207871159455
 30
0.0
 11
3663.62654673984
 21
1269.207871159455
 31
0.0
  0
DIMENSION
  5
16597
330
16540
100
AcDbEntity
  8
寸法
100
AcDbDimension
  2
*D10
 10
4423.553704711964
 20
3239.207871159455
 30
0.0
 11
4423.553704711964
 21
2224.207871159455
 31
0.0
 12
-2860.873046971425
 22
4566.05588587277
 32
0.0
 70
   128
 71
     5
 42
-1.0
  3
INABA_S40G
100
AcDbAlignedDimension
 13
3718.62654673984
 23
1219.207871159455
 33
0.0
 14
3813.62654673984
 24
3239.207871159455
 34
0.0
 50
90.0
100
AcDbRotatedDimension
1001
ACAD
1000
DSTYLE
1002
{
1002
}
  0
LINE
  5
16598
330
16540
100
AcDbEntity
  8
細線
100
AcDbLine
 10
3077.62654673984
 20
3059.207871159455
 30
0.0
 11
3077.62654673984
 21
1269.207871159455
 31
0.0
  0
LINE
  5
16599
330
16540
100
AcDbEntity
  8
細線
100
AcDbLine
 10
3057.62654673984
 20
3059.207871159455
 30
0.0
 11
3057.62654673984
 21
1269.207871159455
 31
0.0
  0
LINE
  5
1659A
330
16540
100
AcDbEntity
  8
細線
100
AcDbLine
 10
3041.62654673984
 20
3059.207871159455
 30
0.0
 11
3041.62654673984
 21
1269.207871159455
 31
0.0
  0
LINE
  5
1659B
330
16540
100
AcDbEntity
  8
細線
100
AcDbLine
 10
2989.62654673984
 20
3059.207871159455
 30
0.0
 11
2989.62654673984
 21
1269.207871159455
 31
0.0
  0
LINE
  5
1659C
330
16540
100
AcDbEntity
  8
細線
100
AcDbLine
 10
3009.62654673984
 20
3059.207871159455
 30
0.0
 11
3009.62654673984
 21
1269.207871159455
 31
0.0
  0
LINE
  5
1659D
330
16540
100
AcDbEntity
  8
細線
100
AcDbLine
 10
3025.62654673984
 20
3059.207871159455
 30
0.0
 11
3025.62654673984
 21
1269.207871159455
 31
0.0
  0
LINE
  5
1659E
330
16540
100
AcDbEntity
  8
細線
100
AcDbLine
 10
3497.62654673984
 20
3059.207871159455
 30
0.0
 11
3497.62654673984
 21
1269.207871159455
 31
0.0
  0
LINE
  5
1659F
330
16540
100
AcDbEntity
  8
細線
100
AcDbLine
 10
3477.62654673984
 20
3059.207871159455
 30
0.0
 11
3477.62654673984
 21
1269.207871159455
 31
0.0
  0
LINE
  5
165A0
330
16540
100
AcDbEntity
  8
細線
100
AcDbLine
 10
3461.62654673984
 20
3059.207871159455
 30
0.0
 11
3461.62654673984
 21
1269.207871159455
 31
0.0
  0
LINE
  5
165A1
330
16540
100
AcDbEntity
  8
細線
100
AcDbLine
 10
3409.62654673984
 20
3059.207871159455
 30
0.0
 11
3409.62654673984
 21
1269.207871159455
 31
0.0
  0
LINE
  5
165A2
330
16540
100
AcDbEntity
  8
細線
100
AcDbLine
 10
3429.62654673984
 20
3059.207871159455
 30
0.0
 11
3429.62654673984
 21
1269.207871159455
 31
0.0
  0
LINE
  5
165A3
330
16540
100
AcDbEntity
  8
細線
100
AcDbLine
 10
3445.62654673984
 20
3059.207871159455
 30
0.0
 11
3445.62654673984
 21
1269.207871159455
 31
0.0
  0
LINE
  5
165A4
330
16540
100
AcDbEntity
  8
破線
  6
HIDDEN
 48
5.0
100
AcDbLine
 10
3791.12654673984
 20
919.2078711594549
 30
0.0
 11
3591.12654673984
 21
919.2078711594549
 31
0.0
  0
LINE
  5
165A5
330
16540
100
AcDbEntity
  8
破線
  6
HIDDEN
 48
5.0
100
AcDbLine
 10
3591.126546739833
 20
1119.207871159455
 30
0.0
 11
3591.12654673984
 21
919.2078711594549
 31
0.0
  0
LINE
  5
165A6
330
16540
100
AcDbEntity
  8
部品1
100
AcDbLine
 10
3518.62654673984
 20
1219.207871159455
 30
0.0
 11
3518.62654673984
 21
1119.207871159455
 31
0.0
  0
LINE
  5
165A7
330
16540
100
AcDbEntity
  8
部品1
 48
50.0
100
AcDbLine
 10
3671.126546739833
 20
1259.207871159455
 30
0.0
 11
3671.12654673984
 21
1119.207871159455
 31
0.0
  0
LINE
  5
165A8
330
16540
100
AcDbEntity
  8
部品1
 48
50.0
100
AcDbLine
 10
3711.12654673984
 20
1259.207871159455
 30
0.0
 11
3711.126546739833
 21
1119.207871159455
 31
0.0
  0
DIMENSION
  5
165A9
330
16540
100
AcDbEntity
  8
寸法
 48
50.0
100
AcDbDimension
  2
*D11
 10
4179.316825909223
 20
1119.207871159454
 30
0.0
 11
4179.316825909223
 21
1019.207871159454
 31
0.0
 12
-2860.873046971425
 22
4566.05588587277
 32
0.0
 70
   128
 71
     5
 42
-1.0
  3
INABA_S40G
100
AcDbAlignedDimension
 13
3791.12654673984
 23
919.207871159454
 33
0.0
 14
3791.12654673984
 24
1119.207871159454
 34
0.0
 50
270.0
100
AcDbRotatedDimension
  0
LINE
  5
165AA
330
16540
100
AcDbEntity
  8
破線
  6
HIDDEN
 48
5.0
100
AcDbLine
 10
3791.12654673984
 20
1119.207871159455
 30
0.0
 11
3791.12654673984
 21
919.2078711594549
 31
0.0
  0
LINE
  5
165AB
330
16540
100
AcDbEntity
  8
破線
  6
HIDDEN
 48
5.0
100
AcDbLine
 10
3671.126546739833
 20
1114.207871159455
 30
0.0
 11
3656.12654673984
 21
966.5078711594542
 31
0.0
  0
LINE
  5
165AC
330
16540
100
AcDbEntity
  8
破線
  6
HIDDEN
 48
5.0
100
AcDbLine
 10
3711.12654673984
 20
1114.207871159455
 30
0.0
 11
3726.12654673984
 21
966.5078711594542
 31
0.0
  0
LINE
  5
165AD
330
16540
100
AcDbEntity
  8
破線
  6
HIDDEN
 48
5.0
100
AcDbLine
 10
3726.12654673984
 20
964.207871159455
 30
0.0
 11
3656.12654673984
 21
964.207871159455
 31
0.0
  0
LINE
  5
165AE
330
16540
100
AcDbEntity
  8
破線
  6
HIDDEN
 48
5.0
100
AcDbLine
 10
3656.12654673984
 20
966.5078711594542
 30
0.0
 11
3656.12654673984
 21
964.207871159455
 31
0.0
  0
LINE
  5
165AF
330
16540
100
AcDbEntity
  8
破線
  6
HIDDEN
 48
5.0
100
AcDbLine
 10
3726.12654673984
 20
966.5078711594542
 30
0.0
 11
3726.12654673984
 21
964.207871159455
 31
0.0
  0
LINE
  5
165B0
330
16540
100
AcDbEntity
  8
部品1
 48
50.0
100
AcDbLine
 10
3795.62654673984
 20
1219.207871159454
 30
0.0
 11
3711.12654673984
 21
1219.207871159454
 31
0.0
  0
LINE
  5
165B1
330
16540
100
AcDbEntity
  8
破線
  6
HIDDEN
 48
5.0
100
AcDbLine
 10
3671.12654673984
 20
1119.207871159455
 30
0.0
 11
3671.12654673984
 21
1114.207871159455
 31
0.0
  0
LINE
  5
165B2
330
16540
100
AcDbEntity
  8
破線
  6
HIDDEN
 48
5.0
100
AcDbLine
 10
3711.126546739833
 20
1119.207871159455
 30
0.0
 11
3711.126546739833
 21
1114.207871159455
 31
0.0
  0
LINE
  5
165B3
330
16540
100
AcDbEntity
  8
部品1
100
AcDbLine
 10
3706.12654673984
 20
1264.207871159455
 30
0.0
 11
3676.126546739832
 21
1264.207871159455
 31
0.0
  0
ARC
  5
165B4
330
16540
100
AcDbEntity
  8
部品1
 48
50.0
100
AcDbCircle
 10
3676.126546739832
 20
1259.207871159455
 30
0.0
 40
5.0
100
AcDbArc
 50
90.00000000000074
 51
180.0000000000014
  0
ARC
  5
165B5
330
16540
100
AcDbEntity
  8
部品1
 48
50.0
100
AcDbCircle
 10
3706.12654673984
 20
1259.207871159455
 30
0.0
 40
5.0
100
AcDbArc
 50
359.9999999999986
 51
90.00000000000063
  0
DIMENSION
  5
165B6
330
16540
100
AcDbEntity
  8
寸法
 48
50.0
100
AcDbDimension
  2
*D12
 10
3813.62654673984
 20
3595.532890986098
 30
0.0
 11
4024.597109488317
 21
3595.532890986098
 31
0.0
 12
-2860.873046971425
 22
4566.05588587277
 32
0.0
 70
   128
 71
     5
 42
-1.0
  3
INABA_S40G
100
AcDbAlignedDimension
 13
3718.62654673984
 23
3242.770371159457
 33
0.0
 14
3813.62654673984
 24
3239.207871159455
 34
0.0
100
AcDbRotatedDimension
  0
LINE
  5
165B7
330
16540
100
AcDbEntity
  8
部品1
 48
50.0
100
AcDbLine
 10
3718.62654673984
 20
3054.207871159455
 30
0.0
 11
3795.62654673984
 21
3044.207871159455
 31
0.0
  0
ARC
  5
165B8
330
16540
100
AcDbEntity
  8
部品1
 48
50.0
100
AcDbCircle
 10
3804.147796144352
 20
3135.659354118614
 30
0.0
 40
1.199999999999999
100
AcDbArc
 50
274.8300061226041
 51
353.9245361249011
  0
ARC
  5
165B9
330
16540
100
AcDbEntity
  8
部品1
100
AcDbCircle
 10
3798.12619502222
 20
3214.19636732849
 30
0.0
 40
15.5
100
AcDbArc
 50
353.9245361249011
 51
88.13874351680366
  0
ARC
  5
165BA
330
16540
100
AcDbEntity
  8
部品1
 48
50.0
100
AcDbCircle
 10
3804.459335037135
 20
3131.972493188785
 30
0.0
 40
2.5
100
AcDbArc
 50
94.83000612260093
 51
173.9245361249088
  0
LINE
  5
165BB
330
16540
100
AcDbEntity
  8
部品1
100
AcDbLine
 10
3801.973376639441
 20
3132.237088814129
 30
0.0
 11
3801.61807571469
 21
3128.89892584772
 31
0.0
  0
ARC
  5
165BC
330
16540
100
AcDbEntity
  8
部品1
 48
50.0
100
AcDbCircle
 10
3788.206361037478
 20
3236.658668050361
 30
0.0
 40
3.5
100
AcDbArc
 50
20.40391857757741
 51
87.85241457170153
  0
ARC
  5
165BD
330
16540
100
AcDbEntity
  8
部品1
100
AcDbCircle
 10
3795.538286970367
 20
3231.289439060151
 30
0.0
 40
1.5
100
AcDbArc
 50
200.4039185775738
 51
268.1387435168036
  0
LINE
  5
165BE
330
16540
100
AcDbEntity
  8
部品1
100
AcDbLine
 10
3794.13239974877
 20
3230.766484836393
 30
0.0
 11
3791.486764554541
 21
3237.878894572463
 31
0.0
  0
LINE
  5
165BF
330
16540
100
AcDbEntity
  8
細線
 48
50.0
100
AcDbLine
 10
3776.27540591792
 20
3240.60853894028
 30
0.0
 11
3772.20936475721
 21
3115.486050019552
 31
0.0
  0
ARC
  5
165C0
330
16540
100
AcDbEntity
  8
部品1
100
AcDbCircle
 10
3786.205133649011
 20
3130.539418724855
 30
0.0
 40
15.5
100
AcDbArc
 50
268.1387435168038
 51
353.9245361248855
  0
LINE
  5
165C1
330
16540
100
AcDbEntity
  8
部品1
100
AcDbLine
 10
3813.539488805523
 20
3212.55917894804
 30
0.0
 11
3805.341056175245
 21
3135.532348218449
 31
0.0
  0
ENDBLK
  5
165C3
330
16540
100
AcDbEntity
  8
0
 48
50.0
100
AcDbBlockEnd
  0
BLOCK
  5
1665D
330
1665C
100
AcDbEntity
  8
0
 48
50.0
100
AcDbBlockBegin
  2
_DOT
 70
     0
 10
0.0
 20
0.0
 30
0.0
  3
_DOT
  1

  0
LWPOLYLINE
  5
1665E
330
1665C
100
AcDbEntity
  8
0
  6
ByBlock
 62
     0
 48
50.0
100
AcDbPolyline
 90
        2
 70
     1
 43
0.5
 10
-0.25
 20
0.0
 42
1.0
 10
0.25
 20
0.0
 42
1.0
  0
LINE
  5
1665F
330
1665C
100
AcDbEntity
  8
0
  6
ByBlock
 62
     0
 48
50.0
100
AcDbLine
 10
-0.5
 20
0.0
 30
0.0
 11
-1.0
 21
0.0
 31
0.0
  0
ENDBLK
  5
16660
330
1665C
100
AcDbEntity
  8
0
 48
50.0
100
AcDbBlockEnd
  0
BLOCK
  5
16DAE
330
16DA2
100
AcDbEntity
  8
0
 48
50.0
100
AcDbBlockBegin
  2
*D15
 70
     1
 10
0.0
 20
0.0
 30
0.0
  3
*D15
  1

  0
LINE
  5
177F4
330
16DA2
100
AcDbEntity
  8
寸法
 62
     0
 48
50.0
370
    -2
100
AcDbLine
 10
11255.87835898016
 20
4369.242732743706
 30
0.0
 11
11255.87835898016
 21
4808.335902083177
 31
0.0
  0
LINE
  5
177F5
330
16DA2
100
AcDbEntity
  8
寸法
 62
     0
 48
50.0
370
    -2
100
AcDbLine
 10
11205.87835898016
 20
4369.242732743709
 30
0.0
 11
11205.87835898016
 21
4808.335902083177
 31
0.0
  0
LINE
  5
177F6
330
16DA2
100
AcDbEntity
  8
寸法
 62
     0
 48
50.0
370
    -2
100
AcDbLine
 10
11205.87835898016
 20
4748.335902083177
 30
0.0
 11
11105.87835898016
 21
4748.335902083177
 31
0.0
  0
LINE
  5
177F7
330
16DA2
100
AcDbEntity
  8
寸法
 62
     0
 48
50.0
370
    -2
100
AcDbLine
 10
11255.87835898016
 20
4748.335902083177
 30
0.0
 11
11675.41088444888
 21
4748.335902083177
 31
0.0
  0
LINE
  5
177F8
330
16DA2
100
AcDbEntity
  8
寸法
 62
     0
 48
50.0
370
    -2
100
AcDbLine
 10
11205.87835898016
 20
4748.335902083177
 30
0.0
 11
11255.87835898016
 21
4748.335902083177
 31
0.0
  0
INSERT
  5
177F9
330
16DA2
100
AcDbEntity
  8
寸法
 62
     0
 48
50.0
370
    -2
100
AcDbBlockReference
  2
_DOTSMALL
 10
11205.87835898016
 20
4748.335902083177
 30
0.0
 41
100.0
 42
100.0
 43
100.0
  0
INSERT
  5
177FA
330
16DA2
100
AcDbEntity
  8
寸法
 62
     0
 48
50.0
370
    -2
100
AcDbBlockReference
  2
_DOTSMALL
 10
11255.87835898016
 20
4748.335902083177
 30
0.0
 41
100.0
 42
100.0
 43
100.0
 50
180.0
  0
MTEXT
  5
177FB
330
16DA2
100
AcDbEntity
  8
寸法
 62
     7
 48
50.0
100
AcDbMText
 10
11569.3636403544
 20
4848.335902083177
 30
0.0
 40
120.0
 41
0.0
 71
     5
 72
     1
  1
\A1;50
  7
STYLE1
 73
     1
 44
1.0
1001
ACAD
1000
MTEXTBEGIN
1070
    73
1070
     1
1070
    44
1040
1.0
1070
    74
1070
     0
1000
MTEXTEND
  0
POINT
  5
177FC
330
16DA2
100
AcDbEntity
  8
DEFPOINTS
 62
     0
 48
50.0
100
AcDbPoint
 10
11255.87835898016
 20
4349.242732743706
 30
0.0
  0
POINT
  5
177FD
330
16DA2
100
AcDbEntity
  8
DEFPOINTS
 62
     0
 48
50.0
100
AcDbPoint
 10
11205.87835898016
 20
4349.242732743709
 30
0.0
  0
POINT
  5
177FE
330
16DA2
100
AcDbEntity
  8
DEFPOINTS
 62
     0
 48
50.0
100
AcDbPoint
 10
11205.87835898016
 20
4748.335902083177
 30
0.0
  0
ENDBLK
  5
16DAF
330
16DA2
100
AcDbEntity
  8
0
 48
50.0
100
AcDbBlockEnd
  0
BLOCK
  5
16DBA
330
16DB0
100
AcDbEntity
  8
0
 48
50.0
100
AcDbBlockBegin
  2
*D16
 70
     1
 10
0.0
 20
0.0
 30
0.0
  3
*D16
  1

  0
LINE
  5
177EB
330
16DB0
100
AcDbEntity
  8
寸法
 62
     0
 48
50.0
370
    -2
100
AcDbLine
 10
9423.87835898018
 20
4057.242732743703
 30
0.0
 11
9084.67232976803
 21
4057.242732743704
 31
0.0
  0
LINE
  5
177EC
330
16DB0
100
AcDbEntity
  8
寸法
 62
     0
 48
50.0
370
    -2
100
AcDbLine
 10
9423.87835898018
 20
2332.242732743704
 30
0.0
 11
9084.67232976803
 21
2332.242732743704
 31
0.0
  0
LINE
  5
177ED
330
16DB0
100
AcDbEntity
  8
寸法
 62
     0
 48
50.0
370
    -2
100
AcDbLine
 10
9144.672329768029
 20
4057.242732743704
 30
0.0
 11
9144.672329768029
 21
2332.242732743704
 31
0.0
  0
INSERT
  5
177EE
330
16DB0
100
AcDbEntity
  8
寸法
 62
     0
 48
50.0
370
    -2
100
AcDbBlockReference
  2
_DOTSMALL
 10
9144.672329768029
 20
4057.242732743704
 30
0.0
 41
100.0
 42
100.0
 43
100.0
 50
90.0
  0
INSERT
  5
177EF
330
16DB0
100
AcDbEntity
  8
寸法
 62
     0
 48
50.0
370
    -2
100
AcDbBlockReference
  2
_DOTSMALL
 10
9144.672329768029
 20
2332.242732743704
 30
0.0
 41
100.0
 42
100.0
 43
100.0
 50
270.0
  0
MTEXT
  5
177F0
330
16DB0
100
AcDbEntity
  8
寸法
 62
     7
 48
50.0
100
AcDbMText
 10
9044.660518744407
 20
3185.875751761229
 30
0.0
 40
120.0
 41
0.0
 71
     5
 72
     1
  1
\A1;有効開口部高サ1725
  7
STYLE1
 11
0.0000000000000001
 21
1.0
 31
0.0
 73
     1
 44
1.0
1001
ACAD
1000
MTEXTBEGIN
1070
    73
1070
     1
1070
    44
1040
1.0
1070
    74
1070
     0
1000
MTEXTEND
  0
POINT
  5
177F1
330
16DB0
100
AcDbEntity
  8
DEFPOINTS
 62
     0
 48
50.0
100
AcDbPoint
 10
9443.87835898018
 20
4057.242732743703
 30
0.0
  0
POINT
  5
177F2
330
16DB0
100
AcDbEntity
  8
DEFPOINTS
 62
     0
 48
50.0
100
AcDbPoint
 10
9443.87835898018
 20
2332.242732743704
 30
0.0
  0
POINT
  5
177F3
330
16DB0
100
AcDbEntity
  8
DEFPOINTS
 62
     0
 48
50.0
100
AcDbPoint
 10
9144.672329768029
 20
2332.242732743704
 30
0.0
  0
ENDBLK
  5
16DBB
330
16DB0
100
AcDbEntity
  8
0
 48
50.0
100
AcDbBlockEnd
  0
BLOCK
  5
16DC6
330
16DBC
100
AcDbEntity
  8
0
 48
50.0
100
AcDbBlockBegin
  2
*D17
 70
     1
 10
0.0
 20
0.0
 30
0.0
  3
*D17
  1

  0
LINE
  5
177E2
330
16DBC
100
AcDbEntity
  8
寸法
 62
     0
 48
50.0
370
    -2
100
AcDbLine
 10
9365.878358980165
 20
4369.242732743709
 30
0.0
 11
9365.878358980165
 21
5024.862001701622
 31
0.0
  0
LINE
  5
177E3
330
16DBC
100
AcDbEntity
  8
寸法
 62
     0
 48
50.0
370
    -2
100
AcDbLine
 10
11255.87835898016
 20
4369.242732743706
 30
0.0
 11
11255.87835898016
 21
5024.862001701622
 31
0.0
  0
LINE
  5
177E4
330
16DBC
100
AcDbEntity
  8
寸法
 62
     0
 48
50.0
370
    -2
100
AcDbLine
 10
9365.878358980165
 20
4964.862001701622
 30
0.0
 11
11255.87835898016
 21
4964.862001701622
 31
0.0
  0
INSERT
  5
177E5
330
16DBC
100
AcDbEntity
  8
寸法
 62
     0
 48
50.0
370
    -2
100
AcDbBlockReference
  2
_DOTSMALL
 10
9365.878358980165
 20
4964.862001701622
 30
0.0
 41
100.0
 42
100.0
 43
100.0
 50
180.0
  0
INSERT
  5
177E6
330
16DBC
100
AcDbEntity
  8
寸法
 62
     0
 48
50.0
370
    -2
100
AcDbBlockReference
  2
_DOTSMALL
 10
11255.87835898016
 20
4964.862001701622
 30
0.0
 41
100.0
 42
100.0
 43
100.0
  0
MTEXT
  5
177E7
330
16DBC
100
AcDbEntity
  8
寸法
 62
     7
 48
50.0
100
AcDbMText
 10
10310.87835898016
 20
5064.862001701622
 30
0.0
 40
120.0
 41
0.0
 71
     5
 72
     1
  1
\A1;1890
  7
STYLE1
 73
     1
 44
1.0
1001
ACAD
1000
MTEXTBEGIN
1070
    73
1070
     1
1070
    44
1040
1.0
1070
    74
1070
     0
1000
MTEXTEND
  0
POINT
  5
177E8
330
16DBC
100
AcDbEntity
  8
DEFPOINTS
 62
     0
 48
50.0
100
AcDbPoint
 10
9365.878358980165
 20
4349.242732743709
 30
0.0
  0
POINT
  5
177E9
330
16DBC
100
AcDbEntity
  8
DEFPOINTS
 62
     0
 48
50.0
100
AcDbPoint
 10
11255.87835898016
 20
4349.242732743706
 30
0.0
  0
POINT
  5
177EA
330
16DBC
100
AcDbEntity
  8
DEFPOINTS
 62
     0
 48
50.0
100
AcDbPoint
 10
11255.87835898016
 20
4964.862001701622
 30
0.0
  0
ENDBLK
  5
16DC7
330
16DBC
100
AcDbEntity
  8
0
 48
50.0
100
AcDbBlockEnd
  0
BLOCK
  5
16DD4
330
16DC8
100
AcDbEntity
  8
0
 48
50.0
100
AcDbBlockBegin
  2
*D18
 70
     1
 10
0.0
 20
0.0
 30
0.0
  3
*D18
  1

  0
LINE
  5
177D7
330
16DC8
100
AcDbEntity
  8
寸法
 62
     0
 48
50.0
370
    -2
100
AcDbLine
 10
9415.878358980164
 20
4369.24273274371
 30
0.0
 11
9415.878358980164
 21
4808.335902083177
 31
0.0
  0
LINE
  5
177D8
330
16DC8
100
AcDbEntity
  8
寸法
 62
     0
 48
50.0
370
    -2
100
AcDbLine
 10
9365.878358980165
 20
4369.242732743709
 30
0.0
 11
9365.878358980165
 21
4808.335902083177
 31
0.0
  0
LINE
  5
177D9
330
16DC8
100
AcDbEntity
  8
寸法
 62
     0
 48
50.0
370
    -2
100
AcDbLine
 10
9415.878358980164
 20
4748.335902083177
 30
0.0
 11
9515.878358980165
 21
4748.335902083177
 31
0.0
  0
LINE
  5
177DA
330
16DC8
100
AcDbEntity
  8
寸法
 62
     0
 48
50.0
370
    -2
100
AcDbLine
 10
9365.878358980165
 20
4748.335902083177
 30
0.0
 11
8946.345833511429
 21
4748.335902083177
 31
0.0
  0
LINE
  5
177DB
330
16DC8
100
AcDbEntity
  8
寸法
 62
     0
 48
50.0
370
    -2
100
AcDbLine
 10
9415.878358980164
 20
4748.335902083177
 30
0.0
 11
9365.878358980165
 21
4748.335902083177
 31
0.0
  0
INSERT
  5
177DC
330
16DC8
100
AcDbEntity
  8
寸法
 62
     0
 48
50.0
370
    -2
100
AcDbBlockReference
  2
_DOTSMALL
 10
9415.878358980164
 20
4748.335902083177
 30
0.0
 41
100.0
 42
100.0
 43
100.0
 50
180.0
  0
INSERT
  5
177DD
330
16DC8
100
AcDbEntity
  8
寸法
 62
     0
 48
50.0
370
    -2
100
AcDbBlockReference
  2
_DOTSMALL
 10
9365.878358980165
 20
4748.335902083177
 30
0.0
 41
100.0
 42
100.0
 43
100.0
  0
MTEXT
  5
177DE
330
16DC8
100
AcDbEntity
  8
寸法
 62
     7
 48
50.0
100
AcDbMText
 10
9052.393077605918
 20
4848.335902083177
 30
0.0
 40
120.0
 41
0.0
 71
     5
 72
     1
  1
\A1;50
  7
STYLE1
 73
     1
 44
1.0
1001
ACAD
1000
MTEXTBEGIN
1070
    73
1070
     1
1070
    44
1040
1.0
1070
    74
1070
     0
1000
MTEXTEND
  0
POINT
  5
177DF
330
16DC8
100
AcDbEntity
  8
DEFPOINTS
 62
     0
 48
50.0
100
AcDbPoint
 10
9415.878358980164
 20
4349.24273274371
 30
0.0
  0
POINT
  5
177E0
330
16DC8
100
AcDbEntity
  8
DEFPOINTS
 62
     0
 48
50.0
100
AcDbPoint
 10
9365.878358980165
 20
4349.242732743709
 30
0.0
  0
POINT
  5
177E1
330
16DC8
100
AcDbEntity
  8
DEFPOINTS
 62
     0
 48
50.0
100
AcDbPoint
 10
9365.878358980165
 20
4748.335902083177
 30
0.0
  0
ENDBLK
  5
16DD5
330
16DC8
100
AcDbEntity
  8
0
 48
50.0
100
AcDbBlockEnd
  0
BLOCK
  5
16DE0
330
16DD6
100
AcDbEntity
  8
0
 48
50.0
100
AcDbBlockBegin
  2
*D19
 70
     1
 10
0.0
 20
0.0
 30
0.0
  3
*D19
  1

  0
LINE
  5
177CE
330
16DD6
100
AcDbEntity
  8
寸法
 62
     0
 48
50.0
370
    -2
100
AcDbLine
 10
11205.87835898016
 20
4369.242732743709
 30
0.0
 11
11205.87835898016
 21
4808.335902083177
 31
0.0
  0
LINE
  5
177CF
330
16DD6
100
AcDbEntity
  8
寸法
 62
     0
 48
50.0
370
    -2
100
AcDbLine
 10
9415.878358980164
 20
4369.24273274371
 30
0.0
 11
9415.878358980164
 21
4808.335902083177
 31
0.0
  0
LINE
  5
177D0
330
16DD6
100
AcDbEntity
  8
寸法
 62
     0
 48
50.0
370
    -2
100
AcDbLine
 10
11205.87835898016
 20
4748.335902083177
 30
0.0
 11
9415.878358980164
 21
4748.335902083177
 31
0.0
  0
INSERT
  5
177D1
330
16DD6
100
AcDbEntity
  8
寸法
 62
     0
 48
50.0
370
    -2
100
AcDbBlockReference
  2
_DOTSMALL
 10
11205.87835898016
 20
4748.335902083177
 30
0.0
 41
100.0
 42
100.0
 43
100.0
  0
INSERT
  5
177D2
330
16DD6
100
AcDbEntity
  8
寸法
 62
     0
 48
50.0
370
    -2
100
AcDbBlockReference
  2
_DOTSMALL
 10
9415.878358980164
 20
4748.335902083177
 30
0.0
 41
100.0
 42
100.0
 43
100.0
 50
180.0
  0
MTEXT
  5
177D3
330
16DD6
100
AcDbEntity
  8
寸法
 62
     7
 48
50.0
100
AcDbMText
 10
10310.87835898016
 20
4848.335902083177
 30
0.0
 40
120.0
 41
0.0
 71
     5
 72
     1
  1
\A1;柱外寸法1790
  7
STYLE1
 73
     1
 44
1.0
1001
ACAD
1000
MTEXTBEGIN
1070
    73
1070
     1
1070
    44
1040
1.0
1070
    74
1070
     0
1000
MTEXTEND
  0
POINT
  5
177D4
330
16DD6
100
AcDbEntity
  8
DEFPOINTS
 62
     0
 48
50.0
100
AcDbPoint
 10
11205.87835898016
 20
4349.242732743709
 30
0.0
  0
POINT
  5
177D5
330
16DD6
100
AcDbEntity
  8
DEFPOINTS
 62
     0
 48
50.0
100
AcDbPoint
 10
9415.878358980164
 20
4349.24273274371
 30
0.0
  0
POINT
  5
177D6
330
16DD6
100
AcDbEntity
  8
DEFPOINTS
 62
     0
 48
50.0
100
AcDbPoint
 10
9415.878358980164
 20
4748.335902083177
 30
0.0
  0
ENDBLK
  5
16DE1
330
16DD6
100
AcDbEntity
  8
0
 48
50.0
100
AcDbBlockEnd
  0
BLOCK
  5
16DEC
330
16DE2
100
AcDbEntity
  8
0
 48
50.0
100
AcDbBlockBegin
  2
*D20
 70
     1
 10
0.0
 20
0.0
 30
0.0
  3
*D20
  1

  0
LINE
  5
177C5
330
16DE2
100
AcDbEntity
  8
寸法
 62
     0
 48
50.0
370
    -2
100
AcDbLine
 10
9515.878358980165
 20
1954.242732743702
 30
0.0
 11
9515.878358980165
 21
1628.195403443325
 31
0.0
  0
LINE
  5
177C6
330
16DE2
100
AcDbEntity
  8
寸法
 62
     0
 48
50.0
370
    -2
100
AcDbLine
 10
9315.878358980164
 20
1954.242732743702
 30
0.0
 11
9315.878358980164
 21
1628.195403443325
 31
0.0
  0
LINE
  5
177C7
330
16DE2
100
AcDbEntity
  8
寸法
 62
     0
 48
50.0
370
    -2
100
AcDbLine
 10
9515.878358980165
 20
1688.195403443326
 30
0.0
 11
9315.878358980164
 21
1688.195403443326
 31
0.0
  0
INSERT
  5
177C8
330
16DE2
100
AcDbEntity
  8
寸法
 62
     0
 48
50.0
370
    -2
100
AcDbBlockReference
  2
_DOTSMALL
 10
9515.878358980165
 20
1688.195403443326
 30
0.0
 41
100.0
 42
100.0
 43
100.0
  0
INSERT
  5
177C9
330
16DE2
100
AcDbEntity
  8
寸法
 62
     0
 48
50.0
370
    -2
100
AcDbBlockReference
  2
_DOTSMALL
 10
9315.878358980164
 20
1688.195403443326
 30
0.0
 41
100.0
 42
100.0
 43
100.0
 50
180.0
  0
MTEXT
  5
177CA
330
16DE2
100
AcDbEntity
  8
寸法
 62
     7
 48
50.0
100
AcDbMText
 10
9415.878358980164
 20
1788.207214466948
 30
0.0
 40
120.0
 41
0.0
 71
     5
 72
     1
  1
\A1;200
  7
STYLE1
 73
     1
 44
1.0
1001
ACAD
1000
MTEXTBEGIN
1070
    73
1070
     1
1070
    44
1040
1.0
1070
    74
1070
     0
1000
MTEXTEND
  0
POINT
  5
177CB
330
16DE2
100
AcDbEntity
  8
DEFPOINTS
 62
     0
 48
50.0
100
AcDbPoint
 10
9515.878358980165
 20
1974.242732743703
 30
0.0
  0
POINT
  5
177CC
330
16DE2
100
AcDbEntity
  8
DEFPOINTS
 62
     0
 48
50.0
100
AcDbPoint
 10
9315.878358980164
 20
1974.242732743703
 30
0.0
  0
POINT
  5
177CD
330
16DE2
100
AcDbEntity
  8
DEFPOINTS
 62
     0
 48
50.0
100
AcDbPoint
 10
9315.878358980164
 20
1688.195403443326
 30
0.0
  0
ENDBLK
  5
16DED
330
16DE2
100
AcDbEntity
  8
0
 48
50.0
100
AcDbBlockEnd
  0
BLOCK
  5
16DF8
330
16DEE
100
AcDbEntity
  8
0
 48
50.0
100
AcDbBlockBegin
  2
*D21
 70
     1
 10
0.0
 20
0.0
 30
0.0
  3
*D21
  1

  0
LINE
  5
177BC
330
16DEE
100
AcDbEntity
  8
寸法
 62
     0
 48
50.0
370
    -2
100
AcDbLine
 10
10705.87835898023
 20
9762.661376304542
 30
0.0
 11
10462.51808265126
 21
9827.869565816705
 31
0.0
  0
LINE
  5
177BD
330
16DEE
100
AcDbEntity
  8
寸法
 62
     0
 48
50.0
370
    -2
100
AcDbLine
 10
10705.87835898022
 20
8489.66137630447
 30
0.0
 11
10462.51808265126
 21
8554.869565816632
 31
0.0
  0
LINE
  5
177BE
330
16DEE
100
AcDbEntity
  8
寸法
 62
     0
 48
50.0
370
    -2
100
AcDbLine
 10
10522.51808265126
 20
9811.792614270837
 30
0.0
 11
10522.51808265126
 21
8538.792614270764
 31
0.0
  0
INSERT
  5
177BF
330
16DEE
100
AcDbEntity
  8
寸法
 62
     0
 48
50.0
370
    -2
100
AcDbBlockReference
  2
_DOTSMALL
 10
10522.51808265126
 20
9811.792614270837
 30
0.0
 41
100.0
 42
100.0
 43
100.0
 50
90.0
  0
INSERT
  5
177C0
330
16DEE
100
AcDbEntity
  8
寸法
 62
     0
 48
50.0
370
    -2
100
AcDbBlockReference
  2
_DOTSMALL
 10
10522.51808265126
 20
8538.792614270764
 30
0.0
 41
100.0
 42
100.0
 43
100.0
 50
270.0
  0
MTEXT
  5
177C1
330
16DEE
100
AcDbEntity
  8
寸法
 62
     7
 48
50.0
100
AcDbMText
 10
10422.50627162764
 20
9148.748457885991
 30
0.0
 40
120.0
 41
0.0
 71
     5
 72
     1
  1
\A1;1273
  7
STYLE1
 11
0.0000000000000001
 21
1.0
 31
0.0
 73
     1
 44
1.0
1001
ACAD
1000
MTEXTBEGIN
1070
    73
1070
     1
1070
    44
1040
1.0
1070
    74
1070
     0
1000
MTEXTEND
  0
POINT
  5
177C2
330
16DEE
100
AcDbEntity
  8
DEFPOINTS
 62
     0
 48
50.0
100
AcDbPoint
 10
10725.87835898023
 20
9757.302392455919
 30
0.0
  0
POINT
  5
177C3
330
16DEE
100
AcDbEntity
  8
DEFPOINTS
 62
     0
 48
50.0
100
AcDbPoint
 10
10725.87835898022
 20
8484.302392455848
 30
0.0
  0
POINT
  5
177C4
330
16DEE
100
AcDbEntity
  8
DEFPOINTS
 62
     0
 48
50.0
100
AcDbPoint
 10
10522.51808265126
 20
8538.792614270764
 30
0.0
  0
ENDBLK
  5
16DF9
330
16DEE
100
AcDbEntity
  8
0
 48
50.0
100
AcDbBlockEnd
  0
BLOCK
  5
16E04
330
16DFA
100
AcDbEntity
  8
0
 48
50.0
100
AcDbBlockBegin
  2
*D22
 70
     1
 10
0.0
 20
0.0
 30
0.0
  3
*D22
  1

  0
LINE
  5
1838C
330
16DFA
100
AcDbEntity
  8
寸法
 62
     0
 48
50.0
370
    -2
100
AcDbLine
 10
10705.87835898029
 20
8462.661376304472
 30
0.0
 11
10464.01940129576
 21
8527.467288698273
 31
0.0
  0
LINE
  5
1838D
330
16DFA
100
AcDbEntity
  8
寸法
 62
     0
 48
50.0
370
    -2
100
AcDbLine
 10
10705.87835898028
 20
7189.661376304458
 30
0.0
 11
10464.01940129576
 21
7254.467288698259
 31
0.0
  0
LINE
  5
1838E
330
16DFA
100
AcDbEntity
  8
寸法
 62
     0
 48
50.0
370
    -2
100
AcDbLine
 10
10524.01940129576
 20
8511.390337152407
 30
0.0
 11
10524.01940129576
 21
7238.390337152392
 31
0.0
  0
INSERT
  5
1838F
330
16DFA
100
AcDbEntity
  8
寸法
 62
     0
 48
50.0
370
    -2
100
AcDbBlockReference
  2
_DOTSMALL
 10
10524.01940129576
 20
8511.390337152407
 30
0.0
 41
100.0
 42
100.0
 43
100.0
 50
90.0
  0
INSERT
  5
18390
330
16DFA
100
AcDbEntity
  8
寸法
 62
     0
 48
50.0
370
    -2
100
AcDbBlockReference
  2
_DOTSMALL
 10
10524.01940129576
 20
7238.390337152392
 30
0.0
 41
100.0
 42
100.0
 43
100.0
 50
270.0
  0
MTEXT
  5
18391
330
16DFA
100
AcDbEntity
  8
寸法
 62
     7
 48
50.0
100
AcDbMText
 10
10424.00759027214
 20
7855.008278694906
 30
0.0
 40
120.0
 41
0.0
 71
     5
 72
     1
  1
\A1;1273
  7
STYLE1
 11
0.0000000000000001
 21
1.0
 31
0.0
 73
     1
 44
1.0
1001
ACAD
1000
MTEXTBEGIN
1070
    73
1070
     1
1070
    44
1040
1.0
1070
    74
1070
     0
1000
MTEXTEND
  0
POINT
  5
18392
330
16DFA
100
AcDbEntity
  8
DEFPOINTS
 62
     0
 48
50.0
100
AcDbPoint
 10
10725.87835898029
 20
8457.302392455849
 30
0.0
  0
POINT
  5
18393
330
16DFA
100
AcDbEntity
  8
DEFPOINTS
 62
     0
 48
50.0
100
AcDbPoint
 10
10725.87835898028
 20
7184.302392455837
 30
0.0
  0
POINT
  5
18394
330
16DFA
100
AcDbEntity
  8
DEFPOINTS
 62
     0
 48
50.0
100
AcDbPoint
 10
10524.01940129576
 20
7238.390337152392
 30
0.0
  0
ENDBLK
  5
16E05
330
16DFA
100
AcDbEntity
  8
0
 48
50.0
100
AcDbBlockEnd
  0
BLOCK
  5
16E10
330
16E06
100
AcDbEntity
  8
0
 48
50.0
100
AcDbBlockBegin
  2
*D23
 70
     1
 10
0.0
 20
0.0
 30
0.0
  3
*D23
  1

  0
LINE
  5
183B6
330
16E06
100
AcDbEntity
  8
寸法
 62
     0
 48
50.0
370
    -2
100
AcDbLine
 10
9470.878358980176
 20
9805.802392455779
 30
0.0
 11
9470.878358980176
 21
10137.00755701985
 31
0.0
  0
LINE
  5
183B7
330
16E06
100
AcDbEntity
  8
寸法
 62
     0
 48
50.0
370
    -2
100
AcDbLine
 10
11150.87835898017
 20
9805.802392455873
 30
0.0
 11
11150.87835898017
 21
10137.00755701985
 31
0.0
  0
LINE
  5
183B8
330
16E06
100
AcDbEntity
  8
寸法
 62
     0
 48
50.0
370
    -2
100
AcDbLine
 10
9470.878358980176
 20
10077.00755701985
 30
0.0
 11
11150.87835898017
 21
10077.00755701985
 31
0.0
  0
INSERT
  5
183B9
330
16E06
100
AcDbEntity
  8
寸法
 62
     0
 48
50.0
370
    -2
100
AcDbBlockReference
  2
_DOTSMALL
 10
9470.878358980176
 20
10077.00755701985
 30
0.0
 41
100.0
 42
100.0
 43
100.0
 50
180.0
  0
INSERT
  5
183BA
330
16E06
100
AcDbEntity
  8
寸法
 62
     0
 48
50.0
370
    -2
100
AcDbBlockReference
  2
_DOTSMALL
 10
11150.87835898017
 20
10077.00755701985
 30
0.0
 41
100.0
 42
100.0
 43
100.0
  0
MTEXT
  5
183BB
330
16E06
100
AcDbEntity
  8
寸法
 62
     7
 48
50.0
100
AcDbMText
 10
10310.87835898017
 20
10177.01936804348
 30
0.0
 40
120.0
 41
0.0
 71
     5
 72
     1
  1
\A1;4X420=1680
  7
STYLE1
 73
     1
 44
1.0
1001
ACAD
1000
MTEXTBEGIN
1070
    73
1070
     1
1070
    44
1040
1.0
1070
    74
1070
     0
1000
MTEXTEND
  0
POINT
  5
183BC
330
16E06
100
AcDbEntity
  8
DEFPOINTS
 62
     0
 48
50.0
100
AcDbPoint
 10
9470.878358980176
 20
9785.802392455778
 30
0.0
  0
POINT
  5
183BD
330
16E06
100
AcDbEntity
  8
DEFPOINTS
 62
     0
 48
50.0
100
AcDbPoint
 10
11150.87835898017
 20
9785.802392455874
 30
0.0
  0
POINT
  5
183BE
330
16E06
100
AcDbEntity
  8
DEFPOINTS
 62
     0
 48
50.0
100
AcDbPoint
 10
11150.87835898017
 20
10077.00755701985
 30
0.0
  0
ENDBLK
  5
16E11
330
16E06
100
AcDbEntity
  8
0
 48
50.0
100
AcDbBlockEnd
  0
BLOCK
  5
16E1E
330
16E12
100
AcDbEntity
  8
0
 48
50.0
100
AcDbBlockBegin
  2
*D24
 70
     1
 10
0.0
 20
0.0
 30
0.0
  3
*D24
  1

  0
LINE
  5
183AB
330
16E12
100
AcDbEntity
  8
寸法
 62
     0
 48
50.0
370
    -2
100
AcDbLine
 10
11150.87835898017
 20
9805.802392455873
 30
0.0
 11
11150.87835898017
 21
10137.00755701983
 31
0.0
  0
LINE
  5
183AC
330
16E12
100
AcDbEntity
  8
寸法
 62
     0
 48
50.0
370
    -2
100
AcDbLine
 10
11205.87835898017
 20
9805.802392455873
 30
0.0
 11
11205.87835898017
 21
10137.00755701983
 31
0.0
  0
LINE
  5
183AD
330
16E12
100
AcDbEntity
  8
寸法
 62
     0
 48
50.0
370
    -2
100
AcDbLine
 10
11150.87835898017
 20
10077.00755701983
 30
0.0
 11
11050.87835898017
 21
10077.00755701983
 31
0.0
  0
LINE
  5
183AE
330
16E12
100
AcDbEntity
  8
寸法
 62
     0
 48
50.0
370
    -2
100
AcDbLine
 10
11205.87835898017
 20
10077.00755701983
 30
0.0
 11
11622.84892172865
 21
10077.00755701983
 31
0.0
  0
LINE
  5
183AF
330
16E12
100
AcDbEntity
  8
寸法
 62
     0
 48
50.0
370
    -2
100
AcDbLine
 10
11150.87835898017
 20
10077.00755701983
 30
0.0
 11
11205.87835898017
 21
10077.00755701983
 31
0.0
  0
INSERT
  5
183B0
330
16E12
100
AcDbEntity
  8
寸法
 62
     0
 48
50.0
370
    -2
100
AcDbBlockReference
  2
_DOTSMALL
 10
11150.87835898017
 20
10077.00755701983
 30
0.0
 41
100.0
 42
100.0
 43
100.0
  0
INSERT
  5
183B1
330
16E12
100
AcDbEntity
  8
寸法
 62
     0
 48
50.0
370
    -2
100
AcDbBlockReference
  2
_DOTSMALL
 10
11205.87835898017
 20
10077.00755701983
 30
0.0
 41
100.0
 42
100.0
 43
100.0
 50
180.0
  0
MTEXT
  5
183B2
330
16E12
100
AcDbEntity
  8
寸法
 62
     7
 48
50.0
100
AcDbMText
 10
11514.36364035441
 20
10177.00755701983
 30
0.0
 40
120.0
 41
0.0
 71
     5
 72
     1
  1
\A1;55
  7
STYLE1
 73
     1
 44
1.0
1001
ACAD
1000
MTEXTBEGIN
1070
    73
1070
     1
1070
    44
1040
1.0
1070
    74
1070
     0
1000
MTEXTEND
  0
POINT
  5
183B3
330
16E12
100
AcDbEntity
  8
DEFPOINTS
 62
     0
 48
50.0
100
AcDbPoint
 10
11150.87835898017
 20
9785.802392455874
 30
0.0
  0
POINT
  5
183B4
330
16E12
100
AcDbEntity
  8
DEFPOINTS
 62
     0
 48
50.0
100
AcDbPoint
 10
11205.87835898017
 20
9785.802392455874
 30
0.0
  0
POINT
  5
183B5
330
16E12
100
AcDbEntity
  8
DEFPOINTS
 62
     0
 48
50.0
100
AcDbPoint
 10
11205.87835898017
 20
10077.00755701983
 30
0.0
  0
ENDBLK
  5
16E1F
330
16E12
100
AcDbEntity
  8
0
 48
50.0
100
AcDbBlockEnd
  0
BLOCK
  5
16E36
330
16E2C
100
AcDbEntity
  8
0
 48
50.0
100
AcDbBlockBegin
  2
*D25
 70
     1
 10
0.0
 20
0.0
 30
0.0
  3
*D25
  1

  0
LINE
  5
1778D
330
16E2C
100
AcDbEntity
  8
寸法
 62
     0
 48
50.0
370
    -2
100
AcDbLine
 10
11225.87835898017
 20
9730.802392455878
 30
0.0
 11
11913.30470471459
 21
9730.802392455878
 31
0.0
  0
LINE
  5
1778E
330
16E2C
100
AcDbEntity
  8
寸法
 62
     0
 48
50.0
370
    -2
100
AcDbLine
 10
11225.87835898015
 20
7210.80239245586
 30
0.0
 11
11913.30470471459
 21
7210.80239245586
 31
0.0
  0
LINE
  5
1778F
330
16E2C
100
AcDbEntity
  8
寸法
 62
     0
 48
50.0
370
    -2
100
AcDbLine
 10
11853.30470471459
 20
9730.802392455878
 30
0.0
 11
11853.30470471459
 21
7210.80239245586
 31
0.0
  0
INSERT
  5
17790
330
16E2C
100
AcDbEntity
  8
寸法
 62
     0
 48
50.0
370
    -2
100
AcDbBlockReference
  2
_DOTSMALL
 10
11853.30470471459
 20
9730.802392455878
 30
0.0
 41
100.0
 42
100.0
 43
100.0
 50
90.0
  0
INSERT
  5
17791
330
16E2C
100
AcDbEntity
  8
寸法
 62
     0
 48
50.0
370
    -2
100
AcDbBlockReference
  2
_DOTSMALL
 10
11853.30470471459
 20
7210.80239245586
 30
0.0
 41
100.0
 42
100.0
 43
100.0
 50
270.0
  0
MTEXT
  5
17792
330
16E2C
100
AcDbEntity
  8
寸法
 62
     7
 48
50.0
100
AcDbMText
 10
11753.29289369096
 20
8470.802392455867
 30
0.0
 40
120.0
 41
0.0
 71
     5
 72
     1
  1
\A1;6X420=2520
  7
STYLE1
 11
0.0000000000000001
 21
1.0
 31
0.0
 73
     1
 44
1.0
1001
ACAD
1000
MTEXTBEGIN
1070
    73
1070
     1
1070
    44
1040
1.0
1070
    74
1070
     0
1000
MTEXTEND
  0
POINT
  5
17793
330
16E2C
100
AcDbEntity
  8
DEFPOINTS
 62
     0
 48
50.0
100
AcDbPoint
 10
11205.87835898017
 20
9730.802392455878
 30
0.0
  0
POINT
  5
17794
330
16E2C
100
AcDbEntity
  8
DEFPOINTS
 62
     0
 48
50.0
100
AcDbPoint
 10
11205.87835898015
 20
7210.80239245586
 30
0.0
  0
POINT
  5
17795
330
16E2C
100
AcDbEntity
  8
DEFPOINTS
 62
     0
 48
50.0
100
AcDbPoint
 10
11853.30470471459
 20
7210.80239245586
 30
0.0
  0
ENDBLK
  5
16E37
330
16E2C
100
AcDbEntity
  8
0
 48
50.0
100
AcDbBlockEnd
  0
BLOCK
  5
16E44
330
16E38
100
AcDbEntity
  8
0
 48
50.0
100
AcDbBlockBegin
  2
*D26
 70
     1
 10
0.0
 20
0.0
 30
0.0
  3
*D26
  1

  0
LINE
  5
17782
330
16E38
100
AcDbEntity
  8
寸法
 62
     0
 48
50.0
370
    -2
100
AcDbLine
 10
11225.87835898015
 20
7210.80239245586
 30
0.0
 11
11913.30470471456
 21
7210.80239245586
 31
0.0
  0
LINE
  5
17783
330
16E38
100
AcDbEntity
  8
寸法
 62
     0
 48
50.0
370
    -2
100
AcDbLine
 10
11225.87835898015
 20
7155.802392455864
 30
0.0
 11
11913.30470471456
 21
7155.802392455864
 31
0.0
  0
LINE
  5
17784
330
16E38
100
AcDbEntity
  8
寸法
 62
     0
 48
50.0
370
    -2
100
AcDbLine
 10
11853.30470471456
 20
7210.80239245586
 30
0.0
 11
11853.30470471456
 21
7310.802392455861
 31
0.0
  0
LINE
  5
17785
330
16E38
100
AcDbEntity
  8
寸法
 62
     0
 48
50.0
370
    -2
100
AcDbLine
 10
11853.30470471456
 20
7155.802392455864
 30
0.0
 11
11853.30470471456
 21
6669.455644176761
 31
0.0
  0
LINE
  5
17786
330
16E38
100
AcDbEntity
  8
寸法
 62
     0
 48
50.0
370
    -2
100
AcDbLine
 10
11853.30470471456
 20
7210.80239245586
 30
0.0
 11
11853.30470471456
 21
7155.802392455864
 31
0.0
  0
INSERT
  5
17787
330
16E38
100
AcDbEntity
  8
寸法
 62
     0
 48
50.0
370
    -2
100
AcDbBlockReference
  2
_DOTSMALL
 10
11853.30470471456
 20
7210.80239245586
 30
0.0
 41
100.0
 42
100.0
 43
100.0
 50
270.0
  0
INSERT
  5
17788
330
16E38
100
AcDbEntity
  8
寸法
 62
     0
 48
50.0
370
    -2
100
AcDbBlockReference
  2
_DOTSMALL
 10
11853.30470471456
 20
7155.802392455864
 30
0.0
 41
100.0
 42
100.0
 43
100.0
 50
90.0
  0
MTEXT
  5
17789
330
16E38
100
AcDbEntity
  8
寸法
 62
     7
 48
50.0
100
AcDbMText
 10
11753.30470471456
 20
6777.940925551003
 30
0.0
 40
120.0
 41
0.0
 71
     5
 72
     1
  1
\A1;55
  7
STYLE1
 11
0.0000000000000001
 21
1.0
 31
0.0
 73
     1
 44
1.0
1001
ACAD
1000
MTEXTBEGIN
1070
    73
1070
     1
1070
    44
1040
1.0
1070
    74
1070
     0
1000
MTEXTEND
  0
POINT
  5
1778A
330
16E38
100
AcDbEntity
  8
DEFPOINTS
 62
     0
 48
50.0
100
AcDbPoint
 10
11205.87835898015
 20
7210.80239245586
 30
0.0
  0
POINT
  5
1778B
330
16E38
100
AcDbEntity
  8
DEFPOINTS
 62
     0
 48
50.0
100
AcDbPoint
 10
11205.87835898015
 20
7155.802392455864
 30
0.0
  0
POINT
  5
1778C
330
16E38
100
AcDbEntity
  8
DEFPOINTS
 62
     0
 48
50.0
100
AcDbPoint
 10
11853.30470471456
 20
7155.802392455864
 30
0.0
  0
ENDBLK
  5
16E45
330
16E38
100
AcDbEntity
  8
0
 48
50.0
100
AcDbBlockEnd
  0
BLOCK
  5
16E52
330
16E46
100
AcDbEntity
  8
0
 48
50.0
100
AcDbBlockBegin
  2
*D27
 70
     1
 10
0.0
 20
0.0
 30
0.0
  3
*D27
  1

  0
LINE
  5
17777
330
16E46
100
AcDbEntity
  8
寸法
 62
     0
 48
50.0
370
    -2
100
AcDbLine
 10
11225.87835898017
 20
9785.802392455874
 30
0.0
 11
11913.30470471458
 21
9785.802392455874
 31
0.0
  0
LINE
  5
17778
330
16E46
100
AcDbEntity
  8
寸法
 62
     0
 48
50.0
370
    -2
100
AcDbLine
 10
11225.87835898017
 20
9730.802392455878
 30
0.0
 11
11913.30470471458
 21
9730.802392455878
 31
0.0
  0
LINE
  5
17779
330
16E46
100
AcDbEntity
  8
寸法
 62
     0
 48
50.0
370
    -2
100
AcDbLine
 10
11853.30470471458
 20
9730.802392455878
 30
0.0
 11
11853.30470471458
 21
9630.802392455876
 31
0.0
  0
LINE
  5
1777A
330
16E46
100
AcDbEntity
  8
寸法
 62
     0
 48
50.0
370
    -2
100
AcDbLine
 10
11853.30470471458
 20
9785.802392455874
 30
0.0
 11
11853.30470471458
 21
10202.77295520435
 31
0.0
  0
LINE
  5
1777B
330
16E46
100
AcDbEntity
  8
寸法
 62
     0
 48
50.0
370
    -2
100
AcDbLine
 10
11853.30470471458
 20
9730.802392455878
 30
0.0
 11
11853.30470471458
 21
9785.802392455874
 31
0.0
  0
INSERT
  5
1777C
330
16E46
100
AcDbEntity
  8
寸法
 62
     0
 48
50.0
370
    -2
100
AcDbBlockReference
  2
_DOTSMALL
 10
11853.30470471458
 20
9730.802392455878
 30
0.0
 41
100.0
 42
100.0
 43
100.0
 50
90.0
  0
INSERT
  5
1777D
330
16E46
100
AcDbEntity
  8
寸法
 62
     0
 48
50.0
370
    -2
100
AcDbBlockReference
  2
_DOTSMALL
 10
11853.30470471458
 20
9785.802392455874
 30
0.0
 41
100.0
 42
100.0
 43
100.0
 50
270.0
  0
MTEXT
  5
1777E
330
16E46
100
AcDbEntity
  8
寸法
 62
     7
 48
50.0
100
AcDbMText
 10
11753.30470471458
 20
10094.28767383011
 30
0.0
 40
120.0
 41
0.0
 71
     5
 72
     1
  1
\A1;55
  7
STYLE1
 11
0.0000000000000001
 21
1.0
 31
0.0
 73
     1
 44
1.0
1001
ACAD
1000
MTEXTBEGIN
1070
    73
1070
     1
1070
    44
1040
1.0
1070
    74
1070
     0
1000
MTEXTEND
  0
POINT
  5
1777F
330
16E46
100
AcDbEntity
  8
DEFPOINTS
 62
     0
 48
50.0
100
AcDbPoint
 10
11205.87835898017
 20
9785.802392455874
 30
0.0
  0
POINT
  5
17780
330
16E46
100
AcDbEntity
  8
DEFPOINTS
 62
     0
 48
50.0
100
AcDbPoint
 10
11205.87835898017
 20
9730.802392455878
 30
0.0
  0
POINT
  5
17781
330
16E46
100
AcDbEntity
  8
DEFPOINTS
 62
     0
 48
50.0
100
AcDbPoint
 10
11853.30470471458
 20
9730.802392455878
 30
0.0
  0
ENDBLK
  5
16E53
330
16E46
100
AcDbEntity
  8
0
 48
50.0
100
AcDbBlockEnd
  0
BLOCK
  5
16E5E
330
16E54
100
AcDbEntity
  8
0
 48
50.0
100
AcDbBlockBegin
  2
*D28
 70
     1
 10
0.0
 20
0.0
 30
0.0
  3
*D28
  1

  0
LINE
  5
189AB
330
16E54
100
AcDbEntity
  8
寸法
 62
     0
 48
50.0
370
    -2
100
AcDbLine
 10
11225.87835898017
 20
9785.802392455874
 30
0.0
 11
12223.14971642208
 21
9785.802392455874
 31
0.0
  0
LINE
  5
189AC
330
16E54
100
AcDbEntity
  8
寸法
 62
     0
 48
50.0
370
    -2
100
AcDbLine
 10
11225.87835898015
 20
7155.802392455864
 30
0.0
 11
12223.14971642208
 21
7155.802392455864
 31
0.0
  0
LINE
  5
189AD
330
16E54
100
AcDbEntity
  8
寸法
 62
     0
 48
50.0
370
    -2
100
AcDbLine
 10
12163.14971642208
 20
9785.802392455874
 30
0.0
 11
12163.14971642208
 21
7155.802392455864
 31
0.0
  0
INSERT
  5
189AE
330
16E54
100
AcDbEntity
  8
寸法
 62
     0
 48
50.0
370
    -2
100
AcDbBlockReference
  2
_DOTSMALL
 10
12163.14971642208
 20
9785.802392455874
 30
0.0
 41
100.0
 42
100.0
 43
100.0
 50
90.0
  0
INSERT
  5
189AF
330
16E54
100
AcDbEntity
  8
寸法
 62
     0
 48
50.0
370
    -2
100
AcDbBlockReference
  2
_DOTSMALL
 10
12163.14971642208
 20
7155.802392455864
 30
0.0
 41
100.0
 42
100.0
 43
100.0
 50
270.0
  0
MTEXT
  5
189B0
330
16E54
100
AcDbEntity
  8
寸法
 62
     7
 48
50.0
100
AcDbMText
 10
12063.13790539845
 20
8417.365314999988
 30
0.0
 40
120.0
 41
0.0
 71
     5
 72
     1
  1
\A1;2630
  7
STYLE1
 11
0.0000000000000001
 21
1.0
 31
0.0
 73
     1
 44
1.0
1001
ACAD
1000
MTEXTBEGIN
1070
    73
1070
     1
1070
    44
1040
1.0
1070
    74
1070
     0
1000
MTEXTEND
  0
POINT
  5
189B1
330
16E54
100
AcDbEntity
  8
DEFPOINTS
 62
     0
 48
50.0
100
AcDbPoint
 10
11205.87835898017
 20
9785.802392455874
 30
0.0
  0
POINT
  5
189B2
330
16E54
100
AcDbEntity
  8
DEFPOINTS
 62
     0
 48
50.0
100
AcDbPoint
 10
11205.87835898015
 20
7155.802392455864
 30
0.0
  0
POINT
  5
189B3
330
16E54
100
AcDbEntity
  8
DEFPOINTS
 62
     0
 48
50.0
100
AcDbPoint
 10
12163.14971642208
 20
7155.802392455864
 30
0.0
  0
ENDBLK
  5
16E5F
330
16E54
100
AcDbEntity
  8
0
 48
50.0
100
AcDbBlockEnd
  0
BLOCK
  5
16E6C
330
16E60
100
AcDbEntity
  8
0
 48
50.0
100
AcDbBlockBegin
  2
*D29
 70
     1
 10
0.0
 20
0.0
 30
0.0
  3
*D29
  1

  0
LINE
  5
183A0
330
16E60
100
AcDbEntity
  8
寸法
 62
     0
 48
50.0
370
    -2
100
AcDbLine
 10
9415.878358980139
 20
9805.802392455779
 30
0.0
 11
9415.878358980139
 21
10137.00755701974
 31
0.0
  0
LINE
  5
183A1
330
16E60
100
AcDbEntity
  8
寸法
 62
     0
 48
50.0
370
    -2
100
AcDbLine
 10
9470.878358980176
 20
9805.802392455779
 30
0.0
 11
9470.878358980176
 21
10137.00755701974
 31
0.0
  0
LINE
  5
183A2
330
16E60
100
AcDbEntity
  8
寸法
 62
     0
 48
50.0
370
    -2
100
AcDbLine
 10
9470.878358980176
 20
10077.00755701974
 30
0.0
 11
9570.878358980175
 21
10077.00755701974
 31
0.0
  0
LINE
  5
183A3
330
16E60
100
AcDbEntity
  8
寸法
 62
     0
 48
50.0
370
    -2
100
AcDbLine
 10
9415.878358980139
 20
10077.00755701974
 30
0.0
 11
8998.907796231662
 21
10077.00755701974
 31
0.0
  0
LINE
  5
183A4
330
16E60
100
AcDbEntity
  8
寸法
 62
     0
 48
50.0
370
    -2
100
AcDbLine
 10
9470.878358980176
 20
10077.00755701974
 30
0.0
 11
9415.878358980139
 21
10077.00755701974
 31
0.0
  0
INSERT
  5
183A5
330
16E60
100
AcDbEntity
  8
寸法
 62
     0
 48
50.0
370
    -2
100
AcDbBlockReference
  2
_DOTSMALL
 10
9470.878358980176
 20
10077.00755701974
 30
0.0
 41
100.0
 42
100.0
 43
100.0
 50
180.0
  0
INSERT
  5
183A6
330
16E60
100
AcDbEntity
  8
寸法
 62
     0
 48
50.0
370
    -2
100
AcDbBlockReference
  2
_DOTSMALL
 10
9415.878358980139
 20
10077.00755701974
 30
0.0
 41
100.0
 42
100.0
 43
100.0
  0
MTEXT
  5
183A7
330
16E60
100
AcDbEntity
  8
寸法
 62
     7
 48
50.0
100
AcDbMText
 10
9107.3930776059
 20
10177.00755701974
 30
0.0
 40
120.0
 41
0.0
 71
     5
 72
     1
  1
\A1;55
  7
STYLE1
 73
     1
 44
1.0
1001
ACAD
1000
MTEXTBEGIN
1070
    73
1070
     1
1070
    44
1040
1.0
1070
    74
1070
     0
1000
MTEXTEND
  0
POINT
  5
183A8
330
16E60
100
AcDbEntity
  8
DEFPOINTS
 62
     0
 48
50.0
100
AcDbPoint
 10
9415.878358980139
 20
9785.802392455778
 30
0.0
  0
POINT
  5
183A9
330
16E60
100
AcDbEntity
  8
DEFPOINTS
 62
     0
 48
50.0
100
AcDbPoint
 10
9470.878358980176
 20
9785.802392455778
 30
0.0
  0
POINT
  5
183AA
330
16E60
100
AcDbEntity
  8
DEFPOINTS
 62
     0
 48
50.0
100
AcDbPoint
 10
9470.878358980176
 20
10077.00755701974
 30
0.0
  0
ENDBLK
  5
16E6D
330
16E60
100
AcDbEntity
  8
0
 48
50.0
100
AcDbBlockEnd
  0
BLOCK
  5
17543
330
17539
100
AcDbEntity
  8
0
 48
50.0
100
AcDbBlockBegin
  2
*D30
 70
     1
 10
0.0
 20
0.0
 30
0.0
  3
*D30
  1

  0
LINE
  5
1775A
330
17539
100
AcDbEntity
  8
寸法
 62
     0
 48
50.0
370
    -2
100
AcDbLine
 10
7420.78132964292
 20
2274.242732743704
 30
0.0
 11
8088.708487615049
 21
2274.242732743704
 31
0.0
  0
LINE
  5
1775B
330
17539
100
AcDbEntity
  8
寸法
 62
     0
 48
50.0
370
    -2
100
AcDbLine
 10
7423.781329642918
 20
4294.242732743705
 30
0.0
 11
8088.708487615049
 21
4294.242732743705
 31
0.0
  0
LINE
  5
1775C
330
17539
100
AcDbEntity
  8
寸法
 62
     0
 48
50.0
370
    -2
100
AcDbLine
 10
8028.70848761505
 20
2274.242732743704
 30
0.0
 11
8028.70848761505
 21
4294.242732743705
 31
0.0
  0
INSERT
  5
1775D
330
17539
100
AcDbEntity
  8
寸法
 62
     0
 48
50.0
370
    -2
100
AcDbBlockReference
  2
_DOTSMALL
 10
8028.70848761505
 20
2274.242732743704
 30
0.0
 41
100.0
 42
100.0
 43
100.0
 50
270.0
  0
INSERT
  5
1775E
330
17539
100
AcDbEntity
  8
寸法
 62
     0
 48
50.0
370
    -2
100
AcDbBlockReference
  2
_DOTSMALL
 10
8028.70848761505
 20
4294.242732743705
 30
0.0
 41
100.0
 42
100.0
 43
100.0
 50
90.0
  0
MTEXT
  5
1775F
330
17539
100
AcDbEntity
  8
寸法
 62
     7
 48
50.0
100
AcDbMText
 10
7928.696676591427
 20
3284.242732743706
 30
0.0
 40
120.0
 41
0.0
 71
     5
 72
     1
  1
\A1;2020
  7
STYLE1
 11
0.0000000000000001
 21
1.0
 31
0.0
 73
     1
 44
1.0
1001
ACAD
1000
MTEXTBEGIN
1070
    73
1070
     1
1070
    44
1040
1.0
1070
    74
1070
     0
1000
MTEXTEND
  0
POINT
  5
17760
330
17539
100
AcDbEntity
  8
DEFPOINTS
 62
     0
 48
50.0
100
AcDbPoint
 10
7400.781329642922
 20
2274.242732743704
 30
0.0
  0
POINT
  5
17761
330
17539
100
AcDbEntity
  8
DEFPOINTS
 62
     0
 48
50.0
100
AcDbPoint
 10
7403.781329642917
 20
4294.242732743705
 30
0.0
  0
POINT
  5
17762
330
17539
100
AcDbEntity
  8
DEFPOINTS
 62
     0
 48
50.0
100
AcDbPoint
 10
8028.70848761505
 20
4294.242732743705
 30
0.0
  0
ENDBLK
  5
17544
330
17539
100
AcDbEntity
  8
0
 48
50.0
100
AcDbBlockEnd
  0
BLOCK
  5
1754F
330
17545
100
AcDbEntity
  8
0
 48
50.0
100
AcDbBlockBegin
  2
*D31
 70
     1
 10
0.0
 20
0.0
 30
0.0
  3
*D31
  1

  0
LINE
  5
17751
330
17545
100
AcDbEntity
  8
寸法
 62
     0
 48
50.0
370
    -2
100
AcDbLine
 10
7323.781329642918
 20
4316.053412355357
 30
0.0
 11
7323.781329642918
 21
4807.900186323009
 31
0.0
  0
LINE
  5
17752
330
17545
100
AcDbEntity
  8
寸法
 62
     0
 48
50.0
370
    -2
100
AcDbLine
 10
4693.781329642917
 20
4365.24435086668
 30
0.0
 11
4693.781329642917
 21
4807.900186323009
 31
0.0
  0
LINE
  5
17753
330
17545
100
AcDbEntity
  8
寸法
 62
     0
 48
50.0
370
    -2
100
AcDbLine
 10
7323.781329642918
 20
4747.900186323009
 30
0.0
 11
4693.781329642917
 21
4747.900186323009
 31
0.0
  0
INSERT
  5
17754
330
17545
100
AcDbEntity
  8
寸法
 62
     0
 48
50.0
370
    -2
100
AcDbBlockReference
  2
_DOTSMALL
 10
7323.781329642918
 20
4747.900186323009
 30
0.0
 41
100.0
 42
100.0
 43
100.0
  0
INSERT
  5
17755
330
17545
100
AcDbEntity
  8
寸法
 62
     0
 48
50.0
370
    -2
100
AcDbBlockReference
  2
_DOTSMALL
 10
4693.781329642917
 20
4747.900186323009
 30
0.0
 41
100.0
 42
100.0
 43
100.0
 50
180.0
  0
MTEXT
  5
17756
330
17545
100
AcDbEntity
  8
寸法
 62
     7
 48
50.0
100
AcDbMText
 10
6048.551520672112
 20
4847.91199734663
 30
0.0
 40
120.0
 41
0.0
 71
     5
 72
     1
  1
\A1;柱外寸法2630
  7
STYLE1
 73
     1
 44
1.0
1001
ACAD
1000
MTEXTBEGIN
1070
    73
1070
     1
1070
    44
1040
1.0
1070
    74
1070
     0
1000
MTEXTEND
  0
POINT
  5
17757
330
17545
100
AcDbEntity
  8
DEFPOINTS
 62
     0
 48
50.0
100
AcDbPoint
 10
7323.781329642918
 20
4296.053412355358
 30
0.0
  0
POINT
  5
17758
330
17545
100
AcDbEntity
  8
DEFPOINTS
 62
     0
 48
50.0
100
AcDbPoint
 10
4693.781329642917
 20
4345.24435086668
 30
0.0
  0
POINT
  5
17759
330
17545
100
AcDbEntity
  8
DEFPOINTS
 62
     0
 48
50.0
100
AcDbPoint
 10
4693.781329642917
 20
4747.900186323009
 30
0.0
  0
ENDBLK
  5
17550
330
17545
100
AcDbEntity
  8
0
 48
50.0
100
AcDbBlockEnd
  0
BLOCK
  5
1755D
330
17551
100
AcDbEntity
  8
0
 48
50.0
100
AcDbBlockBegin
  2
*D32
 70
     1
 10
0.0
 20
0.0
 30
0.0
  3
*D32
  1

  0
LINE
  5
17746
330
17551
100
AcDbEntity
  8
寸法
 62
     0
 48
50.0
370
    -2
100
AcDbLine
 10
4693.781329642917
 20
4365.24435086668
 30
0.0
 11
4693.781329642917
 21
4807.900186323007
 31
0.0
  0
LINE
  5
17747
330
17551
100
AcDbEntity
  8
寸法
 62
     0
 48
50.0
370
    -2
100
AcDbLine
 10
4633.781329642917
 20
4369.242732743708
 30
0.0
 11
4633.781329642917
 21
4807.900186323007
 31
0.0
  0
LINE
  5
17748
330
17551
100
AcDbEntity
  8
寸法
 62
     0
 48
50.0
370
    -2
100
AcDbLine
 10
4693.781329642917
 20
4747.900186323008
 30
0.0
 11
4793.781329642917
 21
4747.900186323008
 31
0.0
  0
LINE
  5
17749
330
17551
100
AcDbEntity
  8
寸法
 62
     0
 48
50.0
370
    -2
100
AcDbLine
 10
4633.781329642917
 20
4747.900186323008
 30
0.0
 11
4214.505739091737
 21
4747.900186323008
 31
0.0
  0
LINE
  5
1774A
330
17551
100
AcDbEntity
  8
寸法
 62
     0
 48
50.0
370
    -2
100
AcDbLine
 10
4693.781329642917
 20
4747.900186323008
 30
0.0
 11
4633.781329642917
 21
4747.900186323008
 31
0.0
  0
INSERT
  5
1774B
330
17551
100
AcDbEntity
  8
寸法
 62
     0
 48
50.0
370
    -2
100
AcDbBlockReference
  2
_DOTSMALL
 10
4693.781329642917
 20
4747.900186323008
 30
0.0
 41
100.0
 42
100.0
 43
100.0
 50
180.0
  0
INSERT
  5
1774C
330
17551
100
AcDbEntity
  8
寸法
 62
     0
 48
50.0
370
    -2
100
AcDbBlockReference
  2
_DOTSMALL
 10
4633.781329642917
 20
4747.900186323008
 30
0.0
 41
100.0
 42
100.0
 43
100.0
  0
MTEXT
  5
1774D
330
17551
100
AcDbEntity
  8
寸法
 62
     7
 48
50.0
100
AcDbMText
 10
4324.143534367327
 20
4847.900186323008
 30
0.0
 40
120.0
 41
0.0
 71
     5
 72
     1
  1
\A1;60
  7
STYLE1
 73
     1
 44
1.0
1001
ACAD
1000
MTEXTBEGIN
1070
    73
1070
     1
1070
    44
1040
1.0
1070
    74
1070
     0
1000
MTEXTEND
  0
POINT
  5
1774E
330
17551
100
AcDbEntity
  8
DEFPOINTS
 62
     0
 48
50.0
100
AcDbPoint
 10
4693.781329642917
 20
4345.24435086668
 30
0.0
  0
POINT
  5
1774F
330
17551
100
AcDbEntity
  8
DEFPOINTS
 62
     0
 48
50.0
100
AcDbPoint
 10
4633.781329642917
 20
4349.242732743708
 30
0.0
  0
POINT
  5
17750
330
17551
100
AcDbEntity
  8
DEFPOINTS
 62
     0
 48
50.0
100
AcDbPoint
 10
4633.781329642917
 20
4747.900186323008
 30
0.0
  0
ENDBLK
  5
1755E
330
17551
100
AcDbEntity
  8
0
 48
50.0
100
AcDbBlockEnd
  0
BLOCK
  5
17569
330
1755F
100
AcDbEntity
  8
0
 48
50.0
100
AcDbBlockBegin
  2
*D33
 70
     1
 10
0.0
 20
0.0
 30
0.0
  3
*D33
  1

  0
LINE
  5
1773D
330
1755F
100
AcDbEntity
  8
寸法
 62
     0
 48
50.0
370
    -2
100
AcDbLine
 10
7403.781329642917
 20
4314.242732743705
 30
0.0
 11
7403.781329642917
 21
5028.110873054625
 31
0.0
  0
LINE
  5
1773E
330
1755F
100
AcDbEntity
  8
寸法
 62
     0
 48
50.0
370
    -2
100
AcDbLine
 10
4633.781329642917
 20
4369.242732743708
 30
0.0
 11
4633.781329642917
 21
5028.110873054625
 31
0.0
  0
LINE
  5
1773F
330
1755F
100
AcDbEntity
  8
寸法
 62
     0
 48
50.0
370
    -2
100
AcDbLine
 10
7403.781329642917
 20
4968.110873054626
 30
0.0
 11
4633.781329642917
 21
4968.110873054626
 31
0.0
  0
INSERT
  5
17740
330
1755F
100
AcDbEntity
  8
寸法
 62
     0
 48
50.0
370
    -2
100
AcDbBlockReference
  2
_DOTSMALL
 10
7403.781329642917
 20
4968.110873054626
 30
0.0
 41
100.0
 42
100.0
 43
100.0
  0
INSERT
  5
17741
330
1755F
100
AcDbEntity
  8
寸法
 62
     0
 48
50.0
370
    -2
100
AcDbBlockReference
  2
_DOTSMALL
 10
4633.781329642917
 20
4968.110873054626
 30
0.0
 41
100.0
 42
100.0
 43
100.0
 50
180.0
  0
MTEXT
  5
17742
330
1755F
100
AcDbEntity
  8
寸法
 62
     7
 48
50.0
100
AcDbMText
 10
6037.140254530293
 20
5068.122684078247
 30
0.0
 40
120.0
 41
0.0
 71
     5
 72
     1
  1
\A1;2770
  7
STYLE1
 73
     1
 44
1.0
1001
ACAD
1000
MTEXTBEGIN
1070
    73
1070
     1
1070
    44
1040
1.0
1070
    74
1070
     0
1000
MTEXTEND
  0
POINT
  5
17743
330
1755F
100
AcDbEntity
  8
DEFPOINTS
 62
     0
 48
50.0
100
AcDbPoint
 10
7403.781329642917
 20
4294.242732743705
 30
0.0
  0
POINT
  5
17744
330
1755F
100
AcDbEntity
  8
DEFPOINTS
 62
     0
 48
50.0
100
AcDbPoint
 10
4633.781329642917
 20
4349.242732743708
 30
0.0
  0
POINT
  5
17745
330
1755F
100
AcDbEntity
  8
DEFPOINTS
 62
     0
 48
50.0
100
AcDbPoint
 10
4633.781329642917
 20
4968.110873054626
 30
0.0
  0
ENDBLK
  5
1756A
330
1755F
100
AcDbEntity
  8
0
 48
50.0
100
AcDbBlockEnd
  0
BLOCK
  5
17576
330
1756B
100
AcDbEntity
  8
0
 48
50.0
100
AcDbBlockBegin
  2
*D34
 70
     1
 10
0.0
 20
0.0
 30
0.0
  3
*D34
  1

  0
LINE
  5
17733
330
1756B
100
AcDbEntity
  8
寸法
 62
     0
 48
50.0
370
    -2
100
AcDbLine
 10
7323.781329642918
 20
4316.053412355357
 30
0.0
 11
7323.781329642918
 21
4807.900186323009
 31
0.0
  0
LINE
  5
17734
330
1756B
100
AcDbEntity
  8
寸法
 62
     0
 48
50.0
370
    -2
100
AcDbLine
 10
7403.781329642917
 20
4314.242732743705
 30
0.0
 11
7403.781329642917
 21
4807.900186323009
 31
0.0
  0
LINE
  5
17735
330
1756B
100
AcDbEntity
  8
寸法
 62
     0
 48
50.0
370
    -2
100
AcDbLine
 10
7323.781329642918
 20
4747.900186323009
 30
0.0
 11
7403.781329642917
 21
4747.900186323009
 31
0.0
  0
LINE
  5
17736
330
1756B
100
AcDbEntity
  8
寸法
 62
     0
 48
50.0
370
    -2
100
AcDbLine
 10
7403.781329642917
 20
4747.900186323009
 30
0.0
 11
7715.875817831896
 21
4747.900186323009
 31
0.0
  0
INSERT
  5
17737
330
1756B
100
AcDbEntity
  8
寸法
 62
     0
 48
50.0
370
    -2
100
AcDbBlockReference
  2
_DOTSMALL
 10
7323.781329642918
 20
4747.900186323009
 30
0.0
 41
100.0
 42
100.0
 43
100.0
 50
180.0
  0
INSERT
  5
17738
330
1756B
100
AcDbEntity
  8
寸法
 62
     0
 48
50.0
370
    -2
100
AcDbBlockReference
  2
_DOTSMALL
 10
7403.781329642917
 20
4747.900186323009
 30
0.0
 41
100.0
 42
100.0
 43
100.0
  0
MTEXT
  5
17739
330
1756B
100
AcDbEntity
  8
寸法
 62
     7
 48
50.0
100
AcDbMText
 10
7609.828573737408
 20
4847.900186323009
 30
0.0
 40
120.0
 41
0.0
 71
     5
 72
     1
  1
\A1;80
  7
STYLE1
 73
     1
 44
1.0
1001
ACAD
1000
MTEXTBEGIN
1070
    73
1070
     1
1070
    44
1040
1.0
1070
    74
1070
     0
1000
MTEXTEND
  0
POINT
  5
1773A
330
1756B
100
AcDbEntity
  8
DEFPOINTS
 62
     0
 48
50.0
100
AcDbPoint
 10
7323.781329642918
 20
4296.053412355358
 30
0.0
  0
POINT
  5
1773B
330
1756B
100
AcDbEntity
  8
DEFPOINTS
 62
     0
 48
50.0
100
AcDbPoint
 10
7403.781329642917
 20
4294.242732743705
 30
0.0
  0
POINT
  5
1773C
330
1756B
100
AcDbEntity
  8
DEFPOINTS
 62
     0
 48
50.0
100
AcDbPoint
 10
7403.781329642917
 20
4747.900186323009
 30
0.0
  0
ENDBLK
  5
17577
330
1756B
100
AcDbEntity
  8
0
 48
50.0
100
AcDbBlockEnd
  0
BLOCK
  5
17582
330
17578
100
AcDbEntity
  8
0
 48
50.0
100
AcDbBlockBegin
  2
*D35
 70
     1
 10
0.0
 20
0.0
 30
0.0
  3
*D35
  1

  0
LINE
  5
1772A
330
17578
100
AcDbEntity
  8
寸法
 62
     0
 48
50.0
370
    -2
100
AcDbLine
 10
4821.281329642918
 20
1954.2427327437
 30
0.0
 11
4821.281329642918
 21
1628.195403443324
 31
0.0
  0
LINE
  5
1772B
330
17578
100
AcDbEntity
  8
寸法
 62
     0
 48
50.0
370
    -2
100
AcDbLine
 10
4621.281329642921
 20
1954.242732743702
 30
0.0
 11
4621.281329642921
 21
1628.195403443324
 31
0.0
  0
LINE
  5
1772C
330
17578
100
AcDbEntity
  8
寸法
 62
     0
 48
50.0
370
    -2
100
AcDbLine
 10
4821.281329642918
 20
1688.195403443324
 30
0.0
 11
4621.281329642921
 21
1688.195403443324
 31
0.0
  0
INSERT
  5
1772D
330
17578
100
AcDbEntity
  8
寸法
 62
     0
 48
50.0
370
    -2
100
AcDbBlockReference
  2
_DOTSMALL
 10
4821.281329642918
 20
1688.195403443324
 30
0.0
 41
100.0
 42
100.0
 43
100.0
  0
INSERT
  5
1772E
330
17578
100
AcDbEntity
  8
寸法
 62
     0
 48
50.0
370
    -2
100
AcDbBlockReference
  2
_DOTSMALL
 10
4621.281329642921
 20
1688.195403443324
 30
0.0
 41
100.0
 42
100.0
 43
100.0
 50
180.0
  0
MTEXT
  5
1772F
330
17578
100
AcDbEntity
  8
寸法
 62
     7
 48
50.0
100
AcDbMText
 10
4721.281329642919
 20
1788.207214466946
 30
0.0
 40
120.0
 41
0.0
 71
     5
 72
     1
  1
\A1;200
  7
STYLE1
 73
     1
 44
1.0
1001
ACAD
1000
MTEXTBEGIN
1070
    73
1070
     1
1070
    44
1040
1.0
1070
    74
1070
     0
1000
MTEXTEND
  0
POINT
  5
17730
330
17578
100
AcDbEntity
  8
DEFPOINTS
 62
     0
 48
50.0
100
AcDbPoint
 10
4821.281329642918
 20
1974.2427327437
 30
0.0
  0
POINT
  5
17731
330
17578
100
AcDbEntity
  8
DEFPOINTS
 62
     0
 48
50.0
100
AcDbPoint
 10
4621.281329642921
 20
1974.242732743702
 30
0.0
  0
POINT
  5
17732
330
17578
100
AcDbEntity
  8
DEFPOINTS
 62
     0
 48
50.0
100
AcDbPoint
 10
4621.281329642921
 20
1688.195403443324
 30
0.0
  0
ENDBLK
  5
17583
330
17578
100
AcDbEntity
  8
0
 48
50.0
100
AcDbBlockEnd
  0
BLOCK
  5
1758E
330
17584
100
AcDbEntity
  8
0
 48
50.0
100
AcDbBlockBegin
  2
*D36
 70
     1
 10
0.0
 20
0.0
 30
0.0
  3
*D36
  1

  0
LINE
  5
17721
330
17584
100
AcDbEntity
  8
寸法
 62
     0
 48
50.0
370
    -2
100
AcDbLine
 10
4601.281329642922
 20
1974.242732743702
 30
0.0
 11
4411.781326396283
 21
1974.242732743702
 31
0.0
  0
LINE
  5
17722
330
17584
100
AcDbEntity
  8
寸法
 62
     0
 48
50.0
370
    -2
100
AcDbLine
 10
4576.281329642918
 20
2174.242732743702
 30
0.0
 11
4411.781326396284
 21
2174.242732743702
 31
0.0
  0
LINE
  5
17723
330
17584
100
AcDbEntity
  8
寸法
 62
     0
 48
50.0
370
    -2
100
AcDbLine
 10
4471.781326396284
 20
1974.242732743702
 30
0.0
 11
4471.781326396285
 21
2174.242732743702
 31
0.0
  0
INSERT
  5
17724
330
17584
100
AcDbEntity
  8
寸法
 62
     0
 48
50.0
370
    -2
100
AcDbBlockReference
  2
_DOTSMALL
 10
4471.781326396284
 20
1974.242732743702
 30
0.0
 41
100.0
 42
100.0
 43
100.0
 50
270.0
  0
INSERT
  5
17725
330
17584
100
AcDbEntity
  8
寸法
 62
     0
 48
50.0
370
    -2
100
AcDbBlockReference
  2
_DOTSMALL
 10
4471.781326396285
 20
2174.242732743702
 30
0.0
 41
100.0
 42
100.0
 43
100.0
 50
90.0
  0
MTEXT
  5
17726
330
17584
100
AcDbEntity
  8
寸法
 62
     7
 48
50.0
100
AcDbMText
 10
4371.769515372661
 20
2074.242732743702
 30
0.0
 40
120.0
 41
0.0
 71
     5
 72
     1
  1
\A1;200
  7
STYLE1
 11
0.0000000000000001
 21
1.0
 31
0.0
 73
     1
 44
1.0
1001
ACAD
1000
MTEXTBEGIN
1070
    73
1070
     1
1070
    44
1040
1.0
1070
    74
1070
     0
1000
MTEXTEND
  0
POINT
  5
17727
330
17584
100
AcDbEntity
  8
DEFPOINTS
 62
     0
 48
50.0
100
AcDbPoint
 10
4621.281329642921
 20
1974.242732743702
 30
0.0
  0
POINT
  5
17728
330
17584
100
AcDbEntity
  8
DEFPOINTS
 62
     0
 48
50.0
100
AcDbPoint
 10
4596.281329642917
 20
2174.242732743702
 30
0.0
  0
POINT
  5
17729
330
17584
100
AcDbEntity
  8
DEFPOINTS
 62
     0
 48
50.0
100
AcDbPoint
 10
4471.781326396285
 20
2174.242732743702
 30
0.0
  0
ENDBLK
  5
1758F
330
17584
100
AcDbEntity
  8
0
 48
50.0
100
AcDbBlockEnd
  0
BLOCK
  5
1759B
330
17590
100
AcDbEntity
  8
0
 48
50.0
100
AcDbBlockBegin
  2
*D37
 70
     1
 10
0.0
 20
0.0
 30
0.0
  3
*D37
  1

  0
LINE
  5
17717
330
17590
100
AcDbEntity
  8
寸法
 62
     0
 48
50.0
370
    -2
100
AcDbLine
 10
4633.18561593402
 20
4348.540439813365
 30
0.0
 11
4017.251176828756
 21
4366.254590087693
 31
0.0
  0
LINE
  5
17718
330
17590
100
AcDbEntity
  8
寸法
 62
     0
 48
50.0
370
    -2
100
AcDbLine
 10
4629.132160377394
 20
4207.598716047652
 30
0.0
 11
4013.19772127213
 21
4225.31286632198
 31
0.0
  0
LINE
  5
17719
330
17590
100
AcDbEntity
  8
寸法
 62
     0
 48
50.0
370
    -2
100
AcDbLine
 10
4073.172922874561
 20
4223.587991617034
 30
0.0
 11
4077.226378431188
 21
4364.529715382746
 31
0.0
  0
LINE
  5
1771A
330
17590
100
AcDbEntity
  8
寸法
 62
     0
 48
50.0
370
    -2
100
AcDbLine
 10
4077.226378431188
 20
4364.529715382746
 30
0.0
 11
4087.575626660872
 21
4724.380924997332
 31
0.0
  0
INSERT
  5
1771B
330
17590
100
AcDbEntity
  8
寸法
 62
     0
 48
50.0
370
    -2
100
AcDbBlockReference
  2
_DOTSMALL
 10
4073.172922874561
 20
4223.587991617034
 30
0.0
 41
100.0
 42
100.0
 43
100.0
 50
268.3526390256378
  0
INSERT
  5
1771C
330
17590
100
AcDbEntity
  8
寸法
 62
     0
 48
50.0
370
    -2
100
AcDbBlockReference
  2
_DOTSMALL
 10
4077.226378431188
 20
4364.529715382746
 30
0.0
 41
100.0
 42
100.0
 43
100.0
 50
88.35263902563776
  0
MTEXT
  5
1771D
330
17590
100
AcDbEntity
  8
寸法
 62
     7
 48
50.0
100
AcDbMText
 10
3983.879728796102
 20
4597.309446033643
 30
0.0
 40
120.0
 41
0.0
 71
     5
 72
     1
  1
\A1;141
  7
STYLE1
 11
0.0287479117491237
 21
0.9995866933738488
 31
0.0
 73
     1
 44
1.0
1001
ACAD
1000
MTEXTBEGIN
1070
    73
1070
     1
1070
    44
1040
1.0
1070
    74
1070
     0
1000
MTEXTEND
  0
POINT
  5
1771E
330
17590
100
AcDbEntity
  8
DEFPOINTS
 62
     0
 48
50.0
100
AcDbPoint
 10
4653.177349801496
 20
4347.965481578381
 30
0.0
  0
POINT
  5
1771F
330
17590
100
AcDbEntity
  8
DEFPOINTS
 62
     0
 48
50.0
100
AcDbPoint
 10
4649.123894244871
 20
4207.023757812669
 30
0.0
  0
POINT
  5
17720
330
17590
100
AcDbEntity
  8
DEFPOINTS
 62
     0
 48
50.0
100
AcDbPoint
 10
4073.172922874561
 20
4223.587991617034
 30
0.0
  0
ENDBLK
  5
1759C
330
17590
100
AcDbEntity
  8
0
 48
50.0
100
AcDbBlockEnd
  0
BLOCK
  5
175A9
330
1759D
100
AcDbEntity
  8
0
 48
50.0
100
AcDbBlockBegin
  2
*D38
 70
     1
 10
0.0
 20
0.0
 30
0.0
  3
*D38
  1

  0
LINE
  5
1770C
330
1759D
100
AcDbEntity
  8
寸法
 62
     0
 48
50.0
370
    -2
100
AcDbLine
 10
4673.781329642917
 20
2324.242732743703
 30
0.0
 11
4010.12862048462
 21
2324.242732743703
 31
0.0
  0
LINE
  5
1770D
330
1759D
100
AcDbEntity
  8
寸法
 62
     0
 48
50.0
370
    -2
100
AcDbLine
 10
4618.781329642917
 20
2274.242732743703
 30
0.0
 11
4010.12862048462
 21
2274.242732743703
 31
0.0
  0
LINE
  5
1770E
330
1759D
100
AcDbEntity
  8
寸法
 62
     0
 48
50.0
370
    -2
100
AcDbLine
 10
4070.12862048462
 20
2324.242732743703
 30
0.0
 11
4070.12862048462
 21
2424.242732743703
 31
0.0
  0
LINE
  5
1770F
330
1759D
100
AcDbEntity
  8
寸法
 62
     0
 48
50.0
370
    -2
100
AcDbLine
 10
4070.12862048462
 20
2274.242732743703
 30
0.0
 11
4070.12862048462
 21
1862.148244554722
 31
0.0
  0
LINE
  5
17710
330
1759D
100
AcDbEntity
  8
寸法
 62
     0
 48
50.0
370
    -2
100
AcDbLine
 10
4070.12862048462
 20
2324.242732743703
 30
0.0
 11
4070.12862048462
 21
2274.242732743703
 31
0.0
  0
INSERT
  5
17711
330
1759D
100
AcDbEntity
  8
寸法
 62
     0
 48
50.0
370
    -2
100
AcDbBlockReference
  2
_DOTSMALL
 10
4070.12862048462
 20
2324.242732743703
 30
0.0
 41
100.0
 42
100.0
 43
100.0
 50
270.0
  0
INSERT
  5
17712
330
1759D
100
AcDbEntity
  8
寸法
 62
     0
 48
50.0
370
    -2
100
AcDbBlockReference
  2
_DOTSMALL
 10
4070.12862048462
 20
2274.242732743703
 30
0.0
 41
100.0
 42
100.0
 43
100.0
 50
90.0
  0
MTEXT
  5
17713
330
1759D
100
AcDbEntity
  8
寸法
 62
     7
 48
50.0
100
AcDbMText
 10
3970.128620484621
 20
1968.19548864921
 30
0.0
 40
120.0
 41
0.0
 71
     5
 72
     1
  1
\A1;50
  7
STYLE1
 11
0.0000000000000001
 21
1.0
 31
0.0
 73
     1
 44
1.0
1001
ACAD
1000
MTEXTBEGIN
1070
    73
1070
     1
1070
    44
1040
1.0
1070
    74
1070
     0
1000
MTEXTEND
  0
POINT
  5
17714
330
1759D
100
AcDbEntity
  8
DEFPOINTS
 62
     0
 48
50.0
100
AcDbPoint
 10
4693.781329642917
 20
2324.242732743703
 30
0.0
  0
POINT
  5
17715
330
1759D
100
AcDbEntity
  8
DEFPOINTS
 62
     0
 48
50.0
100
AcDbPoint
 10
4638.781329642918
 20
2274.242732743703
 30
0.0
  0
POINT
  5
17716
330
1759D
100
AcDbEntity
  8
DEFPOINTS
 62
     0
 48
50.0
100
AcDbPoint
 10
4070.12862048462
 20
2274.242732743703
 30
0.0
  0
ENDBLK
  5
175AA
330
1759D
100
AcDbEntity
  8
0
 48
50.0
100
AcDbBlockEnd
  0
BLOCK
  5
175B6
330
175AB
100
AcDbEntity
  8
0
 48
50.0
100
AcDbBlockBegin
  2
*D39
 70
     1
 10
0.0
 20
0.0
 30
0.0
  3
*D39
  1

  0
LINE
  5
17702
330
175AB
100
AcDbEntity
  8
寸法
 62
     0
 48
50.0
370
    -2
100
AcDbLine
 10
4618.781329642917
 20
2274.242732743703
 30
0.0
 11
3725.141947713559
 21
2274.242732743703
 31
0.0
  0
LINE
  5
17703
330
175AB
100
AcDbEntity
  8
寸法
 62
     0
 48
50.0
370
    -2
100
AcDbLine
 10
4050.12862048462
 20
2174.242732743703
 30
0.0
 11
3725.141947713559
 21
2174.242732743703
 31
0.0
  0
LINE
  5
17704
330
175AB
100
AcDbEntity
  8
寸法
 62
     0
 48
50.0
370
    -2
100
AcDbLine
 10
3785.141947713559
 20
2274.242732743703
 30
0.0
 11
3785.141947713559
 21
2174.242732743703
 31
0.0
  0
LINE
  5
17705
330
175AB
100
AcDbEntity
  8
寸法
 62
     0
 48
50.0
370
    -2
100
AcDbLine
 10
3785.141947713559
 20
2174.242732743703
 30
0.0
 11
3785.141947713559
 21
1802.148244554722
 31
0.0
  0
INSERT
  5
17706
330
175AB
100
AcDbEntity
  8
寸法
 62
     0
 48
50.0
370
    -2
100
AcDbBlockReference
  2
_DOTSMALL
 10
3785.141947713559
 20
2274.242732743703
 30
0.0
 41
100.0
 42
100.0
 43
100.0
 50
90.0
  0
INSERT
  5
17707
330
175AB
100
AcDbEntity
  8
寸法
 62
     0
 48
50.0
370
    -2
100
AcDbBlockReference
  2
_DOTSMALL
 10
3785.141947713559
 20
2174.242732743703
 30
0.0
 41
100.0
 42
100.0
 43
100.0
 50
270.0
  0
MTEXT
  5
17708
330
175AB
100
AcDbEntity
  8
寸法
 62
     7
 48
50.0
100
AcDbMText
 10
3685.141947713559
 20
1938.19548864921
 30
0.0
 40
120.0
 41
0.0
 71
     5
 72
     1
  1
\A1;100
  7
STYLE1
 11
0.0000000000000001
 21
1.0
 31
0.0
 73
     1
 44
1.0
1001
ACAD
1000
MTEXTBEGIN
1070
    73
1070
     1
1070
    44
1040
1.0
1070
    74
1070
     0
1000
MTEXTEND
  0
POINT
  5
17709
330
175AB
100
AcDbEntity
  8
DEFPOINTS
 62
     0
 48
50.0
100
AcDbPoint
 10
4638.781329642918
 20
2274.242732743703
 30
0.0
  0
POINT
  5
1770A
330
175AB
100
AcDbEntity
  8
DEFPOINTS
 62
     0
 48
50.0
100
AcDbPoint
 10
4070.12862048462
 20
2174.242732743703
 30
0.0
  0
POINT
  5
1770B
330
175AB
100
AcDbEntity
  8
DEFPOINTS
 62
     0
 48
50.0
100
AcDbPoint
 10
3785.141947713559
 20
2174.242732743703
 30
0.0
  0
ENDBLK
  5
175B7
330
175AB
100
AcDbEntity
  8
0
 48
50.0
100
AcDbBlockEnd
  0
BLOCK
  5
175C2
330
175B8
100
AcDbEntity
  8
0
 48
50.0
100
AcDbBlockBegin
  2
*D40
 70
     1
 10
0.0
 20
0.0
 30
0.0
  3
*D40
  1

  0
LINE
  5
176F9
330
175B8
100
AcDbEntity
  8
寸法
 62
     0
 48
50.0
370
    -2
100
AcDbLine
 10
4673.781329642917
 20
2274.242732743703
 30
0.0
 11
3725.141947713559
 21
2274.242732743703
 31
0.0
  0
LINE
  5
176FA
330
175B8
100
AcDbEntity
  8
寸法
 62
     0
 48
50.0
370
    -2
100
AcDbLine
 10
4613.781329642917
 20
4349.242732743706
 30
0.0
 11
3725.14194771356
 21
4349.242732743706
 31
0.0
  0
LINE
  5
176FB
330
175B8
100
AcDbEntity
  8
寸法
 62
     0
 48
50.0
370
    -2
100
AcDbLine
 10
3785.141947713559
 20
2274.242732743703
 30
0.0
 11
3785.14194771356
 21
4349.242732743706
 31
0.0
  0
INSERT
  5
176FC
330
175B8
100
AcDbEntity
  8
寸法
 62
     0
 48
50.0
370
    -2
100
AcDbBlockReference
  2
_DOTSMALL
 10
3785.141947713559
 20
2274.242732743703
 30
0.0
 41
100.0
 42
100.0
 43
100.0
 50
270.0
  0
INSERT
  5
176FD
330
175B8
100
AcDbEntity
  8
寸法
 62
     0
 48
50.0
370
    -2
100
AcDbBlockReference
  2
_DOTSMALL
 10
3785.14194771356
 20
4349.242732743706
 30
0.0
 41
100.0
 42
100.0
 43
100.0
 50
90.0
  0
MTEXT
  5
176FE
330
175B8
100
AcDbEntity
  8
寸法
 62
     7
 48
50.0
100
AcDbMText
 10
3685.130136689937
 20
3268.448610236813
 30
0.0
 40
120.0
 41
0.0
 71
     5
 72
     1
  1
\A1;2075
  7
STYLE1
 11
0.0000000000000001
 21
1.0
 31
0.0
 73
     1
 44
1.0
1001
ACAD
1000
MTEXTBEGIN
1070
    73
1070
     1
1070
    44
1040
1.0
1070
    74
1070
     0
1000
MTEXTEND
  0
POINT
  5
176FF
330
175B8
100
AcDbEntity
  8
DEFPOINTS
 62
     0
 48
50.0
100
AcDbPoint
 10
4693.781329642917
 20
2274.242732743703
 30
0.0
  0
POINT
  5
17700
330
175B8
100
AcDbEntity
  8
DEFPOINTS
 62
     0
 48
50.0
100
AcDbPoint
 10
4633.781329642917
 20
4349.242732743706
 30
0.0
  0
POINT
  5
17701
330
175B8
100
AcDbEntity
  8
DEFPOINTS
 62
     0
 48
50.0
100
AcDbPoint
 10
3785.14194771356
 20
4349.242732743706
 30
0.0
  0
ENDBLK
  5
175C3
330
175B8
100
AcDbEntity
  8
0
 48
50.0
100
AcDbBlockEnd
  0
BLOCK
  5
175CE
330
175C4
100
AcDbEntity
  8
0
 48
50.0
100
AcDbBlockBegin
  2
*D41
 70
     1
 10
0.0
 20
0.0
 30
0.0
  3
*D41
  1

  0
LINE
  5
176F0
330
175C4
100
AcDbEntity
  8
寸法
 62
     0
 48
50.0
370
    -2
100
AcDbLine
 10
4673.781329642917
 20
4114.242732743703
 30
0.0
 11
4010.12862048462
 21
4114.242732743703
 31
0.0
  0
LINE
  5
176F1
330
175C4
100
AcDbEntity
  8
寸法
 62
     0
 48
50.0
370
    -2
100
AcDbLine
 10
4673.781329642917
 20
2324.242732743703
 30
0.0
 11
4010.12862048462
 21
2324.242732743703
 31
0.0
  0
LINE
  5
176F2
330
175C4
100
AcDbEntity
  8
寸法
 62
     0
 48
50.0
370
    -2
100
AcDbLine
 10
4070.128620484621
 20
4114.242732743703
 30
0.0
 11
4070.12862048462
 21
2324.242732743703
 31
0.0
  0
INSERT
  5
176F3
330
175C4
100
AcDbEntity
  8
寸法
 62
     0
 48
50.0
370
    -2
100
AcDbBlockReference
  2
_DOTSMALL
 10
4070.128620484621
 20
4114.242732743703
 30
0.0
 41
100.0
 42
100.0
 43
100.0
 50
90.0
  0
INSERT
  5
176F4
330
175C4
100
AcDbEntity
  8
寸法
 62
     0
 48
50.0
370
    -2
100
AcDbBlockReference
  2
_DOTSMALL
 10
4070.12862048462
 20
2324.242732743703
 30
0.0
 41
100.0
 42
100.0
 43
100.0
 50
270.0
  0
MTEXT
  5
176F5
330
175C4
100
AcDbEntity
  8
寸法
 62
     7
 48
50.0
100
AcDbMText
 10
3970.128620484621
 20
3214.69703128566
 30
0.0
 40
120.0
 41
0.0
 71
     5
 72
     1
  1
\A1;1790
  7
STYLE1
 11
0.0000000000000001
 21
1.0
 31
0.0
 73
     1
 44
1.0
1001
ACAD
1000
MTEXTBEGIN
1070
    73
1070
     1
1070
    44
1040
1.0
1070
    74
1070
     0
1000
MTEXTEND
  0
POINT
  5
176F6
330
175C4
100
AcDbEntity
  8
DEFPOINTS
 62
     0
 48
50.0
100
AcDbPoint
 10
4693.781329642917
 20
4114.242732743703
 30
0.0
  0
POINT
  5
176F7
330
175C4
100
AcDbEntity
  8
DEFPOINTS
 62
     0
 48
50.0
100
AcDbPoint
 10
4693.781329642917
 20
2324.242732743703
 30
0.0
  0
POINT
  5
176F8
330
175C4
100
AcDbEntity
  8
DEFPOINTS
 62
     0
 48
50.0
100
AcDbPoint
 10
4070.12862048462
 20
2324.242732743703
 30
0.0
  0
ENDBLK
  5
175CF
330
175C4
100
AcDbEntity
  8
0
 48
50.0
100
AcDbBlockEnd
  0
BLOCK
  5
17AB0
330
17AA6
100
AcDbEntity
  8
0
 48
50.0
100
AcDbBlockBegin
  2
*D42
 70
     1
 10
0.0
 20
0.0
 30
0.0
  3
*D42
  1

  0
LINE
  5
17BB6
330
17AA6
100
AcDbEntity
  8
寸法
 62
     0
 48
50.0
370
    -2
100
AcDbLine
 10
11181.23734282884
 20
7164.302392455841
 30
0.0
 11
11287.16836469083
 21
6768.96243676919
 31
0.0
  0
LINE
  5
17BB7
330
17AA6
100
AcDbEntity
  8
寸法
 62
     0
 48
50.0
370
    -2
100
AcDbLine
 10
10731.23734282884
 20
7164.302392455841
 30
0.0
 11
10837.16836469084
 21
6768.96243676919
 31
0.0
  0
LINE
  5
17BB8
330
17AA6
100
AcDbEntity
  8
寸法
 62
     0
 48
50.0
370
    -2
100
AcDbLine
 10
11271.09141314497
 20
6828.96243676919
 30
0.0
 11
10821.09141314497
 21
6828.96243676919
 31
0.0
  0
INSERT
  5
17BB9
330
17AA6
100
AcDbEntity
  8
寸法
 62
     0
 48
50.0
370
    -2
100
AcDbBlockReference
  2
_DOTSMALL
 10
11271.09141314497
 20
6828.96243676919
 30
0.0
 41
100.0
 42
100.0
 43
100.0
  0
INSERT
  5
17BBA
330
17AA6
100
AcDbEntity
  8
寸法
 62
     0
 48
50.0
370
    -2
100
AcDbBlockReference
  2
_DOTSMALL
 10
10821.09141314497
 20
6828.96243676919
 30
0.0
 41
100.0
 42
100.0
 43
100.0
 50
180.0
  0
MTEXT
  5
17BBB
330
17AA6
100
AcDbEntity
  8
寸法
 62
     7
 48
50.0
100
AcDbMText
 10
11021.09501391174
 20
6928.962436769189
 30
0.0
 40
120.0
 41
0.0
 71
     5
 72
     1
  1
\A1;450
  7
STYLE1
 73
     1
 44
1.0
1001
ACAD
1000
MTEXTBEGIN
1070
    73
1070
     1
1070
    44
1040
1.0
1070
    74
1070
     0
1000
MTEXTEND
  0
POINT
  5
17BBC
330
17AA6
100
AcDbEntity
  8
DEFPOINTS
 62
     0
 48
50.0
100
AcDbPoint
 10
11175.87835898022
 20
7184.30239245584
 30
0.0
  0
POINT
  5
17BBD
330
17AA6
100
AcDbEntity
  8
DEFPOINTS
 62
     0
 48
50.0
100
AcDbPoint
 10
10725.87835898022
 20
7184.30239245584
 30
0.0
  0
POINT
  5
17BBE
330
17AA6
100
AcDbEntity
  8
DEFPOINTS
 62
     0
 48
50.0
100
AcDbPoint
 10
10821.09141314497
 20
6828.96243676919
 30
0.0
  0
ENDBLK
  5
17AB1
330
17AA6
100
AcDbEntity
  8
0
 48
50.0
100
AcDbBlockEnd
  0
BLOCK
  5
1856A
330
18560
100
AcDbEntity
  8
0
 48
50.0
100
AcDbBlockBegin
  2
*D43
 70
     1
 10
0.0
 20
0.0
 30
0.0
  3
*D43
  1

  0
LINE
  5
18589
330
18560
100
AcDbEntity
  8
寸法
 62
     0
 48
50.0
370
    -2
100
AcDbLine
 10
9482.878358980139
 20
7058.802392455703
 30
0.0
 11
9482.878358980139
 21
6413.727374407478
 31
0.0
  0
LINE
  5
1858A
330
18560
100
AcDbEntity
  8
寸法
 62
     0
 48
50.0
370
    -2
100
AcDbLine
 10
10432.87835898014
 20
7058.802392455703
 30
0.0
 11
10432.87835898014
 21
6413.727374407478
 31
0.0
  0
LINE
  5
1858B
330
18560
100
AcDbEntity
  8
寸法
 62
     0
 48
50.0
370
    -2
100
AcDbLine
 10
9502.878358980138
 20
6453.727374407479
 30
0.0
 11
10412.87835898014
 21
6453.727374407479
 31
0.0
  0
INSERT
  5
1858C
330
18560
100
AcDbEntity
  8
寸法
 62
     0
 48
50.0
370
    -2
100
AcDbBlockReference
  2
_DOT
 10
9482.878358980139
 20
6453.727374407479
 30
0.0
 41
20.0
 42
20.0
 43
20.0
 50
180.0
  0
INSERT
  5
1858D
330
18560
100
AcDbEntity
  8
寸法
 62
     0
 48
50.0
370
    -2
100
AcDbBlockReference
  2
_DOT
 10
10432.87835898014
 20
6453.727374407479
 30
0.0
 41
20.0
 42
20.0
 43
20.0
  0
MTEXT
  5
1858E
330
18560
100
AcDbEntity
  8
寸法
 62
     7
 48
50.0
100
AcDbMText
 10
9957.878358980138
 20
6645.72737440748
 30
0.0
 40
120.0
 41
0.0
 71
     5
 72
     1
  1
\A1;有効開口部間口\P950
  7
STYLE1
 73
     1
 44
1.0
1001
ACAD
1000
MTEXTBEGIN
1070
    73
1070
     1
1070
    44
1040
1.0
1070
    74
1070
     0
1000
MTEXTEND
  0
POINT
  5
1858F
330
18560
100
AcDbEntity
  8
DEFPOINTS
 62
     0
 48
50.0
100
AcDbPoint
 10
9482.878358980139
 20
7078.802392455703
 30
0.0
  0
POINT
  5
18590
330
18560
100
AcDbEntity
  8
DEFPOINTS
 62
     0
 48
50.0
100
AcDbPoint
 10
10432.87835898014
 20
7078.802392455703
 30
0.0
  0
POINT
  5
18591
330
18560
100
AcDbEntity
  8
DEFPOINTS
 62
     0
 48
50.0
100
AcDbPoint
 10
10432.87835898014
 20
6453.727374407479
 30
0.0
  0
ENDBLK
  5
1856B
330
18560
100
AcDbEntity
  8
0
 48
50.0
100
AcDbBlockEnd
  0
BLOCK
  5
1884B
330
18841
100
AcDbEntity
  8
0
 48
50.0
100
AcDbBlockBegin
  2
*D44
 70
     1
 10
0.0
 20
0.0
 30
0.0
  3
*D44
  1

  0
LINE
  5
18984
330
18841
100
AcDbEntity
  8
寸法
 62
     0
 48
50.0
370
    -2
100
AcDbLine
 10
9443.878358980139
 20
7058.80239245574
 30
0.0
 11
9443.878358980139
 21
6143.732122604959
 31
0.0
  0
LINE
  5
18985
330
18841
100
AcDbEntity
  8
寸法
 62
     0
 48
50.0
370
    -2
100
AcDbLine
 10
11177.87835898014
 20
7058.802392455739
 30
0.0
 11
11177.87835898014
 21
6143.732122604959
 31
0.0
  0
LINE
  5
18986
330
18841
100
AcDbEntity
  8
寸法
 62
     0
 48
50.0
370
    -2
100
AcDbLine
 10
9443.878358980139
 20
6203.732122604959
 30
0.0
 11
11177.87835898014
 21
6203.732122604959
 31
0.0
  0
INSERT
  5
18987
330
18841
100
AcDbEntity
  8
寸法
 62
     0
 48
50.0
370
    -2
100
AcDbBlockReference
  2
_DOTSMALL
 10
9443.878358980139
 20
6203.732122604959
 30
0.0
 41
100.0
 42
100.0
 43
100.0
 50
180.0
  0
INSERT
  5
18988
330
18841
100
AcDbEntity
  8
寸法
 62
     0
 48
50.0
370
    -2
100
AcDbBlockReference
  2
_DOTSMALL
 10
11177.87835898014
 20
6203.732122604959
 30
0.0
 41
100.0
 42
100.0
 43
100.0
  0
MTEXT
  5
18989
330
18841
100
AcDbEntity
  8
寸法
 62
     7
 48
50.0
100
AcDbMText
 10
10301.46010293196
 20
6303.732122604959
 30
0.0
 40
120.0
 41
0.0
 71
     5
 72
     1
  1
\A1;1734
  7
STYLE1
 73
     1
 44
1.0
1001
ACAD
1000
MTEXTBEGIN
1070
    73
1070
     1
1070
    44
1040
1.0
1070
    74
1070
     0
1000
MTEXTEND
  0
POINT
  5
1898A
330
18841
100
AcDbEntity
  8
DEFPOINTS
 62
     0
 48
50.0
100
AcDbPoint
 10
9443.878358980139
 20
7078.802392455741
 30
0.0
  0
POINT
  5
1898B
330
18841
100
AcDbEntity
  8
DEFPOINTS
 62
     0
 48
50.0
100
AcDbPoint
 10
11177.87835898014
 20
7078.802392455738
 30
0.0
  0
POINT
  5
1898C
330
18841
100
AcDbEntity
  8
DEFPOINTS
 62
     0
 48
50.0
100
AcDbPoint
 10
11177.87835898014
 20
6203.732122604959
 30
0.0
  0
ENDBLK
  5
1884C
330
18841
100
AcDbEntity
  8
0
 48
50.0
100
AcDbBlockEnd
  0
BLOCK
  5
18859
330
1884D
100
AcDbEntity
  8
0
 48
50.0
100
AcDbBlockBegin
  2
*D45
 70
     1
 10
0.0
 20
0.0
 30
0.0
  3
*D45
  1

  0
LINE
  5
1898D
330
1884D
100
AcDbEntity
  8
寸法
 62
     0
 48
50.0
370
    -2
100
AcDbLine
 10
9395.878358980167
 20
7155.802392455735
 30
0.0
 11
9081.267113353453
 21
7155.802392455735
 31
0.0
  0
LINE
  5
1898E
330
1884D
100
AcDbEntity
  8
寸法
 62
     0
 48
50.0
370
    -2
100
AcDbLine
 10
9423.878358980145
 20
7080.802392455734
 30
0.0
 11
9081.267113353453
 21
7080.802392455734
 31
0.0
  0
LINE
  5
1898F
330
1884D
100
AcDbEntity
  8
寸法
 62
     0
 48
50.0
370
    -2
100
AcDbLine
 10
9121.267113353452
 20
7175.802392455735
 30
0.0
 11
9121.267113353452
 21
7195.802392455735
 31
0.0
  0
LINE
  5
18990
330
1884D
100
AcDbEntity
  8
寸法
 62
     0
 48
50.0
370
    -2
100
AcDbLine
 10
9121.267113353452
 20
7060.802392455734
 30
0.0
 11
9121.267113353452
 21
6839.831829707256
 31
0.0
  0
LINE
  5
18991
330
1884D
100
AcDbEntity
  8
寸法
 62
     0
 48
50.0
370
    -2
100
AcDbLine
 10
9121.267113353452
 20
7155.802392455735
 30
0.0
 11
9121.267113353452
 21
7080.802392455734
 31
0.0
  0
INSERT
  5
18992
330
1884D
100
AcDbEntity
  8
寸法
 62
     0
 48
50.0
370
    -2
100
AcDbBlockReference
  2
_DOT
 10
9121.267113353452
 20
7155.802392455735
 30
0.0
 41
20.0
 42
20.0
 43
20.0
 50
270.0
  0
INSERT
  5
18993
330
1884D
100
AcDbEntity
  8
寸法
 62
     0
 48
50.0
370
    -2
100
AcDbBlockReference
  2
_DOT
 10
9121.267113353452
 20
7080.802392455734
 30
0.0
 41
20.0
 42
20.0
 43
20.0
 50
90.0
  0
MTEXT
  5
18994
330
1884D
100
AcDbEntity
  8
寸法
 62
     7
 48
50.0
100
AcDbMText
 10
9029.26711335345
 20
6940.317111081497
 30
0.0
 40
120.0
 41
0.0
 71
     5
 72
     1
  1
\A1;75
  7
STYLE1
 11
0.0000000000000001
 21
1.0
 31
0.0
 73
     1
 44
1.0
1001
ACAD
1000
MTEXTBEGIN
1070
    73
1070
     1
1070
    44
1040
1.0
1070
    74
1070
     0
1000
MTEXTEND
  0
POINT
  5
18995
330
1884D
100
AcDbEntity
  8
DEFPOINTS
 62
     0
 48
50.0
100
AcDbPoint
 10
9415.878358980169
 20
7155.802392455735
 30
0.0
  0
POINT
  5
18996
330
1884D
100
AcDbEntity
  8
DEFPOINTS
 62
     0
 48
50.0
100
AcDbPoint
 10
9443.878358980146
 20
7080.802392455734
 30
0.0
  0
POINT
  5
18997
330
1884D
100
AcDbEntity
  8
DEFPOINTS
 62
     0
 48
50.0
100
AcDbPoint
 10
9121.267113353452
 20
7080.802392455734
 30
0.0
  0
ENDBLK
  5
1885A
330
1884D
100
AcDbEntity
  8
0
 48
50.0
100
AcDbBlockEnd
  0
BLOCK
  5
188A3
330
18899
100
AcDbEntity
  8
0
 48
50.0
100
AcDbBlockBegin
  2
*D46
 70
     1
 10
0.0
 20
0.0
 30
0.0
  3
*D46
  1

  0
LINE
  5
1897B
330
18899
100
AcDbEntity
  8
寸法
 62
     0
 48
50.0
370
    -2
100
AcDbLine
 10
9415.878358980169
 20
7135.802392455734
 30
0.0
 11
9415.878358980169
 21
5903.974601710832
 31
0.0
  0
LINE
  5
1897C
330
18899
100
AcDbEntity
  8
寸法
 62
     0
 48
50.0
370
    -2
100
AcDbLine
 10
11205.87835898015
 20
7135.802392455864
 30
0.0
 11
11205.87835898015
 21
5903.974601710832
 31
0.0
  0
LINE
  5
1897D
330
18899
100
AcDbEntity
  8
寸法
 62
     0
 48
50.0
370
    -2
100
AcDbLine
 10
9415.878358980169
 20
5963.974601710832
 30
0.0
 11
11205.87835898015
 21
5963.974601710832
 31
0.0
  0
INSERT
  5
1897E
330
18899
100
AcDbEntity
  8
寸法
 62
     0
 48
50.0
370
    -2
100
AcDbBlockReference
  2
_DOTSMALL
 10
9415.878358980169
 20
5963.974601710832
 30
0.0
 41
100.0
 42
100.0
 43
100.0
 50
180.0
  0
INSERT
  5
1897F
330
18899
100
AcDbEntity
  8
寸法
 62
     0
 48
50.0
370
    -2
100
AcDbBlockReference
  2
_DOTSMALL
 10
11205.87835898015
 20
5963.974601710832
 30
0.0
 41
100.0
 42
100.0
 43
100.0
  0
MTEXT
  5
18980
330
18899
100
AcDbEntity
  8
寸法
 62
     7
 48
50.0
100
AcDbMText
 10
10299.02510931152
 20
6063.974601710832
 30
0.0
 40
120.0
 41
0.0
 71
     5
 72
     1
  1
\A1;1790
  7
STYLE1
 73
     1
 44
1.0
1001
ACAD
1000
MTEXTBEGIN
1070
    73
1070
     1
1070
    44
1040
1.0
1070
    74
1070
     0
1000
MTEXTEND
  0
POINT
  5
18981
330
18899
100
AcDbEntity
  8
DEFPOINTS
 62
     0
 48
50.0
100
AcDbPoint
 10
9415.878358980169
 20
7155.802392455735
 30
0.0
  0
POINT
  5
18982
330
18899
100
AcDbEntity
  8
DEFPOINTS
 62
     0
 48
50.0
100
AcDbPoint
 10
11205.87835898015
 20
7155.802392455864
 30
0.0
  0
POINT
  5
18983
330
18899
100
AcDbEntity
  8
DEFPOINTS
 62
     0
 48
50.0
100
AcDbPoint
 10
11205.87835898015
 20
5963.974601710832
 30
0.0
  0
ENDBLK
  5
188A4
330
18899
100
AcDbEntity
  8
0
 48
50.0
100
AcDbBlockEnd
  0
ENDSEC
  0
SECTION
  2
ENTITIES
  0
LINE
  5
10B57
330
747D
100
AcDbEntity
  8
補助
  6
PHANTOM
 62
   230
 48
50.0
100
AcDbLine
 10
139.9999999999995
 20
11409.6
 30
0.0
 11
16307.2
 21
11409.6
 31
0.0
  0
LINE
  5
10B59
330
747D
100
AcDbEntity
  8
仕様書枠
  6
Continuous
 48
50.0
100
AcDbLine
 10
13107.2
 20
1200.0
 30
0.0
 11
13107.2
 21
-0.0000000000000729
 31
0.0
  0
LINE
  5
10B5C
330
747D
100
AcDbEntity
  8
仕様書枠
 48
50.0
100
AcDbLine
 10
16307.2
 20
1200.0
 30
0.0
 11
16307.2
 21
-0.0000000000000909
 31
0.0
  0
LINE
  5
10B5D
330
747D
100
AcDbEntity
  8
仕様書枠
 48
50.0
100
AcDbLine
 10
140.0
 20
0.0
 30
0.0
 11
16307.2
 21
-0.0000000000000909
 31
0.0
  0
LINE
  5
10B5E
330
747D
100
AcDbEntity
  8
補助
  6
PHANTOM
 62
   230
 48
50.0
100
AcDbLine
 10
16307.2
 20
11409.6
 30
0.0
 11
16307.2
 21
1200.0
 31
0.0
  0
LINE
  5
10B6C
330
747D
100
AcDbEntity
  8
仕様書枠
 48
50.0
100
AcDbLine
 10
13107.2
 20
1200.0
 30
0.0
 11
16307.2
 21
1200.0
 31
0.0
  0
LINE
  5
10B6D
330
747D
100
AcDbEntity
  8
補助
  6
PHANTOM
 62
   230
 48
50.0
100
AcDbLine
 10
13107.2
 20
11409.6
 30
0.0
 11
13107.2
 21
4800.0
 31
0.0
  0
LINE
  5
10B6F
330
747D
100
AcDbEntity
  8
補助
  6
PHANTOM
 62
   230
 48
50.0
100
AcDbLine
 10
13107.2
 20
4800.0
 30
0.0
 11
16307.2
 21
4800.0
 31
0.0
  0
LINE
  5
10B72
330
747D
100
AcDbEntity
  8
文字
 62
     7
 48
50.0
100
AcDbLine
 10
13187.2
 20
400.0
 30
0.0
 11
16227.2
 21
400.0
 31
0.0
  0
TEXT
  5
10B73
330
747D
100
AcDbEntity
  8
文字
 62
     7
 48
50.0
100
AcDbText
 10
13162.9790565769
 20
895.0906074299405
 30
0.0
 40
200.0
  1
外 形 図
  7
STYLE2
100
AcDbText
  0
TEXT
  5
10B74
330
747D
100
AcDbEntity
  8
文字
 62
     7
 48
50.0
100
AcDbText
 10
13201.43669998441
 20
477.2740661031255
 30
0.0
 40
160.0
  1
機種名
  7
STYLE2
100
AcDbText
  0
TEXT
  5
10B76
330
747D
100
AcDbEntity
  8
文字
 62
     7
 48
50.0
100
AcDbText
 10
13209.4053442172
 20
76.09434707649343
 30
0.0
 40
100.0
  1
○床面積 ： 4.84㎡(1.47坪) 　
  7
STYLE2
100
AcDbText
  0
TEXT
  5
10B79
330
747D
100
AcDbEntity
  8
文字
 62
     7
 48
50.0
100
AcDbText
 10
14524.131837222
 20
1031.557706291228
 30
0.0
 40
100.0
  1
NO.10      <縮尺> S=1/40
  7
STYLE2
100
AcDbText
  0
LINE
  5
10B7B
330
747D
100
AcDbEntity
  8
仕様書枠
 48
50.0
100
AcDbLine
 10
13107.2
 20
800.0
 30
0.0
 11
14251.2
 21
800.0
 31
0.0
  0
LINE
  5
10B88
330
747D
100
AcDbEntity
  8
仕様書枠
  6
Continuous
 48
50.0
100
AcDbLine
 10
14251.2
 20
1200.0
 30
0.0
 11
14251.2
 21
800.0
 31
0.0
  0
TEXT
  5
14D2F
330
747D
100
AcDbEntity
  8
文字
 62
     7
 48
50.0
100
AcDbText
 10
14644.07818602837
 20
876.4448062548634
 30
0.0
 40
100.0
  1
～一般型・多雪地型～
  7
STYLE2
100
AcDbText
  0
MTEXT
  5
16A2C
330
747D
100
AcDbEntity
  8
寸法
 62
     7
 48
50.0
100
AcDbMText
 10
10800.59356739627
 20
9116.319342233042
 30
0.0
 40
96.0
 41
0.0
 71
     5
 72
     1
  1
棚 2段
  7
STYLE1
 11
0.0000000000000003
 21
1.0
 31
0.0
 73
     1
 44
1.0
1001
ACAD
1000
MTEXTBEGIN
1070
    73
1070
     1
1070
    44
1040
1.0
1070
    74
1070
     0
1000
MTEXTEND
  0
LINE
  5
16B50
330
747D
100
AcDbEntity
  8
細線
100
AcDbLine
 10
10750.87839429906
 20
4057.242732743685
 30
0.0
 11
10750.87839429906
 21
2331.742732743704
 31
0.0
  0
LINE
  5
16B51
330
747D
100
AcDbEntity
  8
細線
100
AcDbLine
 10
10680.87839429906
 20
4057.242732743685
 30
0.0
 11
10680.87839429906
 21
2331.742732743704
 31
0.0
  0
LINE
  5
16B52
330
747D
100
AcDbEntity
  8
細線
100
AcDbLine
 10
10820.87835898016
 20
4057.242732743685
 30
0.0
 11
10820.87835898016
 21
2331.742732743704
 31
0.0
  0
LINE
  5
16B53
330
747D
100
AcDbEntity
  8
細線
100
AcDbLine
 10
10162.87835898016
 20
4057.242732743696
 30
0.0
 11
10162.87835898016
 21
2331.742732743711
 31
0.0
  0
LINE
  5
16B54
330
747D
100
AcDbEntity
  8
細線
100
AcDbLine
 10
10232.87835898016
 20
4057.242732743696
 30
0.0
 11
10232.87835898016
 21
2331.742732743711
 31
0.0
  0
LINE
  5
16B55
330
747D
100
AcDbEntity
  8
細線
100
AcDbLine
 10
9783.878350794749
 20
4057.242732743696
 30
0.0
 11
9783.878350794749
 21
2324.2427327437
 31
0.0
  0
LINE
  5
16B56
330
747D
100
AcDbEntity
  8
細線
100
AcDbLine
 10
10890.87835898016
 20
4057.242732743685
 30
0.0
 11
10890.87835898016
 21
2331.742732743704
 31
0.0
  0
LINE
  5
16B57
330
747D
100
AcDbEntity
  8
細線
100
AcDbLine
 10
10960.87835898016
 20
4057.242732743685
 30
0.0
 11
10960.87835898016
 21
2331.742732743704
 31
0.0
  0
LINE
  5
16B58
330
747D
100
AcDbEntity
  8
細線
100
AcDbLine
 10
11030.87835898016
 20
4057.242732743685
 30
0.0
 11
11030.87835898016
 21
2331.742732743704
 31
0.0
  0
LINE
  5
16B59
330
747D
100
AcDbEntity
  8
細線
100
AcDbLine
 10
10302.87835898016
 20
4057.242732743696
 30
0.0
 11
10302.87835898016
 21
2331.742732743711
 31
0.0
  0
LINE
  5
16B5A
330
747D
100
AcDbEntity
  8
細線
100
AcDbLine
 10
10372.87835898016
 20
4057.242732743696
 30
0.0
 11
10372.87835898016
 21
2331.742732743711
 31
0.0
  0
LINE
  5
16B5B
330
747D
100
AcDbEntity
  8
細線
100
AcDbLine
 10
10442.87835898016
 20
4057.242732743696
 30
0.0
 11
10442.87835898016
 21
2331.742732743711
 31
0.0
  0
LINE
  5
16B5C
330
747D
100
AcDbEntity
  8
細線
100
AcDbLine
 10
10512.87835898016
 20
4057.242732743696
 30
0.0
 11
10512.87835898016
 21
2331.742732743711
 31
0.0
  0
LINE
  5
16B5D
330
747D
100
AcDbEntity
  8
細線
100
AcDbLine
 10
9601.878358980165
 20
4057.242732743696
 30
0.0
 11
9601.878358980165
 21
2324.242732743703
 31
0.0
  0
LINE
  5
16B5E
330
747D
100
AcDbEntity
  8
細線
100
AcDbLine
 10
9635.878358980166
 20
4057.242732743696
 30
0.0
 11
9635.878358980166
 21
2324.242732743703
 31
0.0
  0
LINE
  5
16B5F
330
747D
100
AcDbEntity
  8
部品1
100
AcDbLine
 10
9593.878358980166
 20
4057.242732743696
 30
0.0
 11
9593.878358980166
 21
2324.242732743703
 31
0.0
  0
LINE
  5
16B60
330
747D
100
AcDbEntity
  8
部品1
100
AcDbLine
 10
9643.878358980167
 20
4057.242732743696
 30
0.0
 11
9643.878358980167
 21
2324.242732743703
 31
0.0
  0
LINE
  5
16B61
330
747D
100
AcDbEntity
  8
細線
100
AcDbLine
 10
9853.878350794749
 20
4057.242732743696
 30
0.0
 11
9853.878350794749
 21
2324.2427327437
 31
0.0
  0
LINE
  5
16B62
330
747D
100
AcDbEntity
  8
細線
100
AcDbLine
 10
9923.878350794749
 20
4057.242732743696
 30
0.0
 11
9923.878350794749
 21
2324.2427327437
 31
0.0
  0
LINE
  5
16B63
330
747D
100
AcDbEntity
  8
細線
100
AcDbLine
 10
9993.87835079475
 20
4057.242732743696
 30
0.0
 11
9993.87835079475
 21
2324.2427327437
 31
0.0
  0
LINE
  5
16B64
330
747D
100
AcDbEntity
  8
部品1
 48
50.0
100
AcDbLine
 10
10604.37835898017
 20
4057.242732743703
 30
0.0
 11
10604.37835898017
 21
2331.742732743704
 31
0.0
  0
LINE
  5
16B65
330
747D
100
AcDbEntity
  8
部品1
 48
50.0
100
AcDbLine
 10
10112.37835898017
 20
4057.242732743703
 30
0.0
 11
10112.37835898016
 21
2324.242732743703
 31
0.0
  0
LINE
  5
16B66
330
747D
100
AcDbEntity
  8
部品1
 48
50.0
100
AcDbLine
 10
9443.878358980162
 20
4109.242732743703
 30
0.0
 11
9443.878358980162
 21
2274.242732743704
 31
0.0
  0
LINE
  5
16B67
330
747D
100
AcDbEntity
  8
細線
 48
50.0
100
AcDbLine
 10
9473.878358980165
 20
4066.742732743704
 30
0.0
 11
9473.878358980163
 21
2274.242732743704
 31
0.0
  0
LINE
  5
16B68
330
747D
100
AcDbEntity
  8
部品1
 48
50.0
100
AcDbLine
 10
9473.878358980163
 20
2324.242732743703
 30
0.0
 11
9473.878358980165
 21
4057.242732743703
 31
0.0
  0
LINE
  5
16B69
330
747D
100
AcDbEntity
  8
部品1
 48
50.0
100
AcDbLine
 10
11138.87835898016
 20
2321.242732743704
 30
0.0
 11
11138.87835898016
 21
4057.242732743703
 31
0.0
  0
LINE
  5
16B6A
330
747D
100
AcDbEntity
  8
細線
 48
50.0
100
AcDbLine
 10
11147.87835898016
 20
2274.242732743704
 30
0.0
 11
11147.87835898016
 21
4066.742732743704
 31
0.0
  0
LINE
  5
16B6B
330
747D
100
AcDbEntity
  8
部品1
 48
50.0
100
AcDbLine
 10
11177.87835898016
 20
2274.242732743704
 30
0.0
 11
11177.87835898016
 21
4109.242732743703
 31
0.0
  0
LINE
  5
16B6C
330
747D
100
AcDbEntity
  8
細線
 48
50.0
100
AcDbLine
 10
10112.37835898016
 20
2331.742732743704
 30
0.0
 11
11121.87835898016
 21
2331.742732743704
 31
0.0
  0
LINE
  5
16B6D
330
747D
100
AcDbEntity
  8
細線
 48
50.0
100
AcDbLine
 10
9473.878358980163
 20
2321.242732743704
 30
0.0
 11
11147.87835898016
 21
2321.242732743704
 31
0.0
  0
LINE
  5
16B6E
330
747D
100
AcDbEntity
  8
細線
 48
50.0
100
AcDbLine
 10
9473.878358980163
 20
2317.242732743704
 30
0.0
 11
11147.87835898016
 21
2317.242732743704
 31
0.0
  0
LINE
  5
16B6F
330
747D
100
AcDbEntity
  8
部品1
 48
50.0
100
AcDbLine
 10
9443.878358980162
 20
2274.242732743704
 30
0.0
 11
11177.87835898016
 21
2274.242732743704
 31
0.0
  0
LINE
  5
16B70
330
747D
100
AcDbEntity
  8
部品1
 48
50.0
100
AcDbLine
 10
9473.878358980163
 20
2324.242732743703
 30
0.0
 11
10112.37835898016
 21
2324.242732743703
 31
0.0
  0
LINE
  5
16B71
330
747D
100
AcDbEntity
  8
部品1
 48
50.0
100
AcDbLine
 10
9482.878358980164
 20
2324.242732743703
 30
0.0
 11
9482.878358980164
 21
2321.242732743704
 31
0.0
  0
LINE
  5
16B72
330
747D
100
AcDbEntity
  8
細線
 48
50.0
100
AcDbLine
 10
11125.87835898016
 20
2321.242732743704
 30
0.0
 11
11121.87835898016
 21
2331.742732743704
 31
0.0
  0
LINE
  5
16B73
330
747D
100
AcDbEntity
  8
部品1
 48
50.0
100
AcDbLine
 10
11177.87835898016
 20
4109.242732743703
 30
0.0
 11
9443.878358980162
 21
4109.242732743703
 31
0.0
  0
LINE
  5
16B74
330
747D
100
AcDbEntity
  8
細線
 48
50.0
100
AcDbLine
 10
11177.87835898016
 20
4099.242732743703
 30
0.0
 11
9443.878358980162
 21
4099.242732743703
 31
0.0
  0
LINE
  5
16B75
330
747D
100
AcDbEntity
  8
細線
 48
50.0
100
AcDbLine
 10
11147.87835898016
 20
4057.242732743703
 30
0.0
 11
9473.878358980163
 21
4057.242732743703
 31
0.0
  0
LINE
  5
16B76
330
747D
100
AcDbEntity
  8
細線
 48
50.0
100
AcDbLine
 10
11147.87835898016
 20
4066.742732743704
 30
0.0
 11
9473.878358980163
 21
4066.742732743704
 31
0.0
  0
LINE
  5
16B77
330
747D
100
AcDbEntity
  8
部品1
 48
50.0
100
AcDbLine
 10
9473.878358980163
 20
4065.242732743704
 30
0.0
 11
9443.878358980162
 21
4065.242732743704
 31
0.0
  0
LINE
  5
16B78
330
747D
100
AcDbEntity
  8
部品1
 48
50.0
100
AcDbLine
 10
11177.87835898016
 20
4065.242732743704
 30
0.0
 11
11147.87835898016
 21
4065.242732743704
 31
0.0
  0
LINE
  5
16B7C
330
747D
100
AcDbEntity
  8
部品1
 48
50.0
100
AcDbLine
 10
9517.878358980162
 20
3255.742732743704
 30
0.0
 11
9570.878358980163
 21
3255.742732743704
 31
0.0
  0
LINE
  5
16B96
330
747D
100
AcDbEntity
  8
部品1
100
AcDbLine
 10
10998.87835898018
 20
4344.242732752176
 30
0.0
 11
10998.87835898018
 21
4246.831665243604
 31
0.0
  0
LINE
  5
16B97
330
747D
100
AcDbEntity
  8
部品1
100
AcDbLine
 10
10973.87835898018
 20
4344.242732752176
 30
0.0
 11
10973.87835898018
 21
4246.831665243604
 31
0.0
  0
LINE
  5
16B98
330
747D
100
AcDbEntity
  8
部品1
100
AcDbLine
 10
10900.87835898018
 20
4344.242732752176
 30
0.0
 11
10900.87835898018
 21
4246.831665243604
 31
0.0
  0
LINE
  5
16B99
330
747D
100
AcDbEntity
  8
部品1
100
AcDbLine
 10
10925.87835898018
 20
4344.242732752176
 30
0.0
 11
10925.87835898018
 21
4246.831665243604
 31
0.0
  0
LINE
  5
16B9A
330
747D
100
AcDbEntity
  8
部品1
100
AcDbLine
 10
10888.87835898017
 20
4324.842732752175
 30
0.0
 11
10745.37835898017
 21
4324.842732752175
 31
0.0
  0
LINE
  5
16B9B
330
747D
100
AcDbEntity
  8
部品1
100
AcDbLine
 10
11122.37835898017
 20
4324.84273275216
 30
0.0
 11
11010.87835898018
 21
4324.84273275216
 31
0.0
  0
LINE
  5
16B9C
330
747D
100
AcDbEntity
  8
部品1
 48
50.0
100
AcDbLine
 10
10972.37835898017
 20
4344.24273275218
 30
0.0
 11
11000.37835898017
 21
4344.24273275218
 31
0.0
  0
LINE
  5
16B9D
330
747D
100
AcDbEntity
  8
部品1
 48
50.0
100
AcDbLine
 10
11000.37835898017
 20
4344.24273275218
 30
0.0
 11
11010.87835898017
 21
4324.842732752179
 31
0.0
  0
LINE
  5
16B9E
330
747D
100
AcDbEntity
  8
部品1
 48
50.0
100
AcDbLine
 10
10972.37835898017
 20
4344.24273275218
 30
0.0
 11
10961.87835898017
 21
4324.842732752179
 31
0.0
  0
LINE
  5
16B9F
330
747D
100
AcDbEntity
  8
部品1
 48
50.0
100
AcDbLine
 10
10899.37835898017
 20
4344.24273275218
 30
0.0
 11
10927.37835898017
 21
4344.24273275218
 31
0.0
  0
LINE
  5
16BA0
330
747D
100
AcDbEntity
  8
部品1
 48
50.0
100
AcDbLine
 10
10899.37835898017
 20
4344.24273275218
 30
0.0
 11
10888.87835898017
 21
4324.842732752179
 31
0.0
  0
LINE
  5
16BA1
330
747D
100
AcDbEntity
  8
部品1
 48
50.0
100
AcDbLine
 10
10927.37835898017
 20
4344.24273275218
 30
0.0
 11
10937.87835898017
 21
4324.842732752179
 31
0.0
  0
LINE
  5
16BA2
330
747D
100
AcDbEntity
  8
部品1
100
AcDbLine
 10
10961.87835898017
 20
4324.842732752175
 30
0.0
 11
10937.87835898017
 21
4324.842732752175
 31
0.0
  0
LINE
  5
16BA3
330
747D
100
AcDbEntity
  8
部品1
100
AcDbLine
 10
11205.94898697336
 20
4324.842732752171
 30
0.0
 11
11165.37835898015
 21
4324.842732752171
 31
0.0
  0
LINE
  5
16BA4
330
747D
100
AcDbEntity
  8
部品1
 48
50.0
100
AcDbLine
 10
11162.87835898015
 20
4344.242732752176
 30
0.0
 11
11165.37835898015
 21
4324.842732752175
 31
0.0
  0
LINE
  5
16BA5
330
747D
100
AcDbEntity
  8
部品1
 48
50.0
100
AcDbLine
 10
11123.66701877397
 20
4334.842732752174
 30
0.0
 11
11122.37835898015
 21
4324.842732752175
 31
0.0
  0
LINE
  5
16BA6
330
747D
100
AcDbEntity
  8
部品1
 48
50.0
100
AcDbLine
 10
11123.66701877397
 20
4334.842732752174
 30
0.0
 11
11137.66701877397
 21
4334.842732752174
 31
0.0
  0
LINE
  5
16BA7
330
747D
100
AcDbEntity
  8
部品1
 48
50.0
100
AcDbLine
 10
11138.87835898015
 20
4344.242732752176
 30
0.0
 11
11137.66701877397
 21
4334.842732752174
 31
0.0
  0
LINE
  5
16BA8
330
747D
100
AcDbEntity
  8
細線
 48
50.0
100
AcDbLine
 10
11205.94898697336
 20
4266.214565491653
 30
0.0
 11
11254.01222825731
 21
4266.214565491661
 31
0.0
  0
LINE
  5
16BA9
330
747D
100
AcDbEntity
  8
細線
 48
50.0
100
AcDbLine
 10
11223.38944888444
 20
4294.242732743703
 30
0.0
 11
11223.38944888443
 21
4167.742732743703
 31
0.0
  0
ARC
  5
16BAA
330
747D
100
AcDbEntity
  8
部品1
100
AcDbCircle
 10
11248.89231516294
 20
4342.242732760602
 30
0.0
 40
7.0
100
AcDbArc
 50
356.3813705198557
 51
90.0
  0
LINE
  5
16BAB
330
747D
100
AcDbEntity
  8
部品1
100
AcDbLine
 10
11210.94898697336
 20
4349.242732760602
 30
0.0
 11
11248.89231516294
 21
4349.242732760602
 31
0.0
  0
ARC
  5
16BAC
330
747D
100
AcDbEntity
  8
部品1
100
AcDbCircle
 10
11210.94898697336
 20
4344.242732760601
 30
0.0
 40
5.0
100
AcDbArc
 50
90.0
 51
180.0
  0
LINE
  5
16BAD
330
747D
100
AcDbEntity
  8
部品1
 48
50.0
100
AcDbLine
 10
11255.87835898015
 20
4286.800927601114
 30
0.0
 11
11255.87835898015
 21
4341.800927618012
 31
0.0
  0
LINE
  5
16BAE
330
747D
100
AcDbEntity
  8
部品1
100
AcDbLine
 10
11205.94898697336
 20
4344.242732760601
 30
0.0
 11
11205.94898697336
 21
4246.8316652436
 31
0.0
  0
ARC
  5
16BAF
330
747D
100
AcDbEntity
  8
部品1
100
AcDbCircle
 10
11210.94898697336
 20
4289.242732743703
 30
0.0
 40
5.0
100
AcDbArc
 50
90.0
 51
180.0
  0
LINE
  5
16BB0
330
747D
100
AcDbEntity
  8
部品1
100
AcDbLine
 10
11210.94898697336
 20
4294.242732743703
 30
0.0
 11
11248.89231516294
 21
4294.242732743703
 31
0.0
  0
LINE
  5
16BB1
330
747D
100
AcDbEntity
  8
部品1
100
AcDbLine
 10
11254.61782092159
 20
4266.868669550032
 30
0.0
 11
11255.87835898015
 21
4286.800927601114
 31
0.0
  0
LINE
  5
16BB2
330
747D
100
AcDbEntity
  8
部品1
100
AcDbLine
 10
11242.75174813418
 20
4174.300927601114
 30
0.0
 11
11243.42407383877
 21
4184.932077804815
 31
0.0
  0
ARC
  5
16BB3
330
747D
100
AcDbEntity
  8
部品1
100
AcDbCircle
 10
11248.89231516294
 20
4287.242732743703
 30
0.0
 40
7.0
100
AcDbArc
 50
356.3813705198557
 51
90.0
  0
ARC
  5
16BB4
330
747D
100
AcDbEntity
  8
部品1
100
AcDbCircle
 10
11235.76570431697
 20
4174.742732743704
 30
0.0
 40
7.0
100
AcDbArc
 50
270.0
 51
356.3813705198557
  0
ARC
  5
16BB5
330
747D
100
AcDbEntity
  8
部品1
100
AcDbCircle
 10
11246.41809261757
 20
4184.742732743703
 30
0.0
 40
3.0
100
AcDbArc
 50
90.0
 51
176.3813705198557
  0
ARC
  5
16BB6
330
747D
100
AcDbEntity
  8
部品1
100
AcDbCircle
 10
11245.94879649237
 20
4188.412850064293
 30
0.0
 40
0.7
100
AcDbArc
 50
277.2868405166465
 51
356.3813705198557
  0
LINE
  5
16BB7
330
747D
100
AcDbEntity
  8
部品1
100
AcDbLine
 10
11251.39449388626
 20
4263.432077804814
 30
0.0
 11
11246.6474008741
 21
4188.368669550032
 31
0.0
  0
ARC
  5
16BB8
330
747D
100
AcDbEntity
  8
部品1
100
AcDbCircle
 10
11254.38851266506
 20
4263.242732743703
 30
0.0
 40
3.0
100
AcDbArc
 50
90.0
 51
176.3813705198557
  0
ARC
  5
16BB9
330
747D
100
AcDbEntity
  8
部品1
100
AcDbCircle
 10
11253.91921653986
 20
4266.912850064293
 30
0.0
 40
0.7
100
AcDbArc
 50
277.2868405166465
 51
356.3813705198557
  0
LINE
  5
16BBA
330
747D
100
AcDbEntity
  8
部品1
 48
50.0
100
AcDbLine
 10
11210.94898697336
 20
4294.242732743703
 30
0.0
 11
11248.89231516294
 21
4294.242732743703
 31
0.0
  0
LINE
  5
16BBB
330
747D
100
AcDbEntity
  8
部品1
 48
50.0
100
AcDbLine
 10
11138.87835898015
 20
4344.242732752176
 30
0.0
 11
11162.87835898015
 21
4344.242732752176
 31
0.0
  0
LINE
  5
16BBC
330
747D
100
AcDbEntity
  8
部品1
100
AcDbLine
 10
11159.87835898015
 20
4344.242732752176
 30
0.0
 11
11159.87835898015
 21
4246.8316652436
 31
0.0
  0
LINE
  5
16BBD
330
747D
100
AcDbEntity
  8
部品1
100
AcDbLine
 10
11141.87835898015
 20
4344.242732752165
 30
0.0
 11
11141.87835898015
 21
4246.8316652436
 31
0.0
  0
DIMENSION
  5
16BBE
330
747D
100
AcDbEntity
  8
寸法
 48
50.0
100
AcDbDimension
  2
*D15
 10
11205.87835898016
 20
4748.335902083177
 30
0.0
 11
11569.3636403544
 21
4748.335902083177
 31
0.0
 70
   160
 71
     5
 42
50.0
  3
INABA_S40G
100
AcDbAlignedDimension
 13
11255.87835898016
 23
4349.242732743706
 33
0.0
 14
11205.87835898016
 24
4349.242732743709
 34
0.0
100
AcDbRotatedDimension
  0
DIMENSION
  5
16BBF
330
747D
100
AcDbEntity
  8
寸法
 48
50.0
100
AcDbDimension
  2
*D16
 10
9144.672329768029
 20
2332.242732743704
 30
0.0
 11
9144.672329768029
 21
3185.875751761229
 31
0.0
 70
   160
  1
有効開口部高サ<>
 71
     5
 42
1725.0
  3
INABA_S40G
100
AcDbAlignedDimension
 13
9443.87835898018
 23
4057.242732743703
 33
0.0
 14
9443.87835898018
 24
2332.242732743704
 34
0.0
 50
90.0
100
AcDbRotatedDimension
1001
ACAD
1000
DSTYLE
1002
{
1070
   341
1005
0
1002
}
  0
LINE
  5
16BC0
330
747D
100
AcDbEntity
  8
部品1
 48
50.0
100
AcDbLine
 10
9398.36726907589
 20
4246.8316652436
 30
0.0
 11
11223.38944888444
 21
4246.8316652436
 31
0.0
  0
LINE
  5
16BC1
330
747D
100
AcDbEntity
  8
部品1
 48
50.0
100
AcDbLine
 10
10742.87835898017
 20
4344.242732752176
 30
0.0
 11
10745.37835898017
 21
4324.842732752175
 31
0.0
  0
LINE
  5
16BC2
330
747D
100
AcDbEntity
  8
部品1
 48
50.0
100
AcDbLine
 10
10703.66701877399
 20
4334.842732752174
 30
0.0
 11
10702.37835898017
 21
4324.842732752175
 31
0.0
  0
LINE
  5
16BC3
330
747D
100
AcDbEntity
  8
部品1
 48
50.0
100
AcDbLine
 10
10703.66701877399
 20
4334.842732752174
 30
0.0
 11
10717.66701877399
 21
4334.842732752174
 31
0.0
  0
LINE
  5
16BC4
330
747D
100
AcDbEntity
  8
部品1
 48
50.0
100
AcDbLine
 10
10718.87835898017
 20
4344.242732752176
 30
0.0
 11
10717.66701877399
 21
4334.842732752174
 31
0.0
  0
LINE
  5
16BC5
330
747D
100
AcDbEntity
  8
部品1
 48
50.0
100
AcDbLine
 10
10718.87835898017
 20
4344.242732752176
 30
0.0
 11
10742.87835898017
 21
4344.242732752176
 31
0.0
  0
LINE
  5
16BC6
330
747D
100
AcDbEntity
  8
部品1
100
AcDbLine
 10
10739.87835898016
 20
4344.242732752176
 30
0.0
 11
10739.87835898016
 21
4246.8316652436
 31
0.0
  0
LINE
  5
16BC7
330
747D
100
AcDbEntity
  8
部品1
100
AcDbLine
 10
10721.87835898016
 20
4344.242732752165
 30
0.0
 11
10721.87835898016
 21
4246.8316652436
 31
0.0
  0
LINE
  5
16BC8
330
747D
100
AcDbEntity
  8
細線
 48
50.0
100
AcDbLine
 10
9415.807730986964
 20
4266.214565491653
 30
0.0
 11
9367.744489703019
 21
4266.214565491661
 31
0.0
  0
LINE
  5
16BC9
330
747D
100
AcDbEntity
  8
細線
 48
50.0
100
AcDbLine
 10
9398.367269075889
 20
4294.242732743703
 30
0.0
 11
9398.367269075889
 21
4167.742732743703
 31
0.0
  0
LINE
  5
16BCA
330
747D
100
AcDbEntity
  8
細線
 48
50.0
100
AcDbLine
 10
11246.65671665322
 20
4188.515975307489
 30
0.0
 11
9375.761950612689
 21
4188.515975307489
 31
0.0
  0
ARC
  5
16BCB
330
747D
100
AcDbEntity
  8
部品1
100
AcDbCircle
 10
9372.864402797382
 20
4342.242732760602
 30
0.0
 40
7.0
100
AcDbArc
 50
90.0
 51
183.6186294801443
  0
LINE
  5
16BCC
330
747D
100
AcDbEntity
  8
部品1
100
AcDbLine
 10
9410.807730986965
 20
4349.242732760602
 30
0.0
 11
9372.864402797382
 21
4349.242732760602
 31
0.0
  0
ARC
  5
16BCD
330
747D
100
AcDbEntity
  8
部品1
100
AcDbCircle
 10
9410.807730986965
 20
4344.242732760601
 30
0.0
 40
5.0
100
AcDbArc
 50
0.0
 51
90.0
  0
LINE
  5
16BCE
330
747D
100
AcDbEntity
  8
部品1
 48
50.0
100
AcDbLine
 10
9365.878358980172
 20
4286.800927601114
 30
0.0
 11
9365.878358980172
 21
4341.800927618012
 31
0.0
  0
LINE
  5
16BCF
330
747D
100
AcDbEntity
  8
部品1
100
AcDbLine
 10
11235.76570431697
 20
4167.742732743703
 30
0.0
 11
9385.991013643353
 21
4167.742732743703
 31
0.0
  0
LINE
  5
16BD0
330
747D
100
AcDbEntity
  8
部品1
100
AcDbLine
 10
9415.807730986966
 20
4344.242732760601
 30
0.0
 11
9415.807730986964
 21
4246.838704071033
 31
0.0
  0
ARC
  5
16BD1
330
747D
100
AcDbEntity
  8
部品1
100
AcDbCircle
 10
9410.807730986965
 20
4289.242732743703
 30
0.0
 40
5.0
100
AcDbArc
 50
0.0
 51
90.0
  0
LINE
  5
16BD2
330
747D
100
AcDbEntity
  8
部品1
100
AcDbLine
 10
9410.807730986965
 20
4294.242732743703
 30
0.0
 11
9372.864402797382
 21
4294.242732743703
 31
0.0
  0
LINE
  5
16BD3
330
747D
100
AcDbEntity
  8
部品1
100
AcDbLine
 10
9367.138897038739
 20
4266.868669550032
 30
0.0
 11
9365.878358980172
 21
4286.800927601114
 31
0.0
  0
LINE
  5
16BD4
330
747D
100
AcDbEntity
  8
部品1
100
AcDbLine
 10
9379.004969826143
 20
4174.300927601114
 30
0.0
 11
9378.332644121561
 21
4184.932077804815
 31
0.0
  0
ARC
  5
16BD5
330
747D
100
AcDbEntity
  8
部品1
100
AcDbCircle
 10
9372.864402797382
 20
4287.242732743703
 30
0.0
 40
7.0
100
AcDbArc
 50
90.0
 51
183.6186294801443
  0
ARC
  5
16BD6
330
747D
100
AcDbEntity
  8
部品1
100
AcDbCircle
 10
9385.991013643353
 20
4174.742732743704
 30
0.0
 40
7.0
100
AcDbArc
 50
183.6186294801443
 51
270.0
  0
ARC
  5
16BD7
330
747D
100
AcDbEntity
  8
部品1
100
AcDbCircle
 10
9375.338625342756
 20
4184.742732743703
 30
0.0
 40
3.0
100
AcDbArc
 50
3.618629480144289
 51
90.0
  0
ARC
  5
16BD8
330
747D
100
AcDbEntity
  8
部品1
100
AcDbCircle
 10
9375.80792146795
 20
4188.412850064293
 30
0.0
 40
0.7
100
AcDbArc
 50
183.6186294801443
 51
262.7131594833535
  0
LINE
  5
16BD9
330
747D
100
AcDbEntity
  8
部品1
100
AcDbLine
 10
9370.362224074069
 20
4263.432077804814
 30
0.0
 11
9375.109317086229
 21
4188.368669550032
 31
0.0
  0
ARC
  5
16BDA
330
747D
100
AcDbEntity
  8
部品1
100
AcDbCircle
 10
9367.368205295264
 20
4263.242732743703
 30
0.0
 40
3.0
100
AcDbArc
 50
3.618629480144289
 51
90.0
  0
ARC
  5
16BDB
330
747D
100
AcDbEntity
  8
部品1
100
AcDbCircle
 10
9367.837501420458
 20
4266.912850064293
 30
0.0
 40
0.7
100
AcDbArc
 50
183.6186294801443
 51
262.7131594833535
  0
LINE
  5
16BDC
330
747D
100
AcDbEntity
  8
部品1
 48
50.0
100
AcDbLine
 10
9410.807730986965
 20
4294.242732743703
 30
0.0
 11
9372.864402797382
 21
4294.242732743703
 31
0.0
  0
LINE
  5
16BDD
330
747D
100
AcDbEntity
  8
部品1
100
AcDbLine
 10
10702.37835898017
 20
4324.842732752157
 30
0.0
 11
10590.87835898018
 21
4324.842732752157
 31
0.0
  0
LINE
  5
16BDE
330
747D
100
AcDbEntity
  8
部品1
100
AcDbLine
 10
11210.9486963733
 20
4349.242732752158
 30
0.0
 11
9390.310519361079
 21
4349.242732752176
 31
0.0
  0
LINE
  5
16BDF
330
747D
100
AcDbEntity
  8
部品1
 48
50.0
100
AcDbLine
 10
9863.667018773984
 20
4334.842732752174
 30
0.0
 11
9877.667018773983
 21
4334.842732752174
 31
0.0
  0
LINE
  5
16BE0
330
747D
100
AcDbEntity
  8
部品1
100
AcDbLine
 10
9628.878358980172
 20
4324.842732752171
 30
0.0
 11
9485.378358980172
 21
4324.842732752175
 31
0.0
  0
LINE
  5
16BE1
330
747D
100
AcDbEntity
  8
部品1
 48
50.0
100
AcDbLine
 10
9482.878358980171
 20
4344.242732752176
 30
0.0
 11
9458.878358980172
 21
4344.242732752176
 31
0.0
  0
LINE
  5
16BE2
330
747D
100
AcDbEntity
  8
部品1
 48
50.0
100
AcDbLine
 10
9458.878358980172
 20
4344.242732752176
 30
0.0
 11
9457.667018773983
 21
4334.842732752174
 31
0.0
  0
LINE
  5
16BE3
330
747D
100
AcDbEntity
  8
部品1
 48
50.0
100
AcDbLine
 10
9443.667018773984
 20
4334.842732752174
 30
0.0
 11
9442.378358980171
 21
4324.842732752175
 31
0.0
  0
LINE
  5
16BE4
330
747D
100
AcDbEntity
  8
部品1
 48
50.0
100
AcDbLine
 10
9443.667018773984
 20
4334.842732752174
 30
0.0
 11
9457.667018773983
 21
4334.842732752174
 31
0.0
  0
LINE
  5
16BE5
330
747D
100
AcDbEntity
  8
部品1
100
AcDbLine
 10
9442.378358980171
 20
4324.842732752175
 30
0.0
 11
9415.878358980171
 21
4324.842732752175
 31
0.0
  0
LINE
  5
16BE6
330
747D
100
AcDbEntity
  8
部品1
 48
50.0
100
AcDbLine
 10
9482.878358980171
 20
4344.242732752176
 30
0.0
 11
9485.378358980172
 21
4324.842732752175
 31
0.0
  0
LINE
  5
16BE7
330
747D
100
AcDbEntity
  8
部品1
100
AcDbLine
 10
9461.878358980179
 20
4344.242732752176
 30
0.0
 11
9461.878358980181
 21
4246.8316652436
 31
0.0
  0
LINE
  5
16BE8
330
747D
100
AcDbEntity
  8
部品1
100
AcDbLine
 10
9479.878358980178
 20
4344.242732752165
 30
0.0
 11
9479.878358980178
 21
4246.8316652436
 31
0.0
  0
LINE
  5
16BE9
330
747D
100
AcDbEntity
  8
部品1
 48
50.0
100
AcDbLine
 10
9712.378358980172
 20
4344.242732752176
 30
0.0
 11
9701.878358980172
 21
4324.842732752175
 31
0.0
  0
LINE
  5
16BEA
330
747D
100
AcDbEntity
  8
部品1
 48
50.0
100
AcDbLine
 10
9639.378358980172
 20
4344.242732752176
 30
0.0
 11
9667.378358980169
 21
4344.242732752176
 31
0.0
  0
LINE
  5
16BEB
330
747D
100
AcDbEntity
  8
部品1
 48
50.0
100
AcDbLine
 10
9639.378358980172
 20
4344.242732752176
 30
0.0
 11
9628.878358980172
 21
4324.842732752175
 31
0.0
  0
LINE
  5
16BEC
330
747D
100
AcDbEntity
  8
部品1
100
AcDbLine
 10
9640.878358980179
 20
4344.242732752173
 30
0.0
 11
9640.878358980177
 21
4246.8316652436
 31
0.0
  0
LINE
  5
16BED
330
747D
100
AcDbEntity
  8
部品1
 48
50.0
100
AcDbLine
 10
9667.378358980172
 20
4344.242732752176
 30
0.0
 11
9677.878358980173
 21
4324.842732752175
 31
0.0
  0
LINE
  5
16BEE
330
747D
100
AcDbEntity
  8
部品1
100
AcDbLine
 10
9665.878358980179
 20
4344.242732752173
 30
0.0
 11
9665.878358980181
 21
4246.8316652436
 31
0.0
  0
LINE
  5
16BEF
330
747D
100
AcDbEntity
  8
部品1
100
AcDbLine
 10
9701.878358980168
 20
4324.842732752171
 30
0.0
 11
9677.878358980173
 21
4324.842732752175
 31
0.0
  0
LINE
  5
16BF0
330
747D
100
AcDbEntity
  8
部品1
 48
50.0
100
AcDbLine
 10
9863.667018773984
 20
4334.842732752174
 30
0.0
 11
9862.378358980173
 21
4324.842732752175
 31
0.0
  0
LINE
  5
16BF1
330
747D
100
AcDbEntity
  8
部品1
 48
50.0
100
AcDbLine
 10
9712.378358980172
 20
4344.242732752176
 30
0.0
 11
9740.378358980168
 21
4344.242732752176
 31
0.0
  0
LINE
  5
16BF2
330
747D
100
AcDbEntity
  8
部品1
 48
50.0
100
AcDbLine
 10
9740.378358980173
 20
4344.242732752176
 30
0.0
 11
9750.878358980173
 21
4324.842732752175
 31
0.0
  0
LINE
  5
16BF3
330
747D
100
AcDbEntity
  8
部品1
100
AcDbLine
 10
9738.87835898018
 20
4344.242732752173
 30
0.0
 11
9738.87835898018
 21
4246.8316652436
 31
0.0
  0
LINE
  5
16BF4
330
747D
100
AcDbEntity
  8
部品1
100
AcDbLine
 10
9713.87835898018
 20
4344.242732752173
 30
0.0
 11
9713.87835898018
 21
4246.8316652436
 31
0.0
  0
LINE
  5
16BF5
330
747D
100
AcDbEntity
  8
部品1
100
AcDbLine
 10
9862.378358980173
 20
4324.842732752171
 30
0.0
 11
9750.878358980173
 21
4324.842732752171
 31
0.0
  0
LINE
  5
16BF6
330
747D
100
AcDbEntity
  8
部品1
100
AcDbLine
 10
10541.87835898017
 20
4324.842732752171
 30
0.0
 11
10517.87835898017
 21
4324.842732752171
 31
0.0
  0
LINE
  5
16BF7
330
747D
100
AcDbEntity
  8
部品1
100
AcDbLine
 10
10282.37835898017
 20
4324.842732752171
 30
0.0
 11
10170.87835898017
 21
4324.842732752171
 31
0.0
  0
LINE
  5
16BF8
330
747D
100
AcDbEntity
  8
部品1
100
AcDbLine
 10
10048.87835898017
 20
4324.842732752171
 30
0.0
 11
9905.378358980168
 21
4324.842732752171
 31
0.0
  0
LINE
  5
16BF9
330
747D
100
AcDbEntity
  8
部品1
 48
50.0
100
AcDbLine
 10
9902.878358980172
 20
4344.242732752176
 30
0.0
 11
9905.378358980172
 21
4324.842732752175
 31
0.0
  0
LINE
  5
16BFA
330
747D
100
AcDbEntity
  8
部品1
 48
50.0
100
AcDbLine
 10
9878.878358980172
 20
4344.242732752176
 30
0.0
 11
9877.667018773983
 21
4334.842732752174
 31
0.0
  0
LINE
  5
16BFB
330
747D
100
AcDbEntity
  8
部品1
 48
50.0
100
AcDbLine
 10
9902.878358980172
 20
4344.242732752176
 30
0.0
 11
9878.878358980172
 21
4344.242732752176
 31
0.0
  0
LINE
  5
16BFC
330
747D
100
AcDbEntity
  8
部品1
100
AcDbLine
 10
9881.878358980181
 20
4344.242732752165
 30
0.0
 11
9881.878358980181
 21
4246.8316652436
 31
0.0
  0
LINE
  5
16BFD
330
747D
100
AcDbEntity
  8
部品1
100
AcDbLine
 10
9899.878358980179
 20
4344.242732752165
 30
0.0
 11
9899.878358980181
 21
4246.8316652436
 31
0.0
  0
LINE
  5
16BFE
330
747D
100
AcDbEntity
  8
部品1
 48
50.0
100
AcDbLine
 10
10132.37835898017
 20
4344.242732752176
 30
0.0
 11
10160.37835898017
 21
4344.242732752176
 31
0.0
  0
LINE
  5
16BFF
330
747D
100
AcDbEntity
  8
部品1
 48
50.0
100
AcDbLine
 10
10059.37835898017
 20
4344.242732752176
 30
0.0
 11
10087.37835898017
 21
4344.242732752176
 31
0.0
  0
LINE
  5
16C00
330
747D
100
AcDbEntity
  8
部品1
 48
50.0
100
AcDbLine
 10
10132.37835898017
 20
4344.242732752176
 30
0.0
 11
10121.87835898017
 21
4324.842732752175
 31
0.0
  0
LINE
  5
16C01
330
747D
100
AcDbEntity
  8
部品1
 48
50.0
100
AcDbLine
 10
10087.37835898017
 20
4344.242732752176
 30
0.0
 11
10097.87835898017
 21
4324.842732752175
 31
0.0
  0
LINE
  5
16C02
330
747D
100
AcDbEntity
  8
部品1
100
AcDbLine
 10
10121.87835898016
 20
4324.842732752171
 30
0.0
 11
10097.87835898017
 21
4324.842732752171
 31
0.0
  0
LINE
  5
16C03
330
747D
100
AcDbEntity
  8
部品1
 48
50.0
100
AcDbLine
 10
10059.37835898017
 20
4344.242732752176
 30
0.0
 11
10048.87835898017
 21
4324.842732752175
 31
0.0
  0
LINE
  5
16C04
330
747D
100
AcDbEntity
  8
部品1
100
AcDbLine
 10
10133.87835898018
 20
4344.242732752173
 30
0.0
 11
10133.87835898018
 21
4246.8316652436
 31
0.0
  0
LINE
  5
16C05
330
747D
100
AcDbEntity
  8
部品1
100
AcDbLine
 10
10085.87835898018
 20
4344.242732752173
 30
0.0
 11
10085.87835898018
 21
4246.8316652436
 31
0.0
  0
LINE
  5
16C06
330
747D
100
AcDbEntity
  8
部品1
100
AcDbLine
 10
10060.87835898018
 20
4344.242732752173
 30
0.0
 11
10060.87835898018
 21
4246.8316652436
 31
0.0
  0
LINE
  5
16C07
330
747D
100
AcDbEntity
  8
部品1
 48
50.0
100
AcDbLine
 10
10160.37835898017
 20
4344.242732752176
 30
0.0
 11
10170.87835898017
 21
4324.842732752175
 31
0.0
  0
LINE
  5
16C08
330
747D
100
AcDbEntity
  8
部品1
100
AcDbLine
 10
10158.87835898018
 20
4344.242732752173
 30
0.0
 11
10158.87835898018
 21
4246.8316652436
 31
0.0
  0
LINE
  5
16C09
330
747D
100
AcDbEntity
  8
部品1
100
AcDbLine
 10
10468.87835898017
 20
4324.842732752171
 30
0.0
 11
10325.37835898017
 21
4324.842732752171
 31
0.0
  0
LINE
  5
16C0A
330
747D
100
AcDbEntity
  8
部品1
 48
50.0
100
AcDbLine
 10
10322.87835898017
 20
4344.242732752176
 30
0.0
 11
10298.87835898017
 21
4344.242732752176
 31
0.0
  0
LINE
  5
16C0B
330
747D
100
AcDbEntity
  8
部品1
 48
50.0
100
AcDbLine
 10
10298.87835898017
 20
4344.242732752176
 30
0.0
 11
10297.66701877398
 21
4334.842732752174
 31
0.0
  0
LINE
  5
16C0C
330
747D
100
AcDbEntity
  8
部品1
 48
50.0
100
AcDbLine
 10
10283.66701877398
 20
4334.842732752174
 30
0.0
 11
10297.66701877398
 21
4334.842732752174
 31
0.0
  0
LINE
  5
16C0D
330
747D
100
AcDbEntity
  8
部品1
 48
50.0
100
AcDbLine
 10
10283.66701877398
 20
4334.842732752174
 30
0.0
 11
10282.37835898017
 21
4324.842732752175
 31
0.0
  0
LINE
  5
16C0E
330
747D
100
AcDbEntity
  8
部品1
100
AcDbLine
 10
10301.87835898018
 20
4344.242732752165
 30
0.0
 11
10301.87835898018
 21
4246.8316652436
 31
0.0
  0
LINE
  5
16C0F
330
747D
100
AcDbEntity
  8
部品1
 48
50.0
100
AcDbLine
 10
10322.87835898017
 20
4344.242732752176
 30
0.0
 11
10325.37835898017
 21
4324.842732752175
 31
0.0
  0
LINE
  5
16C10
330
747D
100
AcDbEntity
  8
部品1
100
AcDbLine
 10
10319.87835898018
 20
4344.242732752165
 30
0.0
 11
10319.87835898018
 21
4246.8316652436
 31
0.0
  0
LINE
  5
16C11
330
747D
100
AcDbEntity
  8
部品1
 48
50.0
100
AcDbLine
 10
10507.37835898017
 20
4344.242732752176
 30
0.0
 11
10517.87835898017
 21
4324.842732752175
 31
0.0
  0
LINE
  5
16C12
330
747D
100
AcDbEntity
  8
部品1
100
AcDbLine
 10
10505.87835898018
 20
4344.242732752173
 30
0.0
 11
10505.87835898018
 21
4246.8316652436
 31
0.0
  0
LINE
  5
16C13
330
747D
100
AcDbEntity
  8
部品1
 48
50.0
100
AcDbLine
 10
10479.37835898017
 20
4344.242732752176
 30
0.0
 11
10468.87835898017
 21
4324.842732752175
 31
0.0
  0
LINE
  5
16C14
330
747D
100
AcDbEntity
  8
部品1
100
AcDbLine
 10
10480.87835898018
 20
4344.242732752173
 30
0.0
 11
10480.87835898018
 21
4246.8316652436
 31
0.0
  0
LINE
  5
16C15
330
747D
100
AcDbEntity
  8
部品1
 48
50.0
100
AcDbLine
 10
10479.37835898017
 20
4344.242732752176
 30
0.0
 11
10507.37835898017
 21
4344.242732752176
 31
0.0
  0
LINE
  5
16C16
330
747D
100
AcDbEntity
  8
部品1
 48
50.0
100
AcDbLine
 10
10552.37835898017
 20
4344.242732752176
 30
0.0
 11
10541.87835898017
 21
4324.842732752175
 31
0.0
  0
LINE
  5
16C17
330
747D
100
AcDbEntity
  8
部品1
 48
50.0
100
AcDbLine
 10
10580.37835898017
 20
4344.242732752176
 30
0.0
 11
10590.87835898017
 21
4324.842732752175
 31
0.0
  0
LINE
  5
16C18
330
747D
100
AcDbEntity
  8
部品1
 48
50.0
100
AcDbLine
 10
10552.37835898017
 20
4344.242732752176
 30
0.0
 11
10580.37835898017
 21
4344.242732752176
 31
0.0
  0
LINE
  5
16C19
330
747D
100
AcDbEntity
  8
部品1
100
AcDbLine
 10
10553.87835898018
 20
4344.242732752173
 30
0.0
 11
10553.87835898018
 21
4246.8316652436
 31
0.0
  0
LINE
  5
16C1A
330
747D
100
AcDbEntity
  8
部品1
100
AcDbLine
 10
10578.87835898018
 20
4344.242732752173
 30
0.0
 11
10578.87835898018
 21
4246.8316652436
 31
0.0
  0
DIMENSION
  5
16C1B
330
747D
100
AcDbEntity
  8
寸法
 48
50.0
100
AcDbDimension
  2
*D17
 10
11255.87835898016
 20
4964.862001701622
 30
0.0
 11
10310.87835898016
 21
4964.862001701622
 31
0.0
 70
   160
 71
     5
 42
1890.0
  3
INABA_S40G
100
AcDbAlignedDimension
 13
9365.878358980165
 23
4349.242732743709
 33
0.0
 14
11255.87835898016
 24
4349.242732743706
 34
0.0
100
AcDbRotatedDimension
  0
DIMENSION
  5
16C1C
330
747D
100
AcDbEntity
  8
寸法
 48
50.0
100
AcDbDimension
  2
*D18
 10
9365.878358980165
 20
4748.335902083177
 30
0.0
 11
9052.393077605918
 21
4748.335902083177
 31
0.0
 70
   160
 71
     5
 42
50.0
  3
INABA_S40G
100
AcDbAlignedDimension
 13
9415.878358980164
 23
4349.24273274371
 33
0.0
 14
9365.878358980165
 24
4349.242732743709
 34
0.0
100
AcDbRotatedDimension
1001
ACAD
1000
DSTYLE
1002
{
1002
}
  0
DIMENSION
  5
16C1D
330
747D
100
AcDbEntity
  8
寸法
 48
50.0
100
AcDbDimension
  2
*D19
 10
9415.878358980164
 20
4748.335902083177
 30
0.0
 11
10310.87835898016
 21
4748.335902083177
 31
0.0
 70
   160
  1
柱外寸法<>
 71
     5
 42
1790.0
  3
INABA_S40G
100
AcDbAlignedDimension
 13
11205.87835898016
 23
4349.242732743709
 33
0.0
 14
9415.878358980164
 24
4349.24273274371
 34
0.0
100
AcDbRotatedDimension
  0
TEXT
  5
16C1E
330
747D
100
AcDbEntity
  8
文字
 62
     7
 48
50.0
100
AcDbText
 10
14491.96323844892
 20
483.8967129911416
 30
0.0
 40
160.0
  1
ＮＸＮ－５０ＣＳＡ
  7
STYLE2
100
AcDbText
  0
TEXT
  5
16C1F
330
747D
100
AcDbEntity
  8
文字
 62
     7
 48
50.0
100
AcDbText
 10
13583.11819016569
 20
8550.013745883731
 30
0.0
 40
100.0
  1
棚板
  7
STYLE1
100
AcDbText
  0
TEXT
  5
16C20
330
747D
100
AcDbEntity
  8
文字
 62
     7
 48
50.0
100
AcDbText
 10
15022.63965474516
 20
8550.013745883727
 30
0.0
 40
100.0
  1
F12            0.6
  7
STYLE1
100
AcDbText
  0
TEXT
  5
16C21
330
747D
100
AcDbEntity
  8
文字
 62
     7
 48
50.0
100
AcDbText
 10
15022.63965474515
 20
9740.013745883723
 30
0.0
 40
100.0
  1
F12            1.0
  7
STYLE1
100
AcDbText
  0
TEXT
  5
16C22
330
747D
100
AcDbEntity
  8
文字
 62
     7
 48
50.0
100
AcDbText
 10
13583.11819016569
 20
9740.013745883729
 30
0.0
 40
100.0
  1
母屋中
  7
STYLE1
100
AcDbText
  0
TEXT
  5
16C23
330
747D
100
AcDbEntity
  8
文字
 62
     7
 48
50.0
100
AcDbText
 10
13248.77747366447
 20
8720.013745883729
 30
0.0
 40
100.0
  1
15
  7
STYLE1
100
AcDbText
  0
LINE
  5
16C24
330
747D
100
AcDbEntity
  8
仕様書枠
 48
50.0
100
AcDbLine
 10
16307.19999999999
 20
8009.600000000004
 30
0.0
 11
13127.19999999999
 21
8009.600000000006
 31
0.0
  0
TEXT
  5
16C25
330
747D
100
AcDbEntity
  8
文字
 62
     7
 48
50.0
100
AcDbText
 10
13583.11819016569
 20
8720.013745883731
 30
0.0
 40
100.0
  1
扉
  7
STYLE1
100
AcDbText
  0
TEXT
  5
16C26
330
747D
100
AcDbEntity
  8
文字
 62
     7
 48
50.0
100
AcDbText
 10
15022.63965474516
 20
8720.013745883727
 30
0.0
 40
100.0
  1
F12            0.8
  7
STYLE1
100
AcDbText
  0
TEXT
  5
16C27
330
747D
100
AcDbEntity
  8
文字
 62
     7
 48
50.0
100
AcDbText
 10
13583.11819016568
 20
8890.013745883731
 30
0.0
 40
100.0
  1
正面パネル
  7
STYLE1
100
AcDbText
  0
TEXT
  5
16C28
330
747D
100
AcDbEntity
  8
文字
 62
     7
 48
50.0
100
AcDbText
 10
15022.63965474515
 20
8890.013745883727
 30
0.0
 40
100.0
  1
F12            0.7
  7
STYLE1
100
AcDbText
  0
TEXT
  5
16C29
330
747D
100
AcDbEntity
  8
文字
 62
     7
 48
50.0
100
AcDbText
 10
15022.63965474517
 20
10590.01374588372
 30
0.0
 40
100.0
  1
F12            1.0
  7
STYLE1
100
AcDbText
  0
TEXT
  5
16C2A
330
747D
100
AcDbEntity
  8
文字
 62
     7
 48
50.0
100
AcDbText
 10
15022.63965474516
 20
10930.01374588372
 30
0.0
 40
100.0
  1
F12            1.2
  7
STYLE1
100
AcDbText
  0
TEXT
  5
16C2B
330
747D
100
AcDbEntity
  8
文字
 62
     7
 48
50.0
100
AcDbText
 10
13248.77747366448
 20
8890.013745883727
 30
0.0
 40
100.0
  1
14
  7
STYLE1
100
AcDbText
  0
TEXT
  5
16C2C
330
747D
100
AcDbEntity
  8
文字
 62
     7
 48
50.0
100
AcDbText
 10
13583.11819016569
 20
10930.01374588372
 30
0.0
 40
100.0
  1
根太
  7
STYLE1
100
AcDbText
  0
TEXT
  5
16C2D
330
747D
100
AcDbEntity
  8
文字
 62
     7
 48
50.0
100
AcDbText
 10
13583.1181901657
 20
10590.01374588372
 30
0.0
 40
100.0
  1
床パネル
 41
0.9
  7
STYLE1
100
AcDbText
  0
LINE
  5
16C2E
330
747D
100
AcDbEntity
  8
仕様書枠
 48
50.0
100
AcDbLine
 10
16307.19999999999
 20
9029.6
 30
0.0
 11
13127.2
 21
9029.600000000002
 31
0.0
  0
LINE
  5
16C2F
330
747D
100
AcDbEntity
  8
仕様書枠
 48
50.0
100
AcDbLine
 10
13127.2
 20
11409.6
 30
0.0
 11
13127.19999999999
 21
8009.600000000006
 31
0.0
  0
TEXT
  5
16C30
330
747D
100
AcDbEntity
  8
文字
 62
     7
 48
50.0
100
AcDbText
 10
13229.83081656554
 20
8040.013745883731
 30
0.0
 40
100.0
  1
Y10→溶融亜鉛-5％アルミニウム合金めっき鋼板(JIS G 3317)
 41
0.9
  7
STYLE1
100
AcDbText
  0
TEXT
  5
16C31
330
747D
100
AcDbEntity
  8
文字
 62
     7
 48
50.0
100
AcDbText
 10
13229.83081656554
 20
8210.013745883733
 30
0.0
 40
100.0
  1
F12→溶融亜鉛めっき鋼板(JIS G 3302)
  7
STYLE1
100
AcDbText
  0
LINE
  5
16C32
330
747D
100
AcDbEntity
  8
仕様書枠
 48
50.0
100
AcDbLine
 10
16307.19999999999
 20
8179.600000000004
 30
0.0
 11
13127.19999999999
 21
8179.600000000005
 31
0.0
  0
LINE
  5
16C33
330
747D
100
AcDbEntity
  8
仕様書枠
 48
50.0
100
AcDbLine
 10
16307.19999999999
 20
8349.600000000004
 30
0.0
 11
13127.19999999999
 21
8349.600000000007
 31
0.0
  0
TEXT
  5
16C34
330
747D
100
AcDbEntity
  8
文字
 62
     7
 48
50.0
100
AcDbText
 10
15022.63965474515
 20
9570.013745883725
 30
0.0
 40
100.0
  1
F12            0.6
  7
STYLE1
100
AcDbText
  0
TEXT
  5
16C35
330
747D
100
AcDbEntity
  8
文字
 62
     7
 48
50.0
100
AcDbText
 10
15022.63965474517
 20
9910.013745883725
 30
0.0
 40
100.0
  1
Y10            0.5
  7
STYLE1
100
AcDbText
  0
TEXT
  5
16C36
330
747D
100
AcDbEntity
  8
文字
 62
     7
 48
50.0
100
AcDbText
 10
15022.63965474516
 20
10080.01374588372
 30
0.0
 40
100.0
  1
Y10            0.7
  7
STYLE1
100
AcDbText
  0
TEXT
  5
16C37
330
747D
100
AcDbEntity
  8
文字
 62
     7
 48
50.0
100
AcDbText
 10
15022.63965474516
 20
10250.01374588372
 30
0.0
 40
100.0
  1
Y10            0.7
  7
STYLE1
100
AcDbText
  0
TEXT
  5
16C38
330
747D
100
AcDbEntity
  8
文字
 62
     7
 48
50.0
100
AcDbText
 10
15022.63965474516
 20
10420.01374588372
 30
0.0
 40
100.0
  1
Y10            1.0
  7
STYLE1
100
AcDbText
  0
TEXT
  5
16C39
330
747D
100
AcDbEntity
  8
文字
 62
     7
 48
50.0
100
AcDbText
 10
15022.63965474518
 20
10760.01374588372
 30
0.0
 40
100.0
  1
F12            1.0
  7
STYLE1
100
AcDbText
  0
TEXT
  5
16C3A
330
747D
100
AcDbEntity
  8
文字
 62
     7
 48
50.0
100
AcDbText
 10
15022.63965474517
 20
11100.01374588372
 30
0.0
 40
100.0
  1
F12            1.2
  7
STYLE1
100
AcDbText
  0
TEXT
  5
16C3B
330
747D
100
AcDbEntity
  8
文字
 62
     7
 48
50.0
100
AcDbText
 10
13248.77747366448
 20
9230.013745883727
 30
0.0
 40
100.0
  1
12
  7
STYLE1
100
AcDbText
  0
TEXT
  5
16C3C
330
747D
100
AcDbEntity
  8
文字
 62
     7
 48
50.0
100
AcDbText
 10
13248.77747366448
 20
9060.013745883727
 30
0.0
 40
100.0
  1
13
  7
STYLE1
100
AcDbText
  0
LINE
  5
16C3D
330
747D
100
AcDbEntity
  8
仕様書枠
 48
50.0
100
AcDbLine
 10
16307.19999999999
 20
8859.6
 30
0.0
 11
13127.2
 21
8859.600000000002
 31
0.0
  0
LINE
  5
16C3E
330
747D
100
AcDbEntity
  8
仕様書枠
 48
50.0
100
AcDbLine
 10
16307.19999999999
 20
9199.599999999998
 30
0.0
 11
13127.2
 21
9199.600000000001
 31
0.0
  0
TEXT
  5
16C3F
330
747D
100
AcDbEntity
  8
文字
 62
     7
 48
50.0
100
AcDbText
 10
13248.77747366447
 20
9400.013745883727
 30
0.0
 40
100.0
  1
11
  7
STYLE1
100
AcDbText
  0
LINE
  5
16C40
330
747D
100
AcDbEntity
  8
仕様書枠
 48
50.0
100
AcDbLine
 10
16307.2
 20
9879.599999999999
 30
0.0
 11
13127.2
 21
9879.600000000001
 31
0.0
  0
LINE
  5
16C41
330
747D
100
AcDbEntity
  8
仕様書枠
 48
50.0
100
AcDbLine
 10
16307.2
 20
10219.6
 30
0.0
 11
13127.2
 21
10219.6
 31
0.0
  0
LINE
  5
16C42
330
747D
100
AcDbEntity
  8
仕様書枠
 48
50.0
100
AcDbLine
 10
16307.19999999999
 20
9539.599999999998
 30
0.0
 11
13127.2
 21
9539.6
 31
0.0
  0
LINE
  5
16C43
330
747D
100
AcDbEntity
  8
仕様書枠
 48
50.0
100
AcDbLine
 10
16307.19999999999
 20
9369.599999999998
 30
0.0
 11
13127.2
 21
9369.600000000001
 31
0.0
  0
LINE
  5
16C44
330
747D
100
AcDbEntity
  8
仕様書枠
 48
50.0
100
AcDbLine
 10
16307.19999999999
 20
9709.6
 30
0.0
 11
13127.2
 21
9709.600000000001
 31
0.0
  0
TEXT
  5
16C45
330
747D
100
AcDbEntity
  8
文字
 62
     7
 48
50.0
100
AcDbText
 10
13271.19032244792
 20
10250.01374588373
 30
0.0
 40
100.0
  1
6
  7
STYLE1
100
AcDbText
  0
TEXT
  5
16C46
330
747D
100
AcDbEntity
  8
文字
 62
     7
 48
50.0
100
AcDbText
 10
13271.19032244792
 20
10080.01374588373
 30
0.0
 40
100.0
  1
7
  7
STYLE1
100
AcDbText
  0
TEXT
  5
16C47
330
747D
100
AcDbEntity
  8
文字
 62
     7
 48
50.0
100
AcDbText
 10
13271.19032244792
 20
9740.013745883729
 30
0.0
 40
100.0
  1
9
  7
STYLE1
100
AcDbText
  0
TEXT
  5
16C48
330
747D
100
AcDbEntity
  8
文字
 62
     7
 48
50.0
100
AcDbText
 10
13271.19032244792
 20
9910.01374588373
 30
0.0
 40
100.0
  1
8
  7
STYLE1
100
AcDbText
  0
TEXT
  5
16C49
330
747D
100
AcDbEntity
  8
文字
 62
     7
 48
50.0
100
AcDbText
 10
13583.11819016569
 20
10080.01374588372
 30
0.0
 40
100.0
  1
鼻隠シ前後
  7
STYLE1
100
AcDbText
  0
TEXT
  5
16C4A
330
747D
100
AcDbEntity
  8
文字
 62
     7
 48
50.0
100
AcDbText
 10
13583.11819016569
 20
9910.013745883727
 30
0.0
 40
100.0
  1
屋根パネル
  7
STYLE1
100
AcDbText
  0
TEXT
  5
16C4B
330
747D
100
AcDbEntity
  8
文字
 62
     7
 48
50.0
100
AcDbText
 10
13583.11819016568
 20
9570.013745883729
 30
0.0
 40
100.0
  1
壁パネル
  7
STYLE1
100
AcDbText
  0
TEXT
  5
16C4C
330
747D
100
AcDbEntity
  8
文字
 62
     7
 48
50.0
100
AcDbText
 10
13248.77747366447
 20
9570.013745883727
 30
0.0
 40
100.0
  1
10
  7
STYLE1
100
AcDbText
  0
TEXT
  5
16C4D
330
747D
100
AcDbEntity
  8
文字
 62
     7
 48
50.0
100
AcDbText
 10
13583.11819016569
 20
10250.01374588373
 30
0.0
 40
100.0
  1
妻板左右
  7
STYLE1
100
AcDbText
  0
TEXT
  5
16C4E
330
747D
100
AcDbEntity
  8
文字
 62
     7
 48
50.0
100
AcDbText
 10
13271.19032244792
 20
10420.01374588372
 30
0.0
 40
100.0
  1
5
  7
STYLE1
100
AcDbText
  0
TEXT
  5
16C4F
330
747D
100
AcDbEntity
  8
文字
 62
     7
 48
50.0
100
AcDbText
 10
13583.11819016569
 20
10420.01374588373
 30
0.0
 40
100.0
  1
桁前後
  7
STYLE1
100
AcDbText
  0
TEXT
  5
16C50
330
747D
100
AcDbEntity
  8
文字
 62
     7
 48
50.0
100
AcDbText
 10
13583.1181901657
 20
10760.01374588372
 30
0.0
 40
100.0
  1
柱
  7
STYLE1
100
AcDbText
  0
TEXT
  5
16C51
330
747D
100
AcDbEntity
  8
文字
 62
     7
 48
50.0
100
AcDbText
 10
13583.11819016569
 20
11100.01374588372
 30
0.0
 40
100.0
  1
土台枠
  7
STYLE1
100
AcDbText
  0
TEXT
  5
16C52
330
747D
100
AcDbEntity
  8
文字
 62
     7
 48
50.0
100
AcDbText
 10
14859.79774614482
 20
11270.01374588372
 30
0.0
 40
100.0
  1
材料（材質）　　単位mm
  7
STYLE1
100
AcDbText
  0
TEXT
  5
16C53
330
747D
100
AcDbEntity
  8
文字
 62
     7
 48
50.0
100
AcDbText
 10
13732.03840939434
 20
11270.01374588372
 30
0.0
 40
100.0
  1
部　　品　　名
  7
STYLE1
100
AcDbText
  0
TEXT
  5
16C54
330
747D
100
AcDbEntity
  8
文字
 62
     7
 48
50.0
100
AcDbText
 10
13271.19032244792
 20
10760.01374588373
 30
0.0
 40
100.0
  1
3
  7
STYLE1
100
AcDbText
  0
TEXT
  5
16C55
330
747D
100
AcDbEntity
  8
文字
 62
     7
 48
50.0
100
AcDbText
 10
13271.19032244792
 20
10590.01374588373
 30
0.0
 40
100.0
  1
4
  7
STYLE1
100
AcDbText
  0
TEXT
  5
16C56
330
747D
100
AcDbEntity
  8
文字
 62
     7
 48
50.0
100
AcDbText
 10
13271.19032244792
 20
10930.01374588373
 30
0.0
 40
100.0
  1
2
  7
STYLE1
100
AcDbText
  0
TEXT
  5
16C57
330
747D
100
AcDbEntity
  8
文字
 62
     7
 48
50.0
100
AcDbText
 10
13271.19032244792
 20
11100.01374588373
 30
0.0
 40
100.0
  1
1
  7
STYLE1
100
AcDbText
  0
TEXT
  5
16C58
330
747D
100
AcDbEntity
  8
文字
 62
     7
 48
50.0
100
AcDbText
 10
13197.42518560407
 20
11270.01374588372
 30
0.0
 40
100.0
  1
品番
  7
STYLE1
100
AcDbText
  0
LINE
  5
16C59
330
747D
100
AcDbEntity
  8
仕様書枠
 48
50.0
100
AcDbLine
 10
16307.19999999999
 20
10729.59999999999
 30
0.0
 11
13127.2
 21
10729.6
 31
0.0
  0
LINE
  5
16C5A
330
747D
100
AcDbEntity
  8
仕様書枠
 48
50.0
100
AcDbLine
 10
16307.19999999999
 20
10389.6
 30
0.0
 11
13127.2
 21
10389.6
 31
0.0
  0
LINE
  5
16C5B
330
747D
100
AcDbEntity
  8
仕様書枠
 48
50.0
100
AcDbLine
 10
16307.19999999999
 20
10559.6
 30
0.0
 11
13127.2
 21
10559.6
 31
0.0
  0
LINE
  5
16C5C
330
747D
100
AcDbEntity
  8
仕様書枠
 48
50.0
100
AcDbLine
 10
16307.2
 20
11069.59999999999
 30
0.0
 11
13127.2
 21
11069.6
 31
0.0
  0
LINE
  5
16C5D
330
747D
100
AcDbEntity
  8
仕様書枠
 48
50.0
100
AcDbLine
 10
16307.2
 20
10899.6
 30
0.0
 11
13127.2
 21
10899.6
 31
0.0
  0
LINE
  5
16C5E
330
747D
100
AcDbEntity
  8
仕様書枠
 48
50.0
100
AcDbLine
 10
16307.2
 20
11239.59999999999
 30
0.0
 11
13127.2
 21
11239.6
 31
0.0
  0
LINE
  5
16C5F
330
747D
100
AcDbEntity
  8
仕様書枠
 48
50.0
100
AcDbLine
 10
13490.2
 20
11409.59999999999
 30
0.0
 11
13490.20000000001
 21
8349.600000000007
 31
0.0
  0
LINE
  5
16C60
330
747D
100
AcDbEntity
  8
仕様書枠
 48
50.0
100
AcDbLine
 10
14785.2
 20
11409.59999999999
 30
0.0
 11
14785.2
 21
8349.600000000004
 31
0.0
  0
LINE
  5
16C61
330
747D
100
AcDbEntity
  8
仕様書枠
 48
50.0
100
AcDbLine
 10
16307.19999999999
 20
8009.600000000004
 30
0.0
 11
16307.2
 21
11409.6
 31
0.0
  0
LINE
  5
16C62
330
747D
100
AcDbEntity
  8
仕様書枠
 48
50.0
100
AcDbLine
 10
16307.2
 20
11409.59999999999
 30
0.0
 11
13127.2
 21
11409.6
 31
0.0
  0
LINE
  5
16C63
330
747D
100
AcDbEntity
  8
仕様書枠
 48
50.0
100
AcDbLine
 10
16307.2
 20
10049.6
 30
0.0
 11
13127.2
 21
10049.6
 31
0.0
  0
TEXT
  5
16C64
330
747D
100
AcDbEntity
  8
文字
 62
     7
 48
50.0
100
AcDbText
 10
15022.63965474515
 20
8380.013745883724
 30
0.0
 40
100.0
  1
F12            2.3
  7
STYLE1
100
AcDbText
  0
TEXT
  5
16C65
330
747D
100
AcDbEntity
  8
文字
 62
     7
 48
50.0
100
AcDbText
 10
13583.11819016569
 20
8380.013745883728
 30
0.0
 40
100.0
  1
アンカープレート
  7
STYLE1
100
AcDbText
  0
LINE
  5
16C66
330
747D
100
AcDbEntity
  8
仕様書枠
 48
50.0
100
AcDbLine
 10
16307.19999999999
 20
8519.600000000004
 30
0.0
 11
13127.2
 21
8519.600000000005
 31
0.0
  0
LINE
  5
16C67
330
747D
100
AcDbEntity
  8
仕様書枠
 48
50.0
100
AcDbLine
 10
16307.19999999999
 20
8689.600000000003
 30
0.0
 11
13127.2
 21
8689.600000000005
 31
0.0
  0
TEXT
  5
16C68
330
747D
100
AcDbEntity
  8
文字
 62
     7
 48
50.0
100
AcDbText
 10
13583.11819016569
 20
9400.013745883729
 30
0.0
 40
100.0
  1
壁面扉鴨居
  7
STYLE1
100
AcDbText
  0
TEXT
  5
16C69
330
747D
100
AcDbEntity
  8
文字
 62
     7
 48
50.0
100
AcDbText
 10
13583.11819016569
 20
9230.013745883733
 30
0.0
 40
100.0
  1
壁面扉敷居
  7
STYLE1
100
AcDbText
  0
TEXT
  5
16C6A
330
747D
100
AcDbEntity
  8
文字
 62
     7
 48
50.0
100
AcDbText
 10
15022.63965474515
 20
9400.013745883727
 30
0.0
 40
100.0
  1
F12            0.7
  7
STYLE1
100
AcDbText
  0
TEXT
  5
16C6B
330
747D
100
AcDbEntity
  8
文字
 62
     7
 48
50.0
100
AcDbText
 10
15022.63965474517
 20
9230.013745883725
 30
0.0
 40
100.0
  1
F12            1.0
  7
STYLE1
100
AcDbText
  0
TEXT
  5
16C6C
330
747D
100
AcDbEntity
  8
文字
 62
     7
 48
50.0
100
AcDbText
 10
13583.11819016569
 20
9060.013745883733
 30
0.0
 40
100.0
  1
壁面扉枠左右
  7
STYLE1
100
AcDbText
  0
TEXT
  5
16C6D
330
747D
100
AcDbEntity
  8
文字
 62
     7
 48
50.0
100
AcDbText
 10
15022.63965474517
 20
9060.013745883725
 30
0.0
 40
100.0
  1
F12            1.0
  7
STYLE1
100
AcDbText
  0
TEXT
  5
16C6E
330
747D
100
AcDbEntity
  8
文字
 62
     7
 48
50.0
100
AcDbText
 10
13248.77747366447
 20
8550.013745883729
 30
0.0
 40
100.0
  1
16
  7
STYLE1
100
AcDbText
  0
TEXT
  5
16C6F
330
747D
100
AcDbEntity
  8
文字
 62
     7
 48
50.0
100
AcDbText
 10
13248.77747366447
 20
8380.013745883728
 30
0.0
 40
100.0
  1
17
  7
STYLE1
100
AcDbText
  0
LINE
  5
16C70
330
747D
100
AcDbEntity
  8
部品1
100
AcDbLine
 10
10692.61369209438
 20
1294.927189768745
 30
0.0
 11
9929.143025865945
 21
1294.927189768745
 31
0.0
  0
LINE
  5
16C71
330
747D
100
AcDbEntity
  8
部品1
100
AcDbLine
 10
10692.61369209438
 20
1055.034868223212
 30
0.0
 11
10692.61369209438
 21
1294.927189768745
 31
0.0
  0
LINE
  5
16C72
330
747D
100
AcDbEntity
  8
部品1
100
AcDbLine
 10
9929.143025865945
 20
1055.034868223212
 30
0.0
 11
10692.61369209438
 21
1055.034868223212
 31
0.0
  0
LINE
  5
16C73
330
747D
100
AcDbEntity
  8
部品1
100
AcDbLine
 10
9929.143025865945
 20
1294.927189768745
 30
0.0
 11
9929.143025865945
 21
1055.034868223212
 31
0.0
  0
LINE
  5
16C74
330
747D
100
AcDbEntity
  8
部品1
100
AcDbLine
 10
11177.87835898016
 20
2324.242732743724
 30
0.0
 11
11205.87835898016
 21
2324.242732743724
 31
0.0
  0
LINE
  5
16C75
330
747D
100
AcDbEntity
  8
部品1
 48
50.0
100
AcDbLine
 10
9443.878358980164
 20
2274.242732743704
 30
0.0
 11
11177.87835898016
 21
2274.242732743704
 31
0.0
  0
LINE
  5
16C76
330
747D
100
AcDbEntity
  8
部品1
100
AcDbLine
 10
9470.878358980163
 20
4114.2427327437
 30
0.0
 11
9470.878358980163
 21
4109.242732743703
 31
0.0
  0
LINE
  5
16C77
330
747D
100
AcDbEntity
  8
部品1
100
AcDbLine
 10
11150.87835898016
 20
4114.242732743703
 30
0.0
 11
11150.87835898016
 21
4109.242732743703
 31
0.0
  0
LINE
  5
16C78
330
747D
100
AcDbEntity
  8
部品1
100
AcDbLine
 10
9415.878358980164
 20
2324.242732743707
 30
0.0
 11
9443.878358980164
 21
2324.242732743707
 31
0.0
  0
TEXT
  5
16C79
330
747D
100
AcDbEntity
  8
部品1
100
AcDbText
 10
10019.6684296039
 20
1102.033660550221
 30
0.0
 40
135.0
  1
正面図
  7
STYLE2
100
AcDbText
  0
DIMENSION
  5
16C7A
330
747D
100
AcDbEntity
  8
寸法
 48
50.0
100
AcDbDimension
  2
*D20
 10
9315.878358980164
 20
1688.195403443326
 30
0.0
 11
9415.878358980164
 21
1688.195403443326
 31
0.0
 70
   160
 71
     5
 42
200.0000000000018
  3
INABA_S40G
100
AcDbAlignedDimension
 13
9515.878358980165
 23
1974.242732743703
 33
0.0
 14
9315.878358980164
 24
1974.242732743703
 34
0.0
100
AcDbRotatedDimension
  0
LINE
  5
16C7B
330
747D
100
AcDbEntity
  8
破線
 48
5.0
100
AcDbLine
 10
9410.878358980165
 20
2174.242732743703
 30
0.0
 11
9410.878358980165
 21
2019.242732743704
 31
0.0
  0
LINE
  5
16C7C
330
747D
100
AcDbEntity
  8
破線
 48
5.0
100
AcDbLine
 10
11210.87835898016
 20
2174.242732743703
 30
0.0
 11
11210.87835898016
 21
2019.242732743704
 31
0.0
  0
LINE
  5
16C7D
330
747D
100
AcDbEntity
  8
破線
 48
5.0
100
AcDbLine
 10
9515.878358980165
 20
2174.242732743703
 30
0.0
 11
9515.878358980165
 21
1974.242732743703
 31
0.0
  0
LINE
  5
16C7E
330
747D
100
AcDbEntity
  8
破線
 48
5.0
100
AcDbLine
 10
9390.878358980165
 20
2019.242732743704
 30
0.0
 11
9410.878358980166
 21
2019.242732743704
 31
0.0
  0
LINE
  5
16C7F
330
747D
100
AcDbEntity
  8
破線
 48
5.0
100
AcDbLine
 10
9315.878358980164
 20
2174.242732743703
 30
0.0
 11
9315.878358980164
 21
1974.242732743703
 31
0.0
  0
LINE
  5
16C80
330
747D
100
AcDbEntity
  8
破線
 48
5.0
100
AcDbLine
 10
9315.878358980164
 20
1974.242732743703
 30
0.0
 11
9515.878358980165
 21
1974.242732743703
 31
0.0
  0
LINE
  5
16C81
330
747D
100
AcDbEntity
  8
部品1
100
AcDbLine
 10
9410.878358980165
 20
2319.242732743706
 30
0.0
 11
9410.878358980165
 21
2174.242732743703
 31
0.0
  0
LINE
  5
16C82
330
747D
100
AcDbEntity
  8
破線
 48
5.0
100
AcDbLine
 10
11230.87835898016
 20
2019.242732743704
 30
0.0
 11
11210.87835898016
 21
2019.242732743704
 31
0.0
  0
LINE
  5
16C83
330
747D
100
AcDbEntity
  8
破線
 48
5.0
100
AcDbLine
 10
11305.87835898016
 20
2174.242732743703
 30
0.0
 11
11305.87835898016
 21
1974.242732743703
 31
0.0
  0
LINE
  5
16C84
330
747D
100
AcDbEntity
  8
破線
 48
5.0
100
AcDbLine
 10
11105.87835898016
 20
2174.242732743703
 30
0.0
 11
11105.87835898016
 21
1974.242732743703
 31
0.0
  0
LINE
  5
16C85
330
747D
100
AcDbEntity
  8
破線
 48
5.0
100
AcDbLine
 10
11305.87835898016
 20
1974.242732743703
 30
0.0
 11
11105.87835898016
 21
1974.242732743703
 31
0.0
  0
LINE
  5
16C86
330
747D
100
AcDbEntity
  8
部品1
100
AcDbLine
 10
11210.87835898016
 20
2319.242732743703
 30
0.0
 11
11210.87835898016
 21
2174.242732743703
 31
0.0
  0
LINE
  5
16C87
330
747D
100
AcDbEntity
  8
部品1
 48
50.0
100
AcDbLine
 10
10410.87835898016
 20
2274.242732743704
 30
0.0
 11
10410.87835898016
 21
2174.242732743703
 31
0.0
  0
LINE
  5
16C88
330
747D
100
AcDbEntity
  8
部品1
 48
50.0
100
AcDbLine
 10
10210.87835898016
 20
2274.242732743704
 30
0.0
 11
10210.87835898016
 21
2174.242732743703
 31
0.0
  0
LINE
  5
16C89
330
747D
100
AcDbEntity
  8
部品1
100
AcDbLine
 10
9815.878358980164
 20
2274.242732743704
 30
0.0
 11
9815.878358980164
 21
2174.242732743703
 31
0.0
  0
LINE
  5
16C8A
330
747D
100
AcDbEntity
  8
部品1
100
AcDbLine
 10
10805.87835898016
 20
2274.242732743704
 30
0.0
 11
10805.87835898016
 21
2174.242732743703
 31
0.0
  0
LINE
  5
16C8B
330
747D
100
AcDbEntity
  8
部品1
100
AcDbLine
 10
11205.87835898016
 20
4167.742732743703
 30
0.0
 11
11205.87835898016
 21
2174.242732743703
 31
0.0
  0
LINE
  5
16C8C
330
747D
100
AcDbEntity
  8
部品1
100
AcDbLine
 10
9415.878358980165
 20
4167.742732743703
 30
0.0
 11
9415.878358980164
 21
2174.242732743703
 31
0.0
  0
LINE
  5
16C8D
330
747D
100
AcDbEntity
  8
部品1
100
AcDbLine
 10
9415.878358980164
 20
4114.242732743703
 30
0.0
 11
11205.87835898016
 21
4114.242732743703
 31
0.0
  0
LINE
  5
16C8E
330
747D
100
AcDbEntity
  8
部品1
100
AcDbLine
 10
9415.878358980164
 20
2274.242732743704
 30
0.0
 11
11205.87835898016
 21
2274.242732743704
 31
0.0
  0
LINE
  5
16C8F
330
747D
100
AcDbEntity
  8
Ｇ．Ｌ
100
AcDbLine
 10
2741.30017209964
 20
2174.242732743703
 30
0.0
 11
11839.89993274892
 21
2174.242732743703
 31
0.0
  0
TEXT
  5
16C90
330
747D
100
AcDbEntity
  8
文字
 62
     7
 48
50.0
100
AcDbText
 10
13209.4053442172
 20
228.543524256902
 30
0.0
 40
100.0
  1
○有効開口寸法 ： 950×1725(mm)
  7
STYLE2
100
AcDbText
  0
LINE
  5
16C91
330
747D
100
AcDbEntity
  8
部品1
100
AcDbLine
 10
11177.87835898016
 20
8458.30239245584
 30
0.0
 11
11177.87835898015
 21
7183.802392455859
 31
0.0
  0
DIMENSION
  5
16C92
330
747D
100
AcDbEntity
  8
寸法
100
AcDbDimension
  2
*D21
 10
10522.51808265126
 20
8538.792614270764
 30
0.0
 11
10522.51808265126
 21
9148.748457885991
 31
0.0
 70
   160
 71
     5
 42
1273.000000000071
  3
INABA_S40G
100
AcDbAlignedDimension
 13
10725.87835898023
 23
9757.302392455919
 33
0.0
 14
10725.87835898022
 24
8484.302392455848
 34
0.0
 50
270.0
100
AcDbRotatedDimension
1001
ACAD
1000
DSTYLE
1002
{
1002
}
  0
DIMENSION
  5
16C93
330
747D
100
AcDbEntity
  8
寸法
100
AcDbDimension
  2
*D22
 10
10524.01940129576
 20
7238.390337152392
 30
0.0
 11
10524.01940129576
 21
7855.008278694906
 31
0.0
 70
   160
 71
     5
 42
1273.000000000012
  3
INABA_S40G
100
AcDbAlignedDimension
 13
10725.87835898029
 23
8457.302392455849
 33
0.0
 14
10725.87835898028
 24
7184.302392455837
 34
0.0
 50
270.0
100
AcDbRotatedDimension
1001
ACAD
1000
DSTYLE
1002
{
1002
}
  0
LINE
  5
16C94
330
747D
100
AcDbEntity
  8
部品1
100
AcDbLine
 10
11175.87835898022
 20
7184.30239245584
 30
0.0
 11
10725.87835898022
 21
7184.30239245584
 31
0.0
  0
LINE
  5
16C95
330
747D
100
AcDbEntity
  8
部品1
100
AcDbLine
 10
11195.87835898022
 20
8505.802392455839
 30
0.0
 11
11177.87835898022
 21
8505.802392455839
 31
0.0
  0
LINE
  5
16C96
330
747D
100
AcDbEntity
  8
部品1
100
AcDbLine
 10
11195.87835898022
 20
8505.802392455839
 30
0.0
 11
11195.87835898022
 21
8499.802392455841
 31
0.0
  0
LINE
  5
16C97
330
747D
100
AcDbEntity
  8
部品1
100
AcDbLine
 10
11195.87835898022
 20
8435.80239245584
 30
0.0
 11
11177.87835898022
 21
8435.80239245584
 31
0.0
  0
LINE
  5
16C98
330
747D
100
AcDbEntity
  8
部品1
100
AcDbLine
 10
11195.87835898022
 20
8441.802392455839
 30
0.0
 11
11195.87835898022
 21
8435.80239245584
 31
0.0
  0
LINE
  5
16C99
330
747D
100
AcDbEntity
  8
部品1
100
AcDbLine
 10
11169.87835898022
 20
8483.30239245584
 30
0.0
 11
11169.87835898022
 21
8458.30239245584
 31
0.0
  0
LINE
  5
16C9A
330
747D
100
AcDbEntity
  8
部品1
100
AcDbLine
 10
10725.87835898022
 20
8483.30239245584
 30
0.0
 11
10725.87835898022
 21
8458.30239245584
 31
0.0
  0
LINE
  5
16C9B
330
747D
100
AcDbEntity
  8
部品1
 48
50.0
100
AcDbLine
 10
11175.87835898022
 20
8484.302392455841
 30
0.0
 11
10725.87835898022
 21
8484.302392455841
 31
0.0
  0
LINE
  5
16C9C
330
747D
100
AcDbEntity
  8
部品1
 48
50.0
100
AcDbLine
 10
11175.87835898022
 20
8457.30239245584
 30
0.0
 11
10725.87835898022
 21
8457.30239245584
 31
0.0
  0
LINE
  5
16C9D
330
747D
100
AcDbEntity
  8
部品1
 48
50.0
100
AcDbLine
 10
11177.87835898023
 20
8483.302392455842
 30
0.0
 11
10725.87835898022
 21
8483.30239245584
 31
0.0
  0
LINE
  5
16C9E
330
747D
100
AcDbEntity
  8
部品1
 48
50.0
100
AcDbLine
 10
11177.87835898023
 20
8458.30239245584
 30
0.0
 11
10725.87835898022
 21
8458.30239245584
 31
0.0
  0
LINE
  5
16C9F
330
747D
100
AcDbEntity
  8
細線
 48
50.0
100
AcDbLine
 10
11175.87835898022
 20
7184.30239245584
 30
0.0
 11
10725.87835898022
 21
8457.302392455842
 31
0.0
  0
LINE
  5
16CA0
330
747D
100
AcDbEntity
  8
部品1
100
AcDbLine
 10
11175.87835898022
 20
8457.30239245584
 30
0.0
 11
11175.87835898022
 21
7184.30239245584
 31
0.0
  0
LINE
  5
16CA1
330
747D
100
AcDbEntity
  8
部品1
100
AcDbLine
 10
10725.87835898022
 20
8457.302392455842
 30
0.0
 11
10725.87835898022
 21
7184.30239245584
 31
0.0
  0
LINE
  5
16CA2
330
747D
100
AcDbEntity
  8
細線
 48
50.0
100
AcDbLine
 10
10725.87835898022
 20
7184.30239245584
 30
0.0
 11
11175.87835898022
 21
8457.30239245584
 31
0.0
  0
LINE
  5
16CA3
330
747D
100
AcDbEntity
  8
部品1
 48
50.0
100
AcDbLine
 10
11175.87835898022
 20
9757.302392455912
 30
0.0
 11
10725.87835898022
 21
9757.302392455912
 31
0.0
  0
LINE
  5
16CA4
330
747D
100
AcDbEntity
  8
細線
 48
50.0
100
AcDbLine
 10
10725.87835898022
 20
8484.302392455843
 30
0.0
 11
11175.87835898017
 21
9757.302392455912
 31
0.0
  0
LINE
  5
16CA5
330
747D
100
AcDbEntity
  8
細線
 48
50.0
100
AcDbLine
 10
11175.87835898022
 20
8484.302392455841
 30
0.0
 11
10725.87835898017
 21
9757.302392455912
 31
0.0
  0
LINE
  5
16CA6
330
747D
100
AcDbEntity
  8
部品1
100
AcDbLine
 10
11175.87835898017
 20
9757.302392455912
 30
0.0
 11
11175.87835898023
 21
8484.302392455841
 31
0.0
  0
LINE
  5
16CA7
330
747D
100
AcDbEntity
  8
部品1
100
AcDbLine
 10
10725.87835898017
 20
9757.302392455912
 30
0.0
 11
10725.87835898022
 21
8484.302392455843
 31
0.0
  0
LINE
  5
16CA9
330
747D
100
AcDbEntity
  8
破線
 48
10.0
100
AcDbLine
 10
9495.878358980139
 20
9705.802392455986
 30
0.0
 11
10725.87835898017
 21
9705.802392455973
 31
0.0
  0
LINE
  5
16CAA
330
747D
100
AcDbEntity
  8
部品1
 48
50.0
100
AcDbLine
 10
9472.378358980144
 20
9729.302392455963
 30
0.0
 11
9443.878358980176
 21
9757.802392455779
 31
0.0
  0
LINE
  5
16CAB
330
747D
100
AcDbEntity
  8
部品1
 48
50.0
100
AcDbLine
 10
10725.87835898017
 20
9729.302392455899
 30
0.0
 11
9472.378358980158
 21
9729.302392455963
 31
0.0
  0
LINE
  5
16CAE
330
747D
100
AcDbEntity
  8
部品1
100
AcDbLine
 10
11177.87835898017
 20
9310.802392455876
 30
0.0
 11
11205.87835898017
 21
9310.802392455876
 31
0.0
  0
LINE
  5
16CAF
330
747D
100
AcDbEntity
  8
部品1
100
AcDbLine
 10
9443.87835898015
 20
9310.802392455746
 30
0.0
 11
9415.878358980149
 21
9310.802392455746
 31
0.0
  0
LINE
  5
16CB4
330
747D
100
AcDbEntity
  8
部品1
100
AcDbLine
 10
11177.87835898018
 20
8470.802392455878
 30
0.0
 11
11205.87835898018
 21
8470.802392455878
 31
0.0
  0
LINE
  5
16CB5
330
747D
100
AcDbEntity
  8
部品1
100
AcDbLine
 10
9443.878358980153
 20
8470.802392455748
 30
0.0
 11
9415.878358980153
 21
8470.802392455748
 31
0.0
  0
LINE
  5
16CB7
330
747D
100
AcDbEntity
  8
部品1
 48
50.0
100
AcDbLine
 10
11150.87835898014
 20
7155.80239245586
 30
0.0
 11
11150.87835898014
 21
7183.802392455858
 31
0.0
  0
LINE
  5
16CB8
330
747D
100
AcDbEntity
  8
部品1
 48
50.0
100
AcDbLine
 10
9470.878358980138
 20
7155.802392455703
 30
0.0
 11
9470.878358980142
 21
7183.802392455702
 31
0.0
  0
LINE
  5
16CB9
330
747D
100
AcDbEntity
  8
部品1
 48
50.0
100
AcDbLine
 10
11150.87835898014
 20
7155.80239245586
 30
0.0
 11
11205.87835898015
 21
7155.802392455864
 31
0.0
  0
LINE
  5
16CBA
330
747D
100
AcDbEntity
  8
部品1
 48
50.0
100
AcDbLine
 10
9443.878358980146
 20
7183.802392455702
 30
0.0
 11
11177.87835898015
 21
7183.802392455859
 31
0.0
  0
LINE
  5
16CBB
330
747D
100
AcDbEntity
  8
部品1
 48
50.0
100
AcDbLine
 10
9415.878358980169
 20
7155.802392455701
 30
0.0
 11
9470.878358980138
 21
7155.802392455706
 31
0.0
  0
LINE
  5
16CBC
330
747D
100
AcDbEntity
  8
部品1
100
AcDbLine
 10
9443.878358980143
 20
7210.802392455732
 30
0.0
 11
9415.878358980142
 21
7210.802392455732
 31
0.0
  0
LINE
  5
16CBD
330
747D
100
AcDbEntity
  8
部品1
100
AcDbLine
 10
11177.87835898017
 20
7210.802392455604
 30
0.0
 11
11205.87835898017
 21
7210.802392455604
 31
0.0
  0
LINE
  5
16CBF
330
747D
100
AcDbEntity
  8
部品1
 48
50.0
100
AcDbLine
 10
9472.378358980162
 20
7212.302392455858
 30
0.0
 11
9443.878358980162
 21
7183.802392455859
 31
0.0
  0
LINE
  5
16CC0
330
747D
100
AcDbEntity
  8
破線
 48
10.0
100
AcDbLine
 10
9495.87835898014
 20
9705.802392455982
 30
0.0
 11
9495.878358980148
 21
8915.802392455846
 31
0.0
  0
LINE
  5
16CC1
330
747D
100
AcDbEntity
  8
部品1
100
AcDbLine
 10
9472.378358980144
 20
9729.302392455963
 30
0.0
 11
9472.378358980163
 21
7212.302392455862
 31
0.0
  0
LINE
  5
16CC2
330
747D
100
AcDbEntity
  8
破線
 48
10.0
100
AcDbLine
 10
10725.87835898022
 20
7235.802392455835
 30
0.0
 11
9495.878358980156
 21
7235.802392455763
 31
0.0
  0
LINE
  5
16CC4
330
747D
100
AcDbEntity
  8
部品1
100
AcDbLine
 10
10725.87835898022
 20
7212.302392455836
 30
0.0
 11
9472.378358980066
 21
7212.302392455764
 31
0.0
  0
DIMENSION
  5
16CC8
330
747D
100
AcDbEntity
  8
寸法
100
AcDbDimension
  2
*D23
 10
11150.87835898017
 20
10077.00755701985
 30
0.0
 11
10310.87835898017
 21
10077.00755701985
 31
0.0
 70
   160
  1
4X420=<>
 71
     5
 42
1680.0
  3
INABA_S40G
100
AcDbAlignedDimension
 13
9470.878358980176
 23
9785.802392455778
 33
0.0
 14
11150.87835898017
 24
9785.802392455874
 34
0.0
100
AcDbRotatedDimension
1001
ACAD
1000
DSTYLE
1002
{
1002
}
  0
LINE
  5
16CC9
330
747D
100
AcDbEntity
  8
部品1
100
AcDbLine
 10
9415.878358980176
 20
9785.802392455778
 30
0.0
 11
11205.87835898017
 21
9785.802392455874
 31
0.0
  0
DIMENSION
  5
16CCA
330
747D
100
AcDbEntity
  8
寸法
100
AcDbDimension
  2
*D24
 10
11205.87835898017
 20
10077.00755701983
 30
0.0
 11
11514.36364035441
 21
10077.00755701983
 31
0.0
 70
   160
 71
     5
 42
55.0
  3
INABA_S40G
100
AcDbAlignedDimension
 13
11150.87835898017
 23
9785.802392455874
 33
0.0
 14
11205.87835898017
 24
9785.802392455874
 34
0.0
100
AcDbRotatedDimension
1001
ACAD
1000
DSTYLE
1002
{
1002
}
  0
LINE
  5
16CCB
330
747D
100
AcDbEntity
  8
部品1
100
AcDbLine
 10
11177.87835898017
 20
9730.802392455878
 30
0.0
 11
11205.87835898017
 21
9730.802392455878
 31
0.0
  0
LINE
  5
16CCC
330
747D
100
AcDbEntity
  8
部品1
100
AcDbLine
 10
11177.87835898017
 20
8890.802392455876
 30
0.0
 11
11205.87835898017
 21
8890.802392455876
 31
0.0
  0
LINE
  5
16CCD
330
747D
100
AcDbEntity
  8
部品1
100
AcDbLine
 10
9443.878358980176
 20
9757.802392455907
 30
0.0
 11
11177.87835898017
 21
9757.802392455873
 31
0.0
  0
LINE
  5
16CCE
330
747D
100
AcDbEntity
  8
部品1
100
AcDbLine
 10
11177.87835898018
 20
7630.802392455876
 30
0.0
 11
11205.87835898018
 21
7630.802392455876
 31
0.0
  0
LINE
  5
16CCF
330
747D
100
AcDbEntity
  8
部品1
100
AcDbLine
 10
11177.87835898017
 20
9757.802392455873
 30
0.0
 11
11177.87835898016
 21
8483.302392455845
 31
0.0
  0
LINE
  5
16CD0
330
747D
100
AcDbEntity
  8
部品1
100
AcDbLine
 10
9443.878358980143
 20
9730.80239245575
 30
0.0
 11
9415.878358980142
 21
9730.80239245575
 31
0.0
  0
LINE
  5
16CD1
330
747D
100
AcDbEntity
  8
部品1
100
AcDbLine
 10
9443.87835898015
 20
8890.802392455746
 30
0.0
 11
9415.878358980149
 21
8890.802392455746
 31
0.0
  0
LINE
  5
16CD2
330
747D
100
AcDbEntity
  8
部品1
100
AcDbLine
 10
9443.878358980153
 20
7630.802392455747
 30
0.0
 11
9415.878358980153
 21
7630.802392455747
 31
0.0
  0
LINE
  5
16CD3
330
747D
100
AcDbEntity
  8
部品1
100
AcDbLine
 10
9443.878358980148
 20
7183.802392455702
 30
0.0
 11
9443.878358980176
 21
9757.802392455779
 31
0.0
  0
DIMENSION
  5
16CD6
330
747D
100
AcDbEntity
  8
寸法
100
AcDbDimension
  2
*D25
 10
11853.30470471459
 20
7210.80239245586
 30
0.0
 11
11853.30470471458
 21
8470.802392455867
 31
0.0
 70
   160
  1
6X420=<>
 71
     5
 42
2520.000000000016
  3
INABA_S40G
100
AcDbAlignedDimension
 13
11205.87835898017
 23
9730.802392455878
 33
0.0
 14
11205.87835898015
 24
7210.80239245586
 34
0.0
 50
90.0
100
AcDbRotatedDimension
1001
ACAD
1000
DSTYLE
1002
{
1002
}
  0
DIMENSION
  5
16CD7
330
747D
100
AcDbEntity
  8
寸法
100
AcDbDimension
  2
*D26
 10
11853.30470471456
 20
7155.802392455864
 30
0.0
 11
11853.30470471456
 21
6777.940925551003
 31
0.0
 70
   160
 71
     5
 42
54.99999999999636
  3
INABA_S40G
100
AcDbAlignedDimension
 13
11205.87835898015
 23
7210.80239245586
 33
0.0
 14
11205.87835898015
 24
7155.802392455864
 34
0.0
 50
90.0
100
AcDbRotatedDimension
1001
ACAD
1000
DSTYLE
1002
{
1002
}
  0
DIMENSION
  5
16CD8
330
747D
100
AcDbEntity
  8
寸法
100
AcDbDimension
  2
*D27
 10
11853.30470471458
 20
9730.802392455878
 30
0.0
 11
11853.30470471458
 21
10094.28767383011
 31
0.0
 70
   160
 71
     5
 42
54.99999999999636
  3
INABA_S40G
100
AcDbAlignedDimension
 13
11205.87835898017
 23
9785.802392455874
 33
0.0
 14
11205.87835898017
 24
9730.802392455878
 34
0.0
 50
90.0
100
AcDbRotatedDimension
1001
ACAD
1000
DSTYLE
1002
{
1002
}
  0
LINE
  5
16CD9
330
747D
100
AcDbEntity
  8
部品1
100
AcDbLine
 10
9470.878358980176
 20
9785.802392455778
 30
0.0
 11
9470.878358980176
 21
9757.802392455779
 31
0.0
  0
LINE
  5
16CDA
330
747D
100
AcDbEntity
  8
部品1
100
AcDbLine
 10
9890.878358980176
 20
9785.802392455778
 30
0.0
 11
9890.878358980176
 21
9757.802392455779
 31
0.0
  0
LINE
  5
16CDB
330
747D
100
AcDbEntity
  8
部品1
100
AcDbLine
 10
9890.878358980176
 20
9785.802392455778
 30
0.0
 11
9890.878358980176
 21
9757.802392455777
 31
0.0
  0
LINE
  5
16CDC
330
747D
100
AcDbEntity
  8
部品1
100
AcDbLine
 10
9890.878358980176
 20
9785.802392455893
 30
0.0
 11
9890.878358980176
 21
9757.802392455893
 31
0.0
  0
LINE
  5
16CDD
330
747D
100
AcDbEntity
  8
部品1
100
AcDbLine
 10
10310.87835898017
 20
9785.802392455893
 30
0.0
 11
10310.87835898017
 21
9757.802392455893
 31
0.0
  0
LINE
  5
16CDE
330
747D
100
AcDbEntity
  8
部品1
100
AcDbLine
 10
10730.87835898017
 20
9785.802392455893
 30
0.0
 11
10730.87835898017
 21
9757.802392455893
 31
0.0
  0
LINE
  5
16CDF
330
747D
100
AcDbEntity
  8
部品1
100
AcDbLine
 10
11205.87835898017
 20
9785.802392455874
 30
0.0
 11
11205.87835898015
 21
7155.802392455864
 31
0.0
  0
DIMENSION
  5
16CE0
330
747D
100
AcDbEntity
  8
寸法
100
AcDbDimension
  2
*D28
 10
12163.14971642208
 20
7155.802392455864
 30
0.0
 11
12163.14971642208
 21
8417.365314999988
 31
0.0
 70
   160
 71
     5
 42
2630.000000000008
  3
INABA_S40G
100
AcDbAlignedDimension
 13
11205.87835898017
 23
9785.802392455874
 33
0.0
 14
11205.87835898015
 24
7155.802392455864
 34
0.0
 50
90.0
100
AcDbRotatedDimension
1001
ACAD
1000
DSTYLE
1002
{
1002
}
  0
LINE
  5
16CE1
330
747D
100
AcDbEntity
  8
部品1
100
AcDbLine
 10
11150.87835898017
 20
9785.802392455893
 30
0.0
 11
11150.87835898017
 21
9757.802392455893
 31
0.0
  0
LINE
  5
16CE2
330
747D
100
AcDbEntity
  8
部品1
100
AcDbLine
 10
11150.87835898017
 20
9785.802392455874
 30
0.0
 11
11150.87835898017
 21
9757.802392455873
 31
0.0
  0
LINE
  5
16CE3
330
747D
100
AcDbEntity
  8
部品1
100
AcDbLine
 10
9415.878358980139
 20
9785.802392455746
 30
0.0
 11
9415.878358980169
 21
7155.802392455735
 31
0.0
  0
LINE
  5
16CE4
330
747D
100
AcDbEntity
  8
部品1
100
AcDbLine
 10
9470.878358980138
 20
9785.802392455746
 30
0.0
 11
9470.878358980142
 21
9757.802392455745
 31
0.0
  0
DIMENSION
  5
16CE5
330
747D
100
AcDbEntity
  8
寸法
100
AcDbDimension
  2
*D29
 10
9470.878358980176
 20
10077.00755701974
 30
0.0
 11
9107.3930776059
 21
10077.00755701974
 31
0.0
 70
   160
 71
     5
 42
55.00000000003637
  3
INABA_S40G
100
AcDbAlignedDimension
 13
9415.878358980139
 23
9785.802392455778
 33
0.0
 14
9470.878358980176
 24
9785.802392455778
 34
0.0
100
AcDbRotatedDimension
1001
ACAD
1000
DSTYLE
1002
{
1002
}
  0
LINE
  5
16F91
330
747D
100
AcDbEntity
  8
補助
  6
PHANTOM
 62
   230
 48
50.0
100
AcDbLine
 10
140.0
 20
0.0
 30
0.0
 11
140.0
 21
11409.6
 31
0.0
  0
MTEXT
  5
17103
330
747D
100
AcDbEntity
  8
寸法
 62
     7
 48
50.0
100
AcDbMText
 10
10800.59356739629
 20
7816.319342233009
 30
0.0
 40
96.0
 41
0.0
 71
     5
 72
     1
  1
棚 2段
  7
STYLE1
 11
0.0000000000000003
 21
1.0
 31
0.0
 73
     1
 44
1.0
1001
ACAD
1000
MTEXTBEGIN
1070
    73
1070
     1
1070
    44
1040
1.0
1070
    74
1070
     0
1000
MTEXTEND
  0
LINE
  5
1745B
330
747D
100
AcDbEntity
  8
部品1
 48
50.0
100
AcDbLine
 10
5493.781329642918
 20
2274.242732743704
 30
0.0
 11
5493.781329642918
 21
2174.242732743703
 31
0.0
  0
LINE
  5
1745C
330
747D
100
AcDbEntity
  8
部品1
 48
50.0
100
AcDbLine
 10
5693.781329642918
 20
2274.242732743704
 30
0.0
 11
5693.781329642918
 21
2174.242732743703
 31
0.0
  0
LINE
  5
1745D
330
747D
100
AcDbEntity
  8
部品1
 48
50.0
100
AcDbLine
 10
6323.781329642919
 20
2274.242732743704
 30
0.0
 11
6323.781329642919
 21
2174.242732743703
 31
0.0
  0
LINE
  5
1745E
330
747D
100
AcDbEntity
  8
部品1
 48
50.0
100
AcDbLine
 10
6523.781329642918
 20
2274.242732743704
 30
0.0
 11
6523.781329642918
 21
2174.242732743703
 31
0.0
  0
LINE
  5
1745F
330
747D
100
AcDbEntity
  8
部品1
100
AcDbLine
 10
4741.281329642919
 20
2274.242732743704
 30
0.0
 11
7276.281329642917
 21
2274.242732743704
 31
0.0
  0
LINE
  5
17460
330
747D
100
AcDbEntity
  8
部品1
100
AcDbLine
 10
7316.281329642918
 20
2274.242732743704
 30
0.0
 11
7323.781329642921
 21
2274.242732743704
 31
0.0
  0
LINE
  5
17461
330
747D
100
AcDbEntity
  8
細線
 48
50.0
100
AcDbLine
 10
6771.281329642921
 20
4114.242732743705
 30
0.0
 11
6771.281329642921
 21
2324.242732743705
 31
0.0
  0
LINE
  5
17462
330
747D
100
AcDbEntity
  8
細線
 48
50.0
100
AcDbLine
 10
6786.281329642921
 20
4114.242732743705
 30
0.0
 11
6786.281329642921
 21
2324.242732743705
 31
0.0
  0
LINE
  5
17463
330
747D
100
AcDbEntity
  8
細線
 48
50.0
100
AcDbLine
 10
6646.281329642921
 20
4114.242732743705
 30
0.0
 11
6646.281329642921
 21
2324.242732743705
 31
0.0
  0
LINE
  5
17464
330
747D
100
AcDbEntity
  8
細線
 48
50.0
100
AcDbLine
 10
6631.281329642921
 20
4114.242732743705
 30
0.0
 11
6631.281329642921
 21
2324.242732743705
 31
0.0
  0
LINE
  5
17465
330
747D
100
AcDbEntity
  8
細線
 48
50.0
100
AcDbLine
 10
6491.281329642922
 20
4114.242732743705
 30
0.0
 11
6491.281329642922
 21
2324.242732743705
 31
0.0
  0
LINE
  5
17466
330
747D
100
AcDbEntity
  8
細線
 48
50.0
100
AcDbLine
 10
6506.281329642921
 20
4114.242732743705
 30
0.0
 11
6506.281329642921
 21
2324.242732743705
 31
0.0
  0
LINE
  5
17467
330
747D
100
AcDbEntity
  8
部品1
100
AcDbLine
 10
6428.781329642913
 20
4114.242732743705
 30
0.0
 11
6428.781329642913
 21
2324.242732743705
 31
0.0
  0
LINE
  5
17468
330
747D
100
AcDbEntity
  8
部品1
100
AcDbLine
 10
5869.006460072158
 20
4474.447120706722
 30
0.0
 11
6194.461473715195
 21
4456.92906174786
 31
0.0
  0
ARC
  5
17469
330
747D
100
AcDbEntity
  8
部品1
100
AcDbCircle
 10
7389.408865456861
 20
4188.266490009497
 30
0.0
 40
0.7
100
AcDbArc
 50
275.0921697642079
 51
354.1866997666569
  0
ARC
  5
1746A
330
747D
100
AcDbEntity
  8
部品1
100
AcDbCircle
 10
7400.268211206179
 20
4265.30974482742
 30
0.0
 40
0.7
100
AcDbArc
 50
275.0921697642079
 51
354.1866997665013
  0
ARC
  5
1746B
330
747D
100
AcDbEntity
  8
部品1
100
AcDbCircle
 10
7400.596616448781
 20
4261.624347970331
 30
0.0
 40
3.0
100
AcDbArc
 50
95.0921697643163
 51
174.1866997665013
  0
ARC
  5
1746C
330
747D
100
AcDbEntity
  8
部品1
100
AcDbCircle
 10
7389.737270699455
 20
4184.581093152406
 30
0.0
 40
3.0
100
AcDbArc
 50
95.09216976420788
 51
174.1866997665013
  0
ARC
  5
1746D
330
747D
100
AcDbEntity
  8
部品1
 48
50.0
100
AcDbCircle
 10
7378.709135424351
 20
4174.990348548525
 30
0.0
 40
7.0
100
AcDbArc
 50
267.8377559870533
 51
354.1866997665013
  0
ARC
  5
1746E
330
747D
100
AcDbEntity
  8
部品1
 48
50.0
100
AcDbCircle
 10
7396.031231888867
 20
4285.892895690698
 30
0.0
 40
7.0
100
AcDbArc
 50
354.1866997665013
 51
87.03587545293636
  0
LINE
  5
1746F
330
747D
100
AcDbEntity
  8
部品1
 48
50.0
100
AcDbLine
 10
7386.752699028848
 20
4184.88495486931
 30
0.0
 11
7385.673135989107
 21
4174.281337875751
 31
0.0
  0
LINE
  5
17470
330
747D
100
AcDbEntity
  8
部品1
 48
50.0
100
AcDbLine
 10
7397.612044778171
 20
4261.928209687233
 30
0.0
 11
7390.105265513334
 21
4188.195588942221
 31
0.0
  0
LINE
  5
17471
330
747D
100
AcDbEntity
  8
部品1
 48
50.0
100
AcDbLine
 10
7402.995232453623
 20
4285.183885017922
 30
0.0
 11
7400.964611262653
 21
4265.238843760143
 31
0.0
  0
ARC
  5
17472
330
747D
100
AcDbEntity
  8
部品1
100
AcDbCircle
 10
4639.818421514284
 20
4228.056891702607
 30
0.0
 40
0.7
100
AcDbArc
 50
181.0932240292635
 51
260.1877540315872
  0
ARC
  5
17473
330
747D
100
AcDbEntity
  8
部品1
100
AcDbCircle
 10
4635.045747916674
 20
4320.922669902727
 30
0.0
 40
0.7
100
AcDbArc
 50
181.0932240292114
 51
260.1877540315872
  0
ARC
  5
17474
330
747D
100
AcDbEntity
  8
部品1
100
AcDbCircle
 10
4634.415193513652
 20
4317.276795365329
 30
0.0
 40
3.0
100
AcDbArc
 50
1.093224029315636
 51
80.18775403158718
  0
ARC
  5
17475
330
747D
100
AcDbEntity
  8
部品1
100
AcDbCircle
 10
4639.187867111259
 20
4224.41101716521
 30
0.0
 40
3.0
100
AcDbArc
 50
1.093224029315636
 51
80.18775403158718
  0
ARC
  5
17476
330
747D
100
AcDbEntity
  8
部品1
 48
50.0
100
AcDbCircle
 10
4649.387999486459
 20
4214.018773782728
 30
0.0
 40
7.0
100
AcDbArc
 50
181.0932240293156
 51
267.8377559870533
  0
ARC
  5
17477
330
747D
100
AcDbEntity
  8
部品1
 48
50.0
100
AcDbCircle
 10
4640.964341384363
 20
4340.969833315823
 30
0.0
 40
7.0
100
AcDbArc
 50
87.03587545293636
 51
181.0932240293156
  0
LINE
  5
17478
330
747D
100
AcDbEntity
  8
部品1
 48
50.0
100
AcDbLine
 10
4642.187321037688
 20
4224.468254768393
 30
0.0
 11
4642.38927365812
 21
4213.885219375301
 31
0.0
  0
LINE
  5
17479
330
747D
100
AcDbEntity
  8
細線
 48
50.0
100
AcDbLine
 10
4639.581227981017
 20
4227.398302887201
 30
0.0
 11
7389.584892411658
 21
4187.588983912708
 31
0.0
  0
LINE
  5
1747A
330
747D
100
AcDbEntity
  8
細線
 48
50.0
100
AcDbLine
 10
4634.820752743731
 20
4320.259814585065
 30
0.0
 11
7400.456737488905
 21
4264.635609944237
 31
0.0
  0
LINE
  5
1747B
330
747D
100
AcDbEntity
  8
部品1
 48
50.0
100
AcDbLine
 10
4637.414647440082
 20
4317.334032968513
 30
0.0
 11
4639.118548931446
 21
4228.043536261865
 31
0.0
  0
LINE
  5
1747C
330
747D
100
AcDbEntity
  8
部品1
 48
50.0
100
AcDbLine
 10
4633.965615556024
 20
4340.836278908397
 30
0.0
 11
4634.345875333837
 21
4320.909314461984
 31
0.0
  0
LINE
  5
1747D
330
747D
100
AcDbEntity
  8
細線
 48
50.0
100
AcDbLine
 10
7370.750612836608
 20
4293.396155223173
 30
0.0
 11
7366.033646754923
 21
4168.463939288256
 31
0.0
  0
LINE
  5
1747E
330
747D
100
AcDbEntity
  8
細線
 48
50.0
100
AcDbLine
 10
4666.781329642918
 20
4346.642409119108
 30
0.0
 11
4661.49222808741
 21
4206.556776491754
 31
0.0
  0
LINE
  5
1747F
330
747D
100
AcDbEntity
  8
部品1
100
AcDbLine
 10
4649.123894244871
 20
4207.02375781267
 30
0.0
 11
7378.445030182767
 21
4167.995332578465
 31
0.0
  0
LINE
  5
17480
330
747D
100
AcDbEntity
  8
部品1
100
AcDbLine
 10
4641.32631599988
 20
4347.96046807797
 30
0.0
 11
7396.393206504384
 21
4292.883530452843
 31
0.0
  0
LINE
  5
17481
330
747D
100
AcDbEntity
  8
部品1
 48
50.0
100
AcDbLine
 10
5894.461473715195
 20
4473.12906174786
 30
0.0
 11
6194.461473715195
 21
4473.12906174786
 31
0.0
  0
LINE
  5
17482
330
747D
100
AcDbEntity
  8
部品1
 48
50.0
100
AcDbLine
 10
6194.461473715195
 20
4473.12906174786
 30
0.0
 11
6194.461473715195
 21
4456.92906174786
 31
0.0
  0
TEXT
  5
17483
330
747D
100
AcDbEntity
  8
部品1
 48
50.0
100
AcDbText
 10
5882.729308938922
 20
4509.013083900293
 30
0.0
 40
120.0
  1
1000
  7
STYLE1
100
AcDbText
  0
TEXT
  5
17484
330
747D
100
AcDbEntity
  8
部品1
 48
50.0
100
AcDbText
 10
6360.362331604012
 20
4371.51182568201
 30
0.0
 40
120.0
  1
37
 50
90.0
  7
STYLE1
100
AcDbText
  0
LINE
  5
17485
330
747D
100
AcDbEntity
  8
細線
 48
50.0
100
AcDbLine
 10
6086.281329642922
 20
4114.242732743703
 30
0.0
 11
6086.281329642922
 21
2324.242732743703
 31
0.0
  0
LINE
  5
17486
330
747D
100
AcDbEntity
  8
細線
 48
50.0
100
AcDbLine
 10
6071.281329642921
 20
4114.242732743703
 30
0.0
 11
6071.281329642921
 21
2324.242732743703
 31
0.0
  0
LINE
  5
17487
330
747D
100
AcDbEntity
  8
細線
 48
50.0
100
AcDbLine
 10
6211.281329642922
 20
4114.242732743703
 30
0.0
 11
6211.281329642922
 21
2324.242732743703
 31
0.0
  0
LINE
  5
17488
330
747D
100
AcDbEntity
  8
細線
 48
50.0
100
AcDbLine
 10
6226.281329642922
 20
4114.242732743703
 30
0.0
 11
6226.281329642922
 21
2324.242732743703
 31
0.0
  0
LINE
  5
17489
330
747D
100
AcDbEntity
  8
細線
 48
50.0
100
AcDbLine
 10
6366.281329642921
 20
4114.242732743703
 30
0.0
 11
6366.281329642921
 21
2324.242732743703
 31
0.0
  0
LINE
  5
1748A
330
747D
100
AcDbEntity
  8
細線
 48
50.0
100
AcDbLine
 10
6351.281329642922
 20
4114.242732743703
 30
0.0
 11
6351.281329642922
 21
2324.242732743703
 31
0.0
  0
LINE
  5
1748B
330
747D
100
AcDbEntity
  8
部品1
100
AcDbLine
 10
6848.781329642918
 20
4114.242732743704
 30
0.0
 11
6848.781329642918
 21
2324.242732743705
 31
0.0
  0
LINE
  5
1748C
330
747D
100
AcDbEntity
  8
部品1
100
AcDbLine
 10
4693.781329642917
 20
4114.242732743703
 30
0.0
 11
7323.781329642918
 21
4114.242732743703
 31
0.0
  0
LINE
  5
1748D
330
747D
100
AcDbEntity
  8
部品1
100
AcDbLine
 10
4693.781329642917
 20
2324.242732743703
 30
0.0
 11
7323.781329642921
 21
2324.242732743705
 31
0.0
  0
LINE
  5
1748E
330
747D
100
AcDbEntity
  8
部品1
100
AcDbLine
 10
4748.781329642917
 20
4114.242732743703
 30
0.0
 11
4748.781329642917
 21
2324.242732743703
 31
0.0
  0
LINE
  5
1748F
330
747D
100
AcDbEntity
  8
部品1
100
AcDbLine
 10
4693.781329642917
 20
4206.101252185951
 30
0.0
 11
4693.781329642917
 21
2174.242732743703
 31
0.0
  0
LINE
  5
17490
330
747D
100
AcDbEntity
  8
部品1
100
AcDbLine
 10
5168.781329642918
 20
4114.242732743703
 30
0.0
 11
5168.781329642918
 21
2324.242732743703
 31
0.0
  0
LINE
  5
17491
330
747D
100
AcDbEntity
  8
部品1
100
AcDbLine
 10
7323.781329642916
 20
4168.777006131442
 30
0.0
 11
7323.781329642921
 21
2174.242732743705
 31
0.0
  0
LINE
  5
17492
330
747D
100
AcDbEntity
  8
部品1
100
AcDbLine
 10
7268.781329642921
 20
4114.242732743704
 30
0.0
 11
7268.781329642921
 21
2324.242732743705
 31
0.0
  0
DIMENSION
  5
17493
330
747D
100
AcDbEntity
  8
寸法
100
AcDbDimension
  2
*D30
 10
8028.70848761505
 20
4294.242732743705
 30
0.0
 11
7928.696676591427
 21
3284.242732743706
 31
0.0
 70
    32
 71
     5
 42
2020.000000000001
  3
INABA_S40G
100
AcDbAlignedDimension
 13
7400.781329642922
 23
2274.242732743704
 33
0.0
 14
7403.781329642917
 24
4294.242732743705
 34
0.0
 50
90.0
100
AcDbRotatedDimension
1001
ACAD
1000
DSTYLE
1002
{
1070
   174
1070
     0
1070
   272
1070
     1
1070
   288
1070
     0
1070
   341
1005
0
1002
}
  0
DIMENSION
  5
17494
330
747D
100
AcDbEntity
  8
寸法
 48
50.0
100
AcDbDimension
  2
*D31
 10
4693.781329642917
 20
4747.900186323009
 30
0.0
 11
6048.551520672112
 21
4747.900186323009
 31
0.0
 70
   160
  1
柱外寸法<>
 71
     5
 42
2630.0
  3
INABA_S40G
100
AcDbAlignedDimension
 13
7323.781329642918
 23
4296.053412355358
 33
0.0
 14
4693.781329642917
 24
4345.24435086668
 34
0.0
100
AcDbRotatedDimension
1001
ACAD
1000
DSTYLE
1002
{
1070
   174
1070
     0
1070
   272
1070
     1
1070
   288
1070
     0
1070
   341
1005
0
1002
}
  0
DIMENSION
  5
17495
330
747D
100
AcDbEntity
  8
寸法
 48
50.0
100
AcDbDimension
  2
*D32
 10
4633.781329642917
 20
4747.900186323008
 30
0.0
 11
4324.143534367327
 21
4747.900186323008
 31
0.0
 70
   160
 71
     5
 42
60.0
  3
INABA_S40G
100
AcDbAlignedDimension
 13
4693.781329642917
 23
4345.24435086668
 33
0.0
 14
4633.781329642917
 24
4349.242732743708
 34
0.0
100
AcDbRotatedDimension
1001
ACAD
1000
DSTYLE
1002
{
1070
   174
1070
     0
1070
   272
1070
     1
1070
   288
1070
     0
1070
   341
1005
0
1002
}
  0
DIMENSION
  5
17496
330
747D
100
AcDbEntity
  8
寸法
 48
50.0
100
AcDbDimension
  2
*D33
 10
4633.781329642917
 20
4968.110873054626
 30
0.0
 11
6037.140254530293
 21
4968.110873054626
 31
0.0
 70
   160
 71
     5
 42
2770.0
  3
INABA_S40G
100
AcDbAlignedDimension
 13
7403.781329642917
 23
4294.242732743705
 33
0.0
 14
4633.781329642917
 24
4349.242732743708
 34
0.0
100
AcDbRotatedDimension
1001
ACAD
1000
DSTYLE
1002
{
1070
   174
1070
     0
1070
   272
1070
     1
1070
   288
1070
     0
1070
   341
1005
0
1002
}
  0
LINE
  5
17497
330
747D
100
AcDbEntity
  8
部品1
100
AcDbLine
 10
4693.781329642917
 20
2274.242732743704
 30
0.0
 11
4701.281329642919
 21
2274.242732743704
 31
0.0
  0
LINE
  5
17498
330
747D
100
AcDbEntity
  8
細線
 48
50.0
100
AcDbLine
 10
5246.281329642918
 20
4114.242732743703
 30
0.0
 11
5246.281329642918
 21
2324.242732743703
 31
0.0
  0
LINE
  5
17499
330
747D
100
AcDbEntity
  8
細線
 48
50.0
100
AcDbLine
 10
5231.281329642918
 20
4114.242732743703
 30
0.0
 11
5231.281329642918
 21
2324.242732743703
 31
0.0
  0
LINE
  5
1749A
330
747D
100
AcDbEntity
  8
細線
 48
50.0
100
AcDbLine
 10
5371.281329642918
 20
4114.242732743703
 30
0.0
 11
5371.281329642918
 21
2324.242732743703
 31
0.0
  0
LINE
  5
1749B
330
747D
100
AcDbEntity
  8
細線
 48
50.0
100
AcDbLine
 10
5386.281329642918
 20
4114.242732743703
 30
0.0
 11
5386.281329642918
 21
2324.242732743703
 31
0.0
  0
LINE
  5
1749C
330
747D
100
AcDbEntity
  8
細線
 48
50.0
100
AcDbLine
 10
5526.281329642918
 20
4114.242732743703
 30
0.0
 11
5526.281329642918
 21
2324.242732743703
 31
0.0
  0
LINE
  5
1749D
330
747D
100
AcDbEntity
  8
細線
 48
50.0
100
AcDbLine
 10
5511.281329642918
 20
4114.242732743703
 30
0.0
 11
5511.281329642918
 21
2324.242732743703
 31
0.0
  0
LINE
  5
1749E
330
747D
100
AcDbEntity
  8
細線
 48
50.0
100
AcDbLine
 10
5091.281329642917
 20
4114.242732743703
 30
0.0
 11
5091.281329642917
 21
2324.242732743703
 31
0.0
  0
LINE
  5
1749F
330
747D
100
AcDbEntity
  8
細線
 48
50.0
100
AcDbLine
 10
5106.281329642918
 20
4114.242732743703
 30
0.0
 11
5106.281329642918
 21
2324.242732743703
 31
0.0
  0
LINE
  5
174A0
330
747D
100
AcDbEntity
  8
細線
 48
50.0
100
AcDbLine
 10
4966.281329642917
 20
4114.242732743703
 30
0.0
 11
4966.281329642917
 21
2324.242732743703
 31
0.0
  0
LINE
  5
174A1
330
747D
100
AcDbEntity
  8
細線
 48
50.0
100
AcDbLine
 10
4951.281329642918
 20
4114.242732743703
 30
0.0
 11
4951.281329642918
 21
2324.242732743703
 31
0.0
  0
LINE
  5
174A2
330
747D
100
AcDbEntity
  8
細線
 48
50.0
100
AcDbLine
 10
4811.281329642918
 20
4114.242732743703
 30
0.0
 11
4811.281329642918
 21
2324.242732743703
 31
0.0
  0
LINE
  5
174A3
330
747D
100
AcDbEntity
  8
細線
 48
50.0
100
AcDbLine
 10
4826.281329642918
 20
4114.242732743703
 30
0.0
 11
4826.281329642918
 21
2324.242732743703
 31
0.0
  0
DIMENSION
  5
174A4
330
747D
100
AcDbEntity
  8
寸法
 48
50.0
100
AcDbDimension
  2
*D34
 10
7403.781329642917
 20
4747.900186323009
 30
0.0
 11
7609.828573737408
 21
4747.900186323009
 31
0.0
 70
   160
 71
     5
 42
80.0
  3
INABA_S40G
100
AcDbAlignedDimension
 13
7323.781329642918
 23
4296.053412355358
 33
0.0
 14
7403.781329642917
 24
4294.242732743705
 34
0.0
100
AcDbRotatedDimension
1001
ACAD
1000
DSTYLE
1002
{
1070
   174
1070
     0
1070
   272
1070
     1
1070
   288
1070
     0
1070
   341
1005
0
1002
}
  0
LINE
  5
174A5
330
747D
100
AcDbEntity
  8
部品1
100
AcDbLine
 10
5588.781329642918
 20
4114.242732743703
 30
0.0
 11
5588.781329642918
 21
2324.242732743703
 31
0.0
  0
LINE
  5
174A6
330
747D
100
AcDbEntity
  8
細線
 48
50.0
100
AcDbLine
 10
5931.281329642921
 20
4114.242732743703
 30
0.0
 11
5931.281329642921
 21
2324.242732743703
 31
0.0
  0
LINE
  5
174A7
330
747D
100
AcDbEntity
  8
細線
 48
50.0
100
AcDbLine
 10
5946.281329642921
 20
4114.242732743703
 30
0.0
 11
5946.281329642921
 21
2324.242732743703
 31
0.0
  0
LINE
  5
174A8
330
747D
100
AcDbEntity
  8
細線
 48
50.0
100
AcDbLine
 10
5806.281329642921
 20
4114.242732743703
 30
0.0
 11
5806.281329642921
 21
2324.242732743703
 31
0.0
  0
LINE
  5
174A9
330
747D
100
AcDbEntity
  8
細線
 48
50.0
100
AcDbLine
 10
5791.281329642921
 20
4114.242732743703
 30
0.0
 11
5791.281329642921
 21
2324.242732743703
 31
0.0
  0
LINE
  5
174AA
330
747D
100
AcDbEntity
  8
細線
 48
50.0
100
AcDbLine
 10
5651.281329642921
 20
4114.242732743703
 30
0.0
 11
5651.281329642921
 21
2324.242732743703
 31
0.0
  0
LINE
  5
174AB
330
747D
100
AcDbEntity
  8
細線
 48
50.0
100
AcDbLine
 10
5666.281329642921
 20
4114.242732743703
 30
0.0
 11
5666.281329642921
 21
2324.242732743703
 31
0.0
  0
LINE
  5
174AC
330
747D
100
AcDbEntity
  8
部品1
100
AcDbLine
 10
6008.781329642918
 20
4114.242732743703
 30
0.0
 11
6008.781329642918
 21
2324.242732743703
 31
0.0
  0
LINE
  5
174AD
330
747D
100
AcDbEntity
  8
細線
 48
50.0
100
AcDbLine
 10
6926.281329642925
 20
4114.242732743704
 30
0.0
 11
6926.281329642925
 21
2324.242732743705
 31
0.0
  0
LINE
  5
174AE
330
747D
100
AcDbEntity
  8
細線
 48
50.0
100
AcDbLine
 10
6911.281329642925
 20
4114.242732743704
 30
0.0
 11
6911.281329642925
 21
2324.242732743705
 31
0.0
  0
LINE
  5
174AF
330
747D
100
AcDbEntity
  8
細線
 48
50.0
100
AcDbLine
 10
7051.281329642925
 20
4114.242732743704
 30
0.0
 11
7051.281329642925
 21
2324.242732743705
 31
0.0
  0
LINE
  5
174B0
330
747D
100
AcDbEntity
  8
細線
 48
50.0
100
AcDbLine
 10
7066.281329642925
 20
4114.242732743704
 30
0.0
 11
7066.281329642925
 21
2324.242732743705
 31
0.0
  0
LINE
  5
174B1
330
747D
100
AcDbEntity
  8
細線
 48
50.0
100
AcDbLine
 10
7206.281329642926
 20
4114.242732743704
 30
0.0
 11
7206.281329642926
 21
2324.242732743705
 31
0.0
  0
LINE
  5
174B2
330
747D
100
AcDbEntity
  8
細線
 48
50.0
100
AcDbLine
 10
7191.281329642925
 20
4114.242732743704
 30
0.0
 11
7191.281329642925
 21
2324.242732743705
 31
0.0
  0
LINE
  5
174B3
330
747D
100
AcDbEntity
  8
部品1
100
AcDbLine
 10
4893.781329642918
 20
2274.242732743704
 30
0.0
 11
4893.781329642918
 21
2174.242732743703
 31
0.0
  0
LINE
  5
174B4
330
747D
100
AcDbEntity
  8
部品1
100
AcDbLine
 10
7123.781329642918
 20
2274.242732743704
 30
0.0
 11
7123.781329642918
 21
2174.242732743703
 31
0.0
  0
LINE
  5
174B5
330
747D
100
AcDbEntity
  8
部品1
 48
50.0
100
AcDbLine
 10
7400.781329642922
 20
2274.242732743704
 30
0.0
 11
7316.281329642922
 21
2274.242732743704
 31
0.0
  0
LINE
  5
174B6
330
747D
100
AcDbEntity
  8
部品1
 48
50.0
100
AcDbLine
 10
7400.781329642922
 20
4099.242732743703
 30
0.0
 11
7400.781329642922
 21
2174.242732743703
 31
0.0
  0
LINE
  5
174B7
330
747D
100
AcDbEntity
  8
部品1
 48
50.0
100
AcDbLine
 10
7323.781329642921
 20
4109.242732743703
 30
0.0
 11
7400.781329642922
 21
4099.242732743703
 31
0.0
  0
LINE
  5
174B8
330
747D
100
AcDbEntity
  8
破線
 48
5.0
100
AcDbLine
 10
7196.281329642925
 20
2174.242732743703
 30
0.0
 11
7196.281329642925
 21
1974.242732743703
 31
0.0
  0
LINE
  5
174B9
330
747D
100
AcDbEntity
  8
破線
 48
5.0
100
AcDbLine
 10
7396.281329642921
 20
1974.2427327437
 30
0.0
 11
7196.281329642925
 21
1974.242732743703
 31
0.0
  0
LINE
  5
174BA
330
747D
100
AcDbEntity
  8
破線
 48
5.0
100
AcDbLine
 10
7396.281329642924
 20
2174.242732743703
 30
0.0
 11
7396.281329642921
 21
1974.2427327437
 31
0.0
  0
DIMENSION
  5
174BB
330
747D
100
AcDbEntity
  8
寸法
 48
50.0
100
AcDbDimension
  2
*D35
 10
4621.281329642921
 20
1688.195403443324
 30
0.0
 11
4721.281329642919
 21
1688.195403443324
 31
0.0
 70
   160
 71
     5
 42
199.9999999999963
  3
INABA_S40G
100
AcDbAlignedDimension
 13
4821.281329642918
 23
1974.2427327437
 33
0.0
 14
4621.281329642921
 24
1974.242732743702
 34
0.0
100
AcDbRotatedDimension
  0
LINE
  5
174BC
330
747D
100
AcDbEntity
  8
破線
 48
5.0
100
AcDbLine
 10
4621.281329642918
 20
2174.242732743703
 30
0.0
 11
4621.281329642921
 21
1974.2427327437
 31
0.0
  0
LINE
  5
174BD
330
747D
100
AcDbEntity
  8
破線
 48
5.0
100
AcDbLine
 10
4821.281329642918
 20
2174.242732743703
 30
0.0
 11
4821.281329642918
 21
1974.2427327437
 31
0.0
  0
LINE
  5
174BE
330
747D
100
AcDbEntity
  8
破線
 48
5.0
100
AcDbLine
 10
4821.281329642918
 20
1974.2427327437
 30
0.0
 11
4621.281329642921
 21
1974.2427327437
 31
0.0
  0
DIMENSION
  5
174BF
330
747D
100
AcDbEntity
  8
寸法
 48
50.0
100
AcDbDimension
  2
*D36
 10
4471.781326396285
 20
2174.242732743702
 30
0.0
 11
4471.781326396284
 21
2074.242732743702
 31
0.0
 70
   160
 71
     5
 42
199.9999999999998
  3
INABA_S40G
100
AcDbAlignedDimension
 13
4621.281329642921
 23
1974.242732743702
 33
0.0
 14
4596.281329642917
 24
2174.242732743702
 34
0.0
 50
90.0
100
AcDbRotatedDimension
1001
ACAD
1000
DSTYLE
1002
{
1070
   174
1070
     0
1070
   272
1070
     1
1070
   288
1070
     0
1070
   341
1005
0
1002
}
  0
DIMENSION
  5
174C0
330
747D
100
AcDbEntity
  8
寸法
 48
50.0
100
AcDbDimension
  2
*D37
 10
4073.172922874561
 20
4223.587991617034
 30
0.0
 11
4083.838398133486
 21
4594.434654858732
 31
0.0
 70
   161
 71
     5
 42
140.9999999999991
  3
INABA_S40G
100
AcDbAlignedDimension
 13
4653.177349801497
 23
4347.965481578382
 33
0.0
 14
4649.123894244871
 24
4207.023757812669
 34
0.0
1001
ACAD
1000
DSTYLE
1002
{
1070
   174
1070
     0
1070
   272
1070
     1
1070
   288
1070
     0
1070
   341
1005
0
1002
}
  0
LINE
  5
174C1
330
747D
100
AcDbEntity
  8
部品1
100
AcDbLine
 10
7316.281329642918
 20
2274.242732743704
 30
0.0
 11
7323.781329642921
 21
2274.242732743704
 31
0.0
  0
LINE
  5
174C2
330
747D
100
AcDbEntity
  8
破線
  6
HIDDEN
 48
5.0
100
AcDbLine
 10
4741.281329642918
 20
2174.242732743703
 30
0.0
 11
4741.281329642918
 21
2169.242732743704
 31
0.0
  0
LINE
  5
174C3
330
747D
100
AcDbEntity
  8
破線
  6
HIDDEN
 48
5.0
100
AcDbLine
 10
4701.281329642925
 20
2174.242732743703
 30
0.0
 11
4701.281329642925
 21
2169.242732743704
 31
0.0
  0
LINE
  5
174C4
330
747D
100
AcDbEntity
  8
破線
  6
HIDDEN
 48
5.0
100
AcDbLine
 10
7316.281329642918
 20
2174.242732743703
 30
0.0
 11
7316.281329642918
 21
2169.242732743704
 31
0.0
  0
LINE
  5
174C5
330
747D
100
AcDbEntity
  8
破線
  6
HIDDEN
 48
5.0
100
AcDbLine
 10
7276.281329642917
 20
2174.242732743703
 30
0.0
 11
7276.281329642917
 21
2169.242732743704
 31
0.0
  0
ARC
  5
174C6
330
747D
100
AcDbEntity
  8
部品1
 48
50.0
100
AcDbCircle
 10
7311.281329642918
 20
2314.242732743704
 30
0.0
 40
5.0
100
AcDbArc
 50
0.0
 51
90.0
  0
ARC
  5
174C7
330
747D
100
AcDbEntity
  8
部品1
 48
50.0
100
AcDbCircle
 10
7281.281329642919
 20
2314.242732743704
 30
0.0
 40
5.0
100
AcDbArc
 50
90.0
 51
180.0
  0
LINE
  5
174C8
330
747D
100
AcDbEntity
  8
部品1
100
AcDbLine
 10
7311.281329642918
 20
2319.242732743703
 30
0.0
 11
7281.281329642919
 21
2319.242732743703
 31
0.0
  0
LINE
  5
174C9
330
747D
100
AcDbEntity
  8
部品1
 48
50.0
100
AcDbLine
 10
7316.281329642918
 20
2314.242732743704
 30
0.0
 11
7316.281329642918
 21
2174.242732743703
 31
0.0
  0
LINE
  5
174CA
330
747D
100
AcDbEntity
  8
部品1
 48
50.0
100
AcDbLine
 10
7276.281329642917
 20
2314.242732743704
 30
0.0
 11
7276.281329642917
 21
2174.242732743703
 31
0.0
  0
ARC
  5
174CB
330
747D
100
AcDbEntity
  8
部品1
 48
50.0
100
AcDbCircle
 10
4736.281329642917
 20
2314.242732743704
 30
0.0
 40
5.0
100
AcDbArc
 50
0.0
 51
90.0
  0
ARC
  5
174CC
330
747D
100
AcDbEntity
  8
部品1
 48
50.0
100
AcDbCircle
 10
4706.281329642918
 20
2314.242732743704
 30
0.0
 40
5.0
100
AcDbArc
 50
90.0
 51
180.0
  0
LINE
  5
174CD
330
747D
100
AcDbEntity
  8
部品1
100
AcDbLine
 10
4706.281329642918
 20
2319.242732743703
 30
0.0
 11
4736.281329642917
 21
2319.242732743703
 31
0.0
  0
LINE
  5
174CE
330
747D
100
AcDbEntity
  8
部品1
 48
50.0
100
AcDbLine
 10
4741.281329642918
 20
2314.242732743704
 30
0.0
 11
4741.281329642918
 21
2174.242732743703
 31
0.0
  0
LINE
  5
174CF
330
747D
100
AcDbEntity
  8
部品1
 48
50.0
100
AcDbLine
 10
4701.281329642918
 20
2314.242732743704
 30
0.0
 11
4701.281329642918
 21
2174.242732743703
 31
0.0
  0
LINE
  5
174D0
330
747D
100
AcDbEntity
  8
破線
  6
HIDDEN
 48
5.0
100
AcDbLine
 10
4741.281329642918
 20
2169.242732743704
 30
0.0
 11
4756.281329642917
 21
2021.542732743703
 31
0.0
  0
LINE
  5
174D1
330
747D
100
AcDbEntity
  8
破線
  6
HIDDEN
 48
5.0
100
AcDbLine
 10
4701.281329642918
 20
2169.242732743704
 30
0.0
 11
4686.281329642917
 21
2021.542732743703
 31
0.0
  0
LINE
  5
174D2
330
747D
100
AcDbEntity
  8
破線
  6
HIDDEN
 48
5.0
100
AcDbLine
 10
4756.281329642917
 20
2021.542732743703
 30
0.0
 11
4756.281329642917
 21
2019.242732743704
 31
0.0
  0
LINE
  5
174D3
330
747D
100
AcDbEntity
  8
破線
  6
HIDDEN
 48
5.0
100
AcDbLine
 10
4686.281329642917
 20
2021.542732743703
 30
0.0
 11
4686.281329642917
 21
2019.242732743704
 31
0.0
  0
LINE
  5
174D4
330
747D
100
AcDbEntity
  8
破線
  6
HIDDEN
 48
5.0
100
AcDbLine
 10
4686.281329642917
 20
2019.242732743704
 30
0.0
 11
4756.281329642917
 21
2019.242732743704
 31
0.0
  0
LINE
  5
174D5
330
747D
100
AcDbEntity
  8
破線
  6
HIDDEN
 48
5.0
100
AcDbLine
 10
7331.281329642918
 20
2021.542732743703
 30
0.0
 11
7331.281329642918
 21
2019.242732743704
 31
0.0
  0
LINE
  5
174D6
330
747D
100
AcDbEntity
  8
破線
  6
HIDDEN
 48
5.0
100
AcDbLine
 10
7316.281329642918
 20
2169.242732743704
 30
0.0
 11
7331.281329642918
 21
2021.542732743703
 31
0.0
  0
LINE
  5
174D7
330
747D
100
AcDbEntity
  8
破線
  6
HIDDEN
 48
5.0
100
AcDbLine
 10
7261.281329642918
 20
2021.542732743703
 30
0.0
 11
7261.281329642918
 21
2019.242732743704
 31
0.0
  0
LINE
  5
174D8
330
747D
100
AcDbEntity
  8
破線
  6
HIDDEN
 48
5.0
100
AcDbLine
 10
7276.281329642917
 20
2169.242732743704
 30
0.0
 11
7261.281329642918
 21
2021.542732743703
 31
0.0
  0
LINE
  5
174D9
330
747D
100
AcDbEntity
  8
破線
  6
HIDDEN
 48
5.0
100
AcDbLine
 10
7331.281329642918
 20
2019.242732743704
 30
0.0
 11
7261.281329642918
 21
2019.242732743704
 31
0.0
  0
DIMENSION
  5
174DA
330
747D
100
AcDbEntity
  8
寸法
100
AcDbDimension
  2
*D38
 10
4070.12862048462
 20
2274.242732743703
 30
0.0
 11
4070.12862048462
 21
1968.19548864921
 31
0.0
 70
   160
 71
     5
 42
50.0
  3
INABA_S40G
100
AcDbAlignedDimension
 13
4693.781329642917
 23
2324.242732743703
 33
0.0
 14
4638.781329642918
 24
2274.242732743703
 34
0.0
 50
90.0
100
AcDbRotatedDimension
1001
ACAD
1000
DSTYLE
1002
{
1070
   174
1070
     0
1070
   272
1070
     1
1070
   288
1070
     0
1070
   341
1005
0
1002
}
  0
DIMENSION
  5
174DB
330
747D
100
AcDbEntity
  8
寸法
100
AcDbDimension
  2
*D39
 10
3785.141947713559
 20
2174.242732743703
 30
0.0
 11
3785.141947713559
 21
1938.19548864921
 31
0.0
 70
   160
 71
     5
 42
100.0
  3
INABA_S40G
100
AcDbAlignedDimension
 13
4638.781329642918
 23
2274.242732743703
 33
0.0
 14
4070.12862048462
 24
2174.242732743703
 34
0.0
 50
90.0
100
AcDbRotatedDimension
1001
ACAD
1000
DSTYLE
1002
{
1070
   174
1070
     0
1070
   272
1070
     1
1070
   288
1070
     0
1070
   341
1005
0
1002
}
  0
DIMENSION
  5
174DC
330
747D
100
AcDbEntity
  8
寸法
100
AcDbDimension
  2
*D40
 10
3785.14194771356
 20
4349.242732743706
 30
0.0
 11
3785.141947713559
 21
3268.448610236813
 31
0.0
 70
   160
 71
     5
 42
2075.000000000005
  3
INABA_S40G
100
AcDbAlignedDimension
 13
4693.781329642917
 23
2274.242732743703
 33
0.0
 14
4633.781329642917
 24
4349.242732743706
 34
0.0
 50
90.0
100
AcDbRotatedDimension
1001
ACAD
1000
DSTYLE
1002
{
1070
   174
1070
     0
1070
   272
1070
     1
1070
   288
1070
     0
1070
   341
1005
0
1002
}
  0
DIMENSION
  5
174DD
330
747D
100
AcDbEntity
  8
寸法
100
AcDbDimension
  2
*D41
 10
4070.12862048462
 20
2324.242732743703
 30
0.0
 11
4070.12862048462
 21
3214.69703128566
 31
0.0
 70
   160
 71
     5
 42
1790.0
  3
INABA_S40G
100
AcDbAlignedDimension
 13
4693.781329642917
 23
4114.242732743703
 33
0.0
 14
4693.781329642917
 24
2324.242732743703
 34
0.0
 50
90.0
100
AcDbRotatedDimension
1001
ACAD
1000
DSTYLE
1002
{
1070
   174
1070
     0
1070
   272
1070
     1
1070
   288
1070
     0
1070
   341
1005
0
1002
}
  0
LINE
  5
174DE
330
747D
100
AcDbEntity
  8
部品1
100
AcDbLine
 10
4693.781329642917
 20
2274.242732743704
 30
0.0
 11
4701.281329642918
 21
2274.242732743704
 31
0.0
  0
LINE
  5
174DF
330
747D
100
AcDbEntity
  8
部品1
100
AcDbLine
 10
4693.781329642917
 20
2274.242732743704
 30
0.0
 11
4701.281329642918
 21
2274.242732743704
 31
0.0
  0
LINE
  5
174E0
330
747D
100
AcDbEntity
  8
部品1
100
AcDbLine
 10
7316.281329642918
 20
2274.242732743704
 30
0.0
 11
7323.781329642921
 21
2274.242732743704
 31
0.0
  0
LINE
  5
174E1
330
747D
100
AcDbEntity
  8
部品1
100
AcDbLine
 10
6400.516662757137
 20
1294.927189768744
 30
0.0
 11
5637.045996528698
 21
1294.927189768744
 31
0.0
  0
LINE
  5
174E2
330
747D
100
AcDbEntity
  8
部品1
100
AcDbLine
 10
6400.516662757137
 20
1055.034868223211
 30
0.0
 11
6400.516662757137
 21
1294.927189768744
 31
0.0
  0
LINE
  5
174E3
330
747D
100
AcDbEntity
  8
部品1
100
AcDbLine
 10
5637.045996528698
 20
1055.034868223211
 30
0.0
 11
6400.516662757137
 21
1055.034868223211
 31
0.0
  0
LINE
  5
174E4
330
747D
100
AcDbEntity
  8
部品1
100
AcDbLine
 10
5637.045996528698
 20
1294.927189768744
 30
0.0
 11
5637.045996528698
 21
1055.034868223211
 31
0.0
  0
TEXT
  5
174E9
330
747D
100
AcDbEntity
  8
部品1
100
AcDbText
 10
5726.492097952306
 20
1102.03366055022
 30
0.0
 40
135.0
  1
側面図
  7
STYLE2
100
AcDbText
  0
TEXT
  5
174EB
330
747D
100
AcDbEntity
  8
部品1
100
AcDbText
 10
2872.362229678572
 20
2210.349636349605
 30
0.0
 40
125.0
  1
▽G.L
  7
STYLE2
100
AcDbText
  0
LINE
  5
17814
330
747D
100
AcDbEntity
  8
部品1
100
AcDbLine
 10
9443.878358980153
 20
8050.802392455748
 30
0.0
 11
9415.878358980153
 21
8050.802392455748
 31
0.0
  0
DIMENSION
  5
179B1
330
747D
100
AcDbEntity
  8
寸法
100
AcDbDimension
  2
*D42
 10
10821.09141314497
 20
6828.96243676919
 30
0.0
 11
11021.09501391174
 21
6828.96243676919
 31
0.0
 70
   160
 71
     5
 42
449.9999999999963
  3
INABA_S40G
100
AcDbAlignedDimension
 13
11175.87835898022
 23
7184.30239245584
 33
0.0
 14
10725.87835898022
 24
7184.30239245584
 34
0.0
100
AcDbRotatedDimension
1001
ACAD
1000
DSTYLE
1002
{
1002
}
  0
LINE
  5
18343
330
747D
100
AcDbEntity
  8
破線
 48
10.0
100
AcDbLine
 10
9472.378358980142
 20
8075.802392455846
 30
0.0
 11
10725.87835898022
 21
8075.802392455853
 31
0.0
  0
LINE
  5
18344
330
747D
100
AcDbEntity
  8
部品1
 48
50.0
100
AcDbLine
 10
9890.878358980152
 20
9729.302392455785
 30
0.0
 11
9890.87835898024
 21
7212.302392455789
 31
0.0
  0
LINE
  5
18345
330
747D
100
AcDbEntity
  8
破線
 48
10.0
100
AcDbLine
 10
9472.378358980137
 20
8865.802392455849
 30
0.0
 11
10725.87835898021
 21
8865.802392455851
 31
0.0
  0
LINE
  5
18346
330
747D
100
AcDbEntity
  8
破線
 48
10.0
100
AcDbLine
 10
9472.378358980142
 20
8915.802392455846
 30
0.0
 11
10725.8783589802
 21
8915.80239245585
 31
0.0
  0
LINE
  5
18347
330
747D
100
AcDbEntity
  8
破線
 48
10.0
100
AcDbLine
 10
9472.378358980137
 20
8025.802392455851
 30
0.0
 11
10725.87835898022
 21
8025.802392455849
 31
0.0
  0
LINE
  5
18348
330
747D
100
AcDbEntity
  8
部品1
 48
50.0
100
AcDbLine
 10
10310.87835898015
 20
9729.302392455785
 30
0.0
 11
10310.87835898024
 21
7212.302392455789
 31
0.0
  0
LINE
  5
183C8
330
747D
100
AcDbEntity
  8
破線
 48
10.0
100
AcDbLine
 10
9495.878358980158
 20
8025.802392455851
 30
0.0
 11
9495.878358980164
 21
7235.802392455764
 31
0.0
  0
LINE
  5
183C9
330
747D
100
AcDbEntity
  8
破線
 48
10.0
100
AcDbLine
 10
9495.878358980148
 20
8865.802392455849
 30
0.0
 11
9495.878358980156
 21
8075.802392455846
 31
0.0
  0
LINE
  5
184A4
330
747D
100
AcDbEntity
  8
細線
 48
50.0
100
AcDbLine
 10
9993.878358980138
 20
7083.80256663266
 30
0.0
 11
10112.37835898013
 21
7083.80256663266
 31
0.0
  0
LINE
  5
184A5
330
747D
100
AcDbEntity
  8
細線
 48
50.0
100
AcDbLine
 10
10082.37835898014
 20
7100.952566632658
 30
0.0
 11
10082.37835898014
 21
7105.80256663266
 31
0.0
  0
LINE
  5
184A6
330
747D
100
AcDbEntity
  8
細線
 48
50.0
100
AcDbLine
 10
10082.37835898014
 20
7105.80256663266
 30
0.0
 11
10097.37835898014
 21
7105.80256663266
 31
0.0
  0
LINE
  5
184A7
330
747D
100
AcDbEntity
  8
細線
 48
50.0
100
AcDbLine
 10
10097.37835898014
 20
7105.80256663266
 30
0.0
 11
10097.37835898014
 21
7112.802566632661
 31
0.0
  0
LINE
  5
184A8
330
747D
100
AcDbEntity
  8
細線
 48
50.0
100
AcDbLine
 10
10097.37835898014
 20
7112.802566632661
 30
0.0
 11
10112.37835898014
 21
7112.802566632661
 31
0.0
  0
LINE
  5
184A9
330
747D
100
AcDbEntity
  8
細線
 48
50.0
100
AcDbLine
 10
10112.37835898014
 20
7112.802566632661
 30
0.0
 11
10112.37835898014
 21
7083.80256663266
 31
0.0
  0
LINE
  5
184AA
330
747D
100
AcDbEntity
  8
細線
 48
50.0
100
AcDbLine
 10
10101.37835898014
 20
7135.298760898166
 30
0.0
 11
10101.37835898014
 21
7139.798760898166
 31
0.0
  0
LINE
  5
184AB
330
747D
100
AcDbEntity
  8
細線
 48
50.0
100
AcDbLine
 10
10101.37835898014
 20
7139.798760898166
 30
0.0
 11
10086.37835898014
 21
7139.798760898166
 31
0.0
  0
LINE
  5
184AC
330
747D
100
AcDbEntity
  8
細線
 48
50.0
100
AcDbLine
 10
10086.37835898014
 20
7139.798760898166
 30
0.0
 11
10086.37835898014
 21
7146.798760898168
 31
0.0
  0
LINE
  5
184AD
330
747D
100
AcDbEntity
  8
細線
 48
50.0
100
AcDbLine
 10
10086.37835898014
 20
7146.798760898168
 30
0.0
 11
10071.37835898014
 21
7146.798760898163
 31
0.0
  0
LINE
  5
184AE
330
747D
100
AcDbEntity
  8
細線
 48
50.0
100
AcDbLine
 10
10071.37835898014
 20
7146.798760898163
 30
0.0
 11
10071.37835898014
 21
7109.198532795052
 31
0.0
  0
LINE
  5
184AF
330
747D
100
AcDbEntity
  8
細線
 48
50.0
100
AcDbLine
 10
10071.37835898014
 20
7109.198532795052
 30
0.0
 11
10091.37836628131
 21
7109.198574344595
 31
0.0
  0
LINE
  5
184B0
330
747D
100
AcDbEntity
  8
細線
 48
50.0
100
AcDbLine
 10
10091.37832141237
 20
7117.802035980402
 30
0.0
 11
10091.37836628131
 21
7109.198574344595
 31
0.0
  0
LINE
  5
184B1
330
747D
100
AcDbEntity
  8
細線
 48
50.0
100
AcDbLine
 10
10091.37832141237
 20
7117.802035980402
 30
0.0
 11
10102.61101076708
 21
7117.802218933549
 31
0.0
  0
ARC
  5
184B2
330
747D
100
AcDbEntity
  8
細線
 48
50.0
100
AcDbCircle
 10
10109.19330307442
 20
7116.602382847162
 30
0.0
 40
1.8
100
AcDbArc
 50
270.0006665777295
 51
345.0005554812987
  0
LINE
  5
184B3
330
747D
100
AcDbEntity
  8
細線
 48
50.0
100
AcDbLine
 10
10111.1797365205
 20
7117.061223304441
 30
0.0
 11
10110.9319740783
 21
7116.136525422334
 31
0.0
  0
LINE
  5
184B4
330
747D
100
AcDbEntity
  8
細線
 48
50.0
100
AcDbLine
 10
10109.19332401557
 20
7114.802382847283
 30
0.0
 11
10105.56339659681
 21
7114.802340616802
 31
0.0
  0
ARC
  5
184B5
330
747D
100
AcDbEntity
  8
細線
 48
50.0
100
AcDbCircle
 10
10105.56337565565
 20
7116.602340616681
 30
0.0
 40
1.8
100
AcDbArc
 50
195.0010443049394
 51
270.0006665777295
  0
LINE
  5
184B6
330
747D
100
AcDbEntity
  8
細線
 48
50.0
100
AcDbLine
 10
10103.57694816339
 20
7117.061055584246
 30
0.0
 11
10103.82471765991
 21
7116.136434645664
 31
0.0
  0
ARC
  5
184B7
330
747D
100
AcDbEntity
  8
細線
 48
50.0
100
AcDbCircle
 10
10102.61102705465
 20
7116.802218933684
 30
0.0
 40
1.0
100
AcDbArc
 50
15.00104430493943
 51
90.00093320877969
  0
LINE
  5
184B8
330
747D
100
AcDbEntity
  8
細線
 48
50.0
100
AcDbLine
 10
10112.1456578756
 20
7117.802413623954
 30
0.0
 11
10113.08741802651
 21
7117.802420197803
 31
0.0
  0
ARC
  5
184B9
330
747D
100
AcDbEntity
  8
細線
 48
50.0
100
AcDbCircle
 10
10112.14566485599
 20
7116.802413623979
 30
0.0
 40
1.0
100
AcDbArc
 50
90.0003999466794
 51
165.0005554812987
  0
LINE
  5
184BA
330
747D
100
AcDbEntity
  8
細線
 48
50.0
100
AcDbLine
 10
11148.37835898014
 20
7176.802392455709
 30
0.0
 11
11148.37835898013
 21
7151.802392455704
 31
0.0
  0
LINE
  5
184BB
330
747D
100
AcDbEntity
  8
細線
100
AcDbLine
 10
11138.87835898013
 20
7151.802392455704
 30
0.0
 11
11030.87835898014
 21
7151.802392455704
 31
0.0
  0
LINE
  5
184BC
330
747D
100
AcDbEntity
  8
細線
 48
50.0
100
AcDbLine
 10
10563.37836413104
 20
7143.802392455707
 30
0.0
 11
10563.37836413105
 21
7181.8023924557
 31
0.0
  0
LINE
  5
184BD
330
747D
100
AcDbEntity
  8
細線
 48
50.0
100
AcDbLine
 10
10563.37836413105
 20
7181.8023924557
 30
0.0
 11
10578.37836413104
 21
7181.802392455704
 31
0.0
  0
LINE
  5
184BE
330
747D
100
AcDbEntity
  8
細線
 48
50.0
100
AcDbLine
 10
10578.37836413104
 20
7181.802392455704
 30
0.0
 11
10578.37836413104
 21
7176.802392455704
 31
0.0
  0
LINE
  5
184BF
330
747D
100
AcDbEntity
  8
細線
 48
50.0
100
AcDbLine
 10
10563.37836413104
 20
7143.802392455707
 30
0.0
 11
10583.37836413105
 21
7143.802392455704
 31
0.0
  0
LINE
  5
184C0
330
747D
100
AcDbEntity
  8
細線
 48
50.0
100
AcDbLine
 10
10583.37836413105
 20
7143.802392455704
 30
0.0
 11
10583.37836413105
 21
7151.802392455704
 31
0.0
  0
LINE
  5
184C1
330
747D
100
AcDbEntity
  8
細線
100
AcDbLine
 10
10820.87835898014
 20
7151.802392455704
 30
0.0
 11
10750.87835898014
 21
7151.802392455704
 31
0.0
  0
LINE
  5
184C2
330
747D
100
AcDbEntity
  8
細線
 48
50.0
100
AcDbLine
 10
10680.87835898014
 20
7151.802392455703
 30
0.0
 11
10596.17414370388
 21
7151.802392455704
 31
0.0
  0
LINE
  5
184C3
330
747D
100
AcDbEntity
  8
細線
100
AcDbLine
 10
10960.87835898013
 20
7151.802392455704
 30
0.0
 11
10890.87835898014
 21
7151.802392455704
 31
0.0
  0
LINE
  5
184C4
330
747D
100
AcDbEntity
  8
細線
100
AcDbLine
 10
10788.87835898014
 20
7151.802392455703
 30
0.0
 11
10788.87835898014
 21
7181.102392455702
 31
0.0
  0
LINE
  5
184C5
330
747D
100
AcDbEntity
  8
細線
100
AcDbLine
 10
10768.87835898014
 20
7181.102392455702
 30
0.0
 11
10788.87835898014
 21
7181.102392455702
 31
0.0
  0
LINE
  5
184C6
330
747D
100
AcDbEntity
  8
細線
100
AcDbLine
 10
10768.87835898014
 20
7151.802392455703
 30
0.0
 11
10768.87835898014
 21
7181.102392455702
 31
0.0
  0
LINE
  5
184C7
330
747D
100
AcDbEntity
  8
細線
 48
50.0
100
AcDbLine
 10
11132.47835898014
 20
7176.802392455704
 30
0.0
 11
11122.47835898014
 21
7181.802392455705
 31
0.0
  0
LINE
  5
184C8
330
747D
100
AcDbEntity
  8
細線
 48
50.0
100
AcDbLine
 10
11148.37835898014
 20
7176.802392455709
 30
0.0
 11
11132.47835898014
 21
7176.802392455704
 31
0.0
  0
LINE
  5
184C9
330
747D
100
AcDbEntity
  8
細線
 48
50.0
100
AcDbLine
 10
11122.47835898014
 20
7181.802392455702
 30
0.0
 11
10578.37836413104
 21
7181.8023924557
 31
0.0
  0
LINE
  5
184CA
330
747D
100
AcDbEntity
  8
細線
 48
50.0
100
AcDbLine
 10
10589.37836413105
 20
7151.002392455705
 30
0.0
 11
10589.37836413105
 21
7149.502392455705
 31
0.0
  0
LINE
  5
184CB
330
747D
100
AcDbEntity
  8
細線
 48
50.0
100
AcDbLine
 10
10590.07836413104
 20
7148.802392455704
 30
0.0
 11
10594.67836413104
 21
7148.802392455704
 31
0.0
  0
LINE
  5
184CC
330
747D
100
AcDbEntity
  8
細線
 48
50.0
100
AcDbLine
 10
10595.37836413104
 20
7149.502392455705
 30
0.0
 11
10595.37837095616
 21
7151.002407347192
 31
0.0
  0
ARC
  5
184CD
330
747D
100
AcDbEntity
  8
細線
 48
50.0
100
AcDbCircle
 10
10594.67836413104
 20
7149.502392455705
 30
0.0
 40
0.7
100
AcDbArc
 50
270.0
 51
0.0
  0
ARC
  5
184CE
330
747D
100
AcDbEntity
  8
細線
 48
50.0
100
AcDbCircle
 10
10590.07836413104
 20
7149.502392455705
 30
0.0
 40
0.7
100
AcDbArc
 50
180.0
 51
270.0
  0
LINE
  5
184CF
330
747D
100
AcDbEntity
  8
細線
 48
50.0
100
AcDbLine
 10
10588.57836599249
 20
7151.802392455704
 30
0.0
 11
10583.37836413105
 21
7151.802392455704
 31
0.0
  0
ARC
  5
184D0
330
747D
100
AcDbEntity
  8
細線
 48
50.0
100
AcDbCircle
 10
10596.17837095615
 20
7151.002403624321
 30
0.0
 40
0.8
100
AcDbArc
 50
90.00014387753465
 51
179.9997333689498
  0
ARC
  5
184D1
330
747D
100
AcDbEntity
  8
細線
 48
50.0
100
AcDbCircle
 10
10588.57836413105
 20
7151.002392455705
 30
0.0
 40
0.8
100
AcDbArc
 50
359.9997333689499
 51
89.99986668437072
  0
LINE
  5
184D2
330
747D
100
AcDbEntity
  8
細線
 48
50.0
100
AcDbLine
 10
10302.87832366124
 20
7117.80240431829
 30
0.0
 11
10232.87830637337
 21
7117.802404318297
 31
0.0
  0
LINE
  5
184D3
330
747D
100
AcDbEntity
  8
細線
 48
50.0
100
AcDbLine
 10
10162.87835898014
 20
7117.80241250566
 30
0.0
 11
10113.08741802651
 21
7117.802420197803
 31
0.0
  0
LINE
  5
184D4
330
747D
100
AcDbEntity
  8
細線
 48
50.0
100
AcDbLine
 10
10512.87835074337
 20
7117.802404318294
 30
0.0
 11
10604.37835898014
 21
7117.802404318294
 31
0.0
  0
LINE
  5
184D5
330
747D
100
AcDbEntity
  8
細線
 48
50.0
100
AcDbLine
 10
10442.87835898014
 20
7117.802401568289
 30
0.0
 11
10372.87860287714
 21
7117.802407068322
 31
0.0
  0
LINE
  5
184D6
330
747D
100
AcDbEntity
  8
細線
 48
50.0
100
AcDbLine
 10
10604.37836928196
 20
7146.802610490567
 30
0.0
 11
10604.37835898014
 21
7117.802404318294
 31
0.0
  0
LINE
  5
184D7
330
747D
100
AcDbEntity
  8
細線
 48
50.0
100
AcDbLine
 10
10589.37837111143
 20
7146.802610490567
 30
0.0
 11
10604.37836928196
 21
7146.802610490567
 31
0.0
  0
LINE
  5
184D8
330
747D
100
AcDbEntity
  8
細線
 48
50.0
100
AcDbLine
 10
10589.37835947745
 20
7139.802610490524
 30
0.0
 11
10589.37837111143
 21
7146.802610490567
 31
0.0
  0
LINE
  5
184D9
330
747D
100
AcDbEntity
  8
細線
 48
50.0
100
AcDbLine
 10
10574.37835947746
 20
7139.802610490524
 30
0.0
 11
10589.37835947745
 21
7139.802610490524
 31
0.0
  0
LINE
  5
184DA
330
747D
100
AcDbEntity
  8
細線
 48
50.0
100
AcDbLine
 10
10574.37835947746
 20
7134.952610490525
 30
0.0
 11
10574.37835947746
 21
7139.802610490524
 31
0.0
  0
LINE
  5
184DB
330
747D
100
AcDbEntity
  8
細線
 48
50.0
100
AcDbLine
 10
10574.37835947746
 20
7138.402610490526
 30
0.0
 11
10101.37835898014
 21
7138.402610490522
 31
0.0
  0
LINE
  5
184DC
330
747D
100
AcDbEntity
  8
細線
 48
50.0
100
AcDbLine
 10
10082.37835898014
 20
7104.402566632657
 30
0.0
 11
9496.878363633731
 21
7104.402566632657
 31
0.0
  0
LINE
  5
184DD
330
747D
100
AcDbEntity
  8
細線
 48
50.0
100
AcDbLine
 10
9905.261450650833
 20
7102.073417923152
 30
0.0
 11
9911.016968233504
 21
7083.802566632659
 31
0.0
  0
LINE
  5
184DE
330
747D
100
AcDbEntity
  8
細線
 48
50.0
100
AcDbLine
 10
9894.333002170402
 20
7102.073417923148
 30
0.0
 11
9905.261450650833
 21
7102.073417923152
 31
0.0
  0
ARC
  5
184DF
330
747D
100
AcDbEntity
  8
細線
 48
50.0
100
AcDbCircle
 10
9888.878646113083
 20
7103.573417923148
 30
0.0
 40
5.0
100
AcDbArc
 50
204.6243183521304
 51
335.3756816478695
  0
ARC
  5
184E0
330
747D
100
AcDbEntity
  8
細線
 48
50.0
100
AcDbCircle
 10
9894.333002170402
 20
7101.073417923149
 30
0.0
 40
1.0
100
AcDbArc
 50
90.0
 51
155.3756816478695
  0
ARC
  5
184E1
330
747D
100
AcDbEntity
  8
細線
 48
50.0
100
AcDbCircle
 10
9883.424290055765
 20
7101.073417923149
 30
0.0
 40
1.0
100
AcDbArc
 50
24.62431835213048
 51
90.0
  0
LINE
  5
184E2
330
747D
100
AcDbEntity
  8
細線
 48
50.0
100
AcDbLine
 10
9872.495841575334
 20
7102.073417923152
 30
0.0
 11
9883.424290055765
 21
7102.073417923148
 31
0.0
  0
LINE
  5
184E3
330
747D
100
AcDbEntity
  8
細線
 48
50.0
100
AcDbLine
 10
9866.740323992665
 20
7083.802566632659
 30
0.0
 11
9872.495841575334
 21
7102.073417923152
 31
0.0
  0
LINE
  5
184E4
330
747D
100
AcDbEntity
  8
細線
 48
50.0
100
AcDbLine
 10
9853.878358980137
 20
7083.802566632659
 30
0.0
 11
9923.878358980138
 21
7083.802566632659
 31
0.0
  0
LINE
  5
184E5
330
747D
100
AcDbEntity
  8
細線
 48
50.0
100
AcDbLine
 10
9473.878358980138
 20
7083.799900976128
 30
0.0
 11
9783.878912084567
 21
7083.803787876324
 31
0.0
  0
LINE
  5
184E6
330
747D
100
AcDbEntity
  8
細線
 48
50.0
100
AcDbLine
 10
9496.878363633731
 20
7112.798717040297
 30
0.0
 11
9482.878358980139
 21
7112.798717040295
 31
0.0
  0
LINE
  5
184E7
330
747D
100
AcDbEntity
  8
細線
 48
50.0
100
AcDbLine
 10
9496.878363633731
 20
7104.402566632657
 30
0.0
 11
9496.878363633731
 21
7112.798717040297
 31
0.0
  0
LINE
  5
184E8
330
747D
100
AcDbEntity
  8
細線
  6
Continuous
 62
     5
100
AcDbLine
 10
10576.37836413105
 20
7136.802392455701
 30
0.0
 11
10576.37836413105
 21
7136.802392455701
 31
0.0
  0
LINE
  5
184E9
330
747D
100
AcDbEntity
  8
部品1
100
AcDbLine
 10
9473.878358980138
 20
7078.802392455703
 30
0.0
 11
11177.87835898014
 21
7078.802392455703
 31
0.0
  0
LINE
  5
184EA
330
747D
100
AcDbEntity
  8
部品1
100
AcDbLine
 10
11147.87835898013
 20
7078.802392455705
 30
0.0
 11
11177.87835898014
 21
7078.802392455705
 31
0.0
  0
LINE
  5
184EB
330
747D
100
AcDbEntity
  8
部品1
100
AcDbLine
 10
9470.878358980138
 20
7182.8023924557
 30
0.0
 11
11150.87835898013
 21
7182.802392455704
 31
0.0
  0
LINE
  5
184EC
330
747D
100
AcDbEntity
  8
部品1
100
AcDbLine
 10
9470.878358980138
 20
7182.8023924557
 30
0.0
 11
9470.878358980138
 21
7151.802392455704
 31
0.0
  0
LINE
  5
184ED
330
747D
100
AcDbEntity
  8
部品1
100
AcDbLine
 10
9482.878358980139
 20
7151.802392455704
 30
0.0
 11
9482.878358980139
 21
7087.802392455704
 31
0.0
  0
LINE
  5
184EE
330
747D
100
AcDbEntity
  8
部品1
100
AcDbLine
 10
9443.878358980139
 20
7078.802392455703
 30
0.0
 11
9443.878358980139
 21
7155.802392455703
 31
0.0
  0
LINE
  5
184EF
330
747D
100
AcDbEntity
  8
部品1
100
AcDbLine
 10
9473.878358980138
 20
7078.802392455703
 30
0.0
 11
9443.878358980139
 21
7078.802392455703
 31
0.0
  0
LINE
  5
184F0
330
747D
100
AcDbEntity
  8
部品1
100
AcDbLine
 10
9482.878358980139
 20
7087.802392455704
 30
0.0
 11
9473.878358980138
 21
7087.802392455704
 31
0.0
  0
LINE
  5
184F1
330
747D
100
AcDbEntity
  8
部品1
100
AcDbLine
 10
9473.878358980138
 20
7087.802392455704
 30
0.0
 11
9473.878358980138
 21
7078.802392455703
 31
0.0
  0
LINE
  5
184F2
330
747D
100
AcDbEntity
  8
部品1
100
AcDbLine
 10
9443.878358980139
 20
7155.802392455703
 30
0.0
 11
9470.878358980138
 21
7155.802392455703
 31
0.0
  0
LINE
  5
184F3
330
747D
100
AcDbEntity
  8
部品1
100
AcDbLine
 10
9482.878358980139
 20
7151.802392455704
 30
0.0
 11
9470.878358980138
 21
7151.802392455704
 31
0.0
  0
LINE
  5
184F4
330
747D
100
AcDbEntity
  8
部品1
100
AcDbLine
 10
11150.87835898013
 20
7182.802392455704
 30
0.0
 11
11150.87835898013
 21
7151.802392455704
 31
0.0
  0
LINE
  5
184F5
330
747D
100
AcDbEntity
  8
部品1
100
AcDbLine
 10
11138.87835898013
 20
7151.802392455704
 30
0.0
 11
11138.87835898013
 21
7087.802392455704
 31
0.0
  0
LINE
  5
184F6
330
747D
100
AcDbEntity
  8
部品1
100
AcDbLine
 10
11138.87835898013
 20
7087.802392455704
 30
0.0
 11
11147.87835898013
 21
7087.802392455704
 31
0.0
  0
LINE
  5
184F7
330
747D
100
AcDbEntity
  8
部品1
100
AcDbLine
 10
11147.87835898013
 20
7087.802392455704
 30
0.0
 11
11147.87835898013
 21
7078.802392455705
 31
0.0
  0
LINE
  5
184F8
330
747D
100
AcDbEntity
  8
部品1
100
AcDbLine
 10
11138.87835898013
 20
7151.802392455704
 30
0.0
 11
11150.87835898013
 21
7151.802392455704
 31
0.0
  0
LINE
  5
184F9
330
747D
100
AcDbEntity
  8
部品1
100
AcDbLine
 10
11177.87835898014
 20
7078.802392455705
 30
0.0
 11
11177.87835898014
 21
7155.802392455704
 31
0.0
  0
LINE
  5
184FB
330
747D
100
AcDbEntity
  8
部品1
100
AcDbLine
 10
11150.87835898013
 20
7155.802392455704
 30
0.0
 11
11177.87835898014
 21
7155.802392455704
 31
0.0
  0
DIMENSION
  5
184FC
330
747D
100
AcDbEntity
  8
寸法
 48
50.0
100
AcDbDimension
  2
*D43
 10
10432.87835898014
 20
6453.727374407479
 30
0.0
 11
9957.878358980138
 21
6453.727374407479
 31
0.0
 70
   160
  1
有効開口部間口\P<>
 71
     5
 42
950.0
  3
INABA_S40
100
AcDbAlignedDimension
 13
9482.878358980139
 23
7078.802392455703
 33
0.0
 14
10432.87835898014
 24
7078.802392455703
 34
0.0
100
AcDbRotatedDimension
1001
ACAD
1000
DSTYLE
1002
{
1070
    41
1040
0.5
1070
    44
1040
1.0
1070
   147
1040
0.8
1070
   271
1070
     2
1070
   272
1070
     2
1070
   289
1070
     3
1070
   340
1005
F706
1070
   343
1005
1665C
1070
   344
1005
1665C
1002
}
  0
LINE
  5
184FD
330
747D
100
AcDbEntity
  8
細線
100
AcDbLine
 10
9482.878358980139
 20
7087.802392455704
 30
0.0
 11
9482.878358980139
 21
7083.802392455751
 31
0.0
  0
LINE
  5
184FE
330
747D
100
AcDbEntity
  8
細線
100
AcDbLine
 10
9639.378252381401
 20
7101.801462001303
 30
0.0
 11
9639.378252381401
 21
7083.801462001279
 31
0.0
  0
LINE
  5
184FF
330
747D
100
AcDbEntity
  8
細線
100
AcDbLine
 10
9598.378252381401
 20
7101.801462001296
 30
0.0
 11
9598.378252381401
 21
7083.801462001279
 31
0.0
  0
LINE
  5
18500
330
747D
100
AcDbEntity
  8
細線
100
AcDbLine
 10
9639.378252381401
 20
7101.801462001303
 30
0.0
 11
9598.378252381401
 21
7101.801462001296
 31
0.0
  0
ARC
  5
18501
330
747D
100
AcDbEntity
  8
部品1
100
AcDbCircle
 10
9600.922408258677
 20
7083.3014620013
 30
0.0
 40
1.0
100
AcDbArc
 50
270.0
 51
19.47122063442214
  0
LINE
  5
18502
330
747D
100
AcDbEntity
  8
部品1
 48
0.01
100
AcDbLine
 10
9593.878252381394
 20
7083.8014620013
 30
0.0
 11
9593.878252381394
 21
7082.801462001301
 31
0.0
  0
LINE
  5
18503
330
747D
100
AcDbEntity
  8
部品1
 48
0.01
100
AcDbLine
 10
9594.378252381394
 20
7082.3014620013
 30
0.0
 11
9600.922408258677
 21
7082.3014620013
 31
0.0
  0
ARC
  5
18504
330
747D
100
AcDbEntity
  8
部品1
 48
0.01
100
AcDbCircle
 10
9594.378252381394
 20
7082.801462001301
 30
0.0
 40
0.5
100
AcDbArc
 50
180.0
 51
270.0
  0
ARC
  5
18505
330
747D
100
AcDbEntity
  8
部品1
100
AcDbCircle
 10
9626.378252381392
 20
7092.301462001301
 30
0.0
 40
26.0
100
AcDbArc
 50
180.0
 51
199.4712206344221
  0
ARC
  5
18506
330
747D
100
AcDbEntity
  8
部品1
 48
0.01
100
AcDbCircle
 10
9602.378252381393
 20
7097.301462001301
 30
0.0
 40
2.0
100
AcDbArc
 50
90.0
 51
180.0
  0
LINE
  5
18507
330
747D
100
AcDbEntity
  8
部品1
100
AcDbLine
 10
9600.378252381394
 20
7092.301462001301
 30
0.0
 11
9600.378252381394
 21
7097.301462001301
 31
0.0
  0
ARC
  5
18508
330
747D
100
AcDbEntity
  8
部品1
100
AcDbCircle
 10
9618.878252381394
 20
7108.101462001304
 30
0.0
 40
16.0
100
AcDbArc
 50
218.3930440192126
 51
254.0576313943215
  0
ARC
  5
18509
330
747D
100
AcDbEntity
  8
部品1
100
AcDbCircle
 10
9603.986644006205
 20
7096.301462001299
 30
0.0
 40
3.0
100
AcDbArc
 50
38.39304401921267
 51
90.0
  0
LINE
  5
1850A
330
747D
100
AcDbEntity
  8
部品1
 48
0.01
100
AcDbLine
 10
9602.378252381393
 20
7099.301462001299
 30
0.0
 11
9603.986644006205
 21
7099.301462001299
 31
0.0
  0
ARC
  5
1850B
330
747D
100
AcDbEntity
  8
部品1
100
AcDbCircle
 10
9618.878252381394
 20
7108.101462001304
 30
0.0
 40
16.0
100
AcDbArc
 50
285.9423686056786
 51
321.6069559807873
  0
LINE
  5
1850C
330
747D
100
AcDbEntity
  8
部品1
100
AcDbLine
 10
9622.448966595664
 20
7092.601462001304
 30
0.0
 11
9615.307538167122
 21
7092.601462001304
 31
0.0
  0
ARC
  5
1850D
330
747D
100
AcDbEntity
  8
部品1
100
AcDbCircle
 10
9622.448966595664
 20
7095.601462001304
 30
0.0
 40
3.0
100
AcDbArc
 50
270.0
 51
285.9423686056786
  0
ARC
  5
1850E
330
747D
100
AcDbEntity
  8
部品1
100
AcDbCircle
 10
9615.307538167122
 20
7095.601462001304
 30
0.0
 40
3.0
100
AcDbArc
 50
254.0576313943215
 51
270.0
  0
LINE
  5
1850F
330
747D
100
AcDbEntity
  8
部品1
 48
0.01
100
AcDbLine
 10
9635.378252381393
 20
7099.301462001299
 30
0.0
 11
9633.769860756581
 21
7099.301462001299
 31
0.0
  0
ARC
  5
18510
330
747D
100
AcDbEntity
  8
部品1
100
AcDbCircle
 10
9633.769860756581
 20
7096.301462001299
 30
0.0
 40
3.0
100
AcDbArc
 50
90.0
 51
141.6069559807873
  0
ARC
  5
18511
330
747D
100
AcDbEntity
  8
部品1
 48
0.01
100
AcDbCircle
 10
9635.378252381393
 20
7097.301462001301
 30
0.0
 40
2.0
100
AcDbArc
 50
0.0
 51
90.0
  0
LINE
  5
18512
330
747D
100
AcDbEntity
  8
部品1
100
AcDbLine
 10
9637.378252381394
 20
7092.301462001301
 30
0.0
 11
9637.378252381394
 21
7097.301462001301
 31
0.0
  0
ARC
  5
18513
330
747D
100
AcDbEntity
  8
部品1
100
AcDbCircle
 10
9611.378252381394
 20
7092.301462001301
 30
0.0
 40
26.0
100
AcDbArc
 50
340.5287793655779
 51
0.0
  0
ARC
  5
18514
330
747D
100
AcDbEntity
  8
部品1
100
AcDbCircle
 10
9636.834096504109
 20
7083.3014620013
 30
0.0
 40
1.0
100
AcDbArc
 50
160.5287793655778
 51
270.0
  0
LINE
  5
18515
330
747D
100
AcDbEntity
  8
部品1
 48
0.01
100
AcDbLine
 10
9643.378252381394
 20
7082.3014620013
 30
0.0
 11
9636.765746951331
 21
7082.3014620013
 31
0.0
  0
LINE
  5
18516
330
747D
100
AcDbEntity
  8
部品1
 48
0.01
100
AcDbLine
 10
9643.878252381394
 20
7083.8014620013
 30
0.0
 11
9643.878252381394
 21
7082.801462001301
 31
0.0
  0
LINE
  5
18517
330
747D
100
AcDbEntity
  8
部品1
 48
0.01
100
AcDbLine
 10
9643.878252381394
 20
7083.8014620013
 30
0.0
 11
9643.878252381394
 21
7082.801462001301
 31
0.0
  0
ARC
  5
18518
330
747D
100
AcDbEntity
  8
部品1
 48
0.01
100
AcDbCircle
 10
9643.378252381394
 20
7082.801462001301
 30
0.0
 40
0.5
100
AcDbArc
 50
270.0
 51
0.0
  0
LINE
  5
18519
330
747D
100
AcDbEntity
  8
細線
100
AcDbLine
 10
9783.878350794722
 20
7083.802584186368
 30
0.0
 11
9786.20988908549
 21
7088.802584186353
 31
0.0
  0
LINE
  5
1851A
330
747D
100
AcDbEntity
  8
細線
100
AcDbLine
 10
9853.878358980137
 20
7083.802566632659
 30
0.0
 11
9851.546812503951
 21
7088.802584186336
 31
0.0
  0
LINE
  5
1851B
330
747D
100
AcDbEntity
  8
細線
100
AcDbLine
 10
9851.546812503951
 20
7088.802584186336
 30
0.0
 11
9786.209889085476
 21
7088.802584186325
 31
0.0
  0
LINE
  5
1851C
330
747D
100
AcDbEntity
  8
細線
100
AcDbLine
 10
9991.546812503949
 20
7088.802584186336
 30
0.0
 11
9926.209889085477
 21
7088.802584186328
 31
0.0
  0
LINE
  5
1851D
330
747D
100
AcDbEntity
  8
細線
100
AcDbLine
 10
9993.878358980138
 20
7083.802566632659
 30
0.0
 11
9991.546812503949
 21
7088.802584186336
 31
0.0
  0
LINE
  5
1851E
330
747D
100
AcDbEntity
  8
細線
100
AcDbLine
 10
9923.878350794723
 20
7083.802584186372
 30
0.0
 11
9926.209889085489
 21
7088.802584186358
 31
0.0
  0
LINE
  5
1851F
330
747D
100
AcDbEntity
  8
細線
100
AcDbLine
 10
10230.54682068936
 20
7122.802412505627
 30
0.0
 11
10165.20989727089
 21
7122.802412505617
 31
0.0
  0
LINE
  5
18520
330
747D
100
AcDbEntity
  8
細線
100
AcDbLine
 10
10232.87836716555
 20
7117.80239495195
 30
0.0
 11
10230.54682068936
 21
7122.802412505627
 31
0.0
  0
LINE
  5
18521
330
747D
100
AcDbEntity
  8
細線
100
AcDbLine
 10
10162.87835898014
 20
7117.80241250566
 30
0.0
 11
10165.2098972709
 21
7122.802412505645
 31
0.0
  0
LINE
  5
18522
330
747D
100
AcDbEntity
  8
細線
100
AcDbLine
 10
10302.87832366124
 20
7117.80240431829
 30
0.0
 11
10305.20986195201
 21
7122.802404318275
 31
0.0
  0
LINE
  5
18523
330
747D
100
AcDbEntity
  8
細線
100
AcDbLine
 10
10372.87833184666
 20
7117.80238676458
 30
0.0
 11
10370.54678537047
 21
7122.802404318261
 31
0.0
  0
LINE
  5
18524
330
747D
100
AcDbEntity
  8
細線
100
AcDbLine
 10
10370.54678537047
 20
7122.802404318261
 30
0.0
 11
10305.209861952
 21
7122.802404318247
 31
0.0
  0
LINE
  5
18525
330
747D
100
AcDbEntity
  8
細線
100
AcDbLine
 10
10510.54682192041
 20
7122.802384014519
 30
0.0
 11
10445.20989850193
 21
7122.802384014505
 31
0.0
  0
LINE
  5
18526
330
747D
100
AcDbEntity
  8
細線
100
AcDbLine
 10
10512.8783683966
 20
7117.802366460839
 30
0.0
 11
10510.54682192041
 21
7122.802384014519
 31
0.0
  0
LINE
  5
18527
330
747D
100
AcDbEntity
  8
細線
100
AcDbLine
 10
10442.87835898014
 20
7117.802381374573
 30
0.0
 11
10445.20989850195
 21
7122.802384014534
 31
0.0
  0
LINE
  5
18528
330
747D
100
AcDbEntity
  8
細線
 48
50.0
100
AcDbLine
 10
10385.74058090469
 20
7117.80240431829
 30
0.0
 11
10391.49609848735
 21
7136.073255608784
 31
0.0
  0
LINE
  5
18529
330
747D
100
AcDbEntity
  8
細線
 48
50.0
100
AcDbLine
 10
10391.49609848735
 20
7136.073255608784
 30
0.0
 11
10402.42454696779
 21
7136.073255608784
 31
0.0
  0
ARC
  5
1852A
330
747D
100
AcDbEntity
  8
細線
 48
50.0
100
AcDbCircle
 10
10402.42454696779
 20
7135.073255608785
 30
0.0
 40
1.0
100
AcDbArc
 50
24.62431835213048
 51
90.0
  0
ARC
  5
1852B
330
747D
100
AcDbEntity
  8
細線
 48
50.0
100
AcDbCircle
 10
10413.33325908242
 20
7135.073255608785
 30
0.0
 40
1.0
100
AcDbArc
 50
90.0
 51
155.3756816478695
  0
ARC
  5
1852C
330
747D
100
AcDbEntity
  8
細線
 48
50.0
100
AcDbCircle
 10
10407.8789030251
 20
7137.573255608784
 30
0.0
 40
5.0
100
AcDbArc
 50
204.6243183521304
 51
335.3756816478695
  0
LINE
  5
1852D
330
747D
100
AcDbEntity
  8
細線
 48
50.0
100
AcDbLine
 10
10413.33325908242
 20
7136.073255608784
 30
0.0
 11
10424.26170756285
 21
7136.073255608784
 31
0.0
  0
LINE
  5
1852E
330
747D
100
AcDbEntity
  8
細線
 48
50.0
100
AcDbLine
 10
10424.26170756285
 20
7136.073255608784
 30
0.0
 11
10430.01722514552
 21
7117.802404318297
 31
0.0
  0
LINE
  5
1852F
330
747D
100
AcDbEntity
  8
細線
100
AcDbLine
 10
10748.54682192041
 20
7156.80239509565
 30
0.0
 11
10683.20989850193
 21
7156.802395095636
 31
0.0
  0
LINE
  5
18530
330
747D
100
AcDbEntity
  8
細線
100
AcDbLine
 10
10750.8783683966
 20
7151.802377541969
 30
0.0
 11
10748.54682192041
 21
7156.80239509565
 31
0.0
  0
LINE
  5
18531
330
747D
100
AcDbEntity
  8
細線
100
AcDbLine
 10
10680.87835898014
 20
7151.802392455704
 30
0.0
 11
10683.20989850195
 21
7156.802395095666
 31
0.0
  0
LINE
  5
18532
330
747D
100
AcDbEntity
  8
細線
100
AcDbLine
 10
10820.87834956368
 20
7151.802407369437
 30
0.0
 11
10823.20988908549
 21
7156.802410009399
 31
0.0
  0
LINE
  5
18533
330
747D
100
AcDbEntity
  8
細線
100
AcDbLine
 10
10890.87835898014
 20
7151.802392455704
 30
0.0
 11
10888.54681250395
 21
7156.802410009385
 31
0.0
  0
LINE
  5
18534
330
747D
100
AcDbEntity
  8
細線
100
AcDbLine
 10
10888.54681250395
 20
7156.802410009385
 30
0.0
 11
10823.20988908547
 21
7156.802410009369
 31
0.0
  0
LINE
  5
18535
330
747D
100
AcDbEntity
  8
細線
100
AcDbLine
 10
11028.54681250395
 20
7156.802410009385
 30
0.0
 11
10963.20988908547
 21
7156.802410009369
 31
0.0
  0
LINE
  5
18536
330
747D
100
AcDbEntity
  8
細線
100
AcDbLine
 10
11030.87835898014
 20
7151.802392455704
 30
0.0
 11
11028.54681250395
 21
7156.802410009385
 31
0.0
  0
LINE
  5
18537
330
747D
100
AcDbEntity
  8
細線
100
AcDbLine
 10
10960.87834956368
 20
7151.802407369437
 30
0.0
 11
10963.20988908549
 21
7156.802410009399
 31
0.0
  0
LINE
  5
18538
330
747D
100
AcDbEntity
  8
細線
 48
50.0
100
AcDbLine
 10
10071.37835898014
 20
7127.998646846606
 30
0.0
 11
9482.878358980139
 21
7127.998646846603
 31
0.0
  0
LINE
  5
18539
330
747D
100
AcDbEntity
  8
細線
 48
50.0
100
AcDbLine
 10
10112.37835898014
 20
7098.593738850354
 30
0.0
 11
11138.87835898013
 21
7098.593738850353
 31
0.0
  0
LINE
  5
1853A
330
747D
100
AcDbEntity
  8
細線
 48
50.0
100
AcDbLine
 10
10604.37836413105
 20
7132.302507404429
 30
0.0
 11
11138.87835898014
 21
7132.302507404429
 31
0.0
  0
LINE
  5
1853B
330
747D
100
AcDbEntity
  8
寸法
 48
50.0
100
AcDbLine
 10
10055.37917795853
 20
6967.061100509903
 30
0.0
 11
10274.53111813426
 21
6967.061100509903
 31
0.0
  0
LINE
  5
1853C
330
747D
100
AcDbEntity
  8
寸法
 48
50.0
100
AcDbLine
 10
10274.53111813426
 20
6967.061100509903
 30
0.0
 11
10185.24689953884
 21
6990.98473477939
 31
0.0
  0
LINE
  5
1853D
330
747D
100
AcDbEntity
  8
寸法
 48
50.0
100
AcDbLine
 10
10185.24689953884
 20
6990.98473477939
 30
0.0
 11
10185.24689953884
 21
6937.3211001976
 31
0.0
  0
LINE
  5
1853E
330
747D
100
AcDbEntity
  8
寸法
 48
50.0
100
AcDbLine
 10
9854.675357351879
 20
6933.839144024567
 30
0.0
 11
9906.081365261984
 21
6933.839144024567
 31
0.0
  0
LINE
  5
1853F
330
747D
100
AcDbEntity
  8
寸法
 48
50.0
100
AcDbLine
 10
9906.081365261984
 20
6933.839144024567
 30
0.0
 11
9906.081365261984
 21
6965.149302676732
 31
0.0
  0
LINE
  5
18540
330
747D
100
AcDbEntity
  8
寸法
 48
50.0
100
AcDbLine
 10
9906.081365261984
 20
6965.149302676732
 30
0.0
 11
9935.842697253407
 21
6965.149302676732
 31
0.0
  0
LINE
  5
18541
330
747D
100
AcDbEntity
  8
寸法
 48
50.0
100
AcDbLine
 10
9935.842697253407
 20
6965.149302676732
 30
0.0
 11
9880.378361306931
 21
7002.728753605343
 31
0.0
  0
LINE
  5
18542
330
747D
100
AcDbEntity
  8
寸法
 48
50.0
100
AcDbLine
 10
9824.914025360456
 20
6965.149302676732
 30
0.0
 11
9880.378361306931
 21
7002.728753605343
 31
0.0
  0
LINE
  5
18543
330
747D
100
AcDbEntity
  8
寸法
 48
50.0
100
AcDbLine
 10
9854.675357351879
 20
6965.149302676732
 30
0.0
 11
9824.914025360456
 21
6965.149302676732
 31
0.0
  0
LINE
  5
18544
330
747D
100
AcDbEntity
  8
寸法
 48
50.0
100
AcDbLine
 10
9854.675357351879
 20
6933.839144024567
 30
0.0
 11
9854.675357351879
 21
6965.149302676732
 31
0.0
  0
LINE
  5
18545
330
747D
100
AcDbEntity
  8
寸法
 48
50.0
100
AcDbLine
 10
9906.081365261984
 20
6933.839144024567
 30
0.0
 11
9854.675357351879
 21
6933.839144024567
 31
0.0
  0
DIMENSION
  5
1874F
330
747D
100
AcDbEntity
  8
寸法
 48
50.0
100
AcDbDimension
  2
*D44
 10
11177.87835898014
 20
6203.732122604959
 30
0.0
 11
10301.46010293196
 21
6203.732122604959
 31
0.0
 70
   160
 71
     5
 42
1734.0
  3
INABA_S40G
100
AcDbAlignedDimension
 13
9443.878358980139
 23
7078.802392455741
 33
0.0
 14
11177.87835898014
 24
7078.802392455738
 34
0.0
100
AcDbRotatedDimension
1001
ACAD
1000
DSTYLE
1002
{
1070
   341
1005
0
1002
}
  0
DIMENSION
  5
18750
330
747D
100
AcDbEntity
  8
寸法
100
AcDbDimension
  2
*D45
 10
9121.267113353452
 20
7080.802392455734
 30
0.0
 11
9121.26711335345
 21
6940.317111081497
 31
0.0
 70
   160
 71
     5
 42
75.0
  3
INABA_S40
100
AcDbAlignedDimension
 13
9415.878358980169
 23
7155.802392455735
 33
0.0
 14
9443.878358980146
 24
7080.802392455734
 34
0.0
 50
90.0
100
AcDbRotatedDimension
1001
ACAD
1000
DSTYLE
1002
{
1070
    41
1040
0.5
1070
    44
1040
1.0
1070
   147
1040
0.8
1070
   271
1070
     2
1070
   272
1070
     2
1070
   289
1070
     3
1070
   340
1005
F706
1070
   343
1005
1665C
1070
   344
1005
1665C
1002
}
  0
LINE
  5
187F4
330
747D
100
AcDbEntity
  8
部品1
100
AcDbLine
 10
10692.61369209438
 20
5684.726258068469
 30
0.0
 11
9929.143025865947
 21
5684.726258068469
 31
0.0
  0
LINE
  5
187F5
330
747D
100
AcDbEntity
  8
部品1
100
AcDbLine
 10
10692.61369209438
 20
5444.833936522936
 30
0.0
 11
10692.61369209438
 21
5684.726258068469
 31
0.0
  0
LINE
  5
187F6
330
747D
100
AcDbEntity
  8
部品1
100
AcDbLine
 10
9929.143025865947
 20
5444.833936522936
 30
0.0
 11
10692.61369209438
 21
5444.833936522936
 31
0.0
  0
LINE
  5
187F7
330
747D
100
AcDbEntity
  8
部品1
100
AcDbLine
 10
9929.143025865947
 20
5684.726258068469
 30
0.0
 11
9929.143025865947
 21
5444.833936522936
 31
0.0
  0
TEXT
  5
1882E
330
747D
100
AcDbEntity
  8
部品1
100
AcDbText
 10
10019.06263569498
 20
5491.832728849945
 30
0.0
 40
135.0
  1
平面図
  7
STYLE2
100
AcDbText
  0
DIMENSION
  5
1882F
330
747D
100
AcDbEntity
  8
寸法
100
AcDbDimension
  2
*D46
 10
11205.87835898015
 20
5963.974601710832
 30
0.0
 11
10299.02510931152
 21
5963.974601710832
 31
0.0
 70
   160
 71
     5
 42
1789.999999999982
  3
INABA_S40G
100
AcDbAlignedDimension
 13
9415.878358980169
 23
7155.802392455735
 33
0.0
 14
11205.87835898015
 24
7155.802392455864
 34
0.0
100
AcDbRotatedDimension
1001
ACAD
1000
DSTYLE
1002
{
1002
}
  0
LWPOLYLINE
  5
189EE
330
747D
100
AcDbEntity
  8
部品1
 48
50.0
100
AcDbPolyline
 90
        4
 70
     1
 43
0.0
 10
9542.928358980161
 20
3170.492732743704
 10
9545.828358980164
 20
3170.492732743704
 10
9545.828358980164
 20
3179.992732743704
 10
9542.928358980161
 20
3179.992732743704
  0
CIRCLE
  5
189EF
330
747D
100
AcDbEntity
  8
部品1
 48
50.0
100
AcDbCircle
 10
9544.378358980162
 20
3175.242732743704
 30
0.0
 40
9.0
  0
ARC
  5
189F0
330
747D
100
AcDbEntity
  8
細線
 48
50.0
100
AcDbCircle
 10
9544.378358980162
 20
3175.242732743704
 30
0.0
 40
4.0
100
AcDbArc
 50
111.2538091853132
 51
248.7461908146868
  0
ARC
  5
189F1
330
747D
100
AcDbEntity
  8
細線
 48
50.0
100
AcDbCircle
 10
9544.378358980162
 20
3175.242732743704
 30
0.0
 40
17.5
100
AcDbArc
 50
306.4837370612677
 51
233.5162629387323
  0
LINE
  5
189F2
330
747D
100
AcDbEntity
  8
細線
 48
50.0
100
AcDbLine
 10
9554.378358980159
 20
3151.383772162821
 30
0.0
 11
9554.378358980162
 21
3160.368257963062
 31
0.0
  0
LINE
  5
189F3
330
747D
100
AcDbEntity
  8
細線
 48
50.0
100
AcDbLine
 10
9534.378358980163
 20
3151.383772162823
 30
0.0
 11
9534.378358980163
 21
3160.368257963059
 31
0.0
  0
ARC
  5
189F4
330
747D
100
AcDbEntity
  8
細線
 48
50.0
100
AcDbCircle
 10
9544.378358980162
 20
3175.242732743704
 30
0.0
 40
26.5
100
AcDbArc
 50
249.3326835063939
 51
290.6673164933835
  0
ARC
  5
189F5
330
747D
100
AcDbEntity
  8
細線
 48
50.0
100
AcDbCircle
 10
9553.378358980156
 20
3151.383772162821
 30
0.0
 40
1.0
100
AcDbArc
 50
290.6673164936062
 51
359.9999999998958
  0
ARC
  5
189F6
330
747D
100
AcDbEntity
  8
細線
 48
50.0
100
AcDbCircle
 10
9535.378358980162
 20
3151.383772162823
 30
0.0
 40
1.0
100
AcDbArc
 50
180.0
 51
249.3326835066164
  0
ARC
  5
189F7
330
747D
100
AcDbEntity
  8
細線
 48
50.0
100
AcDbCircle
 10
9533.378358980163
 20
3160.368257963059
 30
0.0
 40
1.0
100
AcDbArc
 50
0.0
 51
53.51626293873231
  0
ARC
  5
189F8
330
747D
100
AcDbEntity
  8
細線
 48
50.0
100
AcDbCircle
 10
9555.378358980167
 20
3160.368257963062
 30
0.0
 40
1.0
100
AcDbArc
 50
126.4837370615127
 51
180.0
  0
ARC
  5
189F9
330
747D
100
AcDbEntity
  8
細線
 48
50.0
100
AcDbCircle
 10
9544.378358980162
 20
3175.242732743704
 30
0.0
 40
21.5
100
AcDbArc
 50
255.8014401250294
 51
284.1985598749706
  0
ARC
  5
189FA
330
747D
100
AcDbEntity
  8
細線
 48
50.0
100
AcDbCircle
 10
9544.378358980162
 20
3175.242732743704
 30
0.0
 40
16.5
100
AcDbArc
 50
251.9694646069326
 51
288.0305353930674
  0
LINE
  5
189FB
330
747D
100
AcDbEntity
  8
細線
 48
50.0
100
AcDbLine
 10
9549.878358980162
 20
3154.690360617897
 30
0.0
 11
9549.878358980162
 21
3159.267752305233
 31
0.0
  0
LINE
  5
189FC
330
747D
100
AcDbEntity
  8
細線
 48
50.0
100
AcDbLine
 10
9538.878358980161
 20
3154.690360617897
 30
0.0
 11
9538.878358980161
 21
3159.267752305232
 31
0.0
  0
ARC
  5
189FD
330
747D
100
AcDbEntity
  8
細線
 48
50.0
100
AcDbCircle
 10
9539.178358980164
 20
3159.267752305232
 30
0.0
 40
0.3
100
AcDbArc
 50
71.96946460693259
 51
180.0
  0
ARC
  5
189FE
330
747D
100
AcDbEntity
  8
細線
 48
50.0
100
AcDbCircle
 10
9549.578358980163
 20
3159.267752305233
 30
0.0
 40
0.3
100
AcDbArc
 50
0.0
 51
108.0305353930674
  0
ARC
  5
189FF
330
747D
100
AcDbEntity
  8
細線
 48
50.0
100
AcDbCircle
 10
9549.578358980159
 20
3154.690360617897
 30
0.0
 40
0.3
100
AcDbArc
 50
284.1985598747622
 51
0.0000000001042204
  0
ARC
  5
18A00
330
747D
100
AcDbEntity
  8
細線
 48
50.0
100
AcDbCircle
 10
9539.178358980164
 20
3154.690360617897
 30
0.0
 40
0.3
100
AcDbArc
 50
180.0
 51
255.8014401248081
  0
CIRCLE
  5
18A01
330
747D
100
AcDbEntity
  8
細線
 48
50.0
100
AcDbCircle
 10
9544.378358980162
 20
3175.242732743704
 30
0.0
 40
12.0
  0
ARC
  5
18A02
330
747D
100
AcDbEntity
  8
部品1
 48
50.0
100
AcDbCircle
 10
9544.378358980162
 20
3225.242732743704
 30
0.0
 40
8.5
100
AcDbArc
 50
114.315739171091
 51
245.684260828909
  0
CIRCLE
  5
18A03
330
747D
100
AcDbEntity
  8
細線
 48
50.0
100
AcDbCircle
 10
9544.378358980162
 20
3225.242732743704
 30
0.0
 40
4.5
  0
LWPOLYLINE
  5
18A04
330
747D
100
AcDbEntity
  8
部品1
 48
50.0
100
AcDbPolyline
 90
        2
 70
     0
 43
0.0
 10
9540.878358980164
 20
3243.917582140686
 10
9540.878358980164
 20
3232.988699436119
  0
CIRCLE
  5
18A05
330
747D
100
AcDbEntity
  8
部品1
 48
50.0
100
AcDbCircle
 10
9544.378358980162
 20
3225.242732743704
 30
0.0
 40
19.0
  0
LWPOLYLINE
  5
18A06
330
747D
100
AcDbEntity
  8
部品1
 48
50.0
100
AcDbPolyline
 90
        2
 70
     0
 43
0.0
 10
9540.878358980164
 20
3217.496766051289
 10
9540.878358980164
 20
3206.567883346721
  0
LWPOLYLINE
  5
18A07
330
747D
100
AcDbEntity
  8
部品1
 48
50.0
100
AcDbPolyline
 90
        2
 70
     0
 43
0.0
 10
9547.878358980161
 20
3232.988699436119
 10
9547.878358980161
 20
3243.917582140686
  0
ARC
  5
18A08
330
747D
100
AcDbEntity
  8
部品1
 48
50.0
100
AcDbCircle
 10
9544.378358980162
 20
3225.242732743704
 30
0.0
 40
8.5
100
AcDbArc
 50
294.315739171091
 51
65.68426082890896
  0
LWPOLYLINE
  5
18A09
330
747D
100
AcDbEntity
  8
部品1
 48
50.0
100
AcDbPolyline
 90
        2
 70
     0
 43
0.0
 10
9547.878358980161
 20
3206.567883346721
 10
9547.878358980161
 20
3217.496766051289
  0
ARC
  5
18A0A
330
747D
100
AcDbEntity
  8
細線
 48
50.0
100
AcDbCircle
 10
9544.378358980162
 20
3225.242732743704
 30
0.0
 40
16.5
100
AcDbArc
 50
332.0012352654438
 51
27.99876473455621
  0
ARC
  5
18A0B
330
747D
100
AcDbEntity
  8
細線
 48
50.0
100
AcDbCircle
 10
9544.378358980162
 20
3225.242732743704
 30
0.0
 40
14.0
100
AcDbArc
 50
326.4074436112986
 51
33.59255638870134
  0
LINE
  5
18A0C
330
747D
100
AcDbEntity
  8
細線
 48
50.0
100
AcDbLine
 10
9529.80955669583
 20
3232.988699436119
 30
0.0
 11
9532.716455190472
 21
3232.988699436119
 31
0.0
  0
LINE
  5
18A0D
330
747D
100
AcDbEntity
  8
細線
 48
50.0
100
AcDbLine
 10
9529.80955669583
 20
3217.496766051289
 30
0.0
 11
9532.716455190472
 21
3217.496766051289
 31
0.0
  0
LINE
  5
18A0E
330
747D
100
AcDbEntity
  8
細線
 48
50.0
100
AcDbLine
 10
9556.040262769851
 20
3232.988699436119
 30
0.0
 11
9558.947161264496
 21
3232.988699436119
 31
0.0
  0
LINE
  5
18A0F
330
747D
100
AcDbEntity
  8
細線
 48
50.0
100
AcDbLine
 10
9556.040262769851
 20
3217.496766051289
 30
0.0
 11
9558.947161264496
 21
3217.496766051289
 31
0.0
  0
ARC
  5
18A10
330
747D
100
AcDbEntity
  8
細線
 48
50.0
100
AcDbCircle
 10
9544.378358980162
 20
3225.242732743704
 30
0.0
 40
14.0
100
AcDbArc
 50
146.4074436112986
 51
213.5925563887013
  0
ARC
  5
18A11
330
747D
100
AcDbEntity
  8
細線
 48
50.0
100
AcDbCircle
 10
9544.378358980162
 20
3225.242732743704
 30
0.0
 40
16.5
100
AcDbArc
 50
152.0012352654438
 51
207.9987647345562
  0
ARC
  5
18A12
330
747D
100
AcDbEntity
  8
部品1
 48
50.0
100
AcDbCircle
 10
9517.878358980162
 20
3250.742732743704
 30
0.0
 40
5.0
100
AcDbArc
 50
90.0
 51
180.0
  0
ARC
  5
18A13
330
747D
100
AcDbEntity
  8
部品1
 48
50.0
100
AcDbCircle
 10
9517.878358980162
 20
3139.742732743704
 30
0.0
 40
5.0
100
AcDbArc
 50
180.0
 51
270.0
  0
ARC
  5
18A14
330
747D
100
AcDbEntity
  8
部品1
 48
50.0
100
AcDbCircle
 10
9570.878358980163
 20
3139.742732743704
 30
0.0
 40
5.0
100
AcDbArc
 50
270.0
 51
0.0
  0
ARC
  5
18A15
330
747D
100
AcDbEntity
  8
部品1
 48
50.0
100
AcDbCircle
 10
9570.878358980163
 20
3250.742732743704
 30
0.0
 40
5.0
100
AcDbArc
 50
0.0
 51
90.0
  0
LINE
  5
18A17
330
747D
100
AcDbEntity
  8
部品1
 48
50.0
100
AcDbLine
 10
9512.878358980163
 20
3139.742732743704
 30
0.0
 11
9512.878358980163
 21
3250.742732743704
 31
0.0
  0
LINE
  5
18A18
330
747D
100
AcDbEntity
  8
部品1
 48
50.0
100
AcDbLine
 10
9570.878358980163
 20
3134.742732743704
 30
0.0
 11
9517.878358980162
 21
3134.742732743704
 31
0.0
  0
LINE
  5
18A19
330
747D
100
AcDbEntity
  8
部品1
 48
50.0
100
AcDbLine
 10
9575.878358980162
 20
3250.742732743704
 30
0.0
 11
9575.878358980162
 21
3139.742732743704
 31
0.0
  0
ENDSEC
  0
SECTION
  2
OBJECTS
  0
DICTIONARY
  5
7471
330
0
100
AcDbDictionary
281
     1
  3
ACAD_COLOR
350
165D1
  3
ACAD_GROUP
350
7472
  3
ACAD_LAYOUT
350
165D2
  3
ACAD_MATERIAL
350
165D0
  3
ACAD_MLINESTYLE
350
7473
  3
ACAD_PLOTSETTINGS
350
165D3
  3
ACAD_PLOTSTYLENAME
350
165CE
  3
ACDBHEADERROUNDTRIPXREC
350
18A38
  3
AcDbVariableDictionary
350
18A34
  3
CONTENTDICTIONARY
350
E71C
  3
DRAWINGVARIABLESDICT
350
F3B9
  0
DICTIONARY
  5
1675F
330
7467
100
AcDbDictionary
280
     1
281
     1
  3
ACAD_LAYERSTATES
360
16760
  0
DICTIONARY
  5
165D1
102
{ACAD_REACTORS
330
7471
102
}
330
7471
100
AcDbDictionary
281
     1
  0
DICTIONARY
  5
7472
102
{ACAD_REACTORS
330
7471
102
}
330
7471
100
AcDbDictionary
281
     1
  0
DICTIONARY
  5
165D2
102
{ACAD_REACTORS
330
7471
102
}
330
7471
100
AcDbDictionary
281
     1
  3
Model
350
165D4
  3
レイアウト1
350
165D5
  0
DICTIONARY
  5
165D0
102
{ACAD_REACTORS
330
7471
102
}
330
7471
100
AcDbDictionary
281
     1
  0
DICTIONARY
  5
7473
102
{ACAD_REACTORS
330
7471
102
}
330
7471
100
AcDbDictionary
281
     1
  3
STANDARD
350
7480
  0
DICTIONARY
  5
165D3
102
{ACAD_REACTORS
330
7471
102
}
330
7471
100
AcDbDictionary
281
     1
  0
ACDBDICTIONARYWDFLT
  5
165CE
102
{ACAD_REACTORS
330
7471
102
}
330
7471
100
AcDbDictionary
281
     1
  3
Normal
350
165CF
100
AcDbDictionaryWithDefault
340
165CF
  0
DICTIONARY
  5
18A38
102
{ACAD_REACTORS
330
7471
102
}
330
7471
100
AcDbDictionary
281
     1
  3
COLORDICT
350
18A3A
  3
MATERIALDICT
350
18A39
  0
DICTIONARY
  5
18A34
102
{ACAD_REACTORS
330
7471
102
}
330
7471
100
AcDbDictionary
281
     1
  3
DIMASSOC
350
18A35
  3
PROJECTNAME
350
18A36
  0
DICTIONARY
  5
E71C
102
{ACAD_REACTORS
330
7471
102
}
330
7471
100
AcDbDictionary
281
     1
  0
DICTIONARY
  5
F3B9
102
{ACAD_REACTORS
330
7471
102
}
330
7471
100
AcDbDictionary
281
     1
1001
DRAWINGVARIABLESXDATA
1000
POLARMODE
1000
1
  0
DICTIONARY
  5
16760
102
{ACAD_REACTORS
330
1675F
102
}
330
1675F
100
AcDbDictionary
281
     1
  0
LAYOUT
  5
165D4
102
{ACAD_XDICTIONARY
360
18A3B
102
}
102
{ACAD_REACTORS
330
165D2
102
}
330
165D2
100
AcDbPlotSettings
  1

  2
クセロPDF
  4
A3
  6

 40
3.174999952316284
 41
3.174999952316284
 42
3.17498779296875
 43
3.17498779296875
 44
419.9466552734374
 45
296.9259948730469
 46
0.0
 47
0.0
 48
3.619013395666115
 49
-4.192117100517862
140
820.022926294543
141
573.2392198881443
142
1.0
143
39.99735023620806
 70
 11952
 72
     1
 73
     0
 74
     2
  7
inaba.ctb
 75
     0
147
0.0250016562120842
148
25.79074261211281
149
125.8223078213959
100
AcDbLayout
  1
Model
 70
     1
 71
     0
 10
0.0
 20
0.0
 11
12.0
 21
9.0
 12
0.0
 22
0.0
 32
0.0
 14
0.0
 24
0.0
 34
0.0
 15
0.0
 25
0.0
 35
0.0
146
0.0
 13
0.0
 23
0.0
 33
0.0
 16
1.0
 26
0.0
 36
0.0
 17
0.0
 27
1.0
 37
0.0
 76
     0
330
747D
  0
LAYOUT
  5
165D5
102
{ACAD_XDICTIONARY
360
18A3D
102
}
102
{ACAD_REACTORS
330
165D2
102
}
330
165D2
100
AcDbPlotSettings
  1

  2
Microsoft Office Document Image Writer
  4

  6

 40
0.0
 41
0.0
 42
0.0
 43
0.0
 44
0.0
 45
0.0
 46
0.0
 47
0.0
 48
0.0
 49
0.0
140
0.0
141
0.0
142
1.0
143
1.0
 70
   688
 72
     0
 73
     0
 74
     5
  7

 75
    16
147
1.0
148
0.0
149
0.0
100
AcDbLayout
  1
レイアウト1
 70
     0
 71
     1
 10
0.0
 20
0.0
 11
420.0
 21
297.0
 12
0.0
 22
0.0
 32
0.0
 14
1.000000000000000E+20
 24
1.000000000000000E+20
 34
1.000000000000000E+20
 15
-1.000000000000000E+20
 25
-1.000000000000000E+20
 35
-1.000000000000000E+20
146
0.0
 13
0.0
 23
0.0
 33
0.0
 16
1.0
 26
0.0
 36
0.0
 17
0.0
 27
1.0
 37
0.0
 76
     0
330
747A
  0
MLINESTYLE
  5
7480
102
{ACAD_REACTORS
330
7473
102
}
330
7473
100
AcDbMlineStyle
  2
STANDARD
 70
     0
  3

 62
     0
 51
90.0
 52
90.0
 71
     2
 49
0.5
 62
   256
  6
BYLAYER
 49
-0.5
 62
   256
  6
BYLAYER
  0
ACDBPLACEHOLDER
  5
165CF
102
{ACAD_REACTORS
330
165CE
102
}
330
165CE
  0
XRECORD
  5
18A3A
102
{ACAD_REACTORS
330
18A38
102
}
330
18A38
100
AcDbXrecord
280
     1
340
165D1
  0
XRECORD
  5
18A39
102
{ACAD_REACTORS
330
18A38
102
}
330
18A38
100
AcDbXrecord
280
     1
340
165D0
  0
DICTIONARYVAR
  5
18A35
102
{ACAD_REACTORS
330
18A34
102
}
330
18A34
100
DictionaryVariables
280
     0
  1
1
  0
DICTIONARYVAR
  5
18A36
102
{ACAD_REACTORS
330
18A34
102
}
330
18A34
100
DictionaryVariables
280
     0
  1

  0
DICTIONARY
  5
18A3B
330
165D4
100
AcDbDictionary
280
     1
281
     1
  3
ACAD_XREC_ROUNDTRIP
360
18A3C
  0
DICTIONARY
  5
18A3D
330
165D5
100
AcDbDictionary
280
     1
281
     1
  3
ACAD_XREC_ROUNDTRIP
360
18A3E
  0
XRECORD
  5
18A3C
102
{ACAD_REACTORS
330
18A3B
102
}
330
18A3B
100
AcDbXrecord
280
     1
102
SHADEPLOT
 70
     0
102
SHADEPLOTRESLEVEL
 70
     2
102
SHADEPLOTCUSTOMDPI
 70
   150
  0
XRECORD
  5
18A3E
102
{ACAD_REACTORS
330
18A3D
102
}
330
18A3D
100
AcDbXrecord
280
     1
102
SHADEPLOT
 70
     0
102
SHADEPLOTRESLEVEL
 70
     2
102
SHADEPLOTCUSTOMDPI
 70
   300
  0
ENDSEC
  0
EOF
