  0
SECTION
  2
HEADER
  9
$ACADVER
  1
AC1015
  9
$ACADMAINTVER
 70
    20
  9
$DWGCODEPAGE
  3
ANSI_932
  9
$INSBASE
 10
0.0
 20
0.0
 30
0.0
  9
$EXTMIN
 10
139.9999999999995
 20
-0.0000000000000909
 30
0.0
  9
$EXTMAX
 10
16307.2
 20
11409.6
 30
0.0
  9
$LIMMIN
 10
-25.79074261211281
 20
-125.8223078213959
  9
$LIMMAX
 10
16471.10331197129
 20
11496.44801950658
  9
$ORTHOMODE
 70
     0
  9
$REGENMODE
 70
     1
  9
$FILLMODE
 70
     1
  9
$QTEXTMODE
 70
     0
  9
$MIRRTEXT
 70
     1
  9
$LTSCALE
 40
20.0
  9
$ATTMODE
 70
     1
  9
$TEXTSIZE
 40
4.0
  9
$TRACEWID
 40
1.0
  9
$TEXTSTYLE
  7
STYLE1
  9
$CLAYER
  8
寸法
  9
$CELTYPE
  6
BYLAYER
  9
$CECOLOR
 62
   256
  9
$CELTSCALE
 40
50.0
  9
$DISPSILH
 70
     0
  9
$DIMSCALE
 40
40.0
  9
$DIMASZ
 40
2.5
  9
$DIMEXO
 40
0.5
  9
$DIMDLI
 40
7.0
  9
$DIMRND
 40
0.0
  9
$DIMDLE
 40
0.0
  9
$DIMEXE
 40
1.5
  9
$DIMTP
 40
0.0
  9
$DIMTM
 40
0.0
  9
$DIMTXT
 40
3.0
  9
$DIMCEN
 40
0.0
  9
$DIMTSZ
 40
0.0
  9
$DIMTOL
 70
     0
  9
$DIMLIM
 70
     0
  9
$DIMTIH
 70
     0
  9
$DIMTOH
 70
     0
  9
$DIMSE1
 70
     0
  9
$DIMSE2
 70
     0
  9
$DIMTAD
 70
     3
  9
$DIMZIN
 70
     8
  9
$DIMBLK
  1

  9
$DIMASO
 70
     1
  9
$DIMSHO
 70
     1
  9
$DIMPOST
  1

  9
$DIMAPOST
  1

  9
$DIMALT
 70
     0
  9
$DIMALTD
 70
     2
  9
$DIMALTF
 40
0.0394
  9
$DIMLFAC
 40
1.0
  9
$DIMTOFL
 70
     1
  9
$DIMTVP
 40
0.0
  9
$DIMTIX
 70
     1
  9
$DIMSOXD
 70
     0
  9
$DIMSAH
 70
     1
  9
$DIMBLK1
  1
DOTSMALL
  9
$DIMBLK2
  1
DOTSMALL
  9
$DIMSTYLE
  2
INABA_S40G
  9
$DIMCLRD
 70
     0
  9
$DIMCLRE
 70
     0
  9
$DIMCLRT
 70
     7
  9
$DIMTFAC
 40
1.0
  9
$DIMGAP
 40
1.0
  9
$DIMJUST
 70
     0
  9
$DIMSD1
 70
     0
  9
$DIMSD2
 70
     0
  9
$DIMTOLJ
 70
     1
  9
$DIMTZIN
 70
     0
  9
$DIMALTZ
 70
     0
  9
$DIMALTTZ
 70
     0
  9
$DIMUPT
 70
     0
  9
$DIMDEC
 70
     1
  9
$DIMTDEC
 70
     4
  9
$DIMALTU
 70
     2
  9
$DIMALTTD
 70
     2
  9
$DIMTXSTY
  7
STYLE1
  9
$DIMAUNIT
 70
     0
  9
$DIMADEC
 70
     0
  9
$DIMALTRND
 40
0.0
  9
$DIMAZIN
 70
     0
  9
$DIMDSEP
 70
    46
  9
$DIMATFIT
 70
     3
  9
$DIMFRAC
 70
     0
  9
$DIMLDRBLK
  1

  9
$DIMLUNIT
 70
     2
  9
$DIMLWD
 70
    -2
  9
$DIMLWE
 70
    -2
  9
$DIMTMOVE
 70
     0
  9
$LUNITS
 70
     2
  9
$LUPREC
 70
     1
  9
$SKETCHINC
 40
1.0
  9
$FILLETRAD
 40
3.0
  9
$AUNITS
 70
     0
  9
$AUPREC
 70
     0
  9
$MENU
  1
acad
  9
$ELEVATION
 40
0.0
  9
$PELEVATION
 40
0.0
  9
$THICKNESS
 40
0.0
  9
$LIMCHECK
 70
     0
  9
$CHAMFERA
 40
0.0
  9
$CHAMFERB
 40
0.0
  9
$CHAMFERC
 40
0.0
  9
$CHAMFERD
 40
0.0
  9
$SKPOLY
 70
     0
  9
$TDCREATE
 40
2451368.612993866
  9
$TDUCREATE
 40
2451368.237993866
  9
$TDUPDATE
 40
2455575.682656968
  9
$TDUUPDATE
 40
2455575.307656967
  9
$TDINDWG
 40
0.4525158333
  9
$TDUSRTIMER
 40
0.4525158333
  9
$USRTIMER
 70
     1
  9
$ANGBASE
 50
0.0
  9
$ANGDIR
 70
     0
  9
$PDMODE
 70
     3
  9
$PDSIZE
 40
2.0
  9
$PLINEWID
 40
0.0
  9
$SPLFRAME
 70
     0
  9
$SPLINETYPE
 70
     6
  9
$SPLINESEGS
 70
     8
  9
$HANDSEED
  5
1871E
  9
$SURFTAB1
 70
     6
  9
$SURFTAB2
 70
     6
  9
$SURFTYPE
 70
     6
  9
$SURFU
 70
     6
  9
$SURFV
 70
     6
  9
$UCSBASE
  2

  9
$UCSNAME
  2

  9
$UCSORG
 10
0.0
 20
0.0
 30
0.0
  9
$UCSXDIR
 10
1.0
 20
0.0
 30
0.0
  9
$UCSYDIR
 10
0.0
 20
1.0
 30
0.0
  9
$UCSORTHOREF
  2

  9
$UCSORTHOVIEW
 70
     0
  9
$UCSORGTOP
 10
0.0
 20
0.0
 30
0.0
  9
$UCSORGBOTTOM
 10
0.0
 20
0.0
 30
0.0
  9
$UCSORGLEFT
 10
0.0
 20
0.0
 30
0.0
  9
$UCSORGRIGHT
 10
0.0
 20
0.0
 30
0.0
  9
$UCSORGFRONT
 10
0.0
 20
0.0
 30
0.0
  9
$UCSORGBACK
 10
0.0
 20
0.0
 30
0.0
  9
$PUCSBASE
  2

  9
$PUCSNAME
  2

  9
$PUCSORG
 10
0.0
 20
0.0
 30
0.0
  9
$PUCSXDIR
 10
1.0
 20
0.0
 30
0.0
  9
$PUCSYDIR
 10
0.0
 20
1.0
 30
0.0
  9
$PUCSORTHOREF
  2

  9
$PUCSORTHOVIEW
 70
     0
  9
$PUCSORGTOP
 10
0.0
 20
0.0
 30
0.0
  9
$PUCSORGBOTTOM
 10
0.0
 20
0.0
 30
0.0
  9
$PUCSORGLEFT
 10
0.0
 20
0.0
 30
0.0
  9
$PUCSORGRIGHT
 10
0.0
 20
0.0
 30
0.0
  9
$PUCSORGFRONT
 10
0.0
 20
0.0
 30
0.0
  9
$PUCSORGBACK
 10
0.0
 20
0.0
 30
0.0
  9
$USERI1
 70
     0
  9
$USERI2
 70
     0
  9
$USERI3
 70
     0
  9
$USERI4
 70
     0
  9
$USERI5
 70
     0
  9
$USERR1
 40
0.0
  9
$USERR2
 40
0.0
  9
$USERR3
 40
0.0
  9
$USERR4
 40
0.0
  9
$USERR5
 40
0.0
  9
$WORLDVIEW
 70
     1
  9
$SHADEDGE
 70
     3
  9
$SHADEDIF
 70
    70
  9
$TILEMODE
 70
     1
  9
$MAXACTVP
 70
    16
  9
$PINSBASE
 10
0.0
 20
0.0
 30
0.0
  9
$PLIMCHECK
 70
     0
  9
$PEXTMIN
 10
1.000000000000000E+20
 20
1.000000000000000E+20
 30
1.000000000000000E+20
  9
$PEXTMAX
 10
-1.000000000000000E+20
 20
-1.000000000000000E+20
 30
-1.000000000000000E+20
  9
$PLIMMIN
 10
0.0
 20
0.0
  9
$PLIMMAX
 10
420.0
 20
297.0
  9
$UNITMODE
 70
     0
  9
$VISRETAIN
 70
     0
  9
$PLINEGEN
 70
     0
  9
$PSLTSCALE
 70
     0
  9
$TREEDEPTH
 70
  3020
  9
$CMLSTYLE
  2
STANDARD
  9
$CMLJUST
 70
     0
  9
$CMLSCALE
 40
1.0
  9
$PROXYGRAPHICS
 70
     1
  9
$MEASUREMENT
 70
     1
  9
$CELWEIGHT
370
    -1
  9
$ENDCAPS
280
     0
  9
$JOINSTYLE
280
     0
  9
$LWDISPLAY
290
     0
  9
$INSUNITS
 70
     0
  9
$HYPERLINKBASE
  1

  9
$STYLESHEET
  1
inaba.ctb
  9
$XEDIT
290
     1
  9
$CEPSNTYPE
380
     0
  9
$PSTYLEMODE
290
     1
  9
$FINGERPRINTGUID
  2
{C5B70D3B-B124-4707-A0BE-44636710A769}
  9
$VERSIONGUID
  2
{3C4D1CC5-B2D1-40AF-981C-CD0B9D6798B3}
  9
$EXTNAMES
290
     1
  9
$PSVPSCALE
 40
0.0
  9
$OLESTARTUP
290
     0
  0
ENDSEC
  0
SECTION
  2
CLASSES
  0
CLASS
  1
ACDBDICTIONARYWDFLT
  2
AcDbDictionaryWithDefault
  3
ObjectDBX Classes
 90
        0
280
     0
281
     0
  0
CLASS
  1
DICTIONARYVAR
  2
AcDbDictionaryVar
  3
ObjectDBX Classes
 90
        0
280
     0
281
     0
  0
CLASS
  1
ACDBPLACEHOLDER
  2
AcDbPlaceHolder
  3
ObjectDBX Classes
 90
        0
280
     0
281
     0
  0
CLASS
  1
LAYOUT
  2
AcDbLayout
  3
ObjectDBX Classes
 90
        0
280
     0
281
     0
  0
ENDSEC
  0
SECTION
  2
TABLES
  0
TABLE
  2
VPORT
  5
746D
330
0
100
AcDbSymbolTable
 70
     2
  0
VPORT
  5
18716
330
746D
100
AcDbSymbolTableRecord
100
AcDbViewportTableRecord
  2
*Active
 70
     0
 10
0.0
 20
0.0
 11
1.0
 21
1.0
 12
8223.761025238504
 22
5704.608037261908
 13
0.0
 23
0.0
 14
10.0
 24
10.0
 15
10.0
 25
10.0
 16
0.0
 26
0.0
 36
1.0
 17
0.0
 27
0.0
 37
0.0
 40
11495.08541324274
 41
1.525925925925925
 42
50.0
 43
0.0
 44
0.0
 50
0.0
 51
0.0
 71
     0
 72
     0
 73
     1
 74
     0
 75
     0
 76
     0
 77
     0
 78
     0
281
     0
 65
     1
110
0.0
120
0.0
130
0.0
111
1.0
121
0.0
131
0.0
112
0.0
122
1.0
132
0.0
 79
     0
146
0.0
  0
ENDTAB
  0
TABLE
  2
LTYPE
  5
746A
330
0
100
AcDbSymbolTable
 70
     4
  0
LTYPE
  5
7477
330
746A
100
AcDbSymbolTableRecord
100
AcDbLinetypeTableRecord
  2
BYBLOCK
 70
     0
  3

 72
    65
 73
     0
 40
0.0
  0
LTYPE
  5
7478
330
746A
100
AcDbSymbolTableRecord
100
AcDbLinetypeTableRecord
  2
BYLAYER
 70
     0
  3

 72
    65
 73
     0
 40
0.0
  0
LTYPE
  5
7479
330
746A
100
AcDbSymbolTableRecord
100
AcDbLinetypeTableRecord
  2
CONTINUOUS
 70
     0
  3
Solid line
 72
    65
 73
     0
 40
0.0
  0
LTYPE
  5
7816
330
746A
100
AcDbSymbolTableRecord
100
AcDbLinetypeTableRecord
  2
CENTER
 70
     0
  3
____ _ ____ _ ____ _ ____ _ ____ _ ____ _ ____ 
 72
    65
 73
     4
 40
2.0
 49
1.25
 74
     0
 49
-0.25
 74
     0
 49
0.25
 74
     0
 49
-0.25
 74
     0
  0
LTYPE
  5
781A
330
746A
100
AcDbSymbolTableRecord
100
AcDbLinetypeTableRecord
  2
HIDDEN
 70
     0
  3
__ __ __ __ __ __ __ __ __ __ __ __ __ __ __ __
 72
    65
 73
     2
 40
0.375
 49
0.25
 74
     0
 49
-0.125
 74
     0
  0
LTYPE
  5
781B
330
746A
100
AcDbSymbolTableRecord
100
AcDbLinetypeTableRecord
  2
PHANTOM
 70
     0
  3
______  __  __  ______  __  __  ______  __  __ 
 72
    65
 73
     6
 40
2.5
 49
1.25
 74
     0
 49
-0.25
 74
     0
 49
0.25
 74
     0
 49
-0.25
 74
     0
 49
0.25
 74
     0
 49
-0.25
 74
     0
  0
ENDTAB
  0
TABLE
  2
LAYER
  5
7467
102
{ACAD_XDICTIONARY
360
16B47
102
}
330
0
100
AcDbSymbolTable
 70
    12
  0
LAYER
  5
7474
330
7467
100
AcDbSymbolTableRecord
100
AcDbLayerTableRecord
  2
0
 70
     0
 62
     7
  6
CONTINUOUS
370
    -3
390
169B7
  0
LAYER
  5
DEB2
330
7467
100
AcDbSymbolTableRecord
100
AcDbLayerTableRecord
  2
センター
 70
     0
 62
     3
  6
CENTER
370
    -3
390
169B7
  0
LAYER
  5
DEB3
330
7467
100
AcDbSymbolTableRecord
100
AcDbLayerTableRecord
  2
寸法
 70
     0
 62
     4
  6
CONTINUOUS
370
    -3
390
169B7
  0
LAYER
  5
DEB4
330
7467
100
AcDbSymbolTableRecord
100
AcDbLayerTableRecord
  2
部品1
 70
     0
 62
     7
  6
CONTINUOUS
370
    -3
390
169B7
  0
LAYER
  5
DEB5
330
7467
100
AcDbSymbolTableRecord
100
AcDbLayerTableRecord
  2
補助
 70
     0
 62
    -1
  6
CONTINUOUS
370
    -3
390
169B7
  0
LAYER
  5
DEB6
330
7467
100
AcDbSymbolTableRecord
100
AcDbLayerTableRecord
  2
文字
 70
     0
 62
     7
  6
CONTINUOUS
370
    -3
390
169B7
  0
LAYER
  5
F255
330
7467
100
AcDbSymbolTableRecord
100
AcDbLayerTableRecord
  2
DEFPOINTS
 70
     0
 62
     7
  6
CONTINUOUS
290
     0
370
    -3
390
169B7
  0
LAYER
  5
10B54
330
7467
100
AcDbSymbolTableRecord
100
AcDbLayerTableRecord
  2
仕様書枠
 70
     0
 62
   230
  6
CONTINUOUS
370
    -3
390
169B7
  0
LAYER
  5
11729
330
7467
100
AcDbSymbolTableRecord
100
AcDbLayerTableRecord
  2
Ｇ．Ｌ
 70
     0
 62
    30
  6
CONTINUOUS
370
    -3
390
169B7
  0
LAYER
  5
1173F
330
7467
100
AcDbSymbolTableRecord
100
AcDbLayerTableRecord
  2
細線
 70
     0
 62
     5
  6
CONTINUOUS
370
    -3
390
169B7
  0
LAYER
  5
12CC4
330
7467
100
AcDbSymbolTableRecord
100
AcDbLayerTableRecord
  2
想像線
 70
     0
 62
     6
  6
PHANTOM
370
    -3
390
169B7
  0
LAYER
  5
142E2
330
7467
100
AcDbSymbolTableRecord
100
AcDbLayerTableRecord
  2
破線
 70
     0
 62
     2
  6
HIDDEN
370
    -3
390
169B7
  0
ENDTAB
  0
TABLE
  2
STYLE
  5
7468
330
0
100
AcDbSymbolTable
 70
     4
  0
STYLE
  5
7475
330
7468
100
AcDbSymbolTableRecord
100
AcDbTextStyleTableRecord
  2
STANDARD
 70
     0
 40
0.0
 41
1.0
 50
0.0
 71
     0
 42
4.0
  3
txt
  4
C:\AutoCAD LT\bigfont.shx
  0
STYLE
  5
F706
330
7468
100
AcDbSymbolTableRecord
100
AcDbTextStyleTableRecord
  2
STYLE1
 70
     0
 40
0.0
 41
1.0
 50
0.0
 71
     0
 42
4.0
  3
isocp.shx
  4
bigfont.shx
  0
STYLE
  5
103BF
330
7468
100
AcDbSymbolTableRecord
100
AcDbTextStyleTableRecord
  2
STYLE2
 70
     0
 40
0.0
 41
1.0
 50
0.0
 71
     0
 42
100.0
  3
MS PGothic.ttf
  4

1001
ACAD
1000
MS PGothic
1071
    32818
  0
STYLE
  5
180D8
330
7468
100
AcDbSymbolTableRecord
100
AcDbTextStyleTableRecord
  2
STYLE3
 70
     0
 40
0.0
 41
1.0
 50
0.0
 71
     0
 42
100.0
  3
DFPGothic-EB.ttf
  4

1001
ACAD
1000
DFPGothic-EB
1071
    32818
  0
ENDTAB
  0
TABLE
  2
VIEW
  5
746B
330
0
100
AcDbSymbolTable
 70
     0
  0
ENDTAB
  0
TABLE
  2
UCS
  5
746C
330
0
100
AcDbSymbolTable
 70
     0
  0
ENDTAB
  0
TABLE
  2
APPID
  5
746E
330
0
100
AcDbSymbolTable
 70
     6
  0
APPID
  5
7476
330
746E
100
AcDbSymbolTableRecord
100
AcDbRegAppTableRecord
  2
ACAD
 70
     0
  0
APPID
  5
DEA9
330
746E
100
AcDbSymbolTableRecord
100
AcDbRegAppTableRecord
  2
CONTENTBLOCKICON
 70
     0
  0
APPID
  5
DEAA
330
746E
100
AcDbSymbolTableRecord
100
AcDbRegAppTableRecord
  2
CONTENTBLOCKDESCRIPTION
 70
     0
  0
APPID
  5
E71D
330
746E
100
AcDbSymbolTableRecord
100
AcDbRegAppTableRecord
  2
CONTENTTABDATA
 70
     0
  0
APPID
  5
E71E
330
746E
100
AcDbSymbolTableRecord
100
AcDbRegAppTableRecord
  2
CONTENTCURRENTTAB
 70
     0
  0
APPID
  5
F3BA
330
746E
100
AcDbSymbolTableRecord
100
AcDbRegAppTableRecord
  2
DRAWINGVARIABLESXDATA
 70
     0
  0
ENDTAB
  0
TABLE
  2
DIMSTYLE
  5
746F
330
0
100
AcDbSymbolTable
 70
     5
100
AcDbDimStyleTable
 71
     0
  0
DIMSTYLE
105
7484
330
746F
100
AcDbSymbolTableRecord
100
AcDbDimStyleTableRecord
  2
JIS
 70
     0
 41
2.5
 42
1.0
 43
7.0
 44
1.0
 73
     0
 74
     0
 77
     1
 78
     8
140
2.5
141
0.0
143
0.0394
147
0.0
172
     1
174
     1
175
     1
340
7475
  0
DIMSTYLE
105
F71F
102
{ACAD_REACTORS
330
16E2B
330
16E2C
330
16E2D
330
16E2E
330
16E48
330
16E49
330
16E4D
330
16E64
330
16E72
330
16E73
330
16E74
330
16E75
330
16F19
330
16F76
330
16F77
330
16F78
330
16FD4
330
16FD5
330
17DBE
330
17DC1
330
17DC6
330
17DCE
330
17DCF
330
17DD0
330
17DDC
330
17DDE
330
17E0A
330
17E0B
330
1842E
330
1850E
102
}
330
746F
100
AcDbSymbolTableRecord
100
AcDbDimStyleTableRecord
  2
INABA_S40G
 70
     0
 40
40.0
 41
2.5
 42
0.5
 43
7.0
 44
1.5
 73
     0
 74
     0
 77
     3
 78
     8
140
3.0
141
0.0
143
0.0394
147
1.0
172
     1
173
     1
174
     1
178
     7
271
     1
340
F706
341
F770
343
F770
344
F770
  0
DIMSTYLE
105
16B46
102
{ACAD_REACTORS
330
181DB
330
1842F
102
}
330
746F
100
AcDbSymbolTableRecord
100
AcDbDimStyleTableRecord
  2
INABA_S40
 70
     0
 40
40.0
 41
2.5
 42
0.5
 43
7.0
 44
1.5
 73
     0
 74
     0
 77
     3
 78
     8
140
3.0
141
0.0
143
0.0394
147
1.0
172
     1
173
     1
174
     1
175
     1
178
     7
340
7475
  0
DIMSTYLE
105
180D9
330
746F
100
AcDbSymbolTableRecord
100
AcDbDimStyleTableRecord
  2
INABA_S50G
 70
     0
 41
125.0
 42
25.0
 43
7.0
 44
75.0
 73
     0
 74
     0
 77
     3
 78
     8
140
150.0
141
0.0
143
0.0394
147
25.0
172
     1
173
     1
174
     1
175
     1
178
     7
271
     1
340
F706
341
F770
343
F770
344
F770
  0
DIMSTYLE
105
1869C
330
746F
100
AcDbSymbolTableRecord
100
AcDbDimStyleTableRecord
  2
INABA_S20G
 70
     0
 40
20.0
 41
2.5
 42
0.5
 43
7.0
 44
1.5
 73
     0
 74
     0
 77
     3
 78
     8
140
3.0
141
0.0
143
0.0394
147
1.0
172
     1
173
     1
174
     1
178
     7
271
     1
340
F706
341
F770
343
F770
344
F770
  0
ENDTAB
  0
TABLE
  2
BLOCK_RECORD
  5
7466
330
0
100
AcDbSymbolTable
 70
    34
  0
BLOCK_RECORD
  5
747D
330
7466
100
AcDbSymbolTableRecord
100
AcDbBlockTableRecord
  2
*MODEL_SPACE
340
169BC
  0
BLOCK_RECORD
  5
747A
330
7466
100
AcDbSymbolTableRecord
100
AcDbBlockTableRecord
  2
*PAPER_SPACE
340
169BD
  0
BLOCK_RECORD
  5
F770
330
7466
100
AcDbSymbolTableRecord
100
AcDbBlockTableRecord
  2
_DOTSMALL
340
0
102
{BLKREFS
331
1786C
331
1786D
331
1787E
331
1787F
331
17889
331
1788A
331
17892
331
17893
331
1789B
331
1789C
331
17906
331
17907
331
1790F
331
17910
331
1791A
331
1791B
331
17923
331
17924
331
1792D
331
1792E
331
17936
331
17937
331
1793F
331
17940
331
17949
331
1794A
331
17954
331
17955
331
1795E
331
1795F
331
17BE6
331
17BE7
331
17BF0
331
17BF1
331
17BF9
331
17BFA
331
1800D
331
1800E
331
18016
331
18017
331
18033
331
18034
331
1803E
331
1803F
331
18049
331
1804A
331
18066
331
18067
331
18081
331
18082
331
1808C
331
1808D
331
18097
331
18098
331
1865D
331
1865E
331
18666
331
18667
331
1868D
331
1868E
102
}
  0
BLOCK_RECORD
  5
169C4
330
7466
100
AcDbSymbolTableRecord
100
AcDbBlockTableRecord
  2
_DOT
340
0
102
{BLKREFS
331
1826B
331
1826C
331
18671
331
18672
102
}
  0
BLOCK_RECORD
  5
170F3
330
7466
100
AcDbSymbolTableRecord
100
AcDbBlockTableRecord
  2
*D2
340
0
  0
BLOCK_RECORD
  5
170FF
330
7466
100
AcDbSymbolTableRecord
100
AcDbBlockTableRecord
  2
*D3
340
0
  0
BLOCK_RECORD
  5
1710B
330
7466
100
AcDbSymbolTableRecord
100
AcDbBlockTableRecord
  2
*D4
340
0
  0
BLOCK_RECORD
  5
17118
330
7466
100
AcDbSymbolTableRecord
100
AcDbBlockTableRecord
  2
*D5
340
0
  0
BLOCK_RECORD
  5
17126
330
7466
100
AcDbSymbolTableRecord
100
AcDbBlockTableRecord
  2
*D6
340
0
  0
BLOCK_RECORD
  5
17133
330
7466
100
AcDbSymbolTableRecord
100
AcDbBlockTableRecord
  2
*D7
340
0
  0
BLOCK_RECORD
  5
1713F
330
7466
100
AcDbSymbolTableRecord
100
AcDbBlockTableRecord
  2
*D8
340
0
  0
BLOCK_RECORD
  5
1714B
330
7466
100
AcDbSymbolTableRecord
100
AcDbBlockTableRecord
  2
*D9
340
0
  0
BLOCK_RECORD
  5
17158
330
7466
100
AcDbSymbolTableRecord
100
AcDbBlockTableRecord
  2
*D10
340
0
  0
BLOCK_RECORD
  5
17164
330
7466
100
AcDbSymbolTableRecord
100
AcDbBlockTableRecord
  2
*D11
340
0
  0
BLOCK_RECORD
  5
17172
330
7466
100
AcDbSymbolTableRecord
100
AcDbBlockTableRecord
  2
*D12
340
0
  0
BLOCK_RECORD
  5
1717E
330
7466
100
AcDbSymbolTableRecord
100
AcDbBlockTableRecord
  2
*D13
340
0
  0
BLOCK_RECORD
  5
1720A
330
7466
100
AcDbSymbolTableRecord
100
AcDbBlockTableRecord
  2
*D14
340
0
  0
BLOCK_RECORD
  5
17216
330
7466
100
AcDbSymbolTableRecord
100
AcDbBlockTableRecord
  2
*D15
340
0
  0
BLOCK_RECORD
  5
17222
330
7466
100
AcDbSymbolTableRecord
100
AcDbBlockTableRecord
  2
*D16
340
0
  0
BLOCK_RECORD
  5
17230
330
7466
100
AcDbSymbolTableRecord
100
AcDbBlockTableRecord
  2
*D17
340
0
  0
BLOCK_RECORD
  5
1723C
330
7466
100
AcDbSymbolTableRecord
100
AcDbBlockTableRecord
  2
*D18
340
0
  0
BLOCK_RECORD
  5
17248
330
7466
100
AcDbSymbolTableRecord
100
AcDbBlockTableRecord
  2
*D19
340
0
  0
BLOCK_RECORD
  5
17EBC
330
7466
100
AcDbSymbolTableRecord
100
AcDbBlockTableRecord
  2
*D20
340
0
  0
BLOCK_RECORD
  5
17EC8
330
7466
100
AcDbSymbolTableRecord
100
AcDbBlockTableRecord
  2
*D21
340
0
  0
BLOCK_RECORD
  5
17ED6
330
7466
100
AcDbSymbolTableRecord
100
AcDbBlockTableRecord
  2
*D22
340
0
  0
BLOCK_RECORD
  5
17EE2
330
7466
100
AcDbSymbolTableRecord
100
AcDbBlockTableRecord
  2
*D23
340
0
  0
BLOCK_RECORD
  5
17EF0
330
7466
100
AcDbSymbolTableRecord
100
AcDbBlockTableRecord
  2
*D24
340
0
  0
BLOCK_RECORD
  5
17EFE
330
7466
100
AcDbSymbolTableRecord
100
AcDbBlockTableRecord
  2
*D25
340
0
  0
BLOCK_RECORD
  5
17F16
330
7466
100
AcDbSymbolTableRecord
100
AcDbBlockTableRecord
  2
*D26
340
0
  0
BLOCK_RECORD
  5
17F24
330
7466
100
AcDbSymbolTableRecord
100
AcDbBlockTableRecord
  2
*D27
340
0
  0
BLOCK_RECORD
  5
17F30
330
7466
100
AcDbSymbolTableRecord
100
AcDbBlockTableRecord
  2
*D28
340
0
  0
BLOCK_RECORD
  5
17F3C
330
7466
100
AcDbSymbolTableRecord
100
AcDbBlockTableRecord
  2
*D29
340
0
  0
BLOCK_RECORD
  5
1823F
330
7466
100
AcDbSymbolTableRecord
100
AcDbBlockTableRecord
  2
*D30
340
0
  0
BLOCK_RECORD
  5
18520
330
7466
100
AcDbSymbolTableRecord
100
AcDbBlockTableRecord
  2
*D31
340
0
  0
BLOCK_RECORD
  5
1852C
330
7466
100
AcDbSymbolTableRecord
100
AcDbBlockTableRecord
  2
*D32
340
0
  0
BLOCK_RECORD
  5
18578
330
7466
100
AcDbSymbolTableRecord
100
AcDbBlockTableRecord
  2
*D33
340
0
  0
ENDTAB
  0
ENDSEC
  0
SECTION
  2
BLOCKS
  0
BLOCK
  5
7489
330
747D
100
AcDbEntity
  8
0
100
AcDbBlockBegin
  2
*MODEL_SPACE
 70
     0
 10
0.0
 20
0.0
 30
0.0
  3
*MODEL_SPACE
  1

  0
ENDBLK
  5
748A
330
747D
100
AcDbEntity
  8
0
100
AcDbBlockEnd
  0
BLOCK
  5
7487
330
747A
100
AcDbEntity
 67
     1
  8
0
100
AcDbBlockBegin
  2
*PAPER_SPACE
 70
     0
 10
0.0
 20
0.0
 30
0.0
  3
*PAPER_SPACE
  1

  0
ENDBLK
  5
7488
330
747A
100
AcDbEntity
 67
     1
  8
0
100
AcDbBlockEnd
  0
BLOCK
  5
F771
330
F770
100
AcDbEntity
  8
0
 48
50.0
100
AcDbBlockBegin
  2
_DOTSMALL
 70
     0
 10
0.0
 20
0.0
 30
0.0
  3
_DOTSMALL
  1

  0
LWPOLYLINE
  5
F772
330
F770
100
AcDbEntity
  8
0
  6
ByBlock
 62
     0
 48
50.0
100
AcDbPolyline
 90
        2
 70
     1
 43
0.5
 10
-0.0625
 20
0.0
 42
1.0
 10
0.0625
 20
0.0
 42
1.0
  0
ENDBLK
  5
F776
330
F770
100
AcDbEntity
  8
0
 48
50.0
100
AcDbBlockEnd
  0
BLOCK
  5
169C5
330
169C4
100
AcDbEntity
  8
0
 48
50.0
100
AcDbBlockBegin
  2
_DOT
 70
     0
 10
0.0
 20
0.0
 30
0.0
  3
_DOT
  1

  0
LWPOLYLINE
  5
169C6
330
169C4
100
AcDbEntity
  8
0
  6
ByBlock
 62
     0
 48
50.0
100
AcDbPolyline
 90
        2
 70
     1
 43
0.5
 10
-0.25
 20
0.0
 42
1.0
 10
0.25
 20
0.0
 42
1.0
  0
LINE
  5
169C7
330
169C4
100
AcDbEntity
  8
0
  6
ByBlock
 62
     0
 48
50.0
100
AcDbLine
 10
-0.5
 20
0.0
 30
0.0
 11
-1.0
 21
0.0
 31
0.0
  0
ENDBLK
  5
169C8
330
169C4
100
AcDbEntity
  8
0
 48
50.0
100
AcDbBlockEnd
  0
BLOCK
  5
170FD
330
170F3
100
AcDbEntity
  8
0
 48
50.0
100
AcDbBlockBegin
  2
*D2
 70
     1
 10
0.0
 20
0.0
 30
0.0
  3
*D2
  1

  0
LINE
  5
17BED
330
170F3
100
AcDbEntity
  8
寸法
 62
     0
 48
50.0
370
    -2
100
AcDbLine
 10
4476.744402057344
 20
4089.913363169652
 30
0.0
 11
3813.091692899048
 21
4089.913363169652
 31
0.0
  0
LINE
  5
17BEE
330
170F3
100
AcDbEntity
  8
寸法
 62
     0
 48
50.0
370
    -2
100
AcDbLine
 10
4476.744402057344
 20
1999.913363169652
 30
0.0
 11
3813.091692899048
 21
1999.913363169652
 31
0.0
  0
LINE
  5
17BEF
330
170F3
100
AcDbEntity
  8
寸法
 62
     0
 48
50.0
370
    -2
100
AcDbLine
 10
3873.091692899048
 20
4089.913363169652
 30
0.0
 11
3873.091692899048
 21
1999.913363169652
 31
0.0
  0
INSERT
  5
17BF0
330
170F3
100
AcDbEntity
  8
寸法
 62
     0
 48
50.0
370
    -2
100
AcDbBlockReference
  2
_DOTSMALL
 10
3873.091692899048
 20
4089.913363169652
 30
0.0
 41
100.0
 42
100.0
 43
100.0
 50
90.0
  0
INSERT
  5
17BF1
330
170F3
100
AcDbEntity
  8
寸法
 62
     0
 48
50.0
370
    -2
100
AcDbBlockReference
  2
_DOTSMALL
 10
3873.091692899048
 20
1999.913363169652
 30
0.0
 41
100.0
 42
100.0
 43
100.0
 50
270.0
  0
MTEXT
  5
17BF2
330
170F3
100
AcDbEntity
  8
寸法
 62
     7
 48
50.0
100
AcDbMText
 10
3773.079881875425
 20
3044.913363169652
 30
0.0
 40
120.0
 41
0.0
 71
     5
 72
     1
  1
\A1;2090
  7
STYLE1
 11
0.0000000000000001
 21
1.0
 31
0.0
 73
     1
 44
1.0
1001
ACAD
1000
MTEXTBEGIN
1070
    73
1070
     1
1070
    44
1040
1.0
1070
    74
1070
     0
1000
MTEXTEND
  0
POINT
  5
17BF3
330
170F3
100
AcDbEntity
  8
DEFPOINTS
 62
     0
 48
50.0
100
AcDbPoint
 10
4496.744402057344
 20
4089.913363169652
 30
0.0
  0
POINT
  5
17BF4
330
170F3
100
AcDbEntity
  8
DEFPOINTS
 62
     0
 48
50.0
100
AcDbPoint
 10
4496.744402057344
 20
1999.913363169652
 30
0.0
  0
POINT
  5
17BF5
330
170F3
100
AcDbEntity
  8
DEFPOINTS
 62
     0
 48
50.0
100
AcDbPoint
 10
3873.091692899048
 20
1999.913363169652
 30
0.0
  0
ENDBLK
  5
170FE
330
170F3
100
AcDbEntity
  8
0
 48
50.0
100
AcDbBlockEnd
  0
BLOCK
  5
17109
330
170FF
100
AcDbEntity
  8
0
 48
50.0
100
AcDbBlockBegin
  2
*D3
 70
     1
 10
0.0
 20
0.0
 30
0.0
  3
*D3
  1

  0
LINE
  5
17BF6
330
170FF
100
AcDbEntity
  8
寸法
 62
     0
 48
50.0
370
    -2
100
AcDbLine
 10
4476.744402057344
 20
1949.913363169652
 30
0.0
 11
3528.105020127985
 21
1949.913363169653
 31
0.0
  0
LINE
  5
17BF7
330
170FF
100
AcDbEntity
  8
寸法
 62
     0
 48
50.0
370
    -2
100
AcDbLine
 10
4416.744402057344
 20
4324.913363169656
 30
0.0
 11
3528.105020127986
 21
4324.913363169656
 31
0.0
  0
LINE
  5
17BF8
330
170FF
100
AcDbEntity
  8
寸法
 62
     0
 48
50.0
370
    -2
100
AcDbLine
 10
3588.105020127986
 20
1949.913363169652
 30
0.0
 11
3588.105020127986
 21
4324.913363169656
 31
0.0
  0
INSERT
  5
17BF9
330
170FF
100
AcDbEntity
  8
寸法
 62
     0
 48
50.0
370
    -2
100
AcDbBlockReference
  2
_DOTSMALL
 10
3588.105020127986
 20
1949.913363169652
 30
0.0
 41
100.0
 42
100.0
 43
100.0
 50
270.0
  0
INSERT
  5
17BFA
330
170FF
100
AcDbEntity
  8
寸法
 62
     0
 48
50.0
370
    -2
100
AcDbBlockReference
  2
_DOTSMALL
 10
3588.105020127986
 20
4324.913363169656
 30
0.0
 41
100.0
 42
100.0
 43
100.0
 50
90.0
  0
MTEXT
  5
17BFB
330
170FF
100
AcDbEntity
  8
寸法
 62
     7
 48
50.0
100
AcDbMText
 10
3488.093209104363
 20
3044.913363169652
 30
0.0
 40
120.0
 41
0.0
 71
     5
 72
     1
  1
\A1;2375
  7
STYLE1
 11
0.0000000000000001
 21
1.0
 31
0.0
 73
     1
 44
1.0
1001
ACAD
1000
MTEXTBEGIN
1070
    73
1070
     1
1070
    44
1040
1.0
1070
    74
1070
     0
1000
MTEXTEND
  0
POINT
  5
17BFC
330
170FF
100
AcDbEntity
  8
DEFPOINTS
 62
     0
 48
50.0
100
AcDbPoint
 10
4496.744402057344
 20
1949.913363169652
 30
0.0
  0
POINT
  5
17BFD
330
170FF
100
AcDbEntity
  8
DEFPOINTS
 62
     0
 48
50.0
100
AcDbPoint
 10
4436.744402057343
 20
4324.913363169656
 30
0.0
  0
POINT
  5
17BFE
330
170FF
100
AcDbEntity
  8
DEFPOINTS
 62
     0
 48
50.0
100
AcDbPoint
 10
3588.105020127986
 20
4324.913363169656
 30
0.0
  0
ENDBLK
  5
1710A
330
170FF
100
AcDbEntity
  8
0
 48
50.0
100
AcDbBlockEnd
  0
BLOCK
  5
17116
330
1710B
100
AcDbEntity
  8
0
 48
50.0
100
AcDbBlockBegin
  2
*D4
 70
     1
 10
0.0
 20
0.0
 30
0.0
  3
*D4
  1

  0
LINE
  5
1795A
330
1710B
100
AcDbEntity
  8
寸法
 62
     0
 48
50.0
370
    -2
100
AcDbLine
 10
4421.744402057344
 20
1949.913363169652
 30
0.0
 11
3528.105020127985
 21
1949.913363169653
 31
0.0
  0
LINE
  5
1795B
330
1710B
100
AcDbEntity
  8
寸法
 62
     0
 48
50.0
370
    -2
100
AcDbLine
 10
3853.091692899047
 20
1849.913363169652
 30
0.0
 11
3528.105020127985
 21
1849.913363169653
 31
0.0
  0
LINE
  5
1795C
330
1710B
100
AcDbEntity
  8
寸法
 62
     0
 48
50.0
370
    -2
100
AcDbLine
 10
3588.105020127986
 20
1949.913363169652
 30
0.0
 11
3588.105020127986
 21
1849.913363169652
 31
0.0
  0
LINE
  5
1795D
330
1710B
100
AcDbEntity
  8
寸法
 62
     0
 48
50.0
370
    -2
100
AcDbLine
 10
3588.105020127986
 20
1849.913363169652
 30
0.0
 11
3588.105020127986
 21
1477.818874980671
 31
0.0
  0
INSERT
  5
1795E
330
1710B
100
AcDbEntity
  8
寸法
 62
     0
 48
50.0
370
    -2
100
AcDbBlockReference
  2
_DOTSMALL
 10
3588.105020127986
 20
1949.913363169652
 30
0.0
 41
100.0
 42
100.0
 43
100.0
 50
90.0
  0
INSERT
  5
1795F
330
1710B
100
AcDbEntity
  8
寸法
 62
     0
 48
50.0
370
    -2
100
AcDbBlockReference
  2
_DOTSMALL
 10
3588.105020127986
 20
1849.913363169652
 30
0.0
 41
100.0
 42
100.0
 43
100.0
 50
270.0
  0
MTEXT
  5
17960
330
1710B
100
AcDbEntity
  8
寸法
 62
     7
 48
50.0
100
AcDbMText
 10
3488.105020127985
 20
1613.86611907516
 30
0.0
 40
120.0
 41
0.0
 71
     5
 72
     1
  1
\A1;100
  7
STYLE1
 11
0.0000000000000001
 21
1.0
 31
0.0
 73
     1
 44
1.0
1001
ACAD
1000
MTEXTBEGIN
1070
    73
1070
     1
1070
    44
1040
1.0
1070
    74
1070
     0
1000
MTEXTEND
  0
POINT
  5
17961
330
1710B
100
AcDbEntity
  8
DEFPOINTS
 62
     0
 48
50.0
100
AcDbPoint
 10
4441.744402057344
 20
1949.913363169652
 30
0.0
  0
POINT
  5
17962
330
1710B
100
AcDbEntity
  8
DEFPOINTS
 62
     0
 48
50.0
100
AcDbPoint
 10
3873.091692899047
 20
1849.913363169652
 30
0.0
  0
POINT
  5
17963
330
1710B
100
AcDbEntity
  8
DEFPOINTS
 62
     0
 48
50.0
100
AcDbPoint
 10
3588.105020127986
 20
1849.913363169652
 30
0.0
  0
ENDBLK
  5
17117
330
1710B
100
AcDbEntity
  8
0
 48
50.0
100
AcDbBlockEnd
  0
BLOCK
  5
17124
330
17118
100
AcDbEntity
  8
0
 48
50.0
100
AcDbBlockBegin
  2
*D5
 70
     1
 10
0.0
 20
0.0
 30
0.0
  3
*D5
  1

  0
LINE
  5
1794F
330
17118
100
AcDbEntity
  8
寸法
 62
     0
 48
50.0
370
    -2
100
AcDbLine
 10
4476.744402057344
 20
1999.913363169652
 30
0.0
 11
3813.091692899046
 21
1999.913363169652
 31
0.0
  0
LINE
  5
17950
330
17118
100
AcDbEntity
  8
寸法
 62
     0
 48
50.0
370
    -2
100
AcDbLine
 10
4421.744402057344
 20
1949.913363169652
 30
0.0
 11
3813.091692899046
 21
1949.913363169652
 31
0.0
  0
LINE
  5
17951
330
17118
100
AcDbEntity
  8
寸法
 62
     0
 48
50.0
370
    -2
100
AcDbLine
 10
3873.091692899047
 20
1999.913363169652
 30
0.0
 11
3873.091692899047
 21
2099.913363169652
 31
0.0
  0
LINE
  5
17952
330
17118
100
AcDbEntity
  8
寸法
 62
     0
 48
50.0
370
    -2
100
AcDbLine
 10
3873.091692899047
 20
1949.913363169652
 30
0.0
 11
3873.091692899047
 21
1537.818874980671
 31
0.0
  0
LINE
  5
17953
330
17118
100
AcDbEntity
  8
寸法
 62
     0
 48
50.0
370
    -2
100
AcDbLine
 10
3873.091692899047
 20
1999.913363169652
 30
0.0
 11
3873.091692899047
 21
1949.913363169652
 31
0.0
  0
INSERT
  5
17954
330
17118
100
AcDbEntity
  8
寸法
 62
     0
 48
50.0
370
    -2
100
AcDbBlockReference
  2
_DOTSMALL
 10
3873.091692899047
 20
1999.913363169652
 30
0.0
 41
100.0
 42
100.0
 43
100.0
 50
270.0
  0
INSERT
  5
17955
330
17118
100
AcDbEntity
  8
寸法
 62
     0
 48
50.0
370
    -2
100
AcDbBlockReference
  2
_DOTSMALL
 10
3873.091692899047
 20
1949.913363169652
 30
0.0
 41
100.0
 42
100.0
 43
100.0
 50
90.0
  0
MTEXT
  5
17956
330
17118
100
AcDbEntity
  8
寸法
 62
     7
 48
50.0
100
AcDbMText
 10
3773.091692899047
 20
1643.86611907516
 30
0.0
 40
120.0
 41
0.0
 71
     5
 72
     1
  1
\A1;50
  7
STYLE1
 11
0.0000000000000001
 21
1.0
 31
0.0
 73
     1
 44
1.0
1001
ACAD
1000
MTEXTBEGIN
1070
    73
1070
     1
1070
    44
1040
1.0
1070
    74
1070
     0
1000
MTEXTEND
  0
POINT
  5
17957
330
17118
100
AcDbEntity
  8
DEFPOINTS
 62
     0
 48
50.0
100
AcDbPoint
 10
4496.744402057344
 20
1999.913363169652
 30
0.0
  0
POINT
  5
17958
330
17118
100
AcDbEntity
  8
DEFPOINTS
 62
     0
 48
50.0
100
AcDbPoint
 10
4441.744402057344
 20
1949.913363169652
 30
0.0
  0
POINT
  5
17959
330
17118
100
AcDbEntity
  8
DEFPOINTS
 62
     0
 48
50.0
100
AcDbPoint
 10
3873.091692899047
 20
1949.913363169652
 30
0.0
  0
ENDBLK
  5
17125
330
17118
100
AcDbEntity
  8
0
 48
50.0
100
AcDbBlockEnd
  0
BLOCK
  5
17131
330
17126
100
AcDbEntity
  8
0
 48
50.0
100
AcDbBlockBegin
  2
*D6
 70
     1
 10
0.0
 20
0.0
 30
0.0
  3
*D6
  1

  0
LINE
  5
17945
330
17126
100
AcDbEntity
  8
寸法
 62
     0
 48
50.0
370
    -2
100
AcDbLine
 10
4436.148688348446
 20
4324.211070239314
 30
0.0
 11
3820.214249243184
 21
4341.925220513643
 31
0.0
  0
LINE
  5
17946
330
17126
100
AcDbEntity
  8
寸法
 62
     0
 48
50.0
370
    -2
100
AcDbLine
 10
4432.09523279182
 20
4183.269346473601
 30
0.0
 11
3816.160793686557
 21
4200.983496747929
 31
0.0
  0
LINE
  5
17947
330
17126
100
AcDbEntity
  8
寸法
 62
     0
 48
50.0
370
    -2
100
AcDbLine
 10
3876.135995288989
 20
4199.258622042982
 30
0.0
 11
3880.189450845615
 21
4340.200345808696
 31
0.0
  0
LINE
  5
17948
330
17126
100
AcDbEntity
  8
寸法
 62
     0
 48
50.0
370
    -2
100
AcDbLine
 10
3880.189450845615
 20
4340.200345808696
 30
0.0
 11
3890.5386990753
 21
4700.051555423282
 31
0.0
  0
INSERT
  5
17949
330
17126
100
AcDbEntity
  8
寸法
 62
     0
 48
50.0
370
    -2
100
AcDbBlockReference
  2
_DOTSMALL
 10
3876.135995288989
 20
4199.258622042982
 30
0.0
 41
100.0
 42
100.0
 43
100.0
 50
268.3526390256378
  0
INSERT
  5
1794A
330
17126
100
AcDbEntity
  8
寸法
 62
     0
 48
50.0
370
    -2
100
AcDbBlockReference
  2
_DOTSMALL
 10
3880.189450845615
 20
4340.200345808696
 30
0.0
 41
100.0
 42
100.0
 43
100.0
 50
88.35263902563776
  0
MTEXT
  5
1794B
330
17126
100
AcDbEntity
  8
寸法
 62
     7
 48
50.0
100
AcDbMText
 10
3786.842801210528
 20
4572.980076459594
 30
0.0
 40
120.0
 41
0.0
 71
     5
 72
     1
  1
\A1;141
  7
STYLE1
 11
0.0287479117491237
 21
0.9995866933738488
 31
0.0
 73
     1
 44
1.0
1001
ACAD
1000
MTEXTBEGIN
1070
    73
1070
     1
1070
    44
1040
1.0
1070
    74
1070
     0
1000
MTEXTEND
  0
POINT
  5
1794C
330
17126
100
AcDbEntity
  8
DEFPOINTS
 62
     0
 48
50.0
100
AcDbPoint
 10
4456.140422215923
 20
4323.636112004332
 30
0.0
  0
POINT
  5
1794D
330
17126
100
AcDbEntity
  8
DEFPOINTS
 62
     0
 48
50.0
100
AcDbPoint
 10
4452.086966659297
 20
4182.694388238618
 30
0.0
  0
POINT
  5
1794E
330
17126
100
AcDbEntity
  8
DEFPOINTS
 62
     0
 48
50.0
100
AcDbPoint
 10
3876.135995288989
 20
4199.258622042982
 30
0.0
  0
ENDBLK
  5
17132
330
17126
100
AcDbEntity
  8
0
 48
50.0
100
AcDbBlockEnd
  0
BLOCK
  5
1713D
330
17133
100
AcDbEntity
  8
0
 48
50.0
100
AcDbBlockBegin
  2
*D7
 70
     1
 10
0.0
 20
0.0
 30
0.0
  3
*D7
  1

  0
LINE
  5
1793C
330
17133
100
AcDbEntity
  8
寸法
 62
     0
 48
50.0
370
    -2
100
AcDbLine
 10
4404.244402057347
 20
1649.913363169651
 30
0.0
 11
4214.74439881071
 21
1649.913363169651
 31
0.0
  0
LINE
  5
1793D
330
17133
100
AcDbEntity
  8
寸法
 62
     0
 48
50.0
370
    -2
100
AcDbLine
 10
4379.244402057344
 20
1849.913363169651
 30
0.0
 11
4214.74439881071
 21
1849.913363169651
 31
0.0
  0
LINE
  5
1793E
330
17133
100
AcDbEntity
  8
寸法
 62
     0
 48
50.0
370
    -2
100
AcDbLine
 10
4274.744398810709
 20
1649.913363169651
 30
0.0
 11
4274.744398810709
 21
1849.913363169651
 31
0.0
  0
INSERT
  5
1793F
330
17133
100
AcDbEntity
  8
寸法
 62
     0
 48
50.0
370
    -2
100
AcDbBlockReference
  2
_DOTSMALL
 10
4274.744398810709
 20
1649.913363169651
 30
0.0
 41
100.0
 42
100.0
 43
100.0
 50
270.0
  0
INSERT
  5
17940
330
17133
100
AcDbEntity
  8
寸法
 62
     0
 48
50.0
370
    -2
100
AcDbBlockReference
  2
_DOTSMALL
 10
4274.744398810709
 20
1849.913363169651
 30
0.0
 41
100.0
 42
100.0
 43
100.0
 50
90.0
  0
MTEXT
  5
17941
330
17133
100
AcDbEntity
  8
寸法
 62
     7
 48
50.0
100
AcDbMText
 10
4174.732587787088
 20
1749.913363169652
 30
0.0
 40
120.0
 41
0.0
 71
     5
 72
     1
  1
\A1;200
  7
STYLE1
 11
0.0000000000000001
 21
1.0
 31
0.0
 73
     1
 44
1.0
1001
ACAD
1000
MTEXTBEGIN
1070
    73
1070
     1
1070
    44
1040
1.0
1070
    74
1070
     0
1000
MTEXTEND
  0
POINT
  5
17942
330
17133
100
AcDbEntity
  8
DEFPOINTS
 62
     0
 48
50.0
100
AcDbPoint
 10
4424.244402057348
 20
1649.913363169651
 30
0.0
  0
POINT
  5
17943
330
17133
100
AcDbEntity
  8
DEFPOINTS
 62
     0
 48
50.0
100
AcDbPoint
 10
4399.244402057344
 20
1849.913363169651
 30
0.0
  0
POINT
  5
17944
330
17133
100
AcDbEntity
  8
DEFPOINTS
 62
     0
 48
50.0
100
AcDbPoint
 10
4274.744398810709
 20
1849.913363169651
 30
0.0
  0
ENDBLK
  5
1713E
330
17133
100
AcDbEntity
  8
0
 48
50.0
100
AcDbBlockEnd
  0
BLOCK
  5
17149
330
1713F
100
AcDbEntity
  8
0
 48
50.0
100
AcDbBlockBegin
  2
*D8
 70
     1
 10
0.0
 20
0.0
 30
0.0
  3
*D8
  1

  0
LINE
  5
17933
330
1713F
100
AcDbEntity
  8
寸法
 62
     0
 48
50.0
370
    -2
100
AcDbLine
 10
4624.244402057343
 20
1629.913363169649
 30
0.0
 11
4624.244402057343
 21
1303.866033869273
 31
0.0
  0
LINE
  5
17934
330
1713F
100
AcDbEntity
  8
寸法
 62
     0
 48
50.0
370
    -2
100
AcDbLine
 10
4424.244402057348
 20
1629.913363169651
 30
0.0
 11
4424.244402057348
 21
1303.866033869273
 31
0.0
  0
LINE
  5
17935
330
1713F
100
AcDbEntity
  8
寸法
 62
     0
 48
50.0
370
    -2
100
AcDbLine
 10
4624.244402057343
 20
1363.866033869273
 30
0.0
 11
4424.244402057348
 21
1363.866033869273
 31
0.0
  0
INSERT
  5
17936
330
1713F
100
AcDbEntity
  8
寸法
 62
     0
 48
50.0
370
    -2
100
AcDbBlockReference
  2
_DOTSMALL
 10
4624.244402057343
 20
1363.866033869273
 30
0.0
 41
100.0
 42
100.0
 43
100.0
  0
INSERT
  5
17937
330
1713F
100
AcDbEntity
  8
寸法
 62
     0
 48
50.0
370
    -2
100
AcDbBlockReference
  2
_DOTSMALL
 10
4424.244402057348
 20
1363.866033869273
 30
0.0
 41
100.0
 42
100.0
 43
100.0
 50
180.0
  0
MTEXT
  5
17938
330
1713F
100
AcDbEntity
  8
寸法
 62
     7
 48
50.0
100
AcDbMText
 10
4524.244402057346
 20
1463.877844892896
 30
0.0
 40
120.0
 41
0.0
 71
     5
 72
     1
  1
\A1;200
  7
STYLE1
 73
     1
 44
1.0
1001
ACAD
1000
MTEXTBEGIN
1070
    73
1070
     1
1070
    44
1040
1.0
1070
    74
1070
     0
1000
MTEXTEND
  0
POINT
  5
17939
330
1713F
100
AcDbEntity
  8
DEFPOINTS
 62
     0
 48
50.0
100
AcDbPoint
 10
4624.244402057343
 20
1649.913363169649
 30
0.0
  0
POINT
  5
1793A
330
1713F
100
AcDbEntity
  8
DEFPOINTS
 62
     0
 48
50.0
100
AcDbPoint
 10
4424.244402057348
 20
1649.913363169651
 30
0.0
  0
POINT
  5
1793B
330
1713F
100
AcDbEntity
  8
DEFPOINTS
 62
     0
 48
50.0
100
AcDbPoint
 10
4424.244402057348
 20
1363.866033869273
 30
0.0
  0
ENDBLK
  5
1714A
330
1713F
100
AcDbEntity
  8
0
 48
50.0
100
AcDbBlockEnd
  0
BLOCK
  5
17156
330
1714B
100
AcDbEntity
  8
0
 48
50.0
100
AcDbBlockBegin
  2
*D9
 70
     1
 10
0.0
 20
0.0
 30
0.0
  3
*D9
  1

  0
LINE
  5
17929
330
1714B
100
AcDbEntity
  8
寸法
 62
     0
 48
50.0
370
    -2
100
AcDbLine
 10
7126.744402057344
 20
4291.724042781307
 30
0.0
 11
7126.744402057344
 21
4783.570816748958
 31
0.0
  0
LINE
  5
1792A
330
1714B
100
AcDbEntity
  8
寸法
 62
     0
 48
50.0
370
    -2
100
AcDbLine
 10
7206.744402057345
 20
4289.913363169655
 30
0.0
 11
7206.744402057345
 21
4783.570816748958
 31
0.0
  0
LINE
  5
1792B
330
1714B
100
AcDbEntity
  8
寸法
 62
     0
 48
50.0
370
    -2
100
AcDbLine
 10
7126.744402057344
 20
4723.570816748958
 30
0.0
 11
7206.744402057345
 21
4723.570816748958
 31
0.0
  0
LINE
  5
1792C
330
1714B
100
AcDbEntity
  8
寸法
 62
     0
 48
50.0
370
    -2
100
AcDbLine
 10
7206.744402057345
 20
4723.570816748958
 30
0.0
 11
7518.838890246321
 21
4723.570816748958
 31
0.0
  0
INSERT
  5
1792D
330
1714B
100
AcDbEntity
  8
寸法
 62
     0
 48
50.0
370
    -2
100
AcDbBlockReference
  2
_DOTSMALL
 10
7126.744402057344
 20
4723.570816748958
 30
0.0
 41
100.0
 42
100.0
 43
100.0
 50
180.0
  0
INSERT
  5
1792E
330
1714B
100
AcDbEntity
  8
寸法
 62
     0
 48
50.0
370
    -2
100
AcDbBlockReference
  2
_DOTSMALL
 10
7206.744402057345
 20
4723.570816748958
 30
0.0
 41
100.0
 42
100.0
 43
100.0
  0
MTEXT
  5
1792F
330
1714B
100
AcDbEntity
  8
寸法
 62
     7
 48
50.0
100
AcDbMText
 10
7412.791646151834
 20
4823.570816748958
 30
0.0
 40
120.0
 41
0.0
 71
     5
 72
     1
  1
\A1;80
  7
STYLE1
 73
     1
 44
1.0
1001
ACAD
1000
MTEXTBEGIN
1070
    73
1070
     1
1070
    44
1040
1.0
1070
    74
1070
     0
1000
MTEXTEND
  0
POINT
  5
17930
330
1714B
100
AcDbEntity
  8
DEFPOINTS
 62
     0
 48
50.0
100
AcDbPoint
 10
7126.744402057344
 20
4271.724042781307
 30
0.0
  0
POINT
  5
17931
330
1714B
100
AcDbEntity
  8
DEFPOINTS
 62
     0
 48
50.0
100
AcDbPoint
 10
7206.744402057345
 20
4269.913363169655
 30
0.0
  0
POINT
  5
17932
330
1714B
100
AcDbEntity
  8
DEFPOINTS
 62
     0
 48
50.0
100
AcDbPoint
 10
7206.744402057345
 20
4723.570816748958
 30
0.0
  0
ENDBLK
  5
17157
330
1714B
100
AcDbEntity
  8
0
 48
50.0
100
AcDbBlockEnd
  0
BLOCK
  5
17162
330
17158
100
AcDbEntity
  8
0
 48
50.0
100
AcDbBlockBegin
  2
*D10
 70
     1
 10
0.0
 20
0.0
 30
0.0
  3
*D10
  1

  0
LINE
  5
17920
330
17158
100
AcDbEntity
  8
寸法
 62
     0
 48
50.0
370
    -2
100
AcDbLine
 10
7206.744402057345
 20
4289.913363169655
 30
0.0
 11
7206.744402057345
 21
5003.781503480575
 31
0.0
  0
LINE
  5
17921
330
17158
100
AcDbEntity
  8
寸法
 62
     0
 48
50.0
370
    -2
100
AcDbLine
 10
4436.744402057343
 20
4344.913363169657
 30
0.0
 11
4436.744402057343
 21
5003.781503480575
 31
0.0
  0
LINE
  5
17922
330
17158
100
AcDbEntity
  8
寸法
 62
     0
 48
50.0
370
    -2
100
AcDbLine
 10
7206.744402057345
 20
4943.781503480575
 30
0.0
 11
4436.744402057343
 21
4943.781503480575
 31
0.0
  0
INSERT
  5
17923
330
17158
100
AcDbEntity
  8
寸法
 62
     0
 48
50.0
370
    -2
100
AcDbBlockReference
  2
_DOTSMALL
 10
7206.744402057345
 20
4943.781503480575
 30
0.0
 41
100.0
 42
100.0
 43
100.0
  0
INSERT
  5
17924
330
17158
100
AcDbEntity
  8
寸法
 62
     0
 48
50.0
370
    -2
100
AcDbBlockReference
  2
_DOTSMALL
 10
4436.744402057343
 20
4943.781503480575
 30
0.0
 41
100.0
 42
100.0
 43
100.0
 50
180.0
  0
MTEXT
  5
17925
330
17158
100
AcDbEntity
  8
寸法
 62
     7
 48
50.0
100
AcDbMText
 10
5840.10332694472
 20
5043.793314504197
 30
0.0
 40
120.0
 41
0.0
 71
     5
 72
     1
  1
\A1;2770
  7
STYLE1
 73
     1
 44
1.0
1001
ACAD
1000
MTEXTBEGIN
1070
    73
1070
     1
1070
    44
1040
1.0
1070
    74
1070
     0
1000
MTEXTEND
  0
POINT
  5
17926
330
17158
100
AcDbEntity
  8
DEFPOINTS
 62
     0
 48
50.0
100
AcDbPoint
 10
7206.744402057345
 20
4269.913363169655
 30
0.0
  0
POINT
  5
17927
330
17158
100
AcDbEntity
  8
DEFPOINTS
 62
     0
 48
50.0
100
AcDbPoint
 10
4436.744402057343
 20
4324.913363169658
 30
0.0
  0
POINT
  5
17928
330
17158
100
AcDbEntity
  8
DEFPOINTS
 62
     0
 48
50.0
100
AcDbPoint
 10
4436.744402057343
 20
4943.781503480575
 30
0.0
  0
ENDBLK
  5
17163
330
17158
100
AcDbEntity
  8
0
 48
50.0
100
AcDbBlockEnd
  0
BLOCK
  5
17170
330
17164
100
AcDbEntity
  8
0
 48
50.0
100
AcDbBlockBegin
  2
*D11
 70
     1
 10
0.0
 20
0.0
 30
0.0
  3
*D11
  1

  0
LINE
  5
17915
330
17164
100
AcDbEntity
  8
寸法
 62
     0
 48
50.0
370
    -2
100
AcDbLine
 10
4496.744402057344
 20
4340.914981292629
 30
0.0
 11
4496.744402057344
 21
4783.570816748958
 31
0.0
  0
LINE
  5
17916
330
17164
100
AcDbEntity
  8
寸法
 62
     0
 48
50.0
370
    -2
100
AcDbLine
 10
4436.744402057343
 20
4344.913363169657
 30
0.0
 11
4436.744402057343
 21
4783.570816748958
 31
0.0
  0
LINE
  5
17917
330
17164
100
AcDbEntity
  8
寸法
 62
     0
 48
50.0
370
    -2
100
AcDbLine
 10
4496.744402057344
 20
4723.570816748957
 30
0.0
 11
4596.744402057344
 21
4723.570816748957
 31
0.0
  0
LINE
  5
17918
330
17164
100
AcDbEntity
  8
寸法
 62
     0
 48
50.0
370
    -2
100
AcDbLine
 10
4436.744402057343
 20
4723.570816748957
 30
0.0
 11
4017.468811506162
 21
4723.570816748957
 31
0.0
  0
LINE
  5
17919
330
17164
100
AcDbEntity
  8
寸法
 62
     0
 48
50.0
370
    -2
100
AcDbLine
 10
4496.744402057344
 20
4723.570816748957
 30
0.0
 11
4436.744402057343
 21
4723.570816748957
 31
0.0
  0
INSERT
  5
1791A
330
17164
100
AcDbEntity
  8
寸法
 62
     0
 48
50.0
370
    -2
100
AcDbBlockReference
  2
_DOTSMALL
 10
4496.744402057344
 20
4723.570816748957
 30
0.0
 41
100.0
 42
100.0
 43
100.0
 50
180.0
  0
INSERT
  5
1791B
330
17164
100
AcDbEntity
  8
寸法
 62
     0
 48
50.0
370
    -2
100
AcDbBlockReference
  2
_DOTSMALL
 10
4436.744402057343
 20
4723.570816748957
 30
0.0
 41
100.0
 42
100.0
 43
100.0
  0
MTEXT
  5
1791C
330
17164
100
AcDbEntity
  8
寸法
 62
     7
 48
50.0
100
AcDbMText
 10
4127.106606781754
 20
4823.570816748958
 30
0.0
 40
120.0
 41
0.0
 71
     5
 72
     1
  1
\A1;60
  7
STYLE1
 73
     1
 44
1.0
1001
ACAD
1000
MTEXTBEGIN
1070
    73
1070
     1
1070
    44
1040
1.0
1070
    74
1070
     0
1000
MTEXTEND
  0
POINT
  5
1791D
330
17164
100
AcDbEntity
  8
DEFPOINTS
 62
     0
 48
50.0
100
AcDbPoint
 10
4496.744402057344
 20
4320.91498129263
 30
0.0
  0
POINT
  5
1791E
330
17164
100
AcDbEntity
  8
DEFPOINTS
 62
     0
 48
50.0
100
AcDbPoint
 10
4436.744402057343
 20
4324.913363169658
 30
0.0
  0
POINT
  5
1791F
330
17164
100
AcDbEntity
  8
DEFPOINTS
 62
     0
 48
50.0
100
AcDbPoint
 10
4436.744402057343
 20
4723.570816748957
 30
0.0
  0
ENDBLK
  5
17171
330
17164
100
AcDbEntity
  8
0
 48
50.0
100
AcDbBlockEnd
  0
BLOCK
  5
1717C
330
17172
100
AcDbEntity
  8
0
 48
50.0
100
AcDbBlockBegin
  2
*D12
 70
     1
 10
0.0
 20
0.0
 30
0.0
  3
*D12
  1

  0
LINE
  5
1790C
330
17172
100
AcDbEntity
  8
寸法
 62
     0
 48
50.0
370
    -2
100
AcDbLine
 10
7126.744402057344
 20
4291.724042781307
 30
0.0
 11
7126.744402057344
 21
4783.570816748958
 31
0.0
  0
LINE
  5
1790D
330
17172
100
AcDbEntity
  8
寸法
 62
     0
 48
50.0
370
    -2
100
AcDbLine
 10
4496.744402057344
 20
4340.914981292629
 30
0.0
 11
4496.744402057344
 21
4783.570816748958
 31
0.0
  0
LINE
  5
1790E
330
17172
100
AcDbEntity
  8
寸法
 62
     0
 48
50.0
370
    -2
100
AcDbLine
 10
7126.744402057344
 20
4723.570816748958
 30
0.0
 11
4496.744402057344
 21
4723.570816748958
 31
0.0
  0
INSERT
  5
1790F
330
17172
100
AcDbEntity
  8
寸法
 62
     0
 48
50.0
370
    -2
100
AcDbBlockReference
  2
_DOTSMALL
 10
7126.744402057344
 20
4723.570816748958
 30
0.0
 41
100.0
 42
100.0
 43
100.0
  0
INSERT
  5
17910
330
17172
100
AcDbEntity
  8
寸法
 62
     0
 48
50.0
370
    -2
100
AcDbBlockReference
  2
_DOTSMALL
 10
4496.744402057344
 20
4723.570816748958
 30
0.0
 41
100.0
 42
100.0
 43
100.0
 50
180.0
  0
MTEXT
  5
17911
330
17172
100
AcDbEntity
  8
寸法
 62
     7
 48
50.0
100
AcDbMText
 10
5851.514593086538
 20
4823.58262777258
 30
0.0
 40
120.0
 41
0.0
 71
     5
 72
     1
  1
\A1;柱外寸法2630
  7
STYLE1
 73
     1
 44
1.0
1001
ACAD
1000
MTEXTBEGIN
1070
    73
1070
     1
1070
    44
1040
1.0
1070
    74
1070
     0
1000
MTEXTEND
  0
POINT
  5
17912
330
17172
100
AcDbEntity
  8
DEFPOINTS
 62
     0
 48
50.0
100
AcDbPoint
 10
7126.744402057344
 20
4271.724042781307
 30
0.0
  0
POINT
  5
17913
330
17172
100
AcDbEntity
  8
DEFPOINTS
 62
     0
 48
50.0
100
AcDbPoint
 10
4496.744402057344
 20
4320.91498129263
 30
0.0
  0
POINT
  5
17914
330
17172
100
AcDbEntity
  8
DEFPOINTS
 62
     0
 48
50.0
100
AcDbPoint
 10
4496.744402057344
 20
4723.570816748958
 30
0.0
  0
ENDBLK
  5
1717D
330
17172
100
AcDbEntity
  8
0
 48
50.0
100
AcDbBlockEnd
  0
BLOCK
  5
17188
330
1717E
100
AcDbEntity
  8
0
 48
50.0
100
AcDbBlockBegin
  2
*D13
 70
     1
 10
0.0
 20
0.0
 30
0.0
  3
*D13
  1

  0
LINE
  5
17903
330
1717E
100
AcDbEntity
  8
寸法
 62
     0
 48
50.0
370
    -2
100
AcDbLine
 10
7223.744402057348
 20
1949.913363169654
 30
0.0
 11
7891.671560029475
 21
1949.913363169654
 31
0.0
  0
LINE
  5
17904
330
1717E
100
AcDbEntity
  8
寸法
 62
     0
 48
50.0
370
    -2
100
AcDbLine
 10
7226.744402057343
 20
4269.913363169655
 30
0.0
 11
7891.671560029475
 21
4269.913363169655
 31
0.0
  0
LINE
  5
17905
330
1717E
100
AcDbEntity
  8
寸法
 62
     0
 48
50.0
370
    -2
100
AcDbLine
 10
7831.671560029474
 20
1949.913363169654
 30
0.0
 11
7831.671560029476
 21
4269.913363169655
 31
0.0
  0
INSERT
  5
17906
330
1717E
100
AcDbEntity
  8
寸法
 62
     0
 48
50.0
370
    -2
100
AcDbBlockReference
  2
_DOTSMALL
 10
7831.671560029474
 20
1949.913363169654
 30
0.0
 41
100.0
 42
100.0
 43
100.0
 50
270.0
  0
INSERT
  5
17907
330
1717E
100
AcDbEntity
  8
寸法
 62
     0
 48
50.0
370
    -2
100
AcDbBlockReference
  2
_DOTSMALL
 10
7831.671560029476
 20
4269.913363169655
 30
0.0
 41
100.0
 42
100.0
 43
100.0
 50
90.0
  0
MTEXT
  5
17908
330
1717E
100
AcDbEntity
  8
寸法
 62
     7
 48
50.0
100
AcDbMText
 10
7731.659749005853
 20
3109.913363169656
 30
0.0
 40
120.0
 41
0.0
 71
     5
 72
     1
  1
\A1;2320
  7
STYLE1
 11
0.0000000000000001
 21
1.0
 31
0.0
 73
     1
 44
1.0
1001
ACAD
1000
MTEXTBEGIN
1070
    73
1070
     1
1070
    44
1040
1.0
1070
    74
1070
     0
1000
MTEXTEND
  0
POINT
  5
17909
330
1717E
100
AcDbEntity
  8
DEFPOINTS
 62
     0
 48
50.0
100
AcDbPoint
 10
7203.744402057347
 20
1949.913363169654
 30
0.0
  0
POINT
  5
1790A
330
1717E
100
AcDbEntity
  8
DEFPOINTS
 62
     0
 48
50.0
100
AcDbPoint
 10
7206.744402057345
 20
4269.913363169655
 30
0.0
  0
POINT
  5
1790B
330
1717E
100
AcDbEntity
  8
DEFPOINTS
 62
     0
 48
50.0
100
AcDbPoint
 10
7831.671560029476
 20
4269.913363169655
 30
0.0
  0
ENDBLK
  5
17189
330
1717E
100
AcDbEntity
  8
0
 48
50.0
100
AcDbBlockEnd
  0
BLOCK
  5
17214
330
1720A
100
AcDbEntity
  8
0
 48
50.0
100
AcDbBlockBegin
  2
*D14
 70
     1
 10
0.0
 20
0.0
 30
0.0
  3
*D14
  1

  0
LINE
  5
17898
330
1720A
100
AcDbEntity
  8
寸法
 62
     0
 48
50.0
370
    -2
100
AcDbLine
 10
9318.841431394593
 20
1629.913363169652
 30
0.0
 11
9318.841431394593
 21
1303.866033869275
 31
0.0
  0
LINE
  5
17899
330
1720A
100
AcDbEntity
  8
寸法
 62
     0
 48
50.0
370
    -2
100
AcDbLine
 10
9118.84143139459
 20
1629.913363169652
 30
0.0
 11
9118.84143139459
 21
1303.866033869275
 31
0.0
  0
LINE
  5
1789A
330
1720A
100
AcDbEntity
  8
寸法
 62
     0
 48
50.0
370
    -2
100
AcDbLine
 10
9318.841431394593
 20
1363.866033869275
 30
0.0
 11
9118.84143139459
 21
1363.866033869275
 31
0.0
  0
INSERT
  5
1789B
330
1720A
100
AcDbEntity
  8
寸法
 62
     0
 48
50.0
370
    -2
100
AcDbBlockReference
  2
_DOTSMALL
 10
9318.841431394593
 20
1363.866033869275
 30
0.0
 41
100.0
 42
100.0
 43
100.0
  0
INSERT
  5
1789C
330
1720A
100
AcDbEntity
  8
寸法
 62
     0
 48
50.0
370
    -2
100
AcDbBlockReference
  2
_DOTSMALL
 10
9118.84143139459
 20
1363.866033869275
 30
0.0
 41
100.0
 42
100.0
 43
100.0
 50
180.0
  0
MTEXT
  5
1789D
330
1720A
100
AcDbEntity
  8
寸法
 62
     7
 48
50.0
100
AcDbMText
 10
9218.841431394592
 20
1463.877844892897
 30
0.0
 40
120.0
 41
0.0
 71
     5
 72
     1
  1
\A1;200
  7
STYLE1
 73
     1
 44
1.0
1001
ACAD
1000
MTEXTBEGIN
1070
    73
1070
     1
1070
    44
1040
1.0
1070
    74
1070
     0
1000
MTEXTEND
  0
POINT
  5
1789E
330
1720A
100
AcDbEntity
  8
DEFPOINTS
 62
     0
 48
50.0
100
AcDbPoint
 10
9318.841431394593
 20
1649.913363169652
 30
0.0
  0
POINT
  5
1789F
330
1720A
100
AcDbEntity
  8
DEFPOINTS
 62
     0
 48
50.0
100
AcDbPoint
 10
9118.84143139459
 20
1649.913363169652
 30
0.0
  0
POINT
  5
178A0
330
1720A
100
AcDbEntity
  8
DEFPOINTS
 62
     0
 48
50.0
100
AcDbPoint
 10
9118.84143139459
 20
1363.866033869275
 30
0.0
  0
ENDBLK
  5
17215
330
1720A
100
AcDbEntity
  8
0
 48
50.0
100
AcDbBlockEnd
  0
BLOCK
  5
17220
330
17216
100
AcDbEntity
  8
0
 48
50.0
100
AcDbBlockBegin
  2
*D15
 70
     1
 10
0.0
 20
0.0
 30
0.0
  3
*D15
  1

  0
LINE
  5
1788F
330
17216
100
AcDbEntity
  8
寸法
 62
     0
 48
50.0
370
    -2
100
AcDbLine
 10
11008.84143139459
 20
4344.913363169658
 30
0.0
 11
11008.84143139459
 21
4784.006532509127
 31
0.0
  0
LINE
  5
17890
330
17216
100
AcDbEntity
  8
寸法
 62
     0
 48
50.0
370
    -2
100
AcDbLine
 10
9218.841431394592
 20
4344.913363169659
 30
0.0
 11
9218.841431394592
 21
4784.006532509127
 31
0.0
  0
LINE
  5
17891
330
17216
100
AcDbEntity
  8
寸法
 62
     0
 48
50.0
370
    -2
100
AcDbLine
 10
11008.84143139459
 20
4724.006532509126
 30
0.0
 11
9218.841431394592
 21
4724.006532509126
 31
0.0
  0
INSERT
  5
17892
330
17216
100
AcDbEntity
  8
寸法
 62
     0
 48
50.0
370
    -2
100
AcDbBlockReference
  2
_DOTSMALL
 10
11008.84143139459
 20
4724.006532509126
 30
0.0
 41
100.0
 42
100.0
 43
100.0
  0
INSERT
  5
17893
330
17216
100
AcDbEntity
  8
寸法
 62
     0
 48
50.0
370
    -2
100
AcDbBlockReference
  2
_DOTSMALL
 10
9218.841431394592
 20
4724.006532509126
 30
0.0
 41
100.0
 42
100.0
 43
100.0
 50
180.0
  0
MTEXT
  5
17894
330
17216
100
AcDbEntity
  8
寸法
 62
     7
 48
50.0
100
AcDbMText
 10
10113.84143139459
 20
4824.006532509127
 30
0.0
 40
120.0
 41
0.0
 71
     5
 72
     1
  1
\A1;柱外寸法1790
  7
STYLE1
 73
     1
 44
1.0
1001
ACAD
1000
MTEXTBEGIN
1070
    73
1070
     1
1070
    44
1040
1.0
1070
    74
1070
     0
1000
MTEXTEND
  0
POINT
  5
17895
330
17216
100
AcDbEntity
  8
DEFPOINTS
 62
     0
 48
50.0
100
AcDbPoint
 10
11008.84143139459
 20
4324.913363169659
 30
0.0
  0
POINT
  5
17896
330
17216
100
AcDbEntity
  8
DEFPOINTS
 62
     0
 48
50.0
100
AcDbPoint
 10
9218.841431394592
 20
4324.913363169659
 30
0.0
  0
POINT
  5
17897
330
17216
100
AcDbEntity
  8
DEFPOINTS
 62
     0
 48
50.0
100
AcDbPoint
 10
9218.841431394592
 20
4724.006532509126
 30
0.0
  0
ENDBLK
  5
17221
330
17216
100
AcDbEntity
  8
0
 48
50.0
100
AcDbBlockEnd
  0
BLOCK
  5
1722E
330
17222
100
AcDbEntity
  8
0
 48
50.0
100
AcDbBlockBegin
  2
*D16
 70
     1
 10
0.0
 20
0.0
 30
0.0
  3
*D16
  1

  0
LINE
  5
17884
330
17222
100
AcDbEntity
  8
寸法
 62
     0
 48
50.0
370
    -2
100
AcDbLine
 10
9218.841431394592
 20
4344.913363169659
 30
0.0
 11
9218.841431394592
 21
4784.006532509127
 31
0.0
  0
LINE
  5
17885
330
17222
100
AcDbEntity
  8
寸法
 62
     0
 48
50.0
370
    -2
100
AcDbLine
 10
9168.841431394591
 20
4344.913363169658
 30
0.0
 11
9168.841431394591
 21
4784.006532509127
 31
0.0
  0
LINE
  5
17886
330
17222
100
AcDbEntity
  8
寸法
 62
     0
 48
50.0
370
    -2
100
AcDbLine
 10
9218.841431394592
 20
4724.006532509126
 30
0.0
 11
9318.841431394591
 21
4724.006532509126
 31
0.0
  0
LINE
  5
17887
330
17222
100
AcDbEntity
  8
寸法
 62
     0
 48
50.0
370
    -2
100
AcDbLine
 10
9168.841431394591
 20
4724.006532509126
 30
0.0
 11
8749.308905925856
 21
4724.006532509126
 31
0.0
  0
LINE
  5
17888
330
17222
100
AcDbEntity
  8
寸法
 62
     0
 48
50.0
370
    -2
100
AcDbLine
 10
9218.841431394592
 20
4724.006532509126
 30
0.0
 11
9168.841431394591
 21
4724.006532509126
 31
0.0
  0
INSERT
  5
17889
330
17222
100
AcDbEntity
  8
寸法
 62
     0
 48
50.0
370
    -2
100
AcDbBlockReference
  2
_DOTSMALL
 10
9218.841431394592
 20
4724.006532509126
 30
0.0
 41
100.0
 42
100.0
 43
100.0
 50
180.0
  0
INSERT
  5
1788A
330
17222
100
AcDbEntity
  8
寸法
 62
     0
 48
50.0
370
    -2
100
AcDbBlockReference
  2
_DOTSMALL
 10
9168.841431394591
 20
4724.006532509126
 30
0.0
 41
100.0
 42
100.0
 43
100.0
  0
MTEXT
  5
1788B
330
17222
100
AcDbEntity
  8
寸法
 62
     7
 48
50.0
100
AcDbMText
 10
8855.356150020343
 20
4824.006532509127
 30
0.0
 40
120.0
 41
0.0
 71
     5
 72
     1
  1
\A1;50
  7
STYLE1
 73
     1
 44
1.0
1001
ACAD
1000
MTEXTBEGIN
1070
    73
1070
     1
1070
    44
1040
1.0
1070
    74
1070
     0
1000
MTEXTEND
  0
POINT
  5
1788C
330
17222
100
AcDbEntity
  8
DEFPOINTS
 62
     0
 48
50.0
100
AcDbPoint
 10
9218.841431394592
 20
4324.913363169659
 30
0.0
  0
POINT
  5
1788D
330
17222
100
AcDbEntity
  8
DEFPOINTS
 62
     0
 48
50.0
100
AcDbPoint
 10
9168.841431394591
 20
4324.913363169659
 30
0.0
  0
POINT
  5
1788E
330
17222
100
AcDbEntity
  8
DEFPOINTS
 62
     0
 48
50.0
100
AcDbPoint
 10
9168.841431394591
 20
4724.006532509126
 30
0.0
  0
ENDBLK
  5
1722F
330
17222
100
AcDbEntity
  8
0
 48
50.0
100
AcDbBlockEnd
  0
BLOCK
  5
1723A
330
17230
100
AcDbEntity
  8
0
 48
50.0
100
AcDbBlockBegin
  2
*D17
 70
     1
 10
0.0
 20
0.0
 30
0.0
  3
*D17
  1

  0
LINE
  5
1787B
330
17230
100
AcDbEntity
  8
寸法
 62
     0
 48
50.0
370
    -2
100
AcDbLine
 10
9168.841431394591
 20
4344.913363169658
 30
0.0
 11
9168.841431394591
 21
5000.532632127572
 31
0.0
  0
LINE
  5
1787C
330
17230
100
AcDbEntity
  8
寸法
 62
     0
 48
50.0
370
    -2
100
AcDbLine
 10
11058.84143139459
 20
4344.913363169656
 30
0.0
 11
11058.84143139459
 21
5000.532632127572
 31
0.0
  0
LINE
  5
1787D
330
17230
100
AcDbEntity
  8
寸法
 62
     0
 48
50.0
370
    -2
100
AcDbLine
 10
9168.841431394591
 20
4940.532632127571
 30
0.0
 11
11058.84143139459
 21
4940.532632127571
 31
0.0
  0
INSERT
  5
1787E
330
17230
100
AcDbEntity
  8
寸法
 62
     0
 48
50.0
370
    -2
100
AcDbBlockReference
  2
_DOTSMALL
 10
9168.841431394591
 20
4940.532632127571
 30
0.0
 41
100.0
 42
100.0
 43
100.0
 50
180.0
  0
INSERT
  5
1787F
330
17230
100
AcDbEntity
  8
寸法
 62
     0
 48
50.0
370
    -2
100
AcDbBlockReference
  2
_DOTSMALL
 10
11058.84143139459
 20
4940.532632127571
 30
0.0
 41
100.0
 42
100.0
 43
100.0
  0
MTEXT
  5
17880
330
17230
100
AcDbEntity
  8
寸法
 62
     7
 48
50.0
100
AcDbMText
 10
10113.84143139459
 20
5040.532632127572
 30
0.0
 40
120.0
 41
0.0
 71
     5
 72
     1
  1
\A1;1890
  7
STYLE1
 73
     1
 44
1.0
1001
ACAD
1000
MTEXTBEGIN
1070
    73
1070
     1
1070
    44
1040
1.0
1070
    74
1070
     0
1000
MTEXTEND
  0
POINT
  5
17881
330
17230
100
AcDbEntity
  8
DEFPOINTS
 62
     0
 48
50.0
100
AcDbPoint
 10
9168.841431394591
 20
4324.913363169659
 30
0.0
  0
POINT
  5
17882
330
17230
100
AcDbEntity
  8
DEFPOINTS
 62
     0
 48
50.0
100
AcDbPoint
 10
11058.84143139459
 20
4324.913363169655
 30
0.0
  0
POINT
  5
17883
330
17230
100
AcDbEntity
  8
DEFPOINTS
 62
     0
 48
50.0
100
AcDbPoint
 10
11058.84143139459
 20
4940.532632127571
 30
0.0
  0
ENDBLK
  5
1723B
330
17230
100
AcDbEntity
  8
0
 48
50.0
100
AcDbBlockEnd
  0
BLOCK
  5
17246
330
1723C
100
AcDbEntity
  8
0
 48
50.0
100
AcDbBlockBegin
  2
*D18
 70
     1
 10
0.0
 20
0.0
 30
0.0
  3
*D18
  1

  0
LINE
  5
17BE3
330
1723C
100
AcDbEntity
  8
寸法
 62
     0
 48
50.0
370
    -2
100
AcDbLine
 10
9226.841431394607
 20
4032.913363169654
 30
0.0
 11
8834.063106624098
 21
4032.913363169654
 31
0.0
  0
LINE
  5
17BE4
330
1723C
100
AcDbEntity
  8
寸法
 62
     0
 48
50.0
370
    -2
100
AcDbLine
 10
9226.841431394607
 20
2007.913363169653
 30
0.0
 11
8834.063106624098
 21
2007.913363169653
 31
0.0
  0
LINE
  5
17BE5
330
1723C
100
AcDbEntity
  8
寸法
 62
     0
 48
50.0
370
    -2
100
AcDbLine
 10
8894.063106624097
 20
4032.913363169654
 30
0.0
 11
8894.063106624097
 21
2007.913363169653
 31
0.0
  0
INSERT
  5
17BE6
330
1723C
100
AcDbEntity
  8
寸法
 62
     0
 48
50.0
370
    -2
100
AcDbBlockReference
  2
_DOTSMALL
 10
8894.063106624097
 20
4032.913363169654
 30
0.0
 41
100.0
 42
100.0
 43
100.0
 50
90.0
  0
INSERT
  5
17BE7
330
1723C
100
AcDbEntity
  8
寸法
 62
     0
 48
50.0
370
    -2
100
AcDbBlockReference
  2
_DOTSMALL
 10
8894.063106624097
 20
2007.913363169653
 30
0.0
 41
100.0
 42
100.0
 43
100.0
 50
270.0
  0
MTEXT
  5
17BE8
330
1723C
100
AcDbEntity
  8
寸法
 62
     7
 48
50.0
100
AcDbMText
 10
8794.051295600475
 20
3041.765353166586
 30
0.0
 40
120.0
 41
0.0
 71
     5
 72
     1
  1
\A1;有効開口部高サ2025
  7
STYLE1
 11
0.0000000000000001
 21
1.0
 31
0.0
 73
     1
 44
1.0
1001
ACAD
1000
MTEXTBEGIN
1070
    73
1070
     1
1070
    44
1040
1.0
1070
    74
1070
     0
1000
MTEXTEND
  0
POINT
  5
17BE9
330
1723C
100
AcDbEntity
  8
DEFPOINTS
 62
     0
 48
50.0
100
AcDbPoint
 10
9246.841431394607
 20
4032.913363169654
 30
0.0
  0
POINT
  5
17BEA
330
1723C
100
AcDbEntity
  8
DEFPOINTS
 62
     0
 48
50.0
100
AcDbPoint
 10
9246.841431394607
 20
2007.913363169653
 30
0.0
  0
POINT
  5
17BEB
330
1723C
100
AcDbEntity
  8
DEFPOINTS
 62
     0
 48
50.0
100
AcDbPoint
 10
8894.063106624097
 20
2007.913363169653
 30
0.0
  0
ENDBLK
  5
17247
330
1723C
100
AcDbEntity
  8
0
 48
50.0
100
AcDbBlockEnd
  0
BLOCK
  5
17254
330
17248
100
AcDbEntity
  8
0
 48
50.0
100
AcDbBlockBegin
  2
*D19
 70
     1
 10
0.0
 20
0.0
 30
0.0
  3
*D19
  1

  0
LINE
  5
17867
330
17248
100
AcDbEntity
  8
寸法
 62
     0
 48
50.0
370
    -2
100
AcDbLine
 10
11058.84143139459
 20
4344.913363169656
 30
0.0
 11
11058.84143139459
 21
4784.006532509127
 31
0.0
  0
LINE
  5
17868
330
17248
100
AcDbEntity
  8
寸法
 62
     0
 48
50.0
370
    -2
100
AcDbLine
 10
11008.84143139459
 20
4344.913363169658
 30
0.0
 11
11008.84143139459
 21
4784.006532509127
 31
0.0
  0
LINE
  5
17869
330
17248
100
AcDbEntity
  8
寸法
 62
     0
 48
50.0
370
    -2
100
AcDbLine
 10
11008.84143139459
 20
4724.006532509126
 30
0.0
 11
10908.84143139459
 21
4724.006532509126
 31
0.0
  0
LINE
  5
1786A
330
17248
100
AcDbEntity
  8
寸法
 62
     0
 48
50.0
370
    -2
100
AcDbLine
 10
11058.84143139459
 20
4724.006532509126
 30
0.0
 11
11478.37395686331
 21
4724.006532509126
 31
0.0
  0
LINE
  5
1786B
330
17248
100
AcDbEntity
  8
寸法
 62
     0
 48
50.0
370
    -2
100
AcDbLine
 10
11008.84143139459
 20
4724.006532509126
 30
0.0
 11
11058.84143139459
 21
4724.006532509126
 31
0.0
  0
INSERT
  5
1786C
330
17248
100
AcDbEntity
  8
寸法
 62
     0
 48
50.0
370
    -2
100
AcDbBlockReference
  2
_DOTSMALL
 10
11008.84143139459
 20
4724.006532509126
 30
0.0
 41
100.0
 42
100.0
 43
100.0
  0
INSERT
  5
1786D
330
17248
100
AcDbEntity
  8
寸法
 62
     0
 48
50.0
370
    -2
100
AcDbBlockReference
  2
_DOTSMALL
 10
11058.84143139459
 20
4724.006532509126
 30
0.0
 41
100.0
 42
100.0
 43
100.0
 50
180.0
  0
MTEXT
  5
1786E
330
17248
100
AcDbEntity
  8
寸法
 62
     7
 48
50.0
100
AcDbMText
 10
11372.32671276882
 20
4824.006532509127
 30
0.0
 40
120.0
 41
0.0
 71
     5
 72
     1
  1
\A1;50
  7
STYLE1
 73
     1
 44
1.0
1001
ACAD
1000
MTEXTBEGIN
1070
    73
1070
     1
1070
    44
1040
1.0
1070
    74
1070
     0
1000
MTEXTEND
  0
POINT
  5
1786F
330
17248
100
AcDbEntity
  8
DEFPOINTS
 62
     0
 48
50.0
100
AcDbPoint
 10
11058.84143139459
 20
4324.913363169655
 30
0.0
  0
POINT
  5
17870
330
17248
100
AcDbEntity
  8
DEFPOINTS
 62
     0
 48
50.0
100
AcDbPoint
 10
11008.84143139459
 20
4324.913363169659
 30
0.0
  0
POINT
  5
17871
330
17248
100
AcDbEntity
  8
DEFPOINTS
 62
     0
 48
50.0
100
AcDbPoint
 10
11008.84143139459
 20
4724.006532509126
 30
0.0
  0
ENDBLK
  5
17255
330
17248
100
AcDbEntity
  8
0
 48
50.0
100
AcDbBlockEnd
  0
BLOCK
  5
17EC6
330
17EBC
100
AcDbEntity
  8
0
 48
50.0
100
AcDbBlockBegin
  2
*D20
 70
     1
 10
0.0
 20
0.0
 30
0.0
  3
*D20
  1

  0
LINE
  5
18063
330
17EBC
100
AcDbEntity
  8
寸法
 62
     0
 48
50.0
370
    -2
100
AcDbLine
 10
10984.20041524326
 20
7139.97302288179
 30
0.0
 11
11090.13143710526
 21
6744.63306719514
 31
0.0
  0
LINE
  5
18064
330
17EBC
100
AcDbEntity
  8
寸法
 62
     0
 48
50.0
370
    -2
100
AcDbLine
 10
10534.20041524327
 20
7139.97302288179
 30
0.0
 11
10640.13143710526
 21
6744.63306719514
 31
0.0
  0
LINE
  5
18065
330
17EBC
100
AcDbEntity
  8
寸法
 62
     0
 48
50.0
370
    -2
100
AcDbLine
 10
11074.05448555939
 20
6804.63306719514
 30
0.0
 11
10624.05448555939
 21
6804.63306719514
 31
0.0
  0
INSERT
  5
18066
330
17EBC
100
AcDbEntity
  8
寸法
 62
     0
 48
50.0
370
    -2
100
AcDbBlockReference
  2
_DOTSMALL
 10
11074.05448555939
 20
6804.63306719514
 30
0.0
 41
100.0
 42
100.0
 43
100.0
  0
INSERT
  5
18067
330
17EBC
100
AcDbEntity
  8
寸法
 62
     0
 48
50.0
370
    -2
100
AcDbBlockReference
  2
_DOTSMALL
 10
10624.05448555939
 20
6804.63306719514
 30
0.0
 41
100.0
 42
100.0
 43
100.0
 50
180.0
  0
MTEXT
  5
18068
330
17EBC
100
AcDbEntity
  8
寸法
 62
     7
 48
50.0
100
AcDbMText
 10
10824.05808632617
 20
6904.633067195139
 30
0.0
 40
120.0
 41
0.0
 71
     5
 72
     1
  1
\A1;450
  7
STYLE1
 73
     1
 44
1.0
1001
ACAD
1000
MTEXTBEGIN
1070
    73
1070
     1
1070
    44
1040
1.0
1070
    74
1070
     0
1000
MTEXTEND
  0
POINT
  5
18069
330
17EBC
100
AcDbEntity
  8
DEFPOINTS
 62
     0
 48
50.0
100
AcDbPoint
 10
10978.84143139464
 20
7159.97302288179
 30
0.0
  0
POINT
  5
1806A
330
17EBC
100
AcDbEntity
  8
DEFPOINTS
 62
     0
 48
50.0
100
AcDbPoint
 10
10528.84143139464
 20
7159.97302288179
 30
0.0
  0
POINT
  5
1806B
330
17EBC
100
AcDbEntity
  8
DEFPOINTS
 62
     0
 48
50.0
100
AcDbPoint
 10
10624.05448555939
 20
6804.63306719514
 30
0.0
  0
ENDBLK
  5
17EC7
330
17EBC
100
AcDbEntity
  8
0
 48
50.0
100
AcDbBlockEnd
  0
BLOCK
  5
17ED4
330
17EC8
100
AcDbEntity
  8
0
 48
50.0
100
AcDbBlockBegin
  2
*D21
 70
     1
 10
0.0
 20
0.0
 30
0.0
  3
*D21
  1

  0
LINE
  5
18092
330
17EC8
100
AcDbEntity
  8
寸法
 62
     0
 48
50.0
370
    -2
100
AcDbLine
 10
9218.841431394565
 20
9781.473022881728
 30
0.0
 11
9218.841431394565
 21
10112.67818744569
 31
0.0
  0
LINE
  5
18093
330
17EC8
100
AcDbEntity
  8
寸法
 62
     0
 48
50.0
370
    -2
100
AcDbLine
 10
9273.8414313946
 20
9781.473022881728
 30
0.0
 11
9273.8414313946
 21
10112.67818744569
 31
0.0
  0
LINE
  5
18094
330
17EC8
100
AcDbEntity
  8
寸法
 62
     0
 48
50.0
370
    -2
100
AcDbLine
 10
9273.8414313946
 20
10052.67818744569
 30
0.0
 11
9373.8414313946
 21
10052.67818744569
 31
0.0
  0
LINE
  5
18095
330
17EC8
100
AcDbEntity
  8
寸法
 62
     0
 48
50.0
370
    -2
100
AcDbLine
 10
9218.841431394565
 20
10052.67818744569
 30
0.0
 11
8801.870868646089
 21
10052.67818744569
 31
0.0
  0
LINE
  5
18096
330
17EC8
100
AcDbEntity
  8
寸法
 62
     0
 48
50.0
370
    -2
100
AcDbLine
 10
9273.8414313946
 20
10052.67818744569
 30
0.0
 11
9218.841431394565
 21
10052.67818744569
 31
0.0
  0
INSERT
  5
18097
330
17EC8
100
AcDbEntity
  8
寸法
 62
     0
 48
50.0
370
    -2
100
AcDbBlockReference
  2
_DOTSMALL
 10
9273.8414313946
 20
10052.67818744569
 30
0.0
 41
100.0
 42
100.0
 43
100.0
 50
180.0
  0
INSERT
  5
18098
330
17EC8
100
AcDbEntity
  8
寸法
 62
     0
 48
50.0
370
    -2
100
AcDbBlockReference
  2
_DOTSMALL
 10
9218.841431394565
 20
10052.67818744569
 30
0.0
 41
100.0
 42
100.0
 43
100.0
  0
MTEXT
  5
18099
330
17EC8
100
AcDbEntity
  8
寸法
 62
     7
 48
50.0
100
AcDbMText
 10
8910.356150020326
 20
10152.67818744569
 30
0.0
 40
120.0
 41
0.0
 71
     5
 72
     1
  1
\A1;55
  7
STYLE1
 73
     1
 44
1.0
1001
ACAD
1000
MTEXTBEGIN
1070
    73
1070
     1
1070
    44
1040
1.0
1070
    74
1070
     0
1000
MTEXTEND
  0
POINT
  5
1809A
330
17EC8
100
AcDbEntity
  8
DEFPOINTS
 62
     0
 48
50.0
100
AcDbPoint
 10
9218.841431394565
 20
9761.473022881729
 30
0.0
  0
POINT
  5
1809B
330
17EC8
100
AcDbEntity
  8
DEFPOINTS
 62
     0
 48
50.0
100
AcDbPoint
 10
9273.8414313946
 20
9761.473022881729
 30
0.0
  0
POINT
  5
1809C
330
17EC8
100
AcDbEntity
  8
DEFPOINTS
 62
     0
 48
50.0
100
AcDbPoint
 10
9273.8414313946
 20
10052.67818744569
 30
0.0
  0
ENDBLK
  5
17ED5
330
17EC8
100
AcDbEntity
  8
0
 48
50.0
100
AcDbBlockEnd
  0
BLOCK
  5
17EE0
330
17ED6
100
AcDbEntity
  8
0
 48
50.0
100
AcDbBlockBegin
  2
*D22
 70
     1
 10
0.0
 20
0.0
 30
0.0
  3
*D22
  1

  0
LINE
  5
1868A
330
17ED6
100
AcDbEntity
  8
寸法
 62
     0
 48
50.0
370
    -2
100
AcDbLine
 10
11028.8414313946
 20
9761.473022881823
 30
0.0
 11
12021.75042884068
 21
9761.473022881823
 31
0.0
  0
LINE
  5
1868B
330
17ED6
100
AcDbEntity
  8
寸法
 62
     0
 48
50.0
370
    -2
100
AcDbLine
 10
11028.84143139457
 20
7131.473022881813
 30
0.0
 11
12021.75042884068
 21
7131.473022881813
 31
0.0
  0
LINE
  5
1868C
330
17ED6
100
AcDbEntity
  8
寸法
 62
     0
 48
50.0
370
    -2
100
AcDbLine
 10
11961.75042884068
 20
9761.473022881823
 30
0.0
 11
11961.75042884068
 21
7131.473022881813
 31
0.0
  0
INSERT
  5
1868D
330
17ED6
100
AcDbEntity
  8
寸法
 62
     0
 48
50.0
370
    -2
100
AcDbBlockReference
  2
_DOTSMALL
 10
11961.75042884068
 20
9761.473022881823
 30
0.0
 41
100.0
 42
100.0
 43
100.0
 50
90.0
  0
INSERT
  5
1868E
330
17ED6
100
AcDbEntity
  8
寸法
 62
     0
 48
50.0
370
    -2
100
AcDbBlockReference
  2
_DOTSMALL
 10
11961.75042884068
 20
7131.473022881813
 30
0.0
 41
100.0
 42
100.0
 43
100.0
 50
270.0
  0
MTEXT
  5
1868F
330
17ED6
100
AcDbEntity
  8
寸法
 62
     7
 48
50.0
100
AcDbMText
 10
11861.73861781706
 20
8433.014273699305
 30
0.0
 40
120.0
 41
0.0
 71
     5
 72
     1
  1
\A1;2630
  7
STYLE1
 11
0.0000000000000001
 21
1.0
 31
0.0
 73
     1
 44
1.0
1001
ACAD
1000
MTEXTBEGIN
1070
    73
1070
     1
1070
    44
1040
1.0
1070
    74
1070
     0
1000
MTEXTEND
  0
POINT
  5
18690
330
17ED6
100
AcDbEntity
  8
DEFPOINTS
 62
     0
 48
50.0
100
AcDbPoint
 10
11008.8414313946
 20
9761.473022881823
 30
0.0
  0
POINT
  5
18691
330
17ED6
100
AcDbEntity
  8
DEFPOINTS
 62
     0
 48
50.0
100
AcDbPoint
 10
11008.84143139457
 20
7131.473022881813
 30
0.0
  0
POINT
  5
18692
330
17ED6
100
AcDbEntity
  8
DEFPOINTS
 62
     0
 48
50.0
100
AcDbPoint
 10
11961.75042884068
 20
7131.473022881813
 30
0.0
  0
ENDBLK
  5
17EE1
330
17ED6
100
AcDbEntity
  8
0
 48
50.0
100
AcDbBlockEnd
  0
BLOCK
  5
17EEE
330
17EE2
100
AcDbEntity
  8
0
 48
50.0
100
AcDbBlockBegin
  2
*D23
 70
     1
 10
0.0
 20
0.0
 30
0.0
  3
*D23
  1

  0
LINE
  5
18044
330
17EE2
100
AcDbEntity
  8
寸法
 62
     0
 48
50.0
370
    -2
100
AcDbLine
 10
11028.8414313946
 20
9761.473022881823
 30
0.0
 11
11716.26777712901
 21
9761.473022881823
 31
0.0
  0
LINE
  5
18045
330
17EE2
100
AcDbEntity
  8
寸法
 62
     0
 48
50.0
370
    -2
100
AcDbLine
 10
11028.8414313946
 20
9706.473022881827
 30
0.0
 11
11716.26777712901
 21
9706.473022881827
 31
0.0
  0
LINE
  5
18046
330
17EE2
100
AcDbEntity
  8
寸法
 62
     0
 48
50.0
370
    -2
100
AcDbLine
 10
11656.26777712901
 20
9706.473022881827
 30
0.0
 11
11656.26777712901
 21
9606.473022881827
 31
0.0
  0
LINE
  5
18047
330
17EE2
100
AcDbEntity
  8
寸法
 62
     0
 48
50.0
370
    -2
100
AcDbLine
 10
11656.26777712901
 20
9761.473022881823
 30
0.0
 11
11656.26777712901
 21
10178.4435856303
 31
0.0
  0
LINE
  5
18048
330
17EE2
100
AcDbEntity
  8
寸法
 62
     0
 48
50.0
370
    -2
100
AcDbLine
 10
11656.26777712901
 20
9706.473022881827
 30
0.0
 11
11656.26777712901
 21
9761.473022881823
 31
0.0
  0
INSERT
  5
18049
330
17EE2
100
AcDbEntity
  8
寸法
 62
     0
 48
50.0
370
    -2
100
AcDbBlockReference
  2
_DOTSMALL
 10
11656.26777712901
 20
9706.473022881827
 30
0.0
 41
100.0
 42
100.0
 43
100.0
 50
90.0
  0
INSERT
  5
1804A
330
17EE2
100
AcDbEntity
  8
寸法
 62
     0
 48
50.0
370
    -2
100
AcDbBlockReference
  2
_DOTSMALL
 10
11656.26777712901
 20
9761.473022881823
 30
0.0
 41
100.0
 42
100.0
 43
100.0
 50
270.0
  0
MTEXT
  5
1804B
330
17EE2
100
AcDbEntity
  8
寸法
 62
     7
 48
50.0
100
AcDbMText
 10
11556.26777712901
 20
10069.95830425606
 30
0.0
 40
120.0
 41
0.0
 71
     5
 72
     1
  1
\A1;55
  7
STYLE1
 11
0.0000000000000001
 21
1.0
 31
0.0
 73
     1
 44
1.0
1001
ACAD
1000
MTEXTBEGIN
1070
    73
1070
     1
1070
    44
1040
1.0
1070
    74
1070
     0
1000
MTEXTEND
  0
POINT
  5
1804C
330
17EE2
100
AcDbEntity
  8
DEFPOINTS
 62
     0
 48
50.0
100
AcDbPoint
 10
11008.8414313946
 20
9761.473022881823
 30
0.0
  0
POINT
  5
1804D
330
17EE2
100
AcDbEntity
  8
DEFPOINTS
 62
     0
 48
50.0
100
AcDbPoint
 10
11008.8414313946
 20
9706.473022881827
 30
0.0
  0
POINT
  5
1804E
330
17EE2
100
AcDbEntity
  8
DEFPOINTS
 62
     0
 48
50.0
100
AcDbPoint
 10
11656.26777712901
 20
9706.473022881827
 30
0.0
  0
ENDBLK
  5
17EEF
330
17EE2
100
AcDbEntity
  8
0
 48
50.0
100
AcDbBlockEnd
  0
BLOCK
  5
17EFC
330
17EF0
100
AcDbEntity
  8
0
 48
50.0
100
AcDbBlockBegin
  2
*D24
 70
     1
 10
0.0
 20
0.0
 30
0.0
  3
*D24
  1

  0
LINE
  5
18039
330
17EF0
100
AcDbEntity
  8
寸法
 62
     0
 48
50.0
370
    -2
100
AcDbLine
 10
11028.84143139457
 20
7186.47302288181
 30
0.0
 11
11716.26777712899
 21
7186.47302288181
 31
0.0
  0
LINE
  5
1803A
330
17EF0
100
AcDbEntity
  8
寸法
 62
     0
 48
50.0
370
    -2
100
AcDbLine
 10
11028.84143139457
 20
7131.473022881813
 30
0.0
 11
11716.26777712899
 21
7131.473022881813
 31
0.0
  0
LINE
  5
1803B
330
17EF0
100
AcDbEntity
  8
寸法
 62
     0
 48
50.0
370
    -2
100
AcDbLine
 10
11656.26777712899
 20
7186.47302288181
 30
0.0
 11
11656.26777712899
 21
7286.473022881811
 31
0.0
  0
LINE
  5
1803C
330
17EF0
100
AcDbEntity
  8
寸法
 62
     0
 48
50.0
370
    -2
100
AcDbLine
 10
11656.26777712899
 20
7131.473022881813
 30
0.0
 11
11656.26777712899
 21
6645.126274602713
 31
0.0
  0
LINE
  5
1803D
330
17EF0
100
AcDbEntity
  8
寸法
 62
     0
 48
50.0
370
    -2
100
AcDbLine
 10
11656.26777712899
 20
7186.47302288181
 30
0.0
 11
11656.26777712899
 21
7131.473022881813
 31
0.0
  0
INSERT
  5
1803E
330
17EF0
100
AcDbEntity
  8
寸法
 62
     0
 48
50.0
370
    -2
100
AcDbBlockReference
  2
_DOTSMALL
 10
11656.26777712899
 20
7186.47302288181
 30
0.0
 41
100.0
 42
100.0
 43
100.0
 50
270.0
  0
INSERT
  5
1803F
330
17EF0
100
AcDbEntity
  8
寸法
 62
     0
 48
50.0
370
    -2
100
AcDbBlockReference
  2
_DOTSMALL
 10
11656.26777712899
 20
7131.473022881813
 30
0.0
 41
100.0
 42
100.0
 43
100.0
 50
90.0
  0
MTEXT
  5
18040
330
17EF0
100
AcDbEntity
  8
寸法
 62
     7
 48
50.0
100
AcDbMText
 10
11556.26777712898
 20
6753.611555976952
 30
0.0
 40
120.0
 41
0.0
 71
     5
 72
     1
  1
\A1;55
  7
STYLE1
 11
0.0000000000000001
 21
1.0
 31
0.0
 73
     1
 44
1.0
1001
ACAD
1000
MTEXTBEGIN
1070
    73
1070
     1
1070
    44
1040
1.0
1070
    74
1070
     0
1000
MTEXTEND
  0
POINT
  5
18041
330
17EF0
100
AcDbEntity
  8
DEFPOINTS
 62
     0
 48
50.0
100
AcDbPoint
 10
11008.84143139457
 20
7186.47302288181
 30
0.0
  0
POINT
  5
18042
330
17EF0
100
AcDbEntity
  8
DEFPOINTS
 62
     0
 48
50.0
100
AcDbPoint
 10
11008.84143139457
 20
7131.473022881813
 30
0.0
  0
POINT
  5
18043
330
17EF0
100
AcDbEntity
  8
DEFPOINTS
 62
     0
 48
50.0
100
AcDbPoint
 10
11656.26777712899
 20
7131.473022881813
 30
0.0
  0
ENDBLK
  5
17EFD
330
17EF0
100
AcDbEntity
  8
0
 48
50.0
100
AcDbBlockEnd
  0
BLOCK
  5
17F08
330
17EFE
100
AcDbEntity
  8
0
 48
50.0
100
AcDbBlockBegin
  2
*D25
 70
     1
 10
0.0
 20
0.0
 30
0.0
  3
*D25
  1

  0
LINE
  5
18030
330
17EFE
100
AcDbEntity
  8
寸法
 62
     0
 48
50.0
370
    -2
100
AcDbLine
 10
11028.8414313946
 20
9706.473022881827
 30
0.0
 11
11716.26777712901
 21
9706.473022881827
 31
0.0
  0
LINE
  5
18031
330
17EFE
100
AcDbEntity
  8
寸法
 62
     0
 48
50.0
370
    -2
100
AcDbLine
 10
11028.84143139457
 20
7186.47302288181
 30
0.0
 11
11716.26777712901
 21
7186.47302288181
 31
0.0
  0
LINE
  5
18032
330
17EFE
100
AcDbEntity
  8
寸法
 62
     0
 48
50.0
370
    -2
100
AcDbLine
 10
11656.26777712901
 20
9706.473022881827
 30
0.0
 11
11656.26777712901
 21
7186.47302288181
 31
0.0
  0
INSERT
  5
18033
330
17EFE
100
AcDbEntity
  8
寸法
 62
     0
 48
50.0
370
    -2
100
AcDbBlockReference
  2
_DOTSMALL
 10
11656.26777712901
 20
9706.473022881827
 30
0.0
 41
100.0
 42
100.0
 43
100.0
 50
90.0
  0
INSERT
  5
18034
330
17EFE
100
AcDbEntity
  8
寸法
 62
     0
 48
50.0
370
    -2
100
AcDbBlockReference
  2
_DOTSMALL
 10
11656.26777712901
 20
7186.47302288181
 30
0.0
 41
100.0
 42
100.0
 43
100.0
 50
270.0
  0
MTEXT
  5
18035
330
17EFE
100
AcDbEntity
  8
寸法
 62
     7
 48
50.0
100
AcDbMText
 10
11556.25596610539
 20
8446.473022881816
 30
0.0
 40
120.0
 41
0.0
 71
     5
 72
     1
  1
\A1;6X420=2520
  7
STYLE1
 11
0.0000000000000001
 21
1.0
 31
0.0
 73
     1
 44
1.0
1001
ACAD
1000
MTEXTBEGIN
1070
    73
1070
     1
1070
    44
1040
1.0
1070
    74
1070
     0
1000
MTEXTEND
  0
POINT
  5
18036
330
17EFE
100
AcDbEntity
  8
DEFPOINTS
 62
     0
 48
50.0
100
AcDbPoint
 10
11008.8414313946
 20
9706.473022881827
 30
0.0
  0
POINT
  5
18037
330
17EFE
100
AcDbEntity
  8
DEFPOINTS
 62
     0
 48
50.0
100
AcDbPoint
 10
11008.84143139457
 20
7186.47302288181
 30
0.0
  0
POINT
  5
18038
330
17EFE
100
AcDbEntity
  8
DEFPOINTS
 62
     0
 48
50.0
100
AcDbPoint
 10
11656.26777712901
 20
7186.47302288181
 30
0.0
  0
ENDBLK
  5
17F09
330
17EFE
100
AcDbEntity
  8
0
 48
50.0
100
AcDbBlockEnd
  0
BLOCK
  5
17F22
330
17F16
100
AcDbEntity
  8
0
 48
50.0
100
AcDbBlockBegin
  2
*D26
 70
     1
 10
0.0
 20
0.0
 30
0.0
  3
*D26
  1

  0
LINE
  5
18087
330
17F16
100
AcDbEntity
  8
寸法
 62
     0
 48
50.0
370
    -2
100
AcDbLine
 10
10953.8414313946
 20
9781.473022881824
 30
0.0
 11
10953.8414313946
 21
10112.67818744578
 31
0.0
  0
LINE
  5
18088
330
17F16
100
AcDbEntity
  8
寸法
 62
     0
 48
50.0
370
    -2
100
AcDbLine
 10
11008.8414313946
 20
9781.473022881824
 30
0.0
 11
11008.8414313946
 21
10112.67818744578
 31
0.0
  0
LINE
  5
18089
330
17F16
100
AcDbEntity
  8
寸法
 62
     0
 48
50.0
370
    -2
100
AcDbLine
 10
10953.8414313946
 20
10052.67818744578
 30
0.0
 11
10853.8414313946
 21
10052.67818744578
 31
0.0
  0
LINE
  5
1808A
330
17F16
100
AcDbEntity
  8
寸法
 62
     0
 48
50.0
370
    -2
100
AcDbLine
 10
11008.8414313946
 20
10052.67818744578
 30
0.0
 11
11425.81199414308
 21
10052.67818744578
 31
0.0
  0
LINE
  5
1808B
330
17F16
100
AcDbEntity
  8
寸法
 62
     0
 48
50.0
370
    -2
100
AcDbLine
 10
10953.8414313946
 20
10052.67818744578
 30
0.0
 11
11008.8414313946
 21
10052.67818744578
 31
0.0
  0
INSERT
  5
1808C
330
17F16
100
AcDbEntity
  8
寸法
 62
     0
 48
50.0
370
    -2
100
AcDbBlockReference
  2
_DOTSMALL
 10
10953.8414313946
 20
10052.67818744578
 30
0.0
 41
100.0
 42
100.0
 43
100.0
  0
INSERT
  5
1808D
330
17F16
100
AcDbEntity
  8
寸法
 62
     0
 48
50.0
370
    -2
100
AcDbBlockReference
  2
_DOTSMALL
 10
11008.8414313946
 20
10052.67818744578
 30
0.0
 41
100.0
 42
100.0
 43
100.0
 50
180.0
  0
MTEXT
  5
1808E
330
17F16
100
AcDbEntity
  8
寸法
 62
     7
 48
50.0
100
AcDbMText
 10
11317.32671276884
 20
10152.67818744578
 30
0.0
 40
120.0
 41
0.0
 71
     5
 72
     1
  1
\A1;55
  7
STYLE1
 73
     1
 44
1.0
1001
ACAD
1000
MTEXTBEGIN
1070
    73
1070
     1
1070
    44
1040
1.0
1070
    74
1070
     0
1000
MTEXTEND
  0
POINT
  5
1808F
330
17F16
100
AcDbEntity
  8
DEFPOINTS
 62
     0
 48
50.0
100
AcDbPoint
 10
10953.8414313946
 20
9761.473022881823
 30
0.0
  0
POINT
  5
18090
330
17F16
100
AcDbEntity
  8
DEFPOINTS
 62
     0
 48
50.0
100
AcDbPoint
 10
11008.8414313946
 20
9761.473022881823
 30
0.0
  0
POINT
  5
18091
330
17F16
100
AcDbEntity
  8
DEFPOINTS
 62
     0
 48
50.0
100
AcDbPoint
 10
11008.8414313946
 20
10052.67818744578
 30
0.0
  0
ENDBLK
  5
17F23
330
17F16
100
AcDbEntity
  8
0
 48
50.0
100
AcDbBlockEnd
  0
BLOCK
  5
17F2E
330
17F24
100
AcDbEntity
  8
0
 48
50.0
100
AcDbBlockBegin
  2
*D27
 70
     1
 10
0.0
 20
0.0
 30
0.0
  3
*D27
  1

  0
LINE
  5
1807E
330
17F24
100
AcDbEntity
  8
寸法
 62
     0
 48
50.0
370
    -2
100
AcDbLine
 10
9273.8414313946
 20
9781.473022881728
 30
0.0
 11
9273.8414313946
 21
10112.6781874458
 31
0.0
  0
LINE
  5
1807F
330
17F24
100
AcDbEntity
  8
寸法
 62
     0
 48
50.0
370
    -2
100
AcDbLine
 10
10953.8414313946
 20
9781.473022881824
 30
0.0
 11
10953.8414313946
 21
10112.6781874458
 31
0.0
  0
LINE
  5
18080
330
17F24
100
AcDbEntity
  8
寸法
 62
     0
 48
50.0
370
    -2
100
AcDbLine
 10
9273.8414313946
 20
10052.6781874458
 30
0.0
 11
10953.8414313946
 21
10052.6781874458
 31
0.0
  0
INSERT
  5
18081
330
17F24
100
AcDbEntity
  8
寸法
 62
     0
 48
50.0
370
    -2
100
AcDbBlockReference
  2
_DOTSMALL
 10
9273.8414313946
 20
10052.6781874458
 30
0.0
 41
100.0
 42
100.0
 43
100.0
 50
180.0
  0
INSERT
  5
18082
330
17F24
100
AcDbEntity
  8
寸法
 62
     0
 48
50.0
370
    -2
100
AcDbBlockReference
  2
_DOTSMALL
 10
10953.8414313946
 20
10052.6781874458
 30
0.0
 41
100.0
 42
100.0
 43
100.0
  0
MTEXT
  5
18083
330
17F24
100
AcDbEntity
  8
寸法
 62
     7
 48
50.0
100
AcDbMText
 10
10113.8414313946
 20
10152.68999846943
 30
0.0
 40
120.0
 41
0.0
 71
     5
 72
     1
  1
\A1;4X420=1680
  7
STYLE1
 73
     1
 44
1.0
1001
ACAD
1000
MTEXTBEGIN
1070
    73
1070
     1
1070
    44
1040
1.0
1070
    74
1070
     0
1000
MTEXTEND
  0
POINT
  5
18084
330
17F24
100
AcDbEntity
  8
DEFPOINTS
 62
     0
 48
50.0
100
AcDbPoint
 10
9273.8414313946
 20
9761.473022881729
 30
0.0
  0
POINT
  5
18085
330
17F24
100
AcDbEntity
  8
DEFPOINTS
 62
     0
 48
50.0
100
AcDbPoint
 10
10953.8414313946
 20
9761.473022881823
 30
0.0
  0
POINT
  5
18086
330
17F24
100
AcDbEntity
  8
DEFPOINTS
 62
     0
 48
50.0
100
AcDbPoint
 10
10953.8414313946
 20
10052.6781874458
 30
0.0
  0
ENDBLK
  5
17F2F
330
17F24
100
AcDbEntity
  8
0
 48
50.0
100
AcDbBlockEnd
  0
BLOCK
  5
17F3A
330
17F30
100
AcDbEntity
  8
0
 48
50.0
100
AcDbBlockBegin
  2
*D28
 70
     1
 10
0.0
 20
0.0
 30
0.0
  3
*D28
  1

  0
LINE
  5
18013
330
17F30
100
AcDbEntity
  8
寸法
 62
     0
 48
50.0
370
    -2
100
AcDbLine
 10
10508.84143139472
 20
8438.332006730421
 30
0.0
 11
10266.98247371019
 21
8503.137919124224
 31
0.0
  0
LINE
  5
18014
330
17F30
100
AcDbEntity
  8
寸法
 62
     0
 48
50.0
370
    -2
100
AcDbLine
 10
10508.84143139471
 20
7165.332006730408
 30
0.0
 11
10266.98247371019
 21
7230.137919124209
 31
0.0
  0
LINE
  5
18015
330
17F30
100
AcDbEntity
  8
寸法
 62
     0
 48
50.0
370
    -2
100
AcDbLine
 10
10326.98247371019
 20
8487.060967578356
 30
0.0
 11
10326.98247371019
 21
7214.060967578342
 31
0.0
  0
INSERT
  5
18016
330
17F30
100
AcDbEntity
  8
寸法
 62
     0
 48
50.0
370
    -2
100
AcDbBlockReference
  2
_DOTSMALL
 10
10326.98247371019
 20
8487.060967578356
 30
0.0
 41
100.0
 42
100.0
 43
100.0
 50
90.0
  0
INSERT
  5
18017
330
17F30
100
AcDbEntity
  8
寸法
 62
     0
 48
50.0
370
    -2
100
AcDbBlockReference
  2
_DOTSMALL
 10
10326.98247371019
 20
7214.060967578342
 30
0.0
 41
100.0
 42
100.0
 43
100.0
 50
270.0
  0
MTEXT
  5
18018
330
17F30
100
AcDbEntity
  8
寸法
 62
     7
 48
50.0
100
AcDbMText
 10
10226.97066268657
 20
7830.678909120855
 30
0.0
 40
120.0
 41
0.0
 71
     5
 72
     1
  1
\A1;1273
  7
STYLE1
 11
0.0000000000000001
 21
1.0
 31
0.0
 73
     1
 44
1.0
1001
ACAD
1000
MTEXTBEGIN
1070
    73
1070
     1
1070
    44
1040
1.0
1070
    74
1070
     0
1000
MTEXTEND
  0
POINT
  5
18019
330
17F30
100
AcDbEntity
  8
DEFPOINTS
 62
     0
 48
50.0
100
AcDbPoint
 10
10528.84143139472
 20
8432.9730228818
 30
0.0
  0
POINT
  5
1801A
330
17F30
100
AcDbEntity
  8
DEFPOINTS
 62
     0
 48
50.0
100
AcDbPoint
 10
10528.84143139471
 20
7159.973022881786
 30
0.0
  0
POINT
  5
1801B
330
17F30
100
AcDbEntity
  8
DEFPOINTS
 62
     0
 48
50.0
100
AcDbPoint
 10
10326.98247371019
 20
7214.060967578342
 30
0.0
  0
ENDBLK
  5
17F3B
330
17F30
100
AcDbEntity
  8
0
 48
50.0
100
AcDbBlockEnd
  0
BLOCK
  5
17F46
330
17F3C
100
AcDbEntity
  8
0
 48
50.0
100
AcDbBlockBegin
  2
*D29
 70
     1
 10
0.0
 20
0.0
 30
0.0
  3
*D29
  1

  0
LINE
  5
1800A
330
17F3C
100
AcDbEntity
  8
寸法
 62
     0
 48
50.0
370
    -2
100
AcDbLine
 10
10508.84143139466
 20
9738.332006730491
 30
0.0
 11
10265.48115506568
 21
9803.540196242655
 31
0.0
  0
LINE
  5
1800B
330
17F3C
100
AcDbEntity
  8
寸法
 62
     0
 48
50.0
370
    -2
100
AcDbLine
 10
10508.84143139465
 20
8465.332006730418
 30
0.0
 11
10265.48115506568
 21
8530.540196242581
 31
0.0
  0
LINE
  5
1800C
330
17F3C
100
AcDbEntity
  8
寸法
 62
     0
 48
50.0
370
    -2
100
AcDbLine
 10
10325.48115506568
 20
9787.463244696787
 30
0.0
 11
10325.48115506568
 21
8514.463244696713
 31
0.0
  0
INSERT
  5
1800D
330
17F3C
100
AcDbEntity
  8
寸法
 62
     0
 48
50.0
370
    -2
100
AcDbBlockReference
  2
_DOTSMALL
 10
10325.48115506568
 20
9787.463244696787
 30
0.0
 41
100.0
 42
100.0
 43
100.0
 50
90.0
  0
INSERT
  5
1800E
330
17F3C
100
AcDbEntity
  8
寸法
 62
     0
 48
50.0
370
    -2
100
AcDbBlockReference
  2
_DOTSMALL
 10
10325.48115506568
 20
8514.463244696713
 30
0.0
 41
100.0
 42
100.0
 43
100.0
 50
270.0
  0
MTEXT
  5
1800F
330
17F3C
100
AcDbEntity
  8
寸法
 62
     7
 48
50.0
100
AcDbMText
 10
10225.46934404206
 20
9124.419088311942
 30
0.0
 40
120.0
 41
0.0
 71
     5
 72
     1
  1
\A1;1273
  7
STYLE1
 11
0.0000000000000001
 21
1.0
 31
0.0
 73
     1
 44
1.0
1001
ACAD
1000
MTEXTBEGIN
1070
    73
1070
     1
1070
    44
1040
1.0
1070
    74
1070
     0
1000
MTEXTEND
  0
POINT
  5
18010
330
17F3C
100
AcDbEntity
  8
DEFPOINTS
 62
     0
 48
50.0
100
AcDbPoint
 10
10528.84143139466
 20
9732.973022881868
 30
0.0
  0
POINT
  5
18011
330
17F3C
100
AcDbEntity
  8
DEFPOINTS
 62
     0
 48
50.0
100
AcDbPoint
 10
10528.84143139465
 20
8459.973022881797
 30
0.0
  0
POINT
  5
18012
330
17F3C
100
AcDbEntity
  8
DEFPOINTS
 62
     0
 48
50.0
100
AcDbPoint
 10
10325.48115506568
 20
8514.463244696713
 30
0.0
  0
ENDBLK
  5
17F47
330
17F3C
100
AcDbEntity
  8
0
 48
50.0
100
AcDbBlockEnd
  0
BLOCK
  5
18249
330
1823F
100
AcDbEntity
  8
0
 48
50.0
100
AcDbBlockBegin
  2
*D30
 70
     1
 10
0.0
 20
0.0
 30
0.0
  3
*D30
  1

  0
LINE
  5
18268
330
1823F
100
AcDbEntity
  8
寸法
 62
     0
 48
50.0
370
    -2
100
AcDbLine
 10
9285.841431394565
 20
7034.473022881653
 30
0.0
 11
9285.841431394565
 21
6389.398004833429
 31
0.0
  0
LINE
  5
18269
330
1823F
100
AcDbEntity
  8
寸法
 62
     0
 48
50.0
370
    -2
100
AcDbLine
 10
10235.84143139456
 20
7034.473022881653
 30
0.0
 11
10235.84143139456
 21
6389.398004833429
 31
0.0
  0
LINE
  5
1826A
330
1823F
100
AcDbEntity
  8
寸法
 62
     0
 48
50.0
370
    -2
100
AcDbLine
 10
9305.841431394565
 20
6429.398004833429
 30
0.0
 11
10215.84143139456
 21
6429.398004833429
 31
0.0
  0
INSERT
  5
1826B
330
1823F
100
AcDbEntity
  8
寸法
 62
     0
 48
50.0
370
    -2
100
AcDbBlockReference
  2
_DOT
 10
9285.841431394565
 20
6429.398004833429
 30
0.0
 41
20.0
 42
20.0
 43
20.0
 50
180.0
  0
INSERT
  5
1826C
330
1823F
100
AcDbEntity
  8
寸法
 62
     0
 48
50.0
370
    -2
100
AcDbBlockReference
  2
_DOT
 10
10235.84143139456
 20
6429.398004833429
 30
0.0
 41
20.0
 42
20.0
 43
20.0
  0
MTEXT
  5
1826D
330
1823F
100
AcDbEntity
  8
寸法
 62
     7
 48
50.0
100
AcDbMText
 10
9760.841431394567
 20
6621.398004833429
 30
0.0
 40
120.0
 41
0.0
 71
     5
 72
     1
  1
\A1;有効開口部間口\P950
  7
STYLE1
 73
     1
 44
1.0
1001
ACAD
1000
MTEXTBEGIN
1070
    73
1070
     1
1070
    44
1040
1.0
1070
    74
1070
     0
1000
MTEXTEND
  0
POINT
  5
1826E
330
1823F
100
AcDbEntity
  8
DEFPOINTS
 62
     0
 48
50.0
100
AcDbPoint
 10
9285.841431394565
 20
7054.473022881653
 30
0.0
  0
POINT
  5
1826F
330
1823F
100
AcDbEntity
  8
DEFPOINTS
 62
     0
 48
50.0
100
AcDbPoint
 10
10235.84143139456
 20
7054.473022881653
 30
0.0
  0
POINT
  5
18270
330
1823F
100
AcDbEntity
  8
DEFPOINTS
 62
     0
 48
50.0
100
AcDbPoint
 10
10235.84143139456
 20
6429.398004833429
 30
0.0
  0
ENDBLK
  5
1824A
330
1823F
100
AcDbEntity
  8
0
 48
50.0
100
AcDbBlockEnd
  0
BLOCK
  5
1852A
330
18520
100
AcDbEntity
  8
0
 48
50.0
100
AcDbBlockBegin
  2
*D31
 70
     1
 10
0.0
 20
0.0
 30
0.0
  3
*D31
  1

  0
LINE
  5
18663
330
18520
100
AcDbEntity
  8
寸法
 62
     0
 48
50.0
370
    -2
100
AcDbLine
 10
9246.841431394566
 20
7034.47302288169
 30
0.0
 11
9246.841431394566
 21
6119.402753030908
 31
0.0
  0
LINE
  5
18664
330
18520
100
AcDbEntity
  8
寸法
 62
     0
 48
50.0
370
    -2
100
AcDbLine
 10
10980.84143139456
 20
7034.473022881688
 30
0.0
 11
10980.84143139456
 21
6119.402753030908
 31
0.0
  0
LINE
  5
18665
330
18520
100
AcDbEntity
  8
寸法
 62
     0
 48
50.0
370
    -2
100
AcDbLine
 10
9246.841431394566
 20
6179.402753030909
 30
0.0
 11
10980.84143139456
 21
6179.402753030909
 31
0.0
  0
INSERT
  5
18666
330
18520
100
AcDbEntity
  8
寸法
 62
     0
 48
50.0
370
    -2
100
AcDbBlockReference
  2
_DOTSMALL
 10
9246.841431394566
 20
6179.402753030909
 30
0.0
 41
100.0
 42
100.0
 43
100.0
 50
180.0
  0
INSERT
  5
18667
330
18520
100
AcDbEntity
  8
寸法
 62
     0
 48
50.0
370
    -2
100
AcDbBlockReference
  2
_DOTSMALL
 10
10980.84143139456
 20
6179.402753030909
 30
0.0
 41
100.0
 42
100.0
 43
100.0
  0
MTEXT
  5
18668
330
18520
100
AcDbEntity
  8
寸法
 62
     7
 48
50.0
100
AcDbMText
 10
10104.42317534638
 20
6279.402753030908
 30
0.0
 40
120.0
 41
0.0
 71
     5
 72
     1
  1
\A1;1734
  7
STYLE1
 73
     1
 44
1.0
1001
ACAD
1000
MTEXTBEGIN
1070
    73
1070
     1
1070
    44
1040
1.0
1070
    74
1070
     0
1000
MTEXTEND
  0
POINT
  5
18669
330
18520
100
AcDbEntity
  8
DEFPOINTS
 62
     0
 48
50.0
100
AcDbPoint
 10
9246.841431394566
 20
7054.47302288169
 30
0.0
  0
POINT
  5
1866A
330
18520
100
AcDbEntity
  8
DEFPOINTS
 62
     0
 48
50.0
100
AcDbPoint
 10
10980.84143139456
 20
7054.473022881687
 30
0.0
  0
POINT
  5
1866B
330
18520
100
AcDbEntity
  8
DEFPOINTS
 62
     0
 48
50.0
100
AcDbPoint
 10
10980.84143139456
 20
6179.402753030909
 30
0.0
  0
ENDBLK
  5
1852B
330
18520
100
AcDbEntity
  8
0
 48
50.0
100
AcDbBlockEnd
  0
BLOCK
  5
18538
330
1852C
100
AcDbEntity
  8
0
 48
50.0
100
AcDbBlockBegin
  2
*D32
 70
     1
 10
0.0
 20
0.0
 30
0.0
  3
*D32
  1

  0
LINE
  5
1866C
330
1852C
100
AcDbEntity
  8
寸法
 62
     0
 48
50.0
370
    -2
100
AcDbLine
 10
9198.841431394594
 20
7131.473022881684
 30
0.0
 11
8884.230185767878
 21
7131.473022881684
 31
0.0
  0
LINE
  5
1866D
330
1852C
100
AcDbEntity
  8
寸法
 62
     0
 48
50.0
370
    -2
100
AcDbLine
 10
9226.841431394573
 20
7056.473022881684
 30
0.0
 11
8884.230185767878
 21
7056.473022881684
 31
0.0
  0
LINE
  5
1866E
330
1852C
100
AcDbEntity
  8
寸法
 62
     0
 48
50.0
370
    -2
100
AcDbLine
 10
8924.230185767878
 20
7151.473022881685
 30
0.0
 11
8924.230185767878
 21
7171.473022881684
 31
0.0
  0
LINE
  5
1866F
330
1852C
100
AcDbEntity
  8
寸法
 62
     0
 48
50.0
370
    -2
100
AcDbLine
 10
8924.230185767878
 20
7036.473022881684
 30
0.0
 11
8924.230185767878
 21
6815.502460133206
 31
0.0
  0
LINE
  5
18670
330
1852C
100
AcDbEntity
  8
寸法
 62
     0
 48
50.0
370
    -2
100
AcDbLine
 10
8924.230185767878
 20
7131.473022881684
 30
0.0
 11
8924.230185767878
 21
7056.473022881684
 31
0.0
  0
INSERT
  5
18671
330
1852C
100
AcDbEntity
  8
寸法
 62
     0
 48
50.0
370
    -2
100
AcDbBlockReference
  2
_DOT
 10
8924.230185767878
 20
7131.473022881684
 30
0.0
 41
20.0
 42
20.0
 43
20.0
 50
270.0
  0
INSERT
  5
18672
330
1852C
100
AcDbEntity
  8
寸法
 62
     0
 48
50.0
370
    -2
100
AcDbBlockReference
  2
_DOT
 10
8924.230185767878
 20
7056.473022881684
 30
0.0
 41
20.0
 42
20.0
 43
20.0
 50
90.0
  0
MTEXT
  5
18673
330
1852C
100
AcDbEntity
  8
寸法
 62
     7
 48
50.0
100
AcDbMText
 10
8832.230185767876
 20
6915.987741507446
 30
0.0
 40
120.0
 41
0.0
 71
     5
 72
     1
  1
\A1;75
  7
STYLE1
 11
0.0000000000000001
 21
1.0
 31
0.0
 73
     1
 44
1.0
1001
ACAD
1000
MTEXTBEGIN
1070
    73
1070
     1
1070
    44
1040
1.0
1070
    74
1070
     0
1000
MTEXTEND
  0
POINT
  5
18674
330
1852C
100
AcDbEntity
  8
DEFPOINTS
 62
     0
 48
50.0
100
AcDbPoint
 10
9218.841431394594
 20
7131.473022881684
 30
0.0
  0
POINT
  5
18675
330
1852C
100
AcDbEntity
  8
DEFPOINTS
 62
     0
 48
50.0
100
AcDbPoint
 10
9246.841431394573
 20
7056.473022881684
 30
0.0
  0
POINT
  5
18676
330
1852C
100
AcDbEntity
  8
DEFPOINTS
 62
     0
 48
50.0
100
AcDbPoint
 10
8924.230185767878
 20
7056.473022881684
 30
0.0
  0
ENDBLK
  5
18539
330
1852C
100
AcDbEntity
  8
0
 48
50.0
100
AcDbBlockEnd
  0
BLOCK
  5
18582
330
18578
100
AcDbEntity
  8
0
 48
50.0
100
AcDbBlockBegin
  2
*D33
 70
     1
 10
0.0
 20
0.0
 30
0.0
  3
*D33
  1

  0
LINE
  5
1865A
330
18578
100
AcDbEntity
  8
寸法
 62
     0
 48
50.0
370
    -2
100
AcDbLine
 10
9218.841431394594
 20
7111.473022881684
 30
0.0
 11
9218.841431394594
 21
5879.645232136781
 31
0.0
  0
LINE
  5
1865B
330
18578
100
AcDbEntity
  8
寸法
 62
     0
 48
50.0
370
    -2
100
AcDbLine
 10
11008.84143139457
 20
7111.473022881813
 30
0.0
 11
11008.84143139457
 21
5879.645232136781
 31
0.0
  0
LINE
  5
1865C
330
18578
100
AcDbEntity
  8
寸法
 62
     0
 48
50.0
370
    -2
100
AcDbLine
 10
9218.841431394594
 20
5939.645232136782
 30
0.0
 11
11008.84143139457
 21
5939.645232136782
 31
0.0
  0
INSERT
  5
1865D
330
18578
100
AcDbEntity
  8
寸法
 62
     0
 48
50.0
370
    -2
100
AcDbBlockReference
  2
_DOTSMALL
 10
9218.841431394594
 20
5939.645232136782
 30
0.0
 41
100.0
 42
100.0
 43
100.0
 50
180.0
  0
INSERT
  5
1865E
330
18578
100
AcDbEntity
  8
寸法
 62
     0
 48
50.0
370
    -2
100
AcDbBlockReference
  2
_DOTSMALL
 10
11008.84143139457
 20
5939.645232136782
 30
0.0
 41
100.0
 42
100.0
 43
100.0
  0
MTEXT
  5
1865F
330
18578
100
AcDbEntity
  8
寸法
 62
     7
 48
50.0
100
AcDbMText
 10
10101.98818172595
 20
6039.645232136781
 30
0.0
 40
120.0
 41
0.0
 71
     5
 72
     1
  1
\A1;1790
  7
STYLE1
 73
     1
 44
1.0
1001
ACAD
1000
MTEXTBEGIN
1070
    73
1070
     1
1070
    44
1040
1.0
1070
    74
1070
     0
1000
MTEXTEND
  0
POINT
  5
18660
330
18578
100
AcDbEntity
  8
DEFPOINTS
 62
     0
 48
50.0
100
AcDbPoint
 10
9218.841431394594
 20
7131.473022881684
 30
0.0
  0
POINT
  5
18661
330
18578
100
AcDbEntity
  8
DEFPOINTS
 62
     0
 48
50.0
100
AcDbPoint
 10
11008.84143139457
 20
7131.473022881813
 30
0.0
  0
POINT
  5
18662
330
18578
100
AcDbEntity
  8
DEFPOINTS
 62
     0
 48
50.0
100
AcDbPoint
 10
11008.84143139457
 20
5939.645232136782
 30
0.0
  0
ENDBLK
  5
18583
330
18578
100
AcDbEntity
  8
0
 48
50.0
100
AcDbBlockEnd
  0
ENDSEC
  0
SECTION
  2
ENTITIES
  0
LINE
  5
10B57
330
747D
100
AcDbEntity
  8
補助
  6
PHANTOM
 62
   230
 48
50.0
100
AcDbLine
 10
139.9999999999995
 20
11409.6
 30
0.0
 11
16307.2
 21
11409.6
 31
0.0
  0
LINE
  5
10B5D
330
747D
100
AcDbEntity
  8
仕様書枠
 48
50.0
100
AcDbLine
 10
140.0
 20
0.0
 30
0.0
 11
16307.2
 21
-0.0000000000000909
 31
0.0
  0
LINE
  5
10B5E
330
747D
100
AcDbEntity
  8
補助
  6
PHANTOM
 62
   230
 48
50.0
100
AcDbLine
 10
16307.2
 20
11409.6
 30
0.0
 11
16307.2
 21
1200.0
 31
0.0
  0
LINE
  5
10B6D
330
747D
100
AcDbEntity
  8
補助
  6
PHANTOM
 62
   230
 48
50.0
100
AcDbLine
 10
13107.2
 20
11409.6
 30
0.0
 11
13107.2
 21
4800.0
 31
0.0
  0
LINE
  5
10B6F
330
747D
100
AcDbEntity
  8
補助
  6
PHANTOM
 62
   230
 48
50.0
100
AcDbLine
 10
13107.2
 20
4800.0
 30
0.0
 11
16307.2
 21
4800.0
 31
0.0
  0
TEXT
  5
16369
330
747D
100
AcDbEntity
  8
文字
 62
     7
 48
50.0
100
AcDbText
 10
13209.4053442172
 20
76.09434707649343
 30
0.0
 40
100.0
  1
○床面積 ： 4.84㎡(1.47坪) 　
  7
STYLE2
100
AcDbText
  0
LINE
  5
1636A
330
747D
100
AcDbEntity
  8
仕様書枠
 48
50.0
100
AcDbLine
 10
13107.2
 20
800.0
 30
0.0
 11
14251.2
 21
800.0
 31
0.0
  0
TEXT
  5
1636C
330
747D
100
AcDbEntity
  8
文字
 62
     7
 48
50.0
100
AcDbText
 10
13201.43669998441
 20
477.2740661031255
 30
0.0
 40
160.0
  1
機種名
  7
STYLE2
100
AcDbText
  0
TEXT
  5
1636D
330
747D
100
AcDbEntity
  8
文字
 62
     7
 48
50.0
100
AcDbText
 10
13162.9790565769
 20
895.0906074299405
 30
0.0
 40
200.0
  1
外 形 図
  7
STYLE2
100
AcDbText
  0
LINE
  5
1636E
330
747D
100
AcDbEntity
  8
文字
 62
     7
 48
50.0
100
AcDbLine
 10
13187.2
 20
400.0
 30
0.0
 11
16227.2
 21
400.0
 31
0.0
  0
LINE
  5
1636F
330
747D
100
AcDbEntity
  8
仕様書枠
 48
50.0
100
AcDbLine
 10
13107.2
 20
1200.0
 30
0.0
 11
16307.2
 21
1200.0
 31
0.0
  0
LINE
  5
16370
330
747D
100
AcDbEntity
  8
仕様書枠
  6
Continuous
 48
50.0
100
AcDbLine
 10
13107.2
 20
1200.0
 30
0.0
 11
13107.2
 21
-0.0000000000000729
 31
0.0
  0
TEXT
  5
16372
330
747D
100
AcDbEntity
  8
文字
 62
     7
 48
50.0
100
AcDbText
 10
14524.131837222
 20
1031.557706291228
 30
0.0
 40
100.0
  1
NO.11      <縮尺> S=1/40
  7
STYLE2
100
AcDbText
  0
TEXT
  5
16373
330
747D
100
AcDbEntity
  8
文字
 62
     7
 48
50.0
100
AcDbText
 10
14644.07818602837
 20
876.4448062548634
 30
0.0
 40
100.0
  1
～一般型・多雪地型～
  7
STYLE2
100
AcDbText
  0
LINE
  5
16374
330
747D
100
AcDbEntity
  8
仕様書枠
  6
Continuous
 48
50.0
100
AcDbLine
 10
14251.2
 20
1200.0
 30
0.0
 11
14251.2
 21
800.0
 31
0.0
  0
LINE
  5
16375
330
747D
100
AcDbEntity
  8
仕様書枠
 48
50.0
100
AcDbLine
 10
16307.2
 20
1200.0
 30
0.0
 11
16307.2
 21
-0.0000000000000909
 31
0.0
  0
TEXT
  5
16E22
330
747D
100
AcDbEntity
  8
部品1
100
AcDbText
 10
2675.325302092999
 20
1886.020266775554
 30
0.0
 40
125.0
  1
▽G.L
  7
STYLE2
100
AcDbText
  0
TEXT
  5
16E23
330
747D
100
AcDbEntity
  8
部品1
100
AcDbText
 10
5529.45517036673
 20
777.7042909761694
 30
0.0
 40
135.0
  1
側面図
  7
STYLE2
100
AcDbText
  0
LINE
  5
16E24
330
747D
100
AcDbEntity
  8
部品1
100
AcDbLine
 10
5440.009068943123
 20
970.5978201946937
 30
0.0
 11
5440.009068943123
 21
730.7054986491611
 31
0.0
  0
LINE
  5
16E25
330
747D
100
AcDbEntity
  8
部品1
100
AcDbLine
 10
5440.009068943123
 20
730.7054986491611
 30
0.0
 11
6203.479735171565
 21
730.7054986491611
 31
0.0
  0
LINE
  5
16E26
330
747D
100
AcDbEntity
  8
部品1
100
AcDbLine
 10
6203.479735171565
 20
730.7054986491611
 30
0.0
 11
6203.479735171565
 21
970.5978201946937
 31
0.0
  0
LINE
  5
16E27
330
747D
100
AcDbEntity
  8
部品1
100
AcDbLine
 10
6203.479735171565
 20
970.5978201946937
 30
0.0
 11
5440.009068943123
 21
970.5978201946937
 31
0.0
  0
LINE
  5
16E28
330
747D
100
AcDbEntity
  8
部品1
100
AcDbLine
 10
7119.244402057344
 20
1949.913363169653
 30
0.0
 11
7126.744402057347
 21
1949.913363169653
 31
0.0
  0
LINE
  5
16E29
330
747D
100
AcDbEntity
  8
部品1
100
AcDbLine
 10
4496.744402057344
 20
1949.913363169653
 30
0.0
 11
4504.244402057344
 21
1949.913363169653
 31
0.0
  0
LINE
  5
16E2A
330
747D
100
AcDbEntity
  8
部品1
100
AcDbLine
 10
4496.744402057344
 20
1949.913363169653
 30
0.0
 11
4504.244402057344
 21
1949.913363169653
 31
0.0
  0
DIMENSION
  5
16E2B
330
747D
100
AcDbEntity
  8
寸法
100
AcDbDimension
  2
*D2
 10
3873.091692899048
 20
1999.913363169652
 30
0.0
 11
3873.091692899047
 21
3044.913363169652
 31
0.0
 70
   160
 71
     5
 42
2090.0
  3
INABA_S40G
100
AcDbAlignedDimension
 13
4496.744402057344
 23
4089.913363169652
 33
0.0
 14
4496.744402057344
 24
1999.913363169652
 34
0.0
 50
90.0
100
AcDbRotatedDimension
1001
ACAD
1000
DSTYLE
1002
{
1070
   174
1070
     0
1070
   272
1070
     1
1070
   288
1070
     0
1070
   341
1005
0
1002
}
  0
DIMENSION
  5
16E2C
330
747D
100
AcDbEntity
  8
寸法
100
AcDbDimension
  2
*D3
 10
3588.105020127986
 20
4324.913363169656
 30
0.0
 11
3588.105020127985
 21
3044.913363169652
 31
0.0
 70
   160
 71
     5
 42
2375.000000000005
  3
INABA_S40G
100
AcDbAlignedDimension
 13
4496.744402057344
 23
1949.913363169652
 33
0.0
 14
4436.744402057343
 24
4324.913363169656
 34
0.0
 50
90.0
100
AcDbRotatedDimension
1001
ACAD
1000
DSTYLE
1002
{
1070
   174
1070
     0
1070
   272
1070
     1
1070
   288
1070
     0
1070
   341
1005
0
1002
}
  0
DIMENSION
  5
16E2D
330
747D
100
AcDbEntity
  8
寸法
100
AcDbDimension
  2
*D4
 10
3588.105020127986
 20
1849.913363169652
 30
0.0
 11
3588.105020127985
 21
1613.86611907516
 31
0.0
 70
   160
 71
     5
 42
100.0
  3
INABA_S40G
100
AcDbAlignedDimension
 13
4441.744402057344
 23
1949.913363169652
 33
0.0
 14
3873.091692899047
 24
1849.913363169652
 34
0.0
 50
90.0
100
AcDbRotatedDimension
1001
ACAD
1000
DSTYLE
1002
{
1070
   174
1070
     0
1070
   272
1070
     1
1070
   288
1070
     0
1070
   341
1005
0
1002
}
  0
DIMENSION
  5
16E2E
330
747D
100
AcDbEntity
  8
寸法
100
AcDbDimension
  2
*D5
 10
3873.091692899047
 20
1949.913363169652
 30
0.0
 11
3873.091692899047
 21
1643.86611907516
 31
0.0
 70
   160
 71
     5
 42
50.0
  3
INABA_S40G
100
AcDbAlignedDimension
 13
4496.744402057344
 23
1999.913363169652
 33
0.0
 14
4441.744402057344
 24
1949.913363169652
 34
0.0
 50
90.0
100
AcDbRotatedDimension
1001
ACAD
1000
DSTYLE
1002
{
1070
   174
1070
     0
1070
   272
1070
     1
1070
   288
1070
     0
1070
   341
1005
0
1002
}
  0
LINE
  5
16E2F
330
747D
100
AcDbEntity
  8
破線
  6
HIDDEN
 48
5.0
100
AcDbLine
 10
7134.244402057344
 20
1694.913363169653
 30
0.0
 11
7064.244402057344
 21
1694.913363169653
 31
0.0
  0
LINE
  5
16E30
330
747D
100
AcDbEntity
  8
破線
  6
HIDDEN
 48
5.0
100
AcDbLine
 10
7079.244402057344
 20
1844.913363169653
 30
0.0
 11
7064.244402057344
 21
1697.213363169652
 31
0.0
  0
LINE
  5
16E31
330
747D
100
AcDbEntity
  8
破線
  6
HIDDEN
 48
5.0
100
AcDbLine
 10
7064.244402057344
 20
1697.213363169652
 30
0.0
 11
7064.244402057344
 21
1694.913363169653
 31
0.0
  0
LINE
  5
16E32
330
747D
100
AcDbEntity
  8
破線
  6
HIDDEN
 48
5.0
100
AcDbLine
 10
7119.244402057344
 20
1844.913363169653
 30
0.0
 11
7134.244402057344
 21
1697.213363169652
 31
0.0
  0
LINE
  5
16E33
330
747D
100
AcDbEntity
  8
破線
  6
HIDDEN
 48
5.0
100
AcDbLine
 10
7134.244402057344
 20
1697.213363169652
 30
0.0
 11
7134.244402057344
 21
1694.913363169653
 31
0.0
  0
LINE
  5
16E34
330
747D
100
AcDbEntity
  8
破線
  6
HIDDEN
 48
5.0
100
AcDbLine
 10
4489.244402057344
 20
1694.913363169653
 30
0.0
 11
4559.244402057344
 21
1694.913363169653
 31
0.0
  0
LINE
  5
16E35
330
747D
100
AcDbEntity
  8
破線
  6
HIDDEN
 48
5.0
100
AcDbLine
 10
4489.244402057344
 20
1697.213363169652
 30
0.0
 11
4489.244402057344
 21
1694.913363169653
 31
0.0
  0
LINE
  5
16E36
330
747D
100
AcDbEntity
  8
破線
  6
HIDDEN
 48
5.0
100
AcDbLine
 10
4559.244402057344
 20
1697.213363169652
 30
0.0
 11
4559.244402057344
 21
1694.913363169653
 31
0.0
  0
LINE
  5
16E37
330
747D
100
AcDbEntity
  8
破線
  6
HIDDEN
 48
5.0
100
AcDbLine
 10
4504.244402057344
 20
1844.913363169653
 30
0.0
 11
4489.244402057344
 21
1697.213363169652
 31
0.0
  0
LINE
  5
16E38
330
747D
100
AcDbEntity
  8
破線
  6
HIDDEN
 48
5.0
100
AcDbLine
 10
4544.244402057343
 20
1844.913363169653
 30
0.0
 11
4559.244402057344
 21
1697.213363169652
 31
0.0
  0
LINE
  5
16E39
330
747D
100
AcDbEntity
  8
部品1
 48
50.0
100
AcDbLine
 10
4504.244402057344
 20
1989.913363169653
 30
0.0
 11
4504.244402057344
 21
1849.913363169653
 31
0.0
  0
LINE
  5
16E3A
330
747D
100
AcDbEntity
  8
部品1
 48
50.0
100
AcDbLine
 10
4544.244402057343
 20
1989.913363169653
 30
0.0
 11
4544.244402057343
 21
1849.913363169653
 31
0.0
  0
LINE
  5
16E3B
330
747D
100
AcDbEntity
  8
部品1
100
AcDbLine
 10
4509.244402057343
 20
1994.913363169653
 30
0.0
 11
4539.244402057344
 21
1994.913363169653
 31
0.0
  0
ARC
  5
16E3C
330
747D
100
AcDbEntity
  8
部品1
 48
50.0
100
AcDbCircle
 10
4509.244402057343
 20
1989.913363169653
 30
0.0
 40
5.0
100
AcDbArc
 50
90.0
 51
180.0
  0
ARC
  5
16E3D
330
747D
100
AcDbEntity
  8
部品1
 48
50.0
100
AcDbCircle
 10
4539.244402057344
 20
1989.913363169653
 30
0.0
 40
5.0
100
AcDbArc
 50
0.0
 51
90.0
  0
LINE
  5
16E3E
330
747D
100
AcDbEntity
  8
部品1
 48
50.0
100
AcDbLine
 10
7079.244402057344
 20
1989.913363169653
 30
0.0
 11
7079.244402057344
 21
1849.913363169653
 31
0.0
  0
LINE
  5
16E3F
330
747D
100
AcDbEntity
  8
部品1
 48
50.0
100
AcDbLine
 10
7119.244402057344
 20
1989.913363169653
 30
0.0
 11
7119.244402057344
 21
1849.913363169653
 31
0.0
  0
LINE
  5
16E40
330
747D
100
AcDbEntity
  8
部品1
100
AcDbLine
 10
7114.244402057344
 20
1994.913363169653
 30
0.0
 11
7084.244402057343
 21
1994.913363169653
 31
0.0
  0
ARC
  5
16E41
330
747D
100
AcDbEntity
  8
部品1
 48
50.0
100
AcDbCircle
 10
7084.244402057343
 20
1989.913363169653
 30
0.0
 40
5.0
100
AcDbArc
 50
90.0
 51
180.0
  0
ARC
  5
16E42
330
747D
100
AcDbEntity
  8
部品1
 48
50.0
100
AcDbCircle
 10
7114.244402057344
 20
1989.913363169653
 30
0.0
 40
5.0
100
AcDbArc
 50
0.0
 51
90.0
  0
LINE
  5
16E43
330
747D
100
AcDbEntity
  8
破線
  6
HIDDEN
 48
5.0
100
AcDbLine
 10
7079.244402057344
 20
1849.913363169653
 30
0.0
 11
7079.244402057344
 21
1844.913363169653
 31
0.0
  0
LINE
  5
16E44
330
747D
100
AcDbEntity
  8
破線
  6
HIDDEN
 48
5.0
100
AcDbLine
 10
7119.244402057344
 20
1849.913363169653
 30
0.0
 11
7119.244402057344
 21
1844.913363169653
 31
0.0
  0
LINE
  5
16E45
330
747D
100
AcDbEntity
  8
破線
  6
HIDDEN
 48
5.0
100
AcDbLine
 10
4504.244402057351
 20
1849.913363169653
 30
0.0
 11
4504.244402057351
 21
1844.913363169653
 31
0.0
  0
LINE
  5
16E46
330
747D
100
AcDbEntity
  8
破線
  6
HIDDEN
 48
5.0
100
AcDbLine
 10
4544.244402057343
 20
1849.913363169653
 30
0.0
 11
4544.244402057343
 21
1844.913363169653
 31
0.0
  0
LINE
  5
16E47
330
747D
100
AcDbEntity
  8
部品1
100
AcDbLine
 10
7119.244402057344
 20
1949.913363169653
 30
0.0
 11
7126.744402057347
 21
1949.913363169653
 31
0.0
  0
DIMENSION
  5
16E48
330
747D
100
AcDbEntity
  8
寸法
 48
50.0
100
AcDbDimension
  2
*D6
 10
3876.135995288989
 20
4199.258622042982
 30
0.0
 11
3886.801470547913
 21
4570.105285284681
 31
0.0
 70
   161
 71
     5
 42
141.0000000000009
  3
INABA_S40G
100
AcDbAlignedDimension
 13
4456.140422215923
 23
4323.636112004332
 33
0.0
 14
4452.086966659297
 24
4182.694388238619
 34
0.0
1001
ACAD
1000
DSTYLE
1002
{
1070
   174
1070
     0
1070
   272
1070
     1
1070
   288
1070
     0
1070
   341
1005
0
1002
}
  0
DIMENSION
  5
16E49
330
747D
100
AcDbEntity
  8
寸法
 48
50.0
100
AcDbDimension
  2
*D7
 10
4274.744398810709
 20
1849.913363169651
 30
0.0
 11
4274.744398810709
 21
1749.913363169652
 31
0.0
 70
   160
 71
     5
 42
200.0
  3
INABA_S40G
100
AcDbAlignedDimension
 13
4424.244402057348
 23
1649.913363169651
 33
0.0
 14
4399.244402057344
 24
1849.913363169651
 34
0.0
 50
90.0
100
AcDbRotatedDimension
1001
ACAD
1000
DSTYLE
1002
{
1070
   174
1070
     0
1070
   272
1070
     1
1070
   288
1070
     0
1070
   341
1005
0
1002
}
  0
LINE
  5
16E4A
330
747D
100
AcDbEntity
  8
破線
 48
5.0
100
AcDbLine
 10
4624.244402057343
 20
1649.913363169649
 30
0.0
 11
4424.244402057348
 21
1649.913363169649
 31
0.0
  0
LINE
  5
16E4B
330
747D
100
AcDbEntity
  8
破線
 48
5.0
100
AcDbLine
 10
4624.244402057343
 20
1849.913363169653
 30
0.0
 11
4624.244402057343
 21
1649.913363169649
 31
0.0
  0
LINE
  5
16E4C
330
747D
100
AcDbEntity
  8
破線
 48
5.0
100
AcDbLine
 10
4424.244402057343
 20
1849.913363169653
 30
0.0
 11
4424.244402057348
 21
1649.913363169649
 31
0.0
  0
DIMENSION
  5
16E4D
330
747D
100
AcDbEntity
  8
寸法
 48
50.0
100
AcDbDimension
  2
*D8
 10
4424.244402057348
 20
1363.866033869273
 30
0.0
 11
4524.244402057346
 21
1363.866033869273
 31
0.0
 70
   160
 71
     5
 42
199.9999999999963
  3
INABA_S40G
100
AcDbAlignedDimension
 13
4624.244402057343
 23
1649.913363169649
 33
0.0
 14
4424.244402057348
 24
1649.913363169651
 34
0.0
100
AcDbRotatedDimension
  0
LINE
  5
16E4E
330
747D
100
AcDbEntity
  8
破線
 48
5.0
100
AcDbLine
 10
7199.244402057352
 20
1849.913363169653
 30
0.0
 11
7199.244402057347
 21
1649.913363169649
 31
0.0
  0
LINE
  5
16E4F
330
747D
100
AcDbEntity
  8
破線
 48
5.0
100
AcDbLine
 10
7199.244402057347
 20
1649.913363169649
 30
0.0
 11
6999.244402057351
 21
1649.913363169653
 31
0.0
  0
LINE
  5
16E50
330
747D
100
AcDbEntity
  8
破線
 48
5.0
100
AcDbLine
 10
6999.244402057351
 20
1849.913363169653
 30
0.0
 11
6999.244402057351
 21
1649.913363169653
 31
0.0
  0
LINE
  5
16E51
330
747D
100
AcDbEntity
  8
部品1
 48
50.0
100
AcDbLine
 10
7126.744402057347
 20
4084.913363169653
 30
0.0
 11
7203.744402057347
 21
4074.913363169653
 31
0.0
  0
LINE
  5
16E52
330
747D
100
AcDbEntity
  8
部品1
 48
50.0
100
AcDbLine
 10
7203.744402057347
 20
4074.913363169653
 30
0.0
 11
7203.744402057347
 21
1849.913363169653
 31
0.0
  0
LINE
  5
16E53
330
747D
100
AcDbEntity
  8
部品1
 48
50.0
100
AcDbLine
 10
7203.744402057347
 20
1949.913363169653
 30
0.0
 11
7119.244402057347
 21
1949.913363169653
 31
0.0
  0
LINE
  5
16E54
330
747D
100
AcDbEntity
  8
部品1
100
AcDbLine
 10
6926.744402057344
 20
1949.913363169653
 30
0.0
 11
6926.744402057344
 21
1849.913363169653
 31
0.0
  0
LINE
  5
16E55
330
747D
100
AcDbEntity
  8
部品1
100
AcDbLine
 10
4696.744402057343
 20
1949.913363169653
 30
0.0
 11
4696.744402057343
 21
1849.913363169653
 31
0.0
  0
LINE
  5
16E56
330
747D
100
AcDbEntity
  8
細線
 48
50.0
100
AcDbLine
 10
6994.244402057351
 20
4089.913363169653
 30
0.0
 11
6994.244402057351
 21
1999.913363169654
 31
0.0
  0
LINE
  5
16E57
330
747D
100
AcDbEntity
  8
細線
 48
50.0
100
AcDbLine
 10
7009.244402057351
 20
4089.913363169653
 30
0.0
 11
7009.244402057351
 21
1999.913363169654
 31
0.0
  0
LINE
  5
16E58
330
747D
100
AcDbEntity
  8
細線
 48
50.0
100
AcDbLine
 10
6869.244402057351
 20
4089.913363169653
 30
0.0
 11
6869.244402057351
 21
1999.913363169654
 31
0.0
  0
LINE
  5
16E59
330
747D
100
AcDbEntity
  8
細線
 48
50.0
100
AcDbLine
 10
6854.244402057351
 20
4089.913363169653
 30
0.0
 11
6854.244402057351
 21
1999.913363169654
 31
0.0
  0
LINE
  5
16E5A
330
747D
100
AcDbEntity
  8
細線
 48
50.0
100
AcDbLine
 10
6714.24440205735
 20
4089.913363169653
 30
0.0
 11
6714.24440205735
 21
1999.913363169654
 31
0.0
  0
LINE
  5
16E5B
330
747D
100
AcDbEntity
  8
細線
 48
50.0
100
AcDbLine
 10
6729.244402057351
 20
4089.913363169653
 30
0.0
 11
6729.244402057351
 21
1999.913363169654
 31
0.0
  0
LINE
  5
16E5C
330
747D
100
AcDbEntity
  8
部品1
100
AcDbLine
 10
5811.744402057343
 20
4089.913363169653
 30
0.0
 11
5811.744402057343
 21
1999.913363169653
 31
0.0
  0
LINE
  5
16E5D
330
747D
100
AcDbEntity
  8
細線
 48
50.0
100
AcDbLine
 10
5469.244402057348
 20
4089.913363169653
 30
0.0
 11
5469.244402057348
 21
1999.913363169653
 31
0.0
  0
LINE
  5
16E5E
330
747D
100
AcDbEntity
  8
細線
 48
50.0
100
AcDbLine
 10
5454.244402057348
 20
4089.913363169653
 30
0.0
 11
5454.244402057348
 21
1999.913363169653
 31
0.0
  0
LINE
  5
16E5F
330
747D
100
AcDbEntity
  8
細線
 48
50.0
100
AcDbLine
 10
5594.244402057348
 20
4089.913363169653
 30
0.0
 11
5594.244402057348
 21
1999.913363169653
 31
0.0
  0
LINE
  5
16E60
330
747D
100
AcDbEntity
  8
細線
 48
50.0
100
AcDbLine
 10
5609.244402057347
 20
4089.913363169653
 30
0.0
 11
5609.244402057347
 21
1999.913363169653
 31
0.0
  0
LINE
  5
16E61
330
747D
100
AcDbEntity
  8
細線
 48
50.0
100
AcDbLine
 10
5749.244402057348
 20
4089.913363169653
 30
0.0
 11
5749.244402057348
 21
1999.913363169653
 31
0.0
  0
LINE
  5
16E62
330
747D
100
AcDbEntity
  8
細線
 48
50.0
100
AcDbLine
 10
5734.244402057347
 20
4089.913363169653
 30
0.0
 11
5734.244402057347
 21
1999.913363169653
 31
0.0
  0
LINE
  5
16E63
330
747D
100
AcDbEntity
  8
部品1
100
AcDbLine
 10
5391.744402057344
 20
4089.913363169653
 30
0.0
 11
5391.744402057344
 21
1999.913363169653
 31
0.0
  0
DIMENSION
  5
16E64
330
747D
100
AcDbEntity
  8
寸法
 48
50.0
100
AcDbDimension
  2
*D9
 10
7206.744402057345
 20
4723.570816748958
 30
0.0
 11
7412.791646151834
 21
4723.570816748958
 31
0.0
 70
   160
 71
     5
 42
80.0
  3
INABA_S40G
100
AcDbAlignedDimension
 13
7126.744402057344
 23
4271.724042781307
 33
0.0
 14
7206.744402057345
 24
4269.913363169655
 34
0.0
100
AcDbRotatedDimension
1001
ACAD
1000
DSTYLE
1002
{
1070
   174
1070
     0
1070
   272
1070
     1
1070
   288
1070
     0
1070
   341
1005
0
1002
}
  0
LINE
  5
16E65
330
747D
100
AcDbEntity
  8
細線
 48
50.0
100
AcDbLine
 10
4629.244402057344
 20
4089.913363169653
 30
0.0
 11
4629.244402057344
 21
1999.913363169653
 31
0.0
  0
LINE
  5
16E66
330
747D
100
AcDbEntity
  8
細線
 48
50.0
100
AcDbLine
 10
4614.244402057344
 20
4089.913363169653
 30
0.0
 11
4614.244402057344
 21
1999.913363169653
 31
0.0
  0
LINE
  5
16E67
330
747D
100
AcDbEntity
  8
細線
 48
50.0
100
AcDbLine
 10
4754.244402057344
 20
4089.913363169653
 30
0.0
 11
4754.244402057344
 21
1999.913363169653
 31
0.0
  0
LINE
  5
16E68
330
747D
100
AcDbEntity
  8
細線
 48
50.0
100
AcDbLine
 10
4769.244402057344
 20
4089.913363169653
 30
0.0
 11
4769.244402057344
 21
1999.913363169653
 31
0.0
  0
LINE
  5
16E69
330
747D
100
AcDbEntity
  8
細線
 48
50.0
100
AcDbLine
 10
4909.244402057344
 20
4089.913363169653
 30
0.0
 11
4909.244402057344
 21
1999.913363169653
 31
0.0
  0
LINE
  5
16E6A
330
747D
100
AcDbEntity
  8
細線
 48
50.0
100
AcDbLine
 10
4894.244402057344
 20
4089.913363169653
 30
0.0
 11
4894.244402057344
 21
1999.913363169653
 31
0.0
  0
LINE
  5
16E6B
330
747D
100
AcDbEntity
  8
細線
 48
50.0
100
AcDbLine
 10
5314.244402057344
 20
4089.913363169653
 30
0.0
 11
5314.244402057344
 21
1999.913363169653
 31
0.0
  0
LINE
  5
16E6C
330
747D
100
AcDbEntity
  8
細線
 48
50.0
100
AcDbLine
 10
5329.244402057344
 20
4089.913363169653
 30
0.0
 11
5329.244402057344
 21
1999.913363169653
 31
0.0
  0
LINE
  5
16E6D
330
747D
100
AcDbEntity
  8
細線
 48
50.0
100
AcDbLine
 10
5189.244402057344
 20
4089.913363169653
 30
0.0
 11
5189.244402057344
 21
1999.913363169653
 31
0.0
  0
LINE
  5
16E6E
330
747D
100
AcDbEntity
  8
細線
 48
50.0
100
AcDbLine
 10
5174.244402057343
 20
4089.913363169653
 30
0.0
 11
5174.244402057343
 21
1999.913363169653
 31
0.0
  0
LINE
  5
16E6F
330
747D
100
AcDbEntity
  8
細線
 48
50.0
100
AcDbLine
 10
5034.244402057344
 20
4089.913363169653
 30
0.0
 11
5034.244402057344
 21
1999.913363169653
 31
0.0
  0
LINE
  5
16E70
330
747D
100
AcDbEntity
  8
細線
 48
50.0
100
AcDbLine
 10
5049.244402057343
 20
4089.913363169653
 30
0.0
 11
5049.244402057343
 21
1999.913363169653
 31
0.0
  0
LINE
  5
16E71
330
747D
100
AcDbEntity
  8
部品1
100
AcDbLine
 10
4496.744402057344
 20
1949.913363169653
 30
0.0
 11
4504.244402057345
 21
1949.913363169653
 31
0.0
  0
DIMENSION
  5
16E72
330
747D
100
AcDbEntity
  8
寸法
 48
50.0
100
AcDbDimension
  2
*D10
 10
4436.744402057343
 20
4943.781503480575
 30
0.0
 11
5840.10332694472
 21
4943.781503480575
 31
0.0
 70
   160
 71
     5
 42
2770.0
  3
INABA_S40G
100
AcDbAlignedDimension
 13
7206.744402057345
 23
4269.913363169655
 33
0.0
 14
4436.744402057343
 24
4324.913363169658
 34
0.0
100
AcDbRotatedDimension
1001
ACAD
1000
DSTYLE
1002
{
1070
   174
1070
     0
1070
   272
1070
     1
1070
   288
1070
     0
1070
   341
1005
0
1002
}
  0
DIMENSION
  5
16E73
330
747D
100
AcDbEntity
  8
寸法
 48
50.0
100
AcDbDimension
  2
*D11
 10
4436.744402057343
 20
4723.570816748957
 30
0.0
 11
4127.106606781754
 21
4723.570816748957
 31
0.0
 70
   160
 71
     5
 42
60.0
  3
INABA_S40G
100
AcDbAlignedDimension
 13
4496.744402057344
 23
4320.91498129263
 33
0.0
 14
4436.744402057343
 24
4324.913363169658
 34
0.0
100
AcDbRotatedDimension
1001
ACAD
1000
DSTYLE
1002
{
1070
   174
1070
     0
1070
   272
1070
     1
1070
   288
1070
     0
1070
   341
1005
0
1002
}
  0
DIMENSION
  5
16E74
330
747D
100
AcDbEntity
  8
寸法
 48
50.0
100
AcDbDimension
  2
*D12
 10
4496.744402057344
 20
4723.570816748958
 30
0.0
 11
5851.514593086538
 21
4723.570816748958
 31
0.0
 70
   160
  1
柱外寸法<>
 71
     5
 42
2630.0
  3
INABA_S40G
100
AcDbAlignedDimension
 13
7126.744402057344
 23
4271.724042781307
 33
0.0
 14
4496.744402057344
 24
4320.91498129263
 34
0.0
100
AcDbRotatedDimension
1001
ACAD
1000
DSTYLE
1002
{
1070
   174
1070
     0
1070
   272
1070
     1
1070
   288
1070
     0
1070
   341
1005
0
1002
}
  0
DIMENSION
  5
16E75
330
747D
100
AcDbEntity
  8
寸法
100
AcDbDimension
  2
*D13
 10
7831.671560029476
 20
4269.913363169655
 30
0.0
 11
7731.659749005853
 21
3109.913363169656
 31
0.0
 70
    32
 71
     5
 42
2320.000000000001
  3
INABA_S40G
100
AcDbAlignedDimension
 13
7203.744402057347
 23
1949.913363169654
 33
0.0
 14
7206.744402057345
 24
4269.913363169655
 34
0.0
 50
90.0
100
AcDbRotatedDimension
1001
ACAD
1000
DSTYLE
1002
{
1070
   174
1070
     0
1070
   272
1070
     1
1070
   288
1070
     0
1070
   341
1005
0
1002
}
  0
LINE
  5
16E76
330
747D
100
AcDbEntity
  8
部品1
100
AcDbLine
 10
7071.744402057348
 20
4089.913363169653
 30
0.0
 11
7071.744402057348
 21
1999.913363169654
 31
0.0
  0
LINE
  5
16E77
330
747D
100
AcDbEntity
  8
部品1
100
AcDbLine
 10
7126.744402057342
 20
4144.447636557392
 30
0.0
 11
7126.744402057347
 21
1849.913363169654
 31
0.0
  0
LINE
  5
16E78
330
747D
100
AcDbEntity
  8
部品1
100
AcDbLine
 10
4971.744402057344
 20
4089.913363169653
 30
0.0
 11
4971.744402057344
 21
1999.913363169653
 31
0.0
  0
LINE
  5
16E79
330
747D
100
AcDbEntity
  8
部品1
100
AcDbLine
 10
4496.744402057344
 20
4181.771882611902
 30
0.0
 11
4496.744402057344
 21
1849.913363169653
 31
0.0
  0
LINE
  5
16E7A
330
747D
100
AcDbEntity
  8
部品1
100
AcDbLine
 10
4551.744402057344
 20
4089.913363169653
 30
0.0
 11
4551.744402057344
 21
1999.913363169653
 31
0.0
  0
LINE
  5
16E7B
330
747D
100
AcDbEntity
  8
部品1
100
AcDbLine
 10
4496.744402057344
 20
1999.913363169653
 30
0.0
 11
7126.744402057347
 21
1999.913363169654
 31
0.0
  0
LINE
  5
16E7C
330
747D
100
AcDbEntity
  8
部品1
100
AcDbLine
 10
4496.744402057344
 20
4089.913363169653
 30
0.0
 11
7126.744402057344
 21
4089.913363169653
 31
0.0
  0
LINE
  5
16E7D
330
747D
100
AcDbEntity
  8
部品1
100
AcDbLine
 10
6651.744402057343
 20
4089.913363169653
 30
0.0
 11
6651.744402057343
 21
1999.913363169654
 31
0.0
  0
LINE
  5
16E7E
330
747D
100
AcDbEntity
  8
細線
 48
50.0
100
AcDbLine
 10
6154.244402057347
 20
4089.913363169653
 30
0.0
 11
6154.244402057347
 21
1999.913363169653
 31
0.0
  0
LINE
  5
16E7F
330
747D
100
AcDbEntity
  8
細線
 48
50.0
100
AcDbLine
 10
6169.244402057348
 20
4089.913363169653
 30
0.0
 11
6169.244402057348
 21
1999.913363169653
 31
0.0
  0
LINE
  5
16E80
330
747D
100
AcDbEntity
  8
細線
 48
50.0
100
AcDbLine
 10
6029.244402057347
 20
4089.913363169653
 30
0.0
 11
6029.244402057347
 21
1999.913363169653
 31
0.0
  0
LINE
  5
16E81
330
747D
100
AcDbEntity
  8
細線
 48
50.0
100
AcDbLine
 10
6014.244402057348
 20
4089.913363169653
 30
0.0
 11
6014.244402057348
 21
1999.913363169653
 31
0.0
  0
LINE
  5
16E82
330
747D
100
AcDbEntity
  8
細線
 48
50.0
100
AcDbLine
 10
5874.244402057348
 20
4089.913363169653
 30
0.0
 11
5874.244402057348
 21
1999.913363169653
 31
0.0
  0
LINE
  5
16E83
330
747D
100
AcDbEntity
  8
細線
 48
50.0
100
AcDbLine
 10
5889.244402057348
 20
4089.913363169653
 30
0.0
 11
5889.244402057348
 21
1999.913363169653
 31
0.0
  0
TEXT
  5
16E84
330
747D
100
AcDbEntity
  8
部品1
 48
50.0
100
AcDbText
 10
6163.325404018438
 20
4347.182456107959
 30
0.0
 40
120.0
  1
37
 50
90.0
  7
STYLE1
100
AcDbText
  0
TEXT
  5
16E85
330
747D
100
AcDbEntity
  8
部品1
 48
50.0
100
AcDbText
 10
5685.692381353348
 20
4484.683714326242
 30
0.0
 40
120.0
  1
1000
  7
STYLE1
100
AcDbText
  0
LINE
  5
16E86
330
747D
100
AcDbEntity
  8
部品1
 48
50.0
100
AcDbLine
 10
5997.424546129622
 20
4448.799692173809
 30
0.0
 11
5997.424546129622
 21
4432.599692173812
 31
0.0
  0
LINE
  5
16E87
330
747D
100
AcDbEntity
  8
部品1
 48
50.0
100
AcDbLine
 10
5697.424546129621
 20
4448.799692173809
 30
0.0
 11
5997.424546129622
 21
4448.799692173809
 31
0.0
  0
LINE
  5
16E88
330
747D
100
AcDbEntity
  8
部品1
100
AcDbLine
 10
4444.289388414307
 20
4323.63109850392
 30
0.0
 11
7199.35627891881
 21
4268.554160878793
 31
0.0
  0
LINE
  5
16E89
330
747D
100
AcDbEntity
  8
部品1
100
AcDbLine
 10
4452.086966659297
 20
4182.69438823862
 30
0.0
 11
7181.408102597194
 21
4143.665963004416
 31
0.0
  0
LINE
  5
16E8A
330
747D
100
AcDbEntity
  8
細線
 48
50.0
100
AcDbLine
 10
4469.744402057344
 20
4322.313039545057
 30
0.0
 11
4464.455300501837
 21
4182.227406917704
 31
0.0
  0
LINE
  5
16E8B
330
747D
100
AcDbEntity
  8
細線
 48
50.0
100
AcDbLine
 10
7173.713685251034
 20
4269.066785649124
 30
0.0
 11
7168.996719169348
 21
4144.134569714206
 31
0.0
  0
LINE
  5
16E8C
330
747D
100
AcDbEntity
  8
部品1
 48
50.0
100
AcDbLine
 10
4436.92868797045
 20
4316.506909334345
 30
0.0
 11
4437.308947748262
 21
4296.579944887933
 31
0.0
  0
LINE
  5
16E8D
330
747D
100
AcDbEntity
  8
部品1
 48
50.0
100
AcDbLine
 10
4440.377719854509
 20
4293.004663394461
 30
0.0
 11
4442.081621345873
 21
4203.714166687816
 31
0.0
  0
LINE
  5
16E8E
330
747D
100
AcDbEntity
  8
細線
 48
50.0
100
AcDbLine
 10
4437.783825158158
 20
4295.930445011014
 30
0.0
 11
7203.419809903332
 21
4240.306240370188
 31
0.0
  0
LINE
  5
16E8F
330
747D
100
AcDbEntity
  8
細線
 48
50.0
100
AcDbLine
 10
4442.544300395444
 20
4203.068933313153
 30
0.0
 11
7192.547964826085
 21
4163.259614338659
 31
0.0
  0
LINE
  5
16E90
330
747D
100
AcDbEntity
  8
部品1
 48
50.0
100
AcDbLine
 10
4445.150393452115
 20
4200.138885194343
 30
0.0
 11
4445.352346072546
 21
4189.555849801251
 31
0.0
  0
ARC
  5
16E91
330
747D
100
AcDbEntity
  8
部品1
 48
50.0
100
AcDbCircle
 10
4443.927413798791
 20
4316.640463741772
 30
0.0
 40
7.0
100
AcDbArc
 50
87.03587545303909
 51
181.0932240293156
  0
ARC
  5
16E92
330
747D
100
AcDbEntity
  8
部品1
 48
50.0
100
AcDbCircle
 10
4452.351071900886
 20
4189.689404208678
 30
0.0
 40
7.0
100
AcDbArc
 50
181.0932240293156
 51
267.8377559869492
  0
ARC
  5
16E93
330
747D
100
AcDbEntity
  8
部品1
100
AcDbCircle
 10
4442.150939525685
 20
4200.08164759116
 30
0.0
 40
3.0
100
AcDbArc
 50
1.093224029315636
 51
80.18775403148891
  0
ARC
  5
16E94
330
747D
100
AcDbEntity
  8
部品1
100
AcDbCircle
 10
4437.378265928078
 20
4292.947425791278
 30
0.0
 40
3.0
100
AcDbArc
 50
1.093224029315636
 51
80.18775403148891
  0
ARC
  5
16E95
330
747D
100
AcDbEntity
  8
部品1
100
AcDbCircle
 10
4438.0088203311
 20
4296.593300328677
 30
0.0
 40
0.7
100
AcDbArc
 50
181.0932240292114
 51
260.187754031489
  0
ARC
  5
16E96
330
747D
100
AcDbEntity
  8
部品1
100
AcDbCircle
 10
4442.781493928711
 20
4203.727522128556
 30
0.0
 40
0.7
100
AcDbArc
 50
181.0932240292635
 51
260.187754031489
  0
LINE
  5
16E97
330
747D
100
AcDbEntity
  8
部品1
 48
50.0
100
AcDbLine
 10
7205.958304868049
 20
4260.854515443872
 30
0.0
 11
7203.927683677078
 21
4240.909474186093
 31
0.0
  0
LINE
  5
16E98
330
747D
100
AcDbEntity
  8
部品1
 48
50.0
100
AcDbLine
 10
7200.575117192596
 20
4237.598840113183
 30
0.0
 11
7193.068337927759
 21
4163.86621936817
 31
0.0
  0
LINE
  5
16E99
330
747D
100
AcDbEntity
  8
部品1
 48
50.0
100
AcDbLine
 10
7189.715771443274
 20
4160.55558529526
 30
0.0
 11
7188.636208403534
 21
4149.9519683017
 31
0.0
  0
ARC
  5
16E9A
330
747D
100
AcDbEntity
  8
部品1
 48
50.0
100
AcDbCircle
 10
7198.994304303292
 20
4261.563526116646
 30
0.0
 40
7.0
100
AcDbArc
 50
354.1866997665013
 51
87.03587545303909
  0
ARC
  5
16E9B
330
747D
100
AcDbEntity
  8
部品1
 48
50.0
100
AcDbCircle
 10
7181.672207838777
 20
4150.660978974474
 30
0.0
 40
7.0
100
AcDbArc
 50
267.8377559869492
 51
354.1866997665013
  0
ARC
  5
16E9C
330
747D
100
AcDbEntity
  8
部品1
100
AcDbCircle
 10
7192.700343113881
 20
4160.251723578356
 30
0.0
 40
3.0
100
AcDbArc
 50
95.0921697642102
 51
174.1866997665013
  0
ARC
  5
16E9D
330
747D
100
AcDbEntity
  8
部品1
100
AcDbCircle
 10
7203.559688863208
 20
4237.294978396279
 30
0.0
 40
3.0
100
AcDbArc
 50
95.09216976441781
 51
174.1866997665013
  0
ARC
  5
16E9E
330
747D
100
AcDbEntity
  8
部品1
100
AcDbCircle
 10
7203.231283620606
 20
4240.98037525337
 30
0.0
 40
0.7
100
AcDbArc
 50
275.0921697642102
 51
354.1866997665013
  0
ARC
  5
16E9F
330
747D
100
AcDbEntity
  8
部品1
100
AcDbCircle
 10
7192.371937871287
 20
4163.937120435447
 30
0.0
 40
0.7
100
AcDbArc
 50
275.0921697642102
 51
354.1866997666569
  0
LINE
  5
16EA0
330
747D
100
AcDbEntity
  8
部品1
100
AcDbLine
 10
5671.969532486585
 20
4450.117751132672
 30
0.0
 11
5997.424546129622
 21
4432.599692173812
 31
0.0
  0
LINE
  5
16EA1
330
747D
100
AcDbEntity
  8
部品1
100
AcDbLine
 10
6231.744402057341
 20
4089.913363169655
 30
0.0
 11
6231.744402057341
 21
1999.913363169655
 31
0.0
  0
LINE
  5
16EA2
330
747D
100
AcDbEntity
  8
細線
 48
50.0
100
AcDbLine
 10
6309.244402057347
 20
4089.913363169655
 30
0.0
 11
6309.244402057347
 21
1999.913363169655
 31
0.0
  0
LINE
  5
16EA3
330
747D
100
AcDbEntity
  8
細線
 48
50.0
100
AcDbLine
 10
6294.244402057348
 20
4089.913363169655
 30
0.0
 11
6294.244402057348
 21
1999.913363169655
 31
0.0
  0
LINE
  5
16EA4
330
747D
100
AcDbEntity
  8
細線
 48
50.0
100
AcDbLine
 10
6434.244402057348
 20
4089.913363169655
 30
0.0
 11
6434.244402057348
 21
1999.913363169655
 31
0.0
  0
LINE
  5
16EA5
330
747D
100
AcDbEntity
  8
細線
 48
50.0
100
AcDbLine
 10
6449.244402057347
 20
4089.913363169655
 30
0.0
 11
6449.244402057347
 21
1999.913363169655
 31
0.0
  0
LINE
  5
16EA6
330
747D
100
AcDbEntity
  8
細線
 48
50.0
100
AcDbLine
 10
6589.244402057348
 20
4089.913363169655
 30
0.0
 11
6589.244402057348
 21
1999.913363169655
 31
0.0
  0
LINE
  5
16EA7
330
747D
100
AcDbEntity
  8
細線
 48
50.0
100
AcDbLine
 10
6574.244402057347
 20
4089.913363169655
 30
0.0
 11
6574.244402057347
 21
1999.913363169655
 31
0.0
  0
LINE
  5
16EA8
330
747D
100
AcDbEntity
  8
部品1
100
AcDbLine
 10
7119.244402057344
 20
1949.913363169653
 30
0.0
 11
7126.744402057347
 21
1949.913363169653
 31
0.0
  0
LINE
  5
16EA9
330
747D
100
AcDbEntity
  8
部品1
100
AcDbLine
 10
4544.244402057346
 20
1949.913363169653
 30
0.0
 11
7079.244402057344
 21
1949.913363169653
 31
0.0
  0
LINE
  5
16EAA
330
747D
100
AcDbEntity
  8
部品1
 48
50.0
100
AcDbLine
 10
6326.744402057346
 20
1949.913363169653
 30
0.0
 11
6326.744402057346
 21
1849.913363169653
 31
0.0
  0
LINE
  5
16EAB
330
747D
100
AcDbEntity
  8
部品1
 48
50.0
100
AcDbLine
 10
6126.744402057346
 20
1949.913363169653
 30
0.0
 11
6126.744402057346
 21
1849.913363169653
 31
0.0
  0
LINE
  5
16EAC
330
747D
100
AcDbEntity
  8
部品1
 48
50.0
100
AcDbLine
 10
5496.744402057346
 20
1949.913363169653
 30
0.0
 11
5496.744402057346
 21
1849.913363169653
 31
0.0
  0
LINE
  5
16EAD
330
747D
100
AcDbEntity
  8
部品1
 48
50.0
100
AcDbLine
 10
5296.744402057345
 20
1949.913363169653
 30
0.0
 11
5296.744402057345
 21
1849.913363169653
 31
0.0
  0
TEXT
  5
16F03
330
747D
100
AcDbEntity
  8
文字
 62
     7
 48
50.0
100
AcDbText
 10
13209.4053442172
 20
228.543524256902
 30
0.0
 40
100.0
  1
○有効開口寸法 ： 950×2025(mm)
  7
STYLE2
100
AcDbText
  0
LINE
  5
16F04
330
747D
100
AcDbEntity
  8
Ｇ．Ｌ
100
AcDbLine
 10
2544.263244514067
 20
1849.913363169653
 30
0.0
 11
11642.86300516334
 21
1849.913363169653
 31
0.0
  0
LINE
  5
16F05
330
747D
100
AcDbEntity
  8
部品1
100
AcDbLine
 10
9218.841431394592
 20
1949.913363169653
 30
0.0
 11
11008.84143139459
 21
1949.913363169653
 31
0.0
  0
LINE
  5
16F06
330
747D
100
AcDbEntity
  8
部品1
100
AcDbLine
 10
9218.841431394592
 20
4089.913363169653
 30
0.0
 11
11008.84143139459
 21
4089.913363169653
 31
0.0
  0
LINE
  5
16F07
330
747D
100
AcDbEntity
  8
部品1
100
AcDbLine
 10
9218.841431394592
 20
4143.413363169653
 30
0.0
 11
9218.841431394592
 21
1849.913363169653
 31
0.0
  0
LINE
  5
16F08
330
747D
100
AcDbEntity
  8
部品1
100
AcDbLine
 10
11008.84143139459
 20
4143.413363169653
 30
0.0
 11
11008.84143139459
 21
1849.913363169653
 31
0.0
  0
LINE
  5
16F09
330
747D
100
AcDbEntity
  8
部品1
100
AcDbLine
 10
10608.84143139459
 20
1949.913363169653
 30
0.0
 11
10608.84143139459
 21
1849.913363169653
 31
0.0
  0
LINE
  5
16F0A
330
747D
100
AcDbEntity
  8
部品1
100
AcDbLine
 10
9618.841431394592
 20
1949.913363169653
 30
0.0
 11
9618.841431394592
 21
1849.913363169653
 31
0.0
  0
LINE
  5
16F0B
330
747D
100
AcDbEntity
  8
部品1
 48
50.0
100
AcDbLine
 10
10013.84143139459
 20
1949.913363169653
 30
0.0
 11
10013.84143139459
 21
1849.913363169653
 31
0.0
  0
LINE
  5
16F0C
330
747D
100
AcDbEntity
  8
部品1
 48
50.0
100
AcDbLine
 10
10213.84143139459
 20
1949.913363169653
 30
0.0
 11
10213.84143139459
 21
1849.913363169653
 31
0.0
  0
LINE
  5
16F0D
330
747D
100
AcDbEntity
  8
部品1
100
AcDbLine
 10
11013.84143139459
 20
1994.913363169653
 30
0.0
 11
11013.84143139459
 21
1849.913363169653
 31
0.0
  0
LINE
  5
16F0E
330
747D
100
AcDbEntity
  8
破線
 48
5.0
100
AcDbLine
 10
11108.84143139459
 20
1649.913363169653
 30
0.0
 11
10908.84143139459
 21
1649.913363169653
 31
0.0
  0
LINE
  5
16F0F
330
747D
100
AcDbEntity
  8
破線
 48
5.0
100
AcDbLine
 10
10908.84143139459
 20
1849.913363169653
 30
0.0
 11
10908.84143139459
 21
1649.913363169653
 31
0.0
  0
LINE
  5
16F10
330
747D
100
AcDbEntity
  8
破線
 48
5.0
100
AcDbLine
 10
11108.84143139459
 20
1849.913363169653
 30
0.0
 11
11108.84143139459
 21
1649.913363169653
 31
0.0
  0
LINE
  5
16F11
330
747D
100
AcDbEntity
  8
破線
 48
5.0
100
AcDbLine
 10
11033.84143139459
 20
1694.913363169653
 30
0.0
 11
11013.84143139459
 21
1694.913363169653
 31
0.0
  0
LINE
  5
16F12
330
747D
100
AcDbEntity
  8
部品1
100
AcDbLine
 10
9213.841431394589
 20
1994.913363169655
 30
0.0
 11
9213.841431394589
 21
1849.913363169653
 31
0.0
  0
LINE
  5
16F13
330
747D
100
AcDbEntity
  8
破線
 48
5.0
100
AcDbLine
 10
9118.84143139459
 20
1649.913363169653
 30
0.0
 11
9318.841431394593
 21
1649.913363169653
 31
0.0
  0
LINE
  5
16F14
330
747D
100
AcDbEntity
  8
破線
 48
5.0
100
AcDbLine
 10
9118.84143139459
 20
1849.913363169653
 30
0.0
 11
9118.84143139459
 21
1649.913363169653
 31
0.0
  0
LINE
  5
16F15
330
747D
100
AcDbEntity
  8
破線
 48
5.0
100
AcDbLine
 10
9193.841431394591
 20
1694.913363169653
 30
0.0
 11
9213.841431394593
 21
1694.913363169653
 31
0.0
  0
LINE
  5
16F16
330
747D
100
AcDbEntity
  8
破線
 48
5.0
100
AcDbLine
 10
9318.841431394591
 20
1849.913363169653
 30
0.0
 11
9318.841431394591
 21
1649.913363169653
 31
0.0
  0
LINE
  5
16F17
330
747D
100
AcDbEntity
  8
破線
 48
5.0
100
AcDbLine
 10
11013.84143139459
 20
1849.913363169653
 30
0.0
 11
11013.84143139459
 21
1694.913363169653
 31
0.0
  0
LINE
  5
16F18
330
747D
100
AcDbEntity
  8
破線
 48
5.0
100
AcDbLine
 10
9213.841431394589
 20
1849.913363169653
 30
0.0
 11
9213.841431394589
 21
1694.913363169653
 31
0.0
  0
DIMENSION
  5
16F19
330
747D
100
AcDbEntity
  8
寸法
 48
50.0
100
AcDbDimension
  2
*D14
 10
9118.84143139459
 20
1363.866033869275
 30
0.0
 11
9218.841431394592
 21
1363.866033869275
 31
0.0
 70
   160
 71
     5
 42
200.0000000000018
  3
INABA_S40G
100
AcDbAlignedDimension
 13
9318.841431394593
 23
1649.913363169652
 33
0.0
 14
9118.84143139459
 24
1649.913363169652
 34
0.0
100
AcDbRotatedDimension
  0
TEXT
  5
16F1A
330
747D
100
AcDbEntity
  8
部品1
100
AcDbText
 10
9822.631502018325
 20
777.7042909761712
 30
0.0
 40
135.0
  1
正面図
  7
STYLE2
100
AcDbText
  0
LINE
  5
16F1B
330
747D
100
AcDbEntity
  8
部品1
100
AcDbLine
 10
9218.841431394592
 20
1999.913363169657
 30
0.0
 11
9246.841431394591
 21
1999.913363169657
 31
0.0
  0
LINE
  5
16F1C
330
747D
100
AcDbEntity
  8
部品1
100
AcDbLine
 10
10953.84143139459
 20
4089.913363169653
 30
0.0
 11
10953.84143139459
 21
4084.913363169653
 31
0.0
  0
LINE
  5
16F1D
330
747D
100
AcDbEntity
  8
部品1
100
AcDbLine
 10
9273.841431394588
 20
4089.913363169649
 30
0.0
 11
9273.841431394588
 21
4084.913363169653
 31
0.0
  0
LINE
  5
16F1E
330
747D
100
AcDbEntity
  8
部品1
 48
50.0
100
AcDbLine
 10
9246.841431394591
 20
1949.913363169653
 30
0.0
 11
10980.84143139459
 21
1949.913363169653
 31
0.0
  0
LINE
  5
16F1F
330
747D
100
AcDbEntity
  8
部品1
100
AcDbLine
 10
10980.84143139459
 20
1999.913363169673
 30
0.0
 11
11008.84143139459
 21
1999.913363169673
 31
0.0
  0
LINE
  5
16F20
330
747D
100
AcDbEntity
  8
部品1
100
AcDbLine
 10
9732.10609828037
 20
970.5978201946946
 30
0.0
 11
9732.10609828037
 21
730.7054986491621
 31
0.0
  0
LINE
  5
16F21
330
747D
100
AcDbEntity
  8
部品1
100
AcDbLine
 10
9732.10609828037
 20
730.7054986491621
 30
0.0
 11
10495.57676450881
 21
730.7054986491621
 31
0.0
  0
LINE
  5
16F22
330
747D
100
AcDbEntity
  8
部品1
100
AcDbLine
 10
10495.57676450881
 20
730.7054986491621
 30
0.0
 11
10495.57676450881
 21
970.5978201946946
 31
0.0
  0
LINE
  5
16F23
330
747D
100
AcDbEntity
  8
部品1
100
AcDbLine
 10
10495.57676450881
 20
970.5978201946946
 30
0.0
 11
9732.10609828037
 21
970.5978201946946
 31
0.0
  0
TEXT
  5
16F75
330
747D
100
AcDbEntity
  8
文字
 62
     7
 48
50.0
100
AcDbText
 10
14491.96323844892
 20
483.8967129911416
 30
0.0
 40
160.0
  1
ＮＸＮ－５０ＣＨＡ
  7
STYLE2
100
AcDbText
  0
DIMENSION
  5
16F76
330
747D
100
AcDbEntity
  8
寸法
 48
50.0
100
AcDbDimension
  2
*D15
 10
9218.841431394592
 20
4724.006532509126
 30
0.0
 11
10113.84143139459
 21
4724.006532509126
 31
0.0
 70
   160
  1
柱外寸法<>
 71
     5
 42
1790.0
  3
INABA_S40G
100
AcDbAlignedDimension
 13
11008.84143139459
 23
4324.913363169659
 33
0.0
 14
9218.841431394592
 24
4324.913363169659
 34
0.0
100
AcDbRotatedDimension
  0
DIMENSION
  5
16F77
330
747D
100
AcDbEntity
  8
寸法
 48
50.0
100
AcDbDimension
  2
*D16
 10
9168.841431394591
 20
4724.006532509126
 30
0.0
 11
8855.356150020343
 21
4724.006532509126
 31
0.0
 70
   160
 71
     5
 42
50.0
  3
INABA_S40G
100
AcDbAlignedDimension
 13
9218.841431394592
 23
4324.913363169659
 33
0.0
 14
9168.841431394591
 24
4324.913363169659
 34
0.0
100
AcDbRotatedDimension
1001
ACAD
1000
DSTYLE
1002
{
1002
}
  0
DIMENSION
  5
16F78
330
747D
100
AcDbEntity
  8
寸法
 48
50.0
100
AcDbDimension
  2
*D17
 10
11058.84143139459
 20
4940.532632127571
 30
0.0
 11
10113.84143139459
 21
4940.532632127571
 31
0.0
 70
   160
 71
     5
 42
1890.0
  3
INABA_S40G
100
AcDbAlignedDimension
 13
9168.841431394591
 23
4324.913363169659
 33
0.0
 14
11058.84143139459
 24
4324.913363169655
 34
0.0
100
AcDbRotatedDimension
  0
LINE
  5
16F79
330
747D
100
AcDbEntity
  8
部品1
100
AcDbLine
 10
10381.8414313946
 20
4319.913363178122
 30
0.0
 11
10381.8414313946
 21
4222.50229566955
 31
0.0
  0
LINE
  5
16F7A
330
747D
100
AcDbEntity
  8
部品1
100
AcDbLine
 10
10356.8414313946
 20
4319.913363178122
 30
0.0
 11
10356.8414313946
 21
4222.50229566955
 31
0.0
  0
LINE
  5
16F7B
330
747D
100
AcDbEntity
  8
部品1
 48
50.0
100
AcDbLine
 10
10355.3414313946
 20
4319.913363178126
 30
0.0
 11
10383.34143139459
 21
4319.913363178126
 31
0.0
  0
LINE
  5
16F7C
330
747D
100
AcDbEntity
  8
部品1
 48
50.0
100
AcDbLine
 10
10383.3414313946
 20
4319.913363178126
 30
0.0
 11
10393.8414313946
 21
4300.513363178125
 31
0.0
  0
LINE
  5
16F7D
330
747D
100
AcDbEntity
  8
部品1
 48
50.0
100
AcDbLine
 10
10355.3414313946
 20
4319.913363178126
 30
0.0
 11
10344.8414313946
 21
4300.513363178125
 31
0.0
  0
LINE
  5
16F7E
330
747D
100
AcDbEntity
  8
部品1
 48
50.0
100
AcDbLine
 10
10282.3414313946
 20
4319.913363178126
 30
0.0
 11
10310.34143139459
 21
4319.913363178126
 31
0.0
  0
LINE
  5
16F7F
330
747D
100
AcDbEntity
  8
部品1
100
AcDbLine
 10
10283.8414313946
 20
4319.913363178122
 30
0.0
 11
10283.8414313946
 21
4222.50229566955
 31
0.0
  0
LINE
  5
16F80
330
747D
100
AcDbEntity
  8
部品1
 48
50.0
100
AcDbLine
 10
10282.3414313946
 20
4319.913363178126
 30
0.0
 11
10271.84143139459
 21
4300.513363178125
 31
0.0
  0
LINE
  5
16F81
330
747D
100
AcDbEntity
  8
部品1
100
AcDbLine
 10
10308.8414313946
 20
4319.913363178122
 30
0.0
 11
10308.8414313946
 21
4222.50229566955
 31
0.0
  0
LINE
  5
16F82
330
747D
100
AcDbEntity
  8
部品1
 48
50.0
100
AcDbLine
 10
10310.3414313946
 20
4319.913363178126
 30
0.0
 11
10320.8414313946
 21
4300.513363178125
 31
0.0
  0
LINE
  5
16F83
330
747D
100
AcDbEntity
  8
部品1
100
AcDbLine
 10
10122.8414313946
 20
4319.913363178115
 30
0.0
 11
10122.8414313946
 21
4222.50229566955
 31
0.0
  0
LINE
  5
16F84
330
747D
100
AcDbEntity
  8
部品1
 48
50.0
100
AcDbLine
 10
10125.84143139459
 20
4319.913363178126
 30
0.0
 11
10128.3414313946
 21
4300.513363178125
 31
0.0
  0
LINE
  5
16F85
330
747D
100
AcDbEntity
  8
部品1
100
AcDbLine
 10
10104.8414313946
 20
4319.913363178115
 30
0.0
 11
10104.8414313946
 21
4222.50229566955
 31
0.0
  0
LINE
  5
16F86
330
747D
100
AcDbEntity
  8
部品1
 48
50.0
100
AcDbLine
 10
10086.63009118841
 20
4310.513363178125
 30
0.0
 11
10085.3414313946
 21
4300.513363178125
 31
0.0
  0
LINE
  5
16F87
330
747D
100
AcDbEntity
  8
部品1
 48
50.0
100
AcDbLine
 10
10086.63009118841
 20
4310.513363178125
 30
0.0
 11
10100.63009118841
 21
4310.513363178125
 31
0.0
  0
LINE
  5
16F88
330
747D
100
AcDbEntity
  8
部品1
 48
50.0
100
AcDbLine
 10
10101.8414313946
 20
4319.913363178126
 30
0.0
 11
10100.63009118841
 21
4310.513363178125
 31
0.0
  0
LINE
  5
16F89
330
747D
100
AcDbEntity
  8
部品1
 48
50.0
100
AcDbLine
 10
10125.84143139459
 20
4319.913363178126
 30
0.0
 11
10101.8414313946
 21
4319.913363178126
 31
0.0
  0
LINE
  5
16F8A
330
747D
100
AcDbEntity
  8
部品1
100
AcDbLine
 10
10271.84143139459
 20
4300.513363178121
 30
0.0
 11
10128.34143139459
 21
4300.513363178121
 31
0.0
  0
LINE
  5
16F8B
330
747D
100
AcDbEntity
  8
部品1
100
AcDbLine
 10
9961.841431394605
 20
4319.913363178122
 30
0.0
 11
9961.841431394608
 21
4222.50229566955
 31
0.0
  0
LINE
  5
16F8C
330
747D
100
AcDbEntity
  8
部品1
 48
50.0
100
AcDbLine
 10
9963.341431394598
 20
4319.913363178126
 30
0.0
 11
9973.841431394598
 21
4300.513363178125
 31
0.0
  0
LINE
  5
16F8D
330
747D
100
AcDbEntity
  8
部品1
100
AcDbLine
 10
9863.841431394606
 20
4319.913363178122
 30
0.0
 11
9863.841431394606
 21
4222.50229566955
 31
0.0
  0
LINE
  5
16F8E
330
747D
100
AcDbEntity
  8
部品1
100
AcDbLine
 10
9888.841431394606
 20
4319.913363178122
 30
0.0
 11
9888.841431394606
 21
4222.50229566955
 31
0.0
  0
LINE
  5
16F8F
330
747D
100
AcDbEntity
  8
部品1
100
AcDbLine
 10
9936.841431394604
 20
4319.913363178122
 30
0.0
 11
9936.841431394604
 21
4222.50229566955
 31
0.0
  0
LINE
  5
16F90
330
747D
100
AcDbEntity
  8
部品1
 48
50.0
100
AcDbLine
 10
9862.341431394598
 20
4319.913363178126
 30
0.0
 11
9851.841431394598
 21
4300.513363178125
 31
0.0
  0
LINE
  5
16F91
330
747D
100
AcDbEntity
  8
部品1
100
AcDbLine
 10
9924.841431394595
 20
4300.513363178121
 30
0.0
 11
9900.841431394598
 21
4300.513363178121
 31
0.0
  0
LINE
  5
16F92
330
747D
100
AcDbEntity
  8
部品1
 48
50.0
100
AcDbLine
 10
9890.341431394597
 20
4319.913363178126
 30
0.0
 11
9900.841431394598
 21
4300.513363178125
 31
0.0
  0
LINE
  5
16F93
330
747D
100
AcDbEntity
  8
部品1
 48
50.0
100
AcDbLine
 10
9935.341431394597
 20
4319.913363178126
 30
0.0
 11
9924.841431394598
 21
4300.513363178125
 31
0.0
  0
LINE
  5
16F94
330
747D
100
AcDbEntity
  8
部品1
 48
50.0
100
AcDbLine
 10
9862.341431394598
 20
4319.913363178126
 30
0.0
 11
9890.341431394595
 21
4319.913363178126
 31
0.0
  0
LINE
  5
16F95
330
747D
100
AcDbEntity
  8
部品1
 48
50.0
100
AcDbLine
 10
9935.341431394597
 20
4319.913363178126
 30
0.0
 11
9963.341431394596
 21
4319.913363178126
 31
0.0
  0
LINE
  5
16F96
330
747D
100
AcDbEntity
  8
部品1
100
AcDbLine
 10
9702.841431394606
 20
4319.913363178115
 30
0.0
 11
9702.841431394608
 21
4222.50229566955
 31
0.0
  0
LINE
  5
16F97
330
747D
100
AcDbEntity
  8
部品1
100
AcDbLine
 10
9684.841431394605
 20
4319.913363178115
 30
0.0
 11
9684.841431394607
 21
4222.50229566955
 31
0.0
  0
LINE
  5
16F98
330
747D
100
AcDbEntity
  8
部品1
 48
50.0
100
AcDbLine
 10
9705.841431394597
 20
4319.913363178126
 30
0.0
 11
9681.841431394598
 21
4319.913363178126
 31
0.0
  0
LINE
  5
16F99
330
747D
100
AcDbEntity
  8
部品1
 48
50.0
100
AcDbLine
 10
9681.841431394598
 20
4319.913363178126
 30
0.0
 11
9680.630091188412
 21
4310.513363178125
 31
0.0
  0
LINE
  5
16F9A
330
747D
100
AcDbEntity
  8
部品1
 48
50.0
100
AcDbLine
 10
9705.841431394597
 20
4319.913363178126
 30
0.0
 11
9708.341431394599
 21
4300.513363178125
 31
0.0
  0
LINE
  5
16F9B
330
747D
100
AcDbEntity
  8
部品1
100
AcDbLine
 10
9851.841431394595
 20
4300.513363178121
 30
0.0
 11
9708.341431394593
 21
4300.513363178121
 31
0.0
  0
LINE
  5
16F9C
330
747D
100
AcDbEntity
  8
部品1
100
AcDbLine
 10
10085.3414313946
 20
4300.513363178121
 30
0.0
 11
9973.841431394598
 21
4300.513363178121
 31
0.0
  0
LINE
  5
16F9D
330
747D
100
AcDbEntity
  8
部品1
100
AcDbLine
 10
10344.84143139459
 20
4300.513363178121
 30
0.0
 11
10320.8414313946
 21
4300.513363178121
 31
0.0
  0
LINE
  5
16F9E
330
747D
100
AcDbEntity
  8
部品1
100
AcDbLine
 10
9665.341431394598
 20
4300.513363178121
 30
0.0
 11
9553.841431394598
 21
4300.513363178121
 31
0.0
  0
LINE
  5
16F9F
330
747D
100
AcDbEntity
  8
部品1
100
AcDbLine
 10
9516.841431394606
 20
4319.913363178122
 30
0.0
 11
9516.841431394606
 21
4222.50229566955
 31
0.0
  0
LINE
  5
16FA0
330
747D
100
AcDbEntity
  8
部品1
100
AcDbLine
 10
9541.841431394606
 20
4319.913363178122
 30
0.0
 11
9541.841431394606
 21
4222.50229566955
 31
0.0
  0
LINE
  5
16FA1
330
747D
100
AcDbEntity
  8
部品1
 48
50.0
100
AcDbLine
 10
9543.341431394598
 20
4319.913363178126
 30
0.0
 11
9553.841431394598
 21
4300.513363178125
 31
0.0
  0
LINE
  5
16FA2
330
747D
100
AcDbEntity
  8
部品1
 48
50.0
100
AcDbLine
 10
9515.341431394597
 20
4319.913363178126
 30
0.0
 11
9543.341431394594
 21
4319.913363178126
 31
0.0
  0
LINE
  5
16FA3
330
747D
100
AcDbEntity
  8
部品1
 48
50.0
100
AcDbLine
 10
9666.630091188411
 20
4310.513363178125
 30
0.0
 11
9665.341431394598
 21
4300.513363178125
 31
0.0
  0
LINE
  5
16FA4
330
747D
100
AcDbEntity
  8
部品1
100
AcDbLine
 10
9504.841431394593
 20
4300.513363178121
 30
0.0
 11
9480.841431394598
 21
4300.513363178125
 31
0.0
  0
LINE
  5
16FA5
330
747D
100
AcDbEntity
  8
部品1
100
AcDbLine
 10
9468.841431394606
 20
4319.913363178122
 30
0.0
 11
9468.841431394606
 21
4222.50229566955
 31
0.0
  0
LINE
  5
16FA6
330
747D
100
AcDbEntity
  8
部品1
 48
50.0
100
AcDbLine
 10
9470.341431394599
 20
4319.913363178126
 30
0.0
 11
9480.841431394598
 21
4300.513363178125
 31
0.0
  0
LINE
  5
16FA7
330
747D
100
AcDbEntity
  8
部品1
100
AcDbLine
 10
9443.841431394606
 20
4319.913363178122
 30
0.0
 11
9443.841431394604
 21
4222.50229566955
 31
0.0
  0
LINE
  5
16FA8
330
747D
100
AcDbEntity
  8
部品1
 48
50.0
100
AcDbLine
 10
9442.341431394599
 20
4319.913363178126
 30
0.0
 11
9431.841431394598
 21
4300.513363178125
 31
0.0
  0
LINE
  5
16FA9
330
747D
100
AcDbEntity
  8
部品1
 48
50.0
100
AcDbLine
 10
9442.341431394599
 20
4319.913363178126
 30
0.0
 11
9470.341431394594
 21
4319.913363178126
 31
0.0
  0
LINE
  5
16FAA
330
747D
100
AcDbEntity
  8
部品1
 48
50.0
100
AcDbLine
 10
9515.341431394597
 20
4319.913363178126
 30
0.0
 11
9504.841431394599
 21
4300.513363178125
 31
0.0
  0
LINE
  5
16FAB
330
747D
100
AcDbEntity
  8
部品1
100
AcDbLine
 10
9282.841431394606
 20
4319.913363178115
 30
0.0
 11
9282.841431394606
 21
4222.50229566955
 31
0.0
  0
LINE
  5
16FAC
330
747D
100
AcDbEntity
  8
部品1
100
AcDbLine
 10
9264.841431394605
 20
4319.913363178126
 30
0.0
 11
9264.841431394607
 21
4222.50229566955
 31
0.0
  0
LINE
  5
16FAD
330
747D
100
AcDbEntity
  8
部品1
 48
50.0
100
AcDbLine
 10
9285.841431394599
 20
4319.913363178126
 30
0.0
 11
9288.341431394597
 21
4300.513363178125
 31
0.0
  0
LINE
  5
16FAE
330
747D
100
AcDbEntity
  8
部品1
100
AcDbLine
 10
9245.341431394598
 20
4300.513363178125
 30
0.0
 11
9218.841431394599
 21
4300.513363178125
 31
0.0
  0
LINE
  5
16FAF
330
747D
100
AcDbEntity
  8
部品1
 48
50.0
100
AcDbLine
 10
9246.630091188411
 20
4310.513363178125
 30
0.0
 11
9260.63009118841
 21
4310.513363178125
 31
0.0
  0
LINE
  5
16FB0
330
747D
100
AcDbEntity
  8
部品1
 48
50.0
100
AcDbLine
 10
9246.630091188411
 20
4310.513363178125
 30
0.0
 11
9245.341431394598
 21
4300.513363178125
 31
0.0
  0
LINE
  5
16FB1
330
747D
100
AcDbEntity
  8
部品1
 48
50.0
100
AcDbLine
 10
9261.841431394598
 20
4319.913363178126
 30
0.0
 11
9260.63009118841
 21
4310.513363178125
 31
0.0
  0
LINE
  5
16FB2
330
747D
100
AcDbEntity
  8
部品1
 48
50.0
100
AcDbLine
 10
9285.841431394599
 20
4319.913363178126
 30
0.0
 11
9261.841431394598
 21
4319.913363178126
 31
0.0
  0
LINE
  5
16FB3
330
747D
100
AcDbEntity
  8
部品1
100
AcDbLine
 10
9431.841431394598
 20
4300.513363178121
 30
0.0
 11
9288.341431394597
 21
4300.513363178125
 31
0.0
  0
LINE
  5
16FB4
330
747D
100
AcDbEntity
  8
部品1
 48
50.0
100
AcDbLine
 10
9666.630091188411
 20
4310.513363178125
 30
0.0
 11
9680.630091188412
 21
4310.513363178125
 31
0.0
  0
LINE
  5
16FB5
330
747D
100
AcDbEntity
  8
部品1
100
AcDbLine
 10
11013.91176878772
 20
4324.913363178107
 30
0.0
 11
9193.273591775506
 21
4324.913363178126
 31
0.0
  0
LINE
  5
16FB6
330
747D
100
AcDbEntity
  8
部品1
100
AcDbLine
 10
10505.34143139459
 20
4300.513363178106
 30
0.0
 11
10393.8414313946
 21
4300.513363178106
 31
0.0
  0
LINE
  5
16FB7
330
747D
100
AcDbEntity
  8
部品1
 48
50.0
100
AcDbLine
 10
9213.770803401393
 20
4269.913363169653
 30
0.0
 11
9175.827475211809
 21
4269.913363169653
 31
0.0
  0
ARC
  5
16FB8
330
747D
100
AcDbEntity
  8
部品1
100
AcDbCircle
 10
9170.800573834887
 20
4242.583480490242
 30
0.0
 40
0.7
100
AcDbArc
 50
183.6186294801377
 51
262.7131594833544
  0
ARC
  5
16FB9
330
747D
100
AcDbEntity
  8
部品1
100
AcDbCircle
 10
9170.33127770969
 20
4238.913363169653
 30
0.0
 40
3.0
100
AcDbArc
 50
3.618629480137788
 51
90.0
  0
LINE
  5
16FBA
330
747D
100
AcDbEntity
  8
部品1
100
AcDbLine
 10
9173.325296488496
 20
4239.102708230764
 30
0.0
 11
9178.072389500655
 21
4164.039299975982
 31
0.0
  0
ARC
  5
16FBB
330
747D
100
AcDbEntity
  8
部品1
100
AcDbCircle
 10
9178.770993882379
 20
4164.083480490242
 30
0.0
 40
0.7
100
AcDbArc
 50
183.6186294801377
 51
262.7131594833544
  0
ARC
  5
16FBC
330
747D
100
AcDbEntity
  8
部品1
100
AcDbCircle
 10
9178.301697757182
 20
4160.413363169653
 30
0.0
 40
3.0
100
AcDbArc
 50
3.618629480137788
 51
90.0
  0
ARC
  5
16FBD
330
747D
100
AcDbEntity
  8
部品1
100
AcDbCircle
 10
9188.95408605778
 20
4150.413363169653
 30
0.0
 40
7.0
100
AcDbArc
 50
183.6186294801377
 51
270.0
  0
ARC
  5
16FBE
330
747D
100
AcDbEntity
  8
部品1
100
AcDbCircle
 10
9175.827475211809
 20
4262.913363169653
 30
0.0
 40
7.0
100
AcDbArc
 50
90.0
 51
183.6186294801377
  0
LINE
  5
16FBF
330
747D
100
AcDbEntity
  8
部品1
100
AcDbLine
 10
9181.968042240569
 20
4149.971558027064
 30
0.0
 11
9181.295716535988
 21
4160.602708230764
 31
0.0
  0
LINE
  5
16FC0
330
747D
100
AcDbEntity
  8
部品1
100
AcDbLine
 10
9170.101969453163
 20
4242.539299975982
 30
0.0
 11
9168.841431394598
 21
4262.471558027064
 31
0.0
  0
LINE
  5
16FC1
330
747D
100
AcDbEntity
  8
部品1
100
AcDbLine
 10
9213.770803401393
 20
4269.913363169653
 30
0.0
 11
9175.827475211809
 21
4269.913363169653
 31
0.0
  0
ARC
  5
16FC2
330
747D
100
AcDbEntity
  8
部品1
100
AcDbCircle
 10
9213.770803401393
 20
4264.913363169653
 30
0.0
 40
5.0
100
AcDbArc
 50
0.0
 51
90.0
  0
LINE
  5
16FC3
330
747D
100
AcDbEntity
  8
部品1
100
AcDbLine
 10
9218.770803401392
 20
4319.913363186551
 30
0.0
 11
9218.77080340139
 21
4222.509334496982
 31
0.0
  0
LINE
  5
16FC4
330
747D
100
AcDbEntity
  8
部品1
100
AcDbLine
 10
11038.7287767314
 20
4143.413363169653
 30
0.0
 11
9188.95408605778
 21
4143.413363169653
 31
0.0
  0
LINE
  5
16FC5
330
747D
100
AcDbEntity
  8
部品1
 48
50.0
100
AcDbLine
 10
9168.841431394598
 20
4262.471558027064
 30
0.0
 11
9168.841431394598
 21
4317.471558043962
 31
0.0
  0
ARC
  5
16FC6
330
747D
100
AcDbEntity
  8
部品1
100
AcDbCircle
 10
9213.770803401393
 20
4319.913363186551
 30
0.0
 40
5.0
100
AcDbArc
 50
0.0
 51
90.0
  0
LINE
  5
16FC7
330
747D
100
AcDbEntity
  8
部品1
100
AcDbLine
 10
9213.770803401393
 20
4324.913363186552
 30
0.0
 11
9175.827475211809
 21
4324.913363186552
 31
0.0
  0
ARC
  5
16FC8
330
747D
100
AcDbEntity
  8
部品1
100
AcDbCircle
 10
9175.827475211809
 20
4317.913363186551
 30
0.0
 40
7.0
100
AcDbArc
 50
90.0
 51
183.6186294801377
  0
LINE
  5
16FC9
330
747D
100
AcDbEntity
  8
細線
 48
50.0
100
AcDbLine
 10
11049.61978906765
 20
4164.186605733439
 30
0.0
 11
9178.725023027118
 21
4164.186605733439
 31
0.0
  0
LINE
  5
16FCA
330
747D
100
AcDbEntity
  8
細線
 48
50.0
100
AcDbLine
 10
9201.330341490315
 20
4269.913363169653
 30
0.0
 11
9201.330341490315
 21
4143.413363169653
 31
0.0
  0
LINE
  5
16FCB
330
747D
100
AcDbEntity
  8
細線
 48
50.0
100
AcDbLine
 10
9218.77080340139
 20
4241.885195917602
 30
0.0
 11
9170.707562117444
 21
4241.88519591761
 31
0.0
  0
LINE
  5
16FCC
330
747D
100
AcDbEntity
  8
部品1
100
AcDbLine
 10
10524.84143139459
 20
4319.913363178115
 30
0.0
 11
10524.84143139459
 21
4222.50229566955
 31
0.0
  0
LINE
  5
16FCD
330
747D
100
AcDbEntity
  8
部品1
100
AcDbLine
 10
10542.84143139459
 20
4319.913363178126
 30
0.0
 11
10542.84143139459
 21
4222.50229566955
 31
0.0
  0
LINE
  5
16FCE
330
747D
100
AcDbEntity
  8
部品1
 48
50.0
100
AcDbLine
 10
10521.8414313946
 20
4319.913363178126
 30
0.0
 11
10545.8414313946
 21
4319.913363178126
 31
0.0
  0
LINE
  5
16FCF
330
747D
100
AcDbEntity
  8
部品1
 48
50.0
100
AcDbLine
 10
10521.8414313946
 20
4319.913363178126
 30
0.0
 11
10520.63009118841
 21
4310.513363178125
 31
0.0
  0
LINE
  5
16FD0
330
747D
100
AcDbEntity
  8
部品1
 48
50.0
100
AcDbLine
 10
10506.63009118841
 20
4310.513363178125
 30
0.0
 11
10520.63009118841
 21
4310.513363178125
 31
0.0
  0
LINE
  5
16FD1
330
747D
100
AcDbEntity
  8
部品1
 48
50.0
100
AcDbLine
 10
10506.63009118841
 20
4310.513363178125
 30
0.0
 11
10505.3414313946
 21
4300.513363178125
 31
0.0
  0
LINE
  5
16FD2
330
747D
100
AcDbEntity
  8
部品1
 48
50.0
100
AcDbLine
 10
10545.8414313946
 20
4319.913363178126
 30
0.0
 11
10548.3414313946
 21
4300.513363178125
 31
0.0
  0
LINE
  5
16FD3
330
747D
100
AcDbEntity
  8
部品1
 48
50.0
100
AcDbLine
 10
9201.330341490317
 20
4222.50229566955
 30
0.0
 11
11026.35252129886
 21
4222.50229566955
 31
0.0
  0
DIMENSION
  5
16FD4
330
747D
100
AcDbEntity
  8
寸法
 48
50.0
100
AcDbDimension
  2
*D18
 10
8894.063106624097
 20
2007.913363169653
 30
0.0
 11
8894.063106624097
 21
3041.765353166586
 31
0.0
 70
   160
  1
有効開口部高サ<>
 71
     5
 42
2025.0
  3
INABA_S40G
100
AcDbAlignedDimension
 13
9246.841431394607
 23
4032.913363169654
 33
0.0
 14
9246.841431394607
 24
2007.913363169653
 34
0.0
 50
90.0
100
AcDbRotatedDimension
1001
ACAD
1000
DSTYLE
1002
{
1070
   341
1005
0
1002
}
  0
DIMENSION
  5
16FD5
330
747D
100
AcDbEntity
  8
寸法
 48
50.0
100
AcDbDimension
  2
*D19
 10
11008.84143139459
 20
4724.006532509126
 30
0.0
 11
11372.32671276882
 21
4724.006532509126
 31
0.0
 70
   160
 71
     5
 42
50.0
  3
INABA_S40G
100
AcDbAlignedDimension
 13
11058.84143139459
 23
4324.913363169655
 33
0.0
 14
11008.84143139459
 24
4324.913363169659
 34
0.0
100
AcDbRotatedDimension
  0
LINE
  5
16FD6
330
747D
100
AcDbEntity
  8
部品1
100
AcDbLine
 10
10944.84143139457
 20
4319.913363178115
 30
0.0
 11
10944.84143139457
 21
4222.50229566955
 31
0.0
  0
LINE
  5
16FD7
330
747D
100
AcDbEntity
  8
部品1
100
AcDbLine
 10
10962.84143139457
 20
4319.913363178126
 30
0.0
 11
10962.84143139457
 21
4222.50229566955
 31
0.0
  0
LINE
  5
16FD8
330
747D
100
AcDbEntity
  8
部品1
 48
50.0
100
AcDbLine
 10
10941.84143139458
 20
4319.913363178126
 30
0.0
 11
10965.84143139458
 21
4319.913363178126
 31
0.0
  0
LINE
  5
16FD9
330
747D
100
AcDbEntity
  8
部品1
 48
50.0
100
AcDbLine
 10
11013.91205938779
 20
4269.913363169653
 30
0.0
 11
11051.85538757737
 21
4269.913363169653
 31
0.0
  0
ARC
  5
16FDA
330
747D
100
AcDbEntity
  8
部品1
100
AcDbCircle
 10
11056.88228895429
 20
4242.583480490242
 30
0.0
 40
0.7
100
AcDbArc
 50
277.2868405166456
 51
356.3813705198622
  0
ARC
  5
16FDB
330
747D
100
AcDbEntity
  8
部品1
100
AcDbCircle
 10
11057.35158507949
 20
4238.913363169653
 30
0.0
 40
3.0
100
AcDbArc
 50
90.0
 51
176.3813705198622
  0
LINE
  5
16FDC
330
747D
100
AcDbEntity
  8
部品1
100
AcDbLine
 10
11054.35756630068
 20
4239.102708230764
 30
0.0
 11
11049.61047328852
 21
4164.039299975982
 31
0.0
  0
ARC
  5
16FDD
330
747D
100
AcDbEntity
  8
部品1
100
AcDbCircle
 10
11048.9118689068
 20
4164.083480490242
 30
0.0
 40
0.7
100
AcDbArc
 50
277.2868405166456
 51
356.3813705198622
  0
ARC
  5
16FDE
330
747D
100
AcDbEntity
  8
部品1
100
AcDbCircle
 10
11049.381165032
 20
4160.413363169653
 30
0.0
 40
3.0
100
AcDbArc
 50
90.0
 51
176.3813705198622
  0
ARC
  5
16FDF
330
747D
100
AcDbEntity
  8
部品1
100
AcDbCircle
 10
11038.7287767314
 20
4150.413363169653
 30
0.0
 40
7.0
100
AcDbArc
 50
270.0
 51
356.3813705198622
  0
ARC
  5
16FE0
330
747D
100
AcDbEntity
  8
部品1
100
AcDbCircle
 10
11051.85538757737
 20
4262.913363169653
 30
0.0
 40
7.0
100
AcDbArc
 50
356.3813705198622
 51
90.0
  0
LINE
  5
16FE1
330
747D
100
AcDbEntity
  8
部品1
100
AcDbLine
 10
11045.71482054861
 20
4149.971558027064
 30
0.0
 11
11046.38714625319
 21
4160.602708230764
 31
0.0
  0
LINE
  5
16FE2
330
747D
100
AcDbEntity
  8
部品1
100
AcDbLine
 10
11057.58089333601
 20
4242.539299975982
 30
0.0
 11
11058.84143139458
 21
4262.471558027064
 31
0.0
  0
LINE
  5
16FE3
330
747D
100
AcDbEntity
  8
部品1
100
AcDbLine
 10
11013.91205938779
 20
4269.913363169653
 30
0.0
 11
11051.85538757737
 21
4269.913363169653
 31
0.0
  0
ARC
  5
16FE4
330
747D
100
AcDbEntity
  8
部品1
100
AcDbCircle
 10
11013.91205938779
 20
4264.913363169653
 30
0.0
 40
5.0
100
AcDbArc
 50
90.0
 51
180.0
  0
LINE
  5
16FE5
330
747D
100
AcDbEntity
  8
部品1
100
AcDbLine
 10
11008.91205938779
 20
4319.913363186551
 30
0.0
 11
11008.91205938778
 21
4222.50229566955
 31
0.0
  0
LINE
  5
16FE6
330
747D
100
AcDbEntity
  8
部品1
 48
50.0
100
AcDbLine
 10
11058.84143139458
 20
4262.471558027064
 30
0.0
 11
11058.84143139458
 21
4317.471558043962
 31
0.0
  0
ARC
  5
16FE7
330
747D
100
AcDbEntity
  8
部品1
100
AcDbCircle
 10
11013.91205938779
 20
4319.913363186551
 30
0.0
 40
5.0
100
AcDbArc
 50
90.0
 51
180.0
  0
LINE
  5
16FE8
330
747D
100
AcDbEntity
  8
部品1
100
AcDbLine
 10
11013.91205938779
 20
4324.913363186552
 30
0.0
 11
11051.85538757737
 21
4324.913363186552
 31
0.0
  0
ARC
  5
16FE9
330
747D
100
AcDbEntity
  8
部品1
100
AcDbCircle
 10
11051.85538757737
 20
4317.913363186551
 30
0.0
 40
7.0
100
AcDbArc
 50
356.3813705198622
 51
90.0
  0
LINE
  5
16FEA
330
747D
100
AcDbEntity
  8
細線
 48
50.0
100
AcDbLine
 10
11026.35252129886
 20
4269.913363169653
 30
0.0
 11
11026.35252129886
 21
4143.413363169653
 31
0.0
  0
LINE
  5
16FEB
330
747D
100
AcDbEntity
  8
細線
 48
50.0
100
AcDbLine
 10
11008.91205938779
 20
4241.885195917602
 30
0.0
 11
11056.97530067173
 21
4241.88519591761
 31
0.0
  0
LINE
  5
16FEC
330
747D
100
AcDbEntity
  8
部品1
 48
50.0
100
AcDbLine
 10
10941.84143139458
 20
4319.913363178126
 30
0.0
 11
10940.63009118839
 21
4310.513363178125
 31
0.0
  0
LINE
  5
16FED
330
747D
100
AcDbEntity
  8
部品1
 48
50.0
100
AcDbLine
 10
10926.63009118839
 20
4310.513363178125
 30
0.0
 11
10940.63009118839
 21
4310.513363178125
 31
0.0
  0
LINE
  5
16FEE
330
747D
100
AcDbEntity
  8
部品1
 48
50.0
100
AcDbLine
 10
10926.63009118839
 20
4310.513363178125
 30
0.0
 11
10925.34143139458
 21
4300.513363178125
 31
0.0
  0
LINE
  5
16FEF
330
747D
100
AcDbEntity
  8
部品1
 48
50.0
100
AcDbLine
 10
10965.84143139458
 20
4319.913363178126
 30
0.0
 11
10968.34143139458
 21
4300.513363178125
 31
0.0
  0
LINE
  5
16FF0
330
747D
100
AcDbEntity
  8
部品1
100
AcDbLine
 10
11008.91205938779
 20
4300.513363178121
 30
0.0
 11
10968.34143139458
 21
4300.513363178121
 31
0.0
  0
LINE
  5
16FF1
330
747D
100
AcDbEntity
  8
部品1
100
AcDbLine
 10
10764.84143139459
 20
4300.513363178125
 30
0.0
 11
10740.8414313946
 21
4300.513363178125
 31
0.0
  0
LINE
  5
16FF2
330
747D
100
AcDbEntity
  8
部品1
 48
50.0
100
AcDbLine
 10
10730.3414313946
 20
4319.913363178129
 30
0.0
 11
10740.8414313946
 21
4300.513363178128
 31
0.0
  0
LINE
  5
16FF3
330
747D
100
AcDbEntity
  8
部品1
 48
50.0
100
AcDbLine
 10
10702.3414313946
 20
4319.913363178129
 30
0.0
 11
10691.8414313946
 21
4300.513363178128
 31
0.0
  0
LINE
  5
16FF4
330
747D
100
AcDbEntity
  8
部品1
 48
50.0
100
AcDbLine
 10
10702.3414313946
 20
4319.913363178129
 30
0.0
 11
10730.34143139459
 21
4319.913363178129
 31
0.0
  0
LINE
  5
16FF5
330
747D
100
AcDbEntity
  8
部品1
 48
50.0
100
AcDbLine
 10
10775.3414313946
 20
4319.913363178129
 30
0.0
 11
10764.8414313946
 21
4300.513363178128
 31
0.0
  0
LINE
  5
16FF6
330
747D
100
AcDbEntity
  8
部品1
 48
50.0
100
AcDbLine
 10
10803.3414313946
 20
4319.913363178129
 30
0.0
 11
10813.8414313946
 21
4300.513363178128
 31
0.0
  0
LINE
  5
16FF7
330
747D
100
AcDbEntity
  8
部品1
 48
50.0
100
AcDbLine
 10
10775.3414313946
 20
4319.913363178129
 30
0.0
 11
10803.34143139459
 21
4319.913363178129
 31
0.0
  0
LINE
  5
16FF8
330
747D
100
AcDbEntity
  8
部品1
100
AcDbLine
 10
10925.34143139459
 20
4300.51336317811
 30
0.0
 11
10813.8414313946
 21
4300.51336317811
 31
0.0
  0
LINE
  5
16FF9
330
747D
100
AcDbEntity
  8
部品1
100
AcDbLine
 10
10691.84143139459
 20
4300.513363178125
 30
0.0
 11
10548.34143139459
 21
4300.513363178125
 31
0.0
  0
LINE
  5
16FFA
330
747D
100
AcDbEntity
  8
部品1
100
AcDbLine
 10
10728.8414313946
 20
4319.913363178126
 30
0.0
 11
10728.8414313946
 21
4222.502295669554
 31
0.0
  0
LINE
  5
16FFB
330
747D
100
AcDbEntity
  8
部品1
100
AcDbLine
 10
10703.8414313946
 20
4319.913363178126
 30
0.0
 11
10703.8414313946
 21
4222.502295669554
 31
0.0
  0
LINE
  5
16FFC
330
747D
100
AcDbEntity
  8
部品1
100
AcDbLine
 10
10776.84143139461
 20
4319.913363178126
 30
0.0
 11
10776.84143139461
 21
4222.502295669554
 31
0.0
  0
LINE
  5
16FFD
330
747D
100
AcDbEntity
  8
部品1
100
AcDbLine
 10
10801.8414313946
 20
4319.913363178126
 30
0.0
 11
10801.84143139461
 21
4222.502295669554
 31
0.0
  0
LINE
  5
1701B
330
747D
100
AcDbEntity
  8
部品1
 48
50.0
100
AcDbLine
 10
10980.84143139459
 20
4040.913363169653
 30
0.0
 11
10950.84143139459
 21
4040.913363169653
 31
0.0
  0
LINE
  5
1701C
330
747D
100
AcDbEntity
  8
部品1
 48
50.0
100
AcDbLine
 10
9276.841431394592
 20
4040.913363169653
 30
0.0
 11
9246.841431394589
 21
4040.913363169653
 31
0.0
  0
LINE
  5
1701D
330
747D
100
AcDbEntity
  8
細線
 48
50.0
100
AcDbLine
 10
10950.84143139459
 20
4042.413363169653
 30
0.0
 11
9276.841431394592
 21
4042.413363169653
 31
0.0
  0
LINE
  5
1701E
330
747D
100
AcDbEntity
  8
細線
 48
50.0
100
AcDbLine
 10
10950.84143139459
 20
4032.913363169654
 30
0.0
 11
9276.841431394592
 21
4032.913363169654
 31
0.0
  0
LINE
  5
1701F
330
747D
100
AcDbEntity
  8
細線
 48
50.0
100
AcDbLine
 10
10980.84143139459
 20
4074.913363169653
 30
0.0
 11
9246.841431394589
 21
4074.913363169653
 31
0.0
  0
LINE
  5
17020
330
747D
100
AcDbEntity
  8
部品1
 48
50.0
100
AcDbLine
 10
10980.84143139459
 20
4084.913363169653
 30
0.0
 11
9246.841431394589
 21
4084.913363169653
 31
0.0
  0
LINE
  5
17021
330
747D
100
AcDbEntity
  8
細線
 48
50.0
100
AcDbLine
 10
10928.84143139459
 20
1996.913363169653
 30
0.0
 11
10924.84143139459
 21
2007.413363169654
 31
0.0
  0
LINE
  5
17022
330
747D
100
AcDbEntity
  8
部品1
 48
50.0
100
AcDbLine
 10
9285.84143139459
 20
1999.913363169653
 30
0.0
 11
9285.84143139459
 21
1996.913363169653
 31
0.0
  0
LINE
  5
17023
330
747D
100
AcDbEntity
  8
部品1
 48
50.0
100
AcDbLine
 10
9276.841431394592
 20
1999.913363169653
 30
0.0
 11
9915.341431394594
 21
1999.913363169653
 31
0.0
  0
LINE
  5
17024
330
747D
100
AcDbEntity
  8
部品1
 48
50.0
100
AcDbLine
 10
9246.841431394589
 20
1949.913363169653
 30
0.0
 11
10980.84143139459
 21
1949.913363169653
 31
0.0
  0
LINE
  5
17025
330
747D
100
AcDbEntity
  8
細線
 48
50.0
100
AcDbLine
 10
9276.841431394592
 20
1992.913363169653
 30
0.0
 11
10950.84143139459
 21
1992.913363169653
 31
0.0
  0
LINE
  5
17026
330
747D
100
AcDbEntity
  8
細線
 48
50.0
100
AcDbLine
 10
9276.841431394592
 20
1996.913363169653
 30
0.0
 11
10950.84143139459
 21
1996.913363169653
 31
0.0
  0
LINE
  5
17027
330
747D
100
AcDbEntity
  8
細線
 48
50.0
100
AcDbLine
 10
9915.341431394594
 20
2007.413363169654
 30
0.0
 11
10924.84143139459
 21
2007.413363169654
 31
0.0
  0
LINE
  5
17028
330
747D
100
AcDbEntity
  8
部品1
 48
50.0
100
AcDbLine
 10
10980.84143139459
 20
1949.913363169653
 30
0.0
 11
10980.84143139459
 21
4084.913363169653
 31
0.0
  0
LINE
  5
17029
330
747D
100
AcDbEntity
  8
細線
 48
50.0
100
AcDbLine
 10
10950.84143139459
 20
1949.913363169653
 30
0.0
 11
10950.84143139459
 21
4042.413363169653
 31
0.0
  0
LINE
  5
1702A
330
747D
100
AcDbEntity
  8
部品1
 48
50.0
100
AcDbLine
 10
10941.84143139459
 20
1996.913363169653
 30
0.0
 11
10941.84143139459
 21
4032.913363169654
 31
0.0
  0
LINE
  5
1702B
330
747D
100
AcDbEntity
  8
部品1
 48
50.0
100
AcDbLine
 10
9276.841431394592
 20
1999.913363169653
 30
0.0
 11
9276.841431394592
 21
4032.913363169654
 31
0.0
  0
LINE
  5
1702C
330
747D
100
AcDbEntity
  8
細線
 48
50.0
100
AcDbLine
 10
9276.841431394592
 20
4042.413363169653
 30
0.0
 11
9276.841431394588
 21
1949.913363169653
 31
0.0
  0
LINE
  5
1702D
330
747D
100
AcDbEntity
  8
部品1
 48
50.0
100
AcDbLine
 10
9246.841431394589
 20
4084.913363169653
 30
0.0
 11
9246.841431394589
 21
1949.913363169653
 31
0.0
  0
LINE
  5
1702E
330
747D
100
AcDbEntity
  8
部品1
 48
50.0
100
AcDbLine
 10
9915.341431394598
 20
4032.913363169654
 30
0.0
 11
9915.341431394594
 21
1999.913363169653
 31
0.0
  0
LINE
  5
1702F
330
747D
100
AcDbEntity
  8
部品1
 48
50.0
100
AcDbLine
 10
10407.34143139459
 20
4032.913363169654
 30
0.0
 11
10407.34143139459
 21
2007.413363169654
 31
0.0
  0
LINE
  5
17030
330
747D
100
AcDbEntity
  8
細線
100
AcDbLine
 10
9796.841423209174
 20
4032.913363169646
 30
0.0
 11
9796.841423209174
 21
1999.913363169649
 31
0.0
  0
LINE
  5
17031
330
747D
100
AcDbEntity
  8
細線
100
AcDbLine
 10
9726.841423209174
 20
4032.913363169646
 30
0.0
 11
9726.841423209174
 21
1999.913363169649
 31
0.0
  0
LINE
  5
17032
330
747D
100
AcDbEntity
  8
細線
100
AcDbLine
 10
9656.841423209176
 20
4032.913363169646
 30
0.0
 11
9656.841423209176
 21
1999.913363169649
 31
0.0
  0
LINE
  5
17033
330
747D
100
AcDbEntity
  8
部品1
100
AcDbLine
 10
9446.841431394593
 20
4032.913363169646
 30
0.0
 11
9446.841431394593
 21
1999.913363169653
 31
0.0
  0
LINE
  5
17034
330
747D
100
AcDbEntity
  8
部品1
100
AcDbLine
 10
9396.841431394593
 20
4032.913363169646
 30
0.0
 11
9396.841431394593
 21
1999.913363169653
 31
0.0
  0
LINE
  5
17035
330
747D
100
AcDbEntity
  8
細線
100
AcDbLine
 10
9438.841431394592
 20
4032.913363169646
 30
0.0
 11
9438.841431394592
 21
1999.913363169653
 31
0.0
  0
LINE
  5
17036
330
747D
100
AcDbEntity
  8
細線
100
AcDbLine
 10
9404.841431394592
 20
4032.913363169646
 30
0.0
 11
9404.841431394592
 21
1999.913363169653
 31
0.0
  0
LINE
  5
17037
330
747D
100
AcDbEntity
  8
細線
100
AcDbLine
 10
10315.84143139459
 20
4032.913363169646
 30
0.0
 11
10315.84143139459
 21
2007.413363169661
 31
0.0
  0
LINE
  5
17038
330
747D
100
AcDbEntity
  8
細線
100
AcDbLine
 10
10245.84143139459
 20
4032.913363169646
 30
0.0
 11
10245.84143139459
 21
2007.413363169661
 31
0.0
  0
LINE
  5
17039
330
747D
100
AcDbEntity
  8
細線
100
AcDbLine
 10
10175.84143139459
 20
4032.913363169646
 30
0.0
 11
10175.84143139459
 21
2007.413363169661
 31
0.0
  0
LINE
  5
1703A
330
747D
100
AcDbEntity
  8
細線
100
AcDbLine
 10
10105.84143139459
 20
4032.913363169646
 30
0.0
 11
10105.84143139459
 21
2007.413363169661
 31
0.0
  0
LINE
  5
1703B
330
747D
100
AcDbEntity
  8
細線
100
AcDbLine
 10
10833.84143139459
 20
4032.913363169635
 30
0.0
 11
10833.84143139459
 21
2007.413363169654
 31
0.0
  0
LINE
  5
1703C
330
747D
100
AcDbEntity
  8
細線
100
AcDbLine
 10
10763.84143139459
 20
4032.913363169635
 30
0.0
 11
10763.84143139459
 21
2007.413363169654
 31
0.0
  0
LINE
  5
1703D
330
747D
100
AcDbEntity
  8
細線
100
AcDbLine
 10
10693.84143139459
 20
4032.913363169635
 30
0.0
 11
10693.84143139459
 21
2007.413363169654
 31
0.0
  0
LINE
  5
1703E
330
747D
100
AcDbEntity
  8
細線
100
AcDbLine
 10
9586.841423209175
 20
4032.913363169646
 30
0.0
 11
9586.841423209175
 21
1999.913363169649
 31
0.0
  0
LINE
  5
1703F
330
747D
100
AcDbEntity
  8
細線
100
AcDbLine
 10
10035.84143139459
 20
4032.913363169646
 30
0.0
 11
10035.84143139459
 21
2007.413363169661
 31
0.0
  0
LINE
  5
17040
330
747D
100
AcDbEntity
  8
細線
100
AcDbLine
 10
9965.841431394592
 20
4032.913363169646
 30
0.0
 11
9965.841431394593
 21
2007.413363169661
 31
0.0
  0
LINE
  5
17041
330
747D
100
AcDbEntity
  8
細線
100
AcDbLine
 10
10623.84143139459
 20
4032.913363169635
 30
0.0
 11
10623.84143139459
 21
2007.413363169654
 31
0.0
  0
LINE
  5
17042
330
747D
100
AcDbEntity
  8
細線
100
AcDbLine
 10
10483.84146671348
 20
4032.913363169635
 30
0.0
 11
10483.84146671348
 21
2007.413363169654
 31
0.0
  0
LINE
  5
17043
330
747D
100
AcDbEntity
  8
細線
100
AcDbLine
 10
10553.84146671348
 20
4032.913363169635
 30
0.0
 11
10553.84146671348
 21
2007.413363169654
 31
0.0
  0
LINE
  5
17393
330
747D
100
AcDbEntity
  8
補助
  6
PHANTOM
 62
   230
 48
50.0
100
AcDbLine
 10
140.0
 20
0.0
 30
0.0
 11
139.9999999999995
 21
11409.6
 31
0.0
  0
LINE
  5
174E7
330
747D
100
AcDbEntity
  8
部品1
 48
50.0
100
AcDbLine
 10
9320.841431394592
 20
3081.413363169647
 30
0.0
 11
9373.841431394593
 21
3081.413363169647
 31
0.0
  0
TEXT
  5
179CB
330
747D
100
AcDbEntity
  8
文字
 62
     7
 48
50.0
100
AcDbText
 10
14798.72402257234
 20
9740.013745883725
 30
0.0
 40
100.0
  1
F12(一般型1.0/多雪地型2.3)
  7
STYLE1
100
AcDbText
  0
TEXT
  5
179CC
330
747D
100
AcDbEntity
  8
文字
 62
     7
 48
50.0
100
AcDbText
 10
13248.77747366447
 20
8380.013745883728
 30
0.0
 40
100.0
  1
17
  7
STYLE1
100
AcDbText
  0
TEXT
  5
179CD
330
747D
100
AcDbEntity
  8
文字
 62
     7
 48
50.0
100
AcDbText
 10
13248.77747366447
 20
8550.013745883729
 30
0.0
 40
100.0
  1
16
  7
STYLE1
100
AcDbText
  0
TEXT
  5
179CE
330
747D
100
AcDbEntity
  8
文字
 62
     7
 48
50.0
100
AcDbText
 10
15022.63965474517
 20
9060.013745883725
 30
0.0
 40
100.0
  1
F12            1.0
  7
STYLE1
100
AcDbText
  0
TEXT
  5
179CF
330
747D
100
AcDbEntity
  8
文字
 62
     7
 48
50.0
100
AcDbText
 10
13583.11819016569
 20
9060.013745883733
 30
0.0
 40
100.0
  1
壁面扉枠左右
  7
STYLE1
100
AcDbText
  0
TEXT
  5
179D0
330
747D
100
AcDbEntity
  8
文字
 62
     7
 48
50.0
100
AcDbText
 10
15022.63965474517
 20
9230.013745883725
 30
0.0
 40
100.0
  1
F12            1.0
  7
STYLE1
100
AcDbText
  0
TEXT
  5
179D1
330
747D
100
AcDbEntity
  8
文字
 62
     7
 48
50.0
100
AcDbText
 10
15022.63965474515
 20
9400.013745883727
 30
0.0
 40
100.0
  1
F12            0.7
  7
STYLE1
100
AcDbText
  0
TEXT
  5
179D2
330
747D
100
AcDbEntity
  8
文字
 62
     7
 48
50.0
100
AcDbText
 10
13583.11819016569
 20
9230.013745883733
 30
0.0
 40
100.0
  1
壁面扉敷居
  7
STYLE1
100
AcDbText
  0
TEXT
  5
179D3
330
747D
100
AcDbEntity
  8
文字
 62
     7
 48
50.0
100
AcDbText
 10
13583.11819016569
 20
9400.013745883729
 30
0.0
 40
100.0
  1
壁面扉鴨居
  7
STYLE1
100
AcDbText
  0
LINE
  5
179D4
330
747D
100
AcDbEntity
  8
仕様書枠
 48
50.0
100
AcDbLine
 10
16307.19999999999
 20
8689.600000000003
 30
0.0
 11
13127.2
 21
8689.600000000005
 31
0.0
  0
LINE
  5
179D5
330
747D
100
AcDbEntity
  8
仕様書枠
 48
50.0
100
AcDbLine
 10
16307.19999999999
 20
8519.600000000004
 30
0.0
 11
13127.2
 21
8519.600000000005
 31
0.0
  0
TEXT
  5
179D6
330
747D
100
AcDbEntity
  8
文字
 62
     7
 48
50.0
100
AcDbText
 10
13583.11819016569
 20
8380.013745883728
 30
0.0
 40
100.0
  1
アンカープレート
  7
STYLE1
100
AcDbText
  0
TEXT
  5
179D7
330
747D
100
AcDbEntity
  8
文字
 62
     7
 48
50.0
100
AcDbText
 10
15022.63965474515
 20
8380.013745883724
 30
0.0
 40
100.0
  1
F12            2.3
  7
STYLE1
100
AcDbText
  0
LINE
  5
179D8
330
747D
100
AcDbEntity
  8
仕様書枠
 48
50.0
100
AcDbLine
 10
16307.2
 20
10049.6
 30
0.0
 11
13127.2
 21
10049.6
 31
0.0
  0
LINE
  5
179D9
330
747D
100
AcDbEntity
  8
仕様書枠
 48
50.0
100
AcDbLine
 10
16307.2
 20
11409.59999999999
 30
0.0
 11
13127.2
 21
11409.6
 31
0.0
  0
LINE
  5
179DA
330
747D
100
AcDbEntity
  8
仕様書枠
 48
50.0
100
AcDbLine
 10
16307.19999999999
 20
8009.600000000004
 30
0.0
 11
16307.2
 21
11409.6
 31
0.0
  0
LINE
  5
179DB
330
747D
100
AcDbEntity
  8
仕様書枠
 48
50.0
100
AcDbLine
 10
14785.2
 20
11409.59999999999
 30
0.0
 11
14785.2
 21
8349.600000000004
 31
0.0
  0
LINE
  5
179DC
330
747D
100
AcDbEntity
  8
仕様書枠
 48
50.0
100
AcDbLine
 10
13490.2
 20
11409.59999999999
 30
0.0
 11
13490.20000000001
 21
8349.600000000007
 31
0.0
  0
LINE
  5
179DD
330
747D
100
AcDbEntity
  8
仕様書枠
 48
50.0
100
AcDbLine
 10
16307.2
 20
11239.59999999999
 30
0.0
 11
13127.2
 21
11239.6
 31
0.0
  0
LINE
  5
179DE
330
747D
100
AcDbEntity
  8
仕様書枠
 48
50.0
100
AcDbLine
 10
16307.2
 20
10899.6
 30
0.0
 11
13127.2
 21
10899.6
 31
0.0
  0
LINE
  5
179DF
330
747D
100
AcDbEntity
  8
仕様書枠
 48
50.0
100
AcDbLine
 10
16307.2
 20
11069.59999999999
 30
0.0
 11
13127.2
 21
11069.6
 31
0.0
  0
LINE
  5
179E0
330
747D
100
AcDbEntity
  8
仕様書枠
 48
50.0
100
AcDbLine
 10
16307.19999999999
 20
10559.6
 30
0.0
 11
13127.2
 21
10559.6
 31
0.0
  0
LINE
  5
179E1
330
747D
100
AcDbEntity
  8
仕様書枠
 48
50.0
100
AcDbLine
 10
16307.19999999999
 20
10389.6
 30
0.0
 11
13127.2
 21
10389.6
 31
0.0
  0
LINE
  5
179E2
330
747D
100
AcDbEntity
  8
仕様書枠
 48
50.0
100
AcDbLine
 10
16307.19999999999
 20
10729.59999999999
 30
0.0
 11
13127.2
 21
10729.6
 31
0.0
  0
TEXT
  5
179E3
330
747D
100
AcDbEntity
  8
文字
 62
     7
 48
50.0
100
AcDbText
 10
13197.42518560407
 20
11270.01374588372
 30
0.0
 40
100.0
  1
品番
  7
STYLE1
100
AcDbText
  0
TEXT
  5
179E4
330
747D
100
AcDbEntity
  8
文字
 62
     7
 48
50.0
100
AcDbText
 10
13271.19032244792
 20
11100.01374588373
 30
0.0
 40
100.0
  1
1
  7
STYLE1
100
AcDbText
  0
TEXT
  5
179E5
330
747D
100
AcDbEntity
  8
文字
 62
     7
 48
50.0
100
AcDbText
 10
13271.19032244792
 20
10930.01374588373
 30
0.0
 40
100.0
  1
2
  7
STYLE1
100
AcDbText
  0
TEXT
  5
179E6
330
747D
100
AcDbEntity
  8
文字
 62
     7
 48
50.0
100
AcDbText
 10
13271.19032244792
 20
10590.01374588373
 30
0.0
 40
100.0
  1
4
  7
STYLE1
100
AcDbText
  0
TEXT
  5
179E7
330
747D
100
AcDbEntity
  8
文字
 62
     7
 48
50.0
100
AcDbText
 10
13271.19032244792
 20
10760.01374588373
 30
0.0
 40
100.0
  1
3
  7
STYLE1
100
AcDbText
  0
TEXT
  5
179E8
330
747D
100
AcDbEntity
  8
文字
 62
     7
 48
50.0
100
AcDbText
 10
13732.03840939434
 20
11270.01374588372
 30
0.0
 40
100.0
  1
部　　品　　名
  7
STYLE1
100
AcDbText
  0
TEXT
  5
179E9
330
747D
100
AcDbEntity
  8
文字
 62
     7
 48
50.0
100
AcDbText
 10
14859.79774614482
 20
11270.01374588372
 30
0.0
 40
100.0
  1
材料（材質）　　単位mm
  7
STYLE1
100
AcDbText
  0
TEXT
  5
179EA
330
747D
100
AcDbEntity
  8
文字
 62
     7
 48
50.0
100
AcDbText
 10
13583.11819016569
 20
11100.01374588372
 30
0.0
 40
100.0
  1
土台枠
  7
STYLE1
100
AcDbText
  0
TEXT
  5
179EB
330
747D
100
AcDbEntity
  8
文字
 62
     7
 48
50.0
100
AcDbText
 10
13583.1181901657
 20
10760.01374588372
 30
0.0
 40
100.0
  1
柱
  7
STYLE1
100
AcDbText
  0
TEXT
  5
179EC
330
747D
100
AcDbEntity
  8
文字
 62
     7
 48
50.0
100
AcDbText
 10
13583.11819016569
 20
10420.01374588373
 30
0.0
 40
100.0
  1
桁前後
  7
STYLE1
100
AcDbText
  0
TEXT
  5
179ED
330
747D
100
AcDbEntity
  8
文字
 62
     7
 48
50.0
100
AcDbText
 10
13271.19032244792
 20
10420.01374588372
 30
0.0
 40
100.0
  1
5
  7
STYLE1
100
AcDbText
  0
TEXT
  5
179EE
330
747D
100
AcDbEntity
  8
文字
 62
     7
 48
50.0
100
AcDbText
 10
13583.11819016569
 20
10250.01374588373
 30
0.0
 40
100.0
  1
妻板左右
  7
STYLE1
100
AcDbText
  0
TEXT
  5
179EF
330
747D
100
AcDbEntity
  8
文字
 62
     7
 48
50.0
100
AcDbText
 10
13248.77747366447
 20
9570.013745883727
 30
0.0
 40
100.0
  1
10
  7
STYLE1
100
AcDbText
  0
TEXT
  5
179F0
330
747D
100
AcDbEntity
  8
文字
 62
     7
 48
50.0
100
AcDbText
 10
13583.11819016568
 20
9570.013745883729
 30
0.0
 40
100.0
  1
壁パネル
  7
STYLE1
100
AcDbText
  0
TEXT
  5
179F1
330
747D
100
AcDbEntity
  8
文字
 62
     7
 48
50.0
100
AcDbText
 10
13583.11819016569
 20
9910.013745883727
 30
0.0
 40
100.0
  1
屋根パネル
  7
STYLE1
100
AcDbText
  0
TEXT
  5
179F2
330
747D
100
AcDbEntity
  8
文字
 62
     7
 48
50.0
100
AcDbText
 10
13583.11819016569
 20
10080.01374588372
 30
0.0
 40
100.0
  1
鼻隠シ前後
  7
STYLE1
100
AcDbText
  0
TEXT
  5
179F3
330
747D
100
AcDbEntity
  8
文字
 62
     7
 48
50.0
100
AcDbText
 10
13271.19032244792
 20
9910.01374588373
 30
0.0
 40
100.0
  1
8
  7
STYLE1
100
AcDbText
  0
TEXT
  5
179F4
330
747D
100
AcDbEntity
  8
文字
 62
     7
 48
50.0
100
AcDbText
 10
13271.19032244792
 20
9740.013745883729
 30
0.0
 40
100.0
  1
9
  7
STYLE1
100
AcDbText
  0
TEXT
  5
179F5
330
747D
100
AcDbEntity
  8
文字
 62
     7
 48
50.0
100
AcDbText
 10
13271.19032244792
 20
10080.01374588373
 30
0.0
 40
100.0
  1
7
  7
STYLE1
100
AcDbText
  0
TEXT
  5
179F6
330
747D
100
AcDbEntity
  8
文字
 62
     7
 48
50.0
100
AcDbText
 10
13271.19032244792
 20
10250.01374588373
 30
0.0
 40
100.0
  1
6
  7
STYLE1
100
AcDbText
  0
LINE
  5
179F7
330
747D
100
AcDbEntity
  8
仕様書枠
 48
50.0
100
AcDbLine
 10
16307.19999999999
 20
9709.6
 30
0.0
 11
13127.2
 21
9709.600000000001
 31
0.0
  0
LINE
  5
179F8
330
747D
100
AcDbEntity
  8
仕様書枠
 48
50.0
100
AcDbLine
 10
16307.19999999999
 20
9369.599999999998
 30
0.0
 11
13127.2
 21
9369.600000000001
 31
0.0
  0
LINE
  5
179F9
330
747D
100
AcDbEntity
  8
仕様書枠
 48
50.0
100
AcDbLine
 10
16307.19999999999
 20
9539.599999999998
 30
0.0
 11
13127.2
 21
9539.6
 31
0.0
  0
LINE
  5
179FA
330
747D
100
AcDbEntity
  8
仕様書枠
 48
50.0
100
AcDbLine
 10
16307.2
 20
10219.6
 30
0.0
 11
13127.2
 21
10219.6
 31
0.0
  0
LINE
  5
179FB
330
747D
100
AcDbEntity
  8
仕様書枠
 48
50.0
100
AcDbLine
 10
16307.2
 20
9879.599999999999
 30
0.0
 11
13127.2
 21
9879.600000000001
 31
0.0
  0
TEXT
  5
179FC
330
747D
100
AcDbEntity
  8
文字
 62
     7
 48
50.0
100
AcDbText
 10
13248.77747366447
 20
9400.013745883727
 30
0.0
 40
100.0
  1
11
  7
STYLE1
100
AcDbText
  0
LINE
  5
179FD
330
747D
100
AcDbEntity
  8
仕様書枠
 48
50.0
100
AcDbLine
 10
16307.19999999999
 20
9199.599999999998
 30
0.0
 11
13127.2
 21
9199.600000000001
 31
0.0
  0
LINE
  5
179FE
330
747D
100
AcDbEntity
  8
仕様書枠
 48
50.0
100
AcDbLine
 10
16307.19999999999
 20
8859.6
 30
0.0
 11
13127.2
 21
8859.600000000002
 31
0.0
  0
TEXT
  5
179FF
330
747D
100
AcDbEntity
  8
文字
 62
     7
 48
50.0
100
AcDbText
 10
13248.77747366448
 20
9060.013745883727
 30
0.0
 40
100.0
  1
13
  7
STYLE1
100
AcDbText
  0
TEXT
  5
17A00
330
747D
100
AcDbEntity
  8
文字
 62
     7
 48
50.0
100
AcDbText
 10
13248.77747366448
 20
9230.013745883727
 30
0.0
 40
100.0
  1
12
  7
STYLE1
100
AcDbText
  0
TEXT
  5
17A01
330
747D
100
AcDbEntity
  8
文字
 62
     7
 48
50.0
100
AcDbText
 10
15022.63965474517
 20
11100.01374588372
 30
0.0
 40
100.0
  1
F12            1.2
  7
STYLE1
100
AcDbText
  0
TEXT
  5
17A02
330
747D
100
AcDbEntity
  8
文字
 62
     7
 48
50.0
100
AcDbText
 10
15022.63965474518
 20
10760.01374588372
 30
0.0
 40
100.0
  1
F12            1.0
  7
STYLE1
100
AcDbText
  0
TEXT
  5
17A03
330
747D
100
AcDbEntity
  8
文字
 62
     7
 48
50.0
100
AcDbText
 10
15022.63965474516
 20
10420.01374588372
 30
0.0
 40
100.0
  1
Y10            1.0
  7
STYLE1
100
AcDbText
  0
TEXT
  5
17A04
330
747D
100
AcDbEntity
  8
文字
 62
     7
 48
50.0
100
AcDbText
 10
15022.63965474516
 20
10250.01374588372
 30
0.0
 40
100.0
  1
Y10            0.7
  7
STYLE1
100
AcDbText
  0
TEXT
  5
17A05
330
747D
100
AcDbEntity
  8
文字
 62
     7
 48
50.0
100
AcDbText
 10
15022.63965474516
 20
10080.01374588372
 30
0.0
 40
100.0
  1
Y10            0.7
  7
STYLE1
100
AcDbText
  0
TEXT
  5
17A06
330
747D
100
AcDbEntity
  8
文字
 62
     7
 48
50.0
100
AcDbText
 10
15022.63965474517
 20
9910.013745883725
 30
0.0
 40
100.0
  1
Y10            0.5
  7
STYLE1
100
AcDbText
  0
TEXT
  5
17A07
330
747D
100
AcDbEntity
  8
文字
 62
     7
 48
50.0
100
AcDbText
 10
15022.63965474515
 20
9570.013745883725
 30
0.0
 40
100.0
  1
F12            0.7
  7
STYLE1
100
AcDbText
  0
LINE
  5
17A08
330
747D
100
AcDbEntity
  8
仕様書枠
 48
50.0
100
AcDbLine
 10
16307.19999999999
 20
8349.600000000004
 30
0.0
 11
13127.19999999999
 21
8349.600000000007
 31
0.0
  0
LINE
  5
17A09
330
747D
100
AcDbEntity
  8
仕様書枠
 48
50.0
100
AcDbLine
 10
16307.19999999999
 20
8179.600000000004
 30
0.0
 11
13127.19999999999
 21
8179.600000000005
 31
0.0
  0
TEXT
  5
17A0A
330
747D
100
AcDbEntity
  8
文字
 62
     7
 48
50.0
100
AcDbText
 10
13229.83081656554
 20
8210.013745883733
 30
0.0
 40
100.0
  1
F12→溶融亜鉛めっき鋼板(JIS G 3302)
  7
STYLE1
100
AcDbText
  0
TEXT
  5
17A0B
330
747D
100
AcDbEntity
  8
文字
 62
     7
 48
50.0
100
AcDbText
 10
13229.83081656554
 20
8040.013745883731
 30
0.0
 40
100.0
  1
Y10→溶融亜鉛-5％アルミニウム合金めっき鋼板(JIS G 3317)
 41
0.9
  7
STYLE1
100
AcDbText
  0
LINE
  5
17A0C
330
747D
100
AcDbEntity
  8
仕様書枠
 48
50.0
100
AcDbLine
 10
13127.2
 20
11409.6
 30
0.0
 11
13127.19999999999
 21
8009.600000000006
 31
0.0
  0
LINE
  5
17A0D
330
747D
100
AcDbEntity
  8
仕様書枠
 48
50.0
100
AcDbLine
 10
16307.19999999999
 20
9029.6
 30
0.0
 11
13127.2
 21
9029.600000000002
 31
0.0
  0
TEXT
  5
17A0E
330
747D
100
AcDbEntity
  8
文字
 62
     7
 48
50.0
100
AcDbText
 10
13583.1181901657
 20
10590.01374588372
 30
0.0
 40
100.0
  1
床パネル
 41
0.9
  7
STYLE1
100
AcDbText
  0
TEXT
  5
17A0F
330
747D
100
AcDbEntity
  8
文字
 62
     7
 48
50.0
100
AcDbText
 10
13583.11819016569
 20
10930.01374588372
 30
0.0
 40
100.0
  1
根太
  7
STYLE1
100
AcDbText
  0
TEXT
  5
17A10
330
747D
100
AcDbEntity
  8
文字
 62
     7
 48
50.0
100
AcDbText
 10
13248.77747366448
 20
8890.013745883727
 30
0.0
 40
100.0
  1
14
  7
STYLE1
100
AcDbText
  0
TEXT
  5
17A11
330
747D
100
AcDbEntity
  8
文字
 62
     7
 48
50.0
100
AcDbText
 10
15022.63965474516
 20
10930.01374588372
 30
0.0
 40
100.0
  1
F12            1.2
  7
STYLE1
100
AcDbText
  0
TEXT
  5
17A12
330
747D
100
AcDbEntity
  8
文字
 62
     7
 48
50.0
100
AcDbText
 10
15022.63965474517
 20
10590.01374588372
 30
0.0
 40
100.0
  1
F12            1.0
  7
STYLE1
100
AcDbText
  0
TEXT
  5
17A13
330
747D
100
AcDbEntity
  8
文字
 62
     7
 48
50.0
100
AcDbText
 10
15022.63965474515
 20
8890.013745883727
 30
0.0
 40
100.0
  1
F12            0.7
  7
STYLE1
100
AcDbText
  0
TEXT
  5
17A14
330
747D
100
AcDbEntity
  8
文字
 62
     7
 48
50.0
100
AcDbText
 10
13583.11819016568
 20
8890.013745883731
 30
0.0
 40
100.0
  1
正面パネル
  7
STYLE1
100
AcDbText
  0
TEXT
  5
17A15
330
747D
100
AcDbEntity
  8
文字
 62
     7
 48
50.0
100
AcDbText
 10
15022.63965474516
 20
8720.013745883727
 30
0.0
 40
100.0
  1
F12            0.8
  7
STYLE1
100
AcDbText
  0
TEXT
  5
17A16
330
747D
100
AcDbEntity
  8
文字
 62
     7
 48
50.0
100
AcDbText
 10
13583.11819016569
 20
8720.013745883731
 30
0.0
 40
100.0
  1
扉
  7
STYLE1
100
AcDbText
  0
LINE
  5
17A17
330
747D
100
AcDbEntity
  8
仕様書枠
 48
50.0
100
AcDbLine
 10
16307.19999999999
 20
8009.600000000004
 30
0.0
 11
13127.19999999999
 21
8009.600000000006
 31
0.0
  0
TEXT
  5
17A18
330
747D
100
AcDbEntity
  8
文字
 62
     7
 48
50.0
100
AcDbText
 10
13248.77747366447
 20
8720.013745883729
 30
0.0
 40
100.0
  1
15
  7
STYLE1
100
AcDbText
  0
TEXT
  5
17A19
330
747D
100
AcDbEntity
  8
文字
 62
     7
 48
50.0
100
AcDbText
 10
13583.11819016569
 20
9740.013745883729
 30
0.0
 40
100.0
  1
母屋中
  7
STYLE1
100
AcDbText
  0
TEXT
  5
17A1A
330
747D
100
AcDbEntity
  8
文字
 62
     7
 48
50.0
100
AcDbText
 10
15022.63965474516
 20
8550.013745883727
 30
0.0
 40
100.0
  1
F12            0.6
  7
STYLE1
100
AcDbText
  0
TEXT
  5
17A1B
330
747D
100
AcDbEntity
  8
文字
 62
     7
 48
50.0
100
AcDbText
 10
13583.11819016569
 20
8550.013745883731
 30
0.0
 40
100.0
  1
棚板
  7
STYLE1
100
AcDbText
  0
LINE
  5
17DB7
330
747D
100
AcDbEntity
  8
部品1
 48
50.0
100
AcDbLine
 10
10113.84143139458
 20
9704.973022881736
 30
0.0
 11
10113.84143139466
 21
7187.973022881739
 31
0.0
  0
LINE
  5
17DB8
330
747D
100
AcDbEntity
  8
破線
 48
10.0
100
AcDbLine
 10
9275.341431394563
 20
8001.473022881802
 30
0.0
 11
10528.84143139465
 21
8001.473022881802
 31
0.0
  0
LINE
  5
17DB9
330
747D
100
AcDbEntity
  8
破線
 48
10.0
100
AcDbLine
 10
9275.341431394567
 20
8891.473022881795
 30
0.0
 11
10528.84143139463
 21
8891.473022881802
 31
0.0
  0
LINE
  5
17DBA
330
747D
100
AcDbEntity
  8
破線
 48
10.0
100
AcDbLine
 10
9275.341431394563
 20
8841.473022881798
 30
0.0
 11
10528.84143139463
 21
8841.473022881801
 31
0.0
  0
LINE
  5
17DBB
330
747D
100
AcDbEntity
  8
部品1
 48
50.0
100
AcDbLine
 10
9693.841431394579
 20
9704.973022881736
 30
0.0
 11
9693.841431394666
 21
7187.973022881739
 31
0.0
  0
LINE
  5
17DBC
330
747D
100
AcDbEntity
  8
破線
 48
10.0
100
AcDbLine
 10
9275.341431394567
 20
8051.473022881797
 30
0.0
 11
10528.84143139465
 21
8051.473022881802
 31
0.0
  0
DIMENSION
  5
17DBE
330
747D
100
AcDbEntity
  8
寸法
100
AcDbDimension
  2
*D20
 10
10624.05448555939
 20
6804.63306719514
 30
0.0
 11
10824.05808632617
 21
6804.63306719514
 31
0.0
 70
   160
 71
     5
 42
449.9999999999963
  3
INABA_S40G
100
AcDbAlignedDimension
 13
10978.84143139464
 23
7159.97302288179
 33
0.0
 14
10528.84143139464
 24
7159.97302288179
 34
0.0
100
AcDbRotatedDimension
1001
ACAD
1000
DSTYLE
1002
{
1002
}
  0
LINE
  5
17DBF
330
747D
100
AcDbEntity
  8
部品1
100
AcDbLine
 10
9246.84143139458
 20
8026.473022881697
 30
0.0
 11
9218.841431394579
 21
8026.473022881697
 31
0.0
  0
DIMENSION
  5
17DC1
330
747D
100
AcDbEntity
  8
寸法
100
AcDbDimension
  2
*D21
 10
9273.8414313946
 20
10052.67818744569
 30
0.0
 11
8910.356150020326
 21
10052.67818744569
 31
0.0
 70
   160
 71
     5
 42
55.00000000003637
  3
INABA_S40G
100
AcDbAlignedDimension
 13
9218.841431394565
 23
9761.473022881729
 33
0.0
 14
9273.8414313946
 24
9761.473022881729
 34
0.0
100
AcDbRotatedDimension
1001
ACAD
1000
DSTYLE
1002
{
1002
}
  0
LINE
  5
17DC2
330
747D
100
AcDbEntity
  8
部品1
100
AcDbLine
 10
9273.841431394565
 20
9761.473022881695
 30
0.0
 11
9273.841431394568
 21
9733.473022881696
 31
0.0
  0
LINE
  5
17DC3
330
747D
100
AcDbEntity
  8
部品1
100
AcDbLine
 10
9218.841431394565
 20
9761.473022881695
 30
0.0
 11
9218.841431394594
 21
7131.473022881684
 31
0.0
  0
LINE
  5
17DC4
330
747D
100
AcDbEntity
  8
部品1
100
AcDbLine
 10
10953.8414313946
 20
9761.473022881823
 30
0.0
 11
10953.8414313946
 21
9733.473022881824
 31
0.0
  0
LINE
  5
17DC5
330
747D
100
AcDbEntity
  8
部品1
100
AcDbLine
 10
10953.8414313946
 20
9761.473022881844
 30
0.0
 11
10953.8414313946
 21
9733.473022881844
 31
0.0
  0
DIMENSION
  5
17DC6
330
747D
100
AcDbEntity
  8
寸法
100
AcDbDimension
  2
*D22
 10
11961.75042884068
 20
7131.473022881813
 30
0.0
 11
11961.75042884068
 21
8433.014273699305
 31
0.0
 70
   160
 71
     5
 42
2630.000000000008
  3
INABA_S40G
100
AcDbAlignedDimension
 13
11008.8414313946
 23
9761.473022881823
 33
0.0
 14
11008.84143139457
 24
7131.473022881813
 34
0.0
 50
90.0
100
AcDbRotatedDimension
1001
ACAD
1000
DSTYLE
1002
{
1002
}
  0
LINE
  5
17DC7
330
747D
100
AcDbEntity
  8
部品1
100
AcDbLine
 10
11008.8414313946
 20
9761.473022881823
 30
0.0
 11
11008.84143139457
 21
7131.473022881813
 31
0.0
  0
LINE
  5
17DC8
330
747D
100
AcDbEntity
  8
部品1
100
AcDbLine
 10
10533.8414313946
 20
9761.473022881844
 30
0.0
 11
10533.8414313946
 21
9733.473022881844
 31
0.0
  0
LINE
  5
17DC9
330
747D
100
AcDbEntity
  8
部品1
100
AcDbLine
 10
10113.8414313946
 20
9761.473022881844
 30
0.0
 11
10113.8414313946
 21
9733.473022881844
 31
0.0
  0
LINE
  5
17DCA
330
747D
100
AcDbEntity
  8
部品1
100
AcDbLine
 10
9693.841431394602
 20
9761.473022881844
 30
0.0
 11
9693.841431394602
 21
9733.473022881844
 31
0.0
  0
LINE
  5
17DCB
330
747D
100
AcDbEntity
  8
部品1
100
AcDbLine
 10
9693.841431394602
 20
9761.473022881727
 30
0.0
 11
9693.841431394602
 21
9733.473022881726
 31
0.0
  0
LINE
  5
17DCC
330
747D
100
AcDbEntity
  8
部品1
100
AcDbLine
 10
9693.841431394602
 20
9761.473022881729
 30
0.0
 11
9693.841431394602
 21
9733.473022881728
 31
0.0
  0
LINE
  5
17DCD
330
747D
100
AcDbEntity
  8
部品1
100
AcDbLine
 10
9273.8414313946
 20
9761.473022881729
 30
0.0
 11
9273.8414313946
 21
9733.473022881728
 31
0.0
  0
DIMENSION
  5
17DCE
330
747D
100
AcDbEntity
  8
寸法
100
AcDbDimension
  2
*D23
 10
11656.26777712901
 20
9706.473022881827
 30
0.0
 11
11656.26777712901
 21
10069.95830425606
 31
0.0
 70
   160
 71
     5
 42
54.99999999999636
  3
INABA_S40G
100
AcDbAlignedDimension
 13
11008.8414313946
 23
9761.473022881823
 33
0.0
 14
11008.8414313946
 24
9706.473022881827
 34
0.0
 50
90.0
100
AcDbRotatedDimension
1001
ACAD
1000
DSTYLE
1002
{
1002
}
  0
DIMENSION
  5
17DCF
330
747D
100
AcDbEntity
  8
寸法
100
AcDbDimension
  2
*D24
 10
11656.26777712899
 20
7131.473022881813
 30
0.0
 11
11656.26777712898
 21
6753.611555976952
 31
0.0
 70
   160
 71
     5
 42
54.99999999999636
  3
INABA_S40G
100
AcDbAlignedDimension
 13
11008.84143139457
 23
7186.47302288181
 33
0.0
 14
11008.84143139457
 24
7131.473022881813
 34
0.0
 50
90.0
100
AcDbRotatedDimension
1001
ACAD
1000
DSTYLE
1002
{
1002
}
  0
DIMENSION
  5
17DD0
330
747D
100
AcDbEntity
  8
寸法
100
AcDbDimension
  2
*D25
 10
11656.26777712901
 20
7186.47302288181
 30
0.0
 11
11656.26777712901
 21
8446.473022881816
 31
0.0
 70
   160
  1
6X420=<>
 71
     5
 42
2520.000000000016
  3
INABA_S40G
100
AcDbAlignedDimension
 13
11008.8414313946
 23
9706.473022881827
 33
0.0
 14
11008.84143139457
 24
7186.47302288181
 34
0.0
 50
90.0
100
AcDbRotatedDimension
1001
ACAD
1000
DSTYLE
1002
{
1002
}
  0
LINE
  5
17DD3
330
747D
100
AcDbEntity
  8
部品1
100
AcDbLine
 10
9246.841431394575
 20
7159.473022881652
 30
0.0
 11
9246.841431394601
 21
9733.473022881728
 31
0.0
  0
LINE
  5
17DD4
330
747D
100
AcDbEntity
  8
部品1
100
AcDbLine
 10
9246.84143139458
 20
7606.473022881697
 30
0.0
 11
9218.841431394579
 21
7606.473022881697
 31
0.0
  0
LINE
  5
17DD5
330
747D
100
AcDbEntity
  8
部品1
100
AcDbLine
 10
9246.841431394576
 20
8866.473022881697
 30
0.0
 11
9218.841431394576
 21
8866.473022881697
 31
0.0
  0
LINE
  5
17DD6
330
747D
100
AcDbEntity
  8
部品1
100
AcDbLine
 10
9246.841431394569
 20
9706.473022881699
 30
0.0
 11
9218.841431394569
 21
9706.473022881699
 31
0.0
  0
LINE
  5
17DD7
330
747D
100
AcDbEntity
  8
部品1
100
AcDbLine
 10
10980.8414313946
 20
9733.473022881824
 30
0.0
 11
10980.84143139458
 21
8458.973022881794
 31
0.0
  0
LINE
  5
17DD8
330
747D
100
AcDbEntity
  8
部品1
100
AcDbLine
 10
10980.8414313946
 20
7606.473022881826
 30
0.0
 11
11008.8414313946
 21
7606.473022881826
 31
0.0
  0
LINE
  5
17DD9
330
747D
100
AcDbEntity
  8
部品1
100
AcDbLine
 10
9246.841431394601
 20
9733.473022881856
 30
0.0
 11
10980.8414313946
 21
9733.473022881824
 31
0.0
  0
LINE
  5
17DDA
330
747D
100
AcDbEntity
  8
部品1
100
AcDbLine
 10
10980.8414313946
 20
8866.473022881825
 30
0.0
 11
11008.8414313946
 21
8866.473022881825
 31
0.0
  0
LINE
  5
17DDB
330
747D
100
AcDbEntity
  8
部品1
100
AcDbLine
 10
10980.8414313946
 20
9706.473022881827
 30
0.0
 11
11008.8414313946
 21
9706.473022881827
 31
0.0
  0
DIMENSION
  5
17DDC
330
747D
100
AcDbEntity
  8
寸法
100
AcDbDimension
  2
*D26
 10
11008.8414313946
 20
10052.67818744578
 30
0.0
 11
11317.32671276884
 21
10052.67818744578
 31
0.0
 70
   160
 71
     5
 42
55.0
  3
INABA_S40G
100
AcDbAlignedDimension
 13
10953.8414313946
 23
9761.473022881823
 33
0.0
 14
11008.8414313946
 24
9761.473022881823
 34
0.0
100
AcDbRotatedDimension
1001
ACAD
1000
DSTYLE
1002
{
1002
}
  0
LINE
  5
17DDD
330
747D
100
AcDbEntity
  8
部品1
100
AcDbLine
 10
9218.841431394601
 20
9761.473022881729
 30
0.0
 11
11008.8414313946
 21
9761.473022881823
 31
0.0
  0
DIMENSION
  5
17DDE
330
747D
100
AcDbEntity
  8
寸法
100
AcDbDimension
  2
*D27
 10
10953.8414313946
 20
10052.6781874458
 30
0.0
 11
10113.8414313946
 21
10052.6781874458
 31
0.0
 70
   160
  1
4X420=<>
 71
     5
 42
1680.0
  3
INABA_S40G
100
AcDbAlignedDimension
 13
9273.8414313946
 23
9761.473022881729
 33
0.0
 14
10953.8414313946
 24
9761.473022881823
 34
0.0
100
AcDbRotatedDimension
1001
ACAD
1000
DSTYLE
1002
{
1002
}
  0
LINE
  5
17DDF
330
747D
100
AcDbEntity
  8
部品1
100
AcDbLine
 10
10528.84143139464
 20
7187.973022881784
 30
0.0
 11
9275.341431394492
 21
7187.973022881713
 31
0.0
  0
LINE
  5
17DE0
330
747D
100
AcDbEntity
  8
破線
 48
10.0
100
AcDbLine
 10
10528.84143139464
 20
7211.473022881786
 30
0.0
 11
9298.841431394583
 21
7211.473022881712
 31
0.0
  0
LINE
  5
17DE1
330
747D
100
AcDbEntity
  8
部品1
100
AcDbLine
 10
9275.34143139457
 20
9704.973022881915
 30
0.0
 11
9275.341431394592
 21
7187.973022881812
 31
0.0
  0
LINE
  5
17DE2
330
747D
100
AcDbEntity
  8
破線
 48
10.0
100
AcDbLine
 10
9298.841431394567
 20
9681.473022881931
 30
0.0
 11
9298.841431394572
 21
8891.473022881795
 31
0.0
  0
LINE
  5
17DE3
330
747D
100
AcDbEntity
  8
部品1
 48
50.0
100
AcDbLine
 10
9275.341431394586
 20
7187.973022881807
 30
0.0
 11
9246.841431394589
 21
7159.473022881809
 31
0.0
  0
LINE
  5
17DE4
330
747D
100
AcDbEntity
  8
部品1
100
AcDbLine
 10
10980.8414313946
 20
7186.473022881553
 30
0.0
 11
11008.8414313946
 21
7186.473022881553
 31
0.0
  0
LINE
  5
17DE5
330
747D
100
AcDbEntity
  8
部品1
100
AcDbLine
 10
9246.841431394569
 20
7186.473022881681
 30
0.0
 11
9218.841431394569
 21
7186.473022881681
 31
0.0
  0
LINE
  5
17DE6
330
747D
100
AcDbEntity
  8
部品1
 48
50.0
100
AcDbLine
 10
9218.841431394594
 20
7131.47302288165
 30
0.0
 11
9273.841431394565
 21
7131.473022881656
 31
0.0
  0
LINE
  5
17DE7
330
747D
100
AcDbEntity
  8
部品1
 48
50.0
100
AcDbLine
 10
9246.841431394573
 20
7159.473022881652
 30
0.0
 11
10980.84143139457
 21
7159.473022881809
 31
0.0
  0
LINE
  5
17DE8
330
747D
100
AcDbEntity
  8
部品1
 48
50.0
100
AcDbLine
 10
10953.84143139456
 20
7131.47302288181
 30
0.0
 11
11008.84143139457
 21
7131.473022881813
 31
0.0
  0
LINE
  5
17DE9
330
747D
100
AcDbEntity
  8
部品1
 48
50.0
100
AcDbLine
 10
9273.841431394565
 20
7131.473022881653
 30
0.0
 11
9273.841431394568
 21
7159.473022881652
 31
0.0
  0
LINE
  5
17DEA
330
747D
100
AcDbEntity
  8
部品1
 48
50.0
100
AcDbLine
 10
10953.84143139456
 20
7131.47302288181
 30
0.0
 11
10953.84143139456
 21
7159.473022881808
 31
0.0
  0
LINE
  5
17DEB
330
747D
100
AcDbEntity
  8
部品1
100
AcDbLine
 10
9246.84143139458
 20
8446.473022881697
 30
0.0
 11
9218.841431394579
 21
8446.473022881697
 31
0.0
  0
LINE
  5
17DEC
330
747D
100
AcDbEntity
  8
部品1
100
AcDbLine
 10
10980.8414313946
 20
8446.473022881827
 30
0.0
 11
11008.8414313946
 21
8446.473022881827
 31
0.0
  0
LINE
  5
17DF1
330
747D
100
AcDbEntity
  8
部品1
100
AcDbLine
 10
9246.841431394576
 20
9286.473022881697
 30
0.0
 11
9218.841431394576
 21
9286.473022881697
 31
0.0
  0
LINE
  5
17DF2
330
747D
100
AcDbEntity
  8
部品1
100
AcDbLine
 10
10980.8414313946
 20
9286.473022881827
 30
0.0
 11
11008.8414313946
 21
9286.473022881827
 31
0.0
  0
LINE
  5
17DF3
330
747D
100
AcDbEntity
  8
部品1
 48
50.0
100
AcDbLine
 10
10528.84143139459
 20
9704.973022881848
 30
0.0
 11
9275.341431394585
 21
9704.973022881915
 31
0.0
  0
LINE
  5
17DF4
330
747D
100
AcDbEntity
  8
部品1
 48
50.0
100
AcDbLine
 10
9275.34143139457
 20
9704.973022881915
 30
0.0
 11
9246.841431394601
 21
9733.473022881728
 31
0.0
  0
LINE
  5
17DF5
330
747D
100
AcDbEntity
  8
破線
 48
10.0
100
AcDbLine
 10
9298.841431394565
 20
9681.473022881935
 30
0.0
 11
10528.84143139459
 21
9681.473022881924
 31
0.0
  0
LINE
  5
17DF6
330
747D
100
AcDbEntity
  8
部品1
100
AcDbLine
 10
10528.84143139459
 20
9732.973022881861
 30
0.0
 11
10528.84143139465
 21
8459.973022881792
 31
0.0
  0
LINE
  5
17DF7
330
747D
100
AcDbEntity
  8
部品1
100
AcDbLine
 10
10978.84143139459
 20
9732.973022881861
 30
0.0
 11
10978.84143139465
 21
8459.97302288179
 31
0.0
  0
LINE
  5
17DF8
330
747D
100
AcDbEntity
  8
細線
 48
50.0
100
AcDbLine
 10
10978.84143139465
 20
8459.97302288179
 30
0.0
 11
10528.8414313946
 21
9732.973022881861
 31
0.0
  0
LINE
  5
17DF9
330
747D
100
AcDbEntity
  8
細線
 48
50.0
100
AcDbLine
 10
10528.84143139465
 20
8459.973022881792
 30
0.0
 11
10978.8414313946
 21
9732.973022881861
 31
0.0
  0
LINE
  5
17DFA
330
747D
100
AcDbEntity
  8
部品1
 48
50.0
100
AcDbLine
 10
10978.84143139465
 20
9732.973022881861
 30
0.0
 11
10528.84143139465
 21
9732.973022881861
 31
0.0
  0
LINE
  5
17DFB
330
747D
100
AcDbEntity
  8
細線
 48
50.0
100
AcDbLine
 10
10528.84143139464
 20
7159.97302288179
 30
0.0
 11
10978.84143139465
 21
8432.973022881789
 31
0.0
  0
LINE
  5
17DFC
330
747D
100
AcDbEntity
  8
部品1
100
AcDbLine
 10
10528.84143139465
 20
8432.973022881792
 30
0.0
 11
10528.84143139464
 21
7159.97302288179
 31
0.0
  0
LINE
  5
17DFD
330
747D
100
AcDbEntity
  8
部品1
100
AcDbLine
 10
10978.84143139465
 20
8432.973022881789
 30
0.0
 11
10978.84143139464
 21
7159.97302288179
 31
0.0
  0
LINE
  5
17DFE
330
747D
100
AcDbEntity
  8
細線
 48
50.0
100
AcDbLine
 10
10978.84143139464
 20
7159.97302288179
 30
0.0
 11
10528.84143139465
 21
8432.973022881792
 31
0.0
  0
LINE
  5
17DFF
330
747D
100
AcDbEntity
  8
部品1
 48
50.0
100
AcDbLine
 10
10980.84143139465
 20
8433.97302288179
 30
0.0
 11
10528.84143139465
 21
8433.97302288179
 31
0.0
  0
LINE
  5
17E00
330
747D
100
AcDbEntity
  8
部品1
 48
50.0
100
AcDbLine
 10
10980.84143139466
 20
8458.97302288179
 30
0.0
 11
10528.84143139465
 21
8458.97302288179
 31
0.0
  0
LINE
  5
17E01
330
747D
100
AcDbEntity
  8
部品1
 48
50.0
100
AcDbLine
 10
10978.84143139465
 20
8432.973022881789
 30
0.0
 11
10528.84143139465
 21
8432.973022881789
 31
0.0
  0
LINE
  5
17E02
330
747D
100
AcDbEntity
  8
部品1
 48
50.0
100
AcDbLine
 10
10978.84143139465
 20
8459.97302288179
 30
0.0
 11
10528.84143139465
 21
8459.97302288179
 31
0.0
  0
LINE
  5
17E03
330
747D
100
AcDbEntity
  8
部品1
100
AcDbLine
 10
10528.84143139465
 20
8458.97302288179
 30
0.0
 11
10528.84143139465
 21
8433.97302288179
 31
0.0
  0
LINE
  5
17E04
330
747D
100
AcDbEntity
  8
部品1
100
AcDbLine
 10
10972.84143139464
 20
8458.97302288179
 30
0.0
 11
10972.84143139465
 21
8433.97302288179
 31
0.0
  0
LINE
  5
17E05
330
747D
100
AcDbEntity
  8
部品1
100
AcDbLine
 10
10998.84143139465
 20
8417.47302288179
 30
0.0
 11
10998.84143139465
 21
8411.473022881791
 31
0.0
  0
LINE
  5
17E06
330
747D
100
AcDbEntity
  8
部品1
100
AcDbLine
 10
10998.84143139465
 20
8411.473022881791
 30
0.0
 11
10980.84143139465
 21
8411.473022881791
 31
0.0
  0
LINE
  5
17E07
330
747D
100
AcDbEntity
  8
部品1
100
AcDbLine
 10
10998.84143139465
 20
8481.47302288179
 30
0.0
 11
10998.84143139465
 21
8475.473022881791
 31
0.0
  0
LINE
  5
17E08
330
747D
100
AcDbEntity
  8
部品1
100
AcDbLine
 10
10998.84143139465
 20
8481.47302288179
 30
0.0
 11
10980.84143139465
 21
8481.47302288179
 31
0.0
  0
LINE
  5
17E09
330
747D
100
AcDbEntity
  8
部品1
100
AcDbLine
 10
10978.84143139464
 20
7159.97302288179
 30
0.0
 11
10528.84143139464
 21
7159.97302288179
 31
0.0
  0
DIMENSION
  5
17E0A
330
747D
100
AcDbEntity
  8
寸法
100
AcDbDimension
  2
*D28
 10
10326.98247371019
 20
7214.060967578342
 30
0.0
 11
10326.98247371019
 21
7830.678909120855
 31
0.0
 70
   160
 71
     5
 42
1273.000000000012
  3
INABA_S40G
100
AcDbAlignedDimension
 13
10528.84143139472
 23
8432.9730228818
 33
0.0
 14
10528.84143139471
 24
7159.973022881786
 34
0.0
 50
270.0
100
AcDbRotatedDimension
1001
ACAD
1000
DSTYLE
1002
{
1002
}
  0
DIMENSION
  5
17E0B
330
747D
100
AcDbEntity
  8
寸法
100
AcDbDimension
  2
*D29
 10
10325.48115506568
 20
8514.463244696713
 30
0.0
 11
10325.48115506568
 21
9124.419088311942
 31
0.0
 70
   160
 71
     5
 42
1273.000000000071
  3
INABA_S40G
100
AcDbAlignedDimension
 13
10528.84143139466
 23
9732.973022881868
 33
0.0
 14
10528.84143139465
 24
8459.973022881797
 34
0.0
 50
270.0
100
AcDbRotatedDimension
1001
ACAD
1000
DSTYLE
1002
{
1002
}
  0
LINE
  5
17E0C
330
747D
100
AcDbEntity
  8
部品1
100
AcDbLine
 10
10980.84143139458
 20
8433.97302288179
 30
0.0
 11
10980.84143139457
 21
7159.473022881809
 31
0.0
  0
MTEXT
  5
17FEA
330
747D
100
AcDbEntity
  8
寸法
 62
     7
 48
50.0
100
AcDbMText
 10
10603.5566398107
 20
9091.989972658959
 30
0.0
 40
96.0
 41
0.0
 71
     5
 72
     1
  1
棚 3段
  7
STYLE1
 11
0.0000000000000003
 21
1.0
 31
0.0
 73
     1
 44
1.0
1001
ACAD
1000
MTEXTBEGIN
1070
    73
1070
     1
1070
    44
1040
1.0
1070
    74
1070
     0
1000
MTEXTEND
  0
MTEXT
  5
17FEB
330
747D
100
AcDbEntity
  8
寸法
 62
     7
 48
50.0
100
AcDbMText
 10
10603.55663981072
 20
7791.989972658928
 30
0.0
 40
96.0
 41
0.0
 71
     5
 72
     1
  1
棚 3段
  7
STYLE1
 11
0.0000000000000003
 21
1.0
 31
0.0
 73
     1
 44
1.0
1001
ACAD
1000
MTEXTBEGIN
1070
    73
1070
     1
1070
    44
1040
1.0
1070
    74
1070
     0
1000
MTEXTEND
  0
LINE
  5
180A7
330
747D
100
AcDbEntity
  8
破線
 48
10.0
100
AcDbLine
 10
9298.841431394574
 20
8841.473022881798
 30
0.0
 11
9298.841431394583
 21
8051.473022881797
 31
0.0
  0
LINE
  5
180A8
330
747D
100
AcDbEntity
  8
破線
 48
10.0
100
AcDbLine
 10
9298.841431394583
 20
8001.473022881802
 30
0.0
 11
9298.84143139459
 21
7211.473022881714
 31
0.0
  0
LINE
  5
18183
330
747D
100
AcDbEntity
  8
細線
 48
50.0
100
AcDbLine
 10
9796.841431394563
 20
7059.473197058609
 30
0.0
 11
9915.341431394564
 21
7059.473197058609
 31
0.0
  0
LINE
  5
18184
330
747D
100
AcDbEntity
  8
細線
 48
50.0
100
AcDbLine
 10
9885.341431394568
 20
7076.623197058608
 30
0.0
 11
9885.341431394568
 21
7081.47319705861
 31
0.0
  0
LINE
  5
18185
330
747D
100
AcDbEntity
  8
細線
 48
50.0
100
AcDbLine
 10
9885.341431394568
 20
7081.47319705861
 30
0.0
 11
9900.341431394567
 21
7081.47319705861
 31
0.0
  0
LINE
  5
18186
330
747D
100
AcDbEntity
  8
細線
 48
50.0
100
AcDbLine
 10
9900.341431394567
 20
7081.47319705861
 30
0.0
 11
9900.341431394569
 21
7088.47319705861
 31
0.0
  0
LINE
  5
18187
330
747D
100
AcDbEntity
  8
細線
 48
50.0
100
AcDbLine
 10
9900.341431394569
 20
7088.47319705861
 30
0.0
 11
9915.341431394567
 21
7088.47319705861
 31
0.0
  0
LINE
  5
18188
330
747D
100
AcDbEntity
  8
細線
 48
50.0
100
AcDbLine
 10
9915.341431394567
 20
7088.47319705861
 30
0.0
 11
9915.341431394567
 21
7059.473197058609
 31
0.0
  0
LINE
  5
18189
330
747D
100
AcDbEntity
  8
細線
 48
50.0
100
AcDbLine
 10
9904.341431394568
 20
7110.969391324116
 30
0.0
 11
9904.341431394568
 21
7115.469391324116
 31
0.0
  0
LINE
  5
1818A
330
747D
100
AcDbEntity
  8
細線
 48
50.0
100
AcDbLine
 10
9904.341431394568
 20
7115.469391324116
 30
0.0
 11
9889.341431394568
 21
7115.469391324116
 31
0.0
  0
LINE
  5
1818B
330
747D
100
AcDbEntity
  8
細線
 48
50.0
100
AcDbLine
 10
9889.341431394568
 20
7115.469391324116
 30
0.0
 11
9889.341431394568
 21
7122.469391324116
 31
0.0
  0
LINE
  5
1818C
330
747D
100
AcDbEntity
  8
細線
 48
50.0
100
AcDbLine
 10
9889.341431394568
 20
7122.469391324116
 30
0.0
 11
9874.341431394569
 21
7122.469391324113
 31
0.0
  0
LINE
  5
1818D
330
747D
100
AcDbEntity
  8
細線
 48
50.0
100
AcDbLine
 10
9874.341431394569
 20
7122.469391324113
 30
0.0
 11
9874.341431394569
 21
7084.869163221002
 31
0.0
  0
LINE
  5
1818E
330
747D
100
AcDbEntity
  8
細線
 48
50.0
100
AcDbLine
 10
9874.341431394569
 20
7084.869163221002
 30
0.0
 11
9894.341438695743
 21
7084.869204770544
 31
0.0
  0
LINE
  5
1818F
330
747D
100
AcDbEntity
  8
細線
 48
50.0
100
AcDbLine
 10
9894.341393826802
 20
7093.472666406352
 30
0.0
 11
9894.341438695743
 21
7084.869204770544
 31
0.0
  0
LINE
  5
18190
330
747D
100
AcDbEntity
  8
細線
 48
50.0
100
AcDbLine
 10
9894.341393826802
 20
7093.472666406352
 30
0.0
 11
9905.574083181512
 21
7093.472849359499
 31
0.0
  0
ARC
  5
18191
330
747D
100
AcDbEntity
  8
細線
 48
50.0
100
AcDbCircle
 10
9912.156375488848
 20
7092.273013273111
 30
0.0
 40
1.8
100
AcDbArc
 50
270.0006665777295
 51
345.0005554812987
  0
LINE
  5
18192
330
747D
100
AcDbEntity
  8
細線
 48
50.0
100
AcDbLine
 10
9914.142808934926
 20
7092.73185373039
 30
0.0
 11
9913.895046492728
 21
7091.807155848283
 31
0.0
  0
LINE
  5
18193
330
747D
100
AcDbEntity
  8
細線
 48
50.0
100
AcDbLine
 10
9912.156396430003
 20
7090.473013273232
 30
0.0
 11
9908.526469011235
 21
7090.472971042752
 31
0.0
  0
ARC
  5
18194
330
747D
100
AcDbEntity
  8
細線
 48
50.0
100
AcDbCircle
 10
9908.526448070082
 20
7092.272971042631
 30
0.0
 40
1.8
100
AcDbArc
 50
195.0010443049394
 51
270.0006665777295
  0
LINE
  5
18195
330
747D
100
AcDbEntity
  8
細線
 48
50.0
100
AcDbLine
 10
9906.540020577823
 20
7092.731686010195
 30
0.0
 11
9906.787790074336
 21
7091.807065071613
 31
0.0
  0
ARC
  5
18196
330
747D
100
AcDbEntity
  8
細線
 48
50.0
100
AcDbCircle
 10
9905.574099469076
 20
7092.472849359634
 30
0.0
 40
1.0
100
AcDbArc
 50
15.00104430493943
 51
90.00093320877969
  0
LINE
  5
18197
330
747D
100
AcDbEntity
  8
細線
 48
50.0
100
AcDbLine
 10
9915.108730290031
 20
7093.473044049904
 30
0.0
 11
9916.050490440936
 21
7093.473050623753
 31
0.0
  0
ARC
  5
18198
330
747D
100
AcDbEntity
  8
細線
 48
50.0
100
AcDbCircle
 10
9915.108737270415
 20
7092.473044049929
 30
0.0
 40
1.0
100
AcDbArc
 50
90.0003999466794
 51
165.0005554812987
  0
LINE
  5
18199
330
747D
100
AcDbEntity
  8
細線
 48
50.0
100
AcDbLine
 10
10951.34143139456
 20
7152.473022881657
 30
0.0
 11
10951.34143139456
 21
7127.473022881655
 31
0.0
  0
LINE
  5
1819A
330
747D
100
AcDbEntity
  8
細線
100
AcDbLine
 10
10941.84143139456
 20
7127.473022881654
 30
0.0
 11
10833.84143139456
 21
7127.473022881654
 31
0.0
  0
LINE
  5
1819B
330
747D
100
AcDbEntity
  8
細線
 48
50.0
100
AcDbLine
 10
10366.34143654547
 20
7119.473022881656
 30
0.0
 11
10366.34143654547
 21
7157.47302288165
 31
0.0
  0
LINE
  5
1819C
330
747D
100
AcDbEntity
  8
細線
 48
50.0
100
AcDbLine
 10
10366.34143654547
 20
7157.47302288165
 30
0.0
 11
10381.34143654547
 21
7157.473022881653
 31
0.0
  0
LINE
  5
1819D
330
747D
100
AcDbEntity
  8
細線
 48
50.0
100
AcDbLine
 10
10381.34143654547
 20
7157.473022881653
 30
0.0
 11
10381.34143654547
 21
7152.473022881654
 31
0.0
  0
LINE
  5
1819E
330
747D
100
AcDbEntity
  8
細線
 48
50.0
100
AcDbLine
 10
10366.34143654547
 20
7119.473022881656
 30
0.0
 11
10386.34143654547
 21
7119.473022881654
 31
0.0
  0
LINE
  5
1819F
330
747D
100
AcDbEntity
  8
細線
 48
50.0
100
AcDbLine
 10
10386.34143654547
 20
7119.473022881654
 30
0.0
 11
10386.34143654547
 21
7127.473022881654
 31
0.0
  0
LINE
  5
181A0
330
747D
100
AcDbEntity
  8
細線
100
AcDbLine
 10
10623.84143139456
 20
7127.473022881654
 30
0.0
 11
10553.84143139456
 21
7127.473022881654
 31
0.0
  0
LINE
  5
181A1
330
747D
100
AcDbEntity
  8
細線
 48
50.0
100
AcDbLine
 10
10483.84143139456
 20
7127.473022881652
 30
0.0
 11
10399.13721611831
 21
7127.473022881654
 31
0.0
  0
LINE
  5
181A2
330
747D
100
AcDbEntity
  8
細線
100
AcDbLine
 10
10763.84143139456
 20
7127.473022881654
 30
0.0
 11
10693.84143139456
 21
7127.473022881654
 31
0.0
  0
LINE
  5
181A3
330
747D
100
AcDbEntity
  8
細線
100
AcDbLine
 10
10591.84143139456
 20
7127.473022881652
 30
0.0
 11
10591.84143139456
 21
7156.773022881651
 31
0.0
  0
LINE
  5
181A4
330
747D
100
AcDbEntity
  8
細線
100
AcDbLine
 10
10571.84143139456
 20
7156.773022881651
 30
0.0
 11
10591.84143139456
 21
7156.773022881651
 31
0.0
  0
LINE
  5
181A5
330
747D
100
AcDbEntity
  8
細線
100
AcDbLine
 10
10571.84143139456
 20
7127.473022881652
 30
0.0
 11
10571.84143139456
 21
7156.773022881651
 31
0.0
  0
LINE
  5
181A6
330
747D
100
AcDbEntity
  8
細線
 48
50.0
100
AcDbLine
 10
10935.44143139456
 20
7152.473022881655
 30
0.0
 11
10925.44143139456
 21
7157.473022881655
 31
0.0
  0
LINE
  5
181A7
330
747D
100
AcDbEntity
  8
細線
 48
50.0
100
AcDbLine
 10
10951.34143139456
 20
7152.473022881657
 30
0.0
 11
10935.44143139457
 21
7152.473022881655
 31
0.0
  0
LINE
  5
181A8
330
747D
100
AcDbEntity
  8
細線
 48
50.0
100
AcDbLine
 10
10925.44143139457
 20
7157.473022881652
 30
0.0
 11
10381.34143654547
 21
7157.47302288165
 31
0.0
  0
LINE
  5
181A9
330
747D
100
AcDbEntity
  8
細線
 48
50.0
100
AcDbLine
 10
10392.34143654547
 20
7126.673022881654
 30
0.0
 11
10392.34143654547
 21
7125.173022881654
 31
0.0
  0
LINE
  5
181AA
330
747D
100
AcDbEntity
  8
細線
 48
50.0
100
AcDbLine
 10
10393.04143654547
 20
7124.473022881653
 30
0.0
 11
10397.64143654547
 21
7124.473022881653
 31
0.0
  0
LINE
  5
181AB
330
747D
100
AcDbEntity
  8
細線
 48
50.0
100
AcDbLine
 10
10398.34143654547
 20
7125.173022881654
 30
0.0
 11
10398.34144337059
 21
7126.673037773142
 31
0.0
  0
ARC
  5
181AC
330
747D
100
AcDbEntity
  8
細線
 48
50.0
100
AcDbCircle
 10
10397.64143654547
 20
7125.173022881654
 30
0.0
 40
0.7
100
AcDbArc
 50
270.0
 51
0.0
  0
ARC
  5
181AD
330
747D
100
AcDbEntity
  8
細線
 48
50.0
100
AcDbCircle
 10
10393.04143654547
 20
7125.173022881654
 30
0.0
 40
0.7
100
AcDbArc
 50
180.0
 51
270.0
  0
LINE
  5
181AE
330
747D
100
AcDbEntity
  8
細線
 48
50.0
100
AcDbLine
 10
10391.54143840691
 20
7127.473022881654
 30
0.0
 11
10386.34143654547
 21
7127.473022881654
 31
0.0
  0
ARC
  5
181AF
330
747D
100
AcDbEntity
  8
細線
 48
50.0
100
AcDbCircle
 10
10399.14144337058
 20
7126.67303405027
 30
0.0
 40
0.8
100
AcDbArc
 50
90.00014387753465
 51
179.9997333689498
  0
ARC
  5
181B0
330
747D
100
AcDbEntity
  8
細線
 48
50.0
100
AcDbCircle
 10
10391.54143654548
 20
7126.673022881654
 30
0.0
 40
0.8
100
AcDbArc
 50
359.9997333689499
 51
89.99986668437072
  0
LINE
  5
181B1
330
747D
100
AcDbEntity
  8
細線
 48
50.0
100
AcDbLine
 10
10105.84139607567
 20
7093.473034744239
 30
0.0
 11
10035.84137878779
 21
7093.473034744248
 31
0.0
  0
LINE
  5
181B2
330
747D
100
AcDbEntity
  8
細線
 48
50.0
100
AcDbLine
 10
9965.841431394565
 20
7093.47304293161
 30
0.0
 11
9916.050490440936
 21
7093.473050623753
 31
0.0
  0
LINE
  5
181B3
330
747D
100
AcDbEntity
  8
細線
 48
50.0
100
AcDbLine
 10
10315.8414231578
 20
7093.473034744244
 30
0.0
 11
10407.34143139456
 21
7093.473034744244
 31
0.0
  0
LINE
  5
181B4
330
747D
100
AcDbEntity
  8
細線
 48
50.0
100
AcDbLine
 10
10245.84143139456
 20
7093.473031994239
 30
0.0
 11
10175.84167529156
 21
7093.473037494272
 31
0.0
  0
LINE
  5
181B5
330
747D
100
AcDbEntity
  8
細線
 48
50.0
100
AcDbLine
 10
10407.34144169639
 20
7122.473240916517
 30
0.0
 11
10407.34143139456
 21
7093.473034744244
 31
0.0
  0
LINE
  5
181B6
330
747D
100
AcDbEntity
  8
細線
 48
50.0
100
AcDbLine
 10
10392.34144352586
 20
7122.473240916517
 30
0.0
 11
10407.34144169639
 21
7122.473240916517
 31
0.0
  0
LINE
  5
181B7
330
747D
100
AcDbEntity
  8
細線
 48
50.0
100
AcDbLine
 10
10392.34143189188
 20
7115.473240916474
 30
0.0
 11
10392.34144352586
 21
7122.473240916517
 31
0.0
  0
LINE
  5
181B8
330
747D
100
AcDbEntity
  8
細線
 48
50.0
100
AcDbLine
 10
10377.34143189188
 20
7115.473240916474
 30
0.0
 11
10392.34143189188
 21
7115.473240916474
 31
0.0
  0
LINE
  5
181B9
330
747D
100
AcDbEntity
  8
細線
 48
50.0
100
AcDbLine
 10
10377.34143189188
 20
7110.623240916474
 30
0.0
 11
10377.34143189188
 21
7115.473240916474
 31
0.0
  0
LINE
  5
181BA
330
747D
100
AcDbEntity
  8
細線
 48
50.0
100
AcDbLine
 10
10377.34143189188
 20
7114.073240916475
 30
0.0
 11
9904.341431394568
 21
7114.073240916471
 31
0.0
  0
LINE
  5
181BB
330
747D
100
AcDbEntity
  8
細線
 48
50.0
100
AcDbLine
 10
9885.341431394568
 20
7080.073197058607
 30
0.0
 11
9299.841436048156
 21
7080.073197058607
 31
0.0
  0
LINE
  5
181BC
330
747D
100
AcDbEntity
  8
細線
 48
50.0
100
AcDbLine
 10
9708.224523065259
 20
7077.744048349102
 30
0.0
 11
9713.980040647928
 21
7059.473197058608
 31
0.0
  0
LINE
  5
181BD
330
747D
100
AcDbEntity
  8
細線
 48
50.0
100
AcDbLine
 10
9697.296074584826
 20
7077.744048349098
 30
0.0
 11
9708.224523065259
 21
7077.744048349102
 31
0.0
  0
ARC
  5
181BE
330
747D
100
AcDbEntity
  8
細線
 48
50.0
100
AcDbCircle
 10
9691.841718527509
 20
7079.244048349098
 30
0.0
 40
5.0
100
AcDbArc
 50
204.6243183521304
 51
335.3756816478695
  0
ARC
  5
181BF
330
747D
100
AcDbEntity
  8
細線
 48
50.0
100
AcDbCircle
 10
9697.296074584826
 20
7076.744048349098
 30
0.0
 40
1.0
100
AcDbArc
 50
90.0
 51
155.3756816478695
  0
ARC
  5
181C0
330
747D
100
AcDbEntity
  8
細線
 48
50.0
100
AcDbCircle
 10
9686.387362470192
 20
7076.744048349098
 30
0.0
 40
1.0
100
AcDbArc
 50
24.62431835213048
 51
90.0
  0
LINE
  5
181C1
330
747D
100
AcDbEntity
  8
細線
 48
50.0
100
AcDbLine
 10
9675.458913989761
 20
7077.744048349102
 30
0.0
 11
9686.387362470192
 21
7077.744048349098
 31
0.0
  0
LINE
  5
181C2
330
747D
100
AcDbEntity
  8
細線
 48
50.0
100
AcDbLine
 10
9669.703396407092
 20
7059.473197058608
 30
0.0
 11
9675.458913989761
 21
7077.744048349102
 31
0.0
  0
LINE
  5
181C3
330
747D
100
AcDbEntity
  8
細線
 48
50.0
100
AcDbLine
 10
9656.841431394564
 20
7059.473197058608
 30
0.0
 11
9726.841431394564
 21
7059.473197058608
 31
0.0
  0
LINE
  5
181C4
330
747D
100
AcDbEntity
  8
細線
 48
50.0
100
AcDbLine
 10
9276.841431394565
 20
7059.470531402077
 30
0.0
 11
9586.841984498994
 21
7059.474418302274
 31
0.0
  0
LINE
  5
181C5
330
747D
100
AcDbEntity
  8
細線
 48
50.0
100
AcDbLine
 10
9299.841436048156
 20
7088.469347466247
 30
0.0
 11
9285.841431394565
 21
7088.469347466244
 31
0.0
  0
LINE
  5
181C6
330
747D
100
AcDbEntity
  8
細線
 48
50.0
100
AcDbLine
 10
9299.841436048156
 20
7080.073197058607
 30
0.0
 11
9299.841436048156
 21
7088.469347466247
 31
0.0
  0
LINE
  5
181C7
330
747D
100
AcDbEntity
  8
細線
  6
Continuous
 62
     5
100
AcDbLine
 10
10379.34143654547
 20
7112.47302288165
 30
0.0
 11
10379.34143654547
 21
7112.47302288165
 31
0.0
  0
LINE
  5
181C8
330
747D
100
AcDbEntity
  8
部品1
100
AcDbLine
 10
9276.841431394565
 20
7054.473022881653
 30
0.0
 11
10980.84143139456
 21
7054.473022881651
 31
0.0
  0
LINE
  5
181C9
330
747D
100
AcDbEntity
  8
部品1
100
AcDbLine
 10
10950.84143139456
 20
7054.473022881655
 30
0.0
 11
10980.84143139456
 21
7054.473022881655
 31
0.0
  0
LINE
  5
181CA
330
747D
100
AcDbEntity
  8
部品1
100
AcDbLine
 10
9273.841431394565
 20
7158.47302288165
 30
0.0
 11
10953.84143139456
 21
7158.473022881654
 31
0.0
  0
LINE
  5
181CB
330
747D
100
AcDbEntity
  8
部品1
100
AcDbLine
 10
9273.841431394565
 20
7158.47302288165
 30
0.0
 11
9273.841431394565
 21
7127.473022881654
 31
0.0
  0
LINE
  5
181CC
330
747D
100
AcDbEntity
  8
部品1
100
AcDbLine
 10
9285.841431394565
 20
7127.473022881654
 30
0.0
 11
9285.841431394565
 21
7063.473022881654
 31
0.0
  0
LINE
  5
181CD
330
747D
100
AcDbEntity
  8
部品1
100
AcDbLine
 10
9246.841431394566
 20
7054.473022881653
 30
0.0
 11
9246.841431394566
 21
7131.473022881653
 31
0.0
  0
LINE
  5
181CE
330
747D
100
AcDbEntity
  8
部品1
100
AcDbLine
 10
9276.841431394565
 20
7054.473022881653
 30
0.0
 11
9246.841431394566
 21
7054.473022881653
 31
0.0
  0
LINE
  5
181CF
330
747D
100
AcDbEntity
  8
部品1
100
AcDbLine
 10
9285.841431394565
 20
7063.473022881654
 30
0.0
 11
9276.841431394565
 21
7063.473022881654
 31
0.0
  0
LINE
  5
181D0
330
747D
100
AcDbEntity
  8
部品1
100
AcDbLine
 10
9276.841431394565
 20
7063.473022881654
 30
0.0
 11
9276.841431394565
 21
7054.473022881653
 31
0.0
  0
LINE
  5
181D1
330
747D
100
AcDbEntity
  8
部品1
100
AcDbLine
 10
9246.841431394566
 20
7131.473022881653
 30
0.0
 11
9273.841431394565
 21
7131.473022881653
 31
0.0
  0
LINE
  5
181D2
330
747D
100
AcDbEntity
  8
部品1
100
AcDbLine
 10
9285.841431394565
 20
7127.473022881654
 30
0.0
 11
9273.841431394565
 21
7127.473022881654
 31
0.0
  0
LINE
  5
181D3
330
747D
100
AcDbEntity
  8
部品1
100
AcDbLine
 10
10953.84143139456
 20
7158.473022881654
 30
0.0
 11
10953.84143139456
 21
7127.473022881655
 31
0.0
  0
LINE
  5
181D4
330
747D
100
AcDbEntity
  8
部品1
100
AcDbLine
 10
10941.84143139456
 20
7127.473022881655
 30
0.0
 11
10941.84143139456
 21
7063.473022881655
 31
0.0
  0
LINE
  5
181D5
330
747D
100
AcDbEntity
  8
部品1
100
AcDbLine
 10
10941.84143139456
 20
7063.473022881655
 30
0.0
 11
10950.84143139456
 21
7063.473022881655
 31
0.0
  0
LINE
  5
181D6
330
747D
100
AcDbEntity
  8
部品1
100
AcDbLine
 10
10950.84143139456
 20
7063.473022881655
 30
0.0
 11
10950.84143139456
 21
7054.473022881655
 31
0.0
  0
LINE
  5
181D7
330
747D
100
AcDbEntity
  8
部品1
100
AcDbLine
 10
10941.84143139456
 20
7127.473022881655
 30
0.0
 11
10953.84143139456
 21
7127.473022881655
 31
0.0
  0
LINE
  5
181D8
330
747D
100
AcDbEntity
  8
部品1
100
AcDbLine
 10
10980.84143139456
 20
7054.473022881655
 30
0.0
 11
10980.84143139456
 21
7131.473022881654
 31
0.0
  0
LINE
  5
181DA
330
747D
100
AcDbEntity
  8
部品1
100
AcDbLine
 10
10953.84143139456
 20
7131.473022881654
 30
0.0
 11
10980.84143139456
 21
7131.473022881654
 31
0.0
  0
DIMENSION
  5
181DB
330
747D
100
AcDbEntity
  8
寸法
 48
50.0
100
AcDbDimension
  2
*D30
 10
10235.84143139456
 20
6429.398004833429
 30
0.0
 11
9760.841431394567
 21
6429.398004833429
 31
0.0
 70
   160
  1
有効開口部間口\P<>
 71
     5
 42
950.0
  3
INABA_S40
100
AcDbAlignedDimension
 13
9285.841431394565
 23
7054.473022881653
 33
0.0
 14
10235.84143139456
 24
7054.473022881653
 34
0.0
100
AcDbRotatedDimension
1001
ACAD
1000
DSTYLE
1002
{
1070
    41
1040
0.5
1070
    44
1040
1.0
1070
   147
1040
0.8
1070
   271
1070
     2
1070
   272
1070
     2
1070
   289
1070
     3
1070
   340
1005
F706
1070
   343
1005
169C4
1070
   344
1005
169C4
1002
}
  0
LINE
  5
181DC
330
747D
100
AcDbEntity
  8
細線
100
AcDbLine
 10
9285.841431394565
 20
7063.473022881654
 30
0.0
 11
9285.841431394565
 21
7059.473022881701
 31
0.0
  0
LINE
  5
181DD
330
747D
100
AcDbEntity
  8
細線
100
AcDbLine
 10
9442.341324795826
 20
7077.472092427253
 30
0.0
 11
9442.341324795826
 21
7059.472092427228
 31
0.0
  0
LINE
  5
181DE
330
747D
100
AcDbEntity
  8
細線
100
AcDbLine
 10
9401.341324795827
 20
7077.472092427246
 30
0.0
 11
9401.341324795827
 21
7059.472092427228
 31
0.0
  0
LINE
  5
181DF
330
747D
100
AcDbEntity
  8
細線
100
AcDbLine
 10
9442.341324795826
 20
7077.472092427253
 30
0.0
 11
9401.341324795827
 21
7077.472092427246
 31
0.0
  0
ARC
  5
181E0
330
747D
100
AcDbEntity
  8
部品1
100
AcDbCircle
 10
9403.885480673103
 20
7058.97209242725
 30
0.0
 40
1.0
100
AcDbArc
 50
270.0
 51
19.47122063442214
  0
LINE
  5
181E1
330
747D
100
AcDbEntity
  8
部品1
 48
0.01
100
AcDbLine
 10
9396.84132479582
 20
7059.472092427249
 30
0.0
 11
9396.84132479582
 21
7058.47209242725
 31
0.0
  0
LINE
  5
181E2
330
747D
100
AcDbEntity
  8
部品1
 48
0.01
100
AcDbLine
 10
9397.341324795819
 20
7057.972092427249
 30
0.0
 11
9403.885480673103
 21
7057.972092427249
 31
0.0
  0
ARC
  5
181E3
330
747D
100
AcDbEntity
  8
部品1
 48
0.01
100
AcDbCircle
 10
9397.341324795819
 20
7058.47209242725
 30
0.0
 40
0.5
100
AcDbArc
 50
180.0
 51
270.0
  0
ARC
  5
181E4
330
747D
100
AcDbEntity
  8
部品1
100
AcDbCircle
 10
9429.341324795819
 20
7067.97209242725
 30
0.0
 40
26.0
100
AcDbArc
 50
180.0
 51
199.4712206344221
  0
ARC
  5
181E5
330
747D
100
AcDbEntity
  8
部品1
 48
0.01
100
AcDbCircle
 10
9405.34132479582
 20
7072.972092427249
 30
0.0
 40
2.0
100
AcDbArc
 50
90.0
 51
180.0
  0
LINE
  5
181E6
330
747D
100
AcDbEntity
  8
部品1
100
AcDbLine
 10
9403.341324795819
 20
7067.97209242725
 30
0.0
 11
9403.341324795819
 21
7072.972092427249
 31
0.0
  0
ARC
  5
181E7
330
747D
100
AcDbEntity
  8
部品1
100
AcDbCircle
 10
9421.841324795819
 20
7083.772092427253
 30
0.0
 40
16.0
100
AcDbArc
 50
218.3930440192126
 51
254.0576313943215
  0
ARC
  5
181E8
330
747D
100
AcDbEntity
  8
部品1
100
AcDbCircle
 10
9406.949716420632
 20
7071.972092427249
 30
0.0
 40
3.0
100
AcDbArc
 50
38.39304401921267
 51
90.0
  0
LINE
  5
181E9
330
747D
100
AcDbEntity
  8
部品1
 48
0.01
100
AcDbLine
 10
9405.34132479582
 20
7074.972092427249
 30
0.0
 11
9406.949716420632
 21
7074.972092427249
 31
0.0
  0
ARC
  5
181EA
330
747D
100
AcDbEntity
  8
部品1
100
AcDbCircle
 10
9421.841324795819
 20
7083.772092427253
 30
0.0
 40
16.0
100
AcDbArc
 50
285.9423686056786
 51
321.6069559807873
  0
LINE
  5
181EB
330
747D
100
AcDbEntity
  8
部品1
100
AcDbLine
 10
9425.41203901009
 20
7068.272092427253
 30
0.0
 11
9418.270610581549
 21
7068.272092427253
 31
0.0
  0
ARC
  5
181EC
330
747D
100
AcDbEntity
  8
部品1
100
AcDbCircle
 10
9425.41203901009
 20
7071.272092427253
 30
0.0
 40
3.0
100
AcDbArc
 50
270.0
 51
285.9423686056786
  0
ARC
  5
181ED
330
747D
100
AcDbEntity
  8
部品1
100
AcDbCircle
 10
9418.270610581549
 20
7071.272092427253
 30
0.0
 40
3.0
100
AcDbArc
 50
254.0576313943215
 51
270.0
  0
LINE
  5
181EE
330
747D
100
AcDbEntity
  8
部品1
 48
0.01
100
AcDbLine
 10
9438.341324795819
 20
7074.972092427249
 30
0.0
 11
9436.732933171008
 21
7074.972092427249
 31
0.0
  0
ARC
  5
181EF
330
747D
100
AcDbEntity
  8
部品1
100
AcDbCircle
 10
9436.732933171008
 20
7071.972092427249
 30
0.0
 40
3.0
100
AcDbArc
 50
90.0
 51
141.6069559807873
  0
ARC
  5
181F0
330
747D
100
AcDbEntity
  8
部品1
 48
0.01
100
AcDbCircle
 10
9438.341324795819
 20
7072.972092427249
 30
0.0
 40
2.0
100
AcDbArc
 50
0.0
 51
90.0
  0
LINE
  5
181F1
330
747D
100
AcDbEntity
  8
部品1
100
AcDbLine
 10
9440.34132479582
 20
7067.97209242725
 30
0.0
 11
9440.34132479582
 21
7072.972092427249
 31
0.0
  0
ARC
  5
181F2
330
747D
100
AcDbEntity
  8
部品1
100
AcDbCircle
 10
9414.341324795818
 20
7067.97209242725
 30
0.0
 40
26.0
100
AcDbArc
 50
340.5287793655779
 51
0.0
  0
ARC
  5
181F3
330
747D
100
AcDbEntity
  8
部品1
100
AcDbCircle
 10
9439.797168918536
 20
7058.97209242725
 30
0.0
 40
1.0
100
AcDbArc
 50
160.5287793655778
 51
270.0
  0
LINE
  5
181F4
330
747D
100
AcDbEntity
  8
部品1
 48
0.01
100
AcDbLine
 10
9446.34132479582
 20
7057.972092427249
 30
0.0
 11
9439.728819365758
 21
7057.972092427249
 31
0.0
  0
LINE
  5
181F5
330
747D
100
AcDbEntity
  8
部品1
 48
0.01
100
AcDbLine
 10
9446.841324795819
 20
7059.472092427249
 30
0.0
 11
9446.841324795819
 21
7058.47209242725
 31
0.0
  0
LINE
  5
181F6
330
747D
100
AcDbEntity
  8
部品1
 48
0.01
100
AcDbLine
 10
9446.841324795819
 20
7059.472092427249
 30
0.0
 11
9446.841324795819
 21
7058.47209242725
 31
0.0
  0
ARC
  5
181F7
330
747D
100
AcDbEntity
  8
部品1
 48
0.01
100
AcDbCircle
 10
9446.34132479582
 20
7058.47209242725
 30
0.0
 40
0.5
100
AcDbArc
 50
270.0
 51
0.0
  0
LINE
  5
181F8
330
747D
100
AcDbEntity
  8
細線
100
AcDbLine
 10
9586.841423209149
 20
7059.473214612317
 30
0.0
 11
9589.172961499915
 21
7064.473214612303
 31
0.0
  0
LINE
  5
181F9
330
747D
100
AcDbEntity
  8
細線
100
AcDbLine
 10
9656.841431394564
 20
7059.473197058608
 30
0.0
 11
9654.509884918375
 21
7064.473214612284
 31
0.0
  0
LINE
  5
181FA
330
747D
100
AcDbEntity
  8
細線
100
AcDbLine
 10
9654.509884918375
 20
7064.473214612284
 30
0.0
 11
9589.172961499903
 21
7064.473214612275
 31
0.0
  0
LINE
  5
181FB
330
747D
100
AcDbEntity
  8
細線
100
AcDbLine
 10
9794.509884918376
 20
7064.473214612284
 30
0.0
 11
9729.172961499903
 21
7064.473214612277
 31
0.0
  0
LINE
  5
181FC
330
747D
100
AcDbEntity
  8
細線
100
AcDbLine
 10
9796.841431394563
 20
7059.473197058608
 30
0.0
 11
9794.509884918376
 21
7064.473214612284
 31
0.0
  0
LINE
  5
181FD
330
747D
100
AcDbEntity
  8
細線
100
AcDbLine
 10
9726.841423209148
 20
7059.473214612322
 30
0.0
 11
9729.172961499916
 21
7064.473214612307
 31
0.0
  0
LINE
  5
181FE
330
747D
100
AcDbEntity
  8
細線
100
AcDbLine
 10
10033.50989310379
 20
7098.473042931577
 30
0.0
 11
9968.172969685319
 21
7098.473042931566
 31
0.0
  0
LINE
  5
181FF
330
747D
100
AcDbEntity
  8
細線
100
AcDbLine
 10
10035.84143957998
 20
7093.4730253779
 30
0.0
 11
10033.50989310379
 21
7098.473042931577
 31
0.0
  0
LINE
  5
18200
330
747D
100
AcDbEntity
  8
細線
100
AcDbLine
 10
9965.841431394565
 20
7093.47304293161
 30
0.0
 11
9968.172969685333
 21
7098.473042931594
 31
0.0
  0
LINE
  5
18201
330
747D
100
AcDbEntity
  8
細線
100
AcDbLine
 10
10105.84139607567
 20
7093.473034744239
 30
0.0
 11
10108.17293436644
 21
7098.473034744225
 31
0.0
  0
LINE
  5
18202
330
747D
100
AcDbEntity
  8
細線
100
AcDbLine
 10
10175.84140426109
 20
7093.47301719053
 30
0.0
 11
10173.5098577849
 21
7098.473034744211
 31
0.0
  0
LINE
  5
18203
330
747D
100
AcDbEntity
  8
細線
100
AcDbLine
 10
10173.5098577849
 20
7098.473034744211
 30
0.0
 11
10108.17293436642
 21
7098.473034744197
 31
0.0
  0
LINE
  5
18204
330
747D
100
AcDbEntity
  8
細線
100
AcDbLine
 10
10313.50989433483
 20
7098.473014440469
 30
0.0
 11
10248.17297091636
 21
7098.473014440455
 31
0.0
  0
LINE
  5
18205
330
747D
100
AcDbEntity
  8
細線
100
AcDbLine
 10
10315.84144081102
 20
7093.472996886788
 30
0.0
 11
10313.50989433483
 21
7098.473014440469
 31
0.0
  0
LINE
  5
18206
330
747D
100
AcDbEntity
  8
細線
100
AcDbLine
 10
10245.84143139456
 20
7093.473011800523
 30
0.0
 11
10248.17297091637
 21
7098.473014440483
 31
0.0
  0
LINE
  5
18207
330
747D
100
AcDbEntity
  8
細線
 48
50.0
100
AcDbLine
 10
10188.70365331911
 20
7093.473034744239
 30
0.0
 11
10194.45917090178
 21
7111.743886034734
 31
0.0
  0
LINE
  5
18208
330
747D
100
AcDbEntity
  8
細線
 48
50.0
100
AcDbLine
 10
10194.45917090178
 20
7111.743886034734
 30
0.0
 11
10205.38761938221
 21
7111.743886034734
 31
0.0
  0
ARC
  5
18209
330
747D
100
AcDbEntity
  8
細線
 48
50.0
100
AcDbCircle
 10
10205.38761938221
 20
7110.743886034734
 30
0.0
 40
1.0
100
AcDbArc
 50
24.62431835213048
 51
90.0
  0
ARC
  5
1820A
330
747D
100
AcDbEntity
  8
細線
 48
50.0
100
AcDbCircle
 10
10216.29633149685
 20
7110.743886034734
 30
0.0
 40
1.0
100
AcDbArc
 50
90.0
 51
155.3756816478695
  0
ARC
  5
1820B
330
747D
100
AcDbEntity
  8
細線
 48
50.0
100
AcDbCircle
 10
10210.84197543953
 20
7113.243886034734
 30
0.0
 40
5.0
100
AcDbArc
 50
204.6243183521304
 51
335.3756816478695
  0
LINE
  5
1820C
330
747D
100
AcDbEntity
  8
細線
 48
50.0
100
AcDbLine
 10
10216.29633149685
 20
7111.743886034734
 30
0.0
 11
10227.22477997728
 21
7111.743886034734
 31
0.0
  0
LINE
  5
1820D
330
747D
100
AcDbEntity
  8
細線
 48
50.0
100
AcDbLine
 10
10227.22477997728
 20
7111.743886034734
 30
0.0
 11
10232.98029755995
 21
7093.473034744248
 31
0.0
  0
LINE
  5
1820E
330
747D
100
AcDbEntity
  8
細線
100
AcDbLine
 10
10551.50989433483
 20
7132.4730255216
 30
0.0
 11
10486.17297091636
 21
7132.473025521585
 31
0.0
  0
LINE
  5
1820F
330
747D
100
AcDbEntity
  8
細線
100
AcDbLine
 10
10553.84144081102
 20
7127.47300796792
 30
0.0
 11
10551.50989433483
 21
7132.4730255216
 31
0.0
  0
LINE
  5
18210
330
747D
100
AcDbEntity
  8
細線
100
AcDbLine
 10
10483.84143139456
 20
7127.473022881654
 30
0.0
 11
10486.17297091637
 21
7132.473025521615
 31
0.0
  0
LINE
  5
18211
330
747D
100
AcDbEntity
  8
細線
100
AcDbLine
 10
10623.8414219781
 20
7127.473037795387
 30
0.0
 11
10626.17296149991
 21
7132.473040435349
 31
0.0
  0
LINE
  5
18212
330
747D
100
AcDbEntity
  8
細線
100
AcDbLine
 10
10693.84143139456
 20
7127.473022881654
 30
0.0
 11
10691.50988491837
 21
7132.473040435335
 31
0.0
  0
LINE
  5
18213
330
747D
100
AcDbEntity
  8
細線
100
AcDbLine
 10
10691.50988491837
 20
7132.473040435335
 30
0.0
 11
10626.1729614999
 21
7132.473040435319
 31
0.0
  0
LINE
  5
18214
330
747D
100
AcDbEntity
  8
細線
100
AcDbLine
 10
10831.50988491837
 20
7132.473040435335
 30
0.0
 11
10766.1729614999
 21
7132.473040435319
 31
0.0
  0
LINE
  5
18215
330
747D
100
AcDbEntity
  8
細線
100
AcDbLine
 10
10833.84143139456
 20
7127.473022881654
 30
0.0
 11
10831.50988491837
 21
7132.473040435335
 31
0.0
  0
LINE
  5
18216
330
747D
100
AcDbEntity
  8
細線
100
AcDbLine
 10
10763.8414219781
 20
7127.473037795387
 30
0.0
 11
10766.17296149992
 21
7132.473040435349
 31
0.0
  0
LINE
  5
18217
330
747D
100
AcDbEntity
  8
細線
 48
50.0
100
AcDbLine
 10
9874.341431394569
 20
7103.669277272557
 30
0.0
 11
9285.841431394565
 21
7103.669277272553
 31
0.0
  0
LINE
  5
18218
330
747D
100
AcDbEntity
  8
細線
 48
50.0
100
AcDbLine
 10
9915.341431394567
 20
7074.264369276304
 30
0.0
 11
10941.84143139456
 21
7074.264369276303
 31
0.0
  0
LINE
  5
18219
330
747D
100
AcDbEntity
  8
細線
 48
50.0
100
AcDbLine
 10
10407.34143654547
 20
7107.973137830379
 30
0.0
 11
10941.84143139456
 21
7107.973137830379
 31
0.0
  0
LINE
  5
1821A
330
747D
100
AcDbEntity
  8
寸法
 48
50.0
100
AcDbLine
 10
9858.342250372963
 20
6942.731730935853
 30
0.0
 11
10077.49419054869
 21
6942.731730935853
 31
0.0
  0
LINE
  5
1821B
330
747D
100
AcDbEntity
  8
寸法
 48
50.0
100
AcDbLine
 10
10077.49419054869
 20
6942.731730935853
 30
0.0
 11
9988.209971953267
 21
6966.65536520534
 31
0.0
  0
LINE
  5
1821C
330
747D
100
AcDbEntity
  8
寸法
 48
50.0
100
AcDbLine
 10
9988.209971953267
 20
6966.65536520534
 30
0.0
 11
9988.209971953267
 21
6912.991730623549
 31
0.0
  0
LINE
  5
1821D
330
747D
100
AcDbEntity
  8
寸法
 48
50.0
100
AcDbLine
 10
9657.638429766308
 20
6909.509774450516
 30
0.0
 11
9709.044437676411
 21
6909.509774450516
 31
0.0
  0
LINE
  5
1821E
330
747D
100
AcDbEntity
  8
寸法
 48
50.0
100
AcDbLine
 10
9709.044437676411
 20
6909.509774450516
 30
0.0
 11
9709.044437676411
 21
6940.819933102682
 31
0.0
  0
LINE
  5
1821F
330
747D
100
AcDbEntity
  8
寸法
 48
50.0
100
AcDbLine
 10
9709.044437676411
 20
6940.819933102682
 30
0.0
 11
9738.805769667834
 21
6940.819933102682
 31
0.0
  0
LINE
  5
18220
330
747D
100
AcDbEntity
  8
寸法
 48
50.0
100
AcDbLine
 10
9738.805769667834
 20
6940.819933102682
 30
0.0
 11
9683.341433721359
 21
6978.399384031293
 31
0.0
  0
LINE
  5
18221
330
747D
100
AcDbEntity
  8
寸法
 48
50.0
100
AcDbLine
 10
9627.877097774884
 20
6940.819933102682
 30
0.0
 11
9683.341433721359
 21
6978.399384031293
 31
0.0
  0
LINE
  5
18222
330
747D
100
AcDbEntity
  8
寸法
 48
50.0
100
AcDbLine
 10
9657.638429766308
 20
6940.819933102682
 30
0.0
 11
9627.877097774884
 21
6940.819933102682
 31
0.0
  0
LINE
  5
18223
330
747D
100
AcDbEntity
  8
寸法
 48
50.0
100
AcDbLine
 10
9657.638429766308
 20
6909.509774450516
 30
0.0
 11
9657.638429766308
 21
6940.819933102682
 31
0.0
  0
LINE
  5
18224
330
747D
100
AcDbEntity
  8
寸法
 48
50.0
100
AcDbLine
 10
9709.044437676411
 20
6909.509774450516
 30
0.0
 11
9657.638429766308
 21
6909.509774450516
 31
0.0
  0
DIMENSION
  5
1842E
330
747D
100
AcDbEntity
  8
寸法
 48
50.0
100
AcDbDimension
  2
*D31
 10
10980.84143139456
 20
6179.402753030909
 30
0.0
 11
10104.42317534638
 21
6179.402753030909
 31
0.0
 70
   160
 71
     5
 42
1734.0
  3
INABA_S40G
100
AcDbAlignedDimension
 13
9246.841431394566
 23
7054.47302288169
 33
0.0
 14
10980.84143139456
 24
7054.473022881687
 34
0.0
100
AcDbRotatedDimension
1001
ACAD
1000
DSTYLE
1002
{
1070
   341
1005
0
1002
}
  0
DIMENSION
  5
1842F
330
747D
100
AcDbEntity
  8
寸法
100
AcDbDimension
  2
*D32
 10
8924.230185767878
 20
7056.473022881684
 30
0.0
 11
8924.230185767875
 21
6915.987741507446
 31
0.0
 70
   160
 71
     5
 42
75.0
  3
INABA_S40
100
AcDbAlignedDimension
 13
9218.841431394594
 23
7131.473022881684
 33
0.0
 14
9246.841431394573
 24
7056.473022881684
 34
0.0
 50
90.0
100
AcDbRotatedDimension
1001
ACAD
1000
DSTYLE
1002
{
1070
    41
1040
0.5
1070
    44
1040
1.0
1070
   147
1040
0.8
1070
   271
1070
     2
1070
   272
1070
     2
1070
   289
1070
     3
1070
   340
1005
F706
1070
   343
1005
169C4
1070
   344
1005
169C4
1002
}
  0
LINE
  5
184D3
330
747D
100
AcDbEntity
  8
部品1
100
AcDbLine
 10
10495.57676450881
 20
5660.396888494418
 30
0.0
 11
9732.106098280375
 21
5660.396888494418
 31
0.0
  0
LINE
  5
184D4
330
747D
100
AcDbEntity
  8
部品1
100
AcDbLine
 10
10495.57676450881
 20
5420.504566948885
 30
0.0
 11
10495.57676450881
 21
5660.396888494418
 31
0.0
  0
LINE
  5
184D5
330
747D
100
AcDbEntity
  8
部品1
100
AcDbLine
 10
9732.106098280375
 20
5420.504566948885
 30
0.0
 11
10495.57676450881
 21
5420.504566948885
 31
0.0
  0
LINE
  5
184D6
330
747D
100
AcDbEntity
  8
部品1
100
AcDbLine
 10
9732.106098280375
 20
5660.396888494418
 30
0.0
 11
9732.106098280375
 21
5420.504566948885
 31
0.0
  0
TEXT
  5
1850D
330
747D
100
AcDbEntity
  8
部品1
100
AcDbText
 10
9822.025708109412
 20
5467.503359275895
 30
0.0
 40
135.0
  1
平面図
  7
STYLE2
100
AcDbText
  0
DIMENSION
  5
1850E
330
747D
100
AcDbEntity
  8
寸法
100
AcDbDimension
  2
*D33
 10
11008.84143139457
 20
5939.645232136782
 30
0.0
 11
10101.98818172595
 21
5939.645232136782
 31
0.0
 70
   160
 71
     5
 42
1789.999999999982
  3
INABA_S40G
100
AcDbAlignedDimension
 13
9218.841431394594
 23
7131.473022881684
 33
0.0
 14
11008.84143139457
 24
7131.473022881813
 34
0.0
100
AcDbRotatedDimension
1001
ACAD
1000
DSTYLE
1002
{
1002
}
  0
LWPOLYLINE
  5
186CD
330
747D
100
AcDbEntity
  8
部品1
 48
50.0
100
AcDbPolyline
 90
        4
 70
     1
 43
0.0
 10
9345.891431394591
 20
2996.163363169647
 10
9348.791431394593
 20
2996.163363169647
 10
9348.791431394593
 20
3005.663363169647
 10
9345.891431394591
 20
3005.663363169647
  0
CIRCLE
  5
186CE
330
747D
100
AcDbEntity
  8
部品1
 48
50.0
100
AcDbCircle
 10
9347.341431394593
 20
3000.913363169647
 30
0.0
 40
9.0
  0
ARC
  5
186CF
330
747D
100
AcDbEntity
  8
細線
 48
50.0
100
AcDbCircle
 10
9347.341431394593
 20
3000.913363169647
 30
0.0
 40
4.0
100
AcDbArc
 50
111.2538091853132
 51
248.7461908146868
  0
ARC
  5
186D0
330
747D
100
AcDbEntity
  8
細線
 48
50.0
100
AcDbCircle
 10
9347.341431394593
 20
3000.913363169647
 30
0.0
 40
17.5
100
AcDbArc
 50
306.4837370612677
 51
233.5162629387323
  0
LINE
  5
186D1
330
747D
100
AcDbEntity
  8
細線
 48
50.0
100
AcDbLine
 10
9357.341431394589
 20
2977.054402588764
 30
0.0
 11
9357.341431394592
 21
2986.038888389006
 31
0.0
  0
LINE
  5
186D2
330
747D
100
AcDbEntity
  8
細線
 48
50.0
100
AcDbLine
 10
9337.341431394593
 20
2977.054402588766
 30
0.0
 11
9337.341431394593
 21
2986.038888389002
 31
0.0
  0
ARC
  5
186D3
330
747D
100
AcDbEntity
  8
細線
 48
50.0
100
AcDbCircle
 10
9347.341431394593
 20
3000.913363169647
 30
0.0
 40
26.5
100
AcDbArc
 50
249.3326835063939
 51
290.6673164933835
  0
ARC
  5
186D4
330
747D
100
AcDbEntity
  8
細線
 48
50.0
100
AcDbCircle
 10
9356.341431394586
 20
2977.054402588764
 30
0.0
 40
1.0
100
AcDbArc
 50
290.6673164936062
 51
359.9999999998958
  0
ARC
  5
186D5
330
747D
100
AcDbEntity
  8
細線
 48
50.0
100
AcDbCircle
 10
9338.341431394592
 20
2977.054402588766
 30
0.0
 40
1.0
100
AcDbArc
 50
180.0
 51
249.3326835066164
  0
ARC
  5
186D6
330
747D
100
AcDbEntity
  8
細線
 48
50.0
100
AcDbCircle
 10
9336.341431394592
 20
2986.038888389002
 30
0.0
 40
1.0
100
AcDbArc
 50
0.0
 51
53.51626293873231
  0
ARC
  5
186D7
330
747D
100
AcDbEntity
  8
細線
 48
50.0
100
AcDbCircle
 10
9358.341431394597
 20
2986.038888389006
 30
0.0
 40
1.0
100
AcDbArc
 50
126.4837370615127
 51
180.0
  0
ARC
  5
186D8
330
747D
100
AcDbEntity
  8
細線
 48
50.0
100
AcDbCircle
 10
9347.341431394593
 20
3000.913363169647
 30
0.0
 40
21.5
100
AcDbArc
 50
255.8014401250294
 51
284.1985598749706
  0
ARC
  5
186D9
330
747D
100
AcDbEntity
  8
細線
 48
50.0
100
AcDbCircle
 10
9347.341431394593
 20
3000.913363169647
 30
0.0
 40
16.5
100
AcDbArc
 50
251.9694646069326
 51
288.0305353930674
  0
LINE
  5
186DA
330
747D
100
AcDbEntity
  8
細線
 48
50.0
100
AcDbLine
 10
9352.841431394592
 20
2980.36099104384
 30
0.0
 11
9352.841431394592
 21
2984.938382731177
 31
0.0
  0
LINE
  5
186DB
330
747D
100
AcDbEntity
  8
細線
 48
50.0
100
AcDbLine
 10
9341.841431394593
 20
2980.36099104384
 30
0.0
 11
9341.841431394593
 21
2984.938382731175
 31
0.0
  0
ARC
  5
186DC
330
747D
100
AcDbEntity
  8
細線
 48
50.0
100
AcDbCircle
 10
9342.141431394596
 20
2984.938382731175
 30
0.0
 40
0.3
100
AcDbArc
 50
71.96946460693259
 51
180.0
  0
ARC
  5
186DD
330
747D
100
AcDbEntity
  8
細線
 48
50.0
100
AcDbCircle
 10
9352.541431394593
 20
2984.938382731177
 30
0.0
 40
0.3
100
AcDbArc
 50
0.0
 51
108.0305353930674
  0
ARC
  5
186DE
330
747D
100
AcDbEntity
  8
細線
 48
50.0
100
AcDbCircle
 10
9352.541431394589
 20
2980.36099104384
 30
0.0
 40
0.3
100
AcDbArc
 50
284.1985598747622
 51
0.0000000001042204
  0
ARC
  5
186DF
330
747D
100
AcDbEntity
  8
細線
 48
50.0
100
AcDbCircle
 10
9342.141431394596
 20
2980.36099104384
 30
0.0
 40
0.3
100
AcDbArc
 50
180.0
 51
255.8014401248081
  0
CIRCLE
  5
186E0
330
747D
100
AcDbEntity
  8
細線
 48
50.0
100
AcDbCircle
 10
9347.341431394593
 20
3000.913363169647
 30
0.0
 40
12.0
  0
ARC
  5
186E1
330
747D
100
AcDbEntity
  8
部品1
 48
50.0
100
AcDbCircle
 10
9347.341431394593
 20
3050.913363169647
 30
0.0
 40
8.5
100
AcDbArc
 50
114.315739171091
 51
245.684260828909
  0
CIRCLE
  5
186E2
330
747D
100
AcDbEntity
  8
細線
 48
50.0
100
AcDbCircle
 10
9347.341431394593
 20
3050.913363169647
 30
0.0
 40
4.5
  0
LWPOLYLINE
  5
186E3
330
747D
100
AcDbEntity
  8
部品1
 48
50.0
100
AcDbPolyline
 90
        2
 70
     0
 43
0.0
 10
9343.841431394592
 20
3069.58821256663
 10
9343.841431394592
 20
3058.659329862062
  0
CIRCLE
  5
186E4
330
747D
100
AcDbEntity
  8
部品1
 48
50.0
100
AcDbCircle
 10
9347.341431394593
 20
3050.913363169647
 30
0.0
 40
19.0
  0
LWPOLYLINE
  5
186E5
330
747D
100
AcDbEntity
  8
部品1
 48
50.0
100
AcDbPolyline
 90
        2
 70
     0
 43
0.0
 10
9343.841431394592
 20
3043.167396477232
 10
9343.841431394592
 20
3032.238513772664
  0
LWPOLYLINE
  5
186E6
330
747D
100
AcDbEntity
  8
部品1
 48
50.0
100
AcDbPolyline
 90
        2
 70
     0
 43
0.0
 10
9350.841431394592
 20
3058.659329862062
 10
9350.841431394592
 20
3069.58821256663
  0
ARC
  5
186E7
330
747D
100
AcDbEntity
  8
部品1
 48
50.0
100
AcDbCircle
 10
9347.341431394593
 20
3050.913363169647
 30
0.0
 40
8.5
100
AcDbArc
 50
294.315739171091
 51
65.68426082890896
  0
LWPOLYLINE
  5
186E8
330
747D
100
AcDbEntity
  8
部品1
 48
50.0
100
AcDbPolyline
 90
        2
 70
     0
 43
0.0
 10
9350.841431394592
 20
3032.238513772664
 10
9350.841431394592
 20
3043.167396477232
  0
ARC
  5
186E9
330
747D
100
AcDbEntity
  8
細線
 48
50.0
100
AcDbCircle
 10
9347.341431394593
 20
3050.913363169647
 30
0.0
 40
16.5
100
AcDbArc
 50
332.0012352654438
 51
27.99876473455621
  0
ARC
  5
186EA
330
747D
100
AcDbEntity
  8
細線
 48
50.0
100
AcDbCircle
 10
9347.341431394593
 20
3050.913363169647
 30
0.0
 40
14.0
100
AcDbArc
 50
326.4074436112986
 51
33.59255638870134
  0
LINE
  5
186EB
330
747D
100
AcDbEntity
  8
細線
 48
50.0
100
AcDbLine
 10
9332.772629110261
 20
3058.659329862062
 30
0.0
 11
9335.679527604904
 21
3058.659329862062
 31
0.0
  0
LINE
  5
186EC
330
747D
100
AcDbEntity
  8
細線
 48
50.0
100
AcDbLine
 10
9332.772629110261
 20
3043.167396477232
 30
0.0
 11
9335.679527604904
 21
3043.167396477232
 31
0.0
  0
LINE
  5
186ED
330
747D
100
AcDbEntity
  8
細線
 48
50.0
100
AcDbLine
 10
9359.003335184281
 20
3058.659329862062
 30
0.0
 11
9361.910233678928
 21
3058.659329862062
 31
0.0
  0
LINE
  5
186EE
330
747D
100
AcDbEntity
  8
細線
 48
50.0
100
AcDbLine
 10
9359.003335184281
 20
3043.167396477232
 30
0.0
 11
9361.910233678928
 21
3043.167396477232
 31
0.0
  0
ARC
  5
186EF
330
747D
100
AcDbEntity
  8
細線
 48
50.0
100
AcDbCircle
 10
9347.341431394593
 20
3050.913363169647
 30
0.0
 40
14.0
100
AcDbArc
 50
146.4074436112986
 51
213.5925563887013
  0
ARC
  5
186F0
330
747D
100
AcDbEntity
  8
細線
 48
50.0
100
AcDbCircle
 10
9347.341431394593
 20
3050.913363169647
 30
0.0
 40
16.5
100
AcDbArc
 50
152.0012352654438
 51
207.9987647345562
  0
ARC
  5
186F1
330
747D
100
AcDbEntity
  8
部品1
 48
50.0
100
AcDbCircle
 10
9320.841431394592
 20
3076.413363169647
 30
0.0
 40
5.0
100
AcDbArc
 50
90.0
 51
180.0
  0
ARC
  5
186F2
330
747D
100
AcDbEntity
  8
部品1
 48
50.0
100
AcDbCircle
 10
9320.841431394592
 20
2965.413363169647
 30
0.0
 40
5.0
100
AcDbArc
 50
180.0
 51
270.0
  0
ARC
  5
186F3
330
747D
100
AcDbEntity
  8
部品1
 48
50.0
100
AcDbCircle
 10
9373.841431394593
 20
2965.413363169647
 30
0.0
 40
5.0
100
AcDbArc
 50
270.0
 51
0.0
  0
ARC
  5
186F4
330
747D
100
AcDbEntity
  8
部品1
 48
50.0
100
AcDbCircle
 10
9373.841431394593
 20
3076.413363169647
 30
0.0
 40
5.0
100
AcDbArc
 50
0.0
 51
90.0
  0
LINE
  5
186F6
330
747D
100
AcDbEntity
  8
部品1
 48
50.0
100
AcDbLine
 10
9315.841431394593
 20
2965.413363169647
 30
0.0
 11
9315.841431394593
 21
3076.413363169647
 31
0.0
  0
LINE
  5
186F7
330
747D
100
AcDbEntity
  8
部品1
 48
50.0
100
AcDbLine
 10
9373.841431394593
 20
2960.413363169647
 30
0.0
 11
9320.841431394592
 21
2960.413363169647
 31
0.0
  0
LINE
  5
186F8
330
747D
100
AcDbEntity
  8
部品1
 48
50.0
100
AcDbLine
 10
9378.841431394592
 20
3076.413363169647
 30
0.0
 11
9378.841431394592
 21
2965.413363169647
 31
0.0
  0
ENDSEC
  0
SECTION
  2
OBJECTS
  0
DICTIONARY
  5
7471
330
0
100
AcDbDictionary
281
     1
  3
ACAD_COLOR
350
169B9
  3
ACAD_GROUP
350
7472
  3
ACAD_LAYOUT
350
169BA
  3
ACAD_MATERIAL
350
169B8
  3
ACAD_MLINESTYLE
350
7473
  3
ACAD_PLOTSETTINGS
350
169BB
  3
ACAD_PLOTSTYLENAME
350
169B6
  3
ACDBHEADERROUNDTRIPXREC
350
18717
  3
AcDbVariableDictionary
350
18713
  3
CONTENTDICTIONARY
350
E71C
  3
DRAWINGVARIABLESDICT
350
F3B9
  0
DICTIONARY
  5
16B47
330
7467
100
AcDbDictionary
280
     1
281
     1
  3
ACAD_LAYERSTATES
360
16B48
  0
DICTIONARY
  5
169B9
102
{ACAD_REACTORS
330
7471
102
}
330
7471
100
AcDbDictionary
281
     1
  0
DICTIONARY
  5
7472
102
{ACAD_REACTORS
330
7471
102
}
330
7471
100
AcDbDictionary
281
     1
  0
DICTIONARY
  5
169BA
102
{ACAD_REACTORS
330
7471
102
}
330
7471
100
AcDbDictionary
281
     1
  3
Model
350
169BC
  3
レイアウト1
350
169BD
  0
DICTIONARY
  5
169B8
102
{ACAD_REACTORS
330
7471
102
}
330
7471
100
AcDbDictionary
281
     1
  0
DICTIONARY
  5
7473
102
{ACAD_REACTORS
330
7471
102
}
330
7471
100
AcDbDictionary
281
     1
  3
STANDARD
350
7480
  0
DICTIONARY
  5
169BB
102
{ACAD_REACTORS
330
7471
102
}
330
7471
100
AcDbDictionary
281
     1
  0
ACDBDICTIONARYWDFLT
  5
169B6
102
{ACAD_REACTORS
330
7471
102
}
330
7471
100
AcDbDictionary
281
     1
  3
Normal
350
169B7
100
AcDbDictionaryWithDefault
340
169B7
  0
DICTIONARY
  5
18717
102
{ACAD_REACTORS
330
7471
102
}
330
7471
100
AcDbDictionary
281
     1
  3
COLORDICT
350
18719
  3
MATERIALDICT
350
18718
  0
DICTIONARY
  5
18713
102
{ACAD_REACTORS
330
7471
102
}
330
7471
100
AcDbDictionary
281
     1
  3
DIMASSOC
350
18714
  3
PROJECTNAME
350
18715
  0
DICTIONARY
  5
E71C
102
{ACAD_REACTORS
330
7471
102
}
330
7471
100
AcDbDictionary
281
     1
  0
DICTIONARY
  5
F3B9
102
{ACAD_REACTORS
330
7471
102
}
330
7471
100
AcDbDictionary
281
     1
1001
DRAWINGVARIABLESXDATA
1000
POLARMODE
1000
1
  0
DICTIONARY
  5
16B48
102
{ACAD_REACTORS
330
16B47
102
}
330
16B47
100
AcDbDictionary
281
     1
  0
LAYOUT
  5
169BC
102
{ACAD_XDICTIONARY
360
1871A
102
}
102
{ACAD_REACTORS
330
169BA
102
}
330
169BA
100
AcDbPlotSettings
  1

  2
クセロPDF
  4
A3
  6

 40
3.174999952316284
 41
3.174999952316284
 42
3.17498779296875
 43
3.17498779296875
 44
419.9466552734374
 45
296.9259948730469
 46
0.0
 47
0.0
 48
3.619013395666115
 49
-4.192117100517862
140
820.022926294543
141
573.2392198881443
142
1.0
143
39.99735023620806
 70
 11952
 72
     1
 73
     0
 74
     2
  7
inaba.ctb
 75
     0
147
0.0250016562120842
148
25.79074261211281
149
125.8223078213959
100
AcDbLayout
  1
Model
 70
     1
 71
     0
 10
0.0
 20
0.0
 11
12.0
 21
9.0
 12
0.0
 22
0.0
 32
0.0
 14
0.0
 24
0.0
 34
0.0
 15
0.0
 25
0.0
 35
0.0
146
0.0
 13
0.0
 23
0.0
 33
0.0
 16
1.0
 26
0.0
 36
0.0
 17
0.0
 27
1.0
 37
0.0
 76
     0
330
747D
  0
LAYOUT
  5
169BD
102
{ACAD_XDICTIONARY
360
1871C
102
}
102
{ACAD_REACTORS
330
169BA
102
}
330
169BA
100
AcDbPlotSettings
  1

  2
Microsoft Office Document Image Writer
  4

  6

 40
0.0
 41
0.0
 42
0.0
 43
0.0
 44
0.0
 45
0.0
 46
0.0
 47
0.0
 48
0.0
 49
0.0
140
0.0
141
0.0
142
1.0
143
1.0
 70
   688
 72
     0
 73
     0
 74
     5
  7

 75
    16
147
1.0
148
0.0
149
0.0
100
AcDbLayout
  1
レイアウト1
 70
     0
 71
     1
 10
0.0
 20
0.0
 11
420.0
 21
297.0
 12
0.0
 22
0.0
 32
0.0
 14
1.000000000000000E+20
 24
1.000000000000000E+20
 34
1.000000000000000E+20
 15
-1.000000000000000E+20
 25
-1.000000000000000E+20
 35
-1.000000000000000E+20
146
0.0
 13
0.0
 23
0.0
 33
0.0
 16
1.0
 26
0.0
 36
0.0
 17
0.0
 27
1.0
 37
0.0
 76
     0
330
747A
  0
MLINESTYLE
  5
7480
102
{ACAD_REACTORS
330
7473
102
}
330
7473
100
AcDbMlineStyle
  2
STANDARD
 70
     0
  3

 62
     0
 51
90.0
 52
90.0
 71
     2
 49
0.5
 62
   256
  6
BYLAYER
 49
-0.5
 62
   256
  6
BYLAYER
  0
ACDBPLACEHOLDER
  5
169B7
102
{ACAD_REACTORS
330
169B6
102
}
330
169B6
  0
XRECORD
  5
18719
102
{ACAD_REACTORS
330
18717
102
}
330
18717
100
AcDbXrecord
280
     1
340
169B9
  0
XRECORD
  5
18718
102
{ACAD_REACTORS
330
18717
102
}
330
18717
100
AcDbXrecord
280
     1
340
169B8
  0
DICTIONARYVAR
  5
18714
102
{ACAD_REACTORS
330
18713
102
}
330
18713
100
DictionaryVariables
280
     0
  1
1
  0
DICTIONARYVAR
  5
18715
102
{ACAD_REACTORS
330
18713
102
}
330
18713
100
DictionaryVariables
280
     0
  1

  0
DICTIONARY
  5
1871A
330
169BC
100
AcDbDictionary
280
     1
281
     1
  3
ACAD_XREC_ROUNDTRIP
360
1871B
  0
DICTIONARY
  5
1871C
330
169BD
100
AcDbDictionary
280
     1
281
     1
  3
ACAD_XREC_ROUNDTRIP
360
1871D
  0
XRECORD
  5
1871B
102
{ACAD_REACTORS
330
1871A
102
}
330
1871A
100
AcDbXrecord
280
     1
102
SHADEPLOT
 70
     0
102
SHADEPLOTRESLEVEL
 70
     2
102
SHADEPLOTCUSTOMDPI
 70
   150
  0
XRECORD
  5
1871D
102
{ACAD_REACTORS
330
1871C
102
}
330
1871C
100
AcDbXrecord
280
     1
102
SHADEPLOT
 70
     0
102
SHADEPLOTRESLEVEL
 70
     2
102
SHADEPLOTCUSTOMDPI
 70
   300
  0
ENDSEC
  0
EOF
