  0
SECTION
  2
HEADER
  9
$ACADVER
  1
AC1015
  9
$ACADMAINTVER
 70
    20
  9
$DWGCODEPAGE
  3
ANSI_932
  9
$INSBASE
 10
0.0
 20
0.0
 30
0.0
  9
$EXTMIN
 10
139.9999999999995
 20
-0.0000000000000909
 30
0.0
  9
$EXTMAX
 10
16307.2
 20
11409.6
 30
0.0
  9
$LIMMIN
 10
0.0
 20
0.0
  9
$LIMMAX
 10
16800.0
 20
11880.0
  9
$ORTHOMODE
 70
     0
  9
$REGENMODE
 70
     1
  9
$FILLMODE
 70
     1
  9
$QTEXTMODE
 70
     0
  9
$MIRRTEXT
 70
     1
  9
$LTSCALE
 40
20.0
  9
$ATTMODE
 70
     1
  9
$TEXTSIZE
 40
4.0
  9
$TRACEWID
 40
1.0
  9
$TEXTSTYLE
  7
STYLE1
  9
$CLAYER
  8
寸法
  9
$CELTYPE
  6
BYLAYER
  9
$CECOLOR
 62
   256
  9
$CELTSCALE
 40
50.0
  9
$DISPSILH
 70
     0
  9
$DIMSCALE
 40
40.0
  9
$DIMASZ
 40
2.5
  9
$DIMEXO
 40
0.5
  9
$DIMDLI
 40
7.0
  9
$DIMRND
 40
0.0
  9
$DIMDLE
 40
0.0
  9
$DIMEXE
 40
1.5
  9
$DIMTP
 40
0.0
  9
$DIMTM
 40
0.0
  9
$DIMTXT
 40
3.0
  9
$DIMCEN
 40
0.0
  9
$DIMTSZ
 40
0.0
  9
$DIMTOL
 70
     0
  9
$DIMLIM
 70
     0
  9
$DIMTIH
 70
     0
  9
$DIMTOH
 70
     0
  9
$DIMSE1
 70
     0
  9
$DIMSE2
 70
     0
  9
$DIMTAD
 70
     3
  9
$DIMZIN
 70
     8
  9
$DIMBLK
  1

  9
$DIMASO
 70
     1
  9
$DIMSHO
 70
     1
  9
$DIMPOST
  1

  9
$DIMAPOST
  1

  9
$DIMALT
 70
     0
  9
$DIMALTD
 70
     2
  9
$DIMALTF
 40
0.0394
  9
$DIMLFAC
 40
1.0
  9
$DIMTOFL
 70
     1
  9
$DIMTVP
 40
0.0
  9
$DIMTIX
 70
     1
  9
$DIMSOXD
 70
     0
  9
$DIMSAH
 70
     1
  9
$DIMBLK1
  1
DOTSMALL
  9
$DIMBLK2
  1
DOTSMALL
  9
$DIMSTYLE
  2
INABA_S40G
  9
$DIMCLRD
 70
     0
  9
$DIMCLRE
 70
     0
  9
$DIMCLRT
 70
     7
  9
$DIMTFAC
 40
1.0
  9
$DIMGAP
 40
1.0
  9
$DIMJUST
 70
     0
  9
$DIMSD1
 70
     0
  9
$DIMSD2
 70
     0
  9
$DIMTOLJ
 70
     1
  9
$DIMTZIN
 70
     0
  9
$DIMALTZ
 70
     0
  9
$DIMALTTZ
 70
     0
  9
$DIMUPT
 70
     1
  9
$DIMDEC
 70
     1
  9
$DIMTDEC
 70
     4
  9
$DIMALTU
 70
     2
  9
$DIMALTTD
 70
     2
  9
$DIMTXSTY
  7
STYLE1
  9
$DIMAUNIT
 70
     0
  9
$DIMADEC
 70
     0
  9
$DIMALTRND
 40
0.0
  9
$DIMAZIN
 70
     0
  9
$DIMDSEP
 70
    46
  9
$DIMATFIT
 70
     3
  9
$DIMFRAC
 70
     0
  9
$DIMLDRBLK
  1

  9
$DIMLUNIT
 70
     2
  9
$DIMLWD
 70
    -2
  9
$DIMLWE
 70
    -2
  9
$DIMTMOVE
 70
     0
  9
$LUNITS
 70
     2
  9
$LUPREC
 70
     1
  9
$SKETCHINC
 40
1.0
  9
$FILLETRAD
 40
3.0
  9
$AUNITS
 70
     0
  9
$AUPREC
 70
     0
  9
$MENU
  1
acad
  9
$ELEVATION
 40
0.0
  9
$PELEVATION
 40
0.0
  9
$THICKNESS
 40
0.0
  9
$LIMCHECK
 70
     0
  9
$CHAMFERA
 40
0.0
  9
$CHAMFERB
 40
0.0
  9
$CHAMFERC
 40
0.0
  9
$CHAMFERD
 40
0.0
  9
$SKPOLY
 70
     0
  9
$TDCREATE
 40
2451368.612993866
  9
$TDUCREATE
 40
2451368.237993866
  9
$TDUPDATE
 40
2455575.686146910
  9
$TDUUPDATE
 40
2455575.311146910
  9
$TDINDWG
 40
0.6784535995
  9
$TDUSRTIMER
 40
0.6784535995
  9
$USRTIMER
 70
     1
  9
$ANGBASE
 50
0.0
  9
$ANGDIR
 70
     0
  9
$PDMODE
 70
     3
  9
$PDSIZE
 40
2.0
  9
$PLINEWID
 40
0.0
  9
$SPLFRAME
 70
     0
  9
$SPLINETYPE
 70
     6
  9
$SPLINESEGS
 70
     8
  9
$HANDSEED
  5
1A236
  9
$SURFTAB1
 70
     6
  9
$SURFTAB2
 70
     6
  9
$SURFTYPE
 70
     6
  9
$SURFU
 70
     6
  9
$SURFV
 70
     6
  9
$UCSBASE
  2

  9
$UCSNAME
  2

  9
$UCSORG
 10
0.0
 20
0.0
 30
0.0
  9
$UCSXDIR
 10
1.0
 20
0.0
 30
0.0
  9
$UCSYDIR
 10
0.0
 20
1.0
 30
0.0
  9
$UCSORTHOREF
  2

  9
$UCSORTHOVIEW
 70
     0
  9
$UCSORGTOP
 10
0.0
 20
0.0
 30
0.0
  9
$UCSORGBOTTOM
 10
0.0
 20
0.0
 30
0.0
  9
$UCSORGLEFT
 10
0.0
 20
0.0
 30
0.0
  9
$UCSORGRIGHT
 10
0.0
 20
0.0
 30
0.0
  9
$UCSORGFRONT
 10
0.0
 20
0.0
 30
0.0
  9
$UCSORGBACK
 10
0.0
 20
0.0
 30
0.0
  9
$PUCSBASE
  2

  9
$PUCSNAME
  2

  9
$PUCSORG
 10
0.0
 20
0.0
 30
0.0
  9
$PUCSXDIR
 10
1.0
 20
0.0
 30
0.0
  9
$PUCSYDIR
 10
0.0
 20
1.0
 30
0.0
  9
$PUCSORTHOREF
  2

  9
$PUCSORTHOVIEW
 70
     0
  9
$PUCSORGTOP
 10
0.0
 20
0.0
 30
0.0
  9
$PUCSORGBOTTOM
 10
0.0
 20
0.0
 30
0.0
  9
$PUCSORGLEFT
 10
0.0
 20
0.0
 30
0.0
  9
$PUCSORGRIGHT
 10
0.0
 20
0.0
 30
0.0
  9
$PUCSORGFRONT
 10
0.0
 20
0.0
 30
0.0
  9
$PUCSORGBACK
 10
0.0
 20
0.0
 30
0.0
  9
$USERI1
 70
     0
  9
$USERI2
 70
     0
  9
$USERI3
 70
     0
  9
$USERI4
 70
     0
  9
$USERI5
 70
     0
  9
$USERR1
 40
0.0
  9
$USERR2
 40
0.0
  9
$USERR3
 40
0.0
  9
$USERR4
 40
0.0
  9
$USERR5
 40
0.0
  9
$WORLDVIEW
 70
     1
  9
$SHADEDGE
 70
     3
  9
$SHADEDIF
 70
    70
  9
$TILEMODE
 70
     1
  9
$MAXACTVP
 70
    16
  9
$PINSBASE
 10
0.0
 20
0.0
 30
0.0
  9
$PLIMCHECK
 70
     0
  9
$PEXTMIN
 10
1.000000000000000E+20
 20
1.000000000000000E+20
 30
1.000000000000000E+20
  9
$PEXTMAX
 10
-1.000000000000000E+20
 20
-1.000000000000000E+20
 30
-1.000000000000000E+20
  9
$PLIMMIN
 10
0.0
 20
0.0
  9
$PLIMMAX
 10
420.0
 20
297.0
  9
$UNITMODE
 70
     0
  9
$VISRETAIN
 70
     0
  9
$PLINEGEN
 70
     0
  9
$PSLTSCALE
 70
     0
  9
$TREEDEPTH
 70
  3020
  9
$CMLSTYLE
  2
STANDARD
  9
$CMLJUST
 70
     0
  9
$CMLSCALE
 40
1.0
  9
$PROXYGRAPHICS
 70
     1
  9
$MEASUREMENT
 70
     1
  9
$CELWEIGHT
370
    -1
  9
$ENDCAPS
280
     0
  9
$JOINSTYLE
280
     0
  9
$LWDISPLAY
290
     0
  9
$INSUNITS
 70
     0
  9
$HYPERLINKBASE
  1

  9
$STYLESHEET
  1

  9
$XEDIT
290
     1
  9
$CEPSNTYPE
380
     0
  9
$PSTYLEMODE
290
     1
  9
$FINGERPRINTGUID
  2
{A2D64C07-F37B-45F9-91AA-5275AAB4FCA1}
  9
$VERSIONGUID
  2
{705CB13D-287D-4210-8CE4-AFD1C5C8EC9A}
  9
$EXTNAMES
290
     1
  9
$PSVPSCALE
 40
0.0
  9
$OLESTARTUP
290
     0
  0
ENDSEC
  0
SECTION
  2
CLASSES
  0
CLASS
  1
ACDBDICTIONARYWDFLT
  2
AcDbDictionaryWithDefault
  3
ObjectDBX Classes
 90
        0
280
     0
281
     0
  0
CLASS
  1
DICTIONARYVAR
  2
AcDbDictionaryVar
  3
ObjectDBX Classes
 90
        0
280
     0
281
     0
  0
CLASS
  1
ACDBPLACEHOLDER
  2
AcDbPlaceHolder
  3
ObjectDBX Classes
 90
        0
280
     0
281
     0
  0
CLASS
  1
LAYOUT
  2
AcDbLayout
  3
ObjectDBX Classes
 90
        0
280
     0
281
     0
  0
ENDSEC
  0
SECTION
  2
TABLES
  0
TABLE
  2
VPORT
  5
746D
330
0
100
AcDbSymbolTable
 70
     2
  0
VPORT
  5
1A22E
330
746D
100
AcDbSymbolTableRecord
100
AcDbViewportTableRecord
  2
*Active
 70
     0
 10
0.0
 20
0.0
 11
1.0
 21
1.0
 12
8223.761025238502
 22
6348.703162895247
 13
0.0
 23
0.0
 14
10.0
 24
10.0
 15
10.0
 25
10.0
 16
0.0
 26
0.0
 36
1.0
 17
0.0
 27
0.0
 37
0.0
 40
12805.60689082044
 41
1.525925925925925
 42
50.0
 43
0.0
 44
0.0
 50
0.0
 51
0.0
 71
     0
 72
     0
 73
     1
 74
     0
 75
     0
 76
     0
 77
     0
 78
     0
281
     0
 65
     1
110
0.0
120
0.0
130
0.0
111
1.0
121
0.0
131
0.0
112
0.0
122
1.0
132
0.0
 79
     0
146
0.0
  0
ENDTAB
  0
TABLE
  2
LTYPE
  5
746A
330
0
100
AcDbSymbolTable
 70
     4
  0
LTYPE
  5
7477
330
746A
100
AcDbSymbolTableRecord
100
AcDbLinetypeTableRecord
  2
BYBLOCK
 70
     0
  3

 72
    65
 73
     0
 40
0.0
  0
LTYPE
  5
7478
330
746A
100
AcDbSymbolTableRecord
100
AcDbLinetypeTableRecord
  2
BYLAYER
 70
     0
  3

 72
    65
 73
     0
 40
0.0
  0
LTYPE
  5
7479
330
746A
100
AcDbSymbolTableRecord
100
AcDbLinetypeTableRecord
  2
CONTINUOUS
 70
     0
  3
Solid line
 72
    65
 73
     0
 40
0.0
  0
LTYPE
  5
7816
330
746A
100
AcDbSymbolTableRecord
100
AcDbLinetypeTableRecord
  2
CENTER
 70
     0
  3
____ _ ____ _ ____ _ ____ _ ____ _ ____ _ ____ 
 72
    65
 73
     4
 40
2.0
 49
1.25
 74
     0
 49
-0.25
 74
     0
 49
0.25
 74
     0
 49
-0.25
 74
     0
  0
LTYPE
  5
781A
330
746A
100
AcDbSymbolTableRecord
100
AcDbLinetypeTableRecord
  2
HIDDEN
 70
     0
  3
__ __ __ __ __ __ __ __ __ __ __ __ __ __ __ __
 72
    65
 73
     2
 40
0.375
 49
0.25
 74
     0
 49
-0.125
 74
     0
  0
LTYPE
  5
781B
330
746A
100
AcDbSymbolTableRecord
100
AcDbLinetypeTableRecord
  2
PHANTOM
 70
     0
  3
______  __  __  ______  __  __  ______  __  __ 
 72
    65
 73
     6
 40
2.5
 49
1.25
 74
     0
 49
-0.25
 74
     0
 49
0.25
 74
     0
 49
-0.25
 74
     0
 49
0.25
 74
     0
 49
-0.25
 74
     0
  0
ENDTAB
  0
TABLE
  2
LAYER
  5
7467
102
{ACAD_XDICTIONARY
360
18E71
102
}
330
0
100
AcDbSymbolTable
 70
    12
  0
LAYER
  5
7474
330
7467
100
AcDbSymbolTableRecord
100
AcDbLayerTableRecord
  2
0
 70
     0
 62
     7
  6
CONTINUOUS
370
    -3
390
18CD5
  0
LAYER
  5
DEB2
330
7467
100
AcDbSymbolTableRecord
100
AcDbLayerTableRecord
  2
センター
 70
     0
 62
     3
  6
CENTER
370
    -3
390
18CD5
  0
LAYER
  5
DEB3
330
7467
100
AcDbSymbolTableRecord
100
AcDbLayerTableRecord
  2
寸法
 70
     0
 62
     4
  6
CONTINUOUS
370
    -3
390
18CD5
  0
LAYER
  5
DEB4
330
7467
100
AcDbSymbolTableRecord
100
AcDbLayerTableRecord
  2
部品1
 70
     0
 62
     7
  6
CONTINUOUS
370
    -3
390
18CD5
  0
LAYER
  5
DEB5
330
7467
100
AcDbSymbolTableRecord
100
AcDbLayerTableRecord
  2
補助
 70
     0
 62
    -1
  6
CONTINUOUS
370
    -3
390
18CD5
  0
LAYER
  5
DEB6
330
7467
100
AcDbSymbolTableRecord
100
AcDbLayerTableRecord
  2
文字
 70
     0
 62
     7
  6
CONTINUOUS
370
    -3
390
18CD5
  0
LAYER
  5
F255
330
7467
100
AcDbSymbolTableRecord
100
AcDbLayerTableRecord
  2
DEFPOINTS
 70
     0
 62
     7
  6
CONTINUOUS
290
     0
370
    -3
390
18CD5
  0
LAYER
  5
10B54
330
7467
100
AcDbSymbolTableRecord
100
AcDbLayerTableRecord
  2
仕様書枠
 70
     0
 62
   230
  6
CONTINUOUS
370
    -3
390
18CD5
  0
LAYER
  5
11729
330
7467
100
AcDbSymbolTableRecord
100
AcDbLayerTableRecord
  2
Ｇ．Ｌ
 70
     0
 62
    30
  6
CONTINUOUS
370
    -3
390
18CD5
  0
LAYER
  5
1173F
330
7467
100
AcDbSymbolTableRecord
100
AcDbLayerTableRecord
  2
細線
 70
     0
 62
     5
  6
CONTINUOUS
370
    -3
390
18CD5
  0
LAYER
  5
12CC4
330
7467
100
AcDbSymbolTableRecord
100
AcDbLayerTableRecord
  2
想像線
 70
     0
 62
     6
  6
PHANTOM
370
    -3
390
18CD5
  0
LAYER
  5
142E2
330
7467
100
AcDbSymbolTableRecord
100
AcDbLayerTableRecord
  2
破線
 70
     0
 62
     2
  6
HIDDEN
370
    -3
390
18CD5
  0
ENDTAB
  0
TABLE
  2
STYLE
  5
7468
330
0
100
AcDbSymbolTable
 70
     4
  0
STYLE
  5
7475
330
7468
100
AcDbSymbolTableRecord
100
AcDbTextStyleTableRecord
  2
STANDARD
 70
     0
 40
0.0
 41
1.0
 50
0.0
 71
     0
 42
4.0
  3
txt
  4
C:\AutoCAD LT\bigfont.shx
  0
STYLE
  5
F706
330
7468
100
AcDbSymbolTableRecord
100
AcDbTextStyleTableRecord
  2
STYLE1
 70
     0
 40
0.0
 41
1.0
 50
0.0
 71
     0
 42
4.0
  3
isocp.shx
  4
bigfont.shx
  0
STYLE
  5
103BF
330
7468
100
AcDbSymbolTableRecord
100
AcDbTextStyleTableRecord
  2
STYLE2
 70
     0
 40
0.0
 41
1.0
 50
0.0
 71
     0
 42
100.0
  3
MS PGothic.ttf
  4

1001
ACAD
1000
MS PGothic
1071
    32818
  0
STYLE
  5
198DB
330
7468
100
AcDbSymbolTableRecord
100
AcDbTextStyleTableRecord
  2
STYLE3
 70
     0
 40
0.0
 41
1.0
 50
0.0
 71
     0
 42
100.0
  3

  4

1001
ACAD
1000
DFPGothic-EB
1071
    32818
  0
ENDTAB
  0
TABLE
  2
VIEW
  5
746B
330
0
100
AcDbSymbolTable
 70
     0
  0
ENDTAB
  0
TABLE
  2
UCS
  5
746C
330
0
100
AcDbSymbolTable
 70
     0
  0
ENDTAB
  0
TABLE
  2
APPID
  5
746E
330
0
100
AcDbSymbolTable
 70
     6
  0
APPID
  5
7476
330
746E
100
AcDbSymbolTableRecord
100
AcDbRegAppTableRecord
  2
ACAD
 70
     0
  0
APPID
  5
DEA9
330
746E
100
AcDbSymbolTableRecord
100
AcDbRegAppTableRecord
  2
CONTENTBLOCKICON
 70
     0
  0
APPID
  5
DEAA
330
746E
100
AcDbSymbolTableRecord
100
AcDbRegAppTableRecord
  2
CONTENTBLOCKDESCRIPTION
 70
     0
  0
APPID
  5
E71D
330
746E
100
AcDbSymbolTableRecord
100
AcDbRegAppTableRecord
  2
CONTENTTABDATA
 70
     0
  0
APPID
  5
E71E
330
746E
100
AcDbSymbolTableRecord
100
AcDbRegAppTableRecord
  2
CONTENTCURRENTTAB
 70
     0
  0
APPID
  5
F3BA
330
746E
100
AcDbSymbolTableRecord
100
AcDbRegAppTableRecord
  2
DRAWINGVARIABLESXDATA
 70
     0
  0
ENDTAB
  0
TABLE
  2
DIMSTYLE
  5
746F
330
0
100
AcDbSymbolTable
 70
     5
100
AcDbDimStyleTable
 71
     0
  0
DIMSTYLE
105
7484
330
746F
100
AcDbSymbolTableRecord
100
AcDbDimStyleTableRecord
  2
JIS
 70
     0
 41
2.5
 42
1.0
 43
7.0
 44
1.0
 73
     0
 74
     0
 77
     1
 78
     8
140
2.5
141
0.0
143
0.0394
147
0.0
172
     1
174
     1
175
     1
340
7475
  0
DIMSTYLE
105
F71F
102
{ACAD_REACTORS
330
191B6
330
191B7
330
191B8
330
191C4
330
191C8
330
19214
330
19215
330
19216
330
19217
330
19218
330
1922D
330
19236
330
19237
330
19238
330
19239
330
1924E
330
19251
330
19252
330
19253
330
19254
330
19255
330
19258
330
1926A
330
1926D
330
19284
330
19286
330
1929D
330
1917B
330
19EB8
330
19EBA
102
}
330
746F
100
AcDbSymbolTableRecord
100
AcDbDimStyleTableRecord
  2
INABA_S40G
 70
     0
 40
40.0
 41
2.5
 42
0.5
 43
7.0
 44
1.5
 73
     0
 74
     0
 77
     3
 78
     8
140
3.0
141
0.0
143
0.0394
147
1.0
172
     1
173
     1
174
     1
178
     7
271
     1
288
     1
340
F706
341
F770
343
F770
344
F770
  0
DIMSTYLE
105
18E70
102
{ACAD_REACTORS
330
19C1F
330
19EB9
102
}
330
746F
100
AcDbSymbolTableRecord
100
AcDbDimStyleTableRecord
  2
INABA_S40
 70
     0
 40
40.0
 41
2.5
 42
0.5
 43
7.0
 44
1.5
 73
     0
 74
     0
 77
     3
 78
     8
140
3.0
141
0.0
143
0.0394
147
1.0
172
     1
173
     1
174
     1
175
     1
178
     7
340
7475
  0
DIMSTYLE
105
198DC
330
746F
100
AcDbSymbolTableRecord
100
AcDbDimStyleTableRecord
  2
INABA_S50G
 70
     0
 41
125.0
 42
25.0
 43
7.0
 44
75.0
 73
     0
 74
     0
 77
     3
 78
     8
140
150.0
141
0.0
143
0.0394
147
25.0
172
     1
173
     1
174
     1
175
     1
178
     7
271
     1
340
F706
341
F770
343
F770
344
F770
  0
DIMSTYLE
105
1A1C4
330
746F
100
AcDbSymbolTableRecord
100
AcDbDimStyleTableRecord
  2
INABA_S20G
 70
     0
 40
20.0
 41
2.5
 42
0.5
 43
7.0
 44
1.5
 73
     0
 74
     0
 77
     3
 78
     8
140
3.0
141
0.0
143
0.0394
147
1.0
172
     1
173
     1
174
     1
178
     7
271
     1
340
F706
341
F770
343
F770
344
F770
  0
ENDTAB
  0
TABLE
  2
BLOCK_RECORD
  5
7466
330
0
100
AcDbSymbolTable
 70
    34
  0
BLOCK_RECORD
  5
747D
330
7466
100
AcDbSymbolTableRecord
100
AcDbBlockTableRecord
  2
*MODEL_SPACE
340
18CDA
  0
BLOCK_RECORD
  5
747A
330
7466
100
AcDbSymbolTableRecord
100
AcDbBlockTableRecord
  2
*PAPER_SPACE
340
18CDB
  0
BLOCK_RECORD
  5
F770
330
7466
100
AcDbSymbolTableRecord
100
AcDbBlockTableRecord
  2
_DOTSMALL
340
0
102
{BLKREFS
331
199D1
331
199D2
331
19A45
331
19A46
331
19A4E
331
19A4F
331
19A57
331
19A58
331
19A61
331
19A62
331
19A6C
331
19A6D
331
19A76
331
19A77
331
19A7F
331
19A80
331
19A88
331
19A89
331
19A91
331
19A92
331
19A9C
331
19A9D
331
19AA6
331
19AA7
331
19AAF
331
19AB0
331
19AB8
331
19AB9
331
19AC1
331
19AC2
331
19ACC
331
19ACD
331
19AD5
331
19AD6
331
19AE0
331
19AE1
331
1A136
331
1A137
331
1A14A
331
1A14B
331
1A15C
331
1A15D
331
1A165
331
1A166
331
1A16E
331
1A16F
331
1A179
331
1A17A
331
1A182
331
1A183
331
1A18D
331
1A18E
331
1A198
331
1A199
331
1A1A3
331
1A1A4
331
1A1AC
331
1A1AD
331
1A1B5
331
1A1B6
102
}
  0
BLOCK_RECORD
  5
18CE2
330
7466
100
AcDbSymbolTableRecord
100
AcDbBlockTableRecord
  2
_DOT
340
0
102
{BLKREFS
331
1A141
331
1A142
331
1A153
331
1A154
102
}
  0
BLOCK_RECORD
  5
193D1
330
7466
100
AcDbSymbolTableRecord
100
AcDbBlockTableRecord
  2
*D2
340
0
  0
BLOCK_RECORD
  5
193DD
330
7466
100
AcDbSymbolTableRecord
100
AcDbBlockTableRecord
  2
*D3
340
0
  0
BLOCK_RECORD
  5
193EB
330
7466
100
AcDbSymbolTableRecord
100
AcDbBlockTableRecord
  2
*D4
340
0
  0
BLOCK_RECORD
  5
193F7
330
7466
100
AcDbSymbolTableRecord
100
AcDbBlockTableRecord
  2
*D5
340
0
  0
BLOCK_RECORD
  5
19403
330
7466
100
AcDbSymbolTableRecord
100
AcDbBlockTableRecord
  2
*D6
340
0
  0
BLOCK_RECORD
  5
1940F
330
7466
100
AcDbSymbolTableRecord
100
AcDbBlockTableRecord
  2
*D7
340
0
  0
BLOCK_RECORD
  5
1941C
330
7466
100
AcDbSymbolTableRecord
100
AcDbBlockTableRecord
  2
*D8
340
0
  0
BLOCK_RECORD
  5
1942A
330
7466
100
AcDbSymbolTableRecord
100
AcDbBlockTableRecord
  2
*D9
340
0
  0
BLOCK_RECORD
  5
19436
330
7466
100
AcDbSymbolTableRecord
100
AcDbBlockTableRecord
  2
*D10
340
0
  0
BLOCK_RECORD
  5
19442
330
7466
100
AcDbSymbolTableRecord
100
AcDbBlockTableRecord
  2
*D11
340
0
  0
BLOCK_RECORD
  5
1944E
330
7466
100
AcDbSymbolTableRecord
100
AcDbBlockTableRecord
  2
*D12
340
0
  0
BLOCK_RECORD
  5
1945B
330
7466
100
AcDbSymbolTableRecord
100
AcDbBlockTableRecord
  2
*D13
340
0
  0
BLOCK_RECORD
  5
19469
330
7466
100
AcDbSymbolTableRecord
100
AcDbBlockTableRecord
  2
*D14
340
0
  0
BLOCK_RECORD
  5
19476
330
7466
100
AcDbSymbolTableRecord
100
AcDbBlockTableRecord
  2
*D15
340
0
  0
BLOCK_RECORD
  5
19482
330
7466
100
AcDbSymbolTableRecord
100
AcDbBlockTableRecord
  2
*D16
340
0
  0
BLOCK_RECORD
  5
1948E
330
7466
100
AcDbSymbolTableRecord
100
AcDbBlockTableRecord
  2
*D17
340
0
  0
BLOCK_RECORD
  5
1949A
330
7466
100
AcDbSymbolTableRecord
100
AcDbBlockTableRecord
  2
*D18
340
0
  0
BLOCK_RECORD
  5
194A6
330
7466
100
AcDbSymbolTableRecord
100
AcDbBlockTableRecord
  2
*D19
340
0
  0
BLOCK_RECORD
  5
194B2
330
7466
100
AcDbSymbolTableRecord
100
AcDbBlockTableRecord
  2
*D20
340
0
  0
BLOCK_RECORD
  5
194C0
330
7466
100
AcDbSymbolTableRecord
100
AcDbBlockTableRecord
  2
*D21
340
0
  0
BLOCK_RECORD
  5
194CE
330
7466
100
AcDbSymbolTableRecord
100
AcDbBlockTableRecord
  2
*D22
340
0
  0
BLOCK_RECORD
  5
194DC
330
7466
100
AcDbSymbolTableRecord
100
AcDbBlockTableRecord
  2
*D23
340
0
  0
BLOCK_RECORD
  5
194F4
330
7466
100
AcDbSymbolTableRecord
100
AcDbBlockTableRecord
  2
*D24
340
0
  0
BLOCK_RECORD
  5
19502
330
7466
100
AcDbSymbolTableRecord
100
AcDbBlockTableRecord
  2
*D25
340
0
  0
BLOCK_RECORD
  5
1950E
330
7466
100
AcDbSymbolTableRecord
100
AcDbBlockTableRecord
  2
*D26
340
0
  0
BLOCK_RECORD
  5
1951A
330
7466
100
AcDbSymbolTableRecord
100
AcDbBlockTableRecord
  2
*D27
340
0
  0
BLOCK_RECORD
  5
19526
330
7466
100
AcDbSymbolTableRecord
100
AcDbBlockTableRecord
  2
*D28
340
0
  0
BLOCK_RECORD
  5
1953E
330
7466
100
AcDbSymbolTableRecord
100
AcDbBlockTableRecord
  2
*D29
340
0
  0
BLOCK_RECORD
  5
19C8A
330
7466
100
AcDbSymbolTableRecord
100
AcDbBlockTableRecord
  2
*D30
340
0
  0
BLOCK_RECORD
  5
19FBF
330
7466
100
AcDbSymbolTableRecord
100
AcDbBlockTableRecord
  2
*D31
340
0
  0
BLOCK_RECORD
  5
19FCB
330
7466
100
AcDbSymbolTableRecord
100
AcDbBlockTableRecord
  2
*D32
340
0
  0
BLOCK_RECORD
  5
19FD9
330
7466
100
AcDbSymbolTableRecord
100
AcDbBlockTableRecord
  2
*D33
340
0
  0
ENDTAB
  0
ENDSEC
  0
SECTION
  2
BLOCKS
  0
BLOCK
  5
7489
330
747D
100
AcDbEntity
  8
0
100
AcDbBlockBegin
  2
*MODEL_SPACE
 70
     0
 10
0.0
 20
0.0
 30
0.0
  3
*MODEL_SPACE
  1

  0
ENDBLK
  5
748A
330
747D
100
AcDbEntity
  8
0
100
AcDbBlockEnd
  0
BLOCK
  5
7487
330
747A
100
AcDbEntity
 67
     1
  8
0
100
AcDbBlockBegin
  2
*PAPER_SPACE
 70
     0
 10
0.0
 20
0.0
 30
0.0
  3
*PAPER_SPACE
  1

  0
ENDBLK
  5
7488
330
747A
100
AcDbEntity
 67
     1
  8
0
100
AcDbBlockEnd
  0
BLOCK
  5
F771
330
F770
100
AcDbEntity
  8
0
 48
50.0
100
AcDbBlockBegin
  2
_DOTSMALL
 70
     0
 10
0.0
 20
0.0
 30
0.0
  3
_DOTSMALL
  1

  0
LWPOLYLINE
  5
F772
330
F770
100
AcDbEntity
  8
0
  6
ByBlock
 62
     0
 48
50.0
100
AcDbPolyline
 90
        2
 70
     1
 43
0.5
 10
-0.0625
 20
0.0
 42
1.0
 10
0.0625
 20
0.0
 42
1.0
  0
ENDBLK
  5
F776
330
F770
100
AcDbEntity
  8
0
 48
50.0
100
AcDbBlockEnd
  0
BLOCK
  5
18CE3
330
18CE2
100
AcDbEntity
  8
0
 48
50.0
100
AcDbBlockBegin
  2
_DOT
 70
     0
 10
0.0
 20
0.0
 30
0.0
  3
_DOT
  1

  0
LWPOLYLINE
  5
18CE4
330
18CE2
100
AcDbEntity
  8
0
  6
ByBlock
 62
     0
 48
50.0
100
AcDbPolyline
 90
        2
 70
     1
 43
0.5
 10
-0.25
 20
0.0
 42
1.0
 10
0.25
 20
0.0
 42
1.0
  0
LINE
  5
18CE5
330
18CE2
100
AcDbEntity
  8
0
  6
ByBlock
 62
     0
 48
50.0
100
AcDbLine
 10
-0.5
 20
0.0
 30
0.0
 11
-1.0
 21
0.0
 31
0.0
  0
ENDBLK
  5
18CE6
330
18CE2
100
AcDbEntity
  8
0
 48
50.0
100
AcDbBlockEnd
  0
BLOCK
  5
193DB
330
193D1
100
AcDbEntity
  8
0
 48
50.0
100
AcDbBlockBegin
  2
*D2
 70
     1
 10
0.0
 20
0.0
 30
0.0
  3
*D2
  1

  0
LINE
  5
19AD2
330
193D1
100
AcDbEntity
  8
寸法
 62
     0
 48
50.0
370
    -2
100
AcDbLine
 10
6678.106647567878
 20
4399.843172426295
 30
0.0
 11
6678.106647567878
 21
4844.46343185356
 31
0.0
  0
LINE
  5
19AD3
330
193D1
100
AcDbEntity
  8
寸法
 62
     0
 48
50.0
370
    -2
100
AcDbLine
 10
4468.106647567874
 20
4399.843172426295
 30
0.0
 11
4468.106647567874
 21
4844.46343185356
 31
0.0
  0
LINE
  5
19AD4
330
193D1
100
AcDbEntity
  8
寸法
 62
     0
 48
50.0
370
    -2
100
AcDbLine
 10
6678.106647567878
 20
4784.46343185356
 30
0.0
 11
4468.106647567874
 21
4784.46343185356
 31
0.0
  0
INSERT
  5
19AD5
330
193D1
100
AcDbEntity
  8
寸法
 62
     0
 48
50.0
370
    -2
100
AcDbBlockReference
  2
_DOTSMALL
 10
6678.106647567878
 20
4784.46343185356
 30
0.0
 41
100.0
 42
100.0
 43
100.0
  0
INSERT
  5
19AD6
330
193D1
100
AcDbEntity
  8
寸法
 62
     0
 48
50.0
370
    -2
100
AcDbBlockReference
  2
_DOTSMALL
 10
4468.106647567874
 20
4784.46343185356
 30
0.0
 41
100.0
 42
100.0
 43
100.0
 50
180.0
  0
MTEXT
  5
19AD7
330
193D1
100
AcDbEntity
  8
寸法
 62
     7
 48
50.0
100
AcDbMText
 10
5573.106647567874
 20
4884.475242877182
 30
0.0
 40
120.0
 41
0.0
 71
     5
 72
     1
  1
\A1;柱外寸法2210
  7
STYLE1
 73
     1
 44
1.0
1001
ACAD
1000
MTEXTBEGIN
1070
    73
1070
     1
1070
    44
1040
1.0
1070
    74
1070
     0
1000
MTEXTEND
  0
POINT
  5
19AD8
330
193D1
100
AcDbEntity
  8
DEFPOINTS
 62
     0
 48
50.0
100
AcDbPoint
 10
6678.106647567878
 20
4379.843172426294
 30
0.0
  0
POINT
  5
19AD9
330
193D1
100
AcDbEntity
  8
DEFPOINTS
 62
     0
 48
50.0
100
AcDbPoint
 10
4468.106647567874
 20
4379.843172426294
 30
0.0
  0
POINT
  5
19ADA
330
193D1
100
AcDbEntity
  8
DEFPOINTS
 62
     0
 48
50.0
100
AcDbPoint
 10
4468.106647567874
 20
4784.46343185356
 30
0.0
  0
ENDBLK
  5
193DC
330
193D1
100
AcDbEntity
  8
0
 48
50.0
100
AcDbBlockEnd
  0
BLOCK
  5
193E9
330
193DD
100
AcDbEntity
  8
0
 48
50.0
100
AcDbBlockBegin
  2
*D3
 70
     1
 10
0.0
 20
0.0
 30
0.0
  3
*D3
  1

  0
LINE
  5
19AC7
330
193DD
100
AcDbEntity
  8
寸法
 62
     0
 48
50.0
370
    -2
100
AcDbLine
 10
4468.106647567874
 20
4399.843172426295
 30
0.0
 11
4468.106647567874
 21
4844.46343185356
 31
0.0
  0
LINE
  5
19AC8
330
193DD
100
AcDbEntity
  8
寸法
 62
     0
 48
50.0
370
    -2
100
AcDbLine
 10
4418.106647567874
 20
4399.843172426295
 30
0.0
 11
4418.106647567874
 21
4844.46343185356
 31
0.0
  0
LINE
  5
19AC9
330
193DD
100
AcDbEntity
  8
寸法
 62
     0
 48
50.0
370
    -2
100
AcDbLine
 10
4468.106647567874
 20
4784.46343185356
 30
0.0
 11
4568.106647567875
 21
4784.46343185356
 31
0.0
  0
LINE
  5
19ACA
330
193DD
100
AcDbEntity
  8
寸法
 62
     0
 48
50.0
370
    -2
100
AcDbLine
 10
4418.106647567874
 20
4784.46343185356
 30
0.0
 11
3998.574122099139
 21
4784.46343185356
 31
0.0
  0
LINE
  5
19ACB
330
193DD
100
AcDbEntity
  8
寸法
 62
     0
 48
50.0
370
    -2
100
AcDbLine
 10
4468.106647567874
 20
4784.46343185356
 30
0.0
 11
4418.106647567874
 21
4784.46343185356
 31
0.0
  0
INSERT
  5
19ACC
330
193DD
100
AcDbEntity
  8
寸法
 62
     0
 48
50.0
370
    -2
100
AcDbBlockReference
  2
_DOTSMALL
 10
4468.106647567874
 20
4784.46343185356
 30
0.0
 41
100.0
 42
100.0
 43
100.0
 50
180.0
  0
INSERT
  5
19ACD
330
193DD
100
AcDbEntity
  8
寸法
 62
     0
 48
50.0
370
    -2
100
AcDbBlockReference
  2
_DOTSMALL
 10
4418.106647567874
 20
4784.46343185356
 30
0.0
 41
100.0
 42
100.0
 43
100.0
  0
MTEXT
  5
19ACE
330
193DD
100
AcDbEntity
  8
寸法
 62
     7
 48
50.0
100
AcDbMText
 10
4104.621366193627
 20
4884.463431853561
 30
0.0
 40
120.0
 41
0.0
 71
     5
 72
     1
  1
\A1;50
  7
STYLE1
 73
     1
 44
1.0
1001
ACAD
1000
MTEXTBEGIN
1070
    73
1070
     1
1070
    44
1040
1.0
1070
    74
1070
     0
1000
MTEXTEND
  0
POINT
  5
19ACF
330
193DD
100
AcDbEntity
  8
DEFPOINTS
 62
     0
 48
50.0
100
AcDbPoint
 10
4468.106647567874
 20
4379.843172426294
 30
0.0
  0
POINT
  5
19AD0
330
193DD
100
AcDbEntity
  8
DEFPOINTS
 62
     0
 48
50.0
100
AcDbPoint
 10
4418.106647567874
 20
4379.843172426294
 30
0.0
  0
POINT
  5
19AD1
330
193DD
100
AcDbEntity
  8
DEFPOINTS
 62
     0
 48
50.0
100
AcDbPoint
 10
4418.106647567874
 20
4784.46343185356
 30
0.0
  0
ENDBLK
  5
193EA
330
193DD
100
AcDbEntity
  8
0
 48
50.0
100
AcDbBlockEnd
  0
BLOCK
  5
193F5
330
193EB
100
AcDbEntity
  8
0
 48
50.0
100
AcDbBlockBegin
  2
*D4
 70
     1
 10
0.0
 20
0.0
 30
0.0
  3
*D4
  1

  0
LINE
  5
19ABE
330
193EB
100
AcDbEntity
  8
寸法
 62
     0
 48
50.0
370
    -2
100
AcDbLine
 10
4418.106647567874
 20
4399.843172426295
 30
0.0
 11
4418.106647567874
 21
5054.057306275011
 31
0.0
  0
LINE
  5
19ABF
330
193EB
100
AcDbEntity
  8
寸法
 62
     0
 48
50.0
370
    -2
100
AcDbLine
 10
6728.106647567878
 20
4399.84317242629
 30
0.0
 11
6728.106647567878
 21
5054.057306275011
 31
0.0
  0
LINE
  5
19AC0
330
193EB
100
AcDbEntity
  8
寸法
 62
     0
 48
50.0
370
    -2
100
AcDbLine
 10
4418.106647567874
 20
4994.057306275011
 30
0.0
 11
6728.106647567878
 21
4994.057306275011
 31
0.0
  0
INSERT
  5
19AC1
330
193EB
100
AcDbEntity
  8
寸法
 62
     0
 48
50.0
370
    -2
100
AcDbBlockReference
  2
_DOTSMALL
 10
4418.106647567874
 20
4994.057306275011
 30
0.0
 41
100.0
 42
100.0
 43
100.0
 50
180.0
  0
INSERT
  5
19AC2
330
193EB
100
AcDbEntity
  8
寸法
 62
     0
 48
50.0
370
    -2
100
AcDbBlockReference
  2
_DOTSMALL
 10
6728.106647567878
 20
4994.057306275011
 30
0.0
 41
100.0
 42
100.0
 43
100.0
  0
MTEXT
  5
19AC3
330
193EB
100
AcDbEntity
  8
寸法
 62
     7
 48
50.0
100
AcDbMText
 10
5573.106647567874
 20
5094.069117298633
 30
0.0
 40
120.0
 41
0.0
 71
     5
 72
     1
  1
\A1;2310
  7
STYLE1
 73
     1
 44
1.0
1001
ACAD
1000
MTEXTBEGIN
1070
    73
1070
     1
1070
    44
1040
1.0
1070
    74
1070
     0
1000
MTEXTEND
  0
POINT
  5
19AC4
330
193EB
100
AcDbEntity
  8
DEFPOINTS
 62
     0
 48
50.0
100
AcDbPoint
 10
4418.106647567874
 20
4379.843172426294
 30
0.0
  0
POINT
  5
19AC5
330
193EB
100
AcDbEntity
  8
DEFPOINTS
 62
     0
 48
50.0
100
AcDbPoint
 10
6728.106647567878
 20
4379.843172426291
 30
0.0
  0
POINT
  5
19AC6
330
193EB
100
AcDbEntity
  8
DEFPOINTS
 62
     0
 48
50.0
100
AcDbPoint
 10
6728.106647567878
 20
4994.057306275011
 30
0.0
  0
ENDBLK
  5
193F6
330
193EB
100
AcDbEntity
  8
0
 48
50.0
100
AcDbBlockEnd
  0
BLOCK
  5
19401
330
193F7
100
AcDbEntity
  8
0
 48
50.0
100
AcDbBlockBegin
  2
*D5
 70
     1
 10
0.0
 20
0.0
 30
0.0
  3
*D5
  1

  0
LINE
  5
19AB5
330
193F7
100
AcDbEntity
  8
寸法
 62
     0
 48
50.0
370
    -2
100
AcDbLine
 10
4595.606647567874
 20
1684.843172426287
 30
0.0
 11
4595.606647567874
 21
1358.795843125911
 31
0.0
  0
LINE
  5
19AB6
330
193F7
100
AcDbEntity
  8
寸法
 62
     0
 48
50.0
370
    -2
100
AcDbLine
 10
4395.606647567878
 20
1684.843172426289
 30
0.0
 11
4395.606647567878
 21
1358.795843125911
 31
0.0
  0
LINE
  5
19AB7
330
193F7
100
AcDbEntity
  8
寸法
 62
     0
 48
50.0
370
    -2
100
AcDbLine
 10
4595.606647567874
 20
1418.795843125911
 30
0.0
 11
4395.606647567878
 21
1418.795843125911
 31
0.0
  0
INSERT
  5
19AB8
330
193F7
100
AcDbEntity
  8
寸法
 62
     0
 48
50.0
370
    -2
100
AcDbBlockReference
  2
_DOTSMALL
 10
4595.606647567874
 20
1418.795843125911
 30
0.0
 41
100.0
 42
100.0
 43
100.0
  0
INSERT
  5
19AB9
330
193F7
100
AcDbEntity
  8
寸法
 62
     0
 48
50.0
370
    -2
100
AcDbBlockReference
  2
_DOTSMALL
 10
4395.606647567878
 20
1418.795843125911
 30
0.0
 41
100.0
 42
100.0
 43
100.0
 50
180.0
  0
MTEXT
  5
19ABA
330
193F7
100
AcDbEntity
  8
寸法
 62
     7
 48
50.0
100
AcDbMText
 10
4495.606647567876
 20
1518.807654149533
 30
0.0
 40
120.0
 41
0.0
 71
     5
 72
     1
  1
\A1;200
  7
STYLE1
 73
     1
 44
1.0
1001
ACAD
1000
MTEXTBEGIN
1070
    73
1070
     1
1070
    44
1040
1.0
1070
    74
1070
     0
1000
MTEXTEND
  0
POINT
  5
19ABB
330
193F7
100
AcDbEntity
  8
DEFPOINTS
 62
     0
 48
50.0
100
AcDbPoint
 10
4595.606647567874
 20
1704.843172426287
 30
0.0
  0
POINT
  5
19ABC
330
193F7
100
AcDbEntity
  8
DEFPOINTS
 62
     0
 48
50.0
100
AcDbPoint
 10
4395.606647567878
 20
1704.843172426289
 30
0.0
  0
POINT
  5
19ABD
330
193F7
100
AcDbEntity
  8
DEFPOINTS
 62
     0
 48
50.0
100
AcDbPoint
 10
4395.606647567878
 20
1418.795843125911
 30
0.0
  0
ENDBLK
  5
19402
330
193F7
100
AcDbEntity
  8
0
 48
50.0
100
AcDbBlockEnd
  0
BLOCK
  5
1940D
330
19403
100
AcDbEntity
  8
0
 48
50.0
100
AcDbBlockBegin
  2
*D6
 70
     1
 10
0.0
 20
0.0
 30
0.0
  3
*D6
  1

  0
LINE
  5
19AAC
330
19403
100
AcDbEntity
  8
寸法
 62
     0
 48
50.0
370
    -2
100
AcDbLine
 10
4375.606647567877
 20
1704.843172426289
 30
0.0
 11
4186.10664432124
 21
1704.843172426289
 31
0.0
  0
LINE
  5
19AAD
330
19403
100
AcDbEntity
  8
寸法
 62
     0
 48
50.0
370
    -2
100
AcDbLine
 10
4350.606647567874
 20
1904.843172426289
 30
0.0
 11
4186.10664432124
 21
1904.843172426289
 31
0.0
  0
LINE
  5
19AAE
330
19403
100
AcDbEntity
  8
寸法
 62
     0
 48
50.0
370
    -2
100
AcDbLine
 10
4246.10664432124
 20
1704.843172426289
 30
0.0
 11
4246.10664432124
 21
1904.843172426289
 31
0.0
  0
INSERT
  5
19AAF
330
19403
100
AcDbEntity
  8
寸法
 62
     0
 48
50.0
370
    -2
100
AcDbBlockReference
  2
_DOTSMALL
 10
4246.10664432124
 20
1704.843172426289
 30
0.0
 41
100.0
 42
100.0
 43
100.0
 50
270.0
  0
INSERT
  5
19AB0
330
19403
100
AcDbEntity
  8
寸法
 62
     0
 48
50.0
370
    -2
100
AcDbBlockReference
  2
_DOTSMALL
 10
4246.10664432124
 20
1904.843172426289
 30
0.0
 41
100.0
 42
100.0
 43
100.0
 50
90.0
  0
MTEXT
  5
19AB1
330
19403
100
AcDbEntity
  8
寸法
 62
     7
 48
50.0
100
AcDbMText
 10
4146.094833297619
 20
1804.84317242629
 30
0.0
 40
120.0
 41
0.0
 71
     5
 72
     1
  1
\A1;200
  7
STYLE1
 11
0.0000000000000001
 21
1.0
 31
0.0
 73
     1
 44
1.0
1001
ACAD
1000
MTEXTBEGIN
1070
    73
1070
     1
1070
    44
1040
1.0
1070
    74
1070
     0
1000
MTEXTEND
  0
POINT
  5
19AB2
330
19403
100
AcDbEntity
  8
DEFPOINTS
 62
     0
 48
50.0
100
AcDbPoint
 10
4395.606647567878
 20
1704.843172426289
 30
0.0
  0
POINT
  5
19AB3
330
19403
100
AcDbEntity
  8
DEFPOINTS
 62
     0
 48
50.0
100
AcDbPoint
 10
4370.606647567874
 20
1904.843172426289
 30
0.0
  0
POINT
  5
19AB4
330
19403
100
AcDbEntity
  8
DEFPOINTS
 62
     0
 48
50.0
100
AcDbPoint
 10
4246.10664432124
 20
1904.843172426289
 30
0.0
  0
ENDBLK
  5
1940E
330
19403
100
AcDbEntity
  8
0
 48
50.0
100
AcDbBlockEnd
  0
BLOCK
  5
1941A
330
1940F
100
AcDbEntity
  8
0
 48
50.0
100
AcDbBlockBegin
  2
*D7
 70
     1
 10
0.0
 20
0.0
 30
0.0
  3
*D7
  1

  0
LINE
  5
19AA2
330
1940F
100
AcDbEntity
  8
寸法
 62
     0
 48
50.0
370
    -2
100
AcDbLine
 10
8705.203676905133
 20
2004.843172426288
 30
0.0
 11
7811.564294975775
 21
2004.843172426288
 31
0.0
  0
LINE
  5
19AA3
330
1940F
100
AcDbEntity
  8
寸法
 62
     0
 48
50.0
370
    -2
100
AcDbLine
 10
8136.550967746837
 20
1904.843172426288
 30
0.0
 11
7811.564294975775
 21
1904.843172426288
 31
0.0
  0
LINE
  5
19AA4
330
1940F
100
AcDbEntity
  8
寸法
 62
     0
 48
50.0
370
    -2
100
AcDbLine
 10
7871.564294975775
 20
2004.843172426288
 30
0.0
 11
7871.564294975775
 21
1904.843172426288
 31
0.0
  0
LINE
  5
19AA5
330
1940F
100
AcDbEntity
  8
寸法
 62
     0
 48
50.0
370
    -2
100
AcDbLine
 10
7871.564294975775
 20
1904.843172426288
 30
0.0
 11
7871.564294975775
 21
1532.748684237308
 31
0.0
  0
INSERT
  5
19AA6
330
1940F
100
AcDbEntity
  8
寸法
 62
     0
 48
50.0
370
    -2
100
AcDbBlockReference
  2
_DOTSMALL
 10
7871.564294975775
 20
2004.843172426288
 30
0.0
 41
100.0
 42
100.0
 43
100.0
 50
90.0
  0
INSERT
  5
19AA7
330
1940F
100
AcDbEntity
  8
寸法
 62
     0
 48
50.0
370
    -2
100
AcDbBlockReference
  2
_DOTSMALL
 10
7871.564294975775
 20
1904.843172426288
 30
0.0
 41
100.0
 42
100.0
 43
100.0
 50
270.0
  0
MTEXT
  5
19AA8
330
1940F
100
AcDbEntity
  8
寸法
 62
     7
 48
50.0
100
AcDbMText
 10
7771.564294975775
 20
1668.795928331797
 30
0.0
 40
120.0
 41
0.0
 71
     5
 72
     1
  1
\A1;100
  7
STYLE1
 11
0.0000000000000001
 21
1.0
 31
0.0
 73
     1
 44
1.0
1001
ACAD
1000
MTEXTBEGIN
1070
    73
1070
     1
1070
    44
1040
1.0
1070
    74
1070
     0
1000
MTEXTEND
  0
POINT
  5
19AA9
330
1940F
100
AcDbEntity
  8
DEFPOINTS
 62
     0
 48
50.0
100
AcDbPoint
 10
8725.203676905135
 20
2004.843172426288
 30
0.0
  0
POINT
  5
19AAA
330
1940F
100
AcDbEntity
  8
DEFPOINTS
 62
     0
 48
50.0
100
AcDbPoint
 10
8156.550967746836
 20
1904.843172426288
 30
0.0
  0
POINT
  5
19AAB
330
1940F
100
AcDbEntity
  8
DEFPOINTS
 62
     0
 48
50.0
100
AcDbPoint
 10
7871.564294975775
 20
1904.843172426288
 30
0.0
  0
ENDBLK
  5
1941B
330
1940F
100
AcDbEntity
  8
0
 48
50.0
100
AcDbBlockEnd
  0
BLOCK
  5
19428
330
1941C
100
AcDbEntity
  8
0
 48
50.0
100
AcDbBlockBegin
  2
*D8
 70
     1
 10
0.0
 20
0.0
 30
0.0
  3
*D8
  1

  0
LINE
  5
19A97
330
1941C
100
AcDbEntity
  8
寸法
 62
     0
 48
50.0
370
    -2
100
AcDbLine
 10
8760.203676905133
 20
2054.843172426288
 30
0.0
 11
8096.550967746837
 21
2054.843172426288
 31
0.0
  0
LINE
  5
19A98
330
1941C
100
AcDbEntity
  8
寸法
 62
     0
 48
50.0
370
    -2
100
AcDbLine
 10
8705.203676905133
 20
2004.843172426288
 30
0.0
 11
8096.550967746836
 21
2004.843172426288
 31
0.0
  0
LINE
  5
19A99
330
1941C
100
AcDbEntity
  8
寸法
 62
     0
 48
50.0
370
    -2
100
AcDbLine
 10
8156.550967746836
 20
2054.843172426288
 30
0.0
 11
8156.550967746836
 21
2154.843172426288
 31
0.0
  0
LINE
  5
19A9A
330
1941C
100
AcDbEntity
  8
寸法
 62
     0
 48
50.0
370
    -2
100
AcDbLine
 10
8156.550967746836
 20
2004.843172426288
 30
0.0
 11
8156.550967746836
 21
1592.748684237308
 31
0.0
  0
LINE
  5
19A9B
330
1941C
100
AcDbEntity
  8
寸法
 62
     0
 48
50.0
370
    -2
100
AcDbLine
 10
8156.550967746836
 20
2054.843172426288
 30
0.0
 11
8156.550967746836
 21
2004.843172426288
 31
0.0
  0
INSERT
  5
19A9C
330
1941C
100
AcDbEntity
  8
寸法
 62
     0
 48
50.0
370
    -2
100
AcDbBlockReference
  2
_DOTSMALL
 10
8156.550967746836
 20
2054.843172426288
 30
0.0
 41
100.0
 42
100.0
 43
100.0
 50
270.0
  0
INSERT
  5
19A9D
330
1941C
100
AcDbEntity
  8
寸法
 62
     0
 48
50.0
370
    -2
100
AcDbBlockReference
  2
_DOTSMALL
 10
8156.550967746836
 20
2004.843172426288
 30
0.0
 41
100.0
 42
100.0
 43
100.0
 50
90.0
  0
MTEXT
  5
19A9E
330
1941C
100
AcDbEntity
  8
寸法
 62
     7
 48
50.0
100
AcDbMText
 10
8056.550967746836
 20
1698.795928331797
 30
0.0
 40
120.0
 41
0.0
 71
     5
 72
     1
  1
\A1;50
  7
STYLE1
 11
0.0000000000000001
 21
1.0
 31
0.0
 73
     1
 44
1.0
1001
ACAD
1000
MTEXTBEGIN
1070
    73
1070
     1
1070
    44
1040
1.0
1070
    74
1070
     0
1000
MTEXTEND
  0
POINT
  5
19A9F
330
1941C
100
AcDbEntity
  8
DEFPOINTS
 62
     0
 48
50.0
100
AcDbPoint
 10
8780.203676905134
 20
2054.843172426288
 30
0.0
  0
POINT
  5
19AA0
330
1941C
100
AcDbEntity
  8
DEFPOINTS
 62
     0
 48
50.0
100
AcDbPoint
 10
8725.203676905135
 20
2004.843172426288
 30
0.0
  0
POINT
  5
19AA1
330
1941C
100
AcDbEntity
  8
DEFPOINTS
 62
     0
 48
50.0
100
AcDbPoint
 10
8156.550967746836
 20
2004.843172426288
 30
0.0
  0
ENDBLK
  5
19429
330
1941C
100
AcDbEntity
  8
0
 48
50.0
100
AcDbBlockEnd
  0
BLOCK
  5
19434
330
1942A
100
AcDbEntity
  8
0
 48
50.0
100
AcDbBlockBegin
  2
*D9
 70
     1
 10
0.0
 20
0.0
 30
0.0
  3
*D9
  1

  0
LINE
  5
19A8E
330
1942A
100
AcDbEntity
  8
寸法
 62
     0
 48
50.0
370
    -2
100
AcDbLine
 10
8760.203676905133
 20
4144.843172426288
 30
0.0
 11
8096.550967746837
 21
4144.843172426288
 31
0.0
  0
LINE
  5
19A8F
330
1942A
100
AcDbEntity
  8
寸法
 62
     0
 48
50.0
370
    -2
100
AcDbLine
 10
8760.203676905133
 20
2054.843172426288
 30
0.0
 11
8096.550967746837
 21
2054.843172426288
 31
0.0
  0
LINE
  5
19A90
330
1942A
100
AcDbEntity
  8
寸法
 62
     0
 48
50.0
370
    -2
100
AcDbLine
 10
8156.550967746836
 20
4144.843172426288
 30
0.0
 11
8156.550967746836
 21
2054.843172426288
 31
0.0
  0
INSERT
  5
19A91
330
1942A
100
AcDbEntity
  8
寸法
 62
     0
 48
50.0
370
    -2
100
AcDbBlockReference
  2
_DOTSMALL
 10
8156.550967746836
 20
4144.843172426288
 30
0.0
 41
100.0
 42
100.0
 43
100.0
 50
90.0
  0
INSERT
  5
19A92
330
1942A
100
AcDbEntity
  8
寸法
 62
     0
 48
50.0
370
    -2
100
AcDbBlockReference
  2
_DOTSMALL
 10
8156.550967746836
 20
2054.843172426288
 30
0.0
 41
100.0
 42
100.0
 43
100.0
 50
270.0
  0
MTEXT
  5
19A93
330
1942A
100
AcDbEntity
  8
寸法
 62
     7
 48
50.0
100
AcDbMText
 10
8056.539156723214
 20
3075.343172426288
 30
0.0
 40
120.0
 41
0.0
 71
     5
 72
     1
  1
\A1;2090
  7
STYLE1
 11
0.0000000000000001
 21
1.0
 31
0.0
 73
     1
 44
1.0
1001
ACAD
1000
MTEXTBEGIN
1070
    73
1070
     1
1070
    44
1040
1.0
1070
    74
1070
     0
1000
MTEXTEND
  0
POINT
  5
19A94
330
1942A
100
AcDbEntity
  8
DEFPOINTS
 62
     0
 48
50.0
100
AcDbPoint
 10
8780.203676905134
 20
4144.843172426288
 30
0.0
  0
POINT
  5
19A95
330
1942A
100
AcDbEntity
  8
DEFPOINTS
 62
     0
 48
50.0
100
AcDbPoint
 10
8780.203676905134
 20
2054.843172426288
 30
0.0
  0
POINT
  5
19A96
330
1942A
100
AcDbEntity
  8
DEFPOINTS
 62
     0
 48
50.0
100
AcDbPoint
 10
8156.550967746836
 20
2054.843172426288
 30
0.0
  0
ENDBLK
  5
19435
330
1942A
100
AcDbEntity
  8
0
 48
50.0
100
AcDbBlockEnd
  0
BLOCK
  5
19440
330
19436
100
AcDbEntity
  8
0
 48
50.0
100
AcDbBlockBegin
  2
*D10
 70
     1
 10
0.0
 20
0.0
 30
0.0
  3
*D10
  1

  0
LINE
  5
19A85
330
19436
100
AcDbEntity
  8
寸法
 62
     0
 48
50.0
370
    -2
100
AcDbLine
 10
8760.203676905133
 20
2004.843172426288
 30
0.0
 11
7811.564294975775
 21
2004.843172426288
 31
0.0
  0
LINE
  5
19A86
330
19436
100
AcDbEntity
  8
寸法
 62
     0
 48
50.0
370
    -2
100
AcDbLine
 10
8700.203676905134
 20
4379.843172426293
 30
0.0
 11
7811.564294975775
 21
4379.843172426293
 31
0.0
  0
LINE
  5
19A87
330
19436
100
AcDbEntity
  8
寸法
 62
     0
 48
50.0
370
    -2
100
AcDbLine
 10
7871.564294975775
 20
2004.843172426288
 30
0.0
 11
7871.564294975776
 21
4379.843172426293
 31
0.0
  0
INSERT
  5
19A88
330
19436
100
AcDbEntity
  8
寸法
 62
     0
 48
50.0
370
    -2
100
AcDbBlockReference
  2
_DOTSMALL
 10
7871.564294975775
 20
2004.843172426288
 30
0.0
 41
100.0
 42
100.0
 43
100.0
 50
270.0
  0
INSERT
  5
19A89
330
19436
100
AcDbEntity
  8
寸法
 62
     0
 48
50.0
370
    -2
100
AcDbBlockReference
  2
_DOTSMALL
 10
7871.564294975776
 20
4379.843172426293
 30
0.0
 41
100.0
 42
100.0
 43
100.0
 50
90.0
  0
MTEXT
  5
19A8A
330
19436
100
AcDbEntity
  8
寸法
 62
     7
 48
50.0
100
AcDbMText
 10
7771.552483952153
 20
3075.343172426288
 30
0.0
 40
120.0
 41
0.0
 71
     5
 72
     1
  1
\A1;2375
  7
STYLE1
 11
0.0000000000000001
 21
1.0
 31
0.0
 73
     1
 44
1.0
1001
ACAD
1000
MTEXTBEGIN
1070
    73
1070
     1
1070
    44
1040
1.0
1070
    74
1070
     0
1000
MTEXTEND
  0
POINT
  5
19A8B
330
19436
100
AcDbEntity
  8
DEFPOINTS
 62
     0
 48
50.0
100
AcDbPoint
 10
8780.203676905134
 20
2004.843172426288
 30
0.0
  0
POINT
  5
19A8C
330
19436
100
AcDbEntity
  8
DEFPOINTS
 62
     0
 48
50.0
100
AcDbPoint
 10
8720.203676905134
 20
4379.843172426293
 30
0.0
  0
POINT
  5
19A8D
330
19436
100
AcDbEntity
  8
DEFPOINTS
 62
     0
 48
50.0
100
AcDbPoint
 10
7871.564294975776
 20
4379.843172426293
 30
0.0
  0
ENDBLK
  5
19441
330
19436
100
AcDbEntity
  8
0
 48
50.0
100
AcDbBlockEnd
  0
BLOCK
  5
1944C
330
19442
100
AcDbEntity
  8
0
 48
50.0
100
AcDbBlockBegin
  2
*D11
 70
     1
 10
0.0
 20
0.0
 30
0.0
  3
*D11
  1

  0
LINE
  5
19A7C
330
19442
100
AcDbEntity
  8
寸法
 62
     0
 48
50.0
370
    -2
100
AcDbLine
 10
11010.20367690513
 20
2004.843172426288
 30
0.0
 11
11582.62660485184
 21
2004.843172426288
 31
0.0
  0
LINE
  5
19A7D
330
19442
100
AcDbEntity
  8
寸法
 62
     0
 48
50.0
370
    -2
100
AcDbLine
 10
11090.20367690511
 20
4324.84317242629
 30
0.0
 11
11582.62660485184
 21
4324.84317242629
 31
0.0
  0
LINE
  5
19A7E
330
19442
100
AcDbEntity
  8
寸法
 62
     0
 48
50.0
370
    -2
100
AcDbLine
 10
11522.62660485184
 20
2004.843172426288
 30
0.0
 11
11522.62660485184
 21
4324.84317242629
 31
0.0
  0
INSERT
  5
19A7F
330
19442
100
AcDbEntity
  8
寸法
 62
     0
 48
50.0
370
    -2
100
AcDbBlockReference
  2
_DOTSMALL
 10
11522.62660485184
 20
2004.843172426288
 30
0.0
 41
100.0
 42
100.0
 43
100.0
 50
270.0
  0
INSERT
  5
19A80
330
19442
100
AcDbEntity
  8
寸法
 62
     0
 48
50.0
370
    -2
100
AcDbBlockReference
  2
_DOTSMALL
 10
11522.62660485184
 20
4324.84317242629
 30
0.0
 41
100.0
 42
100.0
 43
100.0
 50
90.0
  0
MTEXT
  5
19A81
330
19442
100
AcDbEntity
  8
寸法
 62
     7
 48
50.0
100
AcDbMText
 10
11422.61479382822
 20
3119.596379331786
 30
0.0
 40
120.0
 41
0.0
 71
     5
 72
     1
  1
\A1;2320
  7
STYLE1
 11
0.0000000000000001
 21
1.0
 31
0.0
 73
     1
 44
1.0
1001
ACAD
1000
MTEXTBEGIN
1070
    73
1070
     1
1070
    44
1040
1.0
1070
    74
1070
     0
1000
MTEXTEND
  0
POINT
  5
19A82
330
19442
100
AcDbEntity
  8
DEFPOINTS
 62
     0
 48
50.0
100
AcDbPoint
 10
10990.20367690513
 20
2004.843172426288
 30
0.0
  0
POINT
  5
19A83
330
19442
100
AcDbEntity
  8
DEFPOINTS
 62
     0
 48
50.0
100
AcDbPoint
 10
11070.20367690511
 20
4324.84317242629
 30
0.0
  0
POINT
  5
19A84
330
19442
100
AcDbEntity
  8
DEFPOINTS
 62
     0
 48
50.0
100
AcDbPoint
 10
11522.62660485184
 20
4324.84317242629
 30
0.0
  0
ENDBLK
  5
1944D
330
19442
100
AcDbEntity
  8
0
 48
50.0
100
AcDbBlockEnd
  0
BLOCK
  5
19459
330
1944E
100
AcDbEntity
  8
0
 48
50.0
100
AcDbBlockBegin
  2
*D12
 70
     1
 10
0.0
 20
0.0
 30
0.0
  3
*D12
  1

  0
LINE
  5
19A72
330
1944E
100
AcDbEntity
  8
寸法
 62
     0
 48
50.0
370
    -2
100
AcDbLine
 10
8719.607963196237
 20
4379.14087949595
 30
0.0
 11
8103.673524090959
 21
4396.855029770278
 31
0.0
  0
LINE
  5
19A73
330
1944E
100
AcDbEntity
  8
寸法
 62
     0
 48
50.0
370
    -2
100
AcDbLine
 10
8715.554507639611
 20
4238.199155730236
 30
0.0
 11
8099.620068534333
 21
4255.913306004565
 31
0.0
  0
LINE
  5
19A74
330
1944E
100
AcDbEntity
  8
寸法
 62
     0
 48
50.0
370
    -2
100
AcDbLine
 10
8159.595270136764
 20
4254.188431299618
 30
0.0
 11
8163.64872569339
 21
4395.130155065332
 31
0.0
  0
LINE
  5
19A75
330
1944E
100
AcDbEntity
  8
寸法
 62
     0
 48
50.0
370
    -2
100
AcDbLine
 10
8163.64872569339
 20
4395.130155065332
 30
0.0
 11
8173.997973923075
 21
4754.981364679925
 31
0.0
  0
INSERT
  5
19A76
330
1944E
100
AcDbEntity
  8
寸法
 62
     0
 48
50.0
370
    -2
100
AcDbBlockReference
  2
_DOTSMALL
 10
8159.595270136764
 20
4254.188431299618
 30
0.0
 41
100.0
 42
100.0
 43
100.0
 50
268.3526390256379
  0
INSERT
  5
19A77
330
1944E
100
AcDbEntity
  8
寸法
 62
     0
 48
50.0
370
    -2
100
AcDbBlockReference
  2
_DOTSMALL
 10
8163.64872569339
 20
4395.130155065332
 30
0.0
 41
100.0
 42
100.0
 43
100.0
 50
88.35263902563784
  0
MTEXT
  5
19A78
330
1944E
100
AcDbEntity
  8
寸法
 62
     7
 48
50.0
100
AcDbMText
 10
8070.302076058304
 20
4627.909885716237
 30
0.0
 40
120.0
 41
0.0
 71
     5
 72
     1
  1
\A1;141
  7
STYLE1
 11
0.0287479117491228
 21
0.9995866933738486
 31
0.0
 73
     1
 44
1.0
1001
ACAD
1000
MTEXTBEGIN
1070
    73
1070
     1
1070
    44
1040
1.0
1070
    74
1070
     0
1000
MTEXTEND
  0
POINT
  5
19A79
330
1944E
100
AcDbEntity
  8
DEFPOINTS
 62
     0
 48
50.0
100
AcDbPoint
 10
8739.599697063715
 20
4378.565921260967
 30
0.0
  0
POINT
  5
19A7A
330
1944E
100
AcDbEntity
  8
DEFPOINTS
 62
     0
 48
50.0
100
AcDbPoint
 10
8735.546241507087
 20
4237.624197495253
 30
0.0
  0
POINT
  5
19A7B
330
1944E
100
AcDbEntity
  8
DEFPOINTS
 62
     0
 48
50.0
100
AcDbPoint
 10
8159.595270136764
 20
4254.188431299618
 30
0.0
  0
ENDBLK
  5
1945A
330
1944E
100
AcDbEntity
  8
0
 48
50.0
100
AcDbBlockEnd
  0
BLOCK
  5
19467
330
1945B
100
AcDbEntity
  8
0
 48
50.0
100
AcDbBlockBegin
  2
*D13
 70
     1
 10
0.0
 20
0.0
 30
0.0
  3
*D13
  1

  0
LINE
  5
19A67
330
1945B
100
AcDbEntity
  8
寸法
 62
     0
 48
50.0
370
    -2
100
AcDbLine
 10
8780.203676905134
 20
4395.844790549264
 30
0.0
 11
8780.203676905134
 21
4838.500626005592
 31
0.0
  0
LINE
  5
19A68
330
1945B
100
AcDbEntity
  8
寸法
 62
     0
 48
50.0
370
    -2
100
AcDbLine
 10
8720.203676905134
 20
4399.843172426292
 30
0.0
 11
8720.203676905134
 21
4838.500626005592
 31
0.0
  0
LINE
  5
19A69
330
1945B
100
AcDbEntity
  8
寸法
 62
     0
 48
50.0
370
    -2
100
AcDbLine
 10
8780.203676905134
 20
4778.500626005591
 30
0.0
 11
8880.203676905134
 21
4778.500626005591
 31
0.0
  0
LINE
  5
19A6A
330
1945B
100
AcDbEntity
  8
寸法
 62
     0
 48
50.0
370
    -2
100
AcDbLine
 10
8720.203676905134
 20
4778.500626005591
 30
0.0
 11
8300.928086353954
 21
4778.500626005591
 31
0.0
  0
LINE
  5
19A6B
330
1945B
100
AcDbEntity
  8
寸法
 62
     0
 48
50.0
370
    -2
100
AcDbLine
 10
8780.203676905134
 20
4778.500626005591
 30
0.0
 11
8720.203676905134
 21
4778.500626005591
 31
0.0
  0
INSERT
  5
19A6C
330
1945B
100
AcDbEntity
  8
寸法
 62
     0
 48
50.0
370
    -2
100
AcDbBlockReference
  2
_DOTSMALL
 10
8780.203676905134
 20
4778.500626005591
 30
0.0
 41
100.0
 42
100.0
 43
100.0
 50
180.0
  0
INSERT
  5
19A6D
330
1945B
100
AcDbEntity
  8
寸法
 62
     0
 48
50.0
370
    -2
100
AcDbBlockReference
  2
_DOTSMALL
 10
8720.203676905134
 20
4778.500626005591
 30
0.0
 41
100.0
 42
100.0
 43
100.0
  0
MTEXT
  5
19A6E
330
1945B
100
AcDbEntity
  8
寸法
 62
     7
 48
50.0
100
AcDbMText
 10
8410.565881629542
 20
4878.500626005592
 30
0.0
 40
120.0
 41
0.0
 71
     5
 72
     1
  1
\A1;60
  7
STYLE1
 73
     1
 44
1.0
1001
ACAD
1000
MTEXTBEGIN
1070
    73
1070
     1
1070
    44
1040
1.0
1070
    74
1070
     0
1000
MTEXTEND
  0
POINT
  5
19A6F
330
1945B
100
AcDbEntity
  8
DEFPOINTS
 62
     0
 48
50.0
100
AcDbPoint
 10
8780.203676905134
 20
4375.844790549265
 30
0.0
  0
POINT
  5
19A70
330
1945B
100
AcDbEntity
  8
DEFPOINTS
 62
     0
 48
50.0
100
AcDbPoint
 10
8720.203676905134
 20
4379.843172426292
 30
0.0
  0
POINT
  5
19A71
330
1945B
100
AcDbEntity
  8
DEFPOINTS
 62
     0
 48
50.0
100
AcDbPoint
 10
8720.203676905134
 20
4778.500626005591
 30
0.0
  0
ENDBLK
  5
19468
330
1945B
100
AcDbEntity
  8
0
 48
50.0
100
AcDbBlockEnd
  0
BLOCK
  5
19474
330
19469
100
AcDbEntity
  8
0
 48
50.0
100
AcDbBlockBegin
  2
*D14
 70
     1
 10
0.0
 20
0.0
 30
0.0
  3
*D14
  1

  0
LINE
  5
19A5D
330
19469
100
AcDbEntity
  8
寸法
 62
     0
 48
50.0
370
    -2
100
AcDbLine
 10
10990.20367690513
 20
4346.65385203794
 30
0.0
 11
10990.20367690513
 21
4838.500626005592
 31
0.0
  0
LINE
  5
19A5E
330
19469
100
AcDbEntity
  8
寸法
 62
     0
 48
50.0
370
    -2
100
AcDbLine
 10
11070.20367690513
 20
4344.843172426288
 30
0.0
 11
11070.20367690513
 21
4838.500626005592
 31
0.0
  0
LINE
  5
19A5F
330
19469
100
AcDbEntity
  8
寸法
 62
     0
 48
50.0
370
    -2
100
AcDbLine
 10
10990.20367690513
 20
4778.500626005591
 30
0.0
 11
11070.20367690513
 21
4778.500626005591
 31
0.0
  0
LINE
  5
19A60
330
19469
100
AcDbEntity
  8
寸法
 62
     0
 48
50.0
370
    -2
100
AcDbLine
 10
11070.20367690513
 20
4778.500626005591
 30
0.0
 11
11382.29816509411
 21
4778.500626005591
 31
0.0
  0
INSERT
  5
19A61
330
19469
100
AcDbEntity
  8
寸法
 62
     0
 48
50.0
370
    -2
100
AcDbBlockReference
  2
_DOTSMALL
 10
10990.20367690513
 20
4778.500626005591
 30
0.0
 41
100.0
 42
100.0
 43
100.0
 50
180.0
  0
INSERT
  5
19A62
330
19469
100
AcDbEntity
  8
寸法
 62
     0
 48
50.0
370
    -2
100
AcDbBlockReference
  2
_DOTSMALL
 10
11070.20367690513
 20
4778.500626005591
 30
0.0
 41
100.0
 42
100.0
 43
100.0
  0
MTEXT
  5
19A63
330
19469
100
AcDbEntity
  8
寸法
 62
     7
 48
50.0
100
AcDbMText
 10
11276.25092099962
 20
4878.500626005592
 30
0.0
 40
120.0
 41
0.0
 71
     5
 72
     1
  1
\A1;80
  7
STYLE1
 73
     1
 44
1.0
1001
ACAD
1000
MTEXTBEGIN
1070
    73
1070
     1
1070
    44
1040
1.0
1070
    74
1070
     0
1000
MTEXTEND
  0
POINT
  5
19A64
330
19469
100
AcDbEntity
  8
DEFPOINTS
 62
     0
 48
50.0
100
AcDbPoint
 10
10990.20367690513
 20
4326.65385203794
 30
0.0
  0
POINT
  5
19A65
330
19469
100
AcDbEntity
  8
DEFPOINTS
 62
     0
 48
50.0
100
AcDbPoint
 10
11070.20367690513
 20
4324.843172426288
 30
0.0
  0
POINT
  5
19A66
330
19469
100
AcDbEntity
  8
DEFPOINTS
 62
     0
 48
50.0
100
AcDbPoint
 10
11070.20367690513
 20
4778.500626005591
 30
0.0
  0
ENDBLK
  5
19475
330
19469
100
AcDbEntity
  8
0
 48
50.0
100
AcDbBlockEnd
  0
BLOCK
  5
19480
330
19476
100
AcDbEntity
  8
0
 48
50.0
100
AcDbBlockBegin
  2
*D15
 70
     1
 10
0.0
 20
0.0
 30
0.0
  3
*D15
  1

  0
LINE
  5
19A54
330
19476
100
AcDbEntity
  8
寸法
 62
     0
 48
50.0
370
    -2
100
AcDbLine
 10
11070.20367690513
 20
4344.843172426288
 30
0.0
 11
11070.20367690513
 21
5057.702459679884
 31
0.0
  0
LINE
  5
19A55
330
19476
100
AcDbEntity
  8
寸法
 62
     0
 48
50.0
370
    -2
100
AcDbLine
 10
8720.203676905134
 20
4399.843172426292
 30
0.0
 11
8720.203676905134
 21
5057.702459679884
 31
0.0
  0
LINE
  5
19A56
330
19476
100
AcDbEntity
  8
寸法
 62
     0
 48
50.0
370
    -2
100
AcDbLine
 10
11070.20367690513
 20
4997.702459679884
 30
0.0
 11
8720.203676905134
 21
4997.702459679884
 31
0.0
  0
INSERT
  5
19A57
330
19476
100
AcDbEntity
  8
寸法
 62
     0
 48
50.0
370
    -2
100
AcDbBlockReference
  2
_DOTSMALL
 10
11070.20367690513
 20
4997.702459679884
 30
0.0
 41
100.0
 42
100.0
 43
100.0
  0
INSERT
  5
19A58
330
19476
100
AcDbEntity
  8
寸法
 62
     0
 48
50.0
370
    -2
100
AcDbBlockReference
  2
_DOTSMALL
 10
8720.203676905134
 20
4997.702459679884
 30
0.0
 41
100.0
 42
100.0
 43
100.0
 50
180.0
  0
MTEXT
  5
19A59
330
19476
100
AcDbEntity
  8
寸法
 62
     7
 48
50.0
100
AcDbMText
 10
9954.547530997603
 20
5097.714270703505
 30
0.0
 40
120.0
 41
0.0
 71
     5
 72
     1
  1
\A1;2350
  7
STYLE1
 73
     1
 44
1.0
1001
ACAD
1000
MTEXTBEGIN
1070
    73
1070
     1
1070
    44
1040
1.0
1070
    74
1070
     0
1000
MTEXTEND
  0
POINT
  5
19A5A
330
19476
100
AcDbEntity
  8
DEFPOINTS
 62
     0
 48
50.0
100
AcDbPoint
 10
11070.20367690513
 20
4324.843172426288
 30
0.0
  0
POINT
  5
19A5B
330
19476
100
AcDbEntity
  8
DEFPOINTS
 62
     0
 48
50.0
100
AcDbPoint
 10
8720.203676905134
 20
4379.843172426292
 30
0.0
  0
POINT
  5
19A5C
330
19476
100
AcDbEntity
  8
DEFPOINTS
 62
     0
 48
50.0
100
AcDbPoint
 10
8720.203676905134
 20
4997.702459679884
 30
0.0
  0
ENDBLK
  5
19481
330
19476
100
AcDbEntity
  8
0
 48
50.0
100
AcDbBlockEnd
  0
BLOCK
  5
1948C
330
19482
100
AcDbEntity
  8
0
 48
50.0
100
AcDbBlockBegin
  2
*D16
 70
     1
 10
0.0
 20
0.0
 30
0.0
  3
*D16
  1

  0
LINE
  5
19A4B
330
19482
100
AcDbEntity
  8
寸法
 62
     0
 48
50.0
370
    -2
100
AcDbLine
 10
10990.20367690513
 20
4346.65385203794
 30
0.0
 11
10990.20367690513
 21
4838.500626005592
 31
0.0
  0
LINE
  5
19A4C
330
19482
100
AcDbEntity
  8
寸法
 62
     0
 48
50.0
370
    -2
100
AcDbLine
 10
8780.203676905134
 20
4395.844790549264
 30
0.0
 11
8780.203676905134
 21
4838.500626005592
 31
0.0
  0
LINE
  5
19A4D
330
19482
100
AcDbEntity
  8
寸法
 62
     0
 48
50.0
370
    -2
100
AcDbLine
 10
10990.20367690513
 20
4778.500626005591
 30
0.0
 11
8780.203676905134
 21
4778.500626005591
 31
0.0
  0
INSERT
  5
19A4E
330
19482
100
AcDbEntity
  8
寸法
 62
     0
 48
50.0
370
    -2
100
AcDbBlockReference
  2
_DOTSMALL
 10
10990.20367690513
 20
4778.500626005591
 30
0.0
 41
100.0
 42
100.0
 43
100.0
  0
INSERT
  5
19A4F
330
19482
100
AcDbEntity
  8
寸法
 62
     0
 48
50.0
370
    -2
100
AcDbBlockReference
  2
_DOTSMALL
 10
8780.203676905134
 20
4778.500626005591
 30
0.0
 41
100.0
 42
100.0
 43
100.0
 50
180.0
  0
MTEXT
  5
19A50
330
19482
100
AcDbEntity
  8
寸法
 62
     7
 48
50.0
100
AcDbMText
 10
9874.848413975648
 20
4878.512437029213
 30
0.0
 40
120.0
 41
0.0
 71
     5
 72
     1
  1
\A1;柱外寸法2210
  7
STYLE1
 73
     1
 44
1.0
1001
ACAD
1000
MTEXTBEGIN
1070
    73
1070
     1
1070
    44
1040
1.0
1070
    74
1070
     0
1000
MTEXTEND
  0
POINT
  5
19A51
330
19482
100
AcDbEntity
  8
DEFPOINTS
 62
     0
 48
50.0
100
AcDbPoint
 10
10990.20367690513
 20
4326.65385203794
 30
0.0
  0
POINT
  5
19A52
330
19482
100
AcDbEntity
  8
DEFPOINTS
 62
     0
 48
50.0
100
AcDbPoint
 10
8780.203676905134
 20
4375.844790549265
 30
0.0
  0
POINT
  5
19A53
330
19482
100
AcDbEntity
  8
DEFPOINTS
 62
     0
 48
50.0
100
AcDbPoint
 10
8780.203676905134
 20
4778.500626005591
 30
0.0
  0
ENDBLK
  5
1948D
330
19482
100
AcDbEntity
  8
0
 48
50.0
100
AcDbBlockEnd
  0
BLOCK
  5
19498
330
1948E
100
AcDbEntity
  8
0
 48
50.0
100
AcDbBlockBegin
  2
*D17
 70
     1
 10
0.0
 20
0.0
 30
0.0
  3
*D17
  1

  0
LINE
  5
19A42
330
1948E
100
AcDbEntity
  8
寸法
 62
     0
 48
50.0
370
    -2
100
AcDbLine
 10
8880.203676905136
 20
1684.843172426288
 30
0.0
 11
8880.203676905136
 21
1358.795843125911
 31
0.0
  0
LINE
  5
19A43
330
1948E
100
AcDbEntity
  8
寸法
 62
     0
 48
50.0
370
    -2
100
AcDbLine
 10
8680.203676905135
 20
1684.843172426288
 30
0.0
 11
8680.203676905135
 21
1358.795843125911
 31
0.0
  0
LINE
  5
19A44
330
1948E
100
AcDbEntity
  8
寸法
 62
     0
 48
50.0
370
    -2
100
AcDbLine
 10
8880.203676905136
 20
1418.795843125911
 30
0.0
 11
8680.203676905135
 21
1418.795843125911
 31
0.0
  0
INSERT
  5
19A45
330
1948E
100
AcDbEntity
  8
寸法
 62
     0
 48
50.0
370
    -2
100
AcDbBlockReference
  2
_DOTSMALL
 10
8880.203676905136
 20
1418.795843125911
 30
0.0
 41
100.0
 42
100.0
 43
100.0
  0
INSERT
  5
19A46
330
1948E
100
AcDbEntity
  8
寸法
 62
     0
 48
50.0
370
    -2
100
AcDbBlockReference
  2
_DOTSMALL
 10
8680.203676905135
 20
1418.795843125911
 30
0.0
 41
100.0
 42
100.0
 43
100.0
 50
180.0
  0
MTEXT
  5
19A47
330
1948E
100
AcDbEntity
  8
寸法
 62
     7
 48
50.0
100
AcDbMText
 10
8780.203676905134
 20
1518.807654149533
 30
0.0
 40
120.0
 41
0.0
 71
     5
 72
     1
  1
\A1;200
  7
STYLE1
 73
     1
 44
1.0
1001
ACAD
1000
MTEXTBEGIN
1070
    73
1070
     1
1070
    44
1040
1.0
1070
    74
1070
     0
1000
MTEXTEND
  0
POINT
  5
19A48
330
1948E
100
AcDbEntity
  8
DEFPOINTS
 62
     0
 48
50.0
100
AcDbPoint
 10
8880.203676905136
 20
1704.843172426288
 30
0.0
  0
POINT
  5
19A49
330
1948E
100
AcDbEntity
  8
DEFPOINTS
 62
     0
 48
50.0
100
AcDbPoint
 10
8680.203676905135
 20
1704.843172426288
 30
0.0
  0
POINT
  5
19A4A
330
1948E
100
AcDbEntity
  8
DEFPOINTS
 62
     0
 48
50.0
100
AcDbPoint
 10
8680.203676905135
 20
1418.795843125911
 30
0.0
  0
ENDBLK
  5
19499
330
1948E
100
AcDbEntity
  8
0
 48
50.0
100
AcDbBlockEnd
  0
BLOCK
  5
194A4
330
1949A
100
AcDbEntity
  8
0
 48
50.0
100
AcDbBlockBegin
  2
*D18
 70
     1
 10
0.0
 20
0.0
 30
0.0
  3
*D18
  1

  0
LINE
  5
1A1B2
330
1949A
100
AcDbEntity
  8
寸法
 62
     0
 48
50.0
370
    -2
100
AcDbLine
 10
11010.20367690514
 20
9716.086285259095
 30
0.0
 11
12062.73696437919
 21
9716.086285259095
 31
0.0
  0
LINE
  5
1A1B3
330
1949A
100
AcDbEntity
  8
寸法
 62
     0
 48
50.0
370
    -2
100
AcDbLine
 10
11010.20367690511
 20
7506.086285259087
 30
0.0
 11
12062.73696437919
 21
7506.086285259087
 31
0.0
  0
LINE
  5
1A1B4
330
1949A
100
AcDbEntity
  8
寸法
 62
     0
 48
50.0
370
    -2
100
AcDbLine
 10
12002.73696437919
 20
9716.086285259095
 30
0.0
 11
12002.73696437919
 21
7506.086285259087
 31
0.0
  0
INSERT
  5
1A1B5
330
1949A
100
AcDbEntity
  8
寸法
 62
     0
 48
50.0
370
    -2
100
AcDbBlockReference
  2
_DOTSMALL
 10
12002.73696437919
 20
9716.086285259095
 30
0.0
 41
100.0
 42
100.0
 43
100.0
 50
90.0
  0
INSERT
  5
1A1B6
330
1949A
100
AcDbEntity
  8
寸法
 62
     0
 48
50.0
370
    -2
100
AcDbBlockReference
  2
_DOTSMALL
 10
12002.73696437919
 20
7506.086285259087
 30
0.0
 41
100.0
 42
100.0
 43
100.0
 50
270.0
  0
MTEXT
  5
1A1B7
330
1949A
100
AcDbEntity
  8
寸法
 62
     7
 48
50.0
100
AcDbMText
 10
11902.72515335557
 20
8611.086285259091
 30
0.0
 40
120.0
 41
0.0
 71
     5
 72
     1
  1
\A1;2210
  7
STYLE1
 11
0.0000000000000001
 21
1.0
 31
0.0
 73
     1
 44
1.0
1001
ACAD
1000
MTEXTBEGIN
1070
    73
1070
     1
1070
    44
1040
1.0
1070
    74
1070
     0
1000
MTEXTEND
  0
POINT
  5
1A1B8
330
1949A
100
AcDbEntity
  8
DEFPOINTS
 62
     0
 48
50.0
100
AcDbPoint
 10
10990.20367690514
 20
9716.086285259095
 30
0.0
  0
POINT
  5
1A1B9
330
1949A
100
AcDbEntity
  8
DEFPOINTS
 62
     0
 48
50.0
100
AcDbPoint
 10
10990.20367690511
 20
7506.086285259087
 30
0.0
  0
POINT
  5
1A1BA
330
1949A
100
AcDbEntity
  8
DEFPOINTS
 62
     0
 48
50.0
100
AcDbPoint
 10
12002.73696437919
 20
7506.086285259087
 30
0.0
  0
ENDBLK
  5
194A5
330
1949A
100
AcDbEntity
  8
0
 48
50.0
100
AcDbBlockEnd
  0
BLOCK
  5
194B0
330
194A6
100
AcDbEntity
  8
0
 48
50.0
100
AcDbBlockBegin
  2
*D19
 70
     1
 10
0.0
 20
0.0
 30
0.0
  3
*D19
  1

  0
LINE
  5
1A1A9
330
194A6
100
AcDbEntity
  8
寸法
 62
     0
 48
50.0
370
    -2
100
AcDbLine
 10
8835.203676905141
 20
9736.086285259
 30
0.0
 11
8835.203676905141
 21
10079.13187983469
 31
0.0
  0
LINE
  5
1A1AA
330
194A6
100
AcDbEntity
  8
寸法
 62
     0
 48
50.0
370
    -2
100
AcDbLine
 10
10935.20367690514
 20
9736.086285259094
 30
0.0
 11
10935.20367690514
 21
10079.13187983469
 31
0.0
  0
LINE
  5
1A1AB
330
194A6
100
AcDbEntity
  8
寸法
 62
     0
 48
50.0
370
    -2
100
AcDbLine
 10
8835.203676905141
 20
10019.13187983469
 30
0.0
 11
10935.20367690514
 21
10019.13187983469
 31
0.0
  0
INSERT
  5
1A1AC
330
194A6
100
AcDbEntity
  8
寸法
 62
     0
 48
50.0
370
    -2
100
AcDbBlockReference
  2
_DOTSMALL
 10
8835.203676905141
 20
10019.13187983469
 30
0.0
 41
100.0
 42
100.0
 43
100.0
 50
180.0
  0
INSERT
  5
1A1AD
330
194A6
100
AcDbEntity
  8
寸法
 62
     0
 48
50.0
370
    -2
100
AcDbBlockReference
  2
_DOTSMALL
 10
10935.20367690514
 20
10019.13187983469
 30
0.0
 41
100.0
 42
100.0
 43
100.0
  0
MTEXT
  5
1A1AE
330
194A6
100
AcDbEntity
  8
寸法
 62
     7
 48
50.0
100
AcDbMText
 10
9885.20367690514
 20
10119.14369085831
 30
0.0
 40
120.0
 41
0.0
 71
     5
 72
     1
  1
\A1;5X420=2100
  7
STYLE1
 73
     1
 44
1.0
1001
ACAD
1000
MTEXTBEGIN
1070
    73
1070
     1
1070
    44
1040
1.0
1070
    74
1070
     0
1000
MTEXTEND
  0
POINT
  5
1A1AF
330
194A6
100
AcDbEntity
  8
DEFPOINTS
 62
     0
 48
50.0
100
AcDbPoint
 10
8835.203676905141
 20
9716.086285259001
 30
0.0
  0
POINT
  5
1A1B0
330
194A6
100
AcDbEntity
  8
DEFPOINTS
 62
     0
 48
50.0
100
AcDbPoint
 10
10935.20367690514
 20
9716.086285259095
 30
0.0
  0
POINT
  5
1A1B1
330
194A6
100
AcDbEntity
  8
DEFPOINTS
 62
     0
 48
50.0
100
AcDbPoint
 10
10935.20367690514
 20
10019.13187983469
 30
0.0
  0
ENDBLK
  5
194B1
330
194A6
100
AcDbEntity
  8
0
 48
50.0
100
AcDbBlockEnd
  0
BLOCK
  5
194BE
330
194B2
100
AcDbEntity
  8
0
 48
50.0
100
AcDbBlockBegin
  2
*D20
 70
     1
 10
0.0
 20
0.0
 30
0.0
  3
*D20
  1

  0
LINE
  5
1A19E
330
194B2
100
AcDbEntity
  8
寸法
 62
     0
 48
50.0
370
    -2
100
AcDbLine
 10
10935.20367690514
 20
9736.086285259094
 30
0.0
 11
10935.20367690514
 21
10079.13187983467
 31
0.0
  0
LINE
  5
1A19F
330
194B2
100
AcDbEntity
  8
寸法
 62
     0
 48
50.0
370
    -2
100
AcDbLine
 10
10990.20367690514
 20
9736.086285259094
 30
0.0
 11
10990.20367690514
 21
10079.13187983467
 31
0.0
  0
LINE
  5
1A1A0
330
194B2
100
AcDbEntity
  8
寸法
 62
     0
 48
50.0
370
    -2
100
AcDbLine
 10
10935.20367690514
 20
10019.13187983467
 30
0.0
 11
10835.20367690514
 21
10019.13187983467
 31
0.0
  0
LINE
  5
1A1A1
330
194B2
100
AcDbEntity
  8
寸法
 62
     0
 48
50.0
370
    -2
100
AcDbLine
 10
10990.20367690514
 20
10019.13187983467
 30
0.0
 11
11407.17423965361
 21
10019.13187983467
 31
0.0
  0
LINE
  5
1A1A2
330
194B2
100
AcDbEntity
  8
寸法
 62
     0
 48
50.0
370
    -2
100
AcDbLine
 10
10935.20367690514
 20
10019.13187983467
 30
0.0
 11
10990.20367690514
 21
10019.13187983467
 31
0.0
  0
INSERT
  5
1A1A3
330
194B2
100
AcDbEntity
  8
寸法
 62
     0
 48
50.0
370
    -2
100
AcDbBlockReference
  2
_DOTSMALL
 10
10935.20367690514
 20
10019.13187983467
 30
0.0
 41
100.0
 42
100.0
 43
100.0
  0
INSERT
  5
1A1A4
330
194B2
100
AcDbEntity
  8
寸法
 62
     0
 48
50.0
370
    -2
100
AcDbBlockReference
  2
_DOTSMALL
 10
10990.20367690514
 20
10019.13187983467
 30
0.0
 41
100.0
 42
100.0
 43
100.0
 50
180.0
  0
MTEXT
  5
1A1A5
330
194B2
100
AcDbEntity
  8
寸法
 62
     7
 48
50.0
100
AcDbMText
 10
11298.68895827938
 20
10119.13187983467
 30
0.0
 40
120.0
 41
0.0
 71
     5
 72
     1
  1
\A1;55
  7
STYLE1
 73
     1
 44
1.0
1001
ACAD
1000
MTEXTBEGIN
1070
    73
1070
     1
1070
    44
1040
1.0
1070
    74
1070
     0
1000
MTEXTEND
  0
POINT
  5
1A1A6
330
194B2
100
AcDbEntity
  8
DEFPOINTS
 62
     0
 48
50.0
100
AcDbPoint
 10
10935.20367690514
 20
9716.086285259095
 30
0.0
  0
POINT
  5
1A1A7
330
194B2
100
AcDbEntity
  8
DEFPOINTS
 62
     0
 48
50.0
100
AcDbPoint
 10
10990.20367690514
 20
9716.086285259095
 30
0.0
  0
POINT
  5
1A1A8
330
194B2
100
AcDbEntity
  8
DEFPOINTS
 62
     0
 48
50.0
100
AcDbPoint
 10
10990.20367690514
 20
10019.13187983467
 30
0.0
  0
ENDBLK
  5
194BF
330
194B2
100
AcDbEntity
  8
0
 48
50.0
100
AcDbBlockEnd
  0
BLOCK
  5
194CC
330
194C0
100
AcDbEntity
  8
0
 48
50.0
100
AcDbBlockBegin
  2
*D21
 70
     1
 10
0.0
 20
0.0
 30
0.0
  3
*D21
  1

  0
LINE
  5
1A193
330
194C0
100
AcDbEntity
  8
寸法
 62
     0
 48
50.0
370
    -2
100
AcDbLine
 10
11010.20367690514
 20
9716.086285259095
 30
0.0
 11
11697.63002263955
 21
9716.086285259095
 31
0.0
  0
LINE
  5
1A194
330
194C0
100
AcDbEntity
  8
寸法
 62
     0
 48
50.0
370
    -2
100
AcDbLine
 10
11010.20367690514
 20
9661.086285259099
 30
0.0
 11
11697.63002263955
 21
9661.086285259099
 31
0.0
  0
LINE
  5
1A195
330
194C0
100
AcDbEntity
  8
寸法
 62
     0
 48
50.0
370
    -2
100
AcDbLine
 10
11637.63002263955
 20
9661.086285259099
 30
0.0
 11
11637.63002263955
 21
9561.086285259099
 31
0.0
  0
LINE
  5
1A196
330
194C0
100
AcDbEntity
  8
寸法
 62
     0
 48
50.0
370
    -2
100
AcDbLine
 10
11637.63002263955
 20
9716.086285259095
 30
0.0
 11
11637.63002263955
 21
10133.05684800757
 31
0.0
  0
LINE
  5
1A197
330
194C0
100
AcDbEntity
  8
寸法
 62
     0
 48
50.0
370
    -2
100
AcDbLine
 10
11637.63002263955
 20
9661.086285259099
 30
0.0
 11
11637.63002263955
 21
9716.086285259095
 31
0.0
  0
INSERT
  5
1A198
330
194C0
100
AcDbEntity
  8
寸法
 62
     0
 48
50.0
370
    -2
100
AcDbBlockReference
  2
_DOTSMALL
 10
11637.63002263955
 20
9661.086285259099
 30
0.0
 41
100.0
 42
100.0
 43
100.0
 50
90.0
  0
INSERT
  5
1A199
330
194C0
100
AcDbEntity
  8
寸法
 62
     0
 48
50.0
370
    -2
100
AcDbBlockReference
  2
_DOTSMALL
 10
11637.63002263955
 20
9716.086285259095
 30
0.0
 41
100.0
 42
100.0
 43
100.0
 50
270.0
  0
MTEXT
  5
1A19A
330
194C0
100
AcDbEntity
  8
寸法
 62
     7
 48
50.0
100
AcDbMText
 10
11537.63002263955
 20
10024.57156663333
 30
0.0
 40
120.0
 41
0.0
 71
     5
 72
     1
  1
\A1;55
  7
STYLE1
 11
0.0000000000000001
 21
1.0
 31
0.0
 73
     1
 44
1.0
1001
ACAD
1000
MTEXTBEGIN
1070
    73
1070
     1
1070
    44
1040
1.0
1070
    74
1070
     0
1000
MTEXTEND
  0
POINT
  5
1A19B
330
194C0
100
AcDbEntity
  8
DEFPOINTS
 62
     0
 48
50.0
100
AcDbPoint
 10
10990.20367690514
 20
9716.086285259095
 30
0.0
  0
POINT
  5
1A19C
330
194C0
100
AcDbEntity
  8
DEFPOINTS
 62
     0
 48
50.0
100
AcDbPoint
 10
10990.20367690514
 20
9661.086285259099
 30
0.0
  0
POINT
  5
1A19D
330
194C0
100
AcDbEntity
  8
DEFPOINTS
 62
     0
 48
50.0
100
AcDbPoint
 10
11637.63002263955
 20
9661.086285259099
 30
0.0
  0
ENDBLK
  5
194CD
330
194C0
100
AcDbEntity
  8
0
 48
50.0
100
AcDbBlockEnd
  0
BLOCK
  5
194DA
330
194CE
100
AcDbEntity
  8
0
 48
50.0
100
AcDbBlockBegin
  2
*D22
 70
     1
 10
0.0
 20
0.0
 30
0.0
  3
*D22
  1

  0
LINE
  5
1A188
330
194CE
100
AcDbEntity
  8
寸法
 62
     0
 48
50.0
370
    -2
100
AcDbLine
 10
8780.203676905104
 20
9736.086285259
 30
0.0
 11
8780.203676905104
 21
10079.13187983458
 31
0.0
  0
LINE
  5
1A189
330
194CE
100
AcDbEntity
  8
寸法
 62
     0
 48
50.0
370
    -2
100
AcDbLine
 10
8835.203676905141
 20
9736.086285259
 30
0.0
 11
8835.203676905141
 21
10079.13187983458
 31
0.0
  0
LINE
  5
1A18A
330
194CE
100
AcDbEntity
  8
寸法
 62
     0
 48
50.0
370
    -2
100
AcDbLine
 10
8835.203676905141
 20
10019.13187983458
 30
0.0
 11
8935.203676905141
 21
10019.13187983458
 31
0.0
  0
LINE
  5
1A18B
330
194CE
100
AcDbEntity
  8
寸法
 62
     0
 48
50.0
370
    -2
100
AcDbLine
 10
8780.203676905104
 20
10019.13187983458
 30
0.0
 11
8363.233114156628
 21
10019.13187983458
 31
0.0
  0
LINE
  5
1A18C
330
194CE
100
AcDbEntity
  8
寸法
 62
     0
 48
50.0
370
    -2
100
AcDbLine
 10
8835.203676905141
 20
10019.13187983458
 30
0.0
 11
8780.203676905104
 21
10019.13187983458
 31
0.0
  0
INSERT
  5
1A18D
330
194CE
100
AcDbEntity
  8
寸法
 62
     0
 48
50.0
370
    -2
100
AcDbBlockReference
  2
_DOTSMALL
 10
8835.203676905141
 20
10019.13187983458
 30
0.0
 41
100.0
 42
100.0
 43
100.0
 50
180.0
  0
INSERT
  5
1A18E
330
194CE
100
AcDbEntity
  8
寸法
 62
     0
 48
50.0
370
    -2
100
AcDbBlockReference
  2
_DOTSMALL
 10
8780.203676905104
 20
10019.13187983458
 30
0.0
 41
100.0
 42
100.0
 43
100.0
  0
MTEXT
  5
1A18F
330
194CE
100
AcDbEntity
  8
寸法
 62
     7
 48
50.0
100
AcDbMText
 10
8471.718395530867
 20
10119.13187983458
 30
0.0
 40
120.0
 41
0.0
 71
     5
 72
     1
  1
\A1;55
  7
STYLE1
 73
     1
 44
1.0
1001
ACAD
1000
MTEXTBEGIN
1070
    73
1070
     1
1070
    44
1040
1.0
1070
    74
1070
     0
1000
MTEXTEND
  0
POINT
  5
1A190
330
194CE
100
AcDbEntity
  8
DEFPOINTS
 62
     0
 48
50.0
100
AcDbPoint
 10
8780.203676905104
 20
9716.086285259001
 30
0.0
  0
POINT
  5
1A191
330
194CE
100
AcDbEntity
  8
DEFPOINTS
 62
     0
 48
50.0
100
AcDbPoint
 10
8835.203676905141
 20
9716.086285259001
 30
0.0
  0
POINT
  5
1A192
330
194CE
100
AcDbEntity
  8
DEFPOINTS
 62
     0
 48
50.0
100
AcDbPoint
 10
8835.203676905141
 20
10019.13187983458
 30
0.0
  0
ENDBLK
  5
194DB
330
194CE
100
AcDbEntity
  8
0
 48
50.0
100
AcDbBlockEnd
  0
BLOCK
  5
194E6
330
194DC
100
AcDbEntity
  8
0
 48
50.0
100
AcDbBlockBegin
  2
*D23
 70
     1
 10
0.0
 20
0.0
 30
0.0
  3
*D23
  1

  0
LINE
  5
1A17F
330
194DC
100
AcDbEntity
  8
寸法
 62
     0
 48
50.0
370
    -2
100
AcDbLine
 10
8803.344693056519
 20
9216.086285259001
 30
0.0
 11
8714.057951802869
 21
8882.86363045813
 31
0.0
  0
LINE
  5
1A180
330
194DC
100
AcDbEntity
  8
寸法
 62
     0
 48
50.0
370
    -2
100
AcDbLine
 10
10076.34469305653
 20
9216.086285258993
 30
0.0
 11
9987.057951802883
 21
8882.86363045813
 31
0.0
  0
LINE
  5
1A181
330
194DC
100
AcDbEntity
  8
寸法
 62
     0
 48
50.0
370
    -2
100
AcDbLine
 10
8730.134903348739
 20
8942.863630458131
 30
0.0
 11
10003.13490334875
 21
8942.863630458131
 31
0.0
  0
INSERT
  5
1A182
330
194DC
100
AcDbEntity
  8
寸法
 62
     0
 48
50.0
370
    -2
100
AcDbBlockReference
  2
_DOTSMALL
 10
8730.134903348739
 20
8942.863630458131
 30
0.0
 41
100.0
 42
100.0
 43
100.0
 50
180.0
  0
INSERT
  5
1A183
330
194DC
100
AcDbEntity
  8
寸法
 62
     0
 48
50.0
370
    -2
100
AcDbBlockReference
  2
_DOTSMALL
 10
10003.13490334875
 20
8942.863630458131
 30
0.0
 41
100.0
 42
100.0
 43
100.0
  0
MTEXT
  5
1A184
330
194DC
100
AcDbEntity
  8
寸法
 62
     7
 48
50.0
100
AcDbMText
 10
9344.280453481522
 20
9042.875441481752
 30
0.0
 40
120.0
 41
0.0
 71
     5
 72
     1
  1
\A1;1273
  7
STYLE1
 73
     1
 44
1.0
1001
ACAD
1000
MTEXTBEGIN
1070
    73
1070
     1
1070
    44
1040
1.0
1070
    74
1070
     0
1000
MTEXTEND
  0
POINT
  5
1A185
330
194DC
100
AcDbEntity
  8
DEFPOINTS
 62
     0
 48
50.0
100
AcDbPoint
 10
8808.703676905141
 20
9236.086285259
 30
0.0
  0
POINT
  5
1A186
330
194DC
100
AcDbEntity
  8
DEFPOINTS
 62
     0
 48
50.0
100
AcDbPoint
 10
10081.70367690515
 20
9236.086285258993
 30
0.0
  0
POINT
  5
1A187
330
194DC
100
AcDbEntity
  8
DEFPOINTS
 62
     0
 48
50.0
100
AcDbPoint
 10
10003.13490334875
 20
8942.863630458131
 30
0.0
  0
ENDBLK
  5
194E7
330
194DC
100
AcDbEntity
  8
0
 48
50.0
100
AcDbBlockEnd
  0
BLOCK
  5
19500
330
194F4
100
AcDbEntity
  8
0
 48
50.0
100
AcDbBlockBegin
  2
*D24
 70
     1
 10
0.0
 20
0.0
 30
0.0
  3
*D24
  1

  0
LINE
  5
1A174
330
194F4
100
AcDbEntity
  8
寸法
 62
     0
 48
50.0
370
    -2
100
AcDbLine
 10
11010.20367690511
 20
7561.086285259084
 30
0.0
 11
11697.63002263952
 21
7561.086285259084
 31
0.0
  0
LINE
  5
1A175
330
194F4
100
AcDbEntity
  8
寸法
 62
     0
 48
50.0
370
    -2
100
AcDbLine
 10
11010.20367690511
 20
7506.086285259087
 30
0.0
 11
11697.63002263952
 21
7506.086285259087
 31
0.0
  0
LINE
  5
1A176
330
194F4
100
AcDbEntity
  8
寸法
 62
     0
 48
50.0
370
    -2
100
AcDbLine
 10
11637.63002263952
 20
7561.086285259084
 30
0.0
 11
11637.63002263952
 21
7661.086285259084
 31
0.0
  0
LINE
  5
1A177
330
194F4
100
AcDbEntity
  8
寸法
 62
     0
 48
50.0
370
    -2
100
AcDbLine
 10
11637.63002263952
 20
7506.086285259087
 30
0.0
 11
11637.63002263952
 21
7019.739536979985
 31
0.0
  0
LINE
  5
1A178
330
194F4
100
AcDbEntity
  8
寸法
 62
     0
 48
50.0
370
    -2
100
AcDbLine
 10
11637.63002263952
 20
7561.086285259084
 30
0.0
 11
11637.63002263952
 21
7506.086285259087
 31
0.0
  0
INSERT
  5
1A179
330
194F4
100
AcDbEntity
  8
寸法
 62
     0
 48
50.0
370
    -2
100
AcDbBlockReference
  2
_DOTSMALL
 10
11637.63002263952
 20
7561.086285259084
 30
0.0
 41
100.0
 42
100.0
 43
100.0
 50
270.0
  0
INSERT
  5
1A17A
330
194F4
100
AcDbEntity
  8
寸法
 62
     0
 48
50.0
370
    -2
100
AcDbBlockReference
  2
_DOTSMALL
 10
11637.63002263952
 20
7506.086285259087
 30
0.0
 41
100.0
 42
100.0
 43
100.0
 50
90.0
  0
MTEXT
  5
1A17B
330
194F4
100
AcDbEntity
  8
寸法
 62
     7
 48
50.0
100
AcDbMText
 10
11537.63002263952
 20
7128.224818354225
 30
0.0
 40
120.0
 41
0.0
 71
     5
 72
     1
  1
\A1;55
  7
STYLE1
 11
0.0000000000000001
 21
1.0
 31
0.0
 73
     1
 44
1.0
1001
ACAD
1000
MTEXTBEGIN
1070
    73
1070
     1
1070
    44
1040
1.0
1070
    74
1070
     0
1000
MTEXTEND
  0
POINT
  5
1A17C
330
194F4
100
AcDbEntity
  8
DEFPOINTS
 62
     0
 48
50.0
100
AcDbPoint
 10
10990.20367690511
 20
7561.086285259084
 30
0.0
  0
POINT
  5
1A17D
330
194F4
100
AcDbEntity
  8
DEFPOINTS
 62
     0
 48
50.0
100
AcDbPoint
 10
10990.20367690511
 20
7506.086285259087
 30
0.0
  0
POINT
  5
1A17E
330
194F4
100
AcDbEntity
  8
DEFPOINTS
 62
     0
 48
50.0
100
AcDbPoint
 10
11637.63002263952
 20
7506.086285259087
 30
0.0
  0
ENDBLK
  5
19501
330
194F4
100
AcDbEntity
  8
0
 48
50.0
100
AcDbBlockEnd
  0
BLOCK
  5
1950C
330
19502
100
AcDbEntity
  8
0
 48
50.0
100
AcDbBlockBegin
  2
*D25
 70
     1
 10
0.0
 20
0.0
 30
0.0
  3
*D25
  1

  0
LINE
  5
1A16B
330
19502
100
AcDbEntity
  8
寸法
 62
     0
 48
50.0
370
    -2
100
AcDbLine
 10
10103.34469305652
 20
9216.086285259105
 30
0.0
 11
10014.05795180284
 21
8882.86363045813
 31
0.0
  0
LINE
  5
1A16C
330
19502
100
AcDbEntity
  8
寸法
 62
     0
 48
50.0
370
    -2
100
AcDbLine
 10
10956.34469305653
 20
9216.086285259098
 30
0.0
 11
10867.05795180285
 21
8882.86363045813
 31
0.0
  0
LINE
  5
1A16D
330
19502
100
AcDbEntity
  8
寸法
 62
     0
 48
50.0
370
    -2
100
AcDbLine
 10
10030.13490334871
 20
8942.863630458131
 30
0.0
 11
10883.13490334872
 21
8942.863630458131
 31
0.0
  0
INSERT
  5
1A16E
330
19502
100
AcDbEntity
  8
寸法
 62
     0
 48
50.0
370
    -2
100
AcDbBlockReference
  2
_DOTSMALL
 10
10030.13490334871
 20
8942.863630458131
 30
0.0
 41
100.0
 42
100.0
 43
100.0
 50
180.0
  0
INSERT
  5
1A16F
330
19502
100
AcDbEntity
  8
寸法
 62
     0
 48
50.0
370
    -2
100
AcDbBlockReference
  2
_DOTSMALL
 10
10883.13490334872
 20
8942.863630458131
 30
0.0
 41
100.0
 42
100.0
 43
100.0
  0
MTEXT
  5
1A170
330
19502
100
AcDbEntity
  8
寸法
 62
     7
 48
50.0
100
AcDbMText
 10
10488.05073902341
 20
9042.86363045813
 30
0.0
 40
120.0
 41
0.0
 71
     5
 72
     1
  1
\A1;853
  7
STYLE1
 73
     1
 44
1.0
1001
ACAD
1000
MTEXTBEGIN
1070
    73
1070
     1
1070
    44
1040
1.0
1070
    74
1070
     0
1000
MTEXTEND
  0
POINT
  5
1A171
330
19502
100
AcDbEntity
  8
DEFPOINTS
 62
     0
 48
50.0
100
AcDbPoint
 10
10108.70367690514
 20
9236.086285259105
 30
0.0
  0
POINT
  5
1A172
330
19502
100
AcDbEntity
  8
DEFPOINTS
 62
     0
 48
50.0
100
AcDbPoint
 10
10961.70367690515
 20
9236.086285259098
 30
0.0
  0
POINT
  5
1A173
330
19502
100
AcDbEntity
  8
DEFPOINTS
 62
     0
 48
50.0
100
AcDbPoint
 10
10883.13490334872
 20
8942.863630458131
 30
0.0
  0
ENDBLK
  5
1950D
330
19502
100
AcDbEntity
  8
0
 48
50.0
100
AcDbBlockEnd
  0
BLOCK
  5
19518
330
1950E
100
AcDbEntity
  8
0
 48
50.0
100
AcDbBlockBegin
  2
*D26
 70
     1
 10
0.0
 20
0.0
 30
0.0
  3
*D26
  1

  0
LINE
  5
1A162
330
1950E
100
AcDbEntity
  8
寸法
 62
     0
 48
50.0
370
    -2
100
AcDbLine
 10
10981.70367690514
 20
9680.727301410472
 30
0.0
 11
11377.06140276716
 21
9574.791518044339
 31
0.0
  0
LINE
  5
1A163
330
1950E
100
AcDbEntity
  8
寸法
 62
     0
 48
50.0
370
    -2
100
AcDbLine
 10
10981.70367690514
 20
9230.727301410476
 30
0.0
 11
11377.06140276716
 21
9124.791518044341
 31
0.0
  0
LINE
  5
1A164
330
1950E
100
AcDbEntity
  8
寸法
 62
     0
 48
50.0
370
    -2
100
AcDbLine
 10
11317.06140276716
 20
9590.868469590205
 30
0.0
 11
11317.06140276716
 21
9140.868469590207
 31
0.0
  0
INSERT
  5
1A165
330
1950E
100
AcDbEntity
  8
寸法
 62
     0
 48
50.0
370
    -2
100
AcDbBlockReference
  2
_DOTSMALL
 10
11317.06140276716
 20
9590.868469590205
 30
0.0
 41
100.0
 42
100.0
 43
100.0
 50
90.0
  0
INSERT
  5
1A166
330
1950E
100
AcDbEntity
  8
寸法
 62
     0
 48
50.0
370
    -2
100
AcDbBlockReference
  2
_DOTSMALL
 10
11317.06140276716
 20
9140.868469590207
 30
0.0
 41
100.0
 42
100.0
 43
100.0
 50
270.0
  0
MTEXT
  5
1A167
330
1950E
100
AcDbEntity
  8
寸法
 62
     7
 48
50.0
100
AcDbMText
 10
11217.06140276716
 20
9365.868469590209
 30
0.0
 40
120.0
 41
0.0
 71
     5
 72
     1
  1
\A1;450
  7
STYLE1
 11
0.0000000000000001
 21
1.0
 31
0.0
 73
     1
 44
1.0
1001
ACAD
1000
MTEXTBEGIN
1070
    73
1070
     1
1070
    44
1040
1.0
1070
    74
1070
     0
1000
MTEXTEND
  0
POINT
  5
1A168
330
1950E
100
AcDbEntity
  8
DEFPOINTS
 62
     0
 48
50.0
100
AcDbPoint
 10
10961.70367690514
 20
9686.086285259094
 30
0.0
  0
POINT
  5
1A169
330
1950E
100
AcDbEntity
  8
DEFPOINTS
 62
     0
 48
50.0
100
AcDbPoint
 10
10961.70367690514
 20
9236.086285259098
 30
0.0
  0
POINT
  5
1A16A
330
1950E
100
AcDbEntity
  8
DEFPOINTS
 62
     0
 48
50.0
100
AcDbPoint
 10
11317.06140276716
 20
9140.868469590207
 30
0.0
  0
ENDBLK
  5
19519
330
1950E
100
AcDbEntity
  8
0
 48
50.0
100
AcDbBlockEnd
  0
BLOCK
  5
19524
330
1951A
100
AcDbEntity
  8
0
 48
50.0
100
AcDbBlockBegin
  2
*D27
 70
     1
 10
0.0
 20
0.0
 30
0.0
  3
*D27
  1

  0
LINE
  5
1A159
330
1951A
100
AcDbEntity
  8
寸法
 62
     0
 48
50.0
370
    -2
100
AcDbLine
 10
11010.20367690514
 20
9661.086285259099
 30
0.0
 11
11697.63002263955
 21
9661.086285259099
 31
0.0
  0
LINE
  5
1A15A
330
1951A
100
AcDbEntity
  8
寸法
 62
     0
 48
50.0
370
    -2
100
AcDbLine
 10
11010.20367690511
 20
7561.086285259084
 30
0.0
 11
11697.63002263955
 21
7561.086285259084
 31
0.0
  0
LINE
  5
1A15B
330
1951A
100
AcDbEntity
  8
寸法
 62
     0
 48
50.0
370
    -2
100
AcDbLine
 10
11637.63002263955
 20
9661.086285259099
 30
0.0
 11
11637.63002263955
 21
7561.086285259084
 31
0.0
  0
INSERT
  5
1A15C
330
1951A
100
AcDbEntity
  8
寸法
 62
     0
 48
50.0
370
    -2
100
AcDbBlockReference
  2
_DOTSMALL
 10
11637.63002263955
 20
9661.086285259099
 30
0.0
 41
100.0
 42
100.0
 43
100.0
 50
90.0
  0
INSERT
  5
1A15D
330
1951A
100
AcDbEntity
  8
寸法
 62
     0
 48
50.0
370
    -2
100
AcDbBlockReference
  2
_DOTSMALL
 10
11637.63002263955
 20
7561.086285259084
 30
0.0
 41
100.0
 42
100.0
 43
100.0
 50
270.0
  0
MTEXT
  5
1A15E
330
1951A
100
AcDbEntity
  8
寸法
 62
     7
 48
50.0
100
AcDbMText
 10
11537.61821161593
 20
8611.086285259091
 30
0.0
 40
120.0
 41
0.0
 71
     5
 72
     1
  1
\A1;5X420=2100
  7
STYLE1
 11
0.0000000000000001
 21
1.0
 31
0.0
 73
     1
 44
1.0
1001
ACAD
1000
MTEXTBEGIN
1070
    73
1070
     1
1070
    44
1040
1.0
1070
    74
1070
     0
1000
MTEXTEND
  0
POINT
  5
1A15F
330
1951A
100
AcDbEntity
  8
DEFPOINTS
 62
     0
 48
50.0
100
AcDbPoint
 10
10990.20367690514
 20
9661.086285259099
 30
0.0
  0
POINT
  5
1A160
330
1951A
100
AcDbEntity
  8
DEFPOINTS
 62
     0
 48
50.0
100
AcDbPoint
 10
10990.20367690511
 20
7561.086285259084
 30
0.0
  0
POINT
  5
1A161
330
1951A
100
AcDbEntity
  8
DEFPOINTS
 62
     0
 48
50.0
100
AcDbPoint
 10
11637.63002263955
 20
7561.086285259084
 30
0.0
  0
ENDBLK
  5
19525
330
1951A
100
AcDbEntity
  8
0
 48
50.0
100
AcDbBlockEnd
  0
BLOCK
  5
19530
330
19526
100
AcDbEntity
  8
0
 48
50.0
100
AcDbBlockBegin
  2
*D28
 70
     1
 10
0.0
 20
0.0
 30
0.0
  3
*D28
  1

  0
LINE
  5
199CE
330
19526
100
AcDbEntity
  8
寸法
 62
     0
 48
50.0
370
    -2
100
AcDbLine
 10
8788.203676905133
 20
4087.843172426288
 30
0.0
 11
8426.978870434119
 21
4087.843172426288
 31
0.0
  0
LINE
  5
199CF
330
19526
100
AcDbEntity
  8
寸法
 62
     0
 48
50.0
370
    -2
100
AcDbLine
 10
8788.203676905133
 20
2062.843172426287
 30
0.0
 11
8426.978870434119
 21
2062.843172426287
 31
0.0
  0
LINE
  5
199D0
330
19526
100
AcDbEntity
  8
寸法
 62
     0
 48
50.0
370
    -2
100
AcDbLine
 10
8486.97887043412
 20
4087.843172426288
 30
0.0
 11
8486.97887043412
 21
2062.843172426287
 31
0.0
  0
INSERT
  5
199D1
330
19526
100
AcDbEntity
  8
寸法
 62
     0
 48
50.0
370
    -2
100
AcDbBlockReference
  2
_DOTSMALL
 10
8486.97887043412
 20
4087.843172426288
 30
0.0
 41
100.0
 42
100.0
 43
100.0
 50
90.0
  0
INSERT
  5
199D2
330
19526
100
AcDbEntity
  8
寸法
 62
     0
 48
50.0
370
    -2
100
AcDbBlockReference
  2
_DOTSMALL
 10
8486.97887043412
 20
2062.843172426287
 30
0.0
 41
100.0
 42
100.0
 43
100.0
 50
270.0
  0
MTEXT
  5
199D3
330
19526
100
AcDbEntity
  8
寸法
 62
     7
 48
50.0
100
AcDbMText
 10
8386.967059410498
 20
3075.343172426288
 30
0.0
 40
120.0
 41
0.0
 71
     5
 72
     1
  1
\A1;有効開口部高サ2025
  7
STYLE1
 11
0.0000000000000001
 21
1.0
 31
0.0
 73
     1
 44
1.0
1001
ACAD
1000
MTEXTBEGIN
1070
    73
1070
     1
1070
    44
1040
1.0
1070
    74
1070
     0
1000
MTEXTEND
  0
POINT
  5
199D4
330
19526
100
AcDbEntity
  8
DEFPOINTS
 62
     0
 48
50.0
100
AcDbPoint
 10
8808.203676905135
 20
4087.843172426288
 30
0.0
  0
POINT
  5
199D5
330
19526
100
AcDbEntity
  8
DEFPOINTS
 62
     0
 48
50.0
100
AcDbPoint
 10
8808.203676905135
 20
2062.843172426287
 30
0.0
  0
POINT
  5
199D6
330
19526
100
AcDbEntity
  8
DEFPOINTS
 62
     0
 48
50.0
100
AcDbPoint
 10
8486.97887043412
 20
2062.843172426287
 30
0.0
  0
ENDBLK
  5
19531
330
19526
100
AcDbEntity
  8
0
 48
50.0
100
AcDbBlockEnd
  0
BLOCK
  5
1954A
330
1953E
100
AcDbEntity
  8
0
 48
50.0
100
AcDbBlockBegin
  2
*D29
 70
     1
 10
0.0
 20
0.0
 30
0.0
  3
*D29
  1

  0
LINE
  5
19ADB
330
1953E
100
AcDbEntity
  8
寸法
 62
     0
 48
50.0
370
    -2
100
AcDbLine
 10
6728.106647567878
 20
4399.84317242629
 30
0.0
 11
6728.106647567878
 21
4844.46343185356
 31
0.0
  0
LINE
  5
19ADC
330
1953E
100
AcDbEntity
  8
寸法
 62
     0
 48
50.0
370
    -2
100
AcDbLine
 10
6678.106647567878
 20
4399.843172426295
 30
0.0
 11
6678.106647567878
 21
4844.46343185356
 31
0.0
  0
LINE
  5
19ADD
330
1953E
100
AcDbEntity
  8
寸法
 62
     0
 48
50.0
370
    -2
100
AcDbLine
 10
6678.106647567878
 20
4784.46343185356
 30
0.0
 11
6578.106647567878
 21
4784.46343185356
 31
0.0
  0
LINE
  5
19ADE
330
1953E
100
AcDbEntity
  8
寸法
 62
     0
 48
50.0
370
    -2
100
AcDbLine
 10
6728.106647567878
 20
4784.46343185356
 30
0.0
 11
7147.639173036599
 21
4784.46343185356
 31
0.0
  0
LINE
  5
19ADF
330
1953E
100
AcDbEntity
  8
寸法
 62
     0
 48
50.0
370
    -2
100
AcDbLine
 10
6678.106647567878
 20
4784.46343185356
 30
0.0
 11
6728.106647567878
 21
4784.46343185356
 31
0.0
  0
INSERT
  5
19AE0
330
1953E
100
AcDbEntity
  8
寸法
 62
     0
 48
50.0
370
    -2
100
AcDbBlockReference
  2
_DOTSMALL
 10
6678.106647567878
 20
4784.46343185356
 30
0.0
 41
100.0
 42
100.0
 43
100.0
  0
INSERT
  5
19AE1
330
1953E
100
AcDbEntity
  8
寸法
 62
     0
 48
50.0
370
    -2
100
AcDbBlockReference
  2
_DOTSMALL
 10
6728.106647567878
 20
4784.46343185356
 30
0.0
 41
100.0
 42
100.0
 43
100.0
 50
180.0
  0
MTEXT
  5
19AE2
330
1953E
100
AcDbEntity
  8
寸法
 62
     7
 48
50.0
100
AcDbMText
 10
7041.591928942111
 20
4884.463431853561
 30
0.0
 40
120.0
 41
0.0
 71
     5
 72
     1
  1
\A1;50
  7
STYLE1
 73
     1
 44
1.0
1001
ACAD
1000
MTEXTBEGIN
1070
    73
1070
     1
1070
    44
1040
1.0
1070
    74
1070
     0
1000
MTEXTEND
  0
POINT
  5
19AE3
330
1953E
100
AcDbEntity
  8
DEFPOINTS
 62
     0
 48
50.0
100
AcDbPoint
 10
6728.106647567878
 20
4379.843172426291
 30
0.0
  0
POINT
  5
19AE4
330
1953E
100
AcDbEntity
  8
DEFPOINTS
 62
     0
 48
50.0
100
AcDbPoint
 10
6678.106647567878
 20
4379.843172426294
 30
0.0
  0
POINT
  5
19AE5
330
1953E
100
AcDbEntity
  8
DEFPOINTS
 62
     0
 48
50.0
100
AcDbPoint
 10
6678.106647567878
 20
4784.46343185356
 30
0.0
  0
ENDBLK
  5
1954B
330
1953E
100
AcDbEntity
  8
0
 48
50.0
100
AcDbBlockEnd
  0
BLOCK
  5
19C94
330
19C8A
100
AcDbEntity
  8
0
 48
50.0
100
AcDbBlockBegin
  2
*D30
 70
     1
 10
0.0
 20
0.0
 30
0.0
  3
*D30
  1

  0
LINE
  5
1A150
330
19C8A
100
AcDbEntity
  8
寸法
 62
     0
 48
50.0
370
    -2
100
AcDbLine
 10
8847.203676905083
 20
7409.086285258901
 30
0.0
 11
8847.203676905083
 21
6748.612355407225
 31
0.0
  0
LINE
  5
1A151
330
19C8A
100
AcDbEntity
  8
寸法
 62
     0
 48
50.0
370
    -2
100
AcDbLine
 10
10113.20367690508
 20
7409.086285258901
 30
0.0
 11
10113.20367690508
 21
6748.612355407225
 31
0.0
  0
LINE
  5
1A152
330
19C8A
100
AcDbEntity
  8
寸法
 62
     0
 48
50.0
370
    -2
100
AcDbLine
 10
8867.203676905083
 20
6788.612355407225
 30
0.0
 11
10093.20367690508
 21
6788.612355407225
 31
0.0
  0
INSERT
  5
1A153
330
19C8A
100
AcDbEntity
  8
寸法
 62
     0
 48
50.0
370
    -2
100
AcDbBlockReference
  2
_DOT
 10
8847.203676905083
 20
6788.612355407225
 30
0.0
 41
20.0
 42
20.0
 43
20.0
 50
180.0
  0
INSERT
  5
1A154
330
19C8A
100
AcDbEntity
  8
寸法
 62
     0
 48
50.0
370
    -2
100
AcDbBlockReference
  2
_DOT
 10
10113.20367690508
 20
6788.612355407225
 30
0.0
 41
20.0
 42
20.0
 43
20.0
  0
MTEXT
  5
1A155
330
19C8A
100
AcDbEntity
  8
寸法
 62
     7
 48
50.0
100
AcDbMText
 10
9509.818622613311
 20
6980.624166430847
 30
0.0
 40
120.0
 41
0.0
 71
     5
 72
     1
  1
\A1;有効開口部間口\P1266
  7
STYLE1
 73
     1
 44
1.0
1001
ACAD
1000
MTEXTBEGIN
1070
    73
1070
     1
1070
    44
1040
1.0
1070
    74
1070
     0
1000
MTEXTEND
  0
POINT
  5
1A156
330
19C8A
100
AcDbEntity
  8
DEFPOINTS
 62
     0
 48
50.0
100
AcDbPoint
 10
8847.203676905083
 20
7429.086285258901
 30
0.0
  0
POINT
  5
1A157
330
19C8A
100
AcDbEntity
  8
DEFPOINTS
 62
     0
 48
50.0
100
AcDbPoint
 10
10113.20367690508
 20
7429.086285258901
 30
0.0
  0
POINT
  5
1A158
330
19C8A
100
AcDbEntity
  8
DEFPOINTS
 62
     0
 48
50.0
100
AcDbPoint
 10
10113.20367690508
 20
6788.612355407225
 30
0.0
  0
ENDBLK
  5
19C95
330
19C8A
100
AcDbEntity
  8
0
 48
50.0
100
AcDbBlockEnd
  0
BLOCK
  5
19FC9
330
19FBF
100
AcDbEntity
  8
0
 48
50.0
100
AcDbBlockBegin
  2
*D31
 70
     1
 10
0.0
 20
0.0
 30
0.0
  3
*D31
  1

  0
LINE
  5
1A147
330
19FBF
100
AcDbEntity
  8
寸法
 62
     0
 48
50.0
370
    -2
100
AcDbLine
 10
8780.203676905134
 20
7486.08628525896
 30
0.0
 11
8780.203676905134
 21
6182.575055485878
 31
0.0
  0
LINE
  5
1A148
330
19FBF
100
AcDbEntity
  8
寸法
 62
     0
 48
50.0
370
    -2
100
AcDbLine
 10
10990.20367690511
 20
7486.086285259087
 30
0.0
 11
10990.20367690511
 21
6182.575055485878
 31
0.0
  0
LINE
  5
1A149
330
19FBF
100
AcDbEntity
  8
寸法
 62
     0
 48
50.0
370
    -2
100
AcDbLine
 10
8780.203676905134
 20
6242.575055485879
 30
0.0
 11
10990.20367690511
 21
6242.575055485879
 31
0.0
  0
INSERT
  5
1A14A
330
19FBF
100
AcDbEntity
  8
寸法
 62
     0
 48
50.0
370
    -2
100
AcDbBlockReference
  2
_DOTSMALL
 10
8780.203676905134
 20
6242.575055485879
 30
0.0
 41
100.0
 42
100.0
 43
100.0
 50
180.0
  0
INSERT
  5
1A14B
330
19FBF
100
AcDbEntity
  8
寸法
 62
     0
 48
50.0
370
    -2
100
AcDbBlockReference
  2
_DOTSMALL
 10
10990.20367690511
 20
6242.575055485879
 30
0.0
 41
100.0
 42
100.0
 43
100.0
  0
MTEXT
  5
1A14C
330
19FBF
100
AcDbEntity
  8
寸法
 62
     7
 48
50.0
100
AcDbMText
 10
9907.336433652428
 20
6342.5868665095
 30
0.0
 40
120.0
 41
0.0
 71
     5
 72
     1
  1
\A1;2210
  7
STYLE1
 73
     1
 44
1.0
1001
ACAD
1000
MTEXTBEGIN
1070
    73
1070
     1
1070
    44
1040
1.0
1070
    74
1070
     0
1000
MTEXTEND
  0
POINT
  5
1A14D
330
19FBF
100
AcDbEntity
  8
DEFPOINTS
 62
     0
 48
50.0
100
AcDbPoint
 10
8780.203676905134
 20
7506.086285258959
 30
0.0
  0
POINT
  5
1A14E
330
19FBF
100
AcDbEntity
  8
DEFPOINTS
 62
     0
 48
50.0
100
AcDbPoint
 10
10990.20367690511
 20
7506.086285259087
 30
0.0
  0
POINT
  5
1A14F
330
19FBF
100
AcDbEntity
  8
DEFPOINTS
 62
     0
 48
50.0
100
AcDbPoint
 10
10990.20367690511
 20
6242.575055485879
 30
0.0
  0
ENDBLK
  5
19FCA
330
19FBF
100
AcDbEntity
  8
0
 48
50.0
100
AcDbBlockEnd
  0
BLOCK
  5
19FD7
330
19FCB
100
AcDbEntity
  8
0
 48
50.0
100
AcDbBlockBegin
  2
*D32
 70
     1
 10
0.0
 20
0.0
 30
0.0
  3
*D32
  1

  0
LINE
  5
1A13C
330
19FCB
100
AcDbEntity
  8
寸法
 62
     0
 48
50.0
370
    -2
100
AcDbLine
 10
8760.203676905133
 20
7506.086285259026
 30
0.0
 11
8445.592431278418
 21
7506.086285259026
 31
0.0
  0
LINE
  5
1A13D
330
19FCB
100
AcDbEntity
  8
寸法
 62
     0
 48
50.0
370
    -2
100
AcDbLine
 10
8788.203676905116
 20
7431.086285259026
 30
0.0
 11
8445.592431278418
 21
7431.086285259026
 31
0.0
  0
LINE
  5
1A13E
330
19FCB
100
AcDbEntity
  8
寸法
 62
     0
 48
50.0
370
    -2
100
AcDbLine
 10
8485.592431278417
 20
7526.086285259025
 30
0.0
 11
8485.592431278417
 21
7546.086285259026
 31
0.0
  0
LINE
  5
1A13F
330
19FCB
100
AcDbEntity
  8
寸法
 62
     0
 48
50.0
370
    -2
100
AcDbLine
 10
8485.592431278417
 20
7411.086285259026
 30
0.0
 11
8485.592431278417
 21
7190.115722510547
 31
0.0
  0
LINE
  5
1A140
330
19FCB
100
AcDbEntity
  8
寸法
 62
     0
 48
50.0
370
    -2
100
AcDbLine
 10
8485.592431278417
 20
7506.086285259026
 30
0.0
 11
8485.592431278417
 21
7431.086285259026
 31
0.0
  0
INSERT
  5
1A141
330
19FCB
100
AcDbEntity
  8
寸法
 62
     0
 48
50.0
370
    -2
100
AcDbBlockReference
  2
_DOT
 10
8485.592431278417
 20
7506.086285259026
 30
0.0
 41
20.0
 42
20.0
 43
20.0
 50
270.0
  0
INSERT
  5
1A142
330
19FCB
100
AcDbEntity
  8
寸法
 62
     0
 48
50.0
370
    -2
100
AcDbBlockReference
  2
_DOT
 10
8485.592431278417
 20
7431.086285259026
 30
0.0
 41
20.0
 42
20.0
 43
20.0
 50
90.0
  0
MTEXT
  5
1A143
330
19FCB
100
AcDbEntity
  8
寸法
 62
     7
 48
50.0
100
AcDbMText
 10
8393.592431278415
 20
7290.601003884787
 30
0.0
 40
120.0
 41
0.0
 71
     5
 72
     1
  1
\A1;75
  7
STYLE1
 11
0.0000000000000001
 21
1.0
 31
0.0
 73
     1
 44
1.0
1001
ACAD
1000
MTEXTBEGIN
1070
    73
1070
     1
1070
    44
1040
1.0
1070
    74
1070
     0
1000
MTEXTEND
  0
POINT
  5
1A144
330
19FCB
100
AcDbEntity
  8
DEFPOINTS
 62
     0
 48
50.0
100
AcDbPoint
 10
8780.203676905134
 20
7506.086285259026
 30
0.0
  0
POINT
  5
1A145
330
19FCB
100
AcDbEntity
  8
DEFPOINTS
 62
     0
 48
50.0
100
AcDbPoint
 10
8808.203676905115
 20
7431.086285259026
 30
0.0
  0
POINT
  5
1A146
330
19FCB
100
AcDbEntity
  8
DEFPOINTS
 62
     0
 48
50.0
100
AcDbPoint
 10
8485.592431278417
 20
7431.086285259026
 30
0.0
  0
ENDBLK
  5
19FD8
330
19FCB
100
AcDbEntity
  8
0
 48
50.0
100
AcDbBlockEnd
  0
BLOCK
  5
19FE3
330
19FD9
100
AcDbEntity
  8
0
 48
50.0
100
AcDbBlockBegin
  2
*D33
 70
     1
 10
0.0
 20
0.0
 30
0.0
  3
*D33
  1

  0
LINE
  5
1A133
330
19FD9
100
AcDbEntity
  8
寸法
 62
     0
 48
50.0
370
    -2
100
AcDbLine
 10
8808.203676905115
 20
7409.086285258971
 30
0.0
 11
8808.203676905115
 21
6448.956569831203
 31
0.0
  0
LINE
  5
1A134
330
19FD9
100
AcDbEntity
  8
寸法
 62
     0
 48
50.0
370
    -2
100
AcDbLine
 10
10962.20367690511
 20
7409.086285258971
 30
0.0
 11
10962.20367690511
 21
6448.956569831203
 31
0.0
  0
LINE
  5
1A135
330
19FD9
100
AcDbEntity
  8
寸法
 62
     0
 48
50.0
370
    -2
100
AcDbLine
 10
8808.203676905115
 20
6508.956569831204
 30
0.0
 11
10962.20367690511
 21
6508.956569831204
 31
0.0
  0
INSERT
  5
1A136
330
19FD9
100
AcDbEntity
  8
寸法
 62
     0
 48
50.0
370
    -2
100
AcDbBlockReference
  2
_DOTSMALL
 10
8808.203676905115
 20
6508.956569831204
 30
0.0
 41
100.0
 42
100.0
 43
100.0
 50
180.0
  0
INSERT
  5
1A137
330
19FD9
100
AcDbEntity
  8
寸法
 62
     0
 48
50.0
370
    -2
100
AcDbBlockReference
  2
_DOTSMALL
 10
10962.20367690511
 20
6508.956569831204
 30
0.0
 41
100.0
 42
100.0
 43
100.0
  0
MTEXT
  5
1A138
330
19FD9
100
AcDbEntity
  8
寸法
 62
     7
 48
50.0
100
AcDbMText
 10
9907.336433652428
 20
6608.968380854825
 30
0.0
 40
120.0
 41
0.0
 71
     5
 72
     1
  1
\A1;2154
  7
STYLE1
 73
     1
 44
1.0
1001
ACAD
1000
MTEXTBEGIN
1070
    73
1070
     1
1070
    44
1040
1.0
1070
    74
1070
     0
1000
MTEXTEND
  0
POINT
  5
1A139
330
19FD9
100
AcDbEntity
  8
DEFPOINTS
 62
     0
 48
50.0
100
AcDbPoint
 10
8808.203676905115
 20
7429.086285258971
 30
0.0
  0
POINT
  5
1A13A
330
19FD9
100
AcDbEntity
  8
DEFPOINTS
 62
     0
 48
50.0
100
AcDbPoint
 10
10962.20367690511
 20
7429.086285258971
 30
0.0
  0
POINT
  5
1A13B
330
19FD9
100
AcDbEntity
  8
DEFPOINTS
 62
     0
 48
50.0
100
AcDbPoint
 10
10962.20367690511
 20
6508.956569831204
 30
0.0
  0
ENDBLK
  5
19FE4
330
19FD9
100
AcDbEntity
  8
0
 48
50.0
100
AcDbBlockEnd
  0
ENDSEC
  0
SECTION
  2
ENTITIES
  0
LINE
  5
10B57
330
747D
100
AcDbEntity
  8
補助
  6
PHANTOM
 62
   230
 48
50.0
100
AcDbLine
 10
139.9999999999995
 20
11409.6
 30
0.0
 11
16307.2
 21
11409.6
 31
0.0
  0
LINE
  5
10B59
330
747D
100
AcDbEntity
  8
仕様書枠
  6
Continuous
 48
50.0
100
AcDbLine
 10
13107.2
 20
1200.0
 30
0.0
 11
13107.2
 21
-0.0000000000000729
 31
0.0
  0
LINE
  5
10B5C
330
747D
100
AcDbEntity
  8
仕様書枠
 48
50.0
100
AcDbLine
 10
16307.2
 20
1200.0
 30
0.0
 11
16307.2
 21
-0.0000000000000909
 31
0.0
  0
LINE
  5
10B5D
330
747D
100
AcDbEntity
  8
仕様書枠
 48
50.0
100
AcDbLine
 10
140.0
 20
0.0
 30
0.0
 11
16307.2
 21
-0.0000000000000909
 31
0.0
  0
LINE
  5
10B5E
330
747D
100
AcDbEntity
  8
補助
  6
PHANTOM
 62
   230
 48
50.0
100
AcDbLine
 10
16307.2
 20
11409.6
 30
0.0
 11
16307.2
 21
1200.0
 31
0.0
  0
LINE
  5
10B6C
330
747D
100
AcDbEntity
  8
仕様書枠
 48
50.0
100
AcDbLine
 10
13107.2
 20
1200.0
 30
0.0
 11
16307.2
 21
1200.0
 31
0.0
  0
LINE
  5
10B6D
330
747D
100
AcDbEntity
  8
補助
  6
PHANTOM
 62
   230
 48
50.0
100
AcDbLine
 10
13107.2
 20
11409.6
 30
0.0
 11
13107.2
 21
4800.0
 31
0.0
  0
LINE
  5
10B6F
330
747D
100
AcDbEntity
  8
補助
  6
PHANTOM
 62
   230
 48
50.0
100
AcDbLine
 10
13107.2
 20
4800.0
 30
0.0
 11
16307.2
 21
4800.0
 31
0.0
  0
LINE
  5
10B72
330
747D
100
AcDbEntity
  8
文字
 62
     7
 48
50.0
100
AcDbLine
 10
13187.2
 20
400.0
 30
0.0
 11
16227.2
 21
400.0
 31
0.0
  0
TEXT
  5
10B73
330
747D
100
AcDbEntity
  8
文字
 62
     7
 48
50.0
100
AcDbText
 10
13162.9790565769
 20
895.0906074299405
 30
0.0
 40
200.0
  1
外 形 図
  7
STYLE2
100
AcDbText
  0
TEXT
  5
10B74
330
747D
100
AcDbEntity
  8
文字
 62
     7
 48
50.0
100
AcDbText
 10
13201.43669998441
 20
477.2740661031255
 30
0.0
 40
160.0
  1
機種名
  7
STYLE2
100
AcDbText
  0
TEXT
  5
10B76
330
747D
100
AcDbEntity
  8
文字
 62
     7
 48
50.0
100
AcDbText
 10
13209.4053442172
 20
76.09434707649343
 30
0.0
 40
100.0
  1
○床面積 ： 5.05㎡(1.53坪) 　
  7
STYLE2
100
AcDbText
  0
TEXT
  5
10B79
330
747D
100
AcDbEntity
  8
文字
 62
     7
 48
50.0
100
AcDbText
 10
14524.131837222
 20
1031.557706291228
 30
0.0
 40
100.0
  1
NO.17      <縮尺> S=1/40
  7
STYLE2
100
AcDbText
  0
LINE
  5
10B7B
330
747D
100
AcDbEntity
  8
仕様書枠
 48
50.0
100
AcDbLine
 10
13107.2
 20
800.0
 30
0.0
 11
14251.2
 21
800.0
 31
0.0
  0
LINE
  5
10B88
330
747D
100
AcDbEntity
  8
仕様書枠
  6
Continuous
 48
50.0
100
AcDbLine
 10
14251.2
 20
1200.0
 30
0.0
 11
14251.2
 21
800.0
 31
0.0
  0
TEXT
  5
14D2F
330
747D
100
AcDbEntity
  8
文字
 62
     7
 48
50.0
100
AcDbText
 10
14644.07818602837
 20
876.4448062548634
 30
0.0
 40
100.0
  1
～一般型・多雪地型～
  7
STYLE2
100
AcDbText
  0
TEXT
  5
1911D
330
747D
100
AcDbEntity
  8
文字
 62
     7
 48
50.0
100
AcDbText
 10
14798.72402257234
 20
9740.013745883729
 30
0.0
 40
100.0
  1
F12(一般型1.0/多雪地型2.3)
  7
STYLE1
100
AcDbText
  0
TEXT
  5
1911E
330
747D
100
AcDbEntity
  8
文字
 62
     7
 48
50.0
100
AcDbText
 10
13248.77747366447
 20
8380.013745883733
 30
0.0
 40
100.0
  1
17
  7
STYLE1
100
AcDbText
  0
TEXT
  5
1911F
330
747D
100
AcDbEntity
  8
文字
 62
     7
 48
50.0
100
AcDbText
 10
13248.77747366447
 20
8550.013745883733
 30
0.0
 40
100.0
  1
16
  7
STYLE1
100
AcDbText
  0
TEXT
  5
19120
330
747D
100
AcDbEntity
  8
文字
 62
     7
 48
50.0
100
AcDbText
 10
15022.63965474517
 20
9060.013745883729
 30
0.0
 40
100.0
  1
F12            1.0
  7
STYLE1
100
AcDbText
  0
TEXT
  5
19121
330
747D
100
AcDbEntity
  8
文字
 62
     7
 48
50.0
100
AcDbText
 10
13583.11819016569
 20
9060.013745883736
 30
0.0
 40
100.0
  1
壁面扉枠左右
  7
STYLE1
100
AcDbText
  0
TEXT
  5
19122
330
747D
100
AcDbEntity
  8
文字
 62
     7
 48
50.0
100
AcDbText
 10
15022.63965474517
 20
9230.013745883729
 30
0.0
 40
100.0
  1
F12            1.0
  7
STYLE1
100
AcDbText
  0
TEXT
  5
19123
330
747D
100
AcDbEntity
  8
文字
 62
     7
 48
50.0
100
AcDbText
 10
15022.63965474515
 20
9400.013745883731
 30
0.0
 40
100.0
  1
F12            0.7
  7
STYLE1
100
AcDbText
  0
TEXT
  5
19124
330
747D
100
AcDbEntity
  8
文字
 62
     7
 48
50.0
100
AcDbText
 10
13583.11819016569
 20
9230.013745883736
 30
0.0
 40
100.0
  1
壁面扉敷居
  7
STYLE1
100
AcDbText
  0
TEXT
  5
19125
330
747D
100
AcDbEntity
  8
文字
 62
     7
 48
50.0
100
AcDbText
 10
13583.11819016569
 20
9400.013745883732
 30
0.0
 40
100.0
  1
壁面扉鴨居
  7
STYLE1
100
AcDbText
  0
LINE
  5
19126
330
747D
100
AcDbEntity
  8
仕様書枠
 48
50.0
100
AcDbLine
 10
16307.19999999999
 20
8689.600000000007
 30
0.0
 11
13127.2
 21
8689.600000000011
 31
0.0
  0
LINE
  5
19127
330
747D
100
AcDbEntity
  8
仕様書枠
 48
50.0
100
AcDbLine
 10
16307.19999999999
 20
8519.600000000009
 30
0.0
 11
13127.2
 21
8519.600000000009
 31
0.0
  0
TEXT
  5
19128
330
747D
100
AcDbEntity
  8
文字
 62
     7
 48
50.0
100
AcDbText
 10
13583.11819016569
 20
8380.013745883733
 30
0.0
 40
100.0
  1
アンカープレート
  7
STYLE1
100
AcDbText
  0
TEXT
  5
19129
330
747D
100
AcDbEntity
  8
文字
 62
     7
 48
50.0
100
AcDbText
 10
15022.63965474515
 20
8380.013745883728
 30
0.0
 40
100.0
  1
F12            2.3
  7
STYLE1
100
AcDbText
  0
LINE
  5
1912A
330
747D
100
AcDbEntity
  8
仕様書枠
 48
50.0
100
AcDbLine
 10
16307.2
 20
10049.6
 30
0.0
 11
13127.2
 21
10049.6
 31
0.0
  0
LINE
  5
1912B
330
747D
100
AcDbEntity
  8
仕様書枠
 48
50.0
100
AcDbLine
 10
16307.2
 20
11409.6
 30
0.0
 11
13127.2
 21
11409.6
 31
0.0
  0
LINE
  5
1912C
330
747D
100
AcDbEntity
  8
仕様書枠
 48
50.0
100
AcDbLine
 10
16307.19999999999
 20
8009.600000000007
 30
0.0
 11
16307.2
 21
11409.6
 31
0.0
  0
LINE
  5
1912D
330
747D
100
AcDbEntity
  8
仕様書枠
 48
50.0
100
AcDbLine
 10
14785.2
 20
11409.6
 30
0.0
 11
14785.2
 21
8349.600000000007
 31
0.0
  0
LINE
  5
1912E
330
747D
100
AcDbEntity
  8
仕様書枠
 48
50.0
100
AcDbLine
 10
13490.2
 20
11409.6
 30
0.0
 11
13490.20000000001
 21
8349.600000000009
 31
0.0
  0
LINE
  5
1912F
330
747D
100
AcDbEntity
  8
仕様書枠
 48
50.0
100
AcDbLine
 10
16307.2
 20
11239.6
 30
0.0
 11
13127.2
 21
11239.6
 31
0.0
  0
LINE
  5
19130
330
747D
100
AcDbEntity
  8
仕様書枠
 48
50.0
100
AcDbLine
 10
16307.2
 20
10899.6
 30
0.0
 11
13127.2
 21
10899.6
 31
0.0
  0
LINE
  5
19131
330
747D
100
AcDbEntity
  8
仕様書枠
 48
50.0
100
AcDbLine
 10
16307.2
 20
11069.6
 30
0.0
 11
13127.2
 21
11069.6
 31
0.0
  0
LINE
  5
19132
330
747D
100
AcDbEntity
  8
仕様書枠
 48
50.0
100
AcDbLine
 10
16307.19999999999
 20
10559.6
 30
0.0
 11
13127.2
 21
10559.6
 31
0.0
  0
LINE
  5
19133
330
747D
100
AcDbEntity
  8
仕様書枠
 48
50.0
100
AcDbLine
 10
16307.19999999999
 20
10389.6
 30
0.0
 11
13127.2
 21
10389.6
 31
0.0
  0
LINE
  5
19134
330
747D
100
AcDbEntity
  8
仕様書枠
 48
50.0
100
AcDbLine
 10
16307.19999999999
 20
10729.6
 30
0.0
 11
13127.2
 21
10729.6
 31
0.0
  0
TEXT
  5
19135
330
747D
100
AcDbEntity
  8
文字
 62
     7
 48
50.0
100
AcDbText
 10
13197.42518560407
 20
11270.01374588373
 30
0.0
 40
100.0
  1
品番
  7
STYLE1
100
AcDbText
  0
TEXT
  5
19136
330
747D
100
AcDbEntity
  8
文字
 62
     7
 48
50.0
100
AcDbText
 10
13271.19032244792
 20
11100.01374588373
 30
0.0
 40
100.0
  1
1
  7
STYLE1
100
AcDbText
  0
TEXT
  5
19137
330
747D
100
AcDbEntity
  8
文字
 62
     7
 48
50.0
100
AcDbText
 10
13271.19032244792
 20
10930.01374588373
 30
0.0
 40
100.0
  1
2
  7
STYLE1
100
AcDbText
  0
TEXT
  5
19138
330
747D
100
AcDbEntity
  8
文字
 62
     7
 48
50.0
100
AcDbText
 10
13271.19032244792
 20
10590.01374588373
 30
0.0
 40
100.0
  1
4
  7
STYLE1
100
AcDbText
  0
TEXT
  5
19139
330
747D
100
AcDbEntity
  8
文字
 62
     7
 48
50.0
100
AcDbText
 10
13271.19032244792
 20
10760.01374588373
 30
0.0
 40
100.0
  1
3
  7
STYLE1
100
AcDbText
  0
TEXT
  5
1913A
330
747D
100
AcDbEntity
  8
文字
 62
     7
 48
50.0
100
AcDbText
 10
13732.03840939434
 20
11270.01374588373
 30
0.0
 40
100.0
  1
部　　品　　名
  7
STYLE1
100
AcDbText
  0
TEXT
  5
1913B
330
747D
100
AcDbEntity
  8
文字
 62
     7
 48
50.0
100
AcDbText
 10
14859.79774614482
 20
11270.01374588373
 30
0.0
 40
100.0
  1
材料（材質）　　単位mm
  7
STYLE1
100
AcDbText
  0
TEXT
  5
1913C
330
747D
100
AcDbEntity
  8
文字
 62
     7
 48
50.0
100
AcDbText
 10
13583.11819016569
 20
11100.01374588373
 30
0.0
 40
100.0
  1
土台枠
  7
STYLE1
100
AcDbText
  0
TEXT
  5
1913D
330
747D
100
AcDbEntity
  8
文字
 62
     7
 48
50.0
100
AcDbText
 10
13583.1181901657
 20
10760.01374588373
 30
0.0
 40
100.0
  1
柱
  7
STYLE1
100
AcDbText
  0
TEXT
  5
1913E
330
747D
100
AcDbEntity
  8
文字
 62
     7
 48
50.0
100
AcDbText
 10
13583.11819016569
 20
10420.01374588373
 30
0.0
 40
100.0
  1
桁前後
  7
STYLE1
100
AcDbText
  0
TEXT
  5
1913F
330
747D
100
AcDbEntity
  8
文字
 62
     7
 48
50.0
100
AcDbText
 10
13271.19032244792
 20
10420.01374588373
 30
0.0
 40
100.0
  1
5
  7
STYLE1
100
AcDbText
  0
TEXT
  5
19140
330
747D
100
AcDbEntity
  8
文字
 62
     7
 48
50.0
100
AcDbText
 10
13583.11819016569
 20
10250.01374588373
 30
0.0
 40
100.0
  1
妻板左右
  7
STYLE1
100
AcDbText
  0
TEXT
  5
19141
330
747D
100
AcDbEntity
  8
文字
 62
     7
 48
50.0
100
AcDbText
 10
13248.77747366447
 20
9570.013745883731
 30
0.0
 40
100.0
  1
10
  7
STYLE1
100
AcDbText
  0
TEXT
  5
19142
330
747D
100
AcDbEntity
  8
文字
 62
     7
 48
50.0
100
AcDbText
 10
13583.11819016568
 20
9570.013745883732
 30
0.0
 40
100.0
  1
壁パネル
  7
STYLE1
100
AcDbText
  0
TEXT
  5
19143
330
747D
100
AcDbEntity
  8
文字
 62
     7
 48
50.0
100
AcDbText
 10
13583.11819016569
 20
9910.01374588373
 30
0.0
 40
100.0
  1
屋根パネル
  7
STYLE1
100
AcDbText
  0
TEXT
  5
19144
330
747D
100
AcDbEntity
  8
文字
 62
     7
 48
50.0
100
AcDbText
 10
13583.11819016569
 20
10080.01374588373
 30
0.0
 40
100.0
  1
鼻隠シ前後
  7
STYLE1
100
AcDbText
  0
TEXT
  5
19145
330
747D
100
AcDbEntity
  8
文字
 62
     7
 48
50.0
100
AcDbText
 10
13271.19032244792
 20
9910.013745883732
 30
0.0
 40
100.0
  1
8
  7
STYLE1
100
AcDbText
  0
TEXT
  5
19146
330
747D
100
AcDbEntity
  8
文字
 62
     7
 48
50.0
100
AcDbText
 10
13271.19032244792
 20
9740.013745883732
 30
0.0
 40
100.0
  1
9
  7
STYLE1
100
AcDbText
  0
TEXT
  5
19147
330
747D
100
AcDbEntity
  8
文字
 62
     7
 48
50.0
100
AcDbText
 10
13271.19032244792
 20
10080.01374588373
 30
0.0
 40
100.0
  1
7
  7
STYLE1
100
AcDbText
  0
TEXT
  5
19148
330
747D
100
AcDbEntity
  8
文字
 62
     7
 48
50.0
100
AcDbText
 10
13271.19032244792
 20
10250.01374588373
 30
0.0
 40
100.0
  1
6
  7
STYLE1
100
AcDbText
  0
LINE
  5
19149
330
747D
100
AcDbEntity
  8
仕様書枠
 48
50.0
100
AcDbLine
 10
16307.19999999999
 20
9709.600000000001
 30
0.0
 11
13127.2
 21
9709.600000000005
 31
0.0
  0
LINE
  5
1914A
330
747D
100
AcDbEntity
  8
仕様書枠
 48
50.0
100
AcDbLine
 10
16307.19999999999
 20
9369.600000000003
 30
0.0
 11
13127.2
 21
9369.600000000003
 31
0.0
  0
LINE
  5
1914B
330
747D
100
AcDbEntity
  8
仕様書枠
 48
50.0
100
AcDbLine
 10
16307.19999999999
 20
9539.600000000003
 30
0.0
 11
13127.2
 21
9539.600000000005
 31
0.0
  0
LINE
  5
1914C
330
747D
100
AcDbEntity
  8
仕様書枠
 48
50.0
100
AcDbLine
 10
16307.2
 20
10219.6
 30
0.0
 11
13127.2
 21
10219.6
 31
0.0
  0
LINE
  5
1914D
330
747D
100
AcDbEntity
  8
仕様書枠
 48
50.0
100
AcDbLine
 10
16307.2
 20
9879.600000000003
 30
0.0
 11
13127.2
 21
9879.600000000005
 31
0.0
  0
TEXT
  5
1914E
330
747D
100
AcDbEntity
  8
文字
 62
     7
 48
50.0
100
AcDbText
 10
13248.77747366447
 20
9400.013745883731
 30
0.0
 40
100.0
  1
11
  7
STYLE1
100
AcDbText
  0
LINE
  5
1914F
330
747D
100
AcDbEntity
  8
仕様書枠
 48
50.0
100
AcDbLine
 10
16307.19999999999
 20
9199.600000000001
 30
0.0
 11
13127.2
 21
9199.600000000003
 31
0.0
  0
LINE
  5
19150
330
747D
100
AcDbEntity
  8
仕様書枠
 48
50.0
100
AcDbLine
 10
16307.19999999999
 20
8859.600000000005
 30
0.0
 11
13127.2
 21
8859.600000000005
 31
0.0
  0
TEXT
  5
19151
330
747D
100
AcDbEntity
  8
文字
 62
     7
 48
50.0
100
AcDbText
 10
13248.77747366448
 20
9060.013745883731
 30
0.0
 40
100.0
  1
13
  7
STYLE1
100
AcDbText
  0
TEXT
  5
19152
330
747D
100
AcDbEntity
  8
文字
 62
     7
 48
50.0
100
AcDbText
 10
13248.77747366448
 20
9230.013745883731
 30
0.0
 40
100.0
  1
12
  7
STYLE1
100
AcDbText
  0
TEXT
  5
19153
330
747D
100
AcDbEntity
  8
文字
 62
     7
 48
50.0
100
AcDbText
 10
15022.63965474517
 20
11100.01374588373
 30
0.0
 40
100.0
  1
F12            1.2
  7
STYLE1
100
AcDbText
  0
TEXT
  5
19154
330
747D
100
AcDbEntity
  8
文字
 62
     7
 48
50.0
100
AcDbText
 10
15022.63965474518
 20
10760.01374588373
 30
0.0
 40
100.0
  1
F12            1.0
  7
STYLE1
100
AcDbText
  0
TEXT
  5
19155
330
747D
100
AcDbEntity
  8
文字
 62
     7
 48
50.0
100
AcDbText
 10
15022.63965474516
 20
10420.01374588373
 30
0.0
 40
100.0
  1
Y10            1.0
  7
STYLE1
100
AcDbText
  0
TEXT
  5
19156
330
747D
100
AcDbEntity
  8
文字
 62
     7
 48
50.0
100
AcDbText
 10
15022.63965474516
 20
10250.01374588373
 30
0.0
 40
100.0
  1
Y10            0.7
  7
STYLE1
100
AcDbText
  0
TEXT
  5
19157
330
747D
100
AcDbEntity
  8
文字
 62
     7
 48
50.0
100
AcDbText
 10
15022.63965474516
 20
10080.01374588373
 30
0.0
 40
100.0
  1
Y10            0.7
  7
STYLE1
100
AcDbText
  0
TEXT
  5
19158
330
747D
100
AcDbEntity
  8
文字
 62
     7
 48
50.0
100
AcDbText
 10
15022.63965474517
 20
9910.01374588373
 30
0.0
 40
100.0
  1
Y10            0.5
  7
STYLE1
100
AcDbText
  0
TEXT
  5
19159
330
747D
100
AcDbEntity
  8
文字
 62
     7
 48
50.0
100
AcDbText
 10
15022.63965474515
 20
9570.013745883729
 30
0.0
 40
100.0
  1
F12            0.7
  7
STYLE1
100
AcDbText
  0
LINE
  5
1915A
330
747D
100
AcDbEntity
  8
仕様書枠
 48
50.0
100
AcDbLine
 10
16307.19999999999
 20
8349.600000000007
 30
0.0
 11
13127.19999999999
 21
8349.600000000009
 31
0.0
  0
LINE
  5
1915B
330
747D
100
AcDbEntity
  8
仕様書枠
 48
50.0
100
AcDbLine
 10
16307.19999999999
 20
8179.600000000007
 30
0.0
 11
13127.19999999999
 21
8179.600000000009
 31
0.0
  0
TEXT
  5
1915C
330
747D
100
AcDbEntity
  8
文字
 62
     7
 48
50.0
100
AcDbText
 10
13229.83081656554
 20
8210.013745883737
 30
0.0
 40
100.0
  1
F12→溶融亜鉛めっき鋼板(JIS G 3302)
  7
STYLE1
100
AcDbText
  0
TEXT
  5
1915D
330
747D
100
AcDbEntity
  8
文字
 62
     7
 48
50.0
100
AcDbText
 10
13229.83081656554
 20
8040.013745883737
 30
0.0
 40
100.0
  1
Y10→溶融亜鉛-5％アルミニウム合金めっき鋼板(JIS G 3317)
 41
0.9
  7
STYLE1
100
AcDbText
  0
LINE
  5
1915E
330
747D
100
AcDbEntity
  8
仕様書枠
 48
50.0
100
AcDbLine
 10
13127.2
 20
11409.6
 30
0.0
 11
13127.19999999999
 21
8009.600000000011
 31
0.0
  0
LINE
  5
1915F
330
747D
100
AcDbEntity
  8
仕様書枠
 48
50.0
100
AcDbLine
 10
16307.19999999999
 20
9029.600000000003
 30
0.0
 11
13127.2
 21
9029.600000000007
 31
0.0
  0
TEXT
  5
19160
330
747D
100
AcDbEntity
  8
文字
 62
     7
 48
50.0
100
AcDbText
 10
13583.1181901657
 20
10590.01374588373
 30
0.0
 40
100.0
  1
床パネル
 41
0.9
  7
STYLE1
100
AcDbText
  0
TEXT
  5
19161
330
747D
100
AcDbEntity
  8
文字
 62
     7
 48
50.0
100
AcDbText
 10
13583.11819016569
 20
10930.01374588373
 30
0.0
 40
100.0
  1
根太
  7
STYLE1
100
AcDbText
  0
TEXT
  5
19162
330
747D
100
AcDbEntity
  8
文字
 62
     7
 48
50.0
100
AcDbText
 10
13248.77747366448
 20
8890.013745883731
 30
0.0
 40
100.0
  1
14
  7
STYLE1
100
AcDbText
  0
TEXT
  5
19163
330
747D
100
AcDbEntity
  8
文字
 62
     7
 48
50.0
100
AcDbText
 10
15022.63965474516
 20
10930.01374588373
 30
0.0
 40
100.0
  1
F12            1.2
  7
STYLE1
100
AcDbText
  0
TEXT
  5
19164
330
747D
100
AcDbEntity
  8
文字
 62
     7
 48
50.0
100
AcDbText
 10
15022.63965474517
 20
10590.01374588373
 30
0.0
 40
100.0
  1
F12            1.0
  7
STYLE1
100
AcDbText
  0
TEXT
  5
19165
330
747D
100
AcDbEntity
  8
文字
 62
     7
 48
50.0
100
AcDbText
 10
15022.63965474515
 20
8890.013745883731
 30
0.0
 40
100.0
  1
F12            0.7
  7
STYLE1
100
AcDbText
  0
TEXT
  5
19166
330
747D
100
AcDbEntity
  8
文字
 62
     7
 48
50.0
100
AcDbText
 10
13583.11819016568
 20
8890.013745883734
 30
0.0
 40
100.0
  1
正面パネル
  7
STYLE1
100
AcDbText
  0
TEXT
  5
19167
330
747D
100
AcDbEntity
  8
文字
 62
     7
 48
50.0
100
AcDbText
 10
15022.63965474516
 20
8720.013745883731
 30
0.0
 40
100.0
  1
F12            0.8
  7
STYLE1
100
AcDbText
  0
TEXT
  5
19168
330
747D
100
AcDbEntity
  8
文字
 62
     7
 48
50.0
100
AcDbText
 10
13583.11819016569
 20
8720.013745883735
 30
0.0
 40
100.0
  1
扉
  7
STYLE1
100
AcDbText
  0
LINE
  5
19169
330
747D
100
AcDbEntity
  8
仕様書枠
 48
50.0
100
AcDbLine
 10
16307.19999999999
 20
8009.600000000007
 30
0.0
 11
13127.19999999999
 21
8009.600000000011
 31
0.0
  0
TEXT
  5
1916A
330
747D
100
AcDbEntity
  8
文字
 62
     7
 48
50.0
100
AcDbText
 10
13248.77747366447
 20
8720.013745883733
 30
0.0
 40
100.0
  1
15
  7
STYLE1
100
AcDbText
  0
TEXT
  5
1916B
330
747D
100
AcDbEntity
  8
文字
 62
     7
 48
50.0
100
AcDbText
 10
13583.11819016569
 20
9740.013745883731
 30
0.0
 40
100.0
  1
母屋中
  7
STYLE1
100
AcDbText
  0
TEXT
  5
1916C
330
747D
100
AcDbEntity
  8
文字
 62
     7
 48
50.0
100
AcDbText
 10
15022.63965474516
 20
8550.013745883731
 30
0.0
 40
100.0
  1
F12            0.6
  7
STYLE1
100
AcDbText
  0
TEXT
  5
1916D
330
747D
100
AcDbEntity
  8
文字
 62
     7
 48
50.0
100
AcDbText
 10
13583.11819016569
 20
8550.013745883735
 30
0.0
 40
100.0
  1
棚板
  7
STYLE1
100
AcDbText
  0
LINE
  5
1916E
330
747D
100
AcDbEntity
  8
部品1
 48
50.0
100
AcDbLine
 10
10933.70367690512
 20
8401.086285259099
 30
0.0
 11
8836.703676905125
 21
8401.086285259186
 31
0.0
  0
LINE
  5
1916F
330
747D
100
AcDbEntity
  8
部品1
100
AcDbLine
 10
8808.203676905121
 20
8401.086285258971
 30
0.0
 11
8780.20367690512
 21
8401.086285258971
 31
0.0
  0
LINE
  5
19170
330
747D
100
AcDbEntity
  8
部品1
100
AcDbLine
 10
10962.20367690514
 20
8401.086285259099
 30
0.0
 11
10990.20367690514
 21
8401.086285259099
 31
0.0
  0
ARC
  5
19171
330
747D
100
AcDbEntity
  8
部品1
100
AcDbCircle
 10
6720.698226461445
 20
4372.843172426295
 30
0.0
 40
7.0
100
AcDbArc
 50
356.7526572096623
 51
90.0
  0
ARC
  5
19172
330
747D
100
AcDbEntity
  8
部品1
100
AcDbCircle
 10
6707.482903000408
 20
4245.843172426296
 30
0.0
 40
7.0
100
AcDbArc
 50
270.0
 51
356.7526572096623
  0
ARC
  5
19173
330
747D
100
AcDbEntity
  8
部品1
 48
50.0
100
AcDbCircle
 10
6725.854713211088
 20
4352.510171587979
 30
0.0
 40
0.7
100
AcDbArc
 50
277.6581272073652
 51
356.7526572095583
  0
ARC
  5
19174
330
747D
100
AcDbEntity
  8
部品1
 48
50.0
100
AcDbCircle
 10
6717.618682686243
 20
4260.310171587978
 30
0.0
 40
0.7
100
AcDbArc
 50
277.6581272073652
 51
356.7526572096623
  0
ARC
  5
19175
330
747D
100
AcDbEntity
  8
部品1
 48
50.0
100
AcDbCircle
 10
6718.111751794804
 20
4256.643172426291
 30
0.0
 40
3.0
100
AcDbArc
 50
97.65812720736519
 51
176.7526572096623
  0
ARC
  5
19176
330
747D
100
AcDbEntity
  8
部品1
 48
50.0
100
AcDbCircle
 10
6726.347782319648
 20
4348.843172426295
 30
0.0
 40
3.0
100
AcDbArc
 50
97.65812720736519
 51
176.7526572096623
  0
LINE
  5
19177
330
747D
100
AcDbEntity
  8
部品1
100
AcDbLine
 10
6723.352599423463
 20
4349.013111881399
 30
0.0
 11
6718.317558695355
 21
4260.270519048452
 31
0.0
  0
LINE
  5
19178
330
747D
100
AcDbEntity
  8
部品1
100
AcDbLine
 10
6715.116568898618
 20
4256.813111881394
 30
0.0
 11
6714.47166309151
 21
4245.446647031054
 31
0.0
  0
LINE
  5
19179
330
747D
100
AcDbEntity
  8
細線
 48
50.0
100
AcDbLine
 10
6695.106647567879
 20
4379.843172426295
 30
0.0
 11
6695.106647567879
 21
4238.843172426295
 31
0.0
  0
LINE
  5
1917A
330
747D
100
AcDbEntity
  8
部品1
100
AcDbLine
 10
6727.686986552541
 20
4372.446647031054
 30
0.0
 11
6726.553589220199
 21
4352.470519048456
 31
0.0
  0
DIMENSION
  5
1917B
330
747D
100
AcDbEntity
  8
寸法
 48
50.0
100
AcDbDimension
  2
*D29
 10
6678.106647567878
 20
4784.46343185356
 30
0.0
 11
7041.591928942111
 21
4784.46343185356
 31
0.0
 70
   160
 71
     5
 42
50.0
  3
INABA_S40G
100
AcDbAlignedDimension
 13
6728.106647567878
 23
4379.843172426291
 33
0.0
 14
6678.106647567878
 24
4379.843172426294
 34
0.0
100
AcDbRotatedDimension
  0
ARC
  5
1917C
330
747D
100
AcDbEntity
  8
部品1
 48
0.01
100
AcDbCircle
 10
5046.106647567871
 20
4177.343172426292
 30
0.0
 40
2.0
100
AcDbArc
 50
270.0
 51
0.0
  0
ARC
  5
1917D
330
747D
100
AcDbEntity
  8
部品1
 48
0.01
100
AcDbCircle
 10
5046.106647567874
 20
4208.843172426291
 30
0.0
 40
2.0
100
AcDbArc
 50
0.0
 51
90.0
  0
ARC
  5
1917E
330
747D
100
AcDbEntity
  8
部品1
 48
0.01
100
AcDbCircle
 10
4870.106647567874
 20
4177.343172426292
 30
0.0
 40
2.0
100
AcDbArc
 50
180.0
 51
270.0
  0
ARC
  5
1917F
330
747D
100
AcDbEntity
  8
部品1
 48
0.01
100
AcDbCircle
 10
4870.106647567874
 20
4208.843172426291
 30
0.0
 40
2.0
100
AcDbArc
 50
90.0
 51
180.0
  0
LINE
  5
19180
330
747D
100
AcDbEntity
  8
細線
100
AcDbLine
 10
4958.106647567871
 20
4181.343172426291
 30
0.0
 11
5032.106647567875
 21
4181.343172426291
 31
0.0
  0
LINE
  5
19181
330
747D
100
AcDbEntity
  8
細線
100
AcDbLine
 10
4958.106647567874
 20
4204.343172426291
 30
0.0
 11
4884.106647567874
 21
4204.343172426291
 31
0.0
  0
LINE
  5
19182
330
747D
100
AcDbEntity
  8
細線
100
AcDbLine
 10
4884.106647567874
 20
4181.343172426291
 30
0.0
 11
4958.106647567874
 21
4181.343172426291
 31
0.0
  0
LINE
  5
19183
330
747D
100
AcDbEntity
  8
細線
100
AcDbLine
 10
5032.106647567875
 20
4204.343172426291
 30
0.0
 11
4958.106647567874
 21
4204.343172426291
 31
0.0
  0
LINE
  5
19184
330
747D
100
AcDbEntity
  8
細線
100
AcDbLine
 10
5032.106647567875
 20
4181.343172426291
 30
0.0
 11
5032.106647567875
 21
4204.343172426291
 31
0.0
  0
LINE
  5
19185
330
747D
100
AcDbEntity
  8
細線
100
AcDbLine
 10
4884.106647567874
 20
4204.343172426291
 30
0.0
 11
4884.106647567874
 21
4181.343172426291
 31
0.0
  0
LINE
  5
19186
330
747D
100
AcDbEntity
  8
部品1
 48
0.01
100
AcDbLine
 10
5048.106647567871
 20
4177.343172426292
 30
0.0
 11
5048.106647567874
 21
4208.843172426291
 31
0.0
  0
LINE
  5
19187
330
747D
100
AcDbEntity
  8
部品1
 48
0.01
100
AcDbLine
 10
4870.106647567874
 20
4175.343172426291
 30
0.0
 11
5046.106647567871
 21
4175.343172426291
 31
0.0
  0
LINE
  5
19188
330
747D
100
AcDbEntity
  8
部品1
 48
0.01
100
AcDbLine
 10
4868.106647567874
 20
4208.843172426291
 30
0.0
 11
4868.106647567874
 21
4177.343172426292
 31
0.0
  0
LINE
  5
19189
330
747D
100
AcDbEntity
  8
部品1
 48
0.01
100
AcDbLine
 10
5046.106647567874
 20
4210.843172426292
 30
0.0
 11
4870.106647567874
 21
4210.843172426292
 31
0.0
  0
LINE
  5
1918A
330
747D
100
AcDbEntity
  8
細線
100
AcDbLine
 10
4884.106647567874
 20
4198.343172426292
 30
0.0
 11
4958.106647567874
 21
4198.343172426292
 31
0.0
  0
LINE
  5
1918B
330
747D
100
AcDbEntity
  8
細線
100
AcDbLine
 10
4884.106647567874
 20
4192.343172426292
 30
0.0
 11
4958.106647567874
 21
4192.343172426292
 31
0.0
  0
LINE
  5
1918C
330
747D
100
AcDbEntity
  8
細線
100
AcDbLine
 10
4884.106647567871
 20
4186.343172426291
 30
0.0
 11
4958.106647567874
 21
4186.343172426291
 31
0.0
  0
LINE
  5
1918D
330
747D
100
AcDbEntity
  8
細線
100
AcDbLine
 10
4884.106647567874
 20
4198.343172426292
 30
0.0
 11
4953.106647567874
 21
4198.343172426292
 31
0.0
  0
LINE
  5
1918E
330
747D
100
AcDbEntity
  8
細線
100
AcDbLine
 10
5032.106647567871
 20
4198.343172426288
 30
0.0
 11
4958.106647567874
 21
4198.343172426292
 31
0.0
  0
LINE
  5
1918F
330
747D
100
AcDbEntity
  8
細線
100
AcDbLine
 10
5032.106647567871
 20
4186.343172426288
 30
0.0
 11
4958.106647567874
 21
4186.343172426291
 31
0.0
  0
LINE
  5
19190
330
747D
100
AcDbEntity
  8
細線
100
AcDbLine
 10
5032.106647567871
 20
4192.343172426292
 30
0.0
 11
4958.106647567874
 21
4192.343172426292
 31
0.0
  0
LINE
  5
19191
330
747D
100
AcDbEntity
  8
細線
100
AcDbLine
 10
4958.106647567874
 20
4204.343172426291
 30
0.0
 11
4958.106647567871
 21
4181.343172426291
 31
0.0
  0
LINE
  5
19192
330
747D
100
AcDbEntity
  8
部品1
 48
0.01
100
AcDbLine
 10
6278.106647567875
 20
4208.843172426291
 30
0.0
 11
6278.106647567875
 21
4177.343172426292
 31
0.0
  0
LINE
  5
19193
330
747D
100
AcDbEntity
  8
部品1
 48
0.01
100
AcDbLine
 10
6276.106647567875
 20
4175.343172426291
 30
0.0
 11
6100.106647567875
 21
4175.343172426291
 31
0.0
  0
LINE
  5
19194
330
747D
100
AcDbEntity
  8
部品1
 48
0.01
100
AcDbLine
 10
6098.106647567874
 20
4177.343172426292
 30
0.0
 11
6098.106647567874
 21
4208.843172426291
 31
0.0
  0
ARC
  5
19195
330
747D
100
AcDbEntity
  8
部品1
 48
0.01
100
AcDbCircle
 10
6276.106647567875
 20
4177.343172426292
 30
0.0
 40
2.0
100
AcDbArc
 50
270.0
 51
0.0
  0
ARC
  5
19196
330
747D
100
AcDbEntity
  8
部品1
 48
0.01
100
AcDbCircle
 10
6100.106647567875
 20
4177.343172426292
 30
0.0
 40
2.0
100
AcDbArc
 50
180.0
 51
270.0
  0
LINE
  5
19197
330
747D
100
AcDbEntity
  8
細線
100
AcDbLine
 10
6188.106647567874
 20
4204.343172426291
 30
0.0
 11
6188.106647567874
 21
4181.343172426291
 31
0.0
  0
LINE
  5
19198
330
747D
100
AcDbEntity
  8
細線
100
AcDbLine
 10
6114.106647567875
 20
4192.343172426292
 30
0.0
 11
6188.106647567874
 21
4192.343172426292
 31
0.0
  0
LINE
  5
19199
330
747D
100
AcDbEntity
  8
細線
100
AcDbLine
 10
6114.106647567875
 20
4186.343172426288
 30
0.0
 11
6188.106647567874
 21
4186.343172426291
 31
0.0
  0
LINE
  5
1919A
330
747D
100
AcDbEntity
  8
細線
100
AcDbLine
 10
6114.106647567875
 20
4198.343172426288
 30
0.0
 11
6188.106647567874
 21
4198.343172426292
 31
0.0
  0
LINE
  5
1919B
330
747D
100
AcDbEntity
  8
細線
100
AcDbLine
 10
6262.106647567875
 20
4198.343172426292
 30
0.0
 11
6193.106647567875
 21
4198.343172426292
 31
0.0
  0
LINE
  5
1919C
330
747D
100
AcDbEntity
  8
細線
100
AcDbLine
 10
6262.106647567875
 20
4186.343172426291
 30
0.0
 11
6188.106647567874
 21
4186.343172426291
 31
0.0
  0
LINE
  5
1919D
330
747D
100
AcDbEntity
  8
細線
100
AcDbLine
 10
6262.106647567875
 20
4192.343172426292
 30
0.0
 11
6188.106647567874
 21
4192.343172426292
 31
0.0
  0
LINE
  5
1919E
330
747D
100
AcDbEntity
  8
細線
100
AcDbLine
 10
6262.106647567875
 20
4198.343172426292
 30
0.0
 11
6188.106647567874
 21
4198.343172426292
 31
0.0
  0
LINE
  5
1919F
330
747D
100
AcDbEntity
  8
部品1
 48
0.01
100
AcDbLine
 10
6100.106647567875
 20
4210.843172426292
 30
0.0
 11
6276.106647567875
 21
4210.843172426292
 31
0.0
  0
LINE
  5
191A0
330
747D
100
AcDbEntity
  8
細線
100
AcDbLine
 10
6262.106647567875
 20
4204.343172426291
 30
0.0
 11
6262.106647567875
 21
4181.343172426291
 31
0.0
  0
LINE
  5
191A1
330
747D
100
AcDbEntity
  8
細線
100
AcDbLine
 10
6114.106647567875
 20
4181.343172426291
 30
0.0
 11
6114.106647567875
 21
4204.343172426291
 31
0.0
  0
LINE
  5
191A2
330
747D
100
AcDbEntity
  8
細線
100
AcDbLine
 10
6114.106647567875
 20
4204.343172426291
 30
0.0
 11
6188.106647567874
 21
4204.343172426291
 31
0.0
  0
LINE
  5
191A3
330
747D
100
AcDbEntity
  8
細線
100
AcDbLine
 10
6262.106647567875
 20
4181.343172426291
 30
0.0
 11
6188.106647567874
 21
4181.343172426291
 31
0.0
  0
LINE
  5
191A4
330
747D
100
AcDbEntity
  8
細線
100
AcDbLine
 10
6188.106647567874
 20
4204.343172426291
 30
0.0
 11
6262.106647567875
 21
4204.343172426291
 31
0.0
  0
LINE
  5
191A5
330
747D
100
AcDbEntity
  8
細線
100
AcDbLine
 10
6188.106647567874
 20
4181.343172426291
 30
0.0
 11
6114.106647567875
 21
4181.343172426291
 31
0.0
  0
ARC
  5
191A6
330
747D
100
AcDbEntity
  8
部品1
 48
0.01
100
AcDbCircle
 10
6276.106647567875
 20
4208.843172426291
 30
0.0
 40
2.0
100
AcDbArc
 50
0.0
 51
90.0
  0
ARC
  5
191A7
330
747D
100
AcDbEntity
  8
部品1
 48
0.01
100
AcDbCircle
 10
6100.106647567875
 20
4208.843172426291
 30
0.0
 40
2.0
100
AcDbArc
 50
90.0
 51
180.0
  0
LINE
  5
191A8
330
747D
100
AcDbEntity
  8
部品1
100
AcDbLine
 10
4418.526308583208
 20
4372.446647031054
 30
0.0
 11
4419.659705915553
 21
4352.470519048456
 31
0.0
  0
LINE
  5
191A9
330
747D
100
AcDbEntity
  8
部品1
100
AcDbLine
 10
4431.096726237131
 20
4256.813111881394
 30
0.0
 11
4431.741632044238
 21
4245.446647031054
 31
0.0
  0
LINE
  5
191AA
330
747D
100
AcDbEntity
  8
部品1
100
AcDbLine
 10
4422.860695712283
 20
4349.013111881399
 30
0.0
 11
4427.895736440394
 21
4260.270519048452
 31
0.0
  0
ARC
  5
191AB
330
747D
100
AcDbEntity
  8
部品1
 48
50.0
100
AcDbCircle
 10
4419.865512816101
 20
4348.843172426295
 30
0.0
 40
3.0
100
AcDbArc
 50
3.247342790337682
 51
82.3418727926348
  0
ARC
  5
191AC
330
747D
100
AcDbEntity
  8
部品1
 48
50.0
100
AcDbCircle
 10
4428.101543340941
 20
4256.643172426291
 30
0.0
 40
3.0
100
AcDbArc
 50
3.247342790337682
 51
82.3418727926348
  0
ARC
  5
191AD
330
747D
100
AcDbEntity
  8
部品1
 48
50.0
100
AcDbCircle
 10
4428.594612449502
 20
4260.310171587978
 30
0.0
 40
0.7
100
AcDbArc
 50
183.2473427903377
 51
262.3418727926349
  0
ARC
  5
191AE
330
747D
100
AcDbEntity
  8
部品1
 48
50.0
100
AcDbCircle
 10
4420.358581924662
 20
4352.510171587979
 30
0.0
 40
0.7
100
AcDbArc
 50
183.2473427904417
 51
262.3418727926349
  0
ARC
  5
191AF
330
747D
100
AcDbEntity
  8
部品1
100
AcDbCircle
 10
4438.730392135338
 20
4245.843172426296
 30
0.0
 40
7.0
100
AcDbArc
 50
183.2473427903377
 51
270.0
  0
ARC
  5
191B0
330
747D
100
AcDbEntity
  8
部品1
100
AcDbCircle
 10
4425.515068674303
 20
4372.843172426295
 30
0.0
 40
7.0
100
AcDbArc
 50
90.0
 51
183.2473427903377
  0
LINE
  5
191B1
330
747D
100
AcDbEntity
  8
細線
 48
50.0
100
AcDbLine
 10
4451.106647567875
 20
4379.843172426295
 30
0.0
 11
4451.106647567875
 21
4238.843172426295
 31
0.0
  0
LINE
  5
191B2
330
747D
100
AcDbEntity
  8
細線
 48
50.0
100
AcDbLine
 10
6717.831078821589
 20
4259.643172426291
 30
0.0
 11
4428.382216314141
 21
4259.643172426295
 31
0.0
  0
LINE
  5
191B3
330
747D
100
AcDbEntity
  8
細線
 48
50.0
100
AcDbLine
 10
6726.067109346437
 20
4351.843172426295
 30
0.0
 11
4420.146185789312
 21
4351.843172426291
 31
0.0
  0
LINE
  5
191B4
330
747D
100
AcDbEntity
  8
部品1
 48
50.0
100
AcDbLine
 10
6707.482903000408
 20
4238.843172426299
 30
0.0
 11
4438.730392135338
 21
4238.843172426295
 31
0.0
  0
LINE
  5
191B5
330
747D
100
AcDbEntity
  8
部品1
 48
50.0
100
AcDbLine
 10
6720.698226461445
 20
4379.843172426292
 30
0.0
 11
4425.515068674303
 21
4379.843172426295
 31
0.0
  0
DIMENSION
  5
191B6
330
747D
100
AcDbEntity
  8
寸法
 48
50.0
100
AcDbDimension
  2
*D2
 10
4468.106647567874
 20
4784.46343185356
 30
0.0
 11
5573.106647567874
 21
4784.46343185356
 31
0.0
 70
   160
  1
柱外寸法<>
 71
     5
 42
2210.000000000004
  3
INABA_S40G
100
AcDbAlignedDimension
 13
6678.106647567878
 23
4379.843172426294
 33
0.0
 14
4468.106647567874
 24
4379.843172426294
 34
0.0
100
AcDbRotatedDimension
  0
DIMENSION
  5
191B7
330
747D
100
AcDbEntity
  8
寸法
 48
50.0
100
AcDbDimension
  2
*D3
 10
4418.106647567874
 20
4784.46343185356
 30
0.0
 11
4104.621366193627
 21
4784.46343185356
 31
0.0
 70
   160
 71
     5
 42
50.0
  3
INABA_S40G
100
AcDbAlignedDimension
 13
4468.106647567874
 23
4379.843172426294
 33
0.0
 14
4418.106647567874
 24
4379.843172426294
 34
0.0
100
AcDbRotatedDimension
1001
ACAD
1000
DSTYLE
1002
{
1002
}
  0
DIMENSION
  5
191B8
330
747D
100
AcDbEntity
  8
寸法
 48
50.0
100
AcDbDimension
  2
*D4
 10
6728.106647567878
 20
4994.057306275011
 30
0.0
 11
5573.106647567874
 21
4994.057306275011
 31
0.0
 70
   160
 71
     5
 42
2310.000000000004
  3
INABA_S40G
100
AcDbAlignedDimension
 13
4418.106647567874
 23
4379.843172426294
 33
0.0
 14
6728.106647567878
 24
4379.843172426291
 34
0.0
100
AcDbRotatedDimension
  0
TEXT
  5
191B9
330
747D
100
AcDbEntity
  8
部品1
100
AcDbText
 10
3348.267343372394
 20
1940.950076032194
 30
0.0
 40
125.0
  1
▽G.L
  7
STYLE2
100
AcDbText
  0
LINE
  5
191BA
330
747D
100
AcDbEntity
  8
部品1
100
AcDbLine
 10
4668.106647567874
 20
2004.843172426292
 30
0.0
 11
4668.106647567874
 21
1904.843172426292
 31
0.0
  0
LINE
  5
191BB
330
747D
100
AcDbEntity
  8
部品1
 48
50.0
100
AcDbLine
 10
5473.106647567874
 20
2004.843172426292
 30
0.0
 11
5473.106647567874
 21
1904.843172426292
 31
0.0
  0
LINE
  5
191BC
330
747D
100
AcDbEntity
  8
部品1
 48
50.0
100
AcDbLine
 10
5673.106647567874
 20
2004.843172426292
 30
0.0
 11
5673.106647567874
 21
1904.843172426292
 31
0.0
  0
LINE
  5
191BD
330
747D
100
AcDbEntity
  8
部品1
100
AcDbLine
 10
6478.106647567874
 20
2004.843172426292
 30
0.0
 11
6478.106647567874
 21
1904.843172426292
 31
0.0
  0
LINE
  5
191BE
330
747D
100
AcDbEntity
  8
部品1
 48
50.0
100
AcDbLine
 10
6755.106647567878
 20
2004.843172426292
 30
0.0
 11
6670.606647567878
 21
2004.843172426292
 31
0.0
  0
LINE
  5
191BF
330
747D
100
AcDbEntity
  8
部品1
 48
50.0
100
AcDbLine
 10
6755.106647567878
 20
4129.843172426292
 30
0.0
 11
6755.106647567878
 21
1904.843172426292
 31
0.0
  0
LINE
  5
191C0
330
747D
100
AcDbEntity
  8
部品1
 48
50.0
100
AcDbLine
 10
6678.106647567878
 20
4139.843172426291
 30
0.0
 11
6755.106647567878
 21
4129.843172426292
 31
0.0
  0
LINE
  5
191C1
330
747D
100
AcDbEntity
  8
破線
 48
5.0
100
AcDbLine
 10
6550.606647567882
 20
1904.843172426292
 30
0.0
 11
6550.606647567882
 21
1704.843172426292
 31
0.0
  0
LINE
  5
191C2
330
747D
100
AcDbEntity
  8
破線
 48
5.0
100
AcDbLine
 10
6750.606647567877
 20
1704.843172426288
 30
0.0
 11
6550.606647567882
 21
1704.843172426292
 31
0.0
  0
LINE
  5
191C3
330
747D
100
AcDbEntity
  8
破線
 48
5.0
100
AcDbLine
 10
6750.606647567882
 20
1904.843172426292
 30
0.0
 11
6750.606647567877
 21
1704.843172426288
 31
0.0
  0
DIMENSION
  5
191C4
330
747D
100
AcDbEntity
  8
寸法
 48
50.0
100
AcDbDimension
  2
*D5
 10
4395.606647567878
 20
1418.795843125911
 30
0.0
 11
4495.606647567876
 21
1418.795843125911
 31
0.0
 70
   160
 71
     5
 42
199.9999999999963
  3
INABA_S40G
100
AcDbAlignedDimension
 13
4595.606647567874
 23
1704.843172426287
 33
0.0
 14
4395.606647567878
 24
1704.843172426289
 34
0.0
100
AcDbRotatedDimension
  0
LINE
  5
191C5
330
747D
100
AcDbEntity
  8
破線
 48
5.0
100
AcDbLine
 10
4395.606647567874
 20
1904.843172426292
 30
0.0
 11
4395.606647567878
 21
1704.843172426288
 31
0.0
  0
LINE
  5
191C6
330
747D
100
AcDbEntity
  8
破線
 48
5.0
100
AcDbLine
 10
4595.606647567874
 20
1904.843172426292
 30
0.0
 11
4595.606647567874
 21
1704.843172426288
 31
0.0
  0
LINE
  5
191C7
330
747D
100
AcDbEntity
  8
破線
 48
5.0
100
AcDbLine
 10
4595.606647567874
 20
1704.843172426288
 30
0.0
 11
4395.606647567878
 21
1704.843172426288
 31
0.0
  0
DIMENSION
  5
191C8
330
747D
100
AcDbEntity
  8
寸法
 48
50.0
100
AcDbDimension
  2
*D6
 10
4246.10664432124
 20
1904.843172426289
 30
0.0
 11
4246.10664432124
 21
1804.84317242629
 31
0.0
 70
   160
 71
     5
 42
200.0
  3
INABA_S40G
100
AcDbAlignedDimension
 13
4395.606647567878
 23
1704.843172426289
 33
0.0
 14
4370.606647567874
 24
1904.843172426289
 34
0.0
 50
90.0
100
AcDbRotatedDimension
1001
ACAD
1000
DSTYLE
1002
{
1070
   174
1070
     0
1070
   272
1070
     1
1070
   288
1070
     0
1070
   341
1005
0
1002
}
  0
LINE
  5
191C9
330
747D
100
AcDbEntity
  8
部品1
100
AcDbLine
 10
6670.606647567874
 20
2004.843172426292
 30
0.0
 11
6678.106647567878
 21
2004.843172426292
 31
0.0
  0
LINE
  5
191CA
330
747D
100
AcDbEntity
  8
破線
  6
HIDDEN
 48
5.0
100
AcDbLine
 10
4515.606647567874
 20
1904.843172426292
 30
0.0
 11
4515.606647567874
 21
1899.843172426292
 31
0.0
  0
LINE
  5
191CB
330
747D
100
AcDbEntity
  8
破線
  6
HIDDEN
 48
5.0
100
AcDbLine
 10
4475.606647567881
 20
1904.843172426292
 30
0.0
 11
4475.606647567881
 21
1899.843172426292
 31
0.0
  0
LINE
  5
191CC
330
747D
100
AcDbEntity
  8
破線
  6
HIDDEN
 48
5.0
100
AcDbLine
 10
6670.606647567874
 20
1904.843172426292
 30
0.0
 11
6670.606647567874
 21
1899.843172426292
 31
0.0
  0
LINE
  5
191CD
330
747D
100
AcDbEntity
  8
破線
  6
HIDDEN
 48
5.0
100
AcDbLine
 10
6630.606647567875
 20
1904.843172426292
 30
0.0
 11
6630.606647567875
 21
1899.843172426292
 31
0.0
  0
ARC
  5
191CE
330
747D
100
AcDbEntity
  8
部品1
 48
50.0
100
AcDbCircle
 10
6665.606647567874
 20
2044.843172426292
 30
0.0
 40
5.0
100
AcDbArc
 50
0.0
 51
90.0
  0
ARC
  5
191CF
330
747D
100
AcDbEntity
  8
部品1
 48
50.0
100
AcDbCircle
 10
6635.606647567874
 20
2044.843172426292
 30
0.0
 40
5.0
100
AcDbArc
 50
90.0
 51
180.0
  0
LINE
  5
191D0
330
747D
100
AcDbEntity
  8
部品1
100
AcDbLine
 10
6665.606647567874
 20
2049.843172426292
 30
0.0
 11
6635.606647567874
 21
2049.843172426292
 31
0.0
  0
LINE
  5
191D1
330
747D
100
AcDbEntity
  8
部品1
 48
50.0
100
AcDbLine
 10
6670.606647567874
 20
2044.843172426292
 30
0.0
 11
6670.606647567874
 21
1904.843172426292
 31
0.0
  0
LINE
  5
191D2
330
747D
100
AcDbEntity
  8
部品1
 48
50.0
100
AcDbLine
 10
6630.606647567875
 20
2044.843172426292
 30
0.0
 11
6630.606647567875
 21
1904.843172426292
 31
0.0
  0
ARC
  5
191D3
330
747D
100
AcDbEntity
  8
部品1
 48
50.0
100
AcDbCircle
 10
4510.606647567874
 20
2044.843172426292
 30
0.0
 40
5.0
100
AcDbArc
 50
0.0
 51
90.0
  0
ARC
  5
191D4
330
747D
100
AcDbEntity
  8
部品1
 48
50.0
100
AcDbCircle
 10
4480.606647567874
 20
2044.843172426292
 30
0.0
 40
5.0
100
AcDbArc
 50
90.0
 51
180.0
  0
LINE
  5
191D5
330
747D
100
AcDbEntity
  8
部品1
100
AcDbLine
 10
4480.606647567874
 20
2049.843172426292
 30
0.0
 11
4510.606647567874
 21
2049.843172426292
 31
0.0
  0
LINE
  5
191D6
330
747D
100
AcDbEntity
  8
部品1
 48
50.0
100
AcDbLine
 10
4515.606647567874
 20
2044.843172426292
 30
0.0
 11
4515.606647567874
 21
1904.843172426292
 31
0.0
  0
LINE
  5
191D7
330
747D
100
AcDbEntity
  8
部品1
 48
50.0
100
AcDbLine
 10
4475.606647567874
 20
2044.843172426292
 30
0.0
 11
4475.606647567874
 21
1904.843172426292
 31
0.0
  0
LINE
  5
191D8
330
747D
100
AcDbEntity
  8
破線
  6
HIDDEN
 48
5.0
100
AcDbLine
 10
4515.606647567874
 20
1899.843172426292
 30
0.0
 11
4530.606647567874
 21
1752.143172426291
 31
0.0
  0
LINE
  5
191D9
330
747D
100
AcDbEntity
  8
破線
  6
HIDDEN
 48
5.0
100
AcDbLine
 10
4475.606647567874
 20
1899.843172426292
 30
0.0
 11
4460.606647567874
 21
1752.143172426291
 31
0.0
  0
LINE
  5
191DA
330
747D
100
AcDbEntity
  8
破線
  6
HIDDEN
 48
5.0
100
AcDbLine
 10
4530.606647567874
 20
1752.143172426291
 30
0.0
 11
4530.606647567874
 21
1749.843172426292
 31
0.0
  0
LINE
  5
191DB
330
747D
100
AcDbEntity
  8
破線
  6
HIDDEN
 48
5.0
100
AcDbLine
 10
4460.606647567874
 20
1752.143172426291
 30
0.0
 11
4460.606647567874
 21
1749.843172426292
 31
0.0
  0
LINE
  5
191DC
330
747D
100
AcDbEntity
  8
破線
  6
HIDDEN
 48
5.0
100
AcDbLine
 10
4460.606647567874
 20
1749.843172426292
 30
0.0
 11
4530.606647567874
 21
1749.843172426292
 31
0.0
  0
LINE
  5
191DD
330
747D
100
AcDbEntity
  8
破線
  6
HIDDEN
 48
5.0
100
AcDbLine
 10
6685.606647567874
 20
1752.143172426291
 30
0.0
 11
6685.606647567874
 21
1749.843172426292
 31
0.0
  0
LINE
  5
191DE
330
747D
100
AcDbEntity
  8
破線
  6
HIDDEN
 48
5.0
100
AcDbLine
 10
6670.606647567874
 20
1899.843172426292
 30
0.0
 11
6685.606647567874
 21
1752.143172426291
 31
0.0
  0
LINE
  5
191DF
330
747D
100
AcDbEntity
  8
破線
  6
HIDDEN
 48
5.0
100
AcDbLine
 10
6615.606647567874
 20
1752.143172426291
 30
0.0
 11
6615.606647567874
 21
1749.843172426292
 31
0.0
  0
LINE
  5
191E0
330
747D
100
AcDbEntity
  8
破線
  6
HIDDEN
 48
5.0
100
AcDbLine
 10
6630.606647567875
 20
1899.843172426292
 30
0.0
 11
6615.606647567874
 21
1752.143172426291
 31
0.0
  0
LINE
  5
191E1
330
747D
100
AcDbEntity
  8
破線
  6
HIDDEN
 48
5.0
100
AcDbLine
 10
6685.606647567874
 20
1749.843172426292
 30
0.0
 11
6615.606647567874
 21
1749.843172426292
 31
0.0
  0
LINE
  5
191E2
330
747D
100
AcDbEntity
  8
部品1
100
AcDbLine
 10
4468.106647567874
 20
2004.843172426292
 30
0.0
 11
4475.606647567874
 21
2004.843172426292
 31
0.0
  0
LINE
  5
191E3
330
747D
100
AcDbEntity
  8
部品1
100
AcDbLine
 10
5954.841980682093
 20
1215.804909448881
 30
0.0
 11
5191.371314453656
 21
1215.804909448881
 31
0.0
  0
LINE
  5
191E4
330
747D
100
AcDbEntity
  8
部品1
100
AcDbLine
 10
5954.841980682093
 20
975.912587903349
 30
0.0
 11
5954.841980682093
 21
1215.804909448881
 31
0.0
  0
LINE
  5
191E5
330
747D
100
AcDbEntity
  8
部品1
100
AcDbLine
 10
5191.371314453656
 20
975.912587903349
 30
0.0
 11
5954.841980682093
 21
975.912587903349
 31
0.0
  0
LINE
  5
191E6
330
747D
100
AcDbEntity
  8
部品1
100
AcDbLine
 10
5191.371314453656
 20
1215.804909448881
 30
0.0
 11
5191.371314453656
 21
975.912587903349
 31
0.0
  0
TEXT
  5
191E7
330
747D
100
AcDbEntity
  8
部品1
100
AcDbText
 10
5280.817415877264
 20
1022.911380230354
 30
0.0
 40
135.0
  1
側面図
  7
STYLE2
100
AcDbText
  0
LINE
  5
191E8
330
747D
100
AcDbEntity
  8
細線
 48
50.0
100
AcDbLine
 10
6545.606647567883
 20
4144.843172426291
 30
0.0
 11
6545.606647567883
 21
2054.843172426292
 31
0.0
  0
LINE
  5
191E9
330
747D
100
AcDbEntity
  8
細線
 48
50.0
100
AcDbLine
 10
6560.606647567881
 20
4144.843172426291
 30
0.0
 11
6560.606647567881
 21
2054.843172426292
 31
0.0
  0
LINE
  5
191EA
330
747D
100
AcDbEntity
  8
細線
 48
50.0
100
AcDbLine
 10
6420.606647567883
 20
4144.843172426291
 30
0.0
 11
6420.606647567883
 21
2054.843172426292
 31
0.0
  0
LINE
  5
191EB
330
747D
100
AcDbEntity
  8
細線
 48
50.0
100
AcDbLine
 10
6405.606647567882
 20
4144.843172426291
 30
0.0
 11
6405.606647567882
 21
2054.843172426292
 31
0.0
  0
LINE
  5
191EC
330
747D
100
AcDbEntity
  8
細線
 48
50.0
100
AcDbLine
 10
6265.606647567881
 20
4144.843172426291
 30
0.0
 11
6265.606647567881
 21
2054.843172426292
 31
0.0
  0
LINE
  5
191ED
330
747D
100
AcDbEntity
  8
細線
 48
50.0
100
AcDbLine
 10
6280.606647567882
 20
4144.843172426291
 30
0.0
 11
6280.606647567882
 21
2054.843172426292
 31
0.0
  0
LINE
  5
191EE
330
747D
100
AcDbEntity
  8
部品1
100
AcDbLine
 10
5783.106647567874
 20
4144.843172426291
 30
0.0
 11
5783.106647567874
 21
2054.843172426292
 31
0.0
  0
LINE
  5
191EF
330
747D
100
AcDbEntity
  8
細線
 48
50.0
100
AcDbLine
 10
5440.606647567879
 20
4144.843172426291
 30
0.0
 11
5440.606647567879
 21
2054.843172426292
 31
0.0
  0
LINE
  5
191F0
330
747D
100
AcDbEntity
  8
細線
 48
50.0
100
AcDbLine
 10
5425.606647567878
 20
4144.843172426291
 30
0.0
 11
5425.606647567878
 21
2054.843172426292
 31
0.0
  0
LINE
  5
191F1
330
747D
100
AcDbEntity
  8
細線
 48
50.0
100
AcDbLine
 10
5565.606647567879
 20
4144.843172426291
 30
0.0
 11
5565.606647567879
 21
2054.843172426292
 31
0.0
  0
LINE
  5
191F2
330
747D
100
AcDbEntity
  8
細線
 48
50.0
100
AcDbLine
 10
5580.606647567878
 20
4144.843172426291
 30
0.0
 11
5580.606647567878
 21
2054.843172426292
 31
0.0
  0
LINE
  5
191F3
330
747D
100
AcDbEntity
  8
細線
 48
50.0
100
AcDbLine
 10
5720.606647567878
 20
4144.843172426291
 30
0.0
 11
5720.606647567878
 21
2054.843172426292
 31
0.0
  0
LINE
  5
191F4
330
747D
100
AcDbEntity
  8
細線
 48
50.0
100
AcDbLine
 10
5705.606647567878
 20
4144.843172426291
 30
0.0
 11
5705.606647567878
 21
2054.843172426292
 31
0.0
  0
LINE
  5
191F5
330
747D
100
AcDbEntity
  8
部品1
100
AcDbLine
 10
5363.106647567875
 20
4144.843172426291
 30
0.0
 11
5363.106647567875
 21
2054.843172426292
 31
0.0
  0
LINE
  5
191F6
330
747D
100
AcDbEntity
  8
細線
 48
50.0
100
AcDbLine
 10
4600.606647567874
 20
4144.843172426291
 30
0.0
 11
4600.606647567874
 21
2054.843172426292
 31
0.0
  0
LINE
  5
191F7
330
747D
100
AcDbEntity
  8
細線
 48
50.0
100
AcDbLine
 10
4585.606647567874
 20
4144.843172426291
 30
0.0
 11
4585.606647567874
 21
2054.843172426292
 31
0.0
  0
LINE
  5
191F8
330
747D
100
AcDbEntity
  8
細線
 48
50.0
100
AcDbLine
 10
4725.606647567874
 20
4144.843172426291
 30
0.0
 11
4725.606647567874
 21
2054.843172426292
 31
0.0
  0
LINE
  5
191F9
330
747D
100
AcDbEntity
  8
細線
 48
50.0
100
AcDbLine
 10
4740.606647567875
 20
4144.843172426291
 30
0.0
 11
4740.606647567875
 21
2054.843172426292
 31
0.0
  0
LINE
  5
191FA
330
747D
100
AcDbEntity
  8
細線
 48
50.0
100
AcDbLine
 10
4880.606647567875
 20
4144.843172426291
 30
0.0
 11
4880.606647567875
 21
2054.843172426292
 31
0.0
  0
LINE
  5
191FB
330
747D
100
AcDbEntity
  8
細線
 48
50.0
100
AcDbLine
 10
4865.606647567875
 20
4144.843172426291
 30
0.0
 11
4865.606647567875
 21
2054.843172426292
 31
0.0
  0
LINE
  5
191FC
330
747D
100
AcDbEntity
  8
細線
 48
50.0
100
AcDbLine
 10
5285.606647567874
 20
4144.843172426291
 30
0.0
 11
5285.606647567874
 21
2054.843172426292
 31
0.0
  0
LINE
  5
191FD
330
747D
100
AcDbEntity
  8
細線
 48
50.0
100
AcDbLine
 10
5300.606647567875
 20
4144.843172426291
 30
0.0
 11
5300.606647567875
 21
2054.843172426292
 31
0.0
  0
LINE
  5
191FE
330
747D
100
AcDbEntity
  8
細線
 48
50.0
100
AcDbLine
 10
5160.606647567874
 20
4144.843172426291
 30
0.0
 11
5160.606647567874
 21
2054.843172426292
 31
0.0
  0
LINE
  5
191FF
330
747D
100
AcDbEntity
  8
細線
 48
50.0
100
AcDbLine
 10
5145.606647567874
 20
4144.843172426291
 30
0.0
 11
5145.606647567874
 21
2054.843172426292
 31
0.0
  0
LINE
  5
19200
330
747D
100
AcDbEntity
  8
細線
 48
50.0
100
AcDbLine
 10
5005.606647567875
 20
4144.843172426291
 30
0.0
 11
5005.606647567875
 21
2054.843172426292
 31
0.0
  0
LINE
  5
19201
330
747D
100
AcDbEntity
  8
細線
 48
50.0
100
AcDbLine
 10
5020.606647567874
 20
4144.843172426291
 30
0.0
 11
5020.606647567874
 21
2054.843172426292
 31
0.0
  0
LINE
  5
19202
330
747D
100
AcDbEntity
  8
部品1
100
AcDbLine
 10
4468.106647567874
 20
2004.843172426292
 30
0.0
 11
4475.606647567874
 21
2004.843172426292
 31
0.0
  0
LINE
  5
19203
330
747D
100
AcDbEntity
  8
部品1
100
AcDbLine
 10
6623.106647567879
 20
4144.843172426291
 30
0.0
 11
6623.106647567879
 21
2054.843172426292
 31
0.0
  0
LINE
  5
19204
330
747D
100
AcDbEntity
  8
部品1
100
AcDbLine
 10
6678.106647567874
 20
4238.843172426299
 30
0.0
 11
6678.106647567878
 21
1904.843172426292
 31
0.0
  0
LINE
  5
19205
330
747D
100
AcDbEntity
  8
部品1
100
AcDbLine
 10
4943.106647567875
 20
4144.843172426291
 30
0.0
 11
4943.106647567875
 21
2054.843172426292
 31
0.0
  0
LINE
  5
19206
330
747D
100
AcDbEntity
  8
部品1
100
AcDbLine
 10
4468.106647567878
 20
4238.843172426295
 30
0.0
 11
4468.106647567874
 21
1904.843172426292
 31
0.0
  0
LINE
  5
19207
330
747D
100
AcDbEntity
  8
部品1
100
AcDbLine
 10
4523.106647567874
 20
4144.843172426291
 30
0.0
 11
4523.106647567874
 21
2054.843172426292
 31
0.0
  0
LINE
  5
19208
330
747D
100
AcDbEntity
  8
部品1
100
AcDbLine
 10
4468.106647567874
 20
2054.843172426292
 30
0.0
 11
6678.106647567878
 21
2054.843172426292
 31
0.0
  0
LINE
  5
19209
330
747D
100
AcDbEntity
  8
部品1
100
AcDbLine
 10
4468.106647567874
 20
4144.843172426291
 30
0.0
 11
6678.106647567878
 21
4144.843172426291
 31
0.0
  0
LINE
  5
1920A
330
747D
100
AcDbEntity
  8
部品1
100
AcDbLine
 10
6203.106647567874
 20
4144.843172426291
 30
0.0
 11
6203.106647567874
 21
2054.843172426292
 31
0.0
  0
LINE
  5
1920B
330
747D
100
AcDbEntity
  8
細線
 48
50.0
100
AcDbLine
 10
6125.606647567877
 20
4144.843172426291
 30
0.0
 11
6125.606647567877
 21
2054.843172426292
 31
0.0
  0
LINE
  5
1920C
330
747D
100
AcDbEntity
  8
細線
 48
50.0
100
AcDbLine
 10
6140.606647567878
 20
4144.843172426291
 30
0.0
 11
6140.606647567878
 21
2054.843172426292
 31
0.0
  0
LINE
  5
1920D
330
747D
100
AcDbEntity
  8
細線
 48
50.0
100
AcDbLine
 10
6000.606647567877
 20
4144.843172426291
 30
0.0
 11
6000.606647567877
 21
2054.843172426292
 31
0.0
  0
LINE
  5
1920E
330
747D
100
AcDbEntity
  8
細線
 48
50.0
100
AcDbLine
 10
5985.606647567878
 20
4144.843172426291
 30
0.0
 11
5985.606647567878
 21
2054.843172426292
 31
0.0
  0
LINE
  5
1920F
330
747D
100
AcDbEntity
  8
細線
 48
50.0
100
AcDbLine
 10
5845.606647567878
 20
4144.843172426291
 30
0.0
 11
5845.606647567878
 21
2054.843172426292
 31
0.0
  0
LINE
  5
19210
330
747D
100
AcDbEntity
  8
細線
 48
50.0
100
AcDbLine
 10
5860.606647567878
 20
4144.843172426291
 30
0.0
 11
5860.606647567878
 21
2054.843172426292
 31
0.0
  0
LINE
  5
19211
330
747D
100
AcDbEntity
  8
部品1
100
AcDbLine
 10
4515.606647567874
 20
2004.843172426292
 30
0.0
 11
6630.606647567875
 21
2004.843172426292
 31
0.0
  0
LINE
  5
19212
330
747D
100
AcDbEntity
  8
部品1
100
AcDbLine
 10
6670.606647567874
 20
2004.843172426292
 30
0.0
 11
6678.106647567878
 21
2004.843172426292
 31
0.0
  0
TEXT
  5
19213
330
747D
100
AcDbEntity
  8
部品1
 48
50.0
100
AcDbText
 10
10201.10453479395
 20
4408.658359701549
 30
0.0
 40
120.0
  1
44
 50
90.0
  7
STYLE1
100
AcDbText
  0
DIMENSION
  5
19214
330
747D
100
AcDbEntity
  8
寸法
100
AcDbDimension
  2
*D7
 10
7871.564294975775
 20
1904.843172426288
 30
0.0
 11
7871.564294975775
 21
1668.795928331797
 31
0.0
 70
   160
 71
     5
 42
100.0000000000002
  3
INABA_S40G
100
AcDbAlignedDimension
 13
8725.203676905135
 23
2004.843172426288
 33
0.0
 14
8156.550967746836
 24
1904.843172426288
 34
0.0
 50
90.0
100
AcDbRotatedDimension
1001
ACAD
1000
DSTYLE
1002
{
1070
   174
1070
     0
1070
   272
1070
     1
1070
   288
1070
     0
1070
   341
1005
0
1002
}
  0
DIMENSION
  5
19215
330
747D
100
AcDbEntity
  8
寸法
100
AcDbDimension
  2
*D8
 10
8156.550967746836
 20
2004.843172426288
 30
0.0
 11
8156.550967746836
 21
1698.795928331797
 31
0.0
 70
   160
 71
     5
 42
49.99999999999977
  3
INABA_S40G
100
AcDbAlignedDimension
 13
8780.203676905134
 23
2054.843172426288
 33
0.0
 14
8725.203676905135
 24
2004.843172426288
 34
0.0
 50
90.0
100
AcDbRotatedDimension
1001
ACAD
1000
DSTYLE
1002
{
1070
   174
1070
     0
1070
   272
1070
     1
1070
   288
1070
     0
1070
   341
1005
0
1002
}
  0
DIMENSION
  5
19216
330
747D
100
AcDbEntity
  8
寸法
100
AcDbDimension
  2
*D9
 10
8156.550967746836
 20
2054.843172426288
 30
0.0
 11
8156.550967746836
 21
3075.343172426288
 31
0.0
 70
   160
 71
     5
 42
2090.0
  3
INABA_S40G
100
AcDbAlignedDimension
 13
8780.203676905134
 23
4144.843172426288
 33
0.0
 14
8780.203676905134
 24
2054.843172426288
 34
0.0
 50
90.0
100
AcDbRotatedDimension
1001
ACAD
1000
DSTYLE
1002
{
1070
   174
1070
     0
1070
   272
1070
     1
1070
   288
1070
     0
1070
   341
1005
0
1002
}
  0
DIMENSION
  5
19217
330
747D
100
AcDbEntity
  8
寸法
100
AcDbDimension
  2
*D10
 10
7871.564294975776
 20
4379.843172426293
 30
0.0
 11
7871.564294975775
 21
3075.343172426288
 31
0.0
 70
   160
 71
     5
 42
2375.000000000005
  3
INABA_S40G
100
AcDbAlignedDimension
 13
8780.203676905134
 23
2004.843172426288
 33
0.0
 14
8720.203676905134
 24
4379.843172426293
 34
0.0
 50
90.0
100
AcDbRotatedDimension
1001
ACAD
1000
DSTYLE
1002
{
1070
   174
1070
     0
1070
   272
1070
     1
1070
   288
1070
     0
1070
   341
1005
0
1002
}
  0
DIMENSION
  5
19218
330
747D
100
AcDbEntity
  8
寸法
100
AcDbDimension
  2
*D11
 10
11522.62660485184
 20
4324.84317242629
 30
0.0
 11
11522.62660485184
 21
3119.596379331786
 31
0.0
 70
   160
 71
     5
 42
2320.000000000002
  3
INABA_S40G
100
AcDbAlignedDimension
 13
10990.20367690513
 23
2004.843172426288
 33
0.0
 14
11070.20367690511
 24
4324.84317242629
 34
0.0
 50
90.0
100
AcDbRotatedDimension
1001
ACAD
1000
DSTYLE
1002
{
1070
   174
1070
     0
1070
   272
1070
     1
1070
   288
1070
     0
1070
   341
1005
0
1002
}
  0
LINE
  5
19219
330
747D
100
AcDbEntity
  8
細線
 48
50.0
100
AcDbLine
 10
11037.20367690514
 20
4324.810151461584
 30
0.0
 11
11032.45599401714
 21
4199.064378970839
 31
0.0
  0
LINE
  5
1921A
330
747D
100
AcDbEntity
  8
部品1
 48
50.0
100
AcDbLine
 10
11069.41757971584
 20
4315.784324700506
 30
0.0
 11
11067.38695852487
 21
4295.839283442725
 31
0.0
  0
LINE
  5
1921B
330
747D
100
AcDbEntity
  8
部品1
 48
50.0
100
AcDbLine
 10
11064.03439204038
 20
4292.528649369816
 30
0.0
 11
11056.52761277555
 21
4218.796028624805
 31
0.0
  0
LINE
  5
1921C
330
747D
100
AcDbEntity
  8
部品1
 48
50.0
100
AcDbLine
 10
11053.17504629106
 20
4215.485394551891
 30
0.0
 11
11052.09548325132
 21
4204.881777558333
 31
0.0
  0
ARC
  5
1921D
330
747D
100
AcDbEntity
  8
部品1
 48
50.0
100
AcDbCircle
 10
11062.45357915108
 20
4316.493335373281
 30
0.0
 40
7.0
100
AcDbArc
 50
354.1866997665532
 51
87.03587545304044
  0
ARC
  5
1921E
330
747D
100
AcDbEntity
  8
部品1
 48
50.0
100
AcDbCircle
 10
11045.13148268656
 20
4205.590788231107
 30
0.0
 40
7.0
100
AcDbArc
 50
267.8377559869492
 51
354.1866997665532
  0
ARC
  5
1921F
330
747D
100
AcDbEntity
  8
部品1
100
AcDbCircle
 10
11056.15961796167
 20
4215.181532834989
 30
0.0
 40
3.0
100
AcDbArc
 50
95.09216976420788
 51
174.1866997665532
  0
ARC
  5
19220
330
747D
100
AcDbEntity
  8
部品1
100
AcDbCircle
 10
11067.018963711
 20
4292.224787652915
 30
0.0
 40
3.0
100
AcDbArc
 50
95.09216976442012
 51
174.1866997665532
  0
ARC
  5
19221
330
747D
100
AcDbEntity
  8
部品1
100
AcDbCircle
 10
11066.69055846839
 20
4295.910184510002
 30
0.0
 40
0.7
100
AcDbArc
 50
275.0921697642079
 51
354.1866997665532
  0
ARC
  5
19222
330
747D
100
AcDbEntity
  8
部品1
100
AcDbCircle
 10
11055.83121271907
 20
4218.866929692079
 30
0.0
 40
0.7
100
AcDbArc
 50
275.0921697642079
 51
354.1866997666569
  0
LINE
  5
19223
330
747D
100
AcDbEntity
  8
細線
 48
50.0
100
AcDbLine
 10
8753.203676905135
 20
4377.242848801691
 30
0.0
 11
8747.914575349627
 21
4237.157216174338
 31
0.0
  0
LINE
  5
19224
330
747D
100
AcDbEntity
  8
部品1
 48
50.0
100
AcDbLine
 10
8720.387962818241
 20
4371.436718590979
 30
0.0
 11
8720.768222596053
 21
4351.509754144568
 31
0.0
  0
LINE
  5
19225
330
747D
100
AcDbEntity
  8
部品1
 48
50.0
100
AcDbLine
 10
8723.836994702299
 20
4347.934472651097
 30
0.0
 11
8725.540896193662
 21
4258.643975944449
 31
0.0
  0
LINE
  5
19226
330
747D
100
AcDbEntity
  8
部品1
 48
50.0
100
AcDbLine
 10
8728.609668299906
 20
4255.068694450976
 30
0.0
 11
8728.811620920337
 21
4244.485659057885
 31
0.0
  0
ARC
  5
19227
330
747D
100
AcDbEntity
  8
部品1
 48
50.0
100
AcDbCircle
 10
8727.38668864658
 20
4371.570272998408
 30
0.0
 40
7.0
100
AcDbArc
 50
87.03587545304044
 51
181.0932240293156
  0
ARC
  5
19228
330
747D
100
AcDbEntity
  8
部品1
 48
50.0
100
AcDbCircle
 10
8735.810346748676
 20
4244.619213465314
 30
0.0
 40
7.0
100
AcDbArc
 50
181.0932240293156
 51
267.8377559869492
  0
ARC
  5
19229
330
747D
100
AcDbEntity
  8
部品1
100
AcDbCircle
 10
8725.610214373475
 20
4255.011456847795
 30
0.0
 40
3.0
100
AcDbArc
 50
1.093224029315636
 51
80.18775403148449
  0
ARC
  5
1922A
330
747D
100
AcDbEntity
  8
部品1
100
AcDbCircle
 10
8720.837540775868
 20
4347.877235047912
 30
0.0
 40
3.0
100
AcDbArc
 50
1.093224029315636
 51
80.18775403148449
  0
ARC
  5
1922B
330
747D
100
AcDbEntity
  8
部品1
100
AcDbCircle
 10
8721.46809517889
 20
4351.52310958531
 30
0.0
 40
0.7
100
AcDbArc
 50
181.0932240292114
 51
260.1877540314845
  0
ARC
  5
1922C
330
747D
100
AcDbEntity
  8
部品1
100
AcDbCircle
 10
8726.2407687765
 20
4258.657331385191
 30
0.0
 40
0.7
100
AcDbArc
 50
181.0932240293156
 51
260.1877540314845
  0
DIMENSION
  5
1922D
330
747D
100
AcDbEntity
  8
寸法
 48
50.0
100
AcDbDimension
  2
*D12
 10
8159.595270136764
 20
4254.188431299618
 30
0.0
 11
8170.26074539569
 21
4625.035094541326
 31
0.0
 70
   161
 71
     5
 42
141.0000000000009
  3
INABA_S40G
100
AcDbAlignedDimension
 13
8739.599697063715
 23
4378.565921260967
 33
0.0
 14
8735.546241507087
 24
4237.624197495253
 34
0.0
1001
ACAD
1000
DSTYLE
1002
{
1070
   174
1070
     0
1070
   272
1070
     1
1070
   288
1070
     0
1070
   341
1005
0
1002
}
  0
LINE
  5
1922E
330
747D
100
AcDbEntity
  8
部品1
100
AcDbLine
 10
8727.748663262095
 20
4378.560907760554
 30
0.0
 11
11062.8155537666
 21
4323.483970135426
 31
0.0
  0
LINE
  5
1922F
330
747D
100
AcDbEntity
  8
部品1
100
AcDbLine
 10
8735.546241507087
 20
4237.624197495253
 30
0.0
 11
11044.86737744498
 21
4198.595772261049
 31
0.0
  0
LINE
  5
19230
330
747D
100
AcDbEntity
  8
細線
 48
50.0
100
AcDbLine
 10
8721.243100005947
 20
4350.860254267649
 30
0.0
 11
11066.87908475112
 21
4295.236049626821
 31
0.0
  0
LINE
  5
19231
330
747D
100
AcDbEntity
  8
細線
 48
50.0
100
AcDbLine
 10
8726.003575243234
 20
4257.998742569785
 30
0.0
 11
11056.00723967387
 21
4218.189423595293
 31
0.0
  0
TEXT
  5
19232
330
747D
100
AcDbEntity
  8
部品1
 48
50.0
100
AcDbText
 10
9723.471512128861
 20
4546.159617919832
 30
0.0
 40
120.0
  1
1000
  7
STYLE1
100
AcDbText
  0
LINE
  5
19233
330
747D
100
AcDbEntity
  8
部品1
 48
50.0
100
AcDbLine
 10
10035.20367690513
 20
4510.275595767399
 30
0.0
 11
10035.20367690513
 21
4494.075595767399
 31
0.0
  0
LINE
  5
19234
330
747D
100
AcDbEntity
  8
部品1
 48
50.0
100
AcDbLine
 10
9735.203676905134
 20
4510.275595767399
 30
0.0
 11
10035.20367690513
 21
4510.275595767399
 31
0.0
  0
LINE
  5
19235
330
747D
100
AcDbEntity
  8
部品1
100
AcDbLine
 10
9709.748663262097
 20
4511.593654726261
 30
0.0
 11
10035.20367690513
 21
4494.075595767399
 31
0.0
  0
DIMENSION
  5
19236
330
747D
100
AcDbEntity
  8
寸法
 48
50.0
100
AcDbDimension
  2
*D13
 10
8720.203676905134
 20
4778.500626005591
 30
0.0
 11
8410.565881629542
 21
4778.500626005591
 31
0.0
 70
   160
 71
     5
 42
60.0
  3
INABA_S40G
100
AcDbAlignedDimension
 13
8780.203676905134
 23
4375.844790549265
 33
0.0
 14
8720.203676905134
 24
4379.843172426292
 34
0.0
100
AcDbRotatedDimension
1001
ACAD
1000
DSTYLE
1002
{
1070
   174
1070
     0
1070
   272
1070
     1
1070
   288
1070
     0
1070
   341
1005
0
1002
}
  0
DIMENSION
  5
19237
330
747D
100
AcDbEntity
  8
寸法
 48
50.0
100
AcDbDimension
  2
*D14
 10
11070.20367690513
 20
4778.500626005591
 30
0.0
 11
11276.25092099962
 21
4778.500626005591
 31
0.0
 70
   160
 71
     5
 42
80.0
  3
INABA_S40G
100
AcDbAlignedDimension
 13
10990.20367690513
 23
4326.65385203794
 33
0.0
 14
11070.20367690513
 24
4324.843172426288
 34
0.0
100
AcDbRotatedDimension
1001
ACAD
1000
DSTYLE
1002
{
1070
   174
1070
     0
1070
   272
1070
     1
1070
   288
1070
     0
1070
   341
1005
0
1002
}
  0
DIMENSION
  5
19238
330
747D
100
AcDbEntity
  8
寸法
 48
50.0
100
AcDbDimension
  2
*D15
 10
8720.203676905134
 20
4997.702459679884
 30
0.0
 11
9954.547530997603
 21
4997.702459679884
 31
0.0
 70
   160
 71
     5
 42
2350.0
  3
INABA_S40G
100
AcDbAlignedDimension
 13
11070.20367690513
 23
4324.843172426288
 33
0.0
 14
8720.203676905134
 24
4379.843172426292
 34
0.0
100
AcDbRotatedDimension
1001
ACAD
1000
DSTYLE
1002
{
1070
   174
1070
     0
1070
   272
1070
     1
1070
   288
1070
     0
1070
   341
1005
0
1002
}
  0
DIMENSION
  5
19239
330
747D
100
AcDbEntity
  8
寸法
 48
50.0
100
AcDbDimension
  2
*D16
 10
8780.203676905134
 20
4778.500626005591
 30
0.0
 11
9874.848413975648
 21
4778.500626005591
 31
0.0
 70
   160
  1
柱外寸法<>
 71
     5
 42
2210.0
  3
INABA_S40G
100
AcDbAlignedDimension
 13
10990.20367690513
 23
4326.65385203794
 33
0.0
 14
8780.203676905134
 24
4375.844790549265
 34
0.0
100
AcDbRotatedDimension
1001
ACAD
1000
DSTYLE
1002
{
1070
   174
1070
     0
1070
   272
1070
     1
1070
   288
1070
     0
1070
   341
1005
0
1002
}
  0
TEXT
  5
1923A
330
747D
100
AcDbEntity
  8
文字
 62
     7
 48
50.0
100
AcDbText
 10
13209.4053442172
 20
228.5435242569015
 30
0.0
 40
100.0
  1
○有効開口寸法 ： 1266×2025(mm)
  7
STYLE2
100
AcDbText
  0
LINE
  5
1923B
330
747D
100
AcDbEntity
  8
Ｇ．Ｌ
100
AcDbLine
 10
3158.997734328841
 20
1904.843172426288
 30
0.0
 11
11639.71622993397
 21
1904.843172426288
 31
0.0
  0
LINE
  5
1923C
330
747D
100
AcDbEntity
  8
部品1
100
AcDbLine
 10
8780.203676905134
 20
2004.843172426288
 30
0.0
 11
10990.20367690513
 21
2004.843172426288
 31
0.0
  0
LINE
  5
1923D
330
747D
100
AcDbEntity
  8
部品1
100
AcDbLine
 10
8780.203676905134
 20
4144.843172426288
 30
0.0
 11
10990.20367690513
 21
4144.843172426288
 31
0.0
  0
LINE
  5
1923E
330
747D
100
AcDbEntity
  8
部品1
100
AcDbLine
 10
8780.203676905134
 20
4236.869469470874
 30
0.0
 11
8780.203676905134
 21
1904.843172426288
 31
0.0
  0
LINE
  5
1923F
330
747D
100
AcDbEntity
  8
部品1
100
AcDbLine
 10
10990.20367690513
 20
4199.519610057508
 30
0.0
 11
10990.20367690513
 21
1904.843172426288
 31
0.0
  0
LINE
  5
19240
330
747D
100
AcDbEntity
  8
部品1
100
AcDbLine
 10
10590.20367690513
 20
2004.843172426288
 30
0.0
 11
10590.20367690513
 21
1904.843172426288
 31
0.0
  0
LINE
  5
19241
330
747D
100
AcDbEntity
  8
部品1
100
AcDbLine
 10
9180.203676905135
 20
2004.843172426288
 30
0.0
 11
9180.203676905135
 21
1904.843172426288
 31
0.0
  0
LINE
  5
19242
330
747D
100
AcDbEntity
  8
部品1
100
AcDbLine
 10
10995.20367690513
 20
2049.843172426288
 30
0.0
 11
10995.20367690513
 21
1904.843172426288
 31
0.0
  0
LINE
  5
19243
330
747D
100
AcDbEntity
  8
破線
 48
5.0
100
AcDbLine
 10
11090.20367690513
 20
1704.843172426288
 30
0.0
 11
10890.20367690513
 21
1704.843172426288
 31
0.0
  0
LINE
  5
19244
330
747D
100
AcDbEntity
  8
破線
 48
5.0
100
AcDbLine
 10
10890.20367690513
 20
1904.843172426288
 30
0.0
 11
10890.20367690513
 21
1704.843172426288
 31
0.0
  0
LINE
  5
19245
330
747D
100
AcDbEntity
  8
破線
 48
5.0
100
AcDbLine
 10
11090.20367690513
 20
1904.843172426288
 30
0.0
 11
11090.20367690513
 21
1704.843172426288
 31
0.0
  0
LINE
  5
19246
330
747D
100
AcDbEntity
  8
破線
 48
5.0
100
AcDbLine
 10
11015.20367690513
 20
1749.843172426288
 30
0.0
 11
10995.20367690513
 21
1749.843172426288
 31
0.0
  0
LINE
  5
19247
330
747D
100
AcDbEntity
  8
部品1
100
AcDbLine
 10
8775.203676905134
 20
2049.84317242629
 30
0.0
 11
8775.203676905134
 21
1904.843172426288
 31
0.0
  0
LINE
  5
19248
330
747D
100
AcDbEntity
  8
破線
 48
5.0
100
AcDbLine
 10
8680.203676905135
 20
1704.843172426288
 30
0.0
 11
8880.203676905136
 21
1704.843172426288
 31
0.0
  0
LINE
  5
19249
330
747D
100
AcDbEntity
  8
破線
 48
5.0
100
AcDbLine
 10
8680.203676905135
 20
1904.843172426288
 30
0.0
 11
8680.203676905135
 21
1704.843172426288
 31
0.0
  0
LINE
  5
1924A
330
747D
100
AcDbEntity
  8
破線
 48
5.0
100
AcDbLine
 10
8755.203676905134
 20
1749.843172426288
 30
0.0
 11
8775.203676905135
 21
1749.843172426288
 31
0.0
  0
LINE
  5
1924B
330
747D
100
AcDbEntity
  8
破線
 48
5.0
100
AcDbLine
 10
8880.203676905134
 20
1904.843172426288
 30
0.0
 11
8880.203676905134
 21
1704.843172426288
 31
0.0
  0
LINE
  5
1924C
330
747D
100
AcDbEntity
  8
破線
 48
5.0
100
AcDbLine
 10
10995.20367690513
 20
1904.843172426288
 30
0.0
 11
10995.20367690513
 21
1749.843172426288
 31
0.0
  0
LINE
  5
1924D
330
747D
100
AcDbEntity
  8
破線
 48
5.0
100
AcDbLine
 10
8775.203676905134
 20
1904.843172426288
 30
0.0
 11
8775.203676905134
 21
1749.843172426288
 31
0.0
  0
DIMENSION
  5
1924E
330
747D
100
AcDbEntity
  8
寸法
 48
50.0
100
AcDbDimension
  2
*D17
 10
8680.203676905135
 20
1418.795843125911
 30
0.0
 11
8780.203676905134
 21
1418.795843125911
 31
0.0
 70
   160
 71
     5
 42
200.0000000000018
  3
INABA_S40G
100
AcDbAlignedDimension
 13
8880.203676905136
 23
1704.843172426288
 33
0.0
 14
8680.203676905135
 24
1704.843172426288
 34
0.0
100
AcDbRotatedDimension
  0
TEXT
  5
1924F
330
747D
100
AcDbEntity
  8
部品1
100
AcDbText
 10
9593.993747528866
 20
1022.911380230358
 30
0.0
 40
135.0
  1
正面図
  7
STYLE2
100
AcDbText
  0
LINE
  5
19250
330
747D
100
AcDbEntity
  8
部品1
100
AcDbLine
 10
8780.203676905134
 20
2054.843172426292
 30
0.0
 11
8808.203676905135
 21
2054.843172426292
 31
0.0
  0
DIMENSION
  5
19251
330
747D
100
AcDbEntity
  8
寸法
100
AcDbDimension
  2
*D18
 10
12002.73696437919
 20
7506.086285259087
 30
0.0
 11
12002.73696437919
 21
8611.086285259091
 31
0.0
 70
   160
 71
     5
 42
2210.000000000007
  3
INABA_S40G
100
AcDbAlignedDimension
 13
10990.20367690514
 23
9716.086285259095
 33
0.0
 14
10990.20367690511
 24
7506.086285259087
 34
0.0
 50
90.0
100
AcDbRotatedDimension
1001
ACAD
1000
DSTYLE
1002
{
1002
}
  0
DIMENSION
  5
19252
330
747D
100
AcDbEntity
  8
寸法
100
AcDbDimension
  2
*D19
 10
10935.20367690514
 20
10019.13187983469
 30
0.0
 11
9885.20367690514
 21
10019.13187983469
 31
0.0
 70
   160
  1
5X420=<>
 71
     5
 42
2100.0
  3
INABA_S40G
100
AcDbAlignedDimension
 13
8835.203676905141
 23
9716.086285259001
 33
0.0
 14
10935.20367690514
 24
9716.086285259095
 34
0.0
100
AcDbRotatedDimension
1001
ACAD
1000
DSTYLE
1002
{
1002
}
  0
DIMENSION
  5
19253
330
747D
100
AcDbEntity
  8
寸法
100
AcDbDimension
  2
*D20
 10
10990.20367690514
 20
10019.13187983467
 30
0.0
 11
11298.68895827938
 21
10019.13187983467
 31
0.0
 70
   160
 71
     5
 42
55.0
  3
INABA_S40G
100
AcDbAlignedDimension
 13
10935.20367690514
 23
9716.086285259095
 33
0.0
 14
10990.20367690514
 24
9716.086285259095
 34
0.0
100
AcDbRotatedDimension
1001
ACAD
1000
DSTYLE
1002
{
1002
}
  0
DIMENSION
  5
19254
330
747D
100
AcDbEntity
  8
寸法
100
AcDbDimension
  2
*D21
 10
11637.63002263955
 20
9661.086285259099
 30
0.0
 11
11637.63002263955
 21
10024.57156663333
 31
0.0
 70
   160
 71
     5
 42
54.99999999999636
  3
INABA_S40G
100
AcDbAlignedDimension
 13
10990.20367690514
 23
9716.086285259095
 33
0.0
 14
10990.20367690514
 24
9661.086285259099
 34
0.0
 50
90.0
100
AcDbRotatedDimension
1001
ACAD
1000
DSTYLE
1002
{
1002
}
  0
DIMENSION
  5
19255
330
747D
100
AcDbEntity
  8
寸法
100
AcDbDimension
  2
*D22
 10
8835.203676905141
 20
10019.13187983458
 30
0.0
 11
8471.718395530867
 21
10019.13187983458
 31
0.0
 70
   160
 71
     5
 42
55.00000000003637
  3
INABA_S40G
100
AcDbAlignedDimension
 13
8780.203676905104
 23
9716.086285259001
 33
0.0
 14
8835.203676905141
 24
9716.086285259001
 34
0.0
100
AcDbRotatedDimension
1001
ACAD
1000
DSTYLE
1002
{
1002
}
  0
LINE
  5
19256
330
747D
100
AcDbEntity
  8
部品1
100
AcDbLine
 10
10933.7036769051
 20
7562.586285259015
 30
0.0
 11
8836.703676905017
 21
7562.58628525892
 31
0.0
  0
LINE
  5
19257
330
747D
100
AcDbEntity
  8
破線
 48
10.0
100
AcDbLine
 10
10205.70367690516
 20
7586.086285258982
 30
0.0
 11
9564.703676905155
 21
7586.086285258954
 31
0.0
  0
DIMENSION
  5
19258
330
747D
100
AcDbEntity
  8
寸法
100
AcDbDimension
  2
*D23
 10
10003.13490334875
 20
8942.863630458131
 30
0.0
 11
9344.280453481522
 21
8942.863630458131
 31
0.0
 70
   160
 71
     5
 42
1273.000000000011
  3
INABA_S40G
100
AcDbAlignedDimension
 13
8808.703676905141
 23
9236.086285259
 33
0.0
 14
10081.70367690515
 24
9236.086285258993
 34
0.0
100
AcDbRotatedDimension
1001
ACAD
1000
DSTYLE
1002
{
1002
}
  0
LINE
  5
19259
330
747D
100
AcDbEntity
  8
細線
 48
50.0
100
AcDbLine
 10
10081.70367690514
 20
9236.086285259105
 30
0.0
 11
8808.703676905139
 21
9686.086285259001
 31
0.0
  0
LINE
  5
1925A
330
747D
100
AcDbEntity
  8
部品1
100
AcDbLine
 10
8808.703676905139
 20
9686.086285259001
 30
0.0
 11
10081.70367690514
 21
9686.086285259106
 31
0.0
  0
LINE
  5
1925B
330
747D
100
AcDbEntity
  8
細線
 48
50.0
100
AcDbLine
 10
10081.70367690514
 20
9686.086285259102
 30
0.0
 11
8808.703676905141
 21
9236.086285259
 31
0.0
  0
LINE
  5
1925C
330
747D
100
AcDbEntity
  8
部品1
100
AcDbLine
 10
8808.703676905141
 20
9236.086285259
 30
0.0
 11
10081.70367690514
 21
9236.086285259105
 31
0.0
  0
LINE
  5
1925D
330
747D
100
AcDbEntity
  8
部品1
100
AcDbLine
 10
8780.203676905141
 20
9716.086285259001
 30
0.0
 11
10990.20367690514
 21
9716.086285259095
 31
0.0
  0
LINE
  5
1925E
330
747D
100
AcDbEntity
  8
部品1
100
AcDbLine
 10
8808.203676905142
 20
9688.086285259
 30
0.0
 11
10082.70367690514
 21
9688.086285259117
 31
0.0
  0
LINE
  5
19260
330
747D
100
AcDbEntity
  8
破線
 48
10.0
100
AcDbLine
 10
8860.203676905115
 20
9236.086285259098
 30
0.0
 11
8860.203676905131
 21
7586.086285258919
 31
0.0
  0
LINE
  5
19261
330
747D
100
AcDbEntity
  8
部品1
100
AcDbLine
 10
8836.703676905118
 20
9236.086285259098
 30
0.0
 11
8836.703676905134
 21
7562.586285259036
 31
0.0
  0
LINE
  5
19262
330
747D
100
AcDbEntity
  8
部品1
100
AcDbLine
 10
8808.203676905115
 20
7534.086285259018
 30
0.0
 11
8808.203676905142
 21
9688.086285259
 31
0.0
  0
LINE
  5
19263
330
747D
100
AcDbEntity
  8
部品1
100
AcDbLine
 10
8780.203676905104
 20
9716.086285258967
 30
0.0
 11
8780.203676905134
 21
7506.086285258956
 31
0.0
  0
LINE
  5
19264
330
747D
100
AcDbEntity
  8
部品1
 48
50.0
100
AcDbLine
 10
8836.703676905115
 20
7562.586285259015
 30
0.0
 11
8808.203676905115
 21
7534.086285259018
 31
0.0
  0
LINE
  5
19265
330
747D
100
AcDbEntity
  8
部品1
 48
50.0
100
AcDbLine
 10
8808.703676905139
 20
9686.086285258996
 30
0.0
 11
8808.703676905141
 21
9236.086285258997
 31
0.0
  0
LINE
  5
19266
330
747D
100
AcDbEntity
  8
部品1
100
AcDbLine
 10
8808.203676905115
 20
9241.086285258971
 30
0.0
 11
8780.203676905115
 21
9241.086285258971
 31
0.0
  0
LINE
  5
19267
330
747D
100
AcDbEntity
  8
部品1
100
AcDbLine
 10
8808.203676905108
 20
9661.086285258971
 30
0.0
 11
8780.203676905108
 21
9661.086285258971
 31
0.0
  0
LINE
  5
19268
330
747D
100
AcDbEntity
  8
部品1
100
AcDbLine
 10
8835.203676905141
 20
9716.086285259001
 30
0.0
 11
8835.203676905141
 21
9688.086285259
 31
0.0
  0
LINE
  5
19269
330
747D
100
AcDbEntity
  8
部品1
100
AcDbLine
 10
8835.203676905106
 20
9716.086285258967
 30
0.0
 11
8835.203676905107
 21
9688.086285258968
 31
0.0
  0
DIMENSION
  5
1926A
330
747D
100
AcDbEntity
  8
寸法
100
AcDbDimension
  2
*D24
 10
11637.63002263952
 20
7506.086285259087
 30
0.0
 11
11637.63002263952
 21
7128.224818354225
 31
0.0
 70
   160
 71
     5
 42
54.99999999999636
  3
INABA_S40G
100
AcDbAlignedDimension
 13
10990.20367690511
 23
7561.086285259084
 33
0.0
 14
10990.20367690511
 24
7506.086285259087
 34
0.0
 50
90.0
100
AcDbRotatedDimension
1001
ACAD
1000
DSTYLE
1002
{
1002
}
  0
LINE
  5
1926C
330
747D
100
AcDbEntity
  8
破線
 48
10.0
100
AcDbLine
 10
10910.2036769051
 20
7586.086285259014
 30
0.0
 11
10255.70367690516
 21
7586.086285258987
 31
0.0
  0
DIMENSION
  5
1926D
330
747D
100
AcDbEntity
  8
寸法
100
AcDbDimension
  2
*D25
 10
10883.13490334872
 20
8942.863630458131
 30
0.0
 11
10488.05073902341
 21
8942.863630458131
 31
0.0
 70
   160
 71
     5
 42
853.0000000000109
  3
INABA_S40G
100
AcDbAlignedDimension
 13
10108.70367690514
 23
9236.086285259105
 33
0.0
 14
10961.70367690515
 24
9236.086285259098
 34
0.0
100
AcDbRotatedDimension
1001
ACAD
1000
DSTYLE
1002
{
1002
}
  0
LINE
  5
1926E
330
747D
100
AcDbEntity
  8
細線
 48
50.0
100
AcDbLine
 10
10961.70367690514
 20
9686.086285259094
 30
0.0
 11
10108.70367690514
 21
9236.086285259105
 31
0.0
  0
LINE
  5
1926F
330
747D
100
AcDbEntity
  8
部品1
100
AcDbLine
 10
10108.70367690514
 20
9686.086285259102
 30
0.0
 11
10961.70367690514
 21
9686.086285259094
 31
0.0
  0
LINE
  5
19270
330
747D
100
AcDbEntity
  8
部品1
100
AcDbLine
 10
10108.70367690514
 20
9236.086285259105
 30
0.0
 11
10961.70367690514
 21
9236.086285259098
 31
0.0
  0
LINE
  5
19271
330
747D
100
AcDbEntity
  8
細線
 48
50.0
100
AcDbLine
 10
10961.70367690514
 20
9236.086285259098
 30
0.0
 11
10108.70367690514
 21
9686.086285259099
 31
0.0
  0
LINE
  5
19272
330
747D
100
AcDbEntity
  8
部品1
100
AcDbLine
 10
10107.70367690514
 20
9688.086285259112
 30
0.0
 11
10962.20367690514
 21
9688.086285259096
 31
0.0
  0
LINE
  5
19273
330
747D
100
AcDbEntity
  8
部品1
100
AcDbLine
 10
9255.203676905141
 20
9716.086285259001
 30
0.0
 11
9255.203676905141
 21
9688.086285259
 31
0.0
  0
LINE
  5
19274
330
747D
100
AcDbEntity
  8
部品1
100
AcDbLine
 10
9255.203676905141
 20
9716.086285259001
 30
0.0
 11
9255.203676905141
 21
9688.086285259
 31
0.0
  0
LINE
  5
19275
330
747D
100
AcDbEntity
  8
部品1
100
AcDbLine
 10
9255.203676905141
 20
9716.086285259116
 30
0.0
 11
9255.203676905141
 21
9688.086285259117
 31
0.0
  0
LINE
  5
19276
330
747D
100
AcDbEntity
  8
部品1
 48
50.0
100
AcDbLine
 10
10081.70367690514
 20
9686.086285259102
 30
0.0
 11
10081.70367690514
 21
9236.086285259105
 31
0.0
  0
LINE
  5
19277
330
747D
100
AcDbEntity
  8
部品1
 48
50.0
100
AcDbLine
 10
10108.70367690514
 20
9686.086285259099
 30
0.0
 11
10108.70367690514
 21
9236.086285259105
 31
0.0
  0
LINE
  5
19278
330
747D
100
AcDbEntity
  8
部品1
 48
50.0
100
AcDbLine
 10
10082.70367690514
 20
9688.08628525911
 30
0.0
 11
10082.70367690514
 21
9236.086285259105
 31
0.0
  0
LINE
  5
19279
330
747D
100
AcDbEntity
  8
部品1
 48
50.0
100
AcDbLine
 10
10107.70367690514
 20
9688.086285259105
 30
0.0
 11
10107.70367690514
 21
9236.086285259105
 31
0.0
  0
LINE
  5
1927A
330
747D
100
AcDbEntity
  8
部品1
100
AcDbLine
 10
10082.70367690514
 20
9236.086285259105
 30
0.0
 11
10107.70367690514
 21
9236.086285259105
 31
0.0
  0
LINE
  5
1927B
330
747D
100
AcDbEntity
  8
部品1
100
AcDbLine
 10
10060.20367690514
 20
9706.086285259102
 30
0.0
 11
10060.20367690514
 21
9688.086285259103
 31
0.0
  0
LINE
  5
1927C
330
747D
100
AcDbEntity
  8
部品1
100
AcDbLine
 10
10060.20367690514
 20
9706.086285259102
 30
0.0
 11
10066.20367690514
 21
9706.086285259102
 31
0.0
  0
LINE
  5
1927D
330
747D
100
AcDbEntity
  8
部品1
100
AcDbLine
 10
10130.20367690514
 20
9706.086285259102
 30
0.0
 11
10130.20367690514
 21
9688.086285259103
 31
0.0
  0
LINE
  5
1927E
330
747D
100
AcDbEntity
  8
部品1
100
AcDbLine
 10
10124.20367690514
 20
9706.086285259102
 30
0.0
 11
10130.20367690514
 21
9706.086285259102
 31
0.0
  0
LINE
  5
1927F
330
747D
100
AcDbEntity
  8
部品1
100
AcDbLine
 10
10082.70367690514
 20
9680.086285259099
 30
0.0
 11
10107.70367690514
 21
9680.086285259102
 31
0.0
  0
LINE
  5
19280
330
747D
100
AcDbEntity
  8
部品1
100
AcDbLine
 10
10095.20367690514
 20
9716.086285259116
 30
0.0
 11
10095.20367690514
 21
9688.086285259117
 31
0.0
  0
LINE
  5
19281
330
747D
100
AcDbEntity
  8
部品1
100
AcDbLine
 10
10515.20367690514
 20
9716.086285259116
 30
0.0
 11
10515.20367690514
 21
9688.086285259117
 31
0.0
  0
LINE
  5
19282
330
747D
100
AcDbEntity
  8
破線
 48
10.0
100
AcDbLine
 10
10910.20367690513
 20
9236.086285259098
 30
0.0
 11
10910.20367690512
 21
7586.086285259014
 31
0.0
  0
LINE
  5
19283
330
747D
100
AcDbEntity
  8
部品1
100
AcDbLine
 10
10933.70367690513
 20
9236.086285259098
 30
0.0
 11
10933.70367690511
 21
7562.586285259006
 31
0.0
  0
DIMENSION
  5
19284
330
747D
100
AcDbEntity
  8
寸法
100
AcDbDimension
  2
*D26
 10
11317.06140276716
 20
9140.868469590207
 30
0.0
 11
11217.06140276716
 21
9365.868469590209
 31
0.0
 70
    32
 71
     5
 42
449.9999999999963
  3
INABA_S40G
100
AcDbAlignedDimension
 13
10961.70367690514
 23
9686.086285259094
 33
0.0
 14
10961.70367690514
 24
9236.086285259098
 34
0.0
 50
90.0
100
AcDbRotatedDimension
1001
ACAD
1000
DSTYLE
1002
{
1002
}
  0
LINE
  5
19285
330
747D
100
AcDbEntity
  8
部品1
100
AcDbLine
 10
10962.20367690514
 20
9688.086285259096
 30
0.0
 11
10962.20367690511
 21
7534.08628525905
 31
0.0
  0
DIMENSION
  5
19286
330
747D
100
AcDbEntity
  8
寸法
100
AcDbDimension
  2
*D27
 10
11637.63002263955
 20
7561.086285259084
 30
0.0
 11
11637.63002263955
 21
8611.086285259091
 31
0.0
 70
   160
  1
5X420=<>
 71
     5
 42
2100.000000000014
  3
INABA_S40G
100
AcDbAlignedDimension
 13
10990.20367690514
 23
9661.086285259099
 33
0.0
 14
10990.20367690511
 24
7561.086285259084
 34
0.0
 50
90.0
100
AcDbRotatedDimension
1001
ACAD
1000
DSTYLE
1002
{
1002
}
  0
LINE
  5
19287
330
747D
100
AcDbEntity
  8
部品1
100
AcDbLine
 10
10990.20367690514
 20
9716.086285259095
 30
0.0
 11
10990.20367690511
 21
7506.086285259087
 31
0.0
  0
LINE
  5
19288
330
747D
100
AcDbEntity
  8
部品1
 48
50.0
100
AcDbLine
 10
10933.7036769051
 20
7562.586285259015
 30
0.0
 11
10962.2036769051
 21
7534.086285259018
 31
0.0
  0
LINE
  5
19289
330
747D
100
AcDbEntity
  8
部品1
100
AcDbLine
 10
10961.70367690514
 20
9686.086285259094
 30
0.0
 11
10961.70367690514
 21
9236.086285259098
 31
0.0
  0
LINE
  5
1928A
330
747D
100
AcDbEntity
  8
部品1
100
AcDbLine
 10
10962.20367690514
 20
9241.086285259099
 30
0.0
 11
10990.20367690514
 21
9241.086285259099
 31
0.0
  0
LINE
  5
1928B
330
747D
100
AcDbEntity
  8
部品1
100
AcDbLine
 10
10962.20367690514
 20
9661.086285259099
 30
0.0
 11
10990.20367690514
 21
9661.086285259099
 31
0.0
  0
LINE
  5
1928C
330
747D
100
AcDbEntity
  8
部品1
100
AcDbLine
 10
10935.20367690514
 20
9716.086285259116
 30
0.0
 11
10935.20367690514
 21
9688.086285259117
 31
0.0
  0
LINE
  5
1928D
330
747D
100
AcDbEntity
  8
部品1
100
AcDbLine
 10
10935.20367690514
 20
9716.086285259095
 30
0.0
 11
10935.20367690514
 21
9688.086285259096
 31
0.0
  0
LINE
  5
1928E
330
747D
100
AcDbEntity
  8
部品1
100
AcDbLine
 10
9675.203676905141
 20
9716.086285259001
 30
0.0
 11
9675.203676905141
 21
9688.086285259
 31
0.0
  0
LINE
  5
1928F
330
747D
100
AcDbEntity
  8
部品1
100
AcDbLine
 10
9675.203676905141
 20
9716.086285259001
 30
0.0
 11
9675.203676905141
 21
9688.086285259
 31
0.0
  0
LINE
  5
19290
330
747D
100
AcDbEntity
  8
部品1
100
AcDbLine
 10
9675.203676905141
 20
9716.086285259116
 30
0.0
 11
9675.203676905141
 21
9688.086285259117
 31
0.0
  0
LINE
  5
19291
330
747D
100
AcDbEntity
  8
部品1
 48
50.0
100
AcDbLine
 10
10933.70367690512
 20
8821.086285259097
 30
0.0
 11
8836.703676905125
 21
8821.086285259186
 31
0.0
  0
LINE
  5
19292
330
747D
100
AcDbEntity
  8
部品1
100
AcDbLine
 10
8808.203676905121
 20
8821.086285258971
 30
0.0
 11
8780.20367690512
 21
8821.086285258971
 31
0.0
  0
LINE
  5
19293
330
747D
100
AcDbEntity
  8
部品1
100
AcDbLine
 10
10962.20367690514
 20
8821.086285259097
 30
0.0
 11
10990.20367690514
 21
8821.086285259097
 31
0.0
  0
LINE
  5
19294
330
747D
100
AcDbEntity
  8
部品1
100
AcDbLine
 10
10962.20367690514
 20
7561.086285259098
 30
0.0
 11
10990.20367690514
 21
7561.086285259098
 31
0.0
  0
LINE
  5
19295
330
747D
100
AcDbEntity
  8
部品1
100
AcDbLine
 10
8808.203676905121
 20
7561.08628525897
 30
0.0
 11
8780.20367690512
 21
7561.08628525897
 31
0.0
  0
LINE
  5
19296
330
747D
100
AcDbEntity
  8
部品1
100
AcDbLine
 10
8835.203676905079
 20
7534.086285258901
 30
0.0
 11
8835.203676905083
 21
7506.086285258901
 31
0.0
  0
LINE
  5
19297
330
747D
100
AcDbEntity
  8
部品1
100
AcDbLine
 10
8835.203676905114
 20
7534.086285258934
 30
0.0
 11
8835.203676905114
 21
7506.086285258935
 31
0.0
  0
LINE
  5
19298
330
747D
100
AcDbEntity
  8
部品1
100
AcDbLine
 10
10935.20367690511
 20
7534.086285259029
 30
0.0
 11
10935.20367690511
 21
7506.086285259029
 31
0.0
  0
LINE
  5
19299
330
747D
100
AcDbEntity
  8
部品1
100
AcDbLine
 10
10935.20367690511
 20
7534.08628525905
 30
0.0
 11
10935.20367690511
 21
7506.08628525905
 31
0.0
  0
LINE
  5
1929A
330
747D
100
AcDbEntity
  8
部品1
 48
50.0
100
AcDbLine
 10
8780.203676905134
 20
7506.086285258923
 30
0.0
 11
8835.203676905114
 21
7506.086285258927
 31
0.0
  0
LINE
  5
1929B
330
747D
100
AcDbEntity
  8
部品1
 48
50.0
100
AcDbLine
 10
10962.20367690511
 20
7534.08628525905
 30
0.0
 11
8808.203676905115
 21
7534.086285259018
 31
0.0
  0
LINE
  5
1929C
330
747D
100
AcDbEntity
  8
部品1
 48
50.0
100
AcDbLine
 10
10935.20367690511
 20
7506.086285259081
 30
0.0
 11
10990.20367690511
 21
7506.086285259087
 31
0.0
  0
DIMENSION
  5
1929D
330
747D
100
AcDbEntity
  8
寸法
 48
50.0
100
AcDbDimension
  2
*D28
 10
8486.97887043412
 20
2062.843172426287
 30
0.0
 11
8486.97887043412
 21
3075.343172426288
 31
0.0
 70
   160
  1
有効開口部高サ<>
 71
     5
 42
2025.000000000001
  3
INABA_S40G
100
AcDbAlignedDimension
 13
8808.203676905135
 23
4087.843172426288
 33
0.0
 14
8808.203676905135
 24
2062.843172426287
 34
0.0
 50
90.0
100
AcDbRotatedDimension
  0
LINE
  5
1929E
330
747D
100
AcDbEntity
  8
部品1
 48
50.0
100
AcDbLine
 10
8835.203676905134
 20
4139.843172426288
 30
0.0
 11
8835.203676905134
 21
4144.843172426288
 31
0.0
  0
LINE
  5
1929F
330
747D
100
AcDbEntity
  8
部品1
 48
50.0
100
AcDbLine
 10
10935.20367690513
 20
4139.843172426288
 30
0.0
 11
10935.20367690513
 21
4144.843172426288
 31
0.0
  0
LINE
  5
192A0
330
747D
100
AcDbEntity
  8
部品1
100
AcDbLine
 10
10962.20367690513
 20
2054.843172426308
 30
0.0
 11
10990.20367690513
 21
2054.843172426308
 31
0.0
  0
LINE
  5
192A5
330
747D
100
AcDbEntity
  8
部品1
100
AcDbLine
 10
9503.468343790911
 20
1215.804909448881
 30
0.0
 11
9503.468343790911
 21
975.912587903349
 31
0.0
  0
LINE
  5
192A6
330
747D
100
AcDbEntity
  8
部品1
100
AcDbLine
 10
9503.468343790911
 20
975.912587903349
 30
0.0
 11
10266.93901001935
 21
975.912587903349
 31
0.0
  0
LINE
  5
192A7
330
747D
100
AcDbEntity
  8
部品1
100
AcDbLine
 10
10266.93901001935
 20
975.912587903349
 30
0.0
 11
10266.93901001935
 21
1215.804909448881
 31
0.0
  0
LINE
  5
192A8
330
747D
100
AcDbEntity
  8
部品1
100
AcDbLine
 10
10266.93901001935
 20
1215.804909448881
 30
0.0
 11
9503.468343790911
 21
1215.804909448881
 31
0.0
  0
TEXT
  5
192A9
330
747D
100
AcDbEntity
  8
文字
 62
     7
 48
50.0
100
AcDbText
 10
14491.96323844892
 20
483.8967129911416
 30
0.0
 40
160.0
  1
ＮＸＮ－４８ＨＢ
  7
STYLE2
100
AcDbText
  0
LINE
  5
19377
330
747D
100
AcDbEntity
  8
部品1
 48
50.0
100
AcDbLine
 10
10962.20367690513
 20
4139.843172426288
 30
0.0
 11
8808.203676905135
 21
4139.843172426288
 31
0.0
  0
LINE
  5
19378
330
747D
100
AcDbEntity
  8
細線
 48
50.0
100
AcDbLine
 10
10962.20367690513
 20
4129.843172426288
 30
0.0
 11
8808.203676905135
 21
4129.843172426288
 31
0.0
  0
LINE
  5
19379
330
747D
100
AcDbEntity
  8
細線
 48
50.0
100
AcDbLine
 10
10932.20367690513
 20
4087.843172426288
 30
0.0
 11
8838.203676905134
 21
4087.843172426288
 31
0.0
  0
LINE
  5
1937A
330
747D
100
AcDbEntity
  8
細線
 48
50.0
100
AcDbLine
 10
10932.20367690513
 20
4097.343172426287
 30
0.0
 11
8838.203676905134
 21
4097.343172426287
 31
0.0
  0
LINE
  5
1937B
330
747D
100
AcDbEntity
  8
部品1
 48
50.0
100
AcDbLine
 10
8808.203676905135
 20
2004.843172426288
 30
0.0
 11
10962.20367690513
 21
2004.843172426288
 31
0.0
  0
LINE
  5
1937C
330
747D
100
AcDbEntity
  8
細線
 48
50.0
100
AcDbLine
 10
8838.203676905134
 20
2047.843172426288
 30
0.0
 11
10932.20367690513
 21
2047.843172426288
 31
0.0
  0
LINE
  5
1937D
330
747D
100
AcDbEntity
  8
細線
 48
50.0
100
AcDbLine
 10
8838.203676905134
 20
2051.843172426288
 30
0.0
 11
10932.20367690513
 21
2051.843172426288
 31
0.0
  0
LINE
  5
1937E
330
747D
100
AcDbEntity
  8
細線
 48
50.0
100
AcDbLine
 10
9642.203676905131
 20
2062.343172426288
 30
0.0
 11
10906.20367690513
 21
2062.343172426288
 31
0.0
  0
LINE
  5
1937F
330
747D
100
AcDbEntity
  8
部品1
 48
50.0
100
AcDbLine
 10
8838.203676905134
 20
2054.843172426288
 30
0.0
 11
8838.203676905134
 21
4087.843172426288
 31
0.0
  0
LINE
  5
19380
330
747D
100
AcDbEntity
  8
細線
 48
50.0
100
AcDbLine
 10
8838.203676905134
 20
4097.343172426287
 30
0.0
 11
8838.203676905134
 21
2004.843172426288
 31
0.0
  0
LINE
  5
19381
330
747D
100
AcDbEntity
  8
部品1
 48
50.0
100
AcDbLine
 10
8808.203676905135
 20
4139.843172426288
 30
0.0
 11
8808.203676905135
 21
2004.843172426288
 31
0.0
  0
LINE
  5
19382
330
747D
100
AcDbEntity
  8
部品1
 48
50.0
100
AcDbLine
 10
9642.203676905131
 20
4087.843172451055
 30
0.0
 11
9642.203676905131
 21
2054.843172451056
 31
0.0
  0
LINE
  5
19383
330
747D
100
AcDbEntity
  8
部品1
 48
50.0
100
AcDbLine
 10
8838.203676905134
 20
2054.843172426288
 30
0.0
 11
9642.203676905131
 21
2054.843172426285
 31
0.0
  0
LINE
  5
19384
330
747D
100
AcDbEntity
  8
部品1
 48
50.0
100
AcDbLine
 10
8847.203676905134
 20
2054.843172426288
 30
0.0
 11
8847.203676905134
 21
2051.843172426288
 31
0.0
  0
LINE
  5
19385
330
747D
100
AcDbEntity
  8
部品1
 48
50.0
100
AcDbLine
 10
8838.203676905134
 20
4095.843172426287
 30
0.0
 11
8808.203676905135
 21
4095.843172426287
 31
0.0
  0
LINE
  5
19386
330
747D
100
AcDbEntity
  8
部品1
 48
50.0
100
AcDbLine
 10
10923.20367690513
 20
2051.843172426288
 30
0.0
 11
10923.20367690513
 21
4087.843172426288
 31
0.0
  0
LINE
  5
19387
330
747D
100
AcDbEntity
  8
細線
 48
50.0
100
AcDbLine
 10
10932.20367690513
 20
2004.843172426288
 30
0.0
 11
10932.20367690513
 21
4097.343172426287
 31
0.0
  0
LINE
  5
19388
330
747D
100
AcDbEntity
  8
部品1
 48
50.0
100
AcDbLine
 10
10962.20367690513
 20
2004.843172426288
 30
0.0
 11
10962.20367690513
 21
4139.843172426288
 31
0.0
  0
LINE
  5
19389
330
747D
100
AcDbEntity
  8
部品1
 48
50.0
100
AcDbLine
 10
10296.20366720999
 20
4087.843172463435
 30
0.0
 11
10296.20366720999
 21
2062.343172463436
 31
0.0
  0
LINE
  5
1938A
330
747D
100
AcDbEntity
  8
細線
 48
50.0
100
AcDbLine
 10
10910.20367690513
 20
2051.843172426288
 30
0.0
 11
10906.20367690513
 21
2062.343172426288
 31
0.0
  0
LINE
  5
1938B
330
747D
100
AcDbEntity
  8
部品1
 48
50.0
100
AcDbLine
 10
10962.20367690513
 20
4095.843172426287
 30
0.0
 11
10932.20367690513
 21
4095.843172426287
 31
0.0
  0
LINE
  5
1938C
330
747D
100
AcDbEntity
  8
細線
100
AcDbLine
 10
10418.95367690514
 20
4087.843172426288
 30
0.0
 11
10418.95367690514
 21
2062.343172426306
 31
0.0
  0
LINE
  5
1938D
330
747D
100
AcDbEntity
  8
細線
100
AcDbLine
 10
9703.703686655376
 20
4087.843172426288
 30
0.0
 11
9703.703686655376
 21
2062.343172426299
 31
0.0
  0
LINE
  5
1938E
330
747D
100
AcDbEntity
  8
細線
100
AcDbLine
 10
9773.703686655375
 20
4087.843172426288
 30
0.0
 11
9773.703686655375
 21
2062.343172426299
 31
0.0
  0
LINE
  5
1938F
330
747D
100
AcDbEntity
  8
細線
100
AcDbLine
 10
9052.203676905135
 20
4087.843172426288
 30
0.0
 11
9052.203676905129
 21
2054.843172426292
 31
0.0
  0
LINE
  5
19390
330
747D
100
AcDbEntity
  8
細線
100
AcDbLine
 10
9122.203676905135
 20
4087.843172426288
 30
0.0
 11
9122.20367690513
 21
2054.843172426292
 31
0.0
  0
LINE
  5
19391
330
747D
100
AcDbEntity
  8
細線
100
AcDbLine
 10
10488.95367690513
 20
4087.843172426288
 30
0.0
 11
10488.95367690513
 21
2062.343172426306
 31
0.0
  0
LINE
  5
19392
330
747D
100
AcDbEntity
  8
細線
100
AcDbLine
 10
10558.95367690514
 20
4087.843172426288
 30
0.0
 11
10558.95367690514
 21
2062.343172426306
 31
0.0
  0
LINE
  5
19393
330
747D
100
AcDbEntity
  8
細線
100
AcDbLine
 10
10628.95367690513
 20
4087.843172426288
 30
0.0
 11
10628.95367690513
 21
2062.343172426306
 31
0.0
  0
LINE
  5
19394
330
747D
100
AcDbEntity
  8
細線
100
AcDbLine
 10
10698.95367690514
 20
4087.843172426288
 30
0.0
 11
10698.95367690514
 21
2062.343172426306
 31
0.0
  0
LINE
  5
19395
330
747D
100
AcDbEntity
  8
細線
100
AcDbLine
 10
10768.95367690513
 20
4087.843172426288
 30
0.0
 11
10768.95367690513
 21
2062.343172426306
 31
0.0
  0
LINE
  5
19396
330
747D
100
AcDbEntity
  8
細線
100
AcDbLine
 10
9843.703686655375
 20
4087.843172426288
 30
0.0
 11
9843.703686655375
 21
2062.343172426299
 31
0.0
  0
LINE
  5
19397
330
747D
100
AcDbEntity
  8
細線
100
AcDbLine
 10
9913.703686655376
 20
4087.843172426288
 30
0.0
 11
9913.703686655376
 21
2062.343172426299
 31
0.0
  0
LINE
  5
19398
330
747D
100
AcDbEntity
  8
細線
100
AcDbLine
 10
9983.703686655376
 20
4087.843172426288
 30
0.0
 11
9983.703686655376
 21
2062.343172426299
 31
0.0
  0
LINE
  5
19399
330
747D
100
AcDbEntity
  8
細線
100
AcDbLine
 10
10053.70368665537
 20
4087.843172426288
 30
0.0
 11
10053.70368665537
 21
2062.343172426299
 31
0.0
  0
LINE
  5
1939A
330
747D
100
AcDbEntity
  8
細線
100
AcDbLine
 10
10123.70368665537
 20
4087.843172426288
 30
0.0
 11
10123.70368665537
 21
2062.343172426299
 31
0.0
  0
LINE
  5
1939B
330
747D
100
AcDbEntity
  8
細線
100
AcDbLine
 10
10193.70368665537
 20
4087.843172426288
 30
0.0
 11
10193.70368665537
 21
2062.343172426299
 31
0.0
  0
LINE
  5
1939C
330
747D
100
AcDbEntity
  8
細線
100
AcDbLine
 10
8966.203676905129
 20
4087.843172426288
 30
0.0
 11
8966.203676905134
 21
2054.843172426292
 31
0.0
  0
LINE
  5
1939D
330
747D
100
AcDbEntity
  8
細線
100
AcDbLine
 10
9000.20367690513
 20
4087.843172426288
 30
0.0
 11
9000.203676905135
 21
2054.843172426292
 31
0.0
  0
LINE
  5
1939E
330
747D
100
AcDbEntity
  8
部品1
100
AcDbLine
 10
8958.20367690513
 20
4087.843172426288
 30
0.0
 11
8958.203676905133
 21
2054.843172426292
 31
0.0
  0
LINE
  5
1939F
330
747D
100
AcDbEntity
  8
部品1
100
AcDbLine
 10
9008.203676905131
 20
4087.843172426288
 30
0.0
 11
9008.203676905134
 21
2054.843172426292
 31
0.0
  0
LINE
  5
193A0
330
747D
100
AcDbEntity
  8
細線
100
AcDbLine
 10
9192.203676905135
 20
4087.843172426288
 30
0.0
 11
9192.20367690513
 21
2054.843172426292
 31
0.0
  0
LINE
  5
193A1
330
747D
100
AcDbEntity
  8
細線
100
AcDbLine
 10
9262.203676905134
 20
4087.843172426288
 30
0.0
 11
9262.20367690513
 21
2054.843172426292
 31
0.0
  0
LINE
  5
193A2
330
747D
100
AcDbEntity
  8
細線
100
AcDbLine
 10
9332.203676905134
 20
4087.843172426288
 30
0.0
 11
9332.20367690513
 21
2054.843172426292
 31
0.0
  0
LINE
  5
193A3
330
747D
100
AcDbEntity
  8
細線
100
AcDbLine
 10
9402.203676905134
 20
4087.843172426288
 30
0.0
 11
9402.203676905129
 21
2054.843172426292
 31
0.0
  0
LINE
  5
193A4
330
747D
100
AcDbEntity
  8
細線
100
AcDbLine
 10
9472.203676905134
 20
4087.843172426288
 30
0.0
 11
9472.203676905129
 21
2054.843172426295
 31
0.0
  0
LINE
  5
193A5
330
747D
100
AcDbEntity
  8
細線
100
AcDbLine
 10
9542.203676905135
 20
4087.843172426288
 30
0.0
 11
9542.203676905129
 21
2054.843172426295
 31
0.0
  0
LINE
  5
193A6
330
747D
100
AcDbEntity
  8
部品1
100
AcDbLine
 10
10296.20366720999
 20
4087.843172463439
 30
0.0
 11
10296.20366720999
 21
2062.343172463454
 31
0.0
  0
LINE
  5
193A7
330
747D
100
AcDbEntity
  8
部品1
 48
50.0
100
AcDbLine
 10
9642.203676905131
 20
4087.843172451055
 30
0.0
 11
9642.203676905131
 21
2054.843172426285
 31
0.0
  0
MTEXT
  5
193A8
330
747D
100
AcDbEntity
  8
寸法
 62
     7
 48
50.0
100
AcDbMText
 10
10550.30621399827
 20
9302.321103456405
 30
0.0
 40
96.0
 41
0.0
 71
     5
 72
     1
  1
棚 3段
  7
STYLE1
 73
     1
 44
1.0
1001
ACAD
1000
MTEXTBEGIN
1070
    73
1070
     1
1070
    44
1040
1.0
1070
    74
1070
     0
1000
MTEXTEND
  0
LINE
  5
193AB
330
747D
100
AcDbEntity
  8
破線
 48
10.0
100
AcDbLine
 10
9564.703676905155
 20
7562.586285258952
 30
0.0
 11
9564.703676905159
 21
9236.086285259052
 31
0.0
  0
LINE
  5
193AC
330
747D
100
AcDbEntity
  8
破線
 48
10.0
100
AcDbLine
 10
9514.70367690516
 20
7562.586285258951
 30
0.0
 11
9514.703676905154
 21
9236.086285259046
 31
0.0
  0
LINE
  5
193AD
330
747D
100
AcDbEntity
  8
破線
 48
10.0
100
AcDbLine
 10
10205.70367690516
 20
7562.586285258984
 30
0.0
 11
10205.70367690516
 21
9236.086285259117
 31
0.0
  0
LINE
  5
193AE
330
747D
100
AcDbEntity
  8
破線
 48
10.0
100
AcDbLine
 10
10255.70367690515
 20
7562.586285258986
 30
0.0
 11
10255.70367690516
 21
9236.086285259112
 31
0.0
  0
LINE
  5
193AF
330
747D
100
AcDbEntity
  8
破線
 48
10.0
100
AcDbLine
 10
9514.70367690516
 20
7586.086285258954
 30
0.0
 11
8860.203676905113
 21
7586.086285258919
 31
0.0
  0
LINE
  5
193B0
330
747D
100
AcDbEntity
  8
部品1
 48
50.0
100
AcDbLine
 10
9639.203676905125
 20
2004.843172426288
 30
0.0
 11
9639.203676905125
 21
1904.843172426288
 31
0.0
  0
LINE
  5
193B1
330
747D
100
AcDbEntity
  8
部品1
 48
50.0
100
AcDbLine
 10
9439.203676905124
 20
2004.843172426288
 30
0.0
 11
9439.203676905124
 21
1904.843172426288
 31
0.0
  0
LINE
  5
193B2
330
747D
100
AcDbEntity
  8
部品1
 48
50.0
100
AcDbLine
 10
10331.20367690512
 20
2004.843172426288
 30
0.0
 11
10331.20367690512
 21
1904.843172426288
 31
0.0
  0
LINE
  5
193B3
330
747D
100
AcDbEntity
  8
部品1
 48
50.0
100
AcDbLine
 10
10131.20367690512
 20
2004.843172426288
 30
0.0
 11
10131.20367690512
 21
1904.843172426288
 31
0.0
  0
LINE
  5
193B4
330
747D
100
AcDbEntity
  8
部品1
100
AcDbLine
 10
10962.20367690514
 20
7981.086285259099
 30
0.0
 11
10990.20367690514
 21
7981.086285259099
 31
0.0
  0
LINE
  5
193B5
330
747D
100
AcDbEntity
  8
部品1
100
AcDbLine
 10
8808.203676905121
 20
7981.086285258971
 30
0.0
 11
8780.20367690512
 21
7981.086285258971
 31
0.0
  0
LINE
  5
193B6
330
747D
100
AcDbEntity
  8
部品1
 48
50.0
100
AcDbLine
 10
10933.70367690512
 20
7981.086285259099
 30
0.0
 11
8836.703676905125
 21
7981.086285259185
 31
0.0
  0
LINE
  5
19678
330
747D
100
AcDbEntity
  8
補助
  6
PHANTOM
 62
   230
 48
50.0
100
AcDbLine
 10
140.0
 20
0.0
 30
0.0
 11
139.9999999999995
 21
11409.6
 31
0.0
  0
LINE
  5
199B4
330
747D
100
AcDbEntity
  8
部品1
 48
50.0
100
AcDbLine
 10
8882.203676905133
 20
3136.34317242629
 30
0.0
 11
8935.203676905134
 21
3136.34317242629
 31
0.0
  0
MTEXT
  5
199B9
330
747D
100
AcDbEntity
  8
寸法
 62
     7
 48
50.0
100
AcDbMText
 10
9460.306213998279
 20
9302.321103456357
 30
0.0
 40
96.0
 41
0.0
 71
     5
 72
     1
  1
棚 3段
  7
STYLE1
 73
     1
 44
1.0
1001
ACAD
1000
MTEXTBEGIN
1070
    73
1070
     1
1070
    44
1040
1.0
1070
    74
1070
     0
1000
MTEXTEND
  0
LINE
  5
19BCD
330
747D
100
AcDbEntity
  8
寸法
 48
50.0
100
AcDbLine
 10
9270.406683186928
 20
7284.123036827764
 30
0.0
 11
9219.000675276824
 21
7284.123036827764
 31
0.0
  0
LINE
  5
19BCE
330
747D
100
AcDbEntity
  8
寸法
 48
50.0
100
AcDbLine
 10
9219.000675276824
 20
7284.123036827764
 30
0.0
 11
9219.000675276824
 21
7315.43319547993
 31
0.0
  0
LINE
  5
19BCF
330
747D
100
AcDbEntity
  8
寸法
 48
50.0
100
AcDbLine
 10
9219.000675276824
 20
7315.43319547993
 30
0.0
 11
9189.2393432854
 21
7315.43319547993
 31
0.0
  0
LINE
  5
19BD0
330
747D
100
AcDbEntity
  8
寸法
 48
50.0
100
AcDbLine
 10
9189.2393432854
 20
7315.43319547993
 30
0.0
 11
9244.703679231875
 21
7353.012646408541
 31
0.0
  0
LINE
  5
19BD1
330
747D
100
AcDbEntity
  8
寸法
 48
50.0
100
AcDbLine
 10
9300.168015178352
 20
7315.43319547993
 30
0.0
 11
9244.703679231875
 21
7353.012646408541
 31
0.0
  0
LINE
  5
19BD2
330
747D
100
AcDbEntity
  8
寸法
 48
50.0
100
AcDbLine
 10
9270.406683186928
 20
7315.43319547993
 30
0.0
 11
9300.168015178352
 21
7315.43319547993
 31
0.0
  0
LINE
  5
19BD3
330
747D
100
AcDbEntity
  8
寸法
 48
50.0
100
AcDbLine
 10
9270.406683186928
 20
7284.123036827764
 30
0.0
 11
9270.406683186928
 21
7315.43319547993
 31
0.0
  0
LINE
  5
19BD4
330
747D
100
AcDbEntity
  8
寸法
 48
50.0
100
AcDbLine
 10
9219.000675276824
 20
7284.123036827764
 30
0.0
 11
9270.406683186928
 21
7284.123036827764
 31
0.0
  0
LINE
  5
19BD5
330
747D
100
AcDbEntity
  8
寸法
 48
50.0
100
AcDbLine
 10
9549.572217463785
 20
7341.268627582588
 30
0.0
 11
9549.572217463785
 21
7287.604993000798
 31
0.0
  0
LINE
  5
19BD6
330
747D
100
AcDbEntity
  8
寸法
 48
50.0
100
AcDbLine
 10
9638.856436059207
 20
7317.344993313101
 30
0.0
 11
9549.572217463785
 21
7341.268627582588
 31
0.0
  0
LINE
  5
19BD7
330
747D
100
AcDbEntity
  8
寸法
 48
50.0
100
AcDbLine
 10
9419.704495883481
 20
7317.344993313101
 30
0.0
 11
9638.856436059207
 21
7317.344993313101
 31
0.0
  0
LINE
  5
19BD8
330
747D
100
AcDbEntity
  8
細線
 48
50.0
100
AcDbLine
 10
10296.20367690508
 20
7482.586400207627
 30
0.0
 11
10923.20367690508
 21
7482.586400207627
 31
0.0
  0
LINE
  5
19BD9
330
747D
100
AcDbEntity
  8
細線
 48
50.0
100
AcDbLine
 10
9642.203681558672
 20
7448.877631653552
 30
0.0
 11
10923.20367690508
 21
7448.877631653552
 31
0.0
  0
LINE
  5
19BDA
330
747D
100
AcDbEntity
  8
細線
 48
50.0
100
AcDbLine
 10
9601.203681558677
 20
7478.282539649805
 30
0.0
 11
8847.203676905083
 21
7478.282539649801
 31
0.0
  0
LINE
  5
19BDB
330
747D
100
AcDbEntity
  8
細線
100
AcDbLine
 10
10698.95366748862
 20
7502.086300172635
 30
0.0
 11
10701.28520701043
 21
7507.086302812597
 31
0.0
  0
LINE
  5
19BDC
330
747D
100
AcDbEntity
  8
細線
100
AcDbLine
 10
10768.95367690508
 20
7502.086285258902
 30
0.0
 11
10766.62213042889
 21
7507.086302812583
 31
0.0
  0
LINE
  5
19BDD
330
747D
100
AcDbEntity
  8
細線
100
AcDbLine
 10
10766.62213042889
 20
7507.086302812583
 30
0.0
 11
10701.28520701042
 21
7507.086302812568
 31
0.0
  0
LINE
  5
19BDE
330
747D
100
AcDbEntity
  8
細線
100
AcDbLine
 10
10626.62213042889
 20
7507.086302812583
 30
0.0
 11
10561.28520701042
 21
7507.086302812568
 31
0.0
  0
LINE
  5
19BDF
330
747D
100
AcDbEntity
  8
細線
100
AcDbLine
 10
10628.95367690508
 20
7502.086285258902
 30
0.0
 11
10626.62213042889
 21
7507.086302812583
 31
0.0
  0
LINE
  5
19BE0
330
747D
100
AcDbEntity
  8
細線
100
AcDbLine
 10
10558.95366748862
 20
7502.086300172635
 30
0.0
 11
10561.28520701043
 21
7507.086302812597
 31
0.0
  0
LINE
  5
19BE1
330
747D
100
AcDbEntity
  8
細線
100
AcDbLine
 10
10418.95367690508
 20
7502.086285258902
 30
0.0
 11
10421.28521642689
 21
7507.086287898864
 31
0.0
  0
LINE
  5
19BE2
330
747D
100
AcDbEntity
  8
細線
100
AcDbLine
 10
10488.95368632154
 20
7502.086270345168
 30
0.0
 11
10486.62213984535
 21
7507.086287898848
 31
0.0
  0
LINE
  5
19BE3
330
747D
100
AcDbEntity
  8
細線
100
AcDbLine
 10
10486.62213984535
 20
7507.086287898848
 30
0.0
 11
10421.28521642688
 21
7507.086287898833
 31
0.0
  0
LINE
  5
19BE4
330
747D
100
AcDbEntity
  8
細線
100
AcDbLine
 10
10191.37216109419
 20
7473.08632459623
 30
0.0
 11
10126.03523767571
 21
7473.086324596216
 31
0.0
  0
LINE
  5
19BE5
330
747D
100
AcDbEntity
  8
細線
100
AcDbLine
 10
10193.70370757038
 20
7468.08630704255
 30
0.0
 11
10191.37216109419
 21
7473.08632459623
 31
0.0
  0
LINE
  5
19BE6
330
747D
100
AcDbEntity
  8
細線
100
AcDbLine
 10
10123.70369815392
 20
7468.086321956284
 30
0.0
 11
10126.03523767573
 21
7473.086324596245
 31
0.0
  0
LINE
  5
19BE7
330
747D
100
AcDbEntity
  8
細線
 48
50.0
100
AcDbLine
 10
9965.087056153098
 20
7486.357148411982
 30
0.0
 11
9970.842573735765
 21
7468.086297121496
 31
0.0
  0
LINE
  5
19BE8
330
747D
100
AcDbEntity
  8
細線
 48
50.0
100
AcDbLine
 10
9954.158607672667
 20
7486.357148411982
 30
0.0
 11
9965.087056153098
 21
7486.357148411982
 31
0.0
  0
ARC
  5
19BE9
330
747D
100
AcDbEntity
  8
細線
 48
50.0
100
AcDbCircle
 10
9948.704251615346
 20
7487.857148411982
 30
0.0
 40
5.0
100
AcDbArc
 50
204.6243183521304
 51
335.3756816478695
  0
ARC
  5
19BEA
330
747D
100
AcDbEntity
  8
細線
 48
50.0
100
AcDbCircle
 10
9954.158607672667
 20
7485.357148411982
 30
0.0
 40
1.0
100
AcDbArc
 50
90.0
 51
155.3756816478695
  0
ARC
  5
19BEB
330
747D
100
AcDbEntity
  8
細線
 48
50.0
100
AcDbCircle
 10
9943.249895558031
 20
7485.357148411982
 30
0.0
 40
1.0
100
AcDbArc
 50
24.62431835213048
 51
90.0
  0
LINE
  5
19BEC
330
747D
100
AcDbEntity
  8
細線
 48
50.0
100
AcDbLine
 10
9932.321447077598
 20
7486.357148411982
 30
0.0
 11
9943.249895558031
 21
7486.357148411982
 31
0.0
  0
LINE
  5
19BED
330
747D
100
AcDbEntity
  8
細線
 48
50.0
100
AcDbLine
 10
9926.565929494929
 20
7468.086297121487
 30
0.0
 11
9932.321447077598
 21
7486.357148411982
 31
0.0
  0
LINE
  5
19BEE
330
747D
100
AcDbEntity
  8
細線
100
AcDbLine
 10
9983.703699384962
 20
7468.086294487292
 30
0.0
 11
9986.035238906774
 21
7473.086297127254
 31
0.0
  0
LINE
  5
19BEF
330
747D
100
AcDbEntity
  8
細線
100
AcDbLine
 10
10053.70370880142
 20
7468.086279573559
 30
0.0
 11
10051.37216232523
 21
7473.086297127238
 31
0.0
  0
LINE
  5
19BF0
330
747D
100
AcDbEntity
  8
細線
100
AcDbLine
 10
10051.37216232523
 20
7473.086297127238
 30
0.0
 11
9986.03523890676
 21
7473.086297127224
 31
0.0
  0
LINE
  5
19BF1
330
747D
100
AcDbEntity
  8
細線
100
AcDbLine
 10
9911.372133960716
 20
7473.086297121459
 30
0.0
 11
9846.03521054224
 21
7473.086297121445
 31
0.0
  0
LINE
  5
19BF2
330
747D
100
AcDbEntity
  8
細線
100
AcDbLine
 10
9913.703680436903
 20
7468.086279567778
 30
0.0
 11
9911.372133960716
 21
7473.086297121459
 31
0.0
  0
LINE
  5
19BF3
330
747D
100
AcDbEntity
  8
細線
100
AcDbLine
 10
9843.703672251486
 20
7468.086297121487
 30
0.0
 11
9846.035210542254
 21
7473.086297121473
 31
0.0
  0
LINE
  5
19BF4
330
747D
100
AcDbEntity
  8
細線
100
AcDbLine
 10
9703.703707570378
 20
7468.086305308858
 30
0.0
 11
9706.035245861144
 21
7473.086305308844
 31
0.0
  0
LINE
  5
19BF5
330
747D
100
AcDbEntity
  8
細線
100
AcDbLine
 10
9773.703715755793
 20
7468.086287755148
 30
0.0
 11
9771.372169279608
 21
7473.086305308825
 31
0.0
  0
LINE
  5
19BF6
330
747D
100
AcDbEntity
  8
細線
100
AcDbLine
 10
9771.372169279608
 20
7473.086305308825
 30
0.0
 11
9706.03524586113
 21
7473.086305308815
 31
0.0
  0
LINE
  5
19BF7
330
747D
100
AcDbEntity
  8
細線
100
AcDbLine
 10
9332.203673373257
 20
7434.08647698957
 30
0.0
 11
9334.535211664023
 21
7439.086476989555
 31
0.0
  0
LINE
  5
19BF8
330
747D
100
AcDbEntity
  8
細線
100
AcDbLine
 10
9402.203681558672
 20
7434.086459435857
 30
0.0
 11
9399.872135082485
 21
7439.086476989534
 31
0.0
  0
LINE
  5
19BF9
330
747D
100
AcDbEntity
  8
細線
100
AcDbLine
 10
9399.872135082485
 20
7439.086476989534
 30
0.0
 11
9334.535211664013
 21
7439.086476989527
 31
0.0
  0
LINE
  5
19BFA
330
747D
100
AcDbEntity
  8
細線
100
AcDbLine
 10
9539.872135082486
 20
7439.086476989534
 30
0.0
 11
9474.535211664013
 21
7439.086476989527
 31
0.0
  0
LINE
  5
19BFB
330
747D
100
AcDbEntity
  8
細線
100
AcDbLine
 10
9542.203681558673
 20
7434.086459435857
 30
0.0
 11
9539.872135082486
 21
7439.086476989534
 31
0.0
  0
LINE
  5
19BFC
330
747D
100
AcDbEntity
  8
細線
100
AcDbLine
 10
9472.203673373256
 20
7434.08647698957
 30
0.0
 11
9474.535211664024
 21
7439.086476989555
 31
0.0
  0
LINE
  5
19BFD
330
747D
100
AcDbEntity
  8
細線
100
AcDbLine
 10
9259.872135082487
 20
7439.086476989534
 30
0.0
 11
9194.535211664014
 21
7439.086476989523
 31
0.0
  0
LINE
  5
19BFE
330
747D
100
AcDbEntity
  8
細線
100
AcDbLine
 10
9262.203681558672
 20
7434.086459435857
 30
0.0
 11
9259.872135082487
 21
7439.086476989534
 31
0.0
  0
LINE
  5
19BFF
330
747D
100
AcDbEntity
  8
細線
100
AcDbLine
 10
9192.203673373256
 20
7434.086476989567
 30
0.0
 11
9194.535211664025
 21
7439.086476989553
 31
0.0
  0
LINE
  5
19C00
330
747D
100
AcDbEntity
  8
細線
100
AcDbLine
 10
9052.203681558673
 20
7434.08647698957
 30
0.0
 11
9054.535219849439
 21
7439.086476989555
 31
0.0
  0
LINE
  5
19C01
330
747D
100
AcDbEntity
  8
細線
100
AcDbLine
 10
9122.203689744088
 20
7434.086459435857
 30
0.0
 11
9119.872143267901
 21
7439.086476989534
 31
0.0
  0
LINE
  5
19C02
330
747D
100
AcDbEntity
  8
細線
100
AcDbLine
 10
9119.872143267901
 20
7439.086476989534
 30
0.0
 11
9054.53521984943
 21
7439.086476989527
 31
0.0
  0
ARC
  5
19C03
330
747D
100
AcDbEntity
  8
部品1
 48
0.01
100
AcDbCircle
 10
9007.703570306338
 20
7433.085354804498
 30
0.0
 40
0.5
100
AcDbArc
 50
270.0
 51
0.0
  0
LINE
  5
19C04
330
747D
100
AcDbEntity
  8
部品1
 48
0.01
100
AcDbLine
 10
9008.203570306339
 20
7434.085354804498
 30
0.0
 11
9008.203570306339
 21
7433.085354804498
 31
0.0
  0
LINE
  5
19C05
330
747D
100
AcDbEntity
  8
部品1
 48
0.01
100
AcDbLine
 10
9008.203570306339
 20
7434.085354804498
 30
0.0
 11
9008.203570306339
 21
7433.085354804498
 31
0.0
  0
LINE
  5
19C06
330
747D
100
AcDbEntity
  8
部品1
 48
0.01
100
AcDbLine
 10
9007.703570306338
 20
7432.585354804498
 30
0.0
 11
9001.091064876273
 21
7432.585354804498
 31
0.0
  0
ARC
  5
19C07
330
747D
100
AcDbEntity
  8
部品1
100
AcDbCircle
 10
9001.159414429054
 20
7433.585354804498
 30
0.0
 40
1.0
100
AcDbArc
 50
160.5287793655778
 51
270.0
  0
ARC
  5
19C08
330
747D
100
AcDbEntity
  8
部品1
100
AcDbCircle
 10
8975.703570306338
 20
7442.585354804498
 30
0.0
 40
26.0
100
AcDbArc
 50
340.5287793655779
 51
0.0
  0
LINE
  5
19C09
330
747D
100
AcDbEntity
  8
部品1
100
AcDbLine
 10
9001.703570306338
 20
7442.585354804498
 30
0.0
 11
9001.703570306338
 21
7447.585354804498
 31
0.0
  0
ARC
  5
19C0A
330
747D
100
AcDbEntity
  8
部品1
 48
0.01
100
AcDbCircle
 10
8999.703570306337
 20
7447.585354804498
 30
0.0
 40
2.0
100
AcDbArc
 50
0.0
 51
90.0
  0
ARC
  5
19C0B
330
747D
100
AcDbEntity
  8
部品1
100
AcDbCircle
 10
8998.095178681529
 20
7446.585354804497
 30
0.0
 40
3.0
100
AcDbArc
 50
90.0
 51
141.6069559807873
  0
LINE
  5
19C0C
330
747D
100
AcDbEntity
  8
部品1
 48
0.01
100
AcDbLine
 10
8999.703570306337
 20
7449.585354804497
 30
0.0
 11
8998.095178681529
 21
7449.585354804497
 31
0.0
  0
ARC
  5
19C0D
330
747D
100
AcDbEntity
  8
部品1
100
AcDbCircle
 10
8979.632856092067
 20
7445.885354804501
 30
0.0
 40
3.0
100
AcDbArc
 50
254.0576313943215
 51
270.0
  0
ARC
  5
19C0E
330
747D
100
AcDbEntity
  8
部品1
100
AcDbCircle
 10
8986.774284520608
 20
7445.885354804501
 30
0.0
 40
3.0
100
AcDbArc
 50
270.0
 51
285.9423686056786
  0
LINE
  5
19C0F
330
747D
100
AcDbEntity
  8
部品1
100
AcDbLine
 10
8986.774284520608
 20
7442.885354804501
 30
0.0
 11
8979.632856092067
 21
7442.885354804501
 31
0.0
  0
ARC
  5
19C10
330
747D
100
AcDbEntity
  8
部品1
100
AcDbCircle
 10
8983.203570306338
 20
7458.385354804502
 30
0.0
 40
16.0
100
AcDbArc
 50
285.9423686056786
 51
321.6069559807873
  0
LINE
  5
19C11
330
747D
100
AcDbEntity
  8
部品1
 48
0.01
100
AcDbLine
 10
8966.703570306338
 20
7449.585354804497
 30
0.0
 11
8968.311961931147
 21
7449.585354804497
 31
0.0
  0
ARC
  5
19C12
330
747D
100
AcDbEntity
  8
部品1
100
AcDbCircle
 10
8968.311961931147
 20
7446.585354804497
 30
0.0
 40
3.0
100
AcDbArc
 50
38.39304401921267
 51
90.0
  0
ARC
  5
19C13
330
747D
100
AcDbEntity
  8
部品1
100
AcDbCircle
 10
8983.203570306338
 20
7458.385354804502
 30
0.0
 40
16.0
100
AcDbArc
 50
218.3930440192126
 51
254.0576313943215
  0
LINE
  5
19C14
330
747D
100
AcDbEntity
  8
部品1
100
AcDbLine
 10
8964.703570306339
 20
7442.585354804498
 30
0.0
 11
8964.703570306339
 21
7447.585354804498
 31
0.0
  0
ARC
  5
19C15
330
747D
100
AcDbEntity
  8
部品1
 48
0.01
100
AcDbCircle
 10
8966.703570306338
 20
7447.585354804498
 30
0.0
 40
2.0
100
AcDbArc
 50
90.0
 51
180.0
  0
ARC
  5
19C16
330
747D
100
AcDbEntity
  8
部品1
100
AcDbCircle
 10
8990.703570306337
 20
7442.585354804498
 30
0.0
 40
26.0
100
AcDbArc
 50
180.0
 51
199.4712206344221
  0
ARC
  5
19C17
330
747D
100
AcDbEntity
  8
部品1
 48
0.01
100
AcDbCircle
 10
8958.703570306338
 20
7433.085354804498
 30
0.0
 40
0.5
100
AcDbArc
 50
180.0
 51
270.0
  0
LINE
  5
19C18
330
747D
100
AcDbEntity
  8
部品1
 48
0.01
100
AcDbLine
 10
8958.703570306338
 20
7432.585354804498
 30
0.0
 11
8965.247726183621
 21
7432.585354804498
 31
0.0
  0
LINE
  5
19C19
330
747D
100
AcDbEntity
  8
部品1
 48
0.01
100
AcDbLine
 10
8958.203570306338
 20
7434.085354804498
 30
0.0
 11
8958.203570306338
 21
7433.085354804498
 31
0.0
  0
ARC
  5
19C1A
330
747D
100
AcDbEntity
  8
部品1
100
AcDbCircle
 10
8965.247726183621
 20
7433.585354804498
 30
0.0
 40
1.0
100
AcDbArc
 50
270.0
 51
19.47122063442214
  0
LINE
  5
19C1B
330
747D
100
AcDbEntity
  8
細線
100
AcDbLine
 10
9003.703570306345
 20
7452.085354804501
 30
0.0
 11
8962.703570306345
 21
7452.085354804494
 31
0.0
  0
LINE
  5
19C1C
330
747D
100
AcDbEntity
  8
細線
100
AcDbLine
 10
8962.703570306345
 20
7452.085354804494
 30
0.0
 11
8962.703570306345
 21
7434.085354804476
 31
0.0
  0
LINE
  5
19C1D
330
747D
100
AcDbEntity
  8
細線
100
AcDbLine
 10
9003.703570306345
 20
7452.085354804501
 30
0.0
 11
9003.703570306345
 21
7434.085354804476
 31
0.0
  0
LINE
  5
19C1E
330
747D
100
AcDbEntity
  8
細線
100
AcDbLine
 10
8847.203676905083
 20
7438.086285258902
 30
0.0
 11
8847.203676905083
 21
7434.086285258949
 31
0.0
  0
DIMENSION
  5
19C1F
330
747D
100
AcDbEntity
  8
寸法
 48
50.0
100
AcDbDimension
  2
*D30
 10
10113.20367690508
 20
6788.612355407225
 30
0.0
 11
9509.818622613311
 21
6788.612355407225
 31
0.0
 70
   160
  1
有効開口部間口\P<>
 71
     5
 42
1266.0
  3
INABA_S40
100
AcDbAlignedDimension
 13
8847.203676905083
 23
7429.086285258901
 33
0.0
 14
10113.20367690508
 24
7429.086285258901
 34
0.0
100
AcDbRotatedDimension
1001
ACAD
1000
DSTYLE
1002
{
1070
    41
1040
0.5
1070
    44
1040
1.0
1070
   147
1040
0.8
1070
   271
1070
     2
1070
   272
1070
     2
1070
   289
1070
     3
1070
   340
1005
F706
1070
   343
1005
18CE2
1070
   344
1005
18CE2
1002
}
  0
LINE
  5
19C20
330
747D
100
AcDbEntity
  8
部品1
100
AcDbLine
 10
10935.20367690508
 20
7506.086285258901
 30
0.0
 11
10962.20367690508
 21
7506.086285258901
 31
0.0
  0
LINE
  5
19C22
330
747D
100
AcDbEntity
  8
部品1
100
AcDbLine
 10
10962.20367690508
 20
7429.086285258901
 30
0.0
 11
10962.20367690508
 21
7506.086285258901
 31
0.0
  0
LINE
  5
19C23
330
747D
100
AcDbEntity
  8
部品1
100
AcDbLine
 10
10923.20367690508
 20
7502.086285258902
 30
0.0
 11
10935.20367690508
 21
7502.086285258902
 31
0.0
  0
LINE
  5
19C24
330
747D
100
AcDbEntity
  8
部品1
100
AcDbLine
 10
10932.20367690508
 20
7438.086285258902
 30
0.0
 11
10932.20367690508
 21
7429.086285258901
 31
0.0
  0
LINE
  5
19C25
330
747D
100
AcDbEntity
  8
部品1
100
AcDbLine
 10
10923.20367690508
 20
7438.086285258902
 30
0.0
 11
10932.20367690508
 21
7438.086285258902
 31
0.0
  0
LINE
  5
19C26
330
747D
100
AcDbEntity
  8
部品1
100
AcDbLine
 10
10923.20367690508
 20
7502.086285258902
 30
0.0
 11
10923.20367690508
 21
7438.086285258902
 31
0.0
  0
LINE
  5
19C27
330
747D
100
AcDbEntity
  8
部品1
100
AcDbLine
 10
10935.20367690508
 20
7533.086285258902
 30
0.0
 11
10935.20367690508
 21
7502.086285258902
 31
0.0
  0
LINE
  5
19C28
330
747D
100
AcDbEntity
  8
部品1
100
AcDbLine
 10
8847.203676905083
 20
7502.086285258902
 30
0.0
 11
8835.203676905083
 21
7502.086285258902
 31
0.0
  0
LINE
  5
19C29
330
747D
100
AcDbEntity
  8
部品1
100
AcDbLine
 10
8808.203676905083
 20
7506.086285258901
 30
0.0
 11
8835.203676905083
 21
7506.086285258901
 31
0.0
  0
LINE
  5
19C2A
330
747D
100
AcDbEntity
  8
部品1
100
AcDbLine
 10
8838.203676905083
 20
7438.086285258902
 30
0.0
 11
8838.203676905083
 21
7429.086285258901
 31
0.0
  0
LINE
  5
19C2B
330
747D
100
AcDbEntity
  8
部品1
100
AcDbLine
 10
8847.203676905083
 20
7438.086285258902
 30
0.0
 11
8838.203676905083
 21
7438.086285258902
 31
0.0
  0
LINE
  5
19C2C
330
747D
100
AcDbEntity
  8
部品1
100
AcDbLine
 10
8838.203676905083
 20
7429.086285258901
 30
0.0
 11
8808.203676905083
 21
7429.086285258901
 31
0.0
  0
LINE
  5
19C2D
330
747D
100
AcDbEntity
  8
部品1
100
AcDbLine
 10
8808.203676905083
 20
7429.086285258901
 30
0.0
 11
8808.203676905083
 21
7506.086285258901
 31
0.0
  0
LINE
  5
19C2E
330
747D
100
AcDbEntity
  8
部品1
100
AcDbLine
 10
8847.203676905083
 20
7502.086285258902
 30
0.0
 11
8847.203676905083
 21
7438.086285258902
 31
0.0
  0
LINE
  5
19C2F
330
747D
100
AcDbEntity
  8
部品1
100
AcDbLine
 10
8835.203676905083
 20
7533.086285258898
 30
0.0
 11
8835.203676905083
 21
7502.086285258902
 31
0.0
  0
LINE
  5
19C30
330
747D
100
AcDbEntity
  8
部品1
100
AcDbLine
 10
8835.203676905083
 20
7533.086285258898
 30
0.0
 11
10935.20367690508
 21
7533.086285258902
 31
0.0
  0
LINE
  5
19C31
330
747D
100
AcDbEntity
  8
部品1
100
AcDbLine
 10
10932.20367690508
 20
7429.086285258901
 30
0.0
 11
10962.20367690508
 21
7429.086285258901
 31
0.0
  0
LINE
  5
19C32
330
747D
100
AcDbEntity
  8
部品1
100
AcDbLine
 10
8838.203676905083
 20
7429.086285258901
 30
0.0
 11
10935.20367690508
 21
7429.086285258901
 31
0.0
  0
LINE
  5
19C33
330
747D
100
AcDbEntity
  8
細線
  6
Continuous
 62
     5
100
AcDbLine
 10
10214.20367690508
 20
7468.086285258898
 30
0.0
 11
10214.20367690508
 21
7468.086285258898
 31
0.0
  0
LINE
  5
19C34
330
747D
100
AcDbEntity
  8
細線
  6
Continuous
 62
     5
100
AcDbLine
 10
10206.70371222398
 20
7468.086295179955
 30
0.0
 11
10206.70371222398
 21
7468.086295179955
 31
0.0
  0
LINE
  5
19C35
330
747D
100
AcDbEntity
  8
細線
  6
Continuous
 62
     5
100
AcDbLine
 10
10200.70371222398
 20
7468.086295179955
 30
0.0
 11
10200.70371222398
 21
7468.086295179955
 31
0.0
  0
LINE
  5
19C36
330
747D
100
AcDbEntity
  8
細線
  6
Continuous
 62
     5
100
AcDbLine
 10
10268.20367690508
 20
7487.086285258898
 30
0.0
 11
10268.20367690508
 21
7487.086285258898
 31
0.0
  0
LINE
  5
19C37
330
747D
100
AcDbEntity
  8
細線
 48
50.0
100
AcDbLine
 10
8861.203681558675
 20
7454.686459435855
 30
0.0
 11
8861.203681558675
 21
7463.082609843495
 31
0.0
  0
LINE
  5
19C38
330
747D
100
AcDbEntity
  8
細線
 48
50.0
100
AcDbLine
 10
8861.203681558675
 20
7463.082609843495
 30
0.0
 11
8847.203676905083
 21
7463.082609843493
 31
0.0
  0
LINE
  5
19C39
330
747D
100
AcDbEntity
  8
細線
 48
50.0
100
AcDbLine
 10
9612.203681558673
 20
7451.236459435856
 30
0.0
 11
9612.203681558673
 21
7456.086459435858
 31
0.0
  0
LINE
  5
19C3A
330
747D
100
AcDbEntity
  8
細線
 48
50.0
100
AcDbLine
 10
9612.203681558673
 20
7456.086459435858
 30
0.0
 11
9627.203681558674
 21
7456.086459435858
 31
0.0
  0
LINE
  5
19C3B
330
747D
100
AcDbEntity
  8
細線
 48
50.0
100
AcDbLine
 10
9627.203681558674
 20
7456.086459435858
 30
0.0
 11
9627.203681558675
 21
7463.086459435857
 31
0.0
  0
LINE
  5
19C3C
330
747D
100
AcDbEntity
  8
細線
 48
50.0
100
AcDbLine
 10
9627.203681558675
 20
7463.086459435857
 30
0.0
 11
9642.203681558672
 21
7463.086459435857
 31
0.0
  0
LINE
  5
19C3D
330
747D
100
AcDbEntity
  8
細線
 48
50.0
100
AcDbLine
 10
9642.203681558672
 20
7463.086459435857
 30
0.0
 11
9642.203681558672
 21
7434.086459435857
 31
0.0
  0
LINE
  5
19C3E
330
747D
100
AcDbEntity
  8
細線
 48
50.0
100
AcDbLine
 10
8838.203676905083
 20
7434.083793779326
 30
0.0
 11
9052.203681558673
 21
7434.08647698957
 31
0.0
  0
LINE
  5
19C3F
330
747D
100
AcDbEntity
  8
細線
 48
50.0
100
AcDbLine
 10
9542.203681558673
 20
7434.086459435857
 30
0.0
 11
9642.203681558672
 21
7434.086459435857
 31
0.0
  0
LINE
  5
19C40
330
747D
100
AcDbEntity
  8
細線
 48
50.0
100
AcDbLine
 10
9262.203681558672
 20
7434.086459435857
 30
0.0
 11
9332.203681558672
 21
7434.086459435857
 31
0.0
  0
LINE
  5
19C41
330
747D
100
AcDbEntity
  8
細線
 48
50.0
100
AcDbLine
 10
9275.065646571203
 20
7434.086459435857
 30
0.0
 11
9280.821164153868
 21
7452.357310726352
 31
0.0
  0
LINE
  5
19C42
330
747D
100
AcDbEntity
  8
細線
 48
50.0
100
AcDbLine
 10
9280.821164153868
 20
7452.357310726352
 30
0.0
 11
9291.749612634303
 21
7452.357310726347
 31
0.0
  0
ARC
  5
19C43
330
747D
100
AcDbEntity
  8
細線
 48
50.0
100
AcDbCircle
 10
9291.749612634303
 20
7451.357310726347
 30
0.0
 40
1.0
100
AcDbArc
 50
24.62431835213048
 51
90.0
  0
ARC
  5
19C44
330
747D
100
AcDbEntity
  8
細線
 48
50.0
100
AcDbCircle
 10
9302.658324748938
 20
7451.357310726347
 30
0.0
 40
1.0
100
AcDbArc
 50
90.0
 51
155.3756816478695
  0
ARC
  5
19C45
330
747D
100
AcDbEntity
  8
細線
 48
50.0
100
AcDbCircle
 10
9297.203968691617
 20
7453.857310726347
 30
0.0
 40
5.0
100
AcDbArc
 50
204.6243183521304
 51
335.3756816478695
  0
LINE
  5
19C46
330
747D
100
AcDbEntity
  8
細線
 48
50.0
100
AcDbLine
 10
9302.658324748938
 20
7452.357310726347
 30
0.0
 11
9313.586773229371
 21
7452.357310726352
 31
0.0
  0
LINE
  5
19C47
330
747D
100
AcDbEntity
  8
細線
 48
50.0
100
AcDbLine
 10
9313.586773229371
 20
7452.357310726352
 30
0.0
 11
9319.342290812038
 21
7434.086459435857
 31
0.0
  0
LINE
  5
19C48
330
747D
100
AcDbEntity
  8
細線
 48
50.0
100
AcDbLine
 10
9612.203681558673
 20
7454.686459435855
 30
0.0
 11
8861.203681558675
 21
7454.686459435855
 31
0.0
  0
LINE
  5
19C49
330
747D
100
AcDbEntity
  8
細線
 48
50.0
100
AcDbLine
 10
9472.203681558672
 20
7434.086459435857
 30
0.0
 11
9402.203681558672
 21
7434.086459435857
 31
0.0
  0
LINE
  5
19C4A
330
747D
100
AcDbEntity
  8
細線
100
AcDbLine
 10
9192.203681558671
 20
7434.086459435857
 30
0.0
 11
9122.203689744088
 21
7434.086459435857
 31
0.0
  0
LINE
  5
19C4B
330
747D
100
AcDbEntity
  8
細線
 48
50.0
100
AcDbLine
 10
10266.20367225149
 20
7488.686503293724
 30
0.0
 11
9631.203681558673
 21
7488.68650329372
 31
0.0
  0
LINE
  5
19C4C
330
747D
100
AcDbEntity
  8
細線
 48
50.0
100
AcDbLine
 10
9631.203681558673
 20
7485.582653701364
 30
0.0
 11
9631.203681558673
 21
7490.082653701364
 31
0.0
  0
LINE
  5
19C4D
330
747D
100
AcDbEntity
  8
細線
 48
50.0
100
AcDbLine
 10
9631.203681558673
 20
7490.082653701364
 30
0.0
 11
9616.203681558673
 21
7490.082653701364
 31
0.0
  0
LINE
  5
19C4E
330
747D
100
AcDbEntity
  8
細線
 48
50.0
100
AcDbLine
 10
9616.203681558673
 20
7490.082653701364
 30
0.0
 11
9616.203681558673
 21
7497.082653701363
 31
0.0
  0
LINE
  5
19C4F
330
747D
100
AcDbEntity
  8
細線
 48
50.0
100
AcDbLine
 10
9616.203681558673
 20
7497.082653701363
 30
0.0
 11
9601.203681558677
 21
7497.082653701361
 31
0.0
  0
LINE
  5
19C50
330
747D
100
AcDbEntity
  8
細線
 48
50.0
100
AcDbLine
 10
9601.203681558677
 20
7497.082653701361
 30
0.0
 11
9601.203681558677
 21
7459.48242559825
 31
0.0
  0
LINE
  5
19C51
330
747D
100
AcDbEntity
  8
細線
 48
50.0
100
AcDbLine
 10
9601.203681558677
 20
7459.48242559825
 30
0.0
 11
9621.20368885985
 21
7459.482467147791
 31
0.0
  0
LINE
  5
19C52
330
747D
100
AcDbEntity
  8
細線
 48
50.0
100
AcDbLine
 10
9621.203643990908
 20
7468.0859287836
 30
0.0
 11
9621.20368885985
 21
7459.482467147791
 31
0.0
  0
LINE
  5
19C53
330
747D
100
AcDbEntity
  8
細線
 48
50.0
100
AcDbLine
 10
10266.20367225149
 20
7485.236503293723
 30
0.0
 11
10266.20367225149
 21
7490.086503293722
 31
0.0
  0
LINE
  5
19C54
330
747D
100
AcDbEntity
  8
細線
 48
50.0
100
AcDbLine
 10
10266.20367225149
 20
7490.086503293722
 30
0.0
 11
10281.20367225149
 21
7490.086503293722
 31
0.0
  0
LINE
  5
19C55
330
747D
100
AcDbEntity
  8
細線
 48
50.0
100
AcDbLine
 10
10281.20367225149
 20
7490.086503293722
 30
0.0
 11
10281.20368388547
 21
7497.086503293765
 31
0.0
  0
LINE
  5
19C56
330
747D
100
AcDbEntity
  8
細線
 48
50.0
100
AcDbLine
 10
10281.20368388547
 20
7497.086503293765
 30
0.0
 11
10296.203682056
 21
7497.086503293765
 31
0.0
  0
LINE
  5
19C57
330
747D
100
AcDbEntity
  8
細線
 48
50.0
100
AcDbLine
 10
10296.203682056
 20
7497.086503293765
 30
0.0
 11
10296.20367175418
 21
7468.086297121492
 31
0.0
  0
LINE
  5
19C58
330
747D
100
AcDbEntity
  8
細線
 48
50.0
100
AcDbLine
 10
9983.703699384962
 20
7468.086305308858
 30
0.0
 11
9913.703951467379
 21
7468.08629987152
 31
0.0
  0
LINE
  5
19C59
330
747D
100
AcDbEntity
  8
細線
 48
50.0
100
AcDbLine
 10
9621.203643990908
 20
7468.0859287836
 30
0.0
 11
9632.436333345617
 21
7468.086111736745
 31
0.0
  0
ARC
  5
19C5A
330
747D
100
AcDbEntity
  8
細線
 48
50.0
100
AcDbCircle
 10
9639.018625652953
 20
7466.886275650359
 30
0.0
 40
1.8
100
AcDbArc
 50
270.0006665777295
 51
345.0005554812987
  0
LINE
  5
19C5B
330
747D
100
AcDbEntity
  8
細線
 48
50.0
100
AcDbLine
 10
9641.005059099033
 20
7467.345116107637
 30
0.0
 11
9640.757296656834
 21
7466.42041822553
 31
0.0
  0
LINE
  5
19C5C
330
747D
100
AcDbEntity
  8
細線
 48
50.0
100
AcDbLine
 10
9639.018646594109
 20
7465.086275650479
 30
0.0
 11
9635.388719175338
 21
7465.08623342
 31
0.0
  0
ARC
  5
19C5D
330
747D
100
AcDbEntity
  8
細線
 48
50.0
100
AcDbCircle
 10
9635.388698234187
 20
7466.886233419879
 30
0.0
 40
1.8
100
AcDbArc
 50
195.0010443049394
 51
270.0006665777295
  0
LINE
  5
19C5E
330
747D
100
AcDbEntity
  8
細線
 48
50.0
100
AcDbLine
 10
9633.402270741928
 20
7467.344948387443
 30
0.0
 11
9633.650040238443
 21
7466.420327448862
 31
0.0
  0
ARC
  5
19C5F
330
747D
100
AcDbEntity
  8
細線
 48
50.0
100
AcDbCircle
 10
9632.436349633179
 20
7467.08611173688
 30
0.0
 40
1.0
100
AcDbArc
 50
15.00104430493943
 51
90.00093320877969
  0
LINE
  5
19C60
330
747D
100
AcDbEntity
  8
細線
 48
50.0
100
AcDbLine
 10
9641.970980454134
 20
7468.08630642715
 30
0.0
 11
9642.912740605041
 21
7468.086313001001
 31
0.0
  0
ARC
  5
19C61
330
747D
100
AcDbEntity
  8
細線
 48
50.0
100
AcDbCircle
 10
9641.970987434522
 20
7467.086306427176
 30
0.0
 40
1.0
100
AcDbArc
 50
90.0003999466794
 51
165.0005554812987
  0
LINE
  5
19C62
330
747D
100
AcDbEntity
  8
細線
 48
50.0
100
AcDbLine
 10
10193.70367225148
 20
7468.086297121492
 30
0.0
 11
10296.20367175418
 21
7468.086297121492
 31
0.0
  0
LINE
  5
19C63
330
747D
100
AcDbEntity
  8
細線
 48
50.0
100
AcDbLine
 10
9703.703707570378
 20
7468.086305308858
 30
0.0
 11
9642.603646343458
 21
7468.086313001001
 31
0.0
  0
LINE
  5
19C64
330
747D
100
AcDbEntity
  8
細線
 48
50.0
100
AcDbLine
 10
10123.70370757037
 20
7468.086342149941
 30
0.0
 11
10053.70370061599
 21
7468.086297127273
 31
0.0
  0
LINE
  5
19C65
330
747D
100
AcDbEntity
  8
細線
 48
50.0
100
AcDbLine
 10
9843.703672251486
 20
7468.086297121487
 30
0.0
 11
9773.703654963611
 21
7468.086297121496
 31
0.0
  0
ARC
  5
19C66
330
747D
100
AcDbEntity
  8
細線
 48
50.0
100
AcDbCircle
 10
10280.40367690509
 20
7501.286285258903
 30
0.0
 40
0.8
100
AcDbArc
 50
359.9997333689499
 51
89.99986668437072
  0
ARC
  5
19C67
330
747D
100
AcDbEntity
  8
細線
 48
50.0
100
AcDbCircle
 10
10288.00368373019
 20
7501.286296427519
 30
0.0
 40
0.8
100
AcDbArc
 50
90.00014387753465
 51
179.9997333689498
  0
LINE
  5
19C68
330
747D
100
AcDbEntity
  8
細線
 48
50.0
100
AcDbLine
 10
10280.40367876652
 20
7502.086285258902
 30
0.0
 11
10275.20367690508
 21
7502.086285258902
 31
0.0
  0
ARC
  5
19C69
330
747D
100
AcDbEntity
  8
細線
 48
50.0
100
AcDbCircle
 10
10281.90367690508
 20
7499.786285258903
 30
0.0
 40
0.7
100
AcDbArc
 50
180.0
 51
270.0
  0
ARC
  5
19C6A
330
747D
100
AcDbEntity
  8
細線
 48
50.0
100
AcDbCircle
 10
10286.50367690508
 20
7499.786285258903
 30
0.0
 40
0.7
100
AcDbArc
 50
270.0
 51
0.0
  0
LINE
  5
19C6B
330
747D
100
AcDbEntity
  8
細線
 48
50.0
100
AcDbLine
 10
10287.20367690508
 20
7499.786285258903
 30
0.0
 11
10287.2036837302
 21
7501.28630015039
 31
0.0
  0
LINE
  5
19C6C
330
747D
100
AcDbEntity
  8
細線
 48
50.0
100
AcDbLine
 10
10281.90367690508
 20
7499.086285258901
 30
0.0
 11
10286.50367690508
 21
7499.086285258901
 31
0.0
  0
LINE
  5
19C6D
330
747D
100
AcDbEntity
  8
細線
 48
50.0
100
AcDbLine
 10
10281.20367690508
 20
7501.286285258903
 30
0.0
 11
10281.20367690508
 21
7499.786285258903
 31
0.0
  0
LINE
  5
19C6E
330
747D
100
AcDbEntity
  8
細線
 48
50.0
100
AcDbLine
 10
10906.80367690509
 20
7532.086285258902
 30
0.0
 11
10270.20367690508
 21
7532.086285258898
 31
0.0
  0
LINE
  5
19C6F
330
747D
100
AcDbEntity
  8
細線
 48
50.0
100
AcDbLine
 10
10932.70367690508
 20
7527.086285258905
 30
0.0
 11
10916.80367690509
 21
7527.086285258902
 31
0.0
  0
LINE
  5
19C70
330
747D
100
AcDbEntity
  8
細線
 48
50.0
100
AcDbLine
 10
10916.80367690508
 20
7527.086285258902
 30
0.0
 11
10906.80367690509
 21
7532.086285258902
 31
0.0
  0
LINE
  5
19C71
330
747D
100
AcDbEntity
  8
細線
100
AcDbLine
 10
10517.70367690508
 20
7502.086285258902
 30
0.0
 11
10517.70367690508
 21
7531.386285258901
 31
0.0
  0
LINE
  5
19C72
330
747D
100
AcDbEntity
  8
細線
100
AcDbLine
 10
10517.70367690508
 20
7531.386285258901
 30
0.0
 11
10537.70367690508
 21
7531.386285258901
 31
0.0
  0
LINE
  5
19C73
330
747D
100
AcDbEntity
  8
細線
100
AcDbLine
 10
10537.70367690508
 20
7502.086285258902
 30
0.0
 11
10537.70367690508
 21
7531.386285258901
 31
0.0
  0
LINE
  5
19C74
330
747D
100
AcDbEntity
  8
細線
100
AcDbLine
 10
10698.95367690508
 20
7502.086285258902
 30
0.0
 11
10628.95367690508
 21
7502.086285258902
 31
0.0
  0
LINE
  5
19C75
330
747D
100
AcDbEntity
  8
細線
 48
50.0
100
AcDbLine
 10
10418.95367690508
 20
7502.086285258902
 30
0.0
 11
10287.99945647792
 21
7502.086285258902
 31
0.0
  0
LINE
  5
19C76
330
747D
100
AcDbEntity
  8
細線
100
AcDbLine
 10
10558.95367690508
 20
7502.086285258902
 30
0.0
 11
10488.95367690508
 21
7502.086285258902
 31
0.0
  0
LINE
  5
19C77
330
747D
100
AcDbEntity
  8
細線
 48
50.0
100
AcDbLine
 10
10275.20367690508
 20
7494.086285258902
 30
0.0
 11
10275.20367690508
 21
7502.086285258902
 31
0.0
  0
LINE
  5
19C78
330
747D
100
AcDbEntity
  8
細線
 48
50.0
100
AcDbLine
 10
10255.20367690508
 20
7494.086285258905
 30
0.0
 11
10275.20367690508
 21
7494.086285258902
 31
0.0
  0
LINE
  5
19C79
330
747D
100
AcDbEntity
  8
細線
 48
50.0
100
AcDbLine
 10
10270.20367690508
 20
7532.086285258902
 30
0.0
 11
10270.20367690508
 21
7527.086285258902
 31
0.0
  0
LINE
  5
19C7A
330
747D
100
AcDbEntity
  8
細線
 48
50.0
100
AcDbLine
 10
10255.20367690508
 20
7532.086285258898
 30
0.0
 11
10270.20367690508
 21
7532.086285258902
 31
0.0
  0
LINE
  5
19C7B
330
747D
100
AcDbEntity
  8
細線
 48
50.0
100
AcDbLine
 10
10255.20367690508
 20
7494.086285258905
 30
0.0
 11
10255.20367690508
 21
7532.086285258898
 31
0.0
  0
LINE
  5
19C7C
330
747D
100
AcDbEntity
  8
細線
100
AcDbLine
 10
10923.20367690508
 20
7502.086285258902
 30
0.0
 11
10768.95367690508
 21
7502.086285258902
 31
0.0
  0
LINE
  5
19C7D
330
747D
100
AcDbEntity
  8
細線
 48
50.0
100
AcDbLine
 10
10932.70367690508
 20
7527.086285258905
 30
0.0
 11
10932.70367690508
 21
7502.086285258902
 31
0.0
  0
LINE
  5
19EB3
330
747D
100
AcDbEntity
  8
部品1
100
AcDbLine
 10
10266.93901001935
 20
5964.218140293435
 30
0.0
 11
9503.468343790911
 21
5964.218140293435
 31
0.0
  0
LINE
  5
19EB4
330
747D
100
AcDbEntity
  8
部品1
100
AcDbLine
 10
10266.93901001935
 20
5724.325818747902
 30
0.0
 11
10266.93901001935
 21
5964.218140293435
 31
0.0
  0
LINE
  5
19EB5
330
747D
100
AcDbEntity
  8
部品1
100
AcDbLine
 10
9503.468343790911
 20
5724.325818747902
 30
0.0
 11
10266.93901001935
 21
5724.325818747902
 31
0.0
  0
LINE
  5
19EB6
330
747D
100
AcDbEntity
  8
部品1
100
AcDbLine
 10
9503.468343790911
 20
5964.218140293435
 30
0.0
 11
9503.468343790911
 21
5724.325818747902
 31
0.0
  0
TEXT
  5
19EB7
330
747D
100
AcDbEntity
  8
部品1
100
AcDbText
 10
9593.38795361995
 20
5771.324611074912
 30
0.0
 40
135.0
  1
平面図
  7
STYLE2
100
AcDbText
  0
DIMENSION
  5
19EB8
330
747D
100
AcDbEntity
  8
寸法
100
AcDbDimension
  2
*D31
 10
10990.20367690511
 20
6242.575055485879
 30
0.0
 11
9907.336433652428
 21
6242.575055485879
 31
0.0
 70
   160
 71
     5
 42
2209.999999999982
  3
INABA_S40G
100
AcDbAlignedDimension
 13
8780.203676905134
 23
7506.086285258959
 33
0.0
 14
10990.20367690511
 24
7506.086285259087
 34
0.0
100
AcDbRotatedDimension
1001
ACAD
1000
DSTYLE
1002
{
1002
}
  0
DIMENSION
  5
19EB9
330
747D
100
AcDbEntity
  8
寸法
100
AcDbDimension
  2
*D32
 10
8485.592431278417
 20
7431.086285259026
 30
0.0
 11
8485.592431278416
 21
7290.601003884787
 31
0.0
 70
   160
 71
     5
 42
75.0
  3
INABA_S40
100
AcDbAlignedDimension
 13
8780.203676905134
 23
7506.086285259026
 33
0.0
 14
8808.203676905115
 24
7431.086285259026
 34
0.0
 50
90.0
100
AcDbRotatedDimension
1001
ACAD
1000
DSTYLE
1002
{
1070
    41
1040
0.5
1070
    44
1040
1.0
1070
   147
1040
0.8
1070
   271
1070
     2
1070
   272
1070
     2
1070
   289
1070
     3
1070
   340
1005
F706
1070
   343
1005
18CE2
1070
   344
1005
18CE2
1002
}
  0
DIMENSION
  5
19EBA
330
747D
100
AcDbEntity
  8
寸法
 48
50.0
100
AcDbDimension
  2
*D33
 10
10962.20367690511
 20
6508.956569831204
 30
0.0
 11
9907.336433652428
 21
6508.956569831204
 31
0.0
 70
   160
 71
     5
 42
2154.0
  3
INABA_S40G
100
AcDbAlignedDimension
 13
8808.203676905115
 23
7429.086285258971
 33
0.0
 14
10962.20367690511
 24
7429.086285258971
 34
0.0
100
AcDbRotatedDimension
1001
ACAD
1000
DSTYLE
1002
{
1070
   341
1005
0
1002
}
  0
LWPOLYLINE
  5
1A1F5
330
747D
100
AcDbEntity
  8
部品1
 48
50.0
100
AcDbPolyline
 90
        4
 70
     1
 43
0.0
 10
8907.253676905133
 20
3051.09317242629
 10
8910.153676905135
 20
3051.09317242629
 10
8910.153676905135
 20
3060.59317242629
 10
8907.253676905133
 20
3060.59317242629
  0
CIRCLE
  5
1A1F6
330
747D
100
AcDbEntity
  8
部品1
 48
50.0
100
AcDbCircle
 10
8908.703676905133
 20
3055.84317242629
 30
0.0
 40
9.0
  0
ARC
  5
1A1F7
330
747D
100
AcDbEntity
  8
細線
 48
50.0
100
AcDbCircle
 10
8908.703676905133
 20
3055.84317242629
 30
0.0
 40
4.0
100
AcDbArc
 50
111.2538091853132
 51
248.7461908146868
  0
ARC
  5
1A1F8
330
747D
100
AcDbEntity
  8
細線
 48
50.0
100
AcDbCircle
 10
8908.703676905133
 20
3055.84317242629
 30
0.0
 40
17.5
100
AcDbArc
 50
306.4837370612677
 51
233.5162629387323
  0
LINE
  5
1A1F9
330
747D
100
AcDbEntity
  8
細線
 48
50.0
100
AcDbLine
 10
8918.703676905129
 20
3031.984211845407
 30
0.0
 11
8918.703676905135
 21
3040.968697645649
 31
0.0
  0
LINE
  5
1A1FA
330
747D
100
AcDbEntity
  8
細線
 48
50.0
100
AcDbLine
 10
8898.703676905133
 20
3031.984211845409
 30
0.0
 11
8898.703676905133
 21
3040.968697645646
 31
0.0
  0
ARC
  5
1A1FB
330
747D
100
AcDbEntity
  8
細線
 48
50.0
100
AcDbCircle
 10
8908.703676905133
 20
3055.84317242629
 30
0.0
 40
26.5
100
AcDbArc
 50
249.3326835063939
 51
290.6673164933835
  0
ARC
  5
1A1FC
330
747D
100
AcDbEntity
  8
細線
 48
50.0
100
AcDbCircle
 10
8917.703676905126
 20
3031.984211845407
 30
0.0
 40
1.0
100
AcDbArc
 50
290.6673164936062
 51
359.9999999998958
  0
ARC
  5
1A1FD
330
747D
100
AcDbEntity
  8
細線
 48
50.0
100
AcDbCircle
 10
8899.703676905133
 20
3031.984211845409
 30
0.0
 40
1.0
100
AcDbArc
 50
180.0
 51
249.3326835066164
  0
ARC
  5
1A1FE
330
747D
100
AcDbEntity
  8
細線
 48
50.0
100
AcDbCircle
 10
8897.703676905134
 20
3040.968697645646
 30
0.0
 40
1.0
100
AcDbArc
 50
0.0
 51
53.51626293873231
  0
ARC
  5
1A1FF
330
747D
100
AcDbEntity
  8
細線
 48
50.0
100
AcDbCircle
 10
8919.703676905138
 20
3040.968697645649
 30
0.0
 40
1.0
100
AcDbArc
 50
126.4837370615127
 51
180.0
  0
ARC
  5
1A200
330
747D
100
AcDbEntity
  8
細線
 48
50.0
100
AcDbCircle
 10
8908.703676905133
 20
3055.84317242629
 30
0.0
 40
21.5
100
AcDbArc
 50
255.8014401250294
 51
284.1985598749706
  0
ARC
  5
1A201
330
747D
100
AcDbEntity
  8
細線
 48
50.0
100
AcDbCircle
 10
8908.703676905133
 20
3055.84317242629
 30
0.0
 40
16.5
100
AcDbArc
 50
251.9694646069326
 51
288.0305353930674
  0
LINE
  5
1A202
330
747D
100
AcDbEntity
  8
細線
 48
50.0
100
AcDbLine
 10
8914.203676905135
 20
3035.290800300483
 30
0.0
 11
8914.203676905135
 21
3039.86819198782
 31
0.0
  0
LINE
  5
1A203
330
747D
100
AcDbEntity
  8
細線
 48
50.0
100
AcDbLine
 10
8903.203676905134
 20
3035.290800300483
 30
0.0
 11
8903.203676905134
 21
3039.868191987818
 31
0.0
  0
ARC
  5
1A204
330
747D
100
AcDbEntity
  8
細線
 48
50.0
100
AcDbCircle
 10
8903.503676905136
 20
3039.868191987818
 30
0.0
 40
0.3
100
AcDbArc
 50
71.96946460693259
 51
180.0
  0
ARC
  5
1A205
330
747D
100
AcDbEntity
  8
細線
 48
50.0
100
AcDbCircle
 10
8913.903676905134
 20
3039.86819198782
 30
0.0
 40
0.3
100
AcDbArc
 50
0.0
 51
108.0305353930674
  0
ARC
  5
1A206
330
747D
100
AcDbEntity
  8
細線
 48
50.0
100
AcDbCircle
 10
8913.903676905132
 20
3035.290800300483
 30
0.0
 40
0.3
100
AcDbArc
 50
284.1985598747622
 51
0.0000000001042204
  0
ARC
  5
1A207
330
747D
100
AcDbEntity
  8
細線
 48
50.0
100
AcDbCircle
 10
8903.503676905136
 20
3035.290800300483
 30
0.0
 40
0.3
100
AcDbArc
 50
180.0
 51
255.8014401248081
  0
CIRCLE
  5
1A208
330
747D
100
AcDbEntity
  8
細線
 48
50.0
100
AcDbCircle
 10
8908.703676905133
 20
3055.84317242629
 30
0.0
 40
12.0
  0
ARC
  5
1A209
330
747D
100
AcDbEntity
  8
部品1
 48
50.0
100
AcDbCircle
 10
8908.703676905133
 20
3105.84317242629
 30
0.0
 40
8.5
100
AcDbArc
 50
114.315739171091
 51
245.684260828909
  0
CIRCLE
  5
1A20A
330
747D
100
AcDbEntity
  8
細線
 48
50.0
100
AcDbCircle
 10
8908.703676905133
 20
3105.84317242629
 30
0.0
 40
4.5
  0
LWPOLYLINE
  5
1A20B
330
747D
100
AcDbEntity
  8
部品1
 48
50.0
100
AcDbPolyline
 90
        2
 70
     0
 43
0.0
 10
8905.203676905134
 20
3124.518021823273
 10
8905.203676905134
 20
3113.589139118705
  0
CIRCLE
  5
1A20C
330
747D
100
AcDbEntity
  8
部品1
 48
50.0
100
AcDbCircle
 10
8908.703676905133
 20
3105.84317242629
 30
0.0
 40
19.0
  0
LWPOLYLINE
  5
1A20D
330
747D
100
AcDbEntity
  8
部品1
 48
50.0
100
AcDbPolyline
 90
        2
 70
     0
 43
0.0
 10
8905.203676905134
 20
3098.097205733875
 10
8905.203676905134
 20
3087.168323029308
  0
LWPOLYLINE
  5
1A20E
330
747D
100
AcDbEntity
  8
部品1
 48
50.0
100
AcDbPolyline
 90
        2
 70
     0
 43
0.0
 10
8912.203676905134
 20
3113.589139118705
 10
8912.203676905134
 20
3124.518021823273
  0
ARC
  5
1A20F
330
747D
100
AcDbEntity
  8
部品1
 48
50.0
100
AcDbCircle
 10
8908.703676905133
 20
3105.84317242629
 30
0.0
 40
8.5
100
AcDbArc
 50
294.315739171091
 51
65.68426082890896
  0
LWPOLYLINE
  5
1A210
330
747D
100
AcDbEntity
  8
部品1
 48
50.0
100
AcDbPolyline
 90
        2
 70
     0
 43
0.0
 10
8912.203676905134
 20
3087.168323029308
 10
8912.203676905134
 20
3098.097205733875
  0
ARC
  5
1A211
330
747D
100
AcDbEntity
  8
細線
 48
50.0
100
AcDbCircle
 10
8908.703676905133
 20
3105.84317242629
 30
0.0
 40
16.5
100
AcDbArc
 50
332.0012352654438
 51
27.99876473455621
  0
ARC
  5
1A212
330
747D
100
AcDbEntity
  8
細線
 48
50.0
100
AcDbCircle
 10
8908.703676905133
 20
3105.84317242629
 30
0.0
 40
14.0
100
AcDbArc
 50
326.4074436112986
 51
33.59255638870134
  0
LINE
  5
1A213
330
747D
100
AcDbEntity
  8
細線
 48
50.0
100
AcDbLine
 10
8894.134874620801
 20
3113.589139118705
 30
0.0
 11
8897.041773115445
 21
3113.589139118705
 31
0.0
  0
LINE
  5
1A214
330
747D
100
AcDbEntity
  8
細線
 48
50.0
100
AcDbLine
 10
8894.134874620801
 20
3098.097205733875
 30
0.0
 11
8897.041773115445
 21
3098.097205733875
 31
0.0
  0
LINE
  5
1A215
330
747D
100
AcDbEntity
  8
細線
 48
50.0
100
AcDbLine
 10
8920.365580694824
 20
3113.589139118705
 30
0.0
 11
8923.272479189469
 21
3113.589139118705
 31
0.0
  0
LINE
  5
1A216
330
747D
100
AcDbEntity
  8
細線
 48
50.0
100
AcDbLine
 10
8920.365580694824
 20
3098.097205733875
 30
0.0
 11
8923.272479189469
 21
3098.097205733875
 31
0.0
  0
ARC
  5
1A217
330
747D
100
AcDbEntity
  8
細線
 48
50.0
100
AcDbCircle
 10
8908.703676905133
 20
3105.84317242629
 30
0.0
 40
14.0
100
AcDbArc
 50
146.4074436112986
 51
213.5925563887013
  0
ARC
  5
1A218
330
747D
100
AcDbEntity
  8
細線
 48
50.0
100
AcDbCircle
 10
8908.703676905133
 20
3105.84317242629
 30
0.0
 40
16.5
100
AcDbArc
 50
152.0012352654438
 51
207.9987647345562
  0
ARC
  5
1A219
330
747D
100
AcDbEntity
  8
部品1
 48
50.0
100
AcDbCircle
 10
8882.203676905133
 20
3131.34317242629
 30
0.0
 40
5.0
100
AcDbArc
 50
90.0
 51
180.0
  0
ARC
  5
1A21A
330
747D
100
AcDbEntity
  8
部品1
 48
50.0
100
AcDbCircle
 10
8882.203676905133
 20
3020.343172426291
 30
0.0
 40
5.0
100
AcDbArc
 50
180.0
 51
270.0
  0
ARC
  5
1A21B
330
747D
100
AcDbEntity
  8
部品1
 48
50.0
100
AcDbCircle
 10
8935.203676905134
 20
3020.343172426291
 30
0.0
 40
5.0
100
AcDbArc
 50
270.0
 51
0.0
  0
ARC
  5
1A21C
330
747D
100
AcDbEntity
  8
部品1
 48
50.0
100
AcDbCircle
 10
8935.203676905134
 20
3131.34317242629
 30
0.0
 40
5.0
100
AcDbArc
 50
0.0
 51
90.0
  0
LINE
  5
1A21E
330
747D
100
AcDbEntity
  8
部品1
 48
50.0
100
AcDbLine
 10
8877.203676905134
 20
3020.343172426291
 30
0.0
 11
8877.203676905134
 21
3131.34317242629
 31
0.0
  0
LINE
  5
1A21F
330
747D
100
AcDbEntity
  8
部品1
 48
50.0
100
AcDbLine
 10
8935.203676905134
 20
3015.34317242629
 30
0.0
 11
8882.203676905133
 21
3015.34317242629
 31
0.0
  0
LINE
  5
1A220
330
747D
100
AcDbEntity
  8
部品1
 48
50.0
100
AcDbLine
 10
8940.203676905133
 20
3131.34317242629
 30
0.0
 11
8940.203676905133
 21
3020.343172426291
 31
0.0
  0
ENDSEC
  0
SECTION
  2
OBJECTS
  0
DICTIONARY
  5
7471
330
0
100
AcDbDictionary
281
     1
  3
ACAD_COLOR
350
18CD7
  3
ACAD_GROUP
350
7472
  3
ACAD_LAYOUT
350
18CD8
  3
ACAD_MATERIAL
350
18CD6
  3
ACAD_MLINESTYLE
350
7473
  3
ACAD_PLOTSETTINGS
350
18CD9
  3
ACAD_PLOTSTYLENAME
350
18CD4
  3
ACDBHEADERROUNDTRIPXREC
350
1A22F
  3
AcDbVariableDictionary
350
1A22B
  3
CONTENTDICTIONARY
350
E71C
  3
DRAWINGVARIABLESDICT
350
F3B9
  0
DICTIONARY
  5
18E71
330
7467
100
AcDbDictionary
280
     1
281
     1
  3
ACAD_LAYERSTATES
360
18E72
  0
DICTIONARY
  5
18CD7
102
{ACAD_REACTORS
330
7471
102
}
330
7471
100
AcDbDictionary
281
     1
  0
DICTIONARY
  5
7472
102
{ACAD_REACTORS
330
7471
102
}
330
7471
100
AcDbDictionary
281
     1
  0
DICTIONARY
  5
18CD8
102
{ACAD_REACTORS
330
7471
102
}
330
7471
100
AcDbDictionary
281
     1
  3
Model
350
18CDA
  3
レイアウト1
350
18CDB
  0
DICTIONARY
  5
18CD6
102
{ACAD_REACTORS
330
7471
102
}
330
7471
100
AcDbDictionary
281
     1
  0
DICTIONARY
  5
7473
102
{ACAD_REACTORS
330
7471
102
}
330
7471
100
AcDbDictionary
281
     1
  3
STANDARD
350
7480
  0
DICTIONARY
  5
18CD9
102
{ACAD_REACTORS
330
7471
102
}
330
7471
100
AcDbDictionary
281
     1
  0
ACDBDICTIONARYWDFLT
  5
18CD4
102
{ACAD_REACTORS
330
7471
102
}
330
7471
100
AcDbDictionary
281
     1
  3
Normal
350
18CD5
100
AcDbDictionaryWithDefault
340
18CD5
  0
DICTIONARY
  5
1A22F
102
{ACAD_REACTORS
330
7471
102
}
330
7471
100
AcDbDictionary
281
     1
  3
COLORDICT
350
1A231
  3
MATERIALDICT
350
1A230
  0
DICTIONARY
  5
1A22B
102
{ACAD_REACTORS
330
7471
102
}
330
7471
100
AcDbDictionary
281
     1
  3
DIMASSOC
350
1A22C
  3
PROJECTNAME
350
1A22D
  0
DICTIONARY
  5
E71C
102
{ACAD_REACTORS
330
7471
102
}
330
7471
100
AcDbDictionary
281
     1
  0
DICTIONARY
  5
F3B9
102
{ACAD_REACTORS
330
7471
102
}
330
7471
100
AcDbDictionary
281
     1
1001
DRAWINGVARIABLESXDATA
1000
POLARMODE
1000
1
  0
DICTIONARY
  5
18E72
102
{ACAD_REACTORS
330
18E71
102
}
330
18E71
100
AcDbDictionary
281
     1
  0
LAYOUT
  5
18CDA
102
{ACAD_XDICTIONARY
360
1A232
102
}
102
{ACAD_REACTORS
330
18CD8
102
}
330
18CD8
100
AcDbPlotSettings
  1

  2
Microsoft Office Document Image Writer
  4

  6

 40
0.0
 41
0.0
 42
0.0
 43
0.0
 44
0.0
 45
0.0
 46
0.0
 47
0.0
 48
0.0
 49
0.0
140
0.0
141
0.0
142
1.0
143
1.0
 70
  1712
 72
     0
 73
     0
 74
     0
  7

 75
     0
147
1.0
148
0.0
149
0.0
100
AcDbLayout
  1
Model
 70
     1
 71
     0
 10
0.0
 20
0.0
 11
12.0
 21
9.0
 12
0.0
 22
0.0
 32
0.0
 14
0.0
 24
0.0
 34
0.0
 15
0.0
 25
0.0
 35
0.0
146
0.0
 13
0.0
 23
0.0
 33
0.0
 16
1.0
 26
0.0
 36
0.0
 17
0.0
 27
1.0
 37
0.0
 76
     0
330
747D
  0
LAYOUT
  5
18CDB
102
{ACAD_XDICTIONARY
360
1A234
102
}
102
{ACAD_REACTORS
330
18CD8
102
}
330
18CD8
100
AcDbPlotSettings
  1

  2
Microsoft Office Document Image Writer
  4

  6

 40
0.0
 41
0.0
 42
0.0
 43
0.0
 44
0.0
 45
0.0
 46
0.0
 47
0.0
 48
0.0
 49
0.0
140
0.0
141
0.0
142
1.0
143
1.0
 70
   688
 72
     0
 73
     0
 74
     5
  7

 75
    16
147
1.0
148
0.0
149
0.0
100
AcDbLayout
  1
レイアウト1
 70
     0
 71
     1
 10
0.0
 20
0.0
 11
420.0
 21
297.0
 12
0.0
 22
0.0
 32
0.0
 14
1.000000000000000E+20
 24
1.000000000000000E+20
 34
1.000000000000000E+20
 15
-1.000000000000000E+20
 25
-1.000000000000000E+20
 35
-1.000000000000000E+20
146
0.0
 13
0.0
 23
0.0
 33
0.0
 16
1.0
 26
0.0
 36
0.0
 17
0.0
 27
1.0
 37
0.0
 76
     0
330
747A
  0
MLINESTYLE
  5
7480
102
{ACAD_REACTORS
330
7473
102
}
330
7473
100
AcDbMlineStyle
  2
STANDARD
 70
     0
  3

 62
     0
 51
90.0
 52
90.0
 71
     2
 49
0.5
 62
   256
  6
BYLAYER
 49
-0.5
 62
   256
  6
BYLAYER
  0
ACDBPLACEHOLDER
  5
18CD5
102
{ACAD_REACTORS
330
18CD4
102
}
330
18CD4
  0
XRECORD
  5
1A231
102
{ACAD_REACTORS
330
1A22F
102
}
330
1A22F
100
AcDbXrecord
280
     1
340
18CD7
  0
XRECORD
  5
1A230
102
{ACAD_REACTORS
330
1A22F
102
}
330
1A22F
100
AcDbXrecord
280
     1
340
18CD6
  0
DICTIONARYVAR
  5
1A22C
102
{ACAD_REACTORS
330
1A22B
102
}
330
1A22B
100
DictionaryVariables
280
     0
  1
1
  0
DICTIONARYVAR
  5
1A22D
102
{ACAD_REACTORS
330
1A22B
102
}
330
1A22B
100
DictionaryVariables
280
     0
  1

  0
DICTIONARY
  5
1A232
330
18CDA
100
AcDbDictionary
280
     1
281
     1
  3
ACAD_XREC_ROUNDTRIP
360
1A233
  0
DICTIONARY
  5
1A234
330
18CDB
100
AcDbDictionary
280
     1
281
     1
  3
ACAD_XREC_ROUNDTRIP
360
1A235
  0
XRECORD
  5
1A233
102
{ACAD_REACTORS
330
1A232
102
}
330
1A232
100
AcDbXrecord
280
     1
102
SHADEPLOT
 70
     0
102
SHADEPLOTRESLEVEL
 70
     2
102
SHADEPLOTCUSTOMDPI
 70
   300
  0
XRECORD
  5
1A235
102
{ACAD_REACTORS
330
1A234
102
}
330
1A234
100
AcDbXrecord
280
     1
102
SHADEPLOT
 70
     0
102
SHADEPLOTRESLEVEL
 70
     2
102
SHADEPLOTCUSTOMDPI
 70
   300
  0
ENDSEC
  0
EOF
