  0
SECTION
  2
HEADER
  9
$ACADVER
  1
AC1015
  9
$ACADMAINTVER
 70
    20
  9
$DWGCODEPAGE
  3
ANSI_932
  9
$INSBASE
 10
0.0
 20
0.0
 30
0.0
  9
$EXTMIN
 10
139.9999999999995
 20
-0.0000000000000909
 30
0.0
  9
$EXTMAX
 10
16307.2
 20
11409.6
 30
0.0
  9
$LIMMIN
 10
0.0
 20
0.0
  9
$LIMMAX
 10
16800.0
 20
11880.0
  9
$ORTHOMODE
 70
     0
  9
$REGENMODE
 70
     1
  9
$FILLMODE
 70
     1
  9
$QTEXTMODE
 70
     0
  9
$MIRRTEXT
 70
     1
  9
$LTSCALE
 40
20.0
  9
$ATTMODE
 70
     1
  9
$TEXTSIZE
 40
4.0
  9
$TRACEWID
 40
1.0
  9
$TEXTSTYLE
  7
STYLE1
  9
$CLAYER
  8
部品1
  9
$CELTYPE
  6
BYLAYER
  9
$CECOLOR
 62
   256
  9
$CELTSCALE
 40
50.0
  9
$DISPSILH
 70
     0
  9
$DIMSCALE
 40
40.0
  9
$DIMASZ
 40
2.5
  9
$DIMEXO
 40
0.5
  9
$DIMDLI
 40
7.0
  9
$DIMRND
 40
0.0
  9
$DIMDLE
 40
0.0
  9
$DIMEXE
 40
1.5
  9
$DIMTP
 40
0.0
  9
$DIMTM
 40
0.0
  9
$DIMTXT
 40
3.0
  9
$DIMCEN
 40
0.0
  9
$DIMTSZ
 40
0.0
  9
$DIMTOL
 70
     0
  9
$DIMLIM
 70
     0
  9
$DIMTIH
 70
     0
  9
$DIMTOH
 70
     0
  9
$DIMSE1
 70
     0
  9
$DIMSE2
 70
     0
  9
$DIMTAD
 70
     3
  9
$DIMZIN
 70
     8
  9
$DIMBLK
  1

  9
$DIMASO
 70
     1
  9
$DIMSHO
 70
     1
  9
$DIMPOST
  1

  9
$DIMAPOST
  1

  9
$DIMALT
 70
     0
  9
$DIMALTD
 70
     2
  9
$DIMALTF
 40
0.0394
  9
$DIMLFAC
 40
1.0
  9
$DIMTOFL
 70
     1
  9
$DIMTVP
 40
0.0
  9
$DIMTIX
 70
     1
  9
$DIMSOXD
 70
     0
  9
$DIMSAH
 70
     1
  9
$DIMBLK1
  1
DOTSMALL
  9
$DIMBLK2
  1
DOTSMALL
  9
$DIMSTYLE
  2
INABA_S40G
  9
$DIMCLRD
 70
     0
  9
$DIMCLRE
 70
     0
  9
$DIMCLRT
 70
     7
  9
$DIMTFAC
 40
1.0
  9
$DIMGAP
 40
1.0
  9
$DIMJUST
 70
     0
  9
$DIMSD1
 70
     0
  9
$DIMSD2
 70
     0
  9
$DIMTOLJ
 70
     1
  9
$DIMTZIN
 70
     0
  9
$DIMALTZ
 70
     0
  9
$DIMALTTZ
 70
     0
  9
$DIMUPT
 70
     0
  9
$DIMDEC
 70
     1
  9
$DIMTDEC
 70
     4
  9
$DIMALTU
 70
     2
  9
$DIMALTTD
 70
     2
  9
$DIMTXSTY
  7
STYLE1
  9
$DIMAUNIT
 70
     0
  9
$DIMADEC
 70
     0
  9
$DIMALTRND
 40
0.0
  9
$DIMAZIN
 70
     0
  9
$DIMDSEP
 70
    46
  9
$DIMATFIT
 70
     3
  9
$DIMFRAC
 70
     0
  9
$DIMLDRBLK
  1

  9
$DIMLUNIT
 70
     2
  9
$DIMLWD
 70
    -2
  9
$DIMLWE
 70
    -2
  9
$DIMTMOVE
 70
     0
  9
$LUNITS
 70
     2
  9
$LUPREC
 70
     1
  9
$SKETCHINC
 40
1.0
  9
$FILLETRAD
 40
3.0
  9
$AUNITS
 70
     0
  9
$AUPREC
 70
     0
  9
$MENU
  1
acad
  9
$ELEVATION
 40
0.0
  9
$PELEVATION
 40
0.0
  9
$THICKNESS
 40
0.0
  9
$LIMCHECK
 70
     0
  9
$CHAMFERA
 40
0.0
  9
$CHAMFERB
 40
0.0
  9
$CHAMFERC
 40
0.0
  9
$CHAMFERD
 40
0.0
  9
$SKPOLY
 70
     0
  9
$TDCREATE
 40
2451368.612993866
  9
$TDUCREATE
 40
2451368.237993866
  9
$TDUPDATE
 40
2455575.686415290
  9
$TDUUPDATE
 40
2455575.311415290
  9
$TDINDWG
 40
0.7433381019
  9
$TDUSRTIMER
 40
0.7433381019
  9
$USRTIMER
 70
     1
  9
$ANGBASE
 50
0.0
  9
$ANGDIR
 70
     0
  9
$PDMODE
 70
     3
  9
$PDSIZE
 40
2.0
  9
$PLINEWID
 40
0.0
  9
$SPLFRAME
 70
     0
  9
$SPLINETYPE
 70
     6
  9
$SPLINESEGS
 70
     8
  9
$HANDSEED
  5
19D46
  9
$SURFTAB1
 70
     6
  9
$SURFTAB2
 70
     6
  9
$SURFTYPE
 70
     6
  9
$SURFU
 70
     6
  9
$SURFV
 70
     6
  9
$UCSBASE
  2

  9
$UCSNAME
  2

  9
$UCSORG
 10
0.0
 20
0.0
 30
0.0
  9
$UCSXDIR
 10
1.0
 20
0.0
 30
0.0
  9
$UCSYDIR
 10
0.0
 20
1.0
 30
0.0
  9
$UCSORTHOREF
  2

  9
$UCSORTHOVIEW
 70
     0
  9
$UCSORGTOP
 10
0.0
 20
0.0
 30
0.0
  9
$UCSORGBOTTOM
 10
0.0
 20
0.0
 30
0.0
  9
$UCSORGLEFT
 10
0.0
 20
0.0
 30
0.0
  9
$UCSORGRIGHT
 10
0.0
 20
0.0
 30
0.0
  9
$UCSORGFRONT
 10
0.0
 20
0.0
 30
0.0
  9
$UCSORGBACK
 10
0.0
 20
0.0
 30
0.0
  9
$PUCSBASE
  2

  9
$PUCSNAME
  2

  9
$PUCSORG
 10
0.0
 20
0.0
 30
0.0
  9
$PUCSXDIR
 10
1.0
 20
0.0
 30
0.0
  9
$PUCSYDIR
 10
0.0
 20
1.0
 30
0.0
  9
$PUCSORTHOREF
  2

  9
$PUCSORTHOVIEW
 70
     0
  9
$PUCSORGTOP
 10
0.0
 20
0.0
 30
0.0
  9
$PUCSORGBOTTOM
 10
0.0
 20
0.0
 30
0.0
  9
$PUCSORGLEFT
 10
0.0
 20
0.0
 30
0.0
  9
$PUCSORGRIGHT
 10
0.0
 20
0.0
 30
0.0
  9
$PUCSORGFRONT
 10
0.0
 20
0.0
 30
0.0
  9
$PUCSORGBACK
 10
0.0
 20
0.0
 30
0.0
  9
$USERI1
 70
     0
  9
$USERI2
 70
     0
  9
$USERI3
 70
     0
  9
$USERI4
 70
     0
  9
$USERI5
 70
     0
  9
$USERR1
 40
0.0
  9
$USERR2
 40
0.0
  9
$USERR3
 40
0.0
  9
$USERR4
 40
0.0
  9
$USERR5
 40
0.0
  9
$WORLDVIEW
 70
     1
  9
$SHADEDGE
 70
     3
  9
$SHADEDIF
 70
    70
  9
$TILEMODE
 70
     1
  9
$MAXACTVP
 70
    16
  9
$PINSBASE
 10
0.0
 20
0.0
 30
0.0
  9
$PLIMCHECK
 70
     0
  9
$PEXTMIN
 10
1.000000000000000E+20
 20
1.000000000000000E+20
 30
1.000000000000000E+20
  9
$PEXTMAX
 10
-1.000000000000000E+20
 20
-1.000000000000000E+20
 30
-1.000000000000000E+20
  9
$PLIMMIN
 10
0.0
 20
0.0
  9
$PLIMMAX
 10
420.0
 20
297.0
  9
$UNITMODE
 70
     0
  9
$VISRETAIN
 70
     0
  9
$PLINEGEN
 70
     0
  9
$PSLTSCALE
 70
     0
  9
$TREEDEPTH
 70
  3020
  9
$CMLSTYLE
  2
STANDARD
  9
$CMLJUST
 70
     0
  9
$CMLSCALE
 40
1.0
  9
$PROXYGRAPHICS
 70
     1
  9
$MEASUREMENT
 70
     1
  9
$CELWEIGHT
370
    -1
  9
$ENDCAPS
280
     0
  9
$JOINSTYLE
280
     0
  9
$LWDISPLAY
290
     0
  9
$INSUNITS
 70
     0
  9
$HYPERLINKBASE
  1

  9
$STYLESHEET
  1

  9
$XEDIT
290
     1
  9
$CEPSNTYPE
380
     0
  9
$PSTYLEMODE
290
     1
  9
$FINGERPRINTGUID
  2
{50B3FC10-4259-447F-A892-6E35413BD435}
  9
$VERSIONGUID
  2
{F188ECD4-1C9A-43B9-9DE9-89E2246EDA05}
  9
$EXTNAMES
290
     1
  9
$PSVPSCALE
 40
0.0
  9
$OLESTARTUP
290
     0
  0
ENDSEC
  0
SECTION
  2
CLASSES
  0
CLASS
  1
ACDBDICTIONARYWDFLT
  2
AcDbDictionaryWithDefault
  3
ObjectDBX Classes
 90
        0
280
     0
281
     0
  0
CLASS
  1
DICTIONARYVAR
  2
AcDbDictionaryVar
  3
ObjectDBX Classes
 90
        0
280
     0
281
     0
  0
CLASS
  1
ACDBPLACEHOLDER
  2
AcDbPlaceHolder
  3
ObjectDBX Classes
 90
        0
280
     0
281
     0
  0
CLASS
  1
LAYOUT
  2
AcDbLayout
  3
ObjectDBX Classes
 90
        0
280
     0
281
     0
  0
ENDSEC
  0
SECTION
  2
TABLES
  0
TABLE
  2
VPORT
  5
746D
330
0
100
AcDbSymbolTable
 70
     2
  0
VPORT
  5
19D3E
330
746D
100
AcDbSymbolTableRecord
100
AcDbViewportTableRecord
  2
*Active
 70
     0
 10
0.0
 20
0.0
 11
1.0
 21
1.0
 12
8223.761025238502
 22
6348.703162895247
 13
0.0
 23
0.0
 14
10.0
 24
10.0
 15
10.0
 25
10.0
 16
0.0
 26
0.0
 36
1.0
 17
0.0
 27
0.0
 37
0.0
 40
12805.60689082044
 41
1.525925925925925
 42
50.0
 43
0.0
 44
0.0
 50
0.0
 51
0.0
 71
     0
 72
     0
 73
     1
 74
     0
 75
     0
 76
     0
 77
     0
 78
     0
281
     0
 65
     1
110
0.0
120
0.0
130
0.0
111
1.0
121
0.0
131
0.0
112
0.0
122
1.0
132
0.0
 79
     0
146
0.0
  0
ENDTAB
  0
TABLE
  2
LTYPE
  5
746A
330
0
100
AcDbSymbolTable
 70
     4
  0
LTYPE
  5
7477
330
746A
100
AcDbSymbolTableRecord
100
AcDbLinetypeTableRecord
  2
BYBLOCK
 70
     0
  3

 72
    65
 73
     0
 40
0.0
  0
LTYPE
  5
7478
330
746A
100
AcDbSymbolTableRecord
100
AcDbLinetypeTableRecord
  2
BYLAYER
 70
     0
  3

 72
    65
 73
     0
 40
0.0
  0
LTYPE
  5
7479
330
746A
100
AcDbSymbolTableRecord
100
AcDbLinetypeTableRecord
  2
CONTINUOUS
 70
     0
  3
Solid line
 72
    65
 73
     0
 40
0.0
  0
LTYPE
  5
7816
330
746A
100
AcDbSymbolTableRecord
100
AcDbLinetypeTableRecord
  2
CENTER
 70
     0
  3
____ _ ____ _ ____ _ ____ _ ____ _ ____ _ ____ 
 72
    65
 73
     4
 40
2.0
 49
1.25
 74
     0
 49
-0.25
 74
     0
 49
0.25
 74
     0
 49
-0.25
 74
     0
  0
LTYPE
  5
781A
330
746A
100
AcDbSymbolTableRecord
100
AcDbLinetypeTableRecord
  2
HIDDEN
 70
     0
  3
__ __ __ __ __ __ __ __ __ __ __ __ __ __ __ __
 72
    65
 73
     2
 40
0.375
 49
0.25
 74
     0
 49
-0.125
 74
     0
  0
LTYPE
  5
781B
330
746A
100
AcDbSymbolTableRecord
100
AcDbLinetypeTableRecord
  2
PHANTOM
 70
     0
  3
______  __  __  ______  __  __  ______  __  __ 
 72
    65
 73
     6
 40
2.5
 49
1.25
 74
     0
 49
-0.25
 74
     0
 49
0.25
 74
     0
 49
-0.25
 74
     0
 49
0.25
 74
     0
 49
-0.25
 74
     0
  0
ENDTAB
  0
TABLE
  2
LAYER
  5
7467
102
{ACAD_XDICTIONARY
360
18677
102
}
330
0
100
AcDbSymbolTable
 70
    12
  0
LAYER
  5
7474
330
7467
100
AcDbSymbolTableRecord
100
AcDbLayerTableRecord
  2
0
 70
     0
 62
     7
  6
CONTINUOUS
370
    -3
390
184DB
  0
LAYER
  5
DEB2
330
7467
100
AcDbSymbolTableRecord
100
AcDbLayerTableRecord
  2
センター
 70
     0
 62
     3
  6
CENTER
370
    -3
390
184DB
  0
LAYER
  5
DEB3
330
7467
100
AcDbSymbolTableRecord
100
AcDbLayerTableRecord
  2
寸法
 70
     0
 62
     4
  6
CONTINUOUS
370
    -3
390
184DB
  0
LAYER
  5
DEB4
330
7467
100
AcDbSymbolTableRecord
100
AcDbLayerTableRecord
  2
部品1
 70
     0
 62
     7
  6
CONTINUOUS
370
    -3
390
184DB
  0
LAYER
  5
DEB5
330
7467
100
AcDbSymbolTableRecord
100
AcDbLayerTableRecord
  2
補助
 70
     0
 62
    -1
  6
CONTINUOUS
370
    -3
390
184DB
  0
LAYER
  5
DEB6
330
7467
100
AcDbSymbolTableRecord
100
AcDbLayerTableRecord
  2
文字
 70
     0
 62
     7
  6
CONTINUOUS
370
    -3
390
184DB
  0
LAYER
  5
F255
330
7467
100
AcDbSymbolTableRecord
100
AcDbLayerTableRecord
  2
DEFPOINTS
 70
     0
 62
     7
  6
CONTINUOUS
290
     0
370
    -3
390
184DB
  0
LAYER
  5
10B54
330
7467
100
AcDbSymbolTableRecord
100
AcDbLayerTableRecord
  2
仕様書枠
 70
     0
 62
   230
  6
CONTINUOUS
370
    -3
390
184DB
  0
LAYER
  5
11729
330
7467
100
AcDbSymbolTableRecord
100
AcDbLayerTableRecord
  2
Ｇ．Ｌ
 70
     0
 62
    30
  6
CONTINUOUS
370
    -3
390
184DB
  0
LAYER
  5
1173F
330
7467
100
AcDbSymbolTableRecord
100
AcDbLayerTableRecord
  2
細線
 70
     0
 62
     5
  6
CONTINUOUS
370
    -3
390
184DB
  0
LAYER
  5
12CC4
330
7467
100
AcDbSymbolTableRecord
100
AcDbLayerTableRecord
  2
想像線
 70
     0
 62
     6
  6
PHANTOM
370
    -3
390
184DB
  0
LAYER
  5
142E2
330
7467
100
AcDbSymbolTableRecord
100
AcDbLayerTableRecord
  2
破線
 70
     0
 62
     2
  6
HIDDEN
370
    -3
390
184DB
  0
ENDTAB
  0
TABLE
  2
STYLE
  5
7468
330
0
100
AcDbSymbolTable
 70
     4
  0
STYLE
  5
7475
330
7468
100
AcDbSymbolTableRecord
100
AcDbTextStyleTableRecord
  2
STANDARD
 70
     0
 40
0.0
 41
1.0
 50
0.0
 71
     0
 42
4.0
  3
txt
  4
C:\AutoCAD LT\bigfont.shx
  0
STYLE
  5
F706
330
7468
100
AcDbSymbolTableRecord
100
AcDbTextStyleTableRecord
  2
STYLE1
 70
     0
 40
0.0
 41
1.0
 50
0.0
 71
     0
 42
4.0
  3
isocp.shx
  4
bigfont.shx
  0
STYLE
  5
103BF
330
7468
100
AcDbSymbolTableRecord
100
AcDbTextStyleTableRecord
  2
STYLE2
 70
     0
 40
0.0
 41
1.0
 50
0.0
 71
     0
 42
100.0
  3
MS PGothic.ttf
  4

1001
ACAD
1000
MS PGothic
1071
    32818
  0
STYLE
  5
19588
330
7468
100
AcDbSymbolTableRecord
100
AcDbTextStyleTableRecord
  2
STYLE3
 70
     0
 40
0.0
 41
1.0
 50
0.0
 71
     0
 42
100.0
  3

  4

1001
ACAD
1000
DFPGothic-EB
1071
    32818
  0
ENDTAB
  0
TABLE
  2
VIEW
  5
746B
330
0
100
AcDbSymbolTable
 70
     0
  0
ENDTAB
  0
TABLE
  2
UCS
  5
746C
330
0
100
AcDbSymbolTable
 70
     0
  0
ENDTAB
  0
TABLE
  2
APPID
  5
746E
330
0
100
AcDbSymbolTable
 70
     6
  0
APPID
  5
7476
330
746E
100
AcDbSymbolTableRecord
100
AcDbRegAppTableRecord
  2
ACAD
 70
     0
  0
APPID
  5
DEA9
330
746E
100
AcDbSymbolTableRecord
100
AcDbRegAppTableRecord
  2
CONTENTBLOCKICON
 70
     0
  0
APPID
  5
DEAA
330
746E
100
AcDbSymbolTableRecord
100
AcDbRegAppTableRecord
  2
CONTENTBLOCKDESCRIPTION
 70
     0
  0
APPID
  5
E71D
330
746E
100
AcDbSymbolTableRecord
100
AcDbRegAppTableRecord
  2
CONTENTTABDATA
 70
     0
  0
APPID
  5
E71E
330
746E
100
AcDbSymbolTableRecord
100
AcDbRegAppTableRecord
  2
CONTENTCURRENTTAB
 70
     0
  0
APPID
  5
F3BA
330
746E
100
AcDbSymbolTableRecord
100
AcDbRegAppTableRecord
  2
DRAWINGVARIABLESXDATA
 70
     0
  0
ENDTAB
  0
TABLE
  2
DIMSTYLE
  5
746F
330
0
100
AcDbSymbolTable
 70
     5
100
AcDbDimStyleTable
 71
     0
  0
DIMSTYLE
105
7484
330
746F
100
AcDbSymbolTableRecord
100
AcDbDimStyleTableRecord
  2
JIS
 70
     0
 41
2.5
 42
1.0
 43
7.0
 44
1.0
 73
     0
 74
     0
 77
     1
 78
     8
140
2.5
141
0.0
143
0.0394
147
0.0
172
     1
174
     1
175
     1
340
7475
  0
DIMSTYLE
105
F71F
102
{ACAD_REACTORS
330
17DB1
330
17E12
330
182B2
330
182BF
330
182C1
330
182C4
330
182C7
330
18337
330
18339
330
1833A
330
1834D
330
1834E
330
1834F
330
18ADA
330
18B15
330
18B16
330
18B17
330
18B6D
330
18B71
330
1927D
330
1927B
330
1927A
330
1927C
330
19279
330
19311
330
19310
330
1930F
330
1930E
330
1930D
330
1930C
330
19936
102
}
330
746F
100
AcDbSymbolTableRecord
100
AcDbDimStyleTableRecord
  2
INABA_S40G
 70
     0
 40
40.0
 41
2.5
 42
0.5
 43
7.0
 44
1.5
 73
     0
 74
     0
 77
     3
 78
     8
140
3.0
141
0.0
143
0.0394
147
1.0
172
     1
173
     1
174
     1
178
     7
271
     1
340
F706
341
F770
343
F770
344
F770
  0
DIMSTYLE
105
18676
102
{ACAD_REACTORS
330
19694
330
19B7C
102
}
330
746F
100
AcDbSymbolTableRecord
100
AcDbDimStyleTableRecord
  2
INABA_S40
 70
     0
 40
40.0
 41
2.5
 42
0.5
 43
7.0
 44
1.5
 73
     0
 74
     0
 77
     3
 78
     8
140
3.0
141
0.0
143
0.0394
147
1.0
172
     1
173
     1
174
     1
175
     1
178
     7
340
7475
  0
DIMSTYLE
105
19589
330
746F
100
AcDbSymbolTableRecord
100
AcDbDimStyleTableRecord
  2
INABA_S50G
 70
     0
 41
125.0
 42
25.0
 43
7.0
 44
75.0
 73
     0
 74
     0
 77
     3
 78
     8
140
150.0
141
0.0
143
0.0394
147
25.0
172
     1
173
     1
174
     1
175
     1
178
     7
271
     1
340
F706
341
F770
343
F770
344
F770
  0
DIMSTYLE
105
19CD4
330
746F
100
AcDbSymbolTableRecord
100
AcDbDimStyleTableRecord
  2
INABA_S20G
 70
     0
 40
20.0
 41
2.5
 42
0.5
 43
7.0
 44
1.5
 73
     0
 74
     0
 77
     3
 78
     8
140
3.0
141
0.0
143
0.0394
147
1.0
172
     1
173
     1
174
     1
178
     7
271
     1
340
F706
341
F770
343
F770
344
F770
  0
ENDTAB
  0
TABLE
  2
BLOCK_RECORD
  5
7466
330
0
100
AcDbSymbolTable
 70
    35
  0
BLOCK_RECORD
  5
747D
330
7466
100
AcDbSymbolTableRecord
100
AcDbBlockTableRecord
  2
*MODEL_SPACE
340
184E0
  0
BLOCK_RECORD
  5
747A
330
7466
100
AcDbSymbolTableRecord
100
AcDbBlockTableRecord
  2
*PAPER_SPACE
340
184E1
  0
BLOCK_RECORD
  5
F770
330
7466
100
AcDbSymbolTableRecord
100
AcDbBlockTableRecord
  2
_DOTSMALL
340
0
102
{BLKREFS
331
180C0
331
180C1
331
17EAB
331
17EAC
331
192DF
331
192E0
331
192E9
331
192EA
331
192F2
331
192F3
331
192FD
331
192FE
331
19306
331
19307
331
19362
331
19363
331
1936D
331
1936E
331
19376
331
19377
331
1937F
331
19380
331
19389
331
1938A
331
19392
331
19393
331
1943E
331
1943F
331
19447
331
19448
331
19450
331
19451
331
1945B
331
1945C
331
19464
331
19465
331
1946F
331
19470
331
19C50
331
19C51
331
19C62
331
19C63
331
19C6D
331
19C6E
331
19C78
331
19C79
331
19C83
331
19C84
331
19C8C
331
19C8D
331
19C95
331
19C96
331
19C9E
331
19C9F
331
19CA7
331
19CA8
331
19CB0
331
19CB1
331
19CB9
331
19CBA
331
19CC4
331
19CC5
102
}
  0
BLOCK_RECORD
  5
17E4D
330
7466
100
AcDbSymbolTableRecord
100
AcDbBlockTableRecord
  2
*D1
340
0
  0
BLOCK_RECORD
  5
17EA6
330
7466
100
AcDbSymbolTableRecord
100
AcDbBlockTableRecord
  2
*D2
340
0
  0
BLOCK_RECORD
  5
18357
330
7466
100
AcDbSymbolTableRecord
100
AcDbBlockTableRecord
  2
*D3
340
0
  0
BLOCK_RECORD
  5
18365
330
7466
100
AcDbSymbolTableRecord
100
AcDbBlockTableRecord
  2
*D4
340
0
  0
BLOCK_RECORD
  5
18371
330
7466
100
AcDbSymbolTableRecord
100
AcDbBlockTableRecord
  2
*D5
340
0
  0
BLOCK_RECORD
  5
1837D
330
7466
100
AcDbSymbolTableRecord
100
AcDbBlockTableRecord
  2
*D6
340
0
  0
BLOCK_RECORD
  5
18389
330
7466
100
AcDbSymbolTableRecord
100
AcDbBlockTableRecord
  2
*D7
340
0
  0
BLOCK_RECORD
  5
183A1
330
7466
100
AcDbSymbolTableRecord
100
AcDbBlockTableRecord
  2
*D8
340
0
  0
BLOCK_RECORD
  5
183AD
330
7466
100
AcDbSymbolTableRecord
100
AcDbBlockTableRecord
  2
*D9
340
0
  0
BLOCK_RECORD
  5
183B9
330
7466
100
AcDbSymbolTableRecord
100
AcDbBlockTableRecord
  2
*D10
340
0
  0
BLOCK_RECORD
  5
183D5
330
7466
100
AcDbSymbolTableRecord
100
AcDbBlockTableRecord
  2
*D11
340
0
  0
BLOCK_RECORD
  5
183E3
330
7466
100
AcDbSymbolTableRecord
100
AcDbBlockTableRecord
  2
*D12
340
0
  0
BLOCK_RECORD
  5
183F1
330
7466
100
AcDbSymbolTableRecord
100
AcDbBlockTableRecord
  2
*D13
340
0
  0
BLOCK_RECORD
  5
184E8
330
7466
100
AcDbSymbolTableRecord
100
AcDbBlockTableRecord
  2
_DOT
340
0
102
{BLKREFS
331
19C47
331
19C48
331
19C59
331
19C5A
102
}
  0
BLOCK_RECORD
  5
18BD5
330
7466
100
AcDbSymbolTableRecord
100
AcDbBlockTableRecord
  2
*D15
340
0
  0
BLOCK_RECORD
  5
18BE3
330
7466
100
AcDbSymbolTableRecord
100
AcDbBlockTableRecord
  2
*D16
340
0
  0
BLOCK_RECORD
  5
18BEF
330
7466
100
AcDbSymbolTableRecord
100
AcDbBlockTableRecord
  2
*D17
340
0
  0
BLOCK_RECORD
  5
18BFD
330
7466
100
AcDbSymbolTableRecord
100
AcDbBlockTableRecord
  2
*D18
340
0
  0
BLOCK_RECORD
  5
18C09
330
7466
100
AcDbSymbolTableRecord
100
AcDbBlockTableRecord
  2
*D19
340
0
  0
BLOCK_RECORD
  5
18C15
330
7466
100
AcDbSymbolTableRecord
100
AcDbBlockTableRecord
  2
*D20
340
0
  0
BLOCK_RECORD
  5
1929B
330
7466
100
AcDbSymbolTableRecord
100
AcDbBlockTableRecord
  2
*D21
340
0
  0
BLOCK_RECORD
  5
192A8
330
7466
100
AcDbSymbolTableRecord
100
AcDbBlockTableRecord
  2
*D22
340
0
  0
BLOCK_RECORD
  5
192B5
330
7466
100
AcDbSymbolTableRecord
100
AcDbBlockTableRecord
  2
*D23
340
0
  0
BLOCK_RECORD
  5
192C1
330
7466
100
AcDbSymbolTableRecord
100
AcDbBlockTableRecord
  2
*D24
340
0
  0
BLOCK_RECORD
  5
192CF
330
7466
100
AcDbSymbolTableRecord
100
AcDbBlockTableRecord
  2
*D25
340
0
  0
BLOCK_RECORD
  5
19312
330
7466
100
AcDbSymbolTableRecord
100
AcDbBlockTableRecord
  2
*D26
340
0
  0
BLOCK_RECORD
  5
1931F
330
7466
100
AcDbSymbolTableRecord
100
AcDbBlockTableRecord
  2
*D27
340
0
  0
BLOCK_RECORD
  5
1932D
330
7466
100
AcDbSymbolTableRecord
100
AcDbBlockTableRecord
  2
*D28
340
0
  0
BLOCK_RECORD
  5
19339
330
7466
100
AcDbSymbolTableRecord
100
AcDbBlockTableRecord
  2
*D29
340
0
  0
BLOCK_RECORD
  5
19345
330
7466
100
AcDbSymbolTableRecord
100
AcDbBlockTableRecord
  2
*D30
340
0
  0
BLOCK_RECORD
  5
19352
330
7466
100
AcDbSymbolTableRecord
100
AcDbBlockTableRecord
  2
*D31
340
0
  0
BLOCK_RECORD
  5
196FF
330
7466
100
AcDbSymbolTableRecord
100
AcDbBlockTableRecord
  2
*D32
340
0
  0
BLOCK_RECORD
  5
19A5C
330
7466
100
AcDbSymbolTableRecord
100
AcDbBlockTableRecord
  2
*D33
340
0
  0
BLOCK_RECORD
  5
19B7D
330
7466
100
AcDbSymbolTableRecord
100
AcDbBlockTableRecord
  2
*D34
340
0
  0
ENDTAB
  0
ENDSEC
  0
SECTION
  2
BLOCKS
  0
BLOCK
  5
7489
330
747D
100
AcDbEntity
  8
0
100
AcDbBlockBegin
  2
*MODEL_SPACE
 70
     0
 10
0.0
 20
0.0
 30
0.0
  3
*MODEL_SPACE
  1

  0
ENDBLK
  5
748A
330
747D
100
AcDbEntity
  8
0
100
AcDbBlockEnd
  0
BLOCK
  5
7487
330
747A
100
AcDbEntity
 67
     1
  8
0
100
AcDbBlockBegin
  2
*PAPER_SPACE
 70
     0
 10
0.0
 20
0.0
 30
0.0
  3
*PAPER_SPACE
  1

  0
ENDBLK
  5
7488
330
747A
100
AcDbEntity
 67
     1
  8
0
100
AcDbBlockEnd
  0
BLOCK
  5
F771
330
F770
100
AcDbEntity
  8
0
 48
50.0
100
AcDbBlockBegin
  2
_DOTSMALL
 70
     0
 10
0.0
 20
0.0
 30
0.0
  3
_DOTSMALL
  1

  0
LWPOLYLINE
  5
F772
330
F770
100
AcDbEntity
  8
0
  6
ByBlock
 62
     0
 48
50.0
100
AcDbPolyline
 90
        2
 70
     1
 43
0.5
 10
-0.0625
 20
0.0
 42
1.0
 10
0.0625
 20
0.0
 42
1.0
  0
ENDBLK
  5
F776
330
F770
100
AcDbEntity
  8
0
 48
50.0
100
AcDbBlockEnd
  0
BLOCK
  5
180BC
330
17E4D
100
AcDbEntity
  8
0
 48
50.0
100
AcDbBlockBegin
  2
*D1
 70
     1
 10
0.0
 20
0.0
 30
0.0
  3
*D1
  1

  0
LINE
  5
180BD
330
17E4D
100
AcDbEntity
  8
0
  6
ByBlock
 62
     0
 48
50.0
100
AcDbLine
 10
8355.021140942925
 20
2314.837748007311
 30
0.0
 11
8355.021140942925
 21
1988.790418706934
 31
0.0
  0
LINE
  5
180BE
330
17E4D
100
AcDbEntity
  8
0
  6
ByBlock
 62
     0
 48
50.0
100
AcDbLine
 10
8105.021140942923
 20
2314.837748007311
 30
0.0
 11
8105.021140942923
 21
1988.790418706934
 31
0.0
  0
LINE
  5
180BF
330
17E4D
100
AcDbEntity
  8
0
  6
ByBlock
 62
     0
 48
50.0
100
AcDbLine
 10
8355.021140942925
 20
2048.790418706934
 30
0.0
 11
8105.021140942923
 21
2048.790418706934
 31
0.0
  0
INSERT
  5
180C0
330
17E4D
100
AcDbEntity
  8
0
  6
ByBlock
 62
     0
 48
50.0
100
AcDbBlockReference
  2
_DOTSMALL
 10
8355.021140942925
 20
2048.790418706934
 30
0.0
 41
100.0
 42
100.0
 43
100.0
  0
INSERT
  5
180C1
330
17E4D
100
AcDbEntity
  8
0
  6
ByBlock
 62
     0
 48
50.0
100
AcDbBlockReference
  2
_DOTSMALL
 10
8105.021140942923
 20
2048.790418706934
 30
0.0
 41
100.0
 42
100.0
 43
100.0
 50
180.0
  0
MTEXT
  5
180C2
330
17E4D
100
AcDbEntity
  8
0
  6
ByBlock
 62
     7
 48
50.0
100
AcDbMText
 10
8230.021140942925
 20
2148.802229730557
 30
0.0
 40
120.0
 41
0.0
 71
     5
 72
     1
  1
\A1;250
  7
STYLE1
 73
     1
 44
1.0
1001
ACAD
1000
MTEXTBEGIN
1070
    73
1070
     1
1070
    44
1040
1.0
1070
    74
1070
     0
1000
MTEXTEND
  0
POINT
  5
180C3
330
17E4D
100
AcDbEntity
  8
DEFPOINTS
  6
ByBlock
 62
     0
 48
50.0
100
AcDbPoint
 10
8355.021140942925
 20
2334.837748007311
 30
0.0
  0
POINT
  5
180C4
330
17E4D
100
AcDbEntity
  8
DEFPOINTS
  6
ByBlock
 62
     0
 48
50.0
100
AcDbPoint
 10
8105.021140942923
 20
2334.837748007311
 30
0.0
  0
POINT
  5
180C5
330
17E4D
100
AcDbEntity
  8
DEFPOINTS
  6
ByBlock
 62
     0
 48
50.0
100
AcDbPoint
 10
8105.021140942923
 20
2048.790418706934
 30
0.0
  0
ENDBLK
  5
180C6
330
17E4D
100
AcDbEntity
  8
0
 48
50.0
100
AcDbBlockEnd
  0
BLOCK
  5
17EA7
330
17EA6
100
AcDbEntity
  8
0
 48
50.0
100
AcDbBlockBegin
  2
*D2
 70
     1
 10
0.0
 20
0.0
 30
0.0
  3
*D2
  1

  0
LINE
  5
17EA8
330
17EA6
100
AcDbEntity
  8
0
  6
ByBlock
 62
     0
 48
50.0
100
AcDbLine
 10
11335.40532649819
 20
-3273.90939766699
 30
0.0
 11
12066.61890548426
 21
-3273.90939766699
 31
0.0
  0
LINE
  5
17EA9
330
17EA6
100
AcDbEntity
  8
0
  6
ByBlock
 62
     0
 48
50.0
100
AcDbLine
 10
11415.4053264982
 20
-1253.90939766699
 30
0.0
 11
12066.61890548426
 21
-1253.90939766699
 31
0.0
  0
LINE
  5
17EAA
330
17EA6
100
AcDbEntity
  8
0
  6
ByBlock
 62
     0
 48
50.0
100
AcDbLine
 10
12006.61890548426
 20
-3273.90939766699
 30
0.0
 11
12006.61890548426
 21
-1253.90939766699
 31
0.0
  0
INSERT
  5
17EAB
330
17EA6
100
AcDbEntity
  8
0
  6
ByBlock
 62
     0
 48
50.0
100
AcDbBlockReference
  2
_DOTSMALL
 10
12006.61890548426
 20
-3273.90939766699
 30
0.0
 41
100.0
 42
100.0
 43
100.0
 50
270.0
  0
INSERT
  5
17EAC
330
17EA6
100
AcDbEntity
  8
0
  6
ByBlock
 62
     0
 48
50.0
100
AcDbBlockReference
  2
_DOTSMALL
 10
12006.61890548426
 20
-1253.90939766699
 30
0.0
 41
100.0
 42
100.0
 43
100.0
 50
90.0
  0
MTEXT
  5
17EAD
330
17EA6
100
AcDbEntity
  8
0
  6
ByBlock
 62
     7
 48
50.0
100
AcDbMText
 10
11906.60709446064
 20
-2263.90939766699
 30
0.0
 40
120.0
 41
0.0
 71
     5
 72
     1
  1
\A1;2020
  7
STYLE1
 11
0.0000000000000001
 21
1.0
 31
0.0
 73
     1
 44
1.0
1001
ACAD
1000
MTEXTBEGIN
1070
    73
1070
     1
1070
    44
1040
1.0
1070
    74
1070
     0
1000
MTEXTEND
  0
POINT
  5
17EAE
330
17EA6
100
AcDbEntity
  8
DEFPOINTS
  6
ByBlock
 62
     0
 48
50.0
100
AcDbPoint
 10
11315.40532649819
 20
-3273.90939766699
 30
0.0
  0
POINT
  5
17EAF
330
17EA6
100
AcDbEntity
  8
DEFPOINTS
  6
ByBlock
 62
     0
 48
50.0
100
AcDbPoint
 10
11395.4053264982
 20
-1253.90939766699
 30
0.0
  0
POINT
  5
17EB0
330
17EA6
100
AcDbEntity
  8
DEFPOINTS
  6
ByBlock
 62
     0
 48
50.0
100
AcDbPoint
 10
12006.61890548426
 20
-1253.90939766699
 30
0.0
  0
ENDBLK
  5
17EB1
330
17EA6
100
AcDbEntity
  8
0
 48
50.0
100
AcDbBlockEnd
  0
BLOCK
  5
183FD
330
18357
100
AcDbEntity
  8
0
 48
50.0
100
AcDbBlockBegin
  2
*D3
 70
     1
 10
0.0
 20
0.0
 30
0.0
  3
*D3
  1

  0
LINE
  5
19CBF
330
18357
100
AcDbEntity
  8
寸法
 62
     0
 48
50.0
370
    -2
100
AcDbLine
 10
8230.021140942886
 20
9478.469353485868
 30
0.0
 11
8230.021140942886
 21
9818.46935348587
 31
0.0
  0
LINE
  5
19CC0
330
18357
100
AcDbEntity
  8
寸法
 62
     0
 48
50.0
370
    -2
100
AcDbLine
 10
8285.021140942918
 20
9478.469353485868
 30
0.0
 11
8285.021140942918
 21
9818.46935348587
 31
0.0
  0
LINE
  5
19CC1
330
18357
100
AcDbEntity
  8
寸法
 62
     0
 48
50.0
370
    -2
100
AcDbLine
 10
8285.021140942918
 20
9758.469353485869
 30
0.0
 11
8385.021140942917
 21
9758.469353485869
 31
0.0
  0
LINE
  5
19CC2
330
18357
100
AcDbEntity
  8
寸法
 62
     0
 48
50.0
370
    -2
100
AcDbLine
 10
8230.021140942886
 20
9758.469353485869
 30
0.0
 11
7813.050578194405
 21
9758.469353485869
 31
0.0
  0
LINE
  5
19CC3
330
18357
100
AcDbEntity
  8
寸法
 62
     0
 48
50.0
370
    -2
100
AcDbLine
 10
8285.021140942918
 20
9758.469353485869
 30
0.0
 11
8230.021140942886
 21
9758.469353485869
 31
0.0
  0
INSERT
  5
19CC4
330
18357
100
AcDbEntity
  8
寸法
 62
     0
 48
50.0
370
    -2
100
AcDbBlockReference
  2
_DOTSMALL
 10
8285.021140942918
 20
9758.469353485869
 30
0.0
 41
100.0
 42
100.0
 43
100.0
 50
180.0
  0
INSERT
  5
19CC5
330
18357
100
AcDbEntity
  8
寸法
 62
     0
 48
50.0
370
    -2
100
AcDbBlockReference
  2
_DOTSMALL
 10
8230.021140942886
 20
9758.469353485869
 30
0.0
 41
100.0
 42
100.0
 43
100.0
  0
MTEXT
  5
19CC6
330
18357
100
AcDbEntity
  8
寸法
 62
     7
 48
50.0
100
AcDbMText
 10
7921.535859568646
 20
9858.469353485869
 30
0.0
 40
120.0
 41
0.0
 71
     5
 72
     1
  1
\A1;55
  7
STYLE1
 73
     1
 44
1.0
1001
ACAD
1000
MTEXTBEGIN
1070
    73
1070
     1
1070
    44
1040
1.0
1070
    74
1070
     0
1000
MTEXTEND
  0
POINT
  5
19CC7
330
18357
100
AcDbEntity
  8
DEFPOINTS
 62
     0
 48
50.0
100
AcDbPoint
 10
8230.021140942886
 20
9458.469353485869
 30
0.0
  0
POINT
  5
19CC8
330
18357
100
AcDbEntity
  8
DEFPOINTS
 62
     0
 48
50.0
100
AcDbPoint
 10
8285.021140942918
 20
9458.469353485869
 30
0.0
  0
POINT
  5
19CC9
330
18357
100
AcDbEntity
  8
DEFPOINTS
 62
     0
 48
50.0
100
AcDbPoint
 10
8285.021140942918
 20
9758.469353485869
 30
0.0
  0
ENDBLK
  5
18409
330
18357
100
AcDbEntity
  8
0
 48
50.0
100
AcDbBlockEnd
  0
BLOCK
  5
1840A
330
18365
100
AcDbEntity
  8
0
 48
50.0
100
AcDbBlockBegin
  2
*D4
 70
     1
 10
0.0
 20
0.0
 30
0.0
  3
*D4
  1

  0
LINE
  5
19CB6
330
18365
100
AcDbEntity
  8
寸法
 62
     0
 48
50.0
370
    -2
100
AcDbLine
 10
9763.162157094289
 20
8958.469353486041
 30
0.0
 11
9661.4922884903
 21
8579.032238257102
 31
0.0
  0
LINE
  5
19CB7
330
18365
100
AcDbEntity
  8
寸法
 62
     0
 48
50.0
370
    -2
100
AcDbLine
 10
11246.1621570943
 20
8958.469353486032
 30
0.0
 11
11144.49228849031
 21
8579.032238257102
 31
0.0
  0
LINE
  5
19CB8
330
18365
100
AcDbEntity
  8
寸法
 62
     0
 48
50.0
370
    -2
100
AcDbLine
 10
9677.569240036167
 20
8639.032238257101
 30
0.0
 11
11160.56924003618
 21
8639.032238257101
 31
0.0
  0
INSERT
  5
19CB9
330
18365
100
AcDbEntity
  8
寸法
 62
     0
 48
50.0
370
    -2
100
AcDbBlockReference
  2
_DOTSMALL
 10
9677.569240036167
 20
8639.032238257101
 30
0.0
 41
100.0
 42
100.0
 43
100.0
 50
180.0
  0
INSERT
  5
19CBA
330
18365
100
AcDbEntity
  8
寸法
 62
     0
 48
50.0
370
    -2
100
AcDbBlockReference
  2
_DOTSMALL
 10
11160.56924003618
 20
8639.032238257101
 30
0.0
 41
100.0
 42
100.0
 43
100.0
  0
MTEXT
  5
19CBB
330
18365
100
AcDbEntity
  8
寸法
 62
     7
 48
50.0
100
AcDbMText
 10
10267.24389645567
 20
8739.032238257101
 30
0.0
 40
120.0
 41
0.0
 71
     5
 72
     1
  1
\A1;1483
  7
STYLE1
 73
     1
 44
1.0
1001
ACAD
1000
MTEXTBEGIN
1070
    73
1070
     1
1070
    44
1040
1.0
1070
    74
1070
     0
1000
MTEXTEND
  0
POINT
  5
19CBC
330
18365
100
AcDbEntity
  8
DEFPOINTS
 62
     0
 48
50.0
100
AcDbPoint
 10
9768.52114094291
 20
8978.469353486039
 30
0.0
  0
POINT
  5
19CBD
330
18365
100
AcDbEntity
  8
DEFPOINTS
 62
     0
 48
50.0
100
AcDbPoint
 10
11251.52114094292
 20
8978.469353486032
 30
0.0
  0
POINT
  5
19CBE
330
18365
100
AcDbEntity
  8
DEFPOINTS
 62
     0
 48
50.0
100
AcDbPoint
 10
11160.56924003618
 20
8639.032238257101
 30
0.0
  0
ENDBLK
  5
18414
330
18365
100
AcDbEntity
  8
0
 48
50.0
100
AcDbBlockEnd
  0
BLOCK
  5
18415
330
18371
100
AcDbEntity
  8
0
 48
50.0
100
AcDbBlockBegin
  2
*D5
 70
     1
 10
0.0
 20
0.0
 30
0.0
  3
*D5
  1

  0
LINE
  5
19CAD
330
18371
100
AcDbEntity
  8
寸法
 62
     0
 48
50.0
370
    -2
100
AcDbLine
 10
8230.021140942913
 20
8068.469353485793
 30
0.0
 11
8230.021140942913
 21
6744.364487931496
 31
0.0
  0
LINE
  5
19CAE
330
18371
100
AcDbEntity
  8
寸法
 62
     0
 48
50.0
370
    -2
100
AcDbLine
 10
11280.02114094289
 20
8068.469353485957
 30
0.0
 11
11280.02114094289
 21
6744.364487931496
 31
0.0
  0
LINE
  5
19CAF
330
18371
100
AcDbEntity
  8
寸法
 62
     0
 48
50.0
370
    -2
100
AcDbLine
 10
8230.021140942913
 20
6804.364487931497
 30
0.0
 11
11280.02114094289
 21
6804.364487931497
 31
0.0
  0
INSERT
  5
19CB0
330
18371
100
AcDbEntity
  8
寸法
 62
     0
 48
50.0
370
    -2
100
AcDbBlockReference
  2
_DOTSMALL
 10
8230.021140942913
 20
6804.364487931497
 30
0.0
 41
100.0
 42
100.0
 43
100.0
 50
180.0
  0
INSERT
  5
19CB1
330
18371
100
AcDbEntity
  8
寸法
 62
     0
 48
50.0
370
    -2
100
AcDbBlockReference
  2
_DOTSMALL
 10
11280.02114094289
 20
6804.364487931497
 30
0.0
 41
100.0
 42
100.0
 43
100.0
  0
MTEXT
  5
19CB2
330
18371
100
AcDbEntity
  8
寸法
 62
     7
 48
50.0
100
AcDbMText
 10
9774.736971316846
 20
6904.364487931497
 30
0.0
 40
120.0
 41
0.0
 71
     5
 72
     1
  1
\A1;3050
  7
STYLE1
 73
     1
 44
1.0
1001
ACAD
1000
MTEXTBEGIN
1070
    73
1070
     1
1070
    44
1040
1.0
1070
    74
1070
     0
1000
MTEXTEND
  0
POINT
  5
19CB3
330
18371
100
AcDbEntity
  8
DEFPOINTS
 62
     0
 48
50.0
100
AcDbPoint
 10
8230.021140942913
 20
8088.469353485793
 30
0.0
  0
POINT
  5
19CB4
330
18371
100
AcDbEntity
  8
DEFPOINTS
 62
     0
 48
50.0
100
AcDbPoint
 10
11280.02114094289
 20
8088.469353485956
 30
0.0
  0
POINT
  5
19CB5
330
18371
100
AcDbEntity
  8
DEFPOINTS
 62
     0
 48
50.0
100
AcDbPoint
 10
11280.02114094289
 20
6804.364487931497
 30
0.0
  0
ENDBLK
  5
1841F
330
18371
100
AcDbEntity
  8
0
 48
50.0
100
AcDbBlockEnd
  0
BLOCK
  5
18420
330
1837D
100
AcDbEntity
  8
0
 48
50.0
100
AcDbBlockBegin
  2
*D6
 70
     1
 10
0.0
 20
0.0
 30
0.0
  3
*D6
  1

  0
LINE
  5
19CA4
330
1837D
100
AcDbEntity
  8
寸法
 62
     0
 48
50.0
370
    -2
100
AcDbLine
 10
8285.021140942918
 20
9478.469353485868
 30
0.0
 11
8285.021140942918
 21
9818.469353485916
 31
0.0
  0
LINE
  5
19CA5
330
1837D
100
AcDbEntity
  8
寸法
 62
     0
 48
50.0
370
    -2
100
AcDbLine
 10
11225.02114094292
 20
9478.469353485964
 30
0.0
 11
11225.02114094292
 21
9818.469353485916
 31
0.0
  0
LINE
  5
19CA6
330
1837D
100
AcDbEntity
  8
寸法
 62
     0
 48
50.0
370
    -2
100
AcDbLine
 10
8285.021140942918
 20
9758.469353485917
 30
0.0
 11
11225.02114094292
 21
9758.469353485917
 31
0.0
  0
INSERT
  5
19CA7
330
1837D
100
AcDbEntity
  8
寸法
 62
     0
 48
50.0
370
    -2
100
AcDbBlockReference
  2
_DOTSMALL
 10
8285.021140942918
 20
9758.469353485917
 30
0.0
 41
100.0
 42
100.0
 43
100.0
 50
180.0
  0
INSERT
  5
19CA8
330
1837D
100
AcDbEntity
  8
寸法
 62
     0
 48
50.0
370
    -2
100
AcDbBlockReference
  2
_DOTSMALL
 10
11225.02114094292
 20
9758.469353485917
 30
0.0
 41
100.0
 42
100.0
 43
100.0
  0
MTEXT
  5
19CA9
330
1837D
100
AcDbEntity
  8
寸法
 62
     7
 48
50.0
100
AcDbMText
 10
9755.021140942918
 20
9858.481164509539
 30
0.0
 40
120.0
 41
0.0
 71
     5
 72
     1
  1
\A1;7X420=2940
  7
STYLE1
 73
     1
 44
1.0
1001
ACAD
1000
MTEXTBEGIN
1070
    73
1070
     1
1070
    44
1040
1.0
1070
    74
1070
     0
1000
MTEXTEND
  0
POINT
  5
19CAA
330
1837D
100
AcDbEntity
  8
DEFPOINTS
 62
     0
 48
50.0
100
AcDbPoint
 10
8285.021140942918
 20
9458.469353485869
 30
0.0
  0
POINT
  5
19CAB
330
1837D
100
AcDbEntity
  8
DEFPOINTS
 62
     0
 48
50.0
100
AcDbPoint
 10
11225.02114094292
 20
9458.469353485964
 30
0.0
  0
POINT
  5
19CAC
330
1837D
100
AcDbEntity
  8
DEFPOINTS
 62
     0
 48
50.0
100
AcDbPoint
 10
11225.02114094292
 20
9758.469353485917
 30
0.0
  0
ENDBLK
  5
1842A
330
1837D
100
AcDbEntity
  8
0
 48
50.0
100
AcDbBlockEnd
  0
BLOCK
  5
1842B
330
18389
100
AcDbEntity
  8
0
 48
50.0
100
AcDbBlockBegin
  2
*D7
 70
     1
 10
0.0
 20
0.0
 30
0.0
  3
*D7
  1

  0
LINE
  5
19C9B
330
18389
100
AcDbEntity
  8
寸法
 62
     0
 48
50.0
370
    -2
100
AcDbLine
 10
8253.162157094219
 20
8958.469353485982
 30
0.0
 11
8151.492288490244
 21
8579.032238257102
 31
0.0
  0
LINE
  5
19C9C
330
18389
100
AcDbEntity
  8
寸法
 62
     0
 48
50.0
370
    -2
100
AcDbLine
 10
9736.162157094291
 20
8958.469353485973
 30
0.0
 11
9634.492288490317
 21
8579.032238257102
 31
0.0
  0
LINE
  5
19C9D
330
18389
100
AcDbEntity
  8
寸法
 62
     0
 48
50.0
370
    -2
100
AcDbLine
 10
8167.569240036113
 20
8639.032238257101
 30
0.0
 11
9650.569240036187
 21
8639.032238257101
 31
0.0
  0
INSERT
  5
19C9E
330
18389
100
AcDbEntity
  8
寸法
 62
     0
 48
50.0
370
    -2
100
AcDbBlockReference
  2
_DOTSMALL
 10
8167.569240036113
 20
8639.032238257101
 30
0.0
 41
100.0
 42
100.0
 43
100.0
 50
180.0
  0
INSERT
  5
19C9F
330
18389
100
AcDbEntity
  8
寸法
 62
     0
 48
50.0
370
    -2
100
AcDbBlockReference
  2
_DOTSMALL
 10
9650.569240036187
 20
8639.032238257101
 30
0.0
 41
100.0
 42
100.0
 43
100.0
  0
MTEXT
  5
19CA0
330
18389
100
AcDbEntity
  8
寸法
 62
     7
 48
50.0
100
AcDbMText
 10
8816.261632330398
 20
8739.032238257101
 30
0.0
 40
120.0
 41
0.0
 71
     5
 72
     1
  1
\A1;1483
  7
STYLE1
 73
     1
 44
1.0
1001
ACAD
1000
MTEXTBEGIN
1070
    73
1070
     1
1070
    44
1040
1.0
1070
    74
1070
     0
1000
MTEXTEND
  0
POINT
  5
19CA1
330
18389
100
AcDbEntity
  8
DEFPOINTS
 62
     0
 48
50.0
100
AcDbPoint
 10
8258.521140942841
 20
8978.469353485982
 30
0.0
  0
POINT
  5
19CA2
330
18389
100
AcDbEntity
  8
DEFPOINTS
 62
     0
 48
50.0
100
AcDbPoint
 10
9741.521140942912
 20
8978.469353485975
 30
0.0
  0
POINT
  5
19CA3
330
18389
100
AcDbEntity
  8
DEFPOINTS
 62
     0
 48
50.0
100
AcDbPoint
 10
9650.569240036187
 20
8639.032238257101
 30
0.0
  0
ENDBLK
  5
18435
330
18389
100
AcDbEntity
  8
0
 48
50.0
100
AcDbBlockEnd
  0
BLOCK
  5
18441
330
183A1
100
AcDbEntity
  8
0
 48
50.0
100
AcDbBlockBegin
  2
*D8
 70
     1
 10
0.0
 20
0.0
 30
0.0
  3
*D8
  1

  0
LINE
  5
19C92
330
183A1
100
AcDbEntity
  8
寸法
 62
     0
 48
50.0
370
    -2
100
AcDbLine
 10
11300.02114094292
 20
9403.469353485967
 30
0.0
 11
12040.02114094291
 21
9403.469353485967
 31
0.0
  0
LINE
  5
19C93
330
183A1
100
AcDbEntity
  8
寸法
 62
     0
 48
50.0
370
    -2
100
AcDbLine
 10
11300.02114094289
 20
8143.469353485953
 30
0.0
 11
12040.02114094291
 21
8143.469353485953
 31
0.0
  0
LINE
  5
19C94
330
183A1
100
AcDbEntity
  8
寸法
 62
     0
 48
50.0
370
    -2
100
AcDbLine
 10
11980.02114094291
 20
9403.469353485967
 30
0.0
 11
11980.02114094291
 21
8143.469353485953
 31
0.0
  0
INSERT
  5
19C95
330
183A1
100
AcDbEntity
  8
寸法
 62
     0
 48
50.0
370
    -2
100
AcDbBlockReference
  2
_DOTSMALL
 10
11980.02114094291
 20
9403.469353485967
 30
0.0
 41
100.0
 42
100.0
 43
100.0
 50
90.0
  0
INSERT
  5
19C96
330
183A1
100
AcDbEntity
  8
寸法
 62
     0
 48
50.0
370
    -2
100
AcDbBlockReference
  2
_DOTSMALL
 10
11980.02114094291
 20
8143.469353485953
 30
0.0
 41
100.0
 42
100.0
 43
100.0
 50
270.0
  0
MTEXT
  5
19C97
330
183A1
100
AcDbEntity
  8
寸法
 62
     7
 48
50.0
100
AcDbMText
 10
11880.00932991928
 20
8773.469353485948
 30
0.0
 40
120.0
 41
0.0
 71
     5
 72
     1
  1
\A1;3X420=1260
  7
STYLE1
 11
0.0000000000000001
 21
1.0
 31
0.0
 73
     1
 44
1.0
1001
ACAD
1000
MTEXTBEGIN
1070
    73
1070
     1
1070
    44
1040
1.0
1070
    74
1070
     0
1000
MTEXTEND
  0
POINT
  5
19C98
330
183A1
100
AcDbEntity
  8
DEFPOINTS
 62
     0
 48
50.0
100
AcDbPoint
 10
11280.02114094292
 20
9403.469353485967
 30
0.0
  0
POINT
  5
19C99
330
183A1
100
AcDbEntity
  8
DEFPOINTS
 62
     0
 48
50.0
100
AcDbPoint
 10
11280.02114094289
 20
8143.469353485953
 30
0.0
  0
POINT
  5
19C9A
330
183A1
100
AcDbEntity
  8
DEFPOINTS
 62
     0
 48
50.0
100
AcDbPoint
 10
11980.02114094291
 20
8143.469353485953
 30
0.0
  0
ENDBLK
  5
1844B
330
183A1
100
AcDbEntity
  8
0
 48
50.0
100
AcDbBlockEnd
  0
BLOCK
  5
1844C
330
183AD
100
AcDbEntity
  8
0
 48
50.0
100
AcDbBlockBegin
  2
*D9
 70
     1
 10
0.0
 20
0.0
 30
0.0
  3
*D9
  1

  0
LINE
  5
19C89
330
183AD
100
AcDbEntity
  8
寸法
 62
     0
 48
50.0
370
    -2
100
AcDbLine
 10
11300.02114094292
 20
9458.469353485964
 30
0.0
 11
12340.02114094291
 21
9458.469353485963
 31
0.0
  0
LINE
  5
19C8A
330
183AD
100
AcDbEntity
  8
寸法
 62
     0
 48
50.0
370
    -2
100
AcDbLine
 10
11300.02114094289
 20
8088.469353485956
 30
0.0
 11
12340.02114094291
 21
8088.469353485956
 31
0.0
  0
LINE
  5
19C8B
330
183AD
100
AcDbEntity
  8
寸法
 62
     0
 48
50.0
370
    -2
100
AcDbLine
 10
12280.02114094291
 20
9458.469353485964
 30
0.0
 11
12280.02114094291
 21
8088.469353485956
 31
0.0
  0
INSERT
  5
19C8C
330
183AD
100
AcDbEntity
  8
寸法
 62
     0
 48
50.0
370
    -2
100
AcDbBlockReference
  2
_DOTSMALL
 10
12280.02114094291
 20
9458.469353485964
 30
0.0
 41
100.0
 42
100.0
 43
100.0
 50
90.0
  0
INSERT
  5
19C8D
330
183AD
100
AcDbEntity
  8
寸法
 62
     0
 48
50.0
370
    -2
100
AcDbBlockReference
  2
_DOTSMALL
 10
12280.02114094291
 20
8088.469353485956
 30
0.0
 41
100.0
 42
100.0
 43
100.0
 50
270.0
  0
MTEXT
  5
19C8E
330
183AD
100
AcDbEntity
  8
寸法
 62
     7
 48
50.0
100
AcDbMText
 10
12180.0211409429
 20
8773.46935348596
 30
0.0
 40
120.0
 41
0.0
 71
     5
 72
     1
  1
\A1;1370
  7
STYLE1
 11
0.0000000000000001
 21
1.0
 31
0.0
 73
     1
 44
1.0
1001
ACAD
1000
MTEXTBEGIN
1070
    73
1070
     1
1070
    44
1040
1.0
1070
    74
1070
     0
1000
MTEXTEND
  0
POINT
  5
19C8F
330
183AD
100
AcDbEntity
  8
DEFPOINTS
 62
     0
 48
50.0
100
AcDbPoint
 10
11280.02114094292
 20
9458.469353485964
 30
0.0
  0
POINT
  5
19C90
330
183AD
100
AcDbEntity
  8
DEFPOINTS
 62
     0
 48
50.0
100
AcDbPoint
 10
11280.02114094289
 20
8088.469353485956
 30
0.0
  0
POINT
  5
19C91
330
183AD
100
AcDbEntity
  8
DEFPOINTS
 62
     0
 48
50.0
100
AcDbPoint
 10
12280.02114094291
 20
8088.469353485956
 30
0.0
  0
ENDBLK
  5
18456
330
183AD
100
AcDbEntity
  8
0
 48
50.0
100
AcDbBlockEnd
  0
BLOCK
  5
18457
330
183B9
100
AcDbEntity
  8
0
 48
50.0
100
AcDbBlockBegin
  2
*D10
 70
     1
 10
0.0
 20
0.0
 30
0.0
  3
*D10
  1

  0
LINE
  5
19C7E
330
183B9
100
AcDbEntity
  8
寸法
 62
     0
 48
50.0
370
    -2
100
AcDbLine
 10
11300.02114094289
 20
8143.469353485953
 30
0.0
 11
12040.02114094289
 21
8143.469353485953
 31
0.0
  0
LINE
  5
19C7F
330
183B9
100
AcDbEntity
  8
寸法
 62
     0
 48
50.0
370
    -2
100
AcDbLine
 10
11300.02114094289
 20
8088.469353485956
 30
0.0
 11
12040.02114094289
 21
8088.469353485956
 31
0.0
  0
LINE
  5
19C80
330
183B9
100
AcDbEntity
  8
寸法
 62
     0
 48
50.0
370
    -2
100
AcDbLine
 10
11980.02114094289
 20
8143.469353485953
 30
0.0
 11
11980.02114094289
 21
8243.469353485954
 31
0.0
  0
LINE
  5
19C81
330
183B9
100
AcDbEntity
  8
寸法
 62
     0
 48
50.0
370
    -2
100
AcDbLine
 10
11980.02114094289
 20
8088.469353485956
 30
0.0
 11
11980.02114094289
 21
7671.498790737475
 31
0.0
  0
LINE
  5
19C82
330
183B9
100
AcDbEntity
  8
寸法
 62
     0
 48
50.0
370
    -2
100
AcDbLine
 10
11980.02114094289
 20
8143.469353485953
 30
0.0
 11
11980.02114094289
 21
8088.469353485956
 31
0.0
  0
INSERT
  5
19C83
330
183B9
100
AcDbEntity
  8
寸法
 62
     0
 48
50.0
370
    -2
100
AcDbBlockReference
  2
_DOTSMALL
 10
11980.02114094289
 20
8143.469353485953
 30
0.0
 41
100.0
 42
100.0
 43
100.0
 50
270.0
  0
INSERT
  5
19C84
330
183B9
100
AcDbEntity
  8
寸法
 62
     0
 48
50.0
370
    -2
100
AcDbBlockReference
  2
_DOTSMALL
 10
11980.02114094289
 20
8088.469353485956
 30
0.0
 41
100.0
 42
100.0
 43
100.0
 50
90.0
  0
MTEXT
  5
19C85
330
183B9
100
AcDbEntity
  8
寸法
 62
     7
 48
50.0
100
AcDbMText
 10
11880.02114094289
 20
7779.984072111716
 30
0.0
 40
120.0
 41
0.0
 71
     5
 72
     1
  1
\A1;55
  7
STYLE1
 11
0.0000000000000001
 21
1.0
 31
0.0
 73
     1
 44
1.0
1001
ACAD
1000
MTEXTBEGIN
1070
    73
1070
     1
1070
    44
1040
1.0
1070
    74
1070
     0
1000
MTEXTEND
  0
POINT
  5
19C86
330
183B9
100
AcDbEntity
  8
DEFPOINTS
 62
     0
 48
50.0
100
AcDbPoint
 10
11280.02114094289
 20
8143.469353485953
 30
0.0
  0
POINT
  5
19C87
330
183B9
100
AcDbEntity
  8
DEFPOINTS
 62
     0
 48
50.0
100
AcDbPoint
 10
11280.02114094289
 20
8088.469353485956
 30
0.0
  0
POINT
  5
19C88
330
183B9
100
AcDbEntity
  8
DEFPOINTS
 62
     0
 48
50.0
100
AcDbPoint
 10
11980.02114094289
 20
8088.469353485956
 30
0.0
  0
ENDBLK
  5
18463
330
183B9
100
AcDbEntity
  8
0
 48
50.0
100
AcDbBlockEnd
  0
BLOCK
  5
18471
330
183D5
100
AcDbEntity
  8
0
 48
50.0
100
AcDbBlockBegin
  2
*D11
 70
     1
 10
0.0
 20
0.0
 30
0.0
  3
*D11
  1

  0
LINE
  5
19C73
330
183D5
100
AcDbEntity
  8
寸法
 62
     0
 48
50.0
370
    -2
100
AcDbLine
 10
11300.02114094292
 20
9458.469353485964
 30
0.0
 11
12040.02114094292
 21
9458.469353485964
 31
0.0
  0
LINE
  5
19C74
330
183D5
100
AcDbEntity
  8
寸法
 62
     0
 48
50.0
370
    -2
100
AcDbLine
 10
11300.02114094292
 20
9403.469353485967
 30
0.0
 11
12040.02114094292
 21
9403.469353485967
 31
0.0
  0
LINE
  5
19C75
330
183D5
100
AcDbEntity
  8
寸法
 62
     0
 48
50.0
370
    -2
100
AcDbLine
 10
11980.02114094292
 20
9403.469353485967
 30
0.0
 11
11980.02114094292
 21
9303.469353485967
 31
0.0
  0
LINE
  5
19C76
330
183D5
100
AcDbEntity
  8
寸法
 62
     0
 48
50.0
370
    -2
100
AcDbLine
 10
11980.02114094292
 20
9458.469353485964
 30
0.0
 11
11980.02114094292
 21
9875.439916234441
 31
0.0
  0
LINE
  5
19C77
330
183D5
100
AcDbEntity
  8
寸法
 62
     0
 48
50.0
370
    -2
100
AcDbLine
 10
11980.02114094292
 20
9403.469353485967
 30
0.0
 11
11980.02114094292
 21
9458.469353485964
 31
0.0
  0
INSERT
  5
19C78
330
183D5
100
AcDbEntity
  8
寸法
 62
     0
 48
50.0
370
    -2
100
AcDbBlockReference
  2
_DOTSMALL
 10
11980.02114094292
 20
9403.469353485967
 30
0.0
 41
100.0
 42
100.0
 43
100.0
 50
90.0
  0
INSERT
  5
19C79
330
183D5
100
AcDbEntity
  8
寸法
 62
     0
 48
50.0
370
    -2
100
AcDbBlockReference
  2
_DOTSMALL
 10
11980.02114094292
 20
9458.469353485964
 30
0.0
 41
100.0
 42
100.0
 43
100.0
 50
270.0
  0
MTEXT
  5
19C7A
330
183D5
100
AcDbEntity
  8
寸法
 62
     7
 48
50.0
100
AcDbMText
 10
11880.02114094292
 20
9766.954634860205
 30
0.0
 40
120.0
 41
0.0
 71
     5
 72
     1
  1
\A1;55
  7
STYLE1
 11
0.0000000000000001
 21
1.0
 31
0.0
 73
     1
 44
1.0
1001
ACAD
1000
MTEXTBEGIN
1070
    73
1070
     1
1070
    44
1040
1.0
1070
    74
1070
     0
1000
MTEXTEND
  0
POINT
  5
19C7B
330
183D5
100
AcDbEntity
  8
DEFPOINTS
 62
     0
 48
50.0
100
AcDbPoint
 10
11280.02114094292
 20
9458.469353485964
 30
0.0
  0
POINT
  5
19C7C
330
183D5
100
AcDbEntity
  8
DEFPOINTS
 62
     0
 48
50.0
100
AcDbPoint
 10
11280.02114094292
 20
9403.469353485967
 30
0.0
  0
POINT
  5
19C7D
330
183D5
100
AcDbEntity
  8
DEFPOINTS
 62
     0
 48
50.0
100
AcDbPoint
 10
11980.02114094292
 20
9403.469353485967
 30
0.0
  0
ENDBLK
  5
1847D
330
183D5
100
AcDbEntity
  8
0
 48
50.0
100
AcDbBlockEnd
  0
BLOCK
  5
1847E
330
183E3
100
AcDbEntity
  8
0
 48
50.0
100
AcDbBlockBegin
  2
*D12
 70
     1
 10
0.0
 20
0.0
 30
0.0
  3
*D12
  1

  0
LINE
  5
19C68
330
183E3
100
AcDbEntity
  8
寸法
 62
     0
 48
50.0
370
    -2
100
AcDbLine
 10
11225.02114094292
 20
9478.469353485964
 30
0.0
 11
11225.02114094292
 21
9818.469353485964
 31
0.0
  0
LINE
  5
19C69
330
183E3
100
AcDbEntity
  8
寸法
 62
     0
 48
50.0
370
    -2
100
AcDbLine
 10
11280.02114094292
 20
9478.469353485964
 30
0.0
 11
11280.02114094292
 21
9818.469353485964
 31
0.0
  0
LINE
  5
19C6A
330
183E3
100
AcDbEntity
  8
寸法
 62
     0
 48
50.0
370
    -2
100
AcDbLine
 10
11225.02114094292
 20
9758.469353485963
 30
0.0
 11
11125.02114094292
 21
9758.469353485963
 31
0.0
  0
LINE
  5
19C6B
330
183E3
100
AcDbEntity
  8
寸法
 62
     0
 48
50.0
370
    -2
100
AcDbLine
 10
11280.02114094292
 20
9758.469353485963
 30
0.0
 11
11696.99170369139
 21
9758.469353485963
 31
0.0
  0
LINE
  5
19C6C
330
183E3
100
AcDbEntity
  8
寸法
 62
     0
 48
50.0
370
    -2
100
AcDbLine
 10
11225.02114094292
 20
9758.469353485963
 30
0.0
 11
11280.02114094292
 21
9758.469353485963
 31
0.0
  0
INSERT
  5
19C6D
330
183E3
100
AcDbEntity
  8
寸法
 62
     0
 48
50.0
370
    -2
100
AcDbBlockReference
  2
_DOTSMALL
 10
11225.02114094292
 20
9758.469353485963
 30
0.0
 41
100.0
 42
100.0
 43
100.0
  0
INSERT
  5
19C6E
330
183E3
100
AcDbEntity
  8
寸法
 62
     0
 48
50.0
370
    -2
100
AcDbBlockReference
  2
_DOTSMALL
 10
11280.02114094292
 20
9758.469353485963
 30
0.0
 41
100.0
 42
100.0
 43
100.0
 50
180.0
  0
MTEXT
  5
19C6F
330
183E3
100
AcDbEntity
  8
寸法
 62
     7
 48
50.0
100
AcDbMText
 10
11588.50642231715
 20
9858.469353485965
 30
0.0
 40
120.0
 41
0.0
 71
     5
 72
     1
  1
\A1;55
  7
STYLE1
 73
     1
 44
1.0
1001
ACAD
1000
MTEXTBEGIN
1070
    73
1070
     1
1070
    44
1040
1.0
1070
    74
1070
     0
1000
MTEXTEND
  0
POINT
  5
19C70
330
183E3
100
AcDbEntity
  8
DEFPOINTS
 62
     0
 48
50.0
100
AcDbPoint
 10
11225.02114094292
 20
9458.469353485964
 30
0.0
  0
POINT
  5
19C71
330
183E3
100
AcDbEntity
  8
DEFPOINTS
 62
     0
 48
50.0
100
AcDbPoint
 10
11280.02114094292
 20
9458.469353485964
 30
0.0
  0
POINT
  5
19C72
330
183E3
100
AcDbEntity
  8
DEFPOINTS
 62
     0
 48
50.0
100
AcDbPoint
 10
11280.02114094292
 20
9758.469353485963
 30
0.0
  0
ENDBLK
  5
1848A
330
183E3
100
AcDbEntity
  8
0
 48
50.0
100
AcDbBlockEnd
  0
BLOCK
  5
1848B
330
183F1
100
AcDbEntity
  8
0
 48
50.0
100
AcDbBlockBegin
  2
*D13
 70
     1
 10
0.0
 20
0.0
 30
0.0
  3
*D13
  1

  0
LINE
  5
19C5F
330
183F1
100
AcDbEntity
  8
寸法
 62
     0
 48
50.0
370
    -2
100
AcDbLine
 10
11271.52114094292
 20
9423.11036963734
 30
0.0
 11
11740.02114094291
 21
9297.57617298336
 31
0.0
  0
LINE
  5
19C60
330
183F1
100
AcDbEntity
  8
寸法
 62
     0
 48
50.0
370
    -2
100
AcDbLine
 10
11271.52114094292
 20
8973.110369637344
 30
0.0
 11
11740.02114094291
 21
8847.576172983364
 31
0.0
  0
LINE
  5
19C61
330
183F1
100
AcDbEntity
  8
寸法
 62
     0
 48
50.0
370
    -2
100
AcDbLine
 10
11680.02114094291
 20
9313.653124529229
 30
0.0
 11
11680.02114094291
 21
8863.653124529232
 31
0.0
  0
INSERT
  5
19C62
330
183F1
100
AcDbEntity
  8
寸法
 62
     0
 48
50.0
370
    -2
100
AcDbBlockReference
  2
_DOTSMALL
 10
11680.02114094291
 20
9313.653124529229
 30
0.0
 41
100.0
 42
100.0
 43
100.0
 50
90.0
  0
INSERT
  5
19C63
330
183F1
100
AcDbEntity
  8
寸法
 62
     0
 48
50.0
370
    -2
100
AcDbBlockReference
  2
_DOTSMALL
 10
11680.02114094291
 20
8863.653124529232
 30
0.0
 41
100.0
 42
100.0
 43
100.0
 50
270.0
  0
MTEXT
  5
19C64
330
183F1
100
AcDbEntity
  8
寸法
 62
     7
 48
50.0
100
AcDbMText
 10
11580.02114094291
 20
9088.65312452923
 30
0.0
 40
120.0
 41
0.0
 71
     5
 72
     1
  1
\A1;450
  7
STYLE1
 11
0.0000000000000001
 21
1.0
 31
0.0
 73
     1
 44
1.0
1001
ACAD
1000
MTEXTBEGIN
1070
    73
1070
     1
1070
    44
1040
1.0
1070
    74
1070
     0
1000
MTEXTEND
  0
POINT
  5
19C65
330
183F1
100
AcDbEntity
  8
DEFPOINTS
 62
     0
 48
50.0
100
AcDbPoint
 10
11251.52114094292
 20
9428.469353485963
 30
0.0
  0
POINT
  5
19C66
330
183F1
100
AcDbEntity
  8
DEFPOINTS
 62
     0
 48
50.0
100
AcDbPoint
 10
11251.52114094292
 20
8978.469353485968
 30
0.0
  0
POINT
  5
19C67
330
183F1
100
AcDbEntity
  8
DEFPOINTS
 62
     0
 48
50.0
100
AcDbPoint
 10
11680.02114094291
 20
8863.653124529232
 30
0.0
  0
ENDBLK
  5
18495
330
183F1
100
AcDbEntity
  8
0
 48
50.0
100
AcDbBlockEnd
  0
BLOCK
  5
184E9
330
184E8
100
AcDbEntity
  8
0
 48
50.0
100
AcDbBlockBegin
  2
_DOT
 70
     0
 10
0.0
 20
0.0
 30
0.0
  3
_DOT
  1

  0
LWPOLYLINE
  5
184EA
330
184E8
100
AcDbEntity
  8
0
  6
ByBlock
 62
     0
 48
50.0
100
AcDbPolyline
 90
        2
 70
     1
 43
0.5
 10
-0.25
 20
0.0
 42
1.0
 10
0.25
 20
0.0
 42
1.0
  0
LINE
  5
184EB
330
184E8
100
AcDbEntity
  8
0
  6
ByBlock
 62
     0
 48
50.0
100
AcDbLine
 10
-0.5
 20
0.0
 30
0.0
 11
-1.0
 21
0.0
 31
0.0
  0
ENDBLK
  5
184EC
330
184E8
100
AcDbEntity
  8
0
 48
50.0
100
AcDbBlockEnd
  0
BLOCK
  5
18BE1
330
18BD5
100
AcDbEntity
  8
0
 48
50.0
100
AcDbBlockBegin
  2
*D15
 70
     1
 10
0.0
 20
0.0
 30
0.0
  3
*D15
  1

  0
LINE
  5
1946A
330
18BD5
100
AcDbEntity
  8
寸法
 62
     0
 48
50.0
370
    -2
100
AcDbLine
 10
5832.863740002362
 20
4779.837748007315
 30
0.0
 11
5832.863740002362
 21
5224.458007434584
 31
0.0
  0
LINE
  5
1946B
330
18BD5
100
AcDbEntity
  8
寸法
 62
     0
 48
50.0
370
    -2
100
AcDbLine
 10
5782.863740002362
 20
4779.837748007318
 30
0.0
 11
5782.863740002362
 21
5224.458007434584
 31
0.0
  0
LINE
  5
1946C
330
18BD5
100
AcDbEntity
  8
寸法
 62
     0
 48
50.0
370
    -2
100
AcDbLine
 10
5782.863740002362
 20
5164.458007434584
 30
0.0
 11
5682.863740002361
 21
5164.458007434584
 31
0.0
  0
LINE
  5
1946D
330
18BD5
100
AcDbEntity
  8
寸法
 62
     0
 48
50.0
370
    -2
100
AcDbLine
 10
5832.863740002362
 20
5164.458007434584
 30
0.0
 11
6252.396265471086
 21
5164.458007434584
 31
0.0
  0
LINE
  5
1946E
330
18BD5
100
AcDbEntity
  8
寸法
 62
     0
 48
50.0
370
    -2
100
AcDbLine
 10
5782.863740002362
 20
5164.458007434584
 30
0.0
 11
5832.863740002362
 21
5164.458007434584
 31
0.0
  0
INSERT
  5
1946F
330
18BD5
100
AcDbEntity
  8
寸法
 62
     0
 48
50.0
370
    -2
100
AcDbBlockReference
  2
_DOTSMALL
 10
5782.863740002362
 20
5164.458007434584
 30
0.0
 41
100.0
 42
100.0
 43
100.0
  0
INSERT
  5
19470
330
18BD5
100
AcDbEntity
  8
寸法
 62
     0
 48
50.0
370
    -2
100
AcDbBlockReference
  2
_DOTSMALL
 10
5832.863740002362
 20
5164.458007434584
 30
0.0
 41
100.0
 42
100.0
 43
100.0
 50
180.0
  0
MTEXT
  5
19471
330
18BD5
100
AcDbEntity
  8
寸法
 62
     7
 48
50.0
100
AcDbMText
 10
6146.349021376598
 20
5264.458007434583
 30
0.0
 40
120.0
 41
0.0
 71
     5
 72
     1
  1
\A1;50
  7
STYLE1
 73
     1
 44
1.0
1001
ACAD
1000
MTEXTBEGIN
1070
    73
1070
     1
1070
    44
1040
1.0
1070
    74
1070
     0
1000
MTEXTEND
  0
POINT
  5
19472
330
18BD5
100
AcDbEntity
  8
DEFPOINTS
 62
     0
 48
50.0
100
AcDbPoint
 10
5832.863740002362
 20
4759.837748007315
 30
0.0
  0
POINT
  5
19473
330
18BD5
100
AcDbEntity
  8
DEFPOINTS
 62
     0
 48
50.0
100
AcDbPoint
 10
5782.863740002362
 20
4759.837748007319
 30
0.0
  0
POINT
  5
19474
330
18BD5
100
AcDbEntity
  8
DEFPOINTS
 62
     0
 48
50.0
100
AcDbPoint
 10
5782.863740002362
 20
5164.458007434584
 30
0.0
  0
ENDBLK
  5
18BE2
330
18BD5
100
AcDbEntity
  8
0
 48
50.0
100
AcDbBlockEnd
  0
BLOCK
  5
18BED
330
18BE3
100
AcDbEntity
  8
0
 48
50.0
100
AcDbBlockBegin
  2
*D16
 70
     1
 10
0.0
 20
0.0
 30
0.0
  3
*D16
  1

  0
LINE
  5
19461
330
18BE3
100
AcDbEntity
  8
寸法
 62
     0
 48
50.0
370
    -2
100
AcDbLine
 10
5782.863740002362
 20
4779.837748007318
 30
0.0
 11
5782.863740002362
 21
5224.458007434584
 31
0.0
  0
LINE
  5
19462
330
18BE3
100
AcDbEntity
  8
寸法
 62
     0
 48
50.0
370
    -2
100
AcDbLine
 10
4412.863740002369
 20
4779.837748007318
 30
0.0
 11
4412.863740002369
 21
5224.458007434584
 31
0.0
  0
LINE
  5
19463
330
18BE3
100
AcDbEntity
  8
寸法
 62
     0
 48
50.0
370
    -2
100
AcDbLine
 10
5782.863740002362
 20
5164.458007434584
 30
0.0
 11
4412.863740002369
 21
5164.458007434584
 31
0.0
  0
INSERT
  5
19464
330
18BE3
100
AcDbEntity
  8
寸法
 62
     0
 48
50.0
370
    -2
100
AcDbBlockReference
  2
_DOTSMALL
 10
5782.863740002362
 20
5164.458007434584
 30
0.0
 41
100.0
 42
100.0
 43
100.0
  0
INSERT
  5
19465
330
18BE3
100
AcDbEntity
  8
寸法
 62
     0
 48
50.0
370
    -2
100
AcDbBlockReference
  2
_DOTSMALL
 10
4412.863740002369
 20
5164.458007434584
 30
0.0
 41
100.0
 42
100.0
 43
100.0
 50
180.0
  0
MTEXT
  5
19466
330
18BE3
100
AcDbEntity
  8
寸法
 62
     7
 48
50.0
100
AcDbMText
 10
5097.863740002366
 20
5264.458007434583
 30
0.0
 40
120.0
 41
0.0
 71
     5
 72
     1
  1
\A1;柱外寸法1370
  7
STYLE1
 73
     1
 44
1.0
1001
ACAD
1000
MTEXTBEGIN
1070
    73
1070
     1
1070
    44
1040
1.0
1070
    74
1070
     0
1000
MTEXTEND
  0
POINT
  5
19467
330
18BE3
100
AcDbEntity
  8
DEFPOINTS
 62
     0
 48
50.0
100
AcDbPoint
 10
5782.863740002362
 20
4759.837748007319
 30
0.0
  0
POINT
  5
19468
330
18BE3
100
AcDbEntity
  8
DEFPOINTS
 62
     0
 48
50.0
100
AcDbPoint
 10
4412.863740002369
 20
4759.837748007319
 30
0.0
  0
POINT
  5
19469
330
18BE3
100
AcDbEntity
  8
DEFPOINTS
 62
     0
 48
50.0
100
AcDbPoint
 10
4412.863740002369
 20
5164.458007434584
 30
0.0
  0
ENDBLK
  5
18BEE
330
18BE3
100
AcDbEntity
  8
0
 48
50.0
100
AcDbBlockEnd
  0
BLOCK
  5
18BFB
330
18BEF
100
AcDbEntity
  8
0
 48
50.0
100
AcDbBlockBegin
  2
*D17
 70
     1
 10
0.0
 20
0.0
 30
0.0
  3
*D17
  1

  0
LINE
  5
19456
330
18BEF
100
AcDbEntity
  8
寸法
 62
     0
 48
50.0
370
    -2
100
AcDbLine
 10
4412.863740002369
 20
4779.837748007318
 30
0.0
 11
4412.863740002369
 21
5224.458007434584
 31
0.0
  0
LINE
  5
19457
330
18BEF
100
AcDbEntity
  8
寸法
 62
     0
 48
50.0
370
    -2
100
AcDbLine
 10
4362.863740002369
 20
4779.837748007318
 30
0.0
 11
4362.863740002369
 21
5224.458007434584
 31
0.0
  0
LINE
  5
19458
330
18BEF
100
AcDbEntity
  8
寸法
 62
     0
 48
50.0
370
    -2
100
AcDbLine
 10
4412.863740002369
 20
5164.458007434584
 30
0.0
 11
4512.863740002369
 21
5164.458007434584
 31
0.0
  0
LINE
  5
19459
330
18BEF
100
AcDbEntity
  8
寸法
 62
     0
 48
50.0
370
    -2
100
AcDbLine
 10
4362.863740002369
 20
5164.458007434584
 30
0.0
 11
3943.331214533634
 21
5164.458007434584
 31
0.0
  0
LINE
  5
1945A
330
18BEF
100
AcDbEntity
  8
寸法
 62
     0
 48
50.0
370
    -2
100
AcDbLine
 10
4412.863740002369
 20
5164.458007434584
 30
0.0
 11
4362.863740002369
 21
5164.458007434584
 31
0.0
  0
INSERT
  5
1945B
330
18BEF
100
AcDbEntity
  8
寸法
 62
     0
 48
50.0
370
    -2
100
AcDbBlockReference
  2
_DOTSMALL
 10
4412.863740002369
 20
5164.458007434584
 30
0.0
 41
100.0
 42
100.0
 43
100.0
 50
180.0
  0
INSERT
  5
1945C
330
18BEF
100
AcDbEntity
  8
寸法
 62
     0
 48
50.0
370
    -2
100
AcDbBlockReference
  2
_DOTSMALL
 10
4362.863740002369
 20
5164.458007434584
 30
0.0
 41
100.0
 42
100.0
 43
100.0
  0
MTEXT
  5
1945D
330
18BEF
100
AcDbEntity
  8
寸法
 62
     7
 48
50.0
100
AcDbMText
 10
4049.378458628122
 20
5264.458007434583
 30
0.0
 40
120.0
 41
0.0
 71
     5
 72
     1
  1
\A1;50
  7
STYLE1
 73
     1
 44
1.0
1001
ACAD
1000
MTEXTBEGIN
1070
    73
1070
     1
1070
    44
1040
1.0
1070
    74
1070
     0
1000
MTEXTEND
  0
POINT
  5
1945E
330
18BEF
100
AcDbEntity
  8
DEFPOINTS
 62
     0
 48
50.0
100
AcDbPoint
 10
4412.863740002369
 20
4759.837748007319
 30
0.0
  0
POINT
  5
1945F
330
18BEF
100
AcDbEntity
  8
DEFPOINTS
 62
     0
 48
50.0
100
AcDbPoint
 10
4362.863740002369
 20
4759.837748007319
 30
0.0
  0
POINT
  5
19460
330
18BEF
100
AcDbEntity
  8
DEFPOINTS
 62
     0
 48
50.0
100
AcDbPoint
 10
4362.863740002369
 20
5164.458007434584
 30
0.0
  0
ENDBLK
  5
18BFC
330
18BEF
100
AcDbEntity
  8
0
 48
50.0
100
AcDbBlockEnd
  0
BLOCK
  5
18C07
330
18BFD
100
AcDbEntity
  8
0
 48
50.0
100
AcDbBlockBegin
  2
*D18
 70
     1
 10
0.0
 20
0.0
 30
0.0
  3
*D18
  1

  0
LINE
  5
1944D
330
18BFD
100
AcDbEntity
  8
寸法
 62
     0
 48
50.0
370
    -2
100
AcDbLine
 10
4362.863740002369
 20
4779.837748007318
 30
0.0
 11
4362.863740002369
 21
5467.624119341603
 31
0.0
  0
LINE
  5
1944E
330
18BFD
100
AcDbEntity
  8
寸法
 62
     0
 48
50.0
370
    -2
100
AcDbLine
 10
5832.863740002362
 20
4779.837748007315
 30
0.0
 11
5832.863740002362
 21
5467.624119341603
 31
0.0
  0
LINE
  5
1944F
330
18BFD
100
AcDbEntity
  8
寸法
 62
     0
 48
50.0
370
    -2
100
AcDbLine
 10
4362.863740002369
 20
5407.624119341604
 30
0.0
 11
5832.863740002362
 21
5407.624119341604
 31
0.0
  0
INSERT
  5
19450
330
18BFD
100
AcDbEntity
  8
寸法
 62
     0
 48
50.0
370
    -2
100
AcDbBlockReference
  2
_DOTSMALL
 10
4362.863740002369
 20
5407.624119341604
 30
0.0
 41
100.0
 42
100.0
 43
100.0
 50
180.0
  0
INSERT
  5
19451
330
18BFD
100
AcDbEntity
  8
寸法
 62
     0
 48
50.0
370
    -2
100
AcDbBlockReference
  2
_DOTSMALL
 10
5832.863740002362
 20
5407.624119341604
 30
0.0
 41
100.0
 42
100.0
 43
100.0
  0
MTEXT
  5
19452
330
18BFD
100
AcDbEntity
  8
寸法
 62
     7
 48
50.0
100
AcDbMText
 10
5075.497953801041
 20
5507.624119341604
 30
0.0
 40
120.0
 41
0.0
 71
     5
 72
     1
  1
\A1;1470
  7
STYLE1
 73
     1
 44
1.0
1001
ACAD
1000
MTEXTBEGIN
1070
    73
1070
     1
1070
    44
1040
1.0
1070
    74
1070
     0
1000
MTEXTEND
  0
POINT
  5
19453
330
18BFD
100
AcDbEntity
  8
DEFPOINTS
 62
     0
 48
50.0
100
AcDbPoint
 10
4362.863740002369
 20
4759.837748007319
 30
0.0
  0
POINT
  5
19454
330
18BFD
100
AcDbEntity
  8
DEFPOINTS
 62
     0
 48
50.0
100
AcDbPoint
 10
5832.863740002362
 20
4759.837748007315
 30
0.0
  0
POINT
  5
19455
330
18BFD
100
AcDbEntity
  8
DEFPOINTS
 62
     0
 48
50.0
100
AcDbPoint
 10
5832.863740002362
 20
5407.624119341604
 30
0.0
  0
ENDBLK
  5
18C08
330
18BFD
100
AcDbEntity
  8
0
 48
50.0
100
AcDbBlockEnd
  0
BLOCK
  5
18C13
330
18C09
100
AcDbEntity
  8
0
 48
50.0
100
AcDbBlockBegin
  2
*D19
 70
     1
 10
0.0
 20
0.0
 30
0.0
  3
*D19
  1

  0
LINE
  5
19444
330
18C09
100
AcDbEntity
  8
寸法
 62
     0
 48
50.0
370
    -2
100
AcDbLine
 10
4565.363740002362
 20
2314.837748007313
 30
0.0
 11
4565.363740002362
 21
1990.604604013636
 31
0.0
  0
LINE
  5
19445
330
18C09
100
AcDbEntity
  8
寸法
 62
     0
 48
50.0
370
    -2
100
AcDbLine
 10
4315.363740002362
 20
2314.837748007313
 30
0.0
 11
4315.363740002362
 21
1990.604604013636
 31
0.0
  0
LINE
  5
19446
330
18C09
100
AcDbEntity
  8
寸法
 62
     0
 48
50.0
370
    -2
100
AcDbLine
 10
4565.363740002362
 20
2050.604604013636
 30
0.0
 11
4315.363740002362
 21
2050.604604013636
 31
0.0
  0
INSERT
  5
19447
330
18C09
100
AcDbEntity
  8
寸法
 62
     0
 48
50.0
370
    -2
100
AcDbBlockReference
  2
_DOTSMALL
 10
4565.363740002362
 20
2050.604604013636
 30
0.0
 41
100.0
 42
100.0
 43
100.0
  0
INSERT
  5
19448
330
18C09
100
AcDbEntity
  8
寸法
 62
     0
 48
50.0
370
    -2
100
AcDbBlockReference
  2
_DOTSMALL
 10
4315.363740002362
 20
2050.604604013636
 30
0.0
 41
100.0
 42
100.0
 43
100.0
 50
180.0
  0
MTEXT
  5
19449
330
18C09
100
AcDbEntity
  8
寸法
 62
     7
 48
50.0
100
AcDbMText
 10
4440.363740002362
 20
2150.616415037259
 30
0.0
 40
120.0
 41
0.0
 71
     5
 72
     1
  1
\A1;250
  7
STYLE1
 73
     1
 44
1.0
1001
ACAD
1000
MTEXTBEGIN
1070
    73
1070
     1
1070
    44
1040
1.0
1070
    74
1070
     0
1000
MTEXTEND
  0
POINT
  5
1944A
330
18C09
100
AcDbEntity
  8
DEFPOINTS
 62
     0
 48
50.0
100
AcDbPoint
 10
4565.363740002362
 20
2334.837748007313
 30
0.0
  0
POINT
  5
1944B
330
18C09
100
AcDbEntity
  8
DEFPOINTS
 62
     0
 48
50.0
100
AcDbPoint
 10
4315.363740002362
 20
2334.837748007313
 30
0.0
  0
POINT
  5
1944C
330
18C09
100
AcDbEntity
  8
DEFPOINTS
 62
     0
 48
50.0
100
AcDbPoint
 10
4315.363740002362
 20
2050.604604013636
 30
0.0
  0
ENDBLK
  5
18C14
330
18C09
100
AcDbEntity
  8
0
 48
50.0
100
AcDbBlockEnd
  0
BLOCK
  5
18C1F
330
18C15
100
AcDbEntity
  8
0
 48
50.0
100
AcDbBlockBegin
  2
*D20
 70
     1
 10
0.0
 20
0.0
 30
0.0
  3
*D20
  1

  0
LINE
  5
1943B
330
18C15
100
AcDbEntity
  8
寸法
 62
     0
 48
50.0
370
    -2
100
AcDbLine
 10
4295.363740002361
 20
2334.837748007313
 30
0.0
 11
4128.147184711263
 21
2334.837748007313
 31
0.0
  0
LINE
  5
1943C
330
18C15
100
AcDbEntity
  8
寸法
 62
     0
 48
50.0
370
    -2
100
AcDbLine
 10
4295.363740002361
 20
2584.837748007313
 30
0.0
 11
4128.147184711263
 21
2584.837748007313
 31
0.0
  0
LINE
  5
1943D
330
18C15
100
AcDbEntity
  8
寸法
 62
     0
 48
50.0
370
    -2
100
AcDbLine
 10
4188.147184711263
 20
2334.837748007313
 30
0.0
 11
4188.147184711263
 21
2584.837748007313
 31
0.0
  0
INSERT
  5
1943E
330
18C15
100
AcDbEntity
  8
寸法
 62
     0
 48
50.0
370
    -2
100
AcDbBlockReference
  2
_DOTSMALL
 10
4188.147184711263
 20
2334.837748007313
 30
0.0
 41
100.0
 42
100.0
 43
100.0
 50
270.0
  0
INSERT
  5
1943F
330
18C15
100
AcDbEntity
  8
寸法
 62
     0
 48
50.0
370
    -2
100
AcDbBlockReference
  2
_DOTSMALL
 10
4188.147184711263
 20
2584.837748007313
 30
0.0
 41
100.0
 42
100.0
 43
100.0
 50
90.0
  0
MTEXT
  5
19440
330
18C15
100
AcDbEntity
  8
寸法
 62
     7
 48
50.0
100
AcDbMText
 10
4088.135373687641
 20
2459.837748007314
 30
0.0
 40
120.0
 41
0.0
 71
     5
 72
     1
  1
\A1;250
  7
STYLE1
 11
0.0000000000000001
 21
1.0
 31
0.0
 73
     1
 44
1.0
1001
ACAD
1000
MTEXTBEGIN
1070
    73
1070
     1
1070
    44
1040
1.0
1070
    74
1070
     0
1000
MTEXTEND
  0
POINT
  5
19441
330
18C15
100
AcDbEntity
  8
DEFPOINTS
 62
     0
 48
50.0
100
AcDbPoint
 10
4315.363740002362
 20
2334.837748007313
 30
0.0
  0
POINT
  5
19442
330
18C15
100
AcDbEntity
  8
DEFPOINTS
 62
     0
 48
50.0
100
AcDbPoint
 10
4315.363740002362
 20
2584.837748007313
 30
0.0
  0
POINT
  5
19443
330
18C15
100
AcDbEntity
  8
DEFPOINTS
 62
     0
 48
50.0
100
AcDbPoint
 10
4188.147184711263
 20
2584.837748007313
 30
0.0
  0
ENDBLK
  5
18C20
330
18C15
100
AcDbEntity
  8
0
 48
50.0
100
AcDbBlockEnd
  0
BLOCK
  5
192A6
330
1929B
100
AcDbEntity
  8
0
 48
50.0
100
AcDbBlockBegin
  2
*D21
 70
     1
 10
0.0
 20
0.0
 30
0.0
  3
*D21
  1

  0
LINE
  5
192DB
330
1929B
100
AcDbEntity
  8
寸法
 62
     0
 48
50.0
370
    -2
100
AcDbLine
 10
8169.425427234028
 20
4759.135455076977
 30
0.0
 11
7553.490988128749
 21
4776.849605351308
 31
0.0
  0
LINE
  5
192DC
330
1929B
100
AcDbEntity
  8
寸法
 62
     0
 48
50.0
370
    -2
100
AcDbLine
 10
8165.3719716774
 20
4618.193731311264
 30
0.0
 11
7549.437532572122
 21
4635.907881585594
 31
0.0
  0
LINE
  5
192DD
330
1929B
100
AcDbEntity
  8
寸法
 62
     0
 48
50.0
370
    -2
100
AcDbLine
 10
7609.412734174553
 20
4634.183006880646
 30
0.0
 11
7613.466189731179
 21
4775.124730646359
 31
0.0
  0
LINE
  5
192DE
330
1929B
100
AcDbEntity
  8
寸法
 62
     0
 48
50.0
370
    -2
100
AcDbLine
 10
7613.466189731179
 20
4775.124730646359
 30
0.0
 11
7623.815437960864
 21
5134.975940260947
 31
0.0
  0
INSERT
  5
192DF
330
1929B
100
AcDbEntity
  8
寸法
 62
     0
 48
50.0
370
    -2
100
AcDbBlockReference
  2
_DOTSMALL
 10
7609.412734174553
 20
4634.183006880646
 30
0.0
 41
100.0
 42
100.0
 43
100.0
 50
268.3526390256378
  0
INSERT
  5
192E0
330
1929B
100
AcDbEntity
  8
寸法
 62
     0
 48
50.0
370
    -2
100
AcDbBlockReference
  2
_DOTSMALL
 10
7613.466189731179
 20
4775.124730646359
 30
0.0
 41
100.0
 42
100.0
 43
100.0
 50
88.35263902563776
  0
MTEXT
  5
192E1
330
1929B
100
AcDbEntity
  8
寸法
 62
     7
 48
50.0
100
AcDbMText
 10
7520.119540096093
 20
5007.904461297259
 30
0.0
 40
120.0
 41
0.0
 71
     5
 72
     1
  1
\A1;141
  7
STYLE1
 11
0.0287479117491237
 21
0.9995866933738488
 31
0.0
 73
     1
 44
1.0
1001
ACAD
1000
MTEXTBEGIN
1070
    73
1070
     1
1070
    44
1040
1.0
1070
    74
1070
     0
1000
MTEXTEND
  0
POINT
  5
192E2
330
1929B
100
AcDbEntity
  8
DEFPOINTS
 62
     0
 48
50.0
100
AcDbPoint
 10
8189.417161101504
 20
4758.560496841995
 30
0.0
  0
POINT
  5
192E3
330
1929B
100
AcDbEntity
  8
DEFPOINTS
 62
     0
 48
50.0
100
AcDbPoint
 10
8185.363705544878
 20
4617.618773076282
 30
0.0
  0
POINT
  5
192E4
330
1929B
100
AcDbEntity
  8
DEFPOINTS
 62
     0
 48
50.0
100
AcDbPoint
 10
7609.412734174553
 20
4634.183006880646
 30
0.0
  0
ENDBLK
  5
192A7
330
1929B
100
AcDbEntity
  8
0
 48
50.0
100
AcDbBlockEnd
  0
BLOCK
  5
192B3
330
192A8
100
AcDbEntity
  8
0
 48
50.0
100
AcDbBlockBegin
  2
*D22
 70
     1
 10
0.0
 20
0.0
 30
0.0
  3
*D22
  1

  0
LINE
  5
192E5
330
192A8
100
AcDbEntity
  8
寸法
 62
     0
 48
50.0
370
    -2
100
AcDbLine
 10
11280.02114094292
 20
4726.648427618971
 30
0.0
 11
11280.02114094292
 21
5218.495201586622
 31
0.0
  0
LINE
  5
192E6
330
192A8
100
AcDbEntity
  8
寸法
 62
     0
 48
50.0
370
    -2
100
AcDbLine
 10
11360.02114094292
 20
4724.83774800732
 30
0.0
 11
11360.02114094292
 21
5218.495201586622
 31
0.0
  0
LINE
  5
192E7
330
192A8
100
AcDbEntity
  8
寸法
 62
     0
 48
50.0
370
    -2
100
AcDbLine
 10
11280.02114094292
 20
5158.495201586622
 30
0.0
 11
11360.02114094292
 21
5158.495201586622
 31
0.0
  0
LINE
  5
192E8
330
192A8
100
AcDbEntity
  8
寸法
 62
     0
 48
50.0
370
    -2
100
AcDbLine
 10
11360.02114094292
 20
5158.495201586622
 30
0.0
 11
11672.1156291319
 21
5158.495201586622
 31
0.0
  0
INSERT
  5
192E9
330
192A8
100
AcDbEntity
  8
寸法
 62
     0
 48
50.0
370
    -2
100
AcDbBlockReference
  2
_DOTSMALL
 10
11280.02114094292
 20
5158.495201586622
 30
0.0
 41
100.0
 42
100.0
 43
100.0
 50
180.0
  0
INSERT
  5
192EA
330
192A8
100
AcDbEntity
  8
寸法
 62
     0
 48
50.0
370
    -2
100
AcDbBlockReference
  2
_DOTSMALL
 10
11360.02114094292
 20
5158.495201586622
 30
0.0
 41
100.0
 42
100.0
 43
100.0
  0
MTEXT
  5
192EB
330
192A8
100
AcDbEntity
  8
寸法
 62
     7
 48
50.0
100
AcDbMText
 10
11566.06838503741
 20
5258.495201586622
 30
0.0
 40
120.0
 41
0.0
 71
     5
 72
     1
  1
\A1;80
  7
STYLE1
 73
     1
 44
1.0
1001
ACAD
1000
MTEXTBEGIN
1070
    73
1070
     1
1070
    44
1040
1.0
1070
    74
1070
     0
1000
MTEXTEND
  0
POINT
  5
192EC
330
192A8
100
AcDbEntity
  8
DEFPOINTS
 62
     0
 48
50.0
100
AcDbPoint
 10
11280.02114094292
 20
4706.648427618971
 30
0.0
  0
POINT
  5
192ED
330
192A8
100
AcDbEntity
  8
DEFPOINTS
 62
     0
 48
50.0
100
AcDbPoint
 10
11360.02114094292
 20
4704.83774800732
 30
0.0
  0
POINT
  5
192EE
330
192A8
100
AcDbEntity
  8
DEFPOINTS
 62
     0
 48
50.0
100
AcDbPoint
 10
11360.02114094292
 20
5158.495201586622
 30
0.0
  0
ENDBLK
  5
192B4
330
192A8
100
AcDbEntity
  8
0
 48
50.0
100
AcDbBlockEnd
  0
BLOCK
  5
192BF
330
192B5
100
AcDbEntity
  8
0
 48
50.0
100
AcDbBlockBegin
  2
*D23
 70
     1
 10
0.0
 20
0.0
 30
0.0
  3
*D23
  1

  0
LINE
  5
192EF
330
192B5
100
AcDbEntity
  8
寸法
 62
     0
 48
50.0
370
    -2
100
AcDbLine
 10
11360.02114094292
 20
4724.837748007318
 30
0.0
 11
11360.02114094292
 21
5448.608794372898
 31
0.0
  0
LINE
  5
192F0
330
192B5
100
AcDbEntity
  8
寸法
 62
     0
 48
50.0
370
    -2
100
AcDbLine
 10
8170.021140942925
 20
4779.83774800732
 30
0.0
 11
8170.021140942925
 21
5448.608794372898
 31
0.0
  0
LINE
  5
192F1
330
192B5
100
AcDbEntity
  8
寸法
 62
     0
 48
50.0
370
    -2
100
AcDbLine
 10
11360.02114094292
 20
5388.608794372898
 30
0.0
 11
8170.021140942925
 21
5388.608794372898
 31
0.0
  0
INSERT
  5
192F2
330
192B5
100
AcDbEntity
  8
寸法
 62
     0
 48
50.0
370
    -2
100
AcDbBlockReference
  2
_DOTSMALL
 10
11360.02114094292
 20
5388.608794372898
 30
0.0
 41
100.0
 42
100.0
 43
100.0
  0
INSERT
  5
192F3
330
192B5
100
AcDbEntity
  8
寸法
 62
     0
 48
50.0
370
    -2
100
AcDbBlockReference
  2
_DOTSMALL
 10
8170.021140942925
 20
5388.608794372898
 30
0.0
 41
100.0
 42
100.0
 43
100.0
 50
180.0
  0
MTEXT
  5
192F4
330
192B5
100
AcDbEntity
  8
寸法
 62
     7
 48
50.0
100
AcDbMText
 10
9841.72694725245
 20
5488.608794372898
 30
0.0
 40
120.0
 41
0.0
 71
     5
 72
     1
  1
\A1;3190
  7
STYLE1
 73
     1
 44
1.0
1001
ACAD
1000
MTEXTBEGIN
1070
    73
1070
     1
1070
    44
1040
1.0
1070
    74
1070
     0
1000
MTEXTEND
  0
POINT
  5
192F5
330
192B5
100
AcDbEntity
  8
DEFPOINTS
 62
     0
 48
50.0
100
AcDbPoint
 10
11360.02114094292
 20
4704.837748007317
 30
0.0
  0
POINT
  5
192F6
330
192B5
100
AcDbEntity
  8
DEFPOINTS
 62
     0
 48
50.0
100
AcDbPoint
 10
8170.021140942925
 20
4759.83774800732
 30
0.0
  0
POINT
  5
192F7
330
192B5
100
AcDbEntity
  8
DEFPOINTS
 62
     0
 48
50.0
100
AcDbPoint
 10
8170.021140942925
 20
5388.608794372898
 30
0.0
  0
ENDBLK
  5
192C0
330
192B5
100
AcDbEntity
  8
0
 48
50.0
100
AcDbBlockEnd
  0
BLOCK
  5
192CD
330
192C1
100
AcDbEntity
  8
0
 48
50.0
100
AcDbBlockBegin
  2
*D24
 70
     1
 10
0.0
 20
0.0
 30
0.0
  3
*D24
  1

  0
LINE
  5
192F8
330
192C1
100
AcDbEntity
  8
寸法
 62
     0
 48
50.0
370
    -2
100
AcDbLine
 10
8230.021140942925
 20
4775.839366130292
 30
0.0
 11
8230.021140942925
 21
5218.49520158662
 31
0.0
  0
LINE
  5
192F9
330
192C1
100
AcDbEntity
  8
寸法
 62
     0
 48
50.0
370
    -2
100
AcDbLine
 10
8170.021140942925
 20
4779.83774800732
 30
0.0
 11
8170.021140942925
 21
5218.49520158662
 31
0.0
  0
LINE
  5
192FA
330
192C1
100
AcDbEntity
  8
寸法
 62
     0
 48
50.0
370
    -2
100
AcDbLine
 10
8230.021140942925
 20
5158.49520158662
 30
0.0
 11
8330.021140942925
 21
5158.49520158662
 31
0.0
  0
LINE
  5
192FB
330
192C1
100
AcDbEntity
  8
寸法
 62
     0
 48
50.0
370
    -2
100
AcDbLine
 10
8170.021140942925
 20
5158.49520158662
 30
0.0
 11
7750.745550391744
 21
5158.49520158662
 31
0.0
  0
LINE
  5
192FC
330
192C1
100
AcDbEntity
  8
寸法
 62
     0
 48
50.0
370
    -2
100
AcDbLine
 10
8230.021140942925
 20
5158.49520158662
 30
0.0
 11
8170.021140942925
 21
5158.49520158662
 31
0.0
  0
INSERT
  5
192FD
330
192C1
100
AcDbEntity
  8
寸法
 62
     0
 48
50.0
370
    -2
100
AcDbBlockReference
  2
_DOTSMALL
 10
8230.021140942925
 20
5158.49520158662
 30
0.0
 41
100.0
 42
100.0
 43
100.0
 50
180.0
  0
INSERT
  5
192FE
330
192C1
100
AcDbEntity
  8
寸法
 62
     0
 48
50.0
370
    -2
100
AcDbBlockReference
  2
_DOTSMALL
 10
8170.021140942925
 20
5158.49520158662
 30
0.0
 41
100.0
 42
100.0
 43
100.0
  0
MTEXT
  5
192FF
330
192C1
100
AcDbEntity
  8
寸法
 62
     7
 48
50.0
100
AcDbMText
 10
7860.383345667334
 20
5258.49520158662
 30
0.0
 40
120.0
 41
0.0
 71
     5
 72
     1
  1
\A1;60
  7
STYLE1
 73
     1
 44
1.0
1001
ACAD
1000
MTEXTBEGIN
1070
    73
1070
     1
1070
    44
1040
1.0
1070
    74
1070
     0
1000
MTEXTEND
  0
POINT
  5
19300
330
192C1
100
AcDbEntity
  8
DEFPOINTS
 62
     0
 48
50.0
100
AcDbPoint
 10
8230.021140942925
 20
4755.839366130293
 30
0.0
  0
POINT
  5
19301
330
192C1
100
AcDbEntity
  8
DEFPOINTS
 62
     0
 48
50.0
100
AcDbPoint
 10
8170.021140942925
 20
4759.83774800732
 30
0.0
  0
POINT
  5
19302
330
192C1
100
AcDbEntity
  8
DEFPOINTS
 62
     0
 48
50.0
100
AcDbPoint
 10
8170.021140942925
 20
5158.49520158662
 30
0.0
  0
ENDBLK
  5
192CE
330
192C1
100
AcDbEntity
  8
0
 48
50.0
100
AcDbBlockEnd
  0
BLOCK
  5
192D9
330
192CF
100
AcDbEntity
  8
0
 48
50.0
100
AcDbBlockBegin
  2
*D25
 70
     1
 10
0.0
 20
0.0
 30
0.0
  3
*D25
  1

  0
LINE
  5
19303
330
192CF
100
AcDbEntity
  8
寸法
 62
     0
 48
50.0
370
    -2
100
AcDbLine
 10
11280.02114094292
 20
4726.648427618971
 30
0.0
 11
11280.02114094292
 21
5218.495201586622
 31
0.0
  0
LINE
  5
19304
330
192CF
100
AcDbEntity
  8
寸法
 62
     0
 48
50.0
370
    -2
100
AcDbLine
 10
8230.021140942925
 20
4775.839366130292
 30
0.0
 11
8230.021140942925
 21
5218.495201586622
 31
0.0
  0
LINE
  5
19305
330
192CF
100
AcDbEntity
  8
寸法
 62
     0
 48
50.0
370
    -2
100
AcDbLine
 10
11280.02114094292
 20
5158.495201586622
 30
0.0
 11
8230.021140942925
 21
5158.495201586622
 31
0.0
  0
INSERT
  5
19306
330
192CF
100
AcDbEntity
  8
寸法
 62
     0
 48
50.0
370
    -2
100
AcDbBlockReference
  2
_DOTSMALL
 10
11280.02114094292
 20
5158.495201586622
 30
0.0
 41
100.0
 42
100.0
 43
100.0
  0
INSERT
  5
19307
330
192CF
100
AcDbEntity
  8
寸法
 62
     0
 48
50.0
370
    -2
100
AcDbBlockReference
  2
_DOTSMALL
 10
8230.021140942925
 20
5158.495201586622
 30
0.0
 41
100.0
 42
100.0
 43
100.0
 50
180.0
  0
MTEXT
  5
19308
330
192CF
100
AcDbEntity
  8
寸法
 62
     7
 48
50.0
100
AcDbMText
 10
9800.079515502337
 20
5258.495201586622
 30
0.0
 40
120.0
 41
0.0
 71
     5
 72
     1
  1
\A1;柱外寸法3050
  7
STYLE1
 73
     1
 44
1.0
1001
ACAD
1000
MTEXTBEGIN
1070
    73
1070
     1
1070
    44
1040
1.0
1070
    74
1070
     0
1000
MTEXTEND
  0
POINT
  5
19309
330
192CF
100
AcDbEntity
  8
DEFPOINTS
 62
     0
 48
50.0
100
AcDbPoint
 10
11280.02114094292
 20
4706.648427618971
 30
0.0
  0
POINT
  5
1930A
330
192CF
100
AcDbEntity
  8
DEFPOINTS
 62
     0
 48
50.0
100
AcDbPoint
 10
8230.021140942925
 20
4755.839366130293
 30
0.0
  0
POINT
  5
1930B
330
192CF
100
AcDbEntity
  8
DEFPOINTS
 62
     0
 48
50.0
100
AcDbPoint
 10
8230.021140942925
 20
5158.495201586622
 30
0.0
  0
ENDBLK
  5
192DA
330
192CF
100
AcDbEntity
  8
0
 48
50.0
100
AcDbBlockEnd
  0
BLOCK
  5
1931D
330
19312
100
AcDbEntity
  8
0
 48
50.0
100
AcDbBlockBegin
  2
*D26
 70
     1
 10
0.0
 20
0.0
 30
0.0
  3
*D26
  1

  0
LINE
  5
1935E
330
19312
100
AcDbEntity
  8
寸法
 62
     0
 48
50.0
370
    -2
100
AcDbLine
 10
8155.021140942926
 20
2684.837748007313
 30
0.0
 11
7261.381759013566
 21
2684.837748007313
 31
0.0
  0
LINE
  5
1935F
330
19312
100
AcDbEntity
  8
寸法
 62
     0
 48
50.0
370
    -2
100
AcDbLine
 10
7586.368431784627
 20
2584.837748007313
 30
0.0
 11
7261.381759013566
 21
2584.837748007313
 31
0.0
  0
LINE
  5
19360
330
19312
100
AcDbEntity
  8
寸法
 62
     0
 48
50.0
370
    -2
100
AcDbLine
 10
7321.381759013568
 20
2684.837748007313
 30
0.0
 11
7321.381759013568
 21
2584.837748007313
 31
0.0
  0
LINE
  5
19361
330
19312
100
AcDbEntity
  8
寸法
 62
     0
 48
50.0
370
    -2
100
AcDbLine
 10
7321.381759013568
 20
2584.837748007313
 30
0.0
 11
7321.381759013568
 21
2212.743259818333
 31
0.0
  0
INSERT
  5
19362
330
19312
100
AcDbEntity
  8
寸法
 62
     0
 48
50.0
370
    -2
100
AcDbBlockReference
  2
_DOTSMALL
 10
7321.381759013568
 20
2684.837748007313
 30
0.0
 41
100.0
 42
100.0
 43
100.0
 50
90.0
  0
INSERT
  5
19363
330
19312
100
AcDbEntity
  8
寸法
 62
     0
 48
50.0
370
    -2
100
AcDbBlockReference
  2
_DOTSMALL
 10
7321.381759013568
 20
2584.837748007313
 30
0.0
 41
100.0
 42
100.0
 43
100.0
 50
270.0
  0
MTEXT
  5
19364
330
19312
100
AcDbEntity
  8
寸法
 62
     7
 48
50.0
100
AcDbMText
 10
7221.381759013566
 20
2348.790503912823
 30
0.0
 40
120.0
 41
0.0
 71
     5
 72
     1
  1
\A1;100
  7
STYLE1
 11
0.0000000000000001
 21
1.0
 31
0.0
 73
     1
 44
1.0
1001
ACAD
1000
MTEXTBEGIN
1070
    73
1070
     1
1070
    44
1040
1.0
1070
    74
1070
     0
1000
MTEXTEND
  0
POINT
  5
19365
330
19312
100
AcDbEntity
  8
DEFPOINTS
 62
     0
 48
50.0
100
AcDbPoint
 10
8175.021140942925
 20
2684.837748007313
 30
0.0
  0
POINT
  5
19366
330
19312
100
AcDbEntity
  8
DEFPOINTS
 62
     0
 48
50.0
100
AcDbPoint
 10
7606.368431784628
 20
2584.837748007313
 30
0.0
  0
POINT
  5
19367
330
19312
100
AcDbEntity
  8
DEFPOINTS
 62
     0
 48
50.0
100
AcDbPoint
 10
7321.381759013568
 20
2584.837748007313
 30
0.0
  0
ENDBLK
  5
1931E
330
19312
100
AcDbEntity
  8
0
 48
50.0
100
AcDbBlockEnd
  0
BLOCK
  5
1932B
330
1931F
100
AcDbEntity
  8
0
 48
50.0
100
AcDbBlockBegin
  2
*D27
 70
     1
 10
0.0
 20
0.0
 30
0.0
  3
*D27
  1

  0
LINE
  5
19368
330
1931F
100
AcDbEntity
  8
寸法
 62
     0
 48
50.0
370
    -2
100
AcDbLine
 10
8210.021140942926
 20
2734.837748007314
 30
0.0
 11
7546.368431784628
 21
2734.837748007314
 31
0.0
  0
LINE
  5
19369
330
1931F
100
AcDbEntity
  8
寸法
 62
     0
 48
50.0
370
    -2
100
AcDbLine
 10
8155.021140942926
 20
2684.837748007313
 30
0.0
 11
7546.368431784628
 21
2684.837748007313
 31
0.0
  0
LINE
  5
1936A
330
1931F
100
AcDbEntity
  8
寸法
 62
     0
 48
50.0
370
    -2
100
AcDbLine
 10
7606.368431784628
 20
2734.837748007314
 30
0.0
 11
7606.368431784628
 21
2834.837748007313
 31
0.0
  0
LINE
  5
1936B
330
1931F
100
AcDbEntity
  8
寸法
 62
     0
 48
50.0
370
    -2
100
AcDbLine
 10
7606.368431784628
 20
2684.837748007313
 30
0.0
 11
7606.368431784628
 21
2272.743259818333
 31
0.0
  0
LINE
  5
1936C
330
1931F
100
AcDbEntity
  8
寸法
 62
     0
 48
50.0
370
    -2
100
AcDbLine
 10
7606.368431784628
 20
2734.837748007314
 30
0.0
 11
7606.368431784628
 21
2684.837748007313
 31
0.0
  0
INSERT
  5
1936D
330
1931F
100
AcDbEntity
  8
寸法
 62
     0
 48
50.0
370
    -2
100
AcDbBlockReference
  2
_DOTSMALL
 10
7606.368431784628
 20
2734.837748007314
 30
0.0
 41
100.0
 42
100.0
 43
100.0
 50
270.0
  0
INSERT
  5
1936E
330
1931F
100
AcDbEntity
  8
寸法
 62
     0
 48
50.0
370
    -2
100
AcDbBlockReference
  2
_DOTSMALL
 10
7606.368431784628
 20
2684.837748007313
 30
0.0
 41
100.0
 42
100.0
 43
100.0
 50
90.0
  0
MTEXT
  5
1936F
330
1931F
100
AcDbEntity
  8
寸法
 62
     7
 48
50.0
100
AcDbMText
 10
7506.368431784628
 20
2378.790503912822
 30
0.0
 40
120.0
 41
0.0
 71
     5
 72
     1
  1
\A1;50
  7
STYLE1
 11
0.0000000000000001
 21
1.0
 31
0.0
 73
     1
 44
1.0
1001
ACAD
1000
MTEXTBEGIN
1070
    73
1070
     1
1070
    44
1040
1.0
1070
    74
1070
     0
1000
MTEXTEND
  0
POINT
  5
19370
330
1931F
100
AcDbEntity
  8
DEFPOINTS
 62
     0
 48
50.0
100
AcDbPoint
 10
8230.021140942925
 20
2734.837748007314
 30
0.0
  0
POINT
  5
19371
330
1931F
100
AcDbEntity
  8
DEFPOINTS
 62
     0
 48
50.0
100
AcDbPoint
 10
8175.021140942925
 20
2684.837748007313
 30
0.0
  0
POINT
  5
19372
330
1931F
100
AcDbEntity
  8
DEFPOINTS
 62
     0
 48
50.0
100
AcDbPoint
 10
7606.368431784628
 20
2684.837748007313
 30
0.0
  0
ENDBLK
  5
1932C
330
1931F
100
AcDbEntity
  8
0
 48
50.0
100
AcDbBlockEnd
  0
BLOCK
  5
19337
330
1932D
100
AcDbEntity
  8
0
 48
50.0
100
AcDbBlockBegin
  2
*D28
 70
     1
 10
0.0
 20
0.0
 30
0.0
  3
*D28
  1

  0
LINE
  5
19373
330
1932D
100
AcDbEntity
  8
寸法
 62
     0
 48
50.0
370
    -2
100
AcDbLine
 10
8210.021140942926
 20
4524.837748007313
 30
0.0
 11
7546.368431784628
 21
4524.837748007313
 31
0.0
  0
LINE
  5
19374
330
1932D
100
AcDbEntity
  8
寸法
 62
     0
 48
50.0
370
    -2
100
AcDbLine
 10
8210.021140942926
 20
2734.837748007314
 30
0.0
 11
7546.368431784628
 21
2734.837748007314
 31
0.0
  0
LINE
  5
19375
330
1932D
100
AcDbEntity
  8
寸法
 62
     0
 48
50.0
370
    -2
100
AcDbLine
 10
7606.368431784628
 20
4524.837748007313
 30
0.0
 11
7606.368431784628
 21
2734.837748007314
 31
0.0
  0
INSERT
  5
19376
330
1932D
100
AcDbEntity
  8
寸法
 62
     0
 48
50.0
370
    -2
100
AcDbBlockReference
  2
_DOTSMALL
 10
7606.368431784628
 20
4524.837748007313
 30
0.0
 41
100.0
 42
100.0
 43
100.0
 50
90.0
  0
INSERT
  5
19377
330
1932D
100
AcDbEntity
  8
寸法
 62
     0
 48
50.0
370
    -2
100
AcDbBlockReference
  2
_DOTSMALL
 10
7606.368431784628
 20
2734.837748007314
 30
0.0
 41
100.0
 42
100.0
 43
100.0
 50
270.0
  0
MTEXT
  5
19378
330
1932D
100
AcDbEntity
  8
寸法
 62
     7
 48
50.0
100
AcDbMText
 10
7506.368431784628
 20
3625.292046549271
 30
0.0
 40
120.0
 41
0.0
 71
     5
 72
     1
  1
\A1;1790
  7
STYLE1
 11
0.0000000000000001
 21
1.0
 31
0.0
 73
     1
 44
1.0
1001
ACAD
1000
MTEXTBEGIN
1070
    73
1070
     1
1070
    44
1040
1.0
1070
    74
1070
     0
1000
MTEXTEND
  0
POINT
  5
19379
330
1932D
100
AcDbEntity
  8
DEFPOINTS
 62
     0
 48
50.0
100
AcDbPoint
 10
8230.021140942925
 20
4524.837748007313
 30
0.0
  0
POINT
  5
1937A
330
1932D
100
AcDbEntity
  8
DEFPOINTS
 62
     0
 48
50.0
100
AcDbPoint
 10
8230.021140942925
 20
2734.837748007314
 30
0.0
  0
POINT
  5
1937B
330
1932D
100
AcDbEntity
  8
DEFPOINTS
 62
     0
 48
50.0
100
AcDbPoint
 10
7606.368431784628
 20
2734.837748007314
 30
0.0
  0
ENDBLK
  5
19338
330
1932D
100
AcDbEntity
  8
0
 48
50.0
100
AcDbBlockEnd
  0
BLOCK
  5
19343
330
19339
100
AcDbEntity
  8
0
 48
50.0
100
AcDbBlockBegin
  2
*D29
 70
     1
 10
0.0
 20
0.0
 30
0.0
  3
*D29
  1

  0
LINE
  5
1937C
330
19339
100
AcDbEntity
  8
寸法
 62
     0
 48
50.0
370
    -2
100
AcDbLine
 10
8210.021140942926
 20
2684.837748007313
 30
0.0
 11
7261.381759013566
 21
2684.837748007313
 31
0.0
  0
LINE
  5
1937D
330
19339
100
AcDbEntity
  8
寸法
 62
     0
 48
50.0
370
    -2
100
AcDbLine
 10
8150.021140942925
 20
4759.837748007319
 30
0.0
 11
7261.381759013566
 21
4759.837748007319
 31
0.0
  0
LINE
  5
1937E
330
19339
100
AcDbEntity
  8
寸法
 62
     0
 48
50.0
370
    -2
100
AcDbLine
 10
7321.381759013568
 20
2684.837748007313
 30
0.0
 11
7321.381759013568
 21
4759.837748007319
 31
0.0
  0
INSERT
  5
1937F
330
19339
100
AcDbEntity
  8
寸法
 62
     0
 48
50.0
370
    -2
100
AcDbBlockReference
  2
_DOTSMALL
 10
7321.381759013568
 20
2684.837748007313
 30
0.0
 41
100.0
 42
100.0
 43
100.0
 50
270.0
  0
INSERT
  5
19380
330
19339
100
AcDbEntity
  8
寸法
 62
     0
 48
50.0
370
    -2
100
AcDbBlockReference
  2
_DOTSMALL
 10
7321.381759013568
 20
4759.837748007319
 30
0.0
 41
100.0
 42
100.0
 43
100.0
 50
90.0
  0
MTEXT
  5
19381
330
19339
100
AcDbEntity
  8
寸法
 62
     7
 48
50.0
100
AcDbMText
 10
7221.369947989945
 20
3679.043625500423
 30
0.0
 40
120.0
 41
0.0
 71
     5
 72
     1
  1
\A1;2075
  7
STYLE1
 11
0.0000000000000001
 21
1.0
 31
0.0
 73
     1
 44
1.0
1001
ACAD
1000
MTEXTBEGIN
1070
    73
1070
     1
1070
    44
1040
1.0
1070
    74
1070
     0
1000
MTEXTEND
  0
POINT
  5
19382
330
19339
100
AcDbEntity
  8
DEFPOINTS
 62
     0
 48
50.0
100
AcDbPoint
 10
8230.021140942925
 20
2684.837748007313
 30
0.0
  0
POINT
  5
19383
330
19339
100
AcDbEntity
  8
DEFPOINTS
 62
     0
 48
50.0
100
AcDbPoint
 10
8170.021140942925
 20
4759.837748007319
 30
0.0
  0
POINT
  5
19384
330
19339
100
AcDbEntity
  8
DEFPOINTS
 62
     0
 48
50.0
100
AcDbPoint
 10
7321.381759013568
 20
4759.837748007319
 30
0.0
  0
ENDBLK
  5
19344
330
19339
100
AcDbEntity
  8
0
 48
50.0
100
AcDbBlockEnd
  0
BLOCK
  5
19350
330
19345
100
AcDbEntity
  8
0
 48
50.0
100
AcDbBlockBegin
  2
*D30
 70
     1
 10
0.0
 20
0.0
 30
0.0
  3
*D30
  1

  0
LINE
  5
19385
330
19345
100
AcDbEntity
  8
寸法
 62
     0
 48
50.0
370
    -2
100
AcDbLine
 10
8169.425427234028
 20
4759.135455076974
 30
0.0
 11
7553.490988128752
 21
4776.849605351304
 31
0.0
  0
LINE
  5
19386
330
19345
100
AcDbEntity
  8
寸法
 62
     0
 48
50.0
370
    -2
100
AcDbLine
 10
8165.3719716774
 20
4618.193731311261
 30
0.0
 11
7549.437532572127
 21
4635.907881585589
 31
0.0
  0
LINE
  5
19387
330
19345
100
AcDbEntity
  8
寸法
 62
     0
 48
50.0
370
    -2
100
AcDbLine
 10
7609.412734174556
 20
4634.183006880641
 30
0.0
 11
7613.466189731183
 21
4775.124730646355
 31
0.0
  0
LINE
  5
19388
330
19345
100
AcDbEntity
  8
寸法
 62
     0
 48
50.0
370
    -2
100
AcDbLine
 10
7613.466189731183
 20
4775.124730646355
 30
0.0
 11
7623.815437960868
 21
5134.975940260945
 31
0.0
  0
INSERT
  5
19389
330
19345
100
AcDbEntity
  8
寸法
 62
     0
 48
50.0
370
    -2
100
AcDbBlockReference
  2
_DOTSMALL
 10
7609.412734174556
 20
4634.183006880641
 30
0.0
 41
100.0
 42
100.0
 43
100.0
 50
268.3526390256379
  0
INSERT
  5
1938A
330
19345
100
AcDbEntity
  8
寸法
 62
     0
 48
50.0
370
    -2
100
AcDbBlockReference
  2
_DOTSMALL
 10
7613.466189731183
 20
4775.124730646355
 30
0.0
 41
100.0
 42
100.0
 43
100.0
 50
88.35263902563784
  0
MTEXT
  5
1938B
330
19345
100
AcDbEntity
  8
寸法
 62
     7
 48
50.0
100
AcDbMText
 10
7520.119540096096
 20
5007.904461297258
 30
0.0
 40
120.0
 41
0.0
 71
     5
 72
     1
  1
\A1;141
  7
STYLE1
 11
0.0287479117491228
 21
0.9995866933738486
 31
0.0
 73
     1
 44
1.0
1001
ACAD
1000
MTEXTBEGIN
1070
    73
1070
     1
1070
    44
1040
1.0
1070
    74
1070
     0
1000
MTEXTEND
  0
POINT
  5
1938C
330
19345
100
AcDbEntity
  8
DEFPOINTS
 62
     0
 48
50.0
100
AcDbPoint
 10
8189.417161101504
 20
4758.560496841992
 30
0.0
  0
POINT
  5
1938D
330
19345
100
AcDbEntity
  8
DEFPOINTS
 62
     0
 48
50.0
100
AcDbPoint
 10
8185.363705544876
 20
4617.618773076277
 30
0.0
  0
POINT
  5
1938E
330
19345
100
AcDbEntity
  8
DEFPOINTS
 62
     0
 48
50.0
100
AcDbPoint
 10
7609.412734174556
 20
4634.183006880641
 30
0.0
  0
ENDBLK
  5
19351
330
19345
100
AcDbEntity
  8
0
 48
50.0
100
AcDbBlockEnd
  0
BLOCK
  5
1935C
330
19352
100
AcDbEntity
  8
0
 48
50.0
100
AcDbBlockBegin
  2
*D31
 70
     1
 10
0.0
 20
0.0
 30
0.0
  3
*D31
  1

  0
LINE
  5
1938F
330
19352
100
AcDbEntity
  8
寸法
 62
     0
 48
50.0
370
    -2
100
AcDbLine
 10
8658.021140942926
 20
4467.837748007313
 30
0.0
 11
7876.796334471911
 21
4467.837748007313
 31
0.0
  0
LINE
  5
19390
330
19352
100
AcDbEntity
  8
寸法
 62
     0
 48
50.0
370
    -2
100
AcDbLine
 10
8658.021140942926
 20
2742.837748007313
 30
0.0
 11
7876.796334471911
 21
2742.837748007313
 31
0.0
  0
LINE
  5
19391
330
19352
100
AcDbEntity
  8
寸法
 62
     0
 48
50.0
370
    -2
100
AcDbLine
 10
7936.796334471911
 20
4467.837748007313
 30
0.0
 11
7936.796334471911
 21
2742.837748007313
 31
0.0
  0
INSERT
  5
19392
330
19352
100
AcDbEntity
  8
寸法
 62
     0
 48
50.0
370
    -2
100
AcDbBlockReference
  2
_DOTSMALL
 10
7936.796334471911
 20
4467.837748007313
 30
0.0
 41
100.0
 42
100.0
 43
100.0
 50
90.0
  0
INSERT
  5
19393
330
19352
100
AcDbEntity
  8
寸法
 62
     0
 48
50.0
370
    -2
100
AcDbBlockReference
  2
_DOTSMALL
 10
7936.796334471911
 20
2742.837748007313
 30
0.0
 41
100.0
 42
100.0
 43
100.0
 50
270.0
  0
MTEXT
  5
19394
330
19352
100
AcDbEntity
  8
寸法
 62
     7
 48
50.0
100
AcDbMText
 10
7836.784523448288
 20
3644.766368216274
 30
0.0
 40
120.0
 41
0.0
 71
     5
 72
     1
  1
\A1;有効開口部高サ1725
  7
STYLE1
 11
0.0000000000000001
 21
1.0
 31
0.0
 73
     1
 44
1.0
1001
ACAD
1000
MTEXTBEGIN
1070
    73
1070
     1
1070
    44
1040
1.0
1070
    74
1070
     0
1000
MTEXTEND
  0
POINT
  5
19395
330
19352
100
AcDbEntity
  8
DEFPOINTS
 62
     0
 48
50.0
100
AcDbPoint
 10
8678.021140942927
 20
4467.837748007313
 30
0.0
  0
POINT
  5
19396
330
19352
100
AcDbEntity
  8
DEFPOINTS
 62
     0
 48
50.0
100
AcDbPoint
 10
8678.021140942927
 20
2742.837748007313
 30
0.0
  0
POINT
  5
19397
330
19352
100
AcDbEntity
  8
DEFPOINTS
 62
     0
 48
50.0
100
AcDbPoint
 10
7936.796334471911
 20
2742.837748007313
 30
0.0
  0
ENDBLK
  5
1935D
330
19352
100
AcDbEntity
  8
0
 48
50.0
100
AcDbBlockEnd
  0
BLOCK
  5
19709
330
196FF
100
AcDbEntity
  8
0
 48
50.0
100
AcDbBlockBegin
  2
*D32
 70
     1
 10
0.0
 20
0.0
 30
0.0
  3
*D32
  1

  0
LINE
  5
19C56
330
196FF
100
AcDbEntity
  8
寸法
 62
     0
 48
50.0
370
    -2
100
AcDbLine
 10
8717.021140942888
 20
7991.469353485825
 30
0.0
 11
8717.021140942888
 21
7332.17148003455
 31
0.0
  0
LINE
  5
19C57
330
196FF
100
AcDbEntity
  8
寸法
 62
     0
 48
50.0
370
    -2
100
AcDbLine
 10
9983.021140942888
 20
7991.469353485825
 30
0.0
 11
9983.021140942888
 21
7332.17148003455
 31
0.0
  0
LINE
  5
19C58
330
196FF
100
AcDbEntity
  8
寸法
 62
     0
 48
50.0
370
    -2
100
AcDbLine
 10
8737.021140942889
 20
7372.171480034551
 30
0.0
 11
9963.021140942888
 21
7372.171480034551
 31
0.0
  0
INSERT
  5
19C59
330
196FF
100
AcDbEntity
  8
寸法
 62
     0
 48
50.0
370
    -2
100
AcDbBlockReference
  2
_DOT
 10
8717.021140942888
 20
7372.171480034551
 30
0.0
 41
20.0
 42
20.0
 43
20.0
 50
180.0
  0
INSERT
  5
19C5A
330
196FF
100
AcDbEntity
  8
寸法
 62
     0
 48
50.0
370
    -2
100
AcDbBlockReference
  2
_DOT
 10
9983.021140942888
 20
7372.171480034551
 30
0.0
 41
20.0
 42
20.0
 43
20.0
  0
MTEXT
  5
19C5B
330
196FF
100
AcDbEntity
  8
寸法
 62
     7
 48
50.0
100
AcDbMText
 10
9335.690679116277
 20
7564.183291058172
 30
0.0
 40
120.0
 41
0.0
 71
     5
 72
     1
  1
\A1;有効開口部間口\P1266
  7
STYLE1
 73
     1
 44
1.0
1001
ACAD
1000
MTEXTBEGIN
1070
    73
1070
     1
1070
    44
1040
1.0
1070
    74
1070
     0
1000
MTEXTEND
  0
POINT
  5
19C5C
330
196FF
100
AcDbEntity
  8
DEFPOINTS
 62
     0
 48
50.0
100
AcDbPoint
 10
8717.021140942888
 20
8011.469353485825
 30
0.0
  0
POINT
  5
19C5D
330
196FF
100
AcDbEntity
  8
DEFPOINTS
 62
     0
 48
50.0
100
AcDbPoint
 10
9983.021140942888
 20
8011.469353485825
 30
0.0
  0
POINT
  5
19C5E
330
196FF
100
AcDbEntity
  8
DEFPOINTS
 62
     0
 48
50.0
100
AcDbPoint
 10
9983.021140942888
 20
7372.171480034551
 30
0.0
  0
ENDBLK
  5
1970A
330
196FF
100
AcDbEntity
  8
0
 48
50.0
100
AcDbBlockEnd
  0
BLOCK
  5
19A66
330
19A5C
100
AcDbEntity
  8
0
 48
50.0
100
AcDbBlockBegin
  2
*D33
 70
     1
 10
0.0
 20
0.0
 30
0.0
  3
*D33
  1

  0
LINE
  5
19C4D
330
19A5C
100
AcDbEntity
  8
寸法
 62
     0
 48
50.0
370
    -2
100
AcDbLine
 10
8678.021140942888
 20
7991.469353485825
 30
0.0
 11
8678.021140942888
 21
7031.339638058057
 31
0.0
  0
LINE
  5
19C4E
330
19A5C
100
AcDbEntity
  8
寸法
 62
     0
 48
50.0
370
    -2
100
AcDbLine
 10
10832.02114094289
 20
7991.469353485825
 30
0.0
 11
10832.02114094289
 21
7031.339638058057
 31
0.0
  0
LINE
  5
19C4F
330
19A5C
100
AcDbEntity
  8
寸法
 62
     0
 48
50.0
370
    -2
100
AcDbLine
 10
8678.021140942888
 20
7091.339638058058
 30
0.0
 11
10832.02114094289
 21
7091.339638058058
 31
0.0
  0
INSERT
  5
19C50
330
19A5C
100
AcDbEntity
  8
寸法
 62
     0
 48
50.0
370
    -2
100
AcDbBlockReference
  2
_DOTSMALL
 10
8678.021140942888
 20
7091.339638058058
 30
0.0
 41
100.0
 42
100.0
 43
100.0
 50
180.0
  0
INSERT
  5
19C51
330
19A5C
100
AcDbEntity
  8
寸法
 62
     0
 48
50.0
370
    -2
100
AcDbBlockReference
  2
_DOTSMALL
 10
10832.02114094289
 20
7091.339638058058
 30
0.0
 41
100.0
 42
100.0
 43
100.0
  0
MTEXT
  5
19C52
330
19A5C
100
AcDbEntity
  8
寸法
 62
     7
 48
50.0
100
AcDbMText
 10
9777.153897690201
 20
7191.351449081679
 30
0.0
 40
120.0
 41
0.0
 71
     5
 72
     1
  1
\A1;2154
  7
STYLE1
 73
     1
 44
1.0
1001
ACAD
1000
MTEXTBEGIN
1070
    73
1070
     1
1070
    44
1040
1.0
1070
    74
1070
     0
1000
MTEXTEND
  0
POINT
  5
19C53
330
19A5C
100
AcDbEntity
  8
DEFPOINTS
 62
     0
 48
50.0
100
AcDbPoint
 10
8678.021140942888
 20
8011.469353485825
 30
0.0
  0
POINT
  5
19C54
330
19A5C
100
AcDbEntity
  8
DEFPOINTS
 62
     0
 48
50.0
100
AcDbPoint
 10
10832.02114094289
 20
8011.469353485825
 30
0.0
  0
POINT
  5
19C55
330
19A5C
100
AcDbEntity
  8
DEFPOINTS
 62
     0
 48
50.0
100
AcDbPoint
 10
10832.02114094289
 20
7091.339638058058
 30
0.0
  0
ENDBLK
  5
19A67
330
19A5C
100
AcDbEntity
  8
0
 48
50.0
100
AcDbBlockEnd
  0
BLOCK
  5
19B89
330
19B7D
100
AcDbEntity
  8
0
 48
50.0
100
AcDbBlockBegin
  2
*D34
 70
     1
 10
0.0
 20
0.0
 30
0.0
  3
*D34
  1

  0
LINE
  5
19C42
330
19B7D
100
AcDbEntity
  8
寸法
 62
     0
 48
50.0
370
    -2
100
AcDbLine
 10
8210.021140942911
 20
8088.469353485793
 30
0.0
 11
7895.409895316195
 21
8088.469353485793
 31
0.0
  0
LINE
  5
19C43
330
19B7D
100
AcDbEntity
  8
寸法
 62
     0
 48
50.0
370
    -2
100
AcDbLine
 10
8658.021140942887
 20
8013.469353485794
 30
0.0
 11
7895.409895316195
 21
8013.469353485794
 31
0.0
  0
LINE
  5
19C44
330
19B7D
100
AcDbEntity
  8
寸法
 62
     0
 48
50.0
370
    -2
100
AcDbLine
 10
7935.409895316195
 20
8108.469353485793
 30
0.0
 11
7935.409895316195
 21
8128.469353485792
 31
0.0
  0
LINE
  5
19C45
330
19B7D
100
AcDbEntity
  8
寸法
 62
     0
 48
50.0
370
    -2
100
AcDbLine
 10
7935.409895316195
 20
7993.469353485792
 30
0.0
 11
7935.409895316195
 21
7772.498790737315
 31
0.0
  0
LINE
  5
19C46
330
19B7D
100
AcDbEntity
  8
寸法
 62
     0
 48
50.0
370
    -2
100
AcDbLine
 10
7935.409895316195
 20
8088.469353485793
 30
0.0
 11
7935.409895316195
 21
8013.469353485794
 31
0.0
  0
INSERT
  5
19C47
330
19B7D
100
AcDbEntity
  8
寸法
 62
     0
 48
50.0
370
    -2
100
AcDbBlockReference
  2
_DOT
 10
7935.409895316195
 20
8088.469353485793
 30
0.0
 41
20.0
 42
20.0
 43
20.0
 50
270.0
  0
INSERT
  5
19C48
330
19B7D
100
AcDbEntity
  8
寸法
 62
     0
 48
50.0
370
    -2
100
AcDbBlockReference
  2
_DOT
 10
7935.409895316195
 20
8013.469353485794
 30
0.0
 41
20.0
 42
20.0
 43
20.0
 50
90.0
  0
MTEXT
  5
19C49
330
19B7D
100
AcDbEntity
  8
寸法
 62
     7
 48
50.0
100
AcDbMText
 10
7843.409895316193
 20
7872.984072111555
 30
0.0
 40
120.0
 41
0.0
 71
     5
 72
     1
  1
\A1;75
  7
STYLE1
 11
0.0000000000000001
 21
1.0
 31
0.0
 73
     1
 44
1.0
1001
ACAD
1000
MTEXTBEGIN
1070
    73
1070
     1
1070
    44
1040
1.0
1070
    74
1070
     0
1000
MTEXTEND
  0
POINT
  5
19C4A
330
19B7D
100
AcDbEntity
  8
DEFPOINTS
 62
     0
 48
50.0
100
AcDbPoint
 10
8230.021140942913
 20
8088.469353485793
 30
0.0
  0
POINT
  5
19C4B
330
19B7D
100
AcDbEntity
  8
DEFPOINTS
 62
     0
 48
50.0
100
AcDbPoint
 10
8678.021140942886
 20
8013.469353485794
 30
0.0
  0
POINT
  5
19C4C
330
19B7D
100
AcDbEntity
  8
DEFPOINTS
 62
     0
 48
50.0
100
AcDbPoint
 10
7935.409895316195
 20
8013.469353485794
 30
0.0
  0
ENDBLK
  5
19B8A
330
19B7D
100
AcDbEntity
  8
0
 48
50.0
100
AcDbBlockEnd
  0
ENDSEC
  0
SECTION
  2
ENTITIES
  0
LINE
  5
10B57
330
747D
100
AcDbEntity
  8
補助
  6
PHANTOM
 62
   230
 48
50.0
100
AcDbLine
 10
139.9999999999995
 20
11409.6
 30
0.0
 11
16307.2
 21
11409.6
 31
0.0
  0
LINE
  5
10B59
330
747D
100
AcDbEntity
  8
仕様書枠
  6
Continuous
 48
50.0
100
AcDbLine
 10
13107.2
 20
1200.0
 30
0.0
 11
13107.2
 21
-0.0000000000000729
 31
0.0
  0
LINE
  5
10B5C
330
747D
100
AcDbEntity
  8
仕様書枠
 48
50.0
100
AcDbLine
 10
16307.2
 20
1200.0
 30
0.0
 11
16307.2
 21
-0.0000000000000909
 31
0.0
  0
LINE
  5
10B5D
330
747D
100
AcDbEntity
  8
仕様書枠
 48
50.0
100
AcDbLine
 10
140.0
 20
0.0
 30
0.0
 11
16307.2
 21
-0.0000000000000909
 31
0.0
  0
LINE
  5
10B5E
330
747D
100
AcDbEntity
  8
補助
  6
PHANTOM
 62
   230
 48
50.0
100
AcDbLine
 10
16307.2
 20
11409.6
 30
0.0
 11
16307.2
 21
1200.0
 31
0.0
  0
LINE
  5
10B6C
330
747D
100
AcDbEntity
  8
仕様書枠
 48
50.0
100
AcDbLine
 10
13107.2
 20
1200.0
 30
0.0
 11
16307.2
 21
1200.0
 31
0.0
  0
LINE
  5
10B6D
330
747D
100
AcDbEntity
  8
補助
  6
PHANTOM
 62
   230
 48
50.0
100
AcDbLine
 10
13107.2
 20
11409.6
 30
0.0
 11
13107.2
 21
4800.0
 31
0.0
  0
LINE
  5
10B6F
330
747D
100
AcDbEntity
  8
補助
  6
PHANTOM
 62
   230
 48
50.0
100
AcDbLine
 10
13107.2
 20
4800.0
 30
0.0
 11
16307.2
 21
4800.0
 31
0.0
  0
LINE
  5
10B72
330
747D
100
AcDbEntity
  8
文字
 62
     7
 48
50.0
100
AcDbLine
 10
13187.2
 20
400.0
 30
0.0
 11
16227.2
 21
400.0
 31
0.0
  0
TEXT
  5
10B73
330
747D
100
AcDbEntity
  8
文字
 62
     7
 48
50.0
100
AcDbText
 10
13162.9790565769
 20
895.0906074299405
 30
0.0
 40
200.0
  1
外 形 図
  7
STYLE2
100
AcDbText
  0
TEXT
  5
10B74
330
747D
100
AcDbEntity
  8
文字
 62
     7
 48
50.0
100
AcDbText
 10
13201.43669998441
 20
477.2740661031255
 30
0.0
 40
160.0
  1
機種名
  7
STYLE2
100
AcDbText
  0
TEXT
  5
10B76
330
747D
100
AcDbEntity
  8
文字
 62
     7
 48
50.0
100
AcDbText
 10
13209.4053442172
 20
76.09434707649343
 30
0.0
 40
100.0
  1
○床面積 ： 4.34㎡(1.32坪) 　
  7
STYLE2
100
AcDbText
  0
TEXT
  5
10B79
330
747D
100
AcDbEntity
  8
文字
 62
     7
 48
50.0
100
AcDbText
 10
14524.131837222
 20
1031.557706291228
 30
0.0
 40
100.0
  1
NO.26     <縮尺> S=1/40
  7
STYLE2
100
AcDbText
  0
LINE
  5
10B7B
330
747D
100
AcDbEntity
  8
仕様書枠
 48
50.0
100
AcDbLine
 10
13107.2
 20
800.0
 30
0.0
 11
14251.2
 21
800.0
 31
0.0
  0
LINE
  5
10B88
330
747D
100
AcDbEntity
  8
仕様書枠
  6
Continuous
 48
50.0
100
AcDbLine
 10
14251.2
 20
1200.0
 30
0.0
 11
14251.2
 21
800.0
 31
0.0
  0
LINE
  5
12765
330
747D
100
AcDbEntity
  8
Ｇ．Ｌ
100
AcDbLine
 10
2986.091962826642
 20
2584.837748007313
 30
0.0
 11
12077.37114573985
 21
2584.837748007313
 31
0.0
  0
TEXT
  5
149A1
330
747D
100
AcDbEntity
  8
部品1
100
AcDbText
 10
9487.561211712291
 20
1512.698400447592
 30
0.0
 40
135.0
  1
正面図
  7
STYLE2
100
AcDbText
  0
TEXT
  5
14E88
330
747D
100
AcDbEntity
  8
部品1
100
AcDbText
 10
9463.20541765773
 20
6281.555179677052
 30
0.0
 40
135.0
  1
平面図
  7
STYLE2
100
AcDbText
  0
TEXT
  5
15729
330
747D
100
AcDbEntity
  8
文字
 62
     7
 48
50.0
100
AcDbText
 10
14620.21718390324
 20
869.7247441969318
 30
0.0
 40
100.0
  1
～一般型・多雪地型～
  7
STYLE2
100
AcDbText
  0
LINE
  5
16837
330
747D
100
AcDbEntity
  8
部品1
100
AcDbLine
 10
9373.285807828692
 20
6474.448708895576
 30
0.0
 11
9373.285807828692
 21
6234.556387350043
 31
0.0
  0
LINE
  5
16838
330
747D
100
AcDbEntity
  8
部品1
100
AcDbLine
 10
9373.285807828692
 20
6234.556387350043
 30
0.0
 11
10136.75647405713
 21
6234.556387350043
 31
0.0
  0
LINE
  5
16839
330
747D
100
AcDbEntity
  8
部品1
100
AcDbLine
 10
10136.75647405713
 20
6234.556387350043
 30
0.0
 11
10136.75647405713
 21
6474.448708895576
 31
0.0
  0
LINE
  5
1683A
330
747D
100
AcDbEntity
  8
部品1
100
AcDbLine
 10
10136.75647405713
 20
6474.448708895576
 30
0.0
 11
9373.285807828692
 21
6474.448708895576
 31
0.0
  0
LINE
  5
1683B
330
747D
100
AcDbEntity
  8
部品1
100
AcDbLine
 10
9397.035807974335
 20
1705.591929666115
 30
0.0
 11
9397.035807974335
 21
1465.699608120583
 31
0.0
  0
LINE
  5
1683C
330
747D
100
AcDbEntity
  8
部品1
100
AcDbLine
 10
9397.035807974335
 20
1465.699608120583
 30
0.0
 11
10160.50647420277
 21
1465.699608120583
 31
0.0
  0
LINE
  5
1683D
330
747D
100
AcDbEntity
  8
部品1
100
AcDbLine
 10
10160.50647420277
 20
1465.699608120583
 30
0.0
 11
10160.50647420277
 21
1705.591929666115
 31
0.0
  0
LINE
  5
1683E
330
747D
100
AcDbEntity
  8
部品1
100
AcDbLine
 10
10160.50647420277
 20
1705.591929666115
 30
0.0
 11
9397.035807974335
 21
1705.591929666115
 31
0.0
  0
LINE
  5
17D9F
330
747D
100
AcDbEntity
  8
部品1
100
AcDbLine
 10
8230.021140942925
 20
4524.837748007312
 30
0.0
 11
11280.02114094292
 21
4524.837748007312
 31
0.0
  0
LINE
  5
17DA0
330
747D
100
AcDbEntity
  8
部品1
100
AcDbLine
 10
8230.021140942925
 20
2734.837748007312
 30
0.0
 11
8678.021140942922
 21
2734.837748007312
 31
0.0
  0
LINE
  5
17DA1
330
747D
100
AcDbEntity
  8
部品1
100
AcDbLine
 10
8230.021140942925
 20
2684.837748007313
 30
0.0
 11
11280.02114094292
 21
2684.837748007312
 31
0.0
  0
LINE
  5
17DAC
330
747D
100
AcDbEntity
  8
部品1
100
AcDbLine
 10
8230.021140942925
 20
4617.065349241953
 30
0.0
 11
8230.021140942925
 21
2584.837748007312
 31
0.0
  0
LINE
  5
17DAE
330
747D
100
AcDbEntity
  8
部品1
100
AcDbLine
 10
8285.021140942923
 20
4524.837748007312
 30
0.0
 11
8285.021140942923
 21
2734.837748007312
 31
0.0
  0
LINE
  5
17DB0
330
747D
100
AcDbEntity
  8
部品1
100
AcDbLine
 10
8225.021140942926
 20
2729.837748007315
 30
0.0
 11
8225.021140942926
 21
2584.837748007312
 31
0.0
  0
DIMENSION
  5
17DB1
330
747D
100
AcDbEntity
  8
寸法
 48
50.0
100
AcDbDimension
  2
*D1
 10
8105.021140942923
 20
2048.790418706934
 30
0.0
 11
8230.021140942925
 21
2048.790418706934
 31
0.0
 70
   160
 71
     5
 42
-1.0
  3
INABA_S40G
100
AcDbAlignedDimension
 13
8355.021140942925
 23
2334.837748007311
 33
0.0
 14
8105.021140942923
 24
2334.837748007311
 34
0.0
100
AcDbRotatedDimension
  0
LINE
  5
17DB2
330
747D
100
AcDbEntity
  8
破線
 48
5.0
100
AcDbLine
 10
8105.021140942925
 20
2334.837748007312
 30
0.0
 11
8355.021140942927
 21
2334.837748007312
 31
0.0
  0
LINE
  5
17DB3
330
747D
100
AcDbEntity
  8
破線
 48
5.0
100
AcDbLine
 10
8105.021140942925
 20
2584.837748007313
 30
0.0
 11
8105.021140942925
 21
2334.837748007312
 31
0.0
  0
LINE
  5
17DB4
330
747D
100
AcDbEntity
  8
破線
 48
5.0
100
AcDbLine
 10
8355.021140942925
 20
2584.837748007313
 30
0.0
 11
8355.021140942925
 21
2334.837748007312
 31
0.0
  0
LINE
  5
17DB5
330
747D
100
AcDbEntity
  8
破線
  6
HIDDEN
 48
5.0
100
AcDbLine
 10
8222.521140942925
 20
2432.137748007312
 30
0.0
 11
8222.521140942925
 21
2429.837748007313
 31
0.0
  0
LINE
  5
17DB6
330
747D
100
AcDbEntity
  8
破線
 48
5.0
100
AcDbLine
 10
8205.021140942925
 20
2429.837748007313
 30
0.0
 11
8225.021140942926
 21
2429.837748007313
 31
0.0
  0
LINE
  5
17DB7
330
747D
100
AcDbEntity
  8
破線
 48
5.0
100
AcDbLine
 10
8225.021140942926
 20
2584.837748007312
 30
0.0
 11
8225.021140942926
 21
2429.837748007313
 31
0.0
  0
LINE
  5
17DC2
330
747D
100
AcDbEntity
  8
部品1
100
AcDbLine
 10
10832.02114094292
 20
2734.837748007312
 30
0.0
 11
11280.02114094292
 21
2734.837748007312
 31
0.0
  0
LINE
  5
17DD5
330
747D
100
AcDbEntity
  8
部品1
 48
50.0
100
AcDbLine
 10
8928.021140942922
 20
2684.837748007312
 30
0.0
 11
8928.021140942922
 21
2584.837748007312
 31
0.0
  0
LINE
  5
17DD6
330
747D
100
AcDbEntity
  8
部品1
100
AcDbLine
 10
8630.021140942924
 20
2684.837748007312
 30
0.0
 11
8630.021140942924
 21
2584.837748007312
 31
0.0
  0
LINE
  5
17DD8
330
747D
100
AcDbEntity
  8
部品1
 48
50.0
100
AcDbLine
 10
9655.021140942924
 20
2684.837748007312
 30
0.0
 11
9655.021140942924
 21
2584.837748007312
 31
0.0
  0
LINE
  5
17DD9
330
747D
100
AcDbEntity
  8
部品1
 48
50.0
100
AcDbLine
 10
9128.021140942923
 20
2684.837748007312
 30
0.0
 11
9128.021140942923
 21
2584.837748007312
 31
0.0
  0
LINE
  5
17E09
330
747D
100
AcDbEntity
  8
部品1
 48
50.0
100
AcDbLine
 10
9855.021140942923
 20
2684.837748007312
 30
0.0
 11
9855.021140942923
 21
2584.837748007312
 31
0.0
  0
LINE
  5
17E0A
330
747D
100
AcDbEntity
  8
部品1
100
AcDbLine
 10
10880.02114094292
 20
2684.837748007312
 30
0.0
 11
10880.02114094292
 21
2584.837748007312
 31
0.0
  0
LINE
  5
17E0B
330
747D
100
AcDbEntity
  8
部品1
 48
50.0
100
AcDbLine
 10
10582.02114094292
 20
2684.837748007312
 30
0.0
 11
10582.02114094292
 21
2584.837748007312
 31
0.0
  0
LINE
  5
17E0C
330
747D
100
AcDbEntity
  8
部品1
 48
50.0
100
AcDbLine
 10
10382.02114094292
 20
2684.837748007312
 30
0.0
 11
10382.02114094292
 21
2584.837748007312
 31
0.0
  0
LINE
  5
17E11
330
747D
100
AcDbEntity
  8
部品1
100
AcDbLine
 10
11280.02114094292
 20
4579.267775788436
 30
0.0
 11
11280.02114094292
 21
2584.837748007312
 31
0.0
  0
DIMENSION
  5
17E12
330
747D
100
AcDbEntity
  8
寸法
 48
50.0
100
AcDbDimension
  2
*D2
 10
11971.23471992899
 20
4704.837748007312
 30
0.0
 11
11871.22290890537
 21
3694.837748007313
 31
0.0
 12
-35.38418555527096
 22
5958.747145674302
 32
0.0
 70
    32
 71
     5
 42
-1.0
  3
INABA_S40G
100
AcDbAlignedDimension
 13
11280.02114094292
 23
2684.837748007312
 33
0.0
 14
11360.02114094293
 24
4704.837748007312
 34
0.0
 50
90.0
100
AcDbRotatedDimension
1001
ACAD
1000
DSTYLE
1002
{
1002
}
  0
LINE
  5
17E13
330
747D
100
AcDbEntity
  8
部品1
100
AcDbLine
 10
10805.02114094292
 20
4524.837748007312
 30
0.0
 11
10805.02114094292
 21
4519.837748007312
 31
0.0
  0
LINE
  5
17E19
330
747D
100
AcDbEntity
  8
部品1
100
AcDbLine
 10
11285.02114094292
 20
2729.837748007313
 30
0.0
 11
11285.02114094292
 21
2584.837748007312
 31
0.0
  0
LINE
  5
17E1B
330
747D
100
AcDbEntity
  8
破線
 48
5.0
100
AcDbLine
 10
11305.02114094292
 20
2429.837748007313
 30
0.0
 11
11285.02114094292
 21
2429.837748007313
 31
0.0
  0
LINE
  5
17E1C
330
747D
100
AcDbEntity
  8
破線
 48
5.0
100
AcDbLine
 10
11285.02114094292
 20
2584.837748007312
 30
0.0
 11
11285.02114094292
 21
2429.837748007313
 31
0.0
  0
LINE
  5
18126
330
747D
100
AcDbEntity
  8
破線
 48
5.0
100
AcDbLine
 10
11155.02114094292
 20
2584.837748007313
 30
0.0
 11
11155.02114094292
 21
2334.837748007312
 31
0.0
  0
LINE
  5
18127
330
747D
100
AcDbEntity
  8
破線
 48
5.0
100
AcDbLine
 10
11405.02114094292
 20
2334.837748007312
 30
0.0
 11
11155.02114094292
 21
2334.837748007312
 31
0.0
  0
LINE
  5
18128
330
747D
100
AcDbEntity
  8
破線
 48
5.0
100
AcDbLine
 10
11405.02114094292
 20
2584.837748007313
 30
0.0
 11
11405.02114094292
 21
2334.837748007312
 31
0.0
  0
DIMENSION
  5
182B2
330
747D
100
AcDbEntity
  8
寸法
100
AcDbDimension
  2
*D3
 10
8285.021140942918
 20
9758.469353485869
 30
0.0
 11
7921.535859568646
 21
9758.469353485869
 31
0.0
 70
   160
 71
     5
 42
55.00000000003274
  3
INABA_S40G
100
AcDbAlignedDimension
 13
8230.021140942886
 23
9458.469353485869
 33
0.0
 14
8285.021140942918
 24
9458.469353485869
 34
0.0
100
AcDbRotatedDimension
1001
ACAD
1000
DSTYLE
1002
{
1002
}
  0
LINE
  5
182B8
330
747D
100
AcDbEntity
  8
部品1
 48
50.0
100
AcDbLine
 10
8258.021140942913
 20
8116.469353485937
 30
0.0
 11
11252.02114094293
 21
8116.469353485943
 31
0.0
  0
LINE
  5
182B9
330
747D
100
AcDbEntity
  8
部品1
100
AcDbLine
 10
11223.5211409429
 20
8563.46935348594
 30
0.0
 11
8286.521140942904
 21
8563.469353485841
 31
0.0
  0
LINE
  5
182BA
330
747D
100
AcDbEntity
  8
部品1
100
AcDbLine
 10
9767.521140942918
 20
9430.469353485982
 30
0.0
 11
11252.02114094292
 21
9430.469353485964
 31
0.0
  0
LINE
  5
182BB
330
747D
100
AcDbEntity
  8
細線
 48
50.0
100
AcDbLine
 10
11251.52114094292
 20
8978.469353485968
 30
0.0
 11
9768.521140942917
 21
9428.469353485967
 31
0.0
  0
LINE
  5
182BC
330
747D
100
AcDbEntity
  8
部品1
100
AcDbLine
 10
9768.521140942917
 20
8978.469353485975
 30
0.0
 11
11251.52114094292
 21
8978.469353485968
 31
0.0
  0
LINE
  5
182BD
330
747D
100
AcDbEntity
  8
部品1
100
AcDbLine
 10
9768.521140942917
 20
9428.46935348597
 30
0.0
 11
11251.52114094292
 21
9428.469353485963
 31
0.0
  0
LINE
  5
182BE
330
747D
100
AcDbEntity
  8
細線
 48
50.0
100
AcDbLine
 10
11251.52114094292
 20
9428.469353485963
 30
0.0
 11
9768.521140942917
 21
8978.469353485975
 31
0.0
  0
DIMENSION
  5
182BF
330
747D
100
AcDbEntity
  8
寸法
100
AcDbDimension
  2
*D4
 10
11160.56924003618
 20
8639.032238257101
 30
0.0
 11
10267.24389645567
 21
8639.032238257101
 31
0.0
 70
   160
 71
     5
 42
1483.000000000013
  3
INABA_S40G
100
AcDbAlignedDimension
 13
9768.52114094291
 23
8978.469353486039
 33
0.0
 14
11251.52114094292
 24
8978.469353486032
 34
0.0
100
AcDbRotatedDimension
1001
ACAD
1000
DSTYLE
1002
{
1002
}
  0
LINE
  5
182C0
330
747D
100
AcDbEntity
  8
破線
 48
10.0
100
AcDbLine
 10
11200.02114094292
 20
8168.469353485955
 30
0.0
 11
10507.52114094289
 21
8168.469353485894
 31
0.0
  0
DIMENSION
  5
182C1
330
747D
100
AcDbEntity
  8
寸法
100
AcDbDimension
  2
*D5
 10
11280.02114094289
 20
6804.364487931497
 30
0.0
 11
9774.736971316846
 21
6804.364487931497
 31
0.0
 70
   160
 71
     5
 42
3049.999999999982
  3
INABA_S40G
100
AcDbAlignedDimension
 13
8230.021140942913
 23
8088.469353485793
 33
0.0
 14
11280.02114094289
 24
8088.469353485956
 34
0.0
100
AcDbRotatedDimension
1001
ACAD
1000
DSTYLE
1002
{
1002
}
  0
LINE
  5
182C2
330
747D
100
AcDbEntity
  8
部品1
100
AcDbLine
 10
8230.021140942918
 20
9458.469353485869
 30
0.0
 11
11280.02114094292
 21
9458.469353485964
 31
0.0
  0
LINE
  5
182C3
330
747D
100
AcDbEntity
  8
部品1
100
AcDbLine
 10
11223.52114094292
 20
8144.969353485956
 30
0.0
 11
8286.521140942813
 21
8144.969353485837
 31
0.0
  0
DIMENSION
  5
182C4
330
747D
100
AcDbEntity
  8
寸法
100
AcDbDimension
  2
*D6
 10
11225.02114094292
 20
9758.469353485917
 30
0.0
 11
9755.021140942918
 21
9758.469353485917
 31
0.0
 70
   160
  1
7X420=<>
 71
     5
 42
2940.000000000002
  3
INABA_S40G
100
AcDbAlignedDimension
 13
8285.021140942918
 23
9458.469353485869
 33
0.0
 14
11225.02114094292
 24
9458.469353485964
 34
0.0
100
AcDbRotatedDimension
1001
ACAD
1000
DSTYLE
1002
{
1002
}
  0
LINE
  5
182C5
330
747D
100
AcDbEntity
  8
部品1
100
AcDbLine
 10
8286.521140942896
 20
8978.469353485916
 30
0.0
 11
8286.521140942907
 21
8144.969353485931
 31
0.0
  0
LINE
  5
182C6
330
747D
100
AcDbEntity
  8
部品1
 48
50.0
100
AcDbLine
 10
9755.02114094292
 20
8978.469353485976
 30
0.0
 11
9755.021140942947
 21
8144.969353485853
 31
0.0
  0
DIMENSION
  5
182C7
330
747D
100
AcDbEntity
  8
寸法
100
AcDbDimension
  2
*D7
 10
9650.569240036187
 20
8639.032238257101
 30
0.0
 11
8816.261632330398
 21
8639.032238257101
 31
0.0
 70
   160
 71
     5
 42
1483.000000000071
  3
INABA_S40G
100
AcDbAlignedDimension
 13
8258.521140942841
 23
8978.469353485982
 33
0.0
 14
9741.521140942912
 24
8978.469353485975
 34
0.0
100
AcDbRotatedDimension
1001
ACAD
1000
DSTYLE
1002
{
1002
}
  0
LINE
  5
182C8
330
747D
100
AcDbEntity
  8
破線
 48
10.0
100
AcDbLine
 10
10507.52114094289
 20
8144.969353485869
 30
0.0
 11
10507.52114094289
 21
8978.469353485975
 31
0.0
  0
LINE
  5
182C9
330
747D
100
AcDbEntity
  8
破線
 48
10.0
100
AcDbLine
 10
10457.52114094289
 20
8144.969353485866
 30
0.0
 11
10457.52114094289
 21
8978.469353485975
 31
0.0
  0
LINE
  5
182CA
330
747D
100
AcDbEntity
  8
破線
 48
10.0
100
AcDbLine
 10
9052.521140942893
 20
8144.969353485869
 30
0.0
 11
9052.521140942896
 21
8978.469353485975
 31
0.0
  0
LINE
  5
182CB
330
747D
100
AcDbEntity
  8
破線
 48
10.0
100
AcDbLine
 10
9002.521140942896
 20
8144.969353485866
 30
0.0
 11
9002.521140942896
 21
8978.469353485975
 31
0.0
  0
LINE
  5
182CC
330
747D
100
AcDbEntity
  8
破線
 48
10.0
100
AcDbLine
 10
9780.021140942894
 20
8144.969353485869
 30
0.0
 11
9780.021140942888
 21
8978.469353485973
 31
0.0
  0
LINE
  5
182CD
330
747D
100
AcDbEntity
  8
破線
 48
10.0
100
AcDbLine
 10
9730.021140942895
 20
8144.969353485866
 30
0.0
 11
9730.021140942888
 21
8978.469353485975
 31
0.0
  0
LINE
  5
182CE
330
747D
100
AcDbEntity
  8
部品1
100
AcDbLine
 10
8230.021140942886
 20
9458.469353485837
 30
0.0
 11
8230.021140942913
 21
8088.469353485825
 31
0.0
  0
LINE
  5
182CF
330
747D
100
AcDbEntity
  8
部品1
100
AcDbLine
 10
8258.021140942892
 20
8116.469353485916
 30
0.0
 11
8258.021140942911
 21
8983.46935348584
 31
0.0
  0
LINE
  5
182D0
330
747D
100
AcDbEntity
  8
破線
 48
10.0
100
AcDbLine
 10
8310.021140942893
 20
8978.469353485968
 30
0.0
 11
8310.021140942906
 21
8168.469353485837
 31
0.0
  0
LINE
  5
182D6
330
747D
100
AcDbEntity
  8
破線
 48
10.0
100
AcDbLine
 10
9730.021140942895
 20
8168.469353485866
 30
0.0
 11
9052.521140942891
 21
8168.469353485845
 31
0.0
  0
LINE
  5
182D7
330
747D
100
AcDbEntity
  8
破線
 48
10.0
100
AcDbLine
 10
9002.521140942896
 20
8168.469353485825
 30
0.0
 11
8310.021140942906
 21
8168.469353485837
 31
0.0
  0
LINE
  5
182D8
330
747D
100
AcDbEntity
  8
部品1
100
AcDbLine
 10
8705.021140942887
 20
8088.469353485825
 30
0.0
 11
8230.021140942913
 21
8088.469353485825
 31
0.0
  0
LINE
  5
182D9
330
747D
100
AcDbEntity
  8
部品1
100
AcDbLine
 10
8285.021140942886
 20
8088.469353485956
 30
0.0
 11
8285.021140942886
 21
8116.469353485957
 31
0.0
  0
LINE
  5
182DA
330
747D
100
AcDbEntity
  8
部品1
 48
50.0
100
AcDbLine
 10
8286.521140942907
 20
8144.969353485931
 30
0.0
 11
8258.021140942911
 21
8116.469353485934
 31
0.0
  0
LINE
  5
182DB
330
747D
100
AcDbEntity
  8
部品1
100
AcDbLine
 10
8258.021140942894
 20
8143.469353485789
 30
0.0
 11
8230.021140942911
 21
8143.469353485789
 31
0.0
  0
LINE
  5
182DC
330
747D
100
AcDbEntity
  8
部品1
100
AcDbLine
 10
8258.021140942894
 20
8143.469353485825
 30
0.0
 11
8230.021140942911
 21
8143.469353485825
 31
0.0
  0
LINE
  5
182DD
330
747D
100
AcDbEntity
  8
部品1
100
AcDbLine
 10
8258.021140942911
 20
8143.469353485839
 30
0.0
 11
8230.021140942911
 21
8143.469353485839
 31
0.0
  0
LINE
  5
182DE
330
747D
100
AcDbEntity
  8
部品1
100
AcDbLine
 10
8230.021140942911
 20
8143.469353485789
 30
0.0
 11
8230.021140942913
 21
8088.469353485793
 31
0.0
  0
LINE
  5
182DF
330
747D
100
AcDbEntity
  8
部品1
100
AcDbLine
 10
8258.021140942892
 20
8563.469353485841
 30
0.0
 11
8230.021140942893
 21
8563.469353485841
 31
0.0
  0
LINE
  5
182EC
330
747D
100
AcDbEntity
  8
部品1
100
AcDbLine
 10
8705.021140942887
 20
8088.469353485956
 30
0.0
 11
8705.021140942887
 21
8116.469353485957
 31
0.0
  0
LINE
  5
182F9
330
747D
100
AcDbEntity
  8
破線
 48
10.0
100
AcDbLine
 10
10457.52114094289
 20
8168.469353485882
 30
0.0
 11
9780.021140942896
 21
8168.469353485869
 31
0.0
  0
LINE
  5
18319
330
747D
100
AcDbEntity
  8
部品1
100
AcDbLine
 10
8258.521140942848
 20
8978.469353485916
 30
0.0
 11
9741.521140942918
 21
8978.469353485975
 31
0.0
  0
LINE
  5
1831A
330
747D
100
AcDbEntity
  8
部品1
100
AcDbLine
 10
8258.521140942848
 20
9428.469353485915
 30
0.0
 11
9741.521140942918
 21
9428.469353485974
 31
0.0
  0
LINE
  5
1831B
330
747D
100
AcDbEntity
  8
部品1
100
AcDbLine
 10
8285.021140942918
 20
9430.469353485985
 30
0.0
 11
9742.521140942919
 21
9430.469353485985
 31
0.0
  0
LINE
  5
1831C
330
747D
100
AcDbEntity
  8
細線
 48
50.0
100
AcDbLine
 10
9741.521140942918
 20
9428.46935348597
 30
0.0
 11
8258.521140942848
 21
8978.469353485918
 31
0.0
  0
LINE
  5
1831D
330
747D
100
AcDbEntity
  8
細線
 48
50.0
100
AcDbLine
 10
9741.521140942918
 20
8978.469353485975
 30
0.0
 11
8258.521140942848
 21
9428.469353485919
 31
0.0
  0
LINE
  5
1831E
330
747D
100
AcDbEntity
  8
部品1
100
AcDbLine
 10
8258.021140942918
 20
9430.469353485868
 30
0.0
 11
9230.021140942918
 21
9430.469353485873
 31
0.0
  0
LINE
  5
1831F
330
747D
100
AcDbEntity
  8
部品1
100
AcDbLine
 10
8258.021140942911
 20
8977.969353485839
 30
0.0
 11
8258.021140942918
 21
9430.469353485868
 31
0.0
  0
LINE
  5
18320
330
747D
100
AcDbEntity
  8
部品1
 48
50.0
100
AcDbLine
 10
8258.521140942848
 20
9428.46935348597
 30
0.0
 11
8258.521140942848
 21
8978.469353485975
 31
0.0
  0
LINE
  5
18321
330
747D
100
AcDbEntity
  8
部品1
100
AcDbLine
 10
8258.021140942892
 20
8983.46935348584
 30
0.0
 11
8230.021140942893
 21
8983.46935348584
 31
0.0
  0
LINE
  5
18322
330
747D
100
AcDbEntity
  8
部品1
100
AcDbLine
 10
8258.021140942885
 20
9403.46935348584
 30
0.0
 11
8230.021140942886
 21
9403.46935348584
 31
0.0
  0
LINE
  5
18323
330
747D
100
AcDbEntity
  8
部品1
100
AcDbLine
 10
8285.021140942886
 20
9458.469353485837
 30
0.0
 11
8285.021140942886
 21
9430.469353485836
 31
0.0
  0
LINE
  5
18324
330
747D
100
AcDbEntity
  8
部品1
100
AcDbLine
 10
8285.021140942918
 20
9458.469353485869
 30
0.0
 11
8285.021140942918
 21
9430.469353485868
 31
0.0
  0
LINE
  5
18325
330
747D
100
AcDbEntity
  8
部品1
100
AcDbLine
 10
8705.021140942886
 20
9458.469353485837
 30
0.0
 11
8705.021140942886
 21
9430.469353485836
 31
0.0
  0
LINE
  5
18326
330
747D
100
AcDbEntity
  8
部品1
100
AcDbLine
 10
9125.021140942884
 20
9458.469353485837
 30
0.0
 11
9125.021140942884
 21
9430.469353485836
 31
0.0
  0
LINE
  5
18327
330
747D
100
AcDbEntity
  8
部品1
 48
50.0
100
AcDbLine
 10
9767.521140942918
 20
9430.469353485975
 30
0.0
 11
9767.521140942918
 21
8978.469353485975
 31
0.0
  0
LINE
  5
18328
330
747D
100
AcDbEntity
  8
部品1
 48
50.0
100
AcDbLine
 10
9742.521140942919
 20
9430.469353485978
 30
0.0
 11
9742.521140942919
 21
8978.469353485975
 31
0.0
  0
LINE
  5
18329
330
747D
100
AcDbEntity
  8
部品1
 48
50.0
100
AcDbLine
 10
9768.521140942917
 20
9428.469353485967
 30
0.0
 11
9768.521140942917
 21
8978.469353485975
 31
0.0
  0
LINE
  5
1832A
330
747D
100
AcDbEntity
  8
部品1
 48
50.0
100
AcDbLine
 10
9741.521140942918
 20
9428.46935348597
 30
0.0
 11
9741.521140942918
 21
8978.469353485975
 31
0.0
  0
LINE
  5
1832B
330
747D
100
AcDbEntity
  8
部品1
100
AcDbLine
 10
9742.521140942919
 20
8978.469353485975
 30
0.0
 11
9767.521140942918
 21
8978.469353485975
 31
0.0
  0
LINE
  5
1832C
330
747D
100
AcDbEntity
  8
部品1
100
AcDbLine
 10
9545.021140942884
 20
9458.469353485837
 30
0.0
 11
9545.021140942884
 21
9430.469353485836
 31
0.0
  0
LINE
  5
1832D
330
747D
100
AcDbEntity
  8
部品1
100
AcDbLine
 10
9742.521140942919
 20
9422.469353485967
 30
0.0
 11
9767.521140942918
 21
9422.46935348597
 31
0.0
  0
LINE
  5
1832E
330
747D
100
AcDbEntity
  8
部品1
100
AcDbLine
 10
9784.021140942918
 20
9448.469353485972
 30
0.0
 11
9790.021140942918
 21
9448.469353485972
 31
0.0
  0
LINE
  5
1832F
330
747D
100
AcDbEntity
  8
部品1
100
AcDbLine
 10
9790.021140942918
 20
9448.469353485972
 30
0.0
 11
9790.021140942918
 21
9430.469353485971
 31
0.0
  0
LINE
  5
18330
330
747D
100
AcDbEntity
  8
部品1
100
AcDbLine
 10
9720.021140942918
 20
9448.469353485972
 30
0.0
 11
9726.021140942918
 21
9448.469353485972
 31
0.0
  0
LINE
  5
18331
330
747D
100
AcDbEntity
  8
部品1
100
AcDbLine
 10
9720.021140942918
 20
9448.469353485972
 30
0.0
 11
9720.021140942918
 21
9430.469353485971
 31
0.0
  0
LINE
  5
18332
330
747D
100
AcDbEntity
  8
部品1
100
AcDbLine
 10
9965.021140942885
 20
9458.469353485837
 30
0.0
 11
9965.021140942885
 21
9430.469353485836
 31
0.0
  0
LINE
  5
18333
330
747D
100
AcDbEntity
  8
部品1
100
AcDbLine
 10
10385.02114094288
 20
9458.469353485837
 30
0.0
 11
10385.02114094288
 21
9430.469353485836
 31
0.0
  0
LINE
  5
18334
330
747D
100
AcDbEntity
  8
部品1
100
AcDbLine
 10
11252.02114094291
 20
8983.469353485967
 30
0.0
 11
11252.02114094289
 21
8116.469353485957
 31
0.0
  0
LINE
  5
18335
330
747D
100
AcDbEntity
  8
部品1
100
AcDbLine
 10
11223.52114094291
 20
8978.469353485968
 30
0.0
 11
11223.52114094292
 21
8144.969353485956
 31
0.0
  0
LINE
  5
18336
330
747D
100
AcDbEntity
  8
部品1
100
AcDbLine
 10
11280.02114094292
 20
9458.469353485964
 30
0.0
 11
11280.02114094289
 21
8088.469353485956
 31
0.0
  0
DIMENSION
  5
18337
330
747D
100
AcDbEntity
  8
寸法
100
AcDbDimension
  2
*D8
 10
11980.02114094291
 20
8143.469353485953
 30
0.0
 11
11980.0211409429
 21
8773.469353485948
 31
0.0
 70
   160
  1
3X420=<>
 71
     5
 42
1260.000000000013
  3
INABA_S40G
100
AcDbAlignedDimension
 13
11280.02114094292
 23
9403.469353485967
 33
0.0
 14
11280.02114094289
 24
8143.469353485953
 34
0.0
 50
90.0
100
AcDbRotatedDimension
1001
ACAD
1000
DSTYLE
1002
{
1002
}
  0
LINE
  5
18338
330
747D
100
AcDbEntity
  8
破線
 48
10.0
100
AcDbLine
 10
11200.02114094291
 20
8978.469353485968
 30
0.0
 11
11200.02114094292
 21
8168.469353485953
 31
0.0
  0
DIMENSION
  5
18339
330
747D
100
AcDbEntity
  8
寸法
100
AcDbDimension
  2
*D9
 10
12280.02114094291
 20
8088.469353485956
 30
0.0
 11
12280.0211409429
 21
8773.46935348596
 31
0.0
 70
   160
 71
     5
 42
1370.000000000006
  3
INABA_S40G
100
AcDbAlignedDimension
 13
11280.02114094292
 23
9458.469353485964
 33
0.0
 14
11280.02114094289
 24
8088.469353485956
 34
0.0
 50
90.0
100
AcDbRotatedDimension
1001
ACAD
1000
DSTYLE
1002
{
1002
}
  0
DIMENSION
  5
1833A
330
747D
100
AcDbEntity
  8
寸法
100
AcDbDimension
  2
*D10
 10
11980.02114094289
 20
8088.469353485956
 30
0.0
 11
11980.02114094289
 21
7779.984072111716
 31
0.0
 70
   160
 71
     5
 42
54.99999999999636
  3
INABA_S40G
100
AcDbAlignedDimension
 13
11280.02114094289
 23
8143.469353485953
 33
0.0
 14
11280.02114094289
 24
8088.469353485956
 34
0.0
 50
90.0
100
AcDbRotatedDimension
1001
ACAD
1000
DSTYLE
1002
{
1002
}
  0
LINE
  5
1833C
330
747D
100
AcDbEntity
  8
部品1
100
AcDbLine
 10
11280.02114094289
 20
8088.469353485956
 30
0.0
 11
10805.02114094292
 21
8088.469353485942
 31
0.0
  0
LINE
  5
18345
330
747D
100
AcDbEntity
  8
部品1
100
AcDbLine
 10
10805.02114094292
 20
8088.469353485956
 30
0.0
 11
10805.02114094292
 21
8116.469353485957
 31
0.0
  0
LINE
  5
18346
330
747D
100
AcDbEntity
  8
部品1
100
AcDbLine
 10
11225.02114094292
 20
8088.469353485956
 30
0.0
 11
11225.02114094292
 21
8116.469353485957
 31
0.0
  0
LINE
  5
18347
330
747D
100
AcDbEntity
  8
部品1
100
AcDbLine
 10
11252.02114094292
 20
8143.469353485953
 30
0.0
 11
11280.02114094292
 21
8143.469353485953
 31
0.0
  0
LINE
  5
18348
330
747D
100
AcDbEntity
  8
部品1
100
AcDbLine
 10
11280.02114094289
 20
8143.469353485953
 30
0.0
 11
11280.02114094289
 21
8088.469353485956
 31
0.0
  0
LINE
  5
18349
330
747D
100
AcDbEntity
  8
部品1
 48
50.0
100
AcDbLine
 10
11223.52114094292
 20
8144.969353485956
 30
0.0
 11
11252.02114094292
 21
8116.469353485957
 31
0.0
  0
LINE
  5
1834A
330
747D
100
AcDbEntity
  8
部品1
100
AcDbLine
 10
11280.02114094289
 20
8088.469353485956
 30
0.0
 11
11229.02114094289
 21
8088.469353485956
 31
0.0
  0
LINE
  5
1834B
330
747D
100
AcDbEntity
  8
部品1
100
AcDbLine
 10
11252.02114094289
 20
8143.469353485953
 30
0.0
 11
11280.02114094289
 21
8143.469353485953
 31
0.0
  0
LINE
  5
1834C
330
747D
100
AcDbEntity
  8
部品1
100
AcDbLine
 10
11252.02114094292
 20
8563.469353485968
 30
0.0
 11
11280.02114094292
 21
8563.469353485968
 31
0.0
  0
DIMENSION
  5
1834D
330
747D
100
AcDbEntity
  8
寸法
100
AcDbDimension
  2
*D11
 10
11980.02114094292
 20
9403.469353485967
 30
0.0
 11
11980.02114094292
 21
9766.954634860205
 31
0.0
 70
   160
 71
     5
 42
54.99999999999636
  3
INABA_S40G
100
AcDbAlignedDimension
 13
11280.02114094292
 23
9458.469353485964
 33
0.0
 14
11280.02114094292
 24
9403.469353485967
 34
0.0
 50
90.0
100
AcDbRotatedDimension
1001
ACAD
1000
DSTYLE
1002
{
1002
}
  0
DIMENSION
  5
1834E
330
747D
100
AcDbEntity
  8
寸法
100
AcDbDimension
  2
*D12
 10
11280.02114094292
 20
9758.469353485963
 30
0.0
 11
11588.50642231715
 21
9758.469353485963
 31
0.0
 70
   160
 71
     5
 42
55.0
  3
INABA_S40G
100
AcDbAlignedDimension
 13
11225.02114094292
 23
9458.469353485964
 33
0.0
 14
11280.02114094292
 24
9458.469353485964
 34
0.0
100
AcDbRotatedDimension
1001
ACAD
1000
DSTYLE
1002
{
1002
}
  0
DIMENSION
  5
1834F
330
747D
100
AcDbEntity
  8
寸法
100
AcDbDimension
  2
*D13
 10
11680.02114094291
 20
8863.653124529232
 30
0.0
 11
11680.02114094291
 21
9088.65312452923
 31
0.0
 70
   160
 71
     5
 42
449.9999999999963
  3
INABA_S40G
100
AcDbAlignedDimension
 13
11251.52114094292
 23
9428.469353485963
 33
0.0
 14
11251.52114094292
 24
8978.469353485968
 34
0.0
 50
90.0
100
AcDbRotatedDimension
1001
ACAD
1000
DSTYLE
1002
{
1002
}
  0
LINE
  5
18350
330
747D
100
AcDbEntity
  8
部品1
100
AcDbLine
 10
11251.52114094292
 20
9428.469353485963
 30
0.0
 11
11251.52114094292
 21
8978.469353485968
 31
0.0
  0
LINE
  5
18351
330
747D
100
AcDbEntity
  8
部品1
100
AcDbLine
 10
11252.02114094292
 20
9430.469353485964
 30
0.0
 11
11252.02114094291
 21
8977.969353485839
 31
0.0
  0
LINE
  5
18352
330
747D
100
AcDbEntity
  8
部品1
100
AcDbLine
 10
11252.02114094292
 20
8983.469353485967
 30
0.0
 11
11280.02114094292
 21
8983.469353485967
 31
0.0
  0
LINE
  5
18353
330
747D
100
AcDbEntity
  8
部品1
100
AcDbLine
 10
10805.02114094288
 20
9458.469353485837
 30
0.0
 11
10805.02114094288
 21
9430.469353485836
 31
0.0
  0
LINE
  5
18354
330
747D
100
AcDbEntity
  8
部品1
100
AcDbLine
 10
11252.02114094292
 20
9403.469353485967
 30
0.0
 11
11280.02114094292
 21
9403.469353485967
 31
0.0
  0
LINE
  5
18355
330
747D
100
AcDbEntity
  8
部品1
100
AcDbLine
 10
11225.02114094292
 20
9458.469353485964
 30
0.0
 11
11225.02114094292
 21
9430.469353485964
 31
0.0
  0
LINE
  5
18356
330
747D
100
AcDbEntity
  8
部品1
100
AcDbLine
 10
11225.02114094292
 20
9458.469353485986
 30
0.0
 11
11225.02114094292
 21
9430.469353485985
 31
0.0
  0
LINE
  5
18AC9
330
747D
100
AcDbEntity
  8
部品1
100
AcDbLine
 10
5479.599073116584
 20
1705.522205032353
 30
0.0
 11
4716.128406888147
 21
1705.522205032353
 31
0.0
  0
LINE
  5
18ACA
330
747D
100
AcDbEntity
  8
部品1
100
AcDbLine
 10
5479.599073116584
 20
1465.629883486821
 30
0.0
 11
5479.599073116584
 21
1705.522205032353
 31
0.0
  0
LINE
  5
18ACB
330
747D
100
AcDbEntity
  8
部品1
100
AcDbLine
 10
4716.128406888147
 20
1465.629883486821
 30
0.0
 11
5479.599073116584
 21
1465.629883486821
 31
0.0
  0
LINE
  5
18ACC
330
747D
100
AcDbEntity
  8
部品1
100
AcDbLine
 10
4716.128406888147
 20
1705.522205032353
 30
0.0
 11
4716.128406888147
 21
1465.629883486821
 31
0.0
  0
TEXT
  5
18ACD
330
747D
100
AcDbEntity
  8
部品1
100
AcDbText
 10
4805.574508311754
 20
1512.62867581383
 30
0.0
 40
135.0
  1
側面図
  7
STYLE2
100
AcDbText
  0
TEXT
  5
18ACE
330
747D
100
AcDbEntity
  8
文字
 62
     7
 48
50.0
100
AcDbText
 10
14491.96323844892
 20
483.8967129911416
 30
0.0
 40
160.0
  1
ＮＸＮ－４５ＳＢ
  7
STYLE2
100
AcDbText
  0
TEXT
  5
18ACF
330
747D
100
AcDbEntity
  8
文字
 62
     7
 48
50.0
100
AcDbText
 10
13209.4053442172
 20
228.5435242569015
 30
0.0
 40
100.0
  1
○有効開口寸法 ： 1266×1725(mm)
  7
STYLE2
100
AcDbText
  0
ARC
  5
18AD0
330
747D
100
AcDbEntity
  8
部品1
100
AcDbCircle
 10
5825.455318895929
 20
4752.837748007316
 30
0.0
 40
7.0
100
AcDbArc
 50
356.7526572096623
 51
90.0
  0
ARC
  5
18AD1
330
747D
100
AcDbEntity
  8
部品1
100
AcDbCircle
 10
5812.239995434895
 20
4625.837748007318
 30
0.0
 40
7.0
100
AcDbArc
 50
270.0
 51
356.7526572096623
  0
ARC
  5
18AD2
330
747D
100
AcDbEntity
  8
部品1
 48
50.0
100
AcDbCircle
 10
5830.611805645574
 20
4732.504747169001
 30
0.0
 40
0.7
100
AcDbArc
 50
277.6581272073635
 51
356.7526572095583
  0
ARC
  5
18AD3
330
747D
100
AcDbEntity
  8
部品1
 48
50.0
100
AcDbCircle
 10
5822.37577512073
 20
4640.304747168999
 30
0.0
 40
0.7
100
AcDbArc
 50
277.6581272073635
 51
356.7526572096623
  0
ARC
  5
18AD4
330
747D
100
AcDbEntity
  8
部品1
 48
50.0
100
AcDbCircle
 10
5822.868844229291
 20
4636.637748007314
 30
0.0
 40
3.0
100
AcDbArc
 50
97.65812720736347
 51
176.7526572096623
  0
ARC
  5
18AD5
330
747D
100
AcDbEntity
  8
部品1
 48
50.0
100
AcDbCircle
 10
5831.104874754135
 20
4728.837748007318
 30
0.0
 40
3.0
100
AcDbArc
 50
97.65812720736347
 51
176.7526572096623
  0
LINE
  5
18AD6
330
747D
100
AcDbEntity
  8
部品1
100
AcDbLine
 10
5828.10969185795
 20
4729.00768746242
 30
0.0
 11
5823.074651129839
 21
4640.265094629476
 31
0.0
  0
LINE
  5
18AD7
330
747D
100
AcDbEntity
  8
部品1
100
AcDbLine
 10
5819.873661333105
 20
4636.807687462417
 30
0.0
 11
5819.228755525994
 21
4625.441222612077
 31
0.0
  0
LINE
  5
18AD8
330
747D
100
AcDbEntity
  8
細線
 48
50.0
100
AcDbLine
 10
5799.863740002361
 20
4759.837748007316
 30
0.0
 11
5799.863740002361
 21
4618.837748007317
 31
0.0
  0
LINE
  5
18AD9
330
747D
100
AcDbEntity
  8
部品1
100
AcDbLine
 10
5832.444078987028
 20
4752.441222612077
 30
0.0
 11
5831.310681654683
 21
4732.465094629477
 31
0.0
  0
DIMENSION
  5
18ADA
330
747D
100
AcDbEntity
  8
寸法
 48
50.0
100
AcDbDimension
  2
*D15
 10
5782.863740002362
 20
5164.458007434584
 30
0.0
 11
6146.349021376598
 21
5164.458007434584
 31
0.0
 70
   160
 71
     5
 42
50.0
  3
INABA_S40G
100
AcDbAlignedDimension
 13
5832.863740002362
 23
4759.837748007315
 33
0.0
 14
5782.863740002362
 24
4759.837748007319
 34
0.0
100
AcDbRotatedDimension
  0
LINE
  5
18ADB
330
747D
100
AcDbEntity
  8
部品1
 48
0.01
100
AcDbLine
 10
5497.863740002365
 20
4588.837748007311
 30
0.0
 11
5497.863740002365
 21
4557.337748007311
 31
0.0
  0
LINE
  5
18ADC
330
747D
100
AcDbEntity
  8
部品1
 48
0.01
100
AcDbLine
 10
5495.863740002365
 20
4555.337748007311
 30
0.0
 11
5319.863740002365
 21
4555.337748007311
 31
0.0
  0
LINE
  5
18ADD
330
747D
100
AcDbEntity
  8
部品1
 48
0.01
100
AcDbLine
 10
5317.863740002366
 20
4557.337748007311
 30
0.0
 11
5317.863740002366
 21
4588.837748007311
 31
0.0
  0
ARC
  5
18ADE
330
747D
100
AcDbEntity
  8
部品1
 48
0.01
100
AcDbCircle
 10
5495.863740002365
 20
4557.337748007311
 30
0.0
 40
2.0
100
AcDbArc
 50
270.0
 51
0.0
  0
ARC
  5
18ADF
330
747D
100
AcDbEntity
  8
部品1
 48
0.01
100
AcDbCircle
 10
5319.863740002365
 20
4557.337748007311
 30
0.0
 40
2.0
100
AcDbArc
 50
180.0
 51
270.0
  0
LINE
  5
18AE0
330
747D
100
AcDbEntity
  8
細線
100
AcDbLine
 10
5407.863740002365
 20
4584.337748007311
 30
0.0
 11
5407.863740002365
 21
4561.337748007311
 31
0.0
  0
LINE
  5
18AE1
330
747D
100
AcDbEntity
  8
細線
100
AcDbLine
 10
5333.863740002366
 20
4572.337748007311
 30
0.0
 11
5407.863740002365
 21
4572.337748007311
 31
0.0
  0
LINE
  5
18AE2
330
747D
100
AcDbEntity
  8
細線
100
AcDbLine
 10
5333.863740002366
 20
4566.337748007311
 30
0.0
 11
5407.863740002365
 21
4566.337748007311
 31
0.0
  0
LINE
  5
18AE3
330
747D
100
AcDbEntity
  8
細線
100
AcDbLine
 10
5333.863740002366
 20
4578.337748007311
 30
0.0
 11
5407.863740002365
 21
4578.337748007311
 31
0.0
  0
LINE
  5
18AE4
330
747D
100
AcDbEntity
  8
細線
100
AcDbLine
 10
5481.863740002365
 20
4578.337748007311
 30
0.0
 11
5412.863740002365
 21
4578.337748007311
 31
0.0
  0
LINE
  5
18AE5
330
747D
100
AcDbEntity
  8
細線
100
AcDbLine
 10
5481.863740002365
 20
4566.337748007311
 30
0.0
 11
5407.863740002365
 21
4566.337748007311
 31
0.0
  0
LINE
  5
18AE6
330
747D
100
AcDbEntity
  8
細線
100
AcDbLine
 10
5481.863740002365
 20
4572.337748007311
 30
0.0
 11
5407.863740002365
 21
4572.337748007311
 31
0.0
  0
LINE
  5
18AE7
330
747D
100
AcDbEntity
  8
細線
100
AcDbLine
 10
5481.863740002365
 20
4578.337748007311
 30
0.0
 11
5407.863740002365
 21
4578.337748007311
 31
0.0
  0
LINE
  5
18AE8
330
747D
100
AcDbEntity
  8
部品1
 48
0.01
100
AcDbLine
 10
5319.863740002365
 20
4590.837748007311
 30
0.0
 11
5495.863740002365
 21
4590.837748007311
 31
0.0
  0
LINE
  5
18AE9
330
747D
100
AcDbEntity
  8
細線
100
AcDbLine
 10
5481.863740002365
 20
4584.337748007311
 30
0.0
 11
5481.863740002365
 21
4561.337748007311
 31
0.0
  0
LINE
  5
18AEA
330
747D
100
AcDbEntity
  8
細線
100
AcDbLine
 10
5333.863740002366
 20
4561.337748007311
 30
0.0
 11
5333.863740002366
 21
4584.337748007311
 31
0.0
  0
LINE
  5
18AEB
330
747D
100
AcDbEntity
  8
細線
100
AcDbLine
 10
5333.863740002366
 20
4584.337748007311
 30
0.0
 11
5407.863740002365
 21
4584.337748007311
 31
0.0
  0
LINE
  5
18AEC
330
747D
100
AcDbEntity
  8
細線
100
AcDbLine
 10
5481.863740002365
 20
4561.337748007311
 30
0.0
 11
5407.863740002365
 21
4561.337748007311
 31
0.0
  0
LINE
  5
18AED
330
747D
100
AcDbEntity
  8
細線
100
AcDbLine
 10
5407.863740002365
 20
4584.337748007311
 30
0.0
 11
5481.863740002365
 21
4584.337748007311
 31
0.0
  0
LINE
  5
18AEE
330
747D
100
AcDbEntity
  8
細線
100
AcDbLine
 10
5407.863740002365
 20
4561.337748007311
 30
0.0
 11
5333.863740002366
 21
4561.337748007311
 31
0.0
  0
ARC
  5
18AEF
330
747D
100
AcDbEntity
  8
部品1
 48
0.01
100
AcDbCircle
 10
5495.863740002365
 20
4588.837748007311
 30
0.0
 40
2.0
100
AcDbArc
 50
0.0
 51
90.0
  0
ARC
  5
18AF0
330
747D
100
AcDbEntity
  8
部品1
 48
0.01
100
AcDbCircle
 10
5319.863740002365
 20
4588.837748007311
 30
0.0
 40
2.0
100
AcDbArc
 50
90.0
 51
180.0
  0
ARC
  5
18AF1
330
747D
100
AcDbEntity
  8
部品1
 48
0.01
100
AcDbCircle
 10
4875.863740002362
 20
4557.337748007311
 30
0.0
 40
2.0
100
AcDbArc
 50
270.0
 51
0.0
  0
ARC
  5
18AF2
330
747D
100
AcDbEntity
  8
部品1
 48
0.01
100
AcDbCircle
 10
4875.863740002365
 20
4588.837748007311
 30
0.0
 40
2.0
100
AcDbArc
 50
0.0
 51
90.0
  0
ARC
  5
18AF3
330
747D
100
AcDbEntity
  8
部品1
 48
0.01
100
AcDbCircle
 10
4699.863740002365
 20
4557.337748007311
 30
0.0
 40
2.0
100
AcDbArc
 50
180.0
 51
270.0
  0
ARC
  5
18AF4
330
747D
100
AcDbEntity
  8
部品1
 48
0.01
100
AcDbCircle
 10
4699.863740002365
 20
4588.837748007311
 30
0.0
 40
2.0
100
AcDbArc
 50
90.0
 51
180.0
  0
LINE
  5
18AF5
330
747D
100
AcDbEntity
  8
細線
100
AcDbLine
 10
4787.863740002362
 20
4561.337748007311
 30
0.0
 11
4861.863740002366
 21
4561.337748007311
 31
0.0
  0
LINE
  5
18AF6
330
747D
100
AcDbEntity
  8
細線
100
AcDbLine
 10
4787.863740002365
 20
4584.337748007311
 30
0.0
 11
4713.863740002365
 21
4584.337748007311
 31
0.0
  0
LINE
  5
18AF7
330
747D
100
AcDbEntity
  8
細線
100
AcDbLine
 10
4713.863740002365
 20
4561.337748007311
 30
0.0
 11
4787.863740002365
 21
4561.337748007311
 31
0.0
  0
LINE
  5
18AF8
330
747D
100
AcDbEntity
  8
細線
100
AcDbLine
 10
4861.863740002366
 20
4584.337748007311
 30
0.0
 11
4787.863740002365
 21
4584.337748007311
 31
0.0
  0
LINE
  5
18AF9
330
747D
100
AcDbEntity
  8
細線
100
AcDbLine
 10
4861.863740002366
 20
4561.337748007311
 30
0.0
 11
4861.863740002366
 21
4584.337748007311
 31
0.0
  0
LINE
  5
18AFA
330
747D
100
AcDbEntity
  8
細線
100
AcDbLine
 10
4713.863740002365
 20
4584.337748007311
 30
0.0
 11
4713.863740002365
 21
4561.337748007311
 31
0.0
  0
LINE
  5
18AFB
330
747D
100
AcDbEntity
  8
部品1
 48
0.01
100
AcDbLine
 10
4877.863740002362
 20
4557.337748007311
 30
0.0
 11
4877.863740002365
 21
4588.837748007311
 31
0.0
  0
LINE
  5
18AFC
330
747D
100
AcDbEntity
  8
部品1
 48
0.01
100
AcDbLine
 10
4699.863740002365
 20
4555.337748007311
 30
0.0
 11
4875.863740002362
 21
4555.337748007311
 31
0.0
  0
LINE
  5
18AFD
330
747D
100
AcDbEntity
  8
部品1
 48
0.01
100
AcDbLine
 10
4697.863740002365
 20
4588.837748007311
 30
0.0
 11
4697.863740002365
 21
4557.337748007311
 31
0.0
  0
LINE
  5
18AFE
330
747D
100
AcDbEntity
  8
部品1
 48
0.01
100
AcDbLine
 10
4875.863740002365
 20
4590.837748007311
 30
0.0
 11
4699.863740002365
 21
4590.837748007311
 31
0.0
  0
LINE
  5
18AFF
330
747D
100
AcDbEntity
  8
細線
100
AcDbLine
 10
4713.863740002365
 20
4578.337748007311
 30
0.0
 11
4787.863740002365
 21
4578.337748007311
 31
0.0
  0
LINE
  5
18B00
330
747D
100
AcDbEntity
  8
細線
100
AcDbLine
 10
4713.863740002365
 20
4572.337748007311
 30
0.0
 11
4787.863740002365
 21
4572.337748007311
 31
0.0
  0
LINE
  5
18B01
330
747D
100
AcDbEntity
  8
細線
100
AcDbLine
 10
4713.863740002362
 20
4566.337748007311
 30
0.0
 11
4787.863740002365
 21
4566.337748007311
 31
0.0
  0
LINE
  5
18B02
330
747D
100
AcDbEntity
  8
細線
100
AcDbLine
 10
4713.863740002365
 20
4578.337748007311
 30
0.0
 11
4782.863740002365
 21
4578.337748007311
 31
0.0
  0
LINE
  5
18B03
330
747D
100
AcDbEntity
  8
細線
100
AcDbLine
 10
4861.863740002362
 20
4578.337748007311
 30
0.0
 11
4787.863740002365
 21
4578.337748007311
 31
0.0
  0
LINE
  5
18B04
330
747D
100
AcDbEntity
  8
細線
100
AcDbLine
 10
4861.863740002362
 20
4566.337748007311
 30
0.0
 11
4787.863740002365
 21
4566.337748007311
 31
0.0
  0
LINE
  5
18B05
330
747D
100
AcDbEntity
  8
細線
100
AcDbLine
 10
4861.863740002362
 20
4572.337748007311
 30
0.0
 11
4787.863740002365
 21
4572.337748007311
 31
0.0
  0
LINE
  5
18B06
330
747D
100
AcDbEntity
  8
細線
100
AcDbLine
 10
4787.863740002365
 20
4584.337748007311
 30
0.0
 11
4787.863740002362
 21
4561.337748007311
 31
0.0
  0
LINE
  5
18B07
330
747D
100
AcDbEntity
  8
細線
 48
50.0
100
AcDbLine
 10
5822.588171256084
 20
4639.637748007316
 30
0.0
 11
4373.139308748632
 21
4639.637748007317
 31
0.0
  0
LINE
  5
18B08
330
747D
100
AcDbEntity
  8
細線
 48
50.0
100
AcDbLine
 10
5830.82420178092
 20
4731.837748007317
 30
0.0
 11
4364.903278223803
 21
4731.837748007315
 31
0.0
  0
LINE
  5
18B09
330
747D
100
AcDbEntity
  8
部品1
 48
50.0
100
AcDbLine
 10
5812.239995434895
 20
4618.837748007318
 30
0.0
 11
4383.487484569832
 21
4618.837748007317
 31
0.0
  0
LINE
  5
18B0A
330
747D
100
AcDbEntity
  8
部品1
 48
50.0
100
AcDbLine
 10
5825.455318895929
 20
4759.837748007316
 30
0.0
 11
4370.272161108794
 21
4759.837748007319
 31
0.0
  0
LINE
  5
18B0B
330
747D
100
AcDbEntity
  8
部品1
100
AcDbLine
 10
4363.283401017699
 20
4752.441222612077
 30
0.0
 11
4364.416798350048
 21
4732.465094629477
 31
0.0
  0
LINE
  5
18B0C
330
747D
100
AcDbEntity
  8
部品1
100
AcDbLine
 10
4375.853818671621
 20
4636.807687462417
 30
0.0
 11
4376.49872447873
 21
4625.441222612077
 31
0.0
  0
LINE
  5
18B0D
330
747D
100
AcDbEntity
  8
部品1
100
AcDbLine
 10
4367.617788146777
 20
4729.00768746242
 30
0.0
 11
4372.652828874885
 21
4640.265094629476
 31
0.0
  0
ARC
  5
18B0E
330
747D
100
AcDbEntity
  8
部品1
 48
50.0
100
AcDbCircle
 10
4364.622605250591
 20
4728.837748007318
 30
0.0
 40
3.0
100
AcDbArc
 50
3.247342790337682
 51
82.34187279263654
  0
ARC
  5
18B0F
330
747D
100
AcDbEntity
  8
部品1
 48
50.0
100
AcDbCircle
 10
4372.858635775435
 20
4636.637748007314
 30
0.0
 40
3.0
100
AcDbArc
 50
3.247342790337682
 51
82.34187279263654
  0
ARC
  5
18B10
330
747D
100
AcDbEntity
  8
部品1
 48
50.0
100
AcDbCircle
 10
4373.351704883996
 20
4640.304747168999
 30
0.0
 40
0.7
100
AcDbArc
 50
183.2473427903377
 51
262.3418727926365
  0
ARC
  5
18B11
330
747D
100
AcDbEntity
  8
部品1
 48
50.0
100
AcDbCircle
 10
4365.115674359152
 20
4732.504747169001
 30
0.0
 40
0.7
100
AcDbArc
 50
183.2473427904417
 51
262.3418727926365
  0
ARC
  5
18B12
330
747D
100
AcDbEntity
  8
部品1
100
AcDbCircle
 10
4383.487484569832
 20
4625.837748007318
 30
0.0
 40
7.0
100
AcDbArc
 50
183.2473427903377
 51
270.0
  0
ARC
  5
18B13
330
747D
100
AcDbEntity
  8
部品1
100
AcDbCircle
 10
4370.272161108794
 20
4752.837748007316
 30
0.0
 40
7.0
100
AcDbArc
 50
90.0
 51
183.2473427903377
  0
LINE
  5
18B14
330
747D
100
AcDbEntity
  8
細線
 48
50.0
100
AcDbLine
 10
4395.863740002369
 20
4759.837748007316
 30
0.0
 11
4395.863740002369
 21
4618.837748007317
 31
0.0
  0
DIMENSION
  5
18B15
330
747D
100
AcDbEntity
  8
寸法
 48
50.0
100
AcDbDimension
  2
*D16
 10
4412.863740002369
 20
5164.458007434584
 30
0.0
 11
5097.863740002366
 21
5164.458007434584
 31
0.0
 70
   160
  1
柱外寸法<>
 71
     5
 42
1369.999999999993
  3
INABA_S40G
100
AcDbAlignedDimension
 13
5782.863740002362
 23
4759.837748007319
 33
0.0
 14
4412.863740002369
 24
4759.837748007319
 34
0.0
100
AcDbRotatedDimension
  0
DIMENSION
  5
18B16
330
747D
100
AcDbEntity
  8
寸法
 48
50.0
100
AcDbDimension
  2
*D17
 10
4362.863740002369
 20
5164.458007434584
 30
0.0
 11
4049.378458628122
 21
5164.458007434584
 31
0.0
 70
   160
 71
     5
 42
50.0
  3
INABA_S40G
100
AcDbAlignedDimension
 13
4412.863740002369
 23
4759.837748007319
 33
0.0
 14
4362.863740002369
 24
4759.837748007319
 34
0.0
100
AcDbRotatedDimension
1001
ACAD
1000
DSTYLE
1002
{
1002
}
  0
DIMENSION
  5
18B17
330
747D
100
AcDbEntity
  8
寸法
 48
50.0
100
AcDbDimension
  2
*D18
 10
5832.863740002362
 20
5407.624119341604
 30
0.0
 11
5075.497953801041
 21
5407.624119341604
 31
0.0
 70
   160
 71
     5
 42
1469.999999999993
  3
INABA_S40G
100
AcDbAlignedDimension
 13
4362.863740002369
 23
4759.837748007319
 33
0.0
 14
5832.863740002362
 24
4759.837748007315
 34
0.0
100
AcDbRotatedDimension
  0
TEXT
  5
18B18
330
747D
100
AcDbEntity
  8
部品1
100
AcDbText
 10
3112.920477753054
 20
2620.944651613215
 30
0.0
 40
125.0
  1
▽G.L
  7
STYLE2
100
AcDbText
  0
TEXT
  5
18B19
330
747D
100
AcDbEntity
  8
文字
 62
     7
 48
50.0
100
AcDbText
 10
13248.77747366447
 20
8380.013745883728
 30
0.0
 40
100.0
  1
17
  7
STYLE1
100
AcDbText
  0
TEXT
  5
18B1A
330
747D
100
AcDbEntity
  8
文字
 62
     7
 48
50.0
100
AcDbText
 10
13248.77747366447
 20
8550.013745883729
 30
0.0
 40
100.0
  1
16
  7
STYLE1
100
AcDbText
  0
TEXT
  5
18B1B
330
747D
100
AcDbEntity
  8
文字
 62
     7
 48
50.0
100
AcDbText
 10
15022.63965474517
 20
9060.013745883729
 30
0.0
 40
100.0
  1
F12            1.0
  7
STYLE1
100
AcDbText
  0
TEXT
  5
18B1C
330
747D
100
AcDbEntity
  8
文字
 62
     7
 48
50.0
100
AcDbText
 10
13583.11819016569
 20
9060.013745883736
 30
0.0
 40
100.0
  1
壁面扉枠左右
  7
STYLE1
100
AcDbText
  0
TEXT
  5
18B1D
330
747D
100
AcDbEntity
  8
文字
 62
     7
 48
50.0
100
AcDbText
 10
15022.63965474517
 20
9230.013745883729
 30
0.0
 40
100.0
  1
F12            1.0
  7
STYLE1
100
AcDbText
  0
TEXT
  5
18B1E
330
747D
100
AcDbEntity
  8
文字
 62
     7
 48
50.0
100
AcDbText
 10
15022.63965474515
 20
9400.013745883729
 30
0.0
 40
100.0
  1
F12            0.7
  7
STYLE1
100
AcDbText
  0
TEXT
  5
18B1F
330
747D
100
AcDbEntity
  8
文字
 62
     7
 48
50.0
100
AcDbText
 10
13583.11819016569
 20
9230.013745883736
 30
0.0
 40
100.0
  1
壁面扉敷居
  7
STYLE1
100
AcDbText
  0
TEXT
  5
18B20
330
747D
100
AcDbEntity
  8
文字
 62
     7
 48
50.0
100
AcDbText
 10
13583.11819016569
 20
9400.013745883729
 30
0.0
 40
100.0
  1
壁面扉鴨居
  7
STYLE1
100
AcDbText
  0
LINE
  5
18B21
330
747D
100
AcDbEntity
  8
仕様書枠
 48
50.0
100
AcDbLine
 10
16307.19999999999
 20
8689.600000000007
 30
0.0
 11
13127.2
 21
8689.600000000007
 31
0.0
  0
LINE
  5
18B22
330
747D
100
AcDbEntity
  8
仕様書枠
 48
50.0
100
AcDbLine
 10
16307.19999999999
 20
8519.600000000009
 30
0.0
 11
13127.2
 21
8519.600000000009
 31
0.0
  0
TEXT
  5
18B23
330
747D
100
AcDbEntity
  8
文字
 62
     7
 48
50.0
100
AcDbText
 10
13583.11819016569
 20
8380.013745883728
 30
0.0
 40
100.0
  1
アンカープレート
  7
STYLE1
100
AcDbText
  0
TEXT
  5
18B24
330
747D
100
AcDbEntity
  8
文字
 62
     7
 48
50.0
100
AcDbText
 10
15022.63965474515
 20
8380.013745883726
 30
0.0
 40
100.0
  1
F12            2.3
  7
STYLE1
100
AcDbText
  0
LINE
  5
18B25
330
747D
100
AcDbEntity
  8
仕様書枠
 48
50.0
100
AcDbLine
 10
16307.2
 20
10049.6
 30
0.0
 11
13127.2
 21
10049.6
 31
0.0
  0
LINE
  5
18B26
330
747D
100
AcDbEntity
  8
仕様書枠
 48
50.0
100
AcDbLine
 10
16307.2
 20
11409.6
 30
0.0
 11
13127.2
 21
11409.6
 31
0.0
  0
LINE
  5
18B27
330
747D
100
AcDbEntity
  8
仕様書枠
 48
50.0
100
AcDbLine
 10
16307.19999999999
 20
8009.600000000007
 30
0.0
 11
16307.2
 21
11409.6
 31
0.0
  0
LINE
  5
18B28
330
747D
100
AcDbEntity
  8
仕様書枠
 48
50.0
100
AcDbLine
 10
14785.2
 20
11409.6
 30
0.0
 11
14785.2
 21
8349.600000000007
 31
0.0
  0
LINE
  5
18B29
330
747D
100
AcDbEntity
  8
仕様書枠
 48
50.0
100
AcDbLine
 10
13490.2
 20
11409.6
 30
0.0
 11
13490.20000000001
 21
8349.600000000007
 31
0.0
  0
LINE
  5
18B2A
330
747D
100
AcDbEntity
  8
仕様書枠
 48
50.0
100
AcDbLine
 10
16307.2
 20
11239.6
 30
0.0
 11
13127.2
 21
11239.6
 31
0.0
  0
LINE
  5
18B2B
330
747D
100
AcDbEntity
  8
仕様書枠
 48
50.0
100
AcDbLine
 10
16307.2
 20
10899.6
 30
0.0
 11
13127.2
 21
10899.6
 31
0.0
  0
LINE
  5
18B2C
330
747D
100
AcDbEntity
  8
仕様書枠
 48
50.0
100
AcDbLine
 10
16307.2
 20
11069.6
 30
0.0
 11
13127.2
 21
11069.6
 31
0.0
  0
LINE
  5
18B2D
330
747D
100
AcDbEntity
  8
仕様書枠
 48
50.0
100
AcDbLine
 10
16307.19999999999
 20
10559.6
 30
0.0
 11
13127.2
 21
10559.6
 31
0.0
  0
LINE
  5
18B2E
330
747D
100
AcDbEntity
  8
仕様書枠
 48
50.0
100
AcDbLine
 10
16307.19999999999
 20
10389.6
 30
0.0
 11
13127.2
 21
10389.6
 31
0.0
  0
LINE
  5
18B2F
330
747D
100
AcDbEntity
  8
仕様書枠
 48
50.0
100
AcDbLine
 10
16307.19999999999
 20
10729.6
 30
0.0
 11
13127.2
 21
10729.6
 31
0.0
  0
TEXT
  5
18B30
330
747D
100
AcDbEntity
  8
文字
 62
     7
 48
50.0
100
AcDbText
 10
13197.42518560407
 20
11270.01374588373
 30
0.0
 40
100.0
  1
品番
  7
STYLE1
100
AcDbText
  0
TEXT
  5
18B31
330
747D
100
AcDbEntity
  8
文字
 62
     7
 48
50.0
100
AcDbText
 10
13271.19032244792
 20
11100.01374588373
 30
0.0
 40
100.0
  1
1
  7
STYLE1
100
AcDbText
  0
TEXT
  5
18B32
330
747D
100
AcDbEntity
  8
文字
 62
     7
 48
50.0
100
AcDbText
 10
13271.19032244792
 20
10930.01374588373
 30
0.0
 40
100.0
  1
2
  7
STYLE1
100
AcDbText
  0
TEXT
  5
18B33
330
747D
100
AcDbEntity
  8
文字
 62
     7
 48
50.0
100
AcDbText
 10
13271.19032244792
 20
10590.01374588373
 30
0.0
 40
100.0
  1
4
  7
STYLE1
100
AcDbText
  0
TEXT
  5
18B34
330
747D
100
AcDbEntity
  8
文字
 62
     7
 48
50.0
100
AcDbText
 10
13271.19032244792
 20
10760.01374588373
 30
0.0
 40
100.0
  1
3
  7
STYLE1
100
AcDbText
  0
TEXT
  5
18B35
330
747D
100
AcDbEntity
  8
文字
 62
     7
 48
50.0
100
AcDbText
 10
13732.03840939434
 20
11270.01374588373
 30
0.0
 40
100.0
  1
部　　品　　名
  7
STYLE1
100
AcDbText
  0
TEXT
  5
18B36
330
747D
100
AcDbEntity
  8
文字
 62
     7
 48
50.0
100
AcDbText
 10
14859.79774614482
 20
11270.01374588373
 30
0.0
 40
100.0
  1
材料（材質）　　単位mm
  7
STYLE1
100
AcDbText
  0
TEXT
  5
18B37
330
747D
100
AcDbEntity
  8
文字
 62
     7
 48
50.0
100
AcDbText
 10
13583.11819016569
 20
11100.01374588373
 30
0.0
 40
100.0
  1
土台枠
  7
STYLE1
100
AcDbText
  0
TEXT
  5
18B38
330
747D
100
AcDbEntity
  8
文字
 62
     7
 48
50.0
100
AcDbText
 10
13583.1181901657
 20
10760.01374588373
 30
0.0
 40
100.0
  1
柱
  7
STYLE1
100
AcDbText
  0
TEXT
  5
18B39
330
747D
100
AcDbEntity
  8
文字
 62
     7
 48
50.0
100
AcDbText
 10
13583.11819016569
 20
10420.01374588373
 30
0.0
 40
100.0
  1
桁前後
  7
STYLE1
100
AcDbText
  0
TEXT
  5
18B3A
330
747D
100
AcDbEntity
  8
文字
 62
     7
 48
50.0
100
AcDbText
 10
13271.19032244792
 20
10420.01374588373
 30
0.0
 40
100.0
  1
5
  7
STYLE1
100
AcDbText
  0
TEXT
  5
18B3B
330
747D
100
AcDbEntity
  8
文字
 62
     7
 48
50.0
100
AcDbText
 10
13583.11819016569
 20
10250.01374588373
 30
0.0
 40
100.0
  1
妻板左右
  7
STYLE1
100
AcDbText
  0
TEXT
  5
18B3C
330
747D
100
AcDbEntity
  8
文字
 62
     7
 48
50.0
100
AcDbText
 10
13248.77747366447
 20
9570.013745883729
 30
0.0
 40
100.0
  1
10
  7
STYLE1
100
AcDbText
  0
TEXT
  5
18B3D
330
747D
100
AcDbEntity
  8
文字
 62
     7
 48
50.0
100
AcDbText
 10
13583.11819016568
 20
9570.013745883729
 30
0.0
 40
100.0
  1
壁パネル
  7
STYLE1
100
AcDbText
  0
TEXT
  5
18B3E
330
747D
100
AcDbEntity
  8
文字
 62
     7
 48
50.0
100
AcDbText
 10
13583.11819016569
 20
9910.01374588373
 30
0.0
 40
100.0
  1
屋根パネル
  7
STYLE1
100
AcDbText
  0
TEXT
  5
18B3F
330
747D
100
AcDbEntity
  8
文字
 62
     7
 48
50.0
100
AcDbText
 10
13583.11819016569
 20
10080.01374588373
 30
0.0
 40
100.0
  1
鼻隠シ前後
  7
STYLE1
100
AcDbText
  0
TEXT
  5
18B40
330
747D
100
AcDbEntity
  8
文字
 62
     7
 48
50.0
100
AcDbText
 10
13271.19032244792
 20
9910.01374588373
 30
0.0
 40
100.0
  1
8
  7
STYLE1
100
AcDbText
  0
TEXT
  5
18B41
330
747D
100
AcDbEntity
  8
文字
 62
     7
 48
50.0
100
AcDbText
 10
13271.19032244792
 20
9740.013745883729
 30
0.0
 40
100.0
  1
9
  7
STYLE1
100
AcDbText
  0
TEXT
  5
18B42
330
747D
100
AcDbEntity
  8
文字
 62
     7
 48
50.0
100
AcDbText
 10
13271.19032244792
 20
10080.01374588373
 30
0.0
 40
100.0
  1
7
  7
STYLE1
100
AcDbText
  0
TEXT
  5
18B43
330
747D
100
AcDbEntity
  8
文字
 62
     7
 48
50.0
100
AcDbText
 10
13271.19032244792
 20
10250.01374588373
 30
0.0
 40
100.0
  1
6
  7
STYLE1
100
AcDbText
  0
LINE
  5
18B44
330
747D
100
AcDbEntity
  8
仕様書枠
 48
50.0
100
AcDbLine
 10
16307.19999999999
 20
9709.600000000001
 30
0.0
 11
13127.2
 21
9709.600000000001
 31
0.0
  0
LINE
  5
18B45
330
747D
100
AcDbEntity
  8
仕様書枠
 48
50.0
100
AcDbLine
 10
16307.19999999999
 20
9369.600000000001
 30
0.0
 11
13127.2
 21
9369.600000000001
 31
0.0
  0
LINE
  5
18B46
330
747D
100
AcDbEntity
  8
仕様書枠
 48
50.0
100
AcDbLine
 10
16307.19999999999
 20
9539.6
 30
0.0
 11
13127.2
 21
9539.6
 31
0.0
  0
LINE
  5
18B47
330
747D
100
AcDbEntity
  8
仕様書枠
 48
50.0
100
AcDbLine
 10
16307.2
 20
10219.6
 30
0.0
 11
13127.2
 21
10219.6
 31
0.0
  0
LINE
  5
18B48
330
747D
100
AcDbEntity
  8
仕様書枠
 48
50.0
100
AcDbLine
 10
16307.2
 20
9879.600000000001
 30
0.0
 11
13127.2
 21
9879.600000000001
 31
0.0
  0
TEXT
  5
18B49
330
747D
100
AcDbEntity
  8
文字
 62
     7
 48
50.0
100
AcDbText
 10
13248.77747366447
 20
9400.013745883729
 30
0.0
 40
100.0
  1
11
  7
STYLE1
100
AcDbText
  0
LINE
  5
18B4A
330
747D
100
AcDbEntity
  8
仕様書枠
 48
50.0
100
AcDbLine
 10
16307.19999999999
 20
9199.600000000001
 30
0.0
 11
13127.2
 21
9199.600000000001
 31
0.0
  0
LINE
  5
18B4B
330
747D
100
AcDbEntity
  8
仕様書枠
 48
50.0
100
AcDbLine
 10
16307.19999999999
 20
8859.6
 30
0.0
 11
13127.2
 21
8859.600000000005
 31
0.0
  0
TEXT
  5
18B4C
330
747D
100
AcDbEntity
  8
文字
 62
     7
 48
50.0
100
AcDbText
 10
13248.77747366448
 20
9060.013745883729
 30
0.0
 40
100.0
  1
13
  7
STYLE1
100
AcDbText
  0
TEXT
  5
18B4D
330
747D
100
AcDbEntity
  8
文字
 62
     7
 48
50.0
100
AcDbText
 10
13248.77747366448
 20
9230.013745883729
 30
0.0
 40
100.0
  1
12
  7
STYLE1
100
AcDbText
  0
TEXT
  5
18B4E
330
747D
100
AcDbEntity
  8
文字
 62
     7
 48
50.0
100
AcDbText
 10
15022.63965474517
 20
11100.01374588373
 30
0.0
 40
100.0
  1
F12            1.2
  7
STYLE1
100
AcDbText
  0
TEXT
  5
18B4F
330
747D
100
AcDbEntity
  8
文字
 62
     7
 48
50.0
100
AcDbText
 10
15022.63965474518
 20
10760.01374588373
 30
0.0
 40
100.0
  1
F12            1.0
  7
STYLE1
100
AcDbText
  0
TEXT
  5
18B50
330
747D
100
AcDbEntity
  8
文字
 62
     7
 48
50.0
100
AcDbText
 10
15022.63965474516
 20
10420.01374588373
 30
0.0
 40
100.0
  1
Y10            1.0
  7
STYLE1
100
AcDbText
  0
TEXT
  5
18B51
330
747D
100
AcDbEntity
  8
文字
 62
     7
 48
50.0
100
AcDbText
 10
15022.63965474516
 20
10250.01374588373
 30
0.0
 40
100.0
  1
Y10            0.7
  7
STYLE1
100
AcDbText
  0
TEXT
  5
18B52
330
747D
100
AcDbEntity
  8
文字
 62
     7
 48
50.0
100
AcDbText
 10
15022.63965474516
 20
10080.01374588373
 30
0.0
 40
100.0
  1
Y10            0.7
  7
STYLE1
100
AcDbText
  0
TEXT
  5
18B53
330
747D
100
AcDbEntity
  8
文字
 62
     7
 48
50.0
100
AcDbText
 10
15022.63965474517
 20
9910.01374588373
 30
0.0
 40
100.0
  1
Y10            0.5
  7
STYLE1
100
AcDbText
  0
TEXT
  5
18B54
330
747D
100
AcDbEntity
  8
文字
 62
     7
 48
50.0
100
AcDbText
 10
15022.63965474515
 20
9570.013745883729
 30
0.0
 40
100.0
  1
F12            0.6
  7
STYLE1
100
AcDbText
  0
LINE
  5
18B55
330
747D
100
AcDbEntity
  8
仕様書枠
 48
50.0
100
AcDbLine
 10
16307.19999999999
 20
8349.600000000007
 30
0.0
 11
13127.19999999999
 21
8349.600000000007
 31
0.0
  0
LINE
  5
18B56
330
747D
100
AcDbEntity
  8
仕様書枠
 48
50.0
100
AcDbLine
 10
16307.19999999999
 20
8179.600000000007
 30
0.0
 11
13127.19999999999
 21
8179.600000000007
 31
0.0
  0
TEXT
  5
18B57
330
747D
100
AcDbEntity
  8
文字
 62
     7
 48
50.0
100
AcDbText
 10
13229.83081656554
 20
8210.013745883737
 30
0.0
 40
100.0
  1
F12→溶融亜鉛めっき鋼板(JIS G 3302)
  7
STYLE1
100
AcDbText
  0
TEXT
  5
18B58
330
747D
100
AcDbEntity
  8
文字
 62
     7
 48
50.0
100
AcDbText
 10
13229.83081656554
 20
8040.013745883737
 30
0.0
 40
100.0
  1
Y10→溶融亜鉛-5％アルミニウム合金めっき鋼板(JIS G 3317)
 41
0.9
  7
STYLE1
100
AcDbText
  0
LINE
  5
18B59
330
747D
100
AcDbEntity
  8
仕様書枠
 48
50.0
100
AcDbLine
 10
13127.2
 20
11409.6
 30
0.0
 11
13127.19999999999
 21
8009.600000000007
 31
0.0
  0
LINE
  5
18B5A
330
747D
100
AcDbEntity
  8
仕様書枠
 48
50.0
100
AcDbLine
 10
16307.19999999999
 20
9029.6
 30
0.0
 11
13127.2
 21
9029.600000000003
 31
0.0
  0
TEXT
  5
18B5B
330
747D
100
AcDbEntity
  8
文字
 62
     7
 48
50.0
100
AcDbText
 10
13583.1181901657
 20
10590.01374588373
 30
0.0
 40
100.0
  1
床パネル
 41
0.9
  7
STYLE1
100
AcDbText
  0
TEXT
  5
18B5C
330
747D
100
AcDbEntity
  8
文字
 62
     7
 48
50.0
100
AcDbText
 10
13583.11819016569
 20
10930.01374588373
 30
0.0
 40
100.0
  1
根太
  7
STYLE1
100
AcDbText
  0
TEXT
  5
18B5D
330
747D
100
AcDbEntity
  8
文字
 62
     7
 48
50.0
100
AcDbText
 10
13248.77747366448
 20
8890.013745883729
 30
0.0
 40
100.0
  1
14
  7
STYLE1
100
AcDbText
  0
TEXT
  5
18B5E
330
747D
100
AcDbEntity
  8
文字
 62
     7
 48
50.0
100
AcDbText
 10
15022.63965474516
 20
10930.01374588373
 30
0.0
 40
100.0
  1
F12            1.2
  7
STYLE1
100
AcDbText
  0
TEXT
  5
18B5F
330
747D
100
AcDbEntity
  8
文字
 62
     7
 48
50.0
100
AcDbText
 10
15022.63965474517
 20
10590.01374588373
 30
0.0
 40
100.0
  1
F12            1.0
  7
STYLE1
100
AcDbText
  0
TEXT
  5
18B60
330
747D
100
AcDbEntity
  8
文字
 62
     7
 48
50.0
100
AcDbText
 10
15022.63965474515
 20
8890.013745883729
 30
0.0
 40
100.0
  1
F12            0.7
  7
STYLE1
100
AcDbText
  0
TEXT
  5
18B61
330
747D
100
AcDbEntity
  8
文字
 62
     7
 48
50.0
100
AcDbText
 10
13583.11819016568
 20
8890.013745883733
 30
0.0
 40
100.0
  1
正面パネル
  7
STYLE1
100
AcDbText
  0
TEXT
  5
18B62
330
747D
100
AcDbEntity
  8
文字
 62
     7
 48
50.0
100
AcDbText
 10
15022.63965474516
 20
8720.013745883729
 30
0.0
 40
100.0
  1
F12            0.8
  7
STYLE1
100
AcDbText
  0
TEXT
  5
18B63
330
747D
100
AcDbEntity
  8
文字
 62
     7
 48
50.0
100
AcDbText
 10
13583.11819016569
 20
8720.013745883733
 30
0.0
 40
100.0
  1
扉
  7
STYLE1
100
AcDbText
  0
LINE
  5
18B64
330
747D
100
AcDbEntity
  8
仕様書枠
 48
50.0
100
AcDbLine
 10
16307.19999999999
 20
8009.600000000007
 30
0.0
 11
13127.19999999999
 21
8009.600000000007
 31
0.0
  0
TEXT
  5
18B65
330
747D
100
AcDbEntity
  8
文字
 62
     7
 48
50.0
100
AcDbText
 10
13248.77747366447
 20
8720.013745883729
 30
0.0
 40
100.0
  1
15
  7
STYLE1
100
AcDbText
  0
TEXT
  5
18B66
330
747D
100
AcDbEntity
  8
文字
 62
     7
 48
50.0
100
AcDbText
 10
13583.11819016569
 20
9740.013745883729
 30
0.0
 40
100.0
  1
母屋中
  7
STYLE1
100
AcDbText
  0
TEXT
  5
18B67
330
747D
100
AcDbEntity
  8
文字
 62
     7
 48
50.0
100
AcDbText
 10
15022.63965474515
 20
9740.013745883725
 30
0.0
 40
100.0
  1
F12            1.0
  7
STYLE1
100
AcDbText
  0
TEXT
  5
18B68
330
747D
100
AcDbEntity
  8
文字
 62
     7
 48
50.0
100
AcDbText
 10
15022.63965474516
 20
8550.013745883729
 30
0.0
 40
100.0
  1
F12            0.6
  7
STYLE1
100
AcDbText
  0
TEXT
  5
18B69
330
747D
100
AcDbEntity
  8
文字
 62
     7
 48
50.0
100
AcDbText
 10
13583.11819016569
 20
8550.013745883733
 30
0.0
 40
100.0
  1
棚板
  7
STYLE1
100
AcDbText
  0
DIMENSION
  5
18B6D
330
747D
100
AcDbEntity
  8
寸法
 48
50.0
100
AcDbDimension
  2
*D19
 10
4315.363740002362
 20
2050.604604013636
 30
0.0
 11
4440.363740002362
 21
2050.604604013636
 31
0.0
 70
   160
 71
     5
 42
250.0
  3
INABA_S40G
100
AcDbAlignedDimension
 13
4565.363740002362
 23
2334.837748007313
 33
0.0
 14
4315.363740002362
 24
2334.837748007313
 34
0.0
100
AcDbRotatedDimension
  0
DIMENSION
  5
18B71
330
747D
100
AcDbEntity
  8
寸法
 48
50.0
100
AcDbDimension
  2
*D20
 10
4188.147184711263
 20
2584.837748007313
 30
0.0
 11
4188.147184711263
 21
2459.837748007314
 31
0.0
 70
   160
 71
     5
 42
250.0
  3
INABA_S40G
100
AcDbAlignedDimension
 13
4315.363740002362
 23
2334.837748007313
 33
0.0
 14
4315.363740002362
 24
2584.837748007313
 34
0.0
 50
90.0
100
AcDbRotatedDimension
1001
ACAD
1000
DSTYLE
1002
{
1070
   174
1070
     0
1070
   272
1070
     1
1070
   288
1070
     0
1070
   341
1005
0
1002
}
  0
LINE
  5
18B72
330
747D
100
AcDbEntity
  8
細線
 48
50.0
100
AcDbLine
 10
5385.363740002365
 20
4524.837748007313
 30
0.0
 11
5385.363740002365
 21
2734.837748007314
 31
0.0
  0
LINE
  5
18B73
330
747D
100
AcDbEntity
  8
細線
 48
50.0
100
AcDbLine
 10
5370.363740002365
 20
4524.837748007313
 30
0.0
 11
5370.363740002365
 21
2734.837748007314
 31
0.0
  0
LINE
  5
18B74
330
747D
100
AcDbEntity
  8
細線
 48
50.0
100
AcDbLine
 10
5510.363740002365
 20
4524.837748007313
 30
0.0
 11
5510.363740002365
 21
2734.837748007314
 31
0.0
  0
LINE
  5
18B75
330
747D
100
AcDbEntity
  8
細線
 48
50.0
100
AcDbLine
 10
5525.363740002365
 20
4524.837748007313
 30
0.0
 11
5525.363740002365
 21
2734.837748007314
 31
0.0
  0
LINE
  5
18B76
330
747D
100
AcDbEntity
  8
細線
 48
50.0
100
AcDbLine
 10
5665.363740002366
 20
4524.837748007313
 30
0.0
 11
5665.363740002366
 21
2734.837748007314
 31
0.0
  0
LINE
  5
18B77
330
747D
100
AcDbEntity
  8
細線
 48
50.0
100
AcDbLine
 10
5650.363740002365
 20
4524.837748007313
 30
0.0
 11
5650.363740002365
 21
2734.837748007314
 31
0.0
  0
LINE
  5
18B78
330
747D
100
AcDbEntity
  8
部品1
100
AcDbLine
 10
5307.863740002361
 20
4524.837748007313
 30
0.0
 11
5307.863740002361
 21
2734.837748007314
 31
0.0
  0
LINE
  5
18B79
330
747D
100
AcDbEntity
  8
細線
 48
50.0
100
AcDbLine
 10
4545.363740002361
 20
4524.837748007313
 30
0.0
 11
4545.363740002361
 21
2734.837748007314
 31
0.0
  0
LINE
  5
18B7A
330
747D
100
AcDbEntity
  8
細線
 48
50.0
100
AcDbLine
 10
4530.363740002361
 20
4524.837748007313
 30
0.0
 11
4530.363740002361
 21
2734.837748007314
 31
0.0
  0
LINE
  5
18B7B
330
747D
100
AcDbEntity
  8
細線
 48
50.0
100
AcDbLine
 10
4670.363740002361
 20
4524.837748007313
 30
0.0
 11
4670.363740002361
 21
2734.837748007314
 31
0.0
  0
LINE
  5
18B7C
330
747D
100
AcDbEntity
  8
細線
 48
50.0
100
AcDbLine
 10
4685.363740002361
 20
4524.837748007313
 30
0.0
 11
4685.363740002361
 21
2734.837748007314
 31
0.0
  0
LINE
  5
18B7D
330
747D
100
AcDbEntity
  8
細線
 48
50.0
100
AcDbLine
 10
4825.363740002362
 20
4524.837748007313
 30
0.0
 11
4825.363740002362
 21
2734.837748007314
 31
0.0
  0
LINE
  5
18B7E
330
747D
100
AcDbEntity
  8
細線
 48
50.0
100
AcDbLine
 10
4810.363740002362
 20
4524.837748007313
 30
0.0
 11
4810.363740002362
 21
2734.837748007314
 31
0.0
  0
LINE
  5
18B7F
330
747D
100
AcDbEntity
  8
細線
 48
50.0
100
AcDbLine
 10
5230.363740002362
 20
4524.837748007313
 30
0.0
 11
5230.363740002362
 21
2734.837748007314
 31
0.0
  0
LINE
  5
18B80
330
747D
100
AcDbEntity
  8
細線
 48
50.0
100
AcDbLine
 10
5245.363740002361
 20
4524.837748007313
 30
0.0
 11
5245.363740002361
 21
2734.837748007314
 31
0.0
  0
LINE
  5
18B81
330
747D
100
AcDbEntity
  8
細線
 48
50.0
100
AcDbLine
 10
5105.363740002362
 20
4524.837748007313
 30
0.0
 11
5105.363740002362
 21
2734.837748007314
 31
0.0
  0
LINE
  5
18B82
330
747D
100
AcDbEntity
  8
細線
 48
50.0
100
AcDbLine
 10
5090.363740002362
 20
4524.837748007313
 30
0.0
 11
5090.363740002362
 21
2734.837748007314
 31
0.0
  0
LINE
  5
18B83
330
747D
100
AcDbEntity
  8
細線
 48
50.0
100
AcDbLine
 10
4950.363740002362
 20
4524.837748007313
 30
0.0
 11
4950.363740002362
 21
2734.837748007314
 31
0.0
  0
LINE
  5
18B84
330
747D
100
AcDbEntity
  8
細線
 48
50.0
100
AcDbLine
 10
4965.363740002362
 20
4524.837748007313
 30
0.0
 11
4965.363740002362
 21
2734.837748007314
 31
0.0
  0
LINE
  5
18B85
330
747D
100
AcDbEntity
  8
部品1
100
AcDbLine
 10
4460.363740002361
 20
2684.837748007313
 30
0.0
 11
5735.363740002362
 21
2684.837748007313
 31
0.0
  0
LINE
  5
18B86
330
747D
100
AcDbEntity
  8
部品1
100
AcDbLine
 10
5775.363740002362
 20
2684.837748007313
 30
0.0
 11
5782.863740002365
 21
2684.837748007313
 31
0.0
  0
LINE
  5
18B87
330
747D
100
AcDbEntity
  8
破線
  6
HIDDEN
 48
5.0
100
AcDbLine
 10
4460.363740002361
 20
2584.837748007313
 30
0.0
 11
4460.363740002361
 21
2579.837748007313
 31
0.0
  0
LINE
  5
18B88
330
747D
100
AcDbEntity
  8
破線
  6
HIDDEN
 48
5.0
100
AcDbLine
 10
4420.363740002368
 20
2584.837748007313
 30
0.0
 11
4420.363740002368
 21
2579.837748007313
 31
0.0
  0
LINE
  5
18B89
330
747D
100
AcDbEntity
  8
破線
  6
HIDDEN
 48
5.0
100
AcDbLine
 10
5775.363740002362
 20
2584.837748007313
 30
0.0
 11
5775.363740002362
 21
2579.837748007313
 31
0.0
  0
LINE
  5
18B8A
330
747D
100
AcDbEntity
  8
破線
  6
HIDDEN
 48
5.0
100
AcDbLine
 10
5735.363740002362
 20
2584.837748007313
 30
0.0
 11
5735.363740002362
 21
2579.837748007313
 31
0.0
  0
ARC
  5
18B8B
330
747D
100
AcDbEntity
  8
部品1
 48
50.0
100
AcDbCircle
 10
5770.363740002362
 20
2724.837748007313
 30
0.0
 40
5.0
100
AcDbArc
 50
0.0
 51
90.0
  0
ARC
  5
18B8C
330
747D
100
AcDbEntity
  8
部品1
 48
50.0
100
AcDbCircle
 10
5740.363740002361
 20
2724.837748007313
 30
0.0
 40
5.0
100
AcDbArc
 50
90.0
 51
180.0
  0
LINE
  5
18B8D
330
747D
100
AcDbEntity
  8
部品1
100
AcDbLine
 10
5770.363740002362
 20
2729.837748007313
 30
0.0
 11
5740.363740002361
 21
2729.837748007313
 31
0.0
  0
LINE
  5
18B8E
330
747D
100
AcDbEntity
  8
部品1
 48
50.0
100
AcDbLine
 10
5775.363740002362
 20
2724.837748007313
 30
0.0
 11
5775.363740002362
 21
2584.837748007313
 31
0.0
  0
LINE
  5
18B8F
330
747D
100
AcDbEntity
  8
部品1
 48
50.0
100
AcDbLine
 10
5735.363740002362
 20
2724.837748007313
 30
0.0
 11
5735.363740002362
 21
2584.837748007313
 31
0.0
  0
ARC
  5
18B90
330
747D
100
AcDbEntity
  8
部品1
 48
50.0
100
AcDbCircle
 10
4455.363740002361
 20
2724.837748007313
 30
0.0
 40
5.0
100
AcDbArc
 50
0.0
 51
90.0
  0
ARC
  5
18B91
330
747D
100
AcDbEntity
  8
部品1
 48
50.0
100
AcDbCircle
 10
4425.363740002362
 20
2724.837748007313
 30
0.0
 40
5.0
100
AcDbArc
 50
90.0
 51
180.0
  0
LINE
  5
18B92
330
747D
100
AcDbEntity
  8
部品1
100
AcDbLine
 10
4425.363740002362
 20
2729.837748007313
 30
0.0
 11
4455.363740002361
 21
2729.837748007313
 31
0.0
  0
LINE
  5
18B93
330
747D
100
AcDbEntity
  8
部品1
 48
50.0
100
AcDbLine
 10
4460.363740002361
 20
2724.837748007313
 30
0.0
 11
4460.363740002361
 21
2584.837748007313
 31
0.0
  0
LINE
  5
18B94
330
747D
100
AcDbEntity
  8
部品1
 48
50.0
100
AcDbLine
 10
4420.363740002361
 20
2724.837748007313
 30
0.0
 11
4420.363740002361
 21
2584.837748007313
 31
0.0
  0
LINE
  5
18B95
330
747D
100
AcDbEntity
  8
破線
  6
HIDDEN
 48
5.0
100
AcDbLine
 10
4460.363740002361
 20
2579.837748007313
 30
0.0
 11
4475.363740002362
 21
2432.137748007312
 31
0.0
  0
LINE
  5
18B96
330
747D
100
AcDbEntity
  8
破線
  6
HIDDEN
 48
5.0
100
AcDbLine
 10
4420.363740002361
 20
2579.837748007313
 30
0.0
 11
4405.363740002361
 21
2432.137748007312
 31
0.0
  0
LINE
  5
18B97
330
747D
100
AcDbEntity
  8
破線
  6
HIDDEN
 48
5.0
100
AcDbLine
 10
4475.363740002362
 20
2432.137748007312
 30
0.0
 11
4475.363740002362
 21
2429.837748007313
 31
0.0
  0
LINE
  5
18B98
330
747D
100
AcDbEntity
  8
破線
  6
HIDDEN
 48
5.0
100
AcDbLine
 10
4405.363740002361
 20
2432.137748007312
 30
0.0
 11
4405.363740002361
 21
2429.837748007313
 31
0.0
  0
LINE
  5
18B99
330
747D
100
AcDbEntity
  8
破線
  6
HIDDEN
 48
5.0
100
AcDbLine
 10
4405.363740002361
 20
2429.837748007313
 30
0.0
 11
4475.363740002362
 21
2429.837748007313
 31
0.0
  0
LINE
  5
18B9A
330
747D
100
AcDbEntity
  8
破線
  6
HIDDEN
 48
5.0
100
AcDbLine
 10
5790.363740002362
 20
2432.137748007314
 30
0.0
 11
5790.363740002362
 21
2429.837748007313
 31
0.0
  0
LINE
  5
18B9B
330
747D
100
AcDbEntity
  8
破線
  6
HIDDEN
 48
5.0
100
AcDbLine
 10
5775.363740002362
 20
2579.837748007313
 30
0.0
 11
5790.363740002362
 21
2432.137748007314
 31
0.0
  0
LINE
  5
18B9C
330
747D
100
AcDbEntity
  8
破線
  6
HIDDEN
 48
5.0
100
AcDbLine
 10
5720.363740002362
 20
2432.137748007314
 30
0.0
 11
5720.363740002362
 21
2429.837748007313
 31
0.0
  0
LINE
  5
18B9D
330
747D
100
AcDbEntity
  8
破線
  6
HIDDEN
 48
5.0
100
AcDbLine
 10
5735.363740002362
 20
2579.837748007313
 30
0.0
 11
5720.363740002362
 21
2432.137748007314
 31
0.0
  0
LINE
  5
18B9E
330
747D
100
AcDbEntity
  8
破線
  6
HIDDEN
 48
5.0
100
AcDbLine
 10
5790.363740002362
 20
2429.837748007313
 30
0.0
 11
5720.363740002362
 21
2429.837748007313
 31
0.0
  0
LINE
  5
18B9F
330
747D
100
AcDbEntity
  8
部品1
100
AcDbLine
 10
5582.863740002365
 20
2684.837748007313
 30
0.0
 11
5582.863740002365
 21
2584.837748007313
 31
0.0
  0
LINE
  5
18BA0
330
747D
100
AcDbEntity
  8
部品1
100
AcDbLine
 10
4612.863740002362
 20
2684.837748007313
 30
0.0
 11
4612.863740002362
 21
2584.837748007313
 31
0.0
  0
LINE
  5
18BA1
330
747D
100
AcDbEntity
  8
部品1
100
AcDbLine
 10
5727.863740002366
 20
4524.837748007313
 30
0.0
 11
5727.863740002366
 21
2734.837748007314
 31
0.0
  0
LINE
  5
18BA2
330
747D
100
AcDbEntity
  8
部品1
100
AcDbLine
 10
5782.863740002362
 20
4618.837748007318
 30
0.0
 11
5782.863740002365
 21
2584.837748007313
 31
0.0
  0
LINE
  5
18BA3
330
747D
100
AcDbEntity
  8
部品1
100
AcDbLine
 10
4887.863740002362
 20
4524.837748007313
 30
0.0
 11
4887.863740002362
 21
2734.837748007314
 31
0.0
  0
LINE
  5
18BA4
330
747D
100
AcDbEntity
  8
部品1
100
AcDbLine
 10
4412.863740002369
 20
4618.837748007317
 30
0.0
 11
4412.863740002362
 21
2584.837748007313
 31
0.0
  0
LINE
  5
18BA5
330
747D
100
AcDbEntity
  8
部品1
100
AcDbLine
 10
4467.863740002361
 20
4524.837748007313
 30
0.0
 11
4467.863740002361
 21
2734.837748007314
 31
0.0
  0
LINE
  5
18BA6
330
747D
100
AcDbEntity
  8
部品1
100
AcDbLine
 10
4412.863740002362
 20
2684.837748007313
 30
0.0
 11
4420.363740002361
 21
2684.837748007313
 31
0.0
  0
LINE
  5
18BA7
330
747D
100
AcDbEntity
  8
部品1
100
AcDbLine
 10
4412.863740002362
 20
2734.837748007314
 30
0.0
 11
5782.863740002369
 21
2734.837748007314
 31
0.0
  0
LINE
  5
18BA8
330
747D
100
AcDbEntity
  8
部品1
100
AcDbLine
 10
4412.863740002362
 20
4524.837748007313
 30
0.0
 11
5782.863740002365
 21
4524.837748007313
 31
0.0
  0
LINE
  5
18BA9
330
747D
100
AcDbEntity
  8
部品1
 48
50.0
100
AcDbLine
 10
5782.863740002369
 20
4519.837748007311
 30
0.0
 11
5859.863740002369
 21
4509.837748007311
 31
0.0
  0
LINE
  5
18BAA
330
747D
100
AcDbEntity
  8
部品1
 48
50.0
100
AcDbLine
 10
5859.863740002369
 20
4509.837748007311
 30
0.0
 11
5859.863740002369
 21
2584.837748007311
 31
0.0
  0
LINE
  5
18BAB
330
747D
100
AcDbEntity
  8
部品1
 48
50.0
100
AcDbLine
 10
5859.863740002369
 20
2684.837748007312
 30
0.0
 11
5782.863740002365
 21
2684.837748007313
 31
0.0
  0
LINE
  5
18E70
330
747D
100
AcDbEntity
  8
補助
  6
PHANTOM
 62
   230
 48
50.0
100
AcDbLine
 10
140.0
 20
0.0
 30
0.0
 11
139.9999999999995
 21
11409.6
 31
0.0
  0
DIMENSION
  5
19279
330
747D
100
AcDbEntity
  8
寸法
 48
50.0
100
AcDbDimension
  2
*D25
 10
8230.021140942925
 20
5158.495201586622
 30
0.0
 11
9800.079515502337
 21
5158.495201586622
 31
0.0
 70
   160
  1
柱外寸法<>
 71
     5
 42
3049.999999999997
  3
INABA_S40G
100
AcDbAlignedDimension
 13
11280.02114094292
 23
4706.648427618971
 33
0.0
 14
8230.021140942925
 24
4755.839366130293
 34
0.0
100
AcDbRotatedDimension
1001
ACAD
1000
DSTYLE
1002
{
1070
   174
1070
     0
1070
   272
1070
     1
1070
   288
1070
     0
1070
   341
1005
0
1002
}
  0
DIMENSION
  5
1927A
330
747D
100
AcDbEntity
  8
寸法
 48
50.0
100
AcDbDimension
  2
*D23
 10
8170.021140942925
 20
5388.608794372898
 30
0.0
 11
9841.72694725245
 21
5388.608794372898
 31
0.0
 70
   160
 71
     5
 42
3189.999999999996
  3
INABA_S40G
100
AcDbAlignedDimension
 13
11360.02114094292
 23
4704.837748007317
 33
0.0
 14
8170.021140942925
 24
4759.83774800732
 34
0.0
100
AcDbRotatedDimension
1001
ACAD
1000
DSTYLE
1002
{
1070
   174
1070
     0
1070
   272
1070
     1
1070
   288
1070
     0
1070
   341
1005
0
1002
}
  0
DIMENSION
  5
1927B
330
747D
100
AcDbEntity
  8
寸法
 48
50.0
100
AcDbDimension
  2
*D22
 10
11360.02114094292
 20
5158.495201586622
 30
0.0
 11
11566.06838503741
 21
5158.495201586622
 31
0.0
 70
   160
 71
     5
 42
80.0
  3
INABA_S40G
100
AcDbAlignedDimension
 13
11280.02114094292
 23
4706.648427618971
 33
0.0
 14
11360.02114094292
 24
4704.83774800732
 34
0.0
100
AcDbRotatedDimension
1001
ACAD
1000
DSTYLE
1002
{
1070
   174
1070
     0
1070
   272
1070
     1
1070
   288
1070
     0
1070
   341
1005
0
1002
}
  0
DIMENSION
  5
1927C
330
747D
100
AcDbEntity
  8
寸法
 48
50.0
100
AcDbDimension
  2
*D24
 10
8170.021140942925
 20
5158.49520158662
 30
0.0
 11
7860.383345667334
 21
5158.49520158662
 31
0.0
 70
   160
 71
     5
 42
60.0
  3
INABA_S40G
100
AcDbAlignedDimension
 13
8230.021140942925
 23
4755.839366130293
 33
0.0
 14
8170.021140942925
 24
4759.83774800732
 34
0.0
100
AcDbRotatedDimension
1001
ACAD
1000
DSTYLE
1002
{
1070
   174
1070
     0
1070
   272
1070
     1
1070
   288
1070
     0
1070
   341
1005
0
1002
}
  0
DIMENSION
  5
1927D
330
747D
100
AcDbEntity
  8
寸法
 48
50.0
100
AcDbDimension
  2
*D21
 10
7609.412734174553
 20
4634.183006880646
 30
0.0
 11
7620.078209433477
 21
5005.029670122347
 31
0.0
 70
   161
 71
     5
 42
141.0
  3
INABA_S40G
100
AcDbAlignedDimension
 13
8189.417161101504
 23
4758.560496841996
 33
0.0
 14
8185.363705544878
 24
4617.618773076283
 34
0.0
1001
ACAD
1000
DSTYLE
1002
{
1070
   174
1070
     0
1070
   272
1070
     1
1070
   288
1070
     0
1070
   341
1005
0
1002
}
  0
LINE
  5
1927E
330
747D
100
AcDbEntity
  8
部品1
100
AcDbLine
 10
9608.534413466438
 20
4885.042135970333
 30
0.0
 11
9933.989427109475
 21
4867.524077011474
 31
0.0
  0
LINE
  5
1927F
330
747D
100
AcDbEntity
  8
部品1
 48
50.0
100
AcDbLine
 10
9633.989427109476
 20
4883.724077011472
 30
0.0
 11
9933.989427109475
 21
4883.724077011472
 31
0.0
  0
LINE
  5
19280
330
747D
100
AcDbEntity
  8
部品1
 48
50.0
100
AcDbLine
 10
9933.989427109475
 20
4883.724077011472
 30
0.0
 11
9933.989427109475
 21
4867.524077011474
 31
0.0
  0
TEXT
  5
19281
330
747D
100
AcDbEntity
  8
部品1
 48
50.0
100
AcDbText
 10
9622.257262333201
 20
4919.608099163905
 30
0.0
 40
120.0
  1
1000
  7
STYLE1
100
AcDbText
  0
TEXT
  5
19282
330
747D
100
AcDbEntity
  8
部品1
 48
50.0
100
AcDbText
 10
10099.89028499829
 20
4782.106840945623
 30
0.0
 40
120.0
  1
32
 50
90.0
  7
STYLE1
100
AcDbText
  0
LINE
  5
19283
330
747D
100
AcDbEntity
  8
細線
 48
50.0
100
AcDbLine
 10
8175.821039281025
 20
4637.993318150814
 30
0.0
 11
11345.82470371166
 21
4598.18399917632
 31
0.0
  0
LINE
  5
19284
330
747D
100
AcDbEntity
  8
細線
 48
50.0
100
AcDbLine
 10
8171.06056404374
 20
4730.854829848677
 30
0.0
 11
11356.69654878891
 21
4675.230625207849
 31
0.0
  0
LINE
  5
19285
330
747D
100
AcDbEntity
  8
部品1
100
AcDbLine
 10
8185.363705544878
 20
4617.618773076283
 30
0.0
 11
11334.68484148277
 21
4578.590347842077
 31
0.0
  0
LINE
  5
19286
330
747D
100
AcDbEntity
  8
部品1
100
AcDbLine
 10
8177.566127299888
 20
4758.555483341583
 30
0.0
 11
11352.63301780439
 21
4703.478545716455
 31
0.0
  0
ARC
  5
19287
330
747D
100
AcDbEntity
  8
部品1
100
AcDbCircle
 10
8176.058232814291
 20
4638.651906966219
 30
0.0
 40
0.7
100
AcDbArc
 50
181.093224029263
 51
260.1877540314845
  0
ARC
  5
19288
330
747D
100
AcDbEntity
  8
部品1
100
AcDbCircle
 10
8171.285559216682
 20
4731.517685166339
 30
0.0
 40
0.7
100
AcDbArc
 50
181.0932240292109
 51
260.1877540314845
  0
ARC
  5
19289
330
747D
100
AcDbEntity
  8
部品1
100
AcDbCircle
 10
8170.655004813658
 20
4727.871810628942
 30
0.0
 40
3.0
100
AcDbArc
 50
1.093224029315139
 51
80.18775403169875
  0
ARC
  5
1928A
330
747D
100
AcDbEntity
  8
部品1
100
AcDbCircle
 10
8175.427678411265
 20
4635.006032428822
 30
0.0
 40
3.0
100
AcDbArc
 50
1.093224029315139
 51
80.18775403169875
  0
ARC
  5
1928B
330
747D
100
AcDbEntity
  8
部品1
 48
50.0
100
AcDbCircle
 10
8185.627810786467
 20
4624.613789046342
 30
0.0
 40
7.0
100
AcDbArc
 50
181.0932240293151
 51
267.8377559869492
  0
ARC
  5
1928C
330
747D
100
AcDbEntity
  8
部品1
 48
50.0
100
AcDbCircle
 10
8177.204152684373
 20
4751.564848579437
 30
0.0
 40
7.0
100
AcDbArc
 50
87.03587545283228
 51
181.0932240293151
  0
LINE
  5
1928D
330
747D
100
AcDbEntity
  8
部品1
 48
50.0
100
AcDbLine
 10
8178.427132337695
 20
4635.063270032005
 30
0.0
 11
8178.629084958128
 21
4624.480234638913
 31
0.0
  0
LINE
  5
1928E
330
747D
100
AcDbEntity
  8
部品1
 48
50.0
100
AcDbLine
 10
8173.65445874009
 20
4727.929048232125
 30
0.0
 11
8175.358360231454
 21
4638.638551525477
 31
0.0
  0
LINE
  5
1928F
330
747D
100
AcDbEntity
  8
部品1
 48
50.0
100
AcDbLine
 10
8170.205426856032
 20
4751.431294172009
 30
0.0
 11
8170.585686633843
 21
4731.504329725597
 31
0.0
  0
LINE
  5
19290
330
747D
100
AcDbEntity
  8
細線
 48
50.0
100
AcDbLine
 10
8203.021140942926
 20
4757.23742438272
 30
0.0
 11
8197.732039387418
 21
4617.151791755366
 31
0.0
  0
ARC
  5
19291
330
747D
100
AcDbEntity
  8
部品1
100
AcDbCircle
 10
11345.64867675686
 20
4598.861505273108
 30
0.0
 40
0.7
100
AcDbArc
 50
275.0921697642079
 51
354.1866997667061
  0
ARC
  5
19292
330
747D
100
AcDbEntity
  8
部品1
100
AcDbCircle
 10
11356.50802250618
 20
4675.904760091032
 30
0.0
 40
0.7
100
AcDbArc
 50
275.0921697642079
 51
354.1866997665479
  0
ARC
  5
19293
330
747D
100
AcDbEntity
  8
部品1
100
AcDbCircle
 10
11356.83642774879
 20
4672.219363233943
 30
0.0
 40
3.0
100
AcDbArc
 50
95.09216976420788
 51
174.1866997665479
  0
ARC
  5
19294
330
747D
100
AcDbEntity
  8
部品1
100
AcDbCircle
 10
11345.97708199946
 20
4595.176108416018
 30
0.0
 40
3.0
100
AcDbArc
 50
95.09216976420788
 51
174.1866997665479
  0
ARC
  5
19295
330
747D
100
AcDbEntity
  8
部品1
 48
50.0
100
AcDbCircle
 10
11334.94894672436
 20
4585.585363812137
 30
0.0
 40
7.0
100
AcDbArc
 50
267.8377559869492
 51
354.1866997665479
  0
ARC
  5
19296
330
747D
100
AcDbEntity
  8
部品1
 48
50.0
100
AcDbCircle
 10
11352.27104318887
 20
4696.487910954309
 30
0.0
 40
7.0
100
AcDbArc
 50
354.1866997665479
 51
87.03587545283228
  0
LINE
  5
19297
330
747D
100
AcDbEntity
  8
部品1
 48
50.0
100
AcDbLine
 10
11342.99251032885
 20
4595.479970132922
 30
0.0
 11
11341.91294728911
 21
4584.876353139363
 31
0.0
  0
LINE
  5
19298
330
747D
100
AcDbEntity
  8
部品1
 48
50.0
100
AcDbLine
 10
11353.85185607818
 20
4672.523224950846
 30
0.0
 11
11346.34507681334
 21
4598.790604205833
 31
0.0
  0
LINE
  5
19299
330
747D
100
AcDbEntity
  8
部品1
 48
50.0
100
AcDbLine
 10
11359.23504375363
 20
4695.778900281535
 30
0.0
 11
11357.20442256266
 21
4675.833859023756
 31
0.0
  0
LINE
  5
1929A
330
747D
100
AcDbEntity
  8
細線
 48
50.0
100
AcDbLine
 10
11326.99042413662
 20
4703.991170486785
 30
0.0
 11
11322.27345805493
 21
4579.058954551868
 31
0.0
  0
DIMENSION
  5
1930C
330
747D
100
AcDbEntity
  8
寸法
 48
50.0
100
AcDbDimension
  2
*D31
 10
7936.796334471911
 20
2742.837748007313
 30
0.0
 11
7936.79633447191
 21
3644.766368216274
 31
0.0
 70
   160
  1
有効開口部高サ<>
 71
     5
 42
1725.000000000001
  3
INABA_S40G
100
AcDbAlignedDimension
 13
8678.021140942927
 23
4467.837748007313
 33
0.0
 14
8678.021140942927
 24
2742.837748007313
 34
0.0
 50
90.0
100
AcDbRotatedDimension
  0
DIMENSION
  5
1930D
330
747D
100
AcDbEntity
  8
寸法
 48
50.0
100
AcDbDimension
  2
*D30
 10
7609.412734174556
 20
4634.183006880641
 30
0.0
 11
7620.078209433483
 21
5005.029670122346
 31
0.0
 70
   161
 71
     5
 42
141.0000000000018
  3
INABA_S40G
100
AcDbAlignedDimension
 13
8189.417161101504
 23
4758.560496841993
 33
0.0
 14
8185.363705544878
 24
4617.618773076278
 34
0.0
1001
ACAD
1000
DSTYLE
1002
{
1070
   174
1070
     0
1070
   272
1070
     1
1070
   288
1070
     0
1070
   341
1005
0
1002
}
  0
DIMENSION
  5
1930E
330
747D
100
AcDbEntity
  8
寸法
100
AcDbDimension
  2
*D29
 10
7321.381759013568
 20
4759.837748007319
 30
0.0
 11
7321.381759013566
 21
3679.043625500423
 31
0.0
 70
   160
 71
     5
 42
2075.000000000005
  3
INABA_S40G
100
AcDbAlignedDimension
 13
8230.021140942925
 23
2684.837748007313
 33
0.0
 14
8170.021140942925
 24
4759.837748007319
 34
0.0
 50
90.0
100
AcDbRotatedDimension
1001
ACAD
1000
DSTYLE
1002
{
1070
   174
1070
     0
1070
   272
1070
     1
1070
   288
1070
     0
1070
   341
1005
0
1002
}
  0
DIMENSION
  5
1930F
330
747D
100
AcDbEntity
  8
寸法
100
AcDbDimension
  2
*D28
 10
7606.368431784628
 20
2734.837748007314
 30
0.0
 11
7606.368431784628
 21
3625.292046549271
 31
0.0
 70
   160
 71
     5
 42
1790.0
  3
INABA_S40G
100
AcDbAlignedDimension
 13
8230.021140942925
 23
4524.837748007313
 33
0.0
 14
8230.021140942925
 24
2734.837748007314
 34
0.0
 50
90.0
100
AcDbRotatedDimension
1001
ACAD
1000
DSTYLE
1002
{
1070
   174
1070
     0
1070
   272
1070
     1
1070
   288
1070
     0
1070
   341
1005
0
1002
}
  0
DIMENSION
  5
19310
330
747D
100
AcDbEntity
  8
寸法
100
AcDbDimension
  2
*D27
 10
7606.368431784628
 20
2684.837748007313
 30
0.0
 11
7606.368431784628
 21
2378.790503912822
 31
0.0
 70
   160
 71
     5
 42
50.0
  3
INABA_S40G
100
AcDbAlignedDimension
 13
8230.021140942925
 23
2734.837748007314
 33
0.0
 14
8175.021140942925
 24
2684.837748007313
 34
0.0
 50
90.0
100
AcDbRotatedDimension
1001
ACAD
1000
DSTYLE
1002
{
1070
   174
1070
     0
1070
   272
1070
     1
1070
   288
1070
     0
1070
   341
1005
0
1002
}
  0
DIMENSION
  5
19311
330
747D
100
AcDbEntity
  8
寸法
100
AcDbDimension
  2
*D26
 10
7321.381759013568
 20
2584.837748007313
 30
0.0
 11
7321.381759013566
 21
2348.790503912823
 31
0.0
 70
   160
 71
     5
 42
100.0
  3
INABA_S40G
100
AcDbAlignedDimension
 13
8175.021140942925
 23
2684.837748007313
 33
0.0
 14
7606.368431784628
 24
2584.837748007313
 34
0.0
 50
90.0
100
AcDbRotatedDimension
1001
ACAD
1000
DSTYLE
1002
{
1070
   174
1070
     0
1070
   272
1070
     1
1070
   288
1070
     0
1070
   341
1005
0
1002
}
  0
LINE
  5
19398
330
747D
100
AcDbEntity
  8
部品1
 48
50.0
100
AcDbLine
 10
9512.021140942918
 20
4467.83774803208
 30
0.0
 11
9512.021140942918
 21
2734.837748007309
 31
0.0
  0
LINE
  5
19399
330
747D
100
AcDbEntity
  8
部品1
100
AcDbLine
 10
10166.02113124777
 20
4467.837748044463
 30
0.0
 11
10166.02113124778
 21
2742.337748044478
 31
0.0
  0
LINE
  5
1939A
330
747D
100
AcDbEntity
  8
細線
100
AcDbLine
 10
9412.021140942922
 20
4467.837748007312
 30
0.0
 11
9412.021140942917
 21
2734.83774800732
 31
0.0
  0
LINE
  5
1939B
330
747D
100
AcDbEntity
  8
細線
100
AcDbLine
 10
9342.021140942922
 20
4467.837748007312
 30
0.0
 11
9342.021140942916
 21
2734.83774800732
 31
0.0
  0
LINE
  5
1939C
330
747D
100
AcDbEntity
  8
細線
100
AcDbLine
 10
9272.021140942921
 20
4467.837748007312
 30
0.0
 11
9272.021140942918
 21
2734.837748007316
 31
0.0
  0
LINE
  5
1939D
330
747D
100
AcDbEntity
  8
細線
100
AcDbLine
 10
9202.021140942921
 20
4467.837748007312
 30
0.0
 11
9202.021140942918
 21
2734.837748007316
 31
0.0
  0
LINE
  5
1939E
330
747D
100
AcDbEntity
  8
細線
100
AcDbLine
 10
9132.021140942923
 20
4467.837748007312
 30
0.0
 11
9132.021140942917
 21
2734.837748007316
 31
0.0
  0
LINE
  5
1939F
330
747D
100
AcDbEntity
  8
細線
100
AcDbLine
 10
9062.021140942922
 20
4467.837748007312
 30
0.0
 11
9062.021140942917
 21
2734.837748007316
 31
0.0
  0
LINE
  5
193A0
330
747D
100
AcDbEntity
  8
部品1
100
AcDbLine
 10
8878.021140942918
 20
4467.837748007312
 30
0.0
 11
8878.021140942921
 21
2734.837748007316
 31
0.0
  0
LINE
  5
193A1
330
747D
100
AcDbEntity
  8
部品1
100
AcDbLine
 10
8828.021140942917
 20
4467.837748007312
 30
0.0
 11
8828.021140942921
 21
2734.837748007316
 31
0.0
  0
LINE
  5
193A2
330
747D
100
AcDbEntity
  8
細線
100
AcDbLine
 10
8870.021140942917
 20
4467.837748007312
 30
0.0
 11
8870.021140942922
 21
2734.837748007316
 31
0.0
  0
LINE
  5
193A3
330
747D
100
AcDbEntity
  8
細線
100
AcDbLine
 10
8836.021140942918
 20
4467.837748007312
 30
0.0
 11
8836.021140942921
 21
2734.837748007316
 31
0.0
  0
LINE
  5
193A4
330
747D
100
AcDbEntity
  8
細線
100
AcDbLine
 10
10063.52115069316
 20
4467.837748007312
 30
0.0
 11
10063.52115069316
 21
2742.337748007323
 31
0.0
  0
LINE
  5
193A5
330
747D
100
AcDbEntity
  8
細線
100
AcDbLine
 10
9993.521150693165
 20
4467.837748007312
 30
0.0
 11
9993.521150693165
 21
2742.337748007323
 31
0.0
  0
LINE
  5
193A6
330
747D
100
AcDbEntity
  8
細線
100
AcDbLine
 10
9923.521150693165
 20
4467.837748007312
 30
0.0
 11
9923.521150693165
 21
2742.337748007323
 31
0.0
  0
LINE
  5
193A7
330
747D
100
AcDbEntity
  8
細線
100
AcDbLine
 10
9853.521150693165
 20
4467.837748007312
 30
0.0
 11
9853.521150693165
 21
2742.337748007323
 31
0.0
  0
LINE
  5
193A8
330
747D
100
AcDbEntity
  8
細線
100
AcDbLine
 10
9783.521150693164
 20
4467.837748007312
 30
0.0
 11
9783.521150693164
 21
2742.337748007323
 31
0.0
  0
LINE
  5
193A9
330
747D
100
AcDbEntity
  8
細線
100
AcDbLine
 10
9713.521150693166
 20
4467.837748007312
 30
0.0
 11
9713.521150693166
 21
2742.337748007323
 31
0.0
  0
LINE
  5
193AA
330
747D
100
AcDbEntity
  8
細線
100
AcDbLine
 10
10638.77114094292
 20
4467.837748007312
 30
0.0
 11
10638.77114094292
 21
2742.337748007331
 31
0.0
  0
LINE
  5
193AB
330
747D
100
AcDbEntity
  8
細線
100
AcDbLine
 10
10568.77114094292
 20
4467.837748007312
 30
0.0
 11
10568.77114094292
 21
2742.337748007331
 31
0.0
  0
LINE
  5
193AC
330
747D
100
AcDbEntity
  8
細線
100
AcDbLine
 10
10498.77114094292
 20
4467.837748007312
 30
0.0
 11
10498.77114094292
 21
2742.337748007331
 31
0.0
  0
LINE
  5
193AD
330
747D
100
AcDbEntity
  8
細線
100
AcDbLine
 10
10428.77114094292
 20
4467.837748007312
 30
0.0
 11
10428.77114094292
 21
2742.337748007331
 31
0.0
  0
LINE
  5
193AE
330
747D
100
AcDbEntity
  8
細線
100
AcDbLine
 10
10358.77114094292
 20
4467.837748007312
 30
0.0
 11
10358.77114094292
 21
2742.337748007331
 31
0.0
  0
LINE
  5
193AF
330
747D
100
AcDbEntity
  8
細線
100
AcDbLine
 10
8992.021140942922
 20
4467.837748007312
 30
0.0
 11
8992.021140942917
 21
2734.837748007316
 31
0.0
  0
LINE
  5
193B0
330
747D
100
AcDbEntity
  8
細線
100
AcDbLine
 10
8922.021140942922
 20
4467.837748007312
 30
0.0
 11
8922.021140942918
 21
2734.837748007316
 31
0.0
  0
LINE
  5
193B1
330
747D
100
AcDbEntity
  8
細線
100
AcDbLine
 10
9643.521150693166
 20
4467.837748007312
 30
0.0
 11
9643.521150693166
 21
2742.337748007323
 31
0.0
  0
LINE
  5
193B2
330
747D
100
AcDbEntity
  8
細線
100
AcDbLine
 10
9573.521150693165
 20
4467.837748007312
 30
0.0
 11
9573.521150693165
 21
2742.337748007323
 31
0.0
  0
LINE
  5
193B3
330
747D
100
AcDbEntity
  8
細線
100
AcDbLine
 10
10288.77114094292
 20
4467.837748007312
 30
0.0
 11
10288.77114094292
 21
2742.337748007331
 31
0.0
  0
LINE
  5
193B4
330
747D
100
AcDbEntity
  8
部品1
 48
50.0
100
AcDbLine
 10
10166.02113124778
 20
4467.837748044459
 30
0.0
 11
10166.02113124778
 21
2742.33774804446
 31
0.0
  0
LINE
  5
193B5
330
747D
100
AcDbEntity
  8
部品1
 48
50.0
100
AcDbLine
 10
10832.02114094292
 20
2684.837748007312
 30
0.0
 11
10832.02114094292
 21
4519.837748007312
 31
0.0
  0
LINE
  5
193B6
330
747D
100
AcDbEntity
  8
細線
 48
50.0
100
AcDbLine
 10
10802.02114094292
 20
2684.837748007312
 30
0.0
 11
10802.02114094292
 21
4477.337748007312
 31
0.0
  0
LINE
  5
193B7
330
747D
100
AcDbEntity
  8
部品1
 48
50.0
100
AcDbLine
 10
10793.02114094292
 20
2731.837748007313
 30
0.0
 11
10793.02114094292
 21
4467.837748007312
 31
0.0
  0
LINE
  5
193B8
330
747D
100
AcDbEntity
  8
部品1
 48
50.0
100
AcDbLine
 10
9512.021140942918
 20
4467.83774803208
 30
0.0
 11
9512.021140942918
 21
2734.83774803208
 31
0.0
  0
LINE
  5
193B9
330
747D
100
AcDbEntity
  8
部品1
 48
50.0
100
AcDbLine
 10
8678.021140942922
 20
4519.837748007312
 30
0.0
 11
8678.021140942922
 21
2684.837748007312
 31
0.0
  0
LINE
  5
193BA
330
747D
100
AcDbEntity
  8
細線
 48
50.0
100
AcDbLine
 10
8708.021140942921
 20
4477.337748007312
 30
0.0
 11
8708.021140942921
 21
2684.837748007312
 31
0.0
  0
LINE
  5
193BB
330
747D
100
AcDbEntity
  8
部品1
 48
50.0
100
AcDbLine
 10
8708.021140942921
 20
2734.837748007312
 30
0.0
 11
8708.021140942921
 21
4467.837748007312
 31
0.0
  0
LINE
  5
193D5
330
747D
100
AcDbEntity
  8
部品1
 48
50.0
100
AcDbLine
 10
8752.02114094292
 20
3666.337748007312
 30
0.0
 11
8805.021140942921
 21
3666.337748007312
 31
0.0
  0
LINE
  5
193D9
330
747D
100
AcDbEntity
  8
細線
 48
50.0
100
AcDbLine
 10
10780.02114094292
 20
2731.837748007313
 30
0.0
 11
10776.02114094292
 21
2742.337748007313
 31
0.0
  0
LINE
  5
193DA
330
747D
100
AcDbEntity
  8
部品1
 48
50.0
100
AcDbLine
 10
8717.021140942922
 20
2734.837748007312
 30
0.0
 11
8717.021140942922
 21
2731.837748007313
 31
0.0
  0
LINE
  5
193DB
330
747D
100
AcDbEntity
  8
部品1
 48
50.0
100
AcDbLine
 10
8708.021140942921
 20
2734.837748007312
 30
0.0
 11
9512.021140942918
 21
2734.837748007309
 31
0.0
  0
LINE
  5
193DC
330
747D
100
AcDbEntity
  8
細線
 48
50.0
100
AcDbLine
 10
9512.021140942918
 20
2742.337748007313
 30
0.0
 11
10776.02114094292
 21
2742.337748007313
 31
0.0
  0
LINE
  5
193DD
330
747D
100
AcDbEntity
  8
細線
 48
50.0
100
AcDbLine
 10
8708.021140942921
 20
2731.837748007313
 30
0.0
 11
10802.02114094292
 21
2731.837748007313
 31
0.0
  0
LINE
  5
193DE
330
747D
100
AcDbEntity
  8
細線
 48
50.0
100
AcDbLine
 10
8708.021140942921
 20
2727.837748007312
 30
0.0
 11
10802.02114094292
 21
2727.837748007312
 31
0.0
  0
LINE
  5
193DF
330
747D
100
AcDbEntity
  8
部品1
 48
50.0
100
AcDbLine
 10
8678.021140942922
 20
2684.837748007312
 30
0.0
 11
10832.02114094292
 21
2684.837748007312
 31
0.0
  0
LINE
  5
193E0
330
747D
100
AcDbEntity
  8
部品1
 48
50.0
100
AcDbLine
 10
8678.021140942922
 20
2684.837748007312
 30
0.0
 11
10832.02114094292
 21
2684.837748007312
 31
0.0
  0
LINE
  5
193E1
330
747D
100
AcDbEntity
  8
部品1
 48
50.0
100
AcDbLine
 10
8708.021140942921
 20
4475.837748007312
 30
0.0
 11
8678.021140942922
 21
4475.837748007312
 31
0.0
  0
LINE
  5
193E2
330
747D
100
AcDbEntity
  8
細線
 48
50.0
100
AcDbLine
 10
10802.02114094292
 20
4477.337748007312
 30
0.0
 11
8708.021140942921
 21
4477.337748007312
 31
0.0
  0
LINE
  5
193E3
330
747D
100
AcDbEntity
  8
細線
 48
50.0
100
AcDbLine
 10
10802.02114094292
 20
4467.837748007312
 30
0.0
 11
8708.021140942921
 21
4467.837748007312
 31
0.0
  0
LINE
  5
193E4
330
747D
100
AcDbEntity
  8
細線
 48
50.0
100
AcDbLine
 10
10832.02114094292
 20
4509.837748007313
 30
0.0
 11
8678.021140942922
 21
4509.837748007313
 31
0.0
  0
LINE
  5
193E5
330
747D
100
AcDbEntity
  8
部品1
 48
50.0
100
AcDbLine
 10
10832.02114094292
 20
4519.837748007312
 30
0.0
 11
8678.021140942922
 21
4519.837748007312
 31
0.0
  0
LINE
  5
193E6
330
747D
100
AcDbEntity
  8
部品1
 48
50.0
100
AcDbLine
 10
10832.02114094292
 20
4475.837748007312
 30
0.0
 11
10802.02114094292
 21
4475.837748007312
 31
0.0
  0
LINE
  5
193E8
330
747D
100
AcDbEntity
  8
部品1
100
AcDbLine
 10
8705.021140942923
 20
4524.837748007312
 30
0.0
 11
8705.021140942925
 21
4519.837748007312
 31
0.0
  0
LINE
  5
193E9
330
747D
100
AcDbEntity
  8
部品1
 48
50.0
100
AcDbLine
 10
11225.02114094292
 20
2734.837748007312
 30
0.0
 11
11225.02114094292
 21
4524.837748007312
 31
0.0
  0
LINE
  5
193EA
330
747D
100
AcDbEntity
  8
細線
 48
50.0
100
AcDbLine
 10
10882.52114094293
 20
4524.837748007313
 30
0.0
 11
10882.52114094293
 21
2734.837748007312
 31
0.0
  0
LINE
  5
193EB
330
747D
100
AcDbEntity
  8
細線
 48
50.0
100
AcDbLine
 10
10867.52114094293
 20
4524.837748007313
 30
0.0
 11
10867.52114094293
 21
2734.837748007312
 31
0.0
  0
LINE
  5
193EC
330
747D
100
AcDbEntity
  8
細線
 48
50.0
100
AcDbLine
 10
11007.52114094293
 20
4524.837748007313
 30
0.0
 11
11007.52114094293
 21
2734.837748007312
 31
0.0
  0
LINE
  5
193ED
330
747D
100
AcDbEntity
  8
細線
 48
50.0
100
AcDbLine
 10
11022.52114094293
 20
4524.837748007313
 30
0.0
 11
11022.52114094293
 21
2734.837748007312
 31
0.0
  0
LINE
  5
193EE
330
747D
100
AcDbEntity
  8
細線
 48
50.0
100
AcDbLine
 10
11162.52114094293
 20
4524.837748007313
 30
0.0
 11
11162.52114094293
 21
2734.837748007312
 31
0.0
  0
LINE
  5
193EF
330
747D
100
AcDbEntity
  8
細線
 48
50.0
100
AcDbLine
 10
11147.52114094293
 20
4524.837748007313
 30
0.0
 11
11147.52114094293
 21
2734.837748007312
 31
0.0
  0
LINE
  5
193F0
330
747D
100
AcDbEntity
  8
細線
 48
50.0
100
AcDbLine
 10
8627.521140942922
 20
4524.837748007312
 30
0.0
 11
8627.521140942922
 21
2734.837748007312
 31
0.0
  0
LINE
  5
193F1
330
747D
100
AcDbEntity
  8
細線
 48
50.0
100
AcDbLine
 10
8642.521140942923
 20
4524.837748007312
 30
0.0
 11
8642.521140942921
 21
2734.837748007312
 31
0.0
  0
LINE
  5
193F2
330
747D
100
AcDbEntity
  8
細線
 48
50.0
100
AcDbLine
 10
8502.521140942922
 20
4524.837748007312
 30
0.0
 11
8502.521140942922
 21
2734.837748007312
 31
0.0
  0
LINE
  5
193F3
330
747D
100
AcDbEntity
  8
細線
 48
50.0
100
AcDbLine
 10
8487.521140942922
 20
4524.837748007312
 30
0.0
 11
8487.521140942922
 21
2734.837748007312
 31
0.0
  0
LINE
  5
193F4
330
747D
100
AcDbEntity
  8
細線
 48
50.0
100
AcDbLine
 10
8347.521140942923
 20
4524.837748007312
 30
0.0
 11
8347.521140942921
 21
2734.837748007312
 31
0.0
  0
LINE
  5
193F5
330
747D
100
AcDbEntity
  8
細線
 48
50.0
100
AcDbLine
 10
8362.521140942922
 20
4524.837748007312
 30
0.0
 11
8362.521140942922
 21
2734.837748007312
 31
0.0
  0
LINE
  5
193F6
330
747D
100
AcDbEntity
  8
破線
  6
HIDDEN
 48
5.0
100
AcDbLine
 10
5880.363740002362
 20
2584.837748007313
 30
0.0
 11
5880.363740002362
 21
2334.837748007313
 31
0.0
  0
LINE
  5
193F7
330
747D
100
AcDbEntity
  8
破線
  6
HIDDEN
 48
5.0
100
AcDbLine
 10
5880.363740002362
 20
2334.837748007313
 30
0.0
 11
5630.363740002362
 21
2334.837748007313
 31
0.0
  0
LINE
  5
193F8
330
747D
100
AcDbEntity
  8
破線
  6
HIDDEN
 48
5.0
100
AcDbLine
 10
5630.363740002362
 20
2584.837748007313
 30
0.0
 11
5630.363740002362
 21
2334.837748007313
 31
0.0
  0
LINE
  5
193F9
330
747D
100
AcDbEntity
  8
破線
  6
HIDDEN
 48
5.0
100
AcDbLine
 10
4565.363740002362
 20
2584.837748007313
 30
0.0
 11
4565.363740002362
 21
2334.837748007313
 31
0.0
  0
LINE
  5
193FA
330
747D
100
AcDbEntity
  8
破線
  6
HIDDEN
 48
5.0
100
AcDbLine
 10
4315.363740002362
 20
2334.837748007313
 30
0.0
 11
4565.363740002362
 21
2334.837748007313
 31
0.0
  0
LINE
  5
193FB
330
747D
100
AcDbEntity
  8
破線
  6
HIDDEN
 48
5.0
100
AcDbLine
 10
4315.363740002362
 20
2584.837748007313
 30
0.0
 11
4315.363740002362
 21
2334.837748007313
 31
0.0
  0
MTEXT
  5
19475
330
747D
100
AcDbEntity
  8
寸法
 62
     7
 48
50.0
100
AcDbMText
 10
9015.123678036024
 20
9044.70417168325
 30
0.0
 40
96.0
 41
0.0
 71
     5
 72
     1
  1
棚 2段
  7
STYLE1
 73
     1
 44
1.0
1001
ACAD
1000
MTEXTBEGIN
1070
    73
1070
     1
1070
    44
1040
1.0
1070
    74
1070
     0
1000
MTEXTEND
  0
MTEXT
  5
19476
330
747D
100
AcDbEntity
  8
寸法
 62
     7
 48
50.0
100
AcDbMText
 10
10525.12367803606
 20
9044.704171683276
 30
0.0
 40
96.0
 41
0.0
 71
     5
 72
     1
  1
棚 2段
  7
STYLE1
 73
     1
 44
1.0
1001
ACAD
1000
MTEXTBEGIN
1070
    73
1070
     1
1070
    44
1040
1.0
1070
    74
1070
     0
1000
MTEXTEND
  0
LINE
  5
19642
330
747D
100
AcDbEntity
  8
寸法
 48
50.0
100
AcDbLine
 10
9140.224147224733
 20
7866.506105054688
 30
0.0
 11
9088.81813931463
 21
7866.506105054688
 31
0.0
  0
LINE
  5
19643
330
747D
100
AcDbEntity
  8
寸法
 48
50.0
100
AcDbLine
 10
9088.81813931463
 20
7866.506105054688
 30
0.0
 11
9088.81813931463
 21
7897.816263706855
 31
0.0
  0
LINE
  5
19644
330
747D
100
AcDbEntity
  8
寸法
 48
50.0
100
AcDbLine
 10
9088.81813931463
 20
7897.816263706855
 30
0.0
 11
9059.056807323207
 21
7897.816263706855
 31
0.0
  0
LINE
  5
19645
330
747D
100
AcDbEntity
  8
寸法
 48
50.0
100
AcDbLine
 10
9059.056807323207
 20
7897.816263706855
 30
0.0
 11
9114.521143269682
 21
7935.395714635465
 31
0.0
  0
LINE
  5
19646
330
747D
100
AcDbEntity
  8
寸法
 48
50.0
100
AcDbLine
 10
9169.985479216157
 20
7897.816263706855
 30
0.0
 11
9114.521143269682
 21
7935.395714635465
 31
0.0
  0
LINE
  5
19647
330
747D
100
AcDbEntity
  8
寸法
 48
50.0
100
AcDbLine
 10
9140.224147224733
 20
7897.816263706855
 30
0.0
 11
9169.985479216157
 21
7897.816263706855
 31
0.0
  0
LINE
  5
19648
330
747D
100
AcDbEntity
  8
寸法
 48
50.0
100
AcDbLine
 10
9140.224147224733
 20
7866.506105054688
 30
0.0
 11
9140.224147224733
 21
7897.816263706855
 31
0.0
  0
LINE
  5
19649
330
747D
100
AcDbEntity
  8
寸法
 48
50.0
100
AcDbLine
 10
9088.81813931463
 20
7866.506105054688
 30
0.0
 11
9140.224147224733
 21
7866.506105054688
 31
0.0
  0
LINE
  5
1964A
330
747D
100
AcDbEntity
  8
寸法
 48
50.0
100
AcDbLine
 10
9419.38968150159
 20
7923.65169580951
 30
0.0
 11
9419.38968150159
 21
7869.988061227721
 31
0.0
  0
LINE
  5
1964B
330
747D
100
AcDbEntity
  8
寸法
 48
50.0
100
AcDbLine
 10
9508.673900097013
 20
7899.728061540026
 30
0.0
 11
9419.38968150159
 21
7923.65169580951
 31
0.0
  0
LINE
  5
1964C
330
747D
100
AcDbEntity
  8
寸法
 48
50.0
100
AcDbLine
 10
9289.521959921286
 20
7899.728061540026
 30
0.0
 11
9508.673900097013
 21
7899.728061540026
 31
0.0
  0
LINE
  5
1964D
330
747D
100
AcDbEntity
  8
細線
 48
50.0
100
AcDbLine
 10
10166.02114094289
 20
8064.969468434551
 30
0.0
 11
10793.02114094289
 21
8064.969468434551
 31
0.0
  0
LINE
  5
1964E
330
747D
100
AcDbEntity
  8
細線
 48
50.0
100
AcDbLine
 10
9512.021145596477
 20
8031.260699880474
 30
0.0
 11
10793.02114094289
 21
8031.260699880474
 31
0.0
  0
LINE
  5
1964F
330
747D
100
AcDbEntity
  8
細線
 48
50.0
100
AcDbLine
 10
9471.021145596482
 20
8060.665607876728
 30
0.0
 11
8717.021140942888
 21
8060.665607876725
 31
0.0
  0
LINE
  5
19650
330
747D
100
AcDbEntity
  8
細線
100
AcDbLine
 10
10568.77113152643
 20
8084.46936839956
 30
0.0
 11
10571.10267104824
 21
8089.46937103952
 31
0.0
  0
LINE
  5
19651
330
747D
100
AcDbEntity
  8
細線
100
AcDbLine
 10
10638.77114094289
 20
8084.469353485825
 30
0.0
 11
10636.4395944667
 21
8089.469371039506
 31
0.0
  0
LINE
  5
19652
330
747D
100
AcDbEntity
  8
細線
100
AcDbLine
 10
10636.4395944667
 20
8089.469371039506
 30
0.0
 11
10571.10267104822
 21
8089.469371039491
 31
0.0
  0
LINE
  5
19653
330
747D
100
AcDbEntity
  8
細線
100
AcDbLine
 10
10496.4395944667
 20
8089.469371039506
 30
0.0
 11
10431.10267104822
 21
8089.469371039491
 31
0.0
  0
LINE
  5
19654
330
747D
100
AcDbEntity
  8
細線
100
AcDbLine
 10
10498.77114094289
 20
8084.469353485825
 30
0.0
 11
10496.4395944667
 21
8089.469371039506
 31
0.0
  0
LINE
  5
19655
330
747D
100
AcDbEntity
  8
細線
100
AcDbLine
 10
10428.77113152643
 20
8084.46936839956
 30
0.0
 11
10431.10267104824
 21
8089.46937103952
 31
0.0
  0
LINE
  5
19656
330
747D
100
AcDbEntity
  8
細線
100
AcDbLine
 10
10288.77114094289
 20
8084.469353485825
 30
0.0
 11
10291.1026804647
 21
8089.469356125787
 31
0.0
  0
LINE
  5
19657
330
747D
100
AcDbEntity
  8
細線
100
AcDbLine
 10
10358.77115035935
 20
8084.469338572091
 30
0.0
 11
10356.43960388316
 21
8089.469356125773
 31
0.0
  0
LINE
  5
19658
330
747D
100
AcDbEntity
  8
細線
100
AcDbLine
 10
10356.43960388316
 20
8089.469356125773
 30
0.0
 11
10291.10268046468
 21
8089.469356125757
 31
0.0
  0
LINE
  5
19659
330
747D
100
AcDbEntity
  8
細線
100
AcDbLine
 10
10061.18962513199
 20
8055.469392823153
 30
0.0
 11
9995.852701713522
 21
8055.469392823139
 31
0.0
  0
LINE
  5
1965A
330
747D
100
AcDbEntity
  8
細線
100
AcDbLine
 10
10063.52117160818
 20
8050.469375269473
 30
0.0
 11
10061.18962513199
 21
8055.469392823153
 31
0.0
  0
LINE
  5
1965B
330
747D
100
AcDbEntity
  8
細線
100
AcDbLine
 10
9993.521162191726
 20
8050.469390183208
 30
0.0
 11
9995.852701713536
 21
8055.469392823168
 31
0.0
  0
LINE
  5
1965C
330
747D
100
AcDbEntity
  8
細線
 48
50.0
100
AcDbLine
 10
9834.904520190903
 20
8068.740216638905
 30
0.0
 11
9840.66003777357
 21
8050.469365348419
 31
0.0
  0
LINE
  5
1965D
330
747D
100
AcDbEntity
  8
細線
 48
50.0
100
AcDbLine
 10
9823.976071710474
 20
8068.740216638905
 30
0.0
 11
9834.904520190903
 21
8068.740216638905
 31
0.0
  0
ARC
  5
1965E
330
747D
100
AcDbEntity
  8
細線
 48
50.0
100
AcDbCircle
 10
9818.521715653151
 20
8070.240216638906
 30
0.0
 40
5.0
100
AcDbArc
 50
204.6243183521304
 51
335.3756816478695
  0
ARC
  5
1965F
330
747D
100
AcDbEntity
  8
細線
 48
50.0
100
AcDbCircle
 10
9823.976071710474
 20
8067.740216638906
 30
0.0
 40
1.0
100
AcDbArc
 50
90.0
 51
155.3756816478695
  0
ARC
  5
19660
330
747D
100
AcDbEntity
  8
細線
 48
50.0
100
AcDbCircle
 10
9813.067359595835
 20
8067.740216638906
 30
0.0
 40
1.0
100
AcDbArc
 50
24.62431835213048
 51
90.0
  0
LINE
  5
19661
330
747D
100
AcDbEntity
  8
細線
 48
50.0
100
AcDbLine
 10
9802.138911115402
 20
8068.740216638905
 30
0.0
 11
9813.067359595835
 21
8068.740216638905
 31
0.0
  0
LINE
  5
19662
330
747D
100
AcDbEntity
  8
細線
 48
50.0
100
AcDbLine
 10
9796.383393532735
 20
8050.469365348412
 30
0.0
 11
9802.138911115402
 21
8068.740216638905
 31
0.0
  0
LINE
  5
19663
330
747D
100
AcDbEntity
  8
細線
100
AcDbLine
 10
9853.521163422769
 20
8050.469362714215
 30
0.0
 11
9855.852702944581
 21
8055.469365354175
 31
0.0
  0
LINE
  5
19664
330
747D
100
AcDbEntity
  8
細線
100
AcDbLine
 10
9923.52117283923
 20
8050.469347800481
 30
0.0
 11
9921.189626363037
 21
8055.469365354161
 31
0.0
  0
LINE
  5
19665
330
747D
100
AcDbEntity
  8
細線
100
AcDbLine
 10
9921.189626363037
 20
8055.469365354161
 30
0.0
 11
9855.852702944567
 21
8055.469365354147
 31
0.0
  0
LINE
  5
19666
330
747D
100
AcDbEntity
  8
細線
100
AcDbLine
 10
9781.189597998521
 20
8055.469365348383
 30
0.0
 11
9715.852674580045
 21
8055.469365348368
 31
0.0
  0
LINE
  5
19667
330
747D
100
AcDbEntity
  8
細線
100
AcDbLine
 10
9783.521144474708
 20
8050.469347794702
 30
0.0
 11
9781.189597998521
 21
8055.469365348383
 31
0.0
  0
LINE
  5
19668
330
747D
100
AcDbEntity
  8
細線
100
AcDbLine
 10
9713.521136289292
 20
8050.469365348412
 30
0.0
 11
9715.852674580061
 21
8055.469365348399
 31
0.0
  0
LINE
  5
19669
330
747D
100
AcDbEntity
  8
細線
100
AcDbLine
 10
9573.521171608183
 20
8050.469373535781
 30
0.0
 11
9575.852709898951
 21
8055.469373535768
 31
0.0
  0
LINE
  5
1966A
330
747D
100
AcDbEntity
  8
細線
100
AcDbLine
 10
9643.5211797936
 20
8050.469355982071
 30
0.0
 11
9641.189633317413
 21
8055.469373535748
 31
0.0
  0
LINE
  5
1966B
330
747D
100
AcDbEntity
  8
細線
100
AcDbLine
 10
9641.189633317413
 20
8055.469373535748
 30
0.0
 11
9575.852709898937
 21
8055.469373535737
 31
0.0
  0
LINE
  5
1966C
330
747D
100
AcDbEntity
  8
細線
100
AcDbLine
 10
9202.021137411064
 20
8016.469545216494
 30
0.0
 11
9204.35267570183
 21
8021.469545216481
 31
0.0
  0
LINE
  5
1966D
330
747D
100
AcDbEntity
  8
細線
100
AcDbLine
 10
9272.021145596479
 20
8016.469527662781
 30
0.0
 11
9269.68959912029
 21
8021.469545216458
 31
0.0
  0
LINE
  5
1966E
330
747D
100
AcDbEntity
  8
細線
100
AcDbLine
 10
9269.68959912029
 20
8021.469545216458
 30
0.0
 11
9204.352675701818
 21
8021.469545216451
 31
0.0
  0
LINE
  5
1966F
330
747D
100
AcDbEntity
  8
細線
100
AcDbLine
 10
9409.689599120291
 20
8021.469545216458
 30
0.0
 11
9344.352675701818
 21
8021.469545216451
 31
0.0
  0
LINE
  5
19670
330
747D
100
AcDbEntity
  8
細線
100
AcDbLine
 10
9412.021145596478
 20
8016.469527662781
 30
0.0
 11
9409.689599120291
 21
8021.469545216458
 31
0.0
  0
LINE
  5
19671
330
747D
100
AcDbEntity
  8
細線
100
AcDbLine
 10
9342.021137411062
 20
8016.469545216494
 30
0.0
 11
9344.352675701831
 21
8021.469545216481
 31
0.0
  0
LINE
  5
19672
330
747D
100
AcDbEntity
  8
細線
100
AcDbLine
 10
9129.689599120291
 20
8021.469545216458
 30
0.0
 11
9064.352675701819
 21
8021.469545216447
 31
0.0
  0
LINE
  5
19673
330
747D
100
AcDbEntity
  8
細線
100
AcDbLine
 10
9132.021145596478
 20
8016.469527662781
 30
0.0
 11
9129.689599120291
 21
8021.469545216458
 31
0.0
  0
LINE
  5
19674
330
747D
100
AcDbEntity
  8
細線
100
AcDbLine
 10
9062.021137411063
 20
8016.469545216491
 30
0.0
 11
9064.352675701831
 21
8021.469545216476
 31
0.0
  0
LINE
  5
19675
330
747D
100
AcDbEntity
  8
細線
100
AcDbLine
 10
8922.021145596479
 20
8016.469545216494
 30
0.0
 11
8924.352683887246
 21
8021.469545216481
 31
0.0
  0
LINE
  5
19676
330
747D
100
AcDbEntity
  8
細線
100
AcDbLine
 10
8992.021153781895
 20
8016.469527662781
 30
0.0
 11
8989.689607305706
 21
8021.469545216458
 31
0.0
  0
LINE
  5
19677
330
747D
100
AcDbEntity
  8
細線
100
AcDbLine
 10
8989.689607305706
 20
8021.469545216458
 30
0.0
 11
8924.352683887235
 21
8021.469545216451
 31
0.0
  0
ARC
  5
19678
330
747D
100
AcDbEntity
  8
部品1
 48
0.01
100
AcDbCircle
 10
8877.521034344143
 20
8015.468423031421
 30
0.0
 40
0.5
100
AcDbArc
 50
270.0
 51
0.0
  0
LINE
  5
19679
330
747D
100
AcDbEntity
  8
部品1
 48
0.01
100
AcDbLine
 10
8878.021034344143
 20
8016.468423031422
 30
0.0
 11
8878.021034344143
 21
8015.468423031421
 31
0.0
  0
LINE
  5
1967A
330
747D
100
AcDbEntity
  8
部品1
 48
0.01
100
AcDbLine
 10
8878.021034344143
 20
8016.468423031422
 30
0.0
 11
8878.021034344143
 21
8015.468423031421
 31
0.0
  0
LINE
  5
1967B
330
747D
100
AcDbEntity
  8
部品1
 48
0.01
100
AcDbLine
 10
8877.521034344143
 20
8014.968423031422
 30
0.0
 11
8870.908528914078
 21
8014.968423031422
 31
0.0
  0
ARC
  5
1967C
330
747D
100
AcDbEntity
  8
部品1
100
AcDbCircle
 10
8870.97687846686
 20
8015.968423031422
 30
0.0
 40
1.0
100
AcDbArc
 50
160.5287793655778
 51
270.0
  0
ARC
  5
1967D
330
747D
100
AcDbEntity
  8
部品1
100
AcDbCircle
 10
8845.521034344143
 20
8024.968423031422
 30
0.0
 40
26.0
100
AcDbArc
 50
340.5287793655779
 51
0.0
  0
LINE
  5
1967E
330
747D
100
AcDbEntity
  8
部品1
100
AcDbLine
 10
8871.521034344143
 20
8024.968423031422
 30
0.0
 11
8871.521034344143
 21
8029.968423031421
 31
0.0
  0
ARC
  5
1967F
330
747D
100
AcDbEntity
  8
部品1
 48
0.01
100
AcDbCircle
 10
8869.521034344144
 20
8029.968423031421
 30
0.0
 40
2.0
100
AcDbArc
 50
0.0
 51
90.0
  0
ARC
  5
19680
330
747D
100
AcDbEntity
  8
部品1
100
AcDbCircle
 10
8867.912642719334
 20
8028.968423031422
 30
0.0
 40
3.0
100
AcDbArc
 50
90.0
 51
141.6069559807873
  0
LINE
  5
19681
330
747D
100
AcDbEntity
  8
部品1
 48
0.01
100
AcDbLine
 10
8869.521034344144
 20
8031.968423031422
 30
0.0
 11
8867.912642719334
 21
8031.968423031422
 31
0.0
  0
ARC
  5
19682
330
747D
100
AcDbEntity
  8
部品1
100
AcDbCircle
 10
8849.450320129873
 20
8028.268423031425
 30
0.0
 40
3.0
100
AcDbArc
 50
254.0576313943215
 51
270.0
  0
ARC
  5
19683
330
747D
100
AcDbEntity
  8
部品1
100
AcDbCircle
 10
8856.591748558413
 20
8028.268423031425
 30
0.0
 40
3.0
100
AcDbArc
 50
270.0
 51
285.9423686056786
  0
LINE
  5
19684
330
747D
100
AcDbEntity
  8
部品1
100
AcDbLine
 10
8856.591748558413
 20
8025.268423031425
 30
0.0
 11
8849.450320129873
 21
8025.268423031425
 31
0.0
  0
ARC
  5
19685
330
747D
100
AcDbEntity
  8
部品1
100
AcDbCircle
 10
8853.021034344143
 20
8040.768423031424
 30
0.0
 40
16.0
100
AcDbArc
 50
285.9423686056786
 51
321.6069559807873
  0
LINE
  5
19686
330
747D
100
AcDbEntity
  8
部品1
 48
0.01
100
AcDbLine
 10
8836.521034344142
 20
8031.968423031422
 30
0.0
 11
8838.129425968952
 21
8031.968423031422
 31
0.0
  0
ARC
  5
19687
330
747D
100
AcDbEntity
  8
部品1
100
AcDbCircle
 10
8838.129425968952
 20
8028.968423031422
 30
0.0
 40
3.0
100
AcDbArc
 50
38.39304401921267
 51
90.0
  0
ARC
  5
19688
330
747D
100
AcDbEntity
  8
部品1
100
AcDbCircle
 10
8853.021034344143
 20
8040.768423031424
 30
0.0
 40
16.0
100
AcDbArc
 50
218.3930440192126
 51
254.0576313943215
  0
LINE
  5
19689
330
747D
100
AcDbEntity
  8
部品1
100
AcDbLine
 10
8834.521034344144
 20
8024.968423031422
 30
0.0
 11
8834.521034344144
 21
8029.968423031421
 31
0.0
  0
ARC
  5
1968A
330
747D
100
AcDbEntity
  8
部品1
 48
0.01
100
AcDbCircle
 10
8836.521034344142
 20
8029.968423031421
 30
0.0
 40
2.0
100
AcDbArc
 50
90.0
 51
180.0
  0
ARC
  5
1968B
330
747D
100
AcDbEntity
  8
部品1
100
AcDbCircle
 10
8860.521034344143
 20
8024.968423031422
 30
0.0
 40
26.0
100
AcDbArc
 50
180.0
 51
199.4712206344221
  0
ARC
  5
1968C
330
747D
100
AcDbEntity
  8
部品1
 48
0.01
100
AcDbCircle
 10
8828.521034344143
 20
8015.468423031421
 30
0.0
 40
0.5
100
AcDbArc
 50
180.0
 51
270.0
  0
LINE
  5
1968D
330
747D
100
AcDbEntity
  8
部品1
 48
0.01
100
AcDbLine
 10
8828.521034344143
 20
8014.968423031422
 30
0.0
 11
8835.065190221426
 21
8014.968423031422
 31
0.0
  0
LINE
  5
1968E
330
747D
100
AcDbEntity
  8
部品1
 48
0.01
100
AcDbLine
 10
8828.021034344144
 20
8016.468423031422
 30
0.0
 11
8828.021034344144
 21
8015.468423031421
 31
0.0
  0
ARC
  5
1968F
330
747D
100
AcDbEntity
  8
部品1
100
AcDbCircle
 10
8835.065190221426
 20
8015.968423031422
 30
0.0
 40
1.0
100
AcDbArc
 50
270.0
 51
19.47122063442214
  0
LINE
  5
19690
330
747D
100
AcDbEntity
  8
細線
100
AcDbLine
 10
8873.52103434415
 20
8034.468423031425
 30
0.0
 11
8832.521034344152
 21
8034.468423031418
 31
0.0
  0
LINE
  5
19691
330
747D
100
AcDbEntity
  8
細線
100
AcDbLine
 10
8832.521034344152
 20
8034.468423031418
 30
0.0
 11
8832.521034344152
 21
8016.468423031399
 31
0.0
  0
LINE
  5
19692
330
747D
100
AcDbEntity
  8
細線
100
AcDbLine
 10
8873.52103434415
 20
8034.468423031425
 30
0.0
 11
8873.52103434415
 21
8016.468423031399
 31
0.0
  0
LINE
  5
19693
330
747D
100
AcDbEntity
  8
細線
100
AcDbLine
 10
8717.021140942888
 20
8020.469353485825
 30
0.0
 11
8717.021140942888
 21
8016.469353485872
 31
0.0
  0
DIMENSION
  5
19694
330
747D
100
AcDbEntity
  8
寸法
 48
50.0
100
AcDbDimension
  2
*D32
 10
9983.021140942888
 20
7372.171480034551
 30
0.0
 11
9335.690679116277
 21
7372.171480034551
 31
0.0
 70
   160
  1
有効開口部間口\P<>
 71
     5
 42
1266.0
  3
INABA_S40
100
AcDbAlignedDimension
 13
8717.021140942888
 23
8011.469353485825
 33
0.0
 14
9983.021140942888
 24
8011.469353485825
 34
0.0
100
AcDbRotatedDimension
1001
ACAD
1000
DSTYLE
1002
{
1070
    41
1040
0.5
1070
    44
1040
1.0
1070
   147
1040
0.8
1070
   271
1070
     2
1070
   272
1070
     2
1070
   289
1070
     3
1070
   340
1005
F706
1070
   343
1005
184E8
1070
   344
1005
184E8
1002
}
  0
LINE
  5
19695
330
747D
100
AcDbEntity
  8
部品1
100
AcDbLine
 10
10805.02114094289
 20
8088.469353485825
 30
0.0
 11
10832.02114094289
 21
8088.469353485825
 31
0.0
  0
LINE
  5
19697
330
747D
100
AcDbEntity
  8
部品1
100
AcDbLine
 10
10832.02114094289
 20
8011.469353485825
 30
0.0
 11
10832.02114094289
 21
8088.469353485825
 31
0.0
  0
LINE
  5
19698
330
747D
100
AcDbEntity
  8
部品1
100
AcDbLine
 10
10793.02114094289
 20
8084.469353485825
 30
0.0
 11
10805.02114094289
 21
8084.469353485825
 31
0.0
  0
LINE
  5
19699
330
747D
100
AcDbEntity
  8
部品1
100
AcDbLine
 10
10802.02114094289
 20
8020.469353485825
 30
0.0
 11
10802.02114094289
 21
8011.469353485825
 31
0.0
  0
LINE
  5
1969A
330
747D
100
AcDbEntity
  8
部品1
100
AcDbLine
 10
10793.02114094289
 20
8020.469353485825
 30
0.0
 11
10802.02114094289
 21
8020.469353485825
 31
0.0
  0
LINE
  5
1969B
330
747D
100
AcDbEntity
  8
部品1
100
AcDbLine
 10
10793.02114094289
 20
8084.469353485825
 30
0.0
 11
10793.02114094289
 21
8020.469353485825
 31
0.0
  0
LINE
  5
1969C
330
747D
100
AcDbEntity
  8
部品1
100
AcDbLine
 10
10805.02114094289
 20
8115.469353485826
 30
0.0
 11
10805.02114094289
 21
8084.469353485825
 31
0.0
  0
LINE
  5
1969D
330
747D
100
AcDbEntity
  8
部品1
100
AcDbLine
 10
8717.021140942888
 20
8084.469353485825
 30
0.0
 11
8705.021140942887
 21
8084.469353485825
 31
0.0
  0
LINE
  5
1969E
330
747D
100
AcDbEntity
  8
部品1
100
AcDbLine
 10
8678.021140942888
 20
8088.469353485825
 30
0.0
 11
8705.021140942887
 21
8088.469353485825
 31
0.0
  0
LINE
  5
1969F
330
747D
100
AcDbEntity
  8
部品1
100
AcDbLine
 10
8708.021140942888
 20
8020.469353485825
 30
0.0
 11
8708.021140942888
 21
8011.469353485825
 31
0.0
  0
LINE
  5
196A0
330
747D
100
AcDbEntity
  8
部品1
100
AcDbLine
 10
8717.021140942888
 20
8020.469353485825
 30
0.0
 11
8708.021140942888
 21
8020.469353485825
 31
0.0
  0
LINE
  5
196A1
330
747D
100
AcDbEntity
  8
部品1
100
AcDbLine
 10
8708.021140942888
 20
8011.469353485825
 30
0.0
 11
8678.021140942888
 21
8011.469353485825
 31
0.0
  0
LINE
  5
196A2
330
747D
100
AcDbEntity
  8
部品1
100
AcDbLine
 10
8678.021140942888
 20
8011.469353485825
 30
0.0
 11
8678.021140942888
 21
8088.469353485825
 31
0.0
  0
LINE
  5
196A3
330
747D
100
AcDbEntity
  8
部品1
100
AcDbLine
 10
8717.021140942888
 20
8084.469353485825
 30
0.0
 11
8717.021140942888
 21
8020.469353485825
 31
0.0
  0
LINE
  5
196A4
330
747D
100
AcDbEntity
  8
部品1
100
AcDbLine
 10
8705.021140942887
 20
8115.469353485821
 30
0.0
 11
8705.021140942887
 21
8084.469353485825
 31
0.0
  0
LINE
  5
196A5
330
747D
100
AcDbEntity
  8
部品1
100
AcDbLine
 10
8705.021140942887
 20
8115.469353485821
 30
0.0
 11
10805.02114094289
 21
8115.469353485826
 31
0.0
  0
LINE
  5
196A6
330
747D
100
AcDbEntity
  8
部品1
100
AcDbLine
 10
10802.02114094289
 20
8011.469353485825
 30
0.0
 11
10832.02114094289
 21
8011.469353485825
 31
0.0
  0
LINE
  5
196A7
330
747D
100
AcDbEntity
  8
部品1
100
AcDbLine
 10
8708.021140942888
 20
8011.469353485825
 30
0.0
 11
10805.02114094289
 21
8011.469353485825
 31
0.0
  0
LINE
  5
196A8
330
747D
100
AcDbEntity
  8
細線
  6
Continuous
 62
     5
100
AcDbLine
 10
10084.02114094289
 20
8050.469353485821
 30
0.0
 11
10084.02114094289
 21
8050.469353485821
 31
0.0
  0
LINE
  5
196A9
330
747D
100
AcDbEntity
  8
細線
  6
Continuous
 62
     5
100
AcDbLine
 10
10076.52117626178
 20
8050.469363406879
 30
0.0
 11
10076.52117626178
 21
8050.469363406879
 31
0.0
  0
LINE
  5
196AA
330
747D
100
AcDbEntity
  8
細線
  6
Continuous
 62
     5
100
AcDbLine
 10
10070.52117626178
 20
8050.469363406879
 30
0.0
 11
10070.52117626178
 21
8050.469363406879
 31
0.0
  0
LINE
  5
196AB
330
747D
100
AcDbEntity
  8
細線
  6
Continuous
 62
     5
100
AcDbLine
 10
10138.02114094289
 20
8069.469353485821
 30
0.0
 11
10138.02114094289
 21
8069.469353485821
 31
0.0
  0
LINE
  5
196AC
330
747D
100
AcDbEntity
  8
細線
 48
50.0
100
AcDbLine
 10
8731.021145596482
 20
8037.069527662779
 30
0.0
 11
8731.021145596482
 21
8045.465678070419
 31
0.0
  0
LINE
  5
196AD
330
747D
100
AcDbEntity
  8
細線
 48
50.0
100
AcDbLine
 10
8731.021145596482
 20
8045.465678070419
 30
0.0
 11
8717.021140942888
 21
8045.465678070415
 31
0.0
  0
LINE
  5
196AE
330
747D
100
AcDbEntity
  8
細線
 48
50.0
100
AcDbLine
 10
9482.021145596478
 20
8033.619527662779
 30
0.0
 11
9482.021145596478
 21
8038.469527662781
 31
0.0
  0
LINE
  5
196AF
330
747D
100
AcDbEntity
  8
細線
 48
50.0
100
AcDbLine
 10
9482.021145596478
 20
8038.469527662781
 30
0.0
 11
9497.021145596479
 21
8038.469527662781
 31
0.0
  0
LINE
  5
196B0
330
747D
100
AcDbEntity
  8
細線
 48
50.0
100
AcDbLine
 10
9497.021145596479
 20
8038.469527662781
 30
0.0
 11
9497.021145596482
 21
8045.469527662781
 31
0.0
  0
LINE
  5
196B1
330
747D
100
AcDbEntity
  8
細線
 48
50.0
100
AcDbLine
 10
9497.021145596482
 20
8045.469527662781
 30
0.0
 11
9512.021145596477
 21
8045.469527662781
 31
0.0
  0
LINE
  5
196B2
330
747D
100
AcDbEntity
  8
細線
 48
50.0
100
AcDbLine
 10
9512.021145596477
 20
8045.469527662781
 30
0.0
 11
9512.021145596477
 21
8016.469527662781
 31
0.0
  0
LINE
  5
196B3
330
747D
100
AcDbEntity
  8
細線
 48
50.0
100
AcDbLine
 10
8708.021140942888
 20
8016.46686200625
 30
0.0
 11
8922.021145596479
 21
8016.469545216494
 31
0.0
  0
LINE
  5
196B4
330
747D
100
AcDbEntity
  8
細線
 48
50.0
100
AcDbLine
 10
9412.021145596478
 20
8016.469527662781
 30
0.0
 11
9512.021145596477
 21
8016.469527662781
 31
0.0
  0
LINE
  5
196B5
330
747D
100
AcDbEntity
  8
細線
 48
50.0
100
AcDbLine
 10
9132.021145596478
 20
8016.469527662781
 30
0.0
 11
9202.021145596479
 21
8016.469527662781
 31
0.0
  0
LINE
  5
196B6
330
747D
100
AcDbEntity
  8
細線
 48
50.0
100
AcDbLine
 10
9144.883110609008
 20
8016.469527662781
 30
0.0
 11
9150.638628191675
 21
8034.740378953275
 31
0.0
  0
LINE
  5
196B7
330
747D
100
AcDbEntity
  8
細線
 48
50.0
100
AcDbLine
 10
9150.638628191675
 20
8034.740378953275
 30
0.0
 11
9161.56707667211
 21
8034.740378953271
 31
0.0
  0
ARC
  5
196B8
330
747D
100
AcDbEntity
  8
細線
 48
50.0
100
AcDbCircle
 10
9161.56707667211
 20
8033.740378953272
 30
0.0
 40
1.0
100
AcDbArc
 50
24.62431835213048
 51
90.0
  0
ARC
  5
196B9
330
747D
100
AcDbEntity
  8
細線
 48
50.0
100
AcDbCircle
 10
9172.475788786742
 20
8033.740378953272
 30
0.0
 40
1.0
100
AcDbArc
 50
90.0
 51
155.3756816478695
  0
ARC
  5
196BA
330
747D
100
AcDbEntity
  8
細線
 48
50.0
100
AcDbCircle
 10
9167.021432729423
 20
8036.240378953271
 30
0.0
 40
5.0
100
AcDbArc
 50
204.6243183521304
 51
335.3756816478695
  0
LINE
  5
196BB
330
747D
100
AcDbEntity
  8
細線
 48
50.0
100
AcDbLine
 10
9172.475788786742
 20
8034.740378953271
 30
0.0
 11
9183.404237267176
 21
8034.740378953275
 31
0.0
  0
LINE
  5
196BC
330
747D
100
AcDbEntity
  8
細線
 48
50.0
100
AcDbLine
 10
9183.404237267176
 20
8034.740378953275
 30
0.0
 11
9189.159754849844
 21
8016.469527662781
 31
0.0
  0
LINE
  5
196BD
330
747D
100
AcDbEntity
  8
細線
 48
50.0
100
AcDbLine
 10
9482.021145596478
 20
8037.069527662779
 30
0.0
 11
8731.021145596482
 21
8037.069527662779
 31
0.0
  0
LINE
  5
196BE
330
747D
100
AcDbEntity
  8
細線
 48
50.0
100
AcDbLine
 10
9342.021145596479
 20
8016.469527662781
 30
0.0
 11
9272.021145596479
 21
8016.469527662781
 31
0.0
  0
LINE
  5
196BF
330
747D
100
AcDbEntity
  8
細線
100
AcDbLine
 10
9062.021145596478
 20
8016.469527662781
 30
0.0
 11
8992.021153781895
 21
8016.469527662781
 31
0.0
  0
LINE
  5
196C0
330
747D
100
AcDbEntity
  8
細線
 48
50.0
100
AcDbLine
 10
10136.0211362893
 20
8071.069571520649
 30
0.0
 11
9501.021145596478
 21
8071.069571520643
 31
0.0
  0
LINE
  5
196C1
330
747D
100
AcDbEntity
  8
細線
 48
50.0
100
AcDbLine
 10
9501.021145596478
 20
8067.965721928286
 30
0.0
 11
9501.021145596478
 21
8072.465721928287
 31
0.0
  0
LINE
  5
196C2
330
747D
100
AcDbEntity
  8
細線
 48
50.0
100
AcDbLine
 10
9501.021145596478
 20
8072.465721928287
 30
0.0
 11
9486.021145596479
 21
8072.465721928287
 31
0.0
  0
LINE
  5
196C3
330
747D
100
AcDbEntity
  8
細線
 48
50.0
100
AcDbLine
 10
9486.021145596479
 20
8072.465721928287
 30
0.0
 11
9486.021145596479
 21
8079.465721928286
 31
0.0
  0
LINE
  5
196C4
330
747D
100
AcDbEntity
  8
細線
 48
50.0
100
AcDbLine
 10
9486.021145596479
 20
8079.465721928286
 30
0.0
 11
9471.021145596482
 21
8079.465721928285
 31
0.0
  0
LINE
  5
196C5
330
747D
100
AcDbEntity
  8
細線
 48
50.0
100
AcDbLine
 10
9471.021145596482
 20
8079.465721928285
 30
0.0
 11
9471.021145596482
 21
8041.865493825174
 31
0.0
  0
LINE
  5
196C6
330
747D
100
AcDbEntity
  8
細線
 48
50.0
100
AcDbLine
 10
9471.021145596482
 20
8041.865493825174
 30
0.0
 11
9491.021152897655
 21
8041.865535374714
 31
0.0
  0
LINE
  5
196C7
330
747D
100
AcDbEntity
  8
細線
 48
50.0
100
AcDbLine
 10
9491.021108028711
 20
8050.468997010524
 30
0.0
 11
9491.021152897655
 21
8041.865535374714
 31
0.0
  0
LINE
  5
196C8
330
747D
100
AcDbEntity
  8
細線
 48
50.0
100
AcDbLine
 10
10136.0211362893
 20
8067.619571520648
 30
0.0
 11
10136.0211362893
 21
8072.469571520645
 31
0.0
  0
LINE
  5
196C9
330
747D
100
AcDbEntity
  8
細線
 48
50.0
100
AcDbLine
 10
10136.0211362893
 20
8072.469571520645
 30
0.0
 11
10151.0211362893
 21
8072.469571520645
 31
0.0
  0
LINE
  5
196CA
330
747D
100
AcDbEntity
  8
細線
 48
50.0
100
AcDbLine
 10
10151.0211362893
 20
8072.469571520645
 30
0.0
 11
10151.02114792327
 21
8079.469571520688
 31
0.0
  0
LINE
  5
196CB
330
747D
100
AcDbEntity
  8
細線
 48
50.0
100
AcDbLine
 10
10151.02114792327
 20
8079.469571520688
 30
0.0
 11
10166.0211460938
 21
8079.469571520688
 31
0.0
  0
LINE
  5
196CC
330
747D
100
AcDbEntity
  8
細線
 48
50.0
100
AcDbLine
 10
10166.0211460938
 20
8079.469571520688
 30
0.0
 11
10166.02113579198
 21
8050.469365348416
 31
0.0
  0
LINE
  5
196CD
330
747D
100
AcDbEntity
  8
細線
 48
50.0
100
AcDbLine
 10
9853.521163422769
 20
8050.469373535781
 30
0.0
 11
9783.521415505184
 21
8050.469368098445
 31
0.0
  0
LINE
  5
196CE
330
747D
100
AcDbEntity
  8
細線
 48
50.0
100
AcDbLine
 10
9491.021108028711
 20
8050.468997010524
 30
0.0
 11
9502.253797383422
 21
8050.469179963668
 31
0.0
  0
ARC
  5
196CF
330
747D
100
AcDbEntity
  8
細線
 48
50.0
100
AcDbCircle
 10
9508.836089690758
 20
8049.269343877282
 30
0.0
 40
1.8
100
AcDbArc
 50
270.0006665777295
 51
345.0005554812987
  0
LINE
  5
196D0
330
747D
100
AcDbEntity
  8
細線
 48
50.0
100
AcDbLine
 10
9510.822523136837
 20
8049.72818433456
 30
0.0
 11
9510.574760694639
 21
8048.803486452454
 31
0.0
  0
LINE
  5
196D1
330
747D
100
AcDbEntity
  8
細線
 48
50.0
100
AcDbLine
 10
9508.836110631914
 20
8047.469343877402
 30
0.0
 11
9505.206183213145
 21
8047.469301646923
 31
0.0
  0
ARC
  5
196D2
330
747D
100
AcDbEntity
  8
細線
 48
50.0
100
AcDbCircle
 10
9505.206162271992
 20
8049.269301646802
 30
0.0
 40
1.8
100
AcDbArc
 50
195.0010443049394
 51
270.0006665777295
  0
LINE
  5
196D3
330
747D
100
AcDbEntity
  8
細線
 48
50.0
100
AcDbLine
 10
9503.219734779733
 20
8049.728016614366
 30
0.0
 11
9503.467504276247
 21
8048.803395675784
 31
0.0
  0
ARC
  5
196D4
330
747D
100
AcDbEntity
  8
細線
 48
50.0
100
AcDbCircle
 10
9502.253813670984
 20
8049.469179963805
 30
0.0
 40
1.0
100
AcDbArc
 50
15.00104430493943
 51
90.00093320877969
  0
LINE
  5
196D5
330
747D
100
AcDbEntity
  8
細線
 48
50.0
100
AcDbLine
 10
9511.788444491939
 20
8050.469374654074
 30
0.0
 11
9512.730204642846
 21
8050.469381227925
 31
0.0
  0
ARC
  5
196D6
330
747D
100
AcDbEntity
  8
細線
 48
50.0
100
AcDbCircle
 10
9511.788451472327
 20
8049.469374654099
 30
0.0
 40
1.0
100
AcDbArc
 50
90.0003999466794
 51
165.0005554812987
  0
LINE
  5
196D7
330
747D
100
AcDbEntity
  8
細線
 48
50.0
100
AcDbLine
 10
10063.52113628929
 20
8050.469365348416
 30
0.0
 11
10166.02113579198
 21
8050.469365348416
 31
0.0
  0
LINE
  5
196D8
330
747D
100
AcDbEntity
  8
細線
 48
50.0
100
AcDbLine
 10
9573.521171608183
 20
8050.469373535781
 30
0.0
 11
9512.421110381263
 21
8050.469381227925
 31
0.0
  0
LINE
  5
196D9
330
747D
100
AcDbEntity
  8
細線
 48
50.0
100
AcDbLine
 10
9993.521171608184
 20
8050.469410376864
 30
0.0
 11
9923.521164653799
 21
8050.469365354196
 31
0.0
  0
LINE
  5
196DA
330
747D
100
AcDbEntity
  8
細線
 48
50.0
100
AcDbLine
 10
9713.521136289292
 20
8050.469365348412
 30
0.0
 11
9643.521119001416
 21
8050.469365348419
 31
0.0
  0
ARC
  5
196DB
330
747D
100
AcDbEntity
  8
細線
 48
50.0
100
AcDbCircle
 10
10150.2211409429
 20
8083.669353485825
 30
0.0
 40
0.8
100
AcDbArc
 50
359.9997333689499
 51
89.99986668437072
  0
ARC
  5
196DC
330
747D
100
AcDbEntity
  8
細線
 48
50.0
100
AcDbCircle
 10
10157.82114776799
 20
8083.669364654443
 30
0.0
 40
0.8
100
AcDbArc
 50
90.00014387753465
 51
179.9997333689498
  0
LINE
  5
196DD
330
747D
100
AcDbEntity
  8
細線
 48
50.0
100
AcDbLine
 10
10150.22114280433
 20
8084.469353485825
 30
0.0
 11
10145.02114094289
 21
8084.469353485825
 31
0.0
  0
ARC
  5
196DE
330
747D
100
AcDbEntity
  8
細線
 48
50.0
100
AcDbCircle
 10
10151.72114094289
 20
8082.169353485825
 30
0.0
 40
0.7
100
AcDbArc
 50
180.0
 51
270.0
  0
ARC
  5
196DF
330
747D
100
AcDbEntity
  8
細線
 48
50.0
100
AcDbCircle
 10
10156.32114094289
 20
8082.169353485825
 30
0.0
 40
0.7
100
AcDbArc
 50
270.0
 51
0.0
  0
LINE
  5
196E0
330
747D
100
AcDbEntity
  8
細線
 48
50.0
100
AcDbLine
 10
10157.02114094289
 20
8082.169353485825
 30
0.0
 11
10157.021147768
 21
8083.669368377313
 31
0.0
  0
LINE
  5
196E1
330
747D
100
AcDbEntity
  8
細線
 48
50.0
100
AcDbLine
 10
10151.72114094289
 20
8081.469353485825
 30
0.0
 11
10156.32114094289
 21
8081.469353485825
 31
0.0
  0
LINE
  5
196E2
330
747D
100
AcDbEntity
  8
細線
 48
50.0
100
AcDbLine
 10
10151.02114094289
 20
8083.669353485825
 30
0.0
 11
10151.02114094289
 21
8082.169353485825
 31
0.0
  0
LINE
  5
196E3
330
747D
100
AcDbEntity
  8
細線
 48
50.0
100
AcDbLine
 10
10776.62114094289
 20
8114.469353485825
 30
0.0
 11
10140.02114094289
 21
8114.469353485821
 31
0.0
  0
LINE
  5
196E4
330
747D
100
AcDbEntity
  8
細線
 48
50.0
100
AcDbLine
 10
10802.52114094289
 20
8109.469353485829
 30
0.0
 11
10786.62114094289
 21
8109.469353485826
 31
0.0
  0
LINE
  5
196E5
330
747D
100
AcDbEntity
  8
細線
 48
50.0
100
AcDbLine
 10
10786.62114094289
 20
8109.469353485826
 30
0.0
 11
10776.62114094289
 21
8114.469353485825
 31
0.0
  0
LINE
  5
196E6
330
747D
100
AcDbEntity
  8
細線
100
AcDbLine
 10
10387.52114094289
 20
8084.469353485825
 30
0.0
 11
10387.52114094289
 21
8113.769353485825
 31
0.0
  0
LINE
  5
196E7
330
747D
100
AcDbEntity
  8
細線
100
AcDbLine
 10
10387.52114094289
 20
8113.769353485825
 30
0.0
 11
10407.52114094289
 21
8113.769353485825
 31
0.0
  0
LINE
  5
196E8
330
747D
100
AcDbEntity
  8
細線
100
AcDbLine
 10
10407.52114094289
 20
8084.469353485825
 30
0.0
 11
10407.52114094289
 21
8113.769353485825
 31
0.0
  0
LINE
  5
196E9
330
747D
100
AcDbEntity
  8
細線
100
AcDbLine
 10
10568.77114094289
 20
8084.469353485825
 30
0.0
 11
10498.77114094289
 21
8084.469353485825
 31
0.0
  0
LINE
  5
196EA
330
747D
100
AcDbEntity
  8
細線
 48
50.0
100
AcDbLine
 10
10288.77114094289
 20
8084.469353485825
 30
0.0
 11
10157.81692051573
 21
8084.469353485825
 31
0.0
  0
LINE
  5
196EB
330
747D
100
AcDbEntity
  8
細線
100
AcDbLine
 10
10428.77114094289
 20
8084.469353485825
 30
0.0
 11
10358.77114094289
 21
8084.469353485825
 31
0.0
  0
LINE
  5
196EC
330
747D
100
AcDbEntity
  8
細線
 48
50.0
100
AcDbLine
 10
10145.02114094289
 20
8076.469353485824
 30
0.0
 11
10145.02114094289
 21
8084.469353485825
 31
0.0
  0
LINE
  5
196ED
330
747D
100
AcDbEntity
  8
細線
 48
50.0
100
AcDbLine
 10
10125.02114094289
 20
8076.46935348583
 30
0.0
 11
10145.02114094289
 21
8076.469353485824
 31
0.0
  0
LINE
  5
196EE
330
747D
100
AcDbEntity
  8
細線
 48
50.0
100
AcDbLine
 10
10140.02114094289
 20
8114.469353485825
 30
0.0
 11
10140.02114094289
 21
8109.469353485826
 31
0.0
  0
LINE
  5
196EF
330
747D
100
AcDbEntity
  8
細線
 48
50.0
100
AcDbLine
 10
10125.02114094289
 20
8114.469353485821
 30
0.0
 11
10140.02114094289
 21
8114.469353485825
 31
0.0
  0
LINE
  5
196F0
330
747D
100
AcDbEntity
  8
細線
 48
50.0
100
AcDbLine
 10
10125.02114094289
 20
8076.46935348583
 30
0.0
 11
10125.02114094289
 21
8114.469353485821
 31
0.0
  0
LINE
  5
196F1
330
747D
100
AcDbEntity
  8
細線
100
AcDbLine
 10
10793.02114094289
 20
8084.469353485825
 30
0.0
 11
10638.77114094289
 21
8084.469353485825
 31
0.0
  0
LINE
  5
196F2
330
747D
100
AcDbEntity
  8
細線
 48
50.0
100
AcDbLine
 10
10802.52114094289
 20
8109.469353485829
 30
0.0
 11
10802.52114094289
 21
8084.469353485825
 31
0.0
  0
DIMENSION
  5
19936
330
747D
100
AcDbEntity
  8
寸法
 48
50.0
100
AcDbDimension
  2
*D33
 10
10832.02114094289
 20
7091.339638058058
 30
0.0
 11
9777.153897690201
 21
7091.339638058058
 31
0.0
 70
   160
 71
     5
 42
2154.0
  3
INABA_S40G
100
AcDbAlignedDimension
 13
8678.021140942888
 23
8011.469353485825
 33
0.0
 14
10832.02114094289
 24
8011.469353485825
 34
0.0
100
AcDbRotatedDimension
1001
ACAD
1000
DSTYLE
1002
{
1070
   341
1005
0
1002
}
  0
DIMENSION
  5
19B7C
330
747D
100
AcDbEntity
  8
寸法
100
AcDbDimension
  2
*D34
 10
7935.409895316195
 20
8013.469353485794
 30
0.0
 11
7935.409895316194
 21
7872.984072111555
 31
0.0
 70
   160
 71
     5
 42
75.0
  3
INABA_S40
100
AcDbAlignedDimension
 13
8230.021140942913
 23
8088.469353485793
 33
0.0
 14
8678.021140942886
 24
8013.469353485794
 34
0.0
 50
90.0
100
AcDbRotatedDimension
1001
ACAD
1000
DSTYLE
1002
{
1070
    41
1040
0.5
1070
    44
1040
1.0
1070
   147
1040
0.8
1070
   271
1070
     2
1070
   272
1070
     2
1070
   289
1070
     3
1070
   340
1005
F706
1070
   343
1005
184E8
1070
   344
1005
184E8
1002
}
  0
LWPOLYLINE
  5
19D05
330
747D
100
AcDbEntity
  8
部品1
 48
50.0
100
AcDbPolyline
 90
        4
 70
     1
 43
0.0
 10
8777.07114094292
 20
3581.087748007313
 10
8779.971140942922
 20
3581.087748007313
 10
8779.971140942922
 20
3590.587748007312
 10
8777.07114094292
 20
3590.587748007312
  0
CIRCLE
  5
19D06
330
747D
100
AcDbEntity
  8
部品1
 48
50.0
100
AcDbCircle
 10
8778.52114094292
 20
3585.837748007313
 30
0.0
 40
9.0
  0
ARC
  5
19D07
330
747D
100
AcDbEntity
  8
細線
 48
50.0
100
AcDbCircle
 10
8778.52114094292
 20
3585.837748007313
 30
0.0
 40
4.0
100
AcDbArc
 50
111.2538091853132
 51
248.7461908146868
  0
ARC
  5
19D08
330
747D
100
AcDbEntity
  8
細線
 48
50.0
100
AcDbCircle
 10
8778.52114094292
 20
3585.837748007313
 30
0.0
 40
17.5
100
AcDbArc
 50
306.4837370612677
 51
233.5162629387323
  0
LINE
  5
19D09
330
747D
100
AcDbEntity
  8
細線
 48
50.0
100
AcDbLine
 10
8788.521140942917
 20
3561.97878742643
 30
0.0
 11
8788.521140942922
 21
3570.963273226671
 31
0.0
  0
LINE
  5
19D0A
330
747D
100
AcDbEntity
  8
細線
 48
50.0
100
AcDbLine
 10
8768.521140942921
 20
3561.978787426431
 30
0.0
 11
8768.521140942921
 21
3570.963273226668
 31
0.0
  0
ARC
  5
19D0B
330
747D
100
AcDbEntity
  8
細線
 48
50.0
100
AcDbCircle
 10
8778.52114094292
 20
3585.837748007313
 30
0.0
 40
26.5
100
AcDbArc
 50
249.3326835063939
 51
290.6673164933835
  0
ARC
  5
19D0C
330
747D
100
AcDbEntity
  8
細線
 48
50.0
100
AcDbCircle
 10
8787.521140942914
 20
3561.97878742643
 30
0.0
 40
1.0
100
AcDbArc
 50
290.6673164936062
 51
359.9999999998958
  0
ARC
  5
19D0D
330
747D
100
AcDbEntity
  8
細線
 48
50.0
100
AcDbCircle
 10
8769.521140942922
 20
3561.978787426431
 30
0.0
 40
1.0
100
AcDbArc
 50
180.0
 51
249.3326835066164
  0
ARC
  5
19D0E
330
747D
100
AcDbEntity
  8
細線
 48
50.0
100
AcDbCircle
 10
8767.521140942921
 20
3570.963273226668
 30
0.0
 40
1.0
100
AcDbArc
 50
0.0
 51
53.51626293873231
  0
ARC
  5
19D0F
330
747D
100
AcDbEntity
  8
細線
 48
50.0
100
AcDbCircle
 10
8789.521140942925
 20
3570.963273226671
 30
0.0
 40
1.0
100
AcDbArc
 50
126.4837370615127
 51
180.0
  0
ARC
  5
19D10
330
747D
100
AcDbEntity
  8
細線
 48
50.0
100
AcDbCircle
 10
8778.52114094292
 20
3585.837748007313
 30
0.0
 40
21.5
100
AcDbArc
 50
255.8014401250294
 51
284.1985598749706
  0
ARC
  5
19D11
330
747D
100
AcDbEntity
  8
細線
 48
50.0
100
AcDbCircle
 10
8778.52114094292
 20
3585.837748007313
 30
0.0
 40
16.5
100
AcDbArc
 50
251.9694646069326
 51
288.0305353930674
  0
LINE
  5
19D12
330
747D
100
AcDbEntity
  8
細線
 48
50.0
100
AcDbLine
 10
8784.021140942922
 20
3565.285375881506
 30
0.0
 11
8784.021140942922
 21
3569.862767568842
 31
0.0
  0
LINE
  5
19D13
330
747D
100
AcDbEntity
  8
細線
 48
50.0
100
AcDbLine
 10
8773.021140942921
 20
3565.285375881506
 30
0.0
 11
8773.021140942921
 21
3569.862767568841
 31
0.0
  0
ARC
  5
19D14
330
747D
100
AcDbEntity
  8
細線
 48
50.0
100
AcDbCircle
 10
8773.321140942924
 20
3569.862767568841
 30
0.0
 40
0.3
100
AcDbArc
 50
71.96946460693259
 51
180.0
  0
ARC
  5
19D15
330
747D
100
AcDbEntity
  8
細線
 48
50.0
100
AcDbCircle
 10
8783.721140942921
 20
3569.862767568842
 30
0.0
 40
0.3
100
AcDbArc
 50
0.0
 51
108.0305353930674
  0
ARC
  5
19D16
330
747D
100
AcDbEntity
  8
細線
 48
50.0
100
AcDbCircle
 10
8783.721140942919
 20
3565.285375881506
 30
0.0
 40
0.3
100
AcDbArc
 50
284.1985598747622
 51
0.0000000001042204
  0
ARC
  5
19D17
330
747D
100
AcDbEntity
  8
細線
 48
50.0
100
AcDbCircle
 10
8773.321140942924
 20
3565.285375881506
 30
0.0
 40
0.3
100
AcDbArc
 50
180.0
 51
255.8014401248081
  0
CIRCLE
  5
19D18
330
747D
100
AcDbEntity
  8
細線
 48
50.0
100
AcDbCircle
 10
8778.52114094292
 20
3585.837748007313
 30
0.0
 40
12.0
  0
ARC
  5
19D19
330
747D
100
AcDbEntity
  8
部品1
 48
50.0
100
AcDbCircle
 10
8778.52114094292
 20
3635.837748007312
 30
0.0
 40
8.5
100
AcDbArc
 50
114.315739171091
 51
245.684260828909
  0
CIRCLE
  5
19D1A
330
747D
100
AcDbEntity
  8
細線
 48
50.0
100
AcDbCircle
 10
8778.52114094292
 20
3635.837748007312
 30
0.0
 40
4.5
  0
LWPOLYLINE
  5
19D1B
330
747D
100
AcDbEntity
  8
部品1
 48
50.0
100
AcDbPolyline
 90
        2
 70
     0
 43
0.0
 10
8775.021140942921
 20
3654.512597404295
 10
8775.021140942921
 20
3643.583714699727
  0
CIRCLE
  5
19D1C
330
747D
100
AcDbEntity
  8
部品1
 48
50.0
100
AcDbCircle
 10
8778.52114094292
 20
3635.837748007312
 30
0.0
 40
19.0
  0
LWPOLYLINE
  5
19D1D
330
747D
100
AcDbEntity
  8
部品1
 48
50.0
100
AcDbPolyline
 90
        2
 70
     0
 43
0.0
 10
8775.021140942921
 20
3628.091781314898
 10
8775.021140942921
 20
3617.16289861033
  0
LWPOLYLINE
  5
19D1E
330
747D
100
AcDbEntity
  8
部品1
 48
50.0
100
AcDbPolyline
 90
        2
 70
     0
 43
0.0
 10
8782.021140942921
 20
3643.583714699727
 10
8782.021140942921
 20
3654.512597404295
  0
ARC
  5
19D1F
330
747D
100
AcDbEntity
  8
部品1
 48
50.0
100
AcDbCircle
 10
8778.52114094292
 20
3635.837748007312
 30
0.0
 40
8.5
100
AcDbArc
 50
294.315739171091
 51
65.68426082890896
  0
LWPOLYLINE
  5
19D20
330
747D
100
AcDbEntity
  8
部品1
 48
50.0
100
AcDbPolyline
 90
        2
 70
     0
 43
0.0
 10
8782.021140942921
 20
3617.16289861033
 10
8782.021140942921
 20
3628.091781314898
  0
ARC
  5
19D21
330
747D
100
AcDbEntity
  8
細線
 48
50.0
100
AcDbCircle
 10
8778.52114094292
 20
3635.837748007312
 30
0.0
 40
16.5
100
AcDbArc
 50
332.0012352654438
 51
27.99876473455621
  0
ARC
  5
19D22
330
747D
100
AcDbEntity
  8
細線
 48
50.0
100
AcDbCircle
 10
8778.52114094292
 20
3635.837748007312
 30
0.0
 40
14.0
100
AcDbArc
 50
326.4074436112986
 51
33.59255638870134
  0
LINE
  5
19D23
330
747D
100
AcDbEntity
  8
細線
 48
50.0
100
AcDbLine
 10
8763.952338658588
 20
3643.583714699727
 30
0.0
 11
8766.859237153232
 21
3643.583714699727
 31
0.0
  0
LINE
  5
19D24
330
747D
100
AcDbEntity
  8
細線
 48
50.0
100
AcDbLine
 10
8763.952338658588
 20
3628.091781314898
 30
0.0
 11
8766.859237153232
 21
3628.091781314898
 31
0.0
  0
LINE
  5
19D25
330
747D
100
AcDbEntity
  8
細線
 48
50.0
100
AcDbLine
 10
8790.183044732611
 20
3643.583714699727
 30
0.0
 11
8793.089943227256
 21
3643.583714699727
 31
0.0
  0
LINE
  5
19D26
330
747D
100
AcDbEntity
  8
細線
 48
50.0
100
AcDbLine
 10
8790.183044732611
 20
3628.091781314898
 30
0.0
 11
8793.089943227256
 21
3628.091781314898
 31
0.0
  0
ARC
  5
19D27
330
747D
100
AcDbEntity
  8
細線
 48
50.0
100
AcDbCircle
 10
8778.52114094292
 20
3635.837748007312
 30
0.0
 40
14.0
100
AcDbArc
 50
146.4074436112986
 51
213.5925563887013
  0
ARC
  5
19D28
330
747D
100
AcDbEntity
  8
細線
 48
50.0
100
AcDbCircle
 10
8778.52114094292
 20
3635.837748007312
 30
0.0
 40
16.5
100
AcDbArc
 50
152.0012352654438
 51
207.9987647345562
  0
ARC
  5
19D29
330
747D
100
AcDbEntity
  8
部品1
 48
50.0
100
AcDbCircle
 10
8752.02114094292
 20
3661.337748007313
 30
0.0
 40
5.0
100
AcDbArc
 50
90.0
 51
180.0
  0
ARC
  5
19D2A
330
747D
100
AcDbEntity
  8
部品1
 48
50.0
100
AcDbCircle
 10
8752.02114094292
 20
3550.337748007313
 30
0.0
 40
5.0
100
AcDbArc
 50
180.0
 51
270.0
  0
ARC
  5
19D2B
330
747D
100
AcDbEntity
  8
部品1
 48
50.0
100
AcDbCircle
 10
8805.021140942921
 20
3550.337748007313
 30
0.0
 40
5.0
100
AcDbArc
 50
270.0
 51
0.0
  0
ARC
  5
19D2C
330
747D
100
AcDbEntity
  8
部品1
 48
50.0
100
AcDbCircle
 10
8805.021140942921
 20
3661.337748007313
 30
0.0
 40
5.0
100
AcDbArc
 50
0.0
 51
90.0
  0
LINE
  5
19D2E
330
747D
100
AcDbEntity
  8
部品1
 48
50.0
100
AcDbLine
 10
8747.021140942921
 20
3550.337748007313
 30
0.0
 11
8747.021140942921
 21
3661.337748007313
 31
0.0
  0
LINE
  5
19D2F
330
747D
100
AcDbEntity
  8
部品1
 48
50.0
100
AcDbLine
 10
8805.021140942921
 20
3545.337748007312
 30
0.0
 11
8752.02114094292
 21
3545.337748007312
 31
0.0
  0
LINE
  5
19D30
330
747D
100
AcDbEntity
  8
部品1
 48
50.0
100
AcDbLine
 10
8810.02114094292
 20
3661.337748007313
 30
0.0
 11
8810.02114094292
 21
3550.337748007313
 31
0.0
  0
ENDSEC
  0
SECTION
  2
OBJECTS
  0
DICTIONARY
  5
7471
330
0
100
AcDbDictionary
281
     1
  3
ACAD_COLOR
350
184DD
  3
ACAD_GROUP
350
7472
  3
ACAD_LAYOUT
350
184DE
  3
ACAD_MATERIAL
350
184DC
  3
ACAD_MLINESTYLE
350
7473
  3
ACAD_PLOTSETTINGS
350
184DF
  3
ACAD_PLOTSTYLENAME
350
184DA
  3
ACDBHEADERROUNDTRIPXREC
350
19D3F
  3
AcDbVariableDictionary
350
19D3B
  3
CONTENTDICTIONARY
350
E71C
  3
DRAWINGVARIABLESDICT
350
F3B9
  0
DICTIONARY
  5
18677
330
7467
100
AcDbDictionary
280
     1
281
     1
  3
ACAD_LAYERSTATES
360
18678
  0
DICTIONARY
  5
184DD
102
{ACAD_REACTORS
330
7471
102
}
330
7471
100
AcDbDictionary
281
     1
  0
DICTIONARY
  5
7472
102
{ACAD_REACTORS
330
7471
102
}
330
7471
100
AcDbDictionary
281
     1
  0
DICTIONARY
  5
184DE
102
{ACAD_REACTORS
330
7471
102
}
330
7471
100
AcDbDictionary
281
     1
  3
Model
350
184E0
  3
レイアウト1
350
184E1
  0
DICTIONARY
  5
184DC
102
{ACAD_REACTORS
330
7471
102
}
330
7471
100
AcDbDictionary
281
     1
  0
DICTIONARY
  5
7473
102
{ACAD_REACTORS
330
7471
102
}
330
7471
100
AcDbDictionary
281
     1
  3
STANDARD
350
7480
  0
DICTIONARY
  5
184DF
102
{ACAD_REACTORS
330
7471
102
}
330
7471
100
AcDbDictionary
281
     1
  0
ACDBDICTIONARYWDFLT
  5
184DA
102
{ACAD_REACTORS
330
7471
102
}
330
7471
100
AcDbDictionary
281
     1
  3
Normal
350
184DB
100
AcDbDictionaryWithDefault
340
184DB
  0
DICTIONARY
  5
19D3F
102
{ACAD_REACTORS
330
7471
102
}
330
7471
100
AcDbDictionary
281
     1
  3
COLORDICT
350
19D41
  3
MATERIALDICT
350
19D40
  0
DICTIONARY
  5
19D3B
102
{ACAD_REACTORS
330
7471
102
}
330
7471
100
AcDbDictionary
281
     1
  3
DIMASSOC
350
19D3C
  3
PROJECTNAME
350
19D3D
  0
DICTIONARY
  5
E71C
102
{ACAD_REACTORS
330
7471
102
}
330
7471
100
AcDbDictionary
281
     1
  0
DICTIONARY
  5
F3B9
102
{ACAD_REACTORS
330
7471
102
}
330
7471
100
AcDbDictionary
281
     1
1001
DRAWINGVARIABLESXDATA
1000
POLARMODE
1000
1
  0
DICTIONARY
  5
18678
102
{ACAD_REACTORS
330
18677
102
}
330
18677
100
AcDbDictionary
281
     1
  0
LAYOUT
  5
184E0
102
{ACAD_XDICTIONARY
360
19D42
102
}
102
{ACAD_REACTORS
330
184DE
102
}
330
184DE
100
AcDbPlotSettings
  1

  2
Microsoft Office Document Image Writer
  4

  6

 40
0.0
 41
0.0
 42
0.0
 43
0.0
 44
0.0
 45
0.0
 46
0.0
 47
0.0
 48
0.0
 49
0.0
140
0.0
141
0.0
142
1.0
143
1.0
 70
  1712
 72
     0
 73
     0
 74
     0
  7

 75
     0
147
1.0
148
0.0
149
0.0
100
AcDbLayout
  1
Model
 70
     1
 71
     0
 10
0.0
 20
0.0
 11
12.0
 21
9.0
 12
0.0
 22
0.0
 32
0.0
 14
0.0
 24
0.0
 34
0.0
 15
0.0
 25
0.0
 35
0.0
146
0.0
 13
0.0
 23
0.0
 33
0.0
 16
1.0
 26
0.0
 36
0.0
 17
0.0
 27
1.0
 37
0.0
 76
     0
330
747D
  0
LAYOUT
  5
184E1
102
{ACAD_XDICTIONARY
360
19D44
102
}
102
{ACAD_REACTORS
330
184DE
102
}
330
184DE
100
AcDbPlotSettings
  1

  2
Microsoft Office Document Image Writer
  4

  6

 40
0.0
 41
0.0
 42
0.0
 43
0.0
 44
0.0
 45
0.0
 46
0.0
 47
0.0
 48
0.0
 49
0.0
140
0.0
141
0.0
142
1.0
143
1.0
 70
   688
 72
     0
 73
     0
 74
     5
  7

 75
    16
147
1.0
148
0.0
149
0.0
100
AcDbLayout
  1
レイアウト1
 70
     0
 71
     1
 10
0.0
 20
0.0
 11
420.0
 21
297.0
 12
0.0
 22
0.0
 32
0.0
 14
1.000000000000000E+20
 24
1.000000000000000E+20
 34
1.000000000000000E+20
 15
-1.000000000000000E+20
 25
-1.000000000000000E+20
 35
-1.000000000000000E+20
146
0.0
 13
0.0
 23
0.0
 33
0.0
 16
1.0
 26
0.0
 36
0.0
 17
0.0
 27
1.0
 37
0.0
 76
     0
330
747A
  0
MLINESTYLE
  5
7480
102
{ACAD_REACTORS
330
7473
102
}
330
7473
100
AcDbMlineStyle
  2
STANDARD
 70
     0
  3

 62
     0
 51
90.0
 52
90.0
 71
     2
 49
0.5
 62
   256
  6
BYLAYER
 49
-0.5
 62
   256
  6
BYLAYER
  0
ACDBPLACEHOLDER
  5
184DB
102
{ACAD_REACTORS
330
184DA
102
}
330
184DA
  0
XRECORD
  5
19D41
102
{ACAD_REACTORS
330
19D3F
102
}
330
19D3F
100
AcDbXrecord
280
     1
340
184DD
  0
XRECORD
  5
19D40
102
{ACAD_REACTORS
330
19D3F
102
}
330
19D3F
100
AcDbXrecord
280
     1
340
184DC
  0
DICTIONARYVAR
  5
19D3C
102
{ACAD_REACTORS
330
19D3B
102
}
330
19D3B
100
DictionaryVariables
280
     0
  1
1
  0
DICTIONARYVAR
  5
19D3D
102
{ACAD_REACTORS
330
19D3B
102
}
330
19D3B
100
DictionaryVariables
280
     0
  1

  0
DICTIONARY
  5
19D42
330
184E0
100
AcDbDictionary
280
     1
281
     1
  3
ACAD_XREC_ROUNDTRIP
360
19D43
  0
DICTIONARY
  5
19D44
330
184E1
100
AcDbDictionary
280
     1
281
     1
  3
ACAD_XREC_ROUNDTRIP
360
19D45
  0
XRECORD
  5
19D43
102
{ACAD_REACTORS
330
19D42
102
}
330
19D42
100
AcDbXrecord
280
     1
102
SHADEPLOT
 70
     0
102
SHADEPLOTRESLEVEL
 70
     2
102
SHADEPLOTCUSTOMDPI
 70
   300
  0
XRECORD
  5
19D45
102
{ACAD_REACTORS
330
19D44
102
}
330
19D44
100
AcDbXrecord
280
     1
102
SHADEPLOT
 70
     0
102
SHADEPLOTRESLEVEL
 70
     2
102
SHADEPLOTCUSTOMDPI
 70
   300
  0
ENDSEC
  0
EOF
