  0
SECTION
  2
HEADER
  9
$ACADVER
  1
AC1015
  9
$ACADMAINTVER
 70
    20
  9
$DWGCODEPAGE
  3
ANSI_932
  9
$INSBASE
 10
0.0
 20
0.0
 30
0.0
  9
$EXTMIN
 10
139.9999999999995
 20
-0.0000000000000909
 30
0.0
  9
$EXTMAX
 10
16307.2
 20
11409.6
 30
0.0
  9
$LIMMIN
 10
0.0
 20
0.0
  9
$LIMMAX
 10
16800.0
 20
11880.0
  9
$ORTHOMODE
 70
     0
  9
$REGENMODE
 70
     1
  9
$FILLMODE
 70
     1
  9
$QTEXTMODE
 70
     0
  9
$MIRRTEXT
 70
     1
  9
$LTSCALE
 40
20.0
  9
$ATTMODE
 70
     1
  9
$TEXTSIZE
 40
100.0
  9
$TRACEWID
 40
1.0
  9
$TEXTSTYLE
  7
STYLE2
  9
$CLAYER
  8
寸法
  9
$CELTYPE
  6
BYLAYER
  9
$CECOLOR
 62
   256
  9
$CELTSCALE
 40
50.0
  9
$DISPSILH
 70
     0
  9
$DIMSCALE
 40
40.0
  9
$DIMASZ
 40
2.5
  9
$DIMEXO
 40
0.5
  9
$DIMDLI
 40
7.0
  9
$DIMRND
 40
0.0
  9
$DIMDLE
 40
0.0
  9
$DIMEXE
 40
1.5
  9
$DIMTP
 40
0.0
  9
$DIMTM
 40
0.0
  9
$DIMTXT
 40
3.0
  9
$DIMCEN
 40
0.0
  9
$DIMTSZ
 40
0.0
  9
$DIMTOL
 70
     0
  9
$DIMLIM
 70
     0
  9
$DIMTIH
 70
     0
  9
$DIMTOH
 70
     0
  9
$DIMSE1
 70
     0
  9
$DIMSE2
 70
     0
  9
$DIMTAD
 70
     3
  9
$DIMZIN
 70
     8
  9
$DIMBLK
  1

  9
$DIMASO
 70
     1
  9
$DIMSHO
 70
     1
  9
$DIMPOST
  1

  9
$DIMAPOST
  1

  9
$DIMALT
 70
     0
  9
$DIMALTD
 70
     2
  9
$DIMALTF
 40
0.0394
  9
$DIMLFAC
 40
1.0
  9
$DIMTOFL
 70
     1
  9
$DIMTVP
 40
0.0
  9
$DIMTIX
 70
     0
  9
$DIMSOXD
 70
     0
  9
$DIMSAH
 70
     1
  9
$DIMBLK1
  1
DOTSMALL
  9
$DIMBLK2
  1
DOTSMALL
  9
$DIMSTYLE
  2
INABA_S40G
  9
$DIMCLRD
 70
     0
  9
$DIMCLRE
 70
     0
  9
$DIMCLRT
 70
     7
  9
$DIMTFAC
 40
1.0
  9
$DIMGAP
 40
1.0
  9
$DIMJUST
 70
     0
  9
$DIMSD1
 70
     0
  9
$DIMSD2
 70
     0
  9
$DIMTOLJ
 70
     1
  9
$DIMTZIN
 70
     0
  9
$DIMALTZ
 70
     0
  9
$DIMALTTZ
 70
     0
  9
$DIMUPT
 70
     0
  9
$DIMDEC
 70
     1
  9
$DIMTDEC
 70
     1
  9
$DIMALTU
 70
     2
  9
$DIMALTTD
 70
     2
  9
$DIMTXSTY
  7
STYLE1
  9
$DIMAUNIT
 70
     0
  9
$DIMADEC
 70
     0
  9
$DIMALTRND
 40
0.0
  9
$DIMAZIN
 70
     0
  9
$DIMDSEP
 70
    46
  9
$DIMATFIT
 70
     3
  9
$DIMFRAC
 70
     0
  9
$DIMLDRBLK
  1

  9
$DIMLUNIT
 70
     2
  9
$DIMLWD
 70
    -2
  9
$DIMLWE
 70
    -2
  9
$DIMTMOVE
 70
     0
  9
$LUNITS
 70
     2
  9
$LUPREC
 70
     1
  9
$SKETCHINC
 40
1.0
  9
$FILLETRAD
 40
7.0
  9
$AUNITS
 70
     0
  9
$AUPREC
 70
     0
  9
$MENU
  1
acad
  9
$ELEVATION
 40
0.0
  9
$PELEVATION
 40
0.0
  9
$THICKNESS
 40
0.0
  9
$LIMCHECK
 70
     0
  9
$CHAMFERA
 40
3.0
  9
$CHAMFERB
 40
3.0
  9
$CHAMFERC
 40
0.0
  9
$CHAMFERD
 40
0.0
  9
$SKPOLY
 70
     0
  9
$TDCREATE
 40
2451368.612993866
  9
$TDUCREATE
 40
2451368.237993866
  9
$TDUPDATE
 40
2455575.697701632
  9
$TDUUPDATE
 40
2455575.322701632
  9
$TDINDWG
 40
1.2907212847
  9
$TDUSRTIMER
 40
1.2907212847
  9
$USRTIMER
 70
     1
  9
$ANGBASE
 50
0.0
  9
$ANGDIR
 70
     0
  9
$PDMODE
 70
     3
  9
$PDSIZE
 40
2.0
  9
$PLINEWID
 40
0.0
  9
$SPLFRAME
 70
     0
  9
$SPLINETYPE
 70
     6
  9
$SPLINESEGS
 70
     8
  9
$HANDSEED
  5
24436
  9
$SURFTAB1
 70
     6
  9
$SURFTAB2
 70
     6
  9
$SURFTYPE
 70
     6
  9
$SURFU
 70
     6
  9
$SURFV
 70
     6
  9
$UCSBASE
  2

  9
$UCSNAME
  2

  9
$UCSORG
 10
0.0
 20
0.0
 30
0.0
  9
$UCSXDIR
 10
1.0
 20
0.0
 30
0.0
  9
$UCSYDIR
 10
0.0
 20
1.0
 30
0.0
  9
$UCSORTHOREF
  2

  9
$UCSORTHOVIEW
 70
     0
  9
$UCSORGTOP
 10
0.0
 20
0.0
 30
0.0
  9
$UCSORGBOTTOM
 10
0.0
 20
0.0
 30
0.0
  9
$UCSORGLEFT
 10
0.0
 20
0.0
 30
0.0
  9
$UCSORGRIGHT
 10
0.0
 20
0.0
 30
0.0
  9
$UCSORGFRONT
 10
0.0
 20
0.0
 30
0.0
  9
$UCSORGBACK
 10
0.0
 20
0.0
 30
0.0
  9
$PUCSBASE
  2

  9
$PUCSNAME
  2

  9
$PUCSORG
 10
0.0
 20
0.0
 30
0.0
  9
$PUCSXDIR
 10
1.0
 20
0.0
 30
0.0
  9
$PUCSYDIR
 10
0.0
 20
1.0
 30
0.0
  9
$PUCSORTHOREF
  2

  9
$PUCSORTHOVIEW
 70
     0
  9
$PUCSORGTOP
 10
0.0
 20
0.0
 30
0.0
  9
$PUCSORGBOTTOM
 10
0.0
 20
0.0
 30
0.0
  9
$PUCSORGLEFT
 10
0.0
 20
0.0
 30
0.0
  9
$PUCSORGRIGHT
 10
0.0
 20
0.0
 30
0.0
  9
$PUCSORGFRONT
 10
0.0
 20
0.0
 30
0.0
  9
$PUCSORGBACK
 10
0.0
 20
0.0
 30
0.0
  9
$USERI1
 70
     0
  9
$USERI2
 70
     0
  9
$USERI3
 70
     0
  9
$USERI4
 70
     0
  9
$USERI5
 70
     0
  9
$USERR1
 40
0.0
  9
$USERR2
 40
0.0
  9
$USERR3
 40
0.0
  9
$USERR4
 40
0.0
  9
$USERR5
 40
0.0
  9
$WORLDVIEW
 70
     1
  9
$SHADEDGE
 70
     3
  9
$SHADEDIF
 70
    70
  9
$TILEMODE
 70
     1
  9
$MAXACTVP
 70
    16
  9
$PINSBASE
 10
0.0
 20
0.0
 30
0.0
  9
$PLIMCHECK
 70
     0
  9
$PEXTMIN
 10
1.000000000000000E+20
 20
1.000000000000000E+20
 30
1.000000000000000E+20
  9
$PEXTMAX
 10
-1.000000000000000E+20
 20
-1.000000000000000E+20
 30
-1.000000000000000E+20
  9
$PLIMMIN
 10
0.0
 20
0.0
  9
$PLIMMAX
 10
420.0
 20
297.0
  9
$UNITMODE
 70
     0
  9
$VISRETAIN
 70
     0
  9
$PLINEGEN
 70
     0
  9
$PSLTSCALE
 70
     0
  9
$TREEDEPTH
 70
  3020
  9
$CMLSTYLE
  2
STANDARD
  9
$CMLJUST
 70
     0
  9
$CMLSCALE
 40
1.0
  9
$PROXYGRAPHICS
 70
     1
  9
$MEASUREMENT
 70
     1
  9
$CELWEIGHT
370
    -1
  9
$ENDCAPS
280
     0
  9
$JOINSTYLE
280
     0
  9
$LWDISPLAY
290
     0
  9
$INSUNITS
 70
     0
  9
$HYPERLINKBASE
  1

  9
$STYLESHEET
  1
inaba.ctb
  9
$XEDIT
290
     1
  9
$CEPSNTYPE
380
     0
  9
$PSTYLEMODE
290
     1
  9
$FINGERPRINTGUID
  2
{3B57B35E-7D77-4BBF-81B7-6C583B9EB24C}
  9
$VERSIONGUID
  2
{58550AA9-9B55-4655-9A63-BA320FED847B}
  9
$EXTNAMES
290
     1
  9
$PSVPSCALE
 40
0.0
  9
$OLESTARTUP
290
     0
  0
ENDSEC
  0
SECTION
  2
CLASSES
  0
CLASS
  1
ACDBDICTIONARYWDFLT
  2
AcDbDictionaryWithDefault
  3
ObjectDBX Classes
 90
        0
280
     0
281
     0
  0
CLASS
  1
DICTIONARYVAR
  2
AcDbDictionaryVar
  3
ObjectDBX Classes
 90
        0
280
     0
281
     0
  0
CLASS
  1
ACDBPLACEHOLDER
  2
AcDbPlaceHolder
  3
ObjectDBX Classes
 90
        0
280
     0
281
     0
  0
CLASS
  1
LAYOUT
  2
AcDbLayout
  3
ObjectDBX Classes
 90
        0
280
     0
281
     0
  0
ENDSEC
  0
SECTION
  2
TABLES
  0
TABLE
  2
VPORT
  5
746D
330
0
100
AcDbSymbolTable
 70
     2
  0
VPORT
  5
2442E
330
746D
100
AcDbSymbolTableRecord
100
AcDbViewportTableRecord
  2
*Active
 70
     0
 10
0.0
 20
0.0
 11
1.0
 21
1.0
 12
8223.761025238502
 22
6348.534373990247
 13
0.0
 23
0.0
 14
10.0
 24
10.0
 15
10.0
 25
10.0
 16
0.0
 26
0.0
 36
1.0
 17
0.0
 27
0.0
 37
0.0
 40
12805.99765711426
 41
1.525925925925925
 42
50.0
 43
0.0
 44
0.0
 50
0.0
 51
0.0
 71
     0
 72
     0
 73
     1
 74
     0
 75
     0
 76
     0
 77
     0
 78
     0
281
     0
 65
     1
110
0.0
120
0.0
130
0.0
111
1.0
121
0.0
131
0.0
112
0.0
122
1.0
132
0.0
 79
     0
146
0.0
  0
ENDTAB
  0
TABLE
  2
LTYPE
  5
746A
330
0
100
AcDbSymbolTable
 70
     3
  0
LTYPE
  5
7477
330
746A
100
AcDbSymbolTableRecord
100
AcDbLinetypeTableRecord
  2
BYBLOCK
 70
     0
  3

 72
    65
 73
     0
 40
0.0
  0
LTYPE
  5
7478
330
746A
100
AcDbSymbolTableRecord
100
AcDbLinetypeTableRecord
  2
BYLAYER
 70
     0
  3

 72
    65
 73
     0
 40
0.0
  0
LTYPE
  5
7479
330
746A
100
AcDbSymbolTableRecord
100
AcDbLinetypeTableRecord
  2
CONTINUOUS
 70
     0
  3
Solid line
 72
    65
 73
     0
 40
0.0
  0
LTYPE
  5
781A
330
746A
100
AcDbSymbolTableRecord
100
AcDbLinetypeTableRecord
  2
HIDDEN
 70
     0
  3
__ __ __ __ __ __ __ __ __ __ __ __ __ __ __ __
 72
    65
 73
     2
 40
0.375
 49
0.25
 74
     0
 49
-0.125
 74
     0
  0
LTYPE
  5
781B
330
746A
100
AcDbSymbolTableRecord
100
AcDbLinetypeTableRecord
  2
PHANTOM
 70
     0
  3
______  __  __  ______  __  __  ______  __  __ 
 72
    65
 73
     6
 40
2.5
 49
1.25
 74
     0
 49
-0.25
 74
     0
 49
0.25
 74
     0
 49
-0.25
 74
     0
 49
0.25
 74
     0
 49
-0.25
 74
     0
  0
ENDTAB
  0
TABLE
  2
LAYER
  5
7467
102
{ACAD_XDICTIONARY
360
1C640
102
}
330
0
100
AcDbSymbolTable
 70
    10
  0
LAYER
  5
7474
330
7467
100
AcDbSymbolTableRecord
100
AcDbLayerTableRecord
  2
0
 70
     0
 62
     7
  6
CONTINUOUS
370
    -3
390
159AE
  0
LAYER
  5
DEB3
330
7467
100
AcDbSymbolTableRecord
100
AcDbLayerTableRecord
  2
寸法
 70
     0
 62
     4
  6
CONTINUOUS
370
    -3
390
159AE
  0
LAYER
  5
DEB4
330
7467
100
AcDbSymbolTableRecord
100
AcDbLayerTableRecord
  2
部品1
 70
     0
 62
     7
  6
CONTINUOUS
370
    -3
390
159AE
  0
LAYER
  5
DEB5
330
7467
100
AcDbSymbolTableRecord
100
AcDbLayerTableRecord
  2
補助
 70
     0
 62
    -1
  6
CONTINUOUS
370
    -3
390
159AE
  0
LAYER
  5
DEB6
330
7467
100
AcDbSymbolTableRecord
100
AcDbLayerTableRecord
  2
文字
 70
     0
 62
     7
  6
CONTINUOUS
370
    -3
390
159AE
  0
LAYER
  5
F255
330
7467
100
AcDbSymbolTableRecord
100
AcDbLayerTableRecord
  2
DEFPOINTS
 70
     0
 62
     7
  6
CONTINUOUS
290
     0
370
    -3
390
159AE
  0
LAYER
  5
10B54
330
7467
100
AcDbSymbolTableRecord
100
AcDbLayerTableRecord
  2
仕様書枠
 70
     0
 62
   230
  6
CONTINUOUS
370
    -3
390
159AE
  0
LAYER
  5
11729
330
7467
100
AcDbSymbolTableRecord
100
AcDbLayerTableRecord
  2
Ｇ．Ｌ
 70
     0
 62
    30
  6
CONTINUOUS
370
    -3
390
159AE
  0
LAYER
  5
1173F
330
7467
100
AcDbSymbolTableRecord
100
AcDbLayerTableRecord
  2
細線
 70
     0
 62
     5
  6
CONTINUOUS
370
    -3
390
159AE
  0
LAYER
  5
142E2
330
7467
100
AcDbSymbolTableRecord
100
AcDbLayerTableRecord
  2
破線
 70
     0
 62
     2
  6
HIDDEN
370
    -3
390
159AE
  0
ENDTAB
  0
TABLE
  2
STYLE
  5
7468
330
0
100
AcDbSymbolTable
 70
     4
  0
STYLE
  5
7475
330
7468
100
AcDbSymbolTableRecord
100
AcDbTextStyleTableRecord
  2
STANDARD
 70
     0
 40
0.0
 41
1.0
 50
0.0
 71
     0
 42
4.0
  3
txt
  4
C:\AutoCAD LT\bigfont.shx
  0
STYLE
  5
F706
330
7468
100
AcDbSymbolTableRecord
100
AcDbTextStyleTableRecord
  2
STYLE1
 70
     0
 40
0.0
 41
1.0
 50
0.0
 71
     0
 42
100.0
  3
isocp.shx
  4
bigfont.shx
  0
STYLE
  5
103BF
330
7468
100
AcDbSymbolTableRecord
100
AcDbTextStyleTableRecord
  2
STYLE2
 70
     0
 40
0.0
 41
1.0
 50
0.0
 71
     0
 42
100.0
  3
MS PGothic.ttf
  4

1001
ACAD
1000
MS PGothic
1071
    32818
  0
STYLE
  5
243C5
330
7468
100
AcDbSymbolTableRecord
100
AcDbTextStyleTableRecord
  2
STYLE3
 70
     0
 40
0.0
 41
1.0
 50
0.0
 71
     0
 42
100.0
  3

  4

1001
ACAD
1000
DFPGothic-EB
1071
    32818
  0
ENDTAB
  0
TABLE
  2
VIEW
  5
746B
330
0
100
AcDbSymbolTable
 70
     0
  0
ENDTAB
  0
TABLE
  2
UCS
  5
746C
330
0
100
AcDbSymbolTable
 70
     0
  0
ENDTAB
  0
TABLE
  2
APPID
  5
746E
330
0
100
AcDbSymbolTable
 70
     6
  0
APPID
  5
7476
330
746E
100
AcDbSymbolTableRecord
100
AcDbRegAppTableRecord
  2
ACAD
 70
     0
  0
APPID
  5
DEA9
330
746E
100
AcDbSymbolTableRecord
100
AcDbRegAppTableRecord
  2
CONTENTBLOCKICON
 70
     0
  0
APPID
  5
DEAA
330
746E
100
AcDbSymbolTableRecord
100
AcDbRegAppTableRecord
  2
CONTENTBLOCKDESCRIPTION
 70
     0
  0
APPID
  5
E71D
330
746E
100
AcDbSymbolTableRecord
100
AcDbRegAppTableRecord
  2
CONTENTTABDATA
 70
     0
  0
APPID
  5
E71E
330
746E
100
AcDbSymbolTableRecord
100
AcDbRegAppTableRecord
  2
CONTENTCURRENTTAB
 70
     0
  0
APPID
  5
F3BA
330
746E
100
AcDbSymbolTableRecord
100
AcDbRegAppTableRecord
  2
DRAWINGVARIABLESXDATA
 70
     0
  0
ENDTAB
  0
TABLE
  2
DIMSTYLE
  5
746F
330
0
100
AcDbSymbolTable
 70
     2
100
AcDbDimStyleTable
 71
     1
340
F71F
  0
DIMSTYLE
105
F71F
102
{ACAD_REACTORS
330
141C3
330
14206
330
146E8
330
13BF0
330
14521
330
14526
330
1452E
330
14530
330
14531
330
14532
330
14533
330
14587
330
1EBC9
330
1EBD6
330
1EBE3
330
21F83
330
21F82
330
21F81
330
22ECC
330
23B64
330
23B65
330
23B66
330
23B67
330
23B68
330
23B6C
330
23B6F
330
23B70
330
23B71
330
23B9A
330
23BA9
330
23BAA
330
23BAE
102
}
330
746F
100
AcDbSymbolTableRecord
100
AcDbDimStyleTableRecord
  2
INABA_S40G
 70
     0
 40
40.0
 41
2.5
 42
0.5
 43
7.0
 44
1.5
 73
     0
 74
     0
 77
     3
 78
     8
140
3.0
141
0.0
143
0.0394
147
1.0
172
     1
173
     1
174
     1
178
     7
271
     1
288
     1
340
F706
341
F770
343
F770
344
F770
  0
DIMSTYLE
105
243C6
330
746F
100
AcDbSymbolTableRecord
100
AcDbDimStyleTableRecord
  2
INABA_S20G
 70
     0
 40
20.0
 41
2.5
 42
0.5
 43
7.0
 44
1.5
 73
     0
 74
     0
 77
     3
 78
     8
140
3.0
141
0.0
143
0.0394
147
1.0
172
     1
173
     1
174
     1
178
     7
271
     1
340
F706
341
F770
343
F770
344
F770
  0
ENDTAB
  0
TABLE
  2
BLOCK_RECORD
  5
7466
330
0
100
AcDbSymbolTable
 70
    33
  0
BLOCK_RECORD
  5
747D
330
7466
100
AcDbSymbolTableRecord
100
AcDbBlockTableRecord
  2
*MODEL_SPACE
340
159B3
  0
BLOCK_RECORD
  5
747A
330
7466
100
AcDbSymbolTableRecord
100
AcDbBlockTableRecord
  2
*PAPER_SPACE
340
159B4
  0
BLOCK_RECORD
  5
F770
330
7466
100
AcDbSymbolTableRecord
100
AcDbBlockTableRecord
  2
_DOTSMALL
340
0
102
{BLKREFS
331
2423B
331
2423C
331
24244
331
24245
331
2424E
331
2424F
331
24258
331
24259
331
24261
331
24262
331
2426C
331
2426D
331
24275
331
24276
331
2427E
331
2427F
331
24289
331
2428A
331
24293
331
24294
331
2429C
331
2429D
331
242A5
331
242A6
331
242AE
331
242AF
331
242B7
331
242B8
331
242C0
331
242C1
331
242CB
331
242CC
331
242D6
331
242D7
331
242DF
331
242E0
331
242E8
331
242E9
331
242F1
331
242F2
331
24303
331
24304
331
2430C
331
2430D
331
24315
331
24316
331
24320
331
24321
331
24332
331
24333
331
2433B
331
2433C
331
24346
331
24347
331
24351
331
24352
331
2435A
331
2435B
331
24365
331
24366
331
24382
331
24383
331
243A2
331
243A3
102
}
  0
BLOCK_RECORD
  5
13DA8
330
7466
100
AcDbSymbolTableRecord
100
AcDbBlockTableRecord
  2
*D1
340
0
  0
BLOCK_RECORD
  5
141B5
330
7466
100
AcDbSymbolTableRecord
100
AcDbBlockTableRecord
  2
*D2
340
0
  0
BLOCK_RECORD
  5
141F9
330
7466
100
AcDbSymbolTableRecord
100
AcDbBlockTableRecord
  2
*D3
340
0
  0
BLOCK_RECORD
  5
1458A
330
7466
100
AcDbSymbolTableRecord
100
AcDbBlockTableRecord
  2
*D4
340
0
  0
BLOCK_RECORD
  5
14598
330
7466
100
AcDbSymbolTableRecord
100
AcDbBlockTableRecord
  2
*D5
340
0
  0
BLOCK_RECORD
  5
145A4
330
7466
100
AcDbSymbolTableRecord
100
AcDbBlockTableRecord
  2
*D6
340
0
  0
BLOCK_RECORD
  5
145BE
330
7466
100
AcDbSymbolTableRecord
100
AcDbBlockTableRecord
  2
*D7
340
0
  0
BLOCK_RECORD
  5
145CC
330
7466
100
AcDbSymbolTableRecord
100
AcDbBlockTableRecord
  2
*D8
340
0
  0
BLOCK_RECORD
  5
145D8
330
7466
100
AcDbSymbolTableRecord
100
AcDbBlockTableRecord
  2
*D9
340
0
  0
BLOCK_RECORD
  5
145E4
330
7466
100
AcDbSymbolTableRecord
100
AcDbBlockTableRecord
  2
*D10
340
0
  0
BLOCK_RECORD
  5
14608
330
7466
100
AcDbSymbolTableRecord
100
AcDbBlockTableRecord
  2
*D11
340
0
  0
BLOCK_RECORD
  5
146DC
330
7466
100
AcDbSymbolTableRecord
100
AcDbBlockTableRecord
  2
*D12
340
0
  0
BLOCK_RECORD
  5
1EBCA
330
7466
100
AcDbSymbolTableRecord
100
AcDbBlockTableRecord
  2
*D13
340
0
  0
BLOCK_RECORD
  5
1EBD7
330
7466
100
AcDbSymbolTableRecord
100
AcDbBlockTableRecord
  2
*D14
340
0
  0
BLOCK_RECORD
  5
1EBE4
330
7466
100
AcDbSymbolTableRecord
100
AcDbBlockTableRecord
  2
*D15
340
0
  0
BLOCK_RECORD
  5
21F96
330
7466
100
AcDbSymbolTableRecord
100
AcDbBlockTableRecord
  2
*D16
340
0
  0
BLOCK_RECORD
  5
21FA2
330
7466
100
AcDbSymbolTableRecord
100
AcDbBlockTableRecord
  2
*D17
340
0
  0
BLOCK_RECORD
  5
21FAE
330
7466
100
AcDbSymbolTableRecord
100
AcDbBlockTableRecord
  2
*D18
340
0
  0
BLOCK_RECORD
  5
22ECD
330
7466
100
AcDbSymbolTableRecord
100
AcDbBlockTableRecord
  2
*D19
340
0
  0
BLOCK_RECORD
  5
23E00
330
7466
100
AcDbSymbolTableRecord
100
AcDbBlockTableRecord
  2
*D20
340
0
  0
BLOCK_RECORD
  5
23E0C
330
7466
100
AcDbSymbolTableRecord
100
AcDbBlockTableRecord
  2
*D21
340
0
  0
BLOCK_RECORD
  5
23E18
330
7466
100
AcDbSymbolTableRecord
100
AcDbBlockTableRecord
  2
*D22
340
0
  0
BLOCK_RECORD
  5
23E24
330
7466
100
AcDbSymbolTableRecord
100
AcDbBlockTableRecord
  2
*D23
340
0
  0
BLOCK_RECORD
  5
23E31
330
7466
100
AcDbSymbolTableRecord
100
AcDbBlockTableRecord
  2
*D24
340
0
  0
BLOCK_RECORD
  5
23E3F
330
7466
100
AcDbSymbolTableRecord
100
AcDbBlockTableRecord
  2
*D25
340
0
  0
BLOCK_RECORD
  5
23E4B
330
7466
100
AcDbSymbolTableRecord
100
AcDbBlockTableRecord
  2
*D26
340
0
  0
BLOCK_RECORD
  5
23E57
330
7466
100
AcDbSymbolTableRecord
100
AcDbBlockTableRecord
  2
*D27
340
0
  0
BLOCK_RECORD
  5
23E65
330
7466
100
AcDbSymbolTableRecord
100
AcDbBlockTableRecord
  2
*D28
340
0
  0
BLOCK_RECORD
  5
23E71
330
7466
100
AcDbSymbolTableRecord
100
AcDbBlockTableRecord
  2
*D29
340
0
  0
BLOCK_RECORD
  5
23E7E
330
7466
100
AcDbSymbolTableRecord
100
AcDbBlockTableRecord
  2
*D30
340
0
  0
BLOCK_RECORD
  5
23E8B
330
7466
100
AcDbSymbolTableRecord
100
AcDbBlockTableRecord
  2
*D31
340
0
  0
BLOCK_RECORD
  5
23E97
330
7466
100
AcDbSymbolTableRecord
100
AcDbBlockTableRecord
  2
*D32
340
0
  0
ENDTAB
  0
ENDSEC
  0
SECTION
  2
BLOCKS
  0
BLOCK
  5
7489
330
747D
100
AcDbEntity
  8
0
100
AcDbBlockBegin
  2
*MODEL_SPACE
 70
     0
 10
0.0
 20
0.0
 30
0.0
  3
*MODEL_SPACE
  1

  0
ENDBLK
  5
748A
330
747D
100
AcDbEntity
  8
0
100
AcDbBlockEnd
  0
BLOCK
  5
7487
330
747A
100
AcDbEntity
 67
     1
  8
0
100
AcDbBlockBegin
  2
*PAPER_SPACE
 70
     0
 10
0.0
 20
0.0
 30
0.0
  3
*PAPER_SPACE
  1

  0
ENDBLK
  5
7488
330
747A
100
AcDbEntity
 67
     1
  8
0
100
AcDbBlockEnd
  0
BLOCK
  5
F771
330
F770
100
AcDbEntity
  8
0
 48
50.0
100
AcDbBlockBegin
  2
_DOTSMALL
 70
     0
 10
0.0
 20
0.0
 30
0.0
  3
_DOTSMALL
  1

  0
LWPOLYLINE
  5
F772
330
F770
100
AcDbEntity
  8
0
  6
ByBlock
 62
     0
 48
50.0
100
AcDbPolyline
 90
        2
 70
     1
 43
0.5
 10
-0.0625
 20
0.0
 42
1.0
 10
0.0625
 20
0.0
 42
1.0
  0
ENDBLK
  5
F776
330
F770
100
AcDbEntity
  8
0
 48
50.0
100
AcDbBlockEnd
  0
BLOCK
  5
14A98
330
13DA8
100
AcDbEntity
  8
0
 48
50.0
100
AcDbBlockBegin
  2
*D1
 70
     1
 10
0.0
 20
0.0
 30
0.0
  3
*D1
  1

  0
LINE
  5
242DC
330
13DA8
100
AcDbEntity
  8
寸法
 62
     0
 48
50.0
370
    -2
100
AcDbLine
 10
5579.896575106992
 20
4660.370545170668
 30
0.0
 11
5579.896575106992
 21
5113.034566750597
 31
0.0
  0
LINE
  5
242DD
330
13DA8
100
AcDbEntity
  8
寸法
 62
     0
 48
50.0
370
    -2
100
AcDbLine
 10
7209.896575106991
 20
4660.370545170667
 30
0.0
 11
7209.896575106991
 21
5113.034566750597
 31
0.0
  0
LINE
  5
242DE
330
13DA8
100
AcDbEntity
  8
寸法
 62
     0
 48
50.0
370
    -2
100
AcDbLine
 10
5579.896575106992
 20
5053.034566750596
 30
0.0
 11
7209.896575106991
 21
5053.034566750596
 31
0.0
  0
INSERT
  5
242DF
330
13DA8
100
AcDbEntity
  8
寸法
 62
     0
 48
50.0
370
    -2
100
AcDbBlockReference
  2
_DOTSMALL
 10
5579.896575106992
 20
5053.034566750596
 30
0.0
 41
100.0
 42
100.0
 43
100.0
 50
180.0
  0
INSERT
  5
242E0
330
13DA8
100
AcDbEntity
  8
寸法
 62
     0
 48
50.0
370
    -2
100
AcDbBlockReference
  2
_DOTSMALL
 10
7209.896575106991
 20
5053.034566750596
 30
0.0
 41
100.0
 42
100.0
 43
100.0
  0
MTEXT
  5
242E1
330
13DA8
100
AcDbEntity
  8
寸法
 62
     7
 48
50.0
100
AcDbMText
 10
6398.236415372987
 20
5153.034566750597
 30
0.0
 40
120.0
 41
0.0
 71
     5
 72
     1
  1
\A1;1630
  7
STYLE1
 73
     1
 44
1.0
1001
ACAD
1000
MTEXTBEGIN
1070
    73
1070
     1
1070
    44
1040
1.0
1070
    74
1070
     0
1000
MTEXTEND
  0
POINT
  5
242E2
330
13DA8
100
AcDbEntity
  8
DEFPOINTS
 62
     0
 48
50.0
100
AcDbPoint
 10
5579.896575106992
 20
4640.370545170668
 30
0.0
  0
POINT
  5
242E3
330
13DA8
100
AcDbEntity
  8
DEFPOINTS
 62
     0
 48
50.0
100
AcDbPoint
 10
7209.896575106991
 20
4640.370545170667
 30
0.0
  0
POINT
  5
242E4
330
13DA8
100
AcDbEntity
  8
DEFPOINTS
 62
     0
 48
50.0
100
AcDbPoint
 10
7209.896575106991
 20
5053.034566750596
 30
0.0
  0
ENDBLK
  5
14AA2
330
13DA8
100
AcDbEntity
  8
0
 48
50.0
100
AcDbBlockEnd
  0
BLOCK
  5
14A8A
330
141B5
100
AcDbEntity
  8
0
 48
50.0
100
AcDbBlockBegin
  2
*D2
 70
     1
 10
0.0
 20
0.0
 30
0.0
  3
*D2
  1

  0
LINE
  5
242D1
330
141B5
100
AcDbEntity
  8
寸法
 62
     0
 48
50.0
370
    -2
100
AcDbLine
 10
7209.896575106991
 20
4660.370545170667
 30
0.0
 11
7209.896575106991
 21
4904.990804597937
 31
0.0
  0
LINE
  5
242D2
330
141B5
100
AcDbEntity
  8
寸法
 62
     0
 48
50.0
370
    -2
100
AcDbLine
 10
7159.896575106992
 20
4660.37054517067
 30
0.0
 11
7159.896575106992
 21
4904.990804597937
 31
0.0
  0
LINE
  5
242D3
330
141B5
100
AcDbEntity
  8
寸法
 62
     0
 48
50.0
370
    -2
100
AcDbLine
 10
7159.896575106992
 20
4844.990804597937
 30
0.0
 11
7059.896575106993
 21
4844.990804597937
 31
0.0
  0
LINE
  5
242D4
330
141B5
100
AcDbEntity
  8
寸法
 62
     0
 48
50.0
370
    -2
100
AcDbLine
 10
7209.896575106991
 20
4844.990804597937
 30
0.0
 11
7629.429100575717
 21
4844.990804597937
 31
0.0
  0
LINE
  5
242D5
330
141B5
100
AcDbEntity
  8
寸法
 62
     0
 48
50.0
370
    -2
100
AcDbLine
 10
7159.896575106992
 20
4844.990804597937
 30
0.0
 11
7209.896575106991
 21
4844.990804597937
 31
0.0
  0
INSERT
  5
242D6
330
141B5
100
AcDbEntity
  8
寸法
 62
     0
 48
50.0
370
    -2
100
AcDbBlockReference
  2
_DOTSMALL
 10
7159.896575106992
 20
4844.990804597937
 30
0.0
 41
100.0
 42
100.0
 43
100.0
  0
INSERT
  5
242D7
330
141B5
100
AcDbEntity
  8
寸法
 62
     0
 48
50.0
370
    -2
100
AcDbBlockReference
  2
_DOTSMALL
 10
7209.896575106991
 20
4844.990804597937
 30
0.0
 41
100.0
 42
100.0
 43
100.0
 50
180.0
  0
MTEXT
  5
242D8
330
141B5
100
AcDbEntity
  8
寸法
 62
     7
 48
50.0
100
AcDbMText
 10
7523.381856481229
 20
4944.990804597938
 30
0.0
 40
120.0
 41
0.0
 71
     5
 72
     1
  1
\A1;50
  7
STYLE1
 73
     1
 44
1.0
1001
ACAD
1000
MTEXTBEGIN
1070
    73
1070
     1
1070
    44
1040
1.0
1070
    74
1070
     0
1000
MTEXTEND
  0
POINT
  5
242D9
330
141B5
100
AcDbEntity
  8
DEFPOINTS
 62
     0
 48
50.0
100
AcDbPoint
 10
7209.896575106991
 20
4640.370545170667
 30
0.0
  0
POINT
  5
242DA
330
141B5
100
AcDbEntity
  8
DEFPOINTS
 62
     0
 48
50.0
100
AcDbPoint
 10
7159.896575106992
 20
4640.37054517067
 30
0.0
  0
POINT
  5
242DB
330
141B5
100
AcDbEntity
  8
DEFPOINTS
 62
     0
 48
50.0
100
AcDbPoint
 10
7159.896575106992
 20
4844.990804597937
 30
0.0
  0
ENDBLK
  5
14A96
330
141B5
100
AcDbEntity
  8
0
 48
50.0
100
AcDbBlockEnd
  0
BLOCK
  5
14A7D
330
141F9
100
AcDbEntity
  8
0
 48
50.0
100
AcDbBlockBegin
  2
*D3
 70
     1
 10
0.0
 20
0.0
 30
0.0
  3
*D3
  1

  0
LINE
  5
242C6
330
141F9
100
AcDbEntity
  8
寸法
 62
     0
 48
50.0
370
    -2
100
AcDbLine
 10
5629.896575106992
 20
4660.370545170669
 30
0.0
 11
5629.896575106992
 21
4904.990804597936
 31
0.0
  0
LINE
  5
242C7
330
141F9
100
AcDbEntity
  8
寸法
 62
     0
 48
50.0
370
    -2
100
AcDbLine
 10
5579.896575106992
 20
4660.370545170668
 30
0.0
 11
5579.896575106992
 21
4904.990804597936
 31
0.0
  0
LINE
  5
242C8
330
141F9
100
AcDbEntity
  8
寸法
 62
     0
 48
50.0
370
    -2
100
AcDbLine
 10
5629.896575106992
 20
4844.990804597935
 30
0.0
 11
5729.896575106992
 21
4844.990804597935
 31
0.0
  0
LINE
  5
242C9
330
141F9
100
AcDbEntity
  8
寸法
 62
     0
 48
50.0
370
    -2
100
AcDbLine
 10
5579.896575106992
 20
4844.990804597935
 30
0.0
 11
5160.364049638259
 21
4844.990804597935
 31
0.0
  0
LINE
  5
242CA
330
141F9
100
AcDbEntity
  8
寸法
 62
     0
 48
50.0
370
    -2
100
AcDbLine
 10
5629.896575106992
 20
4844.990804597935
 30
0.0
 11
5579.896575106992
 21
4844.990804597935
 31
0.0
  0
INSERT
  5
242CB
330
141F9
100
AcDbEntity
  8
寸法
 62
     0
 48
50.0
370
    -2
100
AcDbBlockReference
  2
_DOTSMALL
 10
5629.896575106992
 20
4844.990804597935
 30
0.0
 41
100.0
 42
100.0
 43
100.0
 50
180.0
  0
INSERT
  5
242CC
330
141F9
100
AcDbEntity
  8
寸法
 62
     0
 48
50.0
370
    -2
100
AcDbBlockReference
  2
_DOTSMALL
 10
5579.896575106992
 20
4844.990804597935
 30
0.0
 41
100.0
 42
100.0
 43
100.0
  0
MTEXT
  5
242CD
330
141F9
100
AcDbEntity
  8
寸法
 62
     7
 48
50.0
100
AcDbMText
 10
5266.411293732747
 20
4944.990804597935
 30
0.0
 40
120.0
 41
0.0
 71
     5
 72
     1
  1
\A1;50
  7
STYLE1
 73
     1
 44
1.0
1001
ACAD
1000
MTEXTBEGIN
1070
    73
1070
     1
1070
    44
1040
1.0
1070
    74
1070
     0
1000
MTEXTEND
  0
POINT
  5
242CE
330
141F9
100
AcDbEntity
  8
DEFPOINTS
 62
     0
 48
50.0
100
AcDbPoint
 10
5629.896575106992
 20
4640.370545170669
 30
0.0
  0
POINT
  5
242CF
330
141F9
100
AcDbEntity
  8
DEFPOINTS
 62
     0
 48
50.0
100
AcDbPoint
 10
5579.896575106992
 20
4640.370545170668
 30
0.0
  0
POINT
  5
242D0
330
141F9
100
AcDbEntity
  8
DEFPOINTS
 62
     0
 48
50.0
100
AcDbPoint
 10
5579.896575106992
 20
4844.990804597935
 30
0.0
  0
ENDBLK
  5
14A89
330
141F9
100
AcDbEntity
  8
0
 48
50.0
100
AcDbBlockEnd
  0
BLOCK
  5
148C8
330
1458A
100
AcDbEntity
  8
0
 48
50.0
100
AcDbBlockBegin
  2
*D4
 70
     1
 10
0.0
 20
0.0
 30
0.0
  3
*D4
  1

  0
LINE
  5
24360
330
1458A
100
AcDbEntity
  8
寸法
 62
     0
 48
50.0
370
    -2
100
AcDbLine
 10
5629.896575106954
 20
9856.529129654751
 30
0.0
 11
5629.896575106954
 21
10320.50542065647
 31
0.0
  0
LINE
  5
24361
330
1458A
100
AcDbEntity
  8
寸法
 62
     0
 48
50.0
370
    -2
100
AcDbLine
 10
5684.896575106989
 20
9856.529129654751
 30
0.0
 11
5684.896575106989
 21
10320.50542065647
 31
0.0
  0
LINE
  5
24362
330
1458A
100
AcDbEntity
  8
寸法
 62
     0
 48
50.0
370
    -2
100
AcDbLine
 10
5684.896575106989
 20
10260.50542065647
 30
0.0
 11
5784.896575106989
 21
10260.50542065647
 31
0.0
  0
LINE
  5
24363
330
1458A
100
AcDbEntity
  8
寸法
 62
     0
 48
50.0
370
    -2
100
AcDbLine
 10
5629.896575106954
 20
10260.50542065647
 30
0.0
 11
5212.926012358443
 21
10260.50542065647
 31
0.0
  0
LINE
  5
24364
330
1458A
100
AcDbEntity
  8
寸法
 62
     0
 48
50.0
370
    -2
100
AcDbLine
 10
5684.896575106989
 20
10260.50542065647
 30
0.0
 11
5629.896575106954
 21
10260.50542065647
 31
0.0
  0
INSERT
  5
24365
330
1458A
100
AcDbEntity
  8
寸法
 62
     0
 48
50.0
370
    -2
100
AcDbBlockReference
  2
_DOTSMALL
 10
5684.896575106989
 20
10260.50542065647
 30
0.0
 41
100.0
 42
100.0
 43
100.0
 50
180.0
  0
INSERT
  5
24366
330
1458A
100
AcDbEntity
  8
寸法
 62
     0
 48
50.0
370
    -2
100
AcDbBlockReference
  2
_DOTSMALL
 10
5629.896575106954
 20
10260.50542065647
 30
0.0
 41
100.0
 42
100.0
 43
100.0
  0
MTEXT
  5
24367
330
1458A
100
AcDbEntity
  8
寸法
 62
     7
 48
50.0
100
AcDbMText
 10
5321.411293732682
 20
10360.50542065647
 30
0.0
 40
120.0
 41
0.0
 71
     5
 72
     1
  1
\A1;55
  7
STYLE1
 73
     1
 44
1.0
1001
ACAD
1000
MTEXTBEGIN
1070
    73
1070
     1
1070
    44
1040
1.0
1070
    74
1070
     0
1000
MTEXTEND
  0
POINT
  5
24368
330
1458A
100
AcDbEntity
  8
DEFPOINTS
 62
     0
 48
50.0
100
AcDbPoint
 10
5629.896575106954
 20
9836.529129654749
 30
0.0
  0
POINT
  5
24369
330
1458A
100
AcDbEntity
  8
DEFPOINTS
 62
     0
 48
50.0
100
AcDbPoint
 10
5684.896575106989
 20
9836.529129654749
 30
0.0
  0
POINT
  5
2436A
330
1458A
100
AcDbEntity
  8
DEFPOINTS
 62
     0
 48
50.0
100
AcDbPoint
 10
5684.896575106989
 20
10260.50542065647
 30
0.0
  0
ENDBLK
  5
148D4
330
1458A
100
AcDbEntity
  8
0
 48
50.0
100
AcDbBlockEnd
  0
BLOCK
  5
14D6F
330
14598
100
AcDbEntity
  8
0
 48
50.0
100
AcDbBlockBegin
  2
*D5
 70
     1
 10
0.0
 20
0.0
 30
0.0
  3
*D5
  1

  0
LINE
  5
24357
330
14598
100
AcDbEntity
  8
寸法
 62
     0
 48
50.0
370
    -2
100
AcDbLine
 10
7179.89657510705
 20
9836.529129654829
 30
0.0
 11
8149.906663425472
 21
9836.529129654829
 31
0.0
  0
LINE
  5
24358
330
14598
100
AcDbEntity
  8
寸法
 62
     0
 48
50.0
370
    -2
100
AcDbLine
 10
7179.896575106991
 20
7206.529129654829
 30
0.0
 11
8149.906663425472
 21
7206.529129654829
 31
0.0
  0
LINE
  5
24359
330
14598
100
AcDbEntity
  8
寸法
 62
     0
 48
50.0
370
    -2
100
AcDbLine
 10
8089.906663425471
 20
9836.529129654829
 30
0.0
 11
8089.906663425471
 21
7206.529129654829
 31
0.0
  0
INSERT
  5
2435A
330
14598
100
AcDbEntity
  8
寸法
 62
     0
 48
50.0
370
    -2
100
AcDbBlockReference
  2
_DOTSMALL
 10
8089.906663425471
 20
9836.529129654829
 30
0.0
 41
100.0
 42
100.0
 43
100.0
 50
90.0
  0
INSERT
  5
2435B
330
14598
100
AcDbEntity
  8
寸法
 62
     0
 48
50.0
370
    -2
100
AcDbBlockReference
  2
_DOTSMALL
 10
8089.906663425471
 20
7206.529129654829
 30
0.0
 41
100.0
 42
100.0
 43
100.0
 50
270.0
  0
MTEXT
  5
2435C
330
14598
100
AcDbEntity
  8
寸法
 62
     7
 48
50.0
100
AcDbMText
 10
7989.89485240185
 20
8502.406989406184
 30
0.0
 40
120.0
 41
0.0
 71
     5
 72
     1
  1
\A1;2630
  7
STYLE1
 11
0.0000000000000001
 21
1.0
 31
0.0
 73
     1
 44
1.0
1001
ACAD
1000
MTEXTBEGIN
1070
    73
1070
     1
1070
    44
1040
1.0
1070
    74
1070
     0
1000
MTEXTEND
  0
POINT
  5
2435D
330
14598
100
AcDbEntity
  8
DEFPOINTS
 62
     0
 48
50.0
100
AcDbPoint
 10
7159.896575107049
 20
9836.529129654829
 30
0.0
  0
POINT
  5
2435E
330
14598
100
AcDbEntity
  8
DEFPOINTS
 62
     0
 48
50.0
100
AcDbPoint
 10
7159.896575106991
 20
7206.529129654829
 30
0.0
  0
POINT
  5
2435F
330
14598
100
AcDbEntity
  8
DEFPOINTS
 62
     0
 48
50.0
100
AcDbPoint
 10
8089.906663425471
 20
7206.529129654829
 30
0.0
  0
ENDBLK
  5
14D79
330
14598
100
AcDbEntity
  8
0
 48
50.0
100
AcDbBlockEnd
  0
BLOCK
  5
1492F
330
145A4
100
AcDbEntity
  8
0
 48
50.0
100
AcDbBlockBegin
  2
*D6
 70
     1
 10
0.0
 20
0.0
 30
0.0
  3
*D6
  1

  0
LINE
  5
2434C
330
145A4
100
AcDbEntity
  8
寸法
 62
     0
 48
50.0
370
    -2
100
AcDbLine
 10
7179.896575107008
 20
9836.529129654843
 30
0.0
 11
7867.322920841418
 21
9836.529129654843
 31
0.0
  0
LINE
  5
2434D
330
145A4
100
AcDbEntity
  8
寸法
 62
     0
 48
50.0
370
    -2
100
AcDbLine
 10
7179.896575107008
 20
9781.529129654849
 30
0.0
 11
7867.322920841418
 21
9781.529129654849
 31
0.0
  0
LINE
  5
2434E
330
145A4
100
AcDbEntity
  8
寸法
 62
     0
 48
50.0
370
    -2
100
AcDbLine
 10
7807.322920841419
 20
9781.529129654849
 30
0.0
 11
7807.322920841419
 21
9681.529129654848
 31
0.0
  0
LINE
  5
2434F
330
145A4
100
AcDbEntity
  8
寸法
 62
     0
 48
50.0
370
    -2
100
AcDbLine
 10
7807.322920841419
 20
9836.529129654843
 30
0.0
 11
7807.322920841419
 21
10253.49969240332
 31
0.0
  0
LINE
  5
24350
330
145A4
100
AcDbEntity
  8
寸法
 62
     0
 48
50.0
370
    -2
100
AcDbLine
 10
7807.322920841419
 20
9781.529129654849
 30
0.0
 11
7807.322920841419
 21
9836.529129654843
 31
0.0
  0
INSERT
  5
24351
330
145A4
100
AcDbEntity
  8
寸法
 62
     0
 48
50.0
370
    -2
100
AcDbBlockReference
  2
_DOTSMALL
 10
7807.322920841419
 20
9781.529129654849
 30
0.0
 41
100.0
 42
100.0
 43
100.0
 50
90.0
  0
INSERT
  5
24352
330
145A4
100
AcDbEntity
  8
寸法
 62
     0
 48
50.0
370
    -2
100
AcDbBlockReference
  2
_DOTSMALL
 10
7807.322920841419
 20
9836.529129654843
 30
0.0
 41
100.0
 42
100.0
 43
100.0
 50
270.0
  0
MTEXT
  5
24353
330
145A4
100
AcDbEntity
  8
寸法
 62
     7
 48
50.0
100
AcDbMText
 10
7707.322920841417
 20
10145.01441102908
 30
0.0
 40
120.0
 41
0.0
 71
     5
 72
     1
  1
\A1;55
  7
STYLE1
 11
0.0000000000000001
 21
1.0
 31
0.0
 73
     1
 44
1.0
1001
ACAD
1000
MTEXTBEGIN
1070
    73
1070
     1
1070
    44
1040
1.0
1070
    74
1070
     0
1000
MTEXTEND
  0
POINT
  5
24354
330
145A4
100
AcDbEntity
  8
DEFPOINTS
 62
     0
 48
50.0
100
AcDbPoint
 10
7159.896575107008
 20
9836.529129654843
 30
0.0
  0
POINT
  5
24355
330
145A4
100
AcDbEntity
  8
DEFPOINTS
 62
     0
 48
50.0
100
AcDbPoint
 10
7159.896575107008
 20
9781.529129654849
 30
0.0
  0
POINT
  5
24356
330
145A4
100
AcDbEntity
  8
DEFPOINTS
 62
     0
 48
50.0
100
AcDbPoint
 10
7807.322920841419
 20
9781.529129654849
 30
0.0
  0
ENDBLK
  5
1493B
330
145A4
100
AcDbEntity
  8
0
 48
50.0
100
AcDbBlockEnd
  0
BLOCK
  5
1496A
330
145BE
100
AcDbEntity
  8
0
 48
50.0
100
AcDbBlockBegin
  2
*D7
 70
     1
 10
0.0
 20
0.0
 30
0.0
  3
*D7
  1

  0
LINE
  5
24341
330
145BE
100
AcDbEntity
  8
寸法
 62
     0
 48
50.0
370
    -2
100
AcDbLine
 10
7179.896575106991
 20
7261.529129654826
 30
0.0
 11
7867.322920841402
 21
7261.529129654826
 31
0.0
  0
LINE
  5
24342
330
145BE
100
AcDbEntity
  8
寸法
 62
     0
 48
50.0
370
    -2
100
AcDbLine
 10
7179.896575106991
 20
7206.529129654829
 30
0.0
 11
7867.322920841402
 21
7206.529129654829
 31
0.0
  0
LINE
  5
24343
330
145BE
100
AcDbEntity
  8
寸法
 62
     0
 48
50.0
370
    -2
100
AcDbLine
 10
7807.322920841402
 20
7261.529129654826
 30
0.0
 11
7807.322920841402
 21
7361.529129654826
 31
0.0
  0
LINE
  5
24344
330
145BE
100
AcDbEntity
  8
寸法
 62
     0
 48
50.0
370
    -2
100
AcDbLine
 10
7807.322920841402
 20
7206.529129654829
 30
0.0
 11
7807.322920841402
 21
6720.182381375728
 31
0.0
  0
LINE
  5
24345
330
145BE
100
AcDbEntity
  8
寸法
 62
     0
 48
50.0
370
    -2
100
AcDbLine
 10
7807.322920841402
 20
7261.529129654826
 30
0.0
 11
7807.322920841402
 21
7206.529129654829
 31
0.0
  0
INSERT
  5
24346
330
145BE
100
AcDbEntity
  8
寸法
 62
     0
 48
50.0
370
    -2
100
AcDbBlockReference
  2
_DOTSMALL
 10
7807.322920841402
 20
7261.529129654826
 30
0.0
 41
100.0
 42
100.0
 43
100.0
 50
270.0
  0
INSERT
  5
24347
330
145BE
100
AcDbEntity
  8
寸法
 62
     0
 48
50.0
370
    -2
100
AcDbBlockReference
  2
_DOTSMALL
 10
7807.322920841402
 20
7206.529129654829
 30
0.0
 41
100.0
 42
100.0
 43
100.0
 50
90.0
  0
MTEXT
  5
24348
330
145BE
100
AcDbEntity
  8
寸法
 62
     7
 48
50.0
100
AcDbMText
 10
7707.3229208414
 20
6828.667662749968
 30
0.0
 40
120.0
 41
0.0
 71
     5
 72
     1
  1
\A1;55
  7
STYLE1
 11
0.0000000000000001
 21
1.0
 31
0.0
 73
     1
 44
1.0
1001
ACAD
1000
MTEXTBEGIN
1070
    73
1070
     1
1070
    44
1040
1.0
1070
    74
1070
     0
1000
MTEXTEND
  0
POINT
  5
24349
330
145BE
100
AcDbEntity
  8
DEFPOINTS
 62
     0
 48
50.0
100
AcDbPoint
 10
7159.896575106991
 20
7261.529129654826
 30
0.0
  0
POINT
  5
2434A
330
145BE
100
AcDbEntity
  8
DEFPOINTS
 62
     0
 48
50.0
100
AcDbPoint
 10
7159.896575106991
 20
7206.529129654829
 30
0.0
  0
POINT
  5
2434B
330
145BE
100
AcDbEntity
  8
DEFPOINTS
 62
     0
 48
50.0
100
AcDbPoint
 10
7807.322920841402
 20
7206.529129654829
 30
0.0
  0
ENDBLK
  5
14976
330
145BE
100
AcDbEntity
  8
0
 48
50.0
100
AcDbBlockEnd
  0
BLOCK
  5
14D4C
330
145CC
100
AcDbEntity
  8
0
 48
50.0
100
AcDbBlockBegin
  2
*D8
 70
     1
 10
0.0
 20
0.0
 30
0.0
  3
*D8
  1

  0
LINE
  5
24338
330
145CC
100
AcDbEntity
  8
寸法
 62
     0
 48
50.0
370
    -2
100
AcDbLine
 10
7179.896575107048
 20
9781.529129654849
 30
0.0
 11
7867.322920841402
 21
9781.529129654849
 31
0.0
  0
LINE
  5
24339
330
145CC
100
AcDbEntity
  8
寸法
 62
     0
 48
50.0
370
    -2
100
AcDbLine
 10
7179.896575106991
 20
7261.529129654826
 30
0.0
 11
7867.322920841402
 21
7261.529129654826
 31
0.0
  0
LINE
  5
2433A
330
145CC
100
AcDbEntity
  8
寸法
 62
     0
 48
50.0
370
    -2
100
AcDbLine
 10
7807.322920841402
 20
9781.529129654849
 30
0.0
 11
7807.322920841402
 21
7261.529129654826
 31
0.0
  0
INSERT
  5
2433B
330
145CC
100
AcDbEntity
  8
寸法
 62
     0
 48
50.0
370
    -2
100
AcDbBlockReference
  2
_DOTSMALL
 10
7807.322920841402
 20
9781.529129654849
 30
0.0
 41
100.0
 42
100.0
 43
100.0
 50
90.0
  0
INSERT
  5
2433C
330
145CC
100
AcDbEntity
  8
寸法
 62
     0
 48
50.0
370
    -2
100
AcDbBlockReference
  2
_DOTSMALL
 10
7807.322920841402
 20
7261.529129654826
 30
0.0
 41
100.0
 42
100.0
 43
100.0
 50
270.0
  0
MTEXT
  5
2433D
330
145CC
100
AcDbEntity
  8
寸法
 62
     7
 48
50.0
100
AcDbMText
 10
7707.31110981778
 20
8488.849300312082
 30
0.0
 40
120.0
 41
0.0
 71
     5
 72
     1
  1
\A1;6X420=2520
  7
STYLE1
 11
0.0000000000000001
 21
1.0
 31
0.0
 73
     1
 44
1.0
1001
ACAD
1000
MTEXTBEGIN
1070
    73
1070
     1
1070
    44
1040
1.0
1070
    74
1070
     0
1000
MTEXTEND
  0
POINT
  5
2433E
330
145CC
100
AcDbEntity
  8
DEFPOINTS
 62
     0
 48
50.0
100
AcDbPoint
 10
7159.896575107048
 20
9781.529129654849
 30
0.0
  0
POINT
  5
2433F
330
145CC
100
AcDbEntity
  8
DEFPOINTS
 62
     0
 48
50.0
100
AcDbPoint
 10
7159.896575106991
 20
7261.529129654826
 30
0.0
  0
POINT
  5
24340
330
145CC
100
AcDbEntity
  8
DEFPOINTS
 62
     0
 48
50.0
100
AcDbPoint
 10
7807.322920841402
 20
7261.529129654826
 30
0.0
  0
ENDBLK
  5
14D56
330
145CC
100
AcDbEntity
  8
0
 48
50.0
100
AcDbBlockEnd
  0
BLOCK
  5
14954
330
145D8
100
AcDbEntity
  8
0
 48
50.0
100
AcDbBlockBegin
  2
*D9
 70
     1
 10
0.0
 20
0.0
 30
0.0
  3
*D9
  1

  0
LINE
  5
2432F
330
145D8
100
AcDbEntity
  8
寸法
 62
     0
 48
50.0
370
    -2
100
AcDbLine
 10
5629.89657510699
 20
7186.529129654665
 30
0.0
 11
5629.89657510699
 21
6351.750743086864
 31
0.0
  0
LINE
  5
24330
330
145D8
100
AcDbEntity
  8
寸法
 62
     0
 48
50.0
370
    -2
100
AcDbLine
 10
7159.896575106991
 20
7186.529129654829
 30
0.0
 11
7159.896575106991
 21
6351.750743086864
 31
0.0
  0
LINE
  5
24331
330
145D8
100
AcDbEntity
  8
寸法
 62
     0
 48
50.0
370
    -2
100
AcDbLine
 10
5629.89657510699
 20
6411.750743086864
 30
0.0
 11
7159.896575106991
 21
6411.750743086864
 31
0.0
  0
INSERT
  5
24332
330
145D8
100
AcDbEntity
  8
寸法
 62
     0
 48
50.0
370
    -2
100
AcDbBlockReference
  2
_DOTSMALL
 10
5629.89657510699
 20
6411.750743086864
 30
0.0
 41
100.0
 42
100.0
 43
100.0
 50
180.0
  0
INSERT
  5
24333
330
145D8
100
AcDbEntity
  8
寸法
 62
     0
 48
50.0
370
    -2
100
AcDbBlockReference
  2
_DOTSMALL
 10
7159.896575106991
 20
6411.750743086864
 30
0.0
 41
100.0
 42
100.0
 43
100.0
  0
MTEXT
  5
24334
330
145D8
100
AcDbEntity
  8
寸法
 62
     7
 48
50.0
100
AcDbMText
 10
6414.367781762833
 20
6511.750743086864
 30
0.0
 40
120.0
 41
0.0
 71
     5
 72
     1
  1
\A1;1530
  7
STYLE1
 73
     1
 44
1.0
1001
ACAD
1000
MTEXTBEGIN
1070
    73
1070
     1
1070
    44
1040
1.0
1070
    74
1070
     0
1000
MTEXTEND
  0
POINT
  5
24335
330
145D8
100
AcDbEntity
  8
DEFPOINTS
 62
     0
 48
50.0
100
AcDbPoint
 10
5629.89657510699
 20
7206.529129654666
 30
0.0
  0
POINT
  5
24336
330
145D8
100
AcDbEntity
  8
DEFPOINTS
 62
     0
 48
50.0
100
AcDbPoint
 10
7159.896575106991
 20
7206.529129654829
 30
0.0
  0
POINT
  5
24337
330
145D8
100
AcDbEntity
  8
DEFPOINTS
 62
     0
 48
50.0
100
AcDbPoint
 10
7159.896575106991
 20
6411.750743086864
 30
0.0
  0
ENDBLK
  5
1495E
330
145D8
100
AcDbEntity
  8
0
 48
50.0
100
AcDbBlockEnd
  0
BLOCK
  5
14D90
330
145E4
100
AcDbEntity
  8
0
 48
50.0
100
AcDbBlockBegin
  2
*D10
 70
     1
 10
0.0
 20
0.0
 30
0.0
  3
*D10
  1

  0
LINE
  5
2439F
330
145E4
100
AcDbEntity
  8
寸法
 62
     0
 48
50.0
370
    -2
100
AcDbLine
 10
6514.496575106992
 20
7186.529129654807
 30
0.0
 11
6514.496575106992
 21
6586.969723886284
 31
0.0
  0
LINE
  5
243A0
330
145E4
100
AcDbEntity
  8
寸法
 62
     0
 48
50.0
370
    -2
100
AcDbLine
 10
5689.896575106991
 20
7186.529129654698
 30
0.0
 11
5689.896575106991
 21
6586.969723886284
 31
0.0
  0
LINE
  5
243A1
330
145E4
100
AcDbEntity
  8
寸法
 62
     0
 48
50.0
370
    -2
100
AcDbLine
 10
6514.496575106992
 20
6646.969723886283
 30
0.0
 11
5689.896575106991
 21
6646.969723886283
 31
0.0
  0
INSERT
  5
243A2
330
145E4
100
AcDbEntity
  8
寸法
 62
     0
 48
50.0
370
    -2
100
AcDbBlockReference
  2
_DOTSMALL
 10
6514.496575106992
 20
6646.969723886283
 30
0.0
 41
100.0
 42
100.0
 43
100.0
  0
INSERT
  5
243A3
330
145E4
100
AcDbEntity
  8
寸法
 62
     0
 48
50.0
370
    -2
100
AcDbBlockReference
  2
_DOTSMALL
 10
5689.896575106991
 20
6646.969723886283
 30
0.0
 41
100.0
 42
100.0
 43
100.0
 50
180.0
  0
MTEXT
  5
243A4
330
145E4
100
AcDbEntity
  8
寸法
 62
     7
 48
50.0
100
AcDbMText
 10
6102.196575106991
 20
6846.981534909905
 30
0.0
 40
120.0
 41
0.0
 71
     5
 72
     1
  1
\A1;有効開口部間口\P824
  7
STYLE1
 73
     1
 44
1.0
1001
ACAD
1000
MTEXTBEGIN
1070
    73
1070
     1
1070
    44
1040
1.0
1070
    74
1070
     0
1000
MTEXTEND
  0
POINT
  5
243A5
330
145E4
100
AcDbEntity
  8
DEFPOINTS
 62
     0
 48
50.0
100
AcDbPoint
 10
6514.496575106992
 20
7206.529129654808
 30
0.0
  0
POINT
  5
243A6
330
145E4
100
AcDbEntity
  8
DEFPOINTS
 62
     0
 48
50.0
100
AcDbPoint
 10
5689.896575106991
 20
7206.529129654699
 30
0.0
  0
POINT
  5
243A7
330
145E4
100
AcDbEntity
  8
DEFPOINTS
 62
     0
 48
50.0
100
AcDbPoint
 10
5689.896575106991
 20
6646.969723886283
 30
0.0
  0
ENDBLK
  5
14D9A
330
145E4
100
AcDbEntity
  8
0
 48
50.0
100
AcDbBlockEnd
  0
BLOCK
  5
148D5
330
14608
100
AcDbEntity
  8
0
 48
50.0
100
AcDbBlockBegin
  2
*D11
 70
     1
 10
0.0
 20
0.0
 30
0.0
  3
*D11
  1

  0
LINE
  5
2431B
330
14608
100
AcDbEntity
  8
寸法
 62
     0
 48
50.0
370
    -2
100
AcDbLine
 10
7104.896575107009
 20
9856.529129654845
 30
0.0
 11
7104.896575107009
 21
10320.50542065647
 31
0.0
  0
LINE
  5
2431C
330
14608
100
AcDbEntity
  8
寸法
 62
     0
 48
50.0
370
    -2
100
AcDbLine
 10
7159.896575107008
 20
9856.529129654845
 30
0.0
 11
7159.896575107008
 21
10320.50542065647
 31
0.0
  0
LINE
  5
2431D
330
14608
100
AcDbEntity
  8
寸法
 62
     0
 48
50.0
370
    -2
100
AcDbLine
 10
7104.896575107009
 20
10260.50542065647
 30
0.0
 11
7004.896575107008
 21
10260.50542065647
 31
0.0
  0
LINE
  5
2431E
330
14608
100
AcDbEntity
  8
寸法
 62
     0
 48
50.0
370
    -2
100
AcDbLine
 10
7159.896575107008
 20
10260.50542065647
 30
0.0
 11
7576.867137855486
 21
10260.50542065647
 31
0.0
  0
LINE
  5
2431F
330
14608
100
AcDbEntity
  8
寸法
 62
     0
 48
50.0
370
    -2
100
AcDbLine
 10
7104.896575107009
 20
10260.50542065647
 30
0.0
 11
7159.896575107008
 21
10260.50542065647
 31
0.0
  0
INSERT
  5
24320
330
14608
100
AcDbEntity
  8
寸法
 62
     0
 48
50.0
370
    -2
100
AcDbBlockReference
  2
_DOTSMALL
 10
7104.896575107009
 20
10260.50542065647
 30
0.0
 41
100.0
 42
100.0
 43
100.0
  0
INSERT
  5
24321
330
14608
100
AcDbEntity
  8
寸法
 62
     0
 48
50.0
370
    -2
100
AcDbBlockReference
  2
_DOTSMALL
 10
7159.896575107008
 20
10260.50542065647
 30
0.0
 41
100.0
 42
100.0
 43
100.0
 50
180.0
  0
MTEXT
  5
24322
330
14608
100
AcDbEntity
  8
寸法
 62
     7
 48
50.0
100
AcDbMText
 10
7468.381856481247
 20
10360.50542065647
 30
0.0
 40
120.0
 41
0.0
 71
     5
 72
     1
  1
\A1;55
  7
STYLE1
 73
     1
 44
1.0
1001
ACAD
1000
MTEXTBEGIN
1070
    73
1070
     1
1070
    44
1040
1.0
1070
    74
1070
     0
1000
MTEXTEND
  0
POINT
  5
24323
330
14608
100
AcDbEntity
  8
DEFPOINTS
 62
     0
 48
50.0
100
AcDbPoint
 10
7104.896575107009
 20
9836.529129654843
 30
0.0
  0
POINT
  5
24324
330
14608
100
AcDbEntity
  8
DEFPOINTS
 62
     0
 48
50.0
100
AcDbPoint
 10
7159.896575107008
 20
9836.529129654843
 30
0.0
  0
POINT
  5
24325
330
14608
100
AcDbEntity
  8
DEFPOINTS
 62
     0
 48
50.0
100
AcDbPoint
 10
7159.896575107008
 20
10260.50542065647
 30
0.0
  0
ENDBLK
  5
148E1
330
14608
100
AcDbEntity
  8
0
 48
50.0
100
AcDbBlockEnd
  0
BLOCK
  5
14A72
330
146DC
100
AcDbEntity
  8
0
 48
50.0
100
AcDbBlockBegin
  2
*D12
 70
     1
 10
0.0
 20
0.0
 30
0.0
  3
*D12
  1

  0
LINE
  5
242BD
330
146DC
100
AcDbEntity
  8
寸法
 62
     0
 48
50.0
370
    -2
100
AcDbLine
 10
7159.896575106992
 20
4660.370545170667
 30
0.0
 11
7159.896575106992
 21
4904.990804597936
 31
0.0
  0
LINE
  5
242BE
330
146DC
100
AcDbEntity
  8
寸法
 62
     0
 48
50.0
370
    -2
100
AcDbLine
 10
5629.896575106992
 20
4660.370545170669
 30
0.0
 11
5629.896575106992
 21
4904.990804597936
 31
0.0
  0
LINE
  5
242BF
330
146DC
100
AcDbEntity
  8
寸法
 62
     0
 48
50.0
370
    -2
100
AcDbLine
 10
7159.896575106992
 20
4844.990804597935
 30
0.0
 11
5629.896575106992
 21
4844.990804597935
 31
0.0
  0
INSERT
  5
242C0
330
146DC
100
AcDbEntity
  8
寸法
 62
     0
 48
50.0
370
    -2
100
AcDbBlockReference
  2
_DOTSMALL
 10
7159.896575106992
 20
4844.990804597935
 30
0.0
 41
100.0
 42
100.0
 43
100.0
  0
INSERT
  5
242C1
330
146DC
100
AcDbEntity
  8
寸法
 62
     0
 48
50.0
370
    -2
100
AcDbBlockReference
  2
_DOTSMALL
 10
5629.896575106992
 20
4844.990804597935
 30
0.0
 41
100.0
 42
100.0
 43
100.0
 50
180.0
  0
MTEXT
  5
242C2
330
146DC
100
AcDbEntity
  8
寸法
 62
     7
 48
50.0
100
AcDbMText
 10
6408.150518267866
 20
4944.990804597935
 30
0.0
 40
120.0
 41
0.0
 71
     5
 72
     1
  1
\A1;柱外寸法1530
  7
STYLE1
 73
     1
 44
1.0
1001
ACAD
1000
MTEXTBEGIN
1070
    73
1070
     1
1070
    44
1040
1.0
1070
    74
1070
     0
1000
MTEXTEND
  0
POINT
  5
242C3
330
146DC
100
AcDbEntity
  8
DEFPOINTS
 62
     0
 48
50.0
100
AcDbPoint
 10
7159.896575106992
 20
4640.370545170666
 30
0.0
  0
POINT
  5
242C4
330
146DC
100
AcDbEntity
  8
DEFPOINTS
 62
     0
 48
50.0
100
AcDbPoint
 10
5629.896575106992
 20
4640.370545170669
 30
0.0
  0
POINT
  5
242C5
330
146DC
100
AcDbEntity
  8
DEFPOINTS
 62
     0
 48
50.0
100
AcDbPoint
 10
5629.896575106992
 20
4844.990804597935
 30
0.0
  0
ENDBLK
  5
14A7C
330
146DC
100
AcDbEntity
  8
0
 48
50.0
100
AcDbBlockEnd
  0
BLOCK
  5
1EBD4
330
1EBCA
100
AcDbEntity
  8
0
 48
50.0
100
AcDbBlockBegin
  2
*D13
 70
     1
 10
0.0
 20
0.0
 30
0.0
  3
*D13
  1

  0
LINE
  5
24312
330
1EBCA
100
AcDbEntity
  8
寸法
 62
     0
 48
50.0
370
    -2
100
AcDbLine
 10
5684.896575106955
 20
9856.529129654717
 30
0.0
 11
5684.896575106955
 21
10320.50542065647
 31
0.0
  0
LINE
  5
24313
330
1EBCA
100
AcDbEntity
  8
寸法
 62
     0
 48
50.0
370
    -2
100
AcDbLine
 10
6104.896575106989
 20
9856.529129654864
 30
0.0
 11
6104.896575106989
 21
10320.50542065647
 31
0.0
  0
LINE
  5
24314
330
1EBCA
100
AcDbEntity
  8
寸法
 62
     0
 48
50.0
370
    -2
100
AcDbLine
 10
5684.896575106955
 20
10260.50542065647
 30
0.0
 11
6104.896575106989
 21
10260.50542065647
 31
0.0
  0
INSERT
  5
24315
330
1EBCA
100
AcDbEntity
  8
寸法
 62
     0
 48
50.0
370
    -2
100
AcDbBlockReference
  2
_DOTSMALL
 10
5684.896575106955
 20
10260.50542065647
 30
0.0
 41
100.0
 42
100.0
 43
100.0
 50
180.0
  0
INSERT
  5
24316
330
1EBCA
100
AcDbEntity
  8
寸法
 62
     0
 48
50.0
370
    -2
100
AcDbBlockReference
  2
_DOTSMALL
 10
6104.896575106989
 20
10260.50542065647
 30
0.0
 41
100.0
 42
100.0
 43
100.0
  0
MTEXT
  5
24317
330
1EBCA
100
AcDbEntity
  8
寸法
 62
     7
 48
50.0
100
AcDbMText
 10
5894.896575106972
 20
10360.51723168009
 30
0.0
 40
120.0
 41
0.0
 71
     5
 72
     1
  1
\A1;420
  7
STYLE1
 73
     1
 44
1.0
1001
ACAD
1000
MTEXTBEGIN
1070
    73
1070
     1
1070
    44
1040
1.0
1070
    74
1070
     0
1000
MTEXTEND
  0
POINT
  5
24318
330
1EBCA
100
AcDbEntity
  8
DEFPOINTS
 62
     0
 48
50.0
100
AcDbPoint
 10
5684.896575106955
 20
9836.529129654717
 30
0.0
  0
POINT
  5
24319
330
1EBCA
100
AcDbEntity
  8
DEFPOINTS
 62
     0
 48
50.0
100
AcDbPoint
 10
6104.896575106989
 20
9836.529129654865
 30
0.0
  0
POINT
  5
2431A
330
1EBCA
100
AcDbEntity
  8
DEFPOINTS
 62
     0
 48
50.0
100
AcDbPoint
 10
6104.896575106989
 20
10260.50542065647
 30
0.0
  0
ENDBLK
  5
1EBD5
330
1EBCA
100
AcDbEntity
  8
0
 48
50.0
100
AcDbBlockEnd
  0
BLOCK
  5
1EBE1
330
1EBD7
100
AcDbEntity
  8
0
 48
50.0
100
AcDbBlockBegin
  2
*D14
 70
     1
 10
0.0
 20
0.0
 30
0.0
  3
*D14
  1

  0
LINE
  5
24309
330
1EBD7
100
AcDbEntity
  8
寸法
 62
     0
 48
50.0
370
    -2
100
AcDbLine
 10
6104.896575106989
 20
9856.529129654864
 30
0.0
 11
6104.896575106989
 21
10320.50542065647
 31
0.0
  0
LINE
  5
2430A
330
1EBD7
100
AcDbEntity
  8
寸法
 62
     0
 48
50.0
370
    -2
100
AcDbLine
 10
6684.896575107007
 20
9856.529129654804
 30
0.0
 11
6684.896575107007
 21
10320.50542065647
 31
0.0
  0
LINE
  5
2430B
330
1EBD7
100
AcDbEntity
  8
寸法
 62
     0
 48
50.0
370
    -2
100
AcDbLine
 10
6104.896575106989
 20
10260.50542065647
 30
0.0
 11
6684.896575107007
 21
10260.50542065647
 31
0.0
  0
INSERT
  5
2430C
330
1EBD7
100
AcDbEntity
  8
寸法
 62
     0
 48
50.0
370
    -2
100
AcDbBlockReference
  2
_DOTSMALL
 10
6104.896575106989
 20
10260.50542065647
 30
0.0
 41
100.0
 42
100.0
 43
100.0
 50
180.0
  0
INSERT
  5
2430D
330
1EBD7
100
AcDbEntity
  8
寸法
 62
     0
 48
50.0
370
    -2
100
AcDbBlockReference
  2
_DOTSMALL
 10
6684.896575107007
 20
10260.50542065647
 30
0.0
 41
100.0
 42
100.0
 43
100.0
  0
MTEXT
  5
2430E
330
1EBD7
100
AcDbEntity
  8
寸法
 62
     7
 48
50.0
100
AcDbMText
 10
6393.572241974826
 20
10360.50542065647
 30
0.0
 40
120.0
 41
0.0
 71
     5
 72
     1
  1
\A1;580
  7
STYLE1
 73
     1
 44
1.0
1001
ACAD
1000
MTEXTBEGIN
1070
    73
1070
     1
1070
    44
1040
1.0
1070
    74
1070
     0
1000
MTEXTEND
  0
POINT
  5
2430F
330
1EBD7
100
AcDbEntity
  8
DEFPOINTS
 62
     0
 48
50.0
100
AcDbPoint
 10
6104.896575106989
 20
9836.529129654865
 30
0.0
  0
POINT
  5
24310
330
1EBD7
100
AcDbEntity
  8
DEFPOINTS
 62
     0
 48
50.0
100
AcDbPoint
 10
6684.896575107007
 20
9836.529129654804
 30
0.0
  0
POINT
  5
24311
330
1EBD7
100
AcDbEntity
  8
DEFPOINTS
 62
     0
 48
50.0
100
AcDbPoint
 10
6684.896575107007
 20
10260.50542065647
 30
0.0
  0
ENDBLK
  5
1EBE2
330
1EBD7
100
AcDbEntity
  8
0
 48
50.0
100
AcDbBlockEnd
  0
BLOCK
  5
1EBEE
330
1EBE4
100
AcDbEntity
  8
0
 48
50.0
100
AcDbBlockBegin
  2
*D15
 70
     1
 10
0.0
 20
0.0
 30
0.0
  3
*D15
  1

  0
LINE
  5
24300
330
1EBE4
100
AcDbEntity
  8
寸法
 62
     0
 48
50.0
370
    -2
100
AcDbLine
 10
6684.896575107007
 20
9856.529129654864
 30
0.0
 11
6684.896575107007
 21
10320.50542065647
 31
0.0
  0
LINE
  5
24301
330
1EBE4
100
AcDbEntity
  8
寸法
 62
     0
 48
50.0
370
    -2
100
AcDbLine
 10
7104.896575107009
 20
9856.529129654825
 30
0.0
 11
7104.896575107009
 21
10320.50542065647
 31
0.0
  0
LINE
  5
24302
330
1EBE4
100
AcDbEntity
  8
寸法
 62
     0
 48
50.0
370
    -2
100
AcDbLine
 10
6684.896575107007
 20
10260.50542065647
 30
0.0
 11
7104.896575107009
 21
10260.50542065647
 31
0.0
  0
INSERT
  5
24303
330
1EBE4
100
AcDbEntity
  8
寸法
 62
     0
 48
50.0
370
    -2
100
AcDbBlockReference
  2
_DOTSMALL
 10
6684.896575107007
 20
10260.50542065647
 30
0.0
 41
100.0
 42
100.0
 43
100.0
 50
180.0
  0
INSERT
  5
24304
330
1EBE4
100
AcDbEntity
  8
寸法
 62
     0
 48
50.0
370
    -2
100
AcDbBlockReference
  2
_DOTSMALL
 10
7104.896575107009
 20
10260.50542065647
 30
0.0
 41
100.0
 42
100.0
 43
100.0
  0
MTEXT
  5
24305
330
1EBE4
100
AcDbEntity
  8
寸法
 62
     7
 48
50.0
100
AcDbMText
 10
6894.896575107008
 20
10360.51723168009
 30
0.0
 40
120.0
 41
0.0
 71
     5
 72
     1
  1
\A1;420
  7
STYLE1
 73
     1
 44
1.0
1001
ACAD
1000
MTEXTBEGIN
1070
    73
1070
     1
1070
    44
1040
1.0
1070
    74
1070
     0
1000
MTEXTEND
  0
POINT
  5
24306
330
1EBE4
100
AcDbEntity
  8
DEFPOINTS
 62
     0
 48
50.0
100
AcDbPoint
 10
6684.896575107007
 20
9836.529129654865
 30
0.0
  0
POINT
  5
24307
330
1EBE4
100
AcDbEntity
  8
DEFPOINTS
 62
     0
 48
50.0
100
AcDbPoint
 10
7104.896575107009
 20
9836.529129654827
 30
0.0
  0
POINT
  5
24308
330
1EBE4
100
AcDbEntity
  8
DEFPOINTS
 62
     0
 48
50.0
100
AcDbPoint
 10
7104.896575107009
 20
10260.50542065647
 30
0.0
  0
ENDBLK
  5
1EBEF
330
1EBE4
100
AcDbEntity
  8
0
 48
50.0
100
AcDbBlockEnd
  0
BLOCK
  5
21FA0
330
21F96
100
AcDbEntity
  8
0
 48
50.0
100
AcDbBlockBegin
  2
*D16
 70
     1
 10
0.0
 20
0.0
 30
0.0
  3
*D16
  1

  0
LINE
  5
242E5
330
21F96
100
AcDbEntity
  8
寸法
 62
     0
 48
50.0
370
    -2
100
AcDbLine
 10
7121.537591258371
 20
9827.779129654878
 30
0.0
 11
7046.394781998299
 21
10108.21591163692
 31
0.0
  0
LINE
  5
242E6
330
21F96
100
AcDbEntity
  8
寸法
 62
     0
 48
50.0
370
    -2
100
AcDbLine
 10
6671.537591258372
 20
9827.779129654878
 30
0.0
 11
6596.3947819983
 21
10108.21591163692
 31
0.0
  0
LINE
  5
242E7
330
21F96
100
AcDbEntity
  8
寸法
 62
     0
 48
50.0
370
    -2
100
AcDbLine
 10
7062.471733544168
 20
10048.21591163692
 30
0.0
 11
6612.471733544168
 21
10048.21591163692
 31
0.0
  0
INSERT
  5
242E8
330
21F96
100
AcDbEntity
  8
寸法
 62
     0
 48
50.0
370
    -2
100
AcDbBlockReference
  2
_DOTSMALL
 10
7062.471733544168
 20
10048.21591163692
 30
0.0
 41
100.0
 42
100.0
 43
100.0
  0
INSERT
  5
242E9
330
21F96
100
AcDbEntity
  8
寸法
 62
     0
 48
50.0
370
    -2
100
AcDbBlockReference
  2
_DOTSMALL
 10
6612.471733544168
 20
10048.21591163692
 30
0.0
 41
100.0
 42
100.0
 43
100.0
 50
180.0
  0
MTEXT
  5
242EA
330
21F96
100
AcDbEntity
  8
寸法
 62
     7
 48
50.0
100
AcDbMText
 10
6871.229496569253
 20
10148.21591163692
 30
0.0
 40
120.0
 41
0.0
 71
     5
 72
     1
  1
\A1;450
  7
STYLE1
 73
     1
 44
1.0
1001
ACAD
1000
MTEXTBEGIN
1070
    73
1070
     1
1070
    44
1040
1.0
1070
    74
1070
     0
1000
MTEXTEND
  0
POINT
  5
242EB
330
21F96
100
AcDbEntity
  8
DEFPOINTS
 62
     0
 48
50.0
100
AcDbPoint
 10
7126.896575106993
 20
9807.779129654878
 30
0.0
  0
POINT
  5
242EC
330
21F96
100
AcDbEntity
  8
DEFPOINTS
 62
     0
 48
50.0
100
AcDbPoint
 10
6676.896575106994
 20
9807.779129654877
 30
0.0
  0
POINT
  5
242ED
330
21F96
100
AcDbEntity
  8
DEFPOINTS
 62
     0
 48
50.0
100
AcDbPoint
 10
6612.471733544168
 20
10048.21591163692
 30
0.0
  0
ENDBLK
  5
21FA1
330
21F96
100
AcDbEntity
  8
0
 48
50.0
100
AcDbBlockEnd
  0
BLOCK
  5
21FAC
330
21FA2
100
AcDbEntity
  8
0
 48
50.0
100
AcDbBlockBegin
  2
*D17
 70
     1
 10
0.0
 20
0.0
 30
0.0
  3
*D17
  1

  0
LINE
  5
242EE
330
21FA2
100
AcDbEntity
  8
寸法
 62
     0
 48
50.0
370
    -2
100
AcDbLine
 10
7146.896575106898
 20
8494.670145805917
 30
0.0
 11
7602.398977046455
 21
8372.618645055776
 31
0.0
  0
LINE
  5
242EF
330
21FA2
100
AcDbEntity
  8
寸法
 62
     0
 48
50.0
370
    -2
100
AcDbLine
 10
7146.896575107217
 20
7278.67014580623
 30
0.0
 11
7602.398977046455
 21
7156.618645056173
 31
0.0
  0
LINE
  5
242F0
330
21FA2
100
AcDbEntity
  8
寸法
 62
     0
 48
50.0
370
    -2
100
AcDbLine
 10
7542.398977046456
 20
8388.695596601642
 30
0.0
 11
7542.398977046456
 21
7172.695596602039
 31
0.0
  0
INSERT
  5
242F1
330
21FA2
100
AcDbEntity
  8
寸法
 62
     0
 48
50.0
370
    -2
100
AcDbBlockReference
  2
_DOTSMALL
 10
7542.398977046456
 20
8388.695596601642
 30
0.0
 41
100.0
 42
100.0
 43
100.0
 50
90.0
  0
INSERT
  5
242F2
330
21FA2
100
AcDbEntity
  8
寸法
 62
     0
 48
50.0
370
    -2
100
AcDbBlockReference
  2
_DOTSMALL
 10
7542.398977046456
 20
7172.695596602039
 30
0.0
 41
100.0
 42
100.0
 43
100.0
 50
270.0
  0
MTEXT
  5
242F3
330
21FA2
100
AcDbEntity
  8
寸法
 62
     7
 48
50.0
100
AcDbMText
 10
7442.387166022832
 20
7835.868748933499
 30
0.0
 40
120.0
 41
0.0
 71
     5
 72
     1
  1
\A1;1216
  7
STYLE1
 11
0.0000000000000001
 21
1.0
 31
0.0
 73
     1
 44
1.0
1001
ACAD
1000
MTEXTBEGIN
1070
    73
1070
     1
1070
    44
1040
1.0
1070
    74
1070
     0
1000
MTEXTEND
  0
POINT
  5
242F4
330
21FA2
100
AcDbEntity
  8
DEFPOINTS
 62
     0
 48
50.0
100
AcDbPoint
 10
7126.896575106899
 20
8500.02912965454
 30
0.0
  0
POINT
  5
242F5
330
21FA2
100
AcDbEntity
  8
DEFPOINTS
 62
     0
 48
50.0
100
AcDbPoint
 10
7126.896575107217
 20
7284.029129654851
 30
0.0
  0
POINT
  5
242F6
330
21FA2
100
AcDbEntity
  8
DEFPOINTS
 62
     0
 48
50.0
100
AcDbPoint
 10
7542.398977046456
 20
7172.695596602039
 30
0.0
  0
ENDBLK
  5
21FAD
330
21FA2
100
AcDbEntity
  8
0
 48
50.0
100
AcDbBlockEnd
  0
BLOCK
  5
21FB8
330
21FAE
100
AcDbEntity
  8
0
 48
50.0
100
AcDbBlockBegin
  2
*D18
 70
     1
 10
0.0
 20
0.0
 30
0.0
  3
*D18
  1

  0
LINE
  5
2437F
330
21FAE
100
AcDbEntity
  8
寸法
 62
     0
 48
50.0
370
    -2
100
AcDbLine
 10
7146.896575106895
 20
9802.420145806237
 30
0.0
 11
7602.090822197702
 21
9680.45121489896
 31
0.0
  0
LINE
  5
24380
330
21FAE
100
AcDbEntity
  8
寸法
 62
     0
 48
50.0
370
    -2
100
AcDbLine
 10
7146.89657510721
 20
8529.420145806239
 30
0.0
 11
7602.090822197702
 21
8407.451214899049
 31
0.0
  0
LINE
  5
24381
330
21FAE
100
AcDbEntity
  8
寸法
 62
     0
 48
50.0
370
    -2
100
AcDbLine
 10
7542.090822197701
 20
9696.528166444828
 30
0.0
 11
7542.090822197701
 21
8423.528166444915
 31
0.0
  0
INSERT
  5
24382
330
21FAE
100
AcDbEntity
  8
寸法
 62
     0
 48
50.0
370
    -2
100
AcDbBlockReference
  2
_DOTSMALL
 10
7542.090822197701
 20
9696.528166444828
 30
0.0
 41
100.0
 42
100.0
 43
100.0
 50
90.0
  0
INSERT
  5
24383
330
21FAE
100
AcDbEntity
  8
寸法
 62
     0
 48
50.0
370
    -2
100
AcDbBlockReference
  2
_DOTSMALL
 10
7542.090822197701
 20
8423.528166444915
 30
0.0
 41
100.0
 42
100.0
 43
100.0
 50
270.0
  0
MTEXT
  5
24384
330
21FAE
100
AcDbEntity
  8
寸法
 62
     7
 48
50.0
100
AcDbMText
 10
7442.079011174079
 20
9048.611850574074
 30
0.0
 40
120.0
 41
0.0
 71
     5
 72
     1
  1
\A1;1273
  7
STYLE1
 11
0.0000000000000001
 21
1.0
 31
0.0
 73
     1
 44
1.0
1001
ACAD
1000
MTEXTBEGIN
1070
    73
1070
     1
1070
    44
1040
1.0
1070
    74
1070
     0
1000
MTEXTEND
  0
POINT
  5
24385
330
21FAE
100
AcDbEntity
  8
DEFPOINTS
 62
     0
 48
50.0
100
AcDbPoint
 10
7126.896575106894
 20
9807.779129654859
 30
0.0
  0
POINT
  5
24386
330
21FAE
100
AcDbEntity
  8
DEFPOINTS
 62
     0
 48
50.0
100
AcDbPoint
 10
7126.896575107211
 20
8534.779129654863
 30
0.0
  0
POINT
  5
24387
330
21FAE
100
AcDbEntity
  8
DEFPOINTS
 62
     0
 48
50.0
100
AcDbPoint
 10
7542.090822197701
 20
8423.528166444915
 30
0.0
  0
ENDBLK
  5
21FB9
330
21FAE
100
AcDbEntity
  8
0
 48
50.0
100
AcDbBlockEnd
  0
BLOCK
  5
22ED7
330
22ECD
100
AcDbEntity
  8
0
 48
50.0
100
AcDbBlockBegin
  2
*D19
 70
     1
 10
0.0
 20
0.0
 30
0.0
  3
*D19
  1

  0
LINE
  5
242B4
330
22ECD
100
AcDbEntity
  8
寸法
 62
     0
 48
50.0
370
    -2
100
AcDbLine
 10
7259.896575106991
 20
2245.370545170665
 30
0.0
 11
7259.896575106991
 21
1919.323215870286
 31
0.0
  0
LINE
  5
242B5
330
22ECD
100
AcDbEntity
  8
寸法
 62
     0
 48
50.0
370
    -2
100
AcDbLine
 10
7059.896575106989
 20
2245.370545170665
 30
0.0
 11
7059.896575106989
 21
1919.323215870286
 31
0.0
  0
LINE
  5
242B6
330
22ECD
100
AcDbEntity
  8
寸法
 62
     0
 48
50.0
370
    -2
100
AcDbLine
 10
7259.896575106991
 20
1979.323215870287
 30
0.0
 11
7059.896575106989
 21
1979.323215870287
 31
0.0
  0
INSERT
  5
242B7
330
22ECD
100
AcDbEntity
  8
寸法
 62
     0
 48
50.0
370
    -2
100
AcDbBlockReference
  2
_DOTSMALL
 10
7259.896575106991
 20
1979.323215870287
 30
0.0
 41
100.0
 42
100.0
 43
100.0
  0
INSERT
  5
242B8
330
22ECD
100
AcDbEntity
  8
寸法
 62
     0
 48
50.0
370
    -2
100
AcDbBlockReference
  2
_DOTSMALL
 10
7059.896575106989
 20
1979.323215870287
 30
0.0
 41
100.0
 42
100.0
 43
100.0
 50
180.0
  0
MTEXT
  5
242B9
330
22ECD
100
AcDbEntity
  8
寸法
 62
     7
 48
50.0
100
AcDbMText
 10
7159.89657510699
 20
2079.335026893909
 30
0.0
 40
120.0
 41
0.0
 71
     5
 72
     1
  1
\A1;200
  7
STYLE1
 73
     1
 44
1.0
1001
ACAD
1000
MTEXTBEGIN
1070
    73
1070
     1
1070
    44
1040
1.0
1070
    74
1070
     0
1000
MTEXTEND
  0
POINT
  5
242BA
330
22ECD
100
AcDbEntity
  8
DEFPOINTS
 62
     0
 48
50.0
100
AcDbPoint
 10
7259.896575106991
 20
2265.370545170664
 30
0.0
  0
POINT
  5
242BB
330
22ECD
100
AcDbEntity
  8
DEFPOINTS
 62
     0
 48
50.0
100
AcDbPoint
 10
7059.896575106989
 20
2265.370545170664
 30
0.0
  0
POINT
  5
242BC
330
22ECD
100
AcDbEntity
  8
DEFPOINTS
 62
     0
 48
50.0
100
AcDbPoint
 10
7059.896575106989
 20
1979.323215870287
 30
0.0
  0
ENDBLK
  5
22ED8
330
22ECD
100
AcDbEntity
  8
0
 48
50.0
100
AcDbBlockEnd
  0
BLOCK
  5
23E0A
330
23E00
100
AcDbEntity
  8
0
 48
50.0
100
AcDbBlockBegin
  2
*D20
 70
     1
 10
0.0
 20
0.0
 30
0.0
  3
*D20
  1

  0
LINE
  5
242AB
330
23E00
100
AcDbEntity
  8
寸法
 62
     0
 48
50.0
370
    -2
100
AcDbLine
 10
9335.693956914473
 20
4397.370545170662
 30
0.0
 11
8750.785315517221
 21
4397.370545170662
 31
0.0
  0
LINE
  5
242AC
330
23E00
100
AcDbEntity
  8
寸法
 62
     0
 48
50.0
370
    -2
100
AcDbLine
 10
9335.693956914473
 20
2627.370545170663
 30
0.0
 11
8750.785315517219
 21
2627.370545170663
 31
0.0
  0
LINE
  5
242AD
330
23E00
100
AcDbEntity
  8
寸法
 62
     0
 48
50.0
370
    -2
100
AcDbLine
 10
8810.785315517222
 20
4397.370545170662
 30
0.0
 11
8810.78531551722
 21
2627.370545170663
 31
0.0
  0
INSERT
  5
242AE
330
23E00
100
AcDbEntity
  8
寸法
 62
     0
 48
50.0
370
    -2
100
AcDbBlockReference
  2
_DOTSMALL
 10
8810.785315517222
 20
4397.370545170662
 30
0.0
 41
100.0
 42
100.0
 43
100.0
 50
90.0
  0
INSERT
  5
242AF
330
23E00
100
AcDbEntity
  8
寸法
 62
     0
 48
50.0
370
    -2
100
AcDbBlockReference
  2
_DOTSMALL
 10
8810.78531551722
 20
2627.370545170663
 30
0.0
 41
100.0
 42
100.0
 43
100.0
 50
270.0
  0
MTEXT
  5
242B0
330
23E00
100
AcDbEntity
  8
寸法
 62
     7
 48
50.0
100
AcDbMText
 10
8710.785315517219
 20
3512.370545170664
 30
0.0
 40
120.0
 41
0.0
 71
     5
 72
     1
  1
\A1;有効開口部高サ1770
  7
STYLE1
 11
0.0000000000000001
 21
1.0
 31
0.0
 73
     1
 44
1.0
1001
ACAD
1000
MTEXTBEGIN
1070
    73
1070
     1
1070
    44
1040
1.0
1070
    74
1070
     0
1000
MTEXTEND
  0
POINT
  5
242B1
330
23E00
100
AcDbEntity
  8
DEFPOINTS
 62
     0
 48
50.0
100
AcDbPoint
 10
9355.693956914475
 20
4397.370545170662
 30
0.0
  0
POINT
  5
242B2
330
23E00
100
AcDbEntity
  8
DEFPOINTS
 62
     0
 48
50.0
100
AcDbPoint
 10
9355.693956914475
 20
2627.370545170663
 30
0.0
  0
POINT
  5
242B3
330
23E00
100
AcDbEntity
  8
DEFPOINTS
 62
     0
 48
50.0
100
AcDbPoint
 10
8810.78531551722
 20
2627.370545170663
 30
0.0
  0
ENDBLK
  5
23E0B
330
23E00
100
AcDbEntity
  8
0
 48
50.0
100
AcDbBlockEnd
  0
BLOCK
  5
23E16
330
23E0C
100
AcDbEntity
  8
0
 48
50.0
100
AcDbBlockBegin
  2
*D21
 70
     1
 10
0.0
 20
0.0
 30
0.0
  3
*D21
  1

  0
LINE
  5
242A2
330
23E0C
100
AcDbEntity
  8
寸法
 62
     0
 48
50.0
370
    -2
100
AcDbLine
 10
9335.693956914473
 20
4405.370545170662
 30
0.0
 11
8451.943827731216
 21
4405.370545170662
 31
0.0
  0
LINE
  5
242A3
330
23E0C
100
AcDbEntity
  8
寸法
 62
     0
 48
50.0
370
    -2
100
AcDbLine
 10
9335.693956914473
 20
2615.370545170663
 30
0.0
 11
8451.943827731215
 21
2615.370545170663
 31
0.0
  0
LINE
  5
242A4
330
23E0C
100
AcDbEntity
  8
寸法
 62
     0
 48
50.0
370
    -2
100
AcDbLine
 10
8511.943827731217
 20
4405.370545170662
 30
0.0
 11
8511.943827731213
 21
2615.370545170663
 31
0.0
  0
INSERT
  5
242A5
330
23E0C
100
AcDbEntity
  8
寸法
 62
     0
 48
50.0
370
    -2
100
AcDbBlockReference
  2
_DOTSMALL
 10
8511.943827731217
 20
4405.370545170662
 30
0.0
 41
100.0
 42
100.0
 43
100.0
 50
90.0
  0
INSERT
  5
242A6
330
23E0C
100
AcDbEntity
  8
寸法
 62
     0
 48
50.0
370
    -2
100
AcDbBlockReference
  2
_DOTSMALL
 10
8511.943827731213
 20
2615.370545170663
 30
0.0
 41
100.0
 42
100.0
 43
100.0
 50
270.0
  0
MTEXT
  5
242A7
330
23E0C
100
AcDbEntity
  8
寸法
 62
     7
 48
50.0
100
AcDbMText
 10
8411.943827731214
 20
3510.370545170665
 30
0.0
 40
120.0
 41
0.0
 71
     5
 72
     1
  1
\A1;1790
  7
STYLE1
 11
0.0000000000000001
 21
1.0
 31
0.0
 73
     1
 44
1.0
1001
ACAD
1000
MTEXTBEGIN
1070
    73
1070
     1
1070
    44
1040
1.0
1070
    74
1070
     0
1000
MTEXTEND
  0
POINT
  5
242A8
330
23E0C
100
AcDbEntity
  8
DEFPOINTS
 62
     0
 48
50.0
100
AcDbPoint
 10
9355.693956914475
 20
4405.370545170662
 30
0.0
  0
POINT
  5
242A9
330
23E0C
100
AcDbEntity
  8
DEFPOINTS
 62
     0
 48
50.0
100
AcDbPoint
 10
9355.693956914475
 20
2615.370545170663
 30
0.0
  0
POINT
  5
242AA
330
23E0C
100
AcDbEntity
  8
DEFPOINTS
 62
     0
 48
50.0
100
AcDbPoint
 10
8511.943827731213
 20
2615.370545170663
 30
0.0
  0
ENDBLK
  5
23E17
330
23E0C
100
AcDbEntity
  8
0
 48
50.0
100
AcDbBlockEnd
  0
BLOCK
  5
23E22
330
23E18
100
AcDbEntity
  8
0
 48
50.0
100
AcDbBlockBegin
  2
*D22
 70
     1
 10
0.0
 20
0.0
 30
0.0
  3
*D22
  1

  0
LINE
  5
24299
330
23E18
100
AcDbEntity
  8
寸法
 62
     0
 48
50.0
370
    -2
100
AcDbLine
 10
9335.693956914473
 20
2565.370545170663
 30
0.0
 11
8151.943827731214
 21
2565.370545170663
 31
0.0
  0
LINE
  5
2429A
330
23E18
100
AcDbEntity
  8
寸法
 62
     0
 48
50.0
370
    -2
100
AcDbLine
 10
9275.693956914475
 20
4640.370545170667
 30
0.0
 11
8151.943827731214
 21
4640.370545170667
 31
0.0
  0
LINE
  5
2429B
330
23E18
100
AcDbEntity
  8
寸法
 62
     0
 48
50.0
370
    -2
100
AcDbLine
 10
8211.943827731213
 20
2565.370545170663
 30
0.0
 11
8211.943827731214
 21
4640.370545170667
 31
0.0
  0
INSERT
  5
2429C
330
23E18
100
AcDbEntity
  8
寸法
 62
     0
 48
50.0
370
    -2
100
AcDbBlockReference
  2
_DOTSMALL
 10
8211.943827731213
 20
2565.370545170663
 30
0.0
 41
100.0
 42
100.0
 43
100.0
 50
270.0
  0
INSERT
  5
2429D
330
23E18
100
AcDbEntity
  8
寸法
 62
     0
 48
50.0
370
    -2
100
AcDbBlockReference
  2
_DOTSMALL
 10
8211.943827731214
 20
4640.370545170667
 30
0.0
 41
100.0
 42
100.0
 43
100.0
 50
90.0
  0
MTEXT
  5
2429E
330
23E18
100
AcDbEntity
  8
寸法
 62
     7
 48
50.0
100
AcDbMText
 10
8111.932016707591
 20
3602.870545170667
 30
0.0
 40
120.0
 41
0.0
 71
     5
 72
     1
  1
\A1;2075
  7
STYLE1
 11
0.0000000000000001
 21
1.0
 31
0.0
 73
     1
 44
1.0
1001
ACAD
1000
MTEXTBEGIN
1070
    73
1070
     1
1070
    44
1040
1.0
1070
    74
1070
     0
1000
MTEXTEND
  0
POINT
  5
2429F
330
23E18
100
AcDbEntity
  8
DEFPOINTS
 62
     0
 48
50.0
100
AcDbPoint
 10
9355.693956914475
 20
2565.370545170663
 30
0.0
  0
POINT
  5
242A0
330
23E18
100
AcDbEntity
  8
DEFPOINTS
 62
     0
 48
50.0
100
AcDbPoint
 10
9295.693956914474
 20
4640.370545170667
 30
0.0
  0
POINT
  5
242A1
330
23E18
100
AcDbEntity
  8
DEFPOINTS
 62
     0
 48
50.0
100
AcDbPoint
 10
8211.943827731214
 20
4640.370545170667
 30
0.0
  0
ENDBLK
  5
23E23
330
23E18
100
AcDbEntity
  8
0
 48
50.0
100
AcDbBlockEnd
  0
BLOCK
  5
23E2F
330
23E24
100
AcDbEntity
  8
0
 48
50.0
100
AcDbBlockBegin
  2
*D23
 70
     1
 10
0.0
 20
0.0
 30
0.0
  3
*D23
  1

  0
LINE
  5
2428F
330
23E24
100
AcDbEntity
  8
寸法
 62
     0
 48
50.0
370
    -2
100
AcDbLine
 10
9280.693956914474
 20
2565.370545170663
 30
0.0
 11
8151.943827731216
 21
2565.370545170663
 31
0.0
  0
LINE
  5
24290
330
23E24
100
AcDbEntity
  8
寸法
 62
     0
 48
50.0
370
    -2
100
AcDbLine
 10
8279.192881019342
 20
2465.370545170663
 30
0.0
 11
8151.943827731216
 21
2465.370545170663
 31
0.0
  0
LINE
  5
24291
330
23E24
100
AcDbEntity
  8
寸法
 62
     0
 48
50.0
370
    -2
100
AcDbLine
 10
8211.943827731214
 20
2565.370545170663
 30
0.0
 11
8211.943827731214
 21
2465.370545170663
 31
0.0
  0
LINE
  5
24292
330
23E24
100
AcDbEntity
  8
寸法
 62
     0
 48
50.0
370
    -2
100
AcDbLine
 10
8211.943827731214
 20
2465.370545170663
 30
0.0
 11
8211.943827731214
 21
2093.276056981684
 31
0.0
  0
INSERT
  5
24293
330
23E24
100
AcDbEntity
  8
寸法
 62
     0
 48
50.0
370
    -2
100
AcDbBlockReference
  2
_DOTSMALL
 10
8211.943827731214
 20
2565.370545170663
 30
0.0
 41
100.0
 42
100.0
 43
100.0
 50
90.0
  0
INSERT
  5
24294
330
23E24
100
AcDbEntity
  8
寸法
 62
     0
 48
50.0
370
    -2
100
AcDbBlockReference
  2
_DOTSMALL
 10
8211.943827731214
 20
2465.370545170663
 30
0.0
 41
100.0
 42
100.0
 43
100.0
 50
270.0
  0
MTEXT
  5
24295
330
23E24
100
AcDbEntity
  8
寸法
 62
     7
 48
50.0
100
AcDbMText
 10
8111.943827731215
 20
2229.323301076173
 30
0.0
 40
120.0
 41
0.0
 71
     5
 72
     1
  1
\A1;100
  7
STYLE1
 11
0.0000000000000001
 21
1.0
 31
0.0
 73
     1
 44
1.0
1001
ACAD
1000
MTEXTBEGIN
1070
    73
1070
     1
1070
    44
1040
1.0
1070
    74
1070
     0
1000
MTEXTEND
  0
POINT
  5
24296
330
23E24
100
AcDbEntity
  8
DEFPOINTS
 62
     0
 48
50.0
100
AcDbPoint
 10
9300.693956914475
 20
2565.370545170663
 30
0.0
  0
POINT
  5
24297
330
23E24
100
AcDbEntity
  8
DEFPOINTS
 62
     0
 48
50.0
100
AcDbPoint
 10
8299.192881019342
 20
2465.370545170663
 30
0.0
  0
POINT
  5
24298
330
23E24
100
AcDbEntity
  8
DEFPOINTS
 62
     0
 48
50.0
100
AcDbPoint
 10
8211.943827731214
 20
2465.370545170663
 30
0.0
  0
ENDBLK
  5
23E30
330
23E24
100
AcDbEntity
  8
0
 48
50.0
100
AcDbBlockEnd
  0
BLOCK
  5
23E3D
330
23E31
100
AcDbEntity
  8
0
 48
50.0
100
AcDbBlockBegin
  2
*D24
 70
     1
 10
0.0
 20
0.0
 30
0.0
  3
*D24
  1

  0
LINE
  5
24284
330
23E31
100
AcDbEntity
  8
寸法
 62
     0
 48
50.0
370
    -2
100
AcDbLine
 10
9335.693956914473
 20
2615.370545170663
 30
0.0
 11
8451.943827731215
 21
2615.370545170663
 31
0.0
  0
LINE
  5
24285
330
23E31
100
AcDbEntity
  8
寸法
 62
     0
 48
50.0
370
    -2
100
AcDbLine
 10
9280.693956914474
 20
2565.370545170663
 30
0.0
 11
8451.943827731215
 21
2565.370545170663
 31
0.0
  0
LINE
  5
24286
330
23E31
100
AcDbEntity
  8
寸法
 62
     0
 48
50.0
370
    -2
100
AcDbLine
 10
8511.943827731213
 20
2615.370545170663
 30
0.0
 11
8511.943827731213
 21
2715.370545170663
 31
0.0
  0
LINE
  5
24287
330
23E31
100
AcDbEntity
  8
寸法
 62
     0
 48
50.0
370
    -2
100
AcDbLine
 10
8511.943827731213
 20
2565.370545170663
 30
0.0
 11
8511.943827731213
 21
2153.276056981684
 31
0.0
  0
LINE
  5
24288
330
23E31
100
AcDbEntity
  8
寸法
 62
     0
 48
50.0
370
    -2
100
AcDbLine
 10
8511.943827731213
 20
2615.370545170663
 30
0.0
 11
8511.943827731213
 21
2565.370545170663
 31
0.0
  0
INSERT
  5
24289
330
23E31
100
AcDbEntity
  8
寸法
 62
     0
 48
50.0
370
    -2
100
AcDbBlockReference
  2
_DOTSMALL
 10
8511.943827731213
 20
2615.370545170663
 30
0.0
 41
100.0
 42
100.0
 43
100.0
 50
270.0
  0
INSERT
  5
2428A
330
23E31
100
AcDbEntity
  8
寸法
 62
     0
 48
50.0
370
    -2
100
AcDbBlockReference
  2
_DOTSMALL
 10
8511.943827731213
 20
2565.370545170663
 30
0.0
 41
100.0
 42
100.0
 43
100.0
 50
90.0
  0
MTEXT
  5
2428B
330
23E31
100
AcDbEntity
  8
寸法
 62
     7
 48
50.0
100
AcDbMText
 10
8411.943827731214
 20
2259.323301076173
 30
0.0
 40
120.0
 41
0.0
 71
     5
 72
     1
  1
\A1;50
  7
STYLE1
 11
0.0000000000000001
 21
1.0
 31
0.0
 73
     1
 44
1.0
1001
ACAD
1000
MTEXTBEGIN
1070
    73
1070
     1
1070
    44
1040
1.0
1070
    74
1070
     0
1000
MTEXTEND
  0
POINT
  5
2428C
330
23E31
100
AcDbEntity
  8
DEFPOINTS
 62
     0
 48
50.0
100
AcDbPoint
 10
9355.693956914475
 20
2615.370545170663
 30
0.0
  0
POINT
  5
2428D
330
23E31
100
AcDbEntity
  8
DEFPOINTS
 62
     0
 48
50.0
100
AcDbPoint
 10
9300.693956914475
 20
2565.370545170663
 30
0.0
  0
POINT
  5
2428E
330
23E31
100
AcDbEntity
  8
DEFPOINTS
 62
     0
 48
50.0
100
AcDbPoint
 10
8511.943827731213
 20
2565.370545170663
 30
0.0
  0
ENDBLK
  5
23E3E
330
23E31
100
AcDbEntity
  8
0
 48
50.0
100
AcDbBlockEnd
  0
BLOCK
  5
23E49
330
23E3F
100
AcDbEntity
  8
0
 48
50.0
100
AcDbBlockBegin
  2
*D25
 70
     1
 10
0.0
 20
0.0
 30
0.0
  3
*D25
  1

  0
LINE
  5
2427B
330
23E3F
100
AcDbEntity
  8
寸法
 62
     0
 48
50.0
370
    -2
100
AcDbLine
 10
12005.69395691448
 20
2565.370545170664
 30
0.0
 11
12750.6211148866
 21
2565.370545170664
 31
0.0
  0
LINE
  5
2427C
330
23E3F
100
AcDbEntity
  8
寸法
 62
     0
 48
50.0
370
    -2
100
AcDbLine
 10
12085.69395691447
 20
4585.370545170664
 30
0.0
 11
12750.6211148866
 21
4585.370545170664
 31
0.0
  0
LINE
  5
2427D
330
23E3F
100
AcDbEntity
  8
寸法
 62
     0
 48
50.0
370
    -2
100
AcDbLine
 10
12690.6211148866
 20
2565.370545170664
 30
0.0
 11
12690.6211148866
 21
4585.370545170664
 31
0.0
  0
INSERT
  5
2427E
330
23E3F
100
AcDbEntity
  8
寸法
 62
     0
 48
50.0
370
    -2
100
AcDbBlockReference
  2
_DOTSMALL
 10
12690.6211148866
 20
2565.370545170664
 30
0.0
 41
100.0
 42
100.0
 43
100.0
 50
270.0
  0
INSERT
  5
2427F
330
23E3F
100
AcDbEntity
  8
寸法
 62
     0
 48
50.0
370
    -2
100
AcDbBlockReference
  2
_DOTSMALL
 10
12690.6211148866
 20
4585.370545170664
 30
0.0
 41
100.0
 42
100.0
 43
100.0
 50
90.0
  0
MTEXT
  5
24280
330
23E3F
100
AcDbEntity
  8
寸法
 62
     7
 48
50.0
100
AcDbMText
 10
12590.60930386298
 20
3575.370545170666
 30
0.0
 40
120.0
 41
0.0
 71
     5
 72
     1
  1
\A1;2020
  7
STYLE1
 11
0.0000000000000001
 21
1.0
 31
0.0
 73
     1
 44
1.0
1001
ACAD
1000
MTEXTBEGIN
1070
    73
1070
     1
1070
    44
1040
1.0
1070
    74
1070
     0
1000
MTEXTEND
  0
POINT
  5
24281
330
23E3F
100
AcDbEntity
  8
DEFPOINTS
 62
     0
 48
50.0
100
AcDbPoint
 10
11985.69395691448
 20
2565.370545170664
 30
0.0
  0
POINT
  5
24282
330
23E3F
100
AcDbEntity
  8
DEFPOINTS
 62
     0
 48
50.0
100
AcDbPoint
 10
12065.69395691447
 20
4585.370545170664
 30
0.0
  0
POINT
  5
24283
330
23E3F
100
AcDbEntity
  8
DEFPOINTS
 62
     0
 48
50.0
100
AcDbPoint
 10
12690.6211148866
 20
4585.370545170664
 30
0.0
  0
ENDBLK
  5
23E4A
330
23E3F
100
AcDbEntity
  8
0
 48
50.0
100
AcDbBlockEnd
  0
BLOCK
  5
23E55
330
23E4B
100
AcDbEntity
  8
0
 48
50.0
100
AcDbBlockBegin
  2
*D26
 70
     1
 10
0.0
 20
0.0
 30
0.0
  3
*D26
  1

  0
LINE
  5
24272
330
23E4B
100
AcDbEntity
  8
寸法
 62
     0
 48
50.0
370
    -2
100
AcDbLine
 10
11985.69395691447
 20
4607.181224782317
 30
0.0
 11
11985.69395691447
 21
5099.027998749968
 31
0.0
  0
LINE
  5
24273
330
23E4B
100
AcDbEntity
  8
寸法
 62
     0
 48
50.0
370
    -2
100
AcDbLine
 10
9355.693956914475
 20
4656.372163293639
 30
0.0
 11
9355.693956914475
 21
5099.027998749968
 31
0.0
  0
LINE
  5
24274
330
23E4B
100
AcDbEntity
  8
寸法
 62
     0
 48
50.0
370
    -2
100
AcDbLine
 10
11985.69395691447
 20
5039.027998749968
 30
0.0
 11
9355.693956914475
 21
5039.027998749968
 31
0.0
  0
INSERT
  5
24275
330
23E4B
100
AcDbEntity
  8
寸法
 62
     0
 48
50.0
370
    -2
100
AcDbBlockReference
  2
_DOTSMALL
 10
11985.69395691447
 20
5039.027998749968
 30
0.0
 41
100.0
 42
100.0
 43
100.0
  0
INSERT
  5
24276
330
23E4B
100
AcDbEntity
  8
寸法
 62
     0
 48
50.0
370
    -2
100
AcDbBlockReference
  2
_DOTSMALL
 10
9355.693956914475
 20
5039.027998749968
 30
0.0
 41
100.0
 42
100.0
 43
100.0
 50
180.0
  0
MTEXT
  5
24277
330
23E4B
100
AcDbEntity
  8
寸法
 62
     7
 48
50.0
100
AcDbMText
 10
10710.46414794367
 20
5139.039809773589
 30
0.0
 40
120.0
 41
0.0
 71
     5
 72
     1
  1
\A1;柱外寸法2630
  7
STYLE1
 73
     1
 44
1.0
1001
ACAD
1000
MTEXTBEGIN
1070
    73
1070
     1
1070
    44
1040
1.0
1070
    74
1070
     0
1000
MTEXTEND
  0
POINT
  5
24278
330
23E4B
100
AcDbEntity
  8
DEFPOINTS
 62
     0
 48
50.0
100
AcDbPoint
 10
11985.69395691447
 20
4587.181224782317
 30
0.0
  0
POINT
  5
24279
330
23E4B
100
AcDbEntity
  8
DEFPOINTS
 62
     0
 48
50.0
100
AcDbPoint
 10
9355.693956914475
 20
4636.372163293639
 30
0.0
  0
POINT
  5
2427A
330
23E4B
100
AcDbEntity
  8
DEFPOINTS
 62
     0
 48
50.0
100
AcDbPoint
 10
9355.693956914475
 20
5039.027998749968
 30
0.0
  0
ENDBLK
  5
23E56
330
23E4B
100
AcDbEntity
  8
0
 48
50.0
100
AcDbBlockEnd
  0
BLOCK
  5
23E63
330
23E57
100
AcDbEntity
  8
0
 48
50.0
100
AcDbBlockBegin
  2
*D27
 70
     1
 10
0.0
 20
0.0
 30
0.0
  3
*D27
  1

  0
LINE
  5
24267
330
23E57
100
AcDbEntity
  8
寸法
 62
     0
 48
50.0
370
    -2
100
AcDbLine
 10
9355.693956914475
 20
4656.372163293639
 30
0.0
 11
9355.693956914475
 21
5099.027998749967
 31
0.0
  0
LINE
  5
24268
330
23E57
100
AcDbEntity
  8
寸法
 62
     0
 48
50.0
370
    -2
100
AcDbLine
 10
9295.693956914474
 20
4660.370545170667
 30
0.0
 11
9295.693956914474
 21
5099.027998749967
 31
0.0
  0
LINE
  5
24269
330
23E57
100
AcDbEntity
  8
寸法
 62
     0
 48
50.0
370
    -2
100
AcDbLine
 10
9355.693956914475
 20
5039.027998749967
 30
0.0
 11
9455.693956914474
 21
5039.027998749967
 31
0.0
  0
LINE
  5
2426A
330
23E57
100
AcDbEntity
  8
寸法
 62
     0
 48
50.0
370
    -2
100
AcDbLine
 10
9295.693956914474
 20
5039.027998749967
 30
0.0
 11
8876.418366363294
 21
5039.027998749967
 31
0.0
  0
LINE
  5
2426B
330
23E57
100
AcDbEntity
  8
寸法
 62
     0
 48
50.0
370
    -2
100
AcDbLine
 10
9355.693956914475
 20
5039.027998749967
 30
0.0
 11
9295.693956914474
 21
5039.027998749967
 31
0.0
  0
INSERT
  5
2426C
330
23E57
100
AcDbEntity
  8
寸法
 62
     0
 48
50.0
370
    -2
100
AcDbBlockReference
  2
_DOTSMALL
 10
9355.693956914475
 20
5039.027998749967
 30
0.0
 41
100.0
 42
100.0
 43
100.0
 50
180.0
  0
INSERT
  5
2426D
330
23E57
100
AcDbEntity
  8
寸法
 62
     0
 48
50.0
370
    -2
100
AcDbBlockReference
  2
_DOTSMALL
 10
9295.693956914474
 20
5039.027998749967
 30
0.0
 41
100.0
 42
100.0
 43
100.0
  0
MTEXT
  5
2426E
330
23E57
100
AcDbEntity
  8
寸法
 62
     7
 48
50.0
100
AcDbMText
 10
8986.056161638883
 20
5139.027998749967
 30
0.0
 40
120.0
 41
0.0
 71
     5
 72
     1
  1
\A1;60
  7
STYLE1
 73
     1
 44
1.0
1001
ACAD
1000
MTEXTBEGIN
1070
    73
1070
     1
1070
    44
1040
1.0
1070
    74
1070
     0
1000
MTEXTEND
  0
POINT
  5
2426F
330
23E57
100
AcDbEntity
  8
DEFPOINTS
 62
     0
 48
50.0
100
AcDbPoint
 10
9355.693956914475
 20
4636.372163293639
 30
0.0
  0
POINT
  5
24270
330
23E57
100
AcDbEntity
  8
DEFPOINTS
 62
     0
 48
50.0
100
AcDbPoint
 10
9295.693956914474
 20
4640.370545170667
 30
0.0
  0
POINT
  5
24271
330
23E57
100
AcDbEntity
  8
DEFPOINTS
 62
     0
 48
50.0
100
AcDbPoint
 10
9295.693956914474
 20
5039.027998749967
 30
0.0
  0
ENDBLK
  5
23E64
330
23E57
100
AcDbEntity
  8
0
 48
50.0
100
AcDbBlockEnd
  0
BLOCK
  5
23E6F
330
23E65
100
AcDbEntity
  8
0
 48
50.0
100
AcDbBlockBegin
  2
*D28
 70
     1
 10
0.0
 20
0.0
 30
0.0
  3
*D28
  1

  0
LINE
  5
2425E
330
23E65
100
AcDbEntity
  8
寸法
 62
     0
 48
50.0
370
    -2
100
AcDbLine
 10
12065.69395691447
 20
4605.370545170664
 30
0.0
 11
12065.69395691447
 21
5319.238685481585
 31
0.0
  0
LINE
  5
2425F
330
23E65
100
AcDbEntity
  8
寸法
 62
     0
 48
50.0
370
    -2
100
AcDbLine
 10
9295.693956914474
 20
4660.370545170667
 30
0.0
 11
9295.693956914474
 21
5319.238685481585
 31
0.0
  0
LINE
  5
24260
330
23E65
100
AcDbEntity
  8
寸法
 62
     0
 48
50.0
370
    -2
100
AcDbLine
 10
12065.69395691447
 20
5259.238685481585
 30
0.0
 11
9295.693956914474
 21
5259.238685481585
 31
0.0
  0
INSERT
  5
24261
330
23E65
100
AcDbEntity
  8
寸法
 62
     0
 48
50.0
370
    -2
100
AcDbBlockReference
  2
_DOTSMALL
 10
12065.69395691447
 20
5259.238685481585
 30
0.0
 41
100.0
 42
100.0
 43
100.0
  0
INSERT
  5
24262
330
23E65
100
AcDbEntity
  8
寸法
 62
     0
 48
50.0
370
    -2
100
AcDbBlockReference
  2
_DOTSMALL
 10
9295.693956914474
 20
5259.238685481585
 30
0.0
 41
100.0
 42
100.0
 43
100.0
 50
180.0
  0
MTEXT
  5
24263
330
23E65
100
AcDbEntity
  8
寸法
 62
     7
 48
50.0
100
AcDbMText
 10
10699.05288180185
 20
5359.250496505207
 30
0.0
 40
120.0
 41
0.0
 71
     5
 72
     1
  1
\A1;2770
  7
STYLE1
 73
     1
 44
1.0
1001
ACAD
1000
MTEXTBEGIN
1070
    73
1070
     1
1070
    44
1040
1.0
1070
    74
1070
     0
1000
MTEXTEND
  0
POINT
  5
24264
330
23E65
100
AcDbEntity
  8
DEFPOINTS
 62
     0
 48
50.0
100
AcDbPoint
 10
12065.69395691447
 20
4585.370545170664
 30
0.0
  0
POINT
  5
24265
330
23E65
100
AcDbEntity
  8
DEFPOINTS
 62
     0
 48
50.0
100
AcDbPoint
 10
9295.693956914474
 20
4640.370545170667
 30
0.0
  0
POINT
  5
24266
330
23E65
100
AcDbEntity
  8
DEFPOINTS
 62
     0
 48
50.0
100
AcDbPoint
 10
9295.693956914474
 20
5259.238685481585
 30
0.0
  0
ENDBLK
  5
23E70
330
23E65
100
AcDbEntity
  8
0
 48
50.0
100
AcDbBlockEnd
  0
BLOCK
  5
23E7C
330
23E71
100
AcDbEntity
  8
0
 48
50.0
100
AcDbBlockBegin
  2
*D29
 70
     1
 10
0.0
 20
0.0
 30
0.0
  3
*D29
  1

  0
LINE
  5
24254
330
23E71
100
AcDbEntity
  8
寸法
 62
     0
 48
50.0
370
    -2
100
AcDbLine
 10
11985.69395691447
 20
4607.181224782317
 30
0.0
 11
11985.69395691447
 21
5099.027998749968
 31
0.0
  0
LINE
  5
24255
330
23E71
100
AcDbEntity
  8
寸法
 62
     0
 48
50.0
370
    -2
100
AcDbLine
 10
12065.69395691447
 20
4605.370545170664
 30
0.0
 11
12065.69395691447
 21
5099.027998749968
 31
0.0
  0
LINE
  5
24256
330
23E71
100
AcDbEntity
  8
寸法
 62
     0
 48
50.0
370
    -2
100
AcDbLine
 10
11985.69395691447
 20
5039.027998749968
 30
0.0
 11
12065.69395691447
 21
5039.027998749968
 31
0.0
  0
LINE
  5
24257
330
23E71
100
AcDbEntity
  8
寸法
 62
     0
 48
50.0
370
    -2
100
AcDbLine
 10
12065.69395691447
 20
5039.027998749968
 30
0.0
 11
12377.78844510345
 21
5039.027998749968
 31
0.0
  0
INSERT
  5
24258
330
23E71
100
AcDbEntity
  8
寸法
 62
     0
 48
50.0
370
    -2
100
AcDbBlockReference
  2
_DOTSMALL
 10
11985.69395691447
 20
5039.027998749968
 30
0.0
 41
100.0
 42
100.0
 43
100.0
 50
180.0
  0
INSERT
  5
24259
330
23E71
100
AcDbEntity
  8
寸法
 62
     0
 48
50.0
370
    -2
100
AcDbBlockReference
  2
_DOTSMALL
 10
12065.69395691447
 20
5039.027998749968
 30
0.0
 41
100.0
 42
100.0
 43
100.0
  0
MTEXT
  5
2425A
330
23E71
100
AcDbEntity
  8
寸法
 62
     7
 48
50.0
100
AcDbMText
 10
12271.74120100896
 20
5139.027998749968
 30
0.0
 40
120.0
 41
0.0
 71
     5
 72
     1
  1
\A1;80
  7
STYLE1
 73
     1
 44
1.0
1001
ACAD
1000
MTEXTBEGIN
1070
    73
1070
     1
1070
    44
1040
1.0
1070
    74
1070
     0
1000
MTEXTEND
  0
POINT
  5
2425B
330
23E71
100
AcDbEntity
  8
DEFPOINTS
 62
     0
 48
50.0
100
AcDbPoint
 10
11985.69395691447
 20
4587.181224782317
 30
0.0
  0
POINT
  5
2425C
330
23E71
100
AcDbEntity
  8
DEFPOINTS
 62
     0
 48
50.0
100
AcDbPoint
 10
12065.69395691447
 20
4585.370545170664
 30
0.0
  0
POINT
  5
2425D
330
23E71
100
AcDbEntity
  8
DEFPOINTS
 62
     0
 48
50.0
100
AcDbPoint
 10
12065.69395691447
 20
5039.027998749968
 30
0.0
  0
ENDBLK
  5
23E7D
330
23E71
100
AcDbEntity
  8
0
 48
50.0
100
AcDbBlockEnd
  0
BLOCK
  5
23E89
330
23E7E
100
AcDbEntity
  8
0
 48
50.0
100
AcDbBlockBegin
  2
*D30
 70
     1
 10
0.0
 20
0.0
 30
0.0
  3
*D30
  1

  0
LINE
  5
2424A
330
23E7E
100
AcDbEntity
  8
寸法
 62
     0
 48
50.0
370
    -2
100
AcDbLine
 10
9295.098243205575
 20
4639.668252240325
 30
0.0
 11
8679.16380410031
 21
4657.382402514654
 31
0.0
  0
LINE
  5
2424B
330
23E7E
100
AcDbEntity
  8
寸法
 62
     0
 48
50.0
370
    -2
100
AcDbLine
 10
9291.044787648948
 20
4498.726528474612
 30
0.0
 11
8675.110348543682
 21
4516.440678748941
 31
0.0
  0
LINE
  5
2424C
330
23E7E
100
AcDbEntity
  8
寸法
 62
     0
 48
50.0
370
    -2
100
AcDbLine
 10
8735.085550146115
 20
4514.715804043994
 30
0.0
 11
8739.139005702741
 21
4655.657527809707
 31
0.0
  0
LINE
  5
2424D
330
23E7E
100
AcDbEntity
  8
寸法
 62
     0
 48
50.0
370
    -2
100
AcDbLine
 10
8739.139005702741
 20
4655.657527809707
 30
0.0
 11
8749.488253932424
 21
5015.508737424293
 31
0.0
  0
INSERT
  5
2424E
330
23E7E
100
AcDbEntity
  8
寸法
 62
     0
 48
50.0
370
    -2
100
AcDbBlockReference
  2
_DOTSMALL
 10
8735.085550146115
 20
4514.715804043994
 30
0.0
 41
100.0
 42
100.0
 43
100.0
 50
268.3526390256378
  0
INSERT
  5
2424F
330
23E7E
100
AcDbEntity
  8
寸法
 62
     0
 48
50.0
370
    -2
100
AcDbBlockReference
  2
_DOTSMALL
 10
8739.139005702741
 20
4655.657527809707
 30
0.0
 41
100.0
 42
100.0
 43
100.0
 50
88.35263902563776
  0
MTEXT
  5
24250
330
23E7E
100
AcDbEntity
  8
寸法
 62
     7
 48
50.0
100
AcDbMText
 10
8645.792356067653
 20
4888.437258460605
 30
0.0
 40
120.0
 41
0.0
 71
     5
 72
     1
  1
\A1;141
  7
STYLE1
 11
0.0287479117491237
 21
0.9995866933738488
 31
0.0
 73
     1
 44
1.0
1001
ACAD
1000
MTEXTBEGIN
1070
    73
1070
     1
1070
    44
1040
1.0
1070
    74
1070
     0
1000
MTEXTEND
  0
POINT
  5
24251
330
23E7E
100
AcDbEntity
  8
DEFPOINTS
 62
     0
 48
50.0
100
AcDbPoint
 10
9315.089977073055
 20
4639.093294005342
 30
0.0
  0
POINT
  5
24252
330
23E7E
100
AcDbEntity
  8
DEFPOINTS
 62
     0
 48
50.0
100
AcDbPoint
 10
9311.036521516427
 20
4498.15157023963
 30
0.0
  0
POINT
  5
24253
330
23E7E
100
AcDbEntity
  8
DEFPOINTS
 62
     0
 48
50.0
100
AcDbPoint
 10
8735.085550146115
 20
4514.715804043994
 30
0.0
  0
ENDBLK
  5
23E8A
330
23E7E
100
AcDbEntity
  8
0
 48
50.0
100
AcDbBlockEnd
  0
BLOCK
  5
23E95
330
23E8B
100
AcDbEntity
  8
0
 48
50.0
100
AcDbBlockBegin
  2
*D31
 70
     1
 10
0.0
 20
0.0
 30
0.0
  3
*D31
  1

  0
LINE
  5
24241
330
23E8B
100
AcDbEntity
  8
寸法
 62
     0
 48
50.0
370
    -2
100
AcDbLine
 10
9263.193956914477
 20
2265.370545170661
 30
0.0
 11
9073.69395366784
 21
2265.370545170661
 31
0.0
  0
LINE
  5
24242
330
23E8B
100
AcDbEntity
  8
寸法
 62
     0
 48
50.0
370
    -2
100
AcDbLine
 10
9238.193956914475
 20
2465.370545170663
 30
0.0
 11
9073.69395366784
 21
2465.370545170663
 31
0.0
  0
LINE
  5
24243
330
23E8B
100
AcDbEntity
  8
寸法
 62
     0
 48
50.0
370
    -2
100
AcDbLine
 10
9133.69395366784
 20
2265.370545170661
 30
0.0
 11
9133.69395366784
 21
2465.370545170663
 31
0.0
  0
INSERT
  5
24244
330
23E8B
100
AcDbEntity
  8
寸法
 62
     0
 48
50.0
370
    -2
100
AcDbBlockReference
  2
_DOTSMALL
 10
9133.69395366784
 20
2265.370545170661
 30
0.0
 41
100.0
 42
100.0
 43
100.0
 50
270.0
  0
INSERT
  5
24245
330
23E8B
100
AcDbEntity
  8
寸法
 62
     0
 48
50.0
370
    -2
100
AcDbBlockReference
  2
_DOTSMALL
 10
9133.69395366784
 20
2465.370545170663
 30
0.0
 41
100.0
 42
100.0
 43
100.0
 50
90.0
  0
MTEXT
  5
24246
330
23E8B
100
AcDbEntity
  8
寸法
 62
     7
 48
50.0
100
AcDbMText
 10
9033.682142644218
 20
2365.370545170664
 30
0.0
 40
120.0
 41
0.0
 71
     5
 72
     1
  1
\A1;200
  7
STYLE1
 11
0.0000000000000001
 21
1.0
 31
0.0
 73
     1
 44
1.0
1001
ACAD
1000
MTEXTBEGIN
1070
    73
1070
     1
1070
    44
1040
1.0
1070
    74
1070
     0
1000
MTEXTEND
  0
POINT
  5
24247
330
23E8B
100
AcDbEntity
  8
DEFPOINTS
 62
     0
 48
50.0
100
AcDbPoint
 10
9283.193956914479
 20
2265.370545170661
 30
0.0
  0
POINT
  5
24248
330
23E8B
100
AcDbEntity
  8
DEFPOINTS
 62
     0
 48
50.0
100
AcDbPoint
 10
9258.193956914475
 20
2465.370545170663
 30
0.0
  0
POINT
  5
24249
330
23E8B
100
AcDbEntity
  8
DEFPOINTS
 62
     0
 48
50.0
100
AcDbPoint
 10
9133.69395366784
 20
2465.370545170663
 30
0.0
  0
ENDBLK
  5
23E96
330
23E8B
100
AcDbEntity
  8
0
 48
50.0
100
AcDbBlockEnd
  0
BLOCK
  5
23EA1
330
23E97
100
AcDbEntity
  8
0
 48
50.0
100
AcDbBlockBegin
  2
*D32
 70
     1
 10
0.0
 20
0.0
 30
0.0
  3
*D32
  1

  0
LINE
  5
24238
330
23E97
100
AcDbEntity
  8
寸法
 62
     0
 48
50.0
370
    -2
100
AcDbLine
 10
9483.193956914474
 20
2245.370545170661
 30
0.0
 11
9483.193956914474
 21
1919.323215870285
 31
0.0
  0
LINE
  5
24239
330
23E97
100
AcDbEntity
  8
寸法
 62
     0
 48
50.0
370
    -2
100
AcDbLine
 10
9283.193956914479
 20
2245.370545170661
 30
0.0
 11
9283.193956914479
 21
1919.323215870285
 31
0.0
  0
LINE
  5
2423A
330
23E97
100
AcDbEntity
  8
寸法
 62
     0
 48
50.0
370
    -2
100
AcDbLine
 10
9483.193956914474
 20
1979.323215870285
 30
0.0
 11
9283.193956914479
 21
1979.323215870285
 31
0.0
  0
INSERT
  5
2423B
330
23E97
100
AcDbEntity
  8
寸法
 62
     0
 48
50.0
370
    -2
100
AcDbBlockReference
  2
_DOTSMALL
 10
9483.193956914474
 20
1979.323215870285
 30
0.0
 41
100.0
 42
100.0
 43
100.0
  0
INSERT
  5
2423C
330
23E97
100
AcDbEntity
  8
寸法
 62
     0
 48
50.0
370
    -2
100
AcDbBlockReference
  2
_DOTSMALL
 10
9283.193956914479
 20
1979.323215870285
 30
0.0
 41
100.0
 42
100.0
 43
100.0
 50
180.0
  0
MTEXT
  5
2423D
330
23E97
100
AcDbEntity
  8
寸法
 62
     7
 48
50.0
100
AcDbMText
 10
9383.193956914476
 20
2079.335026893907
 30
0.0
 40
120.0
 41
0.0
 71
     5
 72
     1
  1
\A1;200
  7
STYLE1
 73
     1
 44
1.0
1001
ACAD
1000
MTEXTBEGIN
1070
    73
1070
     1
1070
    44
1040
1.0
1070
    74
1070
     0
1000
MTEXTEND
  0
POINT
  5
2423E
330
23E97
100
AcDbEntity
  8
DEFPOINTS
 62
     0
 48
50.0
100
AcDbPoint
 10
9483.193956914474
 20
2265.370545170661
 30
0.0
  0
POINT
  5
2423F
330
23E97
100
AcDbEntity
  8
DEFPOINTS
 62
     0
 48
50.0
100
AcDbPoint
 10
9283.193956914479
 20
2265.370545170661
 30
0.0
  0
POINT
  5
24240
330
23E97
100
AcDbEntity
  8
DEFPOINTS
 62
     0
 48
50.0
100
AcDbPoint
 10
9283.193956914479
 20
1979.323215870285
 30
0.0
  0
ENDBLK
  5
23EA2
330
23E97
100
AcDbEntity
  8
0
 48
50.0
100
AcDbBlockEnd
  0
ENDSEC
  0
SECTION
  2
ENTITIES
  0
LINE
  5
10B57
330
747D
100
AcDbEntity
  8
補助
  6
PHANTOM
 62
   230
 48
50.0
100
AcDbLine
 10
139.9999999999995
 20
11409.6
 30
0.0
 11
16307.2
 21
11409.6
 31
0.0
  0
LINE
  5
10B59
330
747D
100
AcDbEntity
  8
仕様書枠
  6
Continuous
 48
50.0
100
AcDbLine
 10
13107.2
 20
1200.0
 30
0.0
 11
13107.2
 21
-0.0000000000000729
 31
0.0
  0
LINE
  5
10B5C
330
747D
100
AcDbEntity
  8
仕様書枠
 48
50.0
100
AcDbLine
 10
16307.2
 20
1200.0
 30
0.0
 11
16307.2
 21
-0.0000000000000909
 31
0.0
  0
LINE
  5
10B5D
330
747D
100
AcDbEntity
  8
仕様書枠
 48
50.0
100
AcDbLine
 10
140.0
 20
0.0
 30
0.0
 11
16307.2
 21
-0.0000000000000909
 31
0.0
  0
LINE
  5
10B5E
330
747D
100
AcDbEntity
  8
補助
  6
PHANTOM
 62
   230
 48
50.0
100
AcDbLine
 10
16307.2
 20
11409.6
 30
0.0
 11
16307.2
 21
1200.0
 31
0.0
  0
LINE
  5
10B6C
330
747D
100
AcDbEntity
  8
仕様書枠
 48
50.0
100
AcDbLine
 10
13107.2
 20
1200.0
 30
0.0
 11
16307.2
 21
1200.0
 31
0.0
  0
LINE
  5
10B6D
330
747D
100
AcDbEntity
  8
補助
  6
PHANTOM
 62
   230
 48
50.0
100
AcDbLine
 10
13107.2
 20
11409.6
 30
0.0
 11
13107.2
 21
4800.0
 31
0.0
  0
LINE
  5
10B6F
330
747D
100
AcDbEntity
  8
補助
  6
PHANTOM
 62
   230
 48
50.0
100
AcDbLine
 10
13107.2
 20
4800.0
 30
0.0
 11
16307.2
 21
4800.0
 31
0.0
  0
LINE
  5
10B72
330
747D
100
AcDbEntity
  8
文字
 62
     7
 48
50.0
100
AcDbLine
 10
13187.2
 20
400.0
 30
0.0
 11
16227.2
 21
400.0
 31
0.0
  0
TEXT
  5
10B73
330
747D
100
AcDbEntity
  8
文字
 62
     7
 48
50.0
100
AcDbText
 10
13162.9790565769
 20
895.0906074299405
 30
0.0
 40
200.0
  1
外 形 図
  7
STYLE2
100
AcDbText
  0
TEXT
  5
10B74
330
747D
100
AcDbEntity
  8
文字
 62
     7
 48
50.0
100
AcDbText
 10
13201.43669998441
 20
477.2740661031255
 30
0.0
 40
160.0
  1
機種名
  7
STYLE2
100
AcDbText
  0
TEXT
  5
10B75
330
747D
100
AcDbEntity
  8
文字
 62
     7
 48
50.0
100
AcDbText
 10
13209.4053442172
 20
228.5435242569016
 30
0.0
 40
100.0
  1
○有効開口寸法 ： 824×1770(mm)
  7
STYLE2
100
AcDbText
  0
TEXT
  5
10B79
330
747D
100
AcDbEntity
  8
文字
 62
     7
 48
50.0
100
AcDbText
 10
14524.131837222
 20
1031.557706291228
 30
0.0
 40
100.0
  1
NO.09      <縮尺> S=1/40
  7
STYLE2
100
AcDbText
  0
LINE
  5
10B7B
330
747D
100
AcDbEntity
  8
仕様書枠
 48
50.0
100
AcDbLine
 10
13107.2
 20
800.0
 30
0.0
 11
14251.2
 21
800.0
 31
0.0
  0
LINE
  5
10B88
330
747D
100
AcDbEntity
  8
仕様書枠
  6
Continuous
 48
50.0
100
AcDbLine
 10
14251.2
 20
1200.0
 30
0.0
 11
14251.2
 21
800.0
 31
0.0
  0
LINE
  5
12765
330
747D
100
AcDbEntity
  8
Ｇ．Ｌ
100
AcDbLine
 10
4541.629972436509
 20
2465.370545170663
 30
0.0
 11
12642.06011713101
 21
2465.370545170663
 31
0.0
  0
TEXT
  5
127AA
330
747D
100
AcDbEntity
  8
部品1
100
AcDbText
 10
4599.545247166584
 20
2479.324273209888
 30
0.0
 40
125.0
  1
▽G.L
  7
STYLE2
100
AcDbText
  0
LINE
  5
13BE8
330
747D
100
AcDbEntity
  8
部品1
100
AcDbLine
 10
5629.896575106992
 20
2565.370545170663
 30
0.0
 11
7159.89657510699
 21
2565.370545170663
 31
0.0
  0
LINE
  5
13BE9
330
747D
100
AcDbEntity
  8
部品1
100
AcDbLine
 10
5629.896575106992
 20
4405.370545170662
 30
0.0
 11
7159.89657510699
 21
4405.370545170661
 31
0.0
  0
LINE
  5
13BEF
330
747D
100
AcDbEntity
  8
部品1
100
AcDbLine
 10
5689.896575106992
 20
2614.370545170667
 30
0.0
 11
6258.196575106993
 21
2614.370545170672
 31
0.0
  0
DIMENSION
  5
13BF0
330
747D
100
AcDbEntity
  8
寸法
 48
50.0
100
AcDbDimension
  2
*D1
 10
7209.896575106991
 20
5053.034566750596
 30
0.0
 11
6398.236415372987
 21
5053.034566750596
 31
0.0
 70
   160
 71
     5
 42
1629.999999999998
  3
INABA_S40G
100
AcDbAlignedDimension
 13
5579.896575106992
 23
4640.370545170668
 33
0.0
 14
7209.896575106991
 24
4640.370545170667
 34
0.0
100
AcDbRotatedDimension
  0
LINE
  5
13C1F
330
747D
100
AcDbEntity
  8
部品1
100
AcDbLine
 10
5629.896575106993
 20
4499.370545170666
 30
0.0
 11
5629.896575106992
 21
2465.370545170663
 31
0.0
  0
LINE
  5
13CFC
330
747D
100
AcDbEntity
  8
部品1
100
AcDbLine
 10
7099.896575106992
 20
4405.370545170664
 30
0.0
 11
7099.896575106992
 21
2607.370545170685
 31
0.0
  0
LINE
  5
13CFE
330
747D
100
AcDbEntity
  8
部品1
100
AcDbLine
 10
5689.896575106992
 20
4405.370545170662
 30
0.0
 11
5689.896575106992
 21
2607.370545170667
 31
0.0
  0
LINE
  5
13D18
330
747D
100
AcDbEntity
  8
部品1
100
AcDbLine
 10
7159.896575106991
 20
4499.370545170668
 30
0.0
 11
7159.896575106991
 21
2465.370545170665
 31
0.0
  0
LINE
  5
13E0D
330
747D
100
AcDbEntity
  8
部品1
100
AcDbLine
 10
6029.896575106992
 20
2565.370545170663
 30
0.0
 11
6029.896575106992
 21
2465.370545170663
 31
0.0
  0
DIMENSION
  5
141C3
330
747D
100
AcDbEntity
  8
寸法
 48
50.0
100
AcDbDimension
  2
*D2
 10
7159.896575106992
 20
4844.990804597937
 30
0.0
 11
7523.381856481229
 21
4844.990804597937
 31
0.0
 70
   160
 71
     5
 42
49.99999999999909
  3
INABA_S40G
100
AcDbAlignedDimension
 13
7209.896575106991
 23
4640.370545170667
 33
0.0
 14
7159.896575106992
 24
4640.37054517067
 34
0.0
100
AcDbRotatedDimension
  0
DIMENSION
  5
14206
330
747D
100
AcDbEntity
  8
寸法
 48
50.0
100
AcDbDimension
  2
*D3
 10
5579.896575106992
 20
4844.990804597935
 30
0.0
 11
5266.411293732747
 21
4844.990804597935
 31
0.0
 70
   160
 71
     5
 42
49.99999999999909
  3
INABA_S40G
100
AcDbAlignedDimension
 13
5629.896575106992
 23
4640.370545170669
 33
0.0
 14
5579.896575106992
 24
4640.370545170668
 34
0.0
100
AcDbRotatedDimension
1001
ACAD
1000
DSTYLE
1002
{
1002
}
  0
LINE
  5
1427D
330
747D
100
AcDbEntity
  8
部品1
100
AcDbLine
 10
6258.196575106993
 20
2621.870545170672
 30
0.0
 11
7099.896575106992
 21
2621.870545170681
 31
0.0
  0
LINE
  5
14517
330
747D
100
AcDbEntity
  8
部品1
100
AcDbLine
 10
7164.896575106991
 20
2610.370545170666
 30
0.0
 11
7164.896575106991
 21
2465.370545170665
 31
0.0
  0
LINE
  5
1451B
330
747D
100
AcDbEntity
  8
破線
 48
5.0
100
AcDbLine
 10
7184.896575106991
 20
2310.370545170664
 30
0.0
 11
7164.89657510699
 21
2310.370545170664
 31
0.0
  0
LINE
  5
1451C
330
747D
100
AcDbEntity
  8
部品1
100
AcDbLine
 10
5624.896575106991
 20
2610.370545170665
 30
0.0
 11
5624.896575106993
 21
2465.370545170663
 31
0.0
  0
LINE
  5
1451F
330
747D
100
AcDbEntity
  8
破線
 48
5.0
100
AcDbLine
 10
5604.896575106992
 20
2310.370545170664
 30
0.0
 11
5624.896575106994
 21
2310.370545170664
 31
0.0
  0
DIMENSION
  5
14521
330
747D
100
AcDbEntity
  8
寸法
100
AcDbDimension
  2
*D4
 10
5684.896575106989
 20
10260.50542065647
 30
0.0
 11
5321.411293732682
 21
10260.50542065647
 31
0.0
 70
   160
 71
     5
 42
55.00000000003456
  3
INABA_S40G
100
AcDbAlignedDimension
 13
5629.896575106954
 23
9836.529129654749
 33
0.0
 14
5684.896575106989
 24
9836.529129654749
 34
0.0
100
AcDbRotatedDimension
1001
ACAD
1000
DSTYLE
1002
{
1002
}
  0
LINE
  5
14522
330
747D
100
AcDbEntity
  8
部品1
100
AcDbLine
 10
5684.896575106955
 20
9836.529129654717
 30
0.0
 11
5684.896575106956
 21
9808.529129654717
 31
0.0
  0
LINE
  5
14523
330
747D
100
AcDbEntity
  8
部品1
100
AcDbLine
 10
5629.896575106909
 20
9836.529129654749
 30
0.0
 11
5629.89657510699
 21
7206.5291296547
 31
0.0
  0
LINE
  5
14524
330
747D
100
AcDbEntity
  8
部品1
100
AcDbLine
 10
7104.896575107009
 20
9836.529129654843
 30
0.0
 11
7104.896575107009
 21
9808.529129654845
 31
0.0
  0
LINE
  5
14525
330
747D
100
AcDbEntity
  8
部品1
100
AcDbLine
 10
7104.896575107009
 20
9836.529129654865
 30
0.0
 11
7104.896575107009
 21
9808.529129654864
 31
0.0
  0
DIMENSION
  5
14526
330
747D
100
AcDbEntity
  8
寸法
100
AcDbDimension
  2
*D5
 10
8089.906663425471
 20
7206.529129654829
 30
0.0
 11
8089.906663425471
 21
8502.406989406184
 31
0.0
 70
   160
 71
     5
 42
2630.0
  3
INABA_S40G
100
AcDbAlignedDimension
 13
7159.896575107049
 23
9836.529129654829
 33
0.0
 14
7159.896575106991
 24
7206.529129654829
 34
0.0
 50
90.0
100
AcDbRotatedDimension
1001
ACAD
1000
DSTYLE
1002
{
1002
}
  0
LINE
  5
14527
330
747D
100
AcDbEntity
  8
部品1
100
AcDbLine
 10
7159.896575107049
 20
9836.529129654829
 30
0.0
 11
7159.896575106991
 21
7206.529129654814
 31
0.0
  0
LINE
  5
14528
330
747D
100
AcDbEntity
  8
部品1
100
AcDbLine
 10
6684.896575107007
 20
9836.529129654865
 30
0.0
 11
6684.896575107007
 21
9808.529129654864
 31
0.0
  0
LINE
  5
1452A
330
747D
100
AcDbEntity
  8
部品1
100
AcDbLine
 10
6104.896575106989
 20
9836.529129654865
 30
0.0
 11
6104.896575106989
 21
9808.529129654864
 31
0.0
  0
LINE
  5
1452B
330
747D
100
AcDbEntity
  8
部品1
100
AcDbLine
 10
6104.896575106989
 20
9836.529129654749
 30
0.0
 11
6104.896575106989
 21
9808.529129654749
 31
0.0
  0
LINE
  5
1452C
330
747D
100
AcDbEntity
  8
部品1
100
AcDbLine
 10
6104.896575106989
 20
9836.529129654749
 30
0.0
 11
6104.896575106989
 21
9808.52912965475
 31
0.0
  0
LINE
  5
1452D
330
747D
100
AcDbEntity
  8
部品1
100
AcDbLine
 10
5684.896575106989
 20
9836.529129654749
 30
0.0
 11
5684.896575106989
 21
9808.52912965475
 31
0.0
  0
DIMENSION
  5
1452E
330
747D
100
AcDbEntity
  8
寸法
100
AcDbDimension
  2
*D6
 10
7807.322920841419
 20
9781.529129654849
 30
0.0
 11
7807.322920841418
 21
10145.01441102908
 31
0.0
 70
   160
 71
     5
 42
54.99999999999636
  3
INABA_S40G
100
AcDbAlignedDimension
 13
7159.896575107008
 23
9836.529129654843
 33
0.0
 14
7159.896575107008
 24
9781.529129654849
 34
0.0
 50
90.0
100
AcDbRotatedDimension
1001
ACAD
1000
DSTYLE
1002
{
1002
}
  0
DIMENSION
  5
14530
330
747D
100
AcDbEntity
  8
寸法
100
AcDbDimension
  2
*D7
 10
7807.322920841402
 20
7206.529129654829
 30
0.0
 11
7807.3229208414
 21
6828.667662749968
 31
0.0
 70
   160
 71
     5
 42
54.99999999999636
  3
INABA_S40G
100
AcDbAlignedDimension
 13
7159.896575106991
 23
7261.529129654826
 33
0.0
 14
7159.896575106991
 24
7206.529129654829
 34
0.0
 50
90.0
100
AcDbRotatedDimension
1001
ACAD
1000
DSTYLE
1002
{
1002
}
  0
DIMENSION
  5
14531
330
747D
100
AcDbEntity
  8
寸法
100
AcDbDimension
  2
*D8
 10
7807.322920841402
 20
7261.529129654826
 30
0.0
 11
7807.322920841402
 21
8488.849300312082
 31
0.0
 70
   160
  1
6X420=<>
 71
     5
 42
2520.000000000022
  3
INABA_S40G
100
AcDbAlignedDimension
 13
7159.896575107048
 23
9781.529129654849
 33
0.0
 14
7159.896575106991
 24
7261.529129654826
 34
0.0
 50
90.0
100
AcDbRotatedDimension
1001
ACAD
1000
DSTYLE
1002
{
1002
}
  0
DIMENSION
  5
14532
330
747D
100
AcDbEntity
  8
寸法
100
AcDbDimension
  2
*D9
 10
7159.896575106991
 20
6411.750743086864
 30
0.0
 11
6414.367781762833
 21
6411.750743086864
 31
0.0
 70
   160
 71
     5
 42
1530.0
  3
INABA_S40G
100
AcDbAlignedDimension
 13
5629.89657510699
 23
7206.529129654666
 33
0.0
 14
7159.896575106991
 24
7206.529129654829
 34
0.0
100
AcDbRotatedDimension
1001
ACAD
1000
DSTYLE
1002
{
1002
}
  0
DIMENSION
  5
14533
330
747D
100
AcDbEntity
  8
寸法
100
AcDbDimension
  2
*D10
 10
5689.896575106991
 20
6646.969723886283
 30
0.0
 11
6102.196575106991
 21
6646.969723886283
 31
0.0
 70
   160
  1
有効開口部間口\P824
 71
     5
 42
824.6000000000003
  3
INABA_S40G
100
AcDbAlignedDimension
 13
6514.496575106992
 23
7206.529129654808
 33
0.0
 14
5689.896575106991
 24
7206.529129654699
 34
0.0
100
AcDbRotatedDimension
1001
ACAD
1000
DSTYLE
1002
{
1002
}
  0
LWPOLYLINE
  5
14534
330
747D
100
AcDbEntity
  8
部品1
100
AcDbPolyline
 90
        4
 70
     1
 43
0.0
 10
6013.161241992772
 20
6213.351749519604
 10
6013.161241992772
 20
5973.459427974071
 10
6776.631908221211
 20
5973.459427974071
 10
6776.631908221211
 20
6213.351749519604
  0
TEXT
  5
14535
330
747D
100
AcDbEntity
  8
部品1
100
AcDbText
 10
6103.08085182181
 20
6020.458220301081
 30
0.0
 40
135.0
  1
平面図
  7
STYLE2
100
AcDbText
  0
LINE
  5
14538
330
747D
100
AcDbEntity
  8
部品1
100
AcDbLine
 10
6676.896575107207
 20
7308.529129654793
 30
0.0
 11
5657.896575106971
 21
7308.529129654733
 31
0.0
  0
LINE
  5
1453A
330
747D
100
AcDbEntity
  8
細線
100
AcDbLine
 10
6685.496575106985
 20
7243.52912965483
 30
0.0
 11
6556.346575106963
 21
7243.52912965483
 31
0.0
  0
LINE
  5
1453B
330
747D
100
AcDbEntity
  8
細線
100
AcDbLine
 10
6670.49657510698
 20
7266.529129654833
 30
0.0
 11
6232.196575106981
 21
7266.529129654836
 31
0.0
  0
LINE
  5
1453C
330
747D
100
AcDbEntity
  8
細線
 48
50.0
100
AcDbLine
 10
7099.896575106992
 20
7222.52912965483
 30
0.0
 11
6258.196575106984
 21
7222.529129654829
 31
0.0
  0
LINE
  5
14543
330
747D
100
AcDbEntity
  8
部品1
100
AcDbLine
 10
5684.896575106989
 20
9808.529129654866
 30
0.0
 11
7131.896575107031
 21
9808.529129654862
 31
0.0
  0
LINE
  5
14544
330
747D
100
AcDbEntity
  8
部品1
100
AcDbLine
 10
7159.896575106991
 20
7206.529129654814
 30
0.0
 11
5629.89657510699
 21
7206.529129654734
 31
0.0
  0
LINE
  5
14546
330
747D
100
AcDbEntity
  8
部品1
100
AcDbLine
 10
5657.896575106973
 20
7261.529129654697
 30
0.0
 11
5657.896575107045
 21
9808.52912965475
 31
0.0
  0
LINE
  5
14547
330
747D
100
AcDbEntity
  8
細線
 48
50.0
100
AcDbLine
 10
6217.196575106979
 20
7256.529129654802
 30
0.0
 11
5689.896575106987
 21
7256.529129654714
 31
0.0
  0
LINE
  5
14548
330
747D
100
AcDbEntity
  8
細線
100
AcDbLine
 10
6258.196575106989
 20
7209.529129654747
 30
0.0
 11
6158.196575106982
 21
7209.529129654733
 31
0.0
  0
LINE
  5
14549
330
747D
100
AcDbEntity
  8
細線
100
AcDbLine
 10
6243.196575106986
 20
7232.529129654825
 30
0.0
 11
5704.896575106989
 21
7232.529129654746
 31
0.0
  0
LINE
  5
1454A
330
747D
100
AcDbEntity
  8
部品1
100
AcDbLine
 10
5680.896575106991
 20
7206.5291296547
 30
0.0
 11
5629.89657510699
 21
7206.5291296547
 31
0.0
  0
LINE
  5
1454B
330
747D
100
AcDbEntity
  8
部品1
100
AcDbLine
 10
5657.896575106973
 20
7261.529129654665
 30
0.0
 11
5629.89657510699
 21
7261.529129654665
 31
0.0
  0
LINE
  5
1454C
330
747D
100
AcDbEntity
  8
部品1
100
AcDbLine
 10
5657.896575106973
 20
7261.529129654698
 30
0.0
 11
5629.89657510699
 21
7261.529129654698
 31
0.0
  0
LINE
  5
1454D
330
747D
100
AcDbEntity
  8
部品1
100
AcDbLine
 10
5657.896575106989
 20
7261.529129654713
 30
0.0
 11
5629.89657510699
 21
7261.529129654713
 31
0.0
  0
LINE
  5
1454E
330
747D
100
AcDbEntity
  8
部品1
100
AcDbLine
 10
5629.89657510699
 20
7261.529129654665
 30
0.0
 11
5629.89657510699
 21
7206.529129654666
 31
0.0
  0
LINE
  5
1454F
330
747D
100
AcDbEntity
  8
部品1
100
AcDbLine
 10
5689.896575106987
 20
7261.529129654661
 30
0.0
 11
5661.896575106987
 21
7261.529129654661
 31
0.0
  0
LINE
  5
14550
330
747D
100
AcDbEntity
  8
部品1
100
AcDbLine
 10
5680.896575106991
 20
7206.529129654665
 30
0.0
 11
5680.896575106989
 21
7213.529129654701
 31
0.0
  0
LINE
  5
14551
330
747D
100
AcDbEntity
  8
部品1
100
AcDbLine
 10
5689.896575106989
 20
7213.529129654698
 30
0.0
 11
5680.896575106989
 21
7213.529129654701
 31
0.0
  0
LINE
  5
14552
330
747D
100
AcDbEntity
  8
部品1
100
AcDbLine
 10
5689.896575106989
 20
7213.529129654698
 30
0.0
 11
5689.896575106987
 21
7261.529129654665
 31
0.0
  0
LINE
  5
14553
330
747D
100
AcDbEntity
  8
細線
100
AcDbLine
 10
5704.896575106989
 20
7239.529129654745
 30
0.0
 11
5704.896575106989
 21
7232.529129654746
 31
0.0
  0
LINE
  5
14554
330
747D
100
AcDbEntity
  8
細線
100
AcDbLine
 10
5704.896575106989
 20
7239.529129654745
 30
0.0
 11
5689.896575106988
 21
7239.529129654745
 31
0.0
  0
LINE
  5
14559
330
747D
100
AcDbEntity
  8
細線
100
AcDbLine
 10
6237.196575106963
 20
7239.529129654733
 30
0.0
 11
6237.196575106966
 21
7243.529129654733
 31
0.0
  0
LINE
  5
1455A
330
747D
100
AcDbEntity
  8
細線
100
AcDbLine
 10
6237.196575106963
 20
7239.529129654733
 30
0.0
 11
6217.196575106974
 21
7239.529129654733
 31
0.0
  0
LINE
  5
1455B
330
747D
100
AcDbEntity
  8
細線
100
AcDbLine
 10
6217.196575106974
 20
7239.529129654733
 30
0.0
 11
6217.196575106984
 21
7273.52912965474
 31
0.0
  0
LINE
  5
1455C
330
747D
100
AcDbEntity
  8
細線
100
AcDbLine
 10
6258.196575106982
 20
7209.529129654747
 30
0.0
 11
6258.19657510699
 21
7239.529129654748
 31
0.0
  0
LINE
  5
1455D
330
747D
100
AcDbEntity
  8
部品1
100
AcDbLine
 10
5657.896575107012
 20
9808.52912965475
 30
0.0
 11
6104.896575106989
 21
9808.529129654754
 31
0.0
  0
LINE
  5
1455F
330
747D
100
AcDbEntity
  8
部品1
100
AcDbLine
 10
5657.896575106963
 20
8941.529129654703
 30
0.0
 11
5629.896575106964
 21
8941.529129654703
 31
0.0
  0
LINE
  5
14560
330
747D
100
AcDbEntity
  8
部品1
100
AcDbLine
 10
5657.896575106956
 20
9781.529129654721
 30
0.0
 11
5629.896575106957
 21
9781.529129654721
 31
0.0
  0
LINE
  5
14562
330
747D
100
AcDbEntity
  8
部品1
100
AcDbLine
 10
7131.896575107042
 20
9808.529129654861
 30
0.0
 11
7131.896575107008
 21
8534.029129654809
 31
0.0
  0
LINE
  5
14563
330
747D
100
AcDbEntity
  8
細線
100
AcDbLine
 10
7097.89657510699
 20
7279.529129654827
 30
0.0
 11
6993.696575106975
 21
7279.529129654831
 31
0.0
  0
LINE
  5
14564
330
747D
100
AcDbEntity
  8
細線
 48
50.0
100
AcDbLine
 10
7099.89657510699
 20
7256.529129654833
 30
0.0
 11
6685.496575106988
 21
7256.529129654835
 31
0.0
  0
LINE
  5
14565
330
747D
100
AcDbEntity
  8
細線
100
AcDbLine
 10
6676.896575107209
 20
7307.529129654827
 30
0.0
 11
6644.496575106986
 21
7307.529129654827
 31
0.0
  0
LINE
  5
14566
330
747D
100
AcDbEntity
  8
細線
100
AcDbLine
 10
6664.496575106986
 20
7271.529129654831
 30
0.0
 11
6664.496575106986
 21
7279.529129654831
 31
0.0
  0
LINE
  5
14567
330
747D
100
AcDbEntity
  8
細線
100
AcDbLine
 10
6664.496575106986
 20
7271.529129654831
 30
0.0
 11
6644.496575106986
 21
7271.529129654831
 31
0.0
  0
LINE
  5
14568
330
747D
100
AcDbEntity
  8
細線
100
AcDbLine
 10
6644.496575106986
 20
7271.529129654831
 30
0.0
 11
6644.496575106986
 21
7307.529129654827
 31
0.0
  0
LINE
  5
14569
330
747D
100
AcDbEntity
  8
細線
100
AcDbLine
 10
6685.496575106985
 20
7243.529129654831
 30
0.0
 11
6685.496575106992
 21
7273.529129654831
 31
0.0
  0
LINE
  5
1456A
330
747D
100
AcDbEntity
  8
部品1
100
AcDbLine
 10
7159.896575106991
 20
7206.529129654829
 30
0.0
 11
7108.896575106991
 21
7206.529129654829
 31
0.0
  0
LINE
  5
1456B
330
747D
100
AcDbEntity
  8
部品1
100
AcDbLine
 10
7159.896575106992
 20
7261.529129654826
 30
0.0
 11
7159.896575106991
 21
7206.529129654829
 31
0.0
  0
LINE
  5
1456C
330
747D
100
AcDbEntity
  8
部品1
100
AcDbLine
 10
7131.896575106992
 20
7261.529129654826
 30
0.0
 11
7159.896575106991
 21
7261.529129654826
 31
0.0
  0
LINE
  5
1456E
330
747D
100
AcDbEntity
  8
部品1
100
AcDbLine
 10
7099.896575106992
 20
7261.529129654826
 30
0.0
 11
7131.896575106992
 21
7261.529129654826
 31
0.0
  0
LINE
  5
1456F
330
747D
100
AcDbEntity
  8
細線
100
AcDbLine
 10
7097.89657510699
 20
7261.529129654826
 30
0.0
 11
7097.89657510699
 21
7279.529129654825
 31
0.0
  0
LINE
  5
14570
330
747D
100
AcDbEntity
  8
部品1
100
AcDbLine
 10
7108.896575106991
 20
7206.529129654828
 30
0.0
 11
7108.896575106991
 21
7213.529129654829
 31
0.0
  0
LINE
  5
14571
330
747D
100
AcDbEntity
  8
部品1
100
AcDbLine
 10
7108.896575106991
 20
7213.529129654829
 30
0.0
 11
7099.896575106992
 21
7213.529129654829
 31
0.0
  0
LINE
  5
14572
330
747D
100
AcDbEntity
  8
部品1
100
AcDbLine
 10
7099.896575106992
 20
7213.529129654829
 30
0.0
 11
7099.896575106992
 21
7261.529129654826
 31
0.0
  0
LINE
  5
14573
330
747D
100
AcDbEntity
  8
部品1
100
AcDbLine
 10
7131.896575107024
 20
7261.529129654842
 30
0.0
 11
7159.896575107024
 21
7261.529129654842
 31
0.0
  0
LINE
  5
14585
330
747D
100
AcDbEntity
  8
部品1
100
AcDbLine
 10
7131.896575107008
 20
8941.529129654833
 30
0.0
 11
7159.896575107008
 21
8941.529129654833
 31
0.0
  0
LINE
  5
14586
330
747D
100
AcDbEntity
  8
部品1
100
AcDbLine
 10
7131.896575107008
 20
9781.529129654849
 30
0.0
 11
7159.896575107008
 21
9781.529129654849
 31
0.0
  0
DIMENSION
  5
14587
330
747D
100
AcDbEntity
  8
寸法
100
AcDbDimension
  2
*D11
 10
7159.896575107008
 20
10260.50542065647
 30
0.0
 11
7468.381856481247
 21
10260.50542065647
 31
0.0
 70
   160
 71
     5
 42
55.0
  3
INABA_S40G
100
AcDbAlignedDimension
 13
7104.896575107009
 23
9836.529129654843
 33
0.0
 14
7159.896575107008
 24
9836.529129654843
 34
0.0
100
AcDbRotatedDimension
1001
ACAD
1000
DSTYLE
1002
{
1002
}
  0
LINE
  5
14588
330
747D
100
AcDbEntity
  8
部品1
100
AcDbLine
 10
5629.89657510699
 20
9836.529129654749
 30
0.0
 11
7159.896575107005
 21
9836.529129654829
 31
0.0
  0
LINE
  5
146B2
330
747D
100
AcDbEntity
  8
破線
 48
5.0
100
AcDbLine
 10
7164.896575106991
 20
2465.370545170665
 30
0.0
 11
7164.896575106991
 21
2310.370545170664
 31
0.0
  0
LINE
  5
146B3
330
747D
100
AcDbEntity
  8
破線
 48
5.0
100
AcDbLine
 10
5624.896575106993
 20
2465.370545170663
 30
0.0
 11
5624.896575106991
 21
2310.370545170664
 31
0.0
  0
DIMENSION
  5
146E8
330
747D
100
AcDbEntity
  8
寸法
 48
50.0
100
AcDbDimension
  2
*D12
 10
5629.896575106992
 20
4844.990804597935
 30
0.0
 11
6408.150518267866
 21
4844.990804597935
 31
0.0
 70
   160
  1
柱外寸法<>
 71
     5
 42
1530.0
  3
INABA_S40G
100
AcDbAlignedDimension
 13
7159.896575106992
 23
4640.370545170666
 33
0.0
 14
5629.896575106992
 24
4640.370545170669
 34
0.0
100
AcDbRotatedDimension
  0
LINE
  5
1483A
330
747D
100
AcDbEntity
  8
寸法
 48
50.0
100
AcDbLine
 10
6205.272159755243
 20
7136.856727268281
 30
0.0
 11
6424.424099930968
 21
7136.856727268281
 31
0.0
  0
LINE
  5
1483B
330
747D
100
AcDbEntity
  8
寸法
 48
50.0
100
AcDbLine
 10
6424.424099930968
 20
7136.856727268281
 30
0.0
 11
6335.139881335547
 21
7160.780361537767
 31
0.0
  0
LINE
  5
1483C
330
747D
100
AcDbEntity
  8
寸法
 48
50.0
100
AcDbLine
 10
6335.139881335547
 20
7160.780361537767
 30
0.0
 11
6335.139881335547
 21
7107.116726955978
 31
0.0
  0
LINE
  5
1483D
330
747D
100
AcDbEntity
  8
寸法
 48
50.0
100
AcDbLine
 10
5955.252704552265
 20
7103.634770782945
 30
0.0
 11
6006.658712462368
 21
7103.634770782945
 31
0.0
  0
LINE
  5
1483E
330
747D
100
AcDbEntity
  8
寸法
 48
50.0
100
AcDbLine
 10
6006.658712462368
 20
7103.634770782945
 30
0.0
 11
6006.658712462368
 21
7134.944929435111
 31
0.0
  0
LINE
  5
1483F
330
747D
100
AcDbEntity
  8
寸法
 48
50.0
100
AcDbLine
 10
6006.658712462368
 20
7134.944929435111
 30
0.0
 11
6036.420044453792
 21
7134.944929435111
 31
0.0
  0
LINE
  5
14840
330
747D
100
AcDbEntity
  8
寸法
 48
50.0
100
AcDbLine
 10
6036.420044453792
 20
7134.944929435111
 30
0.0
 11
5980.955708507317
 21
7172.524380363722
 31
0.0
  0
LINE
  5
14841
330
747D
100
AcDbEntity
  8
寸法
 48
50.0
100
AcDbLine
 10
5925.491372560841
 20
7134.944929435111
 30
0.0
 11
5980.955708507316
 21
7172.524380363722
 31
0.0
  0
LINE
  5
14842
330
747D
100
AcDbEntity
  8
寸法
 48
50.0
100
AcDbLine
 10
5955.252704552265
 20
7134.944929435111
 30
0.0
 11
5925.491372560841
 21
7134.944929435111
 31
0.0
  0
LINE
  5
14843
330
747D
100
AcDbEntity
  8
寸法
 48
50.0
100
AcDbLine
 10
5955.252704552265
 20
7103.634770782945
 30
0.0
 11
5955.252704552265
 21
7134.944929435111
 31
0.0
  0
LINE
  5
14844
330
747D
100
AcDbEntity
  8
寸法
 48
50.0
100
AcDbLine
 10
6006.658712462368
 20
7103.634770782945
 30
0.0
 11
5955.252704552265
 21
7103.634770782945
 31
0.0
  0
TEXT
  5
149A1
330
747D
100
AcDbEntity
  8
部品1
100
AcDbText
 10
6103.686645730728
 20
1393.16147297718
 30
0.0
 40
135.0
  1
正面図
  7
STYLE2
100
AcDbText
  0
LWPOLYLINE
  5
149A2
330
747D
100
AcDbEntity
  8
部品1
100
AcDbPolyline
 90
        4
 70
     1
 43
0.0
 10
6013.161241992772
 20
1586.055002195703
 10
6013.161241992772
 20
1346.162680650171
 10
6776.631908221211
 20
1346.162680650171
 10
6776.631908221211
 20
1586.055002195703
  0
LINE
  5
149E3
330
747D
100
AcDbEntity
  8
部品1
100
AcDbLine
 10
5629.896575106992
 20
2607.370545170667
 30
0.0
 11
7159.89657510699
 21
2607.37054517068
 31
0.0
  0
LINE
  5
14A30
330
747D
100
AcDbEntity
  8
細線
100
AcDbLine
 10
6258.196575106989
 20
7239.529129654747
 30
0.0
 11
6243.196575106987
 21
7239.529129654743
 31
0.0
  0
LINE
  5
14A31
330
747D
100
AcDbEntity
  8
細線
100
AcDbLine
 10
6243.196575106986
 20
7232.529129654825
 30
0.0
 11
6243.196575106987
 21
7239.529129654743
 31
0.0
  0
LINE
  5
14A32
330
747D
100
AcDbEntity
  8
細線
100
AcDbLine
 10
6685.496575106985
 20
7273.529129654831
 30
0.0
 11
6670.496575106982
 21
7273.529129654829
 31
0.0
  0
LINE
  5
14A33
330
747D
100
AcDbEntity
  8
細線
100
AcDbLine
 10
6670.49657510698
 20
7266.529129654829
 30
0.0
 11
6670.496575106982
 21
7273.529129654829
 31
0.0
  0
LINE
  5
14A54
330
747D
100
AcDbEntity
  8
細線
100
AcDbLine
 10
6243.196575106965
 20
7243.529129654739
 30
0.0
 11
6237.196575106966
 21
7243.529129654739
 31
0.0
  0
LINE
  5
14A58
330
747D
100
AcDbEntity
  8
細線
100
AcDbLine
 10
6670.496575106986
 20
7279.529129654831
 30
0.0
 11
6664.496575106986
 21
7279.529129654831
 31
0.0
  0
LINE
  5
14AA3
330
747D
100
AcDbEntity
  8
細線
 48
50.0
100
AcDbLine
 10
7097.89657510699
 20
7261.529129654826
 30
0.0
 11
7099.896575106992
 21
7261.529129654826
 31
0.0
  0
LINE
  5
14AE0
330
747D
100
AcDbEntity
  8
細線
100
AcDbLine
 10
6481.346575107008
 20
7243.529129654854
 30
0.0
 11
6473.846575107014
 21
7266.529129654784
 31
0.0
  0
LINE
  5
14AE1
330
747D
100
AcDbEntity
  8
細線
100
AcDbLine
 10
6421.346575107008
 20
7243.529129654866
 30
0.0
 11
6428.846575107015
 21
7266.529129654784
 31
0.0
  0
LINE
  5
14AE2
330
747D
100
AcDbEntity
  8
細線
100
AcDbLine
 10
6023.196575106915
 20
7209.529129654836
 30
0.0
 11
6030.696575106921
 21
7232.529129654754
 31
0.0
  0
LINE
  5
14AE3
330
747D
100
AcDbEntity
  8
細線
100
AcDbLine
 10
6083.196575106915
 20
7209.529129654825
 30
0.0
 11
6075.69657510692
 21
7232.529129654754
 31
0.0
  0
LINE
  5
14C0C
330
747D
100
AcDbEntity
  8
部品1
100
AcDbLine
 10
6676.8965751072
 20
7337.029129654792
 30
0.0
 11
5686.396575106892
 21
7337.029129654736
 31
0.0
  0
LINE
  5
14C0E
330
747D
100
AcDbEntity
  8
破線
 48
10.0
100
AcDbLine
 10
6676.896575107193
 20
7360.529129654792
 30
0.0
 11
5709.896575106984
 21
7360.529129654735
 31
0.0
  0
LINE
  5
14C31
330
747D
100
AcDbEntity
  8
部品1
100
AcDbLine
 10
5686.396575106897
 20
9780.02912965486
 30
0.0
 11
5686.396575106988
 21
7337.02912965483
 31
0.0
  0
LINE
  5
14C32
330
747D
100
AcDbEntity
  8
破線
 48
10.0
100
AcDbLine
 10
5709.8965751069
 20
9756.529129654861
 30
0.0
 11
5709.89657510693
 21
8986.529129654739
 31
0.0
  0
LINE
  5
14C33
330
747D
100
AcDbEntity
  8
部品1
 48
50.0
100
AcDbLine
 10
5686.396575106988
 20
7337.029129654832
 30
0.0
 11
5657.896575106989
 21
7308.529129654833
 31
0.0
  0
LINE
  5
14C5B
330
747D
100
AcDbEntity
  8
細線
100
AcDbLine
 10
5689.896575106989
 20
7213.529129654698
 30
0.0
 11
5689.896575106989
 21
7209.529129654747
 31
0.0
  0
LINE
  5
14D86
330
747D
100
AcDbEntity
  8
細線
100
AcDbLine
 10
5689.896575106992
 20
4397.370545170665
 30
0.0
 11
7099.896575106992
 21
4397.370545170665
 31
0.0
  0
TEXT
  5
14DEF
330
747D
100
AcDbEntity
  8
文字
 62
     7
 48
50.0
100
AcDbText
 10
14641.2525855784
 20
871.1744590657925
 30
0.0
 40
100.0
  1
～一般型・多雪地型～
  7
STYLE2
100
AcDbText
  0
TEXT
  5
15A76
330
747D
100
AcDbEntity
  8
文字
 62
     7
 48
50.0
100
AcDbText
 10
14497.44379311849
 20
483.8967129911411
 30
0.0
 40
160.0
  1
ＮＸＮ－４１ＣＳ
  7
STYLE2
100
AcDbText
  0
LINE
  5
1B03B
330
747D
100
AcDbEntity
  8
部品1
100
AcDbLine
 10
6258.196575106993
 20
4397.370545170665
 30
0.0
 11
6258.196575106993
 21
2614.370545170672
 31
0.0
  0
LINE
  5
1B557
330
747D
100
AcDbEntity
  8
細線
100
AcDbLine
 10
6158.196575106992
 20
4397.370545170665
 30
0.0
 11
6158.196575106991
 21
2614.370545170671
 31
0.0
  0
LINE
  5
1B558
330
747D
100
AcDbEntity
  8
細線
100
AcDbLine
 10
6088.196575106992
 20
4397.370545170665
 30
0.0
 11
6088.196575106991
 21
2614.37054517067
 31
0.0
  0
LINE
  5
1B559
330
747D
100
AcDbEntity
  8
細線
100
AcDbLine
 10
6018.196575106992
 20
4397.370545170665
 30
0.0
 11
6018.196575106991
 21
2614.37054517067
 31
0.0
  0
LINE
  5
1B55A
330
747D
100
AcDbEntity
  8
細線
100
AcDbLine
 10
5948.196575106992
 20
4397.370545170665
 30
0.0
 11
5948.196575106991
 21
2614.370545170669
 31
0.0
  0
LINE
  5
1B55D
330
747D
100
AcDbEntity
  8
部品1
100
AcDbLine
 10
5850.896575106991
 20
4397.370545170665
 30
0.0
 11
5850.896575106993
 21
2614.370545170669
 31
0.0
  0
LINE
  5
1B55E
330
747D
100
AcDbEntity
  8
部品1
100
AcDbLine
 10
5800.896575106991
 20
4397.370545170665
 30
0.0
 11
5800.896575106992
 21
2614.370545170669
 31
0.0
  0
LINE
  5
1B560
330
747D
100
AcDbEntity
  8
細線
100
AcDbLine
 10
5842.896575106991
 20
4397.370545170665
 30
0.0
 11
5842.896575106993
 21
2614.370545170669
 31
0.0
  0
LINE
  5
1B561
330
747D
100
AcDbEntity
  8
細線
100
AcDbLine
 10
5808.896575106991
 20
4397.370545170665
 30
0.0
 11
5808.896575106992
 21
2614.370545170669
 31
0.0
  0
LINE
  5
1B9FE
330
747D
100
AcDbEntity
  8
部品1
 48
50.0
100
AcDbLine
 10
5724.896575106992
 20
3570.870545170674
 30
0.0
 11
5777.896575106992
 21
3570.870545170675
 31
0.0
  0
ARC
  5
1BAB8
330
747D
100
AcDbEntity
  8
部品1
 48
0.01
100
AcDbCircle
 10
6696.896575106991
 20
4437.870545170663
 30
0.0
 40
2.0
100
AcDbArc
 50
180.0
 51
270.0
  0
ARC
  5
1BAB9
330
747D
100
AcDbEntity
  8
部品1
 48
0.01
100
AcDbCircle
 10
6696.896575106991
 20
4469.370545170664
 30
0.0
 40
2.0
100
AcDbArc
 50
90.0
 51
180.0
  0
ARC
  5
1BABA
330
747D
100
AcDbEntity
  8
部品1
 48
0.01
100
AcDbCircle
 10
6872.896575106991
 20
4437.870545170663
 30
0.0
 40
2.0
100
AcDbArc
 50
270.0
 51
0.0
  0
ARC
  5
1BABB
330
747D
100
AcDbEntity
  8
部品1
 48
0.01
100
AcDbCircle
 10
6872.896575106991
 20
4469.370545170664
 30
0.0
 40
2.0
100
AcDbArc
 50
0.0
 51
90.0
  0
LINE
  5
1BABC
330
747D
100
AcDbEntity
  8
細線
100
AcDbLine
 10
6784.896575106992
 20
4441.870545170663
 30
0.0
 11
6710.896575106992
 21
4441.870545170663
 31
0.0
  0
LINE
  5
1BABD
330
747D
100
AcDbEntity
  8
細線
100
AcDbLine
 10
6784.896575106991
 20
4464.870545170664
 30
0.0
 11
6858.896575106991
 21
4464.870545170664
 31
0.0
  0
LINE
  5
1BABE
330
747D
100
AcDbEntity
  8
細線
100
AcDbLine
 10
6858.896575106991
 20
4441.870545170663
 30
0.0
 11
6784.896575106991
 21
4441.870545170663
 31
0.0
  0
LINE
  5
1BABF
330
747D
100
AcDbEntity
  8
細線
100
AcDbLine
 10
6710.896575106992
 20
4464.870545170664
 30
0.0
 11
6784.896575106991
 21
4464.870545170664
 31
0.0
  0
LINE
  5
1BAC0
330
747D
100
AcDbEntity
  8
細線
100
AcDbLine
 10
6710.896575106992
 20
4441.870545170663
 30
0.0
 11
6710.896575106992
 21
4464.870545170664
 31
0.0
  0
LINE
  5
1BAC1
330
747D
100
AcDbEntity
  8
細線
100
AcDbLine
 10
6858.896575106991
 20
4464.870545170664
 30
0.0
 11
6858.896575106991
 21
4441.870545170663
 31
0.0
  0
LINE
  5
1BAC2
330
747D
100
AcDbEntity
  8
部品1
 48
0.01
100
AcDbLine
 10
6694.896575106992
 20
4437.870545170663
 30
0.0
 11
6694.896575106991
 21
4469.370545170664
 31
0.0
  0
LINE
  5
1BAC3
330
747D
100
AcDbEntity
  8
部品1
 48
0.01
100
AcDbLine
 10
6872.896575106991
 20
4435.870545170664
 30
0.0
 11
6696.896575106991
 21
4435.870545170664
 31
0.0
  0
LINE
  5
1BAC4
330
747D
100
AcDbEntity
  8
部品1
 48
0.01
100
AcDbLine
 10
6874.896575106991
 20
4469.370545170664
 30
0.0
 11
6874.896575106991
 21
4437.870545170663
 31
0.0
  0
LINE
  5
1BAC5
330
747D
100
AcDbEntity
  8
部品1
 48
0.01
100
AcDbLine
 10
6696.896575106991
 20
4471.370545170663
 30
0.0
 11
6872.896575106991
 21
4471.370545170663
 31
0.0
  0
LINE
  5
1BAD3
330
747D
100
AcDbEntity
  8
細線
100
AcDbLine
 10
6858.896575106991
 20
4458.870545170664
 30
0.0
 11
6784.896575106991
 21
4458.870545170664
 31
0.0
  0
LINE
  5
1BAD4
330
747D
100
AcDbEntity
  8
細線
100
AcDbLine
 10
6858.896575106991
 20
4452.870545170664
 30
0.0
 11
6784.896575106991
 21
4452.870545170664
 31
0.0
  0
LINE
  5
1BAD5
330
747D
100
AcDbEntity
  8
細線
100
AcDbLine
 10
6858.896575106992
 20
4446.870545170663
 30
0.0
 11
6784.896575106991
 21
4446.870545170663
 31
0.0
  0
LINE
  5
1BAD7
330
747D
100
AcDbEntity
  8
細線
100
AcDbLine
 10
6858.896575106991
 20
4458.870545170664
 30
0.0
 11
6789.896575106991
 21
4458.870545170664
 31
0.0
  0
LINE
  5
1BAE0
330
747D
100
AcDbEntity
  8
細線
100
AcDbLine
 10
6710.896575106992
 20
4458.870545170663
 30
0.0
 11
6784.896575106991
 21
4458.870545170664
 31
0.0
  0
LINE
  5
1BAE4
330
747D
100
AcDbEntity
  8
細線
100
AcDbLine
 10
6710.896575106992
 20
4446.870545170662
 30
0.0
 11
6784.896575106991
 21
4446.870545170663
 31
0.0
  0
LINE
  5
1BAE5
330
747D
100
AcDbEntity
  8
細線
100
AcDbLine
 10
6710.896575106992
 20
4452.870545170664
 30
0.0
 11
6784.896575106991
 21
4452.870545170664
 31
0.0
  0
LINE
  5
1BDC6
330
747D
100
AcDbEntity
  8
細線
100
AcDbLine
 10
6784.896575106991
 20
4464.870545170664
 30
0.0
 11
6784.896575106992
 21
4441.870545170663
 31
0.0
  0
LINE
  5
1BDD2
330
747D
100
AcDbEntity
  8
細線
100
AcDbLine
 10
6004.896575106992
 20
4464.870545170662
 30
0.0
 11
6004.89657510699
 21
4441.870545170663
 31
0.0
  0
LINE
  5
1BDD3
330
747D
100
AcDbEntity
  8
細線
100
AcDbLine
 10
6078.896575106991
 20
4452.870545170663
 30
0.0
 11
6004.896575106992
 21
4452.870545170663
 31
0.0
  0
LINE
  5
1BDD4
330
747D
100
AcDbEntity
  8
細線
100
AcDbLine
 10
6078.896575106991
 20
4446.870545170662
 30
0.0
 11
6004.896575106992
 21
4446.870545170662
 31
0.0
  0
LINE
  5
1BDD5
330
747D
100
AcDbEntity
  8
細線
100
AcDbLine
 10
6078.896575106991
 20
4458.870545170662
 30
0.0
 11
6004.896575106992
 21
4458.870545170663
 31
0.0
  0
LINE
  5
1BDD6
330
747D
100
AcDbEntity
  8
細線
100
AcDbLine
 10
5930.896575106991
 20
4458.870545170663
 30
0.0
 11
5999.896575106991
 21
4458.870545170663
 31
0.0
  0
LINE
  5
1BDD7
330
747D
100
AcDbEntity
  8
細線
100
AcDbLine
 10
5930.896575106991
 20
4446.870545170662
 30
0.0
 11
6004.896575106992
 21
4446.870545170662
 31
0.0
  0
LINE
  5
1BDD8
330
747D
100
AcDbEntity
  8
細線
100
AcDbLine
 10
5930.896575106991
 20
4452.870545170663
 30
0.0
 11
6004.896575106992
 21
4452.870545170663
 31
0.0
  0
LINE
  5
1BDD9
330
747D
100
AcDbEntity
  8
細線
100
AcDbLine
 10
5930.896575106991
 20
4458.870545170663
 30
0.0
 11
6004.896575106992
 21
4458.870545170663
 31
0.0
  0
LINE
  5
1BDDA
330
747D
100
AcDbEntity
  8
部品1
 48
0.01
100
AcDbLine
 10
6092.896575106991
 20
4471.370545170663
 30
0.0
 11
5916.896575106992
 21
4471.370545170663
 31
0.0
  0
LINE
  5
1BDDB
330
747D
100
AcDbEntity
  8
部品1
 48
0.01
100
AcDbLine
 10
5914.896575106991
 20
4469.370545170662
 30
0.0
 11
5914.896575106991
 21
4437.870545170663
 31
0.0
  0
LINE
  5
1BDDC
330
747D
100
AcDbEntity
  8
部品1
 48
0.01
100
AcDbLine
 10
5916.896575106992
 20
4435.870545170662
 30
0.0
 11
6092.896575106991
 21
4435.870545170662
 31
0.0
  0
LINE
  5
1BDDD
330
747D
100
AcDbEntity
  8
部品1
 48
0.01
100
AcDbLine
 10
6094.896575106991
 20
4437.870545170663
 30
0.0
 11
6094.896575106992
 21
4469.370545170662
 31
0.0
  0
LINE
  5
1BDDE
330
747D
100
AcDbEntity
  8
細線
100
AcDbLine
 10
5930.896575106991
 20
4464.870545170662
 30
0.0
 11
5930.896575106991
 21
4441.870545170663
 31
0.0
  0
LINE
  5
1BDDF
330
747D
100
AcDbEntity
  8
細線
100
AcDbLine
 10
6078.896575106991
 20
4441.870545170663
 30
0.0
 11
6078.896575106991
 21
4464.870545170662
 31
0.0
  0
LINE
  5
1BDE0
330
747D
100
AcDbEntity
  8
細線
100
AcDbLine
 10
6078.896575106991
 20
4464.870545170662
 30
0.0
 11
6004.896575106992
 21
4464.870545170662
 31
0.0
  0
LINE
  5
1BDE1
330
747D
100
AcDbEntity
  8
細線
100
AcDbLine
 10
5930.896575106991
 20
4441.870545170663
 30
0.0
 11
6004.896575106992
 21
4441.870545170663
 31
0.0
  0
LINE
  5
1BDE2
330
747D
100
AcDbEntity
  8
細線
100
AcDbLine
 10
6004.896575106992
 20
4464.870545170662
 30
0.0
 11
5930.896575106991
 21
4464.870545170662
 31
0.0
  0
LINE
  5
1BDE3
330
747D
100
AcDbEntity
  8
細線
100
AcDbLine
 10
6004.89657510699
 20
4441.870545170663
 30
0.0
 11
6078.896575106991
 21
4441.870545170663
 31
0.0
  0
ARC
  5
1BDE4
330
747D
100
AcDbEntity
  8
部品1
 48
0.01
100
AcDbCircle
 10
5916.896575106992
 20
4469.370545170662
 30
0.0
 40
2.0
100
AcDbArc
 50
90.0
 51
180.0
  0
ARC
  5
1BDE5
330
747D
100
AcDbEntity
  8
部品1
 48
0.01
100
AcDbCircle
 10
5916.896575106992
 20
4437.870545170663
 30
0.0
 40
2.0
100
AcDbArc
 50
180.0
 51
270.0
  0
ARC
  5
1BDE6
330
747D
100
AcDbEntity
  8
部品1
 48
0.01
100
AcDbCircle
 10
6092.896575106991
 20
4469.370545170662
 30
0.0
 40
2.0
100
AcDbArc
 50
0.000000000000007
 51
90.0
  0
ARC
  5
1BDE7
330
747D
100
AcDbEntity
  8
部品1
 48
0.01
100
AcDbCircle
 10
6092.896575106991
 20
4437.870545170663
 30
0.0
 40
2.0
100
AcDbArc
 50
270.0
 51
0.000000000000007
  0
LINE
  5
1BDE8
330
747D
100
AcDbEntity
  8
部品1
 48
50.0
100
AcDbLine
 10
7202.488154000559
 20
4640.370545170669
 30
0.0
 11
5587.304996213424
 21
4640.370545170668
 31
0.0
  0
LINE
  5
1BDE9
330
747D
100
AcDbEntity
  8
部品1
 48
50.0
100
AcDbLine
 10
7189.272830539526
 20
4499.37054517067
 30
0.0
 11
5600.520319674457
 21
4499.370545170667
 31
0.0
  0
LINE
  5
1BDEA
330
747D
100
AcDbEntity
  8
細線
 48
50.0
100
AcDbLine
 10
7207.857036885541
 20
4612.370545170665
 30
0.0
 11
5581.936113328431
 21
4612.370545170666
 31
0.0
  0
LINE
  5
1BDEB
330
747D
100
AcDbEntity
  8
細線
 48
50.0
100
AcDbLine
 10
7199.501893570232
 20
4520.143787734134
 30
0.0
 11
5590.17214385326
 21
4520.170545170668
 31
0.0
  0
LINE
  5
1BDEC
330
747D
100
AcDbEntity
  8
部品1
100
AcDbLine
 10
7209.476914091658
 20
4632.974019775429
 30
0.0
 11
7208.343516759312
 21
4612.99789179283
 31
0.0
  0
LINE
  5
1BDEE
330
747D
100
AcDbEntity
  8
細線
 48
50.0
100
AcDbLine
 10
7176.896575106991
 20
4640.370545170669
 30
0.0
 11
7176.896575106991
 21
4499.370545170669
 31
0.0
  0
LINE
  5
1BDEF
330
747D
100
AcDbEntity
  8
細線
 48
50.0
100
AcDbLine
 10
5612.896575106993
 20
4640.370545170667
 30
0.0
 11
5612.896575106993
 21
4499.370545170667
 31
0.0
  0
LINE
  5
1BE41
330
747D
100
AcDbEntity
  8
部品1
100
AcDbLine
 10
7196.906496437735
 20
4517.34048462577
 30
0.0
 11
7196.261590630625
 21
4505.974019775431
 31
0.0
  0
LINE
  5
1BE42
330
747D
100
AcDbEntity
  8
部品1
100
AcDbLine
 10
7205.142526962581
 20
4609.540484625773
 30
0.0
 11
7200.107486234469
 21
4520.797891792828
 31
0.0
  0
ARC
  5
1BE44
330
747D
100
AcDbEntity
  8
部品1
 48
50.0
100
AcDbCircle
 10
7208.137709858765
 20
4609.37054517067
 30
0.0
 40
3.0
100
AcDbArc
 50
97.65812720738011
 51
176.7526572096774
  0
ARC
  5
1BE45
330
747D
100
AcDbEntity
  8
部品1
 48
50.0
100
AcDbCircle
 10
7199.901679333922
 20
4517.170545170667
 30
0.0
 40
3.0
100
AcDbArc
 50
97.6581272073629
 51
176.7526572096767
  0
ARC
  5
1BE46
330
747D
100
AcDbEntity
  8
部品1
 48
50.0
100
AcDbCircle
 10
7199.408610225361
 20
4520.837544332351
 30
0.0
 40
0.7
100
AcDbArc
 50
277.6581272073433
 51
356.7526572097019
  0
ARC
  5
1BE47
330
747D
100
AcDbEntity
  8
部品1
 48
50.0
100
AcDbCircle
 10
7207.644640750203
 20
4613.037544332354
 30
0.0
 40
0.7
100
AcDbArc
 50
277.6581272073433
 51
356.7526572096275
  0
ARC
  5
1BE48
330
747D
100
AcDbEntity
  8
部品1
100
AcDbCircle
 10
7189.272830539526
 20
4506.37054517067
 30
0.0
 40
7.0
100
AcDbArc
 50
270.0
 51
356.7526572096773
  0
ARC
  5
1BE49
330
747D
100
AcDbEntity
  8
部品1
100
AcDbCircle
 10
7202.488154000559
 20
4633.370545170669
 30
0.0
 40
7.0
100
AcDbArc
 50
356.752657209676
 51
89.99999999999998
  0
ARC
  5
1BE4A
330
747D
100
AcDbEntity
  8
部品1
100
AcDbCircle
 10
5587.304996213424
 20
4633.370545170667
 30
0.0
 40
7.0
100
AcDbArc
 50
90.00000000000003
 51
183.247342790324
  0
ARC
  5
1BE4B
330
747D
100
AcDbEntity
  8
部品1
100
AcDbCircle
 10
5600.520319674457
 20
4506.370545170668
 30
0.0
 40
7.0
100
AcDbArc
 50
183.2473427903227
 51
270.0
  0
ARC
  5
1BE4C
330
747D
100
AcDbEntity
  8
部品1
 48
50.0
100
AcDbCircle
 10
5582.148509463779
 20
4613.037544332352
 30
0.0
 40
0.7
100
AcDbArc
 50
183.2473427903725
 51
262.3418727926567
  0
ARC
  5
1BE4D
330
747D
100
AcDbEntity
  8
部品1
 48
50.0
100
AcDbCircle
 10
5590.384539988622
 20
4520.83754433235
 30
0.0
 40
0.7
100
AcDbArc
 50
183.2473427902981
 51
262.3418727926567
  0
ARC
  5
1BE4E
330
747D
100
AcDbEntity
  8
部品1
 48
50.0
100
AcDbCircle
 10
5589.89147088006
 20
4517.170545170666
 30
0.0
 40
3.0
100
AcDbArc
 50
3.247342790323342
 51
82.34187279263712
  0
ARC
  5
1BE4F
330
747D
100
AcDbEntity
  8
部品1
 48
50.0
100
AcDbCircle
 10
5581.655440355217
 20
4609.370545170668
 30
0.0
 40
3.0
100
AcDbArc
 50
3.247342790322579
 51
82.34187279261989
  0
LINE
  5
1BE50
330
747D
100
AcDbEntity
  8
部品1
100
AcDbLine
 10
5584.650623251402
 20
4609.54048462577
 30
0.0
 11
5589.685663979513
 21
4520.797891792827
 31
0.0
  0
LINE
  5
1BE51
330
747D
100
AcDbEntity
  8
部品1
100
AcDbLine
 10
5592.886653776248
 20
4517.340484625768
 30
0.0
 11
5593.531559583357
 21
4505.974019775429
 31
0.0
  0
LINE
  5
1BE52
330
747D
100
AcDbEntity
  8
部品1
100
AcDbLine
 10
5580.316236122325
 20
4632.974019775427
 30
0.0
 11
5581.449633454671
 21
4612.997891792828
 31
0.0
  0
LINE
  5
1C310
330
747D
100
AcDbEntity
  8
細線
100
AcDbLine
 10
6158.196575106986
 20
7209.52912965475
 30
0.0
 11
6155.865036816218
 21
7214.529129654735
 31
0.0
  0
LINE
  5
1C316
330
747D
100
AcDbEntity
  8
細線
100
AcDbLine
 10
6155.865036816219
 20
7214.529129654735
 30
0.0
 11
6090.528113397745
 21
7214.529129654724
 31
0.0
  0
LINE
  5
1C318
330
747D
100
AcDbEntity
  8
細線
100
AcDbLine
 10
6088.196575106991
 20
7209.529129654725
 30
0.0
 11
6018.196575106991
 21
7209.529129654715
 31
0.0
  0
LINE
  5
1C31B
330
747D
100
AcDbEntity
  8
細線
100
AcDbLine
 10
5948.196575107008
 20
7209.529129654786
 30
0.0
 11
5680.884268457939
 21
7209.529129654746
 31
0.0
  0
LINE
  5
1C31C
330
747D
100
AcDbEntity
  8
細線
100
AcDbLine
 10
6088.196575106991
 20
7209.529129654767
 30
0.0
 11
6090.528113397759
 21
7214.529129654753
 31
0.0
  0
LINE
  5
1C31D
330
747D
100
AcDbEntity
  8
細線
100
AcDbLine
 10
6015.865036816217
 20
7214.529129654714
 30
0.0
 11
5950.528113397743
 21
7214.529129654703
 31
0.0
  0
LINE
  5
1C31E
330
747D
100
AcDbEntity
  8
細線
100
AcDbLine
 10
6018.196575106983
 20
7209.529129654729
 30
0.0
 11
6015.865036816216
 21
7214.529129654714
 31
0.0
  0
LINE
  5
1C31F
330
747D
100
AcDbEntity
  8
細線
100
AcDbLine
 10
5948.196575106989
 20
7209.529129654747
 30
0.0
 11
5950.528113397757
 21
7214.529129654732
 31
0.0
  0
LINE
  5
1C333
330
747D
100
AcDbEntity
  8
細線
100
AcDbLine
 10
5846.396575106989
 20
7227.529129654771
 30
0.0
 11
5846.396575106989
 21
7209.529129654747
 31
0.0
  0
LINE
  5
1C334
330
747D
100
AcDbEntity
  8
細線
100
AcDbLine
 10
5805.396575106989
 20
7227.529129654765
 30
0.0
 11
5805.396575106989
 21
7209.529129654747
 31
0.0
  0
LINE
  5
1C335
330
747D
100
AcDbEntity
  8
細線
100
AcDbLine
 10
5846.396575106989
 20
7227.529129654771
 30
0.0
 11
5805.396575106989
 21
7227.529129654765
 31
0.0
  0
ARC
  5
1C337
330
747D
100
AcDbEntity
  8
部品1
100
AcDbCircle
 10
5807.940730984267
 20
7209.029129654769
 30
0.0
 40
1.0
100
AcDbArc
 50
270.0
 51
19.47122063447127
  0
LINE
  5
1C339
330
747D
100
AcDbEntity
  8
部品1
 48
0.01
100
AcDbLine
 10
5800.896575106983
 20
7209.52912965477
 30
0.0
 11
5800.896575106983
 21
7208.529129654769
 31
0.0
  0
LINE
  5
1C33C
330
747D
100
AcDbEntity
  8
部品1
 48
0.01
100
AcDbLine
 10
5801.396575106982
 20
7208.02912965477
 30
0.0
 11
5807.940730984267
 21
7208.029129654768
 31
0.0
  0
ARC
  5
1C33D
330
747D
100
AcDbEntity
  8
部品1
 48
0.01
100
AcDbCircle
 10
5801.396575106982
 20
7208.529129654769
 30
0.0
 40
0.5
100
AcDbArc
 50
180.0
 51
270.0
  0
ARC
  5
1C33F
330
747D
100
AcDbEntity
  8
部品1
100
AcDbCircle
 10
5833.396575106982
 20
7218.029129654768
 30
0.0
 40
26.0
100
AcDbArc
 50
180.0
 51
199.4712206344713
  0
ARC
  5
1C341
330
747D
100
AcDbEntity
  8
部品1
 48
0.01
100
AcDbCircle
 10
5809.396575106983
 20
7223.029129654769
 30
0.0
 40
2.0
100
AcDbArc
 50
90.0
 51
180.0
  0
LINE
  5
1C343
330
747D
100
AcDbEntity
  8
部品1
100
AcDbLine
 10
5807.396575106983
 20
7218.029129654768
 30
0.0
 11
5807.396575106983
 21
7223.029129654769
 31
0.0
  0
ARC
  5
1C344
330
747D
100
AcDbEntity
  8
部品1
100
AcDbCircle
 10
5825.896575106983
 20
7233.829129654769
 30
0.0
 40
16.0
100
AcDbArc
 50
218.3930440192126
 51
254.0576313943716
  0
ARC
  5
1C346
330
747D
100
AcDbEntity
  8
部品1
100
AcDbCircle
 10
5811.004966731794
 20
7222.029129654768
 30
0.0
 40
3.0
100
AcDbArc
 50
38.39304401921267
 51
90.0
  0
LINE
  5
1C347
330
747D
100
AcDbEntity
  8
部品1
 48
0.01
100
AcDbLine
 10
5809.396575106983
 20
7225.029129654768
 30
0.0
 11
5811.004966731794
 21
7225.029129654768
 31
0.0
  0
ARC
  5
1C358
330
747D
100
AcDbEntity
  8
部品1
100
AcDbCircle
 10
5825.896575106983
 20
7233.829129654769
 30
0.0
 40
16.0
100
AcDbArc
 50
285.9423686056284
 51
321.6069559807873
  0
LINE
  5
1C35E
330
747D
100
AcDbEntity
  8
部品1
100
AcDbLine
 10
5829.467289321254
 20
7218.329129654769
 30
0.0
 11
5822.325860892711
 21
7218.329129654769
 31
0.0
  0
ARC
  5
1C360
330
747D
100
AcDbEntity
  8
部品1
100
AcDbCircle
 10
5829.467289321254
 20
7221.329129654769
 30
0.0
 40
3.0
100
AcDbArc
 50
270.0
 51
285.9423686056284
  0
ARC
  5
1C362
330
747D
100
AcDbEntity
  8
部品1
100
AcDbCircle
 10
5822.325860892711
 20
7221.329129654769
 30
0.0
 40
3.0
100
AcDbArc
 50
254.0576313943716
 51
270.0
  0
LINE
  5
1C363
330
747D
100
AcDbEntity
  8
部品1
 48
0.01
100
AcDbLine
 10
5842.396575106983
 20
7225.029129654768
 30
0.0
 11
5840.788183482171
 21
7225.029129654768
 31
0.0
  0
ARC
  5
1C366
330
747D
100
AcDbEntity
  8
部品1
100
AcDbCircle
 10
5840.788183482171
 20
7222.029129654768
 30
0.0
 40
3.0
100
AcDbArc
 50
90.0
 51
141.6069559807873
  0
ARC
  5
1C368
330
747D
100
AcDbEntity
  8
部品1
 48
0.01
100
AcDbCircle
 10
5842.396575106983
 20
7223.029129654769
 30
0.0
 40
2.0
100
AcDbArc
 50
0.0
 51
90.0
  0
LINE
  5
1C369
330
747D
100
AcDbEntity
  8
部品1
100
AcDbLine
 10
5844.396575106983
 20
7218.029129654768
 30
0.0
 11
5844.396575106983
 21
7223.029129654769
 31
0.0
  0
ARC
  5
1C36C
330
747D
100
AcDbEntity
  8
部品1
100
AcDbCircle
 10
5818.396575106983
 20
7218.029129654768
 30
0.0
 40
26.0
100
AcDbArc
 50
340.5287793655287
 51
0.0
  0
ARC
  5
1C36D
330
747D
100
AcDbEntity
  8
部品1
100
AcDbCircle
 10
5843.852419229698
 20
7209.029129654769
 30
0.0
 40
1.0
100
AcDbArc
 50
160.5287793655287
 51
270.0
  0
LINE
  5
1C36F
330
747D
100
AcDbEntity
  8
部品1
 48
0.01
100
AcDbLine
 10
5850.396575106983
 20
7208.02912965477
 30
0.0
 11
5843.78406967692
 21
7208.029129654768
 31
0.0
  0
LINE
  5
1C372
330
747D
100
AcDbEntity
  8
部品1
 48
0.01
100
AcDbLine
 10
5850.896575106983
 20
7209.52912965477
 30
0.0
 11
5850.896575106983
 21
7208.529129654769
 31
0.0
  0
LINE
  5
1C373
330
747D
100
AcDbEntity
  8
部品1
 48
0.01
100
AcDbLine
 10
5850.896575106983
 20
7209.52912965477
 30
0.0
 11
5850.896575106983
 21
7208.529129654769
 31
0.0
  0
ARC
  5
1C374
330
747D
100
AcDbEntity
  8
部品1
 48
0.01
100
AcDbCircle
 10
5850.396575106983
 20
7208.529129654769
 30
0.0
 40
0.5
100
AcDbArc
 50
270.0
 51
0.0
  0
LINE
  5
1C386
330
747D
100
AcDbEntity
  8
細線
100
AcDbLine
 10
6346.346575106983
 20
7243.529129654797
 30
0.0
 11
6348.678113397751
 21
7248.529129654783
 31
0.0
  0
LINE
  5
1C387
330
747D
100
AcDbEntity
  8
細線
100
AcDbLine
 10
6416.346575106977
 20
7243.529129654779
 30
0.0
 11
6414.015036816211
 21
7248.529129654764
 31
0.0
  0
LINE
  5
1C388
330
747D
100
AcDbEntity
  8
細線
100
AcDbLine
 10
6414.015036816211
 20
7248.529129654764
 30
0.0
 11
6348.678113397737
 21
7248.529129654753
 31
0.0
  0
LINE
  5
1C389
330
747D
100
AcDbEntity
  8
細線
100
AcDbLine
 10
6486.346575106982
 20
7243.529129654816
 30
0.0
 11
6488.67811339775
 21
7248.529129654802
 31
0.0
  0
LINE
  5
1C38A
330
747D
100
AcDbEntity
  8
細線
100
AcDbLine
 10
6556.346575106977
 20
7243.529129654797
 30
0.0
 11
6554.01503681621
 21
7248.529129654783
 31
0.0
  0
LINE
  5
1C38B
330
747D
100
AcDbEntity
  8
細線
100
AcDbLine
 10
6554.01503681621
 20
7248.529129654783
 30
0.0
 11
6488.678113397736
 21
7248.529129654773
 31
0.0
  0
LINE
  5
1C3A8
330
747D
100
AcDbEntity
  8
細線
100
AcDbLine
 10
6993.696575106992
 20
7279.529129654791
 30
0.0
 11
6991.59819064528
 21
7284.02912965483
 31
0.0
  0
LINE
  5
1C3A9
330
747D
100
AcDbEntity
  8
細線
100
AcDbLine
 10
6923.696575106998
 20
7279.52912965481
 30
0.0
 11
6925.794959568704
 21
7284.02912965483
 31
0.0
  0
LINE
  5
1C3AB
330
747D
100
AcDbEntity
  8
細線
100
AcDbLine
 10
6853.696575106981
 20
7279.529129654801
 30
0.0
 11
6851.598190645272
 21
7284.02912965483
 31
0.0
  0
LINE
  5
1C3AC
330
747D
100
AcDbEntity
  8
細線
100
AcDbLine
 10
6783.696575106986
 20
7279.52912965482
 30
0.0
 11
6785.794959568689
 21
7284.02912965483
 31
0.0
  0
LINE
  5
1C3AE
330
747D
100
AcDbEntity
  8
細線
100
AcDbLine
 10
6923.696575106991
 20
7279.5291296548
 30
0.0
 11
6853.696575106981
 21
7279.529129654801
 31
0.0
  0
LINE
  5
1C3AF
330
747D
100
AcDbEntity
  8
細線
100
AcDbLine
 10
6783.696575106985
 20
7279.52912965483
 30
0.0
 11
6676.496575106987
 21
7279.529129654831
 31
0.0
  0
LINE
  5
1C3B1
330
747D
100
AcDbEntity
  8
細線
100
AcDbLine
 10
6486.346575106977
 20
7243.529129654804
 30
0.0
 11
6416.346575106965
 21
7243.529129654806
 31
0.0
  0
LINE
  5
1C3B2
330
747D
100
AcDbEntity
  8
細線
100
AcDbLine
 10
6346.346575106984
 20
7243.529129654795
 30
0.0
 11
6249.196575106991
 21
7243.529129654739
 31
0.0
  0
ARC
  5
1C8BC
330
747D
100
AcDbEntity
  8
細線
100
AcDbCircle
 10
6451.346581606973
 20
7269.029129654782
 30
0.0
 40
6.0
100
AcDbArc
 50
204.6243183521779
 51
335.3756816478222
  0
ARC
  5
1C8BD
330
747D
100
AcDbEntity
  8
細線
100
AcDbCircle
 10
6053.196581606889
 20
7235.029129654726
 30
0.0
 40
6.0
100
AcDbArc
 50
204.6243183521779
 51
335.3756816478222
  0
ARC
  5
1C998
330
747D
100
AcDbEntity
  8
細線
100
AcDbCircle
 10
6672.496575106986
 20
7278.82912965483
 30
0.0
 40
2.0
100
AcDbArc
 50
180.0
 51
270.0
  0
LINE
  5
1C999
330
747D
100
AcDbEntity
  8
細線
100
AcDbLine
 10
6670.496575106986
 20
7278.82912965483
 30
0.0
 11
6670.496575106986
 21
7279.529129654831
 31
0.0
  0
LINE
  5
1C99A
330
747D
100
AcDbEntity
  8
細線
100
AcDbLine
 10
6672.496575106987
 20
7276.829129654831
 30
0.0
 11
6674.496575106987
 21
7276.829129654831
 31
0.0
  0
ARC
  5
1C99B
330
747D
100
AcDbEntity
  8
細線
100
AcDbCircle
 10
6674.496575106985
 20
7278.82912965483
 30
0.0
 40
2.0
100
AcDbArc
 50
270.0
 51
0.0
  0
LINE
  5
1C99C
330
747D
100
AcDbEntity
  8
細線
100
AcDbLine
 10
6676.496575106987
 20
7278.82912965483
 30
0.0
 11
6676.496575106987
 21
7279.529129654831
 31
0.0
  0
LINE
  5
1CA39
330
747D
100
AcDbEntity
  8
細線
100
AcDbLine
 10
6249.196575106991
 20
7242.829129654738
 30
0.0
 11
6249.196575106991
 21
7243.529129654739
 31
0.0
  0
ARC
  5
1CA3A
330
747D
100
AcDbEntity
  8
細線
100
AcDbCircle
 10
6247.19657510699
 20
7242.829129654738
 30
0.0
 40
2.0
100
AcDbArc
 50
270.0
 51
0.0
  0
LINE
  5
1CA3B
330
747D
100
AcDbEntity
  8
細線
100
AcDbLine
 10
6245.196575106991
 20
7240.829129654739
 30
0.0
 11
6247.196575106991
 21
7240.829129654739
 31
0.0
  0
LINE
  5
1CA3C
330
747D
100
AcDbEntity
  8
細線
100
AcDbLine
 10
6243.196575106991
 20
7242.829129654738
 30
0.0
 11
6243.196575106991
 21
7243.529129654739
 31
0.0
  0
ARC
  5
1CA3D
330
747D
100
AcDbEntity
  8
細線
100
AcDbCircle
 10
6245.196575106991
 20
7242.829129654738
 30
0.0
 40
2.0
100
AcDbArc
 50
180.0
 51
270.0
  0
LINE
  5
1CA3F
330
747D
100
AcDbEntity
  8
細線
100
AcDbLine
 10
6232.196575106981
 20
7266.529129654741
 30
0.0
 11
6232.196575106983
 21
7273.529129654741
 31
0.0
  0
LINE
  5
1CA4B
330
747D
100
AcDbEntity
  8
細線
100
AcDbLine
 10
6659.496575106986
 20
7303.029129654833
 30
0.0
 11
6659.496575106986
 21
7307.529129654827
 31
0.0
  0
LINE
  5
1CA4E
330
747D
100
AcDbEntity
  8
細線
100
AcDbLine
 10
6232.196575106983
 20
7273.529129654741
 30
0.0
 11
6217.196575106984
 21
7273.52912965474
 31
0.0
  0
MTEXT
  5
1CB00
330
747D
100
AcDbEntity
  8
寸法
 62
     7
 48
50.0
100
AcDbMText
 10
6740.821695652655
 20
7895.81931979349
 30
0.0
 40
96.0
 41
0.0
 71
     5
 72
     1
  1
棚 2段
  7
STYLE1
 11
0.0000000000000001
 21
1.0
 31
0.0
 73
     1
 44
1.0
1001
ACAD
1000
MTEXTBEGIN
1070
    73
1070
     1
1070
    44
1040
1.0
1070
    74
1070
     0
1000
MTEXTEND
  0
LINE
  5
1EB98
330
747D
100
AcDbEntity
  8
細線
100
AcDbLine
 10
6676.896575106986
 20
7281.234980717551
 30
0.0
 11
6676.896575106986
 21
7306.134980717549
 31
0.0
  0
LINE
  5
1EB9C
330
747D
100
AcDbEntity
  8
細線
100
AcDbLine
 10
6688.896575106986
 20
7281.234980717551
 30
0.0
 11
6676.896575106986
 21
7281.234980717551
 31
0.0
  0
LINE
  5
1EB9E
330
747D
100
AcDbEntity
  8
細線
100
AcDbLine
 10
6676.896575106986
 20
7306.134980717549
 30
0.0
 11
6645.710523690245
 21
7306.13498071755
 31
0.0
  0
DIMENSION
  5
1EBC9
330
747D
100
AcDbEntity
  8
寸法
 48
50.0
100
AcDbDimension
  2
*D13
 10
6104.896575106989
 20
10260.50542065647
 30
0.0
 11
5894.896575106972
 21
10360.51723168009
 31
0.0
 70
    32
 71
     5
 42
420.0000000000345
  3
INABA_S40G
100
AcDbAlignedDimension
 13
5684.896575106955
 23
9836.529129654717
 33
0.0
 14
6104.896575106989
 24
9836.529129654865
 34
0.0
100
AcDbRotatedDimension
1001
ACAD
1000
DSTYLE
1002
{
1070
   174
1070
     0
1070
   272
1070
     1
1070
   288
1070
     0
1070
   341
1005
0
1002
}
  0
DIMENSION
  5
1EBD6
330
747D
100
AcDbEntity
  8
寸法
 48
50.0
100
AcDbDimension
  2
*D14
 10
6684.896575107007
 20
10260.50542065647
 30
0.0
 11
6393.572241974826
 21
10260.50542065647
 31
0.0
 70
   160
 71
     5
 42
580.0000000000181
  3
INABA_S40G
100
AcDbAlignedDimension
 13
6104.896575106989
 23
9836.529129654865
 33
0.0
 14
6684.896575107007
 24
9836.529129654804
 34
0.0
100
AcDbRotatedDimension
1001
ACAD
1000
DSTYLE
1002
{
1070
   174
1070
     0
1070
   272
1070
     1
1070
   288
1070
     0
1070
   341
1005
0
1002
}
  0
DIMENSION
  5
1EBE3
330
747D
100
AcDbEntity
  8
寸法
 48
50.0
100
AcDbDimension
  2
*D15
 10
7104.896575107009
 20
10260.50542065647
 30
0.0
 11
6894.896575107008
 21
10360.51723168009
 31
0.0
 70
    32
 71
     5
 42
420.0000000000009
  3
INABA_S40G
100
AcDbAlignedDimension
 13
6684.896575107007
 23
9836.529129654865
 33
0.0
 14
7104.896575107009
 24
9836.529129654827
 34
0.0
100
AcDbRotatedDimension
1001
ACAD
1000
DSTYLE
1002
{
1070
   174
1070
     0
1070
   272
1070
     1
1070
   288
1070
     0
1070
   341
1005
0
1002
}
  0
LINE
  5
1F22A
330
747D
100
AcDbEntity
  8
細線
100
AcDbLine
 10
6346.346575106991
 20
4397.370545170665
 30
0.0
 11
6346.346575106991
 21
2621.870545170673
 31
0.0
  0
LINE
  5
1F22B
330
747D
100
AcDbEntity
  8
細線
100
AcDbLine
 10
6416.346575106992
 20
4397.370545170665
 30
0.0
 11
6416.346575106992
 21
2621.870545170673
 31
0.0
  0
LINE
  5
1F22C
330
747D
100
AcDbEntity
  8
細線
100
AcDbLine
 10
6486.346575106992
 20
4397.370545170665
 30
0.0
 11
6486.346575106992
 21
2621.870545170673
 31
0.0
  0
LINE
  5
1F22D
330
747D
100
AcDbEntity
  8
細線
100
AcDbLine
 10
6556.346575106991
 20
4397.370545170665
 30
0.0
 11
6556.346575106991
 21
2621.870545170673
 31
0.0
  0
LINE
  5
1F22E
330
747D
100
AcDbEntity
  8
部品1
100
AcDbLine
 10
6685.496575106991
 20
4397.370545170665
 30
0.0
 11
6685.496575106991
 21
2621.870545170673
 31
0.0
  0
LINE
  5
1F2AB
330
747D
100
AcDbEntity
  8
部品1
100
AcDbLine
 10
6759.896575106992
 20
2565.370545170663
 30
0.0
 11
6759.896575106992
 21
2465.370545170664
 31
0.0
  0
LINE
  5
1F2BB
330
747D
100
AcDbEntity
  8
細線
100
AcDbLine
 10
6986.196575106991
 20
4397.370545170665
 30
0.0
 11
6986.196575106991
 21
2621.87054517068
 31
0.0
  0
LINE
  5
1F2BC
330
747D
100
AcDbEntity
  8
細線
100
AcDbLine
 10
6916.196575106991
 20
4397.370545170665
 30
0.0
 11
6916.196575106993
 21
2621.87054517068
 31
0.0
  0
LINE
  5
1F2BD
330
747D
100
AcDbEntity
  8
細線
100
AcDbLine
 10
6846.196575106991
 20
4397.370545170665
 30
0.0
 11
6846.196575106993
 21
2621.87054517068
 31
0.0
  0
LINE
  5
1F2BE
330
747D
100
AcDbEntity
  8
細線
100
AcDbLine
 10
6776.196575106991
 20
4397.370545170665
 30
0.0
 11
6776.196575106992
 21
2621.87054517068
 31
0.0
  0
LINE
  5
1F2CF
330
747D
100
AcDbEntity
  8
部品1
 48
50.0
100
AcDbLine
 10
6157.896575106803
 20
9780.029129654828
 30
0.0
 11
6157.896575107084
 21
7337.029129654758
 31
0.0
  0
TEXT
  5
20F99
330
747D
100
AcDbEntity
  8
文字
 62
     7
 48
50.0
100
AcDbText
 10
13583.11819016568
 20
8720.013745883726
 30
0.0
 40
100.0
  1
アンカープレート
  7
STYLE1
100
AcDbText
  0
TEXT
  5
20F9A
330
747D
100
AcDbEntity
  8
文字
 62
     7
 48
50.0
100
AcDbText
 10
15022.63965474514
 20
8720.013745883717
 30
0.0
 40
100.0
  1
F12            2.3
  7
STYLE1
100
AcDbText
  0
LINE
  5
20F9B
330
747D
100
AcDbEntity
  8
仕様書枠
 48
50.0
100
AcDbLine
 10
16307.19999999999
 20
10049.59999999999
 30
0.0
 11
13127.19999999999
 21
10049.59999999999
 31
0.0
  0
LINE
  5
20F9C
330
747D
100
AcDbEntity
  8
仕様書枠
 48
50.0
100
AcDbLine
 10
16307.19999999999
 20
11409.59999999999
 30
0.0
 11
13127.19999999999
 21
11409.59999999999
 31
0.0
  0
LINE
  5
20F9D
330
747D
100
AcDbEntity
  8
仕様書枠
 48
50.0
100
AcDbLine
 10
16307.19999999998
 20
8349.6
 30
0.0
 11
16307.19999999999
 21
11409.59999999999
 31
0.0
  0
LINE
  5
20F9E
330
747D
100
AcDbEntity
  8
仕様書枠
 48
50.0
100
AcDbLine
 10
14785.19999999999
 20
11409.59999999999
 30
0.0
 11
14785.19999999999
 21
8689.600000000003
 31
0.0
  0
LINE
  5
20F9F
330
747D
100
AcDbEntity
  8
仕様書枠
 48
50.0
100
AcDbLine
 10
13490.19999999999
 20
11409.59999999999
 30
0.0
 11
13490.2
 21
8689.6
 31
0.0
  0
LINE
  5
20FA0
330
747D
100
AcDbEntity
  8
仕様書枠
 48
50.0
100
AcDbLine
 10
16307.19999999999
 20
11239.59999999999
 30
0.0
 11
13127.19999999999
 21
11239.59999999999
 31
0.0
  0
LINE
  5
20FA1
330
747D
100
AcDbEntity
  8
仕様書枠
 48
50.0
100
AcDbLine
 10
16307.19999999999
 20
10899.6
 30
0.0
 11
13127.19999999999
 21
10899.6
 31
0.0
  0
LINE
  5
20FA2
330
747D
100
AcDbEntity
  8
仕様書枠
 48
50.0
100
AcDbLine
 10
16307.19999999999
 20
11069.59999999999
 30
0.0
 11
13127.19999999999
 21
11069.59999999999
 31
0.0
  0
LINE
  5
20FA3
330
747D
100
AcDbEntity
  8
仕様書枠
 48
50.0
100
AcDbLine
 10
16307.19999999998
 20
10559.6
 30
0.0
 11
13127.19999999999
 21
10559.6
 31
0.0
  0
LINE
  5
20FA4
330
747D
100
AcDbEntity
  8
仕様書枠
 48
50.0
100
AcDbLine
 10
16307.19999999998
 20
10389.59999999999
 30
0.0
 11
13127.19999999999
 21
10389.59999999999
 31
0.0
  0
LINE
  5
20FA5
330
747D
100
AcDbEntity
  8
仕様書枠
 48
50.0
100
AcDbLine
 10
16307.19999999998
 20
10729.59999999999
 30
0.0
 11
13127.19999999999
 21
10729.59999999999
 31
0.0
  0
TEXT
  5
20FA6
330
747D
100
AcDbEntity
  8
文字
 62
     7
 48
50.0
100
AcDbText
 10
13197.42518560406
 20
11270.01374588372
 30
0.0
 40
100.0
  1
品番
  7
STYLE1
100
AcDbText
  0
TEXT
  5
20FA7
330
747D
100
AcDbEntity
  8
文字
 62
     7
 48
50.0
100
AcDbText
 10
13271.19032244791
 20
11100.01374588372
 30
0.0
 40
100.0
  1
1
  7
STYLE1
100
AcDbText
  0
TEXT
  5
20FA8
330
747D
100
AcDbEntity
  8
文字
 62
     7
 48
50.0
100
AcDbText
 10
13271.19032244791
 20
10930.01374588372
 30
0.0
 40
100.0
  1
2
  7
STYLE1
100
AcDbText
  0
TEXT
  5
20FA9
330
747D
100
AcDbEntity
  8
文字
 62
     7
 48
50.0
100
AcDbText
 10
13271.19032244791
 20
10590.01374588372
 30
0.0
 40
100.0
  1
4
  7
STYLE1
100
AcDbText
  0
TEXT
  5
20FAA
330
747D
100
AcDbEntity
  8
文字
 62
     7
 48
50.0
100
AcDbText
 10
13271.19032244791
 20
10760.01374588372
 30
0.0
 40
100.0
  1
3
  7
STYLE1
100
AcDbText
  0
TEXT
  5
20FAB
330
747D
100
AcDbEntity
  8
文字
 62
     7
 48
50.0
100
AcDbText
 10
13732.03840939434
 20
11270.01374588372
 30
0.0
 40
100.0
  1
部　　品　　名
  7
STYLE1
100
AcDbText
  0
TEXT
  5
20FAC
330
747D
100
AcDbEntity
  8
文字
 62
     7
 48
50.0
100
AcDbText
 10
14859.79774614481
 20
11270.01374588372
 30
0.0
 40
100.0
  1
材料（材質）　　単位mm
  7
STYLE1
100
AcDbText
  0
TEXT
  5
20FAD
330
747D
100
AcDbEntity
  8
文字
 62
     7
 48
50.0
100
AcDbText
 10
13583.11819016568
 20
11100.01374588372
 30
0.0
 40
100.0
  1
土台枠
  7
STYLE1
100
AcDbText
  0
TEXT
  5
20FAE
330
747D
100
AcDbEntity
  8
文字
 62
     7
 48
50.0
100
AcDbText
 10
13583.11819016569
 20
10760.01374588372
 30
0.0
 40
100.0
  1
柱
  7
STYLE1
100
AcDbText
  0
TEXT
  5
20FAF
330
747D
100
AcDbEntity
  8
文字
 62
     7
 48
50.0
100
AcDbText
 10
13583.11819016569
 20
10420.01374588372
 30
0.0
 40
100.0
  1
鴨居
  7
STYLE1
100
AcDbText
  0
TEXT
  5
20FB0
330
747D
100
AcDbEntity
  8
文字
 62
     7
 48
50.0
100
AcDbText
 10
13583.11819016569
 20
10250.01374588372
 30
0.0
 40
100.0
  1
桁後
  7
STYLE1
100
AcDbText
  0
TEXT
  5
20FB1
330
747D
100
AcDbEntity
  8
文字
 62
     7
 48
50.0
100
AcDbText
 10
13271.19032244791
 20
10420.01374588372
 30
0.0
 40
100.0
  1
5
  7
STYLE1
100
AcDbText
  0
TEXT
  5
20FB2
330
747D
100
AcDbEntity
  8
文字
 62
     7
 48
50.0
100
AcDbText
 10
13583.11819016569
 20
10080.01374588372
 30
0.0
 40
100.0
  1
妻板左右
  7
STYLE1
100
AcDbText
  0
TEXT
  5
20FB3
330
747D
100
AcDbEntity
  8
文字
 62
     7
 48
50.0
100
AcDbText
 10
13248.77747366447
 20
9570.013745883725
 30
0.0
 40
100.0
  1
10
  7
STYLE1
100
AcDbText
  0
TEXT
  5
20FB4
330
747D
100
AcDbEntity
  8
文字
 62
     7
 48
50.0
100
AcDbText
 10
13583.11819016568
 20
9400.013745883725
 30
0.0
 40
100.0
  1
壁パネル
  7
STYLE1
100
AcDbText
  0
TEXT
  5
20FB5
330
747D
100
AcDbEntity
  8
文字
 62
     7
 48
50.0
100
AcDbText
 10
13583.11819016568
 20
9740.013745883725
 30
0.0
 40
100.0
  1
屋根パネル
  7
STYLE1
100
AcDbText
  0
TEXT
  5
20FB6
330
747D
100
AcDbEntity
  8
文字
 62
     7
 48
50.0
100
AcDbText
 10
13583.11819016569
 20
9910.013745883725
 30
0.0
 40
100.0
  1
鼻隠シ前後
  7
STYLE1
100
AcDbText
  0
TEXT
  5
20FB7
330
747D
100
AcDbEntity
  8
文字
 62
     7
 48
50.0
100
AcDbText
 10
13271.19032244791
 20
9910.013745883725
 30
0.0
 40
100.0
  1
8
  7
STYLE1
100
AcDbText
  0
TEXT
  5
20FB8
330
747D
100
AcDbEntity
  8
文字
 62
     7
 48
50.0
100
AcDbText
 10
13271.19032244791
 20
9740.013745883725
 30
0.0
 40
100.0
  1
9
  7
STYLE1
100
AcDbText
  0
TEXT
  5
20FB9
330
747D
100
AcDbEntity
  8
文字
 62
     7
 48
50.0
100
AcDbText
 10
13271.19032244791
 20
10080.01374588372
 30
0.0
 40
100.0
  1
7
  7
STYLE1
100
AcDbText
  0
TEXT
  5
20FBA
330
747D
100
AcDbEntity
  8
文字
 62
     7
 48
50.0
100
AcDbText
 10
13271.19032244791
 20
10250.01374588372
 30
0.0
 40
100.0
  1
6
  7
STYLE1
100
AcDbText
  0
LINE
  5
20FBB
330
747D
100
AcDbEntity
  8
仕様書枠
 48
50.0
100
AcDbLine
 10
16307.19999999998
 20
9709.599999999998
 30
0.0
 11
13127.19999999999
 21
9709.599999999998
 31
0.0
  0
LINE
  5
20FBC
330
747D
100
AcDbEntity
  8
仕様書枠
 48
50.0
100
AcDbLine
 10
16307.19999999998
 20
9369.599999999996
 30
0.0
 11
13127.19999999999
 21
9369.599999999996
 31
0.0
  0
LINE
  5
20FBD
330
747D
100
AcDbEntity
  8
仕様書枠
 48
50.0
100
AcDbLine
 10
16307.19999999998
 20
9539.599999999998
 30
0.0
 11
13127.19999999999
 21
9539.599999999998
 31
0.0
  0
LINE
  5
20FBE
330
747D
100
AcDbEntity
  8
仕様書枠
 48
50.0
100
AcDbLine
 10
16307.19999999999
 20
10219.59999999999
 30
0.0
 11
13127.19999999999
 21
10219.59999999999
 31
0.0
  0
LINE
  5
20FBF
330
747D
100
AcDbEntity
  8
仕様書枠
 48
50.0
100
AcDbLine
 10
16307.19999999999
 20
9879.599999999996
 30
0.0
 11
13127.19999999999
 21
9879.599999999996
 31
0.0
  0
TEXT
  5
20FC0
330
747D
100
AcDbEntity
  8
文字
 62
     7
 48
50.0
100
AcDbText
 10
13248.77747366447
 20
9400.013745883725
 30
0.0
 40
100.0
  1
11
  7
STYLE1
100
AcDbText
  0
LINE
  5
20FC1
330
747D
100
AcDbEntity
  8
仕様書枠
 48
50.0
100
AcDbLine
 10
16307.19999999998
 20
9199.599999999996
 30
0.0
 11
13127.19999999999
 21
9199.599999999996
 31
0.0
  0
LINE
  5
20FC2
330
747D
100
AcDbEntity
  8
仕様書枠
 48
50.0
100
AcDbLine
 10
16307.19999999998
 20
8859.599999999998
 30
0.0
 11
13127.19999999999
 21
8859.6
 31
0.0
  0
TEXT
  5
20FC3
330
747D
100
AcDbEntity
  8
文字
 62
     7
 48
50.0
100
AcDbText
 10
13248.77747366447
 20
9060.013745883725
 30
0.0
 40
100.0
  1
13
  7
STYLE1
100
AcDbText
  0
TEXT
  5
20FC4
330
747D
100
AcDbEntity
  8
文字
 62
     7
 48
50.0
100
AcDbText
 10
13248.77747366447
 20
9230.013745883725
 30
0.0
 40
100.0
  1
12
  7
STYLE1
100
AcDbText
  0
TEXT
  5
20FC5
330
747D
100
AcDbEntity
  8
文字
 62
     7
 48
50.0
100
AcDbText
 10
15022.63965474516
 20
11100.01374588372
 30
0.0
 40
100.0
  1
F12            1.2
  7
STYLE1
100
AcDbText
  0
TEXT
  5
20FC6
330
747D
100
AcDbEntity
  8
文字
 62
     7
 48
50.0
100
AcDbText
 10
15022.63965474517
 20
10760.01374588372
 30
0.0
 40
100.0
  1
F12            1.0
  7
STYLE1
100
AcDbText
  0
TEXT
  5
20FC7
330
747D
100
AcDbEntity
  8
文字
 62
     7
 48
50.0
100
AcDbText
 10
15022.63965474516
 20
10420.01374588372
 30
0.0
 40
100.0
  1
Y10            1.0
  7
STYLE1
100
AcDbText
  0
TEXT
  5
20FC8
330
747D
100
AcDbEntity
  8
文字
 62
     7
 48
50.0
100
AcDbText
 10
15022.63965474516
 20
10250.01374588372
 30
0.0
 40
100.0
  1
Y10            1.0
  7
STYLE1
100
AcDbText
  0
TEXT
  5
20FC9
330
747D
100
AcDbEntity
  8
文字
 62
     7
 48
50.0
100
AcDbText
 10
15022.63965474516
 20
10080.01374588372
 30
0.0
 40
100.0
  1
Y10            0.7
  7
STYLE1
100
AcDbText
  0
TEXT
  5
20FCA
330
747D
100
AcDbEntity
  8
文字
 62
     7
 48
50.0
100
AcDbText
 10
15022.63965474516
 20
9910.013745883723
 30
0.0
 40
100.0
  1
Y10            0.7
  7
STYLE1
100
AcDbText
  0
TEXT
  5
20FCB
330
747D
100
AcDbEntity
  8
文字
 62
     7
 48
50.0
100
AcDbText
 10
15022.63965474516
 20
9740.013745883722
 30
0.0
 40
100.0
  1
Y10            0.5
  7
STYLE1
100
AcDbText
  0
TEXT
  5
20FCC
330
747D
100
AcDbEntity
  8
文字
 62
     7
 48
50.0
100
AcDbText
 10
15022.63965474515
 20
9400.013745883722
 30
0.0
 40
100.0
  1
F12            0.6
  7
STYLE1
100
AcDbText
  0
LINE
  5
20FCD
330
747D
100
AcDbEntity
  8
仕様書枠
 48
50.0
100
AcDbLine
 10
16307.19999999998
 20
8689.6
 30
0.0
 11
13127.19999999998
 21
8689.6
 31
0.0
  0
LINE
  5
20FCE
330
747D
100
AcDbEntity
  8
仕様書枠
 48
50.0
100
AcDbLine
 10
16307.19999999998
 20
8519.600000000002
 30
0.0
 11
13127.19999999998
 21
8519.600000000002
 31
0.0
  0
TEXT
  5
20FCF
330
747D
100
AcDbEntity
  8
文字
 62
     7
 48
50.0
100
AcDbText
 10
13229.83081656553
 20
8550.013745883729
 30
0.0
 40
100.0
  1
F12→溶融亜鉛めっき鋼板(JIS G 3302)
  7
STYLE1
100
AcDbText
  0
TEXT
  5
20FD0
330
747D
100
AcDbEntity
  8
文字
 62
     7
 48
50.0
100
AcDbText
 10
13229.83081656553
 20
8380.013745883728
 30
0.0
 40
100.0
  1
Y10→溶融亜鉛-5％アルミニウム合金めっき鋼板(JIS G 3317)
 41
0.9
  7
STYLE1
100
AcDbText
  0
LINE
  5
20FD1
330
747D
100
AcDbEntity
  8
仕様書枠
 48
50.0
100
AcDbLine
 10
13127.19999999999
 20
11409.59999999999
 30
0.0
 11
13127.19999999998
 21
8349.6
 31
0.0
  0
LINE
  5
20FD2
330
747D
100
AcDbEntity
  8
仕様書枠
 48
50.0
100
AcDbLine
 10
16307.19999999998
 20
9029.599999999996
 30
0.0
 11
13127.19999999999
 21
9029.6
 31
0.0
  0
TEXT
  5
20FD3
330
747D
100
AcDbEntity
  8
文字
 62
     7
 48
50.0
100
AcDbText
 10
13583.11819016569
 20
10590.01374588372
 30
0.0
 40
100.0
  1
床パネル
 41
0.9
  7
STYLE1
100
AcDbText
  0
TEXT
  5
20FD4
330
747D
100
AcDbEntity
  8
文字
 62
     7
 48
50.0
100
AcDbText
 10
13583.11819016568
 20
10930.01374588372
 30
0.0
 40
100.0
  1
根太
  7
STYLE1
100
AcDbText
  0
TEXT
  5
20FD5
330
747D
100
AcDbEntity
  8
文字
 62
     7
 48
50.0
100
AcDbText
 10
13248.77747366447
 20
8890.013745883726
 30
0.0
 40
100.0
  1
14
  7
STYLE1
100
AcDbText
  0
TEXT
  5
20FD6
330
747D
100
AcDbEntity
  8
文字
 62
     7
 48
50.0
100
AcDbText
 10
15022.63965474515
 20
10930.01374588372
 30
0.0
 40
100.0
  1
F12            1.2
  7
STYLE1
100
AcDbText
  0
TEXT
  5
20FD7
330
747D
100
AcDbEntity
  8
文字
 62
     7
 48
50.0
100
AcDbText
 10
15022.63965474516
 20
10590.01374588372
 30
0.0
 40
100.0
  1
F12            1.0
  7
STYLE1
100
AcDbText
  0
TEXT
  5
20FD8
330
747D
100
AcDbEntity
  8
文字
 62
     7
 48
50.0
100
AcDbText
 10
15022.63965474514
 20
9230.013745883722
 30
0.0
 40
100.0
  1
F12            0.7
  7
STYLE1
100
AcDbText
  0
TEXT
  5
20FD9
330
747D
100
AcDbEntity
  8
文字
 62
     7
 48
50.0
100
AcDbText
 10
13583.11819016567
 20
9230.013745883725
 30
0.0
 40
100.0
  1
正面パネル
  7
STYLE1
100
AcDbText
  0
TEXT
  5
20FDA
330
747D
100
AcDbEntity
  8
文字
 62
     7
 48
50.0
100
AcDbText
 10
15022.63965474515
 20
9060.013745883722
 30
0.0
 40
100.0
  1
F12            0.8
  7
STYLE1
100
AcDbText
  0
TEXT
  5
20FDB
330
747D
100
AcDbEntity
  8
文字
 62
     7
 48
50.0
100
AcDbText
 10
13583.11819016568
 20
9060.013745883725
 30
0.0
 40
100.0
  1
扉
  7
STYLE1
100
AcDbText
  0
TEXT
  5
20FDC
330
747D
100
AcDbEntity
  8
文字
 62
     7
 48
50.0
100
AcDbText
 10
15022.63965474515
 20
8890.013745883726
 30
0.0
 40
100.0
  1
F12            0.6
  7
STYLE1
100
AcDbText
  0
TEXT
  5
20FDD
330
747D
100
AcDbEntity
  8
文字
 62
     7
 48
50.0
100
AcDbText
 10
13583.11819016568
 20
8890.013745883729
 30
0.0
 40
100.0
  1
棚板
  7
STYLE1
100
AcDbText
  0
LINE
  5
20FDE
330
747D
100
AcDbEntity
  8
仕様書枠
 48
50.0
100
AcDbLine
 10
16307.19999999998
 20
8349.6
 30
0.0
 11
13127.19999999998
 21
8349.6
 31
0.0
  0
TEXT
  5
20FDF
330
747D
100
AcDbEntity
  8
文字
 62
     7
 48
50.0
100
AcDbText
 10
13248.77747366446
 20
8720.013745883729
 30
0.0
 40
100.0
  1
15
  7
STYLE1
100
AcDbText
  0
TEXT
  5
20FE0
330
747D
100
AcDbEntity
  8
文字
 62
     7
 48
50.0
100
AcDbText
 10
13583.11819016568
 20
9570.013745883725
 30
0.0
 40
100.0
  1
母屋中
  7
STYLE1
100
AcDbText
  0
TEXT
  5
20FE1
330
747D
100
AcDbEntity
  8
文字
 62
     7
 48
50.0
100
AcDbText
 10
15022.63965474516
 20
9570.013745883722
 30
0.0
 40
100.0
  1
F12            1.0
  7
STYLE1
100
AcDbText
  0
DIMENSION
  5
21F81
330
747D
100
AcDbEntity
  8
寸法
 48
50.0
100
AcDbDimension
  2
*D18
 10
7542.090822197701
 20
8423.528166444915
 30
0.0
 11
7542.0908221977
 21
9048.611850574074
 31
0.0
 70
   160
 71
     5
 42
1272.999999999996
  3
INABA_S40G
100
AcDbAlignedDimension
 13
7126.896575106894
 23
9807.779129654859
 33
0.0
 14
7126.896575107211
 24
8534.779129654863
 34
0.0
 50
90.0
100
AcDbRotatedDimension
  0
DIMENSION
  5
21F82
330
747D
100
AcDbEntity
  8
寸法
 48
50.0
100
AcDbDimension
  2
*D17
 10
7542.398977046456
 20
7172.695596602039
 30
0.0
 11
7542.398977046454
 21
7835.868748933499
 31
0.0
 70
   160
 71
     5
 42
1215.999999999689
  3
INABA_S40G
100
AcDbAlignedDimension
 13
7126.896575106899
 23
8500.02912965454
 33
0.0
 14
7126.896575107217
 24
7284.029129654851
 34
0.0
 50
90.0
100
AcDbRotatedDimension
  0
DIMENSION
  5
21F83
330
747D
100
AcDbEntity
  8
寸法
 48
50.0
100
AcDbDimension
  2
*D16
 10
6612.471733544168
 20
10048.21591163692
 30
0.0
 11
6871.229496569253
 21
10048.21591163692
 31
0.0
 70
   160
 71
     5
 42
449.9999999999982
  3
INABA_S40G
100
AcDbAlignedDimension
 13
7126.896575106993
 23
9807.779129654878
 33
0.0
 14
6676.896575106994
 24
9807.779129654877
 34
0.0
100
AcDbRotatedDimension
  0
LINE
  5
21F84
330
747D
100
AcDbEntity
  8
細線
 48
50.0
100
AcDbLine
 10
7126.8965751072
 20
8534.779129654856
 30
0.0
 11
6676.896575106889
 21
9807.779129654857
 31
0.0
  0
LINE
  5
21F85
330
747D
100
AcDbEntity
  8
細線
 48
50.0
100
AcDbLine
 10
6676.896575107202
 20
8534.779129654856
 30
0.0
 11
7126.896575106894
 21
9807.779129654859
 31
0.0
  0
LINE
  5
21F86
330
747D
100
AcDbEntity
  8
細線
 48
50.0
100
AcDbLine
 10
7126.896575107211
 20
7284.029129654844
 30
0.0
 11
6676.896575106896
 21
8500.02912965483
 31
0.0
  0
LINE
  5
21F87
330
747D
100
AcDbEntity
  8
細線
 48
50.0
100
AcDbLine
 10
6676.896575107214
 20
7284.029129654844
 30
0.0
 11
7126.896575107007
 21
8500.029129654832
 31
0.0
  0
LINE
  5
21F88
330
747D
100
AcDbEntity
  8
部品1
 48
50.0
100
AcDbLine
 10
7131.896575106974
 20
8509.029129654807
 30
0.0
 11
6679.896575106974
 21
8509.029129654807
 31
0.0
  0
LINE
  5
21F89
330
747D
100
AcDbEntity
  8
部品1
 48
50.0
100
AcDbLine
 10
7126.896575106994
 20
8500.029129654832
 30
0.0
 11
6676.896575106997
 21
8500.029129654832
 31
0.0
  0
LINE
  5
21F8A
330
747D
100
AcDbEntity
  8
部品1
 48
50.0
100
AcDbLine
 10
7131.896575106982
 20
8534.029129654809
 30
0.0
 11
6679.896575106974
 21
8534.029129654808
 31
0.0
  0
LINE
  5
21F8B
330
747D
100
AcDbEntity
  8
部品1
100
AcDbLine
 10
7126.896575107089
 20
8534.779129654841
 30
0.0
 11
6676.896575107091
 21
8534.779129654841
 31
0.0
  0
LINE
  5
21F8C
330
747D
100
AcDbEntity
  8
部品1
100
AcDbLine
 10
6679.896575106974
 20
8534.029129654808
 30
0.0
 11
6679.896575106974
 21
8509.029129654807
 31
0.0
  0
LINE
  5
21F8D
330
747D
100
AcDbEntity
  8
部品1
100
AcDbLine
 10
6676.896575106889
 20
9807.779129654857
 30
0.0
 11
6676.896575107204
 21
8534.779129654841
 31
0.0
  0
LINE
  5
21F8E
330
747D
100
AcDbEntity
  8
部品1
100
AcDbLine
 10
6676.896575106896
 20
8500.02912965483
 30
0.0
 11
6676.896575107214
 21
7284.029129654844
 31
0.0
  0
LINE
  5
21F8F
330
747D
100
AcDbEntity
  8
部品1
100
AcDbLine
 10
7126.8965751071
 20
7284.02912965483
 30
0.0
 11
6676.896575107102
 21
7284.02912965483
 31
0.0
  0
LINE
  5
21F90
330
747D
100
AcDbEntity
  8
部品1
100
AcDbLine
 10
7126.896575106899
 20
8500.029129654832
 30
0.0
 11
7126.896575107216
 21
7284.029129654844
 31
0.0
  0
LINE
  5
21F91
330
747D
100
AcDbEntity
  8
部品1
100
AcDbLine
 10
7101.896575106971
 20
8534.029129654808
 30
0.0
 11
7101.896575106974
 21
8509.029129654807
 31
0.0
  0
LINE
  5
21F92
330
747D
100
AcDbEntity
  8
部品1
100
AcDbLine
 10
7143.896575106975
 20
8547.529129654808
 30
0.0
 11
7131.896575106974
 21
8547.529129654808
 31
0.0
  0
LINE
  5
21F93
330
747D
100
AcDbEntity
  8
部品1
100
AcDbLine
 10
7143.896575106975
 20
8495.529129654808
 30
0.0
 11
7131.896575106974
 21
8495.529129654808
 31
0.0
  0
LINE
  5
21F94
330
747D
100
AcDbEntity
  8
部品1
100
AcDbLine
 10
7126.896575106894
 20
9807.779129654859
 30
0.0
 11
7126.896575107204
 21
8534.779129654856
 31
0.0
  0
LINE
  5
21F95
330
747D
100
AcDbEntity
  8
部品1
 48
50.0
100
AcDbLine
 10
7126.896575106991
 20
9807.779129654859
 30
0.0
 11
6676.896575106993
 21
9807.779129654857
 31
0.0
  0
LINE
  5
2200F
330
747D
100
AcDbEntity
  8
部品1
100
AcDbLine
 10
6676.896575107017
 20
9780.029129654792
 30
0.0
 11
5686.396575106919
 21
9780.02912965486
 31
0.0
  0
LINE
  5
22010
330
747D
100
AcDbEntity
  8
破線
 48
10.0
100
AcDbLine
 10
6676.896575107021
 20
9756.52912965479
 30
0.0
 11
5709.896575106917
 21
9756.529129654861
 31
0.0
  0
LINE
  5
22011
330
747D
100
AcDbEntity
  8
部品1
 48
50.0
100
AcDbLine
 10
5686.396575107003
 20
9780.029129654764
 30
0.0
 11
5657.896575107002
 21
9808.529129654761
 31
0.0
  0
LINE
  5
22012
330
747D
100
AcDbEntity
  8
部品1
100
AcDbLine
 10
6631.896575106854
 20
9780.029129654792
 30
0.0
 11
6631.89657510685
 21
7339.029129654869
 31
0.0
  0
LINE
  5
22013
330
747D
100
AcDbEntity
  8
部品1
100
AcDbLine
 10
7131.896575107008
 20
8521.529129654833
 30
0.0
 11
7159.896575107008
 21
8521.529129654833
 31
0.0
  0
LINE
  5
22014
330
747D
100
AcDbEntity
  8
部品1
100
AcDbLine
 10
7131.896575107017
 20
7681.529129654833
 30
0.0
 11
7159.896575107016
 21
7681.529129654833
 31
0.0
  0
LINE
  5
22015
330
747D
100
AcDbEntity
  8
部品1
100
AcDbLine
 10
5657.896575106963
 20
8521.529129654703
 30
0.0
 11
5629.896575106964
 21
8521.529129654703
 31
0.0
  0
LINE
  5
22016
330
747D
100
AcDbEntity
  8
部品1
100
AcDbLine
 10
5657.896575106971
 20
7681.529129654705
 30
0.0
 11
5629.896575106972
 21
7681.529129654705
 31
0.0
  0
LINE
  5
22017
330
747D
100
AcDbEntity
  8
部品1
100
AcDbLine
 10
7131.896575107028
 20
8509.029129654807
 30
0.0
 11
7131.896575106992
 21
7261.529129654826
 31
0.0
  0
MTEXT
  5
22018
330
747D
100
AcDbEntity
  8
寸法
 62
     7
 48
50.0
100
AcDbMText
 10
6740.821695652645
 20
9171.338064512454
 30
0.0
 40
96.0
 41
0.0
 71
     5
 72
     1
  1
棚 2段
  7
STYLE1
 11
0.0000000000000001
 21
1.0
 31
0.0
 73
     1
 44
1.0
1001
ACAD
1000
MTEXTBEGIN
1070
    73
1070
     1
1070
    44
1040
1.0
1070
    74
1070
     0
1000
MTEXTEND
  0
LINE
  5
2201B
330
747D
100
AcDbEntity
  8
破線
 48
10.0
100
AcDbLine
 10
5709.896575106956
 20
8131.529129654742
 30
0.0
 11
5709.896575106985
 21
7360.529129654735
 31
0.0
  0
LINE
  5
22EC9
330
747D
100
AcDbEntity
  8
破線
 48
5.0
100
AcDbLine
 10
7259.896575106991
 20
2265.370545170664
 30
0.0
 11
7059.896575106989
 21
2265.370545170664
 31
0.0
  0
LINE
  5
22ECA
330
747D
100
AcDbEntity
  8
破線
 48
5.0
100
AcDbLine
 10
7059.896575106991
 20
2465.370545170665
 30
0.0
 11
7059.896575106991
 21
2265.370545170664
 31
0.0
  0
LINE
  5
22ECB
330
747D
100
AcDbEntity
  8
破線
 48
5.0
100
AcDbLine
 10
7259.896575106991
 20
2465.370545170665
 30
0.0
 11
7259.896575106991
 21
2265.370545170664
 31
0.0
  0
DIMENSION
  5
22ECC
330
747D
100
AcDbEntity
  8
寸法
 48
50.0
100
AcDbDimension
  2
*D19
 10
7059.896575106989
 20
1979.323215870287
 30
0.0
 11
7159.89657510699
 21
1979.323215870287
 31
0.0
 70
   160
 71
     5
 42
200.0000000000018
  3
INABA_S40G
100
AcDbAlignedDimension
 13
7259.896575106991
 23
2265.370545170664
 33
0.0
 14
7059.896575106989
 24
2265.370545170664
 34
0.0
100
AcDbRotatedDimension
  0
LINE
  5
22EE2
330
747D
100
AcDbEntity
  8
破線
 48
5.0
100
AcDbLine
 10
5529.896575106992
 20
2265.370545170663
 30
0.0
 11
5729.896575106994
 21
2265.370545170663
 31
0.0
  0
LINE
  5
22EE3
330
747D
100
AcDbEntity
  8
破線
 48
5.0
100
AcDbLine
 10
5529.896575106992
 20
2465.370545170663
 30
0.0
 11
5529.896575106992
 21
2265.370545170663
 31
0.0
  0
LINE
  5
22EE4
330
747D
100
AcDbEntity
  8
破線
 48
5.0
100
AcDbLine
 10
5729.896575106992
 20
2465.370545170663
 30
0.0
 11
5729.896575106992
 21
2265.370545170663
 31
0.0
  0
LINE
  5
22F7D
330
747D
100
AcDbEntity
  8
部品1
100
AcDbLine
 10
5657.896575106963
 20
9361.529129654703
 30
0.0
 11
5629.896575106964
 21
9361.529129654703
 31
0.0
  0
LINE
  5
22F7E
330
747D
100
AcDbEntity
  8
部品1
100
AcDbLine
 10
7131.896575107008
 20
9361.529129654833
 30
0.0
 11
7159.896575107008
 21
9361.529129654833
 31
0.0
  0
TEXT
  5
232E2
330
747D
100
AcDbEntity
  8
文字
 62
     7
 48
50.0
100
AcDbText
 10
13209.4053442172
 20
62.38657845720081
 30
0.0
 40
100.0
  1
○床面積 ： 4.02㎡(1.22坪) 　
  7
STYLE2
100
AcDbText
  0
LINE
  5
23B14
330
747D
100
AcDbEntity
  8
部品1
 48
50.0
100
AcDbLine
 10
11210.69395691447
 20
2565.370545170664
 30
0.0
 11
11210.69395691447
 21
2465.370545170665
 31
0.0
  0
LINE
  5
23B15
330
747D
100
AcDbEntity
  8
部品1
 48
50.0
100
AcDbLine
 10
11010.69395691447
 20
2565.370545170664
 30
0.0
 11
11010.69395691447
 21
2465.370545170665
 31
0.0
  0
LINE
  5
23B16
330
747D
100
AcDbEntity
  8
部品1
 48
50.0
100
AcDbLine
 10
10405.69395691447
 20
2565.370545170664
 30
0.0
 11
10405.69395691447
 21
2465.370545170665
 31
0.0
  0
LINE
  5
23B17
330
747D
100
AcDbEntity
  8
部品1
 48
50.0
100
AcDbLine
 10
10205.69395691447
 20
2565.370545170664
 30
0.0
 11
10205.69395691447
 21
2465.370545170665
 31
0.0
  0
LINE
  5
23B18
330
747D
100
AcDbEntity
  8
細線
 48
50.0
100
AcDbLine
 10
11433.19395691448
 20
4405.370545170664
 30
0.0
 11
11433.19395691448
 21
2615.370545170665
 31
0.0
  0
LINE
  5
23B19
330
747D
100
AcDbEntity
  8
細線
 48
50.0
100
AcDbLine
 10
11448.19395691448
 20
4405.370545170664
 30
0.0
 11
11448.19395691448
 21
2615.370545170665
 31
0.0
  0
LINE
  5
23B1A
330
747D
100
AcDbEntity
  8
細線
 48
50.0
100
AcDbLine
 10
11308.19395691448
 20
4405.370545170664
 30
0.0
 11
11308.19395691448
 21
2615.370545170665
 31
0.0
  0
LINE
  5
23B1B
330
747D
100
AcDbEntity
  8
細線
 48
50.0
100
AcDbLine
 10
11293.19395691448
 20
4405.370545170664
 30
0.0
 11
11293.19395691448
 21
2615.370545170665
 31
0.0
  0
LINE
  5
23B1C
330
747D
100
AcDbEntity
  8
細線
 48
50.0
100
AcDbLine
 10
11153.19395691448
 20
4405.370545170664
 30
0.0
 11
11153.19395691448
 21
2615.370545170665
 31
0.0
  0
LINE
  5
23B1D
330
747D
100
AcDbEntity
  8
細線
 48
50.0
100
AcDbLine
 10
11168.19395691448
 20
4405.370545170664
 30
0.0
 11
11168.19395691448
 21
2615.370545170665
 31
0.0
  0
LINE
  5
23B1E
330
747D
100
AcDbEntity
  8
部品1
100
AcDbLine
 10
11090.69395691447
 20
4405.370545170664
 30
0.0
 11
11090.69395691447
 21
2615.370545170665
 31
0.0
  0
LINE
  5
23B26
330
747D
100
AcDbEntity
  8
部品1
100
AcDbLine
 10
10530.91908734371
 20
4765.574933133681
 30
0.0
 11
10856.37410098675
 21
4748.05687417482
 31
0.0
  0
ARC
  5
23B29
330
747D
100
AcDbEntity
  8
部品1
100
AcDbCircle
 10
12051.32149272841
 20
4479.394302436456
 30
0.0
 40
0.7
100
AcDbArc
 50
275.0921697642079
 51
354.1866997667087
  0
ARC
  5
23B2A
330
747D
100
AcDbEntity
  8
部品1
100
AcDbCircle
 10
12062.18083847773
 20
4556.437557254379
 30
0.0
 40
0.7
100
AcDbArc
 50
275.0921697642079
 51
354.1866997665532
  0
ARC
  5
23B2B
330
747D
100
AcDbEntity
  8
部品1
100
AcDbCircle
 10
12062.50924372034
 20
4552.75216039729
 30
0.0
 40
3.0
100
AcDbArc
 50
95.09216976421251
 51
174.1866997665532
  0
ARC
  5
23B2C
330
747D
100
AcDbEntity
  8
部品1
100
AcDbCircle
 10
12051.64989797101
 20
4475.708905579366
 30
0.0
 40
3.0
100
AcDbArc
 50
95.09216976420788
 51
174.1866997665532
  0
ARC
  5
23B2D
330
747D
100
AcDbEntity
  8
部品1
 48
50.0
100
AcDbCircle
 10
12040.62176269591
 20
4466.118160975484
 30
0.0
 40
7.0
100
AcDbArc
 50
267.8377559869492
 51
354.1866997665532
  0
ARC
  5
23B2E
330
747D
100
AcDbEntity
  8
部品1
 48
50.0
100
AcDbCircle
 10
12057.94385916042
 20
4577.020708117657
 30
0.0
 40
7.0
100
AcDbArc
 50
354.1866997665532
 51
87.03587545283228
  0
LINE
  5
23B2F
330
747D
100
AcDbEntity
  8
部品1
 48
50.0
100
AcDbLine
 10
12048.6653263004
 20
4476.012767296269
 30
0.0
 11
12047.58576326066
 21
4465.40915030271
 31
0.0
  0
LINE
  5
23B30
330
747D
100
AcDbEntity
  8
部品1
 48
50.0
100
AcDbLine
 10
12059.52467204973
 20
4553.056022114193
 30
0.0
 11
12052.01789278489
 21
4479.323401369181
 31
0.0
  0
LINE
  5
23B31
330
747D
100
AcDbEntity
  8
部品1
 48
50.0
100
AcDbLine
 10
12064.90785972518
 20
4576.311697444881
 30
0.0
 11
12062.87723853421
 21
4556.366656187102
 31
0.0
  0
ARC
  5
23B32
330
747D
100
AcDbEntity
  8
部品1
100
AcDbCircle
 10
9301.731048785841
 20
4519.184704129567
 30
0.0
 40
0.7
100
AcDbArc
 50
181.0932240292635
 51
260.1877540314845
  0
ARC
  5
23B33
330
747D
100
AcDbEntity
  8
部品1
100
AcDbCircle
 10
9296.95837518823
 20
4612.050482329686
 30
0.0
 40
0.7
100
AcDbArc
 50
181.0932240292114
 51
260.1877540314845
  0
ARC
  5
23B34
330
747D
100
AcDbEntity
  8
部品1
100
AcDbCircle
 10
9296.32782078521
 20
4608.404607792288
 30
0.0
 40
3.0
100
AcDbArc
 50
1.093224029315636
 51
80.18775403168987
  0
ARC
  5
23B35
330
747D
100
AcDbEntity
  8
部品1
100
AcDbCircle
 10
9301.100494382815
 20
4515.538829592169
 30
0.0
 40
3.0
100
AcDbArc
 50
1.093224029315636
 51
80.18775403168987
  0
ARC
  5
23B36
330
747D
100
AcDbEntity
  8
部品1
 48
50.0
100
AcDbCircle
 10
9311.300626758017
 20
4505.146586209688
 30
0.0
 40
7.0
100
AcDbArc
 50
181.0932240293156
 51
267.8377559869492
  0
ARC
  5
23B37
330
747D
100
AcDbEntity
  8
部品1
 48
50.0
100
AcDbCircle
 10
9302.876968655921
 20
4632.097645742783
 30
0.0
 40
7.0
100
AcDbArc
 50
87.03587545283228
 51
181.0932240293156
  0
LINE
  5
23B38
330
747D
100
AcDbEntity
  8
部品1
 48
50.0
100
AcDbLine
 10
9304.099948309247
 20
4515.596067195352
 30
0.0
 11
9304.301900929678
 21
4505.01303180226
 31
0.0
  0
LINE
  5
23B39
330
747D
100
AcDbEntity
  8
細線
 48
50.0
100
AcDbLine
 10
9301.493855252575
 20
4518.526115314161
 30
0.0
 11
12051.49751968321
 21
4478.716796339667
 31
0.0
  0
LINE
  5
23B3A
330
747D
100
AcDbEntity
  8
細線
 48
50.0
100
AcDbLine
 10
9296.733380015288
 20
4611.387627012024
 30
0.0
 11
12062.36936476046
 21
4555.763422371196
 31
0.0
  0
LINE
  5
23B3B
330
747D
100
AcDbEntity
  8
部品1
 48
50.0
100
AcDbLine
 10
9299.32727471164
 20
4608.461845395471
 30
0.0
 11
9301.031176203002
 21
4519.171348688824
 31
0.0
  0
LINE
  5
23B3C
330
747D
100
AcDbEntity
  8
部品1
 48
50.0
100
AcDbLine
 10
9295.878242827582
 20
4631.964091335356
 30
0.0
 11
9296.258502605393
 21
4612.037126888944
 31
0.0
  0
LINE
  5
23B3D
330
747D
100
AcDbEntity
  8
細線
 48
50.0
100
AcDbLine
 10
12032.66324010816
 20
4584.523967650132
 30
0.0
 11
12027.94627402648
 21
4459.591751715215
 31
0.0
  0
LINE
  5
23B3E
330
747D
100
AcDbEntity
  8
細線
 48
50.0
100
AcDbLine
 10
9328.693956914476
 20
4637.770221546068
 30
0.0
 11
9323.404855358967
 21
4497.684588918713
 31
0.0
  0
LINE
  5
23B3F
330
747D
100
AcDbEntity
  8
部品1
100
AcDbLine
 10
9311.036521516427
 20
4498.15157023963
 30
0.0
 11
12040.35765745432
 21
4459.123145005424
 31
0.0
  0
LINE
  5
23B40
330
747D
100
AcDbEntity
  8
部品1
100
AcDbLine
 10
9303.238943271436
 20
4639.088280504929
 30
0.0
 11
12058.30583377594
 21
4584.011342879802
 31
0.0
  0
LINE
  5
23B41
330
747D
100
AcDbEntity
  8
部品1
 48
50.0
100
AcDbLine
 10
10556.37410098675
 20
4764.256874174819
 30
0.0
 11
10856.37410098675
 21
4764.256874174819
 31
0.0
  0
LINE
  5
23B42
330
747D
100
AcDbEntity
  8
部品1
 48
50.0
100
AcDbLine
 10
10856.37410098675
 20
4764.256874174819
 30
0.0
 11
10856.37410098675
 21
4748.05687417482
 31
0.0
  0
TEXT
  5
23B43
330
747D
100
AcDbEntity
  8
部品1
 48
50.0
100
AcDbText
 10
10544.64193621048
 20
4800.140896327253
 30
0.0
 40
120.0
  1
1000
  7
STYLE1
100
AcDbText
  0
TEXT
  5
23B44
330
747D
100
AcDbEntity
  8
部品1
 48
50.0
100
AcDbText
 10
11022.27495887557
 20
4662.639638108969
 30
0.0
 40
120.0
  1
37
 50
90.0
  7
STYLE1
100
AcDbText
  0
LINE
  5
23B45
330
747D
100
AcDbEntity
  8
細線
 48
50.0
100
AcDbLine
 10
10748.19395691448
 20
4405.370545170662
 30
0.0
 11
10748.19395691448
 21
2615.370545170663
 31
0.0
  0
LINE
  5
23B46
330
747D
100
AcDbEntity
  8
細線
 48
50.0
100
AcDbLine
 10
10733.19395691447
 20
4405.370545170662
 30
0.0
 11
10733.19395691447
 21
2615.370545170663
 31
0.0
  0
LINE
  5
23B47
330
747D
100
AcDbEntity
  8
細線
 48
50.0
100
AcDbLine
 10
10873.19395691447
 20
4405.370545170662
 30
0.0
 11
10873.19395691447
 21
2615.370545170663
 31
0.0
  0
LINE
  5
23B48
330
747D
100
AcDbEntity
  8
細線
 48
50.0
100
AcDbLine
 10
10888.19395691448
 20
4405.370545170662
 30
0.0
 11
10888.19395691448
 21
2615.370545170663
 31
0.0
  0
LINE
  5
23B49
330
747D
100
AcDbEntity
  8
細線
 48
50.0
100
AcDbLine
 10
11028.19395691448
 20
4405.370545170662
 30
0.0
 11
11028.19395691448
 21
2615.370545170663
 31
0.0
  0
LINE
  5
23B4A
330
747D
100
AcDbEntity
  8
細線
 48
50.0
100
AcDbLine
 10
11013.19395691447
 20
4405.370545170662
 30
0.0
 11
11013.19395691447
 21
2615.370545170663
 31
0.0
  0
LINE
  5
23B4B
330
747D
100
AcDbEntity
  8
部品1
100
AcDbLine
 10
11510.69395691447
 20
4405.370545170664
 30
0.0
 11
11510.69395691447
 21
2615.370545170664
 31
0.0
  0
LINE
  5
23B5F
330
747D
100
AcDbEntity
  8
部品1
100
AcDbLine
 10
9355.693956914475
 20
4405.370545170662
 30
0.0
 11
11985.69395691447
 21
4405.370545170662
 31
0.0
  0
LINE
  5
23B60
330
747D
100
AcDbEntity
  8
部品1
100
AcDbLine
 10
9355.693956914475
 20
2615.370545170663
 30
0.0
 11
11985.69395691448
 21
2615.370545170664
 31
0.0
  0
LINE
  5
23B61
330
747D
100
AcDbEntity
  8
部品1
100
AcDbLine
 10
9355.693956914475
 20
2565.370545170663
 30
0.0
 11
9363.193956914475
 21
2565.370545170663
 31
0.0
  0
LINE
  5
23B62
330
747D
100
AcDbEntity
  8
部品1
100
AcDbLine
 10
9410.693956914474
 20
4405.370545170662
 30
0.0
 11
9410.693956914474
 21
2615.370545170663
 31
0.0
  0
LINE
  5
23B63
330
747D
100
AcDbEntity
  8
部品1
100
AcDbLine
 10
9355.693956914475
 20
4497.22906461291
 30
0.0
 11
9355.693956914475
 21
2465.370545170663
 31
0.0
  0
DIMENSION
  5
23B64
330
747D
100
AcDbEntity
  8
寸法
100
AcDbDimension
  2
*D20
 10
8810.78531551722
 20
2627.370545170663
 30
0.0
 11
8710.785315517219
 21
3512.370545170664
 31
0.0
 70
    32
  1
有効開口部高サ<>
 71
     5
 42
1769.999999999999
  3
INABA_S40G
100
AcDbAlignedDimension
 13
9355.693956914475
 23
4397.370545170662
 33
0.0
 14
9355.693956914475
 24
2627.370545170663
 34
0.0
 50
90.0
100
AcDbRotatedDimension
1001
ACAD
1000
DSTYLE
1002
{
1070
   174
1070
     0
1070
   272
1070
     1
1070
   288
1070
     0
1070
   341
1005
0
1002
}
  0
DIMENSION
  5
23B65
330
747D
100
AcDbEntity
  8
寸法
100
AcDbDimension
  2
*D21
 10
8511.943827731213
 20
2615.370545170663
 30
0.0
 11
8411.943827731214
 21
3510.370545170665
 31
0.0
 70
    32
 71
     5
 42
1789.999999999999
  3
INABA_S40G
100
AcDbAlignedDimension
 13
9355.693956914475
 23
4405.370545170662
 33
0.0
 14
9355.693956914475
 24
2615.370545170663
 34
0.0
 50
90.0
100
AcDbRotatedDimension
1001
ACAD
1000
DSTYLE
1002
{
1070
   174
1070
     0
1070
   272
1070
     1
1070
   288
1070
     0
1070
   341
1005
0
1002
}
  0
DIMENSION
  5
23B66
330
747D
100
AcDbEntity
  8
寸法
100
AcDbDimension
  2
*D22
 10
8211.943827731214
 20
4640.370545170667
 30
0.0
 11
8111.932016707591
 21
3602.870545170667
 31
0.0
 70
    32
 71
     5
 42
2075.000000000004
  3
INABA_S40G
100
AcDbAlignedDimension
 13
9355.693956914475
 23
2565.370545170663
 33
0.0
 14
9295.693956914474
 24
4640.370545170667
 34
0.0
 50
90.0
100
AcDbRotatedDimension
1001
ACAD
1000
DSTYLE
1002
{
1070
   174
1070
     0
1070
   272
1070
     1
1070
   288
1070
     0
1070
   341
1005
0
1002
}
  0
DIMENSION
  5
23B67
330
747D
100
AcDbEntity
  8
寸法
100
AcDbDimension
  2
*D23
 10
8211.943827731214
 20
2465.370545170663
 30
0.0
 11
8211.943827731214
 21
2229.323301076173
 31
0.0
 70
   160
 71
     5
 42
100.0000000000004
  3
INABA_S40G
100
AcDbAlignedDimension
 13
9300.693956914475
 23
2565.370545170663
 33
0.0
 14
8299.192881019342
 24
2465.370545170663
 34
0.0
 50
90.0
100
AcDbRotatedDimension
1001
ACAD
1000
DSTYLE
1002
{
1070
   174
1070
     0
1070
   272
1070
     1
1070
   288
1070
     0
1070
   341
1005
0
1002
}
  0
DIMENSION
  5
23B68
330
747D
100
AcDbEntity
  8
寸法
100
AcDbDimension
  2
*D24
 10
8511.943827731213
 20
2565.370545170663
 30
0.0
 11
8511.943827731213
 21
2259.323301076173
 31
0.0
 70
   160
 71
     5
 42
50.0
  3
INABA_S40G
100
AcDbAlignedDimension
 13
9355.693956914475
 23
2615.370545170663
 33
0.0
 14
9300.693956914475
 24
2565.370545170663
 34
0.0
 50
90.0
100
AcDbRotatedDimension
1001
ACAD
1000
DSTYLE
1002
{
1070
   174
1070
     0
1070
   272
1070
     1
1070
   288
1070
     0
1070
   341
1005
0
1002
}
  0
LINE
  5
23B69
330
747D
100
AcDbEntity
  8
部品1
100
AcDbLine
 10
9830.693956914474
 20
4405.370545170662
 30
0.0
 11
9830.693956914474
 21
2615.370545170663
 31
0.0
  0
LINE
  5
23B6A
330
747D
100
AcDbEntity
  8
部品1
100
AcDbLine
 10
11985.69395691447
 20
4459.904818558402
 30
0.0
 11
11985.69395691448
 21
2465.370545170664
 31
0.0
  0
LINE
  5
23B6B
330
747D
100
AcDbEntity
  8
部品1
100
AcDbLine
 10
11930.69395691447
 20
4405.370545170664
 30
0.0
 11
11930.69395691447
 21
2615.370545170664
 31
0.0
  0
DIMENSION
  5
23B6C
330
747D
100
AcDbEntity
  8
寸法
100
AcDbDimension
  2
*D25
 10
12690.6211148866
 20
4585.370545170664
 30
0.0
 11
12590.60930386298
 21
3575.370545170666
 31
0.0
 70
    32
 71
     5
 42
2020.000000000001
  3
INABA_S40G
100
AcDbAlignedDimension
 13
11985.69395691448
 23
2565.370545170664
 33
0.0
 14
12065.69395691447
 24
4585.370545170664
 34
0.0
 50
90.0
100
AcDbRotatedDimension
1001
ACAD
1000
DSTYLE
1002
{
1070
   174
1070
     0
1070
   272
1070
     1
1070
   288
1070
     0
1070
   341
1005
0
1002
}
  0
LINE
  5
23B6D
330
747D
100
AcDbEntity
  8
部品1
100
AcDbLine
 10
9555.693956914474
 20
2565.370545170663
 30
0.0
 11
9555.693956914474
 21
2465.370545170663
 31
0.0
  0
LINE
  5
23B6E
330
747D
100
AcDbEntity
  8
部品1
100
AcDbLine
 10
11785.69395691448
 20
2565.370545170664
 30
0.0
 11
11785.69395691448
 21
2465.370545170664
 31
0.0
  0
DIMENSION
  5
23B6F
330
747D
100
AcDbEntity
  8
寸法
 48
50.0
100
AcDbDimension
  2
*D26
 10
9355.693956914475
 20
5039.027998749968
 30
0.0
 11
10710.46414794367
 21
5039.027998749968
 31
0.0
 70
   160
  1
柱外寸法<>
 71
     5
 42
2630.0
  3
INABA_S40G
100
AcDbAlignedDimension
 13
11985.69395691447
 23
4587.181224782317
 33
0.0
 14
9355.693956914475
 24
4636.372163293639
 34
0.0
100
AcDbRotatedDimension
1001
ACAD
1000
DSTYLE
1002
{
1070
   174
1070
     0
1070
   272
1070
     1
1070
   288
1070
     0
1070
   341
1005
0
1002
}
  0
DIMENSION
  5
23B70
330
747D
100
AcDbEntity
  8
寸法
 48
50.0
100
AcDbDimension
  2
*D27
 10
9295.693956914474
 20
5039.027998749967
 30
0.0
 11
8986.056161638883
 21
5039.027998749967
 31
0.0
 70
   160
 71
     5
 42
60.0
  3
INABA_S40G
100
AcDbAlignedDimension
 13
9355.693956914475
 23
4636.372163293639
 33
0.0
 14
9295.693956914474
 24
4640.370545170667
 34
0.0
100
AcDbRotatedDimension
1001
ACAD
1000
DSTYLE
1002
{
1070
   174
1070
     0
1070
   272
1070
     1
1070
   288
1070
     0
1070
   341
1005
0
1002
}
  0
DIMENSION
  5
23B71
330
747D
100
AcDbEntity
  8
寸法
 48
50.0
100
AcDbDimension
  2
*D28
 10
9295.693956914474
 20
5259.238685481585
 30
0.0
 11
10699.05288180185
 21
5259.238685481585
 31
0.0
 70
   160
 71
     5
 42
2770.0
  3
INABA_S40G
100
AcDbAlignedDimension
 13
12065.69395691447
 23
4585.370545170664
 33
0.0
 14
9295.693956914474
 24
4640.370545170667
 34
0.0
100
AcDbRotatedDimension
1001
ACAD
1000
DSTYLE
1002
{
1070
   174
1070
     0
1070
   272
1070
     1
1070
   288
1070
     0
1070
   341
1005
0
1002
}
  0
LINE
  5
23B72
330
747D
100
AcDbEntity
  8
破線
  6
HIDDEN
 48
5.0
100
AcDbLine
 10
11993.19395691447
 20
2310.370545170664
 30
0.0
 11
11923.19395691447
 21
2310.370545170664
 31
0.0
  0
LINE
  5
23B73
330
747D
100
AcDbEntity
  8
破線
  6
HIDDEN
 48
5.0
100
AcDbLine
 10
11938.19395691447
 20
2460.370545170664
 30
0.0
 11
11923.19395691447
 21
2312.670545170664
 31
0.0
  0
LINE
  5
23B74
330
747D
100
AcDbEntity
  8
破線
  6
HIDDEN
 48
5.0
100
AcDbLine
 10
11923.19395691447
 20
2312.670545170664
 30
0.0
 11
11923.19395691447
 21
2310.370545170664
 31
0.0
  0
LINE
  5
23B75
330
747D
100
AcDbEntity
  8
破線
  6
HIDDEN
 48
5.0
100
AcDbLine
 10
11978.19395691447
 20
2460.370545170664
 30
0.0
 11
11993.19395691447
 21
2312.670545170664
 31
0.0
  0
LINE
  5
23B76
330
747D
100
AcDbEntity
  8
破線
  6
HIDDEN
 48
5.0
100
AcDbLine
 10
11993.19395691447
 20
2312.670545170664
 30
0.0
 11
11993.19395691447
 21
2310.370545170664
 31
0.0
  0
LINE
  5
23B77
330
747D
100
AcDbEntity
  8
破線
  6
HIDDEN
 48
5.0
100
AcDbLine
 10
9348.193956914474
 20
2310.370545170663
 30
0.0
 11
9418.193956914475
 21
2310.370545170663
 31
0.0
  0
LINE
  5
23B78
330
747D
100
AcDbEntity
  8
破線
  6
HIDDEN
 48
5.0
100
AcDbLine
 10
9348.193956914474
 20
2312.670545170662
 30
0.0
 11
9348.193956914474
 21
2310.370545170663
 31
0.0
  0
LINE
  5
23B79
330
747D
100
AcDbEntity
  8
破線
  6
HIDDEN
 48
5.0
100
AcDbLine
 10
9418.193956914475
 20
2312.670545170662
 30
0.0
 11
9418.193956914475
 21
2310.370545170663
 31
0.0
  0
LINE
  5
23B7A
330
747D
100
AcDbEntity
  8
破線
  6
HIDDEN
 48
5.0
100
AcDbLine
 10
9363.193956914475
 20
2460.370545170663
 30
0.0
 11
9348.193956914474
 21
2312.670545170662
 31
0.0
  0
LINE
  5
23B7B
330
747D
100
AcDbEntity
  8
破線
  6
HIDDEN
 48
5.0
100
AcDbLine
 10
9403.193956914474
 20
2460.370545170663
 30
0.0
 11
9418.193956914475
 21
2312.670545170662
 31
0.0
  0
LINE
  5
23B7C
330
747D
100
AcDbEntity
  8
部品1
 48
50.0
100
AcDbLine
 10
9363.193956914475
 20
2605.370545170663
 30
0.0
 11
9363.193956914475
 21
2465.370545170663
 31
0.0
  0
LINE
  5
23B7D
330
747D
100
AcDbEntity
  8
部品1
 48
50.0
100
AcDbLine
 10
9403.193956914474
 20
2605.370545170663
 30
0.0
 11
9403.193956914474
 21
2465.370545170663
 31
0.0
  0
LINE
  5
23B7E
330
747D
100
AcDbEntity
  8
部品1
100
AcDbLine
 10
9368.193956914474
 20
2610.370545170663
 30
0.0
 11
9398.193956914473
 21
2610.370545170663
 31
0.0
  0
ARC
  5
23B7F
330
747D
100
AcDbEntity
  8
部品1
 48
50.0
100
AcDbCircle
 10
9368.193956914474
 20
2605.370545170663
 30
0.0
 40
5.0
100
AcDbArc
 50
90.0
 51
180.0
  0
ARC
  5
23B80
330
747D
100
AcDbEntity
  8
部品1
 48
50.0
100
AcDbCircle
 10
9398.193956914473
 20
2605.370545170663
 30
0.0
 40
5.0
100
AcDbArc
 50
0.0
 51
90.0
  0
LINE
  5
23B81
330
747D
100
AcDbEntity
  8
部品1
 48
50.0
100
AcDbLine
 10
11938.19395691447
 20
2605.370545170664
 30
0.0
 11
11938.19395691447
 21
2465.370545170664
 31
0.0
  0
LINE
  5
23B82
330
747D
100
AcDbEntity
  8
部品1
 48
50.0
100
AcDbLine
 10
11978.19395691447
 20
2605.370545170664
 30
0.0
 11
11978.19395691447
 21
2465.370545170664
 31
0.0
  0
LINE
  5
23B83
330
747D
100
AcDbEntity
  8
部品1
100
AcDbLine
 10
11973.19395691447
 20
2610.370545170664
 30
0.0
 11
11943.19395691447
 21
2610.370545170664
 31
0.0
  0
ARC
  5
23B84
330
747D
100
AcDbEntity
  8
部品1
 48
50.0
100
AcDbCircle
 10
11943.19395691447
 20
2605.370545170664
 30
0.0
 40
5.0
100
AcDbArc
 50
90.0
 51
180.0
  0
ARC
  5
23B85
330
747D
100
AcDbEntity
  8
部品1
 48
50.0
100
AcDbCircle
 10
11973.19395691447
 20
2605.370545170664
 30
0.0
 40
5.0
100
AcDbArc
 50
0.0
 51
90.0
  0
LINE
  5
23B86
330
747D
100
AcDbEntity
  8
破線
  6
HIDDEN
 48
5.0
100
AcDbLine
 10
11938.19395691447
 20
2465.370545170664
 30
0.0
 11
11938.19395691447
 21
2460.370545170664
 31
0.0
  0
LINE
  5
23B87
330
747D
100
AcDbEntity
  8
破線
  6
HIDDEN
 48
5.0
100
AcDbLine
 10
11978.19395691447
 20
2465.370545170664
 30
0.0
 11
11978.19395691447
 21
2460.370545170664
 31
0.0
  0
LINE
  5
23B88
330
747D
100
AcDbEntity
  8
破線
  6
HIDDEN
 48
5.0
100
AcDbLine
 10
9363.193956914482
 20
2465.370545170663
 30
0.0
 11
9363.193956914482
 21
2460.370545170663
 31
0.0
  0
LINE
  5
23B89
330
747D
100
AcDbEntity
  8
破線
  6
HIDDEN
 48
5.0
100
AcDbLine
 10
9403.193956914474
 20
2465.370545170663
 30
0.0
 11
9403.193956914474
 21
2460.370545170663
 31
0.0
  0
LINE
  5
23B8A
330
747D
100
AcDbEntity
  8
部品1
100
AcDbLine
 10
11978.19395691447
 20
2565.370545170664
 30
0.0
 11
11985.69395691448
 21
2565.370545170664
 31
0.0
  0
LINE
  5
23B8B
330
747D
100
AcDbEntity
  8
部品1
100
AcDbLine
 10
9403.193956914474
 20
2565.370545170663
 30
0.0
 11
11938.19395691447
 21
2565.370545170663
 31
0.0
  0
TEXT
  5
23B8C
330
747D
100
AcDbEntity
  8
部品1
100
AcDbText
 10
10388.40472522386
 20
1522.496987682321
 30
0.0
 40
135.0
  1
側面図
  7
STYLE2
100
AcDbText
  0
LWPOLYLINE
  5
23B8D
330
747D
100
AcDbEntity
  8
部品1
100
AcDbPolyline
 90
        4
 70
     1
 43
0.0
 10
10298.95862380025
 20
1715.390516900844
 10
10298.95862380025
 20
1475.498195355311
 10
11062.42929002869
 20
1475.498195355311
 10
11062.42929002869
 20
1715.390516900844
  0
LINE
  5
23B8E
330
747D
100
AcDbEntity
  8
細線
 48
50.0
100
AcDbLine
 10
9908.193956914475
 20
4405.370545170662
 30
0.0
 11
9908.193956914475
 21
2615.370545170663
 31
0.0
  0
LINE
  5
23B8F
330
747D
100
AcDbEntity
  8
細線
 48
50.0
100
AcDbLine
 10
9893.193956914474
 20
4405.370545170662
 30
0.0
 11
9893.193956914474
 21
2615.370545170663
 31
0.0
  0
LINE
  5
23B90
330
747D
100
AcDbEntity
  8
細線
 48
50.0
100
AcDbLine
 10
10033.19395691447
 20
4405.370545170662
 30
0.0
 11
10033.19395691447
 21
2615.370545170663
 31
0.0
  0
LINE
  5
23B91
330
747D
100
AcDbEntity
  8
細線
 48
50.0
100
AcDbLine
 10
10048.19395691447
 20
4405.370545170662
 30
0.0
 11
10048.19395691447
 21
2615.370545170663
 31
0.0
  0
LINE
  5
23B92
330
747D
100
AcDbEntity
  8
細線
 48
50.0
100
AcDbLine
 10
10188.19395691447
 20
4405.370545170662
 30
0.0
 11
10188.19395691447
 21
2615.370545170663
 31
0.0
  0
LINE
  5
23B93
330
747D
100
AcDbEntity
  8
細線
 48
50.0
100
AcDbLine
 10
10173.19395691447
 20
4405.370545170662
 30
0.0
 11
10173.19395691447
 21
2615.370545170663
 31
0.0
  0
LINE
  5
23B94
330
747D
100
AcDbEntity
  8
細線
 48
50.0
100
AcDbLine
 10
9753.193956914474
 20
4405.370545170662
 30
0.0
 11
9753.193956914474
 21
2615.370545170663
 31
0.0
  0
LINE
  5
23B95
330
747D
100
AcDbEntity
  8
細線
 48
50.0
100
AcDbLine
 10
9768.193956914474
 20
4405.370545170662
 30
0.0
 11
9768.193956914474
 21
2615.370545170663
 31
0.0
  0
LINE
  5
23B96
330
747D
100
AcDbEntity
  8
細線
 48
50.0
100
AcDbLine
 10
9628.193956914474
 20
4405.370545170662
 30
0.0
 11
9628.193956914474
 21
2615.370545170663
 31
0.0
  0
LINE
  5
23B97
330
747D
100
AcDbEntity
  8
細線
 48
50.0
100
AcDbLine
 10
9613.193956914475
 20
4405.370545170662
 30
0.0
 11
9613.193956914475
 21
2615.370545170663
 31
0.0
  0
LINE
  5
23B98
330
747D
100
AcDbEntity
  8
細線
 48
50.0
100
AcDbLine
 10
9473.193956914474
 20
4405.370545170662
 30
0.0
 11
9473.193956914474
 21
2615.370545170663
 31
0.0
  0
LINE
  5
23B99
330
747D
100
AcDbEntity
  8
細線
 48
50.0
100
AcDbLine
 10
9488.193956914475
 20
4405.370545170662
 30
0.0
 11
9488.193956914475
 21
2615.370545170663
 31
0.0
  0
DIMENSION
  5
23B9A
330
747D
100
AcDbEntity
  8
寸法
 48
50.0
100
AcDbDimension
  2
*D29
 10
12065.69395691447
 20
5039.027998749968
 30
0.0
 11
12271.74120100896
 21
5039.027998749968
 31
0.0
 70
   160
 71
     5
 42
80.0
  3
INABA_S40G
100
AcDbAlignedDimension
 13
11985.69395691447
 23
4587.181224782317
 33
0.0
 14
12065.69395691447
 24
4585.370545170664
 34
0.0
100
AcDbRotatedDimension
1001
ACAD
1000
DSTYLE
1002
{
1070
   174
1070
     0
1070
   272
1070
     1
1070
   288
1070
     0
1070
   341
1005
0
1002
}
  0
LINE
  5
23B9B
330
747D
100
AcDbEntity
  8
部品1
100
AcDbLine
 10
10250.69395691447
 20
4405.370545170662
 30
0.0
 11
10250.69395691447
 21
2615.370545170663
 31
0.0
  0
LINE
  5
23B9C
330
747D
100
AcDbEntity
  8
細線
 48
50.0
100
AcDbLine
 10
10593.19395691447
 20
4405.370545170662
 30
0.0
 11
10593.19395691447
 21
2615.370545170663
 31
0.0
  0
LINE
  5
23B9D
330
747D
100
AcDbEntity
  8
細線
 48
50.0
100
AcDbLine
 10
10608.19395691448
 20
4405.370545170662
 30
0.0
 11
10608.19395691448
 21
2615.370545170663
 31
0.0
  0
LINE
  5
23B9E
330
747D
100
AcDbEntity
  8
細線
 48
50.0
100
AcDbLine
 10
10468.19395691447
 20
4405.370545170662
 30
0.0
 11
10468.19395691447
 21
2615.370545170663
 31
0.0
  0
LINE
  5
23B9F
330
747D
100
AcDbEntity
  8
細線
 48
50.0
100
AcDbLine
 10
10453.19395691448
 20
4405.370545170662
 30
0.0
 11
10453.19395691448
 21
2615.370545170663
 31
0.0
  0
LINE
  5
23BA0
330
747D
100
AcDbEntity
  8
細線
 48
50.0
100
AcDbLine
 10
10313.19395691448
 20
4405.370545170662
 30
0.0
 11
10313.19395691448
 21
2615.370545170663
 31
0.0
  0
LINE
  5
23BA1
330
747D
100
AcDbEntity
  8
細線
 48
50.0
100
AcDbLine
 10
10328.19395691447
 20
4405.370545170662
 30
0.0
 11
10328.19395691447
 21
2615.370545170663
 31
0.0
  0
LINE
  5
23BA2
330
747D
100
AcDbEntity
  8
部品1
100
AcDbLine
 10
10670.69395691447
 20
4405.370545170662
 30
0.0
 11
10670.69395691447
 21
2615.370545170663
 31
0.0
  0
LINE
  5
23BA3
330
747D
100
AcDbEntity
  8
細線
 48
50.0
100
AcDbLine
 10
11588.19395691448
 20
4405.370545170664
 30
0.0
 11
11588.19395691448
 21
2615.370545170664
 31
0.0
  0
LINE
  5
23BA4
330
747D
100
AcDbEntity
  8
細線
 48
50.0
100
AcDbLine
 10
11573.19395691448
 20
4405.370545170664
 30
0.0
 11
11573.19395691448
 21
2615.370545170664
 31
0.0
  0
LINE
  5
23BA5
330
747D
100
AcDbEntity
  8
細線
 48
50.0
100
AcDbLine
 10
11713.19395691448
 20
4405.370545170664
 30
0.0
 11
11713.19395691448
 21
2615.370545170664
 31
0.0
  0
LINE
  5
23BA6
330
747D
100
AcDbEntity
  8
細線
 48
50.0
100
AcDbLine
 10
11728.19395691448
 20
4405.370545170664
 30
0.0
 11
11728.19395691448
 21
2615.370545170664
 31
0.0
  0
LINE
  5
23BA7
330
747D
100
AcDbEntity
  8
細線
 48
50.0
100
AcDbLine
 10
11868.19395691448
 20
4405.370545170664
 30
0.0
 11
11868.19395691448
 21
2615.370545170664
 31
0.0
  0
LINE
  5
23BA8
330
747D
100
AcDbEntity
  8
細線
 48
50.0
100
AcDbLine
 10
11853.19395691448
 20
4405.370545170664
 30
0.0
 11
11853.19395691448
 21
2615.370545170664
 31
0.0
  0
DIMENSION
  5
23BA9
330
747D
100
AcDbEntity
  8
寸法
 48
50.0
100
AcDbDimension
  2
*D30
 10
8735.085550146115
 20
4514.715804043994
 30
0.0
 11
8745.751025405038
 21
4885.562467285693
 31
0.0
 70
   161
 71
     5
 42
141.0
  3
INABA_S40G
100
AcDbAlignedDimension
 13
9315.089977073055
 23
4639.093294005342
 33
0.0
 14
9311.036521516427
 24
4498.15157023963
 34
0.0
1001
ACAD
1000
DSTYLE
1002
{
1070
   174
1070
     0
1070
   272
1070
     1
1070
   288
1070
     0
1070
   341
1005
0
1002
}
  0
DIMENSION
  5
23BAA
330
747D
100
AcDbEntity
  8
寸法
 48
50.0
100
AcDbDimension
  2
*D31
 10
9133.69395366784
 20
2465.370545170663
 30
0.0
 11
9133.69395366784
 21
2365.370545170664
 31
0.0
 70
   160
 71
     5
 42
200.0000000000018
  3
INABA_S40G
100
AcDbAlignedDimension
 13
9283.193956914479
 23
2265.370545170661
 33
0.0
 14
9258.193956914475
 24
2465.370545170663
 34
0.0
 50
90.0
100
AcDbRotatedDimension
1001
ACAD
1000
DSTYLE
1002
{
1070
   174
1070
     0
1070
   272
1070
     1
1070
   288
1070
     0
1070
   341
1005
0
1002
}
  0
LINE
  5
23BAB
330
747D
100
AcDbEntity
  8
破線
 48
5.0
100
AcDbLine
 10
9483.193956914474
 20
2265.370545170661
 30
0.0
 11
9283.193956914479
 21
2265.370545170661
 31
0.0
  0
LINE
  5
23BAC
330
747D
100
AcDbEntity
  8
破線
 48
5.0
100
AcDbLine
 10
9483.193956914474
 20
2465.370545170663
 30
0.0
 11
9483.193956914474
 21
2265.370545170661
 31
0.0
  0
LINE
  5
23BAD
330
747D
100
AcDbEntity
  8
破線
 48
5.0
100
AcDbLine
 10
9283.193956914475
 20
2465.370545170663
 30
0.0
 11
9283.193956914479
 21
2265.370545170661
 31
0.0
  0
DIMENSION
  5
23BAE
330
747D
100
AcDbEntity
  8
寸法
 48
50.0
100
AcDbDimension
  2
*D32
 10
9283.193956914479
 20
1979.323215870285
 30
0.0
 11
9383.193956914476
 21
1979.323215870285
 31
0.0
 70
   160
 71
     5
 42
199.9999999999963
  3
INABA_S40G
100
AcDbAlignedDimension
 13
9483.193956914474
 23
2265.370545170661
 33
0.0
 14
9283.193956914479
 24
2265.370545170661
 34
0.0
100
AcDbRotatedDimension
  0
LINE
  5
23BAF
330
747D
100
AcDbEntity
  8
破線
 48
5.0
100
AcDbLine
 10
12058.19395691448
 20
2465.370545170664
 30
0.0
 11
12058.19395691448
 21
2265.370545170662
 31
0.0
  0
LINE
  5
23BB0
330
747D
100
AcDbEntity
  8
破線
 48
5.0
100
AcDbLine
 10
12058.19395691448
 20
2265.370545170662
 30
0.0
 11
11858.19395691448
 21
2265.370545170663
 31
0.0
  0
LINE
  5
23BB1
330
747D
100
AcDbEntity
  8
破線
 48
5.0
100
AcDbLine
 10
11858.19395691448
 20
2465.370545170664
 30
0.0
 11
11858.19395691448
 21
2265.370545170663
 31
0.0
  0
LINE
  5
24233
330
747D
100
AcDbEntity
  8
破線
 48
10.0
100
AcDbLine
 10
6676.896575107052
 20
8181.529129654816
 30
0.0
 11
5686.396575107012
 21
8181.529129654739
 31
0.0
  0
LINE
  5
24234
330
747D
100
AcDbEntity
  8
破線
 48
10.0
100
AcDbLine
 10
6676.896575107059
 20
8131.529129654813
 30
0.0
 11
5686.396575107012
 21
8131.529129654738
 31
0.0
  0
LINE
  5
24235
330
747D
100
AcDbEntity
  8
破線
 48
10.0
100
AcDbLine
 10
6676.896575107136
 20
8936.529129654815
 30
0.0
 11
5686.396575107012
 21
8936.529129654738
 31
0.0
  0
LINE
  5
24236
330
747D
100
AcDbEntity
  8
破線
 48
10.0
100
AcDbLine
 10
6676.896575107128
 20
8986.529129654815
 30
0.0
 11
5686.396575107012
 21
8986.529129654739
 31
0.0
  0
LINE
  5
24237
330
747D
100
AcDbEntity
  8
破線
 48
10.0
100
AcDbLine
 10
5709.896575106963
 20
8936.52912965474
 30
0.0
 11
5709.896575106991
 21
8181.529129654739
 31
0.0
  0
LINE
  5
24388
330
747D
100
AcDbEntity
  8
部品1
100
AcDbLine
 10
7131.896575107017
 20
8101.529129654833
 30
0.0
 11
7159.896575107016
 21
8101.529129654833
 31
0.0
  0
LINE
  5
24389
330
747D
100
AcDbEntity
  8
部品1
100
AcDbLine
 10
5657.896575106971
 20
8101.529129654704
 30
0.0
 11
5629.896575106972
 21
8101.529129654704
 31
0.0
  0
LWPOLYLINE
  5
243F6
330
747D
100
AcDbEntity
  8
部品1
 48
50.0
100
AcDbPolyline
 90
        4
 70
     1
 43
0.0
 10
5749.946575106991
 20
3485.620545170674
 10
5752.846575106993
 20
3485.620545170674
 10
5752.846575106993
 20
3495.120545170674
 10
5749.946575106991
 20
3495.120545170674
  0
CIRCLE
  5
243F7
330
747D
100
AcDbEntity
  8
部品1
 48
50.0
100
AcDbCircle
 10
5751.396575106991
 20
3490.370545170674
 30
0.0
 40
9.0
  0
ARC
  5
243F8
330
747D
100
AcDbEntity
  8
細線
 48
50.0
100
AcDbCircle
 10
5751.396575106991
 20
3490.370545170674
 30
0.0
 40
4.0
100
AcDbArc
 50
111.2538091853132
 51
248.7461908146868
  0
ARC
  5
243F9
330
747D
100
AcDbEntity
  8
細線
 48
50.0
100
AcDbCircle
 10
5751.396575106991
 20
3490.370545170674
 30
0.0
 40
17.5
100
AcDbArc
 50
306.4837370612677
 51
233.5162629387323
  0
LINE
  5
243FA
330
747D
100
AcDbEntity
  8
細線
 48
50.0
100
AcDbLine
 10
5761.396575106989
 20
3466.511584589792
 30
0.0
 11
5761.396575106992
 21
3475.496070390033
 31
0.0
  0
LINE
  5
243FB
330
747D
100
AcDbEntity
  8
細線
 48
50.0
100
AcDbLine
 10
5741.396575106992
 20
3466.511584589793
 30
0.0
 11
5741.396575106992
 21
3475.496070390029
 31
0.0
  0
ARC
  5
243FC
330
747D
100
AcDbEntity
  8
細線
 48
50.0
100
AcDbCircle
 10
5751.396575106991
 20
3490.370545170674
 30
0.0
 40
26.5
100
AcDbArc
 50
249.3326835063939
 51
290.6673164933835
  0
ARC
  5
243FD
330
747D
100
AcDbEntity
  8
細線
 48
50.0
100
AcDbCircle
 10
5760.396575106984
 20
3466.511584589792
 30
0.0
 40
1.0
100
AcDbArc
 50
290.6673164936062
 51
359.9999999998958
  0
ARC
  5
243FE
330
747D
100
AcDbEntity
  8
細線
 48
50.0
100
AcDbCircle
 10
5742.396575106992
 20
3466.511584589793
 30
0.0
 40
1.0
100
AcDbArc
 50
180.0
 51
249.3326835066164
  0
ARC
  5
243FF
330
747D
100
AcDbEntity
  8
細線
 48
50.0
100
AcDbCircle
 10
5740.396575106991
 20
3475.496070390029
 30
0.0
 40
1.0
100
AcDbArc
 50
0.0
 51
53.51626293873231
  0
ARC
  5
24400
330
747D
100
AcDbEntity
  8
細線
 48
50.0
100
AcDbCircle
 10
5762.396575106995
 20
3475.496070390033
 30
0.0
 40
1.0
100
AcDbArc
 50
126.4837370615127
 51
180.0
  0
ARC
  5
24401
330
747D
100
AcDbEntity
  8
細線
 48
50.0
100
AcDbCircle
 10
5751.396575106991
 20
3490.370545170674
 30
0.0
 40
21.5
100
AcDbArc
 50
255.8014401250294
 51
284.1985598749706
  0
ARC
  5
24402
330
747D
100
AcDbEntity
  8
細線
 48
50.0
100
AcDbCircle
 10
5751.396575106991
 20
3490.370545170674
 30
0.0
 40
16.5
100
AcDbArc
 50
251.9694646069326
 51
288.0305353930674
  0
LINE
  5
24403
330
747D
100
AcDbEntity
  8
細線
 48
50.0
100
AcDbLine
 10
5756.896575106992
 20
3469.818173044867
 30
0.0
 11
5756.896575106992
 21
3474.395564732204
 31
0.0
  0
LINE
  5
24404
330
747D
100
AcDbEntity
  8
細線
 48
50.0
100
AcDbLine
 10
5745.896575106992
 20
3469.818173044867
 30
0.0
 11
5745.896575106992
 21
3474.395564732203
 31
0.0
  0
ARC
  5
24405
330
747D
100
AcDbEntity
  8
細線
 48
50.0
100
AcDbCircle
 10
5746.196575106995
 20
3474.395564732203
 30
0.0
 40
0.3
100
AcDbArc
 50
71.96946460693259
 51
180.0
  0
ARC
  5
24406
330
747D
100
AcDbEntity
  8
細線
 48
50.0
100
AcDbCircle
 10
5756.596575106993
 20
3474.395564732204
 30
0.0
 40
0.3
100
AcDbArc
 50
0.0
 51
108.0305353930674
  0
ARC
  5
24407
330
747D
100
AcDbEntity
  8
細線
 48
50.0
100
AcDbCircle
 10
5756.596575106989
 20
3469.818173044867
 30
0.0
 40
0.3
100
AcDbArc
 50
284.1985598747622
 51
0.0000000001042204
  0
ARC
  5
24408
330
747D
100
AcDbEntity
  8
細線
 48
50.0
100
AcDbCircle
 10
5746.196575106995
 20
3469.818173044867
 30
0.0
 40
0.3
100
AcDbArc
 50
180.0
 51
255.8014401248081
  0
CIRCLE
  5
24409
330
747D
100
AcDbEntity
  8
細線
 48
50.0
100
AcDbCircle
 10
5751.396575106991
 20
3490.370545170674
 30
0.0
 40
12.0
  0
ARC
  5
2440A
330
747D
100
AcDbEntity
  8
部品1
 48
50.0
100
AcDbCircle
 10
5751.396575106991
 20
3540.370545170674
 30
0.0
 40
8.5
100
AcDbArc
 50
114.315739171091
 51
245.684260828909
  0
CIRCLE
  5
2440B
330
747D
100
AcDbEntity
  8
細線
 48
50.0
100
AcDbCircle
 10
5751.396575106991
 20
3540.370545170674
 30
0.0
 40
4.5
  0
LWPOLYLINE
  5
2440C
330
747D
100
AcDbEntity
  8
部品1
 48
50.0
100
AcDbPolyline
 90
        2
 70
     0
 43
0.0
 10
5747.896575106992
 20
3559.045394567657
 10
5747.896575106992
 20
3548.116511863089
  0
CIRCLE
  5
2440D
330
747D
100
AcDbEntity
  8
部品1
 48
50.0
100
AcDbCircle
 10
5751.396575106991
 20
3540.370545170674
 30
0.0
 40
19.0
  0
LWPOLYLINE
  5
2440E
330
747D
100
AcDbEntity
  8
部品1
 48
50.0
100
AcDbPolyline
 90
        2
 70
     0
 43
0.0
 10
5747.896575106992
 20
3532.624578478259
 10
5747.896575106992
 20
3521.695695773692
  0
LWPOLYLINE
  5
2440F
330
747D
100
AcDbEntity
  8
部品1
 48
50.0
100
AcDbPolyline
 90
        2
 70
     0
 43
0.0
 10
5754.896575106992
 20
3548.116511863089
 10
5754.896575106992
 20
3559.045394567657
  0
ARC
  5
24410
330
747D
100
AcDbEntity
  8
部品1
 48
50.0
100
AcDbCircle
 10
5751.396575106991
 20
3540.370545170674
 30
0.0
 40
8.5
100
AcDbArc
 50
294.315739171091
 51
65.68426082890896
  0
LWPOLYLINE
  5
24411
330
747D
100
AcDbEntity
  8
部品1
 48
50.0
100
AcDbPolyline
 90
        2
 70
     0
 43
0.0
 10
5754.896575106992
 20
3521.695695773692
 10
5754.896575106992
 20
3532.624578478259
  0
ARC
  5
24412
330
747D
100
AcDbEntity
  8
細線
 48
50.0
100
AcDbCircle
 10
5751.396575106991
 20
3540.370545170674
 30
0.0
 40
16.5
100
AcDbArc
 50
332.0012352654438
 51
27.99876473455621
  0
ARC
  5
24413
330
747D
100
AcDbEntity
  8
細線
 48
50.0
100
AcDbCircle
 10
5751.396575106991
 20
3540.370545170674
 30
0.0
 40
14.0
100
AcDbArc
 50
326.4074436112986
 51
33.59255638870134
  0
LINE
  5
24414
330
747D
100
AcDbEntity
  8
細線
 48
50.0
100
AcDbLine
 10
5736.82777282266
 20
3548.116511863089
 30
0.0
 11
5739.734671317303
 21
3548.116511863089
 31
0.0
  0
LINE
  5
24415
330
747D
100
AcDbEntity
  8
細線
 48
50.0
100
AcDbLine
 10
5736.82777282266
 20
3532.624578478259
 30
0.0
 11
5739.734671317303
 21
3532.624578478259
 31
0.0
  0
LINE
  5
24416
330
747D
100
AcDbEntity
  8
細線
 48
50.0
100
AcDbLine
 10
5763.058478896681
 20
3548.116511863089
 30
0.0
 11
5765.965377391327
 21
3548.116511863089
 31
0.0
  0
LINE
  5
24417
330
747D
100
AcDbEntity
  8
細線
 48
50.0
100
AcDbLine
 10
5763.058478896681
 20
3532.624578478259
 30
0.0
 11
5765.965377391327
 21
3532.624578478259
 31
0.0
  0
ARC
  5
24418
330
747D
100
AcDbEntity
  8
細線
 48
50.0
100
AcDbCircle
 10
5751.396575106991
 20
3540.370545170674
 30
0.0
 40
14.0
100
AcDbArc
 50
146.4074436112986
 51
213.5925563887013
  0
ARC
  5
24419
330
747D
100
AcDbEntity
  8
細線
 48
50.0
100
AcDbCircle
 10
5751.396575106991
 20
3540.370545170674
 30
0.0
 40
16.5
100
AcDbArc
 50
152.0012352654438
 51
207.9987647345562
  0
ARC
  5
2441A
330
747D
100
AcDbEntity
  8
部品1
 48
50.0
100
AcDbCircle
 10
5724.896575106992
 20
3565.870545170675
 30
0.0
 40
5.0
100
AcDbArc
 50
90.0
 51
180.0
  0
ARC
  5
2441B
330
747D
100
AcDbEntity
  8
部品1
 48
50.0
100
AcDbCircle
 10
5724.896575106992
 20
3454.870545170674
 30
0.0
 40
5.0
100
AcDbArc
 50
180.0
 51
270.0
  0
ARC
  5
2441C
330
747D
100
AcDbEntity
  8
部品1
 48
50.0
100
AcDbCircle
 10
5777.896575106992
 20
3454.870545170674
 30
0.0
 40
5.0
100
AcDbArc
 50
270.0
 51
0.0
  0
ARC
  5
2441D
330
747D
100
AcDbEntity
  8
部品1
 48
50.0
100
AcDbCircle
 10
5777.896575106992
 20
3565.870545170675
 30
0.0
 40
5.0
100
AcDbArc
 50
0.0
 51
90.0
  0
LINE
  5
2441E
330
747D
100
AcDbEntity
  8
部品1
 48
50.0
100
AcDbLine
 10
5719.896575106992
 20
3454.870545170674
 30
0.0
 11
5719.896575106992
 21
3565.870545170675
 31
0.0
  0
LINE
  5
2441F
330
747D
100
AcDbEntity
  8
部品1
 48
50.0
100
AcDbLine
 10
5777.896575106992
 20
3449.870545170674
 30
0.0
 11
5724.896575106992
 21
3449.870545170674
 31
0.0
  0
LINE
  5
24420
330
747D
100
AcDbEntity
  8
部品1
 48
50.0
100
AcDbLine
 10
5782.896575106992
 20
3565.870545170675
 30
0.0
 11
5782.896575106992
 21
3454.870545170674
 31
0.0
  0
ENDSEC
  0
SECTION
  2
OBJECTS
  0
DICTIONARY
  5
7471
330
0
100
AcDbDictionary
281
     1
  3
ACAD_COLOR
350
159B0
  3
ACAD_GROUP
350
7472
  3
ACAD_LAYOUT
350
159B1
  3
ACAD_MATERIAL
350
159AF
  3
ACAD_MLINESTYLE
350
7473
  3
ACAD_PLOTSETTINGS
350
159B2
  3
ACAD_PLOTSTYLENAME
350
159AD
  3
ACDBHEADERROUNDTRIPXREC
350
2442F
  3
AcDbVariableDictionary
350
2442B
  3
CONTENTDICTIONARY
350
E71C
  3
DRAWINGVARIABLESDICT
350
F3B9
  0
DICTIONARY
  5
1C640
330
7467
100
AcDbDictionary
280
     1
281
     1
  3
ACAD_LAYERSTATES
360
1C641
  0
DICTIONARY
  5
159B0
102
{ACAD_REACTORS
330
7471
102
}
330
7471
100
AcDbDictionary
281
     1
  0
DICTIONARY
  5
7472
102
{ACAD_REACTORS
330
7471
102
}
330
7471
100
AcDbDictionary
281
     1
  0
DICTIONARY
  5
159B1
102
{ACAD_REACTORS
330
7471
102
}
330
7471
100
AcDbDictionary
281
     1
  3
Model
350
159B3
  3
レイアウト1
350
159B4
  0
DICTIONARY
  5
159AF
102
{ACAD_REACTORS
330
7471
102
}
330
7471
100
AcDbDictionary
281
     1
  0
DICTIONARY
  5
7473
102
{ACAD_REACTORS
330
7471
102
}
330
7471
100
AcDbDictionary
281
     1
  3
STANDARD
350
7480
  0
DICTIONARY
  5
159B2
102
{ACAD_REACTORS
330
7471
102
}
330
7471
100
AcDbDictionary
281
     1
  0
ACDBDICTIONARYWDFLT
  5
159AD
102
{ACAD_REACTORS
330
7471
102
}
330
7471
100
AcDbDictionary
281
     1
  3
Normal
350
159AE
100
AcDbDictionaryWithDefault
340
159AE
  0
DICTIONARY
  5
2442F
102
{ACAD_REACTORS
330
7471
102
}
330
7471
100
AcDbDictionary
281
     1
  3
COLORDICT
350
24431
  3
MATERIALDICT
350
24430
  0
DICTIONARY
  5
2442B
102
{ACAD_REACTORS
330
7471
102
}
330
7471
100
AcDbDictionary
281
     1
  3
DIMASSOC
350
2442C
  3
PROJECTNAME
350
2442D
  0
DICTIONARY
  5
E71C
102
{ACAD_REACTORS
330
7471
102
}
330
7471
100
AcDbDictionary
281
     1
  0
DICTIONARY
  5
F3B9
102
{ACAD_REACTORS
330
7471
102
}
330
7471
100
AcDbDictionary
281
     1
1001
DRAWINGVARIABLESXDATA
1000
POLARMODE
1000
1
  0
DICTIONARY
  5
1C641
102
{ACAD_REACTORS
330
1C640
102
}
330
1C640
100
AcDbDictionary
281
     1
  0
LAYOUT
  5
159B3
102
{ACAD_XDICTIONARY
360
24432
102
}
102
{ACAD_REACTORS
330
159B1
102
}
330
159B1
100
AcDbPlotSettings
  1

  2
none_device
  4
Letter_(8.50_x_11.00_Inches)
  6

 40
6.349999904632568
 41
6.349999904632568
 42
6.350006103515625
 43
6.350006103515625
 44
215.8999938964844
 45
279.3999938964844
 46
0.0
 47
0.0
 48
0.0
 49
0.0
140
0.0
141
0.0
142
1.0
143
1.0
 70
 11952
 72
     1
 73
     1
 74
     0
  7

 75
     0
147
1.0
148
-4149.571981164617
149
65.56433826894044
100
AcDbLayout
  1
Model
 70
     1
 71
     0
 10
0.0
 20
0.0
 11
12.0
 21
9.0
 12
0.0
 22
0.0
 32
0.0
 14
0.0
 24
0.0
 34
0.0
 15
0.0
 25
0.0
 35
0.0
146
0.0
 13
0.0
 23
0.0
 33
0.0
 16
1.0
 26
0.0
 36
0.0
 17
0.0
 27
1.0
 37
0.0
 76
     0
330
747D
  0
LAYOUT
  5
159B4
102
{ACAD_XDICTIONARY
360
24434
102
}
102
{ACAD_REACTORS
330
159B1
102
}
330
159B1
100
AcDbPlotSettings
  1

  2
自動 EPSON LP-8400FX (TATENO 上)
  4

  6

 40
0.0
 41
0.0
 42
0.0
 43
0.0
 44
0.0
 45
0.0
 46
0.0
 47
0.0
 48
0.0
 49
0.0
140
0.0
141
0.0
142
1.0
143
1.0
 70
   688
 72
     0
 73
     0
 74
     5
  7
inaba.ctb
 75
    16
147
1.0
148
0.0
149
0.0
100
AcDbLayout
  1
レイアウト1
 70
     0
 71
     1
 10
0.0
 20
0.0
 11
420.0
 21
297.0
 12
0.0
 22
0.0
 32
0.0
 14
1.000000000000000E+20
 24
1.000000000000000E+20
 34
1.000000000000000E+20
 15
-1.000000000000000E+20
 25
-1.000000000000000E+20
 35
-1.000000000000000E+20
146
0.0
 13
0.0
 23
0.0
 33
0.0
 16
1.0
 26
0.0
 36
0.0
 17
0.0
 27
1.0
 37
0.0
 76
     0
330
747A
  0
MLINESTYLE
  5
7480
102
{ACAD_REACTORS
330
7473
102
}
330
7473
100
AcDbMlineStyle
  2
STANDARD
 70
     0
  3

 62
     0
 51
90.0
 52
90.0
 71
     2
 49
0.5
 62
   256
  6
BYLAYER
 49
-0.5
 62
   256
  6
BYLAYER
  0
ACDBPLACEHOLDER
  5
159AE
102
{ACAD_REACTORS
330
159AD
102
}
330
159AD
  0
XRECORD
  5
24431
102
{ACAD_REACTORS
330
2442F
102
}
330
2442F
100
AcDbXrecord
280
     1
340
159B0
  0
XRECORD
  5
24430
102
{ACAD_REACTORS
330
2442F
102
}
330
2442F
100
AcDbXrecord
280
     1
340
159AF
  0
DICTIONARYVAR
  5
2442C
102
{ACAD_REACTORS
330
2442B
102
}
330
2442B
100
DictionaryVariables
280
     0
  1
1
  0
DICTIONARYVAR
  5
2442D
102
{ACAD_REACTORS
330
2442B
102
}
330
2442B
100
DictionaryVariables
280
     0
  1

  0
DICTIONARY
  5
24432
330
159B3
100
AcDbDictionary
280
     1
281
     1
  3
ACAD_XREC_ROUNDTRIP
360
24433
  0
DICTIONARY
  5
24434
330
159B4
100
AcDbDictionary
280
     1
281
     1
  3
ACAD_XREC_ROUNDTRIP
360
24435
  0
XRECORD
  5
24433
102
{ACAD_REACTORS
330
24432
102
}
330
24432
100
AcDbXrecord
280
     1
102
SHADEPLOT
 70
     0
102
SHADEPLOTRESLEVEL
 70
     2
102
SHADEPLOTCUSTOMDPI
 70
   300
  0
XRECORD
  5
24435
102
{ACAD_REACTORS
330
24434
102
}
330
24434
100
AcDbXrecord
280
     1
102
SHADEPLOT
 70
     0
102
SHADEPLOTRESLEVEL
 70
     2
102
SHADEPLOTCUSTOMDPI
 70
   300
  0
ENDSEC
  0
EOF
